  0
SECTION
  2
HEADER
  9
$ACADVER
  1
AC1015
  9
$ACADMAINTVER
 70
    20
  9
$DWGCODEPAGE
  3
ANSI_932
  9
$INSBASE
 10
0.0
 20
0.0
 30
0.0
  9
$EXTMIN
 10
139.9999999999995
 20
-0.0000000000000909
 30
0.0
  9
$EXTMAX
 10
16307.2
 20
11409.6
 30
0.0
  9
$LIMMIN
 10
0.0
 20
0.0
  9
$LIMMAX
 10
16800.0
 20
11880.0
  9
$ORTHOMODE
 70
     0
  9
$REGENMODE
 70
     1
  9
$FILLMODE
 70
     1
  9
$QTEXTMODE
 70
     0
  9
$MIRRTEXT
 70
     1
  9
$LTSCALE
 40
20.0
  9
$ATTMODE
 70
     1
  9
$TEXTSIZE
 40
4.0
  9
$TRACEWID
 40
1.0
  9
$TEXTSTYLE
  7
STYLE1
  9
$CLAYER
  8
細線
  9
$CELTYPE
  6
BYLAYER
  9
$CECOLOR
 62
   256
  9
$CELTSCALE
 40
50.0
  9
$DISPSILH
 70
     0
  9
$DIMSCALE
 40
40.0
  9
$DIMASZ
 40
2.5
  9
$DIMEXO
 40
0.5
  9
$DIMDLI
 40
7.0
  9
$DIMRND
 40
0.0
  9
$DIMDLE
 40
0.0
  9
$DIMEXE
 40
1.5
  9
$DIMTP
 40
0.0
  9
$DIMTM
 40
0.0
  9
$DIMTXT
 40
3.0
  9
$DIMCEN
 40
0.0
  9
$DIMTSZ
 40
0.0
  9
$DIMTOL
 70
     0
  9
$DIMLIM
 70
     0
  9
$DIMTIH
 70
     0
  9
$DIMTOH
 70
     0
  9
$DIMSE1
 70
     0
  9
$DIMSE2
 70
     0
  9
$DIMTAD
 70
     3
  9
$DIMZIN
 70
     8
  9
$DIMBLK
  1

  9
$DIMASO
 70
     1
  9
$DIMSHO
 70
     1
  9
$DIMPOST
  1

  9
$DIMAPOST
  1

  9
$DIMALT
 70
     0
  9
$DIMALTD
 70
     2
  9
$DIMALTF
 40
0.0394
  9
$DIMLFAC
 40
1.0
  9
$DIMTOFL
 70
     1
  9
$DIMTVP
 40
0.0
  9
$DIMTIX
 70
     1
  9
$DIMSOXD
 70
     0
  9
$DIMSAH
 70
     1
  9
$DIMBLK1
  1
DOTSMALL
  9
$DIMBLK2
  1
DOTSMALL
  9
$DIMSTYLE
  2
INABA_S40G
  9
$DIMCLRD
 70
     0
  9
$DIMCLRE
 70
     0
  9
$DIMCLRT
 70
     7
  9
$DIMTFAC
 40
1.0
  9
$DIMGAP
 40
1.0
  9
$DIMJUST
 70
     0
  9
$DIMSD1
 70
     0
  9
$DIMSD2
 70
     0
  9
$DIMTOLJ
 70
     1
  9
$DIMTZIN
 70
     0
  9
$DIMALTZ
 70
     0
  9
$DIMALTTZ
 70
     0
  9
$DIMUPT
 70
     0
  9
$DIMDEC
 70
     1
  9
$DIMTDEC
 70
     4
  9
$DIMALTU
 70
     2
  9
$DIMALTTD
 70
     2
  9
$DIMTXSTY
  7
STYLE1
  9
$DIMAUNIT
 70
     0
  9
$DIMADEC
 70
     0
  9
$DIMALTRND
 40
0.0
  9
$DIMAZIN
 70
     0
  9
$DIMDSEP
 70
    46
  9
$DIMATFIT
 70
     3
  9
$DIMFRAC
 70
     0
  9
$DIMLDRBLK
  1

  9
$DIMLUNIT
 70
     2
  9
$DIMLWD
 70
    -2
  9
$DIMLWE
 70
    -2
  9
$DIMTMOVE
 70
     0
  9
$LUNITS
 70
     2
  9
$LUPREC
 70
     1
  9
$SKETCHINC
 40
1.0
  9
$FILLETRAD
 40
3.0
  9
$AUNITS
 70
     0
  9
$AUPREC
 70
     0
  9
$MENU
  1
acad
  9
$ELEVATION
 40
0.0
  9
$PELEVATION
 40
0.0
  9
$THICKNESS
 40
0.0
  9
$LIMCHECK
 70
     0
  9
$CHAMFERA
 40
0.0
  9
$CHAMFERB
 40
0.0
  9
$CHAMFERC
 40
0.0
  9
$CHAMFERD
 40
0.0
  9
$SKPOLY
 70
     0
  9
$TDCREATE
 40
2451368.612993866
  9
$TDUCREATE
 40
2451368.237993866
  9
$TDUPDATE
 40
2455826.602076458
  9
$TDUUPDATE
 40
2455826.227076459
  9
$TDINDWG
 40
0.7983872685
  9
$TDUSRTIMER
 40
0.7983872685
  9
$USRTIMER
 70
     1
  9
$ANGBASE
 50
0.0
  9
$ANGDIR
 70
     0
  9
$PDMODE
 70
     3
  9
$PDSIZE
 40
2.0
  9
$PLINEWID
 40
0.0
  9
$SPLFRAME
 70
     0
  9
$SPLINETYPE
 70
     6
  9
$SPLINESEGS
 70
     8
  9
$HANDSEED
  5
296A5
  9
$SURFTAB1
 70
     6
  9
$SURFTAB2
 70
     6
  9
$SURFTYPE
 70
     6
  9
$SURFU
 70
     6
  9
$SURFV
 70
     6
  9
$UCSBASE
  2

  9
$UCSNAME
  2

  9
$UCSORG
 10
0.0
 20
0.0
 30
0.0
  9
$UCSXDIR
 10
1.0
 20
0.0
 30
0.0
  9
$UCSYDIR
 10
0.0
 20
1.0
 30
0.0
  9
$UCSORTHOREF
  2

  9
$UCSORTHOVIEW
 70
     0
  9
$UCSORGTOP
 10
0.0
 20
0.0
 30
0.0
  9
$UCSORGBOTTOM
 10
0.0
 20
0.0
 30
0.0
  9
$UCSORGLEFT
 10
0.0
 20
0.0
 30
0.0
  9
$UCSORGRIGHT
 10
0.0
 20
0.0
 30
0.0
  9
$UCSORGFRONT
 10
0.0
 20
0.0
 30
0.0
  9
$UCSORGBACK
 10
0.0
 20
0.0
 30
0.0
  9
$PUCSBASE
  2

  9
$PUCSNAME
  2

  9
$PUCSORG
 10
0.0
 20
0.0
 30
0.0
  9
$PUCSXDIR
 10
1.0
 20
0.0
 30
0.0
  9
$PUCSYDIR
 10
0.0
 20
1.0
 30
0.0
  9
$PUCSORTHOREF
  2

  9
$PUCSORTHOVIEW
 70
     0
  9
$PUCSORGTOP
 10
0.0
 20
0.0
 30
0.0
  9
$PUCSORGBOTTOM
 10
0.0
 20
0.0
 30
0.0
  9
$PUCSORGLEFT
 10
0.0
 20
0.0
 30
0.0
  9
$PUCSORGRIGHT
 10
0.0
 20
0.0
 30
0.0
  9
$PUCSORGFRONT
 10
0.0
 20
0.0
 30
0.0
  9
$PUCSORGBACK
 10
0.0
 20
0.0
 30
0.0
  9
$USERI1
 70
     0
  9
$USERI2
 70
     0
  9
$USERI3
 70
     0
  9
$USERI4
 70
     0
  9
$USERI5
 70
     0
  9
$USERR1
 40
0.0
  9
$USERR2
 40
0.0
  9
$USERR3
 40
0.0
  9
$USERR4
 40
0.0
  9
$USERR5
 40
0.0
  9
$WORLDVIEW
 70
     1
  9
$SHADEDGE
 70
     3
  9
$SHADEDIF
 70
    70
  9
$TILEMODE
 70
     1
  9
$MAXACTVP
 70
    16
  9
$PINSBASE
 10
0.0
 20
0.0
 30
0.0
  9
$PLIMCHECK
 70
     0
  9
$PEXTMIN
 10
1.000000000000000E+20
 20
1.000000000000000E+20
 30
1.000000000000000E+20
  9
$PEXTMAX
 10
-1.000000000000000E+20
 20
-1.000000000000000E+20
 30
-1.000000000000000E+20
  9
$PLIMMIN
 10
0.0
 20
0.0
  9
$PLIMMAX
 10
420.0
 20
297.0
  9
$UNITMODE
 70
     0
  9
$VISRETAIN
 70
     0
  9
$PLINEGEN
 70
     0
  9
$PSLTSCALE
 70
     0
  9
$TREEDEPTH
 70
  3020
  9
$CMLSTYLE
  2
STANDARD
  9
$CMLJUST
 70
     0
  9
$CMLSCALE
 40
1.0
  9
$PROXYGRAPHICS
 70
     1
  9
$MEASUREMENT
 70
     1
  9
$CELWEIGHT
370
    -1
  9
$ENDCAPS
280
     0
  9
$JOINSTYLE
280
     0
  9
$LWDISPLAY
290
     0
  9
$INSUNITS
 70
     0
  9
$HYPERLINKBASE
  1

  9
$STYLESHEET
  1
ACA3.ctb
  9
$XEDIT
290
     1
  9
$CEPSNTYPE
380
     0
  9
$PSTYLEMODE
290
     1
  9
$FINGERPRINTGUID
  2
{5EAC461A-2277-4BF8-9AB0-99C43BB394F0}
  9
$VERSIONGUID
  2
{BEEAD83B-C7FD-4710-837D-01C2D385EA42}
  9
$EXTNAMES
290
     1
  9
$PSVPSCALE
 40
0.0
  9
$OLESTARTUP
290
     0
  0
ENDSEC
  0
SECTION
  2
CLASSES
  0
CLASS
  1
ACDBDICTIONARYWDFLT
  2
AcDbDictionaryWithDefault
  3
ObjectDBX Classes
 90
        0
280
     0
281
     0
  0
CLASS
  1
DICTIONARYVAR
  2
AcDbDictionaryVar
  3
ObjectDBX Classes
 90
        0
280
     0
281
     0
  0
CLASS
  1
ACDBPLACEHOLDER
  2
AcDbPlaceHolder
  3
ObjectDBX Classes
 90
        0
280
     0
281
     0
  0
CLASS
  1
LAYOUT
  2
AcDbLayout
  3
ObjectDBX Classes
 90
        0
280
     0
281
     0
  0
ENDSEC
  0
SECTION
  2
TABLES
  0
TABLE
  2
VPORT
  5
746D
330
0
100
AcDbSymbolTable
 70
     2
  0
VPORT
  5
2969D
330
746D
100
AcDbSymbolTableRecord
100
AcDbViewportTableRecord
  2
*Active
 70
     0
 10
0.0
 20
0.0
 11
1.0
 21
1.0
 12
8400.000000000002
 22
6549.946166695298
 13
0.0
 23
0.0
 14
10.0
 24
10.0
 15
10.0
 25
10.0
 16
0.0
 26
0.0
 36
1.0
 17
0.0
 27
0.0
 37
0.0
 40
13195.53335973782
 41
1.522222222222222
 42
50.0
 43
0.0
 44
0.0
 50
0.0
 51
0.0
 71
     0
 72
     0
 73
     1
 74
     0
 75
     0
 76
     0
 77
     0
 78
     0
281
     0
 65
     1
110
0.0
120
0.0
130
0.0
111
1.0
121
0.0
131
0.0
112
0.0
122
1.0
132
0.0
 79
     0
146
0.0
  0
ENDTAB
  0
TABLE
  2
LTYPE
  5
746A
330
0
100
AcDbSymbolTable
 70
     5
  0
LTYPE
  5
7477
330
746A
100
AcDbSymbolTableRecord
100
AcDbLinetypeTableRecord
  2
BYBLOCK
 70
     0
  3

 72
    65
 73
     0
 40
0.0
  0
LTYPE
  5
7478
330
746A
100
AcDbSymbolTableRecord
100
AcDbLinetypeTableRecord
  2
BYLAYER
 70
     0
  3

 72
    65
 73
     0
 40
0.0
  0
LTYPE
  5
7479
330
746A
100
AcDbSymbolTableRecord
100
AcDbLinetypeTableRecord
  2
CONTINUOUS
 70
     0
  3
Solid line
 72
    65
 73
     0
 40
0.0
  0
LTYPE
  5
7816
330
746A
100
AcDbSymbolTableRecord
100
AcDbLinetypeTableRecord
  2
CENTER
 70
     0
  3
____ _ ____ _ ____ _ ____ _ ____ _ ____ _ ____ 
 72
    65
 73
     4
 40
2.0
 49
1.25
 74
     0
 49
-0.25
 74
     0
 49
0.25
 74
     0
 49
-0.25
 74
     0
  0
LTYPE
  5
781A
330
746A
100
AcDbSymbolTableRecord
100
AcDbLinetypeTableRecord
  2
HIDDEN
 70
     0
  3
__ __ __ __ __ __ __ __ __ __ __ __ __ __ __ __
 72
    65
 73
     2
 40
0.375
 49
0.25
 74
     0
 49
-0.125
 74
     0
  0
LTYPE
  5
781B
330
746A
100
AcDbSymbolTableRecord
100
AcDbLinetypeTableRecord
  2
PHANTOM
 70
     0
  3
______  __  __  ______  __  __  ______  __  __ 
 72
    65
 73
     6
 40
2.5
 49
1.25
 74
     0
 49
-0.25
 74
     0
 49
0.25
 74
     0
 49
-0.25
 74
     0
 49
0.25
 74
     0
 49
-0.25
 74
     0
  0
LTYPE
  5
12CC3
330
746A
100
AcDbSymbolTableRecord
100
AcDbLinetypeTableRecord
  2
HIDDENX2
 70
     0
  3
Hidden (2x) ____ ____ ____ ____ ____ ____ ____
 72
    65
 73
     2
 40
19.05
 49
12.7
 74
     0
 49
-6.349999999999999
 74
     0
  0
ENDTAB
  0
TABLE
  2
LAYER
  5
7467
102
{ACAD_XDICTIONARY
360
1758F
102
}
330
0
100
AcDbSymbolTable
 70
    12
  0
LAYER
  5
7474
330
7467
100
AcDbSymbolTableRecord
100
AcDbLayerTableRecord
  2
0
 70
     0
 62
     7
  6
CONTINUOUS
370
    -3
390
173D0
  0
LAYER
  5
DEB2
330
7467
100
AcDbSymbolTableRecord
100
AcDbLayerTableRecord
  2
センター
 70
     0
 62
     3
  6
CENTER
370
    -3
390
173D0
  0
LAYER
  5
DEB3
330
7467
100
AcDbSymbolTableRecord
100
AcDbLayerTableRecord
  2
寸法
 70
     0
 62
     4
  6
CONTINUOUS
370
    -3
390
173D0
  0
LAYER
  5
DEB4
330
7467
100
AcDbSymbolTableRecord
100
AcDbLayerTableRecord
  2
部品1
 70
     0
 62
     7
  6
CONTINUOUS
370
    -3
390
173D0
  0
LAYER
  5
DEB5
330
7467
100
AcDbSymbolTableRecord
100
AcDbLayerTableRecord
  2
補助
 70
     0
 62
    -1
  6
CONTINUOUS
370
    -3
390
173D0
  0
LAYER
  5
DEB6
330
7467
100
AcDbSymbolTableRecord
100
AcDbLayerTableRecord
  2
文字
 70
     0
 62
     7
  6
CONTINUOUS
370
    -3
390
173D0
  0
LAYER
  5
F255
330
7467
100
AcDbSymbolTableRecord
100
AcDbLayerTableRecord
  2
DEFPOINTS
 70
     0
 62
     7
  6
CONTINUOUS
290
     0
370
    -3
390
173D0
  0
LAYER
  5
10B54
330
7467
100
AcDbSymbolTableRecord
100
AcDbLayerTableRecord
  2
仕様書枠
 70
     0
 62
   230
  6
CONTINUOUS
370
    -3
390
173D0
  0
LAYER
  5
11729
330
7467
100
AcDbSymbolTableRecord
100
AcDbLayerTableRecord
  2
Ｇ．Ｌ
 70
     0
 62
    30
  6
CONTINUOUS
370
    -3
390
173D0
  0
LAYER
  5
1173F
330
7467
100
AcDbSymbolTableRecord
100
AcDbLayerTableRecord
  2
細線
 70
     0
 62
     5
  6
CONTINUOUS
370
    -3
390
173D0
  0
LAYER
  5
12CC4
330
7467
100
AcDbSymbolTableRecord
100
AcDbLayerTableRecord
  2
想像線
 70
     0
 62
     6
  6
PHANTOM
370
    -3
390
173D0
  0
LAYER
  5
142E2
330
7467
100
AcDbSymbolTableRecord
100
AcDbLayerTableRecord
  2
破線
 70
     0
 62
     2
  6
HIDDEN
370
    -3
390
173D0
  0
ENDTAB
  0
TABLE
  2
STYLE
  5
7468
330
0
100
AcDbSymbolTable
 70
     7
  0
STYLE
  5
7475
330
7468
100
AcDbSymbolTableRecord
100
AcDbTextStyleTableRecord
  2
STANDARD
 70
     0
 40
0.0
 41
1.0
 50
0.0
 71
     0
 42
4.0
  3
txt
  4
C:\AutoCAD LT\bigfont.shx
  0
STYLE
  5
763C
330
7468
100
AcDbSymbolTableRecord
100
AcDbTextStyleTableRecord
  2
MSMINCHO
 70
     0
 40
0.0
 41
1.0
 50
0.0
 71
     0
 42
1.199999999999999
  3
C:\AutoCAD LT\msminch2.TTF
  4

  0
STYLE
  5
F706
330
7468
100
AcDbSymbolTableRecord
100
AcDbTextStyleTableRecord
  2
STYLE1
 70
     0
 40
0.0
 41
1.0
 50
0.0
 71
     0
 42
4.0
  3
isocp.shx
  4
bigfont.shx
  0
STYLE
  5
103BF
330
7468
100
AcDbSymbolTableRecord
100
AcDbTextStyleTableRecord
  2
STYLE2
 70
     0
 40
0.0
 41
1.0
 50
0.0
 71
     0
 42
100.0
  3
MS PGothic.ttf
  4

1001
ACAD
1000
MS PGothic
1071
    32818
  0
STYLE
  5
10BAA
330
7468
100
AcDbSymbolTableRecord
100
AcDbTextStyleTableRecord
  2
STYLE3
 70
     0
 40
0.0
 41
1.0
 50
0.0
 71
     0
 42
100.0
  3

  4

1001
ACAD
1000
DFPGothic-EB
1071
    32818
  0
STYLE
  5
11A15
330
7468
100
AcDbSymbolTableRecord
100
AcDbTextStyleTableRecord
  2
MSGOTHIC
 70
     0
 40
0.0
 41
1.0
 50
0.0
 71
     0
 42
3.5
  3
msgothi2.ttf
  4

  0
STYLE
  5
13E96
330
7468
100
AcDbSymbolTableRecord
100
AcDbTextStyleTableRecord
  2
MSPゴシック
 70
     0
 40
0.0
 41
1.0
 50
0.0
 71
     0
 42
4.0
  3
MS PGothic.ttf
  4

1001
ACAD
1000
MS PGothic
1071
    32818
  0
ENDTAB
  0
TABLE
  2
VIEW
  5
746B
330
0
100
AcDbSymbolTable
 70
     0
  0
ENDTAB
  0
TABLE
  2
UCS
  5
746C
330
0
100
AcDbSymbolTable
 70
     0
  0
ENDTAB
  0
TABLE
  2
APPID
  5
746E
330
0
100
AcDbSymbolTable
 70
     6
  0
APPID
  5
7476
330
746E
100
AcDbSymbolTableRecord
100
AcDbRegAppTableRecord
  2
ACAD
 70
     0
  0
APPID
  5
DEA9
330
746E
100
AcDbSymbolTableRecord
100
AcDbRegAppTableRecord
  2
CONTENTBLOCKICON
 70
     0
  0
APPID
  5
DEAA
330
746E
100
AcDbSymbolTableRecord
100
AcDbRegAppTableRecord
  2
CONTENTBLOCKDESCRIPTION
 70
     0
  0
APPID
  5
E71D
330
746E
100
AcDbSymbolTableRecord
100
AcDbRegAppTableRecord
  2
CONTENTTABDATA
 70
     0
  0
APPID
  5
E71E
330
746E
100
AcDbSymbolTableRecord
100
AcDbRegAppTableRecord
  2
CONTENTCURRENTTAB
 70
     0
  0
APPID
  5
F3BA
330
746E
100
AcDbSymbolTableRecord
100
AcDbRegAppTableRecord
  2
DRAWINGVARIABLESXDATA
 70
     0
  0
ENDTAB
  0
TABLE
  2
DIMSTYLE
  5
746F
330
0
100
AcDbSymbolTable
 70
     6
100
AcDbDimStyleTable
 71
     1
340
F71F
  0
DIMSTYLE
105
7484
330
746F
100
AcDbSymbolTableRecord
100
AcDbDimStyleTableRecord
  2
JIS
 70
     0
 41
2.5
 42
1.0
 43
7.0
 44
1.0
 73
     0
 74
     0
 77
     1
 78
     8
140
2.5
141
0.0
143
0.0394
147
0.0
172
     1
174
     1
175
     1
340
7475
  0
DIMSTYLE
105
F236
330
746F
100
AcDbSymbolTableRecord
100
AcDbDimStyleTableRecord
  2
INABA_S40
 70
     0
 40
40.0
 41
2.5
 42
0.5
 43
7.0
 44
1.5
 73
     0
 74
     0
 77
     3
 78
     8
140
3.0
141
0.0
143
0.0394
147
1.0
172
     1
173
     1
174
     1
175
     1
178
     7
289
     0
340
7475
341
DEAC
343
DEAC
344
DEAC
  0
DIMSTYLE
105
F71F
102
{ACAD_REACTORS
330
28512
330
284DB
330
2848B
330
2848A
330
28489
330
28488
330
2842D
330
2842C
330
28429
330
283BF
330
283BE
330
283BD
330
283BB
330
283A8
330
283CA
330
283BC
330
283BA
330
283C9
330
283C7
330
283C2
330
28EFF
330
28F00
330
28F01
330
28F02
330
28F03
330
28F08
330
28F09
330
294A6
330
294A7
330
294AF
330
294B6
330
294B9
330
29519
102
}
330
746F
100
AcDbSymbolTableRecord
100
AcDbDimStyleTableRecord
  2
INABA_S40G
 70
     0
 40
40.0
 41
2.5
 42
0.5
 43
7.0
 44
1.5
 73
     0
 74
     0
 77
     3
 78
     8
140
3.0
141
0.0
143
0.0394
147
1.0
172
     1
173
     1
174
     1
178
     7
271
     1
340
F706
341
F770
343
F770
344
F770
  0
DIMSTYLE
105
142E3
330
746F
100
AcDbSymbolTableRecord
100
AcDbDimStyleTableRecord
  2
INABA_S1
 70
     0
 40
0.0
 41
2.5
 42
0.5
 43
7.0
 44
1.5
 73
     0
 74
     0
 77
     3
 78
     8
140
3.0
141
0.0
143
0.0394
146
0.5
147
0.5
172
     1
173
     1
176
   256
177
   256
178
     7
271
     2
272
     2
284
     8
288
     1
340
7475
341
DEAC
343
DEAC
344
DEAC
  0
DIMSTYLE
105
14463
330
746F
100
AcDbSymbolTableRecord
100
AcDbDimStyleTableRecord
  2
INABA_S30G
 70
     0
 40
30.0
 41
2.5
 42
0.5
 43
7.0
 44
1.5
 73
     0
 74
     0
 77
     3
 78
     8
140
3.0
141
0.0
143
0.0394
147
1.0
172
     1
173
     1
174
     1
175
     1
178
     7
271
     1
340
F706
341
F770
343
F770
344
F770
  0
DIMSTYLE
105
1758E
330
746F
100
AcDbSymbolTableRecord
100
AcDbDimStyleTableRecord
  2
INABA_S50G
 70
     0
 41
125.0
 42
25.0
 43
7.0
 44
75.0
 73
     0
 74
     0
 77
     3
 78
     8
140
150.0
141
0.0
143
0.0394
147
25.0
172
     1
173
     1
174
     1
175
     1
178
     7
271
     1
340
F706
341
F770
343
F770
344
F770
  0
ENDTAB
  0
TABLE
  2
BLOCK_RECORD
  5
7466
330
0
100
AcDbSymbolTable
 70
    52
  0
BLOCK_RECORD
  5
747D
330
7466
100
AcDbSymbolTableRecord
100
AcDbBlockTableRecord
  2
*MODEL_SPACE
340
173D5
  0
BLOCK_RECORD
  5
747A
330
7466
100
AcDbSymbolTableRecord
100
AcDbBlockTableRecord
  2
*PAPER_SPACE
340
173D6
  0
BLOCK_RECORD
  5
DEAC
330
7466
100
AcDbSymbolTableRecord
100
AcDbBlockTableRecord
  2
_OPEN
340
0
  0
BLOCK_RECORD
  5
F770
330
7466
100
AcDbSymbolTableRecord
100
AcDbBlockTableRecord
  2
_DOTSMALL
340
0
102
{BLKREFS
331
18C65
331
18C66
331
18C59
331
18C5A
331
18C4D
331
18C4E
331
18C41
331
18C42
331
18C35
331
18C36
331
18C29
331
18C2A
331
18C1D
331
18C1E
331
18C0F
331
18C10
331
18C03
331
18C04
331
18BF5
331
18BF6
331
18BE7
331
18BE8
331
18BD9
331
18BDA
331
18BCD
331
18BCE
331
28A52
331
28A53
331
28A5B
331
28A5C
331
28A89
331
28A8A
331
28A93
331
28A94
331
28A9C
331
28A9D
331
28AC9
331
28ACA
331
28ADC
331
28ADD
331
28AEE
331
28AEF
331
2918D
331
2918E
331
29197
331
29198
331
291AC
331
291AD
331
291B7
331
291B8
331
291C2
331
291C3
331
291E8
331
291E9
331
291F1
331
291F2
331
29286
331
29287
331
292AC
331
292AD
331
292B5
331
292B6
331
292BE
331
292BF
331
292C7
331
292C8
331
292D0
331
292D1
331
292E2
331
292E3
331
292EB
331
292EC
331
292F4
331
292F5
331
292FD
331
292FE
331
29306
331
29307
331
2961F
331
29620
331
2962A
331
2962B
331
29633
331
29634
331
2963C
331
2963D
331
29645
331
29646
331
2964E
331
2964F
331
2966C
331
2966D
102
}
  0
BLOCK_RECORD
  5
164B4
330
7466
100
AcDbSymbolTableRecord
100
AcDbBlockTableRecord
  2
_DOT
340
0
102
{BLKREFS
331
18C73
331
18C74
102
}
  0
BLOCK_RECORD
  5
18BC8
330
7466
100
AcDbSymbolTableRecord
100
AcDbBlockTableRecord
  2
*D3
340
0
  0
BLOCK_RECORD
  5
18BD4
330
7466
100
AcDbSymbolTableRecord
100
AcDbBlockTableRecord
  2
*D4
340
0
  0
BLOCK_RECORD
  5
18BE0
330
7466
100
AcDbSymbolTableRecord
100
AcDbBlockTableRecord
  2
*D5
340
0
  0
BLOCK_RECORD
  5
18BEE
330
7466
100
AcDbSymbolTableRecord
100
AcDbBlockTableRecord
  2
*D6
340
0
  0
BLOCK_RECORD
  5
18BFC
330
7466
100
AcDbSymbolTableRecord
100
AcDbBlockTableRecord
  2
*D7
340
0
  0
BLOCK_RECORD
  5
18C0A
330
7466
100
AcDbSymbolTableRecord
100
AcDbBlockTableRecord
  2
*D8
340
0
  0
BLOCK_RECORD
  5
18C16
330
7466
100
AcDbSymbolTableRecord
100
AcDbBlockTableRecord
  2
*D9
340
0
  0
BLOCK_RECORD
  5
18C24
330
7466
100
AcDbSymbolTableRecord
100
AcDbBlockTableRecord
  2
*D10
340
0
  0
BLOCK_RECORD
  5
18C30
330
7466
100
AcDbSymbolTableRecord
100
AcDbBlockTableRecord
  2
*D11
340
0
  0
BLOCK_RECORD
  5
18C3C
330
7466
100
AcDbSymbolTableRecord
100
AcDbBlockTableRecord
  2
*D12
340
0
  0
BLOCK_RECORD
  5
18C48
330
7466
100
AcDbSymbolTableRecord
100
AcDbBlockTableRecord
  2
*D13
340
0
  0
BLOCK_RECORD
  5
18C54
330
7466
100
AcDbSymbolTableRecord
100
AcDbBlockTableRecord
  2
*D14
340
0
  0
BLOCK_RECORD
  5
18C60
330
7466
100
AcDbSymbolTableRecord
100
AcDbBlockTableRecord
  2
*D15
340
0
  0
BLOCK_RECORD
  5
18C6C
330
7466
100
AcDbSymbolTableRecord
100
AcDbBlockTableRecord
  2
*D16
340
0
  0
BLOCK_RECORD
  5
18C7A
330
7466
100
AcDbSymbolTableRecord
100
AcDbBlockTableRecord
  2
A$C3B1A506B
340
0
  0
BLOCK_RECORD
  5
1C4CA
330
7466
100
AcDbSymbolTableRecord
100
AcDbBlockTableRecord
  2
_NONE
340
0
  0
BLOCK_RECORD
  5
28519
330
7466
100
AcDbSymbolTableRecord
100
AcDbBlockTableRecord
  2
*D19
340
0
  0
BLOCK_RECORD
  5
28532
330
7466
100
AcDbSymbolTableRecord
100
AcDbBlockTableRecord
  2
*D20
340
0
  0
BLOCK_RECORD
  5
2853F
330
7466
100
AcDbSymbolTableRecord
100
AcDbBlockTableRecord
  2
*D21
340
0
  0
BLOCK_RECORD
  5
28563
330
7466
100
AcDbSymbolTableRecord
100
AcDbBlockTableRecord
  2
*D22
340
0
  0
BLOCK_RECORD
  5
2856F
330
7466
100
AcDbSymbolTableRecord
100
AcDbBlockTableRecord
  2
*D23
340
0
  0
BLOCK_RECORD
  5
2857A
330
7466
100
AcDbSymbolTableRecord
100
AcDbBlockTableRecord
  2
*D24
340
0
  0
BLOCK_RECORD
  5
28586
330
7466
100
AcDbSymbolTableRecord
100
AcDbBlockTableRecord
  2
*D25
340
0
  0
BLOCK_RECORD
  5
28592
330
7466
100
AcDbSymbolTableRecord
100
AcDbBlockTableRecord
  2
*D26
340
0
  0
BLOCK_RECORD
  5
285AB
330
7466
100
AcDbSymbolTableRecord
100
AcDbBlockTableRecord
  2
*D27
340
0
  0
BLOCK_RECORD
  5
285C5
330
7466
100
AcDbSymbolTableRecord
100
AcDbBlockTableRecord
  2
*D28
340
0
  0
BLOCK_RECORD
  5
285D1
330
7466
100
AcDbSymbolTableRecord
100
AcDbBlockTableRecord
  2
*D29
340
0
  0
BLOCK_RECORD
  5
285DD
330
7466
100
AcDbSymbolTableRecord
100
AcDbBlockTableRecord
  2
*D30
340
0
  0
BLOCK_RECORD
  5
285E9
330
7466
100
AcDbSymbolTableRecord
100
AcDbBlockTableRecord
  2
*D31
340
0
  0
BLOCK_RECORD
  5
285F5
330
7466
100
AcDbSymbolTableRecord
100
AcDbBlockTableRecord
  2
*D32
340
0
  0
BLOCK_RECORD
  5
28600
330
7466
100
AcDbSymbolTableRecord
100
AcDbBlockTableRecord
  2
*D33
340
0
  0
BLOCK_RECORD
  5
2860C
330
7466
100
AcDbSymbolTableRecord
100
AcDbBlockTableRecord
  2
*D34
340
0
  0
BLOCK_RECORD
  5
28617
330
7466
100
AcDbSymbolTableRecord
100
AcDbBlockTableRecord
  2
*D35
340
0
  0
BLOCK_RECORD
  5
28623
330
7466
100
AcDbSymbolTableRecord
100
AcDbBlockTableRecord
  2
*D36
340
0
  0
BLOCK_RECORD
  5
2863B
330
7466
100
AcDbSymbolTableRecord
100
AcDbBlockTableRecord
  2
*D37
340
0
  0
BLOCK_RECORD
  5
28647
330
7466
100
AcDbSymbolTableRecord
100
AcDbBlockTableRecord
  2
*D38
340
0
  0
BLOCK_RECORD
  5
29014
330
7466
100
AcDbSymbolTableRecord
100
AcDbBlockTableRecord
  2
*D39
340
0
  0
BLOCK_RECORD
  5
29021
330
7466
100
AcDbSymbolTableRecord
100
AcDbBlockTableRecord
  2
*D40
340
0
  0
BLOCK_RECORD
  5
2902E
330
7466
100
AcDbSymbolTableRecord
100
AcDbBlockTableRecord
  2
*D41
340
0
  0
BLOCK_RECORD
  5
2903B
330
7466
100
AcDbSymbolTableRecord
100
AcDbBlockTableRecord
  2
*D42
340
0
  0
BLOCK_RECORD
  5
29049
330
7466
100
AcDbSymbolTableRecord
100
AcDbBlockTableRecord
  2
*D43
340
0
  0
BLOCK_RECORD
  5
29057
330
7466
100
AcDbSymbolTableRecord
100
AcDbBlockTableRecord
  2
*D44
340
0
  0
BLOCK_RECORD
  5
29065
330
7466
100
AcDbSymbolTableRecord
100
AcDbBlockTableRecord
  2
*D45
340
0
  0
BLOCK_RECORD
  5
295D2
330
7466
100
AcDbSymbolTableRecord
100
AcDbBlockTableRecord
  2
*D46
340
0
  0
BLOCK_RECORD
  5
295DE
330
7466
100
AcDbSymbolTableRecord
100
AcDbBlockTableRecord
  2
*D47
340
0
  0
BLOCK_RECORD
  5
295EC
330
7466
100
AcDbSymbolTableRecord
100
AcDbBlockTableRecord
  2
*D48
340
0
  0
BLOCK_RECORD
  5
295F8
330
7466
100
AcDbSymbolTableRecord
100
AcDbBlockTableRecord
  2
*D49
340
0
  0
BLOCK_RECORD
  5
29604
330
7466
100
AcDbSymbolTableRecord
100
AcDbBlockTableRecord
  2
*D50
340
0
  0
BLOCK_RECORD
  5
29610
330
7466
100
AcDbSymbolTableRecord
100
AcDbBlockTableRecord
  2
*D51
340
0
  0
ENDTAB
  0
ENDSEC
  0
SECTION
  2
BLOCKS
  0
BLOCK
  5
7489
330
747D
100
AcDbEntity
  8
0
100
AcDbBlockBegin
  2
*MODEL_SPACE
 70
     0
 10
0.0
 20
0.0
 30
0.0
  3
*MODEL_SPACE
  1

  0
ENDBLK
  5
748A
330
747D
100
AcDbEntity
  8
0
100
AcDbBlockEnd
  0
BLOCK
  5
7487
330
747A
100
AcDbEntity
 67
     1
  8
0
100
AcDbBlockBegin
  2
*PAPER_SPACE
 70
     0
 10
0.0
 20
0.0
 30
0.0
  3
*PAPER_SPACE
  1

  0
ENDBLK
  5
7488
330
747A
100
AcDbEntity
 67
     1
  8
0
100
AcDbBlockEnd
  0
BLOCK
  5
DEAD
330
DEAC
100
AcDbEntity
  8
0
100
AcDbBlockBegin
  2
_OPEN
 70
     0
 10
0.0
 20
0.0
 30
0.0
  3
_OPEN
  1

  0
LINE
  5
DEAE
330
DEAC
100
AcDbEntity
  8
0
  6
ByBlock
 62
     0
100
AcDbLine
 10
-1.0
 20
0.1666666666666666
 30
0.0
 11
0.0
 21
0.0
 31
0.0
  0
LINE
  5
DEAF
330
DEAC
100
AcDbEntity
  8
0
  6
ByBlock
 62
     0
100
AcDbLine
 10
0.0
 20
0.0
 30
0.0
 11
-1.0
 21
-0.1666666666666666
 31
0.0
  0
LINE
  5
DEB0
330
DEAC
100
AcDbEntity
  8
0
  6
ByBlock
 62
     0
100
AcDbLine
 10
0.0
 20
0.0
 30
0.0
 11
-1.0
 21
0.0
 31
0.0
  0
ENDBLK
  5
DEB1
330
DEAC
100
AcDbEntity
  8
0
100
AcDbBlockEnd
  0
BLOCK
  5
F771
330
F770
100
AcDbEntity
  8
0
 48
50.0
100
AcDbBlockBegin
  2
_DOTSMALL
 70
     0
 10
0.0
 20
0.0
 30
0.0
  3
_DOTSMALL
  1

  0
LWPOLYLINE
  5
F772
330
F770
100
AcDbEntity
  8
0
  6
ByBlock
 62
     0
 48
50.0
100
AcDbPolyline
 90
        2
 70
     1
 43
0.5
 10
-0.0625
 20
0.0
 42
1.0
 10
0.0625
 20
0.0
 42
1.0
  0
ENDBLK
  5
F776
330
F770
100
AcDbEntity
  8
0
 48
50.0
100
AcDbBlockEnd
  0
BLOCK
  5
164BA
330
164B4
100
AcDbEntity
  8
0
 48
50.0
100
AcDbBlockBegin
  2
_DOT
 70
     0
 10
0.0
 20
0.0
 30
0.0
  3
_DOT
  1

  0
LWPOLYLINE
  5
164B5
330
164B4
100
AcDbEntity
  8
0
  6
ByBlock
 62
     0
 48
50.0
100
AcDbPolyline
 90
        2
 70
     1
 43
0.5
 10
-0.25
 20
0.0
 42
1.0
 10
0.25
 20
0.0
 42
1.0
  0
LINE
  5
164B9
330
164B4
100
AcDbEntity
  8
0
  6
ByBlock
 62
     0
 48
50.0
100
AcDbLine
 10
-0.5
 20
0.0
 30
0.0
 11
-1.0
 21
0.0
 31
0.0
  0
ENDBLK
  5
164BB
330
164B4
100
AcDbEntity
  8
0
 48
50.0
100
AcDbBlockEnd
  0
BLOCK
  5
18BC9
330
18BC8
100
AcDbEntity
  8
0
 48
50.0
100
AcDbBlockBegin
  2
*D3
 70
     1
 10
0.0
 20
0.0
 30
0.0
  3
*D3
  1

  0
LINE
  5
18BCA
330
18BC8
100
AcDbEntity
  8
寸法
 62
     0
 48
50.0
370
    -2
100
AcDbLine
 10
7649.896575106999
 20
9636.123139034717
 30
0.0
 11
8702.429862581047
 21
9636.123139034717
 31
0.0
  0
LINE
  5
18BCB
330
18BC8
100
AcDbEntity
  8
寸法
 62
     0
 48
50.0
370
    -2
100
AcDbLine
 10
7649.896575106973
 20
7846.123139034709
 30
0.0
 11
8702.429862581047
 21
7846.123139034709
 31
0.0
  0
LINE
  5
18BCC
330
18BC8
100
AcDbEntity
  8
寸法
 62
     0
 48
50.0
370
    -2
100
AcDbLine
 10
8642.429862581046
 20
9636.123139034717
 30
0.0
 11
8642.429862581046
 21
7846.123139034709
 31
0.0
  0
INSERT
  5
18BCD
330
18BC8
100
AcDbEntity
  8
寸法
 62
     0
 48
50.0
370
    -2
100
AcDbBlockReference
  2
_DOTSMALL
 10
8642.429862581046
 20
9636.123139034717
 30
0.0
 41
100.0
 42
100.0
 43
100.0
 50
90.0
  0
INSERT
  5
18BCE
330
18BC8
100
AcDbEntity
  8
寸法
 62
     0
 48
50.0
370
    -2
100
AcDbBlockReference
  2
_DOTSMALL
 10
8642.429862581046
 20
7846.123139034709
 30
0.0
 41
100.0
 42
100.0
 43
100.0
 50
270.0
  0
MTEXT
  5
18BCF
330
18BC8
100
AcDbEntity
  8
寸法
 62
     7
 48
50.0
100
AcDbMText
 10
8542.429862581045
 20
8741.123139034712
 30
0.0
 40
120.0
 41
0.0
 71
     5
 72
     1
  1
\A1;1790
  7
STYLE1
 11
0.0000000000000001
 21
1.0
 31
0.0
 73
     1
 44
1.0
1001
ACAD
1000
MTEXTBEGIN
1070
    73
1070
     1
1070
    44
1040
1.0
1070
    74
1070
     0
1000
MTEXTEND
  0
POINT
  5
18BD0
330
18BC8
100
AcDbEntity
  8
DEFPOINTS
 62
     0
 48
50.0
100
AcDbPoint
 10
7629.896575106998
 20
9636.123139034717
 30
0.0
  0
POINT
  5
18BD1
330
18BC8
100
AcDbEntity
  8
DEFPOINTS
 62
     0
 48
50.0
100
AcDbPoint
 10
7629.896575106974
 20
7846.123139034709
 30
0.0
  0
POINT
  5
18BD2
330
18BC8
100
AcDbEntity
  8
DEFPOINTS
 62
     0
 48
50.0
100
AcDbPoint
 10
8642.429862581046
 20
7846.123139034709
 30
0.0
  0
ENDBLK
  5
18BD3
330
18BC8
100
AcDbEntity
  8
0
 48
50.0
100
AcDbBlockEnd
  0
BLOCK
  5
18BD5
330
18BD4
100
AcDbEntity
  8
0
 48
50.0
100
AcDbBlockBegin
  2
*D4
 70
     1
 10
0.0
 20
0.0
 30
0.0
  3
*D4
  1

  0
LINE
  5
18BD6
330
18BD4
100
AcDbEntity
  8
寸法
 62
     0
 48
50.0
370
    -2
100
AcDbLine
 10
4214.896575106998
 20
9656.123139034622
 30
0.0
 11
4214.896575106998
 21
10211.93135865972
 31
0.0
  0
LINE
  5
18BD7
330
18BD4
100
AcDbEntity
  8
寸法
 62
     0
 48
50.0
370
    -2
100
AcDbLine
 10
7574.896575106999
 20
9656.123139034718
 30
0.0
 11
7574.896575106999
 21
10211.93135865972
 31
0.0
  0
LINE
  5
18BD8
330
18BD4
100
AcDbEntity
  8
寸法
 62
     0
 48
50.0
370
    -2
100
AcDbLine
 10
4214.896575106998
 20
10151.93135865972
 30
0.0
 11
7574.896575106999
 21
10151.93135865972
 31
0.0
  0
INSERT
  5
18BD9
330
18BD4
100
AcDbEntity
  8
寸法
 62
     0
 48
50.0
370
    -2
100
AcDbBlockReference
  2
_DOTSMALL
 10
4214.896575106998
 20
10151.93135865972
 30
0.0
 41
100.0
 42
100.0
 43
100.0
 50
180.0
  0
INSERT
  5
18BDA
330
18BD4
100
AcDbEntity
  8
寸法
 62
     0
 48
50.0
370
    -2
100
AcDbBlockReference
  2
_DOTSMALL
 10
7574.896575106999
 20
10151.93135865972
 30
0.0
 41
100.0
 42
100.0
 43
100.0
  0
MTEXT
  5
18BDB
330
18BD4
100
AcDbEntity
  8
寸法
 62
     7
 48
50.0
100
AcDbMText
 10
5894.896575106997
 20
10251.94316968334
 30
0.0
 40
120.0
 41
0.0
 71
     5
 72
     1
  1
\A1;8X420=3360
  7
STYLE1
 73
     1
 44
1.0
1001
ACAD
1000
MTEXTBEGIN
1070
    73
1070
     1
1070
    44
1040
1.0
1070
    74
1070
     0
1000
MTEXTEND
  0
POINT
  5
18BDC
330
18BD4
100
AcDbEntity
  8
DEFPOINTS
 62
     0
 48
50.0
100
AcDbPoint
 10
4214.896575106998
 20
9636.123139034623
 30
0.0
  0
POINT
  5
18BDD
330
18BD4
100
AcDbEntity
  8
DEFPOINTS
 62
     0
 48
50.0
100
AcDbPoint
 10
7574.896575106999
 20
9636.123139034717
 30
0.0
  0
POINT
  5
18BDE
330
18BD4
100
AcDbEntity
  8
DEFPOINTS
 62
     0
 48
50.0
100
AcDbPoint
 10
7574.896575106999
 20
10151.93135865972
 30
0.0
  0
ENDBLK
  5
18BDF
330
18BD4
100
AcDbEntity
  8
0
 48
50.0
100
AcDbBlockEnd
  0
BLOCK
  5
18BE1
330
18BE0
100
AcDbEntity
  8
0
 48
50.0
100
AcDbBlockBegin
  2
*D5
 70
     1
 10
0.0
 20
0.0
 30
0.0
  3
*D5
  1

  0
LINE
  5
18BE2
330
18BE0
100
AcDbEntity
  8
寸法
 62
     0
 48
50.0
370
    -2
100
AcDbLine
 10
7574.896575106999
 20
9656.123139034718
 30
0.0
 11
7574.896575106999
 21
10211.9313586597
 31
0.0
  0
LINE
  5
18BE3
330
18BE0
100
AcDbEntity
  8
寸法
 62
     0
 48
50.0
370
    -2
100
AcDbLine
 10
7629.896575106998
 20
9656.123139034718
 30
0.0
 11
7629.896575106998
 21
10211.9313586597
 31
0.0
  0
LINE
  5
18BE4
330
18BE0
100
AcDbEntity
  8
寸法
 62
     0
 48
50.0
370
    -2
100
AcDbLine
 10
7574.896575106999
 20
10151.9313586597
 30
0.0
 11
7474.896575106999
 21
10151.9313586597
 31
0.0
  0
LINE
  5
18BE5
330
18BE0
100
AcDbEntity
  8
寸法
 62
     0
 48
50.0
370
    -2
100
AcDbLine
 10
7629.896575106998
 20
10151.9313586597
 30
0.0
 11
8046.867137855477
 21
10151.9313586597
 31
0.0
  0
LINE
  5
18BE6
330
18BE0
100
AcDbEntity
  8
寸法
 62
     0
 48
50.0
370
    -2
100
AcDbLine
 10
7574.896575106999
 20
10151.9313586597
 30
0.0
 11
7629.896575106998
 21
10151.9313586597
 31
0.0
  0
INSERT
  5
18BE7
330
18BE0
100
AcDbEntity
  8
寸法
 62
     0
 48
50.0
370
    -2
100
AcDbBlockReference
  2
_DOTSMALL
 10
7574.896575106999
 20
10151.9313586597
 30
0.0
 41
100.0
 42
100.0
 43
100.0
  0
INSERT
  5
18BE8
330
18BE0
100
AcDbEntity
  8
寸法
 62
     0
 48
50.0
370
    -2
100
AcDbBlockReference
  2
_DOTSMALL
 10
7629.896575106998
 20
10151.9313586597
 30
0.0
 41
100.0
 42
100.0
 43
100.0
 50
180.0
  0
MTEXT
  5
18BE9
330
18BE0
100
AcDbEntity
  8
寸法
 62
     7
 48
50.0
100
AcDbMText
 10
7938.381856481237
 20
10251.9313586597
 30
0.0
 40
120.0
 41
0.0
 71
     5
 72
     1
  1
\A1;55
  7
STYLE1
 73
     1
 44
1.0
1001
ACAD
1000
MTEXTBEGIN
1070
    73
1070
     1
1070
    44
1040
1.0
1070
    74
1070
     0
1000
MTEXTEND
  0
POINT
  5
18BEA
330
18BE0
100
AcDbEntity
  8
DEFPOINTS
 62
     0
 48
50.0
100
AcDbPoint
 10
7574.896575106999
 20
9636.123139034717
 30
0.0
  0
POINT
  5
18BEB
330
18BE0
100
AcDbEntity
  8
DEFPOINTS
 62
     0
 48
50.0
100
AcDbPoint
 10
7629.896575106998
 20
9636.123139034717
 30
0.0
  0
POINT
  5
18BEC
330
18BE0
100
AcDbEntity
  8
DEFPOINTS
 62
     0
 48
50.0
100
AcDbPoint
 10
7629.896575106998
 20
10151.9313586597
 30
0.0
  0
ENDBLK
  5
18BED
330
18BE0
100
AcDbEntity
  8
0
 48
50.0
100
AcDbBlockEnd
  0
BLOCK
  5
18BEF
330
18BEE
100
AcDbEntity
  8
0
 48
50.0
100
AcDbBlockBegin
  2
*D6
 70
     1
 10
0.0
 20
0.0
 30
0.0
  3
*D6
  1

  0
LINE
  5
18BF0
330
18BEE
100
AcDbEntity
  8
寸法
 62
     0
 48
50.0
370
    -2
100
AcDbLine
 10
7649.896575106999
 20
9636.123139034717
 30
0.0
 11
8337.32292084141
 21
9636.123139034717
 31
0.0
  0
LINE
  5
18BF1
330
18BEE
100
AcDbEntity
  8
寸法
 62
     0
 48
50.0
370
    -2
100
AcDbLine
 10
7649.896575106999
 20
9581.123139034721
 30
0.0
 11
8337.32292084141
 21
9581.123139034721
 31
0.0
  0
LINE
  5
18BF2
330
18BEE
100
AcDbEntity
  8
寸法
 62
     0
 48
50.0
370
    -2
100
AcDbLine
 10
8277.322920841411
 20
9581.123139034721
 30
0.0
 11
8277.322920841411
 21
9481.123139034719
 31
0.0
  0
LINE
  5
18BF3
330
18BEE
100
AcDbEntity
  8
寸法
 62
     0
 48
50.0
370
    -2
100
AcDbLine
 10
8277.322920841411
 20
9636.123139034717
 30
0.0
 11
8277.322920841411
 21
10053.09370178319
 31
0.0
  0
LINE
  5
18BF4
330
18BEE
100
AcDbEntity
  8
寸法
 62
     0
 48
50.0
370
    -2
100
AcDbLine
 10
8277.322920841411
 20
9581.123139034721
 30
0.0
 11
8277.322920841411
 21
9636.123139034717
 31
0.0
  0
INSERT
  5
18BF5
330
18BEE
100
AcDbEntity
  8
寸法
 62
     0
 48
50.0
370
    -2
100
AcDbBlockReference
  2
_DOTSMALL
 10
8277.322920841411
 20
9581.123139034721
 30
0.0
 41
100.0
 42
100.0
 43
100.0
 50
90.0
  0
INSERT
  5
18BF6
330
18BEE
100
AcDbEntity
  8
寸法
 62
     0
 48
50.0
370
    -2
100
AcDbBlockReference
  2
_DOTSMALL
 10
8277.322920841411
 20
9636.123139034717
 30
0.0
 41
100.0
 42
100.0
 43
100.0
 50
270.0
  0
MTEXT
  5
18BF7
330
18BEE
100
AcDbEntity
  8
寸法
 62
     7
 48
50.0
100
AcDbMText
 10
8177.32292084141
 20
9944.608420408957
 30
0.0
 40
120.0
 41
0.0
 71
     5
 72
     1
  1
\A1;55
  7
STYLE1
 11
0.0000000000000001
 21
1.0
 31
0.0
 73
     1
 44
1.0
1001
ACAD
1000
MTEXTBEGIN
1070
    73
1070
     1
1070
    44
1040
1.0
1070
    74
1070
     0
1000
MTEXTEND
  0
POINT
  5
18BF8
330
18BEE
100
AcDbEntity
  8
DEFPOINTS
 62
     0
 48
50.0
100
AcDbPoint
 10
7629.896575106998
 20
9636.123139034717
 30
0.0
  0
POINT
  5
18BF9
330
18BEE
100
AcDbEntity
  8
DEFPOINTS
 62
     0
 48
50.0
100
AcDbPoint
 10
7629.896575106998
 20
9581.123139034721
 30
0.0
  0
POINT
  5
18BFA
330
18BEE
100
AcDbEntity
  8
DEFPOINTS
 62
     0
 48
50.0
100
AcDbPoint
 10
8277.322920841411
 20
9581.123139034721
 30
0.0
  0
ENDBLK
  5
18BFB
330
18BEE
100
AcDbEntity
  8
0
 48
50.0
100
AcDbBlockEnd
  0
BLOCK
  5
18BFD
330
18BFC
100
AcDbEntity
  8
0
 48
50.0
100
AcDbBlockBegin
  2
*D7
 70
     1
 10
0.0
 20
0.0
 30
0.0
  3
*D7
  1

  0
LINE
  5
18BFE
330
18BFC
100
AcDbEntity
  8
寸法
 62
     0
 48
50.0
370
    -2
100
AcDbLine
 10
4159.896575106963
 20
9656.123139034622
 30
0.0
 11
4159.896575106963
 21
10211.9313586596
 31
0.0
  0
LINE
  5
18BFF
330
18BFC
100
AcDbEntity
  8
寸法
 62
     0
 48
50.0
370
    -2
100
AcDbLine
 10
4214.896575106998
 20
9656.123139034622
 30
0.0
 11
4214.896575106998
 21
10211.9313586596
 31
0.0
  0
LINE
  5
18C00
330
18BFC
100
AcDbEntity
  8
寸法
 62
     0
 48
50.0
370
    -2
100
AcDbLine
 10
4214.896575106998
 20
10151.9313586596
 30
0.0
 11
4314.896575106998
 21
10151.9313586596
 31
0.0
  0
LINE
  5
18C01
330
18BFC
100
AcDbEntity
  8
寸法
 62
     0
 48
50.0
370
    -2
100
AcDbLine
 10
4159.896575106963
 20
10151.9313586596
 30
0.0
 11
3742.926012358486
 21
10151.9313586596
 31
0.0
  0
LINE
  5
18C02
330
18BFC
100
AcDbEntity
  8
寸法
 62
     0
 48
50.0
370
    -2
100
AcDbLine
 10
4214.896575106998
 20
10151.9313586596
 30
0.0
 11
4159.896575106963
 21
10151.9313586596
 31
0.0
  0
INSERT
  5
18C03
330
18BFC
100
AcDbEntity
  8
寸法
 62
     0
 48
50.0
370
    -2
100
AcDbBlockReference
  2
_DOTSMALL
 10
4214.896575106998
 20
10151.9313586596
 30
0.0
 41
100.0
 42
100.0
 43
100.0
 50
180.0
  0
INSERT
  5
18C04
330
18BFC
100
AcDbEntity
  8
寸法
 62
     0
 48
50.0
370
    -2
100
AcDbBlockReference
  2
_DOTSMALL
 10
4159.896575106963
 20
10151.9313586596
 30
0.0
 41
100.0
 42
100.0
 43
100.0
  0
MTEXT
  5
18C05
330
18BFC
100
AcDbEntity
  8
寸法
 62
     7
 48
50.0
100
AcDbMText
 10
3851.411293732725
 20
10251.9313586596
 30
0.0
 40
120.0
 41
0.0
 71
     5
 72
     1
  1
\A1;55
  7
STYLE1
 73
     1
 44
1.0
1001
ACAD
1000
MTEXTBEGIN
1070
    73
1070
     1
1070
    44
1040
1.0
1070
    74
1070
     0
1000
MTEXTEND
  0
POINT
  5
18C06
330
18BFC
100
AcDbEntity
  8
DEFPOINTS
 62
     0
 48
50.0
100
AcDbPoint
 10
4159.896575106963
 20
9636.123139034623
 30
0.0
  0
POINT
  5
18C07
330
18BFC
100
AcDbEntity
  8
DEFPOINTS
 62
     0
 48
50.0
100
AcDbPoint
 10
4214.896575106998
 20
9636.123139034623
 30
0.0
  0
POINT
  5
18C08
330
18BFC
100
AcDbEntity
  8
DEFPOINTS
 62
     0
 48
50.0
100
AcDbPoint
 10
4214.896575106998
 20
10151.9313586596
 30
0.0
  0
ENDBLK
  5
18C09
330
18BFC
100
AcDbEntity
  8
0
 48
50.0
100
AcDbBlockEnd
  0
BLOCK
  5
18C0B
330
18C0A
100
AcDbEntity
  8
0
 48
50.0
100
AcDbBlockBegin
  2
*D8
 70
     1
 10
0.0
 20
0.0
 30
0.0
  3
*D8
  1

  0
LINE
  5
18C0C
330
18C0A
100
AcDbEntity
  8
寸法
 62
     0
 48
50.0
370
    -2
100
AcDbLine
 10
4159.896575106992
 20
7826.123139034546
 30
0.0
 11
4159.896575106992
 21
6804.372203245664
 31
0.0
  0
LINE
  5
18C0D
330
18C0A
100
AcDbEntity
  8
寸法
 62
     0
 48
50.0
370
    -2
100
AcDbLine
 10
7629.896575106974
 20
7826.123139034674
 30
0.0
 11
7629.896575106974
 21
6804.372203245664
 31
0.0
  0
LINE
  5
18C0E
330
18C0A
100
AcDbEntity
  8
寸法
 62
     0
 48
50.0
370
    -2
100
AcDbLine
 10
4159.896575106992
 20
6864.372203245665
 30
0.0
 11
7629.896575106974
 21
6864.372203245665
 31
0.0
  0
INSERT
  5
18C0F
330
18C0A
100
AcDbEntity
  8
寸法
 62
     0
 48
50.0
370
    -2
100
AcDbBlockReference
  2
_DOTSMALL
 10
4159.896575106992
 20
6864.372203245665
 30
0.0
 41
100.0
 42
100.0
 43
100.0
 50
180.0
  0
INSERT
  5
18C10
330
18C0A
100
AcDbEntity
  8
寸法
 62
     0
 48
50.0
370
    -2
100
AcDbBlockReference
  2
_DOTSMALL
 10
7629.896575106974
 20
6864.372203245665
 30
0.0
 41
100.0
 42
100.0
 43
100.0
  0
MTEXT
  5
18C11
330
18C0A
100
AcDbEntity
  8
寸法
 62
     7
 48
50.0
100
AcDbMText
 10
5911.12376113973
 20
6964.372203245665
 30
0.0
 40
120.0
 41
0.0
 71
     5
 72
     1
  1
\A1;3470
  7
STYLE1
 73
     1
 44
1.0
1001
ACAD
1000
MTEXTBEGIN
1070
    73
1070
     1
1070
    44
1040
1.0
1070
    74
1070
     0
1000
MTEXTEND
  0
POINT
  5
18C12
330
18C0A
100
AcDbEntity
  8
DEFPOINTS
 62
     0
 48
50.0
100
AcDbPoint
 10
4159.896575106992
 20
7846.123139034546
 30
0.0
  0
POINT
  5
18C13
330
18C0A
100
AcDbEntity
  8
DEFPOINTS
 62
     0
 48
50.0
100
AcDbPoint
 10
7629.896575106974
 20
7846.123139034673
 30
0.0
  0
POINT
  5
18C14
330
18C0A
100
AcDbEntity
  8
DEFPOINTS
 62
     0
 48
50.0
100
AcDbPoint
 10
7629.896575106974
 20
6864.372203245665
 30
0.0
  0
ENDBLK
  5
18C15
330
18C0A
100
AcDbEntity
  8
0
 48
50.0
100
AcDbBlockEnd
  0
BLOCK
  5
18C17
330
18C16
100
AcDbEntity
  8
0
 48
50.0
100
AcDbBlockBegin
  2
*D9
 70
     1
 10
0.0
 20
0.0
 30
0.0
  3
*D9
  1

  0
LINE
  5
18C18
330
18C16
100
AcDbEntity
  8
寸法
 62
     0
 48
50.0
370
    -2
100
AcDbLine
 10
7649.896575106973
 20
7901.123139034706
 30
0.0
 11
8337.322920841385
 21
7901.123139034706
 31
0.0
  0
LINE
  5
18C19
330
18C16
100
AcDbEntity
  8
寸法
 62
     0
 48
50.0
370
    -2
100
AcDbLine
 10
7649.896575106973
 20
7846.123139034709
 30
0.0
 11
8337.322920841385
 21
7846.123139034709
 31
0.0
  0
LINE
  5
18C1A
330
18C16
100
AcDbEntity
  8
寸法
 62
     0
 48
50.0
370
    -2
100
AcDbLine
 10
8277.322920841385
 20
7901.123139034706
 30
0.0
 11
8277.322920841385
 21
8001.123139034707
 31
0.0
  0
LINE
  5
18C1B
330
18C16
100
AcDbEntity
  8
寸法
 62
     0
 48
50.0
370
    -2
100
AcDbLine
 10
8277.322920841385
 20
7846.123139034709
 30
0.0
 11
8277.322920841385
 21
7429.152576286229
 31
0.0
  0
LINE
  5
18C1C
330
18C16
100
AcDbEntity
  8
寸法
 62
     0
 48
50.0
370
    -2
100
AcDbLine
 10
8277.322920841385
 20
7901.123139034706
 30
0.0
 11
8277.322920841385
 21
7846.123139034709
 31
0.0
  0
INSERT
  5
18C1D
330
18C16
100
AcDbEntity
  8
寸法
 62
     0
 48
50.0
370
    -2
100
AcDbBlockReference
  2
_DOTSMALL
 10
8277.322920841385
 20
7901.123139034706
 30
0.0
 41
100.0
 42
100.0
 43
100.0
 50
270.0
  0
INSERT
  5
18C1E
330
18C16
100
AcDbEntity
  8
寸法
 62
     0
 48
50.0
370
    -2
100
AcDbBlockReference
  2
_DOTSMALL
 10
8277.322920841385
 20
7846.123139034709
 30
0.0
 41
100.0
 42
100.0
 43
100.0
 50
90.0
  0
MTEXT
  5
18C1F
330
18C16
100
AcDbEntity
  8
寸法
 62
     7
 48
50.0
100
AcDbMText
 10
8177.322920841383
 20
7537.637857660469
 30
0.0
 40
120.0
 41
0.0
 71
     5
 72
     1
  1
\A1;55
  7
STYLE1
 11
0.0000000000000001
 21
1.0
 31
0.0
 73
     1
 44
1.0
1001
ACAD
1000
MTEXTBEGIN
1070
    73
1070
     1
1070
    44
1040
1.0
1070
    74
1070
     0
1000
MTEXTEND
  0
POINT
  5
18C20
330
18C16
100
AcDbEntity
  8
DEFPOINTS
 62
     0
 48
50.0
100
AcDbPoint
 10
7629.896575106974
 20
7901.123139034706
 30
0.0
  0
POINT
  5
18C21
330
18C16
100
AcDbEntity
  8
DEFPOINTS
 62
     0
 48
50.0
100
AcDbPoint
 10
7629.896575106974
 20
7846.123139034709
 30
0.0
  0
POINT
  5
18C22
330
18C16
100
AcDbEntity
  8
DEFPOINTS
 62
     0
 48
50.0
100
AcDbPoint
 10
8277.322920841385
 20
7846.123139034709
 30
0.0
  0
ENDBLK
  5
18C23
330
18C16
100
AcDbEntity
  8
0
 48
50.0
100
AcDbBlockEnd
  0
BLOCK
  5
18C25
330
18C24
100
AcDbEntity
  8
0
 48
50.0
100
AcDbBlockBegin
  2
*D10
 70
     1
 10
0.0
 20
0.0
 30
0.0
  3
*D10
  1

  0
LINE
  5
18C26
330
18C24
100
AcDbEntity
  8
寸法
 62
     0
 48
50.0
370
    -2
100
AcDbLine
 10
6533.037591258376
 20
9136.123139034728
 30
0.0
 11
6465.083950562664
 21
8882.516699399049
 31
0.0
  0
LINE
  5
18C27
330
18C24
100
AcDbEntity
  8
寸法
 62
     0
 48
50.0
370
    -2
100
AcDbLine
 10
7596.037591258388
 20
9136.123139034721
 30
0.0
 11
7528.083950562677
 21
8882.516699399049
 31
0.0
  0
LINE
  5
18C28
330
18C24
100
AcDbEntity
  8
寸法
 62
     0
 48
50.0
370
    -2
100
AcDbLine
 10
6481.160902108531
 20
8942.51669939905
 30
0.0
 11
7544.160902108544
 21
8942.51669939905
 31
0.0
  0
INSERT
  5
18C29
330
18C24
100
AcDbEntity
  8
寸法
 62
     0
 48
50.0
370
    -2
100
AcDbBlockReference
  2
_DOTSMALL
 10
6481.160902108531
 20
8942.51669939905
 30
0.0
 41
100.0
 42
100.0
 43
100.0
 50
180.0
  0
INSERT
  5
18C2A
330
18C24
100
AcDbEntity
  8
寸法
 62
     0
 48
50.0
370
    -2
100
AcDbBlockReference
  2
_DOTSMALL
 10
7544.160902108544
 20
8942.51669939905
 30
0.0
 41
100.0
 42
100.0
 43
100.0
  0
MTEXT
  5
18C2B
330
18C24
100
AcDbEntity
  8
寸法
 62
     7
 48
50.0
100
AcDbMText
 10
7061.28653022935
 20
9042.516699399049
 30
0.0
 40
120.0
 41
0.0
 71
     5
 72
     1
  1
\A1;1063
  7
STYLE1
 73
     1
 44
1.0
1001
ACAD
1000
MTEXTBEGIN
1070
    73
1070
     1
1070
    44
1040
1.0
1070
    74
1070
     0
1000
MTEXTEND
  0
POINT
  5
18C2C
330
18C24
100
AcDbEntity
  8
DEFPOINTS
 62
     0
 48
50.0
100
AcDbPoint
 10
6538.396575106998
 20
9156.123139034727
 30
0.0
  0
POINT
  5
18C2D
330
18C24
100
AcDbEntity
  8
DEFPOINTS
 62
     0
 48
50.0
100
AcDbPoint
 10
7601.39657510701
 20
9156.12313903472
 30
0.0
  0
POINT
  5
18C2E
330
18C24
100
AcDbEntity
  8
DEFPOINTS
 62
     0
 48
50.0
100
AcDbPoint
 10
7544.160902108544
 20
8942.51669939905
 30
0.0
  0
ENDBLK
  5
18C2F
330
18C24
100
AcDbEntity
  8
0
 48
50.0
100
AcDbBlockEnd
  0
BLOCK
  5
18C31
330
18C30
100
AcDbEntity
  8
0
 48
50.0
100
AcDbBlockBegin
  2
*D11
 70
     1
 10
0.0
 20
0.0
 30
0.0
  3
*D11
  1

  0
LINE
  5
18C32
330
18C30
100
AcDbEntity
  8
寸法
 62
     0
 48
50.0
370
    -2
100
AcDbLine
 10
7621.396575106999
 20
9600.764155186094
 30
0.0
 11
8016.754300969024
 21
9494.828371819961
 31
0.0
  0
LINE
  5
18C33
330
18C30
100
AcDbEntity
  8
寸法
 62
     0
 48
50.0
370
    -2
100
AcDbLine
 10
7621.396575106999
 20
9150.764155186099
 30
0.0
 11
8016.754300969024
 21
9044.828371819964
 31
0.0
  0
LINE
  5
18C34
330
18C30
100
AcDbEntity
  8
寸法
 62
     0
 48
50.0
370
    -2
100
AcDbLine
 10
7956.754300969024
 20
9510.905323365827
 30
0.0
 11
7956.754300969024
 21
9060.90532336583
 31
0.0
  0
INSERT
  5
18C35
330
18C30
100
AcDbEntity
  8
寸法
 62
     0
 48
50.0
370
    -2
100
AcDbBlockReference
  2
_DOTSMALL
 10
7956.754300969024
 20
9510.905323365827
 30
0.0
 41
100.0
 42
100.0
 43
100.0
 50
90.0
  0
INSERT
  5
18C36
330
18C30
100
AcDbEntity
  8
寸法
 62
     0
 48
50.0
370
    -2
100
AcDbBlockReference
  2
_DOTSMALL
 10
7956.754300969024
 20
9060.90532336583
 30
0.0
 41
100.0
 42
100.0
 43
100.0
 50
270.0
  0
MTEXT
  5
18C37
330
18C30
100
AcDbEntity
  8
寸法
 62
     7
 48
50.0
100
AcDbMText
 10
7856.754300969022
 20
9285.905323365829
 30
0.0
 40
120.0
 41
0.0
 71
     5
 72
     1
  1
\A1;450
  7
STYLE1
 11
0.0000000000000001
 21
1.0
 31
0.0
 73
     1
 44
1.0
1001
ACAD
1000
MTEXTBEGIN
1070
    73
1070
     1
1070
    44
1040
1.0
1070
    74
1070
     0
1000
MTEXTEND
  0
POINT
  5
18C38
330
18C30
100
AcDbEntity
  8
DEFPOINTS
 62
     0
 48
50.0
100
AcDbPoint
 10
7601.396575106999
 20
9606.123139034718
 30
0.0
  0
POINT
  5
18C39
330
18C30
100
AcDbEntity
  8
DEFPOINTS
 62
     0
 48
50.0
100
AcDbPoint
 10
7601.396575106999
 20
9156.12313903472
 30
0.0
  0
POINT
  5
18C3A
330
18C30
100
AcDbEntity
  8
DEFPOINTS
 62
     0
 48
50.0
100
AcDbPoint
 10
7956.754300969024
 20
9060.90532336583
 30
0.0
  0
ENDBLK
  5
18C3B
330
18C30
100
AcDbEntity
  8
0
 48
50.0
100
AcDbBlockEnd
  0
BLOCK
  5
18C3D
330
18C3C
100
AcDbEntity
  8
0
 48
50.0
100
AcDbBlockBegin
  2
*D12
 70
     1
 10
0.0
 20
0.0
 30
0.0
  3
*D12
  1

  0
LINE
  5
18C3E
330
18C3C
100
AcDbEntity
  8
寸法
 62
     0
 48
50.0
370
    -2
100
AcDbLine
 10
7649.896575106999
 20
9581.123139034721
 30
0.0
 11
8337.32292084141
 21
9581.123139034721
 31
0.0
  0
LINE
  5
18C3F
330
18C3C
100
AcDbEntity
  8
寸法
 62
     0
 48
50.0
370
    -2
100
AcDbLine
 10
7649.896575106973
 20
7901.123139034706
 30
0.0
 11
8337.32292084141
 21
7901.123139034706
 31
0.0
  0
LINE
  5
18C40
330
18C3C
100
AcDbEntity
  8
寸法
 62
     0
 48
50.0
370
    -2
100
AcDbLine
 10
8277.322920841411
 20
9581.123139034721
 30
0.0
 11
8277.322920841411
 21
7901.123139034706
 31
0.0
  0
INSERT
  5
18C41
330
18C3C
100
AcDbEntity
  8
寸法
 62
     0
 48
50.0
370
    -2
100
AcDbBlockReference
  2
_DOTSMALL
 10
8277.322920841411
 20
9581.123139034721
 30
0.0
 41
100.0
 42
100.0
 43
100.0
 50
90.0
  0
INSERT
  5
18C42
330
18C3C
100
AcDbEntity
  8
寸法
 62
     0
 48
50.0
370
    -2
100
AcDbBlockReference
  2
_DOTSMALL
 10
8277.322920841411
 20
7901.123139034706
 30
0.0
 41
100.0
 42
100.0
 43
100.0
 50
270.0
  0
MTEXT
  5
18C43
330
18C3C
100
AcDbEntity
  8
寸法
 62
     7
 48
50.0
100
AcDbMText
 10
8177.311109817788
 20
8741.123139034712
 30
0.0
 40
120.0
 41
0.0
 71
     5
 72
     1
  1
\A1;4X420=1680
  7
STYLE1
 11
0.0000000000000001
 21
1.0
 31
0.0
 73
     1
 44
1.0
1001
ACAD
1000
MTEXTBEGIN
1070
    73
1070
     1
1070
    44
1040
1.0
1070
    74
1070
     0
1000
MTEXTEND
  0
POINT
  5
18C44
330
18C3C
100
AcDbEntity
  8
DEFPOINTS
 62
     0
 48
50.0
100
AcDbPoint
 10
7629.896575106998
 20
9581.123139034721
 30
0.0
  0
POINT
  5
18C45
330
18C3C
100
AcDbEntity
  8
DEFPOINTS
 62
     0
 48
50.0
100
AcDbPoint
 10
7629.896575106974
 20
7901.123139034706
 30
0.0
  0
POINT
  5
18C46
330
18C3C
100
AcDbEntity
  8
DEFPOINTS
 62
     0
 48
50.0
100
AcDbPoint
 10
8277.322920841411
 20
7901.123139034706
 30
0.0
  0
ENDBLK
  5
18C47
330
18C3C
100
AcDbEntity
  8
0
 48
50.0
100
AcDbBlockEnd
  0
BLOCK
  5
18C49
330
18C48
100
AcDbEntity
  8
0
 48
50.0
100
AcDbBlockBegin
  2
*D13
 70
     1
 10
0.0
 20
0.0
 30
0.0
  3
*D13
  1

  0
LINE
  5
18C4A
330
18C48
100
AcDbEntity
  8
寸法
 62
     0
 48
50.0
370
    -2
100
AcDbLine
 10
4183.037591258377
 20
9136.123139034619
 30
0.0
 11
4115.083950562663
 21
8882.516699398941
 31
0.0
  0
LINE
  5
18C4B
330
18C48
100
AcDbEntity
  8
寸法
 62
     0
 48
50.0
370
    -2
100
AcDbLine
 10
5246.037591258307
 20
9136.123139034671
 30
0.0
 11
5178.08395056258
 21
8882.516699398941
 31
0.0
  0
LINE
  5
18C4C
330
18C48
100
AcDbEntity
  8
寸法
 62
     0
 48
50.0
370
    -2
100
AcDbLine
 10
4131.160902108532
 20
8942.516699398941
 30
0.0
 11
5194.160902108448
 21
8942.516699398941
 31
0.0
  0
INSERT
  5
18C4D
330
18C48
100
AcDbEntity
  8
寸法
 62
     0
 48
50.0
370
    -2
100
AcDbBlockReference
  2
_DOTSMALL
 10
4131.160902108532
 20
8942.516699398941
 30
0.0
 41
100.0
 42
100.0
 43
100.0
 50
180.0
  0
INSERT
  5
18C4E
330
18C48
100
AcDbEntity
  8
寸法
 62
     0
 48
50.0
370
    -2
100
AcDbBlockReference
  2
_DOTSMALL
 10
5194.160902108448
 20
8942.516699398941
 30
0.0
 41
100.0
 42
100.0
 43
100.0
  0
MTEXT
  5
18C4F
330
18C48
100
AcDbEntity
  8
寸法
 62
     7
 48
50.0
100
AcDbMText
 10
4658.986452655306
 20
9042.516699398941
 30
0.0
 40
120.0
 41
0.0
 71
     5
 72
     1
  1
\A1;1063
  7
STYLE1
 73
     1
 44
1.0
1001
ACAD
1000
MTEXTBEGIN
1070
    73
1070
     1
1070
    44
1040
1.0
1070
    74
1070
     0
1000
MTEXTEND
  0
POINT
  5
18C50
330
18C48
100
AcDbEntity
  8
DEFPOINTS
 62
     0
 48
50.0
100
AcDbPoint
 10
4188.396575106999
 20
9156.123139034617
 30
0.0
  0
POINT
  5
18C51
330
18C48
100
AcDbEntity
  8
DEFPOINTS
 62
     0
 48
50.0
100
AcDbPoint
 10
5251.396575106929
 20
9156.123139034672
 30
0.0
  0
POINT
  5
18C52
330
18C48
100
AcDbEntity
  8
DEFPOINTS
 62
     0
 48
50.0
100
AcDbPoint
 10
5194.160902108448
 20
8942.516699398941
 30
0.0
  0
ENDBLK
  5
18C53
330
18C48
100
AcDbEntity
  8
0
 48
50.0
100
AcDbBlockEnd
  0
BLOCK
  5
18C55
330
18C54
100
AcDbEntity
  8
0
 48
50.0
100
AcDbBlockBegin
  2
*D14
 70
     1
 10
0.0
 20
0.0
 30
0.0
  3
*D14
  1

  0
LINE
  5
18C56
330
18C54
100
AcDbEntity
  8
寸法
 62
     0
 48
50.0
370
    -2
100
AcDbLine
 10
5274.037591258307
 20
9136.123139034669
 30
0.0
 11
5206.08395056258
 21
8882.516699398941
 31
0.0
  0
LINE
  5
18C57
330
18C54
100
AcDbEntity
  8
寸法
 62
     0
 48
50.0
370
    -2
100
AcDbLine
 10
6505.037591258377
 20
9136.123139034662
 30
0.0
 11
6437.083950562653
 21
8882.516699398941
 31
0.0
  0
LINE
  5
18C58
330
18C54
100
AcDbEntity
  8
寸法
 62
     0
 48
50.0
370
    -2
100
AcDbLine
 10
5222.160902108448
 20
8942.516699398941
 30
0.0
 11
6453.16090210852
 21
8942.516699398941
 31
0.0
  0
INSERT
  5
18C59
330
18C54
100
AcDbEntity
  8
寸法
 62
     0
 48
50.0
370
    -2
100
AcDbBlockReference
  2
_DOTSMALL
 10
5222.160902108448
 20
8942.516699398941
 30
0.0
 41
100.0
 42
100.0
 43
100.0
 50
180.0
  0
INSERT
  5
18C5A
330
18C54
100
AcDbEntity
  8
寸法
 62
     0
 48
50.0
370
    -2
100
AcDbBlockReference
  2
_DOTSMALL
 10
6453.16090210852
 20
8942.516699398941
 30
0.0
 41
100.0
 42
100.0
 43
100.0
  0
MTEXT
  5
18C5B
330
18C54
100
AcDbEntity
  8
寸法
 62
     7
 48
50.0
100
AcDbMText
 10
6081.244808320626
 20
9042.528510422561
 30
0.0
 40
120.0
 41
0.0
 71
     5
 72
     1
  1
\A1;1231
  7
STYLE1
 73
     1
 44
1.0
1001
ACAD
1000
MTEXTBEGIN
1070
    73
1070
     1
1070
    44
1040
1.0
1070
    74
1070
     0
1000
MTEXTEND
  0
POINT
  5
18C5C
330
18C54
100
AcDbEntity
  8
DEFPOINTS
 62
     0
 48
50.0
100
AcDbPoint
 10
5279.396575106929
 20
9156.123139034669
 30
0.0
  0
POINT
  5
18C5D
330
18C54
100
AcDbEntity
  8
DEFPOINTS
 62
     0
 48
50.0
100
AcDbPoint
 10
6510.396575106999
 20
9156.123139034662
 30
0.0
  0
POINT
  5
18C5E
330
18C54
100
AcDbEntity
  8
DEFPOINTS
 62
     0
 48
50.0
100
AcDbPoint
 10
6453.16090210852
 20
8942.516699398941
 30
0.0
  0
ENDBLK
  5
18C5F
330
18C54
100
AcDbEntity
  8
0
 48
50.0
100
AcDbBlockEnd
  0
BLOCK
  5
18C61
330
18C60
100
AcDbEntity
  8
0
 48
50.0
100
AcDbBlockBegin
  2
*D15
 70
     1
 10
0.0
 20
0.0
 30
0.0
  3
*D15
  1

  0
LINE
  5
18C62
330
18C60
100
AcDbEntity
  8
寸法
 62
     0
 48
50.0
370
    -2
100
AcDbLine
 10
5065.896575106966
 20
7749.123139034579
 30
0.0
 11
5065.896575106966
 21
7099.952920982538
 31
0.0
  0
LINE
  5
18C63
330
18C60
100
AcDbEntity
  8
寸法
 62
     0
 48
50.0
370
    -2
100
AcDbLine
 10
6331.896575106966
 20
7749.123139034579
 30
0.0
 11
6331.896575106966
 21
7099.952920982538
 31
0.0
  0
LINE
  5
18C64
330
18C60
100
AcDbEntity
  8
寸法
 62
     0
 48
50.0
370
    -2
100
AcDbLine
 10
5065.896575106966
 20
7159.952920982537
 30
0.0
 11
6331.896575106966
 21
7159.952920982537
 31
0.0
  0
INSERT
  5
18C65
330
18C60
100
AcDbEntity
  8
寸法
 62
     0
 48
50.0
370
    -2
100
AcDbBlockReference
  2
_DOTSMALL
 10
5065.896575106966
 20
7159.952920982537
 30
0.0
 41
100.0
 42
100.0
 43
100.0
 50
180.0
  0
INSERT
  5
18C66
330
18C60
100
AcDbEntity
  8
寸法
 62
     0
 48
50.0
370
    -2
100
AcDbBlockReference
  2
_DOTSMALL
 10
6331.896575106966
 20
7159.952920982537
 30
0.0
 41
100.0
 42
100.0
 43
100.0
  0
MTEXT
  5
18C67
330
18C60
100
AcDbEntity
  8
寸法
 62
     7
 48
50.0
100
AcDbMText
 10
5711.986008735934
 20
7359.964732006159
 30
0.0
 40
120.0
 41
0.0
 71
     5
 72
     1
  1
\A1;有効開口部間口\P1266
  7
STYLE1
 73
     1
 44
1.0
1001
ACAD
1000
MTEXTBEGIN
1070
    73
1070
     1
1070
    44
1040
1.0
1070
    74
1070
     0
1000
MTEXTEND
  0
POINT
  5
18C68
330
18C60
100
AcDbEntity
  8
DEFPOINTS
 62
     0
 48
50.0
100
AcDbPoint
 10
5065.896575106966
 20
7769.123139034579
 30
0.0
  0
POINT
  5
18C69
330
18C60
100
AcDbEntity
  8
DEFPOINTS
 62
     0
 48
50.0
100
AcDbPoint
 10
6331.896575106966
 20
7769.123139034579
 30
0.0
  0
POINT
  5
18C6A
330
18C60
100
AcDbEntity
  8
DEFPOINTS
 62
     0
 48
50.0
100
AcDbPoint
 10
6331.896575106966
 20
7159.952920982537
 30
0.0
  0
ENDBLK
  5
18C6B
330
18C60
100
AcDbEntity
  8
0
 48
50.0
100
AcDbBlockEnd
  0
BLOCK
  5
18C6D
330
18C6C
100
AcDbEntity
  8
0
 48
50.0
100
AcDbBlockBegin
  2
*D16
 70
     1
 10
0.0
 20
0.0
 30
0.0
  3
*D16
  1

  0
LINE
  5
18C6E
330
18C6C
100
AcDbEntity
  8
寸法
 62
     0
 48
50.0
370
    -2
100
AcDbLine
 10
7200.896575106966
 20
7846.123139034578
 30
0.0
 11
7457.192158500191
 21
7846.123139034578
 31
0.0
  0
LINE
  5
18C6F
330
18C6C
100
AcDbEntity
  8
寸法
 62
     0
 48
50.0
370
    -2
100
AcDbLine
 10
7199.896575106966
 20
7769.123139034579
 30
0.0
 11
7457.192158500191
 21
7769.123139034579
 31
0.0
  0
LINE
  5
18C70
330
18C6C
100
AcDbEntity
  8
寸法
 62
     0
 48
50.0
370
    -2
100
AcDbLine
 10
7417.192158500192
 20
7866.123139034579
 30
0.0
 11
7417.192158500192
 21
7886.123139034578
 31
0.0
  0
LINE
  5
18C71
330
18C6C
100
AcDbEntity
  8
寸法
 62
     0
 48
50.0
370
    -2
100
AcDbLine
 10
7417.192158500192
 20
7749.123139034579
 30
0.0
 11
7417.192158500192
 21
7533.123139034573
 31
0.0
  0
LINE
  5
18C72
330
18C6C
100
AcDbEntity
  8
寸法
 62
     0
 48
50.0
370
    -2
100
AcDbLine
 10
7417.192158500192
 20
7846.123139034578
 30
0.0
 11
7417.192158500192
 21
7769.123139034579
 31
0.0
  0
INSERT
  5
18C73
330
18C6C
100
AcDbEntity
  8
寸法
 62
     0
 48
50.0
370
    -2
100
AcDbBlockReference
  2
_DOT
 10
7417.192158500192
 20
7846.123139034578
 30
0.0
 41
20.0
 42
20.0
 43
20.0
 50
270.0
  0
INSERT
  5
18C74
330
18C6C
100
AcDbEntity
  8
寸法
 62
     0
 48
50.0
370
    -2
100
AcDbBlockReference
  2
_DOT
 10
7417.192158500192
 20
7769.123139034579
 30
0.0
 41
20.0
 42
20.0
 43
20.0
 50
90.0
  0
MTEXT
  5
18C75
330
18C6C
100
AcDbEntity
  8
寸法
 62
     7
 48
50.0
100
AcDbMText
 10
7325.192158500191
 20
7631.123139034575
 30
0.0
 40
120.0
 41
0.0
 71
     5
 72
     1
  1
\A1;77
  7
STYLE1
 11
0.0000000000000001
 21
1.0
 31
0.0
 73
     1
 44
1.0
1001
ACAD
1000
MTEXTBEGIN
1070
    73
1070
     1
1070
    44
1040
1.0
1070
    74
1070
     0
1000
MTEXTEND
  0
POINT
  5
18C76
330
18C6C
100
AcDbEntity
  8
DEFPOINTS
 62
     0
 48
50.0
100
AcDbPoint
 10
7180.896575106967
 20
7846.123139034578
 30
0.0
  0
POINT
  5
18C77
330
18C6C
100
AcDbEntity
  8
DEFPOINTS
 62
     0
 48
50.0
100
AcDbPoint
 10
7179.896575106965
 20
7769.123139034579
 30
0.0
  0
POINT
  5
18C78
330
18C6C
100
AcDbEntity
  8
DEFPOINTS
 62
     0
 48
50.0
100
AcDbPoint
 10
7417.192158500192
 20
7769.123139034579
 30
0.0
  0
ENDBLK
  5
18C79
330
18C6C
100
AcDbEntity
  8
0
 48
50.0
100
AcDbBlockEnd
  0
BLOCK
  5
18DA0
330
18C7A
100
AcDbEntity
  8
0
 48
50.0
100
AcDbBlockBegin
  2
A$C3B1A506B
 70
     0
 10
0.0
 20
0.0
 30
0.0
  3
A$C3B1A506B
  1

  0
MTEXT
  5
18C7B
330
18C7A
100
AcDbEntity
  8
寸法
 62
     7
 48
50.0
100
AcDbMText
 10
3342.250386887194
 20
2778.329429134012
 30
0.0
 40
96.0
 41
0.0
 71
     5
 72
     1
  1
棚 2段
  7
STYLE1
 73
     1
 44
1.0
1001
ACAD
1000
MTEXTBEGIN
1070
    73
1070
     1
1070
    44
1040
1.0
1070
    74
1070
     0
1000
MTEXTEND
  0
MTEXT
  5
18C7C
330
18C7A
100
AcDbEntity
  8
寸法
 62
     7
 48
50.0
100
AcDbMText
 10
2167.25038688716
 20
2778.329429133986
 30
0.0
 40
96.0
 41
0.0
 71
     5
 72
     1
  1
棚 2段
  7
STYLE1
 73
     1
 44
1.0
1001
ACAD
1000
MTEXTBEGIN
1070
    73
1070
     1
1070
    44
1040
1.0
1070
    74
1070
     0
1000
MTEXTEND
  0
MTEXT
  5
18C7D
330
18C7A
100
AcDbEntity
  8
寸法
 62
     7
 48
50.0
100
AcDbMText
 10
992.2503868871608
 20
2778.329429133935
 30
0.0
 40
96.0
 41
0.0
 71
     5
 72
     1
  1
棚 2段
  7
STYLE1
 73
     1
 44
1.0
1001
ACAD
1000
MTEXTBEGIN
1070
    73
1070
     1
1070
    44
1040
1.0
1070
    74
1070
     0
1000
MTEXTEND
  0
LINE
  5
18C7E
330
18C7A
100
AcDbEntity
  8
細線
 48
50.0
100
AcDbLine
 10
2771.970589276527
 20
1368.994384123192
 30
0.0
 11
3398.970589276523
 21
1368.994384123192
 31
0.0
  0
LINE
  5
18C7F
330
18C7A
100
AcDbEntity
  8
細線
 48
50.0
100
AcDbLine
 10
2117.970593930113
 20
1335.285615569113
 30
0.0
 11
3398.970589276523
 21
1335.285615569113
 31
0.0
  0
LINE
  5
18C80
330
18C7A
100
AcDbEntity
  8
細線
 48
50.0
100
AcDbLine
 10
2076.970593930115
 20
1364.690523565368
 30
0.0
 11
1322.970589276523
 21
1364.690523565367
 31
0.0
  0
LINE
  5
18C81
330
18C7A
100
AcDbEntity
  8
細線
100
AcDbLine
 10
3170.720579860066
 20
1388.494284088199
 30
0.0
 11
3173.052119381877
 21
1393.494286728162
 31
0.0
  0
LINE
  5
18C82
330
18C7A
100
AcDbEntity
  8
細線
100
AcDbLine
 10
3240.720589276525
 20
1388.494269174465
 30
0.0
 11
3238.389042800336
 21
1393.494286728144
 31
0.0
  0
LINE
  5
18C83
330
18C7A
100
AcDbEntity
  8
細線
100
AcDbLine
 10
3238.389042800336
 20
1393.494286728144
 30
0.0
 11
3173.052119381862
 21
1393.494286728133
 31
0.0
  0
LINE
  5
18C84
330
18C7A
100
AcDbEntity
  8
細線
100
AcDbLine
 10
3098.389042800336
 20
1393.494286728144
 30
0.0
 11
3033.052119381862
 21
1393.494286728133
 31
0.0
  0
LINE
  5
18C85
330
18C7A
100
AcDbEntity
  8
細線
100
AcDbLine
 10
3100.720589276523
 20
1388.494269174465
 30
0.0
 11
3098.389042800336
 21
1393.494286728144
 31
0.0
  0
LINE
  5
18C86
330
18C7A
100
AcDbEntity
  8
細線
100
AcDbLine
 10
3030.720579860066
 20
1388.494284088199
 30
0.0
 11
3033.052119381875
 21
1393.494286728162
 31
0.0
  0
LINE
  5
18C87
330
18C7A
100
AcDbEntity
  8
細線
100
AcDbLine
 10
2890.720589276525
 20
1388.494269174465
 30
0.0
 11
2893.052128798336
 21
1393.494271814428
 31
0.0
  0
LINE
  5
18C88
330
18C7A
100
AcDbEntity
  8
細線
100
AcDbLine
 10
2960.720598692984
 20
1388.494254260731
 30
0.0
 11
2958.389052216793
 21
1393.49427181441
 31
0.0
  0
LINE
  5
18C89
330
18C7A
100
AcDbEntity
  8
細線
100
AcDbLine
 10
2958.389052216795
 20
1393.49427181441
 30
0.0
 11
2893.052128798321
 21
1393.494271814399
 31
0.0
  0
LINE
  5
18C8A
330
18C7A
100
AcDbEntity
  8
細線
100
AcDbLine
 10
2667.139038146739
 20
1359.494298590735
 30
0.0
 11
2601.802114728263
 21
1359.494298590724
 31
0.0
  0
LINE
  5
18C8B
330
18C7A
100
AcDbEntity
  8
細線
100
AcDbLine
 10
2669.470584622926
 20
1354.494281037055
 30
0.0
 11
2667.139038146737
 21
1359.494298590735
 31
0.0
  0
LINE
  5
18C8C
330
18C7A
100
AcDbEntity
  8
細線
100
AcDbLine
 10
2599.470575206469
 20
1354.49429595079
 30
0.0
 11
2601.802114728278
 21
1359.494298590752
 31
0.0
  0
LINE
  5
18C8D
330
18C7A
100
AcDbEntity
  8
細線
 48
50.0
100
AcDbLine
 10
2440.853968524536
 20
1372.765132327548
 30
0.0
 11
2446.609486107205
 21
1354.494281037057
 31
0.0
  0
LINE
  5
18C8E
330
18C7A
100
AcDbEntity
  8
細線
 48
50.0
100
AcDbLine
 10
2429.925520044106
 20
1372.765132327546
 30
0.0
 11
2440.853968524536
 21
1372.765132327548
 31
0.0
  0
ARC
  5
18C8F
330
18C7A
100
AcDbEntity
  8
細線
 48
50.0
100
AcDbCircle
 10
2424.471163986787
 20
1374.265132327546
 30
0.0
 40
5.0
100
AcDbArc
 50
204.6243183520723
 51
335.3756816479278
  0
ARC
  5
18C90
330
18C7A
100
AcDbEntity
  8
細線
 48
50.0
100
AcDbCircle
 10
2429.925520044106
 20
1371.765132327546
 30
0.0
 40
1.0
100
AcDbArc
 50
90.0
 51
155.3756816479277
  0
ARC
  5
18C91
330
18C7A
100
AcDbEntity
  8
細線
 48
50.0
100
AcDbCircle
 10
2419.016807929469
 20
1371.765132327546
 30
0.0
 40
1.0
100
AcDbArc
 50
24.62431835207225
 51
90.0
  0
LINE
  5
18C92
330
18C7A
100
AcDbEntity
  8
細線
 48
50.0
100
AcDbLine
 10
2408.088359449037
 20
1372.765132327548
 30
0.0
 11
2419.016807929469
 21
1372.765132327546
 31
0.0
  0
LINE
  5
18C93
330
18C7A
100
AcDbEntity
  8
細線
 48
50.0
100
AcDbLine
 10
2402.33284186637
 20
1354.494281037054
 30
0.0
 11
2408.088359449037
 21
1372.765132327548
 31
0.0
  0
LINE
  5
18C94
330
18C7A
100
AcDbEntity
  8
細線
100
AcDbLine
 10
2458.070304175992
 20
1354.494278397076
 30
0.0
 11
2460.401843697802
 21
1359.494281037039
 31
0.0
  0
LINE
  5
18C95
330
18C7A
100
AcDbEntity
  8
細線
100
AcDbLine
 10
2528.070313592451
 20
1354.494263483342
 30
0.0
 11
2525.738767116262
 21
1359.494281037021
 31
0.0
  0
LINE
  5
18C96
330
18C7A
100
AcDbEntity
  8
細線
100
AcDbLine
 10
2525.738767116262
 20
1359.494281037021
 30
0.0
 11
2460.40184369779
 21
1359.49428103701
 31
0.0
  0
LINE
  5
18C97
330
18C7A
100
AcDbEntity
  8
細線
100
AcDbLine
 10
2387.139046332155
 20
1359.494281037021
 30
0.0
 11
2321.80212291368
 21
1359.49428103701
 31
0.0
  0
LINE
  5
18C98
330
18C7A
100
AcDbEntity
  8
細線
100
AcDbLine
 10
2389.470592808342
 20
1354.494263483342
 30
0.0
 11
2387.139046332153
 21
1359.494281037021
 31
0.0
  0
LINE
  5
18C99
330
18C7A
100
AcDbEntity
  8
細線
100
AcDbLine
 10
2319.470584622926
 20
1354.494281037054
 30
0.0
 11
2321.802122913694
 21
1359.494281037039
 31
0.0
  0
LINE
  5
18C9A
330
18C7A
100
AcDbEntity
  8
細線
100
AcDbLine
 10
2179.47061994182
 20
1354.494289224422
 30
0.0
 11
2181.802158232587
 21
1359.494289224407
 31
0.0
  0
LINE
  5
18C9B
330
18C7A
100
AcDbEntity
  8
細線
100
AcDbLine
 10
2249.470628127236
 20
1354.49427167071
 30
0.0
 11
2247.139081651047
 21
1359.494289224389
 31
0.0
  0
LINE
  5
18C9C
330
18C7A
100
AcDbEntity
  8
細線
100
AcDbLine
 10
2247.139081651047
 20
1359.494289224389
 30
0.0
 11
2181.802158232573
 21
1359.494289224378
 31
0.0
  0
LINE
  5
18C9D
330
18C7A
100
AcDbEntity
  8
細線
100
AcDbLine
 10
1807.970585744697
 20
1320.494460905133
 30
0.0
 11
1810.302124035464
 21
1325.494460905118
 31
0.0
  0
LINE
  5
18C9E
330
18C7A
100
AcDbEntity
  8
細線
100
AcDbLine
 10
1877.970593930113
 20
1320.494443351421
 30
0.0
 11
1875.639047453926
 21
1325.4944609051
 31
0.0
  0
LINE
  5
18C9F
330
18C7A
100
AcDbEntity
  8
細線
100
AcDbLine
 10
1875.639047453926
 20
1325.4944609051
 30
0.0
 11
1810.302124035452
 21
1325.494460905089
 31
0.0
  0
LINE
  5
18CA0
330
18C7A
100
AcDbEntity
  8
細線
100
AcDbLine
 10
2015.639047453926
 20
1325.4944609051
 30
0.0
 11
1950.302124035452
 21
1325.494460905089
 31
0.0
  0
LINE
  5
18CA1
330
18C7A
100
AcDbEntity
  8
細線
100
AcDbLine
 10
2017.970593930113
 20
1320.494443351421
 30
0.0
 11
2015.639047453924
 21
1325.4944609051
 31
0.0
  0
LINE
  5
18CA2
330
18C7A
100
AcDbEntity
  8
細線
100
AcDbLine
 10
1947.970585744697
 20
1320.494460905133
 30
0.0
 11
1950.302124035465
 21
1325.494460905118
 31
0.0
  0
LINE
  5
18CA3
330
18C7A
100
AcDbEntity
  8
細線
100
AcDbLine
 10
1735.639047453926
 20
1325.494460905098
 30
0.0
 11
1670.302124035454
 21
1325.494460905087
 31
0.0
  0
LINE
  5
18CA4
330
18C7A
100
AcDbEntity
  8
細線
100
AcDbLine
 10
1737.970593930113
 20
1320.494443351419
 30
0.0
 11
1735.639047453926
 21
1325.494460905098
 31
0.0
  0
LINE
  5
18CA5
330
18C7A
100
AcDbEntity
  8
細線
100
AcDbLine
 10
1667.970585744697
 20
1320.494460905131
 30
0.0
 11
1670.302124035465
 21
1325.494460905116
 31
0.0
  0
LINE
  5
18CA6
330
18C7A
100
AcDbEntity
  8
細線
100
AcDbLine
 10
1527.970593930113
 20
1320.494460905133
 30
0.0
 11
1530.302132220881
 21
1325.494460905118
 31
0.0
  0
LINE
  5
18CA7
330
18C7A
100
AcDbEntity
  8
細線
100
AcDbLine
 10
1597.970602115529
 20
1320.494443351421
 30
0.0
 11
1595.639055639342
 21
1325.4944609051
 31
0.0
  0
LINE
  5
18CA8
330
18C7A
100
AcDbEntity
  8
細線
100
AcDbLine
 10
1595.639055639342
 20
1325.4944609051
 30
0.0
 11
1530.302132220869
 21
1325.494460905089
 31
0.0
  0
ARC
  5
18CA9
330
18C7A
100
AcDbEntity
  8
部品1
 48
0.01
100
AcDbCircle
 10
1483.470482677778
 20
1319.493338720063
 30
0.0
 40
0.5
100
AcDbArc
 50
270.0
 51
0.0
  0
LINE
  5
18CAA
330
18C7A
100
AcDbEntity
  8
部品1
 48
0.01
100
AcDbLine
 10
1483.970482677778
 20
1320.493338720063
 30
0.0
 11
1483.970482677778
 21
1319.493338720063
 31
0.0
  0
LINE
  5
18CAB
330
18C7A
100
AcDbEntity
  8
部品1
 48
0.01
100
AcDbLine
 10
1483.970482677778
 20
1320.493338720063
 30
0.0
 11
1483.970482677778
 21
1319.493338720063
 31
0.0
  0
LINE
  5
18CAC
330
18C7A
100
AcDbEntity
  8
部品1
 48
0.01
100
AcDbLine
 10
1483.470482677778
 20
1318.993338720063
 30
0.0
 11
1476.857977247713
 21
1318.993338720062
 31
0.0
  0
ARC
  5
18CAD
330
18C7A
100
AcDbEntity
  8
部品1
100
AcDbCircle
 10
1476.926326800494
 20
1319.993338720062
 30
0.0
 40
1.0
100
AcDbArc
 50
160.5287793655865
 51
270.0
  0
ARC
  5
18CAE
330
18C7A
100
AcDbEntity
  8
部品1
100
AcDbCircle
 10
1451.470482677778
 20
1328.993338720062
 30
0.0
 40
26.0
100
AcDbArc
 50
340.5287793655865
 51
0.0
  0
LINE
  5
18CAF
330
18C7A
100
AcDbEntity
  8
部品1
100
AcDbLine
 10
1477.470482677778
 20
1328.993338720062
 30
0.0
 11
1477.470482677778
 21
1333.993338720061
 31
0.0
  0
ARC
  5
18CB0
330
18C7A
100
AcDbEntity
  8
部品1
 48
0.01
100
AcDbCircle
 10
1475.470482677778
 20
1333.993338720061
 30
0.0
 40
2.0
100
AcDbArc
 50
0.0
 51
90.0
  0
ARC
  5
18CB1
330
18C7A
100
AcDbEntity
  8
部品1
100
AcDbCircle
 10
1473.862091052968
 20
1332.993338720062
 30
0.0
 40
3.0
100
AcDbArc
 50
90.0
 51
141.6069559808035
  0
LINE
  5
18CB2
330
18C7A
100
AcDbEntity
  8
部品1
 48
0.01
100
AcDbLine
 10
1475.470482677778
 20
1335.993338720062
 30
0.0
 11
1473.862091052968
 21
1335.993338720062
 31
0.0
  0
ARC
  5
18CB3
330
18C7A
100
AcDbEntity
  8
部品1
100
AcDbCircle
 10
1455.399768463507
 20
1332.293338720065
 30
0.0
 40
3.0
100
AcDbArc
 50
254.0576313943215
 51
270.0
  0
ARC
  5
18CB4
330
18C7A
100
AcDbEntity
  8
部品1
100
AcDbCircle
 10
1462.541196892049
 20
1332.293338720065
 30
0.0
 40
3.0
100
AcDbArc
 50
270.0
 51
285.9423686056786
  0
LINE
  5
18CB5
330
18C7A
100
AcDbEntity
  8
部品1
100
AcDbLine
 10
1462.541196892049
 20
1329.293338720064
 30
0.0
 11
1455.399768463507
 21
1329.293338720064
 31
0.0
  0
ARC
  5
18CB6
330
18C7A
100
AcDbEntity
  8
部品1
100
AcDbCircle
 10
1458.970482677778
 20
1344.793338720065
 30
0.0
 40
16.0
100
AcDbArc
 50
285.9423686056786
 51
321.6069559808035
  0
LINE
  5
18CB7
330
18C7A
100
AcDbEntity
  8
部品1
 48
0.01
100
AcDbLine
 10
1442.470482677778
 20
1335.993338720062
 30
0.0
 11
1444.078874302588
 21
1335.993338720062
 31
0.0
  0
ARC
  5
18CB8
330
18C7A
100
AcDbEntity
  8
部品1
100
AcDbCircle
 10
1444.078874302588
 20
1332.993338720062
 30
0.0
 40
3.0
100
AcDbArc
 50
38.39304401919648
 51
90.0
  0
ARC
  5
18CB9
330
18C7A
100
AcDbEntity
  8
部品1
100
AcDbCircle
 10
1458.970482677778
 20
1344.793338720065
 30
0.0
 40
16.0
100
AcDbArc
 50
218.3930440191965
 51
254.0576313943215
  0
LINE
  5
18CBA
330
18C7A
100
AcDbEntity
  8
部品1
100
AcDbLine
 10
1440.470482677778
 20
1328.993338720062
 30
0.0
 11
1440.470482677778
 21
1333.993338720061
 31
0.0
  0
ARC
  5
18CBB
330
18C7A
100
AcDbEntity
  8
部品1
 48
0.01
100
AcDbCircle
 10
1442.470482677778
 20
1333.993338720061
 30
0.0
 40
2.0
100
AcDbArc
 50
90.0
 51
180.0
  0
ARC
  5
18CBC
330
18C7A
100
AcDbEntity
  8
部品1
100
AcDbCircle
 10
1466.470482677778
 20
1328.993338720062
 30
0.0
 40
26.0
100
AcDbArc
 50
180.0
 51
199.4712206344134
  0
ARC
  5
18CBD
330
18C7A
100
AcDbEntity
  8
部品1
 48
0.01
100
AcDbCircle
 10
1434.470482677778
 20
1319.493338720063
 30
0.0
 40
0.5
100
AcDbArc
 50
180.0
 51
270.0
  0
LINE
  5
18CBE
330
18C7A
100
AcDbEntity
  8
部品1
 48
0.01
100
AcDbLine
 10
1434.470482677778
 20
1318.993338720063
 30
0.0
 11
1441.014638555061
 21
1318.993338720062
 31
0.0
  0
LINE
  5
18CBF
330
18C7A
100
AcDbEntity
  8
部品1
 48
0.01
100
AcDbLine
 10
1433.970482677778
 20
1320.493338720063
 30
0.0
 11
1433.970482677778
 21
1319.493338720063
 31
0.0
  0
ARC
  5
18CC0
330
18C7A
100
AcDbEntity
  8
部品1
100
AcDbCircle
 10
1441.014638555061
 20
1319.993338720062
 30
0.0
 40
1.0
100
AcDbArc
 50
270.0
 51
19.47122063441346
  0
LINE
  5
18CC1
330
18C7A
100
AcDbEntity
  8
細線
100
AcDbLine
 10
1479.470482677785
 20
1338.493338720065
 30
0.0
 11
1438.470482677785
 21
1338.493338720058
 31
0.0
  0
LINE
  5
18CC2
330
18C7A
100
AcDbEntity
  8
細線
100
AcDbLine
 10
1438.470482677785
 20
1338.493338720058
 30
0.0
 11
1438.470482677785
 21
1320.49333872004
 31
0.0
  0
LINE
  5
18CC3
330
18C7A
100
AcDbEntity
  8
細線
100
AcDbLine
 10
1479.470482677785
 20
1338.493338720065
 30
0.0
 11
1479.470482677785
 21
1320.49333872004
 31
0.0
  0
LINE
  5
18CC4
330
18C7A
100
AcDbEntity
  8
細線
100
AcDbLine
 10
1322.970589276523
 20
1324.494269174465
 30
0.0
 11
1322.970589276523
 21
1320.494269174513
 31
0.0
  0
LINE
  5
18CC5
330
18C7A
100
AcDbEntity
  8
寸法
 48
50.0
100
AcDbLine
 10
1746.17359555837
 20
1170.531020743327
 30
0.0
 11
1694.767587648266
 21
1170.531020743327
 31
0.0
  0
LINE
  5
18CC6
330
18C7A
100
AcDbEntity
  8
寸法
 48
50.0
100
AcDbLine
 10
1694.767587648266
 20
1170.531020743327
 30
0.0
 11
1694.767587648266
 21
1201.841179395494
 31
0.0
  0
LINE
  5
18CC7
330
18C7A
100
AcDbEntity
  8
寸法
 48
50.0
100
AcDbLine
 10
1694.767587648266
 20
1201.841179395494
 30
0.0
 11
1665.006255656843
 21
1201.841179395494
 31
0.0
  0
LINE
  5
18CC8
330
18C7A
100
AcDbEntity
  8
寸法
 48
50.0
100
AcDbLine
 10
1665.006255656843
 20
1201.841179395494
 30
0.0
 11
1720.470591603318
 21
1239.420630324105
 31
0.0
  0
LINE
  5
18CC9
330
18C7A
100
AcDbEntity
  8
寸法
 48
50.0
100
AcDbLine
 10
1775.934927549793
 20
1201.841179395494
 30
0.0
 11
1720.470591603318
 21
1239.420630324105
 31
0.0
  0
LINE
  5
18CCA
330
18C7A
100
AcDbEntity
  8
寸法
 48
50.0
100
AcDbLine
 10
1746.17359555837
 20
1201.841179395494
 30
0.0
 11
1775.934927549793
 21
1201.841179395494
 31
0.0
  0
LINE
  5
18CCB
330
18C7A
100
AcDbEntity
  8
寸法
 48
50.0
100
AcDbLine
 10
1746.17359555837
 20
1170.531020743327
 30
0.0
 11
1746.17359555837
 21
1201.841179395494
 31
0.0
  0
LINE
  5
18CCC
330
18C7A
100
AcDbEntity
  8
寸法
 48
50.0
100
AcDbLine
 10
1694.767587648266
 20
1170.531020743327
 30
0.0
 11
1746.17359555837
 21
1170.531020743327
 31
0.0
  0
LINE
  5
18CCD
330
18C7A
100
AcDbEntity
  8
寸法
 48
50.0
100
AcDbLine
 10
2025.339129835225
 20
1227.676611498152
 30
0.0
 11
2025.339129835225
 21
1174.01297691636
 31
0.0
  0
LINE
  5
18CCE
330
18C7A
100
AcDbEntity
  8
寸法
 48
50.0
100
AcDbLine
 10
2114.623348430647
 20
1203.752977228664
 30
0.0
 11
2025.339129835225
 21
1227.676611498152
 31
0.0
  0
LINE
  5
18CCF
330
18C7A
100
AcDbEntity
  8
寸法
 48
50.0
100
AcDbLine
 10
1895.471408254923
 20
1203.752977228664
 30
0.0
 11
2114.623348430647
 21
1203.752977228664
 31
0.0
  0
DIMENSION
  5
18CD0
330
18C7A
100
AcDbEntity
  8
寸法
 48
50.0
100
AcDbDimension
  2
*D15
 10
2588.970589276523
 20
706.3240511224249
 30
0.0
 11
1969.060022905491
 21
706.3240511224249
 31
0.0
 12
-3742.925985830444
 22
-6453.628869860112
 32
0.0
 70
   128
  1
有効開口部間口\P<>
 71
     5
 42
1266.0
  3
INABA_S40G
100
AcDbAlignedDimension
 13
1322.970589276523
 23
1315.494269174465
 33
0.0
 14
2588.970589276523
 24
1315.494269174465
 34
0.0
100
AcDbRotatedDimension
1001
ACAD
1000
DSTYLE
1002
{
1070
   341
1005
0
1002
}
  0
LINE
  5
18CD1
330
18C7A
100
AcDbEntity
  8
部品1
100
AcDbLine
 10
3409.970589276524
 20
1392.494269174465
 30
0.0
 11
3437.970589276523
 21
1392.494269174465
 31
0.0
  0
DIMENSION
  5
18CD2
330
18C7A
100
AcDbEntity
  8
寸法
100
AcDbDimension
  2
*D16
 10
3674.266172669749
 20
1315.494269174465
 30
0.0
 11
3674.266172669748
 21
1177.494269174462
 31
0.0
 12
-3742.925985830444
 22
-6453.628869860112
 32
0.0
 70
   128
 71
     5
 42
77.0
  3
INABA_S40
100
AcDbAlignedDimension
 13
3437.970589276523
 23
1392.494269174465
 33
0.0
 14
3436.970589276523
 24
1315.494269174465
 34
0.0
 50
90.0
100
AcDbRotatedDimension
1001
ACAD
1000
DSTYLE
1002
{
1070
    41
1040
0.5
1070
    44
1040
1.0
1070
   147
1040
0.8
1070
   271
1070
     2
1070
   272
1070
     2
1070
   289
1070
     3
1070
   340
1005
F706
1070
   343
1005
164B4
1070
   344
1005
164B4
1002
}
  0
LINE
  5
18CD3
330
18C7A
100
AcDbEntity
  8
部品1
100
AcDbLine
 10
3437.970589276523
 20
1315.494269174465
 30
0.0
 11
3437.970589276523
 21
1392.494269174465
 31
0.0
  0
LINE
  5
18CD4
330
18C7A
100
AcDbEntity
  8
部品1
100
AcDbLine
 10
3398.970589276523
 20
1388.494269174465
 30
0.0
 11
3409.970589276524
 21
1388.494269174465
 31
0.0
  0
LINE
  5
18CD5
330
18C7A
100
AcDbEntity
  8
部品1
100
AcDbLine
 10
3407.970589276523
 20
1324.494269174465
 30
0.0
 11
3407.970589276523
 21
1315.494269174465
 31
0.0
  0
LINE
  5
18CD6
330
18C7A
100
AcDbEntity
  8
部品1
100
AcDbLine
 10
3398.970589276523
 20
1324.494269174465
 30
0.0
 11
3407.970589276523
 21
1324.494269174465
 31
0.0
  0
LINE
  5
18CD7
330
18C7A
100
AcDbEntity
  8
部品1
100
AcDbLine
 10
3398.970589276523
 20
1388.494269174465
 30
0.0
 11
3398.970589276523
 21
1324.494269174465
 31
0.0
  0
LINE
  5
18CD8
330
18C7A
100
AcDbEntity
  8
部品1
100
AcDbLine
 10
3409.970589276524
 20
1419.494269174465
 30
0.0
 11
3409.970589276524
 21
1388.494269174465
 31
0.0
  0
LINE
  5
18CD9
330
18C7A
100
AcDbEntity
  8
部品1
100
AcDbLine
 10
1322.970589276523
 20
1388.494269174465
 30
0.0
 11
1311.970589276523
 21
1388.494269174465
 31
0.0
  0
LINE
  5
18CDA
330
18C7A
100
AcDbEntity
  8
部品1
100
AcDbLine
 10
1283.970589276523
 20
1392.494269174465
 30
0.0
 11
1311.970589276523
 21
1392.494269174465
 31
0.0
  0
LINE
  5
18CDB
330
18C7A
100
AcDbEntity
  8
部品1
100
AcDbLine
 10
1313.970589276523
 20
1324.494269174465
 30
0.0
 11
1313.970589276523
 21
1315.494269174465
 31
0.0
  0
LINE
  5
18CDC
330
18C7A
100
AcDbEntity
  8
部品1
100
AcDbLine
 10
1322.970589276523
 20
1324.494269174465
 30
0.0
 11
1313.970589276523
 21
1324.494269174465
 31
0.0
  0
LINE
  5
18CDD
330
18C7A
100
AcDbEntity
  8
部品1
100
AcDbLine
 10
1313.970589276523
 20
1315.494269174465
 30
0.0
 11
1283.970589276523
 21
1315.494269174465
 31
0.0
  0
LINE
  5
18CDE
330
18C7A
100
AcDbEntity
  8
部品1
100
AcDbLine
 10
1283.970589276523
 20
1315.494269174465
 30
0.0
 11
1283.970589276523
 21
1392.494269174465
 31
0.0
  0
LINE
  5
18CDF
330
18C7A
100
AcDbEntity
  8
部品1
100
AcDbLine
 10
1322.970589276523
 20
1388.494269174465
 30
0.0
 11
1322.970589276523
 21
1324.494269174465
 31
0.0
  0
LINE
  5
18CE0
330
18C7A
100
AcDbEntity
  8
部品1
100
AcDbLine
 10
1311.970589276523
 20
1419.494269174462
 30
0.0
 11
1311.970589276523
 21
1388.494269174465
 31
0.0
  0
LINE
  5
18CE1
330
18C7A
100
AcDbEntity
  8
部品1
100
AcDbLine
 10
1311.970589276523
 20
1419.494269174462
 30
0.0
 11
3409.970589276524
 21
1419.494269174465
 31
0.0
  0
LINE
  5
18CE2
330
18C7A
100
AcDbEntity
  8
部品1
100
AcDbLine
 10
3407.970589276523
 20
1315.494269174465
 30
0.0
 11
3437.970589276523
 21
1315.494269174465
 31
0.0
  0
LINE
  5
18CE3
330
18C7A
100
AcDbEntity
  8
部品1
100
AcDbLine
 10
1313.970589276523
 20
1315.494269174465
 30
0.0
 11
3410.970589276523
 21
1315.494269174465
 31
0.0
  0
LINE
  5
18CE4
330
18C7A
100
AcDbEntity
  8
細線
  6
Continuous
 62
     5
100
AcDbLine
 10
2689.970589276527
 20
1354.494269174462
 30
0.0
 11
2689.970589276527
 21
1354.494269174462
 31
0.0
  0
LINE
  5
18CE5
330
18C7A
100
AcDbEntity
  8
細線
  6
Continuous
 62
     5
100
AcDbLine
 10
2682.470589276527
 20
1354.494269174462
 30
0.0
 11
2682.470589276527
 21
1354.494269174462
 31
0.0
  0
LINE
  5
18CE6
330
18C7A
100
AcDbEntity
  8
細線
  6
Continuous
 62
     5
100
AcDbLine
 10
2676.470589276527
 20
1354.494269174462
 30
0.0
 11
2676.470589276527
 21
1354.494269174462
 31
0.0
  0
LINE
  5
18CE7
330
18C7A
100
AcDbEntity
  8
細線
  6
Continuous
 62
     5
100
AcDbLine
 10
2743.970589276527
 20
1373.494269174462
 30
0.0
 11
2743.970589276527
 21
1373.494269174462
 31
0.0
  0
LINE
  5
18CE8
330
18C7A
100
AcDbEntity
  8
細線
 48
50.0
100
AcDbLine
 10
1336.970593930116
 20
1341.094443351418
 30
0.0
 11
1336.970593930113
 21
1349.490593759059
 31
0.0
  0
LINE
  5
18CE9
330
18C7A
100
AcDbEntity
  8
細線
 48
50.0
100
AcDbLine
 10
1336.970593930113
 20
1349.490593759059
 30
0.0
 11
1322.970589276523
 21
1349.490593759057
 31
0.0
  0
LINE
  5
18CEA
330
18C7A
100
AcDbEntity
  8
細線
 48
50.0
100
AcDbLine
 10
2087.970593930113
 20
1337.644443351419
 30
0.0
 11
2087.970593930113
 21
1342.494443351421
 31
0.0
  0
LINE
  5
18CEB
330
18C7A
100
AcDbEntity
  8
細線
 48
50.0
100
AcDbLine
 10
2087.970593930113
 20
1342.494443351421
 30
0.0
 11
2102.970593930113
 21
1342.494443351421
 31
0.0
  0
LINE
  5
18CEC
330
18C7A
100
AcDbEntity
  8
細線
 48
50.0
100
AcDbLine
 10
2102.970593930113
 20
1342.494443351421
 30
0.0
 11
2102.970593930115
 21
1349.494443351419
 31
0.0
  0
LINE
  5
18CED
330
18C7A
100
AcDbEntity
  8
細線
 48
50.0
100
AcDbLine
 10
2102.970593930115
 20
1349.494443351419
 30
0.0
 11
2117.970593930113
 21
1349.494443351419
 31
0.0
  0
LINE
  5
18CEE
330
18C7A
100
AcDbEntity
  8
細線
 48
50.0
100
AcDbLine
 10
2117.970593930113
 20
1349.494443351419
 30
0.0
 11
2117.970593930113
 21
1320.494443351421
 31
0.0
  0
LINE
  5
18CEF
330
18C7A
100
AcDbEntity
  8
細線
 48
50.0
100
AcDbLine
 10
1313.970589276523
 20
1320.491777694889
 30
0.0
 11
1527.970593930113
 21
1320.494460905133
 31
0.0
  0
LINE
  5
18CF0
330
18C7A
100
AcDbEntity
  8
細線
 48
50.0
100
AcDbLine
 10
2017.970593930113
 20
1320.494443351421
 30
0.0
 11
2117.970593930113
 21
1320.494443351421
 31
0.0
  0
LINE
  5
18CF1
330
18C7A
100
AcDbEntity
  8
細線
 48
50.0
100
AcDbLine
 10
1737.970593930113
 20
1320.494443351419
 30
0.0
 11
1807.970593930113
 21
1320.494443351423
 31
0.0
  0
LINE
  5
18CF2
330
18C7A
100
AcDbEntity
  8
細線
 48
50.0
100
AcDbLine
 10
1750.832558942642
 20
1320.494443351419
 30
0.0
 11
1756.588076525309
 21
1338.765294641913
 31
0.0
  0
LINE
  5
18CF3
330
18C7A
100
AcDbEntity
  8
細線
 48
50.0
100
AcDbLine
 10
1756.588076525309
 20
1338.765294641913
 30
0.0
 11
1767.516525005743
 21
1338.765294641911
 31
0.0
  0
ARC
  5
18CF4
330
18C7A
100
AcDbEntity
  8
細線
 48
50.0
100
AcDbCircle
 10
1767.516525005743
 20
1337.765294641911
 30
0.0
 40
1.0
100
AcDbArc
 50
24.62431835207225
 51
90.0
  0
ARC
  5
18CF5
330
18C7A
100
AcDbEntity
  8
細線
 48
50.0
100
AcDbCircle
 10
1778.425237120377
 20
1337.765294641911
 30
0.0
 40
1.0
100
AcDbArc
 50
90.0
 51
155.3756816479277
  0
ARC
  5
18CF6
330
18C7A
100
AcDbEntity
  8
細線
 48
50.0
100
AcDbCircle
 10
1772.970881063058
 20
1340.265294641911
 30
0.0
 40
5.0
100
AcDbArc
 50
204.6243183520723
 51
335.3756816479278
  0
LINE
  5
18CF7
330
18C7A
100
AcDbEntity
  8
細線
 48
50.0
100
AcDbLine
 10
1778.425237120377
 20
1338.765294641911
 30
0.0
 11
1789.35368560081
 21
1338.765294641913
 31
0.0
  0
LINE
  5
18CF8
330
18C7A
100
AcDbEntity
  8
細線
 48
50.0
100
AcDbLine
 10
1789.35368560081
 20
1338.765294641913
 30
0.0
 11
1795.109203183478
 21
1320.494443351423
 31
0.0
  0
LINE
  5
18CF9
330
18C7A
100
AcDbEntity
  8
細線
 48
50.0
100
AcDbLine
 10
2087.970593930113
 20
1341.094443351419
 30
0.0
 11
1336.970593930116
 21
1341.094443351418
 31
0.0
  0
LINE
  5
18CFA
330
18C7A
100
AcDbEntity
  8
細線
 48
50.0
100
AcDbLine
 10
1947.970593930113
 20
1320.494443351421
 30
0.0
 11
1877.970593930113
 21
1320.494443351421
 31
0.0
  0
LINE
  5
18CFB
330
18C7A
100
AcDbEntity
  8
細線
100
AcDbLine
 10
1667.970593930113
 20
1320.494443351421
 30
0.0
 11
1597.970602115529
 21
1320.494443351421
 31
0.0
  0
LINE
  5
18CFC
330
18C7A
100
AcDbEntity
  8
細線
 48
50.0
100
AcDbLine
 10
2741.970584622936
 20
1375.094487209288
 30
0.0
 11
2106.970593930113
 21
1375.094487209284
 31
0.0
  0
LINE
  5
18CFD
330
18C7A
100
AcDbEntity
  8
細線
 48
50.0
100
AcDbLine
 10
2106.970593930113
 20
1371.990637616925
 30
0.0
 11
2106.970593930113
 21
1376.490637616925
 31
0.0
  0
LINE
  5
18CFE
330
18C7A
100
AcDbEntity
  8
細線
 48
50.0
100
AcDbLine
 10
2106.970593930113
 20
1376.490637616925
 30
0.0
 11
2091.970593930113
 21
1376.490637616925
 31
0.0
  0
LINE
  5
18CFF
330
18C7A
100
AcDbEntity
  8
細線
 48
50.0
100
AcDbLine
 10
2091.970593930113
 20
1376.490637616925
 30
0.0
 11
2091.970593930113
 21
1383.490637616927
 31
0.0
  0
LINE
  5
18D00
330
18C7A
100
AcDbEntity
  8
細線
 48
50.0
100
AcDbLine
 10
2091.970593930113
 20
1383.490637616927
 30
0.0
 11
2076.970593930115
 21
1383.490637616924
 31
0.0
  0
LINE
  5
18D01
330
18C7A
100
AcDbEntity
  8
細線
 48
50.0
100
AcDbLine
 10
2076.970593930115
 20
1383.490637616924
 30
0.0
 11
2076.970593930115
 21
1345.890409513813
 31
0.0
  0
LINE
  5
18D02
330
18C7A
100
AcDbEntity
  8
細線
 48
50.0
100
AcDbLine
 10
2076.970593930115
 20
1345.890409513813
 30
0.0
 11
2096.970601231289
 21
1345.890451063353
 31
0.0
  0
LINE
  5
18D03
330
18C7A
100
AcDbEntity
  8
細線
 48
50.0
100
AcDbLine
 10
2096.970556362348
 20
1354.493912699161
 30
0.0
 11
2096.970601231289
 21
1345.890451063353
 31
0.0
  0
LINE
  5
18D04
330
18C7A
100
AcDbEntity
  8
細線
 48
50.0
100
AcDbLine
 10
2741.970584622936
 20
1371.644487209287
 30
0.0
 11
2741.970584622936
 21
1376.494487209284
 31
0.0
  0
LINE
  5
18D05
330
18C7A
100
AcDbEntity
  8
細線
 48
50.0
100
AcDbLine
 10
2741.970584622936
 20
1376.494487209284
 30
0.0
 11
2756.970584622934
 21
1376.494487209285
 31
0.0
  0
LINE
  5
18D06
330
18C7A
100
AcDbEntity
  8
細線
 48
50.0
100
AcDbLine
 10
2756.970584622934
 20
1376.494487209285
 30
0.0
 11
2756.970596256909
 21
1383.494487209331
 31
0.0
  0
LINE
  5
18D07
330
18C7A
100
AcDbEntity
  8
細線
 48
50.0
100
AcDbLine
 10
2756.970596256909
 20
1383.494487209331
 30
0.0
 11
2771.970594427439
 21
1383.494487209329
 31
0.0
  0
LINE
  5
18D08
330
18C7A
100
AcDbEntity
  8
細線
 48
50.0
100
AcDbLine
 10
2771.970594427439
 20
1383.494487209329
 30
0.0
 11
2771.970584125617
 21
1354.494281037055
 31
0.0
  0
LINE
  5
18D09
330
18C7A
100
AcDbEntity
  8
細線
 48
50.0
100
AcDbLine
 10
2458.070304175992
 20
1354.494278397076
 30
0.0
 11
2389.470863838818
 21
1354.494283787084
 31
0.0
  0
LINE
  5
18D0A
330
18C7A
100
AcDbEntity
  8
細線
 48
50.0
100
AcDbLine
 10
2096.970556362348
 20
1354.493912699161
 30
0.0
 11
2108.203245717057
 21
1354.494095652309
 31
0.0
  0
ARC
  5
18D0B
330
18C7A
100
AcDbEntity
  8
細線
 48
50.0
100
AcDbCircle
 10
2114.785538024393
 20
1353.294259565922
 30
0.0
 40
1.8
100
AcDbArc
 50
270.0006665777295
 51
345.000555481349
  0
LINE
  5
18D0C
330
18C7A
100
AcDbEntity
  8
細線
 48
50.0
100
AcDbLine
 10
2116.771971470473
 20
1353.753100023201
 30
0.0
 11
2116.524209028273
 21
1352.828402141094
 31
0.0
  0
LINE
  5
18D0D
330
18C7A
100
AcDbEntity
  8
細線
 48
50.0
100
AcDbLine
 10
2114.785558965548
 20
1351.494259566043
 30
0.0
 11
2111.155631546781
 21
1351.494217335563
 31
0.0
  0
ARC
  5
18D0E
330
18C7A
100
AcDbEntity
  8
細線
 48
50.0
100
AcDbCircle
 10
2111.155610605627
 20
1353.29421733544
 30
0.0
 40
1.8
100
AcDbArc
 50
195.0010443049965
 51
270.0006665777295
  0
LINE
  5
18D0F
330
18C7A
100
AcDbEntity
  8
細線
 48
50.0
100
AcDbLine
 10
2109.169183113368
 20
1353.752932303007
 30
0.0
 11
2109.416952609882
 21
1352.828311364425
 31
0.0
  0
ARC
  5
18D10
330
18C7A
100
AcDbEntity
  8
細線
 48
50.0
100
AcDbCircle
 10
2108.203262004622
 20
1353.494095652444
 30
0.0
 40
1.0
100
AcDbArc
 50
15.00104430499651
 51
90.00093320877969
  0
LINE
  5
18D11
330
18C7A
100
AcDbEntity
  8
細線
 48
50.0
100
AcDbLine
 10
2117.737892825577
 20
1354.494290342714
 30
0.0
 11
2118.679652976481
 21
1354.494296916564
 31
0.0
  0
ARC
  5
18D12
330
18C7A
100
AcDbEntity
  8
細線
 48
50.0
100
AcDbCircle
 10
2117.737899805961
 20
1353.49429034274
 30
0.0
 40
1.0
100
AcDbArc
 50
90.0003999466794
 51
165.000555481349
  0
LINE
  5
18D13
330
18C7A
100
AcDbEntity
  8
細線
 48
50.0
100
AcDbLine
 10
2669.470584622926
 20
1354.494281037055
 30
0.0
 11
2771.970584125617
 21
1354.494281037055
 31
0.0
  0
LINE
  5
18D14
330
18C7A
100
AcDbEntity
  8
細線
 48
50.0
100
AcDbLine
 10
2179.47061994182
 20
1354.494289224422
 30
0.0
 11
2118.370558714898
 21
1354.494296916564
 31
0.0
  0
LINE
  5
18D15
330
18C7A
100
AcDbEntity
  8
細線
 48
50.0
100
AcDbLine
 10
2599.470584622926
 20
1354.494281037057
 30
0.0
 11
2529.470584622926
 21
1354.494281037055
 31
0.0
  0
LINE
  5
18D16
330
18C7A
100
AcDbEntity
  8
細線
 48
50.0
100
AcDbLine
 10
2319.470584622926
 20
1354.494281037054
 30
0.0
 11
2249.470567335051
 21
1354.494281037057
 31
0.0
  0
ARC
  5
18D17
330
18C7A
100
AcDbEntity
  8
細線
 48
50.0
100
AcDbCircle
 10
2756.170589276533
 20
1387.694269174466
 30
0.0
 40
0.8
100
AcDbArc
 50
359.9997333689499
 51
89.99986668437072
  0
ARC
  5
18D18
330
18C7A
100
AcDbEntity
  8
細線
 48
50.0
100
AcDbCircle
 10
2763.770596101631
 20
1387.694280343081
 30
0.0
 40
0.8
100
AcDbArc
 50
90.00014387753465
 51
179.9997333689498
  0
LINE
  5
18D19
330
18C7A
100
AcDbEntity
  8
細線
 48
50.0
100
AcDbLine
 10
2756.170591137969
 20
1388.494269174465
 30
0.0
 11
2750.970589276525
 21
1388.494269174465
 31
0.0
  0
ARC
  5
18D1A
330
18C7A
100
AcDbEntity
  8
細線
 48
50.0
100
AcDbCircle
 10
2757.670589276524
 20
1386.194269174464
 30
0.0
 40
0.7
100
AcDbArc
 50
180.0
 51
270.0
  0
ARC
  5
18D1B
330
18C7A
100
AcDbEntity
  8
細線
 48
50.0
100
AcDbCircle
 10
2762.270589276524
 20
1386.194269174464
 30
0.0
 40
0.7
100
AcDbArc
 50
270.0
 51
0.0
  0
LINE
  5
18D1C
330
18C7A
100
AcDbEntity
  8
細線
 48
50.0
100
AcDbLine
 10
2762.970589276525
 20
1386.194269174464
 30
0.0
 11
2762.970596101639
 21
1387.694284065954
 31
0.0
  0
LINE
  5
18D1D
330
18C7A
100
AcDbEntity
  8
細線
 48
50.0
100
AcDbLine
 10
2757.670589276524
 20
1385.494269174465
 30
0.0
 11
2762.270589276524
 21
1385.494269174465
 31
0.0
  0
LINE
  5
18D1E
330
18C7A
100
AcDbEntity
  8
細線
 48
50.0
100
AcDbLine
 10
2756.970589276525
 20
1387.694269174466
 30
0.0
 11
2756.970589276525
 21
1386.194269174464
 31
0.0
  0
LINE
  5
18D1F
330
18C7A
100
AcDbEntity
  8
細線
 48
50.0
100
AcDbLine
 10
3382.570589276527
 20
1418.494269174465
 30
0.0
 11
2745.970589276525
 21
1418.494269174463
 31
0.0
  0
LINE
  5
18D20
330
18C7A
100
AcDbEntity
  8
細線
 48
50.0
100
AcDbLine
 10
3408.470589276525
 20
1413.494269174467
 30
0.0
 11
3392.570589276527
 21
1413.494269174465
 31
0.0
  0
LINE
  5
18D21
330
18C7A
100
AcDbEntity
  8
細線
 48
50.0
100
AcDbLine
 10
3392.570589276526
 20
1413.494269174465
 30
0.0
 11
3382.570589276527
 21
1418.494269174465
 31
0.0
  0
LINE
  5
18D22
330
18C7A
100
AcDbEntity
  8
細線
100
AcDbLine
 10
2993.470589276525
 20
1388.494269174465
 30
0.0
 11
2993.470589276525
 21
1417.794269174464
 31
0.0
  0
LINE
  5
18D23
330
18C7A
100
AcDbEntity
  8
細線
100
AcDbLine
 10
2993.470589276525
 20
1417.794269174464
 30
0.0
 11
3013.470589276525
 21
1417.794269174464
 31
0.0
  0
LINE
  5
18D24
330
18C7A
100
AcDbEntity
  8
細線
100
AcDbLine
 10
3013.470589276525
 20
1388.494269174465
 30
0.0
 11
3013.470589276525
 21
1417.794269174464
 31
0.0
  0
LINE
  5
18D25
330
18C7A
100
AcDbEntity
  8
細線
100
AcDbLine
 10
3170.720589276524
 20
1388.494269174465
 30
0.0
 11
3100.720589276523
 21
1388.494269174465
 31
0.0
  0
LINE
  5
18D26
330
18C7A
100
AcDbEntity
  8
細線
 48
50.0
100
AcDbLine
 10
2890.720589276525
 20
1388.494269174465
 30
0.0
 11
2763.766368849365
 21
1388.494269174465
 31
0.0
  0
LINE
  5
18D27
330
18C7A
100
AcDbEntity
  8
細線
100
AcDbLine
 10
3030.720589276525
 20
1388.494269174465
 30
0.0
 11
2960.720589276525
 21
1388.494269174465
 31
0.0
  0
LINE
  5
18D28
330
18C7A
100
AcDbEntity
  8
細線
 48
50.0
100
AcDbLine
 10
2750.970589276525
 20
1380.494269174465
 30
0.0
 11
2750.970589276525
 21
1388.494269174465
 31
0.0
  0
LINE
  5
18D29
330
18C7A
100
AcDbEntity
  8
細線
 48
50.0
100
AcDbLine
 10
2730.970589276524
 20
1380.494269174467
 30
0.0
 11
2750.970589276525
 21
1380.494269174465
 31
0.0
  0
LINE
  5
18D2A
330
18C7A
100
AcDbEntity
  8
細線
 48
50.0
100
AcDbLine
 10
2745.970589276525
 20
1418.494269174465
 30
0.0
 11
2745.970589276525
 21
1413.494269174465
 31
0.0
  0
LINE
  5
18D2B
330
18C7A
100
AcDbEntity
  8
細線
 48
50.0
100
AcDbLine
 10
2730.970589276525
 20
1418.494269174463
 30
0.0
 11
2745.970589276525
 21
1418.494269174465
 31
0.0
  0
LINE
  5
18D2C
330
18C7A
100
AcDbEntity
  8
細線
 48
50.0
100
AcDbLine
 10
2730.970589276524
 20
1380.494269174467
 30
0.0
 11
2730.970589276525
 21
1418.494269174463
 31
0.0
  0
LINE
  5
18D2D
330
18C7A
100
AcDbEntity
  8
細線
100
AcDbLine
 10
3398.970589276523
 20
1388.494269174465
 30
0.0
 11
3240.720589276525
 21
1388.494269174465
 31
0.0
  0
LINE
  5
18D2E
330
18C7A
100
AcDbEntity
  8
細線
 48
50.0
100
AcDbLine
 10
3408.470589276525
 20
1413.494269174467
 30
0.0
 11
3408.470589276524
 21
1388.494269174465
 31
0.0
  0
TEXT
  5
18D2F
330
18C7A
100
AcDbEntity
  8
部品1
100
AcDbText
 10
1860.154865991392
 20
46.99880823813145
 30
0.0
 40
135.0
  1
平面図
  7
STYLE2
100
AcDbText
  0
LWPOLYLINE
  5
18D30
330
18C7A
100
AcDbEntity
  8
部品1
100
AcDbPolyline
 90
        4
 70
     1
 43
0.0
 10
1770.23525616235
 20
239.8923374566548
 10
1770.23525616235
 20
0.0000159111223184
 10
2533.705922390791
 20
0.0000159111223184
 10
2533.705922390791
 20
239.8923374566548
  0
LINE
  5
18D31
330
18C7A
100
AcDbEntity
  8
部品1
100
AcDbLine
 10
1534.470589276487
 20
3154.494269174626
 30
0.0
 11
2769.470589276552
 21
3154.494269174626
 31
0.0
  0
LINE
  5
18D32
330
18C7A
100
AcDbEntity
  8
部品1
 48
50.0
100
AcDbLine
 10
1311.970589276523
 20
1420.494269174462
 30
0.0
 11
3411.970589276523
 21
1420.494269174465
 31
0.0
  0
LINE
  5
18D33
330
18C7A
100
AcDbEntity
  8
部品1
 48
50.0
100
AcDbLine
 10
471.9705892765232
 20
1392.494269174465
 30
0.0
 11
1311.970589276523
 21
1392.494269174465
 31
0.0
  0
DIMENSION
  5
18D34
330
18C7A
100
AcDbEntity
  8
寸法
100
AcDbDimension
  2
*D14
 10
2710.234916278077
 20
2488.887829538828
 30
0.0
 11
2338.318822490183
 21
2488.887829538828
 31
0.0
 12
-3742.925985830444
 22
-6453.628869860112
 32
0.0
 70
   128
 71
     5
 42
1231.00000000007
  3
INABA_S40G
100
AcDbAlignedDimension
 13
1536.470589276486
 23
2702.494269174557
 33
0.0
 14
2767.470589276556
 24
2702.494269174549
 34
0.0
100
AcDbRotatedDimension
1001
ACAD
1000
DSTYLE
1002
{
1002
}
  0
LINE
  5
18D35
330
18C7A
100
AcDbEntity
  8
部品1
100
AcDbLine
 10
1536.470589276487
 20
2702.494269174557
 30
0.0
 11
2767.470589276554
 21
2702.494269174615
 31
0.0
  0
LINE
  5
18D36
330
18C7A
100
AcDbEntity
  8
部品1
100
AcDbLine
 10
1536.470589276487
 20
3152.494269174557
 30
0.0
 11
2767.470589276556
 21
3152.494269174615
 31
0.0
  0
LINE
  5
18D37
330
18C7A
100
AcDbEntity
  8
細線
 48
50.0
100
AcDbLine
 10
1508.470589276487
 20
3152.494269174558
 30
0.0
 11
445.4705892765559
 21
2702.494269174509
 31
0.0
  0
LINE
  5
18D38
330
18C7A
100
AcDbEntity
  8
細線
 48
50.0
100
AcDbLine
 10
1508.470589276487
 20
2702.494269174558
 30
0.0
 11
445.4705892765542
 21
3152.494269174509
 31
0.0
  0
LINE
  5
18D39
330
18C7A
100
AcDbEntity
  8
部品1
100
AcDbLine
 10
1556.970589276487
 20
3172.494269174611
 30
0.0
 11
1556.970589276487
 21
3154.494269174611
 31
0.0
  0
LINE
  5
18D3A
330
18C7A
100
AcDbEntity
  8
部品1
100
AcDbLine
 10
1556.970589276487
 20
3172.494269174611
 30
0.0
 11
1550.970589276487
 21
3172.494269174611
 31
0.0
  0
LINE
  5
18D3B
330
18C7A
100
AcDbEntity
  8
部品1
100
AcDbLine
 10
1534.470589276487
 20
3146.494269174608
 30
0.0
 11
1509.470589276487
 21
3146.494269174611
 31
0.0
  0
LINE
  5
18D3C
330
18C7A
100
AcDbEntity
  8
部品1
100
AcDbLine
 10
1486.970589276487
 20
3172.494269174611
 30
0.0
 11
1486.970589276487
 21
3154.494269174611
 31
0.0
  0
LINE
  5
18D3D
330
18C7A
100
AcDbEntity
  8
部品1
100
AcDbLine
 10
1492.970589276487
 20
3172.494269174611
 30
0.0
 11
1486.970589276487
 21
3172.494269174611
 31
0.0
  0
LINE
  5
18D3E
330
18C7A
100
AcDbEntity
  8
部品1
100
AcDbLine
 10
1534.470589276487
 20
2702.494269174615
 30
0.0
 11
1509.470589276487
 21
2702.494269174615
 31
0.0
  0
LINE
  5
18D3F
330
18C7A
100
AcDbEntity
  8
部品1
 48
50.0
100
AcDbLine
 10
1536.470589276487
 20
3152.494269174611
 30
0.0
 11
1536.470589276487
 21
2702.494269174615
 31
0.0
  0
LINE
  5
18D40
330
18C7A
100
AcDbEntity
  8
部品1
 48
50.0
100
AcDbLine
 10
1508.470589276487
 20
3152.494269174607
 30
0.0
 11
1508.470589276487
 21
2702.494269174615
 31
0.0
  0
LINE
  5
18D41
330
18C7A
100
AcDbEntity
  8
部品1
 48
50.0
100
AcDbLine
 10
1534.470589276487
 20
3154.494269174618
 30
0.0
 11
1534.470589276487
 21
2702.494269174615
 31
0.0
  0
LINE
  5
18D42
330
18C7A
100
AcDbEntity
  8
部品1
 48
50.0
100
AcDbLine
 10
1509.470589276487
 20
3154.494269174615
 30
0.0
 11
1509.470589276487
 21
2702.494269174615
 31
0.0
  0
LINE
  5
18D43
330
18C7A
100
AcDbEntity
  8
部品1
100
AcDbLine
 10
3411.970589276556
 20
1392.494269174582
 30
0.0
 11
3411.970589276556
 21
1420.494269174596
 31
0.0
  0
LINE
  5
18D44
330
18C7A
100
AcDbEntity
  8
部品1
100
AcDbLine
 10
1311.970589276523
 20
1392.494269174596
 30
0.0
 11
1311.970589276523
 21
1420.494269174596
 31
0.0
  0
LINE
  5
18D45
330
18C7A
100
AcDbEntity
  8
部品1
100
AcDbLine
 10
891.9705892765232
 20
1392.494269174596
 30
0.0
 11
891.9705892765232
 21
1420.494269174596
 31
0.0
  0
LINE
  5
18D46
330
18C7A
100
AcDbEntity
  8
部品1
100
AcDbLine
 10
3411.97058927652
 20
3182.494269174477
 30
0.0
 11
3411.970589276523
 21
3154.494269174477
 31
0.0
  0
LINE
  5
18D47
330
18C7A
100
AcDbEntity
  8
部品1
100
AcDbLine
 10
2571.97058927652
 20
3182.494269174477
 30
0.0
 11
2571.970589276523
 21
3154.494269174477
 31
0.0
  0
LINE
  5
18D48
330
18C7A
100
AcDbEntity
  8
部品1
100
AcDbLine
 10
2991.97058927652
 20
3182.494269174477
 30
0.0
 11
2991.970589276523
 21
3154.494269174477
 31
0.0
  0
LINE
  5
18D49
330
18C7A
100
AcDbEntity
  8
部品1
100
AcDbLine
 10
2151.970589276519
 20
3182.494269174477
 30
0.0
 11
2151.970589276523
 21
3154.494269174477
 31
0.0
  0
LINE
  5
18D4A
330
18C7A
100
AcDbEntity
  8
部品1
100
AcDbLine
 10
1731.970589276519
 20
3182.494269174477
 30
0.0
 11
1731.970589276523
 21
3154.494269174477
 31
0.0
  0
LINE
  5
18D4B
330
18C7A
100
AcDbEntity
  8
部品1
100
AcDbLine
 10
1311.970589276519
 20
3182.494269174477
 30
0.0
 11
1311.970589276523
 21
3154.494269174477
 31
0.0
  0
LINE
  5
18D4C
330
18C7A
100
AcDbEntity
  8
部品1
100
AcDbLine
 10
891.9705892765195
 20
3182.494269174477
 30
0.0
 11
891.9705892765232
 21
3154.494269174477
 31
0.0
  0
LINE
  5
18D4D
330
18C7A
100
AcDbEntity
  8
部品1
100
AcDbLine
 10
471.9705892765232
 20
1392.494269174596
 30
0.0
 11
471.9705892765232
 21
1420.494269174596
 31
0.0
  0
LINE
  5
18D4E
330
18C7A
100
AcDbEntity
  8
部品1
100
AcDbLine
 10
444.9705892765305
 20
1420.494269174558
 30
0.0
 11
3858.970589276556
 21
1420.494269174596
 31
0.0
  0
LINE
  5
18D4F
330
18C7A
100
AcDbEntity
  8
部品1
100
AcDbLine
 10
3831.970589276556
 20
1392.494269174596
 30
0.0
 11
3831.970589276556
 21
1420.494269174596
 31
0.0
  0
LINE
  5
18D50
330
18C7A
100
AcDbEntity
  8
部品1
100
AcDbLine
 10
3858.970589276556
 20
1447.494269174593
 30
0.0
 11
3886.970589276556
 21
1447.494269174593
 31
0.0
  0
LINE
  5
18D51
330
18C7A
100
AcDbEntity
  8
部品1
100
AcDbLine
 10
3858.970589276556
 20
1867.494269174607
 30
0.0
 11
3886.970589276556
 21
1867.494269174607
 31
0.0
  0
LINE
  5
18D52
330
18C7A
100
AcDbEntity
  8
部品1
100
AcDbLine
 10
444.9705892765305
 20
1867.49426917448
 30
0.0
 11
416.9705892765305
 21
1867.49426917448
 31
0.0
  0
LINE
  5
18D53
330
18C7A
100
AcDbEntity
  8
部品1
100
AcDbLine
 10
3830.470589276541
 20
1867.49426917458
 30
0.0
 11
473.4705892765396
 21
1867.49426917448
 31
0.0
  0
LINE
  5
18D54
330
18C7A
100
AcDbEntity
  8
部品1
100
AcDbLine
 10
3830.470589276541
 20
2287.49426917458
 30
0.0
 11
473.4705892765396
 21
2287.49426917448
 31
0.0
  0
LINE
  5
18D55
330
18C7A
100
AcDbEntity
  8
部品1
100
AcDbLine
 10
444.9705892765305
 20
2287.49426917448
 30
0.0
 11
416.9705892765305
 21
2287.49426917448
 31
0.0
  0
LINE
  5
18D56
330
18C7A
100
AcDbEntity
  8
部品1
100
AcDbLine
 10
3858.970589276556
 20
2287.494269174608
 30
0.0
 11
3886.970589276556
 21
2287.494269174608
 31
0.0
  0
LINE
  5
18D57
330
18C7A
100
AcDbEntity
  8
部品1
 48
50.0
100
AcDbLine
 10
2151.970589276551
 20
2702.494269174586
 30
0.0
 11
2151.970589276581
 21
1448.994269174494
 31
0.0
  0
LINE
  5
18D58
330
18C7A
100
AcDbEntity
  8
破線
 48
10.0
100
AcDbLine
 10
2959.470589276535
 20
1472.494269174522
 30
0.0
 11
2176.970589276532
 21
1472.494269174505
 31
0.0
  0
LINE
  5
18D59
330
18C7A
100
AcDbEntity
  8
破線
 48
10.0
100
AcDbLine
 10
3009.47058927653
 20
1448.994269174509
 30
0.0
 11
3009.47058927653
 21
2702.494269174615
 31
0.0
  0
LINE
  5
18D5A
330
18C7A
100
AcDbEntity
  8
破線
 48
10.0
100
AcDbLine
 10
2959.470589276535
 20
1448.994269174505
 30
0.0
 11
2959.470589276531
 21
2702.494269174615
 31
0.0
  0
LINE
  5
18D5B
330
18C7A
100
AcDbEntity
  8
破線
 48
10.0
100
AcDbLine
 10
1344.47058927653
 20
1448.994269174509
 30
0.0
 11
1344.47058927653
 21
2702.494269174615
 31
0.0
  0
LINE
  5
18D5C
330
18C7A
100
AcDbEntity
  8
破線
 48
10.0
100
AcDbLine
 10
1294.470589276534
 20
1448.994269174505
 30
0.0
 11
1294.47058927653
 21
2702.494269174615
 31
0.0
  0
DIMENSION
  5
18D5D
330
18C7A
100
AcDbEntity
  8
寸法
100
AcDbDimension
  2
*D13
 10
1451.234916278005
 20
2488.887829538828
 30
0.0
 11
916.0604668248634
 21
2488.887829538828
 31
0.0
 12
-3742.925985830444
 22
-6453.628869860112
 32
0.0
 70
   128
 71
     5
 42
1062.99999999993
  3
INABA_S40G
100
AcDbAlignedDimension
 13
445.4705892765559
 23
2702.494269174505
 33
0.0
 14
1508.470589276486
 24
2702.494269174558
 34
0.0
100
AcDbRotatedDimension
1001
ACAD
1000
DSTYLE
1002
{
1002
}
  0
LINE
  5
18D5E
330
18C7A
100
AcDbEntity
  8
破線
 48
10.0
100
AcDbLine
 10
1294.470589276534
 20
1472.494269174469
 30
0.0
 11
496.9705892765414
 21
1472.494269174476
 31
0.0
  0
LINE
  5
18D5F
330
18C7A
100
AcDbEntity
  8
部品1
100
AcDbLine
 10
3831.970589276556
 20
3182.494269174604
 30
0.0
 11
3831.970589276556
 21
3154.494269174604
 31
0.0
  0
LINE
  5
18D60
330
18C7A
100
AcDbEntity
  8
部品1
100
AcDbLine
 10
3831.970589276556
 20
3182.494269174626
 30
0.0
 11
3831.970589276556
 21
3154.494269174626
 31
0.0
  0
LINE
  5
18D61
330
18C7A
100
AcDbEntity
  8
部品1
100
AcDbLine
 10
3858.970589276556
 20
3127.494269174607
 30
0.0
 11
3886.970589276556
 21
3127.494269174607
 31
0.0
  0
LINE
  5
18D62
330
18C7A
100
AcDbEntity
  8
部品1
100
AcDbLine
 10
3858.970589276556
 20
2707.494269174608
 30
0.0
 11
3886.970589276556
 21
2707.494269174608
 31
0.0
  0
LINE
  5
18D63
330
18C7A
100
AcDbEntity
  8
部品1
100
AcDbLine
 10
3858.470589276556
 20
3152.494269174604
 30
0.0
 11
3858.470589276556
 21
2702.494269174608
 31
0.0
  0
LINE
  5
18D64
330
18C7A
100
AcDbEntity
  8
部品1
100
AcDbLine
 10
3886.970589276533
 20
1447.494269174593
 30
0.0
 11
3886.970589276531
 21
1392.494269174596
 31
0.0
  0
LINE
  5
18D65
330
18C7A
100
AcDbEntity
  8
部品1
 48
50.0
100
AcDbLine
 10
3830.470589276556
 20
1448.994269174596
 30
0.0
 11
3858.970589276554
 21
1420.494269174596
 31
0.0
  0
LINE
  5
18D66
330
18C7A
100
AcDbEntity
  8
部品1
100
AcDbLine
 10
3886.970589276531
 20
1392.494269174596
 30
0.0
 11
3835.970589276531
 21
1392.494269174596
 31
0.0
  0
LINE
  5
18D67
330
18C7A
100
AcDbEntity
  8
部品1
100
AcDbLine
 10
3858.970589276533
 20
1447.494269174593
 30
0.0
 11
3886.970589276531
 21
1447.494269174593
 31
0.0
  0
LINE
  5
18D68
330
18C7A
100
AcDbEntity
  8
部品1
100
AcDbLine
 10
3886.970589276556
 20
3182.494269174604
 30
0.0
 11
3886.970589276531
 21
1392.494269174596
 31
0.0
  0
DIMENSION
  5
18D69
330
18C7A
100
AcDbEntity
  8
寸法
100
AcDbDimension
  2
*D12
 10
4534.396935010967
 20
1447.494269174593
 30
0.0
 11
4534.396935010965
 21
2287.4942691746
 31
0.0
 12
-3742.925985830444
 22
-6453.628869860112
 32
0.0
 70
   128
  1
4X420=<>
 71
     5
 42
1680.000000000014
  3
INABA_S40G
100
AcDbAlignedDimension
 13
3886.970589276556
 23
3127.494269174607
 33
0.0
 14
3886.970589276531
 24
1447.494269174593
 34
0.0
 50
90.0
100
AcDbRotatedDimension
1001
ACAD
1000
DSTYLE
1002
{
1002
}
  0
LINE
  5
18D6A
330
18C7A
100
AcDbEntity
  8
部品1
100
AcDbLine
 10
3858.970589276556
 20
3154.494269174604
 30
0.0
 11
3858.970589276534
 21
1420.494269174596
 31
0.0
  0
DIMENSION
  5
18D6B
330
18C7A
100
AcDbEntity
  8
寸法
100
AcDbDimension
  2
*D11
 10
4213.82831513858
 20
2607.276453505718
 30
0.0
 11
4113.828315138579
 21
2832.276453505718
 31
0.0
 12
-3742.925985830444
 22
-6453.628869860112
 32
0.0
 71
     5
 42
449.9999999999963
  3
INABA_S40G
100
AcDbAlignedDimension
 13
3858.470589276556
 23
3152.494269174604
 33
0.0
 14
3858.470589276556
 24
2702.494269174608
 34
0.0
 50
90.0
100
AcDbRotatedDimension
1001
ACAD
1000
DSTYLE
1002
{
1002
}
  0
LINE
  5
18D6C
330
18C7A
100
AcDbEntity
  8
部品1
100
AcDbLine
 10
3830.470589276547
 20
2702.494269174608
 30
0.0
 11
3830.470589276556
 21
1448.994269174596
 31
0.0
  0
LINE
  5
18D6D
330
18C7A
100
AcDbEntity
  8
破線
 48
10.0
100
AcDbLine
 10
3806.970589276549
 20
2702.494269174608
 30
0.0
 11
3806.970589276558
 21
1472.494269174593
 31
0.0
  0
LINE
  5
18D6E
330
18C7A
100
AcDbEntity
  8
部品1
100
AcDbLine
 10
2769.470589276556
 20
3146.494269174608
 30
0.0
 11
2794.470589276556
 21
3146.494269174611
 31
0.0
  0
LINE
  5
18D6F
330
18C7A
100
AcDbEntity
  8
部品1
100
AcDbLine
 10
2810.970589276556
 20
3172.494269174611
 30
0.0
 11
2816.970589276556
 21
3172.494269174611
 31
0.0
  0
LINE
  5
18D70
330
18C7A
100
AcDbEntity
  8
部品1
100
AcDbLine
 10
2816.970589276556
 20
3172.494269174611
 30
0.0
 11
2816.970589276556
 21
3154.494269174611
 31
0.0
  0
LINE
  5
18D71
330
18C7A
100
AcDbEntity
  8
部品1
100
AcDbLine
 10
2746.970589276556
 20
3172.494269174611
 30
0.0
 11
2752.970589276556
 21
3172.494269174611
 31
0.0
  0
LINE
  5
18D72
330
18C7A
100
AcDbEntity
  8
部品1
100
AcDbLine
 10
2746.970589276556
 20
3172.494269174611
 30
0.0
 11
2746.970589276556
 21
3154.494269174611
 31
0.0
  0
LINE
  5
18D73
330
18C7A
100
AcDbEntity
  8
部品1
100
AcDbLine
 10
2769.470589276556
 20
2702.494269174615
 30
0.0
 11
2794.470589276556
 21
2702.494269174615
 31
0.0
  0
LINE
  5
18D74
330
18C7A
100
AcDbEntity
  8
部品1
 48
50.0
100
AcDbLine
 10
2794.470589276556
 20
3154.494269174615
 30
0.0
 11
2794.470589276556
 21
2702.494269174615
 31
0.0
  0
LINE
  5
18D75
330
18C7A
100
AcDbEntity
  8
部品1
 48
50.0
100
AcDbLine
 10
2769.470589276554
 20
3154.494269174618
 30
0.0
 11
2769.470589276556
 21
2702.494269174615
 31
0.0
  0
LINE
  5
18D76
330
18C7A
100
AcDbEntity
  8
部品1
 48
50.0
100
AcDbLine
 10
2795.470589276556
 20
3152.494269174607
 30
0.0
 11
2795.470589276556
 21
2702.494269174615
 31
0.0
  0
LINE
  5
18D77
330
18C7A
100
AcDbEntity
  8
部品1
 48
50.0
100
AcDbLine
 10
2767.470589276556
 20
3152.494269174611
 30
0.0
 11
2767.470589276556
 21
2702.494269174615
 31
0.0
  0
LINE
  5
18D78
330
18C7A
100
AcDbEntity
  8
破線
 48
10.0
100
AcDbLine
 10
2176.97058927653
 20
1448.994269174509
 30
0.0
 11
2176.97058927653
 21
2702.494269174588
 31
0.0
  0
LINE
  5
18D79
330
18C7A
100
AcDbEntity
  8
破線
 48
10.0
100
AcDbLine
 10
2126.970589276534
 20
1448.994269174505
 30
0.0
 11
2126.970589276531
 21
2702.494269174586
 31
0.0
  0
LINE
  5
18D7A
330
18C7A
100
AcDbEntity
  8
部品1
100
AcDbLine
 10
2794.470589276556
 20
3154.494269174622
 30
0.0
 11
3858.970589276556
 21
3154.494269174604
 31
0.0
  0
LINE
  5
18D7B
330
18C7A
100
AcDbEntity
  8
細線
 48
50.0
100
AcDbLine
 10
3858.470589276556
 20
2702.494269174608
 30
0.0
 11
2795.470589276556
 21
3152.494269174607
 31
0.0
  0
LINE
  5
18D7C
330
18C7A
100
AcDbEntity
  8
部品1
100
AcDbLine
 10
2795.470589276555
 20
2702.494269174615
 30
0.0
 11
3858.470589276556
 21
2702.494269174608
 31
0.0
  0
LINE
  5
18D7D
330
18C7A
100
AcDbEntity
  8
部品1
100
AcDbLine
 10
2795.470589276556
 20
3152.494269174611
 30
0.0
 11
3858.470589276556
 21
3152.494269174604
 31
0.0
  0
LINE
  5
18D7E
330
18C7A
100
AcDbEntity
  8
細線
 48
50.0
100
AcDbLine
 10
3858.470589276556
 20
3152.494269174604
 30
0.0
 11
2795.470589276555
 21
2702.494269174615
 31
0.0
  0
DIMENSION
  5
18D7F
330
18C7A
100
AcDbEntity
  8
寸法
100
AcDbDimension
  2
*D10
 10
3801.234916278101
 20
2488.887829538937
 30
0.0
 11
3318.360544398907
 21
2488.887829538937
 31
0.0
 12
-3742.925985830444
 22
-6453.628869860112
 32
0.0
 70
   128
 71
     5
 42
1063.000000000012
  3
INABA_S40G
100
AcDbAlignedDimension
 13
2795.470589276555
 23
2702.494269174615
 33
0.0
 14
3858.470589276567
 24
2702.494269174608
 34
0.0
100
AcDbRotatedDimension
1001
ACAD
1000
DSTYLE
1002
{
1002
}
  0
LINE
  5
18D80
330
18C7A
100
AcDbEntity
  8
破線
 48
10.0
100
AcDbLine
 10
3806.970589276556
 20
1472.494269174594
 30
0.0
 11
3009.47058927653
 21
1472.494269174523
 31
0.0
  0
DIMENSION
  5
18D81
330
18C7A
100
AcDbEntity
  8
寸法
100
AcDbDimension
  2
*D9
 10
4534.396935010941
 20
1392.494269174596
 30
0.0
 11
4534.39693501094
 21
1084.008987800356
 31
0.0
 12
-3742.925985830444
 22
-6453.628869860112
 32
0.0
 70
   128
 71
     5
 42
54.99999999999636
  3
INABA_S40G
100
AcDbAlignedDimension
 13
3886.970589276531
 23
1447.494269174593
 33
0.0
 14
3886.970589276531
 24
1392.494269174596
 34
0.0
 50
90.0
100
AcDbRotatedDimension
1001
ACAD
1000
DSTYLE
1002
{
1002
}
  0
LINE
  5
18D82
330
18C7A
100
AcDbEntity
  8
部品1
100
AcDbLine
 10
471.9705892765196
 20
3182.494269174477
 30
0.0
 11
471.9705892765232
 21
3154.494269174477
 31
0.0
  0
LINE
  5
18D83
330
18C7A
100
AcDbEntity
  8
部品1
100
AcDbLine
 10
471.9705892765559
 20
3182.494269174509
 30
0.0
 11
471.9705892765559
 21
3154.494269174509
 31
0.0
  0
LINE
  5
18D84
330
18C7A
100
AcDbEntity
  8
部品1
100
AcDbLine
 10
444.9705892765232
 20
3127.49426917448
 30
0.0
 11
416.9705892765232
 21
3127.49426917448
 31
0.0
  0
LINE
  5
18D85
330
18C7A
100
AcDbEntity
  8
部品1
100
AcDbLine
 10
444.9705892765305
 20
2707.49426917448
 30
0.0
 11
416.9705892765305
 21
2707.49426917448
 31
0.0
  0
LINE
  5
18D86
330
18C7A
100
AcDbEntity
  8
部品1
 48
50.0
100
AcDbLine
 10
445.4705892765542
 20
3152.494269174506
 30
0.0
 11
445.4705892765559
 21
2702.494269174505
 31
0.0
  0
LINE
  5
18D87
330
18C7A
100
AcDbEntity
  8
部品1
 48
50.0
100
AcDbLine
 10
473.470589276545
 20
1448.994269174573
 30
0.0
 11
444.970589276545
 21
1420.494269174574
 31
0.0
  0
LINE
  5
18D88
330
18C7A
100
AcDbEntity
  8
部品1
100
AcDbLine
 10
471.9705892765232
 20
1392.494269174465
 30
0.0
 11
416.9705892765486
 21
1392.494269174465
 31
0.0
  0
LINE
  5
18D89
330
18C7A
100
AcDbEntity
  8
部品1
100
AcDbLine
 10
444.9705892765305
 20
1447.494269174429
 30
0.0
 11
416.9705892765469
 21
1447.494269174429
 31
0.0
  0
LINE
  5
18D8A
330
18C7A
100
AcDbEntity
  8
部品1
100
AcDbLine
 10
444.9705892765305
 20
1447.494269174465
 30
0.0
 11
416.9705892765469
 21
1447.494269174465
 31
0.0
  0
LINE
  5
18D8B
330
18C7A
100
AcDbEntity
  8
部品1
100
AcDbLine
 10
444.9705892765469
 20
1447.49426917448
 30
0.0
 11
416.9705892765469
 21
1447.49426917448
 31
0.0
  0
LINE
  5
18D8C
330
18C7A
100
AcDbEntity
  8
部品1
100
AcDbLine
 10
416.9705892765469
 20
1447.494269174429
 30
0.0
 11
416.9705892765486
 21
1392.494269174433
 31
0.0
  0
LINE
  5
18D8D
330
18C7A
100
AcDbEntity
  8
部品1
100
AcDbLine
 10
416.9705892765196
 20
3182.494269174477
 30
0.0
 11
416.9705892765486
 21
1392.494269174465
 31
0.0
  0
LINE
  5
18D8E
330
18C7A
100
AcDbEntity
  8
部品1
100
AcDbLine
 10
444.9705892765305
 20
1420.494269174556
 30
0.0
 11
444.9705892765559
 21
3154.494269174509
 31
0.0
  0
LINE
  5
18D8F
330
18C7A
100
AcDbEntity
  8
部品1
100
AcDbLine
 10
473.4705892765323
 20
2702.494269174608
 30
0.0
 11
473.470589276545
 21
1448.994269174571
 31
0.0
  0
LINE
  5
18D90
330
18C7A
100
AcDbEntity
  8
破線
 48
10.0
100
AcDbLine
 10
496.9705892765305
 20
2702.494269174608
 30
0.0
 11
496.9705892765451
 21
1472.494269174476
 31
0.0
  0
DIMENSION
  5
18D91
330
18C7A
100
AcDbEntity
  8
寸法
100
AcDbDimension
  2
*D8
 10
3886.970589276531
 20
410.7433333855515
 30
0.0
 11
2168.197775309287
 21
410.7433333855515
 31
0.0
 12
-3742.925985830444
 22
-6453.628869860112
 32
0.0
 70
   128
 71
     5
 42
3469.999999999982
  3
INABA_S40G
100
AcDbAlignedDimension
 13
416.9705892765486
 23
1392.494269174433
 33
0.0
 14
3886.970589276531
 24
1392.49426917456
 34
0.0
100
AcDbRotatedDimension
1001
ACAD
1000
DSTYLE
1002
{
1070
   341
1005
0
1002
}
  0
LINE
  5
18D92
330
18C7A
100
AcDbEntity
  8
部品1
100
AcDbLine
 10
444.9705892765559
 20
3154.494269174624
 30
0.0
 11
1509.470589276487
 21
3154.494269174626
 31
0.0
  0
LINE
  5
18D93
330
18C7A
100
AcDbEntity
  8
部品1
100
AcDbLine
 10
3886.970589276531
 20
1392.494269174596
 30
0.0
 11
3411.970589276556
 21
1392.494269174582
 31
0.0
  0
LINE
  5
18D94
330
18C7A
100
AcDbEntity
  8
部品1
100
AcDbLine
 10
416.9705892765559
 20
3182.494269174509
 30
0.0
 11
3886.970589276556
 21
3182.494269174604
 31
0.0
  0
LINE
  5
18D95
330
18C7A
100
AcDbEntity
  8
部品1
100
AcDbLine
 10
445.4705892765559
 20
2702.494269174509
 30
0.0
 11
1508.470589276487
 21
2702.494269174558
 31
0.0
  0
LINE
  5
18D96
330
18C7A
100
AcDbEntity
  8
細線
 48
50.0
100
AcDbLine
 10
2767.470589276556
 20
3152.494269174611
 30
0.0
 11
1536.470589276487
 21
2702.494269174558
 31
0.0
  0
LINE
  5
18D97
330
18C7A
100
AcDbEntity
  8
部品1
100
AcDbLine
 10
445.4705892765542
 20
3152.494269174509
 30
0.0
 11
1508.470589276485
 21
3152.494269174558
 31
0.0
  0
LINE
  5
18D98
330
18C7A
100
AcDbEntity
  8
細線
 48
50.0
100
AcDbLine
 10
2767.470589276554
 20
2702.494269174615
 30
0.0
 11
1536.470589276485
 21
3152.494269174558
 31
0.0
  0
LINE
  5
18D99
330
18C7A
100
AcDbEntity
  8
破線
 48
10.0
100
AcDbLine
 10
2126.970589276534
 20
1472.494269174502
 30
0.0
 11
1344.47058927653
 21
1472.494269174473
 31
0.0
  0
LINE
  5
18D9A
330
18C7A
100
AcDbEntity
  8
部品1
100
AcDbLine
 10
3830.470589276556
 20
1448.994269174596
 30
0.0
 11
473.4705892764487
 21
1448.994269174476
 31
0.0
  0
DIMENSION
  5
18D9B
330
18C7A
100
AcDbEntity
  8
寸法
100
AcDbDimension
  2
*D7
 10
471.970589276555
 20
3698.302488799491
 30
0.0
 11
108.4853079022819
 21
3698.302488799491
 31
0.0
 12
-3742.925985830444
 22
-6453.628869860112
 32
0.0
 70
   128
 71
     5
 42
55.00000000003456
  3
INABA_S40G
100
AcDbAlignedDimension
 13
416.9705892765205
 23
3182.494269174509
 33
0.0
 14
471.970589276555
 24
3182.494269174509
 34
0.0
100
AcDbRotatedDimension
1001
ACAD
1000
DSTYLE
1002
{
1002
}
  0
DIMENSION
  5
18D9C
330
18C7A
100
AcDbEntity
  8
寸法
100
AcDbDimension
  2
*D6
 10
4534.396935010967
 20
3127.494269174607
 30
0.0
 11
4534.396935010965
 21
3490.979550548844
 31
0.0
 12
-3742.925985830444
 22
-6453.628869860112
 32
0.0
 70
   128
 71
     5
 42
54.99999999999636
  3
INABA_S40G
100
AcDbAlignedDimension
 13
3886.970589276556
 23
3182.494269174604
 33
0.0
 14
3886.970589276556
 24
3127.494269174607
 34
0.0
 50
90.0
100
AcDbRotatedDimension
1001
ACAD
1000
DSTYLE
1002
{
1002
}
  0
DIMENSION
  5
18D9D
330
18C7A
100
AcDbEntity
  8
寸法
100
AcDbDimension
  2
*D5
 10
3886.970589276556
 20
3698.302488799589
 30
0.0
 11
4195.455870650794
 21
3698.302488799589
 31
0.0
 12
-3742.925985830444
 22
-6453.628869860112
 32
0.0
 70
   128
 71
     5
 42
55.0
  3
INABA_S40G
100
AcDbAlignedDimension
 13
3831.970589276556
 23
3182.494269174604
 33
0.0
 14
3886.970589276556
 24
3182.494269174604
 34
0.0
100
AcDbRotatedDimension
1001
ACAD
1000
DSTYLE
1002
{
1002
}
  0
DIMENSION
  5
18D9E
330
18C7A
100
AcDbEntity
  8
寸法
100
AcDbDimension
  2
*D4
 10
3831.970589276556
 20
3698.302488799607
 30
0.0
 11
2151.970589276555
 21
3698.302488799607
 31
0.0
 12
-3742.925985830444
 22
-6453.628869860112
 32
0.0
 70
   128
  1
8X420=<>
 71
     5
 42
3360.000000000001
  3
INABA_S40G
100
AcDbAlignedDimension
 13
471.970589276555
 23
3182.494269174509
 33
0.0
 14
3831.970589276556
 24
3182.494269174604
 34
0.0
100
AcDbRotatedDimension
1001
ACAD
1000
DSTYLE
1002
{
1002
}
  0
DIMENSION
  5
18D9F
330
18C7A
100
AcDbEntity
  8
寸法
100
AcDbDimension
  2
*D3
 10
4899.503876750603
 20
1392.494269174596
 30
0.0
 11
4899.503876750601
 21
2287.4942691746
 31
0.0
 12
-3742.925985830444
 22
-6453.628869860112
 32
0.0
 70
   128
 71
     5
 42
1790.000000000007
  3
INABA_S40G
100
AcDbAlignedDimension
 13
3886.970589276556
 23
3182.494269174604
 33
0.0
 14
3886.970589276531
 24
1392.494269174596
 34
0.0
 50
90.0
100
AcDbRotatedDimension
1001
ACAD
1000
DSTYLE
1002
{
1002
}
  0
ENDBLK
  5
18DA1
330
18C7A
100
AcDbEntity
  8
0
 48
50.0
100
AcDbBlockEnd
  0
BLOCK
  5
1C4CB
330
1C4CA
100
AcDbEntity
  8
0
 48
50.0
100
AcDbBlockBegin
  2
_NONE
 70
     0
 10
0.0
 20
0.0
 30
0.0
  3
_NONE
  1

  0
CIRCLE
  5
1C4CC
330
1C4CA
100
AcDbEntity
  8
0
  6
ByBlock
 62
     0
 48
50.0
100
AcDbCircle
 10
0.0
 20
0.0
 30
0.0
 40
0.25
  0
ENDBLK
  5
1C4CD
330
1C4CA
100
AcDbEntity
  8
0
 48
50.0
100
AcDbBlockEnd
  0
BLOCK
  5
28523
330
28519
100
AcDbEntity
  8
0
 48
50.0
100
AcDbBlockBegin
  2
*D19
 70
     1
 10
0.0
 20
0.0
 30
0.0
  3
*D19
  1

  0
LINE
  5
28A99
330
28519
100
AcDbEntity
  8
寸法
 62
     0
 48
50.0
370
    -2
100
AcDbLine
 10
6875.600000000003
 20
7433.352470292189
 30
0.0
 11
6875.600000000003
 21
8272.6189283861
 31
0.0
  0
LINE
  5
28A9A
330
28519
100
AcDbEntity
  8
寸法
 62
     0
 48
50.0
370
    -2
100
AcDbLine
 10
4651.599999999998
 20
7433.352470292189
 30
0.0
 11
4651.599999999998
 21
8272.6189283861
 31
0.0
  0
LINE
  5
28A9B
330
28519
100
AcDbEntity
  8
寸法
 62
     0
 48
50.0
370
    -2
100
AcDbLine
 10
6875.600000000003
 20
8212.618928386101
 30
0.0
 11
4651.599999999998
 21
8212.618928386101
 31
0.0
  0
INSERT
  5
28A9C
330
28519
100
AcDbEntity
  8
寸法
 62
     0
 48
50.0
370
    -2
100
AcDbBlockReference
  2
_DOTSMALL
 10
6875.600000000003
 20
8212.618928386101
 30
0.0
 41
100.0
 42
100.0
 43
100.0
  0
INSERT
  5
28A9D
330
28519
100
AcDbEntity
  8
寸法
 62
     0
 48
50.0
370
    -2
100
AcDbBlockReference
  2
_DOTSMALL
 10
4651.599999999998
 20
8212.618928386101
 30
0.0
 41
100.0
 42
100.0
 43
100.0
 50
180.0
  0
MTEXT
  5
28A9E
330
28519
100
AcDbEntity
  8
寸法
 62
     7
 48
50.0
100
AcDbMText
 10
5763.6
 20
8312.630739409723
 30
0.0
 40
120.0
 41
0.0
 71
     5
 72
     1
  1
\A1;2224
  7
STYLE1
 73
     1
 44
1.0
1001
ACAD
1000
MTEXTBEGIN
1070
    73
1070
     1
1070
    44
1040
1.0
1070
    74
1070
     0
1000
MTEXTEND
  0
POINT
  5
28A9F
330
28519
100
AcDbEntity
  8
DEFPOINTS
 62
     0
 48
50.0
100
AcDbPoint
 10
6875.600000000003
 20
7413.35247029219
 30
0.0
  0
POINT
  5
28AA0
330
28519
100
AcDbEntity
  8
DEFPOINTS
 62
     0
 48
50.0
100
AcDbPoint
 10
4651.599999999998
 20
7413.35247029219
 30
0.0
  0
POINT
  5
28AA1
330
28519
100
AcDbEntity
  8
DEFPOINTS
 62
     0
 48
50.0
100
AcDbPoint
 10
4651.599999999998
 20
8212.618928386101
 30
0.0
  0
ENDBLK
  5
28524
330
28519
100
AcDbEntity
  8
0
 48
50.0
100
AcDbBlockEnd
  0
BLOCK
  5
2853D
330
28532
100
AcDbEntity
  8
0
 48
50.0
100
AcDbBlockBegin
  2
*D20
 70
     1
 10
0.0
 20
0.0
 30
0.0
  3
*D20
  1

  0
LINE
  5
28A8F
330
28532
100
AcDbEntity
  8
寸法
 62
     0
 48
50.0
370
    -2
100
AcDbLine
 10
4651.599999999998
 20
7433.352470292189
 30
0.0
 11
4651.599999999998
 21
8272.6189283861
 31
0.0
  0
LINE
  5
28A90
330
28532
100
AcDbEntity
  8
寸法
 62
     0
 48
50.0
370
    -2
100
AcDbLine
 10
4528.599999999999
 20
7506.352470292189
 30
0.0
 11
4528.599999999999
 21
8272.6189283861
 31
0.0
  0
LINE
  5
28A91
330
28532
100
AcDbEntity
  8
寸法
 62
     0
 48
50.0
370
    -2
100
AcDbLine
 10
4651.599999999998
 20
8212.618928386101
 30
0.0
 11
4528.599999999999
 21
8212.618928386101
 31
0.0
  0
LINE
  5
28A92
330
28532
100
AcDbEntity
  8
寸法
 62
     0
 48
50.0
370
    -2
100
AcDbLine
 10
4528.599999999999
 20
8212.618928386101
 30
0.0
 11
4117.008116907961
 21
8212.618928386101
 31
0.0
  0
INSERT
  5
28A93
330
28532
100
AcDbEntity
  8
寸法
 62
     0
 48
50.0
370
    -2
100
AcDbBlockReference
  2
_DOTSMALL
 10
4651.599999999998
 20
8212.618928386101
 30
0.0
 41
100.0
 42
100.0
 43
100.0
  0
INSERT
  5
28A94
330
28532
100
AcDbEntity
  8
寸法
 62
     0
 48
50.0
370
    -2
100
AcDbBlockReference
  2
_DOTSMALL
 10
4528.599999999999
 20
8212.618928386101
 30
0.0
 41
100.0
 42
100.0
 43
100.0
 50
180.0
  0
MTEXT
  5
28A95
330
28532
100
AcDbEntity
  8
寸法
 62
     7
 48
50.0
100
AcDbMText
 10
4255.4933982822
 20
8312.630739409723
 30
0.0
 40
120.0
 41
0.0
 71
     5
 72
     1
  1
\A1;123
  7
STYLE1
 73
     1
 44
1.0
1001
ACAD
1000
MTEXTBEGIN
1070
    73
1070
     1
1070
    44
1040
1.0
1070
    74
1070
     0
1000
MTEXTEND
  0
POINT
  5
28A96
330
28532
100
AcDbEntity
  8
DEFPOINTS
 62
     0
 48
50.0
100
AcDbPoint
 10
4651.599999999998
 20
7413.35247029219
 30
0.0
  0
POINT
  5
28A97
330
28532
100
AcDbEntity
  8
DEFPOINTS
 62
     0
 48
50.0
100
AcDbPoint
 10
4528.599999999999
 20
7486.352470292189
 30
0.0
  0
POINT
  5
28A98
330
28532
100
AcDbEntity
  8
DEFPOINTS
 62
     0
 48
50.0
100
AcDbPoint
 10
4528.599999999999
 20
8212.618928386101
 30
0.0
  0
ENDBLK
  5
2853E
330
28532
100
AcDbEntity
  8
0
 48
50.0
100
AcDbBlockEnd
  0
BLOCK
  5
2854A
330
2853F
100
AcDbEntity
  8
0
 48
50.0
100
AcDbBlockBegin
  2
*D21
 70
     1
 10
0.0
 20
0.0
 30
0.0
  3
*D21
  1

  0
LINE
  5
28A85
330
2853F
100
AcDbEntity
  8
寸法
 62
     0
 48
50.0
370
    -2
100
AcDbLine
 10
4508.599999999998
 20
7486.352470292189
 30
0.0
 11
3845.665006330071
 21
7486.352470292189
 31
0.0
  0
LINE
  5
28A86
330
2853F
100
AcDbEntity
  8
寸法
 62
     0
 48
50.0
370
    -2
100
AcDbLine
 10
4581.599999999999
 20
7363.35247029219
 30
0.0
 11
3845.665006330071
 21
7363.35247029219
 31
0.0
  0
LINE
  5
28A87
330
2853F
100
AcDbEntity
  8
寸法
 62
     0
 48
50.0
370
    -2
100
AcDbLine
 10
3905.665006330071
 20
7363.35247029219
 30
0.0
 11
3905.665006330071
 21
7486.352470292189
 31
0.0
  0
LINE
  5
28A88
330
2853F
100
AcDbEntity
  8
寸法
 62
     0
 48
50.0
370
    -2
100
AcDbLine
 10
3905.665006330071
 20
7486.352470292189
 30
0.0
 11
3905.665006330071
 21
7897.944353384229
 31
0.0
  0
INSERT
  5
28A89
330
2853F
100
AcDbEntity
  8
寸法
 62
     0
 48
50.0
370
    -2
100
AcDbBlockReference
  2
_DOTSMALL
 10
3905.665006330071
 20
7363.35247029219
 30
0.0
 41
100.0
 42
100.0
 43
100.0
 50
270.0
  0
INSERT
  5
28A8A
330
2853F
100
AcDbEntity
  8
寸法
 62
     0
 48
50.0
370
    -2
100
AcDbBlockReference
  2
_DOTSMALL
 10
3905.665006330071
 20
7486.352470292189
 30
0.0
 41
100.0
 42
100.0
 43
100.0
 50
90.0
  0
MTEXT
  5
28A8B
330
2853F
100
AcDbEntity
  8
寸法
 62
     7
 48
50.0
100
AcDbMText
 10
3805.653195306447
 20
7759.45907200999
 30
0.0
 40
120.0
 41
0.0
 71
     5
 72
     1
  1
\A1;123
  7
STYLE1
 11
0.0000000000000001
 21
1.0
 31
0.0
 73
     1
 44
1.0
1001
ACAD
1000
MTEXTBEGIN
1070
    73
1070
     1
1070
    44
1040
1.0
1070
    74
1070
     0
1000
MTEXTEND
  0
POINT
  5
28A8C
330
2853F
100
AcDbEntity
  8
DEFPOINTS
 62
     0
 48
50.0
100
AcDbPoint
 10
4528.599999999999
 20
7486.352470292189
 30
0.0
  0
POINT
  5
28A8D
330
2853F
100
AcDbEntity
  8
DEFPOINTS
 62
     0
 48
50.0
100
AcDbPoint
 10
4601.599999999998
 20
7363.35247029219
 30
0.0
  0
POINT
  5
28A8E
330
2853F
100
AcDbEntity
  8
DEFPOINTS
 62
     0
 48
50.0
100
AcDbPoint
 10
3905.665006330071
 20
7363.35247029219
 30
0.0
  0
ENDBLK
  5
2854B
330
2853F
100
AcDbEntity
  8
0
 48
50.0
100
AcDbBlockEnd
  0
BLOCK
  5
2856D
330
28563
100
AcDbEntity
  8
0
 48
50.0
100
AcDbBlockBegin
  2
*D22
 70
     1
 10
0.0
 20
0.0
 30
0.0
  3
*D22
  1

  0
LINE
  5
292C4
330
28563
100
AcDbEntity
  8
寸法
 62
     0
 48
50.0
370
    -2
100
AcDbLine
 10
10273.60000000001
 20
6903.35247029219
 30
0.0
 11
10273.60000000001
 21
8028.961286962438
 31
0.0
  0
LINE
  5
292C5
330
28563
100
AcDbEntity
  8
寸法
 62
     0
 48
50.0
370
    -2
100
AcDbLine
 10
9453.60000000001
 20
6903.35247029219
 30
0.0
 11
9453.60000000001
 21
8028.961286962438
 31
0.0
  0
LINE
  5
292C6
330
28563
100
AcDbEntity
  8
寸法
 62
     0
 48
50.0
370
    -2
100
AcDbLine
 10
10273.60000000001
 20
7968.961286962438
 30
0.0
 11
9453.60000000001
 21
7968.961286962438
 31
0.0
  0
INSERT
  5
292C7
330
28563
100
AcDbEntity
  8
寸法
 62
     0
 48
50.0
370
    -2
100
AcDbBlockReference
  2
_DOTSMALL
 10
10273.60000000001
 20
7968.961286962438
 30
0.0
 41
100.0
 42
100.0
 43
100.0
  0
INSERT
  5
292C8
330
28563
100
AcDbEntity
  8
寸法
 62
     0
 48
50.0
370
    -2
100
AcDbBlockReference
  2
_DOTSMALL
 10
9453.60000000001
 20
7968.961286962438
 30
0.0
 41
100.0
 42
100.0
 43
100.0
 50
180.0
  0
MTEXT
  5
292C9
330
28563
100
AcDbEntity
  8
寸法
 62
     7
 48
50.0
100
AcDbMText
 10
9863.60000000001
 20
8068.973097986059
 30
0.0
 40
120.0
 41
0.0
 71
     5
 72
     1
  1
\A1;820
  7
STYLE1
 73
     1
 44
1.0
1001
ACAD
1000
MTEXTBEGIN
1070
    73
1070
     1
1070
    44
1040
1.0
1070
    74
1070
     0
1000
MTEXTEND
  0
POINT
  5
292CA
330
28563
100
AcDbEntity
  8
DEFPOINTS
 62
     0
 48
50.0
100
AcDbPoint
 10
10273.60000000001
 20
6883.352470292189
 30
0.0
  0
POINT
  5
292CB
330
28563
100
AcDbEntity
  8
DEFPOINTS
 62
     0
 48
50.0
100
AcDbPoint
 10
9453.60000000001
 20
6883.352470292189
 30
0.0
  0
POINT
  5
292CC
330
28563
100
AcDbEntity
  8
DEFPOINTS
 62
     0
 48
50.0
100
AcDbPoint
 10
9453.60000000001
 20
7968.961286962438
 30
0.0
  0
ENDBLK
  5
2856E
330
28563
100
AcDbEntity
  8
0
 48
50.0
100
AcDbBlockEnd
  0
BLOCK
  5
28578
330
2856F
100
AcDbEntity
  8
0
 48
50.0
100
AcDbBlockBegin
  2
*D23
 70
     1
 10
0.0
 20
0.0
 30
0.0
  3
*D23
  1

  0
LINE
  5
292BB
330
2856F
100
AcDbEntity
  8
寸法
 62
     0
 48
50.0
370
    -2
100
AcDbLine
 10
9453.60000000001
 20
6903.35247029219
 30
0.0
 11
9453.60000000001
 21
8028.961286962438
 31
0.0
  0
LINE
  5
292BC
330
2856F
100
AcDbEntity
  8
寸法
 62
     0
 48
50.0
370
    -2
100
AcDbLine
 10
8633.60000000001
 20
6903.35247029219
 30
0.0
 11
8633.60000000001
 21
8028.961286962438
 31
0.0
  0
LINE
  5
292BD
330
2856F
100
AcDbEntity
  8
寸法
 62
     0
 48
50.0
370
    -2
100
AcDbLine
 10
9453.60000000001
 20
7968.961286962438
 30
0.0
 11
8633.60000000001
 21
7968.961286962438
 31
0.0
  0
INSERT
  5
292BE
330
2856F
100
AcDbEntity
  8
寸法
 62
     0
 48
50.0
370
    -2
100
AcDbBlockReference
  2
_DOTSMALL
 10
9453.60000000001
 20
7968.961286962438
 30
0.0
 41
100.0
 42
100.0
 43
100.0
  0
INSERT
  5
292BF
330
2856F
100
AcDbEntity
  8
寸法
 62
     0
 48
50.0
370
    -2
100
AcDbBlockReference
  2
_DOTSMALL
 10
8633.60000000001
 20
7968.961286962438
 30
0.0
 41
100.0
 42
100.0
 43
100.0
 50
180.0
  0
MTEXT
  5
292C0
330
2856F
100
AcDbEntity
  8
寸法
 62
     7
 48
50.0
100
AcDbMText
 10
9043.60000000001
 20
8068.973097986059
 30
0.0
 40
120.0
 41
0.0
 71
     5
 72
     1
  1
\A1;820
  7
STYLE1
 73
     1
 44
1.0
1001
ACAD
1000
MTEXTBEGIN
1070
    73
1070
     1
1070
    44
1040
1.0
1070
    74
1070
     0
1000
MTEXTEND
  0
POINT
  5
292C1
330
2856F
100
AcDbEntity
  8
DEFPOINTS
 62
     0
 48
50.0
100
AcDbPoint
 10
9453.60000000001
 20
6883.352470292189
 30
0.0
  0
POINT
  5
292C2
330
2856F
100
AcDbEntity
  8
DEFPOINTS
 62
     0
 48
50.0
100
AcDbPoint
 10
8633.60000000001
 20
6883.352470292189
 30
0.0
  0
POINT
  5
292C3
330
2856F
100
AcDbEntity
  8
DEFPOINTS
 62
     0
 48
50.0
100
AcDbPoint
 10
8633.60000000001
 20
7968.961286962438
 30
0.0
  0
ENDBLK
  5
28579
330
2856F
100
AcDbEntity
  8
0
 48
50.0
100
AcDbBlockEnd
  0
BLOCK
  5
28584
330
2857A
100
AcDbEntity
  8
0
 48
50.0
100
AcDbBlockBegin
  2
*D24
 70
     1
 10
0.0
 20
0.0
 30
0.0
  3
*D24
  1

  0
LINE
  5
292B2
330
2857A
100
AcDbEntity
  8
寸法
 62
     0
 48
50.0
370
    -2
100
AcDbLine
 10
11093.60000000001
 20
6903.35247029219
 30
0.0
 11
11093.60000000001
 21
8028.961286962438
 31
0.0
  0
LINE
  5
292B3
330
2857A
100
AcDbEntity
  8
寸法
 62
     0
 48
50.0
370
    -2
100
AcDbLine
 10
10273.60000000001
 20
6903.35247029219
 30
0.0
 11
10273.60000000001
 21
8028.961286962438
 31
0.0
  0
LINE
  5
292B4
330
2857A
100
AcDbEntity
  8
寸法
 62
     0
 48
50.0
370
    -2
100
AcDbLine
 10
11093.60000000001
 20
7968.961286962438
 30
0.0
 11
10273.60000000001
 21
7968.961286962438
 31
0.0
  0
INSERT
  5
292B5
330
2857A
100
AcDbEntity
  8
寸法
 62
     0
 48
50.0
370
    -2
100
AcDbBlockReference
  2
_DOTSMALL
 10
11093.60000000001
 20
7968.961286962438
 30
0.0
 41
100.0
 42
100.0
 43
100.0
  0
INSERT
  5
292B6
330
2857A
100
AcDbEntity
  8
寸法
 62
     0
 48
50.0
370
    -2
100
AcDbBlockReference
  2
_DOTSMALL
 10
10273.60000000001
 20
7968.961286962438
 30
0.0
 41
100.0
 42
100.0
 43
100.0
 50
180.0
  0
MTEXT
  5
292B7
330
2857A
100
AcDbEntity
  8
寸法
 62
     7
 48
50.0
100
AcDbMText
 10
10683.60000000001
 20
8068.973097986059
 30
0.0
 40
120.0
 41
0.0
 71
     5
 72
     1
  1
\A1;820
  7
STYLE1
 73
     1
 44
1.0
1001
ACAD
1000
MTEXTBEGIN
1070
    73
1070
     1
1070
    44
1040
1.0
1070
    74
1070
     0
1000
MTEXTEND
  0
POINT
  5
292B8
330
2857A
100
AcDbEntity
  8
DEFPOINTS
 62
     0
 48
50.0
100
AcDbPoint
 10
11093.60000000001
 20
6883.352470292189
 30
0.0
  0
POINT
  5
292B9
330
2857A
100
AcDbEntity
  8
DEFPOINTS
 62
     0
 48
50.0
100
AcDbPoint
 10
10273.60000000001
 20
6883.352470292189
 30
0.0
  0
POINT
  5
292BA
330
2857A
100
AcDbEntity
  8
DEFPOINTS
 62
     0
 48
50.0
100
AcDbPoint
 10
10273.60000000001
 20
7968.961286962438
 30
0.0
  0
ENDBLK
  5
28585
330
2857A
100
AcDbEntity
  8
0
 48
50.0
100
AcDbBlockEnd
  0
BLOCK
  5
28590
330
28586
100
AcDbEntity
  8
0
 48
50.0
100
AcDbBlockBegin
  2
*D25
 70
     1
 10
0.0
 20
0.0
 30
0.0
  3
*D25
  1

  0
LINE
  5
292A9
330
28586
100
AcDbEntity
  8
寸法
 62
     0
 48
50.0
370
    -2
100
AcDbLine
 10
11918.6
 20
7506.352470292189
 30
0.0
 11
11918.6
 21
8028.961286962438
 31
0.0
  0
LINE
  5
292AA
330
28586
100
AcDbEntity
  8
寸法
 62
     0
 48
50.0
370
    -2
100
AcDbLine
 10
11093.60000000001
 20
6903.35247029219
 30
0.0
 11
11093.60000000001
 21
8028.961286962438
 31
0.0
  0
LINE
  5
292AB
330
28586
100
AcDbEntity
  8
寸法
 62
     0
 48
50.0
370
    -2
100
AcDbLine
 10
11918.6
 20
7968.961286962438
 30
0.0
 11
11093.60000000001
 21
7968.961286962438
 31
0.0
  0
INSERT
  5
292AC
330
28586
100
AcDbEntity
  8
寸法
 62
     0
 48
50.0
370
    -2
100
AcDbBlockReference
  2
_DOTSMALL
 10
11918.6
 20
7968.961286962438
 30
0.0
 41
100.0
 42
100.0
 43
100.0
  0
INSERT
  5
292AD
330
28586
100
AcDbEntity
  8
寸法
 62
     0
 48
50.0
370
    -2
100
AcDbBlockReference
  2
_DOTSMALL
 10
11093.60000000001
 20
7968.961286962438
 30
0.0
 41
100.0
 42
100.0
 43
100.0
 50
180.0
  0
MTEXT
  5
292AE
330
28586
100
AcDbEntity
  8
寸法
 62
     7
 48
50.0
100
AcDbMText
 10
11506.1
 20
8068.973097986059
 30
0.0
 40
120.0
 41
0.0
 71
     5
 72
     1
  1
\A1;825
  7
STYLE1
 73
     1
 44
1.0
1001
ACAD
1000
MTEXTBEGIN
1070
    73
1070
     1
1070
    44
1040
1.0
1070
    74
1070
     0
1000
MTEXTEND
  0
POINT
  5
292AF
330
28586
100
AcDbEntity
  8
DEFPOINTS
 62
     0
 48
50.0
100
AcDbPoint
 10
11918.6
 20
7486.352470292189
 30
0.0
  0
POINT
  5
292B0
330
28586
100
AcDbEntity
  8
DEFPOINTS
 62
     0
 48
50.0
100
AcDbPoint
 10
11093.60000000001
 20
6883.352470292189
 30
0.0
  0
POINT
  5
292B1
330
28586
100
AcDbEntity
  8
DEFPOINTS
 62
     0
 48
50.0
100
AcDbPoint
 10
11093.60000000001
 20
7968.961286962438
 30
0.0
  0
ENDBLK
  5
28591
330
28586
100
AcDbEntity
  8
0
 48
50.0
100
AcDbBlockEnd
  0
BLOCK
  5
2859C
330
28592
100
AcDbEntity
  8
0
 48
50.0
100
AcDbBlockBegin
  2
*D26
 70
     1
 10
0.0
 20
0.0
 30
0.0
  3
*D26
  1

  0
LINE
  5
28A58
330
28592
100
AcDbEntity
  8
寸法
 62
     0
 48
50.0
370
    -2
100
AcDbLine
 10
11795.6
 20
7433.352470292189
 30
0.0
 11
11795.6
 21
8272.6189283861
 31
0.0
  0
LINE
  5
28A59
330
28592
100
AcDbEntity
  8
寸法
 62
     0
 48
50.0
370
    -2
100
AcDbLine
 10
9335.600000000003
 20
7433.352470292189
 30
0.0
 11
9335.600000000003
 21
8272.6189283861
 31
0.0
  0
LINE
  5
28A5A
330
28592
100
AcDbEntity
  8
寸法
 62
     0
 48
50.0
370
    -2
100
AcDbLine
 10
11795.6
 20
8212.618928386101
 30
0.0
 11
9335.600000000003
 21
8212.618928386101
 31
0.0
  0
INSERT
  5
28A5B
330
28592
100
AcDbEntity
  8
寸法
 62
     0
 48
50.0
370
    -2
100
AcDbBlockReference
  2
_DOTSMALL
 10
11795.6
 20
8212.618928386101
 30
0.0
 41
100.0
 42
100.0
 43
100.0
  0
INSERT
  5
28A5C
330
28592
100
AcDbEntity
  8
寸法
 62
     0
 48
50.0
370
    -2
100
AcDbBlockReference
  2
_DOTSMALL
 10
9335.600000000003
 20
8212.618928386101
 30
0.0
 41
100.0
 42
100.0
 43
100.0
 50
180.0
  0
MTEXT
  5
28A5D
330
28592
100
AcDbEntity
  8
寸法
 62
     7
 48
50.0
100
AcDbMText
 10
10565.6
 20
8312.630739409723
 30
0.0
 40
120.0
 41
0.0
 71
     5
 72
     1
  1
\A1;2460
  7
STYLE1
 73
     1
 44
1.0
1001
ACAD
1000
MTEXTBEGIN
1070
    73
1070
     1
1070
    44
1040
1.0
1070
    74
1070
     0
1000
MTEXTEND
  0
POINT
  5
28A5E
330
28592
100
AcDbEntity
  8
DEFPOINTS
 62
     0
 48
50.0
100
AcDbPoint
 10
11795.6
 20
7413.35247029219
 30
0.0
  0
POINT
  5
28A5F
330
28592
100
AcDbEntity
  8
DEFPOINTS
 62
     0
 48
50.0
100
AcDbPoint
 10
9335.600000000003
 20
7413.35247029219
 30
0.0
  0
POINT
  5
28A60
330
28592
100
AcDbEntity
  8
DEFPOINTS
 62
     0
 48
50.0
100
AcDbPoint
 10
9335.600000000003
 20
8212.618928386101
 30
0.0
  0
ENDBLK
  5
2859D
330
28592
100
AcDbEntity
  8
0
 48
50.0
100
AcDbBlockEnd
  0
BLOCK
  5
285B6
330
285AB
100
AcDbEntity
  8
0
 48
50.0
100
AcDbBlockBegin
  2
*D27
 70
     1
 10
0.0
 20
0.0
 30
0.0
  3
*D27
  1

  0
LINE
  5
28A4E
330
285AB
100
AcDbEntity
  8
寸法
 62
     0
 48
50.0
370
    -2
100
AcDbLine
 10
11918.6
 20
7506.352470292189
 30
0.0
 11
11918.6
 21
8272.6189283861
 31
0.0
  0
LINE
  5
28A4F
330
285AB
100
AcDbEntity
  8
寸法
 62
     0
 48
50.0
370
    -2
100
AcDbLine
 10
11795.6
 20
7433.352470292189
 30
0.0
 11
11795.6
 21
8272.6189283861
 31
0.0
  0
LINE
  5
28A50
330
285AB
100
AcDbEntity
  8
寸法
 62
     0
 48
50.0
370
    -2
100
AcDbLine
 10
11795.6
 20
8212.618928386101
 30
0.0
 11
11918.6
 21
8212.618928386101
 31
0.0
  0
LINE
  5
28A51
330
285AB
100
AcDbEntity
  8
寸法
 62
     0
 48
50.0
370
    -2
100
AcDbLine
 10
11918.6
 20
8212.618928386101
 30
0.0
 11
12330.19188309204
 21
8212.618928386101
 31
0.0
  0
INSERT
  5
28A52
330
285AB
100
AcDbEntity
  8
寸法
 62
     0
 48
50.0
370
    -2
100
AcDbBlockReference
  2
_DOTSMALL
 10
11795.6
 20
8212.618928386101
 30
0.0
 41
100.0
 42
100.0
 43
100.0
 50
180.0
  0
INSERT
  5
28A53
330
285AB
100
AcDbEntity
  8
寸法
 62
     0
 48
50.0
370
    -2
100
AcDbBlockReference
  2
_DOTSMALL
 10
11918.6
 20
8212.618928386101
 30
0.0
 41
100.0
 42
100.0
 43
100.0
  0
MTEXT
  5
28A54
330
285AB
100
AcDbEntity
  8
寸法
 62
     7
 48
50.0
100
AcDbMText
 10
12191.7066017178
 20
8312.630739409723
 30
0.0
 40
120.0
 41
0.0
 71
     5
 72
     1
  1
\A1;123
  7
STYLE1
 73
     1
 44
1.0
1001
ACAD
1000
MTEXTBEGIN
1070
    73
1070
     1
1070
    44
1040
1.0
1070
    74
1070
     0
1000
MTEXTEND
  0
POINT
  5
28A55
330
285AB
100
AcDbEntity
  8
DEFPOINTS
 62
     0
 48
50.0
100
AcDbPoint
 10
11918.6
 20
7486.352470292189
 30
0.0
  0
POINT
  5
28A56
330
285AB
100
AcDbEntity
  8
DEFPOINTS
 62
     0
 48
50.0
100
AcDbPoint
 10
11795.6
 20
7413.35247029219
 30
0.0
  0
POINT
  5
28A57
330
285AB
100
AcDbEntity
  8
DEFPOINTS
 62
     0
 48
50.0
100
AcDbPoint
 10
11795.6
 20
8212.618928386101
 30
0.0
  0
ENDBLK
  5
285B7
330
285AB
100
AcDbEntity
  8
0
 48
50.0
100
AcDbBlockEnd
  0
BLOCK
  5
285CF
330
285C5
100
AcDbEntity
  8
0
 48
50.0
100
AcDbBlockBegin
  2
*D28
 70
     1
 10
0.0
 20
0.0
 30
0.0
  3
*D28
  1

  0
LINE
  5
28AC6
330
285C5
100
AcDbEntity
  8
寸法
 62
     0
 48
50.0
370
    -2
100
AcDbLine
 10
4528.599999999999
 20
7506.352470292189
 30
0.0
 11
4528.599999999999
 21
8504.572792351108
 31
0.0
  0
LINE
  5
28AC7
330
285C5
100
AcDbEntity
  8
寸法
 62
     0
 48
50.0
370
    -2
100
AcDbLine
 10
11918.6
 20
7506.352470292189
 30
0.0
 11
11918.6
 21
8504.572792351108
 31
0.0
  0
LINE
  5
28AC8
330
285C5
100
AcDbEntity
  8
寸法
 62
     0
 48
50.0
370
    -2
100
AcDbLine
 10
4528.599999999999
 20
8444.572792351108
 30
0.0
 11
11918.6
 21
8444.572792351108
 31
0.0
  0
INSERT
  5
28AC9
330
285C5
100
AcDbEntity
  8
寸法
 62
     0
 48
50.0
370
    -2
100
AcDbBlockReference
  2
_DOTSMALL
 10
4528.599999999999
 20
8444.572792351108
 30
0.0
 41
100.0
 42
100.0
 43
100.0
 50
180.0
  0
INSERT
  5
28ACA
330
285C5
100
AcDbEntity
  8
寸法
 62
     0
 48
50.0
370
    -2
100
AcDbBlockReference
  2
_DOTSMALL
 10
11918.6
 20
8444.572792351108
 30
0.0
 41
100.0
 42
100.0
 43
100.0
  0
MTEXT
  5
28ACB
330
285C5
100
AcDbEntity
  8
寸法
 62
     7
 48
50.0
100
AcDbMText
 10
8223.600000000002
 20
8544.58460337473
 30
0.0
 40
120.0
 41
0.0
 71
     5
 72
     1
  1
\A1;N X 820+10
  7
STYLE1
 73
     1
 44
1.0
1001
ACAD
1000
MTEXTBEGIN
1070
    73
1070
     1
1070
    44
1040
1.0
1070
    74
1070
     0
1000
MTEXTEND
  0
POINT
  5
28ACC
330
285C5
100
AcDbEntity
  8
DEFPOINTS
 62
     0
 48
50.0
100
AcDbPoint
 10
4528.599999999999
 20
7486.352470292189
 30
0.0
  0
POINT
  5
28ACD
330
285C5
100
AcDbEntity
  8
DEFPOINTS
 62
     0
 48
50.0
100
AcDbPoint
 10
11918.6
 20
7486.352470292189
 30
0.0
  0
POINT
  5
28ACE
330
285C5
100
AcDbEntity
  8
DEFPOINTS
 62
     0
 48
50.0
100
AcDbPoint
 10
11918.6
 20
8444.572792351108
 30
0.0
  0
ENDBLK
  5
285D0
330
285C5
100
AcDbEntity
  8
0
 48
50.0
100
AcDbBlockEnd
  0
BLOCK
  5
285DB
330
285D1
100
AcDbEntity
  8
0
 48
50.0
100
AcDbBlockBegin
  2
*D29
 70
     1
 10
0.0
 20
0.0
 30
0.0
  3
*D29
  1

  0
LINE
  5
291EE
330
285D1
100
AcDbEntity
  8
寸法
 62
     0
 48
50.0
370
    -2
100
AcDbLine
 10
4581.599999999999
 20
7363.35247029219
 30
0.0
 11
3845.665006330071
 21
7363.35247029219
 31
0.0
  0
LINE
  5
291EF
330
285D1
100
AcDbEntity
  8
寸法
 62
     0
 48
50.0
370
    -2
100
AcDbLine
 10
4581.600000000006
 20
6304.352470292194
 30
0.0
 11
3845.665006330071
 21
6304.352470292194
 31
0.0
  0
LINE
  5
291F0
330
285D1
100
AcDbEntity
  8
寸法
 62
     0
 48
50.0
370
    -2
100
AcDbLine
 10
3905.665006330071
 20
7363.35247029219
 30
0.0
 11
3905.66500633007
 21
6304.352470292194
 31
0.0
  0
INSERT
  5
291F1
330
285D1
100
AcDbEntity
  8
寸法
 62
     0
 48
50.0
370
    -2
100
AcDbBlockReference
  2
_DOTSMALL
 10
3905.665006330071
 20
7363.35247029219
 30
0.0
 41
100.0
 42
100.0
 43
100.0
 50
90.0
  0
INSERT
  5
291F2
330
285D1
100
AcDbEntity
  8
寸法
 62
     0
 48
50.0
370
    -2
100
AcDbBlockReference
  2
_DOTSMALL
 10
3905.66500633007
 20
6304.352470292194
 30
0.0
 41
100.0
 42
100.0
 43
100.0
 50
270.0
  0
MTEXT
  5
291F3
330
285D1
100
AcDbEntity
  8
寸法
 62
     7
 48
50.0
100
AcDbMText
 10
3805.66500633007
 20
6833.85247029219
 30
0.0
 40
120.0
 41
0.0
 71
     5
 72
     1
  1
\A1;1059
  7
STYLE1
 11
0.0000000000000001
 21
1.0
 31
0.0
 73
     1
 44
1.0
1001
ACAD
1000
MTEXTBEGIN
1070
    73
1070
     1
1070
    44
1040
1.0
1070
    74
1070
     0
1000
MTEXTEND
  0
POINT
  5
291F4
330
285D1
100
AcDbEntity
  8
DEFPOINTS
 62
     0
 48
50.0
100
AcDbPoint
 10
4601.599999999998
 20
7363.35247029219
 30
0.0
  0
POINT
  5
291F5
330
285D1
100
AcDbEntity
  8
DEFPOINTS
 62
     0
 48
50.0
100
AcDbPoint
 10
4601.600000000006
 20
6304.352470292194
 30
0.0
  0
POINT
  5
291F6
330
285D1
100
AcDbEntity
  8
DEFPOINTS
 62
     0
 48
50.0
100
AcDbPoint
 10
3905.66500633007
 20
6304.352470292194
 30
0.0
  0
ENDBLK
  5
285DC
330
285D1
100
AcDbEntity
  8
0
 48
50.0
100
AcDbBlockEnd
  0
BLOCK
  5
285E7
330
285DD
100
AcDbEntity
  8
0
 48
50.0
100
AcDbBlockBegin
  2
*D30
 70
     1
 10
0.0
 20
0.0
 30
0.0
  3
*D30
  1

  0
LINE
  5
292FA
330
285DD
100
AcDbEntity
  8
寸法
 62
     0
 48
50.0
370
    -2
100
AcDbLine
 10
7813.600000000009
 20
6903.35247029219
 30
0.0
 11
7813.600000000009
 21
8028.961286962438
 31
0.0
  0
LINE
  5
292FB
330
285DD
100
AcDbEntity
  8
寸法
 62
     0
 48
50.0
370
    -2
100
AcDbLine
 10
6993.600000000009
 20
6903.35247029219
 30
0.0
 11
6993.600000000009
 21
8028.961286962438
 31
0.0
  0
LINE
  5
292FC
330
285DD
100
AcDbEntity
  8
寸法
 62
     0
 48
50.0
370
    -2
100
AcDbLine
 10
7813.600000000009
 20
7968.961286962438
 30
0.0
 11
6993.600000000009
 21
7968.961286962438
 31
0.0
  0
INSERT
  5
292FD
330
285DD
100
AcDbEntity
  8
寸法
 62
     0
 48
50.0
370
    -2
100
AcDbBlockReference
  2
_DOTSMALL
 10
7813.600000000009
 20
7968.961286962438
 30
0.0
 41
100.0
 42
100.0
 43
100.0
  0
INSERT
  5
292FE
330
285DD
100
AcDbEntity
  8
寸法
 62
     0
 48
50.0
370
    -2
100
AcDbBlockReference
  2
_DOTSMALL
 10
6993.600000000009
 20
7968.961286962438
 30
0.0
 41
100.0
 42
100.0
 43
100.0
 50
180.0
  0
MTEXT
  5
292FF
330
285DD
100
AcDbEntity
  8
寸法
 62
     7
 48
50.0
100
AcDbMText
 10
7403.60000000001
 20
8068.973097986059
 30
0.0
 40
120.0
 41
0.0
 71
     5
 72
     1
  1
\A1;820
  7
STYLE1
 73
     1
 44
1.0
1001
ACAD
1000
MTEXTBEGIN
1070
    73
1070
     1
1070
    44
1040
1.0
1070
    74
1070
     0
1000
MTEXTEND
  0
POINT
  5
29300
330
285DD
100
AcDbEntity
  8
DEFPOINTS
 62
     0
 48
50.0
100
AcDbPoint
 10
7813.600000000009
 20
6883.352470292189
 30
0.0
  0
POINT
  5
29301
330
285DD
100
AcDbEntity
  8
DEFPOINTS
 62
     0
 48
50.0
100
AcDbPoint
 10
6993.600000000009
 20
6883.352470292189
 30
0.0
  0
POINT
  5
29302
330
285DD
100
AcDbEntity
  8
DEFPOINTS
 62
     0
 48
50.0
100
AcDbPoint
 10
6993.600000000009
 20
7968.961286962438
 30
0.0
  0
ENDBLK
  5
285E8
330
285DD
100
AcDbEntity
  8
0
 48
50.0
100
AcDbBlockEnd
  0
BLOCK
  5
285F3
330
285E9
100
AcDbEntity
  8
0
 48
50.0
100
AcDbBlockBegin
  2
*D31
 70
     1
 10
0.0
 20
0.0
 30
0.0
  3
*D31
  1

  0
LINE
  5
28AD9
330
285E9
100
AcDbEntity
  8
寸法
 62
     0
 48
50.0
370
    -2
100
AcDbLine
 10
4508.599999999998
 20
7486.352470292189
 30
0.0
 11
3593.721909610672
 21
7486.352470292189
 31
0.0
  0
LINE
  5
28ADA
330
285E9
100
AcDbEntity
  8
寸法
 62
     0
 48
50.0
370
    -2
100
AcDbLine
 10
4508.599999999998
 20
6106.35247029219
 30
0.0
 11
3593.721909610672
 21
6106.35247029219
 31
0.0
  0
LINE
  5
28ADB
330
285E9
100
AcDbEntity
  8
寸法
 62
     0
 48
50.0
370
    -2
100
AcDbLine
 10
3653.721909610673
 20
7486.352470292189
 30
0.0
 11
3653.721909610672
 21
6106.35247029219
 31
0.0
  0
INSERT
  5
28ADC
330
285E9
100
AcDbEntity
  8
寸法
 62
     0
 48
50.0
370
    -2
100
AcDbBlockReference
  2
_DOTSMALL
 10
3653.721909610673
 20
7486.352470292189
 30
0.0
 41
100.0
 42
100.0
 43
100.0
 50
90.0
  0
INSERT
  5
28ADD
330
285E9
100
AcDbEntity
  8
寸法
 62
     0
 48
50.0
370
    -2
100
AcDbBlockReference
  2
_DOTSMALL
 10
3653.721909610672
 20
6106.35247029219
 30
0.0
 41
100.0
 42
100.0
 43
100.0
 50
270.0
  0
MTEXT
  5
28ADE
330
285E9
100
AcDbEntity
  8
寸法
 62
     7
 48
50.0
100
AcDbMText
 10
3553.721909610671
 20
6833.85247029219
 30
0.0
 40
120.0
 41
0.0
 71
     5
 72
     1
  1
\A1;1380
  7
STYLE1
 11
0.0000000000000001
 21
1.0
 31
0.0
 73
     1
 44
1.0
1001
ACAD
1000
MTEXTBEGIN
1070
    73
1070
     1
1070
    44
1040
1.0
1070
    74
1070
     0
1000
MTEXTEND
  0
POINT
  5
28ADF
330
285E9
100
AcDbEntity
  8
DEFPOINTS
 62
     0
 48
50.0
100
AcDbPoint
 10
4528.599999999999
 20
7486.352470292189
 30
0.0
  0
POINT
  5
28AE0
330
285E9
100
AcDbEntity
  8
DEFPOINTS
 62
     0
 48
50.0
100
AcDbPoint
 10
4528.599999999999
 20
6106.35247029219
 30
0.0
  0
POINT
  5
28AE1
330
285E9
100
AcDbEntity
  8
DEFPOINTS
 62
     0
 48
50.0
100
AcDbPoint
 10
3653.721909610672
 20
6106.35247029219
 30
0.0
  0
ENDBLK
  5
285F4
330
285E9
100
AcDbEntity
  8
0
 48
50.0
100
AcDbBlockEnd
  0
BLOCK
  5
285FE
330
285F5
100
AcDbEntity
  8
0
 48
50.0
100
AcDbBlockBegin
  2
*D32
 70
     1
 10
0.0
 20
0.0
 30
0.0
  3
*D32
  1

  0
LINE
  5
292F1
330
285F5
100
AcDbEntity
  8
寸法
 62
     0
 48
50.0
370
    -2
100
AcDbLine
 10
6173.60000000001
 20
6903.35247029219
 30
0.0
 11
6173.60000000001
 21
8028.961286962438
 31
0.0
  0
LINE
  5
292F2
330
285F5
100
AcDbEntity
  8
寸法
 62
     0
 48
50.0
370
    -2
100
AcDbLine
 10
5353.600000000006
 20
6903.35247029219
 30
0.0
 11
5353.600000000006
 21
8028.961286962438
 31
0.0
  0
LINE
  5
292F3
330
285F5
100
AcDbEntity
  8
寸法
 62
     0
 48
50.0
370
    -2
100
AcDbLine
 10
6173.60000000001
 20
7968.961286962438
 30
0.0
 11
5353.600000000006
 21
7968.961286962438
 31
0.0
  0
INSERT
  5
292F4
330
285F5
100
AcDbEntity
  8
寸法
 62
     0
 48
50.0
370
    -2
100
AcDbBlockReference
  2
_DOTSMALL
 10
6173.60000000001
 20
7968.961286962438
 30
0.0
 41
100.0
 42
100.0
 43
100.0
  0
INSERT
  5
292F5
330
285F5
100
AcDbEntity
  8
寸法
 62
     0
 48
50.0
370
    -2
100
AcDbBlockReference
  2
_DOTSMALL
 10
5353.600000000006
 20
7968.961286962438
 30
0.0
 41
100.0
 42
100.0
 43
100.0
 50
180.0
  0
MTEXT
  5
292F6
330
285F5
100
AcDbEntity
  8
寸法
 62
     7
 48
50.0
100
AcDbMText
 10
5763.600000000008
 20
8068.973097986059
 30
0.0
 40
120.0
 41
0.0
 71
     5
 72
     1
  1
\A1;820
  7
STYLE1
 73
     1
 44
1.0
1001
ACAD
1000
MTEXTBEGIN
1070
    73
1070
     1
1070
    44
1040
1.0
1070
    74
1070
     0
1000
MTEXTEND
  0
POINT
  5
292F7
330
285F5
100
AcDbEntity
  8
DEFPOINTS
 62
     0
 48
50.0
100
AcDbPoint
 10
6173.60000000001
 20
6883.352470292189
 30
0.0
  0
POINT
  5
292F8
330
285F5
100
AcDbEntity
  8
DEFPOINTS
 62
     0
 48
50.0
100
AcDbPoint
 10
5353.600000000006
 20
6883.352470292189
 30
0.0
  0
POINT
  5
292F9
330
285F5
100
AcDbEntity
  8
DEFPOINTS
 62
     0
 48
50.0
100
AcDbPoint
 10
5353.600000000006
 20
7968.961286962438
 30
0.0
  0
ENDBLK
  5
285FF
330
285F5
100
AcDbEntity
  8
0
 48
50.0
100
AcDbBlockEnd
  0
BLOCK
  5
2860A
330
28600
100
AcDbEntity
  8
0
 48
50.0
100
AcDbBlockBegin
  2
*D33
 70
     1
 10
0.0
 20
0.0
 30
0.0
  3
*D33
  1

  0
LINE
  5
292E8
330
28600
100
AcDbEntity
  8
寸法
 62
     0
 48
50.0
370
    -2
100
AcDbLine
 10
5353.600000000006
 20
6903.35247029219
 30
0.0
 11
5353.600000000006
 21
8028.961286962438
 31
0.0
  0
LINE
  5
292E9
330
28600
100
AcDbEntity
  8
寸法
 62
     0
 48
50.0
370
    -2
100
AcDbLine
 10
4528.599999999999
 20
7506.352470292189
 30
0.0
 11
4528.599999999999
 21
8028.961286962438
 31
0.0
  0
LINE
  5
292EA
330
28600
100
AcDbEntity
  8
寸法
 62
     0
 48
50.0
370
    -2
100
AcDbLine
 10
5353.600000000006
 20
7968.961286962438
 30
0.0
 11
4528.599999999999
 21
7968.961286962438
 31
0.0
  0
INSERT
  5
292EB
330
28600
100
AcDbEntity
  8
寸法
 62
     0
 48
50.0
370
    -2
100
AcDbBlockReference
  2
_DOTSMALL
 10
5353.600000000006
 20
7968.961286962438
 30
0.0
 41
100.0
 42
100.0
 43
100.0
  0
INSERT
  5
292EC
330
28600
100
AcDbEntity
  8
寸法
 62
     0
 48
50.0
370
    -2
100
AcDbBlockReference
  2
_DOTSMALL
 10
4528.599999999999
 20
7968.961286962438
 30
0.0
 41
100.0
 42
100.0
 43
100.0
 50
180.0
  0
MTEXT
  5
292ED
330
28600
100
AcDbEntity
  8
寸法
 62
     7
 48
50.0
100
AcDbMText
 10
4941.100000000002
 20
8068.973097986059
 30
0.0
 40
120.0
 41
0.0
 71
     5
 72
     1
  1
\A1;825
  7
STYLE1
 73
     1
 44
1.0
1001
ACAD
1000
MTEXTBEGIN
1070
    73
1070
     1
1070
    44
1040
1.0
1070
    74
1070
     0
1000
MTEXTEND
  0
POINT
  5
292EE
330
28600
100
AcDbEntity
  8
DEFPOINTS
 62
     0
 48
50.0
100
AcDbPoint
 10
5353.600000000006
 20
6883.352470292189
 30
0.0
  0
POINT
  5
292EF
330
28600
100
AcDbEntity
  8
DEFPOINTS
 62
     0
 48
50.0
100
AcDbPoint
 10
4528.599999999999
 20
7486.352470292189
 30
0.0
  0
POINT
  5
292F0
330
28600
100
AcDbEntity
  8
DEFPOINTS
 62
     0
 48
50.0
100
AcDbPoint
 10
4528.599999999999
 20
7968.961286962438
 30
0.0
  0
ENDBLK
  5
2860B
330
28600
100
AcDbEntity
  8
0
 48
50.0
100
AcDbBlockEnd
  0
BLOCK
  5
28615
330
2860C
100
AcDbEntity
  8
0
 48
50.0
100
AcDbBlockBegin
  2
*D34
 70
     1
 10
0.0
 20
0.0
 30
0.0
  3
*D34
  1

  0
LINE
  5
292DF
330
2860C
100
AcDbEntity
  8
寸法
 62
     0
 48
50.0
370
    -2
100
AcDbLine
 10
6993.600000000009
 20
6903.35247029219
 30
0.0
 11
6993.600000000009
 21
8028.961286962438
 31
0.0
  0
LINE
  5
292E0
330
2860C
100
AcDbEntity
  8
寸法
 62
     0
 48
50.0
370
    -2
100
AcDbLine
 10
6173.60000000001
 20
6903.35247029219
 30
0.0
 11
6173.60000000001
 21
8028.961286962438
 31
0.0
  0
LINE
  5
292E1
330
2860C
100
AcDbEntity
  8
寸法
 62
     0
 48
50.0
370
    -2
100
AcDbLine
 10
6993.600000000009
 20
7968.961286962438
 30
0.0
 11
6173.60000000001
 21
7968.961286962438
 31
0.0
  0
INSERT
  5
292E2
330
2860C
100
AcDbEntity
  8
寸法
 62
     0
 48
50.0
370
    -2
100
AcDbBlockReference
  2
_DOTSMALL
 10
6993.600000000009
 20
7968.961286962438
 30
0.0
 41
100.0
 42
100.0
 43
100.0
  0
INSERT
  5
292E3
330
2860C
100
AcDbEntity
  8
寸法
 62
     0
 48
50.0
370
    -2
100
AcDbBlockReference
  2
_DOTSMALL
 10
6173.60000000001
 20
7968.961286962438
 30
0.0
 41
100.0
 42
100.0
 43
100.0
 50
180.0
  0
MTEXT
  5
292E4
330
2860C
100
AcDbEntity
  8
寸法
 62
     7
 48
50.0
100
AcDbMText
 10
6583.60000000001
 20
8068.973097986059
 30
0.0
 40
120.0
 41
0.0
 71
     5
 72
     1
  1
\A1;820
  7
STYLE1
 73
     1
 44
1.0
1001
ACAD
1000
MTEXTBEGIN
1070
    73
1070
     1
1070
    44
1040
1.0
1070
    74
1070
     0
1000
MTEXTEND
  0
POINT
  5
292E5
330
2860C
100
AcDbEntity
  8
DEFPOINTS
 62
     0
 48
50.0
100
AcDbPoint
 10
6993.600000000009
 20
6883.352470292189
 30
0.0
  0
POINT
  5
292E6
330
2860C
100
AcDbEntity
  8
DEFPOINTS
 62
     0
 48
50.0
100
AcDbPoint
 10
6173.60000000001
 20
6883.352470292189
 30
0.0
  0
POINT
  5
292E7
330
2860C
100
AcDbEntity
  8
DEFPOINTS
 62
     0
 48
50.0
100
AcDbPoint
 10
6173.60000000001
 20
7968.961286962438
 30
0.0
  0
ENDBLK
  5
28616
330
2860C
100
AcDbEntity
  8
0
 48
50.0
100
AcDbBlockEnd
  0
BLOCK
  5
28621
330
28617
100
AcDbEntity
  8
0
 48
50.0
100
AcDbBlockBegin
  2
*D35
 70
     1
 10
0.0
 20
0.0
 30
0.0
  3
*D35
  1

  0
LINE
  5
29303
330
28617
100
AcDbEntity
  8
寸法
 62
     0
 48
50.0
370
    -2
100
AcDbLine
 10
5283.600000000006
 20
6833.352470292189
 30
0.0
 11
4951.285990614302
 21
6833.352470292189
 31
0.0
  0
LINE
  5
29304
330
28617
100
AcDbEntity
  8
寸法
 62
     0
 48
50.0
370
    -2
100
AcDbLine
 10
5082.765475140899
 20
7486.352470292189
 30
0.0
 11
4951.285990614302
 21
7486.352470292189
 31
0.0
  0
LINE
  5
29305
330
28617
100
AcDbEntity
  8
寸法
 62
     0
 48
50.0
370
    -2
100
AcDbLine
 10
5011.285990614302
 20
6833.352470292189
 30
0.0
 11
5011.285990614302
 21
7486.352470292189
 31
0.0
  0
INSERT
  5
29306
330
28617
100
AcDbEntity
  8
寸法
 62
     0
 48
50.0
370
    -2
100
AcDbBlockReference
  2
_DOTSMALL
 10
5011.285990614302
 20
6833.352470292189
 30
0.0
 41
100.0
 42
100.0
 43
100.0
 50
270.0
  0
INSERT
  5
29307
330
28617
100
AcDbEntity
  8
寸法
 62
     0
 48
50.0
370
    -2
100
AcDbBlockReference
  2
_DOTSMALL
 10
5011.285990614302
 20
7486.352470292189
 30
0.0
 41
100.0
 42
100.0
 43
100.0
 50
90.0
  0
MTEXT
  5
29308
330
28617
100
AcDbEntity
  8
寸法
 62
     7
 48
50.0
100
AcDbMText
 10
4911.2859906143
 20
7104.571624631764
 30
0.0
 40
120.0
 41
0.0
 71
     5
 72
     1
  1
\A1;653
  7
STYLE1
 11
0.0000000000000001
 21
1.0
 31
0.0
 73
     1
 44
1.0
1001
ACAD
1000
MTEXTBEGIN
1070
    73
1070
     1
1070
    44
1040
1.0
1070
    74
1070
     0
1000
MTEXTEND
  0
POINT
  5
29309
330
28617
100
AcDbEntity
  8
DEFPOINTS
 62
     0
 48
50.0
100
AcDbPoint
 10
5303.600000000006
 20
6833.352470292189
 30
0.0
  0
POINT
  5
2930A
330
28617
100
AcDbEntity
  8
DEFPOINTS
 62
     0
 48
50.0
100
AcDbPoint
 10
5102.765475140898
 20
7486.352470292189
 30
0.0
  0
POINT
  5
2930B
330
28617
100
AcDbEntity
  8
DEFPOINTS
 62
     0
 48
50.0
100
AcDbPoint
 10
5011.285990614302
 20
7486.352470292189
 30
0.0
  0
ENDBLK
  5
28622
330
28617
100
AcDbEntity
  8
0
 48
50.0
100
AcDbBlockEnd
  0
BLOCK
  5
2862D
330
28623
100
AcDbEntity
  8
0
 48
50.0
100
AcDbBlockBegin
  2
*D36
 70
     1
 10
0.0
 20
0.0
 30
0.0
  3
*D36
  1

  0
LINE
  5
292CD
330
28623
100
AcDbEntity
  8
寸法
 62
     0
 48
50.0
370
    -2
100
AcDbLine
 10
5082.765475140899
 20
6106.3524702922
 30
0.0
 11
4951.285990614299
 21
6106.3524702922
 31
0.0
  0
LINE
  5
292CE
330
28623
100
AcDbEntity
  8
寸法
 62
     0
 48
50.0
370
    -2
100
AcDbLine
 10
5283.600000000006
 20
6833.352470292189
 30
0.0
 11
4951.285990614301
 21
6833.352470292189
 31
0.0
  0
LINE
  5
292CF
330
28623
100
AcDbEntity
  8
寸法
 62
     0
 48
50.0
370
    -2
100
AcDbLine
 10
5011.285990614299
 20
6106.3524702922
 30
0.0
 11
5011.2859906143
 21
6833.352470292189
 31
0.0
  0
INSERT
  5
292D0
330
28623
100
AcDbEntity
  8
寸法
 62
     0
 48
50.0
370
    -2
100
AcDbBlockReference
  2
_DOTSMALL
 10
5011.285990614299
 20
6106.3524702922
 30
0.0
 41
100.0
 42
100.0
 43
100.0
 50
270.0
  0
INSERT
  5
292D1
330
28623
100
AcDbEntity
  8
寸法
 62
     0
 48
50.0
370
    -2
100
AcDbBlockReference
  2
_DOTSMALL
 10
5011.2859906143
 20
6833.352470292189
 30
0.0
 41
100.0
 42
100.0
 43
100.0
 50
90.0
  0
MTEXT
  5
292D2
330
28623
100
AcDbEntity
  8
寸法
 62
     7
 48
50.0
100
AcDbMText
 10
4911.274179590677
 20
6548.35247029219
 30
0.0
 40
120.0
 41
0.0
 71
     5
 72
     1
  1
\A1;727
  7
STYLE1
 11
0.0000000000000001
 21
1.0
 31
0.0
 73
     1
 44
1.0
1001
ACAD
1000
MTEXTBEGIN
1070
    73
1070
     1
1070
    44
1040
1.0
1070
    74
1070
     0
1000
MTEXTEND
  0
POINT
  5
292D3
330
28623
100
AcDbEntity
  8
DEFPOINTS
 62
     0
 48
50.0
100
AcDbPoint
 10
5102.765475140898
 20
6106.3524702922
 30
0.0
  0
POINT
  5
292D4
330
28623
100
AcDbEntity
  8
DEFPOINTS
 62
     0
 48
50.0
100
AcDbPoint
 10
5303.600000000006
 20
6833.352470292189
 30
0.0
  0
POINT
  5
292D5
330
28623
100
AcDbEntity
  8
DEFPOINTS
 62
     0
 48
50.0
100
AcDbPoint
 10
5011.2859906143
 20
6833.352470292189
 30
0.0
  0
ENDBLK
  5
2862E
330
28623
100
AcDbEntity
  8
0
 48
50.0
100
AcDbBlockEnd
  0
BLOCK
  5
28645
330
2863B
100
AcDbEntity
  8
0
 48
50.0
100
AcDbBlockBegin
  2
*D37
 70
     1
 10
0.0
 20
0.0
 30
0.0
  3
*D37
  1

  0
LINE
  5
28AEB
330
2863B
100
AcDbEntity
  8
寸法
 62
     0
 48
50.0
370
    -2
100
AcDbLine
 10
4508.600000000006
 20
6106.352470292186
 30
0.0
 11
4355.512673767881
 21
6106.352470292186
 31
0.0
  0
LINE
  5
28AEC
330
2863B
100
AcDbEntity
  8
寸法
 62
     0
 48
50.0
370
    -2
100
AcDbLine
 10
4864.325326928811
 20
5386.352470292186
 30
0.0
 11
4355.512673767881
 21
5386.352470292186
 31
0.0
  0
LINE
  5
28AED
330
2863B
100
AcDbEntity
  8
寸法
 62
     0
 48
50.0
370
    -2
100
AcDbLine
 10
4415.512673767881
 20
6106.352470292186
 30
0.0
 11
4415.512673767881
 21
5386.352470292186
 31
0.0
  0
INSERT
  5
28AEE
330
2863B
100
AcDbEntity
  8
寸法
 62
     0
 48
50.0
370
    -2
100
AcDbBlockReference
  2
_DOTSMALL
 10
4415.512673767881
 20
6106.352470292186
 30
0.0
 41
100.0
 42
100.0
 43
100.0
 50
90.0
  0
INSERT
  5
28AEF
330
2863B
100
AcDbEntity
  8
寸法
 62
     0
 48
50.0
370
    -2
100
AcDbBlockReference
  2
_DOTSMALL
 10
4415.512673767881
 20
5386.352470292186
 30
0.0
 41
100.0
 42
100.0
 43
100.0
 50
270.0
  0
MTEXT
  5
28AF0
330
2863B
100
AcDbEntity
  8
寸法
 62
     7
 48
50.0
100
AcDbMText
 10
4315.500862744258
 20
5746.352470292187
 30
0.0
 40
120.0
 41
0.0
 71
     5
 72
     1
  1
\A1;扉の出720
  7
STYLE1
 11
0.0000000000000001
 21
1.0
 31
0.0
 73
     1
 44
1.0
1001
ACAD
1000
MTEXTBEGIN
1070
    73
1070
     1
1070
    44
1040
1.0
1070
    74
1070
     0
1000
MTEXTEND
  0
POINT
  5
28AF1
330
2863B
100
AcDbEntity
  8
DEFPOINTS
 62
     0
 48
50.0
100
AcDbPoint
 10
4528.600000000006
 20
6106.352470292186
 30
0.0
  0
POINT
  5
28AF2
330
2863B
100
AcDbEntity
  8
DEFPOINTS
 62
     0
 48
50.0
100
AcDbPoint
 10
4884.32532692881
 20
5386.352470292186
 30
0.0
  0
POINT
  5
28AF3
330
2863B
100
AcDbEntity
  8
DEFPOINTS
 62
     0
 48
50.0
100
AcDbPoint
 10
4415.512673767881
 20
5386.352470292186
 30
0.0
  0
ENDBLK
  5
28646
330
2863B
100
AcDbEntity
  8
0
 48
50.0
100
AcDbBlockEnd
  0
BLOCK
  5
28652
330
28647
100
AcDbEntity
  8
0
 48
50.0
100
AcDbBlockBegin
  2
*D38
 70
     1
 10
0.0
 20
0.0
 30
0.0
  3
*D38
  1

  0
LINE
  5
291E4
330
28647
100
AcDbEntity
  8
寸法
 62
     0
 48
50.0
370
    -2
100
AcDbLine
 10
4581.600000000006
 20
6304.352470292194
 30
0.0
 11
3845.665006330071
 21
6304.352470292194
 31
0.0
  0
LINE
  5
291E5
330
28647
100
AcDbEntity
  8
寸法
 62
     0
 48
50.0
370
    -2
100
AcDbLine
 10
4508.599999999998
 20
6106.35247029219
 30
0.0
 11
3845.665006330071
 21
6106.35247029219
 31
0.0
  0
LINE
  5
291E6
330
28647
100
AcDbEntity
  8
寸法
 62
     0
 48
50.0
370
    -2
100
AcDbLine
 10
3905.66500633007
 20
6304.352470292194
 30
0.0
 11
3905.66500633007
 21
6106.35247029219
 31
0.0
  0
LINE
  5
291E7
330
28647
100
AcDbEntity
  8
寸法
 62
     0
 48
50.0
370
    -2
100
AcDbLine
 10
3905.66500633007
 20
6106.35247029219
 30
0.0
 11
3905.66500633007
 21
5634.611861619941
 31
0.0
  0
INSERT
  5
291E8
330
28647
100
AcDbEntity
  8
寸法
 62
     0
 48
50.0
370
    -2
100
AcDbBlockReference
  2
_DOTSMALL
 10
3905.66500633007
 20
6304.352470292194
 30
0.0
 41
100.0
 42
100.0
 43
100.0
 50
90.0
  0
INSERT
  5
291E9
330
28647
100
AcDbEntity
  8
寸法
 62
     0
 48
50.0
370
    -2
100
AcDbBlockReference
  2
_DOTSMALL
 10
3905.66500633007
 20
6106.35247029219
 30
0.0
 41
100.0
 42
100.0
 43
100.0
 50
270.0
  0
MTEXT
  5
291EA
330
28647
100
AcDbEntity
  8
寸法
 62
     7
 48
50.0
100
AcDbMText
 10
3805.66500633007
 20
5770.821521449597
 30
0.0
 40
120.0
 41
0.0
 71
     5
 72
     1
  1
\A1;198
  7
STYLE1
 11
0.0000000000000001
 21
1.0
 31
0.0
 73
     1
 44
1.0
1001
ACAD
1000
MTEXTBEGIN
1070
    73
1070
     1
1070
    44
1040
1.0
1070
    74
1070
     0
1000
MTEXTEND
  0
POINT
  5
291EB
330
28647
100
AcDbEntity
  8
DEFPOINTS
 62
     0
 48
50.0
100
AcDbPoint
 10
4601.600000000006
 20
6304.352470292194
 30
0.0
  0
POINT
  5
291EC
330
28647
100
AcDbEntity
  8
DEFPOINTS
 62
     0
 48
50.0
100
AcDbPoint
 10
4528.599999999999
 20
6106.35247029219
 30
0.0
  0
POINT
  5
291ED
330
28647
100
AcDbEntity
  8
DEFPOINTS
 62
     0
 48
50.0
100
AcDbPoint
 10
3905.66500633007
 20
6106.35247029219
 30
0.0
  0
ENDBLK
  5
28653
330
28647
100
AcDbEntity
  8
0
 48
50.0
100
AcDbBlockEnd
  0
BLOCK
  5
2901F
330
29014
100
AcDbEntity
  8
0
 48
50.0
100
AcDbBlockBegin
  2
*D39
 70
     1
 10
0.0
 20
0.0
 30
0.0
  3
*D39
  1

  0
LINE
  5
29668
330
29014
100
AcDbEntity
  8
寸法
 62
     0
 48
50.0
370
    -2
100
AcDbLine
 10
11918.6
 20
7185.508261603669
 30
0.0
 11
11918.6
 21
7128.514997564836
 31
0.0
  0
LINE
  5
29669
330
29014
100
AcDbEntity
  8
寸法
 62
     0
 48
50.0
370
    -2
100
AcDbLine
 10
11798.6
 20
7208.514997564837
 30
0.0
 11
11798.6
 21
7248.514997564837
 31
0.0
  0
LINE
  5
2966A
330
29014
100
AcDbEntity
  8
寸法
 62
     0
 48
50.0
370
    -2
100
AcDbLine
 10
11798.6
 20
7188.514997564836
 30
0.0
 11
11918.6
 21
7188.514997564836
 31
0.0
  0
LINE
  5
2966B
330
29014
100
AcDbEntity
  8
寸法
 62
     0
 48
50.0
370
    -2
100
AcDbLine
 10
11918.6
 20
7188.514997564836
 30
0.0
 11
12324.7062992126
 21
7188.514997564836
 31
0.0
  0
INSERT
  5
2966C
330
29014
100
AcDbEntity
  8
寸法
 62
     0
 48
50.0
370
    -2
100
AcDbBlockReference
  2
_DOTSMALL
 10
11798.6
 20
7188.514997564836
 30
0.0
 41
100.0
 42
100.0
 43
100.0
 50
180.0
  0
INSERT
  5
2966D
330
29014
100
AcDbEntity
  8
寸法
 62
     0
 48
50.0
370
    -2
100
AcDbBlockReference
  2
_DOTSMALL
 10
11918.6
 20
7188.514997564836
 30
0.0
 41
100.0
 42
100.0
 43
100.0
  0
MTEXT
  5
2966E
330
29014
100
AcDbEntity
  8
寸法
 62
     7
 48
50.0
100
AcDbMText
 10
12188.65905511812
 20
7288.526808588459
 30
0.0
 40
120.0
 41
0.0
 71
     5
 72
     1
  1
\A1;120
  7
STYLE1
 73
     1
 44
1.0
1001
ACAD
1000
MTEXTBEGIN
1070
    73
1070
     1
1070
    44
1040
1.0
1070
    74
1070
     0
1000
MTEXTEND
  0
POINT
  5
2966F
330
29014
100
AcDbEntity
  8
DEFPOINTS
 62
     0
 48
50.0
100
AcDbPoint
 10
11918.6
 20
7205.508261603668
 30
0.0
  0
POINT
  5
29670
330
29014
100
AcDbEntity
  8
DEFPOINTS
 62
     0
 48
50.0
100
AcDbPoint
 10
11798.6
 20
7188.514997564836
 30
0.0
  0
POINT
  5
29671
330
29014
100
AcDbEntity
  8
DEFPOINTS
 62
     0
 48
50.0
100
AcDbPoint
 10
11798.6
 20
7188.514997564836
 30
0.0
  0
ENDBLK
  5
29020
330
29014
100
AcDbEntity
  8
0
 48
50.0
100
AcDbBlockEnd
  0
BLOCK
  5
2902C
330
29021
100
AcDbEntity
  8
0
 48
50.0
100
AcDbBlockBegin
  2
*D40
 70
     1
 10
0.0
 20
0.0
 30
0.0
  3
*D40
  1

  0
LINE
  5
29193
330
29021
100
AcDbEntity
  8
寸法
 62
     0
 48
50.0
370
    -2
100
AcDbLine
 10
11404.53475000041
 20
7486.352470292186
 30
0.0
 11
11285.46950000081
 21
7486.352470292186
 31
0.0
  0
LINE
  5
29194
330
29021
100
AcDbEntity
  8
寸法
 62
     0
 48
50.0
370
    -2
100
AcDbLine
 10
11404.53475000041
 20
7286.352470292192
 30
0.0
 11
11285.46950000081
 21
7286.352470292192
 31
0.0
  0
LINE
  5
29195
330
29021
100
AcDbEntity
  8
寸法
 62
     0
 48
50.0
370
    -2
100
AcDbLine
 10
11345.46950000081
 20
7286.352470292192
 30
0.0
 11
11345.46950000081
 21
7486.352470292186
 31
0.0
  0
LINE
  5
29196
330
29021
100
AcDbEntity
  8
寸法
 62
     0
 48
50.0
370
    -2
100
AcDbLine
 10
11345.46950000081
 20
7486.352470292186
 30
0.0
 11
11345.46950000081
 21
7922.886919111083
 31
0.0
  0
INSERT
  5
29197
330
29021
100
AcDbEntity
  8
寸法
 62
     0
 48
50.0
370
    -2
100
AcDbBlockReference
  2
_DOTSMALL
 10
11345.46950000081
 20
7286.352470292192
 30
0.0
 41
100.0
 42
100.0
 43
100.0
 50
270.0
  0
INSERT
  5
29198
330
29021
100
AcDbEntity
  8
寸法
 62
     0
 48
50.0
370
    -2
100
AcDbBlockReference
  2
_DOTSMALL
 10
11345.46950000081
 20
7486.352470292186
 30
0.0
 41
100.0
 42
100.0
 43
100.0
 50
90.0
  0
MTEXT
  5
29199
330
29021
100
AcDbEntity
  8
寸法
 62
     7
 48
50.0
100
AcDbMText
 10
11245.45768897719
 20
7773.316052969352
 30
0.0
 40
120.0
 41
0.0
 71
     5
 72
     1
  1
\A1;200
  7
STYLE1
 11
0.0000000000000001
 21
1.0
 31
0.0
 73
     1
 44
1.0
1001
ACAD
1000
MTEXTBEGIN
1070
    73
1070
     1
1070
    44
1040
1.0
1070
    74
1070
     0
1000
MTEXTEND
  0
POINT
  5
2919A
330
29021
100
AcDbEntity
  8
DEFPOINTS
 62
     0
 48
50.0
100
AcDbPoint
 10
11424.53475000041
 20
7486.352470292186
 30
0.0
  0
POINT
  5
2919B
330
29021
100
AcDbEntity
  8
DEFPOINTS
 62
     0
 48
50.0
100
AcDbPoint
 10
11424.53475000041
 20
7286.352470292192
 30
0.0
  0
POINT
  5
2919C
330
29021
100
AcDbEntity
  8
DEFPOINTS
 62
     0
 48
50.0
100
AcDbPoint
 10
11345.46950000081
 20
7286.352470292192
 30
0.0
  0
ENDBLK
  5
2902D
330
29021
100
AcDbEntity
  8
0
 48
50.0
100
AcDbBlockEnd
  0
BLOCK
  5
29039
330
2902E
100
AcDbEntity
  8
0
 48
50.0
100
AcDbBlockBegin
  2
*D41
 70
     1
 10
0.0
 20
0.0
 30
0.0
  3
*D41
  1

  0
LINE
  5
29282
330
2902E
100
AcDbEntity
  8
寸法
 62
     0
 48
50.0
370
    -2
100
AcDbLine
 10
11412.57322577334
 20
6386.352470292217
 30
0.0
 11
11285.46950000081
 21
6386.352470292217
 31
0.0
  0
LINE
  5
29283
330
2902E
100
AcDbEntity
  8
寸法
 62
     0
 48
50.0
370
    -2
100
AcDbLine
 10
11404.53475000041
 20
6106.352470292216
 30
0.0
 11
11285.46950000081
 21
6106.352470292216
 31
0.0
  0
LINE
  5
29284
330
2902E
100
AcDbEntity
  8
寸法
 62
     0
 48
50.0
370
    -2
100
AcDbLine
 10
11345.46950000081
 20
6386.352470292217
 30
0.0
 11
11345.46950000081
 21
6106.352470292216
 31
0.0
  0
LINE
  5
29285
330
2902E
100
AcDbEntity
  8
寸法
 62
     0
 48
50.0
370
    -2
100
AcDbLine
 10
11345.46950000081
 20
6106.352470292216
 30
0.0
 11
11345.46950000081
 21
5669.818021473303
 31
0.0
  0
INSERT
  5
29286
330
2902E
100
AcDbEntity
  8
寸法
 62
     0
 48
50.0
370
    -2
100
AcDbBlockReference
  2
_DOTSMALL
 10
11345.46950000081
 20
6386.352470292217
 30
0.0
 41
100.0
 42
100.0
 43
100.0
 50
90.0
  0
INSERT
  5
29287
330
2902E
100
AcDbEntity
  8
寸法
 62
     0
 48
50.0
370
    -2
100
AcDbBlockReference
  2
_DOTSMALL
 10
11345.46950000081
 20
6106.352470292216
 30
0.0
 41
100.0
 42
100.0
 43
100.0
 50
270.0
  0
MTEXT
  5
29288
330
2902E
100
AcDbEntity
  8
寸法
 62
     7
 48
50.0
100
AcDbMText
 10
11245.45768897719
 20
5819.388887615037
 30
0.0
 40
120.0
 41
0.0
 71
     5
 72
     1
  1
\A1;280
  7
STYLE1
 11
0.0000000000000001
 21
1.0
 31
0.0
 73
     1
 44
1.0
1001
ACAD
1000
MTEXTBEGIN
1070
    73
1070
     1
1070
    44
1040
1.0
1070
    74
1070
     0
1000
MTEXTEND
  0
POINT
  5
29289
330
2902E
100
AcDbEntity
  8
DEFPOINTS
 62
     0
 48
50.0
100
AcDbPoint
 10
11432.57322577334
 20
6386.352470292217
 30
0.0
  0
POINT
  5
2928A
330
2902E
100
AcDbEntity
  8
DEFPOINTS
 62
     0
 48
50.0
100
AcDbPoint
 10
11424.53475000041
 20
6106.352470292216
 30
0.0
  0
POINT
  5
2928B
330
2902E
100
AcDbEntity
  8
DEFPOINTS
 62
     0
 48
50.0
100
AcDbPoint
 10
11345.46950000081
 20
6106.352470292216
 30
0.0
  0
ENDBLK
  5
2903A
330
2902E
100
AcDbEntity
  8
0
 48
50.0
100
AcDbBlockEnd
  0
BLOCK
  5
29047
330
2903B
100
AcDbEntity
  8
0
 48
50.0
100
AcDbBlockBegin
  2
*D42
 70
     1
 10
0.0
 20
0.0
 30
0.0
  3
*D42
  1

  0
LINE
  5
291BD
330
2903B
100
AcDbEntity
  8
寸法
 62
     0
 48
50.0
370
    -2
100
AcDbLine
 10
4508.6
 20
6106.35247029219
 30
0.0
 11
3593.721909610675
 21
6106.35247029219
 31
0.0
  0
LINE
  5
291BE
330
2903B
100
AcDbEntity
  8
寸法
 62
     0
 48
50.0
370
    -2
100
AcDbLine
 10
3885.665006330074
 20
6051.35247029223
 30
0.0
 11
3593.721909610675
 21
6051.35247029223
 31
0.0
  0
LINE
  5
291BF
330
2903B
100
AcDbEntity
  8
寸法
 62
     0
 48
50.0
370
    -2
100
AcDbLine
 10
3653.721909610675
 20
6106.35247029219
 30
0.0
 11
3653.721909610675
 21
6206.352470292189
 31
0.0
  0
LINE
  5
291C0
330
2903B
100
AcDbEntity
  8
寸法
 62
     0
 48
50.0
370
    -2
100
AcDbLine
 10
3653.721909610675
 20
6051.35247029223
 30
0.0
 11
3653.721909610675
 21
5951.35247029223
 31
0.0
  0
LINE
  5
291C1
330
2903B
100
AcDbEntity
  8
寸法
 62
     0
 48
50.0
370
    -2
100
AcDbLine
 10
3653.721909610675
 20
6106.35247029219
 30
0.0
 11
3653.721909610675
 21
6051.35247029223
 31
0.0
  0
INSERT
  5
291C2
330
2903B
100
AcDbEntity
  8
寸法
 62
     0
 48
50.0
370
    -2
100
AcDbBlockReference
  2
_DOTSMALL
 10
3653.721909610675
 20
6106.35247029219
 30
0.0
 41
100.0
 42
100.0
 43
100.0
 50
270.0
  0
INSERT
  5
291C3
330
2903B
100
AcDbEntity
  8
寸法
 62
     0
 48
50.0
370
    -2
100
AcDbBlockReference
  2
_DOTSMALL
 10
3653.721909610675
 20
6051.35247029223
 30
0.0
 41
100.0
 42
100.0
 43
100.0
 50
90.0
  0
MTEXT
  5
291C4
330
2903B
100
AcDbEntity
  8
寸法
 62
     7
 48
50.0
100
AcDbMText
 10
3553.721909610674
 20
6078.852470292211
 30
0.0
 40
120.0
 41
0.0
 71
     5
 72
     1
  1
\A1;b
  7
STYLE1
 11
0.0000000000000001
 21
1.0
 31
0.0
 73
     1
 44
1.0
1001
ACAD
1000
MTEXTBEGIN
1070
    73
1070
     1
1070
    44
1040
1.0
1070
    74
1070
     0
1000
MTEXTEND
  0
POINT
  5
291C5
330
2903B
100
AcDbEntity
  8
DEFPOINTS
 62
     0
 48
50.0
100
AcDbPoint
 10
4528.599999999999
 20
6106.35247029219
 30
0.0
  0
POINT
  5
291C6
330
2903B
100
AcDbEntity
  8
DEFPOINTS
 62
     0
 48
50.0
100
AcDbPoint
 10
3905.665006330073
 20
6051.35247029223
 30
0.0
  0
POINT
  5
291C7
330
2903B
100
AcDbEntity
  8
DEFPOINTS
 62
     0
 48
50.0
100
AcDbPoint
 10
3653.721909610675
 20
6051.35247029223
 30
0.0
  0
ENDBLK
  5
29048
330
2903B
100
AcDbEntity
  8
0
 48
50.0
100
AcDbBlockEnd
  0
BLOCK
  5
29055
330
29049
100
AcDbEntity
  8
0
 48
50.0
100
AcDbBlockBegin
  2
*D43
 70
     1
 10
0.0
 20
0.0
 30
0.0
  3
*D43
  1

  0
LINE
  5
291B2
330
29049
100
AcDbEntity
  8
寸法
 62
     0
 48
50.0
370
    -2
100
AcDbLine
 10
3885.665006330071
 20
7561.352470292224
 30
0.0
 11
3593.721909610675
 21
7561.352470292224
 31
0.0
  0
LINE
  5
291B3
330
29049
100
AcDbEntity
  8
寸法
 62
     0
 48
50.0
370
    -2
100
AcDbLine
 10
4508.6
 20
7486.352470292205
 30
0.0
 11
3593.721909610675
 21
7486.352470292205
 31
0.0
  0
LINE
  5
291B4
330
29049
100
AcDbEntity
  8
寸法
 62
     0
 48
50.0
370
    -2
100
AcDbLine
 10
3653.721909610675
 20
7561.352470292224
 30
0.0
 11
3653.721909610675
 21
7661.352470292223
 31
0.0
  0
LINE
  5
291B5
330
29049
100
AcDbEntity
  8
寸法
 62
     0
 48
50.0
370
    -2
100
AcDbLine
 10
3653.721909610675
 20
7486.352470292205
 30
0.0
 11
3653.721909610675
 21
7386.352470292205
 31
0.0
  0
LINE
  5
291B6
330
29049
100
AcDbEntity
  8
寸法
 62
     0
 48
50.0
370
    -2
100
AcDbLine
 10
3653.721909610675
 20
7561.352470292224
 30
0.0
 11
3653.721909610675
 21
7486.352470292205
 31
0.0
  0
INSERT
  5
291B7
330
29049
100
AcDbEntity
  8
寸法
 62
     0
 48
50.0
370
    -2
100
AcDbBlockReference
  2
_DOTSMALL
 10
3653.721909610675
 20
7561.352470292224
 30
0.0
 41
100.0
 42
100.0
 43
100.0
 50
270.0
  0
INSERT
  5
291B8
330
29049
100
AcDbEntity
  8
寸法
 62
     0
 48
50.0
370
    -2
100
AcDbBlockReference
  2
_DOTSMALL
 10
3653.721909610675
 20
7486.352470292205
 30
0.0
 41
100.0
 42
100.0
 43
100.0
 50
90.0
  0
MTEXT
  5
291B9
330
29049
100
AcDbEntity
  8
寸法
 62
     7
 48
50.0
100
AcDbMText
 10
3553.721909610673
 20
7523.852470292215
 30
0.0
 40
120.0
 41
0.0
 71
     5
 72
     1
  1
\A1;c
  7
STYLE1
 11
0.0000000000000001
 21
1.0
 31
0.0
 73
     1
 44
1.0
1001
ACAD
1000
MTEXTBEGIN
1070
    73
1070
     1
1070
    44
1040
1.0
1070
    74
1070
     0
1000
MTEXTEND
  0
POINT
  5
291BA
330
29049
100
AcDbEntity
  8
DEFPOINTS
 62
     0
 48
50.0
100
AcDbPoint
 10
3905.665006330071
 20
7561.352470292224
 30
0.0
  0
POINT
  5
291BB
330
29049
100
AcDbEntity
  8
DEFPOINTS
 62
     0
 48
50.0
100
AcDbPoint
 10
4528.599999999999
 20
7486.352470292205
 30
0.0
  0
POINT
  5
291BC
330
29049
100
AcDbEntity
  8
DEFPOINTS
 62
     0
 48
50.0
100
AcDbPoint
 10
3653.721909610675
 20
7486.352470292205
 30
0.0
  0
ENDBLK
  5
29056
330
29049
100
AcDbEntity
  8
0
 48
50.0
100
AcDbBlockEnd
  0
BLOCK
  5
29063
330
29057
100
AcDbEntity
  8
0
 48
50.0
100
AcDbBlockBegin
  2
*D44
 70
     1
 10
0.0
 20
0.0
 30
0.0
  3
*D44
  1

  0
LINE
  5
291A7
330
29057
100
AcDbEntity
  8
寸法
 62
     0
 48
50.0
370
    -2
100
AcDbLine
 10
4483.600000000004
 20
8232.618928386116
 30
0.0
 11
4483.600000000004
 21
8504.572792351126
 31
0.0
  0
LINE
  5
291A8
330
29057
100
AcDbEntity
  8
寸法
 62
     0
 48
50.0
370
    -2
100
AcDbLine
 10
4528.599999999999
 20
7506.352470292203
 30
0.0
 11
4528.599999999999
 21
8504.572792351126
 31
0.0
  0
LINE
  5
291A9
330
29057
100
AcDbEntity
  8
寸法
 62
     0
 48
50.0
370
    -2
100
AcDbLine
 10
4528.599999999999
 20
8444.572792351126
 30
0.0
 11
4628.6
 21
8444.572792351126
 31
0.0
  0
LINE
  5
291AA
330
29057
100
AcDbEntity
  8
寸法
 62
     0
 48
50.0
370
    -2
100
AcDbLine
 10
4483.600000000004
 20
8444.572792351126
 30
0.0
 11
4146.250757595082
 21
8444.572792351126
 31
0.0
  0
LINE
  5
291AB
330
29057
100
AcDbEntity
  8
寸法
 62
     0
 48
50.0
370
    -2
100
AcDbLine
 10
4528.599999999999
 20
8444.572792351126
 30
0.0
 11
4483.600000000004
 21
8444.572792351126
 31
0.0
  0
INSERT
  5
291AC
330
29057
100
AcDbEntity
  8
寸法
 62
     0
 48
50.0
370
    -2
100
AcDbBlockReference
  2
_DOTSMALL
 10
4528.599999999999
 20
8444.572792351126
 30
0.0
 41
100.0
 42
100.0
 43
100.0
 50
180.0
  0
INSERT
  5
291AD
330
29057
100
AcDbEntity
  8
寸法
 62
     0
 48
50.0
370
    -2
100
AcDbBlockReference
  2
_DOTSMALL
 10
4483.600000000004
 20
8444.572792351126
 30
0.0
 41
100.0
 42
100.0
 43
100.0
  0
MTEXT
  5
291AE
330
29057
100
AcDbEntity
  8
寸法
 62
     7
 48
50.0
100
AcDbMText
 10
4212.425378797541
 20
8544.572792351125
 30
0.0
 40
120.0
 41
0.0
 71
     5
 72
     1
  1
\A1;a
  7
STYLE1
 73
     1
 44
1.0
1001
ACAD
1000
MTEXTBEGIN
1070
    73
1070
     1
1070
    44
1040
1.0
1070
    74
1070
     0
1000
MTEXTEND
  0
POINT
  5
291AF
330
29057
100
AcDbEntity
  8
DEFPOINTS
 62
     0
 48
50.0
100
AcDbPoint
 10
4483.600000000004
 20
8212.618928386117
 30
0.0
  0
POINT
  5
291B0
330
29057
100
AcDbEntity
  8
DEFPOINTS
 62
     0
 48
50.0
100
AcDbPoint
 10
4528.599999999999
 20
7486.352470292205
 30
0.0
  0
POINT
  5
291B1
330
29057
100
AcDbEntity
  8
DEFPOINTS
 62
     0
 48
50.0
100
AcDbPoint
 10
4528.599999999999
 20
8444.572792351126
 30
0.0
  0
ENDBLK
  5
29064
330
29057
100
AcDbEntity
  8
0
 48
50.0
100
AcDbBlockEnd
  0
BLOCK
  5
29071
330
29065
100
AcDbEntity
  8
0
 48
50.0
100
AcDbBlockBegin
  2
*D45
 70
     1
 10
0.0
 20
0.0
 30
0.0
  3
*D45
  1

  0
LINE
  5
29188
330
29065
100
AcDbEntity
  8
寸法
 62
     0
 48
50.0
370
    -2
100
AcDbLine
 10
11918.6
 20
7506.352470292189
 30
0.0
 11
11918.6
 21
8504.57279235111
 31
0.0
  0
LINE
  5
29189
330
29065
100
AcDbEntity
  8
寸法
 62
     0
 48
50.0
370
    -2
100
AcDbLine
 10
11963.6
 20
8232.6189283861
 30
0.0
 11
11963.6
 21
8504.57279235111
 31
0.0
  0
LINE
  5
2918A
330
29065
100
AcDbEntity
  8
寸法
 62
     0
 48
50.0
370
    -2
100
AcDbLine
 10
11918.6
 20
8444.572792351111
 30
0.0
 11
11818.6
 21
8444.572792351111
 31
0.0
  0
LINE
  5
2918B
330
29065
100
AcDbEntity
  8
寸法
 62
     0
 48
50.0
370
    -2
100
AcDbLine
 10
11963.6
 20
8444.572792351111
 30
0.0
 11
12300.94924240492
 21
8444.572792351111
 31
0.0
  0
LINE
  5
2918C
330
29065
100
AcDbEntity
  8
寸法
 62
     0
 48
50.0
370
    -2
100
AcDbLine
 10
11918.6
 20
8444.572792351111
 30
0.0
 11
11963.6
 21
8444.572792351111
 31
0.0
  0
INSERT
  5
2918D
330
29065
100
AcDbEntity
  8
寸法
 62
     0
 48
50.0
370
    -2
100
AcDbBlockReference
  2
_DOTSMALL
 10
11918.6
 20
8444.572792351111
 30
0.0
 41
100.0
 42
100.0
 43
100.0
  0
INSERT
  5
2918E
330
29065
100
AcDbEntity
  8
寸法
 62
     0
 48
50.0
370
    -2
100
AcDbBlockReference
  2
_DOTSMALL
 10
11963.6
 20
8444.572792351111
 30
0.0
 41
100.0
 42
100.0
 43
100.0
 50
180.0
  0
MTEXT
  5
2918F
330
29065
100
AcDbEntity
  8
寸法
 62
     7
 48
50.0
100
AcDbMText
 10
12234.77462120246
 20
8544.572792351111
 30
0.0
 40
120.0
 41
0.0
 71
     5
 72
     1
  1
\A1;a
  7
STYLE1
 73
     1
 44
1.0
1001
ACAD
1000
MTEXTBEGIN
1070
    73
1070
     1
1070
    44
1040
1.0
1070
    74
1070
     0
1000
MTEXTEND
  0
POINT
  5
29190
330
29065
100
AcDbEntity
  8
DEFPOINTS
 62
     0
 48
50.0
100
AcDbPoint
 10
11918.6
 20
7486.352470292189
 30
0.0
  0
POINT
  5
29191
330
29065
100
AcDbEntity
  8
DEFPOINTS
 62
     0
 48
50.0
100
AcDbPoint
 10
11963.6
 20
8212.618928386101
 30
0.0
  0
POINT
  5
29192
330
29065
100
AcDbEntity
  8
DEFPOINTS
 62
     0
 48
50.0
100
AcDbPoint
 10
11963.6
 20
8444.572792351111
 30
0.0
  0
ENDBLK
  5
29072
330
29065
100
AcDbEntity
  8
0
 48
50.0
100
AcDbBlockEnd
  0
BLOCK
  5
295DC
330
295D2
100
AcDbEntity
  8
0
 48
50.0
100
AcDbBlockBegin
  2
*D46
 70
     1
 10
0.0
 20
0.0
 30
0.0
  3
*D46
  1

  0
LINE
  5
2961C
330
295D2
100
AcDbEntity
  8
寸法
 62
     0
 48
50.0
370
    -2
100
AcDbLine
 10
8368.981377219473
 20
1869.359215660095
 30
0.0
 11
8910.849976988316
 21
1869.359215660095
 31
0.0
  0
LINE
  5
2961D
330
295D2
100
AcDbEntity
  8
寸法
 62
     0
 48
50.0
370
    -2
100
AcDbLine
 10
8368.981377219473
 20
1545.359215660094
 30
0.0
 11
8910.849976988316
 21
1545.359215660094
 31
0.0
  0
LINE
  5
2961E
330
295D2
100
AcDbEntity
  8
寸法
 62
     0
 48
50.0
370
    -2
100
AcDbLine
 10
8850.849976988317
 20
1869.359215660095
 30
0.0
 11
8850.849976988317
 21
1545.359215660094
 31
0.0
  0
INSERT
  5
2961F
330
295D2
100
AcDbEntity
  8
寸法
 62
     0
 48
50.0
370
    -2
100
AcDbBlockReference
  2
_DOTSMALL
 10
8850.849976988317
 20
1869.359215660095
 30
0.0
 41
100.0
 42
100.0
 43
100.0
 50
90.0
  0
INSERT
  5
29620
330
295D2
100
AcDbEntity
  8
寸法
 62
     0
 48
50.0
370
    -2
100
AcDbBlockReference
  2
_DOTSMALL
 10
8850.849976988317
 20
1545.359215660094
 30
0.0
 41
100.0
 42
100.0
 43
100.0
 50
270.0
  0
MTEXT
  5
29621
330
295D2
100
AcDbEntity
  8
寸法
 62
     7
 48
50.0
100
AcDbMText
 10
8750.849976988318
 20
1707.359215660096
 30
0.0
 40
120.0
 41
0.0
 71
     5
 72
     1
  1
\A1;180
  7
STYLE1
 11
0.0000000000000001
 21
1.0
 31
0.0
 73
     1
 44
1.0
1001
ACAD
1000
MTEXTBEGIN
1070
    73
1070
     1
1070
    44
1040
1.0
1070
    74
1070
     0
1000
MTEXTEND
  0
POINT
  5
29622
330
295D2
100
AcDbEntity
  8
DEFPOINTS
 62
     0
 48
50.0
100
AcDbPoint
 10
8348.981377219471
 20
1869.359215660095
 30
0.0
  0
POINT
  5
29623
330
295D2
100
AcDbEntity
  8
DEFPOINTS
 62
     0
 48
50.0
100
AcDbPoint
 10
8348.981377219471
 20
1545.359215660094
 30
0.0
  0
POINT
  5
29624
330
295D2
100
AcDbEntity
  8
DEFPOINTS
 62
     0
 48
50.0
100
AcDbPoint
 10
8850.849976988317
 20
1545.359215660094
 30
0.0
  0
ENDBLK
  5
295DD
330
295D2
100
AcDbEntity
  8
0
 48
50.0
100
AcDbBlockEnd
  0
BLOCK
  5
295EA
330
295DE
100
AcDbEntity
  8
0
 48
50.0
100
AcDbBlockBegin
  2
*D47
 70
     1
 10
0.0
 20
0.0
 30
0.0
  3
*D47
  1

  0
LINE
  5
29625
330
295DE
100
AcDbEntity
  8
寸法
 62
     0
 48
50.0
370
    -2
100
AcDbLine
 10
8181.781377219474
 20
1922.119215660096
 30
0.0
 11
9186.904643107345
 21
1922.119215660096
 31
0.0
  0
LINE
  5
29626
330
295DE
100
AcDbEntity
  8
寸法
 62
     0
 48
50.0
370
    -2
100
AcDbLine
 10
8368.981377219473
 20
1869.359215660095
 30
0.0
 11
9186.904643107345
 21
1869.359215660095
 31
0.0
  0
LINE
  5
29627
330
295DE
100
AcDbEntity
  8
寸法
 62
     0
 48
50.0
370
    -2
100
AcDbLine
 10
9126.904643107343
 20
1922.119215660096
 30
0.0
 11
9126.904643107343
 21
2022.119215660096
 31
0.0
  0
LINE
  5
29628
330
295DE
100
AcDbEntity
  8
寸法
 62
     0
 48
50.0
370
    -2
100
AcDbLine
 10
9126.904643107343
 20
1869.359215660095
 30
0.0
 11
9126.904643107343
 21
1137.341408817128
 31
0.0
  0
LINE
  5
29629
330
295DE
100
AcDbEntity
  8
寸法
 62
     0
 48
50.0
370
    -2
100
AcDbLine
 10
9126.904643107343
 20
1922.119215660096
 30
0.0
 11
9126.904643107343
 21
1869.359215660095
 31
0.0
  0
INSERT
  5
2962A
330
295DE
100
AcDbEntity
  8
寸法
 62
     0
 48
50.0
370
    -2
100
AcDbBlockReference
  2
_DOTSMALL
 10
9126.904643107343
 20
1922.119215660096
 30
0.0
 41
100.0
 42
100.0
 43
100.0
 50
270.0
  0
INSERT
  5
2962B
330
295DE
100
AcDbEntity
  8
寸法
 62
     0
 48
50.0
370
    -2
100
AcDbBlockReference
  2
_DOTSMALL
 10
9126.904643107343
 20
1869.359215660095
 30
0.0
 41
100.0
 42
100.0
 43
100.0
 50
90.0
  0
MTEXT
  5
2962C
330
295DE
100
AcDbEntity
  8
寸法
 62
     7
 48
50.0
100
AcDbMText
 10
9026.892832083722
 20
1403.350312238613
 30
0.0
 40
120.0
 41
0.0
 71
     5
 72
     1
  1
\A1;20～25
  7
STYLE1
 11
0.0000000000000001
 21
1.0
 31
0.0
 73
     1
 44
1.0
1001
ACAD
1000
MTEXTBEGIN
1070
    73
1070
     1
1070
    44
1040
1.0
1070
    74
1070
     0
1000
MTEXTEND
  0
POINT
  5
2962D
330
295DE
100
AcDbEntity
  8
DEFPOINTS
 62
     0
 48
50.0
100
AcDbPoint
 10
8161.781377219474
 20
1922.119215660096
 30
0.0
  0
POINT
  5
2962E
330
295DE
100
AcDbEntity
  8
DEFPOINTS
 62
     0
 48
50.0
100
AcDbPoint
 10
8348.981377219471
 20
1869.359215660095
 30
0.0
  0
POINT
  5
2962F
330
295DE
100
AcDbEntity
  8
DEFPOINTS
 62
     0
 48
50.0
100
AcDbPoint
 10
9126.904643107343
 20
1869.359215660095
 30
0.0
  0
ENDBLK
  5
295EB
330
295DE
100
AcDbEntity
  8
0
 48
50.0
100
AcDbBlockEnd
  0
BLOCK
  5
295F6
330
295EC
100
AcDbEntity
  8
0
 48
50.0
100
AcDbBlockBegin
  2
*D48
 70
     1
 10
0.0
 20
0.0
 30
0.0
  3
*D48
  1

  0
LINE
  5
29630
330
295EC
100
AcDbEntity
  8
寸法
 62
     0
 48
50.0
370
    -2
100
AcDbLine
 10
6086.942064042279
 20
1325.359215660095
 30
0.0
 11
5904.521750309819
 21
1325.359215660095
 31
0.0
  0
LINE
  5
29631
330
295EC
100
AcDbEntity
  8
寸法
 62
     0
 48
50.0
370
    -2
100
AcDbLine
 10
6006.942064042283
 20
1085.359215660095
 30
0.0
 11
5904.521750309819
 21
1085.359215660095
 31
0.0
  0
LINE
  5
29632
330
295EC
100
AcDbEntity
  8
寸法
 62
     0
 48
50.0
370
    -2
100
AcDbLine
 10
5964.52175030982
 20
1325.359215660095
 30
0.0
 11
5964.52175030982
 21
1085.359215660095
 31
0.0
  0
INSERT
  5
29633
330
295EC
100
AcDbEntity
  8
寸法
 62
     0
 48
50.0
370
    -2
100
AcDbBlockReference
  2
_DOTSMALL
 10
5964.52175030982
 20
1325.359215660095
 30
0.0
 41
100.0
 42
100.0
 43
100.0
 50
90.0
  0
INSERT
  5
29634
330
295EC
100
AcDbEntity
  8
寸法
 62
     0
 48
50.0
370
    -2
100
AcDbBlockReference
  2
_DOTSMALL
 10
5964.52175030982
 20
1085.359215660095
 30
0.0
 41
100.0
 42
100.0
 43
100.0
 50
270.0
  0
MTEXT
  5
29635
330
295EC
100
AcDbEntity
  8
寸法
 62
     7
 48
50.0
100
AcDbMText
 10
5864.521750309819
 20
1205.359215660096
 30
0.0
 40
120.0
 41
0.0
 71
     5
 72
     1
  1
\A1;150
  7
STYLE1
 11
0.0000000000000001
 21
1.0
 31
0.0
 73
     1
 44
1.0
1001
ACAD
1000
MTEXTBEGIN
1070
    73
1070
     1
1070
    44
1040
1.0
1070
    74
1070
     0
1000
MTEXTEND
  0
POINT
  5
29636
330
295EC
100
AcDbEntity
  8
DEFPOINTS
 62
     0
 48
50.0
100
AcDbPoint
 10
6106.942064042279
 20
1325.359215660095
 30
0.0
  0
POINT
  5
29637
330
295EC
100
AcDbEntity
  8
DEFPOINTS
 62
     0
 48
50.0
100
AcDbPoint
 10
6026.942064042282
 20
1085.359215660095
 30
0.0
  0
POINT
  5
29638
330
295EC
100
AcDbEntity
  8
DEFPOINTS
 62
     0
 48
50.0
100
AcDbPoint
 10
5964.52175030982
 20
1085.359215660095
 30
0.0
  0
ENDBLK
  5
295F7
330
295EC
100
AcDbEntity
  8
0
 48
50.0
100
AcDbBlockEnd
  0
BLOCK
  5
29602
330
295F8
100
AcDbEntity
  8
0
 48
50.0
100
AcDbBlockBegin
  2
*D49
 70
     1
 10
0.0
 20
0.0
 30
0.0
  3
*D49
  1

  0
LINE
  5
29639
330
295F8
100
AcDbEntity
  8
寸法
 62
     0
 48
50.0
370
    -2
100
AcDbLine
 10
6214.942064042279
 20
1869.359215660095
 30
0.0
 11
5439.904825480539
 21
1869.359215660096
 31
0.0
  0
LINE
  5
2963A
330
295F8
100
AcDbEntity
  8
寸法
 62
     0
 48
50.0
370
    -2
100
AcDbLine
 10
6006.942064042283
 20
1085.359215660095
 30
0.0
 11
5439.904825480539
 21
1085.359215660095
 31
0.0
  0
LINE
  5
2963B
330
295F8
100
AcDbEntity
  8
寸法
 62
     0
 48
50.0
370
    -2
100
AcDbLine
 10
5499.904825480538
 20
1869.359215660096
 30
0.0
 11
5499.904825480538
 21
1085.359215660095
 31
0.0
  0
INSERT
  5
2963C
330
295F8
100
AcDbEntity
  8
寸法
 62
     0
 48
50.0
370
    -2
100
AcDbBlockReference
  2
_DOTSMALL
 10
5499.904825480538
 20
1869.359215660096
 30
0.0
 41
100.0
 42
100.0
 43
100.0
 50
90.0
  0
INSERT
  5
2963D
330
295F8
100
AcDbEntity
  8
寸法
 62
     0
 48
50.0
370
    -2
100
AcDbBlockReference
  2
_DOTSMALL
 10
5499.904825480538
 20
1085.359215660095
 30
0.0
 41
100.0
 42
100.0
 43
100.0
 50
270.0
  0
MTEXT
  5
2963E
330
295F8
100
AcDbEntity
  8
寸法
 62
     7
 48
50.0
100
AcDbMText
 10
5399.904825480539
 20
1456.899365316096
 30
0.0
 40
120.0
 41
0.0
 71
     5
 72
     1
  1
\A1;540
  7
STYLE1
 11
0.0000000000000001
 21
1.0
 31
0.0
 73
     1
 44
1.0
1001
ACAD
1000
MTEXTBEGIN
1070
    73
1070
     1
1070
    44
1040
1.0
1070
    74
1070
     0
1000
MTEXTEND
  0
POINT
  5
2963F
330
295F8
100
AcDbEntity
  8
DEFPOINTS
 62
     0
 48
50.0
100
AcDbPoint
 10
6234.942064042279
 20
1869.359215660095
 30
0.0
  0
POINT
  5
29640
330
295F8
100
AcDbEntity
  8
DEFPOINTS
 62
     0
 48
50.0
100
AcDbPoint
 10
6026.942064042282
 20
1085.359215660095
 30
0.0
  0
POINT
  5
29641
330
295F8
100
AcDbEntity
  8
DEFPOINTS
 62
     0
 48
50.0
100
AcDbPoint
 10
5499.904825480538
 20
1085.359215660095
 30
0.0
  0
ENDBLK
  5
29603
330
295F8
100
AcDbEntity
  8
0
 48
50.0
100
AcDbBlockEnd
  0
BLOCK
  5
2960E
330
29604
100
AcDbEntity
  8
0
 48
50.0
100
AcDbBlockBegin
  2
*D50
 70
     1
 10
0.0
 20
0.0
 30
0.0
  3
*D50
  1

  0
LINE
  5
29642
330
29604
100
AcDbEntity
  8
寸法
 62
     0
 48
50.0
370
    -2
100
AcDbLine
 10
6106.942064042279
 20
937.3592156600953
 30
0.0
 11
6106.942064042279
 21
486.9295776549352
 31
0.0
  0
LINE
  5
29643
330
29604
100
AcDbEntity
  8
寸法
 62
     0
 48
50.0
370
    -2
100
AcDbLine
 10
6554.942064042278
 20
937.3592156600953
 30
0.0
 11
6554.942064042278
 21
486.9295776549352
 31
0.0
  0
LINE
  5
29644
330
29604
100
AcDbEntity
  8
寸法
 62
     0
 48
50.0
370
    -2
100
AcDbLine
 10
6106.942064042279
 20
546.9295776549351
 30
0.0
 11
6554.942064042278
 21
546.9295776549351
 31
0.0
  0
INSERT
  5
29645
330
29604
100
AcDbEntity
  8
寸法
 62
     0
 48
50.0
370
    -2
100
AcDbBlockReference
  2
_DOTSMALL
 10
6106.942064042279
 20
546.9295776549351
 30
0.0
 41
100.0
 42
100.0
 43
100.0
 50
180.0
  0
INSERT
  5
29646
330
29604
100
AcDbEntity
  8
寸法
 62
     0
 48
50.0
370
    -2
100
AcDbBlockReference
  2
_DOTSMALL
 10
6554.942064042278
 20
546.9295776549351
 30
0.0
 41
100.0
 42
100.0
 43
100.0
  0
MTEXT
  5
29647
330
29604
100
AcDbEntity
  8
寸法
 62
     7
 48
50.0
100
AcDbMText
 10
6310.845305364055
 20
646.9295776549351
 30
0.0
 40
120.0
 41
0.0
 71
     5
 72
     1
  1
\A1;300
  7
STYLE1
 73
     1
 44
1.0
1001
ACAD
1000
MTEXTBEGIN
1070
    73
1070
     1
1070
    44
1040
1.0
1070
    74
1070
     0
1000
MTEXTEND
  0
POINT
  5
29648
330
29604
100
AcDbEntity
  8
DEFPOINTS
 62
     0
 48
50.0
100
AcDbPoint
 10
6106.942064042279
 20
957.3592156600952
 30
0.0
  0
POINT
  5
29649
330
29604
100
AcDbEntity
  8
DEFPOINTS
 62
     0
 48
50.0
100
AcDbPoint
 10
6554.942064042278
 20
957.3592156600952
 30
0.0
  0
POINT
  5
2964A
330
29604
100
AcDbEntity
  8
DEFPOINTS
 62
     0
 48
50.0
100
AcDbPoint
 10
6554.942064042278
 20
546.9295776549351
 30
0.0
  0
ENDBLK
  5
2960F
330
29604
100
AcDbEntity
  8
0
 48
50.0
100
AcDbBlockEnd
  0
BLOCK
  5
2961A
330
29610
100
AcDbEntity
  8
0
 48
50.0
100
AcDbBlockBegin
  2
*D51
 70
     1
 10
0.0
 20
0.0
 30
0.0
  3
*D51
  1

  0
LINE
  5
2964B
330
29610
100
AcDbEntity
  8
寸法
 62
     0
 48
50.0
370
    -2
100
AcDbLine
 10
6426.942064042279
 20
1889.359215660095
 30
0.0
 11
6426.942064042279
 21
2349.027023576476
 31
0.0
  0
LINE
  5
2964C
330
29610
100
AcDbEntity
  8
寸法
 62
     0
 48
50.0
370
    -2
100
AcDbLine
 10
6234.942064042279
 20
1889.359215660095
 30
0.0
 11
6234.942064042279
 21
2349.027023576476
 31
0.0
  0
LINE
  5
2964D
330
29610
100
AcDbEntity
  8
寸法
 62
     0
 48
50.0
370
    -2
100
AcDbLine
 10
6426.942064042279
 20
2289.027023576476
 30
0.0
 11
6234.942064042279
 21
2289.027023576476
 31
0.0
  0
INSERT
  5
2964E
330
29610
100
AcDbEntity
  8
寸法
 62
     0
 48
50.0
370
    -2
100
AcDbBlockReference
  2
_DOTSMALL
 10
6426.942064042279
 20
2289.027023576476
 30
0.0
 41
100.0
 42
100.0
 43
100.0
  0
INSERT
  5
2964F
330
29610
100
AcDbEntity
  8
寸法
 62
     0
 48
50.0
370
    -2
100
AcDbBlockReference
  2
_DOTSMALL
 10
6234.942064042279
 20
2289.027023576476
 30
0.0
 41
100.0
 42
100.0
 43
100.0
 50
180.0
  0
MTEXT
  5
29650
330
29610
100
AcDbEntity
  8
寸法
 62
     7
 48
50.0
100
AcDbMText
 10
6330.942064042279
 20
2589.062456647342
 30
0.0
 40
120.0
 41
0.0
 71
     5
 72
     1
  1
\A1;120\P200\P280
  7
STYLE1
 73
     1
 44
1.0
1001
ACAD
1000
MTEXTBEGIN
1070
    73
1070
     1
1070
    44
1040
1.0
1070
    74
1070
     0
1000
MTEXTEND
  0
POINT
  5
29651
330
29610
100
AcDbEntity
  8
DEFPOINTS
 62
     0
 48
50.0
100
AcDbPoint
 10
6426.942064042279
 20
1869.359215660095
 30
0.0
  0
POINT
  5
29652
330
29610
100
AcDbEntity
  8
DEFPOINTS
 62
     0
 48
50.0
100
AcDbPoint
 10
6234.942064042279
 20
1869.359215660095
 30
0.0
  0
POINT
  5
29653
330
29610
100
AcDbEntity
  8
DEFPOINTS
 62
     0
 48
50.0
100
AcDbPoint
 10
6234.942064042279
 20
2289.027023576476
 30
0.0
  0
ENDBLK
  5
2961B
330
29610
100
AcDbEntity
  8
0
 48
50.0
100
AcDbBlockEnd
  0
ENDSEC
  0
SECTION
  2
ENTITIES
  0
MTEXT
  5
763F
330
747D
100
AcDbEntity
  8
0
100
AcDbMText
 10
302.846345836809
 20
280.1983726409901
 30
0.0
 40
3.5
 41
5.323721266742722
 71
     1
 72
     5
  1

  7
MSMINCHO
 73
     1
 44
1.0
1001
ACAD
1000
MTEXTBEGIN
1070
    73
1070
     1
1070
    44
1040
1.0
1070
    74
1070
     0
1000
MTEXTEND
  0
LINE
  5
10B57
330
747D
100
AcDbEntity
  8
補助
  6
PHANTOM
 62
   230
 48
50.0
100
AcDbLine
 10
139.9999999999995
 20
11409.6
 30
0.0
 11
16307.2
 21
11409.6
 31
0.0
  0
LINE
  5
10B59
330
747D
100
AcDbEntity
  8
仕様書枠
  6
Continuous
 48
50.0
100
AcDbLine
 10
13107.2
 20
1200.0
 30
0.0
 11
13107.2
 21
-0.0000000000000729
 31
0.0
  0
LINE
  5
10B5D
330
747D
100
AcDbEntity
  8
仕様書枠
 48
50.0
100
AcDbLine
 10
140.0
 20
0.0
 30
0.0
 11
16307.2
 21
-0.0000000000000909
 31
0.0
  0
LINE
  5
10B5E
330
747D
100
AcDbEntity
  8
補助
  6
PHANTOM
 62
   230
 48
50.0
100
AcDbLine
 10
16307.2
 20
11409.6
 30
0.0
 11
16307.2
 21
1200.0
 31
0.0
  0
LINE
  5
10B6C
330
747D
100
AcDbEntity
  8
仕様書枠
 48
50.0
100
AcDbLine
 10
13107.2
 20
1200.0
 30
0.0
 11
16307.2
 21
1200.0
 31
0.0
  0
TEXT
  5
10B73
330
747D
100
AcDbEntity
  8
文字
 62
     7
 48
50.0
100
AcDbText
 10
13162.9790565769
 20
895.0906074299405
 30
0.0
 40
200.0
  1
基 礎 図
  7
STYLE2
100
AcDbText
  0
LINE
  5
10B7B
330
747D
100
AcDbEntity
  8
仕様書枠
 48
50.0
100
AcDbLine
 10
13107.2
 20
800.0
 30
0.0
 11
14251.2
 21
800.0
 31
0.0
  0
LINE
  5
10B88
330
747D
100
AcDbEntity
  8
仕様書枠
  6
Continuous
 48
50.0
100
AcDbLine
 10
14251.2
 20
1200.0
 30
0.0
 11
14251.2
 21
800.0
 31
0.0
  0
LINE
  5
16462
330
747D
100
AcDbEntity
  8
仕様書枠
 48
50.0
100
AcDbLine
 10
16307.2
 20
1200.0
 30
0.0
 11
16307.2
 21
-0.0000000000000909
 31
0.0
  0
LINE
  5
1903B
330
747D
100
AcDbEntity
  8
補助
  6
PHANTOM
 62
   230
 48
50.0
100
AcDbLine
 10
140.0
 20
0.0
 30
0.0
 11
139.9999999999995
 21
11409.6
 31
0.0
  0
TEXT
  5
1C7A1
330
747D
100
AcDbEntity
  8
文字
 62
     7
 48
50.0
100
AcDbText
 10
13188.16259899338
 20
79.80631269190417
 30
0.0
 40
80.0
  1
※布基礎には換気口を設けてください。
  7
STYLE2
100
AcDbText
  0
TEXT
  5
1C7E7
330
747D
100
AcDbEntity
  8
文字
 62
     7
 48
50.0
100
AcDbText
 10
13188.16259899338
 20
246.7109242801889
 30
0.0
 40
80.0
  1
※寒冷地等は地域の実情に合わせた基礎にして下さい。
  7
STYLE2
100
AcDbText
  0
TEXT
  5
1C7EC
330
747D
100
AcDbEntity
  8
文字
 62
     7
 48
50.0
100
AcDbText
 10
14524.131837222
 20
1031.557706291229
 30
0.0
 40
100.0
  1
NO.08      <縮尺> S=1/40
  7
STYLE2
100
AcDbText
  0
TEXT
  5
1C7ED
330
747D
100
AcDbEntity
  8
文字
 62
     7
 48
50.0
100
AcDbText
 10
13201.43669998441
 20
477.2740661031257
 30
0.0
 40
160.0
  1
機種名
  7
STYLE2
100
AcDbText
  0
LINE
  5
1C7EF
330
747D
100
AcDbEntity
  8
文字
 62
     7
 48
50.0
100
AcDbLine
 10
13187.2
 20
400.0
 30
0.0
 11
16227.2
 21
400.0
 31
0.0
  0
TEXT
  5
271E7
330
747D
100
AcDbEntity
  8
部品1
100
AcDbText
 10
7020.398178799904
 20
5273.072859500072
 30
0.0
 40
135.0
  1
9連棟・12連棟・15連棟・18連棟
  7
STYLE2
100
AcDbText
  0
TEXT
  5
27754
330
747D
100
AcDbEntity
  8
文字
 62
     7
 48
50.0
100
AcDbText
 10
14271.39351435261
 20
483.8967129911416
 30
0.0
 40
160.0
  1
ＮＸＮ－１１ＤＬ-Ｎ
  7
STYLE2
100
AcDbText
  0
MTEXT
  5
27DA8
330
747D
100
AcDbEntity
  8
寸法
 62
     7
 48
50.0
100
AcDbMText
 10
7976.984919384904
 20
8065.789758569174
 30
0.0
 40
120.0
 41
0.0
 71
     5
 72
     1
  1
\A1;820
  7
STYLE1
 73
     1
 44
1.0
1001
ACAD
1000
MTEXTBEGIN
1070
    73
1070
     1
1070
    44
1040
1.0
1070
    74
1070
     0
1000
MTEXTEND
  0
MTEXT
  5
27DAE
330
747D
100
AcDbEntity
  8
寸法
 62
     7
 48
50.0
100
AcDbMText
 10
7265.036898755098
 20
8300.096317515459
 30
0.0
 40
120.0
 41
0.0
 71
     5
 72
     1
  1
\A1;2460
  7
STYLE1
 73
     1
 44
1.0
1001
ACAD
1000
MTEXTBEGIN
1070
    73
1070
     1
1070
    44
1040
1.0
1070
    74
1070
     0
1000
MTEXTEND
  0
MTEXT
  5
27DAF
330
747D
100
AcDbEntity
  8
寸法
 62
     7
 48
50.0
100
AcDbMText
 10
8480.386216567461
 20
8065.789758569174
 30
0.0
 40
120.0
 41
0.0
 71
     5
 72
     1
  1
\A1;820
  7
STYLE1
 73
     1
 44
1.0
1001
ACAD
1000
MTEXTBEGIN
1070
    73
1070
     1
1070
    44
1040
1.0
1070
    74
1070
     0
1000
MTEXTEND
  0
MTEXT
  5
27DB0
330
747D
100
AcDbEntity
  8
寸法
 62
     7
 48
50.0
100
AcDbMText
 10
9000.799137359477
 20
8300.096317515459
 30
0.0
 40
120.0
 41
0.0
 71
     5
 72
     1
  1
\A1;2460
  7
STYLE1
 73
     1
 44
1.0
1001
ACAD
1000
MTEXTBEGIN
1070
    73
1070
     1
1070
    44
1040
1.0
1070
    74
1070
     0
1000
MTEXTEND
  0
LINE
  5
283A5
330
747D
100
AcDbEntity
  8
寸法
 48
50.0
100
AcDbLine
 10
8353.60000000001
 20
7968.961286962438
 30
0.0
 11
8633.60000000001
 21
7968.961286962438
 31
0.0
  0
TEXT
  5
283A6
330
747D
100
AcDbEntity
  8
寸法
 48
50.0
100
AcDbText
 10
8431.316631139093
 20
6125.033761084927
 30
0.0
 40
120.0
  1
扉面
  7
STYLE1
100
AcDbText
  0
DIMENSION
  5
283A8
330
747D
100
AcDbEntity
  8
寸法
 48
50.0
100
AcDbDimension
  2
*D28
 10
11918.6
 20
8444.572792351108
 30
0.0
 11
8223.600000000002
 21
8444.572792351108
 31
0.0
 70
   160
  1
N X 820+10
 71
     5
 42
7390.000000000004
  3
INABA_S40G
100
AcDbAlignedDimension
 13
4528.599999999999
 23
7486.352470292189
 33
0.0
 14
11918.6
 24
7486.352470292189
 34
0.0
100
AcDbRotatedDimension
1001
ACAD
1000
DSTYLE
1002
{
1070
   341
1005
0
1002
}
  0
LINE
  5
283AB
330
747D
100
AcDbEntity
  8
細線
 48
50.0
100
AcDbLine
 10
4528.600000000002
 20
6808.474998055335
 30
0.0
 11
4641.477472236868
 21
6921.352470292203
 31
0.0
  0
LINE
  5
283AC
330
747D
100
AcDbEntity
  8
細線
 48
50.0
100
AcDbLine
 10
4528.599999999999
 20
6853.376278660679
 30
0.0
 11
4596.576191631522
 21
6921.3524702922
 31
0.0
  0
LINE
  5
283AF
330
747D
100
AcDbEntity
  8
部品1
 48
50.0
100
AcDbLine
 10
7913.600000000009
 20
6733.352470292189
 30
0.0
 11
7913.600000000009
 21
6933.352470292189
 31
0.0
  0
LINE
  5
283B0
330
747D
100
AcDbEntity
  8
部品1
 48
50.0
100
AcDbLine
 10
6273.600000000009
 20
6733.352470292189
 30
0.0
 11
6273.600000000009
 21
6933.352470292189
 31
0.0
  0
LINE
  5
283B1
330
747D
100
AcDbEntity
  8
部品1
 48
50.0
100
AcDbLine
 10
6893.600000000009
 20
6733.352470292189
 30
0.0
 11
6893.600000000009
 21
6933.352470292189
 31
0.0
  0
LINE
  5
283B2
330
747D
100
AcDbEntity
  8
部品1
 48
50.0
100
AcDbLine
 10
7093.600000000009
 20
6733.352470292189
 30
0.0
 11
7093.600000000009
 21
6933.352470292189
 31
0.0
  0
LINE
  5
283B5
330
747D
100
AcDbEntity
  8
部品1
 48
50.0
100
AcDbLine
 10
7713.60000000001
 20
6733.352470292189
 30
0.0
 11
7713.60000000001
 21
6933.352470292189
 31
0.0
  0
LINE
  5
283B7
330
747D
100
AcDbEntity
  8
部品1
 48
50.0
100
AcDbLine
 10
5253.600000000005
 20
6733.352470292189
 30
0.0
 11
5253.600000000005
 21
6933.352470292189
 31
0.0
  0
LINE
  5
283B8
330
747D
100
AcDbEntity
  8
部品1
 48
50.0
100
AcDbLine
 10
5453.600000000005
 20
6733.352470292189
 30
0.0
 11
5453.600000000005
 21
6933.352470292189
 31
0.0
  0
LINE
  5
283B9
330
747D
100
AcDbEntity
  8
部品1
 48
50.0
100
AcDbLine
 10
6073.600000000009
 20
6733.352470292189
 30
0.0
 11
6073.600000000009
 21
6933.352470292189
 31
0.0
  0
DIMENSION
  5
283BA
330
747D
100
AcDbEntity
  8
寸法
 48
50.0
100
AcDbDimension
  2
*D29
 10
3905.66500633007
 20
6304.352470292194
 30
0.0
 11
3905.66500633007
 21
6833.85247029219
 31
0.0
 70
   160
 71
     5
 42
1058.999999999996
  3
INABA_S40G
100
AcDbAlignedDimension
 13
4601.599999999998
 23
7363.35247029219
 33
0.0
 14
4601.600000000006
 24
6304.352470292194
 34
0.0
 50
90.0
100
AcDbRotatedDimension
1001
ACAD
1000
DSTYLE
1002
{
1070
   341
1005
0
1002
}
  0
DIMENSION
  5
283BB
330
747D
100
AcDbEntity
  8
寸法
 48
50.0
100
AcDbDimension
  2
*D30
 10
6993.600000000009
 20
7968.961286962438
 30
0.0
 11
7403.60000000001
 21
8068.973097986059
 31
0.0
 70
    32
 71
     5
 42
820.0
  3
INABA_S40G
100
AcDbAlignedDimension
 13
7813.600000000009
 23
6883.352470292189
 33
0.0
 14
6993.600000000009
 24
6883.352470292189
 34
0.0
100
AcDbRotatedDimension
1001
ACAD
1000
DSTYLE
1002
{
1070
   341
1005
0
1002
}
  0
DIMENSION
  5
283BC
330
747D
100
AcDbEntity
  8
寸法
 48
50.0
100
AcDbDimension
  2
*D31
 10
3653.721909610672
 20
6106.35247029219
 30
0.0
 11
3653.721909610671
 21
6833.85247029219
 31
0.0
 70
   160
 71
     5
 42
1380.0
  3
INABA_S40G
100
AcDbAlignedDimension
 13
4528.599999999999
 23
7486.352470292189
 33
0.0
 14
4528.599999999999
 24
6106.35247029219
 34
0.0
 50
90.0
100
AcDbRotatedDimension
1001
ACAD
1000
DSTYLE
1002
{
1070
   341
1005
0
1002
}
  0
DIMENSION
  5
283BD
330
747D
100
AcDbEntity
  8
寸法
 48
50.0
100
AcDbDimension
  2
*D32
 10
5353.600000000006
 20
7968.961286962438
 30
0.0
 11
5763.600000000008
 21
8068.973097986059
 31
0.0
 70
    32
 71
     5
 42
820.0000000000036
  3
INABA_S40G
100
AcDbAlignedDimension
 13
6173.60000000001
 23
6883.352470292189
 33
0.0
 14
5353.600000000006
 24
6883.352470292189
 34
0.0
100
AcDbRotatedDimension
1001
ACAD
1000
DSTYLE
1002
{
1070
   341
1005
0
1002
}
  0
DIMENSION
  5
283BE
330
747D
100
AcDbEntity
  8
寸法
 48
50.0
100
AcDbDimension
  2
*D33
 10
4528.599999999999
 20
7968.961286962438
 30
0.0
 11
4941.100000000002
 21
8068.973097986059
 31
0.0
 70
    32
 71
     5
 42
825.0000000000072
  3
INABA_S40G
100
AcDbAlignedDimension
 13
5353.600000000006
 23
6883.352470292189
 33
0.0
 14
4528.599999999999
 24
7486.352470292189
 34
0.0
100
AcDbRotatedDimension
1001
ACAD
1000
DSTYLE
1002
{
1070
   341
1005
0
1002
}
  0
DIMENSION
  5
283BF
330
747D
100
AcDbEntity
  8
寸法
 48
50.0
100
AcDbDimension
  2
*D34
 10
6173.60000000001
 20
7968.961286962438
 30
0.0
 11
6583.60000000001
 21
8068.973097986059
 31
0.0
 70
    32
 71
     5
 42
820.0
  3
INABA_S40G
100
AcDbAlignedDimension
 13
6993.600000000009
 23
6883.352470292189
 33
0.0
 14
6173.60000000001
 24
6883.352470292189
 34
0.0
100
AcDbRotatedDimension
1001
ACAD
1000
DSTYLE
1002
{
1070
   341
1005
0
1002
}
  0
LINE
  5
283C1
330
747D
100
AcDbEntity
  8
部品1
 48
50.0
100
AcDbLine
 10
4528.599999999999
 20
6106.35247029219
 30
0.0
 11
4528.599999999999
 21
7486.352470292189
 31
0.0
  0
DIMENSION
  5
283C2
330
747D
100
AcDbEntity
  8
寸法
 48
50.0
100
AcDbDimension
  2
*D35
 10
5011.285990614302
 20
7486.352470292189
 30
0.0
 11
5011.2859906143
 21
7104.571624631764
 31
0.0
 70
   160
 71
     5
 42
653.0
  3
INABA_S40G
100
AcDbAlignedDimension
 13
5303.600000000006
 23
6833.352470292189
 33
0.0
 14
5102.765475140898
 24
7486.352470292189
 34
0.0
 50
90.0
100
AcDbRotatedDimension
1001
ACAD
1000
DSTYLE
1002
{
1070
   341
1005
0
1002
}
  0
LINE
  5
283C4
330
747D
100
AcDbEntity
  8
部品1
 48
50.0
100
AcDbLine
 10
11918.6
 20
6106.352470292215
 30
0.0
 11
4528.599999999999
 21
6106.352470292186
 31
0.0
  0
ARC
  5
283C6
330
747D
100
AcDbEntity
  8
想像線
 48
5.0
100
AcDbCircle
 10
5298.600000000006
 20
6106.352470292193
 30
0.0
 40
720.0
100
AcDbArc
 50
180.0
 51
270.0
  0
DIMENSION
  5
283C7
330
747D
100
AcDbEntity
  8
寸法
 48
50.0
100
AcDbDimension
  2
*D36
 10
5011.2859906143
 20
6833.352470292189
 30
0.0
 11
5011.285990614299
 21
6548.35247029219
 31
0.0
 70
   160
 71
     5
 42
726.9999999999891
  3
INABA_S40G
100
AcDbAlignedDimension
 13
5102.765475140898
 23
6106.3524702922
 33
0.0
 14
5303.600000000006
 24
6833.352470292189
 34
0.0
 50
90.0
100
AcDbRotatedDimension
1001
ACAD
1000
DSTYLE
1002
{
1070
   341
1005
0
1002
}
  0
DIMENSION
  5
283C9
330
747D
100
AcDbEntity
  8
寸法
 48
50.0
100
AcDbDimension
  2
*D37
 10
4415.512673767881
 20
5386.352470292186
 30
0.0
 11
4415.512673767881
 21
5746.352470292187
 31
0.0
 70
   160
  1
扉の出<>
 71
     5
 42
720.0
  3
INABA_S40G
100
AcDbAlignedDimension
 13
4528.600000000006
 23
6106.352470292186
 33
0.0
 14
4884.32532692881
 24
5386.352470292186
 34
0.0
 50
90.0
100
AcDbRotatedDimension
1001
ACAD
1000
DSTYLE
1002
{
1070
   341
1005
0
1002
}
  0
DIMENSION
  5
283CA
330
747D
100
AcDbEntity
  8
寸法
 48
50.0
100
AcDbDimension
  2
*D38
 10
3905.66500633007
 20
6106.35247029219
 30
0.0
 11
3905.66500633007
 21
5770.821521449597
 31
0.0
 70
   160
 71
     5
 42
198.0000000000036
  3
INABA_S40G
100
AcDbAlignedDimension
 13
4601.600000000006
 23
6304.352470292194
 33
0.0
 14
4528.599999999999
 24
6106.35247029219
 34
0.0
 50
90.0
100
AcDbRotatedDimension
1001
ACAD
1000
DSTYLE
1002
{
1070
   341
1005
0
1002
}
  0
LINE
  5
283CB
330
747D
100
AcDbEntity
  8
細線
 48
50.0
100
AcDbLine
 10
4843.599999999997
 20
6284.857069580485
 30
0.0
 11
4945.095400711699
 21
6386.352470292187
 31
0.0
  0
LINE
  5
283CC
330
747D
100
AcDbEntity
  8
細線
 48
50.0
100
AcDbLine
 10
4844.700523133075
 20
6106.352470292186
 30
0.0
 11
5043.599999999997
 21
6305.25194715911
 31
0.0
  0
LINE
  5
283CD
330
747D
100
AcDbEntity
  8
細線
 48
50.0
100
AcDbLine
 10
4843.600000000002
 20
6150.15322776446
 30
0.0
 11
5043.599999999997
 21
6350.153227764453
 31
0.0
  0
LINE
  5
283CE
330
747D
100
AcDbEntity
  8
細線
 48
50.0
100
AcDbLine
 10
4843.600000000001
 20
6195.054508369803
 30
0.0
 11
5034.897961922386
 21
6386.352470292187
 31
0.0
  0
LINE
  5
283CF
330
747D
100
AcDbEntity
  8
細線
 48
50.0
100
AcDbLine
 10
4843.600000000001
 20
6239.955788975148
 30
0.0
 11
4989.996681317037
 21
6386.352470292187
 31
0.0
  0
LINE
  5
283D0
330
747D
100
AcDbEntity
  8
部品1
 48
50.0
100
AcDbLine
 10
5043.599999999996
 20
6386.352470292187
 30
0.0
 11
5043.600000000002
 21
6106.352470292188
 31
0.0
  0
LINE
  5
283D1
330
747D
100
AcDbEntity
  8
部品1
 48
50.0
100
AcDbLine
 10
4843.599999999995
 20
6386.352470292186
 30
0.0
 11
4843.600000000002
 21
6106.352470292184
 31
0.0
  0
CIRCLE
  5
283D2
330
747D
100
AcDbEntity
  8
部品1
 48
50.0
100
AcDbCircle
 10
4651.599999999991
 20
6304.352470292194
 30
0.0
 40
35.0
  0
LINE
  5
283D3
330
747D
100
AcDbEntity
  8
センター
 48
2.0
100
AcDbLine
 10
4651.600000000006
 20
6354.352470292194
 30
0.0
 11
4651.600000000006
 21
6254.352470292193
 31
0.0
  0
LINE
  5
283D4
330
747D
100
AcDbEntity
  8
センター
 48
2.0
100
AcDbLine
 10
4601.600000000006
 20
6304.352470292194
 30
0.0
 11
4701.600000000006
 21
6304.352470292194
 31
0.0
  0
LINE
  5
283D5
330
747D
100
AcDbEntity
  8
細線
 48
50.0
100
AcDbLine
 10
4934.503084343766
 20
6106.352470292186
 30
0.0
 11
5043.599999999999
 21
6215.449385948419
 31
0.0
  0
LINE
  5
283D6
330
747D
100
AcDbEntity
  8
細線
 48
50.0
100
AcDbLine
 10
4889.60180373842
 20
6106.352470292186
 30
0.0
 11
5043.599999999998
 21
6260.350666553766
 31
0.0
  0
LINE
  5
283D7
330
747D
100
AcDbEntity
  8
細線
 48
50.0
100
AcDbLine
 10
5024.305645554461
 20
6106.35247029219
 30
0.0
 11
5043.600000000001
 21
6125.646824737727
 31
0.0
  0
LINE
  5
283D8
330
747D
100
AcDbEntity
  8
細線
 48
50.0
100
AcDbLine
 10
4979.404364949115
 20
6106.352470292188
 30
0.0
 11
5043.600000000001
 21
6170.548105343073
 31
0.0
  0
LINE
  5
283D9
330
747D
100
AcDbEntity
  8
細線
 48
50.0
100
AcDbLine
 10
4531.28003344756
 20
6721.3524702922
 30
0.0
 11
4648.599999999998
 21
6838.672436844639
 31
0.0
  0
LINE
  5
283DA
330
747D
100
AcDbEntity
  8
細線
 48
50.0
100
AcDbLine
 10
4528.600000000002
 20
6763.573717449988
 30
0.0
 11
4648.599999999997
 21
6883.573717449984
 31
0.0
  0
LINE
  5
283DB
330
747D
100
AcDbEntity
  8
部品1
 48
50.0
100
AcDbLine
 10
4648.599999999998
 20
6721.352470292202
 30
0.0
 11
4528.599999999999
 21
6721.352470292202
 31
0.0
  0
LINE
  5
283DC
330
747D
100
AcDbEntity
  8
細線
 48
50.0
100
AcDbLine
 10
4621.082594658249
 20
6721.352470292202
 30
0.0
 11
4648.599999999998
 21
6748.869875633942
 31
0.0
  0
LINE
  5
283DD
330
747D
100
AcDbEntity
  8
細線
 48
50.0
100
AcDbLine
 10
4576.181314052905
 20
6721.3524702922
 30
0.0
 11
4648.599999999998
 21
6793.771156239298
 31
0.0
  0
LINE
  5
283DE
330
747D
100
AcDbEntity
  8
細線
 48
50.0
100
AcDbLine
 10
4843.599999999995
 20
6329.758350185832
 30
0.0
 11
4900.194120106351
 21
6386.352470292186
 31
0.0
  0
LINE
  5
283DF
330
747D
100
AcDbEntity
  8
想像線
 48
5.0
100
AcDbLine
 10
5298.600000000006
 20
6106.352470292204
 30
0.0
 11
5298.600000000006
 21
5386.352470292194
 31
0.0
  0
LINE
  5
283EC
330
747D
100
AcDbEntity
  8
センター
 48
2.0
100
AcDbLine
 10
5303.600000000006
 20
6833.352470292189
 30
0.0
 11
5403.600000000006
 21
6833.352470292189
 31
0.0
  0
LINE
  5
283ED
330
747D
100
AcDbEntity
  8
部品1
 48
50.0
100
AcDbLine
 10
5453.600000000005
 20
6733.352470292189
 30
0.0
 11
5253.600000000005
 21
6733.352470292189
 31
0.0
  0
LINE
  5
283EE
330
747D
100
AcDbEntity
  8
センター
 48
2.0
100
AcDbLine
 10
5353.600000000006
 20
6883.352470292189
 30
0.0
 11
5353.600000000006
 21
6783.352470292189
 31
0.0
  0
LINE
  5
283FB
330
747D
100
AcDbEntity
  8
部品1
 48
50.0
100
AcDbLine
 10
6273.600000000009
 20
6733.352470292189
 30
0.0
 11
6073.600000000009
 21
6733.352470292189
 31
0.0
  0
LINE
  5
283FC
330
747D
100
AcDbEntity
  8
センター
 48
2.0
100
AcDbLine
 10
6123.60000000001
 20
6833.352470292189
 30
0.0
 11
6223.60000000001
 21
6833.352470292189
 31
0.0
  0
LINE
  5
283FD
330
747D
100
AcDbEntity
  8
センター
 48
2.0
100
AcDbLine
 10
6173.60000000001
 20
6883.352470292189
 30
0.0
 11
6173.60000000001
 21
6783.352470292189
 31
0.0
  0
CIRCLE
  5
28406
330
747D
100
AcDbEntity
  8
部品1
 48
50.0
100
AcDbCircle
 10
6875.60000000001
 20
6304.352470292194
 30
0.0
 40
35.0
  0
LINE
  5
28407
330
747D
100
AcDbEntity
  8
センター
 48
2.0
100
AcDbLine
 10
6875.60000000001
 20
6354.352470292194
 30
0.0
 11
6875.60000000001
 21
6254.352470292193
 31
0.0
  0
LINE
  5
28408
330
747D
100
AcDbEntity
  8
センター
 48
2.0
100
AcDbLine
 10
6825.60000000001
 20
6304.352470292194
 30
0.0
 11
6925.600000000009
 21
6304.352470292194
 31
0.0
  0
LINE
  5
2840D
330
747D
100
AcDbEntity
  8
部品1
 48
50.0
100
AcDbLine
 10
7093.600000000009
 20
6733.352470292189
 30
0.0
 11
6893.600000000009
 21
6733.352470292189
 31
0.0
  0
LINE
  5
2840E
330
747D
100
AcDbEntity
  8
センター
 48
2.0
100
AcDbLine
 10
6943.600000000009
 20
6833.352470292189
 30
0.0
 11
7043.600000000009
 21
6833.352470292189
 31
0.0
  0
LINE
  5
2840F
330
747D
100
AcDbEntity
  8
センター
 48
2.0
100
AcDbLine
 10
6993.600000000009
 20
6883.352470292189
 30
0.0
 11
6993.600000000009
 21
6783.352470292189
 31
0.0
  0
LINE
  5
28411
330
747D
100
AcDbEntity
  8
細線
 48
50.0
100
AcDbLine
 10
8123.600000000001
 20
6195.054508369809
 30
0.0
 11
8314.897961922399
 21
6386.352470292201
 31
0.0
  0
LINE
  5
28413
330
747D
100
AcDbEntity
  8
細線
 48
50.0
100
AcDbLine
 10
8123.600000000005
 20
6150.153227764459
 30
0.0
 11
8323.599999999997
 21
6350.153227764453
 31
0.0
  0
LINE
  5
28414
330
747D
100
AcDbEntity
  8
細線
 48
50.0
100
AcDbLine
 10
8124.700523133091
 20
6106.352470292199
 30
0.0
 11
8323.599999999998
 21
6305.25194715911
 31
0.0
  0
LINE
  5
28415
330
747D
100
AcDbEntity
  8
部品1
 48
50.0
100
AcDbLine
 10
8123.599999999994
 20
6386.352470292202
 30
0.0
 11
8123.600000000005
 21
6106.3524702922
 31
0.0
  0
LINE
  5
28416
330
747D
100
AcDbEntity
  8
部品1
 48
50.0
100
AcDbLine
 10
8323.599999999995
 20
6386.352470292202
 30
0.0
 11
8323.600000000002
 21
6106.352470292188
 31
0.0
  0
LINE
  5
28419
330
747D
100
AcDbEntity
  8
細線
 48
50.0
100
AcDbLine
 10
8214.503084343766
 20
6106.352470292186
 30
0.0
 11
8323.599999999998
 21
6215.449385948419
 31
0.0
  0
LINE
  5
2841A
330
747D
100
AcDbEntity
  8
細線
 48
50.0
100
AcDbLine
 10
8169.601803738421
 20
6106.352470292186
 30
0.0
 11
8323.599999999998
 21
6260.350666553766
 31
0.0
  0
LINE
  5
2841D
330
747D
100
AcDbEntity
  8
細線
 48
50.0
100
AcDbLine
 10
8304.305645554462
 20
6106.35247029219
 30
0.0
 11
8323.6
 21
6125.646824737727
 31
0.0
  0
LINE
  5
2841E
330
747D
100
AcDbEntity
  8
細線
 48
50.0
100
AcDbLine
 10
8259.404364949114
 20
6106.352470292188
 30
0.0
 11
8323.6
 21
6170.548105343073
 31
0.0
  0
LINE
  5
2841F
330
747D
100
AcDbEntity
  8
部品1
 48
50.0
100
AcDbLine
 10
7913.600000000009
 20
6733.352470292189
 30
0.0
 11
7713.60000000001
 21
6733.352470292189
 31
0.0
  0
LINE
  5
28420
330
747D
100
AcDbEntity
  8
センター
 48
2.0
100
AcDbLine
 10
7763.60000000001
 20
6833.352470292189
 30
0.0
 11
7863.600000000009
 21
6833.352470292189
 31
0.0
  0
LINE
  5
28421
330
747D
100
AcDbEntity
  8
センター
 48
2.0
100
AcDbLine
 10
7813.600000000009
 20
6883.352470292189
 30
0.0
 11
7813.600000000009
 21
6783.352470292189
 31
0.0
  0
LINE
  5
28422
330
747D
100
AcDbEntity
  8
細線
 48
50.0
100
AcDbLine
 10
8123.599999999999
 20
6239.955788975148
 30
0.0
 11
8269.996681317055
 21
6386.352470292202
 31
0.0
  0
LINE
  5
28423
330
747D
100
AcDbEntity
  8
細線
 48
50.0
100
AcDbLine
 10
8123.599999999997
 20
6284.857069580446
 30
0.0
 11
8225.095400711699
 21
6386.352470292202
 31
0.0
  0
LINE
  5
28424
330
747D
100
AcDbEntity
  8
細線
 48
50.0
100
AcDbLine
 10
8123.599999999994
 20
6329.758350185832
 30
0.0
 11
8180.194120106362
 21
6386.3524702922
 31
0.0
  0
LINE
  5
28427
102
{ACAD_REACTORS
330
29681
102
}
330
747D
100
AcDbEntity
  8
部品1
 48
50.0
100
AcDbLine
 10
11798.6
 20
7286.35247029219
 30
0.0
 11
4648.599999999998
 21
7286.352470292192
 31
0.0
  0
LINE
  5
28428
102
{ACAD_REACTORS
330
29681
102
}
330
747D
100
AcDbEntity
  8
部品1
 48
50.0
100
AcDbLine
 10
11918.6
 20
7486.352470292191
 30
0.0
 11
4528.599999999999
 21
7486.352470292189
 31
0.0
  0
DIMENSION
  5
28429
330
747D
100
AcDbEntity
  8
寸法
 48
50.0
100
AcDbDimension
  2
*D19
 10
4651.599999999998
 20
8212.618928386101
 30
0.0
 11
5763.6
 21
8312.630739409723
 31
0.0
 70
    32
 71
     5
 42
2224.000000000004
  3
INABA_S40G
100
AcDbAlignedDimension
 13
6875.600000000003
 23
7413.35247029219
 33
0.0
 14
4651.599999999998
 24
7413.35247029219
 34
0.0
100
AcDbRotatedDimension
1001
ACAD
1000
DSTYLE
1002
{
1070
   341
1005
0
1002
}
  0
DIMENSION
  5
2842C
330
747D
100
AcDbEntity
  8
寸法
 48
50.0
100
AcDbDimension
  2
*D20
 10
4528.599999999999
 20
8212.618928386101
 30
0.0
 11
4255.4933982822
 21
8212.618928386101
 31
0.0
 70
   160
 71
     5
 42
123.0
  3
INABA_S40G
100
AcDbAlignedDimension
 13
4651.599999999998
 23
7413.35247029219
 33
0.0
 14
4528.599999999999
 24
7486.352470292189
 34
0.0
100
AcDbRotatedDimension
1001
ACAD
1000
DSTYLE
1002
{
1070
   341
1005
0
1002
}
  0
DIMENSION
  5
2842D
330
747D
100
AcDbEntity
  8
寸法
 48
50.0
100
AcDbDimension
  2
*D21
 10
3905.665006330071
 20
7363.35247029219
 30
0.0
 11
3905.66500633007
 21
7759.45907200999
 31
0.0
 70
   160
 71
     5
 42
123.0
  3
INABA_S40G
100
AcDbAlignedDimension
 13
4528.599999999999
 23
7486.352470292189
 33
0.0
 14
4601.599999999998
 24
7363.35247029219
 34
0.0
 50
90.0
100
AcDbRotatedDimension
1001
ACAD
1000
DSTYLE
1002
{
1070
   341
1005
0
1002
}
  0
LINE
  5
2842F
330
747D
100
AcDbEntity
  8
細線
 48
50.0
100
AcDbLine
 10
4843.600000000005
 20
7288.573717449992
 30
0.0
 11
5041.378752842199
 21
7486.352470292183
 31
0.0
  0
LINE
  5
28430
330
747D
100
AcDbEntity
  8
細線
 48
50.0
100
AcDbLine
 10
4843.600000000004
 20
7333.474998055335
 30
0.0
 11
4996.477472236854
 21
7486.352470292186
 31
0.0
  0
LINE
  5
28431
330
747D
100
AcDbEntity
  8
細線
 48
50.0
100
AcDbLine
 10
4843.600000000003
 20
7378.37627866068
 30
0.0
 11
4951.576191631508
 21
7486.352470292183
 31
0.0
  0
LINE
  5
28432
330
747D
100
AcDbEntity
  8
細線
 48
50.0
100
AcDbLine
 10
4843.600000000003
 20
7423.277559266026
 30
0.0
 11
4906.674911026161
 21
7486.352470292183
 31
0.0
  0
LINE
  5
28433
330
747D
100
AcDbEntity
  8
部品1
 48
50.0
100
AcDbLine
 10
5043.600000000002
 20
7486.352470292183
 30
0.0
 11
5043.600000000004
 21
7286.352470292192
 31
0.0
  0
LINE
  5
28434
330
747D
100
AcDbEntity
  8
部品1
 48
50.0
100
AcDbLine
 10
4843.600000000002
 20
7486.352470292183
 30
0.0
 11
4843.600000000005
 21
7286.352470292192
 31
0.0
  0
LINE
  5
28435
330
747D
100
AcDbEntity
  8
細線
 48
50.0
100
AcDbLine
 10
4528.599999999999
 20
6898.277559266026
 30
0.0
 11
4551.674911026178
 21
6921.352470292203
 31
0.0
  0
LINE
  5
28436
330
747D
100
AcDbEntity
  8
部品1
 48
50.0
100
AcDbLine
 10
4648.599999999998
 20
6921.352470292203
 30
0.0
 11
4528.599999999999
 21
6921.352470292203
 31
0.0
  0
LINE
  5
28437
330
747D
100
AcDbEntity
  8
センター
 48
2.0
100
AcDbLine
 10
4651.599999999998
 20
7413.35247029219
 30
0.0
 11
4651.599999999998
 21
7313.352470292191
 31
0.0
  0
LINE
  5
28438
330
747D
100
AcDbEntity
  8
センター
 48
2.0
100
AcDbLine
 10
4601.599999999998
 20
7363.35247029219
 30
0.0
 11
4701.599999999998
 21
7363.35247029219
 31
0.0
  0
CIRCLE
  5
28439
330
747D
100
AcDbEntity
  8
部品1
 48
50.0
100
AcDbCircle
 10
4651.599999999998
 20
7363.35247029219
 30
0.0
 40
35.0
  0
LINE
  5
2843A
330
747D
100
AcDbEntity
  8
細線
 48
50.0
100
AcDbLine
 10
4931.181314052913
 20
7286.352470292192
 30
0.0
 11
5043.600000000002
 21
7398.771156239297
 31
0.0
  0
LINE
  5
2843B
330
747D
100
AcDbEntity
  8
細線
 48
50.0
100
AcDbLine
 10
4886.280033447551
 20
7286.352470292192
 30
0.0
 11
5043.600000000001
 21
7443.672436844642
 31
0.0
  0
LINE
  5
2843C
330
747D
100
AcDbEntity
  8
細線
 48
50.0
100
AcDbLine
 10
5020.983875263603
 20
7286.35247029219
 30
0.0
 11
5043.600000000004
 21
7308.968595028597
 31
0.0
  0
LINE
  5
2843D
330
747D
100
AcDbEntity
  8
細線
 48
50.0
100
AcDbLine
 10
4976.082594658248
 20
7286.352470292192
 30
0.0
 11
5043.600000000004
 21
7353.869875633946
 31
0.0
  0
LINE
  5
2843E
330
747D
100
AcDbEntity
  8
細線
 48
50.0
100
AcDbLine
 10
4843.600000000002
 20
7468.178839871369
 30
0.0
 11
4861.773630420816
 21
7486.352470292186
 31
0.0
  0
LINE
  5
2843F
330
747D
100
AcDbEntity
  8
細線
 48
50.0
100
AcDbLine
 10
5663.600000000003
 20
7423.277559266026
 30
0.0
 11
5726.674911026162
 21
7486.352470292183
 31
0.0
  0
LINE
  5
28440
330
747D
100
AcDbEntity
  8
部品1
 48
50.0
100
AcDbLine
 10
5663.600000000002
 20
7486.352470292183
 30
0.0
 11
5663.600000000005
 21
7286.352470292192
 31
0.0
  0
LINE
  5
28441
330
747D
100
AcDbEntity
  8
部品1
 48
50.0
100
AcDbLine
 10
5863.600000000002
 20
7486.352470292183
 30
0.0
 11
5863.600000000004
 21
7286.352470292192
 31
0.0
  0
LINE
  5
28442
330
747D
100
AcDbEntity
  8
細線
 48
50.0
100
AcDbLine
 10
5663.600000000005
 20
7288.573717449992
 30
0.0
 11
5861.378752842199
 21
7486.352470292183
 31
0.0
  0
LINE
  5
28443
330
747D
100
AcDbEntity
  8
細線
 48
50.0
100
AcDbLine
 10
5663.600000000004
 20
7333.474998055335
 30
0.0
 11
5816.477472236854
 21
7486.352470292186
 31
0.0
  0
LINE
  5
28444
330
747D
100
AcDbEntity
  8
細線
 48
50.0
100
AcDbLine
 10
5663.600000000003
 20
7378.37627866068
 30
0.0
 11
5771.576191631508
 21
7486.352470292183
 31
0.0
  0
LINE
  5
28445
330
747D
100
AcDbEntity
  8
部品1
 48
50.0
100
AcDbLine
 10
5453.600000000005
 20
6933.352470292189
 30
0.0
 11
5253.600000000005
 21
6933.352470292189
 31
0.0
  0
LINE
  5
28446
330
747D
100
AcDbEntity
  8
細線
 48
50.0
100
AcDbLine
 10
5751.181314052912
 20
7286.352470292192
 30
0.0
 11
5863.600000000002
 21
7398.771156239297
 31
0.0
  0
LINE
  5
28447
330
747D
100
AcDbEntity
  8
細線
 48
50.0
100
AcDbLine
 10
5706.28003344755
 20
7286.352470292192
 30
0.0
 11
5863.6
 21
7443.672436844642
 31
0.0
  0
LINE
  5
28448
330
747D
100
AcDbEntity
  8
細線
 48
50.0
100
AcDbLine
 10
5840.983875263603
 20
7286.35247029219
 30
0.0
 11
5863.600000000004
 21
7308.968595028597
 31
0.0
  0
LINE
  5
28449
330
747D
100
AcDbEntity
  8
細線
 48
50.0
100
AcDbLine
 10
5796.082594658248
 20
7286.352470292192
 30
0.0
 11
5863.600000000003
 21
7353.869875633946
 31
0.0
  0
LINE
  5
2844A
330
747D
100
AcDbEntity
  8
細線
 48
50.0
100
AcDbLine
 10
5663.600000000002
 20
7468.178839871369
 30
0.0
 11
5681.773630420815
 21
7486.352470292186
 31
0.0
  0
LINE
  5
2844B
330
747D
100
AcDbEntity
  8
細線
 48
50.0
100
AcDbLine
 10
6483.600000000002
 20
7423.277559266026
 30
0.0
 11
6546.674911026163
 21
7486.352470292183
 31
0.0
  0
LINE
  5
2844C
330
747D
100
AcDbEntity
  8
細線
 48
50.0
100
AcDbLine
 10
6483.600000000002
 20
7378.37627866068
 30
0.0
 11
6591.576191631507
 21
7486.352470292183
 31
0.0
  0
LINE
  5
2844D
330
747D
100
AcDbEntity
  8
細線
 48
50.0
100
AcDbLine
 10
6483.600000000004
 20
7333.474998055335
 30
0.0
 11
6636.477472236855
 21
7486.352470292186
 31
0.0
  0
LINE
  5
2844E
330
747D
100
AcDbEntity
  8
細線
 48
50.0
100
AcDbLine
 10
6483.600000000006
 20
7288.573717449992
 30
0.0
 11
6681.378752842199
 21
7486.352470292183
 31
0.0
  0
LINE
  5
2844F
330
747D
100
AcDbEntity
  8
部品1
 48
50.0
100
AcDbLine
 10
6683.600000000002
 20
7486.352470292183
 30
0.0
 11
6683.600000000004
 21
7286.352470292192
 31
0.0
  0
LINE
  5
28450
330
747D
100
AcDbEntity
  8
部品1
 48
50.0
100
AcDbLine
 10
6483.600000000002
 20
7486.352470292183
 30
0.0
 11
6483.600000000006
 21
7286.352470292192
 31
0.0
  0
LINE
  5
28452
330
747D
100
AcDbEntity
  8
部品1
 48
50.0
100
AcDbLine
 10
6273.600000000009
 20
6933.352470292189
 30
0.0
 11
6073.600000000009
 21
6933.352470292189
 31
0.0
  0
LINE
  5
28453
330
747D
100
AcDbEntity
  8
細線
 48
50.0
100
AcDbLine
 10
6571.181314052911
 20
7286.352470292192
 30
0.0
 11
6683.600000000002
 21
7398.771156239297
 31
0.0
  0
LINE
  5
28454
330
747D
100
AcDbEntity
  8
細線
 48
50.0
100
AcDbLine
 10
6526.28003344755
 20
7286.352470292192
 30
0.0
 11
6683.6
 21
7443.672436844642
 31
0.0
  0
LINE
  5
28455
330
747D
100
AcDbEntity
  8
細線
 48
50.0
100
AcDbLine
 10
6616.082594658248
 20
7286.352470292192
 30
0.0
 11
6683.600000000002
 21
7353.869875633946
 31
0.0
  0
LINE
  5
28456
330
747D
100
AcDbEntity
  8
細線
 48
50.0
100
AcDbLine
 10
6660.983875263602
 20
7286.35247029219
 30
0.0
 11
6683.600000000004
 21
7308.968595028597
 31
0.0
  0
LINE
  5
28457
330
747D
100
AcDbEntity
  8
細線
 48
50.0
100
AcDbLine
 10
6483.600000000002
 20
7468.178839871369
 30
0.0
 11
6501.773630420816
 21
7486.352470292186
 31
0.0
  0
LINE
  5
28459
330
747D
100
AcDbEntity
  8
細線
 48
50.0
100
AcDbLine
 10
7303.600000000002
 20
7423.277559266026
 30
0.0
 11
7366.674911026163
 21
7486.352470292183
 31
0.0
  0
LINE
  5
2845A
330
747D
100
AcDbEntity
  8
部品1
 48
50.0
100
AcDbLine
 10
7303.600000000002
 20
7486.352470292183
 30
0.0
 11
7303.600000000006
 21
7286.352470292192
 31
0.0
  0
LINE
  5
2845B
330
747D
100
AcDbEntity
  8
部品1
 48
50.0
100
AcDbLine
 10
7503.600000000003
 20
7486.352470292183
 30
0.0
 11
7503.600000000004
 21
7286.352470292192
 31
0.0
  0
LINE
  5
2845C
330
747D
100
AcDbEntity
  8
細線
 48
50.0
100
AcDbLine
 10
7303.600000000006
 20
7288.573717449992
 30
0.0
 11
7501.3787528422
 21
7486.352470292183
 31
0.0
  0
LINE
  5
2845D
330
747D
100
AcDbEntity
  8
細線
 48
50.0
100
AcDbLine
 10
7303.600000000004
 20
7333.474998055335
 30
0.0
 11
7456.477472236855
 21
7486.352470292186
 31
0.0
  0
LINE
  5
2845E
330
747D
100
AcDbEntity
  8
細線
 48
50.0
100
AcDbLine
 10
7303.600000000002
 20
7378.37627866068
 30
0.0
 11
7411.576191631508
 21
7486.352470292183
 31
0.0
  0
LINE
  5
2845F
330
747D
100
AcDbEntity
  8
部品1
 48
50.0
100
AcDbLine
 10
7093.600000000009
 20
6933.352470292189
 30
0.0
 11
6893.600000000009
 21
6933.352470292189
 31
0.0
  0
LINE
  5
28460
330
747D
100
AcDbEntity
  8
センター
 48
2.0
100
AcDbLine
 10
6875.600000000003
 20
7413.35247029219
 30
0.0
 11
6875.600000000003
 21
7313.352470292191
 31
0.0
  0
CIRCLE
  5
28461
330
747D
100
AcDbEntity
  8
部品1
 48
50.0
100
AcDbCircle
 10
6875.600000000003
 20
7363.35247029219
 30
0.0
 40
35.0
  0
LINE
  5
28462
330
747D
100
AcDbEntity
  8
センター
 48
2.0
100
AcDbLine
 10
6825.600000000003
 20
7363.35247029219
 30
0.0
 11
6925.600000000002
 21
7363.35247029219
 31
0.0
  0
LINE
  5
28463
330
747D
100
AcDbEntity
  8
細線
 48
50.0
100
AcDbLine
 10
7391.181314052912
 20
7286.352470292192
 30
0.0
 11
7503.600000000003
 21
7398.771156239297
 31
0.0
  0
LINE
  5
28464
330
747D
100
AcDbEntity
  8
細線
 48
50.0
100
AcDbLine
 10
7346.28003344755
 20
7286.352470292192
 30
0.0
 11
7503.6
 21
7443.672436844642
 31
0.0
  0
LINE
  5
28465
330
747D
100
AcDbEntity
  8
細線
 48
50.0
100
AcDbLine
 10
7480.983875263603
 20
7286.35247029219
 30
0.0
 11
7503.600000000004
 21
7308.968595028597
 31
0.0
  0
LINE
  5
28466
330
747D
100
AcDbEntity
  8
細線
 48
50.0
100
AcDbLine
 10
7436.082594658248
 20
7286.352470292192
 30
0.0
 11
7503.600000000003
 21
7353.869875633946
 31
0.0
  0
LINE
  5
28467
330
747D
100
AcDbEntity
  8
細線
 48
50.0
100
AcDbLine
 10
7303.600000000002
 20
7468.178839871369
 30
0.0
 11
7321.773630420816
 21
7486.352470292186
 31
0.0
  0
LINE
  5
2846C
102
{ACAD_REACTORS
330
29681
102
}
330
747D
100
AcDbEntity
  8
部品1
 48
50.0
100
AcDbLine
 10
8123.600000000001
 20
7486.352470292183
 30
0.0
 11
8123.600000000006
 21
7286.352470292192
 31
0.0
  0
LINE
  5
28470
330
747D
100
AcDbEntity
  8
部品1
 48
50.0
100
AcDbLine
 10
7913.600000000009
 20
6933.352470292189
 30
0.0
 11
7713.60000000001
 21
6933.352470292189
 31
0.0
  0
LINE
  5
28478
102
{ACAD_REACTORS
330
29681
102
}
330
747D
100
AcDbEntity
  8
部品1
 48
50.0
100
AcDbLine
 10
8323.600000000004
 20
7486.352470292192
 30
0.0
 11
8323.600000000004
 21
7286.352470292192
 31
0.0
  0
LINE
  5
28479
330
747D
100
AcDbEntity
  8
寸法
 48
50.0
100
AcDbLine
 10
7813.600000000009
 20
7968.961286962322
 30
0.0
 11
8093.600000000009
 21
7968.961286962322
 31
0.0
  0
LINE
  5
2847B
330
747D
100
AcDbEntity
  8
寸法
 48
50.0
100
AcDbLine
 10
6875.600000000003
 20
8212.618928385987
 30
0.0
 11
7575.644554822073
 21
8212.618928385987
 31
0.0
  0
LINE
  5
2847D
330
747D
100
AcDbEntity
  8
細線
 48
50.0
100
AcDbLine
 10
11798.6
 20
6788.474998055328
 30
0.0
 11
11918.6
 21
6908.474998055324
 31
0.0
  0
LINE
  5
2847E
330
747D
100
AcDbEntity
  8
細線
 48
50.0
100
AcDbLine
 10
11798.6
 20
6833.376278660672
 30
0.0
 11
11886.57619163152
 21
6921.352470292193
 31
0.0
  0
LINE
  5
28480
330
747D
100
AcDbEntity
  8
部品1
 48
50.0
100
AcDbLine
 10
11918.6
 20
6106.352470292208
 30
0.0
 11
11918.6
 21
7486.352470292189
 31
0.0
  0
LINE
  5
28482
330
747D
100
AcDbEntity
  8
部品1
 48
50.0
100
AcDbLine
 10
10373.60000000001
 20
6733.352470292189
 30
0.0
 11
10373.60000000001
 21
6933.352470292189
 31
0.0
  0
LINE
  5
28483
330
747D
100
AcDbEntity
  8
部品1
 48
50.0
100
AcDbLine
 10
10993.60000000001
 20
6733.352470292189
 30
0.0
 11
10993.60000000001
 21
6933.352470292189
 31
0.0
  0
LINE
  5
28484
330
747D
100
AcDbEntity
  8
部品1
 48
50.0
100
AcDbLine
 10
11193.60000000001
 20
6733.352470292189
 30
0.0
 11
11193.60000000001
 21
6933.352470292189
 31
0.0
  0
LINE
  5
28485
330
747D
100
AcDbEntity
  8
部品1
 48
50.0
100
AcDbLine
 10
9353.60000000001
 20
6733.352470292189
 30
0.0
 11
9353.60000000001
 21
6933.352470292189
 31
0.0
  0
LINE
  5
28486
330
747D
100
AcDbEntity
  8
部品1
 48
50.0
100
AcDbLine
 10
9553.60000000001
 20
6733.352470292189
 30
0.0
 11
9553.60000000001
 21
6933.352470292189
 31
0.0
  0
LINE
  5
28487
330
747D
100
AcDbEntity
  8
部品1
 48
50.0
100
AcDbLine
 10
10173.60000000001
 20
6733.352470292189
 30
0.0
 11
10173.60000000001
 21
6933.352470292189
 31
0.0
  0
DIMENSION
  5
28488
330
747D
100
AcDbEntity
  8
寸法
 48
50.0
100
AcDbDimension
  2
*D22
 10
9453.60000000001
 20
7968.961286962438
 30
0.0
 11
9863.60000000001
 21
8068.973097986059
 31
0.0
 70
    32
 71
     5
 42
820.0
  3
INABA_S40G
100
AcDbAlignedDimension
 13
10273.60000000001
 23
6883.352470292189
 33
0.0
 14
9453.60000000001
 24
6883.352470292189
 34
0.0
100
AcDbRotatedDimension
1001
ACAD
1000
DSTYLE
1002
{
1070
   341
1005
0
1002
}
  0
DIMENSION
  5
28489
330
747D
100
AcDbEntity
  8
寸法
 48
50.0
100
AcDbDimension
  2
*D23
 10
8633.60000000001
 20
7968.961286962438
 30
0.0
 11
9043.60000000001
 21
8068.973097986059
 31
0.0
 70
    32
 71
     5
 42
820.0
  3
INABA_S40G
100
AcDbAlignedDimension
 13
9453.60000000001
 23
6883.352470292189
 33
0.0
 14
8633.60000000001
 24
6883.352470292189
 34
0.0
100
AcDbRotatedDimension
1001
ACAD
1000
DSTYLE
1002
{
1070
   341
1005
0
1002
}
  0
DIMENSION
  5
2848A
330
747D
100
AcDbEntity
  8
寸法
 48
50.0
100
AcDbDimension
  2
*D24
 10
10273.60000000001
 20
7968.961286962438
 30
0.0
 11
10683.60000000001
 21
8068.973097986059
 31
0.0
 70
    32
 71
     5
 42
820.0
  3
INABA_S40G
100
AcDbAlignedDimension
 13
11093.60000000001
 23
6883.352470292189
 33
0.0
 14
10273.60000000001
 24
6883.352470292189
 34
0.0
100
AcDbRotatedDimension
1001
ACAD
1000
DSTYLE
1002
{
1070
   341
1005
0
1002
}
  0
DIMENSION
  5
2848B
330
747D
100
AcDbEntity
  8
寸法
 48
50.0
100
AcDbDimension
  2
*D25
 10
11093.60000000001
 20
7968.961286962438
 30
0.0
 11
11506.1
 21
8068.973097986059
 31
0.0
 70
    32
 71
     5
 42
824.9999999999927
  3
INABA_S40G
100
AcDbAlignedDimension
 13
11918.6
 23
7486.352470292189
 33
0.0
 14
11093.60000000001
 24
6883.352470292189
 34
0.0
100
AcDbRotatedDimension
1001
ACAD
1000
DSTYLE
1002
{
1070
   341
1005
0
1002
}
  0
LINE
  5
2848C
330
747D
100
AcDbEntity
  8
部品1
 48
50.0
100
AcDbLine
 10
8533.60000000001
 20
6733.352470292189
 30
0.0
 11
8533.60000000001
 21
6933.352470292189
 31
0.0
  0
LINE
  5
2848D
330
747D
100
AcDbEntity
  8
部品1
 48
50.0
100
AcDbLine
 10
8733.600000000009
 20
6733.352470292189
 30
0.0
 11
8733.600000000009
 21
6933.352470292189
 31
0.0
  0
LINE
  5
2848E
330
747D
100
AcDbEntity
  8
細線
 48
50.0
100
AcDbLine
 10
8943.599999999994
 20
6284.857069580481
 30
0.0
 11
9045.095400711717
 21
6386.352470292203
 31
0.0
  0
LINE
  5
2848F
330
747D
100
AcDbEntity
  8
部品1
 48
50.0
100
AcDbLine
 10
9143.599999999993
 20
6386.352470292204
 30
0.0
 11
9143.600000000001
 21
6106.352470292184
 31
0.0
  0
LINE
  5
28490
330
747D
100
AcDbEntity
  8
部品1
 48
50.0
100
AcDbLine
 10
8943.599999999991
 20
6386.352470292203
 30
0.0
 11
8943.600000000001
 21
6106.35247029218
 31
0.0
  0
LINE
  5
28491
330
747D
100
AcDbEntity
  8
細線
 48
50.0
100
AcDbLine
 10
8944.700523133073
 20
6106.352470292183
 30
0.0
 11
9143.599999999997
 21
6305.251947159106
 31
0.0
  0
LINE
  5
28492
330
747D
100
AcDbEntity
  8
細線
 48
50.0
100
AcDbLine
 10
8943.600000000001
 20
6150.153227764456
 30
0.0
 11
9143.599999999995
 21
6350.153227764449
 31
0.0
  0
LINE
  5
28493
330
747D
100
AcDbEntity
  8
細線
 48
50.0
100
AcDbLine
 10
8943.599999999999
 20
6195.0545083698
 30
0.0
 11
9134.897961922403
 21
6386.352470292204
 31
0.0
  0
LINE
  5
28494
330
747D
100
AcDbEntity
  8
細線
 48
50.0
100
AcDbLine
 10
8943.599999999999
 20
6239.955788975144
 30
0.0
 11
9089.996681317057
 21
6386.352470292204
 31
0.0
  0
LINE
  5
28495
330
747D
100
AcDbEntity
  8
細線
 48
50.0
100
AcDbLine
 10
9034.503084343766
 20
6106.352470292183
 30
0.0
 11
9143.599999999997
 21
6215.449385948415
 31
0.0
  0
LINE
  5
28496
330
747D
100
AcDbEntity
  8
細線
 48
50.0
100
AcDbLine
 10
8989.601803738418
 20
6106.352470292183
 30
0.0
 11
9143.599999999997
 21
6260.350666553763
 31
0.0
  0
LINE
  5
28497
330
747D
100
AcDbEntity
  8
細線
 48
50.0
100
AcDbLine
 10
9079.404364949112
 20
6106.352470292184
 30
0.0
 11
9143.599999999999
 21
6170.54810534307
 31
0.0
  0
LINE
  5
28498
330
747D
100
AcDbEntity
  8
細線
 48
50.0
100
AcDbLine
 10
9124.305645554459
 20
6106.352470292186
 30
0.0
 11
9143.599999999999
 21
6125.646824737724
 31
0.0
  0
LINE
  5
28499
330
747D
100
AcDbEntity
  8
センター
 48
2.0
100
AcDbLine
 10
8583.600000000009
 20
6833.352470292189
 30
0.0
 11
8683.60000000001
 21
6833.352470292189
 31
0.0
  0
LINE
  5
2849A
330
747D
100
AcDbEntity
  8
部品1
 48
50.0
100
AcDbLine
 10
8733.600000000009
 20
6733.352470292189
 30
0.0
 11
8533.60000000001
 21
6733.352470292189
 31
0.0
  0
LINE
  5
2849B
330
747D
100
AcDbEntity
  8
センター
 48
2.0
100
AcDbLine
 10
8633.60000000001
 20
6883.352470292189
 30
0.0
 11
8633.60000000001
 21
6783.352470292189
 31
0.0
  0
LINE
  5
2849C
330
747D
100
AcDbEntity
  8
細線
 48
50.0
100
AcDbLine
 10
8943.599999999994
 20
6329.758350185828
 30
0.0
 11
9000.194120106369
 21
6386.352470292202
 31
0.0
  0
CIRCLE
  5
284A4
330
747D
100
AcDbEntity
  8
部品1
 48
50.0
100
AcDbCircle
 10
9335.60000000001
 20
6304.352470292194
 30
0.0
 40
35.0
  0
LINE
  5
284A5
330
747D
100
AcDbEntity
  8
センター
 48
2.0
100
AcDbLine
 10
9335.60000000001
 20
6354.352470292194
 30
0.0
 11
9335.60000000001
 21
6254.352470292193
 31
0.0
  0
LINE
  5
284A6
330
747D
100
AcDbEntity
  8
センター
 48
2.0
100
AcDbLine
 10
9285.600000000009
 20
6304.352470292194
 30
0.0
 11
9385.600000000009
 21
6304.352470292194
 31
0.0
  0
LINE
  5
284AB
330
747D
100
AcDbEntity
  8
部品1
 48
50.0
100
AcDbLine
 10
9553.60000000001
 20
6733.352470292189
 30
0.0
 11
9353.60000000001
 21
6733.352470292189
 31
0.0
  0
LINE
  5
284AC
330
747D
100
AcDbEntity
  8
センター
 48
2.0
100
AcDbLine
 10
9403.600000000009
 20
6833.352470292189
 30
0.0
 11
9503.600000000011
 21
6833.352470292189
 31
0.0
  0
LINE
  5
284AD
330
747D
100
AcDbEntity
  8
センター
 48
2.0
100
AcDbLine
 10
9453.60000000001
 20
6883.352470292189
 30
0.0
 11
9453.60000000001
 21
6783.352470292189
 31
0.0
  0
LINE
  5
284BA
330
747D
100
AcDbEntity
  8
部品1
 48
50.0
100
AcDbLine
 10
10373.60000000001
 20
6733.352470292189
 30
0.0
 11
10173.60000000001
 21
6733.352470292189
 31
0.0
  0
LINE
  5
284BB
330
747D
100
AcDbEntity
  8
センター
 48
2.0
100
AcDbLine
 10
10223.60000000001
 20
6833.352470292189
 30
0.0
 11
10323.60000000001
 21
6833.352470292189
 31
0.0
  0
LINE
  5
284BC
330
747D
100
AcDbEntity
  8
センター
 48
2.0
100
AcDbLine
 10
10273.60000000001
 20
6883.352470292189
 30
0.0
 11
10273.60000000001
 21
6783.352470292189
 31
0.0
  0
LINE
  5
284C9
330
747D
100
AcDbEntity
  8
センター
 48
2.0
100
AcDbLine
 10
11043.60000000001
 20
6833.352470292189
 30
0.0
 11
11143.60000000001
 21
6833.352470292189
 31
0.0
  0
LINE
  5
284CA
330
747D
100
AcDbEntity
  8
部品1
 48
50.0
100
AcDbLine
 10
11193.60000000001
 20
6733.352470292189
 30
0.0
 11
10993.60000000001
 21
6733.352470292189
 31
0.0
  0
LINE
  5
284CB
330
747D
100
AcDbEntity
  8
センター
 48
2.0
100
AcDbLine
 10
11093.60000000001
 20
6883.352470292189
 30
0.0
 11
11093.60000000001
 21
6783.352470292189
 31
0.0
  0
LINE
  5
284D3
330
747D
100
AcDbEntity
  8
センター
 48
2.0
100
AcDbLine
 10
11795.60000000001
 20
6354.352470292194
 30
0.0
 11
11795.60000000001
 21
6254.352470292193
 31
0.0
  0
CIRCLE
  5
284D4
330
747D
100
AcDbEntity
  8
部品1
 48
50.0
100
AcDbCircle
 10
11795.60000000001
 20
6304.352470292194
 30
0.0
 40
35.0
  0
LINE
  5
284D5
330
747D
100
AcDbEntity
  8
センター
 48
2.0
100
AcDbLine
 10
11745.60000000001
 20
6304.352470292194
 30
0.0
 11
11845.60000000001
 21
6304.352470292194
 31
0.0
  0
LINE
  5
284D6
330
747D
100
AcDbEntity
  8
細線
 48
50.0
100
AcDbLine
 10
11911.08259465825
 20
6721.352470292193
 30
0.0
 11
11918.6
 21
6728.86987563394
 31
0.0
  0
LINE
  5
284D7
330
747D
100
AcDbEntity
  8
細線
 48
50.0
100
AcDbLine
 10
11866.18131405291
 20
6721.352470292194
 30
0.0
 11
11918.6
 21
6773.771156239288
 31
0.0
  0
LINE
  5
284D8
330
747D
100
AcDbEntity
  8
細線
 48
50.0
100
AcDbLine
 10
11821.28003344756
 20
6721.352470292193
 30
0.0
 11
11918.6
 21
6818.672436844633
 31
0.0
  0
LINE
  5
284D9
330
747D
100
AcDbEntity
  8
細線
 48
50.0
100
AcDbLine
 10
11798.59999999999
 20
6743.57371744998
 30
0.0
 11
11918.6
 21
6863.573717449978
 31
0.0
  0
LINE
  5
284DA
330
747D
100
AcDbEntity
  8
部品1
 48
50.0
100
AcDbLine
 10
11918.6
 20
6721.352470292194
 30
0.0
 11
11798.6
 21
6721.352470292195
 31
0.0
  0
DIMENSION
  5
284DB
330
747D
100
AcDbEntity
  8
寸法
 48
50.0
100
AcDbDimension
  2
*D26
 10
9335.600000000003
 20
8212.618928386101
 30
0.0
 11
10565.6
 21
8312.630739409723
 31
0.0
 70
    32
 71
     5
 42
2460.0
  3
INABA_S40G
100
AcDbAlignedDimension
 13
11795.6
 23
7413.35247029219
 33
0.0
 14
9335.600000000003
 24
7413.35247029219
 34
0.0
100
AcDbRotatedDimension
1001
ACAD
1000
DSTYLE
1002
{
1070
   341
1005
0
1002
}
  0
LINE
  5
284DC
330
747D
100
AcDbEntity
  8
細線
 48
50.0
100
AcDbLine
 10
8943.600000000001
 20
7423.277559266022
 30
0.0
 11
9006.674911026161
 21
7486.352470292181
 31
0.0
  0
LINE
  5
284DD
330
747D
100
AcDbEntity
  8
部品1
 48
50.0
100
AcDbLine
 10
8943.600000000001
 20
7486.352470292181
 30
0.0
 11
8943.600000000003
 21
7286.352470292188
 31
0.0
  0
LINE
  5
284DE
330
747D
100
AcDbEntity
  8
部品1
 48
50.0
100
AcDbLine
 10
9143.600000000001
 20
7486.352470292181
 30
0.0
 11
9143.600000000002
 21
7286.352470292188
 31
0.0
  0
LINE
  5
284DF
330
747D
100
AcDbEntity
  8
細線
 48
50.0
100
AcDbLine
 10
8943.600000000003
 20
7288.573717449988
 30
0.0
 11
9141.378752842198
 21
7486.352470292181
 31
0.0
  0
LINE
  5
284E0
330
747D
100
AcDbEntity
  8
細線
 48
50.0
100
AcDbLine
 10
8943.600000000001
 20
7333.474998055331
 30
0.0
 11
9096.477472236854
 21
7486.352470292182
 31
0.0
  0
LINE
  5
284E1
330
747D
100
AcDbEntity
  8
細線
 48
50.0
100
AcDbLine
 10
8943.600000000001
 20
7378.376278660677
 30
0.0
 11
9051.576191631506
 21
7486.352470292181
 31
0.0
  0
LINE
  5
284E2
330
747D
100
AcDbEntity
  8
部品1
 48
50.0
100
AcDbLine
 10
8733.600000000009
 20
6933.352470292189
 30
0.0
 11
8533.60000000001
 21
6933.352470292189
 31
0.0
  0
LINE
  5
284E3
330
747D
100
AcDbEntity
  8
細線
 48
50.0
100
AcDbLine
 10
9031.181314052911
 20
7286.352470292188
 30
0.0
 11
9143.600000000001
 21
7398.771156239295
 31
0.0
  0
LINE
  5
284E4
330
747D
100
AcDbEntity
  8
細線
 48
50.0
100
AcDbLine
 10
8986.280033447549
 20
7286.352470292188
 30
0.0
 11
9143.599999999999
 21
7443.672436844638
 31
0.0
  0
LINE
  5
284E5
330
747D
100
AcDbEntity
  8
細線
 48
50.0
100
AcDbLine
 10
9120.9838752636
 20
7286.352470292186
 30
0.0
 11
9143.600000000002
 21
7308.968595028592
 31
0.0
  0
LINE
  5
284E6
330
747D
100
AcDbEntity
  8
細線
 48
50.0
100
AcDbLine
 10
9076.082594658247
 20
7286.352470292188
 30
0.0
 11
9143.600000000001
 21
7353.869875633941
 31
0.0
  0
LINE
  5
284E7
330
747D
100
AcDbEntity
  8
細線
 48
50.0
100
AcDbLine
 10
8943.600000000001
 20
7468.178839871365
 30
0.0
 11
8961.773630420813
 21
7486.352470292182
 31
0.0
  0
LINE
  5
284E8
330
747D
100
AcDbEntity
  8
細線
 48
50.0
100
AcDbLine
 10
9763.600000000002
 20
7423.277559266022
 30
0.0
 11
9826.674911026161
 21
7486.352470292181
 31
0.0
  0
LINE
  5
284E9
330
747D
100
AcDbEntity
  8
細線
 48
50.0
100
AcDbLine
 10
9763.600000000002
 20
7378.376278660677
 30
0.0
 11
9871.576191631506
 21
7486.352470292181
 31
0.0
  0
LINE
  5
284EA
330
747D
100
AcDbEntity
  8
細線
 48
50.0
100
AcDbLine
 10
9763.600000000003
 20
7333.474998055331
 30
0.0
 11
9916.477472236854
 21
7486.352470292182
 31
0.0
  0
LINE
  5
284EB
330
747D
100
AcDbEntity
  8
細線
 48
50.0
100
AcDbLine
 10
9763.600000000003
 20
7288.573717449988
 30
0.0
 11
9961.378752842199
 21
7486.352470292181
 31
0.0
  0
LINE
  5
284EC
330
747D
100
AcDbEntity
  8
部品1
 48
50.0
100
AcDbLine
 10
9963.600000000001
 20
7486.352470292181
 30
0.0
 11
9963.600000000003
 21
7286.352470292188
 31
0.0
  0
LINE
  5
284ED
330
747D
100
AcDbEntity
  8
部品1
 48
50.0
100
AcDbLine
 10
9763.600000000002
 20
7486.352470292181
 30
0.0
 11
9763.600000000003
 21
7286.352470292188
 31
0.0
  0
LINE
  5
284EE
330
747D
100
AcDbEntity
  8
部品1
 48
50.0
100
AcDbLine
 10
9553.60000000001
 20
6933.352470292189
 30
0.0
 11
9353.60000000001
 21
6933.352470292189
 31
0.0
  0
LINE
  5
284EF
330
747D
100
AcDbEntity
  8
センター
 48
2.0
100
AcDbLine
 10
9335.600000000003
 20
7413.35247029219
 30
0.0
 11
9335.600000000003
 21
7313.352470292191
 31
0.0
  0
CIRCLE
  5
284F0
330
747D
100
AcDbEntity
  8
部品1
 48
50.0
100
AcDbCircle
 10
9335.600000000003
 20
7363.35247029219
 30
0.0
 40
35.0
  0
LINE
  5
284F1
330
747D
100
AcDbEntity
  8
センター
 48
2.0
100
AcDbLine
 10
9285.600000000002
 20
7363.35247029219
 30
0.0
 11
9385.600000000001
 21
7363.35247029219
 31
0.0
  0
LINE
  5
284F2
330
747D
100
AcDbEntity
  8
細線
 48
50.0
100
AcDbLine
 10
9851.18131405291
 20
7286.352470292188
 30
0.0
 11
9963.600000000001
 21
7398.771156239295
 31
0.0
  0
LINE
  5
284F3
330
747D
100
AcDbEntity
  8
細線
 48
50.0
100
AcDbLine
 10
9806.280033447549
 20
7286.352470292188
 30
0.0
 11
9963.599999999999
 21
7443.672436844638
 31
0.0
  0
LINE
  5
284F4
330
747D
100
AcDbEntity
  8
細線
 48
50.0
100
AcDbLine
 10
9896.082594658246
 20
7286.352470292188
 30
0.0
 11
9963.600000000001
 21
7353.869875633941
 31
0.0
  0
LINE
  5
284F5
330
747D
100
AcDbEntity
  8
細線
 48
50.0
100
AcDbLine
 10
9940.983875263601
 20
7286.352470292186
 30
0.0
 11
9963.600000000003
 21
7308.968595028592
 31
0.0
  0
LINE
  5
284F6
330
747D
100
AcDbEntity
  8
細線
 48
50.0
100
AcDbLine
 10
9763.600000000002
 20
7468.178839871365
 30
0.0
 11
9781.773630420815
 21
7486.352470292182
 31
0.0
  0
LINE
  5
284F7
330
747D
100
AcDbEntity
  8
寸法
 48
50.0
100
AcDbLine
 10
8635.555445177931
 20
8212.618928386101
 30
0.0
 11
9335.600000000003
 21
8212.618928386101
 31
0.0
  0
LINE
  5
284F9
330
747D
100
AcDbEntity
  8
細線
 48
50.0
100
AcDbLine
 10
10583.6
 20
7423.277559266022
 30
0.0
 11
10646.67491102616
 21
7486.352470292181
 31
0.0
  0
LINE
  5
284FA
330
747D
100
AcDbEntity
  8
部品1
 48
50.0
100
AcDbLine
 10
10583.6
 20
7486.352470292181
 30
0.0
 11
10583.6
 21
7286.352470292188
 31
0.0
  0
LINE
  5
284FB
330
747D
100
AcDbEntity
  8
部品1
 48
50.0
100
AcDbLine
 10
10783.6
 20
7486.352470292181
 30
0.0
 11
10783.6
 21
7286.352470292188
 31
0.0
  0
LINE
  5
284FC
330
747D
100
AcDbEntity
  8
細線
 48
50.0
100
AcDbLine
 10
10583.6
 20
7288.573717449988
 30
0.0
 11
10781.3787528422
 21
7486.352470292181
 31
0.0
  0
LINE
  5
284FD
330
747D
100
AcDbEntity
  8
細線
 48
50.0
100
AcDbLine
 10
10583.6
 20
7333.474998055331
 30
0.0
 11
10736.47747223685
 21
7486.352470292182
 31
0.0
  0
LINE
  5
284FE
330
747D
100
AcDbEntity
  8
細線
 48
50.0
100
AcDbLine
 10
10583.6
 20
7378.376278660677
 30
0.0
 11
10691.5761916315
 21
7486.352470292181
 31
0.0
  0
LINE
  5
284FF
330
747D
100
AcDbEntity
  8
部品1
 48
50.0
100
AcDbLine
 10
10373.60000000001
 20
6933.352470292189
 30
0.0
 11
10173.60000000001
 21
6933.352470292189
 31
0.0
  0
LINE
  5
28500
330
747D
100
AcDbEntity
  8
細線
 48
50.0
100
AcDbLine
 10
10671.18131405291
 20
7286.352470292188
 30
0.0
 11
10783.6
 21
7398.771156239295
 31
0.0
  0
LINE
  5
28501
330
747D
100
AcDbEntity
  8
細線
 48
50.0
100
AcDbLine
 10
10626.28003344755
 20
7286.352470292188
 30
0.0
 11
10783.6
 21
7443.672436844638
 31
0.0
  0
LINE
  5
28502
330
747D
100
AcDbEntity
  8
細線
 48
50.0
100
AcDbLine
 10
10760.9838752636
 20
7286.352470292186
 30
0.0
 11
10783.6
 21
7308.968595028592
 31
0.0
  0
LINE
  5
28503
330
747D
100
AcDbEntity
  8
細線
 48
50.0
100
AcDbLine
 10
10716.08259465824
 20
7286.352470292188
 30
0.0
 11
10783.6
 21
7353.869875633941
 31
0.0
  0
LINE
  5
28504
330
747D
100
AcDbEntity
  8
細線
 48
50.0
100
AcDbLine
 10
10583.6
 20
7468.178839871365
 30
0.0
 11
10601.77363042081
 21
7486.352470292182
 31
0.0
  0
LINE
  5
28505
330
747D
100
AcDbEntity
  8
細線
 48
50.0
100
AcDbLine
 10
11403.6
 20
7423.277559266022
 30
0.0
 11
11466.67491102616
 21
7486.352470292181
 31
0.0
  0
LINE
  5
28506
330
747D
100
AcDbEntity
  8
細線
 48
50.0
100
AcDbLine
 10
11403.6
 20
7288.573717449988
 30
0.0
 11
11601.3787528422
 21
7486.352470292181
 31
0.0
  0
LINE
  5
28507
330
747D
100
AcDbEntity
  8
細線
 48
50.0
100
AcDbLine
 10
11403.6
 20
7333.474998055331
 30
0.0
 11
11556.47747223685
 21
7486.352470292182
 31
0.0
  0
LINE
  5
28508
330
747D
100
AcDbEntity
  8
細線
 48
50.0
100
AcDbLine
 10
11403.6
 20
7378.376278660677
 30
0.0
 11
11511.5761916315
 21
7486.352470292181
 31
0.0
  0
LINE
  5
28509
330
747D
100
AcDbEntity
  8
部品1
 48
50.0
100
AcDbLine
 10
11403.6
 20
7486.352470292181
 30
0.0
 11
11403.6
 21
7286.352470292188
 31
0.0
  0
LINE
  5
2850A
330
747D
100
AcDbEntity
  8
部品1
 48
50.0
100
AcDbLine
 10
11603.6
 20
7486.352470292181
 30
0.0
 11
11603.6
 21
7286.352470292188
 31
0.0
  0
LINE
  5
2850B
330
747D
100
AcDbEntity
  8
部品1
 48
50.0
100
AcDbLine
 10
11193.60000000001
 20
6933.352470292189
 30
0.0
 11
10993.60000000001
 21
6933.352470292189
 31
0.0
  0
LINE
  5
2850C
330
747D
100
AcDbEntity
  8
細線
 48
50.0
100
AcDbLine
 10
11491.18131405291
 20
7286.352470292188
 30
0.0
 11
11603.6
 21
7398.771156239295
 31
0.0
  0
LINE
  5
2850D
330
747D
100
AcDbEntity
  8
細線
 48
50.0
100
AcDbLine
 10
11446.28003344755
 20
7286.352470292188
 30
0.0
 11
11603.6
 21
7443.672436844638
 31
0.0
  0
LINE
  5
2850E
330
747D
100
AcDbEntity
  8
細線
 48
50.0
100
AcDbLine
 10
11580.9838752636
 20
7286.352470292186
 30
0.0
 11
11603.6
 21
7308.968595028592
 31
0.0
  0
LINE
  5
2850F
330
747D
100
AcDbEntity
  8
細線
 48
50.0
100
AcDbLine
 10
11536.08259465825
 20
7286.352470292188
 30
0.0
 11
11603.6
 21
7353.869875633941
 31
0.0
  0
LINE
  5
28510
330
747D
100
AcDbEntity
  8
細線
 48
50.0
100
AcDbLine
 10
11403.6
 20
7468.178839871365
 30
0.0
 11
11421.77363042081
 21
7486.352470292182
 31
0.0
  0
DIMENSION
  5
28512
330
747D
100
AcDbEntity
  8
寸法
 48
50.0
100
AcDbDimension
  2
*D27
 10
11795.6
 20
8212.618928386101
 30
0.0
 11
12191.7066017178
 21
8212.618928386101
 31
0.0
 70
   160
 71
     5
 42
123.0
  3
INABA_S40G
100
AcDbAlignedDimension
 13
11918.6
 23
7486.352470292189
 33
0.0
 14
11795.6
 24
7413.35247029219
 34
0.0
100
AcDbRotatedDimension
1001
ACAD
1000
DSTYLE
1002
{
1070
   341
1005
0
1002
}
  0
LINE
  5
28514
330
747D
100
AcDbEntity
  8
細線
 48
50.0
100
AcDbLine
 10
11798.6
 20
6878.277559266023
 30
0.0
 11
11841.67491102618
 21
6921.352470292196
 31
0.0
  0
LINE
  5
28515
330
747D
100
AcDbEntity
  8
部品1
 48
50.0
100
AcDbLine
 10
11918.6
 20
6921.352470292196
 30
0.0
 11
11798.6
 21
6921.352470292196
 31
0.0
  0
LINE
  5
28516
330
747D
100
AcDbEntity
  8
センター
 48
2.0
100
AcDbLine
 10
11795.6
 20
7413.35247029219
 30
0.0
 11
11795.6
 21
7313.352470292191
 31
0.0
  0
CIRCLE
  5
28517
330
747D
100
AcDbEntity
  8
部品1
 48
50.0
100
AcDbCircle
 10
11795.6
 20
7363.35247029219
 30
0.0
 40
35.0
  0
LINE
  5
28518
330
747D
100
AcDbEntity
  8
センター
 48
2.0
100
AcDbLine
 10
11745.6
 20
7363.35247029219
 30
0.0
 11
11845.6
 21
7363.35247029219
 31
0.0
  0
DIMENSION
  5
28EFF
330
747D
100
AcDbEntity
  8
寸法
 48
50.0
100
AcDbDimension
  2
*D39
 10
11798.6
 20
7188.514997564836
 30
0.0
 11
12188.65905511812
 21
7188.514997564836
 31
0.0
 70
   160
 71
     5
 42
120.0000000000018
  3
INABA_S40G
100
AcDbAlignedDimension
 13
11918.6
 23
7205.508261603668
 33
0.0
 14
11798.6
 24
7188.514997564836
 34
0.0
100
AcDbRotatedDimension
1001
ACAD
1000
DSTYLE
1002
{
1070
   341
1005
0
1002
}
  0
DIMENSION
  5
28F00
330
747D
100
AcDbEntity
  8
寸法
 48
50.0
100
AcDbDimension
  2
*D40
 10
11345.46950000081
 20
7286.352470292192
 30
0.0
 11
11345.46950000081
 21
7773.316052969352
 31
0.0
 70
   160
 71
     5
 42
199.9999999999945
  3
INABA_S40G
100
AcDbAlignedDimension
 13
11424.53475000041
 23
7486.352470292186
 33
0.0
 14
11424.53475000041
 24
7286.352470292192
 34
0.0
 50
90.0
100
AcDbRotatedDimension
1001
ACAD
1000
DSTYLE
1002
{
1070
   341
1005
0
1002
}
  0
DIMENSION
  5
28F01
330
747D
100
AcDbEntity
  8
寸法
 48
50.0
100
AcDbDimension
  2
*D41
 10
11345.46950000081
 20
6106.352470292216
 30
0.0
 11
11345.46950000081
 21
5819.388887615037
 31
0.0
 70
   160
 71
     5
 42
280.0000000000009
  3
INABA_S40G
100
AcDbAlignedDimension
 13
11432.57322577334
 23
6386.352470292217
 33
0.0
 14
11424.53475000041
 24
6106.352470292216
 34
0.0
 50
90.0
100
AcDbRotatedDimension
1001
ACAD
1000
DSTYLE
1002
{
1070
   341
1005
0
1002
}
  0
DIMENSION
  5
28F02
330
747D
100
AcDbEntity
  8
寸法
 48
50.0
100
AcDbDimension
  2
*D42
 10
3653.721909610675
 20
6051.35247029223
 30
0.0
 11
3553.721909610674
 21
6078.852470292211
 31
0.0
 70
    32
  1
b
 71
     5
 42
54.99999999995907
  3
INABA_S40G
100
AcDbAlignedDimension
 13
4528.599999999999
 23
6106.35247029219
 33
0.0
 14
3905.665006330073
 24
6051.35247029223
 34
0.0
 50
90.0
100
AcDbRotatedDimension
1001
ACAD
1000
DSTYLE
1002
{
1070
   341
1005
0
1002
}
  0
DIMENSION
  5
28F03
330
747D
100
AcDbEntity
  8
寸法
 48
50.0
100
AcDbDimension
  2
*D43
 10
3653.721909610675
 20
7486.352470292205
 30
0.0
 11
3553.721909610673
 21
7523.852470292215
 31
0.0
 70
    32
  1
c
 71
     5
 42
75.0000000000191
  3
INABA_S40G
100
AcDbAlignedDimension
 13
3905.665006330071
 23
7561.352470292224
 33
0.0
 14
4528.599999999999
 24
7486.352470292205
 34
0.0
 50
90.0
100
AcDbRotatedDimension
1001
ACAD
1000
DSTYLE
1002
{
1070
   341
1005
0
1002
}
  0
LINE
  5
28F05
330
747D
100
AcDbEntity
  8
想像線
 48
10.0
100
AcDbLine
 10
11963.6
 20
6051.352470292208
 30
0.0
 11
11963.6
 21
7561.352470292192
 31
0.0
  0
LINE
  5
28F06
330
747D
100
AcDbEntity
  8
想像線
 48
10.0
100
AcDbLine
 10
4483.600000000001
 20
6051.352470292217
 30
0.0
 11
4483.600000000004
 21
7561.352470292208
 31
0.0
  0
DIMENSION
  5
28F08
330
747D
100
AcDbEntity
  8
寸法
 48
50.0
100
AcDbDimension
  2
*D44
 10
4528.599999999999
 20
8444.572792351126
 30
0.0
 11
4212.425378797541
 21
8444.572792351126
 31
0.0
 70
   160
  1
a
 71
     5
 42
44.99999999999636
  3
INABA_S40G
100
AcDbAlignedDimension
 13
4483.600000000004
 23
8212.618928386117
 33
0.0
 14
4528.599999999999
 24
7486.352470292205
 34
0.0
100
AcDbRotatedDimension
1001
ACAD
1000
DSTYLE
1002
{
1070
   341
1005
0
1002
}
  0
DIMENSION
  5
28F09
330
747D
100
AcDbEntity
  8
寸法
 48
50.0
100
AcDbDimension
  2
*D45
 10
11963.6
 20
8444.572792351111
 30
0.0
 11
12234.77462120246
 21
8444.572792351111
 31
0.0
 70
   160
  1
a
 71
     5
 42
45.0
  3
INABA_S40G
100
AcDbAlignedDimension
 13
11918.6
 23
7486.352470292189
 33
0.0
 14
11963.6
 24
8212.618928386101
 34
0.0
100
AcDbRotatedDimension
1001
ACAD
1000
DSTYLE
1002
{
1070
   341
1005
0
1002
}
  0
LEADER
  5
28F0A
330
747D
100
AcDbEntity
  8
寸法
 48
50.0
100
AcDbLeader
  3
INABA_S50G
 73
     0
 74
     0
 75
     1
 40
120.0
 41
149.591883092037
 76
     3
 10
11181.95401106101
 20
6825.706487359328
 30
0.0
 10
11309.23681392366
 20
6602.988173804502
 30
0.0
 10
11434.23681392366
 20
6602.988173804502
 30
0.0
340
28F0B
1001
ACAD
1000
DSTYLE
1002
{
1070
   341
1005
0
1070
    40
1040
1.0
1070
   343
1005
0
1070
   344
1005
0
1002
}
  0
MTEXT
  5
28F0B
102
{ACAD_REACTORS
330
28F0A
102
}
330
747D
100
AcDbEntity
  8
部品1
 62
     7
 48
50.0
100
AcDbMText
 10
11608.82869701569
 20
6687.988173804502
 30
0.0
 40
120.0
 41
0.0
 71
     6
 72
     1
  1
CB
  7
STYLE1
 73
     1
 44
1.0
1001
ACAD
1000
MTEXTBEGIN
1070
    73
1070
     1
1070
    44
1040
1.0
1070
    74
1070
     0
1000
MTEXTEND
  0
LEADER
  5
28F0C
330
747D
100
AcDbEntity
  8
寸法
 48
50.0
100
AcDbLeader
  3
INABA_S50G
 73
     0
 74
     0
 75
     1
 40
120.0
 41
994.3492424049171
 76
     3
 10
11795.680085757
 20
7363.5603146509
 30
0.0
 10
11969.64598830496
 20
7716.965214534697
 30
0.0
 10
12094.64598830496
 20
7716.965214534697
 30
0.0
340
28F0D
1001
ACAD
1000
DSTYLE
1002
{
1070
   341
1005
0
1070
    40
1040
1.0
1070
   343
1005
0
1070
   344
1005
0
1002
}
  0
MTEXT
  5
28F0D
102
{ACAD_REACTORS
330
28F0C
102
}
330
747D
100
AcDbEntity
  8
部品1
 62
     7
 48
50.0
100
AcDbMText
 10
13113.99523070988
 20
7801.965214534696
 30
0.0
 40
120.0
 41
0.0
 71
     6
 72
     1
  1
アンカーボルト
  7
STYLE1
 73
     1
 44
1.0
1001
ACAD
1000
MTEXTBEGIN
1070
    73
1070
     1
1070
    44
1040
1.0
1070
    74
1070
     0
1000
MTEXTEND
  0
LEADER
  5
28F0E
330
747D
100
AcDbEntity
  8
寸法
 48
50.0
100
AcDbLeader
  3
INABA_S50G
 73
     0
 74
     0
 75
     1
 40
120.0
 41
672.0
 76
     3
 10
11968.69831350344
 20
6356.291114370626
 30
0.0
 10
12084.63832569548
 20
6097.40177090705
 30
0.0
 10
12209.63832569548
 20
6097.40177090705
 30
0.0
340
28F0F
1001
ACAD
1000
DSTYLE
1002
{
1070
   341
1005
0
1070
    40
1040
1.0
1070
   343
1005
0
1070
   344
1005
0
1002
}
  0
MTEXT
  5
28F0F
102
{ACAD_REACTORS
330
28F0E
102
}
330
747D
100
AcDbEntity
  8
部品1
 62
     7
 48
50.0
100
AcDbMText
 10
12906.63832569548
 20
6182.40177090705
 30
0.0
 40
120.0
 41
0.0
 71
     6
 72
     1
  1
\A1;屋根の外寸
  7
STYLE1
 73
     1
 44
1.0
1001
ACAD
1000
MTEXTBEGIN
1070
    73
1070
     1
1070
    44
1040
1.0
1070
    74
1070
     0
1000
MTEXTEND
  0
TEXT
  5
28F10
330
747D
100
AcDbEntity
  8
部品1
 48
50.0
100
AcDbText
 10
12108.85112970688
 20
6003.091083973975
 30
0.0
 40
80.0
  1
※a,b,cは屋根の出幅です。
  7
STYLE1
100
AcDbText
  0
TEXT
  5
28F11
330
747D
100
AcDbEntity
  8
部品1
 48
50.0
100
AcDbText
 10
12267.43013846118
 20
5896.245863105221
 30
0.0
 40
80.0
  1
(a=45,b=55,c=75)
  7
STYLE1
100
AcDbText
  0
MTEXT
  5
28F12
102
{ACAD_REACTORS
330
28F13
102
}
330
747D
100
AcDbEntity
  8
部品1
 62
     7
 48
50.0
100
AcDbMText
 10
12945.46907400128
 20
6641.131673469097
 30
0.0
 40
120.0
 41
0.0
 71
     6
 72
     1
  1
\A1;床下換気口
  7
STYLE1
 73
     1
 44
1.0
1001
ACAD
1000
MTEXTBEGIN
1070
    73
1070
     1
1070
    44
1040
1.0
1070
    74
1070
     0
1000
MTEXTEND
  0
LEADER
  5
28F13
330
747D
100
AcDbEntity
  8
寸法
 48
50.0
100
AcDbLeader
  3
INABA_S50G
 73
     0
 74
     0
 75
     1
 40
120.0
 41
720.0000000000001
 76
     3
 10
11918.695499615
 20
6817.145587036929
 30
0.0
 10
12075.46907400128
 20
6556.131673469096
 30
0.0
 10
12200.46907400128
 20
6556.131673469096
 30
0.0
340
28F12
1001
ACAD
1000
DSTYLE
1002
{
1070
   341
1005
0
1070
    40
1040
1.0
1070
   343
1005
0
1070
   344
1005
0
1002
}
  0
LINE
  5
291C8
330
747D
100
AcDbEntity
  8
想像線
 48
10.0
100
AcDbLine
 10
11963.6
 20
6051.352470292208
 30
0.0
 11
4483.600000000001
 21
6051.352470292198
 31
0.0
  0
LINE
  5
291C9
330
747D
100
AcDbEntity
  8
想像線
 48
10.0
100
AcDbLine
 10
11963.6
 20
7561.352470292189
 30
0.0
 11
4483.600000000004
 21
7561.352470292206
 31
0.0
  0
TEXT
  5
29207
330
747D
100
AcDbEntity
  8
文字
 62
     7
 48
50.0
100
AcDbText
 10
7656.74160972716
 20
4525.343220685805
 30
0.0
 40
200.0
  1
〈参 考 図〉
  7
STYLE2
100
AcDbText
  0
TEXT
  5
29218
330
747D
100
AcDbEntity
  8
文字
 62
     7
 48
50.0
100
AcDbText
 10
14251.2
 20
838.2527270729188
 30
0.0
 40
100.0
  1
～一般型・多雪地型・豪雪地型～
  7
STYLE2
100
AcDbText
  0
LINE
  5
29238
330
747D
100
AcDbEntity
  8
部品1
 48
50.0
100
AcDbLine
 10
11798.59999999999
 20
6386.352470292216
 30
0.0
 11
4648.6
 21
6386.352470292186
 31
0.0
  0
LINE
  5
2923A
330
747D
100
AcDbEntity
  8
細線
 48
50.0
100
AcDbLine
 10
5663.599999999996
 20
6329.758350185832
 30
0.0
 11
5720.194120106351
 21
6386.352470292186
 31
0.0
  0
LINE
  5
2923B
330
747D
100
AcDbEntity
  8
細線
 48
50.0
100
AcDbLine
 10
5799.404364949114
 20
6106.352470292188
 30
0.0
 11
5863.6
 21
6170.548105343073
 31
0.0
  0
LINE
  5
2923C
330
747D
100
AcDbEntity
  8
細線
 48
50.0
100
AcDbLine
 10
5844.305645554461
 20
6106.35247029219
 30
0.0
 11
5863.6
 21
6125.646824737727
 31
0.0
  0
LINE
  5
2923D
330
747D
100
AcDbEntity
  8
細線
 48
50.0
100
AcDbLine
 10
5709.60180373842
 20
6106.352470292186
 30
0.0
 11
5863.599999999999
 21
6260.350666553766
 31
0.0
  0
LINE
  5
2923E
330
747D
100
AcDbEntity
  8
細線
 48
50.0
100
AcDbLine
 10
5754.503084343767
 20
6106.352470292186
 30
0.0
 11
5863.599999999999
 21
6215.449385948419
 31
0.0
  0
LINE
  5
2923F
330
747D
100
AcDbEntity
  8
部品1
 48
50.0
100
AcDbLine
 10
5663.599999999995
 20
6386.352470292186
 30
0.0
 11
5663.600000000002
 21
6106.352470292184
 31
0.0
  0
LINE
  5
29240
330
747D
100
AcDbEntity
  8
部品1
 48
50.0
100
AcDbLine
 10
5863.599999999996
 20
6386.352470292187
 30
0.0
 11
5863.600000000002
 21
6106.352470292188
 31
0.0
  0
LINE
  5
29241
330
747D
100
AcDbEntity
  8
細線
 48
50.0
100
AcDbLine
 10
5663.6
 20
6239.955788975148
 30
0.0
 11
5809.996681317038
 21
6386.352470292187
 31
0.0
  0
LINE
  5
29242
330
747D
100
AcDbEntity
  8
細線
 48
50.0
100
AcDbLine
 10
5663.6
 20
6195.054508369803
 30
0.0
 11
5854.897961922386
 21
6386.352470292187
 31
0.0
  0
LINE
  5
29243
330
747D
100
AcDbEntity
  8
細線
 48
50.0
100
AcDbLine
 10
5663.600000000002
 20
6150.15322776446
 30
0.0
 11
5863.599999999997
 21
6350.153227764453
 31
0.0
  0
LINE
  5
29244
330
747D
100
AcDbEntity
  8
細線
 48
50.0
100
AcDbLine
 10
5664.700523133075
 20
6106.352470292186
 30
0.0
 11
5863.599999999998
 21
6305.25194715911
 31
0.0
  0
LINE
  5
29245
330
747D
100
AcDbEntity
  8
細線
 48
50.0
100
AcDbLine
 10
5663.599999999997
 20
6284.857069580485
 30
0.0
 11
5765.095400711699
 21
6386.352470292187
 31
0.0
  0
LINE
  5
29246
330
747D
100
AcDbEntity
  8
細線
 48
50.0
100
AcDbLine
 10
6483.599999999995
 20
6329.758350185832
 30
0.0
 11
6540.194120106351
 21
6386.352470292186
 31
0.0
  0
LINE
  5
29247
330
747D
100
AcDbEntity
  8
細線
 48
50.0
100
AcDbLine
 10
6619.404364949113
 20
6106.352470292188
 30
0.0
 11
6683.6
 21
6170.548105343073
 31
0.0
  0
LINE
  5
29248
330
747D
100
AcDbEntity
  8
細線
 48
50.0
100
AcDbLine
 10
6664.305645554461
 20
6106.35247029219
 30
0.0
 11
6683.6
 21
6125.646824737727
 31
0.0
  0
LINE
  5
29249
330
747D
100
AcDbEntity
  8
細線
 48
50.0
100
AcDbLine
 10
6529.60180373842
 20
6106.352470292186
 30
0.0
 11
6683.599999999998
 21
6260.350666553766
 31
0.0
  0
LINE
  5
2924A
330
747D
100
AcDbEntity
  8
細線
 48
50.0
100
AcDbLine
 10
6574.503084343767
 20
6106.352470292186
 30
0.0
 11
6683.6
 21
6215.449385948419
 31
0.0
  0
LINE
  5
2924B
330
747D
100
AcDbEntity
  8
部品1
 48
50.0
100
AcDbLine
 10
6483.599999999995
 20
6386.352470292186
 30
0.0
 11
6483.600000000002
 21
6106.352470292184
 31
0.0
  0
LINE
  5
2924C
330
747D
100
AcDbEntity
  8
部品1
 48
50.0
100
AcDbLine
 10
6683.599999999995
 20
6386.352470292187
 30
0.0
 11
6683.600000000002
 21
6106.352470292188
 31
0.0
  0
LINE
  5
2924D
330
747D
100
AcDbEntity
  8
細線
 48
50.0
100
AcDbLine
 10
6483.6
 20
6239.955788975148
 30
0.0
 11
6629.996681317037
 21
6386.352470292187
 31
0.0
  0
LINE
  5
2924E
330
747D
100
AcDbEntity
  8
細線
 48
50.0
100
AcDbLine
 10
6483.6
 20
6195.054508369803
 30
0.0
 11
6674.897961922386
 21
6386.352470292187
 31
0.0
  0
LINE
  5
2924F
330
747D
100
AcDbEntity
  8
細線
 48
50.0
100
AcDbLine
 10
6483.600000000002
 20
6150.15322776446
 30
0.0
 11
6683.599999999997
 21
6350.153227764453
 31
0.0
  0
LINE
  5
29250
330
747D
100
AcDbEntity
  8
細線
 48
50.0
100
AcDbLine
 10
6484.700523133075
 20
6106.352470292186
 30
0.0
 11
6683.599999999998
 21
6305.25194715911
 31
0.0
  0
LINE
  5
29251
330
747D
100
AcDbEntity
  8
細線
 48
50.0
100
AcDbLine
 10
6483.599999999997
 20
6284.857069580485
 30
0.0
 11
6585.0954007117
 21
6386.352470292187
 31
0.0
  0
LINE
  5
29252
330
747D
100
AcDbEntity
  8
細線
 48
50.0
100
AcDbLine
 10
7303.599999999995
 20
6329.758350185832
 30
0.0
 11
7360.194120106351
 21
6386.352470292186
 31
0.0
  0
LINE
  5
29253
330
747D
100
AcDbEntity
  8
細線
 48
50.0
100
AcDbLine
 10
7439.404364949114
 20
6106.352470292188
 30
0.0
 11
7503.6
 21
6170.548105343073
 31
0.0
  0
LINE
  5
29254
330
747D
100
AcDbEntity
  8
細線
 48
50.0
100
AcDbLine
 10
7484.305645554461
 20
6106.35247029219
 30
0.0
 11
7503.6
 21
6125.646824737727
 31
0.0
  0
LINE
  5
29255
330
747D
100
AcDbEntity
  8
細線
 48
50.0
100
AcDbLine
 10
7349.60180373842
 20
6106.352470292186
 30
0.0
 11
7503.599999999998
 21
6260.350666553766
 31
0.0
  0
LINE
  5
29256
330
747D
100
AcDbEntity
  8
細線
 48
50.0
100
AcDbLine
 10
7394.503084343767
 20
6106.352470292186
 30
0.0
 11
7503.6
 21
6215.449385948419
 31
0.0
  0
LINE
  5
29257
330
747D
100
AcDbEntity
  8
部品1
 48
50.0
100
AcDbLine
 10
7303.599999999994
 20
6386.352470292186
 30
0.0
 11
7303.600000000002
 21
6106.352470292184
 31
0.0
  0
LINE
  5
29258
330
747D
100
AcDbEntity
  8
部品1
 48
50.0
100
AcDbLine
 10
7503.599999999996
 20
6386.352470292187
 30
0.0
 11
7503.600000000003
 21
6106.352470292188
 31
0.0
  0
LINE
  5
29259
330
747D
100
AcDbEntity
  8
細線
 48
50.0
100
AcDbLine
 10
7303.6
 20
6239.955788975148
 30
0.0
 11
7449.996681317037
 21
6386.352470292187
 31
0.0
  0
LINE
  5
2925A
330
747D
100
AcDbEntity
  8
細線
 48
50.0
100
AcDbLine
 10
7303.6
 20
6195.054508369803
 30
0.0
 11
7494.897961922386
 21
6386.352470292187
 31
0.0
  0
LINE
  5
2925B
330
747D
100
AcDbEntity
  8
細線
 48
50.0
100
AcDbLine
 10
7303.600000000002
 20
6150.15322776446
 30
0.0
 11
7503.599999999997
 21
6350.153227764453
 31
0.0
  0
LINE
  5
2925C
330
747D
100
AcDbEntity
  8
細線
 48
50.0
100
AcDbLine
 10
7304.700523133075
 20
6106.352470292186
 30
0.0
 11
7503.599999999997
 21
6305.25194715911
 31
0.0
  0
LINE
  5
2925D
330
747D
100
AcDbEntity
  8
細線
 48
50.0
100
AcDbLine
 10
7303.599999999997
 20
6284.857069580485
 30
0.0
 11
7405.095400711698
 21
6386.352470292187
 31
0.0
  0
LINE
  5
2925E
330
747D
100
AcDbEntity
  8
細線
 48
50.0
100
AcDbLine
 10
9763.599999999994
 20
6329.758350185828
 30
0.0
 11
9820.19412010637
 21
6386.352470292202
 31
0.0
  0
LINE
  5
2925F
330
747D
100
AcDbEntity
  8
細線
 48
50.0
100
AcDbLine
 10
9944.305645554459
 20
6106.352470292186
 30
0.0
 11
9963.599999999999
 21
6125.646824737724
 31
0.0
  0
LINE
  5
29260
330
747D
100
AcDbEntity
  8
細線
 48
50.0
100
AcDbLine
 10
9899.404364949113
 20
6106.352470292184
 30
0.0
 11
9963.599999999999
 21
6170.54810534307
 31
0.0
  0
LINE
  5
29261
330
747D
100
AcDbEntity
  8
細線
 48
50.0
100
AcDbLine
 10
9809.601803738418
 20
6106.352470292183
 30
0.0
 11
9963.599999999997
 21
6260.350666553763
 31
0.0
  0
LINE
  5
29262
330
747D
100
AcDbEntity
  8
細線
 48
50.0
100
AcDbLine
 10
9854.503084343766
 20
6106.352470292183
 30
0.0
 11
9963.599999999997
 21
6215.449385948415
 31
0.0
  0
LINE
  5
29263
330
747D
100
AcDbEntity
  8
細線
 48
50.0
100
AcDbLine
 10
9763.599999999998
 20
6239.955788975144
 30
0.0
 11
9909.996681317057
 21
6386.352470292204
 31
0.0
  0
LINE
  5
29264
330
747D
100
AcDbEntity
  8
細線
 48
50.0
100
AcDbLine
 10
9763.599999999998
 20
6195.0545083698
 30
0.0
 11
9954.897961922403
 21
6386.352470292204
 31
0.0
  0
LINE
  5
29265
330
747D
100
AcDbEntity
  8
細線
 48
50.0
100
AcDbLine
 10
9763.600000000002
 20
6150.153227764456
 30
0.0
 11
9963.599999999996
 21
6350.153227764449
 31
0.0
  0
LINE
  5
29266
330
747D
100
AcDbEntity
  8
細線
 48
50.0
100
AcDbLine
 10
9764.700523133074
 20
6106.352470292183
 30
0.0
 11
9963.599999999997
 21
6305.251947159106
 31
0.0
  0
LINE
  5
29267
330
747D
100
AcDbEntity
  8
部品1
 48
50.0
100
AcDbLine
 10
9763.599999999991
 20
6386.352470292203
 30
0.0
 11
9763.600000000002
 21
6106.35247029218
 31
0.0
  0
LINE
  5
29268
330
747D
100
AcDbEntity
  8
部品1
 48
50.0
100
AcDbLine
 10
9963.599999999994
 20
6386.352470292204
 30
0.0
 11
9963.600000000001
 21
6106.352470292184
 31
0.0
  0
LINE
  5
29269
330
747D
100
AcDbEntity
  8
細線
 48
50.0
100
AcDbLine
 10
9763.599999999996
 20
6284.857069580481
 30
0.0
 11
9865.095400711718
 21
6386.352470292203
 31
0.0
  0
LINE
  5
2926A
330
747D
100
AcDbEntity
  8
細線
 48
50.0
100
AcDbLine
 10
10583.59999999999
 20
6329.758350185828
 30
0.0
 11
10640.19412010637
 21
6386.352470292202
 31
0.0
  0
LINE
  5
2926B
330
747D
100
AcDbEntity
  8
細線
 48
50.0
100
AcDbLine
 10
10764.30564555446
 20
6106.352470292186
 30
0.0
 11
10783.6
 21
6125.646824737724
 31
0.0
  0
LINE
  5
2926C
330
747D
100
AcDbEntity
  8
細線
 48
50.0
100
AcDbLine
 10
10719.40436494911
 20
6106.352470292184
 30
0.0
 11
10783.6
 21
6170.54810534307
 31
0.0
  0
LINE
  5
2926D
330
747D
100
AcDbEntity
  8
細線
 48
50.0
100
AcDbLine
 10
10629.60180373842
 20
6106.352470292183
 30
0.0
 11
10783.59999999999
 21
6260.350666553763
 31
0.0
  0
LINE
  5
2926E
330
747D
100
AcDbEntity
  8
細線
 48
50.0
100
AcDbLine
 10
10674.50308434376
 20
6106.352470292183
 30
0.0
 11
10783.59999999999
 21
6215.449385948415
 31
0.0
  0
LINE
  5
2926F
330
747D
100
AcDbEntity
  8
細線
 48
50.0
100
AcDbLine
 10
10583.6
 20
6239.955788975144
 30
0.0
 11
10729.99668131705
 21
6386.352470292204
 31
0.0
  0
LINE
  5
29270
330
747D
100
AcDbEntity
  8
細線
 48
50.0
100
AcDbLine
 10
10583.6
 20
6195.0545083698
 30
0.0
 11
10774.8979619224
 21
6386.352470292204
 31
0.0
  0
LINE
  5
29271
330
747D
100
AcDbEntity
  8
細線
 48
50.0
100
AcDbLine
 10
10583.6
 20
6150.153227764456
 30
0.0
 11
10783.59999999999
 21
6350.153227764449
 31
0.0
  0
LINE
  5
29272
330
747D
100
AcDbEntity
  8
細線
 48
50.0
100
AcDbLine
 10
10584.70052313307
 20
6106.352470292183
 30
0.0
 11
10783.59999999999
 21
6305.251947159106
 31
0.0
  0
LINE
  5
29273
330
747D
100
AcDbEntity
  8
部品1
 48
50.0
100
AcDbLine
 10
10583.59999999999
 20
6386.352470292203
 30
0.0
 11
10583.6
 21
6106.35247029218
 31
0.0
  0
LINE
  5
29274
330
747D
100
AcDbEntity
  8
部品1
 48
50.0
100
AcDbLine
 10
10783.59999999999
 20
6386.352470292204
 30
0.0
 11
10783.6
 21
6106.352470292184
 31
0.0
  0
LINE
  5
29275
330
747D
100
AcDbEntity
  8
細線
 48
50.0
100
AcDbLine
 10
10583.59999999999
 20
6284.857069580481
 30
0.0
 11
10685.09540071172
 21
6386.352470292203
 31
0.0
  0
LINE
  5
29276
330
747D
100
AcDbEntity
  8
細線
 48
50.0
100
AcDbLine
 10
11403.59999999999
 20
6329.758350185828
 30
0.0
 11
11460.19412010637
 21
6386.352470292202
 31
0.0
  0
LINE
  5
29277
330
747D
100
AcDbEntity
  8
細線
 48
50.0
100
AcDbLine
 10
11584.30564555446
 20
6106.352470292186
 30
0.0
 11
11603.6
 21
6125.646824737724
 31
0.0
  0
LINE
  5
29278
330
747D
100
AcDbEntity
  8
細線
 48
50.0
100
AcDbLine
 10
11539.40436494911
 20
6106.352470292184
 30
0.0
 11
11603.6
 21
6170.54810534307
 31
0.0
  0
LINE
  5
29279
330
747D
100
AcDbEntity
  8
細線
 48
50.0
100
AcDbLine
 10
11449.60180373842
 20
6106.352470292183
 30
0.0
 11
11603.6
 21
6260.350666553763
 31
0.0
  0
LINE
  5
2927A
330
747D
100
AcDbEntity
  8
細線
 48
50.0
100
AcDbLine
 10
11494.50308434376
 20
6106.352470292183
 30
0.0
 11
11603.6
 21
6215.449385948415
 31
0.0
  0
LINE
  5
2927B
330
747D
100
AcDbEntity
  8
細線
 48
50.0
100
AcDbLine
 10
11403.6
 20
6239.955788975144
 30
0.0
 11
11549.99668131705
 21
6386.352470292204
 31
0.0
  0
LINE
  5
2927C
330
747D
100
AcDbEntity
  8
細線
 48
50.0
100
AcDbLine
 10
11403.6
 20
6195.0545083698
 30
0.0
 11
11594.8979619224
 21
6386.352470292204
 31
0.0
  0
LINE
  5
2927D
330
747D
100
AcDbEntity
  8
細線
 48
50.0
100
AcDbLine
 10
11403.6
 20
6150.153227764456
 30
0.0
 11
11603.59999999999
 21
6350.153227764449
 31
0.0
  0
LINE
  5
2927E
330
747D
100
AcDbEntity
  8
細線
 48
50.0
100
AcDbLine
 10
11404.70052313307
 20
6106.352470292183
 30
0.0
 11
11603.6
 21
6305.251947159106
 31
0.0
  0
LINE
  5
2927F
330
747D
100
AcDbEntity
  8
部品1
 48
50.0
100
AcDbLine
 10
11403.59999999999
 20
6386.352470292203
 30
0.0
 11
11403.6
 21
6106.35247029218
 31
0.0
  0
LINE
  5
29280
330
747D
100
AcDbEntity
  8
部品1
 48
50.0
100
AcDbLine
 10
11603.59999999999
 20
6386.352470292204
 30
0.0
 11
11603.6
 21
6106.352470292184
 31
0.0
  0
LINE
  5
29281
330
747D
100
AcDbEntity
  8
細線
 48
50.0
100
AcDbLine
 10
11403.59999999999
 20
6284.857069580481
 30
0.0
 11
11505.09540071172
 21
6386.352470292203
 31
0.0
  0
LINE
  5
29316
330
747D
100
AcDbEntity
  8
部品1
 48
50.0
100
AcDbLine
 10
11798.6
 20
6386.352470292218
 30
0.0
 11
11798.6
 21
7286.352470292183
 31
0.0
  0
LINE
  5
29319
330
747D
100
AcDbEntity
  8
部品1
 48
50.0
100
AcDbLine
 10
4648.6
 20
6386.352470292186
 30
0.0
 11
4648.599999999997
 21
7286.35247029219
 31
0.0
  0
LINE
  5
2949D
330
747D
100
AcDbEntity
  8
部品1
100
AcDbLine
 10
11235.25881061927
 20
3268.69788286068
 30
0.0
 11
5164.273625233015
 21
3268.69788286068
 31
0.0
  0
LINE
  5
2949E
330
747D
100
AcDbEntity
  8
部品1
100
AcDbLine
 10
11235.25881061926
 20
3028.697882860679
 30
0.0
 11
5164.273625233018
 21
3028.697882860679
 31
0.0
  0
LINE
  5
2949F
330
747D
100
AcDbEntity
  8
部品1
100
AcDbLine
 10
5164.273625233019
 20
304.3909132760337
 30
0.0
 11
11235.25881061926
 21
304.3909132760337
 31
0.0
  0
LEADER
  5
294A0
330
747D
100
AcDbEntity
  8
寸法
 48
50.0
100
AcDbLeader
  3
INABA_S50G
 73
     0
 74
     0
 75
     1
 40
102.2727272727273
 41
680.0000000000001
 76
     3
 10
8172.381377219473
 20
2268.234496769238
 30
0.0
 10
8206.735348332831
 20
2678.687307875779
 30
0.0
 10
8331.735348332831
 20
2678.687307875779
 30
0.0
340
294A1
1001
ACAD
1000
DSTYLE
1002
{
1070
   341
1005
0
1070
    40
1040
1.0
1070
   343
1005
0
1070
   344
1005
0
1002
}
  0
MTEXT
  5
294A1
102
{ACAD_REACTORS
330
294A0
102
}
330
747D
100
AcDbEntity
  8
部品1
 62
     7
 48
50.0
100
AcDbMText
 10
8356.735348332831
 20
2754.823671512143
 30
0.0
 40
80.0
 41
0.8
 71
     4
 72
     1
  1
\A1;ナット(市販品)
  7
STYLE2
 73
     1
 44
1.0
1001
ACAD
1000
MTEXTBEGIN
1070
    73
1070
     1
1070
    44
1040
1.0
1070
    74
1070
     0
1000
MTEXTEND
  0
LEADER
  5
294A2
330
747D
100
AcDbEntity
  8
寸法
 48
50.0
100
AcDbLeader
  3
INABA_S50G
 73
     0
 74
     0
 75
     1
 40
102.2727272727273
 41
906.8181818181818
 76
     3
 10
8196.381377219474
 20
2138.482504104375
 30
0.0
 10
8238.252967588312
 20
2493.718225110992
 30
0.0
 10
8363.252967588312
 20
2493.718225110992
 30
0.0
340
294A3
1001
ACAD
1000
DSTYLE
1002
{
1070
   341
1005
0
1070
    40
1040
1.0
1070
   343
1005
0
1070
   344
1005
0
1002
}
  0
MTEXT
  5
294A3
102
{ACAD_REACTORS
330
294A2
102
}
330
747D
100
AcDbEntity
  8
部品1
 62
     7
 48
50.0
100
AcDbMText
 10
8388.252967588313
 20
2569.854588747356
 30
0.0
 40
80.0
 41
0.8
 71
     4
 72
     1
  1
\A1;ワッシャー(市販品)
  7
STYLE2
 73
     1
 44
1.0
1001
ACAD
1000
MTEXTBEGIN
1070
    73
1070
     1
1070
    44
1040
1.0
1070
    74
1070
     0
1000
MTEXTEND
  0
LWPOLYLINE
  5
294A4
330
747D
100
AcDbEntity
  8
部品1
 48
50.0
100
AcDbPolyline
 90
        2
 70
     0
 43
8.0
 10
8348.981377219471
 20
1629.359215660096
 10
8642.683840618856
 20
1629.359215660096
  0
TEXT
  5
294A5
330
747D
100
AcDbEntity
  8
部品1
 48
50.0
100
AcDbText
 10
8353.3349615039
 20
2225.237896422295
 30
0.0
 40
80.0
  1
基礎ボルト(市販品)
  7
STYLE2
100
AcDbText
  0
DIMENSION
  5
294A6
330
747D
100
AcDbEntity
  8
寸法
 48
50.0
100
AcDbDimension
  2
*D46
 10
8850.849976988317
 20
1545.359215660094
 30
0.0
 11
8750.849976988318
 21
1707.359215660096
 31
0.0
 70
    32
  1
180
 71
     5
 42
324.0000000000009
  3
INABA_S40G
100
AcDbAlignedDimension
 13
8348.981377219471
 23
1869.359215660095
 33
0.0
 14
8348.981377219471
 24
1545.359215660094
 34
0.0
 50
90.0
100
AcDbRotatedDimension
1001
ACAD
1000
DSTYLE
1002
{
1070
   341
1005
0
1002
}
  0
DIMENSION
  5
294A7
330
747D
100
AcDbEntity
  8
寸法
 48
50.0
100
AcDbDimension
  2
*D47
 10
9126.904643107343
 20
1869.359215660095
 30
0.0
 11
9126.904643107343
 21
1403.350312238613
 31
0.0
 70
   160
  1
20～25
 71
     5
 42
52.76000000000113
  3
INABA_S40G
100
AcDbAlignedDimension
 13
8161.781377219474
 23
1922.119215660096
 33
0.0
 14
8348.981377219471
 24
1869.359215660095
 34
0.0
 50
90.0
100
AcDbRotatedDimension
1001
ACAD
1000
DSTYLE
1002
{
1070
   341
1005
0
1002
}
  0
MTEXT
  5
294A8
102
{ACAD_REACTORS
330
294A9
102
}
330
747D
100
AcDbEntity
  8
部品1
 62
     7
 48
50.0
100
AcDbMText
 10
8357.925839638793
 20
2133.742541813326
 30
0.0
 40
80.0
 41
0.8
 71
     4
 72
     1
  1
M10X160
  7
STYLE2
 73
     1
 44
1.0
1001
ACAD
1000
MTEXTBEGIN
1070
    73
1070
     1
1070
    44
1040
1.0
1070
    74
1070
     0
1000
MTEXTEND
  0
LEADER
  5
294A9
330
747D
100
AcDbEntity
  8
寸法
 48
50.0
100
AcDbLeader
  3
INABA_S50G
 73
     0
 74
     0
 75
     1
 40
80.0
 41
435.0
 76
     3
 10
8165.381377219473
 20
1918.519215660096
 30
0.0
 10
8207.925839638793
 20
2068.742541813325
 30
0.0
 10
8332.925839638793
 20
2068.742541813325
 30
0.0
340
294A8
1001
ACAD
1000
DSTYLE
1002
{
1070
   341
1005
0
1070
    40
1040
1.0
1070
   343
1005
0
1070
   344
1005
0
1002
}
  0
LINE
  5
294AA
330
747D
100
AcDbEntity
  8
部品1
100
AcDbLine
 10
5164.273625233016
 20
3268.69788286068
 30
0.0
 11
5164.273625233018
 21
304.3909132760337
 31
0.0
  0
LEADER
  5
294AB
330
747D
100
AcDbEntity
  8
寸法
 48
50.0
100
AcDbLeader
  3
INABA_S50G
 73
     0
 75
     1
 40
113.1818181818182
 41
608.6363636363635
 76
     3
 10
8125.118127357524
 20
1818.874889018374
 30
0.0
 10
7991.314298666175
 20
2670.253971374852
 30
0.0
 10
7866.314298666175
 20
2670.253971374852
 30
0.0
340
294AC
1001
ACAD
1000
DSTYLE
1002
{
1070
   341
1005
0
1070
    40
1040
1.0
1070
   343
1005
0
1070
   344
1005
0
1002
}
  0
MTEXT
  5
294AC
102
{ACAD_REACTORS
330
294AB
102
}
330
747D
100
AcDbEntity
  8
寸法
 62
     7
 48
50.0
100
AcDbMText
 10
7841.314298666175
 20
2751.844880465761
 30
0.0
 40
80.0
 41
0.8
 71
     6
 72
     1
  1
\A1;φ70スリーブ
  7
STYLE2
 73
     1
 44
1.0
1001
ACAD
1000
MTEXTBEGIN
1070
    73
1070
     1
1070
    44
1040
1.0
1070
    74
1070
     0
1000
MTEXTEND
  0
LWPOLYLINE
  5
294AD
330
747D
100
AcDbEntity
  8
部品1
 48
50.0
100
AcDbPolyline
 90
        2
 70
     0
 43
8.0
 10
5820.802162209322
 20
1629.359215660096
 10
6234.942064042279
 20
1629.359215660096
  0
TEXT
  5
294AE
330
747D
100
AcDbEntity
  8
部品1
 48
50.0
100
AcDbText
 10
5820.802162209322
 20
1640.598207943351
 30
0.0
 40
80.0
  1
▽G.L
  7
STYLE2
100
AcDbText
  0
DIMENSION
  5
294AF
330
747D
100
AcDbEntity
  8
寸法
 48
50.0
100
AcDbDimension
  2
*D48
 10
5964.52175030982
 20
1085.359215660095
 30
0.0
 11
5964.52175030982
 21
1205.359215660096
 31
0.0
 70
   160
  1
150
 71
     5
 42
240.0
  3
INABA_S40G
100
AcDbAlignedDimension
 13
6106.942064042279
 23
1325.359215660095
 33
0.0
 14
6026.942064042282
 24
1085.359215660095
 34
0.0
 50
90.0
100
AcDbRotatedDimension
1001
ACAD
1000
DSTYLE
1002
{
1070
   341
1005
0
1002
}
  0
LEADER
  5
294B0
330
747D
100
AcDbEntity
  8
寸法
 48
50.0
100
AcDbLeader
  3
INABA_S50G
 71
     0
 73
     0
 75
     1
 40
100.0
 41
225.0
 76
     3
 10
6202.845016394422
 20
1205.359215660095
 30
0.0
 10
6081.007037847085
 20
941.8365220416589
 30
0.0
 10
5956.007037847085
 20
941.8365220416589
 30
0.0
1001
ACAD
1000
DSTYLE
1002
{
1070
    40
1040
1.0
1070
   272
1070
     1
1070
   279
1070
     1
1070
   341
1005
0
1002
}
  0
LEADER
  5
294B1
330
747D
100
AcDbEntity
  8
寸法
 48
50.0
100
AcDbLeader
  3
INABA_S50G
 71
     0
 73
     0
 75
     1
 40
100.0
 41
222.7272727272727
 76
     3
 10
6330.942064042279
 20
1205.359215660095
 30
0.0
 10
6109.129765404519
 20
761.5203695022155
 30
0.0
 10
5984.129765404519
 20
761.5203695022155
 30
0.0
1001
ACAD
1000
DSTYLE
1002
{
1070
    40
1040
1.0
1070
   272
1070
     1
1070
   279
1070
     1
1070
   341
1005
0
1002
}
  0
MTEXT
  5
294B2
102
{ACAD_REACTORS
330
294B3
102
}
330
747D
100
AcDbEntity
  8
寸法
 62
     7
 48
50.0
100
AcDbMText
 10
6145.692009819474
 20
1470.659818477552
 30
0.0
 40
80.0
 41
0.8
 71
     6
 72
     1
  1
\A1;D10@300
  7
STYLE2
 73
     1
 44
1.0
1001
ACAD
1000
MTEXTBEGIN
1070
    73
1070
     1
1070
    44
1040
1.0
1070
    74
1070
     0
1000
MTEXTEND
  0
LEADER
  5
294B3
330
747D
100
AcDbEntity
  8
寸法
 48
50.0
100
AcDbLeader
  3
INABA_S50G
 71
     0
 73
     0
 75
     1
 40
100.0
 41
540.3409090909091
 76
     3
 10
6338.942064042278
 20
1627.486430357218
 30
0.0
 10
6280.95982751358
 20
1406.016101816413
 30
0.0
 10
6155.95982751358
 20
1406.016101816413
 30
0.0
213
-9.732182305893367
223
-4.643716661138569
233
0.0
1001
ACAD
1000
DSTYLE
1002
{
1070
    40
1040
1.0
1070
   272
1070
     1
1070
   279
1070
     1
1070
   341
1005
0
1002
}
  0
LEADER
  5
294B4
330
747D
100
AcDbEntity
  8
寸法
 48
50.0
100
AcDbLeader
  3
INABA_S50G
 71
     0
 73
     0
 75
     1
 40
130.1136363636363
 41
651.1363636363636
 76
     3
 10
6314.942064042279
 20
1869.359215660095
 30
0.0
 10
6202.517483878263
 20
2009.829981116684
 30
0.0
 10
6077.517483878263
 20
2009.829981116684
 30
0.0
1001
ACAD
1000
DSTYLE
1002
{
1070
    40
1040
1.0
1070
   272
1070
     1
1070
   279
1070
     1
1070
   341
1005
0
1002
}
  0
MTEXT
  5
294B5
102
{ACAD_REACTORS
330
294B4
102
}
330
747D
100
AcDbEntity
  8
寸法
 62
     7
 48
50.0
100
AcDbMText
 10
6014.843584559006
 20
2081.875435662138
 30
0.0
 40
80.0
 41
0.8
 71
     6
 72
     1
  1
\A1;金コテ押エ
  7
STYLE2
 73
     1
 44
1.0
1001
ACAD
1000
MTEXTBEGIN
1070
    73
1070
     1
1070
    44
1040
1.0
1070
    74
1070
     0
1000
MTEXTEND
  0
DIMENSION
  5
294B6
330
747D
100
AcDbEntity
  8
寸法
 48
50.0
100
AcDbDimension
  2
*D49
 10
5499.904825480538
 20
1085.359215660095
 30
0.0
 11
5499.904825480538
 21
1456.899365316096
 31
0.0
 70
   160
  1
540
 71
     5
 42
784.0
  3
INABA_S40G
100
AcDbAlignedDimension
 13
6234.942064042279
 23
1869.359215660095
 33
0.0
 14
6026.942064042282
 24
1085.359215660095
 34
0.0
 50
90.0
100
AcDbRotatedDimension
1001
ACAD
1000
DSTYLE
1002
{
1070
   341
1005
0
1002
}
  0
MTEXT
  5
294B7
102
{ACAD_REACTORS
330
294B1
102
}
330
747D
100
AcDbEntity
  8
寸法
 62
     7
 48
50.0
100
AcDbMText
 10
5964.12976540452
 20
821.5203695022156
 30
0.0
 40
80.0
 41
0.8
 71
     6
 72
     1
  1
D13
  7
STYLE2
 73
     1
 44
1.0
1001
ACAD
1000
MTEXTBEGIN
1070
    73
1070
     1
1070
    44
1040
1.0
1070
    74
1070
     0
1000
MTEXTEND
  0
MTEXT
  5
294B8
102
{ACAD_REACTORS
330
294B0
102
}
330
747D
100
AcDbEntity
  8
寸法
 62
     7
 48
50.0
100
AcDbMText
 10
5936.007037847084
 20
1001.836522041659
 30
0.0
 40
80.0
 41
0.8
 71
     6
 72
     1
  1
D10
  7
STYLE2
 73
     1
 44
1.0
1001
ACAD
1000
MTEXTBEGIN
1070
    73
1070
     1
1070
    44
1040
1.0
1070
    74
1070
     0
1000
MTEXTEND
  0
DIMENSION
  5
294B9
330
747D
100
AcDbEntity
  8
寸法
 48
50.0
100
AcDbDimension
  2
*D50
 10
6554.942064042278
 20
546.9295776549351
 30
0.0
 11
6310.845305364055
 21
546.9295776549351
 31
0.0
 70
   160
  1
300
 71
     5
 42
448.0
  3
INABA_S40G
100
AcDbAlignedDimension
 13
6106.942064042279
 23
957.3592156600952
 33
0.0
 14
6554.942064042278
 24
957.3592156600952
 34
0.0
100
AcDbRotatedDimension
1001
ACAD
1000
DSTYLE
1002
{
1070
   341
1005
0
1002
}
  0
MTEXT
  5
294BA
102
{ACAD_REACTORS
330
294BB
102
}
330
747D
100
AcDbEntity
  8
寸法
 62
     7
 48
50.0
100
AcDbMText
 10
7867.957304874534
 20
2391.160608558247
 30
0.0
 40
80.0
 41
0.8
 71
     6
 72
     1
  1
\A1;アンカープレート L
  7
STYLE2
 73
     1
 44
1.0
1001
ACAD
1000
MTEXTBEGIN
1070
    73
1070
     1
1070
    44
1040
1.0
1070
    74
1070
     0
1000
MTEXTEND
  0
LEADER
  5
294BB
330
747D
100
AcDbEntity
  8
寸法
 48
50.0
100
AcDbLeader
  3
INABA_S50G
 73
     0
 75
     1
 40
106.3636363636363
 41
893.1818181818181
 76
     3
 10
8066.381377219475
 20
1938.919215660096
 30
0.0
 10
8017.957304874533
 20
2312.978790376428
 30
0.0
 10
7892.957304874534
 20
2312.978790376428
 30
0.0
340
294BA
1001
ACAD
1000
DSTYLE
1002
{
1070
   341
1005
0
1070
    40
1040
1.0
1070
   343
1005
0
1070
   344
1005
0
1002
}
  0
LINE
  5
294BC
330
747D
100
AcDbEntity
  8
細線
 48
50.0
100
AcDbLine
 10
6354.94206404228
 20
1707.732108327926
 30
0.0
 11
6426.942064042279
 21
1779.732108327926
 31
0.0
  0
ARC
  5
294BD
330
747D
100
AcDbEntity
  8
部品1
 48
50.0
100
AcDbCircle
 10
6330.942064042279
 20
1729.613645054341
 30
0.0
 40
24.0
100
AcDbArc
 50
0.0
 51
180.0
  0
CIRCLE
  5
294BE
330
747D
100
AcDbEntity
  8
部品1
 48
50.0
100
AcDbCircle
 10
6330.942064042279
 20
1729.613645054341
 30
0.0
 40
8.0
  0
LINE
  5
294BF
330
747D
100
AcDbEntity
  8
部品1
 48
50.0
100
AcDbLine
 10
6234.94206404228
 20
1325.359215660095
 30
0.0
 11
6234.94206404228
 21
1869.359215660095
 31
0.0
  0
LINE
  5
294C0
330
747D
100
AcDbEntity
  8
部品1
 48
50.0
100
AcDbLine
 10
6426.942064042279
 20
1869.359215660095
 30
0.0
 11
6426.942064042279
 21
1325.359215660095
 31
0.0
  0
MTEXT
  5
294C1
102
{ACAD_REACTORS
330
294C6
102
}
330
747D
100
AcDbEntity
  8
寸法
 62
     7
 48
50.0
100
AcDbMText
 10
6509.828001069674
 20
1891.915114952906
 30
0.0
 40
80.0
 41
0.8
 71
     4
 72
     1
  1
D13
  7
STYLE2
 73
     1
 44
1.0
1001
ACAD
1000
MTEXTBEGIN
1070
    73
1070
     1
1070
    44
1040
1.0
1070
    74
1070
     0
1000
MTEXTEND
  0
LEADER
  5
294C2
330
747D
100
AcDbEntity
  8
寸法
 48
50.0
100
AcDbLeader
  3
INABA_S50G
 71
     0
 73
     0
 74
     0
 75
     1
 40
100.0
 41
225.0
 76
     3
 10
6458.845016394421
 20
1205.359215660095
 30
0.0
 10
6513.269723848964
 20
1109.962146717123
 30
0.0
 10
6638.269723848964
 20
1109.962146717123
 30
0.0
1001
ACAD
1000
DSTYLE
1002
{
1070
    40
1040
1.0
1070
   272
1070
     1
1070
   279
1070
     1
1070
   341
1005
0
1002
}
  0
LEADER
  5
294C3
330
747D
100
AcDbEntity
  8
寸法
 48
50.0
100
AcDbLeader
  3
INABA_S50G
 71
     0
 73
     0
 74
     0
 75
     1
 40
100.0
 41
540.3409090909091
 76
     3
 10
6404.887233055453
 20
1188.61868524657
 30
0.0
 10
6523.68051990353
 20
846.9878672516724
 30
0.0
 10
6648.68051990353
 20
846.9878672516724
 30
0.0
213
0.0
223
-1.022262676269383
233
0.0
1001
ACAD
1000
DSTYLE
1002
{
1070
    40
1040
1.0
1070
   272
1070
     1
1070
   279
1070
     1
1070
   341
1005
0
1002
}
  0
MTEXT
  5
294C4
102
{ACAD_REACTORS
330
294C2
102
}
330
747D
100
AcDbEntity
  8
寸法
 62
     7
 48
50.0
100
AcDbMText
 10
6658.269723848964
 20
1169.962146717123
 30
0.0
 40
80.0
 41
0.8
 71
     4
 72
     1
  1
D10
  7
STYLE2
 73
     1
 44
1.0
1001
ACAD
1000
MTEXTBEGIN
1070
    73
1070
     1
1070
    44
1040
1.0
1070
    74
1070
     0
1000
MTEXTEND
  0
LWPOLYLINE
  5
294C5
330
747D
100
AcDbEntity
  8
部品1
 48
50.0
100
AcDbPolyline
 90
        2
 70
     0
 43
8.0
 10
6426.942064042279
 20
1629.359215660096
 10
6841.081965875236
 20
1629.359215660096
  0
LEADER
  5
294C6
330
747D
100
AcDbEntity
  8
寸法
 48
50.0
100
AcDbLeader
  3
INABA_S50G
 71
     0
 73
     0
 74
     0
 75
     1
 40
100.0
 41
222.7272727272727
 76
     3
 10
6330.942064042279
 20
1729.613645054341
 30
0.0
 10
6384.828001069673
 20
1828.849217907514
 30
0.0
 10
6509.828001069674
 20
1828.849217907514
 30
0.0
1001
ACAD
1000
DSTYLE
1002
{
1070
    40
1040
1.0
1070
   272
1070
     1
1070
   279
1070
     1
1070
   341
1005
0
1002
}
  0
LINE
  5
294C7
330
747D
100
AcDbEntity
  8
細線
 48
50.0
100
AcDbLine
 10
6106.942064042272
 20
1244.205961422266
 30
0.0
 11
6188.095318280108
 21
1325.359215660095
 31
0.0
  0
LINE
  5
294C8
330
747D
100
AcDbEntity
  8
細線
 48
50.0
100
AcDbLine
 10
6314.807911519683
 20
1263.486430357217
 30
0.0
 11
6338.942064042285
 21
1287.620582879816
 31
0.0
  0
LINE
  5
294C9
330
747D
100
AcDbEntity
  8
細線
 48
50.0
100
AcDbLine
 10
6221.739928459352
 20
1197.359215660095
 30
0.0
 11
6338.94206404228
 21
1314.561351243021
 31
0.0
  0
LINE
  5
294CA
330
747D
100
AcDbEntity
  8
部品1
 48
50.0
100
AcDbLine
 10
6106.94206404228
 20
1085.359215660095
 30
0.0
 11
6106.94206404228
 21
1325.359215660095
 31
0.0
  0
LINE
  5
294CB
330
747D
100
AcDbEntity
  8
細線
 48
50.0
100
AcDbLine
 10
6464.206843728224
 20
1197.359215660095
 30
0.0
 11
6554.942064042279
 21
1288.094435974154
 31
0.0
  0
LINE
  5
294CC
330
747D
100
AcDbEntity
  8
細線
 48
50.0
100
AcDbLine
 10
6437.266075365006
 20
1197.359215660095
 30
0.0
 11
6554.942064042279
 21
1315.035204337361
 31
0.0
  0
LINE
  5
294CD
330
747D
100
AcDbEntity
  8
部品1
 48
50.0
100
AcDbLine
 10
6554.942064042279
 20
1325.359215660095
 30
0.0
 11
6554.942064042279
 21
1085.359215660095
 31
0.0
  0
LINE
  5
294CE
330
747D
100
AcDbEntity
  8
部品1
 48
50.0
100
AcDbLine
 10
6354.942064042285
 20
1205.359215660095
 30
0.0
 11
6354.94206404228
 21
1729.613645054341
 31
0.0
  0
LINE
  5
294CF
330
747D
100
AcDbEntity
  8
部品1
 48
50.0
100
AcDbLine
 10
6338.942064042285
 20
1205.359215660095
 30
0.0
 11
6338.942064042272
 21
1729.613645054341
 31
0.0
  0
LINE
  5
294D0
330
747D
100
AcDbEntity
  8
細線
 48
50.0
100
AcDbLine
 10
6322.94206404228
 20
1244.679814516606
 30
0.0
 11
6338.942064042285
 21
1260.679814516606
 31
0.0
  0
LINE
  5
294D1
330
747D
100
AcDbEntity
  8
細線
 48
50.0
100
AcDbLine
 10
6312.124903538293
 20
957.3592156600952
 30
0.0
 11
6346.422400169476
 21
1085.359215660095
 31
0.0
  0
LINE
  5
294D2
330
747D
100
AcDbEntity
  8
部品1
 48
50.0
100
AcDbLine
 10
6634.942064042284
 20
957.3592156600952
 30
0.0
 11
6026.942064042281
 21
957.3592156600952
 31
0.0
  0
LINE
  5
294D3
330
747D
100
AcDbEntity
  8
部品1
 48
50.0
100
AcDbLine
 10
6162.94206404228
 20
1181.359215660095
 30
0.0
 11
6498.942064042279
 21
1181.359215660095
 31
0.0
  0
LINE
  5
294D4
330
747D
100
AcDbEntity
  8
部品1
 48
50.0
100
AcDbLine
 10
6162.94206404228
 20
1197.359215660095
 30
0.0
 11
6498.942064042279
 21
1197.359215660095
 31
0.0
  0
LINE
  5
294D5
330
747D
100
AcDbEntity
  8
部品1
 48
50.0
100
AcDbLine
 10
6634.942064042284
 20
1085.359215660095
 30
0.0
 11
6026.942064042281
 21
1085.359215660095
 31
0.0
  0
CIRCLE
  5
294D6
330
747D
100
AcDbEntity
  8
部品1
 48
50.0
100
AcDbCircle
 10
6330.942064042279
 20
1205.359215660095
 30
0.0
 40
8.0
  0
LINE
  5
294D7
330
747D
100
AcDbEntity
  8
細線
 48
50.0
100
AcDbLine
 10
6325.266075365012
 20
1085.359215660095
 30
0.0
 11
6421.266075365013
 21
1181.359215660095
 31
0.0
  0
LINE
  5
294D8
330
747D
100
AcDbEntity
  8
細線
 48
50.0
100
AcDbLine
 10
6154.348813643796
 20
957.3592156600952
 30
0.0
 11
6188.646310274979
 21
1085.359215660095
 31
0.0
  0
LINE
  5
294D9
330
747D
100
AcDbEntity
  8
細線
 48
50.0
100
AcDbLine
 10
6233.236858591041
 20
957.3592156600934
 30
0.0
 11
6267.534355222224
 21
1085.359215660093
 31
0.0
  0
LINE
  5
294DA
330
747D
100
AcDbEntity
  8
細線
 48
50.0
100
AcDbLine
 10
6075.460768696537
 20
957.3592156600934
 30
0.0
 11
6109.75826532772
 21
1085.359215660093
 31
0.0
  0
LINE
  5
294DB
330
747D
100
AcDbEntity
  8
部品1
 48
50.0
100
AcDbLine
 10
6026.942064042281
 20
957.3592156600952
 30
0.0
 11
6026.942064042281
 21
1085.359215660095
 31
0.0
  0
LINE
  5
294DC
330
747D
100
AcDbEntity
  8
細線
 48
50.0
100
AcDbLine
 10
6160.779594262141
 20
981.3592156600952
 30
0.0
 11
6167.21037488049
 21
957.3592156600952
 31
0.0
  0
LINE
  5
294DD
330
747D
100
AcDbEntity
  8
細線
 48
50.0
100
AcDbLine
 10
6081.891549314891
 20
981.3592156600952
 30
0.0
 11
6088.322329933237
 21
957.3592156600952
 31
0.0
  0
LINE
  5
294DE
330
747D
100
AcDbEntity
  8
細線
 48
50.0
100
AcDbLine
 10
6318.555684156646
 20
981.3592156600952
 30
0.0
 11
6324.986464774993
 21
957.3592156600952
 31
0.0
  0
LINE
  5
294DF
330
747D
100
AcDbEntity
  8
細線
 48
50.0
100
AcDbLine
 10
6239.667639209394
 20
981.3592156600952
 30
0.0
 11
6246.09841982774
 21
957.3592156600952
 31
0.0
  0
LINE
  5
294E0
330
747D
100
AcDbEntity
  8
細線
 48
50.0
100
AcDbLine
 10
6136.680696822563
 20
1085.359215660095
 30
0.0
 11
6232.680696822563
 21
1181.359215660095
 31
0.0
  0
LINE
  5
294E1
330
747D
100
AcDbEntity
  8
細線
 48
50.0
100
AcDbLine
 10
6109.739928459352
 20
1085.359215660095
 30
0.0
 11
6205.739928459352
 21
1181.359215660095
 31
0.0
  0
LINE
  5
294E2
330
747D
100
AcDbEntity
  8
部品1
 48
50.0
100
AcDbLine
 10
6162.94206404228
 20
1197.359215660095
 30
0.0
 11
6162.94206404228
 21
1181.359215660095
 31
0.0
  0
LINE
  5
294E3
330
747D
100
AcDbEntity
  8
細線
 48
50.0
100
AcDbLine
 10
6103.32748470938
 20
1061.359215660095
 30
0.0
 11
6096.896704091032
 21
1085.359215660095
 31
0.0
  0
LINE
  5
294E4
330
747D
100
AcDbEntity
  8
細線
 48
50.0
100
AcDbLine
 10
6026.942064042279
 20
1070.699136625875
 30
0.0
 11
6030.870220380474
 21
1085.359215660095
 31
0.0
  0
LINE
  5
294E5
330
747D
100
AcDbEntity
  8
部品1
 48
50.0
100
AcDbLine
 10
6322.94206404228
 20
1263.486430357217
 30
0.0
 11
6306.94206404228
 21
1263.486430357217
 31
0.0
  0
CIRCLE
  5
294E6
330
747D
100
AcDbEntity
  8
部品1
 48
50.0
100
AcDbCircle
 10
6202.94206404228
 20
1205.359215660095
 30
0.0
 40
8.0
  0
LINE
  5
294E7
330
747D
100
AcDbEntity
  8
細線
 48
50.0
100
AcDbLine
 10
6275.621465185768
 20
1197.359215660095
 30
0.0
 11
6306.94206404228
 21
1228.679814516606
 31
0.0
  0
ARC
  5
294E8
330
747D
100
AcDbEntity
  8
部品1
 48
50.0
100
AcDbCircle
 10
6330.942064042279
 20
1205.359215660095
 30
0.0
 40
24.0
100
AcDbArc
 50
180.0
 51
199.4712206344774
  0
LINE
  5
294E9
330
747D
100
AcDbEntity
  8
細線
 48
50.0
100
AcDbLine
 10
6182.21552965663
 20
1061.359215660095
 30
0.0
 11
6175.784749038285
 21
1085.359215660095
 31
0.0
  0
LINE
  5
294EA
330
747D
100
AcDbEntity
  8
細線
 48
50.0
100
AcDbLine
 10
6261.103574603883
 20
1061.359215660095
 30
0.0
 11
6254.672793985537
 21
1085.359215660095
 31
0.0
  0
LINE
  5
294EB
330
747D
100
AcDbEntity
  8
細線
 48
50.0
100
AcDbLine
 10
6163.621465185769
 20
1085.359215660095
 30
0.0
 11
6259.621465185769
 21
1181.359215660095
 31
0.0
  0
LINE
  5
294EC
330
747D
100
AcDbEntity
  8
部品1
 48
50.0
100
AcDbLine
 10
6306.94206404228
 20
1263.486430357217
 30
0.0
 11
6306.94206404228
 21
1205.359215660095
 31
0.0
  0
LINE
  5
294ED
330
747D
100
AcDbEntity
  8
細線
 48
50.0
100
AcDbLine
 10
6248.680696822563
 20
1197.359215660095
 30
0.0
 11
6306.94206404228
 21
1255.620582879814
 31
0.0
  0
LINE
  5
294EE
330
747D
100
AcDbEntity
  8
部品1
 48
50.0
100
AcDbLine
 10
6322.94206404228
 20
1263.486430357217
 30
0.0
 11
6322.94206404228
 21
1205.359215660095
 31
0.0
  0
LINE
  5
294EF
330
747D
100
AcDbEntity
  8
部品1
 48
50.0
100
AcDbLine
 10
6634.942064042284
 20
1085.359215660095
 30
0.0
 11
6634.942064042284
 21
957.3592156600952
 31
0.0
  0
LINE
  5
294F0
330
747D
100
AcDbEntity
  8
細線
 48
50.0
100
AcDbLine
 10
6548.789038380033
 20
957.3592156600952
 30
0.0
 11
6583.086535011218
 21
1085.359215660093
 31
0.0
  0
LINE
  5
294F1
330
747D
100
AcDbEntity
  8
細線
 48
50.0
100
AcDbLine
 10
6391.012948485538
 20
957.3592156600952
 30
0.0
 11
6425.310445116726
 21
1085.359215660093
 31
0.0
  0
LINE
  5
294F2
330
747D
100
AcDbEntity
  8
細線
 48
50.0
100
AcDbLine
 10
6469.900993432787
 20
957.3592156600934
 30
0.0
 11
6504.198490063973
 21
1085.359215660093
 31
0.0
  0
LINE
  5
294F3
330
747D
100
AcDbEntity
  8
細線
 48
50.0
100
AcDbLine
 10
6476.331774051138
 20
981.3592156600952
 30
0.0
 11
6482.762554669486
 21
957.3592156600952
 31
0.0
  0
LINE
  5
294F4
330
747D
100
AcDbEntity
  8
細線
 48
50.0
100
AcDbLine
 10
6397.443729103892
 20
981.3592156600952
 30
0.0
 11
6403.874509722239
 21
957.3592156600952
 31
0.0
  0
LINE
  5
294F5
330
747D
100
AcDbEntity
  8
細線
 48
50.0
100
AcDbLine
 10
6555.219818998384
 20
981.3592156600952
 30
0.0
 11
6561.650599616732
 21
957.3592156600952
 31
0.0
  0
LINE
  5
294F6
330
747D
100
AcDbEntity
  8
細線
 48
50.0
100
AcDbLine
 10
6634.107863945631
 20
981.3592156600952
 30
0.0
 11
6634.942064042279
 21
978.2459385157308
 31
0.0
  0
LINE
  5
294F7
330
747D
100
AcDbEntity
  8
細線
 48
50.0
100
AcDbLine
 10
6627.677083327282
 20
957.3592156600934
 30
0.0
 11
6634.942064042279
 21
984.4724928044835
 31
0.0
  0
LINE
  5
294F8
330
747D
100
AcDbEntity
  8
細線
 48
50.0
100
AcDbLine
 10
6491.147612091427
 20
1197.359215660095
 30
0.0
 11
6554.942064042279
 21
1261.153667610946
 31
0.0
  0
CIRCLE
  5
294F9
330
747D
100
AcDbEntity
  8
部品1
 48
50.0
100
AcDbCircle
 10
6458.94206404228
 20
1205.359215660095
 30
0.0
 40
8.0
  0
ARC
  5
294FA
330
747D
100
AcDbEntity
  8
部品1
 48
50.0
100
AcDbCircle
 10
6330.942064042279
 20
1205.359215660095
 30
0.0
 40
24.0
100
AcDbArc
 50
340.5287793655226
 51
0.0
  0
LINE
  5
294FB
330
747D
100
AcDbEntity
  8
細線
 48
50.0
100
AcDbLine
 10
6339.991619551136
 20
1061.359215660095
 30
0.0
 11
6333.560838932788
 21
1085.359215660095
 31
0.0
  0
LINE
  5
294FC
330
747D
100
AcDbEntity
  8
細線
 48
50.0
100
AcDbLine
 10
6418.879664498381
 20
1061.359215660095
 30
0.0
 11
6412.448883880036
 21
1085.359215660095
 31
0.0
  0
LINE
  5
294FD
330
747D
100
AcDbEntity
  8
細線
 48
50.0
100
AcDbLine
 10
6352.206843728223
 20
1085.359215660095
 30
0.0
 11
6448.206843728224
 21
1181.359215660095
 31
0.0
  0
LINE
  5
294FE
330
747D
100
AcDbEntity
  8
細線
 48
50.0
100
AcDbLine
 10
6379.147612091426
 20
1085.359215660095
 30
0.0
 11
6475.148499936564
 21
1181.360103505234
 31
0.0
  0
LINE
  5
294FF
330
747D
100
AcDbEntity
  8
部品1
 48
50.0
100
AcDbLine
 10
6498.942064042279
 20
1197.359215660095
 30
0.0
 11
6498.942064042279
 21
1181.359215660095
 31
0.0
  0
LINE
  5
29500
330
747D
100
AcDbEntity
  8
細線
 48
50.0
100
AcDbLine
 10
6576.655754392874
 20
1061.359215660095
 30
0.0
 11
6570.224973774526
 21
1085.359215660095
 31
0.0
  0
LINE
  5
29501
330
747D
100
AcDbEntity
  8
細線
 48
50.0
100
AcDbLine
 10
6540.792222270673
 20
1085.359215660095
 30
0.0
 11
6554.942064042279
 21
1099.509057431702
 31
0.0
  0
LINE
  5
29502
330
747D
100
AcDbEntity
  8
細線
 48
50.0
100
AcDbLine
 10
6497.767709445627
 20
1061.359215660095
 30
0.0
 11
6491.33692882728
 21
1085.359215660095
 31
0.0
  0
LINE
  5
29503
330
747D
100
AcDbEntity
  8
細線
 48
50.0
100
AcDbLine
 10
6234.94206404228
 20
1399.146729785473
 30
0.0
 11
6338.942064042285
 21
1503.146729785476
 31
0.0
  0
LINE
  5
29504
330
747D
100
AcDbEntity
  8
細線
 48
50.0
100
AcDbLine
 10
6234.94206404228
 20
1426.087498148681
 30
0.0
 11
6338.94206404228
 21
1530.087498148681
 31
0.0
  0
LINE
  5
29505
330
747D
100
AcDbEntity
  8
細線
 48
50.0
100
AcDbLine
 10
6234.94206404228
 20
1372.205961422266
 30
0.0
 11
6338.942064042285
 21
1476.205961422266
 31
0.0
  0
LINE
  5
29506
330
747D
100
AcDbEntity
  8
細線
 48
50.0
100
AcDbLine
 10
6322.94206404228
 20
1675.732108327926
 30
0.0
 11
6338.94206404228
 21
1691.732108327926
 31
0.0
  0
LINE
  5
29507
330
747D
100
AcDbEntity
  8
細線
 48
50.0
100
AcDbLine
 10
6322.94206404228
 20
1702.672876691133
 30
0.0
 11
6338.94206404228
 21
1718.672876691133
 31
0.0
  0
LINE
  5
29508
330
747D
100
AcDbEntity
  8
部品1
 48
50.0
100
AcDbLine
 10
6106.94206404228
 20
1325.359215660095
 30
0.0
 11
6234.94206404228
 21
1325.359215660095
 31
0.0
  0
LINE
  5
29509
330
747D
100
AcDbEntity
  8
細線
 48
50.0
100
AcDbLine
 10
6106.942064042272
 20
1271.146729785471
 30
0.0
 11
6161.154549916904
 21
1325.359215660095
 31
0.0
  0
LINE
  5
2950A
330
747D
100
AcDbEntity
  8
細線
 48
50.0
100
AcDbLine
 10
6106.942064042272
 20
1298.087498148681
 30
0.0
 11
6134.213781553693
 21
1325.359215660095
 31
0.0
  0
LINE
  5
2950B
330
747D
100
AcDbEntity
  8
部品1
 48
50.0
100
AcDbLine
 10
6322.94206404228
 20
1671.486430357218
 30
0.0
 11
6306.94206404228
 21
1671.486430357221
 31
0.0
  0
LINE
  5
2950C
330
747D
100
AcDbEntity
  8
細線
 48
50.0
100
AcDbLine
 10
6234.94206404228
 20
1587.732108327926
 30
0.0
 11
6318.696386071573
 21
1671.486430357218
 31
0.0
  0
LINE
  5
2950D
330
747D
100
AcDbEntity
  8
細線
 48
50.0
100
AcDbLine
 10
6234.94206404228
 20
1614.672876691133
 30
0.0
 11
6306.94206404228
 21
1686.672876691133
 31
0.0
  0
LINE
  5
2950E
330
747D
100
AcDbEntity
  8
部品1
 48
50.0
100
AcDbLine
 10
6306.94206404228
 20
1671.486430357221
 30
0.0
 11
6306.94206404228
 21
1729.613645054341
 31
0.0
  0
LINE
  5
2950F
330
747D
100
AcDbEntity
  8
細線
 48
50.0
100
AcDbLine
 10
6234.94206404228
 20
1641.613645054341
 30
0.0
 11
6306.94206404228
 21
1713.613645054341
 31
0.0
  0
LINE
  5
29510
330
747D
100
AcDbEntity
  8
部品1
 48
50.0
100
AcDbLine
 10
6322.94206404228
 20
1671.486430357218
 30
0.0
 11
6322.94206404228
 21
1729.613645054341
 31
0.0
  0
LINE
  5
29511
330
747D
100
AcDbEntity
  8
細線
 48
50.0
100
AcDbLine
 10
6354.942064042285
 20
1492.205961422266
 30
0.0
 11
6426.942064042272
 21
1564.205961422266
 31
0.0
  0
LINE
  5
29512
330
747D
100
AcDbEntity
  8
部品1
 48
50.0
100
AcDbLine
 10
6426.942064042279
 20
1325.359215660095
 30
0.0
 11
6554.942064042279
 21
1325.359215660095
 31
0.0
  0
LINE
  5
29513
330
747D
100
AcDbEntity
  8
細線
 48
50.0
100
AcDbLine
 10
6354.942064042285
 20
1303.620582879816
 30
0.0
 11
6426.942064042272
 21
1375.620582879811
 31
0.0
  0
LINE
  5
29514
330
747D
100
AcDbEntity
  8
細線
 48
50.0
100
AcDbLine
 10
6354.942064042285
 20
1330.561351243024
 30
0.0
 11
6426.942064042272
 21
1402.561351243021
 31
0.0
  0
LINE
  5
29515
330
747D
100
AcDbEntity
  8
細線
 48
50.0
100
AcDbLine
 10
6354.942064042285
 20
1276.679814516606
 30
0.0
 11
6426.942064042272
 21
1348.679814516607
 31
0.0
  0
LINE
  5
29516
330
747D
100
AcDbEntity
  8
細線
 48
50.0
100
AcDbLine
 10
6354.94206404228
 20
1546.087498148681
 30
0.0
 11
6426.942064042279
 21
1618.087498148681
 31
0.0
  0
LINE
  5
29517
330
747D
100
AcDbEntity
  8
細線
 48
50.0
100
AcDbLine
 10
6354.942064042285
 20
1519.146729785476
 30
0.0
 11
6426.942064042272
 21
1591.14672978547
 31
0.0
  0
MTEXT
  5
29518
102
{ACAD_REACTORS
330
294C3
102
}
330
747D
100
AcDbEntity
  8
寸法
 62
     7
 48
50.0
100
AcDbMText
 10
6668.680519903531
 20
908.0101299279421
 30
0.0
 40
80.0
 41
0.8
 71
     4
 72
     1
  1
\A1;D10@300
  7
STYLE2
 73
     1
 44
1.0
1001
ACAD
1000
MTEXTBEGIN
1070
    73
1070
     1
1070
    44
1040
1.0
1070
    74
1070
     0
1000
MTEXTEND
  0
DIMENSION
  5
29519
330
747D
100
AcDbEntity
  8
寸法
 48
50.0
100
AcDbDimension
  2
*D51
 10
6234.942064042279
 20
2289.027023576476
 30
0.0
 11
6330.942064042279
 21
2289.027023576476
 31
0.0
 70
   160
  1
120\P200\P280
 71
     5
 42
192.0
  3
INABA_S40G
100
AcDbAlignedDimension
 13
6426.942064042279
 23
1869.359215660095
 33
0.0
 14
6234.942064042279
 24
1869.359215660095
 34
0.0
100
AcDbRotatedDimension
1001
ACAD
1000
DSTYLE
1002
{
1070
   341
1005
0
1002
}
  0
LINE
  5
2951A
330
747D
100
AcDbEntity
  8
部品1
 48
50.0
100
AcDbLine
 10
6234.94206404228
 20
1869.359215660095
 30
0.0
 11
6426.942064042279
 21
1869.359215660095
 31
0.0
  0
LINE
  5
2951B
330
747D
100
AcDbEntity
  8
細線
 48
50.0
100
AcDbLine
 10
6234.94206404228
 20
1830.199023596793
 30
0.0
 11
6274.102256105583
 21
1869.359215660095
 31
0.0
  0
LINE
  5
2951C
330
747D
100
AcDbEntity
  8
細線
 48
50.0
100
AcDbLine
 10
6234.94206404228
 20
1803.258255233585
 30
0.0
 11
6301.043024468789
 21
1869.359215660095
 31
0.0
  0
LINE
  5
2951D
330
747D
100
AcDbEntity
  8
細線
 48
50.0
100
AcDbLine
 10
6234.94206404228
 20
1857.13979196
 30
0.0
 11
6247.161487742374
 21
1869.359215660095
 31
0.0
  0
LINE
  5
2951E
330
747D
100
AcDbEntity
  8
細線
 48
50.0
100
AcDbLine
 10
6354.494771308266
 20
1734.225583957117
 30
0.0
 11
6426.942064042279
 21
1806.672876691133
 31
0.0
  0
LINE
  5
2951F
330
747D
100
AcDbEntity
  8
細線
 48
50.0
100
AcDbLine
 10
6343.434486544749
 20
1750.106067556811
 30
0.0
 11
6426.942064042279
 21
1833.613645054341
 31
0.0
  0
LINE
  5
29520
330
747D
100
AcDbEntity
  8
細線
 48
50.0
100
AcDbLine
 10
8219.381377219473
 20
1710.487498148683
 30
0.0
 11
8348.981377219471
 21
1840.087498148682
 31
0.0
  0
LINE
  5
29521
330
747D
100
AcDbEntity
  8
部品1
100
AcDbLine
 10
8348.981377219471
 20
1325.359215660095
 30
0.0
 11
8348.981377219471
 21
1869.359215660095
 31
0.0
  0
LINE
  5
29522
330
747D
100
AcDbEntity
  8
部品1
 48
50.0
100
AcDbLine
 10
7934.981377219472
 20
1325.359215660095
 30
0.0
 11
7934.981377219472
 21
1869.359215660095
 31
0.0
  0
LINE
  5
29523
330
747D
100
AcDbEntity
  8
細線
 48
50.0
100
AcDbLine
 10
7934.981377219472
 20
1641.613645054341
 30
0.0
 11
8093.381377219472
 21
1800.013645054337
 31
0.0
  0
LINE
  5
29524
330
747D
100
AcDbEntity
  8
細線
 48
50.0
100
AcDbLine
 10
7934.981377219472
 20
1614.672876691133
 30
0.0
 11
8093.381377219472
 21
1773.072876691131
 31
0.0
  0
LINE
  5
29525
330
747D
100
AcDbEntity
  8
細線
 48
50.0
100
AcDbLine
 10
7934.981377219472
 20
1587.732108327926
 30
0.0
 11
8093.38137721947
 21
1746.132108327918
 31
0.0
  0
TEXT
  5
29526
330
747D
100
AcDbEntity
  8
部品1
 48
50.0
100
AcDbText
 10
7520.841475386517
 20
1640.598207943351
 30
0.0
 40
80.0
  1
▽G.L
  7
STYLE2
100
AcDbText
  0
LINE
  5
29527
330
747D
100
AcDbEntity
  8
部品1
100
AcDbLine
 10
8165.381377219473
 20
1644.359215660095
 30
0.0
 11
8165.381377219469
 21
1918.519215660096
 31
0.0
  0
LINE
  5
29528
330
747D
100
AcDbEntity
  8
部品1
100
AcDbLine
 10
8147.381377219472
 20
1644.359215660095
 30
0.0
 11
8147.38137721947
 21
1918.519215660096
 31
0.0
  0
LINE
  5
29529
330
747D
100
AcDbEntity
  8
細線
 48
50.0
100
AcDbLine
 10
8219.381377219473
 20
1656.605961422254
 30
0.0
 11
8348.981377219471
 21
1786.205961422245
 31
0.0
  0
LINE
  5
2952A
330
747D
100
AcDbEntity
  8
細線
 48
50.0
100
AcDbLine
 10
8219.381377219473
 20
1683.546729785466
 30
0.0
 11
8348.981377219471
 21
1813.146729785463
 31
0.0
  0
LINE
  5
2952B
330
747D
100
AcDbEntity
  8
部品1
100
AcDbLine
 10
8219.381377219473
 20
1545.359215660095
 30
0.0
 11
8219.381377219473
 21
1869.359215660095
 31
0.0
  0
LINE
  5
2952C
330
747D
100
AcDbEntity
  8
部品1
100
AcDbLine
 10
8093.381377219467
 20
1545.359215660095
 30
0.0
 11
8093.381377219474
 21
1869.359215660095
 31
0.0
  0
LINE
  5
2952D
330
747D
100
AcDbEntity
  8
細線
 48
50.0
100
AcDbLine
 10
7934.981377219472
 20
1399.146729785473
 30
0.0
 11
8093.381377219467
 21
1557.546729785462
 31
0.0
  0
LINE
  5
2952E
330
747D
100
AcDbEntity
  8
細線
 48
50.0
100
AcDbLine
 10
7934.981377219472
 20
1372.205961422266
 30
0.0
 11
8108.134631457309
 21
1545.359215660093
 31
0.0
  0
LINE
  5
2952F
330
747D
100
AcDbEntity
  8
細線
 48
50.0
100
AcDbLine
 10
7934.981377219472
 20
1426.087498148681
 30
0.0
 11
8093.381377219467
 21
1584.487498148676
 31
0.0
  0
LINE
  5
29530
330
747D
100
AcDbEntity
  8
細線
 48
50.0
100
AcDbLine
 10
7863.660778362962
 20
1085.359215660095
 30
0.0
 11
8348.981377219471
 21
1570.679814516603
 31
0.0
  0
LINE
  5
29531
330
747D
100
AcDbEntity
  8
細線
 48
50.0
100
AcDbLine
 10
7836.720009999758
 20
1085.359215660095
 30
0.0
 11
8348.981377219477
 21
1597.620582879809
 31
0.0
  0
LINE
  5
29532
330
747D
100
AcDbEntity
  8
細線
 48
50.0
100
AcDbLine
 10
7809.779241636547
 20
1085.359215660095
 30
0.0
 11
8348.981377219471
 21
1624.561351243021
 31
0.0
  0
LINE
  5
29533
330
747D
100
AcDbEntity
  8
部品1
 48
50.0
100
AcDbLine
 10
8556.981377219477
 20
1085.359215660095
 30
0.0
 11
7726.981377219475
 21
1085.359215660095
 31
0.0
  0
LINE
  5
29534
330
747D
100
AcDbEntity
  8
部品1
 48
50.0
100
AcDbLine
 10
8556.981377219477
 20
957.3592156600952
 30
0.0
 11
7726.981377219475
 21
957.3592156600952
 31
0.0
  0
LINE
  5
29535
330
747D
100
AcDbEntity
  8
細線
 48
50.0
100
AcDbLine
 10
7806.981377219469
 20
1244.205961422266
 30
0.0
 11
7888.134631457302
 21
1325.359215660095
 31
0.0
  0
LINE
  5
29536
330
747D
100
AcDbEntity
  8
部品1
 48
50.0
100
AcDbLine
 10
7806.981377219472
 20
1085.359215660095
 30
0.0
 11
7806.981377219472
 21
1325.359215660095
 31
0.0
  0
LINE
  5
29537
330
747D
100
AcDbEntity
  8
細線
 48
50.0
100
AcDbLine
 10
7854.38812682099
 20
957.3592156600952
 30
0.0
 11
7888.685623452173
 21
1085.359215660095
 31
0.0
  0
LINE
  5
29538
330
747D
100
AcDbEntity
  8
部品1
 48
50.0
100
AcDbLine
 10
7726.981377219475
 20
957.3592156600952
 30
0.0
 11
7726.981377219475
 21
1085.359215660095
 31
0.0
  0
LINE
  5
29539
330
747D
100
AcDbEntity
  8
細線
 48
50.0
100
AcDbLine
 10
7775.500081873731
 20
957.3592156600934
 30
0.0
 11
7809.797578504914
 21
1085.359215660093
 31
0.0
  0
LINE
  5
2953A
330
747D
100
AcDbEntity
  8
細線
 48
50.0
100
AcDbLine
 10
7933.276171768238
 20
957.3592156600934
 30
0.0
 11
7967.573668399419
 21
1085.359215660093
 31
0.0
  0
LINE
  5
2953B
330
747D
100
AcDbEntity
  8
細線
 48
50.0
100
AcDbLine
 10
7781.930862492085
 20
981.3592156600952
 30
0.0
 11
7788.361643110431
 21
957.3592156600952
 31
0.0
  0
LINE
  5
2953C
330
747D
100
AcDbEntity
  8
細線
 48
50.0
100
AcDbLine
 10
7939.706952386588
 20
981.3592156600952
 30
0.0
 11
7946.137733004936
 21
957.3592156600952
 31
0.0
  0
LINE
  5
2953D
330
747D
100
AcDbEntity
  8
細線
 48
50.0
100
AcDbLine
 10
7860.818907439337
 20
981.3592156600952
 30
0.0
 11
7867.249688057684
 21
957.3592156600952
 31
0.0
  0
LINE
  5
2953E
330
747D
100
AcDbEntity
  8
細線
 48
50.0
100
AcDbLine
 10
7726.981377219472
 20
1070.699136625875
 30
0.0
 11
7730.909533557667
 21
1085.359215660095
 31
0.0
  0
LINE
  5
2953F
330
747D
100
AcDbEntity
  8
細線
 48
50.0
100
AcDbLine
 10
7803.366797886575
 20
1061.359215660095
 30
0.0
 11
7796.936017268229
 21
1085.359215660095
 31
0.0
  0
LINE
  5
29540
330
747D
100
AcDbEntity
  8
細線
 48
50.0
100
AcDbLine
 10
7961.142887781078
 20
1061.359215660095
 30
0.0
 11
7954.71210716273
 21
1085.359215660095
 31
0.0
  0
LINE
  5
29541
330
747D
100
AcDbEntity
  8
細線
 48
50.0
100
AcDbLine
 10
7882.254842833827
 20
1061.359215660095
 30
0.0
 11
7875.824062215478
 21
1085.359215660095
 31
0.0
  0
LWPOLYLINE
  5
29542
330
747D
100
AcDbEntity
  8
部品1
 48
50.0
100
AcDbPolyline
 90
        2
 70
     0
 43
8.0
 10
7520.841475386517
 20
1629.359215660096
 10
7934.981377219472
 20
1629.359215660096
  0
LINE
  5
29543
330
747D
100
AcDbEntity
  8
細線
 48
50.0
100
AcDbLine
 10
7806.981377219469
 20
1271.146729785471
 30
0.0
 11
7861.193863094097
 21
1325.359215660095
 31
0.0
  0
LINE
  5
29544
330
747D
100
AcDbEntity
  8
部品1
 48
50.0
100
AcDbLine
 10
7806.981377219472
 20
1325.359215660095
 30
0.0
 11
7934.981377219472
 21
1325.359215660095
 31
0.0
  0
LINE
  5
29545
330
747D
100
AcDbEntity
  8
細線
 48
50.0
100
AcDbLine
 10
7806.981377219469
 20
1298.087498148681
 30
0.0
 11
7834.253094730887
 21
1325.359215660095
 31
0.0
  0
LINE
  5
29546
330
747D
100
AcDbEntity
  8
細線
 48
50.0
100
AcDbLine
 10
8052.246156905416
 20
1085.359215660095
 30
0.0
 11
8348.981377219471
 21
1382.094435974148
 31
0.0
  0
LINE
  5
29547
330
747D
100
AcDbEntity
  8
細線
 48
50.0
100
AcDbLine
 10
8079.186925268622
 20
1085.359215660095
 30
0.0
 11
8348.981377219471
 21
1355.153667610953
 31
0.0
  0
LINE
  5
29548
330
747D
100
AcDbEntity
  8
細線
 48
50.0
100
AcDbLine
 10
8025.305388542207
 20
1085.359215660095
 30
0.0
 11
8348.981377219471
 21
1409.035204337361
 31
0.0
  0
LINE
  5
29549
330
747D
100
AcDbEntity
  8
細線
 48
50.0
100
AcDbLine
 10
8240.831535447865
 20
1085.359215660095
 30
0.0
 11
8476.981377219471
 21
1321.509057431703
 31
0.0
  0
LINE
  5
2954A
330
747D
100
AcDbEntity
  8
細線
 48
50.0
100
AcDbLine
 10
8267.772303811078
 20
1085.359215660095
 30
0.0
 11
8476.981377219471
 21
1294.568289068488
 31
0.0
  0
LINE
  5
2954B
330
747D
100
AcDbEntity
  8
部品1
 48
50.0
100
AcDbLine
 10
8476.981377219471
 20
1325.359215660095
 30
0.0
 11
8476.981377219471
 21
1085.359215660095
 31
0.0
  0
LINE
  5
2954C
330
747D
100
AcDbEntity
  8
細線
 48
50.0
100
AcDbLine
 10
8294.713072174282
 20
1085.359215660095
 30
0.0
 11
8476.981377219471
 21
1267.627520705291
 31
0.0
  0
LINE
  5
2954D
330
747D
100
AcDbEntity
  8
細線
 48
50.0
100
AcDbLine
 10
8169.940306609985
 20
957.3592156600934
 30
0.0
 11
8204.237803241165
 21
1085.359215660093
 31
0.0
  0
LINE
  5
2954E
330
747D
100
AcDbEntity
  8
細線
 48
50.0
100
AcDbLine
 10
8012.164216715488
 20
957.3592156600952
 30
0.0
 11
8046.461713346671
 21
1085.359215660095
 31
0.0
  0
LINE
  5
2954F
330
747D
100
AcDbEntity
  8
細線
 48
50.0
100
AcDbLine
 10
8091.052261662735
 20
957.3592156600952
 30
0.0
 11
8125.34975829392
 21
1085.359215660093
 31
0.0
  0
LINE
  5
29550
330
747D
100
AcDbEntity
  8
細線
 48
50.0
100
AcDbLine
 10
8248.828351557227
 20
957.3592156600952
 30
0.0
 11
8283.12584818841
 21
1085.359215660093
 31
0.0
  0
LINE
  5
29551
330
747D
100
AcDbEntity
  8
細線
 48
50.0
100
AcDbLine
 10
8097.483042281087
 20
981.3592156600952
 30
0.0
 11
8103.913822899434
 21
957.3592156600952
 31
0.0
  0
LINE
  5
29552
330
747D
100
AcDbEntity
  8
細線
 48
50.0
100
AcDbLine
 10
8018.59499733384
 20
981.3592156600952
 30
0.0
 11
8025.025777952187
 21
957.3592156600952
 31
0.0
  0
LINE
  5
29553
330
747D
100
AcDbEntity
  8
細線
 48
50.0
100
AcDbLine
 10
8255.259132175579
 20
981.3592156600952
 30
0.0
 11
8261.689912793924
 21
957.3592156600952
 31
0.0
  0
LINE
  5
29554
330
747D
100
AcDbEntity
  8
細線
 48
50.0
100
AcDbLine
 10
8176.371087228334
 20
981.3592156600952
 30
0.0
 11
8182.801867846681
 21
957.3592156600952
 31
0.0
  0
LINE
  5
29555
330
747D
100
AcDbEntity
  8
細線
 48
50.0
100
AcDbLine
 10
8118.918977675575
 20
1061.359215660095
 30
0.0
 11
8112.488197057228
 21
1085.359215660095
 31
0.0
  0
LINE
  5
29556
330
747D
100
AcDbEntity
  8
細線
 48
50.0
100
AcDbLine
 10
8040.030932728328
 20
1061.359215660095
 30
0.0
 11
8033.600152109983
 21
1085.359215660095
 31
0.0
  0
LINE
  5
29557
330
747D
100
AcDbEntity
  8
細線
 48
50.0
100
AcDbLine
 10
8197.807022622823
 20
1061.359215660095
 30
0.0
 11
8191.376242004475
 21
1085.359215660095
 31
0.0
  0
LINE
  5
29558
330
747D
100
AcDbEntity
  8
細線
 48
50.0
100
AcDbLine
 10
8276.695067570068
 20
1061.359215660095
 30
0.0
 11
8270.264286951721
 21
1085.359215660095
 31
0.0
  0
LINE
  5
29559
330
747D
100
AcDbEntity
  8
部品1
 48
50.0
100
AcDbLine
 10
8556.981377219477
 20
1085.359215660095
 30
0.0
 11
8556.981377219477
 21
957.3592156600952
 31
0.0
  0
LINE
  5
2955A
330
747D
100
AcDbEntity
  8
細線
 48
50.0
100
AcDbLine
 10
8485.492486398968
 20
957.3592156600934
 30
0.0
 11
8519.789983030154
 21
1085.359215660092
 31
0.0
  0
LINE
  5
2955B
330
747D
100
AcDbEntity
  8
細線
 48
50.0
100
AcDbLine
 10
8327.716396504476
 20
957.3592156600934
 30
0.0
 11
8362.01389313565
 21
1085.359215660095
 31
0.0
  0
LINE
  5
2955C
330
747D
100
AcDbEntity
  8
細線
 48
50.0
100
AcDbLine
 10
8406.604441451724
 20
957.3592156600925
 30
0.0
 11
8440.901938082907
 21
1085.359215660092
 31
0.0
  0
LINE
  5
2955D
330
747D
100
AcDbEntity
  8
細線
 48
50.0
100
AcDbLine
 10
8334.147177122824
 20
981.3592156600952
 30
0.0
 11
8340.577957741182
 21
957.3592156600952
 31
0.0
  0
LINE
  5
2955E
330
747D
100
AcDbEntity
  8
細線
 48
50.0
100
AcDbLine
 10
8413.035222070073
 20
981.3592156600934
 30
0.0
 11
8419.46600268842
 21
957.3592156600934
 31
0.0
  0
LINE
  5
2955F
330
747D
100
AcDbEntity
  8
細線
 48
50.0
100
AcDbLine
 10
8491.923267017318
 20
981.3592156600934
 30
0.0
 11
8498.354047635666
 21
957.3592156600934
 31
0.0
  0
LINE
  5
29560
330
747D
100
AcDbEntity
  8
細線
 48
50.0
100
AcDbLine
 10
8355.583112517306
 20
1061.359215660095
 30
0.0
 11
8349.152331898959
 21
1085.359215660095
 31
0.0
  0
LINE
  5
29561
330
747D
100
AcDbEntity
  8
細線
 48
50.0
100
AcDbLine
 10
8434.471157464562
 20
1061.359215660093
 30
0.0
 11
8428.040376846217
 21
1085.359215660093
 31
0.0
  0
LINE
  5
29562
330
747D
100
AcDbEntity
  8
細線
 48
50.0
100
AcDbLine
 10
8513.359202411809
 20
1061.359215660093
 30
0.0
 11
8506.928421793462
 21
1085.359215660093
 31
0.0
  0
LINE
  5
29563
330
747D
100
AcDbEntity
  8
部品1
100
AcDbLine
 10
8219.381377219473
 20
1545.359215660093
 30
0.0
 11
8093.381377219467
 21
1545.359215660093
 31
0.0
  0
LINE
  5
29564
330
747D
100
AcDbEntity
  8
部品1
100
AcDbLine
 10
8201.381377219474
 20
1626.359215660095
 30
0.0
 11
8201.381377219474
 21
1644.359215660095
 31
0.0
  0
ARC
  5
29565
330
747D
100
AcDbEntity
  8
部品1
100
AcDbCircle
 10
8165.381377219473
 20
1644.359215660095
 30
0.0
 40
18.0
100
AcDbArc
 50
180.0
 51
270.0
  0
LINE
  5
29566
330
747D
100
AcDbEntity
  8
部品1
100
AcDbLine
 10
8165.381377219473
 20
1626.359215660095
 30
0.0
 11
8201.381377219474
 21
1626.359215660095
 31
0.0
  0
LINE
  5
29567
330
747D
100
AcDbEntity
  8
部品1
100
AcDbLine
 10
8165.381377219473
 20
1644.359215660095
 30
0.0
 11
8201.381377219474
 21
1644.359215660095
 31
0.0
  0
LINE
  5
29568
330
747D
100
AcDbEntity
  8
部品1
 48
50.0
100
AcDbLine
 10
8348.981377219471
 20
1325.359215660095
 30
0.0
 11
8476.981377219471
 21
1325.359215660095
 31
0.0
  0
LINE
  5
29569
330
747D
100
AcDbEntity
  8
部品1
100
AcDbLine
 10
7954.781377219473
 20
1959.359215660095
 30
0.0
 11
7992.581377219474
 21
1959.359215660095
 31
0.0
  0
LINE
  5
2956A
330
747D
100
AcDbEntity
  8
細線
 48
50.0
100
AcDbLine
 10
7934.981377219472
 20
1830.199023596793
 30
0.0
 11
7974.14156928278
 21
1869.359215660095
 31
0.0
  0
LINE
  5
2956B
330
747D
100
AcDbEntity
  8
細線
 48
50.0
100
AcDbLine
 10
7934.981377219472
 20
1803.258255233585
 30
0.0
 11
8001.082337645982
 21
1869.359215660095
 31
0.0
  0
LINE
  5
2956C
330
747D
100
AcDbEntity
  8
部品1
 48
50.0
100
AcDbLine
 10
7934.981377219472
 20
1869.359215660095
 30
0.0
 11
8348.981377219477
 21
1869.359215660095
 31
0.0
  0
LINE
  5
2956D
330
747D
100
AcDbEntity
  8
部品1
100
AcDbLine
 10
7952.081377219474
 20
1948.559215660095
 30
0.0
 11
7952.081377219474
 21
1956.659215660095
 31
0.0
  0
ARC
  5
2956E
330
747D
100
AcDbEntity
  8
部品1
100
AcDbCircle
 10
7954.781377219473
 20
1956.659215660095
 30
0.0
 40
2.7
100
AcDbArc
 50
90.0
 51
180.0
  0
ARC
  5
2956F
330
747D
100
AcDbEntity
  8
部品1
100
AcDbCircle
 10
7943.981377219472
 20
1943.751119362803
 30
0.0
 40
2.7
100
AcDbArc
 50
104.0362434679067
 51
180.0
  0
LINE
  5
29570
330
747D
100
AcDbEntity
  8
部品1
100
AcDbLine
 10
7943.326531031875
 20
1946.370504113195
 30
0.0
 11
7952.081377219474
 21
1948.559215660095
 31
0.0
  0
ARC
  5
29571
330
747D
100
AcDbEntity
  8
部品1
100
AcDbCircle
 10
7943.981377219472
 20
1881.619215660095
 30
0.0
 40
2.7
100
AcDbArc
 50
180.0
 51
270.0
  0
LINE
  5
29572
330
747D
100
AcDbEntity
  8
細線
 48
50.0
100
AcDbLine
 10
7934.981377219472
 20
1857.13979196
 30
0.0
 11
7947.200800919567
 21
1869.359215660095
 31
0.0
  0
LINE
  5
29573
330
747D
100
AcDbEntity
  8
部品1
100
AcDbLine
 10
7943.981377219472
 20
1878.919215660095
 30
0.0
 11
7955.681377219467
 21
1878.919215660095
 31
0.0
  0
LINE
  5
29574
330
747D
100
AcDbEntity
  8
部品1
100
AcDbLine
 10
7941.281377219474
 20
1881.619215660095
 30
0.0
 11
7941.281377219474
 21
1943.751119362803
 31
0.0
  0
LINE
  5
29575
330
747D
100
AcDbEntity
  8
部品1
100
AcDbLine
 10
8099.941377219467
 20
1878.919215660095
 30
0.0
 11
8301.281377219467
 21
1878.919215660095
 31
0.0
  0
LINE
  5
29576
330
747D
100
AcDbEntity
  8
部品1
100
AcDbLine
 10
7992.581377219474
 20
1959.359215660095
 30
0.0
 11
7992.581377219474
 21
1967.459215660096
 31
0.0
  0
LINE
  5
29577
330
747D
100
AcDbEntity
  8
部品1
100
AcDbLine
 10
8042.981377219472
 20
1978.259215660092
 30
0.0
 11
8042.981377219472
 21
1926.959215660096
 31
0.0
  0
LINE
  5
29578
330
747D
100
AcDbEntity
  8
部品1
100
AcDbLine
 10
8066.381377219475
 20
1938.919215660095
 30
0.0
 11
8094.541377219474
 21
1938.919215660095
 31
0.0
  0
ARC
  5
29579
330
747D
100
AcDbEntity
  8
部品1
100
AcDbCircle
 10
8066.381377219475
 20
1936.219215660096
 30
0.0
 40
2.7
100
AcDbArc
 50
90.0
 51
180.0
  0
ARC
  5
2957A
330
747D
100
AcDbEntity
  8
部品1
100
AcDbCircle
 10
8094.541377219474
 20
1936.219215660096
 30
0.0
 40
2.7
100
AcDbArc
 50
0.0
 51
90.0
  0
LINE
  5
2957B
330
747D
100
AcDbEntity
  8
部品1
100
AcDbLine
 10
8085.281377219473
 20
1924.259215660095
 30
0.0
 11
8085.281377219473
 21
1881.619215660095
 31
0.0
  0
LINE
  5
2957C
330
747D
100
AcDbEntity
  8
部品1
100
AcDbLine
 10
8070.881377219473
 20
1878.919215660095
 30
0.0
 11
8082.581377219474
 21
1878.919215660095
 31
0.0
  0
ARC
  5
2957D
330
747D
100
AcDbEntity
  8
部品1
100
AcDbCircle
 10
8099.941377219467
 20
1881.619215660095
 30
0.0
 40
2.7
100
AcDbArc
 50
180.0
 51
270.0
  0
ARC
  5
2957E
330
747D
100
AcDbEntity
  8
部品1
100
AcDbCircle
 10
8082.581377219474
 20
1881.619215660095
 30
0.0
 40
2.7
100
AcDbArc
 50
270.0
 51
0.0
  0
LINE
  5
2957F
330
747D
100
AcDbEntity
  8
部品1
100
AcDbLine
 10
8042.981377219472
 20
1926.959215660096
 30
0.0
 11
8082.581377219474
 21
1926.959215660096
 31
0.0
  0
ARC
  5
29580
330
747D
100
AcDbEntity
  8
部品1
100
AcDbCircle
 10
8082.581377219474
 20
1924.259215660095
 30
0.0
 40
2.7
100
AcDbArc
 50
0.0
 51
90.0
  0
LINE
  5
29581
330
747D
100
AcDbEntity
  8
部品1
100
AcDbLine
 10
8097.241377219473
 20
1936.219215660096
 30
0.0
 11
8097.241377219472
 21
1881.619215660095
 31
0.0
  0
LINE
  5
29582
330
747D
100
AcDbEntity
  8
部品1
100
AcDbLine
 10
8063.681377219472
 20
1936.219215660096
 30
0.0
 11
8063.681377219472
 21
1919.119215660095
 31
0.0
  0
LINE
  5
29583
330
747D
100
AcDbEntity
  8
細線
100
AcDbLine
 10
8161.781377219474
 20
1878.919215660095
 30
0.0
 11
8161.781377219474
 21
1922.119215660096
 31
0.0
  0
LINE
  5
29584
330
747D
100
AcDbEntity
  8
細線
100
AcDbLine
 10
8150.981377219476
 20
1878.919215660095
 30
0.0
 11
8150.981377219471
 21
1922.119215660096
 31
0.0
  0
LINE
  5
29585
330
747D
100
AcDbEntity
  8
部品1
100
AcDbLine
 10
8147.381377219472
 20
1918.519215660096
 30
0.0
 11
8165.381377219473
 21
1918.519215660096
 31
0.0
  0
LINE
  5
29586
330
747D
100
AcDbEntity
  8
部品1
100
AcDbLine
 10
8150.981377219471
 20
1922.119215660096
 30
0.0
 11
8161.781377219474
 21
1922.119215660096
 31
0.0
  0
ELLIPSE
  5
29587
330
747D
100
AcDbEntity
  8
部品1
 48
50.0
100
AcDbEllipse
 10
8156.381377219473
 20
2138.482504104368
 30
0.0
 11
40.0
 21
0.0
 31
0.0
210
0.0
220
0.0
230
1.0
 40
0.4
 41
0.0
 42
6.283185307179586
  0
ELLIPSE
  5
29588
330
747D
100
AcDbEntity
  8
部品1
 48
50.0
100
AcDbEllipse
 10
8156.381377219473
 20
2128.882504104368
 30
0.0
 11
40.0
 21
0.0
 31
0.0
210
0.0
220
0.0
230
1.0
 40
0.4
 41
3.141592653589793
 42
6.283185307179586
  0
LINE
  5
29589
330
747D
100
AcDbEntity
  8
部品1
 48
50.0
100
AcDbLine
 10
8116.381377219473
 20
2138.482504104368
 30
0.0
 11
8116.381377219473
 21
2128.882504104367
 31
0.0
  0
ARC
  5
2958A
330
747D
100
AcDbEntity
  8
部品1
100
AcDbCircle
 10
8040.281377219473
 20
1978.259215660092
 30
0.0
 40
2.7
100
AcDbArc
 50
0.0
 51
90.0
  0
ARC
  5
2958B
330
747D
100
AcDbEntity
  8
部品1
100
AcDbCircle
 10
7997.981377219471
 20
1978.259215660095
 30
0.0
 40
2.7
100
AcDbArc
 50
90.0
 51
180.0
  0
LINE
  5
2958C
330
747D
100
AcDbEntity
  8
部品1
100
AcDbLine
 10
7995.281377219473
 20
1970.159215660095
 30
0.0
 11
7995.281377219473
 21
1970.159215660095
 31
0.0
  0
LINE
  5
2958D
330
747D
100
AcDbEntity
  8
部品1
100
AcDbLine
 10
7995.281377219473
 20
1970.159215660095
 30
0.0
 11
7995.281377219473
 21
1978.259215660095
 31
0.0
  0
LINE
  5
2958E
330
747D
100
AcDbEntity
  8
部品1
100
AcDbLine
 10
7997.981377219471
 20
1980.959215660096
 30
0.0
 11
8040.281377219473
 21
1980.959215660092
 31
0.0
  0
ARC
  5
2958F
330
747D
100
AcDbEntity
  8
部品1
100
AcDbCircle
 10
7995.281377219473
 20
1967.459215660096
 30
0.0
 40
2.7
100
AcDbArc
 50
90.0
 51
180.0
  0
ELLIPSE
  5
29590
330
747D
100
AcDbEntity
  8
部品1
 48
50.0
100
AcDbEllipse
 10
8156.381377219473
 20
2138.482504104368
 30
0.0
 11
18.4
 21
0.0
 31
0.0
210
0.0
220
0.0
230
1.0
 40
0.3478260869565217
 41
0.0
 42
6.283185307179586
  0
LINE
  5
29591
330
747D
100
AcDbEntity
  8
部品1
 48
50.0
100
AcDbLine
 10
8196.381377219474
 20
2128.882504104367
 30
0.0
 11
8196.381377219474
 21
2138.482504104368
 31
0.0
  0
LINE
  5
29592
330
747D
100
AcDbEntity
  8
部品1
 48
50.0
100
AcDbLine
 10
8124.381377219474
 20
2260.234496769238
 30
0.0
 11
8140.381377219474
 21
2252.234496769238
 31
0.0
  0
LINE
  5
29593
330
747D
100
AcDbEntity
  8
部品1
 48
50.0
100
AcDbLine
 10
8124.381377219474
 20
2228.234496769238
 30
0.0
 11
8140.381377219474
 21
2220.234496769238
 31
0.0
  0
LINE
  5
29594
330
747D
100
AcDbEntity
  8
部品1
 48
50.0
100
AcDbLine
 10
8124.381377219474
 20
2260.234496769238
 30
0.0
 11
8140.381377219474
 21
2268.234496769238
 31
0.0
  0
LINE
  5
29595
330
747D
100
AcDbEntity
  8
部品1
 48
50.0
100
AcDbLine
 10
8124.381377219474
 20
2228.234496769238
 30
0.0
 11
8124.381377219474
 21
2260.234496769238
 31
0.0
  0
LINE
  5
29596
330
747D
100
AcDbEntity
  8
部品1
 48
50.0
100
AcDbLine
 10
8140.381377219474
 20
2268.234496769238
 30
0.0
 11
8172.381377219473
 21
2268.234496769238
 31
0.0
  0
ELLIPSE
  5
29597
330
747D
100
AcDbEntity
  8
細線
 48
50.0
100
AcDbEllipse
 10
8156.381377219473
 20
2260.234496769238
 30
0.0
 11
14.76670786606846
 21
0.0
 31
0.0
210
0.0
220
0.0
230
1.0
 40
0.2071254069489396
 41
0.0
 42
6.283185307179586
  0
LINE
  5
29598
330
747D
100
AcDbEntity
  8
部品1
 48
50.0
100
AcDbLine
 10
8140.381377219474
 20
2220.234496769238
 30
0.0
 11
8172.381377219473
 21
2220.234496769238
 31
0.0
  0
LINE
  5
29599
330
747D
100
AcDbEntity
  8
部品1
 48
50.0
100
AcDbLine
 10
8172.381377219473
 20
2220.234496769238
 30
0.0
 11
8188.381377219474
 21
2228.234496769238
 31
0.0
  0
LINE
  5
2959A
330
747D
100
AcDbEntity
  8
部品1
 48
50.0
100
AcDbLine
 10
8140.381377219474
 20
2252.234496769238
 30
0.0
 11
8172.381377219473
 21
2252.234496769238
 31
0.0
  0
LINE
  5
2959B
330
747D
100
AcDbEntity
  8
部品1
 48
50.0
100
AcDbLine
 10
8172.381377219473
 20
2252.234496769238
 30
0.0
 11
8188.381377219474
 21
2260.234496769238
 31
0.0
  0
LINE
  5
2959C
330
747D
100
AcDbEntity
  8
細線
 48
50.0
100
AcDbLine
 10
8172.381377219473
 20
2220.234496769238
 30
0.0
 11
8172.381377219473
 21
2252.234496769238
 31
0.0
  0
LINE
  5
2959D
330
747D
100
AcDbEntity
  8
部品1
 48
50.0
100
AcDbLine
 10
8188.381377219474
 20
2228.234496769238
 30
0.0
 11
8188.381377219474
 21
2260.234496769238
 31
0.0
  0
LINE
  5
2959E
330
747D
100
AcDbEntity
  8
細線
 48
50.0
100
AcDbLine
 10
8140.381377219474
 20
2220.234496769238
 30
0.0
 11
8140.381377219474
 21
2252.234496769238
 31
0.0
  0
LINE
  5
2959F
330
747D
100
AcDbEntity
  8
部品1
 48
50.0
100
AcDbLine
 10
8172.381377219473
 20
2268.234496769238
 30
0.0
 11
8188.381377219474
 21
2260.234496769238
 31
0.0
  0
TEXT
  5
295A0
330
747D
100
AcDbEntity
  8
部品1
100
AcDbText
 10
7857.153626411404
 20
3089.145950909253
 30
0.0
 40
120.0
  1
基礎詳細
  7
STYLE2
100
AcDbText
  0
LINE
  5
295A1
330
747D
100
AcDbEntity
  8
部品1
100
AcDbLine
 10
11235.25881061926
 20
304.3909132760337
 30
0.0
 11
11235.25881061927
 21
3268.69788286068
 31
0.0
  0
LINE
  5
295A2
330
747D
100
AcDbEntity
  8
細線
100
AcDbLine
 10
10243.15064319901
 20
1629.359215660095
 30
0.0
 11
10048.51730952223
 21
1823.992549336878
 31
0.0
  0
LINE
  5
295A3
330
747D
100
AcDbEntity
  8
部品1
100
AcDbLine
 10
10048.51730952223
 20
1869.359215660095
 30
0.0
 11
10528.51730952223
 21
1869.359215660095
 31
0.0
  0
LINE
  5
295A4
330
747D
100
AcDbEntity
  8
細線
 48
50.0
100
AcDbLine
 10
10182.58819396549
 20
1409.660300006745
 30
0.0
 11
10216.88569059667
 21
1537.660300006744
 31
0.0
  0
LINE
  5
295A5
330
747D
100
AcDbEntity
  8
部品1
100
AcDbLine
 10
9928.517309522231
 20
1409.660300006741
 30
0.0
 11
10648.51730952223
 21
1409.660300006745
 31
0.0
  0
LINE
  5
295A6
330
747D
100
AcDbEntity
  8
部品1
100
AcDbLine
 10
9928.517309522231
 20
1537.660300006745
 30
0.0
 11
10648.51730952223
 21
1537.660300006748
 31
0.0
  0
LINE
  5
295A7
330
747D
100
AcDbEntity
  8
細線
100
AcDbLine
 10
10109.43595501547
 20
1537.660300006745
 30
0.0
 11
10201.13487066882
 21
1629.359215660095
 31
0.0
  0
LWPOLYLINE
  5
295A8
330
747D
100
AcDbEntity
  8
部品1
 48
50.0
100
AcDbPolyline
 90
        2
 70
     0
 43
12.0
 10
9663.906047421843
 20
1629.359215660095
 10
10864.99835055346
 20
1629.359215660095
  0
LINE
  5
295A9
330
747D
100
AcDbEntity
  8
細線
100
AcDbLine
 10
10192.23895495358
 20
1629.359215660095
 30
0.0
 11
10048.51730952223
 21
1773.080861091448
 31
0.0
  0
TEXT
  5
295AA
330
747D
100
AcDbEntity
  8
部品1
 48
50.0
100
AcDbText
 10
9284.399222763729
 20
1362.559475022786
 30
0.0
 40
80.0
  1
ボルトの出
 50
90.0
  7
STYLE2
100
AcDbText
  0
LINE
  5
295AB
330
747D
100
AcDbEntity
  8
部品1
100
AcDbLine
 10
10048.51730952223
 20
1629.359215660095
 30
0.0
 11
10048.51730952223
 21
1869.359215660095
 31
0.0
  0
LINE
  5
295AC
330
747D
100
AcDbEntity
  8
細線
 48
50.0
100
AcDbLine
 10
10024.81210407099
 20
1409.660300006744
 30
0.0
 11
10059.10960070217
 21
1537.660300006744
 31
0.0
  0
LINE
  5
295AD
330
747D
100
AcDbEntity
  8
細線
 48
50.0
100
AcDbLine
 10
10103.70014901824
 20
1409.660300006745
 30
0.0
 11
10137.99764564942
 21
1537.660300006745
 31
0.0
  0
LINE
  5
295AE
330
747D
100
AcDbEntity
  8
細線
 48
50.0
100
AcDbLine
 10
9945.924059123743
 20
1409.660300006745
 30
0.0
 11
9980.22155575493
 21
1537.660300006745
 31
0.0
  0
LINE
  5
295AF
330
747D
100
AcDbEntity
  8
部品1
100
AcDbLine
 10
9928.517309522231
 20
1409.660300006741
 30
0.0
 11
9928.517309522231
 21
1629.359215660095
 31
0.0
  0
LINE
  5
295B0
330
747D
100
AcDbEntity
  8
細線
 48
50.0
100
AcDbLine
 10
10031.24288468934
 20
1433.660300006745
 30
0.0
 11
10037.67366530769
 21
1409.660300006745
 31
0.0
  0
LINE
  5
295B1
330
747D
100
AcDbEntity
  8
細線
 48
50.0
100
AcDbLine
 10
9952.354839742092
 20
1433.660300006745
 30
0.0
 11
9958.785620360439
 21
1409.660300006745
 31
0.0
  0
LINE
  5
295B2
330
747D
100
AcDbEntity
  8
細線
 48
50.0
100
AcDbLine
 10
10110.13092963659
 20
1433.660300006745
 30
0.0
 11
10116.56171025494
 21
1409.660300006745
 31
0.0
  0
LINE
  5
295B3
330
747D
100
AcDbEntity
  8
細線
 48
50.0
100
AcDbLine
 10
10189.01897458384
 20
1433.660300006745
 30
0.0
 11
10195.44975520219
 21
1409.660300006745
 31
0.0
  0
LINE
  5
295B4
330
747D
100
AcDbEntity
  8
細線
 48
50.0
100
AcDbLine
 10
9973.790775136581
 20
1513.660300006745
 30
0.0
 11
9967.359994518233
 21
1537.660300006745
 31
0.0
  0
LINE
  5
295B5
330
747D
100
AcDbEntity
  8
細線
 48
50.0
100
AcDbLine
 10
10131.56686503108
 20
1513.660300006745
 30
0.0
 11
10125.13608441274
 21
1537.660300006745
 31
0.0
  0
LINE
  5
295B6
330
747D
100
AcDbEntity
  8
細線
 48
50.0
100
AcDbLine
 10
10052.67882008383
 20
1513.660300006745
 30
0.0
 11
10046.24803946548
 21
1537.660300006745
 31
0.0
  0
LINE
  5
295B7
330
747D
100
AcDbEntity
  8
細線
100
AcDbLine
 10
10041.55370402156
 20
1537.660300006745
 30
0.0
 11
10133.25261967491
 21
1629.359215660095
 31
0.0
  0
LINE
  5
295B8
330
747D
100
AcDbEntity
  8
細線
100
AcDbLine
 10
10075.49482951851
 20
1537.660300006745
 30
0.0
 11
10167.19374517186
 21
1629.359215660095
 31
0.0
  0
LINE
  5
295B9
330
747D
100
AcDbEntity
  8
細線
100
AcDbLine
 10
10463.76795892922
 20
1629.359215660095
 30
0.0
 11
10223.76795892922
 21
1869.359215660095
 31
0.0
  0
LINE
  5
295BA
330
747D
100
AcDbEntity
  8
細線
100
AcDbLine
 10
10514.67964717465
 20
1629.359215660097
 30
0.0
 11
10274.67964717465
 21
1869.359215660095
 31
0.0
  0
LINE
  5
295BB
330
747D
100
AcDbEntity
  8
部品1
100
AcDbLine
 10
10528.51730952223
 20
1869.359215660095
 30
0.0
 11
10528.51730952223
 21
1629.359215660095
 31
0.0
  0
LINE
  5
295BC
330
747D
100
AcDbEntity
  8
細線
 48
50.0
100
AcDbLine
 10
10498.14037375448
 20
1409.660300006742
 30
0.0
 11
10532.43787038566
 21
1537.660300006742
 31
0.0
  0
LINE
  5
295BD
330
747D
100
AcDbEntity
  8
細線
100
AcDbLine
 10
10469.43595501547
 20
1537.660300006747
 30
0.0
 11
10561.13487066882
 21
1629.359215660095
 31
0.0
  0
LINE
  5
295BE
330
747D
100
AcDbEntity
  8
細線
 48
50.0
100
AcDbLine
 10
10419.25232880723
 20
1409.660300006744
 30
0.0
 11
10453.5498254384
 21
1537.660300006745
 31
0.0
  0
LINE
  5
295BF
330
747D
100
AcDbEntity
  8
細線
 48
50.0
100
AcDbLine
 10
10261.47623891273
 20
1409.660300006744
 30
0.0
 11
10295.77373554392
 21
1537.660300006744
 31
0.0
  0
LINE
  5
295C0
330
747D
100
AcDbEntity
  8
細線
 48
50.0
100
AcDbLine
 10
10340.36428385998
 20
1409.660300006745
 30
0.0
 11
10374.66178049116
 21
1537.660300006744
 31
0.0
  0
LINE
  5
295C1
330
747D
100
AcDbEntity
  8
細線
 48
50.0
100
AcDbLine
 10
10346.79506447833
 20
1433.660300006745
 30
0.0
 11
10353.22584509668
 21
1409.660300006745
 31
0.0
  0
LINE
  5
295C2
330
747D
100
AcDbEntity
  8
細線
 48
50.0
100
AcDbLine
 10
10267.90701953109
 20
1433.660300006745
 30
0.0
 11
10274.33780014943
 21
1409.660300006745
 31
0.0
  0
LINE
  5
295C3
330
747D
100
AcDbEntity
  8
細線
 48
50.0
100
AcDbLine
 10
10425.68310942558
 20
1433.660300006745
 30
0.0
 11
10432.11389004393
 21
1409.660300006745
 31
0.0
  0
LINE
  5
295C4
330
747D
100
AcDbEntity
  8
細線
 48
50.0
100
AcDbLine
 10
10504.57115437283
 20
1433.660300006744
 30
0.0
 11
10511.00193499117
 21
1409.660300006744
 31
0.0
  0
LINE
  5
295C5
330
747D
100
AcDbEntity
  8
細線
 48
50.0
100
AcDbLine
 10
10368.23099987282
 20
1513.660300006745
 30
0.0
 11
10361.80021925447
 21
1537.660300006745
 31
0.0
  0
LINE
  5
295C6
330
747D
100
AcDbEntity
  8
細線
 48
50.0
100
AcDbLine
 10
10289.34295492557
 20
1513.660300006745
 30
0.0
 11
10282.91217430723
 21
1537.660300006745
 31
0.0
  0
LINE
  5
295C7
330
747D
100
AcDbEntity
  8
細線
 48
50.0
100
AcDbLine
 10
10210.45490997833
 20
1513.660300006745
 30
0.0
 11
10204.02412935998
 21
1537.660300006745
 31
0.0
  0
LINE
  5
295C8
330
747D
100
AcDbEntity
  8
細線
100
AcDbLine
 10
10435.49482951852
 20
1537.660300006747
 30
0.0
 11
10527.19374517186
 21
1629.359215660095
 31
0.0
  0
LINE
  5
295C9
330
747D
100
AcDbEntity
  8
細線
 48
50.0
100
AcDbLine
 10
10447.11904482006
 20
1513.660300006745
 30
0.0
 11
10440.68826420171
 21
1537.660300006745
 31
0.0
  0
LINE
  5
295CA
330
747D
100
AcDbEntity
  8
細線
100
AcDbLine
 10
10401.55370402156
 20
1537.660300006747
 30
0.0
 11
10493.25261967491
 21
1629.359215660095
 31
0.0
  0
LINE
  5
295CB
330
747D
100
AcDbEntity
  8
細線
 48
50.0
100
AcDbLine
 10
10526.00708976731
 20
1513.660300006744
 30
0.0
 11
10519.57630914897
 21
1537.660300006744
 31
0.0
  0
LINE
  5
295CC
330
747D
100
AcDbEntity
  8
細線
 48
50.0
100
AcDbLine
 10
10577.02841870172
 20
1409.660300006744
 30
0.0
 11
10611.3259153329
 21
1537.660300006742
 31
0.0
  0
LINE
  5
295CD
330
747D
100
AcDbEntity
  8
部品1
100
AcDbLine
 10
10648.51730952223
 20
1629.359215660095
 30
0.0
 11
10648.51730952223
 21
1409.660300006745
 31
0.0
  0
LINE
  5
295CE
330
747D
100
AcDbEntity
  8
細線
 48
50.0
100
AcDbLine
 10
10583.45919932007
 20
1433.660300006744
 30
0.0
 11
10589.88997993842
 21
1409.660300006744
 31
0.0
  0
LINE
  5
295CF
330
747D
100
AcDbEntity
  8
細線
 48
50.0
100
AcDbLine
 10
10604.89513471456
 20
1513.660300006744
 30
0.0
 11
10598.46435409621
 21
1537.660300006744
 31
0.0
  0
LEADER
  5
295D0
330
747D
100
AcDbEntity
  8
寸法
 48
50.0
100
AcDbLeader
  3
INABA_S50G
 73
     0
 74
     0
 75
     1
 40
120.0
 41
185.591883092037
 76
     3
 10
10459.24172113815
 20
1869.359215660095
 30
0.0
 10
10492.37992777179
 20
2041.505536341233
 30
0.0
 10
10617.37992777179
 20
2041.505536341233
 30
0.0
340
295D1
1001
ACAD
1000
DSTYLE
1002
{
1070
    40
1040
1.0
1002
}
  0
MTEXT
  5
295D1
102
{ACAD_REACTORS
330
295D0
102
}
330
747D
100
AcDbEntity
  8
寸法
 62
     7
 48
50.0
100
AcDbMText
 10
10642.37992777179
 20
2126.505536341233
 30
0.0
 40
120.0
 41
0.8
 71
     4
 72
     1
  1
\A1;C.B
  7
STYLE1
 73
     1
 44
1.0
1001
ACAD
1000
MTEXTBEGIN
1070
    73
1070
     1
1070
    44
1040
1.0
1070
    74
1070
     0
1000
MTEXTEND
  0
HATCH
  5
29681
330
747D
100
AcDbEntity
  8
細線
 48
50.0
100
AcDbHatch
 10
0.0
 20
0.0
 30
0.0
210
0.0
220
0.0
230
1.0
  2
LINE
 70
     0
 71
     1
 91
        1
 92
        7
 72
     0
 73
     1
 93
        4
 10
8323.600000000004
 20
7486.352470292191
 10
8123.600000000001
 20
7486.352470292191
 10
8123.600000000006
 20
7286.35247029219
 10
8323.600000000004
 20
7286.35247029219
 97
        4
330
28428
330
2846C
330
28427
330
28478
 75
     0
 76
     1
 52
45.0
 41
10.0
 77
     0
 78
     1
 53
45.0
 43
0.0
 44
0.0
 45
-22.45064030267288
 46
22.45064030267288
 79
     0
 47
1.036810199919079
 98
        1
 10
8155.424797714172
 20
7391.559210455692
  0
SPLINE
  5
29688
330
747D
100
AcDbEntity
  8
細線
 48
50.0
100
AcDbSpline
210
0.0
220
0.0
230
1.0
 70
     8
 71
     3
 72
    10
 73
     6
 74
     4
 42
0.0000000001
 43
0.0000000001
 44
0.0000000001
 40
0.0
 40
0.0
 40
0.0
 40
0.0
 40
192.2397835813012
 40
392.3518421163208
 40
606.4563990014053
 40
606.4563990014053
 40
606.4563990014053
 40
606.4563990014053
 10
8201.238379880917
 20
6946.448145498367
 30
0.0
 10
8101.292192637631
 20
6934.872381743176
 30
0.0
 10
7897.306992764469
 20
6911.246823346047
 30
0.0
 10
8316.964425692109
 20
6777.9700633149
 30
0.0
 10
8096.169020121925
 20
6753.744447989037
 30
0.0
 10
7982.042013352963
 20
6741.222462048536
 30
0.0
 11
8201.238379880917
 21
6946.448145498367
 31
0.0
 11
8015.549008079517
 21
6896.692828281139
 31
0.0
 11
8188.851134374443
 21
6796.636799013629
 31
0.0
 11
7982.042013352963
 21
6741.222462048536
 31
0.0
  0
LINE
  5
29689
330
747D
100
AcDbEntity
  8
細線
 48
50.0
100
AcDbLine
 10
8270.972969880626
 20
8000.523706823896
 30
0.0
 11
7941.690051395543
 21
5678.736593960677
 31
0.0
  0
ENDSEC
  0
SECTION
  2
OBJECTS
  0
DICTIONARY
  5
7471
330
0
100
AcDbDictionary
281
     1
  3
ACAD_COLOR
350
173D2
  3
ACAD_GROUP
350
7472
  3
ACAD_LAYOUT
350
173D3
  3
ACAD_MATERIAL
350
173D1
  3
ACAD_MLINESTYLE
350
7473
  3
ACAD_PLOTSETTINGS
350
173D4
  3
ACAD_PLOTSTYLENAME
350
173CF
  3
ACDBHEADERROUNDTRIPXREC
350
2969E
  3
AcDbVariableDictionary
350
291D8
  3
CONTENTDICTIONARY
350
E71C
  3
DRAWINGVARIABLESDICT
350
F3B9
  0
DICTIONARY
  5
1758F
330
7467
100
AcDbDictionary
280
     1
281
     1
  3
ACAD_LAYERSTATES
360
17590
  0
DICTIONARY
  5
173D2
102
{ACAD_REACTORS
330
7471
102
}
330
7471
100
AcDbDictionary
281
     1
  0
DICTIONARY
  5
7472
102
{ACAD_REACTORS
330
7471
102
}
330
7471
100
AcDbDictionary
281
     1
  3
*A1
350
1D2A9
  0
DICTIONARY
  5
173D3
102
{ACAD_REACTORS
330
7471
102
}
330
7471
100
AcDbDictionary
281
     1
  3
Model
350
173D5
  3
レイアウト1
350
173D6
  0
DICTIONARY
  5
173D1
102
{ACAD_REACTORS
330
7471
102
}
330
7471
100
AcDbDictionary
281
     1
  0
DICTIONARY
  5
7473
102
{ACAD_REACTORS
330
7471
102
}
330
7471
100
AcDbDictionary
281
     1
  3
STANDARD
350
7480
  0
DICTIONARY
  5
173D4
102
{ACAD_REACTORS
330
7471
102
}
330
7471
100
AcDbDictionary
281
     1
  0
ACDBDICTIONARYWDFLT
  5
173CF
102
{ACAD_REACTORS
330
7471
102
}
330
7471
100
AcDbDictionary
281
     1
  3
Normal
350
173D0
100
AcDbDictionaryWithDefault
340
173D0
  0
DICTIONARY
  5
2969E
102
{ACAD_REACTORS
330
7471
102
}
330
7471
100
AcDbDictionary
281
     1
  3
COLORDICT
350
296A0
  3
MATERIALDICT
350
2969F
  0
DICTIONARY
  5
291D8
102
{ACAD_REACTORS
330
7471
102
}
330
7471
100
AcDbDictionary
281
     1
  3
DIMASSOC
350
291D9
  3
PROJECTNAME
350
291DA
  0
DICTIONARY
  5
E71C
102
{ACAD_REACTORS
330
7471
102
}
330
7471
100
AcDbDictionary
281
     1
  0
DICTIONARY
  5
F3B9
102
{ACAD_REACTORS
330
7471
102
}
330
7471
100
AcDbDictionary
281
     1
1001
DRAWINGVARIABLESXDATA
1000
POLARMODE
1000
1
  0
DICTIONARY
  5
17590
102
{ACAD_REACTORS
330
1758F
102
}
330
1758F
100
AcDbDictionary
281
     1
  0
GROUP
  5
1D2A9
102
{ACAD_REACTORS
330
7472
102
}
330
7472
100
AcDbGroup
300

 70
     1
 71
     1
  0
LAYOUT
  5
173D5
102
{ACAD_XDICTIONARY
360
296A1
102
}
102
{ACAD_REACTORS
330
173D3
102
}
330
173D3
100
AcDbPlotSettings
  1

  2
クセロPDFよこ.pc3
  4
A3
  6

 40
3.174999952316284
 41
3.174999952316284
 42
3.17498779296875
 43
3.17498779296875
 44
419.9466552734374
 45
296.9259948730469
 46
0.0
 47
0.0
 48
0.0
 49
0.0
140
0.0
141
0.0
142
1.0
143
40.0
 70
 11952
 72
     1
 73
     0
 74
     2
  7
ACA3.ctb
 75
    24
147
0.025
148
0.0
149
0.0
100
AcDbLayout
  1
Model
 70
     1
 71
     0
 10
0.0
 20
0.0
 11
12.0
 21
9.0
 12
0.0
 22
0.0
 32
0.0
 14
0.0
 24
0.0
 34
0.0
 15
0.0
 25
0.0
 35
0.0
146
0.0
 13
0.0
 23
0.0
 33
0.0
 16
1.0
 26
0.0
 36
0.0
 17
0.0
 27
1.0
 37
0.0
 76
     0
330
747D
  0
LAYOUT
  5
173D6
102
{ACAD_XDICTIONARY
360
296A3
102
}
102
{ACAD_REACTORS
330
173D3
102
}
330
173D3
100
AcDbPlotSettings
  1

  2
Microsoft Office Document Image Writer
  4

  6

 40
0.0
 41
0.0
 42
0.0
 43
0.0
 44
0.0
 45
0.0
 46
0.0
 47
0.0
 48
0.0
 49
0.0
140
0.0
141
0.0
142
1.0
143
1.0
 70
   688
 72
     0
 73
     0
 74
     5
  7
ACA3.ctb
 75
    16
147
1.0
148
0.0
149
0.0
100
AcDbLayout
  1
レイアウト1
 70
     0
 71
     1
 10
0.0
 20
0.0
 11
420.0
 21
297.0
 12
0.0
 22
0.0
 32
0.0
 14
1.000000000000000E+20
 24
1.000000000000000E+20
 34
1.000000000000000E+20
 15
-1.000000000000000E+20
 25
-1.000000000000000E+20
 35
-1.000000000000000E+20
146
0.0
 13
0.0
 23
0.0
 33
0.0
 16
1.0
 26
0.0
 36
0.0
 17
0.0
 27
1.0
 37
0.0
 76
     0
330
747A
  0
MLINESTYLE
  5
7480
102
{ACAD_REACTORS
330
7473
102
}
330
7473
100
AcDbMlineStyle
  2
STANDARD
 70
     0
  3

 62
     0
 51
90.0
 52
90.0
 71
     2
 49
0.5
 62
   256
  6
BYLAYER
 49
-0.5
 62
   256
  6
BYLAYER
  0
ACDBPLACEHOLDER
  5
173D0
102
{ACAD_REACTORS
330
173CF
102
}
330
173CF
  0
XRECORD
  5
296A0
102
{ACAD_REACTORS
330
2969E
102
}
330
2969E
100
AcDbXrecord
280
     1
340
173D2
  0
XRECORD
  5
2969F
102
{ACAD_REACTORS
330
2969E
102
}
330
2969E
100
AcDbXrecord
280
     1
340
173D1
  0
DICTIONARYVAR
  5
291D9
102
{ACAD_REACTORS
330
291D8
102
}
330
291D8
100
DictionaryVariables
280
     0
  1
1
  0
DICTIONARYVAR
  5
291DA
102
{ACAD_REACTORS
330
291D8
102
}
330
291D8
100
DictionaryVariables
280
     0
  1

  0
DICTIONARY
  5
296A1
330
173D5
100
AcDbDictionary
280
     1
281
     1
  3
ACAD_XREC_ROUNDTRIP
360
296A2
  0
DICTIONARY
  5
296A3
330
173D6
100
AcDbDictionary
280
     1
281
     1
  3
ACAD_XREC_ROUNDTRIP
360
296A4
  0
XRECORD
  5
296A2
102
{ACAD_REACTORS
330
296A1
102
}
330
296A1
100
AcDbXrecord
280
     1
102
SHADEPLOT
 70
     0
102
SHADEPLOTRESLEVEL
 70
     2
102
SHADEPLOTCUSTOMDPI
 70
   150
  0
XRECORD
  5
296A4
102
{ACAD_REACTORS
330
296A3
102
}
330
296A3
100
AcDbXrecord
280
     1
102
SHADEPLOT
 70
     0
102
SHADEPLOTRESLEVEL
 70
     2
102
SHADEPLOTCUSTOMDPI
 70
   300
  0
ENDSEC
  0
EOF
