  0
SECTION
  2
HEADER
  9
$ACADVER
  1
AC1015
  9
$ACADMAINTVER
 70
    20
  9
$DWGCODEPAGE
  3
ANSI_932
  9
$INSBASE
 10
0.0
 20
0.0
 30
0.0
  9
$EXTMIN
 10
139.9999999999995
 20
-0.0000000000000909
 30
0.0
  9
$EXTMAX
 10
16307.2
 20
11409.6
 30
0.0
  9
$LIMMIN
 10
0.0
 20
0.0
  9
$LIMMAX
 10
16800.0
 20
11880.0
  9
$ORTHOMODE
 70
     0
  9
$REGENMODE
 70
     1
  9
$FILLMODE
 70
     1
  9
$QTEXTMODE
 70
     0
  9
$MIRRTEXT
 70
     1
  9
$LTSCALE
 40
20.0
  9
$ATTMODE
 70
     1
  9
$TEXTSIZE
 40
4.0
  9
$TRACEWID
 40
1.0
  9
$TEXTSTYLE
  7
STYLE1
  9
$CLAYER
  8
寸法
  9
$CELTYPE
  6
BYLAYER
  9
$CECOLOR
 62
   256
  9
$CELTSCALE
 40
50.0
  9
$DISPSILH
 70
     0
  9
$DIMSCALE
 40
40.0
  9
$DIMASZ
 40
2.5
  9
$DIMEXO
 40
0.5
  9
$DIMDLI
 40
7.0
  9
$DIMRND
 40
0.0
  9
$DIMDLE
 40
0.0
  9
$DIMEXE
 40
1.5
  9
$DIMTP
 40
0.0
  9
$DIMTM
 40
0.0
  9
$DIMTXT
 40
3.0
  9
$DIMCEN
 40
0.0
  9
$DIMTSZ
 40
0.0
  9
$DIMTOL
 70
     0
  9
$DIMLIM
 70
     0
  9
$DIMTIH
 70
     0
  9
$DIMTOH
 70
     0
  9
$DIMSE1
 70
     0
  9
$DIMSE2
 70
     0
  9
$DIMTAD
 70
     3
  9
$DIMZIN
 70
     8
  9
$DIMBLK
  1

  9
$DIMASO
 70
     1
  9
$DIMSHO
 70
     1
  9
$DIMPOST
  1

  9
$DIMAPOST
  1

  9
$DIMALT
 70
     0
  9
$DIMALTD
 70
     2
  9
$DIMALTF
 40
0.0394
  9
$DIMLFAC
 40
1.0
  9
$DIMTOFL
 70
     1
  9
$DIMTVP
 40
0.0
  9
$DIMTIX
 70
     1
  9
$DIMSOXD
 70
     0
  9
$DIMSAH
 70
     1
  9
$DIMBLK1
  1
DOTSMALL
  9
$DIMBLK2
  1
DOTSMALL
  9
$DIMSTYLE
  2
INABA_S40G
  9
$DIMCLRD
 70
     0
  9
$DIMCLRE
 70
     0
  9
$DIMCLRT
 70
     7
  9
$DIMTFAC
 40
1.0
  9
$DIMGAP
 40
1.0
  9
$DIMJUST
 70
     0
  9
$DIMSD1
 70
     0
  9
$DIMSD2
 70
     0
  9
$DIMTOLJ
 70
     1
  9
$DIMTZIN
 70
     0
  9
$DIMALTZ
 70
     0
  9
$DIMALTTZ
 70
     0
  9
$DIMUPT
 70
     0
  9
$DIMDEC
 70
     1
  9
$DIMTDEC
 70
     4
  9
$DIMALTU
 70
     2
  9
$DIMALTTD
 70
     2
  9
$DIMTXSTY
  7
STYLE1
  9
$DIMAUNIT
 70
     0
  9
$DIMADEC
 70
     0
  9
$DIMALTRND
 40
0.0
  9
$DIMAZIN
 70
     0
  9
$DIMDSEP
 70
    46
  9
$DIMATFIT
 70
     3
  9
$DIMFRAC
 70
     0
  9
$DIMLDRBLK
  1

  9
$DIMLUNIT
 70
     2
  9
$DIMLWD
 70
    -2
  9
$DIMLWE
 70
    -2
  9
$DIMTMOVE
 70
     0
  9
$LUNITS
 70
     2
  9
$LUPREC
 70
     1
  9
$SKETCHINC
 40
1.0
  9
$FILLETRAD
 40
3.0
  9
$AUNITS
 70
     0
  9
$AUPREC
 70
     0
  9
$MENU
  1
acad
  9
$ELEVATION
 40
0.0
  9
$PELEVATION
 40
0.0
  9
$THICKNESS
 40
0.0
  9
$LIMCHECK
 70
     0
  9
$CHAMFERA
 40
0.0
  9
$CHAMFERB
 40
0.0
  9
$CHAMFERC
 40
0.0
  9
$CHAMFERD
 40
0.0
  9
$SKPOLY
 70
     0
  9
$TDCREATE
 40
2451368.612993866
  9
$TDUCREATE
 40
2451368.237993866
  9
$TDUPDATE
 40
2455826.602045533
  9
$TDUUPDATE
 40
2455826.227045533
  9
$TDINDWG
 40
0.7741427894
  9
$TDUSRTIMER
 40
0.7741427894
  9
$USRTIMER
 70
     1
  9
$ANGBASE
 50
0.0
  9
$ANGDIR
 70
     0
  9
$PDMODE
 70
     3
  9
$PDSIZE
 40
2.0
  9
$PLINEWID
 40
0.0
  9
$SPLFRAME
 70
     0
  9
$SPLINETYPE
 70
     6
  9
$SPLINESEGS
 70
     8
  9
$HANDSEED
  5
269EC
  9
$SURFTAB1
 70
     6
  9
$SURFTAB2
 70
     6
  9
$SURFTYPE
 70
     6
  9
$SURFU
 70
     6
  9
$SURFV
 70
     6
  9
$UCSBASE
  2

  9
$UCSNAME
  2

  9
$UCSORG
 10
0.0
 20
0.0
 30
0.0
  9
$UCSXDIR
 10
1.0
 20
0.0
 30
0.0
  9
$UCSYDIR
 10
0.0
 20
1.0
 30
0.0
  9
$UCSORTHOREF
  2

  9
$UCSORTHOVIEW
 70
     0
  9
$UCSORGTOP
 10
0.0
 20
0.0
 30
0.0
  9
$UCSORGBOTTOM
 10
0.0
 20
0.0
 30
0.0
  9
$UCSORGLEFT
 10
0.0
 20
0.0
 30
0.0
  9
$UCSORGRIGHT
 10
0.0
 20
0.0
 30
0.0
  9
$UCSORGFRONT
 10
0.0
 20
0.0
 30
0.0
  9
$UCSORGBACK
 10
0.0
 20
0.0
 30
0.0
  9
$PUCSBASE
  2

  9
$PUCSNAME
  2

  9
$PUCSORG
 10
0.0
 20
0.0
 30
0.0
  9
$PUCSXDIR
 10
1.0
 20
0.0
 30
0.0
  9
$PUCSYDIR
 10
0.0
 20
1.0
 30
0.0
  9
$PUCSORTHOREF
  2

  9
$PUCSORTHOVIEW
 70
     0
  9
$PUCSORGTOP
 10
0.0
 20
0.0
 30
0.0
  9
$PUCSORGBOTTOM
 10
0.0
 20
0.0
 30
0.0
  9
$PUCSORGLEFT
 10
0.0
 20
0.0
 30
0.0
  9
$PUCSORGRIGHT
 10
0.0
 20
0.0
 30
0.0
  9
$PUCSORGFRONT
 10
0.0
 20
0.0
 30
0.0
  9
$PUCSORGBACK
 10
0.0
 20
0.0
 30
0.0
  9
$USERI1
 70
     0
  9
$USERI2
 70
     0
  9
$USERI3
 70
     0
  9
$USERI4
 70
     0
  9
$USERI5
 70
     0
  9
$USERR1
 40
0.0
  9
$USERR2
 40
0.0
  9
$USERR3
 40
0.0
  9
$USERR4
 40
0.0
  9
$USERR5
 40
0.0
  9
$WORLDVIEW
 70
     1
  9
$SHADEDGE
 70
     3
  9
$SHADEDIF
 70
    70
  9
$TILEMODE
 70
     1
  9
$MAXACTVP
 70
    16
  9
$PINSBASE
 10
0.0
 20
0.0
 30
0.0
  9
$PLIMCHECK
 70
     0
  9
$PEXTMIN
 10
1.000000000000000E+20
 20
1.000000000000000E+20
 30
1.000000000000000E+20
  9
$PEXTMAX
 10
-1.000000000000000E+20
 20
-1.000000000000000E+20
 30
-1.000000000000000E+20
  9
$PLIMMIN
 10
0.0
 20
0.0
  9
$PLIMMAX
 10
420.0
 20
297.0
  9
$UNITMODE
 70
     0
  9
$VISRETAIN
 70
     0
  9
$PLINEGEN
 70
     0
  9
$PSLTSCALE
 70
     0
  9
$TREEDEPTH
 70
  3020
  9
$CMLSTYLE
  2
STANDARD
  9
$CMLJUST
 70
     0
  9
$CMLSCALE
 40
1.0
  9
$PROXYGRAPHICS
 70
     1
  9
$MEASUREMENT
 70
     1
  9
$CELWEIGHT
370
    -1
  9
$ENDCAPS
280
     0
  9
$JOINSTYLE
280
     0
  9
$LWDISPLAY
290
     0
  9
$INSUNITS
 70
     0
  9
$HYPERLINKBASE
  1

  9
$STYLESHEET
  1

  9
$XEDIT
290
     1
  9
$CEPSNTYPE
380
     0
  9
$PSTYLEMODE
290
     1
  9
$FINGERPRINTGUID
  2
{5EAC461A-2277-4BF8-9AB0-99C43BB394F0}
  9
$VERSIONGUID
  2
{E7FE56DF-42F2-44F5-934E-349584847D2E}
  9
$EXTNAMES
290
     1
  9
$PSVPSCALE
 40
0.0
  9
$OLESTARTUP
290
     0
  0
ENDSEC
  0
SECTION
  2
CLASSES
  0
CLASS
  1
ACDBDICTIONARYWDFLT
  2
AcDbDictionaryWithDefault
  3
ObjectDBX Classes
 90
        0
280
     0
281
     0
  0
CLASS
  1
DICTIONARYVAR
  2
AcDbDictionaryVar
  3
ObjectDBX Classes
 90
        0
280
     0
281
     0
  0
CLASS
  1
ACDBPLACEHOLDER
  2
AcDbPlaceHolder
  3
ObjectDBX Classes
 90
        0
280
     0
281
     0
  0
CLASS
  1
LAYOUT
  2
AcDbLayout
  3
ObjectDBX Classes
 90
        0
280
     0
281
     0
  0
ENDSEC
  0
SECTION
  2
TABLES
  0
TABLE
  2
VPORT
  5
746D
330
0
100
AcDbSymbolTable
 70
     2
  0
VPORT
  5
269E4
330
746D
100
AcDbSymbolTableRecord
100
AcDbViewportTableRecord
  2
*Active
 70
     0
 10
0.0
 20
0.0
 11
1.0
 21
1.0
 12
8400.000000000002
 22
6532.467989526317
 13
0.0
 23
0.0
 14
10.0
 24
10.0
 15
10.0
 25
10.0
 16
0.0
 26
0.0
 36
1.0
 17
0.0
 27
0.0
 37
0.0
 40
13159.96111582214
 41
1.522222222222222
 42
50.0
 43
0.0
 44
0.0
 50
0.0
 51
0.0
 71
     0
 72
     0
 73
     1
 74
     0
 75
     0
 76
     0
 77
     0
 78
     0
281
     0
 65
     1
110
0.0
120
0.0
130
0.0
111
1.0
121
0.0
131
0.0
112
0.0
122
1.0
132
0.0
 79
     0
146
0.0
  0
ENDTAB
  0
TABLE
  2
LTYPE
  5
746A
330
0
100
AcDbSymbolTable
 70
     5
  0
LTYPE
  5
7477
330
746A
100
AcDbSymbolTableRecord
100
AcDbLinetypeTableRecord
  2
BYBLOCK
 70
     0
  3

 72
    65
 73
     0
 40
0.0
  0
LTYPE
  5
7478
330
746A
100
AcDbSymbolTableRecord
100
AcDbLinetypeTableRecord
  2
BYLAYER
 70
     0
  3

 72
    65
 73
     0
 40
0.0
  0
LTYPE
  5
7479
330
746A
100
AcDbSymbolTableRecord
100
AcDbLinetypeTableRecord
  2
CONTINUOUS
 70
     0
  3
Solid line
 72
    65
 73
     0
 40
0.0
  0
LTYPE
  5
7816
330
746A
100
AcDbSymbolTableRecord
100
AcDbLinetypeTableRecord
  2
CENTER
 70
     0
  3
____ _ ____ _ ____ _ ____ _ ____ _ ____ _ ____ 
 72
    65
 73
     4
 40
2.0
 49
1.25
 74
     0
 49
-0.25
 74
     0
 49
0.25
 74
     0
 49
-0.25
 74
     0
  0
LTYPE
  5
781A
330
746A
100
AcDbSymbolTableRecord
100
AcDbLinetypeTableRecord
  2
HIDDEN
 70
     0
  3
__ __ __ __ __ __ __ __ __ __ __ __ __ __ __ __
 72
    65
 73
     2
 40
0.375
 49
0.25
 74
     0
 49
-0.125
 74
     0
  0
LTYPE
  5
781B
330
746A
100
AcDbSymbolTableRecord
100
AcDbLinetypeTableRecord
  2
PHANTOM
 70
     0
  3
______  __  __  ______  __  __  ______  __  __ 
 72
    65
 73
     6
 40
2.5
 49
1.25
 74
     0
 49
-0.25
 74
     0
 49
0.25
 74
     0
 49
-0.25
 74
     0
 49
0.25
 74
     0
 49
-0.25
 74
     0
  0
LTYPE
  5
12CC3
330
746A
100
AcDbSymbolTableRecord
100
AcDbLinetypeTableRecord
  2
HIDDENX2
 70
     0
  3
Hidden (2x) ____ ____ ____ ____ ____ ____ ____
 72
    65
 73
     2
 40
19.05
 49
12.7
 74
     0
 49
-6.349999999999999
 74
     0
  0
ENDTAB
  0
TABLE
  2
LAYER
  5
7467
102
{ACAD_XDICTIONARY
360
1758F
102
}
330
0
100
AcDbSymbolTable
 70
    12
  0
LAYER
  5
7474
330
7467
100
AcDbSymbolTableRecord
100
AcDbLayerTableRecord
  2
0
 70
     0
 62
     7
  6
CONTINUOUS
370
    -3
390
173D0
  0
LAYER
  5
DEB2
330
7467
100
AcDbSymbolTableRecord
100
AcDbLayerTableRecord
  2
センター
 70
     0
 62
     3
  6
CENTER
370
    -3
390
173D0
  0
LAYER
  5
DEB3
330
7467
100
AcDbSymbolTableRecord
100
AcDbLayerTableRecord
  2
寸法
 70
     0
 62
     4
  6
CONTINUOUS
370
    -3
390
173D0
  0
LAYER
  5
DEB4
330
7467
100
AcDbSymbolTableRecord
100
AcDbLayerTableRecord
  2
部品1
 70
     0
 62
     7
  6
CONTINUOUS
370
    -3
390
173D0
  0
LAYER
  5
DEB5
330
7467
100
AcDbSymbolTableRecord
100
AcDbLayerTableRecord
  2
補助
 70
     0
 62
    -1
  6
CONTINUOUS
370
    -3
390
173D0
  0
LAYER
  5
DEB6
330
7467
100
AcDbSymbolTableRecord
100
AcDbLayerTableRecord
  2
文字
 70
     0
 62
     7
  6
CONTINUOUS
370
    -3
390
173D0
  0
LAYER
  5
F255
330
7467
100
AcDbSymbolTableRecord
100
AcDbLayerTableRecord
  2
DEFPOINTS
 70
     0
 62
     7
  6
CONTINUOUS
290
     0
370
    -3
390
173D0
  0
LAYER
  5
10B54
330
7467
100
AcDbSymbolTableRecord
100
AcDbLayerTableRecord
  2
仕様書枠
 70
     0
 62
   230
  6
CONTINUOUS
370
    -3
390
173D0
  0
LAYER
  5
11729
330
7467
100
AcDbSymbolTableRecord
100
AcDbLayerTableRecord
  2
Ｇ．Ｌ
 70
     0
 62
    30
  6
CONTINUOUS
370
    -3
390
173D0
  0
LAYER
  5
1173F
330
7467
100
AcDbSymbolTableRecord
100
AcDbLayerTableRecord
  2
細線
 70
     0
 62
     5
  6
CONTINUOUS
370
    -3
390
173D0
  0
LAYER
  5
12CC4
330
7467
100
AcDbSymbolTableRecord
100
AcDbLayerTableRecord
  2
想像線
 70
     0
 62
     6
  6
PHANTOM
370
    -3
390
173D0
  0
LAYER
  5
142E2
330
7467
100
AcDbSymbolTableRecord
100
AcDbLayerTableRecord
  2
破線
 70
     0
 62
     2
  6
HIDDEN
370
    -3
390
173D0
  0
ENDTAB
  0
TABLE
  2
STYLE
  5
7468
330
0
100
AcDbSymbolTable
 70
     7
  0
STYLE
  5
7475
330
7468
100
AcDbSymbolTableRecord
100
AcDbTextStyleTableRecord
  2
STANDARD
 70
     0
 40
0.0
 41
1.0
 50
0.0
 71
     0
 42
4.0
  3
txt
  4
C:\AutoCAD LT\bigfont.shx
  0
STYLE
  5
763C
330
7468
100
AcDbSymbolTableRecord
100
AcDbTextStyleTableRecord
  2
MSMINCHO
 70
     0
 40
0.0
 41
1.0
 50
0.0
 71
     0
 42
1.199999999999999
  3
C:\AutoCAD LT\msminch2.TTF
  4

  0
STYLE
  5
F706
330
7468
100
AcDbSymbolTableRecord
100
AcDbTextStyleTableRecord
  2
STYLE1
 70
     0
 40
0.0
 41
1.0
 50
0.0
 71
     0
 42
4.0
  3
isocp.shx
  4
bigfont.shx
  0
STYLE
  5
103BF
330
7468
100
AcDbSymbolTableRecord
100
AcDbTextStyleTableRecord
  2
STYLE2
 70
     0
 40
0.0
 41
1.0
 50
0.0
 71
     0
 42
100.0
  3
MS PGothic.ttf
  4

1001
ACAD
1000
MS PGothic
1071
    32818
  0
STYLE
  5
10BAA
330
7468
100
AcDbSymbolTableRecord
100
AcDbTextStyleTableRecord
  2
STYLE3
 70
     0
 40
0.0
 41
1.0
 50
0.0
 71
     0
 42
100.0
  3

  4

1001
ACAD
1000
DFPGothic-EB
1071
    32818
  0
STYLE
  5
11A15
330
7468
100
AcDbSymbolTableRecord
100
AcDbTextStyleTableRecord
  2
MSGOTHIC
 70
     0
 40
0.0
 41
1.0
 50
0.0
 71
     0
 42
3.5
  3
msgothi2.ttf
  4

  0
STYLE
  5
13E96
330
7468
100
AcDbSymbolTableRecord
100
AcDbTextStyleTableRecord
  2
MSPゴシック
 70
     0
 40
0.0
 41
1.0
 50
0.0
 71
     0
 42
4.0
  3
MS PGothic.ttf
  4

1001
ACAD
1000
MS PGothic
1071
    32818
  0
ENDTAB
  0
TABLE
  2
VIEW
  5
746B
330
0
100
AcDbSymbolTable
 70
     0
  0
ENDTAB
  0
TABLE
  2
UCS
  5
746C
330
0
100
AcDbSymbolTable
 70
     0
  0
ENDTAB
  0
TABLE
  2
APPID
  5
746E
330
0
100
AcDbSymbolTable
 70
     6
  0
APPID
  5
7476
330
746E
100
AcDbSymbolTableRecord
100
AcDbRegAppTableRecord
  2
ACAD
 70
     0
  0
APPID
  5
DEA9
330
746E
100
AcDbSymbolTableRecord
100
AcDbRegAppTableRecord
  2
CONTENTBLOCKICON
 70
     0
  0
APPID
  5
DEAA
330
746E
100
AcDbSymbolTableRecord
100
AcDbRegAppTableRecord
  2
CONTENTBLOCKDESCRIPTION
 70
     0
  0
APPID
  5
E71D
330
746E
100
AcDbSymbolTableRecord
100
AcDbRegAppTableRecord
  2
CONTENTTABDATA
 70
     0
  0
APPID
  5
E71E
330
746E
100
AcDbSymbolTableRecord
100
AcDbRegAppTableRecord
  2
CONTENTCURRENTTAB
 70
     0
  0
APPID
  5
F3BA
330
746E
100
AcDbSymbolTableRecord
100
AcDbRegAppTableRecord
  2
DRAWINGVARIABLESXDATA
 70
     0
  0
ENDTAB
  0
TABLE
  2
DIMSTYLE
  5
746F
330
0
100
AcDbSymbolTable
 70
     6
100
AcDbDimStyleTable
 71
     1
340
F71F
  0
DIMSTYLE
105
7484
330
746F
100
AcDbSymbolTableRecord
100
AcDbDimStyleTableRecord
  2
JIS
 70
     0
 41
2.5
 42
1.0
 43
7.0
 44
1.0
 73
     0
 74
     0
 77
     1
 78
     8
140
2.5
141
0.0
143
0.0394
147
0.0
172
     1
174
     1
175
     1
340
7475
  0
DIMSTYLE
105
F236
330
746F
100
AcDbSymbolTableRecord
100
AcDbDimStyleTableRecord
  2
INABA_S40
 70
     0
 40
40.0
 41
2.5
 42
0.5
 43
7.0
 44
1.5
 73
     0
 74
     0
 77
     3
 78
     8
140
3.0
141
0.0
143
0.0394
147
1.0
172
     1
173
     1
174
     1
175
     1
178
     7
289
     0
340
7475
341
DEAC
343
DEAC
344
DEAC
  0
DIMSTYLE
105
F71F
102
{ACAD_REACTORS
330
20DE1
330
20DFB
330
22741
330
2275B
330
229ED
330
229EC
330
22A4B
330
25EAB
330
25EAA
330
25E5B
330
25E5A
330
25E59
330
25E15
330
25E14
330
25E12
330
25DBF
330
25DBE
330
25DBD
330
25DBB
330
25DAA
330
25DA7
330
25DA6
330
25DC5
330
25DBC
330
25DBA
330
25DC3
330
25DD8
330
25DC2
330
2682C
330
2682D
330
26835
330
2683C
330
2683F
330
2689F
102
}
330
746F
100
AcDbSymbolTableRecord
100
AcDbDimStyleTableRecord
  2
INABA_S40G
 70
     0
 40
40.0
 41
2.5
 42
0.5
 43
7.0
 44
1.5
 73
     0
 74
     0
 77
     3
 78
     8
140
3.0
141
0.0
143
0.0394
147
1.0
172
     1
173
     1
174
     1
178
     7
271
     1
340
F706
341
F770
343
F770
344
F770
  0
DIMSTYLE
105
142E3
330
746F
100
AcDbSymbolTableRecord
100
AcDbDimStyleTableRecord
  2
INABA_S1
 70
     0
 40
0.0
 41
2.5
 42
0.5
 43
7.0
 44
1.5
 73
     0
 74
     0
 77
     3
 78
     8
140
3.0
141
0.0
143
0.0394
146
0.5
147
0.5
172
     1
173
     1
176
   256
177
   256
178
     7
271
     2
272
     2
284
     8
288
     1
340
7475
341
DEAC
343
DEAC
344
DEAC
  0
DIMSTYLE
105
14463
330
746F
100
AcDbSymbolTableRecord
100
AcDbDimStyleTableRecord
  2
INABA_S30G
 70
     0
 40
30.0
 41
2.5
 42
0.5
 43
7.0
 44
1.5
 73
     0
 74
     0
 77
     3
 78
     8
140
3.0
141
0.0
143
0.0394
147
1.0
172
     1
173
     1
174
     1
175
     1
178
     7
271
     1
340
F706
341
F770
343
F770
344
F770
  0
DIMSTYLE
105
1758E
330
746F
100
AcDbSymbolTableRecord
100
AcDbDimStyleTableRecord
  2
INABA_S50G
 70
     0
 41
125.0
 42
25.0
 43
7.0
 44
75.0
 73
     0
 74
     0
 77
     3
 78
     8
140
150.0
141
0.0
143
0.0394
147
25.0
172
     1
173
     1
174
     1
175
     1
178
     7
271
     1
340
F706
341
F770
343
F770
344
F770
  0
ENDTAB
  0
TABLE
  2
BLOCK_RECORD
  5
7466
330
0
100
AcDbSymbolTable
 70
    63
  0
BLOCK_RECORD
  5
747D
330
7466
100
AcDbSymbolTableRecord
100
AcDbBlockTableRecord
  2
*MODEL_SPACE
340
173D5
  0
BLOCK_RECORD
  5
747A
330
7466
100
AcDbSymbolTableRecord
100
AcDbBlockTableRecord
  2
*PAPER_SPACE
340
173D6
  0
BLOCK_RECORD
  5
DEAC
330
7466
100
AcDbSymbolTableRecord
100
AcDbBlockTableRecord
  2
_OPEN
340
0
  0
BLOCK_RECORD
  5
F770
330
7466
100
AcDbSymbolTableRecord
100
AcDbBlockTableRecord
  2
_DOTSMALL
340
0
102
{BLKREFS
331
18C65
331
18C66
331
18C59
331
18C5A
331
18C4D
331
18C4E
331
18C41
331
18C42
331
18C35
331
18C36
331
18C29
331
18C2A
331
18C1D
331
18C1E
331
18C0F
331
18C10
331
18C03
331
18C04
331
18BF5
331
18BF6
331
18BE7
331
18BE8
331
18BD9
331
18BDA
331
18BCD
331
18BCE
331
21316
331
21317
331
21321
331
21322
331
2132A
331
2132B
331
26445
331
26446
331
2644F
331
26450
331
26474
331
26475
331
2647E
331
2647F
331
26487
331
26488
331
264A3
331
264A4
331
264D0
331
264D1
331
264EB
331
264EC
331
264F4
331
264F5
331
26511
331
26512
331
26526
331
26527
331
26531
331
26532
331
2653C
331
2653D
331
26547
331
26548
331
2656B
331
2656C
331
26574
331
26575
331
26603
331
26604
331
2660D
331
2660E
331
2661F
331
26620
331
26628
331
26629
331
26631
331
26632
331
2663A
331
2663B
331
2664C
331
2664D
331
26655
331
26656
331
2665E
331
2665F
331
26667
331
26668
331
26670
331
26671
331
26679
331
2667A
331
2669A
331
2669B
331
266E3
331
266E4
331
266D7
331
266D8
331
266C9
331
266CA
331
266BD
331
266BE
331
266B1
331
266B2
331
266A5
331
266A6
331
269A5
331
269A6
331
269B0
331
269B1
331
269B9
331
269BA
331
269C2
331
269C3
331
269CB
331
269CC
331
269D4
331
269D5
102
}
  0
BLOCK_RECORD
  5
164B4
330
7466
100
AcDbSymbolTableRecord
100
AcDbBlockTableRecord
  2
_DOT
340
0
102
{BLKREFS
331
18C73
331
18C74
102
}
  0
BLOCK_RECORD
  5
18BC8
330
7466
100
AcDbSymbolTableRecord
100
AcDbBlockTableRecord
  2
*D3
340
0
  0
BLOCK_RECORD
  5
18BD4
330
7466
100
AcDbSymbolTableRecord
100
AcDbBlockTableRecord
  2
*D4
340
0
  0
BLOCK_RECORD
  5
18BE0
330
7466
100
AcDbSymbolTableRecord
100
AcDbBlockTableRecord
  2
*D5
340
0
  0
BLOCK_RECORD
  5
18BEE
330
7466
100
AcDbSymbolTableRecord
100
AcDbBlockTableRecord
  2
*D6
340
0
  0
BLOCK_RECORD
  5
18BFC
330
7466
100
AcDbSymbolTableRecord
100
AcDbBlockTableRecord
  2
*D7
340
0
  0
BLOCK_RECORD
  5
18C0A
330
7466
100
AcDbSymbolTableRecord
100
AcDbBlockTableRecord
  2
*D8
340
0
  0
BLOCK_RECORD
  5
18C16
330
7466
100
AcDbSymbolTableRecord
100
AcDbBlockTableRecord
  2
*D9
340
0
  0
BLOCK_RECORD
  5
18C24
330
7466
100
AcDbSymbolTableRecord
100
AcDbBlockTableRecord
  2
*D10
340
0
  0
BLOCK_RECORD
  5
18C30
330
7466
100
AcDbSymbolTableRecord
100
AcDbBlockTableRecord
  2
*D11
340
0
  0
BLOCK_RECORD
  5
18C3C
330
7466
100
AcDbSymbolTableRecord
100
AcDbBlockTableRecord
  2
*D12
340
0
  0
BLOCK_RECORD
  5
18C48
330
7466
100
AcDbSymbolTableRecord
100
AcDbBlockTableRecord
  2
*D13
340
0
  0
BLOCK_RECORD
  5
18C54
330
7466
100
AcDbSymbolTableRecord
100
AcDbBlockTableRecord
  2
*D14
340
0
  0
BLOCK_RECORD
  5
18C60
330
7466
100
AcDbSymbolTableRecord
100
AcDbBlockTableRecord
  2
*D15
340
0
  0
BLOCK_RECORD
  5
18C6C
330
7466
100
AcDbSymbolTableRecord
100
AcDbBlockTableRecord
  2
*D16
340
0
  0
BLOCK_RECORD
  5
18C7A
330
7466
100
AcDbSymbolTableRecord
100
AcDbBlockTableRecord
  2
A$C3B1A506B
340
0
  0
BLOCK_RECORD
  5
1C4CA
330
7466
100
AcDbSymbolTableRecord
100
AcDbBlockTableRecord
  2
_NONE
340
0
  0
BLOCK_RECORD
  5
20DE2
330
7466
100
AcDbSymbolTableRecord
100
AcDbBlockTableRecord
  2
*D19
340
0
  0
BLOCK_RECORD
  5
20DFC
330
7466
100
AcDbSymbolTableRecord
100
AcDbBlockTableRecord
  2
*D20
340
0
  0
BLOCK_RECORD
  5
22742
330
7466
100
AcDbSymbolTableRecord
100
AcDbBlockTableRecord
  2
*D25
340
0
  0
BLOCK_RECORD
  5
2275C
330
7466
100
AcDbSymbolTableRecord
100
AcDbBlockTableRecord
  2
*D26
340
0
  0
BLOCK_RECORD
  5
22AFD
330
7466
100
AcDbSymbolTableRecord
100
AcDbBlockTableRecord
  2
*D27
340
0
  0
BLOCK_RECORD
  5
22B0A
330
7466
100
AcDbSymbolTableRecord
100
AcDbBlockTableRecord
  2
*D28
340
0
  0
BLOCK_RECORD
  5
22B17
330
7466
100
AcDbSymbolTableRecord
100
AcDbBlockTableRecord
  2
*D29
340
0
  0
BLOCK_RECORD
  5
25EF0
330
7466
100
AcDbSymbolTableRecord
100
AcDbBlockTableRecord
  2
*D30
340
0
  0
BLOCK_RECORD
  5
25EFC
330
7466
100
AcDbSymbolTableRecord
100
AcDbBlockTableRecord
  2
*D31
340
0
  0
BLOCK_RECORD
  5
25F08
330
7466
100
AcDbSymbolTableRecord
100
AcDbBlockTableRecord
  2
*D32
340
0
  0
BLOCK_RECORD
  5
25F2E
330
7466
100
AcDbSymbolTableRecord
100
AcDbBlockTableRecord
  2
*D33
340
0
  0
BLOCK_RECORD
  5
25F3B
330
7466
100
AcDbSymbolTableRecord
100
AcDbBlockTableRecord
  2
*D34
340
0
  0
BLOCK_RECORD
  5
25F47
330
7466
100
AcDbSymbolTableRecord
100
AcDbBlockTableRecord
  2
*D35
340
0
  0
BLOCK_RECORD
  5
25F53
330
7466
100
AcDbSymbolTableRecord
100
AcDbBlockTableRecord
  2
*D36
340
0
  0
BLOCK_RECORD
  5
25F5F
330
7466
100
AcDbSymbolTableRecord
100
AcDbBlockTableRecord
  2
*D37
340
0
  0
BLOCK_RECORD
  5
25F6B
330
7466
100
AcDbSymbolTableRecord
100
AcDbBlockTableRecord
  2
*D38
340
0
  0
BLOCK_RECORD
  5
25F77
330
7466
100
AcDbSymbolTableRecord
100
AcDbBlockTableRecord
  2
*D39
340
0
  0
BLOCK_RECORD
  5
25F83
330
7466
100
AcDbSymbolTableRecord
100
AcDbBlockTableRecord
  2
*D40
340
0
  0
BLOCK_RECORD
  5
25F8F
330
7466
100
AcDbSymbolTableRecord
100
AcDbBlockTableRecord
  2
*D41
340
0
  0
BLOCK_RECORD
  5
25F9A
330
7466
100
AcDbSymbolTableRecord
100
AcDbBlockTableRecord
  2
*D42
340
0
  0
BLOCK_RECORD
  5
25FA6
330
7466
100
AcDbSymbolTableRecord
100
AcDbBlockTableRecord
  2
*D43
340
0
  0
BLOCK_RECORD
  5
25FB1
330
7466
100
AcDbSymbolTableRecord
100
AcDbBlockTableRecord
  2
*D44
340
0
  0
BLOCK_RECORD
  5
25FBD
330
7466
100
AcDbSymbolTableRecord
100
AcDbBlockTableRecord
  2
*D45
340
0
  0
BLOCK_RECORD
  5
25FC9
330
7466
100
AcDbSymbolTableRecord
100
AcDbBlockTableRecord
  2
*D46
340
0
  0
BLOCK_RECORD
  5
25FEF
330
7466
100
AcDbSymbolTableRecord
100
AcDbBlockTableRecord
  2
*D47
340
0
  0
BLOCK_RECORD
  5
25FFB
330
7466
100
AcDbSymbolTableRecord
100
AcDbBlockTableRecord
  2
*D48
340
0
  0
BLOCK_RECORD
  5
26013
330
7466
100
AcDbSymbolTableRecord
100
AcDbBlockTableRecord
  2
*D49
340
0
  0
BLOCK_RECORD
  5
26020
330
7466
100
AcDbSymbolTableRecord
100
AcDbBlockTableRecord
  2
*D50
340
0
  0
BLOCK_RECORD
  5
26958
330
7466
100
AcDbSymbolTableRecord
100
AcDbBlockTableRecord
  2
*D57
340
0
  0
BLOCK_RECORD
  5
26964
330
7466
100
AcDbSymbolTableRecord
100
AcDbBlockTableRecord
  2
*D58
340
0
  0
BLOCK_RECORD
  5
26972
330
7466
100
AcDbSymbolTableRecord
100
AcDbBlockTableRecord
  2
*D59
340
0
  0
BLOCK_RECORD
  5
2697E
330
7466
100
AcDbSymbolTableRecord
100
AcDbBlockTableRecord
  2
*D60
340
0
  0
BLOCK_RECORD
  5
2698A
330
7466
100
AcDbSymbolTableRecord
100
AcDbBlockTableRecord
  2
*D61
340
0
  0
BLOCK_RECORD
  5
26996
330
7466
100
AcDbSymbolTableRecord
100
AcDbBlockTableRecord
  2
*D62
340
0
  0
ENDTAB
  0
ENDSEC
  0
SECTION
  2
BLOCKS
  0
BLOCK
  5
7489
330
747D
100
AcDbEntity
  8
0
100
AcDbBlockBegin
  2
*MODEL_SPACE
 70
     0
 10
0.0
 20
0.0
 30
0.0
  3
*MODEL_SPACE
  1

  0
ENDBLK
  5
748A
330
747D
100
AcDbEntity
  8
0
100
AcDbBlockEnd
  0
BLOCK
  5
7487
330
747A
100
AcDbEntity
 67
     1
  8
0
100
AcDbBlockBegin
  2
*PAPER_SPACE
 70
     0
 10
0.0
 20
0.0
 30
0.0
  3
*PAPER_SPACE
  1

  0
ENDBLK
  5
7488
330
747A
100
AcDbEntity
 67
     1
  8
0
100
AcDbBlockEnd
  0
BLOCK
  5
DEAD
330
DEAC
100
AcDbEntity
  8
0
100
AcDbBlockBegin
  2
_OPEN
 70
     0
 10
0.0
 20
0.0
 30
0.0
  3
_OPEN
  1

  0
LINE
  5
DEAE
330
DEAC
100
AcDbEntity
  8
0
  6
ByBlock
 62
     0
100
AcDbLine
 10
-1.0
 20
0.1666666666666666
 30
0.0
 11
0.0
 21
0.0
 31
0.0
  0
LINE
  5
DEAF
330
DEAC
100
AcDbEntity
  8
0
  6
ByBlock
 62
     0
100
AcDbLine
 10
0.0
 20
0.0
 30
0.0
 11
-1.0
 21
-0.1666666666666666
 31
0.0
  0
LINE
  5
DEB0
330
DEAC
100
AcDbEntity
  8
0
  6
ByBlock
 62
     0
100
AcDbLine
 10
0.0
 20
0.0
 30
0.0
 11
-1.0
 21
0.0
 31
0.0
  0
ENDBLK
  5
DEB1
330
DEAC
100
AcDbEntity
  8
0
100
AcDbBlockEnd
  0
BLOCK
  5
F771
330
F770
100
AcDbEntity
  8
0
 48
50.0
100
AcDbBlockBegin
  2
_DOTSMALL
 70
     0
 10
0.0
 20
0.0
 30
0.0
  3
_DOTSMALL
  1

  0
LWPOLYLINE
  5
F772
330
F770
100
AcDbEntity
  8
0
  6
ByBlock
 62
     0
 48
50.0
100
AcDbPolyline
 90
        2
 70
     1
 43
0.5
 10
-0.0625
 20
0.0
 42
1.0
 10
0.0625
 20
0.0
 42
1.0
  0
ENDBLK
  5
F776
330
F770
100
AcDbEntity
  8
0
 48
50.0
100
AcDbBlockEnd
  0
BLOCK
  5
164BA
330
164B4
100
AcDbEntity
  8
0
 48
50.0
100
AcDbBlockBegin
  2
_DOT
 70
     0
 10
0.0
 20
0.0
 30
0.0
  3
_DOT
  1

  0
LWPOLYLINE
  5
164B5
330
164B4
100
AcDbEntity
  8
0
  6
ByBlock
 62
     0
 48
50.0
100
AcDbPolyline
 90
        2
 70
     1
 43
0.5
 10
-0.25
 20
0.0
 42
1.0
 10
0.25
 20
0.0
 42
1.0
  0
LINE
  5
164B9
330
164B4
100
AcDbEntity
  8
0
  6
ByBlock
 62
     0
 48
50.0
100
AcDbLine
 10
-0.5
 20
0.0
 30
0.0
 11
-1.0
 21
0.0
 31
0.0
  0
ENDBLK
  5
164BB
330
164B4
100
AcDbEntity
  8
0
 48
50.0
100
AcDbBlockEnd
  0
BLOCK
  5
18BC9
330
18BC8
100
AcDbEntity
  8
0
 48
50.0
100
AcDbBlockBegin
  2
*D3
 70
     1
 10
0.0
 20
0.0
 30
0.0
  3
*D3
  1

  0
LINE
  5
18BCA
330
18BC8
100
AcDbEntity
  8
寸法
 62
     0
 48
50.0
370
    -2
100
AcDbLine
 10
7649.896575106999
 20
9636.123139034717
 30
0.0
 11
8702.429862581047
 21
9636.123139034717
 31
0.0
  0
LINE
  5
18BCB
330
18BC8
100
AcDbEntity
  8
寸法
 62
     0
 48
50.0
370
    -2
100
AcDbLine
 10
7649.896575106973
 20
7846.123139034709
 30
0.0
 11
8702.429862581047
 21
7846.123139034709
 31
0.0
  0
LINE
  5
18BCC
330
18BC8
100
AcDbEntity
  8
寸法
 62
     0
 48
50.0
370
    -2
100
AcDbLine
 10
8642.429862581046
 20
9636.123139034717
 30
0.0
 11
8642.429862581046
 21
7846.123139034709
 31
0.0
  0
INSERT
  5
18BCD
330
18BC8
100
AcDbEntity
  8
寸法
 62
     0
 48
50.0
370
    -2
100
AcDbBlockReference
  2
_DOTSMALL
 10
8642.429862581046
 20
9636.123139034717
 30
0.0
 41
100.0
 42
100.0
 43
100.0
 50
90.0
  0
INSERT
  5
18BCE
330
18BC8
100
AcDbEntity
  8
寸法
 62
     0
 48
50.0
370
    -2
100
AcDbBlockReference
  2
_DOTSMALL
 10
8642.429862581046
 20
7846.123139034709
 30
0.0
 41
100.0
 42
100.0
 43
100.0
 50
270.0
  0
MTEXT
  5
18BCF
330
18BC8
100
AcDbEntity
  8
寸法
 62
     7
 48
50.0
100
AcDbMText
 10
8542.429862581045
 20
8741.123139034712
 30
0.0
 40
120.0
 41
0.0
 71
     5
 72
     1
  1
\A1;1790
  7
STYLE1
 11
0.0000000000000001
 21
1.0
 31
0.0
 73
     1
 44
1.0
1001
ACAD
1000
MTEXTBEGIN
1070
    73
1070
     1
1070
    44
1040
1.0
1070
    74
1070
     0
1000
MTEXTEND
  0
POINT
  5
18BD0
330
18BC8
100
AcDbEntity
  8
DEFPOINTS
 62
     0
 48
50.0
100
AcDbPoint
 10
7629.896575106998
 20
9636.123139034717
 30
0.0
  0
POINT
  5
18BD1
330
18BC8
100
AcDbEntity
  8
DEFPOINTS
 62
     0
 48
50.0
100
AcDbPoint
 10
7629.896575106974
 20
7846.123139034709
 30
0.0
  0
POINT
  5
18BD2
330
18BC8
100
AcDbEntity
  8
DEFPOINTS
 62
     0
 48
50.0
100
AcDbPoint
 10
8642.429862581046
 20
7846.123139034709
 30
0.0
  0
ENDBLK
  5
18BD3
330
18BC8
100
AcDbEntity
  8
0
 48
50.0
100
AcDbBlockEnd
  0
BLOCK
  5
18BD5
330
18BD4
100
AcDbEntity
  8
0
 48
50.0
100
AcDbBlockBegin
  2
*D4
 70
     1
 10
0.0
 20
0.0
 30
0.0
  3
*D4
  1

  0
LINE
  5
18BD6
330
18BD4
100
AcDbEntity
  8
寸法
 62
     0
 48
50.0
370
    -2
100
AcDbLine
 10
4214.896575106998
 20
9656.123139034622
 30
0.0
 11
4214.896575106998
 21
10211.93135865972
 31
0.0
  0
LINE
  5
18BD7
330
18BD4
100
AcDbEntity
  8
寸法
 62
     0
 48
50.0
370
    -2
100
AcDbLine
 10
7574.896575106999
 20
9656.123139034718
 30
0.0
 11
7574.896575106999
 21
10211.93135865972
 31
0.0
  0
LINE
  5
18BD8
330
18BD4
100
AcDbEntity
  8
寸法
 62
     0
 48
50.0
370
    -2
100
AcDbLine
 10
4214.896575106998
 20
10151.93135865972
 30
0.0
 11
7574.896575106999
 21
10151.93135865972
 31
0.0
  0
INSERT
  5
18BD9
330
18BD4
100
AcDbEntity
  8
寸法
 62
     0
 48
50.0
370
    -2
100
AcDbBlockReference
  2
_DOTSMALL
 10
4214.896575106998
 20
10151.93135865972
 30
0.0
 41
100.0
 42
100.0
 43
100.0
 50
180.0
  0
INSERT
  5
18BDA
330
18BD4
100
AcDbEntity
  8
寸法
 62
     0
 48
50.0
370
    -2
100
AcDbBlockReference
  2
_DOTSMALL
 10
7574.896575106999
 20
10151.93135865972
 30
0.0
 41
100.0
 42
100.0
 43
100.0
  0
MTEXT
  5
18BDB
330
18BD4
100
AcDbEntity
  8
寸法
 62
     7
 48
50.0
100
AcDbMText
 10
5894.896575106997
 20
10251.94316968334
 30
0.0
 40
120.0
 41
0.0
 71
     5
 72
     1
  1
\A1;8X420=3360
  7
STYLE1
 73
     1
 44
1.0
1001
ACAD
1000
MTEXTBEGIN
1070
    73
1070
     1
1070
    44
1040
1.0
1070
    74
1070
     0
1000
MTEXTEND
  0
POINT
  5
18BDC
330
18BD4
100
AcDbEntity
  8
DEFPOINTS
 62
     0
 48
50.0
100
AcDbPoint
 10
4214.896575106998
 20
9636.123139034623
 30
0.0
  0
POINT
  5
18BDD
330
18BD4
100
AcDbEntity
  8
DEFPOINTS
 62
     0
 48
50.0
100
AcDbPoint
 10
7574.896575106999
 20
9636.123139034717
 30
0.0
  0
POINT
  5
18BDE
330
18BD4
100
AcDbEntity
  8
DEFPOINTS
 62
     0
 48
50.0
100
AcDbPoint
 10
7574.896575106999
 20
10151.93135865972
 30
0.0
  0
ENDBLK
  5
18BDF
330
18BD4
100
AcDbEntity
  8
0
 48
50.0
100
AcDbBlockEnd
  0
BLOCK
  5
18BE1
330
18BE0
100
AcDbEntity
  8
0
 48
50.0
100
AcDbBlockBegin
  2
*D5
 70
     1
 10
0.0
 20
0.0
 30
0.0
  3
*D5
  1

  0
LINE
  5
18BE2
330
18BE0
100
AcDbEntity
  8
寸法
 62
     0
 48
50.0
370
    -2
100
AcDbLine
 10
7574.896575106999
 20
9656.123139034718
 30
0.0
 11
7574.896575106999
 21
10211.9313586597
 31
0.0
  0
LINE
  5
18BE3
330
18BE0
100
AcDbEntity
  8
寸法
 62
     0
 48
50.0
370
    -2
100
AcDbLine
 10
7629.896575106998
 20
9656.123139034718
 30
0.0
 11
7629.896575106998
 21
10211.9313586597
 31
0.0
  0
LINE
  5
18BE4
330
18BE0
100
AcDbEntity
  8
寸法
 62
     0
 48
50.0
370
    -2
100
AcDbLine
 10
7574.896575106999
 20
10151.9313586597
 30
0.0
 11
7474.896575106999
 21
10151.9313586597
 31
0.0
  0
LINE
  5
18BE5
330
18BE0
100
AcDbEntity
  8
寸法
 62
     0
 48
50.0
370
    -2
100
AcDbLine
 10
7629.896575106998
 20
10151.9313586597
 30
0.0
 11
8046.867137855477
 21
10151.9313586597
 31
0.0
  0
LINE
  5
18BE6
330
18BE0
100
AcDbEntity
  8
寸法
 62
     0
 48
50.0
370
    -2
100
AcDbLine
 10
7574.896575106999
 20
10151.9313586597
 30
0.0
 11
7629.896575106998
 21
10151.9313586597
 31
0.0
  0
INSERT
  5
18BE7
330
18BE0
100
AcDbEntity
  8
寸法
 62
     0
 48
50.0
370
    -2
100
AcDbBlockReference
  2
_DOTSMALL
 10
7574.896575106999
 20
10151.9313586597
 30
0.0
 41
100.0
 42
100.0
 43
100.0
  0
INSERT
  5
18BE8
330
18BE0
100
AcDbEntity
  8
寸法
 62
     0
 48
50.0
370
    -2
100
AcDbBlockReference
  2
_DOTSMALL
 10
7629.896575106998
 20
10151.9313586597
 30
0.0
 41
100.0
 42
100.0
 43
100.0
 50
180.0
  0
MTEXT
  5
18BE9
330
18BE0
100
AcDbEntity
  8
寸法
 62
     7
 48
50.0
100
AcDbMText
 10
7938.381856481237
 20
10251.9313586597
 30
0.0
 40
120.0
 41
0.0
 71
     5
 72
     1
  1
\A1;55
  7
STYLE1
 73
     1
 44
1.0
1001
ACAD
1000
MTEXTBEGIN
1070
    73
1070
     1
1070
    44
1040
1.0
1070
    74
1070
     0
1000
MTEXTEND
  0
POINT
  5
18BEA
330
18BE0
100
AcDbEntity
  8
DEFPOINTS
 62
     0
 48
50.0
100
AcDbPoint
 10
7574.896575106999
 20
9636.123139034717
 30
0.0
  0
POINT
  5
18BEB
330
18BE0
100
AcDbEntity
  8
DEFPOINTS
 62
     0
 48
50.0
100
AcDbPoint
 10
7629.896575106998
 20
9636.123139034717
 30
0.0
  0
POINT
  5
18BEC
330
18BE0
100
AcDbEntity
  8
DEFPOINTS
 62
     0
 48
50.0
100
AcDbPoint
 10
7629.896575106998
 20
10151.9313586597
 30
0.0
  0
ENDBLK
  5
18BED
330
18BE0
100
AcDbEntity
  8
0
 48
50.0
100
AcDbBlockEnd
  0
BLOCK
  5
18BEF
330
18BEE
100
AcDbEntity
  8
0
 48
50.0
100
AcDbBlockBegin
  2
*D6
 70
     1
 10
0.0
 20
0.0
 30
0.0
  3
*D6
  1

  0
LINE
  5
18BF0
330
18BEE
100
AcDbEntity
  8
寸法
 62
     0
 48
50.0
370
    -2
100
AcDbLine
 10
7649.896575106999
 20
9636.123139034717
 30
0.0
 11
8337.32292084141
 21
9636.123139034717
 31
0.0
  0
LINE
  5
18BF1
330
18BEE
100
AcDbEntity
  8
寸法
 62
     0
 48
50.0
370
    -2
100
AcDbLine
 10
7649.896575106999
 20
9581.123139034721
 30
0.0
 11
8337.32292084141
 21
9581.123139034721
 31
0.0
  0
LINE
  5
18BF2
330
18BEE
100
AcDbEntity
  8
寸法
 62
     0
 48
50.0
370
    -2
100
AcDbLine
 10
8277.322920841411
 20
9581.123139034721
 30
0.0
 11
8277.322920841411
 21
9481.123139034719
 31
0.0
  0
LINE
  5
18BF3
330
18BEE
100
AcDbEntity
  8
寸法
 62
     0
 48
50.0
370
    -2
100
AcDbLine
 10
8277.322920841411
 20
9636.123139034717
 30
0.0
 11
8277.322920841411
 21
10053.09370178319
 31
0.0
  0
LINE
  5
18BF4
330
18BEE
100
AcDbEntity
  8
寸法
 62
     0
 48
50.0
370
    -2
100
AcDbLine
 10
8277.322920841411
 20
9581.123139034721
 30
0.0
 11
8277.322920841411
 21
9636.123139034717
 31
0.0
  0
INSERT
  5
18BF5
330
18BEE
100
AcDbEntity
  8
寸法
 62
     0
 48
50.0
370
    -2
100
AcDbBlockReference
  2
_DOTSMALL
 10
8277.322920841411
 20
9581.123139034721
 30
0.0
 41
100.0
 42
100.0
 43
100.0
 50
90.0
  0
INSERT
  5
18BF6
330
18BEE
100
AcDbEntity
  8
寸法
 62
     0
 48
50.0
370
    -2
100
AcDbBlockReference
  2
_DOTSMALL
 10
8277.322920841411
 20
9636.123139034717
 30
0.0
 41
100.0
 42
100.0
 43
100.0
 50
270.0
  0
MTEXT
  5
18BF7
330
18BEE
100
AcDbEntity
  8
寸法
 62
     7
 48
50.0
100
AcDbMText
 10
8177.32292084141
 20
9944.608420408957
 30
0.0
 40
120.0
 41
0.0
 71
     5
 72
     1
  1
\A1;55
  7
STYLE1
 11
0.0000000000000001
 21
1.0
 31
0.0
 73
     1
 44
1.0
1001
ACAD
1000
MTEXTBEGIN
1070
    73
1070
     1
1070
    44
1040
1.0
1070
    74
1070
     0
1000
MTEXTEND
  0
POINT
  5
18BF8
330
18BEE
100
AcDbEntity
  8
DEFPOINTS
 62
     0
 48
50.0
100
AcDbPoint
 10
7629.896575106998
 20
9636.123139034717
 30
0.0
  0
POINT
  5
18BF9
330
18BEE
100
AcDbEntity
  8
DEFPOINTS
 62
     0
 48
50.0
100
AcDbPoint
 10
7629.896575106998
 20
9581.123139034721
 30
0.0
  0
POINT
  5
18BFA
330
18BEE
100
AcDbEntity
  8
DEFPOINTS
 62
     0
 48
50.0
100
AcDbPoint
 10
8277.322920841411
 20
9581.123139034721
 30
0.0
  0
ENDBLK
  5
18BFB
330
18BEE
100
AcDbEntity
  8
0
 48
50.0
100
AcDbBlockEnd
  0
BLOCK
  5
18BFD
330
18BFC
100
AcDbEntity
  8
0
 48
50.0
100
AcDbBlockBegin
  2
*D7
 70
     1
 10
0.0
 20
0.0
 30
0.0
  3
*D7
  1

  0
LINE
  5
18BFE
330
18BFC
100
AcDbEntity
  8
寸法
 62
     0
 48
50.0
370
    -2
100
AcDbLine
 10
4159.896575106963
 20
9656.123139034622
 30
0.0
 11
4159.896575106963
 21
10211.9313586596
 31
0.0
  0
LINE
  5
18BFF
330
18BFC
100
AcDbEntity
  8
寸法
 62
     0
 48
50.0
370
    -2
100
AcDbLine
 10
4214.896575106998
 20
9656.123139034622
 30
0.0
 11
4214.896575106998
 21
10211.9313586596
 31
0.0
  0
LINE
  5
18C00
330
18BFC
100
AcDbEntity
  8
寸法
 62
     0
 48
50.0
370
    -2
100
AcDbLine
 10
4214.896575106998
 20
10151.9313586596
 30
0.0
 11
4314.896575106998
 21
10151.9313586596
 31
0.0
  0
LINE
  5
18C01
330
18BFC
100
AcDbEntity
  8
寸法
 62
     0
 48
50.0
370
    -2
100
AcDbLine
 10
4159.896575106963
 20
10151.9313586596
 30
0.0
 11
3742.926012358486
 21
10151.9313586596
 31
0.0
  0
LINE
  5
18C02
330
18BFC
100
AcDbEntity
  8
寸法
 62
     0
 48
50.0
370
    -2
100
AcDbLine
 10
4214.896575106998
 20
10151.9313586596
 30
0.0
 11
4159.896575106963
 21
10151.9313586596
 31
0.0
  0
INSERT
  5
18C03
330
18BFC
100
AcDbEntity
  8
寸法
 62
     0
 48
50.0
370
    -2
100
AcDbBlockReference
  2
_DOTSMALL
 10
4214.896575106998
 20
10151.9313586596
 30
0.0
 41
100.0
 42
100.0
 43
100.0
 50
180.0
  0
INSERT
  5
18C04
330
18BFC
100
AcDbEntity
  8
寸法
 62
     0
 48
50.0
370
    -2
100
AcDbBlockReference
  2
_DOTSMALL
 10
4159.896575106963
 20
10151.9313586596
 30
0.0
 41
100.0
 42
100.0
 43
100.0
  0
MTEXT
  5
18C05
330
18BFC
100
AcDbEntity
  8
寸法
 62
     7
 48
50.0
100
AcDbMText
 10
3851.411293732725
 20
10251.9313586596
 30
0.0
 40
120.0
 41
0.0
 71
     5
 72
     1
  1
\A1;55
  7
STYLE1
 73
     1
 44
1.0
1001
ACAD
1000
MTEXTBEGIN
1070
    73
1070
     1
1070
    44
1040
1.0
1070
    74
1070
     0
1000
MTEXTEND
  0
POINT
  5
18C06
330
18BFC
100
AcDbEntity
  8
DEFPOINTS
 62
     0
 48
50.0
100
AcDbPoint
 10
4159.896575106963
 20
9636.123139034623
 30
0.0
  0
POINT
  5
18C07
330
18BFC
100
AcDbEntity
  8
DEFPOINTS
 62
     0
 48
50.0
100
AcDbPoint
 10
4214.896575106998
 20
9636.123139034623
 30
0.0
  0
POINT
  5
18C08
330
18BFC
100
AcDbEntity
  8
DEFPOINTS
 62
     0
 48
50.0
100
AcDbPoint
 10
4214.896575106998
 20
10151.9313586596
 30
0.0
  0
ENDBLK
  5
18C09
330
18BFC
100
AcDbEntity
  8
0
 48
50.0
100
AcDbBlockEnd
  0
BLOCK
  5
18C0B
330
18C0A
100
AcDbEntity
  8
0
 48
50.0
100
AcDbBlockBegin
  2
*D8
 70
     1
 10
0.0
 20
0.0
 30
0.0
  3
*D8
  1

  0
LINE
  5
18C0C
330
18C0A
100
AcDbEntity
  8
寸法
 62
     0
 48
50.0
370
    -2
100
AcDbLine
 10
4159.896575106992
 20
7826.123139034546
 30
0.0
 11
4159.896575106992
 21
6804.372203245664
 31
0.0
  0
LINE
  5
18C0D
330
18C0A
100
AcDbEntity
  8
寸法
 62
     0
 48
50.0
370
    -2
100
AcDbLine
 10
7629.896575106974
 20
7826.123139034674
 30
0.0
 11
7629.896575106974
 21
6804.372203245664
 31
0.0
  0
LINE
  5
18C0E
330
18C0A
100
AcDbEntity
  8
寸法
 62
     0
 48
50.0
370
    -2
100
AcDbLine
 10
4159.896575106992
 20
6864.372203245665
 30
0.0
 11
7629.896575106974
 21
6864.372203245665
 31
0.0
  0
INSERT
  5
18C0F
330
18C0A
100
AcDbEntity
  8
寸法
 62
     0
 48
50.0
370
    -2
100
AcDbBlockReference
  2
_DOTSMALL
 10
4159.896575106992
 20
6864.372203245665
 30
0.0
 41
100.0
 42
100.0
 43
100.0
 50
180.0
  0
INSERT
  5
18C10
330
18C0A
100
AcDbEntity
  8
寸法
 62
     0
 48
50.0
370
    -2
100
AcDbBlockReference
  2
_DOTSMALL
 10
7629.896575106974
 20
6864.372203245665
 30
0.0
 41
100.0
 42
100.0
 43
100.0
  0
MTEXT
  5
18C11
330
18C0A
100
AcDbEntity
  8
寸法
 62
     7
 48
50.0
100
AcDbMText
 10
5911.12376113973
 20
6964.372203245665
 30
0.0
 40
120.0
 41
0.0
 71
     5
 72
     1
  1
\A1;3470
  7
STYLE1
 73
     1
 44
1.0
1001
ACAD
1000
MTEXTBEGIN
1070
    73
1070
     1
1070
    44
1040
1.0
1070
    74
1070
     0
1000
MTEXTEND
  0
POINT
  5
18C12
330
18C0A
100
AcDbEntity
  8
DEFPOINTS
 62
     0
 48
50.0
100
AcDbPoint
 10
4159.896575106992
 20
7846.123139034546
 30
0.0
  0
POINT
  5
18C13
330
18C0A
100
AcDbEntity
  8
DEFPOINTS
 62
     0
 48
50.0
100
AcDbPoint
 10
7629.896575106974
 20
7846.123139034673
 30
0.0
  0
POINT
  5
18C14
330
18C0A
100
AcDbEntity
  8
DEFPOINTS
 62
     0
 48
50.0
100
AcDbPoint
 10
7629.896575106974
 20
6864.372203245665
 30
0.0
  0
ENDBLK
  5
18C15
330
18C0A
100
AcDbEntity
  8
0
 48
50.0
100
AcDbBlockEnd
  0
BLOCK
  5
18C17
330
18C16
100
AcDbEntity
  8
0
 48
50.0
100
AcDbBlockBegin
  2
*D9
 70
     1
 10
0.0
 20
0.0
 30
0.0
  3
*D9
  1

  0
LINE
  5
18C18
330
18C16
100
AcDbEntity
  8
寸法
 62
     0
 48
50.0
370
    -2
100
AcDbLine
 10
7649.896575106973
 20
7901.123139034706
 30
0.0
 11
8337.322920841385
 21
7901.123139034706
 31
0.0
  0
LINE
  5
18C19
330
18C16
100
AcDbEntity
  8
寸法
 62
     0
 48
50.0
370
    -2
100
AcDbLine
 10
7649.896575106973
 20
7846.123139034709
 30
0.0
 11
8337.322920841385
 21
7846.123139034709
 31
0.0
  0
LINE
  5
18C1A
330
18C16
100
AcDbEntity
  8
寸法
 62
     0
 48
50.0
370
    -2
100
AcDbLine
 10
8277.322920841385
 20
7901.123139034706
 30
0.0
 11
8277.322920841385
 21
8001.123139034707
 31
0.0
  0
LINE
  5
18C1B
330
18C16
100
AcDbEntity
  8
寸法
 62
     0
 48
50.0
370
    -2
100
AcDbLine
 10
8277.322920841385
 20
7846.123139034709
 30
0.0
 11
8277.322920841385
 21
7429.152576286229
 31
0.0
  0
LINE
  5
18C1C
330
18C16
100
AcDbEntity
  8
寸法
 62
     0
 48
50.0
370
    -2
100
AcDbLine
 10
8277.322920841385
 20
7901.123139034706
 30
0.0
 11
8277.322920841385
 21
7846.123139034709
 31
0.0
  0
INSERT
  5
18C1D
330
18C16
100
AcDbEntity
  8
寸法
 62
     0
 48
50.0
370
    -2
100
AcDbBlockReference
  2
_DOTSMALL
 10
8277.322920841385
 20
7901.123139034706
 30
0.0
 41
100.0
 42
100.0
 43
100.0
 50
270.0
  0
INSERT
  5
18C1E
330
18C16
100
AcDbEntity
  8
寸法
 62
     0
 48
50.0
370
    -2
100
AcDbBlockReference
  2
_DOTSMALL
 10
8277.322920841385
 20
7846.123139034709
 30
0.0
 41
100.0
 42
100.0
 43
100.0
 50
90.0
  0
MTEXT
  5
18C1F
330
18C16
100
AcDbEntity
  8
寸法
 62
     7
 48
50.0
100
AcDbMText
 10
8177.322920841383
 20
7537.637857660469
 30
0.0
 40
120.0
 41
0.0
 71
     5
 72
     1
  1
\A1;55
  7
STYLE1
 11
0.0000000000000001
 21
1.0
 31
0.0
 73
     1
 44
1.0
1001
ACAD
1000
MTEXTBEGIN
1070
    73
1070
     1
1070
    44
1040
1.0
1070
    74
1070
     0
1000
MTEXTEND
  0
POINT
  5
18C20
330
18C16
100
AcDbEntity
  8
DEFPOINTS
 62
     0
 48
50.0
100
AcDbPoint
 10
7629.896575106974
 20
7901.123139034706
 30
0.0
  0
POINT
  5
18C21
330
18C16
100
AcDbEntity
  8
DEFPOINTS
 62
     0
 48
50.0
100
AcDbPoint
 10
7629.896575106974
 20
7846.123139034709
 30
0.0
  0
POINT
  5
18C22
330
18C16
100
AcDbEntity
  8
DEFPOINTS
 62
     0
 48
50.0
100
AcDbPoint
 10
8277.322920841385
 20
7846.123139034709
 30
0.0
  0
ENDBLK
  5
18C23
330
18C16
100
AcDbEntity
  8
0
 48
50.0
100
AcDbBlockEnd
  0
BLOCK
  5
18C25
330
18C24
100
AcDbEntity
  8
0
 48
50.0
100
AcDbBlockBegin
  2
*D10
 70
     1
 10
0.0
 20
0.0
 30
0.0
  3
*D10
  1

  0
LINE
  5
18C26
330
18C24
100
AcDbEntity
  8
寸法
 62
     0
 48
50.0
370
    -2
100
AcDbLine
 10
6533.037591258376
 20
9136.123139034728
 30
0.0
 11
6465.083950562664
 21
8882.516699399049
 31
0.0
  0
LINE
  5
18C27
330
18C24
100
AcDbEntity
  8
寸法
 62
     0
 48
50.0
370
    -2
100
AcDbLine
 10
7596.037591258388
 20
9136.123139034721
 30
0.0
 11
7528.083950562677
 21
8882.516699399049
 31
0.0
  0
LINE
  5
18C28
330
18C24
100
AcDbEntity
  8
寸法
 62
     0
 48
50.0
370
    -2
100
AcDbLine
 10
6481.160902108531
 20
8942.51669939905
 30
0.0
 11
7544.160902108544
 21
8942.51669939905
 31
0.0
  0
INSERT
  5
18C29
330
18C24
100
AcDbEntity
  8
寸法
 62
     0
 48
50.0
370
    -2
100
AcDbBlockReference
  2
_DOTSMALL
 10
6481.160902108531
 20
8942.51669939905
 30
0.0
 41
100.0
 42
100.0
 43
100.0
 50
180.0
  0
INSERT
  5
18C2A
330
18C24
100
AcDbEntity
  8
寸法
 62
     0
 48
50.0
370
    -2
100
AcDbBlockReference
  2
_DOTSMALL
 10
7544.160902108544
 20
8942.51669939905
 30
0.0
 41
100.0
 42
100.0
 43
100.0
  0
MTEXT
  5
18C2B
330
18C24
100
AcDbEntity
  8
寸法
 62
     7
 48
50.0
100
AcDbMText
 10
7061.28653022935
 20
9042.516699399049
 30
0.0
 40
120.0
 41
0.0
 71
     5
 72
     1
  1
\A1;1063
  7
STYLE1
 73
     1
 44
1.0
1001
ACAD
1000
MTEXTBEGIN
1070
    73
1070
     1
1070
    44
1040
1.0
1070
    74
1070
     0
1000
MTEXTEND
  0
POINT
  5
18C2C
330
18C24
100
AcDbEntity
  8
DEFPOINTS
 62
     0
 48
50.0
100
AcDbPoint
 10
6538.396575106998
 20
9156.123139034727
 30
0.0
  0
POINT
  5
18C2D
330
18C24
100
AcDbEntity
  8
DEFPOINTS
 62
     0
 48
50.0
100
AcDbPoint
 10
7601.39657510701
 20
9156.12313903472
 30
0.0
  0
POINT
  5
18C2E
330
18C24
100
AcDbEntity
  8
DEFPOINTS
 62
     0
 48
50.0
100
AcDbPoint
 10
7544.160902108544
 20
8942.51669939905
 30
0.0
  0
ENDBLK
  5
18C2F
330
18C24
100
AcDbEntity
  8
0
 48
50.0
100
AcDbBlockEnd
  0
BLOCK
  5
18C31
330
18C30
100
AcDbEntity
  8
0
 48
50.0
100
AcDbBlockBegin
  2
*D11
 70
     1
 10
0.0
 20
0.0
 30
0.0
  3
*D11
  1

  0
LINE
  5
18C32
330
18C30
100
AcDbEntity
  8
寸法
 62
     0
 48
50.0
370
    -2
100
AcDbLine
 10
7621.396575106999
 20
9600.764155186094
 30
0.0
 11
8016.754300969024
 21
9494.828371819961
 31
0.0
  0
LINE
  5
18C33
330
18C30
100
AcDbEntity
  8
寸法
 62
     0
 48
50.0
370
    -2
100
AcDbLine
 10
7621.396575106999
 20
9150.764155186099
 30
0.0
 11
8016.754300969024
 21
9044.828371819964
 31
0.0
  0
LINE
  5
18C34
330
18C30
100
AcDbEntity
  8
寸法
 62
     0
 48
50.0
370
    -2
100
AcDbLine
 10
7956.754300969024
 20
9510.905323365827
 30
0.0
 11
7956.754300969024
 21
9060.90532336583
 31
0.0
  0
INSERT
  5
18C35
330
18C30
100
AcDbEntity
  8
寸法
 62
     0
 48
50.0
370
    -2
100
AcDbBlockReference
  2
_DOTSMALL
 10
7956.754300969024
 20
9510.905323365827
 30
0.0
 41
100.0
 42
100.0
 43
100.0
 50
90.0
  0
INSERT
  5
18C36
330
18C30
100
AcDbEntity
  8
寸法
 62
     0
 48
50.0
370
    -2
100
AcDbBlockReference
  2
_DOTSMALL
 10
7956.754300969024
 20
9060.90532336583
 30
0.0
 41
100.0
 42
100.0
 43
100.0
 50
270.0
  0
MTEXT
  5
18C37
330
18C30
100
AcDbEntity
  8
寸法
 62
     7
 48
50.0
100
AcDbMText
 10
7856.754300969022
 20
9285.905323365829
 30
0.0
 40
120.0
 41
0.0
 71
     5
 72
     1
  1
\A1;450
  7
STYLE1
 11
0.0000000000000001
 21
1.0
 31
0.0
 73
     1
 44
1.0
1001
ACAD
1000
MTEXTBEGIN
1070
    73
1070
     1
1070
    44
1040
1.0
1070
    74
1070
     0
1000
MTEXTEND
  0
POINT
  5
18C38
330
18C30
100
AcDbEntity
  8
DEFPOINTS
 62
     0
 48
50.0
100
AcDbPoint
 10
7601.396575106999
 20
9606.123139034718
 30
0.0
  0
POINT
  5
18C39
330
18C30
100
AcDbEntity
  8
DEFPOINTS
 62
     0
 48
50.0
100
AcDbPoint
 10
7601.396575106999
 20
9156.12313903472
 30
0.0
  0
POINT
  5
18C3A
330
18C30
100
AcDbEntity
  8
DEFPOINTS
 62
     0
 48
50.0
100
AcDbPoint
 10
7956.754300969024
 20
9060.90532336583
 30
0.0
  0
ENDBLK
  5
18C3B
330
18C30
100
AcDbEntity
  8
0
 48
50.0
100
AcDbBlockEnd
  0
BLOCK
  5
18C3D
330
18C3C
100
AcDbEntity
  8
0
 48
50.0
100
AcDbBlockBegin
  2
*D12
 70
     1
 10
0.0
 20
0.0
 30
0.0
  3
*D12
  1

  0
LINE
  5
18C3E
330
18C3C
100
AcDbEntity
  8
寸法
 62
     0
 48
50.0
370
    -2
100
AcDbLine
 10
7649.896575106999
 20
9581.123139034721
 30
0.0
 11
8337.32292084141
 21
9581.123139034721
 31
0.0
  0
LINE
  5
18C3F
330
18C3C
100
AcDbEntity
  8
寸法
 62
     0
 48
50.0
370
    -2
100
AcDbLine
 10
7649.896575106973
 20
7901.123139034706
 30
0.0
 11
8337.32292084141
 21
7901.123139034706
 31
0.0
  0
LINE
  5
18C40
330
18C3C
100
AcDbEntity
  8
寸法
 62
     0
 48
50.0
370
    -2
100
AcDbLine
 10
8277.322920841411
 20
9581.123139034721
 30
0.0
 11
8277.322920841411
 21
7901.123139034706
 31
0.0
  0
INSERT
  5
18C41
330
18C3C
100
AcDbEntity
  8
寸法
 62
     0
 48
50.0
370
    -2
100
AcDbBlockReference
  2
_DOTSMALL
 10
8277.322920841411
 20
9581.123139034721
 30
0.0
 41
100.0
 42
100.0
 43
100.0
 50
90.0
  0
INSERT
  5
18C42
330
18C3C
100
AcDbEntity
  8
寸法
 62
     0
 48
50.0
370
    -2
100
AcDbBlockReference
  2
_DOTSMALL
 10
8277.322920841411
 20
7901.123139034706
 30
0.0
 41
100.0
 42
100.0
 43
100.0
 50
270.0
  0
MTEXT
  5
18C43
330
18C3C
100
AcDbEntity
  8
寸法
 62
     7
 48
50.0
100
AcDbMText
 10
8177.311109817788
 20
8741.123139034712
 30
0.0
 40
120.0
 41
0.0
 71
     5
 72
     1
  1
\A1;4X420=1680
  7
STYLE1
 11
0.0000000000000001
 21
1.0
 31
0.0
 73
     1
 44
1.0
1001
ACAD
1000
MTEXTBEGIN
1070
    73
1070
     1
1070
    44
1040
1.0
1070
    74
1070
     0
1000
MTEXTEND
  0
POINT
  5
18C44
330
18C3C
100
AcDbEntity
  8
DEFPOINTS
 62
     0
 48
50.0
100
AcDbPoint
 10
7629.896575106998
 20
9581.123139034721
 30
0.0
  0
POINT
  5
18C45
330
18C3C
100
AcDbEntity
  8
DEFPOINTS
 62
     0
 48
50.0
100
AcDbPoint
 10
7629.896575106974
 20
7901.123139034706
 30
0.0
  0
POINT
  5
18C46
330
18C3C
100
AcDbEntity
  8
DEFPOINTS
 62
     0
 48
50.0
100
AcDbPoint
 10
8277.322920841411
 20
7901.123139034706
 30
0.0
  0
ENDBLK
  5
18C47
330
18C3C
100
AcDbEntity
  8
0
 48
50.0
100
AcDbBlockEnd
  0
BLOCK
  5
18C49
330
18C48
100
AcDbEntity
  8
0
 48
50.0
100
AcDbBlockBegin
  2
*D13
 70
     1
 10
0.0
 20
0.0
 30
0.0
  3
*D13
  1

  0
LINE
  5
18C4A
330
18C48
100
AcDbEntity
  8
寸法
 62
     0
 48
50.0
370
    -2
100
AcDbLine
 10
4183.037591258377
 20
9136.123139034619
 30
0.0
 11
4115.083950562663
 21
8882.516699398941
 31
0.0
  0
LINE
  5
18C4B
330
18C48
100
AcDbEntity
  8
寸法
 62
     0
 48
50.0
370
    -2
100
AcDbLine
 10
5246.037591258307
 20
9136.123139034671
 30
0.0
 11
5178.08395056258
 21
8882.516699398941
 31
0.0
  0
LINE
  5
18C4C
330
18C48
100
AcDbEntity
  8
寸法
 62
     0
 48
50.0
370
    -2
100
AcDbLine
 10
4131.160902108532
 20
8942.516699398941
 30
0.0
 11
5194.160902108448
 21
8942.516699398941
 31
0.0
  0
INSERT
  5
18C4D
330
18C48
100
AcDbEntity
  8
寸法
 62
     0
 48
50.0
370
    -2
100
AcDbBlockReference
  2
_DOTSMALL
 10
4131.160902108532
 20
8942.516699398941
 30
0.0
 41
100.0
 42
100.0
 43
100.0
 50
180.0
  0
INSERT
  5
18C4E
330
18C48
100
AcDbEntity
  8
寸法
 62
     0
 48
50.0
370
    -2
100
AcDbBlockReference
  2
_DOTSMALL
 10
5194.160902108448
 20
8942.516699398941
 30
0.0
 41
100.0
 42
100.0
 43
100.0
  0
MTEXT
  5
18C4F
330
18C48
100
AcDbEntity
  8
寸法
 62
     7
 48
50.0
100
AcDbMText
 10
4658.986452655306
 20
9042.516699398941
 30
0.0
 40
120.0
 41
0.0
 71
     5
 72
     1
  1
\A1;1063
  7
STYLE1
 73
     1
 44
1.0
1001
ACAD
1000
MTEXTBEGIN
1070
    73
1070
     1
1070
    44
1040
1.0
1070
    74
1070
     0
1000
MTEXTEND
  0
POINT
  5
18C50
330
18C48
100
AcDbEntity
  8
DEFPOINTS
 62
     0
 48
50.0
100
AcDbPoint
 10
4188.396575106999
 20
9156.123139034617
 30
0.0
  0
POINT
  5
18C51
330
18C48
100
AcDbEntity
  8
DEFPOINTS
 62
     0
 48
50.0
100
AcDbPoint
 10
5251.396575106929
 20
9156.123139034672
 30
0.0
  0
POINT
  5
18C52
330
18C48
100
AcDbEntity
  8
DEFPOINTS
 62
     0
 48
50.0
100
AcDbPoint
 10
5194.160902108448
 20
8942.516699398941
 30
0.0
  0
ENDBLK
  5
18C53
330
18C48
100
AcDbEntity
  8
0
 48
50.0
100
AcDbBlockEnd
  0
BLOCK
  5
18C55
330
18C54
100
AcDbEntity
  8
0
 48
50.0
100
AcDbBlockBegin
  2
*D14
 70
     1
 10
0.0
 20
0.0
 30
0.0
  3
*D14
  1

  0
LINE
  5
18C56
330
18C54
100
AcDbEntity
  8
寸法
 62
     0
 48
50.0
370
    -2
100
AcDbLine
 10
5274.037591258307
 20
9136.123139034669
 30
0.0
 11
5206.08395056258
 21
8882.516699398941
 31
0.0
  0
LINE
  5
18C57
330
18C54
100
AcDbEntity
  8
寸法
 62
     0
 48
50.0
370
    -2
100
AcDbLine
 10
6505.037591258377
 20
9136.123139034662
 30
0.0
 11
6437.083950562653
 21
8882.516699398941
 31
0.0
  0
LINE
  5
18C58
330
18C54
100
AcDbEntity
  8
寸法
 62
     0
 48
50.0
370
    -2
100
AcDbLine
 10
5222.160902108448
 20
8942.516699398941
 30
0.0
 11
6453.16090210852
 21
8942.516699398941
 31
0.0
  0
INSERT
  5
18C59
330
18C54
100
AcDbEntity
  8
寸法
 62
     0
 48
50.0
370
    -2
100
AcDbBlockReference
  2
_DOTSMALL
 10
5222.160902108448
 20
8942.516699398941
 30
0.0
 41
100.0
 42
100.0
 43
100.0
 50
180.0
  0
INSERT
  5
18C5A
330
18C54
100
AcDbEntity
  8
寸法
 62
     0
 48
50.0
370
    -2
100
AcDbBlockReference
  2
_DOTSMALL
 10
6453.16090210852
 20
8942.516699398941
 30
0.0
 41
100.0
 42
100.0
 43
100.0
  0
MTEXT
  5
18C5B
330
18C54
100
AcDbEntity
  8
寸法
 62
     7
 48
50.0
100
AcDbMText
 10
6081.244808320626
 20
9042.528510422561
 30
0.0
 40
120.0
 41
0.0
 71
     5
 72
     1
  1
\A1;1231
  7
STYLE1
 73
     1
 44
1.0
1001
ACAD
1000
MTEXTBEGIN
1070
    73
1070
     1
1070
    44
1040
1.0
1070
    74
1070
     0
1000
MTEXTEND
  0
POINT
  5
18C5C
330
18C54
100
AcDbEntity
  8
DEFPOINTS
 62
     0
 48
50.0
100
AcDbPoint
 10
5279.396575106929
 20
9156.123139034669
 30
0.0
  0
POINT
  5
18C5D
330
18C54
100
AcDbEntity
  8
DEFPOINTS
 62
     0
 48
50.0
100
AcDbPoint
 10
6510.396575106999
 20
9156.123139034662
 30
0.0
  0
POINT
  5
18C5E
330
18C54
100
AcDbEntity
  8
DEFPOINTS
 62
     0
 48
50.0
100
AcDbPoint
 10
6453.16090210852
 20
8942.516699398941
 30
0.0
  0
ENDBLK
  5
18C5F
330
18C54
100
AcDbEntity
  8
0
 48
50.0
100
AcDbBlockEnd
  0
BLOCK
  5
18C61
330
18C60
100
AcDbEntity
  8
0
 48
50.0
100
AcDbBlockBegin
  2
*D15
 70
     1
 10
0.0
 20
0.0
 30
0.0
  3
*D15
  1

  0
LINE
  5
18C62
330
18C60
100
AcDbEntity
  8
寸法
 62
     0
 48
50.0
370
    -2
100
AcDbLine
 10
5065.896575106966
 20
7749.123139034579
 30
0.0
 11
5065.896575106966
 21
7099.952920982538
 31
0.0
  0
LINE
  5
18C63
330
18C60
100
AcDbEntity
  8
寸法
 62
     0
 48
50.0
370
    -2
100
AcDbLine
 10
6331.896575106966
 20
7749.123139034579
 30
0.0
 11
6331.896575106966
 21
7099.952920982538
 31
0.0
  0
LINE
  5
18C64
330
18C60
100
AcDbEntity
  8
寸法
 62
     0
 48
50.0
370
    -2
100
AcDbLine
 10
5065.896575106966
 20
7159.952920982537
 30
0.0
 11
6331.896575106966
 21
7159.952920982537
 31
0.0
  0
INSERT
  5
18C65
330
18C60
100
AcDbEntity
  8
寸法
 62
     0
 48
50.0
370
    -2
100
AcDbBlockReference
  2
_DOTSMALL
 10
5065.896575106966
 20
7159.952920982537
 30
0.0
 41
100.0
 42
100.0
 43
100.0
 50
180.0
  0
INSERT
  5
18C66
330
18C60
100
AcDbEntity
  8
寸法
 62
     0
 48
50.0
370
    -2
100
AcDbBlockReference
  2
_DOTSMALL
 10
6331.896575106966
 20
7159.952920982537
 30
0.0
 41
100.0
 42
100.0
 43
100.0
  0
MTEXT
  5
18C67
330
18C60
100
AcDbEntity
  8
寸法
 62
     7
 48
50.0
100
AcDbMText
 10
5711.986008735934
 20
7359.964732006159
 30
0.0
 40
120.0
 41
0.0
 71
     5
 72
     1
  1
\A1;有効開口部間口\P1266
  7
STYLE1
 73
     1
 44
1.0
1001
ACAD
1000
MTEXTBEGIN
1070
    73
1070
     1
1070
    44
1040
1.0
1070
    74
1070
     0
1000
MTEXTEND
  0
POINT
  5
18C68
330
18C60
100
AcDbEntity
  8
DEFPOINTS
 62
     0
 48
50.0
100
AcDbPoint
 10
5065.896575106966
 20
7769.123139034579
 30
0.0
  0
POINT
  5
18C69
330
18C60
100
AcDbEntity
  8
DEFPOINTS
 62
     0
 48
50.0
100
AcDbPoint
 10
6331.896575106966
 20
7769.123139034579
 30
0.0
  0
POINT
  5
18C6A
330
18C60
100
AcDbEntity
  8
DEFPOINTS
 62
     0
 48
50.0
100
AcDbPoint
 10
6331.896575106966
 20
7159.952920982537
 30
0.0
  0
ENDBLK
  5
18C6B
330
18C60
100
AcDbEntity
  8
0
 48
50.0
100
AcDbBlockEnd
  0
BLOCK
  5
18C6D
330
18C6C
100
AcDbEntity
  8
0
 48
50.0
100
AcDbBlockBegin
  2
*D16
 70
     1
 10
0.0
 20
0.0
 30
0.0
  3
*D16
  1

  0
LINE
  5
18C6E
330
18C6C
100
AcDbEntity
  8
寸法
 62
     0
 48
50.0
370
    -2
100
AcDbLine
 10
7200.896575106966
 20
7846.123139034578
 30
0.0
 11
7457.192158500191
 21
7846.123139034578
 31
0.0
  0
LINE
  5
18C6F
330
18C6C
100
AcDbEntity
  8
寸法
 62
     0
 48
50.0
370
    -2
100
AcDbLine
 10
7199.896575106966
 20
7769.123139034579
 30
0.0
 11
7457.192158500191
 21
7769.123139034579
 31
0.0
  0
LINE
  5
18C70
330
18C6C
100
AcDbEntity
  8
寸法
 62
     0
 48
50.0
370
    -2
100
AcDbLine
 10
7417.192158500192
 20
7866.123139034579
 30
0.0
 11
7417.192158500192
 21
7886.123139034578
 31
0.0
  0
LINE
  5
18C71
330
18C6C
100
AcDbEntity
  8
寸法
 62
     0
 48
50.0
370
    -2
100
AcDbLine
 10
7417.192158500192
 20
7749.123139034579
 30
0.0
 11
7417.192158500192
 21
7533.123139034573
 31
0.0
  0
LINE
  5
18C72
330
18C6C
100
AcDbEntity
  8
寸法
 62
     0
 48
50.0
370
    -2
100
AcDbLine
 10
7417.192158500192
 20
7846.123139034578
 30
0.0
 11
7417.192158500192
 21
7769.123139034579
 31
0.0
  0
INSERT
  5
18C73
330
18C6C
100
AcDbEntity
  8
寸法
 62
     0
 48
50.0
370
    -2
100
AcDbBlockReference
  2
_DOT
 10
7417.192158500192
 20
7846.123139034578
 30
0.0
 41
20.0
 42
20.0
 43
20.0
 50
270.0
  0
INSERT
  5
18C74
330
18C6C
100
AcDbEntity
  8
寸法
 62
     0
 48
50.0
370
    -2
100
AcDbBlockReference
  2
_DOT
 10
7417.192158500192
 20
7769.123139034579
 30
0.0
 41
20.0
 42
20.0
 43
20.0
 50
90.0
  0
MTEXT
  5
18C75
330
18C6C
100
AcDbEntity
  8
寸法
 62
     7
 48
50.0
100
AcDbMText
 10
7325.192158500191
 20
7631.123139034575
 30
0.0
 40
120.0
 41
0.0
 71
     5
 72
     1
  1
\A1;77
  7
STYLE1
 11
0.0000000000000001
 21
1.0
 31
0.0
 73
     1
 44
1.0
1001
ACAD
1000
MTEXTBEGIN
1070
    73
1070
     1
1070
    44
1040
1.0
1070
    74
1070
     0
1000
MTEXTEND
  0
POINT
  5
18C76
330
18C6C
100
AcDbEntity
  8
DEFPOINTS
 62
     0
 48
50.0
100
AcDbPoint
 10
7180.896575106967
 20
7846.123139034578
 30
0.0
  0
POINT
  5
18C77
330
18C6C
100
AcDbEntity
  8
DEFPOINTS
 62
     0
 48
50.0
100
AcDbPoint
 10
7179.896575106965
 20
7769.123139034579
 30
0.0
  0
POINT
  5
18C78
330
18C6C
100
AcDbEntity
  8
DEFPOINTS
 62
     0
 48
50.0
100
AcDbPoint
 10
7417.192158500192
 20
7769.123139034579
 30
0.0
  0
ENDBLK
  5
18C79
330
18C6C
100
AcDbEntity
  8
0
 48
50.0
100
AcDbBlockEnd
  0
BLOCK
  5
18DA0
330
18C7A
100
AcDbEntity
  8
0
 48
50.0
100
AcDbBlockBegin
  2
A$C3B1A506B
 70
     0
 10
0.0
 20
0.0
 30
0.0
  3
A$C3B1A506B
  1

  0
MTEXT
  5
18C7B
330
18C7A
100
AcDbEntity
  8
寸法
 62
     7
 48
50.0
100
AcDbMText
 10
3342.250386887194
 20
2778.329429134012
 30
0.0
 40
96.0
 41
0.0
 71
     5
 72
     1
  1
棚 2段
  7
STYLE1
 73
     1
 44
1.0
1001
ACAD
1000
MTEXTBEGIN
1070
    73
1070
     1
1070
    44
1040
1.0
1070
    74
1070
     0
1000
MTEXTEND
  0
MTEXT
  5
18C7C
330
18C7A
100
AcDbEntity
  8
寸法
 62
     7
 48
50.0
100
AcDbMText
 10
2167.25038688716
 20
2778.329429133986
 30
0.0
 40
96.0
 41
0.0
 71
     5
 72
     1
  1
棚 2段
  7
STYLE1
 73
     1
 44
1.0
1001
ACAD
1000
MTEXTBEGIN
1070
    73
1070
     1
1070
    44
1040
1.0
1070
    74
1070
     0
1000
MTEXTEND
  0
MTEXT
  5
18C7D
330
18C7A
100
AcDbEntity
  8
寸法
 62
     7
 48
50.0
100
AcDbMText
 10
992.2503868871608
 20
2778.329429133935
 30
0.0
 40
96.0
 41
0.0
 71
     5
 72
     1
  1
棚 2段
  7
STYLE1
 73
     1
 44
1.0
1001
ACAD
1000
MTEXTBEGIN
1070
    73
1070
     1
1070
    44
1040
1.0
1070
    74
1070
     0
1000
MTEXTEND
  0
LINE
  5
18C7E
330
18C7A
100
AcDbEntity
  8
細線
 48
50.0
100
AcDbLine
 10
2771.970589276527
 20
1368.994384123192
 30
0.0
 11
3398.970589276523
 21
1368.994384123192
 31
0.0
  0
LINE
  5
18C7F
330
18C7A
100
AcDbEntity
  8
細線
 48
50.0
100
AcDbLine
 10
2117.970593930113
 20
1335.285615569113
 30
0.0
 11
3398.970589276523
 21
1335.285615569113
 31
0.0
  0
LINE
  5
18C80
330
18C7A
100
AcDbEntity
  8
細線
 48
50.0
100
AcDbLine
 10
2076.970593930115
 20
1364.690523565368
 30
0.0
 11
1322.970589276523
 21
1364.690523565367
 31
0.0
  0
LINE
  5
18C81
330
18C7A
100
AcDbEntity
  8
細線
100
AcDbLine
 10
3170.720579860066
 20
1388.494284088199
 30
0.0
 11
3173.052119381877
 21
1393.494286728162
 31
0.0
  0
LINE
  5
18C82
330
18C7A
100
AcDbEntity
  8
細線
100
AcDbLine
 10
3240.720589276525
 20
1388.494269174465
 30
0.0
 11
3238.389042800336
 21
1393.494286728144
 31
0.0
  0
LINE
  5
18C83
330
18C7A
100
AcDbEntity
  8
細線
100
AcDbLine
 10
3238.389042800336
 20
1393.494286728144
 30
0.0
 11
3173.052119381862
 21
1393.494286728133
 31
0.0
  0
LINE
  5
18C84
330
18C7A
100
AcDbEntity
  8
細線
100
AcDbLine
 10
3098.389042800336
 20
1393.494286728144
 30
0.0
 11
3033.052119381862
 21
1393.494286728133
 31
0.0
  0
LINE
  5
18C85
330
18C7A
100
AcDbEntity
  8
細線
100
AcDbLine
 10
3100.720589276523
 20
1388.494269174465
 30
0.0
 11
3098.389042800336
 21
1393.494286728144
 31
0.0
  0
LINE
  5
18C86
330
18C7A
100
AcDbEntity
  8
細線
100
AcDbLine
 10
3030.720579860066
 20
1388.494284088199
 30
0.0
 11
3033.052119381875
 21
1393.494286728162
 31
0.0
  0
LINE
  5
18C87
330
18C7A
100
AcDbEntity
  8
細線
100
AcDbLine
 10
2890.720589276525
 20
1388.494269174465
 30
0.0
 11
2893.052128798336
 21
1393.494271814428
 31
0.0
  0
LINE
  5
18C88
330
18C7A
100
AcDbEntity
  8
細線
100
AcDbLine
 10
2960.720598692984
 20
1388.494254260731
 30
0.0
 11
2958.389052216793
 21
1393.49427181441
 31
0.0
  0
LINE
  5
18C89
330
18C7A
100
AcDbEntity
  8
細線
100
AcDbLine
 10
2958.389052216795
 20
1393.49427181441
 30
0.0
 11
2893.052128798321
 21
1393.494271814399
 31
0.0
  0
LINE
  5
18C8A
330
18C7A
100
AcDbEntity
  8
細線
100
AcDbLine
 10
2667.139038146739
 20
1359.494298590735
 30
0.0
 11
2601.802114728263
 21
1359.494298590724
 31
0.0
  0
LINE
  5
18C8B
330
18C7A
100
AcDbEntity
  8
細線
100
AcDbLine
 10
2669.470584622926
 20
1354.494281037055
 30
0.0
 11
2667.139038146737
 21
1359.494298590735
 31
0.0
  0
LINE
  5
18C8C
330
18C7A
100
AcDbEntity
  8
細線
100
AcDbLine
 10
2599.470575206469
 20
1354.49429595079
 30
0.0
 11
2601.802114728278
 21
1359.494298590752
 31
0.0
  0
LINE
  5
18C8D
330
18C7A
100
AcDbEntity
  8
細線
 48
50.0
100
AcDbLine
 10
2440.853968524536
 20
1372.765132327548
 30
0.0
 11
2446.609486107205
 21
1354.494281037057
 31
0.0
  0
LINE
  5
18C8E
330
18C7A
100
AcDbEntity
  8
細線
 48
50.0
100
AcDbLine
 10
2429.925520044106
 20
1372.765132327546
 30
0.0
 11
2440.853968524536
 21
1372.765132327548
 31
0.0
  0
ARC
  5
18C8F
330
18C7A
100
AcDbEntity
  8
細線
 48
50.0
100
AcDbCircle
 10
2424.471163986787
 20
1374.265132327546
 30
0.0
 40
5.0
100
AcDbArc
 50
204.6243183520723
 51
335.3756816479278
  0
ARC
  5
18C90
330
18C7A
100
AcDbEntity
  8
細線
 48
50.0
100
AcDbCircle
 10
2429.925520044106
 20
1371.765132327546
 30
0.0
 40
1.0
100
AcDbArc
 50
90.0
 51
155.3756816479277
  0
ARC
  5
18C91
330
18C7A
100
AcDbEntity
  8
細線
 48
50.0
100
AcDbCircle
 10
2419.016807929469
 20
1371.765132327546
 30
0.0
 40
1.0
100
AcDbArc
 50
24.62431835207225
 51
90.0
  0
LINE
  5
18C92
330
18C7A
100
AcDbEntity
  8
細線
 48
50.0
100
AcDbLine
 10
2408.088359449037
 20
1372.765132327548
 30
0.0
 11
2419.016807929469
 21
1372.765132327546
 31
0.0
  0
LINE
  5
18C93
330
18C7A
100
AcDbEntity
  8
細線
 48
50.0
100
AcDbLine
 10
2402.33284186637
 20
1354.494281037054
 30
0.0
 11
2408.088359449037
 21
1372.765132327548
 31
0.0
  0
LINE
  5
18C94
330
18C7A
100
AcDbEntity
  8
細線
100
AcDbLine
 10
2458.070304175992
 20
1354.494278397076
 30
0.0
 11
2460.401843697802
 21
1359.494281037039
 31
0.0
  0
LINE
  5
18C95
330
18C7A
100
AcDbEntity
  8
細線
100
AcDbLine
 10
2528.070313592451
 20
1354.494263483342
 30
0.0
 11
2525.738767116262
 21
1359.494281037021
 31
0.0
  0
LINE
  5
18C96
330
18C7A
100
AcDbEntity
  8
細線
100
AcDbLine
 10
2525.738767116262
 20
1359.494281037021
 30
0.0
 11
2460.40184369779
 21
1359.49428103701
 31
0.0
  0
LINE
  5
18C97
330
18C7A
100
AcDbEntity
  8
細線
100
AcDbLine
 10
2387.139046332155
 20
1359.494281037021
 30
0.0
 11
2321.80212291368
 21
1359.49428103701
 31
0.0
  0
LINE
  5
18C98
330
18C7A
100
AcDbEntity
  8
細線
100
AcDbLine
 10
2389.470592808342
 20
1354.494263483342
 30
0.0
 11
2387.139046332153
 21
1359.494281037021
 31
0.0
  0
LINE
  5
18C99
330
18C7A
100
AcDbEntity
  8
細線
100
AcDbLine
 10
2319.470584622926
 20
1354.494281037054
 30
0.0
 11
2321.802122913694
 21
1359.494281037039
 31
0.0
  0
LINE
  5
18C9A
330
18C7A
100
AcDbEntity
  8
細線
100
AcDbLine
 10
2179.47061994182
 20
1354.494289224422
 30
0.0
 11
2181.802158232587
 21
1359.494289224407
 31
0.0
  0
LINE
  5
18C9B
330
18C7A
100
AcDbEntity
  8
細線
100
AcDbLine
 10
2249.470628127236
 20
1354.49427167071
 30
0.0
 11
2247.139081651047
 21
1359.494289224389
 31
0.0
  0
LINE
  5
18C9C
330
18C7A
100
AcDbEntity
  8
細線
100
AcDbLine
 10
2247.139081651047
 20
1359.494289224389
 30
0.0
 11
2181.802158232573
 21
1359.494289224378
 31
0.0
  0
LINE
  5
18C9D
330
18C7A
100
AcDbEntity
  8
細線
100
AcDbLine
 10
1807.970585744697
 20
1320.494460905133
 30
0.0
 11
1810.302124035464
 21
1325.494460905118
 31
0.0
  0
LINE
  5
18C9E
330
18C7A
100
AcDbEntity
  8
細線
100
AcDbLine
 10
1877.970593930113
 20
1320.494443351421
 30
0.0
 11
1875.639047453926
 21
1325.4944609051
 31
0.0
  0
LINE
  5
18C9F
330
18C7A
100
AcDbEntity
  8
細線
100
AcDbLine
 10
1875.639047453926
 20
1325.4944609051
 30
0.0
 11
1810.302124035452
 21
1325.494460905089
 31
0.0
  0
LINE
  5
18CA0
330
18C7A
100
AcDbEntity
  8
細線
100
AcDbLine
 10
2015.639047453926
 20
1325.4944609051
 30
0.0
 11
1950.302124035452
 21
1325.494460905089
 31
0.0
  0
LINE
  5
18CA1
330
18C7A
100
AcDbEntity
  8
細線
100
AcDbLine
 10
2017.970593930113
 20
1320.494443351421
 30
0.0
 11
2015.639047453924
 21
1325.4944609051
 31
0.0
  0
LINE
  5
18CA2
330
18C7A
100
AcDbEntity
  8
細線
100
AcDbLine
 10
1947.970585744697
 20
1320.494460905133
 30
0.0
 11
1950.302124035465
 21
1325.494460905118
 31
0.0
  0
LINE
  5
18CA3
330
18C7A
100
AcDbEntity
  8
細線
100
AcDbLine
 10
1735.639047453926
 20
1325.494460905098
 30
0.0
 11
1670.302124035454
 21
1325.494460905087
 31
0.0
  0
LINE
  5
18CA4
330
18C7A
100
AcDbEntity
  8
細線
100
AcDbLine
 10
1737.970593930113
 20
1320.494443351419
 30
0.0
 11
1735.639047453926
 21
1325.494460905098
 31
0.0
  0
LINE
  5
18CA5
330
18C7A
100
AcDbEntity
  8
細線
100
AcDbLine
 10
1667.970585744697
 20
1320.494460905131
 30
0.0
 11
1670.302124035465
 21
1325.494460905116
 31
0.0
  0
LINE
  5
18CA6
330
18C7A
100
AcDbEntity
  8
細線
100
AcDbLine
 10
1527.970593930113
 20
1320.494460905133
 30
0.0
 11
1530.302132220881
 21
1325.494460905118
 31
0.0
  0
LINE
  5
18CA7
330
18C7A
100
AcDbEntity
  8
細線
100
AcDbLine
 10
1597.970602115529
 20
1320.494443351421
 30
0.0
 11
1595.639055639342
 21
1325.4944609051
 31
0.0
  0
LINE
  5
18CA8
330
18C7A
100
AcDbEntity
  8
細線
100
AcDbLine
 10
1595.639055639342
 20
1325.4944609051
 30
0.0
 11
1530.302132220869
 21
1325.494460905089
 31
0.0
  0
ARC
  5
18CA9
330
18C7A
100
AcDbEntity
  8
部品1
 48
0.01
100
AcDbCircle
 10
1483.470482677778
 20
1319.493338720063
 30
0.0
 40
0.5
100
AcDbArc
 50
270.0
 51
0.0
  0
LINE
  5
18CAA
330
18C7A
100
AcDbEntity
  8
部品1
 48
0.01
100
AcDbLine
 10
1483.970482677778
 20
1320.493338720063
 30
0.0
 11
1483.970482677778
 21
1319.493338720063
 31
0.0
  0
LINE
  5
18CAB
330
18C7A
100
AcDbEntity
  8
部品1
 48
0.01
100
AcDbLine
 10
1483.970482677778
 20
1320.493338720063
 30
0.0
 11
1483.970482677778
 21
1319.493338720063
 31
0.0
  0
LINE
  5
18CAC
330
18C7A
100
AcDbEntity
  8
部品1
 48
0.01
100
AcDbLine
 10
1483.470482677778
 20
1318.993338720063
 30
0.0
 11
1476.857977247713
 21
1318.993338720062
 31
0.0
  0
ARC
  5
18CAD
330
18C7A
100
AcDbEntity
  8
部品1
100
AcDbCircle
 10
1476.926326800494
 20
1319.993338720062
 30
0.0
 40
1.0
100
AcDbArc
 50
160.5287793655865
 51
270.0
  0
ARC
  5
18CAE
330
18C7A
100
AcDbEntity
  8
部品1
100
AcDbCircle
 10
1451.470482677778
 20
1328.993338720062
 30
0.0
 40
26.0
100
AcDbArc
 50
340.5287793655865
 51
0.0
  0
LINE
  5
18CAF
330
18C7A
100
AcDbEntity
  8
部品1
100
AcDbLine
 10
1477.470482677778
 20
1328.993338720062
 30
0.0
 11
1477.470482677778
 21
1333.993338720061
 31
0.0
  0
ARC
  5
18CB0
330
18C7A
100
AcDbEntity
  8
部品1
 48
0.01
100
AcDbCircle
 10
1475.470482677778
 20
1333.993338720061
 30
0.0
 40
2.0
100
AcDbArc
 50
0.0
 51
90.0
  0
ARC
  5
18CB1
330
18C7A
100
AcDbEntity
  8
部品1
100
AcDbCircle
 10
1473.862091052968
 20
1332.993338720062
 30
0.0
 40
3.0
100
AcDbArc
 50
90.0
 51
141.6069559808035
  0
LINE
  5
18CB2
330
18C7A
100
AcDbEntity
  8
部品1
 48
0.01
100
AcDbLine
 10
1475.470482677778
 20
1335.993338720062
 30
0.0
 11
1473.862091052968
 21
1335.993338720062
 31
0.0
  0
ARC
  5
18CB3
330
18C7A
100
AcDbEntity
  8
部品1
100
AcDbCircle
 10
1455.399768463507
 20
1332.293338720065
 30
0.0
 40
3.0
100
AcDbArc
 50
254.0576313943215
 51
270.0
  0
ARC
  5
18CB4
330
18C7A
100
AcDbEntity
  8
部品1
100
AcDbCircle
 10
1462.541196892049
 20
1332.293338720065
 30
0.0
 40
3.0
100
AcDbArc
 50
270.0
 51
285.9423686056786
  0
LINE
  5
18CB5
330
18C7A
100
AcDbEntity
  8
部品1
100
AcDbLine
 10
1462.541196892049
 20
1329.293338720064
 30
0.0
 11
1455.399768463507
 21
1329.293338720064
 31
0.0
  0
ARC
  5
18CB6
330
18C7A
100
AcDbEntity
  8
部品1
100
AcDbCircle
 10
1458.970482677778
 20
1344.793338720065
 30
0.0
 40
16.0
100
AcDbArc
 50
285.9423686056786
 51
321.6069559808035
  0
LINE
  5
18CB7
330
18C7A
100
AcDbEntity
  8
部品1
 48
0.01
100
AcDbLine
 10
1442.470482677778
 20
1335.993338720062
 30
0.0
 11
1444.078874302588
 21
1335.993338720062
 31
0.0
  0
ARC
  5
18CB8
330
18C7A
100
AcDbEntity
  8
部品1
100
AcDbCircle
 10
1444.078874302588
 20
1332.993338720062
 30
0.0
 40
3.0
100
AcDbArc
 50
38.39304401919648
 51
90.0
  0
ARC
  5
18CB9
330
18C7A
100
AcDbEntity
  8
部品1
100
AcDbCircle
 10
1458.970482677778
 20
1344.793338720065
 30
0.0
 40
16.0
100
AcDbArc
 50
218.3930440191965
 51
254.0576313943215
  0
LINE
  5
18CBA
330
18C7A
100
AcDbEntity
  8
部品1
100
AcDbLine
 10
1440.470482677778
 20
1328.993338720062
 30
0.0
 11
1440.470482677778
 21
1333.993338720061
 31
0.0
  0
ARC
  5
18CBB
330
18C7A
100
AcDbEntity
  8
部品1
 48
0.01
100
AcDbCircle
 10
1442.470482677778
 20
1333.993338720061
 30
0.0
 40
2.0
100
AcDbArc
 50
90.0
 51
180.0
  0
ARC
  5
18CBC
330
18C7A
100
AcDbEntity
  8
部品1
100
AcDbCircle
 10
1466.470482677778
 20
1328.993338720062
 30
0.0
 40
26.0
100
AcDbArc
 50
180.0
 51
199.4712206344134
  0
ARC
  5
18CBD
330
18C7A
100
AcDbEntity
  8
部品1
 48
0.01
100
AcDbCircle
 10
1434.470482677778
 20
1319.493338720063
 30
0.0
 40
0.5
100
AcDbArc
 50
180.0
 51
270.0
  0
LINE
  5
18CBE
330
18C7A
100
AcDbEntity
  8
部品1
 48
0.01
100
AcDbLine
 10
1434.470482677778
 20
1318.993338720063
 30
0.0
 11
1441.014638555061
 21
1318.993338720062
 31
0.0
  0
LINE
  5
18CBF
330
18C7A
100
AcDbEntity
  8
部品1
 48
0.01
100
AcDbLine
 10
1433.970482677778
 20
1320.493338720063
 30
0.0
 11
1433.970482677778
 21
1319.493338720063
 31
0.0
  0
ARC
  5
18CC0
330
18C7A
100
AcDbEntity
  8
部品1
100
AcDbCircle
 10
1441.014638555061
 20
1319.993338720062
 30
0.0
 40
1.0
100
AcDbArc
 50
270.0
 51
19.47122063441346
  0
LINE
  5
18CC1
330
18C7A
100
AcDbEntity
  8
細線
100
AcDbLine
 10
1479.470482677785
 20
1338.493338720065
 30
0.0
 11
1438.470482677785
 21
1338.493338720058
 31
0.0
  0
LINE
  5
18CC2
330
18C7A
100
AcDbEntity
  8
細線
100
AcDbLine
 10
1438.470482677785
 20
1338.493338720058
 30
0.0
 11
1438.470482677785
 21
1320.49333872004
 31
0.0
  0
LINE
  5
18CC3
330
18C7A
100
AcDbEntity
  8
細線
100
AcDbLine
 10
1479.470482677785
 20
1338.493338720065
 30
0.0
 11
1479.470482677785
 21
1320.49333872004
 31
0.0
  0
LINE
  5
18CC4
330
18C7A
100
AcDbEntity
  8
細線
100
AcDbLine
 10
1322.970589276523
 20
1324.494269174465
 30
0.0
 11
1322.970589276523
 21
1320.494269174513
 31
0.0
  0
LINE
  5
18CC5
330
18C7A
100
AcDbEntity
  8
寸法
 48
50.0
100
AcDbLine
 10
1746.17359555837
 20
1170.531020743327
 30
0.0
 11
1694.767587648266
 21
1170.531020743327
 31
0.0
  0
LINE
  5
18CC6
330
18C7A
100
AcDbEntity
  8
寸法
 48
50.0
100
AcDbLine
 10
1694.767587648266
 20
1170.531020743327
 30
0.0
 11
1694.767587648266
 21
1201.841179395494
 31
0.0
  0
LINE
  5
18CC7
330
18C7A
100
AcDbEntity
  8
寸法
 48
50.0
100
AcDbLine
 10
1694.767587648266
 20
1201.841179395494
 30
0.0
 11
1665.006255656843
 21
1201.841179395494
 31
0.0
  0
LINE
  5
18CC8
330
18C7A
100
AcDbEntity
  8
寸法
 48
50.0
100
AcDbLine
 10
1665.006255656843
 20
1201.841179395494
 30
0.0
 11
1720.470591603318
 21
1239.420630324105
 31
0.0
  0
LINE
  5
18CC9
330
18C7A
100
AcDbEntity
  8
寸法
 48
50.0
100
AcDbLine
 10
1775.934927549793
 20
1201.841179395494
 30
0.0
 11
1720.470591603318
 21
1239.420630324105
 31
0.0
  0
LINE
  5
18CCA
330
18C7A
100
AcDbEntity
  8
寸法
 48
50.0
100
AcDbLine
 10
1746.17359555837
 20
1201.841179395494
 30
0.0
 11
1775.934927549793
 21
1201.841179395494
 31
0.0
  0
LINE
  5
18CCB
330
18C7A
100
AcDbEntity
  8
寸法
 48
50.0
100
AcDbLine
 10
1746.17359555837
 20
1170.531020743327
 30
0.0
 11
1746.17359555837
 21
1201.841179395494
 31
0.0
  0
LINE
  5
18CCC
330
18C7A
100
AcDbEntity
  8
寸法
 48
50.0
100
AcDbLine
 10
1694.767587648266
 20
1170.531020743327
 30
0.0
 11
1746.17359555837
 21
1170.531020743327
 31
0.0
  0
LINE
  5
18CCD
330
18C7A
100
AcDbEntity
  8
寸法
 48
50.0
100
AcDbLine
 10
2025.339129835225
 20
1227.676611498152
 30
0.0
 11
2025.339129835225
 21
1174.01297691636
 31
0.0
  0
LINE
  5
18CCE
330
18C7A
100
AcDbEntity
  8
寸法
 48
50.0
100
AcDbLine
 10
2114.623348430647
 20
1203.752977228664
 30
0.0
 11
2025.339129835225
 21
1227.676611498152
 31
0.0
  0
LINE
  5
18CCF
330
18C7A
100
AcDbEntity
  8
寸法
 48
50.0
100
AcDbLine
 10
1895.471408254923
 20
1203.752977228664
 30
0.0
 11
2114.623348430647
 21
1203.752977228664
 31
0.0
  0
DIMENSION
  5
18CD0
330
18C7A
100
AcDbEntity
  8
寸法
 48
50.0
100
AcDbDimension
  2
*D15
 10
2588.970589276523
 20
706.3240511224249
 30
0.0
 11
1969.060022905491
 21
706.3240511224249
 31
0.0
 12
-3742.925985830444
 22
-6453.628869860112
 32
0.0
 70
   128
  1
有効開口部間口\P<>
 71
     5
 42
1266.0
  3
INABA_S40G
100
AcDbAlignedDimension
 13
1322.970589276523
 23
1315.494269174465
 33
0.0
 14
2588.970589276523
 24
1315.494269174465
 34
0.0
100
AcDbRotatedDimension
1001
ACAD
1000
DSTYLE
1002
{
1070
   341
1005
0
1002
}
  0
LINE
  5
18CD1
330
18C7A
100
AcDbEntity
  8
部品1
100
AcDbLine
 10
3409.970589276524
 20
1392.494269174465
 30
0.0
 11
3437.970589276523
 21
1392.494269174465
 31
0.0
  0
DIMENSION
  5
18CD2
330
18C7A
100
AcDbEntity
  8
寸法
100
AcDbDimension
  2
*D16
 10
3674.266172669749
 20
1315.494269174465
 30
0.0
 11
3674.266172669748
 21
1177.494269174462
 31
0.0
 12
-3742.925985830444
 22
-6453.628869860112
 32
0.0
 70
   128
 71
     5
 42
77.0
  3
INABA_S40
100
AcDbAlignedDimension
 13
3437.970589276523
 23
1392.494269174465
 33
0.0
 14
3436.970589276523
 24
1315.494269174465
 34
0.0
 50
90.0
100
AcDbRotatedDimension
1001
ACAD
1000
DSTYLE
1002
{
1070
    41
1040
0.5
1070
    44
1040
1.0
1070
   147
1040
0.8
1070
   271
1070
     2
1070
   272
1070
     2
1070
   289
1070
     3
1070
   340
1005
F706
1070
   343
1005
164B4
1070
   344
1005
164B4
1002
}
  0
LINE
  5
18CD3
330
18C7A
100
AcDbEntity
  8
部品1
100
AcDbLine
 10
3437.970589276523
 20
1315.494269174465
 30
0.0
 11
3437.970589276523
 21
1392.494269174465
 31
0.0
  0
LINE
  5
18CD4
330
18C7A
100
AcDbEntity
  8
部品1
100
AcDbLine
 10
3398.970589276523
 20
1388.494269174465
 30
0.0
 11
3409.970589276524
 21
1388.494269174465
 31
0.0
  0
LINE
  5
18CD5
330
18C7A
100
AcDbEntity
  8
部品1
100
AcDbLine
 10
3407.970589276523
 20
1324.494269174465
 30
0.0
 11
3407.970589276523
 21
1315.494269174465
 31
0.0
  0
LINE
  5
18CD6
330
18C7A
100
AcDbEntity
  8
部品1
100
AcDbLine
 10
3398.970589276523
 20
1324.494269174465
 30
0.0
 11
3407.970589276523
 21
1324.494269174465
 31
0.0
  0
LINE
  5
18CD7
330
18C7A
100
AcDbEntity
  8
部品1
100
AcDbLine
 10
3398.970589276523
 20
1388.494269174465
 30
0.0
 11
3398.970589276523
 21
1324.494269174465
 31
0.0
  0
LINE
  5
18CD8
330
18C7A
100
AcDbEntity
  8
部品1
100
AcDbLine
 10
3409.970589276524
 20
1419.494269174465
 30
0.0
 11
3409.970589276524
 21
1388.494269174465
 31
0.0
  0
LINE
  5
18CD9
330
18C7A
100
AcDbEntity
  8
部品1
100
AcDbLine
 10
1322.970589276523
 20
1388.494269174465
 30
0.0
 11
1311.970589276523
 21
1388.494269174465
 31
0.0
  0
LINE
  5
18CDA
330
18C7A
100
AcDbEntity
  8
部品1
100
AcDbLine
 10
1283.970589276523
 20
1392.494269174465
 30
0.0
 11
1311.970589276523
 21
1392.494269174465
 31
0.0
  0
LINE
  5
18CDB
330
18C7A
100
AcDbEntity
  8
部品1
100
AcDbLine
 10
1313.970589276523
 20
1324.494269174465
 30
0.0
 11
1313.970589276523
 21
1315.494269174465
 31
0.0
  0
LINE
  5
18CDC
330
18C7A
100
AcDbEntity
  8
部品1
100
AcDbLine
 10
1322.970589276523
 20
1324.494269174465
 30
0.0
 11
1313.970589276523
 21
1324.494269174465
 31
0.0
  0
LINE
  5
18CDD
330
18C7A
100
AcDbEntity
  8
部品1
100
AcDbLine
 10
1313.970589276523
 20
1315.494269174465
 30
0.0
 11
1283.970589276523
 21
1315.494269174465
 31
0.0
  0
LINE
  5
18CDE
330
18C7A
100
AcDbEntity
  8
部品1
100
AcDbLine
 10
1283.970589276523
 20
1315.494269174465
 30
0.0
 11
1283.970589276523
 21
1392.494269174465
 31
0.0
  0
LINE
  5
18CDF
330
18C7A
100
AcDbEntity
  8
部品1
100
AcDbLine
 10
1322.970589276523
 20
1388.494269174465
 30
0.0
 11
1322.970589276523
 21
1324.494269174465
 31
0.0
  0
LINE
  5
18CE0
330
18C7A
100
AcDbEntity
  8
部品1
100
AcDbLine
 10
1311.970589276523
 20
1419.494269174462
 30
0.0
 11
1311.970589276523
 21
1388.494269174465
 31
0.0
  0
LINE
  5
18CE1
330
18C7A
100
AcDbEntity
  8
部品1
100
AcDbLine
 10
1311.970589276523
 20
1419.494269174462
 30
0.0
 11
3409.970589276524
 21
1419.494269174465
 31
0.0
  0
LINE
  5
18CE2
330
18C7A
100
AcDbEntity
  8
部品1
100
AcDbLine
 10
3407.970589276523
 20
1315.494269174465
 30
0.0
 11
3437.970589276523
 21
1315.494269174465
 31
0.0
  0
LINE
  5
18CE3
330
18C7A
100
AcDbEntity
  8
部品1
100
AcDbLine
 10
1313.970589276523
 20
1315.494269174465
 30
0.0
 11
3410.970589276523
 21
1315.494269174465
 31
0.0
  0
LINE
  5
18CE4
330
18C7A
100
AcDbEntity
  8
細線
  6
Continuous
 62
     5
100
AcDbLine
 10
2689.970589276527
 20
1354.494269174462
 30
0.0
 11
2689.970589276527
 21
1354.494269174462
 31
0.0
  0
LINE
  5
18CE5
330
18C7A
100
AcDbEntity
  8
細線
  6
Continuous
 62
     5
100
AcDbLine
 10
2682.470589276527
 20
1354.494269174462
 30
0.0
 11
2682.470589276527
 21
1354.494269174462
 31
0.0
  0
LINE
  5
18CE6
330
18C7A
100
AcDbEntity
  8
細線
  6
Continuous
 62
     5
100
AcDbLine
 10
2676.470589276527
 20
1354.494269174462
 30
0.0
 11
2676.470589276527
 21
1354.494269174462
 31
0.0
  0
LINE
  5
18CE7
330
18C7A
100
AcDbEntity
  8
細線
  6
Continuous
 62
     5
100
AcDbLine
 10
2743.970589276527
 20
1373.494269174462
 30
0.0
 11
2743.970589276527
 21
1373.494269174462
 31
0.0
  0
LINE
  5
18CE8
330
18C7A
100
AcDbEntity
  8
細線
 48
50.0
100
AcDbLine
 10
1336.970593930116
 20
1341.094443351418
 30
0.0
 11
1336.970593930113
 21
1349.490593759059
 31
0.0
  0
LINE
  5
18CE9
330
18C7A
100
AcDbEntity
  8
細線
 48
50.0
100
AcDbLine
 10
1336.970593930113
 20
1349.490593759059
 30
0.0
 11
1322.970589276523
 21
1349.490593759057
 31
0.0
  0
LINE
  5
18CEA
330
18C7A
100
AcDbEntity
  8
細線
 48
50.0
100
AcDbLine
 10
2087.970593930113
 20
1337.644443351419
 30
0.0
 11
2087.970593930113
 21
1342.494443351421
 31
0.0
  0
LINE
  5
18CEB
330
18C7A
100
AcDbEntity
  8
細線
 48
50.0
100
AcDbLine
 10
2087.970593930113
 20
1342.494443351421
 30
0.0
 11
2102.970593930113
 21
1342.494443351421
 31
0.0
  0
LINE
  5
18CEC
330
18C7A
100
AcDbEntity
  8
細線
 48
50.0
100
AcDbLine
 10
2102.970593930113
 20
1342.494443351421
 30
0.0
 11
2102.970593930115
 21
1349.494443351419
 31
0.0
  0
LINE
  5
18CED
330
18C7A
100
AcDbEntity
  8
細線
 48
50.0
100
AcDbLine
 10
2102.970593930115
 20
1349.494443351419
 30
0.0
 11
2117.970593930113
 21
1349.494443351419
 31
0.0
  0
LINE
  5
18CEE
330
18C7A
100
AcDbEntity
  8
細線
 48
50.0
100
AcDbLine
 10
2117.970593930113
 20
1349.494443351419
 30
0.0
 11
2117.970593930113
 21
1320.494443351421
 31
0.0
  0
LINE
  5
18CEF
330
18C7A
100
AcDbEntity
  8
細線
 48
50.0
100
AcDbLine
 10
1313.970589276523
 20
1320.491777694889
 30
0.0
 11
1527.970593930113
 21
1320.494460905133
 31
0.0
  0
LINE
  5
18CF0
330
18C7A
100
AcDbEntity
  8
細線
 48
50.0
100
AcDbLine
 10
2017.970593930113
 20
1320.494443351421
 30
0.0
 11
2117.970593930113
 21
1320.494443351421
 31
0.0
  0
LINE
  5
18CF1
330
18C7A
100
AcDbEntity
  8
細線
 48
50.0
100
AcDbLine
 10
1737.970593930113
 20
1320.494443351419
 30
0.0
 11
1807.970593930113
 21
1320.494443351423
 31
0.0
  0
LINE
  5
18CF2
330
18C7A
100
AcDbEntity
  8
細線
 48
50.0
100
AcDbLine
 10
1750.832558942642
 20
1320.494443351419
 30
0.0
 11
1756.588076525309
 21
1338.765294641913
 31
0.0
  0
LINE
  5
18CF3
330
18C7A
100
AcDbEntity
  8
細線
 48
50.0
100
AcDbLine
 10
1756.588076525309
 20
1338.765294641913
 30
0.0
 11
1767.516525005743
 21
1338.765294641911
 31
0.0
  0
ARC
  5
18CF4
330
18C7A
100
AcDbEntity
  8
細線
 48
50.0
100
AcDbCircle
 10
1767.516525005743
 20
1337.765294641911
 30
0.0
 40
1.0
100
AcDbArc
 50
24.62431835207225
 51
90.0
  0
ARC
  5
18CF5
330
18C7A
100
AcDbEntity
  8
細線
 48
50.0
100
AcDbCircle
 10
1778.425237120377
 20
1337.765294641911
 30
0.0
 40
1.0
100
AcDbArc
 50
90.0
 51
155.3756816479277
  0
ARC
  5
18CF6
330
18C7A
100
AcDbEntity
  8
細線
 48
50.0
100
AcDbCircle
 10
1772.970881063058
 20
1340.265294641911
 30
0.0
 40
5.0
100
AcDbArc
 50
204.6243183520723
 51
335.3756816479278
  0
LINE
  5
18CF7
330
18C7A
100
AcDbEntity
  8
細線
 48
50.0
100
AcDbLine
 10
1778.425237120377
 20
1338.765294641911
 30
0.0
 11
1789.35368560081
 21
1338.765294641913
 31
0.0
  0
LINE
  5
18CF8
330
18C7A
100
AcDbEntity
  8
細線
 48
50.0
100
AcDbLine
 10
1789.35368560081
 20
1338.765294641913
 30
0.0
 11
1795.109203183478
 21
1320.494443351423
 31
0.0
  0
LINE
  5
18CF9
330
18C7A
100
AcDbEntity
  8
細線
 48
50.0
100
AcDbLine
 10
2087.970593930113
 20
1341.094443351419
 30
0.0
 11
1336.970593930116
 21
1341.094443351418
 31
0.0
  0
LINE
  5
18CFA
330
18C7A
100
AcDbEntity
  8
細線
 48
50.0
100
AcDbLine
 10
1947.970593930113
 20
1320.494443351421
 30
0.0
 11
1877.970593930113
 21
1320.494443351421
 31
0.0
  0
LINE
  5
18CFB
330
18C7A
100
AcDbEntity
  8
細線
100
AcDbLine
 10
1667.970593930113
 20
1320.494443351421
 30
0.0
 11
1597.970602115529
 21
1320.494443351421
 31
0.0
  0
LINE
  5
18CFC
330
18C7A
100
AcDbEntity
  8
細線
 48
50.0
100
AcDbLine
 10
2741.970584622936
 20
1375.094487209288
 30
0.0
 11
2106.970593930113
 21
1375.094487209284
 31
0.0
  0
LINE
  5
18CFD
330
18C7A
100
AcDbEntity
  8
細線
 48
50.0
100
AcDbLine
 10
2106.970593930113
 20
1371.990637616925
 30
0.0
 11
2106.970593930113
 21
1376.490637616925
 31
0.0
  0
LINE
  5
18CFE
330
18C7A
100
AcDbEntity
  8
細線
 48
50.0
100
AcDbLine
 10
2106.970593930113
 20
1376.490637616925
 30
0.0
 11
2091.970593930113
 21
1376.490637616925
 31
0.0
  0
LINE
  5
18CFF
330
18C7A
100
AcDbEntity
  8
細線
 48
50.0
100
AcDbLine
 10
2091.970593930113
 20
1376.490637616925
 30
0.0
 11
2091.970593930113
 21
1383.490637616927
 31
0.0
  0
LINE
  5
18D00
330
18C7A
100
AcDbEntity
  8
細線
 48
50.0
100
AcDbLine
 10
2091.970593930113
 20
1383.490637616927
 30
0.0
 11
2076.970593930115
 21
1383.490637616924
 31
0.0
  0
LINE
  5
18D01
330
18C7A
100
AcDbEntity
  8
細線
 48
50.0
100
AcDbLine
 10
2076.970593930115
 20
1383.490637616924
 30
0.0
 11
2076.970593930115
 21
1345.890409513813
 31
0.0
  0
LINE
  5
18D02
330
18C7A
100
AcDbEntity
  8
細線
 48
50.0
100
AcDbLine
 10
2076.970593930115
 20
1345.890409513813
 30
0.0
 11
2096.970601231289
 21
1345.890451063353
 31
0.0
  0
LINE
  5
18D03
330
18C7A
100
AcDbEntity
  8
細線
 48
50.0
100
AcDbLine
 10
2096.970556362348
 20
1354.493912699161
 30
0.0
 11
2096.970601231289
 21
1345.890451063353
 31
0.0
  0
LINE
  5
18D04
330
18C7A
100
AcDbEntity
  8
細線
 48
50.0
100
AcDbLine
 10
2741.970584622936
 20
1371.644487209287
 30
0.0
 11
2741.970584622936
 21
1376.494487209284
 31
0.0
  0
LINE
  5
18D05
330
18C7A
100
AcDbEntity
  8
細線
 48
50.0
100
AcDbLine
 10
2741.970584622936
 20
1376.494487209284
 30
0.0
 11
2756.970584622934
 21
1376.494487209285
 31
0.0
  0
LINE
  5
18D06
330
18C7A
100
AcDbEntity
  8
細線
 48
50.0
100
AcDbLine
 10
2756.970584622934
 20
1376.494487209285
 30
0.0
 11
2756.970596256909
 21
1383.494487209331
 31
0.0
  0
LINE
  5
18D07
330
18C7A
100
AcDbEntity
  8
細線
 48
50.0
100
AcDbLine
 10
2756.970596256909
 20
1383.494487209331
 30
0.0
 11
2771.970594427439
 21
1383.494487209329
 31
0.0
  0
LINE
  5
18D08
330
18C7A
100
AcDbEntity
  8
細線
 48
50.0
100
AcDbLine
 10
2771.970594427439
 20
1383.494487209329
 30
0.0
 11
2771.970584125617
 21
1354.494281037055
 31
0.0
  0
LINE
  5
18D09
330
18C7A
100
AcDbEntity
  8
細線
 48
50.0
100
AcDbLine
 10
2458.070304175992
 20
1354.494278397076
 30
0.0
 11
2389.470863838818
 21
1354.494283787084
 31
0.0
  0
LINE
  5
18D0A
330
18C7A
100
AcDbEntity
  8
細線
 48
50.0
100
AcDbLine
 10
2096.970556362348
 20
1354.493912699161
 30
0.0
 11
2108.203245717057
 21
1354.494095652309
 31
0.0
  0
ARC
  5
18D0B
330
18C7A
100
AcDbEntity
  8
細線
 48
50.0
100
AcDbCircle
 10
2114.785538024393
 20
1353.294259565922
 30
0.0
 40
1.8
100
AcDbArc
 50
270.0006665777295
 51
345.000555481349
  0
LINE
  5
18D0C
330
18C7A
100
AcDbEntity
  8
細線
 48
50.0
100
AcDbLine
 10
2116.771971470473
 20
1353.753100023201
 30
0.0
 11
2116.524209028273
 21
1352.828402141094
 31
0.0
  0
LINE
  5
18D0D
330
18C7A
100
AcDbEntity
  8
細線
 48
50.0
100
AcDbLine
 10
2114.785558965548
 20
1351.494259566043
 30
0.0
 11
2111.155631546781
 21
1351.494217335563
 31
0.0
  0
ARC
  5
18D0E
330
18C7A
100
AcDbEntity
  8
細線
 48
50.0
100
AcDbCircle
 10
2111.155610605627
 20
1353.29421733544
 30
0.0
 40
1.8
100
AcDbArc
 50
195.0010443049965
 51
270.0006665777295
  0
LINE
  5
18D0F
330
18C7A
100
AcDbEntity
  8
細線
 48
50.0
100
AcDbLine
 10
2109.169183113368
 20
1353.752932303007
 30
0.0
 11
2109.416952609882
 21
1352.828311364425
 31
0.0
  0
ARC
  5
18D10
330
18C7A
100
AcDbEntity
  8
細線
 48
50.0
100
AcDbCircle
 10
2108.203262004622
 20
1353.494095652444
 30
0.0
 40
1.0
100
AcDbArc
 50
15.00104430499651
 51
90.00093320877969
  0
LINE
  5
18D11
330
18C7A
100
AcDbEntity
  8
細線
 48
50.0
100
AcDbLine
 10
2117.737892825577
 20
1354.494290342714
 30
0.0
 11
2118.679652976481
 21
1354.494296916564
 31
0.0
  0
ARC
  5
18D12
330
18C7A
100
AcDbEntity
  8
細線
 48
50.0
100
AcDbCircle
 10
2117.737899805961
 20
1353.49429034274
 30
0.0
 40
1.0
100
AcDbArc
 50
90.0003999466794
 51
165.000555481349
  0
LINE
  5
18D13
330
18C7A
100
AcDbEntity
  8
細線
 48
50.0
100
AcDbLine
 10
2669.470584622926
 20
1354.494281037055
 30
0.0
 11
2771.970584125617
 21
1354.494281037055
 31
0.0
  0
LINE
  5
18D14
330
18C7A
100
AcDbEntity
  8
細線
 48
50.0
100
AcDbLine
 10
2179.47061994182
 20
1354.494289224422
 30
0.0
 11
2118.370558714898
 21
1354.494296916564
 31
0.0
  0
LINE
  5
18D15
330
18C7A
100
AcDbEntity
  8
細線
 48
50.0
100
AcDbLine
 10
2599.470584622926
 20
1354.494281037057
 30
0.0
 11
2529.470584622926
 21
1354.494281037055
 31
0.0
  0
LINE
  5
18D16
330
18C7A
100
AcDbEntity
  8
細線
 48
50.0
100
AcDbLine
 10
2319.470584622926
 20
1354.494281037054
 30
0.0
 11
2249.470567335051
 21
1354.494281037057
 31
0.0
  0
ARC
  5
18D17
330
18C7A
100
AcDbEntity
  8
細線
 48
50.0
100
AcDbCircle
 10
2756.170589276533
 20
1387.694269174466
 30
0.0
 40
0.8
100
AcDbArc
 50
359.9997333689499
 51
89.99986668437072
  0
ARC
  5
18D18
330
18C7A
100
AcDbEntity
  8
細線
 48
50.0
100
AcDbCircle
 10
2763.770596101631
 20
1387.694280343081
 30
0.0
 40
0.8
100
AcDbArc
 50
90.00014387753465
 51
179.9997333689498
  0
LINE
  5
18D19
330
18C7A
100
AcDbEntity
  8
細線
 48
50.0
100
AcDbLine
 10
2756.170591137969
 20
1388.494269174465
 30
0.0
 11
2750.970589276525
 21
1388.494269174465
 31
0.0
  0
ARC
  5
18D1A
330
18C7A
100
AcDbEntity
  8
細線
 48
50.0
100
AcDbCircle
 10
2757.670589276524
 20
1386.194269174464
 30
0.0
 40
0.7
100
AcDbArc
 50
180.0
 51
270.0
  0
ARC
  5
18D1B
330
18C7A
100
AcDbEntity
  8
細線
 48
50.0
100
AcDbCircle
 10
2762.270589276524
 20
1386.194269174464
 30
0.0
 40
0.7
100
AcDbArc
 50
270.0
 51
0.0
  0
LINE
  5
18D1C
330
18C7A
100
AcDbEntity
  8
細線
 48
50.0
100
AcDbLine
 10
2762.970589276525
 20
1386.194269174464
 30
0.0
 11
2762.970596101639
 21
1387.694284065954
 31
0.0
  0
LINE
  5
18D1D
330
18C7A
100
AcDbEntity
  8
細線
 48
50.0
100
AcDbLine
 10
2757.670589276524
 20
1385.494269174465
 30
0.0
 11
2762.270589276524
 21
1385.494269174465
 31
0.0
  0
LINE
  5
18D1E
330
18C7A
100
AcDbEntity
  8
細線
 48
50.0
100
AcDbLine
 10
2756.970589276525
 20
1387.694269174466
 30
0.0
 11
2756.970589276525
 21
1386.194269174464
 31
0.0
  0
LINE
  5
18D1F
330
18C7A
100
AcDbEntity
  8
細線
 48
50.0
100
AcDbLine
 10
3382.570589276527
 20
1418.494269174465
 30
0.0
 11
2745.970589276525
 21
1418.494269174463
 31
0.0
  0
LINE
  5
18D20
330
18C7A
100
AcDbEntity
  8
細線
 48
50.0
100
AcDbLine
 10
3408.470589276525
 20
1413.494269174467
 30
0.0
 11
3392.570589276527
 21
1413.494269174465
 31
0.0
  0
LINE
  5
18D21
330
18C7A
100
AcDbEntity
  8
細線
 48
50.0
100
AcDbLine
 10
3392.570589276526
 20
1413.494269174465
 30
0.0
 11
3382.570589276527
 21
1418.494269174465
 31
0.0
  0
LINE
  5
18D22
330
18C7A
100
AcDbEntity
  8
細線
100
AcDbLine
 10
2993.470589276525
 20
1388.494269174465
 30
0.0
 11
2993.470589276525
 21
1417.794269174464
 31
0.0
  0
LINE
  5
18D23
330
18C7A
100
AcDbEntity
  8
細線
100
AcDbLine
 10
2993.470589276525
 20
1417.794269174464
 30
0.0
 11
3013.470589276525
 21
1417.794269174464
 31
0.0
  0
LINE
  5
18D24
330
18C7A
100
AcDbEntity
  8
細線
100
AcDbLine
 10
3013.470589276525
 20
1388.494269174465
 30
0.0
 11
3013.470589276525
 21
1417.794269174464
 31
0.0
  0
LINE
  5
18D25
330
18C7A
100
AcDbEntity
  8
細線
100
AcDbLine
 10
3170.720589276524
 20
1388.494269174465
 30
0.0
 11
3100.720589276523
 21
1388.494269174465
 31
0.0
  0
LINE
  5
18D26
330
18C7A
100
AcDbEntity
  8
細線
 48
50.0
100
AcDbLine
 10
2890.720589276525
 20
1388.494269174465
 30
0.0
 11
2763.766368849365
 21
1388.494269174465
 31
0.0
  0
LINE
  5
18D27
330
18C7A
100
AcDbEntity
  8
細線
100
AcDbLine
 10
3030.720589276525
 20
1388.494269174465
 30
0.0
 11
2960.720589276525
 21
1388.494269174465
 31
0.0
  0
LINE
  5
18D28
330
18C7A
100
AcDbEntity
  8
細線
 48
50.0
100
AcDbLine
 10
2750.970589276525
 20
1380.494269174465
 30
0.0
 11
2750.970589276525
 21
1388.494269174465
 31
0.0
  0
LINE
  5
18D29
330
18C7A
100
AcDbEntity
  8
細線
 48
50.0
100
AcDbLine
 10
2730.970589276524
 20
1380.494269174467
 30
0.0
 11
2750.970589276525
 21
1380.494269174465
 31
0.0
  0
LINE
  5
18D2A
330
18C7A
100
AcDbEntity
  8
細線
 48
50.0
100
AcDbLine
 10
2745.970589276525
 20
1418.494269174465
 30
0.0
 11
2745.970589276525
 21
1413.494269174465
 31
0.0
  0
LINE
  5
18D2B
330
18C7A
100
AcDbEntity
  8
細線
 48
50.0
100
AcDbLine
 10
2730.970589276525
 20
1418.494269174463
 30
0.0
 11
2745.970589276525
 21
1418.494269174465
 31
0.0
  0
LINE
  5
18D2C
330
18C7A
100
AcDbEntity
  8
細線
 48
50.0
100
AcDbLine
 10
2730.970589276524
 20
1380.494269174467
 30
0.0
 11
2730.970589276525
 21
1418.494269174463
 31
0.0
  0
LINE
  5
18D2D
330
18C7A
100
AcDbEntity
  8
細線
100
AcDbLine
 10
3398.970589276523
 20
1388.494269174465
 30
0.0
 11
3240.720589276525
 21
1388.494269174465
 31
0.0
  0
LINE
  5
18D2E
330
18C7A
100
AcDbEntity
  8
細線
 48
50.0
100
AcDbLine
 10
3408.470589276525
 20
1413.494269174467
 30
0.0
 11
3408.470589276524
 21
1388.494269174465
 31
0.0
  0
TEXT
  5
18D2F
330
18C7A
100
AcDbEntity
  8
部品1
100
AcDbText
 10
1860.154865991392
 20
46.99880823813145
 30
0.0
 40
135.0
  1
平面図
  7
STYLE2
100
AcDbText
  0
LWPOLYLINE
  5
18D30
330
18C7A
100
AcDbEntity
  8
部品1
100
AcDbPolyline
 90
        4
 70
     1
 43
0.0
 10
1770.23525616235
 20
239.8923374566548
 10
1770.23525616235
 20
0.0000159111223184
 10
2533.705922390791
 20
0.0000159111223184
 10
2533.705922390791
 20
239.8923374566548
  0
LINE
  5
18D31
330
18C7A
100
AcDbEntity
  8
部品1
100
AcDbLine
 10
1534.470589276487
 20
3154.494269174626
 30
0.0
 11
2769.470589276552
 21
3154.494269174626
 31
0.0
  0
LINE
  5
18D32
330
18C7A
100
AcDbEntity
  8
部品1
 48
50.0
100
AcDbLine
 10
1311.970589276523
 20
1420.494269174462
 30
0.0
 11
3411.970589276523
 21
1420.494269174465
 31
0.0
  0
LINE
  5
18D33
330
18C7A
100
AcDbEntity
  8
部品1
 48
50.0
100
AcDbLine
 10
471.9705892765232
 20
1392.494269174465
 30
0.0
 11
1311.970589276523
 21
1392.494269174465
 31
0.0
  0
DIMENSION
  5
18D34
330
18C7A
100
AcDbEntity
  8
寸法
100
AcDbDimension
  2
*D14
 10
2710.234916278077
 20
2488.887829538828
 30
0.0
 11
2338.318822490183
 21
2488.887829538828
 31
0.0
 12
-3742.925985830444
 22
-6453.628869860112
 32
0.0
 70
   128
 71
     5
 42
1231.00000000007
  3
INABA_S40G
100
AcDbAlignedDimension
 13
1536.470589276486
 23
2702.494269174557
 33
0.0
 14
2767.470589276556
 24
2702.494269174549
 34
0.0
100
AcDbRotatedDimension
1001
ACAD
1000
DSTYLE
1002
{
1002
}
  0
LINE
  5
18D35
330
18C7A
100
AcDbEntity
  8
部品1
100
AcDbLine
 10
1536.470589276487
 20
2702.494269174557
 30
0.0
 11
2767.470589276554
 21
2702.494269174615
 31
0.0
  0
LINE
  5
18D36
330
18C7A
100
AcDbEntity
  8
部品1
100
AcDbLine
 10
1536.470589276487
 20
3152.494269174557
 30
0.0
 11
2767.470589276556
 21
3152.494269174615
 31
0.0
  0
LINE
  5
18D37
330
18C7A
100
AcDbEntity
  8
細線
 48
50.0
100
AcDbLine
 10
1508.470589276487
 20
3152.494269174558
 30
0.0
 11
445.4705892765559
 21
2702.494269174509
 31
0.0
  0
LINE
  5
18D38
330
18C7A
100
AcDbEntity
  8
細線
 48
50.0
100
AcDbLine
 10
1508.470589276487
 20
2702.494269174558
 30
0.0
 11
445.4705892765542
 21
3152.494269174509
 31
0.0
  0
LINE
  5
18D39
330
18C7A
100
AcDbEntity
  8
部品1
100
AcDbLine
 10
1556.970589276487
 20
3172.494269174611
 30
0.0
 11
1556.970589276487
 21
3154.494269174611
 31
0.0
  0
LINE
  5
18D3A
330
18C7A
100
AcDbEntity
  8
部品1
100
AcDbLine
 10
1556.970589276487
 20
3172.494269174611
 30
0.0
 11
1550.970589276487
 21
3172.494269174611
 31
0.0
  0
LINE
  5
18D3B
330
18C7A
100
AcDbEntity
  8
部品1
100
AcDbLine
 10
1534.470589276487
 20
3146.494269174608
 30
0.0
 11
1509.470589276487
 21
3146.494269174611
 31
0.0
  0
LINE
  5
18D3C
330
18C7A
100
AcDbEntity
  8
部品1
100
AcDbLine
 10
1486.970589276487
 20
3172.494269174611
 30
0.0
 11
1486.970589276487
 21
3154.494269174611
 31
0.0
  0
LINE
  5
18D3D
330
18C7A
100
AcDbEntity
  8
部品1
100
AcDbLine
 10
1492.970589276487
 20
3172.494269174611
 30
0.0
 11
1486.970589276487
 21
3172.494269174611
 31
0.0
  0
LINE
  5
18D3E
330
18C7A
100
AcDbEntity
  8
部品1
100
AcDbLine
 10
1534.470589276487
 20
2702.494269174615
 30
0.0
 11
1509.470589276487
 21
2702.494269174615
 31
0.0
  0
LINE
  5
18D3F
330
18C7A
100
AcDbEntity
  8
部品1
 48
50.0
100
AcDbLine
 10
1536.470589276487
 20
3152.494269174611
 30
0.0
 11
1536.470589276487
 21
2702.494269174615
 31
0.0
  0
LINE
  5
18D40
330
18C7A
100
AcDbEntity
  8
部品1
 48
50.0
100
AcDbLine
 10
1508.470589276487
 20
3152.494269174607
 30
0.0
 11
1508.470589276487
 21
2702.494269174615
 31
0.0
  0
LINE
  5
18D41
330
18C7A
100
AcDbEntity
  8
部品1
 48
50.0
100
AcDbLine
 10
1534.470589276487
 20
3154.494269174618
 30
0.0
 11
1534.470589276487
 21
2702.494269174615
 31
0.0
  0
LINE
  5
18D42
330
18C7A
100
AcDbEntity
  8
部品1
 48
50.0
100
AcDbLine
 10
1509.470589276487
 20
3154.494269174615
 30
0.0
 11
1509.470589276487
 21
2702.494269174615
 31
0.0
  0
LINE
  5
18D43
330
18C7A
100
AcDbEntity
  8
部品1
100
AcDbLine
 10
3411.970589276556
 20
1392.494269174582
 30
0.0
 11
3411.970589276556
 21
1420.494269174596
 31
0.0
  0
LINE
  5
18D44
330
18C7A
100
AcDbEntity
  8
部品1
100
AcDbLine
 10
1311.970589276523
 20
1392.494269174596
 30
0.0
 11
1311.970589276523
 21
1420.494269174596
 31
0.0
  0
LINE
  5
18D45
330
18C7A
100
AcDbEntity
  8
部品1
100
AcDbLine
 10
891.9705892765232
 20
1392.494269174596
 30
0.0
 11
891.9705892765232
 21
1420.494269174596
 31
0.0
  0
LINE
  5
18D46
330
18C7A
100
AcDbEntity
  8
部品1
100
AcDbLine
 10
3411.97058927652
 20
3182.494269174477
 30
0.0
 11
3411.970589276523
 21
3154.494269174477
 31
0.0
  0
LINE
  5
18D47
330
18C7A
100
AcDbEntity
  8
部品1
100
AcDbLine
 10
2571.97058927652
 20
3182.494269174477
 30
0.0
 11
2571.970589276523
 21
3154.494269174477
 31
0.0
  0
LINE
  5
18D48
330
18C7A
100
AcDbEntity
  8
部品1
100
AcDbLine
 10
2991.97058927652
 20
3182.494269174477
 30
0.0
 11
2991.970589276523
 21
3154.494269174477
 31
0.0
  0
LINE
  5
18D49
330
18C7A
100
AcDbEntity
  8
部品1
100
AcDbLine
 10
2151.970589276519
 20
3182.494269174477
 30
0.0
 11
2151.970589276523
 21
3154.494269174477
 31
0.0
  0
LINE
  5
18D4A
330
18C7A
100
AcDbEntity
  8
部品1
100
AcDbLine
 10
1731.970589276519
 20
3182.494269174477
 30
0.0
 11
1731.970589276523
 21
3154.494269174477
 31
0.0
  0
LINE
  5
18D4B
330
18C7A
100
AcDbEntity
  8
部品1
100
AcDbLine
 10
1311.970589276519
 20
3182.494269174477
 30
0.0
 11
1311.970589276523
 21
3154.494269174477
 31
0.0
  0
LINE
  5
18D4C
330
18C7A
100
AcDbEntity
  8
部品1
100
AcDbLine
 10
891.9705892765195
 20
3182.494269174477
 30
0.0
 11
891.9705892765232
 21
3154.494269174477
 31
0.0
  0
LINE
  5
18D4D
330
18C7A
100
AcDbEntity
  8
部品1
100
AcDbLine
 10
471.9705892765232
 20
1392.494269174596
 30
0.0
 11
471.9705892765232
 21
1420.494269174596
 31
0.0
  0
LINE
  5
18D4E
330
18C7A
100
AcDbEntity
  8
部品1
100
AcDbLine
 10
444.9705892765305
 20
1420.494269174558
 30
0.0
 11
3858.970589276556
 21
1420.494269174596
 31
0.0
  0
LINE
  5
18D4F
330
18C7A
100
AcDbEntity
  8
部品1
100
AcDbLine
 10
3831.970589276556
 20
1392.494269174596
 30
0.0
 11
3831.970589276556
 21
1420.494269174596
 31
0.0
  0
LINE
  5
18D50
330
18C7A
100
AcDbEntity
  8
部品1
100
AcDbLine
 10
3858.970589276556
 20
1447.494269174593
 30
0.0
 11
3886.970589276556
 21
1447.494269174593
 31
0.0
  0
LINE
  5
18D51
330
18C7A
100
AcDbEntity
  8
部品1
100
AcDbLine
 10
3858.970589276556
 20
1867.494269174607
 30
0.0
 11
3886.970589276556
 21
1867.494269174607
 31
0.0
  0
LINE
  5
18D52
330
18C7A
100
AcDbEntity
  8
部品1
100
AcDbLine
 10
444.9705892765305
 20
1867.49426917448
 30
0.0
 11
416.9705892765305
 21
1867.49426917448
 31
0.0
  0
LINE
  5
18D53
330
18C7A
100
AcDbEntity
  8
部品1
100
AcDbLine
 10
3830.470589276541
 20
1867.49426917458
 30
0.0
 11
473.4705892765396
 21
1867.49426917448
 31
0.0
  0
LINE
  5
18D54
330
18C7A
100
AcDbEntity
  8
部品1
100
AcDbLine
 10
3830.470589276541
 20
2287.49426917458
 30
0.0
 11
473.4705892765396
 21
2287.49426917448
 31
0.0
  0
LINE
  5
18D55
330
18C7A
100
AcDbEntity
  8
部品1
100
AcDbLine
 10
444.9705892765305
 20
2287.49426917448
 30
0.0
 11
416.9705892765305
 21
2287.49426917448
 31
0.0
  0
LINE
  5
18D56
330
18C7A
100
AcDbEntity
  8
部品1
100
AcDbLine
 10
3858.970589276556
 20
2287.494269174608
 30
0.0
 11
3886.970589276556
 21
2287.494269174608
 31
0.0
  0
LINE
  5
18D57
330
18C7A
100
AcDbEntity
  8
部品1
 48
50.0
100
AcDbLine
 10
2151.970589276551
 20
2702.494269174586
 30
0.0
 11
2151.970589276581
 21
1448.994269174494
 31
0.0
  0
LINE
  5
18D58
330
18C7A
100
AcDbEntity
  8
破線
 48
10.0
100
AcDbLine
 10
2959.470589276535
 20
1472.494269174522
 30
0.0
 11
2176.970589276532
 21
1472.494269174505
 31
0.0
  0
LINE
  5
18D59
330
18C7A
100
AcDbEntity
  8
破線
 48
10.0
100
AcDbLine
 10
3009.47058927653
 20
1448.994269174509
 30
0.0
 11
3009.47058927653
 21
2702.494269174615
 31
0.0
  0
LINE
  5
18D5A
330
18C7A
100
AcDbEntity
  8
破線
 48
10.0
100
AcDbLine
 10
2959.470589276535
 20
1448.994269174505
 30
0.0
 11
2959.470589276531
 21
2702.494269174615
 31
0.0
  0
LINE
  5
18D5B
330
18C7A
100
AcDbEntity
  8
破線
 48
10.0
100
AcDbLine
 10
1344.47058927653
 20
1448.994269174509
 30
0.0
 11
1344.47058927653
 21
2702.494269174615
 31
0.0
  0
LINE
  5
18D5C
330
18C7A
100
AcDbEntity
  8
破線
 48
10.0
100
AcDbLine
 10
1294.470589276534
 20
1448.994269174505
 30
0.0
 11
1294.47058927653
 21
2702.494269174615
 31
0.0
  0
DIMENSION
  5
18D5D
330
18C7A
100
AcDbEntity
  8
寸法
100
AcDbDimension
  2
*D13
 10
1451.234916278005
 20
2488.887829538828
 30
0.0
 11
916.0604668248634
 21
2488.887829538828
 31
0.0
 12
-3742.925985830444
 22
-6453.628869860112
 32
0.0
 70
   128
 71
     5
 42
1062.99999999993
  3
INABA_S40G
100
AcDbAlignedDimension
 13
445.4705892765559
 23
2702.494269174505
 33
0.0
 14
1508.470589276486
 24
2702.494269174558
 34
0.0
100
AcDbRotatedDimension
1001
ACAD
1000
DSTYLE
1002
{
1002
}
  0
LINE
  5
18D5E
330
18C7A
100
AcDbEntity
  8
破線
 48
10.0
100
AcDbLine
 10
1294.470589276534
 20
1472.494269174469
 30
0.0
 11
496.9705892765414
 21
1472.494269174476
 31
0.0
  0
LINE
  5
18D5F
330
18C7A
100
AcDbEntity
  8
部品1
100
AcDbLine
 10
3831.970589276556
 20
3182.494269174604
 30
0.0
 11
3831.970589276556
 21
3154.494269174604
 31
0.0
  0
LINE
  5
18D60
330
18C7A
100
AcDbEntity
  8
部品1
100
AcDbLine
 10
3831.970589276556
 20
3182.494269174626
 30
0.0
 11
3831.970589276556
 21
3154.494269174626
 31
0.0
  0
LINE
  5
18D61
330
18C7A
100
AcDbEntity
  8
部品1
100
AcDbLine
 10
3858.970589276556
 20
3127.494269174607
 30
0.0
 11
3886.970589276556
 21
3127.494269174607
 31
0.0
  0
LINE
  5
18D62
330
18C7A
100
AcDbEntity
  8
部品1
100
AcDbLine
 10
3858.970589276556
 20
2707.494269174608
 30
0.0
 11
3886.970589276556
 21
2707.494269174608
 31
0.0
  0
LINE
  5
18D63
330
18C7A
100
AcDbEntity
  8
部品1
100
AcDbLine
 10
3858.470589276556
 20
3152.494269174604
 30
0.0
 11
3858.470589276556
 21
2702.494269174608
 31
0.0
  0
LINE
  5
18D64
330
18C7A
100
AcDbEntity
  8
部品1
100
AcDbLine
 10
3886.970589276533
 20
1447.494269174593
 30
0.0
 11
3886.970589276531
 21
1392.494269174596
 31
0.0
  0
LINE
  5
18D65
330
18C7A
100
AcDbEntity
  8
部品1
 48
50.0
100
AcDbLine
 10
3830.470589276556
 20
1448.994269174596
 30
0.0
 11
3858.970589276554
 21
1420.494269174596
 31
0.0
  0
LINE
  5
18D66
330
18C7A
100
AcDbEntity
  8
部品1
100
AcDbLine
 10
3886.970589276531
 20
1392.494269174596
 30
0.0
 11
3835.970589276531
 21
1392.494269174596
 31
0.0
  0
LINE
  5
18D67
330
18C7A
100
AcDbEntity
  8
部品1
100
AcDbLine
 10
3858.970589276533
 20
1447.494269174593
 30
0.0
 11
3886.970589276531
 21
1447.494269174593
 31
0.0
  0
LINE
  5
18D68
330
18C7A
100
AcDbEntity
  8
部品1
100
AcDbLine
 10
3886.970589276556
 20
3182.494269174604
 30
0.0
 11
3886.970589276531
 21
1392.494269174596
 31
0.0
  0
DIMENSION
  5
18D69
330
18C7A
100
AcDbEntity
  8
寸法
100
AcDbDimension
  2
*D12
 10
4534.396935010967
 20
1447.494269174593
 30
0.0
 11
4534.396935010965
 21
2287.4942691746
 31
0.0
 12
-3742.925985830444
 22
-6453.628869860112
 32
0.0
 70
   128
  1
4X420=<>
 71
     5
 42
1680.000000000014
  3
INABA_S40G
100
AcDbAlignedDimension
 13
3886.970589276556
 23
3127.494269174607
 33
0.0
 14
3886.970589276531
 24
1447.494269174593
 34
0.0
 50
90.0
100
AcDbRotatedDimension
1001
ACAD
1000
DSTYLE
1002
{
1002
}
  0
LINE
  5
18D6A
330
18C7A
100
AcDbEntity
  8
部品1
100
AcDbLine
 10
3858.970589276556
 20
3154.494269174604
 30
0.0
 11
3858.970589276534
 21
1420.494269174596
 31
0.0
  0
DIMENSION
  5
18D6B
330
18C7A
100
AcDbEntity
  8
寸法
100
AcDbDimension
  2
*D11
 10
4213.82831513858
 20
2607.276453505718
 30
0.0
 11
4113.828315138579
 21
2832.276453505718
 31
0.0
 12
-3742.925985830444
 22
-6453.628869860112
 32
0.0
 71
     5
 42
449.9999999999963
  3
INABA_S40G
100
AcDbAlignedDimension
 13
3858.470589276556
 23
3152.494269174604
 33
0.0
 14
3858.470589276556
 24
2702.494269174608
 34
0.0
 50
90.0
100
AcDbRotatedDimension
1001
ACAD
1000
DSTYLE
1002
{
1002
}
  0
LINE
  5
18D6C
330
18C7A
100
AcDbEntity
  8
部品1
100
AcDbLine
 10
3830.470589276547
 20
2702.494269174608
 30
0.0
 11
3830.470589276556
 21
1448.994269174596
 31
0.0
  0
LINE
  5
18D6D
330
18C7A
100
AcDbEntity
  8
破線
 48
10.0
100
AcDbLine
 10
3806.970589276549
 20
2702.494269174608
 30
0.0
 11
3806.970589276558
 21
1472.494269174593
 31
0.0
  0
LINE
  5
18D6E
330
18C7A
100
AcDbEntity
  8
部品1
100
AcDbLine
 10
2769.470589276556
 20
3146.494269174608
 30
0.0
 11
2794.470589276556
 21
3146.494269174611
 31
0.0
  0
LINE
  5
18D6F
330
18C7A
100
AcDbEntity
  8
部品1
100
AcDbLine
 10
2810.970589276556
 20
3172.494269174611
 30
0.0
 11
2816.970589276556
 21
3172.494269174611
 31
0.0
  0
LINE
  5
18D70
330
18C7A
100
AcDbEntity
  8
部品1
100
AcDbLine
 10
2816.970589276556
 20
3172.494269174611
 30
0.0
 11
2816.970589276556
 21
3154.494269174611
 31
0.0
  0
LINE
  5
18D71
330
18C7A
100
AcDbEntity
  8
部品1
100
AcDbLine
 10
2746.970589276556
 20
3172.494269174611
 30
0.0
 11
2752.970589276556
 21
3172.494269174611
 31
0.0
  0
LINE
  5
18D72
330
18C7A
100
AcDbEntity
  8
部品1
100
AcDbLine
 10
2746.970589276556
 20
3172.494269174611
 30
0.0
 11
2746.970589276556
 21
3154.494269174611
 31
0.0
  0
LINE
  5
18D73
330
18C7A
100
AcDbEntity
  8
部品1
100
AcDbLine
 10
2769.470589276556
 20
2702.494269174615
 30
0.0
 11
2794.470589276556
 21
2702.494269174615
 31
0.0
  0
LINE
  5
18D74
330
18C7A
100
AcDbEntity
  8
部品1
 48
50.0
100
AcDbLine
 10
2794.470589276556
 20
3154.494269174615
 30
0.0
 11
2794.470589276556
 21
2702.494269174615
 31
0.0
  0
LINE
  5
18D75
330
18C7A
100
AcDbEntity
  8
部品1
 48
50.0
100
AcDbLine
 10
2769.470589276554
 20
3154.494269174618
 30
0.0
 11
2769.470589276556
 21
2702.494269174615
 31
0.0
  0
LINE
  5
18D76
330
18C7A
100
AcDbEntity
  8
部品1
 48
50.0
100
AcDbLine
 10
2795.470589276556
 20
3152.494269174607
 30
0.0
 11
2795.470589276556
 21
2702.494269174615
 31
0.0
  0
LINE
  5
18D77
330
18C7A
100
AcDbEntity
  8
部品1
 48
50.0
100
AcDbLine
 10
2767.470589276556
 20
3152.494269174611
 30
0.0
 11
2767.470589276556
 21
2702.494269174615
 31
0.0
  0
LINE
  5
18D78
330
18C7A
100
AcDbEntity
  8
破線
 48
10.0
100
AcDbLine
 10
2176.97058927653
 20
1448.994269174509
 30
0.0
 11
2176.97058927653
 21
2702.494269174588
 31
0.0
  0
LINE
  5
18D79
330
18C7A
100
AcDbEntity
  8
破線
 48
10.0
100
AcDbLine
 10
2126.970589276534
 20
1448.994269174505
 30
0.0
 11
2126.970589276531
 21
2702.494269174586
 31
0.0
  0
LINE
  5
18D7A
330
18C7A
100
AcDbEntity
  8
部品1
100
AcDbLine
 10
2794.470589276556
 20
3154.494269174622
 30
0.0
 11
3858.970589276556
 21
3154.494269174604
 31
0.0
  0
LINE
  5
18D7B
330
18C7A
100
AcDbEntity
  8
細線
 48
50.0
100
AcDbLine
 10
3858.470589276556
 20
2702.494269174608
 30
0.0
 11
2795.470589276556
 21
3152.494269174607
 31
0.0
  0
LINE
  5
18D7C
330
18C7A
100
AcDbEntity
  8
部品1
100
AcDbLine
 10
2795.470589276555
 20
2702.494269174615
 30
0.0
 11
3858.470589276556
 21
2702.494269174608
 31
0.0
  0
LINE
  5
18D7D
330
18C7A
100
AcDbEntity
  8
部品1
100
AcDbLine
 10
2795.470589276556
 20
3152.494269174611
 30
0.0
 11
3858.470589276556
 21
3152.494269174604
 31
0.0
  0
LINE
  5
18D7E
330
18C7A
100
AcDbEntity
  8
細線
 48
50.0
100
AcDbLine
 10
3858.470589276556
 20
3152.494269174604
 30
0.0
 11
2795.470589276555
 21
2702.494269174615
 31
0.0
  0
DIMENSION
  5
18D7F
330
18C7A
100
AcDbEntity
  8
寸法
100
AcDbDimension
  2
*D10
 10
3801.234916278101
 20
2488.887829538937
 30
0.0
 11
3318.360544398907
 21
2488.887829538937
 31
0.0
 12
-3742.925985830444
 22
-6453.628869860112
 32
0.0
 70
   128
 71
     5
 42
1063.000000000012
  3
INABA_S40G
100
AcDbAlignedDimension
 13
2795.470589276555
 23
2702.494269174615
 33
0.0
 14
3858.470589276567
 24
2702.494269174608
 34
0.0
100
AcDbRotatedDimension
1001
ACAD
1000
DSTYLE
1002
{
1002
}
  0
LINE
  5
18D80
330
18C7A
100
AcDbEntity
  8
破線
 48
10.0
100
AcDbLine
 10
3806.970589276556
 20
1472.494269174594
 30
0.0
 11
3009.47058927653
 21
1472.494269174523
 31
0.0
  0
DIMENSION
  5
18D81
330
18C7A
100
AcDbEntity
  8
寸法
100
AcDbDimension
  2
*D9
 10
4534.396935010941
 20
1392.494269174596
 30
0.0
 11
4534.39693501094
 21
1084.008987800356
 31
0.0
 12
-3742.925985830444
 22
-6453.628869860112
 32
0.0
 70
   128
 71
     5
 42
54.99999999999636
  3
INABA_S40G
100
AcDbAlignedDimension
 13
3886.970589276531
 23
1447.494269174593
 33
0.0
 14
3886.970589276531
 24
1392.494269174596
 34
0.0
 50
90.0
100
AcDbRotatedDimension
1001
ACAD
1000
DSTYLE
1002
{
1002
}
  0
LINE
  5
18D82
330
18C7A
100
AcDbEntity
  8
部品1
100
AcDbLine
 10
471.9705892765196
 20
3182.494269174477
 30
0.0
 11
471.9705892765232
 21
3154.494269174477
 31
0.0
  0
LINE
  5
18D83
330
18C7A
100
AcDbEntity
  8
部品1
100
AcDbLine
 10
471.9705892765559
 20
3182.494269174509
 30
0.0
 11
471.9705892765559
 21
3154.494269174509
 31
0.0
  0
LINE
  5
18D84
330
18C7A
100
AcDbEntity
  8
部品1
100
AcDbLine
 10
444.9705892765232
 20
3127.49426917448
 30
0.0
 11
416.9705892765232
 21
3127.49426917448
 31
0.0
  0
LINE
  5
18D85
330
18C7A
100
AcDbEntity
  8
部品1
100
AcDbLine
 10
444.9705892765305
 20
2707.49426917448
 30
0.0
 11
416.9705892765305
 21
2707.49426917448
 31
0.0
  0
LINE
  5
18D86
330
18C7A
100
AcDbEntity
  8
部品1
 48
50.0
100
AcDbLine
 10
445.4705892765542
 20
3152.494269174506
 30
0.0
 11
445.4705892765559
 21
2702.494269174505
 31
0.0
  0
LINE
  5
18D87
330
18C7A
100
AcDbEntity
  8
部品1
 48
50.0
100
AcDbLine
 10
473.470589276545
 20
1448.994269174573
 30
0.0
 11
444.970589276545
 21
1420.494269174574
 31
0.0
  0
LINE
  5
18D88
330
18C7A
100
AcDbEntity
  8
部品1
100
AcDbLine
 10
471.9705892765232
 20
1392.494269174465
 30
0.0
 11
416.9705892765486
 21
1392.494269174465
 31
0.0
  0
LINE
  5
18D89
330
18C7A
100
AcDbEntity
  8
部品1
100
AcDbLine
 10
444.9705892765305
 20
1447.494269174429
 30
0.0
 11
416.9705892765469
 21
1447.494269174429
 31
0.0
  0
LINE
  5
18D8A
330
18C7A
100
AcDbEntity
  8
部品1
100
AcDbLine
 10
444.9705892765305
 20
1447.494269174465
 30
0.0
 11
416.9705892765469
 21
1447.494269174465
 31
0.0
  0
LINE
  5
18D8B
330
18C7A
100
AcDbEntity
  8
部品1
100
AcDbLine
 10
444.9705892765469
 20
1447.49426917448
 30
0.0
 11
416.9705892765469
 21
1447.49426917448
 31
0.0
  0
LINE
  5
18D8C
330
18C7A
100
AcDbEntity
  8
部品1
100
AcDbLine
 10
416.9705892765469
 20
1447.494269174429
 30
0.0
 11
416.9705892765486
 21
1392.494269174433
 31
0.0
  0
LINE
  5
18D8D
330
18C7A
100
AcDbEntity
  8
部品1
100
AcDbLine
 10
416.9705892765196
 20
3182.494269174477
 30
0.0
 11
416.9705892765486
 21
1392.494269174465
 31
0.0
  0
LINE
  5
18D8E
330
18C7A
100
AcDbEntity
  8
部品1
100
AcDbLine
 10
444.9705892765305
 20
1420.494269174556
 30
0.0
 11
444.9705892765559
 21
3154.494269174509
 31
0.0
  0
LINE
  5
18D8F
330
18C7A
100
AcDbEntity
  8
部品1
100
AcDbLine
 10
473.4705892765323
 20
2702.494269174608
 30
0.0
 11
473.470589276545
 21
1448.994269174571
 31
0.0
  0
LINE
  5
18D90
330
18C7A
100
AcDbEntity
  8
破線
 48
10.0
100
AcDbLine
 10
496.9705892765305
 20
2702.494269174608
 30
0.0
 11
496.9705892765451
 21
1472.494269174476
 31
0.0
  0
DIMENSION
  5
18D91
330
18C7A
100
AcDbEntity
  8
寸法
100
AcDbDimension
  2
*D8
 10
3886.970589276531
 20
410.7433333855515
 30
0.0
 11
2168.197775309287
 21
410.7433333855515
 31
0.0
 12
-3742.925985830444
 22
-6453.628869860112
 32
0.0
 70
   128
 71
     5
 42
3469.999999999982
  3
INABA_S40G
100
AcDbAlignedDimension
 13
416.9705892765486
 23
1392.494269174433
 33
0.0
 14
3886.970589276531
 24
1392.49426917456
 34
0.0
100
AcDbRotatedDimension
1001
ACAD
1000
DSTYLE
1002
{
1070
   341
1005
0
1002
}
  0
LINE
  5
18D92
330
18C7A
100
AcDbEntity
  8
部品1
100
AcDbLine
 10
444.9705892765559
 20
3154.494269174624
 30
0.0
 11
1509.470589276487
 21
3154.494269174626
 31
0.0
  0
LINE
  5
18D93
330
18C7A
100
AcDbEntity
  8
部品1
100
AcDbLine
 10
3886.970589276531
 20
1392.494269174596
 30
0.0
 11
3411.970589276556
 21
1392.494269174582
 31
0.0
  0
LINE
  5
18D94
330
18C7A
100
AcDbEntity
  8
部品1
100
AcDbLine
 10
416.9705892765559
 20
3182.494269174509
 30
0.0
 11
3886.970589276556
 21
3182.494269174604
 31
0.0
  0
LINE
  5
18D95
330
18C7A
100
AcDbEntity
  8
部品1
100
AcDbLine
 10
445.4705892765559
 20
2702.494269174509
 30
0.0
 11
1508.470589276487
 21
2702.494269174558
 31
0.0
  0
LINE
  5
18D96
330
18C7A
100
AcDbEntity
  8
細線
 48
50.0
100
AcDbLine
 10
2767.470589276556
 20
3152.494269174611
 30
0.0
 11
1536.470589276487
 21
2702.494269174558
 31
0.0
  0
LINE
  5
18D97
330
18C7A
100
AcDbEntity
  8
部品1
100
AcDbLine
 10
445.4705892765542
 20
3152.494269174509
 30
0.0
 11
1508.470589276485
 21
3152.494269174558
 31
0.0
  0
LINE
  5
18D98
330
18C7A
100
AcDbEntity
  8
細線
 48
50.0
100
AcDbLine
 10
2767.470589276554
 20
2702.494269174615
 30
0.0
 11
1536.470589276485
 21
3152.494269174558
 31
0.0
  0
LINE
  5
18D99
330
18C7A
100
AcDbEntity
  8
破線
 48
10.0
100
AcDbLine
 10
2126.970589276534
 20
1472.494269174502
 30
0.0
 11
1344.47058927653
 21
1472.494269174473
 31
0.0
  0
LINE
  5
18D9A
330
18C7A
100
AcDbEntity
  8
部品1
100
AcDbLine
 10
3830.470589276556
 20
1448.994269174596
 30
0.0
 11
473.4705892764487
 21
1448.994269174476
 31
0.0
  0
DIMENSION
  5
18D9B
330
18C7A
100
AcDbEntity
  8
寸法
100
AcDbDimension
  2
*D7
 10
471.970589276555
 20
3698.302488799491
 30
0.0
 11
108.4853079022819
 21
3698.302488799491
 31
0.0
 12
-3742.925985830444
 22
-6453.628869860112
 32
0.0
 70
   128
 71
     5
 42
55.00000000003456
  3
INABA_S40G
100
AcDbAlignedDimension
 13
416.9705892765205
 23
3182.494269174509
 33
0.0
 14
471.970589276555
 24
3182.494269174509
 34
0.0
100
AcDbRotatedDimension
1001
ACAD
1000
DSTYLE
1002
{
1002
}
  0
DIMENSION
  5
18D9C
330
18C7A
100
AcDbEntity
  8
寸法
100
AcDbDimension
  2
*D6
 10
4534.396935010967
 20
3127.494269174607
 30
0.0
 11
4534.396935010965
 21
3490.979550548844
 31
0.0
 12
-3742.925985830444
 22
-6453.628869860112
 32
0.0
 70
   128
 71
     5
 42
54.99999999999636
  3
INABA_S40G
100
AcDbAlignedDimension
 13
3886.970589276556
 23
3182.494269174604
 33
0.0
 14
3886.970589276556
 24
3127.494269174607
 34
0.0
 50
90.0
100
AcDbRotatedDimension
1001
ACAD
1000
DSTYLE
1002
{
1002
}
  0
DIMENSION
  5
18D9D
330
18C7A
100
AcDbEntity
  8
寸法
100
AcDbDimension
  2
*D5
 10
3886.970589276556
 20
3698.302488799589
 30
0.0
 11
4195.455870650794
 21
3698.302488799589
 31
0.0
 12
-3742.925985830444
 22
-6453.628869860112
 32
0.0
 70
   128
 71
     5
 42
55.0
  3
INABA_S40G
100
AcDbAlignedDimension
 13
3831.970589276556
 23
3182.494269174604
 33
0.0
 14
3886.970589276556
 24
3182.494269174604
 34
0.0
100
AcDbRotatedDimension
1001
ACAD
1000
DSTYLE
1002
{
1002
}
  0
DIMENSION
  5
18D9E
330
18C7A
100
AcDbEntity
  8
寸法
100
AcDbDimension
  2
*D4
 10
3831.970589276556
 20
3698.302488799607
 30
0.0
 11
2151.970589276555
 21
3698.302488799607
 31
0.0
 12
-3742.925985830444
 22
-6453.628869860112
 32
0.0
 70
   128
  1
8X420=<>
 71
     5
 42
3360.000000000001
  3
INABA_S40G
100
AcDbAlignedDimension
 13
471.970589276555
 23
3182.494269174509
 33
0.0
 14
3831.970589276556
 24
3182.494269174604
 34
0.0
100
AcDbRotatedDimension
1001
ACAD
1000
DSTYLE
1002
{
1002
}
  0
DIMENSION
  5
18D9F
330
18C7A
100
AcDbEntity
  8
寸法
100
AcDbDimension
  2
*D3
 10
4899.503876750603
 20
1392.494269174596
 30
0.0
 11
4899.503876750601
 21
2287.4942691746
 31
0.0
 12
-3742.925985830444
 22
-6453.628869860112
 32
0.0
 70
   128
 71
     5
 42
1790.000000000007
  3
INABA_S40G
100
AcDbAlignedDimension
 13
3886.970589276556
 23
3182.494269174604
 33
0.0
 14
3886.970589276531
 24
1392.494269174596
 34
0.0
 50
90.0
100
AcDbRotatedDimension
1001
ACAD
1000
DSTYLE
1002
{
1002
}
  0
ENDBLK
  5
18DA1
330
18C7A
100
AcDbEntity
  8
0
 48
50.0
100
AcDbBlockEnd
  0
BLOCK
  5
1C4CB
330
1C4CA
100
AcDbEntity
  8
0
 48
50.0
100
AcDbBlockBegin
  2
_NONE
 70
     0
 10
0.0
 20
0.0
 30
0.0
  3
_NONE
  1

  0
CIRCLE
  5
1C4CC
330
1C4CA
100
AcDbEntity
  8
0
  6
ByBlock
 62
     0
 48
50.0
100
AcDbCircle
 10
0.0
 20
0.0
 30
0.0
 40
0.25
  0
ENDBLK
  5
1C4CD
330
1C4CA
100
AcDbEntity
  8
0
 48
50.0
100
AcDbBlockEnd
  0
BLOCK
  5
20DEE
330
20DE2
100
AcDbEntity
  8
0
 48
50.0
100
AcDbBlockBegin
  2
*D19
 70
     1
 10
0.0
 20
0.0
 30
0.0
  3
*D19
  1

  0
LINE
  5
26542
330
20DE2
100
AcDbEntity
  8
寸法
 62
     0
 48
50.0
370
    -2
100
AcDbLine
 10
11508.6
 20
7646.293210650617
 30
0.0
 11
11508.6
 21
8644.51353270954
 31
0.0
  0
LINE
  5
26543
330
20DE2
100
AcDbEntity
  8
寸法
 62
     0
 48
50.0
370
    -2
100
AcDbLine
 10
11553.6
 20
8372.559668744528
 30
0.0
 11
11553.6
 21
8644.51353270954
 31
0.0
  0
LINE
  5
26544
330
20DE2
100
AcDbEntity
  8
寸法
 62
     0
 48
50.0
370
    -2
100
AcDbLine
 10
11508.6
 20
8584.513532709539
 30
0.0
 11
11408.6
 21
8584.513532709539
 31
0.0
  0
LINE
  5
26545
330
20DE2
100
AcDbEntity
  8
寸法
 62
     0
 48
50.0
370
    -2
100
AcDbLine
 10
11553.6
 20
8584.513532709539
 30
0.0
 11
11890.94924240492
 21
8584.513532709539
 31
0.0
  0
LINE
  5
26546
330
20DE2
100
AcDbEntity
  8
寸法
 62
     0
 48
50.0
370
    -2
100
AcDbLine
 10
11508.6
 20
8584.513532709539
 30
0.0
 11
11553.6
 21
8584.513532709539
 31
0.0
  0
INSERT
  5
26547
330
20DE2
100
AcDbEntity
  8
寸法
 62
     0
 48
50.0
370
    -2
100
AcDbBlockReference
  2
_DOTSMALL
 10
11508.6
 20
8584.513532709539
 30
0.0
 41
100.0
 42
100.0
 43
100.0
  0
INSERT
  5
26548
330
20DE2
100
AcDbEntity
  8
寸法
 62
     0
 48
50.0
370
    -2
100
AcDbBlockReference
  2
_DOTSMALL
 10
11553.6
 20
8584.513532709539
 30
0.0
 41
100.0
 42
100.0
 43
100.0
 50
180.0
  0
MTEXT
  5
26549
330
20DE2
100
AcDbEntity
  8
寸法
 62
     7
 48
50.0
100
AcDbMText
 10
11824.77462120246
 20
8684.513532709539
 30
0.0
 40
120.0
 41
0.0
 71
     5
 72
     1
  1
\A1;a
  7
STYLE1
 73
     1
 44
1.0
1001
ACAD
1000
MTEXTBEGIN
1070
    73
1070
     1
1070
    44
1040
1.0
1070
    74
1070
     0
1000
MTEXTEND
  0
POINT
  5
2654A
330
20DE2
100
AcDbEntity
  8
DEFPOINTS
 62
     0
 48
50.0
100
AcDbPoint
 10
11508.6
 20
7626.293210650619
 30
0.0
  0
POINT
  5
2654B
330
20DE2
100
AcDbEntity
  8
DEFPOINTS
 62
     0
 48
50.0
100
AcDbPoint
 10
11553.6
 20
8352.559668744529
 30
0.0
  0
POINT
  5
2654C
330
20DE2
100
AcDbEntity
  8
DEFPOINTS
 62
     0
 48
50.0
100
AcDbPoint
 10
11553.6
 20
8584.513532709539
 30
0.0
  0
ENDBLK
  5
20DEF
330
20DE2
100
AcDbEntity
  8
0
 48
50.0
100
AcDbBlockEnd
  0
BLOCK
  5
20E08
330
20DFC
100
AcDbEntity
  8
0
 48
50.0
100
AcDbBlockBegin
  2
*D20
 70
     1
 10
0.0
 20
0.0
 30
0.0
  3
*D20
  1

  0
LINE
  5
26537
330
20DFC
100
AcDbEntity
  8
寸法
 62
     0
 48
50.0
370
    -2
100
AcDbLine
 10
4893.600000000006
 20
8372.559668744544
 30
0.0
 11
4893.600000000006
 21
8644.513532709554
 31
0.0
  0
LINE
  5
26538
330
20DFC
100
AcDbEntity
  8
寸法
 62
     0
 48
50.0
370
    -2
100
AcDbLine
 10
4938.600000000002
 20
7646.293210650632
 30
0.0
 11
4938.600000000002
 21
8644.513532709554
 31
0.0
  0
LINE
  5
26539
330
20DFC
100
AcDbEntity
  8
寸法
 62
     0
 48
50.0
370
    -2
100
AcDbLine
 10
4938.600000000002
 20
8584.513532709555
 30
0.0
 11
5038.600000000002
 21
8584.513532709555
 31
0.0
  0
LINE
  5
2653A
330
20DFC
100
AcDbEntity
  8
寸法
 62
     0
 48
50.0
370
    -2
100
AcDbLine
 10
4893.600000000006
 20
8584.513532709555
 30
0.0
 11
4556.250757595085
 21
8584.513532709555
 31
0.0
  0
LINE
  5
2653B
330
20DFC
100
AcDbEntity
  8
寸法
 62
     0
 48
50.0
370
    -2
100
AcDbLine
 10
4938.600000000002
 20
8584.513532709555
 30
0.0
 11
4893.600000000006
 21
8584.513532709555
 31
0.0
  0
INSERT
  5
2653C
330
20DFC
100
AcDbEntity
  8
寸法
 62
     0
 48
50.0
370
    -2
100
AcDbBlockReference
  2
_DOTSMALL
 10
4938.600000000002
 20
8584.513532709555
 30
0.0
 41
100.0
 42
100.0
 43
100.0
 50
180.0
  0
INSERT
  5
2653D
330
20DFC
100
AcDbEntity
  8
寸法
 62
     0
 48
50.0
370
    -2
100
AcDbBlockReference
  2
_DOTSMALL
 10
4893.600000000006
 20
8584.513532709555
 30
0.0
 41
100.0
 42
100.0
 43
100.0
  0
MTEXT
  5
2653E
330
20DFC
100
AcDbEntity
  8
寸法
 62
     7
 48
50.0
100
AcDbMText
 10
4622.425378797543
 20
8684.513532709555
 30
0.0
 40
120.0
 41
0.0
 71
     5
 72
     1
  1
\A1;a
  7
STYLE1
 73
     1
 44
1.0
1001
ACAD
1000
MTEXTBEGIN
1070
    73
1070
     1
1070
    44
1040
1.0
1070
    74
1070
     0
1000
MTEXTEND
  0
POINT
  5
2653F
330
20DFC
100
AcDbEntity
  8
DEFPOINTS
 62
     0
 48
50.0
100
AcDbPoint
 10
4893.600000000006
 20
8352.559668744545
 30
0.0
  0
POINT
  5
26540
330
20DFC
100
AcDbEntity
  8
DEFPOINTS
 62
     0
 48
50.0
100
AcDbPoint
 10
4938.600000000002
 20
7626.293210650633
 30
0.0
  0
POINT
  5
26541
330
20DFC
100
AcDbEntity
  8
DEFPOINTS
 62
     0
 48
50.0
100
AcDbPoint
 10
4938.600000000002
 20
8584.513532709555
 30
0.0
  0
ENDBLK
  5
20E09
330
20DFC
100
AcDbEntity
  8
0
 48
50.0
100
AcDbBlockEnd
  0
BLOCK
  5
2274E
330
22742
100
AcDbEntity
  8
0
 48
50.0
100
AcDbBlockBegin
  2
*D25
 70
     1
 10
0.0
 20
0.0
 30
0.0
  3
*D25
  1

  0
LINE
  5
2652C
330
22742
100
AcDbEntity
  8
寸法
 62
     0
 48
50.0
370
    -2
100
AcDbLine
 10
4295.665006330073
 20
7701.293210650651
 30
0.0
 11
4003.721909610677
 21
7701.293210650651
 31
0.0
  0
LINE
  5
2652D
330
22742
100
AcDbEntity
  8
寸法
 62
     0
 48
50.0
370
    -2
100
AcDbLine
 10
4918.600000000002
 20
7626.293210650633
 30
0.0
 11
4003.721909610677
 21
7626.293210650633
 31
0.0
  0
LINE
  5
2652E
330
22742
100
AcDbEntity
  8
寸法
 62
     0
 48
50.0
370
    -2
100
AcDbLine
 10
4063.721909610676
 20
7701.293210650651
 30
0.0
 11
4063.721909610676
 21
7801.293210650651
 31
0.0
  0
LINE
  5
2652F
330
22742
100
AcDbEntity
  8
寸法
 62
     0
 48
50.0
370
    -2
100
AcDbLine
 10
4063.721909610676
 20
7626.293210650633
 30
0.0
 11
4063.721909610676
 21
7526.293210650632
 31
0.0
  0
LINE
  5
26530
330
22742
100
AcDbEntity
  8
寸法
 62
     0
 48
50.0
370
    -2
100
AcDbLine
 10
4063.721909610676
 20
7701.293210650651
 30
0.0
 11
4063.721909610676
 21
7626.293210650633
 31
0.0
  0
INSERT
  5
26531
330
22742
100
AcDbEntity
  8
寸法
 62
     0
 48
50.0
370
    -2
100
AcDbBlockReference
  2
_DOTSMALL
 10
4063.721909610676
 20
7701.293210650651
 30
0.0
 41
100.0
 42
100.0
 43
100.0
 50
270.0
  0
INSERT
  5
26532
330
22742
100
AcDbEntity
  8
寸法
 62
     0
 48
50.0
370
    -2
100
AcDbBlockReference
  2
_DOTSMALL
 10
4063.721909610676
 20
7626.293210650633
 30
0.0
 41
100.0
 42
100.0
 43
100.0
 50
90.0
  0
MTEXT
  5
26533
330
22742
100
AcDbEntity
  8
寸法
 62
     7
 48
50.0
100
AcDbMText
 10
3963.721909610676
 20
7663.793210650644
 30
0.0
 40
120.0
 41
0.0
 71
     5
 72
     1
  1
\A1;c
  7
STYLE1
 11
0.0000000000000001
 21
1.0
 31
0.0
 73
     1
 44
1.0
1001
ACAD
1000
MTEXTBEGIN
1070
    73
1070
     1
1070
    44
1040
1.0
1070
    74
1070
     0
1000
MTEXTEND
  0
POINT
  5
26534
330
22742
100
AcDbEntity
  8
DEFPOINTS
 62
     0
 48
50.0
100
AcDbPoint
 10
4315.665006330073
 20
7701.293210650651
 30
0.0
  0
POINT
  5
26535
330
22742
100
AcDbEntity
  8
DEFPOINTS
 62
     0
 48
50.0
100
AcDbPoint
 10
4938.600000000002
 20
7626.293210650633
 30
0.0
  0
POINT
  5
26536
330
22742
100
AcDbEntity
  8
DEFPOINTS
 62
     0
 48
50.0
100
AcDbPoint
 10
4063.721909610676
 20
7626.293210650633
 30
0.0
  0
ENDBLK
  5
2274F
330
22742
100
AcDbEntity
  8
0
 48
50.0
100
AcDbBlockEnd
  0
BLOCK
  5
22768
330
2275C
100
AcDbEntity
  8
0
 48
50.0
100
AcDbBlockBegin
  2
*D26
 70
     1
 10
0.0
 20
0.0
 30
0.0
  3
*D26
  1

  0
LINE
  5
26521
330
2275C
100
AcDbEntity
  8
寸法
 62
     0
 48
50.0
370
    -2
100
AcDbLine
 10
4918.600000000002
 20
6246.293210650618
 30
0.0
 11
4003.721909610677
 21
6246.293210650618
 31
0.0
  0
LINE
  5
26522
330
2275C
100
AcDbEntity
  8
寸法
 62
     0
 48
50.0
370
    -2
100
AcDbLine
 10
4295.665006330074
 20
6191.293210650659
 30
0.0
 11
4003.721909610677
 21
6191.293210650659
 31
0.0
  0
LINE
  5
26523
330
2275C
100
AcDbEntity
  8
寸法
 62
     0
 48
50.0
370
    -2
100
AcDbLine
 10
4063.721909610676
 20
6246.293210650618
 30
0.0
 11
4063.721909610676
 21
6346.293210650618
 31
0.0
  0
LINE
  5
26524
330
2275C
100
AcDbEntity
  8
寸法
 62
     0
 48
50.0
370
    -2
100
AcDbLine
 10
4063.721909610676
 20
6191.293210650659
 30
0.0
 11
4063.721909610676
 21
6091.293210650658
 31
0.0
  0
LINE
  5
26525
330
2275C
100
AcDbEntity
  8
寸法
 62
     0
 48
50.0
370
    -2
100
AcDbLine
 10
4063.721909610676
 20
6246.293210650618
 30
0.0
 11
4063.721909610676
 21
6191.293210650659
 31
0.0
  0
INSERT
  5
26526
330
2275C
100
AcDbEntity
  8
寸法
 62
     0
 48
50.0
370
    -2
100
AcDbBlockReference
  2
_DOTSMALL
 10
4063.721909610676
 20
6246.293210650618
 30
0.0
 41
100.0
 42
100.0
 43
100.0
 50
270.0
  0
INSERT
  5
26527
330
2275C
100
AcDbEntity
  8
寸法
 62
     0
 48
50.0
370
    -2
100
AcDbBlockReference
  2
_DOTSMALL
 10
4063.721909610676
 20
6191.293210650659
 30
0.0
 41
100.0
 42
100.0
 43
100.0
 50
90.0
  0
MTEXT
  5
26528
330
2275C
100
AcDbEntity
  8
寸法
 62
     7
 48
50.0
100
AcDbMText
 10
3963.721909610676
 20
6218.793210650639
 30
0.0
 40
120.0
 41
0.0
 71
     5
 72
     1
  1
\A1;b
  7
STYLE1
 11
0.0000000000000001
 21
1.0
 31
0.0
 73
     1
 44
1.0
1001
ACAD
1000
MTEXTBEGIN
1070
    73
1070
     1
1070
    44
1040
1.0
1070
    74
1070
     0
1000
MTEXTEND
  0
POINT
  5
26529
330
2275C
100
AcDbEntity
  8
DEFPOINTS
 62
     0
 48
50.0
100
AcDbPoint
 10
4938.600000000002
 20
6246.293210650618
 30
0.0
  0
POINT
  5
2652A
330
2275C
100
AcDbEntity
  8
DEFPOINTS
 62
     0
 48
50.0
100
AcDbPoint
 10
4315.665006330075
 20
6191.293210650659
 30
0.0
  0
POINT
  5
2652B
330
2275C
100
AcDbEntity
  8
DEFPOINTS
 62
     0
 48
50.0
100
AcDbPoint
 10
4063.721909610676
 20
6191.293210650659
 30
0.0
  0
ENDBLK
  5
22769
330
2275C
100
AcDbEntity
  8
0
 48
50.0
100
AcDbBlockEnd
  0
BLOCK
  5
22B08
330
22AFD
100
AcDbEntity
  8
0
 48
50.0
100
AcDbBlockBegin
  2
*D27
 70
     1
 10
0.0
 20
0.0
 30
0.0
  3
*D27
  1

  0
LINE
  5
26696
330
22AFD
100
AcDbEntity
  8
寸法
 62
     0
 48
50.0
370
    -2
100
AcDbLine
 10
11508.6
 20
7325.449001962097
 30
0.0
 11
11508.6
 21
7268.455737923265
 31
0.0
  0
LINE
  5
26697
330
22AFD
100
AcDbEntity
  8
寸法
 62
     0
 48
50.0
370
    -2
100
AcDbLine
 10
11388.59999999999
 20
7348.455737923266
 30
0.0
 11
11388.59999999999
 21
7388.455737923265
 31
0.0
  0
LINE
  5
26698
330
22AFD
100
AcDbEntity
  8
寸法
 62
     0
 48
50.0
370
    -2
100
AcDbLine
 10
11388.59999999999
 20
7328.455737923265
 30
0.0
 11
11508.6
 21
7328.455737923265
 31
0.0
  0
LINE
  5
26699
330
22AFD
100
AcDbEntity
  8
寸法
 62
     0
 48
50.0
370
    -2
100
AcDbLine
 10
11508.6
 20
7328.455737923265
 30
0.0
 11
11914.7062992126
 21
7328.455737923265
 31
0.0
  0
INSERT
  5
2669A
330
22AFD
100
AcDbEntity
  8
寸法
 62
     0
 48
50.0
370
    -2
100
AcDbBlockReference
  2
_DOTSMALL
 10
11388.59999999999
 20
7328.455737923265
 30
0.0
 41
100.0
 42
100.0
 43
100.0
 50
180.0
  0
INSERT
  5
2669B
330
22AFD
100
AcDbEntity
  8
寸法
 62
     0
 48
50.0
370
    -2
100
AcDbBlockReference
  2
_DOTSMALL
 10
11508.6
 20
7328.455737923265
 30
0.0
 41
100.0
 42
100.0
 43
100.0
  0
MTEXT
  5
2669C
330
22AFD
100
AcDbEntity
  8
寸法
 62
     7
 48
50.0
100
AcDbMText
 10
11778.65905511811
 20
7428.467548946887
 30
0.0
 40
120.0
 41
0.0
 71
     5
 72
     1
  1
\A1;120
  7
STYLE1
 73
     1
 44
1.0
1001
ACAD
1000
MTEXTBEGIN
1070
    73
1070
     1
1070
    44
1040
1.0
1070
    74
1070
     0
1000
MTEXTEND
  0
POINT
  5
2669D
330
22AFD
100
AcDbEntity
  8
DEFPOINTS
 62
     0
 48
50.0
100
AcDbPoint
 10
11508.6
 20
7345.449001962098
 30
0.0
  0
POINT
  5
2669E
330
22AFD
100
AcDbEntity
  8
DEFPOINTS
 62
     0
 48
50.0
100
AcDbPoint
 10
11388.59999999999
 20
7328.455737923265
 30
0.0
  0
POINT
  5
2669F
330
22AFD
100
AcDbEntity
  8
DEFPOINTS
 62
     0
 48
50.0
100
AcDbPoint
 10
11388.59999999999
 20
7328.455737923265
 30
0.0
  0
ENDBLK
  5
22B09
330
22AFD
100
AcDbEntity
  8
0
 48
50.0
100
AcDbBlockEnd
  0
BLOCK
  5
22B15
330
22B0A
100
AcDbEntity
  8
0
 48
50.0
100
AcDbBlockBegin
  2
*D28
 70
     1
 10
0.0
 20
0.0
 30
0.0
  3
*D28
  1

  0
LINE
  5
265FF
330
22B0A
100
AcDbEntity
  8
寸法
 62
     0
 48
50.0
370
    -2
100
AcDbLine
 10
10994.53475000041
 20
6526.293210650644
 30
0.0
 11
10875.46950000081
 21
6526.293210650644
 31
0.0
  0
LINE
  5
26600
330
22B0A
100
AcDbEntity
  8
寸法
 62
     0
 48
50.0
370
    -2
100
AcDbLine
 10
10994.53475000041
 20
6246.293210650645
 30
0.0
 11
10875.46950000081
 21
6246.293210650645
 31
0.0
  0
LINE
  5
26601
330
22B0A
100
AcDbEntity
  8
寸法
 62
     0
 48
50.0
370
    -2
100
AcDbLine
 10
10935.46950000081
 20
6526.293210650644
 30
0.0
 11
10935.46950000081
 21
6246.293210650645
 31
0.0
  0
LINE
  5
26602
330
22B0A
100
AcDbEntity
  8
寸法
 62
     0
 48
50.0
370
    -2
100
AcDbLine
 10
10935.46950000081
 20
6246.293210650645
 30
0.0
 11
10935.46950000081
 21
5809.758761831731
 31
0.0
  0
INSERT
  5
26603
330
22B0A
100
AcDbEntity
  8
寸法
 62
     0
 48
50.0
370
    -2
100
AcDbBlockReference
  2
_DOTSMALL
 10
10935.46950000081
 20
6526.293210650644
 30
0.0
 41
100.0
 42
100.0
 43
100.0
 50
90.0
  0
INSERT
  5
26604
330
22B0A
100
AcDbEntity
  8
寸法
 62
     0
 48
50.0
370
    -2
100
AcDbBlockReference
  2
_DOTSMALL
 10
10935.46950000081
 20
6246.293210650645
 30
0.0
 41
100.0
 42
100.0
 43
100.0
 50
270.0
  0
MTEXT
  5
26605
330
22B0A
100
AcDbEntity
  8
寸法
 62
     7
 48
50.0
100
AcDbMText
 10
10835.45768897719
 20
5959.329627973466
 30
0.0
 40
120.0
 41
0.0
 71
     5
 72
     1
  1
\A1;280
  7
STYLE1
 11
0.0000000000000001
 21
1.0
 31
0.0
 73
     1
 44
1.0
1001
ACAD
1000
MTEXTBEGIN
1070
    73
1070
     1
1070
    44
1040
1.0
1070
    74
1070
     0
1000
MTEXTEND
  0
POINT
  5
26606
330
22B0A
100
AcDbEntity
  8
DEFPOINTS
 62
     0
 48
50.0
100
AcDbPoint
 10
11014.53475000041
 20
6526.293210650644
 30
0.0
  0
POINT
  5
26607
330
22B0A
100
AcDbEntity
  8
DEFPOINTS
 62
     0
 48
50.0
100
AcDbPoint
 10
11014.53475000041
 20
6246.293210650645
 30
0.0
  0
POINT
  5
26608
330
22B0A
100
AcDbEntity
  8
DEFPOINTS
 62
     0
 48
50.0
100
AcDbPoint
 10
10935.46950000081
 20
6246.293210650645
 30
0.0
  0
ENDBLK
  5
22B16
330
22B0A
100
AcDbEntity
  8
0
 48
50.0
100
AcDbBlockEnd
  0
BLOCK
  5
22B22
330
22B17
100
AcDbEntity
  8
0
 48
50.0
100
AcDbBlockBegin
  2
*D29
 70
     1
 10
0.0
 20
0.0
 30
0.0
  3
*D29
  1

  0
LINE
  5
2650D
330
22B17
100
AcDbEntity
  8
寸法
 62
     0
 48
50.0
370
    -2
100
AcDbLine
 10
10994.53475000041
 20
7626.293210650614
 30
0.0
 11
10875.46950000081
 21
7626.293210650614
 31
0.0
  0
LINE
  5
2650E
330
22B17
100
AcDbEntity
  8
寸法
 62
     0
 48
50.0
370
    -2
100
AcDbLine
 10
10994.53475000041
 20
7426.293210650619
 30
0.0
 11
10875.46950000081
 21
7426.293210650619
 31
0.0
  0
LINE
  5
2650F
330
22B17
100
AcDbEntity
  8
寸法
 62
     0
 48
50.0
370
    -2
100
AcDbLine
 10
10935.46950000081
 20
7426.293210650619
 30
0.0
 11
10935.46950000081
 21
7626.293210650614
 31
0.0
  0
LINE
  5
26510
330
22B17
100
AcDbEntity
  8
寸法
 62
     0
 48
50.0
370
    -2
100
AcDbLine
 10
10935.46950000081
 20
7626.293210650614
 30
0.0
 11
10935.46950000081
 21
8062.827659469512
 31
0.0
  0
INSERT
  5
26511
330
22B17
100
AcDbEntity
  8
寸法
 62
     0
 48
50.0
370
    -2
100
AcDbBlockReference
  2
_DOTSMALL
 10
10935.46950000081
 20
7426.293210650619
 30
0.0
 41
100.0
 42
100.0
 43
100.0
 50
270.0
  0
INSERT
  5
26512
330
22B17
100
AcDbEntity
  8
寸法
 62
     0
 48
50.0
370
    -2
100
AcDbBlockReference
  2
_DOTSMALL
 10
10935.46950000081
 20
7626.293210650614
 30
0.0
 41
100.0
 42
100.0
 43
100.0
 50
90.0
  0
MTEXT
  5
26513
330
22B17
100
AcDbEntity
  8
寸法
 62
     7
 48
50.0
100
AcDbMText
 10
10835.45768897719
 20
7913.256793327781
 30
0.0
 40
120.0
 41
0.0
 71
     5
 72
     1
  1
\A1;200
  7
STYLE1
 11
0.0000000000000001
 21
1.0
 31
0.0
 73
     1
 44
1.0
1001
ACAD
1000
MTEXTBEGIN
1070
    73
1070
     1
1070
    44
1040
1.0
1070
    74
1070
     0
1000
MTEXTEND
  0
POINT
  5
26514
330
22B17
100
AcDbEntity
  8
DEFPOINTS
 62
     0
 48
50.0
100
AcDbPoint
 10
11014.53475000041
 20
7626.293210650614
 30
0.0
  0
POINT
  5
26515
330
22B17
100
AcDbEntity
  8
DEFPOINTS
 62
     0
 48
50.0
100
AcDbPoint
 10
11014.53475000041
 20
7426.293210650619
 30
0.0
  0
POINT
  5
26516
330
22B17
100
AcDbEntity
  8
DEFPOINTS
 62
     0
 48
50.0
100
AcDbPoint
 10
10935.46950000081
 20
7426.293210650619
 30
0.0
  0
ENDBLK
  5
22B23
330
22B17
100
AcDbEntity
  8
0
 48
50.0
100
AcDbBlockEnd
  0
BLOCK
  5
25EFA
330
25EF0
100
AcDbEntity
  8
0
 48
50.0
100
AcDbBlockBegin
  2
*D30
 70
     1
 10
0.0
 20
0.0
 30
0.0
  3
*D30
  1

  0
LINE
  5
2662E
330
25EF0
100
AcDbEntity
  8
寸法
 62
     0
 48
50.0
370
    -2
100
AcDbLine
 10
10683.60000000001
 20
7043.293210650618
 30
0.0
 11
10683.60000000001
 21
8168.902027320866
 31
0.0
  0
LINE
  5
2662F
330
25EF0
100
AcDbEntity
  8
寸法
 62
     0
 48
50.0
370
    -2
100
AcDbLine
 10
9863.600000000008
 20
7043.293210650618
 30
0.0
 11
9863.600000000008
 21
8168.902027320866
 31
0.0
  0
LINE
  5
26630
330
25EF0
100
AcDbEntity
  8
寸法
 62
     0
 48
50.0
370
    -2
100
AcDbLine
 10
10683.60000000001
 20
8108.902027320866
 30
0.0
 11
9863.600000000008
 21
8108.902027320866
 31
0.0
  0
INSERT
  5
26631
330
25EF0
100
AcDbEntity
  8
寸法
 62
     0
 48
50.0
370
    -2
100
AcDbBlockReference
  2
_DOTSMALL
 10
10683.60000000001
 20
8108.902027320866
 30
0.0
 41
100.0
 42
100.0
 43
100.0
  0
INSERT
  5
26632
330
25EF0
100
AcDbEntity
  8
寸法
 62
     0
 48
50.0
370
    -2
100
AcDbBlockReference
  2
_DOTSMALL
 10
9863.600000000008
 20
8108.902027320866
 30
0.0
 41
100.0
 42
100.0
 43
100.0
 50
180.0
  0
MTEXT
  5
26633
330
25EF0
100
AcDbEntity
  8
寸法
 62
     7
 48
50.0
100
AcDbMText
 10
10273.6
 20
8208.913838344487
 30
0.0
 40
120.0
 41
0.0
 71
     5
 72
     1
  1
\A1;820
  7
STYLE1
 73
     1
 44
1.0
1001
ACAD
1000
MTEXTBEGIN
1070
    73
1070
     1
1070
    44
1040
1.0
1070
    74
1070
     0
1000
MTEXTEND
  0
POINT
  5
26634
330
25EF0
100
AcDbEntity
  8
DEFPOINTS
 62
     0
 48
50.0
100
AcDbPoint
 10
10683.60000000001
 20
7023.293210650618
 30
0.0
  0
POINT
  5
26635
330
25EF0
100
AcDbEntity
  8
DEFPOINTS
 62
     0
 48
50.0
100
AcDbPoint
 10
9863.600000000008
 20
7023.293210650618
 30
0.0
  0
POINT
  5
26636
330
25EF0
100
AcDbEntity
  8
DEFPOINTS
 62
     0
 48
50.0
100
AcDbPoint
 10
9863.600000000008
 20
8108.902027320866
 30
0.0
  0
ENDBLK
  5
25EFB
330
25EF0
100
AcDbEntity
  8
0
 48
50.0
100
AcDbBlockEnd
  0
BLOCK
  5
25F06
330
25EFC
100
AcDbEntity
  8
0
 48
50.0
100
AcDbBlockBegin
  2
*D31
 70
     1
 10
0.0
 20
0.0
 30
0.0
  3
*D31
  1

  0
LINE
  5
26625
330
25EFC
100
AcDbEntity
  8
寸法
 62
     0
 48
50.0
370
    -2
100
AcDbLine
 10
9863.600000000008
 20
7043.293210650618
 30
0.0
 11
9863.600000000008
 21
8168.902027320866
 31
0.0
  0
LINE
  5
26626
330
25EFC
100
AcDbEntity
  8
寸法
 62
     0
 48
50.0
370
    -2
100
AcDbLine
 10
9043.600000000008
 20
7043.293210650618
 30
0.0
 11
9043.600000000008
 21
8168.902027320866
 31
0.0
  0
LINE
  5
26627
330
25EFC
100
AcDbEntity
  8
寸法
 62
     0
 48
50.0
370
    -2
100
AcDbLine
 10
9863.600000000008
 20
8108.902027320866
 30
0.0
 11
9043.600000000008
 21
8108.902027320866
 31
0.0
  0
INSERT
  5
26628
330
25EFC
100
AcDbEntity
  8
寸法
 62
     0
 48
50.0
370
    -2
100
AcDbBlockReference
  2
_DOTSMALL
 10
9863.600000000008
 20
8108.902027320866
 30
0.0
 41
100.0
 42
100.0
 43
100.0
  0
INSERT
  5
26629
330
25EFC
100
AcDbEntity
  8
寸法
 62
     0
 48
50.0
370
    -2
100
AcDbBlockReference
  2
_DOTSMALL
 10
9043.600000000008
 20
8108.902027320866
 30
0.0
 41
100.0
 42
100.0
 43
100.0
 50
180.0
  0
MTEXT
  5
2662A
330
25EFC
100
AcDbEntity
  8
寸法
 62
     7
 48
50.0
100
AcDbMText
 10
9453.600000000006
 20
8208.913838344487
 30
0.0
 40
120.0
 41
0.0
 71
     5
 72
     1
  1
\A1;820
  7
STYLE1
 73
     1
 44
1.0
1001
ACAD
1000
MTEXTBEGIN
1070
    73
1070
     1
1070
    44
1040
1.0
1070
    74
1070
     0
1000
MTEXTEND
  0
POINT
  5
2662B
330
25EFC
100
AcDbEntity
  8
DEFPOINTS
 62
     0
 48
50.0
100
AcDbPoint
 10
9863.600000000008
 20
7023.293210650618
 30
0.0
  0
POINT
  5
2662C
330
25EFC
100
AcDbEntity
  8
DEFPOINTS
 62
     0
 48
50.0
100
AcDbPoint
 10
9043.600000000008
 20
7023.293210650618
 30
0.0
  0
POINT
  5
2662D
330
25EFC
100
AcDbEntity
  8
DEFPOINTS
 62
     0
 48
50.0
100
AcDbPoint
 10
9043.600000000008
 20
8108.902027320866
 30
0.0
  0
ENDBLK
  5
25F07
330
25EFC
100
AcDbEntity
  8
0
 48
50.0
100
AcDbBlockEnd
  0
BLOCK
  5
25F12
330
25F08
100
AcDbEntity
  8
0
 48
50.0
100
AcDbBlockBegin
  2
*D32
 70
     1
 10
0.0
 20
0.0
 30
0.0
  3
*D32
  1

  0
LINE
  5
2661C
330
25F08
100
AcDbEntity
  8
寸法
 62
     0
 48
50.0
370
    -2
100
AcDbLine
 10
11508.6
 20
7646.293210650617
 30
0.0
 11
11508.6
 21
8168.902027320866
 31
0.0
  0
LINE
  5
2661D
330
25F08
100
AcDbEntity
  8
寸法
 62
     0
 48
50.0
370
    -2
100
AcDbLine
 10
10683.60000000001
 20
7043.293210650618
 30
0.0
 11
10683.60000000001
 21
8168.902027320866
 31
0.0
  0
LINE
  5
2661E
330
25F08
100
AcDbEntity
  8
寸法
 62
     0
 48
50.0
370
    -2
100
AcDbLine
 10
11508.6
 20
8108.902027320866
 30
0.0
 11
10683.60000000001
 21
8108.902027320866
 31
0.0
  0
INSERT
  5
2661F
330
25F08
100
AcDbEntity
  8
寸法
 62
     0
 48
50.0
370
    -2
100
AcDbBlockReference
  2
_DOTSMALL
 10
11508.6
 20
8108.902027320866
 30
0.0
 41
100.0
 42
100.0
 43
100.0
  0
INSERT
  5
26620
330
25F08
100
AcDbEntity
  8
寸法
 62
     0
 48
50.0
370
    -2
100
AcDbBlockReference
  2
_DOTSMALL
 10
10683.60000000001
 20
8108.902027320866
 30
0.0
 41
100.0
 42
100.0
 43
100.0
 50
180.0
  0
MTEXT
  5
26621
330
25F08
100
AcDbEntity
  8
寸法
 62
     7
 48
50.0
100
AcDbMText
 10
11096.1
 20
8208.913838344487
 30
0.0
 40
120.0
 41
0.0
 71
     5
 72
     1
  1
\A1;825
  7
STYLE1
 73
     1
 44
1.0
1001
ACAD
1000
MTEXTBEGIN
1070
    73
1070
     1
1070
    44
1040
1.0
1070
    74
1070
     0
1000
MTEXTEND
  0
POINT
  5
26622
330
25F08
100
AcDbEntity
  8
DEFPOINTS
 62
     0
 48
50.0
100
AcDbPoint
 10
11508.6
 20
7626.293210650619
 30
0.0
  0
POINT
  5
26623
330
25F08
100
AcDbEntity
  8
DEFPOINTS
 62
     0
 48
50.0
100
AcDbPoint
 10
10683.60000000001
 20
7023.293210650618
 30
0.0
  0
POINT
  5
26624
330
25F08
100
AcDbEntity
  8
DEFPOINTS
 62
     0
 48
50.0
100
AcDbPoint
 10
10683.60000000001
 20
8108.902027320866
 30
0.0
  0
ENDBLK
  5
25F13
330
25F08
100
AcDbEntity
  8
0
 48
50.0
100
AcDbBlockEnd
  0
BLOCK
  5
25F39
330
25F2E
100
AcDbEntity
  8
0
 48
50.0
100
AcDbBlockBegin
  2
*D33
 70
     1
 10
0.0
 20
0.0
 30
0.0
  3
*D33
  1

  0
LINE
  5
2644B
330
25F2E
100
AcDbEntity
  8
寸法
 62
     0
 48
50.0
370
    -2
100
AcDbLine
 10
11508.6
 20
7646.293210650617
 30
0.0
 11
11508.6
 21
8412.559668744528
 31
0.0
  0
LINE
  5
2644C
330
25F2E
100
AcDbEntity
  8
寸法
 62
     0
 48
50.0
370
    -2
100
AcDbLine
 10
11385.6
 20
7573.293210650618
 30
0.0
 11
11385.6
 21
8412.559668744528
 31
0.0
  0
LINE
  5
2644D
330
25F2E
100
AcDbEntity
  8
寸法
 62
     0
 48
50.0
370
    -2
100
AcDbLine
 10
11385.6
 20
8352.559668744529
 30
0.0
 11
11508.6
 21
8352.559668744529
 31
0.0
  0
LINE
  5
2644E
330
25F2E
100
AcDbEntity
  8
寸法
 62
     0
 48
50.0
370
    -2
100
AcDbLine
 10
11508.6
 20
8352.559668744529
 30
0.0
 11
11920.19188309204
 21
8352.559668744529
 31
0.0
  0
INSERT
  5
2644F
330
25F2E
100
AcDbEntity
  8
寸法
 62
     0
 48
50.0
370
    -2
100
AcDbBlockReference
  2
_DOTSMALL
 10
11385.6
 20
8352.559668744529
 30
0.0
 41
100.0
 42
100.0
 43
100.0
 50
180.0
  0
INSERT
  5
26450
330
25F2E
100
AcDbEntity
  8
寸法
 62
     0
 48
50.0
370
    -2
100
AcDbBlockReference
  2
_DOTSMALL
 10
11508.6
 20
8352.559668744529
 30
0.0
 41
100.0
 42
100.0
 43
100.0
  0
MTEXT
  5
26451
330
25F2E
100
AcDbEntity
  8
寸法
 62
     7
 48
50.0
100
AcDbMText
 10
11781.7066017178
 20
8452.571479768151
 30
0.0
 40
120.0
 41
0.0
 71
     5
 72
     1
  1
\A1;123
  7
STYLE1
 73
     1
 44
1.0
1001
ACAD
1000
MTEXTBEGIN
1070
    73
1070
     1
1070
    44
1040
1.0
1070
    74
1070
     0
1000
MTEXTEND
  0
POINT
  5
26452
330
25F2E
100
AcDbEntity
  8
DEFPOINTS
 62
     0
 48
50.0
100
AcDbPoint
 10
11508.6
 20
7626.293210650619
 30
0.0
  0
POINT
  5
26453
330
25F2E
100
AcDbEntity
  8
DEFPOINTS
 62
     0
 48
50.0
100
AcDbPoint
 10
11385.6
 20
7553.293210650618
 30
0.0
  0
POINT
  5
26454
330
25F2E
100
AcDbEntity
  8
DEFPOINTS
 62
     0
 48
50.0
100
AcDbPoint
 10
11385.6
 20
8352.559668744529
 30
0.0
  0
ENDBLK
  5
25F3A
330
25F2E
100
AcDbEntity
  8
0
 48
50.0
100
AcDbBlockEnd
  0
BLOCK
  5
25F45
330
25F3B
100
AcDbEntity
  8
0
 48
50.0
100
AcDbBlockBegin
  2
*D34
 70
     1
 10
0.0
 20
0.0
 30
0.0
  3
*D34
  1

  0
LINE
  5
26442
330
25F3B
100
AcDbEntity
  8
寸法
 62
     0
 48
50.0
370
    -2
100
AcDbLine
 10
11385.6
 20
7573.293210650618
 30
0.0
 11
11385.6
 21
8412.559668744528
 31
0.0
  0
LINE
  5
26443
330
25F3B
100
AcDbEntity
  8
寸法
 62
     0
 48
50.0
370
    -2
100
AcDbLine
 10
8925.600000000001
 20
7573.293210650618
 30
0.0
 11
8925.600000000001
 21
8412.559668744528
 31
0.0
  0
LINE
  5
26444
330
25F3B
100
AcDbEntity
  8
寸法
 62
     0
 48
50.0
370
    -2
100
AcDbLine
 10
11385.6
 20
8352.559668744529
 30
0.0
 11
8925.600000000001
 21
8352.559668744529
 31
0.0
  0
INSERT
  5
26445
330
25F3B
100
AcDbEntity
  8
寸法
 62
     0
 48
50.0
370
    -2
100
AcDbBlockReference
  2
_DOTSMALL
 10
11385.6
 20
8352.559668744529
 30
0.0
 41
100.0
 42
100.0
 43
100.0
  0
INSERT
  5
26446
330
25F3B
100
AcDbEntity
  8
寸法
 62
     0
 48
50.0
370
    -2
100
AcDbBlockReference
  2
_DOTSMALL
 10
8925.600000000001
 20
8352.559668744529
 30
0.0
 41
100.0
 42
100.0
 43
100.0
 50
180.0
  0
MTEXT
  5
26447
330
25F3B
100
AcDbEntity
  8
寸法
 62
     7
 48
50.0
100
AcDbMText
 10
10155.6
 20
8452.571479768151
 30
0.0
 40
120.0
 41
0.0
 71
     5
 72
     1
  1
\A1;2460
  7
STYLE1
 73
     1
 44
1.0
1001
ACAD
1000
MTEXTBEGIN
1070
    73
1070
     1
1070
    44
1040
1.0
1070
    74
1070
     0
1000
MTEXTEND
  0
POINT
  5
26448
330
25F3B
100
AcDbEntity
  8
DEFPOINTS
 62
     0
 48
50.0
100
AcDbPoint
 10
11385.6
 20
7553.293210650618
 30
0.0
  0
POINT
  5
26449
330
25F3B
100
AcDbEntity
  8
DEFPOINTS
 62
     0
 48
50.0
100
AcDbPoint
 10
8925.600000000001
 20
7553.293210650618
 30
0.0
  0
POINT
  5
2644A
330
25F3B
100
AcDbEntity
  8
DEFPOINTS
 62
     0
 48
50.0
100
AcDbPoint
 10
8925.600000000001
 20
8352.559668744529
 30
0.0
  0
ENDBLK
  5
25F46
330
25F3B
100
AcDbEntity
  8
0
 48
50.0
100
AcDbBlockEnd
  0
BLOCK
  5
25F51
330
25F47
100
AcDbEntity
  8
0
 48
50.0
100
AcDbBlockBegin
  2
*D35
 70
     1
 10
0.0
 20
0.0
 30
0.0
  3
*D35
  1

  0
LINE
  5
2666D
330
25F47
100
AcDbEntity
  8
寸法
 62
     0
 48
50.0
370
    -2
100
AcDbLine
 10
9043.600000000008
 20
7043.293210650618
 30
0.0
 11
9043.600000000008
 21
8168.902027320866
 31
0.0
  0
LINE
  5
2666E
330
25F47
100
AcDbEntity
  8
寸法
 62
     0
 48
50.0
370
    -2
100
AcDbLine
 10
8223.60000000001
 20
7043.293210650618
 30
0.0
 11
8223.60000000001
 21
8168.902027320866
 31
0.0
  0
LINE
  5
2666F
330
25F47
100
AcDbEntity
  8
寸法
 62
     0
 48
50.0
370
    -2
100
AcDbLine
 10
9043.600000000008
 20
8108.902027320866
 30
0.0
 11
8223.60000000001
 21
8108.902027320866
 31
0.0
  0
INSERT
  5
26670
330
25F47
100
AcDbEntity
  8
寸法
 62
     0
 48
50.0
370
    -2
100
AcDbBlockReference
  2
_DOTSMALL
 10
9043.600000000008
 20
8108.902027320866
 30
0.0
 41
100.0
 42
100.0
 43
100.0
  0
INSERT
  5
26671
330
25F47
100
AcDbEntity
  8
寸法
 62
     0
 48
50.0
370
    -2
100
AcDbBlockReference
  2
_DOTSMALL
 10
8223.60000000001
 20
8108.902027320866
 30
0.0
 41
100.0
 42
100.0
 43
100.0
 50
180.0
  0
MTEXT
  5
26672
330
25F47
100
AcDbEntity
  8
寸法
 62
     7
 48
50.0
100
AcDbMText
 10
8633.60000000001
 20
8208.913838344487
 30
0.0
 40
120.0
 41
0.0
 71
     5
 72
     1
  1
\A1;820
  7
STYLE1
 73
     1
 44
1.0
1001
ACAD
1000
MTEXTBEGIN
1070
    73
1070
     1
1070
    44
1040
1.0
1070
    74
1070
     0
1000
MTEXTEND
  0
POINT
  5
26673
330
25F47
100
AcDbEntity
  8
DEFPOINTS
 62
     0
 48
50.0
100
AcDbPoint
 10
9043.600000000008
 20
7023.293210650618
 30
0.0
  0
POINT
  5
26674
330
25F47
100
AcDbEntity
  8
DEFPOINTS
 62
     0
 48
50.0
100
AcDbPoint
 10
8223.60000000001
 20
7023.293210650618
 30
0.0
  0
POINT
  5
26675
330
25F47
100
AcDbEntity
  8
DEFPOINTS
 62
     0
 48
50.0
100
AcDbPoint
 10
8223.60000000001
 20
8108.902027320866
 30
0.0
  0
ENDBLK
  5
25F52
330
25F47
100
AcDbEntity
  8
0
 48
50.0
100
AcDbBlockEnd
  0
BLOCK
  5
25F5D
330
25F53
100
AcDbEntity
  8
0
 48
50.0
100
AcDbBlockBegin
  2
*D36
 70
     1
 10
0.0
 20
0.0
 30
0.0
  3
*D36
  1

  0
LINE
  5
264F1
330
25F53
100
AcDbEntity
  8
寸法
 62
     0
 48
50.0
370
    -2
100
AcDbLine
 10
8925.600000000001
 20
7573.293210650618
 30
0.0
 11
8925.600000000001
 21
8412.559668744528
 31
0.0
  0
LINE
  5
264F2
330
25F53
100
AcDbEntity
  8
寸法
 62
     0
 48
50.0
370
    -2
100
AcDbLine
 10
7285.600000000002
 20
7573.293210650618
 30
0.0
 11
7285.600000000002
 21
8412.559668744528
 31
0.0
  0
LINE
  5
264F3
330
25F53
100
AcDbEntity
  8
寸法
 62
     0
 48
50.0
370
    -2
100
AcDbLine
 10
8925.600000000001
 20
8352.559668744529
 30
0.0
 11
7285.600000000002
 21
8352.559668744529
 31
0.0
  0
INSERT
  5
264F4
330
25F53
100
AcDbEntity
  8
寸法
 62
     0
 48
50.0
370
    -2
100
AcDbBlockReference
  2
_DOTSMALL
 10
8925.600000000001
 20
8352.559668744529
 30
0.0
 41
100.0
 42
100.0
 43
100.0
  0
INSERT
  5
264F5
330
25F53
100
AcDbEntity
  8
寸法
 62
     0
 48
50.0
370
    -2
100
AcDbBlockReference
  2
_DOTSMALL
 10
7285.600000000002
 20
8352.559668744529
 30
0.0
 41
100.0
 42
100.0
 43
100.0
 50
180.0
  0
MTEXT
  5
264F6
330
25F53
100
AcDbEntity
  8
寸法
 62
     7
 48
50.0
100
AcDbMText
 10
8105.6
 20
8452.559668744529
 30
0.0
 40
120.0
 41
0.0
 71
     5
 72
     1
  1
\A1;1640
  7
STYLE1
 73
     1
 44
1.0
1001
ACAD
1000
MTEXTBEGIN
1070
    73
1070
     1
1070
    44
1040
1.0
1070
    74
1070
     0
1000
MTEXTEND
  0
POINT
  5
264F7
330
25F53
100
AcDbEntity
  8
DEFPOINTS
 62
     0
 48
50.0
100
AcDbPoint
 10
8925.600000000001
 20
7553.293210650618
 30
0.0
  0
POINT
  5
264F8
330
25F53
100
AcDbEntity
  8
DEFPOINTS
 62
     0
 48
50.0
100
AcDbPoint
 10
7285.600000000002
 20
7553.293210650618
 30
0.0
  0
POINT
  5
264F9
330
25F53
100
AcDbEntity
  8
DEFPOINTS
 62
     0
 48
50.0
100
AcDbPoint
 10
7285.600000000002
 20
8352.559668744529
 30
0.0
  0
ENDBLK
  5
25F5E
330
25F53
100
AcDbEntity
  8
0
 48
50.0
100
AcDbBlockEnd
  0
BLOCK
  5
25F69
330
25F5F
100
AcDbEntity
  8
0
 48
50.0
100
AcDbBlockBegin
  2
*D37
 70
     1
 10
0.0
 20
0.0
 30
0.0
  3
*D37
  1

  0
LINE
  5
264E8
330
25F5F
100
AcDbEntity
  8
寸法
 62
     0
 48
50.0
370
    -2
100
AcDbLine
 10
4938.6
 20
7646.293210650617
 30
0.0
 11
4938.6
 21
8644.513532709536
 31
0.0
  0
LINE
  5
264E9
330
25F5F
100
AcDbEntity
  8
寸法
 62
     0
 48
50.0
370
    -2
100
AcDbLine
 10
11508.6
 20
7646.293210650617
 30
0.0
 11
11508.6
 21
8644.513532709536
 31
0.0
  0
LINE
  5
264EA
330
25F5F
100
AcDbEntity
  8
寸法
 62
     0
 48
50.0
370
    -2
100
AcDbLine
 10
4938.6
 20
8584.513532709536
 30
0.0
 11
11508.6
 21
8584.513532709536
 31
0.0
  0
INSERT
  5
264EB
330
25F5F
100
AcDbEntity
  8
寸法
 62
     0
 48
50.0
370
    -2
100
AcDbBlockReference
  2
_DOTSMALL
 10
4938.6
 20
8584.513532709536
 30
0.0
 41
100.0
 42
100.0
 43
100.0
 50
180.0
  0
INSERT
  5
264EC
330
25F5F
100
AcDbEntity
  8
寸法
 62
     0
 48
50.0
370
    -2
100
AcDbBlockReference
  2
_DOTSMALL
 10
11508.6
 20
8584.513532709536
 30
0.0
 41
100.0
 42
100.0
 43
100.0
  0
MTEXT
  5
264ED
330
25F5F
100
AcDbEntity
  8
寸法
 62
     7
 48
50.0
100
AcDbMText
 10
8223.600000000001
 20
8684.513532709535
 30
0.0
 40
120.0
 41
0.0
 71
     5
 72
     1
  1
\A1;6570
  7
STYLE1
 73
     1
 44
1.0
1001
ACAD
1000
MTEXTBEGIN
1070
    73
1070
     1
1070
    44
1040
1.0
1070
    74
1070
     0
1000
MTEXTEND
  0
POINT
  5
264EE
330
25F5F
100
AcDbEntity
  8
DEFPOINTS
 62
     0
 48
50.0
100
AcDbPoint
 10
4938.6
 20
7626.293210650619
 30
0.0
  0
POINT
  5
264EF
330
25F5F
100
AcDbEntity
  8
DEFPOINTS
 62
     0
 48
50.0
100
AcDbPoint
 10
11508.6
 20
7626.293210650619
 30
0.0
  0
POINT
  5
264F0
330
25F5F
100
AcDbEntity
  8
DEFPOINTS
 62
     0
 48
50.0
100
AcDbPoint
 10
11508.6
 20
8584.513532709536
 30
0.0
  0
ENDBLK
  5
25F6A
330
25F5F
100
AcDbEntity
  8
0
 48
50.0
100
AcDbBlockEnd
  0
BLOCK
  5
25F75
330
25F6B
100
AcDbEntity
  8
0
 48
50.0
100
AcDbBlockBegin
  2
*D38
 70
     1
 10
0.0
 20
0.0
 30
0.0
  3
*D38
  1

  0
LINE
  5
26571
330
25F6B
100
AcDbEntity
  8
寸法
 62
     0
 48
50.0
370
    -2
100
AcDbLine
 10
4991.6
 20
7503.293210650618
 30
0.0
 11
4255.665006330072
 21
7503.293210650618
 31
0.0
  0
LINE
  5
26572
330
25F6B
100
AcDbEntity
  8
寸法
 62
     0
 48
50.0
370
    -2
100
AcDbLine
 10
4991.600000000008
 20
6444.293210650622
 30
0.0
 11
4255.665006330072
 21
6444.293210650622
 31
0.0
  0
LINE
  5
26573
330
25F6B
100
AcDbEntity
  8
寸法
 62
     0
 48
50.0
370
    -2
100
AcDbLine
 10
4315.665006330073
 20
7503.293210650618
 30
0.0
 11
4315.665006330073
 21
6444.293210650622
 31
0.0
  0
INSERT
  5
26574
330
25F6B
100
AcDbEntity
  8
寸法
 62
     0
 48
50.0
370
    -2
100
AcDbBlockReference
  2
_DOTSMALL
 10
4315.665006330073
 20
7503.293210650618
 30
0.0
 41
100.0
 42
100.0
 43
100.0
 50
90.0
  0
INSERT
  5
26575
330
25F6B
100
AcDbEntity
  8
寸法
 62
     0
 48
50.0
370
    -2
100
AcDbBlockReference
  2
_DOTSMALL
 10
4315.665006330073
 20
6444.293210650622
 30
0.0
 41
100.0
 42
100.0
 43
100.0
 50
270.0
  0
MTEXT
  5
26576
330
25F6B
100
AcDbEntity
  8
寸法
 62
     7
 48
50.0
100
AcDbMText
 10
4215.665006330072
 20
6973.793210650618
 30
0.0
 40
120.0
 41
0.0
 71
     5
 72
     1
  1
\A1;1059
  7
STYLE1
 11
0.0000000000000001
 21
1.0
 31
0.0
 73
     1
 44
1.0
1001
ACAD
1000
MTEXTBEGIN
1070
    73
1070
     1
1070
    44
1040
1.0
1070
    74
1070
     0
1000
MTEXTEND
  0
POINT
  5
26577
330
25F6B
100
AcDbEntity
  8
DEFPOINTS
 62
     0
 48
50.0
100
AcDbPoint
 10
5011.600000000001
 20
7503.293210650618
 30
0.0
  0
POINT
  5
26578
330
25F6B
100
AcDbEntity
  8
DEFPOINTS
 62
     0
 48
50.0
100
AcDbPoint
 10
5011.600000000008
 20
6444.293210650622
 30
0.0
  0
POINT
  5
26579
330
25F6B
100
AcDbEntity
  8
DEFPOINTS
 62
     0
 48
50.0
100
AcDbPoint
 10
4315.665006330073
 20
6444.293210650622
 30
0.0
  0
ENDBLK
  5
25F76
330
25F6B
100
AcDbEntity
  8
0
 48
50.0
100
AcDbBlockEnd
  0
BLOCK
  5
25F81
330
25F77
100
AcDbEntity
  8
0
 48
50.0
100
AcDbBlockBegin
  2
*D39
 70
     1
 10
0.0
 20
0.0
 30
0.0
  3
*D39
  1

  0
LINE
  5
26664
330
25F77
100
AcDbEntity
  8
寸法
 62
     0
 48
50.0
370
    -2
100
AcDbLine
 10
8223.60000000001
 20
7043.293210650618
 30
0.0
 11
8223.60000000001
 21
8168.902027320866
 31
0.0
  0
LINE
  5
26665
330
25F77
100
AcDbEntity
  8
寸法
 62
     0
 48
50.0
370
    -2
100
AcDbLine
 10
7403.60000000001
 20
7043.293210650618
 30
0.0
 11
7403.60000000001
 21
8168.902027320866
 31
0.0
  0
LINE
  5
26666
330
25F77
100
AcDbEntity
  8
寸法
 62
     0
 48
50.0
370
    -2
100
AcDbLine
 10
8223.60000000001
 20
8108.902027320866
 30
0.0
 11
7403.60000000001
 21
8108.902027320866
 31
0.0
  0
INSERT
  5
26667
330
25F77
100
AcDbEntity
  8
寸法
 62
     0
 48
50.0
370
    -2
100
AcDbBlockReference
  2
_DOTSMALL
 10
8223.60000000001
 20
8108.902027320866
 30
0.0
 41
100.0
 42
100.0
 43
100.0
  0
INSERT
  5
26668
330
25F77
100
AcDbEntity
  8
寸法
 62
     0
 48
50.0
370
    -2
100
AcDbBlockReference
  2
_DOTSMALL
 10
7403.60000000001
 20
8108.902027320866
 30
0.0
 41
100.0
 42
100.0
 43
100.0
 50
180.0
  0
MTEXT
  5
26669
330
25F77
100
AcDbEntity
  8
寸法
 62
     7
 48
50.0
100
AcDbMText
 10
7813.600000000009
 20
8208.913838344487
 30
0.0
 40
120.0
 41
0.0
 71
     5
 72
     1
  1
\A1;820
  7
STYLE1
 73
     1
 44
1.0
1001
ACAD
1000
MTEXTBEGIN
1070
    73
1070
     1
1070
    44
1040
1.0
1070
    74
1070
     0
1000
MTEXTEND
  0
POINT
  5
2666A
330
25F77
100
AcDbEntity
  8
DEFPOINTS
 62
     0
 48
50.0
100
AcDbPoint
 10
8223.60000000001
 20
7023.293210650618
 30
0.0
  0
POINT
  5
2666B
330
25F77
100
AcDbEntity
  8
DEFPOINTS
 62
     0
 48
50.0
100
AcDbPoint
 10
7403.60000000001
 20
7023.293210650618
 30
0.0
  0
POINT
  5
2666C
330
25F77
100
AcDbEntity
  8
DEFPOINTS
 62
     0
 48
50.0
100
AcDbPoint
 10
7403.60000000001
 20
8108.902027320866
 30
0.0
  0
ENDBLK
  5
25F82
330
25F77
100
AcDbEntity
  8
0
 48
50.0
100
AcDbBlockEnd
  0
BLOCK
  5
25F8D
330
25F83
100
AcDbEntity
  8
0
 48
50.0
100
AcDbBlockBegin
  2
*D40
 70
     1
 10
0.0
 20
0.0
 30
0.0
  3
*D40
  1

  0
LINE
  5
264CD
330
25F83
100
AcDbEntity
  8
寸法
 62
     0
 48
50.0
370
    -2
100
AcDbLine
 10
4918.600000000001
 20
7626.293210650619
 30
0.0
 11
4003.721909610674
 21
7626.293210650619
 31
0.0
  0
LINE
  5
264CE
330
25F83
100
AcDbEntity
  8
寸法
 62
     0
 48
50.0
370
    -2
100
AcDbLine
 10
4918.600000000001
 20
6246.293210650618
 30
0.0
 11
4003.721909610674
 21
6246.293210650618
 31
0.0
  0
LINE
  5
264CF
330
25F83
100
AcDbEntity
  8
寸法
 62
     0
 48
50.0
370
    -2
100
AcDbLine
 10
4063.721909610674
 20
7626.293210650619
 30
0.0
 11
4063.721909610674
 21
6246.293210650618
 31
0.0
  0
INSERT
  5
264D0
330
25F83
100
AcDbEntity
  8
寸法
 62
     0
 48
50.0
370
    -2
100
AcDbBlockReference
  2
_DOTSMALL
 10
4063.721909610674
 20
7626.293210650619
 30
0.0
 41
100.0
 42
100.0
 43
100.0
 50
90.0
  0
INSERT
  5
264D1
330
25F83
100
AcDbEntity
  8
寸法
 62
     0
 48
50.0
370
    -2
100
AcDbBlockReference
  2
_DOTSMALL
 10
4063.721909610674
 20
6246.293210650618
 30
0.0
 41
100.0
 42
100.0
 43
100.0
 50
270.0
  0
MTEXT
  5
264D2
330
25F83
100
AcDbEntity
  8
寸法
 62
     7
 48
50.0
100
AcDbMText
 10
3963.721909610672
 20
6973.793210650618
 30
0.0
 40
120.0
 41
0.0
 71
     5
 72
     1
  1
\A1;1380
  7
STYLE1
 11
0.0000000000000001
 21
1.0
 31
0.0
 73
     1
 44
1.0
1001
ACAD
1000
MTEXTBEGIN
1070
    73
1070
     1
1070
    44
1040
1.0
1070
    74
1070
     0
1000
MTEXTEND
  0
POINT
  5
264D3
330
25F83
100
AcDbEntity
  8
DEFPOINTS
 62
     0
 48
50.0
100
AcDbPoint
 10
4938.6
 20
7626.293210650619
 30
0.0
  0
POINT
  5
264D4
330
25F83
100
AcDbEntity
  8
DEFPOINTS
 62
     0
 48
50.0
100
AcDbPoint
 10
4938.6
 20
6246.293210650618
 30
0.0
  0
POINT
  5
264D5
330
25F83
100
AcDbEntity
  8
DEFPOINTS
 62
     0
 48
50.0
100
AcDbPoint
 10
4063.721909610674
 20
6246.293210650618
 30
0.0
  0
ENDBLK
  5
25F8E
330
25F83
100
AcDbEntity
  8
0
 48
50.0
100
AcDbBlockEnd
  0
BLOCK
  5
25F98
330
25F8F
100
AcDbEntity
  8
0
 48
50.0
100
AcDbBlockBegin
  2
*D41
 70
     1
 10
0.0
 20
0.0
 30
0.0
  3
*D41
  1

  0
LINE
  5
2665B
330
25F8F
100
AcDbEntity
  8
寸法
 62
     0
 48
50.0
370
    -2
100
AcDbLine
 10
6583.60000000001
 20
7043.293210650618
 30
0.0
 11
6583.60000000001
 21
8168.902027320866
 31
0.0
  0
LINE
  5
2665C
330
25F8F
100
AcDbEntity
  8
寸法
 62
     0
 48
50.0
370
    -2
100
AcDbLine
 10
5763.600000000008
 20
7043.293210650618
 30
0.0
 11
5763.600000000008
 21
8168.902027320866
 31
0.0
  0
LINE
  5
2665D
330
25F8F
100
AcDbEntity
  8
寸法
 62
     0
 48
50.0
370
    -2
100
AcDbLine
 10
6583.60000000001
 20
8108.902027320866
 30
0.0
 11
5763.600000000008
 21
8108.902027320866
 31
0.0
  0
INSERT
  5
2665E
330
25F8F
100
AcDbEntity
  8
寸法
 62
     0
 48
50.0
370
    -2
100
AcDbBlockReference
  2
_DOTSMALL
 10
6583.60000000001
 20
8108.902027320866
 30
0.0
 41
100.0
 42
100.0
 43
100.0
  0
INSERT
  5
2665F
330
25F8F
100
AcDbEntity
  8
寸法
 62
     0
 48
50.0
370
    -2
100
AcDbBlockReference
  2
_DOTSMALL
 10
5763.600000000008
 20
8108.902027320866
 30
0.0
 41
100.0
 42
100.0
 43
100.0
 50
180.0
  0
MTEXT
  5
26660
330
25F8F
100
AcDbEntity
  8
寸法
 62
     7
 48
50.0
100
AcDbMText
 10
6173.600000000009
 20
8208.913838344487
 30
0.0
 40
120.0
 41
0.0
 71
     5
 72
     1
  1
\A1;820
  7
STYLE1
 73
     1
 44
1.0
1001
ACAD
1000
MTEXTBEGIN
1070
    73
1070
     1
1070
    44
1040
1.0
1070
    74
1070
     0
1000
MTEXTEND
  0
POINT
  5
26661
330
25F8F
100
AcDbEntity
  8
DEFPOINTS
 62
     0
 48
50.0
100
AcDbPoint
 10
6583.60000000001
 20
7023.293210650618
 30
0.0
  0
POINT
  5
26662
330
25F8F
100
AcDbEntity
  8
DEFPOINTS
 62
     0
 48
50.0
100
AcDbPoint
 10
5763.600000000008
 20
7023.293210650618
 30
0.0
  0
POINT
  5
26663
330
25F8F
100
AcDbEntity
  8
DEFPOINTS
 62
     0
 48
50.0
100
AcDbPoint
 10
5763.600000000008
 20
8108.902027320866
 30
0.0
  0
ENDBLK
  5
25F99
330
25F8F
100
AcDbEntity
  8
0
 48
50.0
100
AcDbBlockEnd
  0
BLOCK
  5
25FA4
330
25F9A
100
AcDbEntity
  8
0
 48
50.0
100
AcDbBlockBegin
  2
*D42
 70
     1
 10
0.0
 20
0.0
 30
0.0
  3
*D42
  1

  0
LINE
  5
26652
330
25F9A
100
AcDbEntity
  8
寸法
 62
     0
 48
50.0
370
    -2
100
AcDbLine
 10
5763.600000000008
 20
7043.293210650618
 30
0.0
 11
5763.600000000008
 21
8168.902027320866
 31
0.0
  0
LINE
  5
26653
330
25F9A
100
AcDbEntity
  8
寸法
 62
     0
 48
50.0
370
    -2
100
AcDbLine
 10
4938.6
 20
7646.293210650617
 30
0.0
 11
4938.6
 21
8168.902027320866
 31
0.0
  0
LINE
  5
26654
330
25F9A
100
AcDbEntity
  8
寸法
 62
     0
 48
50.0
370
    -2
100
AcDbLine
 10
5763.600000000008
 20
8108.902027320866
 30
0.0
 11
4938.6
 21
8108.902027320866
 31
0.0
  0
INSERT
  5
26655
330
25F9A
100
AcDbEntity
  8
寸法
 62
     0
 48
50.0
370
    -2
100
AcDbBlockReference
  2
_DOTSMALL
 10
5763.600000000008
 20
8108.902027320866
 30
0.0
 41
100.0
 42
100.0
 43
100.0
  0
INSERT
  5
26656
330
25F9A
100
AcDbEntity
  8
寸法
 62
     0
 48
50.0
370
    -2
100
AcDbBlockReference
  2
_DOTSMALL
 10
4938.6
 20
8108.902027320866
 30
0.0
 41
100.0
 42
100.0
 43
100.0
 50
180.0
  0
MTEXT
  5
26657
330
25F9A
100
AcDbEntity
  8
寸法
 62
     7
 48
50.0
100
AcDbMText
 10
5351.100000000004
 20
8208.913838344487
 30
0.0
 40
120.0
 41
0.0
 71
     5
 72
     1
  1
\A1;825
  7
STYLE1
 73
     1
 44
1.0
1001
ACAD
1000
MTEXTBEGIN
1070
    73
1070
     1
1070
    44
1040
1.0
1070
    74
1070
     0
1000
MTEXTEND
  0
POINT
  5
26658
330
25F9A
100
AcDbEntity
  8
DEFPOINTS
 62
     0
 48
50.0
100
AcDbPoint
 10
5763.600000000008
 20
7023.293210650618
 30
0.0
  0
POINT
  5
26659
330
25F9A
100
AcDbEntity
  8
DEFPOINTS
 62
     0
 48
50.0
100
AcDbPoint
 10
4938.6
 20
7626.293210650619
 30
0.0
  0
POINT
  5
2665A
330
25F9A
100
AcDbEntity
  8
DEFPOINTS
 62
     0
 48
50.0
100
AcDbPoint
 10
4938.6
 20
8108.902027320866
 30
0.0
  0
ENDBLK
  5
25FA5
330
25F9A
100
AcDbEntity
  8
0
 48
50.0
100
AcDbBlockEnd
  0
BLOCK
  5
25FAF
330
25FA6
100
AcDbEntity
  8
0
 48
50.0
100
AcDbBlockBegin
  2
*D43
 70
     1
 10
0.0
 20
0.0
 30
0.0
  3
*D43
  1

  0
LINE
  5
26649
330
25FA6
100
AcDbEntity
  8
寸法
 62
     0
 48
50.0
370
    -2
100
AcDbLine
 10
7403.60000000001
 20
7043.293210650618
 30
0.0
 11
7403.60000000001
 21
8168.902027320866
 31
0.0
  0
LINE
  5
2664A
330
25FA6
100
AcDbEntity
  8
寸法
 62
     0
 48
50.0
370
    -2
100
AcDbLine
 10
6583.60000000001
 20
7043.293210650618
 30
0.0
 11
6583.60000000001
 21
8168.902027320866
 31
0.0
  0
LINE
  5
2664B
330
25FA6
100
AcDbEntity
  8
寸法
 62
     0
 48
50.0
370
    -2
100
AcDbLine
 10
7403.60000000001
 20
8108.902027320866
 30
0.0
 11
6583.60000000001
 21
8108.902027320866
 31
0.0
  0
INSERT
  5
2664C
330
25FA6
100
AcDbEntity
  8
寸法
 62
     0
 48
50.0
370
    -2
100
AcDbBlockReference
  2
_DOTSMALL
 10
7403.60000000001
 20
8108.902027320866
 30
0.0
 41
100.0
 42
100.0
 43
100.0
  0
INSERT
  5
2664D
330
25FA6
100
AcDbEntity
  8
寸法
 62
     0
 48
50.0
370
    -2
100
AcDbBlockReference
  2
_DOTSMALL
 10
6583.60000000001
 20
8108.902027320866
 30
0.0
 41
100.0
 42
100.0
 43
100.0
 50
180.0
  0
MTEXT
  5
2664E
330
25FA6
100
AcDbEntity
  8
寸法
 62
     7
 48
50.0
100
AcDbMText
 10
6993.600000000009
 20
8208.913838344487
 30
0.0
 40
120.0
 41
0.0
 71
     5
 72
     1
  1
\A1;820
  7
STYLE1
 73
     1
 44
1.0
1001
ACAD
1000
MTEXTBEGIN
1070
    73
1070
     1
1070
    44
1040
1.0
1070
    74
1070
     0
1000
MTEXTEND
  0
POINT
  5
2664F
330
25FA6
100
AcDbEntity
  8
DEFPOINTS
 62
     0
 48
50.0
100
AcDbPoint
 10
7403.60000000001
 20
7023.293210650618
 30
0.0
  0
POINT
  5
26650
330
25FA6
100
AcDbEntity
  8
DEFPOINTS
 62
     0
 48
50.0
100
AcDbPoint
 10
6583.60000000001
 20
7023.293210650618
 30
0.0
  0
POINT
  5
26651
330
25FA6
100
AcDbEntity
  8
DEFPOINTS
 62
     0
 48
50.0
100
AcDbPoint
 10
6583.60000000001
 20
8108.902027320866
 30
0.0
  0
ENDBLK
  5
25FB0
330
25FA6
100
AcDbEntity
  8
0
 48
50.0
100
AcDbBlockEnd
  0
BLOCK
  5
25FBB
330
25FB1
100
AcDbEntity
  8
0
 48
50.0
100
AcDbBlockBegin
  2
*D44
 70
     1
 10
0.0
 20
0.0
 30
0.0
  3
*D44
  1

  0
LINE
  5
26676
330
25FB1
100
AcDbEntity
  8
寸法
 62
     0
 48
50.0
370
    -2
100
AcDbLine
 10
5693.600000000007
 20
6973.293210650618
 30
0.0
 11
5361.285990614304
 21
6973.293210650618
 31
0.0
  0
LINE
  5
26677
330
25FB1
100
AcDbEntity
  8
寸法
 62
     0
 48
50.0
370
    -2
100
AcDbLine
 10
5492.765475140901
 20
7626.293210650619
 30
0.0
 11
5361.285990614304
 21
7626.293210650619
 31
0.0
  0
LINE
  5
26678
330
25FB1
100
AcDbEntity
  8
寸法
 62
     0
 48
50.0
370
    -2
100
AcDbLine
 10
5421.285990614304
 20
6973.293210650618
 30
0.0
 11
5421.285990614304
 21
7626.293210650619
 31
0.0
  0
INSERT
  5
26679
330
25FB1
100
AcDbEntity
  8
寸法
 62
     0
 48
50.0
370
    -2
100
AcDbBlockReference
  2
_DOTSMALL
 10
5421.285990614304
 20
6973.293210650618
 30
0.0
 41
100.0
 42
100.0
 43
100.0
 50
270.0
  0
INSERT
  5
2667A
330
25FB1
100
AcDbEntity
  8
寸法
 62
     0
 48
50.0
370
    -2
100
AcDbBlockReference
  2
_DOTSMALL
 10
5421.285990614304
 20
7626.293210650619
 30
0.0
 41
100.0
 42
100.0
 43
100.0
 50
90.0
  0
MTEXT
  5
2667B
330
25FB1
100
AcDbEntity
  8
寸法
 62
     7
 48
50.0
100
AcDbMText
 10
5321.285990614303
 20
7236.256481520505
 30
0.0
 40
120.0
 41
0.0
 71
     5
 72
     1
  1
\A1;653
  7
STYLE1
 11
0.0000000000000001
 21
1.0
 31
0.0
 73
     1
 44
1.0
1001
ACAD
1000
MTEXTBEGIN
1070
    73
1070
     1
1070
    44
1040
1.0
1070
    74
1070
     0
1000
MTEXTEND
  0
POINT
  5
2667C
330
25FB1
100
AcDbEntity
  8
DEFPOINTS
 62
     0
 48
50.0
100
AcDbPoint
 10
5713.600000000008
 20
6973.293210650618
 30
0.0
  0
POINT
  5
2667D
330
25FB1
100
AcDbEntity
  8
DEFPOINTS
 62
     0
 48
50.0
100
AcDbPoint
 10
5512.765475140901
 20
7626.293210650619
 30
0.0
  0
POINT
  5
2667E
330
25FB1
100
AcDbEntity
  8
DEFPOINTS
 62
     0
 48
50.0
100
AcDbPoint
 10
5421.285990614304
 20
7626.293210650619
 30
0.0
  0
ENDBLK
  5
25FBC
330
25FB1
100
AcDbEntity
  8
0
 48
50.0
100
AcDbBlockEnd
  0
BLOCK
  5
25FC7
330
25FBD
100
AcDbEntity
  8
0
 48
50.0
100
AcDbBlockBegin
  2
*D45
 70
     1
 10
0.0
 20
0.0
 30
0.0
  3
*D45
  1

  0
LINE
  5
264A0
330
25FBD
100
AcDbEntity
  8
寸法
 62
     0
 48
50.0
370
    -2
100
AcDbLine
 10
4918.600000000004
 20
6246.293210650614
 30
0.0
 11
4765.512673767882
 21
6246.293210650614
 31
0.0
  0
LINE
  5
264A1
330
25FBD
100
AcDbEntity
  8
寸法
 62
     0
 48
50.0
370
    -2
100
AcDbLine
 10
5274.325326928809
 20
5526.293210650614
 30
0.0
 11
4765.512673767881
 21
5526.293210650614
 31
0.0
  0
LINE
  5
264A2
330
25FBD
100
AcDbEntity
  8
寸法
 62
     0
 48
50.0
370
    -2
100
AcDbLine
 10
4825.512673767882
 20
6246.293210650614
 30
0.0
 11
4825.512673767882
 21
5526.293210650614
 31
0.0
  0
INSERT
  5
264A3
330
25FBD
100
AcDbEntity
  8
寸法
 62
     0
 48
50.0
370
    -2
100
AcDbBlockReference
  2
_DOTSMALL
 10
4825.512673767882
 20
6246.293210650614
 30
0.0
 41
100.0
 42
100.0
 43
100.0
 50
90.0
  0
INSERT
  5
264A4
330
25FBD
100
AcDbEntity
  8
寸法
 62
     0
 48
50.0
370
    -2
100
AcDbBlockReference
  2
_DOTSMALL
 10
4825.512673767882
 20
5526.293210650614
 30
0.0
 41
100.0
 42
100.0
 43
100.0
 50
270.0
  0
MTEXT
  5
264A5
330
25FBD
100
AcDbEntity
  8
寸法
 62
     7
 48
50.0
100
AcDbMText
 10
4725.500862744258
 20
5886.293210650615
 30
0.0
 40
120.0
 41
0.0
 71
     5
 72
     1
  1
\A1;扉の出720
  7
STYLE1
 11
0.0000000000000001
 21
1.0
 31
0.0
 73
     1
 44
1.0
1001
ACAD
1000
MTEXTBEGIN
1070
    73
1070
     1
1070
    44
1040
1.0
1070
    74
1070
     0
1000
MTEXTEND
  0
POINT
  5
264A6
330
25FBD
100
AcDbEntity
  8
DEFPOINTS
 62
     0
 48
50.0
100
AcDbPoint
 10
4938.600000000004
 20
6246.293210650614
 30
0.0
  0
POINT
  5
264A7
330
25FBD
100
AcDbEntity
  8
DEFPOINTS
 62
     0
 48
50.0
100
AcDbPoint
 10
5294.325326928809
 20
5526.293210650614
 30
0.0
  0
POINT
  5
264A8
330
25FBD
100
AcDbEntity
  8
DEFPOINTS
 62
     0
 48
50.0
100
AcDbPoint
 10
4825.512673767882
 20
5526.293210650614
 30
0.0
  0
ENDBLK
  5
25FC8
330
25FBD
100
AcDbEntity
  8
0
 48
50.0
100
AcDbBlockEnd
  0
BLOCK
  5
25FD4
330
25FC9
100
AcDbEntity
  8
0
 48
50.0
100
AcDbBlockBegin
  2
*D46
 70
     1
 10
0.0
 20
0.0
 30
0.0
  3
*D46
  1

  0
LINE
  5
26567
330
25FC9
100
AcDbEntity
  8
寸法
 62
     0
 48
50.0
370
    -2
100
AcDbLine
 10
4991.600000000008
 20
6444.293210650622
 30
0.0
 11
4255.665006330072
 21
6444.293210650622
 31
0.0
  0
LINE
  5
26568
330
25FC9
100
AcDbEntity
  8
寸法
 62
     0
 48
50.0
370
    -2
100
AcDbLine
 10
4918.600000000001
 20
6246.293210650618
 30
0.0
 11
4255.665006330072
 21
6246.293210650618
 31
0.0
  0
LINE
  5
26569
330
25FC9
100
AcDbEntity
  8
寸法
 62
     0
 48
50.0
370
    -2
100
AcDbLine
 10
4315.665006330073
 20
6444.293210650622
 30
0.0
 11
4315.665006330073
 21
6246.293210650618
 31
0.0
  0
LINE
  5
2656A
330
25FC9
100
AcDbEntity
  8
寸法
 62
     0
 48
50.0
370
    -2
100
AcDbLine
 10
4315.665006330073
 20
6246.293210650618
 30
0.0
 11
4315.665006330072
 21
5774.552601978368
 31
0.0
  0
INSERT
  5
2656B
330
25FC9
100
AcDbEntity
  8
寸法
 62
     0
 48
50.0
370
    -2
100
AcDbBlockReference
  2
_DOTSMALL
 10
4315.665006330073
 20
6444.293210650622
 30
0.0
 41
100.0
 42
100.0
 43
100.0
 50
90.0
  0
INSERT
  5
2656C
330
25FC9
100
AcDbEntity
  8
寸法
 62
     0
 48
50.0
370
    -2
100
AcDbBlockReference
  2
_DOTSMALL
 10
4315.665006330073
 20
6246.293210650618
 30
0.0
 41
100.0
 42
100.0
 43
100.0
 50
270.0
  0
MTEXT
  5
2656D
330
25FC9
100
AcDbEntity
  8
寸法
 62
     7
 48
50.0
100
AcDbMText
 10
4215.665006330072
 20
5910.762261808025
 30
0.0
 40
120.0
 41
0.0
 71
     5
 72
     1
  1
\A1;198
  7
STYLE1
 11
0.0000000000000001
 21
1.0
 31
0.0
 73
     1
 44
1.0
1001
ACAD
1000
MTEXTBEGIN
1070
    73
1070
     1
1070
    44
1040
1.0
1070
    74
1070
     0
1000
MTEXTEND
  0
POINT
  5
2656E
330
25FC9
100
AcDbEntity
  8
DEFPOINTS
 62
     0
 48
50.0
100
AcDbPoint
 10
5011.600000000008
 20
6444.293210650622
 30
0.0
  0
POINT
  5
2656F
330
25FC9
100
AcDbEntity
  8
DEFPOINTS
 62
     0
 48
50.0
100
AcDbPoint
 10
4938.6
 20
6246.293210650618
 30
0.0
  0
POINT
  5
26570
330
25FC9
100
AcDbEntity
  8
DEFPOINTS
 62
     0
 48
50.0
100
AcDbPoint
 10
4315.665006330073
 20
6246.293210650618
 30
0.0
  0
ENDBLK
  5
25FD5
330
25FC9
100
AcDbEntity
  8
0
 48
50.0
100
AcDbBlockEnd
  0
BLOCK
  5
25FF9
330
25FEF
100
AcDbEntity
  8
0
 48
50.0
100
AcDbBlockBegin
  2
*D47
 70
     1
 10
0.0
 20
0.0
 30
0.0
  3
*D47
  1

  0
LINE
  5
26637
330
25FEF
100
AcDbEntity
  8
寸法
 62
     0
 48
50.0
370
    -2
100
AcDbLine
 10
5492.765475140901
 20
6246.293210650629
 30
0.0
 11
5361.285990614302
 21
6246.293210650629
 31
0.0
  0
LINE
  5
26638
330
25FEF
100
AcDbEntity
  8
寸法
 62
     0
 48
50.0
370
    -2
100
AcDbLine
 10
5693.600000000007
 20
6973.293210650618
 30
0.0
 11
5361.285990614302
 21
6973.293210650618
 31
0.0
  0
LINE
  5
26639
330
25FEF
100
AcDbEntity
  8
寸法
 62
     0
 48
50.0
370
    -2
100
AcDbLine
 10
5421.285990614302
 20
6246.293210650629
 30
0.0
 11
5421.285990614302
 21
6973.293210650618
 31
0.0
  0
INSERT
  5
2663A
330
25FEF
100
AcDbEntity
  8
寸法
 62
     0
 48
50.0
370
    -2
100
AcDbBlockReference
  2
_DOTSMALL
 10
5421.285990614302
 20
6246.293210650629
 30
0.0
 41
100.0
 42
100.0
 43
100.0
 50
270.0
  0
INSERT
  5
2663B
330
25FEF
100
AcDbEntity
  8
寸法
 62
     0
 48
50.0
370
    -2
100
AcDbBlockReference
  2
_DOTSMALL
 10
5421.285990614302
 20
6973.293210650618
 30
0.0
 41
100.0
 42
100.0
 43
100.0
 50
90.0
  0
MTEXT
  5
2663C
330
25FEF
100
AcDbEntity
  8
寸法
 62
     7
 48
50.0
100
AcDbMText
 10
5321.274179590679
 20
6688.293210650617
 30
0.0
 40
120.0
 41
0.0
 71
     5
 72
     1
  1
\A1;727
  7
STYLE1
 11
0.0000000000000001
 21
1.0
 31
0.0
 73
     1
 44
1.0
1001
ACAD
1000
MTEXTBEGIN
1070
    73
1070
     1
1070
    44
1040
1.0
1070
    74
1070
     0
1000
MTEXTEND
  0
POINT
  5
2663D
330
25FEF
100
AcDbEntity
  8
DEFPOINTS
 62
     0
 48
50.0
100
AcDbPoint
 10
5512.765475140901
 20
6246.293210650629
 30
0.0
  0
POINT
  5
2663E
330
25FEF
100
AcDbEntity
  8
DEFPOINTS
 62
     0
 48
50.0
100
AcDbPoint
 10
5713.600000000008
 20
6973.293210650618
 30
0.0
  0
POINT
  5
2663F
330
25FEF
100
AcDbEntity
  8
DEFPOINTS
 62
     0
 48
50.0
100
AcDbPoint
 10
5421.285990614302
 20
6973.293210650618
 30
0.0
  0
ENDBLK
  5
25FFA
330
25FEF
100
AcDbEntity
  8
0
 48
50.0
100
AcDbBlockEnd
  0
BLOCK
  5
26004
330
25FFB
100
AcDbEntity
  8
0
 48
50.0
100
AcDbBlockBegin
  2
*D48
 70
     1
 10
0.0
 20
0.0
 30
0.0
  3
*D48
  1

  0
LINE
  5
26484
330
25FFB
100
AcDbEntity
  8
寸法
 62
     0
 48
50.0
370
    -2
100
AcDbLine
 10
7285.600000000002
 20
7573.293210650618
 30
0.0
 11
7285.600000000002
 21
8412.559668744528
 31
0.0
  0
LINE
  5
26485
330
25FFB
100
AcDbEntity
  8
寸法
 62
     0
 48
50.0
370
    -2
100
AcDbLine
 10
5061.600000000001
 20
7573.293210650618
 30
0.0
 11
5061.600000000001
 21
8412.559668744528
 31
0.0
  0
LINE
  5
26486
330
25FFB
100
AcDbEntity
  8
寸法
 62
     0
 48
50.0
370
    -2
100
AcDbLine
 10
7285.600000000002
 20
8352.559668744529
 30
0.0
 11
5061.600000000001
 21
8352.559668744529
 31
0.0
  0
INSERT
  5
26487
330
25FFB
100
AcDbEntity
  8
寸法
 62
     0
 48
50.0
370
    -2
100
AcDbBlockReference
  2
_DOTSMALL
 10
7285.600000000002
 20
8352.559668744529
 30
0.0
 41
100.0
 42
100.0
 43
100.0
  0
INSERT
  5
26488
330
25FFB
100
AcDbEntity
  8
寸法
 62
     0
 48
50.0
370
    -2
100
AcDbBlockReference
  2
_DOTSMALL
 10
5061.600000000001
 20
8352.559668744529
 30
0.0
 41
100.0
 42
100.0
 43
100.0
 50
180.0
  0
MTEXT
  5
26489
330
25FFB
100
AcDbEntity
  8
寸法
 62
     7
 48
50.0
100
AcDbMText
 10
6173.600000000001
 20
8452.571479768151
 30
0.0
 40
120.0
 41
0.0
 71
     5
 72
     1
  1
\A1;2224
  7
STYLE1
 73
     1
 44
1.0
1001
ACAD
1000
MTEXTBEGIN
1070
    73
1070
     1
1070
    44
1040
1.0
1070
    74
1070
     0
1000
MTEXTEND
  0
POINT
  5
2648A
330
25FFB
100
AcDbEntity
  8
DEFPOINTS
 62
     0
 48
50.0
100
AcDbPoint
 10
7285.600000000002
 20
7553.293210650618
 30
0.0
  0
POINT
  5
2648B
330
25FFB
100
AcDbEntity
  8
DEFPOINTS
 62
     0
 48
50.0
100
AcDbPoint
 10
5061.600000000001
 20
7553.293210650618
 30
0.0
  0
POINT
  5
2648C
330
25FFB
100
AcDbEntity
  8
DEFPOINTS
 62
     0
 48
50.0
100
AcDbPoint
 10
5061.600000000001
 20
8352.559668744529
 30
0.0
  0
ENDBLK
  5
26005
330
25FFB
100
AcDbEntity
  8
0
 48
50.0
100
AcDbBlockEnd
  0
BLOCK
  5
2601E
330
26013
100
AcDbEntity
  8
0
 48
50.0
100
AcDbBlockBegin
  2
*D49
 70
     1
 10
0.0
 20
0.0
 30
0.0
  3
*D49
  1

  0
LINE
  5
2647A
330
26013
100
AcDbEntity
  8
寸法
 62
     0
 48
50.0
370
    -2
100
AcDbLine
 10
5061.600000000001
 20
7573.293210650618
 30
0.0
 11
5061.600000000001
 21
8412.559668744528
 31
0.0
  0
LINE
  5
2647B
330
26013
100
AcDbEntity
  8
寸法
 62
     0
 48
50.0
370
    -2
100
AcDbLine
 10
4938.6
 20
7646.293210650617
 30
0.0
 11
4938.6
 21
8412.559668744528
 31
0.0
  0
LINE
  5
2647C
330
26013
100
AcDbEntity
  8
寸法
 62
     0
 48
50.0
370
    -2
100
AcDbLine
 10
5061.600000000001
 20
8352.559668744529
 30
0.0
 11
4938.6
 21
8352.559668744529
 31
0.0
  0
LINE
  5
2647D
330
26013
100
AcDbEntity
  8
寸法
 62
     0
 48
50.0
370
    -2
100
AcDbLine
 10
4938.6
 20
8352.559668744529
 30
0.0
 11
4527.008116907963
 21
8352.559668744529
 31
0.0
  0
INSERT
  5
2647E
330
26013
100
AcDbEntity
  8
寸法
 62
     0
 48
50.0
370
    -2
100
AcDbBlockReference
  2
_DOTSMALL
 10
5061.600000000001
 20
8352.559668744529
 30
0.0
 41
100.0
 42
100.0
 43
100.0
  0
INSERT
  5
2647F
330
26013
100
AcDbEntity
  8
寸法
 62
     0
 48
50.0
370
    -2
100
AcDbBlockReference
  2
_DOTSMALL
 10
4938.6
 20
8352.559668744529
 30
0.0
 41
100.0
 42
100.0
 43
100.0
 50
180.0
  0
MTEXT
  5
26480
330
26013
100
AcDbEntity
  8
寸法
 62
     7
 48
50.0
100
AcDbMText
 10
4665.493398282202
 20
8452.571479768151
 30
0.0
 40
120.0
 41
0.0
 71
     5
 72
     1
  1
\A1;123
  7
STYLE1
 73
     1
 44
1.0
1001
ACAD
1000
MTEXTBEGIN
1070
    73
1070
     1
1070
    44
1040
1.0
1070
    74
1070
     0
1000
MTEXTEND
  0
POINT
  5
26481
330
26013
100
AcDbEntity
  8
DEFPOINTS
 62
     0
 48
50.0
100
AcDbPoint
 10
5061.600000000001
 20
7553.293210650618
 30
0.0
  0
POINT
  5
26482
330
26013
100
AcDbEntity
  8
DEFPOINTS
 62
     0
 48
50.0
100
AcDbPoint
 10
4938.6
 20
7626.293210650619
 30
0.0
  0
POINT
  5
26483
330
26013
100
AcDbEntity
  8
DEFPOINTS
 62
     0
 48
50.0
100
AcDbPoint
 10
4938.6
 20
8352.559668744529
 30
0.0
  0
ENDBLK
  5
2601F
330
26013
100
AcDbEntity
  8
0
 48
50.0
100
AcDbBlockEnd
  0
BLOCK
  5
2602B
330
26020
100
AcDbEntity
  8
0
 48
50.0
100
AcDbBlockBegin
  2
*D50
 70
     1
 10
0.0
 20
0.0
 30
0.0
  3
*D50
  1

  0
LINE
  5
26470
330
26020
100
AcDbEntity
  8
寸法
 62
     0
 48
50.0
370
    -2
100
AcDbLine
 10
4918.600000000001
 20
7626.293210650619
 30
0.0
 11
4255.665006330072
 21
7626.293210650619
 31
0.0
  0
LINE
  5
26471
330
26020
100
AcDbEntity
  8
寸法
 62
     0
 48
50.0
370
    -2
100
AcDbLine
 10
4991.6
 20
7503.293210650618
 30
0.0
 11
4255.665006330072
 21
7503.293210650618
 31
0.0
  0
LINE
  5
26472
330
26020
100
AcDbEntity
  8
寸法
 62
     0
 48
50.0
370
    -2
100
AcDbLine
 10
4315.665006330072
 20
7503.293210650618
 30
0.0
 11
4315.665006330072
 21
7626.293210650619
 31
0.0
  0
LINE
  5
26473
330
26020
100
AcDbEntity
  8
寸法
 62
     0
 48
50.0
370
    -2
100
AcDbLine
 10
4315.665006330072
 20
7626.293210650619
 30
0.0
 11
4315.665006330072
 21
8037.885093742657
 31
0.0
  0
INSERT
  5
26474
330
26020
100
AcDbEntity
  8
寸法
 62
     0
 48
50.0
370
    -2
100
AcDbBlockReference
  2
_DOTSMALL
 10
4315.665006330072
 20
7503.293210650618
 30
0.0
 41
100.0
 42
100.0
 43
100.0
 50
270.0
  0
INSERT
  5
26475
330
26020
100
AcDbEntity
  8
寸法
 62
     0
 48
50.0
370
    -2
100
AcDbBlockReference
  2
_DOTSMALL
 10
4315.665006330072
 20
7626.293210650619
 30
0.0
 41
100.0
 42
100.0
 43
100.0
 50
90.0
  0
MTEXT
  5
26476
330
26020
100
AcDbEntity
  8
寸法
 62
     7
 48
50.0
100
AcDbMText
 10
4215.653195306449
 20
7899.399812368418
 30
0.0
 40
120.0
 41
0.0
 71
     5
 72
     1
  1
\A1;123
  7
STYLE1
 11
0.0000000000000001
 21
1.0
 31
0.0
 73
     1
 44
1.0
1001
ACAD
1000
MTEXTBEGIN
1070
    73
1070
     1
1070
    44
1040
1.0
1070
    74
1070
     0
1000
MTEXTEND
  0
POINT
  5
26477
330
26020
100
AcDbEntity
  8
DEFPOINTS
 62
     0
 48
50.0
100
AcDbPoint
 10
4938.6
 20
7626.293210650619
 30
0.0
  0
POINT
  5
26478
330
26020
100
AcDbEntity
  8
DEFPOINTS
 62
     0
 48
50.0
100
AcDbPoint
 10
5011.600000000001
 20
7503.293210650618
 30
0.0
  0
POINT
  5
26479
330
26020
100
AcDbEntity
  8
DEFPOINTS
 62
     0
 48
50.0
100
AcDbPoint
 10
4315.665006330072
 20
7503.293210650618
 30
0.0
  0
ENDBLK
  5
2602C
330
26020
100
AcDbEntity
  8
0
 48
50.0
100
AcDbBlockEnd
  0
BLOCK
  5
26962
330
26958
100
AcDbEntity
  8
0
 48
50.0
100
AcDbBlockBegin
  2
*D57
 70
     1
 10
0.0
 20
0.0
 30
0.0
  3
*D57
  1

  0
LINE
  5
269A2
330
26958
100
AcDbEntity
  8
寸法
 62
     0
 48
50.0
370
    -2
100
AcDbLine
 10
8694.82298147985
 20
2003.166454502361
 30
0.0
 11
9236.691581248695
 21
2003.166454502361
 31
0.0
  0
LINE
  5
269A3
330
26958
100
AcDbEntity
  8
寸法
 62
     0
 48
50.0
370
    -2
100
AcDbLine
 10
8694.82298147985
 20
1679.16645450236
 30
0.0
 11
9236.691581248695
 21
1679.16645450236
 31
0.0
  0
LINE
  5
269A4
330
26958
100
AcDbEntity
  8
寸法
 62
     0
 48
50.0
370
    -2
100
AcDbLine
 10
9176.691581248695
 20
2003.166454502361
 30
0.0
 11
9176.691581248695
 21
1679.16645450236
 31
0.0
  0
INSERT
  5
269A5
330
26958
100
AcDbEntity
  8
寸法
 62
     0
 48
50.0
370
    -2
100
AcDbBlockReference
  2
_DOTSMALL
 10
9176.691581248695
 20
2003.166454502361
 30
0.0
 41
100.0
 42
100.0
 43
100.0
 50
90.0
  0
INSERT
  5
269A6
330
26958
100
AcDbEntity
  8
寸法
 62
     0
 48
50.0
370
    -2
100
AcDbBlockReference
  2
_DOTSMALL
 10
9176.691581248695
 20
1679.16645450236
 30
0.0
 41
100.0
 42
100.0
 43
100.0
 50
270.0
  0
MTEXT
  5
269A7
330
26958
100
AcDbEntity
  8
寸法
 62
     7
 48
50.0
100
AcDbMText
 10
9076.691581248695
 20
1841.166454502362
 30
0.0
 40
120.0
 41
0.0
 71
     5
 72
     1
  1
\A1;180
  7
STYLE1
 11
0.0000000000000001
 21
1.0
 31
0.0
 73
     1
 44
1.0
1001
ACAD
1000
MTEXTBEGIN
1070
    73
1070
     1
1070
    44
1040
1.0
1070
    74
1070
     0
1000
MTEXTEND
  0
POINT
  5
269A8
330
26958
100
AcDbEntity
  8
DEFPOINTS
 62
     0
 48
50.0
100
AcDbPoint
 10
8674.82298147985
 20
2003.166454502361
 30
0.0
  0
POINT
  5
269A9
330
26958
100
AcDbEntity
  8
DEFPOINTS
 62
     0
 48
50.0
100
AcDbPoint
 10
8674.82298147985
 20
1679.16645450236
 30
0.0
  0
POINT
  5
269AA
330
26958
100
AcDbEntity
  8
DEFPOINTS
 62
     0
 48
50.0
100
AcDbPoint
 10
9176.691581248695
 20
1679.16645450236
 30
0.0
  0
ENDBLK
  5
26963
330
26958
100
AcDbEntity
  8
0
 48
50.0
100
AcDbBlockEnd
  0
BLOCK
  5
26970
330
26964
100
AcDbEntity
  8
0
 48
50.0
100
AcDbBlockBegin
  2
*D58
 70
     1
 10
0.0
 20
0.0
 30
0.0
  3
*D58
  1

  0
LINE
  5
269AB
330
26964
100
AcDbEntity
  8
寸法
 62
     0
 48
50.0
370
    -2
100
AcDbLine
 10
8507.622981479853
 20
2055.926454502363
 30
0.0
 11
9512.746247367722
 21
2055.926454502362
 31
0.0
  0
LINE
  5
269AC
330
26964
100
AcDbEntity
  8
寸法
 62
     0
 48
50.0
370
    -2
100
AcDbLine
 10
8694.82298147985
 20
2003.166454502361
 30
0.0
 11
9512.746247367722
 21
2003.166454502361
 31
0.0
  0
LINE
  5
269AD
330
26964
100
AcDbEntity
  8
寸法
 62
     0
 48
50.0
370
    -2
100
AcDbLine
 10
9452.746247367723
 20
2055.926454502362
 30
0.0
 11
9452.746247367723
 21
2155.926454502362
 31
0.0
  0
LINE
  5
269AE
330
26964
100
AcDbEntity
  8
寸法
 62
     0
 48
50.0
370
    -2
100
AcDbLine
 10
9452.746247367723
 20
2003.166454502361
 30
0.0
 11
9452.746247367723
 21
1271.148647659394
 31
0.0
  0
LINE
  5
269AF
330
26964
100
AcDbEntity
  8
寸法
 62
     0
 48
50.0
370
    -2
100
AcDbLine
 10
9452.746247367723
 20
2055.926454502362
 30
0.0
 11
9452.746247367723
 21
2003.166454502361
 31
0.0
  0
INSERT
  5
269B0
330
26964
100
AcDbEntity
  8
寸法
 62
     0
 48
50.0
370
    -2
100
AcDbBlockReference
  2
_DOTSMALL
 10
9452.746247367723
 20
2055.926454502362
 30
0.0
 41
100.0
 42
100.0
 43
100.0
 50
270.0
  0
INSERT
  5
269B1
330
26964
100
AcDbEntity
  8
寸法
 62
     0
 48
50.0
370
    -2
100
AcDbBlockReference
  2
_DOTSMALL
 10
9452.746247367723
 20
2003.166454502361
 30
0.0
 41
100.0
 42
100.0
 43
100.0
 50
90.0
  0
MTEXT
  5
269B2
330
26964
100
AcDbEntity
  8
寸法
 62
     7
 48
50.0
100
AcDbMText
 10
9352.7344363441
 20
1537.157551080879
 30
0.0
 40
120.0
 41
0.0
 71
     5
 72
     1
  1
\A1;20～25
  7
STYLE1
 11
0.0000000000000001
 21
1.0
 31
0.0
 73
     1
 44
1.0
1001
ACAD
1000
MTEXTBEGIN
1070
    73
1070
     1
1070
    44
1040
1.0
1070
    74
1070
     0
1000
MTEXTEND
  0
POINT
  5
269B3
330
26964
100
AcDbEntity
  8
DEFPOINTS
 62
     0
 48
50.0
100
AcDbPoint
 10
8487.622981479852
 20
2055.926454502363
 30
0.0
  0
POINT
  5
269B4
330
26964
100
AcDbEntity
  8
DEFPOINTS
 62
     0
 48
50.0
100
AcDbPoint
 10
8674.82298147985
 20
2003.166454502361
 30
0.0
  0
POINT
  5
269B5
330
26964
100
AcDbEntity
  8
DEFPOINTS
 62
     0
 48
50.0
100
AcDbPoint
 10
9452.746247367723
 20
2003.166454502361
 30
0.0
  0
ENDBLK
  5
26971
330
26964
100
AcDbEntity
  8
0
 48
50.0
100
AcDbBlockEnd
  0
BLOCK
  5
2697C
330
26972
100
AcDbEntity
  8
0
 48
50.0
100
AcDbBlockBegin
  2
*D59
 70
     1
 10
0.0
 20
0.0
 30
0.0
  3
*D59
  1

  0
LINE
  5
269B6
330
26972
100
AcDbEntity
  8
寸法
 62
     0
 48
50.0
370
    -2
100
AcDbLine
 10
6412.783668302657
 20
1459.166454502361
 30
0.0
 11
6230.363354570197
 21
1459.166454502361
 31
0.0
  0
LINE
  5
269B7
330
26972
100
AcDbEntity
  8
寸法
 62
     0
 48
50.0
370
    -2
100
AcDbLine
 10
6332.783668302661
 20
1219.166454502361
 30
0.0
 11
6230.363354570197
 21
1219.166454502361
 31
0.0
  0
LINE
  5
269B8
330
26972
100
AcDbEntity
  8
寸法
 62
     0
 48
50.0
370
    -2
100
AcDbLine
 10
6290.363354570198
 20
1459.166454502361
 30
0.0
 11
6290.363354570198
 21
1219.166454502361
 31
0.0
  0
INSERT
  5
269B9
330
26972
100
AcDbEntity
  8
寸法
 62
     0
 48
50.0
370
    -2
100
AcDbBlockReference
  2
_DOTSMALL
 10
6290.363354570198
 20
1459.166454502361
 30
0.0
 41
100.0
 42
100.0
 43
100.0
 50
90.0
  0
INSERT
  5
269BA
330
26972
100
AcDbEntity
  8
寸法
 62
     0
 48
50.0
370
    -2
100
AcDbBlockReference
  2
_DOTSMALL
 10
6290.363354570198
 20
1219.166454502361
 30
0.0
 41
100.0
 42
100.0
 43
100.0
 50
270.0
  0
MTEXT
  5
269BB
330
26972
100
AcDbEntity
  8
寸法
 62
     7
 48
50.0
100
AcDbMText
 10
6190.363354570198
 20
1339.166454502362
 30
0.0
 40
120.0
 41
0.0
 71
     5
 72
     1
  1
\A1;150
  7
STYLE1
 11
0.0000000000000001
 21
1.0
 31
0.0
 73
     1
 44
1.0
1001
ACAD
1000
MTEXTBEGIN
1070
    73
1070
     1
1070
    44
1040
1.0
1070
    74
1070
     0
1000
MTEXTEND
  0
POINT
  5
269BC
330
26972
100
AcDbEntity
  8
DEFPOINTS
 62
     0
 48
50.0
100
AcDbPoint
 10
6432.783668302658
 20
1459.166454502361
 30
0.0
  0
POINT
  5
269BD
330
26972
100
AcDbEntity
  8
DEFPOINTS
 62
     0
 48
50.0
100
AcDbPoint
 10
6352.78366830266
 20
1219.166454502361
 30
0.0
  0
POINT
  5
269BE
330
26972
100
AcDbEntity
  8
DEFPOINTS
 62
     0
 48
50.0
100
AcDbPoint
 10
6290.363354570198
 20
1219.166454502361
 30
0.0
  0
ENDBLK
  5
2697D
330
26972
100
AcDbEntity
  8
0
 48
50.0
100
AcDbBlockEnd
  0
BLOCK
  5
26988
330
2697E
100
AcDbEntity
  8
0
 48
50.0
100
AcDbBlockBegin
  2
*D60
 70
     1
 10
0.0
 20
0.0
 30
0.0
  3
*D60
  1

  0
LINE
  5
269BF
330
2697E
100
AcDbEntity
  8
寸法
 62
     0
 48
50.0
370
    -2
100
AcDbLine
 10
6540.783668302657
 20
2003.166454502361
 30
0.0
 11
5765.746429740917
 21
2003.166454502361
 31
0.0
  0
LINE
  5
269C0
330
2697E
100
AcDbEntity
  8
寸法
 62
     0
 48
50.0
370
    -2
100
AcDbLine
 10
6332.783668302661
 20
1219.166454502361
 30
0.0
 11
5765.746429740917
 21
1219.166454502361
 31
0.0
  0
LINE
  5
269C1
330
2697E
100
AcDbEntity
  8
寸法
 62
     0
 48
50.0
370
    -2
100
AcDbLine
 10
5825.746429740917
 20
2003.166454502361
 30
0.0
 11
5825.746429740917
 21
1219.166454502361
 31
0.0
  0
INSERT
  5
269C2
330
2697E
100
AcDbEntity
  8
寸法
 62
     0
 48
50.0
370
    -2
100
AcDbBlockReference
  2
_DOTSMALL
 10
5825.746429740917
 20
2003.166454502361
 30
0.0
 41
100.0
 42
100.0
 43
100.0
 50
90.0
  0
INSERT
  5
269C3
330
2697E
100
AcDbEntity
  8
寸法
 62
     0
 48
50.0
370
    -2
100
AcDbBlockReference
  2
_DOTSMALL
 10
5825.746429740917
 20
1219.166454502361
 30
0.0
 41
100.0
 42
100.0
 43
100.0
 50
270.0
  0
MTEXT
  5
269C4
330
2697E
100
AcDbEntity
  8
寸法
 62
     7
 48
50.0
100
AcDbMText
 10
5725.746429740917
 20
1590.706604158362
 30
0.0
 40
120.0
 41
0.0
 71
     5
 72
     1
  1
\A1;540
  7
STYLE1
 11
0.0000000000000001
 21
1.0
 31
0.0
 73
     1
 44
1.0
1001
ACAD
1000
MTEXTBEGIN
1070
    73
1070
     1
1070
    44
1040
1.0
1070
    74
1070
     0
1000
MTEXTEND
  0
POINT
  5
269C5
330
2697E
100
AcDbEntity
  8
DEFPOINTS
 62
     0
 48
50.0
100
AcDbPoint
 10
6560.783668302658
 20
2003.166454502361
 30
0.0
  0
POINT
  5
269C6
330
2697E
100
AcDbEntity
  8
DEFPOINTS
 62
     0
 48
50.0
100
AcDbPoint
 10
6352.78366830266
 20
1219.166454502361
 30
0.0
  0
POINT
  5
269C7
330
2697E
100
AcDbEntity
  8
DEFPOINTS
 62
     0
 48
50.0
100
AcDbPoint
 10
5825.746429740917
 20
1219.166454502361
 30
0.0
  0
ENDBLK
  5
26989
330
2697E
100
AcDbEntity
  8
0
 48
50.0
100
AcDbBlockEnd
  0
BLOCK
  5
26994
330
2698A
100
AcDbEntity
  8
0
 48
50.0
100
AcDbBlockBegin
  2
*D61
 70
     1
 10
0.0
 20
0.0
 30
0.0
  3
*D61
  1

  0
LINE
  5
269C8
330
2698A
100
AcDbEntity
  8
寸法
 62
     0
 48
50.0
370
    -2
100
AcDbLine
 10
6432.783668302658
 20
1071.166454502361
 30
0.0
 11
6432.783668302658
 21
620.7368164972012
 31
0.0
  0
LINE
  5
269C9
330
2698A
100
AcDbEntity
  8
寸法
 62
     0
 48
50.0
370
    -2
100
AcDbLine
 10
6880.783668302658
 20
1071.166454502361
 30
0.0
 11
6880.783668302658
 21
620.7368164972012
 31
0.0
  0
LINE
  5
269CA
330
2698A
100
AcDbEntity
  8
寸法
 62
     0
 48
50.0
370
    -2
100
AcDbLine
 10
6432.783668302658
 20
680.7368164972013
 30
0.0
 11
6880.783668302658
 21
680.7368164972013
 31
0.0
  0
INSERT
  5
269CB
330
2698A
100
AcDbEntity
  8
寸法
 62
     0
 48
50.0
370
    -2
100
AcDbBlockReference
  2
_DOTSMALL
 10
6432.783668302658
 20
680.7368164972013
 30
0.0
 41
100.0
 42
100.0
 43
100.0
 50
180.0
  0
INSERT
  5
269CC
330
2698A
100
AcDbEntity
  8
寸法
 62
     0
 48
50.0
370
    -2
100
AcDbBlockReference
  2
_DOTSMALL
 10
6880.783668302658
 20
680.7368164972013
 30
0.0
 41
100.0
 42
100.0
 43
100.0
  0
MTEXT
  5
269CD
330
2698A
100
AcDbEntity
  8
寸法
 62
     7
 48
50.0
100
AcDbMText
 10
6636.686909624434
 20
780.7368164972013
 30
0.0
 40
120.0
 41
0.0
 71
     5
 72
     1
  1
\A1;300
  7
STYLE1
 73
     1
 44
1.0
1001
ACAD
1000
MTEXTBEGIN
1070
    73
1070
     1
1070
    44
1040
1.0
1070
    74
1070
     0
1000
MTEXTEND
  0
POINT
  5
269CE
330
2698A
100
AcDbEntity
  8
DEFPOINTS
 62
     0
 48
50.0
100
AcDbPoint
 10
6432.783668302658
 20
1091.166454502361
 30
0.0
  0
POINT
  5
269CF
330
2698A
100
AcDbEntity
  8
DEFPOINTS
 62
     0
 48
50.0
100
AcDbPoint
 10
6880.783668302658
 20
1091.166454502361
 30
0.0
  0
POINT
  5
269D0
330
2698A
100
AcDbEntity
  8
DEFPOINTS
 62
     0
 48
50.0
100
AcDbPoint
 10
6880.783668302658
 20
680.7368164972013
 30
0.0
  0
ENDBLK
  5
26995
330
2698A
100
AcDbEntity
  8
0
 48
50.0
100
AcDbBlockEnd
  0
BLOCK
  5
269A0
330
26996
100
AcDbEntity
  8
0
 48
50.0
100
AcDbBlockBegin
  2
*D62
 70
     1
 10
0.0
 20
0.0
 30
0.0
  3
*D62
  1

  0
LINE
  5
269D1
330
26996
100
AcDbEntity
  8
寸法
 62
     0
 48
50.0
370
    -2
100
AcDbLine
 10
6752.783668302658
 20
2023.166454502362
 30
0.0
 11
6752.783668302658
 21
2482.834262418742
 31
0.0
  0
LINE
  5
269D2
330
26996
100
AcDbEntity
  8
寸法
 62
     0
 48
50.0
370
    -2
100
AcDbLine
 10
6560.783668302658
 20
2023.166454502362
 30
0.0
 11
6560.783668302658
 21
2482.834262418742
 31
0.0
  0
LINE
  5
269D3
330
26996
100
AcDbEntity
  8
寸法
 62
     0
 48
50.0
370
    -2
100
AcDbLine
 10
6752.783668302658
 20
2422.834262418742
 30
0.0
 11
6560.783668302658
 21
2422.834262418742
 31
0.0
  0
INSERT
  5
269D4
330
26996
100
AcDbEntity
  8
寸法
 62
     0
 48
50.0
370
    -2
100
AcDbBlockReference
  2
_DOTSMALL
 10
6752.783668302658
 20
2422.834262418742
 30
0.0
 41
100.0
 42
100.0
 43
100.0
  0
INSERT
  5
269D5
330
26996
100
AcDbEntity
  8
寸法
 62
     0
 48
50.0
370
    -2
100
AcDbBlockReference
  2
_DOTSMALL
 10
6560.783668302658
 20
2422.834262418742
 30
0.0
 41
100.0
 42
100.0
 43
100.0
 50
180.0
  0
MTEXT
  5
269D6
330
26996
100
AcDbEntity
  8
寸法
 62
     7
 48
50.0
100
AcDbMText
 10
6656.783668302657
 20
2722.869695489608
 30
0.0
 40
120.0
 41
0.0
 71
     5
 72
     1
  1
\A1;120\P200\P280
  7
STYLE1
 73
     1
 44
1.0
1001
ACAD
1000
MTEXTBEGIN
1070
    73
1070
     1
1070
    44
1040
1.0
1070
    74
1070
     0
1000
MTEXTEND
  0
POINT
  5
269D7
330
26996
100
AcDbEntity
  8
DEFPOINTS
 62
     0
 48
50.0
100
AcDbPoint
 10
6752.783668302658
 20
2003.166454502361
 30
0.0
  0
POINT
  5
269D8
330
26996
100
AcDbEntity
  8
DEFPOINTS
 62
     0
 48
50.0
100
AcDbPoint
 10
6560.783668302658
 20
2003.166454502361
 30
0.0
  0
POINT
  5
269D9
330
26996
100
AcDbEntity
  8
DEFPOINTS
 62
     0
 48
50.0
100
AcDbPoint
 10
6560.783668302658
 20
2422.834262418742
 30
0.0
  0
ENDBLK
  5
269A1
330
26996
100
AcDbEntity
  8
0
 48
50.0
100
AcDbBlockEnd
  0
ENDSEC
  0
SECTION
  2
ENTITIES
  0
MTEXT
  5
763F
330
747D
100
AcDbEntity
  8
0
100
AcDbMText
 10
302.846345836809
 20
280.1983726409901
 30
0.0
 40
3.5
 41
5.323721266742722
 71
     1
 72
     5
  1

  7
MSMINCHO
 73
     1
 44
1.0
1001
ACAD
1000
MTEXTBEGIN
1070
    73
1070
     1
1070
    44
1040
1.0
1070
    74
1070
     0
1000
MTEXTEND
  0
LINE
  5
10B57
330
747D
100
AcDbEntity
  8
補助
  6
PHANTOM
 62
   230
 48
50.0
100
AcDbLine
 10
139.9999999999995
 20
11409.6
 30
0.0
 11
16307.2
 21
11409.6
 31
0.0
  0
LINE
  5
10B59
330
747D
100
AcDbEntity
  8
仕様書枠
  6
Continuous
 48
50.0
100
AcDbLine
 10
13107.2
 20
1200.0
 30
0.0
 11
13107.2
 21
-0.0000000000000729
 31
0.0
  0
LINE
  5
10B5D
330
747D
100
AcDbEntity
  8
仕様書枠
 48
50.0
100
AcDbLine
 10
140.0
 20
0.0
 30
0.0
 11
16307.2
 21
-0.0000000000000909
 31
0.0
  0
LINE
  5
10B5E
330
747D
100
AcDbEntity
  8
補助
  6
PHANTOM
 62
   230
 48
50.0
100
AcDbLine
 10
16307.2
 20
11409.6
 30
0.0
 11
16307.2
 21
1200.0
 31
0.0
  0
LINE
  5
10B6C
330
747D
100
AcDbEntity
  8
仕様書枠
 48
50.0
100
AcDbLine
 10
13107.2
 20
1200.0
 30
0.0
 11
16307.2
 21
1200.0
 31
0.0
  0
TEXT
  5
10B73
330
747D
100
AcDbEntity
  8
文字
 62
     7
 48
50.0
100
AcDbText
 10
13162.9790565769
 20
895.0906074299405
 30
0.0
 40
200.0
  1
基 礎 図
  7
STYLE2
100
AcDbText
  0
LINE
  5
10B7B
330
747D
100
AcDbEntity
  8
仕様書枠
 48
50.0
100
AcDbLine
 10
13107.2
 20
800.0
 30
0.0
 11
14251.2
 21
800.0
 31
0.0
  0
LINE
  5
10B88
330
747D
100
AcDbEntity
  8
仕様書枠
  6
Continuous
 48
50.0
100
AcDbLine
 10
14251.2
 20
1200.0
 30
0.0
 11
14251.2
 21
800.0
 31
0.0
  0
LINE
  5
16462
330
747D
100
AcDbEntity
  8
仕様書枠
 48
50.0
100
AcDbLine
 10
16307.2
 20
1200.0
 30
0.0
 11
16307.2
 21
-0.0000000000000909
 31
0.0
  0
LINE
  5
1903B
330
747D
100
AcDbEntity
  8
補助
  6
PHANTOM
 62
   230
 48
50.0
100
AcDbLine
 10
140.0
 20
0.0
 30
0.0
 11
139.9999999999995
 21
11409.6
 31
0.0
  0
LEADER
  5
1AC27
330
747D
100
AcDbEntity
  8
寸法
 48
50.0
100
AcDbLeader
  3
INABA_S50G
 73
     0
 74
     0
 75
     1
 40
120.0
 41
720.0000000000001
 76
     3
 10
11508.69549961499
 20
6957.086327395358
 30
0.0
 10
11665.46907400128
 20
6696.072413827526
 30
0.0
 10
11790.46907400128
 20
6696.072413827526
 30
0.0
340
1AC28
1001
ACAD
1000
DSTYLE
1002
{
1070
   341
1005
0
1070
    40
1040
1.0
1070
   343
1005
0
1070
   344
1005
0
1002
}
  0
MTEXT
  5
1AC28
102
{ACAD_REACTORS
330
1AC27
102
}
330
747D
100
AcDbEntity
  8
部品1
 62
     7
 48
50.0
100
AcDbMText
 10
12535.46907400128
 20
6781.072413827525
 30
0.0
 40
120.0
 41
0.0
 71
     6
 72
     1
  1
\A1;床下換気口
  7
STYLE1
 73
     1
 44
1.0
1001
ACAD
1000
MTEXTBEGIN
1070
    73
1070
     1
1070
    44
1040
1.0
1070
    74
1070
     0
1000
MTEXTEND
  0
TEXT
  5
1AC29
330
747D
100
AcDbEntity
  8
部品1
 48
50.0
100
AcDbText
 10
11857.43013846118
 20
6036.18660346365
 30
0.0
 40
80.0
  1
(a=45,b=55,c=75)
  7
STYLE1
100
AcDbText
  0
TEXT
  5
1AC2A
330
747D
100
AcDbEntity
  8
部品1
 48
50.0
100
AcDbText
 10
11698.85112970687
 20
6143.031824332403
 30
0.0
 40
80.0
  1
※a,b,cは屋根の出幅です。
  7
STYLE1
100
AcDbText
  0
MTEXT
  5
1AC2B
102
{ACAD_REACTORS
330
1AC2C
102
}
330
747D
100
AcDbEntity
  8
部品1
 62
     7
 48
50.0
100
AcDbMText
 10
12496.63832569548
 20
6322.342511265478
 30
0.0
 40
120.0
 41
0.0
 71
     6
 72
     1
  1
\A1;屋根の外寸
  7
STYLE1
 73
     1
 44
1.0
1001
ACAD
1000
MTEXTBEGIN
1070
    73
1070
     1
1070
    44
1040
1.0
1070
    74
1070
     0
1000
MTEXTEND
  0
LEADER
  5
1AC2C
330
747D
100
AcDbEntity
  8
寸法
 48
50.0
100
AcDbLeader
  3
INABA_S50G
 73
     0
 74
     0
 75
     1
 40
120.0
 41
672.0
 76
     3
 10
11558.69831350344
 20
6496.231854729055
 30
0.0
 10
11674.63832569548
 20
6237.342511265478
 30
0.0
 10
11799.63832569548
 20
6237.342511265478
 30
0.0
340
1AC2B
1001
ACAD
1000
DSTYLE
1002
{
1070
   341
1005
0
1070
    40
1040
1.0
1070
   343
1005
0
1070
   344
1005
0
1002
}
  0
TEXT
  5
1C7A1
330
747D
100
AcDbEntity
  8
文字
 62
     7
 48
50.0
100
AcDbText
 10
13188.16259899338
 20
79.80631269190417
 30
0.0
 40
80.0
  1
※布基礎には換気口を設けてください。
  7
STYLE2
100
AcDbText
  0
TEXT
  5
1C7E7
330
747D
100
AcDbEntity
  8
文字
 62
     7
 48
50.0
100
AcDbText
 10
13188.16259899338
 20
246.7109242801889
 30
0.0
 40
80.0
  1
※寒冷地等は地域の実情に合わせた基礎にして下さい。
  7
STYLE2
100
AcDbText
  0
TEXT
  5
1C7E8
330
747D
100
AcDbEntity
  8
文字
 62
     7
 48
50.0
100
AcDbText
 10
14325.79230300687
 20
499.5983841039506
 30
0.0
 40
160.0
  1
ＮＸＮ－１１ＤＬ－８
  7
STYLE2
100
AcDbText
  0
TEXT
  5
1C7EC
330
747D
100
AcDbEntity
  8
文字
 62
     7
 48
50.0
100
AcDbText
 10
14524.131837222
 20
1031.557706291229
 30
0.0
 40
100.0
  1
<縮尺> S=1/40
  7
STYLE2
100
AcDbText
  0
TEXT
  5
1C7ED
330
747D
100
AcDbEntity
  8
文字
 62
     7
 48
50.0
100
AcDbText
 10
13201.43669998441
 20
477.2740661031257
 30
0.0
 40
160.0
  1
機種名
  7
STYLE2
100
AcDbText
  0
LINE
  5
1C7EF
330
747D
100
AcDbEntity
  8
文字
 62
     7
 48
50.0
100
AcDbLine
 10
13187.2
 20
400.0
 30
0.0
 11
16227.2
 21
400.0
 31
0.0
  0
MTEXT
  5
1D2D5
102
{ACAD_REACTORS
330
1D2D6
102
}
330
747D
100
AcDbEntity
  8
部品1
 62
     7
 48
50.0
100
AcDbMText
 10
12703.99523070988
 20
7941.905954893126
 30
0.0
 40
120.0
 41
0.0
 71
     6
 72
     1
  1
アンカーボルト
  7
STYLE1
 73
     1
 44
1.0
1001
ACAD
1000
MTEXTBEGIN
1070
    73
1070
     1
1070
    44
1040
1.0
1070
    74
1070
     0
1000
MTEXTEND
  0
LEADER
  5
1D2D6
330
747D
100
AcDbEntity
  8
寸法
 48
50.0
100
AcDbLeader
  3
INABA_S50G
 73
     0
 74
     0
 75
     1
 40
120.0
 41
994.3492424049171
 76
     3
 10
11385.680085757
 20
7503.501055009329
 30
0.0
 10
11559.64598830496
 20
7856.905954893125
 30
0.0
 10
11684.64598830496
 20
7856.905954893125
 30
0.0
340
1D2D5
1001
ACAD
1000
DSTYLE
1002
{
1070
   341
1005
0
1070
    40
1040
1.0
1070
   343
1005
0
1070
   344
1005
0
1002
}
  0
MTEXT
  5
1D332
102
{ACAD_REACTORS
330
1D333
102
}
330
747D
100
AcDbEntity
  8
部品1
 62
     7
 48
50.0
100
AcDbMText
 10
11198.82869701569
 20
6827.928914162929
 30
0.0
 40
120.0
 41
0.0
 71
     6
 72
     1
  1
CB
  7
STYLE1
 73
     1
 44
1.0
1001
ACAD
1000
MTEXTBEGIN
1070
    73
1070
     1
1070
    44
1040
1.0
1070
    74
1070
     0
1000
MTEXTEND
  0
LEADER
  5
1D333
330
747D
100
AcDbEntity
  8
寸法
 48
50.0
100
AcDbLeader
  3
INABA_S50G
 73
     0
 74
     0
 75
     1
 40
120.0
 41
149.591883092037
 76
     3
 10
10771.95401106101
 20
6965.647227717756
 30
0.0
 10
10899.23681392366
 20
6742.92891416293
 30
0.0
 10
11024.23681392366
 20
6742.92891416293
 30
0.0
340
1D332
1001
ACAD
1000
DSTYLE
1002
{
1070
   341
1005
0
1070
    40
1040
1.0
1070
   343
1005
0
1070
   344
1005
0
1002
}
  0
DIMENSION
  5
20DE1
330
747D
100
AcDbEntity
  8
寸法
 48
50.0
100
AcDbDimension
  2
*D19
 10
11553.6
 20
8584.513532709539
 30
0.0
 11
11824.77462120246
 21
8584.513532709539
 31
0.0
 70
   160
  1
a
 71
     5
 42
45.0
  3
INABA_S40G
100
AcDbAlignedDimension
 13
11508.6
 23
7626.293210650619
 33
0.0
 14
11553.6
 24
8352.559668744529
 34
0.0
100
AcDbRotatedDimension
1001
ACAD
1000
DSTYLE
1002
{
1070
   341
1005
0
1002
}
  0
DIMENSION
  5
20DFB
330
747D
100
AcDbEntity
  8
寸法
 48
50.0
100
AcDbDimension
  2
*D20
 10
4938.600000000002
 20
8584.513532709555
 30
0.0
 11
4622.425378797543
 21
8584.513532709555
 31
0.0
 70
   160
  1
a
 71
     5
 42
44.99999999999636
  3
INABA_S40G
100
AcDbAlignedDimension
 13
4893.600000000006
 23
8352.559668744545
 33
0.0
 14
4938.600000000002
 24
7626.293210650633
 34
0.0
100
AcDbRotatedDimension
1001
ACAD
1000
DSTYLE
1002
{
1070
   341
1005
0
1002
}
  0
LINE
  5
22711
330
747D
100
AcDbEntity
  8
想像線
 48
10.0
100
AcDbLine
 10
11553.6
 20
7701.293210650618
 30
0.0
 11
4893.600000000006
 21
7701.293210650636
 31
0.0
  0
LINE
  5
22712
330
747D
100
AcDbEntity
  8
想像線
 48
10.0
100
AcDbLine
 10
4893.600000000004
 20
6191.293210650645
 30
0.0
 11
4893.600000000006
 21
7701.293210650636
 31
0.0
  0
LINE
  5
22713
330
747D
100
AcDbEntity
  8
想像線
 48
10.0
100
AcDbLine
 10
11553.6
 20
6191.293210650636
 30
0.0
 11
11553.6
 21
7701.29321065062
 31
0.0
  0
LINE
  5
22714
330
747D
100
AcDbEntity
  8
想像線
 48
10.0
100
AcDbLine
 10
11553.6
 20
6191.293210650636
 30
0.0
 11
4893.600000000006
 21
6191.293210650629
 31
0.0
  0
DIMENSION
  5
22741
330
747D
100
AcDbEntity
  8
寸法
 48
50.0
100
AcDbDimension
  2
*D25
 10
4063.721909610676
 20
7626.293210650633
 30
0.0
 11
3963.721909610676
 21
7663.793210650644
 31
0.0
 70
    32
  1
c
 71
     5
 42
75.0000000000191
  3
INABA_S40G
100
AcDbAlignedDimension
 13
4315.665006330073
 23
7701.293210650651
 33
0.0
 14
4938.600000000002
 24
7626.293210650633
 34
0.0
 50
90.0
100
AcDbRotatedDimension
1001
ACAD
1000
DSTYLE
1002
{
1070
   341
1005
0
1002
}
  0
DIMENSION
  5
2275B
330
747D
100
AcDbEntity
  8
寸法
 48
50.0
100
AcDbDimension
  2
*D26
 10
4063.721909610676
 20
6191.293210650659
 30
0.0
 11
3963.721909610676
 21
6218.793210650639
 31
0.0
 70
    32
  1
b
 71
     5
 42
54.99999999995907
  3
INABA_S40G
100
AcDbAlignedDimension
 13
4938.600000000002
 23
6246.293210650618
 33
0.0
 14
4315.665006330075
 24
6191.293210650659
 34
0.0
 50
90.0
100
AcDbRotatedDimension
1001
ACAD
1000
DSTYLE
1002
{
1070
   341
1005
0
1002
}
  0
DIMENSION
  5
229EC
330
747D
100
AcDbEntity
  8
寸法
 48
50.0
100
AcDbDimension
  2
*D28
 10
10935.46950000081
 20
6246.293210650645
 30
0.0
 11
10935.46950000081
 21
5959.329627973466
 31
0.0
 70
   160
 71
     5
 42
279.9999999999991
  3
INABA_S40G
100
AcDbAlignedDimension
 13
11014.53475000041
 23
6526.293210650644
 33
0.0
 14
11014.53475000041
 24
6246.293210650645
 34
0.0
 50
90.0
100
AcDbRotatedDimension
1001
ACAD
1000
DSTYLE
1002
{
1070
   341
1005
0
1002
}
  0
DIMENSION
  5
229ED
330
747D
100
AcDbEntity
  8
寸法
 48
50.0
100
AcDbDimension
  2
*D29
 10
10935.46950000081
 20
7426.293210650619
 30
0.0
 11
10935.46950000081
 21
7913.256793327781
 31
0.0
 70
   160
 71
     5
 42
199.9999999999945
  3
INABA_S40G
100
AcDbAlignedDimension
 13
11014.53475000041
 23
7626.293210650614
 33
0.0
 14
11014.53475000041
 24
7426.293210650619
 34
0.0
 50
90.0
100
AcDbRotatedDimension
1001
ACAD
1000
DSTYLE
1002
{
1070
   341
1005
0
1002
}
  0
DIMENSION
  5
22A4B
330
747D
100
AcDbEntity
  8
寸法
 48
50.0
100
AcDbDimension
  2
*D27
 10
11388.59999999999
 20
7328.455737923265
 30
0.0
 11
11778.65905511811
 21
7328.455737923265
 31
0.0
 70
   160
 71
     5
 42
120.0000000000036
  3
INABA_S40G
100
AcDbAlignedDimension
 13
11508.6
 23
7345.449001962098
 33
0.0
 14
11388.59999999999
 24
7328.455737923265
 34
0.0
100
AcDbRotatedDimension
1001
ACAD
1000
DSTYLE
1002
{
1070
   341
1005
0
1002
}
  0
LINE
  5
25DA4
330
747D
100
AcDbEntity
  8
部品1
 48
50.0
100
AcDbLine
 10
11388.59999999999
 20
7426.293210650618
 30
0.0
 11
5058.599999999993
 21
7426.293210650621
 31
0.0
  0
DIMENSION
  5
25DA6
330
747D
100
AcDbEntity
  8
寸法
 48
50.0
100
AcDbDimension
  2
*D35
 10
8223.60000000001
 20
8108.902027320866
 30
0.0
 11
8633.60000000001
 21
8208.913838344487
 31
0.0
 70
    32
 71
     5
 42
819.9999999999981
  3
INABA_S40G
100
AcDbAlignedDimension
 13
9043.600000000008
 23
7023.293210650618
 33
0.0
 14
8223.60000000001
 24
7023.293210650618
 34
0.0
100
AcDbRotatedDimension
1001
ACAD
1000
DSTYLE
1002
{
1070
   341
1005
0
1002
}
  0
DIMENSION
  5
25DA7
330
747D
100
AcDbEntity
  8
寸法
 48
50.0
100
AcDbDimension
  2
*D36
 10
7285.600000000002
 20
8352.559668744529
 30
0.0
 11
8105.6
 21
8452.559668744529
 31
0.0
 70
    32
 71
     5
 42
1639.999999999998
  3
INABA_S40G
100
AcDbAlignedDimension
 13
8925.600000000001
 23
7553.293210650618
 33
0.0
 14
7285.600000000002
 24
7553.293210650618
 34
0.0
100
AcDbRotatedDimension
1001
ACAD
1000
DSTYLE
1002
{
1070
   341
1005
0
1002
}
  0
LINE
  5
25DA9
330
747D
100
AcDbEntity
  8
部品1
 48
50.0
100
AcDbLine
 10
11508.6
 20
7626.293210650619
 30
0.0
 11
4938.6
 21
7626.293210650619
 31
0.0
  0
DIMENSION
  5
25DAA
330
747D
100
AcDbEntity
  8
寸法
 48
50.0
100
AcDbDimension
  2
*D37
 10
11508.6
 20
8584.513532709536
 30
0.0
 11
8223.600000000001
 21
8684.513532709535
 31
0.0
 70
    32
 71
     5
 42
6570.0
  3
INABA_S40G
100
AcDbAlignedDimension
 13
4938.6
 23
7626.293210650619
 33
0.0
 14
11508.6
 24
7626.293210650619
 34
0.0
100
AcDbRotatedDimension
1001
ACAD
1000
DSTYLE
1002
{
1070
   341
1005
0
1002
}
  0
LINE
  5
25DAC
330
747D
100
AcDbEntity
  8
部品1
 48
50.0
100
AcDbLine
 10
11508.6
 20
6246.293210650644
 30
0.0
 11
4938.599999999997
 21
6246.293210650614
 31
0.0
  0
LINE
  5
25DAD
330
747D
100
AcDbEntity
  8
細線
 48
50.0
100
AcDbLine
 10
4938.6
 20
6948.415738413763
 30
0.0
 11
5051.477472236871
 21
7061.293210650635
 31
0.0
  0
LINE
  5
25DAE
330
747D
100
AcDbEntity
  8
細線
 48
50.0
100
AcDbLine
 10
4938.6
 20
6993.31701901911
 30
0.0
 11
5006.576191631523
 21
7061.293210650635
 31
0.0
  0
LINE
  5
25DAF
330
747D
100
AcDbEntity
  8
部品1
 48
50.0
100
AcDbLine
 10
8323.600000000009
 20
6873.293210650619
 30
0.0
 11
8323.600000000009
 21
7073.293210650618
 31
0.0
  0
LINE
  5
25DB0
330
747D
100
AcDbEntity
  8
部品1
 48
50.0
100
AcDbLine
 10
6683.600000000009
 20
6873.293210650619
 30
0.0
 11
6683.600000000009
 21
7073.293210650618
 31
0.0
  0
LINE
  5
25DB1
330
747D
100
AcDbEntity
  8
部品1
 48
50.0
100
AcDbLine
 10
7303.60000000001
 20
6873.293210650619
 30
0.0
 11
7303.60000000001
 21
7073.293210650618
 31
0.0
  0
LINE
  5
25DB2
330
747D
100
AcDbEntity
  8
部品1
 48
50.0
100
AcDbLine
 10
7503.60000000001
 20
6873.293210650619
 30
0.0
 11
7503.60000000001
 21
7073.293210650618
 31
0.0
  0
LINE
  5
25DB5
330
747D
100
AcDbEntity
  8
部品1
 48
50.0
100
AcDbLine
 10
8123.600000000008
 20
6873.293210650619
 30
0.0
 11
8123.600000000008
 21
7073.293210650618
 31
0.0
  0
LINE
  5
25DB7
330
747D
100
AcDbEntity
  8
部品1
 48
50.0
100
AcDbLine
 10
5663.600000000008
 20
6873.293210650619
 30
0.0
 11
5663.600000000008
 21
7073.293210650618
 31
0.0
  0
LINE
  5
25DB8
330
747D
100
AcDbEntity
  8
部品1
 48
50.0
100
AcDbLine
 10
5863.600000000008
 20
6873.293210650619
 30
0.0
 11
5863.600000000008
 21
7073.293210650618
 31
0.0
  0
LINE
  5
25DB9
330
747D
100
AcDbEntity
  8
部品1
 48
50.0
100
AcDbLine
 10
6483.600000000009
 20
6873.293210650619
 30
0.0
 11
6483.600000000009
 21
7073.293210650618
 31
0.0
  0
DIMENSION
  5
25DBA
330
747D
100
AcDbEntity
  8
寸法
 48
50.0
100
AcDbDimension
  2
*D38
 10
4315.665006330073
 20
6444.293210650622
 30
0.0
 11
4315.665006330071
 21
6973.793210650618
 31
0.0
 70
   160
 71
     5
 42
1058.999999999996
  3
INABA_S40G
100
AcDbAlignedDimension
 13
5011.600000000001
 23
7503.293210650618
 33
0.0
 14
5011.600000000008
 24
6444.293210650622
 34
0.0
 50
90.0
100
AcDbRotatedDimension
1001
ACAD
1000
DSTYLE
1002
{
1070
   341
1005
0
1002
}
  0
DIMENSION
  5
25DBB
330
747D
100
AcDbEntity
  8
寸法
 48
50.0
100
AcDbDimension
  2
*D39
 10
7403.60000000001
 20
8108.902027320866
 30
0.0
 11
7813.600000000009
 21
8208.913838344487
 31
0.0
 70
    32
 71
     5
 42
820.0
  3
INABA_S40G
100
AcDbAlignedDimension
 13
8223.60000000001
 23
7023.293210650618
 33
0.0
 14
7403.60000000001
 24
7023.293210650618
 34
0.0
100
AcDbRotatedDimension
1001
ACAD
1000
DSTYLE
1002
{
1070
   341
1005
0
1002
}
  0
DIMENSION
  5
25DBC
330
747D
100
AcDbEntity
  8
寸法
 48
50.0
100
AcDbDimension
  2
*D40
 10
4063.721909610674
 20
6246.293210650618
 30
0.0
 11
4063.721909610673
 21
6973.793210650618
 31
0.0
 70
   160
 71
     5
 42
1380.0
  3
INABA_S40G
100
AcDbAlignedDimension
 13
4938.6
 23
7626.293210650619
 33
0.0
 14
4938.6
 24
6246.293210650618
 34
0.0
 50
90.0
100
AcDbRotatedDimension
1001
ACAD
1000
DSTYLE
1002
{
1070
   341
1005
0
1002
}
  0
DIMENSION
  5
25DBD
330
747D
100
AcDbEntity
  8
寸法
 48
50.0
100
AcDbDimension
  2
*D41
 10
5763.600000000008
 20
8108.902027320866
 30
0.0
 11
6173.600000000009
 21
8208.913838344487
 31
0.0
 70
    32
 71
     5
 42
820.0000000000018
  3
INABA_S40G
100
AcDbAlignedDimension
 13
6583.60000000001
 23
7023.293210650618
 33
0.0
 14
5763.600000000008
 24
7023.293210650618
 34
0.0
100
AcDbRotatedDimension
1001
ACAD
1000
DSTYLE
1002
{
1070
   341
1005
0
1002
}
  0
DIMENSION
  5
25DBE
330
747D
100
AcDbEntity
  8
寸法
 48
50.0
100
AcDbDimension
  2
*D42
 10
4938.6
 20
8108.902027320866
 30
0.0
 11
5351.100000000004
 21
8208.913838344487
 31
0.0
 70
    32
 71
     5
 42
825.0000000000072
  3
INABA_S40G
100
AcDbAlignedDimension
 13
5763.600000000008
 23
7023.293210650618
 33
0.0
 14
4938.6
 24
7626.293210650619
 34
0.0
100
AcDbRotatedDimension
1001
ACAD
1000
DSTYLE
1002
{
1070
   341
1005
0
1002
}
  0
DIMENSION
  5
25DBF
330
747D
100
AcDbEntity
  8
寸法
 48
50.0
100
AcDbDimension
  2
*D43
 10
6583.60000000001
 20
8108.902027320866
 30
0.0
 11
6993.600000000009
 21
8208.913838344487
 31
0.0
 70
    32
 71
     5
 42
820.0
  3
INABA_S40G
100
AcDbAlignedDimension
 13
7403.60000000001
 23
7023.293210650618
 33
0.0
 14
6583.60000000001
 24
7023.293210650618
 34
0.0
100
AcDbRotatedDimension
1001
ACAD
1000
DSTYLE
1002
{
1070
   341
1005
0
1002
}
  0
LINE
  5
25DC1
330
747D
100
AcDbEntity
  8
部品1
 48
50.0
100
AcDbLine
 10
4938.6
 20
6246.293210650618
 30
0.0
 11
4938.6
 21
7626.293210650619
 31
0.0
  0
DIMENSION
  5
25DC2
330
747D
100
AcDbEntity
  8
寸法
 48
50.0
100
AcDbDimension
  2
*D44
 10
5421.285990614304
 20
7626.293210650619
 30
0.0
 11
5421.285990614302
 21
7236.256481520505
 31
0.0
 70
   160
 71
     5
 42
653.0
  3
INABA_S40G
100
AcDbAlignedDimension
 13
5713.600000000008
 23
6973.293210650618
 33
0.0
 14
5512.765475140901
 24
7626.293210650619
 34
0.0
 50
90.0
100
AcDbRotatedDimension
1001
ACAD
1000
DSTYLE
1002
{
1070
   341
1005
0
1002
}
  0
DIMENSION
  5
25DC3
330
747D
100
AcDbEntity
  8
寸法
 48
50.0
100
AcDbDimension
  2
*D45
 10
4825.512673767882
 20
5526.293210650614
 30
0.0
 11
4825.51267376788
 21
5886.293210650615
 31
0.0
 70
   160
  1
扉の出<>
 71
     5
 42
720.0
  3
INABA_S40G
100
AcDbAlignedDimension
 13
4938.600000000004
 23
6246.293210650614
 33
0.0
 14
5294.325326928809
 24
5526.293210650614
 34
0.0
 50
90.0
100
AcDbRotatedDimension
1001
ACAD
1000
DSTYLE
1002
{
1070
   341
1005
0
1002
}
  0
ARC
  5
25DC4
330
747D
100
AcDbEntity
  8
想像線
 48
5.0
100
AcDbCircle
 10
5708.600000000004
 20
6246.293210650621
 30
0.0
 40
720.0
100
AcDbArc
 50
180.0
 51
270.0
  0
DIMENSION
  5
25DC5
330
747D
100
AcDbEntity
  8
寸法
 48
50.0
100
AcDbDimension
  2
*D46
 10
4315.665006330073
 20
6246.293210650618
 30
0.0
 11
4315.665006330071
 21
5910.762261808025
 31
0.0
 70
   160
 71
     5
 42
198.0000000000036
  3
INABA_S40G
100
AcDbAlignedDimension
 13
5011.600000000008
 23
6444.293210650622
 33
0.0
 14
4938.6
 24
6246.293210650618
 34
0.0
 50
90.0
100
AcDbRotatedDimension
1001
ACAD
1000
DSTYLE
1002
{
1070
   341
1005
0
1002
}
  0
CIRCLE
  5
25DC7
330
747D
100
AcDbEntity
  8
部品1
 48
50.0
100
AcDbCircle
 10
5061.599999999993
 20
6444.293210650622
 30
0.0
 40
35.0
  0
LINE
  5
25DC8
330
747D
100
AcDbEntity
  8
センター
 48
2.0
100
AcDbLine
 10
5061.600000000008
 20
6494.293210650622
 30
0.0
 11
5061.600000000008
 21
6394.293210650621
 31
0.0
  0
LINE
  5
25DC9
330
747D
100
AcDbEntity
  8
センター
 48
2.0
100
AcDbLine
 10
5011.600000000008
 20
6444.293210650622
 30
0.0
 11
5111.600000000008
 21
6444.293210650622
 31
0.0
  0
LINE
  5
25DCA
330
747D
100
AcDbEntity
  8
細線
 48
50.0
100
AcDbLine
 10
4941.280033447561
 20
6861.293210650635
 30
0.0
 11
5058.599999999995
 21
6978.613177203069
 31
0.0
  0
LINE
  5
25DCB
330
747D
100
AcDbEntity
  8
細線
 48
50.0
100
AcDbLine
 10
4938.6
 20
6903.514457808419
 30
0.0
 11
5058.599999999997
 21
7023.514457808412
 31
0.0
  0
LINE
  5
25DCC
330
747D
100
AcDbEntity
  8
部品1
 48
50.0
100
AcDbLine
 10
5058.599999999998
 20
6861.293210650633
 30
0.0
 11
4938.6
 21
6861.293210650635
 31
0.0
  0
LINE
  5
25DCD
330
747D
100
AcDbEntity
  8
細線
 48
50.0
100
AcDbLine
 10
5031.082594658252
 20
6861.293210650632
 30
0.0
 11
5058.599999999997
 21
6888.810615992372
 31
0.0
  0
LINE
  5
25DCE
330
747D
100
AcDbEntity
  8
細線
 48
50.0
100
AcDbLine
 10
4986.181314052906
 20
6861.293210650635
 30
0.0
 11
5058.599999999997
 21
6933.711896597724
 31
0.0
  0
LINE
  5
25DD0
330
747D
100
AcDbEntity
  8
想像線
 48
5.0
100
AcDbLine
 10
5708.600000000004
 20
6246.293210650632
 30
0.0
 11
5708.600000000004
 21
5526.293210650621
 31
0.0
  0
LINE
  5
25DD1
330
747D
100
AcDbEntity
  8
部品1
 48
50.0
100
AcDbLine
 10
5453.600000000003
 20
6526.293210650617
 30
0.0
 11
5453.600000000009
 21
6246.293210650625
 31
0.0
  0
LINE
  5
25DD2
330
747D
100
AcDbEntity
  8
細線
 48
50.0
100
AcDbLine
 10
5253.600000000005
 20
6424.797809938934
 30
0.0
 11
5355.095400711693
 21
6526.293210650617
 31
0.0
  0
LINE
  5
25DD3
330
747D
100
AcDbEntity
  8
部品1
 48
50.0
100
AcDbLine
 10
5253.600000000003
 20
6526.293210650615
 30
0.0
 11
5253.600000000009
 21
6246.293210650621
 31
0.0
  0
LINE
  5
25DD4
330
747D
100
AcDbEntity
  8
細線
 48
50.0
100
AcDbLine
 10
5253.600000000008
 20
6379.896529333584
 30
0.0
 11
5399.996681317026
 21
6526.293210650618
 31
0.0
  0
LINE
  5
25DD5
330
747D
100
AcDbEntity
  8
細線
 48
50.0
100
AcDbLine
 10
5253.600000000005
 20
6334.99524872824
 30
0.0
 11
5444.897961922391
 21
6526.293210650618
 31
0.0
  0
LINE
  5
25DD6
330
747D
100
AcDbEntity
  8
細線
 48
50.0
100
AcDbLine
 10
5253.600000000009
 20
6290.093968122898
 30
0.0
 11
5453.600000000005
 21
6490.093968122889
 31
0.0
  0
LINE
  5
25DD7
330
747D
100
AcDbEntity
  8
細線
 48
50.0
100
AcDbLine
 10
5254.700523133082
 20
6246.293210650621
 30
0.0
 11
5453.600000000005
 21
6445.192687517547
 31
0.0
  0
DIMENSION
  5
25DD8
330
747D
100
AcDbEntity
  8
寸法
 48
50.0
100
AcDbDimension
  2
*D47
 10
5421.285990614302
 20
6973.293210650618
 30
0.0
 11
5421.2859906143
 21
6688.293210650617
 31
0.0
 70
   160
 71
     5
 42
726.9999999999891
  3
INABA_S40G
100
AcDbAlignedDimension
 13
5512.765475140901
 23
6246.293210650629
 33
0.0
 14
5713.600000000008
 24
6973.293210650618
 34
0.0
 50
90.0
100
AcDbRotatedDimension
1001
ACAD
1000
DSTYLE
1002
{
1070
   341
1005
0
1002
}
  0
LINE
  5
25DD9
330
747D
100
AcDbEntity
  8
細線
 48
50.0
100
AcDbLine
 10
5344.503084343774
 20
6246.293210650623
 30
0.0
 11
5453.600000000005
 21
6355.390126306857
 31
0.0
  0
LINE
  5
25DDA
330
747D
100
AcDbEntity
  8
細線
 48
50.0
100
AcDbLine
 10
5299.601803738426
 20
6246.293210650623
 30
0.0
 11
5453.600000000005
 21
6400.2914069122
 31
0.0
  0
LINE
  5
25DDB
330
747D
100
AcDbEntity
  8
細線
 48
50.0
100
AcDbLine
 10
5389.404364949119
 20
6246.293210650625
 30
0.0
 11
5453.600000000009
 21
6310.488845701513
 31
0.0
  0
LINE
  5
25DDC
330
747D
100
AcDbEntity
  8
細線
 48
50.0
100
AcDbLine
 10
5434.305645554466
 20
6246.293210650627
 30
0.0
 11
5453.600000000009
 21
6265.587565096168
 31
0.0
  0
LINE
  5
25DDD
330
747D
100
AcDbEntity
  8
細線
 48
50.0
100
AcDbLine
 10
5253.600000000004
 20
6469.69909054428
 30
0.0
 11
5310.194120106338
 21
6526.293210650617
 31
0.0
  0
LINE
  5
25DDE
330
747D
100
AcDbEntity
  8
センター
 48
2.0
100
AcDbLine
 10
5713.600000000008
 20
6973.293210650618
 30
0.0
 11
5813.600000000008
 21
6973.293210650618
 31
0.0
  0
LINE
  5
25DDF
330
747D
100
AcDbEntity
  8
部品1
 48
50.0
100
AcDbLine
 10
5863.600000000008
 20
6873.293210650619
 30
0.0
 11
5663.600000000008
 21
6873.293210650619
 31
0.0
  0
LINE
  5
25DE0
330
747D
100
AcDbEntity
  8
センター
 48
2.0
100
AcDbLine
 10
5763.600000000008
 20
7023.293210650618
 30
0.0
 11
5763.600000000008
 21
6923.293210650618
 31
0.0
  0
LINE
  5
25DED
330
747D
100
AcDbEntity
  8
部品1
 48
50.0
100
AcDbLine
 10
6683.600000000009
 20
6873.293210650619
 30
0.0
 11
6483.600000000009
 21
6873.293210650619
 31
0.0
  0
LINE
  5
25DEE
330
747D
100
AcDbEntity
  8
センター
 48
2.0
100
AcDbLine
 10
6533.60000000001
 20
6973.293210650618
 30
0.0
 11
6633.60000000001
 21
6973.293210650618
 31
0.0
  0
LINE
  5
25DEF
330
747D
100
AcDbEntity
  8
センター
 48
2.0
100
AcDbLine
 10
6583.60000000001
 20
7023.293210650618
 30
0.0
 11
6583.60000000001
 21
6923.293210650618
 31
0.0
  0
CIRCLE
  5
25DF7
330
747D
100
AcDbEntity
  8
部品1
 48
50.0
100
AcDbCircle
 10
7285.600000000009
 20
6444.293210650622
 30
0.0
 40
35.0
  0
LINE
  5
25DF8
330
747D
100
AcDbEntity
  8
センター
 48
2.0
100
AcDbLine
 10
7285.600000000009
 20
6494.293210650622
 30
0.0
 11
7285.600000000009
 21
6394.293210650621
 31
0.0
  0
LINE
  5
25DFD
330
747D
100
AcDbEntity
  8
センター
 48
2.0
100
AcDbLine
 10
7235.600000000009
 20
6444.293210650622
 30
0.0
 11
7335.60000000001
 21
6444.293210650622
 31
0.0
  0
LINE
  5
25DFF
330
747D
100
AcDbEntity
  8
部品1
 48
50.0
100
AcDbLine
 10
7503.60000000001
 20
6873.293210650619
 30
0.0
 11
7303.60000000001
 21
6873.293210650619
 31
0.0
  0
LINE
  5
25E00
330
747D
100
AcDbEntity
  8
センター
 48
2.0
100
AcDbLine
 10
7353.60000000001
 20
6973.293210650618
 30
0.0
 11
7453.60000000001
 21
6973.293210650618
 31
0.0
  0
LINE
  5
25E01
330
747D
100
AcDbEntity
  8
センター
 48
2.0
100
AcDbLine
 10
7403.60000000001
 20
7023.293210650618
 30
0.0
 11
7403.60000000001
 21
6923.293210650618
 31
0.0
  0
TEXT
  5
25E0D
330
747D
100
AcDbEntity
  8
寸法
 48
50.0
100
AcDbText
 10
8097.623616744854
 20
6264.974501443355
 30
0.0
 40
120.0
  1
扉面
  7
STYLE1
100
AcDbText
  0
LINE
  5
25E0F
330
747D
100
AcDbEntity
  8
部品1
 48
50.0
100
AcDbLine
 10
8323.600000000009
 20
6873.293210650619
 30
0.0
 11
8123.600000000008
 21
6873.293210650619
 31
0.0
  0
LINE
  5
25E10
330
747D
100
AcDbEntity
  8
センター
 48
2.0
100
AcDbLine
 10
8173.600000000009
 20
6973.293210650618
 30
0.0
 11
8273.600000000008
 21
6973.293210650618
 31
0.0
  0
LINE
  5
25E11
330
747D
100
AcDbEntity
  8
センター
 48
2.0
100
AcDbLine
 10
8223.60000000001
 20
7023.293210650618
 30
0.0
 11
8223.60000000001
 21
6923.293210650618
 31
0.0
  0
DIMENSION
  5
25E12
330
747D
100
AcDbEntity
  8
寸法
 48
50.0
100
AcDbDimension
  2
*D48
 10
5061.600000000001
 20
8352.559668744529
 30
0.0
 11
6173.600000000001
 21
8452.571479768151
 31
0.0
 70
    32
 71
     5
 42
2224.000000000002
  3
INABA_S40G
100
AcDbAlignedDimension
 13
7285.600000000002
 23
7553.293210650618
 33
0.0
 14
5061.600000000001
 24
7553.293210650618
 34
0.0
100
AcDbRotatedDimension
1001
ACAD
1000
DSTYLE
1002
{
1070
   341
1005
0
1002
}
  0
DIMENSION
  5
25E14
330
747D
100
AcDbEntity
  8
寸法
 48
50.0
100
AcDbDimension
  2
*D49
 10
4938.6
 20
8352.559668744529
 30
0.0
 11
4665.493398282202
 21
8352.559668744529
 31
0.0
 70
   160
 71
     5
 42
123.0
  3
INABA_S40G
100
AcDbAlignedDimension
 13
5061.600000000001
 23
7553.293210650618
 33
0.0
 14
4938.6
 24
7626.293210650619
 34
0.0
100
AcDbRotatedDimension
1001
ACAD
1000
DSTYLE
1002
{
1070
   341
1005
0
1002
}
  0
DIMENSION
  5
25E15
330
747D
100
AcDbEntity
  8
寸法
 48
50.0
100
AcDbDimension
  2
*D50
 10
4315.665006330072
 20
7503.293210650618
 30
0.0
 11
4315.665006330071
 21
7899.399812368418
 31
0.0
 70
   160
 71
     5
 42
123.0
  3
INABA_S40G
100
AcDbAlignedDimension
 13
4938.6
 23
7626.293210650619
 33
0.0
 14
5011.600000000001
 24
7503.293210650618
 34
0.0
 50
90.0
100
AcDbRotatedDimension
1001
ACAD
1000
DSTYLE
1002
{
1070
   341
1005
0
1002
}
  0
LINE
  5
25E17
330
747D
100
AcDbEntity
  8
細線
 48
50.0
100
AcDbLine
 10
4938.6
 20
7038.218299624458
 30
0.0
 11
4961.674911026179
 21
7061.293210650636
 31
0.0
  0
LINE
  5
25E18
330
747D
100
AcDbEntity
  8
部品1
 48
50.0
100
AcDbLine
 10
5058.599999999995
 20
7061.293210650633
 30
0.0
 11
4938.6
 21
7061.293210650635
 31
0.0
  0
LINE
  5
25E19
330
747D
100
AcDbEntity
  8
センター
 48
2.0
100
AcDbLine
 10
5061.600000000001
 20
7553.293210650618
 30
0.0
 11
5061.600000000001
 21
7453.293210650618
 31
0.0
  0
LINE
  5
25E1A
330
747D
100
AcDbEntity
  8
センター
 48
2.0
100
AcDbLine
 10
5011.600000000001
 20
7503.293210650618
 30
0.0
 11
5111.600000000001
 21
7503.293210650618
 31
0.0
  0
CIRCLE
  5
25E1B
330
747D
100
AcDbEntity
  8
部品1
 48
50.0
100
AcDbCircle
 10
5061.600000000001
 20
7503.293210650618
 30
0.0
 40
35.0
  0
LINE
  5
25E1D
330
747D
100
AcDbEntity
  8
部品1
 48
50.0
100
AcDbLine
 10
5453.600000000009
 20
7626.293210650621
 30
0.0
 11
5453.600000000013
 21
7426.293210650621
 31
0.0
  0
LINE
  5
25E1E
330
747D
100
AcDbEntity
  8
細線
 48
50.0
100
AcDbLine
 10
5253.600000000012
 20
7563.218299624463
 30
0.0
 11
5316.674911026172
 21
7626.293210650622
 31
0.0
  0
LINE
  5
25E1F
330
747D
100
AcDbEntity
  8
部品1
 48
50.0
100
AcDbLine
 10
5253.600000000009
 20
7626.293210650621
 30
0.0
 11
5253.600000000012
 21
7426.293210650621
 31
0.0
  0
LINE
  5
25E20
330
747D
100
AcDbEntity
  8
細線
 48
50.0
100
AcDbLine
 10
5253.600000000012
 20
7428.514457808425
 30
0.0
 11
5451.378752842206
 21
7626.293210650621
 31
0.0
  0
LINE
  5
25E21
330
747D
100
AcDbEntity
  8
細線
 48
50.0
100
AcDbLine
 10
5253.600000000012
 20
7473.415738413769
 30
0.0
 11
5406.47747223686
 21
7626.293210650621
 31
0.0
  0
LINE
  5
25E22
330
747D
100
AcDbEntity
  8
細線
 48
50.0
100
AcDbLine
 10
5253.600000000012
 20
7518.317019019119
 30
0.0
 11
5361.576191631515
 21
7626.293210650621
 31
0.0
  0
LINE
  5
25E23
330
747D
100
AcDbEntity
  8
細線
 48
50.0
100
AcDbLine
 10
5341.181314052882
 20
7426.293210650623
 30
0.0
 11
5453.600000000009
 21
7538.711896597733
 31
0.0
  0
LINE
  5
25E24
330
747D
100
AcDbEntity
  8
細線
 48
50.0
100
AcDbLine
 10
5296.280033447549
 20
7426.293210650621
 30
0.0
 11
5453.600000000008
 21
7583.613177203078
 31
0.0
  0
LINE
  5
25E25
330
747D
100
AcDbEntity
  8
細線
 48
50.0
100
AcDbLine
 10
5430.983875263566
 20
7426.293210650621
 30
0.0
 11
5453.600000000013
 21
7448.909335387064
 31
0.0
  0
LINE
  5
25E26
330
747D
100
AcDbEntity
  8
細線
 48
50.0
100
AcDbLine
 10
5386.08259465823
 20
7426.293210650621
 30
0.0
 11
5453.600000000012
 21
7493.810615992405
 31
0.0
  0
LINE
  5
25E27
330
747D
100
AcDbEntity
  8
部品1
 48
50.0
100
AcDbLine
 10
5863.600000000008
 20
7073.293210650618
 30
0.0
 11
5663.600000000008
 21
7073.293210650618
 31
0.0
  0
LINE
  5
25E28
330
747D
100
AcDbEntity
  8
細線
 48
50.0
100
AcDbLine
 10
5253.600000000009
 20
7608.119580229808
 30
0.0
 11
5271.773630420824
 21
7626.293210650621
 31
0.0
  0
LINE
  5
25E29
330
747D
100
AcDbEntity
  8
部品1
 48
50.0
100
AcDbLine
 10
6273.600000000009
 20
7626.293210650621
 30
0.0
 11
6273.600000000013
 21
7426.293210650621
 31
0.0
  0
LINE
  5
25E2A
330
747D
100
AcDbEntity
  8
細線
 48
50.0
100
AcDbLine
 10
6073.600000000011
 20
7563.218299624463
 30
0.0
 11
6136.674911026172
 21
7626.293210650622
 31
0.0
  0
LINE
  5
25E2B
330
747D
100
AcDbEntity
  8
部品1
 48
50.0
100
AcDbLine
 10
6073.600000000009
 20
7626.293210650621
 30
0.0
 11
6073.600000000013
 21
7426.293210650621
 31
0.0
  0
LINE
  5
25E2C
330
747D
100
AcDbEntity
  8
細線
 48
50.0
100
AcDbLine
 10
6073.600000000011
 20
7518.317019019119
 30
0.0
 11
6181.576191631515
 21
7626.293210650621
 31
0.0
  0
LINE
  5
25E2D
330
747D
100
AcDbEntity
  8
細線
 48
50.0
100
AcDbLine
 10
6073.600000000011
 20
7473.415738413769
 30
0.0
 11
6226.477472236861
 21
7626.293210650621
 31
0.0
  0
LINE
  5
25E2E
330
747D
100
AcDbEntity
  8
細線
 48
50.0
100
AcDbLine
 10
6073.600000000011
 20
7428.514457808425
 30
0.0
 11
6271.378752842205
 21
7626.293210650621
 31
0.0
  0
LINE
  5
25E2F
330
747D
100
AcDbEntity
  8
細線
 48
50.0
100
AcDbLine
 10
6161.181314052881
 20
7426.293210650623
 30
0.0
 11
6273.600000000009
 21
7538.711896597733
 31
0.0
  0
LINE
  5
25E30
330
747D
100
AcDbEntity
  8
細線
 48
50.0
100
AcDbLine
 10
6116.280033447549
 20
7426.293210650621
 30
0.0
 11
6273.600000000008
 21
7583.613177203078
 31
0.0
  0
LINE
  5
25E31
330
747D
100
AcDbEntity
  8
細線
 48
50.0
100
AcDbLine
 10
6250.983875263566
 20
7426.293210650621
 30
0.0
 11
6273.600000000013
 21
7448.909335387064
 31
0.0
  0
LINE
  5
25E32
330
747D
100
AcDbEntity
  8
細線
 48
50.0
100
AcDbLine
 10
6206.08259465823
 20
7426.293210650621
 30
0.0
 11
6273.600000000011
 21
7493.810615992405
 31
0.0
  0
LINE
  5
25E33
330
747D
100
AcDbEntity
  8
部品1
 48
50.0
100
AcDbLine
 10
6683.600000000009
 20
7073.293210650618
 30
0.0
 11
6483.600000000009
 21
7073.293210650618
 31
0.0
  0
LINE
  5
25E34
330
747D
100
AcDbEntity
  8
細線
 48
50.0
100
AcDbLine
 10
6073.600000000009
 20
7608.119580229808
 30
0.0
 11
6091.773630420824
 21
7626.293210650621
 31
0.0
  0
LINE
  5
25E35
330
747D
100
AcDbEntity
  8
部品1
 48
50.0
100
AcDbLine
 10
7093.600000000009
 20
7626.293210650621
 30
0.0
 11
7093.600000000013
 21
7426.293210650621
 31
0.0
  0
LINE
  5
25E36
330
747D
100
AcDbEntity
  8
細線
 48
50.0
100
AcDbLine
 10
6893.600000000012
 20
7563.218299624463
 30
0.0
 11
6956.674911026173
 21
7626.293210650622
 31
0.0
  0
LINE
  5
25E37
330
747D
100
AcDbEntity
  8
部品1
 48
50.0
100
AcDbLine
 10
6893.600000000009
 20
7626.293210650621
 30
0.0
 11
6893.600000000013
 21
7426.293210650621
 31
0.0
  0
LINE
  5
25E38
330
747D
100
AcDbEntity
  8
細線
 48
50.0
100
AcDbLine
 10
6893.600000000012
 20
7428.514457808425
 30
0.0
 11
7091.378752842205
 21
7626.293210650621
 31
0.0
  0
LINE
  5
25E39
330
747D
100
AcDbEntity
  8
細線
 48
50.0
100
AcDbLine
 10
6893.600000000012
 20
7473.415738413769
 30
0.0
 11
7046.47747223686
 21
7626.293210650621
 31
0.0
  0
LINE
  5
25E3A
330
747D
100
AcDbEntity
  8
細線
 48
50.0
100
AcDbLine
 10
6893.600000000012
 20
7518.317019019119
 30
0.0
 11
7001.576191631516
 21
7626.293210650621
 31
0.0
  0
LINE
  5
25E3B
330
747D
100
AcDbEntity
  8
細線
 48
50.0
100
AcDbLine
 10
6981.181314052881
 20
7426.293210650623
 30
0.0
 11
7093.600000000009
 21
7538.711896597733
 31
0.0
  0
LINE
  5
25E3C
330
747D
100
AcDbEntity
  8
細線
 48
50.0
100
AcDbLine
 10
6936.280033447549
 20
7426.293210650621
 30
0.0
 11
7093.600000000008
 21
7583.613177203078
 31
0.0
  0
LINE
  5
25E3D
330
747D
100
AcDbEntity
  8
細線
 48
50.0
100
AcDbLine
 10
7070.983875263566
 20
7426.293210650621
 30
0.0
 11
7093.600000000013
 21
7448.909335387064
 31
0.0
  0
LINE
  5
25E3E
330
747D
100
AcDbEntity
  8
細線
 48
50.0
100
AcDbLine
 10
7026.08259465823
 20
7426.293210650621
 30
0.0
 11
7093.600000000012
 21
7493.810615992405
 31
0.0
  0
LINE
  5
25E3F
330
747D
100
AcDbEntity
  8
部品1
 48
50.0
100
AcDbLine
 10
7503.60000000001
 20
7073.293210650618
 30
0.0
 11
7303.60000000001
 21
7073.293210650618
 31
0.0
  0
LINE
  5
25E40
330
747D
100
AcDbEntity
  8
センター
 48
2.0
100
AcDbLine
 10
7285.600000000002
 20
7553.293210650618
 30
0.0
 11
7285.600000000002
 21
7453.293210650618
 31
0.0
  0
CIRCLE
  5
25E41
330
747D
100
AcDbEntity
  8
部品1
 48
50.0
100
AcDbCircle
 10
7285.600000000002
 20
7503.293210650618
 30
0.0
 40
35.0
  0
LINE
  5
25E42
330
747D
100
AcDbEntity
  8
センター
 48
2.0
100
AcDbLine
 10
7235.600000000002
 20
7503.293210650618
 30
0.0
 11
7335.600000000003
 21
7503.293210650618
 31
0.0
  0
LINE
  5
25E43
330
747D
100
AcDbEntity
  8
細線
 48
50.0
100
AcDbLine
 10
6893.600000000009
 20
7608.119580229808
 30
0.0
 11
6911.773630420825
 21
7626.293210650621
 31
0.0
  0
LINE
  5
25E44
330
747D
100
AcDbEntity
  8
部品1
 48
50.0
100
AcDbLine
 10
7913.600000000009
 20
7626.293210650621
 30
0.0
 11
7913.600000000013
 21
7426.293210650621
 31
0.0
  0
LINE
  5
25E45
330
747D
100
AcDbEntity
  8
細線
 48
50.0
100
AcDbLine
 10
7713.600000000011
 20
7563.218299624463
 30
0.0
 11
7776.674911026171
 21
7626.293210650622
 31
0.0
  0
LINE
  5
25E46
330
747D
100
AcDbEntity
  8
部品1
 48
50.0
100
AcDbLine
 10
7713.60000000001
 20
7626.293210650621
 30
0.0
 11
7713.600000000013
 21
7426.293210650621
 31
0.0
  0
LINE
  5
25E47
330
747D
100
AcDbEntity
  8
細線
 48
50.0
100
AcDbLine
 10
7713.600000000011
 20
7518.317019019119
 30
0.0
 11
7821.576191631514
 21
7626.293210650621
 31
0.0
  0
LINE
  5
25E48
330
747D
100
AcDbEntity
  8
細線
 48
50.0
100
AcDbLine
 10
7713.600000000011
 20
7473.415738413769
 30
0.0
 11
7866.47747223686
 21
7626.293210650621
 31
0.0
  0
LINE
  5
25E49
330
747D
100
AcDbEntity
  8
細線
 48
50.0
100
AcDbLine
 10
7713.600000000011
 20
7428.514457808425
 30
0.0
 11
7911.378752842205
 21
7626.293210650621
 31
0.0
  0
LINE
  5
25E4A
330
747D
100
AcDbEntity
  8
細線
 48
50.0
100
AcDbLine
 10
7801.181314052882
 20
7426.293210650623
 30
0.0
 11
7913.600000000009
 21
7538.711896597733
 31
0.0
  0
LINE
  5
25E4B
330
747D
100
AcDbEntity
  8
細線
 48
50.0
100
AcDbLine
 10
7756.280033447549
 20
7426.293210650621
 30
0.0
 11
7913.600000000008
 21
7583.613177203078
 31
0.0
  0
LINE
  5
25E4C
330
747D
100
AcDbEntity
  8
細線
 48
50.0
100
AcDbLine
 10
7890.983875263566
 20
7426.293210650621
 30
0.0
 11
7913.600000000013
 21
7448.909335387064
 31
0.0
  0
LINE
  5
25E4D
330
747D
100
AcDbEntity
  8
細線
 48
50.0
100
AcDbLine
 10
7846.082594658231
 20
7426.293210650621
 30
0.0
 11
7913.600000000011
 21
7493.810615992405
 31
0.0
  0
LINE
  5
25E4E
330
747D
100
AcDbEntity
  8
部品1
 48
50.0
100
AcDbLine
 10
8323.600000000009
 20
7073.293210650618
 30
0.0
 11
8123.600000000008
 21
7073.293210650618
 31
0.0
  0
LINE
  5
25E4F
330
747D
100
AcDbEntity
  8
細線
 48
50.0
100
AcDbLine
 10
7713.60000000001
 20
7608.119580229808
 30
0.0
 11
7731.773630420825
 21
7626.293210650621
 31
0.0
  0
LINE
  5
25E50
330
747D
100
AcDbEntity
  8
細線
 48
50.0
100
AcDbLine
 10
11388.6
 20
6928.415738413749
 30
0.0
 11
11508.6
 21
7048.41573841375
 31
0.0
  0
LINE
  5
25E51
330
747D
100
AcDbEntity
  8
細線
 48
50.0
100
AcDbLine
 10
11388.6
 20
6973.317019019095
 30
0.0
 11
11476.57619163152
 21
7061.293210650622
 31
0.0
  0
LINE
  5
25E52
330
747D
100
AcDbEntity
  8
部品1
 48
50.0
100
AcDbLine
 10
8943.600000000008
 20
6873.293210650619
 30
0.0
 11
8943.600000000008
 21
7073.293210650618
 31
0.0
  0
LINE
  5
25E53
330
747D
100
AcDbEntity
  8
部品1
 48
50.0
100
AcDbLine
 10
9143.600000000008
 20
6873.293210650619
 30
0.0
 11
9143.600000000008
 21
7073.293210650618
 31
0.0
  0
LINE
  5
25E55
330
747D
100
AcDbEntity
  8
部品1
 48
50.0
100
AcDbLine
 10
9963.600000000008
 20
6873.293210650619
 30
0.0
 11
9963.600000000008
 21
7073.293210650618
 31
0.0
  0
LINE
  5
25E56
330
747D
100
AcDbEntity
  8
部品1
 48
50.0
100
AcDbLine
 10
9763.600000000009
 20
6873.293210650619
 30
0.0
 11
9763.600000000009
 21
7073.293210650618
 31
0.0
  0
LINE
  5
25E57
330
747D
100
AcDbEntity
  8
部品1
 48
50.0
100
AcDbLine
 10
10783.60000000001
 20
6873.293210650619
 30
0.0
 11
10783.60000000001
 21
7073.293210650618
 31
0.0
  0
LINE
  5
25E58
330
747D
100
AcDbEntity
  8
部品1
 48
50.0
100
AcDbLine
 10
10583.60000000001
 20
6873.293210650619
 30
0.0
 11
10583.60000000001
 21
7073.293210650618
 31
0.0
  0
DIMENSION
  5
25E59
330
747D
100
AcDbEntity
  8
寸法
 48
50.0
100
AcDbDimension
  2
*D30
 10
9863.600000000008
 20
8108.902027320866
 30
0.0
 11
10273.6
 21
8208.913838344487
 31
0.0
 70
    32
 71
     5
 42
820.0
  3
INABA_S40G
100
AcDbAlignedDimension
 13
10683.60000000001
 23
7023.293210650618
 33
0.0
 14
9863.600000000008
 24
7023.293210650618
 34
0.0
100
AcDbRotatedDimension
1001
ACAD
1000
DSTYLE
1002
{
1070
   341
1005
0
1002
}
  0
DIMENSION
  5
25E5A
330
747D
100
AcDbEntity
  8
寸法
 48
50.0
100
AcDbDimension
  2
*D31
 10
9043.600000000008
 20
8108.902027320866
 30
0.0
 11
9453.600000000006
 21
8208.913838344487
 31
0.0
 70
    32
 71
     5
 42
820.0
  3
INABA_S40G
100
AcDbAlignedDimension
 13
9863.600000000008
 23
7023.293210650618
 33
0.0
 14
9043.600000000008
 24
7023.293210650618
 34
0.0
100
AcDbRotatedDimension
1001
ACAD
1000
DSTYLE
1002
{
1070
   341
1005
0
1002
}
  0
DIMENSION
  5
25E5B
330
747D
100
AcDbEntity
  8
寸法
 48
50.0
100
AcDbDimension
  2
*D32
 10
10683.60000000001
 20
8108.902027320866
 30
0.0
 11
11096.1
 21
8208.913838344487
 31
0.0
 70
    32
 71
     5
 42
824.9999999999927
  3
INABA_S40G
100
AcDbAlignedDimension
 13
11508.6
 23
7626.293210650619
 33
0.0
 14
10683.60000000001
 24
7023.293210650618
 34
0.0
100
AcDbRotatedDimension
1001
ACAD
1000
DSTYLE
1002
{
1070
   341
1005
0
1002
}
  0
LINE
  5
25E5C
330
747D
100
AcDbEntity
  8
部品1
 48
50.0
100
AcDbLine
 10
11508.6
 20
6246.293210650636
 30
0.0
 11
11508.6
 21
7626.293210650619
 31
0.0
  0
LINE
  5
25E6B
330
747D
100
AcDbEntity
  8
センター
 48
2.0
100
AcDbLine
 10
8925.600000000008
 20
6494.293210650622
 30
0.0
 11
8925.600000000008
 21
6394.293210650621
 31
0.0
  0
CIRCLE
  5
25E6C
330
747D
100
AcDbEntity
  8
部品1
 48
50.0
100
AcDbCircle
 10
8925.600000000008
 20
6444.293210650622
 30
0.0
 40
35.0
  0
LINE
  5
25E71
330
747D
100
AcDbEntity
  8
センター
 48
2.0
100
AcDbLine
 10
8875.600000000007
 20
6444.293210650622
 30
0.0
 11
8975.600000000007
 21
6444.293210650622
 31
0.0
  0
LINE
  5
25E73
330
747D
100
AcDbEntity
  8
センター
 48
2.0
100
AcDbLine
 10
8993.600000000007
 20
6973.293210650618
 30
0.0
 11
9093.600000000007
 21
6973.293210650618
 31
0.0
  0
LINE
  5
25E74
330
747D
100
AcDbEntity
  8
部品1
 48
50.0
100
AcDbLine
 10
9143.600000000008
 20
6873.293210650619
 30
0.0
 11
8943.600000000008
 21
6873.293210650619
 31
0.0
  0
LINE
  5
25E75
330
747D
100
AcDbEntity
  8
センター
 48
2.0
100
AcDbLine
 10
9043.600000000008
 20
7023.293210650618
 30
0.0
 11
9043.600000000008
 21
6923.293210650618
 31
0.0
  0
LINE
  5
25E82
330
747D
100
AcDbEntity
  8
部品1
 48
50.0
100
AcDbLine
 10
9963.600000000008
 20
6873.293210650619
 30
0.0
 11
9763.600000000009
 21
6873.293210650619
 31
0.0
  0
LINE
  5
25E83
330
747D
100
AcDbEntity
  8
センター
 48
2.0
100
AcDbLine
 10
9813.600000000008
 20
6973.293210650618
 30
0.0
 11
9913.600000000009
 21
6973.293210650618
 31
0.0
  0
LINE
  5
25E84
330
747D
100
AcDbEntity
  8
センター
 48
2.0
100
AcDbLine
 10
9863.600000000008
 20
7023.293210650618
 30
0.0
 11
9863.600000000008
 21
6923.293210650618
 31
0.0
  0
LINE
  5
25E91
330
747D
100
AcDbEntity
  8
部品1
 48
50.0
100
AcDbLine
 10
10783.60000000001
 20
6873.293210650619
 30
0.0
 11
10583.60000000001
 21
6873.293210650619
 31
0.0
  0
LINE
  5
25E92
330
747D
100
AcDbEntity
  8
センター
 48
2.0
100
AcDbLine
 10
10633.6
 20
6973.293210650618
 30
0.0
 11
10733.6
 21
6973.293210650618
 31
0.0
  0
LINE
  5
25E93
330
747D
100
AcDbEntity
  8
センター
 48
2.0
100
AcDbLine
 10
10683.60000000001
 20
7023.293210650618
 30
0.0
 11
10683.60000000001
 21
6923.293210650618
 31
0.0
  0
LINE
  5
25E9B
330
747D
100
AcDbEntity
  8
センター
 48
2.0
100
AcDbLine
 10
11385.60000000001
 20
6494.293210650622
 30
0.0
 11
11385.60000000001
 21
6394.293210650621
 31
0.0
  0
CIRCLE
  5
25E9C
330
747D
100
AcDbEntity
  8
部品1
 48
50.0
100
AcDbCircle
 10
11385.60000000001
 20
6444.293210650622
 30
0.0
 40
35.0
  0
LINE
  5
25EA1
330
747D
100
AcDbEntity
  8
センター
 48
2.0
100
AcDbLine
 10
11335.60000000001
 20
6444.293210650622
 30
0.0
 11
11435.60000000001
 21
6444.293210650622
 31
0.0
  0
LINE
  5
25EA3
330
747D
100
AcDbEntity
  8
細線
 48
50.0
100
AcDbLine
 10
11501.08259465825
 20
6861.293210650619
 30
0.0
 11
11508.6
 21
6868.810615992368
 31
0.0
  0
LINE
  5
25EA4
330
747D
100
AcDbEntity
  8
細線
 48
50.0
100
AcDbLine
 10
11456.1813140529
 20
6861.293210650622
 30
0.0
 11
11508.6
 21
6913.711896597714
 31
0.0
  0
LINE
  5
25EA5
330
747D
100
AcDbEntity
  8
細線
 48
50.0
100
AcDbLine
 10
11411.28003344756
 20
6861.293210650622
 30
0.0
 11
11508.6
 21
6958.613177203061
 31
0.0
  0
LINE
  5
25EA6
330
747D
100
AcDbEntity
  8
細線
 48
50.0
100
AcDbLine
 10
11388.6
 20
6883.514457808404
 30
0.0
 11
11508.6
 21
7003.514457808406
 31
0.0
  0
LINE
  5
25EA7
330
747D
100
AcDbEntity
  8
部品1
 48
50.0
100
AcDbLine
 10
11508.6
 20
6861.293210650622
 30
0.0
 11
11388.6
 21
6861.293210650622
 31
0.0
  0
DIMENSION
  5
25EAA
330
747D
100
AcDbEntity
  8
寸法
 48
50.0
100
AcDbDimension
  2
*D33
 10
11385.6
 20
8352.559668744529
 30
0.0
 11
11781.7066017178
 21
8352.559668744529
 31
0.0
 70
   160
 71
     5
 42
123.0
  3
INABA_S40G
100
AcDbAlignedDimension
 13
11508.6
 23
7626.293210650619
 33
0.0
 14
11385.6
 24
7553.293210650618
 34
0.0
100
AcDbRotatedDimension
1001
ACAD
1000
DSTYLE
1002
{
1070
   341
1005
0
1002
}
  0
DIMENSION
  5
25EAB
330
747D
100
AcDbEntity
  8
寸法
 48
50.0
100
AcDbDimension
  2
*D34
 10
8925.600000000001
 20
8352.559668744529
 30
0.0
 11
10155.6
 21
8452.571479768151
 31
0.0
 70
    32
 71
     5
 42
2460.0
  3
INABA_S40G
100
AcDbAlignedDimension
 13
11385.6
 23
7553.293210650618
 33
0.0
 14
8925.600000000001
 24
7553.293210650618
 34
0.0
100
AcDbRotatedDimension
1001
ACAD
1000
DSTYLE
1002
{
1070
   341
1005
0
1002
}
  0
LINE
  5
25EAC
330
747D
100
AcDbEntity
  8
部品1
 48
50.0
100
AcDbLine
 10
8733.600000000008
 20
7626.293210650621
 30
0.0
 11
8733.600000000015
 21
7426.293210650621
 31
0.0
  0
LINE
  5
25EAD
330
747D
100
AcDbEntity
  8
細線
 48
50.0
100
AcDbLine
 10
8533.600000000012
 20
7563.218299624463
 30
0.0
 11
8596.674911026171
 21
7626.293210650622
 31
0.0
  0
LINE
  5
25EAE
330
747D
100
AcDbEntity
  8
部品1
 48
50.0
100
AcDbLine
 10
8533.60000000001
 20
7626.293210650621
 30
0.0
 11
8533.600000000012
 21
7426.293210650621
 31
0.0
  0
LINE
  5
25EAF
330
747D
100
AcDbEntity
  8
細線
 48
50.0
100
AcDbLine
 10
8533.600000000012
 20
7428.514457808425
 30
0.0
 11
8731.378752842205
 21
7626.293210650621
 31
0.0
  0
LINE
  5
25EB0
330
747D
100
AcDbEntity
  8
細線
 48
50.0
100
AcDbLine
 10
8533.600000000012
 20
7473.415738413769
 30
0.0
 11
8686.477472236861
 21
7626.293210650621
 31
0.0
  0
LINE
  5
25EB1
330
747D
100
AcDbEntity
  8
細線
 48
50.0
100
AcDbLine
 10
8533.600000000012
 20
7518.317019019119
 30
0.0
 11
8641.576191631514
 21
7626.293210650621
 31
0.0
  0
LINE
  5
25EB2
330
747D
100
AcDbEntity
  8
細線
 48
50.0
100
AcDbLine
 10
8621.181314052881
 20
7426.293210650623
 30
0.0
 11
8733.600000000008
 21
7538.711896597733
 31
0.0
  0
LINE
  5
25EB3
330
747D
100
AcDbEntity
  8
細線
 48
50.0
100
AcDbLine
 10
8576.280033447549
 20
7426.293210650621
 30
0.0
 11
8733.600000000008
 21
7583.613177203078
 31
0.0
  0
LINE
  5
25EB4
330
747D
100
AcDbEntity
  8
細線
 48
50.0
100
AcDbLine
 10
8710.983875263563
 20
7426.293210650621
 30
0.0
 11
8733.600000000015
 21
7448.909335387064
 31
0.0
  0
LINE
  5
25EB5
330
747D
100
AcDbEntity
  8
細線
 48
50.0
100
AcDbLine
 10
8666.082594658231
 20
7426.293210650621
 30
0.0
 11
8733.600000000011
 21
7493.810615992405
 31
0.0
  0
LINE
  5
25EB6
330
747D
100
AcDbEntity
  8
部品1
 48
50.0
100
AcDbLine
 10
9143.600000000008
 20
7073.293210650618
 30
0.0
 11
8943.600000000008
 21
7073.293210650618
 31
0.0
  0
LINE
  5
25EB7
330
747D
100
AcDbEntity
  8
センター
 48
2.0
100
AcDbLine
 10
8925.600000000001
 20
7553.293210650618
 30
0.0
 11
8925.600000000001
 21
7453.293210650618
 31
0.0
  0
LINE
  5
25EB8
330
747D
100
AcDbEntity
  8
センター
 48
2.0
100
AcDbLine
 10
8875.6
 20
7503.293210650618
 30
0.0
 11
8975.6
 21
7503.293210650618
 31
0.0
  0
CIRCLE
  5
25EB9
330
747D
100
AcDbEntity
  8
部品1
 48
50.0
100
AcDbCircle
 10
8925.600000000001
 20
7503.293210650618
 30
0.0
 40
35.0
  0
LINE
  5
25EBA
330
747D
100
AcDbEntity
  8
細線
 48
50.0
100
AcDbLine
 10
8533.60000000001
 20
7608.119580229808
 30
0.0
 11
8551.773630420823
 21
7626.293210650621
 31
0.0
  0
LINE
  5
25EBB
330
747D
100
AcDbEntity
  8
部品1
 48
50.0
100
AcDbLine
 10
9553.600000000008
 20
7626.293210650621
 30
0.0
 11
9553.600000000015
 21
7426.293210650621
 31
0.0
  0
LINE
  5
25EBC
330
747D
100
AcDbEntity
  8
細線
 48
50.0
100
AcDbLine
 10
9353.600000000012
 20
7563.218299624463
 30
0.0
 11
9416.674911026172
 21
7626.293210650622
 31
0.0
  0
LINE
  5
25EBD
330
747D
100
AcDbEntity
  8
部品1
 48
50.0
100
AcDbLine
 10
9353.600000000007
 20
7626.293210650621
 30
0.0
 11
9353.600000000016
 21
7426.293210650621
 31
0.0
  0
LINE
  5
25EBE
330
747D
100
AcDbEntity
  8
細線
 48
50.0
100
AcDbLine
 10
9353.600000000012
 20
7518.317019019119
 30
0.0
 11
9461.576191631515
 21
7626.293210650621
 31
0.0
  0
LINE
  5
25EBF
330
747D
100
AcDbEntity
  8
細線
 48
50.0
100
AcDbLine
 10
9353.600000000012
 20
7473.415738413769
 30
0.0
 11
9506.477472236863
 21
7626.293210650621
 31
0.0
  0
LINE
  5
25EC0
330
747D
100
AcDbEntity
  8
細線
 48
50.0
100
AcDbLine
 10
9353.600000000012
 20
7428.514457808425
 30
0.0
 11
9551.378752842206
 21
7626.293210650621
 31
0.0
  0
LINE
  5
25EC1
330
747D
100
AcDbEntity
  8
細線
 48
50.0
100
AcDbLine
 10
9441.181314052881
 20
7426.293210650623
 30
0.0
 11
9553.600000000008
 21
7538.711896597733
 31
0.0
  0
LINE
  5
25EC2
330
747D
100
AcDbEntity
  8
細線
 48
50.0
100
AcDbLine
 10
9396.280033447549
 20
7426.293210650621
 30
0.0
 11
9553.600000000008
 21
7583.613177203078
 31
0.0
  0
LINE
  5
25EC3
330
747D
100
AcDbEntity
  8
細線
 48
50.0
100
AcDbLine
 10
9530.983875263563
 20
7426.293210650621
 30
0.0
 11
9553.600000000015
 21
7448.909335387064
 31
0.0
  0
LINE
  5
25EC4
330
747D
100
AcDbEntity
  8
細線
 48
50.0
100
AcDbLine
 10
9486.082594658228
 20
7426.293210650621
 30
0.0
 11
9553.600000000011
 21
7493.810615992405
 31
0.0
  0
LINE
  5
25EC5
330
747D
100
AcDbEntity
  8
部品1
 48
50.0
100
AcDbLine
 10
9963.600000000008
 20
7073.293210650618
 30
0.0
 11
9763.600000000009
 21
7073.293210650618
 31
0.0
  0
LINE
  5
25EC6
330
747D
100
AcDbEntity
  8
細線
 48
50.0
100
AcDbLine
 10
9353.600000000007
 20
7608.119580229808
 30
0.0
 11
9371.773630420824
 21
7626.293210650621
 31
0.0
  0
LINE
  5
25EC7
330
747D
100
AcDbEntity
  8
部品1
 48
50.0
100
AcDbLine
 10
10373.6
 20
7626.293210650621
 30
0.0
 11
10373.60000000001
 21
7426.293210650621
 31
0.0
  0
LINE
  5
25EC8
330
747D
100
AcDbEntity
  8
細線
 48
50.0
100
AcDbLine
 10
10173.60000000001
 20
7563.218299624463
 30
0.0
 11
10236.67491102617
 21
7626.293210650622
 31
0.0
  0
LINE
  5
25EC9
330
747D
100
AcDbEntity
  8
部品1
 48
50.0
100
AcDbLine
 10
10173.6
 20
7626.293210650621
 30
0.0
 11
10173.60000000001
 21
7426.293210650621
 31
0.0
  0
LINE
  5
25ECA
330
747D
100
AcDbEntity
  8
細線
 48
50.0
100
AcDbLine
 10
10173.60000000001
 20
7428.514457808425
 30
0.0
 11
10371.3787528422
 21
7626.293210650621
 31
0.0
  0
LINE
  5
25ECB
330
747D
100
AcDbEntity
  8
細線
 48
50.0
100
AcDbLine
 10
10173.60000000001
 20
7473.415738413769
 30
0.0
 11
10326.47747223686
 21
7626.293210650621
 31
0.0
  0
LINE
  5
25ECC
330
747D
100
AcDbEntity
  8
細線
 48
50.0
100
AcDbLine
 10
10173.60000000001
 20
7518.317019019119
 30
0.0
 11
10281.57619163151
 21
7626.293210650621
 31
0.0
  0
LINE
  5
25ECD
330
747D
100
AcDbEntity
  8
細線
 48
50.0
100
AcDbLine
 10
10261.18131405288
 20
7426.293210650623
 30
0.0
 11
10373.6
 21
7538.711896597733
 31
0.0
  0
LINE
  5
25ECE
330
747D
100
AcDbEntity
  8
細線
 48
50.0
100
AcDbLine
 10
10216.28003344755
 20
7426.293210650621
 30
0.0
 11
10373.6
 21
7583.613177203078
 31
0.0
  0
LINE
  5
25ECF
330
747D
100
AcDbEntity
  8
細線
 48
50.0
100
AcDbLine
 10
10350.98387526356
 20
7426.293210650621
 30
0.0
 11
10373.60000000001
 21
7448.909335387064
 31
0.0
  0
LINE
  5
25ED0
330
747D
100
AcDbEntity
  8
細線
 48
50.0
100
AcDbLine
 10
10306.08259465823
 20
7426.293210650621
 30
0.0
 11
10373.60000000001
 21
7493.810615992405
 31
0.0
  0
LINE
  5
25ED1
330
747D
100
AcDbEntity
  8
部品1
 48
50.0
100
AcDbLine
 10
10783.60000000001
 20
7073.293210650618
 30
0.0
 11
10583.60000000001
 21
7073.293210650618
 31
0.0
  0
LINE
  5
25ED2
330
747D
100
AcDbEntity
  8
細線
 48
50.0
100
AcDbLine
 10
10173.6
 20
7608.119580229808
 30
0.0
 11
10191.77363042082
 21
7626.293210650621
 31
0.0
  0
LINE
  5
25ED3
330
747D
100
AcDbEntity
  8
部品1
 48
50.0
100
AcDbLine
 10
11193.60000000001
 20
7626.293210650621
 30
0.0
 11
11193.60000000001
 21
7426.293210650621
 31
0.0
  0
LINE
  5
25ED4
330
747D
100
AcDbEntity
  8
部品1
 48
50.0
100
AcDbLine
 10
10993.6
 20
7626.293210650621
 30
0.0
 11
10993.60000000001
 21
7426.293210650621
 31
0.0
  0
LINE
  5
25ED5
330
747D
100
AcDbEntity
  8
細線
 48
50.0
100
AcDbLine
 10
10993.60000000001
 20
7518.317019019119
 30
0.0
 11
11101.57619163151
 21
7626.293210650621
 31
0.0
  0
LINE
  5
25ED6
330
747D
100
AcDbEntity
  8
細線
 48
50.0
100
AcDbLine
 10
10993.60000000001
 20
7473.415738413769
 30
0.0
 11
11146.47747223686
 21
7626.293210650621
 31
0.0
  0
LINE
  5
25ED7
330
747D
100
AcDbEntity
  8
細線
 48
50.0
100
AcDbLine
 10
10993.60000000001
 20
7428.514457808425
 30
0.0
 11
11191.3787528422
 21
7626.293210650621
 31
0.0
  0
LINE
  5
25ED8
330
747D
100
AcDbEntity
  8
細線
 48
50.0
100
AcDbLine
 10
10993.60000000001
 20
7563.218299624463
 30
0.0
 11
11056.67491102617
 21
7626.293210650622
 31
0.0
  0
LINE
  5
25ED9
330
747D
100
AcDbEntity
  8
細線
 48
50.0
100
AcDbLine
 10
11036.28003344755
 20
7426.293210650621
 30
0.0
 11
11193.60000000001
 21
7583.613177203078
 31
0.0
  0
LINE
  5
25EDA
330
747D
100
AcDbEntity
  8
細線
 48
50.0
100
AcDbLine
 10
11081.18131405288
 20
7426.293210650623
 30
0.0
 11
11193.60000000001
 21
7538.711896597733
 31
0.0
  0
LINE
  5
25EDB
330
747D
100
AcDbEntity
  8
細線
 48
50.0
100
AcDbLine
 10
11170.98387526356
 20
7426.293210650621
 30
0.0
 11
11193.60000000001
 21
7448.909335387064
 31
0.0
  0
LINE
  5
25EDC
330
747D
100
AcDbEntity
  8
細線
 48
50.0
100
AcDbLine
 10
11126.08259465823
 20
7426.293210650621
 30
0.0
 11
11193.60000000001
 21
7493.810615992405
 31
0.0
  0
LINE
  5
25EDD
330
747D
100
AcDbEntity
  8
細線
 48
50.0
100
AcDbLine
 10
11388.59999999999
 20
7018.21829962444
 30
0.0
 11
11431.67491102618
 21
7061.293210650624
 31
0.0
  0
LINE
  5
25EDE
330
747D
100
AcDbEntity
  8
部品1
 48
50.0
100
AcDbLine
 10
11508.6
 20
7061.293210650622
 30
0.0
 11
11388.6
 21
7061.293210650624
 31
0.0
  0
LINE
  5
25EDF
330
747D
100
AcDbEntity
  8
センター
 48
2.0
100
AcDbLine
 10
11385.6
 20
7553.293210650618
 30
0.0
 11
11385.6
 21
7453.293210650618
 31
0.0
  0
CIRCLE
  5
25EE0
330
747D
100
AcDbEntity
  8
部品1
 48
50.0
100
AcDbCircle
 10
11385.6
 20
7503.293210650618
 30
0.0
 40
35.0
  0
LINE
  5
25EE1
330
747D
100
AcDbEntity
  8
センター
 48
2.0
100
AcDbLine
 10
11335.6
 20
7503.293210650618
 30
0.0
 11
11435.6
 21
7503.293210650618
 31
0.0
  0
LINE
  5
25EE2
330
747D
100
AcDbEntity
  8
細線
 48
50.0
100
AcDbLine
 10
10993.6
 20
7608.119580229808
 30
0.0
 11
11011.77363042082
 21
7626.293210650621
 31
0.0
  0
TEXT
  5
2658A
330
747D
100
AcDbEntity
  8
文字
 62
     7
 48
50.0
100
AcDbText
 10
14251.2
 20
838.2527270729188
 30
0.0
 40
100.0
  1
～一般型・多雪地型・豪雪地型～
  7
STYLE2
100
AcDbText
  0
LINE
  5
265AA
330
747D
100
AcDbEntity
  8
部品1
 48
50.0
100
AcDbLine
 10
11388.6
 20
6526.293210650646
 30
0.0
 11
5058.600000000001
 21
6526.293210650614
 31
0.0
  0
LINE
  5
265AB
330
747D
100
AcDbEntity
  8
細線
 48
50.0
100
AcDbLine
 10
6073.600000000004
 20
6469.69909054428
 30
0.0
 11
6130.194120106337
 21
6526.293210650617
 31
0.0
  0
LINE
  5
265AC
330
747D
100
AcDbEntity
  8
細線
 48
50.0
100
AcDbLine
 10
6254.305645554467
 20
6246.293210650627
 30
0.0
 11
6273.600000000009
 21
6265.587565096168
 31
0.0
  0
LINE
  5
265AD
330
747D
100
AcDbEntity
  8
細線
 48
50.0
100
AcDbLine
 10
6209.404364949119
 20
6246.293210650625
 30
0.0
 11
6273.600000000009
 21
6310.488845701513
 31
0.0
  0
LINE
  5
265AE
330
747D
100
AcDbEntity
  8
細線
 48
50.0
100
AcDbLine
 10
6119.601803738426
 20
6246.293210650623
 30
0.0
 11
6273.600000000006
 21
6400.2914069122
 31
0.0
  0
LINE
  5
265AF
330
747D
100
AcDbEntity
  8
細線
 48
50.0
100
AcDbLine
 10
6164.503084343774
 20
6246.293210650623
 30
0.0
 11
6273.600000000006
 21
6355.390126306857
 31
0.0
  0
LINE
  5
265B0
330
747D
100
AcDbEntity
  8
細線
 48
50.0
100
AcDbLine
 10
6074.700523133082
 20
6246.293210650621
 30
0.0
 11
6273.600000000004
 21
6445.192687517547
 31
0.0
  0
LINE
  5
265B1
330
747D
100
AcDbEntity
  8
細線
 48
50.0
100
AcDbLine
 10
6073.600000000009
 20
6290.093968122898
 30
0.0
 11
6273.600000000004
 21
6490.093968122889
 31
0.0
  0
LINE
  5
265B2
330
747D
100
AcDbEntity
  8
細線
 48
50.0
100
AcDbLine
 10
6073.600000000006
 20
6334.99524872824
 30
0.0
 11
6264.897961922391
 21
6526.293210650618
 31
0.0
  0
LINE
  5
265B3
330
747D
100
AcDbEntity
  8
細線
 48
50.0
100
AcDbLine
 10
6073.600000000007
 20
6379.896529333584
 30
0.0
 11
6219.996681317025
 21
6526.293210650618
 31
0.0
  0
LINE
  5
265B4
330
747D
100
AcDbEntity
  8
部品1
 48
50.0
100
AcDbLine
 10
6073.600000000003
 20
6526.293210650615
 30
0.0
 11
6073.600000000009
 21
6246.293210650621
 31
0.0
  0
LINE
  5
265B5
330
747D
100
AcDbEntity
  8
細線
 48
50.0
100
AcDbLine
 10
6073.600000000006
 20
6424.797809938934
 30
0.0
 11
6175.095400711693
 21
6526.293210650617
 31
0.0
  0
LINE
  5
265B6
330
747D
100
AcDbEntity
  8
部品1
 48
50.0
100
AcDbLine
 10
6273.600000000003
 20
6526.293210650617
 30
0.0
 11
6273.600000000009
 21
6246.293210650625
 31
0.0
  0
LINE
  5
265B7
330
747D
100
AcDbEntity
  8
細線
 48
50.0
100
AcDbLine
 10
6893.600000000003
 20
6469.69909054428
 30
0.0
 11
6950.194120106337
 21
6526.293210650617
 31
0.0
  0
LINE
  5
265B8
330
747D
100
AcDbEntity
  8
細線
 48
50.0
100
AcDbLine
 10
7074.305645554466
 20
6246.293210650627
 30
0.0
 11
7093.600000000009
 21
6265.587565096168
 31
0.0
  0
LINE
  5
265B9
330
747D
100
AcDbEntity
  8
細線
 48
50.0
100
AcDbLine
 10
7029.40436494912
 20
6246.293210650625
 30
0.0
 11
7093.600000000009
 21
6310.488845701513
 31
0.0
  0
LINE
  5
265BA
330
747D
100
AcDbEntity
  8
細線
 48
50.0
100
AcDbLine
 10
6939.601803738425
 20
6246.293210650623
 30
0.0
 11
7093.600000000006
 21
6400.2914069122
 31
0.0
  0
LINE
  5
265BB
330
747D
100
AcDbEntity
  8
細線
 48
50.0
100
AcDbLine
 10
6984.503084343774
 20
6246.293210650623
 30
0.0
 11
7093.600000000006
 21
6355.390126306857
 31
0.0
  0
LINE
  5
265BC
330
747D
100
AcDbEntity
  8
細線
 48
50.0
100
AcDbLine
 10
6894.700523133082
 20
6246.293210650621
 30
0.0
 11
7093.600000000003
 21
6445.192687517547
 31
0.0
  0
LINE
  5
265BD
330
747D
100
AcDbEntity
  8
細線
 48
50.0
100
AcDbLine
 10
6893.600000000009
 20
6290.093968122898
 30
0.0
 11
7093.600000000003
 21
6490.093968122889
 31
0.0
  0
LINE
  5
265BE
330
747D
100
AcDbEntity
  8
細線
 48
50.0
100
AcDbLine
 10
6893.600000000006
 20
6334.99524872824
 30
0.0
 11
7084.897961922391
 21
6526.293210650618
 31
0.0
  0
LINE
  5
265BF
330
747D
100
AcDbEntity
  8
細線
 48
50.0
100
AcDbLine
 10
6893.600000000008
 20
6379.896529333584
 30
0.0
 11
7039.996681317027
 21
6526.293210650618
 31
0.0
  0
LINE
  5
265C0
330
747D
100
AcDbEntity
  8
部品1
 48
50.0
100
AcDbLine
 10
6893.600000000003
 20
6526.293210650615
 30
0.0
 11
6893.600000000009
 21
6246.293210650621
 31
0.0
  0
LINE
  5
265C1
330
747D
100
AcDbEntity
  8
細線
 48
50.0
100
AcDbLine
 10
6893.600000000006
 20
6424.797809938934
 30
0.0
 11
6995.095400711694
 21
6526.293210650617
 31
0.0
  0
LINE
  5
265C2
330
747D
100
AcDbEntity
  8
部品1
 48
50.0
100
AcDbLine
 10
7093.600000000003
 20
6526.293210650617
 30
0.0
 11
7093.600000000009
 21
6246.293210650625
 31
0.0
  0
LINE
  5
265C3
330
747D
100
AcDbEntity
  8
細線
 48
50.0
100
AcDbLine
 10
7713.600000000004
 20
6469.69909054428
 30
0.0
 11
7770.194120106338
 21
6526.293210650617
 31
0.0
  0
LINE
  5
265C4
330
747D
100
AcDbEntity
  8
細線
 48
50.0
100
AcDbLine
 10
7894.305645554466
 20
6246.293210650627
 30
0.0
 11
7913.600000000009
 21
6265.587565096168
 31
0.0
  0
LINE
  5
265C5
330
747D
100
AcDbEntity
  8
細線
 48
50.0
100
AcDbLine
 10
7849.40436494912
 20
6246.293210650625
 30
0.0
 11
7913.600000000009
 21
6310.488845701513
 31
0.0
  0
LINE
  5
265C6
330
747D
100
AcDbEntity
  8
細線
 48
50.0
100
AcDbLine
 10
7759.601803738426
 20
6246.293210650623
 30
0.0
 11
7913.600000000006
 21
6400.2914069122
 31
0.0
  0
LINE
  5
265C7
330
747D
100
AcDbEntity
  8
細線
 48
50.0
100
AcDbLine
 10
7804.503084343775
 20
6246.293210650623
 30
0.0
 11
7913.600000000006
 21
6355.390126306857
 31
0.0
  0
LINE
  5
265C8
330
747D
100
AcDbEntity
  8
細線
 48
50.0
100
AcDbLine
 10
7714.700523133082
 20
6246.293210650621
 30
0.0
 11
7913.600000000004
 21
6445.192687517547
 31
0.0
  0
LINE
  5
265C9
330
747D
100
AcDbEntity
  8
細線
 48
50.0
100
AcDbLine
 10
7713.60000000001
 20
6290.093968122898
 30
0.0
 11
7913.600000000004
 21
6490.093968122889
 31
0.0
  0
LINE
  5
265CA
330
747D
100
AcDbEntity
  8
細線
 48
50.0
100
AcDbLine
 10
7713.600000000006
 20
6334.99524872824
 30
0.0
 11
7904.897961922391
 21
6526.293210650618
 31
0.0
  0
LINE
  5
265CB
330
747D
100
AcDbEntity
  8
細線
 48
50.0
100
AcDbLine
 10
7713.600000000008
 20
6379.896529333584
 30
0.0
 11
7859.996681317025
 21
6526.293210650618
 31
0.0
  0
LINE
  5
265CC
330
747D
100
AcDbEntity
  8
部品1
 48
50.0
100
AcDbLine
 10
7713.600000000004
 20
6526.293210650615
 30
0.0
 11
7713.60000000001
 21
6246.293210650621
 31
0.0
  0
LINE
  5
265CD
330
747D
100
AcDbEntity
  8
細線
 48
50.0
100
AcDbLine
 10
7713.600000000006
 20
6424.797809938934
 30
0.0
 11
7815.095400711694
 21
6526.293210650617
 31
0.0
  0
LINE
  5
265CE
330
747D
100
AcDbEntity
  8
部品1
 48
50.0
100
AcDbLine
 10
7913.600000000004
 20
6526.293210650617
 30
0.0
 11
7913.600000000009
 21
6246.293210650625
 31
0.0
  0
LINE
  5
265CF
330
747D
100
AcDbEntity
  8
細線
 48
50.0
100
AcDbLine
 10
8533.600000000005
 20
6469.69909054428
 30
0.0
 11
8590.194120106337
 21
6526.293210650617
 31
0.0
  0
LINE
  5
265D0
330
747D
100
AcDbEntity
  8
細線
 48
50.0
100
AcDbLine
 10
8714.305645554466
 20
6246.293210650627
 30
0.0
 11
8733.600000000009
 21
6265.587565096168
 31
0.0
  0
LINE
  5
265D1
330
747D
100
AcDbEntity
  8
細線
 48
50.0
100
AcDbLine
 10
8669.404364949119
 20
6246.293210650625
 30
0.0
 11
8733.600000000009
 21
6310.488845701513
 31
0.0
  0
LINE
  5
265D2
330
747D
100
AcDbEntity
  8
細線
 48
50.0
100
AcDbLine
 10
8579.601803738425
 20
6246.293210650623
 30
0.0
 11
8733.600000000006
 21
6400.2914069122
 31
0.0
  0
LINE
  5
265D3
330
747D
100
AcDbEntity
  8
細線
 48
50.0
100
AcDbLine
 10
8624.503084343775
 20
6246.293210650623
 30
0.0
 11
8733.600000000006
 21
6355.390126306857
 31
0.0
  0
LINE
  5
265D4
330
747D
100
AcDbEntity
  8
細線
 48
50.0
100
AcDbLine
 10
8534.700523133082
 20
6246.293210650621
 30
0.0
 11
8733.600000000004
 21
6445.192687517547
 31
0.0
  0
LINE
  5
265D5
330
747D
100
AcDbEntity
  8
細線
 48
50.0
100
AcDbLine
 10
8533.60000000001
 20
6290.093968122898
 30
0.0
 11
8733.600000000004
 21
6490.093968122889
 31
0.0
  0
LINE
  5
265D6
330
747D
100
AcDbEntity
  8
細線
 48
50.0
100
AcDbLine
 10
8533.600000000005
 20
6334.99524872824
 30
0.0
 11
8724.89796192239
 21
6526.293210650618
 31
0.0
  0
LINE
  5
265D7
330
747D
100
AcDbEntity
  8
細線
 48
50.0
100
AcDbLine
 10
8533.600000000008
 20
6379.896529333584
 30
0.0
 11
8679.996681317026
 21
6526.293210650618
 31
0.0
  0
LINE
  5
265D8
330
747D
100
AcDbEntity
  8
部品1
 48
50.0
100
AcDbLine
 10
8533.600000000003
 20
6526.293210650615
 30
0.0
 11
8533.60000000001
 21
6246.293210650621
 31
0.0
  0
LINE
  5
265D9
330
747D
100
AcDbEntity
  8
細線
 48
50.0
100
AcDbLine
 10
8533.600000000005
 20
6424.797809938934
 30
0.0
 11
8635.095400711692
 21
6526.293210650617
 31
0.0
  0
LINE
  5
265DA
330
747D
100
AcDbEntity
  8
部品1
 48
50.0
100
AcDbLine
 10
8733.600000000002
 20
6526.293210650617
 30
0.0
 11
8733.600000000009
 21
6246.293210650625
 31
0.0
  0
LINE
  5
265DB
330
747D
100
AcDbEntity
  8
細線
 48
50.0
100
AcDbLine
 10
9353.600000000005
 20
6469.69909054428
 30
0.0
 11
9410.194120106337
 21
6526.293210650617
 31
0.0
  0
LINE
  5
265DC
330
747D
100
AcDbEntity
  8
細線
 48
50.0
100
AcDbLine
 10
9534.305645554466
 20
6246.293210650627
 30
0.0
 11
9553.60000000001
 21
6265.587565096168
 31
0.0
  0
LINE
  5
265DD
330
747D
100
AcDbEntity
  8
細線
 48
50.0
100
AcDbLine
 10
9489.40436494912
 20
6246.293210650625
 30
0.0
 11
9553.60000000001
 21
6310.488845701513
 31
0.0
  0
LINE
  5
265DE
330
747D
100
AcDbEntity
  8
細線
 48
50.0
100
AcDbLine
 10
9399.601803738425
 20
6246.293210650623
 30
0.0
 11
9553.600000000006
 21
6400.2914069122
 31
0.0
  0
LINE
  5
265DF
330
747D
100
AcDbEntity
  8
細線
 48
50.0
100
AcDbLine
 10
9444.503084343775
 20
6246.293210650623
 30
0.0
 11
9553.600000000006
 21
6355.390126306857
 31
0.0
  0
LINE
  5
265E0
330
747D
100
AcDbEntity
  8
細線
 48
50.0
100
AcDbLine
 10
9354.700523133082
 20
6246.293210650621
 30
0.0
 11
9553.600000000004
 21
6445.192687517547
 31
0.0
  0
LINE
  5
265E1
330
747D
100
AcDbEntity
  8
細線
 48
50.0
100
AcDbLine
 10
9353.60000000001
 20
6290.093968122898
 30
0.0
 11
9553.600000000004
 21
6490.093968122889
 31
0.0
  0
LINE
  5
265E2
330
747D
100
AcDbEntity
  8
細線
 48
50.0
100
AcDbLine
 10
9353.600000000005
 20
6334.99524872824
 30
0.0
 11
9544.897961922391
 21
6526.293210650618
 31
0.0
  0
LINE
  5
265E3
330
747D
100
AcDbEntity
  8
細線
 48
50.0
100
AcDbLine
 10
9353.600000000007
 20
6379.896529333584
 30
0.0
 11
9499.996681317025
 21
6526.293210650618
 31
0.0
  0
LINE
  5
265E4
330
747D
100
AcDbEntity
  8
部品1
 48
50.0
100
AcDbLine
 10
9353.600000000003
 20
6526.293210650615
 30
0.0
 11
9353.60000000001
 21
6246.293210650621
 31
0.0
  0
LINE
  5
265E5
330
747D
100
AcDbEntity
  8
細線
 48
50.0
100
AcDbLine
 10
9353.600000000005
 20
6424.797809938934
 30
0.0
 11
9455.095400711693
 21
6526.293210650617
 31
0.0
  0
LINE
  5
265E6
330
747D
100
AcDbEntity
  8
部品1
 48
50.0
100
AcDbLine
 10
9553.600000000002
 20
6526.293210650617
 30
0.0
 11
9553.60000000001
 21
6246.293210650625
 31
0.0
  0
LINE
  5
265E7
330
747D
100
AcDbEntity
  8
細線
 48
50.0
100
AcDbLine
 10
10173.6
 20
6469.69909054428
 30
0.0
 11
10230.19412010634
 21
6526.293210650617
 31
0.0
  0
LINE
  5
265E8
330
747D
100
AcDbEntity
  8
細線
 48
50.0
100
AcDbLine
 10
10354.30564555446
 20
6246.293210650627
 30
0.0
 11
10373.60000000001
 21
6265.587565096168
 31
0.0
  0
LINE
  5
265E9
330
747D
100
AcDbEntity
  8
細線
 48
50.0
100
AcDbLine
 10
10309.40436494912
 20
6246.293210650625
 30
0.0
 11
10373.60000000001
 21
6310.488845701513
 31
0.0
  0
LINE
  5
265EA
330
747D
100
AcDbEntity
  8
細線
 48
50.0
100
AcDbLine
 10
10219.60180373842
 20
6246.293210650623
 30
0.0
 11
10373.6
 21
6400.2914069122
 31
0.0
  0
LINE
  5
265EB
330
747D
100
AcDbEntity
  8
細線
 48
50.0
100
AcDbLine
 10
10264.50308434377
 20
6246.293210650623
 30
0.0
 11
10373.6
 21
6355.390126306857
 31
0.0
  0
LINE
  5
265EC
330
747D
100
AcDbEntity
  8
細線
 48
50.0
100
AcDbLine
 10
10174.70052313308
 20
6246.293210650621
 30
0.0
 11
10373.6
 21
6445.192687517547
 31
0.0
  0
LINE
  5
265ED
330
747D
100
AcDbEntity
  8
細線
 48
50.0
100
AcDbLine
 10
10173.60000000001
 20
6290.093968122898
 30
0.0
 11
10373.6
 21
6490.093968122889
 31
0.0
  0
LINE
  5
265EE
330
747D
100
AcDbEntity
  8
細線
 48
50.0
100
AcDbLine
 10
10173.6
 20
6334.99524872824
 30
0.0
 11
10364.89796192239
 21
6526.293210650618
 31
0.0
  0
LINE
  5
265EF
330
747D
100
AcDbEntity
  8
細線
 48
50.0
100
AcDbLine
 10
10173.6
 20
6379.896529333584
 30
0.0
 11
10319.99668131702
 21
6526.293210650618
 31
0.0
  0
LINE
  5
265F0
330
747D
100
AcDbEntity
  8
部品1
 48
50.0
100
AcDbLine
 10
10173.6
 20
6526.293210650615
 30
0.0
 11
10173.60000000001
 21
6246.293210650621
 31
0.0
  0
LINE
  5
265F1
330
747D
100
AcDbEntity
  8
細線
 48
50.0
100
AcDbLine
 10
10173.6
 20
6424.797809938934
 30
0.0
 11
10275.09540071169
 21
6526.293210650617
 31
0.0
  0
LINE
  5
265F2
330
747D
100
AcDbEntity
  8
部品1
 48
50.0
100
AcDbLine
 10
10373.6
 20
6526.293210650617
 30
0.0
 11
10373.60000000001
 21
6246.293210650625
 31
0.0
  0
LINE
  5
265F3
330
747D
100
AcDbEntity
  8
細線
 48
50.0
100
AcDbLine
 10
10993.6
 20
6469.69909054428
 30
0.0
 11
11050.19412010634
 21
6526.293210650617
 31
0.0
  0
LINE
  5
265F4
330
747D
100
AcDbEntity
  8
細線
 48
50.0
100
AcDbLine
 10
11174.30564555446
 20
6246.293210650627
 30
0.0
 11
11193.60000000001
 21
6265.587565096168
 31
0.0
  0
LINE
  5
265F5
330
747D
100
AcDbEntity
  8
細線
 48
50.0
100
AcDbLine
 10
11129.40436494912
 20
6246.293210650625
 30
0.0
 11
11193.60000000001
 21
6310.488845701513
 31
0.0
  0
LINE
  5
265F6
330
747D
100
AcDbEntity
  8
細線
 48
50.0
100
AcDbLine
 10
11039.60180373842
 20
6246.293210650623
 30
0.0
 11
11193.6
 21
6400.2914069122
 31
0.0
  0
LINE
  5
265F7
330
747D
100
AcDbEntity
  8
細線
 48
50.0
100
AcDbLine
 10
11084.50308434377
 20
6246.293210650623
 30
0.0
 11
11193.6
 21
6355.390126306857
 31
0.0
  0
LINE
  5
265F8
330
747D
100
AcDbEntity
  8
細線
 48
50.0
100
AcDbLine
 10
10994.70052313308
 20
6246.293210650621
 30
0.0
 11
11193.6
 21
6445.192687517547
 31
0.0
  0
LINE
  5
265F9
330
747D
100
AcDbEntity
  8
細線
 48
50.0
100
AcDbLine
 10
10993.60000000001
 20
6290.093968122898
 30
0.0
 11
11193.6
 21
6490.093968122889
 31
0.0
  0
LINE
  5
265FA
330
747D
100
AcDbEntity
  8
細線
 48
50.0
100
AcDbLine
 10
10993.6
 20
6334.99524872824
 30
0.0
 11
11184.89796192239
 21
6526.293210650618
 31
0.0
  0
LINE
  5
265FB
330
747D
100
AcDbEntity
  8
細線
 48
50.0
100
AcDbLine
 10
10993.6
 20
6379.896529333584
 30
0.0
 11
11139.99668131702
 21
6526.293210650618
 31
0.0
  0
LINE
  5
265FC
330
747D
100
AcDbEntity
  8
部品1
 48
50.0
100
AcDbLine
 10
10993.6
 20
6526.293210650615
 30
0.0
 11
10993.60000000001
 21
6246.293210650621
 31
0.0
  0
LINE
  5
265FD
330
747D
100
AcDbEntity
  8
細線
 48
50.0
100
AcDbLine
 10
10993.6
 20
6424.797809938934
 30
0.0
 11
11095.09540071169
 21
6526.293210650617
 31
0.0
  0
LINE
  5
265FE
330
747D
100
AcDbEntity
  8
部品1
 48
50.0
100
AcDbLine
 10
11193.6
 20
6526.293210650617
 30
0.0
 11
11193.60000000001
 21
6246.293210650625
 31
0.0
  0
LINE
  5
26689
330
747D
100
AcDbEntity
  8
部品1
 48
50.0
100
AcDbLine
 10
11388.6
 20
6526.293210650646
 30
0.0
 11
11388.59999999999
 21
7426.293210650618
 31
0.0
  0
LINE
  5
2668B
330
747D
100
AcDbEntity
  8
部品1
 48
50.0
100
AcDbLine
 10
5058.600000000001
 20
6526.293210650615
 30
0.0
 11
5058.599999999993
 21
7426.293210650616
 31
0.0
  0
LINE
  5
26823
330
747D
100
AcDbEntity
  8
部品1
100
AcDbLine
 10
11561.10041487965
 20
3402.505121702947
 30
0.0
 11
5490.115229493393
 21
3402.505121702947
 31
0.0
  0
LINE
  5
26824
330
747D
100
AcDbEntity
  8
部品1
100
AcDbLine
 10
11561.10041487964
 20
3162.505121702945
 30
0.0
 11
5490.115229493397
 21
3162.505121702945
 31
0.0
  0
LINE
  5
26825
330
747D
100
AcDbEntity
  8
部品1
100
AcDbLine
 10
5490.115229493397
 20
438.1981521182997
 30
0.0
 11
11561.10041487964
 21
438.1981521182997
 31
0.0
  0
LEADER
  5
26826
330
747D
100
AcDbEntity
  8
寸法
 48
50.0
100
AcDbLeader
  3
INABA_S50G
 73
     0
 74
     0
 75
     1
 40
102.2727272727273
 41
680.0000000000001
 76
     3
 10
8498.222981479852
 20
2402.041735611504
 30
0.0
 10
8532.576952593208
 20
2812.494546718045
 30
0.0
 10
8657.576952593208
 20
2812.494546718045
 30
0.0
340
26827
1001
ACAD
1000
DSTYLE
1002
{
1070
   341
1005
0
1070
    40
1040
1.0
1070
   343
1005
0
1070
   344
1005
0
1002
}
  0
MTEXT
  5
26827
102
{ACAD_REACTORS
330
26826
102
}
330
747D
100
AcDbEntity
  8
部品1
 62
     7
 48
50.0
100
AcDbMText
 10
8682.576952593208
 20
2888.630910354409
 30
0.0
 40
80.0
 41
0.8
 71
     4
 72
     1
  1
\A1;ナット(市販品)
  7
STYLE2
 73
     1
 44
1.0
1001
ACAD
1000
MTEXTBEGIN
1070
    73
1070
     1
1070
    44
1040
1.0
1070
    74
1070
     0
1000
MTEXTEND
  0
LEADER
  5
26828
330
747D
100
AcDbEntity
  8
寸法
 48
50.0
100
AcDbLeader
  3
INABA_S50G
 73
     0
 74
     0
 75
     1
 40
102.2727272727273
 41
906.8181818181818
 76
     3
 10
8522.222981479853
 20
2272.289742946641
 30
0.0
 10
8564.094571848691
 20
2627.525463953258
 30
0.0
 10
8689.094571848691
 20
2627.525463953258
 30
0.0
340
26829
1001
ACAD
1000
DSTYLE
1002
{
1070
   341
1005
0
1070
    40
1040
1.0
1070
   343
1005
0
1070
   344
1005
0
1002
}
  0
MTEXT
  5
26829
102
{ACAD_REACTORS
330
26828
102
}
330
747D
100
AcDbEntity
  8
部品1
 62
     7
 48
50.0
100
AcDbMText
 10
8714.094571848692
 20
2703.661827589622
 30
0.0
 40
80.0
 41
0.8
 71
     4
 72
     1
  1
\A1;ワッシャー(市販品)
  7
STYLE2
 73
     1
 44
1.0
1001
ACAD
1000
MTEXTBEGIN
1070
    73
1070
     1
1070
    44
1040
1.0
1070
    74
1070
     0
1000
MTEXTEND
  0
LWPOLYLINE
  5
2682A
330
747D
100
AcDbEntity
  8
部品1
 48
50.0
100
AcDbPolyline
 90
        2
 70
     0
 43
8.0
 10
8674.82298147985
 20
1763.166454502362
 10
8968.525444879235
 20
1763.166454502362
  0
TEXT
  5
2682B
330
747D
100
AcDbEntity
  8
部品1
 48
50.0
100
AcDbText
 10
8679.176565764279
 20
2359.045135264562
 30
0.0
 40
80.0
  1
基礎ボルト(市販品)
  7
STYLE2
100
AcDbText
  0
DIMENSION
  5
2682C
330
747D
100
AcDbEntity
  8
寸法
 48
50.0
100
AcDbDimension
  2
*D57
 10
9176.691581248695
 20
1679.16645450236
 30
0.0
 11
9076.691581248695
 21
1841.166454502362
 31
0.0
 70
    32
  1
180
 71
     5
 42
324.0000000000009
  3
INABA_S40G
100
AcDbAlignedDimension
 13
8674.82298147985
 23
2003.166454502361
 33
0.0
 14
8674.82298147985
 24
1679.16645450236
 34
0.0
 50
90.0
100
AcDbRotatedDimension
1001
ACAD
1000
DSTYLE
1002
{
1070
   341
1005
0
1002
}
  0
DIMENSION
  5
2682D
330
747D
100
AcDbEntity
  8
寸法
 48
50.0
100
AcDbDimension
  2
*D58
 10
9452.746247367723
 20
2003.166454502361
 30
0.0
 11
9452.746247367723
 21
1537.157551080879
 31
0.0
 70
   160
  1
20～25
 71
     5
 42
52.76000000000113
  3
INABA_S40G
100
AcDbAlignedDimension
 13
8487.622981479852
 23
2055.926454502363
 33
0.0
 14
8674.82298147985
 24
2003.166454502361
 34
0.0
 50
90.0
100
AcDbRotatedDimension
1001
ACAD
1000
DSTYLE
1002
{
1070
   341
1005
0
1002
}
  0
MTEXT
  5
2682E
102
{ACAD_REACTORS
330
2682F
102
}
330
747D
100
AcDbEntity
  8
部品1
 62
     7
 48
50.0
100
AcDbMText
 10
8683.767443899171
 20
2267.549780655591
 30
0.0
 40
80.0
 41
0.8
 71
     4
 72
     1
  1
M10X160
  7
STYLE2
 73
     1
 44
1.0
1001
ACAD
1000
MTEXTBEGIN
1070
    73
1070
     1
1070
    44
1040
1.0
1070
    74
1070
     0
1000
MTEXTEND
  0
LEADER
  5
2682F
330
747D
100
AcDbEntity
  8
寸法
 48
50.0
100
AcDbLeader
  3
INABA_S50G
 73
     0
 74
     0
 75
     1
 40
80.0
 41
435.0
 76
     3
 10
8491.222981479852
 20
2052.326454502362
 30
0.0
 10
8533.76744389917
 20
2202.549780655592
 30
0.0
 10
8658.76744389917
 20
2202.549780655592
 30
0.0
340
2682E
1001
ACAD
1000
DSTYLE
1002
{
1070
   341
1005
0
1070
    40
1040
1.0
1070
   343
1005
0
1070
   344
1005
0
1002
}
  0
LINE
  5
26830
330
747D
100
AcDbEntity
  8
部品1
100
AcDbLine
 10
5490.115229493394
 20
3402.505121702947
 30
0.0
 11
5490.115229493397
 21
438.1981521182997
 31
0.0
  0
LEADER
  5
26831
330
747D
100
AcDbEntity
  8
寸法
 48
50.0
100
AcDbLeader
  3
INABA_S50G
 73
     0
 75
     1
 40
113.1818181818182
 41
608.6363636363635
 76
     3
 10
8450.959731617903
 20
1952.68212786064
 30
0.0
 10
8317.155902926554
 20
2804.061210217118
 30
0.0
 10
8192.155902926554
 20
2804.061210217118
 30
0.0
340
26832
1001
ACAD
1000
DSTYLE
1002
{
1070
   341
1005
0
1070
    40
1040
1.0
1070
   343
1005
0
1070
   344
1005
0
1002
}
  0
MTEXT
  5
26832
102
{ACAD_REACTORS
330
26831
102
}
330
747D
100
AcDbEntity
  8
寸法
 62
     7
 48
50.0
100
AcDbMText
 10
8167.155902926554
 20
2885.652119308027
 30
0.0
 40
80.0
 41
0.8
 71
     6
 72
     1
  1
\A1;φ70スリーブ
  7
STYLE2
 73
     1
 44
1.0
1001
ACAD
1000
MTEXTBEGIN
1070
    73
1070
     1
1070
    44
1040
1.0
1070
    74
1070
     0
1000
MTEXTEND
  0
LWPOLYLINE
  5
26833
330
747D
100
AcDbEntity
  8
部品1
 48
50.0
100
AcDbPolyline
 90
        2
 70
     0
 43
8.0
 10
6146.643766469701
 20
1763.166454502362
 10
6560.783668302658
 20
1763.166454502362
  0
TEXT
  5
26834
330
747D
100
AcDbEntity
  8
部品1
 48
50.0
100
AcDbText
 10
6146.643766469701
 20
1774.405446785617
 30
0.0
 40
80.0
  1
▽G.L
  7
STYLE2
100
AcDbText
  0
DIMENSION
  5
26835
330
747D
100
AcDbEntity
  8
寸法
 48
50.0
100
AcDbDimension
  2
*D59
 10
6290.363354570198
 20
1219.166454502361
 30
0.0
 11
6290.363354570198
 21
1339.166454502362
 31
0.0
 70
   160
  1
150
 71
     5
 42
240.0
  3
INABA_S40G
100
AcDbAlignedDimension
 13
6432.783668302658
 23
1459.166454502361
 33
0.0
 14
6352.78366830266
 24
1219.166454502361
 34
0.0
 50
90.0
100
AcDbRotatedDimension
1001
ACAD
1000
DSTYLE
1002
{
1070
   341
1005
0
1002
}
  0
LEADER
  5
26836
330
747D
100
AcDbEntity
  8
寸法
 48
50.0
100
AcDbLeader
  3
INABA_S50G
 71
     0
 73
     0
 75
     1
 40
100.0
 41
225.0
 76
     3
 10
6528.686620654799
 20
1339.166454502361
 30
0.0
 10
6406.848642107464
 20
1075.643760883925
 30
0.0
 10
6281.848642107463
 20
1075.643760883925
 30
0.0
1001
ACAD
1000
DSTYLE
1002
{
1070
    40
1040
1.0
1070
   272
1070
     1
1070
   279
1070
     1
1070
   341
1005
0
1002
}
  0
LEADER
  5
26837
330
747D
100
AcDbEntity
  8
寸法
 48
50.0
100
AcDbLeader
  3
INABA_S50G
 71
     0
 73
     0
 75
     1
 40
100.0
 41
222.7272727272727
 76
     3
 10
6656.783668302657
 20
1339.166454502361
 30
0.0
 10
6434.971369664897
 20
895.3276083444816
 30
0.0
 10
6309.971369664897
 20
895.3276083444816
 30
0.0
1001
ACAD
1000
DSTYLE
1002
{
1070
    40
1040
1.0
1070
   272
1070
     1
1070
   279
1070
     1
1070
   341
1005
0
1002
}
  0
MTEXT
  5
26838
102
{ACAD_REACTORS
330
26839
102
}
330
747D
100
AcDbEntity
  8
寸法
 62
     7
 48
50.0
100
AcDbMText
 10
6471.533614079852
 20
1604.467057319818
 30
0.0
 40
80.0
 41
0.8
 71
     6
 72
     1
  1
\A1;D10@300
  7
STYLE2
 73
     1
 44
1.0
1001
ACAD
1000
MTEXTBEGIN
1070
    73
1070
     1
1070
    44
1040
1.0
1070
    74
1070
     0
1000
MTEXTEND
  0
LEADER
  5
26839
330
747D
100
AcDbEntity
  8
寸法
 48
50.0
100
AcDbLeader
  3
INABA_S50G
 71
     0
 73
     0
 75
     1
 40
100.0
 41
540.3409090909091
 76
     3
 10
6664.783668302657
 20
1761.293669199484
 30
0.0
 10
6606.801431773959
 20
1539.82334065868
 30
0.0
 10
6481.801431773959
 20
1539.82334065868
 30
0.0
213
-9.732182305893367
223
-4.643716661138569
233
0.0
1001
ACAD
1000
DSTYLE
1002
{
1070
    40
1040
1.0
1070
   272
1070
     1
1070
   279
1070
     1
1070
   341
1005
0
1002
}
  0
LEADER
  5
2683A
330
747D
100
AcDbEntity
  8
寸法
 48
50.0
100
AcDbLeader
  3
INABA_S50G
 71
     0
 73
     0
 75
     1
 40
130.1136363636363
 41
651.1363636363636
 76
     3
 10
6640.783668302657
 20
2003.166454502361
 30
0.0
 10
6528.35908813864
 20
2143.63721995895
 30
0.0
 10
6403.35908813864
 20
2143.63721995895
 30
0.0
1001
ACAD
1000
DSTYLE
1002
{
1070
    40
1040
1.0
1070
   272
1070
     1
1070
   279
1070
     1
1070
   341
1005
0
1002
}
  0
MTEXT
  5
2683B
102
{ACAD_REACTORS
330
2683A
102
}
330
747D
100
AcDbEntity
  8
寸法
 62
     7
 48
50.0
100
AcDbMText
 10
6340.685188819384
 20
2215.682674504404
 30
0.0
 40
80.0
 41
0.8
 71
     6
 72
     1
  1
\A1;金コテ押エ
  7
STYLE2
 73
     1
 44
1.0
1001
ACAD
1000
MTEXTBEGIN
1070
    73
1070
     1
1070
    44
1040
1.0
1070
    74
1070
     0
1000
MTEXTEND
  0
DIMENSION
  5
2683C
330
747D
100
AcDbEntity
  8
寸法
 48
50.0
100
AcDbDimension
  2
*D60
 10
5825.746429740917
 20
1219.166454502361
 30
0.0
 11
5825.746429740917
 21
1590.706604158362
 31
0.0
 70
   160
  1
540
 71
     5
 42
784.0
  3
INABA_S40G
100
AcDbAlignedDimension
 13
6560.783668302658
 23
2003.166454502361
 33
0.0
 14
6352.78366830266
 24
1219.166454502361
 34
0.0
 50
90.0
100
AcDbRotatedDimension
1001
ACAD
1000
DSTYLE
1002
{
1070
   341
1005
0
1002
}
  0
MTEXT
  5
2683D
102
{ACAD_REACTORS
330
26837
102
}
330
747D
100
AcDbEntity
  8
寸法
 62
     7
 48
50.0
100
AcDbMText
 10
6289.971369664898
 20
955.3276083444815
 30
0.0
 40
80.0
 41
0.8
 71
     6
 72
     1
  1
D13
  7
STYLE2
 73
     1
 44
1.0
1001
ACAD
1000
MTEXTBEGIN
1070
    73
1070
     1
1070
    44
1040
1.0
1070
    74
1070
     0
1000
MTEXTEND
  0
MTEXT
  5
2683E
102
{ACAD_REACTORS
330
26836
102
}
330
747D
100
AcDbEntity
  8
寸法
 62
     7
 48
50.0
100
AcDbMText
 10
6261.848642107463
 20
1135.643760883925
 30
0.0
 40
80.0
 41
0.8
 71
     6
 72
     1
  1
D10
  7
STYLE2
 73
     1
 44
1.0
1001
ACAD
1000
MTEXTBEGIN
1070
    73
1070
     1
1070
    44
1040
1.0
1070
    74
1070
     0
1000
MTEXTEND
  0
DIMENSION
  5
2683F
330
747D
100
AcDbEntity
  8
寸法
 48
50.0
100
AcDbDimension
  2
*D61
 10
6880.783668302658
 20
680.7368164972013
 30
0.0
 11
6636.686909624434
 21
680.7368164972013
 31
0.0
 70
   160
  1
300
 71
     5
 42
448.0
  3
INABA_S40G
100
AcDbAlignedDimension
 13
6432.783668302658
 23
1091.166454502361
 33
0.0
 14
6880.783668302658
 24
1091.166454502361
 34
0.0
100
AcDbRotatedDimension
1001
ACAD
1000
DSTYLE
1002
{
1070
   341
1005
0
1002
}
  0
MTEXT
  5
26840
102
{ACAD_REACTORS
330
26841
102
}
330
747D
100
AcDbEntity
  8
寸法
 62
     7
 48
50.0
100
AcDbMText
 10
8193.798909134912
 20
2524.967847400513
 30
0.0
 40
80.0
 41
0.8
 71
     6
 72
     1
  1
\A1;アンカープレート L
  7
STYLE2
 73
     1
 44
1.0
1001
ACAD
1000
MTEXTBEGIN
1070
    73
1070
     1
1070
    44
1040
1.0
1070
    74
1070
     0
1000
MTEXTEND
  0
LEADER
  5
26841
330
747D
100
AcDbEntity
  8
寸法
 48
50.0
100
AcDbLeader
  3
INABA_S50G
 73
     0
 75
     1
 40
106.3636363636363
 41
893.1818181818181
 76
     3
 10
8392.222981479852
 20
2072.726454502363
 30
0.0
 10
8343.798909134912
 20
2446.786029218695
 30
0.0
 10
8218.798909134912
 20
2446.786029218695
 30
0.0
340
26840
1001
ACAD
1000
DSTYLE
1002
{
1070
   341
1005
0
1070
    40
1040
1.0
1070
   343
1005
0
1070
   344
1005
0
1002
}
  0
LINE
  5
26842
330
747D
100
AcDbEntity
  8
細線
 48
50.0
100
AcDbLine
 10
6680.783668302658
 20
1841.539347170192
 30
0.0
 11
6752.783668302658
 21
1913.539347170192
 31
0.0
  0
ARC
  5
26843
330
747D
100
AcDbEntity
  8
部品1
 48
50.0
100
AcDbCircle
 10
6656.783668302658
 20
1863.420883896607
 30
0.0
 40
24.0
100
AcDbArc
 50
0.0
 51
180.0
  0
CIRCLE
  5
26844
330
747D
100
AcDbEntity
  8
部品1
 48
50.0
100
AcDbCircle
 10
6656.783668302658
 20
1863.420883896607
 30
0.0
 40
8.0
  0
LINE
  5
26845
330
747D
100
AcDbEntity
  8
部品1
 48
50.0
100
AcDbLine
 10
6560.783668302658
 20
1459.166454502361
 30
0.0
 11
6560.783668302658
 21
2003.166454502361
 31
0.0
  0
LINE
  5
26846
330
747D
100
AcDbEntity
  8
部品1
 48
50.0
100
AcDbLine
 10
6752.783668302658
 20
2003.166454502361
 30
0.0
 11
6752.783668302658
 21
1459.166454502361
 31
0.0
  0
MTEXT
  5
26847
102
{ACAD_REACTORS
330
2684C
102
}
330
747D
100
AcDbEntity
  8
寸法
 62
     7
 48
50.0
100
AcDbMText
 10
6835.669605330052
 20
2025.722353795172
 30
0.0
 40
80.0
 41
0.8
 71
     4
 72
     1
  1
D13
  7
STYLE2
 73
     1
 44
1.0
1001
ACAD
1000
MTEXTBEGIN
1070
    73
1070
     1
1070
    44
1040
1.0
1070
    74
1070
     0
1000
MTEXTEND
  0
LEADER
  5
26848
330
747D
100
AcDbEntity
  8
寸法
 48
50.0
100
AcDbLeader
  3
INABA_S50G
 71
     0
 73
     0
 74
     0
 75
     1
 40
100.0
 41
225.0
 76
     3
 10
6784.6866206548
 20
1339.166454502361
 30
0.0
 10
6839.111328109343
 20
1243.769385559389
 30
0.0
 10
6964.111328109343
 20
1243.769385559389
 30
0.0
1001
ACAD
1000
DSTYLE
1002
{
1070
    40
1040
1.0
1070
   272
1070
     1
1070
   279
1070
     1
1070
   341
1005
0
1002
}
  0
LEADER
  5
26849
330
747D
100
AcDbEntity
  8
寸法
 48
50.0
100
AcDbLeader
  3
INABA_S50G
 71
     0
 73
     0
 74
     0
 75
     1
 40
100.0
 41
540.3409090909091
 76
     3
 10
6730.728837315831
 20
1322.425924088836
 30
0.0
 10
6849.522124163908
 20
980.7951060939386
 30
0.0
 10
6974.522124163908
 20
980.7951060939386
 30
0.0
213
0.0
223
-1.022262676269383
233
0.0
1001
ACAD
1000
DSTYLE
1002
{
1070
    40
1040
1.0
1070
   272
1070
     1
1070
   279
1070
     1
1070
   341
1005
0
1002
}
  0
MTEXT
  5
2684A
102
{ACAD_REACTORS
330
26848
102
}
330
747D
100
AcDbEntity
  8
寸法
 62
     7
 48
50.0
100
AcDbMText
 10
6984.111328109342
 20
1303.769385559389
 30
0.0
 40
80.0
 41
0.8
 71
     4
 72
     1
  1
D10
  7
STYLE2
 73
     1
 44
1.0
1001
ACAD
1000
MTEXTBEGIN
1070
    73
1070
     1
1070
    44
1040
1.0
1070
    74
1070
     0
1000
MTEXTEND
  0
LWPOLYLINE
  5
2684B
330
747D
100
AcDbEntity
  8
部品1
 48
50.0
100
AcDbPolyline
 90
        2
 70
     0
 43
8.0
 10
6752.783668302658
 20
1763.166454502362
 10
7166.923570135614
 20
1763.166454502362
  0
LEADER
  5
2684C
330
747D
100
AcDbEntity
  8
寸法
 48
50.0
100
AcDbLeader
  3
INABA_S50G
 71
     0
 73
     0
 74
     0
 75
     1
 40
100.0
 41
222.7272727272727
 76
     3
 10
6656.783668302657
 20
1863.420883896607
 30
0.0
 10
6710.669605330052
 20
1962.656456749781
 30
0.0
 10
6835.669605330052
 20
1962.656456749781
 30
0.0
1001
ACAD
1000
DSTYLE
1002
{
1070
    40
1040
1.0
1070
   272
1070
     1
1070
   279
1070
     1
1070
   341
1005
0
1002
}
  0
LINE
  5
2684D
330
747D
100
AcDbEntity
  8
細線
 48
50.0
100
AcDbLine
 10
6432.783668302651
 20
1378.013200264532
 30
0.0
 11
6513.936922540486
 21
1459.166454502361
 31
0.0
  0
LINE
  5
2684E
330
747D
100
AcDbEntity
  8
細線
 48
50.0
100
AcDbLine
 10
6640.649515780062
 20
1397.293669199483
 30
0.0
 11
6664.783668302664
 21
1421.427821722082
 31
0.0
  0
LINE
  5
2684F
330
747D
100
AcDbEntity
  8
細線
 48
50.0
100
AcDbLine
 10
6547.581532719731
 20
1331.166454502361
 30
0.0
 11
6664.783668302658
 21
1448.368590085287
 31
0.0
  0
LINE
  5
26850
330
747D
100
AcDbEntity
  8
部品1
 48
50.0
100
AcDbLine
 10
6432.783668302658
 20
1219.166454502361
 30
0.0
 11
6432.783668302658
 21
1459.166454502361
 31
0.0
  0
LINE
  5
26851
330
747D
100
AcDbEntity
  8
細線
 48
50.0
100
AcDbLine
 10
6790.048447988602
 20
1331.166454502361
 30
0.0
 11
6880.783668302658
 21
1421.90167481642
 31
0.0
  0
LINE
  5
26852
330
747D
100
AcDbEntity
  8
細線
 48
50.0
100
AcDbLine
 10
6763.107679625385
 20
1331.166454502361
 30
0.0
 11
6880.783668302658
 21
1448.842443179627
 31
0.0
  0
LINE
  5
26853
330
747D
100
AcDbEntity
  8
部品1
 48
50.0
100
AcDbLine
 10
6880.783668302658
 20
1459.166454502361
 30
0.0
 11
6880.783668302658
 21
1219.166454502361
 31
0.0
  0
LINE
  5
26854
330
747D
100
AcDbEntity
  8
部品1
 48
50.0
100
AcDbLine
 10
6680.783668302663
 20
1339.166454502361
 30
0.0
 11
6680.783668302658
 21
1863.420883896607
 31
0.0
  0
LINE
  5
26855
330
747D
100
AcDbEntity
  8
部品1
 48
50.0
100
AcDbLine
 10
6664.783668302664
 20
1339.166454502361
 30
0.0
 11
6664.783668302651
 21
1863.420883896607
 31
0.0
  0
LINE
  5
26856
330
747D
100
AcDbEntity
  8
細線
 48
50.0
100
AcDbLine
 10
6648.783668302659
 20
1378.487053358873
 30
0.0
 11
6664.783668302664
 21
1394.487053358873
 31
0.0
  0
LINE
  5
26857
330
747D
100
AcDbEntity
  8
細線
 48
50.0
100
AcDbLine
 10
6637.966507798672
 20
1091.166454502361
 30
0.0
 11
6672.264004429855
 21
1219.166454502361
 31
0.0
  0
LINE
  5
26858
330
747D
100
AcDbEntity
  8
部品1
 48
50.0
100
AcDbLine
 10
6960.783668302662
 20
1091.166454502361
 30
0.0
 11
6352.783668302659
 21
1091.166454502361
 31
0.0
  0
LINE
  5
26859
330
747D
100
AcDbEntity
  8
部品1
 48
50.0
100
AcDbLine
 10
6488.783668302658
 20
1315.166454502361
 30
0.0
 11
6824.783668302657
 21
1315.166454502361
 31
0.0
  0
LINE
  5
2685A
330
747D
100
AcDbEntity
  8
部品1
 48
50.0
100
AcDbLine
 10
6488.783668302658
 20
1331.166454502361
 30
0.0
 11
6824.783668302657
 21
1331.166454502361
 31
0.0
  0
LINE
  5
2685B
330
747D
100
AcDbEntity
  8
部品1
 48
50.0
100
AcDbLine
 10
6960.783668302662
 20
1219.166454502361
 30
0.0
 11
6352.783668302659
 21
1219.166454502361
 31
0.0
  0
CIRCLE
  5
2685C
330
747D
100
AcDbEntity
  8
部品1
 48
50.0
100
AcDbCircle
 10
6656.783668302658
 20
1339.166454502361
 30
0.0
 40
8.0
  0
LINE
  5
2685D
330
747D
100
AcDbEntity
  8
細線
 48
50.0
100
AcDbLine
 10
6651.107679625392
 20
1219.166454502361
 30
0.0
 11
6747.107679625391
 21
1315.166454502361
 31
0.0
  0
LINE
  5
2685E
330
747D
100
AcDbEntity
  8
細線
 48
50.0
100
AcDbLine
 10
6480.190417904174
 20
1091.166454502361
 30
0.0
 11
6514.487914535357
 21
1219.166454502361
 31
0.0
  0
LINE
  5
2685F
330
747D
100
AcDbEntity
  8
細線
 48
50.0
100
AcDbLine
 10
6559.07846285142
 20
1091.166454502359
 30
0.0
 11
6593.375959482603
 21
1219.166454502359
 31
0.0
  0
LINE
  5
26860
330
747D
100
AcDbEntity
  8
細線
 48
50.0
100
AcDbLine
 10
6401.302372956916
 20
1091.166454502359
 30
0.0
 11
6435.599869588099
 21
1219.166454502359
 31
0.0
  0
LINE
  5
26861
330
747D
100
AcDbEntity
  8
部品1
 48
50.0
100
AcDbLine
 10
6352.783668302659
 20
1091.166454502361
 30
0.0
 11
6352.783668302659
 21
1219.166454502361
 31
0.0
  0
LINE
  5
26862
330
747D
100
AcDbEntity
  8
細線
 48
50.0
100
AcDbLine
 10
6486.62119852252
 20
1115.166454502361
 30
0.0
 11
6493.051979140869
 21
1091.166454502361
 31
0.0
  0
LINE
  5
26863
330
747D
100
AcDbEntity
  8
細線
 48
50.0
100
AcDbLine
 10
6407.733153575269
 20
1115.166454502361
 30
0.0
 11
6414.163934193616
 21
1091.166454502361
 31
0.0
  0
LINE
  5
26864
330
747D
100
AcDbEntity
  8
細線
 48
50.0
100
AcDbLine
 10
6644.397288417025
 20
1115.166454502361
 30
0.0
 11
6650.828069035371
 21
1091.166454502361
 31
0.0
  0
LINE
  5
26865
330
747D
100
AcDbEntity
  8
細線
 48
50.0
100
AcDbLine
 10
6565.509243469772
 20
1115.166454502361
 30
0.0
 11
6571.940024088118
 21
1091.166454502361
 31
0.0
  0
LINE
  5
26866
330
747D
100
AcDbEntity
  8
細線
 48
50.0
100
AcDbLine
 10
6462.522301082941
 20
1219.166454502361
 30
0.0
 11
6558.522301082941
 21
1315.166454502361
 31
0.0
  0
LINE
  5
26867
330
747D
100
AcDbEntity
  8
細線
 48
50.0
100
AcDbLine
 10
6435.58153271973
 20
1219.166454502361
 30
0.0
 11
6531.581532719731
 21
1315.166454502361
 31
0.0
  0
LINE
  5
26868
330
747D
100
AcDbEntity
  8
部品1
 48
50.0
100
AcDbLine
 10
6488.783668302658
 20
1331.166454502361
 30
0.0
 11
6488.783668302658
 21
1315.166454502361
 31
0.0
  0
LINE
  5
26869
330
747D
100
AcDbEntity
  8
細線
 48
50.0
100
AcDbLine
 10
6429.169088969759
 20
1195.166454502361
 30
0.0
 11
6422.738308351411
 21
1219.166454502361
 31
0.0
  0
LINE
  5
2686A
330
747D
100
AcDbEntity
  8
細線
 48
50.0
100
AcDbLine
 10
6352.783668302659
 20
1204.506375468141
 30
0.0
 11
6356.711824640854
 21
1219.166454502361
 31
0.0
  0
LINE
  5
2686B
330
747D
100
AcDbEntity
  8
部品1
 48
50.0
100
AcDbLine
 10
6648.783668302659
 20
1397.293669199483
 30
0.0
 11
6632.783668302657
 21
1397.293669199483
 31
0.0
  0
CIRCLE
  5
2686C
330
747D
100
AcDbEntity
  8
部品1
 48
50.0
100
AcDbCircle
 10
6528.783668302658
 20
1339.166454502361
 30
0.0
 40
8.0
  0
LINE
  5
2686D
330
747D
100
AcDbEntity
  8
細線
 48
50.0
100
AcDbLine
 10
6601.463069446147
 20
1331.166454502361
 30
0.0
 11
6632.783668302657
 21
1362.487053358873
 31
0.0
  0
ARC
  5
2686E
330
747D
100
AcDbEntity
  8
部品1
 48
50.0
100
AcDbCircle
 10
6656.783668302658
 20
1339.166454502361
 30
0.0
 40
24.0
100
AcDbArc
 50
180.0
 51
199.4712206344774
  0
LINE
  5
2686F
330
747D
100
AcDbEntity
  8
細線
 48
50.0
100
AcDbLine
 10
6508.057133917009
 20
1195.166454502361
 30
0.0
 11
6501.626353298663
 21
1219.166454502361
 31
0.0
  0
LINE
  5
26870
330
747D
100
AcDbEntity
  8
細線
 48
50.0
100
AcDbLine
 10
6586.945178864262
 20
1195.166454502361
 30
0.0
 11
6580.514398245916
 21
1219.166454502361
 31
0.0
  0
LINE
  5
26871
330
747D
100
AcDbEntity
  8
細線
 48
50.0
100
AcDbLine
 10
6489.463069446147
 20
1219.166454502361
 30
0.0
 11
6585.463069446146
 21
1315.166454502361
 31
0.0
  0
LINE
  5
26872
330
747D
100
AcDbEntity
  8
部品1
 48
50.0
100
AcDbLine
 10
6632.783668302657
 20
1397.293669199483
 30
0.0
 11
6632.783668302657
 21
1339.166454502361
 31
0.0
  0
LINE
  5
26873
330
747D
100
AcDbEntity
  8
細線
 48
50.0
100
AcDbLine
 10
6574.522301082942
 20
1331.166454502361
 30
0.0
 11
6632.783668302657
 21
1389.42782172208
 31
0.0
  0
LINE
  5
26874
330
747D
100
AcDbEntity
  8
部品1
 48
50.0
100
AcDbLine
 10
6648.783668302659
 20
1397.293669199483
 30
0.0
 11
6648.783668302659
 21
1339.166454502361
 31
0.0
  0
LINE
  5
26875
330
747D
100
AcDbEntity
  8
部品1
 48
50.0
100
AcDbLine
 10
6960.783668302662
 20
1219.166454502361
 30
0.0
 11
6960.783668302662
 21
1091.166454502361
 31
0.0
  0
LINE
  5
26876
330
747D
100
AcDbEntity
  8
細線
 48
50.0
100
AcDbLine
 10
6874.630642640411
 20
1091.166454502361
 30
0.0
 11
6908.928139271596
 21
1219.166454502359
 31
0.0
  0
LINE
  5
26877
330
747D
100
AcDbEntity
  8
細線
 48
50.0
100
AcDbLine
 10
6716.854552745918
 20
1091.166454502361
 30
0.0
 11
6751.152049377104
 21
1219.166454502359
 31
0.0
  0
LINE
  5
26878
330
747D
100
AcDbEntity
  8
細線
 48
50.0
100
AcDbLine
 10
6795.742597693166
 20
1091.166454502359
 30
0.0
 11
6830.040094324352
 21
1219.166454502359
 31
0.0
  0
LINE
  5
26879
330
747D
100
AcDbEntity
  8
細線
 48
50.0
100
AcDbLine
 10
6802.173378311517
 20
1115.166454502361
 30
0.0
 11
6808.604158929864
 21
1091.166454502361
 31
0.0
  0
LINE
  5
2687A
330
747D
100
AcDbEntity
  8
細線
 48
50.0
100
AcDbLine
 10
6723.285333364271
 20
1115.166454502361
 30
0.0
 11
6729.716113982617
 21
1091.166454502361
 31
0.0
  0
LINE
  5
2687B
330
747D
100
AcDbEntity
  8
細線
 48
50.0
100
AcDbLine
 10
6881.061423258763
 20
1115.166454502361
 30
0.0
 11
6887.492203877112
 21
1091.166454502361
 31
0.0
  0
LINE
  5
2687C
330
747D
100
AcDbEntity
  8
細線
 48
50.0
100
AcDbLine
 10
6959.949468206011
 20
1115.166454502361
 30
0.0
 11
6960.783668302657
 21
1112.053177357997
 31
0.0
  0
LINE
  5
2687D
330
747D
100
AcDbEntity
  8
細線
 48
50.0
100
AcDbLine
 10
6953.51868758766
 20
1091.166454502359
 30
0.0
 11
6960.783668302657
 21
1118.279731646749
 31
0.0
  0
LINE
  5
2687E
330
747D
100
AcDbEntity
  8
細線
 48
50.0
100
AcDbLine
 10
6816.989216351806
 20
1331.166454502361
 30
0.0
 11
6880.783668302658
 21
1394.960906453212
 31
0.0
  0
CIRCLE
  5
2687F
330
747D
100
AcDbEntity
  8
部品1
 48
50.0
100
AcDbCircle
 10
6784.783668302658
 20
1339.166454502361
 30
0.0
 40
8.0
  0
ARC
  5
26880
330
747D
100
AcDbEntity
  8
部品1
 48
50.0
100
AcDbCircle
 10
6656.783668302658
 20
1339.166454502361
 30
0.0
 40
24.0
100
AcDbArc
 50
340.5287793655226
 51
0.0
  0
LINE
  5
26881
330
747D
100
AcDbEntity
  8
細線
 48
50.0
100
AcDbLine
 10
6665.833223811515
 20
1195.166454502361
 30
0.0
 11
6659.402443193167
 21
1219.166454502361
 31
0.0
  0
LINE
  5
26882
330
747D
100
AcDbEntity
  8
細線
 48
50.0
100
AcDbLine
 10
6744.721268758759
 20
1195.166454502361
 30
0.0
 11
6738.290488140414
 21
1219.166454502361
 31
0.0
  0
LINE
  5
26883
330
747D
100
AcDbEntity
  8
細線
 48
50.0
100
AcDbLine
 10
6678.048447988601
 20
1219.166454502361
 30
0.0
 11
6774.048447988602
 21
1315.166454502361
 31
0.0
  0
LINE
  5
26884
330
747D
100
AcDbEntity
  8
細線
 48
50.0
100
AcDbLine
 10
6704.989216351805
 20
1219.166454502361
 30
0.0
 11
6800.990104196943
 21
1315.1673423475
 31
0.0
  0
LINE
  5
26885
330
747D
100
AcDbEntity
  8
部品1
 48
50.0
100
AcDbLine
 10
6824.783668302657
 20
1331.166454502361
 30
0.0
 11
6824.783668302657
 21
1315.166454502361
 31
0.0
  0
LINE
  5
26886
330
747D
100
AcDbEntity
  8
細線
 48
50.0
100
AcDbLine
 10
6902.497358653253
 20
1195.166454502361
 30
0.0
 11
6896.066578034904
 21
1219.166454502361
 31
0.0
  0
LINE
  5
26887
330
747D
100
AcDbEntity
  8
細線
 48
50.0
100
AcDbLine
 10
6866.633826531051
 20
1219.166454502361
 30
0.0
 11
6880.783668302658
 21
1233.316296273968
 31
0.0
  0
LINE
  5
26888
330
747D
100
AcDbEntity
  8
細線
 48
50.0
100
AcDbLine
 10
6823.609313706005
 20
1195.166454502361
 30
0.0
 11
6817.178533087659
 21
1219.166454502361
 31
0.0
  0
LINE
  5
26889
330
747D
100
AcDbEntity
  8
細線
 48
50.0
100
AcDbLine
 10
6560.783668302658
 20
1532.953968627739
 30
0.0
 11
6664.783668302664
 21
1636.953968627742
 31
0.0
  0
LINE
  5
2688A
330
747D
100
AcDbEntity
  8
細線
 48
50.0
100
AcDbLine
 10
6560.783668302658
 20
1559.894736990947
 30
0.0
 11
6664.783668302658
 21
1663.894736990947
 31
0.0
  0
LINE
  5
2688B
330
747D
100
AcDbEntity
  8
細線
 48
50.0
100
AcDbLine
 10
6560.783668302658
 20
1506.013200264532
 30
0.0
 11
6664.783668302664
 21
1610.013200264532
 31
0.0
  0
LINE
  5
2688C
330
747D
100
AcDbEntity
  8
細線
 48
50.0
100
AcDbLine
 10
6648.783668302659
 20
1809.539347170192
 30
0.0
 11
6664.783668302658
 21
1825.539347170192
 31
0.0
  0
LINE
  5
2688D
330
747D
100
AcDbEntity
  8
細線
 48
50.0
100
AcDbLine
 10
6648.783668302659
 20
1836.480115533399
 30
0.0
 11
6664.783668302658
 21
1852.480115533399
 31
0.0
  0
LINE
  5
2688E
330
747D
100
AcDbEntity
  8
部品1
 48
50.0
100
AcDbLine
 10
6432.783668302658
 20
1459.166454502361
 30
0.0
 11
6560.783668302658
 21
1459.166454502361
 31
0.0
  0
LINE
  5
2688F
330
747D
100
AcDbEntity
  8
細線
 48
50.0
100
AcDbLine
 10
6432.783668302651
 20
1404.953968627737
 30
0.0
 11
6486.996154177282
 21
1459.166454502361
 31
0.0
  0
LINE
  5
26890
330
747D
100
AcDbEntity
  8
細線
 48
50.0
100
AcDbLine
 10
6432.783668302651
 20
1431.894736990947
 30
0.0
 11
6460.055385814072
 21
1459.166454502361
 31
0.0
  0
LINE
  5
26891
330
747D
100
AcDbEntity
  8
部品1
 48
50.0
100
AcDbLine
 10
6648.783668302659
 20
1805.293669199484
 30
0.0
 11
6632.783668302657
 21
1805.293669199487
 31
0.0
  0
LINE
  5
26892
330
747D
100
AcDbEntity
  8
細線
 48
50.0
100
AcDbLine
 10
6560.783668302658
 20
1721.539347170192
 30
0.0
 11
6644.537990331952
 21
1805.293669199484
 31
0.0
  0
LINE
  5
26893
330
747D
100
AcDbEntity
  8
細線
 48
50.0
100
AcDbLine
 10
6560.783668302658
 20
1748.480115533399
 30
0.0
 11
6632.783668302657
 21
1820.480115533399
 31
0.0
  0
LINE
  5
26894
330
747D
100
AcDbEntity
  8
部品1
 48
50.0
100
AcDbLine
 10
6632.783668302657
 20
1805.293669199487
 30
0.0
 11
6632.783668302657
 21
1863.420883896607
 31
0.0
  0
LINE
  5
26895
330
747D
100
AcDbEntity
  8
細線
 48
50.0
100
AcDbLine
 10
6560.783668302658
 20
1775.420883896607
 30
0.0
 11
6632.783668302657
 21
1847.420883896607
 31
0.0
  0
LINE
  5
26896
330
747D
100
AcDbEntity
  8
部品1
 48
50.0
100
AcDbLine
 10
6648.783668302659
 20
1805.293669199484
 30
0.0
 11
6648.783668302659
 21
1863.420883896607
 31
0.0
  0
LINE
  5
26897
330
747D
100
AcDbEntity
  8
細線
 48
50.0
100
AcDbLine
 10
6680.783668302663
 20
1626.013200264532
 30
0.0
 11
6752.783668302651
 21
1698.013200264532
 31
0.0
  0
LINE
  5
26898
330
747D
100
AcDbEntity
  8
部品1
 48
50.0
100
AcDbLine
 10
6752.783668302658
 20
1459.166454502361
 30
0.0
 11
6880.783668302658
 21
1459.166454502361
 31
0.0
  0
LINE
  5
26899
330
747D
100
AcDbEntity
  8
細線
 48
50.0
100
AcDbLine
 10
6680.783668302663
 20
1437.427821722083
 30
0.0
 11
6752.783668302651
 21
1509.427821722077
 31
0.0
  0
LINE
  5
2689A
330
747D
100
AcDbEntity
  8
細線
 48
50.0
100
AcDbLine
 10
6680.783668302663
 20
1464.368590085291
 30
0.0
 11
6752.783668302651
 21
1536.368590085287
 31
0.0
  0
LINE
  5
2689B
330
747D
100
AcDbEntity
  8
細線
 48
50.0
100
AcDbLine
 10
6680.783668302663
 20
1410.487053358873
 30
0.0
 11
6752.783668302651
 21
1482.487053358872
 31
0.0
  0
LINE
  5
2689C
330
747D
100
AcDbEntity
  8
細線
 48
50.0
100
AcDbLine
 10
6680.783668302658
 20
1679.894736990947
 30
0.0
 11
6752.783668302658
 21
1751.894736990947
 31
0.0
  0
LINE
  5
2689D
330
747D
100
AcDbEntity
  8
細線
 48
50.0
100
AcDbLine
 10
6680.783668302663
 20
1652.953968627742
 30
0.0
 11
6752.783668302651
 21
1724.953968627736
 31
0.0
  0
MTEXT
  5
2689E
102
{ACAD_REACTORS
330
26849
102
}
330
747D
100
AcDbEntity
  8
寸法
 62
     7
 48
50.0
100
AcDbMText
 10
6994.522124163909
 20
1041.817368770208
 30
0.0
 40
80.0
 41
0.8
 71
     4
 72
     1
  1
\A1;D10@300
  7
STYLE2
 73
     1
 44
1.0
1001
ACAD
1000
MTEXTBEGIN
1070
    73
1070
     1
1070
    44
1040
1.0
1070
    74
1070
     0
1000
MTEXTEND
  0
DIMENSION
  5
2689F
330
747D
100
AcDbEntity
  8
寸法
 48
50.0
100
AcDbDimension
  2
*D62
 10
6560.783668302658
 20
2422.834262418742
 30
0.0
 11
6656.783668302657
 21
2422.834262418742
 31
0.0
 70
   160
  1
120\P200\P280
 71
     5
 42
192.0
  3
INABA_S40G
100
AcDbAlignedDimension
 13
6752.783668302658
 23
2003.166454502361
 33
0.0
 14
6560.783668302658
 24
2003.166454502361
 34
0.0
100
AcDbRotatedDimension
1001
ACAD
1000
DSTYLE
1002
{
1070
   341
1005
0
1002
}
  0
LINE
  5
268A0
330
747D
100
AcDbEntity
  8
部品1
 48
50.0
100
AcDbLine
 10
6560.783668302658
 20
2003.166454502361
 30
0.0
 11
6752.783668302658
 21
2003.166454502361
 31
0.0
  0
LINE
  5
268A1
330
747D
100
AcDbEntity
  8
細線
 48
50.0
100
AcDbLine
 10
6560.783668302658
 20
1964.006262439059
 30
0.0
 11
6599.943860365963
 21
2003.166454502361
 31
0.0
  0
LINE
  5
268A2
330
747D
100
AcDbEntity
  8
細線
 48
50.0
100
AcDbLine
 10
6560.783668302658
 20
1937.065494075851
 30
0.0
 11
6626.884628729166
 21
2003.166454502361
 31
0.0
  0
LINE
  5
268A3
330
747D
100
AcDbEntity
  8
細線
 48
50.0
100
AcDbLine
 10
6560.783668302658
 20
1990.947030802266
 30
0.0
 11
6573.003092002753
 21
2003.166454502361
 31
0.0
  0
LINE
  5
268A4
330
747D
100
AcDbEntity
  8
細線
 48
50.0
100
AcDbLine
 10
6680.336375568645
 20
1868.032822799383
 30
0.0
 11
6752.783668302658
 21
1940.480115533399
 31
0.0
  0
LINE
  5
268A5
330
747D
100
AcDbEntity
  8
細線
 48
50.0
100
AcDbLine
 10
6669.276090805128
 20
1883.913306399077
 30
0.0
 11
6752.783668302658
 21
1967.420883896607
 31
0.0
  0
LINE
  5
268A6
330
747D
100
AcDbEntity
  8
細線
 48
50.0
100
AcDbLine
 10
8545.222981479852
 20
1844.294736990949
 30
0.0
 11
8674.82298147985
 21
1973.894736990948
 31
0.0
  0
LINE
  5
268A7
330
747D
100
AcDbEntity
  8
部品1
100
AcDbLine
 10
8674.82298147985
 20
1459.166454502361
 30
0.0
 11
8674.82298147985
 21
2003.166454502361
 31
0.0
  0
LINE
  5
268A8
330
747D
100
AcDbEntity
  8
部品1
 48
50.0
100
AcDbLine
 10
8260.822981479851
 20
1459.166454502361
 30
0.0
 11
8260.822981479851
 21
2003.166454502361
 31
0.0
  0
LINE
  5
268A9
330
747D
100
AcDbEntity
  8
細線
 48
50.0
100
AcDbLine
 10
8260.822981479851
 20
1775.420883896607
 30
0.0
 11
8419.222981479851
 21
1933.820883896604
 31
0.0
  0
LINE
  5
268AA
330
747D
100
AcDbEntity
  8
細線
 48
50.0
100
AcDbLine
 10
8260.822981479851
 20
1748.480115533399
 30
0.0
 11
8419.222981479851
 21
1906.880115533397
 31
0.0
  0
LINE
  5
268AB
330
747D
100
AcDbEntity
  8
細線
 48
50.0
100
AcDbLine
 10
8260.822981479851
 20
1721.539347170192
 30
0.0
 11
8419.222981479848
 21
1879.939347170184
 31
0.0
  0
TEXT
  5
268AC
330
747D
100
AcDbEntity
  8
部品1
 48
50.0
100
AcDbText
 10
7846.683079646895
 20
1774.405446785617
 30
0.0
 40
80.0
  1
▽G.L
  7
STYLE2
100
AcDbText
  0
LINE
  5
268AD
330
747D
100
AcDbEntity
  8
部品1
100
AcDbLine
 10
8491.222981479852
 20
1778.166454502361
 30
0.0
 11
8491.222981479848
 21
2052.326454502362
 31
0.0
  0
LINE
  5
268AE
330
747D
100
AcDbEntity
  8
部品1
100
AcDbLine
 10
8473.222981479851
 20
1778.166454502361
 30
0.0
 11
8473.222981479848
 21
2052.326454502362
 31
0.0
  0
LINE
  5
268AF
330
747D
100
AcDbEntity
  8
細線
 48
50.0
100
AcDbLine
 10
8545.222981479852
 20
1790.41320026452
 30
0.0
 11
8674.82298147985
 21
1920.013200264511
 31
0.0
  0
LINE
  5
268B0
330
747D
100
AcDbEntity
  8
細線
 48
50.0
100
AcDbLine
 10
8545.222981479852
 20
1817.353968627732
 30
0.0
 11
8674.82298147985
 21
1946.953968627729
 31
0.0
  0
LINE
  5
268B1
330
747D
100
AcDbEntity
  8
部品1
100
AcDbLine
 10
8545.222981479852
 20
1679.166454502361
 30
0.0
 11
8545.222981479852
 21
2003.166454502361
 31
0.0
  0
LINE
  5
268B2
330
747D
100
AcDbEntity
  8
部品1
100
AcDbLine
 10
8419.222981479846
 20
1679.166454502361
 30
0.0
 11
8419.222981479853
 21
2003.166454502361
 31
0.0
  0
LINE
  5
268B3
330
747D
100
AcDbEntity
  8
細線
 48
50.0
100
AcDbLine
 10
8260.822981479851
 20
1532.953968627739
 30
0.0
 11
8419.222981479846
 21
1691.353968627728
 31
0.0
  0
LINE
  5
268B4
330
747D
100
AcDbEntity
  8
細線
 48
50.0
100
AcDbLine
 10
8260.822981479851
 20
1506.013200264532
 30
0.0
 11
8433.976235717688
 21
1679.166454502359
 31
0.0
  0
LINE
  5
268B5
330
747D
100
AcDbEntity
  8
細線
 48
50.0
100
AcDbLine
 10
8260.822981479851
 20
1559.894736990947
 30
0.0
 11
8419.222981479846
 21
1718.294736990942
 31
0.0
  0
LINE
  5
268B6
330
747D
100
AcDbEntity
  8
細線
 48
50.0
100
AcDbLine
 10
8189.502382623341
 20
1219.166454502361
 30
0.0
 11
8674.82298147985
 21
1704.487053358869
 31
0.0
  0
LINE
  5
268B7
330
747D
100
AcDbEntity
  8
細線
 48
50.0
100
AcDbLine
 10
8162.561614260136
 20
1219.166454502361
 30
0.0
 11
8674.822981479854
 21
1731.427821722075
 31
0.0
  0
LINE
  5
268B8
330
747D
100
AcDbEntity
  8
細線
 48
50.0
100
AcDbLine
 10
8135.620845896927
 20
1219.166454502361
 30
0.0
 11
8674.82298147985
 21
1758.368590085287
 31
0.0
  0
LINE
  5
268B9
330
747D
100
AcDbEntity
  8
部品1
 48
50.0
100
AcDbLine
 10
8882.822981479854
 20
1219.166454502361
 30
0.0
 11
8052.822981479854
 21
1219.166454502361
 31
0.0
  0
LINE
  5
268BA
330
747D
100
AcDbEntity
  8
部品1
 48
50.0
100
AcDbLine
 10
8882.822981479854
 20
1091.166454502361
 30
0.0
 11
8052.822981479854
 21
1091.166454502361
 31
0.0
  0
LINE
  5
268BB
330
747D
100
AcDbEntity
  8
細線
 48
50.0
100
AcDbLine
 10
8132.822981479847
 20
1378.013200264532
 30
0.0
 11
8213.97623571768
 21
1459.166454502361
 31
0.0
  0
LINE
  5
268BC
330
747D
100
AcDbEntity
  8
部品1
 48
50.0
100
AcDbLine
 10
8132.822981479851
 20
1219.166454502361
 30
0.0
 11
8132.822981479851
 21
1459.166454502361
 31
0.0
  0
LINE
  5
268BD
330
747D
100
AcDbEntity
  8
細線
 48
50.0
100
AcDbLine
 10
8180.229731081368
 20
1091.166454502361
 30
0.0
 11
8214.527227712551
 21
1219.166454502361
 31
0.0
  0
LINE
  5
268BE
330
747D
100
AcDbEntity
  8
部品1
 48
50.0
100
AcDbLine
 10
8052.822981479854
 20
1091.166454502361
 30
0.0
 11
8052.822981479854
 21
1219.166454502361
 31
0.0
  0
LINE
  5
268BF
330
747D
100
AcDbEntity
  8
細線
 48
50.0
100
AcDbLine
 10
8101.34168613411
 20
1091.166454502359
 30
0.0
 11
8135.639182765293
 21
1219.166454502359
 31
0.0
  0
LINE
  5
268C0
330
747D
100
AcDbEntity
  8
細線
 48
50.0
100
AcDbLine
 10
8259.117776028615
 20
1091.166454502359
 30
0.0
 11
8293.415272659798
 21
1219.166454502359
 31
0.0
  0
LINE
  5
268C1
330
747D
100
AcDbEntity
  8
細線
 48
50.0
100
AcDbLine
 10
8107.772466752463
 20
1115.166454502361
 30
0.0
 11
8114.203247370809
 21
1091.166454502361
 31
0.0
  0
LINE
  5
268C2
330
747D
100
AcDbEntity
  8
細線
 48
50.0
100
AcDbLine
 10
8265.548556646967
 20
1115.166454502361
 30
0.0
 11
8271.979337265314
 21
1091.166454502361
 31
0.0
  0
LINE
  5
268C3
330
747D
100
AcDbEntity
  8
細線
 48
50.0
100
AcDbLine
 10
8186.660511699717
 20
1115.166454502361
 30
0.0
 11
8193.091292318063
 21
1091.166454502361
 31
0.0
  0
LINE
  5
268C4
330
747D
100
AcDbEntity
  8
細線
 48
50.0
100
AcDbLine
 10
8052.822981479851
 20
1204.506375468141
 30
0.0
 11
8056.751137818046
 21
1219.166454502361
 31
0.0
  0
LINE
  5
268C5
330
747D
100
AcDbEntity
  8
細線
 48
50.0
100
AcDbLine
 10
8129.208402146954
 20
1195.166454502361
 30
0.0
 11
8122.777621528607
 21
1219.166454502361
 31
0.0
  0
LINE
  5
268C6
330
747D
100
AcDbEntity
  8
細線
 48
50.0
100
AcDbLine
 10
8286.984492041456
 20
1195.166454502361
 30
0.0
 11
8280.553711423108
 21
1219.166454502361
 31
0.0
  0
LINE
  5
268C7
330
747D
100
AcDbEntity
  8
細線
 48
50.0
100
AcDbLine
 10
8208.096447094204
 20
1195.166454502361
 30
0.0
 11
8201.665666475857
 21
1219.166454502361
 31
0.0
  0
LWPOLYLINE
  5
268C8
330
747D
100
AcDbEntity
  8
部品1
 48
50.0
100
AcDbPolyline
 90
        2
 70
     0
 43
8.0
 10
7846.683079646895
 20
1763.166454502362
 10
8260.822981479851
 20
1763.166454502362
  0
LINE
  5
268C9
330
747D
100
AcDbEntity
  8
細線
 48
50.0
100
AcDbLine
 10
8132.822981479847
 20
1404.953968627737
 30
0.0
 11
8187.035467354474
 21
1459.166454502361
 31
0.0
  0
LINE
  5
268CA
330
747D
100
AcDbEntity
  8
部品1
 48
50.0
100
AcDbLine
 10
8132.822981479851
 20
1459.166454502361
 30
0.0
 11
8260.822981479851
 21
1459.166454502361
 31
0.0
  0
LINE
  5
268CB
330
747D
100
AcDbEntity
  8
細線
 48
50.0
100
AcDbLine
 10
8132.822981479847
 20
1431.894736990947
 30
0.0
 11
8160.094698991267
 21
1459.166454502361
 31
0.0
  0
LINE
  5
268CC
330
747D
100
AcDbEntity
  8
細線
 48
50.0
100
AcDbLine
 10
8378.087761165796
 20
1219.166454502361
 30
0.0
 11
8674.82298147985
 21
1515.901674816414
 31
0.0
  0
LINE
  5
268CD
330
747D
100
AcDbEntity
  8
細線
 48
50.0
100
AcDbLine
 10
8405.028529529001
 20
1219.166454502361
 30
0.0
 11
8674.82298147985
 21
1488.960906453218
 31
0.0
  0
LINE
  5
268CE
330
747D
100
AcDbEntity
  8
細線
 48
50.0
100
AcDbLine
 10
8351.146992802586
 20
1219.166454502361
 30
0.0
 11
8674.82298147985
 21
1542.842443179627
 31
0.0
  0
LINE
  5
268CF
330
747D
100
AcDbEntity
  8
細線
 48
50.0
100
AcDbLine
 10
8566.673139708244
 20
1219.166454502361
 30
0.0
 11
8802.822981479851
 21
1455.31629627397
 31
0.0
  0
LINE
  5
268D0
330
747D
100
AcDbEntity
  8
細線
 48
50.0
100
AcDbLine
 10
8593.613908071457
 20
1219.166454502361
 30
0.0
 11
8802.822981479851
 21
1428.375527910754
 31
0.0
  0
LINE
  5
268D1
330
747D
100
AcDbEntity
  8
部品1
 48
50.0
100
AcDbLine
 10
8802.822981479851
 20
1459.166454502361
 30
0.0
 11
8802.822981479851
 21
1219.166454502361
 31
0.0
  0
LINE
  5
268D2
330
747D
100
AcDbEntity
  8
細線
 48
50.0
100
AcDbLine
 10
8620.554676434661
 20
1219.166454502361
 30
0.0
 11
8802.822981479851
 21
1401.434759547557
 31
0.0
  0
LINE
  5
268D3
330
747D
100
AcDbEntity
  8
細線
 48
50.0
100
AcDbLine
 10
8495.781910870363
 20
1091.166454502359
 30
0.0
 11
8530.079407501544
 21
1219.166454502359
 31
0.0
  0
LINE
  5
268D4
330
747D
100
AcDbEntity
  8
細線
 48
50.0
100
AcDbLine
 10
8338.005820975865
 20
1091.166454502361
 30
0.0
 11
8372.30331760705
 21
1219.166454502361
 31
0.0
  0
LINE
  5
268D5
330
747D
100
AcDbEntity
  8
細線
 48
50.0
100
AcDbLine
 10
8416.893865923112
 20
1091.166454502361
 30
0.0
 11
8451.191362554299
 21
1219.166454502359
 31
0.0
  0
LINE
  5
268D6
330
747D
100
AcDbEntity
  8
細線
 48
50.0
100
AcDbLine
 10
8574.669955817604
 20
1091.166454502361
 30
0.0
 11
8608.967452448789
 21
1219.166454502359
 31
0.0
  0
LINE
  5
268D7
330
747D
100
AcDbEntity
  8
細線
 48
50.0
100
AcDbLine
 10
8423.324646541464
 20
1115.166454502361
 30
0.0
 11
8429.755427159813
 21
1091.166454502361
 31
0.0
  0
LINE
  5
268D8
330
747D
100
AcDbEntity
  8
細線
 48
50.0
100
AcDbLine
 10
8344.436601594217
 20
1115.166454502361
 30
0.0
 11
8350.867382212566
 21
1091.166454502361
 31
0.0
  0
LINE
  5
268D9
330
747D
100
AcDbEntity
  8
細線
 48
50.0
100
AcDbLine
 10
8581.100736435958
 20
1115.166454502361
 30
0.0
 11
8587.531517054303
 21
1091.166454502361
 31
0.0
  0
LINE
  5
268DA
330
747D
100
AcDbEntity
  8
細線
 48
50.0
100
AcDbLine
 10
8502.212691488713
 20
1115.166454502361
 30
0.0
 11
8508.643472107058
 21
1091.166454502361
 31
0.0
  0
LINE
  5
268DB
330
747D
100
AcDbEntity
  8
細線
 48
50.0
100
AcDbLine
 10
8444.760581935954
 20
1195.166454502361
 30
0.0
 11
8438.329801317605
 21
1219.166454502361
 31
0.0
  0
LINE
  5
268DC
330
747D
100
AcDbEntity
  8
細線
 48
50.0
100
AcDbLine
 10
8365.872536988707
 20
1195.166454502361
 30
0.0
 11
8359.441756370362
 21
1219.166454502361
 31
0.0
  0
LINE
  5
268DD
330
747D
100
AcDbEntity
  8
細線
 48
50.0
100
AcDbLine
 10
8523.648626883201
 20
1195.166454502361
 30
0.0
 11
8517.217846264854
 21
1219.166454502361
 31
0.0
  0
LINE
  5
268DE
330
747D
100
AcDbEntity
  8
細線
 48
50.0
100
AcDbLine
 10
8602.536671830447
 20
1195.166454502361
 30
0.0
 11
8596.105891212101
 21
1219.166454502361
 31
0.0
  0
LINE
  5
268DF
330
747D
100
AcDbEntity
  8
部品1
 48
50.0
100
AcDbLine
 10
8882.822981479854
 20
1219.166454502361
 30
0.0
 11
8882.822981479854
 21
1091.166454502361
 31
0.0
  0
LINE
  5
268E0
330
747D
100
AcDbEntity
  8
細線
 48
50.0
100
AcDbLine
 10
8811.334090659347
 20
1091.166454502359
 30
0.0
 11
8845.631587290531
 21
1219.166454502359
 31
0.0
  0
LINE
  5
268E1
330
747D
100
AcDbEntity
  8
細線
 48
50.0
100
AcDbLine
 10
8653.558000764853
 20
1091.166454502359
 30
0.0
 11
8687.855497396027
 21
1219.166454502361
 31
0.0
  0
LINE
  5
268E2
330
747D
100
AcDbEntity
  8
細線
 48
50.0
100
AcDbLine
 10
8732.446045712102
 20
1091.166454502358
 30
0.0
 11
8766.743542343284
 21
1219.166454502359
 31
0.0
  0
LINE
  5
268E3
330
747D
100
AcDbEntity
  8
細線
 48
50.0
100
AcDbLine
 10
8659.988781383203
 20
1115.166454502361
 30
0.0
 11
8666.419562001561
 21
1091.166454502361
 31
0.0
  0
LINE
  5
268E4
330
747D
100
AcDbEntity
  8
細線
 48
50.0
100
AcDbLine
 10
8738.876826330452
 20
1115.166454502359
 30
0.0
 11
8745.307606948797
 21
1091.166454502359
 31
0.0
  0
LINE
  5
268E5
330
747D
100
AcDbEntity
  8
細線
 48
50.0
100
AcDbLine
 10
8817.764871277697
 20
1115.166454502359
 30
0.0
 11
8824.195651896046
 21
1091.166454502359
 31
0.0
  0
LINE
  5
268E6
330
747D
100
AcDbEntity
  8
細線
 48
50.0
100
AcDbLine
 10
8681.424716777685
 20
1195.166454502361
 30
0.0
 11
8674.993936159337
 21
1219.166454502361
 31
0.0
  0
LINE
  5
268E7
330
747D
100
AcDbEntity
  8
細線
 48
50.0
100
AcDbLine
 10
8760.312761724941
 20
1195.166454502359
 30
0.0
 11
8753.881981106594
 21
1219.166454502359
 31
0.0
  0
LINE
  5
268E8
330
747D
100
AcDbEntity
  8
細線
 48
50.0
100
AcDbLine
 10
8839.200806672186
 20
1195.166454502359
 30
0.0
 11
8832.770026053841
 21
1219.166454502359
 31
0.0
  0
LINE
  5
268E9
330
747D
100
AcDbEntity
  8
部品1
100
AcDbLine
 10
8545.222981479852
 20
1679.166454502359
 30
0.0
 11
8419.222981479846
 21
1679.166454502359
 31
0.0
  0
LINE
  5
268EA
330
747D
100
AcDbEntity
  8
部品1
100
AcDbLine
 10
8527.222981479852
 20
1760.166454502361
 30
0.0
 11
8527.222981479852
 21
1778.166454502361
 31
0.0
  0
ARC
  5
268EB
330
747D
100
AcDbEntity
  8
部品1
100
AcDbCircle
 10
8491.222981479852
 20
1778.166454502361
 30
0.0
 40
18.0
100
AcDbArc
 50
180.0
 51
270.0
  0
LINE
  5
268EC
330
747D
100
AcDbEntity
  8
部品1
100
AcDbLine
 10
8491.222981479852
 20
1760.166454502361
 30
0.0
 11
8527.222981479852
 21
1760.166454502361
 31
0.0
  0
LINE
  5
268ED
330
747D
100
AcDbEntity
  8
部品1
100
AcDbLine
 10
8491.222981479852
 20
1778.166454502361
 30
0.0
 11
8527.222981479852
 21
1778.166454502361
 31
0.0
  0
LINE
  5
268EE
330
747D
100
AcDbEntity
  8
部品1
 48
50.0
100
AcDbLine
 10
8674.82298147985
 20
1459.166454502361
 30
0.0
 11
8802.822981479851
 21
1459.166454502361
 31
0.0
  0
LINE
  5
268EF
330
747D
100
AcDbEntity
  8
部品1
100
AcDbLine
 10
8280.622981479851
 20
2093.166454502362
 30
0.0
 11
8318.422981479853
 21
2093.166454502362
 31
0.0
  0
LINE
  5
268F0
330
747D
100
AcDbEntity
  8
細線
 48
50.0
100
AcDbLine
 10
8260.822981479851
 20
1964.006262439059
 30
0.0
 11
8299.983173543159
 21
2003.166454502361
 31
0.0
  0
LINE
  5
268F1
330
747D
100
AcDbEntity
  8
細線
 48
50.0
100
AcDbLine
 10
8260.822981479851
 20
1937.065494075851
 30
0.0
 11
8326.923941906363
 21
2003.166454502361
 31
0.0
  0
LINE
  5
268F2
330
747D
100
AcDbEntity
  8
部品1
 48
50.0
100
AcDbLine
 10
8260.822981479851
 20
2003.166454502361
 30
0.0
 11
8674.822981479854
 21
2003.166454502361
 31
0.0
  0
LINE
  5
268F3
330
747D
100
AcDbEntity
  8
部品1
100
AcDbLine
 10
8277.922981479852
 20
2082.366454502361
 30
0.0
 11
8277.922981479852
 21
2090.466454502362
 31
0.0
  0
ARC
  5
268F4
330
747D
100
AcDbEntity
  8
部品1
100
AcDbCircle
 10
8280.622981479851
 20
2090.466454502362
 30
0.0
 40
2.7
100
AcDbArc
 50
90.0
 51
180.0
  0
ARC
  5
268F5
330
747D
100
AcDbEntity
  8
部品1
100
AcDbCircle
 10
8269.822981479851
 20
2077.55835820507
 30
0.0
 40
2.7
100
AcDbArc
 50
104.0362434679067
 51
180.0
  0
LINE
  5
268F6
330
747D
100
AcDbEntity
  8
部品1
100
AcDbLine
 10
8269.168135292252
 20
2080.177742955461
 30
0.0
 11
8277.922981479852
 21
2082.366454502361
 31
0.0
  0
ARC
  5
268F7
330
747D
100
AcDbEntity
  8
部品1
100
AcDbCircle
 10
8269.822981479851
 20
2015.426454502362
 30
0.0
 40
2.7
100
AcDbArc
 50
180.0
 51
270.0
  0
LINE
  5
268F8
330
747D
100
AcDbEntity
  8
細線
 48
50.0
100
AcDbLine
 10
8260.822981479851
 20
1990.947030802266
 30
0.0
 11
8273.042405179946
 21
2003.166454502361
 31
0.0
  0
LINE
  5
268F9
330
747D
100
AcDbEntity
  8
部品1
100
AcDbLine
 10
8269.822981479851
 20
2012.726454502362
 30
0.0
 11
8281.522981479845
 21
2012.726454502362
 31
0.0
  0
LINE
  5
268FA
330
747D
100
AcDbEntity
  8
部品1
100
AcDbLine
 10
8267.122981479852
 20
2015.426454502362
 30
0.0
 11
8267.122981479852
 21
2077.55835820507
 31
0.0
  0
LINE
  5
268FB
330
747D
100
AcDbEntity
  8
部品1
100
AcDbLine
 10
8425.782981479846
 20
2012.726454502362
 30
0.0
 11
8627.122981479846
 21
2012.726454502362
 31
0.0
  0
LINE
  5
268FC
330
747D
100
AcDbEntity
  8
部品1
100
AcDbLine
 10
8318.422981479853
 20
2093.166454502362
 30
0.0
 11
8318.422981479853
 21
2101.266454502362
 31
0.0
  0
LINE
  5
268FD
330
747D
100
AcDbEntity
  8
部品1
100
AcDbLine
 10
8368.82298147985
 20
2112.066454502358
 30
0.0
 11
8368.82298147985
 21
2060.766454502362
 31
0.0
  0
LINE
  5
268FE
330
747D
100
AcDbEntity
  8
部品1
100
AcDbLine
 10
8392.222981479852
 20
2072.726454502362
 30
0.0
 11
8420.382981479852
 21
2072.726454502362
 31
0.0
  0
ARC
  5
268FF
330
747D
100
AcDbEntity
  8
部品1
100
AcDbCircle
 10
8392.222981479852
 20
2070.026454502362
 30
0.0
 40
2.7
100
AcDbArc
 50
90.0
 51
180.0
  0
ARC
  5
26900
330
747D
100
AcDbEntity
  8
部品1
100
AcDbCircle
 10
8420.382981479852
 20
2070.026454502362
 30
0.0
 40
2.7
100
AcDbArc
 50
0.0
 51
90.0
  0
LINE
  5
26901
330
747D
100
AcDbEntity
  8
部品1
100
AcDbLine
 10
8411.122981479852
 20
2058.066454502361
 30
0.0
 11
8411.122981479852
 21
2015.426454502362
 31
0.0
  0
LINE
  5
26902
330
747D
100
AcDbEntity
  8
部品1
100
AcDbLine
 10
8396.722981479852
 20
2012.726454502362
 30
0.0
 11
8408.422981479853
 21
2012.726454502362
 31
0.0
  0
ARC
  5
26903
330
747D
100
AcDbEntity
  8
部品1
100
AcDbCircle
 10
8425.782981479846
 20
2015.426454502362
 30
0.0
 40
2.7
100
AcDbArc
 50
180.0
 51
270.0
  0
ARC
  5
26904
330
747D
100
AcDbEntity
  8
部品1
100
AcDbCircle
 10
8408.422981479853
 20
2015.426454502362
 30
0.0
 40
2.7
100
AcDbArc
 50
270.0
 51
0.0
  0
LINE
  5
26905
330
747D
100
AcDbEntity
  8
部品1
100
AcDbLine
 10
8368.82298147985
 20
2060.766454502362
 30
0.0
 11
8408.422981479853
 21
2060.766454502362
 31
0.0
  0
ARC
  5
26906
330
747D
100
AcDbEntity
  8
部品1
100
AcDbCircle
 10
8408.422981479853
 20
2058.066454502361
 30
0.0
 40
2.7
100
AcDbArc
 50
0.0
 51
90.0
  0
LINE
  5
26907
330
747D
100
AcDbEntity
  8
部品1
100
AcDbLine
 10
8423.082981479852
 20
2070.026454502362
 30
0.0
 11
8423.082981479849
 21
2015.426454502362
 31
0.0
  0
LINE
  5
26908
330
747D
100
AcDbEntity
  8
部品1
100
AcDbLine
 10
8389.522981479851
 20
2070.026454502362
 30
0.0
 11
8389.522981479851
 21
2052.926454502362
 31
0.0
  0
LINE
  5
26909
330
747D
100
AcDbEntity
  8
細線
100
AcDbLine
 10
8487.622981479852
 20
2012.726454502362
 30
0.0
 11
8487.622981479852
 21
2055.926454502362
 31
0.0
  0
LINE
  5
2690A
330
747D
100
AcDbEntity
  8
細線
100
AcDbLine
 10
8476.822981479854
 20
2012.726454502362
 30
0.0
 11
8476.82298147985
 21
2055.926454502362
 31
0.0
  0
LINE
  5
2690B
330
747D
100
AcDbEntity
  8
部品1
100
AcDbLine
 10
8473.222981479851
 20
2052.326454502362
 30
0.0
 11
8491.222981479852
 21
2052.326454502362
 31
0.0
  0
LINE
  5
2690C
330
747D
100
AcDbEntity
  8
部品1
100
AcDbLine
 10
8476.82298147985
 20
2055.926454502362
 30
0.0
 11
8487.622981479852
 21
2055.926454502362
 31
0.0
  0
ELLIPSE
  5
2690D
330
747D
100
AcDbEntity
  8
部品1
 48
50.0
100
AcDbEllipse
 10
8482.222981479852
 20
2272.289742946634
 30
0.0
 11
40.0
 21
0.0
 31
0.0
210
0.0
220
0.0
230
1.0
 40
0.4
 41
0.0
 42
6.283185307179586
  0
ELLIPSE
  5
2690E
330
747D
100
AcDbEntity
  8
部品1
 48
50.0
100
AcDbEllipse
 10
8482.222981479852
 20
2262.689742946634
 30
0.0
 11
40.0
 21
0.0
 31
0.0
210
0.0
220
0.0
230
1.0
 40
0.4
 41
3.141592653589793
 42
6.283185307179586
  0
LINE
  5
2690F
330
747D
100
AcDbEntity
  8
部品1
 48
50.0
100
AcDbLine
 10
8442.222981479853
 20
2272.289742946634
 30
0.0
 11
8442.222981479853
 21
2262.689742946633
 31
0.0
  0
ARC
  5
26910
330
747D
100
AcDbEntity
  8
部品1
100
AcDbCircle
 10
8366.122981479852
 20
2112.066454502358
 30
0.0
 40
2.7
100
AcDbArc
 50
0.0
 51
90.0
  0
ARC
  5
26911
330
747D
100
AcDbEntity
  8
部品1
100
AcDbCircle
 10
8323.82298147985
 20
2112.066454502361
 30
0.0
 40
2.7
100
AcDbArc
 50
90.0
 51
180.0
  0
LINE
  5
26912
330
747D
100
AcDbEntity
  8
部品1
100
AcDbLine
 10
8321.122981479851
 20
2103.966454502362
 30
0.0
 11
8321.122981479851
 21
2103.966454502362
 31
0.0
  0
LINE
  5
26913
330
747D
100
AcDbEntity
  8
部品1
100
AcDbLine
 10
8321.122981479851
 20
2103.966454502362
 30
0.0
 11
8321.122981479851
 21
2112.066454502361
 31
0.0
  0
LINE
  5
26914
330
747D
100
AcDbEntity
  8
部品1
100
AcDbLine
 10
8323.82298147985
 20
2114.766454502362
 30
0.0
 11
8366.122981479852
 21
2114.766454502358
 31
0.0
  0
ARC
  5
26915
330
747D
100
AcDbEntity
  8
部品1
100
AcDbCircle
 10
8321.122981479851
 20
2101.266454502362
 30
0.0
 40
2.7
100
AcDbArc
 50
90.0
 51
180.0
  0
ELLIPSE
  5
26916
330
747D
100
AcDbEntity
  8
部品1
 48
50.0
100
AcDbEllipse
 10
8482.222981479852
 20
2272.289742946634
 30
0.0
 11
18.4
 21
0.0
 31
0.0
210
0.0
220
0.0
230
1.0
 40
0.3478260869565217
 41
0.0
 42
6.283185307179586
  0
LINE
  5
26917
330
747D
100
AcDbEntity
  8
部品1
 48
50.0
100
AcDbLine
 10
8522.222981479853
 20
2262.689742946633
 30
0.0
 11
8522.222981479853
 21
2272.289742946634
 31
0.0
  0
LINE
  5
26918
330
747D
100
AcDbEntity
  8
部品1
 48
50.0
100
AcDbLine
 10
8450.222981479852
 20
2394.041735611504
 30
0.0
 11
8466.222981479852
 21
2386.041735611504
 31
0.0
  0
LINE
  5
26919
330
747D
100
AcDbEntity
  8
部品1
 48
50.0
100
AcDbLine
 10
8450.222981479852
 20
2362.041735611504
 30
0.0
 11
8466.222981479852
 21
2354.041735611504
 31
0.0
  0
LINE
  5
2691A
330
747D
100
AcDbEntity
  8
部品1
 48
50.0
100
AcDbLine
 10
8450.222981479852
 20
2394.041735611504
 30
0.0
 11
8466.222981479852
 21
2402.041735611504
 31
0.0
  0
LINE
  5
2691B
330
747D
100
AcDbEntity
  8
部品1
 48
50.0
100
AcDbLine
 10
8450.222981479852
 20
2362.041735611504
 30
0.0
 11
8450.222981479852
 21
2394.041735611504
 31
0.0
  0
LINE
  5
2691C
330
747D
100
AcDbEntity
  8
部品1
 48
50.0
100
AcDbLine
 10
8466.222981479852
 20
2402.041735611504
 30
0.0
 11
8498.222981479852
 21
2402.041735611504
 31
0.0
  0
ELLIPSE
  5
2691D
330
747D
100
AcDbEntity
  8
細線
 48
50.0
100
AcDbEllipse
 10
8482.222981479852
 20
2394.041735611504
 30
0.0
 11
14.76670786606846
 21
0.0
 31
0.0
210
0.0
220
0.0
230
1.0
 40
0.2071254069489396
 41
0.0
 42
6.283185307179586
  0
LINE
  5
2691E
330
747D
100
AcDbEntity
  8
部品1
 48
50.0
100
AcDbLine
 10
8466.222981479852
 20
2354.041735611504
 30
0.0
 11
8498.222981479852
 21
2354.041735611504
 31
0.0
  0
LINE
  5
2691F
330
747D
100
AcDbEntity
  8
部品1
 48
50.0
100
AcDbLine
 10
8498.222981479852
 20
2354.041735611504
 30
0.0
 11
8514.222981479852
 21
2362.041735611504
 31
0.0
  0
LINE
  5
26920
330
747D
100
AcDbEntity
  8
部品1
 48
50.0
100
AcDbLine
 10
8466.222981479852
 20
2386.041735611504
 30
0.0
 11
8498.222981479852
 21
2386.041735611504
 31
0.0
  0
LINE
  5
26921
330
747D
100
AcDbEntity
  8
部品1
 48
50.0
100
AcDbLine
 10
8498.222981479852
 20
2386.041735611504
 30
0.0
 11
8514.222981479852
 21
2394.041735611504
 31
0.0
  0
LINE
  5
26922
330
747D
100
AcDbEntity
  8
細線
 48
50.0
100
AcDbLine
 10
8498.222981479852
 20
2354.041735611504
 30
0.0
 11
8498.222981479852
 21
2386.041735611504
 31
0.0
  0
LINE
  5
26923
330
747D
100
AcDbEntity
  8
部品1
 48
50.0
100
AcDbLine
 10
8514.222981479852
 20
2362.041735611504
 30
0.0
 11
8514.222981479852
 21
2394.041735611504
 31
0.0
  0
LINE
  5
26924
330
747D
100
AcDbEntity
  8
細線
 48
50.0
100
AcDbLine
 10
8466.222981479852
 20
2354.041735611504
 30
0.0
 11
8466.222981479852
 21
2386.041735611504
 31
0.0
  0
LINE
  5
26925
330
747D
100
AcDbEntity
  8
部品1
 48
50.0
100
AcDbLine
 10
8498.222981479852
 20
2402.041735611504
 30
0.0
 11
8514.222981479852
 21
2394.041735611504
 31
0.0
  0
TEXT
  5
26926
330
747D
100
AcDbEntity
  8
部品1
100
AcDbText
 10
8182.995230671783
 20
3222.953189751519
 30
0.0
 40
120.0
  1
基礎詳細
  7
STYLE2
100
AcDbText
  0
LINE
  5
26927
330
747D
100
AcDbEntity
  8
部品1
100
AcDbLine
 10
11561.10041487964
 20
438.1981521182997
 30
0.0
 11
11561.10041487965
 21
3402.505121702947
 31
0.0
  0
LINE
  5
26928
330
747D
100
AcDbEntity
  8
細線
100
AcDbLine
 10
10568.99224745939
 20
1763.166454502361
 30
0.0
 11
10374.35891378261
 21
1957.799788179144
 31
0.0
  0
LINE
  5
26929
330
747D
100
AcDbEntity
  8
部品1
100
AcDbLine
 10
10374.35891378261
 20
2003.166454502361
 30
0.0
 11
10854.35891378261
 21
2003.166454502361
 31
0.0
  0
LINE
  5
2692A
330
747D
100
AcDbEntity
  8
細線
 48
50.0
100
AcDbLine
 10
10508.42979822586
 20
1543.467538849011
 30
0.0
 11
10542.72729485705
 21
1671.46753884901
 31
0.0
  0
LINE
  5
2692B
330
747D
100
AcDbEntity
  8
部品1
100
AcDbLine
 10
10254.35891378261
 20
1543.467538849007
 30
0.0
 11
10974.35891378261
 21
1543.467538849011
 31
0.0
  0
LINE
  5
2692C
330
747D
100
AcDbEntity
  8
部品1
100
AcDbLine
 10
10254.35891378261
 20
1671.467538849011
 30
0.0
 11
10974.35891378261
 21
1671.467538849014
 31
0.0
  0
LINE
  5
2692D
330
747D
100
AcDbEntity
  8
細線
100
AcDbLine
 10
10435.27755927585
 20
1671.467538849011
 30
0.0
 11
10526.97647492919
 21
1763.166454502361
 31
0.0
  0
LWPOLYLINE
  5
2692E
330
747D
100
AcDbEntity
  8
部品1
 48
50.0
100
AcDbPolyline
 90
        2
 70
     0
 43
12.0
 10
9989.747651682222
 20
1763.166454502361
 10
11190.83995481384
 20
1763.166454502361
  0
LINE
  5
2692F
330
747D
100
AcDbEntity
  8
細線
100
AcDbLine
 10
10518.08055921396
 20
1763.166454502361
 30
0.0
 11
10374.35891378261
 21
1906.888099933714
 31
0.0
  0
TEXT
  5
26930
330
747D
100
AcDbEntity
  8
部品1
 48
50.0
100
AcDbText
 10
9610.240827024107
 20
1496.366713865052
 30
0.0
 40
80.0
  1
ボルトの出
 50
90.0
  7
STYLE2
100
AcDbText
  0
LINE
  5
26931
330
747D
100
AcDbEntity
  8
部品1
100
AcDbLine
 10
10374.35891378261
 20
1763.166454502361
 30
0.0
 11
10374.35891378261
 21
2003.166454502361
 31
0.0
  0
LINE
  5
26932
330
747D
100
AcDbEntity
  8
細線
 48
50.0
100
AcDbLine
 10
10350.65370833137
 20
1543.46753884901
 30
0.0
 11
10384.95120496255
 21
1671.46753884901
 31
0.0
  0
LINE
  5
26933
330
747D
100
AcDbEntity
  8
細線
 48
50.0
100
AcDbLine
 10
10429.54175327862
 20
1543.467538849011
 30
0.0
 11
10463.8392499098
 21
1671.467538849011
 31
0.0
  0
LINE
  5
26934
330
747D
100
AcDbEntity
  8
細線
 48
50.0
100
AcDbLine
 10
10271.76566338412
 20
1543.467538849011
 30
0.0
 11
10306.0631600153
 21
1671.467538849011
 31
0.0
  0
LINE
  5
26935
330
747D
100
AcDbEntity
  8
部品1
100
AcDbLine
 10
10254.35891378261
 20
1543.467538849007
 30
0.0
 11
10254.35891378261
 21
1763.166454502361
 31
0.0
  0
LINE
  5
26936
330
747D
100
AcDbEntity
  8
細線
 48
50.0
100
AcDbLine
 10
10357.08448894972
 20
1567.467538849011
 30
0.0
 11
10363.51526956807
 21
1543.467538849011
 31
0.0
  0
LINE
  5
26937
330
747D
100
AcDbEntity
  8
細線
 48
50.0
100
AcDbLine
 10
10278.19644400247
 20
1567.467538849011
 30
0.0
 11
10284.62722462081
 21
1543.467538849011
 31
0.0
  0
LINE
  5
26938
330
747D
100
AcDbEntity
  8
細線
 48
50.0
100
AcDbLine
 10
10435.97253389697
 20
1567.467538849011
 30
0.0
 11
10442.40331451532
 21
1543.467538849011
 31
0.0
  0
LINE
  5
26939
330
747D
100
AcDbEntity
  8
細線
 48
50.0
100
AcDbLine
 10
10514.86057884422
 20
1567.467538849011
 30
0.0
 11
10521.29135946256
 21
1543.467538849011
 31
0.0
  0
LINE
  5
2693A
330
747D
100
AcDbEntity
  8
細線
 48
50.0
100
AcDbLine
 10
10299.63237939696
 20
1647.467538849011
 30
0.0
 11
10293.20159877861
 21
1671.467538849011
 31
0.0
  0
LINE
  5
2693B
330
747D
100
AcDbEntity
  8
細線
 48
50.0
100
AcDbLine
 10
10457.40846929146
 20
1647.467538849011
 30
0.0
 11
10450.97768867311
 21
1671.467538849011
 31
0.0
  0
LINE
  5
2693C
330
747D
100
AcDbEntity
  8
細線
 48
50.0
100
AcDbLine
 10
10378.52042434421
 20
1647.467538849011
 30
0.0
 11
10372.08964372586
 21
1671.467538849011
 31
0.0
  0
LINE
  5
2693D
330
747D
100
AcDbEntity
  8
細線
100
AcDbLine
 10
10367.39530828193
 20
1671.467538849011
 30
0.0
 11
10459.09422393529
 21
1763.166454502361
 31
0.0
  0
LINE
  5
2693E
330
747D
100
AcDbEntity
  8
細線
100
AcDbLine
 10
10401.33643377889
 20
1671.467538849011
 30
0.0
 11
10493.03534943224
 21
1763.166454502361
 31
0.0
  0
LINE
  5
2693F
330
747D
100
AcDbEntity
  8
細線
100
AcDbLine
 10
10789.60956318959
 20
1763.166454502361
 30
0.0
 11
10549.6095631896
 21
2003.166454502361
 31
0.0
  0
LINE
  5
26940
330
747D
100
AcDbEntity
  8
細線
100
AcDbLine
 10
10840.52125143503
 20
1763.166454502363
 30
0.0
 11
10600.52125143503
 21
2003.166454502361
 31
0.0
  0
LINE
  5
26941
330
747D
100
AcDbEntity
  8
部品1
100
AcDbLine
 10
10854.35891378261
 20
2003.166454502361
 30
0.0
 11
10854.35891378261
 21
1763.166454502361
 31
0.0
  0
LINE
  5
26942
330
747D
100
AcDbEntity
  8
細線
 48
50.0
100
AcDbLine
 10
10823.98197801486
 20
1543.467538849008
 30
0.0
 11
10858.27947464604
 21
1671.467538849008
 31
0.0
  0
LINE
  5
26943
330
747D
100
AcDbEntity
  8
細線
100
AcDbLine
 10
10795.27755927585
 20
1671.467538849013
 30
0.0
 11
10886.97647492919
 21
1763.166454502361
 31
0.0
  0
LINE
  5
26944
330
747D
100
AcDbEntity
  8
細線
 48
50.0
100
AcDbLine
 10
10745.09393306761
 20
1543.46753884901
 30
0.0
 11
10779.39142969878
 21
1671.467538849011
 31
0.0
  0
LINE
  5
26945
330
747D
100
AcDbEntity
  8
細線
 48
50.0
100
AcDbLine
 10
10587.31784317311
 20
1543.46753884901
 30
0.0
 11
10621.6153398043
 21
1671.46753884901
 31
0.0
  0
LINE
  5
26946
330
747D
100
AcDbEntity
  8
細線
 48
50.0
100
AcDbLine
 10
10666.20588812036
 20
1543.467538849011
 30
0.0
 11
10700.50338475154
 21
1671.46753884901
 31
0.0
  0
LINE
  5
26947
330
747D
100
AcDbEntity
  8
細線
 48
50.0
100
AcDbLine
 10
10672.63666873871
 20
1567.467538849011
 30
0.0
 11
10679.06744935706
 21
1543.467538849011
 31
0.0
  0
LINE
  5
26948
330
747D
100
AcDbEntity
  8
細線
 48
50.0
100
AcDbLine
 10
10593.74862379146
 20
1567.467538849011
 30
0.0
 11
10600.17940440981
 21
1543.467538849011
 31
0.0
  0
LINE
  5
26949
330
747D
100
AcDbEntity
  8
細線
 48
50.0
100
AcDbLine
 10
10751.52471368596
 20
1567.467538849011
 30
0.0
 11
10757.95549430431
 21
1543.467538849011
 31
0.0
  0
LINE
  5
2694A
330
747D
100
AcDbEntity
  8
細線
 48
50.0
100
AcDbLine
 10
10830.41275863321
 20
1567.46753884901
 30
0.0
 11
10836.84353925155
 21
1543.46753884901
 31
0.0
  0
LINE
  5
2694B
330
747D
100
AcDbEntity
  8
細線
 48
50.0
100
AcDbLine
 10
10694.0726041332
 20
1647.467538849011
 30
0.0
 11
10687.64182351485
 21
1671.467538849011
 31
0.0
  0
LINE
  5
2694C
330
747D
100
AcDbEntity
  8
細線
 48
50.0
100
AcDbLine
 10
10615.18455918595
 20
1647.467538849011
 30
0.0
 11
10608.75377856761
 21
1671.467538849011
 31
0.0
  0
LINE
  5
2694D
330
747D
100
AcDbEntity
  8
細線
 48
50.0
100
AcDbLine
 10
10536.2965142387
 20
1647.467538849011
 30
0.0
 11
10529.86573362036
 21
1671.467538849011
 31
0.0
  0
LINE
  5
2694E
330
747D
100
AcDbEntity
  8
細線
100
AcDbLine
 10
10761.3364337789
 20
1671.467538849013
 30
0.0
 11
10853.03534943224
 21
1763.166454502361
 31
0.0
  0
LINE
  5
2694F
330
747D
100
AcDbEntity
  8
細線
 48
50.0
100
AcDbLine
 10
10772.96064908044
 20
1647.467538849011
 30
0.0
 11
10766.52986846209
 21
1671.467538849011
 31
0.0
  0
LINE
  5
26950
330
747D
100
AcDbEntity
  8
細線
100
AcDbLine
 10
10727.39530828194
 20
1671.467538849013
 30
0.0
 11
10819.09422393528
 21
1763.166454502361
 31
0.0
  0
LINE
  5
26951
330
747D
100
AcDbEntity
  8
細線
 48
50.0
100
AcDbLine
 10
10851.84869402769
 20
1647.46753884901
 30
0.0
 11
10845.41791340935
 21
1671.46753884901
 31
0.0
  0
LINE
  5
26952
330
747D
100
AcDbEntity
  8
細線
 48
50.0
100
AcDbLine
 10
10902.8700229621
 20
1543.46753884901
 30
0.0
 11
10937.16751959328
 21
1671.467538849008
 31
0.0
  0
LINE
  5
26953
330
747D
100
AcDbEntity
  8
部品1
100
AcDbLine
 10
10974.35891378261
 20
1763.166454502361
 30
0.0
 11
10974.35891378261
 21
1543.467538849011
 31
0.0
  0
LINE
  5
26954
330
747D
100
AcDbEntity
  8
細線
 48
50.0
100
AcDbLine
 10
10909.30080358045
 20
1567.46753884901
 30
0.0
 11
10915.7315841988
 21
1543.46753884901
 31
0.0
  0
LINE
  5
26955
330
747D
100
AcDbEntity
  8
細線
 48
50.0
100
AcDbLine
 10
10930.73673897494
 20
1647.46753884901
 30
0.0
 11
10924.30595835659
 21
1671.46753884901
 31
0.0
  0
LEADER
  5
26956
330
747D
100
AcDbEntity
  8
寸法
 48
50.0
100
AcDbLeader
  3
INABA_S50G
 73
     0
 74
     0
 75
     1
 40
120.0
 41
185.591883092037
 76
     3
 10
10785.08332539853
 20
2003.166454502361
 30
0.0
 10
10818.22153203217
 20
2175.312775183499
 30
0.0
 10
10943.22153203217
 20
2175.312775183499
 30
0.0
340
26957
1001
ACAD
1000
DSTYLE
1002
{
1070
    40
1040
1.0
1002
}
  0
MTEXT
  5
26957
102
{ACAD_REACTORS
330
26956
102
}
330
747D
100
AcDbEntity
  8
寸法
 62
     7
 48
50.0
100
AcDbMText
 10
10968.22153203217
 20
2260.312775183499
 30
0.0
 40
120.0
 41
0.8
 71
     4
 72
     1
  1
\A1;C.B
  7
STYLE1
 73
     1
 44
1.0
1001
ACAD
1000
MTEXTBEGIN
1070
    73
1070
     1
1070
    44
1040
1.0
1070
    74
1070
     0
1000
MTEXTEND
  0
ENDSEC
  0
SECTION
  2
OBJECTS
  0
DICTIONARY
  5
7471
330
0
100
AcDbDictionary
281
     1
  3
ACAD_COLOR
350
173D2
  3
ACAD_GROUP
350
7472
  3
ACAD_LAYOUT
350
173D3
  3
ACAD_MATERIAL
350
173D1
  3
ACAD_MLINESTYLE
350
7473
  3
ACAD_PLOTSETTINGS
350
173D4
  3
ACAD_PLOTSTYLENAME
350
173CF
  3
ACDBHEADERROUNDTRIPXREC
350
269E5
  3
AcDbVariableDictionary
350
2655B
  3
CONTENTDICTIONARY
350
E71C
  3
DRAWINGVARIABLESDICT
350
F3B9
  0
DICTIONARY
  5
1758F
330
7467
100
AcDbDictionary
280
     1
281
     1
  3
ACAD_LAYERSTATES
360
17590
  0
DICTIONARY
  5
173D2
102
{ACAD_REACTORS
330
7471
102
}
330
7471
100
AcDbDictionary
281
     1
  0
DICTIONARY
  5
7472
102
{ACAD_REACTORS
330
7471
102
}
330
7471
100
AcDbDictionary
281
     1
  3
*A1
350
1D2A9
  0
DICTIONARY
  5
173D3
102
{ACAD_REACTORS
330
7471
102
}
330
7471
100
AcDbDictionary
281
     1
  3
Model
350
173D5
  3
レイアウト1
350
173D6
  0
DICTIONARY
  5
173D1
102
{ACAD_REACTORS
330
7471
102
}
330
7471
100
AcDbDictionary
281
     1
  0
DICTIONARY
  5
7473
102
{ACAD_REACTORS
330
7471
102
}
330
7471
100
AcDbDictionary
281
     1
  3
STANDARD
350
7480
  0
DICTIONARY
  5
173D4
102
{ACAD_REACTORS
330
7471
102
}
330
7471
100
AcDbDictionary
281
     1
  0
ACDBDICTIONARYWDFLT
  5
173CF
102
{ACAD_REACTORS
330
7471
102
}
330
7471
100
AcDbDictionary
281
     1
  3
Normal
350
173D0
100
AcDbDictionaryWithDefault
340
173D0
  0
DICTIONARY
  5
269E5
102
{ACAD_REACTORS
330
7471
102
}
330
7471
100
AcDbDictionary
281
     1
  3
COLORDICT
350
269E7
  3
MATERIALDICT
350
269E6
  0
DICTIONARY
  5
2655B
102
{ACAD_REACTORS
330
7471
102
}
330
7471
100
AcDbDictionary
281
     1
  3
DIMASSOC
350
2655C
  3
PROJECTNAME
350
2655D
  0
DICTIONARY
  5
E71C
102
{ACAD_REACTORS
330
7471
102
}
330
7471
100
AcDbDictionary
281
     1
  0
DICTIONARY
  5
F3B9
102
{ACAD_REACTORS
330
7471
102
}
330
7471
100
AcDbDictionary
281
     1
1001
DRAWINGVARIABLESXDATA
1000
POLARMODE
1000
1
  0
DICTIONARY
  5
17590
102
{ACAD_REACTORS
330
1758F
102
}
330
1758F
100
AcDbDictionary
281
     1
  0
GROUP
  5
1D2A9
102
{ACAD_REACTORS
330
7472
102
}
330
7472
100
AcDbGroup
300

 70
     1
 71
     1
  0
LAYOUT
  5
173D5
102
{ACAD_XDICTIONARY
360
269E8
102
}
102
{ACAD_REACTORS
330
173D3
102
}
330
173D3
100
AcDbPlotSettings
  1

  2
Microsoft Office Document Image Writer
  4

  6

 40
0.0
 41
0.0
 42
0.0
 43
0.0
 44
0.0
 45
0.0
 46
0.0
 47
0.0
 48
0.0
 49
0.0
140
0.0
141
0.0
142
1.0
143
1.0
 70
  1712
 72
     0
 73
     0
 74
     0
  7

 75
     0
147
1.0
148
0.0
149
0.0
100
AcDbLayout
  1
Model
 70
     1
 71
     0
 10
0.0
 20
0.0
 11
12.0
 21
9.0
 12
0.0
 22
0.0
 32
0.0
 14
0.0
 24
0.0
 34
0.0
 15
0.0
 25
0.0
 35
0.0
146
0.0
 13
0.0
 23
0.0
 33
0.0
 16
1.0
 26
0.0
 36
0.0
 17
0.0
 27
1.0
 37
0.0
 76
     0
330
747D
  0
LAYOUT
  5
173D6
102
{ACAD_XDICTIONARY
360
269EA
102
}
102
{ACAD_REACTORS
330
173D3
102
}
330
173D3
100
AcDbPlotSettings
  1

  2
Microsoft Office Document Image Writer
  4

  6

 40
0.0
 41
0.0
 42
0.0
 43
0.0
 44
0.0
 45
0.0
 46
0.0
 47
0.0
 48
0.0
 49
0.0
140
0.0
141
0.0
142
1.0
143
1.0
 70
   688
 72
     0
 73
     0
 74
     5
  7

 75
    16
147
1.0
148
0.0
149
0.0
100
AcDbLayout
  1
レイアウト1
 70
     0
 71
     1
 10
0.0
 20
0.0
 11
420.0
 21
297.0
 12
0.0
 22
0.0
 32
0.0
 14
1.000000000000000E+20
 24
1.000000000000000E+20
 34
1.000000000000000E+20
 15
-1.000000000000000E+20
 25
-1.000000000000000E+20
 35
-1.000000000000000E+20
146
0.0
 13
0.0
 23
0.0
 33
0.0
 16
1.0
 26
0.0
 36
0.0
 17
0.0
 27
1.0
 37
0.0
 76
     0
330
747A
  0
MLINESTYLE
  5
7480
102
{ACAD_REACTORS
330
7473
102
}
330
7473
100
AcDbMlineStyle
  2
STANDARD
 70
     0
  3

 62
     0
 51
90.0
 52
90.0
 71
     2
 49
0.5
 62
   256
  6
BYLAYER
 49
-0.5
 62
   256
  6
BYLAYER
  0
ACDBPLACEHOLDER
  5
173D0
102
{ACAD_REACTORS
330
173CF
102
}
330
173CF
  0
XRECORD
  5
269E7
102
{ACAD_REACTORS
330
269E5
102
}
330
269E5
100
AcDbXrecord
280
     1
340
173D2
  0
XRECORD
  5
269E6
102
{ACAD_REACTORS
330
269E5
102
}
330
269E5
100
AcDbXrecord
280
     1
340
173D1
  0
DICTIONARYVAR
  5
2655C
102
{ACAD_REACTORS
330
2655B
102
}
330
2655B
100
DictionaryVariables
280
     0
  1
1
  0
DICTIONARYVAR
  5
2655D
102
{ACAD_REACTORS
330
2655B
102
}
330
2655B
100
DictionaryVariables
280
     0
  1

  0
DICTIONARY
  5
269E8
330
173D5
100
AcDbDictionary
280
     1
281
     1
  3
ACAD_XREC_ROUNDTRIP
360
269E9
  0
DICTIONARY
  5
269EA
330
173D6
100
AcDbDictionary
280
     1
281
     1
  3
ACAD_XREC_ROUNDTRIP
360
269EB
  0
XRECORD
  5
269E9
102
{ACAD_REACTORS
330
269E8
102
}
330
269E8
100
AcDbXrecord
280
     1
102
SHADEPLOT
 70
     0
102
SHADEPLOTRESLEVEL
 70
     2
102
SHADEPLOTCUSTOMDPI
 70
   300
  0
XRECORD
  5
269EB
102
{ACAD_REACTORS
330
269EA
102
}
330
269EA
100
AcDbXrecord
280
     1
102
SHADEPLOT
 70
     0
102
SHADEPLOTRESLEVEL
 70
     2
102
SHADEPLOTCUSTOMDPI
 70
   300
  0
ENDSEC
  0
EOF
