  0
SECTION
  2
HEADER
  9
$ACADVER
  1
AC1015
  9
$ACADMAINTVER
 70
    20
  9
$DWGCODEPAGE
  3
ANSI_932
  9
$INSBASE
 10
0.0
 20
0.0
 30
0.0
  9
$EXTMIN
 10
139.9999999999995
 20
-0.0000000000000909
 30
0.0
  9
$EXTMAX
 10
16307.2
 20
11409.6
 30
0.0
  9
$LIMMIN
 10
0.0
 20
0.0
  9
$LIMMAX
 10
16800.0
 20
11880.0
  9
$ORTHOMODE
 70
     0
  9
$REGENMODE
 70
     1
  9
$FILLMODE
 70
     1
  9
$QTEXTMODE
 70
     0
  9
$MIRRTEXT
 70
     1
  9
$LTSCALE
 40
20.0
  9
$ATTMODE
 70
     1
  9
$TEXTSIZE
 40
4.0
  9
$TRACEWID
 40
1.0
  9
$TEXTSTYLE
  7
STYLE1
  9
$CLAYER
  8
細線
  9
$CELTYPE
  6
BYLAYER
  9
$CECOLOR
 62
   256
  9
$CELTSCALE
 40
50.0
  9
$DISPSILH
 70
     0
  9
$DIMSCALE
 40
40.0
  9
$DIMASZ
 40
2.5
  9
$DIMEXO
 40
0.5
  9
$DIMDLI
 40
7.0
  9
$DIMRND
 40
0.0
  9
$DIMDLE
 40
0.0
  9
$DIMEXE
 40
1.5
  9
$DIMTP
 40
0.0
  9
$DIMTM
 40
0.0
  9
$DIMTXT
 40
3.0
  9
$DIMCEN
 40
0.0
  9
$DIMTSZ
 40
0.0
  9
$DIMTOL
 70
     0
  9
$DIMLIM
 70
     0
  9
$DIMTIH
 70
     0
  9
$DIMTOH
 70
     0
  9
$DIMSE1
 70
     0
  9
$DIMSE2
 70
     0
  9
$DIMTAD
 70
     3
  9
$DIMZIN
 70
     8
  9
$DIMBLK
  1

  9
$DIMASO
 70
     1
  9
$DIMSHO
 70
     1
  9
$DIMPOST
  1

  9
$DIMAPOST
  1

  9
$DIMALT
 70
     0
  9
$DIMALTD
 70
     2
  9
$DIMALTF
 40
0.0394
  9
$DIMLFAC
 40
1.0
  9
$DIMTOFL
 70
     1
  9
$DIMTVP
 40
0.0
  9
$DIMTIX
 70
     1
  9
$DIMSOXD
 70
     0
  9
$DIMSAH
 70
     1
  9
$DIMBLK1
  1
DOTSMALL
  9
$DIMBLK2
  1
DOTSMALL
  9
$DIMSTYLE
  2
INABA_S40G
  9
$DIMCLRD
 70
     0
  9
$DIMCLRE
 70
     0
  9
$DIMCLRT
 70
     7
  9
$DIMTFAC
 40
1.0
  9
$DIMGAP
 40
1.0
  9
$DIMJUST
 70
     0
  9
$DIMSD1
 70
     0
  9
$DIMSD2
 70
     0
  9
$DIMTOLJ
 70
     1
  9
$DIMTZIN
 70
     0
  9
$DIMALTZ
 70
     0
  9
$DIMALTTZ
 70
     0
  9
$DIMUPT
 70
     0
  9
$DIMDEC
 70
     1
  9
$DIMTDEC
 70
     4
  9
$DIMALTU
 70
     2
  9
$DIMALTTD
 70
     2
  9
$DIMTXSTY
  7
STYLE1
  9
$DIMAUNIT
 70
     0
  9
$DIMADEC
 70
     0
  9
$DIMALTRND
 40
0.0
  9
$DIMAZIN
 70
     0
  9
$DIMDSEP
 70
    46
  9
$DIMATFIT
 70
     3
  9
$DIMFRAC
 70
     0
  9
$DIMLDRBLK
  1

  9
$DIMLUNIT
 70
     2
  9
$DIMLWD
 70
    -2
  9
$DIMLWE
 70
    -2
  9
$DIMTMOVE
 70
     0
  9
$LUNITS
 70
     2
  9
$LUPREC
 70
     1
  9
$SKETCHINC
 40
1.0
  9
$FILLETRAD
 40
3.0
  9
$AUNITS
 70
     0
  9
$AUPREC
 70
     0
  9
$MENU
  1
acad
  9
$ELEVATION
 40
0.0
  9
$PELEVATION
 40
0.0
  9
$THICKNESS
 40
0.0
  9
$LIMCHECK
 70
     0
  9
$CHAMFERA
 40
0.0
  9
$CHAMFERB
 40
0.0
  9
$CHAMFERC
 40
0.0
  9
$CHAMFERD
 40
0.0
  9
$SKPOLY
 70
     0
  9
$TDCREATE
 40
2451368.612993866
  9
$TDUCREATE
 40
2451368.237993866
  9
$TDUPDATE
 40
2455826.601983507
  9
$TDUUPDATE
 40
2455826.226983507
  9
$TDINDWG
 40
0.7705481944
  9
$TDUSRTIMER
 40
0.7705481944
  9
$USRTIMER
 70
     1
  9
$ANGBASE
 50
0.0
  9
$ANGDIR
 70
     0
  9
$PDMODE
 70
     3
  9
$PDSIZE
 40
2.0
  9
$PLINEWID
 40
0.0
  9
$SPLFRAME
 70
     0
  9
$SPLINETYPE
 70
     6
  9
$SPLINESEGS
 70
     8
  9
$HANDSEED
  5
254C9
  9
$SURFTAB1
 70
     6
  9
$SURFTAB2
 70
     6
  9
$SURFTYPE
 70
     6
  9
$SURFU
 70
     6
  9
$SURFV
 70
     6
  9
$UCSBASE
  2

  9
$UCSNAME
  2

  9
$UCSORG
 10
0.0
 20
0.0
 30
0.0
  9
$UCSXDIR
 10
1.0
 20
0.0
 30
0.0
  9
$UCSYDIR
 10
0.0
 20
1.0
 30
0.0
  9
$UCSORTHOREF
  2

  9
$UCSORTHOVIEW
 70
     0
  9
$UCSORGTOP
 10
0.0
 20
0.0
 30
0.0
  9
$UCSORGBOTTOM
 10
0.0
 20
0.0
 30
0.0
  9
$UCSORGLEFT
 10
0.0
 20
0.0
 30
0.0
  9
$UCSORGRIGHT
 10
0.0
 20
0.0
 30
0.0
  9
$UCSORGFRONT
 10
0.0
 20
0.0
 30
0.0
  9
$UCSORGBACK
 10
0.0
 20
0.0
 30
0.0
  9
$PUCSBASE
  2

  9
$PUCSNAME
  2

  9
$PUCSORG
 10
0.0
 20
0.0
 30
0.0
  9
$PUCSXDIR
 10
1.0
 20
0.0
 30
0.0
  9
$PUCSYDIR
 10
0.0
 20
1.0
 30
0.0
  9
$PUCSORTHOREF
  2

  9
$PUCSORTHOVIEW
 70
     0
  9
$PUCSORGTOP
 10
0.0
 20
0.0
 30
0.0
  9
$PUCSORGBOTTOM
 10
0.0
 20
0.0
 30
0.0
  9
$PUCSORGLEFT
 10
0.0
 20
0.0
 30
0.0
  9
$PUCSORGRIGHT
 10
0.0
 20
0.0
 30
0.0
  9
$PUCSORGFRONT
 10
0.0
 20
0.0
 30
0.0
  9
$PUCSORGBACK
 10
0.0
 20
0.0
 30
0.0
  9
$USERI1
 70
     0
  9
$USERI2
 70
     0
  9
$USERI3
 70
     0
  9
$USERI4
 70
     0
  9
$USERI5
 70
     0
  9
$USERR1
 40
0.0
  9
$USERR2
 40
0.0
  9
$USERR3
 40
0.0
  9
$USERR4
 40
0.0
  9
$USERR5
 40
0.0
  9
$WORLDVIEW
 70
     1
  9
$SHADEDGE
 70
     3
  9
$SHADEDIF
 70
    70
  9
$TILEMODE
 70
     1
  9
$MAXACTVP
 70
    16
  9
$PINSBASE
 10
0.0
 20
0.0
 30
0.0
  9
$PLIMCHECK
 70
     0
  9
$PEXTMIN
 10
1.000000000000000E+20
 20
1.000000000000000E+20
 30
1.000000000000000E+20
  9
$PEXTMAX
 10
-1.000000000000000E+20
 20
-1.000000000000000E+20
 30
-1.000000000000000E+20
  9
$PLIMMIN
 10
0.0
 20
0.0
  9
$PLIMMAX
 10
420.0
 20
297.0
  9
$UNITMODE
 70
     0
  9
$VISRETAIN
 70
     0
  9
$PLINEGEN
 70
     0
  9
$PSLTSCALE
 70
     0
  9
$TREEDEPTH
 70
  3020
  9
$CMLSTYLE
  2
STANDARD
  9
$CMLJUST
 70
     0
  9
$CMLSCALE
 40
1.0
  9
$PROXYGRAPHICS
 70
     1
  9
$MEASUREMENT
 70
     1
  9
$CELWEIGHT
370
    -1
  9
$ENDCAPS
280
     0
  9
$JOINSTYLE
280
     0
  9
$LWDISPLAY
290
     0
  9
$INSUNITS
 70
     0
  9
$HYPERLINKBASE
  1

  9
$STYLESHEET
  1

  9
$XEDIT
290
     1
  9
$CEPSNTYPE
380
     0
  9
$PSTYLEMODE
290
     1
  9
$FINGERPRINTGUID
  2
{5EAC461A-2277-4BF8-9AB0-99C43BB394F0}
  9
$VERSIONGUID
  2
{67DE207D-0129-4956-9784-39036D1C3159}
  9
$EXTNAMES
290
     1
  9
$PSVPSCALE
 40
0.0
  9
$OLESTARTUP
290
     0
  0
ENDSEC
  0
SECTION
  2
CLASSES
  0
CLASS
  1
ACDBDICTIONARYWDFLT
  2
AcDbDictionaryWithDefault
  3
ObjectDBX Classes
 90
        0
280
     0
281
     0
  0
CLASS
  1
DICTIONARYVAR
  2
AcDbDictionaryVar
  3
ObjectDBX Classes
 90
        0
280
     0
281
     0
  0
CLASS
  1
ACDBPLACEHOLDER
  2
AcDbPlaceHolder
  3
ObjectDBX Classes
 90
        0
280
     0
281
     0
  0
CLASS
  1
LAYOUT
  2
AcDbLayout
  3
ObjectDBX Classes
 90
        0
280
     0
281
     0
  0
ENDSEC
  0
SECTION
  2
TABLES
  0
TABLE
  2
VPORT
  5
746D
330
0
100
AcDbSymbolTable
 70
     2
  0
VPORT
  5
254C1
330
746D
100
AcDbSymbolTableRecord
100
AcDbViewportTableRecord
  2
*Active
 70
     0
 10
0.0
 20
0.0
 11
1.0
 21
1.0
 12
8400.000000000002
 22
6532.467989526317
 13
0.0
 23
0.0
 14
10.0
 24
10.0
 15
10.0
 25
10.0
 16
0.0
 26
0.0
 36
1.0
 17
0.0
 27
0.0
 37
0.0
 40
13159.96111582214
 41
1.522222222222222
 42
50.0
 43
0.0
 44
0.0
 50
0.0
 51
0.0
 71
     0
 72
     0
 73
     1
 74
     0
 75
     0
 76
     0
 77
     0
 78
     0
281
     0
 65
     1
110
0.0
120
0.0
130
0.0
111
1.0
121
0.0
131
0.0
112
0.0
122
1.0
132
0.0
 79
     0
146
0.0
  0
ENDTAB
  0
TABLE
  2
LTYPE
  5
746A
330
0
100
AcDbSymbolTable
 70
     5
  0
LTYPE
  5
7477
330
746A
100
AcDbSymbolTableRecord
100
AcDbLinetypeTableRecord
  2
BYBLOCK
 70
     0
  3

 72
    65
 73
     0
 40
0.0
  0
LTYPE
  5
7478
330
746A
100
AcDbSymbolTableRecord
100
AcDbLinetypeTableRecord
  2
BYLAYER
 70
     0
  3

 72
    65
 73
     0
 40
0.0
  0
LTYPE
  5
7479
330
746A
100
AcDbSymbolTableRecord
100
AcDbLinetypeTableRecord
  2
CONTINUOUS
 70
     0
  3
Solid line
 72
    65
 73
     0
 40
0.0
  0
LTYPE
  5
7816
330
746A
100
AcDbSymbolTableRecord
100
AcDbLinetypeTableRecord
  2
CENTER
 70
     0
  3
____ _ ____ _ ____ _ ____ _ ____ _ ____ _ ____ 
 72
    65
 73
     4
 40
2.0
 49
1.25
 74
     0
 49
-0.25
 74
     0
 49
0.25
 74
     0
 49
-0.25
 74
     0
  0
LTYPE
  5
781A
330
746A
100
AcDbSymbolTableRecord
100
AcDbLinetypeTableRecord
  2
HIDDEN
 70
     0
  3
__ __ __ __ __ __ __ __ __ __ __ __ __ __ __ __
 72
    65
 73
     2
 40
0.375
 49
0.25
 74
     0
 49
-0.125
 74
     0
  0
LTYPE
  5
781B
330
746A
100
AcDbSymbolTableRecord
100
AcDbLinetypeTableRecord
  2
PHANTOM
 70
     0
  3
______  __  __  ______  __  __  ______  __  __ 
 72
    65
 73
     6
 40
2.5
 49
1.25
 74
     0
 49
-0.25
 74
     0
 49
0.25
 74
     0
 49
-0.25
 74
     0
 49
0.25
 74
     0
 49
-0.25
 74
     0
  0
LTYPE
  5
12CC3
330
746A
100
AcDbSymbolTableRecord
100
AcDbLinetypeTableRecord
  2
HIDDENX2
 70
     0
  3
Hidden (2x) ____ ____ ____ ____ ____ ____ ____
 72
    65
 73
     2
 40
19.05
 49
12.7
 74
     0
 49
-6.349999999999999
 74
     0
  0
ENDTAB
  0
TABLE
  2
LAYER
  5
7467
102
{ACAD_XDICTIONARY
360
1758F
102
}
330
0
100
AcDbSymbolTable
 70
    12
  0
LAYER
  5
7474
330
7467
100
AcDbSymbolTableRecord
100
AcDbLayerTableRecord
  2
0
 70
     0
 62
     7
  6
CONTINUOUS
370
    -3
390
173D0
  0
LAYER
  5
DEB2
330
7467
100
AcDbSymbolTableRecord
100
AcDbLayerTableRecord
  2
センター
 70
     0
 62
     3
  6
CENTER
370
    -3
390
173D0
  0
LAYER
  5
DEB3
330
7467
100
AcDbSymbolTableRecord
100
AcDbLayerTableRecord
  2
寸法
 70
     0
 62
     4
  6
CONTINUOUS
370
    -3
390
173D0
  0
LAYER
  5
DEB4
330
7467
100
AcDbSymbolTableRecord
100
AcDbLayerTableRecord
  2
部品1
 70
     0
 62
     7
  6
CONTINUOUS
370
    -3
390
173D0
  0
LAYER
  5
DEB5
330
7467
100
AcDbSymbolTableRecord
100
AcDbLayerTableRecord
  2
補助
 70
     0
 62
    -1
  6
CONTINUOUS
370
    -3
390
173D0
  0
LAYER
  5
DEB6
330
7467
100
AcDbSymbolTableRecord
100
AcDbLayerTableRecord
  2
文字
 70
     0
 62
     7
  6
CONTINUOUS
370
    -3
390
173D0
  0
LAYER
  5
F255
330
7467
100
AcDbSymbolTableRecord
100
AcDbLayerTableRecord
  2
DEFPOINTS
 70
     0
 62
     7
  6
CONTINUOUS
290
     0
370
    -3
390
173D0
  0
LAYER
  5
10B54
330
7467
100
AcDbSymbolTableRecord
100
AcDbLayerTableRecord
  2
仕様書枠
 70
     0
 62
   230
  6
CONTINUOUS
370
    -3
390
173D0
  0
LAYER
  5
11729
330
7467
100
AcDbSymbolTableRecord
100
AcDbLayerTableRecord
  2
Ｇ．Ｌ
 70
     0
 62
    30
  6
CONTINUOUS
370
    -3
390
173D0
  0
LAYER
  5
1173F
330
7467
100
AcDbSymbolTableRecord
100
AcDbLayerTableRecord
  2
細線
 70
     0
 62
     5
  6
CONTINUOUS
370
    -3
390
173D0
  0
LAYER
  5
12CC4
330
7467
100
AcDbSymbolTableRecord
100
AcDbLayerTableRecord
  2
想像線
 70
     0
 62
     6
  6
PHANTOM
370
    -3
390
173D0
  0
LAYER
  5
142E2
330
7467
100
AcDbSymbolTableRecord
100
AcDbLayerTableRecord
  2
破線
 70
     0
 62
     2
  6
HIDDEN
370
    -3
390
173D0
  0
ENDTAB
  0
TABLE
  2
STYLE
  5
7468
330
0
100
AcDbSymbolTable
 70
     7
  0
STYLE
  5
7475
330
7468
100
AcDbSymbolTableRecord
100
AcDbTextStyleTableRecord
  2
STANDARD
 70
     0
 40
0.0
 41
1.0
 50
0.0
 71
     0
 42
4.0
  3
txt
  4
C:\AutoCAD LT\bigfont.shx
  0
STYLE
  5
763C
330
7468
100
AcDbSymbolTableRecord
100
AcDbTextStyleTableRecord
  2
MSMINCHO
 70
     0
 40
0.0
 41
1.0
 50
0.0
 71
     0
 42
1.199999999999999
  3
C:\AutoCAD LT\msminch2.TTF
  4

  0
STYLE
  5
F706
330
7468
100
AcDbSymbolTableRecord
100
AcDbTextStyleTableRecord
  2
STYLE1
 70
     0
 40
0.0
 41
1.0
 50
0.0
 71
     0
 42
4.0
  3
isocp.shx
  4
bigfont.shx
  0
STYLE
  5
103BF
330
7468
100
AcDbSymbolTableRecord
100
AcDbTextStyleTableRecord
  2
STYLE2
 70
     0
 40
0.0
 41
1.0
 50
0.0
 71
     0
 42
100.0
  3
MS PGothic.ttf
  4

1001
ACAD
1000
MS PGothic
1071
    32818
  0
STYLE
  5
10BAA
330
7468
100
AcDbSymbolTableRecord
100
AcDbTextStyleTableRecord
  2
STYLE3
 70
     0
 40
0.0
 41
1.0
 50
0.0
 71
     0
 42
100.0
  3

  4

1001
ACAD
1000
DFPGothic-EB
1071
    32818
  0
STYLE
  5
11A15
330
7468
100
AcDbSymbolTableRecord
100
AcDbTextStyleTableRecord
  2
MSGOTHIC
 70
     0
 40
0.0
 41
1.0
 50
0.0
 71
     0
 42
3.5
  3
msgothi2.ttf
  4

  0
STYLE
  5
13E96
330
7468
100
AcDbSymbolTableRecord
100
AcDbTextStyleTableRecord
  2
MSPゴシック
 70
     0
 40
0.0
 41
1.0
 50
0.0
 71
     0
 42
4.0
  3
MS PGothic.ttf
  4

1001
ACAD
1000
MS PGothic
1071
    32818
  0
ENDTAB
  0
TABLE
  2
VIEW
  5
746B
330
0
100
AcDbSymbolTable
 70
     0
  0
ENDTAB
  0
TABLE
  2
UCS
  5
746C
330
0
100
AcDbSymbolTable
 70
     0
  0
ENDTAB
  0
TABLE
  2
APPID
  5
746E
330
0
100
AcDbSymbolTable
 70
     6
  0
APPID
  5
7476
330
746E
100
AcDbSymbolTableRecord
100
AcDbRegAppTableRecord
  2
ACAD
 70
     0
  0
APPID
  5
DEA9
330
746E
100
AcDbSymbolTableRecord
100
AcDbRegAppTableRecord
  2
CONTENTBLOCKICON
 70
     0
  0
APPID
  5
DEAA
330
746E
100
AcDbSymbolTableRecord
100
AcDbRegAppTableRecord
  2
CONTENTBLOCKDESCRIPTION
 70
     0
  0
APPID
  5
E71D
330
746E
100
AcDbSymbolTableRecord
100
AcDbRegAppTableRecord
  2
CONTENTTABDATA
 70
     0
  0
APPID
  5
E71E
330
746E
100
AcDbSymbolTableRecord
100
AcDbRegAppTableRecord
  2
CONTENTCURRENTTAB
 70
     0
  0
APPID
  5
F3BA
330
746E
100
AcDbSymbolTableRecord
100
AcDbRegAppTableRecord
  2
DRAWINGVARIABLESXDATA
 70
     0
  0
ENDTAB
  0
TABLE
  2
DIMSTYLE
  5
746F
330
0
100
AcDbSymbolTable
 70
     6
100
AcDbDimStyleTable
 71
     1
340
F71F
  0
DIMSTYLE
105
7484
330
746F
100
AcDbSymbolTableRecord
100
AcDbDimStyleTableRecord
  2
JIS
 70
     0
 41
2.5
 42
1.0
 43
7.0
 44
1.0
 73
     0
 74
     0
 77
     1
 78
     8
140
2.5
141
0.0
143
0.0394
147
0.0
172
     1
174
     1
175
     1
340
7475
  0
DIMSTYLE
105
F236
330
746F
100
AcDbSymbolTableRecord
100
AcDbDimStyleTableRecord
  2
INABA_S40
 70
     0
 40
40.0
 41
2.5
 42
0.5
 43
7.0
 44
1.5
 73
     0
 74
     0
 77
     3
 78
     8
140
3.0
141
0.0
143
0.0394
147
1.0
172
     1
173
     1
174
     1
175
     1
178
     7
289
     0
340
7475
341
DEAC
343
DEAC
344
DEAC
  0
DIMSTYLE
105
F71F
102
{ACAD_REACTORS
330
20DE1
330
20DFB
330
22741
330
2275B
330
229ED
330
229EC
330
22A4B
330
24A61
330
24A14
330
24A10
330
249DC
330
249DA
330
2499A
330
24999
330
24990
330
2498A
330
24987
330
24986
330
249A0
330
249D8
330
2499D
330
2499C
330
2499B
330
249AE
330
24995
330
25377
330
253D7
330
253DA
330
253E1
330
253E9
330
253EA
102
}
330
746F
100
AcDbSymbolTableRecord
100
AcDbDimStyleTableRecord
  2
INABA_S40G
 70
     0
 40
40.0
 41
2.5
 42
0.5
 43
7.0
 44
1.5
 73
     0
 74
     0
 77
     3
 78
     8
140
3.0
141
0.0
143
0.0394
147
1.0
172
     1
173
     1
174
     1
178
     7
271
     1
340
F706
341
F770
343
F770
344
F770
  0
DIMSTYLE
105
142E3
330
746F
100
AcDbSymbolTableRecord
100
AcDbDimStyleTableRecord
  2
INABA_S1
 70
     0
 40
0.0
 41
2.5
 42
0.5
 43
7.0
 44
1.5
 73
     0
 74
     0
 77
     3
 78
     8
140
3.0
141
0.0
143
0.0394
146
0.5
147
0.5
172
     1
173
     1
176
   256
177
   256
178
     7
271
     2
272
     2
284
     8
288
     1
340
7475
341
DEAC
343
DEAC
344
DEAC
  0
DIMSTYLE
105
14463
330
746F
100
AcDbSymbolTableRecord
100
AcDbDimStyleTableRecord
  2
INABA_S30G
 70
     0
 40
30.0
 41
2.5
 42
0.5
 43
7.0
 44
1.5
 73
     0
 74
     0
 77
     3
 78
     8
140
3.0
141
0.0
143
0.0394
147
1.0
172
     1
173
     1
174
     1
175
     1
178
     7
271
     1
340
F706
341
F770
343
F770
344
F770
  0
DIMSTYLE
105
1758E
330
746F
100
AcDbSymbolTableRecord
100
AcDbDimStyleTableRecord
  2
INABA_S50G
 70
     0
 41
125.0
 42
25.0
 43
7.0
 44
75.0
 73
     0
 74
     0
 77
     3
 78
     8
140
150.0
141
0.0
143
0.0394
147
25.0
172
     1
173
     1
174
     1
175
     1
178
     7
271
     1
340
F706
341
F770
343
F770
344
F770
  0
ENDTAB
  0
TABLE
  2
BLOCK_RECORD
  5
7466
330
0
100
AcDbSymbolTable
 70
    60
  0
BLOCK_RECORD
  5
747D
330
7466
100
AcDbSymbolTableRecord
100
AcDbBlockTableRecord
  2
*MODEL_SPACE
340
173D5
  0
BLOCK_RECORD
  5
747A
330
7466
100
AcDbSymbolTableRecord
100
AcDbBlockTableRecord
  2
*PAPER_SPACE
340
173D6
  0
BLOCK_RECORD
  5
DEAC
330
7466
100
AcDbSymbolTableRecord
100
AcDbBlockTableRecord
  2
_OPEN
340
0
  0
BLOCK_RECORD
  5
F770
330
7466
100
AcDbSymbolTableRecord
100
AcDbBlockTableRecord
  2
_DOTSMALL
340
0
102
{BLKREFS
331
18C65
331
18C66
331
18C59
331
18C5A
331
18C4D
331
18C4E
331
18C41
331
18C42
331
18C35
331
18C36
331
18C29
331
18C2A
331
18C1D
331
18C1E
331
18C0F
331
18C10
331
18C03
331
18C04
331
18BF5
331
18BF6
331
18BE7
331
18BE8
331
18BD9
331
18BDA
331
18BCD
331
18BCE
331
21316
331
21317
331
21321
331
21322
331
2132A
331
2132B
331
24F3E
331
24F3F
331
24F5A
331
24F5B
331
24F63
331
24F64
331
24F87
331
24F88
331
24F90
331
24F91
331
24FA2
331
24FA3
331
24FAC
331
24FAD
331
24FC8
331
24FC9
331
24FE5
331
24FE6
331
25003
331
25004
331
2500E
331
2500F
331
25019
331
2501A
331
25024
331
25025
331
25048
331
25049
331
25051
331
25052
331
250C8
331
250C9
331
250D2
331
250D3
331
250E4
331
250E5
331
250ED
331
250EE
331
250F6
331
250F7
331
250FF
331
25100
331
25108
331
25109
331
2511A
331
2511B
331
25123
331
25124
331
2512C
331
2512D
331
2517F
331
25180
331
25173
331
25174
331
25167
331
25168
331
2515B
331
2515C
331
2514F
331
25150
331
25141
331
25142
331
25441
331
25442
331
2544A
331
2544B
331
25453
331
25454
331
2545C
331
2545D
331
25467
331
25468
331
25470
331
25471
331
254B0
331
254B1
102
}
  0
BLOCK_RECORD
  5
164B4
330
7466
100
AcDbSymbolTableRecord
100
AcDbBlockTableRecord
  2
_DOT
340
0
102
{BLKREFS
331
18C73
331
18C74
102
}
  0
BLOCK_RECORD
  5
18BC8
330
7466
100
AcDbSymbolTableRecord
100
AcDbBlockTableRecord
  2
*D3
340
0
  0
BLOCK_RECORD
  5
18BD4
330
7466
100
AcDbSymbolTableRecord
100
AcDbBlockTableRecord
  2
*D4
340
0
  0
BLOCK_RECORD
  5
18BE0
330
7466
100
AcDbSymbolTableRecord
100
AcDbBlockTableRecord
  2
*D5
340
0
  0
BLOCK_RECORD
  5
18BEE
330
7466
100
AcDbSymbolTableRecord
100
AcDbBlockTableRecord
  2
*D6
340
0
  0
BLOCK_RECORD
  5
18BFC
330
7466
100
AcDbSymbolTableRecord
100
AcDbBlockTableRecord
  2
*D7
340
0
  0
BLOCK_RECORD
  5
18C0A
330
7466
100
AcDbSymbolTableRecord
100
AcDbBlockTableRecord
  2
*D8
340
0
  0
BLOCK_RECORD
  5
18C16
330
7466
100
AcDbSymbolTableRecord
100
AcDbBlockTableRecord
  2
*D9
340
0
  0
BLOCK_RECORD
  5
18C24
330
7466
100
AcDbSymbolTableRecord
100
AcDbBlockTableRecord
  2
*D10
340
0
  0
BLOCK_RECORD
  5
18C30
330
7466
100
AcDbSymbolTableRecord
100
AcDbBlockTableRecord
  2
*D11
340
0
  0
BLOCK_RECORD
  5
18C3C
330
7466
100
AcDbSymbolTableRecord
100
AcDbBlockTableRecord
  2
*D12
340
0
  0
BLOCK_RECORD
  5
18C48
330
7466
100
AcDbSymbolTableRecord
100
AcDbBlockTableRecord
  2
*D13
340
0
  0
BLOCK_RECORD
  5
18C54
330
7466
100
AcDbSymbolTableRecord
100
AcDbBlockTableRecord
  2
*D14
340
0
  0
BLOCK_RECORD
  5
18C60
330
7466
100
AcDbSymbolTableRecord
100
AcDbBlockTableRecord
  2
*D15
340
0
  0
BLOCK_RECORD
  5
18C6C
330
7466
100
AcDbSymbolTableRecord
100
AcDbBlockTableRecord
  2
*D16
340
0
  0
BLOCK_RECORD
  5
18C7A
330
7466
100
AcDbSymbolTableRecord
100
AcDbBlockTableRecord
  2
A$C3B1A506B
340
0
  0
BLOCK_RECORD
  5
1C4CA
330
7466
100
AcDbSymbolTableRecord
100
AcDbBlockTableRecord
  2
_NONE
340
0
  0
BLOCK_RECORD
  5
20DE2
330
7466
100
AcDbSymbolTableRecord
100
AcDbBlockTableRecord
  2
*D19
340
0
  0
BLOCK_RECORD
  5
20DFC
330
7466
100
AcDbSymbolTableRecord
100
AcDbBlockTableRecord
  2
*D20
340
0
  0
BLOCK_RECORD
  5
22742
330
7466
100
AcDbSymbolTableRecord
100
AcDbBlockTableRecord
  2
*D25
340
0
  0
BLOCK_RECORD
  5
2275C
330
7466
100
AcDbSymbolTableRecord
100
AcDbBlockTableRecord
  2
*D26
340
0
  0
BLOCK_RECORD
  5
22AFD
330
7466
100
AcDbSymbolTableRecord
100
AcDbBlockTableRecord
  2
*D27
340
0
  0
BLOCK_RECORD
  5
22B0A
330
7466
100
AcDbSymbolTableRecord
100
AcDbBlockTableRecord
  2
*D28
340
0
  0
BLOCK_RECORD
  5
22B17
330
7466
100
AcDbSymbolTableRecord
100
AcDbBlockTableRecord
  2
*D29
340
0
  0
BLOCK_RECORD
  5
24A73
330
7466
100
AcDbSymbolTableRecord
100
AcDbBlockTableRecord
  2
*D30
340
0
  0
BLOCK_RECORD
  5
24A7F
330
7466
100
AcDbSymbolTableRecord
100
AcDbBlockTableRecord
  2
*D31
340
0
  0
BLOCK_RECORD
  5
24AA6
330
7466
100
AcDbSymbolTableRecord
100
AcDbBlockTableRecord
  2
*D32
340
0
  0
BLOCK_RECORD
  5
24AB2
330
7466
100
AcDbSymbolTableRecord
100
AcDbBlockTableRecord
  2
*D33
340
0
  0
BLOCK_RECORD
  5
24ABE
330
7466
100
AcDbSymbolTableRecord
100
AcDbBlockTableRecord
  2
*D34
340
0
  0
BLOCK_RECORD
  5
24ACA
330
7466
100
AcDbSymbolTableRecord
100
AcDbBlockTableRecord
  2
*D35
340
0
  0
BLOCK_RECORD
  5
24AD5
330
7466
100
AcDbSymbolTableRecord
100
AcDbBlockTableRecord
  2
*D36
340
0
  0
BLOCK_RECORD
  5
24AE1
330
7466
100
AcDbSymbolTableRecord
100
AcDbBlockTableRecord
  2
*D37
340
0
  0
BLOCK_RECORD
  5
24AED
330
7466
100
AcDbSymbolTableRecord
100
AcDbBlockTableRecord
  2
*D38
340
0
  0
BLOCK_RECORD
  5
24AF8
330
7466
100
AcDbSymbolTableRecord
100
AcDbBlockTableRecord
  2
*D39
340
0
  0
BLOCK_RECORD
  5
24B04
330
7466
100
AcDbSymbolTableRecord
100
AcDbBlockTableRecord
  2
*D40
340
0
  0
BLOCK_RECORD
  5
24B10
330
7466
100
AcDbSymbolTableRecord
100
AcDbBlockTableRecord
  2
*D41
340
0
  0
BLOCK_RECORD
  5
24B36
330
7466
100
AcDbSymbolTableRecord
100
AcDbBlockTableRecord
  2
*D42
340
0
  0
BLOCK_RECORD
  5
24B42
330
7466
100
AcDbSymbolTableRecord
100
AcDbBlockTableRecord
  2
*D43
340
0
  0
BLOCK_RECORD
  5
24B4E
330
7466
100
AcDbSymbolTableRecord
100
AcDbBlockTableRecord
  2
*D44
340
0
  0
BLOCK_RECORD
  5
24B65
330
7466
100
AcDbSymbolTableRecord
100
AcDbBlockTableRecord
  2
*D45
340
0
  0
BLOCK_RECORD
  5
24B7D
330
7466
100
AcDbSymbolTableRecord
100
AcDbBlockTableRecord
  2
*D46
340
0
  0
BLOCK_RECORD
  5
24B97
330
7466
100
AcDbSymbolTableRecord
100
AcDbBlockTableRecord
  2
*D47
340
0
  0
BLOCK_RECORD
  5
253F4
330
7466
100
AcDbSymbolTableRecord
100
AcDbBlockTableRecord
  2
*D54
340
0
  0
BLOCK_RECORD
  5
25400
330
7466
100
AcDbSymbolTableRecord
100
AcDbBlockTableRecord
  2
*D55
340
0
  0
BLOCK_RECORD
  5
2540C
330
7466
100
AcDbSymbolTableRecord
100
AcDbBlockTableRecord
  2
*D56
340
0
  0
BLOCK_RECORD
  5
25418
330
7466
100
AcDbSymbolTableRecord
100
AcDbBlockTableRecord
  2
*D57
340
0
  0
BLOCK_RECORD
  5
25424
330
7466
100
AcDbSymbolTableRecord
100
AcDbBlockTableRecord
  2
*D58
340
0
  0
BLOCK_RECORD
  5
25432
330
7466
100
AcDbSymbolTableRecord
100
AcDbBlockTableRecord
  2
*D59
340
0
  0
ENDTAB
  0
ENDSEC
  0
SECTION
  2
BLOCKS
  0
BLOCK
  5
7489
330
747D
100
AcDbEntity
  8
0
100
AcDbBlockBegin
  2
*MODEL_SPACE
 70
     0
 10
0.0
 20
0.0
 30
0.0
  3
*MODEL_SPACE
  1

  0
ENDBLK
  5
748A
330
747D
100
AcDbEntity
  8
0
100
AcDbBlockEnd
  0
BLOCK
  5
7487
330
747A
100
AcDbEntity
 67
     1
  8
0
100
AcDbBlockBegin
  2
*PAPER_SPACE
 70
     0
 10
0.0
 20
0.0
 30
0.0
  3
*PAPER_SPACE
  1

  0
ENDBLK
  5
7488
330
747A
100
AcDbEntity
 67
     1
  8
0
100
AcDbBlockEnd
  0
BLOCK
  5
DEAD
330
DEAC
100
AcDbEntity
  8
0
100
AcDbBlockBegin
  2
_OPEN
 70
     0
 10
0.0
 20
0.0
 30
0.0
  3
_OPEN
  1

  0
LINE
  5
DEAE
330
DEAC
100
AcDbEntity
  8
0
  6
ByBlock
 62
     0
100
AcDbLine
 10
-1.0
 20
0.1666666666666666
 30
0.0
 11
0.0
 21
0.0
 31
0.0
  0
LINE
  5
DEAF
330
DEAC
100
AcDbEntity
  8
0
  6
ByBlock
 62
     0
100
AcDbLine
 10
0.0
 20
0.0
 30
0.0
 11
-1.0
 21
-0.1666666666666666
 31
0.0
  0
LINE
  5
DEB0
330
DEAC
100
AcDbEntity
  8
0
  6
ByBlock
 62
     0
100
AcDbLine
 10
0.0
 20
0.0
 30
0.0
 11
-1.0
 21
0.0
 31
0.0
  0
ENDBLK
  5
DEB1
330
DEAC
100
AcDbEntity
  8
0
100
AcDbBlockEnd
  0
BLOCK
  5
F771
330
F770
100
AcDbEntity
  8
0
 48
50.0
100
AcDbBlockBegin
  2
_DOTSMALL
 70
     0
 10
0.0
 20
0.0
 30
0.0
  3
_DOTSMALL
  1

  0
LWPOLYLINE
  5
F772
330
F770
100
AcDbEntity
  8
0
  6
ByBlock
 62
     0
 48
50.0
100
AcDbPolyline
 90
        2
 70
     1
 43
0.5
 10
-0.0625
 20
0.0
 42
1.0
 10
0.0625
 20
0.0
 42
1.0
  0
ENDBLK
  5
F776
330
F770
100
AcDbEntity
  8
0
 48
50.0
100
AcDbBlockEnd
  0
BLOCK
  5
164BA
330
164B4
100
AcDbEntity
  8
0
 48
50.0
100
AcDbBlockBegin
  2
_DOT
 70
     0
 10
0.0
 20
0.0
 30
0.0
  3
_DOT
  1

  0
LWPOLYLINE
  5
164B5
330
164B4
100
AcDbEntity
  8
0
  6
ByBlock
 62
     0
 48
50.0
100
AcDbPolyline
 90
        2
 70
     1
 43
0.5
 10
-0.25
 20
0.0
 42
1.0
 10
0.25
 20
0.0
 42
1.0
  0
LINE
  5
164B9
330
164B4
100
AcDbEntity
  8
0
  6
ByBlock
 62
     0
 48
50.0
100
AcDbLine
 10
-0.5
 20
0.0
 30
0.0
 11
-1.0
 21
0.0
 31
0.0
  0
ENDBLK
  5
164BB
330
164B4
100
AcDbEntity
  8
0
 48
50.0
100
AcDbBlockEnd
  0
BLOCK
  5
18BC9
330
18BC8
100
AcDbEntity
  8
0
 48
50.0
100
AcDbBlockBegin
  2
*D3
 70
     1
 10
0.0
 20
0.0
 30
0.0
  3
*D3
  1

  0
LINE
  5
18BCA
330
18BC8
100
AcDbEntity
  8
寸法
 62
     0
 48
50.0
370
    -2
100
AcDbLine
 10
7649.896575106999
 20
9636.123139034717
 30
0.0
 11
8702.429862581047
 21
9636.123139034717
 31
0.0
  0
LINE
  5
18BCB
330
18BC8
100
AcDbEntity
  8
寸法
 62
     0
 48
50.0
370
    -2
100
AcDbLine
 10
7649.896575106973
 20
7846.123139034709
 30
0.0
 11
8702.429862581047
 21
7846.123139034709
 31
0.0
  0
LINE
  5
18BCC
330
18BC8
100
AcDbEntity
  8
寸法
 62
     0
 48
50.0
370
    -2
100
AcDbLine
 10
8642.429862581046
 20
9636.123139034717
 30
0.0
 11
8642.429862581046
 21
7846.123139034709
 31
0.0
  0
INSERT
  5
18BCD
330
18BC8
100
AcDbEntity
  8
寸法
 62
     0
 48
50.0
370
    -2
100
AcDbBlockReference
  2
_DOTSMALL
 10
8642.429862581046
 20
9636.123139034717
 30
0.0
 41
100.0
 42
100.0
 43
100.0
 50
90.0
  0
INSERT
  5
18BCE
330
18BC8
100
AcDbEntity
  8
寸法
 62
     0
 48
50.0
370
    -2
100
AcDbBlockReference
  2
_DOTSMALL
 10
8642.429862581046
 20
7846.123139034709
 30
0.0
 41
100.0
 42
100.0
 43
100.0
 50
270.0
  0
MTEXT
  5
18BCF
330
18BC8
100
AcDbEntity
  8
寸法
 62
     7
 48
50.0
100
AcDbMText
 10
8542.429862581045
 20
8741.123139034712
 30
0.0
 40
120.0
 41
0.0
 71
     5
 72
     1
  1
\A1;1790
  7
STYLE1
 11
0.0000000000000001
 21
1.0
 31
0.0
 73
     1
 44
1.0
1001
ACAD
1000
MTEXTBEGIN
1070
    73
1070
     1
1070
    44
1040
1.0
1070
    74
1070
     0
1000
MTEXTEND
  0
POINT
  5
18BD0
330
18BC8
100
AcDbEntity
  8
DEFPOINTS
 62
     0
 48
50.0
100
AcDbPoint
 10
7629.896575106998
 20
9636.123139034717
 30
0.0
  0
POINT
  5
18BD1
330
18BC8
100
AcDbEntity
  8
DEFPOINTS
 62
     0
 48
50.0
100
AcDbPoint
 10
7629.896575106974
 20
7846.123139034709
 30
0.0
  0
POINT
  5
18BD2
330
18BC8
100
AcDbEntity
  8
DEFPOINTS
 62
     0
 48
50.0
100
AcDbPoint
 10
8642.429862581046
 20
7846.123139034709
 30
0.0
  0
ENDBLK
  5
18BD3
330
18BC8
100
AcDbEntity
  8
0
 48
50.0
100
AcDbBlockEnd
  0
BLOCK
  5
18BD5
330
18BD4
100
AcDbEntity
  8
0
 48
50.0
100
AcDbBlockBegin
  2
*D4
 70
     1
 10
0.0
 20
0.0
 30
0.0
  3
*D4
  1

  0
LINE
  5
18BD6
330
18BD4
100
AcDbEntity
  8
寸法
 62
     0
 48
50.0
370
    -2
100
AcDbLine
 10
4214.896575106998
 20
9656.123139034622
 30
0.0
 11
4214.896575106998
 21
10211.93135865972
 31
0.0
  0
LINE
  5
18BD7
330
18BD4
100
AcDbEntity
  8
寸法
 62
     0
 48
50.0
370
    -2
100
AcDbLine
 10
7574.896575106999
 20
9656.123139034718
 30
0.0
 11
7574.896575106999
 21
10211.93135865972
 31
0.0
  0
LINE
  5
18BD8
330
18BD4
100
AcDbEntity
  8
寸法
 62
     0
 48
50.0
370
    -2
100
AcDbLine
 10
4214.896575106998
 20
10151.93135865972
 30
0.0
 11
7574.896575106999
 21
10151.93135865972
 31
0.0
  0
INSERT
  5
18BD9
330
18BD4
100
AcDbEntity
  8
寸法
 62
     0
 48
50.0
370
    -2
100
AcDbBlockReference
  2
_DOTSMALL
 10
4214.896575106998
 20
10151.93135865972
 30
0.0
 41
100.0
 42
100.0
 43
100.0
 50
180.0
  0
INSERT
  5
18BDA
330
18BD4
100
AcDbEntity
  8
寸法
 62
     0
 48
50.0
370
    -2
100
AcDbBlockReference
  2
_DOTSMALL
 10
7574.896575106999
 20
10151.93135865972
 30
0.0
 41
100.0
 42
100.0
 43
100.0
  0
MTEXT
  5
18BDB
330
18BD4
100
AcDbEntity
  8
寸法
 62
     7
 48
50.0
100
AcDbMText
 10
5894.896575106997
 20
10251.94316968334
 30
0.0
 40
120.0
 41
0.0
 71
     5
 72
     1
  1
\A1;8X420=3360
  7
STYLE1
 73
     1
 44
1.0
1001
ACAD
1000
MTEXTBEGIN
1070
    73
1070
     1
1070
    44
1040
1.0
1070
    74
1070
     0
1000
MTEXTEND
  0
POINT
  5
18BDC
330
18BD4
100
AcDbEntity
  8
DEFPOINTS
 62
     0
 48
50.0
100
AcDbPoint
 10
4214.896575106998
 20
9636.123139034623
 30
0.0
  0
POINT
  5
18BDD
330
18BD4
100
AcDbEntity
  8
DEFPOINTS
 62
     0
 48
50.0
100
AcDbPoint
 10
7574.896575106999
 20
9636.123139034717
 30
0.0
  0
POINT
  5
18BDE
330
18BD4
100
AcDbEntity
  8
DEFPOINTS
 62
     0
 48
50.0
100
AcDbPoint
 10
7574.896575106999
 20
10151.93135865972
 30
0.0
  0
ENDBLK
  5
18BDF
330
18BD4
100
AcDbEntity
  8
0
 48
50.0
100
AcDbBlockEnd
  0
BLOCK
  5
18BE1
330
18BE0
100
AcDbEntity
  8
0
 48
50.0
100
AcDbBlockBegin
  2
*D5
 70
     1
 10
0.0
 20
0.0
 30
0.0
  3
*D5
  1

  0
LINE
  5
18BE2
330
18BE0
100
AcDbEntity
  8
寸法
 62
     0
 48
50.0
370
    -2
100
AcDbLine
 10
7574.896575106999
 20
9656.123139034718
 30
0.0
 11
7574.896575106999
 21
10211.9313586597
 31
0.0
  0
LINE
  5
18BE3
330
18BE0
100
AcDbEntity
  8
寸法
 62
     0
 48
50.0
370
    -2
100
AcDbLine
 10
7629.896575106998
 20
9656.123139034718
 30
0.0
 11
7629.896575106998
 21
10211.9313586597
 31
0.0
  0
LINE
  5
18BE4
330
18BE0
100
AcDbEntity
  8
寸法
 62
     0
 48
50.0
370
    -2
100
AcDbLine
 10
7574.896575106999
 20
10151.9313586597
 30
0.0
 11
7474.896575106999
 21
10151.9313586597
 31
0.0
  0
LINE
  5
18BE5
330
18BE0
100
AcDbEntity
  8
寸法
 62
     0
 48
50.0
370
    -2
100
AcDbLine
 10
7629.896575106998
 20
10151.9313586597
 30
0.0
 11
8046.867137855477
 21
10151.9313586597
 31
0.0
  0
LINE
  5
18BE6
330
18BE0
100
AcDbEntity
  8
寸法
 62
     0
 48
50.0
370
    -2
100
AcDbLine
 10
7574.896575106999
 20
10151.9313586597
 30
0.0
 11
7629.896575106998
 21
10151.9313586597
 31
0.0
  0
INSERT
  5
18BE7
330
18BE0
100
AcDbEntity
  8
寸法
 62
     0
 48
50.0
370
    -2
100
AcDbBlockReference
  2
_DOTSMALL
 10
7574.896575106999
 20
10151.9313586597
 30
0.0
 41
100.0
 42
100.0
 43
100.0
  0
INSERT
  5
18BE8
330
18BE0
100
AcDbEntity
  8
寸法
 62
     0
 48
50.0
370
    -2
100
AcDbBlockReference
  2
_DOTSMALL
 10
7629.896575106998
 20
10151.9313586597
 30
0.0
 41
100.0
 42
100.0
 43
100.0
 50
180.0
  0
MTEXT
  5
18BE9
330
18BE0
100
AcDbEntity
  8
寸法
 62
     7
 48
50.0
100
AcDbMText
 10
7938.381856481237
 20
10251.9313586597
 30
0.0
 40
120.0
 41
0.0
 71
     5
 72
     1
  1
\A1;55
  7
STYLE1
 73
     1
 44
1.0
1001
ACAD
1000
MTEXTBEGIN
1070
    73
1070
     1
1070
    44
1040
1.0
1070
    74
1070
     0
1000
MTEXTEND
  0
POINT
  5
18BEA
330
18BE0
100
AcDbEntity
  8
DEFPOINTS
 62
     0
 48
50.0
100
AcDbPoint
 10
7574.896575106999
 20
9636.123139034717
 30
0.0
  0
POINT
  5
18BEB
330
18BE0
100
AcDbEntity
  8
DEFPOINTS
 62
     0
 48
50.0
100
AcDbPoint
 10
7629.896575106998
 20
9636.123139034717
 30
0.0
  0
POINT
  5
18BEC
330
18BE0
100
AcDbEntity
  8
DEFPOINTS
 62
     0
 48
50.0
100
AcDbPoint
 10
7629.896575106998
 20
10151.9313586597
 30
0.0
  0
ENDBLK
  5
18BED
330
18BE0
100
AcDbEntity
  8
0
 48
50.0
100
AcDbBlockEnd
  0
BLOCK
  5
18BEF
330
18BEE
100
AcDbEntity
  8
0
 48
50.0
100
AcDbBlockBegin
  2
*D6
 70
     1
 10
0.0
 20
0.0
 30
0.0
  3
*D6
  1

  0
LINE
  5
18BF0
330
18BEE
100
AcDbEntity
  8
寸法
 62
     0
 48
50.0
370
    -2
100
AcDbLine
 10
7649.896575106999
 20
9636.123139034717
 30
0.0
 11
8337.32292084141
 21
9636.123139034717
 31
0.0
  0
LINE
  5
18BF1
330
18BEE
100
AcDbEntity
  8
寸法
 62
     0
 48
50.0
370
    -2
100
AcDbLine
 10
7649.896575106999
 20
9581.123139034721
 30
0.0
 11
8337.32292084141
 21
9581.123139034721
 31
0.0
  0
LINE
  5
18BF2
330
18BEE
100
AcDbEntity
  8
寸法
 62
     0
 48
50.0
370
    -2
100
AcDbLine
 10
8277.322920841411
 20
9581.123139034721
 30
0.0
 11
8277.322920841411
 21
9481.123139034719
 31
0.0
  0
LINE
  5
18BF3
330
18BEE
100
AcDbEntity
  8
寸法
 62
     0
 48
50.0
370
    -2
100
AcDbLine
 10
8277.322920841411
 20
9636.123139034717
 30
0.0
 11
8277.322920841411
 21
10053.09370178319
 31
0.0
  0
LINE
  5
18BF4
330
18BEE
100
AcDbEntity
  8
寸法
 62
     0
 48
50.0
370
    -2
100
AcDbLine
 10
8277.322920841411
 20
9581.123139034721
 30
0.0
 11
8277.322920841411
 21
9636.123139034717
 31
0.0
  0
INSERT
  5
18BF5
330
18BEE
100
AcDbEntity
  8
寸法
 62
     0
 48
50.0
370
    -2
100
AcDbBlockReference
  2
_DOTSMALL
 10
8277.322920841411
 20
9581.123139034721
 30
0.0
 41
100.0
 42
100.0
 43
100.0
 50
90.0
  0
INSERT
  5
18BF6
330
18BEE
100
AcDbEntity
  8
寸法
 62
     0
 48
50.0
370
    -2
100
AcDbBlockReference
  2
_DOTSMALL
 10
8277.322920841411
 20
9636.123139034717
 30
0.0
 41
100.0
 42
100.0
 43
100.0
 50
270.0
  0
MTEXT
  5
18BF7
330
18BEE
100
AcDbEntity
  8
寸法
 62
     7
 48
50.0
100
AcDbMText
 10
8177.32292084141
 20
9944.608420408957
 30
0.0
 40
120.0
 41
0.0
 71
     5
 72
     1
  1
\A1;55
  7
STYLE1
 11
0.0000000000000001
 21
1.0
 31
0.0
 73
     1
 44
1.0
1001
ACAD
1000
MTEXTBEGIN
1070
    73
1070
     1
1070
    44
1040
1.0
1070
    74
1070
     0
1000
MTEXTEND
  0
POINT
  5
18BF8
330
18BEE
100
AcDbEntity
  8
DEFPOINTS
 62
     0
 48
50.0
100
AcDbPoint
 10
7629.896575106998
 20
9636.123139034717
 30
0.0
  0
POINT
  5
18BF9
330
18BEE
100
AcDbEntity
  8
DEFPOINTS
 62
     0
 48
50.0
100
AcDbPoint
 10
7629.896575106998
 20
9581.123139034721
 30
0.0
  0
POINT
  5
18BFA
330
18BEE
100
AcDbEntity
  8
DEFPOINTS
 62
     0
 48
50.0
100
AcDbPoint
 10
8277.322920841411
 20
9581.123139034721
 30
0.0
  0
ENDBLK
  5
18BFB
330
18BEE
100
AcDbEntity
  8
0
 48
50.0
100
AcDbBlockEnd
  0
BLOCK
  5
18BFD
330
18BFC
100
AcDbEntity
  8
0
 48
50.0
100
AcDbBlockBegin
  2
*D7
 70
     1
 10
0.0
 20
0.0
 30
0.0
  3
*D7
  1

  0
LINE
  5
18BFE
330
18BFC
100
AcDbEntity
  8
寸法
 62
     0
 48
50.0
370
    -2
100
AcDbLine
 10
4159.896575106963
 20
9656.123139034622
 30
0.0
 11
4159.896575106963
 21
10211.9313586596
 31
0.0
  0
LINE
  5
18BFF
330
18BFC
100
AcDbEntity
  8
寸法
 62
     0
 48
50.0
370
    -2
100
AcDbLine
 10
4214.896575106998
 20
9656.123139034622
 30
0.0
 11
4214.896575106998
 21
10211.9313586596
 31
0.0
  0
LINE
  5
18C00
330
18BFC
100
AcDbEntity
  8
寸法
 62
     0
 48
50.0
370
    -2
100
AcDbLine
 10
4214.896575106998
 20
10151.9313586596
 30
0.0
 11
4314.896575106998
 21
10151.9313586596
 31
0.0
  0
LINE
  5
18C01
330
18BFC
100
AcDbEntity
  8
寸法
 62
     0
 48
50.0
370
    -2
100
AcDbLine
 10
4159.896575106963
 20
10151.9313586596
 30
0.0
 11
3742.926012358486
 21
10151.9313586596
 31
0.0
  0
LINE
  5
18C02
330
18BFC
100
AcDbEntity
  8
寸法
 62
     0
 48
50.0
370
    -2
100
AcDbLine
 10
4214.896575106998
 20
10151.9313586596
 30
0.0
 11
4159.896575106963
 21
10151.9313586596
 31
0.0
  0
INSERT
  5
18C03
330
18BFC
100
AcDbEntity
  8
寸法
 62
     0
 48
50.0
370
    -2
100
AcDbBlockReference
  2
_DOTSMALL
 10
4214.896575106998
 20
10151.9313586596
 30
0.0
 41
100.0
 42
100.0
 43
100.0
 50
180.0
  0
INSERT
  5
18C04
330
18BFC
100
AcDbEntity
  8
寸法
 62
     0
 48
50.0
370
    -2
100
AcDbBlockReference
  2
_DOTSMALL
 10
4159.896575106963
 20
10151.9313586596
 30
0.0
 41
100.0
 42
100.0
 43
100.0
  0
MTEXT
  5
18C05
330
18BFC
100
AcDbEntity
  8
寸法
 62
     7
 48
50.0
100
AcDbMText
 10
3851.411293732725
 20
10251.9313586596
 30
0.0
 40
120.0
 41
0.0
 71
     5
 72
     1
  1
\A1;55
  7
STYLE1
 73
     1
 44
1.0
1001
ACAD
1000
MTEXTBEGIN
1070
    73
1070
     1
1070
    44
1040
1.0
1070
    74
1070
     0
1000
MTEXTEND
  0
POINT
  5
18C06
330
18BFC
100
AcDbEntity
  8
DEFPOINTS
 62
     0
 48
50.0
100
AcDbPoint
 10
4159.896575106963
 20
9636.123139034623
 30
0.0
  0
POINT
  5
18C07
330
18BFC
100
AcDbEntity
  8
DEFPOINTS
 62
     0
 48
50.0
100
AcDbPoint
 10
4214.896575106998
 20
9636.123139034623
 30
0.0
  0
POINT
  5
18C08
330
18BFC
100
AcDbEntity
  8
DEFPOINTS
 62
     0
 48
50.0
100
AcDbPoint
 10
4214.896575106998
 20
10151.9313586596
 30
0.0
  0
ENDBLK
  5
18C09
330
18BFC
100
AcDbEntity
  8
0
 48
50.0
100
AcDbBlockEnd
  0
BLOCK
  5
18C0B
330
18C0A
100
AcDbEntity
  8
0
 48
50.0
100
AcDbBlockBegin
  2
*D8
 70
     1
 10
0.0
 20
0.0
 30
0.0
  3
*D8
  1

  0
LINE
  5
18C0C
330
18C0A
100
AcDbEntity
  8
寸法
 62
     0
 48
50.0
370
    -2
100
AcDbLine
 10
4159.896575106992
 20
7826.123139034546
 30
0.0
 11
4159.896575106992
 21
6804.372203245664
 31
0.0
  0
LINE
  5
18C0D
330
18C0A
100
AcDbEntity
  8
寸法
 62
     0
 48
50.0
370
    -2
100
AcDbLine
 10
7629.896575106974
 20
7826.123139034674
 30
0.0
 11
7629.896575106974
 21
6804.372203245664
 31
0.0
  0
LINE
  5
18C0E
330
18C0A
100
AcDbEntity
  8
寸法
 62
     0
 48
50.0
370
    -2
100
AcDbLine
 10
4159.896575106992
 20
6864.372203245665
 30
0.0
 11
7629.896575106974
 21
6864.372203245665
 31
0.0
  0
INSERT
  5
18C0F
330
18C0A
100
AcDbEntity
  8
寸法
 62
     0
 48
50.0
370
    -2
100
AcDbBlockReference
  2
_DOTSMALL
 10
4159.896575106992
 20
6864.372203245665
 30
0.0
 41
100.0
 42
100.0
 43
100.0
 50
180.0
  0
INSERT
  5
18C10
330
18C0A
100
AcDbEntity
  8
寸法
 62
     0
 48
50.0
370
    -2
100
AcDbBlockReference
  2
_DOTSMALL
 10
7629.896575106974
 20
6864.372203245665
 30
0.0
 41
100.0
 42
100.0
 43
100.0
  0
MTEXT
  5
18C11
330
18C0A
100
AcDbEntity
  8
寸法
 62
     7
 48
50.0
100
AcDbMText
 10
5911.12376113973
 20
6964.372203245665
 30
0.0
 40
120.0
 41
0.0
 71
     5
 72
     1
  1
\A1;3470
  7
STYLE1
 73
     1
 44
1.0
1001
ACAD
1000
MTEXTBEGIN
1070
    73
1070
     1
1070
    44
1040
1.0
1070
    74
1070
     0
1000
MTEXTEND
  0
POINT
  5
18C12
330
18C0A
100
AcDbEntity
  8
DEFPOINTS
 62
     0
 48
50.0
100
AcDbPoint
 10
4159.896575106992
 20
7846.123139034546
 30
0.0
  0
POINT
  5
18C13
330
18C0A
100
AcDbEntity
  8
DEFPOINTS
 62
     0
 48
50.0
100
AcDbPoint
 10
7629.896575106974
 20
7846.123139034673
 30
0.0
  0
POINT
  5
18C14
330
18C0A
100
AcDbEntity
  8
DEFPOINTS
 62
     0
 48
50.0
100
AcDbPoint
 10
7629.896575106974
 20
6864.372203245665
 30
0.0
  0
ENDBLK
  5
18C15
330
18C0A
100
AcDbEntity
  8
0
 48
50.0
100
AcDbBlockEnd
  0
BLOCK
  5
18C17
330
18C16
100
AcDbEntity
  8
0
 48
50.0
100
AcDbBlockBegin
  2
*D9
 70
     1
 10
0.0
 20
0.0
 30
0.0
  3
*D9
  1

  0
LINE
  5
18C18
330
18C16
100
AcDbEntity
  8
寸法
 62
     0
 48
50.0
370
    -2
100
AcDbLine
 10
7649.896575106973
 20
7901.123139034706
 30
0.0
 11
8337.322920841385
 21
7901.123139034706
 31
0.0
  0
LINE
  5
18C19
330
18C16
100
AcDbEntity
  8
寸法
 62
     0
 48
50.0
370
    -2
100
AcDbLine
 10
7649.896575106973
 20
7846.123139034709
 30
0.0
 11
8337.322920841385
 21
7846.123139034709
 31
0.0
  0
LINE
  5
18C1A
330
18C16
100
AcDbEntity
  8
寸法
 62
     0
 48
50.0
370
    -2
100
AcDbLine
 10
8277.322920841385
 20
7901.123139034706
 30
0.0
 11
8277.322920841385
 21
8001.123139034707
 31
0.0
  0
LINE
  5
18C1B
330
18C16
100
AcDbEntity
  8
寸法
 62
     0
 48
50.0
370
    -2
100
AcDbLine
 10
8277.322920841385
 20
7846.123139034709
 30
0.0
 11
8277.322920841385
 21
7429.152576286229
 31
0.0
  0
LINE
  5
18C1C
330
18C16
100
AcDbEntity
  8
寸法
 62
     0
 48
50.0
370
    -2
100
AcDbLine
 10
8277.322920841385
 20
7901.123139034706
 30
0.0
 11
8277.322920841385
 21
7846.123139034709
 31
0.0
  0
INSERT
  5
18C1D
330
18C16
100
AcDbEntity
  8
寸法
 62
     0
 48
50.0
370
    -2
100
AcDbBlockReference
  2
_DOTSMALL
 10
8277.322920841385
 20
7901.123139034706
 30
0.0
 41
100.0
 42
100.0
 43
100.0
 50
270.0
  0
INSERT
  5
18C1E
330
18C16
100
AcDbEntity
  8
寸法
 62
     0
 48
50.0
370
    -2
100
AcDbBlockReference
  2
_DOTSMALL
 10
8277.322920841385
 20
7846.123139034709
 30
0.0
 41
100.0
 42
100.0
 43
100.0
 50
90.0
  0
MTEXT
  5
18C1F
330
18C16
100
AcDbEntity
  8
寸法
 62
     7
 48
50.0
100
AcDbMText
 10
8177.322920841383
 20
7537.637857660469
 30
0.0
 40
120.0
 41
0.0
 71
     5
 72
     1
  1
\A1;55
  7
STYLE1
 11
0.0000000000000001
 21
1.0
 31
0.0
 73
     1
 44
1.0
1001
ACAD
1000
MTEXTBEGIN
1070
    73
1070
     1
1070
    44
1040
1.0
1070
    74
1070
     0
1000
MTEXTEND
  0
POINT
  5
18C20
330
18C16
100
AcDbEntity
  8
DEFPOINTS
 62
     0
 48
50.0
100
AcDbPoint
 10
7629.896575106974
 20
7901.123139034706
 30
0.0
  0
POINT
  5
18C21
330
18C16
100
AcDbEntity
  8
DEFPOINTS
 62
     0
 48
50.0
100
AcDbPoint
 10
7629.896575106974
 20
7846.123139034709
 30
0.0
  0
POINT
  5
18C22
330
18C16
100
AcDbEntity
  8
DEFPOINTS
 62
     0
 48
50.0
100
AcDbPoint
 10
8277.322920841385
 20
7846.123139034709
 30
0.0
  0
ENDBLK
  5
18C23
330
18C16
100
AcDbEntity
  8
0
 48
50.0
100
AcDbBlockEnd
  0
BLOCK
  5
18C25
330
18C24
100
AcDbEntity
  8
0
 48
50.0
100
AcDbBlockBegin
  2
*D10
 70
     1
 10
0.0
 20
0.0
 30
0.0
  3
*D10
  1

  0
LINE
  5
18C26
330
18C24
100
AcDbEntity
  8
寸法
 62
     0
 48
50.0
370
    -2
100
AcDbLine
 10
6533.037591258376
 20
9136.123139034728
 30
0.0
 11
6465.083950562664
 21
8882.516699399049
 31
0.0
  0
LINE
  5
18C27
330
18C24
100
AcDbEntity
  8
寸法
 62
     0
 48
50.0
370
    -2
100
AcDbLine
 10
7596.037591258388
 20
9136.123139034721
 30
0.0
 11
7528.083950562677
 21
8882.516699399049
 31
0.0
  0
LINE
  5
18C28
330
18C24
100
AcDbEntity
  8
寸法
 62
     0
 48
50.0
370
    -2
100
AcDbLine
 10
6481.160902108531
 20
8942.51669939905
 30
0.0
 11
7544.160902108544
 21
8942.51669939905
 31
0.0
  0
INSERT
  5
18C29
330
18C24
100
AcDbEntity
  8
寸法
 62
     0
 48
50.0
370
    -2
100
AcDbBlockReference
  2
_DOTSMALL
 10
6481.160902108531
 20
8942.51669939905
 30
0.0
 41
100.0
 42
100.0
 43
100.0
 50
180.0
  0
INSERT
  5
18C2A
330
18C24
100
AcDbEntity
  8
寸法
 62
     0
 48
50.0
370
    -2
100
AcDbBlockReference
  2
_DOTSMALL
 10
7544.160902108544
 20
8942.51669939905
 30
0.0
 41
100.0
 42
100.0
 43
100.0
  0
MTEXT
  5
18C2B
330
18C24
100
AcDbEntity
  8
寸法
 62
     7
 48
50.0
100
AcDbMText
 10
7061.28653022935
 20
9042.516699399049
 30
0.0
 40
120.0
 41
0.0
 71
     5
 72
     1
  1
\A1;1063
  7
STYLE1
 73
     1
 44
1.0
1001
ACAD
1000
MTEXTBEGIN
1070
    73
1070
     1
1070
    44
1040
1.0
1070
    74
1070
     0
1000
MTEXTEND
  0
POINT
  5
18C2C
330
18C24
100
AcDbEntity
  8
DEFPOINTS
 62
     0
 48
50.0
100
AcDbPoint
 10
6538.396575106998
 20
9156.123139034727
 30
0.0
  0
POINT
  5
18C2D
330
18C24
100
AcDbEntity
  8
DEFPOINTS
 62
     0
 48
50.0
100
AcDbPoint
 10
7601.39657510701
 20
9156.12313903472
 30
0.0
  0
POINT
  5
18C2E
330
18C24
100
AcDbEntity
  8
DEFPOINTS
 62
     0
 48
50.0
100
AcDbPoint
 10
7544.160902108544
 20
8942.51669939905
 30
0.0
  0
ENDBLK
  5
18C2F
330
18C24
100
AcDbEntity
  8
0
 48
50.0
100
AcDbBlockEnd
  0
BLOCK
  5
18C31
330
18C30
100
AcDbEntity
  8
0
 48
50.0
100
AcDbBlockBegin
  2
*D11
 70
     1
 10
0.0
 20
0.0
 30
0.0
  3
*D11
  1

  0
LINE
  5
18C32
330
18C30
100
AcDbEntity
  8
寸法
 62
     0
 48
50.0
370
    -2
100
AcDbLine
 10
7621.396575106999
 20
9600.764155186094
 30
0.0
 11
8016.754300969024
 21
9494.828371819961
 31
0.0
  0
LINE
  5
18C33
330
18C30
100
AcDbEntity
  8
寸法
 62
     0
 48
50.0
370
    -2
100
AcDbLine
 10
7621.396575106999
 20
9150.764155186099
 30
0.0
 11
8016.754300969024
 21
9044.828371819964
 31
0.0
  0
LINE
  5
18C34
330
18C30
100
AcDbEntity
  8
寸法
 62
     0
 48
50.0
370
    -2
100
AcDbLine
 10
7956.754300969024
 20
9510.905323365827
 30
0.0
 11
7956.754300969024
 21
9060.90532336583
 31
0.0
  0
INSERT
  5
18C35
330
18C30
100
AcDbEntity
  8
寸法
 62
     0
 48
50.0
370
    -2
100
AcDbBlockReference
  2
_DOTSMALL
 10
7956.754300969024
 20
9510.905323365827
 30
0.0
 41
100.0
 42
100.0
 43
100.0
 50
90.0
  0
INSERT
  5
18C36
330
18C30
100
AcDbEntity
  8
寸法
 62
     0
 48
50.0
370
    -2
100
AcDbBlockReference
  2
_DOTSMALL
 10
7956.754300969024
 20
9060.90532336583
 30
0.0
 41
100.0
 42
100.0
 43
100.0
 50
270.0
  0
MTEXT
  5
18C37
330
18C30
100
AcDbEntity
  8
寸法
 62
     7
 48
50.0
100
AcDbMText
 10
7856.754300969022
 20
9285.905323365829
 30
0.0
 40
120.0
 41
0.0
 71
     5
 72
     1
  1
\A1;450
  7
STYLE1
 11
0.0000000000000001
 21
1.0
 31
0.0
 73
     1
 44
1.0
1001
ACAD
1000
MTEXTBEGIN
1070
    73
1070
     1
1070
    44
1040
1.0
1070
    74
1070
     0
1000
MTEXTEND
  0
POINT
  5
18C38
330
18C30
100
AcDbEntity
  8
DEFPOINTS
 62
     0
 48
50.0
100
AcDbPoint
 10
7601.396575106999
 20
9606.123139034718
 30
0.0
  0
POINT
  5
18C39
330
18C30
100
AcDbEntity
  8
DEFPOINTS
 62
     0
 48
50.0
100
AcDbPoint
 10
7601.396575106999
 20
9156.12313903472
 30
0.0
  0
POINT
  5
18C3A
330
18C30
100
AcDbEntity
  8
DEFPOINTS
 62
     0
 48
50.0
100
AcDbPoint
 10
7956.754300969024
 20
9060.90532336583
 30
0.0
  0
ENDBLK
  5
18C3B
330
18C30
100
AcDbEntity
  8
0
 48
50.0
100
AcDbBlockEnd
  0
BLOCK
  5
18C3D
330
18C3C
100
AcDbEntity
  8
0
 48
50.0
100
AcDbBlockBegin
  2
*D12
 70
     1
 10
0.0
 20
0.0
 30
0.0
  3
*D12
  1

  0
LINE
  5
18C3E
330
18C3C
100
AcDbEntity
  8
寸法
 62
     0
 48
50.0
370
    -2
100
AcDbLine
 10
7649.896575106999
 20
9581.123139034721
 30
0.0
 11
8337.32292084141
 21
9581.123139034721
 31
0.0
  0
LINE
  5
18C3F
330
18C3C
100
AcDbEntity
  8
寸法
 62
     0
 48
50.0
370
    -2
100
AcDbLine
 10
7649.896575106973
 20
7901.123139034706
 30
0.0
 11
8337.32292084141
 21
7901.123139034706
 31
0.0
  0
LINE
  5
18C40
330
18C3C
100
AcDbEntity
  8
寸法
 62
     0
 48
50.0
370
    -2
100
AcDbLine
 10
8277.322920841411
 20
9581.123139034721
 30
0.0
 11
8277.322920841411
 21
7901.123139034706
 31
0.0
  0
INSERT
  5
18C41
330
18C3C
100
AcDbEntity
  8
寸法
 62
     0
 48
50.0
370
    -2
100
AcDbBlockReference
  2
_DOTSMALL
 10
8277.322920841411
 20
9581.123139034721
 30
0.0
 41
100.0
 42
100.0
 43
100.0
 50
90.0
  0
INSERT
  5
18C42
330
18C3C
100
AcDbEntity
  8
寸法
 62
     0
 48
50.0
370
    -2
100
AcDbBlockReference
  2
_DOTSMALL
 10
8277.322920841411
 20
7901.123139034706
 30
0.0
 41
100.0
 42
100.0
 43
100.0
 50
270.0
  0
MTEXT
  5
18C43
330
18C3C
100
AcDbEntity
  8
寸法
 62
     7
 48
50.0
100
AcDbMText
 10
8177.311109817788
 20
8741.123139034712
 30
0.0
 40
120.0
 41
0.0
 71
     5
 72
     1
  1
\A1;4X420=1680
  7
STYLE1
 11
0.0000000000000001
 21
1.0
 31
0.0
 73
     1
 44
1.0
1001
ACAD
1000
MTEXTBEGIN
1070
    73
1070
     1
1070
    44
1040
1.0
1070
    74
1070
     0
1000
MTEXTEND
  0
POINT
  5
18C44
330
18C3C
100
AcDbEntity
  8
DEFPOINTS
 62
     0
 48
50.0
100
AcDbPoint
 10
7629.896575106998
 20
9581.123139034721
 30
0.0
  0
POINT
  5
18C45
330
18C3C
100
AcDbEntity
  8
DEFPOINTS
 62
     0
 48
50.0
100
AcDbPoint
 10
7629.896575106974
 20
7901.123139034706
 30
0.0
  0
POINT
  5
18C46
330
18C3C
100
AcDbEntity
  8
DEFPOINTS
 62
     0
 48
50.0
100
AcDbPoint
 10
8277.322920841411
 20
7901.123139034706
 30
0.0
  0
ENDBLK
  5
18C47
330
18C3C
100
AcDbEntity
  8
0
 48
50.0
100
AcDbBlockEnd
  0
BLOCK
  5
18C49
330
18C48
100
AcDbEntity
  8
0
 48
50.0
100
AcDbBlockBegin
  2
*D13
 70
     1
 10
0.0
 20
0.0
 30
0.0
  3
*D13
  1

  0
LINE
  5
18C4A
330
18C48
100
AcDbEntity
  8
寸法
 62
     0
 48
50.0
370
    -2
100
AcDbLine
 10
4183.037591258377
 20
9136.123139034619
 30
0.0
 11
4115.083950562663
 21
8882.516699398941
 31
0.0
  0
LINE
  5
18C4B
330
18C48
100
AcDbEntity
  8
寸法
 62
     0
 48
50.0
370
    -2
100
AcDbLine
 10
5246.037591258307
 20
9136.123139034671
 30
0.0
 11
5178.08395056258
 21
8882.516699398941
 31
0.0
  0
LINE
  5
18C4C
330
18C48
100
AcDbEntity
  8
寸法
 62
     0
 48
50.0
370
    -2
100
AcDbLine
 10
4131.160902108532
 20
8942.516699398941
 30
0.0
 11
5194.160902108448
 21
8942.516699398941
 31
0.0
  0
INSERT
  5
18C4D
330
18C48
100
AcDbEntity
  8
寸法
 62
     0
 48
50.0
370
    -2
100
AcDbBlockReference
  2
_DOTSMALL
 10
4131.160902108532
 20
8942.516699398941
 30
0.0
 41
100.0
 42
100.0
 43
100.0
 50
180.0
  0
INSERT
  5
18C4E
330
18C48
100
AcDbEntity
  8
寸法
 62
     0
 48
50.0
370
    -2
100
AcDbBlockReference
  2
_DOTSMALL
 10
5194.160902108448
 20
8942.516699398941
 30
0.0
 41
100.0
 42
100.0
 43
100.0
  0
MTEXT
  5
18C4F
330
18C48
100
AcDbEntity
  8
寸法
 62
     7
 48
50.0
100
AcDbMText
 10
4658.986452655306
 20
9042.516699398941
 30
0.0
 40
120.0
 41
0.0
 71
     5
 72
     1
  1
\A1;1063
  7
STYLE1
 73
     1
 44
1.0
1001
ACAD
1000
MTEXTBEGIN
1070
    73
1070
     1
1070
    44
1040
1.0
1070
    74
1070
     0
1000
MTEXTEND
  0
POINT
  5
18C50
330
18C48
100
AcDbEntity
  8
DEFPOINTS
 62
     0
 48
50.0
100
AcDbPoint
 10
4188.396575106999
 20
9156.123139034617
 30
0.0
  0
POINT
  5
18C51
330
18C48
100
AcDbEntity
  8
DEFPOINTS
 62
     0
 48
50.0
100
AcDbPoint
 10
5251.396575106929
 20
9156.123139034672
 30
0.0
  0
POINT
  5
18C52
330
18C48
100
AcDbEntity
  8
DEFPOINTS
 62
     0
 48
50.0
100
AcDbPoint
 10
5194.160902108448
 20
8942.516699398941
 30
0.0
  0
ENDBLK
  5
18C53
330
18C48
100
AcDbEntity
  8
0
 48
50.0
100
AcDbBlockEnd
  0
BLOCK
  5
18C55
330
18C54
100
AcDbEntity
  8
0
 48
50.0
100
AcDbBlockBegin
  2
*D14
 70
     1
 10
0.0
 20
0.0
 30
0.0
  3
*D14
  1

  0
LINE
  5
18C56
330
18C54
100
AcDbEntity
  8
寸法
 62
     0
 48
50.0
370
    -2
100
AcDbLine
 10
5274.037591258307
 20
9136.123139034669
 30
0.0
 11
5206.08395056258
 21
8882.516699398941
 31
0.0
  0
LINE
  5
18C57
330
18C54
100
AcDbEntity
  8
寸法
 62
     0
 48
50.0
370
    -2
100
AcDbLine
 10
6505.037591258377
 20
9136.123139034662
 30
0.0
 11
6437.083950562653
 21
8882.516699398941
 31
0.0
  0
LINE
  5
18C58
330
18C54
100
AcDbEntity
  8
寸法
 62
     0
 48
50.0
370
    -2
100
AcDbLine
 10
5222.160902108448
 20
8942.516699398941
 30
0.0
 11
6453.16090210852
 21
8942.516699398941
 31
0.0
  0
INSERT
  5
18C59
330
18C54
100
AcDbEntity
  8
寸法
 62
     0
 48
50.0
370
    -2
100
AcDbBlockReference
  2
_DOTSMALL
 10
5222.160902108448
 20
8942.516699398941
 30
0.0
 41
100.0
 42
100.0
 43
100.0
 50
180.0
  0
INSERT
  5
18C5A
330
18C54
100
AcDbEntity
  8
寸法
 62
     0
 48
50.0
370
    -2
100
AcDbBlockReference
  2
_DOTSMALL
 10
6453.16090210852
 20
8942.516699398941
 30
0.0
 41
100.0
 42
100.0
 43
100.0
  0
MTEXT
  5
18C5B
330
18C54
100
AcDbEntity
  8
寸法
 62
     7
 48
50.0
100
AcDbMText
 10
6081.244808320626
 20
9042.528510422561
 30
0.0
 40
120.0
 41
0.0
 71
     5
 72
     1
  1
\A1;1231
  7
STYLE1
 73
     1
 44
1.0
1001
ACAD
1000
MTEXTBEGIN
1070
    73
1070
     1
1070
    44
1040
1.0
1070
    74
1070
     0
1000
MTEXTEND
  0
POINT
  5
18C5C
330
18C54
100
AcDbEntity
  8
DEFPOINTS
 62
     0
 48
50.0
100
AcDbPoint
 10
5279.396575106929
 20
9156.123139034669
 30
0.0
  0
POINT
  5
18C5D
330
18C54
100
AcDbEntity
  8
DEFPOINTS
 62
     0
 48
50.0
100
AcDbPoint
 10
6510.396575106999
 20
9156.123139034662
 30
0.0
  0
POINT
  5
18C5E
330
18C54
100
AcDbEntity
  8
DEFPOINTS
 62
     0
 48
50.0
100
AcDbPoint
 10
6453.16090210852
 20
8942.516699398941
 30
0.0
  0
ENDBLK
  5
18C5F
330
18C54
100
AcDbEntity
  8
0
 48
50.0
100
AcDbBlockEnd
  0
BLOCK
  5
18C61
330
18C60
100
AcDbEntity
  8
0
 48
50.0
100
AcDbBlockBegin
  2
*D15
 70
     1
 10
0.0
 20
0.0
 30
0.0
  3
*D15
  1

  0
LINE
  5
18C62
330
18C60
100
AcDbEntity
  8
寸法
 62
     0
 48
50.0
370
    -2
100
AcDbLine
 10
5065.896575106966
 20
7749.123139034579
 30
0.0
 11
5065.896575106966
 21
7099.952920982538
 31
0.0
  0
LINE
  5
18C63
330
18C60
100
AcDbEntity
  8
寸法
 62
     0
 48
50.0
370
    -2
100
AcDbLine
 10
6331.896575106966
 20
7749.123139034579
 30
0.0
 11
6331.896575106966
 21
7099.952920982538
 31
0.0
  0
LINE
  5
18C64
330
18C60
100
AcDbEntity
  8
寸法
 62
     0
 48
50.0
370
    -2
100
AcDbLine
 10
5065.896575106966
 20
7159.952920982537
 30
0.0
 11
6331.896575106966
 21
7159.952920982537
 31
0.0
  0
INSERT
  5
18C65
330
18C60
100
AcDbEntity
  8
寸法
 62
     0
 48
50.0
370
    -2
100
AcDbBlockReference
  2
_DOTSMALL
 10
5065.896575106966
 20
7159.952920982537
 30
0.0
 41
100.0
 42
100.0
 43
100.0
 50
180.0
  0
INSERT
  5
18C66
330
18C60
100
AcDbEntity
  8
寸法
 62
     0
 48
50.0
370
    -2
100
AcDbBlockReference
  2
_DOTSMALL
 10
6331.896575106966
 20
7159.952920982537
 30
0.0
 41
100.0
 42
100.0
 43
100.0
  0
MTEXT
  5
18C67
330
18C60
100
AcDbEntity
  8
寸法
 62
     7
 48
50.0
100
AcDbMText
 10
5711.986008735934
 20
7359.964732006159
 30
0.0
 40
120.0
 41
0.0
 71
     5
 72
     1
  1
\A1;有効開口部間口\P1266
  7
STYLE1
 73
     1
 44
1.0
1001
ACAD
1000
MTEXTBEGIN
1070
    73
1070
     1
1070
    44
1040
1.0
1070
    74
1070
     0
1000
MTEXTEND
  0
POINT
  5
18C68
330
18C60
100
AcDbEntity
  8
DEFPOINTS
 62
     0
 48
50.0
100
AcDbPoint
 10
5065.896575106966
 20
7769.123139034579
 30
0.0
  0
POINT
  5
18C69
330
18C60
100
AcDbEntity
  8
DEFPOINTS
 62
     0
 48
50.0
100
AcDbPoint
 10
6331.896575106966
 20
7769.123139034579
 30
0.0
  0
POINT
  5
18C6A
330
18C60
100
AcDbEntity
  8
DEFPOINTS
 62
     0
 48
50.0
100
AcDbPoint
 10
6331.896575106966
 20
7159.952920982537
 30
0.0
  0
ENDBLK
  5
18C6B
330
18C60
100
AcDbEntity
  8
0
 48
50.0
100
AcDbBlockEnd
  0
BLOCK
  5
18C6D
330
18C6C
100
AcDbEntity
  8
0
 48
50.0
100
AcDbBlockBegin
  2
*D16
 70
     1
 10
0.0
 20
0.0
 30
0.0
  3
*D16
  1

  0
LINE
  5
18C6E
330
18C6C
100
AcDbEntity
  8
寸法
 62
     0
 48
50.0
370
    -2
100
AcDbLine
 10
7200.896575106966
 20
7846.123139034578
 30
0.0
 11
7457.192158500191
 21
7846.123139034578
 31
0.0
  0
LINE
  5
18C6F
330
18C6C
100
AcDbEntity
  8
寸法
 62
     0
 48
50.0
370
    -2
100
AcDbLine
 10
7199.896575106966
 20
7769.123139034579
 30
0.0
 11
7457.192158500191
 21
7769.123139034579
 31
0.0
  0
LINE
  5
18C70
330
18C6C
100
AcDbEntity
  8
寸法
 62
     0
 48
50.0
370
    -2
100
AcDbLine
 10
7417.192158500192
 20
7866.123139034579
 30
0.0
 11
7417.192158500192
 21
7886.123139034578
 31
0.0
  0
LINE
  5
18C71
330
18C6C
100
AcDbEntity
  8
寸法
 62
     0
 48
50.0
370
    -2
100
AcDbLine
 10
7417.192158500192
 20
7749.123139034579
 30
0.0
 11
7417.192158500192
 21
7533.123139034573
 31
0.0
  0
LINE
  5
18C72
330
18C6C
100
AcDbEntity
  8
寸法
 62
     0
 48
50.0
370
    -2
100
AcDbLine
 10
7417.192158500192
 20
7846.123139034578
 30
0.0
 11
7417.192158500192
 21
7769.123139034579
 31
0.0
  0
INSERT
  5
18C73
330
18C6C
100
AcDbEntity
  8
寸法
 62
     0
 48
50.0
370
    -2
100
AcDbBlockReference
  2
_DOT
 10
7417.192158500192
 20
7846.123139034578
 30
0.0
 41
20.0
 42
20.0
 43
20.0
 50
270.0
  0
INSERT
  5
18C74
330
18C6C
100
AcDbEntity
  8
寸法
 62
     0
 48
50.0
370
    -2
100
AcDbBlockReference
  2
_DOT
 10
7417.192158500192
 20
7769.123139034579
 30
0.0
 41
20.0
 42
20.0
 43
20.0
 50
90.0
  0
MTEXT
  5
18C75
330
18C6C
100
AcDbEntity
  8
寸法
 62
     7
 48
50.0
100
AcDbMText
 10
7325.192158500191
 20
7631.123139034575
 30
0.0
 40
120.0
 41
0.0
 71
     5
 72
     1
  1
\A1;77
  7
STYLE1
 11
0.0000000000000001
 21
1.0
 31
0.0
 73
     1
 44
1.0
1001
ACAD
1000
MTEXTBEGIN
1070
    73
1070
     1
1070
    44
1040
1.0
1070
    74
1070
     0
1000
MTEXTEND
  0
POINT
  5
18C76
330
18C6C
100
AcDbEntity
  8
DEFPOINTS
 62
     0
 48
50.0
100
AcDbPoint
 10
7180.896575106967
 20
7846.123139034578
 30
0.0
  0
POINT
  5
18C77
330
18C6C
100
AcDbEntity
  8
DEFPOINTS
 62
     0
 48
50.0
100
AcDbPoint
 10
7179.896575106965
 20
7769.123139034579
 30
0.0
  0
POINT
  5
18C78
330
18C6C
100
AcDbEntity
  8
DEFPOINTS
 62
     0
 48
50.0
100
AcDbPoint
 10
7417.192158500192
 20
7769.123139034579
 30
0.0
  0
ENDBLK
  5
18C79
330
18C6C
100
AcDbEntity
  8
0
 48
50.0
100
AcDbBlockEnd
  0
BLOCK
  5
18DA0
330
18C7A
100
AcDbEntity
  8
0
 48
50.0
100
AcDbBlockBegin
  2
A$C3B1A506B
 70
     0
 10
0.0
 20
0.0
 30
0.0
  3
A$C3B1A506B
  1

  0
MTEXT
  5
18C7B
330
18C7A
100
AcDbEntity
  8
寸法
 62
     7
 48
50.0
100
AcDbMText
 10
3342.250386887194
 20
2778.329429134012
 30
0.0
 40
96.0
 41
0.0
 71
     5
 72
     1
  1
棚 2段
  7
STYLE1
 73
     1
 44
1.0
1001
ACAD
1000
MTEXTBEGIN
1070
    73
1070
     1
1070
    44
1040
1.0
1070
    74
1070
     0
1000
MTEXTEND
  0
MTEXT
  5
18C7C
330
18C7A
100
AcDbEntity
  8
寸法
 62
     7
 48
50.0
100
AcDbMText
 10
2167.25038688716
 20
2778.329429133986
 30
0.0
 40
96.0
 41
0.0
 71
     5
 72
     1
  1
棚 2段
  7
STYLE1
 73
     1
 44
1.0
1001
ACAD
1000
MTEXTBEGIN
1070
    73
1070
     1
1070
    44
1040
1.0
1070
    74
1070
     0
1000
MTEXTEND
  0
MTEXT
  5
18C7D
330
18C7A
100
AcDbEntity
  8
寸法
 62
     7
 48
50.0
100
AcDbMText
 10
992.2503868871608
 20
2778.329429133935
 30
0.0
 40
96.0
 41
0.0
 71
     5
 72
     1
  1
棚 2段
  7
STYLE1
 73
     1
 44
1.0
1001
ACAD
1000
MTEXTBEGIN
1070
    73
1070
     1
1070
    44
1040
1.0
1070
    74
1070
     0
1000
MTEXTEND
  0
LINE
  5
18C7E
330
18C7A
100
AcDbEntity
  8
細線
 48
50.0
100
AcDbLine
 10
2771.970589276527
 20
1368.994384123192
 30
0.0
 11
3398.970589276523
 21
1368.994384123192
 31
0.0
  0
LINE
  5
18C7F
330
18C7A
100
AcDbEntity
  8
細線
 48
50.0
100
AcDbLine
 10
2117.970593930113
 20
1335.285615569113
 30
0.0
 11
3398.970589276523
 21
1335.285615569113
 31
0.0
  0
LINE
  5
18C80
330
18C7A
100
AcDbEntity
  8
細線
 48
50.0
100
AcDbLine
 10
2076.970593930115
 20
1364.690523565368
 30
0.0
 11
1322.970589276523
 21
1364.690523565367
 31
0.0
  0
LINE
  5
18C81
330
18C7A
100
AcDbEntity
  8
細線
100
AcDbLine
 10
3170.720579860066
 20
1388.494284088199
 30
0.0
 11
3173.052119381877
 21
1393.494286728162
 31
0.0
  0
LINE
  5
18C82
330
18C7A
100
AcDbEntity
  8
細線
100
AcDbLine
 10
3240.720589276525
 20
1388.494269174465
 30
0.0
 11
3238.389042800336
 21
1393.494286728144
 31
0.0
  0
LINE
  5
18C83
330
18C7A
100
AcDbEntity
  8
細線
100
AcDbLine
 10
3238.389042800336
 20
1393.494286728144
 30
0.0
 11
3173.052119381862
 21
1393.494286728133
 31
0.0
  0
LINE
  5
18C84
330
18C7A
100
AcDbEntity
  8
細線
100
AcDbLine
 10
3098.389042800336
 20
1393.494286728144
 30
0.0
 11
3033.052119381862
 21
1393.494286728133
 31
0.0
  0
LINE
  5
18C85
330
18C7A
100
AcDbEntity
  8
細線
100
AcDbLine
 10
3100.720589276523
 20
1388.494269174465
 30
0.0
 11
3098.389042800336
 21
1393.494286728144
 31
0.0
  0
LINE
  5
18C86
330
18C7A
100
AcDbEntity
  8
細線
100
AcDbLine
 10
3030.720579860066
 20
1388.494284088199
 30
0.0
 11
3033.052119381875
 21
1393.494286728162
 31
0.0
  0
LINE
  5
18C87
330
18C7A
100
AcDbEntity
  8
細線
100
AcDbLine
 10
2890.720589276525
 20
1388.494269174465
 30
0.0
 11
2893.052128798336
 21
1393.494271814428
 31
0.0
  0
LINE
  5
18C88
330
18C7A
100
AcDbEntity
  8
細線
100
AcDbLine
 10
2960.720598692984
 20
1388.494254260731
 30
0.0
 11
2958.389052216793
 21
1393.49427181441
 31
0.0
  0
LINE
  5
18C89
330
18C7A
100
AcDbEntity
  8
細線
100
AcDbLine
 10
2958.389052216795
 20
1393.49427181441
 30
0.0
 11
2893.052128798321
 21
1393.494271814399
 31
0.0
  0
LINE
  5
18C8A
330
18C7A
100
AcDbEntity
  8
細線
100
AcDbLine
 10
2667.139038146739
 20
1359.494298590735
 30
0.0
 11
2601.802114728263
 21
1359.494298590724
 31
0.0
  0
LINE
  5
18C8B
330
18C7A
100
AcDbEntity
  8
細線
100
AcDbLine
 10
2669.470584622926
 20
1354.494281037055
 30
0.0
 11
2667.139038146737
 21
1359.494298590735
 31
0.0
  0
LINE
  5
18C8C
330
18C7A
100
AcDbEntity
  8
細線
100
AcDbLine
 10
2599.470575206469
 20
1354.49429595079
 30
0.0
 11
2601.802114728278
 21
1359.494298590752
 31
0.0
  0
LINE
  5
18C8D
330
18C7A
100
AcDbEntity
  8
細線
 48
50.0
100
AcDbLine
 10
2440.853968524536
 20
1372.765132327548
 30
0.0
 11
2446.609486107205
 21
1354.494281037057
 31
0.0
  0
LINE
  5
18C8E
330
18C7A
100
AcDbEntity
  8
細線
 48
50.0
100
AcDbLine
 10
2429.925520044106
 20
1372.765132327546
 30
0.0
 11
2440.853968524536
 21
1372.765132327548
 31
0.0
  0
ARC
  5
18C8F
330
18C7A
100
AcDbEntity
  8
細線
 48
50.0
100
AcDbCircle
 10
2424.471163986787
 20
1374.265132327546
 30
0.0
 40
5.0
100
AcDbArc
 50
204.6243183520723
 51
335.3756816479278
  0
ARC
  5
18C90
330
18C7A
100
AcDbEntity
  8
細線
 48
50.0
100
AcDbCircle
 10
2429.925520044106
 20
1371.765132327546
 30
0.0
 40
1.0
100
AcDbArc
 50
90.0
 51
155.3756816479277
  0
ARC
  5
18C91
330
18C7A
100
AcDbEntity
  8
細線
 48
50.0
100
AcDbCircle
 10
2419.016807929469
 20
1371.765132327546
 30
0.0
 40
1.0
100
AcDbArc
 50
24.62431835207225
 51
90.0
  0
LINE
  5
18C92
330
18C7A
100
AcDbEntity
  8
細線
 48
50.0
100
AcDbLine
 10
2408.088359449037
 20
1372.765132327548
 30
0.0
 11
2419.016807929469
 21
1372.765132327546
 31
0.0
  0
LINE
  5
18C93
330
18C7A
100
AcDbEntity
  8
細線
 48
50.0
100
AcDbLine
 10
2402.33284186637
 20
1354.494281037054
 30
0.0
 11
2408.088359449037
 21
1372.765132327548
 31
0.0
  0
LINE
  5
18C94
330
18C7A
100
AcDbEntity
  8
細線
100
AcDbLine
 10
2458.070304175992
 20
1354.494278397076
 30
0.0
 11
2460.401843697802
 21
1359.494281037039
 31
0.0
  0
LINE
  5
18C95
330
18C7A
100
AcDbEntity
  8
細線
100
AcDbLine
 10
2528.070313592451
 20
1354.494263483342
 30
0.0
 11
2525.738767116262
 21
1359.494281037021
 31
0.0
  0
LINE
  5
18C96
330
18C7A
100
AcDbEntity
  8
細線
100
AcDbLine
 10
2525.738767116262
 20
1359.494281037021
 30
0.0
 11
2460.40184369779
 21
1359.49428103701
 31
0.0
  0
LINE
  5
18C97
330
18C7A
100
AcDbEntity
  8
細線
100
AcDbLine
 10
2387.139046332155
 20
1359.494281037021
 30
0.0
 11
2321.80212291368
 21
1359.49428103701
 31
0.0
  0
LINE
  5
18C98
330
18C7A
100
AcDbEntity
  8
細線
100
AcDbLine
 10
2389.470592808342
 20
1354.494263483342
 30
0.0
 11
2387.139046332153
 21
1359.494281037021
 31
0.0
  0
LINE
  5
18C99
330
18C7A
100
AcDbEntity
  8
細線
100
AcDbLine
 10
2319.470584622926
 20
1354.494281037054
 30
0.0
 11
2321.802122913694
 21
1359.494281037039
 31
0.0
  0
LINE
  5
18C9A
330
18C7A
100
AcDbEntity
  8
細線
100
AcDbLine
 10
2179.47061994182
 20
1354.494289224422
 30
0.0
 11
2181.802158232587
 21
1359.494289224407
 31
0.0
  0
LINE
  5
18C9B
330
18C7A
100
AcDbEntity
  8
細線
100
AcDbLine
 10
2249.470628127236
 20
1354.49427167071
 30
0.0
 11
2247.139081651047
 21
1359.494289224389
 31
0.0
  0
LINE
  5
18C9C
330
18C7A
100
AcDbEntity
  8
細線
100
AcDbLine
 10
2247.139081651047
 20
1359.494289224389
 30
0.0
 11
2181.802158232573
 21
1359.494289224378
 31
0.0
  0
LINE
  5
18C9D
330
18C7A
100
AcDbEntity
  8
細線
100
AcDbLine
 10
1807.970585744697
 20
1320.494460905133
 30
0.0
 11
1810.302124035464
 21
1325.494460905118
 31
0.0
  0
LINE
  5
18C9E
330
18C7A
100
AcDbEntity
  8
細線
100
AcDbLine
 10
1877.970593930113
 20
1320.494443351421
 30
0.0
 11
1875.639047453926
 21
1325.4944609051
 31
0.0
  0
LINE
  5
18C9F
330
18C7A
100
AcDbEntity
  8
細線
100
AcDbLine
 10
1875.639047453926
 20
1325.4944609051
 30
0.0
 11
1810.302124035452
 21
1325.494460905089
 31
0.0
  0
LINE
  5
18CA0
330
18C7A
100
AcDbEntity
  8
細線
100
AcDbLine
 10
2015.639047453926
 20
1325.4944609051
 30
0.0
 11
1950.302124035452
 21
1325.494460905089
 31
0.0
  0
LINE
  5
18CA1
330
18C7A
100
AcDbEntity
  8
細線
100
AcDbLine
 10
2017.970593930113
 20
1320.494443351421
 30
0.0
 11
2015.639047453924
 21
1325.4944609051
 31
0.0
  0
LINE
  5
18CA2
330
18C7A
100
AcDbEntity
  8
細線
100
AcDbLine
 10
1947.970585744697
 20
1320.494460905133
 30
0.0
 11
1950.302124035465
 21
1325.494460905118
 31
0.0
  0
LINE
  5
18CA3
330
18C7A
100
AcDbEntity
  8
細線
100
AcDbLine
 10
1735.639047453926
 20
1325.494460905098
 30
0.0
 11
1670.302124035454
 21
1325.494460905087
 31
0.0
  0
LINE
  5
18CA4
330
18C7A
100
AcDbEntity
  8
細線
100
AcDbLine
 10
1737.970593930113
 20
1320.494443351419
 30
0.0
 11
1735.639047453926
 21
1325.494460905098
 31
0.0
  0
LINE
  5
18CA5
330
18C7A
100
AcDbEntity
  8
細線
100
AcDbLine
 10
1667.970585744697
 20
1320.494460905131
 30
0.0
 11
1670.302124035465
 21
1325.494460905116
 31
0.0
  0
LINE
  5
18CA6
330
18C7A
100
AcDbEntity
  8
細線
100
AcDbLine
 10
1527.970593930113
 20
1320.494460905133
 30
0.0
 11
1530.302132220881
 21
1325.494460905118
 31
0.0
  0
LINE
  5
18CA7
330
18C7A
100
AcDbEntity
  8
細線
100
AcDbLine
 10
1597.970602115529
 20
1320.494443351421
 30
0.0
 11
1595.639055639342
 21
1325.4944609051
 31
0.0
  0
LINE
  5
18CA8
330
18C7A
100
AcDbEntity
  8
細線
100
AcDbLine
 10
1595.639055639342
 20
1325.4944609051
 30
0.0
 11
1530.302132220869
 21
1325.494460905089
 31
0.0
  0
ARC
  5
18CA9
330
18C7A
100
AcDbEntity
  8
部品1
 48
0.01
100
AcDbCircle
 10
1483.470482677778
 20
1319.493338720063
 30
0.0
 40
0.5
100
AcDbArc
 50
270.0
 51
0.0
  0
LINE
  5
18CAA
330
18C7A
100
AcDbEntity
  8
部品1
 48
0.01
100
AcDbLine
 10
1483.970482677778
 20
1320.493338720063
 30
0.0
 11
1483.970482677778
 21
1319.493338720063
 31
0.0
  0
LINE
  5
18CAB
330
18C7A
100
AcDbEntity
  8
部品1
 48
0.01
100
AcDbLine
 10
1483.970482677778
 20
1320.493338720063
 30
0.0
 11
1483.970482677778
 21
1319.493338720063
 31
0.0
  0
LINE
  5
18CAC
330
18C7A
100
AcDbEntity
  8
部品1
 48
0.01
100
AcDbLine
 10
1483.470482677778
 20
1318.993338720063
 30
0.0
 11
1476.857977247713
 21
1318.993338720062
 31
0.0
  0
ARC
  5
18CAD
330
18C7A
100
AcDbEntity
  8
部品1
100
AcDbCircle
 10
1476.926326800494
 20
1319.993338720062
 30
0.0
 40
1.0
100
AcDbArc
 50
160.5287793655865
 51
270.0
  0
ARC
  5
18CAE
330
18C7A
100
AcDbEntity
  8
部品1
100
AcDbCircle
 10
1451.470482677778
 20
1328.993338720062
 30
0.0
 40
26.0
100
AcDbArc
 50
340.5287793655865
 51
0.0
  0
LINE
  5
18CAF
330
18C7A
100
AcDbEntity
  8
部品1
100
AcDbLine
 10
1477.470482677778
 20
1328.993338720062
 30
0.0
 11
1477.470482677778
 21
1333.993338720061
 31
0.0
  0
ARC
  5
18CB0
330
18C7A
100
AcDbEntity
  8
部品1
 48
0.01
100
AcDbCircle
 10
1475.470482677778
 20
1333.993338720061
 30
0.0
 40
2.0
100
AcDbArc
 50
0.0
 51
90.0
  0
ARC
  5
18CB1
330
18C7A
100
AcDbEntity
  8
部品1
100
AcDbCircle
 10
1473.862091052968
 20
1332.993338720062
 30
0.0
 40
3.0
100
AcDbArc
 50
90.0
 51
141.6069559808035
  0
LINE
  5
18CB2
330
18C7A
100
AcDbEntity
  8
部品1
 48
0.01
100
AcDbLine
 10
1475.470482677778
 20
1335.993338720062
 30
0.0
 11
1473.862091052968
 21
1335.993338720062
 31
0.0
  0
ARC
  5
18CB3
330
18C7A
100
AcDbEntity
  8
部品1
100
AcDbCircle
 10
1455.399768463507
 20
1332.293338720065
 30
0.0
 40
3.0
100
AcDbArc
 50
254.0576313943215
 51
270.0
  0
ARC
  5
18CB4
330
18C7A
100
AcDbEntity
  8
部品1
100
AcDbCircle
 10
1462.541196892049
 20
1332.293338720065
 30
0.0
 40
3.0
100
AcDbArc
 50
270.0
 51
285.9423686056786
  0
LINE
  5
18CB5
330
18C7A
100
AcDbEntity
  8
部品1
100
AcDbLine
 10
1462.541196892049
 20
1329.293338720064
 30
0.0
 11
1455.399768463507
 21
1329.293338720064
 31
0.0
  0
ARC
  5
18CB6
330
18C7A
100
AcDbEntity
  8
部品1
100
AcDbCircle
 10
1458.970482677778
 20
1344.793338720065
 30
0.0
 40
16.0
100
AcDbArc
 50
285.9423686056786
 51
321.6069559808035
  0
LINE
  5
18CB7
330
18C7A
100
AcDbEntity
  8
部品1
 48
0.01
100
AcDbLine
 10
1442.470482677778
 20
1335.993338720062
 30
0.0
 11
1444.078874302588
 21
1335.993338720062
 31
0.0
  0
ARC
  5
18CB8
330
18C7A
100
AcDbEntity
  8
部品1
100
AcDbCircle
 10
1444.078874302588
 20
1332.993338720062
 30
0.0
 40
3.0
100
AcDbArc
 50
38.39304401919648
 51
90.0
  0
ARC
  5
18CB9
330
18C7A
100
AcDbEntity
  8
部品1
100
AcDbCircle
 10
1458.970482677778
 20
1344.793338720065
 30
0.0
 40
16.0
100
AcDbArc
 50
218.3930440191965
 51
254.0576313943215
  0
LINE
  5
18CBA
330
18C7A
100
AcDbEntity
  8
部品1
100
AcDbLine
 10
1440.470482677778
 20
1328.993338720062
 30
0.0
 11
1440.470482677778
 21
1333.993338720061
 31
0.0
  0
ARC
  5
18CBB
330
18C7A
100
AcDbEntity
  8
部品1
 48
0.01
100
AcDbCircle
 10
1442.470482677778
 20
1333.993338720061
 30
0.0
 40
2.0
100
AcDbArc
 50
90.0
 51
180.0
  0
ARC
  5
18CBC
330
18C7A
100
AcDbEntity
  8
部品1
100
AcDbCircle
 10
1466.470482677778
 20
1328.993338720062
 30
0.0
 40
26.0
100
AcDbArc
 50
180.0
 51
199.4712206344134
  0
ARC
  5
18CBD
330
18C7A
100
AcDbEntity
  8
部品1
 48
0.01
100
AcDbCircle
 10
1434.470482677778
 20
1319.493338720063
 30
0.0
 40
0.5
100
AcDbArc
 50
180.0
 51
270.0
  0
LINE
  5
18CBE
330
18C7A
100
AcDbEntity
  8
部品1
 48
0.01
100
AcDbLine
 10
1434.470482677778
 20
1318.993338720063
 30
0.0
 11
1441.014638555061
 21
1318.993338720062
 31
0.0
  0
LINE
  5
18CBF
330
18C7A
100
AcDbEntity
  8
部品1
 48
0.01
100
AcDbLine
 10
1433.970482677778
 20
1320.493338720063
 30
0.0
 11
1433.970482677778
 21
1319.493338720063
 31
0.0
  0
ARC
  5
18CC0
330
18C7A
100
AcDbEntity
  8
部品1
100
AcDbCircle
 10
1441.014638555061
 20
1319.993338720062
 30
0.0
 40
1.0
100
AcDbArc
 50
270.0
 51
19.47122063441346
  0
LINE
  5
18CC1
330
18C7A
100
AcDbEntity
  8
細線
100
AcDbLine
 10
1479.470482677785
 20
1338.493338720065
 30
0.0
 11
1438.470482677785
 21
1338.493338720058
 31
0.0
  0
LINE
  5
18CC2
330
18C7A
100
AcDbEntity
  8
細線
100
AcDbLine
 10
1438.470482677785
 20
1338.493338720058
 30
0.0
 11
1438.470482677785
 21
1320.49333872004
 31
0.0
  0
LINE
  5
18CC3
330
18C7A
100
AcDbEntity
  8
細線
100
AcDbLine
 10
1479.470482677785
 20
1338.493338720065
 30
0.0
 11
1479.470482677785
 21
1320.49333872004
 31
0.0
  0
LINE
  5
18CC4
330
18C7A
100
AcDbEntity
  8
細線
100
AcDbLine
 10
1322.970589276523
 20
1324.494269174465
 30
0.0
 11
1322.970589276523
 21
1320.494269174513
 31
0.0
  0
LINE
  5
18CC5
330
18C7A
100
AcDbEntity
  8
寸法
 48
50.0
100
AcDbLine
 10
1746.17359555837
 20
1170.531020743327
 30
0.0
 11
1694.767587648266
 21
1170.531020743327
 31
0.0
  0
LINE
  5
18CC6
330
18C7A
100
AcDbEntity
  8
寸法
 48
50.0
100
AcDbLine
 10
1694.767587648266
 20
1170.531020743327
 30
0.0
 11
1694.767587648266
 21
1201.841179395494
 31
0.0
  0
LINE
  5
18CC7
330
18C7A
100
AcDbEntity
  8
寸法
 48
50.0
100
AcDbLine
 10
1694.767587648266
 20
1201.841179395494
 30
0.0
 11
1665.006255656843
 21
1201.841179395494
 31
0.0
  0
LINE
  5
18CC8
330
18C7A
100
AcDbEntity
  8
寸法
 48
50.0
100
AcDbLine
 10
1665.006255656843
 20
1201.841179395494
 30
0.0
 11
1720.470591603318
 21
1239.420630324105
 31
0.0
  0
LINE
  5
18CC9
330
18C7A
100
AcDbEntity
  8
寸法
 48
50.0
100
AcDbLine
 10
1775.934927549793
 20
1201.841179395494
 30
0.0
 11
1720.470591603318
 21
1239.420630324105
 31
0.0
  0
LINE
  5
18CCA
330
18C7A
100
AcDbEntity
  8
寸法
 48
50.0
100
AcDbLine
 10
1746.17359555837
 20
1201.841179395494
 30
0.0
 11
1775.934927549793
 21
1201.841179395494
 31
0.0
  0
LINE
  5
18CCB
330
18C7A
100
AcDbEntity
  8
寸法
 48
50.0
100
AcDbLine
 10
1746.17359555837
 20
1170.531020743327
 30
0.0
 11
1746.17359555837
 21
1201.841179395494
 31
0.0
  0
LINE
  5
18CCC
330
18C7A
100
AcDbEntity
  8
寸法
 48
50.0
100
AcDbLine
 10
1694.767587648266
 20
1170.531020743327
 30
0.0
 11
1746.17359555837
 21
1170.531020743327
 31
0.0
  0
LINE
  5
18CCD
330
18C7A
100
AcDbEntity
  8
寸法
 48
50.0
100
AcDbLine
 10
2025.339129835225
 20
1227.676611498152
 30
0.0
 11
2025.339129835225
 21
1174.01297691636
 31
0.0
  0
LINE
  5
18CCE
330
18C7A
100
AcDbEntity
  8
寸法
 48
50.0
100
AcDbLine
 10
2114.623348430647
 20
1203.752977228664
 30
0.0
 11
2025.339129835225
 21
1227.676611498152
 31
0.0
  0
LINE
  5
18CCF
330
18C7A
100
AcDbEntity
  8
寸法
 48
50.0
100
AcDbLine
 10
1895.471408254923
 20
1203.752977228664
 30
0.0
 11
2114.623348430647
 21
1203.752977228664
 31
0.0
  0
DIMENSION
  5
18CD0
330
18C7A
100
AcDbEntity
  8
寸法
 48
50.0
100
AcDbDimension
  2
*D15
 10
2588.970589276523
 20
706.3240511224249
 30
0.0
 11
1969.060022905491
 21
706.3240511224249
 31
0.0
 12
-3742.925985830444
 22
-6453.628869860112
 32
0.0
 70
   128
  1
有効開口部間口\P<>
 71
     5
 42
1266.0
  3
INABA_S40G
100
AcDbAlignedDimension
 13
1322.970589276523
 23
1315.494269174465
 33
0.0
 14
2588.970589276523
 24
1315.494269174465
 34
0.0
100
AcDbRotatedDimension
1001
ACAD
1000
DSTYLE
1002
{
1070
   341
1005
0
1002
}
  0
LINE
  5
18CD1
330
18C7A
100
AcDbEntity
  8
部品1
100
AcDbLine
 10
3409.970589276524
 20
1392.494269174465
 30
0.0
 11
3437.970589276523
 21
1392.494269174465
 31
0.0
  0
DIMENSION
  5
18CD2
330
18C7A
100
AcDbEntity
  8
寸法
100
AcDbDimension
  2
*D16
 10
3674.266172669749
 20
1315.494269174465
 30
0.0
 11
3674.266172669748
 21
1177.494269174462
 31
0.0
 12
-3742.925985830444
 22
-6453.628869860112
 32
0.0
 70
   128
 71
     5
 42
77.0
  3
INABA_S40
100
AcDbAlignedDimension
 13
3437.970589276523
 23
1392.494269174465
 33
0.0
 14
3436.970589276523
 24
1315.494269174465
 34
0.0
 50
90.0
100
AcDbRotatedDimension
1001
ACAD
1000
DSTYLE
1002
{
1070
    41
1040
0.5
1070
    44
1040
1.0
1070
   147
1040
0.8
1070
   271
1070
     2
1070
   272
1070
     2
1070
   289
1070
     3
1070
   340
1005
F706
1070
   343
1005
164B4
1070
   344
1005
164B4
1002
}
  0
LINE
  5
18CD3
330
18C7A
100
AcDbEntity
  8
部品1
100
AcDbLine
 10
3437.970589276523
 20
1315.494269174465
 30
0.0
 11
3437.970589276523
 21
1392.494269174465
 31
0.0
  0
LINE
  5
18CD4
330
18C7A
100
AcDbEntity
  8
部品1
100
AcDbLine
 10
3398.970589276523
 20
1388.494269174465
 30
0.0
 11
3409.970589276524
 21
1388.494269174465
 31
0.0
  0
LINE
  5
18CD5
330
18C7A
100
AcDbEntity
  8
部品1
100
AcDbLine
 10
3407.970589276523
 20
1324.494269174465
 30
0.0
 11
3407.970589276523
 21
1315.494269174465
 31
0.0
  0
LINE
  5
18CD6
330
18C7A
100
AcDbEntity
  8
部品1
100
AcDbLine
 10
3398.970589276523
 20
1324.494269174465
 30
0.0
 11
3407.970589276523
 21
1324.494269174465
 31
0.0
  0
LINE
  5
18CD7
330
18C7A
100
AcDbEntity
  8
部品1
100
AcDbLine
 10
3398.970589276523
 20
1388.494269174465
 30
0.0
 11
3398.970589276523
 21
1324.494269174465
 31
0.0
  0
LINE
  5
18CD8
330
18C7A
100
AcDbEntity
  8
部品1
100
AcDbLine
 10
3409.970589276524
 20
1419.494269174465
 30
0.0
 11
3409.970589276524
 21
1388.494269174465
 31
0.0
  0
LINE
  5
18CD9
330
18C7A
100
AcDbEntity
  8
部品1
100
AcDbLine
 10
1322.970589276523
 20
1388.494269174465
 30
0.0
 11
1311.970589276523
 21
1388.494269174465
 31
0.0
  0
LINE
  5
18CDA
330
18C7A
100
AcDbEntity
  8
部品1
100
AcDbLine
 10
1283.970589276523
 20
1392.494269174465
 30
0.0
 11
1311.970589276523
 21
1392.494269174465
 31
0.0
  0
LINE
  5
18CDB
330
18C7A
100
AcDbEntity
  8
部品1
100
AcDbLine
 10
1313.970589276523
 20
1324.494269174465
 30
0.0
 11
1313.970589276523
 21
1315.494269174465
 31
0.0
  0
LINE
  5
18CDC
330
18C7A
100
AcDbEntity
  8
部品1
100
AcDbLine
 10
1322.970589276523
 20
1324.494269174465
 30
0.0
 11
1313.970589276523
 21
1324.494269174465
 31
0.0
  0
LINE
  5
18CDD
330
18C7A
100
AcDbEntity
  8
部品1
100
AcDbLine
 10
1313.970589276523
 20
1315.494269174465
 30
0.0
 11
1283.970589276523
 21
1315.494269174465
 31
0.0
  0
LINE
  5
18CDE
330
18C7A
100
AcDbEntity
  8
部品1
100
AcDbLine
 10
1283.970589276523
 20
1315.494269174465
 30
0.0
 11
1283.970589276523
 21
1392.494269174465
 31
0.0
  0
LINE
  5
18CDF
330
18C7A
100
AcDbEntity
  8
部品1
100
AcDbLine
 10
1322.970589276523
 20
1388.494269174465
 30
0.0
 11
1322.970589276523
 21
1324.494269174465
 31
0.0
  0
LINE
  5
18CE0
330
18C7A
100
AcDbEntity
  8
部品1
100
AcDbLine
 10
1311.970589276523
 20
1419.494269174462
 30
0.0
 11
1311.970589276523
 21
1388.494269174465
 31
0.0
  0
LINE
  5
18CE1
330
18C7A
100
AcDbEntity
  8
部品1
100
AcDbLine
 10
1311.970589276523
 20
1419.494269174462
 30
0.0
 11
3409.970589276524
 21
1419.494269174465
 31
0.0
  0
LINE
  5
18CE2
330
18C7A
100
AcDbEntity
  8
部品1
100
AcDbLine
 10
3407.970589276523
 20
1315.494269174465
 30
0.0
 11
3437.970589276523
 21
1315.494269174465
 31
0.0
  0
LINE
  5
18CE3
330
18C7A
100
AcDbEntity
  8
部品1
100
AcDbLine
 10
1313.970589276523
 20
1315.494269174465
 30
0.0
 11
3410.970589276523
 21
1315.494269174465
 31
0.0
  0
LINE
  5
18CE4
330
18C7A
100
AcDbEntity
  8
細線
  6
Continuous
 62
     5
100
AcDbLine
 10
2689.970589276527
 20
1354.494269174462
 30
0.0
 11
2689.970589276527
 21
1354.494269174462
 31
0.0
  0
LINE
  5
18CE5
330
18C7A
100
AcDbEntity
  8
細線
  6
Continuous
 62
     5
100
AcDbLine
 10
2682.470589276527
 20
1354.494269174462
 30
0.0
 11
2682.470589276527
 21
1354.494269174462
 31
0.0
  0
LINE
  5
18CE6
330
18C7A
100
AcDbEntity
  8
細線
  6
Continuous
 62
     5
100
AcDbLine
 10
2676.470589276527
 20
1354.494269174462
 30
0.0
 11
2676.470589276527
 21
1354.494269174462
 31
0.0
  0
LINE
  5
18CE7
330
18C7A
100
AcDbEntity
  8
細線
  6
Continuous
 62
     5
100
AcDbLine
 10
2743.970589276527
 20
1373.494269174462
 30
0.0
 11
2743.970589276527
 21
1373.494269174462
 31
0.0
  0
LINE
  5
18CE8
330
18C7A
100
AcDbEntity
  8
細線
 48
50.0
100
AcDbLine
 10
1336.970593930116
 20
1341.094443351418
 30
0.0
 11
1336.970593930113
 21
1349.490593759059
 31
0.0
  0
LINE
  5
18CE9
330
18C7A
100
AcDbEntity
  8
細線
 48
50.0
100
AcDbLine
 10
1336.970593930113
 20
1349.490593759059
 30
0.0
 11
1322.970589276523
 21
1349.490593759057
 31
0.0
  0
LINE
  5
18CEA
330
18C7A
100
AcDbEntity
  8
細線
 48
50.0
100
AcDbLine
 10
2087.970593930113
 20
1337.644443351419
 30
0.0
 11
2087.970593930113
 21
1342.494443351421
 31
0.0
  0
LINE
  5
18CEB
330
18C7A
100
AcDbEntity
  8
細線
 48
50.0
100
AcDbLine
 10
2087.970593930113
 20
1342.494443351421
 30
0.0
 11
2102.970593930113
 21
1342.494443351421
 31
0.0
  0
LINE
  5
18CEC
330
18C7A
100
AcDbEntity
  8
細線
 48
50.0
100
AcDbLine
 10
2102.970593930113
 20
1342.494443351421
 30
0.0
 11
2102.970593930115
 21
1349.494443351419
 31
0.0
  0
LINE
  5
18CED
330
18C7A
100
AcDbEntity
  8
細線
 48
50.0
100
AcDbLine
 10
2102.970593930115
 20
1349.494443351419
 30
0.0
 11
2117.970593930113
 21
1349.494443351419
 31
0.0
  0
LINE
  5
18CEE
330
18C7A
100
AcDbEntity
  8
細線
 48
50.0
100
AcDbLine
 10
2117.970593930113
 20
1349.494443351419
 30
0.0
 11
2117.970593930113
 21
1320.494443351421
 31
0.0
  0
LINE
  5
18CEF
330
18C7A
100
AcDbEntity
  8
細線
 48
50.0
100
AcDbLine
 10
1313.970589276523
 20
1320.491777694889
 30
0.0
 11
1527.970593930113
 21
1320.494460905133
 31
0.0
  0
LINE
  5
18CF0
330
18C7A
100
AcDbEntity
  8
細線
 48
50.0
100
AcDbLine
 10
2017.970593930113
 20
1320.494443351421
 30
0.0
 11
2117.970593930113
 21
1320.494443351421
 31
0.0
  0
LINE
  5
18CF1
330
18C7A
100
AcDbEntity
  8
細線
 48
50.0
100
AcDbLine
 10
1737.970593930113
 20
1320.494443351419
 30
0.0
 11
1807.970593930113
 21
1320.494443351423
 31
0.0
  0
LINE
  5
18CF2
330
18C7A
100
AcDbEntity
  8
細線
 48
50.0
100
AcDbLine
 10
1750.832558942642
 20
1320.494443351419
 30
0.0
 11
1756.588076525309
 21
1338.765294641913
 31
0.0
  0
LINE
  5
18CF3
330
18C7A
100
AcDbEntity
  8
細線
 48
50.0
100
AcDbLine
 10
1756.588076525309
 20
1338.765294641913
 30
0.0
 11
1767.516525005743
 21
1338.765294641911
 31
0.0
  0
ARC
  5
18CF4
330
18C7A
100
AcDbEntity
  8
細線
 48
50.0
100
AcDbCircle
 10
1767.516525005743
 20
1337.765294641911
 30
0.0
 40
1.0
100
AcDbArc
 50
24.62431835207225
 51
90.0
  0
ARC
  5
18CF5
330
18C7A
100
AcDbEntity
  8
細線
 48
50.0
100
AcDbCircle
 10
1778.425237120377
 20
1337.765294641911
 30
0.0
 40
1.0
100
AcDbArc
 50
90.0
 51
155.3756816479277
  0
ARC
  5
18CF6
330
18C7A
100
AcDbEntity
  8
細線
 48
50.0
100
AcDbCircle
 10
1772.970881063058
 20
1340.265294641911
 30
0.0
 40
5.0
100
AcDbArc
 50
204.6243183520723
 51
335.3756816479278
  0
LINE
  5
18CF7
330
18C7A
100
AcDbEntity
  8
細線
 48
50.0
100
AcDbLine
 10
1778.425237120377
 20
1338.765294641911
 30
0.0
 11
1789.35368560081
 21
1338.765294641913
 31
0.0
  0
LINE
  5
18CF8
330
18C7A
100
AcDbEntity
  8
細線
 48
50.0
100
AcDbLine
 10
1789.35368560081
 20
1338.765294641913
 30
0.0
 11
1795.109203183478
 21
1320.494443351423
 31
0.0
  0
LINE
  5
18CF9
330
18C7A
100
AcDbEntity
  8
細線
 48
50.0
100
AcDbLine
 10
2087.970593930113
 20
1341.094443351419
 30
0.0
 11
1336.970593930116
 21
1341.094443351418
 31
0.0
  0
LINE
  5
18CFA
330
18C7A
100
AcDbEntity
  8
細線
 48
50.0
100
AcDbLine
 10
1947.970593930113
 20
1320.494443351421
 30
0.0
 11
1877.970593930113
 21
1320.494443351421
 31
0.0
  0
LINE
  5
18CFB
330
18C7A
100
AcDbEntity
  8
細線
100
AcDbLine
 10
1667.970593930113
 20
1320.494443351421
 30
0.0
 11
1597.970602115529
 21
1320.494443351421
 31
0.0
  0
LINE
  5
18CFC
330
18C7A
100
AcDbEntity
  8
細線
 48
50.0
100
AcDbLine
 10
2741.970584622936
 20
1375.094487209288
 30
0.0
 11
2106.970593930113
 21
1375.094487209284
 31
0.0
  0
LINE
  5
18CFD
330
18C7A
100
AcDbEntity
  8
細線
 48
50.0
100
AcDbLine
 10
2106.970593930113
 20
1371.990637616925
 30
0.0
 11
2106.970593930113
 21
1376.490637616925
 31
0.0
  0
LINE
  5
18CFE
330
18C7A
100
AcDbEntity
  8
細線
 48
50.0
100
AcDbLine
 10
2106.970593930113
 20
1376.490637616925
 30
0.0
 11
2091.970593930113
 21
1376.490637616925
 31
0.0
  0
LINE
  5
18CFF
330
18C7A
100
AcDbEntity
  8
細線
 48
50.0
100
AcDbLine
 10
2091.970593930113
 20
1376.490637616925
 30
0.0
 11
2091.970593930113
 21
1383.490637616927
 31
0.0
  0
LINE
  5
18D00
330
18C7A
100
AcDbEntity
  8
細線
 48
50.0
100
AcDbLine
 10
2091.970593930113
 20
1383.490637616927
 30
0.0
 11
2076.970593930115
 21
1383.490637616924
 31
0.0
  0
LINE
  5
18D01
330
18C7A
100
AcDbEntity
  8
細線
 48
50.0
100
AcDbLine
 10
2076.970593930115
 20
1383.490637616924
 30
0.0
 11
2076.970593930115
 21
1345.890409513813
 31
0.0
  0
LINE
  5
18D02
330
18C7A
100
AcDbEntity
  8
細線
 48
50.0
100
AcDbLine
 10
2076.970593930115
 20
1345.890409513813
 30
0.0
 11
2096.970601231289
 21
1345.890451063353
 31
0.0
  0
LINE
  5
18D03
330
18C7A
100
AcDbEntity
  8
細線
 48
50.0
100
AcDbLine
 10
2096.970556362348
 20
1354.493912699161
 30
0.0
 11
2096.970601231289
 21
1345.890451063353
 31
0.0
  0
LINE
  5
18D04
330
18C7A
100
AcDbEntity
  8
細線
 48
50.0
100
AcDbLine
 10
2741.970584622936
 20
1371.644487209287
 30
0.0
 11
2741.970584622936
 21
1376.494487209284
 31
0.0
  0
LINE
  5
18D05
330
18C7A
100
AcDbEntity
  8
細線
 48
50.0
100
AcDbLine
 10
2741.970584622936
 20
1376.494487209284
 30
0.0
 11
2756.970584622934
 21
1376.494487209285
 31
0.0
  0
LINE
  5
18D06
330
18C7A
100
AcDbEntity
  8
細線
 48
50.0
100
AcDbLine
 10
2756.970584622934
 20
1376.494487209285
 30
0.0
 11
2756.970596256909
 21
1383.494487209331
 31
0.0
  0
LINE
  5
18D07
330
18C7A
100
AcDbEntity
  8
細線
 48
50.0
100
AcDbLine
 10
2756.970596256909
 20
1383.494487209331
 30
0.0
 11
2771.970594427439
 21
1383.494487209329
 31
0.0
  0
LINE
  5
18D08
330
18C7A
100
AcDbEntity
  8
細線
 48
50.0
100
AcDbLine
 10
2771.970594427439
 20
1383.494487209329
 30
0.0
 11
2771.970584125617
 21
1354.494281037055
 31
0.0
  0
LINE
  5
18D09
330
18C7A
100
AcDbEntity
  8
細線
 48
50.0
100
AcDbLine
 10
2458.070304175992
 20
1354.494278397076
 30
0.0
 11
2389.470863838818
 21
1354.494283787084
 31
0.0
  0
LINE
  5
18D0A
330
18C7A
100
AcDbEntity
  8
細線
 48
50.0
100
AcDbLine
 10
2096.970556362348
 20
1354.493912699161
 30
0.0
 11
2108.203245717057
 21
1354.494095652309
 31
0.0
  0
ARC
  5
18D0B
330
18C7A
100
AcDbEntity
  8
細線
 48
50.0
100
AcDbCircle
 10
2114.785538024393
 20
1353.294259565922
 30
0.0
 40
1.8
100
AcDbArc
 50
270.0006665777295
 51
345.000555481349
  0
LINE
  5
18D0C
330
18C7A
100
AcDbEntity
  8
細線
 48
50.0
100
AcDbLine
 10
2116.771971470473
 20
1353.753100023201
 30
0.0
 11
2116.524209028273
 21
1352.828402141094
 31
0.0
  0
LINE
  5
18D0D
330
18C7A
100
AcDbEntity
  8
細線
 48
50.0
100
AcDbLine
 10
2114.785558965548
 20
1351.494259566043
 30
0.0
 11
2111.155631546781
 21
1351.494217335563
 31
0.0
  0
ARC
  5
18D0E
330
18C7A
100
AcDbEntity
  8
細線
 48
50.0
100
AcDbCircle
 10
2111.155610605627
 20
1353.29421733544
 30
0.0
 40
1.8
100
AcDbArc
 50
195.0010443049965
 51
270.0006665777295
  0
LINE
  5
18D0F
330
18C7A
100
AcDbEntity
  8
細線
 48
50.0
100
AcDbLine
 10
2109.169183113368
 20
1353.752932303007
 30
0.0
 11
2109.416952609882
 21
1352.828311364425
 31
0.0
  0
ARC
  5
18D10
330
18C7A
100
AcDbEntity
  8
細線
 48
50.0
100
AcDbCircle
 10
2108.203262004622
 20
1353.494095652444
 30
0.0
 40
1.0
100
AcDbArc
 50
15.00104430499651
 51
90.00093320877969
  0
LINE
  5
18D11
330
18C7A
100
AcDbEntity
  8
細線
 48
50.0
100
AcDbLine
 10
2117.737892825577
 20
1354.494290342714
 30
0.0
 11
2118.679652976481
 21
1354.494296916564
 31
0.0
  0
ARC
  5
18D12
330
18C7A
100
AcDbEntity
  8
細線
 48
50.0
100
AcDbCircle
 10
2117.737899805961
 20
1353.49429034274
 30
0.0
 40
1.0
100
AcDbArc
 50
90.0003999466794
 51
165.000555481349
  0
LINE
  5
18D13
330
18C7A
100
AcDbEntity
  8
細線
 48
50.0
100
AcDbLine
 10
2669.470584622926
 20
1354.494281037055
 30
0.0
 11
2771.970584125617
 21
1354.494281037055
 31
0.0
  0
LINE
  5
18D14
330
18C7A
100
AcDbEntity
  8
細線
 48
50.0
100
AcDbLine
 10
2179.47061994182
 20
1354.494289224422
 30
0.0
 11
2118.370558714898
 21
1354.494296916564
 31
0.0
  0
LINE
  5
18D15
330
18C7A
100
AcDbEntity
  8
細線
 48
50.0
100
AcDbLine
 10
2599.470584622926
 20
1354.494281037057
 30
0.0
 11
2529.470584622926
 21
1354.494281037055
 31
0.0
  0
LINE
  5
18D16
330
18C7A
100
AcDbEntity
  8
細線
 48
50.0
100
AcDbLine
 10
2319.470584622926
 20
1354.494281037054
 30
0.0
 11
2249.470567335051
 21
1354.494281037057
 31
0.0
  0
ARC
  5
18D17
330
18C7A
100
AcDbEntity
  8
細線
 48
50.0
100
AcDbCircle
 10
2756.170589276533
 20
1387.694269174466
 30
0.0
 40
0.8
100
AcDbArc
 50
359.9997333689499
 51
89.99986668437072
  0
ARC
  5
18D18
330
18C7A
100
AcDbEntity
  8
細線
 48
50.0
100
AcDbCircle
 10
2763.770596101631
 20
1387.694280343081
 30
0.0
 40
0.8
100
AcDbArc
 50
90.00014387753465
 51
179.9997333689498
  0
LINE
  5
18D19
330
18C7A
100
AcDbEntity
  8
細線
 48
50.0
100
AcDbLine
 10
2756.170591137969
 20
1388.494269174465
 30
0.0
 11
2750.970589276525
 21
1388.494269174465
 31
0.0
  0
ARC
  5
18D1A
330
18C7A
100
AcDbEntity
  8
細線
 48
50.0
100
AcDbCircle
 10
2757.670589276524
 20
1386.194269174464
 30
0.0
 40
0.7
100
AcDbArc
 50
180.0
 51
270.0
  0
ARC
  5
18D1B
330
18C7A
100
AcDbEntity
  8
細線
 48
50.0
100
AcDbCircle
 10
2762.270589276524
 20
1386.194269174464
 30
0.0
 40
0.7
100
AcDbArc
 50
270.0
 51
0.0
  0
LINE
  5
18D1C
330
18C7A
100
AcDbEntity
  8
細線
 48
50.0
100
AcDbLine
 10
2762.970589276525
 20
1386.194269174464
 30
0.0
 11
2762.970596101639
 21
1387.694284065954
 31
0.0
  0
LINE
  5
18D1D
330
18C7A
100
AcDbEntity
  8
細線
 48
50.0
100
AcDbLine
 10
2757.670589276524
 20
1385.494269174465
 30
0.0
 11
2762.270589276524
 21
1385.494269174465
 31
0.0
  0
LINE
  5
18D1E
330
18C7A
100
AcDbEntity
  8
細線
 48
50.0
100
AcDbLine
 10
2756.970589276525
 20
1387.694269174466
 30
0.0
 11
2756.970589276525
 21
1386.194269174464
 31
0.0
  0
LINE
  5
18D1F
330
18C7A
100
AcDbEntity
  8
細線
 48
50.0
100
AcDbLine
 10
3382.570589276527
 20
1418.494269174465
 30
0.0
 11
2745.970589276525
 21
1418.494269174463
 31
0.0
  0
LINE
  5
18D20
330
18C7A
100
AcDbEntity
  8
細線
 48
50.0
100
AcDbLine
 10
3408.470589276525
 20
1413.494269174467
 30
0.0
 11
3392.570589276527
 21
1413.494269174465
 31
0.0
  0
LINE
  5
18D21
330
18C7A
100
AcDbEntity
  8
細線
 48
50.0
100
AcDbLine
 10
3392.570589276526
 20
1413.494269174465
 30
0.0
 11
3382.570589276527
 21
1418.494269174465
 31
0.0
  0
LINE
  5
18D22
330
18C7A
100
AcDbEntity
  8
細線
100
AcDbLine
 10
2993.470589276525
 20
1388.494269174465
 30
0.0
 11
2993.470589276525
 21
1417.794269174464
 31
0.0
  0
LINE
  5
18D23
330
18C7A
100
AcDbEntity
  8
細線
100
AcDbLine
 10
2993.470589276525
 20
1417.794269174464
 30
0.0
 11
3013.470589276525
 21
1417.794269174464
 31
0.0
  0
LINE
  5
18D24
330
18C7A
100
AcDbEntity
  8
細線
100
AcDbLine
 10
3013.470589276525
 20
1388.494269174465
 30
0.0
 11
3013.470589276525
 21
1417.794269174464
 31
0.0
  0
LINE
  5
18D25
330
18C7A
100
AcDbEntity
  8
細線
100
AcDbLine
 10
3170.720589276524
 20
1388.494269174465
 30
0.0
 11
3100.720589276523
 21
1388.494269174465
 31
0.0
  0
LINE
  5
18D26
330
18C7A
100
AcDbEntity
  8
細線
 48
50.0
100
AcDbLine
 10
2890.720589276525
 20
1388.494269174465
 30
0.0
 11
2763.766368849365
 21
1388.494269174465
 31
0.0
  0
LINE
  5
18D27
330
18C7A
100
AcDbEntity
  8
細線
100
AcDbLine
 10
3030.720589276525
 20
1388.494269174465
 30
0.0
 11
2960.720589276525
 21
1388.494269174465
 31
0.0
  0
LINE
  5
18D28
330
18C7A
100
AcDbEntity
  8
細線
 48
50.0
100
AcDbLine
 10
2750.970589276525
 20
1380.494269174465
 30
0.0
 11
2750.970589276525
 21
1388.494269174465
 31
0.0
  0
LINE
  5
18D29
330
18C7A
100
AcDbEntity
  8
細線
 48
50.0
100
AcDbLine
 10
2730.970589276524
 20
1380.494269174467
 30
0.0
 11
2750.970589276525
 21
1380.494269174465
 31
0.0
  0
LINE
  5
18D2A
330
18C7A
100
AcDbEntity
  8
細線
 48
50.0
100
AcDbLine
 10
2745.970589276525
 20
1418.494269174465
 30
0.0
 11
2745.970589276525
 21
1413.494269174465
 31
0.0
  0
LINE
  5
18D2B
330
18C7A
100
AcDbEntity
  8
細線
 48
50.0
100
AcDbLine
 10
2730.970589276525
 20
1418.494269174463
 30
0.0
 11
2745.970589276525
 21
1418.494269174465
 31
0.0
  0
LINE
  5
18D2C
330
18C7A
100
AcDbEntity
  8
細線
 48
50.0
100
AcDbLine
 10
2730.970589276524
 20
1380.494269174467
 30
0.0
 11
2730.970589276525
 21
1418.494269174463
 31
0.0
  0
LINE
  5
18D2D
330
18C7A
100
AcDbEntity
  8
細線
100
AcDbLine
 10
3398.970589276523
 20
1388.494269174465
 30
0.0
 11
3240.720589276525
 21
1388.494269174465
 31
0.0
  0
LINE
  5
18D2E
330
18C7A
100
AcDbEntity
  8
細線
 48
50.0
100
AcDbLine
 10
3408.470589276525
 20
1413.494269174467
 30
0.0
 11
3408.470589276524
 21
1388.494269174465
 31
0.0
  0
TEXT
  5
18D2F
330
18C7A
100
AcDbEntity
  8
部品1
100
AcDbText
 10
1860.154865991392
 20
46.99880823813145
 30
0.0
 40
135.0
  1
平面図
  7
STYLE2
100
AcDbText
  0
LWPOLYLINE
  5
18D30
330
18C7A
100
AcDbEntity
  8
部品1
100
AcDbPolyline
 90
        4
 70
     1
 43
0.0
 10
1770.23525616235
 20
239.8923374566548
 10
1770.23525616235
 20
0.0000159111223184
 10
2533.705922390791
 20
0.0000159111223184
 10
2533.705922390791
 20
239.8923374566548
  0
LINE
  5
18D31
330
18C7A
100
AcDbEntity
  8
部品1
100
AcDbLine
 10
1534.470589276487
 20
3154.494269174626
 30
0.0
 11
2769.470589276552
 21
3154.494269174626
 31
0.0
  0
LINE
  5
18D32
330
18C7A
100
AcDbEntity
  8
部品1
 48
50.0
100
AcDbLine
 10
1311.970589276523
 20
1420.494269174462
 30
0.0
 11
3411.970589276523
 21
1420.494269174465
 31
0.0
  0
LINE
  5
18D33
330
18C7A
100
AcDbEntity
  8
部品1
 48
50.0
100
AcDbLine
 10
471.9705892765232
 20
1392.494269174465
 30
0.0
 11
1311.970589276523
 21
1392.494269174465
 31
0.0
  0
DIMENSION
  5
18D34
330
18C7A
100
AcDbEntity
  8
寸法
100
AcDbDimension
  2
*D14
 10
2710.234916278077
 20
2488.887829538828
 30
0.0
 11
2338.318822490183
 21
2488.887829538828
 31
0.0
 12
-3742.925985830444
 22
-6453.628869860112
 32
0.0
 70
   128
 71
     5
 42
1231.00000000007
  3
INABA_S40G
100
AcDbAlignedDimension
 13
1536.470589276486
 23
2702.494269174557
 33
0.0
 14
2767.470589276556
 24
2702.494269174549
 34
0.0
100
AcDbRotatedDimension
1001
ACAD
1000
DSTYLE
1002
{
1002
}
  0
LINE
  5
18D35
330
18C7A
100
AcDbEntity
  8
部品1
100
AcDbLine
 10
1536.470589276487
 20
2702.494269174557
 30
0.0
 11
2767.470589276554
 21
2702.494269174615
 31
0.0
  0
LINE
  5
18D36
330
18C7A
100
AcDbEntity
  8
部品1
100
AcDbLine
 10
1536.470589276487
 20
3152.494269174557
 30
0.0
 11
2767.470589276556
 21
3152.494269174615
 31
0.0
  0
LINE
  5
18D37
330
18C7A
100
AcDbEntity
  8
細線
 48
50.0
100
AcDbLine
 10
1508.470589276487
 20
3152.494269174558
 30
0.0
 11
445.4705892765559
 21
2702.494269174509
 31
0.0
  0
LINE
  5
18D38
330
18C7A
100
AcDbEntity
  8
細線
 48
50.0
100
AcDbLine
 10
1508.470589276487
 20
2702.494269174558
 30
0.0
 11
445.4705892765542
 21
3152.494269174509
 31
0.0
  0
LINE
  5
18D39
330
18C7A
100
AcDbEntity
  8
部品1
100
AcDbLine
 10
1556.970589276487
 20
3172.494269174611
 30
0.0
 11
1556.970589276487
 21
3154.494269174611
 31
0.0
  0
LINE
  5
18D3A
330
18C7A
100
AcDbEntity
  8
部品1
100
AcDbLine
 10
1556.970589276487
 20
3172.494269174611
 30
0.0
 11
1550.970589276487
 21
3172.494269174611
 31
0.0
  0
LINE
  5
18D3B
330
18C7A
100
AcDbEntity
  8
部品1
100
AcDbLine
 10
1534.470589276487
 20
3146.494269174608
 30
0.0
 11
1509.470589276487
 21
3146.494269174611
 31
0.0
  0
LINE
  5
18D3C
330
18C7A
100
AcDbEntity
  8
部品1
100
AcDbLine
 10
1486.970589276487
 20
3172.494269174611
 30
0.0
 11
1486.970589276487
 21
3154.494269174611
 31
0.0
  0
LINE
  5
18D3D
330
18C7A
100
AcDbEntity
  8
部品1
100
AcDbLine
 10
1492.970589276487
 20
3172.494269174611
 30
0.0
 11
1486.970589276487
 21
3172.494269174611
 31
0.0
  0
LINE
  5
18D3E
330
18C7A
100
AcDbEntity
  8
部品1
100
AcDbLine
 10
1534.470589276487
 20
2702.494269174615
 30
0.0
 11
1509.470589276487
 21
2702.494269174615
 31
0.0
  0
LINE
  5
18D3F
330
18C7A
100
AcDbEntity
  8
部品1
 48
50.0
100
AcDbLine
 10
1536.470589276487
 20
3152.494269174611
 30
0.0
 11
1536.470589276487
 21
2702.494269174615
 31
0.0
  0
LINE
  5
18D40
330
18C7A
100
AcDbEntity
  8
部品1
 48
50.0
100
AcDbLine
 10
1508.470589276487
 20
3152.494269174607
 30
0.0
 11
1508.470589276487
 21
2702.494269174615
 31
0.0
  0
LINE
  5
18D41
330
18C7A
100
AcDbEntity
  8
部品1
 48
50.0
100
AcDbLine
 10
1534.470589276487
 20
3154.494269174618
 30
0.0
 11
1534.470589276487
 21
2702.494269174615
 31
0.0
  0
LINE
  5
18D42
330
18C7A
100
AcDbEntity
  8
部品1
 48
50.0
100
AcDbLine
 10
1509.470589276487
 20
3154.494269174615
 30
0.0
 11
1509.470589276487
 21
2702.494269174615
 31
0.0
  0
LINE
  5
18D43
330
18C7A
100
AcDbEntity
  8
部品1
100
AcDbLine
 10
3411.970589276556
 20
1392.494269174582
 30
0.0
 11
3411.970589276556
 21
1420.494269174596
 31
0.0
  0
LINE
  5
18D44
330
18C7A
100
AcDbEntity
  8
部品1
100
AcDbLine
 10
1311.970589276523
 20
1392.494269174596
 30
0.0
 11
1311.970589276523
 21
1420.494269174596
 31
0.0
  0
LINE
  5
18D45
330
18C7A
100
AcDbEntity
  8
部品1
100
AcDbLine
 10
891.9705892765232
 20
1392.494269174596
 30
0.0
 11
891.9705892765232
 21
1420.494269174596
 31
0.0
  0
LINE
  5
18D46
330
18C7A
100
AcDbEntity
  8
部品1
100
AcDbLine
 10
3411.97058927652
 20
3182.494269174477
 30
0.0
 11
3411.970589276523
 21
3154.494269174477
 31
0.0
  0
LINE
  5
18D47
330
18C7A
100
AcDbEntity
  8
部品1
100
AcDbLine
 10
2571.97058927652
 20
3182.494269174477
 30
0.0
 11
2571.970589276523
 21
3154.494269174477
 31
0.0
  0
LINE
  5
18D48
330
18C7A
100
AcDbEntity
  8
部品1
100
AcDbLine
 10
2991.97058927652
 20
3182.494269174477
 30
0.0
 11
2991.970589276523
 21
3154.494269174477
 31
0.0
  0
LINE
  5
18D49
330
18C7A
100
AcDbEntity
  8
部品1
100
AcDbLine
 10
2151.970589276519
 20
3182.494269174477
 30
0.0
 11
2151.970589276523
 21
3154.494269174477
 31
0.0
  0
LINE
  5
18D4A
330
18C7A
100
AcDbEntity
  8
部品1
100
AcDbLine
 10
1731.970589276519
 20
3182.494269174477
 30
0.0
 11
1731.970589276523
 21
3154.494269174477
 31
0.0
  0
LINE
  5
18D4B
330
18C7A
100
AcDbEntity
  8
部品1
100
AcDbLine
 10
1311.970589276519
 20
3182.494269174477
 30
0.0
 11
1311.970589276523
 21
3154.494269174477
 31
0.0
  0
LINE
  5
18D4C
330
18C7A
100
AcDbEntity
  8
部品1
100
AcDbLine
 10
891.9705892765195
 20
3182.494269174477
 30
0.0
 11
891.9705892765232
 21
3154.494269174477
 31
0.0
  0
LINE
  5
18D4D
330
18C7A
100
AcDbEntity
  8
部品1
100
AcDbLine
 10
471.9705892765232
 20
1392.494269174596
 30
0.0
 11
471.9705892765232
 21
1420.494269174596
 31
0.0
  0
LINE
  5
18D4E
330
18C7A
100
AcDbEntity
  8
部品1
100
AcDbLine
 10
444.9705892765305
 20
1420.494269174558
 30
0.0
 11
3858.970589276556
 21
1420.494269174596
 31
0.0
  0
LINE
  5
18D4F
330
18C7A
100
AcDbEntity
  8
部品1
100
AcDbLine
 10
3831.970589276556
 20
1392.494269174596
 30
0.0
 11
3831.970589276556
 21
1420.494269174596
 31
0.0
  0
LINE
  5
18D50
330
18C7A
100
AcDbEntity
  8
部品1
100
AcDbLine
 10
3858.970589276556
 20
1447.494269174593
 30
0.0
 11
3886.970589276556
 21
1447.494269174593
 31
0.0
  0
LINE
  5
18D51
330
18C7A
100
AcDbEntity
  8
部品1
100
AcDbLine
 10
3858.970589276556
 20
1867.494269174607
 30
0.0
 11
3886.970589276556
 21
1867.494269174607
 31
0.0
  0
LINE
  5
18D52
330
18C7A
100
AcDbEntity
  8
部品1
100
AcDbLine
 10
444.9705892765305
 20
1867.49426917448
 30
0.0
 11
416.9705892765305
 21
1867.49426917448
 31
0.0
  0
LINE
  5
18D53
330
18C7A
100
AcDbEntity
  8
部品1
100
AcDbLine
 10
3830.470589276541
 20
1867.49426917458
 30
0.0
 11
473.4705892765396
 21
1867.49426917448
 31
0.0
  0
LINE
  5
18D54
330
18C7A
100
AcDbEntity
  8
部品1
100
AcDbLine
 10
3830.470589276541
 20
2287.49426917458
 30
0.0
 11
473.4705892765396
 21
2287.49426917448
 31
0.0
  0
LINE
  5
18D55
330
18C7A
100
AcDbEntity
  8
部品1
100
AcDbLine
 10
444.9705892765305
 20
2287.49426917448
 30
0.0
 11
416.9705892765305
 21
2287.49426917448
 31
0.0
  0
LINE
  5
18D56
330
18C7A
100
AcDbEntity
  8
部品1
100
AcDbLine
 10
3858.970589276556
 20
2287.494269174608
 30
0.0
 11
3886.970589276556
 21
2287.494269174608
 31
0.0
  0
LINE
  5
18D57
330
18C7A
100
AcDbEntity
  8
部品1
 48
50.0
100
AcDbLine
 10
2151.970589276551
 20
2702.494269174586
 30
0.0
 11
2151.970589276581
 21
1448.994269174494
 31
0.0
  0
LINE
  5
18D58
330
18C7A
100
AcDbEntity
  8
破線
 48
10.0
100
AcDbLine
 10
2959.470589276535
 20
1472.494269174522
 30
0.0
 11
2176.970589276532
 21
1472.494269174505
 31
0.0
  0
LINE
  5
18D59
330
18C7A
100
AcDbEntity
  8
破線
 48
10.0
100
AcDbLine
 10
3009.47058927653
 20
1448.994269174509
 30
0.0
 11
3009.47058927653
 21
2702.494269174615
 31
0.0
  0
LINE
  5
18D5A
330
18C7A
100
AcDbEntity
  8
破線
 48
10.0
100
AcDbLine
 10
2959.470589276535
 20
1448.994269174505
 30
0.0
 11
2959.470589276531
 21
2702.494269174615
 31
0.0
  0
LINE
  5
18D5B
330
18C7A
100
AcDbEntity
  8
破線
 48
10.0
100
AcDbLine
 10
1344.47058927653
 20
1448.994269174509
 30
0.0
 11
1344.47058927653
 21
2702.494269174615
 31
0.0
  0
LINE
  5
18D5C
330
18C7A
100
AcDbEntity
  8
破線
 48
10.0
100
AcDbLine
 10
1294.470589276534
 20
1448.994269174505
 30
0.0
 11
1294.47058927653
 21
2702.494269174615
 31
0.0
  0
DIMENSION
  5
18D5D
330
18C7A
100
AcDbEntity
  8
寸法
100
AcDbDimension
  2
*D13
 10
1451.234916278005
 20
2488.887829538828
 30
0.0
 11
916.0604668248634
 21
2488.887829538828
 31
0.0
 12
-3742.925985830444
 22
-6453.628869860112
 32
0.0
 70
   128
 71
     5
 42
1062.99999999993
  3
INABA_S40G
100
AcDbAlignedDimension
 13
445.4705892765559
 23
2702.494269174505
 33
0.0
 14
1508.470589276486
 24
2702.494269174558
 34
0.0
100
AcDbRotatedDimension
1001
ACAD
1000
DSTYLE
1002
{
1002
}
  0
LINE
  5
18D5E
330
18C7A
100
AcDbEntity
  8
破線
 48
10.0
100
AcDbLine
 10
1294.470589276534
 20
1472.494269174469
 30
0.0
 11
496.9705892765414
 21
1472.494269174476
 31
0.0
  0
LINE
  5
18D5F
330
18C7A
100
AcDbEntity
  8
部品1
100
AcDbLine
 10
3831.970589276556
 20
3182.494269174604
 30
0.0
 11
3831.970589276556
 21
3154.494269174604
 31
0.0
  0
LINE
  5
18D60
330
18C7A
100
AcDbEntity
  8
部品1
100
AcDbLine
 10
3831.970589276556
 20
3182.494269174626
 30
0.0
 11
3831.970589276556
 21
3154.494269174626
 31
0.0
  0
LINE
  5
18D61
330
18C7A
100
AcDbEntity
  8
部品1
100
AcDbLine
 10
3858.970589276556
 20
3127.494269174607
 30
0.0
 11
3886.970589276556
 21
3127.494269174607
 31
0.0
  0
LINE
  5
18D62
330
18C7A
100
AcDbEntity
  8
部品1
100
AcDbLine
 10
3858.970589276556
 20
2707.494269174608
 30
0.0
 11
3886.970589276556
 21
2707.494269174608
 31
0.0
  0
LINE
  5
18D63
330
18C7A
100
AcDbEntity
  8
部品1
100
AcDbLine
 10
3858.470589276556
 20
3152.494269174604
 30
0.0
 11
3858.470589276556
 21
2702.494269174608
 31
0.0
  0
LINE
  5
18D64
330
18C7A
100
AcDbEntity
  8
部品1
100
AcDbLine
 10
3886.970589276533
 20
1447.494269174593
 30
0.0
 11
3886.970589276531
 21
1392.494269174596
 31
0.0
  0
LINE
  5
18D65
330
18C7A
100
AcDbEntity
  8
部品1
 48
50.0
100
AcDbLine
 10
3830.470589276556
 20
1448.994269174596
 30
0.0
 11
3858.970589276554
 21
1420.494269174596
 31
0.0
  0
LINE
  5
18D66
330
18C7A
100
AcDbEntity
  8
部品1
100
AcDbLine
 10
3886.970589276531
 20
1392.494269174596
 30
0.0
 11
3835.970589276531
 21
1392.494269174596
 31
0.0
  0
LINE
  5
18D67
330
18C7A
100
AcDbEntity
  8
部品1
100
AcDbLine
 10
3858.970589276533
 20
1447.494269174593
 30
0.0
 11
3886.970589276531
 21
1447.494269174593
 31
0.0
  0
LINE
  5
18D68
330
18C7A
100
AcDbEntity
  8
部品1
100
AcDbLine
 10
3886.970589276556
 20
3182.494269174604
 30
0.0
 11
3886.970589276531
 21
1392.494269174596
 31
0.0
  0
DIMENSION
  5
18D69
330
18C7A
100
AcDbEntity
  8
寸法
100
AcDbDimension
  2
*D12
 10
4534.396935010967
 20
1447.494269174593
 30
0.0
 11
4534.396935010965
 21
2287.4942691746
 31
0.0
 12
-3742.925985830444
 22
-6453.628869860112
 32
0.0
 70
   128
  1
4X420=<>
 71
     5
 42
1680.000000000014
  3
INABA_S40G
100
AcDbAlignedDimension
 13
3886.970589276556
 23
3127.494269174607
 33
0.0
 14
3886.970589276531
 24
1447.494269174593
 34
0.0
 50
90.0
100
AcDbRotatedDimension
1001
ACAD
1000
DSTYLE
1002
{
1002
}
  0
LINE
  5
18D6A
330
18C7A
100
AcDbEntity
  8
部品1
100
AcDbLine
 10
3858.970589276556
 20
3154.494269174604
 30
0.0
 11
3858.970589276534
 21
1420.494269174596
 31
0.0
  0
DIMENSION
  5
18D6B
330
18C7A
100
AcDbEntity
  8
寸法
100
AcDbDimension
  2
*D11
 10
4213.82831513858
 20
2607.276453505718
 30
0.0
 11
4113.828315138579
 21
2832.276453505718
 31
0.0
 12
-3742.925985830444
 22
-6453.628869860112
 32
0.0
 71
     5
 42
449.9999999999963
  3
INABA_S40G
100
AcDbAlignedDimension
 13
3858.470589276556
 23
3152.494269174604
 33
0.0
 14
3858.470589276556
 24
2702.494269174608
 34
0.0
 50
90.0
100
AcDbRotatedDimension
1001
ACAD
1000
DSTYLE
1002
{
1002
}
  0
LINE
  5
18D6C
330
18C7A
100
AcDbEntity
  8
部品1
100
AcDbLine
 10
3830.470589276547
 20
2702.494269174608
 30
0.0
 11
3830.470589276556
 21
1448.994269174596
 31
0.0
  0
LINE
  5
18D6D
330
18C7A
100
AcDbEntity
  8
破線
 48
10.0
100
AcDbLine
 10
3806.970589276549
 20
2702.494269174608
 30
0.0
 11
3806.970589276558
 21
1472.494269174593
 31
0.0
  0
LINE
  5
18D6E
330
18C7A
100
AcDbEntity
  8
部品1
100
AcDbLine
 10
2769.470589276556
 20
3146.494269174608
 30
0.0
 11
2794.470589276556
 21
3146.494269174611
 31
0.0
  0
LINE
  5
18D6F
330
18C7A
100
AcDbEntity
  8
部品1
100
AcDbLine
 10
2810.970589276556
 20
3172.494269174611
 30
0.0
 11
2816.970589276556
 21
3172.494269174611
 31
0.0
  0
LINE
  5
18D70
330
18C7A
100
AcDbEntity
  8
部品1
100
AcDbLine
 10
2816.970589276556
 20
3172.494269174611
 30
0.0
 11
2816.970589276556
 21
3154.494269174611
 31
0.0
  0
LINE
  5
18D71
330
18C7A
100
AcDbEntity
  8
部品1
100
AcDbLine
 10
2746.970589276556
 20
3172.494269174611
 30
0.0
 11
2752.970589276556
 21
3172.494269174611
 31
0.0
  0
LINE
  5
18D72
330
18C7A
100
AcDbEntity
  8
部品1
100
AcDbLine
 10
2746.970589276556
 20
3172.494269174611
 30
0.0
 11
2746.970589276556
 21
3154.494269174611
 31
0.0
  0
LINE
  5
18D73
330
18C7A
100
AcDbEntity
  8
部品1
100
AcDbLine
 10
2769.470589276556
 20
2702.494269174615
 30
0.0
 11
2794.470589276556
 21
2702.494269174615
 31
0.0
  0
LINE
  5
18D74
330
18C7A
100
AcDbEntity
  8
部品1
 48
50.0
100
AcDbLine
 10
2794.470589276556
 20
3154.494269174615
 30
0.0
 11
2794.470589276556
 21
2702.494269174615
 31
0.0
  0
LINE
  5
18D75
330
18C7A
100
AcDbEntity
  8
部品1
 48
50.0
100
AcDbLine
 10
2769.470589276554
 20
3154.494269174618
 30
0.0
 11
2769.470589276556
 21
2702.494269174615
 31
0.0
  0
LINE
  5
18D76
330
18C7A
100
AcDbEntity
  8
部品1
 48
50.0
100
AcDbLine
 10
2795.470589276556
 20
3152.494269174607
 30
0.0
 11
2795.470589276556
 21
2702.494269174615
 31
0.0
  0
LINE
  5
18D77
330
18C7A
100
AcDbEntity
  8
部品1
 48
50.0
100
AcDbLine
 10
2767.470589276556
 20
3152.494269174611
 30
0.0
 11
2767.470589276556
 21
2702.494269174615
 31
0.0
  0
LINE
  5
18D78
330
18C7A
100
AcDbEntity
  8
破線
 48
10.0
100
AcDbLine
 10
2176.97058927653
 20
1448.994269174509
 30
0.0
 11
2176.97058927653
 21
2702.494269174588
 31
0.0
  0
LINE
  5
18D79
330
18C7A
100
AcDbEntity
  8
破線
 48
10.0
100
AcDbLine
 10
2126.970589276534
 20
1448.994269174505
 30
0.0
 11
2126.970589276531
 21
2702.494269174586
 31
0.0
  0
LINE
  5
18D7A
330
18C7A
100
AcDbEntity
  8
部品1
100
AcDbLine
 10
2794.470589276556
 20
3154.494269174622
 30
0.0
 11
3858.970589276556
 21
3154.494269174604
 31
0.0
  0
LINE
  5
18D7B
330
18C7A
100
AcDbEntity
  8
細線
 48
50.0
100
AcDbLine
 10
3858.470589276556
 20
2702.494269174608
 30
0.0
 11
2795.470589276556
 21
3152.494269174607
 31
0.0
  0
LINE
  5
18D7C
330
18C7A
100
AcDbEntity
  8
部品1
100
AcDbLine
 10
2795.470589276555
 20
2702.494269174615
 30
0.0
 11
3858.470589276556
 21
2702.494269174608
 31
0.0
  0
LINE
  5
18D7D
330
18C7A
100
AcDbEntity
  8
部品1
100
AcDbLine
 10
2795.470589276556
 20
3152.494269174611
 30
0.0
 11
3858.470589276556
 21
3152.494269174604
 31
0.0
  0
LINE
  5
18D7E
330
18C7A
100
AcDbEntity
  8
細線
 48
50.0
100
AcDbLine
 10
3858.470589276556
 20
3152.494269174604
 30
0.0
 11
2795.470589276555
 21
2702.494269174615
 31
0.0
  0
DIMENSION
  5
18D7F
330
18C7A
100
AcDbEntity
  8
寸法
100
AcDbDimension
  2
*D10
 10
3801.234916278101
 20
2488.887829538937
 30
0.0
 11
3318.360544398907
 21
2488.887829538937
 31
0.0
 12
-3742.925985830444
 22
-6453.628869860112
 32
0.0
 70
   128
 71
     5
 42
1063.000000000012
  3
INABA_S40G
100
AcDbAlignedDimension
 13
2795.470589276555
 23
2702.494269174615
 33
0.0
 14
3858.470589276567
 24
2702.494269174608
 34
0.0
100
AcDbRotatedDimension
1001
ACAD
1000
DSTYLE
1002
{
1002
}
  0
LINE
  5
18D80
330
18C7A
100
AcDbEntity
  8
破線
 48
10.0
100
AcDbLine
 10
3806.970589276556
 20
1472.494269174594
 30
0.0
 11
3009.47058927653
 21
1472.494269174523
 31
0.0
  0
DIMENSION
  5
18D81
330
18C7A
100
AcDbEntity
  8
寸法
100
AcDbDimension
  2
*D9
 10
4534.396935010941
 20
1392.494269174596
 30
0.0
 11
4534.39693501094
 21
1084.008987800356
 31
0.0
 12
-3742.925985830444
 22
-6453.628869860112
 32
0.0
 70
   128
 71
     5
 42
54.99999999999636
  3
INABA_S40G
100
AcDbAlignedDimension
 13
3886.970589276531
 23
1447.494269174593
 33
0.0
 14
3886.970589276531
 24
1392.494269174596
 34
0.0
 50
90.0
100
AcDbRotatedDimension
1001
ACAD
1000
DSTYLE
1002
{
1002
}
  0
LINE
  5
18D82
330
18C7A
100
AcDbEntity
  8
部品1
100
AcDbLine
 10
471.9705892765196
 20
3182.494269174477
 30
0.0
 11
471.9705892765232
 21
3154.494269174477
 31
0.0
  0
LINE
  5
18D83
330
18C7A
100
AcDbEntity
  8
部品1
100
AcDbLine
 10
471.9705892765559
 20
3182.494269174509
 30
0.0
 11
471.9705892765559
 21
3154.494269174509
 31
0.0
  0
LINE
  5
18D84
330
18C7A
100
AcDbEntity
  8
部品1
100
AcDbLine
 10
444.9705892765232
 20
3127.49426917448
 30
0.0
 11
416.9705892765232
 21
3127.49426917448
 31
0.0
  0
LINE
  5
18D85
330
18C7A
100
AcDbEntity
  8
部品1
100
AcDbLine
 10
444.9705892765305
 20
2707.49426917448
 30
0.0
 11
416.9705892765305
 21
2707.49426917448
 31
0.0
  0
LINE
  5
18D86
330
18C7A
100
AcDbEntity
  8
部品1
 48
50.0
100
AcDbLine
 10
445.4705892765542
 20
3152.494269174506
 30
0.0
 11
445.4705892765559
 21
2702.494269174505
 31
0.0
  0
LINE
  5
18D87
330
18C7A
100
AcDbEntity
  8
部品1
 48
50.0
100
AcDbLine
 10
473.470589276545
 20
1448.994269174573
 30
0.0
 11
444.970589276545
 21
1420.494269174574
 31
0.0
  0
LINE
  5
18D88
330
18C7A
100
AcDbEntity
  8
部品1
100
AcDbLine
 10
471.9705892765232
 20
1392.494269174465
 30
0.0
 11
416.9705892765486
 21
1392.494269174465
 31
0.0
  0
LINE
  5
18D89
330
18C7A
100
AcDbEntity
  8
部品1
100
AcDbLine
 10
444.9705892765305
 20
1447.494269174429
 30
0.0
 11
416.9705892765469
 21
1447.494269174429
 31
0.0
  0
LINE
  5
18D8A
330
18C7A
100
AcDbEntity
  8
部品1
100
AcDbLine
 10
444.9705892765305
 20
1447.494269174465
 30
0.0
 11
416.9705892765469
 21
1447.494269174465
 31
0.0
  0
LINE
  5
18D8B
330
18C7A
100
AcDbEntity
  8
部品1
100
AcDbLine
 10
444.9705892765469
 20
1447.49426917448
 30
0.0
 11
416.9705892765469
 21
1447.49426917448
 31
0.0
  0
LINE
  5
18D8C
330
18C7A
100
AcDbEntity
  8
部品1
100
AcDbLine
 10
416.9705892765469
 20
1447.494269174429
 30
0.0
 11
416.9705892765486
 21
1392.494269174433
 31
0.0
  0
LINE
  5
18D8D
330
18C7A
100
AcDbEntity
  8
部品1
100
AcDbLine
 10
416.9705892765196
 20
3182.494269174477
 30
0.0
 11
416.9705892765486
 21
1392.494269174465
 31
0.0
  0
LINE
  5
18D8E
330
18C7A
100
AcDbEntity
  8
部品1
100
AcDbLine
 10
444.9705892765305
 20
1420.494269174556
 30
0.0
 11
444.9705892765559
 21
3154.494269174509
 31
0.0
  0
LINE
  5
18D8F
330
18C7A
100
AcDbEntity
  8
部品1
100
AcDbLine
 10
473.4705892765323
 20
2702.494269174608
 30
0.0
 11
473.470589276545
 21
1448.994269174571
 31
0.0
  0
LINE
  5
18D90
330
18C7A
100
AcDbEntity
  8
破線
 48
10.0
100
AcDbLine
 10
496.9705892765305
 20
2702.494269174608
 30
0.0
 11
496.9705892765451
 21
1472.494269174476
 31
0.0
  0
DIMENSION
  5
18D91
330
18C7A
100
AcDbEntity
  8
寸法
100
AcDbDimension
  2
*D8
 10
3886.970589276531
 20
410.7433333855515
 30
0.0
 11
2168.197775309287
 21
410.7433333855515
 31
0.0
 12
-3742.925985830444
 22
-6453.628869860112
 32
0.0
 70
   128
 71
     5
 42
3469.999999999982
  3
INABA_S40G
100
AcDbAlignedDimension
 13
416.9705892765486
 23
1392.494269174433
 33
0.0
 14
3886.970589276531
 24
1392.49426917456
 34
0.0
100
AcDbRotatedDimension
1001
ACAD
1000
DSTYLE
1002
{
1070
   341
1005
0
1002
}
  0
LINE
  5
18D92
330
18C7A
100
AcDbEntity
  8
部品1
100
AcDbLine
 10
444.9705892765559
 20
3154.494269174624
 30
0.0
 11
1509.470589276487
 21
3154.494269174626
 31
0.0
  0
LINE
  5
18D93
330
18C7A
100
AcDbEntity
  8
部品1
100
AcDbLine
 10
3886.970589276531
 20
1392.494269174596
 30
0.0
 11
3411.970589276556
 21
1392.494269174582
 31
0.0
  0
LINE
  5
18D94
330
18C7A
100
AcDbEntity
  8
部品1
100
AcDbLine
 10
416.9705892765559
 20
3182.494269174509
 30
0.0
 11
3886.970589276556
 21
3182.494269174604
 31
0.0
  0
LINE
  5
18D95
330
18C7A
100
AcDbEntity
  8
部品1
100
AcDbLine
 10
445.4705892765559
 20
2702.494269174509
 30
0.0
 11
1508.470589276487
 21
2702.494269174558
 31
0.0
  0
LINE
  5
18D96
330
18C7A
100
AcDbEntity
  8
細線
 48
50.0
100
AcDbLine
 10
2767.470589276556
 20
3152.494269174611
 30
0.0
 11
1536.470589276487
 21
2702.494269174558
 31
0.0
  0
LINE
  5
18D97
330
18C7A
100
AcDbEntity
  8
部品1
100
AcDbLine
 10
445.4705892765542
 20
3152.494269174509
 30
0.0
 11
1508.470589276485
 21
3152.494269174558
 31
0.0
  0
LINE
  5
18D98
330
18C7A
100
AcDbEntity
  8
細線
 48
50.0
100
AcDbLine
 10
2767.470589276554
 20
2702.494269174615
 30
0.0
 11
1536.470589276485
 21
3152.494269174558
 31
0.0
  0
LINE
  5
18D99
330
18C7A
100
AcDbEntity
  8
破線
 48
10.0
100
AcDbLine
 10
2126.970589276534
 20
1472.494269174502
 30
0.0
 11
1344.47058927653
 21
1472.494269174473
 31
0.0
  0
LINE
  5
18D9A
330
18C7A
100
AcDbEntity
  8
部品1
100
AcDbLine
 10
3830.470589276556
 20
1448.994269174596
 30
0.0
 11
473.4705892764487
 21
1448.994269174476
 31
0.0
  0
DIMENSION
  5
18D9B
330
18C7A
100
AcDbEntity
  8
寸法
100
AcDbDimension
  2
*D7
 10
471.970589276555
 20
3698.302488799491
 30
0.0
 11
108.4853079022819
 21
3698.302488799491
 31
0.0
 12
-3742.925985830444
 22
-6453.628869860112
 32
0.0
 70
   128
 71
     5
 42
55.00000000003456
  3
INABA_S40G
100
AcDbAlignedDimension
 13
416.9705892765205
 23
3182.494269174509
 33
0.0
 14
471.970589276555
 24
3182.494269174509
 34
0.0
100
AcDbRotatedDimension
1001
ACAD
1000
DSTYLE
1002
{
1002
}
  0
DIMENSION
  5
18D9C
330
18C7A
100
AcDbEntity
  8
寸法
100
AcDbDimension
  2
*D6
 10
4534.396935010967
 20
3127.494269174607
 30
0.0
 11
4534.396935010965
 21
3490.979550548844
 31
0.0
 12
-3742.925985830444
 22
-6453.628869860112
 32
0.0
 70
   128
 71
     5
 42
54.99999999999636
  3
INABA_S40G
100
AcDbAlignedDimension
 13
3886.970589276556
 23
3182.494269174604
 33
0.0
 14
3886.970589276556
 24
3127.494269174607
 34
0.0
 50
90.0
100
AcDbRotatedDimension
1001
ACAD
1000
DSTYLE
1002
{
1002
}
  0
DIMENSION
  5
18D9D
330
18C7A
100
AcDbEntity
  8
寸法
100
AcDbDimension
  2
*D5
 10
3886.970589276556
 20
3698.302488799589
 30
0.0
 11
4195.455870650794
 21
3698.302488799589
 31
0.0
 12
-3742.925985830444
 22
-6453.628869860112
 32
0.0
 70
   128
 71
     5
 42
55.0
  3
INABA_S40G
100
AcDbAlignedDimension
 13
3831.970589276556
 23
3182.494269174604
 33
0.0
 14
3886.970589276556
 24
3182.494269174604
 34
0.0
100
AcDbRotatedDimension
1001
ACAD
1000
DSTYLE
1002
{
1002
}
  0
DIMENSION
  5
18D9E
330
18C7A
100
AcDbEntity
  8
寸法
100
AcDbDimension
  2
*D4
 10
3831.970589276556
 20
3698.302488799607
 30
0.0
 11
2151.970589276555
 21
3698.302488799607
 31
0.0
 12
-3742.925985830444
 22
-6453.628869860112
 32
0.0
 70
   128
  1
8X420=<>
 71
     5
 42
3360.000000000001
  3
INABA_S40G
100
AcDbAlignedDimension
 13
471.970589276555
 23
3182.494269174509
 33
0.0
 14
3831.970589276556
 24
3182.494269174604
 34
0.0
100
AcDbRotatedDimension
1001
ACAD
1000
DSTYLE
1002
{
1002
}
  0
DIMENSION
  5
18D9F
330
18C7A
100
AcDbEntity
  8
寸法
100
AcDbDimension
  2
*D3
 10
4899.503876750603
 20
1392.494269174596
 30
0.0
 11
4899.503876750601
 21
2287.4942691746
 31
0.0
 12
-3742.925985830444
 22
-6453.628869860112
 32
0.0
 70
   128
 71
     5
 42
1790.000000000007
  3
INABA_S40G
100
AcDbAlignedDimension
 13
3886.970589276556
 23
3182.494269174604
 33
0.0
 14
3886.970589276531
 24
1392.494269174596
 34
0.0
 50
90.0
100
AcDbRotatedDimension
1001
ACAD
1000
DSTYLE
1002
{
1002
}
  0
ENDBLK
  5
18DA1
330
18C7A
100
AcDbEntity
  8
0
 48
50.0
100
AcDbBlockEnd
  0
BLOCK
  5
1C4CB
330
1C4CA
100
AcDbEntity
  8
0
 48
50.0
100
AcDbBlockBegin
  2
_NONE
 70
     0
 10
0.0
 20
0.0
 30
0.0
  3
_NONE
  1

  0
CIRCLE
  5
1C4CC
330
1C4CA
100
AcDbEntity
  8
0
  6
ByBlock
 62
     0
 48
50.0
100
AcDbCircle
 10
0.0
 20
0.0
 30
0.0
 40
0.25
  0
ENDBLK
  5
1C4CD
330
1C4CA
100
AcDbEntity
  8
0
 48
50.0
100
AcDbBlockEnd
  0
BLOCK
  5
20DEE
330
20DE2
100
AcDbEntity
  8
0
 48
50.0
100
AcDbBlockBegin
  2
*D19
 70
     1
 10
0.0
 20
0.0
 30
0.0
  3
*D19
  1

  0
LINE
  5
24FE0
330
20DE2
100
AcDbEntity
  8
寸法
 62
     0
 48
50.0
370
    -2
100
AcDbLine
 10
10688.6
 20
7878.176748306326
 30
0.0
 11
10688.6
 21
8876.397070365248
 31
0.0
  0
LINE
  5
24FE1
330
20DE2
100
AcDbEntity
  8
寸法
 62
     0
 48
50.0
370
    -2
100
AcDbLine
 10
10733.6
 20
8604.443206400238
 30
0.0
 11
10733.6
 21
8876.397070365248
 31
0.0
  0
LINE
  5
24FE2
330
20DE2
100
AcDbEntity
  8
寸法
 62
     0
 48
50.0
370
    -2
100
AcDbLine
 10
10688.6
 20
8816.397070365248
 30
0.0
 11
10588.6
 21
8816.397070365248
 31
0.0
  0
LINE
  5
24FE3
330
20DE2
100
AcDbEntity
  8
寸法
 62
     0
 48
50.0
370
    -2
100
AcDbLine
 10
10733.6
 20
8816.397070365248
 30
0.0
 11
11070.94924240492
 21
8816.397070365248
 31
0.0
  0
LINE
  5
24FE4
330
20DE2
100
AcDbEntity
  8
寸法
 62
     0
 48
50.0
370
    -2
100
AcDbLine
 10
10688.6
 20
8816.397070365248
 30
0.0
 11
10733.6
 21
8816.397070365248
 31
0.0
  0
INSERT
  5
24FE5
330
20DE2
100
AcDbEntity
  8
寸法
 62
     0
 48
50.0
370
    -2
100
AcDbBlockReference
  2
_DOTSMALL
 10
10688.6
 20
8816.397070365248
 30
0.0
 41
100.0
 42
100.0
 43
100.0
  0
INSERT
  5
24FE6
330
20DE2
100
AcDbEntity
  8
寸法
 62
     0
 48
50.0
370
    -2
100
AcDbBlockReference
  2
_DOTSMALL
 10
10733.6
 20
8816.397070365248
 30
0.0
 41
100.0
 42
100.0
 43
100.0
 50
180.0
  0
MTEXT
  5
24FE7
330
20DE2
100
AcDbEntity
  8
寸法
 62
     7
 48
50.0
100
AcDbMText
 10
11004.77462120246
 20
8916.397070365247
 30
0.0
 40
120.0
 41
0.0
 71
     5
 72
     1
  1
\A1;a
  7
STYLE1
 73
     1
 44
1.0
1001
ACAD
1000
MTEXTBEGIN
1070
    73
1070
     1
1070
    44
1040
1.0
1070
    74
1070
     0
1000
MTEXTEND
  0
POINT
  5
24FE8
330
20DE2
100
AcDbEntity
  8
DEFPOINTS
 62
     0
 48
50.0
100
AcDbPoint
 10
10688.6
 20
7858.176748306327
 30
0.0
  0
POINT
  5
24FE9
330
20DE2
100
AcDbEntity
  8
DEFPOINTS
 62
     0
 48
50.0
100
AcDbPoint
 10
10733.6
 20
8584.443206400237
 30
0.0
  0
POINT
  5
24FEA
330
20DE2
100
AcDbEntity
  8
DEFPOINTS
 62
     0
 48
50.0
100
AcDbPoint
 10
10733.6
 20
8816.397070365248
 30
0.0
  0
ENDBLK
  5
20DEF
330
20DE2
100
AcDbEntity
  8
0
 48
50.0
100
AcDbBlockEnd
  0
BLOCK
  5
20E08
330
20DFC
100
AcDbEntity
  8
0
 48
50.0
100
AcDbBlockBegin
  2
*D20
 70
     1
 10
0.0
 20
0.0
 30
0.0
  3
*D20
  1

  0
LINE
  5
2501F
330
20DFC
100
AcDbEntity
  8
寸法
 62
     0
 48
50.0
370
    -2
100
AcDbLine
 10
5713.6
 20
8604.443206400256
 30
0.0
 11
5713.6
 21
8876.397070365264
 31
0.0
  0
LINE
  5
25020
330
20DFC
100
AcDbEntity
  8
寸法
 62
     0
 48
50.0
370
    -2
100
AcDbLine
 10
5758.599999999997
 20
7878.176748306343
 30
0.0
 11
5758.599999999997
 21
8876.397070365264
 31
0.0
  0
LINE
  5
25021
330
20DFC
100
AcDbEntity
  8
寸法
 62
     0
 48
50.0
370
    -2
100
AcDbLine
 10
5758.599999999997
 20
8816.397070365265
 30
0.0
 11
5858.599999999997
 21
8816.397070365265
 31
0.0
  0
LINE
  5
25022
330
20DFC
100
AcDbEntity
  8
寸法
 62
     0
 48
50.0
370
    -2
100
AcDbLine
 10
5713.6
 20
8816.397070365265
 30
0.0
 11
5376.250757595079
 21
8816.397070365265
 31
0.0
  0
LINE
  5
25023
330
20DFC
100
AcDbEntity
  8
寸法
 62
     0
 48
50.0
370
    -2
100
AcDbLine
 10
5758.599999999997
 20
8816.397070365265
 30
0.0
 11
5713.6
 21
8816.397070365265
 31
0.0
  0
INSERT
  5
25024
330
20DFC
100
AcDbEntity
  8
寸法
 62
     0
 48
50.0
370
    -2
100
AcDbBlockReference
  2
_DOTSMALL
 10
5758.599999999997
 20
8816.397070365265
 30
0.0
 41
100.0
 42
100.0
 43
100.0
 50
180.0
  0
INSERT
  5
25025
330
20DFC
100
AcDbEntity
  8
寸法
 62
     0
 48
50.0
370
    -2
100
AcDbBlockReference
  2
_DOTSMALL
 10
5713.6
 20
8816.397070365265
 30
0.0
 41
100.0
 42
100.0
 43
100.0
  0
MTEXT
  5
25026
330
20DFC
100
AcDbEntity
  8
寸法
 62
     7
 48
50.0
100
AcDbMText
 10
5442.425378797537
 20
8916.397070365265
 30
0.0
 40
120.0
 41
0.0
 71
     5
 72
     1
  1
\A1;a
  7
STYLE1
 73
     1
 44
1.0
1001
ACAD
1000
MTEXTBEGIN
1070
    73
1070
     1
1070
    44
1040
1.0
1070
    74
1070
     0
1000
MTEXTEND
  0
POINT
  5
25027
330
20DFC
100
AcDbEntity
  8
DEFPOINTS
 62
     0
 48
50.0
100
AcDbPoint
 10
5713.6
 20
8584.443206400257
 30
0.0
  0
POINT
  5
25028
330
20DFC
100
AcDbEntity
  8
DEFPOINTS
 62
     0
 48
50.0
100
AcDbPoint
 10
5758.599999999997
 20
7858.176748306343
 30
0.0
  0
POINT
  5
25029
330
20DFC
100
AcDbEntity
  8
DEFPOINTS
 62
     0
 48
50.0
100
AcDbPoint
 10
5758.599999999997
 20
8816.397070365265
 30
0.0
  0
ENDBLK
  5
20E09
330
20DFC
100
AcDbEntity
  8
0
 48
50.0
100
AcDbBlockEnd
  0
BLOCK
  5
2274E
330
22742
100
AcDbEntity
  8
0
 48
50.0
100
AcDbBlockBegin
  2
*D25
 70
     1
 10
0.0
 20
0.0
 30
0.0
  3
*D25
  1

  0
LINE
  5
25009
330
22742
100
AcDbEntity
  8
寸法
 62
     0
 48
50.0
370
    -2
100
AcDbLine
 10
5115.665006330067
 20
7933.176748306363
 30
0.0
 11
4823.721909610672
 21
7933.176748306363
 31
0.0
  0
LINE
  5
2500A
330
22742
100
AcDbEntity
  8
寸法
 62
     0
 48
50.0
370
    -2
100
AcDbLine
 10
5738.599999999997
 20
7858.176748306343
 30
0.0
 11
4823.721909610672
 21
7858.176748306343
 31
0.0
  0
LINE
  5
2500B
330
22742
100
AcDbEntity
  8
寸法
 62
     0
 48
50.0
370
    -2
100
AcDbLine
 10
4883.72190961067
 20
7933.176748306363
 30
0.0
 11
4883.72190961067
 21
8033.176748306363
 31
0.0
  0
LINE
  5
2500C
330
22742
100
AcDbEntity
  8
寸法
 62
     0
 48
50.0
370
    -2
100
AcDbLine
 10
4883.72190961067
 20
7858.176748306343
 30
0.0
 11
4883.72190961067
 21
7758.176748306343
 31
0.0
  0
LINE
  5
2500D
330
22742
100
AcDbEntity
  8
寸法
 62
     0
 48
50.0
370
    -2
100
AcDbLine
 10
4883.72190961067
 20
7933.176748306363
 30
0.0
 11
4883.72190961067
 21
7858.176748306343
 31
0.0
  0
INSERT
  5
2500E
330
22742
100
AcDbEntity
  8
寸法
 62
     0
 48
50.0
370
    -2
100
AcDbBlockReference
  2
_DOTSMALL
 10
4883.72190961067
 20
7933.176748306363
 30
0.0
 41
100.0
 42
100.0
 43
100.0
 50
270.0
  0
INSERT
  5
2500F
330
22742
100
AcDbEntity
  8
寸法
 62
     0
 48
50.0
370
    -2
100
AcDbBlockReference
  2
_DOTSMALL
 10
4883.72190961067
 20
7858.176748306343
 30
0.0
 41
100.0
 42
100.0
 43
100.0
 50
90.0
  0
MTEXT
  5
25010
330
22742
100
AcDbEntity
  8
寸法
 62
     7
 48
50.0
100
AcDbMText
 10
4783.72190961067
 20
7895.676748306354
 30
0.0
 40
120.0
 41
0.0
 71
     5
 72
     1
  1
\A1;c
  7
STYLE1
 11
0.0000000000000001
 21
1.0
 31
0.0
 73
     1
 44
1.0
1001
ACAD
1000
MTEXTBEGIN
1070
    73
1070
     1
1070
    44
1040
1.0
1070
    74
1070
     0
1000
MTEXTEND
  0
POINT
  5
25011
330
22742
100
AcDbEntity
  8
DEFPOINTS
 62
     0
 48
50.0
100
AcDbPoint
 10
5135.665006330068
 20
7933.176748306363
 30
0.0
  0
POINT
  5
25012
330
22742
100
AcDbEntity
  8
DEFPOINTS
 62
     0
 48
50.0
100
AcDbPoint
 10
5758.599999999997
 20
7858.176748306343
 30
0.0
  0
POINT
  5
25013
330
22742
100
AcDbEntity
  8
DEFPOINTS
 62
     0
 48
50.0
100
AcDbPoint
 10
4883.72190961067
 20
7858.176748306343
 30
0.0
  0
ENDBLK
  5
2274F
330
22742
100
AcDbEntity
  8
0
 48
50.0
100
AcDbBlockEnd
  0
BLOCK
  5
22768
330
2275C
100
AcDbEntity
  8
0
 48
50.0
100
AcDbBlockBegin
  2
*D26
 70
     1
 10
0.0
 20
0.0
 30
0.0
  3
*D26
  1

  0
LINE
  5
25014
330
2275C
100
AcDbEntity
  8
寸法
 62
     0
 48
50.0
370
    -2
100
AcDbLine
 10
5738.599999999997
 20
6478.176748306329
 30
0.0
 11
4823.721909610672
 21
6478.176748306329
 31
0.0
  0
LINE
  5
25015
330
2275C
100
AcDbEntity
  8
寸法
 62
     0
 48
50.0
370
    -2
100
AcDbLine
 10
5115.665006330069
 20
6423.176748306369
 30
0.0
 11
4823.721909610672
 21
6423.176748306369
 31
0.0
  0
LINE
  5
25016
330
2275C
100
AcDbEntity
  8
寸法
 62
     0
 48
50.0
370
    -2
100
AcDbLine
 10
4883.72190961067
 20
6478.176748306329
 30
0.0
 11
4883.72190961067
 21
6578.176748306329
 31
0.0
  0
LINE
  5
25017
330
2275C
100
AcDbEntity
  8
寸法
 62
     0
 48
50.0
370
    -2
100
AcDbLine
 10
4883.72190961067
 20
6423.176748306369
 30
0.0
 11
4883.72190961067
 21
6323.176748306369
 31
0.0
  0
LINE
  5
25018
330
2275C
100
AcDbEntity
  8
寸法
 62
     0
 48
50.0
370
    -2
100
AcDbLine
 10
4883.72190961067
 20
6478.176748306329
 30
0.0
 11
4883.72190961067
 21
6423.176748306369
 31
0.0
  0
INSERT
  5
25019
330
2275C
100
AcDbEntity
  8
寸法
 62
     0
 48
50.0
370
    -2
100
AcDbBlockReference
  2
_DOTSMALL
 10
4883.72190961067
 20
6478.176748306329
 30
0.0
 41
100.0
 42
100.0
 43
100.0
 50
270.0
  0
INSERT
  5
2501A
330
2275C
100
AcDbEntity
  8
寸法
 62
     0
 48
50.0
370
    -2
100
AcDbBlockReference
  2
_DOTSMALL
 10
4883.72190961067
 20
6423.176748306369
 30
0.0
 41
100.0
 42
100.0
 43
100.0
 50
90.0
  0
MTEXT
  5
2501B
330
2275C
100
AcDbEntity
  8
寸法
 62
     7
 48
50.0
100
AcDbMText
 10
4783.721909610669
 20
6450.676748306349
 30
0.0
 40
120.0
 41
0.0
 71
     5
 72
     1
  1
\A1;b
  7
STYLE1
 11
0.0000000000000001
 21
1.0
 31
0.0
 73
     1
 44
1.0
1001
ACAD
1000
MTEXTBEGIN
1070
    73
1070
     1
1070
    44
1040
1.0
1070
    74
1070
     0
1000
MTEXTEND
  0
POINT
  5
2501C
330
2275C
100
AcDbEntity
  8
DEFPOINTS
 62
     0
 48
50.0
100
AcDbPoint
 10
5758.599999999997
 20
6478.176748306329
 30
0.0
  0
POINT
  5
2501D
330
2275C
100
AcDbEntity
  8
DEFPOINTS
 62
     0
 48
50.0
100
AcDbPoint
 10
5135.66500633007
 20
6423.176748306369
 30
0.0
  0
POINT
  5
2501E
330
2275C
100
AcDbEntity
  8
DEFPOINTS
 62
     0
 48
50.0
100
AcDbPoint
 10
4883.72190961067
 20
6423.176748306369
 30
0.0
  0
ENDBLK
  5
22769
330
2275C
100
AcDbEntity
  8
0
 48
50.0
100
AcDbBlockEnd
  0
BLOCK
  5
22B08
330
22AFD
100
AcDbEntity
  8
0
 48
50.0
100
AcDbBlockBegin
  2
*D27
 70
     1
 10
0.0
 20
0.0
 30
0.0
  3
*D27
  1

  0
LINE
  5
254AC
330
22AFD
100
AcDbEntity
  8
寸法
 62
     0
 48
50.0
370
    -2
100
AcDbLine
 10
10688.6
 20
7557.332539617807
 30
0.0
 11
10688.6
 21
7500.339275578973
 31
0.0
  0
LINE
  5
254AD
330
22AFD
100
AcDbEntity
  8
寸法
 62
     0
 48
50.0
370
    -2
100
AcDbLine
 10
10568.6
 20
7580.339275578975
 30
0.0
 11
10568.6
 21
7620.339275578974
 31
0.0
  0
LINE
  5
254AE
330
22AFD
100
AcDbEntity
  8
寸法
 62
     0
 48
50.0
370
    -2
100
AcDbLine
 10
10568.6
 20
7560.339275578974
 30
0.0
 11
10688.6
 21
7560.339275578974
 31
0.0
  0
LINE
  5
254AF
330
22AFD
100
AcDbEntity
  8
寸法
 62
     0
 48
50.0
370
    -2
100
AcDbLine
 10
10688.6
 20
7560.339275578974
 30
0.0
 11
11094.7062992126
 21
7560.339275578974
 31
0.0
  0
INSERT
  5
254B0
330
22AFD
100
AcDbEntity
  8
寸法
 62
     0
 48
50.0
370
    -2
100
AcDbBlockReference
  2
_DOTSMALL
 10
10568.6
 20
7560.339275578974
 30
0.0
 41
100.0
 42
100.0
 43
100.0
 50
180.0
  0
INSERT
  5
254B1
330
22AFD
100
AcDbEntity
  8
寸法
 62
     0
 48
50.0
370
    -2
100
AcDbBlockReference
  2
_DOTSMALL
 10
10688.6
 20
7560.339275578974
 30
0.0
 41
100.0
 42
100.0
 43
100.0
  0
MTEXT
  5
254B2
330
22AFD
100
AcDbEntity
  8
寸法
 62
     7
 48
50.0
100
AcDbMText
 10
10958.65905511811
 20
7660.351086602595
 30
0.0
 40
120.0
 41
0.0
 71
     5
 72
     1
  1
\A1;120
  7
STYLE1
 73
     1
 44
1.0
1001
ACAD
1000
MTEXTBEGIN
1070
    73
1070
     1
1070
    44
1040
1.0
1070
    74
1070
     0
1000
MTEXTEND
  0
POINT
  5
254B3
330
22AFD
100
AcDbEntity
  8
DEFPOINTS
 62
     0
 48
50.0
100
AcDbPoint
 10
10688.6
 20
7577.332539617806
 30
0.0
  0
POINT
  5
254B4
330
22AFD
100
AcDbEntity
  8
DEFPOINTS
 62
     0
 48
50.0
100
AcDbPoint
 10
10568.6
 20
7560.339275578974
 30
0.0
  0
POINT
  5
254B5
330
22AFD
100
AcDbEntity
  8
DEFPOINTS
 62
     0
 48
50.0
100
AcDbPoint
 10
10568.6
 20
7560.339275578974
 30
0.0
  0
ENDBLK
  5
22B09
330
22AFD
100
AcDbEntity
  8
0
 48
50.0
100
AcDbBlockEnd
  0
BLOCK
  5
22B15
330
22B0A
100
AcDbEntity
  8
0
 48
50.0
100
AcDbBlockBegin
  2
*D28
 70
     1
 10
0.0
 20
0.0
 30
0.0
  3
*D28
  1

  0
LINE
  5
250C4
330
22B0A
100
AcDbEntity
  8
寸法
 62
     0
 48
50.0
370
    -2
100
AcDbLine
 10
10174.53475000041
 20
6758.176748306346
 30
0.0
 11
10055.46950000081
 21
6758.176748306346
 31
0.0
  0
LINE
  5
250C5
330
22B0A
100
AcDbEntity
  8
寸法
 62
     0
 48
50.0
370
    -2
100
AcDbLine
 10
10174.53475000041
 20
6478.176748306353
 30
0.0
 11
10055.46950000081
 21
6478.176748306353
 31
0.0
  0
LINE
  5
250C6
330
22B0A
100
AcDbEntity
  8
寸法
 62
     0
 48
50.0
370
    -2
100
AcDbLine
 10
10115.46950000081
 20
6758.176748306346
 30
0.0
 11
10115.46950000081
 21
6478.176748306353
 31
0.0
  0
LINE
  5
250C7
330
22B0A
100
AcDbEntity
  8
寸法
 62
     0
 48
50.0
370
    -2
100
AcDbLine
 10
10115.46950000081
 20
6478.176748306353
 30
0.0
 11
10115.46950000081
 21
6041.642299487441
 31
0.0
  0
INSERT
  5
250C8
330
22B0A
100
AcDbEntity
  8
寸法
 62
     0
 48
50.0
370
    -2
100
AcDbBlockReference
  2
_DOTSMALL
 10
10115.46950000081
 20
6758.176748306346
 30
0.0
 41
100.0
 42
100.0
 43
100.0
 50
90.0
  0
INSERT
  5
250C9
330
22B0A
100
AcDbEntity
  8
寸法
 62
     0
 48
50.0
370
    -2
100
AcDbBlockReference
  2
_DOTSMALL
 10
10115.46950000081
 20
6478.176748306353
 30
0.0
 41
100.0
 42
100.0
 43
100.0
 50
270.0
  0
MTEXT
  5
250CA
330
22B0A
100
AcDbEntity
  8
寸法
 62
     7
 48
50.0
100
AcDbMText
 10
10015.45768897719
 20
6191.213165629175
 30
0.0
 40
120.0
 41
0.0
 71
     5
 72
     1
  1
\A1;280
  7
STYLE1
 11
0.0000000000000001
 21
1.0
 31
0.0
 73
     1
 44
1.0
1001
ACAD
1000
MTEXTBEGIN
1070
    73
1070
     1
1070
    44
1040
1.0
1070
    74
1070
     0
1000
MTEXTEND
  0
POINT
  5
250CB
330
22B0A
100
AcDbEntity
  8
DEFPOINTS
 62
     0
 48
50.0
100
AcDbPoint
 10
10194.53475000041
 20
6758.176748306346
 30
0.0
  0
POINT
  5
250CC
330
22B0A
100
AcDbEntity
  8
DEFPOINTS
 62
     0
 48
50.0
100
AcDbPoint
 10
10194.53475000041
 20
6478.176748306353
 30
0.0
  0
POINT
  5
250CD
330
22B0A
100
AcDbEntity
  8
DEFPOINTS
 62
     0
 48
50.0
100
AcDbPoint
 10
10115.46950000081
 20
6478.176748306353
 30
0.0
  0
ENDBLK
  5
22B16
330
22B0A
100
AcDbEntity
  8
0
 48
50.0
100
AcDbBlockEnd
  0
BLOCK
  5
22B22
330
22B17
100
AcDbEntity
  8
0
 48
50.0
100
AcDbBlockBegin
  2
*D29
 70
     1
 10
0.0
 20
0.0
 30
0.0
  3
*D29
  1

  0
LINE
  5
24FFF
330
22B17
100
AcDbEntity
  8
寸法
 62
     0
 48
50.0
370
    -2
100
AcDbLine
 10
10174.53475000041
 20
7858.176748306323
 30
0.0
 11
10055.46950000081
 21
7858.176748306323
 31
0.0
  0
LINE
  5
25000
330
22B17
100
AcDbEntity
  8
寸法
 62
     0
 48
50.0
370
    -2
100
AcDbLine
 10
10174.53475000041
 20
7658.176748306328
 30
0.0
 11
10055.46950000081
 21
7658.176748306328
 31
0.0
  0
LINE
  5
25001
330
22B17
100
AcDbEntity
  8
寸法
 62
     0
 48
50.0
370
    -2
100
AcDbLine
 10
10115.46950000081
 20
7658.176748306328
 30
0.0
 11
10115.46950000081
 21
7858.176748306323
 31
0.0
  0
LINE
  5
25002
330
22B17
100
AcDbEntity
  8
寸法
 62
     0
 48
50.0
370
    -2
100
AcDbLine
 10
10115.46950000081
 20
7858.176748306323
 30
0.0
 11
10115.46950000081
 21
8294.711197125222
 31
0.0
  0
INSERT
  5
25003
330
22B17
100
AcDbEntity
  8
寸法
 62
     0
 48
50.0
370
    -2
100
AcDbBlockReference
  2
_DOTSMALL
 10
10115.46950000081
 20
7658.176748306328
 30
0.0
 41
100.0
 42
100.0
 43
100.0
 50
270.0
  0
INSERT
  5
25004
330
22B17
100
AcDbEntity
  8
寸法
 62
     0
 48
50.0
370
    -2
100
AcDbBlockReference
  2
_DOTSMALL
 10
10115.46950000081
 20
7858.176748306323
 30
0.0
 41
100.0
 42
100.0
 43
100.0
 50
90.0
  0
MTEXT
  5
25005
330
22B17
100
AcDbEntity
  8
寸法
 62
     7
 48
50.0
100
AcDbMText
 10
10015.45768897719
 20
8145.14033098349
 30
0.0
 40
120.0
 41
0.0
 71
     5
 72
     1
  1
\A1;200
  7
STYLE1
 11
0.0000000000000001
 21
1.0
 31
0.0
 73
     1
 44
1.0
1001
ACAD
1000
MTEXTBEGIN
1070
    73
1070
     1
1070
    44
1040
1.0
1070
    74
1070
     0
1000
MTEXTEND
  0
POINT
  5
25006
330
22B17
100
AcDbEntity
  8
DEFPOINTS
 62
     0
 48
50.0
100
AcDbPoint
 10
10194.53475000041
 20
7858.176748306323
 30
0.0
  0
POINT
  5
25007
330
22B17
100
AcDbEntity
  8
DEFPOINTS
 62
     0
 48
50.0
100
AcDbPoint
 10
10194.53475000041
 20
7658.176748306328
 30
0.0
  0
POINT
  5
25008
330
22B17
100
AcDbEntity
  8
DEFPOINTS
 62
     0
 48
50.0
100
AcDbPoint
 10
10115.46950000081
 20
7658.176748306328
 30
0.0
  0
ENDBLK
  5
22B23
330
22B17
100
AcDbEntity
  8
0
 48
50.0
100
AcDbBlockEnd
  0
BLOCK
  5
24A7D
330
24A73
100
AcDbEntity
  8
0
 48
50.0
100
AcDbBlockBegin
  2
*D30
 70
     1
 10
0.0
 20
0.0
 30
0.0
  3
*D30
  1

  0
LINE
  5
250E1
330
24A73
100
AcDbEntity
  8
寸法
 62
     0
 48
50.0
370
    -2
100
AcDbLine
 10
9863.60000000001
 20
7275.176748306328
 30
0.0
 11
9863.60000000001
 21
8400.785564976578
 31
0.0
  0
LINE
  5
250E2
330
24A73
100
AcDbEntity
  8
寸法
 62
     0
 48
50.0
370
    -2
100
AcDbLine
 10
9043.60000000001
 20
7275.176748306328
 30
0.0
 11
9043.60000000001
 21
8400.785564976578
 31
0.0
  0
LINE
  5
250E3
330
24A73
100
AcDbEntity
  8
寸法
 62
     0
 48
50.0
370
    -2
100
AcDbLine
 10
9863.60000000001
 20
8340.785564976577
 30
0.0
 11
9043.60000000001
 21
8340.785564976577
 31
0.0
  0
INSERT
  5
250E4
330
24A73
100
AcDbEntity
  8
寸法
 62
     0
 48
50.0
370
    -2
100
AcDbBlockReference
  2
_DOTSMALL
 10
9863.60000000001
 20
8340.785564976577
 30
0.0
 41
100.0
 42
100.0
 43
100.0
  0
INSERT
  5
250E5
330
24A73
100
AcDbEntity
  8
寸法
 62
     0
 48
50.0
370
    -2
100
AcDbBlockReference
  2
_DOTSMALL
 10
9043.60000000001
 20
8340.785564976577
 30
0.0
 41
100.0
 42
100.0
 43
100.0
 50
180.0
  0
MTEXT
  5
250E6
330
24A73
100
AcDbEntity
  8
寸法
 62
     7
 48
50.0
100
AcDbMText
 10
9453.60000000001
 20
8440.797376000199
 30
0.0
 40
120.0
 41
0.0
 71
     5
 72
     1
  1
\A1;820
  7
STYLE1
 73
     1
 44
1.0
1001
ACAD
1000
MTEXTBEGIN
1070
    73
1070
     1
1070
    44
1040
1.0
1070
    74
1070
     0
1000
MTEXTEND
  0
POINT
  5
250E7
330
24A73
100
AcDbEntity
  8
DEFPOINTS
 62
     0
 48
50.0
100
AcDbPoint
 10
9863.60000000001
 20
7255.176748306329
 30
0.0
  0
POINT
  5
250E8
330
24A73
100
AcDbEntity
  8
DEFPOINTS
 62
     0
 48
50.0
100
AcDbPoint
 10
9043.60000000001
 20
7255.176748306329
 30
0.0
  0
POINT
  5
250E9
330
24A73
100
AcDbEntity
  8
DEFPOINTS
 62
     0
 48
50.0
100
AcDbPoint
 10
9043.60000000001
 20
8340.785564976577
 30
0.0
  0
ENDBLK
  5
24A7E
330
24A73
100
AcDbEntity
  8
0
 48
50.0
100
AcDbBlockEnd
  0
BLOCK
  5
24A8A
330
24A7F
100
AcDbEntity
  8
0
 48
50.0
100
AcDbBlockBegin
  2
*D31
 70
     1
 10
0.0
 20
0.0
 30
0.0
  3
*D31
  1

  0
LINE
  5
24F3A
330
24A7F
100
AcDbEntity
  8
寸法
 62
     0
 48
50.0
370
    -2
100
AcDbLine
 10
10688.6
 20
7878.176748306329
 30
0.0
 11
10688.6
 21
8644.443206400239
 31
0.0
  0
LINE
  5
24F3B
330
24A7F
100
AcDbEntity
  8
寸法
 62
     0
 48
50.0
370
    -2
100
AcDbLine
 10
10565.6
 20
7805.176748306329
 30
0.0
 11
10565.6
 21
8644.443206400239
 31
0.0
  0
LINE
  5
24F3C
330
24A7F
100
AcDbEntity
  8
寸法
 62
     0
 48
50.0
370
    -2
100
AcDbLine
 10
10565.6
 20
8584.443206400239
 30
0.0
 11
10688.6
 21
8584.443206400239
 31
0.0
  0
LINE
  5
24F3D
330
24A7F
100
AcDbEntity
  8
寸法
 62
     0
 48
50.0
370
    -2
100
AcDbLine
 10
10688.6
 20
8584.443206400239
 30
0.0
 11
11100.19188309204
 21
8584.443206400239
 31
0.0
  0
INSERT
  5
24F3E
330
24A7F
100
AcDbEntity
  8
寸法
 62
     0
 48
50.0
370
    -2
100
AcDbBlockReference
  2
_DOTSMALL
 10
10565.6
 20
8584.443206400239
 30
0.0
 41
100.0
 42
100.0
 43
100.0
 50
180.0
  0
INSERT
  5
24F3F
330
24A7F
100
AcDbEntity
  8
寸法
 62
     0
 48
50.0
370
    -2
100
AcDbBlockReference
  2
_DOTSMALL
 10
10688.6
 20
8584.443206400239
 30
0.0
 41
100.0
 42
100.0
 43
100.0
  0
MTEXT
  5
24F40
330
24A7F
100
AcDbEntity
  8
寸法
 62
     7
 48
50.0
100
AcDbMText
 10
10961.7066017178
 20
8684.455017423863
 30
0.0
 40
120.0
 41
0.0
 71
     5
 72
     1
  1
\A1;123
  7
STYLE1
 73
     1
 44
1.0
1001
ACAD
1000
MTEXTBEGIN
1070
    73
1070
     1
1070
    44
1040
1.0
1070
    74
1070
     0
1000
MTEXTEND
  0
POINT
  5
24F41
330
24A7F
100
AcDbEntity
  8
DEFPOINTS
 62
     0
 48
50.0
100
AcDbPoint
 10
10688.6
 20
7858.176748306329
 30
0.0
  0
POINT
  5
24F42
330
24A7F
100
AcDbEntity
  8
DEFPOINTS
 62
     0
 48
50.0
100
AcDbPoint
 10
10565.6
 20
7785.176748306328
 30
0.0
  0
POINT
  5
24F43
330
24A7F
100
AcDbEntity
  8
DEFPOINTS
 62
     0
 48
50.0
100
AcDbPoint
 10
10565.6
 20
8584.443206400239
 30
0.0
  0
ENDBLK
  5
24A8B
330
24A7F
100
AcDbEntity
  8
0
 48
50.0
100
AcDbBlockEnd
  0
BLOCK
  5
24AB0
330
24AA6
100
AcDbEntity
  8
0
 48
50.0
100
AcDbBlockBegin
  2
*D32
 70
     1
 10
0.0
 20
0.0
 30
0.0
  3
*D32
  1

  0
LINE
  5
25120
330
24AA6
100
AcDbEntity
  8
寸法
 62
     0
 48
50.0
370
    -2
100
AcDbLine
 10
9043.60000000001
 20
7275.176748306328
 30
0.0
 11
9043.60000000001
 21
8400.785564976578
 31
0.0
  0
LINE
  5
25121
330
24AA6
100
AcDbEntity
  8
寸法
 62
     0
 48
50.0
370
    -2
100
AcDbLine
 10
8223.60000000001
 20
7275.176748306328
 30
0.0
 11
8223.60000000001
 21
8400.785564976578
 31
0.0
  0
LINE
  5
25122
330
24AA6
100
AcDbEntity
  8
寸法
 62
     0
 48
50.0
370
    -2
100
AcDbLine
 10
9043.60000000001
 20
8340.785564976577
 30
0.0
 11
8223.60000000001
 21
8340.785564976577
 31
0.0
  0
INSERT
  5
25123
330
24AA6
100
AcDbEntity
  8
寸法
 62
     0
 48
50.0
370
    -2
100
AcDbBlockReference
  2
_DOTSMALL
 10
9043.60000000001
 20
8340.785564976577
 30
0.0
 41
100.0
 42
100.0
 43
100.0
  0
INSERT
  5
25124
330
24AA6
100
AcDbEntity
  8
寸法
 62
     0
 48
50.0
370
    -2
100
AcDbBlockReference
  2
_DOTSMALL
 10
8223.60000000001
 20
8340.785564976577
 30
0.0
 41
100.0
 42
100.0
 43
100.0
 50
180.0
  0
MTEXT
  5
25125
330
24AA6
100
AcDbEntity
  8
寸法
 62
     7
 48
50.0
100
AcDbMText
 10
8633.60000000001
 20
8440.797376000199
 30
0.0
 40
120.0
 41
0.0
 71
     5
 72
     1
  1
\A1;820
  7
STYLE1
 73
     1
 44
1.0
1001
ACAD
1000
MTEXTBEGIN
1070
    73
1070
     1
1070
    44
1040
1.0
1070
    74
1070
     0
1000
MTEXTEND
  0
POINT
  5
25126
330
24AA6
100
AcDbEntity
  8
DEFPOINTS
 62
     0
 48
50.0
100
AcDbPoint
 10
9043.60000000001
 20
7255.176748306329
 30
0.0
  0
POINT
  5
25127
330
24AA6
100
AcDbEntity
  8
DEFPOINTS
 62
     0
 48
50.0
100
AcDbPoint
 10
8223.60000000001
 20
7255.176748306329
 30
0.0
  0
POINT
  5
25128
330
24AA6
100
AcDbEntity
  8
DEFPOINTS
 62
     0
 48
50.0
100
AcDbPoint
 10
8223.60000000001
 20
8340.785564976577
 30
0.0
  0
ENDBLK
  5
24AB1
330
24AA6
100
AcDbEntity
  8
0
 48
50.0
100
AcDbBlockEnd
  0
BLOCK
  5
24ABC
330
24AB2
100
AcDbEntity
  8
0
 48
50.0
100
AcDbBlockBegin
  2
*D33
 70
     1
 10
0.0
 20
0.0
 30
0.0
  3
*D33
  1

  0
LINE
  5
24F8D
330
24AB2
100
AcDbEntity
  8
寸法
 62
     0
 48
50.0
370
    -2
100
AcDbLine
 10
10565.6
 20
7805.176748306329
 30
0.0
 11
10565.6
 21
8644.443206400239
 31
0.0
  0
LINE
  5
24F8E
330
24AB2
100
AcDbEntity
  8
寸法
 62
     0
 48
50.0
370
    -2
100
AcDbLine
 10
8105.6
 20
7805.176748306329
 30
0.0
 11
8105.6
 21
8644.443206400239
 31
0.0
  0
LINE
  5
24F8F
330
24AB2
100
AcDbEntity
  8
寸法
 62
     0
 48
50.0
370
    -2
100
AcDbLine
 10
10565.6
 20
8584.443206400239
 30
0.0
 11
8105.6
 21
8584.443206400239
 31
0.0
  0
INSERT
  5
24F90
330
24AB2
100
AcDbEntity
  8
寸法
 62
     0
 48
50.0
370
    -2
100
AcDbBlockReference
  2
_DOTSMALL
 10
10565.6
 20
8584.443206400239
 30
0.0
 41
100.0
 42
100.0
 43
100.0
  0
INSERT
  5
24F91
330
24AB2
100
AcDbEntity
  8
寸法
 62
     0
 48
50.0
370
    -2
100
AcDbBlockReference
  2
_DOTSMALL
 10
8105.6
 20
8584.443206400239
 30
0.0
 41
100.0
 42
100.0
 43
100.0
 50
180.0
  0
MTEXT
  5
24F92
330
24AB2
100
AcDbEntity
  8
寸法
 62
     7
 48
50.0
100
AcDbMText
 10
9335.600000000003
 20
8684.455017423863
 30
0.0
 40
120.0
 41
0.0
 71
     5
 72
     1
  1
\A1;2460
  7
STYLE1
 73
     1
 44
1.0
1001
ACAD
1000
MTEXTBEGIN
1070
    73
1070
     1
1070
    44
1040
1.0
1070
    74
1070
     0
1000
MTEXTEND
  0
POINT
  5
24F93
330
24AB2
100
AcDbEntity
  8
DEFPOINTS
 62
     0
 48
50.0
100
AcDbPoint
 10
10565.6
 20
7785.176748306328
 30
0.0
  0
POINT
  5
24F94
330
24AB2
100
AcDbEntity
  8
DEFPOINTS
 62
     0
 48
50.0
100
AcDbPoint
 10
8105.6
 20
7785.176748306328
 30
0.0
  0
POINT
  5
24F95
330
24AB2
100
AcDbEntity
  8
DEFPOINTS
 62
     0
 48
50.0
100
AcDbPoint
 10
8105.6
 20
8584.443206400239
 30
0.0
  0
ENDBLK
  5
24ABD
330
24AB2
100
AcDbEntity
  8
0
 48
50.0
100
AcDbBlockEnd
  0
BLOCK
  5
24AC8
330
24ABE
100
AcDbEntity
  8
0
 48
50.0
100
AcDbBlockBegin
  2
*D34
 70
     1
 10
0.0
 20
0.0
 30
0.0
  3
*D34
  1

  0
LINE
  5
24F84
330
24ABE
100
AcDbEntity
  8
寸法
 62
     0
 48
50.0
370
    -2
100
AcDbLine
 10
5758.6
 20
7878.176748306329
 30
0.0
 11
5758.6
 21
8876.397070365248
 31
0.0
  0
LINE
  5
24F85
330
24ABE
100
AcDbEntity
  8
寸法
 62
     0
 48
50.0
370
    -2
100
AcDbLine
 10
10688.6
 20
7878.176748306329
 30
0.0
 11
10688.6
 21
8876.397070365248
 31
0.0
  0
LINE
  5
24F86
330
24ABE
100
AcDbEntity
  8
寸法
 62
     0
 48
50.0
370
    -2
100
AcDbLine
 10
5758.6
 20
8816.397070365246
 30
0.0
 11
10688.6
 21
8816.397070365246
 31
0.0
  0
INSERT
  5
24F87
330
24ABE
100
AcDbEntity
  8
寸法
 62
     0
 48
50.0
370
    -2
100
AcDbBlockReference
  2
_DOTSMALL
 10
5758.6
 20
8816.397070365246
 30
0.0
 41
100.0
 42
100.0
 43
100.0
 50
180.0
  0
INSERT
  5
24F88
330
24ABE
100
AcDbEntity
  8
寸法
 62
     0
 48
50.0
370
    -2
100
AcDbBlockReference
  2
_DOTSMALL
 10
10688.6
 20
8816.397070365246
 30
0.0
 41
100.0
 42
100.0
 43
100.0
  0
MTEXT
  5
24F89
330
24ABE
100
AcDbEntity
  8
寸法
 62
     7
 48
50.0
100
AcDbMText
 10
8223.600000000001
 20
8916.397070365247
 30
0.0
 40
120.0
 41
0.0
 71
     5
 72
     1
  1
\A1;4930
  7
STYLE1
 73
     1
 44
1.0
1001
ACAD
1000
MTEXTBEGIN
1070
    73
1070
     1
1070
    44
1040
1.0
1070
    74
1070
     0
1000
MTEXTEND
  0
POINT
  5
24F8A
330
24ABE
100
AcDbEntity
  8
DEFPOINTS
 62
     0
 48
50.0
100
AcDbPoint
 10
5758.6
 20
7858.176748306329
 30
0.0
  0
POINT
  5
24F8B
330
24ABE
100
AcDbEntity
  8
DEFPOINTS
 62
     0
 48
50.0
100
AcDbPoint
 10
10688.6
 20
7858.176748306329
 30
0.0
  0
POINT
  5
24F8C
330
24ABE
100
AcDbEntity
  8
DEFPOINTS
 62
     0
 48
50.0
100
AcDbPoint
 10
10688.6
 20
8816.397070365246
 30
0.0
  0
ENDBLK
  5
24AC9
330
24ABE
100
AcDbEntity
  8
0
 48
50.0
100
AcDbBlockEnd
  0
BLOCK
  5
24AD3
330
24ACA
100
AcDbEntity
  8
0
 48
50.0
100
AcDbBlockBegin
  2
*D35
 70
     1
 10
0.0
 20
0.0
 30
0.0
  3
*D35
  1

  0
LINE
  5
25117
330
24ACA
100
AcDbEntity
  8
寸法
 62
     0
 48
50.0
370
    -2
100
AcDbLine
 10
7403.600000000008
 20
7275.176748306328
 30
0.0
 11
7403.600000000008
 21
8400.785564976578
 31
0.0
  0
LINE
  5
25118
330
24ACA
100
AcDbEntity
  8
寸法
 62
     0
 48
50.0
370
    -2
100
AcDbLine
 10
6583.600000000007
 20
7275.176748306328
 30
0.0
 11
6583.600000000007
 21
8400.785564976578
 31
0.0
  0
LINE
  5
25119
330
24ACA
100
AcDbEntity
  8
寸法
 62
     0
 48
50.0
370
    -2
100
AcDbLine
 10
7403.600000000008
 20
8340.785564976577
 30
0.0
 11
6583.600000000007
 21
8340.785564976577
 31
0.0
  0
INSERT
  5
2511A
330
24ACA
100
AcDbEntity
  8
寸法
 62
     0
 48
50.0
370
    -2
100
AcDbBlockReference
  2
_DOTSMALL
 10
7403.600000000008
 20
8340.785564976577
 30
0.0
 41
100.0
 42
100.0
 43
100.0
  0
INSERT
  5
2511B
330
24ACA
100
AcDbEntity
  8
寸法
 62
     0
 48
50.0
370
    -2
100
AcDbBlockReference
  2
_DOTSMALL
 10
6583.600000000007
 20
8340.785564976577
 30
0.0
 41
100.0
 42
100.0
 43
100.0
 50
180.0
  0
MTEXT
  5
2511C
330
24ACA
100
AcDbEntity
  8
寸法
 62
     7
 48
50.0
100
AcDbMText
 10
6993.600000000007
 20
8440.797376000199
 30
0.0
 40
120.0
 41
0.0
 71
     5
 72
     1
  1
\A1;820
  7
STYLE1
 73
     1
 44
1.0
1001
ACAD
1000
MTEXTBEGIN
1070
    73
1070
     1
1070
    44
1040
1.0
1070
    74
1070
     0
1000
MTEXTEND
  0
POINT
  5
2511D
330
24ACA
100
AcDbEntity
  8
DEFPOINTS
 62
     0
 48
50.0
100
AcDbPoint
 10
7403.600000000008
 20
7255.176748306329
 30
0.0
  0
POINT
  5
2511E
330
24ACA
100
AcDbEntity
  8
DEFPOINTS
 62
     0
 48
50.0
100
AcDbPoint
 10
6583.600000000007
 20
7255.176748306329
 30
0.0
  0
POINT
  5
2511F
330
24ACA
100
AcDbEntity
  8
DEFPOINTS
 62
     0
 48
50.0
100
AcDbPoint
 10
6583.600000000007
 20
8340.785564976577
 30
0.0
  0
ENDBLK
  5
24AD4
330
24ACA
100
AcDbEntity
  8
0
 48
50.0
100
AcDbBlockEnd
  0
BLOCK
  5
24ADF
330
24AD5
100
AcDbEntity
  8
0
 48
50.0
100
AcDbBlockBegin
  2
*D36
 70
     1
 10
0.0
 20
0.0
 30
0.0
  3
*D36
  1

  0
LINE
  5
25129
330
24AD5
100
AcDbEntity
  8
寸法
 62
     0
 48
50.0
370
    -2
100
AcDbLine
 10
6513.600000000007
 20
7205.176748306328
 30
0.0
 11
6181.285990614301
 21
7205.176748306328
 31
0.0
  0
LINE
  5
2512A
330
24AD5
100
AcDbEntity
  8
寸法
 62
     0
 48
50.0
370
    -2
100
AcDbLine
 10
6312.7654751409
 20
7858.176748306329
 30
0.0
 11
6181.285990614301
 21
7858.176748306329
 31
0.0
  0
LINE
  5
2512B
330
24AD5
100
AcDbEntity
  8
寸法
 62
     0
 48
50.0
370
    -2
100
AcDbLine
 10
6241.285990614301
 20
7205.176748306328
 30
0.0
 11
6241.285990614301
 21
7858.176748306329
 31
0.0
  0
INSERT
  5
2512C
330
24AD5
100
AcDbEntity
  8
寸法
 62
     0
 48
50.0
370
    -2
100
AcDbBlockReference
  2
_DOTSMALL
 10
6241.285990614301
 20
7205.176748306328
 30
0.0
 41
100.0
 42
100.0
 43
100.0
 50
270.0
  0
INSERT
  5
2512D
330
24AD5
100
AcDbEntity
  8
寸法
 62
     0
 48
50.0
370
    -2
100
AcDbBlockReference
  2
_DOTSMALL
 10
6241.285990614301
 20
7858.176748306329
 30
0.0
 41
100.0
 42
100.0
 43
100.0
 50
90.0
  0
MTEXT
  5
2512E
330
24AD5
100
AcDbEntity
  8
寸法
 62
     7
 48
50.0
100
AcDbMText
 10
6141.2859906143
 20
7457.54796476617
 30
0.0
 40
120.0
 41
0.0
 71
     5
 72
     1
  1
\A1;653
  7
STYLE1
 11
0.0000000000000001
 21
1.0
 31
0.0
 73
     1
 44
1.0
1001
ACAD
1000
MTEXTBEGIN
1070
    73
1070
     1
1070
    44
1040
1.0
1070
    74
1070
     0
1000
MTEXTEND
  0
POINT
  5
2512F
330
24AD5
100
AcDbEntity
  8
DEFPOINTS
 62
     0
 48
50.0
100
AcDbPoint
 10
6533.600000000006
 20
7205.176748306328
 30
0.0
  0
POINT
  5
25130
330
24AD5
100
AcDbEntity
  8
DEFPOINTS
 62
     0
 48
50.0
100
AcDbPoint
 10
6332.7654751409
 20
7858.176748306329
 30
0.0
  0
POINT
  5
25131
330
24AD5
100
AcDbEntity
  8
DEFPOINTS
 62
     0
 48
50.0
100
AcDbPoint
 10
6241.285990614301
 20
7858.176748306329
 30
0.0
  0
ENDBLK
  5
24AE0
330
24AD5
100
AcDbEntity
  8
0
 48
50.0
100
AcDbBlockEnd
  0
BLOCK
  5
24AEB
330
24AE1
100
AcDbEntity
  8
0
 48
50.0
100
AcDbBlockBegin
  2
*D37
 70
     1
 10
0.0
 20
0.0
 30
0.0
  3
*D37
  1

  0
LINE
  5
25105
330
24AE1
100
AcDbEntity
  8
寸法
 62
     0
 48
50.0
370
    -2
100
AcDbLine
 10
6583.600000000007
 20
7275.176748306328
 30
0.0
 11
6583.600000000007
 21
8400.785564976578
 31
0.0
  0
LINE
  5
25106
330
24AE1
100
AcDbEntity
  8
寸法
 62
     0
 48
50.0
370
    -2
100
AcDbLine
 10
5758.6
 20
7878.176748306329
 30
0.0
 11
5758.6
 21
8400.785564976578
 31
0.0
  0
LINE
  5
25107
330
24AE1
100
AcDbEntity
  8
寸法
 62
     0
 48
50.0
370
    -2
100
AcDbLine
 10
6583.600000000007
 20
8340.785564976577
 30
0.0
 11
5758.6
 21
8340.785564976577
 31
0.0
  0
INSERT
  5
25108
330
24AE1
100
AcDbEntity
  8
寸法
 62
     0
 48
50.0
370
    -2
100
AcDbBlockReference
  2
_DOTSMALL
 10
6583.600000000007
 20
8340.785564976577
 30
0.0
 41
100.0
 42
100.0
 43
100.0
  0
INSERT
  5
25109
330
24AE1
100
AcDbEntity
  8
寸法
 62
     0
 48
50.0
370
    -2
100
AcDbBlockReference
  2
_DOTSMALL
 10
5758.6
 20
8340.785564976577
 30
0.0
 41
100.0
 42
100.0
 43
100.0
 50
180.0
  0
MTEXT
  5
2510A
330
24AE1
100
AcDbEntity
  8
寸法
 62
     7
 48
50.0
100
AcDbMText
 10
6171.100000000003
 20
8440.797376000199
 30
0.0
 40
120.0
 41
0.0
 71
     5
 72
     1
  1
\A1;825
  7
STYLE1
 73
     1
 44
1.0
1001
ACAD
1000
MTEXTBEGIN
1070
    73
1070
     1
1070
    44
1040
1.0
1070
    74
1070
     0
1000
MTEXTEND
  0
POINT
  5
2510B
330
24AE1
100
AcDbEntity
  8
DEFPOINTS
 62
     0
 48
50.0
100
AcDbPoint
 10
6583.600000000007
 20
7255.176748306329
 30
0.0
  0
POINT
  5
2510C
330
24AE1
100
AcDbEntity
  8
DEFPOINTS
 62
     0
 48
50.0
100
AcDbPoint
 10
5758.6
 20
7858.176748306329
 30
0.0
  0
POINT
  5
2510D
330
24AE1
100
AcDbEntity
  8
DEFPOINTS
 62
     0
 48
50.0
100
AcDbPoint
 10
5758.6
 20
8340.785564976577
 30
0.0
  0
ENDBLK
  5
24AEC
330
24AE1
100
AcDbEntity
  8
0
 48
50.0
100
AcDbBlockEnd
  0
BLOCK
  5
24AF6
330
24AED
100
AcDbEntity
  8
0
 48
50.0
100
AcDbBlockBegin
  2
*D38
 70
     1
 10
0.0
 20
0.0
 30
0.0
  3
*D38
  1

  0
LINE
  5
250FC
330
24AED
100
AcDbEntity
  8
寸法
 62
     0
 48
50.0
370
    -2
100
AcDbLine
 10
8223.60000000001
 20
7275.176748306328
 30
0.0
 11
8223.60000000001
 21
8400.785564976578
 31
0.0
  0
LINE
  5
250FD
330
24AED
100
AcDbEntity
  8
寸法
 62
     0
 48
50.0
370
    -2
100
AcDbLine
 10
7403.600000000007
 20
7275.176748306328
 30
0.0
 11
7403.600000000007
 21
8400.785564976578
 31
0.0
  0
LINE
  5
250FE
330
24AED
100
AcDbEntity
  8
寸法
 62
     0
 48
50.0
370
    -2
100
AcDbLine
 10
8223.60000000001
 20
8340.785564976577
 30
0.0
 11
7403.600000000007
 21
8340.785564976577
 31
0.0
  0
INSERT
  5
250FF
330
24AED
100
AcDbEntity
  8
寸法
 62
     0
 48
50.0
370
    -2
100
AcDbBlockReference
  2
_DOTSMALL
 10
8223.60000000001
 20
8340.785564976577
 30
0.0
 41
100.0
 42
100.0
 43
100.0
  0
INSERT
  5
25100
330
24AED
100
AcDbEntity
  8
寸法
 62
     0
 48
50.0
370
    -2
100
AcDbBlockReference
  2
_DOTSMALL
 10
7403.600000000007
 20
8340.785564976577
 30
0.0
 41
100.0
 42
100.0
 43
100.0
 50
180.0
  0
MTEXT
  5
25101
330
24AED
100
AcDbEntity
  8
寸法
 62
     7
 48
50.0
100
AcDbMText
 10
7813.600000000008
 20
8440.797376000199
 30
0.0
 40
120.0
 41
0.0
 71
     5
 72
     1
  1
\A1;820
  7
STYLE1
 73
     1
 44
1.0
1001
ACAD
1000
MTEXTBEGIN
1070
    73
1070
     1
1070
    44
1040
1.0
1070
    74
1070
     0
1000
MTEXTEND
  0
POINT
  5
25102
330
24AED
100
AcDbEntity
  8
DEFPOINTS
 62
     0
 48
50.0
100
AcDbPoint
 10
8223.60000000001
 20
7255.176748306329
 30
0.0
  0
POINT
  5
25103
330
24AED
100
AcDbEntity
  8
DEFPOINTS
 62
     0
 48
50.0
100
AcDbPoint
 10
7403.600000000007
 20
7255.176748306329
 30
0.0
  0
POINT
  5
25104
330
24AED
100
AcDbEntity
  8
DEFPOINTS
 62
     0
 48
50.0
100
AcDbPoint
 10
7403.600000000007
 20
8340.785564976577
 30
0.0
  0
ENDBLK
  5
24AF7
330
24AED
100
AcDbEntity
  8
0
 48
50.0
100
AcDbBlockEnd
  0
BLOCK
  5
24B02
330
24AF8
100
AcDbEntity
  8
0
 48
50.0
100
AcDbBlockBegin
  2
*D39
 70
     1
 10
0.0
 20
0.0
 30
0.0
  3
*D39
  1

  0
LINE
  5
24FC5
330
24AF8
100
AcDbEntity
  8
寸法
 62
     0
 48
50.0
370
    -2
100
AcDbLine
 10
5738.599999999999
 20
7858.176748306329
 30
0.0
 11
4823.721909610674
 21
7858.176748306329
 31
0.0
  0
LINE
  5
24FC6
330
24AF8
100
AcDbEntity
  8
寸法
 62
     0
 48
50.0
370
    -2
100
AcDbLine
 10
5738.599999999999
 20
6478.176748306329
 30
0.0
 11
4823.721909610674
 21
6478.176748306329
 31
0.0
  0
LINE
  5
24FC7
330
24AF8
100
AcDbEntity
  8
寸法
 62
     0
 48
50.0
370
    -2
100
AcDbLine
 10
4883.721909610674
 20
7858.176748306329
 30
0.0
 11
4883.721909610674
 21
6478.176748306329
 31
0.0
  0
INSERT
  5
24FC8
330
24AF8
100
AcDbEntity
  8
寸法
 62
     0
 48
50.0
370
    -2
100
AcDbBlockReference
  2
_DOTSMALL
 10
4883.721909610674
 20
7858.176748306329
 30
0.0
 41
100.0
 42
100.0
 43
100.0
 50
90.0
  0
INSERT
  5
24FC9
330
24AF8
100
AcDbEntity
  8
寸法
 62
     0
 48
50.0
370
    -2
100
AcDbBlockReference
  2
_DOTSMALL
 10
4883.721909610674
 20
6478.176748306329
 30
0.0
 41
100.0
 42
100.0
 43
100.0
 50
270.0
  0
MTEXT
  5
24FCA
330
24AF8
100
AcDbEntity
  8
寸法
 62
     7
 48
50.0
100
AcDbMText
 10
4783.721909610672
 20
7205.676748306328
 30
0.0
 40
120.0
 41
0.0
 71
     5
 72
     1
  1
\A1;1380
  7
STYLE1
 11
0.0000000000000001
 21
1.0
 31
0.0
 73
     1
 44
1.0
1001
ACAD
1000
MTEXTBEGIN
1070
    73
1070
     1
1070
    44
1040
1.0
1070
    74
1070
     0
1000
MTEXTEND
  0
POINT
  5
24FCB
330
24AF8
100
AcDbEntity
  8
DEFPOINTS
 62
     0
 48
50.0
100
AcDbPoint
 10
5758.6
 20
7858.176748306329
 30
0.0
  0
POINT
  5
24FCC
330
24AF8
100
AcDbEntity
  8
DEFPOINTS
 62
     0
 48
50.0
100
AcDbPoint
 10
5758.6
 20
6478.176748306329
 30
0.0
  0
POINT
  5
24FCD
330
24AF8
100
AcDbEntity
  8
DEFPOINTS
 62
     0
 48
50.0
100
AcDbPoint
 10
4883.721909610674
 20
6478.176748306329
 30
0.0
  0
ENDBLK
  5
24B03
330
24AF8
100
AcDbEntity
  8
0
 48
50.0
100
AcDbBlockEnd
  0
BLOCK
  5
24B0E
330
24B04
100
AcDbEntity
  8
0
 48
50.0
100
AcDbBlockBegin
  2
*D40
 70
     1
 10
0.0
 20
0.0
 30
0.0
  3
*D40
  1

  0
LINE
  5
2504E
330
24B04
100
AcDbEntity
  8
寸法
 62
     0
 48
50.0
370
    -2
100
AcDbLine
 10
5811.599999999999
 20
7735.176748306328
 30
0.0
 11
5075.665006330073
 21
7735.176748306328
 31
0.0
  0
LINE
  5
2504F
330
24B04
100
AcDbEntity
  8
寸法
 62
     0
 48
50.0
370
    -2
100
AcDbLine
 10
5811.600000000007
 20
6676.176748306332
 30
0.0
 11
5075.665006330073
 21
6676.176748306332
 31
0.0
  0
LINE
  5
25050
330
24B04
100
AcDbEntity
  8
寸法
 62
     0
 48
50.0
370
    -2
100
AcDbLine
 10
5135.665006330071
 20
7735.176748306328
 30
0.0
 11
5135.665006330071
 21
6676.176748306332
 31
0.0
  0
INSERT
  5
25051
330
24B04
100
AcDbEntity
  8
寸法
 62
     0
 48
50.0
370
    -2
100
AcDbBlockReference
  2
_DOTSMALL
 10
5135.665006330071
 20
7735.176748306328
 30
0.0
 41
100.0
 42
100.0
 43
100.0
 50
90.0
  0
INSERT
  5
25052
330
24B04
100
AcDbEntity
  8
寸法
 62
     0
 48
50.0
370
    -2
100
AcDbBlockReference
  2
_DOTSMALL
 10
5135.665006330071
 20
6676.176748306332
 30
0.0
 41
100.0
 42
100.0
 43
100.0
 50
270.0
  0
MTEXT
  5
25053
330
24B04
100
AcDbEntity
  8
寸法
 62
     7
 48
50.0
100
AcDbMText
 10
5035.66500633007
 20
7205.676748306328
 30
0.0
 40
120.0
 41
0.0
 71
     5
 72
     1
  1
\A1;1059
  7
STYLE1
 11
0.0000000000000001
 21
1.0
 31
0.0
 73
     1
 44
1.0
1001
ACAD
1000
MTEXTBEGIN
1070
    73
1070
     1
1070
    44
1040
1.0
1070
    74
1070
     0
1000
MTEXTEND
  0
POINT
  5
25054
330
24B04
100
AcDbEntity
  8
DEFPOINTS
 62
     0
 48
50.0
100
AcDbPoint
 10
5831.599999999999
 20
7735.176748306328
 30
0.0
  0
POINT
  5
25055
330
24B04
100
AcDbEntity
  8
DEFPOINTS
 62
     0
 48
50.0
100
AcDbPoint
 10
5831.600000000007
 20
6676.176748306332
 30
0.0
  0
POINT
  5
25056
330
24B04
100
AcDbEntity
  8
DEFPOINTS
 62
     0
 48
50.0
100
AcDbPoint
 10
5135.665006330071
 20
6676.176748306332
 30
0.0
  0
ENDBLK
  5
24B0F
330
24B04
100
AcDbEntity
  8
0
 48
50.0
100
AcDbBlockEnd
  0
BLOCK
  5
24B1B
330
24B10
100
AcDbEntity
  8
0
 48
50.0
100
AcDbBlockBegin
  2
*D41
 70
     1
 10
0.0
 20
0.0
 30
0.0
  3
*D41
  1

  0
LINE
  5
25044
330
24B10
100
AcDbEntity
  8
寸法
 62
     0
 48
50.0
370
    -2
100
AcDbLine
 10
5811.600000000007
 20
6676.176748306332
 30
0.0
 11
5075.665006330073
 21
6676.176748306332
 31
0.0
  0
LINE
  5
25045
330
24B10
100
AcDbEntity
  8
寸法
 62
     0
 48
50.0
370
    -2
100
AcDbLine
 10
5738.599999999999
 20
6478.176748306329
 30
0.0
 11
5075.665006330073
 21
6478.176748306329
 31
0.0
  0
LINE
  5
25046
330
24B10
100
AcDbEntity
  8
寸法
 62
     0
 48
50.0
370
    -2
100
AcDbLine
 10
5135.665006330071
 20
6676.176748306332
 30
0.0
 11
5135.665006330071
 21
6478.176748306329
 31
0.0
  0
LINE
  5
25047
330
24B10
100
AcDbEntity
  8
寸法
 62
     0
 48
50.0
370
    -2
100
AcDbLine
 10
5135.665006330071
 20
6478.176748306329
 30
0.0
 11
5135.665006330071
 21
6006.436139634079
 31
0.0
  0
INSERT
  5
25048
330
24B10
100
AcDbEntity
  8
寸法
 62
     0
 48
50.0
370
    -2
100
AcDbBlockReference
  2
_DOTSMALL
 10
5135.665006330071
 20
6676.176748306332
 30
0.0
 41
100.0
 42
100.0
 43
100.0
 50
90.0
  0
INSERT
  5
25049
330
24B10
100
AcDbEntity
  8
寸法
 62
     0
 48
50.0
370
    -2
100
AcDbBlockReference
  2
_DOTSMALL
 10
5135.665006330071
 20
6478.176748306329
 30
0.0
 41
100.0
 42
100.0
 43
100.0
 50
270.0
  0
MTEXT
  5
2504A
330
24B10
100
AcDbEntity
  8
寸法
 62
     7
 48
50.0
100
AcDbMText
 10
5035.66500633007
 20
6142.645799463736
 30
0.0
 40
120.0
 41
0.0
 71
     5
 72
     1
  1
\A1;198
  7
STYLE1
 11
0.0000000000000001
 21
1.0
 31
0.0
 73
     1
 44
1.0
1001
ACAD
1000
MTEXTBEGIN
1070
    73
1070
     1
1070
    44
1040
1.0
1070
    74
1070
     0
1000
MTEXTEND
  0
POINT
  5
2504B
330
24B10
100
AcDbEntity
  8
DEFPOINTS
 62
     0
 48
50.0
100
AcDbPoint
 10
5831.600000000007
 20
6676.176748306332
 30
0.0
  0
POINT
  5
2504C
330
24B10
100
AcDbEntity
  8
DEFPOINTS
 62
     0
 48
50.0
100
AcDbPoint
 10
5758.6
 20
6478.176748306329
 30
0.0
  0
POINT
  5
2504D
330
24B10
100
AcDbEntity
  8
DEFPOINTS
 62
     0
 48
50.0
100
AcDbPoint
 10
5135.665006330071
 20
6478.176748306329
 30
0.0
  0
ENDBLK
  5
24B1C
330
24B10
100
AcDbEntity
  8
0
 48
50.0
100
AcDbBlockEnd
  0
BLOCK
  5
24B40
330
24B36
100
AcDbEntity
  8
0
 48
50.0
100
AcDbBlockBegin
  2
*D42
 70
     1
 10
0.0
 20
0.0
 30
0.0
  3
*D42
  1

  0
LINE
  5
24F9F
330
24B36
100
AcDbEntity
  8
寸法
 62
     0
 48
50.0
370
    -2
100
AcDbLine
 10
5738.600000000003
 20
6478.176748306324
 30
0.0
 11
5585.512673767881
 21
6478.176748306324
 31
0.0
  0
LINE
  5
24FA0
330
24B36
100
AcDbEntity
  8
寸法
 62
     0
 48
50.0
370
    -2
100
AcDbLine
 10
6094.325326928808
 20
5758.176748306325
 30
0.0
 11
5585.51267376788
 21
5758.176748306325
 31
0.0
  0
LINE
  5
24FA1
330
24B36
100
AcDbEntity
  8
寸法
 62
     0
 48
50.0
370
    -2
100
AcDbLine
 10
5645.512673767881
 20
6478.176748306324
 30
0.0
 11
5645.51267376788
 21
5758.176748306325
 31
0.0
  0
INSERT
  5
24FA2
330
24B36
100
AcDbEntity
  8
寸法
 62
     0
 48
50.0
370
    -2
100
AcDbBlockReference
  2
_DOTSMALL
 10
5645.512673767881
 20
6478.176748306324
 30
0.0
 41
100.0
 42
100.0
 43
100.0
 50
90.0
  0
INSERT
  5
24FA3
330
24B36
100
AcDbEntity
  8
寸法
 62
     0
 48
50.0
370
    -2
100
AcDbBlockReference
  2
_DOTSMALL
 10
5645.51267376788
 20
5758.176748306325
 30
0.0
 41
100.0
 42
100.0
 43
100.0
 50
270.0
  0
MTEXT
  5
24FA4
330
24B36
100
AcDbEntity
  8
寸法
 62
     7
 48
50.0
100
AcDbMText
 10
5545.500862744257
 20
6118.176748306326
 30
0.0
 40
120.0
 41
0.0
 71
     5
 72
     1
  1
\A1;扉の出720
  7
STYLE1
 11
0.0000000000000001
 21
1.0
 31
0.0
 73
     1
 44
1.0
1001
ACAD
1000
MTEXTBEGIN
1070
    73
1070
     1
1070
    44
1040
1.0
1070
    74
1070
     0
1000
MTEXTEND
  0
POINT
  5
24FA5
330
24B36
100
AcDbEntity
  8
DEFPOINTS
 62
     0
 48
50.0
100
AcDbPoint
 10
5758.600000000003
 20
6478.176748306324
 30
0.0
  0
POINT
  5
24FA6
330
24B36
100
AcDbEntity
  8
DEFPOINTS
 62
     0
 48
50.0
100
AcDbPoint
 10
6114.325326928808
 20
5758.176748306325
 30
0.0
  0
POINT
  5
24FA7
330
24B36
100
AcDbEntity
  8
DEFPOINTS
 62
     0
 48
50.0
100
AcDbPoint
 10
5645.51267376788
 20
5758.176748306325
 30
0.0
  0
ENDBLK
  5
24B41
330
24B36
100
AcDbEntity
  8
0
 48
50.0
100
AcDbBlockEnd
  0
BLOCK
  5
24B4C
330
24B42
100
AcDbEntity
  8
0
 48
50.0
100
AcDbBlockBegin
  2
*D43
 70
     1
 10
0.0
 20
0.0
 30
0.0
  3
*D43
  1

  0
LINE
  5
250F3
330
24B42
100
AcDbEntity
  8
寸法
 62
     0
 48
50.0
370
    -2
100
AcDbLine
 10
6312.7654751409
 20
6478.176748306339
 30
0.0
 11
6181.285990614301
 21
6478.176748306339
 31
0.0
  0
LINE
  5
250F4
330
24B42
100
AcDbEntity
  8
寸法
 62
     0
 48
50.0
370
    -2
100
AcDbLine
 10
6513.600000000007
 20
7205.176748306328
 30
0.0
 11
6181.285990614301
 21
7205.176748306328
 31
0.0
  0
LINE
  5
250F5
330
24B42
100
AcDbEntity
  8
寸法
 62
     0
 48
50.0
370
    -2
100
AcDbLine
 10
6241.285990614301
 20
6478.176748306339
 30
0.0
 11
6241.285990614301
 21
7205.176748306328
 31
0.0
  0
INSERT
  5
250F6
330
24B42
100
AcDbEntity
  8
寸法
 62
     0
 48
50.0
370
    -2
100
AcDbBlockReference
  2
_DOTSMALL
 10
6241.285990614301
 20
6478.176748306339
 30
0.0
 41
100.0
 42
100.0
 43
100.0
 50
270.0
  0
INSERT
  5
250F7
330
24B42
100
AcDbEntity
  8
寸法
 62
     0
 48
50.0
370
    -2
100
AcDbBlockReference
  2
_DOTSMALL
 10
6241.285990614301
 20
7205.176748306328
 30
0.0
 41
100.0
 42
100.0
 43
100.0
 50
90.0
  0
MTEXT
  5
250F8
330
24B42
100
AcDbEntity
  8
寸法
 62
     7
 48
50.0
100
AcDbMText
 10
6141.274179590677
 20
6920.176748306329
 30
0.0
 40
120.0
 41
0.0
 71
     5
 72
     1
  1
\A1;727
  7
STYLE1
 11
0.0000000000000001
 21
1.0
 31
0.0
 73
     1
 44
1.0
1001
ACAD
1000
MTEXTBEGIN
1070
    73
1070
     1
1070
    44
1040
1.0
1070
    74
1070
     0
1000
MTEXTEND
  0
POINT
  5
250F9
330
24B42
100
AcDbEntity
  8
DEFPOINTS
 62
     0
 48
50.0
100
AcDbPoint
 10
6332.7654751409
 20
6478.176748306339
 30
0.0
  0
POINT
  5
250FA
330
24B42
100
AcDbEntity
  8
DEFPOINTS
 62
     0
 48
50.0
100
AcDbPoint
 10
6533.600000000006
 20
7205.176748306328
 30
0.0
  0
POINT
  5
250FB
330
24B42
100
AcDbEntity
  8
DEFPOINTS
 62
     0
 48
50.0
100
AcDbPoint
 10
6241.285990614301
 20
7205.176748306328
 30
0.0
  0
ENDBLK
  5
24B4D
330
24B42
100
AcDbEntity
  8
0
 48
50.0
100
AcDbBlockEnd
  0
BLOCK
  5
24B59
330
24B4E
100
AcDbEntity
  8
0
 48
50.0
100
AcDbBlockBegin
  2
*D44
 70
     1
 10
0.0
 20
0.0
 30
0.0
  3
*D44
  1

  0
LINE
  5
24FA8
330
24B4E
100
AcDbEntity
  8
寸法
 62
     0
 48
50.0
370
    -2
100
AcDbLine
 10
5738.599999999999
 20
7858.176748306329
 30
0.0
 11
5075.665006330071
 21
7858.176748306329
 31
0.0
  0
LINE
  5
24FA9
330
24B4E
100
AcDbEntity
  8
寸法
 62
     0
 48
50.0
370
    -2
100
AcDbLine
 10
5811.599999999999
 20
7735.176748306328
 30
0.0
 11
5075.665006330071
 21
7735.176748306328
 31
0.0
  0
LINE
  5
24FAA
330
24B4E
100
AcDbEntity
  8
寸法
 62
     0
 48
50.0
370
    -2
100
AcDbLine
 10
5135.665006330071
 20
7735.176748306328
 30
0.0
 11
5135.665006330071
 21
7858.176748306329
 31
0.0
  0
LINE
  5
24FAB
330
24B4E
100
AcDbEntity
  8
寸法
 62
     0
 48
50.0
370
    -2
100
AcDbLine
 10
5135.665006330071
 20
7858.176748306329
 30
0.0
 11
5135.665006330071
 21
8269.768631398365
 31
0.0
  0
INSERT
  5
24FAC
330
24B4E
100
AcDbEntity
  8
寸法
 62
     0
 48
50.0
370
    -2
100
AcDbBlockReference
  2
_DOTSMALL
 10
5135.665006330071
 20
7735.176748306328
 30
0.0
 41
100.0
 42
100.0
 43
100.0
 50
270.0
  0
INSERT
  5
24FAD
330
24B4E
100
AcDbEntity
  8
寸法
 62
     0
 48
50.0
370
    -2
100
AcDbBlockReference
  2
_DOTSMALL
 10
5135.665006330071
 20
7858.176748306329
 30
0.0
 41
100.0
 42
100.0
 43
100.0
 50
90.0
  0
MTEXT
  5
24FAE
330
24B4E
100
AcDbEntity
  8
寸法
 62
     7
 48
50.0
100
AcDbMText
 10
5035.653195306449
 20
8131.283350024128
 30
0.0
 40
120.0
 41
0.0
 71
     5
 72
     1
  1
\A1;123
  7
STYLE1
 11
0.0000000000000001
 21
1.0
 31
0.0
 73
     1
 44
1.0
1001
ACAD
1000
MTEXTBEGIN
1070
    73
1070
     1
1070
    44
1040
1.0
1070
    74
1070
     0
1000
MTEXTEND
  0
POINT
  5
24FAF
330
24B4E
100
AcDbEntity
  8
DEFPOINTS
 62
     0
 48
50.0
100
AcDbPoint
 10
5758.6
 20
7858.176748306329
 30
0.0
  0
POINT
  5
24FB0
330
24B4E
100
AcDbEntity
  8
DEFPOINTS
 62
     0
 48
50.0
100
AcDbPoint
 10
5831.599999999999
 20
7735.176748306328
 30
0.0
  0
POINT
  5
24FB1
330
24B4E
100
AcDbEntity
  8
DEFPOINTS
 62
     0
 48
50.0
100
AcDbPoint
 10
5135.665006330071
 20
7735.176748306328
 30
0.0
  0
ENDBLK
  5
24B5A
330
24B4E
100
AcDbEntity
  8
0
 48
50.0
100
AcDbBlockEnd
  0
BLOCK
  5
24B6E
330
24B65
100
AcDbEntity
  8
0
 48
50.0
100
AcDbBlockBegin
  2
*D45
 70
     1
 10
0.0
 20
0.0
 30
0.0
  3
*D45
  1

  0
LINE
  5
24F60
330
24B65
100
AcDbEntity
  8
寸法
 62
     0
 48
50.0
370
    -2
100
AcDbLine
 10
8105.6
 20
7805.176748306329
 30
0.0
 11
8105.6
 21
8644.443206400239
 31
0.0
  0
LINE
  5
24F61
330
24B65
100
AcDbEntity
  8
寸法
 62
     0
 48
50.0
370
    -2
100
AcDbLine
 10
5881.599999999999
 20
7805.176748306329
 30
0.0
 11
5881.599999999999
 21
8644.443206400239
 31
0.0
  0
LINE
  5
24F62
330
24B65
100
AcDbEntity
  8
寸法
 62
     0
 48
50.0
370
    -2
100
AcDbLine
 10
8105.6
 20
8584.443206400239
 30
0.0
 11
5881.599999999999
 21
8584.443206400239
 31
0.0
  0
INSERT
  5
24F63
330
24B65
100
AcDbEntity
  8
寸法
 62
     0
 48
50.0
370
    -2
100
AcDbBlockReference
  2
_DOTSMALL
 10
8105.6
 20
8584.443206400239
 30
0.0
 41
100.0
 42
100.0
 43
100.0
  0
INSERT
  5
24F64
330
24B65
100
AcDbEntity
  8
寸法
 62
     0
 48
50.0
370
    -2
100
AcDbBlockReference
  2
_DOTSMALL
 10
5881.599999999999
 20
8584.443206400239
 30
0.0
 41
100.0
 42
100.0
 43
100.0
 50
180.0
  0
MTEXT
  5
24F65
330
24B65
100
AcDbEntity
  8
寸法
 62
     7
 48
50.0
100
AcDbMText
 10
6993.6
 20
8684.455017423863
 30
0.0
 40
120.0
 41
0.0
 71
     5
 72
     1
  1
\A1;2224
  7
STYLE1
 73
     1
 44
1.0
1001
ACAD
1000
MTEXTBEGIN
1070
    73
1070
     1
1070
    44
1040
1.0
1070
    74
1070
     0
1000
MTEXTEND
  0
POINT
  5
24F66
330
24B65
100
AcDbEntity
  8
DEFPOINTS
 62
     0
 48
50.0
100
AcDbPoint
 10
8105.6
 20
7785.176748306328
 30
0.0
  0
POINT
  5
24F67
330
24B65
100
AcDbEntity
  8
DEFPOINTS
 62
     0
 48
50.0
100
AcDbPoint
 10
5881.599999999999
 20
7785.176748306328
 30
0.0
  0
POINT
  5
24F68
330
24B65
100
AcDbEntity
  8
DEFPOINTS
 62
     0
 48
50.0
100
AcDbPoint
 10
5881.599999999999
 20
8584.443206400239
 30
0.0
  0
ENDBLK
  5
24B6F
330
24B65
100
AcDbEntity
  8
0
 48
50.0
100
AcDbBlockEnd
  0
BLOCK
  5
24B88
330
24B7D
100
AcDbEntity
  8
0
 48
50.0
100
AcDbBlockBegin
  2
*D46
 70
     1
 10
0.0
 20
0.0
 30
0.0
  3
*D46
  1

  0
LINE
  5
24F56
330
24B7D
100
AcDbEntity
  8
寸法
 62
     0
 48
50.0
370
    -2
100
AcDbLine
 10
5881.599999999999
 20
7805.176748306329
 30
0.0
 11
5881.599999999999
 21
8644.443206400239
 31
0.0
  0
LINE
  5
24F57
330
24B7D
100
AcDbEntity
  8
寸法
 62
     0
 48
50.0
370
    -2
100
AcDbLine
 10
5758.6
 20
7878.176748306329
 30
0.0
 11
5758.6
 21
8644.443206400239
 31
0.0
  0
LINE
  5
24F58
330
24B7D
100
AcDbEntity
  8
寸法
 62
     0
 48
50.0
370
    -2
100
AcDbLine
 10
5881.599999999999
 20
8584.443206400239
 30
0.0
 11
5758.6
 21
8584.443206400239
 31
0.0
  0
LINE
  5
24F59
330
24B7D
100
AcDbEntity
  8
寸法
 62
     0
 48
50.0
370
    -2
100
AcDbLine
 10
5758.6
 20
8584.443206400239
 30
0.0
 11
5347.008116907962
 21
8584.443206400239
 31
0.0
  0
INSERT
  5
24F5A
330
24B7D
100
AcDbEntity
  8
寸法
 62
     0
 48
50.0
370
    -2
100
AcDbBlockReference
  2
_DOTSMALL
 10
5881.599999999999
 20
8584.443206400239
 30
0.0
 41
100.0
 42
100.0
 43
100.0
  0
INSERT
  5
24F5B
330
24B7D
100
AcDbEntity
  8
寸法
 62
     0
 48
50.0
370
    -2
100
AcDbBlockReference
  2
_DOTSMALL
 10
5758.6
 20
8584.443206400239
 30
0.0
 41
100.0
 42
100.0
 43
100.0
 50
180.0
  0
MTEXT
  5
24F5C
330
24B7D
100
AcDbEntity
  8
寸法
 62
     7
 48
50.0
100
AcDbMText
 10
5485.493398282201
 20
8684.455017423863
 30
0.0
 40
120.0
 41
0.0
 71
     5
 72
     1
  1
\A1;123
  7
STYLE1
 73
     1
 44
1.0
1001
ACAD
1000
MTEXTBEGIN
1070
    73
1070
     1
1070
    44
1040
1.0
1070
    74
1070
     0
1000
MTEXTEND
  0
POINT
  5
24F5D
330
24B7D
100
AcDbEntity
  8
DEFPOINTS
 62
     0
 48
50.0
100
AcDbPoint
 10
5881.599999999999
 20
7785.176748306328
 30
0.0
  0
POINT
  5
24F5E
330
24B7D
100
AcDbEntity
  8
DEFPOINTS
 62
     0
 48
50.0
100
AcDbPoint
 10
5758.6
 20
7858.176748306329
 30
0.0
  0
POINT
  5
24F5F
330
24B7D
100
AcDbEntity
  8
DEFPOINTS
 62
     0
 48
50.0
100
AcDbPoint
 10
5758.6
 20
8584.443206400239
 30
0.0
  0
ENDBLK
  5
24B89
330
24B7D
100
AcDbEntity
  8
0
 48
50.0
100
AcDbBlockEnd
  0
BLOCK
  5
24BA1
330
24B97
100
AcDbEntity
  8
0
 48
50.0
100
AcDbBlockBegin
  2
*D47
 70
     1
 10
0.0
 20
0.0
 30
0.0
  3
*D47
  1

  0
LINE
  5
250EA
330
24B97
100
AcDbEntity
  8
寸法
 62
     0
 48
50.0
370
    -2
100
AcDbLine
 10
10688.6
 20
7878.176748306329
 30
0.0
 11
10688.6
 21
8400.785564976578
 31
0.0
  0
LINE
  5
250EB
330
24B97
100
AcDbEntity
  8
寸法
 62
     0
 48
50.0
370
    -2
100
AcDbLine
 10
9863.60000000001
 20
7275.176748306328
 30
0.0
 11
9863.60000000001
 21
8400.785564976578
 31
0.0
  0
LINE
  5
250EC
330
24B97
100
AcDbEntity
  8
寸法
 62
     0
 48
50.0
370
    -2
100
AcDbLine
 10
10688.6
 20
8340.785564976577
 30
0.0
 11
9863.60000000001
 21
8340.785564976577
 31
0.0
  0
INSERT
  5
250ED
330
24B97
100
AcDbEntity
  8
寸法
 62
     0
 48
50.0
370
    -2
100
AcDbBlockReference
  2
_DOTSMALL
 10
10688.6
 20
8340.785564976577
 30
0.0
 41
100.0
 42
100.0
 43
100.0
  0
INSERT
  5
250EE
330
24B97
100
AcDbEntity
  8
寸法
 62
     0
 48
50.0
370
    -2
100
AcDbBlockReference
  2
_DOTSMALL
 10
9863.60000000001
 20
8340.785564976577
 30
0.0
 41
100.0
 42
100.0
 43
100.0
 50
180.0
  0
MTEXT
  5
250EF
330
24B97
100
AcDbEntity
  8
寸法
 62
     7
 48
50.0
100
AcDbMText
 10
10276.1
 20
8440.797376000199
 30
0.0
 40
120.0
 41
0.0
 71
     5
 72
     1
  1
\A1;825
  7
STYLE1
 73
     1
 44
1.0
1001
ACAD
1000
MTEXTBEGIN
1070
    73
1070
     1
1070
    44
1040
1.0
1070
    74
1070
     0
1000
MTEXTEND
  0
POINT
  5
250F0
330
24B97
100
AcDbEntity
  8
DEFPOINTS
 62
     0
 48
50.0
100
AcDbPoint
 10
10688.6
 20
7858.176748306329
 30
0.0
  0
POINT
  5
250F1
330
24B97
100
AcDbEntity
  8
DEFPOINTS
 62
     0
 48
50.0
100
AcDbPoint
 10
9863.60000000001
 20
7255.176748306329
 30
0.0
  0
POINT
  5
250F2
330
24B97
100
AcDbEntity
  8
DEFPOINTS
 62
     0
 48
50.0
100
AcDbPoint
 10
9863.60000000001
 20
8340.785564976577
 30
0.0
  0
ENDBLK
  5
24BA2
330
24B97
100
AcDbEntity
  8
0
 48
50.0
100
AcDbBlockEnd
  0
BLOCK
  5
253FE
330
253F4
100
AcDbEntity
  8
0
 48
50.0
100
AcDbBlockBegin
  2
*D54
 70
     1
 10
0.0
 20
0.0
 30
0.0
  3
*D54
  1

  0
LINE
  5
2543E
330
253F4
100
AcDbEntity
  8
寸法
 62
     0
 48
50.0
370
    -2
100
AcDbLine
 10
6444.303402373629
 20
2003.643026553664
 30
0.0
 11
6444.303402373629
 21
2463.310834470044
 31
0.0
  0
LINE
  5
2543F
330
253F4
100
AcDbEntity
  8
寸法
 62
     0
 48
50.0
370
    -2
100
AcDbLine
 10
6252.303402373628
 20
2003.643026553664
 30
0.0
 11
6252.303402373628
 21
2463.310834470044
 31
0.0
  0
LINE
  5
25440
330
253F4
100
AcDbEntity
  8
寸法
 62
     0
 48
50.0
370
    -2
100
AcDbLine
 10
6444.303402373629
 20
2403.310834470044
 30
0.0
 11
6252.303402373628
 21
2403.310834470044
 31
0.0
  0
INSERT
  5
25441
330
253F4
100
AcDbEntity
  8
寸法
 62
     0
 48
50.0
370
    -2
100
AcDbBlockReference
  2
_DOTSMALL
 10
6444.303402373629
 20
2403.310834470044
 30
0.0
 41
100.0
 42
100.0
 43
100.0
  0
INSERT
  5
25442
330
253F4
100
AcDbEntity
  8
寸法
 62
     0
 48
50.0
370
    -2
100
AcDbBlockReference
  2
_DOTSMALL
 10
6252.303402373628
 20
2403.310834470044
 30
0.0
 41
100.0
 42
100.0
 43
100.0
 50
180.0
  0
MTEXT
  5
25443
330
253F4
100
AcDbEntity
  8
寸法
 62
     7
 48
50.0
100
AcDbMText
 10
6348.303402373628
 20
2703.34626754091
 30
0.0
 40
120.0
 41
0.0
 71
     5
 72
     1
  1
\A1;120\P200\P280
  7
STYLE1
 73
     1
 44
1.0
1001
ACAD
1000
MTEXTBEGIN
1070
    73
1070
     1
1070
    44
1040
1.0
1070
    74
1070
     0
1000
MTEXTEND
  0
POINT
  5
25444
330
253F4
100
AcDbEntity
  8
DEFPOINTS
 62
     0
 48
50.0
100
AcDbPoint
 10
6444.303402373629
 20
1983.643026553664
 30
0.0
  0
POINT
  5
25445
330
253F4
100
AcDbEntity
  8
DEFPOINTS
 62
     0
 48
50.0
100
AcDbPoint
 10
6252.303402373628
 20
1983.643026553664
 30
0.0
  0
POINT
  5
25446
330
253F4
100
AcDbEntity
  8
DEFPOINTS
 62
     0
 48
50.0
100
AcDbPoint
 10
6252.303402373628
 20
2403.310834470044
 30
0.0
  0
ENDBLK
  5
253FF
330
253F4
100
AcDbEntity
  8
0
 48
50.0
100
AcDbBlockEnd
  0
BLOCK
  5
2540A
330
25400
100
AcDbEntity
  8
0
 48
50.0
100
AcDbBlockBegin
  2
*D55
 70
     1
 10
0.0
 20
0.0
 30
0.0
  3
*D55
  1

  0
LINE
  5
25447
330
25400
100
AcDbEntity
  8
寸法
 62
     0
 48
50.0
370
    -2
100
AcDbLine
 10
6124.303402373628
 20
1051.643026553664
 30
0.0
 11
6124.303402373628
 21
601.2133885485036
 31
0.0
  0
LINE
  5
25448
330
25400
100
AcDbEntity
  8
寸法
 62
     0
 48
50.0
370
    -2
100
AcDbLine
 10
6572.303402373629
 20
1051.643026553664
 30
0.0
 11
6572.303402373629
 21
601.2133885485036
 31
0.0
  0
LINE
  5
25449
330
25400
100
AcDbEntity
  8
寸法
 62
     0
 48
50.0
370
    -2
100
AcDbLine
 10
6124.303402373628
 20
661.2133885485036
 30
0.0
 11
6572.303402373629
 21
661.2133885485036
 31
0.0
  0
INSERT
  5
2544A
330
25400
100
AcDbEntity
  8
寸法
 62
     0
 48
50.0
370
    -2
100
AcDbBlockReference
  2
_DOTSMALL
 10
6124.303402373628
 20
661.2133885485036
 30
0.0
 41
100.0
 42
100.0
 43
100.0
 50
180.0
  0
INSERT
  5
2544B
330
25400
100
AcDbEntity
  8
寸法
 62
     0
 48
50.0
370
    -2
100
AcDbBlockReference
  2
_DOTSMALL
 10
6572.303402373629
 20
661.2133885485036
 30
0.0
 41
100.0
 42
100.0
 43
100.0
  0
MTEXT
  5
2544C
330
25400
100
AcDbEntity
  8
寸法
 62
     7
 48
50.0
100
AcDbMText
 10
6328.206643695405
 20
761.2133885485036
 30
0.0
 40
120.0
 41
0.0
 71
     5
 72
     1
  1
\A1;300
  7
STYLE1
 73
     1
 44
1.0
1001
ACAD
1000
MTEXTBEGIN
1070
    73
1070
     1
1070
    44
1040
1.0
1070
    74
1070
     0
1000
MTEXTEND
  0
POINT
  5
2544D
330
25400
100
AcDbEntity
  8
DEFPOINTS
 62
     0
 48
50.0
100
AcDbPoint
 10
6124.303402373628
 20
1071.643026553664
 30
0.0
  0
POINT
  5
2544E
330
25400
100
AcDbEntity
  8
DEFPOINTS
 62
     0
 48
50.0
100
AcDbPoint
 10
6572.303402373629
 20
1071.643026553664
 30
0.0
  0
POINT
  5
2544F
330
25400
100
AcDbEntity
  8
DEFPOINTS
 62
     0
 48
50.0
100
AcDbPoint
 10
6572.303402373629
 20
661.2133885485036
 30
0.0
  0
ENDBLK
  5
2540B
330
25400
100
AcDbEntity
  8
0
 48
50.0
100
AcDbBlockEnd
  0
BLOCK
  5
25416
330
2540C
100
AcDbEntity
  8
0
 48
50.0
100
AcDbBlockBegin
  2
*D56
 70
     1
 10
0.0
 20
0.0
 30
0.0
  3
*D56
  1

  0
LINE
  5
25450
330
2540C
100
AcDbEntity
  8
寸法
 62
     0
 48
50.0
370
    -2
100
AcDbLine
 10
6232.303402373628
 20
1983.643026553664
 30
0.0
 11
5457.266163811888
 21
1983.643026553664
 31
0.0
  0
LINE
  5
25451
330
2540C
100
AcDbEntity
  8
寸法
 62
     0
 48
50.0
370
    -2
100
AcDbLine
 10
6024.303402373632
 20
1199.643026553664
 30
0.0
 11
5457.266163811888
 21
1199.643026553664
 31
0.0
  0
LINE
  5
25452
330
2540C
100
AcDbEntity
  8
寸法
 62
     0
 48
50.0
370
    -2
100
AcDbLine
 10
5517.266163811888
 20
1983.643026553664
 30
0.0
 11
5517.266163811888
 21
1199.643026553664
 31
0.0
  0
INSERT
  5
25453
330
2540C
100
AcDbEntity
  8
寸法
 62
     0
 48
50.0
370
    -2
100
AcDbBlockReference
  2
_DOTSMALL
 10
5517.266163811888
 20
1983.643026553664
 30
0.0
 41
100.0
 42
100.0
 43
100.0
 50
90.0
  0
INSERT
  5
25454
330
2540C
100
AcDbEntity
  8
寸法
 62
     0
 48
50.0
370
    -2
100
AcDbBlockReference
  2
_DOTSMALL
 10
5517.266163811888
 20
1199.643026553664
 30
0.0
 41
100.0
 42
100.0
 43
100.0
 50
270.0
  0
MTEXT
  5
25455
330
2540C
100
AcDbEntity
  8
寸法
 62
     7
 48
50.0
100
AcDbMText
 10
5417.266163811888
 20
1571.183176209664
 30
0.0
 40
120.0
 41
0.0
 71
     5
 72
     1
  1
\A1;540
  7
STYLE1
 11
0.0000000000000001
 21
1.0
 31
0.0
 73
     1
 44
1.0
1001
ACAD
1000
MTEXTBEGIN
1070
    73
1070
     1
1070
    44
1040
1.0
1070
    74
1070
     0
1000
MTEXTEND
  0
POINT
  5
25456
330
2540C
100
AcDbEntity
  8
DEFPOINTS
 62
     0
 48
50.0
100
AcDbPoint
 10
6252.303402373628
 20
1983.643026553664
 30
0.0
  0
POINT
  5
25457
330
2540C
100
AcDbEntity
  8
DEFPOINTS
 62
     0
 48
50.0
100
AcDbPoint
 10
6044.303402373632
 20
1199.643026553664
 30
0.0
  0
POINT
  5
25458
330
2540C
100
AcDbEntity
  8
DEFPOINTS
 62
     0
 48
50.0
100
AcDbPoint
 10
5517.266163811888
 20
1199.643026553664
 30
0.0
  0
ENDBLK
  5
25417
330
2540C
100
AcDbEntity
  8
0
 48
50.0
100
AcDbBlockEnd
  0
BLOCK
  5
25422
330
25418
100
AcDbEntity
  8
0
 48
50.0
100
AcDbBlockBegin
  2
*D57
 70
     1
 10
0.0
 20
0.0
 30
0.0
  3
*D57
  1

  0
LINE
  5
25459
330
25418
100
AcDbEntity
  8
寸法
 62
     0
 48
50.0
370
    -2
100
AcDbLine
 10
6104.303402373628
 20
1439.643026553663
 30
0.0
 11
5921.883088641169
 21
1439.643026553663
 31
0.0
  0
LINE
  5
2545A
330
25418
100
AcDbEntity
  8
寸法
 62
     0
 48
50.0
370
    -2
100
AcDbLine
 10
6024.303402373632
 20
1199.643026553664
 30
0.0
 11
5921.883088641169
 21
1199.643026553664
 31
0.0
  0
LINE
  5
2545B
330
25418
100
AcDbEntity
  8
寸法
 62
     0
 48
50.0
370
    -2
100
AcDbLine
 10
5981.883088641168
 20
1439.643026553663
 30
0.0
 11
5981.883088641168
 21
1199.643026553664
 31
0.0
  0
INSERT
  5
2545C
330
25418
100
AcDbEntity
  8
寸法
 62
     0
 48
50.0
370
    -2
100
AcDbBlockReference
  2
_DOTSMALL
 10
5981.883088641168
 20
1439.643026553663
 30
0.0
 41
100.0
 42
100.0
 43
100.0
 50
90.0
  0
INSERT
  5
2545D
330
25418
100
AcDbEntity
  8
寸法
 62
     0
 48
50.0
370
    -2
100
AcDbBlockReference
  2
_DOTSMALL
 10
5981.883088641168
 20
1199.643026553664
 30
0.0
 41
100.0
 42
100.0
 43
100.0
 50
270.0
  0
MTEXT
  5
2545E
330
25418
100
AcDbEntity
  8
寸法
 62
     7
 48
50.0
100
AcDbMText
 10
5881.883088641169
 20
1319.643026553664
 30
0.0
 40
120.0
 41
0.0
 71
     5
 72
     1
  1
\A1;150
  7
STYLE1
 11
0.0000000000000001
 21
1.0
 31
0.0
 73
     1
 44
1.0
1001
ACAD
1000
MTEXTBEGIN
1070
    73
1070
     1
1070
    44
1040
1.0
1070
    74
1070
     0
1000
MTEXTEND
  0
POINT
  5
2545F
330
25418
100
AcDbEntity
  8
DEFPOINTS
 62
     0
 48
50.0
100
AcDbPoint
 10
6124.303402373628
 20
1439.643026553663
 30
0.0
  0
POINT
  5
25460
330
25418
100
AcDbEntity
  8
DEFPOINTS
 62
     0
 48
50.0
100
AcDbPoint
 10
6044.303402373632
 20
1199.643026553664
 30
0.0
  0
POINT
  5
25461
330
25418
100
AcDbEntity
  8
DEFPOINTS
 62
     0
 48
50.0
100
AcDbPoint
 10
5981.883088641168
 20
1199.643026553664
 30
0.0
  0
ENDBLK
  5
25423
330
25418
100
AcDbEntity
  8
0
 48
50.0
100
AcDbBlockEnd
  0
BLOCK
  5
25430
330
25424
100
AcDbEntity
  8
0
 48
50.0
100
AcDbBlockBegin
  2
*D58
 70
     1
 10
0.0
 20
0.0
 30
0.0
  3
*D58
  1

  0
LINE
  5
25462
330
25424
100
AcDbEntity
  8
寸法
 62
     0
 48
50.0
370
    -2
100
AcDbLine
 10
8199.142715550824
 20
2036.403026553665
 30
0.0
 11
9204.265981438693
 21
2036.403026553665
 31
0.0
  0
LINE
  5
25463
330
25424
100
AcDbEntity
  8
寸法
 62
     0
 48
50.0
370
    -2
100
AcDbLine
 10
8386.342715550823
 20
1983.643026553664
 30
0.0
 11
9204.265981438693
 21
1983.643026553663
 31
0.0
  0
LINE
  5
25464
330
25424
100
AcDbEntity
  8
寸法
 62
     0
 48
50.0
370
    -2
100
AcDbLine
 10
9144.265981438694
 20
2036.403026553665
 30
0.0
 11
9144.265981438694
 21
2136.403026553665
 31
0.0
  0
LINE
  5
25465
330
25424
100
AcDbEntity
  8
寸法
 62
     0
 48
50.0
370
    -2
100
AcDbLine
 10
9144.265981438694
 20
1983.643026553663
 30
0.0
 11
9144.265981438694
 21
1251.625219710697
 31
0.0
  0
LINE
  5
25466
330
25424
100
AcDbEntity
  8
寸法
 62
     0
 48
50.0
370
    -2
100
AcDbLine
 10
9144.265981438694
 20
2036.403026553665
 30
0.0
 11
9144.265981438694
 21
1983.643026553663
 31
0.0
  0
INSERT
  5
25467
330
25424
100
AcDbEntity
  8
寸法
 62
     0
 48
50.0
370
    -2
100
AcDbBlockReference
  2
_DOTSMALL
 10
9144.265981438694
 20
2036.403026553665
 30
0.0
 41
100.0
 42
100.0
 43
100.0
 50
270.0
  0
INSERT
  5
25468
330
25424
100
AcDbEntity
  8
寸法
 62
     0
 48
50.0
370
    -2
100
AcDbBlockReference
  2
_DOTSMALL
 10
9144.265981438694
 20
1983.643026553663
 30
0.0
 41
100.0
 42
100.0
 43
100.0
 50
90.0
  0
MTEXT
  5
25469
330
25424
100
AcDbEntity
  8
寸法
 62
     7
 48
50.0
100
AcDbMText
 10
9044.25417041507
 20
1517.634123132181
 30
0.0
 40
120.0
 41
0.0
 71
     5
 72
     1
  1
\A1;20～25
  7
STYLE1
 11
0.0000000000000001
 21
1.0
 31
0.0
 73
     1
 44
1.0
1001
ACAD
1000
MTEXTBEGIN
1070
    73
1070
     1
1070
    44
1040
1.0
1070
    74
1070
     0
1000
MTEXTEND
  0
POINT
  5
2546A
330
25424
100
AcDbEntity
  8
DEFPOINTS
 62
     0
 48
50.0
100
AcDbPoint
 10
8179.142715550822
 20
2036.403026553665
 30
0.0
  0
POINT
  5
2546B
330
25424
100
AcDbEntity
  8
DEFPOINTS
 62
     0
 48
50.0
100
AcDbPoint
 10
8366.342715550821
 20
1983.643026553664
 30
0.0
  0
POINT
  5
2546C
330
25424
100
AcDbEntity
  8
DEFPOINTS
 62
     0
 48
50.0
100
AcDbPoint
 10
9144.265981438694
 20
1983.643026553663
 30
0.0
  0
ENDBLK
  5
25431
330
25424
100
AcDbEntity
  8
0
 48
50.0
100
AcDbBlockEnd
  0
BLOCK
  5
2543C
330
25432
100
AcDbEntity
  8
0
 48
50.0
100
AcDbBlockBegin
  2
*D59
 70
     1
 10
0.0
 20
0.0
 30
0.0
  3
*D59
  1

  0
LINE
  5
2546D
330
25432
100
AcDbEntity
  8
寸法
 62
     0
 48
50.0
370
    -2
100
AcDbLine
 10
8386.342715550823
 20
1983.643026553664
 30
0.0
 11
8928.211315319666
 21
1983.643026553663
 31
0.0
  0
LINE
  5
2546E
330
25432
100
AcDbEntity
  8
寸法
 62
     0
 48
50.0
370
    -2
100
AcDbLine
 10
8386.342715550823
 20
1659.643026553663
 30
0.0
 11
8928.211315319666
 21
1659.643026553662
 31
0.0
  0
LINE
  5
2546F
330
25432
100
AcDbEntity
  8
寸法
 62
     0
 48
50.0
370
    -2
100
AcDbLine
 10
8868.211315319667
 20
1983.643026553663
 30
0.0
 11
8868.211315319667
 21
1659.643026553662
 31
0.0
  0
INSERT
  5
25470
330
25432
100
AcDbEntity
  8
寸法
 62
     0
 48
50.0
370
    -2
100
AcDbBlockReference
  2
_DOTSMALL
 10
8868.211315319667
 20
1983.643026553663
 30
0.0
 41
100.0
 42
100.0
 43
100.0
 50
90.0
  0
INSERT
  5
25471
330
25432
100
AcDbEntity
  8
寸法
 62
     0
 48
50.0
370
    -2
100
AcDbBlockReference
  2
_DOTSMALL
 10
8868.211315319667
 20
1659.643026553662
 30
0.0
 41
100.0
 42
100.0
 43
100.0
 50
270.0
  0
MTEXT
  5
25472
330
25432
100
AcDbEntity
  8
寸法
 62
     7
 48
50.0
100
AcDbMText
 10
8768.211315319666
 20
1821.643026553665
 30
0.0
 40
120.0
 41
0.0
 71
     5
 72
     1
  1
\A1;180
  7
STYLE1
 11
0.0000000000000001
 21
1.0
 31
0.0
 73
     1
 44
1.0
1001
ACAD
1000
MTEXTBEGIN
1070
    73
1070
     1
1070
    44
1040
1.0
1070
    74
1070
     0
1000
MTEXTEND
  0
POINT
  5
25473
330
25432
100
AcDbEntity
  8
DEFPOINTS
 62
     0
 48
50.0
100
AcDbPoint
 10
8366.342715550821
 20
1983.643026553664
 30
0.0
  0
POINT
  5
25474
330
25432
100
AcDbEntity
  8
DEFPOINTS
 62
     0
 48
50.0
100
AcDbPoint
 10
8366.342715550821
 20
1659.643026553663
 30
0.0
  0
POINT
  5
25475
330
25432
100
AcDbEntity
  8
DEFPOINTS
 62
     0
 48
50.0
100
AcDbPoint
 10
8868.211315319667
 20
1659.643026553662
 30
0.0
  0
ENDBLK
  5
2543D
330
25432
100
AcDbEntity
  8
0
 48
50.0
100
AcDbBlockEnd
  0
ENDSEC
  0
SECTION
  2
ENTITIES
  0
MTEXT
  5
763F
330
747D
100
AcDbEntity
  8
0
100
AcDbMText
 10
302.846345836809
 20
280.1983726409901
 30
0.0
 40
3.5
 41
5.323721266742722
 71
     1
 72
     5
  1

  7
MSMINCHO
 73
     1
 44
1.0
1001
ACAD
1000
MTEXTBEGIN
1070
    73
1070
     1
1070
    44
1040
1.0
1070
    74
1070
     0
1000
MTEXTEND
  0
LINE
  5
10B57
330
747D
100
AcDbEntity
  8
補助
  6
PHANTOM
 62
   230
 48
50.0
100
AcDbLine
 10
139.9999999999995
 20
11409.6
 30
0.0
 11
16307.2
 21
11409.6
 31
0.0
  0
LINE
  5
10B59
330
747D
100
AcDbEntity
  8
仕様書枠
  6
Continuous
 48
50.0
100
AcDbLine
 10
13107.2
 20
1200.0
 30
0.0
 11
13107.2
 21
-0.0000000000000729
 31
0.0
  0
LINE
  5
10B5D
330
747D
100
AcDbEntity
  8
仕様書枠
 48
50.0
100
AcDbLine
 10
140.0
 20
0.0
 30
0.0
 11
16307.2
 21
-0.0000000000000909
 31
0.0
  0
LINE
  5
10B5E
330
747D
100
AcDbEntity
  8
補助
  6
PHANTOM
 62
   230
 48
50.0
100
AcDbLine
 10
16307.2
 20
11409.6
 30
0.0
 11
16307.2
 21
1200.0
 31
0.0
  0
LINE
  5
10B6C
330
747D
100
AcDbEntity
  8
仕様書枠
 48
50.0
100
AcDbLine
 10
13107.2
 20
1200.0
 30
0.0
 11
16307.2
 21
1200.0
 31
0.0
  0
TEXT
  5
10B73
330
747D
100
AcDbEntity
  8
文字
 62
     7
 48
50.0
100
AcDbText
 10
13162.9790565769
 20
895.0906074299405
 30
0.0
 40
200.0
  1
基 礎 図
  7
STYLE2
100
AcDbText
  0
LINE
  5
10B7B
330
747D
100
AcDbEntity
  8
仕様書枠
 48
50.0
100
AcDbLine
 10
13107.2
 20
800.0
 30
0.0
 11
14251.2
 21
800.0
 31
0.0
  0
LINE
  5
10B88
330
747D
100
AcDbEntity
  8
仕様書枠
  6
Continuous
 48
50.0
100
AcDbLine
 10
14251.2
 20
1200.0
 30
0.0
 11
14251.2
 21
800.0
 31
0.0
  0
LINE
  5
16462
330
747D
100
AcDbEntity
  8
仕様書枠
 48
50.0
100
AcDbLine
 10
16307.2
 20
1200.0
 30
0.0
 11
16307.2
 21
-0.0000000000000909
 31
0.0
  0
LINE
  5
1903B
330
747D
100
AcDbEntity
  8
補助
  6
PHANTOM
 62
   230
 48
50.0
100
AcDbLine
 10
140.0
 20
0.0
 30
0.0
 11
139.9999999999995
 21
11409.6
 31
0.0
  0
LEADER
  5
1AC27
330
747D
100
AcDbEntity
  8
寸法
 48
50.0
100
AcDbLeader
  3
INABA_S50G
 73
     0
 74
     0
 75
     1
 40
120.0
 41
720.0000000000001
 76
     3
 10
10688.69549961499
 20
7188.969865051067
 30
0.0
 10
10845.46907400128
 20
6927.955951483234
 30
0.0
 10
10970.46907400128
 20
6927.955951483234
 30
0.0
340
1AC28
1001
ACAD
1000
DSTYLE
1002
{
1070
   341
1005
0
1070
    40
1040
1.0
1070
   343
1005
0
1070
   344
1005
0
1002
}
  0
MTEXT
  5
1AC28
102
{ACAD_REACTORS
330
1AC27
102
}
330
747D
100
AcDbEntity
  8
部品1
 62
     7
 48
50.0
100
AcDbMText
 10
11715.46907400128
 20
7012.955951483234
 30
0.0
 40
120.0
 41
0.0
 71
     6
 72
     1
  1
\A1;床下換気口
  7
STYLE1
 73
     1
 44
1.0
1001
ACAD
1000
MTEXTBEGIN
1070
    73
1070
     1
1070
    44
1040
1.0
1070
    74
1070
     0
1000
MTEXTEND
  0
TEXT
  5
1AC29
330
747D
100
AcDbEntity
  8
部品1
 48
50.0
100
AcDbText
 10
11037.43013846118
 20
6268.070141119359
 30
0.0
 40
80.0
  1
(a=45,b=55,c=75)
  7
STYLE1
100
AcDbText
  0
TEXT
  5
1AC2A
330
747D
100
AcDbEntity
  8
部品1
 48
50.0
100
AcDbText
 10
10878.85112970688
 20
6374.915361988112
 30
0.0
 40
80.0
  1
※a,b,cは屋根の出幅です。
  7
STYLE1
100
AcDbText
  0
MTEXT
  5
1AC2B
102
{ACAD_REACTORS
330
1AC2C
102
}
330
747D
100
AcDbEntity
  8
部品1
 62
     7
 48
50.0
100
AcDbMText
 10
11676.63832569548
 20
6554.226048921188
 30
0.0
 40
120.0
 41
0.0
 71
     6
 72
     1
  1
\A1;屋根の外寸
  7
STYLE1
 73
     1
 44
1.0
1001
ACAD
1000
MTEXTBEGIN
1070
    73
1070
     1
1070
    44
1040
1.0
1070
    74
1070
     0
1000
MTEXTEND
  0
LEADER
  5
1AC2C
330
747D
100
AcDbEntity
  8
寸法
 48
50.0
100
AcDbLeader
  3
INABA_S50G
 73
     0
 74
     0
 75
     1
 40
120.0
 41
672.0
 76
     3
 10
10738.69831350344
 20
6728.115392384764
 30
0.0
 10
10854.63832569548
 20
6469.226048921187
 30
0.0
 10
10979.63832569548
 20
6469.226048921187
 30
0.0
340
1AC2B
1001
ACAD
1000
DSTYLE
1002
{
1070
   341
1005
0
1070
    40
1040
1.0
1070
   343
1005
0
1070
   344
1005
0
1002
}
  0
TEXT
  5
1C7A1
330
747D
100
AcDbEntity
  8
文字
 62
     7
 48
50.0
100
AcDbText
 10
13188.16259899338
 20
79.80631269190417
 30
0.0
 40
80.0
  1
※布基礎には換気口を設けてください。
  7
STYLE2
100
AcDbText
  0
TEXT
  5
1C7E7
330
747D
100
AcDbEntity
  8
文字
 62
     7
 48
50.0
100
AcDbText
 10
13188.16259899338
 20
246.7109242801889
 30
0.0
 40
80.0
  1
※寒冷地等は地域の実情に合わせた基礎にして下さい。
  7
STYLE2
100
AcDbText
  0
TEXT
  5
1C7E8
330
747D
100
AcDbEntity
  8
文字
 62
     7
 48
50.0
100
AcDbText
 10
14325.79230300687
 20
499.5983841039506
 30
0.0
 40
160.0
  1
ＮＸＮ－１１ＤＬ－６
  7
STYLE2
100
AcDbText
  0
TEXT
  5
1C7EC
330
747D
100
AcDbEntity
  8
文字
 62
     7
 48
50.0
100
AcDbText
 10
14524.131837222
 20
1031.557706291229
 30
0.0
 40
100.0
  1
<縮尺> S=1/40
  7
STYLE2
100
AcDbText
  0
TEXT
  5
1C7ED
330
747D
100
AcDbEntity
  8
文字
 62
     7
 48
50.0
100
AcDbText
 10
13201.43669998441
 20
477.2740661031257
 30
0.0
 40
160.0
  1
機種名
  7
STYLE2
100
AcDbText
  0
LINE
  5
1C7EF
330
747D
100
AcDbEntity
  8
文字
 62
     7
 48
50.0
100
AcDbLine
 10
13187.2
 20
400.0
 30
0.0
 11
16227.2
 21
400.0
 31
0.0
  0
MTEXT
  5
1D2D5
102
{ACAD_REACTORS
330
1D2D6
102
}
330
747D
100
AcDbEntity
  8
部品1
 62
     7
 48
50.0
100
AcDbMText
 10
11883.99523070988
 20
8173.789492548834
 30
0.0
 40
120.0
 41
0.0
 71
     6
 72
     1
  1
アンカーボルト
  7
STYLE1
 73
     1
 44
1.0
1001
ACAD
1000
MTEXTBEGIN
1070
    73
1070
     1
1070
    44
1040
1.0
1070
    74
1070
     0
1000
MTEXTEND
  0
LEADER
  5
1D2D6
330
747D
100
AcDbEntity
  8
寸法
 48
50.0
100
AcDbLeader
  3
INABA_S50G
 73
     0
 74
     0
 75
     1
 40
120.0
 41
994.3492424049171
 76
     3
 10
10565.680085757
 20
7735.384592665038
 30
0.0
 10
10739.64598830496
 20
8088.789492548833
 30
0.0
 10
10864.64598830496
 20
8088.789492548833
 30
0.0
340
1D2D5
1001
ACAD
1000
DSTYLE
1002
{
1070
   341
1005
0
1070
    40
1040
1.0
1070
   343
1005
0
1070
   344
1005
0
1002
}
  0
MTEXT
  5
1D332
102
{ACAD_REACTORS
330
1D333
102
}
330
747D
100
AcDbEntity
  8
部品1
 62
     7
 48
50.0
100
AcDbMText
 10
10378.82869701569
 20
7059.81245181864
 30
0.0
 40
120.0
 41
0.0
 71
     6
 72
     1
  1
CB
  7
STYLE1
 73
     1
 44
1.0
1001
ACAD
1000
MTEXTBEGIN
1070
    73
1070
     1
1070
    44
1040
1.0
1070
    74
1070
     0
1000
MTEXTEND
  0
LEADER
  5
1D333
330
747D
100
AcDbEntity
  8
寸法
 48
50.0
100
AcDbLeader
  3
INABA_S50G
 73
     0
 74
     0
 75
     1
 40
120.0
 41
149.591883092037
 76
     3
 10
9951.954011061014
 20
7197.530765373464
 30
0.0
 10
10079.23681392366
 20
6974.812451818639
 30
0.0
 10
10204.23681392366
 20
6974.812451818639
 30
0.0
340
1D332
1001
ACAD
1000
DSTYLE
1002
{
1070
   341
1005
0
1070
    40
1040
1.0
1070
   343
1005
0
1070
   344
1005
0
1002
}
  0
DIMENSION
  5
20DE1
330
747D
100
AcDbEntity
  8
寸法
 48
50.0
100
AcDbDimension
  2
*D19
 10
10733.6
 20
8816.397070365248
 30
0.0
 11
11004.77462120246
 21
8816.397070365248
 31
0.0
 70
   160
  1
a
 71
     5
 42
45.0
  3
INABA_S40G
100
AcDbAlignedDimension
 13
10688.6
 23
7858.176748306327
 33
0.0
 14
10733.6
 24
8584.443206400237
 34
0.0
100
AcDbRotatedDimension
1001
ACAD
1000
DSTYLE
1002
{
1070
   341
1005
0
1002
}
  0
DIMENSION
  5
20DFB
330
747D
100
AcDbEntity
  8
寸法
 48
50.0
100
AcDbDimension
  2
*D20
 10
5758.599999999997
 20
8816.397070365265
 30
0.0
 11
5442.425378797537
 21
8816.397070365265
 31
0.0
 70
   160
  1
a
 71
     5
 42
44.99999999999636
  3
INABA_S40G
100
AcDbAlignedDimension
 13
5713.6
 23
8584.443206400257
 33
0.0
 14
5758.599999999997
 24
7858.176748306343
 34
0.0
100
AcDbRotatedDimension
1001
ACAD
1000
DSTYLE
1002
{
1070
   341
1005
0
1002
}
  0
LINE
  5
22711
330
747D
100
AcDbEntity
  8
想像線
 48
10.0
100
AcDbLine
 10
10733.6
 20
7933.176748306327
 30
0.0
 11
5713.600000000002
 21
7933.176748306341
 31
0.0
  0
LINE
  5
22712
330
747D
100
AcDbEntity
  8
想像線
 48
10.0
100
AcDbLine
 10
5713.599999999999
 20
6423.176748306357
 30
0.0
 11
5713.6
 21
7933.176748306348
 31
0.0
  0
LINE
  5
22713
330
747D
100
AcDbEntity
  8
想像線
 48
10.0
100
AcDbLine
 10
10733.6
 20
6423.176748306346
 30
0.0
 11
10733.6
 21
7933.176748306329
 31
0.0
  0
LINE
  5
22714
330
747D
100
AcDbEntity
  8
想像線
 48
10.0
100
AcDbLine
 10
10733.6
 20
6423.176748306346
 30
0.0
 11
5713.599999999999
 21
6423.176748306339
 31
0.0
  0
DIMENSION
  5
22741
330
747D
100
AcDbEntity
  8
寸法
 48
50.0
100
AcDbDimension
  2
*D25
 10
4883.72190961067
 20
7858.176748306343
 30
0.0
 11
4783.72190961067
 21
7895.676748306354
 31
0.0
 70
    32
  1
c
 71
     5
 42
75.0000000000191
  3
INABA_S40G
100
AcDbAlignedDimension
 13
5135.665006330068
 23
7933.176748306363
 33
0.0
 14
5758.599999999997
 24
7858.176748306343
 34
0.0
 50
90.0
100
AcDbRotatedDimension
1001
ACAD
1000
DSTYLE
1002
{
1070
   341
1005
0
1002
}
  0
DIMENSION
  5
2275B
330
747D
100
AcDbEntity
  8
寸法
 48
50.0
100
AcDbDimension
  2
*D26
 10
4883.72190961067
 20
6423.176748306369
 30
0.0
 11
4783.721909610669
 21
6450.676748306349
 31
0.0
 70
    32
  1
b
 71
     5
 42
54.99999999995907
  3
INABA_S40G
100
AcDbAlignedDimension
 13
5758.599999999997
 23
6478.176748306329
 33
0.0
 14
5135.66500633007
 24
6423.176748306369
 34
0.0
 50
90.0
100
AcDbRotatedDimension
1001
ACAD
1000
DSTYLE
1002
{
1070
   341
1005
0
1002
}
  0
DIMENSION
  5
229EC
330
747D
100
AcDbEntity
  8
寸法
 48
50.0
100
AcDbDimension
  2
*D28
 10
10115.46950000081
 20
6478.176748306353
 30
0.0
 11
10115.46950000081
 21
6191.213165629175
 31
0.0
 70
   160
 71
     5
 42
279.9999999999927
  3
INABA_S40G
100
AcDbAlignedDimension
 13
10194.53475000041
 23
6758.176748306346
 33
0.0
 14
10194.53475000041
 24
6478.176748306353
 34
0.0
 50
90.0
100
AcDbRotatedDimension
1001
ACAD
1000
DSTYLE
1002
{
1070
   341
1005
0
1002
}
  0
DIMENSION
  5
229ED
330
747D
100
AcDbEntity
  8
寸法
 48
50.0
100
AcDbDimension
  2
*D29
 10
10115.46950000081
 20
7658.176748306328
 30
0.0
 11
10115.46950000081
 21
8145.14033098349
 31
0.0
 70
   160
 71
     5
 42
199.9999999999945
  3
INABA_S40G
100
AcDbAlignedDimension
 13
10194.53475000041
 23
7858.176748306323
 33
0.0
 14
10194.53475000041
 24
7658.176748306328
 34
0.0
 50
90.0
100
AcDbRotatedDimension
1001
ACAD
1000
DSTYLE
1002
{
1070
   341
1005
0
1002
}
  0
DIMENSION
  5
22A4B
330
747D
100
AcDbEntity
  8
寸法
 48
50.0
100
AcDbDimension
  2
*D27
 10
10568.6
 20
7560.339275578974
 30
0.0
 11
10958.65905511811
 21
7560.339275578974
 31
0.0
 70
   160
 71
     5
 42
120.0
  3
INABA_S40G
100
AcDbAlignedDimension
 13
10688.6
 23
7577.332539617806
 33
0.0
 14
10568.6
 24
7560.339275578974
 34
0.0
100
AcDbRotatedDimension
1001
ACAD
1000
DSTYLE
1002
{
1070
   341
1005
0
1002
}
  0
LINE
  5
24984
330
747D
100
AcDbEntity
  8
部品1
 48
50.0
100
AcDbLine
 10
10568.6
 20
7658.176748306326
 30
0.0
 11
5878.599999999999
 21
7658.17674830633
 31
0.0
  0
TEXT
  5
24985
330
747D
100
AcDbEntity
  8
寸法
 48
50.0
100
AcDbText
 10
8209.695054345928
 20
6496.858039099066
 30
0.0
 40
120.0
  1
扉面
  7
STYLE1
100
AcDbText
  0
DIMENSION
  5
24986
330
747D
100
AcDbEntity
  8
寸法
 48
50.0
100
AcDbDimension
  2
*D32
 10
8223.60000000001
 20
8340.785564976577
 30
0.0
 11
8633.60000000001
 21
8440.797376000199
 31
0.0
 70
    32
 71
     5
 42
820.0
  3
INABA_S40G
100
AcDbAlignedDimension
 13
9043.60000000001
 23
7255.176748306329
 33
0.0
 14
8223.60000000001
 24
7255.176748306329
 34
0.0
100
AcDbRotatedDimension
1001
ACAD
1000
DSTYLE
1002
{
1070
   341
1005
0
1002
}
  0
DIMENSION
  5
24987
330
747D
100
AcDbEntity
  8
寸法
 48
50.0
100
AcDbDimension
  2
*D33
 10
8105.6
 20
8584.443206400239
 30
0.0
 11
9335.600000000003
 21
8684.455017423863
 31
0.0
 70
    32
 71
     5
 42
2460.000000000001
  3
INABA_S40G
100
AcDbAlignedDimension
 13
10565.6
 23
7785.176748306328
 33
0.0
 14
8105.6
 24
7785.176748306328
 34
0.0
100
AcDbRotatedDimension
1001
ACAD
1000
DSTYLE
1002
{
1070
   341
1005
0
1002
}
  0
LINE
  5
24989
330
747D
100
AcDbEntity
  8
部品1
 48
50.0
100
AcDbLine
 10
10688.6
 20
7858.176748306329
 30
0.0
 11
5758.6
 21
7858.176748306329
 31
0.0
  0
DIMENSION
  5
2498A
330
747D
100
AcDbEntity
  8
寸法
 48
50.0
100
AcDbDimension
  2
*D34
 10
10688.6
 20
8816.397070365246
 30
0.0
 11
8223.600000000001
 21
8916.397070365247
 31
0.0
 70
    32
 71
     5
 42
4930.000000000003
  3
INABA_S40G
100
AcDbAlignedDimension
 13
5758.6
 23
7858.176748306329
 33
0.0
 14
10688.6
 24
7858.176748306329
 34
0.0
100
AcDbRotatedDimension
1001
ACAD
1000
DSTYLE
1002
{
1070
   341
1005
0
1002
}
  0
LINE
  5
2498C
330
747D
100
AcDbEntity
  8
部品1
 48
50.0
100
AcDbLine
 10
10688.6
 20
6478.176748306347
 30
0.0
 11
5758.599999999995
 21
6478.176748306324
 31
0.0
  0
LINE
  5
2498E
330
747D
100
AcDbEntity
  8
部品1
 48
50.0
100
AcDbLine
 10
7503.600000000007
 20
7105.176748306329
 30
0.0
 11
7503.600000000007
 21
7305.176748306329
 31
0.0
  0
LINE
  5
2498F
330
747D
100
AcDbEntity
  8
部品1
 48
50.0
100
AcDbLine
 10
7303.600000000007
 20
7105.176748306329
 30
0.0
 11
7303.600000000007
 21
7305.176748306329
 31
0.0
  0
DIMENSION
  5
24990
330
747D
100
AcDbEntity
  8
寸法
 48
50.0
100
AcDbDimension
  2
*D35
 10
6583.600000000007
 20
8340.785564976577
 30
0.0
 11
6993.600000000007
 21
8440.797376000199
 31
0.0
 70
    32
 71
     5
 42
820.0000000000018
  3
INABA_S40G
100
AcDbAlignedDimension
 13
7403.600000000008
 23
7255.176748306329
 33
0.0
 14
6583.600000000007
 24
7255.176748306329
 34
0.0
100
AcDbRotatedDimension
1001
ACAD
1000
DSTYLE
1002
{
1070
   341
1005
0
1002
}
  0
LINE
  5
24991
330
747D
100
AcDbEntity
  8
部品1
 48
50.0
100
AcDbLine
 10
8123.600000000008
 20
7105.176748306329
 30
0.0
 11
8123.600000000008
 21
7305.176748306329
 31
0.0
  0
LINE
  5
24992
330
747D
100
AcDbEntity
  8
部品1
 48
50.0
100
AcDbLine
 10
8323.600000000009
 20
7105.176748306329
 30
0.0
 11
8323.600000000009
 21
7305.176748306329
 31
0.0
  0
LINE
  5
24993
330
747D
100
AcDbEntity
  8
部品1
 48
50.0
100
AcDbLine
 10
6483.600000000007
 20
7105.176748306329
 30
0.0
 11
6483.600000000007
 21
7305.176748306329
 31
0.0
  0
LINE
  5
24994
330
747D
100
AcDbEntity
  8
部品1
 48
50.0
100
AcDbLine
 10
6683.600000000007
 20
7105.176748306329
 30
0.0
 11
6683.600000000007
 21
7305.176748306329
 31
0.0
  0
DIMENSION
  5
24995
330
747D
100
AcDbEntity
  8
寸法
 48
50.0
100
AcDbDimension
  2
*D36
 10
6241.285990614301
 20
7858.176748306329
 30
0.0
 11
6241.285990614301
 21
7457.54796476617
 31
0.0
 70
   160
 71
     5
 42
653.0
  3
INABA_S40G
100
AcDbAlignedDimension
 13
6533.600000000006
 23
7205.176748306328
 33
0.0
 14
6332.7654751409
 24
7858.176748306329
 34
0.0
 50
90.0
100
AcDbRotatedDimension
1001
ACAD
1000
DSTYLE
1002
{
1070
   341
1005
0
1002
}
  0
LINE
  5
24998
102
{ACAD_REACTORS
330
254A1
102
}
330
747D
100
AcDbEntity
  8
部品1
 48
50.0
100
AcDbLine
 10
5758.6
 20
6478.176748306329
 30
0.0
 11
5758.6
 21
7858.176748306329
 31
0.0
  0
DIMENSION
  5
24999
330
747D
100
AcDbEntity
  8
寸法
 48
50.0
100
AcDbDimension
  2
*D37
 10
5758.6
 20
8340.785564976577
 30
0.0
 11
6171.100000000003
 21
8440.797376000199
 31
0.0
 70
    32
 71
     5
 42
825.0000000000072
  3
INABA_S40G
100
AcDbAlignedDimension
 13
6583.600000000007
 23
7255.176748306329
 33
0.0
 14
5758.6
 24
7858.176748306329
 34
0.0
100
AcDbRotatedDimension
1001
ACAD
1000
DSTYLE
1002
{
1070
   341
1005
0
1002
}
  0
DIMENSION
  5
2499A
330
747D
100
AcDbEntity
  8
寸法
 48
50.0
100
AcDbDimension
  2
*D38
 10
7403.600000000007
 20
8340.785564976577
 30
0.0
 11
7813.600000000008
 21
8440.797376000199
 31
0.0
 70
    32
 71
     5
 42
820.0000000000027
  3
INABA_S40G
100
AcDbAlignedDimension
 13
8223.60000000001
 23
7255.176748306329
 33
0.0
 14
7403.600000000007
 24
7255.176748306329
 34
0.0
100
AcDbRotatedDimension
1001
ACAD
1000
DSTYLE
1002
{
1070
   341
1005
0
1002
}
  0
DIMENSION
  5
2499B
330
747D
100
AcDbEntity
  8
寸法
 48
50.0
100
AcDbDimension
  2
*D39
 10
4883.721909610674
 20
6478.176748306329
 30
0.0
 11
4883.721909610672
 21
7205.676748306328
 31
0.0
 70
   160
 71
     5
 42
1380.0
  3
INABA_S40G
100
AcDbAlignedDimension
 13
5758.6
 23
7858.176748306329
 33
0.0
 14
5758.6
 24
6478.176748306329
 34
0.0
 50
90.0
100
AcDbRotatedDimension
1001
ACAD
1000
DSTYLE
1002
{
1070
   341
1005
0
1002
}
  0
DIMENSION
  5
2499C
330
747D
100
AcDbEntity
  8
寸法
 48
50.0
100
AcDbDimension
  2
*D40
 10
5135.665006330071
 20
6676.176748306332
 30
0.0
 11
5135.665006330071
 21
7205.676748306328
 31
0.0
 70
   160
 71
     5
 42
1058.999999999996
  3
INABA_S40G
100
AcDbAlignedDimension
 13
5831.599999999999
 23
7735.176748306328
 33
0.0
 14
5831.600000000007
 24
6676.176748306332
 34
0.0
 50
90.0
100
AcDbRotatedDimension
1001
ACAD
1000
DSTYLE
1002
{
1070
   341
1005
0
1002
}
  0
DIMENSION
  5
2499D
330
747D
100
AcDbEntity
  8
寸法
 48
50.0
100
AcDbDimension
  2
*D41
 10
5135.665006330071
 20
6478.176748306329
 30
0.0
 11
5135.665006330071
 21
6142.645799463736
 31
0.0
 70
   160
 71
     5
 42
198.0000000000036
  3
INABA_S40G
100
AcDbAlignedDimension
 13
5831.600000000007
 23
6676.176748306332
 33
0.0
 14
5758.6
 24
6478.176748306329
 34
0.0
 50
90.0
100
AcDbRotatedDimension
1001
ACAD
1000
DSTYLE
1002
{
1070
   341
1005
0
1002
}
  0
DIMENSION
  5
249A0
330
747D
100
AcDbEntity
  8
寸法
 48
50.0
100
AcDbDimension
  2
*D42
 10
5645.51267376788
 20
5758.176748306325
 30
0.0
 11
5645.512673767879
 21
6118.176748306326
 31
0.0
 70
   160
  1
扉の出<>
 71
     5
 42
720.0
  3
INABA_S40G
100
AcDbAlignedDimension
 13
5758.600000000003
 23
6478.176748306324
 33
0.0
 14
6114.325326928808
 24
5758.176748306325
 34
0.0
 50
90.0
100
AcDbRotatedDimension
1001
ACAD
1000
DSTYLE
1002
{
1070
   341
1005
0
1002
}
  0
ARC
  5
249A1
330
747D
100
AcDbEntity
  8
想像線
 48
5.0
100
AcDbCircle
 10
6528.600000000003
 20
6478.176748306331
 30
0.0
 40
720.0
100
AcDbArc
 50
180.0
 51
270.0
  0
LINE
  5
249A2
330
747D
100
AcDbEntity
  8
想像線
 48
5.0
100
AcDbLine
 10
6528.600000000003
 20
6478.176748306343
 30
0.0
 11
6528.600000000003
 21
5758.176748306333
 31
0.0
  0
CIRCLE
  5
249A3
330
747D
100
AcDbEntity
  8
部品1
 48
50.0
100
AcDbCircle
 10
5881.599999999992
 20
6676.176748306332
 30
0.0
 40
35.0
  0
LINE
  5
249A4
330
747D
100
AcDbEntity
  8
センター
 48
2.0
100
AcDbLine
 10
5881.600000000006
 20
6726.176748306333
 30
0.0
 11
5881.600000000006
 21
6626.176748306332
 31
0.0
  0
LINE
  5
249A5
330
747D
100
AcDbEntity
  8
センター
 48
2.0
100
AcDbLine
 10
5831.600000000007
 20
6676.176748306332
 30
0.0
 11
5931.600000000006
 21
6676.176748306332
 31
0.0
  0
LINE
  5
249A6
102
{ACAD_REACTORS
330
254A1
102
}
330
747D
100
AcDbEntity
  8
部品1
 48
50.0
100
AcDbLine
 10
5878.599999999999
 20
7093.176748306341
 30
0.0
 11
5758.600000000001
 21
7093.17674830634
 31
0.0
  0
LINE
  5
249A7
330
747D
100
AcDbEntity
  8
細線
 48
50.0
100
AcDbLine
 10
6074.700523133079
 20
6478.176748306329
 30
0.0
 11
6273.600000000003
 21
6677.076225173256
 31
0.0
  0
LINE
  5
249A8
330
747D
100
AcDbEntity
  8
細線
 48
50.0
100
AcDbLine
 10
6073.600000000006
 20
6521.977505778605
 30
0.0
 11
6273.6
 21
6721.977505778595
 31
0.0
  0
LINE
  5
249A9
330
747D
100
AcDbEntity
  8
細線
 48
50.0
100
AcDbLine
 10
6073.600000000003
 20
6566.878786383949
 30
0.0
 11
6264.897961922381
 21
6758.176748306325
 31
0.0
  0
LINE
  5
249AA
330
747D
100
AcDbEntity
  8
部品1
 48
50.0
100
AcDbLine
 10
6273.600000000001
 20
6758.176748306327
 30
0.0
 11
6273.600000000007
 21
6478.176748306331
 31
0.0
  0
LINE
  5
249AB
330
747D
100
AcDbEntity
  8
部品1
 48
50.0
100
AcDbLine
 10
6073.6
 20
6758.176748306325
 30
0.0
 11
6073.600000000006
 21
6478.176748306329
 31
0.0
  0
LINE
  5
249AC
330
747D
100
AcDbEntity
  8
細線
 48
50.0
100
AcDbLine
 10
6073.600000000005
 20
6611.780066989291
 30
0.0
 11
6219.99668131703
 21
6758.176748306327
 31
0.0
  0
LINE
  5
249AD
330
747D
100
AcDbEntity
  8
細線
 48
50.0
100
AcDbLine
 10
6073.600000000003
 20
6656.681347594641
 30
0.0
 11
6175.09540071169
 21
6758.176748306325
 31
0.0
  0
DIMENSION
  5
249AE
330
747D
100
AcDbEntity
  8
寸法
 48
50.0
100
AcDbDimension
  2
*D43
 10
6241.285990614301
 20
7205.176748306328
 30
0.0
 11
6241.2859906143
 21
6920.176748306329
 31
0.0
 70
   160
 71
     5
 42
726.9999999999891
  3
INABA_S40G
100
AcDbAlignedDimension
 13
6332.7654751409
 23
6478.176748306339
 33
0.0
 14
6533.600000000006
 24
7205.176748306328
 34
0.0
 50
90.0
100
AcDbRotatedDimension
1001
ACAD
1000
DSTYLE
1002
{
1070
   341
1005
0
1002
}
  0
LINE
  5
249AF
330
747D
100
AcDbEntity
  8
細線
 48
50.0
100
AcDbLine
 10
6119.601803738425
 20
6478.176748306331
 30
0.0
 11
6273.600000000003
 21
6632.174944567913
 31
0.0
  0
LINE
  5
249B0
330
747D
100
AcDbEntity
  8
細線
 48
50.0
100
AcDbLine
 10
6164.503084343771
 20
6478.176748306331
 30
0.0
 11
6273.600000000003
 21
6587.273663962564
 31
0.0
  0
LINE
  5
249B1
330
747D
100
AcDbEntity
  8
細線
 48
50.0
100
AcDbLine
 10
6254.305645554466
 20
6478.176748306335
 30
0.0
 11
6273.600000000007
 21
6497.471102751875
 31
0.0
  0
LINE
  5
249B2
330
747D
100
AcDbEntity
  8
細線
 48
50.0
100
AcDbLine
 10
6209.404364949117
 20
6478.176748306331
 30
0.0
 11
6273.600000000007
 21
6542.372383357221
 31
0.0
  0
LINE
  5
249B3
330
747D
100
AcDbEntity
  8
細線
 48
50.0
100
AcDbLine
 10
6073.600000000003
 20
6701.582628199988
 30
0.0
 11
6130.194120106337
 21
6758.176748306325
 31
0.0
  0
LINE
  5
249B4
330
747D
100
AcDbEntity
  8
センター
 48
2.0
100
AcDbLine
 10
6533.600000000006
 20
7205.176748306328
 30
0.0
 11
6633.600000000007
 21
7205.176748306328
 31
0.0
  0
LINE
  5
249B5
330
747D
100
AcDbEntity
  8
部品1
 48
50.0
100
AcDbLine
 10
6683.600000000007
 20
7105.176748306329
 30
0.0
 11
6483.600000000007
 21
7105.176748306329
 31
0.0
  0
LINE
  5
249B6
330
747D
100
AcDbEntity
  8
センター
 48
2.0
100
AcDbLine
 10
6583.600000000007
 20
7255.176748306329
 30
0.0
 11
6583.600000000007
 21
7155.176748306328
 31
0.0
  0
LINE
  5
249C3
330
747D
100
AcDbEntity
  8
部品1
 48
50.0
100
AcDbLine
 10
7503.600000000007
 20
7105.176748306329
 30
0.0
 11
7303.600000000007
 21
7105.176748306329
 31
0.0
  0
LINE
  5
249C4
330
747D
100
AcDbEntity
  8
センター
 48
2.0
100
AcDbLine
 10
7353.600000000007
 20
7205.176748306328
 30
0.0
 11
7453.600000000007
 21
7205.176748306328
 31
0.0
  0
LINE
  5
249C5
330
747D
100
AcDbEntity
  8
センター
 48
2.0
100
AcDbLine
 10
7403.600000000007
 20
7255.176748306329
 30
0.0
 11
7403.600000000007
 21
7155.176748306328
 31
0.0
  0
CIRCLE
  5
249CD
330
747D
100
AcDbEntity
  8
部品1
 48
50.0
100
AcDbCircle
 10
8105.600000000007
 20
6676.176748306332
 30
0.0
 40
35.0
  0
LINE
  5
249CE
330
747D
100
AcDbEntity
  8
センター
 48
2.0
100
AcDbLine
 10
8105.600000000007
 20
6726.176748306333
 30
0.0
 11
8105.600000000007
 21
6626.176748306332
 31
0.0
  0
LINE
  5
249D3
330
747D
100
AcDbEntity
  8
センター
 48
2.0
100
AcDbLine
 10
8055.600000000008
 20
6676.176748306332
 30
0.0
 11
8155.600000000008
 21
6676.176748306332
 31
0.0
  0
LINE
  5
249D5
330
747D
100
AcDbEntity
  8
センター
 48
2.0
100
AcDbLine
 10
8173.600000000009
 20
7205.176748306328
 30
0.0
 11
8273.600000000008
 21
7205.176748306328
 31
0.0
  0
LINE
  5
249D6
330
747D
100
AcDbEntity
  8
部品1
 48
50.0
100
AcDbLine
 10
8323.600000000009
 20
7105.176748306329
 30
0.0
 11
8123.600000000008
 21
7105.176748306329
 31
0.0
  0
LINE
  5
249D7
330
747D
100
AcDbEntity
  8
センター
 48
2.0
100
AcDbLine
 10
8223.60000000001
 20
7255.176748306329
 30
0.0
 11
8223.60000000001
 21
7155.176748306328
 31
0.0
  0
DIMENSION
  5
249D8
330
747D
100
AcDbEntity
  8
寸法
 48
50.0
100
AcDbDimension
  2
*D44
 10
5135.665006330071
 20
7735.176748306328
 30
0.0
 11
5135.665006330071
 21
8131.283350024128
 31
0.0
 70
   160
 71
     5
 42
123.0
  3
INABA_S40G
100
AcDbAlignedDimension
 13
5758.6
 23
7858.176748306329
 33
0.0
 14
5831.599999999999
 24
7735.176748306328
 34
0.0
 50
90.0
100
AcDbRotatedDimension
1001
ACAD
1000
DSTYLE
1002
{
1070
   341
1005
0
1002
}
  0
DIMENSION
  5
249DA
330
747D
100
AcDbEntity
  8
寸法
 48
50.0
100
AcDbDimension
  2
*D45
 10
5881.599999999999
 20
8584.443206400239
 30
0.0
 11
6993.6
 21
8684.455017423863
 31
0.0
 70
    32
 71
     5
 42
2224.000000000002
  3
INABA_S40G
100
AcDbAlignedDimension
 13
8105.6
 23
7785.176748306328
 33
0.0
 14
5881.599999999999
 24
7785.176748306328
 34
0.0
100
AcDbRotatedDimension
1001
ACAD
1000
DSTYLE
1002
{
1070
   341
1005
0
1002
}
  0
DIMENSION
  5
249DC
330
747D
100
AcDbEntity
  8
寸法
 48
50.0
100
AcDbDimension
  2
*D46
 10
5758.6
 20
8584.443206400239
 30
0.0
 11
5485.493398282201
 21
8584.443206400239
 31
0.0
 70
   160
 71
     5
 42
123.0
  3
INABA_S40G
100
AcDbAlignedDimension
 13
5881.599999999999
 23
7785.176748306328
 33
0.0
 14
5758.6
 24
7858.176748306329
 34
0.0
100
AcDbRotatedDimension
1001
ACAD
1000
DSTYLE
1002
{
1070
   341
1005
0
1002
}
  0
LINE
  5
249DD
102
{ACAD_REACTORS
330
254A1
102
}
330
747D
100
AcDbEntity
  8
部品1
 48
50.0
100
AcDbLine
 10
5878.599999999999
 20
7293.17674830634
 30
0.0
 11
5758.600000000001
 21
7293.17674830634
 31
0.0
  0
LINE
  5
249DE
330
747D
100
AcDbEntity
  8
センター
 48
2.0
100
AcDbLine
 10
5831.599999999999
 20
7735.176748306328
 30
0.0
 11
5931.599999999999
 21
7735.176748306328
 31
0.0
  0
LINE
  5
249DF
330
747D
100
AcDbEntity
  8
センター
 48
2.0
100
AcDbLine
 10
5881.599999999999
 20
7785.176748306328
 30
0.0
 11
5881.599999999999
 21
7685.176748306329
 31
0.0
  0
CIRCLE
  5
249E0
330
747D
100
AcDbEntity
  8
部品1
 48
50.0
100
AcDbCircle
 10
5881.599999999999
 20
7735.176748306328
 30
0.0
 40
35.0
  0
LINE
  5
249E1
330
747D
100
AcDbEntity
  8
部品1
 48
50.0
100
AcDbLine
 10
6273.600000000007
 20
7858.176748306329
 30
0.0
 11
6273.60000000001
 21
7658.176748306328
 31
0.0
  0
LINE
  5
249E2
330
747D
100
AcDbEntity
  8
部品1
 48
50.0
100
AcDbLine
 10
6073.600000000006
 20
7858.176748306329
 30
0.0
 11
6073.60000000001
 21
7658.176748306328
 31
0.0
  0
LINE
  5
249E3
330
747D
100
AcDbEntity
  8
細線
 48
50.0
100
AcDbLine
 10
6073.600000000009
 20
7750.200556674826
 30
0.0
 11
6181.57619163151
 21
7858.176748306327
 31
0.0
  0
LINE
  5
249E4
330
747D
100
AcDbEntity
  8
細線
 48
50.0
100
AcDbLine
 10
6073.600000000006
 20
7795.101837280173
 30
0.0
 11
6136.674911026167
 21
7858.176748306329
 31
0.0
  0
LINE
  5
249E5
330
747D
100
AcDbEntity
  8
細線
 48
50.0
100
AcDbLine
 10
6073.60000000001
 20
7660.397995464133
 30
0.0
 11
6271.378752842201
 21
7858.176748306327
 31
0.0
  0
LINE
  5
249E6
330
747D
100
AcDbEntity
  8
細線
 48
50.0
100
AcDbLine
 10
6073.600000000009
 20
7705.299276069478
 30
0.0
 11
6226.477472236858
 21
7858.176748306329
 31
0.0
  0
LINE
  5
249E7
330
747D
100
AcDbEntity
  8
細線
 48
50.0
100
AcDbLine
 10
6161.181314052877
 20
7658.176748306328
 30
0.0
 11
6273.600000000007
 21
7770.595434253441
 31
0.0
  0
LINE
  5
249E8
330
747D
100
AcDbEntity
  8
細線
 48
50.0
100
AcDbLine
 10
6116.280033447544
 20
7658.176748306324
 30
0.0
 11
6273.600000000007
 21
7815.496714858785
 31
0.0
  0
LINE
  5
249E9
330
747D
100
AcDbEntity
  8
細線
 48
50.0
100
AcDbLine
 10
6206.082594658231
 20
7658.176748306328
 30
0.0
 11
6273.60000000001
 21
7725.694153648102
 31
0.0
  0
LINE
  5
249EA
330
747D
100
AcDbEntity
  8
細線
 48
50.0
100
AcDbLine
 10
6250.983875263568
 20
7658.176748306324
 30
0.0
 11
6273.60000000001
 21
7680.792873042766
 31
0.0
  0
LINE
  5
249EB
330
747D
100
AcDbEntity
  8
部品1
 48
50.0
100
AcDbLine
 10
6683.600000000007
 20
7305.176748306329
 30
0.0
 11
6483.600000000007
 21
7305.176748306329
 31
0.0
  0
LINE
  5
249EC
330
747D
100
AcDbEntity
  8
細線
 48
50.0
100
AcDbLine
 10
6073.600000000006
 20
7840.003117885515
 30
0.0
 11
6091.773630420821
 21
7858.176748306329
 31
0.0
  0
LINE
  5
249EE
330
747D
100
AcDbEntity
  8
部品1
 48
50.0
100
AcDbLine
 10
7093.600000000006
 20
7858.176748306329
 30
0.0
 11
7093.600000000011
 21
7658.176748306328
 31
0.0
  0
LINE
  5
249EF
330
747D
100
AcDbEntity
  8
部品1
 48
50.0
100
AcDbLine
 10
6893.600000000006
 20
7858.176748306329
 30
0.0
 11
6893.60000000001
 21
7658.176748306328
 31
0.0
  0
LINE
  5
249F0
330
747D
100
AcDbEntity
  8
細線
 48
50.0
100
AcDbLine
 10
6893.600000000009
 20
7750.200556674828
 30
0.0
 11
7001.57619163151
 21
7858.176748306327
 31
0.0
  0
LINE
  5
249F1
330
747D
100
AcDbEntity
  8
細線
 48
50.0
100
AcDbLine
 10
6893.600000000006
 20
7795.101837280173
 30
0.0
 11
6956.674911026166
 21
7858.176748306329
 31
0.0
  0
LINE
  5
249F2
330
747D
100
AcDbEntity
  8
細線
 48
50.0
100
AcDbLine
 10
6893.60000000001
 20
7705.299276069479
 30
0.0
 11
7046.477472236857
 21
7858.176748306329
 31
0.0
  0
LINE
  5
249F3
330
747D
100
AcDbEntity
  8
細線
 48
50.0
100
AcDbLine
 10
6893.60000000001
 20
7660.397995464136
 30
0.0
 11
7091.3787528422
 21
7858.176748306327
 31
0.0
  0
LINE
  5
249F4
330
747D
100
AcDbEntity
  8
細線
 48
50.0
100
AcDbLine
 10
6936.280033447544
 20
7658.176748306328
 30
0.0
 11
7093.600000000006
 21
7815.496714858785
 31
0.0
  0
LINE
  5
249F5
330
747D
100
AcDbEntity
  8
細線
 48
50.0
100
AcDbLine
 10
6981.18131405288
 20
7658.176748306328
 30
0.0
 11
7093.600000000006
 21
7770.595434253441
 31
0.0
  0
LINE
  5
249F6
330
747D
100
AcDbEntity
  8
細線
 48
50.0
100
AcDbLine
 10
7026.082594658231
 20
7658.176748306328
 30
0.0
 11
7093.600000000011
 21
7725.694153648105
 31
0.0
  0
LINE
  5
249F7
330
747D
100
AcDbEntity
  8
細線
 48
50.0
100
AcDbLine
 10
7070.98387526357
 20
7658.176748306328
 30
0.0
 11
7093.600000000011
 21
7680.792873042765
 31
0.0
  0
LINE
  5
249F8
330
747D
100
AcDbEntity
  8
部品1
 48
50.0
100
AcDbLine
 10
7503.600000000007
 20
7305.176748306329
 30
0.0
 11
7303.600000000007
 21
7305.176748306329
 31
0.0
  0
LINE
  5
249F9
330
747D
100
AcDbEntity
  8
細線
 48
50.0
100
AcDbLine
 10
6893.600000000006
 20
7840.003117885515
 30
0.0
 11
6911.773630420821
 21
7858.176748306329
 31
0.0
  0
LINE
  5
249FA
330
747D
100
AcDbEntity
  8
部品1
 48
50.0
100
AcDbLine
 10
7913.600000000006
 20
7858.176748306329
 30
0.0
 11
7913.600000000011
 21
7658.176748306328
 31
0.0
  0
LINE
  5
249FB
330
747D
100
AcDbEntity
  8
部品1
 48
50.0
100
AcDbLine
 10
7713.600000000006
 20
7858.176748306329
 30
0.0
 11
7713.600000000011
 21
7658.176748306328
 31
0.0
  0
LINE
  5
249FC
330
747D
100
AcDbEntity
  8
細線
 48
50.0
100
AcDbLine
 10
7713.600000000006
 20
7750.200556674828
 30
0.0
 11
7821.57619163151
 21
7858.176748306327
 31
0.0
  0
LINE
  5
249FD
330
747D
100
AcDbEntity
  8
細線
 48
50.0
100
AcDbLine
 10
7713.600000000006
 20
7795.101837280173
 30
0.0
 11
7776.674911026167
 21
7858.176748306329
 31
0.0
  0
LINE
  5
249FE
330
747D
100
AcDbEntity
  8
細線
 48
50.0
100
AcDbLine
 10
7713.600000000011
 20
7660.397995464136
 30
0.0
 11
7911.378752842201
 21
7858.176748306327
 31
0.0
  0
LINE
  5
249FF
330
747D
100
AcDbEntity
  8
細線
 48
50.0
100
AcDbLine
 10
7713.600000000011
 20
7705.299276069479
 30
0.0
 11
7866.477472236858
 21
7858.176748306329
 31
0.0
  0
LINE
  5
24A00
330
747D
100
AcDbEntity
  8
細線
 48
50.0
100
AcDbLine
 10
7801.18131405288
 20
7658.176748306328
 30
0.0
 11
7913.600000000006
 21
7770.595434253441
 31
0.0
  0
LINE
  5
24A01
330
747D
100
AcDbEntity
  8
細線
 48
50.0
100
AcDbLine
 10
7756.280033447544
 20
7658.176748306328
 30
0.0
 11
7913.600000000006
 21
7815.496714858785
 31
0.0
  0
LINE
  5
24A02
330
747D
100
AcDbEntity
  8
細線
 48
50.0
100
AcDbLine
 10
7890.983875263571
 20
7658.176748306328
 30
0.0
 11
7913.600000000011
 21
7680.792873042765
 31
0.0
  0
LINE
  5
24A03
330
747D
100
AcDbEntity
  8
細線
 48
50.0
100
AcDbLine
 10
7846.082594658231
 20
7658.176748306328
 30
0.0
 11
7913.600000000011
 21
7725.694153648105
 31
0.0
  0
LINE
  5
24A04
330
747D
100
AcDbEntity
  8
部品1
 48
50.0
100
AcDbLine
 10
8323.600000000009
 20
7305.176748306329
 30
0.0
 11
8123.600000000008
 21
7305.176748306329
 31
0.0
  0
LINE
  5
24A05
330
747D
100
AcDbEntity
  8
センター
 48
2.0
100
AcDbLine
 10
8055.600000000001
 20
7735.176748306328
 30
0.0
 11
8155.600000000001
 21
7735.176748306328
 31
0.0
  0
LINE
  5
24A06
330
747D
100
AcDbEntity
  8
センター
 48
2.0
100
AcDbLine
 10
8105.6
 20
7785.176748306328
 30
0.0
 11
8105.6
 21
7685.176748306329
 31
0.0
  0
CIRCLE
  5
24A07
330
747D
100
AcDbEntity
  8
部品1
 48
50.0
100
AcDbCircle
 10
8105.6
 20
7735.176748306328
 30
0.0
 40
35.0
  0
LINE
  5
24A08
330
747D
100
AcDbEntity
  8
細線
 48
50.0
100
AcDbLine
 10
7713.600000000006
 20
7840.003117885515
 30
0.0
 11
7731.773630420819
 21
7858.176748306329
 31
0.0
  0
LINE
  5
24A0A
102
{ACAD_REACTORS
330
25483
102
}
330
747D
100
AcDbEntity
  8
部品1
 48
50.0
100
AcDbLine
 10
10688.6
 20
6478.176748306347
 30
0.0
 11
10688.6
 21
7858.176748306329
 31
0.0
  0
LINE
  5
24A0D
330
747D
100
AcDbEntity
  8
部品1
 48
50.0
100
AcDbLine
 10
9763.60000000001
 20
7105.176748306329
 30
0.0
 11
9763.60000000001
 21
7305.176748306329
 31
0.0
  0
LINE
  5
24A0E
330
747D
100
AcDbEntity
  8
部品1
 48
50.0
100
AcDbLine
 10
9963.60000000001
 20
7105.176748306329
 30
0.0
 11
9963.60000000001
 21
7305.176748306329
 31
0.0
  0
LINE
  5
24A0F
330
747D
100
AcDbEntity
  8
部品1
 48
50.0
100
AcDbLine
 10
9143.600000000009
 20
7105.176748306329
 30
0.0
 11
9143.600000000009
 21
7305.176748306329
 31
0.0
  0
DIMENSION
  5
24A10
330
747D
100
AcDbEntity
  8
寸法
 48
50.0
100
AcDbDimension
  2
*D47
 10
9863.60000000001
 20
8340.785564976577
 30
0.0
 11
10276.1
 21
8440.797376000199
 31
0.0
 70
    32
 71
     5
 42
824.9999999999927
  3
INABA_S40G
100
AcDbAlignedDimension
 13
10688.6
 23
7858.176748306329
 33
0.0
 14
9863.60000000001
 24
7255.176748306329
 34
0.0
100
AcDbRotatedDimension
1001
ACAD
1000
DSTYLE
1002
{
1070
   341
1005
0
1002
}
  0
LINE
  5
24A11
330
747D
100
AcDbEntity
  8
部品1
 48
50.0
100
AcDbLine
 10
8943.600000000008
 20
7105.176748306329
 30
0.0
 11
8943.600000000008
 21
7305.176748306329
 31
0.0
  0
DIMENSION
  5
24A14
330
747D
100
AcDbEntity
  8
寸法
 48
50.0
100
AcDbDimension
  2
*D30
 10
9043.60000000001
 20
8340.785564976577
 30
0.0
 11
9453.60000000001
 21
8440.797376000199
 31
0.0
 70
    32
 71
     5
 42
820.0
  3
INABA_S40G
100
AcDbAlignedDimension
 13
9863.60000000001
 23
7255.176748306329
 33
0.0
 14
9043.60000000001
 24
7255.176748306329
 34
0.0
100
AcDbRotatedDimension
1001
ACAD
1000
DSTYLE
1002
{
1070
   341
1005
0
1002
}
  0
LINE
  5
24A25
330
747D
100
AcDbEntity
  8
部品1
 48
50.0
100
AcDbLine
 10
9143.600000000009
 20
7105.176748306329
 30
0.0
 11
8943.600000000008
 21
7105.176748306329
 31
0.0
  0
LINE
  5
24A26
330
747D
100
AcDbEntity
  8
センター
 48
2.0
100
AcDbLine
 10
8993.600000000009
 20
7205.176748306328
 30
0.0
 11
9093.600000000009
 21
7205.176748306328
 31
0.0
  0
LINE
  5
24A27
330
747D
100
AcDbEntity
  8
センター
 48
2.0
100
AcDbLine
 10
9043.60000000001
 20
7255.176748306329
 30
0.0
 11
9043.60000000001
 21
7155.176748306328
 31
0.0
  0
LINE
  5
24A34
330
747D
100
AcDbEntity
  8
センター
 48
2.0
100
AcDbLine
 10
9813.600000000009
 20
7205.176748306328
 30
0.0
 11
9913.600000000009
 21
7205.176748306328
 31
0.0
  0
LINE
  5
24A35
330
747D
100
AcDbEntity
  8
部品1
 48
50.0
100
AcDbLine
 10
9963.60000000001
 20
7105.176748306329
 30
0.0
 11
9763.60000000001
 21
7105.176748306329
 31
0.0
  0
LINE
  5
24A36
330
747D
100
AcDbEntity
  8
センター
 48
2.0
100
AcDbLine
 10
9863.60000000001
 20
7255.176748306329
 30
0.0
 11
9863.60000000001
 21
7155.176748306328
 31
0.0
  0
CIRCLE
  5
24A40
330
747D
100
AcDbEntity
  8
部品1
 48
50.0
100
AcDbCircle
 10
10565.60000000001
 20
6676.176748306332
 30
0.0
 40
35.0
  0
LINE
  5
24A41
330
747D
100
AcDbEntity
  8
センター
 48
2.0
100
AcDbLine
 10
10565.60000000001
 20
6726.176748306333
 30
0.0
 11
10565.60000000001
 21
6626.176748306332
 31
0.0
  0
LINE
  5
24A46
330
747D
100
AcDbEntity
  8
センター
 48
2.0
100
AcDbLine
 10
10515.60000000001
 20
6676.176748306332
 30
0.0
 11
10615.60000000001
 21
6676.176748306332
 31
0.0
  0
LINE
  5
24A48
102
{ACAD_REACTORS
330
25483
102
}
330
747D
100
AcDbEntity
  8
部品1
 48
50.0
100
AcDbLine
 10
10688.59999999999
 20
7093.176748306338
 30
0.0
 11
10568.6
 21
7093.176748306338
 31
0.0
  0
LINE
  5
24A49
330
747D
100
AcDbEntity
  8
部品1
 48
50.0
100
AcDbLine
 10
8733.600000000006
 20
7858.176748306329
 30
0.0
 11
8733.600000000009
 21
7658.176748306328
 31
0.0
  0
LINE
  5
24A4A
330
747D
100
AcDbEntity
  8
部品1
 48
50.0
100
AcDbLine
 10
8533.600000000005
 20
7858.176748306329
 30
0.0
 11
8533.60000000001
 21
7658.176748306328
 31
0.0
  0
LINE
  5
24A4B
330
747D
100
AcDbEntity
  8
細線
 48
50.0
100
AcDbLine
 10
8533.600000000005
 20
7750.200556674828
 30
0.0
 11
8641.576191631509
 21
7858.176748306327
 31
0.0
  0
LINE
  5
24A4C
330
747D
100
AcDbEntity
  8
細線
 48
50.0
100
AcDbLine
 10
8533.600000000005
 20
7795.101837280173
 30
0.0
 11
8596.674911026166
 21
7858.176748306329
 31
0.0
  0
LINE
  5
24A4D
330
747D
100
AcDbEntity
  8
細線
 48
50.0
100
AcDbLine
 10
8533.60000000001
 20
7705.299276069479
 30
0.0
 11
8686.477472236857
 21
7858.176748306329
 31
0.0
  0
LINE
  5
24A4E
330
747D
100
AcDbEntity
  8
細線
 48
50.0
100
AcDbLine
 10
8533.60000000001
 20
7660.397995464136
 30
0.0
 11
8731.3787528422
 21
7858.176748306327
 31
0.0
  0
LINE
  5
24A4F
330
747D
100
AcDbEntity
  8
細線
 48
50.0
100
AcDbLine
 10
8576.280033447543
 20
7658.176748306328
 30
0.0
 11
8733.600000000006
 21
7815.496714858785
 31
0.0
  0
LINE
  5
24A50
330
747D
100
AcDbEntity
  8
細線
 48
50.0
100
AcDbLine
 10
8621.181314052879
 20
7658.176748306328
 30
0.0
 11
8733.600000000006
 21
7770.595434253441
 31
0.0
  0
LINE
  5
24A51
330
747D
100
AcDbEntity
  8
細線
 48
50.0
100
AcDbLine
 10
8666.082594658231
 20
7658.176748306328
 30
0.0
 11
8733.600000000009
 21
7725.694153648105
 31
0.0
  0
LINE
  5
24A52
330
747D
100
AcDbEntity
  8
細線
 48
50.0
100
AcDbLine
 10
8710.98387526357
 20
7658.176748306328
 30
0.0
 11
8733.600000000009
 21
7680.792873042765
 31
0.0
  0
LINE
  5
24A53
330
747D
100
AcDbEntity
  8
部品1
 48
50.0
100
AcDbLine
 10
9143.600000000009
 20
7305.176748306329
 30
0.0
 11
8943.600000000008
 21
7305.176748306329
 31
0.0
  0
LINE
  5
24A54
330
747D
100
AcDbEntity
  8
細線
 48
50.0
100
AcDbLine
 10
8533.600000000005
 20
7840.003117885515
 30
0.0
 11
8551.77363042082
 21
7858.176748306329
 31
0.0
  0
LINE
  5
24A55
330
747D
100
AcDbEntity
  8
部品1
 48
50.0
100
AcDbLine
 10
9553.600000000006
 20
7858.176748306329
 30
0.0
 11
9553.60000000001
 21
7658.176748306328
 31
0.0
  0
LINE
  5
24A56
330
747D
100
AcDbEntity
  8
細線
 48
50.0
100
AcDbLine
 10
9353.600000000005
 20
7795.101837280173
 30
0.0
 11
9416.674911026166
 21
7858.176748306329
 31
0.0
  0
LINE
  5
24A57
330
747D
100
AcDbEntity
  8
細線
 48
50.0
100
AcDbLine
 10
9353.600000000005
 20
7750.200556674828
 30
0.0
 11
9461.576191631509
 21
7858.176748306327
 31
0.0
  0
LINE
  5
24A58
330
747D
100
AcDbEntity
  8
部品1
 48
50.0
100
AcDbLine
 10
9353.600000000005
 20
7858.176748306329
 30
0.0
 11
9353.60000000001
 21
7658.176748306328
 31
0.0
  0
LINE
  5
24A59
330
747D
100
AcDbEntity
  8
細線
 48
50.0
100
AcDbLine
 10
9353.60000000001
 20
7660.397995464136
 30
0.0
 11
9551.3787528422
 21
7858.176748306327
 31
0.0
  0
LINE
  5
24A5A
330
747D
100
AcDbEntity
  8
細線
 48
50.0
100
AcDbLine
 10
9353.60000000001
 20
7705.299276069479
 30
0.0
 11
9506.477472236857
 21
7858.176748306329
 31
0.0
  0
LINE
  5
24A5B
330
747D
100
AcDbEntity
  8
細線
 48
50.0
100
AcDbLine
 10
9441.181314052879
 20
7658.176748306328
 30
0.0
 11
9553.600000000006
 21
7770.595434253441
 31
0.0
  0
LINE
  5
24A5C
330
747D
100
AcDbEntity
  8
細線
 48
50.0
100
AcDbLine
 10
9396.280033447544
 20
7658.176748306328
 30
0.0
 11
9553.600000000006
 21
7815.496714858785
 31
0.0
  0
LINE
  5
24A5D
330
747D
100
AcDbEntity
  8
細線
 48
50.0
100
AcDbLine
 10
9530.98387526357
 20
7658.176748306328
 30
0.0
 11
9553.60000000001
 21
7680.792873042765
 31
0.0
  0
LINE
  5
24A5E
330
747D
100
AcDbEntity
  8
細線
 48
50.0
100
AcDbLine
 10
9486.082594658229
 20
7658.176748306328
 30
0.0
 11
9553.60000000001
 21
7725.694153648105
 31
0.0
  0
LINE
  5
24A5F
330
747D
100
AcDbEntity
  8
部品1
 48
50.0
100
AcDbLine
 10
9963.60000000001
 20
7305.176748306329
 30
0.0
 11
9763.60000000001
 21
7305.176748306329
 31
0.0
  0
LINE
  5
24A60
330
747D
100
AcDbEntity
  8
細線
 48
50.0
100
AcDbLine
 10
9353.600000000005
 20
7840.003117885515
 30
0.0
 11
9371.773630420818
 21
7858.176748306329
 31
0.0
  0
DIMENSION
  5
24A61
330
747D
100
AcDbEntity
  8
寸法
 48
50.0
100
AcDbDimension
  2
*D31
 10
10565.6
 20
8584.443206400239
 30
0.0
 11
10961.7066017178
 21
8584.443206400239
 31
0.0
 70
   160
 71
     5
 42
123.0
  3
INABA_S40G
100
AcDbAlignedDimension
 13
10688.6
 23
7858.176748306329
 33
0.0
 14
10565.6
 24
7785.176748306328
 34
0.0
100
AcDbRotatedDimension
1001
ACAD
1000
DSTYLE
1002
{
1070
   341
1005
0
1002
}
  0
LINE
  5
24A64
330
747D
100
AcDbEntity
  8
部品1
 48
50.0
100
AcDbLine
 10
10373.60000000001
 20
7858.176748306329
 30
0.0
 11
10373.60000000001
 21
7658.176748306328
 31
0.0
  0
LINE
  5
24A65
330
747D
100
AcDbEntity
  8
部品1
 48
50.0
100
AcDbLine
 10
10173.60000000001
 20
7858.176748306329
 30
0.0
 11
10173.60000000001
 21
7658.176748306328
 31
0.0
  0
LINE
  5
24A66
330
747D
100
AcDbEntity
  8
細線
 48
50.0
100
AcDbLine
 10
10173.60000000001
 20
7750.200556674828
 30
0.0
 11
10281.57619163151
 21
7858.176748306327
 31
0.0
  0
LINE
  5
24A67
330
747D
100
AcDbEntity
  8
細線
 48
50.0
100
AcDbLine
 10
10173.60000000001
 20
7795.101837280173
 30
0.0
 11
10236.67491102617
 21
7858.176748306329
 31
0.0
  0
LINE
  5
24A68
330
747D
100
AcDbEntity
  8
細線
 48
50.0
100
AcDbLine
 10
10173.60000000001
 20
7705.299276069479
 30
0.0
 11
10326.47747223685
 21
7858.176748306329
 31
0.0
  0
LINE
  5
24A69
330
747D
100
AcDbEntity
  8
細線
 48
50.0
100
AcDbLine
 10
10173.60000000001
 20
7660.397995464136
 30
0.0
 11
10371.3787528422
 21
7858.176748306327
 31
0.0
  0
LINE
  5
24A6A
330
747D
100
AcDbEntity
  8
細線
 48
50.0
100
AcDbLine
 10
10216.28003344754
 20
7658.176748306328
 30
0.0
 11
10373.60000000001
 21
7815.496714858785
 31
0.0
  0
LINE
  5
24A6B
330
747D
100
AcDbEntity
  8
細線
 48
50.0
100
AcDbLine
 10
10261.18131405288
 20
7658.176748306328
 30
0.0
 11
10373.60000000001
 21
7770.595434253441
 31
0.0
  0
LINE
  5
24A6C
330
747D
100
AcDbEntity
  8
細線
 48
50.0
100
AcDbLine
 10
10306.08259465823
 20
7658.176748306328
 30
0.0
 11
10373.60000000001
 21
7725.694153648105
 31
0.0
  0
LINE
  5
24A6D
330
747D
100
AcDbEntity
  8
細線
 48
50.0
100
AcDbLine
 10
10350.98387526357
 20
7658.176748306328
 30
0.0
 11
10373.60000000001
 21
7680.792873042765
 31
0.0
  0
LINE
  5
24A6E
102
{ACAD_REACTORS
330
25483
102
}
330
747D
100
AcDbEntity
  8
部品1
 48
50.0
100
AcDbLine
 10
10688.59999999999
 20
7293.176748306338
 30
0.0
 11
10568.6
 21
7293.176748306336
 31
0.0
  0
LINE
  5
24A6F
330
747D
100
AcDbEntity
  8
センター
 48
2.0
100
AcDbLine
 10
10515.6
 20
7735.176748306328
 30
0.0
 11
10615.6
 21
7735.176748306328
 31
0.0
  0
CIRCLE
  5
24A70
330
747D
100
AcDbEntity
  8
部品1
 48
50.0
100
AcDbCircle
 10
10565.6
 20
7735.176748306328
 30
0.0
 40
35.0
  0
LINE
  5
24A71
330
747D
100
AcDbEntity
  8
センター
 48
2.0
100
AcDbLine
 10
10565.6
 20
7785.176748306328
 30
0.0
 11
10565.6
 21
7685.176748306329
 31
0.0
  0
LINE
  5
24A72
330
747D
100
AcDbEntity
  8
細線
 48
50.0
100
AcDbLine
 10
10173.60000000001
 20
7840.003117885515
 30
0.0
 11
10191.77363042082
 21
7858.176748306329
 31
0.0
  0
TEXT
  5
25067
330
747D
100
AcDbEntity
  8
文字
 62
     7
 48
50.0
100
AcDbText
 10
14251.2
 20
838.2527270729188
 30
0.0
 40
100.0
  1
～一般型・多雪地型・豪雪地型～
  7
STYLE2
100
AcDbText
  0
LINE
  5
25087
330
747D
100
AcDbEntity
  8
部品1
 48
50.0
100
AcDbLine
 10
10568.6
 20
6758.176748306346
 30
0.0
 11
5878.599999999999
 21
6758.176748306325
 31
0.0
  0
LINE
  5
25088
330
747D
100
AcDbEntity
  8
細線
 48
50.0
100
AcDbLine
 10
6893.600000000003
 20
6701.582628199988
 30
0.0
 11
6950.194120106337
 21
6758.176748306325
 31
0.0
  0
LINE
  5
25089
330
747D
100
AcDbEntity
  8
細線
 48
50.0
100
AcDbLine
 10
7029.404364949117
 20
6478.176748306331
 30
0.0
 11
7093.600000000006
 21
6542.372383357221
 31
0.0
  0
LINE
  5
2508A
330
747D
100
AcDbEntity
  8
細線
 48
50.0
100
AcDbLine
 10
7074.305645554466
 20
6478.176748306335
 30
0.0
 11
7093.600000000006
 21
6497.471102751875
 31
0.0
  0
LINE
  5
2508B
330
747D
100
AcDbEntity
  8
細線
 48
50.0
100
AcDbLine
 10
6984.503084343771
 20
6478.176748306331
 30
0.0
 11
7093.600000000003
 21
6587.273663962564
 31
0.0
  0
LINE
  5
2508C
330
747D
100
AcDbEntity
  8
細線
 48
50.0
100
AcDbLine
 10
6939.601803738425
 20
6478.176748306331
 30
0.0
 11
7093.600000000003
 21
6632.174944567913
 31
0.0
  0
LINE
  5
2508D
330
747D
100
AcDbEntity
  8
細線
 48
50.0
100
AcDbLine
 10
6893.600000000003
 20
6656.681347594641
 30
0.0
 11
6995.09540071169
 21
6758.176748306325
 31
0.0
  0
LINE
  5
2508E
330
747D
100
AcDbEntity
  8
細線
 48
50.0
100
AcDbLine
 10
6893.600000000005
 20
6611.780066989291
 30
0.0
 11
7039.996681317029
 21
6758.176748306327
 31
0.0
  0
LINE
  5
2508F
330
747D
100
AcDbEntity
  8
部品1
 48
50.0
100
AcDbLine
 10
6893.600000000001
 20
6758.176748306325
 30
0.0
 11
6893.600000000006
 21
6478.176748306329
 31
0.0
  0
LINE
  5
25090
330
747D
100
AcDbEntity
  8
部品1
 48
50.0
100
AcDbLine
 10
7093.600000000002
 20
6758.176748306327
 30
0.0
 11
7093.600000000006
 21
6478.176748306331
 31
0.0
  0
LINE
  5
25091
330
747D
100
AcDbEntity
  8
細線
 48
50.0
100
AcDbLine
 10
6893.600000000003
 20
6566.878786383949
 30
0.0
 11
7084.897961922381
 21
6758.176748306325
 31
0.0
  0
LINE
  5
25092
330
747D
100
AcDbEntity
  8
細線
 48
50.0
100
AcDbLine
 10
6893.600000000006
 20
6521.977505778605
 30
0.0
 11
7093.599999999999
 21
6721.977505778595
 31
0.0
  0
LINE
  5
25093
330
747D
100
AcDbEntity
  8
細線
 48
50.0
100
AcDbLine
 10
6894.700523133079
 20
6478.176748306329
 30
0.0
 11
7093.600000000003
 21
6677.076225173256
 31
0.0
  0
LINE
  5
25094
330
747D
100
AcDbEntity
  8
細線
 48
50.0
100
AcDbLine
 10
7713.600000000004
 20
6701.582628199988
 30
0.0
 11
7770.194120106338
 21
6758.176748306325
 31
0.0
  0
LINE
  5
25095
330
747D
100
AcDbEntity
  8
細線
 48
50.0
100
AcDbLine
 10
7849.404364949117
 20
6478.176748306331
 30
0.0
 11
7913.600000000006
 21
6542.372383357221
 31
0.0
  0
LINE
  5
25096
330
747D
100
AcDbEntity
  8
細線
 48
50.0
100
AcDbLine
 10
7894.305645554466
 20
6478.176748306335
 30
0.0
 11
7913.600000000006
 21
6497.471102751875
 31
0.0
  0
LINE
  5
25097
330
747D
100
AcDbEntity
  8
細線
 48
50.0
100
AcDbLine
 10
7804.503084343771
 20
6478.176748306331
 30
0.0
 11
7913.600000000004
 21
6587.273663962564
 31
0.0
  0
LINE
  5
25098
330
747D
100
AcDbEntity
  8
細線
 48
50.0
100
AcDbLine
 10
7759.601803738426
 20
6478.176748306331
 30
0.0
 11
7913.600000000004
 21
6632.174944567913
 31
0.0
  0
LINE
  5
25099
330
747D
100
AcDbEntity
  8
細線
 48
50.0
100
AcDbLine
 10
7713.600000000004
 20
6656.681347594641
 30
0.0
 11
7815.095400711689
 21
6758.176748306325
 31
0.0
  0
LINE
  5
2509A
330
747D
100
AcDbEntity
  8
細線
 48
50.0
100
AcDbLine
 10
7713.600000000005
 20
6611.780066989291
 30
0.0
 11
7859.99668131703
 21
6758.176748306327
 31
0.0
  0
LINE
  5
2509B
330
747D
100
AcDbEntity
  8
部品1
 48
50.0
100
AcDbLine
 10
7713.600000000001
 20
6758.176748306325
 30
0.0
 11
7713.600000000006
 21
6478.176748306329
 31
0.0
  0
LINE
  5
2509C
330
747D
100
AcDbEntity
  8
部品1
 48
50.0
100
AcDbLine
 10
7913.600000000001
 20
6758.176748306327
 30
0.0
 11
7913.600000000006
 21
6478.176748306331
 31
0.0
  0
LINE
  5
2509D
330
747D
100
AcDbEntity
  8
細線
 48
50.0
100
AcDbLine
 10
7713.600000000004
 20
6566.878786383949
 30
0.0
 11
7904.897961922381
 21
6758.176748306325
 31
0.0
  0
LINE
  5
2509E
330
747D
100
AcDbEntity
  8
細線
 48
50.0
100
AcDbLine
 10
7713.600000000006
 20
6521.977505778605
 30
0.0
 11
7913.599999999999
 21
6721.977505778595
 31
0.0
  0
LINE
  5
2509F
330
747D
100
AcDbEntity
  8
細線
 48
50.0
100
AcDbLine
 10
7714.700523133079
 20
6478.176748306329
 30
0.0
 11
7913.600000000004
 21
6677.076225173256
 31
0.0
  0
LINE
  5
250A0
330
747D
100
AcDbEntity
  8
細線
 48
50.0
100
AcDbLine
 10
8533.600000000003
 20
6701.582628199988
 30
0.0
 11
8590.194120106337
 21
6758.176748306325
 31
0.0
  0
LINE
  5
250A1
330
747D
100
AcDbEntity
  8
細線
 48
50.0
100
AcDbLine
 10
8669.404364949118
 20
6478.176748306331
 30
0.0
 11
8733.600000000006
 21
6542.372383357221
 31
0.0
  0
LINE
  5
250A2
330
747D
100
AcDbEntity
  8
細線
 48
50.0
100
AcDbLine
 10
8714.305645554466
 20
6478.176748306335
 30
0.0
 11
8733.600000000006
 21
6497.471102751875
 31
0.0
  0
LINE
  5
250A3
330
747D
100
AcDbEntity
  8
細線
 48
50.0
100
AcDbLine
 10
8624.503084343769
 20
6478.176748306331
 30
0.0
 11
8733.600000000002
 21
6587.273663962564
 31
0.0
  0
LINE
  5
250A4
330
747D
100
AcDbEntity
  8
細線
 48
50.0
100
AcDbLine
 10
8579.601803738425
 20
6478.176748306331
 30
0.0
 11
8733.600000000002
 21
6632.174944567913
 31
0.0
  0
LINE
  5
250A5
330
747D
100
AcDbEntity
  8
細線
 48
50.0
100
AcDbLine
 10
8533.600000000003
 20
6656.681347594641
 30
0.0
 11
8635.095400711689
 21
6758.176748306325
 31
0.0
  0
LINE
  5
250A6
330
747D
100
AcDbEntity
  8
細線
 48
50.0
100
AcDbLine
 10
8533.600000000005
 20
6611.780066989291
 30
0.0
 11
8679.996681317028
 21
6758.176748306327
 31
0.0
  0
LINE
  5
250A7
330
747D
100
AcDbEntity
  8
部品1
 48
50.0
100
AcDbLine
 10
8533.599999999999
 20
6758.176748306325
 30
0.0
 11
8533.600000000005
 21
6478.176748306329
 31
0.0
  0
LINE
  5
250A8
330
747D
100
AcDbEntity
  8
部品1
 48
50.0
100
AcDbLine
 10
8733.600000000002
 20
6758.176748306327
 30
0.0
 11
8733.600000000006
 21
6478.176748306331
 31
0.0
  0
LINE
  5
250A9
330
747D
100
AcDbEntity
  8
細線
 48
50.0
100
AcDbLine
 10
8533.600000000003
 20
6566.878786383949
 30
0.0
 11
8724.897961922382
 21
6758.176748306325
 31
0.0
  0
LINE
  5
250AA
330
747D
100
AcDbEntity
  8
細線
 48
50.0
100
AcDbLine
 10
8533.600000000005
 20
6521.977505778605
 30
0.0
 11
8733.599999999999
 21
6721.977505778595
 31
0.0
  0
LINE
  5
250AB
330
747D
100
AcDbEntity
  8
細線
 48
50.0
100
AcDbLine
 10
8534.70052313308
 20
6478.176748306329
 30
0.0
 11
8733.600000000002
 21
6677.076225173256
 31
0.0
  0
LINE
  5
250AC
330
747D
100
AcDbEntity
  8
細線
 48
50.0
100
AcDbLine
 10
9353.600000000003
 20
6701.582628199988
 30
0.0
 11
9410.194120106337
 21
6758.176748306325
 31
0.0
  0
LINE
  5
250AD
330
747D
100
AcDbEntity
  8
細線
 48
50.0
100
AcDbLine
 10
9489.404364949118
 20
6478.176748306331
 30
0.0
 11
9553.600000000006
 21
6542.372383357221
 31
0.0
  0
LINE
  5
250AE
330
747D
100
AcDbEntity
  8
細線
 48
50.0
100
AcDbLine
 10
9534.305645554466
 20
6478.176748306335
 30
0.0
 11
9553.600000000006
 21
6497.471102751875
 31
0.0
  0
LINE
  5
250AF
330
747D
100
AcDbEntity
  8
細線
 48
50.0
100
AcDbLine
 10
9444.50308434377
 20
6478.176748306331
 30
0.0
 11
9553.600000000002
 21
6587.273663962564
 31
0.0
  0
LINE
  5
250B0
330
747D
100
AcDbEntity
  8
細線
 48
50.0
100
AcDbLine
 10
9399.601803738425
 20
6478.176748306331
 30
0.0
 11
9553.600000000002
 21
6632.174944567913
 31
0.0
  0
LINE
  5
250B1
330
747D
100
AcDbEntity
  8
細線
 48
50.0
100
AcDbLine
 10
9353.600000000003
 20
6656.681347594641
 30
0.0
 11
9455.095400711689
 21
6758.176748306325
 31
0.0
  0
LINE
  5
250B2
330
747D
100
AcDbEntity
  8
細線
 48
50.0
100
AcDbLine
 10
9353.600000000005
 20
6611.780066989291
 30
0.0
 11
9499.996681317028
 21
6758.176748306327
 31
0.0
  0
LINE
  5
250B3
330
747D
100
AcDbEntity
  8
部品1
 48
50.0
100
AcDbLine
 10
9353.6
 20
6758.176748306325
 30
0.0
 11
9353.600000000005
 21
6478.176748306329
 31
0.0
  0
LINE
  5
250B4
330
747D
100
AcDbEntity
  8
部品1
 48
50.0
100
AcDbLine
 10
9553.600000000002
 20
6758.176748306327
 30
0.0
 11
9553.600000000006
 21
6478.176748306331
 31
0.0
  0
LINE
  5
250B5
330
747D
100
AcDbEntity
  8
細線
 48
50.0
100
AcDbLine
 10
9353.600000000003
 20
6566.878786383949
 30
0.0
 11
9544.89796192238
 21
6758.176748306325
 31
0.0
  0
LINE
  5
250B6
330
747D
100
AcDbEntity
  8
細線
 48
50.0
100
AcDbLine
 10
9353.600000000005
 20
6521.977505778605
 30
0.0
 11
9553.599999999999
 21
6721.977505778595
 31
0.0
  0
LINE
  5
250B7
330
747D
100
AcDbEntity
  8
細線
 48
50.0
100
AcDbLine
 10
9354.700523133081
 20
6478.176748306329
 30
0.0
 11
9553.600000000002
 21
6677.076225173256
 31
0.0
  0
LINE
  5
250B8
330
747D
100
AcDbEntity
  8
細線
 48
50.0
100
AcDbLine
 10
10173.6
 20
6701.582628199988
 30
0.0
 11
10230.19412010634
 21
6758.176748306325
 31
0.0
  0
LINE
  5
250B9
330
747D
100
AcDbEntity
  8
細線
 48
50.0
100
AcDbLine
 10
10309.40436494911
 20
6478.176748306331
 30
0.0
 11
10373.6
 21
6542.372383357221
 31
0.0
  0
LINE
  5
250BA
330
747D
100
AcDbEntity
  8
細線
 48
50.0
100
AcDbLine
 10
10354.30564555446
 20
6478.176748306335
 30
0.0
 11
10373.6
 21
6497.471102751875
 31
0.0
  0
LINE
  5
250BB
330
747D
100
AcDbEntity
  8
細線
 48
50.0
100
AcDbLine
 10
10264.50308434377
 20
6478.176748306331
 30
0.0
 11
10373.6
 21
6587.273663962564
 31
0.0
  0
LINE
  5
250BC
330
747D
100
AcDbEntity
  8
細線
 48
50.0
100
AcDbLine
 10
10219.60180373842
 20
6478.176748306331
 30
0.0
 11
10373.6
 21
6632.174944567913
 31
0.0
  0
LINE
  5
250BD
330
747D
100
AcDbEntity
  8
細線
 48
50.0
100
AcDbLine
 10
10173.6
 20
6656.681347594641
 30
0.0
 11
10275.09540071169
 21
6758.176748306325
 31
0.0
  0
LINE
  5
250BE
330
747D
100
AcDbEntity
  8
細線
 48
50.0
100
AcDbLine
 10
10173.6
 20
6611.780066989291
 30
0.0
 11
10319.99668131703
 21
6758.176748306327
 31
0.0
  0
LINE
  5
250BF
330
747D
100
AcDbEntity
  8
部品1
 48
50.0
100
AcDbLine
 10
10173.6
 20
6758.176748306325
 30
0.0
 11
10173.6
 21
6478.176748306329
 31
0.0
  0
LINE
  5
250C0
330
747D
100
AcDbEntity
  8
部品1
 48
50.0
100
AcDbLine
 10
10373.6
 20
6758.176748306327
 30
0.0
 11
10373.6
 21
6478.176748306331
 31
0.0
  0
LINE
  5
250C1
330
747D
100
AcDbEntity
  8
細線
 48
50.0
100
AcDbLine
 10
10173.6
 20
6566.878786383949
 30
0.0
 11
10364.89796192238
 21
6758.176748306325
 31
0.0
  0
LINE
  5
250C2
330
747D
100
AcDbEntity
  8
細線
 48
50.0
100
AcDbLine
 10
10173.6
 20
6521.977505778605
 30
0.0
 11
10373.6
 21
6721.977505778595
 31
0.0
  0
LINE
  5
250C3
330
747D
100
AcDbEntity
  8
細線
 48
50.0
100
AcDbLine
 10
10174.70052313308
 20
6478.176748306329
 30
0.0
 11
10373.6
 21
6677.076225173256
 31
0.0
  0
MTEXT
  5
252BF
102
{ACAD_REACTORS
330
252C0
102
}
330
747D
100
AcDbEntity
  8
寸法
 62
     7
 48
50.0
100
AcDbMText
 10
10659.74126610314
 20
2240.789347234802
 30
0.0
 40
120.0
 41
0.8
 71
     4
 72
     1
  1
\A1;C.B
  7
STYLE1
 73
     1
 44
1.0
1001
ACAD
1000
MTEXTBEGIN
1070
    73
1070
     1
1070
    44
1040
1.0
1070
    74
1070
     0
1000
MTEXTEND
  0
LEADER
  5
252C0
330
747D
100
AcDbEntity
  8
寸法
 48
50.0
100
AcDbLeader
  3
INABA_S50G
 73
     0
 74
     0
 75
     1
 40
120.0
 41
185.591883092037
 76
     3
 10
10476.6030594695
 20
1983.643026553664
 30
0.0
 10
10509.74126610314
 20
2155.789347234801
 30
0.0
 10
10634.74126610314
 20
2155.789347234801
 30
0.0
340
252BF
1001
ACAD
1000
DSTYLE
1002
{
1070
    40
1040
1.0
1002
}
  0
LINE
  5
252C1
330
747D
100
AcDbEntity
  8
細線
 48
50.0
100
AcDbLine
 10
10622.25647304591
 20
1627.944110900313
 30
0.0
 11
10615.82569242756
 21
1651.944110900313
 31
0.0
  0
LINE
  5
252C2
330
747D
100
AcDbEntity
  8
細線
 48
50.0
100
AcDbLine
 10
10600.82053765142
 20
1547.944110900313
 30
0.0
 11
10607.25131826977
 21
1523.944110900313
 31
0.0
  0
LINE
  5
252C3
330
747D
100
AcDbEntity
  8
部品1
100
AcDbLine
 10
10665.87864785358
 20
1743.643026553664
 30
0.0
 11
10665.87864785358
 21
1523.944110900314
 31
0.0
  0
LINE
  5
252C4
330
747D
100
AcDbEntity
  8
細線
 48
50.0
100
AcDbLine
 10
10594.38975703307
 20
1523.944110900313
 30
0.0
 11
10628.68725366425
 21
1651.944110900311
 31
0.0
  0
LINE
  5
252C5
330
747D
100
AcDbEntity
  8
細線
 48
50.0
100
AcDbLine
 10
10543.36842809866
 20
1627.944110900313
 30
0.0
 11
10536.93764748032
 21
1651.944110900313
 31
0.0
  0
LINE
  5
252C6
330
747D
100
AcDbEntity
  8
細線
100
AcDbLine
 10
10418.91504235291
 20
1651.944110900316
 30
0.0
 11
10510.61395800626
 21
1743.643026553664
 31
0.0
  0
LINE
  5
252C7
330
747D
100
AcDbEntity
  8
細線
 48
50.0
100
AcDbLine
 10
10464.48038315141
 20
1627.944110900314
 30
0.0
 11
10458.04960253306
 21
1651.944110900313
 31
0.0
  0
LINE
  5
252C8
330
747D
100
AcDbEntity
  8
細線
100
AcDbLine
 10
10452.85616784987
 20
1651.944110900316
 30
0.0
 11
10544.55508350321
 21
1743.643026553664
 31
0.0
  0
LINE
  5
252C9
330
747D
100
AcDbEntity
  8
細線
 48
50.0
100
AcDbLine
 10
10227.81624830968
 20
1627.944110900314
 30
0.0
 11
10221.38546769133
 21
1651.944110900313
 31
0.0
  0
LINE
  5
252CA
330
747D
100
AcDbEntity
  8
細線
 48
50.0
100
AcDbLine
 10
10306.70429325692
 20
1627.944110900314
 30
0.0
 11
10300.27351263858
 21
1651.944110900313
 31
0.0
  0
LINE
  5
252CB
330
747D
100
AcDbEntity
  8
細線
 48
50.0
100
AcDbLine
 10
10385.59233820417
 20
1627.944110900314
 30
0.0
 11
10379.16155758582
 21
1651.944110900313
 31
0.0
  0
LINE
  5
252CC
330
747D
100
AcDbEntity
  8
細線
 48
50.0
100
AcDbLine
 10
10521.93249270418
 20
1547.944110900313
 30
0.0
 11
10528.36327332252
 21
1523.944110900313
 31
0.0
  0
LINE
  5
252CD
330
747D
100
AcDbEntity
  8
細線
 48
50.0
100
AcDbLine
 10
10443.04444775693
 20
1547.944110900314
 30
0.0
 11
10449.47522837528
 21
1523.944110900314
 31
0.0
  0
LINE
  5
252CE
330
747D
100
AcDbEntity
  8
細線
 48
50.0
100
AcDbLine
 10
10285.26835786243
 20
1547.944110900314
 30
0.0
 11
10291.69913848078
 21
1523.944110900314
 31
0.0
  0
LINE
  5
252CF
330
747D
100
AcDbEntity
  8
細線
 48
50.0
100
AcDbLine
 10
10364.15640280968
 20
1547.944110900314
 30
0.0
 11
10370.58718342803
 21
1523.944110900314
 31
0.0
  0
LINE
  5
252D0
330
747D
100
AcDbEntity
  8
細線
 48
50.0
100
AcDbLine
 10
10357.72562219133
 20
1523.944110900314
 30
0.0
 11
10392.02311882251
 21
1651.944110900313
 31
0.0
  0
LINE
  5
252D1
330
747D
100
AcDbEntity
  8
細線
 48
50.0
100
AcDbLine
 10
10278.83757724408
 20
1523.944110900313
 30
0.0
 11
10313.13507387527
 21
1651.944110900313
 31
0.0
  0
LINE
  5
252D2
330
747D
100
AcDbEntity
  8
細線
 48
50.0
100
AcDbLine
 10
10436.61366713858
 20
1523.944110900313
 30
0.0
 11
10470.91116376975
 21
1651.944110900313
 31
0.0
  0
LINE
  5
252D3
330
747D
100
AcDbEntity
  8
細線
100
AcDbLine
 10
10486.79729334682
 20
1651.944110900316
 30
0.0
 11
10578.49620900016
 21
1743.643026553664
 31
0.0
  0
LINE
  5
252D4
330
747D
100
AcDbEntity
  8
細線
 48
50.0
100
AcDbLine
 10
10515.50171208583
 20
1523.944110900311
 30
0.0
 11
10549.79920871701
 21
1651.944110900311
 31
0.0
  0
LINE
  5
252D5
330
747D
100
AcDbEntity
  8
部品1
100
AcDbLine
 10
10545.87864785358
 20
1983.643026553664
 30
0.0
 11
10545.87864785358
 21
1743.643026553664
 31
0.0
  0
LINE
  5
252D6
330
747D
100
AcDbEntity
  8
細線
100
AcDbLine
 10
10532.040985506
 20
1743.643026553665
 30
0.0
 11
10292.040985506
 21
1983.643026553664
 31
0.0
  0
LINE
  5
252D7
330
747D
100
AcDbEntity
  8
細線
100
AcDbLine
 10
10481.12929726056
 20
1743.643026553664
 30
0.0
 11
10241.12929726057
 21
1983.643026553664
 31
0.0
  0
LINE
  5
252D8
330
747D
100
AcDbEntity
  8
細線
100
AcDbLine
 10
10092.85616784986
 20
1651.944110900313
 30
0.0
 11
10184.55508350321
 21
1743.643026553664
 31
0.0
  0
LINE
  5
252D9
330
747D
100
AcDbEntity
  8
細線
100
AcDbLine
 10
10058.91504235291
 20
1651.944110900313
 30
0.0
 11
10150.61395800626
 21
1743.643026553664
 31
0.0
  0
LINE
  5
252DA
330
747D
100
AcDbEntity
  8
細線
 48
50.0
100
AcDbLine
 10
10070.04015841518
 20
1627.944110900314
 30
0.0
 11
10063.60937779683
 21
1651.944110900313
 31
0.0
  0
LINE
  5
252DB
330
747D
100
AcDbEntity
  8
細線
 48
50.0
100
AcDbLine
 10
10148.92820336243
 20
1627.944110900314
 30
0.0
 11
10142.49742274409
 21
1651.944110900313
 31
0.0
  0
LINE
  5
252DC
330
747D
100
AcDbEntity
  8
細線
 48
50.0
100
AcDbLine
 10
9991.152113467931
 20
1627.944110900314
 30
0.0
 11
9984.721332849582
 21
1651.944110900313
 31
0.0
  0
LINE
  5
252DD
330
747D
100
AcDbEntity
  8
細線
 48
50.0
100
AcDbLine
 10
10206.38031291519
 20
1547.944110900314
 30
0.0
 11
10212.81109353354
 21
1523.944110900314
 31
0.0
  0
LINE
  5
252DE
330
747D
100
AcDbEntity
  8
細線
 48
50.0
100
AcDbLine
 10
10127.49226796794
 20
1547.944110900314
 30
0.0
 11
10133.92304858629
 21
1523.944110900314
 31
0.0
  0
LINE
  5
252DF
330
747D
100
AcDbEntity
  8
細線
 48
50.0
100
AcDbLine
 10
9969.71617807344
 20
1547.944110900314
 30
0.0
 11
9976.146958691789
 21
1523.944110900314
 31
0.0
  0
LINE
  5
252E0
330
747D
100
AcDbEntity
  8
細線
 48
50.0
100
AcDbLine
 10
10048.60422302069
 20
1547.944110900314
 30
0.0
 11
10055.03500363904
 21
1523.944110900314
 31
0.0
  0
LINE
  5
252E1
330
747D
100
AcDbEntity
  8
部品1
100
AcDbLine
 10
9945.878647853581
 20
1523.94411090031
 30
0.0
 11
9945.878647853581
 21
1743.643026553664
 31
0.0
  0
LINE
  5
252E2
330
747D
100
AcDbEntity
  8
細線
 48
50.0
100
AcDbLine
 10
9963.285397455093
 20
1523.944110900314
 30
0.0
 11
9997.582894086278
 21
1651.944110900313
 31
0.0
  0
LINE
  5
252E3
330
747D
100
AcDbEntity
  8
細線
 48
50.0
100
AcDbLine
 10
10121.06148734959
 20
1523.944110900314
 30
0.0
 11
10155.35898398077
 21
1651.944110900313
 31
0.0
  0
LINE
  5
252E4
330
747D
100
AcDbEntity
  8
細線
 48
50.0
100
AcDbLine
 10
10042.17344240234
 20
1523.944110900313
 30
0.0
 11
10076.47093903352
 21
1651.944110900313
 31
0.0
  0
LINE
  5
252E5
330
747D
100
AcDbEntity
  8
部品1
100
AcDbLine
 10
10065.87864785358
 20
1743.643026553664
 30
0.0
 11
10065.87864785358
 21
1983.643026553664
 31
0.0
  0
TEXT
  5
252E6
330
747D
100
AcDbEntity
  8
部品1
 48
50.0
100
AcDbText
 10
9301.760561095077
 20
1476.843285916355
 30
0.0
 40
80.0
  1
ボルトの出
 50
90.0
  7
STYLE2
100
AcDbText
  0
LINE
  5
252E7
330
747D
100
AcDbEntity
  8
細線
100
AcDbLine
 10
10209.60029328493
 20
1743.643026553664
 30
0.0
 11
10065.87864785358
 21
1887.364671985016
 31
0.0
  0
LWPOLYLINE
  5
252E8
330
747D
100
AcDbEntity
  8
部品1
 48
50.0
100
AcDbPolyline
 90
        2
 70
     0
 43
12.0
 10
9681.267385753193
 20
1743.643026553664
 10
10882.35968888481
 20
1743.643026553664
  0
LINE
  5
252E9
330
747D
100
AcDbEntity
  8
細線
100
AcDbLine
 10
10126.79729334682
 20
1651.944110900313
 30
0.0
 11
10218.49620900017
 21
1743.643026553664
 31
0.0
  0
LINE
  5
252EA
330
747D
100
AcDbEntity
  8
部品1
100
AcDbLine
 10
9945.878647853581
 20
1651.944110900313
 30
0.0
 11
10665.87864785358
 21
1651.944110900316
 31
0.0
  0
LINE
  5
252EB
330
747D
100
AcDbEntity
  8
部品1
100
AcDbLine
 10
9945.878647853581
 20
1523.94411090031
 30
0.0
 11
10665.87864785358
 21
1523.944110900314
 31
0.0
  0
LINE
  5
252EC
330
747D
100
AcDbEntity
  8
細線
 48
50.0
100
AcDbLine
 10
10199.94953229684
 20
1523.944110900314
 30
0.0
 11
10234.24702892802
 21
1651.944110900313
 31
0.0
  0
LINE
  5
252ED
330
747D
100
AcDbEntity
  8
部品1
100
AcDbLine
 10
10065.87864785358
 20
1983.643026553664
 30
0.0
 11
10545.87864785358
 21
1983.643026553664
 31
0.0
  0
LINE
  5
252EE
330
747D
100
AcDbEntity
  8
細線
100
AcDbLine
 10
10260.51198153036
 20
1743.643026553664
 30
0.0
 11
10065.87864785358
 21
1938.276360230447
 31
0.0
  0
LINE
  5
252EF
330
747D
100
AcDbEntity
  8
部品1
100
AcDbLine
 10
11252.62014895061
 20
418.674724169602
 30
0.0
 11
11252.62014895062
 21
3382.981693754249
 31
0.0
  0
TEXT
  5
252F0
330
747D
100
AcDbEntity
  8
部品1
100
AcDbText
 10
7874.514964742754
 20
3203.429761802822
 30
0.0
 40
120.0
  1
基礎詳細
  7
STYLE2
100
AcDbText
  0
LINE
  5
252F1
330
747D
100
AcDbEntity
  8
部品1
 48
50.0
100
AcDbLine
 10
8189.742715550822
 20
2382.518307662806
 30
0.0
 11
8205.742715550824
 21
2374.518307662806
 31
0.0
  0
LINE
  5
252F2
330
747D
100
AcDbEntity
  8
細線
 48
50.0
100
AcDbLine
 10
8157.742715550822
 20
2334.518307662806
 30
0.0
 11
8157.742715550822
 21
2366.518307662806
 31
0.0
  0
LINE
  5
252F3
330
747D
100
AcDbEntity
  8
部品1
 48
50.0
100
AcDbLine
 10
8205.742715550824
 20
2342.518307662806
 30
0.0
 11
8205.742715550824
 21
2374.518307662806
 31
0.0
  0
LINE
  5
252F4
330
747D
100
AcDbEntity
  8
細線
 48
50.0
100
AcDbLine
 10
8189.742715550822
 20
2334.518307662806
 30
0.0
 11
8189.742715550822
 21
2366.518307662806
 31
0.0
  0
LINE
  5
252F5
330
747D
100
AcDbEntity
  8
部品1
 48
50.0
100
AcDbLine
 10
8189.742715550822
 20
2366.518307662806
 30
0.0
 11
8205.742715550824
 21
2374.518307662806
 31
0.0
  0
LINE
  5
252F6
330
747D
100
AcDbEntity
  8
部品1
 48
50.0
100
AcDbLine
 10
8157.742715550822
 20
2366.518307662806
 30
0.0
 11
8189.742715550822
 21
2366.518307662806
 31
0.0
  0
LINE
  5
252F7
330
747D
100
AcDbEntity
  8
部品1
 48
50.0
100
AcDbLine
 10
8189.742715550822
 20
2334.518307662806
 30
0.0
 11
8205.742715550824
 21
2342.518307662806
 31
0.0
  0
LINE
  5
252F8
330
747D
100
AcDbEntity
  8
部品1
 48
50.0
100
AcDbLine
 10
8157.742715550822
 20
2334.518307662806
 30
0.0
 11
8189.742715550822
 21
2334.518307662806
 31
0.0
  0
ELLIPSE
  5
252F9
330
747D
100
AcDbEntity
  8
細線
 48
50.0
100
AcDbEllipse
 10
8173.742715550822
 20
2374.518307662806
 30
0.0
 11
14.76670786606846
 21
0.0
 31
0.0
210
0.0
220
0.0
230
1.0
 40
0.2071254069489396
 41
0.0
 42
6.283185307179586
  0
LINE
  5
252FA
330
747D
100
AcDbEntity
  8
部品1
 48
50.0
100
AcDbLine
 10
8157.742715550822
 20
2382.518307662806
 30
0.0
 11
8189.742715550822
 21
2382.518307662806
 31
0.0
  0
LINE
  5
252FB
330
747D
100
AcDbEntity
  8
部品1
 48
50.0
100
AcDbLine
 10
8141.742715550824
 20
2342.518307662806
 30
0.0
 11
8141.742715550824
 21
2374.518307662806
 31
0.0
  0
LINE
  5
252FC
330
747D
100
AcDbEntity
  8
部品1
 48
50.0
100
AcDbLine
 10
8141.742715550824
 20
2374.518307662806
 30
0.0
 11
8157.742715550822
 21
2382.518307662806
 31
0.0
  0
LINE
  5
252FD
330
747D
100
AcDbEntity
  8
部品1
 48
50.0
100
AcDbLine
 10
8141.742715550824
 20
2342.518307662806
 30
0.0
 11
8157.742715550822
 21
2334.518307662806
 31
0.0
  0
LINE
  5
252FE
330
747D
100
AcDbEntity
  8
部品1
 48
50.0
100
AcDbLine
 10
8141.742715550824
 20
2374.518307662806
 30
0.0
 11
8157.742715550822
 21
2366.518307662806
 31
0.0
  0
LINE
  5
252FF
330
747D
100
AcDbEntity
  8
部品1
 48
50.0
100
AcDbLine
 10
8213.742715550823
 20
2243.166314997936
 30
0.0
 11
8213.742715550823
 21
2252.766314997936
 31
0.0
  0
ELLIPSE
  5
25300
330
747D
100
AcDbEntity
  8
部品1
 48
50.0
100
AcDbEllipse
 10
8173.742715550822
 20
2252.766314997936
 30
0.0
 11
18.4
 21
0.0
 31
0.0
210
0.0
220
0.0
230
1.0
 40
0.3478260869565217
 41
0.0
 42
6.283185307179586
  0
ARC
  5
25301
330
747D
100
AcDbEntity
  8
部品1
100
AcDbCircle
 10
8012.642715550823
 20
2081.743026553664
 30
0.0
 40
2.7
100
AcDbArc
 50
90.0
 51
180.0
  0
LINE
  5
25302
330
747D
100
AcDbEntity
  8
部品1
100
AcDbLine
 10
8015.34271555082
 20
2095.243026553664
 30
0.0
 11
8057.642715550823
 21
2095.243026553661
 31
0.0
  0
LINE
  5
25303
330
747D
100
AcDbEntity
  8
部品1
100
AcDbLine
 10
8012.642715550823
 20
2084.443026553664
 30
0.0
 11
8012.642715550823
 21
2092.543026553663
 31
0.0
  0
LINE
  5
25304
330
747D
100
AcDbEntity
  8
部品1
100
AcDbLine
 10
8012.642715550823
 20
2084.443026553664
 30
0.0
 11
8012.642715550823
 21
2084.443026553664
 31
0.0
  0
ARC
  5
25305
330
747D
100
AcDbEntity
  8
部品1
100
AcDbCircle
 10
8015.34271555082
 20
2092.543026553663
 30
0.0
 40
2.7
100
AcDbArc
 50
90.0
 51
180.0
  0
ARC
  5
25306
330
747D
100
AcDbEntity
  8
部品1
100
AcDbCircle
 10
8057.642715550823
 20
2092.543026553661
 30
0.0
 40
2.7
100
AcDbArc
 50
0.0
 51
90.0
  0
LINE
  5
25307
330
747D
100
AcDbEntity
  8
部品1
 48
50.0
100
AcDbLine
 10
8133.742715550823
 20
2252.766314997936
 30
0.0
 11
8133.742715550823
 21
2243.166314997936
 31
0.0
  0
ELLIPSE
  5
25308
330
747D
100
AcDbEntity
  8
部品1
 48
50.0
100
AcDbEllipse
 10
8173.742715550822
 20
2243.166314997937
 30
0.0
 11
40.0
 21
0.0
 31
0.0
210
0.0
220
0.0
230
1.0
 40
0.4
 41
3.141592653589793
 42
6.283185307179586
  0
ELLIPSE
  5
25309
330
747D
100
AcDbEntity
  8
部品1
 48
50.0
100
AcDbEllipse
 10
8173.742715550822
 20
2252.766314997936
 30
0.0
 11
40.0
 21
0.0
 31
0.0
210
0.0
220
0.0
230
1.0
 40
0.4
 41
0.0
 42
6.283185307179586
  0
LINE
  5
2530A
330
747D
100
AcDbEntity
  8
部品1
100
AcDbLine
 10
8168.342715550821
 20
2036.403026553664
 30
0.0
 11
8179.142715550822
 21
2036.403026553664
 31
0.0
  0
LINE
  5
2530B
330
747D
100
AcDbEntity
  8
部品1
100
AcDbLine
 10
8164.742715550822
 20
2032.803026553665
 30
0.0
 11
8182.742715550823
 21
2032.803026553665
 31
0.0
  0
LINE
  5
2530C
330
747D
100
AcDbEntity
  8
細線
100
AcDbLine
 10
8168.342715550826
 20
1993.203026553664
 30
0.0
 11
8168.342715550821
 21
2036.403026553664
 31
0.0
  0
LINE
  5
2530D
330
747D
100
AcDbEntity
  8
細線
100
AcDbLine
 10
8179.142715550822
 20
1993.203026553664
 30
0.0
 11
8179.142715550822
 21
2036.403026553664
 31
0.0
  0
LINE
  5
2530E
330
747D
100
AcDbEntity
  8
部品1
100
AcDbLine
 10
8081.042715550822
 20
2050.503026553665
 30
0.0
 11
8081.042715550822
 21
2033.403026553664
 31
0.0
  0
LINE
  5
2530F
330
747D
100
AcDbEntity
  8
部品1
100
AcDbLine
 10
8114.602715550823
 20
2050.503026553665
 30
0.0
 11
8114.602715550821
 21
1995.903026553664
 31
0.0
  0
ARC
  5
25310
330
747D
100
AcDbEntity
  8
部品1
100
AcDbCircle
 10
8099.942715550824
 20
2038.543026553663
 30
0.0
 40
2.7
100
AcDbArc
 50
0.0
 51
90.0
  0
LINE
  5
25311
330
747D
100
AcDbEntity
  8
部品1
100
AcDbLine
 10
8060.342715550822
 20
2041.243026553664
 30
0.0
 11
8099.942715550824
 21
2041.243026553664
 31
0.0
  0
ARC
  5
25312
330
747D
100
AcDbEntity
  8
部品1
100
AcDbCircle
 10
8099.942715550824
 20
1995.903026553664
 30
0.0
 40
2.7
100
AcDbArc
 50
270.0
 51
0.0
  0
ARC
  5
25313
330
747D
100
AcDbEntity
  8
部品1
100
AcDbCircle
 10
8117.302715550817
 20
1995.903026553664
 30
0.0
 40
2.7
100
AcDbArc
 50
180.0
 51
270.0
  0
LINE
  5
25314
330
747D
100
AcDbEntity
  8
部品1
100
AcDbLine
 10
8088.242715550824
 20
1993.203026553664
 30
0.0
 11
8099.942715550824
 21
1993.203026553664
 31
0.0
  0
LINE
  5
25315
330
747D
100
AcDbEntity
  8
部品1
100
AcDbLine
 10
8102.642715550823
 20
2038.543026553663
 30
0.0
 11
8102.642715550823
 21
1995.903026553664
 31
0.0
  0
ARC
  5
25316
330
747D
100
AcDbEntity
  8
部品1
100
AcDbCircle
 10
8111.902715550824
 20
2050.503026553665
 30
0.0
 40
2.7
100
AcDbArc
 50
0.0
 51
90.0
  0
ARC
  5
25317
330
747D
100
AcDbEntity
  8
部品1
100
AcDbCircle
 10
8083.742715550824
 20
2050.503026553665
 30
0.0
 40
2.7
100
AcDbArc
 50
90.0
 51
180.0
  0
LINE
  5
25318
330
747D
100
AcDbEntity
  8
部品1
100
AcDbLine
 10
8083.742715550824
 20
2053.203026553664
 30
0.0
 11
8111.902715550824
 21
2053.203026553664
 31
0.0
  0
LINE
  5
25319
330
747D
100
AcDbEntity
  8
部品1
100
AcDbLine
 10
8060.342715550822
 20
2092.543026553661
 30
0.0
 11
8060.342715550822
 21
2041.243026553664
 31
0.0
  0
LINE
  5
2531A
330
747D
100
AcDbEntity
  8
部品1
100
AcDbLine
 10
8009.942715550824
 20
2073.643026553664
 30
0.0
 11
8009.942715550824
 21
2081.743026553664
 31
0.0
  0
LINE
  5
2531B
330
747D
100
AcDbEntity
  8
部品1
100
AcDbLine
 10
8117.302715550817
 20
1993.203026553664
 30
0.0
 11
8318.642715550817
 21
1993.203026553664
 31
0.0
  0
LINE
  5
2531C
330
747D
100
AcDbEntity
  8
部品1
100
AcDbLine
 10
7958.642715550823
 20
1995.903026553664
 30
0.0
 11
7958.642715550823
 21
2058.034930256372
 31
0.0
  0
LINE
  5
2531D
330
747D
100
AcDbEntity
  8
部品1
100
AcDbLine
 10
7961.342715550822
 20
1993.203026553664
 30
0.0
 11
7973.042715550817
 21
1993.203026553664
 31
0.0
  0
LINE
  5
2531E
330
747D
100
AcDbEntity
  8
細線
 48
50.0
100
AcDbLine
 10
7952.342715550821
 20
1971.423602853569
 30
0.0
 11
7964.562139250917
 21
1983.643026553664
 31
0.0
  0
ARC
  5
2531F
330
747D
100
AcDbEntity
  8
部品1
100
AcDbCircle
 10
7961.342715550822
 20
1995.903026553664
 30
0.0
 40
2.7
100
AcDbArc
 50
180.0
 51
270.0
  0
LINE
  5
25320
330
747D
100
AcDbEntity
  8
部品1
100
AcDbLine
 10
7960.687869363224
 20
2060.654315006764
 30
0.0
 11
7969.442715550823
 21
2062.843026553664
 31
0.0
  0
ARC
  5
25321
330
747D
100
AcDbEntity
  8
部品1
100
AcDbCircle
 10
7961.342715550822
 20
2058.034930256372
 30
0.0
 40
2.7
100
AcDbArc
 50
104.0362434679067
 51
180.0
  0
ARC
  5
25322
330
747D
100
AcDbEntity
  8
部品1
100
AcDbCircle
 10
7972.142715550822
 20
2070.943026553664
 30
0.0
 40
2.7
100
AcDbArc
 50
90.0
 51
180.0
  0
LINE
  5
25323
330
747D
100
AcDbEntity
  8
部品1
100
AcDbLine
 10
7969.442715550823
 20
2062.843026553664
 30
0.0
 11
7969.442715550823
 21
2070.943026553664
 31
0.0
  0
LINE
  5
25324
330
747D
100
AcDbEntity
  8
部品1
 48
50.0
100
AcDbLine
 10
7952.342715550821
 20
1983.643026553664
 30
0.0
 11
8366.342715550826
 21
1983.643026553664
 31
0.0
  0
LINE
  5
25325
330
747D
100
AcDbEntity
  8
細線
 48
50.0
100
AcDbLine
 10
7952.342715550821
 20
1917.542066127154
 30
0.0
 11
8018.443675977334
 21
1983.643026553664
 31
0.0
  0
LINE
  5
25326
330
747D
100
AcDbEntity
  8
細線
 48
50.0
100
AcDbLine
 10
7952.342715550821
 20
1944.482834490361
 30
0.0
 11
7991.50290761413
 21
1983.643026553664
 31
0.0
  0
LINE
  5
25327
330
747D
100
AcDbEntity
  8
部品1
100
AcDbLine
 10
7972.142715550822
 20
2073.643026553664
 30
0.0
 11
8009.942715550824
 21
2073.643026553664
 31
0.0
  0
LINE
  5
25328
330
747D
100
AcDbEntity
  8
部品1
 48
50.0
100
AcDbLine
 10
8366.342715550821
 20
1439.643026553663
 30
0.0
 11
8494.342715550821
 21
1439.643026553663
 31
0.0
  0
LINE
  5
25329
330
747D
100
AcDbEntity
  8
部品1
100
AcDbLine
 10
8182.742715550823
 20
1758.643026553664
 30
0.0
 11
8218.742715550822
 21
1758.643026553664
 31
0.0
  0
LINE
  5
2532A
330
747D
100
AcDbEntity
  8
部品1
100
AcDbLine
 10
8182.742715550823
 20
1740.643026553664
 30
0.0
 11
8218.742715550822
 21
1740.643026553664
 31
0.0
  0
ARC
  5
2532B
330
747D
100
AcDbEntity
  8
部品1
100
AcDbCircle
 10
8182.742715550823
 20
1758.643026553664
 30
0.0
 40
18.0
100
AcDbArc
 50
180.0
 51
270.0
  0
LINE
  5
2532C
330
747D
100
AcDbEntity
  8
部品1
100
AcDbLine
 10
8218.742715550822
 20
1740.643026553664
 30
0.0
 11
8218.742715550822
 21
1758.643026553664
 31
0.0
  0
LINE
  5
2532D
330
747D
100
AcDbEntity
  8
部品1
100
AcDbLine
 10
8236.742715550823
 20
1659.643026553662
 30
0.0
 11
8110.742715550816
 21
1659.643026553662
 31
0.0
  0
LINE
  5
2532E
330
747D
100
AcDbEntity
  8
細線
 48
50.0
100
AcDbLine
 10
8530.720540743159
 20
1175.643026553662
 30
0.0
 11
8524.289760124812
 21
1199.643026553662
 31
0.0
  0
LINE
  5
2532F
330
747D
100
AcDbEntity
  8
細線
 48
50.0
100
AcDbLine
 10
8451.832495795912
 20
1175.643026553662
 30
0.0
 11
8445.401715177565
 21
1199.643026553662
 31
0.0
  0
LINE
  5
25330
330
747D
100
AcDbEntity
  8
細線
 48
50.0
100
AcDbLine
 10
8372.944450848656
 20
1175.643026553664
 30
0.0
 11
8366.513670230309
 21
1199.643026553664
 31
0.0
  0
LINE
  5
25331
330
747D
100
AcDbEntity
  8
細線
 48
50.0
100
AcDbLine
 10
8509.284605348668
 20
1095.643026553662
 30
0.0
 11
8515.715385967016
 21
1071.643026553662
 31
0.0
  0
LINE
  5
25332
330
747D
100
AcDbEntity
  8
細線
 48
50.0
100
AcDbLine
 10
8430.396560401424
 20
1095.643026553662
 30
0.0
 11
8436.827341019769
 21
1071.643026553662
 31
0.0
  0
LINE
  5
25333
330
747D
100
AcDbEntity
  8
細線
 48
50.0
100
AcDbLine
 10
8351.508515454174
 20
1095.643026553664
 30
0.0
 11
8357.939296072531
 21
1071.643026553664
 31
0.0
  0
LINE
  5
25334
330
747D
100
AcDbEntity
  8
細線
 48
50.0
100
AcDbLine
 10
8423.965779783072
 20
1071.643026553661
 30
0.0
 11
8458.263276414255
 21
1199.643026553661
 31
0.0
  0
LINE
  5
25335
330
747D
100
AcDbEntity
  8
細線
 48
50.0
100
AcDbLine
 10
8345.077734835824
 20
1071.643026553662
 30
0.0
 11
8379.375231466999
 21
1199.643026553664
 31
0.0
  0
LINE
  5
25336
330
747D
100
AcDbEntity
  8
細線
 48
50.0
100
AcDbLine
 10
8502.853824730317
 20
1071.643026553662
 30
0.0
 11
8537.151321361504
 21
1199.643026553661
 31
0.0
  0
LINE
  5
25337
330
747D
100
AcDbEntity
  8
部品1
 48
50.0
100
AcDbLine
 10
8574.342715550825
 20
1199.643026553664
 30
0.0
 11
8574.342715550825
 21
1071.643026553664
 31
0.0
  0
LINE
  5
25338
330
747D
100
AcDbEntity
  8
細線
 48
50.0
100
AcDbLine
 10
8294.056405901418
 20
1175.643026553664
 30
0.0
 11
8287.625625283071
 21
1199.643026553664
 31
0.0
  0
LINE
  5
25339
330
747D
100
AcDbEntity
  8
細線
 48
50.0
100
AcDbLine
 10
8215.168360954171
 20
1175.643026553664
 30
0.0
 11
8208.737580335824
 21
1199.643026553664
 31
0.0
  0
LINE
  5
2533A
330
747D
100
AcDbEntity
  8
細線
 48
50.0
100
AcDbLine
 10
8057.392271059677
 20
1175.643026553664
 30
0.0
 11
8050.961490441332
 21
1199.643026553664
 31
0.0
  0
LINE
  5
2533B
330
747D
100
AcDbEntity
  8
細線
 48
50.0
100
AcDbLine
 10
8136.280316006924
 20
1175.643026553664
 30
0.0
 11
8129.849535388578
 21
1199.643026553664
 31
0.0
  0
LINE
  5
2533C
330
747D
100
AcDbEntity
  8
細線
 48
50.0
100
AcDbLine
 10
8193.732425559684
 20
1095.643026553664
 30
0.0
 11
8200.16320617803
 21
1071.643026553664
 31
0.0
  0
LINE
  5
2533D
330
747D
100
AcDbEntity
  8
細線
 48
50.0
100
AcDbLine
 10
8272.620470506929
 20
1095.643026553664
 30
0.0
 11
8279.051251125274
 21
1071.643026553664
 31
0.0
  0
LINE
  5
2533E
330
747D
100
AcDbEntity
  8
細線
 48
50.0
100
AcDbLine
 10
8035.956335665188
 20
1095.643026553664
 30
0.0
 11
8042.387116283537
 21
1071.643026553664
 31
0.0
  0
LINE
  5
2533F
330
747D
100
AcDbEntity
  8
細線
 48
50.0
100
AcDbLine
 10
8114.844380612437
 20
1095.643026553664
 30
0.0
 11
8121.275161230784
 21
1071.643026553664
 31
0.0
  0
LINE
  5
25340
330
747D
100
AcDbEntity
  8
細線
 48
50.0
100
AcDbLine
 10
8266.189689888575
 20
1071.643026553664
 30
0.0
 11
8300.48718651976
 21
1199.643026553662
 31
0.0
  0
LINE
  5
25341
330
747D
100
AcDbEntity
  8
細線
 48
50.0
100
AcDbLine
 10
8108.413599994085
 20
1071.643026553664
 30
0.0
 11
8142.711096625269
 21
1199.643026553662
 31
0.0
  0
LINE
  5
25342
330
747D
100
AcDbEntity
  8
細線
 48
50.0
100
AcDbLine
 10
8029.525555046836
 20
1071.643026553664
 30
0.0
 11
8063.823051678021
 21
1199.643026553664
 31
0.0
  0
LINE
  5
25343
330
747D
100
AcDbEntity
  8
細線
 48
50.0
100
AcDbLine
 10
8187.301644941333
 20
1071.643026553662
 30
0.0
 11
8221.599141572516
 21
1199.643026553662
 31
0.0
  0
LINE
  5
25344
330
747D
100
AcDbEntity
  8
細線
 48
50.0
100
AcDbLine
 10
8312.074410505632
 20
1199.643026553664
 30
0.0
 11
8494.342715550821
 21
1381.91133159886
 31
0.0
  0
LINE
  5
25345
330
747D
100
AcDbEntity
  8
部品1
 48
50.0
100
AcDbLine
 10
8494.342715550821
 20
1439.643026553663
 30
0.0
 11
8494.342715550821
 21
1199.643026553664
 31
0.0
  0
LINE
  5
25346
330
747D
100
AcDbEntity
  8
細線
 48
50.0
100
AcDbLine
 10
8285.133642142428
 20
1199.643026553664
 30
0.0
 11
8494.342715550821
 21
1408.852099962057
 31
0.0
  0
LINE
  5
25347
330
747D
100
AcDbEntity
  8
細線
 48
50.0
100
AcDbLine
 10
8258.192873779215
 20
1199.643026553664
 30
0.0
 11
8494.342715550821
 21
1435.792868325272
 31
0.0
  0
LINE
  5
25348
330
747D
100
AcDbEntity
  8
細線
 48
50.0
100
AcDbLine
 10
8042.666726873557
 20
1199.643026553664
 30
0.0
 11
8366.342715550821
 21
1523.31901523093
 31
0.0
  0
LINE
  5
25349
330
747D
100
AcDbEntity
  8
細線
 48
50.0
100
AcDbLine
 10
8096.548263599972
 20
1199.643026553664
 30
0.0
 11
8366.342715550821
 21
1469.437478504521
 31
0.0
  0
LINE
  5
2534A
330
747D
100
AcDbEntity
  8
細線
 48
50.0
100
AcDbLine
 10
8069.607495236766
 20
1199.643026553664
 30
0.0
 11
8366.342715550821
 21
1496.378246867716
 31
0.0
  0
LINE
  5
2534B
330
747D
100
AcDbEntity
  8
細線
 48
50.0
100
AcDbLine
 10
7824.342715550819
 20
1412.37130904225
 30
0.0
 11
7851.614433062238
 21
1439.643026553663
 31
0.0
  0
LINE
  5
2534C
330
747D
100
AcDbEntity
  8
部品1
 48
50.0
100
AcDbLine
 10
7824.342715550821
 20
1439.643026553663
 30
0.0
 11
7952.342715550821
 21
1439.643026553663
 31
0.0
  0
LINE
  5
2534D
330
747D
100
AcDbEntity
  8
細線
 48
50.0
100
AcDbLine
 10
7824.342715550819
 20
1385.430540679039
 30
0.0
 11
7878.555201425446
 21
1439.643026553663
 31
0.0
  0
LWPOLYLINE
  5
2534E
330
747D
100
AcDbEntity
  8
部品1
 48
50.0
100
AcDbPolyline
 90
        2
 70
     0
 43
8.0
 10
7538.202813717866
 20
1743.643026553664
 10
7952.342715550821
 20
1743.643026553664
  0
LINE
  5
2534F
330
747D
100
AcDbEntity
  8
細線
 48
50.0
100
AcDbLine
 10
7899.616181165176
 20
1175.643026553664
 30
0.0
 11
7893.185400546828
 21
1199.643026553664
 31
0.0
  0
LINE
  5
25350
330
747D
100
AcDbEntity
  8
細線
 48
50.0
100
AcDbLine
 10
7978.504226112427
 20
1175.643026553664
 30
0.0
 11
7972.073445494079
 21
1199.643026553664
 31
0.0
  0
LINE
  5
25351
330
747D
100
AcDbEntity
  8
細線
 48
50.0
100
AcDbLine
 10
7820.728136217924
 20
1175.643026553664
 30
0.0
 11
7814.297355599578
 21
1199.643026553664
 31
0.0
  0
LINE
  5
25352
330
747D
100
AcDbEntity
  8
細線
 48
50.0
100
AcDbLine
 10
7744.342715550821
 20
1184.982947519443
 30
0.0
 11
7748.270871889018
 21
1199.643026553664
 31
0.0
  0
LINE
  5
25353
330
747D
100
AcDbEntity
  8
細線
 48
50.0
100
AcDbLine
 10
7878.180245770687
 20
1095.643026553664
 30
0.0
 11
7884.611026389034
 21
1071.643026553664
 31
0.0
  0
LINE
  5
25354
330
747D
100
AcDbEntity
  8
細線
 48
50.0
100
AcDbLine
 10
7957.068290717938
 20
1095.643026553664
 30
0.0
 11
7963.499071336285
 21
1071.643026553664
 31
0.0
  0
LINE
  5
25355
330
747D
100
AcDbEntity
  8
細線
 48
50.0
100
AcDbLine
 10
7799.292200823434
 20
1095.643026553664
 30
0.0
 11
7805.722981441781
 21
1071.643026553664
 31
0.0
  0
LINE
  5
25356
330
747D
100
AcDbEntity
  8
細線
 48
50.0
100
AcDbLine
 10
7950.637510099586
 20
1071.643026553662
 30
0.0
 11
7984.935006730768
 21
1199.643026553662
 31
0.0
  0
LINE
  5
25357
330
747D
100
AcDbEntity
  8
細線
 48
50.0
100
AcDbLine
 10
7792.861420205081
 20
1071.643026553662
 30
0.0
 11
7827.158916836264
 21
1199.643026553662
 31
0.0
  0
LINE
  5
25358
330
747D
100
AcDbEntity
  8
部品1
 48
50.0
100
AcDbLine
 10
7744.342715550826
 20
1071.643026553664
 30
0.0
 11
7744.342715550826
 21
1199.643026553664
 31
0.0
  0
LINE
  5
25359
330
747D
100
AcDbEntity
  8
細線
 48
50.0
100
AcDbLine
 10
7871.74946515234
 20
1071.643026553664
 30
0.0
 11
7906.046961783522
 21
1199.643026553664
 31
0.0
  0
LINE
  5
2535A
330
747D
100
AcDbEntity
  8
部品1
 48
50.0
100
AcDbLine
 10
7824.342715550821
 20
1199.643026553664
 30
0.0
 11
7824.342715550821
 21
1439.643026553663
 31
0.0
  0
LINE
  5
2535B
330
747D
100
AcDbEntity
  8
細線
 48
50.0
100
AcDbLine
 10
7824.342715550819
 20
1358.489772315835
 30
0.0
 11
7905.495969788652
 21
1439.643026553663
 31
0.0
  0
LINE
  5
2535C
330
747D
100
AcDbEntity
  8
部品1
 48
50.0
100
AcDbLine
 10
8574.342715550825
 20
1071.643026553664
 30
0.0
 11
7744.342715550826
 21
1071.643026553664
 31
0.0
  0
LINE
  5
2535D
330
747D
100
AcDbEntity
  8
部品1
 48
50.0
100
AcDbLine
 10
8574.342715550825
 20
1199.643026553664
 30
0.0
 11
7744.342715550826
 21
1199.643026553664
 31
0.0
  0
LINE
  5
2535E
330
747D
100
AcDbEntity
  8
細線
 48
50.0
100
AcDbLine
 10
7827.140579967897
 20
1199.643026553664
 30
0.0
 11
8366.342715550821
 21
1738.845162136589
 31
0.0
  0
LINE
  5
2535F
330
747D
100
AcDbEntity
  8
細線
 48
50.0
100
AcDbLine
 10
7854.081348331106
 20
1199.643026553664
 30
0.0
 11
8366.342715550826
 21
1711.904393773378
 31
0.0
  0
LINE
  5
25360
330
747D
100
AcDbEntity
  8
細線
 48
50.0
100
AcDbLine
 10
7881.022116694312
 20
1199.643026553664
 30
0.0
 11
8366.342715550821
 21
1684.963625410171
 31
0.0
  0
LINE
  5
25361
330
747D
100
AcDbEntity
  8
細線
 48
50.0
100
AcDbLine
 10
7952.342715550821
 20
1540.37130904225
 30
0.0
 11
8110.742715550816
 21
1698.771309042245
 31
0.0
  0
LINE
  5
25362
330
747D
100
AcDbEntity
  8
細線
 48
50.0
100
AcDbLine
 10
7952.342715550821
 20
1486.489772315835
 30
0.0
 11
8125.495969788659
 21
1659.643026553662
 31
0.0
  0
LINE
  5
25363
330
747D
100
AcDbEntity
  8
細線
 48
50.0
100
AcDbLine
 10
7952.342715550821
 20
1513.430540679042
 30
0.0
 11
8110.742715550816
 21
1671.83054067903
 31
0.0
  0
LINE
  5
25364
330
747D
100
AcDbEntity
  8
部品1
100
AcDbLine
 10
8110.742715550816
 20
1659.643026553663
 30
0.0
 11
8110.742715550824
 21
1983.643026553664
 31
0.0
  0
LINE
  5
25365
330
747D
100
AcDbEntity
  8
部品1
100
AcDbLine
 10
8236.742715550823
 20
1659.643026553663
 30
0.0
 11
8236.742715550823
 21
1983.643026553664
 31
0.0
  0
LINE
  5
25366
330
747D
100
AcDbEntity
  8
細線
 48
50.0
100
AcDbLine
 10
8236.742715550823
 20
1797.830540679035
 30
0.0
 11
8366.342715550821
 21
1927.430540679032
 31
0.0
  0
LINE
  5
25367
330
747D
100
AcDbEntity
  8
細線
 48
50.0
100
AcDbLine
 10
8236.742715550823
 20
1770.889772315823
 30
0.0
 11
8366.342715550821
 21
1900.489772315814
 31
0.0
  0
LINE
  5
25368
330
747D
100
AcDbEntity
  8
部品1
100
AcDbLine
 10
8164.742715550822
 20
1758.643026553664
 30
0.0
 11
8164.74271555082
 21
2032.803026553665
 31
0.0
  0
LINE
  5
25369
330
747D
100
AcDbEntity
  8
部品1
100
AcDbLine
 10
8182.742715550823
 20
1758.643026553664
 30
0.0
 11
8182.742715550819
 21
2032.803026553665
 31
0.0
  0
TEXT
  5
2536A
330
747D
100
AcDbEntity
  8
部品1
 48
50.0
100
AcDbText
 10
7538.202813717866
 20
1754.882018836919
 30
0.0
 40
80.0
  1
▽G.L
  7
STYLE2
100
AcDbText
  0
LINE
  5
2536B
330
747D
100
AcDbEntity
  8
細線
 48
50.0
100
AcDbLine
 10
7952.342715550821
 20
1702.015919221494
 30
0.0
 11
8110.742715550818
 21
1860.415919221486
 31
0.0
  0
LINE
  5
2536C
330
747D
100
AcDbEntity
  8
細線
 48
50.0
100
AcDbLine
 10
7952.342715550821
 20
1728.956687584701
 30
0.0
 11
8110.742715550822
 21
1887.356687584699
 31
0.0
  0
LINE
  5
2536D
330
747D
100
AcDbEntity
  8
細線
 48
50.0
100
AcDbLine
 10
7952.342715550821
 20
1755.897455947909
 30
0.0
 11
8110.742715550822
 21
1914.297455947906
 31
0.0
  0
LINE
  5
2536E
330
747D
100
AcDbEntity
  8
部品1
 48
50.0
100
AcDbLine
 10
7952.342715550821
 20
1439.643026553663
 30
0.0
 11
7952.342715550821
 21
1983.643026553664
 31
0.0
  0
LINE
  5
2536F
330
747D
100
AcDbEntity
  8
部品1
100
AcDbLine
 10
8366.342715550821
 20
1439.643026553663
 30
0.0
 11
8366.342715550821
 21
1983.643026553664
 31
0.0
  0
LINE
  5
25370
330
747D
100
AcDbEntity
  8
細線
 48
50.0
100
AcDbLine
 10
8236.742715550823
 20
1824.771309042252
 30
0.0
 11
8366.342715550821
 21
1954.371309042251
 31
0.0
  0
LINE
  5
25371
330
747D
100
AcDbEntity
  8
細線
 48
50.0
100
AcDbLine
 10
6360.795824876099
 20
1864.38987845038
 30
0.0
 11
6444.303402373629
 21
1947.897455947909
 31
0.0
  0
LINE
  5
25372
330
747D
100
AcDbEntity
  8
細線
 48
50.0
100
AcDbLine
 10
6371.856109639615
 20
1848.509394850685
 30
0.0
 11
6444.303402373629
 21
1920.956687584701
 31
0.0
  0
LINE
  5
25373
330
747D
100
AcDbEntity
  8
細線
 48
50.0
100
AcDbLine
 10
6252.303402373629
 20
1971.423602853569
 30
0.0
 11
6264.522826073724
 21
1983.643026553664
 31
0.0
  0
LINE
  5
25374
330
747D
100
AcDbEntity
  8
細線
 48
50.0
100
AcDbLine
 10
6252.303402373629
 20
1917.542066127154
 30
0.0
 11
6318.404362800138
 21
1983.643026553664
 31
0.0
  0
LINE
  5
25375
330
747D
100
AcDbEntity
  8
細線
 48
50.0
100
AcDbLine
 10
6252.303402373629
 20
1944.482834490361
 30
0.0
 11
6291.463594436933
 21
1983.643026553664
 31
0.0
  0
LINE
  5
25376
330
747D
100
AcDbEntity
  8
部品1
 48
50.0
100
AcDbLine
 10
6252.303402373629
 20
1983.643026553664
 30
0.0
 11
6444.303402373629
 21
1983.643026553664
 31
0.0
  0
DIMENSION
  5
25377
330
747D
100
AcDbEntity
  8
寸法
 48
50.0
100
AcDbDimension
  2
*D54
 10
6252.303402373628
 20
2403.310834470044
 30
0.0
 11
6348.303402373628
 21
2403.310834470044
 31
0.0
 70
   160
  1
120\P200\P280
 71
     5
 42
192.0
  3
INABA_S40G
100
AcDbAlignedDimension
 13
6444.303402373629
 23
1983.643026553664
 33
0.0
 14
6252.303402373628
 24
1983.643026553664
 34
0.0
100
AcDbRotatedDimension
1001
ACAD
1000
DSTYLE
1002
{
1070
   341
1005
0
1002
}
  0
MTEXT
  5
25378
102
{ACAD_REACTORS
330
253CD
102
}
330
747D
100
AcDbEntity
  8
寸法
 62
     7
 48
50.0
100
AcDbMText
 10
6686.041858234879
 20
1022.29394082151
 30
0.0
 40
80.0
 41
0.8
 71
     4
 72
     1
  1
\A1;D10@300
  7
STYLE2
 73
     1
 44
1.0
1001
ACAD
1000
MTEXTBEGIN
1070
    73
1070
     1
1070
    44
1040
1.0
1070
    74
1070
     0
1000
MTEXTEND
  0
LINE
  5
25379
330
747D
100
AcDbEntity
  8
細線
 48
50.0
100
AcDbLine
 10
6372.303402373635
 20
1633.430540679044
 30
0.0
 11
6444.303402373622
 21
1705.430540679039
 31
0.0
  0
LINE
  5
2537A
330
747D
100
AcDbEntity
  8
細線
 48
50.0
100
AcDbLine
 10
6372.303402373629
 20
1660.37130904225
 30
0.0
 11
6444.303402373629
 21
1732.37130904225
 31
0.0
  0
LINE
  5
2537B
330
747D
100
AcDbEntity
  8
細線
 48
50.0
100
AcDbLine
 10
6372.303402373635
 20
1390.963625410175
 30
0.0
 11
6444.303402373622
 21
1462.963625410175
 31
0.0
  0
LINE
  5
2537C
330
747D
100
AcDbEntity
  8
細線
 48
50.0
100
AcDbLine
 10
6372.303402373635
 20
1444.845162136593
 30
0.0
 11
6444.303402373622
 21
1516.845162136589
 31
0.0
  0
LINE
  5
2537D
330
747D
100
AcDbEntity
  8
細線
 48
50.0
100
AcDbLine
 10
6372.303402373635
 20
1417.904393773385
 30
0.0
 11
6444.303402373622
 21
1489.904393773379
 31
0.0
  0
LINE
  5
2537E
330
747D
100
AcDbEntity
  8
部品1
 48
50.0
100
AcDbLine
 10
6444.303402373629
 20
1439.643026553663
 30
0.0
 11
6572.303402373629
 21
1439.643026553663
 31
0.0
  0
LINE
  5
2537F
330
747D
100
AcDbEntity
  8
細線
 48
50.0
100
AcDbLine
 10
6372.303402373635
 20
1606.489772315834
 30
0.0
 11
6444.303402373622
 21
1678.489772315835
 31
0.0
  0
LINE
  5
25380
330
747D
100
AcDbEntity
  8
部品1
 48
50.0
100
AcDbLine
 10
6340.303402373629
 20
1785.770241250786
 30
0.0
 11
6340.303402373629
 21
1843.897455947909
 31
0.0
  0
LINE
  5
25381
330
747D
100
AcDbEntity
  8
細線
 48
50.0
100
AcDbLine
 10
6252.303402373629
 20
1755.897455947909
 30
0.0
 11
6324.303402373629
 21
1827.897455947909
 31
0.0
  0
LINE
  5
25382
330
747D
100
AcDbEntity
  8
部品1
 48
50.0
100
AcDbLine
 10
6324.303402373629
 20
1785.77024125079
 30
0.0
 11
6324.303402373629
 21
1843.897455947909
 31
0.0
  0
LINE
  5
25383
330
747D
100
AcDbEntity
  8
細線
 48
50.0
100
AcDbLine
 10
6252.303402373629
 20
1728.956687584701
 30
0.0
 11
6324.303402373629
 21
1800.956687584701
 31
0.0
  0
LINE
  5
25384
330
747D
100
AcDbEntity
  8
細線
 48
50.0
100
AcDbLine
 10
6252.303402373629
 20
1702.015919221494
 30
0.0
 11
6336.057724402923
 21
1785.770241250786
 31
0.0
  0
LINE
  5
25385
330
747D
100
AcDbEntity
  8
部品1
 48
50.0
100
AcDbLine
 10
6340.303402373629
 20
1785.770241250786
 30
0.0
 11
6324.303402373629
 21
1785.77024125079
 31
0.0
  0
LINE
  5
25386
330
747D
100
AcDbEntity
  8
細線
 48
50.0
100
AcDbLine
 10
6124.303402373622
 20
1412.37130904225
 30
0.0
 11
6151.575119885043
 21
1439.643026553663
 31
0.0
  0
LINE
  5
25387
330
747D
100
AcDbEntity
  8
細線
 48
50.0
100
AcDbLine
 10
6124.303402373622
 20
1385.430540679039
 30
0.0
 11
6178.515888248254
 21
1439.643026553663
 31
0.0
  0
LINE
  5
25388
330
747D
100
AcDbEntity
  8
部品1
 48
50.0
100
AcDbLine
 10
6124.303402373629
 20
1439.643026553663
 30
0.0
 11
6252.303402373629
 21
1439.643026553663
 31
0.0
  0
LINE
  5
25389
330
747D
100
AcDbEntity
  8
細線
 48
50.0
100
AcDbLine
 10
6340.303402373629
 20
1816.956687584701
 30
0.0
 11
6356.30340237363
 21
1832.956687584701
 31
0.0
  0
LINE
  5
2538A
330
747D
100
AcDbEntity
  8
細線
 48
50.0
100
AcDbLine
 10
6340.303402373629
 20
1790.015919221494
 30
0.0
 11
6356.30340237363
 21
1806.015919221494
 31
0.0
  0
LINE
  5
2538B
330
747D
100
AcDbEntity
  8
細線
 48
50.0
100
AcDbLine
 10
6252.303402373629
 20
1486.489772315835
 30
0.0
 11
6356.303402373635
 21
1590.489772315835
 31
0.0
  0
LINE
  5
2538C
330
747D
100
AcDbEntity
  8
細線
 48
50.0
100
AcDbLine
 10
6252.303402373629
 20
1540.37130904225
 30
0.0
 11
6356.30340237363
 21
1644.37130904225
 31
0.0
  0
LINE
  5
2538D
330
747D
100
AcDbEntity
  8
細線
 48
50.0
100
AcDbLine
 10
6252.303402373629
 20
1513.430540679042
 30
0.0
 11
6356.303402373635
 21
1617.430540679044
 31
0.0
  0
LINE
  5
2538E
330
747D
100
AcDbEntity
  8
細線
 48
50.0
100
AcDbLine
 10
6515.129047776976
 20
1175.643026553664
 30
0.0
 11
6508.69826715863
 21
1199.643026553664
 31
0.0
  0
LINE
  5
2538F
330
747D
100
AcDbEntity
  8
細線
 48
50.0
100
AcDbLine
 10
6558.153560602022
 20
1199.643026553664
 30
0.0
 11
6572.303402373629
 21
1213.79286832527
 31
0.0
  0
LINE
  5
25390
330
747D
100
AcDbEntity
  8
細線
 48
50.0
100
AcDbLine
 10
6594.017092724223
 20
1175.643026553664
 30
0.0
 11
6587.586312105876
 21
1199.643026553664
 31
0.0
  0
LINE
  5
25391
330
747D
100
AcDbEntity
  8
部品1
 48
50.0
100
AcDbLine
 10
6516.303402373629
 20
1311.643026553664
 30
0.0
 11
6516.303402373629
 21
1295.643026553664
 31
0.0
  0
LINE
  5
25392
330
747D
100
AcDbEntity
  8
細線
 48
50.0
100
AcDbLine
 10
6396.508950422776
 20
1199.643026553664
 30
0.0
 11
6492.509838267913
 21
1295.643914398803
 31
0.0
  0
LINE
  5
25393
330
747D
100
AcDbEntity
  8
細線
 48
50.0
100
AcDbLine
 10
6369.568182059573
 20
1199.643026553664
 30
0.0
 11
6465.568182059573
 21
1295.643026553664
 31
0.0
  0
LINE
  5
25394
330
747D
100
AcDbEntity
  8
細線
 48
50.0
100
AcDbLine
 10
6436.24100282973
 20
1175.643026553664
 30
0.0
 11
6429.810222211385
 21
1199.643026553664
 31
0.0
  0
LINE
  5
25395
330
747D
100
AcDbEntity
  8
細線
 48
50.0
100
AcDbLine
 10
6357.352957882485
 20
1175.643026553664
 30
0.0
 11
6350.922177264138
 21
1199.643026553664
 31
0.0
  0
ARC
  5
25396
330
747D
100
AcDbEntity
  8
部品1
 48
50.0
100
AcDbCircle
 10
6348.303402373629
 20
1319.643026553664
 30
0.0
 40
24.0
100
AcDbArc
 50
340.5287793655164
 51
0.0
  0
CIRCLE
  5
25397
330
747D
100
AcDbEntity
  8
部品1
 48
50.0
100
AcDbCircle
 10
6476.30340237363
 20
1319.643026553664
 30
0.0
 40
8.0
  0
LINE
  5
25398
330
747D
100
AcDbEntity
  8
細線
 48
50.0
100
AcDbLine
 10
6508.508950422776
 20
1311.643026553664
 30
0.0
 11
6572.303402373629
 21
1375.437478504515
 31
0.0
  0
LINE
  5
25399
330
747D
100
AcDbEntity
  8
細線
 48
50.0
100
AcDbLine
 10
6645.038421658632
 20
1071.643026553662
 30
0.0
 11
6652.303402373629
 21
1098.756303698052
 31
0.0
  0
LINE
  5
2539A
330
747D
100
AcDbEntity
  8
細線
 48
50.0
100
AcDbLine
 10
6651.469202276982
 20
1095.643026553664
 30
0.0
 11
6652.303402373629
 21
1092.529749409299
 31
0.0
  0
LINE
  5
2539B
330
747D
100
AcDbEntity
  8
細線
 48
50.0
100
AcDbLine
 10
6572.581157329735
 20
1095.643026553664
 30
0.0
 11
6579.011937948083
 21
1071.643026553664
 31
0.0
  0
LINE
  5
2539C
330
747D
100
AcDbEntity
  8
細線
 48
50.0
100
AcDbLine
 10
6414.805067435242
 20
1095.643026553664
 30
0.0
 11
6421.235848053588
 21
1071.643026553664
 31
0.0
  0
LINE
  5
2539D
330
747D
100
AcDbEntity
  8
細線
 48
50.0
100
AcDbLine
 10
6493.693112382487
 20
1095.643026553664
 30
0.0
 11
6500.123893000836
 21
1071.643026553664
 31
0.0
  0
LINE
  5
2539E
330
747D
100
AcDbEntity
  8
細線
 48
50.0
100
AcDbLine
 10
6487.262331764137
 20
1071.643026553662
 30
0.0
 11
6521.559828395322
 21
1199.643026553662
 31
0.0
  0
LINE
  5
2539F
330
747D
100
AcDbEntity
  8
細線
 48
50.0
100
AcDbLine
 10
6408.374286816888
 20
1071.643026553664
 30
0.0
 11
6442.671783448076
 21
1199.643026553662
 31
0.0
  0
LINE
  5
253A0
330
747D
100
AcDbEntity
  8
細線
 48
50.0
100
AcDbLine
 10
6566.150376711383
 20
1071.643026553664
 30
0.0
 11
6600.447873342567
 21
1199.643026553662
 31
0.0
  0
LINE
  5
253A1
330
747D
100
AcDbEntity
  8
部品1
 48
50.0
100
AcDbLine
 10
6652.303402373632
 20
1199.643026553664
 30
0.0
 11
6652.303402373632
 21
1071.643026553664
 31
0.0
  0
LINE
  5
253A2
330
747D
100
AcDbEntity
  8
部品1
 48
50.0
100
AcDbLine
 10
6340.303402373629
 20
1377.770241250786
 30
0.0
 11
6340.303402373629
 21
1319.643026553664
 31
0.0
  0
LINE
  5
253A3
330
747D
100
AcDbEntity
  8
細線
 48
50.0
100
AcDbLine
 10
6266.042035153912
 20
1311.643026553664
 30
0.0
 11
6324.303402373629
 21
1369.904393773382
 31
0.0
  0
LINE
  5
253A4
330
747D
100
AcDbEntity
  8
部品1
 48
50.0
100
AcDbLine
 10
6324.303402373629
 20
1377.770241250786
 30
0.0
 11
6324.303402373629
 21
1319.643026553664
 31
0.0
  0
LINE
  5
253A5
330
747D
100
AcDbEntity
  8
細線
 48
50.0
100
AcDbLine
 10
6180.982803517117
 20
1199.643026553664
 30
0.0
 11
6276.982803517118
 21
1295.643026553664
 31
0.0
  0
LINE
  5
253A6
330
747D
100
AcDbEntity
  8
細線
 48
50.0
100
AcDbLine
 10
6278.464912935233
 20
1175.643026553664
 30
0.0
 11
6272.034132316886
 21
1199.643026553664
 31
0.0
  0
LINE
  5
253A7
330
747D
100
AcDbEntity
  8
細線
 48
50.0
100
AcDbLine
 10
6199.57686798798
 20
1175.643026553664
 30
0.0
 11
6193.146087369634
 21
1199.643026553664
 31
0.0
  0
ARC
  5
253A8
330
747D
100
AcDbEntity
  8
部品1
 48
50.0
100
AcDbCircle
 10
6348.303402373629
 20
1319.643026553664
 30
0.0
 40
24.0
100
AcDbArc
 50
180.0
 51
199.4712206344835
  0
LINE
  5
253A9
330
747D
100
AcDbEntity
  8
細線
 48
50.0
100
AcDbLine
 10
6292.982803517118
 20
1311.643026553664
 30
0.0
 11
6324.303402373629
 21
1342.963625410175
 31
0.0
  0
CIRCLE
  5
253AA
330
747D
100
AcDbEntity
  8
部品1
 48
50.0
100
AcDbCircle
 10
6220.303402373629
 20
1319.643026553664
 30
0.0
 40
8.0
  0
LINE
  5
253AB
330
747D
100
AcDbEntity
  8
部品1
 48
50.0
100
AcDbLine
 10
6340.303402373629
 20
1377.770241250786
 30
0.0
 11
6324.303402373629
 21
1377.770241250786
 31
0.0
  0
LINE
  5
253AC
330
747D
100
AcDbEntity
  8
細線
 48
50.0
100
AcDbLine
 10
6044.303402373628
 20
1184.982947519443
 30
0.0
 11
6048.231558711825
 21
1199.643026553664
 31
0.0
  0
LINE
  5
253AD
330
747D
100
AcDbEntity
  8
細線
 48
50.0
100
AcDbLine
 10
6120.68882304073
 20
1175.643026553664
 30
0.0
 11
6114.258042422381
 21
1199.643026553664
 31
0.0
  0
LINE
  5
253AE
330
747D
100
AcDbEntity
  8
部品1
 48
50.0
100
AcDbLine
 10
6180.303402373629
 20
1311.643026553664
 30
0.0
 11
6180.303402373629
 21
1295.643026553664
 31
0.0
  0
LINE
  5
253AF
330
747D
100
AcDbEntity
  8
細線
 48
50.0
100
AcDbLine
 10
6127.101266790702
 20
1199.643026553664
 30
0.0
 11
6223.101266790702
 21
1295.643026553664
 31
0.0
  0
LINE
  5
253B0
330
747D
100
AcDbEntity
  8
細線
 48
50.0
100
AcDbLine
 10
6154.042035153913
 20
1199.643026553664
 30
0.0
 11
6250.042035153913
 21
1295.643026553664
 31
0.0
  0
LINE
  5
253B1
330
747D
100
AcDbEntity
  8
細線
 48
50.0
100
AcDbLine
 10
6257.028977540744
 20
1095.643026553664
 30
0.0
 11
6263.45975815909
 21
1071.643026553664
 31
0.0
  0
LINE
  5
253B2
330
747D
100
AcDbEntity
  8
細線
 48
50.0
100
AcDbLine
 10
6335.917022487997
 20
1095.643026553664
 30
0.0
 11
6342.347803106342
 21
1071.643026553664
 31
0.0
  0
LINE
  5
253B3
330
747D
100
AcDbEntity
  8
細線
 48
50.0
100
AcDbLine
 10
6099.25288764624
 20
1095.643026553664
 30
0.0
 11
6105.683668264586
 21
1071.643026553664
 31
0.0
  0
LINE
  5
253B4
330
747D
100
AcDbEntity
  8
細線
 48
50.0
100
AcDbLine
 10
6178.140932593491
 20
1095.643026553664
 30
0.0
 11
6184.571713211838
 21
1071.643026553664
 31
0.0
  0
LINE
  5
253B5
330
747D
100
AcDbEntity
  8
部品1
 48
50.0
100
AcDbLine
 10
6044.303402373631
 20
1071.643026553664
 30
0.0
 11
6044.303402373631
 21
1199.643026553664
 31
0.0
  0
LINE
  5
253B6
330
747D
100
AcDbEntity
  8
細線
 48
50.0
100
AcDbLine
 10
6092.822107027887
 20
1071.643026553662
 30
0.0
 11
6127.11960365907
 21
1199.643026553662
 31
0.0
  0
LINE
  5
253B7
330
747D
100
AcDbEntity
  8
細線
 48
50.0
100
AcDbLine
 10
6250.59819692239
 20
1071.643026553662
 30
0.0
 11
6284.895693553574
 21
1199.643026553662
 31
0.0
  0
LINE
  5
253B8
330
747D
100
AcDbEntity
  8
細線
 48
50.0
100
AcDbLine
 10
6171.710151975145
 20
1071.643026553664
 30
0.0
 11
6206.007648606328
 21
1199.643026553664
 31
0.0
  0
LINE
  5
253B9
330
747D
100
AcDbEntity
  8
細線
 48
50.0
100
AcDbLine
 10
6342.627413696362
 20
1199.643026553664
 30
0.0
 11
6438.627413696362
 21
1295.643026553664
 31
0.0
  0
CIRCLE
  5
253BA
330
747D
100
AcDbEntity
  8
部品1
 48
50.0
100
AcDbCircle
 10
6348.303402373629
 20
1319.643026553664
 30
0.0
 40
8.0
  0
LINE
  5
253BB
330
747D
100
AcDbEntity
  8
部品1
 48
50.0
100
AcDbLine
 10
6652.303402373632
 20
1199.643026553664
 30
0.0
 11
6044.303402373631
 21
1199.643026553664
 31
0.0
  0
LINE
  5
253BC
330
747D
100
AcDbEntity
  8
部品1
 48
50.0
100
AcDbLine
 10
6180.303402373629
 20
1311.643026553664
 30
0.0
 11
6516.303402373629
 21
1311.643026553664
 31
0.0
  0
LINE
  5
253BD
330
747D
100
AcDbEntity
  8
部品1
 48
50.0
100
AcDbLine
 10
6180.303402373629
 20
1295.643026553664
 30
0.0
 11
6516.303402373629
 21
1295.643026553664
 31
0.0
  0
LINE
  5
253BE
330
747D
100
AcDbEntity
  8
部品1
 48
50.0
100
AcDbLine
 10
6652.303402373632
 20
1071.643026553664
 30
0.0
 11
6044.303402373631
 21
1071.643026553664
 31
0.0
  0
LINE
  5
253BF
330
747D
100
AcDbEntity
  8
細線
 48
50.0
100
AcDbLine
 10
6329.486241869643
 20
1071.643026553664
 30
0.0
 11
6363.783738500826
 21
1199.643026553664
 31
0.0
  0
LINE
  5
253C0
330
747D
100
AcDbEntity
  8
細線
 48
50.0
100
AcDbLine
 10
6340.303402373629
 20
1358.963625410175
 30
0.0
 11
6356.303402373635
 21
1374.963625410175
 31
0.0
  0
LINE
  5
253C1
330
747D
100
AcDbEntity
  8
部品1
 48
50.0
100
AcDbLine
 10
6356.303402373635
 20
1319.643026553664
 30
0.0
 11
6356.303402373622
 21
1843.897455947909
 31
0.0
  0
LINE
  5
253C2
330
747D
100
AcDbEntity
  8
部品1
 48
50.0
100
AcDbLine
 10
6372.303402373635
 20
1319.643026553664
 30
0.0
 11
6372.303402373629
 21
1843.897455947909
 31
0.0
  0
LINE
  5
253C3
330
747D
100
AcDbEntity
  8
部品1
 48
50.0
100
AcDbLine
 10
6572.303402373629
 20
1439.643026553663
 30
0.0
 11
6572.303402373629
 21
1199.643026553664
 31
0.0
  0
LINE
  5
253C4
330
747D
100
AcDbEntity
  8
細線
 48
50.0
100
AcDbLine
 10
6454.627413696356
 20
1311.643026553664
 30
0.0
 11
6572.303402373629
 21
1429.31901523093
 31
0.0
  0
LINE
  5
253C5
330
747D
100
AcDbEntity
  8
細線
 48
50.0
100
AcDbLine
 10
6481.568182059572
 20
1311.643026553664
 30
0.0
 11
6572.303402373629
 21
1402.378246867723
 31
0.0
  0
LINE
  5
253C6
330
747D
100
AcDbEntity
  8
部品1
 48
50.0
100
AcDbLine
 10
6124.303402373629
 20
1199.643026553664
 30
0.0
 11
6124.303402373629
 21
1439.643026553663
 31
0.0
  0
LINE
  5
253C7
330
747D
100
AcDbEntity
  8
細線
 48
50.0
100
AcDbLine
 10
6239.101266790702
 20
1311.643026553664
 30
0.0
 11
6356.30340237363
 21
1428.845162136589
 31
0.0
  0
LINE
  5
253C8
330
747D
100
AcDbEntity
  8
細線
 48
50.0
100
AcDbLine
 10
6332.169249851033
 20
1377.770241250786
 30
0.0
 11
6356.303402373635
 21
1401.904393773385
 31
0.0
  0
LINE
  5
253C9
330
747D
100
AcDbEntity
  8
細線
 48
50.0
100
AcDbLine
 10
6124.303402373622
 20
1358.489772315835
 30
0.0
 11
6205.456656611457
 21
1439.643026553663
 31
0.0
  0
LEADER
  5
253CA
330
747D
100
AcDbEntity
  8
寸法
 48
50.0
100
AcDbLeader
  3
INABA_S50G
 71
     0
 73
     0
 74
     0
 75
     1
 40
100.0
 41
222.7272727272727
 76
     3
 10
6348.303402373628
 20
1843.897455947909
 30
0.0
 10
6402.189339401023
 20
1943.133028801083
 30
0.0
 10
6527.189339401023
 20
1943.133028801083
 30
0.0
1001
ACAD
1000
DSTYLE
1002
{
1070
    40
1040
1.0
1070
   272
1070
     1
1070
   279
1070
     1
1070
   341
1005
0
1002
}
  0
LWPOLYLINE
  5
253CB
330
747D
100
AcDbEntity
  8
部品1
 48
50.0
100
AcDbPolyline
 90
        2
 70
     0
 43
8.0
 10
6444.303402373629
 20
1743.643026553664
 10
6858.443304206585
 20
1743.643026553664
  0
MTEXT
  5
253CC
102
{ACAD_REACTORS
330
253CE
102
}
330
747D
100
AcDbEntity
  8
寸法
 62
     7
 48
50.0
100
AcDbMText
 10
6675.631062180314
 20
1284.245957610691
 30
0.0
 40
80.0
 41
0.8
 71
     4
 72
     1
  1
D10
  7
STYLE2
 73
     1
 44
1.0
1001
ACAD
1000
MTEXTBEGIN
1070
    73
1070
     1
1070
    44
1040
1.0
1070
    74
1070
     0
1000
MTEXTEND
  0
LEADER
  5
253CD
330
747D
100
AcDbEntity
  8
寸法
 48
50.0
100
AcDbLeader
  3
INABA_S50G
 71
     0
 73
     0
 74
     0
 75
     1
 40
100.0
 41
540.3409090909091
 76
     3
 10
6422.248571386802
 20
1302.902496140138
 30
0.0
 10
6541.04185823488
 20
961.2716781452409
 30
0.0
 10
6666.04185823488
 20
961.2716781452409
 30
0.0
213
0.0
223
-1.022262676269383
233
0.0
1001
ACAD
1000
DSTYLE
1002
{
1070
    40
1040
1.0
1070
   272
1070
     1
1070
   279
1070
     1
1070
   341
1005
0
1002
}
  0
LEADER
  5
253CE
330
747D
100
AcDbEntity
  8
寸法
 48
50.0
100
AcDbLeader
  3
INABA_S50G
 71
     0
 73
     0
 74
     0
 75
     1
 40
100.0
 41
225.0
 76
     3
 10
6476.206354725771
 20
1319.643026553664
 30
0.0
 10
6530.631062180313
 20
1224.245957610691
 30
0.0
 10
6655.631062180313
 20
1224.245957610691
 30
0.0
1001
ACAD
1000
DSTYLE
1002
{
1070
    40
1040
1.0
1070
   272
1070
     1
1070
   279
1070
     1
1070
   341
1005
0
1002
}
  0
MTEXT
  5
253CF
102
{ACAD_REACTORS
330
253CA
102
}
330
747D
100
AcDbEntity
  8
寸法
 62
     7
 48
50.0
100
AcDbMText
 10
6527.189339401023
 20
2006.198925846474
 30
0.0
 40
80.0
 41
0.8
 71
     4
 72
     1
  1
D13
  7
STYLE2
 73
     1
 44
1.0
1001
ACAD
1000
MTEXTBEGIN
1070
    73
1070
     1
1070
    44
1040
1.0
1070
    74
1070
     0
1000
MTEXTEND
  0
LINE
  5
253D0
330
747D
100
AcDbEntity
  8
部品1
 48
50.0
100
AcDbLine
 10
6444.303402373629
 20
1983.643026553664
 30
0.0
 11
6444.303402373629
 21
1439.643026553663
 31
0.0
  0
LINE
  5
253D1
330
747D
100
AcDbEntity
  8
部品1
 48
50.0
100
AcDbLine
 10
6252.303402373629
 20
1439.643026553663
 30
0.0
 11
6252.303402373629
 21
1983.643026553664
 31
0.0
  0
CIRCLE
  5
253D2
330
747D
100
AcDbEntity
  8
部品1
 48
50.0
100
AcDbCircle
 10
6348.303402373629
 20
1843.897455947909
 30
0.0
 40
8.0
  0
ARC
  5
253D3
330
747D
100
AcDbEntity
  8
部品1
 48
50.0
100
AcDbCircle
 10
6348.303402373629
 20
1843.897455947909
 30
0.0
 40
24.0
100
AcDbArc
 50
0.0
 51
180.0
  0
LINE
  5
253D4
330
747D
100
AcDbEntity
  8
細線
 48
50.0
100
AcDbLine
 10
6372.303402373629
 20
1822.015919221494
 30
0.0
 11
6444.303402373629
 21
1894.015919221494
 31
0.0
  0
LEADER
  5
253D5
330
747D
100
AcDbEntity
  8
寸法
 48
50.0
100
AcDbLeader
  3
INABA_S50G
 73
     0
 75
     1
 40
106.3636363636363
 41
893.1818181818181
 76
     3
 10
8083.742715550824
 20
2053.203026553665
 30
0.0
 10
8035.318643205883
 20
2427.262601269997
 30
0.0
 10
7910.318643205883
 20
2427.262601269997
 30
0.0
340
253D6
1001
ACAD
1000
DSTYLE
1002
{
1070
   341
1005
0
1070
    40
1040
1.0
1070
   343
1005
0
1070
   344
1005
0
1002
}
  0
MTEXT
  5
253D6
102
{ACAD_REACTORS
330
253D5
102
}
330
747D
100
AcDbEntity
  8
寸法
 62
     7
 48
50.0
100
AcDbMText
 10
7885.318643205883
 20
2505.444419451816
 30
0.0
 40
80.0
 41
0.8
 71
     6
 72
     1
  1
\A1;アンカープレート L
  7
STYLE2
 73
     1
 44
1.0
1001
ACAD
1000
MTEXTBEGIN
1070
    73
1070
     1
1070
    44
1040
1.0
1070
    74
1070
     0
1000
MTEXTEND
  0
DIMENSION
  5
253D7
330
747D
100
AcDbEntity
  8
寸法
 48
50.0
100
AcDbDimension
  2
*D55
 10
6572.303402373629
 20
661.2133885485036
 30
0.0
 11
6328.206643695405
 21
661.2133885485036
 31
0.0
 70
   160
  1
300
 71
     5
 42
448.0
  3
INABA_S40G
100
AcDbAlignedDimension
 13
6124.303402373628
 23
1071.643026553664
 33
0.0
 14
6572.303402373629
 24
1071.643026553664
 34
0.0
100
AcDbRotatedDimension
1001
ACAD
1000
DSTYLE
1002
{
1070
   341
1005
0
1002
}
  0
MTEXT
  5
253D8
102
{ACAD_REACTORS
330
253E0
102
}
330
747D
100
AcDbEntity
  8
寸法
 62
     7
 48
50.0
100
AcDbMText
 10
5953.368376178435
 20
1116.120332935227
 30
0.0
 40
80.0
 41
0.8
 71
     6
 72
     1
  1
D10
  7
STYLE2
 73
     1
 44
1.0
1001
ACAD
1000
MTEXTBEGIN
1070
    73
1070
     1
1070
    44
1040
1.0
1070
    74
1070
     0
1000
MTEXTEND
  0
MTEXT
  5
253D9
102
{ACAD_REACTORS
330
253DF
102
}
330
747D
100
AcDbEntity
  8
寸法
 62
     7
 48
50.0
100
AcDbMText
 10
5981.491103735869
 20
935.804180395784
 30
0.0
 40
80.0
 41
0.8
 71
     6
 72
     1
  1
D13
  7
STYLE2
 73
     1
 44
1.0
1001
ACAD
1000
MTEXTBEGIN
1070
    73
1070
     1
1070
    44
1040
1.0
1070
    74
1070
     0
1000
MTEXTEND
  0
DIMENSION
  5
253DA
330
747D
100
AcDbEntity
  8
寸法
 48
50.0
100
AcDbDimension
  2
*D56
 10
5517.266163811888
 20
1199.643026553664
 30
0.0
 11
5517.266163811888
 21
1571.183176209664
 31
0.0
 70
   160
  1
540
 71
     5
 42
784.0
  3
INABA_S40G
100
AcDbAlignedDimension
 13
6252.303402373628
 23
1983.643026553664
 33
0.0
 14
6044.303402373632
 24
1199.643026553664
 34
0.0
 50
90.0
100
AcDbRotatedDimension
1001
ACAD
1000
DSTYLE
1002
{
1070
   341
1005
0
1002
}
  0
MTEXT
  5
253DB
102
{ACAD_REACTORS
330
253DC
102
}
330
747D
100
AcDbEntity
  8
寸法
 62
     7
 48
50.0
100
AcDbMText
 10
6032.204922890355
 20
2196.159246555706
 30
0.0
 40
80.0
 41
0.8
 71
     6
 72
     1
  1
\A1;金コテ押エ
  7
STYLE2
 73
     1
 44
1.0
1001
ACAD
1000
MTEXTBEGIN
1070
    73
1070
     1
1070
    44
1040
1.0
1070
    74
1070
     0
1000
MTEXTEND
  0
LEADER
  5
253DC
330
747D
100
AcDbEntity
  8
寸法
 48
50.0
100
AcDbLeader
  3
INABA_S50G
 71
     0
 73
     0
 75
     1
 40
130.1136363636363
 41
651.1363636363636
 76
     3
 10
6332.303402373629
 20
1983.643026553664
 30
0.0
 10
6219.878822209611
 20
2124.113792010252
 30
0.0
 10
6094.878822209611
 20
2124.113792010252
 30
0.0
1001
ACAD
1000
DSTYLE
1002
{
1070
    40
1040
1.0
1070
   272
1070
     1
1070
   279
1070
     1
1070
   341
1005
0
1002
}
  0
LEADER
  5
253DD
330
747D
100
AcDbEntity
  8
寸法
 48
50.0
100
AcDbLeader
  3
INABA_S50G
 71
     0
 73
     0
 75
     1
 40
100.0
 41
540.3409090909091
 76
     3
 10
6356.303402373629
 20
1741.770241250787
 30
0.0
 10
6298.32116584493
 20
1520.299912709982
 30
0.0
 10
6173.32116584493
 20
1520.299912709982
 30
0.0
213
-9.732182305893367
223
-4.643716661138569
233
0.0
1001
ACAD
1000
DSTYLE
1002
{
1070
    40
1040
1.0
1070
   272
1070
     1
1070
   279
1070
     1
1070
   341
1005
0
1002
}
  0
MTEXT
  5
253DE
102
{ACAD_REACTORS
330
253DD
102
}
330
747D
100
AcDbEntity
  8
寸法
 62
     7
 48
50.0
100
AcDbMText
 10
6163.053348150824
 20
1584.94362937112
 30
0.0
 40
80.0
 41
0.8
 71
     6
 72
     1
  1
\A1;D10@300
  7
STYLE2
 73
     1
 44
1.0
1001
ACAD
1000
MTEXTBEGIN
1070
    73
1070
     1
1070
    44
1040
1.0
1070
    74
1070
     0
1000
MTEXTEND
  0
LEADER
  5
253DF
330
747D
100
AcDbEntity
  8
寸法
 48
50.0
100
AcDbLeader
  3
INABA_S50G
 71
     0
 73
     0
 75
     1
 40
100.0
 41
222.7272727272727
 76
     3
 10
6348.303402373628
 20
1319.643026553664
 30
0.0
 10
6126.491103735869
 20
875.8041803957839
 30
0.0
 10
6001.491103735869
 20
875.8041803957839
 30
0.0
1001
ACAD
1000
DSTYLE
1002
{
1070
    40
1040
1.0
1070
   272
1070
     1
1070
   279
1070
     1
1070
   341
1005
0
1002
}
  0
LEADER
  5
253E0
330
747D
100
AcDbEntity
  8
寸法
 48
50.0
100
AcDbLeader
  3
INABA_S50G
 71
     0
 73
     0
 75
     1
 40
100.0
 41
225.0
 76
     3
 10
6220.206354725771
 20
1319.643026553664
 30
0.0
 10
6098.368376178434
 20
1056.120332935227
 30
0.0
 10
5973.368376178434
 20
1056.120332935227
 30
0.0
1001
ACAD
1000
DSTYLE
1002
{
1070
    40
1040
1.0
1070
   272
1070
     1
1070
   279
1070
     1
1070
   341
1005
0
1002
}
  0
DIMENSION
  5
253E1
330
747D
100
AcDbEntity
  8
寸法
 48
50.0
100
AcDbDimension
  2
*D57
 10
5981.883088641168
 20
1199.643026553664
 30
0.0
 11
5981.883088641168
 21
1319.643026553664
 31
0.0
 70
   160
  1
150
 71
     5
 42
240.0
  3
INABA_S40G
100
AcDbAlignedDimension
 13
6124.303402373628
 23
1439.643026553663
 33
0.0
 14
6044.303402373632
 24
1199.643026553664
 34
0.0
 50
90.0
100
AcDbRotatedDimension
1001
ACAD
1000
DSTYLE
1002
{
1070
   341
1005
0
1002
}
  0
TEXT
  5
253E2
330
747D
100
AcDbEntity
  8
部品1
 48
50.0
100
AcDbText
 10
5838.163500540671
 20
1754.882018836919
 30
0.0
 40
80.0
  1
▽G.L
  7
STYLE2
100
AcDbText
  0
LWPOLYLINE
  5
253E3
330
747D
100
AcDbEntity
  8
部品1
 48
50.0
100
AcDbPolyline
 90
        2
 70
     0
 43
8.0
 10
5838.163500540671
 20
1743.643026553664
 10
6252.303402373628
 20
1743.643026553664
  0
MTEXT
  5
253E4
102
{ACAD_REACTORS
330
253E5
102
}
330
747D
100
AcDbEntity
  8
寸法
 62
     7
 48
50.0
100
AcDbMText
 10
7858.675636997524
 20
2866.12869135933
 30
0.0
 40
80.0
 41
0.8
 71
     6
 72
     1
  1
\A1;φ70スリーブ
  7
STYLE2
 73
     1
 44
1.0
1001
ACAD
1000
MTEXTBEGIN
1070
    73
1070
     1
1070
    44
1040
1.0
1070
    74
1070
     0
1000
MTEXTEND
  0
LEADER
  5
253E5
330
747D
100
AcDbEntity
  8
寸法
 48
50.0
100
AcDbLeader
  3
INABA_S50G
 73
     0
 75
     1
 40
113.1818181818182
 41
608.6363636363635
 76
     3
 10
8142.479465688873
 20
1933.158699911943
 30
0.0
 10
8008.675636997525
 20
2784.537782268421
 30
0.0
 10
7883.675636997525
 20
2784.537782268421
 30
0.0
340
253E4
1001
ACAD
1000
DSTYLE
1002
{
1070
   341
1005
0
1070
    40
1040
1.0
1070
   343
1005
0
1070
   344
1005
0
1002
}
  0
LINE
  5
253E6
330
747D
100
AcDbEntity
  8
部品1
100
AcDbLine
 10
5181.634963564365
 20
3382.981693754249
 30
0.0
 11
5181.634963564367
 21
418.674724169602
 31
0.0
  0
LEADER
  5
253E7
330
747D
100
AcDbEntity
  8
寸法
 48
50.0
100
AcDbLeader
  3
INABA_S50G
 73
     0
 74
     0
 75
     1
 40
80.0
 41
435.0
 76
     3
 10
8182.742715550823
 20
2032.803026553665
 30
0.0
 10
8225.287177970143
 20
2183.026352706894
 30
0.0
 10
8350.287177970143
 20
2183.026352706894
 30
0.0
340
253E8
1001
ACAD
1000
DSTYLE
1002
{
1070
   341
1005
0
1070
    40
1040
1.0
1070
   343
1005
0
1070
   344
1005
0
1002
}
  0
MTEXT
  5
253E8
102
{ACAD_REACTORS
330
253E7
102
}
330
747D
100
AcDbEntity
  8
部品1
 62
     7
 48
50.0
100
AcDbMText
 10
8375.287177970141
 20
2248.026352706894
 30
0.0
 40
80.0
 41
0.8
 71
     4
 72
     1
  1
M10X160
  7
STYLE2
 73
     1
 44
1.0
1001
ACAD
1000
MTEXTBEGIN
1070
    73
1070
     1
1070
    44
1040
1.0
1070
    74
1070
     0
1000
MTEXTEND
  0
DIMENSION
  5
253E9
330
747D
100
AcDbEntity
  8
寸法
 48
50.0
100
AcDbDimension
  2
*D58
 10
9144.265981438694
 20
1983.643026553663
 30
0.0
 11
9144.265981438694
 21
1517.634123132181
 31
0.0
 70
   160
  1
20～25
 71
     5
 42
52.76000000000113
  3
INABA_S40G
100
AcDbAlignedDimension
 13
8179.142715550822
 23
2036.403026553665
 33
0.0
 14
8366.342715550821
 24
1983.643026553664
 34
0.0
 50
90.0
100
AcDbRotatedDimension
1001
ACAD
1000
DSTYLE
1002
{
1070
   341
1005
0
1002
}
  0
DIMENSION
  5
253EA
330
747D
100
AcDbEntity
  8
寸法
 48
50.0
100
AcDbDimension
  2
*D59
 10
8868.211315319667
 20
1659.643026553662
 30
0.0
 11
8768.211315319666
 21
1821.643026553665
 31
0.0
 70
    32
  1
180
 71
     5
 42
324.0000000000009
  3
INABA_S40G
100
AcDbAlignedDimension
 13
8366.342715550821
 23
1983.643026553664
 33
0.0
 14
8366.342715550821
 24
1659.643026553663
 34
0.0
 50
90.0
100
AcDbRotatedDimension
1001
ACAD
1000
DSTYLE
1002
{
1070
   341
1005
0
1002
}
  0
TEXT
  5
253EB
330
747D
100
AcDbEntity
  8
部品1
 48
50.0
100
AcDbText
 10
8370.69629983525
 20
2339.521707315864
 30
0.0
 40
80.0
  1
基礎ボルト(市販品)
  7
STYLE2
100
AcDbText
  0
LWPOLYLINE
  5
253EC
330
747D
100
AcDbEntity
  8
部品1
 48
50.0
100
AcDbPolyline
 90
        2
 70
     0
 43
8.0
 10
8366.342715550821
 20
1743.643026553664
 10
8660.045178950205
 20
1743.643026553664
  0
MTEXT
  5
253ED
102
{ACAD_REACTORS
330
253EE
102
}
330
747D
100
AcDbEntity
  8
部品1
 62
     7
 48
50.0
100
AcDbMText
 10
8405.614305919662
 20
2684.138399640924
 30
0.0
 40
80.0
 41
0.8
 71
     4
 72
     1
  1
\A1;ワッシャー(市販品)
  7
STYLE2
 73
     1
 44
1.0
1001
ACAD
1000
MTEXTBEGIN
1070
    73
1070
     1
1070
    44
1040
1.0
1070
    74
1070
     0
1000
MTEXTEND
  0
LEADER
  5
253EE
330
747D
100
AcDbEntity
  8
寸法
 48
50.0
100
AcDbLeader
  3
INABA_S50G
 73
     0
 74
     0
 75
     1
 40
102.2727272727273
 41
906.8181818181818
 76
     3
 10
8213.742715550823
 20
2252.766314997943
 30
0.0
 10
8255.614305919662
 20
2608.00203600456
 30
0.0
 10
8380.614305919662
 20
2608.00203600456
 30
0.0
340
253ED
1001
ACAD
1000
DSTYLE
1002
{
1070
   341
1005
0
1070
    40
1040
1.0
1070
   343
1005
0
1070
   344
1005
0
1002
}
  0
MTEXT
  5
253EF
102
{ACAD_REACTORS
330
253F0
102
}
330
747D
100
AcDbEntity
  8
部品1
 62
     7
 48
50.0
100
AcDbMText
 10
8374.096686664179
 20
2869.107482405711
 30
0.0
 40
80.0
 41
0.8
 71
     4
 72
     1
  1
\A1;ナット(市販品)
  7
STYLE2
 73
     1
 44
1.0
1001
ACAD
1000
MTEXTBEGIN
1070
    73
1070
     1
1070
    44
1040
1.0
1070
    74
1070
     0
1000
MTEXTEND
  0
LEADER
  5
253F0
330
747D
100
AcDbEntity
  8
寸法
 48
50.0
100
AcDbLeader
  3
INABA_S50G
 73
     0
 74
     0
 75
     1
 40
102.2727272727273
 41
680.0000000000001
 76
     3
 10
8189.742715550822
 20
2382.518307662806
 30
0.0
 10
8224.09668666418
 20
2792.971118769348
 30
0.0
 10
8349.09668666418
 20
2792.971118769348
 30
0.0
340
253EF
1001
ACAD
1000
DSTYLE
1002
{
1070
   341
1005
0
1070
    40
1040
1.0
1070
   343
1005
0
1070
   344
1005
0
1002
}
  0
LINE
  5
253F1
330
747D
100
AcDbEntity
  8
部品1
100
AcDbLine
 10
5181.634963564369
 20
418.674724169602
 30
0.0
 11
11252.62014895061
 21
418.674724169602
 31
0.0
  0
LINE
  5
253F2
330
747D
100
AcDbEntity
  8
部品1
100
AcDbLine
 10
11252.62014895061
 20
3142.981693754248
 30
0.0
 11
5181.634963564367
 21
3142.981693754248
 31
0.0
  0
LINE
  5
253F3
330
747D
100
AcDbEntity
  8
部品1
100
AcDbLine
 10
11252.62014895062
 20
3382.981693754249
 30
0.0
 11
5181.634963564364
 21
3382.981693754249
 31
0.0
  0
LINE
  5
25476
102
{ACAD_REACTORS
330
25483
102
}
330
747D
100
AcDbEntity
  8
部品1
 48
50.0
100
AcDbLine
 10
10568.6
 20
6758.176748306347
 30
0.0
 11
10568.6
 21
7658.176748306328
 31
0.0
  0
LINE
  5
25477
102
{ACAD_REACTORS
330
254A1
102
}
330
747D
100
AcDbEntity
  8
部品1
 48
50.0
100
AcDbLine
 10
5878.599999999999
 20
6758.176748306325
 30
0.0
 11
5878.599999999999
 21
7658.176748306328
 31
0.0
  0
HATCH
  5
25483
330
747D
100
AcDbEntity
  8
細線
 48
50.0
100
AcDbHatch
 10
0.0
 20
0.0
 30
0.0
210
0.0
220
0.0
230
1.0
  2
LINE
 70
     0
 71
     1
 91
        1
 92
        7
 72
     0
 73
     1
 93
        4
 10
10688.6
 20
7293.176748306338
 10
10568.6
 20
7293.176748306338
 10
10568.6
 20
7093.176748306337
 10
10688.6
 20
7093.176748306337
 97
        4
330
24A6E
330
25476
330
24A48
330
24A0A
 75
     0
 76
     1
 52
45.0
 41
10.0
 77
     0
 78
     1
 53
45.0
 43
0.0
 44
0.0
 45
-22.45064030267288
 46
22.45064030267288
 79
     0
 47
1.423956260110238
 98
        1
 10
10653.00576711548
 20
7215.807730000219
  0
HATCH
  5
254A1
330
747D
100
AcDbEntity
  8
細線
 48
50.0
100
AcDbHatch
 10
0.0
 20
0.0
 30
0.0
210
0.0
220
0.0
230
1.0
  2
LINE
 70
     0
 71
     1
 91
        1
 92
        7
 72
     0
 73
     1
 93
        4
 10
5878.599999999999
 20
7293.17674830634
 10
5758.6
 20
7293.176748306338
 10
5758.599999999998
 20
7093.176748306338
 10
5878.599999999999
 20
7093.176748306341
 97
        4
330
249DD
330
24998
330
249A6
330
25477
 75
     0
 76
     1
 52
45.0
 41
10.0
 77
     0
 78
     1
 53
45.0
 43
0.0
 44
0.0
 45
-22.45064030267288
 46
22.45064030267288
 79
     0
 47
5.825572953127239
 98
        1
 10
5836.597780229421
 20
7197.201852925634
  0
ENDSEC
  0
SECTION
  2
OBJECTS
  0
DICTIONARY
  5
7471
330
0
100
AcDbDictionary
281
     1
  3
ACAD_COLOR
350
173D2
  3
ACAD_GROUP
350
7472
  3
ACAD_LAYOUT
350
173D3
  3
ACAD_MATERIAL
350
173D1
  3
ACAD_MLINESTYLE
350
7473
  3
ACAD_PLOTSETTINGS
350
173D4
  3
ACAD_PLOTSTYLENAME
350
173CF
  3
ACDBHEADERROUNDTRIPXREC
350
254C2
  3
AcDbVariableDictionary
350
25038
  3
CONTENTDICTIONARY
350
E71C
  3
DRAWINGVARIABLESDICT
350
F3B9
  0
DICTIONARY
  5
1758F
330
7467
100
AcDbDictionary
280
     1
281
     1
  3
ACAD_LAYERSTATES
360
17590
  0
DICTIONARY
  5
173D2
102
{ACAD_REACTORS
330
7471
102
}
330
7471
100
AcDbDictionary
281
     1
  0
DICTIONARY
  5
7472
102
{ACAD_REACTORS
330
7471
102
}
330
7471
100
AcDbDictionary
281
     1
  3
*A1
350
1D2A9
  0
DICTIONARY
  5
173D3
102
{ACAD_REACTORS
330
7471
102
}
330
7471
100
AcDbDictionary
281
     1
  3
Model
350
173D5
  3
レイアウト1
350
173D6
  0
DICTIONARY
  5
173D1
102
{ACAD_REACTORS
330
7471
102
}
330
7471
100
AcDbDictionary
281
     1
  0
DICTIONARY
  5
7473
102
{ACAD_REACTORS
330
7471
102
}
330
7471
100
AcDbDictionary
281
     1
  3
STANDARD
350
7480
  0
DICTIONARY
  5
173D4
102
{ACAD_REACTORS
330
7471
102
}
330
7471
100
AcDbDictionary
281
     1
  0
ACDBDICTIONARYWDFLT
  5
173CF
102
{ACAD_REACTORS
330
7471
102
}
330
7471
100
AcDbDictionary
281
     1
  3
Normal
350
173D0
100
AcDbDictionaryWithDefault
340
173D0
  0
DICTIONARY
  5
254C2
102
{ACAD_REACTORS
330
7471
102
}
330
7471
100
AcDbDictionary
281
     1
  3
COLORDICT
350
254C4
  3
MATERIALDICT
350
254C3
  0
DICTIONARY
  5
25038
102
{ACAD_REACTORS
330
7471
102
}
330
7471
100
AcDbDictionary
281
     1
  3
DIMASSOC
350
25039
  3
PROJECTNAME
350
2503A
  0
DICTIONARY
  5
E71C
102
{ACAD_REACTORS
330
7471
102
}
330
7471
100
AcDbDictionary
281
     1
  0
DICTIONARY
  5
F3B9
102
{ACAD_REACTORS
330
7471
102
}
330
7471
100
AcDbDictionary
281
     1
1001
DRAWINGVARIABLESXDATA
1000
POLARMODE
1000
1
  0
DICTIONARY
  5
17590
102
{ACAD_REACTORS
330
1758F
102
}
330
1758F
100
AcDbDictionary
281
     1
  0
GROUP
  5
1D2A9
102
{ACAD_REACTORS
330
7472
102
}
330
7472
100
AcDbGroup
300

 70
     1
 71
     1
  0
LAYOUT
  5
173D5
102
{ACAD_XDICTIONARY
360
254C5
102
}
102
{ACAD_REACTORS
330
173D3
102
}
330
173D3
100
AcDbPlotSettings
  1

  2
Microsoft Office Document Image Writer
  4

  6

 40
0.0
 41
0.0
 42
0.0
 43
0.0
 44
0.0
 45
0.0
 46
0.0
 47
0.0
 48
0.0
 49
0.0
140
0.0
141
0.0
142
1.0
143
1.0
 70
  1712
 72
     0
 73
     0
 74
     0
  7

 75
     0
147
1.0
148
0.0
149
0.0
100
AcDbLayout
  1
Model
 70
     1
 71
     0
 10
0.0
 20
0.0
 11
12.0
 21
9.0
 12
0.0
 22
0.0
 32
0.0
 14
0.0
 24
0.0
 34
0.0
 15
0.0
 25
0.0
 35
0.0
146
0.0
 13
0.0
 23
0.0
 33
0.0
 16
1.0
 26
0.0
 36
0.0
 17
0.0
 27
1.0
 37
0.0
 76
     0
330
747D
  0
LAYOUT
  5
173D6
102
{ACAD_XDICTIONARY
360
254C7
102
}
102
{ACAD_REACTORS
330
173D3
102
}
330
173D3
100
AcDbPlotSettings
  1

  2
Microsoft Office Document Image Writer
  4

  6

 40
0.0
 41
0.0
 42
0.0
 43
0.0
 44
0.0
 45
0.0
 46
0.0
 47
0.0
 48
0.0
 49
0.0
140
0.0
141
0.0
142
1.0
143
1.0
 70
   688
 72
     0
 73
     0
 74
     5
  7

 75
    16
147
1.0
148
0.0
149
0.0
100
AcDbLayout
  1
レイアウト1
 70
     0
 71
     1
 10
0.0
 20
0.0
 11
420.0
 21
297.0
 12
0.0
 22
0.0
 32
0.0
 14
1.000000000000000E+20
 24
1.000000000000000E+20
 34
1.000000000000000E+20
 15
-1.000000000000000E+20
 25
-1.000000000000000E+20
 35
-1.000000000000000E+20
146
0.0
 13
0.0
 23
0.0
 33
0.0
 16
1.0
 26
0.0
 36
0.0
 17
0.0
 27
1.0
 37
0.0
 76
     0
330
747A
  0
MLINESTYLE
  5
7480
102
{ACAD_REACTORS
330
7473
102
}
330
7473
100
AcDbMlineStyle
  2
STANDARD
 70
     0
  3

 62
     0
 51
90.0
 52
90.0
 71
     2
 49
0.5
 62
   256
  6
BYLAYER
 49
-0.5
 62
   256
  6
BYLAYER
  0
ACDBPLACEHOLDER
  5
173D0
102
{ACAD_REACTORS
330
173CF
102
}
330
173CF
  0
XRECORD
  5
254C4
102
{ACAD_REACTORS
330
254C2
102
}
330
254C2
100
AcDbXrecord
280
     1
340
173D2
  0
XRECORD
  5
254C3
102
{ACAD_REACTORS
330
254C2
102
}
330
254C2
100
AcDbXrecord
280
     1
340
173D1
  0
DICTIONARYVAR
  5
25039
102
{ACAD_REACTORS
330
25038
102
}
330
25038
100
DictionaryVariables
280
     0
  1
1
  0
DICTIONARYVAR
  5
2503A
102
{ACAD_REACTORS
330
25038
102
}
330
25038
100
DictionaryVariables
280
     0
  1

  0
DICTIONARY
  5
254C5
330
173D5
100
AcDbDictionary
280
     1
281
     1
  3
ACAD_XREC_ROUNDTRIP
360
254C6
  0
DICTIONARY
  5
254C7
330
173D6
100
AcDbDictionary
280
     1
281
     1
  3
ACAD_XREC_ROUNDTRIP
360
254C8
  0
XRECORD
  5
254C6
102
{ACAD_REACTORS
330
254C5
102
}
330
254C5
100
AcDbXrecord
280
     1
102
SHADEPLOT
 70
     0
102
SHADEPLOTRESLEVEL
 70
     2
102
SHADEPLOTCUSTOMDPI
 70
   300
  0
XRECORD
  5
254C8
102
{ACAD_REACTORS
330
254C7
102
}
330
254C7
100
AcDbXrecord
280
     1
102
SHADEPLOT
 70
     0
102
SHADEPLOTRESLEVEL
 70
     2
102
SHADEPLOTCUSTOMDPI
 70
   300
  0
ENDSEC
  0
EOF
