  0
SECTION
  2
HEADER
  9
$ACADVER
  1
AC1015
  9
$ACADMAINTVER
 70
    20
  9
$DWGCODEPAGE
  3
ANSI_932
  9
$INSBASE
 10
0.0
 20
0.0
 30
0.0
  9
$EXTMIN
 10
139.9999999999995
 20
-0.0000000000000909
 30
0.0
  9
$EXTMAX
 10
16307.2
 20
11409.6
 30
0.0
  9
$LIMMIN
 10
0.0
 20
0.0
  9
$LIMMAX
 10
16800.0
 20
11880.0
  9
$ORTHOMODE
 70
     0
  9
$REGENMODE
 70
     1
  9
$FILLMODE
 70
     1
  9
$QTEXTMODE
 70
     0
  9
$MIRRTEXT
 70
     1
  9
$LTSCALE
 40
20.0
  9
$ATTMODE
 70
     1
  9
$TEXTSIZE
 40
4.0
  9
$TRACEWID
 40
1.0
  9
$TEXTSTYLE
  7
STYLE1
  9
$CLAYER
  8
細線
  9
$CELTYPE
  6
BYLAYER
  9
$CECOLOR
 62
   256
  9
$CELTSCALE
 40
50.0
  9
$DISPSILH
 70
     0
  9
$DIMSCALE
 40
40.0
  9
$DIMASZ
 40
2.5
  9
$DIMEXO
 40
0.5
  9
$DIMDLI
 40
7.0
  9
$DIMRND
 40
0.0
  9
$DIMDLE
 40
0.0
  9
$DIMEXE
 40
1.5
  9
$DIMTP
 40
0.0
  9
$DIMTM
 40
0.0
  9
$DIMTXT
 40
3.0
  9
$DIMCEN
 40
0.0
  9
$DIMTSZ
 40
0.0
  9
$DIMTOL
 70
     0
  9
$DIMLIM
 70
     0
  9
$DIMTIH
 70
     0
  9
$DIMTOH
 70
     0
  9
$DIMSE1
 70
     0
  9
$DIMSE2
 70
     0
  9
$DIMTAD
 70
     3
  9
$DIMZIN
 70
     8
  9
$DIMBLK
  1

  9
$DIMASO
 70
     1
  9
$DIMSHO
 70
     1
  9
$DIMPOST
  1

  9
$DIMAPOST
  1

  9
$DIMALT
 70
     0
  9
$DIMALTD
 70
     2
  9
$DIMALTF
 40
0.0394
  9
$DIMLFAC
 40
1.0
  9
$DIMTOFL
 70
     1
  9
$DIMTVP
 40
0.0
  9
$DIMTIX
 70
     1
  9
$DIMSOXD
 70
     0
  9
$DIMSAH
 70
     1
  9
$DIMBLK1
  1
DOTSMALL
  9
$DIMBLK2
  1
DOTSMALL
  9
$DIMSTYLE
  2
INABA_S40G
  9
$DIMCLRD
 70
     0
  9
$DIMCLRE
 70
     0
  9
$DIMCLRT
 70
     7
  9
$DIMTFAC
 40
1.0
  9
$DIMGAP
 40
1.0
  9
$DIMJUST
 70
     0
  9
$DIMSD1
 70
     0
  9
$DIMSD2
 70
     0
  9
$DIMTOLJ
 70
     1
  9
$DIMTZIN
 70
     0
  9
$DIMALTZ
 70
     0
  9
$DIMALTTZ
 70
     0
  9
$DIMUPT
 70
     0
  9
$DIMDEC
 70
     1
  9
$DIMTDEC
 70
     4
  9
$DIMALTU
 70
     2
  9
$DIMALTTD
 70
     2
  9
$DIMTXSTY
  7
STYLE1
  9
$DIMAUNIT
 70
     0
  9
$DIMADEC
 70
     0
  9
$DIMALTRND
 40
0.0
  9
$DIMAZIN
 70
     0
  9
$DIMDSEP
 70
    46
  9
$DIMATFIT
 70
     3
  9
$DIMFRAC
 70
     0
  9
$DIMLDRBLK
  1

  9
$DIMLUNIT
 70
     2
  9
$DIMLWD
 70
    -2
  9
$DIMLWE
 70
    -2
  9
$DIMTMOVE
 70
     0
  9
$LUNITS
 70
     2
  9
$LUPREC
 70
     1
  9
$SKETCHINC
 40
1.0
  9
$FILLETRAD
 40
3.0
  9
$AUNITS
 70
     0
  9
$AUPREC
 70
     0
  9
$MENU
  1
acad
  9
$ELEVATION
 40
0.0
  9
$PELEVATION
 40
0.0
  9
$THICKNESS
 40
0.0
  9
$LIMCHECK
 70
     0
  9
$CHAMFERA
 40
0.0
  9
$CHAMFERB
 40
0.0
  9
$CHAMFERC
 40
0.0
  9
$CHAMFERD
 40
0.0
  9
$SKPOLY
 70
     0
  9
$TDCREATE
 40
2451368.612993866
  9
$TDUCREATE
 40
2451368.237993866
  9
$TDUPDATE
 40
2455826.601952582
  9
$TDUUPDATE
 40
2455826.226952581
  9
$TDINDWG
 40
0.7679652894
  9
$TDUSRTIMER
 40
0.7679652894
  9
$USRTIMER
 70
     1
  9
$ANGBASE
 50
0.0
  9
$ANGDIR
 70
     0
  9
$PDMODE
 70
     3
  9
$PDSIZE
 40
2.0
  9
$PLINEWID
 40
0.0
  9
$SPLFRAME
 70
     0
  9
$SPLINETYPE
 70
     6
  9
$SPLINESEGS
 70
     8
  9
$HANDSEED
  5
24BEC
  9
$SURFTAB1
 70
     6
  9
$SURFTAB2
 70
     6
  9
$SURFTYPE
 70
     6
  9
$SURFU
 70
     6
  9
$SURFV
 70
     6
  9
$UCSBASE
  2

  9
$UCSNAME
  2

  9
$UCSORG
 10
0.0
 20
0.0
 30
0.0
  9
$UCSXDIR
 10
1.0
 20
0.0
 30
0.0
  9
$UCSYDIR
 10
0.0
 20
1.0
 30
0.0
  9
$UCSORTHOREF
  2

  9
$UCSORTHOVIEW
 70
     0
  9
$UCSORGTOP
 10
0.0
 20
0.0
 30
0.0
  9
$UCSORGBOTTOM
 10
0.0
 20
0.0
 30
0.0
  9
$UCSORGLEFT
 10
0.0
 20
0.0
 30
0.0
  9
$UCSORGRIGHT
 10
0.0
 20
0.0
 30
0.0
  9
$UCSORGFRONT
 10
0.0
 20
0.0
 30
0.0
  9
$UCSORGBACK
 10
0.0
 20
0.0
 30
0.0
  9
$PUCSBASE
  2

  9
$PUCSNAME
  2

  9
$PUCSORG
 10
0.0
 20
0.0
 30
0.0
  9
$PUCSXDIR
 10
1.0
 20
0.0
 30
0.0
  9
$PUCSYDIR
 10
0.0
 20
1.0
 30
0.0
  9
$PUCSORTHOREF
  2

  9
$PUCSORTHOVIEW
 70
     0
  9
$PUCSORGTOP
 10
0.0
 20
0.0
 30
0.0
  9
$PUCSORGBOTTOM
 10
0.0
 20
0.0
 30
0.0
  9
$PUCSORGLEFT
 10
0.0
 20
0.0
 30
0.0
  9
$PUCSORGRIGHT
 10
0.0
 20
0.0
 30
0.0
  9
$PUCSORGFRONT
 10
0.0
 20
0.0
 30
0.0
  9
$PUCSORGBACK
 10
0.0
 20
0.0
 30
0.0
  9
$USERI1
 70
     0
  9
$USERI2
 70
     0
  9
$USERI3
 70
     0
  9
$USERI4
 70
     0
  9
$USERI5
 70
     0
  9
$USERR1
 40
0.0
  9
$USERR2
 40
0.0
  9
$USERR3
 40
0.0
  9
$USERR4
 40
0.0
  9
$USERR5
 40
0.0
  9
$WORLDVIEW
 70
     1
  9
$SHADEDGE
 70
     3
  9
$SHADEDIF
 70
    70
  9
$TILEMODE
 70
     1
  9
$MAXACTVP
 70
    16
  9
$PINSBASE
 10
0.0
 20
0.0
 30
0.0
  9
$PLIMCHECK
 70
     0
  9
$PEXTMIN
 10
1.000000000000000E+20
 20
1.000000000000000E+20
 30
1.000000000000000E+20
  9
$PEXTMAX
 10
-1.000000000000000E+20
 20
-1.000000000000000E+20
 30
-1.000000000000000E+20
  9
$PLIMMIN
 10
0.0
 20
0.0
  9
$PLIMMAX
 10
420.0
 20
297.0
  9
$UNITMODE
 70
     0
  9
$VISRETAIN
 70
     0
  9
$PLINEGEN
 70
     0
  9
$PSLTSCALE
 70
     0
  9
$TREEDEPTH
 70
  3020
  9
$CMLSTYLE
  2
STANDARD
  9
$CMLJUST
 70
     0
  9
$CMLSCALE
 40
1.0
  9
$PROXYGRAPHICS
 70
     1
  9
$MEASUREMENT
 70
     1
  9
$CELWEIGHT
370
    -1
  9
$ENDCAPS
280
     0
  9
$JOINSTYLE
280
     0
  9
$LWDISPLAY
290
     0
  9
$INSUNITS
 70
     0
  9
$HYPERLINKBASE
  1

  9
$STYLESHEET
  1

  9
$XEDIT
290
     1
  9
$CEPSNTYPE
380
     0
  9
$PSTYLEMODE
290
     1
  9
$FINGERPRINTGUID
  2
{5EAC461A-2277-4BF8-9AB0-99C43BB394F0}
  9
$VERSIONGUID
  2
{C2D02C99-1656-4CB9-A432-5C46D997F928}
  9
$EXTNAMES
290
     1
  9
$PSVPSCALE
 40
0.0
  9
$OLESTARTUP
290
     0
  0
ENDSEC
  0
SECTION
  2
CLASSES
  0
CLASS
  1
ACDBDICTIONARYWDFLT
  2
AcDbDictionaryWithDefault
  3
ObjectDBX Classes
 90
        0
280
     0
281
     0
  0
CLASS
  1
DICTIONARYVAR
  2
AcDbDictionaryVar
  3
ObjectDBX Classes
 90
        0
280
     0
281
     0
  0
CLASS
  1
ACDBPLACEHOLDER
  2
AcDbPlaceHolder
  3
ObjectDBX Classes
 90
        0
280
     0
281
     0
  0
CLASS
  1
LAYOUT
  2
AcDbLayout
  3
ObjectDBX Classes
 90
        0
280
     0
281
     0
  0
ENDSEC
  0
SECTION
  2
TABLES
  0
TABLE
  2
VPORT
  5
746D
330
0
100
AcDbSymbolTable
 70
     2
  0
VPORT
  5
24BE4
330
746D
100
AcDbSymbolTableRecord
100
AcDbViewportTableRecord
  2
*Active
 70
     0
 10
0.0
 20
0.0
 11
1.0
 21
1.0
 12
8400.000000000002
 22
6532.467989526317
 13
0.0
 23
0.0
 14
10.0
 24
10.0
 15
10.0
 25
10.0
 16
0.0
 26
0.0
 36
1.0
 17
0.0
 27
0.0
 37
0.0
 40
13159.96111582214
 41
1.522222222222222
 42
50.0
 43
0.0
 44
0.0
 50
0.0
 51
0.0
 71
     0
 72
     0
 73
     1
 74
     0
 75
     0
 76
     0
 77
     0
 78
     0
281
     0
 65
     1
110
0.0
120
0.0
130
0.0
111
1.0
121
0.0
131
0.0
112
0.0
122
1.0
132
0.0
 79
     0
146
0.0
  0
ENDTAB
  0
TABLE
  2
LTYPE
  5
746A
330
0
100
AcDbSymbolTable
 70
     5
  0
LTYPE
  5
7477
330
746A
100
AcDbSymbolTableRecord
100
AcDbLinetypeTableRecord
  2
BYBLOCK
 70
     0
  3

 72
    65
 73
     0
 40
0.0
  0
LTYPE
  5
7478
330
746A
100
AcDbSymbolTableRecord
100
AcDbLinetypeTableRecord
  2
BYLAYER
 70
     0
  3

 72
    65
 73
     0
 40
0.0
  0
LTYPE
  5
7479
330
746A
100
AcDbSymbolTableRecord
100
AcDbLinetypeTableRecord
  2
CONTINUOUS
 70
     0
  3
Solid line
 72
    65
 73
     0
 40
0.0
  0
LTYPE
  5
7816
330
746A
100
AcDbSymbolTableRecord
100
AcDbLinetypeTableRecord
  2
CENTER
 70
     0
  3
____ _ ____ _ ____ _ ____ _ ____ _ ____ _ ____ 
 72
    65
 73
     4
 40
2.0
 49
1.25
 74
     0
 49
-0.25
 74
     0
 49
0.25
 74
     0
 49
-0.25
 74
     0
  0
LTYPE
  5
781A
330
746A
100
AcDbSymbolTableRecord
100
AcDbLinetypeTableRecord
  2
HIDDEN
 70
     0
  3
__ __ __ __ __ __ __ __ __ __ __ __ __ __ __ __
 72
    65
 73
     2
 40
0.375
 49
0.25
 74
     0
 49
-0.125
 74
     0
  0
LTYPE
  5
781B
330
746A
100
AcDbSymbolTableRecord
100
AcDbLinetypeTableRecord
  2
PHANTOM
 70
     0
  3
______  __  __  ______  __  __  ______  __  __ 
 72
    65
 73
     6
 40
2.5
 49
1.25
 74
     0
 49
-0.25
 74
     0
 49
0.25
 74
     0
 49
-0.25
 74
     0
 49
0.25
 74
     0
 49
-0.25
 74
     0
  0
LTYPE
  5
12CC3
330
746A
100
AcDbSymbolTableRecord
100
AcDbLinetypeTableRecord
  2
HIDDENX2
 70
     0
  3
Hidden (2x) ____ ____ ____ ____ ____ ____ ____
 72
    65
 73
     2
 40
19.05
 49
12.7
 74
     0
 49
-6.349999999999999
 74
     0
  0
ENDTAB
  0
TABLE
  2
LAYER
  5
7467
102
{ACAD_XDICTIONARY
360
1758F
102
}
330
0
100
AcDbSymbolTable
 70
    12
  0
LAYER
  5
7474
330
7467
100
AcDbSymbolTableRecord
100
AcDbLayerTableRecord
  2
0
 70
     0
 62
     7
  6
CONTINUOUS
370
    -3
390
173D0
  0
LAYER
  5
DEB2
330
7467
100
AcDbSymbolTableRecord
100
AcDbLayerTableRecord
  2
センター
 70
     0
 62
     3
  6
CENTER
370
    -3
390
173D0
  0
LAYER
  5
DEB3
330
7467
100
AcDbSymbolTableRecord
100
AcDbLayerTableRecord
  2
寸法
 70
     0
 62
     4
  6
CONTINUOUS
370
    -3
390
173D0
  0
LAYER
  5
DEB4
330
7467
100
AcDbSymbolTableRecord
100
AcDbLayerTableRecord
  2
部品1
 70
     0
 62
     7
  6
CONTINUOUS
370
    -3
390
173D0
  0
LAYER
  5
DEB5
330
7467
100
AcDbSymbolTableRecord
100
AcDbLayerTableRecord
  2
補助
 70
     0
 62
    -1
  6
CONTINUOUS
370
    -3
390
173D0
  0
LAYER
  5
DEB6
330
7467
100
AcDbSymbolTableRecord
100
AcDbLayerTableRecord
  2
文字
 70
     0
 62
     7
  6
CONTINUOUS
370
    -3
390
173D0
  0
LAYER
  5
F255
330
7467
100
AcDbSymbolTableRecord
100
AcDbLayerTableRecord
  2
DEFPOINTS
 70
     0
 62
     7
  6
CONTINUOUS
290
     0
370
    -3
390
173D0
  0
LAYER
  5
10B54
330
7467
100
AcDbSymbolTableRecord
100
AcDbLayerTableRecord
  2
仕様書枠
 70
     0
 62
   230
  6
CONTINUOUS
370
    -3
390
173D0
  0
LAYER
  5
11729
330
7467
100
AcDbSymbolTableRecord
100
AcDbLayerTableRecord
  2
Ｇ．Ｌ
 70
     0
 62
    30
  6
CONTINUOUS
370
    -3
390
173D0
  0
LAYER
  5
1173F
330
7467
100
AcDbSymbolTableRecord
100
AcDbLayerTableRecord
  2
細線
 70
     0
 62
     5
  6
CONTINUOUS
370
    -3
390
173D0
  0
LAYER
  5
12CC4
330
7467
100
AcDbSymbolTableRecord
100
AcDbLayerTableRecord
  2
想像線
 70
     0
 62
     6
  6
PHANTOM
370
    -3
390
173D0
  0
LAYER
  5
142E2
330
7467
100
AcDbSymbolTableRecord
100
AcDbLayerTableRecord
  2
破線
 70
     0
 62
     2
  6
HIDDEN
370
    -3
390
173D0
  0
ENDTAB
  0
TABLE
  2
STYLE
  5
7468
330
0
100
AcDbSymbolTable
 70
     7
  0
STYLE
  5
7475
330
7468
100
AcDbSymbolTableRecord
100
AcDbTextStyleTableRecord
  2
STANDARD
 70
     0
 40
0.0
 41
1.0
 50
0.0
 71
     0
 42
4.0
  3
txt
  4
C:\AutoCAD LT\bigfont.shx
  0
STYLE
  5
763C
330
7468
100
AcDbSymbolTableRecord
100
AcDbTextStyleTableRecord
  2
MSMINCHO
 70
     0
 40
0.0
 41
1.0
 50
0.0
 71
     0
 42
1.199999999999999
  3
C:\AutoCAD LT\msminch2.TTF
  4

  0
STYLE
  5
F706
330
7468
100
AcDbSymbolTableRecord
100
AcDbTextStyleTableRecord
  2
STYLE1
 70
     0
 40
0.0
 41
1.0
 50
0.0
 71
     0
 42
4.0
  3
isocp.shx
  4
bigfont.shx
  0
STYLE
  5
103BF
330
7468
100
AcDbSymbolTableRecord
100
AcDbTextStyleTableRecord
  2
STYLE2
 70
     0
 40
0.0
 41
1.0
 50
0.0
 71
     0
 42
100.0
  3
MS PGothic.ttf
  4

1001
ACAD
1000
MS PGothic
1071
    32818
  0
STYLE
  5
10BAA
330
7468
100
AcDbSymbolTableRecord
100
AcDbTextStyleTableRecord
  2
STYLE3
 70
     0
 40
0.0
 41
1.0
 50
0.0
 71
     0
 42
100.0
  3

  4

1001
ACAD
1000
DFPGothic-EB
1071
    32818
  0
STYLE
  5
11A15
330
7468
100
AcDbSymbolTableRecord
100
AcDbTextStyleTableRecord
  2
MSGOTHIC
 70
     0
 40
0.0
 41
1.0
 50
0.0
 71
     0
 42
3.5
  3
msgothi2.ttf
  4

  0
STYLE
  5
13E96
330
7468
100
AcDbSymbolTableRecord
100
AcDbTextStyleTableRecord
  2
MSPゴシック
 70
     0
 40
0.0
 41
1.0
 50
0.0
 71
     0
 42
4.0
  3
MS PGothic.ttf
  4

1001
ACAD
1000
MS PGothic
1071
    32818
  0
ENDTAB
  0
TABLE
  2
VIEW
  5
746B
330
0
100
AcDbSymbolTable
 70
     0
  0
ENDTAB
  0
TABLE
  2
UCS
  5
746C
330
0
100
AcDbSymbolTable
 70
     0
  0
ENDTAB
  0
TABLE
  2
APPID
  5
746E
330
0
100
AcDbSymbolTable
 70
     6
  0
APPID
  5
7476
330
746E
100
AcDbSymbolTableRecord
100
AcDbRegAppTableRecord
  2
ACAD
 70
     0
  0
APPID
  5
DEA9
330
746E
100
AcDbSymbolTableRecord
100
AcDbRegAppTableRecord
  2
CONTENTBLOCKICON
 70
     0
  0
APPID
  5
DEAA
330
746E
100
AcDbSymbolTableRecord
100
AcDbRegAppTableRecord
  2
CONTENTBLOCKDESCRIPTION
 70
     0
  0
APPID
  5
E71D
330
746E
100
AcDbSymbolTableRecord
100
AcDbRegAppTableRecord
  2
CONTENTTABDATA
 70
     0
  0
APPID
  5
E71E
330
746E
100
AcDbSymbolTableRecord
100
AcDbRegAppTableRecord
  2
CONTENTCURRENTTAB
 70
     0
  0
APPID
  5
F3BA
330
746E
100
AcDbSymbolTableRecord
100
AcDbRegAppTableRecord
  2
DRAWINGVARIABLESXDATA
 70
     0
  0
ENDTAB
  0
TABLE
  2
DIMSTYLE
  5
746F
330
0
100
AcDbSymbolTable
 70
     6
100
AcDbDimStyleTable
 71
     1
340
F71F
  0
DIMSTYLE
105
7484
330
746F
100
AcDbSymbolTableRecord
100
AcDbDimStyleTableRecord
  2
JIS
 70
     0
 41
2.5
 42
1.0
 43
7.0
 44
1.0
 73
     0
 74
     0
 77
     1
 78
     8
140
2.5
141
0.0
143
0.0394
147
0.0
172
     1
174
     1
175
     1
340
7475
  0
DIMSTYLE
105
F236
330
746F
100
AcDbSymbolTableRecord
100
AcDbDimStyleTableRecord
  2
INABA_S40
 70
     0
 40
40.0
 41
2.5
 42
0.5
 43
7.0
 44
1.5
 73
     0
 74
     0
 77
     3
 78
     8
140
3.0
141
0.0
143
0.0394
147
1.0
172
     1
173
     1
174
     1
175
     1
178
     7
289
     0
340
7475
341
DEAC
343
DEAC
344
DEAC
  0
DIMSTYLE
105
F71F
102
{ACAD_REACTORS
330
20DE1
330
20DFB
330
22741
330
2275B
330
229ED
330
229EC
330
22A4B
330
24209
330
241C8
330
241C2
330
24193
330
24191
330
2418F
330
24155
330
24154
330
24148
330
24145
330
24142
330
2415A
330
24150
330
2414F
330
24159
330
24158
330
24153
330
24A97
330
24AF7
330
24AFA
330
24B01
330
24B09
330
24B0A
102
}
330
746F
100
AcDbSymbolTableRecord
100
AcDbDimStyleTableRecord
  2
INABA_S40G
 70
     0
 40
40.0
 41
2.5
 42
0.5
 43
7.0
 44
1.5
 73
     0
 74
     0
 77
     3
 78
     8
140
3.0
141
0.0
143
0.0394
147
1.0
172
     1
173
     1
174
     1
178
     7
271
     1
340
F706
341
F770
343
F770
344
F770
  0
DIMSTYLE
105
142E3
330
746F
100
AcDbSymbolTableRecord
100
AcDbDimStyleTableRecord
  2
INABA_S1
 70
     0
 40
0.0
 41
2.5
 42
0.5
 43
7.0
 44
1.5
 73
     0
 74
     0
 77
     3
 78
     8
140
3.0
141
0.0
143
0.0394
146
0.5
147
0.5
172
     1
173
     1
176
   256
177
   256
178
     7
271
     2
272
     2
284
     8
288
     1
340
7475
341
DEAC
343
DEAC
344
DEAC
  0
DIMSTYLE
105
14463
330
746F
100
AcDbSymbolTableRecord
100
AcDbDimStyleTableRecord
  2
INABA_S30G
 70
     0
 40
30.0
 41
2.5
 42
0.5
 43
7.0
 44
1.5
 73
     0
 74
     0
 77
     3
 78
     8
140
3.0
141
0.0
143
0.0394
147
1.0
172
     1
173
     1
174
     1
175
     1
178
     7
271
     1
340
F706
341
F770
343
F770
344
F770
  0
DIMSTYLE
105
1758E
330
746F
100
AcDbSymbolTableRecord
100
AcDbDimStyleTableRecord
  2
INABA_S50G
 70
     0
 41
125.0
 42
25.0
 43
7.0
 44
75.0
 73
     0
 74
     0
 77
     3
 78
     8
140
150.0
141
0.0
143
0.0394
147
25.0
172
     1
173
     1
174
     1
175
     1
178
     7
271
     1
340
F706
341
F770
343
F770
344
F770
  0
ENDTAB
  0
TABLE
  2
BLOCK_RECORD
  5
7466
330
0
100
AcDbSymbolTable
 70
    59
  0
BLOCK_RECORD
  5
747D
330
7466
100
AcDbSymbolTableRecord
100
AcDbBlockTableRecord
  2
*MODEL_SPACE
340
173D5
  0
BLOCK_RECORD
  5
747A
330
7466
100
AcDbSymbolTableRecord
100
AcDbBlockTableRecord
  2
*PAPER_SPACE
340
173D6
  0
BLOCK_RECORD
  5
DEAC
330
7466
100
AcDbSymbolTableRecord
100
AcDbBlockTableRecord
  2
_OPEN
340
0
  0
BLOCK_RECORD
  5
F770
330
7466
100
AcDbSymbolTableRecord
100
AcDbBlockTableRecord
  2
_DOTSMALL
340
0
102
{BLKREFS
331
18C65
331
18C66
331
18C59
331
18C5A
331
18C4D
331
18C4E
331
18C41
331
18C42
331
18C35
331
18C36
331
18C29
331
18C2A
331
18C1D
331
18C1E
331
18C0F
331
18C10
331
18C03
331
18C04
331
18BF5
331
18BF6
331
18BE7
331
18BE8
331
18BD9
331
18BDA
331
18BCD
331
18BCE
331
21316
331
21317
331
21321
331
21322
331
2132A
331
2132B
331
2466D
331
2466E
331
24689
331
2468A
331
24693
331
24694
331
2469C
331
2469D
331
246C0
331
246C1
331
246C9
331
246CA
331
246DC
331
246DD
331
246EE
331
246EF
331
2470B
331
2470C
331
24716
331
24717
331
24721
331
24722
331
24735
331
24736
331
2474A
331
2474B
331
2476E
331
2476F
331
24777
331
24778
331
247B2
331
247B3
331
247BC
331
247BD
331
2480D
331
2480E
331
24816
331
24817
331
2481F
331
24820
331
24828
331
24829
331
24831
331
24832
331
24843
331
24844
331
2484C
331
2484D
331
2489F
331
248A0
331
24893
331
24894
331
24887
331
24888
331
2487B
331
2487C
331
2486F
331
24870
331
24861
331
24862
331
24B61
331
24B62
331
24B6A
331
24B6B
331
24B73
331
24B74
331
24B7C
331
24B7D
331
24B87
331
24B88
331
24B90
331
24B91
331
24BD4
331
24BD5
102
}
  0
BLOCK_RECORD
  5
164B4
330
7466
100
AcDbSymbolTableRecord
100
AcDbBlockTableRecord
  2
_DOT
340
0
102
{BLKREFS
331
18C73
331
18C74
102
}
  0
BLOCK_RECORD
  5
18BC8
330
7466
100
AcDbSymbolTableRecord
100
AcDbBlockTableRecord
  2
*D3
340
0
  0
BLOCK_RECORD
  5
18BD4
330
7466
100
AcDbSymbolTableRecord
100
AcDbBlockTableRecord
  2
*D4
340
0
  0
BLOCK_RECORD
  5
18BE0
330
7466
100
AcDbSymbolTableRecord
100
AcDbBlockTableRecord
  2
*D5
340
0
  0
BLOCK_RECORD
  5
18BEE
330
7466
100
AcDbSymbolTableRecord
100
AcDbBlockTableRecord
  2
*D6
340
0
  0
BLOCK_RECORD
  5
18BFC
330
7466
100
AcDbSymbolTableRecord
100
AcDbBlockTableRecord
  2
*D7
340
0
  0
BLOCK_RECORD
  5
18C0A
330
7466
100
AcDbSymbolTableRecord
100
AcDbBlockTableRecord
  2
*D8
340
0
  0
BLOCK_RECORD
  5
18C16
330
7466
100
AcDbSymbolTableRecord
100
AcDbBlockTableRecord
  2
*D9
340
0
  0
BLOCK_RECORD
  5
18C24
330
7466
100
AcDbSymbolTableRecord
100
AcDbBlockTableRecord
  2
*D10
340
0
  0
BLOCK_RECORD
  5
18C30
330
7466
100
AcDbSymbolTableRecord
100
AcDbBlockTableRecord
  2
*D11
340
0
  0
BLOCK_RECORD
  5
18C3C
330
7466
100
AcDbSymbolTableRecord
100
AcDbBlockTableRecord
  2
*D12
340
0
  0
BLOCK_RECORD
  5
18C48
330
7466
100
AcDbSymbolTableRecord
100
AcDbBlockTableRecord
  2
*D13
340
0
  0
BLOCK_RECORD
  5
18C54
330
7466
100
AcDbSymbolTableRecord
100
AcDbBlockTableRecord
  2
*D14
340
0
  0
BLOCK_RECORD
  5
18C60
330
7466
100
AcDbSymbolTableRecord
100
AcDbBlockTableRecord
  2
*D15
340
0
  0
BLOCK_RECORD
  5
18C6C
330
7466
100
AcDbSymbolTableRecord
100
AcDbBlockTableRecord
  2
*D16
340
0
  0
BLOCK_RECORD
  5
18C7A
330
7466
100
AcDbSymbolTableRecord
100
AcDbBlockTableRecord
  2
A$C3B1A506B
340
0
  0
BLOCK_RECORD
  5
1C4CA
330
7466
100
AcDbSymbolTableRecord
100
AcDbBlockTableRecord
  2
_NONE
340
0
  0
BLOCK_RECORD
  5
20DE2
330
7466
100
AcDbSymbolTableRecord
100
AcDbBlockTableRecord
  2
*D19
340
0
  0
BLOCK_RECORD
  5
20DFC
330
7466
100
AcDbSymbolTableRecord
100
AcDbBlockTableRecord
  2
*D20
340
0
  0
BLOCK_RECORD
  5
22742
330
7466
100
AcDbSymbolTableRecord
100
AcDbBlockTableRecord
  2
*D25
340
0
  0
BLOCK_RECORD
  5
2275C
330
7466
100
AcDbSymbolTableRecord
100
AcDbBlockTableRecord
  2
*D26
340
0
  0
BLOCK_RECORD
  5
22AFD
330
7466
100
AcDbSymbolTableRecord
100
AcDbBlockTableRecord
  2
*D27
340
0
  0
BLOCK_RECORD
  5
22B0A
330
7466
100
AcDbSymbolTableRecord
100
AcDbBlockTableRecord
  2
*D28
340
0
  0
BLOCK_RECORD
  5
22B17
330
7466
100
AcDbSymbolTableRecord
100
AcDbBlockTableRecord
  2
*D29
340
0
  0
BLOCK_RECORD
  5
24210
330
7466
100
AcDbSymbolTableRecord
100
AcDbBlockTableRecord
  2
*D30
340
0
  0
BLOCK_RECORD
  5
2421C
330
7466
100
AcDbSymbolTableRecord
100
AcDbBlockTableRecord
  2
*D31
340
0
  0
BLOCK_RECORD
  5
24228
330
7466
100
AcDbSymbolTableRecord
100
AcDbBlockTableRecord
  2
*D32
340
0
  0
BLOCK_RECORD
  5
24234
330
7466
100
AcDbSymbolTableRecord
100
AcDbBlockTableRecord
  2
*D33
340
0
  0
BLOCK_RECORD
  5
24240
330
7466
100
AcDbSymbolTableRecord
100
AcDbBlockTableRecord
  2
*D34
340
0
  0
BLOCK_RECORD
  5
2424C
330
7466
100
AcDbSymbolTableRecord
100
AcDbBlockTableRecord
  2
*D35
340
0
  0
BLOCK_RECORD
  5
24258
330
7466
100
AcDbSymbolTableRecord
100
AcDbBlockTableRecord
  2
*D36
340
0
  0
BLOCK_RECORD
  5
24263
330
7466
100
AcDbSymbolTableRecord
100
AcDbBlockTableRecord
  2
*D37
340
0
  0
BLOCK_RECORD
  5
2427B
330
7466
100
AcDbSymbolTableRecord
100
AcDbBlockTableRecord
  2
*D38
340
0
  0
BLOCK_RECORD
  5
24287
330
7466
100
AcDbSymbolTableRecord
100
AcDbBlockTableRecord
  2
*D39
340
0
  0
BLOCK_RECORD
  5
24293
330
7466
100
AcDbSymbolTableRecord
100
AcDbBlockTableRecord
  2
*D40
340
0
  0
BLOCK_RECORD
  5
242AD
330
7466
100
AcDbSymbolTableRecord
100
AcDbBlockTableRecord
  2
*D41
340
0
  0
BLOCK_RECORD
  5
242C5
330
7466
100
AcDbSymbolTableRecord
100
AcDbBlockTableRecord
  2
*D42
340
0
  0
BLOCK_RECORD
  5
242DC
330
7466
100
AcDbSymbolTableRecord
100
AcDbBlockTableRecord
  2
*D43
340
0
  0
BLOCK_RECORD
  5
242F6
330
7466
100
AcDbSymbolTableRecord
100
AcDbBlockTableRecord
  2
*D44
340
0
  0
BLOCK_RECORD
  5
24302
330
7466
100
AcDbSymbolTableRecord
100
AcDbBlockTableRecord
  2
*D45
340
0
  0
BLOCK_RECORD
  5
2430E
330
7466
100
AcDbSymbolTableRecord
100
AcDbBlockTableRecord
  2
*D46
340
0
  0
BLOCK_RECORD
  5
24B14
330
7466
100
AcDbSymbolTableRecord
100
AcDbBlockTableRecord
  2
*D53
340
0
  0
BLOCK_RECORD
  5
24B20
330
7466
100
AcDbSymbolTableRecord
100
AcDbBlockTableRecord
  2
*D54
340
0
  0
BLOCK_RECORD
  5
24B2C
330
7466
100
AcDbSymbolTableRecord
100
AcDbBlockTableRecord
  2
*D55
340
0
  0
BLOCK_RECORD
  5
24B38
330
7466
100
AcDbSymbolTableRecord
100
AcDbBlockTableRecord
  2
*D56
340
0
  0
BLOCK_RECORD
  5
24B44
330
7466
100
AcDbSymbolTableRecord
100
AcDbBlockTableRecord
  2
*D57
340
0
  0
BLOCK_RECORD
  5
24B52
330
7466
100
AcDbSymbolTableRecord
100
AcDbBlockTableRecord
  2
*D58
340
0
  0
ENDTAB
  0
ENDSEC
  0
SECTION
  2
BLOCKS
  0
BLOCK
  5
7489
330
747D
100
AcDbEntity
  8
0
100
AcDbBlockBegin
  2
*MODEL_SPACE
 70
     0
 10
0.0
 20
0.0
 30
0.0
  3
*MODEL_SPACE
  1

  0
ENDBLK
  5
748A
330
747D
100
AcDbEntity
  8
0
100
AcDbBlockEnd
  0
BLOCK
  5
7487
330
747A
100
AcDbEntity
 67
     1
  8
0
100
AcDbBlockBegin
  2
*PAPER_SPACE
 70
     0
 10
0.0
 20
0.0
 30
0.0
  3
*PAPER_SPACE
  1

  0
ENDBLK
  5
7488
330
747A
100
AcDbEntity
 67
     1
  8
0
100
AcDbBlockEnd
  0
BLOCK
  5
DEAD
330
DEAC
100
AcDbEntity
  8
0
100
AcDbBlockBegin
  2
_OPEN
 70
     0
 10
0.0
 20
0.0
 30
0.0
  3
_OPEN
  1

  0
LINE
  5
DEAE
330
DEAC
100
AcDbEntity
  8
0
  6
ByBlock
 62
     0
100
AcDbLine
 10
-1.0
 20
0.1666666666666666
 30
0.0
 11
0.0
 21
0.0
 31
0.0
  0
LINE
  5
DEAF
330
DEAC
100
AcDbEntity
  8
0
  6
ByBlock
 62
     0
100
AcDbLine
 10
0.0
 20
0.0
 30
0.0
 11
-1.0
 21
-0.1666666666666666
 31
0.0
  0
LINE
  5
DEB0
330
DEAC
100
AcDbEntity
  8
0
  6
ByBlock
 62
     0
100
AcDbLine
 10
0.0
 20
0.0
 30
0.0
 11
-1.0
 21
0.0
 31
0.0
  0
ENDBLK
  5
DEB1
330
DEAC
100
AcDbEntity
  8
0
100
AcDbBlockEnd
  0
BLOCK
  5
F771
330
F770
100
AcDbEntity
  8
0
 48
50.0
100
AcDbBlockBegin
  2
_DOTSMALL
 70
     0
 10
0.0
 20
0.0
 30
0.0
  3
_DOTSMALL
  1

  0
LWPOLYLINE
  5
F772
330
F770
100
AcDbEntity
  8
0
  6
ByBlock
 62
     0
 48
50.0
100
AcDbPolyline
 90
        2
 70
     1
 43
0.5
 10
-0.0625
 20
0.0
 42
1.0
 10
0.0625
 20
0.0
 42
1.0
  0
ENDBLK
  5
F776
330
F770
100
AcDbEntity
  8
0
 48
50.0
100
AcDbBlockEnd
  0
BLOCK
  5
164BA
330
164B4
100
AcDbEntity
  8
0
 48
50.0
100
AcDbBlockBegin
  2
_DOT
 70
     0
 10
0.0
 20
0.0
 30
0.0
  3
_DOT
  1

  0
LWPOLYLINE
  5
164B5
330
164B4
100
AcDbEntity
  8
0
  6
ByBlock
 62
     0
 48
50.0
100
AcDbPolyline
 90
        2
 70
     1
 43
0.5
 10
-0.25
 20
0.0
 42
1.0
 10
0.25
 20
0.0
 42
1.0
  0
LINE
  5
164B9
330
164B4
100
AcDbEntity
  8
0
  6
ByBlock
 62
     0
 48
50.0
100
AcDbLine
 10
-0.5
 20
0.0
 30
0.0
 11
-1.0
 21
0.0
 31
0.0
  0
ENDBLK
  5
164BB
330
164B4
100
AcDbEntity
  8
0
 48
50.0
100
AcDbBlockEnd
  0
BLOCK
  5
18BC9
330
18BC8
100
AcDbEntity
  8
0
 48
50.0
100
AcDbBlockBegin
  2
*D3
 70
     1
 10
0.0
 20
0.0
 30
0.0
  3
*D3
  1

  0
LINE
  5
18BCA
330
18BC8
100
AcDbEntity
  8
寸法
 62
     0
 48
50.0
370
    -2
100
AcDbLine
 10
7649.896575106999
 20
9636.123139034717
 30
0.0
 11
8702.429862581047
 21
9636.123139034717
 31
0.0
  0
LINE
  5
18BCB
330
18BC8
100
AcDbEntity
  8
寸法
 62
     0
 48
50.0
370
    -2
100
AcDbLine
 10
7649.896575106973
 20
7846.123139034709
 30
0.0
 11
8702.429862581047
 21
7846.123139034709
 31
0.0
  0
LINE
  5
18BCC
330
18BC8
100
AcDbEntity
  8
寸法
 62
     0
 48
50.0
370
    -2
100
AcDbLine
 10
8642.429862581046
 20
9636.123139034717
 30
0.0
 11
8642.429862581046
 21
7846.123139034709
 31
0.0
  0
INSERT
  5
18BCD
330
18BC8
100
AcDbEntity
  8
寸法
 62
     0
 48
50.0
370
    -2
100
AcDbBlockReference
  2
_DOTSMALL
 10
8642.429862581046
 20
9636.123139034717
 30
0.0
 41
100.0
 42
100.0
 43
100.0
 50
90.0
  0
INSERT
  5
18BCE
330
18BC8
100
AcDbEntity
  8
寸法
 62
     0
 48
50.0
370
    -2
100
AcDbBlockReference
  2
_DOTSMALL
 10
8642.429862581046
 20
7846.123139034709
 30
0.0
 41
100.0
 42
100.0
 43
100.0
 50
270.0
  0
MTEXT
  5
18BCF
330
18BC8
100
AcDbEntity
  8
寸法
 62
     7
 48
50.0
100
AcDbMText
 10
8542.429862581045
 20
8741.123139034712
 30
0.0
 40
120.0
 41
0.0
 71
     5
 72
     1
  1
\A1;1790
  7
STYLE1
 11
0.0000000000000001
 21
1.0
 31
0.0
 73
     1
 44
1.0
1001
ACAD
1000
MTEXTBEGIN
1070
    73
1070
     1
1070
    44
1040
1.0
1070
    74
1070
     0
1000
MTEXTEND
  0
POINT
  5
18BD0
330
18BC8
100
AcDbEntity
  8
DEFPOINTS
 62
     0
 48
50.0
100
AcDbPoint
 10
7629.896575106998
 20
9636.123139034717
 30
0.0
  0
POINT
  5
18BD1
330
18BC8
100
AcDbEntity
  8
DEFPOINTS
 62
     0
 48
50.0
100
AcDbPoint
 10
7629.896575106974
 20
7846.123139034709
 30
0.0
  0
POINT
  5
18BD2
330
18BC8
100
AcDbEntity
  8
DEFPOINTS
 62
     0
 48
50.0
100
AcDbPoint
 10
8642.429862581046
 20
7846.123139034709
 30
0.0
  0
ENDBLK
  5
18BD3
330
18BC8
100
AcDbEntity
  8
0
 48
50.0
100
AcDbBlockEnd
  0
BLOCK
  5
18BD5
330
18BD4
100
AcDbEntity
  8
0
 48
50.0
100
AcDbBlockBegin
  2
*D4
 70
     1
 10
0.0
 20
0.0
 30
0.0
  3
*D4
  1

  0
LINE
  5
18BD6
330
18BD4
100
AcDbEntity
  8
寸法
 62
     0
 48
50.0
370
    -2
100
AcDbLine
 10
4214.896575106998
 20
9656.123139034622
 30
0.0
 11
4214.896575106998
 21
10211.93135865972
 31
0.0
  0
LINE
  5
18BD7
330
18BD4
100
AcDbEntity
  8
寸法
 62
     0
 48
50.0
370
    -2
100
AcDbLine
 10
7574.896575106999
 20
9656.123139034718
 30
0.0
 11
7574.896575106999
 21
10211.93135865972
 31
0.0
  0
LINE
  5
18BD8
330
18BD4
100
AcDbEntity
  8
寸法
 62
     0
 48
50.0
370
    -2
100
AcDbLine
 10
4214.896575106998
 20
10151.93135865972
 30
0.0
 11
7574.896575106999
 21
10151.93135865972
 31
0.0
  0
INSERT
  5
18BD9
330
18BD4
100
AcDbEntity
  8
寸法
 62
     0
 48
50.0
370
    -2
100
AcDbBlockReference
  2
_DOTSMALL
 10
4214.896575106998
 20
10151.93135865972
 30
0.0
 41
100.0
 42
100.0
 43
100.0
 50
180.0
  0
INSERT
  5
18BDA
330
18BD4
100
AcDbEntity
  8
寸法
 62
     0
 48
50.0
370
    -2
100
AcDbBlockReference
  2
_DOTSMALL
 10
7574.896575106999
 20
10151.93135865972
 30
0.0
 41
100.0
 42
100.0
 43
100.0
  0
MTEXT
  5
18BDB
330
18BD4
100
AcDbEntity
  8
寸法
 62
     7
 48
50.0
100
AcDbMText
 10
5894.896575106997
 20
10251.94316968334
 30
0.0
 40
120.0
 41
0.0
 71
     5
 72
     1
  1
\A1;8X420=3360
  7
STYLE1
 73
     1
 44
1.0
1001
ACAD
1000
MTEXTBEGIN
1070
    73
1070
     1
1070
    44
1040
1.0
1070
    74
1070
     0
1000
MTEXTEND
  0
POINT
  5
18BDC
330
18BD4
100
AcDbEntity
  8
DEFPOINTS
 62
     0
 48
50.0
100
AcDbPoint
 10
4214.896575106998
 20
9636.123139034623
 30
0.0
  0
POINT
  5
18BDD
330
18BD4
100
AcDbEntity
  8
DEFPOINTS
 62
     0
 48
50.0
100
AcDbPoint
 10
7574.896575106999
 20
9636.123139034717
 30
0.0
  0
POINT
  5
18BDE
330
18BD4
100
AcDbEntity
  8
DEFPOINTS
 62
     0
 48
50.0
100
AcDbPoint
 10
7574.896575106999
 20
10151.93135865972
 30
0.0
  0
ENDBLK
  5
18BDF
330
18BD4
100
AcDbEntity
  8
0
 48
50.0
100
AcDbBlockEnd
  0
BLOCK
  5
18BE1
330
18BE0
100
AcDbEntity
  8
0
 48
50.0
100
AcDbBlockBegin
  2
*D5
 70
     1
 10
0.0
 20
0.0
 30
0.0
  3
*D5
  1

  0
LINE
  5
18BE2
330
18BE0
100
AcDbEntity
  8
寸法
 62
     0
 48
50.0
370
    -2
100
AcDbLine
 10
7574.896575106999
 20
9656.123139034718
 30
0.0
 11
7574.896575106999
 21
10211.9313586597
 31
0.0
  0
LINE
  5
18BE3
330
18BE0
100
AcDbEntity
  8
寸法
 62
     0
 48
50.0
370
    -2
100
AcDbLine
 10
7629.896575106998
 20
9656.123139034718
 30
0.0
 11
7629.896575106998
 21
10211.9313586597
 31
0.0
  0
LINE
  5
18BE4
330
18BE0
100
AcDbEntity
  8
寸法
 62
     0
 48
50.0
370
    -2
100
AcDbLine
 10
7574.896575106999
 20
10151.9313586597
 30
0.0
 11
7474.896575106999
 21
10151.9313586597
 31
0.0
  0
LINE
  5
18BE5
330
18BE0
100
AcDbEntity
  8
寸法
 62
     0
 48
50.0
370
    -2
100
AcDbLine
 10
7629.896575106998
 20
10151.9313586597
 30
0.0
 11
8046.867137855477
 21
10151.9313586597
 31
0.0
  0
LINE
  5
18BE6
330
18BE0
100
AcDbEntity
  8
寸法
 62
     0
 48
50.0
370
    -2
100
AcDbLine
 10
7574.896575106999
 20
10151.9313586597
 30
0.0
 11
7629.896575106998
 21
10151.9313586597
 31
0.0
  0
INSERT
  5
18BE7
330
18BE0
100
AcDbEntity
  8
寸法
 62
     0
 48
50.0
370
    -2
100
AcDbBlockReference
  2
_DOTSMALL
 10
7574.896575106999
 20
10151.9313586597
 30
0.0
 41
100.0
 42
100.0
 43
100.0
  0
INSERT
  5
18BE8
330
18BE0
100
AcDbEntity
  8
寸法
 62
     0
 48
50.0
370
    -2
100
AcDbBlockReference
  2
_DOTSMALL
 10
7629.896575106998
 20
10151.9313586597
 30
0.0
 41
100.0
 42
100.0
 43
100.0
 50
180.0
  0
MTEXT
  5
18BE9
330
18BE0
100
AcDbEntity
  8
寸法
 62
     7
 48
50.0
100
AcDbMText
 10
7938.381856481237
 20
10251.9313586597
 30
0.0
 40
120.0
 41
0.0
 71
     5
 72
     1
  1
\A1;55
  7
STYLE1
 73
     1
 44
1.0
1001
ACAD
1000
MTEXTBEGIN
1070
    73
1070
     1
1070
    44
1040
1.0
1070
    74
1070
     0
1000
MTEXTEND
  0
POINT
  5
18BEA
330
18BE0
100
AcDbEntity
  8
DEFPOINTS
 62
     0
 48
50.0
100
AcDbPoint
 10
7574.896575106999
 20
9636.123139034717
 30
0.0
  0
POINT
  5
18BEB
330
18BE0
100
AcDbEntity
  8
DEFPOINTS
 62
     0
 48
50.0
100
AcDbPoint
 10
7629.896575106998
 20
9636.123139034717
 30
0.0
  0
POINT
  5
18BEC
330
18BE0
100
AcDbEntity
  8
DEFPOINTS
 62
     0
 48
50.0
100
AcDbPoint
 10
7629.896575106998
 20
10151.9313586597
 30
0.0
  0
ENDBLK
  5
18BED
330
18BE0
100
AcDbEntity
  8
0
 48
50.0
100
AcDbBlockEnd
  0
BLOCK
  5
18BEF
330
18BEE
100
AcDbEntity
  8
0
 48
50.0
100
AcDbBlockBegin
  2
*D6
 70
     1
 10
0.0
 20
0.0
 30
0.0
  3
*D6
  1

  0
LINE
  5
18BF0
330
18BEE
100
AcDbEntity
  8
寸法
 62
     0
 48
50.0
370
    -2
100
AcDbLine
 10
7649.896575106999
 20
9636.123139034717
 30
0.0
 11
8337.32292084141
 21
9636.123139034717
 31
0.0
  0
LINE
  5
18BF1
330
18BEE
100
AcDbEntity
  8
寸法
 62
     0
 48
50.0
370
    -2
100
AcDbLine
 10
7649.896575106999
 20
9581.123139034721
 30
0.0
 11
8337.32292084141
 21
9581.123139034721
 31
0.0
  0
LINE
  5
18BF2
330
18BEE
100
AcDbEntity
  8
寸法
 62
     0
 48
50.0
370
    -2
100
AcDbLine
 10
8277.322920841411
 20
9581.123139034721
 30
0.0
 11
8277.322920841411
 21
9481.123139034719
 31
0.0
  0
LINE
  5
18BF3
330
18BEE
100
AcDbEntity
  8
寸法
 62
     0
 48
50.0
370
    -2
100
AcDbLine
 10
8277.322920841411
 20
9636.123139034717
 30
0.0
 11
8277.322920841411
 21
10053.09370178319
 31
0.0
  0
LINE
  5
18BF4
330
18BEE
100
AcDbEntity
  8
寸法
 62
     0
 48
50.0
370
    -2
100
AcDbLine
 10
8277.322920841411
 20
9581.123139034721
 30
0.0
 11
8277.322920841411
 21
9636.123139034717
 31
0.0
  0
INSERT
  5
18BF5
330
18BEE
100
AcDbEntity
  8
寸法
 62
     0
 48
50.0
370
    -2
100
AcDbBlockReference
  2
_DOTSMALL
 10
8277.322920841411
 20
9581.123139034721
 30
0.0
 41
100.0
 42
100.0
 43
100.0
 50
90.0
  0
INSERT
  5
18BF6
330
18BEE
100
AcDbEntity
  8
寸法
 62
     0
 48
50.0
370
    -2
100
AcDbBlockReference
  2
_DOTSMALL
 10
8277.322920841411
 20
9636.123139034717
 30
0.0
 41
100.0
 42
100.0
 43
100.0
 50
270.0
  0
MTEXT
  5
18BF7
330
18BEE
100
AcDbEntity
  8
寸法
 62
     7
 48
50.0
100
AcDbMText
 10
8177.32292084141
 20
9944.608420408957
 30
0.0
 40
120.0
 41
0.0
 71
     5
 72
     1
  1
\A1;55
  7
STYLE1
 11
0.0000000000000001
 21
1.0
 31
0.0
 73
     1
 44
1.0
1001
ACAD
1000
MTEXTBEGIN
1070
    73
1070
     1
1070
    44
1040
1.0
1070
    74
1070
     0
1000
MTEXTEND
  0
POINT
  5
18BF8
330
18BEE
100
AcDbEntity
  8
DEFPOINTS
 62
     0
 48
50.0
100
AcDbPoint
 10
7629.896575106998
 20
9636.123139034717
 30
0.0
  0
POINT
  5
18BF9
330
18BEE
100
AcDbEntity
  8
DEFPOINTS
 62
     0
 48
50.0
100
AcDbPoint
 10
7629.896575106998
 20
9581.123139034721
 30
0.0
  0
POINT
  5
18BFA
330
18BEE
100
AcDbEntity
  8
DEFPOINTS
 62
     0
 48
50.0
100
AcDbPoint
 10
8277.322920841411
 20
9581.123139034721
 30
0.0
  0
ENDBLK
  5
18BFB
330
18BEE
100
AcDbEntity
  8
0
 48
50.0
100
AcDbBlockEnd
  0
BLOCK
  5
18BFD
330
18BFC
100
AcDbEntity
  8
0
 48
50.0
100
AcDbBlockBegin
  2
*D7
 70
     1
 10
0.0
 20
0.0
 30
0.0
  3
*D7
  1

  0
LINE
  5
18BFE
330
18BFC
100
AcDbEntity
  8
寸法
 62
     0
 48
50.0
370
    -2
100
AcDbLine
 10
4159.896575106963
 20
9656.123139034622
 30
0.0
 11
4159.896575106963
 21
10211.9313586596
 31
0.0
  0
LINE
  5
18BFF
330
18BFC
100
AcDbEntity
  8
寸法
 62
     0
 48
50.0
370
    -2
100
AcDbLine
 10
4214.896575106998
 20
9656.123139034622
 30
0.0
 11
4214.896575106998
 21
10211.9313586596
 31
0.0
  0
LINE
  5
18C00
330
18BFC
100
AcDbEntity
  8
寸法
 62
     0
 48
50.0
370
    -2
100
AcDbLine
 10
4214.896575106998
 20
10151.9313586596
 30
0.0
 11
4314.896575106998
 21
10151.9313586596
 31
0.0
  0
LINE
  5
18C01
330
18BFC
100
AcDbEntity
  8
寸法
 62
     0
 48
50.0
370
    -2
100
AcDbLine
 10
4159.896575106963
 20
10151.9313586596
 30
0.0
 11
3742.926012358486
 21
10151.9313586596
 31
0.0
  0
LINE
  5
18C02
330
18BFC
100
AcDbEntity
  8
寸法
 62
     0
 48
50.0
370
    -2
100
AcDbLine
 10
4214.896575106998
 20
10151.9313586596
 30
0.0
 11
4159.896575106963
 21
10151.9313586596
 31
0.0
  0
INSERT
  5
18C03
330
18BFC
100
AcDbEntity
  8
寸法
 62
     0
 48
50.0
370
    -2
100
AcDbBlockReference
  2
_DOTSMALL
 10
4214.896575106998
 20
10151.9313586596
 30
0.0
 41
100.0
 42
100.0
 43
100.0
 50
180.0
  0
INSERT
  5
18C04
330
18BFC
100
AcDbEntity
  8
寸法
 62
     0
 48
50.0
370
    -2
100
AcDbBlockReference
  2
_DOTSMALL
 10
4159.896575106963
 20
10151.9313586596
 30
0.0
 41
100.0
 42
100.0
 43
100.0
  0
MTEXT
  5
18C05
330
18BFC
100
AcDbEntity
  8
寸法
 62
     7
 48
50.0
100
AcDbMText
 10
3851.411293732725
 20
10251.9313586596
 30
0.0
 40
120.0
 41
0.0
 71
     5
 72
     1
  1
\A1;55
  7
STYLE1
 73
     1
 44
1.0
1001
ACAD
1000
MTEXTBEGIN
1070
    73
1070
     1
1070
    44
1040
1.0
1070
    74
1070
     0
1000
MTEXTEND
  0
POINT
  5
18C06
330
18BFC
100
AcDbEntity
  8
DEFPOINTS
 62
     0
 48
50.0
100
AcDbPoint
 10
4159.896575106963
 20
9636.123139034623
 30
0.0
  0
POINT
  5
18C07
330
18BFC
100
AcDbEntity
  8
DEFPOINTS
 62
     0
 48
50.0
100
AcDbPoint
 10
4214.896575106998
 20
9636.123139034623
 30
0.0
  0
POINT
  5
18C08
330
18BFC
100
AcDbEntity
  8
DEFPOINTS
 62
     0
 48
50.0
100
AcDbPoint
 10
4214.896575106998
 20
10151.9313586596
 30
0.0
  0
ENDBLK
  5
18C09
330
18BFC
100
AcDbEntity
  8
0
 48
50.0
100
AcDbBlockEnd
  0
BLOCK
  5
18C0B
330
18C0A
100
AcDbEntity
  8
0
 48
50.0
100
AcDbBlockBegin
  2
*D8
 70
     1
 10
0.0
 20
0.0
 30
0.0
  3
*D8
  1

  0
LINE
  5
18C0C
330
18C0A
100
AcDbEntity
  8
寸法
 62
     0
 48
50.0
370
    -2
100
AcDbLine
 10
4159.896575106992
 20
7826.123139034546
 30
0.0
 11
4159.896575106992
 21
6804.372203245664
 31
0.0
  0
LINE
  5
18C0D
330
18C0A
100
AcDbEntity
  8
寸法
 62
     0
 48
50.0
370
    -2
100
AcDbLine
 10
7629.896575106974
 20
7826.123139034674
 30
0.0
 11
7629.896575106974
 21
6804.372203245664
 31
0.0
  0
LINE
  5
18C0E
330
18C0A
100
AcDbEntity
  8
寸法
 62
     0
 48
50.0
370
    -2
100
AcDbLine
 10
4159.896575106992
 20
6864.372203245665
 30
0.0
 11
7629.896575106974
 21
6864.372203245665
 31
0.0
  0
INSERT
  5
18C0F
330
18C0A
100
AcDbEntity
  8
寸法
 62
     0
 48
50.0
370
    -2
100
AcDbBlockReference
  2
_DOTSMALL
 10
4159.896575106992
 20
6864.372203245665
 30
0.0
 41
100.0
 42
100.0
 43
100.0
 50
180.0
  0
INSERT
  5
18C10
330
18C0A
100
AcDbEntity
  8
寸法
 62
     0
 48
50.0
370
    -2
100
AcDbBlockReference
  2
_DOTSMALL
 10
7629.896575106974
 20
6864.372203245665
 30
0.0
 41
100.0
 42
100.0
 43
100.0
  0
MTEXT
  5
18C11
330
18C0A
100
AcDbEntity
  8
寸法
 62
     7
 48
50.0
100
AcDbMText
 10
5911.12376113973
 20
6964.372203245665
 30
0.0
 40
120.0
 41
0.0
 71
     5
 72
     1
  1
\A1;3470
  7
STYLE1
 73
     1
 44
1.0
1001
ACAD
1000
MTEXTBEGIN
1070
    73
1070
     1
1070
    44
1040
1.0
1070
    74
1070
     0
1000
MTEXTEND
  0
POINT
  5
18C12
330
18C0A
100
AcDbEntity
  8
DEFPOINTS
 62
     0
 48
50.0
100
AcDbPoint
 10
4159.896575106992
 20
7846.123139034546
 30
0.0
  0
POINT
  5
18C13
330
18C0A
100
AcDbEntity
  8
DEFPOINTS
 62
     0
 48
50.0
100
AcDbPoint
 10
7629.896575106974
 20
7846.123139034673
 30
0.0
  0
POINT
  5
18C14
330
18C0A
100
AcDbEntity
  8
DEFPOINTS
 62
     0
 48
50.0
100
AcDbPoint
 10
7629.896575106974
 20
6864.372203245665
 30
0.0
  0
ENDBLK
  5
18C15
330
18C0A
100
AcDbEntity
  8
0
 48
50.0
100
AcDbBlockEnd
  0
BLOCK
  5
18C17
330
18C16
100
AcDbEntity
  8
0
 48
50.0
100
AcDbBlockBegin
  2
*D9
 70
     1
 10
0.0
 20
0.0
 30
0.0
  3
*D9
  1

  0
LINE
  5
18C18
330
18C16
100
AcDbEntity
  8
寸法
 62
     0
 48
50.0
370
    -2
100
AcDbLine
 10
7649.896575106973
 20
7901.123139034706
 30
0.0
 11
8337.322920841385
 21
7901.123139034706
 31
0.0
  0
LINE
  5
18C19
330
18C16
100
AcDbEntity
  8
寸法
 62
     0
 48
50.0
370
    -2
100
AcDbLine
 10
7649.896575106973
 20
7846.123139034709
 30
0.0
 11
8337.322920841385
 21
7846.123139034709
 31
0.0
  0
LINE
  5
18C1A
330
18C16
100
AcDbEntity
  8
寸法
 62
     0
 48
50.0
370
    -2
100
AcDbLine
 10
8277.322920841385
 20
7901.123139034706
 30
0.0
 11
8277.322920841385
 21
8001.123139034707
 31
0.0
  0
LINE
  5
18C1B
330
18C16
100
AcDbEntity
  8
寸法
 62
     0
 48
50.0
370
    -2
100
AcDbLine
 10
8277.322920841385
 20
7846.123139034709
 30
0.0
 11
8277.322920841385
 21
7429.152576286229
 31
0.0
  0
LINE
  5
18C1C
330
18C16
100
AcDbEntity
  8
寸法
 62
     0
 48
50.0
370
    -2
100
AcDbLine
 10
8277.322920841385
 20
7901.123139034706
 30
0.0
 11
8277.322920841385
 21
7846.123139034709
 31
0.0
  0
INSERT
  5
18C1D
330
18C16
100
AcDbEntity
  8
寸法
 62
     0
 48
50.0
370
    -2
100
AcDbBlockReference
  2
_DOTSMALL
 10
8277.322920841385
 20
7901.123139034706
 30
0.0
 41
100.0
 42
100.0
 43
100.0
 50
270.0
  0
INSERT
  5
18C1E
330
18C16
100
AcDbEntity
  8
寸法
 62
     0
 48
50.0
370
    -2
100
AcDbBlockReference
  2
_DOTSMALL
 10
8277.322920841385
 20
7846.123139034709
 30
0.0
 41
100.0
 42
100.0
 43
100.0
 50
90.0
  0
MTEXT
  5
18C1F
330
18C16
100
AcDbEntity
  8
寸法
 62
     7
 48
50.0
100
AcDbMText
 10
8177.322920841383
 20
7537.637857660469
 30
0.0
 40
120.0
 41
0.0
 71
     5
 72
     1
  1
\A1;55
  7
STYLE1
 11
0.0000000000000001
 21
1.0
 31
0.0
 73
     1
 44
1.0
1001
ACAD
1000
MTEXTBEGIN
1070
    73
1070
     1
1070
    44
1040
1.0
1070
    74
1070
     0
1000
MTEXTEND
  0
POINT
  5
18C20
330
18C16
100
AcDbEntity
  8
DEFPOINTS
 62
     0
 48
50.0
100
AcDbPoint
 10
7629.896575106974
 20
7901.123139034706
 30
0.0
  0
POINT
  5
18C21
330
18C16
100
AcDbEntity
  8
DEFPOINTS
 62
     0
 48
50.0
100
AcDbPoint
 10
7629.896575106974
 20
7846.123139034709
 30
0.0
  0
POINT
  5
18C22
330
18C16
100
AcDbEntity
  8
DEFPOINTS
 62
     0
 48
50.0
100
AcDbPoint
 10
8277.322920841385
 20
7846.123139034709
 30
0.0
  0
ENDBLK
  5
18C23
330
18C16
100
AcDbEntity
  8
0
 48
50.0
100
AcDbBlockEnd
  0
BLOCK
  5
18C25
330
18C24
100
AcDbEntity
  8
0
 48
50.0
100
AcDbBlockBegin
  2
*D10
 70
     1
 10
0.0
 20
0.0
 30
0.0
  3
*D10
  1

  0
LINE
  5
18C26
330
18C24
100
AcDbEntity
  8
寸法
 62
     0
 48
50.0
370
    -2
100
AcDbLine
 10
6533.037591258376
 20
9136.123139034728
 30
0.0
 11
6465.083950562664
 21
8882.516699399049
 31
0.0
  0
LINE
  5
18C27
330
18C24
100
AcDbEntity
  8
寸法
 62
     0
 48
50.0
370
    -2
100
AcDbLine
 10
7596.037591258388
 20
9136.123139034721
 30
0.0
 11
7528.083950562677
 21
8882.516699399049
 31
0.0
  0
LINE
  5
18C28
330
18C24
100
AcDbEntity
  8
寸法
 62
     0
 48
50.0
370
    -2
100
AcDbLine
 10
6481.160902108531
 20
8942.51669939905
 30
0.0
 11
7544.160902108544
 21
8942.51669939905
 31
0.0
  0
INSERT
  5
18C29
330
18C24
100
AcDbEntity
  8
寸法
 62
     0
 48
50.0
370
    -2
100
AcDbBlockReference
  2
_DOTSMALL
 10
6481.160902108531
 20
8942.51669939905
 30
0.0
 41
100.0
 42
100.0
 43
100.0
 50
180.0
  0
INSERT
  5
18C2A
330
18C24
100
AcDbEntity
  8
寸法
 62
     0
 48
50.0
370
    -2
100
AcDbBlockReference
  2
_DOTSMALL
 10
7544.160902108544
 20
8942.51669939905
 30
0.0
 41
100.0
 42
100.0
 43
100.0
  0
MTEXT
  5
18C2B
330
18C24
100
AcDbEntity
  8
寸法
 62
     7
 48
50.0
100
AcDbMText
 10
7061.28653022935
 20
9042.516699399049
 30
0.0
 40
120.0
 41
0.0
 71
     5
 72
     1
  1
\A1;1063
  7
STYLE1
 73
     1
 44
1.0
1001
ACAD
1000
MTEXTBEGIN
1070
    73
1070
     1
1070
    44
1040
1.0
1070
    74
1070
     0
1000
MTEXTEND
  0
POINT
  5
18C2C
330
18C24
100
AcDbEntity
  8
DEFPOINTS
 62
     0
 48
50.0
100
AcDbPoint
 10
6538.396575106998
 20
9156.123139034727
 30
0.0
  0
POINT
  5
18C2D
330
18C24
100
AcDbEntity
  8
DEFPOINTS
 62
     0
 48
50.0
100
AcDbPoint
 10
7601.39657510701
 20
9156.12313903472
 30
0.0
  0
POINT
  5
18C2E
330
18C24
100
AcDbEntity
  8
DEFPOINTS
 62
     0
 48
50.0
100
AcDbPoint
 10
7544.160902108544
 20
8942.51669939905
 30
0.0
  0
ENDBLK
  5
18C2F
330
18C24
100
AcDbEntity
  8
0
 48
50.0
100
AcDbBlockEnd
  0
BLOCK
  5
18C31
330
18C30
100
AcDbEntity
  8
0
 48
50.0
100
AcDbBlockBegin
  2
*D11
 70
     1
 10
0.0
 20
0.0
 30
0.0
  3
*D11
  1

  0
LINE
  5
18C32
330
18C30
100
AcDbEntity
  8
寸法
 62
     0
 48
50.0
370
    -2
100
AcDbLine
 10
7621.396575106999
 20
9600.764155186094
 30
0.0
 11
8016.754300969024
 21
9494.828371819961
 31
0.0
  0
LINE
  5
18C33
330
18C30
100
AcDbEntity
  8
寸法
 62
     0
 48
50.0
370
    -2
100
AcDbLine
 10
7621.396575106999
 20
9150.764155186099
 30
0.0
 11
8016.754300969024
 21
9044.828371819964
 31
0.0
  0
LINE
  5
18C34
330
18C30
100
AcDbEntity
  8
寸法
 62
     0
 48
50.0
370
    -2
100
AcDbLine
 10
7956.754300969024
 20
9510.905323365827
 30
0.0
 11
7956.754300969024
 21
9060.90532336583
 31
0.0
  0
INSERT
  5
18C35
330
18C30
100
AcDbEntity
  8
寸法
 62
     0
 48
50.0
370
    -2
100
AcDbBlockReference
  2
_DOTSMALL
 10
7956.754300969024
 20
9510.905323365827
 30
0.0
 41
100.0
 42
100.0
 43
100.0
 50
90.0
  0
INSERT
  5
18C36
330
18C30
100
AcDbEntity
  8
寸法
 62
     0
 48
50.0
370
    -2
100
AcDbBlockReference
  2
_DOTSMALL
 10
7956.754300969024
 20
9060.90532336583
 30
0.0
 41
100.0
 42
100.0
 43
100.0
 50
270.0
  0
MTEXT
  5
18C37
330
18C30
100
AcDbEntity
  8
寸法
 62
     7
 48
50.0
100
AcDbMText
 10
7856.754300969022
 20
9285.905323365829
 30
0.0
 40
120.0
 41
0.0
 71
     5
 72
     1
  1
\A1;450
  7
STYLE1
 11
0.0000000000000001
 21
1.0
 31
0.0
 73
     1
 44
1.0
1001
ACAD
1000
MTEXTBEGIN
1070
    73
1070
     1
1070
    44
1040
1.0
1070
    74
1070
     0
1000
MTEXTEND
  0
POINT
  5
18C38
330
18C30
100
AcDbEntity
  8
DEFPOINTS
 62
     0
 48
50.0
100
AcDbPoint
 10
7601.396575106999
 20
9606.123139034718
 30
0.0
  0
POINT
  5
18C39
330
18C30
100
AcDbEntity
  8
DEFPOINTS
 62
     0
 48
50.0
100
AcDbPoint
 10
7601.396575106999
 20
9156.12313903472
 30
0.0
  0
POINT
  5
18C3A
330
18C30
100
AcDbEntity
  8
DEFPOINTS
 62
     0
 48
50.0
100
AcDbPoint
 10
7956.754300969024
 20
9060.90532336583
 30
0.0
  0
ENDBLK
  5
18C3B
330
18C30
100
AcDbEntity
  8
0
 48
50.0
100
AcDbBlockEnd
  0
BLOCK
  5
18C3D
330
18C3C
100
AcDbEntity
  8
0
 48
50.0
100
AcDbBlockBegin
  2
*D12
 70
     1
 10
0.0
 20
0.0
 30
0.0
  3
*D12
  1

  0
LINE
  5
18C3E
330
18C3C
100
AcDbEntity
  8
寸法
 62
     0
 48
50.0
370
    -2
100
AcDbLine
 10
7649.896575106999
 20
9581.123139034721
 30
0.0
 11
8337.32292084141
 21
9581.123139034721
 31
0.0
  0
LINE
  5
18C3F
330
18C3C
100
AcDbEntity
  8
寸法
 62
     0
 48
50.0
370
    -2
100
AcDbLine
 10
7649.896575106973
 20
7901.123139034706
 30
0.0
 11
8337.32292084141
 21
7901.123139034706
 31
0.0
  0
LINE
  5
18C40
330
18C3C
100
AcDbEntity
  8
寸法
 62
     0
 48
50.0
370
    -2
100
AcDbLine
 10
8277.322920841411
 20
9581.123139034721
 30
0.0
 11
8277.322920841411
 21
7901.123139034706
 31
0.0
  0
INSERT
  5
18C41
330
18C3C
100
AcDbEntity
  8
寸法
 62
     0
 48
50.0
370
    -2
100
AcDbBlockReference
  2
_DOTSMALL
 10
8277.322920841411
 20
9581.123139034721
 30
0.0
 41
100.0
 42
100.0
 43
100.0
 50
90.0
  0
INSERT
  5
18C42
330
18C3C
100
AcDbEntity
  8
寸法
 62
     0
 48
50.0
370
    -2
100
AcDbBlockReference
  2
_DOTSMALL
 10
8277.322920841411
 20
7901.123139034706
 30
0.0
 41
100.0
 42
100.0
 43
100.0
 50
270.0
  0
MTEXT
  5
18C43
330
18C3C
100
AcDbEntity
  8
寸法
 62
     7
 48
50.0
100
AcDbMText
 10
8177.311109817788
 20
8741.123139034712
 30
0.0
 40
120.0
 41
0.0
 71
     5
 72
     1
  1
\A1;4X420=1680
  7
STYLE1
 11
0.0000000000000001
 21
1.0
 31
0.0
 73
     1
 44
1.0
1001
ACAD
1000
MTEXTBEGIN
1070
    73
1070
     1
1070
    44
1040
1.0
1070
    74
1070
     0
1000
MTEXTEND
  0
POINT
  5
18C44
330
18C3C
100
AcDbEntity
  8
DEFPOINTS
 62
     0
 48
50.0
100
AcDbPoint
 10
7629.896575106998
 20
9581.123139034721
 30
0.0
  0
POINT
  5
18C45
330
18C3C
100
AcDbEntity
  8
DEFPOINTS
 62
     0
 48
50.0
100
AcDbPoint
 10
7629.896575106974
 20
7901.123139034706
 30
0.0
  0
POINT
  5
18C46
330
18C3C
100
AcDbEntity
  8
DEFPOINTS
 62
     0
 48
50.0
100
AcDbPoint
 10
8277.322920841411
 20
7901.123139034706
 30
0.0
  0
ENDBLK
  5
18C47
330
18C3C
100
AcDbEntity
  8
0
 48
50.0
100
AcDbBlockEnd
  0
BLOCK
  5
18C49
330
18C48
100
AcDbEntity
  8
0
 48
50.0
100
AcDbBlockBegin
  2
*D13
 70
     1
 10
0.0
 20
0.0
 30
0.0
  3
*D13
  1

  0
LINE
  5
18C4A
330
18C48
100
AcDbEntity
  8
寸法
 62
     0
 48
50.0
370
    -2
100
AcDbLine
 10
4183.037591258377
 20
9136.123139034619
 30
0.0
 11
4115.083950562663
 21
8882.516699398941
 31
0.0
  0
LINE
  5
18C4B
330
18C48
100
AcDbEntity
  8
寸法
 62
     0
 48
50.0
370
    -2
100
AcDbLine
 10
5246.037591258307
 20
9136.123139034671
 30
0.0
 11
5178.08395056258
 21
8882.516699398941
 31
0.0
  0
LINE
  5
18C4C
330
18C48
100
AcDbEntity
  8
寸法
 62
     0
 48
50.0
370
    -2
100
AcDbLine
 10
4131.160902108532
 20
8942.516699398941
 30
0.0
 11
5194.160902108448
 21
8942.516699398941
 31
0.0
  0
INSERT
  5
18C4D
330
18C48
100
AcDbEntity
  8
寸法
 62
     0
 48
50.0
370
    -2
100
AcDbBlockReference
  2
_DOTSMALL
 10
4131.160902108532
 20
8942.516699398941
 30
0.0
 41
100.0
 42
100.0
 43
100.0
 50
180.0
  0
INSERT
  5
18C4E
330
18C48
100
AcDbEntity
  8
寸法
 62
     0
 48
50.0
370
    -2
100
AcDbBlockReference
  2
_DOTSMALL
 10
5194.160902108448
 20
8942.516699398941
 30
0.0
 41
100.0
 42
100.0
 43
100.0
  0
MTEXT
  5
18C4F
330
18C48
100
AcDbEntity
  8
寸法
 62
     7
 48
50.0
100
AcDbMText
 10
4658.986452655306
 20
9042.516699398941
 30
0.0
 40
120.0
 41
0.0
 71
     5
 72
     1
  1
\A1;1063
  7
STYLE1
 73
     1
 44
1.0
1001
ACAD
1000
MTEXTBEGIN
1070
    73
1070
     1
1070
    44
1040
1.0
1070
    74
1070
     0
1000
MTEXTEND
  0
POINT
  5
18C50
330
18C48
100
AcDbEntity
  8
DEFPOINTS
 62
     0
 48
50.0
100
AcDbPoint
 10
4188.396575106999
 20
9156.123139034617
 30
0.0
  0
POINT
  5
18C51
330
18C48
100
AcDbEntity
  8
DEFPOINTS
 62
     0
 48
50.0
100
AcDbPoint
 10
5251.396575106929
 20
9156.123139034672
 30
0.0
  0
POINT
  5
18C52
330
18C48
100
AcDbEntity
  8
DEFPOINTS
 62
     0
 48
50.0
100
AcDbPoint
 10
5194.160902108448
 20
8942.516699398941
 30
0.0
  0
ENDBLK
  5
18C53
330
18C48
100
AcDbEntity
  8
0
 48
50.0
100
AcDbBlockEnd
  0
BLOCK
  5
18C55
330
18C54
100
AcDbEntity
  8
0
 48
50.0
100
AcDbBlockBegin
  2
*D14
 70
     1
 10
0.0
 20
0.0
 30
0.0
  3
*D14
  1

  0
LINE
  5
18C56
330
18C54
100
AcDbEntity
  8
寸法
 62
     0
 48
50.0
370
    -2
100
AcDbLine
 10
5274.037591258307
 20
9136.123139034669
 30
0.0
 11
5206.08395056258
 21
8882.516699398941
 31
0.0
  0
LINE
  5
18C57
330
18C54
100
AcDbEntity
  8
寸法
 62
     0
 48
50.0
370
    -2
100
AcDbLine
 10
6505.037591258377
 20
9136.123139034662
 30
0.0
 11
6437.083950562653
 21
8882.516699398941
 31
0.0
  0
LINE
  5
18C58
330
18C54
100
AcDbEntity
  8
寸法
 62
     0
 48
50.0
370
    -2
100
AcDbLine
 10
5222.160902108448
 20
8942.516699398941
 30
0.0
 11
6453.16090210852
 21
8942.516699398941
 31
0.0
  0
INSERT
  5
18C59
330
18C54
100
AcDbEntity
  8
寸法
 62
     0
 48
50.0
370
    -2
100
AcDbBlockReference
  2
_DOTSMALL
 10
5222.160902108448
 20
8942.516699398941
 30
0.0
 41
100.0
 42
100.0
 43
100.0
 50
180.0
  0
INSERT
  5
18C5A
330
18C54
100
AcDbEntity
  8
寸法
 62
     0
 48
50.0
370
    -2
100
AcDbBlockReference
  2
_DOTSMALL
 10
6453.16090210852
 20
8942.516699398941
 30
0.0
 41
100.0
 42
100.0
 43
100.0
  0
MTEXT
  5
18C5B
330
18C54
100
AcDbEntity
  8
寸法
 62
     7
 48
50.0
100
AcDbMText
 10
6081.244808320626
 20
9042.528510422561
 30
0.0
 40
120.0
 41
0.0
 71
     5
 72
     1
  1
\A1;1231
  7
STYLE1
 73
     1
 44
1.0
1001
ACAD
1000
MTEXTBEGIN
1070
    73
1070
     1
1070
    44
1040
1.0
1070
    74
1070
     0
1000
MTEXTEND
  0
POINT
  5
18C5C
330
18C54
100
AcDbEntity
  8
DEFPOINTS
 62
     0
 48
50.0
100
AcDbPoint
 10
5279.396575106929
 20
9156.123139034669
 30
0.0
  0
POINT
  5
18C5D
330
18C54
100
AcDbEntity
  8
DEFPOINTS
 62
     0
 48
50.0
100
AcDbPoint
 10
6510.396575106999
 20
9156.123139034662
 30
0.0
  0
POINT
  5
18C5E
330
18C54
100
AcDbEntity
  8
DEFPOINTS
 62
     0
 48
50.0
100
AcDbPoint
 10
6453.16090210852
 20
8942.516699398941
 30
0.0
  0
ENDBLK
  5
18C5F
330
18C54
100
AcDbEntity
  8
0
 48
50.0
100
AcDbBlockEnd
  0
BLOCK
  5
18C61
330
18C60
100
AcDbEntity
  8
0
 48
50.0
100
AcDbBlockBegin
  2
*D15
 70
     1
 10
0.0
 20
0.0
 30
0.0
  3
*D15
  1

  0
LINE
  5
18C62
330
18C60
100
AcDbEntity
  8
寸法
 62
     0
 48
50.0
370
    -2
100
AcDbLine
 10
5065.896575106966
 20
7749.123139034579
 30
0.0
 11
5065.896575106966
 21
7099.952920982538
 31
0.0
  0
LINE
  5
18C63
330
18C60
100
AcDbEntity
  8
寸法
 62
     0
 48
50.0
370
    -2
100
AcDbLine
 10
6331.896575106966
 20
7749.123139034579
 30
0.0
 11
6331.896575106966
 21
7099.952920982538
 31
0.0
  0
LINE
  5
18C64
330
18C60
100
AcDbEntity
  8
寸法
 62
     0
 48
50.0
370
    -2
100
AcDbLine
 10
5065.896575106966
 20
7159.952920982537
 30
0.0
 11
6331.896575106966
 21
7159.952920982537
 31
0.0
  0
INSERT
  5
18C65
330
18C60
100
AcDbEntity
  8
寸法
 62
     0
 48
50.0
370
    -2
100
AcDbBlockReference
  2
_DOTSMALL
 10
5065.896575106966
 20
7159.952920982537
 30
0.0
 41
100.0
 42
100.0
 43
100.0
 50
180.0
  0
INSERT
  5
18C66
330
18C60
100
AcDbEntity
  8
寸法
 62
     0
 48
50.0
370
    -2
100
AcDbBlockReference
  2
_DOTSMALL
 10
6331.896575106966
 20
7159.952920982537
 30
0.0
 41
100.0
 42
100.0
 43
100.0
  0
MTEXT
  5
18C67
330
18C60
100
AcDbEntity
  8
寸法
 62
     7
 48
50.0
100
AcDbMText
 10
5711.986008735934
 20
7359.964732006159
 30
0.0
 40
120.0
 41
0.0
 71
     5
 72
     1
  1
\A1;有効開口部間口\P1266
  7
STYLE1
 73
     1
 44
1.0
1001
ACAD
1000
MTEXTBEGIN
1070
    73
1070
     1
1070
    44
1040
1.0
1070
    74
1070
     0
1000
MTEXTEND
  0
POINT
  5
18C68
330
18C60
100
AcDbEntity
  8
DEFPOINTS
 62
     0
 48
50.0
100
AcDbPoint
 10
5065.896575106966
 20
7769.123139034579
 30
0.0
  0
POINT
  5
18C69
330
18C60
100
AcDbEntity
  8
DEFPOINTS
 62
     0
 48
50.0
100
AcDbPoint
 10
6331.896575106966
 20
7769.123139034579
 30
0.0
  0
POINT
  5
18C6A
330
18C60
100
AcDbEntity
  8
DEFPOINTS
 62
     0
 48
50.0
100
AcDbPoint
 10
6331.896575106966
 20
7159.952920982537
 30
0.0
  0
ENDBLK
  5
18C6B
330
18C60
100
AcDbEntity
  8
0
 48
50.0
100
AcDbBlockEnd
  0
BLOCK
  5
18C6D
330
18C6C
100
AcDbEntity
  8
0
 48
50.0
100
AcDbBlockBegin
  2
*D16
 70
     1
 10
0.0
 20
0.0
 30
0.0
  3
*D16
  1

  0
LINE
  5
18C6E
330
18C6C
100
AcDbEntity
  8
寸法
 62
     0
 48
50.0
370
    -2
100
AcDbLine
 10
7200.896575106966
 20
7846.123139034578
 30
0.0
 11
7457.192158500191
 21
7846.123139034578
 31
0.0
  0
LINE
  5
18C6F
330
18C6C
100
AcDbEntity
  8
寸法
 62
     0
 48
50.0
370
    -2
100
AcDbLine
 10
7199.896575106966
 20
7769.123139034579
 30
0.0
 11
7457.192158500191
 21
7769.123139034579
 31
0.0
  0
LINE
  5
18C70
330
18C6C
100
AcDbEntity
  8
寸法
 62
     0
 48
50.0
370
    -2
100
AcDbLine
 10
7417.192158500192
 20
7866.123139034579
 30
0.0
 11
7417.192158500192
 21
7886.123139034578
 31
0.0
  0
LINE
  5
18C71
330
18C6C
100
AcDbEntity
  8
寸法
 62
     0
 48
50.0
370
    -2
100
AcDbLine
 10
7417.192158500192
 20
7749.123139034579
 30
0.0
 11
7417.192158500192
 21
7533.123139034573
 31
0.0
  0
LINE
  5
18C72
330
18C6C
100
AcDbEntity
  8
寸法
 62
     0
 48
50.0
370
    -2
100
AcDbLine
 10
7417.192158500192
 20
7846.123139034578
 30
0.0
 11
7417.192158500192
 21
7769.123139034579
 31
0.0
  0
INSERT
  5
18C73
330
18C6C
100
AcDbEntity
  8
寸法
 62
     0
 48
50.0
370
    -2
100
AcDbBlockReference
  2
_DOT
 10
7417.192158500192
 20
7846.123139034578
 30
0.0
 41
20.0
 42
20.0
 43
20.0
 50
270.0
  0
INSERT
  5
18C74
330
18C6C
100
AcDbEntity
  8
寸法
 62
     0
 48
50.0
370
    -2
100
AcDbBlockReference
  2
_DOT
 10
7417.192158500192
 20
7769.123139034579
 30
0.0
 41
20.0
 42
20.0
 43
20.0
 50
90.0
  0
MTEXT
  5
18C75
330
18C6C
100
AcDbEntity
  8
寸法
 62
     7
 48
50.0
100
AcDbMText
 10
7325.192158500191
 20
7631.123139034575
 30
0.0
 40
120.0
 41
0.0
 71
     5
 72
     1
  1
\A1;77
  7
STYLE1
 11
0.0000000000000001
 21
1.0
 31
0.0
 73
     1
 44
1.0
1001
ACAD
1000
MTEXTBEGIN
1070
    73
1070
     1
1070
    44
1040
1.0
1070
    74
1070
     0
1000
MTEXTEND
  0
POINT
  5
18C76
330
18C6C
100
AcDbEntity
  8
DEFPOINTS
 62
     0
 48
50.0
100
AcDbPoint
 10
7180.896575106967
 20
7846.123139034578
 30
0.0
  0
POINT
  5
18C77
330
18C6C
100
AcDbEntity
  8
DEFPOINTS
 62
     0
 48
50.0
100
AcDbPoint
 10
7179.896575106965
 20
7769.123139034579
 30
0.0
  0
POINT
  5
18C78
330
18C6C
100
AcDbEntity
  8
DEFPOINTS
 62
     0
 48
50.0
100
AcDbPoint
 10
7417.192158500192
 20
7769.123139034579
 30
0.0
  0
ENDBLK
  5
18C79
330
18C6C
100
AcDbEntity
  8
0
 48
50.0
100
AcDbBlockEnd
  0
BLOCK
  5
18DA0
330
18C7A
100
AcDbEntity
  8
0
 48
50.0
100
AcDbBlockBegin
  2
A$C3B1A506B
 70
     0
 10
0.0
 20
0.0
 30
0.0
  3
A$C3B1A506B
  1

  0
MTEXT
  5
18C7B
330
18C7A
100
AcDbEntity
  8
寸法
 62
     7
 48
50.0
100
AcDbMText
 10
3342.250386887194
 20
2778.329429134012
 30
0.0
 40
96.0
 41
0.0
 71
     5
 72
     1
  1
棚 2段
  7
STYLE1
 73
     1
 44
1.0
1001
ACAD
1000
MTEXTBEGIN
1070
    73
1070
     1
1070
    44
1040
1.0
1070
    74
1070
     0
1000
MTEXTEND
  0
MTEXT
  5
18C7C
330
18C7A
100
AcDbEntity
  8
寸法
 62
     7
 48
50.0
100
AcDbMText
 10
2167.25038688716
 20
2778.329429133986
 30
0.0
 40
96.0
 41
0.0
 71
     5
 72
     1
  1
棚 2段
  7
STYLE1
 73
     1
 44
1.0
1001
ACAD
1000
MTEXTBEGIN
1070
    73
1070
     1
1070
    44
1040
1.0
1070
    74
1070
     0
1000
MTEXTEND
  0
MTEXT
  5
18C7D
330
18C7A
100
AcDbEntity
  8
寸法
 62
     7
 48
50.0
100
AcDbMText
 10
992.2503868871608
 20
2778.329429133935
 30
0.0
 40
96.0
 41
0.0
 71
     5
 72
     1
  1
棚 2段
  7
STYLE1
 73
     1
 44
1.0
1001
ACAD
1000
MTEXTBEGIN
1070
    73
1070
     1
1070
    44
1040
1.0
1070
    74
1070
     0
1000
MTEXTEND
  0
LINE
  5
18C7E
330
18C7A
100
AcDbEntity
  8
細線
 48
50.0
100
AcDbLine
 10
2771.970589276527
 20
1368.994384123192
 30
0.0
 11
3398.970589276523
 21
1368.994384123192
 31
0.0
  0
LINE
  5
18C7F
330
18C7A
100
AcDbEntity
  8
細線
 48
50.0
100
AcDbLine
 10
2117.970593930113
 20
1335.285615569113
 30
0.0
 11
3398.970589276523
 21
1335.285615569113
 31
0.0
  0
LINE
  5
18C80
330
18C7A
100
AcDbEntity
  8
細線
 48
50.0
100
AcDbLine
 10
2076.970593930115
 20
1364.690523565368
 30
0.0
 11
1322.970589276523
 21
1364.690523565367
 31
0.0
  0
LINE
  5
18C81
330
18C7A
100
AcDbEntity
  8
細線
100
AcDbLine
 10
3170.720579860066
 20
1388.494284088199
 30
0.0
 11
3173.052119381877
 21
1393.494286728162
 31
0.0
  0
LINE
  5
18C82
330
18C7A
100
AcDbEntity
  8
細線
100
AcDbLine
 10
3240.720589276525
 20
1388.494269174465
 30
0.0
 11
3238.389042800336
 21
1393.494286728144
 31
0.0
  0
LINE
  5
18C83
330
18C7A
100
AcDbEntity
  8
細線
100
AcDbLine
 10
3238.389042800336
 20
1393.494286728144
 30
0.0
 11
3173.052119381862
 21
1393.494286728133
 31
0.0
  0
LINE
  5
18C84
330
18C7A
100
AcDbEntity
  8
細線
100
AcDbLine
 10
3098.389042800336
 20
1393.494286728144
 30
0.0
 11
3033.052119381862
 21
1393.494286728133
 31
0.0
  0
LINE
  5
18C85
330
18C7A
100
AcDbEntity
  8
細線
100
AcDbLine
 10
3100.720589276523
 20
1388.494269174465
 30
0.0
 11
3098.389042800336
 21
1393.494286728144
 31
0.0
  0
LINE
  5
18C86
330
18C7A
100
AcDbEntity
  8
細線
100
AcDbLine
 10
3030.720579860066
 20
1388.494284088199
 30
0.0
 11
3033.052119381875
 21
1393.494286728162
 31
0.0
  0
LINE
  5
18C87
330
18C7A
100
AcDbEntity
  8
細線
100
AcDbLine
 10
2890.720589276525
 20
1388.494269174465
 30
0.0
 11
2893.052128798336
 21
1393.494271814428
 31
0.0
  0
LINE
  5
18C88
330
18C7A
100
AcDbEntity
  8
細線
100
AcDbLine
 10
2960.720598692984
 20
1388.494254260731
 30
0.0
 11
2958.389052216793
 21
1393.49427181441
 31
0.0
  0
LINE
  5
18C89
330
18C7A
100
AcDbEntity
  8
細線
100
AcDbLine
 10
2958.389052216795
 20
1393.49427181441
 30
0.0
 11
2893.052128798321
 21
1393.494271814399
 31
0.0
  0
LINE
  5
18C8A
330
18C7A
100
AcDbEntity
  8
細線
100
AcDbLine
 10
2667.139038146739
 20
1359.494298590735
 30
0.0
 11
2601.802114728263
 21
1359.494298590724
 31
0.0
  0
LINE
  5
18C8B
330
18C7A
100
AcDbEntity
  8
細線
100
AcDbLine
 10
2669.470584622926
 20
1354.494281037055
 30
0.0
 11
2667.139038146737
 21
1359.494298590735
 31
0.0
  0
LINE
  5
18C8C
330
18C7A
100
AcDbEntity
  8
細線
100
AcDbLine
 10
2599.470575206469
 20
1354.49429595079
 30
0.0
 11
2601.802114728278
 21
1359.494298590752
 31
0.0
  0
LINE
  5
18C8D
330
18C7A
100
AcDbEntity
  8
細線
 48
50.0
100
AcDbLine
 10
2440.853968524536
 20
1372.765132327548
 30
0.0
 11
2446.609486107205
 21
1354.494281037057
 31
0.0
  0
LINE
  5
18C8E
330
18C7A
100
AcDbEntity
  8
細線
 48
50.0
100
AcDbLine
 10
2429.925520044106
 20
1372.765132327546
 30
0.0
 11
2440.853968524536
 21
1372.765132327548
 31
0.0
  0
ARC
  5
18C8F
330
18C7A
100
AcDbEntity
  8
細線
 48
50.0
100
AcDbCircle
 10
2424.471163986787
 20
1374.265132327546
 30
0.0
 40
5.0
100
AcDbArc
 50
204.6243183520723
 51
335.3756816479278
  0
ARC
  5
18C90
330
18C7A
100
AcDbEntity
  8
細線
 48
50.0
100
AcDbCircle
 10
2429.925520044106
 20
1371.765132327546
 30
0.0
 40
1.0
100
AcDbArc
 50
90.0
 51
155.3756816479277
  0
ARC
  5
18C91
330
18C7A
100
AcDbEntity
  8
細線
 48
50.0
100
AcDbCircle
 10
2419.016807929469
 20
1371.765132327546
 30
0.0
 40
1.0
100
AcDbArc
 50
24.62431835207225
 51
90.0
  0
LINE
  5
18C92
330
18C7A
100
AcDbEntity
  8
細線
 48
50.0
100
AcDbLine
 10
2408.088359449037
 20
1372.765132327548
 30
0.0
 11
2419.016807929469
 21
1372.765132327546
 31
0.0
  0
LINE
  5
18C93
330
18C7A
100
AcDbEntity
  8
細線
 48
50.0
100
AcDbLine
 10
2402.33284186637
 20
1354.494281037054
 30
0.0
 11
2408.088359449037
 21
1372.765132327548
 31
0.0
  0
LINE
  5
18C94
330
18C7A
100
AcDbEntity
  8
細線
100
AcDbLine
 10
2458.070304175992
 20
1354.494278397076
 30
0.0
 11
2460.401843697802
 21
1359.494281037039
 31
0.0
  0
LINE
  5
18C95
330
18C7A
100
AcDbEntity
  8
細線
100
AcDbLine
 10
2528.070313592451
 20
1354.494263483342
 30
0.0
 11
2525.738767116262
 21
1359.494281037021
 31
0.0
  0
LINE
  5
18C96
330
18C7A
100
AcDbEntity
  8
細線
100
AcDbLine
 10
2525.738767116262
 20
1359.494281037021
 30
0.0
 11
2460.40184369779
 21
1359.49428103701
 31
0.0
  0
LINE
  5
18C97
330
18C7A
100
AcDbEntity
  8
細線
100
AcDbLine
 10
2387.139046332155
 20
1359.494281037021
 30
0.0
 11
2321.80212291368
 21
1359.49428103701
 31
0.0
  0
LINE
  5
18C98
330
18C7A
100
AcDbEntity
  8
細線
100
AcDbLine
 10
2389.470592808342
 20
1354.494263483342
 30
0.0
 11
2387.139046332153
 21
1359.494281037021
 31
0.0
  0
LINE
  5
18C99
330
18C7A
100
AcDbEntity
  8
細線
100
AcDbLine
 10
2319.470584622926
 20
1354.494281037054
 30
0.0
 11
2321.802122913694
 21
1359.494281037039
 31
0.0
  0
LINE
  5
18C9A
330
18C7A
100
AcDbEntity
  8
細線
100
AcDbLine
 10
2179.47061994182
 20
1354.494289224422
 30
0.0
 11
2181.802158232587
 21
1359.494289224407
 31
0.0
  0
LINE
  5
18C9B
330
18C7A
100
AcDbEntity
  8
細線
100
AcDbLine
 10
2249.470628127236
 20
1354.49427167071
 30
0.0
 11
2247.139081651047
 21
1359.494289224389
 31
0.0
  0
LINE
  5
18C9C
330
18C7A
100
AcDbEntity
  8
細線
100
AcDbLine
 10
2247.139081651047
 20
1359.494289224389
 30
0.0
 11
2181.802158232573
 21
1359.494289224378
 31
0.0
  0
LINE
  5
18C9D
330
18C7A
100
AcDbEntity
  8
細線
100
AcDbLine
 10
1807.970585744697
 20
1320.494460905133
 30
0.0
 11
1810.302124035464
 21
1325.494460905118
 31
0.0
  0
LINE
  5
18C9E
330
18C7A
100
AcDbEntity
  8
細線
100
AcDbLine
 10
1877.970593930113
 20
1320.494443351421
 30
0.0
 11
1875.639047453926
 21
1325.4944609051
 31
0.0
  0
LINE
  5
18C9F
330
18C7A
100
AcDbEntity
  8
細線
100
AcDbLine
 10
1875.639047453926
 20
1325.4944609051
 30
0.0
 11
1810.302124035452
 21
1325.494460905089
 31
0.0
  0
LINE
  5
18CA0
330
18C7A
100
AcDbEntity
  8
細線
100
AcDbLine
 10
2015.639047453926
 20
1325.4944609051
 30
0.0
 11
1950.302124035452
 21
1325.494460905089
 31
0.0
  0
LINE
  5
18CA1
330
18C7A
100
AcDbEntity
  8
細線
100
AcDbLine
 10
2017.970593930113
 20
1320.494443351421
 30
0.0
 11
2015.639047453924
 21
1325.4944609051
 31
0.0
  0
LINE
  5
18CA2
330
18C7A
100
AcDbEntity
  8
細線
100
AcDbLine
 10
1947.970585744697
 20
1320.494460905133
 30
0.0
 11
1950.302124035465
 21
1325.494460905118
 31
0.0
  0
LINE
  5
18CA3
330
18C7A
100
AcDbEntity
  8
細線
100
AcDbLine
 10
1735.639047453926
 20
1325.494460905098
 30
0.0
 11
1670.302124035454
 21
1325.494460905087
 31
0.0
  0
LINE
  5
18CA4
330
18C7A
100
AcDbEntity
  8
細線
100
AcDbLine
 10
1737.970593930113
 20
1320.494443351419
 30
0.0
 11
1735.639047453926
 21
1325.494460905098
 31
0.0
  0
LINE
  5
18CA5
330
18C7A
100
AcDbEntity
  8
細線
100
AcDbLine
 10
1667.970585744697
 20
1320.494460905131
 30
0.0
 11
1670.302124035465
 21
1325.494460905116
 31
0.0
  0
LINE
  5
18CA6
330
18C7A
100
AcDbEntity
  8
細線
100
AcDbLine
 10
1527.970593930113
 20
1320.494460905133
 30
0.0
 11
1530.302132220881
 21
1325.494460905118
 31
0.0
  0
LINE
  5
18CA7
330
18C7A
100
AcDbEntity
  8
細線
100
AcDbLine
 10
1597.970602115529
 20
1320.494443351421
 30
0.0
 11
1595.639055639342
 21
1325.4944609051
 31
0.0
  0
LINE
  5
18CA8
330
18C7A
100
AcDbEntity
  8
細線
100
AcDbLine
 10
1595.639055639342
 20
1325.4944609051
 30
0.0
 11
1530.302132220869
 21
1325.494460905089
 31
0.0
  0
ARC
  5
18CA9
330
18C7A
100
AcDbEntity
  8
部品1
 48
0.01
100
AcDbCircle
 10
1483.470482677778
 20
1319.493338720063
 30
0.0
 40
0.5
100
AcDbArc
 50
270.0
 51
0.0
  0
LINE
  5
18CAA
330
18C7A
100
AcDbEntity
  8
部品1
 48
0.01
100
AcDbLine
 10
1483.970482677778
 20
1320.493338720063
 30
0.0
 11
1483.970482677778
 21
1319.493338720063
 31
0.0
  0
LINE
  5
18CAB
330
18C7A
100
AcDbEntity
  8
部品1
 48
0.01
100
AcDbLine
 10
1483.970482677778
 20
1320.493338720063
 30
0.0
 11
1483.970482677778
 21
1319.493338720063
 31
0.0
  0
LINE
  5
18CAC
330
18C7A
100
AcDbEntity
  8
部品1
 48
0.01
100
AcDbLine
 10
1483.470482677778
 20
1318.993338720063
 30
0.0
 11
1476.857977247713
 21
1318.993338720062
 31
0.0
  0
ARC
  5
18CAD
330
18C7A
100
AcDbEntity
  8
部品1
100
AcDbCircle
 10
1476.926326800494
 20
1319.993338720062
 30
0.0
 40
1.0
100
AcDbArc
 50
160.5287793655865
 51
270.0
  0
ARC
  5
18CAE
330
18C7A
100
AcDbEntity
  8
部品1
100
AcDbCircle
 10
1451.470482677778
 20
1328.993338720062
 30
0.0
 40
26.0
100
AcDbArc
 50
340.5287793655865
 51
0.0
  0
LINE
  5
18CAF
330
18C7A
100
AcDbEntity
  8
部品1
100
AcDbLine
 10
1477.470482677778
 20
1328.993338720062
 30
0.0
 11
1477.470482677778
 21
1333.993338720061
 31
0.0
  0
ARC
  5
18CB0
330
18C7A
100
AcDbEntity
  8
部品1
 48
0.01
100
AcDbCircle
 10
1475.470482677778
 20
1333.993338720061
 30
0.0
 40
2.0
100
AcDbArc
 50
0.0
 51
90.0
  0
ARC
  5
18CB1
330
18C7A
100
AcDbEntity
  8
部品1
100
AcDbCircle
 10
1473.862091052968
 20
1332.993338720062
 30
0.0
 40
3.0
100
AcDbArc
 50
90.0
 51
141.6069559808035
  0
LINE
  5
18CB2
330
18C7A
100
AcDbEntity
  8
部品1
 48
0.01
100
AcDbLine
 10
1475.470482677778
 20
1335.993338720062
 30
0.0
 11
1473.862091052968
 21
1335.993338720062
 31
0.0
  0
ARC
  5
18CB3
330
18C7A
100
AcDbEntity
  8
部品1
100
AcDbCircle
 10
1455.399768463507
 20
1332.293338720065
 30
0.0
 40
3.0
100
AcDbArc
 50
254.0576313943215
 51
270.0
  0
ARC
  5
18CB4
330
18C7A
100
AcDbEntity
  8
部品1
100
AcDbCircle
 10
1462.541196892049
 20
1332.293338720065
 30
0.0
 40
3.0
100
AcDbArc
 50
270.0
 51
285.9423686056786
  0
LINE
  5
18CB5
330
18C7A
100
AcDbEntity
  8
部品1
100
AcDbLine
 10
1462.541196892049
 20
1329.293338720064
 30
0.0
 11
1455.399768463507
 21
1329.293338720064
 31
0.0
  0
ARC
  5
18CB6
330
18C7A
100
AcDbEntity
  8
部品1
100
AcDbCircle
 10
1458.970482677778
 20
1344.793338720065
 30
0.0
 40
16.0
100
AcDbArc
 50
285.9423686056786
 51
321.6069559808035
  0
LINE
  5
18CB7
330
18C7A
100
AcDbEntity
  8
部品1
 48
0.01
100
AcDbLine
 10
1442.470482677778
 20
1335.993338720062
 30
0.0
 11
1444.078874302588
 21
1335.993338720062
 31
0.0
  0
ARC
  5
18CB8
330
18C7A
100
AcDbEntity
  8
部品1
100
AcDbCircle
 10
1444.078874302588
 20
1332.993338720062
 30
0.0
 40
3.0
100
AcDbArc
 50
38.39304401919648
 51
90.0
  0
ARC
  5
18CB9
330
18C7A
100
AcDbEntity
  8
部品1
100
AcDbCircle
 10
1458.970482677778
 20
1344.793338720065
 30
0.0
 40
16.0
100
AcDbArc
 50
218.3930440191965
 51
254.0576313943215
  0
LINE
  5
18CBA
330
18C7A
100
AcDbEntity
  8
部品1
100
AcDbLine
 10
1440.470482677778
 20
1328.993338720062
 30
0.0
 11
1440.470482677778
 21
1333.993338720061
 31
0.0
  0
ARC
  5
18CBB
330
18C7A
100
AcDbEntity
  8
部品1
 48
0.01
100
AcDbCircle
 10
1442.470482677778
 20
1333.993338720061
 30
0.0
 40
2.0
100
AcDbArc
 50
90.0
 51
180.0
  0
ARC
  5
18CBC
330
18C7A
100
AcDbEntity
  8
部品1
100
AcDbCircle
 10
1466.470482677778
 20
1328.993338720062
 30
0.0
 40
26.0
100
AcDbArc
 50
180.0
 51
199.4712206344134
  0
ARC
  5
18CBD
330
18C7A
100
AcDbEntity
  8
部品1
 48
0.01
100
AcDbCircle
 10
1434.470482677778
 20
1319.493338720063
 30
0.0
 40
0.5
100
AcDbArc
 50
180.0
 51
270.0
  0
LINE
  5
18CBE
330
18C7A
100
AcDbEntity
  8
部品1
 48
0.01
100
AcDbLine
 10
1434.470482677778
 20
1318.993338720063
 30
0.0
 11
1441.014638555061
 21
1318.993338720062
 31
0.0
  0
LINE
  5
18CBF
330
18C7A
100
AcDbEntity
  8
部品1
 48
0.01
100
AcDbLine
 10
1433.970482677778
 20
1320.493338720063
 30
0.0
 11
1433.970482677778
 21
1319.493338720063
 31
0.0
  0
ARC
  5
18CC0
330
18C7A
100
AcDbEntity
  8
部品1
100
AcDbCircle
 10
1441.014638555061
 20
1319.993338720062
 30
0.0
 40
1.0
100
AcDbArc
 50
270.0
 51
19.47122063441346
  0
LINE
  5
18CC1
330
18C7A
100
AcDbEntity
  8
細線
100
AcDbLine
 10
1479.470482677785
 20
1338.493338720065
 30
0.0
 11
1438.470482677785
 21
1338.493338720058
 31
0.0
  0
LINE
  5
18CC2
330
18C7A
100
AcDbEntity
  8
細線
100
AcDbLine
 10
1438.470482677785
 20
1338.493338720058
 30
0.0
 11
1438.470482677785
 21
1320.49333872004
 31
0.0
  0
LINE
  5
18CC3
330
18C7A
100
AcDbEntity
  8
細線
100
AcDbLine
 10
1479.470482677785
 20
1338.493338720065
 30
0.0
 11
1479.470482677785
 21
1320.49333872004
 31
0.0
  0
LINE
  5
18CC4
330
18C7A
100
AcDbEntity
  8
細線
100
AcDbLine
 10
1322.970589276523
 20
1324.494269174465
 30
0.0
 11
1322.970589276523
 21
1320.494269174513
 31
0.0
  0
LINE
  5
18CC5
330
18C7A
100
AcDbEntity
  8
寸法
 48
50.0
100
AcDbLine
 10
1746.17359555837
 20
1170.531020743327
 30
0.0
 11
1694.767587648266
 21
1170.531020743327
 31
0.0
  0
LINE
  5
18CC6
330
18C7A
100
AcDbEntity
  8
寸法
 48
50.0
100
AcDbLine
 10
1694.767587648266
 20
1170.531020743327
 30
0.0
 11
1694.767587648266
 21
1201.841179395494
 31
0.0
  0
LINE
  5
18CC7
330
18C7A
100
AcDbEntity
  8
寸法
 48
50.0
100
AcDbLine
 10
1694.767587648266
 20
1201.841179395494
 30
0.0
 11
1665.006255656843
 21
1201.841179395494
 31
0.0
  0
LINE
  5
18CC8
330
18C7A
100
AcDbEntity
  8
寸法
 48
50.0
100
AcDbLine
 10
1665.006255656843
 20
1201.841179395494
 30
0.0
 11
1720.470591603318
 21
1239.420630324105
 31
0.0
  0
LINE
  5
18CC9
330
18C7A
100
AcDbEntity
  8
寸法
 48
50.0
100
AcDbLine
 10
1775.934927549793
 20
1201.841179395494
 30
0.0
 11
1720.470591603318
 21
1239.420630324105
 31
0.0
  0
LINE
  5
18CCA
330
18C7A
100
AcDbEntity
  8
寸法
 48
50.0
100
AcDbLine
 10
1746.17359555837
 20
1201.841179395494
 30
0.0
 11
1775.934927549793
 21
1201.841179395494
 31
0.0
  0
LINE
  5
18CCB
330
18C7A
100
AcDbEntity
  8
寸法
 48
50.0
100
AcDbLine
 10
1746.17359555837
 20
1170.531020743327
 30
0.0
 11
1746.17359555837
 21
1201.841179395494
 31
0.0
  0
LINE
  5
18CCC
330
18C7A
100
AcDbEntity
  8
寸法
 48
50.0
100
AcDbLine
 10
1694.767587648266
 20
1170.531020743327
 30
0.0
 11
1746.17359555837
 21
1170.531020743327
 31
0.0
  0
LINE
  5
18CCD
330
18C7A
100
AcDbEntity
  8
寸法
 48
50.0
100
AcDbLine
 10
2025.339129835225
 20
1227.676611498152
 30
0.0
 11
2025.339129835225
 21
1174.01297691636
 31
0.0
  0
LINE
  5
18CCE
330
18C7A
100
AcDbEntity
  8
寸法
 48
50.0
100
AcDbLine
 10
2114.623348430647
 20
1203.752977228664
 30
0.0
 11
2025.339129835225
 21
1227.676611498152
 31
0.0
  0
LINE
  5
18CCF
330
18C7A
100
AcDbEntity
  8
寸法
 48
50.0
100
AcDbLine
 10
1895.471408254923
 20
1203.752977228664
 30
0.0
 11
2114.623348430647
 21
1203.752977228664
 31
0.0
  0
DIMENSION
  5
18CD0
330
18C7A
100
AcDbEntity
  8
寸法
 48
50.0
100
AcDbDimension
  2
*D15
 10
2588.970589276523
 20
706.3240511224249
 30
0.0
 11
1969.060022905491
 21
706.3240511224249
 31
0.0
 12
-3742.925985830444
 22
-6453.628869860112
 32
0.0
 70
   128
  1
有効開口部間口\P<>
 71
     5
 42
1266.0
  3
INABA_S40G
100
AcDbAlignedDimension
 13
1322.970589276523
 23
1315.494269174465
 33
0.0
 14
2588.970589276523
 24
1315.494269174465
 34
0.0
100
AcDbRotatedDimension
1001
ACAD
1000
DSTYLE
1002
{
1070
   341
1005
0
1002
}
  0
LINE
  5
18CD1
330
18C7A
100
AcDbEntity
  8
部品1
100
AcDbLine
 10
3409.970589276524
 20
1392.494269174465
 30
0.0
 11
3437.970589276523
 21
1392.494269174465
 31
0.0
  0
DIMENSION
  5
18CD2
330
18C7A
100
AcDbEntity
  8
寸法
100
AcDbDimension
  2
*D16
 10
3674.266172669749
 20
1315.494269174465
 30
0.0
 11
3674.266172669748
 21
1177.494269174462
 31
0.0
 12
-3742.925985830444
 22
-6453.628869860112
 32
0.0
 70
   128
 71
     5
 42
77.0
  3
INABA_S40
100
AcDbAlignedDimension
 13
3437.970589276523
 23
1392.494269174465
 33
0.0
 14
3436.970589276523
 24
1315.494269174465
 34
0.0
 50
90.0
100
AcDbRotatedDimension
1001
ACAD
1000
DSTYLE
1002
{
1070
    41
1040
0.5
1070
    44
1040
1.0
1070
   147
1040
0.8
1070
   271
1070
     2
1070
   272
1070
     2
1070
   289
1070
     3
1070
   340
1005
F706
1070
   343
1005
164B4
1070
   344
1005
164B4
1002
}
  0
LINE
  5
18CD3
330
18C7A
100
AcDbEntity
  8
部品1
100
AcDbLine
 10
3437.970589276523
 20
1315.494269174465
 30
0.0
 11
3437.970589276523
 21
1392.494269174465
 31
0.0
  0
LINE
  5
18CD4
330
18C7A
100
AcDbEntity
  8
部品1
100
AcDbLine
 10
3398.970589276523
 20
1388.494269174465
 30
0.0
 11
3409.970589276524
 21
1388.494269174465
 31
0.0
  0
LINE
  5
18CD5
330
18C7A
100
AcDbEntity
  8
部品1
100
AcDbLine
 10
3407.970589276523
 20
1324.494269174465
 30
0.0
 11
3407.970589276523
 21
1315.494269174465
 31
0.0
  0
LINE
  5
18CD6
330
18C7A
100
AcDbEntity
  8
部品1
100
AcDbLine
 10
3398.970589276523
 20
1324.494269174465
 30
0.0
 11
3407.970589276523
 21
1324.494269174465
 31
0.0
  0
LINE
  5
18CD7
330
18C7A
100
AcDbEntity
  8
部品1
100
AcDbLine
 10
3398.970589276523
 20
1388.494269174465
 30
0.0
 11
3398.970589276523
 21
1324.494269174465
 31
0.0
  0
LINE
  5
18CD8
330
18C7A
100
AcDbEntity
  8
部品1
100
AcDbLine
 10
3409.970589276524
 20
1419.494269174465
 30
0.0
 11
3409.970589276524
 21
1388.494269174465
 31
0.0
  0
LINE
  5
18CD9
330
18C7A
100
AcDbEntity
  8
部品1
100
AcDbLine
 10
1322.970589276523
 20
1388.494269174465
 30
0.0
 11
1311.970589276523
 21
1388.494269174465
 31
0.0
  0
LINE
  5
18CDA
330
18C7A
100
AcDbEntity
  8
部品1
100
AcDbLine
 10
1283.970589276523
 20
1392.494269174465
 30
0.0
 11
1311.970589276523
 21
1392.494269174465
 31
0.0
  0
LINE
  5
18CDB
330
18C7A
100
AcDbEntity
  8
部品1
100
AcDbLine
 10
1313.970589276523
 20
1324.494269174465
 30
0.0
 11
1313.970589276523
 21
1315.494269174465
 31
0.0
  0
LINE
  5
18CDC
330
18C7A
100
AcDbEntity
  8
部品1
100
AcDbLine
 10
1322.970589276523
 20
1324.494269174465
 30
0.0
 11
1313.970589276523
 21
1324.494269174465
 31
0.0
  0
LINE
  5
18CDD
330
18C7A
100
AcDbEntity
  8
部品1
100
AcDbLine
 10
1313.970589276523
 20
1315.494269174465
 30
0.0
 11
1283.970589276523
 21
1315.494269174465
 31
0.0
  0
LINE
  5
18CDE
330
18C7A
100
AcDbEntity
  8
部品1
100
AcDbLine
 10
1283.970589276523
 20
1315.494269174465
 30
0.0
 11
1283.970589276523
 21
1392.494269174465
 31
0.0
  0
LINE
  5
18CDF
330
18C7A
100
AcDbEntity
  8
部品1
100
AcDbLine
 10
1322.970589276523
 20
1388.494269174465
 30
0.0
 11
1322.970589276523
 21
1324.494269174465
 31
0.0
  0
LINE
  5
18CE0
330
18C7A
100
AcDbEntity
  8
部品1
100
AcDbLine
 10
1311.970589276523
 20
1419.494269174462
 30
0.0
 11
1311.970589276523
 21
1388.494269174465
 31
0.0
  0
LINE
  5
18CE1
330
18C7A
100
AcDbEntity
  8
部品1
100
AcDbLine
 10
1311.970589276523
 20
1419.494269174462
 30
0.0
 11
3409.970589276524
 21
1419.494269174465
 31
0.0
  0
LINE
  5
18CE2
330
18C7A
100
AcDbEntity
  8
部品1
100
AcDbLine
 10
3407.970589276523
 20
1315.494269174465
 30
0.0
 11
3437.970589276523
 21
1315.494269174465
 31
0.0
  0
LINE
  5
18CE3
330
18C7A
100
AcDbEntity
  8
部品1
100
AcDbLine
 10
1313.970589276523
 20
1315.494269174465
 30
0.0
 11
3410.970589276523
 21
1315.494269174465
 31
0.0
  0
LINE
  5
18CE4
330
18C7A
100
AcDbEntity
  8
細線
  6
Continuous
 62
     5
100
AcDbLine
 10
2689.970589276527
 20
1354.494269174462
 30
0.0
 11
2689.970589276527
 21
1354.494269174462
 31
0.0
  0
LINE
  5
18CE5
330
18C7A
100
AcDbEntity
  8
細線
  6
Continuous
 62
     5
100
AcDbLine
 10
2682.470589276527
 20
1354.494269174462
 30
0.0
 11
2682.470589276527
 21
1354.494269174462
 31
0.0
  0
LINE
  5
18CE6
330
18C7A
100
AcDbEntity
  8
細線
  6
Continuous
 62
     5
100
AcDbLine
 10
2676.470589276527
 20
1354.494269174462
 30
0.0
 11
2676.470589276527
 21
1354.494269174462
 31
0.0
  0
LINE
  5
18CE7
330
18C7A
100
AcDbEntity
  8
細線
  6
Continuous
 62
     5
100
AcDbLine
 10
2743.970589276527
 20
1373.494269174462
 30
0.0
 11
2743.970589276527
 21
1373.494269174462
 31
0.0
  0
LINE
  5
18CE8
330
18C7A
100
AcDbEntity
  8
細線
 48
50.0
100
AcDbLine
 10
1336.970593930116
 20
1341.094443351418
 30
0.0
 11
1336.970593930113
 21
1349.490593759059
 31
0.0
  0
LINE
  5
18CE9
330
18C7A
100
AcDbEntity
  8
細線
 48
50.0
100
AcDbLine
 10
1336.970593930113
 20
1349.490593759059
 30
0.0
 11
1322.970589276523
 21
1349.490593759057
 31
0.0
  0
LINE
  5
18CEA
330
18C7A
100
AcDbEntity
  8
細線
 48
50.0
100
AcDbLine
 10
2087.970593930113
 20
1337.644443351419
 30
0.0
 11
2087.970593930113
 21
1342.494443351421
 31
0.0
  0
LINE
  5
18CEB
330
18C7A
100
AcDbEntity
  8
細線
 48
50.0
100
AcDbLine
 10
2087.970593930113
 20
1342.494443351421
 30
0.0
 11
2102.970593930113
 21
1342.494443351421
 31
0.0
  0
LINE
  5
18CEC
330
18C7A
100
AcDbEntity
  8
細線
 48
50.0
100
AcDbLine
 10
2102.970593930113
 20
1342.494443351421
 30
0.0
 11
2102.970593930115
 21
1349.494443351419
 31
0.0
  0
LINE
  5
18CED
330
18C7A
100
AcDbEntity
  8
細線
 48
50.0
100
AcDbLine
 10
2102.970593930115
 20
1349.494443351419
 30
0.0
 11
2117.970593930113
 21
1349.494443351419
 31
0.0
  0
LINE
  5
18CEE
330
18C7A
100
AcDbEntity
  8
細線
 48
50.0
100
AcDbLine
 10
2117.970593930113
 20
1349.494443351419
 30
0.0
 11
2117.970593930113
 21
1320.494443351421
 31
0.0
  0
LINE
  5
18CEF
330
18C7A
100
AcDbEntity
  8
細線
 48
50.0
100
AcDbLine
 10
1313.970589276523
 20
1320.491777694889
 30
0.0
 11
1527.970593930113
 21
1320.494460905133
 31
0.0
  0
LINE
  5
18CF0
330
18C7A
100
AcDbEntity
  8
細線
 48
50.0
100
AcDbLine
 10
2017.970593930113
 20
1320.494443351421
 30
0.0
 11
2117.970593930113
 21
1320.494443351421
 31
0.0
  0
LINE
  5
18CF1
330
18C7A
100
AcDbEntity
  8
細線
 48
50.0
100
AcDbLine
 10
1737.970593930113
 20
1320.494443351419
 30
0.0
 11
1807.970593930113
 21
1320.494443351423
 31
0.0
  0
LINE
  5
18CF2
330
18C7A
100
AcDbEntity
  8
細線
 48
50.0
100
AcDbLine
 10
1750.832558942642
 20
1320.494443351419
 30
0.0
 11
1756.588076525309
 21
1338.765294641913
 31
0.0
  0
LINE
  5
18CF3
330
18C7A
100
AcDbEntity
  8
細線
 48
50.0
100
AcDbLine
 10
1756.588076525309
 20
1338.765294641913
 30
0.0
 11
1767.516525005743
 21
1338.765294641911
 31
0.0
  0
ARC
  5
18CF4
330
18C7A
100
AcDbEntity
  8
細線
 48
50.0
100
AcDbCircle
 10
1767.516525005743
 20
1337.765294641911
 30
0.0
 40
1.0
100
AcDbArc
 50
24.62431835207225
 51
90.0
  0
ARC
  5
18CF5
330
18C7A
100
AcDbEntity
  8
細線
 48
50.0
100
AcDbCircle
 10
1778.425237120377
 20
1337.765294641911
 30
0.0
 40
1.0
100
AcDbArc
 50
90.0
 51
155.3756816479277
  0
ARC
  5
18CF6
330
18C7A
100
AcDbEntity
  8
細線
 48
50.0
100
AcDbCircle
 10
1772.970881063058
 20
1340.265294641911
 30
0.0
 40
5.0
100
AcDbArc
 50
204.6243183520723
 51
335.3756816479278
  0
LINE
  5
18CF7
330
18C7A
100
AcDbEntity
  8
細線
 48
50.0
100
AcDbLine
 10
1778.425237120377
 20
1338.765294641911
 30
0.0
 11
1789.35368560081
 21
1338.765294641913
 31
0.0
  0
LINE
  5
18CF8
330
18C7A
100
AcDbEntity
  8
細線
 48
50.0
100
AcDbLine
 10
1789.35368560081
 20
1338.765294641913
 30
0.0
 11
1795.109203183478
 21
1320.494443351423
 31
0.0
  0
LINE
  5
18CF9
330
18C7A
100
AcDbEntity
  8
細線
 48
50.0
100
AcDbLine
 10
2087.970593930113
 20
1341.094443351419
 30
0.0
 11
1336.970593930116
 21
1341.094443351418
 31
0.0
  0
LINE
  5
18CFA
330
18C7A
100
AcDbEntity
  8
細線
 48
50.0
100
AcDbLine
 10
1947.970593930113
 20
1320.494443351421
 30
0.0
 11
1877.970593930113
 21
1320.494443351421
 31
0.0
  0
LINE
  5
18CFB
330
18C7A
100
AcDbEntity
  8
細線
100
AcDbLine
 10
1667.970593930113
 20
1320.494443351421
 30
0.0
 11
1597.970602115529
 21
1320.494443351421
 31
0.0
  0
LINE
  5
18CFC
330
18C7A
100
AcDbEntity
  8
細線
 48
50.0
100
AcDbLine
 10
2741.970584622936
 20
1375.094487209288
 30
0.0
 11
2106.970593930113
 21
1375.094487209284
 31
0.0
  0
LINE
  5
18CFD
330
18C7A
100
AcDbEntity
  8
細線
 48
50.0
100
AcDbLine
 10
2106.970593930113
 20
1371.990637616925
 30
0.0
 11
2106.970593930113
 21
1376.490637616925
 31
0.0
  0
LINE
  5
18CFE
330
18C7A
100
AcDbEntity
  8
細線
 48
50.0
100
AcDbLine
 10
2106.970593930113
 20
1376.490637616925
 30
0.0
 11
2091.970593930113
 21
1376.490637616925
 31
0.0
  0
LINE
  5
18CFF
330
18C7A
100
AcDbEntity
  8
細線
 48
50.0
100
AcDbLine
 10
2091.970593930113
 20
1376.490637616925
 30
0.0
 11
2091.970593930113
 21
1383.490637616927
 31
0.0
  0
LINE
  5
18D00
330
18C7A
100
AcDbEntity
  8
細線
 48
50.0
100
AcDbLine
 10
2091.970593930113
 20
1383.490637616927
 30
0.0
 11
2076.970593930115
 21
1383.490637616924
 31
0.0
  0
LINE
  5
18D01
330
18C7A
100
AcDbEntity
  8
細線
 48
50.0
100
AcDbLine
 10
2076.970593930115
 20
1383.490637616924
 30
0.0
 11
2076.970593930115
 21
1345.890409513813
 31
0.0
  0
LINE
  5
18D02
330
18C7A
100
AcDbEntity
  8
細線
 48
50.0
100
AcDbLine
 10
2076.970593930115
 20
1345.890409513813
 30
0.0
 11
2096.970601231289
 21
1345.890451063353
 31
0.0
  0
LINE
  5
18D03
330
18C7A
100
AcDbEntity
  8
細線
 48
50.0
100
AcDbLine
 10
2096.970556362348
 20
1354.493912699161
 30
0.0
 11
2096.970601231289
 21
1345.890451063353
 31
0.0
  0
LINE
  5
18D04
330
18C7A
100
AcDbEntity
  8
細線
 48
50.0
100
AcDbLine
 10
2741.970584622936
 20
1371.644487209287
 30
0.0
 11
2741.970584622936
 21
1376.494487209284
 31
0.0
  0
LINE
  5
18D05
330
18C7A
100
AcDbEntity
  8
細線
 48
50.0
100
AcDbLine
 10
2741.970584622936
 20
1376.494487209284
 30
0.0
 11
2756.970584622934
 21
1376.494487209285
 31
0.0
  0
LINE
  5
18D06
330
18C7A
100
AcDbEntity
  8
細線
 48
50.0
100
AcDbLine
 10
2756.970584622934
 20
1376.494487209285
 30
0.0
 11
2756.970596256909
 21
1383.494487209331
 31
0.0
  0
LINE
  5
18D07
330
18C7A
100
AcDbEntity
  8
細線
 48
50.0
100
AcDbLine
 10
2756.970596256909
 20
1383.494487209331
 30
0.0
 11
2771.970594427439
 21
1383.494487209329
 31
0.0
  0
LINE
  5
18D08
330
18C7A
100
AcDbEntity
  8
細線
 48
50.0
100
AcDbLine
 10
2771.970594427439
 20
1383.494487209329
 30
0.0
 11
2771.970584125617
 21
1354.494281037055
 31
0.0
  0
LINE
  5
18D09
330
18C7A
100
AcDbEntity
  8
細線
 48
50.0
100
AcDbLine
 10
2458.070304175992
 20
1354.494278397076
 30
0.0
 11
2389.470863838818
 21
1354.494283787084
 31
0.0
  0
LINE
  5
18D0A
330
18C7A
100
AcDbEntity
  8
細線
 48
50.0
100
AcDbLine
 10
2096.970556362348
 20
1354.493912699161
 30
0.0
 11
2108.203245717057
 21
1354.494095652309
 31
0.0
  0
ARC
  5
18D0B
330
18C7A
100
AcDbEntity
  8
細線
 48
50.0
100
AcDbCircle
 10
2114.785538024393
 20
1353.294259565922
 30
0.0
 40
1.8
100
AcDbArc
 50
270.0006665777295
 51
345.000555481349
  0
LINE
  5
18D0C
330
18C7A
100
AcDbEntity
  8
細線
 48
50.0
100
AcDbLine
 10
2116.771971470473
 20
1353.753100023201
 30
0.0
 11
2116.524209028273
 21
1352.828402141094
 31
0.0
  0
LINE
  5
18D0D
330
18C7A
100
AcDbEntity
  8
細線
 48
50.0
100
AcDbLine
 10
2114.785558965548
 20
1351.494259566043
 30
0.0
 11
2111.155631546781
 21
1351.494217335563
 31
0.0
  0
ARC
  5
18D0E
330
18C7A
100
AcDbEntity
  8
細線
 48
50.0
100
AcDbCircle
 10
2111.155610605627
 20
1353.29421733544
 30
0.0
 40
1.8
100
AcDbArc
 50
195.0010443049965
 51
270.0006665777295
  0
LINE
  5
18D0F
330
18C7A
100
AcDbEntity
  8
細線
 48
50.0
100
AcDbLine
 10
2109.169183113368
 20
1353.752932303007
 30
0.0
 11
2109.416952609882
 21
1352.828311364425
 31
0.0
  0
ARC
  5
18D10
330
18C7A
100
AcDbEntity
  8
細線
 48
50.0
100
AcDbCircle
 10
2108.203262004622
 20
1353.494095652444
 30
0.0
 40
1.0
100
AcDbArc
 50
15.00104430499651
 51
90.00093320877969
  0
LINE
  5
18D11
330
18C7A
100
AcDbEntity
  8
細線
 48
50.0
100
AcDbLine
 10
2117.737892825577
 20
1354.494290342714
 30
0.0
 11
2118.679652976481
 21
1354.494296916564
 31
0.0
  0
ARC
  5
18D12
330
18C7A
100
AcDbEntity
  8
細線
 48
50.0
100
AcDbCircle
 10
2117.737899805961
 20
1353.49429034274
 30
0.0
 40
1.0
100
AcDbArc
 50
90.0003999466794
 51
165.000555481349
  0
LINE
  5
18D13
330
18C7A
100
AcDbEntity
  8
細線
 48
50.0
100
AcDbLine
 10
2669.470584622926
 20
1354.494281037055
 30
0.0
 11
2771.970584125617
 21
1354.494281037055
 31
0.0
  0
LINE
  5
18D14
330
18C7A
100
AcDbEntity
  8
細線
 48
50.0
100
AcDbLine
 10
2179.47061994182
 20
1354.494289224422
 30
0.0
 11
2118.370558714898
 21
1354.494296916564
 31
0.0
  0
LINE
  5
18D15
330
18C7A
100
AcDbEntity
  8
細線
 48
50.0
100
AcDbLine
 10
2599.470584622926
 20
1354.494281037057
 30
0.0
 11
2529.470584622926
 21
1354.494281037055
 31
0.0
  0
LINE
  5
18D16
330
18C7A
100
AcDbEntity
  8
細線
 48
50.0
100
AcDbLine
 10
2319.470584622926
 20
1354.494281037054
 30
0.0
 11
2249.470567335051
 21
1354.494281037057
 31
0.0
  0
ARC
  5
18D17
330
18C7A
100
AcDbEntity
  8
細線
 48
50.0
100
AcDbCircle
 10
2756.170589276533
 20
1387.694269174466
 30
0.0
 40
0.8
100
AcDbArc
 50
359.9997333689499
 51
89.99986668437072
  0
ARC
  5
18D18
330
18C7A
100
AcDbEntity
  8
細線
 48
50.0
100
AcDbCircle
 10
2763.770596101631
 20
1387.694280343081
 30
0.0
 40
0.8
100
AcDbArc
 50
90.00014387753465
 51
179.9997333689498
  0
LINE
  5
18D19
330
18C7A
100
AcDbEntity
  8
細線
 48
50.0
100
AcDbLine
 10
2756.170591137969
 20
1388.494269174465
 30
0.0
 11
2750.970589276525
 21
1388.494269174465
 31
0.0
  0
ARC
  5
18D1A
330
18C7A
100
AcDbEntity
  8
細線
 48
50.0
100
AcDbCircle
 10
2757.670589276524
 20
1386.194269174464
 30
0.0
 40
0.7
100
AcDbArc
 50
180.0
 51
270.0
  0
ARC
  5
18D1B
330
18C7A
100
AcDbEntity
  8
細線
 48
50.0
100
AcDbCircle
 10
2762.270589276524
 20
1386.194269174464
 30
0.0
 40
0.7
100
AcDbArc
 50
270.0
 51
0.0
  0
LINE
  5
18D1C
330
18C7A
100
AcDbEntity
  8
細線
 48
50.0
100
AcDbLine
 10
2762.970589276525
 20
1386.194269174464
 30
0.0
 11
2762.970596101639
 21
1387.694284065954
 31
0.0
  0
LINE
  5
18D1D
330
18C7A
100
AcDbEntity
  8
細線
 48
50.0
100
AcDbLine
 10
2757.670589276524
 20
1385.494269174465
 30
0.0
 11
2762.270589276524
 21
1385.494269174465
 31
0.0
  0
LINE
  5
18D1E
330
18C7A
100
AcDbEntity
  8
細線
 48
50.0
100
AcDbLine
 10
2756.970589276525
 20
1387.694269174466
 30
0.0
 11
2756.970589276525
 21
1386.194269174464
 31
0.0
  0
LINE
  5
18D1F
330
18C7A
100
AcDbEntity
  8
細線
 48
50.0
100
AcDbLine
 10
3382.570589276527
 20
1418.494269174465
 30
0.0
 11
2745.970589276525
 21
1418.494269174463
 31
0.0
  0
LINE
  5
18D20
330
18C7A
100
AcDbEntity
  8
細線
 48
50.0
100
AcDbLine
 10
3408.470589276525
 20
1413.494269174467
 30
0.0
 11
3392.570589276527
 21
1413.494269174465
 31
0.0
  0
LINE
  5
18D21
330
18C7A
100
AcDbEntity
  8
細線
 48
50.0
100
AcDbLine
 10
3392.570589276526
 20
1413.494269174465
 30
0.0
 11
3382.570589276527
 21
1418.494269174465
 31
0.0
  0
LINE
  5
18D22
330
18C7A
100
AcDbEntity
  8
細線
100
AcDbLine
 10
2993.470589276525
 20
1388.494269174465
 30
0.0
 11
2993.470589276525
 21
1417.794269174464
 31
0.0
  0
LINE
  5
18D23
330
18C7A
100
AcDbEntity
  8
細線
100
AcDbLine
 10
2993.470589276525
 20
1417.794269174464
 30
0.0
 11
3013.470589276525
 21
1417.794269174464
 31
0.0
  0
LINE
  5
18D24
330
18C7A
100
AcDbEntity
  8
細線
100
AcDbLine
 10
3013.470589276525
 20
1388.494269174465
 30
0.0
 11
3013.470589276525
 21
1417.794269174464
 31
0.0
  0
LINE
  5
18D25
330
18C7A
100
AcDbEntity
  8
細線
100
AcDbLine
 10
3170.720589276524
 20
1388.494269174465
 30
0.0
 11
3100.720589276523
 21
1388.494269174465
 31
0.0
  0
LINE
  5
18D26
330
18C7A
100
AcDbEntity
  8
細線
 48
50.0
100
AcDbLine
 10
2890.720589276525
 20
1388.494269174465
 30
0.0
 11
2763.766368849365
 21
1388.494269174465
 31
0.0
  0
LINE
  5
18D27
330
18C7A
100
AcDbEntity
  8
細線
100
AcDbLine
 10
3030.720589276525
 20
1388.494269174465
 30
0.0
 11
2960.720589276525
 21
1388.494269174465
 31
0.0
  0
LINE
  5
18D28
330
18C7A
100
AcDbEntity
  8
細線
 48
50.0
100
AcDbLine
 10
2750.970589276525
 20
1380.494269174465
 30
0.0
 11
2750.970589276525
 21
1388.494269174465
 31
0.0
  0
LINE
  5
18D29
330
18C7A
100
AcDbEntity
  8
細線
 48
50.0
100
AcDbLine
 10
2730.970589276524
 20
1380.494269174467
 30
0.0
 11
2750.970589276525
 21
1380.494269174465
 31
0.0
  0
LINE
  5
18D2A
330
18C7A
100
AcDbEntity
  8
細線
 48
50.0
100
AcDbLine
 10
2745.970589276525
 20
1418.494269174465
 30
0.0
 11
2745.970589276525
 21
1413.494269174465
 31
0.0
  0
LINE
  5
18D2B
330
18C7A
100
AcDbEntity
  8
細線
 48
50.0
100
AcDbLine
 10
2730.970589276525
 20
1418.494269174463
 30
0.0
 11
2745.970589276525
 21
1418.494269174465
 31
0.0
  0
LINE
  5
18D2C
330
18C7A
100
AcDbEntity
  8
細線
 48
50.0
100
AcDbLine
 10
2730.970589276524
 20
1380.494269174467
 30
0.0
 11
2730.970589276525
 21
1418.494269174463
 31
0.0
  0
LINE
  5
18D2D
330
18C7A
100
AcDbEntity
  8
細線
100
AcDbLine
 10
3398.970589276523
 20
1388.494269174465
 30
0.0
 11
3240.720589276525
 21
1388.494269174465
 31
0.0
  0
LINE
  5
18D2E
330
18C7A
100
AcDbEntity
  8
細線
 48
50.0
100
AcDbLine
 10
3408.470589276525
 20
1413.494269174467
 30
0.0
 11
3408.470589276524
 21
1388.494269174465
 31
0.0
  0
TEXT
  5
18D2F
330
18C7A
100
AcDbEntity
  8
部品1
100
AcDbText
 10
1860.154865991392
 20
46.99880823813145
 30
0.0
 40
135.0
  1
平面図
  7
STYLE2
100
AcDbText
  0
LWPOLYLINE
  5
18D30
330
18C7A
100
AcDbEntity
  8
部品1
100
AcDbPolyline
 90
        4
 70
     1
 43
0.0
 10
1770.23525616235
 20
239.8923374566548
 10
1770.23525616235
 20
0.0000159111223184
 10
2533.705922390791
 20
0.0000159111223184
 10
2533.705922390791
 20
239.8923374566548
  0
LINE
  5
18D31
330
18C7A
100
AcDbEntity
  8
部品1
100
AcDbLine
 10
1534.470589276487
 20
3154.494269174626
 30
0.0
 11
2769.470589276552
 21
3154.494269174626
 31
0.0
  0
LINE
  5
18D32
330
18C7A
100
AcDbEntity
  8
部品1
 48
50.0
100
AcDbLine
 10
1311.970589276523
 20
1420.494269174462
 30
0.0
 11
3411.970589276523
 21
1420.494269174465
 31
0.0
  0
LINE
  5
18D33
330
18C7A
100
AcDbEntity
  8
部品1
 48
50.0
100
AcDbLine
 10
471.9705892765232
 20
1392.494269174465
 30
0.0
 11
1311.970589276523
 21
1392.494269174465
 31
0.0
  0
DIMENSION
  5
18D34
330
18C7A
100
AcDbEntity
  8
寸法
100
AcDbDimension
  2
*D14
 10
2710.234916278077
 20
2488.887829538828
 30
0.0
 11
2338.318822490183
 21
2488.887829538828
 31
0.0
 12
-3742.925985830444
 22
-6453.628869860112
 32
0.0
 70
   128
 71
     5
 42
1231.00000000007
  3
INABA_S40G
100
AcDbAlignedDimension
 13
1536.470589276486
 23
2702.494269174557
 33
0.0
 14
2767.470589276556
 24
2702.494269174549
 34
0.0
100
AcDbRotatedDimension
1001
ACAD
1000
DSTYLE
1002
{
1002
}
  0
LINE
  5
18D35
330
18C7A
100
AcDbEntity
  8
部品1
100
AcDbLine
 10
1536.470589276487
 20
2702.494269174557
 30
0.0
 11
2767.470589276554
 21
2702.494269174615
 31
0.0
  0
LINE
  5
18D36
330
18C7A
100
AcDbEntity
  8
部品1
100
AcDbLine
 10
1536.470589276487
 20
3152.494269174557
 30
0.0
 11
2767.470589276556
 21
3152.494269174615
 31
0.0
  0
LINE
  5
18D37
330
18C7A
100
AcDbEntity
  8
細線
 48
50.0
100
AcDbLine
 10
1508.470589276487
 20
3152.494269174558
 30
0.0
 11
445.4705892765559
 21
2702.494269174509
 31
0.0
  0
LINE
  5
18D38
330
18C7A
100
AcDbEntity
  8
細線
 48
50.0
100
AcDbLine
 10
1508.470589276487
 20
2702.494269174558
 30
0.0
 11
445.4705892765542
 21
3152.494269174509
 31
0.0
  0
LINE
  5
18D39
330
18C7A
100
AcDbEntity
  8
部品1
100
AcDbLine
 10
1556.970589276487
 20
3172.494269174611
 30
0.0
 11
1556.970589276487
 21
3154.494269174611
 31
0.0
  0
LINE
  5
18D3A
330
18C7A
100
AcDbEntity
  8
部品1
100
AcDbLine
 10
1556.970589276487
 20
3172.494269174611
 30
0.0
 11
1550.970589276487
 21
3172.494269174611
 31
0.0
  0
LINE
  5
18D3B
330
18C7A
100
AcDbEntity
  8
部品1
100
AcDbLine
 10
1534.470589276487
 20
3146.494269174608
 30
0.0
 11
1509.470589276487
 21
3146.494269174611
 31
0.0
  0
LINE
  5
18D3C
330
18C7A
100
AcDbEntity
  8
部品1
100
AcDbLine
 10
1486.970589276487
 20
3172.494269174611
 30
0.0
 11
1486.970589276487
 21
3154.494269174611
 31
0.0
  0
LINE
  5
18D3D
330
18C7A
100
AcDbEntity
  8
部品1
100
AcDbLine
 10
1492.970589276487
 20
3172.494269174611
 30
0.0
 11
1486.970589276487
 21
3172.494269174611
 31
0.0
  0
LINE
  5
18D3E
330
18C7A
100
AcDbEntity
  8
部品1
100
AcDbLine
 10
1534.470589276487
 20
2702.494269174615
 30
0.0
 11
1509.470589276487
 21
2702.494269174615
 31
0.0
  0
LINE
  5
18D3F
330
18C7A
100
AcDbEntity
  8
部品1
 48
50.0
100
AcDbLine
 10
1536.470589276487
 20
3152.494269174611
 30
0.0
 11
1536.470589276487
 21
2702.494269174615
 31
0.0
  0
LINE
  5
18D40
330
18C7A
100
AcDbEntity
  8
部品1
 48
50.0
100
AcDbLine
 10
1508.470589276487
 20
3152.494269174607
 30
0.0
 11
1508.470589276487
 21
2702.494269174615
 31
0.0
  0
LINE
  5
18D41
330
18C7A
100
AcDbEntity
  8
部品1
 48
50.0
100
AcDbLine
 10
1534.470589276487
 20
3154.494269174618
 30
0.0
 11
1534.470589276487
 21
2702.494269174615
 31
0.0
  0
LINE
  5
18D42
330
18C7A
100
AcDbEntity
  8
部品1
 48
50.0
100
AcDbLine
 10
1509.470589276487
 20
3154.494269174615
 30
0.0
 11
1509.470589276487
 21
2702.494269174615
 31
0.0
  0
LINE
  5
18D43
330
18C7A
100
AcDbEntity
  8
部品1
100
AcDbLine
 10
3411.970589276556
 20
1392.494269174582
 30
0.0
 11
3411.970589276556
 21
1420.494269174596
 31
0.0
  0
LINE
  5
18D44
330
18C7A
100
AcDbEntity
  8
部品1
100
AcDbLine
 10
1311.970589276523
 20
1392.494269174596
 30
0.0
 11
1311.970589276523
 21
1420.494269174596
 31
0.0
  0
LINE
  5
18D45
330
18C7A
100
AcDbEntity
  8
部品1
100
AcDbLine
 10
891.9705892765232
 20
1392.494269174596
 30
0.0
 11
891.9705892765232
 21
1420.494269174596
 31
0.0
  0
LINE
  5
18D46
330
18C7A
100
AcDbEntity
  8
部品1
100
AcDbLine
 10
3411.97058927652
 20
3182.494269174477
 30
0.0
 11
3411.970589276523
 21
3154.494269174477
 31
0.0
  0
LINE
  5
18D47
330
18C7A
100
AcDbEntity
  8
部品1
100
AcDbLine
 10
2571.97058927652
 20
3182.494269174477
 30
0.0
 11
2571.970589276523
 21
3154.494269174477
 31
0.0
  0
LINE
  5
18D48
330
18C7A
100
AcDbEntity
  8
部品1
100
AcDbLine
 10
2991.97058927652
 20
3182.494269174477
 30
0.0
 11
2991.970589276523
 21
3154.494269174477
 31
0.0
  0
LINE
  5
18D49
330
18C7A
100
AcDbEntity
  8
部品1
100
AcDbLine
 10
2151.970589276519
 20
3182.494269174477
 30
0.0
 11
2151.970589276523
 21
3154.494269174477
 31
0.0
  0
LINE
  5
18D4A
330
18C7A
100
AcDbEntity
  8
部品1
100
AcDbLine
 10
1731.970589276519
 20
3182.494269174477
 30
0.0
 11
1731.970589276523
 21
3154.494269174477
 31
0.0
  0
LINE
  5
18D4B
330
18C7A
100
AcDbEntity
  8
部品1
100
AcDbLine
 10
1311.970589276519
 20
3182.494269174477
 30
0.0
 11
1311.970589276523
 21
3154.494269174477
 31
0.0
  0
LINE
  5
18D4C
330
18C7A
100
AcDbEntity
  8
部品1
100
AcDbLine
 10
891.9705892765195
 20
3182.494269174477
 30
0.0
 11
891.9705892765232
 21
3154.494269174477
 31
0.0
  0
LINE
  5
18D4D
330
18C7A
100
AcDbEntity
  8
部品1
100
AcDbLine
 10
471.9705892765232
 20
1392.494269174596
 30
0.0
 11
471.9705892765232
 21
1420.494269174596
 31
0.0
  0
LINE
  5
18D4E
330
18C7A
100
AcDbEntity
  8
部品1
100
AcDbLine
 10
444.9705892765305
 20
1420.494269174558
 30
0.0
 11
3858.970589276556
 21
1420.494269174596
 31
0.0
  0
LINE
  5
18D4F
330
18C7A
100
AcDbEntity
  8
部品1
100
AcDbLine
 10
3831.970589276556
 20
1392.494269174596
 30
0.0
 11
3831.970589276556
 21
1420.494269174596
 31
0.0
  0
LINE
  5
18D50
330
18C7A
100
AcDbEntity
  8
部品1
100
AcDbLine
 10
3858.970589276556
 20
1447.494269174593
 30
0.0
 11
3886.970589276556
 21
1447.494269174593
 31
0.0
  0
LINE
  5
18D51
330
18C7A
100
AcDbEntity
  8
部品1
100
AcDbLine
 10
3858.970589276556
 20
1867.494269174607
 30
0.0
 11
3886.970589276556
 21
1867.494269174607
 31
0.0
  0
LINE
  5
18D52
330
18C7A
100
AcDbEntity
  8
部品1
100
AcDbLine
 10
444.9705892765305
 20
1867.49426917448
 30
0.0
 11
416.9705892765305
 21
1867.49426917448
 31
0.0
  0
LINE
  5
18D53
330
18C7A
100
AcDbEntity
  8
部品1
100
AcDbLine
 10
3830.470589276541
 20
1867.49426917458
 30
0.0
 11
473.4705892765396
 21
1867.49426917448
 31
0.0
  0
LINE
  5
18D54
330
18C7A
100
AcDbEntity
  8
部品1
100
AcDbLine
 10
3830.470589276541
 20
2287.49426917458
 30
0.0
 11
473.4705892765396
 21
2287.49426917448
 31
0.0
  0
LINE
  5
18D55
330
18C7A
100
AcDbEntity
  8
部品1
100
AcDbLine
 10
444.9705892765305
 20
2287.49426917448
 30
0.0
 11
416.9705892765305
 21
2287.49426917448
 31
0.0
  0
LINE
  5
18D56
330
18C7A
100
AcDbEntity
  8
部品1
100
AcDbLine
 10
3858.970589276556
 20
2287.494269174608
 30
0.0
 11
3886.970589276556
 21
2287.494269174608
 31
0.0
  0
LINE
  5
18D57
330
18C7A
100
AcDbEntity
  8
部品1
 48
50.0
100
AcDbLine
 10
2151.970589276551
 20
2702.494269174586
 30
0.0
 11
2151.970589276581
 21
1448.994269174494
 31
0.0
  0
LINE
  5
18D58
330
18C7A
100
AcDbEntity
  8
破線
 48
10.0
100
AcDbLine
 10
2959.470589276535
 20
1472.494269174522
 30
0.0
 11
2176.970589276532
 21
1472.494269174505
 31
0.0
  0
LINE
  5
18D59
330
18C7A
100
AcDbEntity
  8
破線
 48
10.0
100
AcDbLine
 10
3009.47058927653
 20
1448.994269174509
 30
0.0
 11
3009.47058927653
 21
2702.494269174615
 31
0.0
  0
LINE
  5
18D5A
330
18C7A
100
AcDbEntity
  8
破線
 48
10.0
100
AcDbLine
 10
2959.470589276535
 20
1448.994269174505
 30
0.0
 11
2959.470589276531
 21
2702.494269174615
 31
0.0
  0
LINE
  5
18D5B
330
18C7A
100
AcDbEntity
  8
破線
 48
10.0
100
AcDbLine
 10
1344.47058927653
 20
1448.994269174509
 30
0.0
 11
1344.47058927653
 21
2702.494269174615
 31
0.0
  0
LINE
  5
18D5C
330
18C7A
100
AcDbEntity
  8
破線
 48
10.0
100
AcDbLine
 10
1294.470589276534
 20
1448.994269174505
 30
0.0
 11
1294.47058927653
 21
2702.494269174615
 31
0.0
  0
DIMENSION
  5
18D5D
330
18C7A
100
AcDbEntity
  8
寸法
100
AcDbDimension
  2
*D13
 10
1451.234916278005
 20
2488.887829538828
 30
0.0
 11
916.0604668248634
 21
2488.887829538828
 31
0.0
 12
-3742.925985830444
 22
-6453.628869860112
 32
0.0
 70
   128
 71
     5
 42
1062.99999999993
  3
INABA_S40G
100
AcDbAlignedDimension
 13
445.4705892765559
 23
2702.494269174505
 33
0.0
 14
1508.470589276486
 24
2702.494269174558
 34
0.0
100
AcDbRotatedDimension
1001
ACAD
1000
DSTYLE
1002
{
1002
}
  0
LINE
  5
18D5E
330
18C7A
100
AcDbEntity
  8
破線
 48
10.0
100
AcDbLine
 10
1294.470589276534
 20
1472.494269174469
 30
0.0
 11
496.9705892765414
 21
1472.494269174476
 31
0.0
  0
LINE
  5
18D5F
330
18C7A
100
AcDbEntity
  8
部品1
100
AcDbLine
 10
3831.970589276556
 20
3182.494269174604
 30
0.0
 11
3831.970589276556
 21
3154.494269174604
 31
0.0
  0
LINE
  5
18D60
330
18C7A
100
AcDbEntity
  8
部品1
100
AcDbLine
 10
3831.970589276556
 20
3182.494269174626
 30
0.0
 11
3831.970589276556
 21
3154.494269174626
 31
0.0
  0
LINE
  5
18D61
330
18C7A
100
AcDbEntity
  8
部品1
100
AcDbLine
 10
3858.970589276556
 20
3127.494269174607
 30
0.0
 11
3886.970589276556
 21
3127.494269174607
 31
0.0
  0
LINE
  5
18D62
330
18C7A
100
AcDbEntity
  8
部品1
100
AcDbLine
 10
3858.970589276556
 20
2707.494269174608
 30
0.0
 11
3886.970589276556
 21
2707.494269174608
 31
0.0
  0
LINE
  5
18D63
330
18C7A
100
AcDbEntity
  8
部品1
100
AcDbLine
 10
3858.470589276556
 20
3152.494269174604
 30
0.0
 11
3858.470589276556
 21
2702.494269174608
 31
0.0
  0
LINE
  5
18D64
330
18C7A
100
AcDbEntity
  8
部品1
100
AcDbLine
 10
3886.970589276533
 20
1447.494269174593
 30
0.0
 11
3886.970589276531
 21
1392.494269174596
 31
0.0
  0
LINE
  5
18D65
330
18C7A
100
AcDbEntity
  8
部品1
 48
50.0
100
AcDbLine
 10
3830.470589276556
 20
1448.994269174596
 30
0.0
 11
3858.970589276554
 21
1420.494269174596
 31
0.0
  0
LINE
  5
18D66
330
18C7A
100
AcDbEntity
  8
部品1
100
AcDbLine
 10
3886.970589276531
 20
1392.494269174596
 30
0.0
 11
3835.970589276531
 21
1392.494269174596
 31
0.0
  0
LINE
  5
18D67
330
18C7A
100
AcDbEntity
  8
部品1
100
AcDbLine
 10
3858.970589276533
 20
1447.494269174593
 30
0.0
 11
3886.970589276531
 21
1447.494269174593
 31
0.0
  0
LINE
  5
18D68
330
18C7A
100
AcDbEntity
  8
部品1
100
AcDbLine
 10
3886.970589276556
 20
3182.494269174604
 30
0.0
 11
3886.970589276531
 21
1392.494269174596
 31
0.0
  0
DIMENSION
  5
18D69
330
18C7A
100
AcDbEntity
  8
寸法
100
AcDbDimension
  2
*D12
 10
4534.396935010967
 20
1447.494269174593
 30
0.0
 11
4534.396935010965
 21
2287.4942691746
 31
0.0
 12
-3742.925985830444
 22
-6453.628869860112
 32
0.0
 70
   128
  1
4X420=<>
 71
     5
 42
1680.000000000014
  3
INABA_S40G
100
AcDbAlignedDimension
 13
3886.970589276556
 23
3127.494269174607
 33
0.0
 14
3886.970589276531
 24
1447.494269174593
 34
0.0
 50
90.0
100
AcDbRotatedDimension
1001
ACAD
1000
DSTYLE
1002
{
1002
}
  0
LINE
  5
18D6A
330
18C7A
100
AcDbEntity
  8
部品1
100
AcDbLine
 10
3858.970589276556
 20
3154.494269174604
 30
0.0
 11
3858.970589276534
 21
1420.494269174596
 31
0.0
  0
DIMENSION
  5
18D6B
330
18C7A
100
AcDbEntity
  8
寸法
100
AcDbDimension
  2
*D11
 10
4213.82831513858
 20
2607.276453505718
 30
0.0
 11
4113.828315138579
 21
2832.276453505718
 31
0.0
 12
-3742.925985830444
 22
-6453.628869860112
 32
0.0
 71
     5
 42
449.9999999999963
  3
INABA_S40G
100
AcDbAlignedDimension
 13
3858.470589276556
 23
3152.494269174604
 33
0.0
 14
3858.470589276556
 24
2702.494269174608
 34
0.0
 50
90.0
100
AcDbRotatedDimension
1001
ACAD
1000
DSTYLE
1002
{
1002
}
  0
LINE
  5
18D6C
330
18C7A
100
AcDbEntity
  8
部品1
100
AcDbLine
 10
3830.470589276547
 20
2702.494269174608
 30
0.0
 11
3830.470589276556
 21
1448.994269174596
 31
0.0
  0
LINE
  5
18D6D
330
18C7A
100
AcDbEntity
  8
破線
 48
10.0
100
AcDbLine
 10
3806.970589276549
 20
2702.494269174608
 30
0.0
 11
3806.970589276558
 21
1472.494269174593
 31
0.0
  0
LINE
  5
18D6E
330
18C7A
100
AcDbEntity
  8
部品1
100
AcDbLine
 10
2769.470589276556
 20
3146.494269174608
 30
0.0
 11
2794.470589276556
 21
3146.494269174611
 31
0.0
  0
LINE
  5
18D6F
330
18C7A
100
AcDbEntity
  8
部品1
100
AcDbLine
 10
2810.970589276556
 20
3172.494269174611
 30
0.0
 11
2816.970589276556
 21
3172.494269174611
 31
0.0
  0
LINE
  5
18D70
330
18C7A
100
AcDbEntity
  8
部品1
100
AcDbLine
 10
2816.970589276556
 20
3172.494269174611
 30
0.0
 11
2816.970589276556
 21
3154.494269174611
 31
0.0
  0
LINE
  5
18D71
330
18C7A
100
AcDbEntity
  8
部品1
100
AcDbLine
 10
2746.970589276556
 20
3172.494269174611
 30
0.0
 11
2752.970589276556
 21
3172.494269174611
 31
0.0
  0
LINE
  5
18D72
330
18C7A
100
AcDbEntity
  8
部品1
100
AcDbLine
 10
2746.970589276556
 20
3172.494269174611
 30
0.0
 11
2746.970589276556
 21
3154.494269174611
 31
0.0
  0
LINE
  5
18D73
330
18C7A
100
AcDbEntity
  8
部品1
100
AcDbLine
 10
2769.470589276556
 20
2702.494269174615
 30
0.0
 11
2794.470589276556
 21
2702.494269174615
 31
0.0
  0
LINE
  5
18D74
330
18C7A
100
AcDbEntity
  8
部品1
 48
50.0
100
AcDbLine
 10
2794.470589276556
 20
3154.494269174615
 30
0.0
 11
2794.470589276556
 21
2702.494269174615
 31
0.0
  0
LINE
  5
18D75
330
18C7A
100
AcDbEntity
  8
部品1
 48
50.0
100
AcDbLine
 10
2769.470589276554
 20
3154.494269174618
 30
0.0
 11
2769.470589276556
 21
2702.494269174615
 31
0.0
  0
LINE
  5
18D76
330
18C7A
100
AcDbEntity
  8
部品1
 48
50.0
100
AcDbLine
 10
2795.470589276556
 20
3152.494269174607
 30
0.0
 11
2795.470589276556
 21
2702.494269174615
 31
0.0
  0
LINE
  5
18D77
330
18C7A
100
AcDbEntity
  8
部品1
 48
50.0
100
AcDbLine
 10
2767.470589276556
 20
3152.494269174611
 30
0.0
 11
2767.470589276556
 21
2702.494269174615
 31
0.0
  0
LINE
  5
18D78
330
18C7A
100
AcDbEntity
  8
破線
 48
10.0
100
AcDbLine
 10
2176.97058927653
 20
1448.994269174509
 30
0.0
 11
2176.97058927653
 21
2702.494269174588
 31
0.0
  0
LINE
  5
18D79
330
18C7A
100
AcDbEntity
  8
破線
 48
10.0
100
AcDbLine
 10
2126.970589276534
 20
1448.994269174505
 30
0.0
 11
2126.970589276531
 21
2702.494269174586
 31
0.0
  0
LINE
  5
18D7A
330
18C7A
100
AcDbEntity
  8
部品1
100
AcDbLine
 10
2794.470589276556
 20
3154.494269174622
 30
0.0
 11
3858.970589276556
 21
3154.494269174604
 31
0.0
  0
LINE
  5
18D7B
330
18C7A
100
AcDbEntity
  8
細線
 48
50.0
100
AcDbLine
 10
3858.470589276556
 20
2702.494269174608
 30
0.0
 11
2795.470589276556
 21
3152.494269174607
 31
0.0
  0
LINE
  5
18D7C
330
18C7A
100
AcDbEntity
  8
部品1
100
AcDbLine
 10
2795.470589276555
 20
2702.494269174615
 30
0.0
 11
3858.470589276556
 21
2702.494269174608
 31
0.0
  0
LINE
  5
18D7D
330
18C7A
100
AcDbEntity
  8
部品1
100
AcDbLine
 10
2795.470589276556
 20
3152.494269174611
 30
0.0
 11
3858.470589276556
 21
3152.494269174604
 31
0.0
  0
LINE
  5
18D7E
330
18C7A
100
AcDbEntity
  8
細線
 48
50.0
100
AcDbLine
 10
3858.470589276556
 20
3152.494269174604
 30
0.0
 11
2795.470589276555
 21
2702.494269174615
 31
0.0
  0
DIMENSION
  5
18D7F
330
18C7A
100
AcDbEntity
  8
寸法
100
AcDbDimension
  2
*D10
 10
3801.234916278101
 20
2488.887829538937
 30
0.0
 11
3318.360544398907
 21
2488.887829538937
 31
0.0
 12
-3742.925985830444
 22
-6453.628869860112
 32
0.0
 70
   128
 71
     5
 42
1063.000000000012
  3
INABA_S40G
100
AcDbAlignedDimension
 13
2795.470589276555
 23
2702.494269174615
 33
0.0
 14
3858.470589276567
 24
2702.494269174608
 34
0.0
100
AcDbRotatedDimension
1001
ACAD
1000
DSTYLE
1002
{
1002
}
  0
LINE
  5
18D80
330
18C7A
100
AcDbEntity
  8
破線
 48
10.0
100
AcDbLine
 10
3806.970589276556
 20
1472.494269174594
 30
0.0
 11
3009.47058927653
 21
1472.494269174523
 31
0.0
  0
DIMENSION
  5
18D81
330
18C7A
100
AcDbEntity
  8
寸法
100
AcDbDimension
  2
*D9
 10
4534.396935010941
 20
1392.494269174596
 30
0.0
 11
4534.39693501094
 21
1084.008987800356
 31
0.0
 12
-3742.925985830444
 22
-6453.628869860112
 32
0.0
 70
   128
 71
     5
 42
54.99999999999636
  3
INABA_S40G
100
AcDbAlignedDimension
 13
3886.970589276531
 23
1447.494269174593
 33
0.0
 14
3886.970589276531
 24
1392.494269174596
 34
0.0
 50
90.0
100
AcDbRotatedDimension
1001
ACAD
1000
DSTYLE
1002
{
1002
}
  0
LINE
  5
18D82
330
18C7A
100
AcDbEntity
  8
部品1
100
AcDbLine
 10
471.9705892765196
 20
3182.494269174477
 30
0.0
 11
471.9705892765232
 21
3154.494269174477
 31
0.0
  0
LINE
  5
18D83
330
18C7A
100
AcDbEntity
  8
部品1
100
AcDbLine
 10
471.9705892765559
 20
3182.494269174509
 30
0.0
 11
471.9705892765559
 21
3154.494269174509
 31
0.0
  0
LINE
  5
18D84
330
18C7A
100
AcDbEntity
  8
部品1
100
AcDbLine
 10
444.9705892765232
 20
3127.49426917448
 30
0.0
 11
416.9705892765232
 21
3127.49426917448
 31
0.0
  0
LINE
  5
18D85
330
18C7A
100
AcDbEntity
  8
部品1
100
AcDbLine
 10
444.9705892765305
 20
2707.49426917448
 30
0.0
 11
416.9705892765305
 21
2707.49426917448
 31
0.0
  0
LINE
  5
18D86
330
18C7A
100
AcDbEntity
  8
部品1
 48
50.0
100
AcDbLine
 10
445.4705892765542
 20
3152.494269174506
 30
0.0
 11
445.4705892765559
 21
2702.494269174505
 31
0.0
  0
LINE
  5
18D87
330
18C7A
100
AcDbEntity
  8
部品1
 48
50.0
100
AcDbLine
 10
473.470589276545
 20
1448.994269174573
 30
0.0
 11
444.970589276545
 21
1420.494269174574
 31
0.0
  0
LINE
  5
18D88
330
18C7A
100
AcDbEntity
  8
部品1
100
AcDbLine
 10
471.9705892765232
 20
1392.494269174465
 30
0.0
 11
416.9705892765486
 21
1392.494269174465
 31
0.0
  0
LINE
  5
18D89
330
18C7A
100
AcDbEntity
  8
部品1
100
AcDbLine
 10
444.9705892765305
 20
1447.494269174429
 30
0.0
 11
416.9705892765469
 21
1447.494269174429
 31
0.0
  0
LINE
  5
18D8A
330
18C7A
100
AcDbEntity
  8
部品1
100
AcDbLine
 10
444.9705892765305
 20
1447.494269174465
 30
0.0
 11
416.9705892765469
 21
1447.494269174465
 31
0.0
  0
LINE
  5
18D8B
330
18C7A
100
AcDbEntity
  8
部品1
100
AcDbLine
 10
444.9705892765469
 20
1447.49426917448
 30
0.0
 11
416.9705892765469
 21
1447.49426917448
 31
0.0
  0
LINE
  5
18D8C
330
18C7A
100
AcDbEntity
  8
部品1
100
AcDbLine
 10
416.9705892765469
 20
1447.494269174429
 30
0.0
 11
416.9705892765486
 21
1392.494269174433
 31
0.0
  0
LINE
  5
18D8D
330
18C7A
100
AcDbEntity
  8
部品1
100
AcDbLine
 10
416.9705892765196
 20
3182.494269174477
 30
0.0
 11
416.9705892765486
 21
1392.494269174465
 31
0.0
  0
LINE
  5
18D8E
330
18C7A
100
AcDbEntity
  8
部品1
100
AcDbLine
 10
444.9705892765305
 20
1420.494269174556
 30
0.0
 11
444.9705892765559
 21
3154.494269174509
 31
0.0
  0
LINE
  5
18D8F
330
18C7A
100
AcDbEntity
  8
部品1
100
AcDbLine
 10
473.4705892765323
 20
2702.494269174608
 30
0.0
 11
473.470589276545
 21
1448.994269174571
 31
0.0
  0
LINE
  5
18D90
330
18C7A
100
AcDbEntity
  8
破線
 48
10.0
100
AcDbLine
 10
496.9705892765305
 20
2702.494269174608
 30
0.0
 11
496.9705892765451
 21
1472.494269174476
 31
0.0
  0
DIMENSION
  5
18D91
330
18C7A
100
AcDbEntity
  8
寸法
100
AcDbDimension
  2
*D8
 10
3886.970589276531
 20
410.7433333855515
 30
0.0
 11
2168.197775309287
 21
410.7433333855515
 31
0.0
 12
-3742.925985830444
 22
-6453.628869860112
 32
0.0
 70
   128
 71
     5
 42
3469.999999999982
  3
INABA_S40G
100
AcDbAlignedDimension
 13
416.9705892765486
 23
1392.494269174433
 33
0.0
 14
3886.970589276531
 24
1392.49426917456
 34
0.0
100
AcDbRotatedDimension
1001
ACAD
1000
DSTYLE
1002
{
1070
   341
1005
0
1002
}
  0
LINE
  5
18D92
330
18C7A
100
AcDbEntity
  8
部品1
100
AcDbLine
 10
444.9705892765559
 20
3154.494269174624
 30
0.0
 11
1509.470589276487
 21
3154.494269174626
 31
0.0
  0
LINE
  5
18D93
330
18C7A
100
AcDbEntity
  8
部品1
100
AcDbLine
 10
3886.970589276531
 20
1392.494269174596
 30
0.0
 11
3411.970589276556
 21
1392.494269174582
 31
0.0
  0
LINE
  5
18D94
330
18C7A
100
AcDbEntity
  8
部品1
100
AcDbLine
 10
416.9705892765559
 20
3182.494269174509
 30
0.0
 11
3886.970589276556
 21
3182.494269174604
 31
0.0
  0
LINE
  5
18D95
330
18C7A
100
AcDbEntity
  8
部品1
100
AcDbLine
 10
445.4705892765559
 20
2702.494269174509
 30
0.0
 11
1508.470589276487
 21
2702.494269174558
 31
0.0
  0
LINE
  5
18D96
330
18C7A
100
AcDbEntity
  8
細線
 48
50.0
100
AcDbLine
 10
2767.470589276556
 20
3152.494269174611
 30
0.0
 11
1536.470589276487
 21
2702.494269174558
 31
0.0
  0
LINE
  5
18D97
330
18C7A
100
AcDbEntity
  8
部品1
100
AcDbLine
 10
445.4705892765542
 20
3152.494269174509
 30
0.0
 11
1508.470589276485
 21
3152.494269174558
 31
0.0
  0
LINE
  5
18D98
330
18C7A
100
AcDbEntity
  8
細線
 48
50.0
100
AcDbLine
 10
2767.470589276554
 20
2702.494269174615
 30
0.0
 11
1536.470589276485
 21
3152.494269174558
 31
0.0
  0
LINE
  5
18D99
330
18C7A
100
AcDbEntity
  8
破線
 48
10.0
100
AcDbLine
 10
2126.970589276534
 20
1472.494269174502
 30
0.0
 11
1344.47058927653
 21
1472.494269174473
 31
0.0
  0
LINE
  5
18D9A
330
18C7A
100
AcDbEntity
  8
部品1
100
AcDbLine
 10
3830.470589276556
 20
1448.994269174596
 30
0.0
 11
473.4705892764487
 21
1448.994269174476
 31
0.0
  0
DIMENSION
  5
18D9B
330
18C7A
100
AcDbEntity
  8
寸法
100
AcDbDimension
  2
*D7
 10
471.970589276555
 20
3698.302488799491
 30
0.0
 11
108.4853079022819
 21
3698.302488799491
 31
0.0
 12
-3742.925985830444
 22
-6453.628869860112
 32
0.0
 70
   128
 71
     5
 42
55.00000000003456
  3
INABA_S40G
100
AcDbAlignedDimension
 13
416.9705892765205
 23
3182.494269174509
 33
0.0
 14
471.970589276555
 24
3182.494269174509
 34
0.0
100
AcDbRotatedDimension
1001
ACAD
1000
DSTYLE
1002
{
1002
}
  0
DIMENSION
  5
18D9C
330
18C7A
100
AcDbEntity
  8
寸法
100
AcDbDimension
  2
*D6
 10
4534.396935010967
 20
3127.494269174607
 30
0.0
 11
4534.396935010965
 21
3490.979550548844
 31
0.0
 12
-3742.925985830444
 22
-6453.628869860112
 32
0.0
 70
   128
 71
     5
 42
54.99999999999636
  3
INABA_S40G
100
AcDbAlignedDimension
 13
3886.970589276556
 23
3182.494269174604
 33
0.0
 14
3886.970589276556
 24
3127.494269174607
 34
0.0
 50
90.0
100
AcDbRotatedDimension
1001
ACAD
1000
DSTYLE
1002
{
1002
}
  0
DIMENSION
  5
18D9D
330
18C7A
100
AcDbEntity
  8
寸法
100
AcDbDimension
  2
*D5
 10
3886.970589276556
 20
3698.302488799589
 30
0.0
 11
4195.455870650794
 21
3698.302488799589
 31
0.0
 12
-3742.925985830444
 22
-6453.628869860112
 32
0.0
 70
   128
 71
     5
 42
55.0
  3
INABA_S40G
100
AcDbAlignedDimension
 13
3831.970589276556
 23
3182.494269174604
 33
0.0
 14
3886.970589276556
 24
3182.494269174604
 34
0.0
100
AcDbRotatedDimension
1001
ACAD
1000
DSTYLE
1002
{
1002
}
  0
DIMENSION
  5
18D9E
330
18C7A
100
AcDbEntity
  8
寸法
100
AcDbDimension
  2
*D4
 10
3831.970589276556
 20
3698.302488799607
 30
0.0
 11
2151.970589276555
 21
3698.302488799607
 31
0.0
 12
-3742.925985830444
 22
-6453.628869860112
 32
0.0
 70
   128
  1
8X420=<>
 71
     5
 42
3360.000000000001
  3
INABA_S40G
100
AcDbAlignedDimension
 13
471.970589276555
 23
3182.494269174509
 33
0.0
 14
3831.970589276556
 24
3182.494269174604
 34
0.0
100
AcDbRotatedDimension
1001
ACAD
1000
DSTYLE
1002
{
1002
}
  0
DIMENSION
  5
18D9F
330
18C7A
100
AcDbEntity
  8
寸法
100
AcDbDimension
  2
*D3
 10
4899.503876750603
 20
1392.494269174596
 30
0.0
 11
4899.503876750601
 21
2287.4942691746
 31
0.0
 12
-3742.925985830444
 22
-6453.628869860112
 32
0.0
 70
   128
 71
     5
 42
1790.000000000007
  3
INABA_S40G
100
AcDbAlignedDimension
 13
3886.970589276556
 23
3182.494269174604
 33
0.0
 14
3886.970589276531
 24
1392.494269174596
 34
0.0
 50
90.0
100
AcDbRotatedDimension
1001
ACAD
1000
DSTYLE
1002
{
1002
}
  0
ENDBLK
  5
18DA1
330
18C7A
100
AcDbEntity
  8
0
 48
50.0
100
AcDbBlockEnd
  0
BLOCK
  5
1C4CB
330
1C4CA
100
AcDbEntity
  8
0
 48
50.0
100
AcDbBlockBegin
  2
_NONE
 70
     0
 10
0.0
 20
0.0
 30
0.0
  3
_NONE
  1

  0
CIRCLE
  5
1C4CC
330
1C4CA
100
AcDbEntity
  8
0
  6
ByBlock
 62
     0
 48
50.0
100
AcDbCircle
 10
0.0
 20
0.0
 30
0.0
 40
0.25
  0
ENDBLK
  5
1C4CD
330
1C4CA
100
AcDbEntity
  8
0
 48
50.0
100
AcDbBlockEnd
  0
BLOCK
  5
20DEE
330
20DE2
100
AcDbEntity
  8
0
 48
50.0
100
AcDbBlockBegin
  2
*D19
 70
     1
 10
0.0
 20
0.0
 30
0.0
  3
*D19
  1

  0
LINE
  5
24745
330
20DE2
100
AcDbEntity
  8
寸法
 62
     0
 48
50.0
370
    -2
100
AcDbLine
 10
10278.6
 20
7597.776473043994
 30
0.0
 11
10278.6
 21
8595.996795102916
 31
0.0
  0
LINE
  5
24746
330
20DE2
100
AcDbEntity
  8
寸法
 62
     0
 48
50.0
370
    -2
100
AcDbLine
 10
10323.6
 20
8324.042931137904
 30
0.0
 11
10323.6
 21
8595.996795102916
 31
0.0
  0
LINE
  5
24747
330
20DE2
100
AcDbEntity
  8
寸法
 62
     0
 48
50.0
370
    -2
100
AcDbLine
 10
10278.6
 20
8535.996795102915
 30
0.0
 11
10178.6
 21
8535.996795102915
 31
0.0
  0
LINE
  5
24748
330
20DE2
100
AcDbEntity
  8
寸法
 62
     0
 48
50.0
370
    -2
100
AcDbLine
 10
10323.6
 20
8535.996795102915
 30
0.0
 11
10660.94924240492
 21
8535.996795102915
 31
0.0
  0
LINE
  5
24749
330
20DE2
100
AcDbEntity
  8
寸法
 62
     0
 48
50.0
370
    -2
100
AcDbLine
 10
10278.6
 20
8535.996795102915
 30
0.0
 11
10323.6
 21
8535.996795102915
 31
0.0
  0
INSERT
  5
2474A
330
20DE2
100
AcDbEntity
  8
寸法
 62
     0
 48
50.0
370
    -2
100
AcDbBlockReference
  2
_DOTSMALL
 10
10278.6
 20
8535.996795102915
 30
0.0
 41
100.0
 42
100.0
 43
100.0
  0
INSERT
  5
2474B
330
20DE2
100
AcDbEntity
  8
寸法
 62
     0
 48
50.0
370
    -2
100
AcDbBlockReference
  2
_DOTSMALL
 10
10323.6
 20
8535.996795102915
 30
0.0
 41
100.0
 42
100.0
 43
100.0
 50
180.0
  0
MTEXT
  5
2474C
330
20DE2
100
AcDbEntity
  8
寸法
 62
     7
 48
50.0
100
AcDbMText
 10
10594.77462120246
 20
8635.996795102917
 30
0.0
 40
120.0
 41
0.0
 71
     5
 72
     1
  1
\A1;a
  7
STYLE1
 73
     1
 44
1.0
1001
ACAD
1000
MTEXTBEGIN
1070
    73
1070
     1
1070
    44
1040
1.0
1070
    74
1070
     0
1000
MTEXTEND
  0
POINT
  5
2474D
330
20DE2
100
AcDbEntity
  8
DEFPOINTS
 62
     0
 48
50.0
100
AcDbPoint
 10
10278.6
 20
7577.776473043994
 30
0.0
  0
POINT
  5
2474E
330
20DE2
100
AcDbEntity
  8
DEFPOINTS
 62
     0
 48
50.0
100
AcDbPoint
 10
10323.6
 20
8304.042931137905
 30
0.0
  0
POINT
  5
2474F
330
20DE2
100
AcDbEntity
  8
DEFPOINTS
 62
     0
 48
50.0
100
AcDbPoint
 10
10323.6
 20
8535.996795102915
 30
0.0
  0
ENDBLK
  5
20DEF
330
20DE2
100
AcDbEntity
  8
0
 48
50.0
100
AcDbBlockEnd
  0
BLOCK
  5
20E08
330
20DFC
100
AcDbEntity
  8
0
 48
50.0
100
AcDbBlockBegin
  2
*D20
 70
     1
 10
0.0
 20
0.0
 30
0.0
  3
*D20
  1

  0
LINE
  5
2471C
330
20DFC
100
AcDbEntity
  8
寸法
 62
     0
 48
50.0
370
    -2
100
AcDbLine
 10
6123.600000000004
 20
8324.04293113792
 30
0.0
 11
6123.600000000004
 21
8595.996795102928
 31
0.0
  0
LINE
  5
2471D
330
20DFC
100
AcDbEntity
  8
寸法
 62
     0
 48
50.0
370
    -2
100
AcDbLine
 10
6168.600000000001
 20
7597.776473044007
 30
0.0
 11
6168.600000000001
 21
8595.996795102928
 31
0.0
  0
LINE
  5
2471E
330
20DFC
100
AcDbEntity
  8
寸法
 62
     0
 48
50.0
370
    -2
100
AcDbLine
 10
6168.600000000001
 20
8535.99679510293
 30
0.0
 11
6268.600000000001
 21
8535.99679510293
 31
0.0
  0
LINE
  5
2471F
330
20DFC
100
AcDbEntity
  8
寸法
 62
     0
 48
50.0
370
    -2
100
AcDbLine
 10
6123.600000000004
 20
8535.99679510293
 30
0.0
 11
5786.250757595083
 21
8535.99679510293
 31
0.0
  0
LINE
  5
24720
330
20DFC
100
AcDbEntity
  8
寸法
 62
     0
 48
50.0
370
    -2
100
AcDbLine
 10
6168.600000000001
 20
8535.99679510293
 30
0.0
 11
6123.600000000004
 21
8535.99679510293
 31
0.0
  0
INSERT
  5
24721
330
20DFC
100
AcDbEntity
  8
寸法
 62
     0
 48
50.0
370
    -2
100
AcDbBlockReference
  2
_DOTSMALL
 10
6168.600000000001
 20
8535.99679510293
 30
0.0
 41
100.0
 42
100.0
 43
100.0
 50
180.0
  0
INSERT
  5
24722
330
20DFC
100
AcDbEntity
  8
寸法
 62
     0
 48
50.0
370
    -2
100
AcDbBlockReference
  2
_DOTSMALL
 10
6123.600000000004
 20
8535.99679510293
 30
0.0
 41
100.0
 42
100.0
 43
100.0
  0
MTEXT
  5
24723
330
20DFC
100
AcDbEntity
  8
寸法
 62
     7
 48
50.0
100
AcDbMText
 10
5852.425378797541
 20
8635.996795102929
 30
0.0
 40
120.0
 41
0.0
 71
     5
 72
     1
  1
\A1;a
  7
STYLE1
 73
     1
 44
1.0
1001
ACAD
1000
MTEXTBEGIN
1070
    73
1070
     1
1070
    44
1040
1.0
1070
    74
1070
     0
1000
MTEXTEND
  0
POINT
  5
24724
330
20DFC
100
AcDbEntity
  8
DEFPOINTS
 62
     0
 48
50.0
100
AcDbPoint
 10
6123.600000000004
 20
8304.042931137919
 30
0.0
  0
POINT
  5
24725
330
20DFC
100
AcDbEntity
  8
DEFPOINTS
 62
     0
 48
50.0
100
AcDbPoint
 10
6168.600000000001
 20
7577.776473044007
 30
0.0
  0
POINT
  5
24726
330
20DFC
100
AcDbEntity
  8
DEFPOINTS
 62
     0
 48
50.0
100
AcDbPoint
 10
6168.600000000001
 20
8535.99679510293
 30
0.0
  0
ENDBLK
  5
20E09
330
20DFC
100
AcDbEntity
  8
0
 48
50.0
100
AcDbBlockEnd
  0
BLOCK
  5
2274E
330
22742
100
AcDbEntity
  8
0
 48
50.0
100
AcDbBlockBegin
  2
*D25
 70
     1
 10
0.0
 20
0.0
 30
0.0
  3
*D25
  1

  0
LINE
  5
24706
330
22742
100
AcDbEntity
  8
寸法
 62
     0
 48
50.0
370
    -2
100
AcDbLine
 10
5525.665006330071
 20
7652.776473044025
 30
0.0
 11
5233.721909610675
 21
7652.776473044025
 31
0.0
  0
LINE
  5
24707
330
22742
100
AcDbEntity
  8
寸法
 62
     0
 48
50.0
370
    -2
100
AcDbLine
 10
6148.6
 20
7577.776473044007
 30
0.0
 11
5233.721909610675
 21
7577.776473044008
 31
0.0
  0
LINE
  5
24708
330
22742
100
AcDbEntity
  8
寸法
 62
     0
 48
50.0
370
    -2
100
AcDbLine
 10
5293.721909610674
 20
7652.776473044025
 30
0.0
 11
5293.721909610674
 21
7752.776473044026
 31
0.0
  0
LINE
  5
24709
330
22742
100
AcDbEntity
  8
寸法
 62
     0
 48
50.0
370
    -2
100
AcDbLine
 10
5293.721909610674
 20
7577.776473044008
 30
0.0
 11
5293.721909610674
 21
7477.776473044008
 31
0.0
  0
LINE
  5
2470A
330
22742
100
AcDbEntity
  8
寸法
 62
     0
 48
50.0
370
    -2
100
AcDbLine
 10
5293.721909610674
 20
7652.776473044025
 30
0.0
 11
5293.721909610674
 21
7577.776473044008
 31
0.0
  0
INSERT
  5
2470B
330
22742
100
AcDbEntity
  8
寸法
 62
     0
 48
50.0
370
    -2
100
AcDbBlockReference
  2
_DOTSMALL
 10
5293.721909610674
 20
7652.776473044025
 30
0.0
 41
100.0
 42
100.0
 43
100.0
 50
270.0
  0
INSERT
  5
2470C
330
22742
100
AcDbEntity
  8
寸法
 62
     0
 48
50.0
370
    -2
100
AcDbBlockReference
  2
_DOTSMALL
 10
5293.721909610674
 20
7577.776473044008
 30
0.0
 41
100.0
 42
100.0
 43
100.0
 50
90.0
  0
MTEXT
  5
2470D
330
22742
100
AcDbEntity
  8
寸法
 62
     7
 48
50.0
100
AcDbMText
 10
5193.721909610673
 20
7615.276473044018
 30
0.0
 40
120.0
 41
0.0
 71
     5
 72
     1
  1
\A1;c
  7
STYLE1
 11
0.0000000000000001
 21
1.0
 31
0.0
 73
     1
 44
1.0
1001
ACAD
1000
MTEXTBEGIN
1070
    73
1070
     1
1070
    44
1040
1.0
1070
    74
1070
     0
1000
MTEXTEND
  0
POINT
  5
2470E
330
22742
100
AcDbEntity
  8
DEFPOINTS
 62
     0
 48
50.0
100
AcDbPoint
 10
5545.665006330072
 20
7652.776473044025
 30
0.0
  0
POINT
  5
2470F
330
22742
100
AcDbEntity
  8
DEFPOINTS
 62
     0
 48
50.0
100
AcDbPoint
 10
6168.600000000001
 20
7577.776473044007
 30
0.0
  0
POINT
  5
24710
330
22742
100
AcDbEntity
  8
DEFPOINTS
 62
     0
 48
50.0
100
AcDbPoint
 10
5293.721909610674
 20
7577.776473044008
 30
0.0
  0
ENDBLK
  5
2274F
330
22742
100
AcDbEntity
  8
0
 48
50.0
100
AcDbBlockEnd
  0
BLOCK
  5
22768
330
2275C
100
AcDbEntity
  8
0
 48
50.0
100
AcDbBlockBegin
  2
*D26
 70
     1
 10
0.0
 20
0.0
 30
0.0
  3
*D26
  1

  0
LINE
  5
24711
330
2275C
100
AcDbEntity
  8
寸法
 62
     0
 48
50.0
370
    -2
100
AcDbLine
 10
6148.6
 20
6197.776473043992
 30
0.0
 11
5233.721909610675
 21
6197.776473043993
 31
0.0
  0
LINE
  5
24712
330
2275C
100
AcDbEntity
  8
寸法
 62
     0
 48
50.0
370
    -2
100
AcDbLine
 10
5525.665006330073
 20
6142.776473044033
 30
0.0
 11
5233.721909610675
 21
6142.776473044033
 31
0.0
  0
LINE
  5
24713
330
2275C
100
AcDbEntity
  8
寸法
 62
     0
 48
50.0
370
    -2
100
AcDbLine
 10
5293.721909610676
 20
6197.776473043993
 30
0.0
 11
5293.721909610676
 21
6297.776473043993
 31
0.0
  0
LINE
  5
24714
330
2275C
100
AcDbEntity
  8
寸法
 62
     0
 48
50.0
370
    -2
100
AcDbLine
 10
5293.721909610674
 20
6142.776473044033
 30
0.0
 11
5293.721909610674
 21
6042.776473044033
 31
0.0
  0
LINE
  5
24715
330
2275C
100
AcDbEntity
  8
寸法
 62
     0
 48
50.0
370
    -2
100
AcDbLine
 10
5293.721909610676
 20
6197.776473043993
 30
0.0
 11
5293.721909610674
 21
6142.776473044033
 31
0.0
  0
INSERT
  5
24716
330
2275C
100
AcDbEntity
  8
寸法
 62
     0
 48
50.0
370
    -2
100
AcDbBlockReference
  2
_DOTSMALL
 10
5293.721909610676
 20
6197.776473043993
 30
0.0
 41
100.0
 42
100.0
 43
100.0
 50
270.0
  0
INSERT
  5
24717
330
2275C
100
AcDbEntity
  8
寸法
 62
     0
 48
50.0
370
    -2
100
AcDbBlockReference
  2
_DOTSMALL
 10
5293.721909610674
 20
6142.776473044033
 30
0.0
 41
100.0
 42
100.0
 43
100.0
 50
90.0
  0
MTEXT
  5
24718
330
2275C
100
AcDbEntity
  8
寸法
 62
     7
 48
50.0
100
AcDbMText
 10
5193.721909610673
 20
6170.276473044014
 30
0.0
 40
120.0
 41
0.0
 71
     5
 72
     1
  1
\A1;b
  7
STYLE1
 11
0.0000000000000001
 21
1.0
 31
0.0
 73
     1
 44
1.0
1001
ACAD
1000
MTEXTBEGIN
1070
    73
1070
     1
1070
    44
1040
1.0
1070
    74
1070
     0
1000
MTEXTEND
  0
POINT
  5
24719
330
2275C
100
AcDbEntity
  8
DEFPOINTS
 62
     0
 48
50.0
100
AcDbPoint
 10
6168.600000000001
 20
6197.776473043992
 30
0.0
  0
POINT
  5
2471A
330
2275C
100
AcDbEntity
  8
DEFPOINTS
 62
     0
 48
50.0
100
AcDbPoint
 10
5545.665006330073
 20
6142.776473044033
 30
0.0
  0
POINT
  5
2471B
330
2275C
100
AcDbEntity
  8
DEFPOINTS
 62
     0
 48
50.0
100
AcDbPoint
 10
5293.721909610674
 20
6142.776473044033
 30
0.0
  0
ENDBLK
  5
22769
330
2275C
100
AcDbEntity
  8
0
 48
50.0
100
AcDbBlockEnd
  0
BLOCK
  5
22B08
330
22AFD
100
AcDbEntity
  8
0
 48
50.0
100
AcDbBlockBegin
  2
*D27
 70
     1
 10
0.0
 20
0.0
 30
0.0
  3
*D27
  1

  0
LINE
  5
24BD0
330
22AFD
100
AcDbEntity
  8
寸法
 62
     0
 48
50.0
370
    -2
100
AcDbLine
 10
10278.6
 20
7276.932264355473
 30
0.0
 11
10278.6
 21
7219.939000316641
 31
0.0
  0
LINE
  5
24BD1
330
22AFD
100
AcDbEntity
  8
寸法
 62
     0
 48
50.0
370
    -2
100
AcDbLine
 10
10158.6
 20
7299.939000316641
 30
0.0
 11
10158.6
 21
7339.939000316642
 31
0.0
  0
LINE
  5
24BD2
330
22AFD
100
AcDbEntity
  8
寸法
 62
     0
 48
50.0
370
    -2
100
AcDbLine
 10
10158.6
 20
7279.939000316641
 30
0.0
 11
10278.6
 21
7279.939000316641
 31
0.0
  0
LINE
  5
24BD3
330
22AFD
100
AcDbEntity
  8
寸法
 62
     0
 48
50.0
370
    -2
100
AcDbLine
 10
10278.6
 20
7279.939000316641
 30
0.0
 11
10684.7062992126
 21
7279.939000316641
 31
0.0
  0
INSERT
  5
24BD4
330
22AFD
100
AcDbEntity
  8
寸法
 62
     0
 48
50.0
370
    -2
100
AcDbBlockReference
  2
_DOTSMALL
 10
10158.6
 20
7279.939000316641
 30
0.0
 41
100.0
 42
100.0
 43
100.0
 50
180.0
  0
INSERT
  5
24BD5
330
22AFD
100
AcDbEntity
  8
寸法
 62
     0
 48
50.0
370
    -2
100
AcDbBlockReference
  2
_DOTSMALL
 10
10278.6
 20
7279.939000316641
 30
0.0
 41
100.0
 42
100.0
 43
100.0
  0
MTEXT
  5
24BD6
330
22AFD
100
AcDbEntity
  8
寸法
 62
     7
 48
50.0
100
AcDbMText
 10
10548.65905511811
 20
7379.950811340262
 30
0.0
 40
120.0
 41
0.0
 71
     5
 72
     1
  1
\A1;120
  7
STYLE1
 73
     1
 44
1.0
1001
ACAD
1000
MTEXTBEGIN
1070
    73
1070
     1
1070
    44
1040
1.0
1070
    74
1070
     0
1000
MTEXTEND
  0
POINT
  5
24BD7
330
22AFD
100
AcDbEntity
  8
DEFPOINTS
 62
     0
 48
50.0
100
AcDbPoint
 10
10278.6
 20
7296.932264355473
 30
0.0
  0
POINT
  5
24BD8
330
22AFD
100
AcDbEntity
  8
DEFPOINTS
 62
     0
 48
50.0
100
AcDbPoint
 10
10158.6
 20
7279.939000316641
 30
0.0
  0
POINT
  5
24BD9
330
22AFD
100
AcDbEntity
  8
DEFPOINTS
 62
     0
 48
50.0
100
AcDbPoint
 10
10158.6
 20
7279.939000316641
 30
0.0
  0
ENDBLK
  5
22B09
330
22AFD
100
AcDbEntity
  8
0
 48
50.0
100
AcDbBlockEnd
  0
BLOCK
  5
22B15
330
22B0A
100
AcDbEntity
  8
0
 48
50.0
100
AcDbBlockBegin
  2
*D28
 70
     1
 10
0.0
 20
0.0
 30
0.0
  3
*D28
  1

  0
LINE
  5
247AE
330
22B0A
100
AcDbEntity
  8
寸法
 62
     0
 48
50.0
370
    -2
100
AcDbLine
 10
9764.534750000407
 20
6477.776473044009
 30
0.0
 11
9645.46950000081
 21
6477.776473044009
 31
0.0
  0
LINE
  5
247AF
330
22B0A
100
AcDbEntity
  8
寸法
 62
     0
 48
50.0
370
    -2
100
AcDbLine
 10
9764.534750000411
 20
6197.776473044021
 30
0.0
 11
9645.46950000081
 21
6197.776473044021
 31
0.0
  0
LINE
  5
247B0
330
22B0A
100
AcDbEntity
  8
寸法
 62
     0
 48
50.0
370
    -2
100
AcDbLine
 10
9705.469500000811
 20
6477.776473044009
 30
0.0
 11
9705.469500000811
 21
6197.776473044021
 31
0.0
  0
LINE
  5
247B1
330
22B0A
100
AcDbEntity
  8
寸法
 62
     0
 48
50.0
370
    -2
100
AcDbLine
 10
9705.469500000811
 20
6197.776473044021
 30
0.0
 11
9705.469500000811
 21
5761.242024225108
 31
0.0
  0
INSERT
  5
247B2
330
22B0A
100
AcDbEntity
  8
寸法
 62
     0
 48
50.0
370
    -2
100
AcDbBlockReference
  2
_DOTSMALL
 10
9705.469500000811
 20
6477.776473044009
 30
0.0
 41
100.0
 42
100.0
 43
100.0
 50
90.0
  0
INSERT
  5
247B3
330
22B0A
100
AcDbEntity
  8
寸法
 62
     0
 48
50.0
370
    -2
100
AcDbBlockReference
  2
_DOTSMALL
 10
9705.469500000811
 20
6197.776473044021
 30
0.0
 41
100.0
 42
100.0
 43
100.0
 50
270.0
  0
MTEXT
  5
247B4
330
22B0A
100
AcDbEntity
  8
寸法
 62
     7
 48
50.0
100
AcDbMText
 10
9605.457688977187
 20
5910.812890366842
 30
0.0
 40
120.0
 41
0.0
 71
     5
 72
     1
  1
\A1;280
  7
STYLE1
 11
0.0000000000000001
 21
1.0
 31
0.0
 73
     1
 44
1.0
1001
ACAD
1000
MTEXTBEGIN
1070
    73
1070
     1
1070
    44
1040
1.0
1070
    74
1070
     0
1000
MTEXTEND
  0
POINT
  5
247B5
330
22B0A
100
AcDbEntity
  8
DEFPOINTS
 62
     0
 48
50.0
100
AcDbPoint
 10
9784.534750000407
 20
6477.776473044009
 30
0.0
  0
POINT
  5
247B6
330
22B0A
100
AcDbEntity
  8
DEFPOINTS
 62
     0
 48
50.0
100
AcDbPoint
 10
9784.53475000041
 20
6197.776473044021
 30
0.0
  0
POINT
  5
247B7
330
22B0A
100
AcDbEntity
  8
DEFPOINTS
 62
     0
 48
50.0
100
AcDbPoint
 10
9705.469500000811
 20
6197.776473044021
 30
0.0
  0
ENDBLK
  5
22B16
330
22B0A
100
AcDbEntity
  8
0
 48
50.0
100
AcDbBlockEnd
  0
BLOCK
  5
22B22
330
22B17
100
AcDbEntity
  8
0
 48
50.0
100
AcDbBlockBegin
  2
*D29
 70
     1
 10
0.0
 20
0.0
 30
0.0
  3
*D29
  1

  0
LINE
  5
24731
330
22B17
100
AcDbEntity
  8
寸法
 62
     0
 48
50.0
370
    -2
100
AcDbLine
 10
9764.534750000411
 20
7577.776473043989
 30
0.0
 11
9645.46950000081
 21
7577.776473043989
 31
0.0
  0
LINE
  5
24732
330
22B17
100
AcDbEntity
  8
寸法
 62
     0
 48
50.0
370
    -2
100
AcDbLine
 10
9764.534750000411
 20
7377.776473043995
 30
0.0
 11
9645.46950000081
 21
7377.776473043995
 31
0.0
  0
LINE
  5
24733
330
22B17
100
AcDbEntity
  8
寸法
 62
     0
 48
50.0
370
    -2
100
AcDbLine
 10
9705.469500000811
 20
7377.776473043995
 30
0.0
 11
9705.469500000811
 21
7577.776473043989
 31
0.0
  0
LINE
  5
24734
330
22B17
100
AcDbEntity
  8
寸法
 62
     0
 48
50.0
370
    -2
100
AcDbLine
 10
9705.469500000811
 20
7577.776473043989
 30
0.0
 11
9705.469500000811
 21
8014.31092186289
 31
0.0
  0
INSERT
  5
24735
330
22B17
100
AcDbEntity
  8
寸法
 62
     0
 48
50.0
370
    -2
100
AcDbBlockReference
  2
_DOTSMALL
 10
9705.469500000811
 20
7377.776473043995
 30
0.0
 41
100.0
 42
100.0
 43
100.0
 50
270.0
  0
INSERT
  5
24736
330
22B17
100
AcDbEntity
  8
寸法
 62
     0
 48
50.0
370
    -2
100
AcDbBlockReference
  2
_DOTSMALL
 10
9705.469500000811
 20
7577.776473043989
 30
0.0
 41
100.0
 42
100.0
 43
100.0
 50
90.0
  0
MTEXT
  5
24737
330
22B17
100
AcDbEntity
  8
寸法
 62
     7
 48
50.0
100
AcDbMText
 10
9605.457688977187
 20
7864.740055721156
 30
0.0
 40
120.0
 41
0.0
 71
     5
 72
     1
  1
\A1;200
  7
STYLE1
 11
0.0000000000000001
 21
1.0
 31
0.0
 73
     1
 44
1.0
1001
ACAD
1000
MTEXTBEGIN
1070
    73
1070
     1
1070
    44
1040
1.0
1070
    74
1070
     0
1000
MTEXTEND
  0
POINT
  5
24738
330
22B17
100
AcDbEntity
  8
DEFPOINTS
 62
     0
 48
50.0
100
AcDbPoint
 10
9784.53475000041
 20
7577.776473043989
 30
0.0
  0
POINT
  5
24739
330
22B17
100
AcDbEntity
  8
DEFPOINTS
 62
     0
 48
50.0
100
AcDbPoint
 10
9784.53475000041
 20
7377.776473043995
 30
0.0
  0
POINT
  5
2473A
330
22B17
100
AcDbEntity
  8
DEFPOINTS
 62
     0
 48
50.0
100
AcDbPoint
 10
9705.469500000811
 20
7377.776473043995
 30
0.0
  0
ENDBLK
  5
22B23
330
22B17
100
AcDbEntity
  8
0
 48
50.0
100
AcDbBlockEnd
  0
BLOCK
  5
2421A
330
24210
100
AcDbEntity
  8
0
 48
50.0
100
AcDbBlockBegin
  2
*D30
 70
     1
 10
0.0
 20
0.0
 30
0.0
  3
*D30
  1

  0
LINE
  5
246C6
330
24210
100
AcDbEntity
  8
寸法
 62
     0
 48
50.0
370
    -2
100
AcDbLine
 10
10155.6
 20
7524.776473043996
 30
0.0
 11
10155.6
 21
8364.042931137907
 31
0.0
  0
LINE
  5
246C7
330
24210
100
AcDbEntity
  8
寸法
 62
     0
 48
50.0
370
    -2
100
AcDbLine
 10
7695.6
 20
7524.776473043996
 30
0.0
 11
7695.6
 21
8364.042931137907
 31
0.0
  0
LINE
  5
246C8
330
24210
100
AcDbEntity
  8
寸法
 62
     0
 48
50.0
370
    -2
100
AcDbLine
 10
10155.6
 20
8304.042931137907
 30
0.0
 11
7695.6
 21
8304.042931137907
 31
0.0
  0
INSERT
  5
246C9
330
24210
100
AcDbEntity
  8
寸法
 62
     0
 48
50.0
370
    -2
100
AcDbBlockReference
  2
_DOTSMALL
 10
10155.6
 20
8304.042931137907
 30
0.0
 41
100.0
 42
100.0
 43
100.0
  0
INSERT
  5
246CA
330
24210
100
AcDbEntity
  8
寸法
 62
     0
 48
50.0
370
    -2
100
AcDbBlockReference
  2
_DOTSMALL
 10
7695.6
 20
8304.042931137907
 30
0.0
 41
100.0
 42
100.0
 43
100.0
 50
180.0
  0
MTEXT
  5
246CB
330
24210
100
AcDbEntity
  8
寸法
 62
     7
 48
50.0
100
AcDbMText
 10
8925.600000000001
 20
8404.054742161529
 30
0.0
 40
120.0
 41
0.0
 71
     5
 72
     1
  1
\A1;2460
  7
STYLE1
 73
     1
 44
1.0
1001
ACAD
1000
MTEXTBEGIN
1070
    73
1070
     1
1070
    44
1040
1.0
1070
    74
1070
     0
1000
MTEXTEND
  0
POINT
  5
246CC
330
24210
100
AcDbEntity
  8
DEFPOINTS
 62
     0
 48
50.0
100
AcDbPoint
 10
10155.6
 20
7504.776473043996
 30
0.0
  0
POINT
  5
246CD
330
24210
100
AcDbEntity
  8
DEFPOINTS
 62
     0
 48
50.0
100
AcDbPoint
 10
7695.6
 20
7504.776473043996
 30
0.0
  0
POINT
  5
246CE
330
24210
100
AcDbEntity
  8
DEFPOINTS
 62
     0
 48
50.0
100
AcDbPoint
 10
7695.6
 20
8304.042931137907
 30
0.0
  0
ENDBLK
  5
2421B
330
24210
100
AcDbEntity
  8
0
 48
50.0
100
AcDbBlockEnd
  0
BLOCK
  5
24226
330
2421C
100
AcDbEntity
  8
0
 48
50.0
100
AcDbBlockBegin
  2
*D31
 70
     1
 10
0.0
 20
0.0
 30
0.0
  3
*D31
  1

  0
LINE
  5
246BD
330
2421C
100
AcDbEntity
  8
寸法
 62
     0
 48
50.0
370
    -2
100
AcDbLine
 10
6168.600000000001
 20
7597.776473043996
 30
0.0
 11
6168.600000000001
 21
8595.996795102914
 31
0.0
  0
LINE
  5
246BE
330
2421C
100
AcDbEntity
  8
寸法
 62
     0
 48
50.0
370
    -2
100
AcDbLine
 10
10278.6
 20
7597.776473043996
 30
0.0
 11
10278.6
 21
8595.996795102914
 31
0.0
  0
LINE
  5
246BF
330
2421C
100
AcDbEntity
  8
寸法
 62
     0
 48
50.0
370
    -2
100
AcDbLine
 10
6168.600000000001
 20
8535.996795102914
 30
0.0
 11
10278.6
 21
8535.996795102914
 31
0.0
  0
INSERT
  5
246C0
330
2421C
100
AcDbEntity
  8
寸法
 62
     0
 48
50.0
370
    -2
100
AcDbBlockReference
  2
_DOTSMALL
 10
6168.600000000001
 20
8535.996795102914
 30
0.0
 41
100.0
 42
100.0
 43
100.0
 50
180.0
  0
INSERT
  5
246C1
330
2421C
100
AcDbEntity
  8
寸法
 62
     0
 48
50.0
370
    -2
100
AcDbBlockReference
  2
_DOTSMALL
 10
10278.6
 20
8535.996795102914
 30
0.0
 41
100.0
 42
100.0
 43
100.0
  0
MTEXT
  5
246C2
330
2421C
100
AcDbEntity
  8
寸法
 62
     7
 48
50.0
100
AcDbMText
 10
8223.600000000001
 20
8635.996795102913
 30
0.0
 40
120.0
 41
0.0
 71
     5
 72
     1
  1
\A1;4110
  7
STYLE1
 73
     1
 44
1.0
1001
ACAD
1000
MTEXTBEGIN
1070
    73
1070
     1
1070
    44
1040
1.0
1070
    74
1070
     0
1000
MTEXTEND
  0
POINT
  5
246C3
330
2421C
100
AcDbEntity
  8
DEFPOINTS
 62
     0
 48
50.0
100
AcDbPoint
 10
6168.600000000001
 20
7577.776473043996
 30
0.0
  0
POINT
  5
246C4
330
2421C
100
AcDbEntity
  8
DEFPOINTS
 62
     0
 48
50.0
100
AcDbPoint
 10
10278.6
 20
7577.776473043996
 30
0.0
  0
POINT
  5
246C5
330
2421C
100
AcDbEntity
  8
DEFPOINTS
 62
     0
 48
50.0
100
AcDbPoint
 10
10278.6
 20
8535.996795102914
 30
0.0
  0
ENDBLK
  5
24227
330
2421C
100
AcDbEntity
  8
0
 48
50.0
100
AcDbBlockEnd
  0
BLOCK
  5
24232
330
24228
100
AcDbEntity
  8
0
 48
50.0
100
AcDbBlockBegin
  2
*D32
 70
     1
 10
0.0
 20
0.0
 30
0.0
  3
*D32
  1

  0
LINE
  5
24840
330
24228
100
AcDbEntity
  8
寸法
 62
     0
 48
50.0
370
    -2
100
AcDbLine
 10
8633.600000000008
 20
6994.776473043995
 30
0.0
 11
8633.600000000008
 21
8120.385289714244
 31
0.0
  0
LINE
  5
24841
330
24228
100
AcDbEntity
  8
寸法
 62
     0
 48
50.0
370
    -2
100
AcDbLine
 10
7813.600000000008
 20
6994.776473043995
 30
0.0
 11
7813.600000000008
 21
8120.385289714244
 31
0.0
  0
LINE
  5
24842
330
24228
100
AcDbEntity
  8
寸法
 62
     0
 48
50.0
370
    -2
100
AcDbLine
 10
8633.600000000008
 20
8060.385289714245
 30
0.0
 11
7813.600000000008
 21
8060.385289714245
 31
0.0
  0
INSERT
  5
24843
330
24228
100
AcDbEntity
  8
寸法
 62
     0
 48
50.0
370
    -2
100
AcDbBlockReference
  2
_DOTSMALL
 10
8633.600000000008
 20
8060.385289714245
 30
0.0
 41
100.0
 42
100.0
 43
100.0
  0
INSERT
  5
24844
330
24228
100
AcDbEntity
  8
寸法
 62
     0
 48
50.0
370
    -2
100
AcDbBlockReference
  2
_DOTSMALL
 10
7813.600000000008
 20
8060.385289714245
 30
0.0
 41
100.0
 42
100.0
 43
100.0
 50
180.0
  0
MTEXT
  5
24845
330
24228
100
AcDbEntity
  8
寸法
 62
     7
 48
50.0
100
AcDbMText
 10
8223.600000000008
 20
8160.397100737865
 30
0.0
 40
120.0
 41
0.0
 71
     5
 72
     1
  1
\A1;820
  7
STYLE1
 73
     1
 44
1.0
1001
ACAD
1000
MTEXTBEGIN
1070
    73
1070
     1
1070
    44
1040
1.0
1070
    74
1070
     0
1000
MTEXTEND
  0
POINT
  5
24846
330
24228
100
AcDbEntity
  8
DEFPOINTS
 62
     0
 48
50.0
100
AcDbPoint
 10
8633.600000000008
 20
6974.776473043995
 30
0.0
  0
POINT
  5
24847
330
24228
100
AcDbEntity
  8
DEFPOINTS
 62
     0
 48
50.0
100
AcDbPoint
 10
7813.600000000008
 20
6974.776473043995
 30
0.0
  0
POINT
  5
24848
330
24228
100
AcDbEntity
  8
DEFPOINTS
 62
     0
 48
50.0
100
AcDbPoint
 10
7813.600000000008
 20
8060.385289714245
 30
0.0
  0
ENDBLK
  5
24233
330
24228
100
AcDbEntity
  8
0
 48
50.0
100
AcDbBlockEnd
  0
BLOCK
  5
2423E
330
24234
100
AcDbEntity
  8
0
 48
50.0
100
AcDbBlockBegin
  2
*D33
 70
     1
 10
0.0
 20
0.0
 30
0.0
  3
*D33
  1

  0
LINE
  5
24774
330
24234
100
AcDbEntity
  8
寸法
 62
     0
 48
50.0
370
    -2
100
AcDbLine
 10
6221.600000000001
 20
7454.776473043996
 30
0.0
 11
5485.665006330073
 21
7454.776473043996
 31
0.0
  0
LINE
  5
24775
330
24234
100
AcDbEntity
  8
寸法
 62
     0
 48
50.0
370
    -2
100
AcDbLine
 10
6221.600000000008
 20
6395.776473044
 30
0.0
 11
5485.665006330073
 21
6395.776473044
 31
0.0
  0
LINE
  5
24776
330
24234
100
AcDbEntity
  8
寸法
 62
     0
 48
50.0
370
    -2
100
AcDbLine
 10
5545.665006330073
 20
7454.776473043996
 30
0.0
 11
5545.665006330073
 21
6395.776473044
 31
0.0
  0
INSERT
  5
24777
330
24234
100
AcDbEntity
  8
寸法
 62
     0
 48
50.0
370
    -2
100
AcDbBlockReference
  2
_DOTSMALL
 10
5545.665006330073
 20
7454.776473043996
 30
0.0
 41
100.0
 42
100.0
 43
100.0
 50
90.0
  0
INSERT
  5
24778
330
24234
100
AcDbEntity
  8
寸法
 62
     0
 48
50.0
370
    -2
100
AcDbBlockReference
  2
_DOTSMALL
 10
5545.665006330073
 20
6395.776473044
 30
0.0
 41
100.0
 42
100.0
 43
100.0
 50
270.0
  0
MTEXT
  5
24779
330
24234
100
AcDbEntity
  8
寸法
 62
     7
 48
50.0
100
AcDbMText
 10
5445.665006330071
 20
6925.276473043997
 30
0.0
 40
120.0
 41
0.0
 71
     5
 72
     1
  1
\A1;1059
  7
STYLE1
 11
0.0000000000000001
 21
1.0
 31
0.0
 73
     1
 44
1.0
1001
ACAD
1000
MTEXTBEGIN
1070
    73
1070
     1
1070
    44
1040
1.0
1070
    74
1070
     0
1000
MTEXTEND
  0
POINT
  5
2477A
330
24234
100
AcDbEntity
  8
DEFPOINTS
 62
     0
 48
50.0
100
AcDbPoint
 10
6241.6
 20
7454.776473043996
 30
0.0
  0
POINT
  5
2477B
330
24234
100
AcDbEntity
  8
DEFPOINTS
 62
     0
 48
50.0
100
AcDbPoint
 10
6241.600000000008
 20
6395.776473044
 30
0.0
  0
POINT
  5
2477C
330
24234
100
AcDbEntity
  8
DEFPOINTS
 62
     0
 48
50.0
100
AcDbPoint
 10
5545.665006330073
 20
6395.776473044
 30
0.0
  0
ENDBLK
  5
2423F
330
24234
100
AcDbEntity
  8
0
 48
50.0
100
AcDbBlockEnd
  0
BLOCK
  5
2424A
330
24240
100
AcDbEntity
  8
0
 48
50.0
100
AcDbBlockBegin
  2
*D34
 70
     1
 10
0.0
 20
0.0
 30
0.0
  3
*D34
  1

  0
LINE
  5
246D9
330
24240
100
AcDbEntity
  8
寸法
 62
     0
 48
50.0
370
    -2
100
AcDbLine
 10
6148.6
 20
7577.776473043996
 30
0.0
 11
5233.721909610675
 21
7577.776473043996
 31
0.0
  0
LINE
  5
246DA
330
24240
100
AcDbEntity
  8
寸法
 62
     0
 48
50.0
370
    -2
100
AcDbLine
 10
6148.6
 20
6197.776473043996
 30
0.0
 11
5233.721909610675
 21
6197.776473043997
 31
0.0
  0
LINE
  5
246DB
330
24240
100
AcDbEntity
  8
寸法
 62
     0
 48
50.0
370
    -2
100
AcDbLine
 10
5293.721909610674
 20
7577.776473043996
 30
0.0
 11
5293.721909610674
 21
6197.776473043997
 31
0.0
  0
INSERT
  5
246DC
330
24240
100
AcDbEntity
  8
寸法
 62
     0
 48
50.0
370
    -2
100
AcDbBlockReference
  2
_DOTSMALL
 10
5293.721909610674
 20
7577.776473043996
 30
0.0
 41
100.0
 42
100.0
 43
100.0
 50
90.0
  0
INSERT
  5
246DD
330
24240
100
AcDbEntity
  8
寸法
 62
     0
 48
50.0
370
    -2
100
AcDbBlockReference
  2
_DOTSMALL
 10
5293.721909610674
 20
6197.776473043997
 30
0.0
 41
100.0
 42
100.0
 43
100.0
 50
270.0
  0
MTEXT
  5
246DE
330
24240
100
AcDbEntity
  8
寸法
 62
     7
 48
50.0
100
AcDbMText
 10
5193.721909610673
 20
6925.276473043997
 30
0.0
 40
120.0
 41
0.0
 71
     5
 72
     1
  1
\A1;1380
  7
STYLE1
 11
0.0000000000000001
 21
1.0
 31
0.0
 73
     1
 44
1.0
1001
ACAD
1000
MTEXTBEGIN
1070
    73
1070
     1
1070
    44
1040
1.0
1070
    74
1070
     0
1000
MTEXTEND
  0
POINT
  5
246DF
330
24240
100
AcDbEntity
  8
DEFPOINTS
 62
     0
 48
50.0
100
AcDbPoint
 10
6168.600000000001
 20
7577.776473043996
 30
0.0
  0
POINT
  5
246E0
330
24240
100
AcDbEntity
  8
DEFPOINTS
 62
     0
 48
50.0
100
AcDbPoint
 10
6168.600000000001
 20
6197.776473043996
 30
0.0
  0
POINT
  5
246E1
330
24240
100
AcDbEntity
  8
DEFPOINTS
 62
     0
 48
50.0
100
AcDbPoint
 10
5293.721909610674
 20
6197.776473043997
 30
0.0
  0
ENDBLK
  5
2424B
330
24240
100
AcDbEntity
  8
0
 48
50.0
100
AcDbBlockEnd
  0
BLOCK
  5
24256
330
2424C
100
AcDbEntity
  8
0
 48
50.0
100
AcDbBlockBegin
  2
*D35
 70
     1
 10
0.0
 20
0.0
 30
0.0
  3
*D35
  1

  0
LINE
  5
24849
330
2424C
100
AcDbEntity
  8
寸法
 62
     0
 48
50.0
370
    -2
100
AcDbLine
 10
6923.600000000007
 20
6924.776473043995
 30
0.0
 11
6591.285990614304
 21
6924.776473043995
 31
0.0
  0
LINE
  5
2484A
330
2424C
100
AcDbEntity
  8
寸法
 62
     0
 48
50.0
370
    -2
100
AcDbLine
 10
6722.7654751409
 20
7577.776473043996
 30
0.0
 11
6591.285990614304
 21
7577.776473043996
 31
0.0
  0
LINE
  5
2484B
330
2424C
100
AcDbEntity
  8
寸法
 62
     0
 48
50.0
370
    -2
100
AcDbLine
 10
6651.285990614304
 20
6924.776473043995
 30
0.0
 11
6651.285990614304
 21
7577.776473043996
 31
0.0
  0
INSERT
  5
2484C
330
2424C
100
AcDbEntity
  8
寸法
 62
     0
 48
50.0
370
    -2
100
AcDbBlockReference
  2
_DOTSMALL
 10
6651.285990614304
 20
6924.776473043995
 30
0.0
 41
100.0
 42
100.0
 43
100.0
 50
270.0
  0
INSERT
  5
2484D
330
2424C
100
AcDbEntity
  8
寸法
 62
     0
 48
50.0
370
    -2
100
AcDbBlockReference
  2
_DOTSMALL
 10
6651.285990614304
 20
7577.776473043996
 30
0.0
 41
100.0
 42
100.0
 43
100.0
 50
90.0
  0
MTEXT
  5
2484E
330
2424C
100
AcDbEntity
  8
寸法
 62
     7
 48
50.0
100
AcDbMText
 10
6551.285990614302
 20
7201.613027860971
 30
0.0
 40
120.0
 41
0.0
 71
     5
 72
     1
  1
\A1;653
  7
STYLE1
 11
0.0000000000000001
 21
1.0
 31
0.0
 73
     1
 44
1.0
1001
ACAD
1000
MTEXTBEGIN
1070
    73
1070
     1
1070
    44
1040
1.0
1070
    74
1070
     0
1000
MTEXTEND
  0
POINT
  5
2484F
330
2424C
100
AcDbEntity
  8
DEFPOINTS
 62
     0
 48
50.0
100
AcDbPoint
 10
6943.600000000007
 20
6924.776473043995
 30
0.0
  0
POINT
  5
24850
330
2424C
100
AcDbEntity
  8
DEFPOINTS
 62
     0
 48
50.0
100
AcDbPoint
 10
6742.765475140901
 20
7577.776473043996
 30
0.0
  0
POINT
  5
24851
330
2424C
100
AcDbEntity
  8
DEFPOINTS
 62
     0
 48
50.0
100
AcDbPoint
 10
6651.285990614304
 20
7577.776473043996
 30
0.0
  0
ENDBLK
  5
24257
330
2424C
100
AcDbEntity
  8
0
 48
50.0
100
AcDbBlockEnd
  0
BLOCK
  5
24261
330
24258
100
AcDbEntity
  8
0
 48
50.0
100
AcDbBlockBegin
  2
*D36
 70
     1
 10
0.0
 20
0.0
 30
0.0
  3
*D36
  1

  0
LINE
  5
2482E
330
24258
100
AcDbEntity
  8
寸法
 62
     0
 48
50.0
370
    -2
100
AcDbLine
 10
7813.600000000008
 20
6994.776473043995
 30
0.0
 11
7813.600000000008
 21
8120.385289714244
 31
0.0
  0
LINE
  5
2482F
330
24258
100
AcDbEntity
  8
寸法
 62
     0
 48
50.0
370
    -2
100
AcDbLine
 10
6993.600000000007
 20
6994.776473043995
 30
0.0
 11
6993.600000000007
 21
8120.385289714244
 31
0.0
  0
LINE
  5
24830
330
24258
100
AcDbEntity
  8
寸法
 62
     0
 48
50.0
370
    -2
100
AcDbLine
 10
7813.600000000008
 20
8060.385289714245
 30
0.0
 11
6993.600000000007
 21
8060.385289714245
 31
0.0
  0
INSERT
  5
24831
330
24258
100
AcDbEntity
  8
寸法
 62
     0
 48
50.0
370
    -2
100
AcDbBlockReference
  2
_DOTSMALL
 10
7813.600000000008
 20
8060.385289714245
 30
0.0
 41
100.0
 42
100.0
 43
100.0
  0
INSERT
  5
24832
330
24258
100
AcDbEntity
  8
寸法
 62
     0
 48
50.0
370
    -2
100
AcDbBlockReference
  2
_DOTSMALL
 10
6993.600000000007
 20
8060.385289714245
 30
0.0
 41
100.0
 42
100.0
 43
100.0
 50
180.0
  0
MTEXT
  5
24833
330
24258
100
AcDbEntity
  8
寸法
 62
     7
 48
50.0
100
AcDbMText
 10
7403.600000000007
 20
8160.397100737865
 30
0.0
 40
120.0
 41
0.0
 71
     5
 72
     1
  1
\A1;820
  7
STYLE1
 73
     1
 44
1.0
1001
ACAD
1000
MTEXTBEGIN
1070
    73
1070
     1
1070
    44
1040
1.0
1070
    74
1070
     0
1000
MTEXTEND
  0
POINT
  5
24834
330
24258
100
AcDbEntity
  8
DEFPOINTS
 62
     0
 48
50.0
100
AcDbPoint
 10
7813.600000000008
 20
6974.776473043995
 30
0.0
  0
POINT
  5
24835
330
24258
100
AcDbEntity
  8
DEFPOINTS
 62
     0
 48
50.0
100
AcDbPoint
 10
6993.600000000007
 20
6974.776473043995
 30
0.0
  0
POINT
  5
24836
330
24258
100
AcDbEntity
  8
DEFPOINTS
 62
     0
 48
50.0
100
AcDbPoint
 10
6993.600000000007
 20
8060.385289714245
 30
0.0
  0
ENDBLK
  5
24262
330
24258
100
AcDbEntity
  8
0
 48
50.0
100
AcDbBlockEnd
  0
BLOCK
  5
2426D
330
24263
100
AcDbEntity
  8
0
 48
50.0
100
AcDbBlockBegin
  2
*D37
 70
     1
 10
0.0
 20
0.0
 30
0.0
  3
*D37
  1

  0
LINE
  5
24825
330
24263
100
AcDbEntity
  8
寸法
 62
     0
 48
50.0
370
    -2
100
AcDbLine
 10
6993.600000000007
 20
6994.776473043995
 30
0.0
 11
6993.600000000007
 21
8120.385289714244
 31
0.0
  0
LINE
  5
24826
330
24263
100
AcDbEntity
  8
寸法
 62
     0
 48
50.0
370
    -2
100
AcDbLine
 10
6168.600000000001
 20
7597.776473043996
 30
0.0
 11
6168.600000000001
 21
8120.385289714244
 31
0.0
  0
LINE
  5
24827
330
24263
100
AcDbEntity
  8
寸法
 62
     0
 48
50.0
370
    -2
100
AcDbLine
 10
6993.600000000007
 20
8060.385289714245
 30
0.0
 11
6168.600000000001
 21
8060.385289714245
 31
0.0
  0
INSERT
  5
24828
330
24263
100
AcDbEntity
  8
寸法
 62
     0
 48
50.0
370
    -2
100
AcDbBlockReference
  2
_DOTSMALL
 10
6993.600000000007
 20
8060.385289714245
 30
0.0
 41
100.0
 42
100.0
 43
100.0
  0
INSERT
  5
24829
330
24263
100
AcDbEntity
  8
寸法
 62
     0
 48
50.0
370
    -2
100
AcDbBlockReference
  2
_DOTSMALL
 10
6168.600000000001
 20
8060.385289714245
 30
0.0
 41
100.0
 42
100.0
 43
100.0
 50
180.0
  0
MTEXT
  5
2482A
330
24263
100
AcDbEntity
  8
寸法
 62
     7
 48
50.0
100
AcDbMText
 10
6581.100000000003
 20
8160.397100737865
 30
0.0
 40
120.0
 41
0.0
 71
     5
 72
     1
  1
\A1;825
  7
STYLE1
 73
     1
 44
1.0
1001
ACAD
1000
MTEXTBEGIN
1070
    73
1070
     1
1070
    44
1040
1.0
1070
    74
1070
     0
1000
MTEXTEND
  0
POINT
  5
2482B
330
24263
100
AcDbEntity
  8
DEFPOINTS
 62
     0
 48
50.0
100
AcDbPoint
 10
6993.600000000007
 20
6974.776473043995
 30
0.0
  0
POINT
  5
2482C
330
24263
100
AcDbEntity
  8
DEFPOINTS
 62
     0
 48
50.0
100
AcDbPoint
 10
6168.600000000001
 20
7577.776473043996
 30
0.0
  0
POINT
  5
2482D
330
24263
100
AcDbEntity
  8
DEFPOINTS
 62
     0
 48
50.0
100
AcDbPoint
 10
6168.600000000001
 20
8060.385289714245
 30
0.0
  0
ENDBLK
  5
2426E
330
24263
100
AcDbEntity
  8
0
 48
50.0
100
AcDbBlockEnd
  0
BLOCK
  5
24285
330
2427B
100
AcDbEntity
  8
0
 48
50.0
100
AcDbBlockBegin
  2
*D38
 70
     1
 10
0.0
 20
0.0
 30
0.0
  3
*D38
  1

  0
LINE
  5
2481C
330
2427B
100
AcDbEntity
  8
寸法
 62
     0
 48
50.0
370
    -2
100
AcDbLine
 10
6722.7654751409
 20
6197.776473044007
 30
0.0
 11
6591.285990614302
 21
6197.776473044007
 31
0.0
  0
LINE
  5
2481D
330
2427B
100
AcDbEntity
  8
寸法
 62
     0
 48
50.0
370
    -2
100
AcDbLine
 10
6923.600000000007
 20
6924.776473043995
 30
0.0
 11
6591.285990614302
 21
6924.776473043995
 31
0.0
  0
LINE
  5
2481E
330
2427B
100
AcDbEntity
  8
寸法
 62
     0
 48
50.0
370
    -2
100
AcDbLine
 10
6651.285990614302
 20
6197.776473044007
 30
0.0
 11
6651.285990614302
 21
6924.776473043995
 31
0.0
  0
INSERT
  5
2481F
330
2427B
100
AcDbEntity
  8
寸法
 62
     0
 48
50.0
370
    -2
100
AcDbBlockReference
  2
_DOTSMALL
 10
6651.285990614302
 20
6197.776473044007
 30
0.0
 41
100.0
 42
100.0
 43
100.0
 50
270.0
  0
INSERT
  5
24820
330
2427B
100
AcDbEntity
  8
寸法
 62
     0
 48
50.0
370
    -2
100
AcDbBlockReference
  2
_DOTSMALL
 10
6651.285990614302
 20
6924.776473043995
 30
0.0
 41
100.0
 42
100.0
 43
100.0
 50
90.0
  0
MTEXT
  5
24821
330
2427B
100
AcDbEntity
  8
寸法
 62
     7
 48
50.0
100
AcDbMText
 10
6551.274179590679
 20
6639.776473043996
 30
0.0
 40
120.0
 41
0.0
 71
     5
 72
     1
  1
\A1;727
  7
STYLE1
 11
0.0000000000000001
 21
1.0
 31
0.0
 73
     1
 44
1.0
1001
ACAD
1000
MTEXTBEGIN
1070
    73
1070
     1
1070
    44
1040
1.0
1070
    74
1070
     0
1000
MTEXTEND
  0
POINT
  5
24822
330
2427B
100
AcDbEntity
  8
DEFPOINTS
 62
     0
 48
50.0
100
AcDbPoint
 10
6742.765475140901
 20
6197.776473044007
 30
0.0
  0
POINT
  5
24823
330
2427B
100
AcDbEntity
  8
DEFPOINTS
 62
     0
 48
50.0
100
AcDbPoint
 10
6943.600000000007
 20
6924.776473043995
 30
0.0
  0
POINT
  5
24824
330
2427B
100
AcDbEntity
  8
DEFPOINTS
 62
     0
 48
50.0
100
AcDbPoint
 10
6651.285990614302
 20
6924.776473043995
 30
0.0
  0
ENDBLK
  5
24286
330
2427B
100
AcDbEntity
  8
0
 48
50.0
100
AcDbBlockEnd
  0
BLOCK
  5
24291
330
24287
100
AcDbEntity
  8
0
 48
50.0
100
AcDbBlockBegin
  2
*D39
 70
     1
 10
0.0
 20
0.0
 30
0.0
  3
*D39
  1

  0
LINE
  5
246EB
330
24287
100
AcDbEntity
  8
寸法
 62
     0
 48
50.0
370
    -2
100
AcDbLine
 10
6148.600000000004
 20
6197.776473043992
 30
0.0
 11
5995.512673767882
 21
6197.776473043993
 31
0.0
  0
LINE
  5
246EC
330
24287
100
AcDbEntity
  8
寸法
 62
     0
 48
50.0
370
    -2
100
AcDbLine
 10
6504.325326928809
 20
5477.776473043991
 30
0.0
 11
5995.512673767881
 21
5477.776473043993
 31
0.0
  0
LINE
  5
246ED
330
24287
100
AcDbEntity
  8
寸法
 62
     0
 48
50.0
370
    -2
100
AcDbLine
 10
6055.512673767882
 20
6197.776473043993
 30
0.0
 11
6055.512673767881
 21
5477.776473043993
 31
0.0
  0
INSERT
  5
246EE
330
24287
100
AcDbEntity
  8
寸法
 62
     0
 48
50.0
370
    -2
100
AcDbBlockReference
  2
_DOTSMALL
 10
6055.512673767882
 20
6197.776473043993
 30
0.0
 41
100.0
 42
100.0
 43
100.0
 50
90.0
  0
INSERT
  5
246EF
330
24287
100
AcDbEntity
  8
寸法
 62
     0
 48
50.0
370
    -2
100
AcDbBlockReference
  2
_DOTSMALL
 10
6055.512673767881
 20
5477.776473043993
 30
0.0
 41
100.0
 42
100.0
 43
100.0
 50
270.0
  0
MTEXT
  5
246F0
330
24287
100
AcDbEntity
  8
寸法
 62
     7
 48
50.0
100
AcDbMText
 10
5955.500862744258
 20
5837.776473043994
 30
0.0
 40
120.0
 41
0.0
 71
     5
 72
     1
  1
\A1;扉の出720
  7
STYLE1
 11
0.0000000000000001
 21
1.0
 31
0.0
 73
     1
 44
1.0
1001
ACAD
1000
MTEXTBEGIN
1070
    73
1070
     1
1070
    44
1040
1.0
1070
    74
1070
     0
1000
MTEXTEND
  0
POINT
  5
246F1
330
24287
100
AcDbEntity
  8
DEFPOINTS
 62
     0
 48
50.0
100
AcDbPoint
 10
6168.600000000004
 20
6197.776473043992
 30
0.0
  0
POINT
  5
246F2
330
24287
100
AcDbEntity
  8
DEFPOINTS
 62
     0
 48
50.0
100
AcDbPoint
 10
6524.325326928809
 20
5477.776473043991
 30
0.0
  0
POINT
  5
246F3
330
24287
100
AcDbEntity
  8
DEFPOINTS
 62
     0
 48
50.0
100
AcDbPoint
 10
6055.512673767881
 20
5477.776473043993
 30
0.0
  0
ENDBLK
  5
24292
330
24287
100
AcDbEntity
  8
0
 48
50.0
100
AcDbBlockEnd
  0
BLOCK
  5
2429E
330
24293
100
AcDbEntity
  8
0
 48
50.0
100
AcDbBlockBegin
  2
*D40
 70
     1
 10
0.0
 20
0.0
 30
0.0
  3
*D40
  1

  0
LINE
  5
2476A
330
24293
100
AcDbEntity
  8
寸法
 62
     0
 48
50.0
370
    -2
100
AcDbLine
 10
6221.600000000008
 20
6395.776473044
 30
0.0
 11
5485.665006330073
 21
6395.776473044
 31
0.0
  0
LINE
  5
2476B
330
24293
100
AcDbEntity
  8
寸法
 62
     0
 48
50.0
370
    -2
100
AcDbLine
 10
6148.6
 20
6197.776473043996
 30
0.0
 11
5485.665006330073
 21
6197.776473043997
 31
0.0
  0
LINE
  5
2476C
330
24293
100
AcDbEntity
  8
寸法
 62
     0
 48
50.0
370
    -2
100
AcDbLine
 10
5545.665006330073
 20
6395.776473044
 30
0.0
 11
5545.665006330073
 21
6197.776473043997
 31
0.0
  0
LINE
  5
2476D
330
24293
100
AcDbEntity
  8
寸法
 62
     0
 48
50.0
370
    -2
100
AcDbLine
 10
5545.665006330073
 20
6197.776473043997
 30
0.0
 11
5545.665006330072
 21
5726.035864371747
 31
0.0
  0
INSERT
  5
2476E
330
24293
100
AcDbEntity
  8
寸法
 62
     0
 48
50.0
370
    -2
100
AcDbBlockReference
  2
_DOTSMALL
 10
5545.665006330073
 20
6395.776473044
 30
0.0
 41
100.0
 42
100.0
 43
100.0
 50
90.0
  0
INSERT
  5
2476F
330
24293
100
AcDbEntity
  8
寸法
 62
     0
 48
50.0
370
    -2
100
AcDbBlockReference
  2
_DOTSMALL
 10
5545.665006330073
 20
6197.776473043997
 30
0.0
 41
100.0
 42
100.0
 43
100.0
 50
270.0
  0
MTEXT
  5
24770
330
24293
100
AcDbEntity
  8
寸法
 62
     7
 48
50.0
100
AcDbMText
 10
5445.665006330071
 20
5862.245524201404
 30
0.0
 40
120.0
 41
0.0
 71
     5
 72
     1
  1
\A1;198
  7
STYLE1
 11
0.0000000000000001
 21
1.0
 31
0.0
 73
     1
 44
1.0
1001
ACAD
1000
MTEXTBEGIN
1070
    73
1070
     1
1070
    44
1040
1.0
1070
    74
1070
     0
1000
MTEXTEND
  0
POINT
  5
24771
330
24293
100
AcDbEntity
  8
DEFPOINTS
 62
     0
 48
50.0
100
AcDbPoint
 10
6241.600000000008
 20
6395.776473044
 30
0.0
  0
POINT
  5
24772
330
24293
100
AcDbEntity
  8
DEFPOINTS
 62
     0
 48
50.0
100
AcDbPoint
 10
6168.600000000001
 20
6197.776473043996
 30
0.0
  0
POINT
  5
24773
330
24293
100
AcDbEntity
  8
DEFPOINTS
 62
     0
 48
50.0
100
AcDbPoint
 10
5545.665006330073
 20
6197.776473043997
 30
0.0
  0
ENDBLK
  5
2429F
330
24293
100
AcDbEntity
  8
0
 48
50.0
100
AcDbBlockEnd
  0
BLOCK
  5
242B6
330
242AD
100
AcDbEntity
  8
0
 48
50.0
100
AcDbBlockBegin
  2
*D41
 70
     1
 10
0.0
 20
0.0
 30
0.0
  3
*D41
  1

  0
LINE
  5
24699
330
242AD
100
AcDbEntity
  8
寸法
 62
     0
 48
50.0
370
    -2
100
AcDbLine
 10
7695.6
 20
7524.776473043996
 30
0.0
 11
7695.6
 21
8364.042931137907
 31
0.0
  0
LINE
  5
2469A
330
242AD
100
AcDbEntity
  8
寸法
 62
     0
 48
50.0
370
    -2
100
AcDbLine
 10
6291.6
 20
7524.776473043996
 30
0.0
 11
6291.6
 21
8364.042931137907
 31
0.0
  0
LINE
  5
2469B
330
242AD
100
AcDbEntity
  8
寸法
 62
     0
 48
50.0
370
    -2
100
AcDbLine
 10
7695.6
 20
8304.042931137907
 30
0.0
 11
6291.6
 21
8304.042931137907
 31
0.0
  0
INSERT
  5
2469C
330
242AD
100
AcDbEntity
  8
寸法
 62
     0
 48
50.0
370
    -2
100
AcDbBlockReference
  2
_DOTSMALL
 10
7695.6
 20
8304.042931137907
 30
0.0
 41
100.0
 42
100.0
 43
100.0
  0
INSERT
  5
2469D
330
242AD
100
AcDbEntity
  8
寸法
 62
     0
 48
50.0
370
    -2
100
AcDbBlockReference
  2
_DOTSMALL
 10
6291.6
 20
8304.042931137907
 30
0.0
 41
100.0
 42
100.0
 43
100.0
 50
180.0
  0
MTEXT
  5
2469E
330
242AD
100
AcDbEntity
  8
寸法
 62
     7
 48
50.0
100
AcDbMText
 10
6993.6
 20
8404.042931137906
 30
0.0
 40
120.0
 41
0.0
 71
     5
 72
     1
  1
\A1;1404
  7
STYLE1
 73
     1
 44
1.0
1001
ACAD
1000
MTEXTBEGIN
1070
    73
1070
     1
1070
    44
1040
1.0
1070
    74
1070
     0
1000
MTEXTEND
  0
POINT
  5
2469F
330
242AD
100
AcDbEntity
  8
DEFPOINTS
 62
     0
 48
50.0
100
AcDbPoint
 10
7695.6
 20
7504.776473043996
 30
0.0
  0
POINT
  5
246A0
330
242AD
100
AcDbEntity
  8
DEFPOINTS
 62
     0
 48
50.0
100
AcDbPoint
 10
6291.6
 20
7504.776473043996
 30
0.0
  0
POINT
  5
246A1
330
242AD
100
AcDbEntity
  8
DEFPOINTS
 62
     0
 48
50.0
100
AcDbPoint
 10
6291.6
 20
8304.042931137907
 30
0.0
  0
ENDBLK
  5
242B7
330
242AD
100
AcDbEntity
  8
0
 48
50.0
100
AcDbBlockEnd
  0
BLOCK
  5
242D0
330
242C5
100
AcDbEntity
  8
0
 48
50.0
100
AcDbBlockBegin
  2
*D42
 70
     1
 10
0.0
 20
0.0
 30
0.0
  3
*D42
  1

  0
LINE
  5
2468F
330
242C5
100
AcDbEntity
  8
寸法
 62
     0
 48
50.0
370
    -2
100
AcDbLine
 10
6291.6
 20
7524.776473043996
 30
0.0
 11
6291.6
 21
8364.042931137907
 31
0.0
  0
LINE
  5
24690
330
242C5
100
AcDbEntity
  8
寸法
 62
     0
 48
50.0
370
    -2
100
AcDbLine
 10
6168.600000000001
 20
7597.776473043996
 30
0.0
 11
6168.600000000001
 21
8364.042931137907
 31
0.0
  0
LINE
  5
24691
330
242C5
100
AcDbEntity
  8
寸法
 62
     0
 48
50.0
370
    -2
100
AcDbLine
 10
6291.6
 20
8304.042931137907
 30
0.0
 11
6168.600000000001
 21
8304.042931137907
 31
0.0
  0
LINE
  5
24692
330
242C5
100
AcDbEntity
  8
寸法
 62
     0
 48
50.0
370
    -2
100
AcDbLine
 10
6168.600000000001
 20
8304.042931137907
 30
0.0
 11
5757.008116907963
 21
8304.042931137907
 31
0.0
  0
INSERT
  5
24693
330
242C5
100
AcDbEntity
  8
寸法
 62
     0
 48
50.0
370
    -2
100
AcDbBlockReference
  2
_DOTSMALL
 10
6291.6
 20
8304.042931137907
 30
0.0
 41
100.0
 42
100.0
 43
100.0
  0
INSERT
  5
24694
330
242C5
100
AcDbEntity
  8
寸法
 62
     0
 48
50.0
370
    -2
100
AcDbBlockReference
  2
_DOTSMALL
 10
6168.600000000001
 20
8304.042931137907
 30
0.0
 41
100.0
 42
100.0
 43
100.0
 50
180.0
  0
MTEXT
  5
24695
330
242C5
100
AcDbEntity
  8
寸法
 62
     7
 48
50.0
100
AcDbMText
 10
5895.493398282201
 20
8404.054742161529
 30
0.0
 40
120.0
 41
0.0
 71
     5
 72
     1
  1
\A1;123
  7
STYLE1
 73
     1
 44
1.0
1001
ACAD
1000
MTEXTBEGIN
1070
    73
1070
     1
1070
    44
1040
1.0
1070
    74
1070
     0
1000
MTEXTEND
  0
POINT
  5
24696
330
242C5
100
AcDbEntity
  8
DEFPOINTS
 62
     0
 48
50.0
100
AcDbPoint
 10
6291.6
 20
7504.776473043996
 30
0.0
  0
POINT
  5
24697
330
242C5
100
AcDbEntity
  8
DEFPOINTS
 62
     0
 48
50.0
100
AcDbPoint
 10
6168.600000000001
 20
7577.776473043996
 30
0.0
  0
POINT
  5
24698
330
242C5
100
AcDbEntity
  8
DEFPOINTS
 62
     0
 48
50.0
100
AcDbPoint
 10
6168.600000000001
 20
8304.042931137907
 30
0.0
  0
ENDBLK
  5
242D1
330
242C5
100
AcDbEntity
  8
0
 48
50.0
100
AcDbBlockEnd
  0
BLOCK
  5
242E7
330
242DC
100
AcDbEntity
  8
0
 48
50.0
100
AcDbBlockBegin
  2
*D43
 70
     1
 10
0.0
 20
0.0
 30
0.0
  3
*D43
  1

  0
LINE
  5
24685
330
242DC
100
AcDbEntity
  8
寸法
 62
     0
 48
50.0
370
    -2
100
AcDbLine
 10
6148.6
 20
7577.776473043996
 30
0.0
 11
5485.665006330072
 21
7577.776473043996
 31
0.0
  0
LINE
  5
24686
330
242DC
100
AcDbEntity
  8
寸法
 62
     0
 48
50.0
370
    -2
100
AcDbLine
 10
6221.600000000001
 20
7454.776473043996
 30
0.0
 11
5485.665006330072
 21
7454.776473043996
 31
0.0
  0
LINE
  5
24687
330
242DC
100
AcDbEntity
  8
寸法
 62
     0
 48
50.0
370
    -2
100
AcDbLine
 10
5545.665006330072
 20
7454.776473043996
 30
0.0
 11
5545.665006330072
 21
7577.776473043996
 31
0.0
  0
LINE
  5
24688
330
242DC
100
AcDbEntity
  8
寸法
 62
     0
 48
50.0
370
    -2
100
AcDbLine
 10
5545.665006330072
 20
7577.776473043996
 30
0.0
 11
5545.665006330072
 21
7989.368356136035
 31
0.0
  0
INSERT
  5
24689
330
242DC
100
AcDbEntity
  8
寸法
 62
     0
 48
50.0
370
    -2
100
AcDbBlockReference
  2
_DOTSMALL
 10
5545.665006330072
 20
7454.776473043996
 30
0.0
 41
100.0
 42
100.0
 43
100.0
 50
270.0
  0
INSERT
  5
2468A
330
242DC
100
AcDbEntity
  8
寸法
 62
     0
 48
50.0
370
    -2
100
AcDbBlockReference
  2
_DOTSMALL
 10
5545.665006330072
 20
7577.776473043996
 30
0.0
 41
100.0
 42
100.0
 43
100.0
 50
90.0
  0
MTEXT
  5
2468B
330
242DC
100
AcDbEntity
  8
寸法
 62
     7
 48
50.0
100
AcDbMText
 10
5445.65319530645
 20
7850.883074761796
 30
0.0
 40
120.0
 41
0.0
 71
     5
 72
     1
  1
\A1;123
  7
STYLE1
 11
0.0000000000000001
 21
1.0
 31
0.0
 73
     1
 44
1.0
1001
ACAD
1000
MTEXTBEGIN
1070
    73
1070
     1
1070
    44
1040
1.0
1070
    74
1070
     0
1000
MTEXTEND
  0
POINT
  5
2468C
330
242DC
100
AcDbEntity
  8
DEFPOINTS
 62
     0
 48
50.0
100
AcDbPoint
 10
6168.600000000001
 20
7577.776473043996
 30
0.0
  0
POINT
  5
2468D
330
242DC
100
AcDbEntity
  8
DEFPOINTS
 62
     0
 48
50.0
100
AcDbPoint
 10
6241.6
 20
7454.776473043996
 30
0.0
  0
POINT
  5
2468E
330
242DC
100
AcDbEntity
  8
DEFPOINTS
 62
     0
 48
50.0
100
AcDbPoint
 10
5545.665006330072
 20
7454.776473043996
 30
0.0
  0
ENDBLK
  5
242E8
330
242DC
100
AcDbEntity
  8
0
 48
50.0
100
AcDbBlockEnd
  0
BLOCK
  5
24300
330
242F6
100
AcDbEntity
  8
0
 48
50.0
100
AcDbBlockBegin
  2
*D44
 70
     1
 10
0.0
 20
0.0
 30
0.0
  3
*D44
  1

  0
LINE
  5
24813
330
242F6
100
AcDbEntity
  8
寸法
 62
     0
 48
50.0
370
    -2
100
AcDbLine
 10
9453.600000000006
 20
6994.776473043995
 30
0.0
 11
9453.600000000006
 21
8120.385289714244
 31
0.0
  0
LINE
  5
24814
330
242F6
100
AcDbEntity
  8
寸法
 62
     0
 48
50.0
370
    -2
100
AcDbLine
 10
8633.600000000008
 20
6994.776473043995
 30
0.0
 11
8633.600000000008
 21
8120.385289714244
 31
0.0
  0
LINE
  5
24815
330
242F6
100
AcDbEntity
  8
寸法
 62
     0
 48
50.0
370
    -2
100
AcDbLine
 10
9453.600000000006
 20
8060.385289714245
 30
0.0
 11
8633.600000000008
 21
8060.385289714245
 31
0.0
  0
INSERT
  5
24816
330
242F6
100
AcDbEntity
  8
寸法
 62
     0
 48
50.0
370
    -2
100
AcDbBlockReference
  2
_DOTSMALL
 10
9453.600000000006
 20
8060.385289714245
 30
0.0
 41
100.0
 42
100.0
 43
100.0
  0
INSERT
  5
24817
330
242F6
100
AcDbEntity
  8
寸法
 62
     0
 48
50.0
370
    -2
100
AcDbBlockReference
  2
_DOTSMALL
 10
8633.600000000008
 20
8060.385289714245
 30
0.0
 41
100.0
 42
100.0
 43
100.0
 50
180.0
  0
MTEXT
  5
24818
330
242F6
100
AcDbEntity
  8
寸法
 62
     7
 48
50.0
100
AcDbMText
 10
9043.600000000008
 20
8160.397100737865
 30
0.0
 40
120.0
 41
0.0
 71
     5
 72
     1
  1
\A1;820
  7
STYLE1
 73
     1
 44
1.0
1001
ACAD
1000
MTEXTBEGIN
1070
    73
1070
     1
1070
    44
1040
1.0
1070
    74
1070
     0
1000
MTEXTEND
  0
POINT
  5
24819
330
242F6
100
AcDbEntity
  8
DEFPOINTS
 62
     0
 48
50.0
100
AcDbPoint
 10
9453.600000000006
 20
6974.776473043995
 30
0.0
  0
POINT
  5
2481A
330
242F6
100
AcDbEntity
  8
DEFPOINTS
 62
     0
 48
50.0
100
AcDbPoint
 10
8633.600000000008
 20
6974.776473043995
 30
0.0
  0
POINT
  5
2481B
330
242F6
100
AcDbEntity
  8
DEFPOINTS
 62
     0
 48
50.0
100
AcDbPoint
 10
8633.600000000008
 20
8060.385289714245
 30
0.0
  0
ENDBLK
  5
24301
330
242F6
100
AcDbEntity
  8
0
 48
50.0
100
AcDbBlockEnd
  0
BLOCK
  5
2430C
330
24302
100
AcDbEntity
  8
0
 48
50.0
100
AcDbBlockBegin
  2
*D45
 70
     1
 10
0.0
 20
0.0
 30
0.0
  3
*D45
  1

  0
LINE
  5
2480A
330
24302
100
AcDbEntity
  8
寸法
 62
     0
 48
50.0
370
    -2
100
AcDbLine
 10
10278.6
 20
7597.776473043996
 30
0.0
 11
10278.6
 21
8120.385289714244
 31
0.0
  0
LINE
  5
2480B
330
24302
100
AcDbEntity
  8
寸法
 62
     0
 48
50.0
370
    -2
100
AcDbLine
 10
9453.600000000006
 20
6994.776473043995
 30
0.0
 11
9453.600000000006
 21
8120.385289714244
 31
0.0
  0
LINE
  5
2480C
330
24302
100
AcDbEntity
  8
寸法
 62
     0
 48
50.0
370
    -2
100
AcDbLine
 10
10278.6
 20
8060.385289714245
 30
0.0
 11
9453.600000000006
 21
8060.385289714245
 31
0.0
  0
INSERT
  5
2480D
330
24302
100
AcDbEntity
  8
寸法
 62
     0
 48
50.0
370
    -2
100
AcDbBlockReference
  2
_DOTSMALL
 10
10278.6
 20
8060.385289714245
 30
0.0
 41
100.0
 42
100.0
 43
100.0
  0
INSERT
  5
2480E
330
24302
100
AcDbEntity
  8
寸法
 62
     0
 48
50.0
370
    -2
100
AcDbBlockReference
  2
_DOTSMALL
 10
9453.600000000006
 20
8060.385289714245
 30
0.0
 41
100.0
 42
100.0
 43
100.0
 50
180.0
  0
MTEXT
  5
2480F
330
24302
100
AcDbEntity
  8
寸法
 62
     7
 48
50.0
100
AcDbMText
 10
9866.100000000004
 20
8160.397100737865
 30
0.0
 40
120.0
 41
0.0
 71
     5
 72
     1
  1
\A1;825
  7
STYLE1
 73
     1
 44
1.0
1001
ACAD
1000
MTEXTBEGIN
1070
    73
1070
     1
1070
    44
1040
1.0
1070
    74
1070
     0
1000
MTEXTEND
  0
POINT
  5
24810
330
24302
100
AcDbEntity
  8
DEFPOINTS
 62
     0
 48
50.0
100
AcDbPoint
 10
10278.6
 20
7577.776473043996
 30
0.0
  0
POINT
  5
24811
330
24302
100
AcDbEntity
  8
DEFPOINTS
 62
     0
 48
50.0
100
AcDbPoint
 10
9453.600000000006
 20
6974.776473043995
 30
0.0
  0
POINT
  5
24812
330
24302
100
AcDbEntity
  8
DEFPOINTS
 62
     0
 48
50.0
100
AcDbPoint
 10
9453.600000000006
 20
8060.385289714245
 30
0.0
  0
ENDBLK
  5
2430D
330
24302
100
AcDbEntity
  8
0
 48
50.0
100
AcDbBlockEnd
  0
BLOCK
  5
24319
330
2430E
100
AcDbEntity
  8
0
 48
50.0
100
AcDbBlockBegin
  2
*D46
 70
     1
 10
0.0
 20
0.0
 30
0.0
  3
*D46
  1

  0
LINE
  5
24669
330
2430E
100
AcDbEntity
  8
寸法
 62
     0
 48
50.0
370
    -2
100
AcDbLine
 10
10278.6
 20
7597.776473043996
 30
0.0
 11
10278.6
 21
8364.042931137907
 31
0.0
  0
LINE
  5
2466A
330
2430E
100
AcDbEntity
  8
寸法
 62
     0
 48
50.0
370
    -2
100
AcDbLine
 10
10155.6
 20
7524.776473043996
 30
0.0
 11
10155.6
 21
8364.042931137907
 31
0.0
  0
LINE
  5
2466B
330
2430E
100
AcDbEntity
  8
寸法
 62
     0
 48
50.0
370
    -2
100
AcDbLine
 10
10155.6
 20
8304.042931137907
 30
0.0
 11
10278.6
 21
8304.042931137907
 31
0.0
  0
LINE
  5
2466C
330
2430E
100
AcDbEntity
  8
寸法
 62
     0
 48
50.0
370
    -2
100
AcDbLine
 10
10278.6
 20
8304.042931137907
 30
0.0
 11
10690.19188309203
 21
8304.042931137907
 31
0.0
  0
INSERT
  5
2466D
330
2430E
100
AcDbEntity
  8
寸法
 62
     0
 48
50.0
370
    -2
100
AcDbBlockReference
  2
_DOTSMALL
 10
10155.6
 20
8304.042931137907
 30
0.0
 41
100.0
 42
100.0
 43
100.0
 50
180.0
  0
INSERT
  5
2466E
330
2430E
100
AcDbEntity
  8
寸法
 62
     0
 48
50.0
370
    -2
100
AcDbBlockReference
  2
_DOTSMALL
 10
10278.6
 20
8304.042931137907
 30
0.0
 41
100.0
 42
100.0
 43
100.0
  0
MTEXT
  5
2466F
330
2430E
100
AcDbEntity
  8
寸法
 62
     7
 48
50.0
100
AcDbMText
 10
10551.7066017178
 20
8404.054742161529
 30
0.0
 40
120.0
 41
0.0
 71
     5
 72
     1
  1
\A1;123
  7
STYLE1
 73
     1
 44
1.0
1001
ACAD
1000
MTEXTBEGIN
1070
    73
1070
     1
1070
    44
1040
1.0
1070
    74
1070
     0
1000
MTEXTEND
  0
POINT
  5
24670
330
2430E
100
AcDbEntity
  8
DEFPOINTS
 62
     0
 48
50.0
100
AcDbPoint
 10
10278.6
 20
7577.776473043996
 30
0.0
  0
POINT
  5
24671
330
2430E
100
AcDbEntity
  8
DEFPOINTS
 62
     0
 48
50.0
100
AcDbPoint
 10
10155.6
 20
7504.776473043996
 30
0.0
  0
POINT
  5
24672
330
2430E
100
AcDbEntity
  8
DEFPOINTS
 62
     0
 48
50.0
100
AcDbPoint
 10
10155.6
 20
8304.042931137907
 30
0.0
  0
ENDBLK
  5
2431A
330
2430E
100
AcDbEntity
  8
0
 48
50.0
100
AcDbBlockEnd
  0
BLOCK
  5
24B1E
330
24B14
100
AcDbEntity
  8
0
 48
50.0
100
AcDbBlockBegin
  2
*D53
 70
     1
 10
0.0
 20
0.0
 30
0.0
  3
*D53
  1

  0
LINE
  5
24B5E
330
24B14
100
AcDbEntity
  8
寸法
 62
     0
 48
50.0
370
    -2
100
AcDbLine
 10
6428.782312977232
 20
1817.489908718062
 30
0.0
 11
6428.782312977232
 21
2277.157716634443
 31
0.0
  0
LINE
  5
24B5F
330
24B14
100
AcDbEntity
  8
寸法
 62
     0
 48
50.0
370
    -2
100
AcDbLine
 10
6236.782312977233
 20
1817.489908718062
 30
0.0
 11
6236.782312977233
 21
2277.157716634443
 31
0.0
  0
LINE
  5
24B60
330
24B14
100
AcDbEntity
  8
寸法
 62
     0
 48
50.0
370
    -2
100
AcDbLine
 10
6428.782312977232
 20
2217.157716634442
 30
0.0
 11
6236.782312977233
 21
2217.157716634442
 31
0.0
  0
INSERT
  5
24B61
330
24B14
100
AcDbEntity
  8
寸法
 62
     0
 48
50.0
370
    -2
100
AcDbBlockReference
  2
_DOTSMALL
 10
6428.782312977232
 20
2217.157716634442
 30
0.0
 41
100.0
 42
100.0
 43
100.0
  0
INSERT
  5
24B62
330
24B14
100
AcDbEntity
  8
寸法
 62
     0
 48
50.0
370
    -2
100
AcDbBlockReference
  2
_DOTSMALL
 10
6236.782312977233
 20
2217.157716634442
 30
0.0
 41
100.0
 42
100.0
 43
100.0
 50
180.0
  0
MTEXT
  5
24B63
330
24B14
100
AcDbEntity
  8
寸法
 62
     7
 48
50.0
100
AcDbMText
 10
6332.782312977233
 20
2517.193149705308
 30
0.0
 40
120.0
 41
0.0
 71
     5
 72
     1
  1
\A1;120\P200\P280
  7
STYLE1
 73
     1
 44
1.0
1001
ACAD
1000
MTEXTBEGIN
1070
    73
1070
     1
1070
    44
1040
1.0
1070
    74
1070
     0
1000
MTEXTEND
  0
POINT
  5
24B64
330
24B14
100
AcDbEntity
  8
DEFPOINTS
 62
     0
 48
50.0
100
AcDbPoint
 10
6428.782312977232
 20
1797.489908718062
 30
0.0
  0
POINT
  5
24B65
330
24B14
100
AcDbEntity
  8
DEFPOINTS
 62
     0
 48
50.0
100
AcDbPoint
 10
6236.782312977233
 20
1797.489908718062
 30
0.0
  0
POINT
  5
24B66
330
24B14
100
AcDbEntity
  8
DEFPOINTS
 62
     0
 48
50.0
100
AcDbPoint
 10
6236.782312977233
 20
2217.157716634442
 30
0.0
  0
ENDBLK
  5
24B1F
330
24B14
100
AcDbEntity
  8
0
 48
50.0
100
AcDbBlockEnd
  0
BLOCK
  5
24B2A
330
24B20
100
AcDbEntity
  8
0
 48
50.0
100
AcDbBlockBegin
  2
*D54
 70
     1
 10
0.0
 20
0.0
 30
0.0
  3
*D54
  1

  0
LINE
  5
24B67
330
24B20
100
AcDbEntity
  8
寸法
 62
     0
 48
50.0
370
    -2
100
AcDbLine
 10
6108.782312977233
 20
865.489908718062
 30
0.0
 11
6108.782312977233
 21
415.0602707129019
 31
0.0
  0
LINE
  5
24B68
330
24B20
100
AcDbEntity
  8
寸法
 62
     0
 48
50.0
370
    -2
100
AcDbLine
 10
6556.782312977232
 20
865.489908718062
 30
0.0
 11
6556.782312977232
 21
415.0602707129019
 31
0.0
  0
LINE
  5
24B69
330
24B20
100
AcDbEntity
  8
寸法
 62
     0
 48
50.0
370
    -2
100
AcDbLine
 10
6108.782312977233
 20
475.0602707129019
 30
0.0
 11
6556.782312977232
 21
475.0602707129019
 31
0.0
  0
INSERT
  5
24B6A
330
24B20
100
AcDbEntity
  8
寸法
 62
     0
 48
50.0
370
    -2
100
AcDbBlockReference
  2
_DOTSMALL
 10
6108.782312977233
 20
475.0602707129019
 30
0.0
 41
100.0
 42
100.0
 43
100.0
 50
180.0
  0
INSERT
  5
24B6B
330
24B20
100
AcDbEntity
  8
寸法
 62
     0
 48
50.0
370
    -2
100
AcDbBlockReference
  2
_DOTSMALL
 10
6556.782312977232
 20
475.0602707129019
 30
0.0
 41
100.0
 42
100.0
 43
100.0
  0
MTEXT
  5
24B6C
330
24B20
100
AcDbEntity
  8
寸法
 62
     7
 48
50.0
100
AcDbMText
 10
6312.685554299009
 20
575.0602707129019
 30
0.0
 40
120.0
 41
0.0
 71
     5
 72
     1
  1
\A1;300
  7
STYLE1
 73
     1
 44
1.0
1001
ACAD
1000
MTEXTBEGIN
1070
    73
1070
     1
1070
    44
1040
1.0
1070
    74
1070
     0
1000
MTEXTEND
  0
POINT
  5
24B6D
330
24B20
100
AcDbEntity
  8
DEFPOINTS
 62
     0
 48
50.0
100
AcDbPoint
 10
6108.782312977233
 20
885.4899087180619
 30
0.0
  0
POINT
  5
24B6E
330
24B20
100
AcDbEntity
  8
DEFPOINTS
 62
     0
 48
50.0
100
AcDbPoint
 10
6556.782312977232
 20
885.4899087180619
 30
0.0
  0
POINT
  5
24B6F
330
24B20
100
AcDbEntity
  8
DEFPOINTS
 62
     0
 48
50.0
100
AcDbPoint
 10
6556.782312977232
 20
475.0602707129019
 30
0.0
  0
ENDBLK
  5
24B2B
330
24B20
100
AcDbEntity
  8
0
 48
50.0
100
AcDbBlockEnd
  0
BLOCK
  5
24B36
330
24B2C
100
AcDbEntity
  8
0
 48
50.0
100
AcDbBlockBegin
  2
*D55
 70
     1
 10
0.0
 20
0.0
 30
0.0
  3
*D55
  1

  0
LINE
  5
24B70
330
24B2C
100
AcDbEntity
  8
寸法
 62
     0
 48
50.0
370
    -2
100
AcDbLine
 10
6216.782312977232
 20
1797.489908718062
 30
0.0
 11
5441.745074415492
 21
1797.489908718062
 31
0.0
  0
LINE
  5
24B71
330
24B2C
100
AcDbEntity
  8
寸法
 62
     0
 48
50.0
370
    -2
100
AcDbLine
 10
6008.782312977236
 20
1013.489908718062
 30
0.0
 11
5441.745074415492
 21
1013.489908718062
 31
0.0
  0
LINE
  5
24B72
330
24B2C
100
AcDbEntity
  8
寸法
 62
     0
 48
50.0
370
    -2
100
AcDbLine
 10
5501.745074415492
 20
1797.489908718062
 30
0.0
 11
5501.745074415492
 21
1013.489908718062
 31
0.0
  0
INSERT
  5
24B73
330
24B2C
100
AcDbEntity
  8
寸法
 62
     0
 48
50.0
370
    -2
100
AcDbBlockReference
  2
_DOTSMALL
 10
5501.745074415492
 20
1797.489908718062
 30
0.0
 41
100.0
 42
100.0
 43
100.0
 50
90.0
  0
INSERT
  5
24B74
330
24B2C
100
AcDbEntity
  8
寸法
 62
     0
 48
50.0
370
    -2
100
AcDbBlockReference
  2
_DOTSMALL
 10
5501.745074415492
 20
1013.489908718062
 30
0.0
 41
100.0
 42
100.0
 43
100.0
 50
270.0
  0
MTEXT
  5
24B75
330
24B2C
100
AcDbEntity
  8
寸法
 62
     7
 48
50.0
100
AcDbMText
 10
5401.745074415492
 20
1385.030058374063
 30
0.0
 40
120.0
 41
0.0
 71
     5
 72
     1
  1
\A1;540
  7
STYLE1
 11
0.0000000000000001
 21
1.0
 31
0.0
 73
     1
 44
1.0
1001
ACAD
1000
MTEXTBEGIN
1070
    73
1070
     1
1070
    44
1040
1.0
1070
    74
1070
     0
1000
MTEXTEND
  0
POINT
  5
24B76
330
24B2C
100
AcDbEntity
  8
DEFPOINTS
 62
     0
 48
50.0
100
AcDbPoint
 10
6236.782312977233
 20
1797.489908718062
 30
0.0
  0
POINT
  5
24B77
330
24B2C
100
AcDbEntity
  8
DEFPOINTS
 62
     0
 48
50.0
100
AcDbPoint
 10
6028.782312977236
 20
1013.489908718062
 30
0.0
  0
POINT
  5
24B78
330
24B2C
100
AcDbEntity
  8
DEFPOINTS
 62
     0
 48
50.0
100
AcDbPoint
 10
5501.745074415492
 20
1013.489908718062
 30
0.0
  0
ENDBLK
  5
24B37
330
24B2C
100
AcDbEntity
  8
0
 48
50.0
100
AcDbBlockEnd
  0
BLOCK
  5
24B42
330
24B38
100
AcDbEntity
  8
0
 48
50.0
100
AcDbBlockBegin
  2
*D56
 70
     1
 10
0.0
 20
0.0
 30
0.0
  3
*D56
  1

  0
LINE
  5
24B79
330
24B38
100
AcDbEntity
  8
寸法
 62
     0
 48
50.0
370
    -2
100
AcDbLine
 10
6088.782312977232
 20
1253.489908718062
 30
0.0
 11
5906.361999244773
 21
1253.489908718062
 31
0.0
  0
LINE
  5
24B7A
330
24B38
100
AcDbEntity
  8
寸法
 62
     0
 48
50.0
370
    -2
100
AcDbLine
 10
6008.782312977236
 20
1013.489908718062
 30
0.0
 11
5906.361999244773
 21
1013.489908718062
 31
0.0
  0
LINE
  5
24B7B
330
24B38
100
AcDbEntity
  8
寸法
 62
     0
 48
50.0
370
    -2
100
AcDbLine
 10
5966.361999244773
 20
1253.489908718062
 30
0.0
 11
5966.361999244773
 21
1013.489908718062
 31
0.0
  0
INSERT
  5
24B7C
330
24B38
100
AcDbEntity
  8
寸法
 62
     0
 48
50.0
370
    -2
100
AcDbBlockReference
  2
_DOTSMALL
 10
5966.361999244773
 20
1253.489908718062
 30
0.0
 41
100.0
 42
100.0
 43
100.0
 50
90.0
  0
INSERT
  5
24B7D
330
24B38
100
AcDbEntity
  8
寸法
 62
     0
 48
50.0
370
    -2
100
AcDbBlockReference
  2
_DOTSMALL
 10
5966.361999244773
 20
1013.489908718062
 30
0.0
 41
100.0
 42
100.0
 43
100.0
 50
270.0
  0
MTEXT
  5
24B7E
330
24B38
100
AcDbEntity
  8
寸法
 62
     7
 48
50.0
100
AcDbMText
 10
5866.361999244773
 20
1133.489908718063
 30
0.0
 40
120.0
 41
0.0
 71
     5
 72
     1
  1
\A1;150
  7
STYLE1
 11
0.0000000000000001
 21
1.0
 31
0.0
 73
     1
 44
1.0
1001
ACAD
1000
MTEXTBEGIN
1070
    73
1070
     1
1070
    44
1040
1.0
1070
    74
1070
     0
1000
MTEXTEND
  0
POINT
  5
24B7F
330
24B38
100
AcDbEntity
  8
DEFPOINTS
 62
     0
 48
50.0
100
AcDbPoint
 10
6108.782312977233
 20
1253.489908718062
 30
0.0
  0
POINT
  5
24B80
330
24B38
100
AcDbEntity
  8
DEFPOINTS
 62
     0
 48
50.0
100
AcDbPoint
 10
6028.782312977236
 20
1013.489908718062
 30
0.0
  0
POINT
  5
24B81
330
24B38
100
AcDbEntity
  8
DEFPOINTS
 62
     0
 48
50.0
100
AcDbPoint
 10
5966.361999244773
 20
1013.489908718062
 30
0.0
  0
ENDBLK
  5
24B43
330
24B38
100
AcDbEntity
  8
0
 48
50.0
100
AcDbBlockEnd
  0
BLOCK
  5
24B50
330
24B44
100
AcDbEntity
  8
0
 48
50.0
100
AcDbBlockBegin
  2
*D57
 70
     1
 10
0.0
 20
0.0
 30
0.0
  3
*D57
  1

  0
LINE
  5
24B82
330
24B44
100
AcDbEntity
  8
寸法
 62
     0
 48
50.0
370
    -2
100
AcDbLine
 10
8183.621626154426
 20
1850.249908718063
 30
0.0
 11
9188.744892042299
 21
1850.249908718063
 31
0.0
  0
LINE
  5
24B83
330
24B44
100
AcDbEntity
  8
寸法
 62
     0
 48
50.0
370
    -2
100
AcDbLine
 10
8370.821626154427
 20
1797.489908718062
 30
0.0
 11
9188.744892042299
 21
1797.489908718062
 31
0.0
  0
LINE
  5
24B84
330
24B44
100
AcDbEntity
  8
寸法
 62
     0
 48
50.0
370
    -2
100
AcDbLine
 10
9128.744892042297
 20
1850.249908718063
 30
0.0
 11
9128.744892042297
 21
1950.249908718063
 31
0.0
  0
LINE
  5
24B85
330
24B44
100
AcDbEntity
  8
寸法
 62
     0
 48
50.0
370
    -2
100
AcDbLine
 10
9128.744892042297
 20
1797.489908718062
 30
0.0
 11
9128.744892042297
 21
1065.472101875095
 31
0.0
  0
LINE
  5
24B86
330
24B44
100
AcDbEntity
  8
寸法
 62
     0
 48
50.0
370
    -2
100
AcDbLine
 10
9128.744892042297
 20
1850.249908718063
 30
0.0
 11
9128.744892042297
 21
1797.489908718062
 31
0.0
  0
INSERT
  5
24B87
330
24B44
100
AcDbEntity
  8
寸法
 62
     0
 48
50.0
370
    -2
100
AcDbBlockReference
  2
_DOTSMALL
 10
9128.744892042297
 20
1850.249908718063
 30
0.0
 41
100.0
 42
100.0
 43
100.0
 50
270.0
  0
INSERT
  5
24B88
330
24B44
100
AcDbEntity
  8
寸法
 62
     0
 48
50.0
370
    -2
100
AcDbBlockReference
  2
_DOTSMALL
 10
9128.744892042297
 20
1797.489908718062
 30
0.0
 41
100.0
 42
100.0
 43
100.0
 50
90.0
  0
MTEXT
  5
24B89
330
24B44
100
AcDbEntity
  8
寸法
 62
     7
 48
50.0
100
AcDbMText
 10
9028.733081018676
 20
1331.481005296579
 30
0.0
 40
120.0
 41
0.0
 71
     5
 72
     1
  1
\A1;20～25
  7
STYLE1
 11
0.0000000000000001
 21
1.0
 31
0.0
 73
     1
 44
1.0
1001
ACAD
1000
MTEXTBEGIN
1070
    73
1070
     1
1070
    44
1040
1.0
1070
    74
1070
     0
1000
MTEXTEND
  0
POINT
  5
24B8A
330
24B44
100
AcDbEntity
  8
DEFPOINTS
 62
     0
 48
50.0
100
AcDbPoint
 10
8163.621626154428
 20
1850.249908718063
 30
0.0
  0
POINT
  5
24B8B
330
24B44
100
AcDbEntity
  8
DEFPOINTS
 62
     0
 48
50.0
100
AcDbPoint
 10
8350.821626154425
 20
1797.489908718062
 30
0.0
  0
POINT
  5
24B8C
330
24B44
100
AcDbEntity
  8
DEFPOINTS
 62
     0
 48
50.0
100
AcDbPoint
 10
9128.744892042297
 20
1797.489908718062
 30
0.0
  0
ENDBLK
  5
24B51
330
24B44
100
AcDbEntity
  8
0
 48
50.0
100
AcDbBlockEnd
  0
BLOCK
  5
24B5C
330
24B52
100
AcDbEntity
  8
0
 48
50.0
100
AcDbBlockBegin
  2
*D58
 70
     1
 10
0.0
 20
0.0
 30
0.0
  3
*D58
  1

  0
LINE
  5
24B8D
330
24B52
100
AcDbEntity
  8
寸法
 62
     0
 48
50.0
370
    -2
100
AcDbLine
 10
8370.821626154427
 20
1797.489908718062
 30
0.0
 11
8912.69022592327
 21
1797.489908718062
 31
0.0
  0
LINE
  5
24B8E
330
24B52
100
AcDbEntity
  8
寸法
 62
     0
 48
50.0
370
    -2
100
AcDbLine
 10
8370.821626154427
 20
1473.489908718061
 30
0.0
 11
8912.69022592327
 21
1473.489908718061
 31
0.0
  0
LINE
  5
24B8F
330
24B52
100
AcDbEntity
  8
寸法
 62
     0
 48
50.0
370
    -2
100
AcDbLine
 10
8852.69022592327
 20
1797.489908718062
 30
0.0
 11
8852.69022592327
 21
1473.489908718061
 31
0.0
  0
INSERT
  5
24B90
330
24B52
100
AcDbEntity
  8
寸法
 62
     0
 48
50.0
370
    -2
100
AcDbBlockReference
  2
_DOTSMALL
 10
8852.69022592327
 20
1797.489908718062
 30
0.0
 41
100.0
 42
100.0
 43
100.0
 50
90.0
  0
INSERT
  5
24B91
330
24B52
100
AcDbEntity
  8
寸法
 62
     0
 48
50.0
370
    -2
100
AcDbBlockReference
  2
_DOTSMALL
 10
8852.69022592327
 20
1473.489908718061
 30
0.0
 41
100.0
 42
100.0
 43
100.0
 50
270.0
  0
MTEXT
  5
24B92
330
24B52
100
AcDbEntity
  8
寸法
 62
     7
 48
50.0
100
AcDbMText
 10
8752.69022592327
 20
1635.489908718063
 30
0.0
 40
120.0
 41
0.0
 71
     5
 72
     1
  1
\A1;180
  7
STYLE1
 11
0.0000000000000001
 21
1.0
 31
0.0
 73
     1
 44
1.0
1001
ACAD
1000
MTEXTBEGIN
1070
    73
1070
     1
1070
    44
1040
1.0
1070
    74
1070
     0
1000
MTEXTEND
  0
POINT
  5
24B93
330
24B52
100
AcDbEntity
  8
DEFPOINTS
 62
     0
 48
50.0
100
AcDbPoint
 10
8350.821626154425
 20
1797.489908718062
 30
0.0
  0
POINT
  5
24B94
330
24B52
100
AcDbEntity
  8
DEFPOINTS
 62
     0
 48
50.0
100
AcDbPoint
 10
8350.821626154425
 20
1473.489908718061
 30
0.0
  0
POINT
  5
24B95
330
24B52
100
AcDbEntity
  8
DEFPOINTS
 62
     0
 48
50.0
100
AcDbPoint
 10
8852.69022592327
 20
1473.489908718061
 30
0.0
  0
ENDBLK
  5
24B5D
330
24B52
100
AcDbEntity
  8
0
 48
50.0
100
AcDbBlockEnd
  0
ENDSEC
  0
SECTION
  2
ENTITIES
  0
MTEXT
  5
763F
330
747D
100
AcDbEntity
  8
0
100
AcDbMText
 10
302.846345836809
 20
280.1983726409901
 30
0.0
 40
3.5
 41
5.323721266742722
 71
     1
 72
     5
  1

  7
MSMINCHO
 73
     1
 44
1.0
1001
ACAD
1000
MTEXTBEGIN
1070
    73
1070
     1
1070
    44
1040
1.0
1070
    74
1070
     0
1000
MTEXTEND
  0
LINE
  5
10B57
330
747D
100
AcDbEntity
  8
補助
  6
PHANTOM
 62
   230
 48
50.0
100
AcDbLine
 10
139.9999999999995
 20
11409.6
 30
0.0
 11
16307.2
 21
11409.6
 31
0.0
  0
LINE
  5
10B59
330
747D
100
AcDbEntity
  8
仕様書枠
  6
Continuous
 48
50.0
100
AcDbLine
 10
13107.2
 20
1200.0
 30
0.0
 11
13107.2
 21
-0.0000000000000729
 31
0.0
  0
LINE
  5
10B5D
330
747D
100
AcDbEntity
  8
仕様書枠
 48
50.0
100
AcDbLine
 10
140.0
 20
0.0
 30
0.0
 11
16307.2
 21
-0.0000000000000909
 31
0.0
  0
LINE
  5
10B5E
330
747D
100
AcDbEntity
  8
補助
  6
PHANTOM
 62
   230
 48
50.0
100
AcDbLine
 10
16307.2
 20
11409.6
 30
0.0
 11
16307.2
 21
1200.0
 31
0.0
  0
LINE
  5
10B6C
330
747D
100
AcDbEntity
  8
仕様書枠
 48
50.0
100
AcDbLine
 10
13107.2
 20
1200.0
 30
0.0
 11
16307.2
 21
1200.0
 31
0.0
  0
TEXT
  5
10B73
330
747D
100
AcDbEntity
  8
文字
 62
     7
 48
50.0
100
AcDbText
 10
13162.9790565769
 20
895.0906074299405
 30
0.0
 40
200.0
  1
基 礎 図
  7
STYLE2
100
AcDbText
  0
LINE
  5
10B7B
330
747D
100
AcDbEntity
  8
仕様書枠
 48
50.0
100
AcDbLine
 10
13107.2
 20
800.0
 30
0.0
 11
14251.2
 21
800.0
 31
0.0
  0
LINE
  5
10B88
330
747D
100
AcDbEntity
  8
仕様書枠
  6
Continuous
 48
50.0
100
AcDbLine
 10
14251.2
 20
1200.0
 30
0.0
 11
14251.2
 21
800.0
 31
0.0
  0
LINE
  5
16462
330
747D
100
AcDbEntity
  8
仕様書枠
 48
50.0
100
AcDbLine
 10
16307.2
 20
1200.0
 30
0.0
 11
16307.2
 21
-0.0000000000000909
 31
0.0
  0
LINE
  5
1903B
330
747D
100
AcDbEntity
  8
補助
  6
PHANTOM
 62
   230
 48
50.0
100
AcDbLine
 10
140.0
 20
0.0
 30
0.0
 11
139.9999999999995
 21
11409.6
 31
0.0
  0
LEADER
  5
1AC27
330
747D
100
AcDbEntity
  8
寸法
 48
50.0
100
AcDbLeader
  3
INABA_S50G
 73
     0
 74
     0
 75
     1
 40
120.0
 41
720.0000000000001
 76
     3
 10
10278.69549961499
 20
6908.569589788733
 30
0.0
 10
10435.46907400128
 20
6647.555676220901
 30
0.0
 10
10560.46907400128
 20
6647.555676220901
 30
0.0
340
1AC28
1001
ACAD
1000
DSTYLE
1002
{
1070
   341
1005
0
1070
    40
1040
1.0
1070
   343
1005
0
1070
   344
1005
0
1002
}
  0
MTEXT
  5
1AC28
102
{ACAD_REACTORS
330
1AC27
102
}
330
747D
100
AcDbEntity
  8
部品1
 62
     7
 48
50.0
100
AcDbMText
 10
11305.46907400128
 20
6732.555676220901
 30
0.0
 40
120.0
 41
0.0
 71
     6
 72
     1
  1
\A1;床下換気口
  7
STYLE1
 73
     1
 44
1.0
1001
ACAD
1000
MTEXTBEGIN
1070
    73
1070
     1
1070
    44
1040
1.0
1070
    74
1070
     0
1000
MTEXTEND
  0
TEXT
  5
1AC29
330
747D
100
AcDbEntity
  8
部品1
 48
50.0
100
AcDbText
 10
10627.43013846118
 20
5987.669865857026
 30
0.0
 40
80.0
  1
(a=45,b=55,c=75)
  7
STYLE1
100
AcDbText
  0
TEXT
  5
1AC2A
330
747D
100
AcDbEntity
  8
部品1
 48
50.0
100
AcDbText
 10
10468.85112970687
 20
6094.51508672578
 30
0.0
 40
80.0
  1
※a,b,cは屋根の出幅です。
  7
STYLE1
100
AcDbText
  0
MTEXT
  5
1AC2B
102
{ACAD_REACTORS
330
1AC2C
102
}
330
747D
100
AcDbEntity
  8
部品1
 62
     7
 48
50.0
100
AcDbMText
 10
11266.63832569548
 20
6273.825773658855
 30
0.0
 40
120.0
 41
0.0
 71
     6
 72
     1
  1
\A1;屋根の外寸
  7
STYLE1
 73
     1
 44
1.0
1001
ACAD
1000
MTEXTBEGIN
1070
    73
1070
     1
1070
    44
1040
1.0
1070
    74
1070
     0
1000
MTEXTEND
  0
LEADER
  5
1AC2C
330
747D
100
AcDbEntity
  8
寸法
 48
50.0
100
AcDbLeader
  3
INABA_S50G
 73
     0
 74
     0
 75
     1
 40
120.0
 41
672.0
 76
     3
 10
10328.69831350344
 20
6447.715117122431
 30
0.0
 10
10444.63832569548
 20
6188.825773658855
 30
0.0
 10
10569.63832569548
 20
6188.825773658855
 30
0.0
340
1AC2B
1001
ACAD
1000
DSTYLE
1002
{
1070
   341
1005
0
1070
    40
1040
1.0
1070
   343
1005
0
1070
   344
1005
0
1002
}
  0
TEXT
  5
1C7A1
330
747D
100
AcDbEntity
  8
文字
 62
     7
 48
50.0
100
AcDbText
 10
13188.16259899338
 20
79.80631269190417
 30
0.0
 40
80.0
  1
※布基礎には換気口を設けてください。
  7
STYLE2
100
AcDbText
  0
TEXT
  5
1C7E7
330
747D
100
AcDbEntity
  8
文字
 62
     7
 48
50.0
100
AcDbText
 10
13188.16259899338
 20
246.7109242801889
 30
0.0
 40
80.0
  1
※寒冷地等は地域の実情に合わせた基礎にして下さい。
  7
STYLE2
100
AcDbText
  0
TEXT
  5
1C7E8
330
747D
100
AcDbEntity
  8
文字
 62
     7
 48
50.0
100
AcDbText
 10
14325.79230300687
 20
499.5983841039506
 30
0.0
 40
160.0
  1
ＮＸＮ－１１ＤＬ－５
  7
STYLE2
100
AcDbText
  0
TEXT
  5
1C7EC
330
747D
100
AcDbEntity
  8
文字
 62
     7
 48
50.0
100
AcDbText
 10
14524.131837222
 20
1031.557706291229
 30
0.0
 40
100.0
  1
<縮尺> S=1/40
  7
STYLE2
100
AcDbText
  0
TEXT
  5
1C7ED
330
747D
100
AcDbEntity
  8
文字
 62
     7
 48
50.0
100
AcDbText
 10
13201.43669998441
 20
477.2740661031257
 30
0.0
 40
160.0
  1
機種名
  7
STYLE2
100
AcDbText
  0
LINE
  5
1C7EF
330
747D
100
AcDbEntity
  8
文字
 62
     7
 48
50.0
100
AcDbLine
 10
13187.2
 20
400.0
 30
0.0
 11
16227.2
 21
400.0
 31
0.0
  0
MTEXT
  5
1D2D5
102
{ACAD_REACTORS
330
1D2D6
102
}
330
747D
100
AcDbEntity
  8
部品1
 62
     7
 48
50.0
100
AcDbMText
 10
11473.99523070988
 20
7893.389217286501
 30
0.0
 40
120.0
 41
0.0
 71
     6
 72
     1
  1
アンカーボルト
  7
STYLE1
 73
     1
 44
1.0
1001
ACAD
1000
MTEXTBEGIN
1070
    73
1070
     1
1070
    44
1040
1.0
1070
    74
1070
     0
1000
MTEXTEND
  0
LEADER
  5
1D2D6
330
747D
100
AcDbEntity
  8
寸法
 48
50.0
100
AcDbLeader
  3
INABA_S50G
 73
     0
 74
     0
 75
     1
 40
120.0
 41
994.3492424049171
 76
     3
 10
10155.680085757
 20
7454.984317402704
 30
0.0
 10
10329.64598830496
 20
7808.389217286502
 30
0.0
 10
10454.64598830496
 20
7808.389217286502
 30
0.0
340
1D2D5
1001
ACAD
1000
DSTYLE
1002
{
1070
   341
1005
0
1070
    40
1040
1.0
1070
   343
1005
0
1070
   344
1005
0
1002
}
  0
MTEXT
  5
1D332
102
{ACAD_REACTORS
330
1D333
102
}
330
747D
100
AcDbEntity
  8
部品1
 62
     7
 48
50.0
100
AcDbMText
 10
9968.828697015695
 20
6779.412176556306
 30
0.0
 40
120.0
 41
0.0
 71
     6
 72
     1
  1
CB
  7
STYLE1
 73
     1
 44
1.0
1001
ACAD
1000
MTEXTBEGIN
1070
    73
1070
     1
1070
    44
1040
1.0
1070
    74
1070
     0
1000
MTEXTEND
  0
LEADER
  5
1D333
330
747D
100
AcDbEntity
  8
寸法
 48
50.0
100
AcDbLeader
  3
INABA_S50G
 73
     0
 74
     0
 75
     1
 40
120.0
 41
149.591883092037
 76
     3
 10
9541.954011061013
 20
6917.130490111131
 30
0.0
 10
9669.236813923658
 20
6694.412176556305
 30
0.0
 10
9794.236813923658
 20
6694.412176556305
 30
0.0
340
1D332
1001
ACAD
1000
DSTYLE
1002
{
1070
   341
1005
0
1070
    40
1040
1.0
1070
   343
1005
0
1070
   344
1005
0
1002
}
  0
DIMENSION
  5
20DE1
330
747D
100
AcDbEntity
  8
寸法
 48
50.0
100
AcDbDimension
  2
*D19
 10
10323.6
 20
8535.996795102915
 30
0.0
 11
10594.77462120246
 21
8535.996795102915
 31
0.0
 70
   160
  1
a
 71
     5
 42
45.0
  3
INABA_S40G
100
AcDbAlignedDimension
 13
10278.6
 23
7577.776473043994
 33
0.0
 14
10323.6
 24
8304.042931137905
 34
0.0
100
AcDbRotatedDimension
1001
ACAD
1000
DSTYLE
1002
{
1070
   341
1005
0
1002
}
  0
DIMENSION
  5
20DFB
330
747D
100
AcDbEntity
  8
寸法
 48
50.0
100
AcDbDimension
  2
*D20
 10
6168.600000000001
 20
8535.99679510293
 30
0.0
 11
5852.425378797541
 21
8535.99679510293
 31
0.0
 70
   160
  1
a
 71
     5
 42
44.99999999999636
  3
INABA_S40G
100
AcDbAlignedDimension
 13
6123.600000000004
 23
8304.042931137919
 33
0.0
 14
6168.600000000001
 24
7577.776473044007
 34
0.0
100
AcDbRotatedDimension
1001
ACAD
1000
DSTYLE
1002
{
1070
   341
1005
0
1002
}
  0
LINE
  5
22711
330
747D
100
AcDbEntity
  8
想像線
 48
10.0
100
AcDbLine
 10
10323.6
 20
7652.776473043996
 30
0.0
 11
6123.600000000006
 21
7652.776473044005
 31
0.0
  0
LINE
  5
22712
330
747D
100
AcDbEntity
  8
想像線
 48
10.0
100
AcDbLine
 10
6123.600000000003
 20
6142.776473044019
 30
0.0
 11
6123.600000000004
 21
7652.776473044011
 31
0.0
  0
LINE
  5
22713
330
747D
100
AcDbEntity
  8
想像線
 48
10.0
100
AcDbLine
 10
10323.6
 20
6142.776473044013
 30
0.0
 11
10323.6
 21
7652.776473043996
 31
0.0
  0
LINE
  5
22714
330
747D
100
AcDbEntity
  8
想像線
 48
10.0
100
AcDbLine
 10
10323.6
 20
6142.776473044013
 30
0.0
 11
6123.600000000003
 21
6142.776473044007
 31
0.0
  0
DIMENSION
  5
22741
330
747D
100
AcDbEntity
  8
寸法
 48
50.0
100
AcDbDimension
  2
*D25
 10
5293.721909610674
 20
7577.776473044008
 30
0.0
 11
5193.721909610673
 21
7615.276473044018
 31
0.0
 70
    32
  1
c
 71
     5
 42
75.00000000001818
  3
INABA_S40G
100
AcDbAlignedDimension
 13
5545.665006330072
 23
7652.776473044025
 33
0.0
 14
6168.600000000001
 24
7577.776473044007
 34
0.0
 50
90.0
100
AcDbRotatedDimension
1001
ACAD
1000
DSTYLE
1002
{
1070
   341
1005
0
1002
}
  0
DIMENSION
  5
2275B
330
747D
100
AcDbEntity
  8
寸法
 48
50.0
100
AcDbDimension
  2
*D26
 10
5293.721909610674
 20
6142.776473044033
 30
0.0
 11
5193.721909610673
 21
6170.276473044014
 31
0.0
 70
    32
  1
b
 71
     5
 42
54.99999999995998
  3
INABA_S40G
100
AcDbAlignedDimension
 13
6168.600000000001
 23
6197.776473043992
 33
0.0
 14
5545.665006330073
 24
6142.776473044033
 34
0.0
 50
90.0
100
AcDbRotatedDimension
1001
ACAD
1000
DSTYLE
1002
{
1070
   341
1005
0
1002
}
  0
DIMENSION
  5
229EC
330
747D
100
AcDbEntity
  8
寸法
 48
50.0
100
AcDbDimension
  2
*D28
 10
9705.469500000811
 20
6197.776473044021
 30
0.0
 11
9705.469500000809
 21
5910.812890366842
 31
0.0
 70
   160
 71
     5
 42
279.9999999999891
  3
INABA_S40G
100
AcDbAlignedDimension
 13
9784.534750000407
 23
6477.776473044009
 33
0.0
 14
9784.53475000041
 24
6197.776473044021
 34
0.0
 50
90.0
100
AcDbRotatedDimension
1001
ACAD
1000
DSTYLE
1002
{
1070
   341
1005
0
1002
}
  0
DIMENSION
  5
229ED
330
747D
100
AcDbEntity
  8
寸法
 48
50.0
100
AcDbDimension
  2
*D29
 10
9705.469500000811
 20
7377.776473043995
 30
0.0
 11
9705.469500000809
 21
7864.740055721156
 31
0.0
 70
   160
 71
     5
 42
199.9999999999945
  3
INABA_S40G
100
AcDbAlignedDimension
 13
9784.53475000041
 23
7577.776473043989
 33
0.0
 14
9784.53475000041
 24
7377.776473043995
 34
0.0
 50
90.0
100
AcDbRotatedDimension
1001
ACAD
1000
DSTYLE
1002
{
1070
   341
1005
0
1002
}
  0
DIMENSION
  5
22A4B
330
747D
100
AcDbEntity
  8
寸法
 48
50.0
100
AcDbDimension
  2
*D27
 10
10158.6
 20
7279.939000316641
 30
0.0
 11
10548.65905511811
 21
7279.939000316641
 31
0.0
 70
   160
 71
     5
 42
119.9999999999981
  3
INABA_S40G
100
AcDbAlignedDimension
 13
10278.6
 23
7296.932264355473
 33
0.0
 14
10158.6
 24
7279.939000316641
 34
0.0
100
AcDbRotatedDimension
1001
ACAD
1000
DSTYLE
1002
{
1070
   341
1005
0
1002
}
  0
LINE
  5
2413F
330
747D
100
AcDbEntity
  8
部品1
 48
50.0
100
AcDbLine
 10
10158.6
 20
7377.776473043994
 30
0.0
 11
6288.599999999997
 21
7377.776473043995
 31
0.0
  0
DIMENSION
  5
24142
330
747D
100
AcDbEntity
  8
寸法
 48
50.0
100
AcDbDimension
  2
*D30
 10
7695.6
 20
8304.042931137907
 30
0.0
 11
8925.600000000001
 21
8404.054742161529
 31
0.0
 70
    32
 71
     5
 42
2460.0
  3
INABA_S40G
100
AcDbAlignedDimension
 13
10155.6
 23
7504.776473043996
 33
0.0
 14
7695.6
 24
7504.776473043996
 34
0.0
100
AcDbRotatedDimension
1001
ACAD
1000
DSTYLE
1002
{
1070
   341
1005
0
1002
}
  0
LINE
  5
24144
330
747D
100
AcDbEntity
  8
部品1
 48
50.0
100
AcDbLine
 10
10278.6
 20
7577.776473043996
 30
0.0
 11
6168.600000000001
 21
7577.776473043996
 31
0.0
  0
DIMENSION
  5
24145
330
747D
100
AcDbEntity
  8
寸法
 48
50.0
100
AcDbDimension
  2
*D31
 10
10278.6
 20
8535.996795102914
 30
0.0
 11
8223.600000000001
 21
8635.996795102913
 31
0.0
 70
    32
 71
     5
 42
4110.0
  3
INABA_S40G
100
AcDbAlignedDimension
 13
6168.600000000001
 23
7577.776473043996
 33
0.0
 14
10278.6
 24
7577.776473043996
 34
0.0
100
AcDbRotatedDimension
1001
ACAD
1000
DSTYLE
1002
{
1070
   341
1005
0
1002
}
  0
LINE
  5
24147
330
747D
100
AcDbEntity
  8
部品1
 48
50.0
100
AcDbLine
 10
10278.6
 20
6197.776473044014
 30
0.0
 11
6168.599999999997
 21
6197.776473043992
 31
0.0
  0
DIMENSION
  5
24148
330
747D
100
AcDbEntity
  8
寸法
 48
50.0
100
AcDbDimension
  2
*D32
 10
7813.600000000008
 20
8060.385289714245
 30
0.0
 11
8223.600000000008
 21
8160.397100737865
 31
0.0
 70
    32
 71
     5
 42
820.0
  3
INABA_S40G
100
AcDbAlignedDimension
 13
8633.600000000008
 23
6974.776473043995
 33
0.0
 14
7813.600000000008
 24
6974.776473043995
 34
0.0
100
AcDbRotatedDimension
1001
ACAD
1000
DSTYLE
1002
{
1070
   341
1005
0
1002
}
  0
LINE
  5
2414A
330
747D
100
AcDbEntity
  8
部品1
 48
50.0
100
AcDbLine
 10
7913.600000000008
 20
6824.776473043995
 30
0.0
 11
7913.600000000008
 21
7024.776473043996
 31
0.0
  0
LINE
  5
2414B
330
747D
100
AcDbEntity
  8
部品1
 48
50.0
100
AcDbLine
 10
7713.600000000008
 20
6824.776473043995
 30
0.0
 11
7713.600000000008
 21
7024.776473043996
 31
0.0
  0
LINE
  5
2414C
330
747D
100
AcDbEntity
  8
部品1
 48
50.0
100
AcDbLine
 10
7093.600000000008
 20
6824.776473043995
 30
0.0
 11
7093.600000000008
 21
7024.776473043996
 31
0.0
  0
LINE
  5
2414D
330
747D
100
AcDbEntity
  8
部品1
 48
50.0
100
AcDbLine
 10
6893.600000000008
 20
6824.776473043995
 30
0.0
 11
6893.600000000008
 21
7024.776473043996
 31
0.0
  0
LINE
  5
2414E
102
{ACAD_REACTORS
330
24BB4
102
}
330
747D
100
AcDbEntity
  8
部品1
 48
50.0
100
AcDbLine
 10
6168.600000000001
 20
6197.776473043996
 30
0.0
 11
6168.600000000001
 21
7577.776473043996
 31
0.0
  0
DIMENSION
  5
2414F
330
747D
100
AcDbEntity
  8
寸法
 48
50.0
100
AcDbDimension
  2
*D33
 10
5545.665006330073
 20
6395.776473044
 30
0.0
 11
5545.665006330072
 21
6925.276473043997
 31
0.0
 70
   160
 71
     5
 42
1058.999999999996
  3
INABA_S40G
100
AcDbAlignedDimension
 13
6241.6
 23
7454.776473043996
 33
0.0
 14
6241.600000000008
 24
6395.776473044
 34
0.0
 50
90.0
100
AcDbRotatedDimension
1001
ACAD
1000
DSTYLE
1002
{
1070
   341
1005
0
1002
}
  0
DIMENSION
  5
24150
330
747D
100
AcDbEntity
  8
寸法
 48
50.0
100
AcDbDimension
  2
*D34
 10
5293.721909610674
 20
6197.776473043997
 30
0.0
 11
5293.721909610673
 21
6925.276473043997
 31
0.0
 70
   160
 71
     5
 42
1380.0
  3
INABA_S40G
100
AcDbAlignedDimension
 13
6168.600000000001
 23
7577.776473043996
 33
0.0
 14
6168.600000000001
 24
6197.776473043996
 34
0.0
 50
90.0
100
AcDbRotatedDimension
1001
ACAD
1000
DSTYLE
1002
{
1070
   341
1005
0
1002
}
  0
DIMENSION
  5
24153
330
747D
100
AcDbEntity
  8
寸法
 48
50.0
100
AcDbDimension
  2
*D35
 10
6651.285990614304
 20
7577.776473043996
 30
0.0
 11
6651.285990614302
 21
7201.613027860971
 31
0.0
 70
   160
 71
     5
 42
653.0
  3
INABA_S40G
100
AcDbAlignedDimension
 13
6943.600000000007
 23
6924.776473043995
 33
0.0
 14
6742.765475140901
 24
7577.776473043996
 34
0.0
 50
90.0
100
AcDbRotatedDimension
1001
ACAD
1000
DSTYLE
1002
{
1070
   341
1005
0
1002
}
  0
DIMENSION
  5
24154
330
747D
100
AcDbEntity
  8
寸法
 48
50.0
100
AcDbDimension
  2
*D36
 10
6993.600000000007
 20
8060.385289714245
 30
0.0
 11
7403.600000000007
 21
8160.397100737865
 31
0.0
 70
    32
 71
     5
 42
820.0
  3
INABA_S40G
100
AcDbAlignedDimension
 13
7813.600000000008
 23
6974.776473043995
 33
0.0
 14
6993.600000000007
 24
6974.776473043995
 34
0.0
100
AcDbRotatedDimension
1001
ACAD
1000
DSTYLE
1002
{
1070
   341
1005
0
1002
}
  0
DIMENSION
  5
24155
330
747D
100
AcDbEntity
  8
寸法
 48
50.0
100
AcDbDimension
  2
*D37
 10
6168.600000000001
 20
8060.385289714245
 30
0.0
 11
6581.100000000003
 21
8160.397100737865
 31
0.0
 70
    32
 71
     5
 42
825.0000000000072
  3
INABA_S40G
100
AcDbAlignedDimension
 13
6993.600000000007
 23
6974.776473043995
 33
0.0
 14
6168.600000000001
 24
7577.776473043996
 34
0.0
100
AcDbRotatedDimension
1001
ACAD
1000
DSTYLE
1002
{
1070
   341
1005
0
1002
}
  0
ARC
  5
24157
330
747D
100
AcDbEntity
  8
想像線
 48
5.0
100
AcDbCircle
 10
6938.600000000004
 20
6197.776473043999
 30
0.0
 40
720.0
100
AcDbArc
 50
180.0
 51
270.0
  0
DIMENSION
  5
24158
330
747D
100
AcDbEntity
  8
寸法
 48
50.0
100
AcDbDimension
  2
*D38
 10
6651.285990614302
 20
6924.776473043995
 30
0.0
 11
6651.285990614301
 21
6639.776473043996
 31
0.0
 70
   160
 71
     5
 42
726.9999999999891
  3
INABA_S40G
100
AcDbAlignedDimension
 13
6742.765475140901
 23
6197.776473044007
 33
0.0
 14
6943.600000000007
 24
6924.776473043995
 34
0.0
 50
90.0
100
AcDbRotatedDimension
1001
ACAD
1000
DSTYLE
1002
{
1070
   341
1005
0
1002
}
  0
DIMENSION
  5
24159
330
747D
100
AcDbEntity
  8
寸法
 48
50.0
100
AcDbDimension
  2
*D39
 10
6055.512673767881
 20
5477.776473043993
 30
0.0
 11
6055.51267376788
 21
5837.776473043994
 31
0.0
 70
   160
  1
扉の出<>
 71
     5
 42
720.0
  3
INABA_S40G
100
AcDbAlignedDimension
 13
6168.600000000004
 23
6197.776473043992
 33
0.0
 14
6524.325326928809
 24
5477.776473043991
 34
0.0
 50
90.0
100
AcDbRotatedDimension
1001
ACAD
1000
DSTYLE
1002
{
1070
   341
1005
0
1002
}
  0
DIMENSION
  5
2415A
330
747D
100
AcDbEntity
  8
寸法
 48
50.0
100
AcDbDimension
  2
*D40
 10
5545.665006330073
 20
6197.776473043997
 30
0.0
 11
5545.665006330072
 21
5862.245524201404
 31
0.0
 70
   160
 71
     5
 42
198.0000000000036
  3
INABA_S40G
100
AcDbAlignedDimension
 13
6241.600000000008
 23
6395.776473044
 33
0.0
 14
6168.600000000001
 24
6197.776473043996
 34
0.0
 50
90.0
100
AcDbRotatedDimension
1001
ACAD
1000
DSTYLE
1002
{
1070
   341
1005
0
1002
}
  0
LINE
  5
2415B
330
747D
100
AcDbEntity
  8
細線
 48
50.0
100
AcDbLine
 10
6483.600000000004
 20
6376.281072332309
 30
0.0
 11
6585.095400711693
 21
6477.776473043995
 31
0.0
  0
LINE
  5
2415C
330
747D
100
AcDbEntity
  8
細線
 48
50.0
100
AcDbLine
 10
6483.600000000006
 20
6331.379791726959
 30
0.0
 11
6629.996681317031
 21
6477.776473043995
 31
0.0
  0
LINE
  5
2415D
330
747D
100
AcDbEntity
  8
部品1
 48
50.0
100
AcDbLine
 10
6483.600000000001
 20
6477.776473043995
 30
0.0
 11
6483.600000000008
 21
6197.776473043996
 31
0.0
  0
LINE
  5
2415E
330
747D
100
AcDbEntity
  8
部品1
 48
50.0
100
AcDbLine
 10
6683.600000000001
 20
6477.776473043997
 30
0.0
 11
6683.600000000009
 21
6197.776473043999
 31
0.0
  0
LINE
  5
2415F
330
747D
100
AcDbEntity
  8
細線
 48
50.0
100
AcDbLine
 10
6483.600000000004
 20
6286.478511121615
 30
0.0
 11
6674.897961922383
 21
6477.776473043995
 31
0.0
  0
LINE
  5
24160
330
747D
100
AcDbEntity
  8
細線
 48
50.0
100
AcDbLine
 10
6483.600000000008
 20
6241.577230516272
 30
0.0
 11
6683.6
 21
6441.577230516263
 31
0.0
  0
LINE
  5
24161
330
747D
100
AcDbEntity
  8
細線
 48
50.0
100
AcDbLine
 10
6484.700523133081
 20
6197.776473043996
 30
0.0
 11
6683.600000000004
 21
6396.675949910923
 31
0.0
  0
LINE
  5
24162
330
747D
100
AcDbEntity
  8
センター
 48
2.0
100
AcDbLine
 10
6291.600000000007
 20
6445.776473043999
 30
0.0
 11
6291.600000000007
 21
6345.776473044
 31
0.0
  0
CIRCLE
  5
24163
330
747D
100
AcDbEntity
  8
部品1
 48
50.0
100
AcDbCircle
 10
6291.599999999993
 20
6395.776473044
 30
0.0
 40
35.0
  0
LINE
  5
24164
330
747D
100
AcDbEntity
  8
センター
 48
2.0
100
AcDbLine
 10
6241.600000000008
 20
6395.776473044
 30
0.0
 11
6341.600000000007
 21
6395.776473044
 31
0.0
  0
LINE
  5
24165
330
747D
100
AcDbEntity
  8
細線
 48
50.0
100
AcDbLine
 10
6574.503084343773
 20
6197.776473043997
 30
0.0
 11
6683.600000000004
 21
6306.873388700231
 31
0.0
  0
LINE
  5
24166
330
747D
100
AcDbEntity
  8
細線
 48
50.0
100
AcDbLine
 10
6529.601803738426
 20
6197.776473043997
 30
0.0
 11
6683.600000000004
 21
6351.77466930558
 31
0.0
  0
LINE
  5
24167
330
747D
100
AcDbEntity
  8
細線
 48
50.0
100
AcDbLine
 10
6619.404364949118
 20
6197.776473043999
 30
0.0
 11
6683.600000000009
 21
6261.972108094887
 31
0.0
  0
LINE
  5
24168
330
747D
100
AcDbEntity
  8
細線
 48
50.0
100
AcDbLine
 10
6664.305645554467
 20
6197.776473044001
 30
0.0
 11
6683.600000000009
 21
6217.070827489543
 31
0.0
  0
LINE
  5
24169
102
{ACAD_REACTORS
330
24BB4
102
}
330
747D
100
AcDbEntity
  8
部品1
 48
50.0
100
AcDbLine
 10
6288.599999999998
 20
6812.776473043999
 30
0.0
 11
6168.600000000001
 21
6812.776473043998
 31
0.0
  0
LINE
  5
2416A
330
747D
100
AcDbEntity
  8
細線
 48
50.0
100
AcDbLine
 10
6483.600000000004
 20
6421.182352937655
 30
0.0
 11
6540.194120106341
 21
6477.776473043994
 31
0.0
  0
LINE
  5
2416B
330
747D
100
AcDbEntity
  8
想像線
 48
5.0
100
AcDbLine
 10
6938.600000000004
 20
6197.776473044011
 30
0.0
 11
6938.600000000004
 21
5477.776473043999
 31
0.0
  0
LINE
  5
2416D
330
747D
100
AcDbEntity
  8
細線
 48
50.0
100
AcDbLine
 10
7303.600000000004
 20
6376.281072332307
 30
0.0
 11
7405.095400711696
 21
6477.776473043999
 31
0.0
  0
LINE
  5
2416E
330
747D
100
AcDbEntity
  8
細線
 48
50.0
100
AcDbLine
 10
7303.600000000006
 20
6331.379791726959
 30
0.0
 11
7449.996681317035
 21
6477.776473043999
 31
0.0
  0
LINE
  5
2416F
330
747D
100
AcDbEntity
  8
部品1
 48
50.0
100
AcDbLine
 10
7503.6
 20
6477.776473043999
 30
0.0
 11
7503.600000000007
 21
6197.776473043999
 31
0.0
  0
LINE
  5
24170
330
747D
100
AcDbEntity
  8
部品1
 48
50.0
100
AcDbLine
 10
7303.600000000002
 20
6477.776473043999
 30
0.0
 11
7303.600000000007
 21
6197.776473043996
 31
0.0
  0
LINE
  5
24171
330
747D
100
AcDbEntity
  8
細線
 48
50.0
100
AcDbLine
 10
7303.600000000004
 20
6286.478511121615
 30
0.0
 11
7494.897961922389
 21
6477.776473043999
 31
0.0
  0
LINE
  5
24172
330
747D
100
AcDbEntity
  8
細線
 48
50.0
100
AcDbLine
 10
7303.600000000007
 20
6241.57723051627
 30
0.0
 11
7503.6
 21
6441.577230516265
 31
0.0
  0
LINE
  5
24173
330
747D
100
AcDbEntity
  8
細線
 48
50.0
100
AcDbLine
 10
7304.70052313308
 20
6197.776473043996
 30
0.0
 11
7503.6
 21
6396.675949910923
 31
0.0
  0
LINE
  5
24174
330
747D
100
AcDbEntity
  8
細線
 48
50.0
100
AcDbLine
 10
7394.503084343772
 20
6197.776473043997
 30
0.0
 11
7503.600000000004
 21
6306.873388700231
 31
0.0
  0
LINE
  5
24175
330
747D
100
AcDbEntity
  8
細線
 48
50.0
100
AcDbLine
 10
7349.601803738426
 20
6197.776473043997
 30
0.0
 11
7503.600000000004
 21
6351.774669305577
 31
0.0
  0
LINE
  5
24176
330
747D
100
AcDbEntity
  8
細線
 48
50.0
100
AcDbLine
 10
7439.404364949119
 20
6197.776473043999
 30
0.0
 11
7503.600000000007
 21
6261.972108094887
 31
0.0
  0
LINE
  5
24177
330
747D
100
AcDbEntity
  8
細線
 48
50.0
100
AcDbLine
 10
7484.305645554467
 20
6197.776473044001
 30
0.0
 11
7503.600000000007
 21
6217.070827489543
 31
0.0
  0
LINE
  5
24178
330
747D
100
AcDbEntity
  8
センター
 48
2.0
100
AcDbLine
 10
6943.600000000007
 20
6924.776473043995
 30
0.0
 11
7043.600000000008
 21
6924.776473043995
 31
0.0
  0
LINE
  5
24179
330
747D
100
AcDbEntity
  8
部品1
 48
50.0
100
AcDbLine
 10
7093.600000000008
 20
6824.776473043995
 30
0.0
 11
6893.600000000008
 21
6824.776473043995
 31
0.0
  0
LINE
  5
2417A
330
747D
100
AcDbEntity
  8
センター
 48
2.0
100
AcDbLine
 10
6993.600000000007
 20
6974.776473043995
 30
0.0
 11
6993.600000000007
 21
6874.776473043995
 31
0.0
  0
LINE
  5
2417B
330
747D
100
AcDbEntity
  8
細線
 48
50.0
100
AcDbLine
 10
7303.600000000004
 20
6421.182352937655
 30
0.0
 11
7360.194120106346
 21
6477.776473043999
 31
0.0
  0
LINE
  5
2417C
330
747D
100
AcDbEntity
  8
細線
 48
50.0
100
AcDbLine
 10
8123.600000000005
 20
6376.281072332307
 30
0.0
 11
8225.095400711699
 21
6477.776473044002
 31
0.0
  0
LINE
  5
2417D
330
747D
100
AcDbEntity
  8
細線
 48
50.0
100
AcDbLine
 10
8123.600000000008
 20
6331.379791726959
 30
0.0
 11
8269.996681317037
 21
6477.776473044002
 31
0.0
  0
LINE
  5
2417E
330
747D
100
AcDbEntity
  8
細線
 48
50.0
100
AcDbLine
 10
8124.700523133078
 20
6197.776473043996
 30
0.0
 11
8323.6
 21
6396.675949910923
 31
0.0
  0
LINE
  5
2417F
330
747D
100
AcDbEntity
  8
細線
 48
50.0
100
AcDbLine
 10
8123.600000000008
 20
6241.57723051627
 30
0.0
 11
8323.6
 21
6441.577230516265
 31
0.0
  0
LINE
  5
24180
330
747D
100
AcDbEntity
  8
細線
 48
50.0
100
AcDbLine
 10
8123.600000000005
 20
6286.478511121615
 30
0.0
 11
8314.897961922392
 21
6477.776473044002
 31
0.0
  0
LINE
  5
24181
330
747D
100
AcDbEntity
  8
部品1
 48
50.0
100
AcDbLine
 10
8123.599999999999
 20
6477.776473044002
 30
0.0
 11
8123.600000000008
 21
6197.776473043996
 31
0.0
  0
LINE
  5
24182
330
747D
100
AcDbEntity
  8
部品1
 48
50.0
100
AcDbLine
 10
8323.6
 20
6477.776473044004
 30
0.0
 11
8323.600000000007
 21
6197.776473043999
 31
0.0
  0
LINE
  5
24183
330
747D
100
AcDbEntity
  8
センター
 48
2.0
100
AcDbLine
 10
7695.600000000007
 20
6445.776473043999
 30
0.0
 11
7695.600000000007
 21
6345.776473044
 31
0.0
  0
CIRCLE
  5
24184
330
747D
100
AcDbEntity
  8
部品1
 48
50.0
100
AcDbCircle
 10
7695.600000000007
 20
6395.776473044
 30
0.0
 40
35.0
  0
TEXT
  5
24185
330
747D
100
AcDbEntity
  8
寸法
 48
50.0
100
AcDbText
 10
7814.912392459764
 20
6216.457763836734
 30
0.0
 40
120.0
  1
扉面
  7
STYLE1
100
AcDbText
  0
LINE
  5
24186
330
747D
100
AcDbEntity
  8
センター
 48
2.0
100
AcDbLine
 10
7645.600000000007
 20
6395.776473044
 30
0.0
 11
7745.600000000007
 21
6395.776473044
 31
0.0
  0
LINE
  5
24187
330
747D
100
AcDbEntity
  8
細線
 48
50.0
100
AcDbLine
 10
8169.601803738427
 20
6197.776473043997
 30
0.0
 11
8323.600000000004
 21
6351.774669305577
 31
0.0
  0
LINE
  5
24188
330
747D
100
AcDbEntity
  8
細線
 48
50.0
100
AcDbLine
 10
8214.503084343773
 20
6197.776473043997
 30
0.0
 11
8323.600000000004
 21
6306.873388700231
 31
0.0
  0
LINE
  5
24189
330
747D
100
AcDbEntity
  8
細線
 48
50.0
100
AcDbLine
 10
8304.305645554467
 20
6197.776473044001
 30
0.0
 11
8323.600000000007
 21
6217.070827489543
 31
0.0
  0
LINE
  5
2418A
330
747D
100
AcDbEntity
  8
細線
 48
50.0
100
AcDbLine
 10
8259.404364949119
 20
6197.776473043999
 30
0.0
 11
8323.600000000007
 21
6261.972108094887
 31
0.0
  0
LINE
  5
2418B
330
747D
100
AcDbEntity
  8
センター
 48
2.0
100
AcDbLine
 10
7763.600000000008
 20
6924.776473043995
 30
0.0
 11
7863.600000000008
 21
6924.776473043995
 31
0.0
  0
LINE
  5
2418C
330
747D
100
AcDbEntity
  8
部品1
 48
50.0
100
AcDbLine
 10
7913.600000000008
 20
6824.776473043995
 30
0.0
 11
7713.600000000008
 21
6824.776473043995
 31
0.0
  0
LINE
  5
2418D
330
747D
100
AcDbEntity
  8
センター
 48
2.0
100
AcDbLine
 10
7813.600000000008
 20
6974.776473043995
 30
0.0
 11
7813.600000000008
 21
6874.776473043995
 31
0.0
  0
LINE
  5
2418E
330
747D
100
AcDbEntity
  8
細線
 48
50.0
100
AcDbLine
 10
8123.600000000005
 20
6421.182352937655
 30
0.0
 11
8180.194120106351
 21
6477.776473044002
 31
0.0
  0
DIMENSION
  5
2418F
330
747D
100
AcDbEntity
  8
寸法
 48
50.0
100
AcDbDimension
  2
*D41
 10
6291.6
 20
8304.042931137907
 30
0.0
 11
6993.6
 21
8404.042931137906
 31
0.0
 70
    32
 71
     5
 42
1404.0
  3
INABA_S40G
100
AcDbAlignedDimension
 13
7695.6
 23
7504.776473043996
 33
0.0
 14
6291.6
 24
7504.776473043996
 34
0.0
100
AcDbRotatedDimension
1001
ACAD
1000
DSTYLE
1002
{
1070
   341
1005
0
1002
}
  0
DIMENSION
  5
24191
330
747D
100
AcDbEntity
  8
寸法
 48
50.0
100
AcDbDimension
  2
*D42
 10
6168.600000000001
 20
8304.042931137907
 30
0.0
 11
5895.493398282201
 21
8304.042931137907
 31
0.0
 70
   160
 71
     5
 42
123.0
  3
INABA_S40G
100
AcDbAlignedDimension
 13
6291.6
 23
7504.776473043996
 33
0.0
 14
6168.600000000001
 24
7577.776473043996
 34
0.0
100
AcDbRotatedDimension
1001
ACAD
1000
DSTYLE
1002
{
1070
   341
1005
0
1002
}
  0
DIMENSION
  5
24193
330
747D
100
AcDbEntity
  8
寸法
 48
50.0
100
AcDbDimension
  2
*D43
 10
5545.665006330072
 20
7454.776473043996
 30
0.0
 11
5545.665006330072
 21
7850.883074761796
 31
0.0
 70
   160
 71
     5
 42
123.0
  3
INABA_S40G
100
AcDbAlignedDimension
 13
6168.600000000001
 23
7577.776473043996
 33
0.0
 14
6241.6
 24
7454.776473043996
 34
0.0
 50
90.0
100
AcDbRotatedDimension
1001
ACAD
1000
DSTYLE
1002
{
1070
   341
1005
0
1002
}
  0
LINE
  5
24194
330
747D
100
AcDbEntity
  8
細線
 48
50.0
100
AcDbLine
 10
6483.600000000008
 20
7514.701562017839
 30
0.0
 11
6546.674911026169
 21
7577.776473043996
 31
0.0
  0
LINE
  5
24195
330
747D
100
AcDbEntity
  8
細線
 48
50.0
100
AcDbLine
 10
6483.600000000009
 20
7469.800281412493
 30
0.0
 11
6591.576191631512
 21
7577.776473043994
 31
0.0
  0
LINE
  5
24196
330
747D
100
AcDbEntity
  8
部品1
 48
50.0
100
AcDbLine
 10
6683.600000000009
 20
7577.776473043996
 30
0.0
 11
6683.600000000011
 21
7377.776473043994
 31
0.0
  0
LINE
  5
24197
330
747D
100
AcDbEntity
  8
部品1
 48
50.0
100
AcDbLine
 10
6483.600000000008
 20
7577.776473043996
 30
0.0
 11
6483.600000000011
 21
7377.776473043994
 31
0.0
  0
LINE
  5
24198
330
747D
100
AcDbEntity
  8
細線
 48
50.0
100
AcDbLine
 10
6483.600000000009
 20
7424.899000807146
 30
0.0
 11
6636.477472236858
 21
7577.776473043996
 31
0.0
  0
LINE
  5
24199
330
747D
100
AcDbEntity
  8
細線
 48
50.0
100
AcDbLine
 10
6483.600000000011
 20
7379.997720201799
 30
0.0
 11
6681.378752842201
 21
7577.776473043994
 31
0.0
  0
LINE
  5
2419A
102
{ACAD_REACTORS
330
24BB4
102
}
330
747D
100
AcDbEntity
  8
部品1
 48
50.0
100
AcDbLine
 10
6288.599999999998
 20
7012.776473043999
 30
0.0
 11
6168.600000000001
 21
7012.776473043998
 31
0.0
  0
LINE
  5
2419B
330
747D
100
AcDbEntity
  8
センター
 48
2.0
100
AcDbLine
 10
6241.6
 20
7454.776473043996
 30
0.0
 11
6341.6
 21
7454.776473043996
 31
0.0
  0
CIRCLE
  5
2419C
330
747D
100
AcDbEntity
  8
部品1
 48
50.0
100
AcDbCircle
 10
6291.6
 20
7454.776473043996
 30
0.0
 40
35.0
  0
LINE
  5
2419D
330
747D
100
AcDbEntity
  8
センター
 48
2.0
100
AcDbLine
 10
6291.6
 20
7504.776473043996
 30
0.0
 11
6291.6
 21
7404.776473043996
 31
0.0
  0
LINE
  5
2419E
330
747D
100
AcDbEntity
  8
細線
 48
50.0
100
AcDbLine
 10
6526.280033447545
 20
7377.776473043993
 30
0.0
 11
6683.600000000009
 21
7535.096439596452
 31
0.0
  0
LINE
  5
2419F
330
747D
100
AcDbEntity
  8
細線
 48
50.0
100
AcDbLine
 10
6571.181314052878
 20
7377.776473043994
 30
0.0
 11
6683.600000000009
 21
7490.195158991108
 31
0.0
  0
LINE
  5
241A0
330
747D
100
AcDbEntity
  8
細線
 48
50.0
100
AcDbLine
 10
6660.983875263568
 20
7377.776473043993
 30
0.0
 11
6683.600000000011
 21
7400.392597780435
 31
0.0
  0
LINE
  5
241A1
330
747D
100
AcDbEntity
  8
細線
 48
50.0
100
AcDbLine
 10
6616.082594658232
 20
7377.776473043994
 30
0.0
 11
6683.600000000011
 21
7445.29387838577
 31
0.0
  0
LINE
  5
241A2
330
747D
100
AcDbEntity
  8
細線
 48
50.0
100
AcDbLine
 10
6483.600000000008
 20
7559.602842623182
 30
0.0
 11
6501.773630420821
 21
7577.776473043996
 31
0.0
  0
LINE
  5
241A3
330
747D
100
AcDbEntity
  8
細線
 48
50.0
100
AcDbLine
 10
7303.600000000007
 20
7514.701562017839
 30
0.0
 11
7366.674911026168
 21
7577.776473043996
 31
0.0
  0
LINE
  5
241A4
330
747D
100
AcDbEntity
  8
細線
 48
50.0
100
AcDbLine
 10
7303.60000000001
 20
7469.800281412496
 30
0.0
 11
7411.576191631512
 21
7577.776473043994
 31
0.0
  0
LINE
  5
241A5
330
747D
100
AcDbEntity
  8
部品1
 48
50.0
100
AcDbLine
 10
7503.600000000007
 20
7577.776473043996
 30
0.0
 11
7503.600000000012
 21
7377.776473043995
 31
0.0
  0
LINE
  5
241A6
330
747D
100
AcDbEntity
  8
部品1
 48
50.0
100
AcDbLine
 10
7303.600000000007
 20
7577.776473043996
 30
0.0
 11
7303.600000000011
 21
7377.776473043995
 31
0.0
  0
LINE
  5
241A7
330
747D
100
AcDbEntity
  8
細線
 48
50.0
100
AcDbLine
 10
7303.600000000011
 20
7379.997720201804
 30
0.0
 11
7501.378752842201
 21
7577.776473043994
 31
0.0
  0
LINE
  5
241A8
330
747D
100
AcDbEntity
  8
細線
 48
50.0
100
AcDbLine
 10
7303.600000000011
 20
7424.899000807148
 30
0.0
 11
7456.477472236858
 21
7577.776473043996
 31
0.0
  0
LINE
  5
241AA
330
747D
100
AcDbEntity
  8
部品1
 48
50.0
100
AcDbLine
 10
7093.600000000008
 20
7024.776473043996
 30
0.0
 11
6893.600000000008
 21
7024.776473043996
 31
0.0
  0
LINE
  5
241AB
330
747D
100
AcDbEntity
  8
細線
 48
50.0
100
AcDbLine
 10
7391.181314052881
 20
7377.776473043995
 30
0.0
 11
7503.600000000007
 21
7490.195158991108
 31
0.0
  0
LINE
  5
241AC
330
747D
100
AcDbEntity
  8
細線
 48
50.0
100
AcDbLine
 10
7346.280033447545
 20
7377.776473043994
 30
0.0
 11
7503.600000000007
 21
7535.096439596452
 31
0.0
  0
LINE
  5
241AD
330
747D
100
AcDbEntity
  8
細線
 48
50.0
100
AcDbLine
 10
7480.983875263572
 20
7377.776473043994
 30
0.0
 11
7503.600000000012
 21
7400.392597780431
 31
0.0
  0
LINE
  5
241AE
330
747D
100
AcDbEntity
  8
細線
 48
50.0
100
AcDbLine
 10
7436.082594658232
 20
7377.776473043995
 30
0.0
 11
7503.600000000012
 21
7445.293878385772
 31
0.0
  0
LINE
  5
241AF
330
747D
100
AcDbEntity
  8
細線
 48
50.0
100
AcDbLine
 10
7303.600000000007
 20
7559.602842623182
 30
0.0
 11
7321.773630420821
 21
7577.776473043996
 31
0.0
  0
LINE
  5
241B0
330
747D
100
AcDbEntity
  8
細線
 48
50.0
100
AcDbLine
 10
8123.600000000008
 20
7514.701562017839
 30
0.0
 11
8186.674911026168
 21
7577.776473043996
 31
0.0
  0
LINE
  5
241B1
330
747D
100
AcDbEntity
  8
細線
 48
50.0
100
AcDbLine
 10
8123.600000000008
 20
7469.800281412496
 30
0.0
 11
8231.576191631511
 21
7577.776473043994
 31
0.0
  0
LINE
  5
241B2
330
747D
100
AcDbEntity
  8
細線
 48
50.0
100
AcDbLine
 10
8123.600000000012
 20
7424.899000807148
 30
0.0
 11
8276.477472236859
 21
7577.776473043996
 31
0.0
  0
LINE
  5
241B3
330
747D
100
AcDbEntity
  8
細線
 48
50.0
100
AcDbLine
 10
8123.600000000012
 20
7379.997720201804
 30
0.0
 11
8321.378752842202
 21
7577.776473043994
 31
0.0
  0
LINE
  5
241B4
330
747D
100
AcDbEntity
  8
部品1
 48
50.0
100
AcDbLine
 10
8123.600000000008
 20
7577.776473043996
 30
0.0
 11
8123.600000000012
 21
7377.776473043995
 31
0.0
  0
LINE
  5
241B5
330
747D
100
AcDbEntity
  8
部品1
 48
50.0
100
AcDbLine
 10
8323.600000000007
 20
7577.776473043996
 30
0.0
 11
8323.600000000011
 21
7377.776473043995
 31
0.0
  0
LINE
  5
241B6
330
747D
100
AcDbEntity
  8
部品1
 48
50.0
100
AcDbLine
 10
7913.600000000008
 20
7024.776473043996
 30
0.0
 11
7713.600000000008
 21
7024.776473043996
 31
0.0
  0
LINE
  5
241B7
330
747D
100
AcDbEntity
  8
センター
 48
2.0
100
AcDbLine
 10
7645.6
 20
7454.776473043996
 30
0.0
 11
7745.6
 21
7454.776473043996
 31
0.0
  0
CIRCLE
  5
241B8
330
747D
100
AcDbEntity
  8
部品1
 48
50.0
100
AcDbCircle
 10
7695.6
 20
7454.776473043996
 30
0.0
 40
35.0
  0
LINE
  5
241B9
330
747D
100
AcDbEntity
  8
センター
 48
2.0
100
AcDbLine
 10
7695.6
 20
7504.776473043996
 30
0.0
 11
7695.6
 21
7404.776473043996
 31
0.0
  0
LINE
  5
241BA
330
747D
100
AcDbEntity
  8
細線
 48
50.0
100
AcDbLine
 10
8166.280033447545
 20
7377.776473043994
 30
0.0
 11
8323.600000000007
 21
7535.096439596452
 31
0.0
  0
LINE
  5
241BB
330
747D
100
AcDbEntity
  8
細線
 48
50.0
100
AcDbLine
 10
8211.181314052881
 20
7377.776473043995
 30
0.0
 11
8323.600000000007
 21
7490.195158991108
 31
0.0
  0
LINE
  5
241BC
330
747D
100
AcDbEntity
  8
細線
 48
50.0
100
AcDbLine
 10
8256.082594658231
 20
7377.776473043995
 30
0.0
 11
8323.600000000011
 21
7445.293878385772
 31
0.0
  0
LINE
  5
241BD
330
747D
100
AcDbEntity
  8
細線
 48
50.0
100
AcDbLine
 10
8300.983875263572
 20
7377.776473043994
 30
0.0
 11
8323.600000000011
 21
7400.392597780431
 31
0.0
  0
LINE
  5
241BE
330
747D
100
AcDbEntity
  8
細線
 48
50.0
100
AcDbLine
 10
8123.600000000008
 20
7559.602842623182
 30
0.0
 11
8141.773630420821
 21
7577.776473043996
 31
0.0
  0
LINE
  5
241C0
330
747D
100
AcDbEntity
  8
部品1
 48
50.0
100
AcDbLine
 10
9553.600000000008
 20
6824.776473043995
 30
0.0
 11
9553.600000000008
 21
7024.776473043996
 31
0.0
  0
LINE
  5
241C1
330
747D
100
AcDbEntity
  8
部品1
 48
50.0
100
AcDbLine
 10
9353.600000000007
 20
6824.776473043995
 30
0.0
 11
9353.600000000007
 21
7024.776473043996
 31
0.0
  0
DIMENSION
  5
241C2
330
747D
100
AcDbEntity
  8
寸法
 48
50.0
100
AcDbDimension
  2
*D44
 10
8633.600000000008
 20
8060.385289714245
 30
0.0
 11
9043.600000000008
 21
8160.397100737865
 31
0.0
 70
    32
 71
     5
 42
820.0
  3
INABA_S40G
100
AcDbAlignedDimension
 13
9453.600000000006
 23
6974.776473043995
 33
0.0
 14
8633.600000000008
 24
6974.776473043995
 34
0.0
100
AcDbRotatedDimension
1001
ACAD
1000
DSTYLE
1002
{
1070
   341
1005
0
1002
}
  0
LINE
  5
241C3
102
{ACAD_REACTORS
330
24BC5
102
}
330
747D
100
AcDbEntity
  8
部品1
 48
50.0
100
AcDbLine
 10
10278.6
 20
6197.776473044014
 30
0.0
 11
10278.6
 21
7577.776473043996
 31
0.0
  0
LINE
  5
241C6
330
747D
100
AcDbEntity
  8
部品1
 48
50.0
100
AcDbLine
 10
8733.600000000008
 20
6824.776473043995
 30
0.0
 11
8733.600000000008
 21
7024.776473043996
 31
0.0
  0
LINE
  5
241C7
330
747D
100
AcDbEntity
  8
部品1
 48
50.0
100
AcDbLine
 10
8533.600000000008
 20
6824.776473043995
 30
0.0
 11
8533.600000000008
 21
7024.776473043996
 31
0.0
  0
DIMENSION
  5
241C8
330
747D
100
AcDbEntity
  8
寸法
 48
50.0
100
AcDbDimension
  2
*D45
 10
9453.600000000006
 20
8060.385289714245
 30
0.0
 11
9866.100000000004
 21
8160.397100737865
 31
0.0
 70
    32
 71
     5
 42
824.9999999999927
  3
INABA_S40G
100
AcDbAlignedDimension
 13
10278.6
 23
7577.776473043996
 33
0.0
 14
9453.600000000006
 24
6974.776473043995
 34
0.0
100
AcDbRotatedDimension
1001
ACAD
1000
DSTYLE
1002
{
1070
   341
1005
0
1002
}
  0
LINE
  5
241C9
330
747D
100
AcDbEntity
  8
細線
 48
50.0
100
AcDbLine
 10
8943.600000000003
 20
6376.281072332307
 30
0.0
 11
9045.095400711703
 21
6477.776473044007
 31
0.0
  0
LINE
  5
241CA
330
747D
100
AcDbEntity
  8
細線
 48
50.0
100
AcDbLine
 10
8943.600000000008
 20
6331.379791726959
 30
0.0
 11
9089.996681317041
 21
6477.776473044008
 31
0.0
  0
LINE
  5
241CB
330
747D
100
AcDbEntity
  8
部品1
 48
50.0
100
AcDbLine
 10
9143.600000000001
 20
6477.776473044008
 30
0.0
 11
9143.600000000008
 21
6197.776473043999
 31
0.0
  0
LINE
  5
241CC
330
747D
100
AcDbEntity
  8
部品1
 48
50.0
100
AcDbLine
 10
8943.600000000001
 20
6477.776473044007
 30
0.0
 11
8943.600000000008
 21
6197.776473043996
 31
0.0
  0
LINE
  5
241CD
330
747D
100
AcDbEntity
  8
細線
 48
50.0
100
AcDbLine
 10
8943.600000000003
 20
6286.478511121615
 30
0.0
 11
9134.897961922396
 21
6477.776473044007
 31
0.0
  0
LINE
  5
241CE
330
747D
100
AcDbEntity
  8
細線
 48
50.0
100
AcDbLine
 10
8943.600000000008
 20
6241.57723051627
 30
0.0
 11
9143.600000000001
 21
6441.577230516266
 31
0.0
  0
LINE
  5
241CF
330
747D
100
AcDbEntity
  8
細線
 48
50.0
100
AcDbLine
 10
8944.700523133079
 20
6197.776473043996
 30
0.0
 11
9143.600000000001
 21
6396.675949910923
 31
0.0
  0
LINE
  5
241D0
330
747D
100
AcDbEntity
  8
細線
 48
50.0
100
AcDbLine
 10
9034.503084343773
 20
6197.776473043997
 30
0.0
 11
9143.600000000004
 21
6306.873388700231
 31
0.0
  0
LINE
  5
241D1
330
747D
100
AcDbEntity
  8
細線
 48
50.0
100
AcDbLine
 10
8989.601803738425
 20
6197.776473043997
 30
0.0
 11
9143.600000000004
 21
6351.774669305577
 31
0.0
  0
LINE
  5
241D2
330
747D
100
AcDbEntity
  8
細線
 48
50.0
100
AcDbLine
 10
9079.40436494912
 20
6197.776473043999
 30
0.0
 11
9143.600000000008
 21
6261.972108094887
 31
0.0
  0
LINE
  5
241D3
330
747D
100
AcDbEntity
  8
細線
 48
50.0
100
AcDbLine
 10
9124.305645554466
 20
6197.776473044001
 30
0.0
 11
9143.600000000008
 21
6217.070827489543
 31
0.0
  0
LINE
  5
241D4
330
747D
100
AcDbEntity
  8
センター
 48
2.0
100
AcDbLine
 10
8583.600000000009
 20
6924.776473043995
 30
0.0
 11
8683.600000000009
 21
6924.776473043995
 31
0.0
  0
LINE
  5
241D5
330
747D
100
AcDbEntity
  8
部品1
 48
50.0
100
AcDbLine
 10
8733.600000000008
 20
6824.776473043995
 30
0.0
 11
8533.600000000008
 21
6824.776473043995
 31
0.0
  0
LINE
  5
241D6
330
747D
100
AcDbEntity
  8
センター
 48
2.0
100
AcDbLine
 10
8633.600000000008
 20
6974.776473043995
 30
0.0
 11
8633.600000000008
 21
6874.776473043995
 31
0.0
  0
LINE
  5
241D7
330
747D
100
AcDbEntity
  8
細線
 48
50.0
100
AcDbLine
 10
8943.600000000003
 20
6421.182352937655
 30
0.0
 11
9000.194120106355
 21
6477.776473044006
 31
0.0
  0
LINE
  5
241D8
330
747D
100
AcDbEntity
  8
細線
 48
50.0
100
AcDbLine
 10
9764.700523133079
 20
6197.776473043996
 30
0.0
 11
9963.600000000001
 21
6396.675949910923
 31
0.0
  0
LINE
  5
241D9
330
747D
100
AcDbEntity
  8
細線
 48
50.0
100
AcDbLine
 10
9763.600000000009
 20
6241.57723051627
 30
0.0
 11
9963.600000000001
 21
6441.577230516265
 31
0.0
  0
LINE
  5
241DA
330
747D
100
AcDbEntity
  8
細線
 48
50.0
100
AcDbLine
 10
9763.600000000003
 20
6286.478511121615
 30
0.0
 11
9954.897961922402
 21
6477.776473044011
 31
0.0
  0
LINE
  5
241DB
330
747D
100
AcDbEntity
  8
部品1
 48
50.0
100
AcDbLine
 10
9763.599999999996
 20
6477.776473044011
 30
0.0
 11
9763.600000000009
 21
6197.776473043996
 31
0.0
  0
LINE
  5
241DC
330
747D
100
AcDbEntity
  8
部品1
 48
50.0
100
AcDbLine
 10
9963.599999999999
 20
6477.776473044013
 30
0.0
 11
9963.600000000008
 21
6197.776473043999
 31
0.0
  0
LINE
  5
241DD
330
747D
100
AcDbEntity
  8
細線
 48
50.0
100
AcDbLine
 10
9763.600000000009
 20
6331.379791726959
 30
0.0
 11
9909.996681317046
 21
6477.776473044011
 31
0.0
  0
LINE
  5
241DE
330
747D
100
AcDbEntity
  8
細線
 48
50.0
100
AcDbLine
 10
9763.600000000003
 20
6376.281072332307
 30
0.0
 11
9865.095400711709
 21
6477.776473044011
 31
0.0
  0
LINE
  5
241DF
330
747D
100
AcDbEntity
  8
細線
 48
50.0
100
AcDbLine
 10
9809.601803738425
 20
6197.776473043997
 30
0.0
 11
9963.600000000004
 21
6351.774669305577
 31
0.0
  0
LINE
  5
241E0
330
747D
100
AcDbEntity
  8
細線
 48
50.0
100
AcDbLine
 10
9854.503084343773
 20
6197.776473043997
 30
0.0
 11
9963.600000000004
 21
6306.873388700231
 31
0.0
  0
LINE
  5
241E1
330
747D
100
AcDbEntity
  8
細線
 48
50.0
100
AcDbLine
 10
9944.305645554466
 20
6197.776473044001
 30
0.0
 11
9963.600000000008
 21
6217.070827489543
 31
0.0
  0
LINE
  5
241E2
330
747D
100
AcDbEntity
  8
細線
 48
50.0
100
AcDbLine
 10
9899.40436494912
 20
6197.776473043999
 30
0.0
 11
9963.600000000008
 21
6261.972108094887
 31
0.0
  0
LINE
  5
241E3
330
747D
100
AcDbEntity
  8
部品1
 48
50.0
100
AcDbLine
 10
9553.600000000008
 20
6824.776473043995
 30
0.0
 11
9353.600000000007
 21
6824.776473043995
 31
0.0
  0
LINE
  5
241E4
330
747D
100
AcDbEntity
  8
センター
 48
2.0
100
AcDbLine
 10
9403.600000000007
 20
6924.776473043995
 30
0.0
 11
9503.600000000007
 21
6924.776473043995
 31
0.0
  0
LINE
  5
241E5
330
747D
100
AcDbEntity
  8
センター
 48
2.0
100
AcDbLine
 10
9453.600000000006
 20
6974.776473043995
 30
0.0
 11
9453.600000000006
 21
6874.776473043995
 31
0.0
  0
LINE
  5
241E6
330
747D
100
AcDbEntity
  8
細線
 48
50.0
100
AcDbLine
 10
9763.600000000003
 20
6421.182352937655
 30
0.0
 11
9820.194120106359
 21
6477.776473044009
 31
0.0
  0
LINE
  5
241ED
330
747D
100
AcDbEntity
  8
センター
 48
2.0
100
AcDbLine
 10
10155.60000000001
 20
6445.776473043999
 30
0.0
 11
10155.60000000001
 21
6345.776473044
 31
0.0
  0
CIRCLE
  5
241EE
330
747D
100
AcDbEntity
  8
部品1
 48
50.0
100
AcDbCircle
 10
10155.60000000001
 20
6395.776473044
 30
0.0
 40
35.0
  0
LINE
  5
241EF
330
747D
100
AcDbEntity
  8
センター
 48
2.0
100
AcDbLine
 10
10105.60000000001
 20
6395.776473044
 30
0.0
 11
10205.60000000001
 21
6395.776473044
 31
0.0
  0
LINE
  5
241F0
102
{ACAD_REACTORS
330
24BC5
102
}
330
747D
100
AcDbEntity
  8
部品1
 48
50.0
100
AcDbLine
 10
10278.59999999999
 20
6812.776473044005
 30
0.0
 11
10158.6
 21
6812.776473044005
 31
0.0
  0
LINE
  5
241F1
330
747D
100
AcDbEntity
  8
細線
 48
50.0
100
AcDbLine
 10
8943.600000000008
 20
7514.701562017839
 30
0.0
 11
9006.674911026168
 21
7577.776473043996
 31
0.0
  0
LINE
  5
241F2
330
747D
100
AcDbEntity
  8
細線
 48
50.0
100
AcDbLine
 10
8943.600000000008
 20
7469.800281412496
 30
0.0
 11
9051.576191631511
 21
7577.776473043994
 31
0.0
  0
LINE
  5
241F3
330
747D
100
AcDbEntity
  8
部品1
 48
50.0
100
AcDbLine
 10
9143.600000000008
 20
7577.776473043996
 30
0.0
 11
9143.600000000011
 21
7377.776473043995
 31
0.0
  0
LINE
  5
241F4
330
747D
100
AcDbEntity
  8
部品1
 48
50.0
100
AcDbLine
 10
8943.600000000008
 20
7577.776473043996
 30
0.0
 11
8943.600000000012
 21
7377.776473043995
 31
0.0
  0
LINE
  5
241F5
330
747D
100
AcDbEntity
  8
細線
 48
50.0
100
AcDbLine
 10
8943.600000000012
 20
7379.997720201804
 30
0.0
 11
9141.378752842202
 21
7577.776473043994
 31
0.0
  0
LINE
  5
241F6
330
747D
100
AcDbEntity
  8
細線
 48
50.0
100
AcDbLine
 10
8943.600000000012
 20
7424.899000807148
 30
0.0
 11
9096.477472236859
 21
7577.776473043996
 31
0.0
  0
LINE
  5
241F7
330
747D
100
AcDbEntity
  8
部品1
 48
50.0
100
AcDbLine
 10
8733.600000000008
 20
7024.776473043996
 30
0.0
 11
8533.600000000008
 21
7024.776473043996
 31
0.0
  0
LINE
  5
241F8
330
747D
100
AcDbEntity
  8
細線
 48
50.0
100
AcDbLine
 10
9031.181314052881
 20
7377.776473043995
 30
0.0
 11
9143.600000000008
 21
7490.195158991108
 31
0.0
  0
LINE
  5
241F9
330
747D
100
AcDbEntity
  8
細線
 48
50.0
100
AcDbLine
 10
8986.280033447545
 20
7377.776473043994
 30
0.0
 11
9143.600000000008
 21
7535.096439596452
 31
0.0
  0
LINE
  5
241FA
330
747D
100
AcDbEntity
  8
細線
 48
50.0
100
AcDbLine
 10
9120.983875263572
 20
7377.776473043994
 30
0.0
 11
9143.600000000011
 21
7400.392597780431
 31
0.0
  0
LINE
  5
241FB
330
747D
100
AcDbEntity
  8
細線
 48
50.0
100
AcDbLine
 10
9076.082594658231
 20
7377.776473043995
 30
0.0
 11
9143.600000000011
 21
7445.293878385772
 31
0.0
  0
LINE
  5
241FC
330
747D
100
AcDbEntity
  8
細線
 48
50.0
100
AcDbLine
 10
8943.600000000008
 20
7559.602842623182
 30
0.0
 11
8961.77363042082
 21
7577.776473043996
 31
0.0
  0
LINE
  5
241FD
330
747D
100
AcDbEntity
  8
部品1
 48
50.0
100
AcDbLine
 10
9963.600000000008
 20
7577.776473043996
 30
0.0
 11
9963.600000000012
 21
7377.776473043995
 31
0.0
  0
LINE
  5
241FE
330
747D
100
AcDbEntity
  8
部品1
 48
50.0
100
AcDbLine
 10
9763.600000000009
 20
7577.776473043996
 30
0.0
 11
9763.60000000001
 21
7377.776473043995
 31
0.0
  0
LINE
  5
241FF
330
747D
100
AcDbEntity
  8
細線
 48
50.0
100
AcDbLine
 10
9763.600000000009
 20
7469.800281412496
 30
0.0
 11
9871.576191631511
 21
7577.776473043994
 31
0.0
  0
LINE
  5
24200
330
747D
100
AcDbEntity
  8
細線
 48
50.0
100
AcDbLine
 10
9763.600000000009
 20
7514.701562017839
 30
0.0
 11
9826.674911026168
 21
7577.776473043996
 31
0.0
  0
LINE
  5
24201
330
747D
100
AcDbEntity
  8
細線
 48
50.0
100
AcDbLine
 10
9763.60000000001
 20
7424.899000807148
 30
0.0
 11
9916.477472236859
 21
7577.776473043996
 31
0.0
  0
LINE
  5
24202
330
747D
100
AcDbEntity
  8
細線
 48
50.0
100
AcDbLine
 10
9763.60000000001
 20
7379.997720201804
 30
0.0
 11
9961.378752842202
 21
7577.776473043994
 31
0.0
  0
LINE
  5
24203
330
747D
100
AcDbEntity
  8
部品1
 48
50.0
100
AcDbLine
 10
9553.600000000008
 20
7024.776473043996
 30
0.0
 11
9353.600000000007
 21
7024.776473043996
 31
0.0
  0
LINE
  5
24204
330
747D
100
AcDbEntity
  8
細線
 48
50.0
100
AcDbLine
 10
9806.280033447546
 20
7377.776473043994
 30
0.0
 11
9963.600000000008
 21
7535.096439596452
 31
0.0
  0
LINE
  5
24205
330
747D
100
AcDbEntity
  8
細線
 48
50.0
100
AcDbLine
 10
9851.181314052881
 20
7377.776473043995
 30
0.0
 11
9963.600000000008
 21
7490.195158991108
 31
0.0
  0
LINE
  5
24206
330
747D
100
AcDbEntity
  8
細線
 48
50.0
100
AcDbLine
 10
9896.082594658231
 20
7377.776473043995
 30
0.0
 11
9963.600000000012
 21
7445.293878385772
 31
0.0
  0
LINE
  5
24207
330
747D
100
AcDbEntity
  8
細線
 48
50.0
100
AcDbLine
 10
9940.983875263572
 20
7377.776473043994
 30
0.0
 11
9963.600000000012
 21
7400.392597780431
 31
0.0
  0
LINE
  5
24208
330
747D
100
AcDbEntity
  8
細線
 48
50.0
100
AcDbLine
 10
9763.600000000009
 20
7559.602842623182
 30
0.0
 11
9781.773630420822
 21
7577.776473043996
 31
0.0
  0
DIMENSION
  5
24209
330
747D
100
AcDbEntity
  8
寸法
 48
50.0
100
AcDbDimension
  2
*D46
 10
10155.6
 20
8304.042931137907
 30
0.0
 11
10551.7066017178
 21
8304.042931137907
 31
0.0
 70
   160
 71
     5
 42
123.0
  3
INABA_S40G
100
AcDbAlignedDimension
 13
10278.6
 23
7577.776473043996
 33
0.0
 14
10155.6
 24
7504.776473043996
 34
0.0
100
AcDbRotatedDimension
1001
ACAD
1000
DSTYLE
1002
{
1070
   341
1005
0
1002
}
  0
LINE
  5
2420C
102
{ACAD_REACTORS
330
24BC5
102
}
330
747D
100
AcDbEntity
  8
部品1
 48
50.0
100
AcDbLine
 10
10278.59999999999
 20
7012.776473044005
 30
0.0
 11
10158.6
 21
7012.776473044006
 31
0.0
  0
LINE
  5
2420D
330
747D
100
AcDbEntity
  8
センター
 48
2.0
100
AcDbLine
 10
10105.6
 20
7454.776473043996
 30
0.0
 11
10205.6
 21
7454.776473043996
 31
0.0
  0
LINE
  5
2420E
330
747D
100
AcDbEntity
  8
センター
 48
2.0
100
AcDbLine
 10
10155.6
 20
7504.776473043996
 30
0.0
 11
10155.6
 21
7404.776473043996
 31
0.0
  0
CIRCLE
  5
2420F
330
747D
100
AcDbEntity
  8
部品1
 48
50.0
100
AcDbCircle
 10
10155.6
 20
7454.776473043996
 30
0.0
 40
35.0
  0
TEXT
  5
2478D
330
747D
100
AcDbEntity
  8
文字
 62
     7
 48
50.0
100
AcDbText
 10
14251.2
 20
838.2527270729188
 30
0.0
 40
100.0
  1
～一般型・多雪地型・豪雪地型～
  7
STYLE2
100
AcDbText
  0
LINE
  5
247AD
330
747D
100
AcDbEntity
  8
部品1
 48
50.0
100
AcDbLine
 10
10158.6
 20
6477.776473044013
 30
0.0
 11
6288.599999999999
 21
6477.776473043992
 31
0.0
  0
MTEXT
  5
249DF
102
{ACAD_REACTORS
330
249E0
102
}
330
747D
100
AcDbEntity
  8
寸法
 62
     7
 48
50.0
100
AcDbMText
 10
10644.22017670675
 20
2054.6362293992
 30
0.0
 40
120.0
 41
0.8
 71
     4
 72
     1
  1
\A1;C.B
  7
STYLE1
 73
     1
 44
1.0
1001
ACAD
1000
MTEXTBEGIN
1070
    73
1070
     1
1070
    44
1040
1.0
1070
    74
1070
     0
1000
MTEXTEND
  0
LEADER
  5
249E0
330
747D
100
AcDbEntity
  8
寸法
 48
50.0
100
AcDbLeader
  3
INABA_S50G
 73
     0
 74
     0
 75
     1
 40
120.0
 41
185.591883092037
 76
     3
 10
10461.08197007311
 20
1797.489908718062
 30
0.0
 10
10494.22017670675
 20
1969.636229399199
 30
0.0
 10
10619.22017670675
 20
1969.636229399199
 30
0.0
340
249DF
1001
ACAD
1000
DSTYLE
1002
{
1070
    40
1040
1.0
1002
}
  0
LINE
  5
249E1
330
747D
100
AcDbEntity
  8
細線
 48
50.0
100
AcDbLine
 10
10606.73538364951
 20
1441.790993064711
 30
0.0
 11
10600.30460303117
 21
1465.790993064711
 31
0.0
  0
LINE
  5
249E2
330
747D
100
AcDbEntity
  8
細線
 48
50.0
100
AcDbLine
 10
10585.29944825502
 20
1361.790993064711
 30
0.0
 11
10591.73022887337
 21
1337.790993064711
 31
0.0
  0
LINE
  5
249E3
330
747D
100
AcDbEntity
  8
部品1
100
AcDbLine
 10
10650.35755845718
 20
1557.489908718062
 30
0.0
 11
10650.35755845718
 21
1337.790993064712
 31
0.0
  0
LINE
  5
249E4
330
747D
100
AcDbEntity
  8
細線
 48
50.0
100
AcDbLine
 10
10578.86866763667
 20
1337.790993064711
 30
0.0
 11
10613.16616426786
 21
1465.790993064709
 31
0.0
  0
LINE
  5
249E5
330
747D
100
AcDbEntity
  8
細線
 48
50.0
100
AcDbLine
 10
10527.84733870227
 20
1441.790993064711
 30
0.0
 11
10521.41655808392
 21
1465.790993064711
 31
0.0
  0
LINE
  5
249E6
330
747D
100
AcDbEntity
  8
細線
100
AcDbLine
 10
10403.39395295652
 20
1465.790993064714
 30
0.0
 11
10495.09286860986
 21
1557.489908718062
 31
0.0
  0
LINE
  5
249E7
330
747D
100
AcDbEntity
  8
細線
 48
50.0
100
AcDbLine
 10
10448.95929375501
 20
1441.790993064712
 30
0.0
 11
10442.52851313667
 21
1465.790993064712
 31
0.0
  0
LINE
  5
249E8
330
747D
100
AcDbEntity
  8
細線
100
AcDbLine
 10
10437.33507845347
 20
1465.790993064714
 30
0.0
 11
10529.03399410681
 21
1557.489908718062
 31
0.0
  0
LINE
  5
249E9
330
747D
100
AcDbEntity
  8
細線
 48
50.0
100
AcDbLine
 10
10212.29515891328
 20
1441.790993064712
 30
0.0
 11
10205.86437829493
 21
1465.790993064712
 31
0.0
  0
LINE
  5
249EA
330
747D
100
AcDbEntity
  8
細線
 48
50.0
100
AcDbLine
 10
10291.18320386053
 20
1441.790993064712
 30
0.0
 11
10284.75242324218
 21
1465.790993064712
 31
0.0
  0
LINE
  5
249EB
330
747D
100
AcDbEntity
  8
細線
 48
50.0
100
AcDbLine
 10
10370.07124880777
 20
1441.790993064712
 30
0.0
 11
10363.64046818943
 21
1465.790993064712
 31
0.0
  0
LINE
  5
249EC
330
747D
100
AcDbEntity
  8
細線
 48
50.0
100
AcDbLine
 10
10506.41140330778
 20
1361.790993064711
 30
0.0
 11
10512.84218392612
 21
1337.790993064711
 31
0.0
  0
LINE
  5
249ED
330
747D
100
AcDbEntity
  8
細線
 48
50.0
100
AcDbLine
 10
10427.52335836053
 20
1361.790993064712
 30
0.0
 11
10433.95413897889
 21
1337.790993064712
 31
0.0
  0
LINE
  5
249EE
330
747D
100
AcDbEntity
  8
細線
 48
50.0
100
AcDbLine
 10
10269.74726846604
 20
1361.790993064712
 30
0.0
 11
10276.17804908439
 21
1337.790993064712
 31
0.0
  0
LINE
  5
249EF
330
747D
100
AcDbEntity
  8
細線
 48
50.0
100
AcDbLine
 10
10348.63531341328
 20
1361.790993064712
 30
0.0
 11
10355.06609403163
 21
1337.790993064712
 31
0.0
  0
LINE
  5
249F0
330
747D
100
AcDbEntity
  8
細線
 48
50.0
100
AcDbLine
 10
10342.20453279493
 20
1337.790993064712
 30
0.0
 11
10376.50202942612
 21
1465.790993064711
 31
0.0
  0
LINE
  5
249F1
330
747D
100
AcDbEntity
  8
細線
 48
50.0
100
AcDbLine
 10
10263.31648784769
 20
1337.790993064711
 30
0.0
 11
10297.61398447887
 21
1465.790993064711
 31
0.0
  0
LINE
  5
249F2
330
747D
100
AcDbEntity
  8
細線
 48
50.0
100
AcDbLine
 10
10421.09257774218
 20
1337.790993064711
 30
0.0
 11
10455.39007437336
 21
1465.790993064712
 31
0.0
  0
LINE
  5
249F3
330
747D
100
AcDbEntity
  8
細線
100
AcDbLine
 10
10471.27620395042
 20
1465.790993064714
 30
0.0
 11
10562.97511960377
 21
1557.489908718062
 31
0.0
  0
LINE
  5
249F4
330
747D
100
AcDbEntity
  8
細線
 48
50.0
100
AcDbLine
 10
10499.98062268943
 20
1337.790993064709
 30
0.0
 11
10534.27811932061
 21
1465.790993064709
 31
0.0
  0
LINE
  5
249F5
330
747D
100
AcDbEntity
  8
部品1
100
AcDbLine
 10
10530.35755845718
 20
1797.489908718062
 30
0.0
 11
10530.35755845718
 21
1557.489908718062
 31
0.0
  0
LINE
  5
249F6
330
747D
100
AcDbEntity
  8
細線
100
AcDbLine
 10
10516.5198961096
 20
1557.489908718063
 30
0.0
 11
10276.5198961096
 21
1797.489908718062
 31
0.0
  0
LINE
  5
249F7
330
747D
100
AcDbEntity
  8
細線
100
AcDbLine
 10
10465.60820786417
 20
1557.489908718062
 30
0.0
 11
10225.60820786417
 21
1797.489908718062
 31
0.0
  0
LINE
  5
249F8
330
747D
100
AcDbEntity
  8
細線
100
AcDbLine
 10
10077.33507845347
 20
1465.790993064712
 30
0.0
 11
10169.03399410681
 21
1557.489908718062
 31
0.0
  0
LINE
  5
249F9
330
747D
100
AcDbEntity
  8
細線
100
AcDbLine
 10
10043.39395295651
 20
1465.790993064712
 30
0.0
 11
10135.09286860986
 21
1557.489908718062
 31
0.0
  0
LINE
  5
249FA
330
747D
100
AcDbEntity
  8
細線
 48
50.0
100
AcDbLine
 10
10054.51906901878
 20
1441.790993064712
 30
0.0
 11
10048.08828840044
 21
1465.790993064712
 31
0.0
  0
LINE
  5
249FB
330
747D
100
AcDbEntity
  8
細線
 48
50.0
100
AcDbLine
 10
10133.40711396603
 20
1441.790993064712
 30
0.0
 11
10126.97633334769
 21
1465.790993064712
 31
0.0
  0
LINE
  5
249FC
330
747D
100
AcDbEntity
  8
細線
 48
50.0
100
AcDbLine
 10
9975.631024071534
 20
1441.790993064712
 30
0.0
 11
9969.200243453187
 21
1465.790993064712
 31
0.0
  0
LINE
  5
249FD
330
747D
100
AcDbEntity
  8
細線
 48
50.0
100
AcDbLine
 10
10190.85922351879
 20
1361.790993064712
 30
0.0
 11
10197.29000413714
 21
1337.790993064712
 31
0.0
  0
LINE
  5
249FE
330
747D
100
AcDbEntity
  8
細線
 48
50.0
100
AcDbLine
 10
10111.97117857155
 20
1361.790993064712
 30
0.0
 11
10118.40195918989
 21
1337.790993064712
 31
0.0
  0
LINE
  5
249FF
330
747D
100
AcDbEntity
  8
細線
 48
50.0
100
AcDbLine
 10
9954.195088677046
 20
1361.790993064712
 30
0.0
 11
9960.625869295393
 21
1337.790993064712
 31
0.0
  0
LINE
  5
24A00
330
747D
100
AcDbEntity
  8
細線
 48
50.0
100
AcDbLine
 10
10033.08313362429
 20
1361.790993064712
 30
0.0
 11
10039.51391424264
 21
1337.790993064712
 31
0.0
  0
LINE
  5
24A01
330
747D
100
AcDbEntity
  8
部品1
100
AcDbLine
 10
9930.357558457185
 20
1337.790993064708
 30
0.0
 11
9930.357558457185
 21
1557.489908718062
 31
0.0
  0
LINE
  5
24A02
330
747D
100
AcDbEntity
  8
細線
 48
50.0
100
AcDbLine
 10
9947.764308058697
 20
1337.790993064712
 30
0.0
 11
9982.061804689882
 21
1465.790993064712
 31
0.0
  0
LINE
  5
24A03
330
747D
100
AcDbEntity
  8
細線
 48
50.0
100
AcDbLine
 10
10105.54039795319
 20
1337.790993064712
 30
0.0
 11
10139.83789458438
 21
1465.790993064712
 31
0.0
  0
LINE
  5
24A04
330
747D
100
AcDbEntity
  8
細線
 48
50.0
100
AcDbLine
 10
10026.65235300594
 20
1337.790993064711
 30
0.0
 11
10060.94984963713
 21
1465.790993064711
 31
0.0
  0
LINE
  5
24A05
330
747D
100
AcDbEntity
  8
部品1
100
AcDbLine
 10
10050.35755845718
 20
1557.489908718062
 30
0.0
 11
10050.35755845718
 21
1797.489908718062
 31
0.0
  0
TEXT
  5
24A06
330
747D
100
AcDbEntity
  8
部品1
 48
50.0
100
AcDbText
 10
9286.239471698683
 20
1290.690168080753
 30
0.0
 40
80.0
  1
ボルトの出
 50
90.0
  7
STYLE2
100
AcDbText
  0
LINE
  5
24A07
330
747D
100
AcDbEntity
  8
細線
100
AcDbLine
 10
10194.07920388853
 20
1557.489908718062
 30
0.0
 11
10050.35755845718
 21
1701.211554149415
 31
0.0
  0
LWPOLYLINE
  5
24A08
330
747D
100
AcDbEntity
  8
部品1
 48
50.0
100
AcDbPolyline
 90
        2
 70
     0
 43
12.0
 10
9665.746296356797
 20
1557.489908718062
 10
10866.83859948842
 20
1557.489908718062
  0
LINE
  5
24A09
330
747D
100
AcDbEntity
  8
細線
100
AcDbLine
 10
10111.27620395043
 20
1465.790993064712
 30
0.0
 11
10202.97511960377
 21
1557.489908718062
 31
0.0
  0
LINE
  5
24A0A
330
747D
100
AcDbEntity
  8
部品1
100
AcDbLine
 10
9930.357558457185
 20
1465.790993064712
 30
0.0
 11
10650.35755845718
 21
1465.790993064715
 31
0.0
  0
LINE
  5
24A0B
330
747D
100
AcDbEntity
  8
部品1
100
AcDbLine
 10
9930.357558457185
 20
1337.790993064708
 30
0.0
 11
10650.35755845718
 21
1337.790993064712
 31
0.0
  0
LINE
  5
24A0C
330
747D
100
AcDbEntity
  8
細線
 48
50.0
100
AcDbLine
 10
10184.42844290044
 20
1337.790993064712
 30
0.0
 11
10218.72593953163
 21
1465.790993064711
 31
0.0
  0
LINE
  5
24A0D
330
747D
100
AcDbEntity
  8
部品1
100
AcDbLine
 10
10050.35755845718
 20
1797.489908718062
 30
0.0
 11
10530.35755845718
 21
1797.489908718062
 31
0.0
  0
LINE
  5
24A0E
330
747D
100
AcDbEntity
  8
細線
100
AcDbLine
 10
10244.99089213397
 20
1557.489908718062
 30
0.0
 11
10050.35755845718
 21
1752.123242394845
 31
0.0
  0
LINE
  5
24A0F
330
747D
100
AcDbEntity
  8
部品1
100
AcDbLine
 10
11237.09905955422
 20
232.5216063340004
 30
0.0
 11
11237.09905955422
 21
3196.828575918648
 31
0.0
  0
TEXT
  5
24A10
330
747D
100
AcDbEntity
  8
部品1
100
AcDbText
 10
7858.993875346357
 20
3017.27664396722
 30
0.0
 40
120.0
  1
基礎詳細
  7
STYLE2
100
AcDbText
  0
LINE
  5
24A11
330
747D
100
AcDbEntity
  8
部品1
 48
50.0
100
AcDbLine
 10
8174.221626154427
 20
2196.365189827205
 30
0.0
 11
8190.221626154427
 21
2188.365189827205
 31
0.0
  0
LINE
  5
24A12
330
747D
100
AcDbEntity
  8
細線
 48
50.0
100
AcDbLine
 10
8142.221626154428
 20
2148.365189827205
 30
0.0
 11
8142.221626154428
 21
2180.365189827205
 31
0.0
  0
LINE
  5
24A13
330
747D
100
AcDbEntity
  8
部品1
 48
50.0
100
AcDbLine
 10
8190.221626154427
 20
2156.365189827205
 30
0.0
 11
8190.221626154427
 21
2188.365189827205
 31
0.0
  0
LINE
  5
24A14
330
747D
100
AcDbEntity
  8
細線
 48
50.0
100
AcDbLine
 10
8174.221626154427
 20
2148.365189827205
 30
0.0
 11
8174.221626154427
 21
2180.365189827205
 31
0.0
  0
LINE
  5
24A15
330
747D
100
AcDbEntity
  8
部品1
 48
50.0
100
AcDbLine
 10
8174.221626154427
 20
2180.365189827205
 30
0.0
 11
8190.221626154427
 21
2188.365189827205
 31
0.0
  0
LINE
  5
24A16
330
747D
100
AcDbEntity
  8
部品1
 48
50.0
100
AcDbLine
 10
8142.221626154428
 20
2180.365189827205
 30
0.0
 11
8174.221626154427
 21
2180.365189827205
 31
0.0
  0
LINE
  5
24A17
330
747D
100
AcDbEntity
  8
部品1
 48
50.0
100
AcDbLine
 10
8174.221626154427
 20
2148.365189827205
 30
0.0
 11
8190.221626154427
 21
2156.365189827205
 31
0.0
  0
LINE
  5
24A18
330
747D
100
AcDbEntity
  8
部品1
 48
50.0
100
AcDbLine
 10
8142.221626154428
 20
2148.365189827205
 30
0.0
 11
8174.221626154427
 21
2148.365189827205
 31
0.0
  0
ELLIPSE
  5
24A19
330
747D
100
AcDbEntity
  8
細線
 48
50.0
100
AcDbEllipse
 10
8158.221626154427
 20
2188.365189827205
 30
0.0
 11
14.76670786606846
 21
0.0
 31
0.0
210
0.0
220
0.0
230
1.0
 40
0.2071254069489396
 41
0.0
 42
6.283185307179586
  0
LINE
  5
24A1A
330
747D
100
AcDbEntity
  8
部品1
 48
50.0
100
AcDbLine
 10
8142.221626154428
 20
2196.365189827205
 30
0.0
 11
8174.221626154427
 21
2196.365189827205
 31
0.0
  0
LINE
  5
24A1B
330
747D
100
AcDbEntity
  8
部品1
 48
50.0
100
AcDbLine
 10
8126.221626154427
 20
2156.365189827205
 30
0.0
 11
8126.221626154427
 21
2188.365189827205
 31
0.0
  0
LINE
  5
24A1C
330
747D
100
AcDbEntity
  8
部品1
 48
50.0
100
AcDbLine
 10
8126.221626154427
 20
2188.365189827205
 30
0.0
 11
8142.221626154428
 21
2196.365189827205
 31
0.0
  0
LINE
  5
24A1D
330
747D
100
AcDbEntity
  8
部品1
 48
50.0
100
AcDbLine
 10
8126.221626154427
 20
2156.365189827205
 30
0.0
 11
8142.221626154428
 21
2148.365189827205
 31
0.0
  0
LINE
  5
24A1E
330
747D
100
AcDbEntity
  8
部品1
 48
50.0
100
AcDbLine
 10
8126.221626154427
 20
2188.365189827205
 30
0.0
 11
8142.221626154428
 21
2180.365189827205
 31
0.0
  0
LINE
  5
24A1F
330
747D
100
AcDbEntity
  8
部品1
 48
50.0
100
AcDbLine
 10
8198.221626154428
 20
2057.013197162334
 30
0.0
 11
8198.221626154428
 21
2066.613197162334
 31
0.0
  0
ELLIPSE
  5
24A20
330
747D
100
AcDbEntity
  8
部品1
 48
50.0
100
AcDbEllipse
 10
8158.221626154427
 20
2066.613197162334
 30
0.0
 11
18.4
 21
0.0
 31
0.0
210
0.0
220
0.0
230
1.0
 40
0.3478260869565217
 41
0.0
 42
6.283185307179586
  0
ARC
  5
24A21
330
747D
100
AcDbEntity
  8
部品1
100
AcDbCircle
 10
7997.121626154427
 20
1895.589908718062
 30
0.0
 40
2.7
100
AcDbArc
 50
90.0
 51
180.0
  0
LINE
  5
24A22
330
747D
100
AcDbEntity
  8
部品1
100
AcDbLine
 10
7999.821626154425
 20
1909.089908718062
 30
0.0
 11
8042.121626154427
 21
1909.089908718059
 31
0.0
  0
LINE
  5
24A23
330
747D
100
AcDbEntity
  8
部品1
100
AcDbLine
 10
7997.121626154427
 20
1898.289908718062
 30
0.0
 11
7997.121626154427
 21
1906.389908718061
 31
0.0
  0
LINE
  5
24A24
330
747D
100
AcDbEntity
  8
部品1
100
AcDbLine
 10
7997.121626154427
 20
1898.289908718062
 30
0.0
 11
7997.121626154427
 21
1898.289908718062
 31
0.0
  0
ARC
  5
24A25
330
747D
100
AcDbEntity
  8
部品1
100
AcDbCircle
 10
7999.821626154425
 20
1906.389908718061
 30
0.0
 40
2.7
100
AcDbArc
 50
90.0
 51
180.0
  0
ARC
  5
24A26
330
747D
100
AcDbEntity
  8
部品1
100
AcDbCircle
 10
8042.121626154427
 20
1906.389908718059
 30
0.0
 40
2.7
100
AcDbArc
 50
0.0
 51
90.0
  0
LINE
  5
24A27
330
747D
100
AcDbEntity
  8
部品1
 48
50.0
100
AcDbLine
 10
8118.221626154427
 20
2066.613197162334
 30
0.0
 11
8118.221626154427
 21
2057.013197162334
 31
0.0
  0
ELLIPSE
  5
24A28
330
747D
100
AcDbEntity
  8
部品1
 48
50.0
100
AcDbEllipse
 10
8158.221626154427
 20
2057.013197162335
 30
0.0
 11
40.0
 21
0.0
 31
0.0
210
0.0
220
0.0
230
1.0
 40
0.4
 41
3.141592653589793
 42
6.283185307179586
  0
ELLIPSE
  5
24A29
330
747D
100
AcDbEntity
  8
部品1
 48
50.0
100
AcDbEllipse
 10
8158.221626154427
 20
2066.613197162334
 30
0.0
 11
40.0
 21
0.0
 31
0.0
210
0.0
220
0.0
230
1.0
 40
0.4
 41
0.0
 42
6.283185307179586
  0
LINE
  5
24A2A
330
747D
100
AcDbEntity
  8
部品1
100
AcDbLine
 10
8152.821626154425
 20
1850.249908718062
 30
0.0
 11
8163.621626154428
 21
1850.249908718062
 31
0.0
  0
LINE
  5
24A2B
330
747D
100
AcDbEntity
  8
部品1
100
AcDbLine
 10
8149.221626154426
 20
1846.649908718063
 30
0.0
 11
8167.221626154427
 21
1846.649908718063
 31
0.0
  0
LINE
  5
24A2C
330
747D
100
AcDbEntity
  8
細線
100
AcDbLine
 10
8152.82162615443
 20
1807.049908718062
 30
0.0
 11
8152.821626154425
 21
1850.249908718062
 31
0.0
  0
LINE
  5
24A2D
330
747D
100
AcDbEntity
  8
細線
100
AcDbLine
 10
8163.621626154428
 20
1807.049908718062
 30
0.0
 11
8163.621626154428
 21
1850.249908718062
 31
0.0
  0
LINE
  5
24A2E
330
747D
100
AcDbEntity
  8
部品1
100
AcDbLine
 10
8065.521626154426
 20
1864.349908718062
 30
0.0
 11
8065.521626154426
 21
1847.249908718062
 31
0.0
  0
LINE
  5
24A2F
330
747D
100
AcDbEntity
  8
部品1
100
AcDbLine
 10
8099.081626154427
 20
1864.349908718062
 30
0.0
 11
8099.081626154424
 21
1809.749908718062
 31
0.0
  0
ARC
  5
24A30
330
747D
100
AcDbEntity
  8
部品1
100
AcDbCircle
 10
8084.421626154428
 20
1852.389908718062
 30
0.0
 40
2.7
100
AcDbArc
 50
0.0
 51
90.0
  0
LINE
  5
24A31
330
747D
100
AcDbEntity
  8
部品1
100
AcDbLine
 10
8044.821626154426
 20
1855.089908718062
 30
0.0
 11
8084.421626154428
 21
1855.089908718062
 31
0.0
  0
ARC
  5
24A32
330
747D
100
AcDbEntity
  8
部品1
100
AcDbCircle
 10
8084.421626154428
 20
1809.749908718062
 30
0.0
 40
2.7
100
AcDbArc
 50
270.0
 51
0.0
  0
ARC
  5
24A33
330
747D
100
AcDbEntity
  8
部品1
100
AcDbCircle
 10
8101.781626154421
 20
1809.749908718062
 30
0.0
 40
2.7
100
AcDbArc
 50
180.0
 51
270.0
  0
LINE
  5
24A34
330
747D
100
AcDbEntity
  8
部品1
100
AcDbLine
 10
8072.721626154427
 20
1807.049908718062
 30
0.0
 11
8084.421626154428
 21
1807.049908718062
 31
0.0
  0
LINE
  5
24A35
330
747D
100
AcDbEntity
  8
部品1
100
AcDbLine
 10
8087.121626154427
 20
1852.389908718062
 30
0.0
 11
8087.121626154427
 21
1809.749908718062
 31
0.0
  0
ARC
  5
24A36
330
747D
100
AcDbEntity
  8
部品1
100
AcDbCircle
 10
8096.381626154427
 20
1864.349908718062
 30
0.0
 40
2.7
100
AcDbArc
 50
0.0
 51
90.0
  0
ARC
  5
24A37
330
747D
100
AcDbEntity
  8
部品1
100
AcDbCircle
 10
8068.221626154427
 20
1864.349908718062
 30
0.0
 40
2.7
100
AcDbArc
 50
90.0
 51
180.0
  0
LINE
  5
24A38
330
747D
100
AcDbEntity
  8
部品1
100
AcDbLine
 10
8068.221626154427
 20
1867.049908718062
 30
0.0
 11
8096.381626154427
 21
1867.049908718062
 31
0.0
  0
LINE
  5
24A39
330
747D
100
AcDbEntity
  8
部品1
100
AcDbLine
 10
8044.821626154426
 20
1906.389908718059
 30
0.0
 11
8044.821626154426
 21
1855.089908718062
 31
0.0
  0
LINE
  5
24A3A
330
747D
100
AcDbEntity
  8
部品1
100
AcDbLine
 10
7994.421626154428
 20
1887.489908718062
 30
0.0
 11
7994.421626154428
 21
1895.589908718062
 31
0.0
  0
LINE
  5
24A3B
330
747D
100
AcDbEntity
  8
部品1
100
AcDbLine
 10
8101.781626154421
 20
1807.049908718062
 30
0.0
 11
8303.121626154421
 21
1807.049908718062
 31
0.0
  0
LINE
  5
24A3C
330
747D
100
AcDbEntity
  8
部品1
100
AcDbLine
 10
7943.121626154426
 20
1809.749908718062
 30
0.0
 11
7943.121626154426
 21
1871.88181242077
 31
0.0
  0
LINE
  5
24A3D
330
747D
100
AcDbEntity
  8
部品1
100
AcDbLine
 10
7945.821626154426
 20
1807.049908718062
 30
0.0
 11
7957.521626154421
 21
1807.049908718062
 31
0.0
  0
LINE
  5
24A3E
330
747D
100
AcDbEntity
  8
細線
 48
50.0
100
AcDbLine
 10
7936.821626154426
 20
1785.270485017967
 30
0.0
 11
7949.04104985452
 21
1797.489908718062
 31
0.0
  0
ARC
  5
24A3F
330
747D
100
AcDbEntity
  8
部品1
100
AcDbCircle
 10
7945.821626154426
 20
1809.749908718062
 30
0.0
 40
2.7
100
AcDbArc
 50
180.0
 51
270.0
  0
LINE
  5
24A40
330
747D
100
AcDbEntity
  8
部品1
100
AcDbLine
 10
7945.166779966829
 20
1874.501197171162
 30
0.0
 11
7953.921626154428
 21
1876.689908718062
 31
0.0
  0
ARC
  5
24A41
330
747D
100
AcDbEntity
  8
部品1
100
AcDbCircle
 10
7945.821626154426
 20
1871.88181242077
 30
0.0
 40
2.7
100
AcDbArc
 50
104.0362434679067
 51
180.0
  0
ARC
  5
24A42
330
747D
100
AcDbEntity
  8
部品1
100
AcDbCircle
 10
7956.621626154427
 20
1884.789908718062
 30
0.0
 40
2.7
100
AcDbArc
 50
90.0
 51
180.0
  0
LINE
  5
24A43
330
747D
100
AcDbEntity
  8
部品1
100
AcDbLine
 10
7953.921626154428
 20
1876.689908718062
 30
0.0
 11
7953.921626154428
 21
1884.789908718062
 31
0.0
  0
LINE
  5
24A44
330
747D
100
AcDbEntity
  8
部品1
 48
50.0
100
AcDbLine
 10
7936.821626154426
 20
1797.489908718062
 30
0.0
 11
8350.821626154429
 21
1797.489908718062
 31
0.0
  0
LINE
  5
24A45
330
747D
100
AcDbEntity
  8
細線
 48
50.0
100
AcDbLine
 10
7936.821626154426
 20
1731.388948291552
 30
0.0
 11
8002.922586580936
 21
1797.489908718062
 31
0.0
  0
LINE
  5
24A46
330
747D
100
AcDbEntity
  8
細線
 48
50.0
100
AcDbLine
 10
7936.821626154426
 20
1758.32971665476
 30
0.0
 11
7975.981818217734
 21
1797.489908718062
 31
0.0
  0
LINE
  5
24A47
330
747D
100
AcDbEntity
  8
部品1
100
AcDbLine
 10
7956.621626154427
 20
1887.489908718062
 30
0.0
 11
7994.421626154428
 21
1887.489908718062
 31
0.0
  0
LINE
  5
24A48
330
747D
100
AcDbEntity
  8
部品1
 48
50.0
100
AcDbLine
 10
8350.821626154425
 20
1253.489908718062
 30
0.0
 11
8478.821626154426
 21
1253.489908718062
 31
0.0
  0
LINE
  5
24A49
330
747D
100
AcDbEntity
  8
部品1
100
AcDbLine
 10
8167.221626154427
 20
1572.489908718062
 30
0.0
 11
8203.221626154428
 21
1572.489908718062
 31
0.0
  0
LINE
  5
24A4A
330
747D
100
AcDbEntity
  8
部品1
100
AcDbLine
 10
8167.221626154427
 20
1554.489908718062
 30
0.0
 11
8203.221626154428
 21
1554.489908718062
 31
0.0
  0
ARC
  5
24A4B
330
747D
100
AcDbEntity
  8
部品1
100
AcDbCircle
 10
8167.221626154427
 20
1572.489908718062
 30
0.0
 40
18.0
100
AcDbArc
 50
180.0
 51
270.0
  0
LINE
  5
24A4C
330
747D
100
AcDbEntity
  8
部品1
100
AcDbLine
 10
8203.221626154428
 20
1554.489908718062
 30
0.0
 11
8203.221626154428
 21
1572.489908718062
 31
0.0
  0
LINE
  5
24A4D
330
747D
100
AcDbEntity
  8
部品1
100
AcDbLine
 10
8221.221626154427
 20
1473.48990871806
 30
0.0
 11
8095.221626154419
 21
1473.48990871806
 31
0.0
  0
LINE
  5
24A4E
330
747D
100
AcDbEntity
  8
細線
 48
50.0
100
AcDbLine
 10
8515.199451346761
 20
989.4899087180602
 30
0.0
 11
8508.768670728416
 21
1013.48990871806
 31
0.0
  0
LINE
  5
24A4F
330
747D
100
AcDbEntity
  8
細線
 48
50.0
100
AcDbLine
 10
8436.311406399516
 20
989.4899087180602
 30
0.0
 11
8429.880625781171
 21
1013.48990871806
 31
0.0
  0
LINE
  5
24A50
330
747D
100
AcDbEntity
  8
細線
 48
50.0
100
AcDbLine
 10
8357.42336145226
 20
989.489908718062
 30
0.0
 11
8350.992580833912
 21
1013.489908718062
 31
0.0
  0
LINE
  5
24A51
330
747D
100
AcDbEntity
  8
細線
 48
50.0
100
AcDbLine
 10
8493.763515952272
 20
909.4899087180602
 30
0.0
 11
8500.19429657062
 21
885.4899087180601
 31
0.0
  0
LINE
  5
24A52
330
747D
100
AcDbEntity
  8
細線
 48
50.0
100
AcDbLine
 10
8414.875471005027
 20
909.4899087180602
 30
0.0
 11
8421.306251623374
 21
885.4899087180601
 31
0.0
  0
LINE
  5
24A53
330
747D
100
AcDbEntity
  8
細線
 48
50.0
100
AcDbLine
 10
8335.987426057778
 20
909.4899087180619
 30
0.0
 11
8342.418206676134
 21
885.4899087180619
 31
0.0
  0
LINE
  5
24A54
330
747D
100
AcDbEntity
  8
細線
 48
50.0
100
AcDbLine
 10
8408.444690386678
 20
885.4899087180593
 30
0.0
 11
8442.742187017861
 21
1013.489908718059
 31
0.0
  0
LINE
  5
24A55
330
747D
100
AcDbEntity
  8
細線
 48
50.0
100
AcDbLine
 10
8329.55664543943
 20
885.4899087180601
 30
0.0
 11
8363.854142070602
 21
1013.489908718062
 31
0.0
  0
LINE
  5
24A56
330
747D
100
AcDbEntity
  8
細線
 48
50.0
100
AcDbLine
 10
8487.33273533392
 20
885.4899087180601
 30
0.0
 11
8521.630231965108
 21
1013.489908718059
 31
0.0
  0
LINE
  5
24A57
330
747D
100
AcDbEntity
  8
部品1
 48
50.0
100
AcDbLine
 10
8558.821626154429
 20
1013.489908718062
 30
0.0
 11
8558.821626154429
 21
885.4899087180619
 31
0.0
  0
LINE
  5
24A58
330
747D
100
AcDbEntity
  8
細線
 48
50.0
100
AcDbLine
 10
8278.535316505022
 20
989.489908718062
 30
0.0
 11
8272.104535886676
 21
1013.489908718062
 31
0.0
  0
LINE
  5
24A59
330
747D
100
AcDbEntity
  8
細線
 48
50.0
100
AcDbLine
 10
8199.647271557777
 20
989.489908718062
 30
0.0
 11
8193.216490939429
 21
1013.489908718062
 31
0.0
  0
LINE
  5
24A5A
330
747D
100
AcDbEntity
  8
細線
 48
50.0
100
AcDbLine
 10
8041.871181663282
 20
989.489908718062
 30
0.0
 11
8035.440401044935
 21
1013.489908718062
 31
0.0
  0
LINE
  5
24A5B
330
747D
100
AcDbEntity
  8
細線
 48
50.0
100
AcDbLine
 10
8120.759226610529
 20
989.489908718062
 30
0.0
 11
8114.328445992182
 21
1013.489908718062
 31
0.0
  0
LINE
  5
24A5C
330
747D
100
AcDbEntity
  8
細線
 48
50.0
100
AcDbLine
 10
8178.211336163288
 20
909.4899087180619
 30
0.0
 11
8184.642116781633
 21
885.4899087180619
 31
0.0
  0
LINE
  5
24A5D
330
747D
100
AcDbEntity
  8
細線
 48
50.0
100
AcDbLine
 10
8257.099381110533
 20
909.4899087180619
 30
0.0
 11
8263.530161728878
 21
885.4899087180619
 31
0.0
  0
LINE
  5
24A5E
330
747D
100
AcDbEntity
  8
細線
 48
50.0
100
AcDbLine
 10
8020.435246268794
 20
909.4899087180619
 30
0.0
 11
8026.866026887141
 21
885.4899087180619
 31
0.0
  0
LINE
  5
24A5F
330
747D
100
AcDbEntity
  8
細線
 48
50.0
100
AcDbLine
 10
8099.323291216041
 20
909.4899087180619
 30
0.0
 11
8105.754071834388
 21
885.4899087180619
 31
0.0
  0
LINE
  5
24A60
330
747D
100
AcDbEntity
  8
細線
 48
50.0
100
AcDbLine
 10
8250.668600492179
 20
885.4899087180619
 30
0.0
 11
8284.966097123364
 21
1013.48990871806
 31
0.0
  0
LINE
  5
24A61
330
747D
100
AcDbEntity
  8
細線
 48
50.0
100
AcDbLine
 10
8092.892510597689
 20
885.4899087180619
 30
0.0
 11
8127.190007228874
 21
1013.48990871806
 31
0.0
  0
LINE
  5
24A62
330
747D
100
AcDbEntity
  8
細線
 48
50.0
100
AcDbLine
 10
8014.004465650442
 20
885.4899087180619
 30
0.0
 11
8048.301962281625
 21
1013.489908718062
 31
0.0
  0
LINE
  5
24A63
330
747D
100
AcDbEntity
  8
細線
 48
50.0
100
AcDbLine
 10
8171.780555544938
 20
885.4899087180601
 30
0.0
 11
8206.078052176119
 21
1013.48990871806
 31
0.0
  0
LINE
  5
24A64
330
747D
100
AcDbEntity
  8
細線
 48
50.0
100
AcDbLine
 10
8296.553321109234
 20
1013.489908718062
 30
0.0
 11
8478.821626154426
 21
1195.758213763258
 31
0.0
  0
LINE
  5
24A65
330
747D
100
AcDbEntity
  8
部品1
 48
50.0
100
AcDbLine
 10
8478.821626154426
 20
1253.489908718062
 30
0.0
 11
8478.821626154426
 21
1013.489908718062
 31
0.0
  0
LINE
  5
24A66
330
747D
100
AcDbEntity
  8
細線
 48
50.0
100
AcDbLine
 10
8269.612552746032
 20
1013.489908718062
 30
0.0
 11
8478.821626154426
 21
1222.698982126455
 31
0.0
  0
LINE
  5
24A67
330
747D
100
AcDbEntity
  8
細線
 48
50.0
100
AcDbLine
 10
8242.671784382819
 20
1013.489908718062
 30
0.0
 11
8478.821626154426
 21
1249.63975048967
 31
0.0
  0
LINE
  5
24A68
330
747D
100
AcDbEntity
  8
細線
 48
50.0
100
AcDbLine
 10
8027.145637477159
 20
1013.489908718062
 30
0.0
 11
8350.821626154425
 21
1337.165897395328
 31
0.0
  0
LINE
  5
24A69
330
747D
100
AcDbEntity
  8
細線
 48
50.0
100
AcDbLine
 10
8081.027174203576
 20
1013.489908718062
 30
0.0
 11
8350.821626154425
 21
1283.284360668919
 31
0.0
  0
LINE
  5
24A6A
330
747D
100
AcDbEntity
  8
細線
 48
50.0
100
AcDbLine
 10
8054.08640584037
 20
1013.489908718062
 30
0.0
 11
8350.821626154425
 21
1310.225129032114
 31
0.0
  0
LINE
  5
24A6B
330
747D
100
AcDbEntity
  8
細線
 48
50.0
100
AcDbLine
 10
7808.821626154422
 20
1226.218191206648
 30
0.0
 11
7836.093343665841
 21
1253.489908718062
 31
0.0
  0
LINE
  5
24A6C
330
747D
100
AcDbEntity
  8
部品1
 48
50.0
100
AcDbLine
 10
7808.821626154426
 20
1253.489908718062
 30
0.0
 11
7936.821626154426
 21
1253.489908718062
 31
0.0
  0
LINE
  5
24A6D
330
747D
100
AcDbEntity
  8
細線
 48
50.0
100
AcDbLine
 10
7808.821626154422
 20
1199.277422843437
 30
0.0
 11
7863.034112029051
 21
1253.489908718062
 31
0.0
  0
LWPOLYLINE
  5
24A6E
330
747D
100
AcDbEntity
  8
部品1
 48
50.0
100
AcDbPolyline
 90
        2
 70
     0
 43
8.0
 10
7522.681724321469
 20
1557.489908718063
 10
7936.821626154426
 20
1557.489908718063
  0
LINE
  5
24A6F
330
747D
100
AcDbEntity
  8
細線
 48
50.0
100
AcDbLine
 10
7884.095091768781
 20
989.489908718062
 30
0.0
 11
7877.664311150432
 21
1013.489908718062
 31
0.0
  0
LINE
  5
24A70
330
747D
100
AcDbEntity
  8
細線
 48
50.0
100
AcDbLine
 10
7962.983136716032
 20
989.489908718062
 30
0.0
 11
7956.552356097684
 21
1013.489908718062
 31
0.0
  0
LINE
  5
24A71
330
747D
100
AcDbEntity
  8
細線
 48
50.0
100
AcDbLine
 10
7805.207046821528
 20
989.489908718062
 30
0.0
 11
7798.776266203183
 21
1013.489908718062
 31
0.0
  0
LINE
  5
24A72
330
747D
100
AcDbEntity
  8
細線
 48
50.0
100
AcDbLine
 10
7728.821626154426
 20
998.829829683842
 30
0.0
 11
7732.749782492621
 21
1013.489908718062
 31
0.0
  0
LINE
  5
24A73
330
747D
100
AcDbEntity
  8
細線
 48
50.0
100
AcDbLine
 10
7862.659156374292
 20
909.4899087180619
 30
0.0
 11
7869.089936992637
 21
885.4899087180619
 31
0.0
  0
LINE
  5
24A74
330
747D
100
AcDbEntity
  8
細線
 48
50.0
100
AcDbLine
 10
7941.547201321542
 20
909.4899087180619
 30
0.0
 11
7947.97798193989
 21
885.4899087180619
 31
0.0
  0
LINE
  5
24A75
330
747D
100
AcDbEntity
  8
細線
 48
50.0
100
AcDbLine
 10
7783.771111427039
 20
909.4899087180619
 30
0.0
 11
7790.201892045385
 21
885.4899087180619
 31
0.0
  0
LINE
  5
24A76
330
747D
100
AcDbEntity
  8
細線
 48
50.0
100
AcDbLine
 10
7935.116420703192
 20
885.4899087180601
 30
0.0
 11
7969.413917334371
 21
1013.48990871806
 31
0.0
  0
LINE
  5
24A77
330
747D
100
AcDbEntity
  8
細線
 48
50.0
100
AcDbLine
 10
7777.340330808685
 20
885.4899087180601
 30
0.0
 11
7811.637827439868
 21
1013.48990871806
 31
0.0
  0
LINE
  5
24A78
330
747D
100
AcDbEntity
  8
部品1
 48
50.0
100
AcDbLine
 10
7728.821626154429
 20
885.4899087180619
 30
0.0
 11
7728.821626154429
 21
1013.489908718062
 31
0.0
  0
LINE
  5
24A79
330
747D
100
AcDbEntity
  8
細線
 48
50.0
100
AcDbLine
 10
7856.228375755944
 20
885.4899087180619
 30
0.0
 11
7890.525872387127
 21
1013.489908718062
 31
0.0
  0
LINE
  5
24A7A
330
747D
100
AcDbEntity
  8
部品1
 48
50.0
100
AcDbLine
 10
7808.821626154426
 20
1013.489908718062
 30
0.0
 11
7808.821626154426
 21
1253.489908718062
 31
0.0
  0
LINE
  5
24A7B
330
747D
100
AcDbEntity
  8
細線
 48
50.0
100
AcDbLine
 10
7808.821626154422
 20
1172.336654480233
 30
0.0
 11
7889.974880392256
 21
1253.489908718062
 31
0.0
  0
LINE
  5
24A7C
330
747D
100
AcDbEntity
  8
部品1
 48
50.0
100
AcDbLine
 10
8558.821626154429
 20
885.4899087180619
 30
0.0
 11
7728.821626154429
 21
885.4899087180619
 31
0.0
  0
LINE
  5
24A7D
330
747D
100
AcDbEntity
  8
部品1
 48
50.0
100
AcDbLine
 10
8558.821626154429
 20
1013.489908718062
 30
0.0
 11
7728.821626154429
 21
1013.489908718062
 31
0.0
  0
LINE
  5
24A7E
330
747D
100
AcDbEntity
  8
細線
 48
50.0
100
AcDbLine
 10
7811.619490571501
 20
1013.489908718062
 30
0.0
 11
8350.821626154425
 21
1552.692044300987
 31
0.0
  0
LINE
  5
24A7F
330
747D
100
AcDbEntity
  8
細線
 48
50.0
100
AcDbLine
 10
7838.560258934712
 20
1013.489908718062
 30
0.0
 11
8350.821626154429
 21
1525.751275937776
 31
0.0
  0
LINE
  5
24A80
330
747D
100
AcDbEntity
  8
細線
 48
50.0
100
AcDbLine
 10
7865.501027297916
 20
1013.489908718062
 30
0.0
 11
8350.821626154425
 21
1498.81050757457
 31
0.0
  0
LINE
  5
24A81
330
747D
100
AcDbEntity
  8
細線
 48
50.0
100
AcDbLine
 10
7936.821626154426
 20
1354.218191206648
 30
0.0
 11
8095.221626154419
 21
1512.618191206643
 31
0.0
  0
LINE
  5
24A82
330
747D
100
AcDbEntity
  8
細線
 48
50.0
100
AcDbLine
 10
7936.821626154426
 20
1300.336654480233
 30
0.0
 11
8109.974880392263
 21
1473.48990871806
 31
0.0
  0
LINE
  5
24A83
330
747D
100
AcDbEntity
  8
細線
 48
50.0
100
AcDbLine
 10
7936.821626154426
 20
1327.27742284344
 30
0.0
 11
8095.221626154419
 21
1485.677422843429
 31
0.0
  0
LINE
  5
24A84
330
747D
100
AcDbEntity
  8
部品1
100
AcDbLine
 10
8095.221626154419
 20
1473.489908718062
 30
0.0
 11
8095.221626154428
 21
1797.489908718062
 31
0.0
  0
LINE
  5
24A85
330
747D
100
AcDbEntity
  8
部品1
100
AcDbLine
 10
8221.221626154427
 20
1473.489908718062
 30
0.0
 11
8221.221626154427
 21
1797.489908718062
 31
0.0
  0
LINE
  5
24A86
330
747D
100
AcDbEntity
  8
細線
 48
50.0
100
AcDbLine
 10
8221.221626154427
 20
1611.677422843433
 30
0.0
 11
8350.821626154425
 21
1741.27742284343
 31
0.0
  0
LINE
  5
24A87
330
747D
100
AcDbEntity
  8
細線
 48
50.0
100
AcDbLine
 10
8221.221626154427
 20
1584.736654480221
 30
0.0
 11
8350.821626154425
 21
1714.336654480212
 31
0.0
  0
LINE
  5
24A88
330
747D
100
AcDbEntity
  8
部品1
100
AcDbLine
 10
8149.221626154426
 20
1572.489908718062
 30
0.0
 11
8149.221626154425
 21
1846.649908718063
 31
0.0
  0
LINE
  5
24A89
330
747D
100
AcDbEntity
  8
部品1
100
AcDbLine
 10
8167.221626154427
 20
1572.489908718062
 30
0.0
 11
8167.221626154423
 21
1846.649908718063
 31
0.0
  0
TEXT
  5
24A8A
330
747D
100
AcDbEntity
  8
部品1
 48
50.0
100
AcDbText
 10
7522.681724321469
 20
1568.728901001317
 30
0.0
 40
80.0
  1
▽G.L
  7
STYLE2
100
AcDbText
  0
LINE
  5
24A8B
330
747D
100
AcDbEntity
  8
細線
 48
50.0
100
AcDbLine
 10
7936.821626154426
 20
1515.862801385892
 30
0.0
 11
8095.221626154424
 21
1674.262801385885
 31
0.0
  0
LINE
  5
24A8C
330
747D
100
AcDbEntity
  8
細線
 48
50.0
100
AcDbLine
 10
7936.821626154426
 20
1542.803569749099
 30
0.0
 11
8095.221626154424
 21
1701.203569749097
 31
0.0
  0
LINE
  5
24A8D
330
747D
100
AcDbEntity
  8
細線
 48
50.0
100
AcDbLine
 10
7936.821626154426
 20
1569.744338112307
 30
0.0
 11
8095.221626154424
 21
1728.144338112304
 31
0.0
  0
LINE
  5
24A8E
330
747D
100
AcDbEntity
  8
部品1
 48
50.0
100
AcDbLine
 10
7936.821626154426
 20
1253.489908718062
 30
0.0
 11
7936.821626154426
 21
1797.489908718062
 31
0.0
  0
LINE
  5
24A8F
330
747D
100
AcDbEntity
  8
部品1
100
AcDbLine
 10
8350.821626154425
 20
1253.489908718062
 30
0.0
 11
8350.821626154425
 21
1797.489908718062
 31
0.0
  0
LINE
  5
24A90
330
747D
100
AcDbEntity
  8
細線
 48
50.0
100
AcDbLine
 10
8221.221626154427
 20
1638.61819120665
 30
0.0
 11
8350.821626154425
 21
1768.218191206649
 31
0.0
  0
LINE
  5
24A91
330
747D
100
AcDbEntity
  8
細線
 48
50.0
100
AcDbLine
 10
6345.274735479703
 20
1678.236760614778
 30
0.0
 11
6428.782312977233
 21
1761.744338112308
 31
0.0
  0
LINE
  5
24A92
330
747D
100
AcDbEntity
  8
細線
 48
50.0
100
AcDbLine
 10
6356.33502024322
 20
1662.356277015083
 30
0.0
 11
6428.782312977233
 21
1734.803569749099
 31
0.0
  0
LINE
  5
24A93
330
747D
100
AcDbEntity
  8
細線
 48
50.0
100
AcDbLine
 10
6236.782312977233
 20
1785.270485017967
 30
0.0
 11
6249.001736677328
 21
1797.489908718062
 31
0.0
  0
LINE
  5
24A94
330
747D
100
AcDbEntity
  8
細線
 48
50.0
100
AcDbLine
 10
6236.782312977233
 20
1731.388948291552
 30
0.0
 11
6302.883273403742
 21
1797.489908718062
 31
0.0
  0
LINE
  5
24A95
330
747D
100
AcDbEntity
  8
細線
 48
50.0
100
AcDbLine
 10
6236.782312977233
 20
1758.32971665476
 30
0.0
 11
6275.942505040537
 21
1797.489908718062
 31
0.0
  0
LINE
  5
24A96
330
747D
100
AcDbEntity
  8
部品1
 48
50.0
100
AcDbLine
 10
6236.782312977233
 20
1797.489908718062
 30
0.0
 11
6428.782312977233
 21
1797.489908718062
 31
0.0
  0
DIMENSION
  5
24A97
330
747D
100
AcDbEntity
  8
寸法
 48
50.0
100
AcDbDimension
  2
*D53
 10
6236.782312977233
 20
2217.157716634442
 30
0.0
 11
6332.782312977233
 21
2217.157716634442
 31
0.0
 70
   160
  1
120\P200\P280
 71
     5
 42
192.0
  3
INABA_S40G
100
AcDbAlignedDimension
 13
6428.782312977232
 23
1797.489908718062
 33
0.0
 14
6236.782312977233
 24
1797.489908718062
 34
0.0
100
AcDbRotatedDimension
1001
ACAD
1000
DSTYLE
1002
{
1070
   341
1005
0
1002
}
  0
MTEXT
  5
24A98
102
{ACAD_REACTORS
330
24AED
102
}
330
747D
100
AcDbEntity
  8
寸法
 62
     7
 48
50.0
100
AcDbMText
 10
6670.520768838483
 20
836.1408229859089
 30
0.0
 40
80.0
 41
0.8
 71
     4
 72
     1
  1
\A1;D10@300
  7
STYLE2
 73
     1
 44
1.0
1001
ACAD
1000
MTEXTBEGIN
1070
    73
1070
     1
1070
    44
1040
1.0
1070
    74
1070
     0
1000
MTEXTEND
  0
LINE
  5
24A99
330
747D
100
AcDbEntity
  8
細線
 48
50.0
100
AcDbLine
 10
6356.782312977238
 20
1447.277422843443
 30
0.0
 11
6428.782312977226
 21
1519.277422843437
 31
0.0
  0
LINE
  5
24A9A
330
747D
100
AcDbEntity
  8
細線
 48
50.0
100
AcDbLine
 10
6356.782312977234
 20
1474.218191206648
 30
0.0
 11
6428.782312977233
 21
1546.218191206648
 31
0.0
  0
LINE
  5
24A9B
330
747D
100
AcDbEntity
  8
細線
 48
50.0
100
AcDbLine
 10
6356.782312977238
 20
1204.810507574573
 30
0.0
 11
6428.782312977226
 21
1276.810507574573
 31
0.0
  0
LINE
  5
24A9C
330
747D
100
AcDbEntity
  8
細線
 48
50.0
100
AcDbLine
 10
6356.782312977238
 20
1258.692044300991
 30
0.0
 11
6428.782312977226
 21
1330.692044300987
 31
0.0
  0
LINE
  5
24A9D
330
747D
100
AcDbEntity
  8
細線
 48
50.0
100
AcDbLine
 10
6356.782312977238
 20
1231.751275937783
 30
0.0
 11
6428.782312977226
 21
1303.751275937778
 31
0.0
  0
LINE
  5
24A9E
330
747D
100
AcDbEntity
  8
部品1
 48
50.0
100
AcDbLine
 10
6428.782312977233
 20
1253.489908718062
 30
0.0
 11
6556.782312977233
 21
1253.489908718062
 31
0.0
  0
LINE
  5
24A9F
330
747D
100
AcDbEntity
  8
細線
 48
50.0
100
AcDbLine
 10
6356.782312977238
 20
1420.336654480233
 30
0.0
 11
6428.782312977226
 21
1492.336654480233
 31
0.0
  0
LINE
  5
24AA0
330
747D
100
AcDbEntity
  8
部品1
 48
50.0
100
AcDbLine
 10
6324.782312977234
 20
1599.617123415184
 30
0.0
 11
6324.782312977234
 21
1657.744338112307
 31
0.0
  0
LINE
  5
24AA1
330
747D
100
AcDbEntity
  8
細線
 48
50.0
100
AcDbLine
 10
6236.782312977233
 20
1569.744338112307
 30
0.0
 11
6308.782312977233
 21
1641.744338112307
 31
0.0
  0
LINE
  5
24AA2
330
747D
100
AcDbEntity
  8
部品1
 48
50.0
100
AcDbLine
 10
6308.782312977233
 20
1599.617123415188
 30
0.0
 11
6308.782312977233
 21
1657.744338112307
 31
0.0
  0
LINE
  5
24AA3
330
747D
100
AcDbEntity
  8
細線
 48
50.0
100
AcDbLine
 10
6236.782312977233
 20
1542.803569749099
 30
0.0
 11
6308.782312977233
 21
1614.803569749099
 31
0.0
  0
LINE
  5
24AA4
330
747D
100
AcDbEntity
  8
細線
 48
50.0
100
AcDbLine
 10
6236.782312977233
 20
1515.862801385892
 30
0.0
 11
6320.536635006527
 21
1599.617123415184
 31
0.0
  0
LINE
  5
24AA5
330
747D
100
AcDbEntity
  8
部品1
 48
50.0
100
AcDbLine
 10
6324.782312977234
 20
1599.617123415184
 30
0.0
 11
6308.782312977233
 21
1599.617123415188
 31
0.0
  0
LINE
  5
24AA6
330
747D
100
AcDbEntity
  8
細線
 48
50.0
100
AcDbLine
 10
6108.782312977226
 20
1226.218191206648
 30
0.0
 11
6136.054030488647
 21
1253.489908718062
 31
0.0
  0
LINE
  5
24AA7
330
747D
100
AcDbEntity
  8
細線
 48
50.0
100
AcDbLine
 10
6108.782312977226
 20
1199.277422843437
 30
0.0
 11
6162.994798851858
 21
1253.489908718062
 31
0.0
  0
LINE
  5
24AA8
330
747D
100
AcDbEntity
  8
部品1
 48
50.0
100
AcDbLine
 10
6108.782312977233
 20
1253.489908718062
 30
0.0
 11
6236.782312977233
 21
1253.489908718062
 31
0.0
  0
LINE
  5
24AA9
330
747D
100
AcDbEntity
  8
細線
 48
50.0
100
AcDbLine
 10
6324.782312977234
 20
1630.803569749099
 30
0.0
 11
6340.782312977233
 21
1646.803569749099
 31
0.0
  0
LINE
  5
24AAA
330
747D
100
AcDbEntity
  8
細線
 48
50.0
100
AcDbLine
 10
6324.782312977234
 20
1603.862801385892
 30
0.0
 11
6340.782312977233
 21
1619.862801385892
 31
0.0
  0
LINE
  5
24AAB
330
747D
100
AcDbEntity
  8
細線
 48
50.0
100
AcDbLine
 10
6236.782312977233
 20
1300.336654480233
 30
0.0
 11
6340.782312977239
 21
1404.336654480233
 31
0.0
  0
LINE
  5
24AAC
330
747D
100
AcDbEntity
  8
細線
 48
50.0
100
AcDbLine
 10
6236.782312977233
 20
1354.218191206648
 30
0.0
 11
6340.782312977233
 21
1458.218191206648
 31
0.0
  0
LINE
  5
24AAD
330
747D
100
AcDbEntity
  8
細線
 48
50.0
100
AcDbLine
 10
6236.782312977233
 20
1327.27742284344
 30
0.0
 11
6340.782312977239
 21
1431.277422843443
 31
0.0
  0
LINE
  5
24AAE
330
747D
100
AcDbEntity
  8
細線
 48
50.0
100
AcDbLine
 10
6499.607958380581
 20
989.489908718062
 30
0.0
 11
6493.177177762234
 21
1013.489908718062
 31
0.0
  0
LINE
  5
24AAF
330
747D
100
AcDbEntity
  8
細線
 48
50.0
100
AcDbLine
 10
6542.632471205627
 20
1013.489908718062
 30
0.0
 11
6556.782312977233
 21
1027.639750489668
 31
0.0
  0
LINE
  5
24AB0
330
747D
100
AcDbEntity
  8
細線
 48
50.0
100
AcDbLine
 10
6578.496003327828
 20
989.489908718062
 30
0.0
 11
6572.06522270948
 21
1013.489908718062
 31
0.0
  0
LINE
  5
24AB1
330
747D
100
AcDbEntity
  8
部品1
 48
50.0
100
AcDbLine
 10
6500.782312977233
 20
1125.489908718062
 30
0.0
 11
6500.782312977233
 21
1109.489908718062
 31
0.0
  0
LINE
  5
24AB2
330
747D
100
AcDbEntity
  8
細線
 48
50.0
100
AcDbLine
 10
6380.987861026381
 20
1013.489908718062
 30
0.0
 11
6476.988748871517
 21
1109.490796563201
 31
0.0
  0
LINE
  5
24AB3
330
747D
100
AcDbEntity
  8
細線
 48
50.0
100
AcDbLine
 10
6354.047092663177
 20
1013.489908718062
 30
0.0
 11
6450.047092663178
 21
1109.489908718062
 31
0.0
  0
LINE
  5
24AB4
330
747D
100
AcDbEntity
  8
細線
 48
50.0
100
AcDbLine
 10
6420.719913433335
 20
989.489908718062
 30
0.0
 11
6414.289132814989
 21
1013.489908718062
 31
0.0
  0
LINE
  5
24AB5
330
747D
100
AcDbEntity
  8
細線
 48
50.0
100
AcDbLine
 10
6341.83186848609
 20
989.489908718062
 30
0.0
 11
6335.401087867742
 21
1013.489908718062
 31
0.0
  0
ARC
  5
24AB6
330
747D
100
AcDbEntity
  8
部品1
 48
50.0
100
AcDbCircle
 10
6332.782312977233
 20
1133.489908718062
 30
0.0
 40
24.0
100
AcDbArc
 50
340.5287793655164
 51
0.0
  0
CIRCLE
  5
24AB7
330
747D
100
AcDbEntity
  8
部品1
 48
50.0
100
AcDbCircle
 10
6460.782312977233
 20
1133.489908718062
 30
0.0
 40
8.0
  0
LINE
  5
24AB8
330
747D
100
AcDbEntity
  8
細線
 48
50.0
100
AcDbLine
 10
6492.98786102638
 20
1125.489908718062
 30
0.0
 11
6556.782312977233
 21
1189.284360668913
 31
0.0
  0
LINE
  5
24AB9
330
747D
100
AcDbEntity
  8
細線
 48
50.0
100
AcDbLine
 10
6629.517332262236
 20
885.4899087180601
 30
0.0
 11
6636.782312977233
 21
912.60318586245
 31
0.0
  0
LINE
  5
24ABA
330
747D
100
AcDbEntity
  8
細線
 48
50.0
100
AcDbLine
 10
6635.948112880585
 20
909.4899087180619
 30
0.0
 11
6636.782312977233
 21
906.3766315736975
 31
0.0
  0
LINE
  5
24ABB
330
747D
100
AcDbEntity
  8
細線
 48
50.0
100
AcDbLine
 10
6557.060067933338
 20
909.4899087180619
 30
0.0
 11
6563.490848551686
 21
885.4899087180619
 31
0.0
  0
LINE
  5
24ABC
330
747D
100
AcDbEntity
  8
細線
 48
50.0
100
AcDbLine
 10
6399.283978038845
 20
909.4899087180619
 30
0.0
 11
6405.714758657191
 21
885.4899087180619
 31
0.0
  0
LINE
  5
24ABD
330
747D
100
AcDbEntity
  8
細線
 48
50.0
100
AcDbLine
 10
6478.172022986091
 20
909.4899087180619
 30
0.0
 11
6484.602803604438
 21
885.4899087180619
 31
0.0
  0
LINE
  5
24ABE
330
747D
100
AcDbEntity
  8
細線
 48
50.0
100
AcDbLine
 10
6471.741242367741
 20
885.4899087180601
 30
0.0
 11
6506.038738998926
 21
1013.48990871806
 31
0.0
  0
LINE
  5
24ABF
330
747D
100
AcDbEntity
  8
細線
 48
50.0
100
AcDbLine
 10
6392.853197420492
 20
885.4899087180619
 30
0.0
 11
6427.150694051679
 21
1013.48990871806
 31
0.0
  0
LINE
  5
24AC0
330
747D
100
AcDbEntity
  8
細線
 48
50.0
100
AcDbLine
 10
6550.629287314987
 20
885.4899087180619
 30
0.0
 11
6584.926783946172
 21
1013.48990871806
 31
0.0
  0
LINE
  5
24AC1
330
747D
100
AcDbEntity
  8
部品1
 48
50.0
100
AcDbLine
 10
6636.782312977238
 20
1013.489908718062
 30
0.0
 11
6636.782312977238
 21
885.4899087180619
 31
0.0
  0
LINE
  5
24AC2
330
747D
100
AcDbEntity
  8
部品1
 48
50.0
100
AcDbLine
 10
6324.782312977234
 20
1191.617123415184
 30
0.0
 11
6324.782312977234
 21
1133.489908718062
 31
0.0
  0
LINE
  5
24AC3
330
747D
100
AcDbEntity
  8
細線
 48
50.0
100
AcDbLine
 10
6250.520945757517
 20
1125.489908718062
 30
0.0
 11
6308.782312977233
 21
1183.75127593778
 31
0.0
  0
LINE
  5
24AC4
330
747D
100
AcDbEntity
  8
部品1
 48
50.0
100
AcDbLine
 10
6308.782312977233
 20
1191.617123415184
 30
0.0
 11
6308.782312977233
 21
1133.489908718062
 31
0.0
  0
LINE
  5
24AC5
330
747D
100
AcDbEntity
  8
細線
 48
50.0
100
AcDbLine
 10
6165.461714120722
 20
1013.489908718062
 30
0.0
 11
6261.461714120722
 21
1109.489908718062
 31
0.0
  0
LINE
  5
24AC6
330
747D
100
AcDbEntity
  8
細線
 48
50.0
100
AcDbLine
 10
6262.943823538837
 20
989.489908718062
 30
0.0
 11
6256.513042920492
 21
1013.489908718062
 31
0.0
  0
LINE
  5
24AC7
330
747D
100
AcDbEntity
  8
細線
 48
50.0
100
AcDbLine
 10
6184.055778591584
 20
989.489908718062
 30
0.0
 11
6177.624997973238
 21
1013.489908718062
 31
0.0
  0
ARC
  5
24AC8
330
747D
100
AcDbEntity
  8
部品1
 48
50.0
100
AcDbCircle
 10
6332.782312977233
 20
1133.489908718062
 30
0.0
 40
24.0
100
AcDbArc
 50
180.0
 51
199.4712206344835
  0
LINE
  5
24AC9
330
747D
100
AcDbEntity
  8
細線
 48
50.0
100
AcDbLine
 10
6277.461714120722
 20
1125.489908718062
 30
0.0
 11
6308.782312977233
 21
1156.810507574573
 31
0.0
  0
CIRCLE
  5
24ACA
330
747D
100
AcDbEntity
  8
部品1
 48
50.0
100
AcDbCircle
 10
6204.782312977233
 20
1133.489908718062
 30
0.0
 40
8.0
  0
LINE
  5
24ACB
330
747D
100
AcDbEntity
  8
部品1
 48
50.0
100
AcDbLine
 10
6324.782312977234
 20
1191.617123415184
 30
0.0
 11
6308.782312977233
 21
1191.617123415184
 31
0.0
  0
LINE
  5
24ACC
330
747D
100
AcDbEntity
  8
細線
 48
50.0
100
AcDbLine
 10
6028.782312977233
 20
998.829829683842
 30
0.0
 11
6032.710469315428
 21
1013.489908718062
 31
0.0
  0
LINE
  5
24ACD
330
747D
100
AcDbEntity
  8
細線
 48
50.0
100
AcDbLine
 10
6105.167733644333
 20
989.489908718062
 30
0.0
 11
6098.736953025985
 21
1013.489908718062
 31
0.0
  0
LINE
  5
24ACE
330
747D
100
AcDbEntity
  8
部品1
 48
50.0
100
AcDbLine
 10
6164.782312977234
 20
1125.489908718062
 30
0.0
 11
6164.782312977234
 21
1109.489908718062
 31
0.0
  0
LINE
  5
24ACF
330
747D
100
AcDbEntity
  8
細線
 48
50.0
100
AcDbLine
 10
6111.580177394306
 20
1013.489908718062
 30
0.0
 11
6207.580177394306
 21
1109.489908718062
 31
0.0
  0
LINE
  5
24AD0
330
747D
100
AcDbEntity
  8
細線
 48
50.0
100
AcDbLine
 10
6138.520945757516
 20
1013.489908718062
 30
0.0
 11
6234.520945757516
 21
1109.489908718062
 31
0.0
  0
LINE
  5
24AD1
330
747D
100
AcDbEntity
  8
細線
 48
50.0
100
AcDbLine
 10
6241.507888144347
 20
909.4899087180619
 30
0.0
 11
6247.938668762694
 21
885.4899087180619
 31
0.0
  0
LINE
  5
24AD2
330
747D
100
AcDbEntity
  8
細線
 48
50.0
100
AcDbLine
 10
6320.3959330916
 20
909.4899087180619
 30
0.0
 11
6326.826713709946
 21
885.4899087180619
 31
0.0
  0
LINE
  5
24AD3
330
747D
100
AcDbEntity
  8
細線
 48
50.0
100
AcDbLine
 10
6083.731798249845
 20
909.4899087180619
 30
0.0
 11
6090.162578868191
 21
885.4899087180619
 31
0.0
  0
LINE
  5
24AD4
330
747D
100
AcDbEntity
  8
細線
 48
50.0
100
AcDbLine
 10
6162.619843197095
 20
909.4899087180619
 30
0.0
 11
6169.050623815444
 21
885.4899087180619
 31
0.0
  0
LINE
  5
24AD5
330
747D
100
AcDbEntity
  8
部品1
 48
50.0
100
AcDbLine
 10
6028.782312977234
 20
885.4899087180619
 30
0.0
 11
6028.782312977234
 21
1013.489908718062
 31
0.0
  0
LINE
  5
24AD6
330
747D
100
AcDbEntity
  8
細線
 48
50.0
100
AcDbLine
 10
6077.301017631491
 20
885.4899087180601
 30
0.0
 11
6111.598514262674
 21
1013.48990871806
 31
0.0
  0
LINE
  5
24AD7
330
747D
100
AcDbEntity
  8
細線
 48
50.0
100
AcDbLine
 10
6235.077107525995
 20
885.4899087180601
 30
0.0
 11
6269.374604157178
 21
1013.48990871806
 31
0.0
  0
LINE
  5
24AD8
330
747D
100
AcDbEntity
  8
細線
 48
50.0
100
AcDbLine
 10
6156.189062578749
 20
885.4899087180619
 30
0.0
 11
6190.486559209933
 21
1013.489908718062
 31
0.0
  0
LINE
  5
24AD9
330
747D
100
AcDbEntity
  8
細線
 48
50.0
100
AcDbLine
 10
6327.106324299966
 20
1013.489908718062
 30
0.0
 11
6423.106324299967
 21
1109.489908718062
 31
0.0
  0
CIRCLE
  5
24ADA
330
747D
100
AcDbEntity
  8
部品1
 48
50.0
100
AcDbCircle
 10
6332.782312977233
 20
1133.489908718062
 30
0.0
 40
8.0
  0
LINE
  5
24ADB
330
747D
100
AcDbEntity
  8
部品1
 48
50.0
100
AcDbLine
 10
6636.782312977238
 20
1013.489908718062
 30
0.0
 11
6028.782312977234
 21
1013.489908718062
 31
0.0
  0
LINE
  5
24ADC
330
747D
100
AcDbEntity
  8
部品1
 48
50.0
100
AcDbLine
 10
6164.782312977234
 20
1125.489908718062
 30
0.0
 11
6500.782312977233
 21
1125.489908718062
 31
0.0
  0
LINE
  5
24ADD
330
747D
100
AcDbEntity
  8
部品1
 48
50.0
100
AcDbLine
 10
6164.782312977234
 20
1109.489908718062
 30
0.0
 11
6500.782312977233
 21
1109.489908718062
 31
0.0
  0
LINE
  5
24ADE
330
747D
100
AcDbEntity
  8
部品1
 48
50.0
100
AcDbLine
 10
6636.782312977238
 20
885.4899087180619
 30
0.0
 11
6028.782312977234
 21
885.4899087180619
 31
0.0
  0
LINE
  5
24ADF
330
747D
100
AcDbEntity
  8
細線
 48
50.0
100
AcDbLine
 10
6313.965152473247
 20
885.4899087180619
 30
0.0
 11
6348.26264910443
 21
1013.489908718062
 31
0.0
  0
LINE
  5
24AE0
330
747D
100
AcDbEntity
  8
細線
 48
50.0
100
AcDbLine
 10
6324.782312977234
 20
1172.810507574573
 30
0.0
 11
6340.782312977239
 21
1188.810507574573
 31
0.0
  0
LINE
  5
24AE1
330
747D
100
AcDbEntity
  8
部品1
 48
50.0
100
AcDbLine
 10
6340.782312977239
 20
1133.489908718062
 30
0.0
 11
6340.782312977226
 21
1657.744338112307
 31
0.0
  0
LINE
  5
24AE2
330
747D
100
AcDbEntity
  8
部品1
 48
50.0
100
AcDbLine
 10
6356.782312977238
 20
1133.489908718062
 30
0.0
 11
6356.782312977234
 21
1657.744338112307
 31
0.0
  0
LINE
  5
24AE3
330
747D
100
AcDbEntity
  8
部品1
 48
50.0
100
AcDbLine
 10
6556.782312977233
 20
1253.489908718062
 30
0.0
 11
6556.782312977233
 21
1013.489908718062
 31
0.0
  0
LINE
  5
24AE4
330
747D
100
AcDbEntity
  8
細線
 48
50.0
100
AcDbLine
 10
6439.10632429996
 20
1125.489908718062
 30
0.0
 11
6556.782312977233
 21
1243.165897395328
 31
0.0
  0
LINE
  5
24AE5
330
747D
100
AcDbEntity
  8
細線
 48
50.0
100
AcDbLine
 10
6466.047092663178
 20
1125.489908718062
 30
0.0
 11
6556.782312977233
 21
1216.225129032121
 31
0.0
  0
LINE
  5
24AE6
330
747D
100
AcDbEntity
  8
部品1
 48
50.0
100
AcDbLine
 10
6108.782312977233
 20
1013.489908718062
 30
0.0
 11
6108.782312977233
 21
1253.489908718062
 31
0.0
  0
LINE
  5
24AE7
330
747D
100
AcDbEntity
  8
細線
 48
50.0
100
AcDbLine
 10
6223.580177394306
 20
1125.489908718062
 30
0.0
 11
6340.782312977233
 21
1242.692044300987
 31
0.0
  0
LINE
  5
24AE8
330
747D
100
AcDbEntity
  8
細線
 48
50.0
100
AcDbLine
 10
6316.648160454636
 20
1191.617123415184
 30
0.0
 11
6340.782312977239
 21
1215.751275937783
 31
0.0
  0
LINE
  5
24AE9
330
747D
100
AcDbEntity
  8
細線
 48
50.0
100
AcDbLine
 10
6108.782312977226
 20
1172.336654480233
 30
0.0
 11
6189.935567215061
 21
1253.489908718062
 31
0.0
  0
LEADER
  5
24AEA
330
747D
100
AcDbEntity
  8
寸法
 48
50.0
100
AcDbLeader
  3
INABA_S50G
 71
     0
 73
     0
 74
     0
 75
     1
 40
100.0
 41
222.7272727272727
 76
     3
 10
6332.782312977233
 20
1657.744338112307
 30
0.0
 10
6386.668250004627
 20
1756.979910965481
 30
0.0
 10
6511.668250004627
 20
1756.979910965481
 30
0.0
1001
ACAD
1000
DSTYLE
1002
{
1070
    40
1040
1.0
1070
   272
1070
     1
1070
   279
1070
     1
1070
   341
1005
0
1002
}
  0
LWPOLYLINE
  5
24AEB
330
747D
100
AcDbEntity
  8
部品1
 48
50.0
100
AcDbPolyline
 90
        2
 70
     0
 43
8.0
 10
6428.782312977232
 20
1557.489908718063
 10
6842.92221481019
 20
1557.489908718063
  0
MTEXT
  5
24AEC
102
{ACAD_REACTORS
330
24AEE
102
}
330
747D
100
AcDbEntity
  8
寸法
 62
     7
 48
50.0
100
AcDbMText
 10
6660.109972783917
 20
1098.092839775089
 30
0.0
 40
80.0
 41
0.8
 71
     4
 72
     1
  1
D10
  7
STYLE2
 73
     1
 44
1.0
1001
ACAD
1000
MTEXTBEGIN
1070
    73
1070
     1
1070
    44
1040
1.0
1070
    74
1070
     0
1000
MTEXTEND
  0
LEADER
  5
24AED
330
747D
100
AcDbEntity
  8
寸法
 48
50.0
100
AcDbLeader
  3
INABA_S50G
 71
     0
 73
     0
 74
     0
 75
     1
 40
100.0
 41
540.3409090909091
 76
     3
 10
6406.727481990407
 20
1116.749378304536
 30
0.0
 10
6525.520768838484
 20
775.1185603096391
 30
0.0
 10
6650.520768838484
 20
775.1185603096391
 30
0.0
213
0.0
223
-1.022262676269383
233
0.0
1001
ACAD
1000
DSTYLE
1002
{
1070
    40
1040
1.0
1070
   272
1070
     1
1070
   279
1070
     1
1070
   341
1005
0
1002
}
  0
LEADER
  5
24AEE
330
747D
100
AcDbEntity
  8
寸法
 48
50.0
100
AcDbLeader
  3
INABA_S50G
 71
     0
 73
     0
 74
     0
 75
     1
 40
100.0
 41
225.0
 76
     3
 10
6460.685265329376
 20
1133.489908718062
 30
0.0
 10
6515.109972783918
 20
1038.092839775089
 30
0.0
 10
6640.109972783918
 20
1038.092839775089
 30
0.0
1001
ACAD
1000
DSTYLE
1002
{
1070
    40
1040
1.0
1070
   272
1070
     1
1070
   279
1070
     1
1070
   341
1005
0
1002
}
  0
MTEXT
  5
24AEF
102
{ACAD_REACTORS
330
24AEA
102
}
330
747D
100
AcDbEntity
  8
寸法
 62
     7
 48
50.0
100
AcDbMText
 10
6511.668250004627
 20
1820.045808010872
 30
0.0
 40
80.0
 41
0.8
 71
     4
 72
     1
  1
D13
  7
STYLE2
 73
     1
 44
1.0
1001
ACAD
1000
MTEXTBEGIN
1070
    73
1070
     1
1070
    44
1040
1.0
1070
    74
1070
     0
1000
MTEXTEND
  0
LINE
  5
24AF0
330
747D
100
AcDbEntity
  8
部品1
 48
50.0
100
AcDbLine
 10
6428.782312977233
 20
1797.489908718062
 30
0.0
 11
6428.782312977233
 21
1253.489908718062
 31
0.0
  0
LINE
  5
24AF1
330
747D
100
AcDbEntity
  8
部品1
 48
50.0
100
AcDbLine
 10
6236.782312977233
 20
1253.489908718062
 30
0.0
 11
6236.782312977233
 21
1797.489908718062
 31
0.0
  0
CIRCLE
  5
24AF2
330
747D
100
AcDbEntity
  8
部品1
 48
50.0
100
AcDbCircle
 10
6332.782312977233
 20
1657.744338112307
 30
0.0
 40
8.0
  0
ARC
  5
24AF3
330
747D
100
AcDbEntity
  8
部品1
 48
50.0
100
AcDbCircle
 10
6332.782312977233
 20
1657.744338112307
 30
0.0
 40
24.0
100
AcDbArc
 50
0.0
 51
180.0
  0
LINE
  5
24AF4
330
747D
100
AcDbEntity
  8
細線
 48
50.0
100
AcDbLine
 10
6356.782312977234
 20
1635.862801385892
 30
0.0
 11
6428.782312977233
 21
1707.862801385892
 31
0.0
  0
LEADER
  5
24AF5
330
747D
100
AcDbEntity
  8
寸法
 48
50.0
100
AcDbLeader
  3
INABA_S50G
 73
     0
 75
     1
 40
106.3636363636363
 41
893.1818181818181
 76
     3
 10
8068.221626154427
 20
1867.049908718063
 30
0.0
 10
8019.797553809487
 20
2241.109483434395
 30
0.0
 10
7894.797553809486
 20
2241.109483434395
 30
0.0
340
24AF6
1001
ACAD
1000
DSTYLE
1002
{
1070
   341
1005
0
1070
    40
1040
1.0
1070
   343
1005
0
1070
   344
1005
0
1002
}
  0
MTEXT
  5
24AF6
102
{ACAD_REACTORS
330
24AF5
102
}
330
747D
100
AcDbEntity
  8
寸法
 62
     7
 48
50.0
100
AcDbMText
 10
7869.797553809487
 20
2319.291301616214
 30
0.0
 40
80.0
 41
0.8
 71
     6
 72
     1
  1
\A1;アンカープレート L
  7
STYLE2
 73
     1
 44
1.0
1001
ACAD
1000
MTEXTBEGIN
1070
    73
1070
     1
1070
    44
1040
1.0
1070
    74
1070
     0
1000
MTEXTEND
  0
DIMENSION
  5
24AF7
330
747D
100
AcDbEntity
  8
寸法
 48
50.0
100
AcDbDimension
  2
*D54
 10
6556.782312977232
 20
475.0602707129019
 30
0.0
 11
6312.685554299009
 21
475.0602707129019
 31
0.0
 70
   160
  1
300
 71
     5
 42
448.0
  3
INABA_S40G
100
AcDbAlignedDimension
 13
6108.782312977233
 23
885.4899087180619
 33
0.0
 14
6556.782312977232
 24
885.4899087180619
 34
0.0
100
AcDbRotatedDimension
1001
ACAD
1000
DSTYLE
1002
{
1070
   341
1005
0
1002
}
  0
MTEXT
  5
24AF8
102
{ACAD_REACTORS
330
24B00
102
}
330
747D
100
AcDbEntity
  8
寸法
 62
     7
 48
50.0
100
AcDbMText
 10
5937.847286782038
 20
929.9672150996256
 30
0.0
 40
80.0
 41
0.8
 71
     6
 72
     1
  1
D10
  7
STYLE2
 73
     1
 44
1.0
1001
ACAD
1000
MTEXTBEGIN
1070
    73
1070
     1
1070
    44
1040
1.0
1070
    74
1070
     0
1000
MTEXTEND
  0
MTEXT
  5
24AF9
102
{ACAD_REACTORS
330
24AFF
102
}
330
747D
100
AcDbEntity
  8
寸法
 62
     7
 48
50.0
100
AcDbMText
 10
5965.970014339473
 20
749.6510625601822
 30
0.0
 40
80.0
 41
0.8
 71
     6
 72
     1
  1
D13
  7
STYLE2
 73
     1
 44
1.0
1001
ACAD
1000
MTEXTBEGIN
1070
    73
1070
     1
1070
    44
1040
1.0
1070
    74
1070
     0
1000
MTEXTEND
  0
DIMENSION
  5
24AFA
330
747D
100
AcDbEntity
  8
寸法
 48
50.0
100
AcDbDimension
  2
*D55
 10
5501.745074415492
 20
1013.489908718062
 30
0.0
 11
5501.745074415492
 21
1385.030058374063
 31
0.0
 70
   160
  1
540
 71
     5
 42
784.0
  3
INABA_S40G
100
AcDbAlignedDimension
 13
6236.782312977233
 23
1797.489908718062
 33
0.0
 14
6028.782312977236
 24
1013.489908718062
 34
0.0
 50
90.0
100
AcDbRotatedDimension
1001
ACAD
1000
DSTYLE
1002
{
1070
   341
1005
0
1002
}
  0
MTEXT
  5
24AFB
102
{ACAD_REACTORS
330
24AFC
102
}
330
747D
100
AcDbEntity
  8
寸法
 62
     7
 48
50.0
100
AcDbMText
 10
6016.68383349396
 20
2010.006128720104
 30
0.0
 40
80.0
 41
0.8
 71
     6
 72
     1
  1
\A1;金コテ押エ
  7
STYLE2
 73
     1
 44
1.0
1001
ACAD
1000
MTEXTBEGIN
1070
    73
1070
     1
1070
    44
1040
1.0
1070
    74
1070
     0
1000
MTEXTEND
  0
LEADER
  5
24AFC
330
747D
100
AcDbEntity
  8
寸法
 48
50.0
100
AcDbLeader
  3
INABA_S50G
 71
     0
 73
     0
 75
     1
 40
130.1136363636363
 41
651.1363636363636
 76
     3
 10
6316.782312977232
 20
1797.489908718062
 30
0.0
 10
6204.357732813216
 20
1937.96067417465
 30
0.0
 10
6079.357732813216
 20
1937.96067417465
 30
0.0
1001
ACAD
1000
DSTYLE
1002
{
1070
    40
1040
1.0
1070
   272
1070
     1
1070
   279
1070
     1
1070
   341
1005
0
1002
}
  0
LEADER
  5
24AFD
330
747D
100
AcDbEntity
  8
寸法
 48
50.0
100
AcDbLeader
  3
INABA_S50G
 71
     0
 73
     0
 75
     1
 40
100.0
 41
540.3409090909091
 76
     3
 10
6340.782312977232
 20
1555.617123415185
 30
0.0
 10
6282.800076448534
 20
1334.14679487438
 30
0.0
 10
6157.800076448534
 20
1334.14679487438
 30
0.0
213
-9.732182305893367
223
-4.643716661138569
233
0.0
1001
ACAD
1000
DSTYLE
1002
{
1070
    40
1040
1.0
1070
   272
1070
     1
1070
   279
1070
     1
1070
   341
1005
0
1002
}
  0
MTEXT
  5
24AFE
102
{ACAD_REACTORS
330
24AFD
102
}
330
747D
100
AcDbEntity
  8
寸法
 62
     7
 48
50.0
100
AcDbMText
 10
6147.532258754427
 20
1398.790511535519
 30
0.0
 40
80.0
 41
0.8
 71
     6
 72
     1
  1
\A1;D10@300
  7
STYLE2
 73
     1
 44
1.0
1001
ACAD
1000
MTEXTBEGIN
1070
    73
1070
     1
1070
    44
1040
1.0
1070
    74
1070
     0
1000
MTEXTEND
  0
LEADER
  5
24AFF
330
747D
100
AcDbEntity
  8
寸法
 48
50.0
100
AcDbLeader
  3
INABA_S50G
 71
     0
 73
     0
 75
     1
 40
100.0
 41
222.7272727272727
 76
     3
 10
6332.782312977233
 20
1133.489908718062
 30
0.0
 10
6110.970014339473
 20
689.6510625601822
 30
0.0
 10
5985.970014339473
 20
689.6510625601822
 30
0.0
1001
ACAD
1000
DSTYLE
1002
{
1070
    40
1040
1.0
1070
   272
1070
     1
1070
   279
1070
     1
1070
   341
1005
0
1002
}
  0
LEADER
  5
24B00
330
747D
100
AcDbEntity
  8
寸法
 48
50.0
100
AcDbLeader
  3
INABA_S50G
 71
     0
 73
     0
 75
     1
 40
100.0
 41
225.0
 76
     3
 10
6204.685265329375
 20
1133.489908718062
 30
0.0
 10
6082.847286782038
 20
869.9672150996256
 30
0.0
 10
5957.847286782038
 20
869.9672150996256
 30
0.0
1001
ACAD
1000
DSTYLE
1002
{
1070
    40
1040
1.0
1070
   272
1070
     1
1070
   279
1070
     1
1070
   341
1005
0
1002
}
  0
DIMENSION
  5
24B01
330
747D
100
AcDbEntity
  8
寸法
 48
50.0
100
AcDbDimension
  2
*D56
 10
5966.361999244773
 20
1013.489908718062
 30
0.0
 11
5966.361999244773
 21
1133.489908718063
 31
0.0
 70
   160
  1
150
 71
     5
 42
240.0
  3
INABA_S40G
100
AcDbAlignedDimension
 13
6108.782312977233
 23
1253.489908718062
 33
0.0
 14
6028.782312977236
 24
1013.489908718062
 34
0.0
 50
90.0
100
AcDbRotatedDimension
1001
ACAD
1000
DSTYLE
1002
{
1070
   341
1005
0
1002
}
  0
TEXT
  5
24B02
330
747D
100
AcDbEntity
  8
部品1
 48
50.0
100
AcDbText
 10
5822.642411144276
 20
1568.728901001317
 30
0.0
 40
80.0
  1
▽G.L
  7
STYLE2
100
AcDbText
  0
LWPOLYLINE
  5
24B03
330
747D
100
AcDbEntity
  8
部品1
 48
50.0
100
AcDbPolyline
 90
        2
 70
     0
 43
8.0
 10
5822.642411144276
 20
1557.489908718063
 10
6236.782312977233
 20
1557.489908718063
  0
MTEXT
  5
24B04
102
{ACAD_REACTORS
330
24B05
102
}
330
747D
100
AcDbEntity
  8
寸法
 62
     7
 48
50.0
100
AcDbMText
 10
7843.154547601129
 20
2679.975573523728
 30
0.0
 40
80.0
 41
0.8
 71
     6
 72
     1
  1
\A1;φ70スリーブ
  7
STYLE2
 73
     1
 44
1.0
1001
ACAD
1000
MTEXTBEGIN
1070
    73
1070
     1
1070
    44
1040
1.0
1070
    74
1070
     0
1000
MTEXTEND
  0
LEADER
  5
24B05
330
747D
100
AcDbEntity
  8
寸法
 48
50.0
100
AcDbLeader
  3
INABA_S50G
 73
     0
 75
     1
 40
113.1818181818182
 41
608.6363636363635
 76
     3
 10
8126.958376292478
 20
1747.005582076341
 30
0.0
 10
7993.154547601129
 20
2598.384664432819
 30
0.0
 10
7868.154547601129
 20
2598.384664432819
 30
0.0
340
24B04
1001
ACAD
1000
DSTYLE
1002
{
1070
   341
1005
0
1070
    40
1040
1.0
1070
   343
1005
0
1070
   344
1005
0
1002
}
  0
LINE
  5
24B06
330
747D
100
AcDbEntity
  8
部品1
100
AcDbLine
 10
5166.11387416797
 20
3196.828575918648
 30
0.0
 11
5166.113874167971
 21
232.5216063340004
 31
0.0
  0
LEADER
  5
24B07
330
747D
100
AcDbEntity
  8
寸法
 48
50.0
100
AcDbLeader
  3
INABA_S50G
 73
     0
 74
     0
 75
     1
 40
80.0
 41
435.0
 76
     3
 10
8167.221626154427
 20
1846.649908718063
 30
0.0
 10
8209.766088573745
 20
1996.873234871292
 30
0.0
 10
8334.766088573745
 20
1996.873234871292
 30
0.0
340
24B08
1001
ACAD
1000
DSTYLE
1002
{
1070
   341
1005
0
1070
    40
1040
1.0
1070
   343
1005
0
1070
   344
1005
0
1002
}
  0
MTEXT
  5
24B08
102
{ACAD_REACTORS
330
24B07
102
}
330
747D
100
AcDbEntity
  8
部品1
 62
     7
 48
50.0
100
AcDbMText
 10
8359.766088573746
 20
2061.873234871292
 30
0.0
 40
80.0
 41
0.8
 71
     4
 72
     1
  1
M10X160
  7
STYLE2
 73
     1
 44
1.0
1001
ACAD
1000
MTEXTBEGIN
1070
    73
1070
     1
1070
    44
1040
1.0
1070
    74
1070
     0
1000
MTEXTEND
  0
DIMENSION
  5
24B09
330
747D
100
AcDbEntity
  8
寸法
 48
50.0
100
AcDbDimension
  2
*D57
 10
9128.744892042297
 20
1797.489908718062
 30
0.0
 11
9128.744892042297
 21
1331.481005296579
 31
0.0
 70
   160
  1
20～25
 71
     5
 42
52.76000000000113
  3
INABA_S40G
100
AcDbAlignedDimension
 13
8163.621626154428
 23
1850.249908718063
 33
0.0
 14
8350.821626154425
 24
1797.489908718062
 34
0.0
 50
90.0
100
AcDbRotatedDimension
1001
ACAD
1000
DSTYLE
1002
{
1070
   341
1005
0
1002
}
  0
DIMENSION
  5
24B0A
330
747D
100
AcDbEntity
  8
寸法
 48
50.0
100
AcDbDimension
  2
*D58
 10
8852.69022592327
 20
1473.489908718061
 30
0.0
 11
8752.69022592327
 21
1635.489908718063
 31
0.0
 70
    32
  1
180
 71
     5
 42
324.0000000000009
  3
INABA_S40G
100
AcDbAlignedDimension
 13
8350.821626154425
 23
1797.489908718062
 33
0.0
 14
8350.821626154425
 24
1473.489908718061
 34
0.0
 50
90.0
100
AcDbRotatedDimension
1001
ACAD
1000
DSTYLE
1002
{
1070
   341
1005
0
1002
}
  0
TEXT
  5
24B0B
330
747D
100
AcDbEntity
  8
部品1
 48
50.0
100
AcDbText
 10
8355.175210438854
 20
2153.368589480262
 30
0.0
 40
80.0
  1
基礎ボルト(市販品)
  7
STYLE2
100
AcDbText
  0
LWPOLYLINE
  5
24B0C
330
747D
100
AcDbEntity
  8
部品1
 48
50.0
100
AcDbPolyline
 90
        2
 70
     0
 43
8.0
 10
8350.821626154425
 20
1557.489908718063
 10
8644.52408955381
 20
1557.489908718063
  0
MTEXT
  5
24B0D
102
{ACAD_REACTORS
330
24B0E
102
}
330
747D
100
AcDbEntity
  8
部品1
 62
     7
 48
50.0
100
AcDbMText
 10
8390.093216523267
 20
2497.985281805322
 30
0.0
 40
80.0
 41
0.8
 71
     4
 72
     1
  1
\A1;ワッシャー(市販品)
  7
STYLE2
 73
     1
 44
1.0
1001
ACAD
1000
MTEXTBEGIN
1070
    73
1070
     1
1070
    44
1040
1.0
1070
    74
1070
     0
1000
MTEXTEND
  0
LEADER
  5
24B0E
330
747D
100
AcDbEntity
  8
寸法
 48
50.0
100
AcDbLeader
  3
INABA_S50G
 73
     0
 74
     0
 75
     1
 40
102.2727272727273
 41
906.8181818181818
 76
     3
 10
8198.221626154428
 20
2066.613197162342
 30
0.0
 10
8240.093216523266
 20
2421.848918168958
 30
0.0
 10
8365.093216523266
 20
2421.848918168958
 30
0.0
340
24B0D
1001
ACAD
1000
DSTYLE
1002
{
1070
   341
1005
0
1070
    40
1040
1.0
1070
   343
1005
0
1070
   344
1005
0
1002
}
  0
MTEXT
  5
24B0F
102
{ACAD_REACTORS
330
24B10
102
}
330
747D
100
AcDbEntity
  8
部品1
 62
     7
 48
50.0
100
AcDbMText
 10
8358.575597267783
 20
2682.95436457011
 30
0.0
 40
80.0
 41
0.8
 71
     4
 72
     1
  1
\A1;ナット(市販品)
  7
STYLE2
 73
     1
 44
1.0
1001
ACAD
1000
MTEXTBEGIN
1070
    73
1070
     1
1070
    44
1040
1.0
1070
    74
1070
     0
1000
MTEXTEND
  0
LEADER
  5
24B10
330
747D
100
AcDbEntity
  8
寸法
 48
50.0
100
AcDbLeader
  3
INABA_S50G
 73
     0
 74
     0
 75
     1
 40
102.2727272727273
 41
680.0000000000001
 76
     3
 10
8174.221626154427
 20
2196.365189827205
 30
0.0
 10
8208.575597267783
 20
2606.818000933746
 30
0.0
 10
8333.575597267783
 20
2606.818000933746
 30
0.0
340
24B0F
1001
ACAD
1000
DSTYLE
1002
{
1070
   341
1005
0
1070
    40
1040
1.0
1070
   343
1005
0
1070
   344
1005
0
1002
}
  0
LINE
  5
24B11
330
747D
100
AcDbEntity
  8
部品1
100
AcDbLine
 10
5166.113874167973
 20
232.5216063340004
 30
0.0
 11
11237.09905955422
 21
232.5216063340004
 31
0.0
  0
LINE
  5
24B12
330
747D
100
AcDbEntity
  8
部品1
100
AcDbLine
 10
11237.09905955422
 20
2956.828575918646
 30
0.0
 11
5166.113874167971
 21
2956.828575918646
 31
0.0
  0
LINE
  5
24B13
330
747D
100
AcDbEntity
  8
部品1
100
AcDbLine
 10
11237.09905955422
 20
3196.828575918648
 30
0.0
 11
5166.113874167968
 21
3196.828575918648
 31
0.0
  0
LINE
  5
24B96
102
{ACAD_REACTORS
330
24BC5
102
}
330
747D
100
AcDbEntity
  8
部品1
 48
50.0
100
AcDbLine
 10
10158.6
 20
6477.776473044013
 30
0.0
 11
10158.6
 21
7377.776473043997
 31
0.0
  0
LINE
  5
24B97
102
{ACAD_REACTORS
330
24BB4
102
}
330
747D
100
AcDbEntity
  8
部品1
 48
50.0
100
AcDbLine
 10
6288.599999999999
 20
6477.776473043994
 30
0.0
 11
6288.599999999997
 21
7377.776473043995
 31
0.0
  0
HATCH
  5
24BB4
330
747D
100
AcDbEntity
  8
細線
 48
50.0
100
AcDbHatch
 10
0.0
 20
0.0
 30
0.0
210
0.0
220
0.0
230
1.0
  2
LINE
 70
     0
 71
     1
 91
        1
 92
        7
 72
     0
 73
     1
 93
        4
 10
6288.599999999997
 20
7012.776473043999
 10
6168.599999999999
 20
7012.776473043996
 10
6168.600000000001
 20
6812.776473043996
 10
6288.599999999998
 20
6812.776473043999
 97
        4
330
2419A
330
2414E
330
24169
330
24B97
 75
     0
 76
     1
 52
45.0
 41
10.0
 77
     0
 78
     1
 53
45.0
 43
0.0
 44
0.0
 45
-22.45064030267288
 46
22.45064030267288
 79
     0
 47
9.424826314458721
 98
        1
 10
6248.632378979674
 20
6961.290694610416
  0
HATCH
  5
24BC5
330
747D
100
AcDbEntity
  8
細線
 48
50.0
100
AcDbHatch
 10
0.0
 20
0.0
 30
0.0
210
0.0
220
0.0
230
1.0
  2
LINE
 70
     0
 71
     1
 91
        1
 92
        7
 72
     0
 73
     1
 93
        4
 10
10278.6
 20
7012.776473044003
 10
10158.6
 20
7012.776473044005
 10
10158.6
 20
6812.776473044007
 10
10278.6
 20
6812.776473044003
 97
        4
330
2420C
330
24B96
330
241F0
330
241C3
 75
     0
 76
     1
 52
45.0
 41
10.0
 77
     0
 78
     1
 53
45.0
 43
0.0
 44
0.0
 45
-22.45064030267288
 46
22.45064030267288
 79
     0
 47
3.262282787783227
 98
        1
 10
10265.8913019481
 20
6903.798640519031
  0
ENDSEC
  0
SECTION
  2
OBJECTS
  0
DICTIONARY
  5
7471
330
0
100
AcDbDictionary
281
     1
  3
ACAD_COLOR
350
173D2
  3
ACAD_GROUP
350
7472
  3
ACAD_LAYOUT
350
173D3
  3
ACAD_MATERIAL
350
173D1
  3
ACAD_MLINESTYLE
350
7473
  3
ACAD_PLOTSETTINGS
350
173D4
  3
ACAD_PLOTSTYLENAME
350
173CF
  3
ACDBHEADERROUNDTRIPXREC
350
24BE5
  3
AcDbVariableDictionary
350
2475E
  3
CONTENTDICTIONARY
350
E71C
  3
DRAWINGVARIABLESDICT
350
F3B9
  0
DICTIONARY
  5
1758F
330
7467
100
AcDbDictionary
280
     1
281
     1
  3
ACAD_LAYERSTATES
360
17590
  0
DICTIONARY
  5
173D2
102
{ACAD_REACTORS
330
7471
102
}
330
7471
100
AcDbDictionary
281
     1
  0
DICTIONARY
  5
7472
102
{ACAD_REACTORS
330
7471
102
}
330
7471
100
AcDbDictionary
281
     1
  3
*A1
350
1D2A9
  0
DICTIONARY
  5
173D3
102
{ACAD_REACTORS
330
7471
102
}
330
7471
100
AcDbDictionary
281
     1
  3
Model
350
173D5
  3
レイアウト1
350
173D6
  0
DICTIONARY
  5
173D1
102
{ACAD_REACTORS
330
7471
102
}
330
7471
100
AcDbDictionary
281
     1
  0
DICTIONARY
  5
7473
102
{ACAD_REACTORS
330
7471
102
}
330
7471
100
AcDbDictionary
281
     1
  3
STANDARD
350
7480
  0
DICTIONARY
  5
173D4
102
{ACAD_REACTORS
330
7471
102
}
330
7471
100
AcDbDictionary
281
     1
  0
ACDBDICTIONARYWDFLT
  5
173CF
102
{ACAD_REACTORS
330
7471
102
}
330
7471
100
AcDbDictionary
281
     1
  3
Normal
350
173D0
100
AcDbDictionaryWithDefault
340
173D0
  0
DICTIONARY
  5
24BE5
102
{ACAD_REACTORS
330
7471
102
}
330
7471
100
AcDbDictionary
281
     1
  3
COLORDICT
350
24BE7
  3
MATERIALDICT
350
24BE6
  0
DICTIONARY
  5
2475E
102
{ACAD_REACTORS
330
7471
102
}
330
7471
100
AcDbDictionary
281
     1
  3
DIMASSOC
350
2475F
  3
PROJECTNAME
350
24760
  0
DICTIONARY
  5
E71C
102
{ACAD_REACTORS
330
7471
102
}
330
7471
100
AcDbDictionary
281
     1
  0
DICTIONARY
  5
F3B9
102
{ACAD_REACTORS
330
7471
102
}
330
7471
100
AcDbDictionary
281
     1
1001
DRAWINGVARIABLESXDATA
1000
POLARMODE
1000
1
  0
DICTIONARY
  5
17590
102
{ACAD_REACTORS
330
1758F
102
}
330
1758F
100
AcDbDictionary
281
     1
  0
GROUP
  5
1D2A9
102
{ACAD_REACTORS
330
7472
102
}
330
7472
100
AcDbGroup
300

 70
     1
 71
     1
  0
LAYOUT
  5
173D5
102
{ACAD_XDICTIONARY
360
24BE8
102
}
102
{ACAD_REACTORS
330
173D3
102
}
330
173D3
100
AcDbPlotSettings
  1

  2
Microsoft Office Document Image Writer
  4

  6

 40
0.0
 41
0.0
 42
0.0
 43
0.0
 44
0.0
 45
0.0
 46
0.0
 47
0.0
 48
0.0
 49
0.0
140
0.0
141
0.0
142
1.0
143
1.0
 70
  1712
 72
     0
 73
     0
 74
     0
  7

 75
     0
147
1.0
148
0.0
149
0.0
100
AcDbLayout
  1
Model
 70
     1
 71
     0
 10
0.0
 20
0.0
 11
12.0
 21
9.0
 12
0.0
 22
0.0
 32
0.0
 14
0.0
 24
0.0
 34
0.0
 15
0.0
 25
0.0
 35
0.0
146
0.0
 13
0.0
 23
0.0
 33
0.0
 16
1.0
 26
0.0
 36
0.0
 17
0.0
 27
1.0
 37
0.0
 76
     0
330
747D
  0
LAYOUT
  5
173D6
102
{ACAD_XDICTIONARY
360
24BEA
102
}
102
{ACAD_REACTORS
330
173D3
102
}
330
173D3
100
AcDbPlotSettings
  1

  2
Microsoft Office Document Image Writer
  4

  6

 40
0.0
 41
0.0
 42
0.0
 43
0.0
 44
0.0
 45
0.0
 46
0.0
 47
0.0
 48
0.0
 49
0.0
140
0.0
141
0.0
142
1.0
143
1.0
 70
   688
 72
     0
 73
     0
 74
     5
  7

 75
    16
147
1.0
148
0.0
149
0.0
100
AcDbLayout
  1
レイアウト1
 70
     0
 71
     1
 10
0.0
 20
0.0
 11
420.0
 21
297.0
 12
0.0
 22
0.0
 32
0.0
 14
1.000000000000000E+20
 24
1.000000000000000E+20
 34
1.000000000000000E+20
 15
-1.000000000000000E+20
 25
-1.000000000000000E+20
 35
-1.000000000000000E+20
146
0.0
 13
0.0
 23
0.0
 33
0.0
 16
1.0
 26
0.0
 36
0.0
 17
0.0
 27
1.0
 37
0.0
 76
     0
330
747A
  0
MLINESTYLE
  5
7480
102
{ACAD_REACTORS
330
7473
102
}
330
7473
100
AcDbMlineStyle
  2
STANDARD
 70
     0
  3

 62
     0
 51
90.0
 52
90.0
 71
     2
 49
0.5
 62
   256
  6
BYLAYER
 49
-0.5
 62
   256
  6
BYLAYER
  0
ACDBPLACEHOLDER
  5
173D0
102
{ACAD_REACTORS
330
173CF
102
}
330
173CF
  0
XRECORD
  5
24BE7
102
{ACAD_REACTORS
330
24BE5
102
}
330
24BE5
100
AcDbXrecord
280
     1
340
173D2
  0
XRECORD
  5
24BE6
102
{ACAD_REACTORS
330
24BE5
102
}
330
24BE5
100
AcDbXrecord
280
     1
340
173D1
  0
DICTIONARYVAR
  5
2475F
102
{ACAD_REACTORS
330
2475E
102
}
330
2475E
100
DictionaryVariables
280
     0
  1
1
  0
DICTIONARYVAR
  5
24760
102
{ACAD_REACTORS
330
2475E
102
}
330
2475E
100
DictionaryVariables
280
     0
  1

  0
DICTIONARY
  5
24BE8
330
173D5
100
AcDbDictionary
280
     1
281
     1
  3
ACAD_XREC_ROUNDTRIP
360
24BE9
  0
DICTIONARY
  5
24BEA
330
173D6
100
AcDbDictionary
280
     1
281
     1
  3
ACAD_XREC_ROUNDTRIP
360
24BEB
  0
XRECORD
  5
24BE9
102
{ACAD_REACTORS
330
24BE8
102
}
330
24BE8
100
AcDbXrecord
280
     1
102
SHADEPLOT
 70
     0
102
SHADEPLOTRESLEVEL
 70
     2
102
SHADEPLOTCUSTOMDPI
 70
   300
  0
XRECORD
  5
24BEB
102
{ACAD_REACTORS
330
24BEA
102
}
330
24BEA
100
AcDbXrecord
280
     1
102
SHADEPLOT
 70
     0
102
SHADEPLOTRESLEVEL
 70
     2
102
SHADEPLOTCUSTOMDPI
 70
   300
  0
ENDSEC
  0
EOF
