  0
SECTION
  2
HEADER
  9
$ACADVER
  1
AC1015
  9
$ACADMAINTVER
 70
    20
  9
$DWGCODEPAGE
  3
ANSI_932
  9
$INSBASE
 10
0.0
 20
0.0
 30
0.0
  9
$EXTMIN
 10
139.9999999999995
 20
-0.0000000000000909
 30
0.0
  9
$EXTMAX
 10
16307.2
 20
11409.6
 30
0.0
  9
$LIMMIN
 10
0.0
 20
0.0
  9
$LIMMAX
 10
16800.0
 20
11880.0
  9
$ORTHOMODE
 70
     0
  9
$REGENMODE
 70
     1
  9
$FILLMODE
 70
     1
  9
$QTEXTMODE
 70
     0
  9
$MIRRTEXT
 70
     1
  9
$LTSCALE
 40
20.0
  9
$ATTMODE
 70
     1
  9
$TEXTSIZE
 40
4.0
  9
$TRACEWID
 40
1.0
  9
$TEXTSTYLE
  7
STYLE1
  9
$CLAYER
  8
細線
  9
$CELTYPE
  6
BYLAYER
  9
$CECOLOR
 62
   256
  9
$CELTSCALE
 40
50.0
  9
$DISPSILH
 70
     0
  9
$DIMSCALE
 40
40.0
  9
$DIMASZ
 40
2.5
  9
$DIMEXO
 40
0.5
  9
$DIMDLI
 40
7.0
  9
$DIMRND
 40
0.0
  9
$DIMDLE
 40
0.0
  9
$DIMEXE
 40
1.5
  9
$DIMTP
 40
0.0
  9
$DIMTM
 40
0.0
  9
$DIMTXT
 40
3.0
  9
$DIMCEN
 40
0.0
  9
$DIMTSZ
 40
0.0
  9
$DIMTOL
 70
     0
  9
$DIMLIM
 70
     0
  9
$DIMTIH
 70
     0
  9
$DIMTOH
 70
     0
  9
$DIMSE1
 70
     0
  9
$DIMSE2
 70
     0
  9
$DIMTAD
 70
     3
  9
$DIMZIN
 70
     8
  9
$DIMBLK
  1

  9
$DIMASO
 70
     1
  9
$DIMSHO
 70
     1
  9
$DIMPOST
  1

  9
$DIMAPOST
  1

  9
$DIMALT
 70
     0
  9
$DIMALTD
 70
     2
  9
$DIMALTF
 40
0.0394
  9
$DIMLFAC
 40
1.0
  9
$DIMTOFL
 70
     1
  9
$DIMTVP
 40
0.0
  9
$DIMTIX
 70
     1
  9
$DIMSOXD
 70
     0
  9
$DIMSAH
 70
     1
  9
$DIMBLK1
  1
DOTSMALL
  9
$DIMBLK2
  1
DOTSMALL
  9
$DIMSTYLE
  2
INABA_S40G
  9
$DIMCLRD
 70
     0
  9
$DIMCLRE
 70
     0
  9
$DIMCLRT
 70
     7
  9
$DIMTFAC
 40
1.0
  9
$DIMGAP
 40
1.0
  9
$DIMJUST
 70
     0
  9
$DIMSD1
 70
     0
  9
$DIMSD2
 70
     0
  9
$DIMTOLJ
 70
     1
  9
$DIMTZIN
 70
     0
  9
$DIMALTZ
 70
     0
  9
$DIMALTTZ
 70
     0
  9
$DIMUPT
 70
     0
  9
$DIMDEC
 70
     1
  9
$DIMTDEC
 70
     4
  9
$DIMALTU
 70
     2
  9
$DIMALTTD
 70
     2
  9
$DIMTXSTY
  7
STYLE1
  9
$DIMAUNIT
 70
     0
  9
$DIMADEC
 70
     0
  9
$DIMALTRND
 40
0.0
  9
$DIMAZIN
 70
     0
  9
$DIMDSEP
 70
    46
  9
$DIMATFIT
 70
     3
  9
$DIMFRAC
 70
     0
  9
$DIMLDRBLK
  1

  9
$DIMLUNIT
 70
     2
  9
$DIMLWD
 70
    -2
  9
$DIMLWE
 70
    -2
  9
$DIMTMOVE
 70
     0
  9
$LUNITS
 70
     2
  9
$LUPREC
 70
     1
  9
$SKETCHINC
 40
1.0
  9
$FILLETRAD
 40
3.0
  9
$AUNITS
 70
     0
  9
$AUPREC
 70
     0
  9
$MENU
  1
acad
  9
$ELEVATION
 40
0.0
  9
$PELEVATION
 40
0.0
  9
$THICKNESS
 40
0.0
  9
$LIMCHECK
 70
     0
  9
$CHAMFERA
 40
0.0
  9
$CHAMFERB
 40
0.0
  9
$CHAMFERC
 40
0.0
  9
$CHAMFERD
 40
0.0
  9
$SKPOLY
 70
     0
  9
$TDCREATE
 40
2451368.612993866
  9
$TDUCREATE
 40
2451368.237993866
  9
$TDUPDATE
 40
2455826.601921656
  9
$TDUUPDATE
 40
2455826.226921655
  9
$TDINDWG
 40
0.7657369907
  9
$TDUSRTIMER
 40
0.7657369907
  9
$USRTIMER
 70
     1
  9
$ANGBASE
 50
0.0
  9
$ANGDIR
 70
     0
  9
$PDMODE
 70
     3
  9
$PDSIZE
 40
2.0
  9
$PLINEWID
 40
0.0
  9
$SPLFRAME
 70
     0
  9
$SPLINETYPE
 70
     6
  9
$SPLINESEGS
 70
     8
  9
$HANDSEED
  5
243B2
  9
$SURFTAB1
 70
     6
  9
$SURFTAB2
 70
     6
  9
$SURFTYPE
 70
     6
  9
$SURFU
 70
     6
  9
$SURFV
 70
     6
  9
$UCSBASE
  2

  9
$UCSNAME
  2

  9
$UCSORG
 10
0.0
 20
0.0
 30
0.0
  9
$UCSXDIR
 10
1.0
 20
0.0
 30
0.0
  9
$UCSYDIR
 10
0.0
 20
1.0
 30
0.0
  9
$UCSORTHOREF
  2

  9
$UCSORTHOVIEW
 70
     0
  9
$UCSORGTOP
 10
0.0
 20
0.0
 30
0.0
  9
$UCSORGBOTTOM
 10
0.0
 20
0.0
 30
0.0
  9
$UCSORGLEFT
 10
0.0
 20
0.0
 30
0.0
  9
$UCSORGRIGHT
 10
0.0
 20
0.0
 30
0.0
  9
$UCSORGFRONT
 10
0.0
 20
0.0
 30
0.0
  9
$UCSORGBACK
 10
0.0
 20
0.0
 30
0.0
  9
$PUCSBASE
  2

  9
$PUCSNAME
  2

  9
$PUCSORG
 10
0.0
 20
0.0
 30
0.0
  9
$PUCSXDIR
 10
1.0
 20
0.0
 30
0.0
  9
$PUCSYDIR
 10
0.0
 20
1.0
 30
0.0
  9
$PUCSORTHOREF
  2

  9
$PUCSORTHOVIEW
 70
     0
  9
$PUCSORGTOP
 10
0.0
 20
0.0
 30
0.0
  9
$PUCSORGBOTTOM
 10
0.0
 20
0.0
 30
0.0
  9
$PUCSORGLEFT
 10
0.0
 20
0.0
 30
0.0
  9
$PUCSORGRIGHT
 10
0.0
 20
0.0
 30
0.0
  9
$PUCSORGFRONT
 10
0.0
 20
0.0
 30
0.0
  9
$PUCSORGBACK
 10
0.0
 20
0.0
 30
0.0
  9
$USERI1
 70
     0
  9
$USERI2
 70
     0
  9
$USERI3
 70
     0
  9
$USERI4
 70
     0
  9
$USERI5
 70
     0
  9
$USERR1
 40
0.0
  9
$USERR2
 40
0.0
  9
$USERR3
 40
0.0
  9
$USERR4
 40
0.0
  9
$USERR5
 40
0.0
  9
$WORLDVIEW
 70
     1
  9
$SHADEDGE
 70
     3
  9
$SHADEDIF
 70
    70
  9
$TILEMODE
 70
     1
  9
$MAXACTVP
 70
    16
  9
$PINSBASE
 10
0.0
 20
0.0
 30
0.0
  9
$PLIMCHECK
 70
     0
  9
$PEXTMIN
 10
1.000000000000000E+20
 20
1.000000000000000E+20
 30
1.000000000000000E+20
  9
$PEXTMAX
 10
-1.000000000000000E+20
 20
-1.000000000000000E+20
 30
-1.000000000000000E+20
  9
$PLIMMIN
 10
0.0
 20
0.0
  9
$PLIMMAX
 10
420.0
 20
297.0
  9
$UNITMODE
 70
     0
  9
$VISRETAIN
 70
     0
  9
$PLINEGEN
 70
     0
  9
$PSLTSCALE
 70
     0
  9
$TREEDEPTH
 70
  3020
  9
$CMLSTYLE
  2
STANDARD
  9
$CMLJUST
 70
     0
  9
$CMLSCALE
 40
1.0
  9
$PROXYGRAPHICS
 70
     1
  9
$MEASUREMENT
 70
     1
  9
$CELWEIGHT
370
    -1
  9
$ENDCAPS
280
     0
  9
$JOINSTYLE
280
     0
  9
$LWDISPLAY
290
     0
  9
$INSUNITS
 70
     0
  9
$HYPERLINKBASE
  1

  9
$STYLESHEET
  1

  9
$XEDIT
290
     1
  9
$CEPSNTYPE
380
     0
  9
$PSTYLEMODE
290
     1
  9
$FINGERPRINTGUID
  2
{5EAC461A-2277-4BF8-9AB0-99C43BB394F0}
  9
$VERSIONGUID
  2
{471B3D3C-095A-46BF-91C1-5B0130CD76E7}
  9
$EXTNAMES
290
     1
  9
$PSVPSCALE
 40
0.0
  9
$OLESTARTUP
290
     0
  0
ENDSEC
  0
SECTION
  2
CLASSES
  0
CLASS
  1
ACDBDICTIONARYWDFLT
  2
AcDbDictionaryWithDefault
  3
ObjectDBX Classes
 90
        0
280
     0
281
     0
  0
CLASS
  1
DICTIONARYVAR
  2
AcDbDictionaryVar
  3
ObjectDBX Classes
 90
        0
280
     0
281
     0
  0
CLASS
  1
ACDBPLACEHOLDER
  2
AcDbPlaceHolder
  3
ObjectDBX Classes
 90
        0
280
     0
281
     0
  0
CLASS
  1
LAYOUT
  2
AcDbLayout
  3
ObjectDBX Classes
 90
        0
280
     0
281
     0
  0
ENDSEC
  0
SECTION
  2
TABLES
  0
TABLE
  2
VPORT
  5
746D
330
0
100
AcDbSymbolTable
 70
     2
  0
VPORT
  5
243AA
330
746D
100
AcDbSymbolTableRecord
100
AcDbViewportTableRecord
  2
*Active
 70
     0
 10
0.0
 20
0.0
 11
1.0
 21
1.0
 12
8400.0
 22
6532.304808250916
 13
0.0
 23
0.0
 14
10.0
 24
10.0
 15
10.0
 25
10.0
 16
0.0
 26
0.0
 36
1.0
 17
0.0
 27
0.0
 37
0.0
 40
13160.36269532366
 41
1.522222222222222
 42
50.0
 43
0.0
 44
0.0
 50
0.0
 51
0.0
 71
     0
 72
     0
 73
     1
 74
     0
 75
     0
 76
     0
 77
     0
 78
     0
281
     0
 65
     1
110
0.0
120
0.0
130
0.0
111
1.0
121
0.0
131
0.0
112
0.0
122
1.0
132
0.0
 79
     0
146
0.0
  0
ENDTAB
  0
TABLE
  2
LTYPE
  5
746A
330
0
100
AcDbSymbolTable
 70
     5
  0
LTYPE
  5
7477
330
746A
100
AcDbSymbolTableRecord
100
AcDbLinetypeTableRecord
  2
BYBLOCK
 70
     0
  3

 72
    65
 73
     0
 40
0.0
  0
LTYPE
  5
7478
330
746A
100
AcDbSymbolTableRecord
100
AcDbLinetypeTableRecord
  2
BYLAYER
 70
     0
  3

 72
    65
 73
     0
 40
0.0
  0
LTYPE
  5
7479
330
746A
100
AcDbSymbolTableRecord
100
AcDbLinetypeTableRecord
  2
CONTINUOUS
 70
     0
  3
Solid line
 72
    65
 73
     0
 40
0.0
  0
LTYPE
  5
7816
330
746A
100
AcDbSymbolTableRecord
100
AcDbLinetypeTableRecord
  2
CENTER
 70
     0
  3
____ _ ____ _ ____ _ ____ _ ____ _ ____ _ ____ 
 72
    65
 73
     4
 40
2.0
 49
1.25
 74
     0
 49
-0.25
 74
     0
 49
0.25
 74
     0
 49
-0.25
 74
     0
  0
LTYPE
  5
781A
330
746A
100
AcDbSymbolTableRecord
100
AcDbLinetypeTableRecord
  2
HIDDEN
 70
     0
  3
__ __ __ __ __ __ __ __ __ __ __ __ __ __ __ __
 72
    65
 73
     2
 40
0.375
 49
0.25
 74
     0
 49
-0.125
 74
     0
  0
LTYPE
  5
781B
330
746A
100
AcDbSymbolTableRecord
100
AcDbLinetypeTableRecord
  2
PHANTOM
 70
     0
  3
______  __  __  ______  __  __  ______  __  __ 
 72
    65
 73
     6
 40
2.5
 49
1.25
 74
     0
 49
-0.25
 74
     0
 49
0.25
 74
     0
 49
-0.25
 74
     0
 49
0.25
 74
     0
 49
-0.25
 74
     0
  0
LTYPE
  5
12CC3
330
746A
100
AcDbSymbolTableRecord
100
AcDbLinetypeTableRecord
  2
HIDDENX2
 70
     0
  3
Hidden (2x) ____ ____ ____ ____ ____ ____ ____
 72
    65
 73
     2
 40
19.05
 49
12.7
 74
     0
 49
-6.349999999999999
 74
     0
  0
ENDTAB
  0
TABLE
  2
LAYER
  5
7467
102
{ACAD_XDICTIONARY
360
1758F
102
}
330
0
100
AcDbSymbolTable
 70
    12
  0
LAYER
  5
7474
330
7467
100
AcDbSymbolTableRecord
100
AcDbLayerTableRecord
  2
0
 70
     0
 62
     7
  6
CONTINUOUS
370
    -3
390
173D0
  0
LAYER
  5
DEB2
330
7467
100
AcDbSymbolTableRecord
100
AcDbLayerTableRecord
  2
センター
 70
     0
 62
     3
  6
CENTER
370
    -3
390
173D0
  0
LAYER
  5
DEB3
330
7467
100
AcDbSymbolTableRecord
100
AcDbLayerTableRecord
  2
寸法
 70
     0
 62
     4
  6
CONTINUOUS
370
    -3
390
173D0
  0
LAYER
  5
DEB4
330
7467
100
AcDbSymbolTableRecord
100
AcDbLayerTableRecord
  2
部品1
 70
     0
 62
     7
  6
CONTINUOUS
370
    -3
390
173D0
  0
LAYER
  5
DEB5
330
7467
100
AcDbSymbolTableRecord
100
AcDbLayerTableRecord
  2
補助
 70
     0
 62
    -1
  6
CONTINUOUS
370
    -3
390
173D0
  0
LAYER
  5
DEB6
330
7467
100
AcDbSymbolTableRecord
100
AcDbLayerTableRecord
  2
文字
 70
     0
 62
     7
  6
CONTINUOUS
370
    -3
390
173D0
  0
LAYER
  5
F255
330
7467
100
AcDbSymbolTableRecord
100
AcDbLayerTableRecord
  2
DEFPOINTS
 70
     0
 62
     7
  6
CONTINUOUS
290
     0
370
    -3
390
173D0
  0
LAYER
  5
10B54
330
7467
100
AcDbSymbolTableRecord
100
AcDbLayerTableRecord
  2
仕様書枠
 70
     0
 62
   230
  6
CONTINUOUS
370
    -3
390
173D0
  0
LAYER
  5
11729
330
7467
100
AcDbSymbolTableRecord
100
AcDbLayerTableRecord
  2
Ｇ．Ｌ
 70
     0
 62
    30
  6
CONTINUOUS
370
    -3
390
173D0
  0
LAYER
  5
1173F
330
7467
100
AcDbSymbolTableRecord
100
AcDbLayerTableRecord
  2
細線
 70
     0
 62
     5
  6
CONTINUOUS
370
    -3
390
173D0
  0
LAYER
  5
12CC4
330
7467
100
AcDbSymbolTableRecord
100
AcDbLayerTableRecord
  2
想像線
 70
     0
 62
     6
  6
PHANTOM
370
    -3
390
173D0
  0
LAYER
  5
142E2
330
7467
100
AcDbSymbolTableRecord
100
AcDbLayerTableRecord
  2
破線
 70
     0
 62
     2
  6
HIDDEN
370
    -3
390
173D0
  0
ENDTAB
  0
TABLE
  2
STYLE
  5
7468
330
0
100
AcDbSymbolTable
 70
     7
  0
STYLE
  5
7475
330
7468
100
AcDbSymbolTableRecord
100
AcDbTextStyleTableRecord
  2
STANDARD
 70
     0
 40
0.0
 41
1.0
 50
0.0
 71
     0
 42
4.0
  3
txt
  4
C:\AutoCAD LT\bigfont.shx
  0
STYLE
  5
763C
330
7468
100
AcDbSymbolTableRecord
100
AcDbTextStyleTableRecord
  2
MSMINCHO
 70
     0
 40
0.0
 41
1.0
 50
0.0
 71
     0
 42
1.199999999999999
  3
C:\AutoCAD LT\msminch2.TTF
  4

  0
STYLE
  5
F706
330
7468
100
AcDbSymbolTableRecord
100
AcDbTextStyleTableRecord
  2
STYLE1
 70
     0
 40
0.0
 41
1.0
 50
0.0
 71
     0
 42
4.0
  3
isocp.shx
  4
bigfont.shx
  0
STYLE
  5
103BF
330
7468
100
AcDbSymbolTableRecord
100
AcDbTextStyleTableRecord
  2
STYLE2
 70
     0
 40
0.0
 41
1.0
 50
0.0
 71
     0
 42
100.0
  3
MS PGothic.ttf
  4

1001
ACAD
1000
MS PGothic
1071
    32818
  0
STYLE
  5
10BAA
330
7468
100
AcDbSymbolTableRecord
100
AcDbTextStyleTableRecord
  2
STYLE3
 70
     0
 40
0.0
 41
1.0
 50
0.0
 71
     0
 42
100.0
  3

  4

1001
ACAD
1000
DFPGothic-EB
1071
    32818
  0
STYLE
  5
11A15
330
7468
100
AcDbSymbolTableRecord
100
AcDbTextStyleTableRecord
  2
MSGOTHIC
 70
     0
 40
0.0
 41
1.0
 50
0.0
 71
     0
 42
3.5
  3
msgothi2.ttf
  4

  0
STYLE
  5
13E96
330
7468
100
AcDbSymbolTableRecord
100
AcDbTextStyleTableRecord
  2
MSPゴシック
 70
     0
 40
0.0
 41
1.0
 50
0.0
 71
     0
 42
4.0
  3
MS PGothic.ttf
  4

1001
ACAD
1000
MS PGothic
1071
    32818
  0
ENDTAB
  0
TABLE
  2
VIEW
  5
746B
330
0
100
AcDbSymbolTable
 70
     0
  0
ENDTAB
  0
TABLE
  2
UCS
  5
746C
330
0
100
AcDbSymbolTable
 70
     0
  0
ENDTAB
  0
TABLE
  2
APPID
  5
746E
330
0
100
AcDbSymbolTable
 70
     6
  0
APPID
  5
7476
330
746E
100
AcDbSymbolTableRecord
100
AcDbRegAppTableRecord
  2
ACAD
 70
     0
  0
APPID
  5
DEA9
330
746E
100
AcDbSymbolTableRecord
100
AcDbRegAppTableRecord
  2
CONTENTBLOCKICON
 70
     0
  0
APPID
  5
DEAA
330
746E
100
AcDbSymbolTableRecord
100
AcDbRegAppTableRecord
  2
CONTENTBLOCKDESCRIPTION
 70
     0
  0
APPID
  5
E71D
330
746E
100
AcDbSymbolTableRecord
100
AcDbRegAppTableRecord
  2
CONTENTTABDATA
 70
     0
  0
APPID
  5
E71E
330
746E
100
AcDbSymbolTableRecord
100
AcDbRegAppTableRecord
  2
CONTENTCURRENTTAB
 70
     0
  0
APPID
  5
F3BA
330
746E
100
AcDbSymbolTableRecord
100
AcDbRegAppTableRecord
  2
DRAWINGVARIABLESXDATA
 70
     0
  0
ENDTAB
  0
TABLE
  2
DIMSTYLE
  5
746F
330
0
100
AcDbSymbolTable
 70
     6
100
AcDbDimStyleTable
 71
     1
340
F71F
  0
DIMSTYLE
105
7484
330
746F
100
AcDbSymbolTableRecord
100
AcDbDimStyleTableRecord
  2
JIS
 70
     0
 41
2.5
 42
1.0
 43
7.0
 44
1.0
 73
     0
 74
     0
 77
     1
 78
     8
140
2.5
141
0.0
143
0.0394
147
0.0
172
     1
174
     1
175
     1
340
7475
  0
DIMSTYLE
105
F236
330
746F
100
AcDbSymbolTableRecord
100
AcDbDimStyleTableRecord
  2
INABA_S40
 70
     0
 40
40.0
 41
2.5
 42
0.5
 43
7.0
 44
1.5
 73
     0
 74
     0
 77
     3
 78
     8
140
3.0
141
0.0
143
0.0394
147
1.0
172
     1
173
     1
174
     1
175
     1
178
     7
289
     0
340
7475
341
DEAC
343
DEAC
344
DEAC
  0
DIMSTYLE
105
F71F
102
{ACAD_REACTORS
330
20DE1
330
20DFB
330
22741
330
2275B
330
229ED
330
229EC
330
22A4B
330
2390C
330
238E1
330
238B8
330
238B7
330
23885
330
23884
330
2387C
330
2387B
330
23878
330
238BA
330
2388D
330
2388A
330
23889
330
2388B
330
2389C
330
2387F
330
241B5
330
241B6
330
241BE
330
241C5
330
241C8
330
24228
102
}
330
746F
100
AcDbSymbolTableRecord
100
AcDbDimStyleTableRecord
  2
INABA_S40G
 70
     0
 40
40.0
 41
2.5
 42
0.5
 43
7.0
 44
1.5
 73
     0
 74
     0
 77
     3
 78
     8
140
3.0
141
0.0
143
0.0394
147
1.0
172
     1
173
     1
174
     1
178
     7
271
     1
340
F706
341
F770
343
F770
344
F770
  0
DIMSTYLE
105
142E3
330
746F
100
AcDbSymbolTableRecord
100
AcDbDimStyleTableRecord
  2
INABA_S1
 70
     0
 40
0.0
 41
2.5
 42
0.5
 43
7.0
 44
1.5
 73
     0
 74
     0
 77
     3
 78
     8
140
3.0
141
0.0
143
0.0394
146
0.5
147
0.5
172
     1
173
     1
176
   256
177
   256
178
     7
271
     2
272
     2
284
     8
288
     1
340
7475
341
DEAC
343
DEAC
344
DEAC
  0
DIMSTYLE
105
14463
330
746F
100
AcDbSymbolTableRecord
100
AcDbDimStyleTableRecord
  2
INABA_S30G
 70
     0
 40
30.0
 41
2.5
 42
0.5
 43
7.0
 44
1.5
 73
     0
 74
     0
 77
     3
 78
     8
140
3.0
141
0.0
143
0.0394
147
1.0
172
     1
173
     1
174
     1
175
     1
178
     7
271
     1
340
F706
341
F770
343
F770
344
F770
  0
DIMSTYLE
105
1758E
330
746F
100
AcDbSymbolTableRecord
100
AcDbDimStyleTableRecord
  2
INABA_S50G
 70
     0
 41
125.0
 42
25.0
 43
7.0
 44
75.0
 73
     0
 74
     0
 77
     3
 78
     8
140
150.0
141
0.0
143
0.0394
147
25.0
172
     1
173
     1
174
     1
175
     1
178
     7
271
     1
340
F706
341
F770
343
F770
344
F770
  0
ENDTAB
  0
TABLE
  2
BLOCK_RECORD
  5
7466
330
0
100
AcDbSymbolTable
 70
    58
  0
BLOCK_RECORD
  5
747D
330
7466
100
AcDbSymbolTableRecord
100
AcDbBlockTableRecord
  2
*MODEL_SPACE
340
173D5
  0
BLOCK_RECORD
  5
747A
330
7466
100
AcDbSymbolTableRecord
100
AcDbBlockTableRecord
  2
*PAPER_SPACE
340
173D6
  0
BLOCK_RECORD
  5
DEAC
330
7466
100
AcDbSymbolTableRecord
100
AcDbBlockTableRecord
  2
_OPEN
340
0
  0
BLOCK_RECORD
  5
F770
330
7466
100
AcDbSymbolTableRecord
100
AcDbBlockTableRecord
  2
_DOTSMALL
340
0
102
{BLKREFS
331
18C65
331
18C66
331
18C59
331
18C5A
331
18C4D
331
18C4E
331
18C41
331
18C42
331
18C35
331
18C36
331
18C29
331
18C2A
331
18C1D
331
18C1E
331
18C0F
331
18C10
331
18C03
331
18C04
331
18BF5
331
18BF6
331
18BE7
331
18BE8
331
18BD9
331
18BDA
331
18BCD
331
18BCE
331
21316
331
21317
331
21321
331
21322
331
2132A
331
2132B
331
23E5A
331
23E5B
331
23E6D
331
23E6E
331
23E76
331
23E77
331
23E9A
331
23E9B
331
23EA3
331
23EA4
331
23EAD
331
23EAE
331
23EC9
331
23ECA
331
23ED2
331
23ED3
331
23EF8
331
23EF9
331
23F0D
331
23F0E
331
23F18
331
23F19
331
23F23
331
23F24
331
23F2E
331
23F2F
331
23F52
331
23F53
331
23F5B
331
23F5C
331
23FC6
331
23FC7
331
23FD0
331
23FD1
331
23FEC
331
23FED
331
23FF5
331
23FF6
331
23FFE
331
23FFF
331
24007
331
24008
331
24010
331
24011
331
24019
331
2401A
331
2406C
331
2406D
331
24060
331
24061
331
24052
331
24053
331
24046
331
24047
331
2403A
331
2403B
331
2402E
331
2402F
331
2432E
331
2432F
331
24339
331
2433A
331
24342
331
24343
331
2434B
331
2434C
331
24354
331
24355
331
2435D
331
2435E
331
2439A
331
2439B
102
}
  0
BLOCK_RECORD
  5
164B4
330
7466
100
AcDbSymbolTableRecord
100
AcDbBlockTableRecord
  2
_DOT
340
0
102
{BLKREFS
331
18C73
331
18C74
102
}
  0
BLOCK_RECORD
  5
18BC8
330
7466
100
AcDbSymbolTableRecord
100
AcDbBlockTableRecord
  2
*D3
340
0
  0
BLOCK_RECORD
  5
18BD4
330
7466
100
AcDbSymbolTableRecord
100
AcDbBlockTableRecord
  2
*D4
340
0
  0
BLOCK_RECORD
  5
18BE0
330
7466
100
AcDbSymbolTableRecord
100
AcDbBlockTableRecord
  2
*D5
340
0
  0
BLOCK_RECORD
  5
18BEE
330
7466
100
AcDbSymbolTableRecord
100
AcDbBlockTableRecord
  2
*D6
340
0
  0
BLOCK_RECORD
  5
18BFC
330
7466
100
AcDbSymbolTableRecord
100
AcDbBlockTableRecord
  2
*D7
340
0
  0
BLOCK_RECORD
  5
18C0A
330
7466
100
AcDbSymbolTableRecord
100
AcDbBlockTableRecord
  2
*D8
340
0
  0
BLOCK_RECORD
  5
18C16
330
7466
100
AcDbSymbolTableRecord
100
AcDbBlockTableRecord
  2
*D9
340
0
  0
BLOCK_RECORD
  5
18C24
330
7466
100
AcDbSymbolTableRecord
100
AcDbBlockTableRecord
  2
*D10
340
0
  0
BLOCK_RECORD
  5
18C30
330
7466
100
AcDbSymbolTableRecord
100
AcDbBlockTableRecord
  2
*D11
340
0
  0
BLOCK_RECORD
  5
18C3C
330
7466
100
AcDbSymbolTableRecord
100
AcDbBlockTableRecord
  2
*D12
340
0
  0
BLOCK_RECORD
  5
18C48
330
7466
100
AcDbSymbolTableRecord
100
AcDbBlockTableRecord
  2
*D13
340
0
  0
BLOCK_RECORD
  5
18C54
330
7466
100
AcDbSymbolTableRecord
100
AcDbBlockTableRecord
  2
*D14
340
0
  0
BLOCK_RECORD
  5
18C60
330
7466
100
AcDbSymbolTableRecord
100
AcDbBlockTableRecord
  2
*D15
340
0
  0
BLOCK_RECORD
  5
18C6C
330
7466
100
AcDbSymbolTableRecord
100
AcDbBlockTableRecord
  2
*D16
340
0
  0
BLOCK_RECORD
  5
18C7A
330
7466
100
AcDbSymbolTableRecord
100
AcDbBlockTableRecord
  2
A$C3B1A506B
340
0
  0
BLOCK_RECORD
  5
1C4CA
330
7466
100
AcDbSymbolTableRecord
100
AcDbBlockTableRecord
  2
_NONE
340
0
  0
BLOCK_RECORD
  5
20DE2
330
7466
100
AcDbSymbolTableRecord
100
AcDbBlockTableRecord
  2
*D19
340
0
  0
BLOCK_RECORD
  5
20DFC
330
7466
100
AcDbSymbolTableRecord
100
AcDbBlockTableRecord
  2
*D20
340
0
  0
BLOCK_RECORD
  5
22742
330
7466
100
AcDbSymbolTableRecord
100
AcDbBlockTableRecord
  2
*D25
340
0
  0
BLOCK_RECORD
  5
2275C
330
7466
100
AcDbSymbolTableRecord
100
AcDbBlockTableRecord
  2
*D26
340
0
  0
BLOCK_RECORD
  5
22AFD
330
7466
100
AcDbSymbolTableRecord
100
AcDbBlockTableRecord
  2
*D27
340
0
  0
BLOCK_RECORD
  5
22B0A
330
7466
100
AcDbSymbolTableRecord
100
AcDbBlockTableRecord
  2
*D28
340
0
  0
BLOCK_RECORD
  5
22B17
330
7466
100
AcDbSymbolTableRecord
100
AcDbBlockTableRecord
  2
*D29
340
0
  0
BLOCK_RECORD
  5
23928
330
7466
100
AcDbSymbolTableRecord
100
AcDbBlockTableRecord
  2
*D30
340
0
  0
BLOCK_RECORD
  5
23934
330
7466
100
AcDbSymbolTableRecord
100
AcDbBlockTableRecord
  2
*D31
340
0
  0
BLOCK_RECORD
  5
23940
330
7466
100
AcDbSymbolTableRecord
100
AcDbBlockTableRecord
  2
*D32
340
0
  0
BLOCK_RECORD
  5
2394C
330
7466
100
AcDbSymbolTableRecord
100
AcDbBlockTableRecord
  2
*D33
340
0
  0
BLOCK_RECORD
  5
23958
330
7466
100
AcDbSymbolTableRecord
100
AcDbBlockTableRecord
  2
*D34
340
0
  0
BLOCK_RECORD
  5
23963
330
7466
100
AcDbSymbolTableRecord
100
AcDbBlockTableRecord
  2
*D35
340
0
  0
BLOCK_RECORD
  5
2396F
330
7466
100
AcDbSymbolTableRecord
100
AcDbBlockTableRecord
  2
*D36
340
0
  0
BLOCK_RECORD
  5
2397B
330
7466
100
AcDbSymbolTableRecord
100
AcDbBlockTableRecord
  2
*D37
340
0
  0
BLOCK_RECORD
  5
23987
330
7466
100
AcDbSymbolTableRecord
100
AcDbBlockTableRecord
  2
*D38
340
0
  0
BLOCK_RECORD
  5
23993
330
7466
100
AcDbSymbolTableRecord
100
AcDbBlockTableRecord
  2
*D39
340
0
  0
BLOCK_RECORD
  5
239B9
330
7466
100
AcDbSymbolTableRecord
100
AcDbBlockTableRecord
  2
*D40
340
0
  0
BLOCK_RECORD
  5
239C5
330
7466
100
AcDbSymbolTableRecord
100
AcDbBlockTableRecord
  2
*D41
340
0
  0
BLOCK_RECORD
  5
239D0
330
7466
100
AcDbSymbolTableRecord
100
AcDbBlockTableRecord
  2
*D42
340
0
  0
BLOCK_RECORD
  5
239EA
330
7466
100
AcDbSymbolTableRecord
100
AcDbBlockTableRecord
  2
*D43
340
0
  0
BLOCK_RECORD
  5
23A0E
330
7466
100
AcDbSymbolTableRecord
100
AcDbBlockTableRecord
  2
*D44
340
0
  0
BLOCK_RECORD
  5
23A34
330
7466
100
AcDbSymbolTableRecord
100
AcDbBlockTableRecord
  2
*D45
340
0
  0
BLOCK_RECORD
  5
242E1
330
7466
100
AcDbSymbolTableRecord
100
AcDbBlockTableRecord
  2
*D52
340
0
  0
BLOCK_RECORD
  5
242ED
330
7466
100
AcDbSymbolTableRecord
100
AcDbBlockTableRecord
  2
*D53
340
0
  0
BLOCK_RECORD
  5
242FB
330
7466
100
AcDbSymbolTableRecord
100
AcDbBlockTableRecord
  2
*D54
340
0
  0
BLOCK_RECORD
  5
24307
330
7466
100
AcDbSymbolTableRecord
100
AcDbBlockTableRecord
  2
*D55
340
0
  0
BLOCK_RECORD
  5
24313
330
7466
100
AcDbSymbolTableRecord
100
AcDbBlockTableRecord
  2
*D56
340
0
  0
BLOCK_RECORD
  5
2431F
330
7466
100
AcDbSymbolTableRecord
100
AcDbBlockTableRecord
  2
*D57
340
0
  0
ENDTAB
  0
ENDSEC
  0
SECTION
  2
BLOCKS
  0
BLOCK
  5
7489
330
747D
100
AcDbEntity
  8
0
100
AcDbBlockBegin
  2
*MODEL_SPACE
 70
     0
 10
0.0
 20
0.0
 30
0.0
  3
*MODEL_SPACE
  1

  0
ENDBLK
  5
748A
330
747D
100
AcDbEntity
  8
0
100
AcDbBlockEnd
  0
BLOCK
  5
7487
330
747A
100
AcDbEntity
 67
     1
  8
0
100
AcDbBlockBegin
  2
*PAPER_SPACE
 70
     0
 10
0.0
 20
0.0
 30
0.0
  3
*PAPER_SPACE
  1

  0
ENDBLK
  5
7488
330
747A
100
AcDbEntity
 67
     1
  8
0
100
AcDbBlockEnd
  0
BLOCK
  5
DEAD
330
DEAC
100
AcDbEntity
  8
0
100
AcDbBlockBegin
  2
_OPEN
 70
     0
 10
0.0
 20
0.0
 30
0.0
  3
_OPEN
  1

  0
LINE
  5
DEAE
330
DEAC
100
AcDbEntity
  8
0
  6
ByBlock
 62
     0
100
AcDbLine
 10
-1.0
 20
0.1666666666666666
 30
0.0
 11
0.0
 21
0.0
 31
0.0
  0
LINE
  5
DEAF
330
DEAC
100
AcDbEntity
  8
0
  6
ByBlock
 62
     0
100
AcDbLine
 10
0.0
 20
0.0
 30
0.0
 11
-1.0
 21
-0.1666666666666666
 31
0.0
  0
LINE
  5
DEB0
330
DEAC
100
AcDbEntity
  8
0
  6
ByBlock
 62
     0
100
AcDbLine
 10
0.0
 20
0.0
 30
0.0
 11
-1.0
 21
0.0
 31
0.0
  0
ENDBLK
  5
DEB1
330
DEAC
100
AcDbEntity
  8
0
100
AcDbBlockEnd
  0
BLOCK
  5
F771
330
F770
100
AcDbEntity
  8
0
 48
50.0
100
AcDbBlockBegin
  2
_DOTSMALL
 70
     0
 10
0.0
 20
0.0
 30
0.0
  3
_DOTSMALL
  1

  0
LWPOLYLINE
  5
F772
330
F770
100
AcDbEntity
  8
0
  6
ByBlock
 62
     0
 48
50.0
100
AcDbPolyline
 90
        2
 70
     1
 43
0.5
 10
-0.0625
 20
0.0
 42
1.0
 10
0.0625
 20
0.0
 42
1.0
  0
ENDBLK
  5
F776
330
F770
100
AcDbEntity
  8
0
 48
50.0
100
AcDbBlockEnd
  0
BLOCK
  5
164BA
330
164B4
100
AcDbEntity
  8
0
 48
50.0
100
AcDbBlockBegin
  2
_DOT
 70
     0
 10
0.0
 20
0.0
 30
0.0
  3
_DOT
  1

  0
LWPOLYLINE
  5
164B5
330
164B4
100
AcDbEntity
  8
0
  6
ByBlock
 62
     0
 48
50.0
100
AcDbPolyline
 90
        2
 70
     1
 43
0.5
 10
-0.25
 20
0.0
 42
1.0
 10
0.25
 20
0.0
 42
1.0
  0
LINE
  5
164B9
330
164B4
100
AcDbEntity
  8
0
  6
ByBlock
 62
     0
 48
50.0
100
AcDbLine
 10
-0.5
 20
0.0
 30
0.0
 11
-1.0
 21
0.0
 31
0.0
  0
ENDBLK
  5
164BB
330
164B4
100
AcDbEntity
  8
0
 48
50.0
100
AcDbBlockEnd
  0
BLOCK
  5
18BC9
330
18BC8
100
AcDbEntity
  8
0
 48
50.0
100
AcDbBlockBegin
  2
*D3
 70
     1
 10
0.0
 20
0.0
 30
0.0
  3
*D3
  1

  0
LINE
  5
18BCA
330
18BC8
100
AcDbEntity
  8
寸法
 62
     0
 48
50.0
370
    -2
100
AcDbLine
 10
7649.896575106999
 20
9636.123139034717
 30
0.0
 11
8702.429862581047
 21
9636.123139034717
 31
0.0
  0
LINE
  5
18BCB
330
18BC8
100
AcDbEntity
  8
寸法
 62
     0
 48
50.0
370
    -2
100
AcDbLine
 10
7649.896575106973
 20
7846.123139034709
 30
0.0
 11
8702.429862581047
 21
7846.123139034709
 31
0.0
  0
LINE
  5
18BCC
330
18BC8
100
AcDbEntity
  8
寸法
 62
     0
 48
50.0
370
    -2
100
AcDbLine
 10
8642.429862581046
 20
9636.123139034717
 30
0.0
 11
8642.429862581046
 21
7846.123139034709
 31
0.0
  0
INSERT
  5
18BCD
330
18BC8
100
AcDbEntity
  8
寸法
 62
     0
 48
50.0
370
    -2
100
AcDbBlockReference
  2
_DOTSMALL
 10
8642.429862581046
 20
9636.123139034717
 30
0.0
 41
100.0
 42
100.0
 43
100.0
 50
90.0
  0
INSERT
  5
18BCE
330
18BC8
100
AcDbEntity
  8
寸法
 62
     0
 48
50.0
370
    -2
100
AcDbBlockReference
  2
_DOTSMALL
 10
8642.429862581046
 20
7846.123139034709
 30
0.0
 41
100.0
 42
100.0
 43
100.0
 50
270.0
  0
MTEXT
  5
18BCF
330
18BC8
100
AcDbEntity
  8
寸法
 62
     7
 48
50.0
100
AcDbMText
 10
8542.429862581045
 20
8741.123139034712
 30
0.0
 40
120.0
 41
0.0
 71
     5
 72
     1
  1
\A1;1790
  7
STYLE1
 11
0.0000000000000001
 21
1.0
 31
0.0
 73
     1
 44
1.0
1001
ACAD
1000
MTEXTBEGIN
1070
    73
1070
     1
1070
    44
1040
1.0
1070
    74
1070
     0
1000
MTEXTEND
  0
POINT
  5
18BD0
330
18BC8
100
AcDbEntity
  8
DEFPOINTS
 62
     0
 48
50.0
100
AcDbPoint
 10
7629.896575106998
 20
9636.123139034717
 30
0.0
  0
POINT
  5
18BD1
330
18BC8
100
AcDbEntity
  8
DEFPOINTS
 62
     0
 48
50.0
100
AcDbPoint
 10
7629.896575106974
 20
7846.123139034709
 30
0.0
  0
POINT
  5
18BD2
330
18BC8
100
AcDbEntity
  8
DEFPOINTS
 62
     0
 48
50.0
100
AcDbPoint
 10
8642.429862581046
 20
7846.123139034709
 30
0.0
  0
ENDBLK
  5
18BD3
330
18BC8
100
AcDbEntity
  8
0
 48
50.0
100
AcDbBlockEnd
  0
BLOCK
  5
18BD5
330
18BD4
100
AcDbEntity
  8
0
 48
50.0
100
AcDbBlockBegin
  2
*D4
 70
     1
 10
0.0
 20
0.0
 30
0.0
  3
*D4
  1

  0
LINE
  5
18BD6
330
18BD4
100
AcDbEntity
  8
寸法
 62
     0
 48
50.0
370
    -2
100
AcDbLine
 10
4214.896575106998
 20
9656.123139034622
 30
0.0
 11
4214.896575106998
 21
10211.93135865972
 31
0.0
  0
LINE
  5
18BD7
330
18BD4
100
AcDbEntity
  8
寸法
 62
     0
 48
50.0
370
    -2
100
AcDbLine
 10
7574.896575106999
 20
9656.123139034718
 30
0.0
 11
7574.896575106999
 21
10211.93135865972
 31
0.0
  0
LINE
  5
18BD8
330
18BD4
100
AcDbEntity
  8
寸法
 62
     0
 48
50.0
370
    -2
100
AcDbLine
 10
4214.896575106998
 20
10151.93135865972
 30
0.0
 11
7574.896575106999
 21
10151.93135865972
 31
0.0
  0
INSERT
  5
18BD9
330
18BD4
100
AcDbEntity
  8
寸法
 62
     0
 48
50.0
370
    -2
100
AcDbBlockReference
  2
_DOTSMALL
 10
4214.896575106998
 20
10151.93135865972
 30
0.0
 41
100.0
 42
100.0
 43
100.0
 50
180.0
  0
INSERT
  5
18BDA
330
18BD4
100
AcDbEntity
  8
寸法
 62
     0
 48
50.0
370
    -2
100
AcDbBlockReference
  2
_DOTSMALL
 10
7574.896575106999
 20
10151.93135865972
 30
0.0
 41
100.0
 42
100.0
 43
100.0
  0
MTEXT
  5
18BDB
330
18BD4
100
AcDbEntity
  8
寸法
 62
     7
 48
50.0
100
AcDbMText
 10
5894.896575106997
 20
10251.94316968334
 30
0.0
 40
120.0
 41
0.0
 71
     5
 72
     1
  1
\A1;8X420=3360
  7
STYLE1
 73
     1
 44
1.0
1001
ACAD
1000
MTEXTBEGIN
1070
    73
1070
     1
1070
    44
1040
1.0
1070
    74
1070
     0
1000
MTEXTEND
  0
POINT
  5
18BDC
330
18BD4
100
AcDbEntity
  8
DEFPOINTS
 62
     0
 48
50.0
100
AcDbPoint
 10
4214.896575106998
 20
9636.123139034623
 30
0.0
  0
POINT
  5
18BDD
330
18BD4
100
AcDbEntity
  8
DEFPOINTS
 62
     0
 48
50.0
100
AcDbPoint
 10
7574.896575106999
 20
9636.123139034717
 30
0.0
  0
POINT
  5
18BDE
330
18BD4
100
AcDbEntity
  8
DEFPOINTS
 62
     0
 48
50.0
100
AcDbPoint
 10
7574.896575106999
 20
10151.93135865972
 30
0.0
  0
ENDBLK
  5
18BDF
330
18BD4
100
AcDbEntity
  8
0
 48
50.0
100
AcDbBlockEnd
  0
BLOCK
  5
18BE1
330
18BE0
100
AcDbEntity
  8
0
 48
50.0
100
AcDbBlockBegin
  2
*D5
 70
     1
 10
0.0
 20
0.0
 30
0.0
  3
*D5
  1

  0
LINE
  5
18BE2
330
18BE0
100
AcDbEntity
  8
寸法
 62
     0
 48
50.0
370
    -2
100
AcDbLine
 10
7574.896575106999
 20
9656.123139034718
 30
0.0
 11
7574.896575106999
 21
10211.9313586597
 31
0.0
  0
LINE
  5
18BE3
330
18BE0
100
AcDbEntity
  8
寸法
 62
     0
 48
50.0
370
    -2
100
AcDbLine
 10
7629.896575106998
 20
9656.123139034718
 30
0.0
 11
7629.896575106998
 21
10211.9313586597
 31
0.0
  0
LINE
  5
18BE4
330
18BE0
100
AcDbEntity
  8
寸法
 62
     0
 48
50.0
370
    -2
100
AcDbLine
 10
7574.896575106999
 20
10151.9313586597
 30
0.0
 11
7474.896575106999
 21
10151.9313586597
 31
0.0
  0
LINE
  5
18BE5
330
18BE0
100
AcDbEntity
  8
寸法
 62
     0
 48
50.0
370
    -2
100
AcDbLine
 10
7629.896575106998
 20
10151.9313586597
 30
0.0
 11
8046.867137855477
 21
10151.9313586597
 31
0.0
  0
LINE
  5
18BE6
330
18BE0
100
AcDbEntity
  8
寸法
 62
     0
 48
50.0
370
    -2
100
AcDbLine
 10
7574.896575106999
 20
10151.9313586597
 30
0.0
 11
7629.896575106998
 21
10151.9313586597
 31
0.0
  0
INSERT
  5
18BE7
330
18BE0
100
AcDbEntity
  8
寸法
 62
     0
 48
50.0
370
    -2
100
AcDbBlockReference
  2
_DOTSMALL
 10
7574.896575106999
 20
10151.9313586597
 30
0.0
 41
100.0
 42
100.0
 43
100.0
  0
INSERT
  5
18BE8
330
18BE0
100
AcDbEntity
  8
寸法
 62
     0
 48
50.0
370
    -2
100
AcDbBlockReference
  2
_DOTSMALL
 10
7629.896575106998
 20
10151.9313586597
 30
0.0
 41
100.0
 42
100.0
 43
100.0
 50
180.0
  0
MTEXT
  5
18BE9
330
18BE0
100
AcDbEntity
  8
寸法
 62
     7
 48
50.0
100
AcDbMText
 10
7938.381856481237
 20
10251.9313586597
 30
0.0
 40
120.0
 41
0.0
 71
     5
 72
     1
  1
\A1;55
  7
STYLE1
 73
     1
 44
1.0
1001
ACAD
1000
MTEXTBEGIN
1070
    73
1070
     1
1070
    44
1040
1.0
1070
    74
1070
     0
1000
MTEXTEND
  0
POINT
  5
18BEA
330
18BE0
100
AcDbEntity
  8
DEFPOINTS
 62
     0
 48
50.0
100
AcDbPoint
 10
7574.896575106999
 20
9636.123139034717
 30
0.0
  0
POINT
  5
18BEB
330
18BE0
100
AcDbEntity
  8
DEFPOINTS
 62
     0
 48
50.0
100
AcDbPoint
 10
7629.896575106998
 20
9636.123139034717
 30
0.0
  0
POINT
  5
18BEC
330
18BE0
100
AcDbEntity
  8
DEFPOINTS
 62
     0
 48
50.0
100
AcDbPoint
 10
7629.896575106998
 20
10151.9313586597
 30
0.0
  0
ENDBLK
  5
18BED
330
18BE0
100
AcDbEntity
  8
0
 48
50.0
100
AcDbBlockEnd
  0
BLOCK
  5
18BEF
330
18BEE
100
AcDbEntity
  8
0
 48
50.0
100
AcDbBlockBegin
  2
*D6
 70
     1
 10
0.0
 20
0.0
 30
0.0
  3
*D6
  1

  0
LINE
  5
18BF0
330
18BEE
100
AcDbEntity
  8
寸法
 62
     0
 48
50.0
370
    -2
100
AcDbLine
 10
7649.896575106999
 20
9636.123139034717
 30
0.0
 11
8337.32292084141
 21
9636.123139034717
 31
0.0
  0
LINE
  5
18BF1
330
18BEE
100
AcDbEntity
  8
寸法
 62
     0
 48
50.0
370
    -2
100
AcDbLine
 10
7649.896575106999
 20
9581.123139034721
 30
0.0
 11
8337.32292084141
 21
9581.123139034721
 31
0.0
  0
LINE
  5
18BF2
330
18BEE
100
AcDbEntity
  8
寸法
 62
     0
 48
50.0
370
    -2
100
AcDbLine
 10
8277.322920841411
 20
9581.123139034721
 30
0.0
 11
8277.322920841411
 21
9481.123139034719
 31
0.0
  0
LINE
  5
18BF3
330
18BEE
100
AcDbEntity
  8
寸法
 62
     0
 48
50.0
370
    -2
100
AcDbLine
 10
8277.322920841411
 20
9636.123139034717
 30
0.0
 11
8277.322920841411
 21
10053.09370178319
 31
0.0
  0
LINE
  5
18BF4
330
18BEE
100
AcDbEntity
  8
寸法
 62
     0
 48
50.0
370
    -2
100
AcDbLine
 10
8277.322920841411
 20
9581.123139034721
 30
0.0
 11
8277.322920841411
 21
9636.123139034717
 31
0.0
  0
INSERT
  5
18BF5
330
18BEE
100
AcDbEntity
  8
寸法
 62
     0
 48
50.0
370
    -2
100
AcDbBlockReference
  2
_DOTSMALL
 10
8277.322920841411
 20
9581.123139034721
 30
0.0
 41
100.0
 42
100.0
 43
100.0
 50
90.0
  0
INSERT
  5
18BF6
330
18BEE
100
AcDbEntity
  8
寸法
 62
     0
 48
50.0
370
    -2
100
AcDbBlockReference
  2
_DOTSMALL
 10
8277.322920841411
 20
9636.123139034717
 30
0.0
 41
100.0
 42
100.0
 43
100.0
 50
270.0
  0
MTEXT
  5
18BF7
330
18BEE
100
AcDbEntity
  8
寸法
 62
     7
 48
50.0
100
AcDbMText
 10
8177.32292084141
 20
9944.608420408957
 30
0.0
 40
120.0
 41
0.0
 71
     5
 72
     1
  1
\A1;55
  7
STYLE1
 11
0.0000000000000001
 21
1.0
 31
0.0
 73
     1
 44
1.0
1001
ACAD
1000
MTEXTBEGIN
1070
    73
1070
     1
1070
    44
1040
1.0
1070
    74
1070
     0
1000
MTEXTEND
  0
POINT
  5
18BF8
330
18BEE
100
AcDbEntity
  8
DEFPOINTS
 62
     0
 48
50.0
100
AcDbPoint
 10
7629.896575106998
 20
9636.123139034717
 30
0.0
  0
POINT
  5
18BF9
330
18BEE
100
AcDbEntity
  8
DEFPOINTS
 62
     0
 48
50.0
100
AcDbPoint
 10
7629.896575106998
 20
9581.123139034721
 30
0.0
  0
POINT
  5
18BFA
330
18BEE
100
AcDbEntity
  8
DEFPOINTS
 62
     0
 48
50.0
100
AcDbPoint
 10
8277.322920841411
 20
9581.123139034721
 30
0.0
  0
ENDBLK
  5
18BFB
330
18BEE
100
AcDbEntity
  8
0
 48
50.0
100
AcDbBlockEnd
  0
BLOCK
  5
18BFD
330
18BFC
100
AcDbEntity
  8
0
 48
50.0
100
AcDbBlockBegin
  2
*D7
 70
     1
 10
0.0
 20
0.0
 30
0.0
  3
*D7
  1

  0
LINE
  5
18BFE
330
18BFC
100
AcDbEntity
  8
寸法
 62
     0
 48
50.0
370
    -2
100
AcDbLine
 10
4159.896575106963
 20
9656.123139034622
 30
0.0
 11
4159.896575106963
 21
10211.9313586596
 31
0.0
  0
LINE
  5
18BFF
330
18BFC
100
AcDbEntity
  8
寸法
 62
     0
 48
50.0
370
    -2
100
AcDbLine
 10
4214.896575106998
 20
9656.123139034622
 30
0.0
 11
4214.896575106998
 21
10211.9313586596
 31
0.0
  0
LINE
  5
18C00
330
18BFC
100
AcDbEntity
  8
寸法
 62
     0
 48
50.0
370
    -2
100
AcDbLine
 10
4214.896575106998
 20
10151.9313586596
 30
0.0
 11
4314.896575106998
 21
10151.9313586596
 31
0.0
  0
LINE
  5
18C01
330
18BFC
100
AcDbEntity
  8
寸法
 62
     0
 48
50.0
370
    -2
100
AcDbLine
 10
4159.896575106963
 20
10151.9313586596
 30
0.0
 11
3742.926012358486
 21
10151.9313586596
 31
0.0
  0
LINE
  5
18C02
330
18BFC
100
AcDbEntity
  8
寸法
 62
     0
 48
50.0
370
    -2
100
AcDbLine
 10
4214.896575106998
 20
10151.9313586596
 30
0.0
 11
4159.896575106963
 21
10151.9313586596
 31
0.0
  0
INSERT
  5
18C03
330
18BFC
100
AcDbEntity
  8
寸法
 62
     0
 48
50.0
370
    -2
100
AcDbBlockReference
  2
_DOTSMALL
 10
4214.896575106998
 20
10151.9313586596
 30
0.0
 41
100.0
 42
100.0
 43
100.0
 50
180.0
  0
INSERT
  5
18C04
330
18BFC
100
AcDbEntity
  8
寸法
 62
     0
 48
50.0
370
    -2
100
AcDbBlockReference
  2
_DOTSMALL
 10
4159.896575106963
 20
10151.9313586596
 30
0.0
 41
100.0
 42
100.0
 43
100.0
  0
MTEXT
  5
18C05
330
18BFC
100
AcDbEntity
  8
寸法
 62
     7
 48
50.0
100
AcDbMText
 10
3851.411293732725
 20
10251.9313586596
 30
0.0
 40
120.0
 41
0.0
 71
     5
 72
     1
  1
\A1;55
  7
STYLE1
 73
     1
 44
1.0
1001
ACAD
1000
MTEXTBEGIN
1070
    73
1070
     1
1070
    44
1040
1.0
1070
    74
1070
     0
1000
MTEXTEND
  0
POINT
  5
18C06
330
18BFC
100
AcDbEntity
  8
DEFPOINTS
 62
     0
 48
50.0
100
AcDbPoint
 10
4159.896575106963
 20
9636.123139034623
 30
0.0
  0
POINT
  5
18C07
330
18BFC
100
AcDbEntity
  8
DEFPOINTS
 62
     0
 48
50.0
100
AcDbPoint
 10
4214.896575106998
 20
9636.123139034623
 30
0.0
  0
POINT
  5
18C08
330
18BFC
100
AcDbEntity
  8
DEFPOINTS
 62
     0
 48
50.0
100
AcDbPoint
 10
4214.896575106998
 20
10151.9313586596
 30
0.0
  0
ENDBLK
  5
18C09
330
18BFC
100
AcDbEntity
  8
0
 48
50.0
100
AcDbBlockEnd
  0
BLOCK
  5
18C0B
330
18C0A
100
AcDbEntity
  8
0
 48
50.0
100
AcDbBlockBegin
  2
*D8
 70
     1
 10
0.0
 20
0.0
 30
0.0
  3
*D8
  1

  0
LINE
  5
18C0C
330
18C0A
100
AcDbEntity
  8
寸法
 62
     0
 48
50.0
370
    -2
100
AcDbLine
 10
4159.896575106992
 20
7826.123139034546
 30
0.0
 11
4159.896575106992
 21
6804.372203245664
 31
0.0
  0
LINE
  5
18C0D
330
18C0A
100
AcDbEntity
  8
寸法
 62
     0
 48
50.0
370
    -2
100
AcDbLine
 10
7629.896575106974
 20
7826.123139034674
 30
0.0
 11
7629.896575106974
 21
6804.372203245664
 31
0.0
  0
LINE
  5
18C0E
330
18C0A
100
AcDbEntity
  8
寸法
 62
     0
 48
50.0
370
    -2
100
AcDbLine
 10
4159.896575106992
 20
6864.372203245665
 30
0.0
 11
7629.896575106974
 21
6864.372203245665
 31
0.0
  0
INSERT
  5
18C0F
330
18C0A
100
AcDbEntity
  8
寸法
 62
     0
 48
50.0
370
    -2
100
AcDbBlockReference
  2
_DOTSMALL
 10
4159.896575106992
 20
6864.372203245665
 30
0.0
 41
100.0
 42
100.0
 43
100.0
 50
180.0
  0
INSERT
  5
18C10
330
18C0A
100
AcDbEntity
  8
寸法
 62
     0
 48
50.0
370
    -2
100
AcDbBlockReference
  2
_DOTSMALL
 10
7629.896575106974
 20
6864.372203245665
 30
0.0
 41
100.0
 42
100.0
 43
100.0
  0
MTEXT
  5
18C11
330
18C0A
100
AcDbEntity
  8
寸法
 62
     7
 48
50.0
100
AcDbMText
 10
5911.12376113973
 20
6964.372203245665
 30
0.0
 40
120.0
 41
0.0
 71
     5
 72
     1
  1
\A1;3470
  7
STYLE1
 73
     1
 44
1.0
1001
ACAD
1000
MTEXTBEGIN
1070
    73
1070
     1
1070
    44
1040
1.0
1070
    74
1070
     0
1000
MTEXTEND
  0
POINT
  5
18C12
330
18C0A
100
AcDbEntity
  8
DEFPOINTS
 62
     0
 48
50.0
100
AcDbPoint
 10
4159.896575106992
 20
7846.123139034546
 30
0.0
  0
POINT
  5
18C13
330
18C0A
100
AcDbEntity
  8
DEFPOINTS
 62
     0
 48
50.0
100
AcDbPoint
 10
7629.896575106974
 20
7846.123139034673
 30
0.0
  0
POINT
  5
18C14
330
18C0A
100
AcDbEntity
  8
DEFPOINTS
 62
     0
 48
50.0
100
AcDbPoint
 10
7629.896575106974
 20
6864.372203245665
 30
0.0
  0
ENDBLK
  5
18C15
330
18C0A
100
AcDbEntity
  8
0
 48
50.0
100
AcDbBlockEnd
  0
BLOCK
  5
18C17
330
18C16
100
AcDbEntity
  8
0
 48
50.0
100
AcDbBlockBegin
  2
*D9
 70
     1
 10
0.0
 20
0.0
 30
0.0
  3
*D9
  1

  0
LINE
  5
18C18
330
18C16
100
AcDbEntity
  8
寸法
 62
     0
 48
50.0
370
    -2
100
AcDbLine
 10
7649.896575106973
 20
7901.123139034706
 30
0.0
 11
8337.322920841385
 21
7901.123139034706
 31
0.0
  0
LINE
  5
18C19
330
18C16
100
AcDbEntity
  8
寸法
 62
     0
 48
50.0
370
    -2
100
AcDbLine
 10
7649.896575106973
 20
7846.123139034709
 30
0.0
 11
8337.322920841385
 21
7846.123139034709
 31
0.0
  0
LINE
  5
18C1A
330
18C16
100
AcDbEntity
  8
寸法
 62
     0
 48
50.0
370
    -2
100
AcDbLine
 10
8277.322920841385
 20
7901.123139034706
 30
0.0
 11
8277.322920841385
 21
8001.123139034707
 31
0.0
  0
LINE
  5
18C1B
330
18C16
100
AcDbEntity
  8
寸法
 62
     0
 48
50.0
370
    -2
100
AcDbLine
 10
8277.322920841385
 20
7846.123139034709
 30
0.0
 11
8277.322920841385
 21
7429.152576286229
 31
0.0
  0
LINE
  5
18C1C
330
18C16
100
AcDbEntity
  8
寸法
 62
     0
 48
50.0
370
    -2
100
AcDbLine
 10
8277.322920841385
 20
7901.123139034706
 30
0.0
 11
8277.322920841385
 21
7846.123139034709
 31
0.0
  0
INSERT
  5
18C1D
330
18C16
100
AcDbEntity
  8
寸法
 62
     0
 48
50.0
370
    -2
100
AcDbBlockReference
  2
_DOTSMALL
 10
8277.322920841385
 20
7901.123139034706
 30
0.0
 41
100.0
 42
100.0
 43
100.0
 50
270.0
  0
INSERT
  5
18C1E
330
18C16
100
AcDbEntity
  8
寸法
 62
     0
 48
50.0
370
    -2
100
AcDbBlockReference
  2
_DOTSMALL
 10
8277.322920841385
 20
7846.123139034709
 30
0.0
 41
100.0
 42
100.0
 43
100.0
 50
90.0
  0
MTEXT
  5
18C1F
330
18C16
100
AcDbEntity
  8
寸法
 62
     7
 48
50.0
100
AcDbMText
 10
8177.322920841383
 20
7537.637857660469
 30
0.0
 40
120.0
 41
0.0
 71
     5
 72
     1
  1
\A1;55
  7
STYLE1
 11
0.0000000000000001
 21
1.0
 31
0.0
 73
     1
 44
1.0
1001
ACAD
1000
MTEXTBEGIN
1070
    73
1070
     1
1070
    44
1040
1.0
1070
    74
1070
     0
1000
MTEXTEND
  0
POINT
  5
18C20
330
18C16
100
AcDbEntity
  8
DEFPOINTS
 62
     0
 48
50.0
100
AcDbPoint
 10
7629.896575106974
 20
7901.123139034706
 30
0.0
  0
POINT
  5
18C21
330
18C16
100
AcDbEntity
  8
DEFPOINTS
 62
     0
 48
50.0
100
AcDbPoint
 10
7629.896575106974
 20
7846.123139034709
 30
0.0
  0
POINT
  5
18C22
330
18C16
100
AcDbEntity
  8
DEFPOINTS
 62
     0
 48
50.0
100
AcDbPoint
 10
8277.322920841385
 20
7846.123139034709
 30
0.0
  0
ENDBLK
  5
18C23
330
18C16
100
AcDbEntity
  8
0
 48
50.0
100
AcDbBlockEnd
  0
BLOCK
  5
18C25
330
18C24
100
AcDbEntity
  8
0
 48
50.0
100
AcDbBlockBegin
  2
*D10
 70
     1
 10
0.0
 20
0.0
 30
0.0
  3
*D10
  1

  0
LINE
  5
18C26
330
18C24
100
AcDbEntity
  8
寸法
 62
     0
 48
50.0
370
    -2
100
AcDbLine
 10
6533.037591258376
 20
9136.123139034728
 30
0.0
 11
6465.083950562664
 21
8882.516699399049
 31
0.0
  0
LINE
  5
18C27
330
18C24
100
AcDbEntity
  8
寸法
 62
     0
 48
50.0
370
    -2
100
AcDbLine
 10
7596.037591258388
 20
9136.123139034721
 30
0.0
 11
7528.083950562677
 21
8882.516699399049
 31
0.0
  0
LINE
  5
18C28
330
18C24
100
AcDbEntity
  8
寸法
 62
     0
 48
50.0
370
    -2
100
AcDbLine
 10
6481.160902108531
 20
8942.51669939905
 30
0.0
 11
7544.160902108544
 21
8942.51669939905
 31
0.0
  0
INSERT
  5
18C29
330
18C24
100
AcDbEntity
  8
寸法
 62
     0
 48
50.0
370
    -2
100
AcDbBlockReference
  2
_DOTSMALL
 10
6481.160902108531
 20
8942.51669939905
 30
0.0
 41
100.0
 42
100.0
 43
100.0
 50
180.0
  0
INSERT
  5
18C2A
330
18C24
100
AcDbEntity
  8
寸法
 62
     0
 48
50.0
370
    -2
100
AcDbBlockReference
  2
_DOTSMALL
 10
7544.160902108544
 20
8942.51669939905
 30
0.0
 41
100.0
 42
100.0
 43
100.0
  0
MTEXT
  5
18C2B
330
18C24
100
AcDbEntity
  8
寸法
 62
     7
 48
50.0
100
AcDbMText
 10
7061.28653022935
 20
9042.516699399049
 30
0.0
 40
120.0
 41
0.0
 71
     5
 72
     1
  1
\A1;1063
  7
STYLE1
 73
     1
 44
1.0
1001
ACAD
1000
MTEXTBEGIN
1070
    73
1070
     1
1070
    44
1040
1.0
1070
    74
1070
     0
1000
MTEXTEND
  0
POINT
  5
18C2C
330
18C24
100
AcDbEntity
  8
DEFPOINTS
 62
     0
 48
50.0
100
AcDbPoint
 10
6538.396575106998
 20
9156.123139034727
 30
0.0
  0
POINT
  5
18C2D
330
18C24
100
AcDbEntity
  8
DEFPOINTS
 62
     0
 48
50.0
100
AcDbPoint
 10
7601.39657510701
 20
9156.12313903472
 30
0.0
  0
POINT
  5
18C2E
330
18C24
100
AcDbEntity
  8
DEFPOINTS
 62
     0
 48
50.0
100
AcDbPoint
 10
7544.160902108544
 20
8942.51669939905
 30
0.0
  0
ENDBLK
  5
18C2F
330
18C24
100
AcDbEntity
  8
0
 48
50.0
100
AcDbBlockEnd
  0
BLOCK
  5
18C31
330
18C30
100
AcDbEntity
  8
0
 48
50.0
100
AcDbBlockBegin
  2
*D11
 70
     1
 10
0.0
 20
0.0
 30
0.0
  3
*D11
  1

  0
LINE
  5
18C32
330
18C30
100
AcDbEntity
  8
寸法
 62
     0
 48
50.0
370
    -2
100
AcDbLine
 10
7621.396575106999
 20
9600.764155186094
 30
0.0
 11
8016.754300969024
 21
9494.828371819961
 31
0.0
  0
LINE
  5
18C33
330
18C30
100
AcDbEntity
  8
寸法
 62
     0
 48
50.0
370
    -2
100
AcDbLine
 10
7621.396575106999
 20
9150.764155186099
 30
0.0
 11
8016.754300969024
 21
9044.828371819964
 31
0.0
  0
LINE
  5
18C34
330
18C30
100
AcDbEntity
  8
寸法
 62
     0
 48
50.0
370
    -2
100
AcDbLine
 10
7956.754300969024
 20
9510.905323365827
 30
0.0
 11
7956.754300969024
 21
9060.90532336583
 31
0.0
  0
INSERT
  5
18C35
330
18C30
100
AcDbEntity
  8
寸法
 62
     0
 48
50.0
370
    -2
100
AcDbBlockReference
  2
_DOTSMALL
 10
7956.754300969024
 20
9510.905323365827
 30
0.0
 41
100.0
 42
100.0
 43
100.0
 50
90.0
  0
INSERT
  5
18C36
330
18C30
100
AcDbEntity
  8
寸法
 62
     0
 48
50.0
370
    -2
100
AcDbBlockReference
  2
_DOTSMALL
 10
7956.754300969024
 20
9060.90532336583
 30
0.0
 41
100.0
 42
100.0
 43
100.0
 50
270.0
  0
MTEXT
  5
18C37
330
18C30
100
AcDbEntity
  8
寸法
 62
     7
 48
50.0
100
AcDbMText
 10
7856.754300969022
 20
9285.905323365829
 30
0.0
 40
120.0
 41
0.0
 71
     5
 72
     1
  1
\A1;450
  7
STYLE1
 11
0.0000000000000001
 21
1.0
 31
0.0
 73
     1
 44
1.0
1001
ACAD
1000
MTEXTBEGIN
1070
    73
1070
     1
1070
    44
1040
1.0
1070
    74
1070
     0
1000
MTEXTEND
  0
POINT
  5
18C38
330
18C30
100
AcDbEntity
  8
DEFPOINTS
 62
     0
 48
50.0
100
AcDbPoint
 10
7601.396575106999
 20
9606.123139034718
 30
0.0
  0
POINT
  5
18C39
330
18C30
100
AcDbEntity
  8
DEFPOINTS
 62
     0
 48
50.0
100
AcDbPoint
 10
7601.396575106999
 20
9156.12313903472
 30
0.0
  0
POINT
  5
18C3A
330
18C30
100
AcDbEntity
  8
DEFPOINTS
 62
     0
 48
50.0
100
AcDbPoint
 10
7956.754300969024
 20
9060.90532336583
 30
0.0
  0
ENDBLK
  5
18C3B
330
18C30
100
AcDbEntity
  8
0
 48
50.0
100
AcDbBlockEnd
  0
BLOCK
  5
18C3D
330
18C3C
100
AcDbEntity
  8
0
 48
50.0
100
AcDbBlockBegin
  2
*D12
 70
     1
 10
0.0
 20
0.0
 30
0.0
  3
*D12
  1

  0
LINE
  5
18C3E
330
18C3C
100
AcDbEntity
  8
寸法
 62
     0
 48
50.0
370
    -2
100
AcDbLine
 10
7649.896575106999
 20
9581.123139034721
 30
0.0
 11
8337.32292084141
 21
9581.123139034721
 31
0.0
  0
LINE
  5
18C3F
330
18C3C
100
AcDbEntity
  8
寸法
 62
     0
 48
50.0
370
    -2
100
AcDbLine
 10
7649.896575106973
 20
7901.123139034706
 30
0.0
 11
8337.32292084141
 21
7901.123139034706
 31
0.0
  0
LINE
  5
18C40
330
18C3C
100
AcDbEntity
  8
寸法
 62
     0
 48
50.0
370
    -2
100
AcDbLine
 10
8277.322920841411
 20
9581.123139034721
 30
0.0
 11
8277.322920841411
 21
7901.123139034706
 31
0.0
  0
INSERT
  5
18C41
330
18C3C
100
AcDbEntity
  8
寸法
 62
     0
 48
50.0
370
    -2
100
AcDbBlockReference
  2
_DOTSMALL
 10
8277.322920841411
 20
9581.123139034721
 30
0.0
 41
100.0
 42
100.0
 43
100.0
 50
90.0
  0
INSERT
  5
18C42
330
18C3C
100
AcDbEntity
  8
寸法
 62
     0
 48
50.0
370
    -2
100
AcDbBlockReference
  2
_DOTSMALL
 10
8277.322920841411
 20
7901.123139034706
 30
0.0
 41
100.0
 42
100.0
 43
100.0
 50
270.0
  0
MTEXT
  5
18C43
330
18C3C
100
AcDbEntity
  8
寸法
 62
     7
 48
50.0
100
AcDbMText
 10
8177.311109817788
 20
8741.123139034712
 30
0.0
 40
120.0
 41
0.0
 71
     5
 72
     1
  1
\A1;4X420=1680
  7
STYLE1
 11
0.0000000000000001
 21
1.0
 31
0.0
 73
     1
 44
1.0
1001
ACAD
1000
MTEXTBEGIN
1070
    73
1070
     1
1070
    44
1040
1.0
1070
    74
1070
     0
1000
MTEXTEND
  0
POINT
  5
18C44
330
18C3C
100
AcDbEntity
  8
DEFPOINTS
 62
     0
 48
50.0
100
AcDbPoint
 10
7629.896575106998
 20
9581.123139034721
 30
0.0
  0
POINT
  5
18C45
330
18C3C
100
AcDbEntity
  8
DEFPOINTS
 62
     0
 48
50.0
100
AcDbPoint
 10
7629.896575106974
 20
7901.123139034706
 30
0.0
  0
POINT
  5
18C46
330
18C3C
100
AcDbEntity
  8
DEFPOINTS
 62
     0
 48
50.0
100
AcDbPoint
 10
8277.322920841411
 20
7901.123139034706
 30
0.0
  0
ENDBLK
  5
18C47
330
18C3C
100
AcDbEntity
  8
0
 48
50.0
100
AcDbBlockEnd
  0
BLOCK
  5
18C49
330
18C48
100
AcDbEntity
  8
0
 48
50.0
100
AcDbBlockBegin
  2
*D13
 70
     1
 10
0.0
 20
0.0
 30
0.0
  3
*D13
  1

  0
LINE
  5
18C4A
330
18C48
100
AcDbEntity
  8
寸法
 62
     0
 48
50.0
370
    -2
100
AcDbLine
 10
4183.037591258377
 20
9136.123139034619
 30
0.0
 11
4115.083950562663
 21
8882.516699398941
 31
0.0
  0
LINE
  5
18C4B
330
18C48
100
AcDbEntity
  8
寸法
 62
     0
 48
50.0
370
    -2
100
AcDbLine
 10
5246.037591258307
 20
9136.123139034671
 30
0.0
 11
5178.08395056258
 21
8882.516699398941
 31
0.0
  0
LINE
  5
18C4C
330
18C48
100
AcDbEntity
  8
寸法
 62
     0
 48
50.0
370
    -2
100
AcDbLine
 10
4131.160902108532
 20
8942.516699398941
 30
0.0
 11
5194.160902108448
 21
8942.516699398941
 31
0.0
  0
INSERT
  5
18C4D
330
18C48
100
AcDbEntity
  8
寸法
 62
     0
 48
50.0
370
    -2
100
AcDbBlockReference
  2
_DOTSMALL
 10
4131.160902108532
 20
8942.516699398941
 30
0.0
 41
100.0
 42
100.0
 43
100.0
 50
180.0
  0
INSERT
  5
18C4E
330
18C48
100
AcDbEntity
  8
寸法
 62
     0
 48
50.0
370
    -2
100
AcDbBlockReference
  2
_DOTSMALL
 10
5194.160902108448
 20
8942.516699398941
 30
0.0
 41
100.0
 42
100.0
 43
100.0
  0
MTEXT
  5
18C4F
330
18C48
100
AcDbEntity
  8
寸法
 62
     7
 48
50.0
100
AcDbMText
 10
4658.986452655306
 20
9042.516699398941
 30
0.0
 40
120.0
 41
0.0
 71
     5
 72
     1
  1
\A1;1063
  7
STYLE1
 73
     1
 44
1.0
1001
ACAD
1000
MTEXTBEGIN
1070
    73
1070
     1
1070
    44
1040
1.0
1070
    74
1070
     0
1000
MTEXTEND
  0
POINT
  5
18C50
330
18C48
100
AcDbEntity
  8
DEFPOINTS
 62
     0
 48
50.0
100
AcDbPoint
 10
4188.396575106999
 20
9156.123139034617
 30
0.0
  0
POINT
  5
18C51
330
18C48
100
AcDbEntity
  8
DEFPOINTS
 62
     0
 48
50.0
100
AcDbPoint
 10
5251.396575106929
 20
9156.123139034672
 30
0.0
  0
POINT
  5
18C52
330
18C48
100
AcDbEntity
  8
DEFPOINTS
 62
     0
 48
50.0
100
AcDbPoint
 10
5194.160902108448
 20
8942.516699398941
 30
0.0
  0
ENDBLK
  5
18C53
330
18C48
100
AcDbEntity
  8
0
 48
50.0
100
AcDbBlockEnd
  0
BLOCK
  5
18C55
330
18C54
100
AcDbEntity
  8
0
 48
50.0
100
AcDbBlockBegin
  2
*D14
 70
     1
 10
0.0
 20
0.0
 30
0.0
  3
*D14
  1

  0
LINE
  5
18C56
330
18C54
100
AcDbEntity
  8
寸法
 62
     0
 48
50.0
370
    -2
100
AcDbLine
 10
5274.037591258307
 20
9136.123139034669
 30
0.0
 11
5206.08395056258
 21
8882.516699398941
 31
0.0
  0
LINE
  5
18C57
330
18C54
100
AcDbEntity
  8
寸法
 62
     0
 48
50.0
370
    -2
100
AcDbLine
 10
6505.037591258377
 20
9136.123139034662
 30
0.0
 11
6437.083950562653
 21
8882.516699398941
 31
0.0
  0
LINE
  5
18C58
330
18C54
100
AcDbEntity
  8
寸法
 62
     0
 48
50.0
370
    -2
100
AcDbLine
 10
5222.160902108448
 20
8942.516699398941
 30
0.0
 11
6453.16090210852
 21
8942.516699398941
 31
0.0
  0
INSERT
  5
18C59
330
18C54
100
AcDbEntity
  8
寸法
 62
     0
 48
50.0
370
    -2
100
AcDbBlockReference
  2
_DOTSMALL
 10
5222.160902108448
 20
8942.516699398941
 30
0.0
 41
100.0
 42
100.0
 43
100.0
 50
180.0
  0
INSERT
  5
18C5A
330
18C54
100
AcDbEntity
  8
寸法
 62
     0
 48
50.0
370
    -2
100
AcDbBlockReference
  2
_DOTSMALL
 10
6453.16090210852
 20
8942.516699398941
 30
0.0
 41
100.0
 42
100.0
 43
100.0
  0
MTEXT
  5
18C5B
330
18C54
100
AcDbEntity
  8
寸法
 62
     7
 48
50.0
100
AcDbMText
 10
6081.244808320626
 20
9042.528510422561
 30
0.0
 40
120.0
 41
0.0
 71
     5
 72
     1
  1
\A1;1231
  7
STYLE1
 73
     1
 44
1.0
1001
ACAD
1000
MTEXTBEGIN
1070
    73
1070
     1
1070
    44
1040
1.0
1070
    74
1070
     0
1000
MTEXTEND
  0
POINT
  5
18C5C
330
18C54
100
AcDbEntity
  8
DEFPOINTS
 62
     0
 48
50.0
100
AcDbPoint
 10
5279.396575106929
 20
9156.123139034669
 30
0.0
  0
POINT
  5
18C5D
330
18C54
100
AcDbEntity
  8
DEFPOINTS
 62
     0
 48
50.0
100
AcDbPoint
 10
6510.396575106999
 20
9156.123139034662
 30
0.0
  0
POINT
  5
18C5E
330
18C54
100
AcDbEntity
  8
DEFPOINTS
 62
     0
 48
50.0
100
AcDbPoint
 10
6453.16090210852
 20
8942.516699398941
 30
0.0
  0
ENDBLK
  5
18C5F
330
18C54
100
AcDbEntity
  8
0
 48
50.0
100
AcDbBlockEnd
  0
BLOCK
  5
18C61
330
18C60
100
AcDbEntity
  8
0
 48
50.0
100
AcDbBlockBegin
  2
*D15
 70
     1
 10
0.0
 20
0.0
 30
0.0
  3
*D15
  1

  0
LINE
  5
18C62
330
18C60
100
AcDbEntity
  8
寸法
 62
     0
 48
50.0
370
    -2
100
AcDbLine
 10
5065.896575106966
 20
7749.123139034579
 30
0.0
 11
5065.896575106966
 21
7099.952920982538
 31
0.0
  0
LINE
  5
18C63
330
18C60
100
AcDbEntity
  8
寸法
 62
     0
 48
50.0
370
    -2
100
AcDbLine
 10
6331.896575106966
 20
7749.123139034579
 30
0.0
 11
6331.896575106966
 21
7099.952920982538
 31
0.0
  0
LINE
  5
18C64
330
18C60
100
AcDbEntity
  8
寸法
 62
     0
 48
50.0
370
    -2
100
AcDbLine
 10
5065.896575106966
 20
7159.952920982537
 30
0.0
 11
6331.896575106966
 21
7159.952920982537
 31
0.0
  0
INSERT
  5
18C65
330
18C60
100
AcDbEntity
  8
寸法
 62
     0
 48
50.0
370
    -2
100
AcDbBlockReference
  2
_DOTSMALL
 10
5065.896575106966
 20
7159.952920982537
 30
0.0
 41
100.0
 42
100.0
 43
100.0
 50
180.0
  0
INSERT
  5
18C66
330
18C60
100
AcDbEntity
  8
寸法
 62
     0
 48
50.0
370
    -2
100
AcDbBlockReference
  2
_DOTSMALL
 10
6331.896575106966
 20
7159.952920982537
 30
0.0
 41
100.0
 42
100.0
 43
100.0
  0
MTEXT
  5
18C67
330
18C60
100
AcDbEntity
  8
寸法
 62
     7
 48
50.0
100
AcDbMText
 10
5711.986008735934
 20
7359.964732006159
 30
0.0
 40
120.0
 41
0.0
 71
     5
 72
     1
  1
\A1;有効開口部間口\P1266
  7
STYLE1
 73
     1
 44
1.0
1001
ACAD
1000
MTEXTBEGIN
1070
    73
1070
     1
1070
    44
1040
1.0
1070
    74
1070
     0
1000
MTEXTEND
  0
POINT
  5
18C68
330
18C60
100
AcDbEntity
  8
DEFPOINTS
 62
     0
 48
50.0
100
AcDbPoint
 10
5065.896575106966
 20
7769.123139034579
 30
0.0
  0
POINT
  5
18C69
330
18C60
100
AcDbEntity
  8
DEFPOINTS
 62
     0
 48
50.0
100
AcDbPoint
 10
6331.896575106966
 20
7769.123139034579
 30
0.0
  0
POINT
  5
18C6A
330
18C60
100
AcDbEntity
  8
DEFPOINTS
 62
     0
 48
50.0
100
AcDbPoint
 10
6331.896575106966
 20
7159.952920982537
 30
0.0
  0
ENDBLK
  5
18C6B
330
18C60
100
AcDbEntity
  8
0
 48
50.0
100
AcDbBlockEnd
  0
BLOCK
  5
18C6D
330
18C6C
100
AcDbEntity
  8
0
 48
50.0
100
AcDbBlockBegin
  2
*D16
 70
     1
 10
0.0
 20
0.0
 30
0.0
  3
*D16
  1

  0
LINE
  5
18C6E
330
18C6C
100
AcDbEntity
  8
寸法
 62
     0
 48
50.0
370
    -2
100
AcDbLine
 10
7200.896575106966
 20
7846.123139034578
 30
0.0
 11
7457.192158500191
 21
7846.123139034578
 31
0.0
  0
LINE
  5
18C6F
330
18C6C
100
AcDbEntity
  8
寸法
 62
     0
 48
50.0
370
    -2
100
AcDbLine
 10
7199.896575106966
 20
7769.123139034579
 30
0.0
 11
7457.192158500191
 21
7769.123139034579
 31
0.0
  0
LINE
  5
18C70
330
18C6C
100
AcDbEntity
  8
寸法
 62
     0
 48
50.0
370
    -2
100
AcDbLine
 10
7417.192158500192
 20
7866.123139034579
 30
0.0
 11
7417.192158500192
 21
7886.123139034578
 31
0.0
  0
LINE
  5
18C71
330
18C6C
100
AcDbEntity
  8
寸法
 62
     0
 48
50.0
370
    -2
100
AcDbLine
 10
7417.192158500192
 20
7749.123139034579
 30
0.0
 11
7417.192158500192
 21
7533.123139034573
 31
0.0
  0
LINE
  5
18C72
330
18C6C
100
AcDbEntity
  8
寸法
 62
     0
 48
50.0
370
    -2
100
AcDbLine
 10
7417.192158500192
 20
7846.123139034578
 30
0.0
 11
7417.192158500192
 21
7769.123139034579
 31
0.0
  0
INSERT
  5
18C73
330
18C6C
100
AcDbEntity
  8
寸法
 62
     0
 48
50.0
370
    -2
100
AcDbBlockReference
  2
_DOT
 10
7417.192158500192
 20
7846.123139034578
 30
0.0
 41
20.0
 42
20.0
 43
20.0
 50
270.0
  0
INSERT
  5
18C74
330
18C6C
100
AcDbEntity
  8
寸法
 62
     0
 48
50.0
370
    -2
100
AcDbBlockReference
  2
_DOT
 10
7417.192158500192
 20
7769.123139034579
 30
0.0
 41
20.0
 42
20.0
 43
20.0
 50
90.0
  0
MTEXT
  5
18C75
330
18C6C
100
AcDbEntity
  8
寸法
 62
     7
 48
50.0
100
AcDbMText
 10
7325.192158500191
 20
7631.123139034575
 30
0.0
 40
120.0
 41
0.0
 71
     5
 72
     1
  1
\A1;77
  7
STYLE1
 11
0.0000000000000001
 21
1.0
 31
0.0
 73
     1
 44
1.0
1001
ACAD
1000
MTEXTBEGIN
1070
    73
1070
     1
1070
    44
1040
1.0
1070
    74
1070
     0
1000
MTEXTEND
  0
POINT
  5
18C76
330
18C6C
100
AcDbEntity
  8
DEFPOINTS
 62
     0
 48
50.0
100
AcDbPoint
 10
7180.896575106967
 20
7846.123139034578
 30
0.0
  0
POINT
  5
18C77
330
18C6C
100
AcDbEntity
  8
DEFPOINTS
 62
     0
 48
50.0
100
AcDbPoint
 10
7179.896575106965
 20
7769.123139034579
 30
0.0
  0
POINT
  5
18C78
330
18C6C
100
AcDbEntity
  8
DEFPOINTS
 62
     0
 48
50.0
100
AcDbPoint
 10
7417.192158500192
 20
7769.123139034579
 30
0.0
  0
ENDBLK
  5
18C79
330
18C6C
100
AcDbEntity
  8
0
 48
50.0
100
AcDbBlockEnd
  0
BLOCK
  5
18DA0
330
18C7A
100
AcDbEntity
  8
0
 48
50.0
100
AcDbBlockBegin
  2
A$C3B1A506B
 70
     0
 10
0.0
 20
0.0
 30
0.0
  3
A$C3B1A506B
  1

  0
MTEXT
  5
18C7B
330
18C7A
100
AcDbEntity
  8
寸法
 62
     7
 48
50.0
100
AcDbMText
 10
3342.250386887194
 20
2778.329429134012
 30
0.0
 40
96.0
 41
0.0
 71
     5
 72
     1
  1
棚 2段
  7
STYLE1
 73
     1
 44
1.0
1001
ACAD
1000
MTEXTBEGIN
1070
    73
1070
     1
1070
    44
1040
1.0
1070
    74
1070
     0
1000
MTEXTEND
  0
MTEXT
  5
18C7C
330
18C7A
100
AcDbEntity
  8
寸法
 62
     7
 48
50.0
100
AcDbMText
 10
2167.25038688716
 20
2778.329429133986
 30
0.0
 40
96.0
 41
0.0
 71
     5
 72
     1
  1
棚 2段
  7
STYLE1
 73
     1
 44
1.0
1001
ACAD
1000
MTEXTBEGIN
1070
    73
1070
     1
1070
    44
1040
1.0
1070
    74
1070
     0
1000
MTEXTEND
  0
MTEXT
  5
18C7D
330
18C7A
100
AcDbEntity
  8
寸法
 62
     7
 48
50.0
100
AcDbMText
 10
992.2503868871608
 20
2778.329429133935
 30
0.0
 40
96.0
 41
0.0
 71
     5
 72
     1
  1
棚 2段
  7
STYLE1
 73
     1
 44
1.0
1001
ACAD
1000
MTEXTBEGIN
1070
    73
1070
     1
1070
    44
1040
1.0
1070
    74
1070
     0
1000
MTEXTEND
  0
LINE
  5
18C7E
330
18C7A
100
AcDbEntity
  8
細線
 48
50.0
100
AcDbLine
 10
2771.970589276527
 20
1368.994384123192
 30
0.0
 11
3398.970589276523
 21
1368.994384123192
 31
0.0
  0
LINE
  5
18C7F
330
18C7A
100
AcDbEntity
  8
細線
 48
50.0
100
AcDbLine
 10
2117.970593930113
 20
1335.285615569113
 30
0.0
 11
3398.970589276523
 21
1335.285615569113
 31
0.0
  0
LINE
  5
18C80
330
18C7A
100
AcDbEntity
  8
細線
 48
50.0
100
AcDbLine
 10
2076.970593930115
 20
1364.690523565368
 30
0.0
 11
1322.970589276523
 21
1364.690523565367
 31
0.0
  0
LINE
  5
18C81
330
18C7A
100
AcDbEntity
  8
細線
100
AcDbLine
 10
3170.720579860066
 20
1388.494284088199
 30
0.0
 11
3173.052119381877
 21
1393.494286728162
 31
0.0
  0
LINE
  5
18C82
330
18C7A
100
AcDbEntity
  8
細線
100
AcDbLine
 10
3240.720589276525
 20
1388.494269174465
 30
0.0
 11
3238.389042800336
 21
1393.494286728144
 31
0.0
  0
LINE
  5
18C83
330
18C7A
100
AcDbEntity
  8
細線
100
AcDbLine
 10
3238.389042800336
 20
1393.494286728144
 30
0.0
 11
3173.052119381862
 21
1393.494286728133
 31
0.0
  0
LINE
  5
18C84
330
18C7A
100
AcDbEntity
  8
細線
100
AcDbLine
 10
3098.389042800336
 20
1393.494286728144
 30
0.0
 11
3033.052119381862
 21
1393.494286728133
 31
0.0
  0
LINE
  5
18C85
330
18C7A
100
AcDbEntity
  8
細線
100
AcDbLine
 10
3100.720589276523
 20
1388.494269174465
 30
0.0
 11
3098.389042800336
 21
1393.494286728144
 31
0.0
  0
LINE
  5
18C86
330
18C7A
100
AcDbEntity
  8
細線
100
AcDbLine
 10
3030.720579860066
 20
1388.494284088199
 30
0.0
 11
3033.052119381875
 21
1393.494286728162
 31
0.0
  0
LINE
  5
18C87
330
18C7A
100
AcDbEntity
  8
細線
100
AcDbLine
 10
2890.720589276525
 20
1388.494269174465
 30
0.0
 11
2893.052128798336
 21
1393.494271814428
 31
0.0
  0
LINE
  5
18C88
330
18C7A
100
AcDbEntity
  8
細線
100
AcDbLine
 10
2960.720598692984
 20
1388.494254260731
 30
0.0
 11
2958.389052216793
 21
1393.49427181441
 31
0.0
  0
LINE
  5
18C89
330
18C7A
100
AcDbEntity
  8
細線
100
AcDbLine
 10
2958.389052216795
 20
1393.49427181441
 30
0.0
 11
2893.052128798321
 21
1393.494271814399
 31
0.0
  0
LINE
  5
18C8A
330
18C7A
100
AcDbEntity
  8
細線
100
AcDbLine
 10
2667.139038146739
 20
1359.494298590735
 30
0.0
 11
2601.802114728263
 21
1359.494298590724
 31
0.0
  0
LINE
  5
18C8B
330
18C7A
100
AcDbEntity
  8
細線
100
AcDbLine
 10
2669.470584622926
 20
1354.494281037055
 30
0.0
 11
2667.139038146737
 21
1359.494298590735
 31
0.0
  0
LINE
  5
18C8C
330
18C7A
100
AcDbEntity
  8
細線
100
AcDbLine
 10
2599.470575206469
 20
1354.49429595079
 30
0.0
 11
2601.802114728278
 21
1359.494298590752
 31
0.0
  0
LINE
  5
18C8D
330
18C7A
100
AcDbEntity
  8
細線
 48
50.0
100
AcDbLine
 10
2440.853968524536
 20
1372.765132327548
 30
0.0
 11
2446.609486107205
 21
1354.494281037057
 31
0.0
  0
LINE
  5
18C8E
330
18C7A
100
AcDbEntity
  8
細線
 48
50.0
100
AcDbLine
 10
2429.925520044106
 20
1372.765132327546
 30
0.0
 11
2440.853968524536
 21
1372.765132327548
 31
0.0
  0
ARC
  5
18C8F
330
18C7A
100
AcDbEntity
  8
細線
 48
50.0
100
AcDbCircle
 10
2424.471163986787
 20
1374.265132327546
 30
0.0
 40
5.0
100
AcDbArc
 50
204.6243183520723
 51
335.3756816479278
  0
ARC
  5
18C90
330
18C7A
100
AcDbEntity
  8
細線
 48
50.0
100
AcDbCircle
 10
2429.925520044106
 20
1371.765132327546
 30
0.0
 40
1.0
100
AcDbArc
 50
90.0
 51
155.3756816479277
  0
ARC
  5
18C91
330
18C7A
100
AcDbEntity
  8
細線
 48
50.0
100
AcDbCircle
 10
2419.016807929469
 20
1371.765132327546
 30
0.0
 40
1.0
100
AcDbArc
 50
24.62431835207225
 51
90.0
  0
LINE
  5
18C92
330
18C7A
100
AcDbEntity
  8
細線
 48
50.0
100
AcDbLine
 10
2408.088359449037
 20
1372.765132327548
 30
0.0
 11
2419.016807929469
 21
1372.765132327546
 31
0.0
  0
LINE
  5
18C93
330
18C7A
100
AcDbEntity
  8
細線
 48
50.0
100
AcDbLine
 10
2402.33284186637
 20
1354.494281037054
 30
0.0
 11
2408.088359449037
 21
1372.765132327548
 31
0.0
  0
LINE
  5
18C94
330
18C7A
100
AcDbEntity
  8
細線
100
AcDbLine
 10
2458.070304175992
 20
1354.494278397076
 30
0.0
 11
2460.401843697802
 21
1359.494281037039
 31
0.0
  0
LINE
  5
18C95
330
18C7A
100
AcDbEntity
  8
細線
100
AcDbLine
 10
2528.070313592451
 20
1354.494263483342
 30
0.0
 11
2525.738767116262
 21
1359.494281037021
 31
0.0
  0
LINE
  5
18C96
330
18C7A
100
AcDbEntity
  8
細線
100
AcDbLine
 10
2525.738767116262
 20
1359.494281037021
 30
0.0
 11
2460.40184369779
 21
1359.49428103701
 31
0.0
  0
LINE
  5
18C97
330
18C7A
100
AcDbEntity
  8
細線
100
AcDbLine
 10
2387.139046332155
 20
1359.494281037021
 30
0.0
 11
2321.80212291368
 21
1359.49428103701
 31
0.0
  0
LINE
  5
18C98
330
18C7A
100
AcDbEntity
  8
細線
100
AcDbLine
 10
2389.470592808342
 20
1354.494263483342
 30
0.0
 11
2387.139046332153
 21
1359.494281037021
 31
0.0
  0
LINE
  5
18C99
330
18C7A
100
AcDbEntity
  8
細線
100
AcDbLine
 10
2319.470584622926
 20
1354.494281037054
 30
0.0
 11
2321.802122913694
 21
1359.494281037039
 31
0.0
  0
LINE
  5
18C9A
330
18C7A
100
AcDbEntity
  8
細線
100
AcDbLine
 10
2179.47061994182
 20
1354.494289224422
 30
0.0
 11
2181.802158232587
 21
1359.494289224407
 31
0.0
  0
LINE
  5
18C9B
330
18C7A
100
AcDbEntity
  8
細線
100
AcDbLine
 10
2249.470628127236
 20
1354.49427167071
 30
0.0
 11
2247.139081651047
 21
1359.494289224389
 31
0.0
  0
LINE
  5
18C9C
330
18C7A
100
AcDbEntity
  8
細線
100
AcDbLine
 10
2247.139081651047
 20
1359.494289224389
 30
0.0
 11
2181.802158232573
 21
1359.494289224378
 31
0.0
  0
LINE
  5
18C9D
330
18C7A
100
AcDbEntity
  8
細線
100
AcDbLine
 10
1807.970585744697
 20
1320.494460905133
 30
0.0
 11
1810.302124035464
 21
1325.494460905118
 31
0.0
  0
LINE
  5
18C9E
330
18C7A
100
AcDbEntity
  8
細線
100
AcDbLine
 10
1877.970593930113
 20
1320.494443351421
 30
0.0
 11
1875.639047453926
 21
1325.4944609051
 31
0.0
  0
LINE
  5
18C9F
330
18C7A
100
AcDbEntity
  8
細線
100
AcDbLine
 10
1875.639047453926
 20
1325.4944609051
 30
0.0
 11
1810.302124035452
 21
1325.494460905089
 31
0.0
  0
LINE
  5
18CA0
330
18C7A
100
AcDbEntity
  8
細線
100
AcDbLine
 10
2015.639047453926
 20
1325.4944609051
 30
0.0
 11
1950.302124035452
 21
1325.494460905089
 31
0.0
  0
LINE
  5
18CA1
330
18C7A
100
AcDbEntity
  8
細線
100
AcDbLine
 10
2017.970593930113
 20
1320.494443351421
 30
0.0
 11
2015.639047453924
 21
1325.4944609051
 31
0.0
  0
LINE
  5
18CA2
330
18C7A
100
AcDbEntity
  8
細線
100
AcDbLine
 10
1947.970585744697
 20
1320.494460905133
 30
0.0
 11
1950.302124035465
 21
1325.494460905118
 31
0.0
  0
LINE
  5
18CA3
330
18C7A
100
AcDbEntity
  8
細線
100
AcDbLine
 10
1735.639047453926
 20
1325.494460905098
 30
0.0
 11
1670.302124035454
 21
1325.494460905087
 31
0.0
  0
LINE
  5
18CA4
330
18C7A
100
AcDbEntity
  8
細線
100
AcDbLine
 10
1737.970593930113
 20
1320.494443351419
 30
0.0
 11
1735.639047453926
 21
1325.494460905098
 31
0.0
  0
LINE
  5
18CA5
330
18C7A
100
AcDbEntity
  8
細線
100
AcDbLine
 10
1667.970585744697
 20
1320.494460905131
 30
0.0
 11
1670.302124035465
 21
1325.494460905116
 31
0.0
  0
LINE
  5
18CA6
330
18C7A
100
AcDbEntity
  8
細線
100
AcDbLine
 10
1527.970593930113
 20
1320.494460905133
 30
0.0
 11
1530.302132220881
 21
1325.494460905118
 31
0.0
  0
LINE
  5
18CA7
330
18C7A
100
AcDbEntity
  8
細線
100
AcDbLine
 10
1597.970602115529
 20
1320.494443351421
 30
0.0
 11
1595.639055639342
 21
1325.4944609051
 31
0.0
  0
LINE
  5
18CA8
330
18C7A
100
AcDbEntity
  8
細線
100
AcDbLine
 10
1595.639055639342
 20
1325.4944609051
 30
0.0
 11
1530.302132220869
 21
1325.494460905089
 31
0.0
  0
ARC
  5
18CA9
330
18C7A
100
AcDbEntity
  8
部品1
 48
0.01
100
AcDbCircle
 10
1483.470482677778
 20
1319.493338720063
 30
0.0
 40
0.5
100
AcDbArc
 50
270.0
 51
0.0
  0
LINE
  5
18CAA
330
18C7A
100
AcDbEntity
  8
部品1
 48
0.01
100
AcDbLine
 10
1483.970482677778
 20
1320.493338720063
 30
0.0
 11
1483.970482677778
 21
1319.493338720063
 31
0.0
  0
LINE
  5
18CAB
330
18C7A
100
AcDbEntity
  8
部品1
 48
0.01
100
AcDbLine
 10
1483.970482677778
 20
1320.493338720063
 30
0.0
 11
1483.970482677778
 21
1319.493338720063
 31
0.0
  0
LINE
  5
18CAC
330
18C7A
100
AcDbEntity
  8
部品1
 48
0.01
100
AcDbLine
 10
1483.470482677778
 20
1318.993338720063
 30
0.0
 11
1476.857977247713
 21
1318.993338720062
 31
0.0
  0
ARC
  5
18CAD
330
18C7A
100
AcDbEntity
  8
部品1
100
AcDbCircle
 10
1476.926326800494
 20
1319.993338720062
 30
0.0
 40
1.0
100
AcDbArc
 50
160.5287793655865
 51
270.0
  0
ARC
  5
18CAE
330
18C7A
100
AcDbEntity
  8
部品1
100
AcDbCircle
 10
1451.470482677778
 20
1328.993338720062
 30
0.0
 40
26.0
100
AcDbArc
 50
340.5287793655865
 51
0.0
  0
LINE
  5
18CAF
330
18C7A
100
AcDbEntity
  8
部品1
100
AcDbLine
 10
1477.470482677778
 20
1328.993338720062
 30
0.0
 11
1477.470482677778
 21
1333.993338720061
 31
0.0
  0
ARC
  5
18CB0
330
18C7A
100
AcDbEntity
  8
部品1
 48
0.01
100
AcDbCircle
 10
1475.470482677778
 20
1333.993338720061
 30
0.0
 40
2.0
100
AcDbArc
 50
0.0
 51
90.0
  0
ARC
  5
18CB1
330
18C7A
100
AcDbEntity
  8
部品1
100
AcDbCircle
 10
1473.862091052968
 20
1332.993338720062
 30
0.0
 40
3.0
100
AcDbArc
 50
90.0
 51
141.6069559808035
  0
LINE
  5
18CB2
330
18C7A
100
AcDbEntity
  8
部品1
 48
0.01
100
AcDbLine
 10
1475.470482677778
 20
1335.993338720062
 30
0.0
 11
1473.862091052968
 21
1335.993338720062
 31
0.0
  0
ARC
  5
18CB3
330
18C7A
100
AcDbEntity
  8
部品1
100
AcDbCircle
 10
1455.399768463507
 20
1332.293338720065
 30
0.0
 40
3.0
100
AcDbArc
 50
254.0576313943215
 51
270.0
  0
ARC
  5
18CB4
330
18C7A
100
AcDbEntity
  8
部品1
100
AcDbCircle
 10
1462.541196892049
 20
1332.293338720065
 30
0.0
 40
3.0
100
AcDbArc
 50
270.0
 51
285.9423686056786
  0
LINE
  5
18CB5
330
18C7A
100
AcDbEntity
  8
部品1
100
AcDbLine
 10
1462.541196892049
 20
1329.293338720064
 30
0.0
 11
1455.399768463507
 21
1329.293338720064
 31
0.0
  0
ARC
  5
18CB6
330
18C7A
100
AcDbEntity
  8
部品1
100
AcDbCircle
 10
1458.970482677778
 20
1344.793338720065
 30
0.0
 40
16.0
100
AcDbArc
 50
285.9423686056786
 51
321.6069559808035
  0
LINE
  5
18CB7
330
18C7A
100
AcDbEntity
  8
部品1
 48
0.01
100
AcDbLine
 10
1442.470482677778
 20
1335.993338720062
 30
0.0
 11
1444.078874302588
 21
1335.993338720062
 31
0.0
  0
ARC
  5
18CB8
330
18C7A
100
AcDbEntity
  8
部品1
100
AcDbCircle
 10
1444.078874302588
 20
1332.993338720062
 30
0.0
 40
3.0
100
AcDbArc
 50
38.39304401919648
 51
90.0
  0
ARC
  5
18CB9
330
18C7A
100
AcDbEntity
  8
部品1
100
AcDbCircle
 10
1458.970482677778
 20
1344.793338720065
 30
0.0
 40
16.0
100
AcDbArc
 50
218.3930440191965
 51
254.0576313943215
  0
LINE
  5
18CBA
330
18C7A
100
AcDbEntity
  8
部品1
100
AcDbLine
 10
1440.470482677778
 20
1328.993338720062
 30
0.0
 11
1440.470482677778
 21
1333.993338720061
 31
0.0
  0
ARC
  5
18CBB
330
18C7A
100
AcDbEntity
  8
部品1
 48
0.01
100
AcDbCircle
 10
1442.470482677778
 20
1333.993338720061
 30
0.0
 40
2.0
100
AcDbArc
 50
90.0
 51
180.0
  0
ARC
  5
18CBC
330
18C7A
100
AcDbEntity
  8
部品1
100
AcDbCircle
 10
1466.470482677778
 20
1328.993338720062
 30
0.0
 40
26.0
100
AcDbArc
 50
180.0
 51
199.4712206344134
  0
ARC
  5
18CBD
330
18C7A
100
AcDbEntity
  8
部品1
 48
0.01
100
AcDbCircle
 10
1434.470482677778
 20
1319.493338720063
 30
0.0
 40
0.5
100
AcDbArc
 50
180.0
 51
270.0
  0
LINE
  5
18CBE
330
18C7A
100
AcDbEntity
  8
部品1
 48
0.01
100
AcDbLine
 10
1434.470482677778
 20
1318.993338720063
 30
0.0
 11
1441.014638555061
 21
1318.993338720062
 31
0.0
  0
LINE
  5
18CBF
330
18C7A
100
AcDbEntity
  8
部品1
 48
0.01
100
AcDbLine
 10
1433.970482677778
 20
1320.493338720063
 30
0.0
 11
1433.970482677778
 21
1319.493338720063
 31
0.0
  0
ARC
  5
18CC0
330
18C7A
100
AcDbEntity
  8
部品1
100
AcDbCircle
 10
1441.014638555061
 20
1319.993338720062
 30
0.0
 40
1.0
100
AcDbArc
 50
270.0
 51
19.47122063441346
  0
LINE
  5
18CC1
330
18C7A
100
AcDbEntity
  8
細線
100
AcDbLine
 10
1479.470482677785
 20
1338.493338720065
 30
0.0
 11
1438.470482677785
 21
1338.493338720058
 31
0.0
  0
LINE
  5
18CC2
330
18C7A
100
AcDbEntity
  8
細線
100
AcDbLine
 10
1438.470482677785
 20
1338.493338720058
 30
0.0
 11
1438.470482677785
 21
1320.49333872004
 31
0.0
  0
LINE
  5
18CC3
330
18C7A
100
AcDbEntity
  8
細線
100
AcDbLine
 10
1479.470482677785
 20
1338.493338720065
 30
0.0
 11
1479.470482677785
 21
1320.49333872004
 31
0.0
  0
LINE
  5
18CC4
330
18C7A
100
AcDbEntity
  8
細線
100
AcDbLine
 10
1322.970589276523
 20
1324.494269174465
 30
0.0
 11
1322.970589276523
 21
1320.494269174513
 31
0.0
  0
LINE
  5
18CC5
330
18C7A
100
AcDbEntity
  8
寸法
 48
50.0
100
AcDbLine
 10
1746.17359555837
 20
1170.531020743327
 30
0.0
 11
1694.767587648266
 21
1170.531020743327
 31
0.0
  0
LINE
  5
18CC6
330
18C7A
100
AcDbEntity
  8
寸法
 48
50.0
100
AcDbLine
 10
1694.767587648266
 20
1170.531020743327
 30
0.0
 11
1694.767587648266
 21
1201.841179395494
 31
0.0
  0
LINE
  5
18CC7
330
18C7A
100
AcDbEntity
  8
寸法
 48
50.0
100
AcDbLine
 10
1694.767587648266
 20
1201.841179395494
 30
0.0
 11
1665.006255656843
 21
1201.841179395494
 31
0.0
  0
LINE
  5
18CC8
330
18C7A
100
AcDbEntity
  8
寸法
 48
50.0
100
AcDbLine
 10
1665.006255656843
 20
1201.841179395494
 30
0.0
 11
1720.470591603318
 21
1239.420630324105
 31
0.0
  0
LINE
  5
18CC9
330
18C7A
100
AcDbEntity
  8
寸法
 48
50.0
100
AcDbLine
 10
1775.934927549793
 20
1201.841179395494
 30
0.0
 11
1720.470591603318
 21
1239.420630324105
 31
0.0
  0
LINE
  5
18CCA
330
18C7A
100
AcDbEntity
  8
寸法
 48
50.0
100
AcDbLine
 10
1746.17359555837
 20
1201.841179395494
 30
0.0
 11
1775.934927549793
 21
1201.841179395494
 31
0.0
  0
LINE
  5
18CCB
330
18C7A
100
AcDbEntity
  8
寸法
 48
50.0
100
AcDbLine
 10
1746.17359555837
 20
1170.531020743327
 30
0.0
 11
1746.17359555837
 21
1201.841179395494
 31
0.0
  0
LINE
  5
18CCC
330
18C7A
100
AcDbEntity
  8
寸法
 48
50.0
100
AcDbLine
 10
1694.767587648266
 20
1170.531020743327
 30
0.0
 11
1746.17359555837
 21
1170.531020743327
 31
0.0
  0
LINE
  5
18CCD
330
18C7A
100
AcDbEntity
  8
寸法
 48
50.0
100
AcDbLine
 10
2025.339129835225
 20
1227.676611498152
 30
0.0
 11
2025.339129835225
 21
1174.01297691636
 31
0.0
  0
LINE
  5
18CCE
330
18C7A
100
AcDbEntity
  8
寸法
 48
50.0
100
AcDbLine
 10
2114.623348430647
 20
1203.752977228664
 30
0.0
 11
2025.339129835225
 21
1227.676611498152
 31
0.0
  0
LINE
  5
18CCF
330
18C7A
100
AcDbEntity
  8
寸法
 48
50.0
100
AcDbLine
 10
1895.471408254923
 20
1203.752977228664
 30
0.0
 11
2114.623348430647
 21
1203.752977228664
 31
0.0
  0
DIMENSION
  5
18CD0
330
18C7A
100
AcDbEntity
  8
寸法
 48
50.0
100
AcDbDimension
  2
*D15
 10
2588.970589276523
 20
706.3240511224249
 30
0.0
 11
1969.060022905491
 21
706.3240511224249
 31
0.0
 12
-3742.925985830444
 22
-6453.628869860112
 32
0.0
 70
   128
  1
有効開口部間口\P<>
 71
     5
 42
1266.0
  3
INABA_S40G
100
AcDbAlignedDimension
 13
1322.970589276523
 23
1315.494269174465
 33
0.0
 14
2588.970589276523
 24
1315.494269174465
 34
0.0
100
AcDbRotatedDimension
1001
ACAD
1000
DSTYLE
1002
{
1070
   341
1005
0
1002
}
  0
LINE
  5
18CD1
330
18C7A
100
AcDbEntity
  8
部品1
100
AcDbLine
 10
3409.970589276524
 20
1392.494269174465
 30
0.0
 11
3437.970589276523
 21
1392.494269174465
 31
0.0
  0
DIMENSION
  5
18CD2
330
18C7A
100
AcDbEntity
  8
寸法
100
AcDbDimension
  2
*D16
 10
3674.266172669749
 20
1315.494269174465
 30
0.0
 11
3674.266172669748
 21
1177.494269174462
 31
0.0
 12
-3742.925985830444
 22
-6453.628869860112
 32
0.0
 70
   128
 71
     5
 42
77.0
  3
INABA_S40
100
AcDbAlignedDimension
 13
3437.970589276523
 23
1392.494269174465
 33
0.0
 14
3436.970589276523
 24
1315.494269174465
 34
0.0
 50
90.0
100
AcDbRotatedDimension
1001
ACAD
1000
DSTYLE
1002
{
1070
    41
1040
0.5
1070
    44
1040
1.0
1070
   147
1040
0.8
1070
   271
1070
     2
1070
   272
1070
     2
1070
   289
1070
     3
1070
   340
1005
F706
1070
   343
1005
164B4
1070
   344
1005
164B4
1002
}
  0
LINE
  5
18CD3
330
18C7A
100
AcDbEntity
  8
部品1
100
AcDbLine
 10
3437.970589276523
 20
1315.494269174465
 30
0.0
 11
3437.970589276523
 21
1392.494269174465
 31
0.0
  0
LINE
  5
18CD4
330
18C7A
100
AcDbEntity
  8
部品1
100
AcDbLine
 10
3398.970589276523
 20
1388.494269174465
 30
0.0
 11
3409.970589276524
 21
1388.494269174465
 31
0.0
  0
LINE
  5
18CD5
330
18C7A
100
AcDbEntity
  8
部品1
100
AcDbLine
 10
3407.970589276523
 20
1324.494269174465
 30
0.0
 11
3407.970589276523
 21
1315.494269174465
 31
0.0
  0
LINE
  5
18CD6
330
18C7A
100
AcDbEntity
  8
部品1
100
AcDbLine
 10
3398.970589276523
 20
1324.494269174465
 30
0.0
 11
3407.970589276523
 21
1324.494269174465
 31
0.0
  0
LINE
  5
18CD7
330
18C7A
100
AcDbEntity
  8
部品1
100
AcDbLine
 10
3398.970589276523
 20
1388.494269174465
 30
0.0
 11
3398.970589276523
 21
1324.494269174465
 31
0.0
  0
LINE
  5
18CD8
330
18C7A
100
AcDbEntity
  8
部品1
100
AcDbLine
 10
3409.970589276524
 20
1419.494269174465
 30
0.0
 11
3409.970589276524
 21
1388.494269174465
 31
0.0
  0
LINE
  5
18CD9
330
18C7A
100
AcDbEntity
  8
部品1
100
AcDbLine
 10
1322.970589276523
 20
1388.494269174465
 30
0.0
 11
1311.970589276523
 21
1388.494269174465
 31
0.0
  0
LINE
  5
18CDA
330
18C7A
100
AcDbEntity
  8
部品1
100
AcDbLine
 10
1283.970589276523
 20
1392.494269174465
 30
0.0
 11
1311.970589276523
 21
1392.494269174465
 31
0.0
  0
LINE
  5
18CDB
330
18C7A
100
AcDbEntity
  8
部品1
100
AcDbLine
 10
1313.970589276523
 20
1324.494269174465
 30
0.0
 11
1313.970589276523
 21
1315.494269174465
 31
0.0
  0
LINE
  5
18CDC
330
18C7A
100
AcDbEntity
  8
部品1
100
AcDbLine
 10
1322.970589276523
 20
1324.494269174465
 30
0.0
 11
1313.970589276523
 21
1324.494269174465
 31
0.0
  0
LINE
  5
18CDD
330
18C7A
100
AcDbEntity
  8
部品1
100
AcDbLine
 10
1313.970589276523
 20
1315.494269174465
 30
0.0
 11
1283.970589276523
 21
1315.494269174465
 31
0.0
  0
LINE
  5
18CDE
330
18C7A
100
AcDbEntity
  8
部品1
100
AcDbLine
 10
1283.970589276523
 20
1315.494269174465
 30
0.0
 11
1283.970589276523
 21
1392.494269174465
 31
0.0
  0
LINE
  5
18CDF
330
18C7A
100
AcDbEntity
  8
部品1
100
AcDbLine
 10
1322.970589276523
 20
1388.494269174465
 30
0.0
 11
1322.970589276523
 21
1324.494269174465
 31
0.0
  0
LINE
  5
18CE0
330
18C7A
100
AcDbEntity
  8
部品1
100
AcDbLine
 10
1311.970589276523
 20
1419.494269174462
 30
0.0
 11
1311.970589276523
 21
1388.494269174465
 31
0.0
  0
LINE
  5
18CE1
330
18C7A
100
AcDbEntity
  8
部品1
100
AcDbLine
 10
1311.970589276523
 20
1419.494269174462
 30
0.0
 11
3409.970589276524
 21
1419.494269174465
 31
0.0
  0
LINE
  5
18CE2
330
18C7A
100
AcDbEntity
  8
部品1
100
AcDbLine
 10
3407.970589276523
 20
1315.494269174465
 30
0.0
 11
3437.970589276523
 21
1315.494269174465
 31
0.0
  0
LINE
  5
18CE3
330
18C7A
100
AcDbEntity
  8
部品1
100
AcDbLine
 10
1313.970589276523
 20
1315.494269174465
 30
0.0
 11
3410.970589276523
 21
1315.494269174465
 31
0.0
  0
LINE
  5
18CE4
330
18C7A
100
AcDbEntity
  8
細線
  6
Continuous
 62
     5
100
AcDbLine
 10
2689.970589276527
 20
1354.494269174462
 30
0.0
 11
2689.970589276527
 21
1354.494269174462
 31
0.0
  0
LINE
  5
18CE5
330
18C7A
100
AcDbEntity
  8
細線
  6
Continuous
 62
     5
100
AcDbLine
 10
2682.470589276527
 20
1354.494269174462
 30
0.0
 11
2682.470589276527
 21
1354.494269174462
 31
0.0
  0
LINE
  5
18CE6
330
18C7A
100
AcDbEntity
  8
細線
  6
Continuous
 62
     5
100
AcDbLine
 10
2676.470589276527
 20
1354.494269174462
 30
0.0
 11
2676.470589276527
 21
1354.494269174462
 31
0.0
  0
LINE
  5
18CE7
330
18C7A
100
AcDbEntity
  8
細線
  6
Continuous
 62
     5
100
AcDbLine
 10
2743.970589276527
 20
1373.494269174462
 30
0.0
 11
2743.970589276527
 21
1373.494269174462
 31
0.0
  0
LINE
  5
18CE8
330
18C7A
100
AcDbEntity
  8
細線
 48
50.0
100
AcDbLine
 10
1336.970593930116
 20
1341.094443351418
 30
0.0
 11
1336.970593930113
 21
1349.490593759059
 31
0.0
  0
LINE
  5
18CE9
330
18C7A
100
AcDbEntity
  8
細線
 48
50.0
100
AcDbLine
 10
1336.970593930113
 20
1349.490593759059
 30
0.0
 11
1322.970589276523
 21
1349.490593759057
 31
0.0
  0
LINE
  5
18CEA
330
18C7A
100
AcDbEntity
  8
細線
 48
50.0
100
AcDbLine
 10
2087.970593930113
 20
1337.644443351419
 30
0.0
 11
2087.970593930113
 21
1342.494443351421
 31
0.0
  0
LINE
  5
18CEB
330
18C7A
100
AcDbEntity
  8
細線
 48
50.0
100
AcDbLine
 10
2087.970593930113
 20
1342.494443351421
 30
0.0
 11
2102.970593930113
 21
1342.494443351421
 31
0.0
  0
LINE
  5
18CEC
330
18C7A
100
AcDbEntity
  8
細線
 48
50.0
100
AcDbLine
 10
2102.970593930113
 20
1342.494443351421
 30
0.0
 11
2102.970593930115
 21
1349.494443351419
 31
0.0
  0
LINE
  5
18CED
330
18C7A
100
AcDbEntity
  8
細線
 48
50.0
100
AcDbLine
 10
2102.970593930115
 20
1349.494443351419
 30
0.0
 11
2117.970593930113
 21
1349.494443351419
 31
0.0
  0
LINE
  5
18CEE
330
18C7A
100
AcDbEntity
  8
細線
 48
50.0
100
AcDbLine
 10
2117.970593930113
 20
1349.494443351419
 30
0.0
 11
2117.970593930113
 21
1320.494443351421
 31
0.0
  0
LINE
  5
18CEF
330
18C7A
100
AcDbEntity
  8
細線
 48
50.0
100
AcDbLine
 10
1313.970589276523
 20
1320.491777694889
 30
0.0
 11
1527.970593930113
 21
1320.494460905133
 31
0.0
  0
LINE
  5
18CF0
330
18C7A
100
AcDbEntity
  8
細線
 48
50.0
100
AcDbLine
 10
2017.970593930113
 20
1320.494443351421
 30
0.0
 11
2117.970593930113
 21
1320.494443351421
 31
0.0
  0
LINE
  5
18CF1
330
18C7A
100
AcDbEntity
  8
細線
 48
50.0
100
AcDbLine
 10
1737.970593930113
 20
1320.494443351419
 30
0.0
 11
1807.970593930113
 21
1320.494443351423
 31
0.0
  0
LINE
  5
18CF2
330
18C7A
100
AcDbEntity
  8
細線
 48
50.0
100
AcDbLine
 10
1750.832558942642
 20
1320.494443351419
 30
0.0
 11
1756.588076525309
 21
1338.765294641913
 31
0.0
  0
LINE
  5
18CF3
330
18C7A
100
AcDbEntity
  8
細線
 48
50.0
100
AcDbLine
 10
1756.588076525309
 20
1338.765294641913
 30
0.0
 11
1767.516525005743
 21
1338.765294641911
 31
0.0
  0
ARC
  5
18CF4
330
18C7A
100
AcDbEntity
  8
細線
 48
50.0
100
AcDbCircle
 10
1767.516525005743
 20
1337.765294641911
 30
0.0
 40
1.0
100
AcDbArc
 50
24.62431835207225
 51
90.0
  0
ARC
  5
18CF5
330
18C7A
100
AcDbEntity
  8
細線
 48
50.0
100
AcDbCircle
 10
1778.425237120377
 20
1337.765294641911
 30
0.0
 40
1.0
100
AcDbArc
 50
90.0
 51
155.3756816479277
  0
ARC
  5
18CF6
330
18C7A
100
AcDbEntity
  8
細線
 48
50.0
100
AcDbCircle
 10
1772.970881063058
 20
1340.265294641911
 30
0.0
 40
5.0
100
AcDbArc
 50
204.6243183520723
 51
335.3756816479278
  0
LINE
  5
18CF7
330
18C7A
100
AcDbEntity
  8
細線
 48
50.0
100
AcDbLine
 10
1778.425237120377
 20
1338.765294641911
 30
0.0
 11
1789.35368560081
 21
1338.765294641913
 31
0.0
  0
LINE
  5
18CF8
330
18C7A
100
AcDbEntity
  8
細線
 48
50.0
100
AcDbLine
 10
1789.35368560081
 20
1338.765294641913
 30
0.0
 11
1795.109203183478
 21
1320.494443351423
 31
0.0
  0
LINE
  5
18CF9
330
18C7A
100
AcDbEntity
  8
細線
 48
50.0
100
AcDbLine
 10
2087.970593930113
 20
1341.094443351419
 30
0.0
 11
1336.970593930116
 21
1341.094443351418
 31
0.0
  0
LINE
  5
18CFA
330
18C7A
100
AcDbEntity
  8
細線
 48
50.0
100
AcDbLine
 10
1947.970593930113
 20
1320.494443351421
 30
0.0
 11
1877.970593930113
 21
1320.494443351421
 31
0.0
  0
LINE
  5
18CFB
330
18C7A
100
AcDbEntity
  8
細線
100
AcDbLine
 10
1667.970593930113
 20
1320.494443351421
 30
0.0
 11
1597.970602115529
 21
1320.494443351421
 31
0.0
  0
LINE
  5
18CFC
330
18C7A
100
AcDbEntity
  8
細線
 48
50.0
100
AcDbLine
 10
2741.970584622936
 20
1375.094487209288
 30
0.0
 11
2106.970593930113
 21
1375.094487209284
 31
0.0
  0
LINE
  5
18CFD
330
18C7A
100
AcDbEntity
  8
細線
 48
50.0
100
AcDbLine
 10
2106.970593930113
 20
1371.990637616925
 30
0.0
 11
2106.970593930113
 21
1376.490637616925
 31
0.0
  0
LINE
  5
18CFE
330
18C7A
100
AcDbEntity
  8
細線
 48
50.0
100
AcDbLine
 10
2106.970593930113
 20
1376.490637616925
 30
0.0
 11
2091.970593930113
 21
1376.490637616925
 31
0.0
  0
LINE
  5
18CFF
330
18C7A
100
AcDbEntity
  8
細線
 48
50.0
100
AcDbLine
 10
2091.970593930113
 20
1376.490637616925
 30
0.0
 11
2091.970593930113
 21
1383.490637616927
 31
0.0
  0
LINE
  5
18D00
330
18C7A
100
AcDbEntity
  8
細線
 48
50.0
100
AcDbLine
 10
2091.970593930113
 20
1383.490637616927
 30
0.0
 11
2076.970593930115
 21
1383.490637616924
 31
0.0
  0
LINE
  5
18D01
330
18C7A
100
AcDbEntity
  8
細線
 48
50.0
100
AcDbLine
 10
2076.970593930115
 20
1383.490637616924
 30
0.0
 11
2076.970593930115
 21
1345.890409513813
 31
0.0
  0
LINE
  5
18D02
330
18C7A
100
AcDbEntity
  8
細線
 48
50.0
100
AcDbLine
 10
2076.970593930115
 20
1345.890409513813
 30
0.0
 11
2096.970601231289
 21
1345.890451063353
 31
0.0
  0
LINE
  5
18D03
330
18C7A
100
AcDbEntity
  8
細線
 48
50.0
100
AcDbLine
 10
2096.970556362348
 20
1354.493912699161
 30
0.0
 11
2096.970601231289
 21
1345.890451063353
 31
0.0
  0
LINE
  5
18D04
330
18C7A
100
AcDbEntity
  8
細線
 48
50.0
100
AcDbLine
 10
2741.970584622936
 20
1371.644487209287
 30
0.0
 11
2741.970584622936
 21
1376.494487209284
 31
0.0
  0
LINE
  5
18D05
330
18C7A
100
AcDbEntity
  8
細線
 48
50.0
100
AcDbLine
 10
2741.970584622936
 20
1376.494487209284
 30
0.0
 11
2756.970584622934
 21
1376.494487209285
 31
0.0
  0
LINE
  5
18D06
330
18C7A
100
AcDbEntity
  8
細線
 48
50.0
100
AcDbLine
 10
2756.970584622934
 20
1376.494487209285
 30
0.0
 11
2756.970596256909
 21
1383.494487209331
 31
0.0
  0
LINE
  5
18D07
330
18C7A
100
AcDbEntity
  8
細線
 48
50.0
100
AcDbLine
 10
2756.970596256909
 20
1383.494487209331
 30
0.0
 11
2771.970594427439
 21
1383.494487209329
 31
0.0
  0
LINE
  5
18D08
330
18C7A
100
AcDbEntity
  8
細線
 48
50.0
100
AcDbLine
 10
2771.970594427439
 20
1383.494487209329
 30
0.0
 11
2771.970584125617
 21
1354.494281037055
 31
0.0
  0
LINE
  5
18D09
330
18C7A
100
AcDbEntity
  8
細線
 48
50.0
100
AcDbLine
 10
2458.070304175992
 20
1354.494278397076
 30
0.0
 11
2389.470863838818
 21
1354.494283787084
 31
0.0
  0
LINE
  5
18D0A
330
18C7A
100
AcDbEntity
  8
細線
 48
50.0
100
AcDbLine
 10
2096.970556362348
 20
1354.493912699161
 30
0.0
 11
2108.203245717057
 21
1354.494095652309
 31
0.0
  0
ARC
  5
18D0B
330
18C7A
100
AcDbEntity
  8
細線
 48
50.0
100
AcDbCircle
 10
2114.785538024393
 20
1353.294259565922
 30
0.0
 40
1.8
100
AcDbArc
 50
270.0006665777295
 51
345.000555481349
  0
LINE
  5
18D0C
330
18C7A
100
AcDbEntity
  8
細線
 48
50.0
100
AcDbLine
 10
2116.771971470473
 20
1353.753100023201
 30
0.0
 11
2116.524209028273
 21
1352.828402141094
 31
0.0
  0
LINE
  5
18D0D
330
18C7A
100
AcDbEntity
  8
細線
 48
50.0
100
AcDbLine
 10
2114.785558965548
 20
1351.494259566043
 30
0.0
 11
2111.155631546781
 21
1351.494217335563
 31
0.0
  0
ARC
  5
18D0E
330
18C7A
100
AcDbEntity
  8
細線
 48
50.0
100
AcDbCircle
 10
2111.155610605627
 20
1353.29421733544
 30
0.0
 40
1.8
100
AcDbArc
 50
195.0010443049965
 51
270.0006665777295
  0
LINE
  5
18D0F
330
18C7A
100
AcDbEntity
  8
細線
 48
50.0
100
AcDbLine
 10
2109.169183113368
 20
1353.752932303007
 30
0.0
 11
2109.416952609882
 21
1352.828311364425
 31
0.0
  0
ARC
  5
18D10
330
18C7A
100
AcDbEntity
  8
細線
 48
50.0
100
AcDbCircle
 10
2108.203262004622
 20
1353.494095652444
 30
0.0
 40
1.0
100
AcDbArc
 50
15.00104430499651
 51
90.00093320877969
  0
LINE
  5
18D11
330
18C7A
100
AcDbEntity
  8
細線
 48
50.0
100
AcDbLine
 10
2117.737892825577
 20
1354.494290342714
 30
0.0
 11
2118.679652976481
 21
1354.494296916564
 31
0.0
  0
ARC
  5
18D12
330
18C7A
100
AcDbEntity
  8
細線
 48
50.0
100
AcDbCircle
 10
2117.737899805961
 20
1353.49429034274
 30
0.0
 40
1.0
100
AcDbArc
 50
90.0003999466794
 51
165.000555481349
  0
LINE
  5
18D13
330
18C7A
100
AcDbEntity
  8
細線
 48
50.0
100
AcDbLine
 10
2669.470584622926
 20
1354.494281037055
 30
0.0
 11
2771.970584125617
 21
1354.494281037055
 31
0.0
  0
LINE
  5
18D14
330
18C7A
100
AcDbEntity
  8
細線
 48
50.0
100
AcDbLine
 10
2179.47061994182
 20
1354.494289224422
 30
0.0
 11
2118.370558714898
 21
1354.494296916564
 31
0.0
  0
LINE
  5
18D15
330
18C7A
100
AcDbEntity
  8
細線
 48
50.0
100
AcDbLine
 10
2599.470584622926
 20
1354.494281037057
 30
0.0
 11
2529.470584622926
 21
1354.494281037055
 31
0.0
  0
LINE
  5
18D16
330
18C7A
100
AcDbEntity
  8
細線
 48
50.0
100
AcDbLine
 10
2319.470584622926
 20
1354.494281037054
 30
0.0
 11
2249.470567335051
 21
1354.494281037057
 31
0.0
  0
ARC
  5
18D17
330
18C7A
100
AcDbEntity
  8
細線
 48
50.0
100
AcDbCircle
 10
2756.170589276533
 20
1387.694269174466
 30
0.0
 40
0.8
100
AcDbArc
 50
359.9997333689499
 51
89.99986668437072
  0
ARC
  5
18D18
330
18C7A
100
AcDbEntity
  8
細線
 48
50.0
100
AcDbCircle
 10
2763.770596101631
 20
1387.694280343081
 30
0.0
 40
0.8
100
AcDbArc
 50
90.00014387753465
 51
179.9997333689498
  0
LINE
  5
18D19
330
18C7A
100
AcDbEntity
  8
細線
 48
50.0
100
AcDbLine
 10
2756.170591137969
 20
1388.494269174465
 30
0.0
 11
2750.970589276525
 21
1388.494269174465
 31
0.0
  0
ARC
  5
18D1A
330
18C7A
100
AcDbEntity
  8
細線
 48
50.0
100
AcDbCircle
 10
2757.670589276524
 20
1386.194269174464
 30
0.0
 40
0.7
100
AcDbArc
 50
180.0
 51
270.0
  0
ARC
  5
18D1B
330
18C7A
100
AcDbEntity
  8
細線
 48
50.0
100
AcDbCircle
 10
2762.270589276524
 20
1386.194269174464
 30
0.0
 40
0.7
100
AcDbArc
 50
270.0
 51
0.0
  0
LINE
  5
18D1C
330
18C7A
100
AcDbEntity
  8
細線
 48
50.0
100
AcDbLine
 10
2762.970589276525
 20
1386.194269174464
 30
0.0
 11
2762.970596101639
 21
1387.694284065954
 31
0.0
  0
LINE
  5
18D1D
330
18C7A
100
AcDbEntity
  8
細線
 48
50.0
100
AcDbLine
 10
2757.670589276524
 20
1385.494269174465
 30
0.0
 11
2762.270589276524
 21
1385.494269174465
 31
0.0
  0
LINE
  5
18D1E
330
18C7A
100
AcDbEntity
  8
細線
 48
50.0
100
AcDbLine
 10
2756.970589276525
 20
1387.694269174466
 30
0.0
 11
2756.970589276525
 21
1386.194269174464
 31
0.0
  0
LINE
  5
18D1F
330
18C7A
100
AcDbEntity
  8
細線
 48
50.0
100
AcDbLine
 10
3382.570589276527
 20
1418.494269174465
 30
0.0
 11
2745.970589276525
 21
1418.494269174463
 31
0.0
  0
LINE
  5
18D20
330
18C7A
100
AcDbEntity
  8
細線
 48
50.0
100
AcDbLine
 10
3408.470589276525
 20
1413.494269174467
 30
0.0
 11
3392.570589276527
 21
1413.494269174465
 31
0.0
  0
LINE
  5
18D21
330
18C7A
100
AcDbEntity
  8
細線
 48
50.0
100
AcDbLine
 10
3392.570589276526
 20
1413.494269174465
 30
0.0
 11
3382.570589276527
 21
1418.494269174465
 31
0.0
  0
LINE
  5
18D22
330
18C7A
100
AcDbEntity
  8
細線
100
AcDbLine
 10
2993.470589276525
 20
1388.494269174465
 30
0.0
 11
2993.470589276525
 21
1417.794269174464
 31
0.0
  0
LINE
  5
18D23
330
18C7A
100
AcDbEntity
  8
細線
100
AcDbLine
 10
2993.470589276525
 20
1417.794269174464
 30
0.0
 11
3013.470589276525
 21
1417.794269174464
 31
0.0
  0
LINE
  5
18D24
330
18C7A
100
AcDbEntity
  8
細線
100
AcDbLine
 10
3013.470589276525
 20
1388.494269174465
 30
0.0
 11
3013.470589276525
 21
1417.794269174464
 31
0.0
  0
LINE
  5
18D25
330
18C7A
100
AcDbEntity
  8
細線
100
AcDbLine
 10
3170.720589276524
 20
1388.494269174465
 30
0.0
 11
3100.720589276523
 21
1388.494269174465
 31
0.0
  0
LINE
  5
18D26
330
18C7A
100
AcDbEntity
  8
細線
 48
50.0
100
AcDbLine
 10
2890.720589276525
 20
1388.494269174465
 30
0.0
 11
2763.766368849365
 21
1388.494269174465
 31
0.0
  0
LINE
  5
18D27
330
18C7A
100
AcDbEntity
  8
細線
100
AcDbLine
 10
3030.720589276525
 20
1388.494269174465
 30
0.0
 11
2960.720589276525
 21
1388.494269174465
 31
0.0
  0
LINE
  5
18D28
330
18C7A
100
AcDbEntity
  8
細線
 48
50.0
100
AcDbLine
 10
2750.970589276525
 20
1380.494269174465
 30
0.0
 11
2750.970589276525
 21
1388.494269174465
 31
0.0
  0
LINE
  5
18D29
330
18C7A
100
AcDbEntity
  8
細線
 48
50.0
100
AcDbLine
 10
2730.970589276524
 20
1380.494269174467
 30
0.0
 11
2750.970589276525
 21
1380.494269174465
 31
0.0
  0
LINE
  5
18D2A
330
18C7A
100
AcDbEntity
  8
細線
 48
50.0
100
AcDbLine
 10
2745.970589276525
 20
1418.494269174465
 30
0.0
 11
2745.970589276525
 21
1413.494269174465
 31
0.0
  0
LINE
  5
18D2B
330
18C7A
100
AcDbEntity
  8
細線
 48
50.0
100
AcDbLine
 10
2730.970589276525
 20
1418.494269174463
 30
0.0
 11
2745.970589276525
 21
1418.494269174465
 31
0.0
  0
LINE
  5
18D2C
330
18C7A
100
AcDbEntity
  8
細線
 48
50.0
100
AcDbLine
 10
2730.970589276524
 20
1380.494269174467
 30
0.0
 11
2730.970589276525
 21
1418.494269174463
 31
0.0
  0
LINE
  5
18D2D
330
18C7A
100
AcDbEntity
  8
細線
100
AcDbLine
 10
3398.970589276523
 20
1388.494269174465
 30
0.0
 11
3240.720589276525
 21
1388.494269174465
 31
0.0
  0
LINE
  5
18D2E
330
18C7A
100
AcDbEntity
  8
細線
 48
50.0
100
AcDbLine
 10
3408.470589276525
 20
1413.494269174467
 30
0.0
 11
3408.470589276524
 21
1388.494269174465
 31
0.0
  0
TEXT
  5
18D2F
330
18C7A
100
AcDbEntity
  8
部品1
100
AcDbText
 10
1860.154865991392
 20
46.99880823813145
 30
0.0
 40
135.0
  1
平面図
  7
STYLE2
100
AcDbText
  0
LWPOLYLINE
  5
18D30
330
18C7A
100
AcDbEntity
  8
部品1
100
AcDbPolyline
 90
        4
 70
     1
 43
0.0
 10
1770.23525616235
 20
239.8923374566548
 10
1770.23525616235
 20
0.0000159111223184
 10
2533.705922390791
 20
0.0000159111223184
 10
2533.705922390791
 20
239.8923374566548
  0
LINE
  5
18D31
330
18C7A
100
AcDbEntity
  8
部品1
100
AcDbLine
 10
1534.470589276487
 20
3154.494269174626
 30
0.0
 11
2769.470589276552
 21
3154.494269174626
 31
0.0
  0
LINE
  5
18D32
330
18C7A
100
AcDbEntity
  8
部品1
 48
50.0
100
AcDbLine
 10
1311.970589276523
 20
1420.494269174462
 30
0.0
 11
3411.970589276523
 21
1420.494269174465
 31
0.0
  0
LINE
  5
18D33
330
18C7A
100
AcDbEntity
  8
部品1
 48
50.0
100
AcDbLine
 10
471.9705892765232
 20
1392.494269174465
 30
0.0
 11
1311.970589276523
 21
1392.494269174465
 31
0.0
  0
DIMENSION
  5
18D34
330
18C7A
100
AcDbEntity
  8
寸法
100
AcDbDimension
  2
*D14
 10
2710.234916278077
 20
2488.887829538828
 30
0.0
 11
2338.318822490183
 21
2488.887829538828
 31
0.0
 12
-3742.925985830444
 22
-6453.628869860112
 32
0.0
 70
   128
 71
     5
 42
1231.00000000007
  3
INABA_S40G
100
AcDbAlignedDimension
 13
1536.470589276486
 23
2702.494269174557
 33
0.0
 14
2767.470589276556
 24
2702.494269174549
 34
0.0
100
AcDbRotatedDimension
1001
ACAD
1000
DSTYLE
1002
{
1002
}
  0
LINE
  5
18D35
330
18C7A
100
AcDbEntity
  8
部品1
100
AcDbLine
 10
1536.470589276487
 20
2702.494269174557
 30
0.0
 11
2767.470589276554
 21
2702.494269174615
 31
0.0
  0
LINE
  5
18D36
330
18C7A
100
AcDbEntity
  8
部品1
100
AcDbLine
 10
1536.470589276487
 20
3152.494269174557
 30
0.0
 11
2767.470589276556
 21
3152.494269174615
 31
0.0
  0
LINE
  5
18D37
330
18C7A
100
AcDbEntity
  8
細線
 48
50.0
100
AcDbLine
 10
1508.470589276487
 20
3152.494269174558
 30
0.0
 11
445.4705892765559
 21
2702.494269174509
 31
0.0
  0
LINE
  5
18D38
330
18C7A
100
AcDbEntity
  8
細線
 48
50.0
100
AcDbLine
 10
1508.470589276487
 20
2702.494269174558
 30
0.0
 11
445.4705892765542
 21
3152.494269174509
 31
0.0
  0
LINE
  5
18D39
330
18C7A
100
AcDbEntity
  8
部品1
100
AcDbLine
 10
1556.970589276487
 20
3172.494269174611
 30
0.0
 11
1556.970589276487
 21
3154.494269174611
 31
0.0
  0
LINE
  5
18D3A
330
18C7A
100
AcDbEntity
  8
部品1
100
AcDbLine
 10
1556.970589276487
 20
3172.494269174611
 30
0.0
 11
1550.970589276487
 21
3172.494269174611
 31
0.0
  0
LINE
  5
18D3B
330
18C7A
100
AcDbEntity
  8
部品1
100
AcDbLine
 10
1534.470589276487
 20
3146.494269174608
 30
0.0
 11
1509.470589276487
 21
3146.494269174611
 31
0.0
  0
LINE
  5
18D3C
330
18C7A
100
AcDbEntity
  8
部品1
100
AcDbLine
 10
1486.970589276487
 20
3172.494269174611
 30
0.0
 11
1486.970589276487
 21
3154.494269174611
 31
0.0
  0
LINE
  5
18D3D
330
18C7A
100
AcDbEntity
  8
部品1
100
AcDbLine
 10
1492.970589276487
 20
3172.494269174611
 30
0.0
 11
1486.970589276487
 21
3172.494269174611
 31
0.0
  0
LINE
  5
18D3E
330
18C7A
100
AcDbEntity
  8
部品1
100
AcDbLine
 10
1534.470589276487
 20
2702.494269174615
 30
0.0
 11
1509.470589276487
 21
2702.494269174615
 31
0.0
  0
LINE
  5
18D3F
330
18C7A
100
AcDbEntity
  8
部品1
 48
50.0
100
AcDbLine
 10
1536.470589276487
 20
3152.494269174611
 30
0.0
 11
1536.470589276487
 21
2702.494269174615
 31
0.0
  0
LINE
  5
18D40
330
18C7A
100
AcDbEntity
  8
部品1
 48
50.0
100
AcDbLine
 10
1508.470589276487
 20
3152.494269174607
 30
0.0
 11
1508.470589276487
 21
2702.494269174615
 31
0.0
  0
LINE
  5
18D41
330
18C7A
100
AcDbEntity
  8
部品1
 48
50.0
100
AcDbLine
 10
1534.470589276487
 20
3154.494269174618
 30
0.0
 11
1534.470589276487
 21
2702.494269174615
 31
0.0
  0
LINE
  5
18D42
330
18C7A
100
AcDbEntity
  8
部品1
 48
50.0
100
AcDbLine
 10
1509.470589276487
 20
3154.494269174615
 30
0.0
 11
1509.470589276487
 21
2702.494269174615
 31
0.0
  0
LINE
  5
18D43
330
18C7A
100
AcDbEntity
  8
部品1
100
AcDbLine
 10
3411.970589276556
 20
1392.494269174582
 30
0.0
 11
3411.970589276556
 21
1420.494269174596
 31
0.0
  0
LINE
  5
18D44
330
18C7A
100
AcDbEntity
  8
部品1
100
AcDbLine
 10
1311.970589276523
 20
1392.494269174596
 30
0.0
 11
1311.970589276523
 21
1420.494269174596
 31
0.0
  0
LINE
  5
18D45
330
18C7A
100
AcDbEntity
  8
部品1
100
AcDbLine
 10
891.9705892765232
 20
1392.494269174596
 30
0.0
 11
891.9705892765232
 21
1420.494269174596
 31
0.0
  0
LINE
  5
18D46
330
18C7A
100
AcDbEntity
  8
部品1
100
AcDbLine
 10
3411.97058927652
 20
3182.494269174477
 30
0.0
 11
3411.970589276523
 21
3154.494269174477
 31
0.0
  0
LINE
  5
18D47
330
18C7A
100
AcDbEntity
  8
部品1
100
AcDbLine
 10
2571.97058927652
 20
3182.494269174477
 30
0.0
 11
2571.970589276523
 21
3154.494269174477
 31
0.0
  0
LINE
  5
18D48
330
18C7A
100
AcDbEntity
  8
部品1
100
AcDbLine
 10
2991.97058927652
 20
3182.494269174477
 30
0.0
 11
2991.970589276523
 21
3154.494269174477
 31
0.0
  0
LINE
  5
18D49
330
18C7A
100
AcDbEntity
  8
部品1
100
AcDbLine
 10
2151.970589276519
 20
3182.494269174477
 30
0.0
 11
2151.970589276523
 21
3154.494269174477
 31
0.0
  0
LINE
  5
18D4A
330
18C7A
100
AcDbEntity
  8
部品1
100
AcDbLine
 10
1731.970589276519
 20
3182.494269174477
 30
0.0
 11
1731.970589276523
 21
3154.494269174477
 31
0.0
  0
LINE
  5
18D4B
330
18C7A
100
AcDbEntity
  8
部品1
100
AcDbLine
 10
1311.970589276519
 20
3182.494269174477
 30
0.0
 11
1311.970589276523
 21
3154.494269174477
 31
0.0
  0
LINE
  5
18D4C
330
18C7A
100
AcDbEntity
  8
部品1
100
AcDbLine
 10
891.9705892765195
 20
3182.494269174477
 30
0.0
 11
891.9705892765232
 21
3154.494269174477
 31
0.0
  0
LINE
  5
18D4D
330
18C7A
100
AcDbEntity
  8
部品1
100
AcDbLine
 10
471.9705892765232
 20
1392.494269174596
 30
0.0
 11
471.9705892765232
 21
1420.494269174596
 31
0.0
  0
LINE
  5
18D4E
330
18C7A
100
AcDbEntity
  8
部品1
100
AcDbLine
 10
444.9705892765305
 20
1420.494269174558
 30
0.0
 11
3858.970589276556
 21
1420.494269174596
 31
0.0
  0
LINE
  5
18D4F
330
18C7A
100
AcDbEntity
  8
部品1
100
AcDbLine
 10
3831.970589276556
 20
1392.494269174596
 30
0.0
 11
3831.970589276556
 21
1420.494269174596
 31
0.0
  0
LINE
  5
18D50
330
18C7A
100
AcDbEntity
  8
部品1
100
AcDbLine
 10
3858.970589276556
 20
1447.494269174593
 30
0.0
 11
3886.970589276556
 21
1447.494269174593
 31
0.0
  0
LINE
  5
18D51
330
18C7A
100
AcDbEntity
  8
部品1
100
AcDbLine
 10
3858.970589276556
 20
1867.494269174607
 30
0.0
 11
3886.970589276556
 21
1867.494269174607
 31
0.0
  0
LINE
  5
18D52
330
18C7A
100
AcDbEntity
  8
部品1
100
AcDbLine
 10
444.9705892765305
 20
1867.49426917448
 30
0.0
 11
416.9705892765305
 21
1867.49426917448
 31
0.0
  0
LINE
  5
18D53
330
18C7A
100
AcDbEntity
  8
部品1
100
AcDbLine
 10
3830.470589276541
 20
1867.49426917458
 30
0.0
 11
473.4705892765396
 21
1867.49426917448
 31
0.0
  0
LINE
  5
18D54
330
18C7A
100
AcDbEntity
  8
部品1
100
AcDbLine
 10
3830.470589276541
 20
2287.49426917458
 30
0.0
 11
473.4705892765396
 21
2287.49426917448
 31
0.0
  0
LINE
  5
18D55
330
18C7A
100
AcDbEntity
  8
部品1
100
AcDbLine
 10
444.9705892765305
 20
2287.49426917448
 30
0.0
 11
416.9705892765305
 21
2287.49426917448
 31
0.0
  0
LINE
  5
18D56
330
18C7A
100
AcDbEntity
  8
部品1
100
AcDbLine
 10
3858.970589276556
 20
2287.494269174608
 30
0.0
 11
3886.970589276556
 21
2287.494269174608
 31
0.0
  0
LINE
  5
18D57
330
18C7A
100
AcDbEntity
  8
部品1
 48
50.0
100
AcDbLine
 10
2151.970589276551
 20
2702.494269174586
 30
0.0
 11
2151.970589276581
 21
1448.994269174494
 31
0.0
  0
LINE
  5
18D58
330
18C7A
100
AcDbEntity
  8
破線
 48
10.0
100
AcDbLine
 10
2959.470589276535
 20
1472.494269174522
 30
0.0
 11
2176.970589276532
 21
1472.494269174505
 31
0.0
  0
LINE
  5
18D59
330
18C7A
100
AcDbEntity
  8
破線
 48
10.0
100
AcDbLine
 10
3009.47058927653
 20
1448.994269174509
 30
0.0
 11
3009.47058927653
 21
2702.494269174615
 31
0.0
  0
LINE
  5
18D5A
330
18C7A
100
AcDbEntity
  8
破線
 48
10.0
100
AcDbLine
 10
2959.470589276535
 20
1448.994269174505
 30
0.0
 11
2959.470589276531
 21
2702.494269174615
 31
0.0
  0
LINE
  5
18D5B
330
18C7A
100
AcDbEntity
  8
破線
 48
10.0
100
AcDbLine
 10
1344.47058927653
 20
1448.994269174509
 30
0.0
 11
1344.47058927653
 21
2702.494269174615
 31
0.0
  0
LINE
  5
18D5C
330
18C7A
100
AcDbEntity
  8
破線
 48
10.0
100
AcDbLine
 10
1294.470589276534
 20
1448.994269174505
 30
0.0
 11
1294.47058927653
 21
2702.494269174615
 31
0.0
  0
DIMENSION
  5
18D5D
330
18C7A
100
AcDbEntity
  8
寸法
100
AcDbDimension
  2
*D13
 10
1451.234916278005
 20
2488.887829538828
 30
0.0
 11
916.0604668248634
 21
2488.887829538828
 31
0.0
 12
-3742.925985830444
 22
-6453.628869860112
 32
0.0
 70
   128
 71
     5
 42
1062.99999999993
  3
INABA_S40G
100
AcDbAlignedDimension
 13
445.4705892765559
 23
2702.494269174505
 33
0.0
 14
1508.470589276486
 24
2702.494269174558
 34
0.0
100
AcDbRotatedDimension
1001
ACAD
1000
DSTYLE
1002
{
1002
}
  0
LINE
  5
18D5E
330
18C7A
100
AcDbEntity
  8
破線
 48
10.0
100
AcDbLine
 10
1294.470589276534
 20
1472.494269174469
 30
0.0
 11
496.9705892765414
 21
1472.494269174476
 31
0.0
  0
LINE
  5
18D5F
330
18C7A
100
AcDbEntity
  8
部品1
100
AcDbLine
 10
3831.970589276556
 20
3182.494269174604
 30
0.0
 11
3831.970589276556
 21
3154.494269174604
 31
0.0
  0
LINE
  5
18D60
330
18C7A
100
AcDbEntity
  8
部品1
100
AcDbLine
 10
3831.970589276556
 20
3182.494269174626
 30
0.0
 11
3831.970589276556
 21
3154.494269174626
 31
0.0
  0
LINE
  5
18D61
330
18C7A
100
AcDbEntity
  8
部品1
100
AcDbLine
 10
3858.970589276556
 20
3127.494269174607
 30
0.0
 11
3886.970589276556
 21
3127.494269174607
 31
0.0
  0
LINE
  5
18D62
330
18C7A
100
AcDbEntity
  8
部品1
100
AcDbLine
 10
3858.970589276556
 20
2707.494269174608
 30
0.0
 11
3886.970589276556
 21
2707.494269174608
 31
0.0
  0
LINE
  5
18D63
330
18C7A
100
AcDbEntity
  8
部品1
100
AcDbLine
 10
3858.470589276556
 20
3152.494269174604
 30
0.0
 11
3858.470589276556
 21
2702.494269174608
 31
0.0
  0
LINE
  5
18D64
330
18C7A
100
AcDbEntity
  8
部品1
100
AcDbLine
 10
3886.970589276533
 20
1447.494269174593
 30
0.0
 11
3886.970589276531
 21
1392.494269174596
 31
0.0
  0
LINE
  5
18D65
330
18C7A
100
AcDbEntity
  8
部品1
 48
50.0
100
AcDbLine
 10
3830.470589276556
 20
1448.994269174596
 30
0.0
 11
3858.970589276554
 21
1420.494269174596
 31
0.0
  0
LINE
  5
18D66
330
18C7A
100
AcDbEntity
  8
部品1
100
AcDbLine
 10
3886.970589276531
 20
1392.494269174596
 30
0.0
 11
3835.970589276531
 21
1392.494269174596
 31
0.0
  0
LINE
  5
18D67
330
18C7A
100
AcDbEntity
  8
部品1
100
AcDbLine
 10
3858.970589276533
 20
1447.494269174593
 30
0.0
 11
3886.970589276531
 21
1447.494269174593
 31
0.0
  0
LINE
  5
18D68
330
18C7A
100
AcDbEntity
  8
部品1
100
AcDbLine
 10
3886.970589276556
 20
3182.494269174604
 30
0.0
 11
3886.970589276531
 21
1392.494269174596
 31
0.0
  0
DIMENSION
  5
18D69
330
18C7A
100
AcDbEntity
  8
寸法
100
AcDbDimension
  2
*D12
 10
4534.396935010967
 20
1447.494269174593
 30
0.0
 11
4534.396935010965
 21
2287.4942691746
 31
0.0
 12
-3742.925985830444
 22
-6453.628869860112
 32
0.0
 70
   128
  1
4X420=<>
 71
     5
 42
1680.000000000014
  3
INABA_S40G
100
AcDbAlignedDimension
 13
3886.970589276556
 23
3127.494269174607
 33
0.0
 14
3886.970589276531
 24
1447.494269174593
 34
0.0
 50
90.0
100
AcDbRotatedDimension
1001
ACAD
1000
DSTYLE
1002
{
1002
}
  0
LINE
  5
18D6A
330
18C7A
100
AcDbEntity
  8
部品1
100
AcDbLine
 10
3858.970589276556
 20
3154.494269174604
 30
0.0
 11
3858.970589276534
 21
1420.494269174596
 31
0.0
  0
DIMENSION
  5
18D6B
330
18C7A
100
AcDbEntity
  8
寸法
100
AcDbDimension
  2
*D11
 10
4213.82831513858
 20
2607.276453505718
 30
0.0
 11
4113.828315138579
 21
2832.276453505718
 31
0.0
 12
-3742.925985830444
 22
-6453.628869860112
 32
0.0
 71
     5
 42
449.9999999999963
  3
INABA_S40G
100
AcDbAlignedDimension
 13
3858.470589276556
 23
3152.494269174604
 33
0.0
 14
3858.470589276556
 24
2702.494269174608
 34
0.0
 50
90.0
100
AcDbRotatedDimension
1001
ACAD
1000
DSTYLE
1002
{
1002
}
  0
LINE
  5
18D6C
330
18C7A
100
AcDbEntity
  8
部品1
100
AcDbLine
 10
3830.470589276547
 20
2702.494269174608
 30
0.0
 11
3830.470589276556
 21
1448.994269174596
 31
0.0
  0
LINE
  5
18D6D
330
18C7A
100
AcDbEntity
  8
破線
 48
10.0
100
AcDbLine
 10
3806.970589276549
 20
2702.494269174608
 30
0.0
 11
3806.970589276558
 21
1472.494269174593
 31
0.0
  0
LINE
  5
18D6E
330
18C7A
100
AcDbEntity
  8
部品1
100
AcDbLine
 10
2769.470589276556
 20
3146.494269174608
 30
0.0
 11
2794.470589276556
 21
3146.494269174611
 31
0.0
  0
LINE
  5
18D6F
330
18C7A
100
AcDbEntity
  8
部品1
100
AcDbLine
 10
2810.970589276556
 20
3172.494269174611
 30
0.0
 11
2816.970589276556
 21
3172.494269174611
 31
0.0
  0
LINE
  5
18D70
330
18C7A
100
AcDbEntity
  8
部品1
100
AcDbLine
 10
2816.970589276556
 20
3172.494269174611
 30
0.0
 11
2816.970589276556
 21
3154.494269174611
 31
0.0
  0
LINE
  5
18D71
330
18C7A
100
AcDbEntity
  8
部品1
100
AcDbLine
 10
2746.970589276556
 20
3172.494269174611
 30
0.0
 11
2752.970589276556
 21
3172.494269174611
 31
0.0
  0
LINE
  5
18D72
330
18C7A
100
AcDbEntity
  8
部品1
100
AcDbLine
 10
2746.970589276556
 20
3172.494269174611
 30
0.0
 11
2746.970589276556
 21
3154.494269174611
 31
0.0
  0
LINE
  5
18D73
330
18C7A
100
AcDbEntity
  8
部品1
100
AcDbLine
 10
2769.470589276556
 20
2702.494269174615
 30
0.0
 11
2794.470589276556
 21
2702.494269174615
 31
0.0
  0
LINE
  5
18D74
330
18C7A
100
AcDbEntity
  8
部品1
 48
50.0
100
AcDbLine
 10
2794.470589276556
 20
3154.494269174615
 30
0.0
 11
2794.470589276556
 21
2702.494269174615
 31
0.0
  0
LINE
  5
18D75
330
18C7A
100
AcDbEntity
  8
部品1
 48
50.0
100
AcDbLine
 10
2769.470589276554
 20
3154.494269174618
 30
0.0
 11
2769.470589276556
 21
2702.494269174615
 31
0.0
  0
LINE
  5
18D76
330
18C7A
100
AcDbEntity
  8
部品1
 48
50.0
100
AcDbLine
 10
2795.470589276556
 20
3152.494269174607
 30
0.0
 11
2795.470589276556
 21
2702.494269174615
 31
0.0
  0
LINE
  5
18D77
330
18C7A
100
AcDbEntity
  8
部品1
 48
50.0
100
AcDbLine
 10
2767.470589276556
 20
3152.494269174611
 30
0.0
 11
2767.470589276556
 21
2702.494269174615
 31
0.0
  0
LINE
  5
18D78
330
18C7A
100
AcDbEntity
  8
破線
 48
10.0
100
AcDbLine
 10
2176.97058927653
 20
1448.994269174509
 30
0.0
 11
2176.97058927653
 21
2702.494269174588
 31
0.0
  0
LINE
  5
18D79
330
18C7A
100
AcDbEntity
  8
破線
 48
10.0
100
AcDbLine
 10
2126.970589276534
 20
1448.994269174505
 30
0.0
 11
2126.970589276531
 21
2702.494269174586
 31
0.0
  0
LINE
  5
18D7A
330
18C7A
100
AcDbEntity
  8
部品1
100
AcDbLine
 10
2794.470589276556
 20
3154.494269174622
 30
0.0
 11
3858.970589276556
 21
3154.494269174604
 31
0.0
  0
LINE
  5
18D7B
330
18C7A
100
AcDbEntity
  8
細線
 48
50.0
100
AcDbLine
 10
3858.470589276556
 20
2702.494269174608
 30
0.0
 11
2795.470589276556
 21
3152.494269174607
 31
0.0
  0
LINE
  5
18D7C
330
18C7A
100
AcDbEntity
  8
部品1
100
AcDbLine
 10
2795.470589276555
 20
2702.494269174615
 30
0.0
 11
3858.470589276556
 21
2702.494269174608
 31
0.0
  0
LINE
  5
18D7D
330
18C7A
100
AcDbEntity
  8
部品1
100
AcDbLine
 10
2795.470589276556
 20
3152.494269174611
 30
0.0
 11
3858.470589276556
 21
3152.494269174604
 31
0.0
  0
LINE
  5
18D7E
330
18C7A
100
AcDbEntity
  8
細線
 48
50.0
100
AcDbLine
 10
3858.470589276556
 20
3152.494269174604
 30
0.0
 11
2795.470589276555
 21
2702.494269174615
 31
0.0
  0
DIMENSION
  5
18D7F
330
18C7A
100
AcDbEntity
  8
寸法
100
AcDbDimension
  2
*D10
 10
3801.234916278101
 20
2488.887829538937
 30
0.0
 11
3318.360544398907
 21
2488.887829538937
 31
0.0
 12
-3742.925985830444
 22
-6453.628869860112
 32
0.0
 70
   128
 71
     5
 42
1063.000000000012
  3
INABA_S40G
100
AcDbAlignedDimension
 13
2795.470589276555
 23
2702.494269174615
 33
0.0
 14
3858.470589276567
 24
2702.494269174608
 34
0.0
100
AcDbRotatedDimension
1001
ACAD
1000
DSTYLE
1002
{
1002
}
  0
LINE
  5
18D80
330
18C7A
100
AcDbEntity
  8
破線
 48
10.0
100
AcDbLine
 10
3806.970589276556
 20
1472.494269174594
 30
0.0
 11
3009.47058927653
 21
1472.494269174523
 31
0.0
  0
DIMENSION
  5
18D81
330
18C7A
100
AcDbEntity
  8
寸法
100
AcDbDimension
  2
*D9
 10
4534.396935010941
 20
1392.494269174596
 30
0.0
 11
4534.39693501094
 21
1084.008987800356
 31
0.0
 12
-3742.925985830444
 22
-6453.628869860112
 32
0.0
 70
   128
 71
     5
 42
54.99999999999636
  3
INABA_S40G
100
AcDbAlignedDimension
 13
3886.970589276531
 23
1447.494269174593
 33
0.0
 14
3886.970589276531
 24
1392.494269174596
 34
0.0
 50
90.0
100
AcDbRotatedDimension
1001
ACAD
1000
DSTYLE
1002
{
1002
}
  0
LINE
  5
18D82
330
18C7A
100
AcDbEntity
  8
部品1
100
AcDbLine
 10
471.9705892765196
 20
3182.494269174477
 30
0.0
 11
471.9705892765232
 21
3154.494269174477
 31
0.0
  0
LINE
  5
18D83
330
18C7A
100
AcDbEntity
  8
部品1
100
AcDbLine
 10
471.9705892765559
 20
3182.494269174509
 30
0.0
 11
471.9705892765559
 21
3154.494269174509
 31
0.0
  0
LINE
  5
18D84
330
18C7A
100
AcDbEntity
  8
部品1
100
AcDbLine
 10
444.9705892765232
 20
3127.49426917448
 30
0.0
 11
416.9705892765232
 21
3127.49426917448
 31
0.0
  0
LINE
  5
18D85
330
18C7A
100
AcDbEntity
  8
部品1
100
AcDbLine
 10
444.9705892765305
 20
2707.49426917448
 30
0.0
 11
416.9705892765305
 21
2707.49426917448
 31
0.0
  0
LINE
  5
18D86
330
18C7A
100
AcDbEntity
  8
部品1
 48
50.0
100
AcDbLine
 10
445.4705892765542
 20
3152.494269174506
 30
0.0
 11
445.4705892765559
 21
2702.494269174505
 31
0.0
  0
LINE
  5
18D87
330
18C7A
100
AcDbEntity
  8
部品1
 48
50.0
100
AcDbLine
 10
473.470589276545
 20
1448.994269174573
 30
0.0
 11
444.970589276545
 21
1420.494269174574
 31
0.0
  0
LINE
  5
18D88
330
18C7A
100
AcDbEntity
  8
部品1
100
AcDbLine
 10
471.9705892765232
 20
1392.494269174465
 30
0.0
 11
416.9705892765486
 21
1392.494269174465
 31
0.0
  0
LINE
  5
18D89
330
18C7A
100
AcDbEntity
  8
部品1
100
AcDbLine
 10
444.9705892765305
 20
1447.494269174429
 30
0.0
 11
416.9705892765469
 21
1447.494269174429
 31
0.0
  0
LINE
  5
18D8A
330
18C7A
100
AcDbEntity
  8
部品1
100
AcDbLine
 10
444.9705892765305
 20
1447.494269174465
 30
0.0
 11
416.9705892765469
 21
1447.494269174465
 31
0.0
  0
LINE
  5
18D8B
330
18C7A
100
AcDbEntity
  8
部品1
100
AcDbLine
 10
444.9705892765469
 20
1447.49426917448
 30
0.0
 11
416.9705892765469
 21
1447.49426917448
 31
0.0
  0
LINE
  5
18D8C
330
18C7A
100
AcDbEntity
  8
部品1
100
AcDbLine
 10
416.9705892765469
 20
1447.494269174429
 30
0.0
 11
416.9705892765486
 21
1392.494269174433
 31
0.0
  0
LINE
  5
18D8D
330
18C7A
100
AcDbEntity
  8
部品1
100
AcDbLine
 10
416.9705892765196
 20
3182.494269174477
 30
0.0
 11
416.9705892765486
 21
1392.494269174465
 31
0.0
  0
LINE
  5
18D8E
330
18C7A
100
AcDbEntity
  8
部品1
100
AcDbLine
 10
444.9705892765305
 20
1420.494269174556
 30
0.0
 11
444.9705892765559
 21
3154.494269174509
 31
0.0
  0
LINE
  5
18D8F
330
18C7A
100
AcDbEntity
  8
部品1
100
AcDbLine
 10
473.4705892765323
 20
2702.494269174608
 30
0.0
 11
473.470589276545
 21
1448.994269174571
 31
0.0
  0
LINE
  5
18D90
330
18C7A
100
AcDbEntity
  8
破線
 48
10.0
100
AcDbLine
 10
496.9705892765305
 20
2702.494269174608
 30
0.0
 11
496.9705892765451
 21
1472.494269174476
 31
0.0
  0
DIMENSION
  5
18D91
330
18C7A
100
AcDbEntity
  8
寸法
100
AcDbDimension
  2
*D8
 10
3886.970589276531
 20
410.7433333855515
 30
0.0
 11
2168.197775309287
 21
410.7433333855515
 31
0.0
 12
-3742.925985830444
 22
-6453.628869860112
 32
0.0
 70
   128
 71
     5
 42
3469.999999999982
  3
INABA_S40G
100
AcDbAlignedDimension
 13
416.9705892765486
 23
1392.494269174433
 33
0.0
 14
3886.970589276531
 24
1392.49426917456
 34
0.0
100
AcDbRotatedDimension
1001
ACAD
1000
DSTYLE
1002
{
1070
   341
1005
0
1002
}
  0
LINE
  5
18D92
330
18C7A
100
AcDbEntity
  8
部品1
100
AcDbLine
 10
444.9705892765559
 20
3154.494269174624
 30
0.0
 11
1509.470589276487
 21
3154.494269174626
 31
0.0
  0
LINE
  5
18D93
330
18C7A
100
AcDbEntity
  8
部品1
100
AcDbLine
 10
3886.970589276531
 20
1392.494269174596
 30
0.0
 11
3411.970589276556
 21
1392.494269174582
 31
0.0
  0
LINE
  5
18D94
330
18C7A
100
AcDbEntity
  8
部品1
100
AcDbLine
 10
416.9705892765559
 20
3182.494269174509
 30
0.0
 11
3886.970589276556
 21
3182.494269174604
 31
0.0
  0
LINE
  5
18D95
330
18C7A
100
AcDbEntity
  8
部品1
100
AcDbLine
 10
445.4705892765559
 20
2702.494269174509
 30
0.0
 11
1508.470589276487
 21
2702.494269174558
 31
0.0
  0
LINE
  5
18D96
330
18C7A
100
AcDbEntity
  8
細線
 48
50.0
100
AcDbLine
 10
2767.470589276556
 20
3152.494269174611
 30
0.0
 11
1536.470589276487
 21
2702.494269174558
 31
0.0
  0
LINE
  5
18D97
330
18C7A
100
AcDbEntity
  8
部品1
100
AcDbLine
 10
445.4705892765542
 20
3152.494269174509
 30
0.0
 11
1508.470589276485
 21
3152.494269174558
 31
0.0
  0
LINE
  5
18D98
330
18C7A
100
AcDbEntity
  8
細線
 48
50.0
100
AcDbLine
 10
2767.470589276554
 20
2702.494269174615
 30
0.0
 11
1536.470589276485
 21
3152.494269174558
 31
0.0
  0
LINE
  5
18D99
330
18C7A
100
AcDbEntity
  8
破線
 48
10.0
100
AcDbLine
 10
2126.970589276534
 20
1472.494269174502
 30
0.0
 11
1344.47058927653
 21
1472.494269174473
 31
0.0
  0
LINE
  5
18D9A
330
18C7A
100
AcDbEntity
  8
部品1
100
AcDbLine
 10
3830.470589276556
 20
1448.994269174596
 30
0.0
 11
473.4705892764487
 21
1448.994269174476
 31
0.0
  0
DIMENSION
  5
18D9B
330
18C7A
100
AcDbEntity
  8
寸法
100
AcDbDimension
  2
*D7
 10
471.970589276555
 20
3698.302488799491
 30
0.0
 11
108.4853079022819
 21
3698.302488799491
 31
0.0
 12
-3742.925985830444
 22
-6453.628869860112
 32
0.0
 70
   128
 71
     5
 42
55.00000000003456
  3
INABA_S40G
100
AcDbAlignedDimension
 13
416.9705892765205
 23
3182.494269174509
 33
0.0
 14
471.970589276555
 24
3182.494269174509
 34
0.0
100
AcDbRotatedDimension
1001
ACAD
1000
DSTYLE
1002
{
1002
}
  0
DIMENSION
  5
18D9C
330
18C7A
100
AcDbEntity
  8
寸法
100
AcDbDimension
  2
*D6
 10
4534.396935010967
 20
3127.494269174607
 30
0.0
 11
4534.396935010965
 21
3490.979550548844
 31
0.0
 12
-3742.925985830444
 22
-6453.628869860112
 32
0.0
 70
   128
 71
     5
 42
54.99999999999636
  3
INABA_S40G
100
AcDbAlignedDimension
 13
3886.970589276556
 23
3182.494269174604
 33
0.0
 14
3886.970589276556
 24
3127.494269174607
 34
0.0
 50
90.0
100
AcDbRotatedDimension
1001
ACAD
1000
DSTYLE
1002
{
1002
}
  0
DIMENSION
  5
18D9D
330
18C7A
100
AcDbEntity
  8
寸法
100
AcDbDimension
  2
*D5
 10
3886.970589276556
 20
3698.302488799589
 30
0.0
 11
4195.455870650794
 21
3698.302488799589
 31
0.0
 12
-3742.925985830444
 22
-6453.628869860112
 32
0.0
 70
   128
 71
     5
 42
55.0
  3
INABA_S40G
100
AcDbAlignedDimension
 13
3831.970589276556
 23
3182.494269174604
 33
0.0
 14
3886.970589276556
 24
3182.494269174604
 34
0.0
100
AcDbRotatedDimension
1001
ACAD
1000
DSTYLE
1002
{
1002
}
  0
DIMENSION
  5
18D9E
330
18C7A
100
AcDbEntity
  8
寸法
100
AcDbDimension
  2
*D4
 10
3831.970589276556
 20
3698.302488799607
 30
0.0
 11
2151.970589276555
 21
3698.302488799607
 31
0.0
 12
-3742.925985830444
 22
-6453.628869860112
 32
0.0
 70
   128
  1
8X420=<>
 71
     5
 42
3360.000000000001
  3
INABA_S40G
100
AcDbAlignedDimension
 13
471.970589276555
 23
3182.494269174509
 33
0.0
 14
3831.970589276556
 24
3182.494269174604
 34
0.0
100
AcDbRotatedDimension
1001
ACAD
1000
DSTYLE
1002
{
1002
}
  0
DIMENSION
  5
18D9F
330
18C7A
100
AcDbEntity
  8
寸法
100
AcDbDimension
  2
*D3
 10
4899.503876750603
 20
1392.494269174596
 30
0.0
 11
4899.503876750601
 21
2287.4942691746
 31
0.0
 12
-3742.925985830444
 22
-6453.628869860112
 32
0.0
 70
   128
 71
     5
 42
1790.000000000007
  3
INABA_S40G
100
AcDbAlignedDimension
 13
3886.970589276556
 23
3182.494269174604
 33
0.0
 14
3886.970589276531
 24
1392.494269174596
 34
0.0
 50
90.0
100
AcDbRotatedDimension
1001
ACAD
1000
DSTYLE
1002
{
1002
}
  0
ENDBLK
  5
18DA1
330
18C7A
100
AcDbEntity
  8
0
 48
50.0
100
AcDbBlockEnd
  0
BLOCK
  5
1C4CB
330
1C4CA
100
AcDbEntity
  8
0
 48
50.0
100
AcDbBlockBegin
  2
_NONE
 70
     0
 10
0.0
 20
0.0
 30
0.0
  3
_NONE
  1

  0
CIRCLE
  5
1C4CC
330
1C4CA
100
AcDbEntity
  8
0
  6
ByBlock
 62
     0
 48
50.0
100
AcDbCircle
 10
0.0
 20
0.0
 30
0.0
 40
0.25
  0
ENDBLK
  5
1C4CD
330
1C4CA
100
AcDbEntity
  8
0
 48
50.0
100
AcDbBlockEnd
  0
BLOCK
  5
20DEE
330
20DE2
100
AcDbEntity
  8
0
 48
50.0
100
AcDbBlockBegin
  2
*D19
 70
     1
 10
0.0
 20
0.0
 30
0.0
  3
*D19
  1

  0
LINE
  5
23F08
330
20DE2
100
AcDbEntity
  8
寸法
 62
     0
 48
50.0
370
    -2
100
AcDbLine
 10
9868.6
 20
7570.471678639155
 30
0.0
 11
9868.6
 21
8568.692000698076
 31
0.0
  0
LINE
  5
23F09
330
20DE2
100
AcDbEntity
  8
寸法
 62
     0
 48
50.0
370
    -2
100
AcDbLine
 10
9913.600000000002
 20
8296.738136733067
 30
0.0
 11
9913.600000000002
 21
8568.692000698076
 31
0.0
  0
LINE
  5
23F0A
330
20DE2
100
AcDbEntity
  8
寸法
 62
     0
 48
50.0
370
    -2
100
AcDbLine
 10
9868.6
 20
8508.692000698076
 30
0.0
 11
9768.600000000001
 21
8508.692000698076
 31
0.0
  0
LINE
  5
23F0B
330
20DE2
100
AcDbEntity
  8
寸法
 62
     0
 48
50.0
370
    -2
100
AcDbLine
 10
9913.600000000002
 20
8508.692000698076
 30
0.0
 11
10250.94924240492
 21
8508.692000698076
 31
0.0
  0
LINE
  5
23F0C
330
20DE2
100
AcDbEntity
  8
寸法
 62
     0
 48
50.0
370
    -2
100
AcDbLine
 10
9868.6
 20
8508.692000698076
 30
0.0
 11
9913.600000000002
 21
8508.692000698076
 31
0.0
  0
INSERT
  5
23F0D
330
20DE2
100
AcDbEntity
  8
寸法
 62
     0
 48
50.0
370
    -2
100
AcDbBlockReference
  2
_DOTSMALL
 10
9868.6
 20
8508.692000698076
 30
0.0
 41
100.0
 42
100.0
 43
100.0
  0
INSERT
  5
23F0E
330
20DE2
100
AcDbEntity
  8
寸法
 62
     0
 48
50.0
370
    -2
100
AcDbBlockReference
  2
_DOTSMALL
 10
9913.600000000002
 20
8508.692000698076
 30
0.0
 41
100.0
 42
100.0
 43
100.0
 50
180.0
  0
MTEXT
  5
23F0F
330
20DE2
100
AcDbEntity
  8
寸法
 62
     7
 48
50.0
100
AcDbMText
 10
10184.77462120246
 20
8608.692000698075
 30
0.0
 40
120.0
 41
0.0
 71
     5
 72
     1
  1
\A1;a
  7
STYLE1
 73
     1
 44
1.0
1001
ACAD
1000
MTEXTBEGIN
1070
    73
1070
     1
1070
    44
1040
1.0
1070
    74
1070
     0
1000
MTEXTEND
  0
POINT
  5
23F10
330
20DE2
100
AcDbEntity
  8
DEFPOINTS
 62
     0
 48
50.0
100
AcDbPoint
 10
9868.6
 20
7550.471678639154
 30
0.0
  0
POINT
  5
23F11
330
20DE2
100
AcDbEntity
  8
DEFPOINTS
 62
     0
 48
50.0
100
AcDbPoint
 10
9913.600000000002
 20
8276.738136733065
 30
0.0
  0
POINT
  5
23F12
330
20DE2
100
AcDbEntity
  8
DEFPOINTS
 62
     0
 48
50.0
100
AcDbPoint
 10
9913.600000000002
 20
8508.692000698076
 30
0.0
  0
ENDBLK
  5
20DEF
330
20DE2
100
AcDbEntity
  8
0
 48
50.0
100
AcDbBlockEnd
  0
BLOCK
  5
20E08
330
20DFC
100
AcDbEntity
  8
0
 48
50.0
100
AcDbBlockBegin
  2
*D20
 70
     1
 10
0.0
 20
0.0
 30
0.0
  3
*D20
  1

  0
LINE
  5
23F13
330
20DFC
100
AcDbEntity
  8
寸法
 62
     0
 48
50.0
370
    -2
100
AcDbLine
 10
6533.600000000004
 20
8296.738136733081
 30
0.0
 11
6533.600000000004
 21
8568.69200069809
 31
0.0
  0
LINE
  5
23F14
330
20DFC
100
AcDbEntity
  8
寸法
 62
     0
 48
50.0
370
    -2
100
AcDbLine
 10
6578.6
 20
7570.471678639167
 30
0.0
 11
6578.6
 21
8568.69200069809
 31
0.0
  0
LINE
  5
23F15
330
20DFC
100
AcDbEntity
  8
寸法
 62
     0
 48
50.0
370
    -2
100
AcDbLine
 10
6578.6
 20
8508.692000698088
 30
0.0
 11
6678.6
 21
8508.692000698088
 31
0.0
  0
LINE
  5
23F16
330
20DFC
100
AcDbEntity
  8
寸法
 62
     0
 48
50.0
370
    -2
100
AcDbLine
 10
6533.600000000004
 20
8508.692000698088
 30
0.0
 11
6196.250757595083
 21
8508.692000698088
 31
0.0
  0
LINE
  5
23F17
330
20DFC
100
AcDbEntity
  8
寸法
 62
     0
 48
50.0
370
    -2
100
AcDbLine
 10
6578.6
 20
8508.692000698088
 30
0.0
 11
6533.600000000004
 21
8508.692000698088
 31
0.0
  0
INSERT
  5
23F18
330
20DFC
100
AcDbEntity
  8
寸法
 62
     0
 48
50.0
370
    -2
100
AcDbBlockReference
  2
_DOTSMALL
 10
6578.6
 20
8508.692000698088
 30
0.0
 41
100.0
 42
100.0
 43
100.0
 50
180.0
  0
INSERT
  5
23F19
330
20DFC
100
AcDbEntity
  8
寸法
 62
     0
 48
50.0
370
    -2
100
AcDbBlockReference
  2
_DOTSMALL
 10
6533.600000000004
 20
8508.692000698088
 30
0.0
 41
100.0
 42
100.0
 43
100.0
  0
MTEXT
  5
23F1A
330
20DFC
100
AcDbEntity
  8
寸法
 62
     7
 48
50.0
100
AcDbMText
 10
6262.425378797541
 20
8608.69200069809
 30
0.0
 40
120.0
 41
0.0
 71
     5
 72
     1
  1
\A1;a
  7
STYLE1
 73
     1
 44
1.0
1001
ACAD
1000
MTEXTBEGIN
1070
    73
1070
     1
1070
    44
1040
1.0
1070
    74
1070
     0
1000
MTEXTEND
  0
POINT
  5
23F1B
330
20DFC
100
AcDbEntity
  8
DEFPOINTS
 62
     0
 48
50.0
100
AcDbPoint
 10
6533.600000000004
 20
8276.738136733079
 30
0.0
  0
POINT
  5
23F1C
330
20DFC
100
AcDbEntity
  8
DEFPOINTS
 62
     0
 48
50.0
100
AcDbPoint
 10
6578.6
 20
7550.471678639167
 30
0.0
  0
POINT
  5
23F1D
330
20DFC
100
AcDbEntity
  8
DEFPOINTS
 62
     0
 48
50.0
100
AcDbPoint
 10
6578.6
 20
8508.692000698088
 30
0.0
  0
ENDBLK
  5
20E09
330
20DFC
100
AcDbEntity
  8
0
 48
50.0
100
AcDbBlockEnd
  0
BLOCK
  5
2274E
330
22742
100
AcDbEntity
  8
0
 48
50.0
100
AcDbBlockBegin
  2
*D25
 70
     1
 10
0.0
 20
0.0
 30
0.0
  3
*D25
  1

  0
LINE
  5
23F1E
330
22742
100
AcDbEntity
  8
寸法
 62
     0
 48
50.0
370
    -2
100
AcDbLine
 10
5935.665006330071
 20
7625.471678639186
 30
0.0
 11
5643.721909610674
 21
7625.471678639186
 31
0.0
  0
LINE
  5
23F1F
330
22742
100
AcDbEntity
  8
寸法
 62
     0
 48
50.0
370
    -2
100
AcDbLine
 10
6558.6
 20
7550.471678639167
 30
0.0
 11
5643.721909610674
 21
7550.471678639168
 31
0.0
  0
LINE
  5
23F20
330
22742
100
AcDbEntity
  8
寸法
 62
     0
 48
50.0
370
    -2
100
AcDbLine
 10
5703.721909610674
 20
7625.471678639186
 30
0.0
 11
5703.721909610674
 21
7725.471678639187
 31
0.0
  0
LINE
  5
23F21
330
22742
100
AcDbEntity
  8
寸法
 62
     0
 48
50.0
370
    -2
100
AcDbLine
 10
5703.721909610674
 20
7550.471678639168
 30
0.0
 11
5703.721909610674
 21
7450.471678639168
 31
0.0
  0
LINE
  5
23F22
330
22742
100
AcDbEntity
  8
寸法
 62
     0
 48
50.0
370
    -2
100
AcDbLine
 10
5703.721909610674
 20
7625.471678639186
 30
0.0
 11
5703.721909610674
 21
7550.471678639168
 31
0.0
  0
INSERT
  5
23F23
330
22742
100
AcDbEntity
  8
寸法
 62
     0
 48
50.0
370
    -2
100
AcDbBlockReference
  2
_DOTSMALL
 10
5703.721909610674
 20
7625.471678639186
 30
0.0
 41
100.0
 42
100.0
 43
100.0
 50
270.0
  0
INSERT
  5
23F24
330
22742
100
AcDbEntity
  8
寸法
 62
     0
 48
50.0
370
    -2
100
AcDbBlockReference
  2
_DOTSMALL
 10
5703.721909610674
 20
7550.471678639168
 30
0.0
 41
100.0
 42
100.0
 43
100.0
 50
90.0
  0
MTEXT
  5
23F25
330
22742
100
AcDbEntity
  8
寸法
 62
     7
 48
50.0
100
AcDbMText
 10
5603.721909610674
 20
7587.971678639178
 30
0.0
 40
120.0
 41
0.0
 71
     5
 72
     1
  1
\A1;c
  7
STYLE1
 11
0.0000000000000001
 21
1.0
 31
0.0
 73
     1
 44
1.0
1001
ACAD
1000
MTEXTBEGIN
1070
    73
1070
     1
1070
    44
1040
1.0
1070
    74
1070
     0
1000
MTEXTEND
  0
POINT
  5
23F26
330
22742
100
AcDbEntity
  8
DEFPOINTS
 62
     0
 48
50.0
100
AcDbPoint
 10
5955.665006330072
 20
7625.471678639186
 30
0.0
  0
POINT
  5
23F27
330
22742
100
AcDbEntity
  8
DEFPOINTS
 62
     0
 48
50.0
100
AcDbPoint
 10
6578.6
 20
7550.471678639167
 30
0.0
  0
POINT
  5
23F28
330
22742
100
AcDbEntity
  8
DEFPOINTS
 62
     0
 48
50.0
100
AcDbPoint
 10
5703.721909610674
 20
7550.471678639168
 30
0.0
  0
ENDBLK
  5
2274F
330
22742
100
AcDbEntity
  8
0
 48
50.0
100
AcDbBlockEnd
  0
BLOCK
  5
22768
330
2275C
100
AcDbEntity
  8
0
 48
50.0
100
AcDbBlockBegin
  2
*D26
 70
     1
 10
0.0
 20
0.0
 30
0.0
  3
*D26
  1

  0
LINE
  5
23F29
330
2275C
100
AcDbEntity
  8
寸法
 62
     0
 48
50.0
370
    -2
100
AcDbLine
 10
6558.6
 20
6170.471678639152
 30
0.0
 11
5643.721909610675
 21
6170.471678639153
 31
0.0
  0
LINE
  5
23F2A
330
2275C
100
AcDbEntity
  8
寸法
 62
     0
 48
50.0
370
    -2
100
AcDbLine
 10
5935.665006330073
 20
6115.471678639194
 30
0.0
 11
5643.721909610674
 21
6115.471678639194
 31
0.0
  0
LINE
  5
23F2B
330
2275C
100
AcDbEntity
  8
寸法
 62
     0
 48
50.0
370
    -2
100
AcDbLine
 10
5703.721909610675
 20
6170.471678639153
 30
0.0
 11
5703.721909610675
 21
6270.471678639154
 31
0.0
  0
LINE
  5
23F2C
330
2275C
100
AcDbEntity
  8
寸法
 62
     0
 48
50.0
370
    -2
100
AcDbLine
 10
5703.721909610674
 20
6115.471678639194
 30
0.0
 11
5703.721909610674
 21
6015.471678639194
 31
0.0
  0
LINE
  5
23F2D
330
2275C
100
AcDbEntity
  8
寸法
 62
     0
 48
50.0
370
    -2
100
AcDbLine
 10
5703.721909610675
 20
6170.471678639153
 30
0.0
 11
5703.721909610674
 21
6115.471678639194
 31
0.0
  0
INSERT
  5
23F2E
330
2275C
100
AcDbEntity
  8
寸法
 62
     0
 48
50.0
370
    -2
100
AcDbBlockReference
  2
_DOTSMALL
 10
5703.721909610675
 20
6170.471678639153
 30
0.0
 41
100.0
 42
100.0
 43
100.0
 50
270.0
  0
INSERT
  5
23F2F
330
2275C
100
AcDbEntity
  8
寸法
 62
     0
 48
50.0
370
    -2
100
AcDbBlockReference
  2
_DOTSMALL
 10
5703.721909610674
 20
6115.471678639194
 30
0.0
 41
100.0
 42
100.0
 43
100.0
 50
90.0
  0
MTEXT
  5
23F30
330
2275C
100
AcDbEntity
  8
寸法
 62
     7
 48
50.0
100
AcDbMText
 10
5603.721909610674
 20
6142.971678639174
 30
0.0
 40
120.0
 41
0.0
 71
     5
 72
     1
  1
\A1;b
  7
STYLE1
 11
0.0000000000000001
 21
1.0
 31
0.0
 73
     1
 44
1.0
1001
ACAD
1000
MTEXTBEGIN
1070
    73
1070
     1
1070
    44
1040
1.0
1070
    74
1070
     0
1000
MTEXTEND
  0
POINT
  5
23F31
330
2275C
100
AcDbEntity
  8
DEFPOINTS
 62
     0
 48
50.0
100
AcDbPoint
 10
6578.6
 20
6170.471678639152
 30
0.0
  0
POINT
  5
23F32
330
2275C
100
AcDbEntity
  8
DEFPOINTS
 62
     0
 48
50.0
100
AcDbPoint
 10
5955.665006330073
 20
6115.471678639194
 30
0.0
  0
POINT
  5
23F33
330
2275C
100
AcDbEntity
  8
DEFPOINTS
 62
     0
 48
50.0
100
AcDbPoint
 10
5703.721909610674
 20
6115.471678639194
 30
0.0
  0
ENDBLK
  5
22769
330
2275C
100
AcDbEntity
  8
0
 48
50.0
100
AcDbBlockEnd
  0
BLOCK
  5
22B08
330
22AFD
100
AcDbEntity
  8
0
 48
50.0
100
AcDbBlockBegin
  2
*D27
 70
     1
 10
0.0
 20
0.0
 30
0.0
  3
*D27
  1

  0
LINE
  5
24396
330
22AFD
100
AcDbEntity
  8
寸法
 62
     0
 48
50.0
370
    -2
100
AcDbLine
 10
9868.6
 20
7249.627469950635
 30
0.0
 11
9868.6
 21
7192.634205911801
 31
0.0
  0
LINE
  5
24397
330
22AFD
100
AcDbEntity
  8
寸法
 62
     0
 48
50.0
370
    -2
100
AcDbLine
 10
9748.600000000005
 20
7272.634205911801
 30
0.0
 11
9748.600000000005
 21
7312.634205911802
 31
0.0
  0
LINE
  5
24398
330
22AFD
100
AcDbEntity
  8
寸法
 62
     0
 48
50.0
370
    -2
100
AcDbLine
 10
9748.600000000005
 20
7252.634205911802
 30
0.0
 11
9868.6
 21
7252.634205911802
 31
0.0
  0
LINE
  5
24399
330
22AFD
100
AcDbEntity
  8
寸法
 62
     0
 48
50.0
370
    -2
100
AcDbLine
 10
9868.6
 20
7252.634205911802
 30
0.0
 11
10274.7062992126
 21
7252.634205911802
 31
0.0
  0
INSERT
  5
2439A
330
22AFD
100
AcDbEntity
  8
寸法
 62
     0
 48
50.0
370
    -2
100
AcDbBlockReference
  2
_DOTSMALL
 10
9748.600000000005
 20
7252.634205911802
 30
0.0
 41
100.0
 42
100.0
 43
100.0
 50
180.0
  0
INSERT
  5
2439B
330
22AFD
100
AcDbEntity
  8
寸法
 62
     0
 48
50.0
370
    -2
100
AcDbBlockReference
  2
_DOTSMALL
 10
9868.6
 20
7252.634205911802
 30
0.0
 41
100.0
 42
100.0
 43
100.0
  0
MTEXT
  5
2439C
330
22AFD
100
AcDbEntity
  8
寸法
 62
     7
 48
50.0
100
AcDbMText
 10
10138.65905511811
 20
7352.646016935423
 30
0.0
 40
120.0
 41
0.0
 71
     5
 72
     1
  1
\A1;120
  7
STYLE1
 73
     1
 44
1.0
1001
ACAD
1000
MTEXTBEGIN
1070
    73
1070
     1
1070
    44
1040
1.0
1070
    74
1070
     0
1000
MTEXTEND
  0
POINT
  5
2439D
330
22AFD
100
AcDbEntity
  8
DEFPOINTS
 62
     0
 48
50.0
100
AcDbPoint
 10
9868.6
 20
7269.627469950634
 30
0.0
  0
POINT
  5
2439E
330
22AFD
100
AcDbEntity
  8
DEFPOINTS
 62
     0
 48
50.0
100
AcDbPoint
 10
9748.600000000005
 20
7252.634205911802
 30
0.0
  0
POINT
  5
2439F
330
22AFD
100
AcDbEntity
  8
DEFPOINTS
 62
     0
 48
50.0
100
AcDbPoint
 10
9748.600000000005
 20
7252.634205911802
 30
0.0
  0
ENDBLK
  5
22B09
330
22AFD
100
AcDbEntity
  8
0
 48
50.0
100
AcDbBlockEnd
  0
BLOCK
  5
22B15
330
22B0A
100
AcDbEntity
  8
0
 48
50.0
100
AcDbBlockBegin
  2
*D28
 70
     1
 10
0.0
 20
0.0
 30
0.0
  3
*D28
  1

  0
LINE
  5
23FC2
330
22B0A
100
AcDbEntity
  8
寸法
 62
     0
 48
50.0
370
    -2
100
AcDbLine
 10
9362.573225773337
 20
6450.471678639174
 30
0.0
 11
9235.46950000081
 21
6450.471678639174
 31
0.0
  0
LINE
  5
23FC3
330
22B0A
100
AcDbEntity
  8
寸法
 62
     0
 48
50.0
370
    -2
100
AcDbLine
 10
9354.534750000409
 20
6170.471678639181
 30
0.0
 11
9235.46950000081
 21
6170.471678639181
 31
0.0
  0
LINE
  5
23FC4
330
22B0A
100
AcDbEntity
  8
寸法
 62
     0
 48
50.0
370
    -2
100
AcDbLine
 10
9295.469500000811
 20
6450.471678639174
 30
0.0
 11
9295.469500000811
 21
6170.471678639181
 31
0.0
  0
LINE
  5
23FC5
330
22B0A
100
AcDbEntity
  8
寸法
 62
     0
 48
50.0
370
    -2
100
AcDbLine
 10
9295.469500000811
 20
6170.471678639181
 30
0.0
 11
9295.469500000811
 21
5733.937229820269
 31
0.0
  0
INSERT
  5
23FC6
330
22B0A
100
AcDbEntity
  8
寸法
 62
     0
 48
50.0
370
    -2
100
AcDbBlockReference
  2
_DOTSMALL
 10
9295.469500000811
 20
6450.471678639174
 30
0.0
 41
100.0
 42
100.0
 43
100.0
 50
90.0
  0
INSERT
  5
23FC7
330
22B0A
100
AcDbEntity
  8
寸法
 62
     0
 48
50.0
370
    -2
100
AcDbBlockReference
  2
_DOTSMALL
 10
9295.469500000811
 20
6170.471678639181
 30
0.0
 41
100.0
 42
100.0
 43
100.0
 50
270.0
  0
MTEXT
  5
23FC8
330
22B0A
100
AcDbEntity
  8
寸法
 62
     7
 48
50.0
100
AcDbMText
 10
9195.457688977187
 20
5883.508095962003
 30
0.0
 40
120.0
 41
0.0
 71
     5
 72
     1
  1
\A1;280
  7
STYLE1
 11
0.0000000000000001
 21
1.0
 31
0.0
 73
     1
 44
1.0
1001
ACAD
1000
MTEXTBEGIN
1070
    73
1070
     1
1070
    44
1040
1.0
1070
    74
1070
     0
1000
MTEXTEND
  0
POINT
  5
23FC9
330
22B0A
100
AcDbEntity
  8
DEFPOINTS
 62
     0
 48
50.0
100
AcDbPoint
 10
9382.573225773338
 20
6450.471678639174
 30
0.0
  0
POINT
  5
23FCA
330
22B0A
100
AcDbEntity
  8
DEFPOINTS
 62
     0
 48
50.0
100
AcDbPoint
 10
9374.53475000041
 20
6170.471678639181
 30
0.0
  0
POINT
  5
23FCB
330
22B0A
100
AcDbEntity
  8
DEFPOINTS
 62
     0
 48
50.0
100
AcDbPoint
 10
9295.469500000811
 20
6170.471678639181
 30
0.0
  0
ENDBLK
  5
22B16
330
22B0A
100
AcDbEntity
  8
0
 48
50.0
100
AcDbBlockEnd
  0
BLOCK
  5
22B22
330
22B17
100
AcDbEntity
  8
0
 48
50.0
100
AcDbBlockBegin
  2
*D29
 70
     1
 10
0.0
 20
0.0
 30
0.0
  3
*D29
  1

  0
LINE
  5
23EF4
330
22B17
100
AcDbEntity
  8
寸法
 62
     0
 48
50.0
370
    -2
100
AcDbLine
 10
9354.534750000409
 20
7550.471678639151
 30
0.0
 11
9235.46950000081
 21
7550.471678639151
 31
0.0
  0
LINE
  5
23EF5
330
22B17
100
AcDbEntity
  8
寸法
 62
     0
 48
50.0
370
    -2
100
AcDbLine
 10
9354.534750000409
 20
7350.471678639157
 30
0.0
 11
9235.46950000081
 21
7350.471678639157
 31
0.0
  0
LINE
  5
23EF6
330
22B17
100
AcDbEntity
  8
寸法
 62
     0
 48
50.0
370
    -2
100
AcDbLine
 10
9295.469500000811
 20
7350.471678639157
 30
0.0
 11
9295.469500000811
 21
7550.471678639151
 31
0.0
  0
LINE
  5
23EF7
330
22B17
100
AcDbEntity
  8
寸法
 62
     0
 48
50.0
370
    -2
100
AcDbLine
 10
9295.469500000811
 20
7550.471678639151
 30
0.0
 11
9295.469500000811
 21
7987.006127458049
 31
0.0
  0
INSERT
  5
23EF8
330
22B17
100
AcDbEntity
  8
寸法
 62
     0
 48
50.0
370
    -2
100
AcDbBlockReference
  2
_DOTSMALL
 10
9295.469500000811
 20
7350.471678639157
 30
0.0
 41
100.0
 42
100.0
 43
100.0
 50
270.0
  0
INSERT
  5
23EF9
330
22B17
100
AcDbEntity
  8
寸法
 62
     0
 48
50.0
370
    -2
100
AcDbBlockReference
  2
_DOTSMALL
 10
9295.469500000811
 20
7550.471678639151
 30
0.0
 41
100.0
 42
100.0
 43
100.0
 50
90.0
  0
MTEXT
  5
23EFA
330
22B17
100
AcDbEntity
  8
寸法
 62
     7
 48
50.0
100
AcDbMText
 10
9195.457688977187
 20
7837.435261316317
 30
0.0
 40
120.0
 41
0.0
 71
     5
 72
     1
  1
\A1;200
  7
STYLE1
 11
0.0000000000000001
 21
1.0
 31
0.0
 73
     1
 44
1.0
1001
ACAD
1000
MTEXTBEGIN
1070
    73
1070
     1
1070
    44
1040
1.0
1070
    74
1070
     0
1000
MTEXTEND
  0
POINT
  5
23EFB
330
22B17
100
AcDbEntity
  8
DEFPOINTS
 62
     0
 48
50.0
100
AcDbPoint
 10
9374.53475000041
 20
7550.471678639151
 30
0.0
  0
POINT
  5
23EFC
330
22B17
100
AcDbEntity
  8
DEFPOINTS
 62
     0
 48
50.0
100
AcDbPoint
 10
9374.53475000041
 20
7350.471678639157
 30
0.0
  0
POINT
  5
23EFD
330
22B17
100
AcDbEntity
  8
DEFPOINTS
 62
     0
 48
50.0
100
AcDbPoint
 10
9295.469500000811
 20
7350.471678639157
 30
0.0
  0
ENDBLK
  5
22B23
330
22B17
100
AcDbEntity
  8
0
 48
50.0
100
AcDbBlockEnd
  0
BLOCK
  5
23932
330
23928
100
AcDbEntity
  8
0
 48
50.0
100
AcDbBlockBegin
  2
*D30
 70
     1
 10
0.0
 20
0.0
 30
0.0
  3
*D30
  1

  0
LINE
  5
23EA0
330
23928
100
AcDbEntity
  8
寸法
 62
     0
 48
50.0
370
    -2
100
AcDbLine
 10
6578.6
 20
7570.471678639157
 30
0.0
 11
6578.6
 21
8568.692000698074
 31
0.0
  0
LINE
  5
23EA1
330
23928
100
AcDbEntity
  8
寸法
 62
     0
 48
50.0
370
    -2
100
AcDbLine
 10
9868.6
 20
7570.471678639157
 30
0.0
 11
9868.6
 21
8568.692000698074
 31
0.0
  0
LINE
  5
23EA2
330
23928
100
AcDbEntity
  8
寸法
 62
     0
 48
50.0
370
    -2
100
AcDbLine
 10
6578.6
 20
8508.692000698074
 30
0.0
 11
9868.6
 21
8508.692000698074
 31
0.0
  0
INSERT
  5
23EA3
330
23928
100
AcDbEntity
  8
寸法
 62
     0
 48
50.0
370
    -2
100
AcDbBlockReference
  2
_DOTSMALL
 10
6578.6
 20
8508.692000698074
 30
0.0
 41
100.0
 42
100.0
 43
100.0
 50
180.0
  0
INSERT
  5
23EA4
330
23928
100
AcDbEntity
  8
寸法
 62
     0
 48
50.0
370
    -2
100
AcDbBlockReference
  2
_DOTSMALL
 10
9868.6
 20
8508.692000698074
 30
0.0
 41
100.0
 42
100.0
 43
100.0
  0
MTEXT
  5
23EA5
330
23928
100
AcDbEntity
  8
寸法
 62
     7
 48
50.0
100
AcDbMText
 10
8223.600000000001
 20
8608.703811721696
 30
0.0
 40
120.0
 41
0.0
 71
     5
 72
     1
  1
\A1;3290
  7
STYLE1
 73
     1
 44
1.0
1001
ACAD
1000
MTEXTBEGIN
1070
    73
1070
     1
1070
    44
1040
1.0
1070
    74
1070
     0
1000
MTEXTEND
  0
POINT
  5
23EA6
330
23928
100
AcDbEntity
  8
DEFPOINTS
 62
     0
 48
50.0
100
AcDbPoint
 10
6578.6
 20
7550.471678639157
 30
0.0
  0
POINT
  5
23EA7
330
23928
100
AcDbEntity
  8
DEFPOINTS
 62
     0
 48
50.0
100
AcDbPoint
 10
9868.6
 20
7550.471678639157
 30
0.0
  0
POINT
  5
23EA8
330
23928
100
AcDbEntity
  8
DEFPOINTS
 62
     0
 48
50.0
100
AcDbPoint
 10
9868.6
 20
8508.692000698074
 30
0.0
  0
ENDBLK
  5
23933
330
23928
100
AcDbEntity
  8
0
 48
50.0
100
AcDbBlockEnd
  0
BLOCK
  5
2393E
330
23934
100
AcDbEntity
  8
0
 48
50.0
100
AcDbBlockBegin
  2
*D31
 70
     1
 10
0.0
 20
0.0
 30
0.0
  3
*D31
  1

  0
LINE
  5
23E97
330
23934
100
AcDbEntity
  8
寸法
 62
     0
 48
50.0
370
    -2
100
AcDbLine
 10
9745.600000000001
 20
7497.471678639157
 30
0.0
 11
9745.600000000001
 21
8336.738136733067
 31
0.0
  0
LINE
  5
23E98
330
23934
100
AcDbEntity
  8
寸法
 62
     0
 48
50.0
370
    -2
100
AcDbLine
 10
8105.6
 20
7497.471678639157
 30
0.0
 11
8105.6
 21
8336.738136733067
 31
0.0
  0
LINE
  5
23E99
330
23934
100
AcDbEntity
  8
寸法
 62
     0
 48
50.0
370
    -2
100
AcDbLine
 10
9745.600000000001
 20
8276.738136733067
 30
0.0
 11
8105.6
 21
8276.738136733067
 31
0.0
  0
INSERT
  5
23E9A
330
23934
100
AcDbEntity
  8
寸法
 62
     0
 48
50.0
370
    -2
100
AcDbBlockReference
  2
_DOTSMALL
 10
9745.600000000001
 20
8276.738136733067
 30
0.0
 41
100.0
 42
100.0
 43
100.0
  0
INSERT
  5
23E9B
330
23934
100
AcDbEntity
  8
寸法
 62
     0
 48
50.0
370
    -2
100
AcDbBlockReference
  2
_DOTSMALL
 10
8105.6
 20
8276.738136733067
 30
0.0
 41
100.0
 42
100.0
 43
100.0
 50
180.0
  0
MTEXT
  5
23E9C
330
23934
100
AcDbEntity
  8
寸法
 62
     7
 48
50.0
100
AcDbMText
 10
8925.600000000001
 20
8376.738136733067
 30
0.0
 40
120.0
 41
0.0
 71
     5
 72
     1
  1
\A1;1640
  7
STYLE1
 73
     1
 44
1.0
1001
ACAD
1000
MTEXTBEGIN
1070
    73
1070
     1
1070
    44
1040
1.0
1070
    74
1070
     0
1000
MTEXTEND
  0
POINT
  5
23E9D
330
23934
100
AcDbEntity
  8
DEFPOINTS
 62
     0
 48
50.0
100
AcDbPoint
 10
9745.600000000001
 20
7477.471678639156
 30
0.0
  0
POINT
  5
23E9E
330
23934
100
AcDbEntity
  8
DEFPOINTS
 62
     0
 48
50.0
100
AcDbPoint
 10
8105.6
 20
7477.471678639156
 30
0.0
  0
POINT
  5
23E9F
330
23934
100
AcDbEntity
  8
DEFPOINTS
 62
     0
 48
50.0
100
AcDbPoint
 10
8105.6
 20
8276.738136733067
 30
0.0
  0
ENDBLK
  5
2393F
330
23934
100
AcDbEntity
  8
0
 48
50.0
100
AcDbBlockEnd
  0
BLOCK
  5
2394A
330
23940
100
AcDbEntity
  8
0
 48
50.0
100
AcDbBlockBegin
  2
*D32
 70
     1
 10
0.0
 20
0.0
 30
0.0
  3
*D32
  1

  0
LINE
  5
24016
330
23940
100
AcDbEntity
  8
寸法
 62
     0
 48
50.0
370
    -2
100
AcDbLine
 10
9043.600000000008
 20
6967.471678639157
 30
0.0
 11
9043.600000000008
 21
8093.080495309406
 31
0.0
  0
LINE
  5
24017
330
23940
100
AcDbEntity
  8
寸法
 62
     0
 48
50.0
370
    -2
100
AcDbLine
 10
8223.600000000008
 20
6967.471678639157
 30
0.0
 11
8223.600000000008
 21
8093.080495309406
 31
0.0
  0
LINE
  5
24018
330
23940
100
AcDbEntity
  8
寸法
 62
     0
 48
50.0
370
    -2
100
AcDbLine
 10
9043.600000000008
 20
8033.080495309404
 30
0.0
 11
8223.600000000008
 21
8033.080495309404
 31
0.0
  0
INSERT
  5
24019
330
23940
100
AcDbEntity
  8
寸法
 62
     0
 48
50.0
370
    -2
100
AcDbBlockReference
  2
_DOTSMALL
 10
9043.600000000008
 20
8033.080495309404
 30
0.0
 41
100.0
 42
100.0
 43
100.0
  0
INSERT
  5
2401A
330
23940
100
AcDbEntity
  8
寸法
 62
     0
 48
50.0
370
    -2
100
AcDbBlockReference
  2
_DOTSMALL
 10
8223.600000000008
 20
8033.080495309404
 30
0.0
 41
100.0
 42
100.0
 43
100.0
 50
180.0
  0
MTEXT
  5
2401B
330
23940
100
AcDbEntity
  8
寸法
 62
     7
 48
50.0
100
AcDbMText
 10
8633.600000000008
 20
8133.092306333026
 30
0.0
 40
120.0
 41
0.0
 71
     5
 72
     1
  1
\A1;820
  7
STYLE1
 73
     1
 44
1.0
1001
ACAD
1000
MTEXTBEGIN
1070
    73
1070
     1
1070
    44
1040
1.0
1070
    74
1070
     0
1000
MTEXTEND
  0
POINT
  5
2401C
330
23940
100
AcDbEntity
  8
DEFPOINTS
 62
     0
 48
50.0
100
AcDbPoint
 10
9043.600000000008
 20
6947.471678639157
 30
0.0
  0
POINT
  5
2401D
330
23940
100
AcDbEntity
  8
DEFPOINTS
 62
     0
 48
50.0
100
AcDbPoint
 10
8223.600000000008
 20
6947.471678639157
 30
0.0
  0
POINT
  5
2401E
330
23940
100
AcDbEntity
  8
DEFPOINTS
 62
     0
 48
50.0
100
AcDbPoint
 10
8223.600000000008
 20
8033.080495309404
 30
0.0
  0
ENDBLK
  5
2394B
330
23940
100
AcDbEntity
  8
0
 48
50.0
100
AcDbBlockEnd
  0
BLOCK
  5
23956
330
2394C
100
AcDbEntity
  8
0
 48
50.0
100
AcDbBlockBegin
  2
*D33
 70
     1
 10
0.0
 20
0.0
 30
0.0
  3
*D33
  1

  0
LINE
  5
2400D
330
2394C
100
AcDbEntity
  8
寸法
 62
     0
 48
50.0
370
    -2
100
AcDbLine
 10
7333.600000000008
 20
6897.471678639156
 30
0.0
 11
7032.442995307156
 21
6897.471678639156
 31
0.0
  0
LINE
  5
2400E
330
2394C
100
AcDbEntity
  8
寸法
 62
     0
 48
50.0
370
    -2
100
AcDbLine
 10
7042.765475140901
 20
7550.471678639157
 30
0.0
 11
7152.442995307156
 21
7550.471678639157
 31
0.0
  0
LINE
  5
2400F
330
2394C
100
AcDbEntity
  8
寸法
 62
     0
 48
50.0
370
    -2
100
AcDbLine
 10
7092.442995307156
 20
6897.471678639156
 30
0.0
 11
7092.442995307156
 21
7550.471678639157
 31
0.0
  0
INSERT
  5
24010
330
2394C
100
AcDbEntity
  8
寸法
 62
     0
 48
50.0
370
    -2
100
AcDbBlockReference
  2
_DOTSMALL
 10
7092.442995307156
 20
6897.471678639156
 30
0.0
 41
100.0
 42
100.0
 43
100.0
 50
270.0
  0
INSERT
  5
24011
330
2394C
100
AcDbEntity
  8
寸法
 62
     0
 48
50.0
370
    -2
100
AcDbBlockReference
  2
_DOTSMALL
 10
7092.442995307156
 20
7550.471678639157
 30
0.0
 41
100.0
 42
100.0
 43
100.0
 50
90.0
  0
MTEXT
  5
24012
330
2394C
100
AcDbEntity
  8
寸法
 62
     7
 48
50.0
100
AcDbMText
 10
6992.442995307154
 20
7190.066469333332
 30
0.0
 40
120.0
 41
0.0
 71
     5
 72
     1
  1
\A1;653
  7
STYLE1
 11
0.0000000000000001
 21
1.0
 31
0.0
 73
     1
 44
1.0
1001
ACAD
1000
MTEXTBEGIN
1070
    73
1070
     1
1070
    44
1040
1.0
1070
    74
1070
     0
1000
MTEXTEND
  0
POINT
  5
24013
330
2394C
100
AcDbEntity
  8
DEFPOINTS
 62
     0
 48
50.0
100
AcDbPoint
 10
7353.600000000007
 20
6897.471678639156
 30
0.0
  0
POINT
  5
24014
330
2394C
100
AcDbEntity
  8
DEFPOINTS
 62
     0
 48
50.0
100
AcDbPoint
 10
7022.7654751409
 20
7550.471678639157
 30
0.0
  0
POINT
  5
24015
330
2394C
100
AcDbEntity
  8
DEFPOINTS
 62
     0
 48
50.0
100
AcDbPoint
 10
7092.442995307156
 20
7550.471678639157
 30
0.0
  0
ENDBLK
  5
23957
330
2394C
100
AcDbEntity
  8
0
 48
50.0
100
AcDbBlockEnd
  0
BLOCK
  5
23961
330
23958
100
AcDbEntity
  8
0
 48
50.0
100
AcDbBlockBegin
  2
*D34
 70
     1
 10
0.0
 20
0.0
 30
0.0
  3
*D34
  1

  0
LINE
  5
24004
330
23958
100
AcDbEntity
  8
寸法
 62
     0
 48
50.0
370
    -2
100
AcDbLine
 10
8223.600000000008
 20
6967.471678639157
 30
0.0
 11
8223.600000000008
 21
8093.080495309406
 31
0.0
  0
LINE
  5
24005
330
23958
100
AcDbEntity
  8
寸法
 62
     0
 48
50.0
370
    -2
100
AcDbLine
 10
7403.600000000007
 20
6967.471678639157
 30
0.0
 11
7403.600000000007
 21
8093.080495309406
 31
0.0
  0
LINE
  5
24006
330
23958
100
AcDbEntity
  8
寸法
 62
     0
 48
50.0
370
    -2
100
AcDbLine
 10
8223.600000000008
 20
8033.080495309404
 30
0.0
 11
7403.600000000007
 21
8033.080495309404
 31
0.0
  0
INSERT
  5
24007
330
23958
100
AcDbEntity
  8
寸法
 62
     0
 48
50.0
370
    -2
100
AcDbBlockReference
  2
_DOTSMALL
 10
8223.600000000008
 20
8033.080495309404
 30
0.0
 41
100.0
 42
100.0
 43
100.0
  0
INSERT
  5
24008
330
23958
100
AcDbEntity
  8
寸法
 62
     0
 48
50.0
370
    -2
100
AcDbBlockReference
  2
_DOTSMALL
 10
7403.600000000007
 20
8033.080495309404
 30
0.0
 41
100.0
 42
100.0
 43
100.0
 50
180.0
  0
MTEXT
  5
24009
330
23958
100
AcDbEntity
  8
寸法
 62
     7
 48
50.0
100
AcDbMText
 10
7813.600000000008
 20
8133.092306333026
 30
0.0
 40
120.0
 41
0.0
 71
     5
 72
     1
  1
\A1;820
  7
STYLE1
 73
     1
 44
1.0
1001
ACAD
1000
MTEXTBEGIN
1070
    73
1070
     1
1070
    44
1040
1.0
1070
    74
1070
     0
1000
MTEXTEND
  0
POINT
  5
2400A
330
23958
100
AcDbEntity
  8
DEFPOINTS
 62
     0
 48
50.0
100
AcDbPoint
 10
8223.600000000008
 20
6947.471678639157
 30
0.0
  0
POINT
  5
2400B
330
23958
100
AcDbEntity
  8
DEFPOINTS
 62
     0
 48
50.0
100
AcDbPoint
 10
7403.600000000007
 20
6947.471678639157
 30
0.0
  0
POINT
  5
2400C
330
23958
100
AcDbEntity
  8
DEFPOINTS
 62
     0
 48
50.0
100
AcDbPoint
 10
7403.600000000007
 20
8033.080495309404
 30
0.0
  0
ENDBLK
  5
23962
330
23958
100
AcDbEntity
  8
0
 48
50.0
100
AcDbBlockEnd
  0
BLOCK
  5
2396D
330
23963
100
AcDbEntity
  8
0
 48
50.0
100
AcDbBlockBegin
  2
*D35
 70
     1
 10
0.0
 20
0.0
 30
0.0
  3
*D35
  1

  0
LINE
  5
23FFB
330
23963
100
AcDbEntity
  8
寸法
 62
     0
 48
50.0
370
    -2
100
AcDbLine
 10
7403.600000000007
 20
6967.471678639157
 30
0.0
 11
7403.600000000007
 21
8093.080495309406
 31
0.0
  0
LINE
  5
23FFC
330
23963
100
AcDbEntity
  8
寸法
 62
     0
 48
50.0
370
    -2
100
AcDbLine
 10
6578.6
 20
7570.471678639157
 30
0.0
 11
6578.6
 21
8093.080495309406
 31
0.0
  0
LINE
  5
23FFD
330
23963
100
AcDbEntity
  8
寸法
 62
     0
 48
50.0
370
    -2
100
AcDbLine
 10
7403.600000000007
 20
8033.080495309404
 30
0.0
 11
6578.6
 21
8033.080495309404
 31
0.0
  0
INSERT
  5
23FFE
330
23963
100
AcDbEntity
  8
寸法
 62
     0
 48
50.0
370
    -2
100
AcDbBlockReference
  2
_DOTSMALL
 10
7403.600000000007
 20
8033.080495309404
 30
0.0
 41
100.0
 42
100.0
 43
100.0
  0
INSERT
  5
23FFF
330
23963
100
AcDbEntity
  8
寸法
 62
     0
 48
50.0
370
    -2
100
AcDbBlockReference
  2
_DOTSMALL
 10
6578.6
 20
8033.080495309404
 30
0.0
 41
100.0
 42
100.0
 43
100.0
 50
180.0
  0
MTEXT
  5
24000
330
23963
100
AcDbEntity
  8
寸法
 62
     7
 48
50.0
100
AcDbMText
 10
6991.100000000004
 20
8133.092306333026
 30
0.0
 40
120.0
 41
0.0
 71
     5
 72
     1
  1
\A1;825
  7
STYLE1
 73
     1
 44
1.0
1001
ACAD
1000
MTEXTBEGIN
1070
    73
1070
     1
1070
    44
1040
1.0
1070
    74
1070
     0
1000
MTEXTEND
  0
POINT
  5
24001
330
23963
100
AcDbEntity
  8
DEFPOINTS
 62
     0
 48
50.0
100
AcDbPoint
 10
7403.600000000007
 20
6947.471678639157
 30
0.0
  0
POINT
  5
24002
330
23963
100
AcDbEntity
  8
DEFPOINTS
 62
     0
 48
50.0
100
AcDbPoint
 10
6578.6
 20
7550.471678639157
 30
0.0
  0
POINT
  5
24003
330
23963
100
AcDbEntity
  8
DEFPOINTS
 62
     0
 48
50.0
100
AcDbPoint
 10
6578.6
 20
8033.080495309404
 30
0.0
  0
ENDBLK
  5
2396E
330
23963
100
AcDbEntity
  8
0
 48
50.0
100
AcDbBlockEnd
  0
BLOCK
  5
23979
330
2396F
100
AcDbEntity
  8
0
 48
50.0
100
AcDbBlockBegin
  2
*D36
 70
     1
 10
0.0
 20
0.0
 30
0.0
  3
*D36
  1

  0
LINE
  5
23EC6
330
2396F
100
AcDbEntity
  8
寸法
 62
     0
 48
50.0
370
    -2
100
AcDbLine
 10
6558.6
 20
7550.471678639157
 30
0.0
 11
5643.721909610674
 21
7550.471678639157
 31
0.0
  0
LINE
  5
23EC7
330
2396F
100
AcDbEntity
  8
寸法
 62
     0
 48
50.0
370
    -2
100
AcDbLine
 10
6558.6
 20
6170.471678639156
 30
0.0
 11
5643.721909610674
 21
6170.471678639157
 31
0.0
  0
LINE
  5
23EC8
330
2396F
100
AcDbEntity
  8
寸法
 62
     0
 48
50.0
370
    -2
100
AcDbLine
 10
5703.721909610674
 20
7550.471678639157
 30
0.0
 11
5703.721909610674
 21
6170.471678639157
 31
0.0
  0
INSERT
  5
23EC9
330
2396F
100
AcDbEntity
  8
寸法
 62
     0
 48
50.0
370
    -2
100
AcDbBlockReference
  2
_DOTSMALL
 10
5703.721909610674
 20
7550.471678639157
 30
0.0
 41
100.0
 42
100.0
 43
100.0
 50
90.0
  0
INSERT
  5
23ECA
330
2396F
100
AcDbEntity
  8
寸法
 62
     0
 48
50.0
370
    -2
100
AcDbBlockReference
  2
_DOTSMALL
 10
5703.721909610674
 20
6170.471678639157
 30
0.0
 41
100.0
 42
100.0
 43
100.0
 50
270.0
  0
MTEXT
  5
23ECB
330
2396F
100
AcDbEntity
  8
寸法
 62
     7
 48
50.0
100
AcDbMText
 10
5603.721909610673
 20
6897.971678639156
 30
0.0
 40
120.0
 41
0.0
 71
     5
 72
     1
  1
\A1;1380
  7
STYLE1
 11
0.0000000000000001
 21
1.0
 31
0.0
 73
     1
 44
1.0
1001
ACAD
1000
MTEXTBEGIN
1070
    73
1070
     1
1070
    44
1040
1.0
1070
    74
1070
     0
1000
MTEXTEND
  0
POINT
  5
23ECC
330
2396F
100
AcDbEntity
  8
DEFPOINTS
 62
     0
 48
50.0
100
AcDbPoint
 10
6578.6
 20
7550.471678639157
 30
0.0
  0
POINT
  5
23ECD
330
2396F
100
AcDbEntity
  8
DEFPOINTS
 62
     0
 48
50.0
100
AcDbPoint
 10
6578.6
 20
6170.471678639156
 30
0.0
  0
POINT
  5
23ECE
330
2396F
100
AcDbEntity
  8
DEFPOINTS
 62
     0
 48
50.0
100
AcDbPoint
 10
5703.721909610674
 20
6170.471678639157
 30
0.0
  0
ENDBLK
  5
2397A
330
2396F
100
AcDbEntity
  8
0
 48
50.0
100
AcDbBlockEnd
  0
BLOCK
  5
23985
330
2397B
100
AcDbEntity
  8
0
 48
50.0
100
AcDbBlockBegin
  2
*D37
 70
     1
 10
0.0
 20
0.0
 30
0.0
  3
*D37
  1

  0
LINE
  5
23F58
330
2397B
100
AcDbEntity
  8
寸法
 62
     0
 48
50.0
370
    -2
100
AcDbLine
 10
6631.6
 20
7427.471678639157
 30
0.0
 11
5895.665006330073
 21
7427.471678639157
 31
0.0
  0
LINE
  5
23F59
330
2397B
100
AcDbEntity
  8
寸法
 62
     0
 48
50.0
370
    -2
100
AcDbLine
 10
6631.600000000007
 20
6368.47167863916
 30
0.0
 11
5895.665006330073
 21
6368.471678639161
 31
0.0
  0
LINE
  5
23F5A
330
2397B
100
AcDbEntity
  8
寸法
 62
     0
 48
50.0
370
    -2
100
AcDbLine
 10
5955.665006330073
 20
7427.471678639157
 30
0.0
 11
5955.665006330073
 21
6368.471678639161
 31
0.0
  0
INSERT
  5
23F5B
330
2397B
100
AcDbEntity
  8
寸法
 62
     0
 48
50.0
370
    -2
100
AcDbBlockReference
  2
_DOTSMALL
 10
5955.665006330073
 20
7427.471678639157
 30
0.0
 41
100.0
 42
100.0
 43
100.0
 50
90.0
  0
INSERT
  5
23F5C
330
2397B
100
AcDbEntity
  8
寸法
 62
     0
 48
50.0
370
    -2
100
AcDbBlockReference
  2
_DOTSMALL
 10
5955.665006330073
 20
6368.471678639161
 30
0.0
 41
100.0
 42
100.0
 43
100.0
 50
270.0
  0
MTEXT
  5
23F5D
330
2397B
100
AcDbEntity
  8
寸法
 62
     7
 48
50.0
100
AcDbMText
 10
5855.665006330071
 20
6897.971678639156
 30
0.0
 40
120.0
 41
0.0
 71
     5
 72
     1
  1
\A1;1059
  7
STYLE1
 11
0.0000000000000001
 21
1.0
 31
0.0
 73
     1
 44
1.0
1001
ACAD
1000
MTEXTBEGIN
1070
    73
1070
     1
1070
    44
1040
1.0
1070
    74
1070
     0
1000
MTEXTEND
  0
POINT
  5
23F5E
330
2397B
100
AcDbEntity
  8
DEFPOINTS
 62
     0
 48
50.0
100
AcDbPoint
 10
6651.600000000001
 20
7427.471678639157
 30
0.0
  0
POINT
  5
23F5F
330
2397B
100
AcDbEntity
  8
DEFPOINTS
 62
     0
 48
50.0
100
AcDbPoint
 10
6651.600000000008
 20
6368.47167863916
 30
0.0
  0
POINT
  5
23F60
330
2397B
100
AcDbEntity
  8
DEFPOINTS
 62
     0
 48
50.0
100
AcDbPoint
 10
5955.665006330073
 20
6368.471678639161
 30
0.0
  0
ENDBLK
  5
23986
330
2397B
100
AcDbEntity
  8
0
 48
50.0
100
AcDbBlockEnd
  0
BLOCK
  5
23991
330
23987
100
AcDbEntity
  8
0
 48
50.0
100
AcDbBlockBegin
  2
*D38
 70
     1
 10
0.0
 20
0.0
 30
0.0
  3
*D38
  1

  0
LINE
  5
23ECF
330
23987
100
AcDbEntity
  8
寸法
 62
     0
 48
50.0
370
    -2
100
AcDbLine
 10
6558.600000000009
 20
6170.471678639152
 30
0.0
 11
6405.512673767884
 21
6170.471678639152
 31
0.0
  0
LINE
  5
23ED0
330
23987
100
AcDbEntity
  8
寸法
 62
     0
 48
50.0
370
    -2
100
AcDbLine
 10
6914.325326928812
 20
5450.471678639153
 30
0.0
 11
6405.512673767884
 21
5450.471678639153
 31
0.0
  0
LINE
  5
23ED1
330
23987
100
AcDbEntity
  8
寸法
 62
     0
 48
50.0
370
    -2
100
AcDbLine
 10
6465.512673767884
 20
6170.471678639152
 30
0.0
 11
6465.512673767882
 21
5450.471678639153
 31
0.0
  0
INSERT
  5
23ED2
330
23987
100
AcDbEntity
  8
寸法
 62
     0
 48
50.0
370
    -2
100
AcDbBlockReference
  2
_DOTSMALL
 10
6465.512673767884
 20
6170.471678639152
 30
0.0
 41
100.0
 42
100.0
 43
100.0
 50
90.0
  0
INSERT
  5
23ED3
330
23987
100
AcDbEntity
  8
寸法
 62
     0
 48
50.0
370
    -2
100
AcDbBlockReference
  2
_DOTSMALL
 10
6465.512673767882
 20
5450.471678639153
 30
0.0
 41
100.0
 42
100.0
 43
100.0
 50
270.0
  0
MTEXT
  5
23ED4
330
23987
100
AcDbEntity
  8
寸法
 62
     7
 48
50.0
100
AcDbMText
 10
6365.50086274426
 20
5810.471678639155
 30
0.0
 40
120.0
 41
0.0
 71
     5
 72
     1
  1
\A1;扉の出720
  7
STYLE1
 11
0.0000000000000001
 21
1.0
 31
0.0
 73
     1
 44
1.0
1001
ACAD
1000
MTEXTBEGIN
1070
    73
1070
     1
1070
    44
1040
1.0
1070
    74
1070
     0
1000
MTEXTEND
  0
POINT
  5
23ED5
330
23987
100
AcDbEntity
  8
DEFPOINTS
 62
     0
 48
50.0
100
AcDbPoint
 10
6578.600000000007
 20
6170.471678639152
 30
0.0
  0
POINT
  5
23ED6
330
23987
100
AcDbEntity
  8
DEFPOINTS
 62
     0
 48
50.0
100
AcDbPoint
 10
6934.325326928813
 20
5450.471678639153
 30
0.0
  0
POINT
  5
23ED7
330
23987
100
AcDbEntity
  8
DEFPOINTS
 62
     0
 48
50.0
100
AcDbPoint
 10
6465.512673767882
 20
5450.471678639153
 30
0.0
  0
ENDBLK
  5
23992
330
23987
100
AcDbEntity
  8
0
 48
50.0
100
AcDbBlockEnd
  0
BLOCK
  5
2399E
330
23993
100
AcDbEntity
  8
0
 48
50.0
100
AcDbBlockBegin
  2
*D39
 70
     1
 10
0.0
 20
0.0
 30
0.0
  3
*D39
  1

  0
LINE
  5
23F4E
330
23993
100
AcDbEntity
  8
寸法
 62
     0
 48
50.0
370
    -2
100
AcDbLine
 10
6631.600000000007
 20
6368.47167863916
 30
0.0
 11
5895.665006330073
 21
6368.471678639161
 31
0.0
  0
LINE
  5
23F4F
330
23993
100
AcDbEntity
  8
寸法
 62
     0
 48
50.0
370
    -2
100
AcDbLine
 10
6558.6
 20
6170.471678639156
 30
0.0
 11
5895.665006330073
 21
6170.471678639157
 31
0.0
  0
LINE
  5
23F50
330
23993
100
AcDbEntity
  8
寸法
 62
     0
 48
50.0
370
    -2
100
AcDbLine
 10
5955.665006330073
 20
6368.471678639161
 30
0.0
 11
5955.665006330073
 21
6170.471678639157
 31
0.0
  0
LINE
  5
23F51
330
23993
100
AcDbEntity
  8
寸法
 62
     0
 48
50.0
370
    -2
100
AcDbLine
 10
5955.665006330073
 20
6170.471678639157
 30
0.0
 11
5955.665006330072
 21
5698.731069966907
 31
0.0
  0
INSERT
  5
23F52
330
23993
100
AcDbEntity
  8
寸法
 62
     0
 48
50.0
370
    -2
100
AcDbBlockReference
  2
_DOTSMALL
 10
5955.665006330073
 20
6368.471678639161
 30
0.0
 41
100.0
 42
100.0
 43
100.0
 50
90.0
  0
INSERT
  5
23F53
330
23993
100
AcDbEntity
  8
寸法
 62
     0
 48
50.0
370
    -2
100
AcDbBlockReference
  2
_DOTSMALL
 10
5955.665006330073
 20
6170.471678639157
 30
0.0
 41
100.0
 42
100.0
 43
100.0
 50
270.0
  0
MTEXT
  5
23F54
330
23993
100
AcDbEntity
  8
寸法
 62
     7
 48
50.0
100
AcDbMText
 10
5855.665006330071
 20
5834.940729796564
 30
0.0
 40
120.0
 41
0.0
 71
     5
 72
     1
  1
\A1;198
  7
STYLE1
 11
0.0000000000000001
 21
1.0
 31
0.0
 73
     1
 44
1.0
1001
ACAD
1000
MTEXTBEGIN
1070
    73
1070
     1
1070
    44
1040
1.0
1070
    74
1070
     0
1000
MTEXTEND
  0
POINT
  5
23F55
330
23993
100
AcDbEntity
  8
DEFPOINTS
 62
     0
 48
50.0
100
AcDbPoint
 10
6651.600000000008
 20
6368.47167863916
 30
0.0
  0
POINT
  5
23F56
330
23993
100
AcDbEntity
  8
DEFPOINTS
 62
     0
 48
50.0
100
AcDbPoint
 10
6578.6
 20
6170.471678639156
 30
0.0
  0
POINT
  5
23F57
330
23993
100
AcDbEntity
  8
DEFPOINTS
 62
     0
 48
50.0
100
AcDbPoint
 10
5955.665006330073
 20
6170.471678639157
 30
0.0
  0
ENDBLK
  5
2399F
330
23993
100
AcDbEntity
  8
0
 48
50.0
100
AcDbBlockEnd
  0
BLOCK
  5
239C3
330
239B9
100
AcDbEntity
  8
0
 48
50.0
100
AcDbBlockBegin
  2
*D40
 70
     1
 10
0.0
 20
0.0
 30
0.0
  3
*D40
  1

  0
LINE
  5
23FF2
330
239B9
100
AcDbEntity
  8
寸法
 62
     0
 48
50.0
370
    -2
100
AcDbLine
 10
7042.765475140901
 20
6170.471678639167
 30
0.0
 11
7152.442995307156
 21
6170.471678639167
 31
0.0
  0
LINE
  5
23FF3
330
239B9
100
AcDbEntity
  8
寸法
 62
     0
 48
50.0
370
    -2
100
AcDbLine
 10
7333.600000000008
 20
6897.471678639156
 30
0.0
 11
7032.442995307156
 21
6897.471678639156
 31
0.0
  0
LINE
  5
23FF4
330
239B9
100
AcDbEntity
  8
寸法
 62
     0
 48
50.0
370
    -2
100
AcDbLine
 10
7092.442995307156
 20
6170.471678639167
 30
0.0
 11
7092.442995307156
 21
6897.471678639156
 31
0.0
  0
INSERT
  5
23FF5
330
239B9
100
AcDbEntity
  8
寸法
 62
     0
 48
50.0
370
    -2
100
AcDbBlockReference
  2
_DOTSMALL
 10
7092.442995307156
 20
6170.471678639167
 30
0.0
 41
100.0
 42
100.0
 43
100.0
 50
270.0
  0
INSERT
  5
23FF6
330
239B9
100
AcDbEntity
  8
寸法
 62
     0
 48
50.0
370
    -2
100
AcDbBlockReference
  2
_DOTSMALL
 10
7092.442995307156
 20
6897.471678639156
 30
0.0
 41
100.0
 42
100.0
 43
100.0
 50
90.0
  0
MTEXT
  5
23FF7
330
239B9
100
AcDbEntity
  8
寸法
 62
     7
 48
50.0
100
AcDbMText
 10
6992.431184283532
 20
6575.471678639157
 30
0.0
 40
120.0
 41
0.0
 71
     5
 72
     1
  1
\A1;727
  7
STYLE1
 11
0.0000000000000001
 21
1.0
 31
0.0
 73
     1
 44
1.0
1001
ACAD
1000
MTEXTBEGIN
1070
    73
1070
     1
1070
    44
1040
1.0
1070
    74
1070
     0
1000
MTEXTEND
  0
POINT
  5
23FF8
330
239B9
100
AcDbEntity
  8
DEFPOINTS
 62
     0
 48
50.0
100
AcDbPoint
 10
7022.7654751409
 20
6170.471678639167
 30
0.0
  0
POINT
  5
23FF9
330
239B9
100
AcDbEntity
  8
DEFPOINTS
 62
     0
 48
50.0
100
AcDbPoint
 10
7353.600000000007
 20
6897.471678639156
 30
0.0
  0
POINT
  5
23FFA
330
239B9
100
AcDbEntity
  8
DEFPOINTS
 62
     0
 48
50.0
100
AcDbPoint
 10
7092.442995307156
 20
6897.471678639156
 30
0.0
  0
ENDBLK
  5
239C4
330
239B9
100
AcDbEntity
  8
0
 48
50.0
100
AcDbBlockEnd
  0
BLOCK
  5
239CE
330
239C5
100
AcDbEntity
  8
0
 48
50.0
100
AcDbBlockBegin
  2
*D41
 70
     1
 10
0.0
 20
0.0
 30
0.0
  3
*D41
  1

  0
LINE
  5
23E73
330
239C5
100
AcDbEntity
  8
寸法
 62
     0
 48
50.0
370
    -2
100
AcDbLine
 10
8105.6
 20
7497.471678639157
 30
0.0
 11
8105.6
 21
8336.738136733067
 31
0.0
  0
LINE
  5
23E74
330
239C5
100
AcDbEntity
  8
寸法
 62
     0
 48
50.0
370
    -2
100
AcDbLine
 10
6701.6
 20
7497.471678639157
 30
0.0
 11
6701.6
 21
8336.738136733067
 31
0.0
  0
LINE
  5
23E75
330
239C5
100
AcDbEntity
  8
寸法
 62
     0
 48
50.0
370
    -2
100
AcDbLine
 10
8105.6
 20
8276.738136733067
 30
0.0
 11
6701.6
 21
8276.738136733067
 31
0.0
  0
INSERT
  5
23E76
330
239C5
100
AcDbEntity
  8
寸法
 62
     0
 48
50.0
370
    -2
100
AcDbBlockReference
  2
_DOTSMALL
 10
8105.6
 20
8276.738136733067
 30
0.0
 41
100.0
 42
100.0
 43
100.0
  0
INSERT
  5
23E77
330
239C5
100
AcDbEntity
  8
寸法
 62
     0
 48
50.0
370
    -2
100
AcDbBlockReference
  2
_DOTSMALL
 10
6701.6
 20
8276.738136733067
 30
0.0
 41
100.0
 42
100.0
 43
100.0
 50
180.0
  0
MTEXT
  5
23E78
330
239C5
100
AcDbEntity
  8
寸法
 62
     7
 48
50.0
100
AcDbMText
 10
7403.6
 20
8376.738136733067
 30
0.0
 40
120.0
 41
0.0
 71
     5
 72
     1
  1
\A1;1404
  7
STYLE1
 73
     1
 44
1.0
1001
ACAD
1000
MTEXTBEGIN
1070
    73
1070
     1
1070
    44
1040
1.0
1070
    74
1070
     0
1000
MTEXTEND
  0
POINT
  5
23E79
330
239C5
100
AcDbEntity
  8
DEFPOINTS
 62
     0
 48
50.0
100
AcDbPoint
 10
8105.6
 20
7477.471678639156
 30
0.0
  0
POINT
  5
23E7A
330
239C5
100
AcDbEntity
  8
DEFPOINTS
 62
     0
 48
50.0
100
AcDbPoint
 10
6701.6
 20
7477.471678639156
 30
0.0
  0
POINT
  5
23E7B
330
239C5
100
AcDbEntity
  8
DEFPOINTS
 62
     0
 48
50.0
100
AcDbPoint
 10
6701.6
 20
8276.738136733067
 30
0.0
  0
ENDBLK
  5
239CF
330
239C5
100
AcDbEntity
  8
0
 48
50.0
100
AcDbBlockEnd
  0
BLOCK
  5
239DB
330
239D0
100
AcDbEntity
  8
0
 48
50.0
100
AcDbBlockBegin
  2
*D42
 70
     1
 10
0.0
 20
0.0
 30
0.0
  3
*D42
  1

  0
LINE
  5
23E69
330
239D0
100
AcDbEntity
  8
寸法
 62
     0
 48
50.0
370
    -2
100
AcDbLine
 10
6701.6
 20
7497.471678639157
 30
0.0
 11
6701.6
 21
8336.738136733067
 31
0.0
  0
LINE
  5
23E6A
330
239D0
100
AcDbEntity
  8
寸法
 62
     0
 48
50.0
370
    -2
100
AcDbLine
 10
6578.6
 20
7570.471678639157
 30
0.0
 11
6578.6
 21
8336.738136733067
 31
0.0
  0
LINE
  5
23E6B
330
239D0
100
AcDbEntity
  8
寸法
 62
     0
 48
50.0
370
    -2
100
AcDbLine
 10
6701.6
 20
8276.738136733067
 30
0.0
 11
6578.6
 21
8276.738136733067
 31
0.0
  0
LINE
  5
23E6C
330
239D0
100
AcDbEntity
  8
寸法
 62
     0
 48
50.0
370
    -2
100
AcDbLine
 10
6578.6
 20
8276.738136733067
 30
0.0
 11
6167.008116907963
 21
8276.738136733067
 31
0.0
  0
INSERT
  5
23E6D
330
239D0
100
AcDbEntity
  8
寸法
 62
     0
 48
50.0
370
    -2
100
AcDbBlockReference
  2
_DOTSMALL
 10
6701.6
 20
8276.738136733067
 30
0.0
 41
100.0
 42
100.0
 43
100.0
  0
INSERT
  5
23E6E
330
239D0
100
AcDbEntity
  8
寸法
 62
     0
 48
50.0
370
    -2
100
AcDbBlockReference
  2
_DOTSMALL
 10
6578.6
 20
8276.738136733067
 30
0.0
 41
100.0
 42
100.0
 43
100.0
 50
180.0
  0
MTEXT
  5
23E6F
330
239D0
100
AcDbEntity
  8
寸法
 62
     7
 48
50.0
100
AcDbMText
 10
6305.493398282202
 20
8376.749947756689
 30
0.0
 40
120.0
 41
0.0
 71
     5
 72
     1
  1
\A1;123
  7
STYLE1
 73
     1
 44
1.0
1001
ACAD
1000
MTEXTBEGIN
1070
    73
1070
     1
1070
    44
1040
1.0
1070
    74
1070
     0
1000
MTEXTEND
  0
POINT
  5
23E70
330
239D0
100
AcDbEntity
  8
DEFPOINTS
 62
     0
 48
50.0
100
AcDbPoint
 10
6701.6
 20
7477.471678639156
 30
0.0
  0
POINT
  5
23E71
330
239D0
100
AcDbEntity
  8
DEFPOINTS
 62
     0
 48
50.0
100
AcDbPoint
 10
6578.6
 20
7550.471678639157
 30
0.0
  0
POINT
  5
23E72
330
239D0
100
AcDbEntity
  8
DEFPOINTS
 62
     0
 48
50.0
100
AcDbPoint
 10
6578.6
 20
8276.738136733067
 30
0.0
  0
ENDBLK
  5
239DC
330
239D0
100
AcDbEntity
  8
0
 48
50.0
100
AcDbBlockEnd
  0
BLOCK
  5
239F5
330
239EA
100
AcDbEntity
  8
0
 48
50.0
100
AcDbBlockBegin
  2
*D43
 70
     1
 10
0.0
 20
0.0
 30
0.0
  3
*D43
  1

  0
LINE
  5
23EA9
330
239EA
100
AcDbEntity
  8
寸法
 62
     0
 48
50.0
370
    -2
100
AcDbLine
 10
6558.6
 20
7550.471678639157
 30
0.0
 11
5895.665006330072
 21
7550.471678639157
 31
0.0
  0
LINE
  5
23EAA
330
239EA
100
AcDbEntity
  8
寸法
 62
     0
 48
50.0
370
    -2
100
AcDbLine
 10
6631.6
 20
7427.471678639157
 30
0.0
 11
5895.665006330072
 21
7427.471678639157
 31
0.0
  0
LINE
  5
23EAB
330
239EA
100
AcDbEntity
  8
寸法
 62
     0
 48
50.0
370
    -2
100
AcDbLine
 10
5955.665006330072
 20
7427.471678639157
 30
0.0
 11
5955.665006330072
 21
7550.471678639157
 31
0.0
  0
LINE
  5
23EAC
330
239EA
100
AcDbEntity
  8
寸法
 62
     0
 48
50.0
370
    -2
100
AcDbLine
 10
5955.665006330072
 20
7550.471678639157
 30
0.0
 11
5955.665006330072
 21
7962.063561731195
 31
0.0
  0
INSERT
  5
23EAD
330
239EA
100
AcDbEntity
  8
寸法
 62
     0
 48
50.0
370
    -2
100
AcDbBlockReference
  2
_DOTSMALL
 10
5955.665006330072
 20
7427.471678639157
 30
0.0
 41
100.0
 42
100.0
 43
100.0
 50
270.0
  0
INSERT
  5
23EAE
330
239EA
100
AcDbEntity
  8
寸法
 62
     0
 48
50.0
370
    -2
100
AcDbBlockReference
  2
_DOTSMALL
 10
5955.665006330072
 20
7550.471678639157
 30
0.0
 41
100.0
 42
100.0
 43
100.0
 50
90.0
  0
MTEXT
  5
23EAF
330
239EA
100
AcDbEntity
  8
寸法
 62
     7
 48
50.0
100
AcDbMText
 10
5855.65319530645
 20
7823.578280356956
 30
0.0
 40
120.0
 41
0.0
 71
     5
 72
     1
  1
\A1;123
  7
STYLE1
 11
0.0000000000000001
 21
1.0
 31
0.0
 73
     1
 44
1.0
1001
ACAD
1000
MTEXTBEGIN
1070
    73
1070
     1
1070
    44
1040
1.0
1070
    74
1070
     0
1000
MTEXTEND
  0
POINT
  5
23EB0
330
239EA
100
AcDbEntity
  8
DEFPOINTS
 62
     0
 48
50.0
100
AcDbPoint
 10
6578.6
 20
7550.471678639157
 30
0.0
  0
POINT
  5
23EB1
330
239EA
100
AcDbEntity
  8
DEFPOINTS
 62
     0
 48
50.0
100
AcDbPoint
 10
6651.600000000001
 20
7427.471678639157
 30
0.0
  0
POINT
  5
23EB2
330
239EA
100
AcDbEntity
  8
DEFPOINTS
 62
     0
 48
50.0
100
AcDbPoint
 10
5955.665006330072
 20
7427.471678639157
 30
0.0
  0
ENDBLK
  5
239F6
330
239EA
100
AcDbEntity
  8
0
 48
50.0
100
AcDbBlockEnd
  0
BLOCK
  5
23A18
330
23A0E
100
AcDbEntity
  8
0
 48
50.0
100
AcDbBlockBegin
  2
*D44
 70
     1
 10
0.0
 20
0.0
 30
0.0
  3
*D44
  1

  0
LINE
  5
23FE9
330
23A0E
100
AcDbEntity
  8
寸法
 62
     0
 48
50.0
370
    -2
100
AcDbLine
 10
9868.6
 20
7570.471678639157
 30
0.0
 11
9868.6
 21
8093.080495309406
 31
0.0
  0
LINE
  5
23FEA
330
23A0E
100
AcDbEntity
  8
寸法
 62
     0
 48
50.0
370
    -2
100
AcDbLine
 10
9043.600000000008
 20
6967.471678639157
 30
0.0
 11
9043.600000000008
 21
8093.080495309406
 31
0.0
  0
LINE
  5
23FEB
330
23A0E
100
AcDbEntity
  8
寸法
 62
     0
 48
50.0
370
    -2
100
AcDbLine
 10
9868.6
 20
8033.080495309404
 30
0.0
 11
9043.600000000008
 21
8033.080495309404
 31
0.0
  0
INSERT
  5
23FEC
330
23A0E
100
AcDbEntity
  8
寸法
 62
     0
 48
50.0
370
    -2
100
AcDbBlockReference
  2
_DOTSMALL
 10
9868.6
 20
8033.080495309404
 30
0.0
 41
100.0
 42
100.0
 43
100.0
  0
INSERT
  5
23FED
330
23A0E
100
AcDbEntity
  8
寸法
 62
     0
 48
50.0
370
    -2
100
AcDbBlockReference
  2
_DOTSMALL
 10
9043.600000000008
 20
8033.080495309404
 30
0.0
 41
100.0
 42
100.0
 43
100.0
 50
180.0
  0
MTEXT
  5
23FEE
330
23A0E
100
AcDbEntity
  8
寸法
 62
     7
 48
50.0
100
AcDbMText
 10
9456.100000000004
 20
8133.092306333026
 30
0.0
 40
120.0
 41
0.0
 71
     5
 72
     1
  1
\A1;825
  7
STYLE1
 73
     1
 44
1.0
1001
ACAD
1000
MTEXTBEGIN
1070
    73
1070
     1
1070
    44
1040
1.0
1070
    74
1070
     0
1000
MTEXTEND
  0
POINT
  5
23FEF
330
23A0E
100
AcDbEntity
  8
DEFPOINTS
 62
     0
 48
50.0
100
AcDbPoint
 10
9868.6
 20
7550.471678639157
 30
0.0
  0
POINT
  5
23FF0
330
23A0E
100
AcDbEntity
  8
DEFPOINTS
 62
     0
 48
50.0
100
AcDbPoint
 10
9043.600000000008
 20
6947.471678639157
 30
0.0
  0
POINT
  5
23FF1
330
23A0E
100
AcDbEntity
  8
DEFPOINTS
 62
     0
 48
50.0
100
AcDbPoint
 10
9043.600000000008
 20
8033.080495309404
 30
0.0
  0
ENDBLK
  5
23A19
330
23A0E
100
AcDbEntity
  8
0
 48
50.0
100
AcDbBlockEnd
  0
BLOCK
  5
23A3F
330
23A34
100
AcDbEntity
  8
0
 48
50.0
100
AcDbBlockBegin
  2
*D45
 70
     1
 10
0.0
 20
0.0
 30
0.0
  3
*D45
  1

  0
LINE
  5
23E56
330
23A34
100
AcDbEntity
  8
寸法
 62
     0
 48
50.0
370
    -2
100
AcDbLine
 10
9868.6
 20
7570.471678639157
 30
0.0
 11
9868.6
 21
8336.738136733067
 31
0.0
  0
LINE
  5
23E57
330
23A34
100
AcDbEntity
  8
寸法
 62
     0
 48
50.0
370
    -2
100
AcDbLine
 10
9745.600000000001
 20
7497.471678639157
 30
0.0
 11
9745.600000000001
 21
8336.738136733067
 31
0.0
  0
LINE
  5
23E58
330
23A34
100
AcDbEntity
  8
寸法
 62
     0
 48
50.0
370
    -2
100
AcDbLine
 10
9745.600000000001
 20
8276.738136733067
 30
0.0
 11
9868.6
 21
8276.738136733067
 31
0.0
  0
LINE
  5
23E59
330
23A34
100
AcDbEntity
  8
寸法
 62
     0
 48
50.0
370
    -2
100
AcDbLine
 10
9868.6
 20
8276.738136733067
 30
0.0
 11
10280.19188309204
 21
8276.738136733067
 31
0.0
  0
INSERT
  5
23E5A
330
23A34
100
AcDbEntity
  8
寸法
 62
     0
 48
50.0
370
    -2
100
AcDbBlockReference
  2
_DOTSMALL
 10
9745.600000000001
 20
8276.738136733067
 30
0.0
 41
100.0
 42
100.0
 43
100.0
 50
180.0
  0
INSERT
  5
23E5B
330
23A34
100
AcDbEntity
  8
寸法
 62
     0
 48
50.0
370
    -2
100
AcDbBlockReference
  2
_DOTSMALL
 10
9868.6
 20
8276.738136733067
 30
0.0
 41
100.0
 42
100.0
 43
100.0
  0
MTEXT
  5
23E5C
330
23A34
100
AcDbEntity
  8
寸法
 62
     7
 48
50.0
100
AcDbMText
 10
10141.7066017178
 20
8376.749947756689
 30
0.0
 40
120.0
 41
0.0
 71
     5
 72
     1
  1
\A1;123
  7
STYLE1
 73
     1
 44
1.0
1001
ACAD
1000
MTEXTBEGIN
1070
    73
1070
     1
1070
    44
1040
1.0
1070
    74
1070
     0
1000
MTEXTEND
  0
POINT
  5
23E5D
330
23A34
100
AcDbEntity
  8
DEFPOINTS
 62
     0
 48
50.0
100
AcDbPoint
 10
9868.6
 20
7550.471678639157
 30
0.0
  0
POINT
  5
23E5E
330
23A34
100
AcDbEntity
  8
DEFPOINTS
 62
     0
 48
50.0
100
AcDbPoint
 10
9745.600000000001
 20
7477.471678639156
 30
0.0
  0
POINT
  5
23E5F
330
23A34
100
AcDbEntity
  8
DEFPOINTS
 62
     0
 48
50.0
100
AcDbPoint
 10
9745.600000000001
 20
8276.738136733067
 30
0.0
  0
ENDBLK
  5
23A40
330
23A34
100
AcDbEntity
  8
0
 48
50.0
100
AcDbBlockEnd
  0
BLOCK
  5
242EB
330
242E1
100
AcDbEntity
  8
0
 48
50.0
100
AcDbBlockBegin
  2
*D52
 70
     1
 10
0.0
 20
0.0
 30
0.0
  3
*D52
  1

  0
LINE
  5
2432B
330
242E1
100
AcDbEntity
  8
寸法
 62
     0
 48
50.0
370
    -2
100
AcDbLine
 10
8215.768291448792
 20
1860.070380102412
 30
0.0
 11
8757.636891217636
 21
1860.070380102412
 31
0.0
  0
LINE
  5
2432C
330
242E1
100
AcDbEntity
  8
寸法
 62
     0
 48
50.0
370
    -2
100
AcDbLine
 10
8215.768291448792
 20
1536.070380102411
 30
0.0
 11
8757.636891217636
 21
1536.070380102411
 31
0.0
  0
LINE
  5
2432D
330
242E1
100
AcDbEntity
  8
寸法
 62
     0
 48
50.0
370
    -2
100
AcDbLine
 10
8697.636891217637
 20
1860.070380102412
 30
0.0
 11
8697.636891217637
 21
1536.070380102411
 31
0.0
  0
INSERT
  5
2432E
330
242E1
100
AcDbEntity
  8
寸法
 62
     0
 48
50.0
370
    -2
100
AcDbBlockReference
  2
_DOTSMALL
 10
8697.636891217637
 20
1860.070380102412
 30
0.0
 41
100.0
 42
100.0
 43
100.0
 50
90.0
  0
INSERT
  5
2432F
330
242E1
100
AcDbEntity
  8
寸法
 62
     0
 48
50.0
370
    -2
100
AcDbBlockReference
  2
_DOTSMALL
 10
8697.636891217637
 20
1536.070380102411
 30
0.0
 41
100.0
 42
100.0
 43
100.0
 50
270.0
  0
MTEXT
  5
24330
330
242E1
100
AcDbEntity
  8
寸法
 62
     7
 48
50.0
100
AcDbMText
 10
8597.636891217637
 20
1698.070380102413
 30
0.0
 40
120.0
 41
0.0
 71
     5
 72
     1
  1
\A1;180
  7
STYLE1
 11
0.0000000000000001
 21
1.0
 31
0.0
 73
     1
 44
1.0
1001
ACAD
1000
MTEXTBEGIN
1070
    73
1070
     1
1070
    44
1040
1.0
1070
    74
1070
     0
1000
MTEXTEND
  0
POINT
  5
24331
330
242E1
100
AcDbEntity
  8
DEFPOINTS
 62
     0
 48
50.0
100
AcDbPoint
 10
8195.768291448791
 20
1860.070380102412
 30
0.0
  0
POINT
  5
24332
330
242E1
100
AcDbEntity
  8
DEFPOINTS
 62
     0
 48
50.0
100
AcDbPoint
 10
8195.768291448791
 20
1536.070380102411
 30
0.0
  0
POINT
  5
24333
330
242E1
100
AcDbEntity
  8
DEFPOINTS
 62
     0
 48
50.0
100
AcDbPoint
 10
8697.636891217637
 20
1536.070380102411
 30
0.0
  0
ENDBLK
  5
242EC
330
242E1
100
AcDbEntity
  8
0
 48
50.0
100
AcDbBlockEnd
  0
BLOCK
  5
242F9
330
242ED
100
AcDbEntity
  8
0
 48
50.0
100
AcDbBlockBegin
  2
*D53
 70
     1
 10
0.0
 20
0.0
 30
0.0
  3
*D53
  1

  0
LINE
  5
24334
330
242ED
100
AcDbEntity
  8
寸法
 62
     0
 48
50.0
370
    -2
100
AcDbLine
 10
8028.568291448793
 20
1912.830380102413
 30
0.0
 11
9033.691557336664
 21
1912.830380102413
 31
0.0
  0
LINE
  5
24335
330
242ED
100
AcDbEntity
  8
寸法
 62
     0
 48
50.0
370
    -2
100
AcDbLine
 10
8215.768291448792
 20
1860.070380102412
 30
0.0
 11
9033.691557336664
 21
1860.070380102412
 31
0.0
  0
LINE
  5
24336
330
242ED
100
AcDbEntity
  8
寸法
 62
     0
 48
50.0
370
    -2
100
AcDbLine
 10
8973.691557336664
 20
1912.830380102413
 30
0.0
 11
8973.691557336664
 21
2012.830380102413
 31
0.0
  0
LINE
  5
24337
330
242ED
100
AcDbEntity
  8
寸法
 62
     0
 48
50.0
370
    -2
100
AcDbLine
 10
8973.691557336664
 20
1860.070380102412
 30
0.0
 11
8973.691557336664
 21
1128.052573259445
 31
0.0
  0
LINE
  5
24338
330
242ED
100
AcDbEntity
  8
寸法
 62
     0
 48
50.0
370
    -2
100
AcDbLine
 10
8973.691557336664
 20
1912.830380102413
 30
0.0
 11
8973.691557336664
 21
1860.070380102412
 31
0.0
  0
INSERT
  5
24339
330
242ED
100
AcDbEntity
  8
寸法
 62
     0
 48
50.0
370
    -2
100
AcDbBlockReference
  2
_DOTSMALL
 10
8973.691557336664
 20
1912.830380102413
 30
0.0
 41
100.0
 42
100.0
 43
100.0
 50
270.0
  0
INSERT
  5
2433A
330
242ED
100
AcDbEntity
  8
寸法
 62
     0
 48
50.0
370
    -2
100
AcDbBlockReference
  2
_DOTSMALL
 10
8973.691557336664
 20
1860.070380102412
 30
0.0
 41
100.0
 42
100.0
 43
100.0
 50
90.0
  0
MTEXT
  5
2433B
330
242ED
100
AcDbEntity
  8
寸法
 62
     7
 48
50.0
100
AcDbMText
 10
8873.679746313042
 20
1394.061476680929
 30
0.0
 40
120.0
 41
0.0
 71
     5
 72
     1
  1
\A1;20～25
  7
STYLE1
 11
0.0000000000000001
 21
1.0
 31
0.0
 73
     1
 44
1.0
1001
ACAD
1000
MTEXTBEGIN
1070
    73
1070
     1
1070
    44
1040
1.0
1070
    74
1070
     0
1000
MTEXTEND
  0
POINT
  5
2433C
330
242ED
100
AcDbEntity
  8
DEFPOINTS
 62
     0
 48
50.0
100
AcDbPoint
 10
8008.568291448794
 20
1912.830380102413
 30
0.0
  0
POINT
  5
2433D
330
242ED
100
AcDbEntity
  8
DEFPOINTS
 62
     0
 48
50.0
100
AcDbPoint
 10
8195.768291448791
 20
1860.070380102412
 30
0.0
  0
POINT
  5
2433E
330
242ED
100
AcDbEntity
  8
DEFPOINTS
 62
     0
 48
50.0
100
AcDbPoint
 10
8973.691557336664
 20
1860.070380102412
 30
0.0
  0
ENDBLK
  5
242FA
330
242ED
100
AcDbEntity
  8
0
 48
50.0
100
AcDbBlockEnd
  0
BLOCK
  5
24305
330
242FB
100
AcDbEntity
  8
0
 48
50.0
100
AcDbBlockBegin
  2
*D54
 70
     1
 10
0.0
 20
0.0
 30
0.0
  3
*D54
  1

  0
LINE
  5
2433F
330
242FB
100
AcDbEntity
  8
寸法
 62
     0
 48
50.0
370
    -2
100
AcDbLine
 10
5933.728978271599
 20
1316.070380102412
 30
0.0
 11
5751.30866453914
 21
1316.070380102412
 31
0.0
  0
LINE
  5
24340
330
242FB
100
AcDbEntity
  8
寸法
 62
     0
 48
50.0
370
    -2
100
AcDbLine
 10
5853.728978271602
 20
1076.070380102412
 30
0.0
 11
5751.30866453914
 21
1076.070380102412
 31
0.0
  0
LINE
  5
24341
330
242FB
100
AcDbEntity
  8
寸法
 62
     0
 48
50.0
370
    -2
100
AcDbLine
 10
5811.30866453914
 20
1316.070380102412
 30
0.0
 11
5811.30866453914
 21
1076.070380102412
 31
0.0
  0
INSERT
  5
24342
330
242FB
100
AcDbEntity
  8
寸法
 62
     0
 48
50.0
370
    -2
100
AcDbBlockReference
  2
_DOTSMALL
 10
5811.30866453914
 20
1316.070380102412
 30
0.0
 41
100.0
 42
100.0
 43
100.0
 50
90.0
  0
INSERT
  5
24343
330
242FB
100
AcDbEntity
  8
寸法
 62
     0
 48
50.0
370
    -2
100
AcDbBlockReference
  2
_DOTSMALL
 10
5811.30866453914
 20
1076.070380102412
 30
0.0
 41
100.0
 42
100.0
 43
100.0
 50
270.0
  0
MTEXT
  5
24344
330
242FB
100
AcDbEntity
  8
寸法
 62
     7
 48
50.0
100
AcDbMText
 10
5711.308664539139
 20
1196.070380102413
 30
0.0
 40
120.0
 41
0.0
 71
     5
 72
     1
  1
\A1;150
  7
STYLE1
 11
0.0000000000000001
 21
1.0
 31
0.0
 73
     1
 44
1.0
1001
ACAD
1000
MTEXTBEGIN
1070
    73
1070
     1
1070
    44
1040
1.0
1070
    74
1070
     0
1000
MTEXTEND
  0
POINT
  5
24345
330
242FB
100
AcDbEntity
  8
DEFPOINTS
 62
     0
 48
50.0
100
AcDbPoint
 10
5953.728978271598
 20
1316.070380102412
 30
0.0
  0
POINT
  5
24346
330
242FB
100
AcDbEntity
  8
DEFPOINTS
 62
     0
 48
50.0
100
AcDbPoint
 10
5873.728978271603
 20
1076.070380102412
 30
0.0
  0
POINT
  5
24347
330
242FB
100
AcDbEntity
  8
DEFPOINTS
 62
     0
 48
50.0
100
AcDbPoint
 10
5811.30866453914
 20
1076.070380102412
 30
0.0
  0
ENDBLK
  5
24306
330
242FB
100
AcDbEntity
  8
0
 48
50.0
100
AcDbBlockEnd
  0
BLOCK
  5
24311
330
24307
100
AcDbEntity
  8
0
 48
50.0
100
AcDbBlockBegin
  2
*D55
 70
     1
 10
0.0
 20
0.0
 30
0.0
  3
*D55
  1

  0
LINE
  5
24348
330
24307
100
AcDbEntity
  8
寸法
 62
     0
 48
50.0
370
    -2
100
AcDbLine
 10
6061.728978271599
 20
1860.070380102412
 30
0.0
 11
5286.691739709858
 21
1860.070380102412
 31
0.0
  0
LINE
  5
24349
330
24307
100
AcDbEntity
  8
寸法
 62
     0
 48
50.0
370
    -2
100
AcDbLine
 10
5853.728978271602
 20
1076.070380102412
 30
0.0
 11
5286.691739709858
 21
1076.070380102412
 31
0.0
  0
LINE
  5
2434A
330
24307
100
AcDbEntity
  8
寸法
 62
     0
 48
50.0
370
    -2
100
AcDbLine
 10
5346.691739709859
 20
1860.070380102412
 30
0.0
 11
5346.691739709859
 21
1076.070380102412
 31
0.0
  0
INSERT
  5
2434B
330
24307
100
AcDbEntity
  8
寸法
 62
     0
 48
50.0
370
    -2
100
AcDbBlockReference
  2
_DOTSMALL
 10
5346.691739709859
 20
1860.070380102412
 30
0.0
 41
100.0
 42
100.0
 43
100.0
 50
90.0
  0
INSERT
  5
2434C
330
24307
100
AcDbEntity
  8
寸法
 62
     0
 48
50.0
370
    -2
100
AcDbBlockReference
  2
_DOTSMALL
 10
5346.691739709859
 20
1076.070380102412
 30
0.0
 41
100.0
 42
100.0
 43
100.0
 50
270.0
  0
MTEXT
  5
2434D
330
24307
100
AcDbEntity
  8
寸法
 62
     7
 48
50.0
100
AcDbMText
 10
5246.691739709859
 20
1447.610529758413
 30
0.0
 40
120.0
 41
0.0
 71
     5
 72
     1
  1
\A1;540
  7
STYLE1
 11
0.0000000000000001
 21
1.0
 31
0.0
 73
     1
 44
1.0
1001
ACAD
1000
MTEXTBEGIN
1070
    73
1070
     1
1070
    44
1040
1.0
1070
    74
1070
     0
1000
MTEXTEND
  0
POINT
  5
2434E
330
24307
100
AcDbEntity
  8
DEFPOINTS
 62
     0
 48
50.0
100
AcDbPoint
 10
6081.728978271598
 20
1860.070380102412
 30
0.0
  0
POINT
  5
2434F
330
24307
100
AcDbEntity
  8
DEFPOINTS
 62
     0
 48
50.0
100
AcDbPoint
 10
5873.728978271603
 20
1076.070380102412
 30
0.0
  0
POINT
  5
24350
330
24307
100
AcDbEntity
  8
DEFPOINTS
 62
     0
 48
50.0
100
AcDbPoint
 10
5346.691739709859
 20
1076.070380102412
 30
0.0
  0
ENDBLK
  5
24312
330
24307
100
AcDbEntity
  8
0
 48
50.0
100
AcDbBlockEnd
  0
BLOCK
  5
2431D
330
24313
100
AcDbEntity
  8
0
 48
50.0
100
AcDbBlockBegin
  2
*D56
 70
     1
 10
0.0
 20
0.0
 30
0.0
  3
*D56
  1

  0
LINE
  5
24351
330
24313
100
AcDbEntity
  8
寸法
 62
     0
 48
50.0
370
    -2
100
AcDbLine
 10
5953.728978271598
 20
928.0703801024118
 30
0.0
 11
5953.728978271598
 21
477.6407420972518
 31
0.0
  0
LINE
  5
24352
330
24313
100
AcDbEntity
  8
寸法
 62
     0
 48
50.0
370
    -2
100
AcDbLine
 10
6401.728978271599
 20
928.0703801024118
 30
0.0
 11
6401.728978271599
 21
477.6407420972518
 31
0.0
  0
LINE
  5
24353
330
24313
100
AcDbEntity
  8
寸法
 62
     0
 48
50.0
370
    -2
100
AcDbLine
 10
5953.728978271598
 20
537.6407420972518
 30
0.0
 11
6401.728978271599
 21
537.6407420972518
 31
0.0
  0
INSERT
  5
24354
330
24313
100
AcDbEntity
  8
寸法
 62
     0
 48
50.0
370
    -2
100
AcDbBlockReference
  2
_DOTSMALL
 10
5953.728978271598
 20
537.6407420972518
 30
0.0
 41
100.0
 42
100.0
 43
100.0
 50
180.0
  0
INSERT
  5
24355
330
24313
100
AcDbEntity
  8
寸法
 62
     0
 48
50.0
370
    -2
100
AcDbBlockReference
  2
_DOTSMALL
 10
6401.728978271599
 20
537.6407420972518
 30
0.0
 41
100.0
 42
100.0
 43
100.0
  0
MTEXT
  5
24356
330
24313
100
AcDbEntity
  8
寸法
 62
     7
 48
50.0
100
AcDbMText
 10
6157.632219593375
 20
637.6407420972518
 30
0.0
 40
120.0
 41
0.0
 71
     5
 72
     1
  1
\A1;300
  7
STYLE1
 73
     1
 44
1.0
1001
ACAD
1000
MTEXTBEGIN
1070
    73
1070
     1
1070
    44
1040
1.0
1070
    74
1070
     0
1000
MTEXTEND
  0
POINT
  5
24357
330
24313
100
AcDbEntity
  8
DEFPOINTS
 62
     0
 48
50.0
100
AcDbPoint
 10
5953.728978271598
 20
948.070380102412
 30
0.0
  0
POINT
  5
24358
330
24313
100
AcDbEntity
  8
DEFPOINTS
 62
     0
 48
50.0
100
AcDbPoint
 10
6401.728978271599
 20
948.070380102412
 30
0.0
  0
POINT
  5
24359
330
24313
100
AcDbEntity
  8
DEFPOINTS
 62
     0
 48
50.0
100
AcDbPoint
 10
6401.728978271599
 20
537.6407420972518
 30
0.0
  0
ENDBLK
  5
2431E
330
24313
100
AcDbEntity
  8
0
 48
50.0
100
AcDbBlockEnd
  0
BLOCK
  5
24329
330
2431F
100
AcDbEntity
  8
0
 48
50.0
100
AcDbBlockBegin
  2
*D57
 70
     1
 10
0.0
 20
0.0
 30
0.0
  3
*D57
  1

  0
LINE
  5
2435A
330
2431F
100
AcDbEntity
  8
寸法
 62
     0
 48
50.0
370
    -2
100
AcDbLine
 10
6273.728978271599
 20
1880.070380102412
 30
0.0
 11
6273.728978271599
 21
2339.738188018792
 31
0.0
  0
LINE
  5
2435B
330
2431F
100
AcDbEntity
  8
寸法
 62
     0
 48
50.0
370
    -2
100
AcDbLine
 10
6081.728978271598
 20
1880.070380102412
 30
0.0
 11
6081.728978271598
 21
2339.738188018792
 31
0.0
  0
LINE
  5
2435C
330
2431F
100
AcDbEntity
  8
寸法
 62
     0
 48
50.0
370
    -2
100
AcDbLine
 10
6273.728978271599
 20
2279.738188018793
 30
0.0
 11
6081.728978271598
 21
2279.738188018793
 31
0.0
  0
INSERT
  5
2435D
330
2431F
100
AcDbEntity
  8
寸法
 62
     0
 48
50.0
370
    -2
100
AcDbBlockReference
  2
_DOTSMALL
 10
6273.728978271599
 20
2279.738188018793
 30
0.0
 41
100.0
 42
100.0
 43
100.0
  0
INSERT
  5
2435E
330
2431F
100
AcDbEntity
  8
寸法
 62
     0
 48
50.0
370
    -2
100
AcDbBlockReference
  2
_DOTSMALL
 10
6081.728978271598
 20
2279.738188018793
 30
0.0
 41
100.0
 42
100.0
 43
100.0
 50
180.0
  0
MTEXT
  5
2435F
330
2431F
100
AcDbEntity
  8
寸法
 62
     7
 48
50.0
100
AcDbMText
 10
6177.728978271598
 20
2579.773621089659
 30
0.0
 40
120.0
 41
0.0
 71
     5
 72
     1
  1
\A1;120\P200\P280
  7
STYLE1
 73
     1
 44
1.0
1001
ACAD
1000
MTEXTBEGIN
1070
    73
1070
     1
1070
    44
1040
1.0
1070
    74
1070
     0
1000
MTEXTEND
  0
POINT
  5
24360
330
2431F
100
AcDbEntity
  8
DEFPOINTS
 62
     0
 48
50.0
100
AcDbPoint
 10
6273.728978271599
 20
1860.070380102412
 30
0.0
  0
POINT
  5
24361
330
2431F
100
AcDbEntity
  8
DEFPOINTS
 62
     0
 48
50.0
100
AcDbPoint
 10
6081.728978271598
 20
1860.070380102412
 30
0.0
  0
POINT
  5
24362
330
2431F
100
AcDbEntity
  8
DEFPOINTS
 62
     0
 48
50.0
100
AcDbPoint
 10
6081.728978271598
 20
2279.738188018793
 30
0.0
  0
ENDBLK
  5
2432A
330
2431F
100
AcDbEntity
  8
0
 48
50.0
100
AcDbBlockEnd
  0
ENDSEC
  0
SECTION
  2
ENTITIES
  0
MTEXT
  5
763F
330
747D
100
AcDbEntity
  8
0
100
AcDbMText
 10
302.846345836809
 20
280.1983726409901
 30
0.0
 40
3.5
 41
5.323721266742722
 71
     1
 72
     5
  1

  7
MSMINCHO
 73
     1
 44
1.0
1001
ACAD
1000
MTEXTBEGIN
1070
    73
1070
     1
1070
    44
1040
1.0
1070
    74
1070
     0
1000
MTEXTEND
  0
LINE
  5
10B57
330
747D
100
AcDbEntity
  8
補助
  6
PHANTOM
 62
   230
 48
50.0
100
AcDbLine
 10
139.9999999999995
 20
11409.6
 30
0.0
 11
16307.2
 21
11409.6
 31
0.0
  0
LINE
  5
10B59
330
747D
100
AcDbEntity
  8
仕様書枠
  6
Continuous
 48
50.0
100
AcDbLine
 10
13107.2
 20
1200.0
 30
0.0
 11
13107.2
 21
-0.0000000000000729
 31
0.0
  0
LINE
  5
10B5D
330
747D
100
AcDbEntity
  8
仕様書枠
 48
50.0
100
AcDbLine
 10
140.0
 20
0.0
 30
0.0
 11
16307.2
 21
-0.0000000000000909
 31
0.0
  0
LINE
  5
10B5E
330
747D
100
AcDbEntity
  8
補助
  6
PHANTOM
 62
   230
 48
50.0
100
AcDbLine
 10
16307.2
 20
11409.6
 30
0.0
 11
16307.2
 21
1200.0
 31
0.0
  0
LINE
  5
10B6C
330
747D
100
AcDbEntity
  8
仕様書枠
 48
50.0
100
AcDbLine
 10
13107.2
 20
1200.0
 30
0.0
 11
16307.2
 21
1200.0
 31
0.0
  0
TEXT
  5
10B73
330
747D
100
AcDbEntity
  8
文字
 62
     7
 48
50.0
100
AcDbText
 10
13162.9790565769
 20
895.0906074299405
 30
0.0
 40
200.0
  1
基 礎 図
  7
STYLE2
100
AcDbText
  0
LINE
  5
10B7B
330
747D
100
AcDbEntity
  8
仕様書枠
 48
50.0
100
AcDbLine
 10
13107.2
 20
800.0
 30
0.0
 11
14251.2
 21
800.0
 31
0.0
  0
LINE
  5
10B88
330
747D
100
AcDbEntity
  8
仕様書枠
  6
Continuous
 48
50.0
100
AcDbLine
 10
14251.2
 20
1200.0
 30
0.0
 11
14251.2
 21
800.0
 31
0.0
  0
LINE
  5
16462
330
747D
100
AcDbEntity
  8
仕様書枠
 48
50.0
100
AcDbLine
 10
16307.2
 20
1200.0
 30
0.0
 11
16307.2
 21
-0.0000000000000909
 31
0.0
  0
LINE
  5
1903B
330
747D
100
AcDbEntity
  8
補助
  6
PHANTOM
 62
   230
 48
50.0
100
AcDbLine
 10
140.0
 20
0.0
 30
0.0
 11
139.9999999999995
 21
11409.6
 31
0.0
  0
LEADER
  5
1AC27
330
747D
100
AcDbEntity
  8
寸法
 48
50.0
100
AcDbLeader
  3
INABA_S50G
 73
     0
 74
     0
 75
     1
 40
120.0
 41
720.0000000000001
 76
     3
 10
9868.695499614997
 20
6881.264795383895
 30
0.0
 10
10025.46907400128
 20
6620.250881816061
 30
0.0
 10
10150.46907400128
 20
6620.250881816061
 30
0.0
340
1AC28
1001
ACAD
1000
DSTYLE
1002
{
1070
   341
1005
0
1070
    40
1040
1.0
1070
   343
1005
0
1070
   344
1005
0
1002
}
  0
MTEXT
  5
1AC28
102
{ACAD_REACTORS
330
1AC27
102
}
330
747D
100
AcDbEntity
  8
部品1
 62
     7
 48
50.0
100
AcDbMText
 10
10895.46907400128
 20
6705.250881816062
 30
0.0
 40
120.0
 41
0.0
 71
     6
 72
     1
  1
\A1;床下換気口
  7
STYLE1
 73
     1
 44
1.0
1001
ACAD
1000
MTEXTBEGIN
1070
    73
1070
     1
1070
    44
1040
1.0
1070
    74
1070
     0
1000
MTEXTEND
  0
TEXT
  5
1AC29
330
747D
100
AcDbEntity
  8
部品1
 48
50.0
100
AcDbText
 10
10217.43013846118
 20
5960.365071452186
 30
0.0
 40
80.0
  1
(a=45,b=55,c=75)
  7
STYLE1
100
AcDbText
  0
TEXT
  5
1AC2A
330
747D
100
AcDbEntity
  8
部品1
 48
50.0
100
AcDbText
 10
10058.85112970688
 20
6067.210292320941
 30
0.0
 40
80.0
  1
※a,b,cは屋根の出幅です。
  7
STYLE1
100
AcDbText
  0
MTEXT
  5
1AC2B
102
{ACAD_REACTORS
330
1AC2C
102
}
330
747D
100
AcDbEntity
  8
部品1
 62
     7
 48
50.0
100
AcDbMText
 10
10856.63832569548
 20
6246.520979254015
 30
0.0
 40
120.0
 41
0.0
 71
     6
 72
     1
  1
\A1;屋根の外寸
  7
STYLE1
 73
     1
 44
1.0
1001
ACAD
1000
MTEXTBEGIN
1070
    73
1070
     1
1070
    44
1040
1.0
1070
    74
1070
     0
1000
MTEXTEND
  0
LEADER
  5
1AC2C
330
747D
100
AcDbEntity
  8
寸法
 48
50.0
100
AcDbLeader
  3
INABA_S50G
 73
     0
 74
     0
 75
     1
 40
120.0
 41
672.0
 76
     3
 10
9918.69831350344
 20
6420.41032271759
 30
0.0
 10
10034.63832569548
 20
6161.520979254015
 30
0.0
 10
10159.63832569548
 20
6161.520979254015
 30
0.0
340
1AC2B
1001
ACAD
1000
DSTYLE
1002
{
1070
   341
1005
0
1070
    40
1040
1.0
1070
   343
1005
0
1070
   344
1005
0
1002
}
  0
TEXT
  5
1C7A1
330
747D
100
AcDbEntity
  8
文字
 62
     7
 48
50.0
100
AcDbText
 10
13188.16259899338
 20
79.80631269190417
 30
0.0
 40
80.0
  1
※布基礎には換気口を設けてください。
  7
STYLE2
100
AcDbText
  0
TEXT
  5
1C7E7
330
747D
100
AcDbEntity
  8
文字
 62
     7
 48
50.0
100
AcDbText
 10
13188.16259899338
 20
246.7109242801889
 30
0.0
 40
80.0
  1
※寒冷地等は地域の実情に合わせた基礎にして下さい。
  7
STYLE2
100
AcDbText
  0
TEXT
  5
1C7E8
330
747D
100
AcDbEntity
  8
文字
 62
     7
 48
50.0
100
AcDbText
 10
14325.79230300687
 20
499.5983841039506
 30
0.0
 40
160.0
  1
ＮＸＮ－１１ＤＬ－４
  7
STYLE2
100
AcDbText
  0
TEXT
  5
1C7EC
330
747D
100
AcDbEntity
  8
文字
 62
     7
 48
50.0
100
AcDbText
 10
14524.131837222
 20
1031.557706291229
 30
0.0
 40
100.0
  1
<縮尺> S=1/40
  7
STYLE2
100
AcDbText
  0
TEXT
  5
1C7ED
330
747D
100
AcDbEntity
  8
文字
 62
     7
 48
50.0
100
AcDbText
 10
13201.43669998441
 20
477.2740661031257
 30
0.0
 40
160.0
  1
機種名
  7
STYLE2
100
AcDbText
  0
LINE
  5
1C7EF
330
747D
100
AcDbEntity
  8
文字
 62
     7
 48
50.0
100
AcDbLine
 10
13187.2
 20
400.0
 30
0.0
 11
16227.2
 21
400.0
 31
0.0
  0
MTEXT
  5
1D2D5
102
{ACAD_REACTORS
330
1D2D6
102
}
330
747D
100
AcDbEntity
  8
部品1
 62
     7
 48
50.0
100
AcDbMText
 10
11063.99523070988
 20
7866.084422881662
 30
0.0
 40
120.0
 41
0.0
 71
     6
 72
     1
  1
アンカーボルト
  7
STYLE1
 73
     1
 44
1.0
1001
ACAD
1000
MTEXTBEGIN
1070
    73
1070
     1
1070
    44
1040
1.0
1070
    74
1070
     0
1000
MTEXTEND
  0
LEADER
  5
1D2D6
330
747D
100
AcDbEntity
  8
寸法
 48
50.0
100
AcDbLeader
  3
INABA_S50G
 73
     0
 74
     0
 75
     1
 40
120.0
 41
994.3492424049171
 76
     3
 10
9745.680085757001
 20
7427.679522997866
 30
0.0
 10
9919.645988304965
 20
7781.084422881662
 30
0.0
 10
10044.64598830496
 20
7781.084422881662
 30
0.0
340
1D2D5
1001
ACAD
1000
DSTYLE
1002
{
1070
   341
1005
0
1070
    40
1040
1.0
1070
   343
1005
0
1070
   344
1005
0
1002
}
  0
MTEXT
  5
1D332
102
{ACAD_REACTORS
330
1D333
102
}
330
747D
100
AcDbEntity
  8
部品1
 62
     7
 48
50.0
100
AcDbMText
 10
9558.828697015693
 20
6752.107382151466
 30
0.0
 40
120.0
 41
0.0
 71
     6
 72
     1
  1
CB
  7
STYLE1
 73
     1
 44
1.0
1001
ACAD
1000
MTEXTBEGIN
1070
    73
1070
     1
1070
    44
1040
1.0
1070
    74
1070
     0
1000
MTEXTEND
  0
LEADER
  5
1D333
330
747D
100
AcDbEntity
  8
寸法
 48
50.0
100
AcDbLeader
  3
INABA_S50G
 73
     0
 74
     0
 75
     1
 40
120.0
 41
149.591883092037
 76
     3
 10
9131.954011061012
 20
6889.825695706292
 30
0.0
 10
9259.236813923656
 20
6667.107382151467
 30
0.0
 10
9384.236813923656
 20
6667.107382151467
 30
0.0
340
1D332
1001
ACAD
1000
DSTYLE
1002
{
1070
   341
1005
0
1070
    40
1040
1.0
1070
   343
1005
0
1070
   344
1005
0
1002
}
  0
DIMENSION
  5
20DE1
330
747D
100
AcDbEntity
  8
寸法
 48
50.0
100
AcDbDimension
  2
*D19
 10
9913.600000000002
 20
8508.692000698076
 30
0.0
 11
10184.77462120246
 21
8508.692000698076
 31
0.0
 70
   160
  1
a
 71
     5
 42
45.0
  3
INABA_S40G
100
AcDbAlignedDimension
 13
9868.6
 23
7550.471678639154
 33
0.0
 14
9913.600000000002
 24
8276.738136733065
 34
0.0
100
AcDbRotatedDimension
1001
ACAD
1000
DSTYLE
1002
{
1070
   341
1005
0
1002
}
  0
DIMENSION
  5
20DFB
330
747D
100
AcDbEntity
  8
寸法
 48
50.0
100
AcDbDimension
  2
*D20
 10
6578.6
 20
8508.692000698088
 30
0.0
 11
6262.425378797541
 21
8508.692000698088
 31
0.0
 70
   160
  1
a
 71
     5
 42
44.99999999999636
  3
INABA_S40G
100
AcDbAlignedDimension
 13
6533.600000000004
 23
8276.738136733079
 33
0.0
 14
6578.6
 24
7550.471678639167
 34
0.0
100
AcDbRotatedDimension
1001
ACAD
1000
DSTYLE
1002
{
1070
   341
1005
0
1002
}
  0
LINE
  5
22711
330
747D
100
AcDbEntity
  8
想像線
 48
10.0
100
AcDbLine
 10
9913.600000000002
 20
7625.471678639157
 30
0.0
 11
6533.600000000006
 21
7625.471678639167
 31
0.0
  0
LINE
  5
22712
330
747D
100
AcDbEntity
  8
想像線
 48
10.0
100
AcDbLine
 10
6533.600000000003
 20
6115.47167863918
 30
0.0
 11
6533.600000000004
 21
7625.471678639171
 31
0.0
  0
LINE
  5
22713
330
747D
100
AcDbEntity
  8
想像線
 48
10.0
100
AcDbLine
 10
9913.600000000002
 20
6115.471678639174
 30
0.0
 11
9913.600000000002
 21
7625.471678639157
 31
0.0
  0
LINE
  5
22714
330
747D
100
AcDbEntity
  8
想像線
 48
10.0
100
AcDbLine
 10
9913.600000000002
 20
6115.471678639173
 30
0.0
 11
6533.600000000001
 21
6115.471678639168
 31
0.0
  0
DIMENSION
  5
22741
330
747D
100
AcDbEntity
  8
寸法
 48
50.0
100
AcDbDimension
  2
*D25
 10
5703.721909610674
 20
7550.471678639168
 30
0.0
 11
5603.721909610674
 21
7587.971678639178
 31
0.0
 70
    32
  1
c
 71
     5
 42
75.00000000001818
  3
INABA_S40G
100
AcDbAlignedDimension
 13
5955.665006330072
 23
7625.471678639186
 33
0.0
 14
6578.6
 24
7550.471678639167
 34
0.0
 50
90.0
100
AcDbRotatedDimension
1001
ACAD
1000
DSTYLE
1002
{
1070
   341
1005
0
1002
}
  0
DIMENSION
  5
2275B
330
747D
100
AcDbEntity
  8
寸法
 48
50.0
100
AcDbDimension
  2
*D26
 10
5703.721909610674
 20
6115.471678639194
 30
0.0
 11
5603.721909610674
 21
6142.971678639174
 31
0.0
 70
    32
  1
b
 71
     5
 42
54.99999999995998
  3
INABA_S40G
100
AcDbAlignedDimension
 13
6578.6
 23
6170.471678639152
 33
0.0
 14
5955.665006330073
 24
6115.471678639194
 34
0.0
 50
90.0
100
AcDbRotatedDimension
1001
ACAD
1000
DSTYLE
1002
{
1070
   341
1005
0
1002
}
  0
DIMENSION
  5
229EC
330
747D
100
AcDbEntity
  8
寸法
 48
50.0
100
AcDbDimension
  2
*D28
 10
9295.469500000811
 20
6170.471678639181
 30
0.0
 11
9295.469500000809
 21
5883.508095962003
 31
0.0
 70
   160
 71
     5
 42
279.9999999999927
  3
INABA_S40G
100
AcDbAlignedDimension
 13
9382.573225773338
 23
6450.471678639174
 33
0.0
 14
9374.53475000041
 24
6170.471678639181
 34
0.0
 50
90.0
100
AcDbRotatedDimension
1001
ACAD
1000
DSTYLE
1002
{
1070
   341
1005
0
1002
}
  0
DIMENSION
  5
229ED
330
747D
100
AcDbEntity
  8
寸法
 48
50.0
100
AcDbDimension
  2
*D29
 10
9295.469500000811
 20
7350.471678639157
 30
0.0
 11
9295.469500000809
 21
7837.435261316317
 31
0.0
 70
   160
 71
     5
 42
199.9999999999945
  3
INABA_S40G
100
AcDbAlignedDimension
 13
9374.53475000041
 23
7550.471678639151
 33
0.0
 14
9374.53475000041
 24
7350.471678639157
 34
0.0
 50
90.0
100
AcDbRotatedDimension
1001
ACAD
1000
DSTYLE
1002
{
1070
   341
1005
0
1002
}
  0
DIMENSION
  5
22A4B
330
747D
100
AcDbEntity
  8
寸法
 48
50.0
100
AcDbDimension
  2
*D27
 10
9748.600000000005
 20
7252.634205911802
 30
0.0
 11
10138.65905511811
 21
7252.634205911802
 31
0.0
 70
   160
 71
     5
 42
119.9999999999963
  3
INABA_S40G
100
AcDbAlignedDimension
 13
9868.6
 23
7269.627469950634
 33
0.0
 14
9748.600000000005
 24
7252.634205911802
 34
0.0
100
AcDbRotatedDimension
1001
ACAD
1000
DSTYLE
1002
{
1070
   341
1005
0
1002
}
  0
LINE
  5
23875
330
747D
100
AcDbEntity
  8
部品1
 48
50.0
100
AcDbLine
 10
9748.600000000006
 20
7350.471678639158
 30
0.0
 11
6698.6
 21
7350.471678639158
 31
0.0
  0
LINE
  5
23876
330
747D
100
AcDbEntity
  8
部品1
 48
50.0
100
AcDbLine
 10
9868.6
 20
6170.471678639175
 30
0.0
 11
6578.6
 21
6170.471678639152
 31
0.0
  0
DIMENSION
  5
23878
330
747D
100
AcDbEntity
  8
寸法
 48
50.0
100
AcDbDimension
  2
*D30
 10
9868.6
 20
8508.692000698074
 30
0.0
 11
8223.600000000001
 21
8608.703811721696
 31
0.0
 70
    32
 71
     5
 42
3290.0
  3
INABA_S40G
100
AcDbAlignedDimension
 13
6578.6
 23
7550.471678639157
 33
0.0
 14
9868.6
 24
7550.471678639157
 34
0.0
100
AcDbRotatedDimension
1001
ACAD
1000
DSTYLE
1002
{
1070
   341
1005
0
1002
}
  0
LINE
  5
23879
330
747D
100
AcDbEntity
  8
部品1
 48
50.0
100
AcDbLine
 10
9868.6
 20
7550.471678639157
 30
0.0
 11
6578.6
 21
7550.471678639157
 31
0.0
  0
DIMENSION
  5
2387B
330
747D
100
AcDbEntity
  8
寸法
 48
50.0
100
AcDbDimension
  2
*D31
 10
8105.6
 20
8276.738136733067
 30
0.0
 11
8925.600000000001
 21
8376.738136733067
 31
0.0
 70
    32
 71
     5
 42
1640.0
  3
INABA_S40G
100
AcDbAlignedDimension
 13
9745.600000000001
 23
7477.471678639156
 33
0.0
 14
8105.6
 24
7477.471678639156
 34
0.0
100
AcDbRotatedDimension
1001
ACAD
1000
DSTYLE
1002
{
1070
   341
1005
0
1002
}
  0
DIMENSION
  5
2387C
330
747D
100
AcDbEntity
  8
寸法
 48
50.0
100
AcDbDimension
  2
*D32
 10
8223.600000000008
 20
8033.080495309404
 30
0.0
 11
8633.600000000008
 21
8133.092306333026
 31
0.0
 70
    32
 71
     5
 42
820.0
  3
INABA_S40G
100
AcDbAlignedDimension
 13
9043.600000000008
 23
6947.471678639157
 33
0.0
 14
8223.600000000008
 24
6947.471678639157
 34
0.0
100
AcDbRotatedDimension
1001
ACAD
1000
DSTYLE
1002
{
1070
   341
1005
0
1002
}
  0
TEXT
  5
2387D
330
747D
100
AcDbEntity
  8
寸法
 48
50.0
100
AcDbText
 10
8256.696499061648
 20
6189.152969431894
 30
0.0
 40
120.0
  1
扉面
  7
STYLE1
100
AcDbText
  0
DIMENSION
  5
2387F
330
747D
100
AcDbEntity
  8
寸法
 48
50.0
100
AcDbDimension
  2
*D33
 10
7092.442995307156
 20
7550.471678639157
 30
0.0
 11
7092.442995307154
 21
7190.066469333332
 31
0.0
 70
   160
 71
     5
 42
653.0
  3
INABA_S40G
100
AcDbAlignedDimension
 13
7353.600000000007
 23
6897.471678639156
 33
0.0
 14
7022.7654751409
 24
7550.471678639157
 34
0.0
 50
90.0
100
AcDbRotatedDimension
1001
ACAD
1000
DSTYLE
1002
{
1070
   341
1005
0
1002
}
  0
LINE
  5
23880
330
747D
100
AcDbEntity
  8
部品1
 48
50.0
100
AcDbLine
 10
8323.600000000007
 20
6797.471678639157
 30
0.0
 11
8323.600000000007
 21
6997.471678639157
 31
0.0
  0
LINE
  5
23881
330
747D
100
AcDbEntity
  8
部品1
 48
50.0
100
AcDbLine
 10
8123.600000000008
 20
6797.471678639157
 30
0.0
 11
8123.600000000008
 21
6997.471678639157
 31
0.0
  0
LINE
  5
23882
330
747D
100
AcDbEntity
  8
部品1
 48
50.0
100
AcDbLine
 10
7503.600000000007
 20
6797.471678639157
 30
0.0
 11
7503.600000000007
 21
6997.471678639157
 31
0.0
  0
LINE
  5
23883
330
747D
100
AcDbEntity
  8
部品1
 48
50.0
100
AcDbLine
 10
7303.600000000007
 20
6797.471678639157
 30
0.0
 11
7303.600000000007
 21
6997.471678639157
 31
0.0
  0
DIMENSION
  5
23884
330
747D
100
AcDbEntity
  8
寸法
 48
50.0
100
AcDbDimension
  2
*D34
 10
7403.600000000007
 20
8033.080495309404
 30
0.0
 11
7813.600000000008
 21
8133.092306333026
 31
0.0
 70
    32
 71
     5
 42
820.0
  3
INABA_S40G
100
AcDbAlignedDimension
 13
8223.600000000008
 23
6947.471678639157
 33
0.0
 14
7403.600000000007
 24
6947.471678639157
 34
0.0
100
AcDbRotatedDimension
1001
ACAD
1000
DSTYLE
1002
{
1070
   341
1005
0
1002
}
  0
DIMENSION
  5
23885
330
747D
100
AcDbEntity
  8
寸法
 48
50.0
100
AcDbDimension
  2
*D35
 10
6578.6
 20
8033.080495309404
 30
0.0
 11
6991.100000000004
 21
8133.092306333026
 31
0.0
 70
    32
 71
     5
 42
825.0000000000072
  3
INABA_S40G
100
AcDbAlignedDimension
 13
7403.600000000007
 23
6947.471678639157
 33
0.0
 14
6578.6
 24
7550.471678639157
 34
0.0
100
AcDbRotatedDimension
1001
ACAD
1000
DSTYLE
1002
{
1070
   341
1005
0
1002
}
  0
LINE
  5
23887
102
{ACAD_REACTORS
330
24378
102
}
330
747D
100
AcDbEntity
  8
部品1
 48
50.0
100
AcDbLine
 10
6578.6
 20
6170.471678639156
 30
0.0
 11
6578.6
 21
7550.471678639157
 31
0.0
  0
DIMENSION
  5
23889
330
747D
100
AcDbEntity
  8
寸法
 48
50.0
100
AcDbDimension
  2
*D36
 10
5703.721909610674
 20
6170.471678639157
 30
0.0
 11
5703.721909610673
 21
6897.971678639156
 31
0.0
 70
   160
 71
     5
 42
1380.0
  3
INABA_S40G
100
AcDbAlignedDimension
 13
6578.6
 23
7550.471678639157
 33
0.0
 14
6578.6
 24
6170.471678639156
 34
0.0
 50
90.0
100
AcDbRotatedDimension
1001
ACAD
1000
DSTYLE
1002
{
1070
   341
1005
0
1002
}
  0
DIMENSION
  5
2388A
330
747D
100
AcDbEntity
  8
寸法
 48
50.0
100
AcDbDimension
  2
*D37
 10
5955.665006330073
 20
6368.471678639161
 30
0.0
 11
5955.665006330072
 21
6897.971678639156
 31
0.0
 70
   160
 71
     5
 42
1058.999999999996
  3
INABA_S40G
100
AcDbAlignedDimension
 13
6651.600000000001
 23
7427.471678639157
 33
0.0
 14
6651.600000000008
 24
6368.47167863916
 34
0.0
 50
90.0
100
AcDbRotatedDimension
1001
ACAD
1000
DSTYLE
1002
{
1070
   341
1005
0
1002
}
  0
DIMENSION
  5
2388B
330
747D
100
AcDbEntity
  8
寸法
 48
50.0
100
AcDbDimension
  2
*D38
 10
6465.512673767882
 20
5450.471678639153
 30
0.0
 11
6465.512673767882
 21
5810.471678639155
 31
0.0
 70
   160
  1
扉の出<>
 71
     5
 42
720.0
  3
INABA_S40G
100
AcDbAlignedDimension
 13
6578.600000000007
 23
6170.471678639152
 33
0.0
 14
6934.325326928813
 24
5450.471678639153
 34
0.0
 50
90.0
100
AcDbRotatedDimension
1001
ACAD
1000
DSTYLE
1002
{
1070
   341
1005
0
1002
}
  0
ARC
  5
2388C
330
747D
100
AcDbEntity
  8
想像線
 48
5.0
100
AcDbCircle
 10
7348.600000000008
 20
6170.47167863916
 30
0.0
 40
720.0
100
AcDbArc
 50
180.0
 51
270.0
  0
DIMENSION
  5
2388D
330
747D
100
AcDbEntity
  8
寸法
 48
50.0
100
AcDbDimension
  2
*D39
 10
5955.665006330073
 20
6170.471678639157
 30
0.0
 11
5955.665006330072
 21
5834.940729796564
 31
0.0
 70
   160
 71
     5
 42
198.0000000000036
  3
INABA_S40G
100
AcDbAlignedDimension
 13
6651.600000000008
 23
6368.47167863916
 33
0.0
 14
6578.6
 24
6170.471678639156
 34
0.0
 50
90.0
100
AcDbRotatedDimension
1001
ACAD
1000
DSTYLE
1002
{
1070
   341
1005
0
1002
}
  0
LINE
  5
2388F
330
747D
100
AcDbEntity
  8
センター
 48
2.0
100
AcDbLine
 10
6701.600000000007
 20
6418.471678639161
 30
0.0
 11
6701.600000000007
 21
6318.47167863916
 31
0.0
  0
CIRCLE
  5
23890
330
747D
100
AcDbEntity
  8
部品1
 48
50.0
100
AcDbCircle
 10
6701.599999999993
 20
6368.47167863916
 30
0.0
 40
35.0
  0
LINE
  5
23891
330
747D
100
AcDbEntity
  8
センター
 48
2.0
100
AcDbLine
 10
6651.600000000008
 20
6368.47167863916
 30
0.0
 11
6751.600000000007
 21
6368.47167863916
 31
0.0
  0
LINE
  5
23892
102
{ACAD_REACTORS
330
24378
102
}
330
747D
100
AcDbEntity
  8
部品1
 48
50.0
100
AcDbLine
 10
6698.6
 20
6785.471678639165
 30
0.0
 11
6578.600000000003
 21
6785.471678639166
 31
0.0
  0
LINE
  5
23893
330
747D
100
AcDbEntity
  8
想像線
 48
5.0
100
AcDbLine
 10
7348.600000000008
 20
6170.471678639171
 30
0.0
 11
7348.600000000008
 21
5450.471678639161
 31
0.0
  0
LINE
  5
23895
330
747D
100
AcDbEntity
  8
細線
 48
50.0
100
AcDbLine
 10
6893.600000000003
 20
6348.976277927469
 30
0.0
 11
6995.09540071169
 21
6450.471678639154
 31
0.0
  0
LINE
  5
23896
330
747D
100
AcDbEntity
  8
細線
 48
50.0
100
AcDbLine
 10
6893.600000000006
 20
6304.074997322119
 30
0.0
 11
7039.996681317029
 21
6450.471678639154
 31
0.0
  0
LINE
  5
23897
330
747D
100
AcDbEntity
  8
細線
 48
50.0
100
AcDbLine
 10
6894.700523133081
 20
6170.471678639156
 30
0.0
 11
7093.600000000003
 21
6369.371155506083
 31
0.0
  0
LINE
  5
23898
330
747D
100
AcDbEntity
  8
細線
 48
50.0
100
AcDbLine
 10
6893.600000000008
 20
6214.272436111432
 30
0.0
 11
7093.600000000003
 21
6414.272436111424
 31
0.0
  0
LINE
  5
23899
330
747D
100
AcDbEntity
  8
細線
 48
50.0
100
AcDbLine
 10
6893.600000000003
 20
6259.173716716776
 30
0.0
 11
7084.897961922384
 21
6450.471678639155
 31
0.0
  0
LINE
  5
2389A
330
747D
100
AcDbEntity
  8
部品1
 48
50.0
100
AcDbLine
 10
7093.600000000001
 20
6450.471678639157
 30
0.0
 11
7093.600000000008
 21
6170.47167863916
 31
0.0
  0
LINE
  5
2389B
330
747D
100
AcDbEntity
  8
部品1
 48
50.0
100
AcDbLine
 10
6893.600000000002
 20
6450.471678639155
 30
0.0
 11
6893.600000000008
 21
6170.471678639156
 31
0.0
  0
DIMENSION
  5
2389C
330
747D
100
AcDbEntity
  8
寸法
 48
50.0
100
AcDbDimension
  2
*D40
 10
7092.442995307156
 20
6897.471678639156
 30
0.0
 11
7092.442995307154
 21
6575.471678639157
 31
0.0
 70
   160
 71
     5
 42
726.9999999999891
  3
INABA_S40G
100
AcDbAlignedDimension
 13
7022.7654751409
 23
6170.471678639167
 33
0.0
 14
7353.600000000007
 24
6897.471678639156
 34
0.0
 50
90.0
100
AcDbRotatedDimension
1001
ACAD
1000
DSTYLE
1002
{
1070
   341
1005
0
1002
}
  0
LINE
  5
2389D
330
747D
100
AcDbEntity
  8
細線
 48
50.0
100
AcDbLine
 10
6939.601803738425
 20
6170.471678639159
 30
0.0
 11
7093.600000000003
 21
6324.46987490074
 31
0.0
  0
LINE
  5
2389E
330
747D
100
AcDbEntity
  8
細線
 48
50.0
100
AcDbLine
 10
6984.503084343772
 20
6170.471678639159
 30
0.0
 11
7093.600000000003
 21
6279.568594295391
 31
0.0
  0
LINE
  5
2389F
330
747D
100
AcDbEntity
  8
細線
 48
50.0
100
AcDbLine
 10
7074.305645554466
 20
6170.471678639162
 30
0.0
 11
7093.600000000008
 21
6189.766033084703
 31
0.0
  0
LINE
  5
238A0
330
747D
100
AcDbEntity
  8
細線
 48
50.0
100
AcDbLine
 10
7029.404364949117
 20
6170.47167863916
 30
0.0
 11
7093.600000000008
 21
6234.667313690049
 31
0.0
  0
LINE
  5
238A1
330
747D
100
AcDbEntity
  8
細線
 48
50.0
100
AcDbLine
 10
6893.600000000003
 20
6393.877558532815
 30
0.0
 11
6950.194120106338
 21
6450.471678639154
 31
0.0
  0
LINE
  5
238A2
330
747D
100
AcDbEntity
  8
部品1
 48
50.0
100
AcDbLine
 10
7503.600000000007
 20
6797.471678639157
 30
0.0
 11
7303.600000000007
 21
6797.471678639157
 31
0.0
  0
LINE
  5
238A3
330
747D
100
AcDbEntity
  8
センター
 48
2.0
100
AcDbLine
 10
7353.600000000007
 20
6897.471678639156
 30
0.0
 11
7453.600000000007
 21
6897.471678639156
 31
0.0
  0
LINE
  5
238A4
330
747D
100
AcDbEntity
  8
センター
 48
2.0
100
AcDbLine
 10
7403.600000000007
 20
6947.471678639157
 30
0.0
 11
7403.600000000007
 21
6847.471678639156
 31
0.0
  0
LINE
  5
238AC
330
747D
100
AcDbEntity
  8
センター
 48
2.0
100
AcDbLine
 10
8105.600000000007
 20
6418.471678639161
 30
0.0
 11
8105.600000000007
 21
6318.47167863916
 31
0.0
  0
CIRCLE
  5
238AD
330
747D
100
AcDbEntity
  8
部品1
 48
50.0
100
AcDbCircle
 10
8105.600000000007
 20
6368.47167863916
 30
0.0
 40
35.0
  0
LINE
  5
238B2
330
747D
100
AcDbEntity
  8
センター
 48
2.0
100
AcDbLine
 10
8055.600000000008
 20
6368.47167863916
 30
0.0
 11
8155.600000000008
 21
6368.47167863916
 31
0.0
  0
LINE
  5
238B4
330
747D
100
AcDbEntity
  8
センター
 48
2.0
100
AcDbLine
 10
8173.600000000007
 20
6897.471678639156
 30
0.0
 11
8273.600000000007
 21
6897.471678639156
 31
0.0
  0
LINE
  5
238B5
330
747D
100
AcDbEntity
  8
部品1
 48
50.0
100
AcDbLine
 10
8323.600000000007
 20
6797.471678639157
 30
0.0
 11
8123.600000000008
 21
6797.471678639157
 31
0.0
  0
LINE
  5
238B6
330
747D
100
AcDbEntity
  8
センター
 48
2.0
100
AcDbLine
 10
8223.600000000008
 20
6947.471678639157
 30
0.0
 11
8223.600000000008
 21
6847.471678639156
 31
0.0
  0
DIMENSION
  5
238B7
330
747D
100
AcDbEntity
  8
寸法
 48
50.0
100
AcDbDimension
  2
*D41
 10
6701.6
 20
8276.738136733067
 30
0.0
 11
7403.6
 21
8376.738136733067
 31
0.0
 70
    32
 71
     5
 42
1404.0
  3
INABA_S40G
100
AcDbAlignedDimension
 13
8105.6
 23
7477.471678639156
 33
0.0
 14
6701.6
 24
7477.471678639156
 34
0.0
100
AcDbRotatedDimension
1001
ACAD
1000
DSTYLE
1002
{
1070
   341
1005
0
1002
}
  0
DIMENSION
  5
238B8
330
747D
100
AcDbEntity
  8
寸法
 48
50.0
100
AcDbDimension
  2
*D42
 10
6578.6
 20
8276.738136733067
 30
0.0
 11
6305.493398282202
 21
8276.738136733067
 31
0.0
 70
   160
 71
     5
 42
123.0
  3
INABA_S40G
100
AcDbAlignedDimension
 13
6701.6
 23
7477.471678639156
 33
0.0
 14
6578.6
 24
7550.471678639157
 34
0.0
100
AcDbRotatedDimension
1001
ACAD
1000
DSTYLE
1002
{
1070
   341
1005
0
1002
}
  0
DIMENSION
  5
238BA
330
747D
100
AcDbEntity
  8
寸法
 48
50.0
100
AcDbDimension
  2
*D43
 10
5955.665006330072
 20
7427.471678639157
 30
0.0
 11
5955.665006330072
 21
7823.578280356956
 31
0.0
 70
   160
 71
     5
 42
123.0
  3
INABA_S40G
100
AcDbAlignedDimension
 13
6578.6
 23
7550.471678639157
 33
0.0
 14
6651.600000000001
 24
7427.471678639157
 34
0.0
 50
90.0
100
AcDbRotatedDimension
1001
ACAD
1000
DSTYLE
1002
{
1070
   341
1005
0
1002
}
  0
LINE
  5
238BC
102
{ACAD_REACTORS
330
24378
102
}
330
747D
100
AcDbEntity
  8
部品1
 48
50.0
100
AcDbLine
 10
6698.6
 20
6985.471678639166
 30
0.0
 11
6578.600000000003
 21
6985.471678639166
 31
0.0
  0
LINE
  5
238BD
330
747D
100
AcDbEntity
  8
センター
 48
2.0
100
AcDbLine
 10
6701.6
 20
7477.471678639156
 30
0.0
 11
6701.6
 21
7377.471678639157
 31
0.0
  0
LINE
  5
238BE
330
747D
100
AcDbEntity
  8
センター
 48
2.0
100
AcDbLine
 10
6651.600000000001
 20
7427.471678639157
 30
0.0
 11
6751.6
 21
7427.471678639157
 31
0.0
  0
CIRCLE
  5
238BF
330
747D
100
AcDbEntity
  8
部品1
 48
50.0
100
AcDbCircle
 10
6701.6
 20
7427.471678639157
 30
0.0
 40
35.0
  0
LINE
  5
238C1
330
747D
100
AcDbEntity
  8
細線
 48
50.0
100
AcDbLine
 10
6893.600000000008
 20
7487.396767612999
 30
0.0
 11
6956.674911026168
 21
7550.471678639157
 31
0.0
  0
LINE
  5
238C2
330
747D
100
AcDbEntity
  8
細線
 48
50.0
100
AcDbLine
 10
6893.600000000009
 20
7442.495487007654
 30
0.0
 11
7001.576191631511
 21
7550.471678639154
 31
0.0
  0
LINE
  5
238C3
330
747D
100
AcDbEntity
  8
細線
 48
50.0
100
AcDbLine
 10
6893.600000000012
 20
7352.692925796961
 30
0.0
 11
7091.378752842202
 21
7550.471678639154
 31
0.0
  0
LINE
  5
238C4
330
747D
100
AcDbEntity
  8
細線
 48
50.0
100
AcDbLine
 10
6893.600000000009
 20
7397.594206402306
 30
0.0
 11
7046.477472236858
 21
7550.471678639157
 31
0.0
  0
LINE
  5
238C5
330
747D
100
AcDbEntity
  8
部品1
 48
50.0
100
AcDbLine
 10
6893.600000000008
 20
7550.471678639157
 30
0.0
 11
6893.600000000012
 21
7350.471678639154
 31
0.0
  0
LINE
  5
238C6
330
747D
100
AcDbEntity
  8
部品1
 48
50.0
100
AcDbLine
 10
7093.600000000008
 20
7550.471678639157
 30
0.0
 11
7093.600000000012
 21
7350.471678639154
 31
0.0
  0
LINE
  5
238C7
330
747D
100
AcDbEntity
  8
細線
 48
50.0
100
AcDbLine
 10
6981.181314052877
 20
7350.471678639154
 30
0.0
 11
7093.600000000008
 21
7462.890364586268
 31
0.0
  0
LINE
  5
238C8
330
747D
100
AcDbEntity
  8
細線
 48
50.0
100
AcDbLine
 10
6936.280033447545
 20
7350.471678639152
 30
0.0
 11
7093.600000000008
 21
7507.791645191614
 31
0.0
  0
LINE
  5
238C9
330
747D
100
AcDbEntity
  8
細線
 48
50.0
100
AcDbLine
 10
7026.082594658231
 20
7350.471678639154
 30
0.0
 11
7093.600000000012
 21
7417.989083980931
 31
0.0
  0
LINE
  5
238CA
330
747D
100
AcDbEntity
  8
細線
 48
50.0
100
AcDbLine
 10
7070.983875263568
 20
7350.471678639152
 30
0.0
 11
7093.600000000012
 21
7373.087803375594
 31
0.0
  0
LINE
  5
238CB
330
747D
100
AcDbEntity
  8
部品1
 48
50.0
100
AcDbLine
 10
7503.600000000007
 20
6997.471678639157
 30
0.0
 11
7303.600000000007
 21
6997.471678639157
 31
0.0
  0
LINE
  5
238CC
330
747D
100
AcDbEntity
  8
細線
 48
50.0
100
AcDbLine
 10
6893.600000000008
 20
7532.298048218343
 30
0.0
 11
6911.773630420821
 21
7550.471678639157
 31
0.0
  0
LINE
  5
238CD
330
747D
100
AcDbEntity
  8
細線
 48
50.0
100
AcDbLine
 10
7713.600000000008
 20
7487.396767612999
 30
0.0
 11
7776.674911026169
 21
7550.471678639157
 31
0.0
  0
LINE
  5
238CE
330
747D
100
AcDbEntity
  8
細線
 48
50.0
100
AcDbLine
 10
7713.60000000001
 20
7442.495487007656
 30
0.0
 11
7821.576191631511
 21
7550.471678639154
 31
0.0
  0
LINE
  5
238CF
330
747D
100
AcDbEntity
  8
細線
 48
50.0
100
AcDbLine
 10
7713.600000000011
 20
7397.594206402307
 30
0.0
 11
7866.477472236859
 21
7550.471678639157
 31
0.0
  0
LINE
  5
238D0
330
747D
100
AcDbEntity
  8
細線
 48
50.0
100
AcDbLine
 10
7713.600000000011
 20
7352.692925796964
 30
0.0
 11
7911.378752842202
 21
7550.471678639154
 31
0.0
  0
LINE
  5
238D1
330
747D
100
AcDbEntity
  8
部品1
 48
50.0
100
AcDbLine
 10
7713.600000000008
 20
7550.471678639157
 30
0.0
 11
7713.600000000011
 21
7350.471678639157
 31
0.0
  0
LINE
  5
238D2
330
747D
100
AcDbEntity
  8
部品1
 48
50.0
100
AcDbLine
 10
7913.600000000008
 20
7550.471678639157
 30
0.0
 11
7913.600000000011
 21
7350.471678639157
 31
0.0
  0
LINE
  5
238D3
330
747D
100
AcDbEntity
  8
細線
 48
50.0
100
AcDbLine
 10
7756.280033447545
 20
7350.471678639154
 30
0.0
 11
7913.600000000008
 21
7507.791645191614
 31
0.0
  0
LINE
  5
238D4
330
747D
100
AcDbEntity
  8
細線
 48
50.0
100
AcDbLine
 10
7801.181314052882
 20
7350.471678639157
 30
0.0
 11
7913.600000000008
 21
7462.890364586268
 31
0.0
  0
LINE
  5
238D5
330
747D
100
AcDbEntity
  8
細線
 48
50.0
100
AcDbLine
 10
7846.082594658231
 20
7350.471678639157
 30
0.0
 11
7913.600000000011
 21
7417.989083980931
 31
0.0
  0
LINE
  5
238D6
330
747D
100
AcDbEntity
  8
細線
 48
50.0
100
AcDbLine
 10
7890.983875263572
 20
7350.471678639154
 30
0.0
 11
7913.600000000011
 21
7373.087803375593
 31
0.0
  0
LINE
  5
238D7
330
747D
100
AcDbEntity
  8
部品1
 48
50.0
100
AcDbLine
 10
8323.600000000007
 20
6997.471678639157
 30
0.0
 11
8123.600000000008
 21
6997.471678639157
 31
0.0
  0
LINE
  5
238D8
330
747D
100
AcDbEntity
  8
センター
 48
2.0
100
AcDbLine
 10
8105.6
 20
7477.471678639156
 30
0.0
 11
8105.6
 21
7377.471678639157
 31
0.0
  0
LINE
  5
238D9
330
747D
100
AcDbEntity
  8
センター
 48
2.0
100
AcDbLine
 10
8055.600000000001
 20
7427.471678639157
 30
0.0
 11
8155.600000000001
 21
7427.471678639157
 31
0.0
  0
CIRCLE
  5
238DA
330
747D
100
AcDbEntity
  8
部品1
 48
50.0
100
AcDbCircle
 10
8105.6
 20
7427.471678639157
 30
0.0
 40
35.0
  0
LINE
  5
238DB
330
747D
100
AcDbEntity
  8
細線
 48
50.0
100
AcDbLine
 10
7713.600000000008
 20
7532.298048218343
 30
0.0
 11
7731.773630420821
 21
7550.471678639157
 31
0.0
  0
LINE
  5
238DF
330
747D
100
AcDbEntity
  8
部品1
 48
50.0
100
AcDbLine
 10
9143.600000000008
 20
6797.471678639157
 30
0.0
 11
9143.600000000008
 21
6997.471678639157
 31
0.0
  0
LINE
  5
238E0
330
747D
100
AcDbEntity
  8
部品1
 48
50.0
100
AcDbLine
 10
8943.600000000008
 20
6797.471678639157
 30
0.0
 11
8943.600000000008
 21
6997.471678639157
 31
0.0
  0
DIMENSION
  5
238E1
330
747D
100
AcDbEntity
  8
寸法
 48
50.0
100
AcDbDimension
  2
*D44
 10
9043.600000000008
 20
8033.080495309404
 30
0.0
 11
9456.100000000004
 21
8133.092306333026
 31
0.0
 70
    32
 71
     5
 42
824.9999999999927
  3
INABA_S40G
100
AcDbAlignedDimension
 13
9868.6
 23
7550.471678639157
 33
0.0
 14
9043.600000000008
 24
6947.471678639157
 34
0.0
100
AcDbRotatedDimension
1001
ACAD
1000
DSTYLE
1002
{
1070
   341
1005
0
1002
}
  0
LINE
  5
238E4
102
{ACAD_REACTORS
330
2438B
102
}
330
747D
100
AcDbEntity
  8
部品1
 48
50.0
100
AcDbLine
 10
9868.6
 20
6170.471678639175
 30
0.0
 11
9868.6
 21
7550.471678639157
 31
0.0
  0
LINE
  5
238F7
330
747D
100
AcDbEntity
  8
センター
 48
2.0
100
AcDbLine
 10
8993.600000000007
 20
6897.471678639156
 30
0.0
 11
9093.600000000007
 21
6897.471678639156
 31
0.0
  0
LINE
  5
238F8
330
747D
100
AcDbEntity
  8
部品1
 48
50.0
100
AcDbLine
 10
9143.600000000008
 20
6797.471678639157
 30
0.0
 11
8943.600000000008
 21
6797.471678639157
 31
0.0
  0
LINE
  5
238F9
330
747D
100
AcDbEntity
  8
センター
 48
2.0
100
AcDbLine
 10
9043.600000000008
 20
6947.471678639157
 30
0.0
 11
9043.600000000008
 21
6847.471678639156
 31
0.0
  0
CIRCLE
  5
23901
330
747D
100
AcDbEntity
  8
部品1
 48
50.0
100
AcDbCircle
 10
9745.600000000008
 20
6368.47167863916
 30
0.0
 40
35.0
  0
LINE
  5
23902
330
747D
100
AcDbEntity
  8
センター
 48
2.0
100
AcDbLine
 10
9745.600000000008
 20
6418.471678639161
 30
0.0
 11
9745.600000000008
 21
6318.47167863916
 31
0.0
  0
LINE
  5
23907
330
747D
100
AcDbEntity
  8
センター
 48
2.0
100
AcDbLine
 10
9695.600000000007
 20
6368.47167863916
 30
0.0
 11
9795.600000000007
 21
6368.47167863916
 31
0.0
  0
LINE
  5
23909
102
{ACAD_REACTORS
330
2438B
102
}
330
747D
100
AcDbEntity
  8
部品1
 48
50.0
100
AcDbLine
 10
9868.6
 20
6785.471678639166
 30
0.0
 11
9748.600000000001
 21
6785.471678639166
 31
0.0
  0
DIMENSION
  5
2390C
330
747D
100
AcDbEntity
  8
寸法
 48
50.0
100
AcDbDimension
  2
*D45
 10
9745.600000000001
 20
8276.738136733067
 30
0.0
 11
10141.7066017178
 21
8276.738136733067
 31
0.0
 70
   160
 71
     5
 42
123.0
  3
INABA_S40G
100
AcDbAlignedDimension
 13
9868.6
 23
7550.471678639157
 33
0.0
 14
9745.600000000001
 24
7477.471678639156
 34
0.0
100
AcDbRotatedDimension
1001
ACAD
1000
DSTYLE
1002
{
1070
   341
1005
0
1002
}
  0
LINE
  5
2390D
330
747D
100
AcDbEntity
  8
細線
 48
50.0
100
AcDbLine
 10
8533.600000000008
 20
7487.396767612999
 30
0.0
 11
8596.674911026168
 21
7550.471678639157
 31
0.0
  0
LINE
  5
2390E
330
747D
100
AcDbEntity
  8
細線
 48
50.0
100
AcDbLine
 10
8533.600000000008
 20
7442.495487007656
 30
0.0
 11
8641.576191631513
 21
7550.471678639154
 31
0.0
  0
LINE
  5
2390F
330
747D
100
AcDbEntity
  8
部品1
 48
50.0
100
AcDbLine
 10
8733.600000000008
 20
7550.471678639157
 30
0.0
 11
8733.600000000011
 21
7350.471678639157
 31
0.0
  0
LINE
  5
23910
330
747D
100
AcDbEntity
  8
部品1
 48
50.0
100
AcDbLine
 10
8533.600000000008
 20
7550.471678639157
 30
0.0
 11
8533.600000000012
 21
7350.471678639157
 31
0.0
  0
LINE
  5
23911
330
747D
100
AcDbEntity
  8
細線
 48
50.0
100
AcDbLine
 10
8533.600000000012
 20
7352.692925796964
 30
0.0
 11
8731.378752842202
 21
7550.471678639154
 31
0.0
  0
LINE
  5
23912
330
747D
100
AcDbEntity
  8
細線
 48
50.0
100
AcDbLine
 10
8533.600000000012
 20
7397.594206402307
 30
0.0
 11
8686.477472236857
 21
7550.471678639157
 31
0.0
  0
LINE
  5
23913
330
747D
100
AcDbEntity
  8
細線
 48
50.0
100
AcDbLine
 10
8621.181314052881
 20
7350.471678639157
 30
0.0
 11
8733.600000000008
 21
7462.890364586268
 31
0.0
  0
LINE
  5
23914
330
747D
100
AcDbEntity
  8
細線
 48
50.0
100
AcDbLine
 10
8576.280033447545
 20
7350.471678639154
 30
0.0
 11
8733.600000000008
 21
7507.791645191614
 31
0.0
  0
LINE
  5
23915
330
747D
100
AcDbEntity
  8
細線
 48
50.0
100
AcDbLine
 10
8710.98387526357
 20
7350.471678639154
 30
0.0
 11
8733.600000000011
 21
7373.087803375593
 31
0.0
  0
LINE
  5
23916
330
747D
100
AcDbEntity
  8
細線
 48
50.0
100
AcDbLine
 10
8666.082594658233
 20
7350.471678639157
 30
0.0
 11
8733.600000000011
 21
7417.989083980931
 31
0.0
  0
LINE
  5
23917
330
747D
100
AcDbEntity
  8
部品1
 48
50.0
100
AcDbLine
 10
9143.600000000008
 20
6997.471678639157
 30
0.0
 11
8943.600000000008
 21
6997.471678639157
 31
0.0
  0
LINE
  5
23918
330
747D
100
AcDbEntity
  8
細線
 48
50.0
100
AcDbLine
 10
8533.600000000008
 20
7532.298048218343
 30
0.0
 11
8551.773630420822
 21
7550.471678639157
 31
0.0
  0
LINE
  5
23919
330
747D
100
AcDbEntity
  8
細線
 48
50.0
100
AcDbLine
 10
9353.600000000007
 20
7487.396767612999
 30
0.0
 11
9416.674911026168
 21
7550.471678639157
 31
0.0
  0
LINE
  5
2391A
330
747D
100
AcDbEntity
  8
細線
 48
50.0
100
AcDbLine
 10
9353.600000000007
 20
7442.495487007656
 30
0.0
 11
9461.576191631513
 21
7550.471678639154
 31
0.0
  0
LINE
  5
2391B
330
747D
100
AcDbEntity
  8
細線
 48
50.0
100
AcDbLine
 10
9353.600000000012
 20
7397.594206402307
 30
0.0
 11
9506.477472236857
 21
7550.471678639157
 31
0.0
  0
LINE
  5
2391C
330
747D
100
AcDbEntity
  8
細線
 48
50.0
100
AcDbLine
 10
9353.600000000012
 20
7352.692925796964
 30
0.0
 11
9551.378752842202
 21
7550.471678639154
 31
0.0
  0
LINE
  5
2391D
330
747D
100
AcDbEntity
  8
部品1
 48
50.0
100
AcDbLine
 10
9353.600000000007
 20
7550.471678639157
 30
0.0
 11
9353.600000000012
 21
7350.471678639157
 31
0.0
  0
LINE
  5
2391E
330
747D
100
AcDbEntity
  8
部品1
 48
50.0
100
AcDbLine
 10
9553.600000000008
 20
7550.471678639157
 30
0.0
 11
9553.600000000011
 21
7350.471678639157
 31
0.0
  0
LINE
  5
2391F
330
747D
100
AcDbEntity
  8
細線
 48
50.0
100
AcDbLine
 10
9396.280033447544
 20
7350.471678639154
 30
0.0
 11
9553.600000000008
 21
7507.791645191614
 31
0.0
  0
LINE
  5
23920
330
747D
100
AcDbEntity
  8
細線
 48
50.0
100
AcDbLine
 10
9441.181314052881
 20
7350.471678639157
 30
0.0
 11
9553.600000000008
 21
7462.890364586268
 31
0.0
  0
LINE
  5
23921
330
747D
100
AcDbEntity
  8
細線
 48
50.0
100
AcDbLine
 10
9486.082594658233
 20
7350.471678639157
 30
0.0
 11
9553.600000000011
 21
7417.989083980931
 31
0.0
  0
LINE
  5
23922
330
747D
100
AcDbEntity
  8
細線
 48
50.0
100
AcDbLine
 10
9530.98387526357
 20
7350.471678639154
 30
0.0
 11
9553.600000000011
 21
7373.087803375593
 31
0.0
  0
LINE
  5
23923
102
{ACAD_REACTORS
330
2438B
102
}
330
747D
100
AcDbEntity
  8
部品1
 48
50.0
100
AcDbLine
 10
9868.6
 20
6985.471678639166
 30
0.0
 11
9748.600000000003
 21
6985.471678639166
 31
0.0
  0
CIRCLE
  5
23924
330
747D
100
AcDbEntity
  8
部品1
 48
50.0
100
AcDbCircle
 10
9745.600000000001
 20
7427.471678639157
 30
0.0
 40
35.0
  0
LINE
  5
23925
330
747D
100
AcDbEntity
  8
センター
 48
2.0
100
AcDbLine
 10
9695.6
 20
7427.471678639157
 30
0.0
 11
9795.6
 21
7427.471678639157
 31
0.0
  0
LINE
  5
23926
330
747D
100
AcDbEntity
  8
センター
 48
2.0
100
AcDbLine
 10
9745.600000000001
 20
7477.471678639156
 30
0.0
 11
9745.600000000001
 21
7377.471678639157
 31
0.0
  0
LINE
  5
23927
330
747D
100
AcDbEntity
  8
細線
 48
50.0
100
AcDbLine
 10
9353.600000000007
 20
7532.298048218343
 30
0.0
 11
9371.773630420822
 21
7550.471678639157
 31
0.0
  0
TEXT
  5
23F71
330
747D
100
AcDbEntity
  8
文字
 62
     7
 48
50.0
100
AcDbText
 10
14251.2
 20
838.2527270729188
 30
0.0
 40
100.0
  1
～一般型・多雪地型・豪雪地型～
  7
STYLE2
100
AcDbText
  0
LINE
  5
23F91
330
747D
100
AcDbEntity
  8
部品1
 48
50.0
100
AcDbLine
 10
9748.599999999997
 20
6450.471678639175
 30
0.0
 11
6698.6
 21
6450.471678639153
 31
0.0
  0
LINE
  5
23F9E
330
747D
100
AcDbEntity
  8
細線
 48
50.0
100
AcDbLine
 10
7713.600000000004
 20
6393.877558532817
 30
0.0
 11
7770.194120106338
 21
6450.471678639157
 31
0.0
  0
LINE
  5
23F9F
330
747D
100
AcDbEntity
  8
細線
 48
50.0
100
AcDbLine
 10
7849.404364949117
 20
6170.471678639162
 30
0.0
 11
7913.600000000008
 21
6234.667313690049
 31
0.0
  0
LINE
  5
23FA0
330
747D
100
AcDbEntity
  8
細線
 48
50.0
100
AcDbLine
 10
7894.305645554466
 20
6170.471678639163
 30
0.0
 11
7913.600000000008
 21
6189.766033084705
 31
0.0
  0
LINE
  5
23FA1
330
747D
100
AcDbEntity
  8
細線
 48
50.0
100
AcDbLine
 10
7804.503084343773
 20
6170.47167863916
 30
0.0
 11
7913.600000000004
 21
6279.568594295393
 31
0.0
  0
LINE
  5
23FA2
330
747D
100
AcDbEntity
  8
細線
 48
50.0
100
AcDbLine
 10
7759.601803738426
 20
6170.47167863916
 30
0.0
 11
7913.600000000004
 21
6324.469874900742
 31
0.0
  0
LINE
  5
23FA3
330
747D
100
AcDbEntity
  8
部品1
 48
50.0
100
AcDbLine
 10
7713.600000000001
 20
6450.471678639157
 30
0.0
 11
7713.600000000008
 21
6170.471678639159
 31
0.0
  0
LINE
  5
23FA4
330
747D
100
AcDbEntity
  8
部品1
 48
50.0
100
AcDbLine
 10
7913.600000000001
 20
6450.471678639158
 30
0.0
 11
7913.600000000008
 21
6170.471678639162
 31
0.0
  0
LINE
  5
23FA5
330
747D
100
AcDbEntity
  8
細線
 48
50.0
100
AcDbLine
 10
7713.600000000004
 20
6259.173716716778
 30
0.0
 11
7904.897961922384
 21
6450.471678639157
 31
0.0
  0
LINE
  5
23FA6
330
747D
100
AcDbEntity
  8
細線
 48
50.0
100
AcDbLine
 10
7713.600000000008
 20
6214.272436111435
 30
0.0
 11
7913.600000000004
 21
6414.272436111428
 31
0.0
  0
LINE
  5
23FA7
330
747D
100
AcDbEntity
  8
細線
 48
50.0
100
AcDbLine
 10
7714.700523133081
 20
6170.471678639159
 30
0.0
 11
7913.600000000004
 21
6369.371155506086
 31
0.0
  0
LINE
  5
23FA8
330
747D
100
AcDbEntity
  8
細線
 48
50.0
100
AcDbLine
 10
7713.600000000006
 20
6304.074997322121
 30
0.0
 11
7859.99668131703
 21
6450.471678639155
 31
0.0
  0
LINE
  5
23FA9
330
747D
100
AcDbEntity
  8
細線
 48
50.0
100
AcDbLine
 10
7713.600000000004
 20
6348.976277927472
 30
0.0
 11
7815.09540071169
 21
6450.471678639155
 31
0.0
  0
LINE
  5
23FAA
330
747D
100
AcDbEntity
  8
細線
 48
50.0
100
AcDbLine
 10
8533.600000000005
 20
6348.976277927472
 30
0.0
 11
8635.095400711691
 21
6450.471678639155
 31
0.0
  0
LINE
  5
23FAB
330
747D
100
AcDbEntity
  8
細線
 48
50.0
100
AcDbLine
 10
8533.600000000005
 20
6304.074997322121
 30
0.0
 11
8679.996681317028
 21
6450.471678639155
 31
0.0
  0
LINE
  5
23FAC
330
747D
100
AcDbEntity
  8
細線
 48
50.0
100
AcDbLine
 10
8534.70052313308
 20
6170.471678639159
 30
0.0
 11
8733.600000000004
 21
6369.371155506086
 31
0.0
  0
LINE
  5
23FAD
330
747D
100
AcDbEntity
  8
細線
 48
50.0
100
AcDbLine
 10
8533.600000000008
 20
6214.272436111435
 30
0.0
 11
8733.600000000002
 21
6414.272436111428
 31
0.0
  0
LINE
  5
23FAE
330
747D
100
AcDbEntity
  8
細線
 48
50.0
100
AcDbLine
 10
8533.600000000005
 20
6259.173716716778
 30
0.0
 11
8724.897961922383
 21
6450.471678639157
 31
0.0
  0
LINE
  5
23FAF
330
747D
100
AcDbEntity
  8
部品1
 48
50.0
100
AcDbLine
 10
8733.6
 20
6450.471678639158
 30
0.0
 11
8733.600000000008
 21
6170.471678639162
 31
0.0
  0
LINE
  5
23FB0
330
747D
100
AcDbEntity
  8
部品1
 48
50.0
100
AcDbLine
 10
8533.600000000003
 20
6450.471678639157
 30
0.0
 11
8533.600000000008
 21
6170.471678639159
 31
0.0
  0
LINE
  5
23FB1
330
747D
100
AcDbEntity
  8
細線
 48
50.0
100
AcDbLine
 10
8579.601803738425
 20
6170.47167863916
 30
0.0
 11
8733.600000000004
 21
6324.469874900742
 31
0.0
  0
LINE
  5
23FB2
330
747D
100
AcDbEntity
  8
細線
 48
50.0
100
AcDbLine
 10
8624.503084343773
 20
6170.47167863916
 30
0.0
 11
8733.600000000004
 21
6279.568594295393
 31
0.0
  0
LINE
  5
23FB3
330
747D
100
AcDbEntity
  8
細線
 48
50.0
100
AcDbLine
 10
8714.305645554466
 20
6170.471678639163
 30
0.0
 11
8733.600000000008
 21
6189.766033084705
 31
0.0
  0
LINE
  5
23FB4
330
747D
100
AcDbEntity
  8
細線
 48
50.0
100
AcDbLine
 10
8669.404364949118
 20
6170.471678639162
 30
0.0
 11
8733.600000000008
 21
6234.667313690049
 31
0.0
  0
LINE
  5
23FB5
330
747D
100
AcDbEntity
  8
細線
 48
50.0
100
AcDbLine
 10
8533.600000000005
 20
6393.877558532817
 30
0.0
 11
8590.194120106337
 21
6450.471678639157
 31
0.0
  0
LINE
  5
23FB6
330
747D
100
AcDbEntity
  8
細線
 48
50.0
100
AcDbLine
 10
9354.534750000402
 20
6393.877558532817
 30
0.0
 11
9411.128870106736
 21
6450.471678639157
 31
0.0
  0
LINE
  5
23FB7
330
747D
100
AcDbEntity
  8
細線
 48
50.0
100
AcDbLine
 10
9490.339114949517
 20
6170.471678639162
 30
0.0
 11
9554.534750000406
 21
6234.667313690049
 31
0.0
  0
LINE
  5
23FB8
330
747D
100
AcDbEntity
  8
細線
 48
50.0
100
AcDbLine
 10
9535.240395554865
 20
6170.471678639163
 30
0.0
 11
9554.534750000406
 21
6189.766033084705
 31
0.0
  0
LINE
  5
23FB9
330
747D
100
AcDbEntity
  8
細線
 48
50.0
100
AcDbLine
 10
9445.437834344172
 20
6170.47167863916
 30
0.0
 11
9554.534750000403
 21
6279.568594295393
 31
0.0
  0
LINE
  5
23FBA
330
747D
100
AcDbEntity
  8
細線
 48
50.0
100
AcDbLine
 10
9400.536553738824
 20
6170.47167863916
 30
0.0
 11
9554.534750000403
 21
6324.469874900742
 31
0.0
  0
LINE
  5
23FBB
330
747D
100
AcDbEntity
  8
部品1
 48
50.0
100
AcDbLine
 10
9354.534750000402
 20
6450.471678639157
 30
0.0
 11
9354.534750000407
 21
6170.471678639159
 31
0.0
  0
LINE
  5
23FBC
330
747D
100
AcDbEntity
  8
部品1
 48
50.0
100
AcDbLine
 10
9554.534750000399
 20
6450.471678639158
 30
0.0
 11
9554.534750000406
 21
6170.471678639162
 31
0.0
  0
LINE
  5
23FBD
330
747D
100
AcDbEntity
  8
細線
 48
50.0
100
AcDbLine
 10
9354.534750000402
 20
6259.173716716778
 30
0.0
 11
9545.832711922782
 21
6450.471678639157
 31
0.0
  0
LINE
  5
23FBE
330
747D
100
AcDbEntity
  8
細線
 48
50.0
100
AcDbLine
 10
9354.534750000407
 20
6214.272436111435
 30
0.0
 11
9554.534750000401
 21
6414.272436111428
 31
0.0
  0
LINE
  5
23FBF
330
747D
100
AcDbEntity
  8
細線
 48
50.0
100
AcDbLine
 10
9355.635273133479
 20
6170.471678639159
 30
0.0
 11
9554.534750000403
 21
6369.371155506086
 31
0.0
  0
LINE
  5
23FC0
330
747D
100
AcDbEntity
  8
細線
 48
50.0
100
AcDbLine
 10
9354.534750000404
 20
6304.074997322121
 30
0.0
 11
9500.931431317427
 21
6450.471678639155
 31
0.0
  0
LINE
  5
23FC1
330
747D
100
AcDbEntity
  8
細線
 48
50.0
100
AcDbLine
 10
9354.534750000402
 20
6348.976277927472
 30
0.0
 11
9456.03015071209
 21
6450.471678639155
 31
0.0
  0
LINE
  5
241AC
330
747D
100
AcDbEntity
  8
部品1
100
AcDbLine
 10
11082.04572484859
 20
3259.409047302997
 30
0.0
 11
5011.060539462334
 21
3259.409047302997
 31
0.0
  0
LINE
  5
241AD
330
747D
100
AcDbEntity
  8
部品1
100
AcDbLine
 10
11082.04572484858
 20
3019.409047302996
 30
0.0
 11
5011.060539462338
 21
3019.409047302996
 31
0.0
  0
LINE
  5
241AE
330
747D
100
AcDbEntity
  8
部品1
100
AcDbLine
 10
5011.06053946234
 20
295.1020777183503
 30
0.0
 11
11082.04572484858
 21
295.1020777183503
 31
0.0
  0
LEADER
  5
241AF
330
747D
100
AcDbEntity
  8
寸法
 48
50.0
100
AcDbLeader
  3
INABA_S50G
 73
     0
 74
     0
 75
     1
 40
102.2727272727273
 41
680.0000000000001
 76
     3
 10
8019.168291448794
 20
2258.945661211555
 30
0.0
 10
8053.52226256215
 20
2669.398472318096
 30
0.0
 10
8178.52226256215
 20
2669.398472318096
 30
0.0
340
241B0
1001
ACAD
1000
DSTYLE
1002
{
1070
   341
1005
0
1070
    40
1040
1.0
1070
   343
1005
0
1070
   344
1005
0
1002
}
  0
MTEXT
  5
241B0
102
{ACAD_REACTORS
330
241AF
102
}
330
747D
100
AcDbEntity
  8
部品1
 62
     7
 48
50.0
100
AcDbMText
 10
8203.522262562151
 20
2745.53483595446
 30
0.0
 40
80.0
 41
0.8
 71
     4
 72
     1
  1
\A1;ナット(市販品)
  7
STYLE2
 73
     1
 44
1.0
1001
ACAD
1000
MTEXTBEGIN
1070
    73
1070
     1
1070
    44
1040
1.0
1070
    74
1070
     0
1000
MTEXTEND
  0
LEADER
  5
241B1
330
747D
100
AcDbEntity
  8
寸法
 48
50.0
100
AcDbLeader
  3
INABA_S50G
 73
     0
 74
     0
 75
     1
 40
102.2727272727273
 41
906.8181818181818
 76
     3
 10
8043.168291448793
 20
2129.193668546692
 30
0.0
 10
8085.039881817634
 20
2484.429389553309
 30
0.0
 10
8210.039881817634
 20
2484.429389553309
 30
0.0
340
241B2
1001
ACAD
1000
DSTYLE
1002
{
1070
   341
1005
0
1070
    40
1040
1.0
1070
   343
1005
0
1070
   344
1005
0
1002
}
  0
MTEXT
  5
241B2
102
{ACAD_REACTORS
330
241B1
102
}
330
747D
100
AcDbEntity
  8
部品1
 62
     7
 48
50.0
100
AcDbMText
 10
8235.039881817632
 20
2560.565753189673
 30
0.0
 40
80.0
 41
0.8
 71
     4
 72
     1
  1
\A1;ワッシャー(市販品)
  7
STYLE2
 73
     1
 44
1.0
1001
ACAD
1000
MTEXTBEGIN
1070
    73
1070
     1
1070
    44
1040
1.0
1070
    74
1070
     0
1000
MTEXTEND
  0
LWPOLYLINE
  5
241B3
330
747D
100
AcDbEntity
  8
部品1
 48
50.0
100
AcDbPolyline
 90
        2
 70
     0
 43
8.0
 10
8195.768291448791
 20
1620.070380102413
 10
8489.470754848175
 20
1620.070380102413
  0
TEXT
  5
241B4
330
747D
100
AcDbEntity
  8
部品1
 48
50.0
100
AcDbText
 10
8200.121875733222
 20
2215.949060864612
 30
0.0
 40
80.0
  1
基礎ボルト(市販品)
  7
STYLE2
100
AcDbText
  0
DIMENSION
  5
241B5
330
747D
100
AcDbEntity
  8
寸法
 48
50.0
100
AcDbDimension
  2
*D52
 10
8697.636891217637
 20
1536.070380102411
 30
0.0
 11
8597.636891217637
 21
1698.070380102413
 31
0.0
 70
    32
  1
180
 71
     5
 42
324.0000000000009
  3
INABA_S40G
100
AcDbAlignedDimension
 13
8195.768291448791
 23
1860.070380102412
 33
0.0
 14
8195.768291448791
 24
1536.070380102411
 34
0.0
 50
90.0
100
AcDbRotatedDimension
1001
ACAD
1000
DSTYLE
1002
{
1070
   341
1005
0
1002
}
  0
DIMENSION
  5
241B6
330
747D
100
AcDbEntity
  8
寸法
 48
50.0
100
AcDbDimension
  2
*D53
 10
8973.691557336664
 20
1860.070380102412
 30
0.0
 11
8973.691557336664
 21
1394.061476680929
 31
0.0
 70
   160
  1
20～25
 71
     5
 42
52.76000000000113
  3
INABA_S40G
100
AcDbAlignedDimension
 13
8008.568291448794
 23
1912.830380102413
 33
0.0
 14
8195.768291448791
 24
1860.070380102412
 34
0.0
 50
90.0
100
AcDbRotatedDimension
1001
ACAD
1000
DSTYLE
1002
{
1070
   341
1005
0
1002
}
  0
MTEXT
  5
241B7
102
{ACAD_REACTORS
330
241B8
102
}
330
747D
100
AcDbEntity
  8
部品1
 62
     7
 48
50.0
100
AcDbMText
 10
8204.712753868113
 20
2124.453706255642
 30
0.0
 40
80.0
 41
0.8
 71
     4
 72
     1
  1
M10X160
  7
STYLE2
 73
     1
 44
1.0
1001
ACAD
1000
MTEXTBEGIN
1070
    73
1070
     1
1070
    44
1040
1.0
1070
    74
1070
     0
1000
MTEXTEND
  0
LEADER
  5
241B8
330
747D
100
AcDbEntity
  8
寸法
 48
50.0
100
AcDbLeader
  3
INABA_S50G
 73
     0
 74
     0
 75
     1
 40
80.0
 41
435.0
 76
     3
 10
8012.168291448793
 20
1909.230380102412
 30
0.0
 10
8054.712753868113
 20
2059.453706255642
 30
0.0
 10
8179.712753868113
 20
2059.453706255642
 30
0.0
340
241B7
1001
ACAD
1000
DSTYLE
1002
{
1070
   341
1005
0
1070
    40
1040
1.0
1070
   343
1005
0
1070
   344
1005
0
1002
}
  0
LINE
  5
241B9
330
747D
100
AcDbEntity
  8
部品1
100
AcDbLine
 10
5011.060539462336
 20
3259.409047302997
 30
0.0
 11
5011.060539462338
 21
295.1020777183503
 31
0.0
  0
LEADER
  5
241BA
330
747D
100
AcDbEntity
  8
寸法
 48
50.0
100
AcDbLeader
  3
INABA_S50G
 73
     0
 75
     1
 40
113.1818181818182
 41
608.6363636363635
 76
     3
 10
7971.905041586843
 20
1809.586053460691
 30
0.0
 10
7838.101212895494
 20
2660.965135817169
 30
0.0
 10
7713.101212895494
 20
2660.965135817169
 30
0.0
340
241BB
1001
ACAD
1000
DSTYLE
1002
{
1070
   341
1005
0
1070
    40
1040
1.0
1070
   343
1005
0
1070
   344
1005
0
1002
}
  0
MTEXT
  5
241BB
102
{ACAD_REACTORS
330
241BA
102
}
330
747D
100
AcDbEntity
  8
寸法
 62
     7
 48
50.0
100
AcDbMText
 10
7688.101212895495
 20
2742.556044908078
 30
0.0
 40
80.0
 41
0.8
 71
     6
 72
     1
  1
\A1;φ70スリーブ
  7
STYLE2
 73
     1
 44
1.0
1001
ACAD
1000
MTEXTBEGIN
1070
    73
1070
     1
1070
    44
1040
1.0
1070
    74
1070
     0
1000
MTEXTEND
  0
LWPOLYLINE
  5
241BC
330
747D
100
AcDbEntity
  8
部品1
 48
50.0
100
AcDbPolyline
 90
        2
 70
     0
 43
8.0
 10
5667.589076438642
 20
1620.070380102413
 10
6081.728978271598
 20
1620.070380102413
  0
TEXT
  5
241BD
330
747D
100
AcDbEntity
  8
部品1
 48
50.0
100
AcDbText
 10
5667.589076438642
 20
1631.309372385667
 30
0.0
 40
80.0
  1
▽G.L
  7
STYLE2
100
AcDbText
  0
DIMENSION
  5
241BE
330
747D
100
AcDbEntity
  8
寸法
 48
50.0
100
AcDbDimension
  2
*D54
 10
5811.30866453914
 20
1076.070380102412
 30
0.0
 11
5811.30866453914
 21
1196.070380102413
 31
0.0
 70
   160
  1
150
 71
     5
 42
240.0
  3
INABA_S40G
100
AcDbAlignedDimension
 13
5953.728978271598
 23
1316.070380102412
 33
0.0
 14
5873.728978271603
 24
1076.070380102412
 34
0.0
 50
90.0
100
AcDbRotatedDimension
1001
ACAD
1000
DSTYLE
1002
{
1070
   341
1005
0
1002
}
  0
LEADER
  5
241BF
330
747D
100
AcDbEntity
  8
寸法
 48
50.0
100
AcDbLeader
  3
INABA_S50G
 71
     0
 73
     0
 75
     1
 40
100.0
 41
225.0
 76
     3
 10
6049.631930623742
 20
1196.070380102412
 30
0.0
 10
5927.793952076405
 20
932.5476864839757
 30
0.0
 10
5802.793952076405
 20
932.5476864839757
 30
0.0
1001
ACAD
1000
DSTYLE
1002
{
1070
    40
1040
1.0
1070
   272
1070
     1
1070
   279
1070
     1
1070
   341
1005
0
1002
}
  0
LEADER
  5
241C0
330
747D
100
AcDbEntity
  8
寸法
 48
50.0
100
AcDbLeader
  3
INABA_S50G
 71
     0
 73
     0
 75
     1
 40
100.0
 41
222.7272727272727
 76
     3
 10
6177.728978271598
 20
1196.070380102412
 30
0.0
 10
5955.91667963384
 20
752.2315339445322
 30
0.0
 10
5830.91667963384
 20
752.2315339445322
 30
0.0
1001
ACAD
1000
DSTYLE
1002
{
1070
    40
1040
1.0
1070
   272
1070
     1
1070
   279
1070
     1
1070
   341
1005
0
1002
}
  0
MTEXT
  5
241C1
102
{ACAD_REACTORS
330
241C2
102
}
330
747D
100
AcDbEntity
  8
寸法
 62
     7
 48
50.0
100
AcDbMText
 10
5992.478924048795
 20
1461.370982919869
 30
0.0
 40
80.0
 41
0.8
 71
     6
 72
     1
  1
\A1;D10@300
  7
STYLE2
 73
     1
 44
1.0
1001
ACAD
1000
MTEXTBEGIN
1070
    73
1070
     1
1070
    44
1040
1.0
1070
    74
1070
     0
1000
MTEXTEND
  0
LEADER
  5
241C2
330
747D
100
AcDbEntity
  8
寸法
 48
50.0
100
AcDbLeader
  3
INABA_S50G
 71
     0
 73
     0
 75
     1
 40
100.0
 41
540.3409090909091
 76
     3
 10
6185.728978271598
 20
1618.197594799535
 30
0.0
 10
6127.746741742901
 20
1396.72726625873
 30
0.0
 10
6002.746741742901
 20
1396.72726625873
 30
0.0
213
-9.732182305893367
223
-4.643716661138569
233
0.0
1001
ACAD
1000
DSTYLE
1002
{
1070
    40
1040
1.0
1070
   272
1070
     1
1070
   279
1070
     1
1070
   341
1005
0
1002
}
  0
LEADER
  5
241C3
330
747D
100
AcDbEntity
  8
寸法
 48
50.0
100
AcDbLeader
  3
INABA_S50G
 71
     0
 73
     0
 75
     1
 40
130.1136363636363
 41
651.1363636363636
 76
     3
 10
6161.728978271599
 20
1860.070380102412
 30
0.0
 10
6049.304398107583
 20
2000.541145559
 30
0.0
 10
5924.304398107583
 20
2000.541145559
 30
0.0
1001
ACAD
1000
DSTYLE
1002
{
1070
    40
1040
1.0
1070
   272
1070
     1
1070
   279
1070
     1
1070
   341
1005
0
1002
}
  0
MTEXT
  5
241C4
102
{ACAD_REACTORS
330
241C3
102
}
330
747D
100
AcDbEntity
  8
寸法
 62
     7
 48
50.0
100
AcDbMText
 10
5861.630498788326
 20
2072.586600104454
 30
0.0
 40
80.0
 41
0.8
 71
     6
 72
     1
  1
\A1;金コテ押エ
  7
STYLE2
 73
     1
 44
1.0
1001
ACAD
1000
MTEXTBEGIN
1070
    73
1070
     1
1070
    44
1040
1.0
1070
    74
1070
     0
1000
MTEXTEND
  0
DIMENSION
  5
241C5
330
747D
100
AcDbEntity
  8
寸法
 48
50.0
100
AcDbDimension
  2
*D55
 10
5346.691739709859
 20
1076.070380102412
 30
0.0
 11
5346.691739709859
 21
1447.610529758413
 31
0.0
 70
   160
  1
540
 71
     5
 42
784.0
  3
INABA_S40G
100
AcDbAlignedDimension
 13
6081.728978271598
 23
1860.070380102412
 33
0.0
 14
5873.728978271603
 24
1076.070380102412
 34
0.0
 50
90.0
100
AcDbRotatedDimension
1001
ACAD
1000
DSTYLE
1002
{
1070
   341
1005
0
1002
}
  0
MTEXT
  5
241C6
102
{ACAD_REACTORS
330
241C0
102
}
330
747D
100
AcDbEntity
  8
寸法
 62
     7
 48
50.0
100
AcDbMText
 10
5810.91667963384
 20
812.2315339445322
 30
0.0
 40
80.0
 41
0.8
 71
     6
 72
     1
  1
D13
  7
STYLE2
 73
     1
 44
1.0
1001
ACAD
1000
MTEXTBEGIN
1070
    73
1070
     1
1070
    44
1040
1.0
1070
    74
1070
     0
1000
MTEXTEND
  0
MTEXT
  5
241C7
102
{ACAD_REACTORS
330
241BF
102
}
330
747D
100
AcDbEntity
  8
寸法
 62
     7
 48
50.0
100
AcDbMText
 10
5782.793952076405
 20
992.5476864839756
 30
0.0
 40
80.0
 41
0.8
 71
     6
 72
     1
  1
D10
  7
STYLE2
 73
     1
 44
1.0
1001
ACAD
1000
MTEXTBEGIN
1070
    73
1070
     1
1070
    44
1040
1.0
1070
    74
1070
     0
1000
MTEXTEND
  0
DIMENSION
  5
241C8
330
747D
100
AcDbEntity
  8
寸法
 48
50.0
100
AcDbDimension
  2
*D56
 10
6401.728978271599
 20
537.6407420972518
 30
0.0
 11
6157.632219593375
 21
537.6407420972518
 31
0.0
 70
   160
  1
300
 71
     5
 42
448.0
  3
INABA_S40G
100
AcDbAlignedDimension
 13
5953.728978271598
 23
948.070380102412
 33
0.0
 14
6401.728978271599
 24
948.070380102412
 34
0.0
100
AcDbRotatedDimension
1001
ACAD
1000
DSTYLE
1002
{
1070
   341
1005
0
1002
}
  0
MTEXT
  5
241C9
102
{ACAD_REACTORS
330
241CA
102
}
330
747D
100
AcDbEntity
  8
寸法
 62
     7
 48
50.0
100
AcDbMText
 10
7714.744219103853
 20
2381.871773000564
 30
0.0
 40
80.0
 41
0.8
 71
     6
 72
     1
  1
\A1;アンカープレート L
  7
STYLE2
 73
     1
 44
1.0
1001
ACAD
1000
MTEXTBEGIN
1070
    73
1070
     1
1070
    44
1040
1.0
1070
    74
1070
     0
1000
MTEXTEND
  0
LEADER
  5
241CA
330
747D
100
AcDbEntity
  8
寸法
 48
50.0
100
AcDbLeader
  3
INABA_S50G
 73
     0
 75
     1
 40
106.3636363636363
 41
893.1818181818181
 76
     3
 10
7913.168291448794
 20
1929.630380102413
 30
0.0
 10
7864.744219103854
 20
2303.689954818745
 30
0.0
 10
7739.744219103854
 20
2303.689954818745
 30
0.0
340
241C9
1001
ACAD
1000
DSTYLE
1002
{
1070
   341
1005
0
1070
    40
1040
1.0
1070
   343
1005
0
1070
   344
1005
0
1002
}
  0
LINE
  5
241CB
330
747D
100
AcDbEntity
  8
細線
 48
50.0
100
AcDbLine
 10
6201.728978271599
 20
1698.443272770242
 30
0.0
 11
6273.728978271599
 21
1770.443272770242
 31
0.0
  0
ARC
  5
241CC
330
747D
100
AcDbEntity
  8
部品1
 48
50.0
100
AcDbCircle
 10
6177.728978271599
 20
1720.324809496657
 30
0.0
 40
24.0
100
AcDbArc
 50
0.0
 51
180.0
  0
CIRCLE
  5
241CD
330
747D
100
AcDbEntity
  8
部品1
 48
50.0
100
AcDbCircle
 10
6177.728978271599
 20
1720.324809496657
 30
0.0
 40
8.0
  0
LINE
  5
241CE
330
747D
100
AcDbEntity
  8
部品1
 48
50.0
100
AcDbLine
 10
6081.728978271599
 20
1316.070380102412
 30
0.0
 11
6081.728978271599
 21
1860.070380102412
 31
0.0
  0
LINE
  5
241CF
330
747D
100
AcDbEntity
  8
部品1
 48
50.0
100
AcDbLine
 10
6273.728978271599
 20
1860.070380102412
 30
0.0
 11
6273.728978271599
 21
1316.070380102412
 31
0.0
  0
MTEXT
  5
241D0
102
{ACAD_REACTORS
330
241D5
102
}
330
747D
100
AcDbEntity
  8
寸法
 62
     7
 48
50.0
100
AcDbMText
 10
6356.614915298994
 20
1882.626279395223
 30
0.0
 40
80.0
 41
0.8
 71
     4
 72
     1
  1
D13
  7
STYLE2
 73
     1
 44
1.0
1001
ACAD
1000
MTEXTBEGIN
1070
    73
1070
     1
1070
    44
1040
1.0
1070
    74
1070
     0
1000
MTEXTEND
  0
LEADER
  5
241D1
330
747D
100
AcDbEntity
  8
寸法
 48
50.0
100
AcDbLeader
  3
INABA_S50G
 71
     0
 73
     0
 74
     0
 75
     1
 40
100.0
 41
225.0
 76
     3
 10
6305.631930623742
 20
1196.070380102412
 30
0.0
 10
6360.056638078283
 20
1100.673311159439
 30
0.0
 10
6485.056638078283
 20
1100.673311159439
 30
0.0
1001
ACAD
1000
DSTYLE
1002
{
1070
    40
1040
1.0
1070
   272
1070
     1
1070
   279
1070
     1
1070
   341
1005
0
1002
}
  0
LEADER
  5
241D2
330
747D
100
AcDbEntity
  8
寸法
 48
50.0
100
AcDbLeader
  3
INABA_S50G
 71
     0
 73
     0
 74
     0
 75
     1
 40
100.0
 41
540.3409090909091
 76
     3
 10
6251.674147284774
 20
1179.329849688886
 30
0.0
 10
6370.46743413285
 20
837.6990316939892
 30
0.0
 10
6495.46743413285
 20
837.6990316939892
 30
0.0
213
0.0
223
-1.022262676269383
233
0.0
1001
ACAD
1000
DSTYLE
1002
{
1070
    40
1040
1.0
1070
   272
1070
     1
1070
   279
1070
     1
1070
   341
1005
0
1002
}
  0
MTEXT
  5
241D3
102
{ACAD_REACTORS
330
241D1
102
}
330
747D
100
AcDbEntity
  8
寸法
 62
     7
 48
50.0
100
AcDbMText
 10
6505.056638078284
 20
1160.673311159439
 30
0.0
 40
80.0
 41
0.8
 71
     4
 72
     1
  1
D10
  7
STYLE2
 73
     1
 44
1.0
1001
ACAD
1000
MTEXTBEGIN
1070
    73
1070
     1
1070
    44
1040
1.0
1070
    74
1070
     0
1000
MTEXTEND
  0
LWPOLYLINE
  5
241D4
330
747D
100
AcDbEntity
  8
部品1
 48
50.0
100
AcDbPolyline
 90
        2
 70
     0
 43
8.0
 10
6273.728978271599
 20
1620.070380102413
 10
6687.868880104557
 20
1620.070380102413
  0
LEADER
  5
241D5
330
747D
100
AcDbEntity
  8
寸法
 48
50.0
100
AcDbLeader
  3
INABA_S50G
 71
     0
 73
     0
 74
     0
 75
     1
 40
100.0
 41
222.7272727272727
 76
     3
 10
6177.728978271598
 20
1720.324809496657
 30
0.0
 10
6231.614915298994
 20
1819.560382349831
 30
0.0
 10
6356.614915298994
 20
1819.560382349831
 30
0.0
1001
ACAD
1000
DSTYLE
1002
{
1070
    40
1040
1.0
1070
   272
1070
     1
1070
   279
1070
     1
1070
   341
1005
0
1002
}
  0
LINE
  5
241D6
330
747D
100
AcDbEntity
  8
細線
 48
50.0
100
AcDbLine
 10
5953.728978271592
 20
1234.917125864583
 30
0.0
 11
6034.882232509428
 21
1316.070380102412
 31
0.0
  0
LINE
  5
241D7
330
747D
100
AcDbEntity
  8
細線
 48
50.0
100
AcDbLine
 10
6161.594825749004
 20
1254.197594799534
 30
0.0
 11
6185.728978271605
 21
1278.331747322133
 31
0.0
  0
LINE
  5
241D8
330
747D
100
AcDbEntity
  8
細線
 48
50.0
100
AcDbLine
 10
6068.526842688672
 20
1188.070380102412
 30
0.0
 11
6185.7289782716
 21
1305.272515685337
 31
0.0
  0
LINE
  5
241D9
330
747D
100
AcDbEntity
  8
部品1
 48
50.0
100
AcDbLine
 10
5953.7289782716
 20
1076.070380102412
 30
0.0
 11
5953.7289782716
 21
1316.070380102412
 31
0.0
  0
LINE
  5
241DA
330
747D
100
AcDbEntity
  8
細線
 48
50.0
100
AcDbLine
 10
6310.993757957543
 20
1188.070380102412
 30
0.0
 11
6401.7289782716
 21
1278.805600416471
 31
0.0
  0
LINE
  5
241DB
330
747D
100
AcDbEntity
  8
細線
 48
50.0
100
AcDbLine
 10
6284.052989594328
 20
1188.070380102412
 30
0.0
 11
6401.7289782716
 21
1305.746368779678
 31
0.0
  0
LINE
  5
241DC
330
747D
100
AcDbEntity
  8
部品1
 48
50.0
100
AcDbLine
 10
6401.7289782716
 20
1316.070380102412
 30
0.0
 11
6401.7289782716
 21
1076.070380102412
 31
0.0
  0
LINE
  5
241DD
330
747D
100
AcDbEntity
  8
部品1
 48
50.0
100
AcDbLine
 10
6201.728978271606
 20
1196.070380102412
 30
0.0
 11
6201.728978271599
 21
1720.324809496657
 31
0.0
  0
LINE
  5
241DE
330
747D
100
AcDbEntity
  8
部品1
 48
50.0
100
AcDbLine
 10
6185.728978271605
 20
1196.070380102412
 30
0.0
 11
6185.728978271592
 21
1720.324809496657
 31
0.0
  0
LINE
  5
241DF
330
747D
100
AcDbEntity
  8
細線
 48
50.0
100
AcDbLine
 10
6169.728978271599
 20
1235.390978958923
 30
0.0
 11
6185.728978271605
 21
1251.390978958923
 31
0.0
  0
LINE
  5
241E0
330
747D
100
AcDbEntity
  8
細線
 48
50.0
100
AcDbLine
 10
6158.911817767614
 20
948.070380102412
 30
0.0
 11
6193.209314398797
 21
1076.070380102412
 31
0.0
  0
LINE
  5
241E1
330
747D
100
AcDbEntity
  8
部品1
 48
50.0
100
AcDbLine
 10
6481.728978271603
 20
948.070380102412
 30
0.0
 11
5873.728978271602
 21
948.070380102412
 31
0.0
  0
LINE
  5
241E2
330
747D
100
AcDbEntity
  8
部品1
 48
50.0
100
AcDbLine
 10
6009.728978271599
 20
1172.070380102412
 30
0.0
 11
6345.728978271599
 21
1172.070380102412
 31
0.0
  0
LINE
  5
241E3
330
747D
100
AcDbEntity
  8
部品1
 48
50.0
100
AcDbLine
 10
6009.728978271599
 20
1188.070380102412
 30
0.0
 11
6345.728978271599
 21
1188.070380102412
 31
0.0
  0
LINE
  5
241E4
330
747D
100
AcDbEntity
  8
部品1
 48
50.0
100
AcDbLine
 10
6481.728978271603
 20
1076.070380102412
 30
0.0
 11
5873.728978271602
 21
1076.070380102412
 31
0.0
  0
CIRCLE
  5
241E5
330
747D
100
AcDbEntity
  8
部品1
 48
50.0
100
AcDbCircle
 10
6177.728978271599
 20
1196.070380102412
 30
0.0
 40
8.0
  0
LINE
  5
241E6
330
747D
100
AcDbEntity
  8
細線
 48
50.0
100
AcDbLine
 10
6172.052989594333
 20
1076.070380102412
 30
0.0
 11
6268.052989594333
 21
1172.070380102412
 31
0.0
  0
LINE
  5
241E7
330
747D
100
AcDbEntity
  8
細線
 48
50.0
100
AcDbLine
 10
6001.135727873116
 20
948.070380102412
 30
0.0
 11
6035.433224504298
 21
1076.070380102412
 31
0.0
  0
LINE
  5
241E8
330
747D
100
AcDbEntity
  8
細線
 48
50.0
100
AcDbLine
 10
6080.023772820361
 20
948.0703801024102
 30
0.0
 11
6114.321269451544
 21
1076.07038010241
 31
0.0
  0
LINE
  5
241E9
330
747D
100
AcDbEntity
  8
細線
 48
50.0
100
AcDbLine
 10
5922.247682925857
 20
948.0703801024102
 30
0.0
 11
5956.545179557041
 21
1076.07038010241
 31
0.0
  0
LINE
  5
241EA
330
747D
100
AcDbEntity
  8
部品1
 48
50.0
100
AcDbLine
 10
5873.728978271602
 20
948.070380102412
 30
0.0
 11
5873.728978271602
 21
1076.070380102412
 31
0.0
  0
LINE
  5
241EB
330
747D
100
AcDbEntity
  8
細線
 48
50.0
100
AcDbLine
 10
6007.566508491462
 20
972.070380102412
 30
0.0
 11
6013.997289109809
 21
948.070380102412
 31
0.0
  0
LINE
  5
241EC
330
747D
100
AcDbEntity
  8
細線
 48
50.0
100
AcDbLine
 10
5928.678463544211
 20
972.070380102412
 30
0.0
 11
5935.109244162557
 21
948.070380102412
 31
0.0
  0
LINE
  5
241ED
330
747D
100
AcDbEntity
  8
細線
 48
50.0
100
AcDbLine
 10
6165.342598385967
 20
972.070380102412
 30
0.0
 11
6171.773379004314
 21
948.070380102412
 31
0.0
  0
LINE
  5
241EE
330
747D
100
AcDbEntity
  8
細線
 48
50.0
100
AcDbLine
 10
6086.454553438715
 20
972.070380102412
 30
0.0
 11
6092.885334057061
 21
948.070380102412
 31
0.0
  0
LINE
  5
241EF
330
747D
100
AcDbEntity
  8
細線
 48
50.0
100
AcDbLine
 10
5983.467611051883
 20
1076.070380102412
 30
0.0
 11
6079.467611051883
 21
1172.070380102412
 31
0.0
  0
LINE
  5
241F0
330
747D
100
AcDbEntity
  8
細線
 48
50.0
100
AcDbLine
 10
5956.526842688672
 20
1076.070380102412
 30
0.0
 11
6052.526842688672
 21
1172.070380102412
 31
0.0
  0
LINE
  5
241F1
330
747D
100
AcDbEntity
  8
部品1
 48
50.0
100
AcDbLine
 10
6009.728978271599
 20
1188.070380102412
 30
0.0
 11
6009.728978271599
 21
1172.070380102412
 31
0.0
  0
LINE
  5
241F2
330
747D
100
AcDbEntity
  8
細線
 48
50.0
100
AcDbLine
 10
5950.1143989387
 20
1052.070380102412
 30
0.0
 11
5943.683618320353
 21
1076.070380102412
 31
0.0
  0
LINE
  5
241F3
330
747D
100
AcDbEntity
  8
細線
 48
50.0
100
AcDbLine
 10
5873.7289782716
 20
1061.410301068192
 30
0.0
 11
5877.657134609795
 21
1076.070380102412
 31
0.0
  0
LINE
  5
241F4
330
747D
100
AcDbEntity
  8
部品1
 48
50.0
100
AcDbLine
 10
6169.728978271599
 20
1254.197594799534
 30
0.0
 11
6153.7289782716
 21
1254.197594799534
 31
0.0
  0
CIRCLE
  5
241F5
330
747D
100
AcDbEntity
  8
部品1
 48
50.0
100
AcDbCircle
 10
6049.728978271599
 20
1196.070380102412
 30
0.0
 40
8.0
  0
LINE
  5
241F6
330
747D
100
AcDbEntity
  8
細線
 48
50.0
100
AcDbLine
 10
6122.408379415088
 20
1188.070380102412
 30
0.0
 11
6153.7289782716
 21
1219.390978958923
 31
0.0
  0
ARC
  5
241F7
330
747D
100
AcDbEntity
  8
部品1
 48
50.0
100
AcDbCircle
 10
6177.728978271599
 20
1196.070380102412
 30
0.0
 40
24.0
100
AcDbArc
 50
180.0
 51
199.4712206344897
  0
LINE
  5
241F8
330
747D
100
AcDbEntity
  8
細線
 48
50.0
100
AcDbLine
 10
6029.002443885951
 20
1052.070380102412
 30
0.0
 11
6022.571663267605
 21
1076.070380102412
 31
0.0
  0
LINE
  5
241F9
330
747D
100
AcDbEntity
  8
細線
 48
50.0
100
AcDbLine
 10
6107.890488833203
 20
1052.070380102412
 30
0.0
 11
6101.459708214857
 21
1076.070380102412
 31
0.0
  0
LINE
  5
241FA
330
747D
100
AcDbEntity
  8
細線
 48
50.0
100
AcDbLine
 10
6010.408379415088
 20
1076.070380102412
 30
0.0
 11
6106.408379415088
 21
1172.070380102412
 31
0.0
  0
LINE
  5
241FB
330
747D
100
AcDbEntity
  8
部品1
 48
50.0
100
AcDbLine
 10
6153.7289782716
 20
1254.197594799534
 30
0.0
 11
6153.7289782716
 21
1196.070380102412
 31
0.0
  0
LINE
  5
241FC
330
747D
100
AcDbEntity
  8
細線
 48
50.0
100
AcDbLine
 10
6095.467611051883
 20
1188.070380102412
 30
0.0
 11
6153.7289782716
 21
1246.33174732213
 31
0.0
  0
LINE
  5
241FD
330
747D
100
AcDbEntity
  8
部品1
 48
50.0
100
AcDbLine
 10
6169.728978271599
 20
1254.197594799534
 30
0.0
 11
6169.728978271599
 21
1196.070380102412
 31
0.0
  0
LINE
  5
241FE
330
747D
100
AcDbEntity
  8
部品1
 48
50.0
100
AcDbLine
 10
6481.728978271603
 20
1076.070380102412
 30
0.0
 11
6481.728978271603
 21
948.070380102412
 31
0.0
  0
LINE
  5
241FF
330
747D
100
AcDbEntity
  8
細線
 48
50.0
100
AcDbLine
 10
6395.575952609354
 20
948.070380102412
 30
0.0
 11
6429.873449240538
 21
1076.07038010241
 31
0.0
  0
LINE
  5
24200
330
747D
100
AcDbEntity
  8
細線
 48
50.0
100
AcDbLine
 10
6237.799862714859
 20
948.070380102412
 30
0.0
 11
6272.097359346045
 21
1076.07038010241
 31
0.0
  0
LINE
  5
24201
330
747D
100
AcDbEntity
  8
細線
 48
50.0
100
AcDbLine
 10
6316.687907662108
 20
948.0703801024102
 30
0.0
 11
6350.985404293293
 21
1076.07038010241
 31
0.0
  0
LINE
  5
24202
330
747D
100
AcDbEntity
  8
細線
 48
50.0
100
AcDbLine
 10
6323.118688280458
 20
972.070380102412
 30
0.0
 11
6329.549468898806
 21
948.070380102412
 31
0.0
  0
LINE
  5
24203
330
747D
100
AcDbEntity
  8
細線
 48
50.0
100
AcDbLine
 10
6244.230643333213
 20
972.070380102412
 30
0.0
 11
6250.661423951559
 21
948.070380102412
 31
0.0
  0
LINE
  5
24204
330
747D
100
AcDbEntity
  8
細線
 48
50.0
100
AcDbLine
 10
6402.006733227705
 20
972.070380102412
 30
0.0
 11
6408.437513846052
 21
948.070380102412
 31
0.0
  0
LINE
  5
24205
330
747D
100
AcDbEntity
  8
細線
 48
50.0
100
AcDbLine
 10
6480.894778174953
 20
972.070380102412
 30
0.0
 11
6481.7289782716
 21
968.9571029580475
 31
0.0
  0
LINE
  5
24206
330
747D
100
AcDbEntity
  8
細線
 48
50.0
100
AcDbLine
 10
6474.463997556603
 20
948.0703801024102
 30
0.0
 11
6481.7289782716
 21
975.1836572468
 31
0.0
  0
LINE
  5
24207
330
747D
100
AcDbEntity
  8
細線
 48
50.0
100
AcDbLine
 10
6337.934526320747
 20
1188.070380102412
 30
0.0
 11
6401.7289782716
 21
1251.864832053263
 31
0.0
  0
CIRCLE
  5
24208
330
747D
100
AcDbEntity
  8
部品1
 48
50.0
100
AcDbCircle
 10
6305.728978271599
 20
1196.070380102412
 30
0.0
 40
8.0
  0
ARC
  5
24209
330
747D
100
AcDbEntity
  8
部品1
 48
50.0
100
AcDbCircle
 10
6177.728978271599
 20
1196.070380102412
 30
0.0
 40
24.0
100
AcDbArc
 50
340.5287793655103
 51
0.0
  0
LINE
  5
2420A
330
747D
100
AcDbEntity
  8
細線
 48
50.0
100
AcDbLine
 10
6186.778533780456
 20
1052.070380102412
 30
0.0
 11
6180.347753162108
 21
1076.070380102412
 31
0.0
  0
LINE
  5
2420B
330
747D
100
AcDbEntity
  8
細線
 48
50.0
100
AcDbLine
 10
6265.666578727701
 20
1052.070380102412
 30
0.0
 11
6259.235798109355
 21
1076.070380102412
 31
0.0
  0
LINE
  5
2420C
330
747D
100
AcDbEntity
  8
細線
 48
50.0
100
AcDbLine
 10
6198.993757957544
 20
1076.070380102412
 30
0.0
 11
6294.993757957543
 21
1172.070380102412
 31
0.0
  0
LINE
  5
2420D
330
747D
100
AcDbEntity
  8
細線
 48
50.0
100
AcDbLine
 10
6225.934526320747
 20
1076.070380102412
 30
0.0
 11
6321.935414165884
 21
1172.071267947551
 31
0.0
  0
LINE
  5
2420E
330
747D
100
AcDbEntity
  8
部品1
 48
50.0
100
AcDbLine
 10
6345.728978271599
 20
1188.070380102412
 30
0.0
 11
6345.728978271599
 21
1172.070380102412
 31
0.0
  0
LINE
  5
2420F
330
747D
100
AcDbEntity
  8
細線
 48
50.0
100
AcDbLine
 10
6423.442668622193
 20
1052.070380102412
 30
0.0
 11
6417.011888003846
 21
1076.070380102412
 31
0.0
  0
LINE
  5
24210
330
747D
100
AcDbEntity
  8
細線
 48
50.0
100
AcDbLine
 10
6387.579136499994
 20
1076.070380102412
 30
0.0
 11
6401.7289782716
 21
1090.220221874018
 31
0.0
  0
LINE
  5
24211
330
747D
100
AcDbEntity
  8
細線
 48
50.0
100
AcDbLine
 10
6344.554623674947
 20
1052.070380102412
 30
0.0
 11
6338.1238430566
 21
1076.070380102412
 31
0.0
  0
LINE
  5
24212
330
747D
100
AcDbEntity
  8
細線
 48
50.0
100
AcDbLine
 10
6081.728978271599
 20
1389.85789422779
 30
0.0
 11
6185.728978271605
 21
1493.857894227793
 31
0.0
  0
LINE
  5
24213
330
747D
100
AcDbEntity
  8
細線
 48
50.0
100
AcDbLine
 10
6081.728978271599
 20
1416.798662590998
 30
0.0
 11
6185.7289782716
 21
1520.798662590998
 31
0.0
  0
LINE
  5
24214
330
747D
100
AcDbEntity
  8
細線
 48
50.0
100
AcDbLine
 10
6081.728978271599
 20
1362.917125864583
 30
0.0
 11
6185.728978271605
 21
1466.917125864583
 31
0.0
  0
LINE
  5
24215
330
747D
100
AcDbEntity
  8
細線
 48
50.0
100
AcDbLine
 10
6169.728978271599
 20
1666.443272770242
 30
0.0
 11
6185.7289782716
 21
1682.443272770242
 31
0.0
  0
LINE
  5
24216
330
747D
100
AcDbEntity
  8
細線
 48
50.0
100
AcDbLine
 10
6169.728978271599
 20
1693.384041133449
 30
0.0
 11
6185.7289782716
 21
1709.384041133449
 31
0.0
  0
LINE
  5
24217
330
747D
100
AcDbEntity
  8
部品1
 48
50.0
100
AcDbLine
 10
5953.7289782716
 20
1316.070380102412
 30
0.0
 11
6081.728978271599
 21
1316.070380102412
 31
0.0
  0
LINE
  5
24218
330
747D
100
AcDbEntity
  8
細線
 48
50.0
100
AcDbLine
 10
5953.728978271592
 20
1261.857894227787
 30
0.0
 11
6007.941464146224
 21
1316.070380102412
 31
0.0
  0
LINE
  5
24219
330
747D
100
AcDbEntity
  8
細線
 48
50.0
100
AcDbLine
 10
5953.728978271592
 20
1288.798662590998
 30
0.0
 11
5981.000695783014
 21
1316.070380102412
 31
0.0
  0
LINE
  5
2421A
330
747D
100
AcDbEntity
  8
部品1
 48
50.0
100
AcDbLine
 10
6169.728978271599
 20
1662.197594799534
 30
0.0
 11
6153.7289782716
 21
1662.197594799538
 31
0.0
  0
LINE
  5
2421B
330
747D
100
AcDbEntity
  8
細線
 48
50.0
100
AcDbLine
 10
6081.728978271599
 20
1578.443272770242
 30
0.0
 11
6165.483300300894
 21
1662.197594799534
 31
0.0
  0
LINE
  5
2421C
330
747D
100
AcDbEntity
  8
細線
 48
50.0
100
AcDbLine
 10
6081.728978271599
 20
1605.384041133449
 30
0.0
 11
6153.7289782716
 21
1677.384041133449
 31
0.0
  0
LINE
  5
2421D
330
747D
100
AcDbEntity
  8
部品1
 48
50.0
100
AcDbLine
 10
6153.7289782716
 20
1662.197594799538
 30
0.0
 11
6153.7289782716
 21
1720.324809496657
 31
0.0
  0
LINE
  5
2421E
330
747D
100
AcDbEntity
  8
細線
 48
50.0
100
AcDbLine
 10
6081.728978271599
 20
1632.324809496657
 30
0.0
 11
6153.7289782716
 21
1704.324809496657
 31
0.0
  0
LINE
  5
2421F
330
747D
100
AcDbEntity
  8
部品1
 48
50.0
100
AcDbLine
 10
6169.728978271599
 20
1662.197594799534
 30
0.0
 11
6169.728978271599
 21
1720.324809496657
 31
0.0
  0
LINE
  5
24220
330
747D
100
AcDbEntity
  8
細線
 48
50.0
100
AcDbLine
 10
6201.728978271606
 20
1482.917125864583
 30
0.0
 11
6273.728978271592
 21
1554.917125864583
 31
0.0
  0
LINE
  5
24221
330
747D
100
AcDbEntity
  8
部品1
 48
50.0
100
AcDbLine
 10
6273.728978271599
 20
1316.070380102412
 30
0.0
 11
6401.7289782716
 21
1316.070380102412
 31
0.0
  0
LINE
  5
24222
330
747D
100
AcDbEntity
  8
細線
 48
50.0
100
AcDbLine
 10
6201.728978271606
 20
1294.331747322133
 30
0.0
 11
6273.728978271592
 21
1366.331747322128
 31
0.0
  0
LINE
  5
24223
330
747D
100
AcDbEntity
  8
細線
 48
50.0
100
AcDbLine
 10
6201.728978271606
 20
1321.272515685341
 30
0.0
 11
6273.728978271592
 21
1393.272515685337
 31
0.0
  0
LINE
  5
24224
330
747D
100
AcDbEntity
  8
細線
 48
50.0
100
AcDbLine
 10
6201.728978271606
 20
1267.390978958923
 30
0.0
 11
6273.728978271592
 21
1339.390978958923
 31
0.0
  0
LINE
  5
24225
330
747D
100
AcDbEntity
  8
細線
 48
50.0
100
AcDbLine
 10
6201.728978271599
 20
1536.798662590998
 30
0.0
 11
6273.728978271599
 21
1608.798662590998
 31
0.0
  0
LINE
  5
24226
330
747D
100
AcDbEntity
  8
細線
 48
50.0
100
AcDbLine
 10
6201.728978271606
 20
1509.857894227792
 30
0.0
 11
6273.728978271592
 21
1581.857894227787
 31
0.0
  0
MTEXT
  5
24227
102
{ACAD_REACTORS
330
241D2
102
}
330
747D
100
AcDbEntity
  8
寸法
 62
     7
 48
50.0
100
AcDbMText
 10
6515.46743413285
 20
898.7212943702589
 30
0.0
 40
80.0
 41
0.8
 71
     4
 72
     1
  1
\A1;D10@300
  7
STYLE2
 73
     1
 44
1.0
1001
ACAD
1000
MTEXTBEGIN
1070
    73
1070
     1
1070
    44
1040
1.0
1070
    74
1070
     0
1000
MTEXTEND
  0
DIMENSION
  5
24228
330
747D
100
AcDbEntity
  8
寸法
 48
50.0
100
AcDbDimension
  2
*D57
 10
6081.728978271598
 20
2279.738188018793
 30
0.0
 11
6177.728978271598
 21
2279.738188018793
 31
0.0
 70
   160
  1
120\P200\P280
 71
     5
 42
192.0
  3
INABA_S40G
100
AcDbAlignedDimension
 13
6273.728978271599
 23
1860.070380102412
 33
0.0
 14
6081.728978271598
 24
1860.070380102412
 34
0.0
100
AcDbRotatedDimension
1001
ACAD
1000
DSTYLE
1002
{
1070
   341
1005
0
1002
}
  0
LINE
  5
24229
330
747D
100
AcDbEntity
  8
部品1
 48
50.0
100
AcDbLine
 10
6081.728978271599
 20
1860.070380102412
 30
0.0
 11
6273.728978271599
 21
1860.070380102412
 31
0.0
  0
LINE
  5
2422A
330
747D
100
AcDbEntity
  8
細線
 48
50.0
100
AcDbLine
 10
6081.728978271599
 20
1820.91018803911
 30
0.0
 11
6120.889170334904
 21
1860.070380102412
 31
0.0
  0
LINE
  5
2422B
330
747D
100
AcDbEntity
  8
細線
 48
50.0
100
AcDbLine
 10
6081.728978271599
 20
1793.969419675902
 30
0.0
 11
6147.829938698109
 21
1860.070380102412
 31
0.0
  0
LINE
  5
2422C
330
747D
100
AcDbEntity
  8
細線
 48
50.0
100
AcDbLine
 10
6081.728978271599
 20
1847.850956402317
 30
0.0
 11
6093.948401971695
 21
1860.070380102412
 31
0.0
  0
LINE
  5
2422D
330
747D
100
AcDbEntity
  8
細線
 48
50.0
100
AcDbLine
 10
6201.281685537586
 20
1724.936748399434
 30
0.0
 11
6273.728978271599
 21
1797.384041133449
 31
0.0
  0
LINE
  5
2422E
330
747D
100
AcDbEntity
  8
細線
 48
50.0
100
AcDbLine
 10
6190.22140077407
 20
1740.817231999128
 30
0.0
 11
6273.728978271599
 21
1824.324809496657
 31
0.0
  0
LINE
  5
2422F
330
747D
100
AcDbEntity
  8
細線
 48
50.0
100
AcDbLine
 10
8066.168291448795
 20
1701.198662591
 30
0.0
 11
8195.768291448791
 21
1830.798662590999
 31
0.0
  0
LINE
  5
24230
330
747D
100
AcDbEntity
  8
部品1
100
AcDbLine
 10
8195.768291448791
 20
1316.070380102412
 30
0.0
 11
8195.768291448791
 21
1860.070380102412
 31
0.0
  0
LINE
  5
24231
330
747D
100
AcDbEntity
  8
部品1
 48
50.0
100
AcDbLine
 10
7781.768291448791
 20
1316.070380102412
 30
0.0
 11
7781.768291448791
 21
1860.070380102412
 31
0.0
  0
LINE
  5
24232
330
747D
100
AcDbEntity
  8
細線
 48
50.0
100
AcDbLine
 10
7781.768291448791
 20
1632.324809496657
 30
0.0
 11
7940.168291448792
 21
1790.724809496654
 31
0.0
  0
LINE
  5
24233
330
747D
100
AcDbEntity
  8
細線
 48
50.0
100
AcDbLine
 10
7781.768291448791
 20
1605.384041133449
 30
0.0
 11
7940.168291448792
 21
1763.784041133447
 31
0.0
  0
LINE
  5
24234
330
747D
100
AcDbEntity
  8
細線
 48
50.0
100
AcDbLine
 10
7781.768291448791
 20
1578.443272770242
 30
0.0
 11
7940.168291448791
 21
1736.843272770235
 31
0.0
  0
TEXT
  5
24235
330
747D
100
AcDbEntity
  8
部品1
 48
50.0
100
AcDbText
 10
7367.628389615837
 20
1631.309372385667
 30
0.0
 40
80.0
  1
▽G.L
  7
STYLE2
100
AcDbText
  0
LINE
  5
24236
330
747D
100
AcDbEntity
  8
部品1
100
AcDbLine
 10
8012.168291448793
 20
1635.070380102412
 30
0.0
 11
8012.168291448791
 21
1909.230380102412
 31
0.0
  0
LINE
  5
24237
330
747D
100
AcDbEntity
  8
部品1
100
AcDbLine
 10
7994.168291448794
 20
1635.070380102412
 30
0.0
 11
7994.16829144879
 21
1909.230380102412
 31
0.0
  0
LINE
  5
24238
330
747D
100
AcDbEntity
  8
細線
 48
50.0
100
AcDbLine
 10
8066.168291448795
 20
1647.31712586457
 30
0.0
 11
8195.768291448791
 21
1776.917125864562
 31
0.0
  0
LINE
  5
24239
330
747D
100
AcDbEntity
  8
細線
 48
50.0
100
AcDbLine
 10
8066.168291448795
 20
1674.257894227783
 30
0.0
 11
8195.768291448791
 21
1803.85789422778
 31
0.0
  0
LINE
  5
2423A
330
747D
100
AcDbEntity
  8
部品1
100
AcDbLine
 10
8066.168291448795
 20
1536.070380102412
 30
0.0
 11
8066.168291448795
 21
1860.070380102412
 31
0.0
  0
LINE
  5
2423B
330
747D
100
AcDbEntity
  8
部品1
100
AcDbLine
 10
7940.168291448786
 20
1536.070380102412
 30
0.0
 11
7940.168291448793
 21
1860.070380102412
 31
0.0
  0
LINE
  5
2423C
330
747D
100
AcDbEntity
  8
細線
 48
50.0
100
AcDbLine
 10
7781.768291448791
 20
1389.85789422779
 30
0.0
 11
7940.168291448786
 21
1548.257894227778
 31
0.0
  0
LINE
  5
2423D
330
747D
100
AcDbEntity
  8
細線
 48
50.0
100
AcDbLine
 10
7781.768291448791
 20
1362.917125864583
 30
0.0
 11
7954.921545686629
 21
1536.07038010241
 31
0.0
  0
LINE
  5
2423E
330
747D
100
AcDbEntity
  8
細線
 48
50.0
100
AcDbLine
 10
7781.768291448791
 20
1416.798662590998
 30
0.0
 11
7940.168291448786
 21
1575.198662590993
 31
0.0
  0
LINE
  5
2423F
330
747D
100
AcDbEntity
  8
細線
 48
50.0
100
AcDbLine
 10
7710.447692592282
 20
1076.070380102412
 30
0.0
 11
8195.768291448791
 21
1561.390978958919
 31
0.0
  0
LINE
  5
24240
330
747D
100
AcDbEntity
  8
細線
 48
50.0
100
AcDbLine
 10
7683.506924229077
 20
1076.070380102412
 30
0.0
 11
8195.768291448796
 21
1588.331747322126
 31
0.0
  0
LINE
  5
24241
330
747D
100
AcDbEntity
  8
細線
 48
50.0
100
AcDbLine
 10
7656.566155865869
 20
1076.070380102412
 30
0.0
 11
8195.768291448791
 21
1615.272515685337
 31
0.0
  0
LINE
  5
24242
330
747D
100
AcDbEntity
  8
部品1
 48
50.0
100
AcDbLine
 10
8403.768291448797
 20
1076.070380102412
 30
0.0
 11
7573.768291448796
 21
1076.070380102412
 31
0.0
  0
LINE
  5
24243
330
747D
100
AcDbEntity
  8
部品1
 48
50.0
100
AcDbLine
 10
8403.768291448797
 20
948.070380102412
 30
0.0
 11
7573.768291448796
 21
948.070380102412
 31
0.0
  0
LINE
  5
24244
330
747D
100
AcDbEntity
  8
細線
 48
50.0
100
AcDbLine
 10
7653.768291448789
 20
1234.917125864583
 30
0.0
 11
7734.921545686622
 21
1316.070380102412
 31
0.0
  0
LINE
  5
24245
330
747D
100
AcDbEntity
  8
部品1
 48
50.0
100
AcDbLine
 10
7653.768291448793
 20
1076.070380102412
 30
0.0
 11
7653.768291448793
 21
1316.070380102412
 31
0.0
  0
LINE
  5
24246
330
747D
100
AcDbEntity
  8
細線
 48
50.0
100
AcDbLine
 10
7701.175041050309
 20
948.070380102412
 30
0.0
 11
7735.472537681492
 21
1076.070380102412
 31
0.0
  0
LINE
  5
24247
330
747D
100
AcDbEntity
  8
部品1
 48
50.0
100
AcDbLine
 10
7573.768291448796
 20
948.070380102412
 30
0.0
 11
7573.768291448796
 21
1076.070380102412
 31
0.0
  0
LINE
  5
24248
330
747D
100
AcDbEntity
  8
細線
 48
50.0
100
AcDbLine
 10
7622.286996103053
 20
948.0703801024102
 30
0.0
 11
7656.584492734236
 21
1076.07038010241
 31
0.0
  0
LINE
  5
24249
330
747D
100
AcDbEntity
  8
細線
 48
50.0
100
AcDbLine
 10
7780.063085997557
 20
948.0703801024102
 30
0.0
 11
7814.360582628738
 21
1076.07038010241
 31
0.0
  0
LINE
  5
2424A
330
747D
100
AcDbEntity
  8
細線
 48
50.0
100
AcDbLine
 10
7628.717776721406
 20
972.070380102412
 30
0.0
 11
7635.148557339751
 21
948.070380102412
 31
0.0
  0
LINE
  5
2424B
330
747D
100
AcDbEntity
  8
細線
 48
50.0
100
AcDbLine
 10
7786.493866615909
 20
972.070380102412
 30
0.0
 11
7792.924647234257
 21
948.070380102412
 31
0.0
  0
LINE
  5
2424C
330
747D
100
AcDbEntity
  8
細線
 48
50.0
100
AcDbLine
 10
7707.605821668657
 20
972.070380102412
 30
0.0
 11
7714.036602287004
 21
948.070380102412
 31
0.0
  0
LINE
  5
2424D
330
747D
100
AcDbEntity
  8
細線
 48
50.0
100
AcDbLine
 10
7573.768291448792
 20
1061.410301068192
 30
0.0
 11
7577.696447786988
 21
1076.070380102412
 31
0.0
  0
LINE
  5
2424E
330
747D
100
AcDbEntity
  8
細線
 48
50.0
100
AcDbLine
 10
7650.153712115894
 20
1052.070380102412
 30
0.0
 11
7643.722931497548
 21
1076.070380102412
 31
0.0
  0
LINE
  5
2424F
330
747D
100
AcDbEntity
  8
細線
 48
50.0
100
AcDbLine
 10
7807.929802010398
 20
1052.070380102412
 30
0.0
 11
7801.49902139205
 21
1076.070380102412
 31
0.0
  0
LINE
  5
24250
330
747D
100
AcDbEntity
  8
細線
 48
50.0
100
AcDbLine
 10
7729.041757063147
 20
1052.070380102412
 30
0.0
 11
7722.6109764448
 21
1076.070380102412
 31
0.0
  0
LWPOLYLINE
  5
24251
330
747D
100
AcDbEntity
  8
部品1
 48
50.0
100
AcDbPolyline
 90
        2
 70
     0
 43
8.0
 10
7367.628389615837
 20
1620.070380102413
 10
7781.768291448791
 20
1620.070380102413
  0
LINE
  5
24252
330
747D
100
AcDbEntity
  8
細線
 48
50.0
100
AcDbLine
 10
7653.768291448789
 20
1261.857894227787
 30
0.0
 11
7707.980777323417
 21
1316.070380102412
 31
0.0
  0
LINE
  5
24253
330
747D
100
AcDbEntity
  8
部品1
 48
50.0
100
AcDbLine
 10
7653.768291448793
 20
1316.070380102412
 30
0.0
 11
7781.768291448791
 21
1316.070380102412
 31
0.0
  0
LINE
  5
24254
330
747D
100
AcDbEntity
  8
細線
 48
50.0
100
AcDbLine
 10
7653.768291448789
 20
1288.798662590998
 30
0.0
 11
7681.040008960208
 21
1316.070380102412
 31
0.0
  0
LINE
  5
24255
330
747D
100
AcDbEntity
  8
細線
 48
50.0
100
AcDbLine
 10
7899.033071134738
 20
1076.070380102412
 30
0.0
 11
8195.768291448791
 21
1372.805600416464
 31
0.0
  0
LINE
  5
24256
330
747D
100
AcDbEntity
  8
細線
 48
50.0
100
AcDbLine
 10
7925.973839497943
 20
1076.070380102412
 30
0.0
 11
8195.768291448791
 21
1345.864832053269
 31
0.0
  0
LINE
  5
24257
330
747D
100
AcDbEntity
  8
細線
 48
50.0
100
AcDbLine
 10
7872.092302771527
 20
1076.070380102412
 30
0.0
 11
8195.768291448791
 21
1399.746368779678
 31
0.0
  0
LINE
  5
24258
330
747D
100
AcDbEntity
  8
細線
 48
50.0
100
AcDbLine
 10
8087.618449677185
 20
1076.070380102412
 30
0.0
 11
8323.768291448791
 21
1312.22022187402
 31
0.0
  0
LINE
  5
24259
330
747D
100
AcDbEntity
  8
細線
 48
50.0
100
AcDbLine
 10
8114.559218040398
 20
1076.070380102412
 30
0.0
 11
8323.768291448791
 21
1285.279453510805
 31
0.0
  0
LINE
  5
2425A
330
747D
100
AcDbEntity
  8
部品1
 48
50.0
100
AcDbLine
 10
8323.768291448791
 20
1316.070380102412
 30
0.0
 11
8323.768291448791
 21
1076.070380102412
 31
0.0
  0
LINE
  5
2425B
330
747D
100
AcDbEntity
  8
細線
 48
50.0
100
AcDbLine
 10
8141.499986403601
 20
1076.070380102412
 30
0.0
 11
8323.768291448791
 21
1258.338685147608
 31
0.0
  0
LINE
  5
2425C
330
747D
100
AcDbEntity
  8
細線
 48
50.0
100
AcDbLine
 10
8016.727220839305
 20
948.0703801024102
 30
0.0
 11
8051.024717470486
 21
1076.07038010241
 31
0.0
  0
LINE
  5
2425D
330
747D
100
AcDbEntity
  8
細線
 48
50.0
100
AcDbLine
 10
7858.951130944809
 20
948.070380102412
 30
0.0
 11
7893.248627575991
 21
1076.070380102412
 31
0.0
  0
LINE
  5
2425E
330
747D
100
AcDbEntity
  8
細線
 48
50.0
100
AcDbLine
 10
7937.839175892055
 20
948.070380102412
 30
0.0
 11
7972.13667252324
 21
1076.07038010241
 31
0.0
  0
LINE
  5
2425F
330
747D
100
AcDbEntity
  8
細線
 48
50.0
100
AcDbLine
 10
8095.615265786546
 20
948.070380102412
 30
0.0
 11
8129.912762417731
 21
1076.07038010241
 31
0.0
  0
LINE
  5
24260
330
747D
100
AcDbEntity
  8
細線
 48
50.0
100
AcDbLine
 10
7944.269956510407
 20
972.070380102412
 30
0.0
 11
7950.700737128754
 21
948.070380102412
 31
0.0
  0
LINE
  5
24261
330
747D
100
AcDbEntity
  8
細線
 48
50.0
100
AcDbLine
 10
7865.381911563159
 20
972.070380102412
 30
0.0
 11
7871.812692181507
 21
948.070380102412
 31
0.0
  0
LINE
  5
24262
330
747D
100
AcDbEntity
  8
細線
 48
50.0
100
AcDbLine
 10
8102.046046404899
 20
972.070380102412
 30
0.0
 11
8108.476827023245
 21
948.070380102412
 31
0.0
  0
LINE
  5
24263
330
747D
100
AcDbEntity
  8
細線
 48
50.0
100
AcDbLine
 10
8023.158001457654
 20
972.070380102412
 30
0.0
 11
8029.588782076
 21
948.070380102412
 31
0.0
  0
LINE
  5
24264
330
747D
100
AcDbEntity
  8
細線
 48
50.0
100
AcDbLine
 10
7965.705891904896
 20
1052.070380102412
 30
0.0
 11
7959.275111286548
 21
1076.070380102412
 31
0.0
  0
LINE
  5
24265
330
747D
100
AcDbEntity
  8
細線
 48
50.0
100
AcDbLine
 10
7886.817846957649
 20
1052.070380102412
 30
0.0
 11
7880.387066339302
 21
1076.070380102412
 31
0.0
  0
LINE
  5
24266
330
747D
100
AcDbEntity
  8
細線
 48
50.0
100
AcDbLine
 10
8044.593936852143
 20
1052.070380102412
 30
0.0
 11
8038.163156233796
 21
1076.070380102412
 31
0.0
  0
LINE
  5
24267
330
747D
100
AcDbEntity
  8
細線
 48
50.0
100
AcDbLine
 10
8123.481981799388
 20
1052.070380102412
 30
0.0
 11
8117.051201181043
 21
1076.070380102412
 31
0.0
  0
LINE
  5
24268
330
747D
100
AcDbEntity
  8
部品1
 48
50.0
100
AcDbLine
 10
8403.768291448797
 20
1076.070380102412
 30
0.0
 11
8403.768291448797
 21
948.070380102412
 31
0.0
  0
LINE
  5
24269
330
747D
100
AcDbEntity
  8
細線
 48
50.0
100
AcDbLine
 10
8332.279400628287
 20
948.0703801024102
 30
0.0
 11
8366.576897259475
 21
1076.070380102409
 31
0.0
  0
LINE
  5
2426A
330
747D
100
AcDbEntity
  8
細線
 48
50.0
100
AcDbLine
 10
8174.503310733795
 20
948.0703801024102
 30
0.0
 11
8208.800807364969
 21
1076.070380102412
 31
0.0
  0
LINE
  5
2426B
330
747D
100
AcDbEntity
  8
細線
 48
50.0
100
AcDbLine
 10
8253.391355681044
 20
948.0703801024091
 30
0.0
 11
8287.688852312227
 21
1076.070380102409
 31
0.0
  0
LINE
  5
2426C
330
747D
100
AcDbEntity
  8
細線
 48
50.0
100
AcDbLine
 10
8180.934091352145
 20
972.070380102412
 30
0.0
 11
8187.364871970501
 21
948.070380102412
 31
0.0
  0
LINE
  5
2426D
330
747D
100
AcDbEntity
  8
細線
 48
50.0
100
AcDbLine
 10
8259.822136299394
 20
972.07038010241
 30
0.0
 11
8266.252916917741
 21
948.0703801024102
 31
0.0
  0
LINE
  5
2426E
330
747D
100
AcDbEntity
  8
細線
 48
50.0
100
AcDbLine
 10
8338.710181246639
 20
972.07038010241
 30
0.0
 11
8345.140961864988
 21
948.0703801024102
 31
0.0
  0
LINE
  5
2426F
330
747D
100
AcDbEntity
  8
細線
 48
50.0
100
AcDbLine
 10
8202.370026746626
 20
1052.070380102412
 30
0.0
 11
8195.939246128279
 21
1076.070380102412
 31
0.0
  0
LINE
  5
24270
330
747D
100
AcDbEntity
  8
細線
 48
50.0
100
AcDbLine
 10
8281.258071693882
 20
1052.07038010241
 30
0.0
 11
8274.827291075537
 21
1076.07038010241
 31
0.0
  0
LINE
  5
24271
330
747D
100
AcDbEntity
  8
細線
 48
50.0
100
AcDbLine
 10
8360.146116641129
 20
1052.07038010241
 30
0.0
 11
8353.715336022782
 21
1076.07038010241
 31
0.0
  0
LINE
  5
24272
330
747D
100
AcDbEntity
  8
部品1
100
AcDbLine
 10
8066.168291448795
 20
1536.07038010241
 30
0.0
 11
7940.168291448786
 21
1536.07038010241
 31
0.0
  0
LINE
  5
24273
330
747D
100
AcDbEntity
  8
部品1
100
AcDbLine
 10
8048.168291448794
 20
1617.070380102412
 30
0.0
 11
8048.168291448794
 21
1635.070380102412
 31
0.0
  0
ARC
  5
24274
330
747D
100
AcDbEntity
  8
部品1
100
AcDbCircle
 10
8012.168291448793
 20
1635.070380102412
 30
0.0
 40
18.0
100
AcDbArc
 50
180.0
 51
270.0
  0
LINE
  5
24275
330
747D
100
AcDbEntity
  8
部品1
100
AcDbLine
 10
8012.168291448793
 20
1617.070380102412
 30
0.0
 11
8048.168291448794
 21
1617.070380102412
 31
0.0
  0
LINE
  5
24276
330
747D
100
AcDbEntity
  8
部品1
100
AcDbLine
 10
8012.168291448793
 20
1635.070380102412
 30
0.0
 11
8048.168291448794
 21
1635.070380102412
 31
0.0
  0
LINE
  5
24277
330
747D
100
AcDbEntity
  8
部品1
 48
50.0
100
AcDbLine
 10
8195.768291448791
 20
1316.070380102412
 30
0.0
 11
8323.768291448791
 21
1316.070380102412
 31
0.0
  0
LINE
  5
24278
330
747D
100
AcDbEntity
  8
部品1
100
AcDbLine
 10
7801.568291448794
 20
1950.070380102412
 30
0.0
 11
7839.368291448794
 21
1950.070380102412
 31
0.0
  0
LINE
  5
24279
330
747D
100
AcDbEntity
  8
細線
 48
50.0
100
AcDbLine
 10
7781.768291448791
 20
1820.91018803911
 30
0.0
 11
7820.9284835121
 21
1860.070380102412
 31
0.0
  0
LINE
  5
2427A
330
747D
100
AcDbEntity
  8
細線
 48
50.0
100
AcDbLine
 10
7781.768291448791
 20
1793.969419675902
 30
0.0
 11
7847.869251875303
 21
1860.070380102412
 31
0.0
  0
LINE
  5
2427B
330
747D
100
AcDbEntity
  8
部品1
 48
50.0
100
AcDbLine
 10
7781.768291448791
 20
1860.070380102412
 30
0.0
 11
8195.768291448796
 21
1860.070380102412
 31
0.0
  0
LINE
  5
2427C
330
747D
100
AcDbEntity
  8
部品1
100
AcDbLine
 10
7798.868291448795
 20
1939.270380102412
 30
0.0
 11
7798.868291448795
 21
1947.370380102412
 31
0.0
  0
ARC
  5
2427D
330
747D
100
AcDbEntity
  8
部品1
100
AcDbCircle
 10
7801.568291448794
 20
1947.370380102412
 30
0.0
 40
2.7
100
AcDbArc
 50
90.0
 51
180.0
  0
ARC
  5
2427E
330
747D
100
AcDbEntity
  8
部品1
100
AcDbCircle
 10
7790.768291448792
 20
1934.46228380512
 30
0.0
 40
2.7
100
AcDbArc
 50
104.0362434679067
 51
180.0
  0
LINE
  5
2427F
330
747D
100
AcDbEntity
  8
部品1
100
AcDbLine
 10
7790.113445261195
 20
1937.081668555512
 30
0.0
 11
7798.868291448795
 21
1939.270380102412
 31
0.0
  0
ARC
  5
24280
330
747D
100
AcDbEntity
  8
部品1
100
AcDbCircle
 10
7790.768291448792
 20
1872.330380102412
 30
0.0
 40
2.7
100
AcDbArc
 50
180.0
 51
270.0
  0
LINE
  5
24281
330
747D
100
AcDbEntity
  8
細線
 48
50.0
100
AcDbLine
 10
7781.768291448791
 20
1847.850956402317
 30
0.0
 11
7793.987715148887
 21
1860.070380102412
 31
0.0
  0
LINE
  5
24282
330
747D
100
AcDbEntity
  8
部品1
100
AcDbLine
 10
7790.768291448792
 20
1869.630380102412
 30
0.0
 11
7802.468291448788
 21
1869.630380102412
 31
0.0
  0
LINE
  5
24283
330
747D
100
AcDbEntity
  8
部品1
100
AcDbLine
 10
7788.068291448793
 20
1872.330380102412
 30
0.0
 11
7788.068291448793
 21
1934.46228380512
 31
0.0
  0
LINE
  5
24284
330
747D
100
AcDbEntity
  8
部品1
100
AcDbLine
 10
7946.728291448788
 20
1869.630380102412
 30
0.0
 11
8148.068291448788
 21
1869.630380102412
 31
0.0
  0
LINE
  5
24285
330
747D
100
AcDbEntity
  8
部品1
100
AcDbLine
 10
7839.368291448794
 20
1950.070380102412
 30
0.0
 11
7839.368291448794
 21
1958.170380102412
 31
0.0
  0
LINE
  5
24286
330
747D
100
AcDbEntity
  8
部品1
100
AcDbLine
 10
7889.768291448793
 20
1968.970380102408
 30
0.0
 11
7889.768291448793
 21
1917.670380102412
 31
0.0
  0
LINE
  5
24287
330
747D
100
AcDbEntity
  8
部品1
100
AcDbLine
 10
7913.168291448794
 20
1929.630380102412
 30
0.0
 11
7941.328291448794
 21
1929.630380102412
 31
0.0
  0
ARC
  5
24288
330
747D
100
AcDbEntity
  8
部品1
100
AcDbCircle
 10
7913.168291448794
 20
1926.930380102412
 30
0.0
 40
2.7
100
AcDbArc
 50
90.0
 51
180.0
  0
ARC
  5
24289
330
747D
100
AcDbEntity
  8
部品1
100
AcDbCircle
 10
7941.328291448794
 20
1926.930380102412
 30
0.0
 40
2.7
100
AcDbArc
 50
0.0
 51
90.0
  0
LINE
  5
2428A
330
747D
100
AcDbEntity
  8
部品1
100
AcDbLine
 10
7932.068291448793
 20
1914.970380102412
 30
0.0
 11
7932.068291448793
 21
1872.330380102412
 31
0.0
  0
LINE
  5
2428B
330
747D
100
AcDbEntity
  8
部品1
100
AcDbLine
 10
7917.668291448794
 20
1869.630380102412
 30
0.0
 11
7929.368291448795
 21
1869.630380102412
 31
0.0
  0
ARC
  5
2428C
330
747D
100
AcDbEntity
  8
部品1
100
AcDbCircle
 10
7946.728291448788
 20
1872.330380102412
 30
0.0
 40
2.7
100
AcDbArc
 50
180.0
 51
270.0
  0
ARC
  5
2428D
330
747D
100
AcDbEntity
  8
部品1
100
AcDbCircle
 10
7929.368291448795
 20
1872.330380102412
 30
0.0
 40
2.7
100
AcDbArc
 50
270.0
 51
0.0
  0
LINE
  5
2428E
330
747D
100
AcDbEntity
  8
部品1
100
AcDbLine
 10
7889.768291448793
 20
1917.670380102412
 30
0.0
 11
7929.368291448795
 21
1917.670380102412
 31
0.0
  0
ARC
  5
2428F
330
747D
100
AcDbEntity
  8
部品1
100
AcDbCircle
 10
7929.368291448795
 20
1914.970380102412
 30
0.0
 40
2.7
100
AcDbArc
 50
0.0
 51
90.0
  0
LINE
  5
24290
330
747D
100
AcDbEntity
  8
部品1
100
AcDbLine
 10
7944.028291448795
 20
1926.930380102412
 30
0.0
 11
7944.028291448791
 21
1872.330380102412
 31
0.0
  0
LINE
  5
24291
330
747D
100
AcDbEntity
  8
部品1
100
AcDbLine
 10
7910.468291448793
 20
1926.930380102412
 30
0.0
 11
7910.468291448793
 21
1909.830380102412
 31
0.0
  0
LINE
  5
24292
330
747D
100
AcDbEntity
  8
細線
100
AcDbLine
 10
8008.568291448794
 20
1869.630380102412
 30
0.0
 11
8008.568291448794
 21
1912.830380102412
 31
0.0
  0
LINE
  5
24293
330
747D
100
AcDbEntity
  8
細線
100
AcDbLine
 10
7997.768291448796
 20
1869.630380102412
 30
0.0
 11
7997.768291448792
 21
1912.830380102412
 31
0.0
  0
LINE
  5
24294
330
747D
100
AcDbEntity
  8
部品1
100
AcDbLine
 10
7994.168291448794
 20
1909.230380102412
 30
0.0
 11
8012.168291448793
 21
1909.230380102412
 31
0.0
  0
LINE
  5
24295
330
747D
100
AcDbEntity
  8
部品1
100
AcDbLine
 10
7997.768291448792
 20
1912.830380102412
 30
0.0
 11
8008.568291448794
 21
1912.830380102412
 31
0.0
  0
ELLIPSE
  5
24296
330
747D
100
AcDbEntity
  8
部品1
 48
50.0
100
AcDbEllipse
 10
8003.168291448794
 20
2129.193668546685
 30
0.0
 11
40.0
 21
0.0
 31
0.0
210
0.0
220
0.0
230
1.0
 40
0.4
 41
0.0
 42
6.283185307179586
  0
ELLIPSE
  5
24297
330
747D
100
AcDbEntity
  8
部品1
 48
50.0
100
AcDbEllipse
 10
8003.168291448794
 20
2119.593668546685
 30
0.0
 11
40.0
 21
0.0
 31
0.0
210
0.0
220
0.0
230
1.0
 40
0.4
 41
3.141592653589793
 42
6.283185307179586
  0
LINE
  5
24298
330
747D
100
AcDbEntity
  8
部品1
 48
50.0
100
AcDbLine
 10
7963.168291448794
 20
2129.193668546685
 30
0.0
 11
7963.168291448794
 21
2119.593668546684
 31
0.0
  0
ARC
  5
24299
330
747D
100
AcDbEntity
  8
部品1
100
AcDbCircle
 10
7887.068291448793
 20
1968.970380102408
 30
0.0
 40
2.7
100
AcDbArc
 50
0.0
 51
90.0
  0
ARC
  5
2429A
330
747D
100
AcDbEntity
  8
部品1
100
AcDbCircle
 10
7844.768291448793
 20
1968.970380102411
 30
0.0
 40
2.7
100
AcDbArc
 50
90.0
 51
180.0
  0
LINE
  5
2429B
330
747D
100
AcDbEntity
  8
部品1
100
AcDbLine
 10
7842.068291448794
 20
1960.870380102412
 30
0.0
 11
7842.068291448794
 21
1960.870380102412
 31
0.0
  0
LINE
  5
2429C
330
747D
100
AcDbEntity
  8
部品1
100
AcDbLine
 10
7842.068291448794
 20
1960.870380102412
 30
0.0
 11
7842.068291448794
 21
1968.970380102411
 31
0.0
  0
LINE
  5
2429D
330
747D
100
AcDbEntity
  8
部品1
100
AcDbLine
 10
7844.768291448793
 20
1971.670380102412
 30
0.0
 11
7887.068291448793
 21
1971.670380102409
 31
0.0
  0
ARC
  5
2429E
330
747D
100
AcDbEntity
  8
部品1
100
AcDbCircle
 10
7842.068291448794
 20
1958.170380102412
 30
0.0
 40
2.7
100
AcDbArc
 50
90.0
 51
180.0
  0
ELLIPSE
  5
2429F
330
747D
100
AcDbEntity
  8
部品1
 48
50.0
100
AcDbEllipse
 10
8003.168291448794
 20
2129.193668546685
 30
0.0
 11
18.4
 21
0.0
 31
0.0
210
0.0
220
0.0
230
1.0
 40
0.3478260869565217
 41
0.0
 42
6.283185307179586
  0
LINE
  5
242A0
330
747D
100
AcDbEntity
  8
部品1
 48
50.0
100
AcDbLine
 10
8043.168291448793
 20
2119.593668546684
 30
0.0
 11
8043.168291448793
 21
2129.193668546685
 31
0.0
  0
LINE
  5
242A1
330
747D
100
AcDbEntity
  8
部品1
 48
50.0
100
AcDbLine
 10
7971.168291448794
 20
2250.945661211555
 30
0.0
 11
7987.168291448793
 21
2242.945661211555
 31
0.0
  0
LINE
  5
242A2
330
747D
100
AcDbEntity
  8
部品1
 48
50.0
100
AcDbLine
 10
7971.168291448794
 20
2218.945661211555
 30
0.0
 11
7987.168291448793
 21
2210.945661211555
 31
0.0
  0
LINE
  5
242A3
330
747D
100
AcDbEntity
  8
部品1
 48
50.0
100
AcDbLine
 10
7971.168291448794
 20
2250.945661211555
 30
0.0
 11
7987.168291448793
 21
2258.945661211555
 31
0.0
  0
LINE
  5
242A4
330
747D
100
AcDbEntity
  8
部品1
 48
50.0
100
AcDbLine
 10
7971.168291448794
 20
2218.945661211555
 30
0.0
 11
7971.168291448794
 21
2250.945661211555
 31
0.0
  0
LINE
  5
242A5
330
747D
100
AcDbEntity
  8
部品1
 48
50.0
100
AcDbLine
 10
7987.168291448793
 20
2258.945661211555
 30
0.0
 11
8019.168291448794
 21
2258.945661211555
 31
0.0
  0
ELLIPSE
  5
242A6
330
747D
100
AcDbEntity
  8
細線
 48
50.0
100
AcDbEllipse
 10
8003.168291448794
 20
2250.945661211555
 30
0.0
 11
14.76670786606846
 21
0.0
 31
0.0
210
0.0
220
0.0
230
1.0
 40
0.2071254069489396
 41
0.0
 42
6.283185307179586
  0
LINE
  5
242A7
330
747D
100
AcDbEntity
  8
部品1
 48
50.0
100
AcDbLine
 10
7987.168291448793
 20
2210.945661211555
 30
0.0
 11
8019.168291448794
 21
2210.945661211555
 31
0.0
  0
LINE
  5
242A8
330
747D
100
AcDbEntity
  8
部品1
 48
50.0
100
AcDbLine
 10
8019.168291448794
 20
2210.945661211555
 30
0.0
 11
8035.168291448794
 21
2218.945661211555
 31
0.0
  0
LINE
  5
242A9
330
747D
100
AcDbEntity
  8
部品1
 48
50.0
100
AcDbLine
 10
7987.168291448793
 20
2242.945661211555
 30
0.0
 11
8019.168291448794
 21
2242.945661211555
 31
0.0
  0
LINE
  5
242AA
330
747D
100
AcDbEntity
  8
部品1
 48
50.0
100
AcDbLine
 10
8019.168291448794
 20
2242.945661211555
 30
0.0
 11
8035.168291448794
 21
2250.945661211555
 31
0.0
  0
LINE
  5
242AB
330
747D
100
AcDbEntity
  8
細線
 48
50.0
100
AcDbLine
 10
8019.168291448794
 20
2210.945661211555
 30
0.0
 11
8019.168291448794
 21
2242.945661211555
 31
0.0
  0
LINE
  5
242AC
330
747D
100
AcDbEntity
  8
部品1
 48
50.0
100
AcDbLine
 10
8035.168291448794
 20
2218.945661211555
 30
0.0
 11
8035.168291448794
 21
2250.945661211555
 31
0.0
  0
LINE
  5
242AD
330
747D
100
AcDbEntity
  8
細線
 48
50.0
100
AcDbLine
 10
7987.168291448793
 20
2210.945661211555
 30
0.0
 11
7987.168291448793
 21
2242.945661211555
 31
0.0
  0
LINE
  5
242AE
330
747D
100
AcDbEntity
  8
部品1
 48
50.0
100
AcDbLine
 10
8019.168291448794
 20
2258.945661211555
 30
0.0
 11
8035.168291448794
 21
2250.945661211555
 31
0.0
  0
TEXT
  5
242AF
330
747D
100
AcDbEntity
  8
部品1
100
AcDbText
 10
7703.940540640724
 20
3079.85711535157
 30
0.0
 40
120.0
  1
基礎詳細
  7
STYLE2
100
AcDbText
  0
LINE
  5
242B0
330
747D
100
AcDbEntity
  8
部品1
100
AcDbLine
 10
11082.04572484858
 20
295.1020777183503
 30
0.0
 11
11082.04572484859
 21
3259.409047302997
 31
0.0
  0
LINE
  5
242B1
330
747D
100
AcDbEntity
  8
細線
100
AcDbLine
 10
10089.93755742833
 20
1620.070380102412
 30
0.0
 11
9895.304223751551
 21
1814.703713779195
 31
0.0
  0
LINE
  5
242B2
330
747D
100
AcDbEntity
  8
部品1
100
AcDbLine
 10
9895.304223751551
 20
1860.070380102412
 30
0.0
 11
10375.30422375155
 21
1860.070380102412
 31
0.0
  0
LINE
  5
242B3
330
747D
100
AcDbEntity
  8
細線
 48
50.0
100
AcDbLine
 10
10029.37510819481
 20
1400.371464449062
 30
0.0
 11
10063.67260482599
 21
1528.371464449061
 31
0.0
  0
LINE
  5
242B4
330
747D
100
AcDbEntity
  8
部品1
100
AcDbLine
 10
9775.304223751552
 20
1400.371464449058
 30
0.0
 11
10495.30422375155
 21
1400.371464449062
 31
0.0
  0
LINE
  5
242B5
330
747D
100
AcDbEntity
  8
部品1
100
AcDbLine
 10
9775.304223751552
 20
1528.371464449062
 30
0.0
 11
10495.30422375155
 21
1528.371464449065
 31
0.0
  0
LINE
  5
242B6
330
747D
100
AcDbEntity
  8
細線
100
AcDbLine
 10
9956.222869244793
 20
1528.371464449062
 30
0.0
 11
10047.92178489814
 21
1620.070380102412
 31
0.0
  0
LWPOLYLINE
  5
242B7
330
747D
100
AcDbEntity
  8
部品1
 48
50.0
100
AcDbPolyline
 90
        2
 70
     0
 43
12.0
 10
9510.692961651162
 20
1620.070380102412
 10
10711.78526478278
 20
1620.070380102412
  0
LINE
  5
242B8
330
747D
100
AcDbEntity
  8
細線
100
AcDbLine
 10
10039.0258691829
 20
1620.070380102412
 30
0.0
 11
9895.304223751551
 21
1763.792025533765
 31
0.0
  0
TEXT
  5
242B9
330
747D
100
AcDbEntity
  8
部品1
 48
50.0
100
AcDbText
 10
9131.186136993049
 20
1353.270639465103
 30
0.0
 40
80.0
  1
ボルトの出
 50
90.0
  7
STYLE2
100
AcDbText
  0
LINE
  5
242BA
330
747D
100
AcDbEntity
  8
部品1
100
AcDbLine
 10
9895.304223751551
 20
1620.070380102412
 30
0.0
 11
9895.304223751551
 21
1860.070380102412
 31
0.0
  0
LINE
  5
242BB
330
747D
100
AcDbEntity
  8
細線
 48
50.0
100
AcDbLine
 10
9871.59901830031
 20
1400.371464449061
 30
0.0
 11
9905.896514931495
 21
1528.371464449061
 31
0.0
  0
LINE
  5
242BC
330
747D
100
AcDbEntity
  8
細線
 48
50.0
100
AcDbLine
 10
9950.487063247562
 20
1400.371464449062
 30
0.0
 11
9984.784559878747
 21
1528.371464449062
 31
0.0
  0
LINE
  5
242BD
330
747D
100
AcDbEntity
  8
細線
 48
50.0
100
AcDbLine
 10
9792.710973353065
 20
1400.371464449062
 30
0.0
 11
9827.008469984249
 21
1528.371464449062
 31
0.0
  0
LINE
  5
242BE
330
747D
100
AcDbEntity
  8
部品1
100
AcDbLine
 10
9775.304223751552
 20
1400.371464449058
 30
0.0
 11
9775.304223751552
 21
1620.070380102412
 31
0.0
  0
LINE
  5
242BF
330
747D
100
AcDbEntity
  8
細線
 48
50.0
100
AcDbLine
 10
9878.029798918662
 20
1424.371464449062
 30
0.0
 11
9884.460579537011
 21
1400.371464449062
 31
0.0
  0
LINE
  5
242C0
330
747D
100
AcDbEntity
  8
細線
 48
50.0
100
AcDbLine
 10
9799.141753971412
 20
1424.371464449062
 30
0.0
 11
9805.57253458976
 21
1400.371464449062
 31
0.0
  0
LINE
  5
242C1
330
747D
100
AcDbEntity
  8
細線
 48
50.0
100
AcDbLine
 10
9956.917843865916
 20
1424.371464449062
 30
0.0
 11
9963.348624484261
 21
1400.371464449062
 31
0.0
  0
LINE
  5
242C2
330
747D
100
AcDbEntity
  8
細線
 48
50.0
100
AcDbLine
 10
10035.80588881316
 20
1424.371464449062
 30
0.0
 11
10042.23666943151
 21
1400.371464449062
 31
0.0
  0
LINE
  5
242C3
330
747D
100
AcDbEntity
  8
細線
 48
50.0
100
AcDbLine
 10
9820.577689365901
 20
1504.371464449062
 30
0.0
 11
9814.146908747552
 21
1528.371464449062
 31
0.0
  0
LINE
  5
242C4
330
747D
100
AcDbEntity
  8
細線
 48
50.0
100
AcDbLine
 10
9978.353779260404
 20
1504.371464449062
 30
0.0
 11
9971.922998642058
 21
1528.371464449062
 31
0.0
  0
LINE
  5
242C5
330
747D
100
AcDbEntity
  8
細線
 48
50.0
100
AcDbLine
 10
9899.465734313151
 20
1504.371464449062
 30
0.0
 11
9893.034953694806
 21
1528.371464449062
 31
0.0
  0
LINE
  5
242C6
330
747D
100
AcDbEntity
  8
細線
100
AcDbLine
 10
9888.340618250879
 20
1528.371464449062
 30
0.0
 11
9980.03953390423
 21
1620.070380102412
 31
0.0
  0
LINE
  5
242C7
330
747D
100
AcDbEntity
  8
細線
100
AcDbLine
 10
9922.281743747838
 20
1528.371464449062
 30
0.0
 11
10013.98065940118
 21
1620.070380102412
 31
0.0
  0
LINE
  5
242C8
330
747D
100
AcDbEntity
  8
細線
100
AcDbLine
 10
10310.55487315854
 20
1620.070380102412
 30
0.0
 11
10070.55487315854
 21
1860.070380102412
 31
0.0
  0
LINE
  5
242C9
330
747D
100
AcDbEntity
  8
細線
100
AcDbLine
 10
10361.46656140397
 20
1620.070380102413
 30
0.0
 11
10121.46656140397
 21
1860.070380102412
 31
0.0
  0
LINE
  5
242CA
330
747D
100
AcDbEntity
  8
部品1
100
AcDbLine
 10
10375.30422375155
 20
1860.070380102412
 30
0.0
 11
10375.30422375155
 21
1620.070380102412
 31
0.0
  0
LINE
  5
242CB
330
747D
100
AcDbEntity
  8
細線
 48
50.0
100
AcDbLine
 10
10344.9272879838
 20
1400.371464449059
 30
0.0
 11
10379.22478461498
 21
1528.371464449059
 31
0.0
  0
LINE
  5
242CC
330
747D
100
AcDbEntity
  8
細線
100
AcDbLine
 10
10316.22286924479
 20
1528.371464449064
 30
0.0
 11
10407.92178489813
 21
1620.070380102412
 31
0.0
  0
LINE
  5
242CD
330
747D
100
AcDbEntity
  8
細線
 48
50.0
100
AcDbLine
 10
10266.03924303655
 20
1400.371464449061
 30
0.0
 11
10300.33673966772
 21
1528.371464449062
 31
0.0
  0
LINE
  5
242CE
330
747D
100
AcDbEntity
  8
細線
 48
50.0
100
AcDbLine
 10
10108.26315314206
 20
1400.371464449061
 30
0.0
 11
10142.56064977324
 21
1528.371464449061
 31
0.0
  0
LINE
  5
242CF
330
747D
100
AcDbEntity
  8
細線
 48
50.0
100
AcDbLine
 10
10187.1511980893
 20
1400.371464449062
 30
0.0
 11
10221.44869472048
 21
1528.371464449061
 31
0.0
  0
LINE
  5
242D0
330
747D
100
AcDbEntity
  8
細線
 48
50.0
100
AcDbLine
 10
10193.58197870765
 20
1424.371464449062
 30
0.0
 11
10200.012759326
 21
1400.371464449062
 31
0.0
  0
LINE
  5
242D1
330
747D
100
AcDbEntity
  8
細線
 48
50.0
100
AcDbLine
 10
10114.69393376041
 20
1424.371464449062
 30
0.0
 11
10121.12471437875
 21
1400.371464449062
 31
0.0
  0
LINE
  5
242D2
330
747D
100
AcDbEntity
  8
細線
 48
50.0
100
AcDbLine
 10
10272.4700236549
 20
1424.371464449062
 30
0.0
 11
10278.90080427325
 21
1400.371464449062
 31
0.0
  0
LINE
  5
242D3
330
747D
100
AcDbEntity
  8
細線
 48
50.0
100
AcDbLine
 10
10351.35806860215
 20
1424.371464449061
 30
0.0
 11
10357.78884922049
 21
1400.371464449061
 31
0.0
  0
LINE
  5
242D4
330
747D
100
AcDbEntity
  8
細線
 48
50.0
100
AcDbLine
 10
10215.01791410214
 20
1504.371464449062
 30
0.0
 11
10208.58713348379
 21
1528.371464449062
 31
0.0
  0
LINE
  5
242D5
330
747D
100
AcDbEntity
  8
細線
 48
50.0
100
AcDbLine
 10
10136.12986915489
 20
1504.371464449062
 30
0.0
 11
10129.69908853655
 21
1528.371464449062
 31
0.0
  0
LINE
  5
242D6
330
747D
100
AcDbEntity
  8
細線
 48
50.0
100
AcDbLine
 10
10057.24182420765
 20
1504.371464449062
 30
0.0
 11
10050.8110435893
 21
1528.371464449062
 31
0.0
  0
LINE
  5
242D7
330
747D
100
AcDbEntity
  8
細線
100
AcDbLine
 10
10282.28174374784
 20
1528.371464449064
 30
0.0
 11
10373.98065940118
 21
1620.070380102412
 31
0.0
  0
LINE
  5
242D8
330
747D
100
AcDbEntity
  8
細線
 48
50.0
100
AcDbLine
 10
10293.90595904938
 20
1504.371464449062
 30
0.0
 11
10287.47517843103
 21
1528.371464449062
 31
0.0
  0
LINE
  5
242D9
330
747D
100
AcDbEntity
  8
細線
100
AcDbLine
 10
10248.34061825088
 20
1528.371464449064
 30
0.0
 11
10340.03953390423
 21
1620.070380102412
 31
0.0
  0
LINE
  5
242DA
330
747D
100
AcDbEntity
  8
細線
 48
50.0
100
AcDbLine
 10
10372.79400399664
 20
1504.371464449061
 30
0.0
 11
10366.36322337829
 21
1528.371464449061
 31
0.0
  0
LINE
  5
242DB
330
747D
100
AcDbEntity
  8
細線
 48
50.0
100
AcDbLine
 10
10423.81533293104
 20
1400.371464449061
 30
0.0
 11
10458.11282956222
 21
1528.371464449059
 31
0.0
  0
LINE
  5
242DC
330
747D
100
AcDbEntity
  8
部品1
100
AcDbLine
 10
10495.30422375155
 20
1620.070380102412
 30
0.0
 11
10495.30422375155
 21
1400.371464449062
 31
0.0
  0
LINE
  5
242DD
330
747D
100
AcDbEntity
  8
細線
 48
50.0
100
AcDbLine
 10
10430.24611354939
 20
1424.371464449061
 30
0.0
 11
10436.67689416774
 21
1400.371464449061
 31
0.0
  0
LINE
  5
242DE
330
747D
100
AcDbEntity
  8
細線
 48
50.0
100
AcDbLine
 10
10451.68204894388
 20
1504.371464449061
 30
0.0
 11
10445.25126832553
 21
1528.371464449061
 31
0.0
  0
LEADER
  5
242DF
330
747D
100
AcDbEntity
  8
寸法
 48
50.0
100
AcDbLeader
  3
INABA_S50G
 73
     0
 74
     0
 75
     1
 40
120.0
 41
185.591883092037
 76
     3
 10
10306.02863536747
 20
1860.070380102412
 30
0.0
 10
10339.16684200111
 20
2032.21670078355
 30
0.0
 10
10464.16684200111
 20
2032.21670078355
 30
0.0
340
242E0
1001
ACAD
1000
DSTYLE
1002
{
1070
    40
1040
1.0
1002
}
  0
MTEXT
  5
242E0
102
{ACAD_REACTORS
330
242DF
102
}
330
747D
100
AcDbEntity
  8
寸法
 62
     7
 48
50.0
100
AcDbMText
 10
10489.16684200112
 20
2117.21670078355
 30
0.0
 40
120.0
 41
0.8
 71
     4
 72
     1
  1
\A1;C.B
  7
STYLE1
 73
     1
 44
1.0
1001
ACAD
1000
MTEXTBEGIN
1070
    73
1070
     1
1070
    44
1040
1.0
1070
    74
1070
     0
1000
MTEXTEND
  0
LINE
  5
24363
102
{ACAD_REACTORS
330
2438B
102
}
330
747D
100
AcDbEntity
  8
部品1
 48
50.0
100
AcDbLine
 10
9748.599999999997
 20
6450.471678639175
 30
0.0
 11
9748.600000000005
 21
7350.471678639158
 31
0.0
  0
LINE
  5
24364
102
{ACAD_REACTORS
330
24378
102
}
330
747D
100
AcDbEntity
  8
部品1
 48
50.0
100
AcDbLine
 10
6698.6
 20
6450.471678639153
 30
0.0
 11
6698.6
 21
7350.471678639158
 31
0.0
  0
HATCH
  5
24378
330
747D
100
AcDbEntity
  8
細線
 48
50.0
100
AcDbHatch
 10
0.0
 20
0.0
 30
0.0
210
0.0
220
0.0
230
1.0
  2
LINE
 70
     0
 71
     1
 91
        1
 92
        7
 72
     0
 73
     1
 93
        4
 10
6698.6
 20
6985.471678639164
 10
6578.6
 20
6985.471678639164
 10
6578.6
 20
6785.471678639165
 10
6698.600000000002
 20
6785.471678639165
 97
        4
330
238BC
330
23887
330
23892
330
24364
 75
     0
 76
     1
 52
45.0
 41
10.0
 77
     0
 78
     1
 53
45.0
 43
0.0
 44
0.0
 45
-22.45064030267288
 46
22.45064030267288
 79
     0
 47
2.586863744893148
 98
        1
 10
6651.272206558075
 20
6898.831681787196
  0
HATCH
  5
2438B
330
747D
100
AcDbEntity
  8
細線
 48
50.0
100
AcDbHatch
 10
0.0
 20
0.0
 30
0.0
210
0.0
220
0.0
230
1.0
  2
LINE
 70
     0
 71
     1
 91
        1
 92
        7
 72
     0
 73
     1
 93
        4
 10
9868.6
 20
6985.471678639163
 10
9748.600000000001
 20
6985.471678639166
 10
9748.599999999999
 20
6785.471678639166
 10
9868.6
 20
6785.471678639165
 97
        4
330
23923
330
24363
330
23909
330
238E4
 75
     0
 76
     1
 52
45.0
 41
10.0
 77
     0
 78
     1
 53
45.0
 43
0.0
 44
0.0
 45
-22.45064030267288
 46
22.45064030267288
 79
     0
 47
3.243446310363873
 98
        1
 10
9799.229507807432
 20
6902.938067834573
  0
ENDSEC
  0
SECTION
  2
OBJECTS
  0
DICTIONARY
  5
7471
330
0
100
AcDbDictionary
281
     1
  3
ACAD_COLOR
350
173D2
  3
ACAD_GROUP
350
7472
  3
ACAD_LAYOUT
350
173D3
  3
ACAD_MATERIAL
350
173D1
  3
ACAD_MLINESTYLE
350
7473
  3
ACAD_PLOTSETTINGS
350
173D4
  3
ACAD_PLOTSTYLENAME
350
173CF
  3
ACDBHEADERROUNDTRIPXREC
350
243AB
  3
AcDbVariableDictionary
350
23F42
  3
CONTENTDICTIONARY
350
E71C
  3
DRAWINGVARIABLESDICT
350
F3B9
  0
DICTIONARY
  5
1758F
330
7467
100
AcDbDictionary
280
     1
281
     1
  3
ACAD_LAYERSTATES
360
17590
  0
DICTIONARY
  5
173D2
102
{ACAD_REACTORS
330
7471
102
}
330
7471
100
AcDbDictionary
281
     1
  0
DICTIONARY
  5
7472
102
{ACAD_REACTORS
330
7471
102
}
330
7471
100
AcDbDictionary
281
     1
  3
*A1
350
1D2A9
  0
DICTIONARY
  5
173D3
102
{ACAD_REACTORS
330
7471
102
}
330
7471
100
AcDbDictionary
281
     1
  3
Model
350
173D5
  3
レイアウト1
350
173D6
  0
DICTIONARY
  5
173D1
102
{ACAD_REACTORS
330
7471
102
}
330
7471
100
AcDbDictionary
281
     1
  0
DICTIONARY
  5
7473
102
{ACAD_REACTORS
330
7471
102
}
330
7471
100
AcDbDictionary
281
     1
  3
STANDARD
350
7480
  0
DICTIONARY
  5
173D4
102
{ACAD_REACTORS
330
7471
102
}
330
7471
100
AcDbDictionary
281
     1
  0
ACDBDICTIONARYWDFLT
  5
173CF
102
{ACAD_REACTORS
330
7471
102
}
330
7471
100
AcDbDictionary
281
     1
  3
Normal
350
173D0
100
AcDbDictionaryWithDefault
340
173D0
  0
DICTIONARY
  5
243AB
102
{ACAD_REACTORS
330
7471
102
}
330
7471
100
AcDbDictionary
281
     1
  3
COLORDICT
350
243AD
  3
MATERIALDICT
350
243AC
  0
DICTIONARY
  5
23F42
102
{ACAD_REACTORS
330
7471
102
}
330
7471
100
AcDbDictionary
281
     1
  3
DIMASSOC
350
23F43
  3
PROJECTNAME
350
23F44
  0
DICTIONARY
  5
E71C
102
{ACAD_REACTORS
330
7471
102
}
330
7471
100
AcDbDictionary
281
     1
  0
DICTIONARY
  5
F3B9
102
{ACAD_REACTORS
330
7471
102
}
330
7471
100
AcDbDictionary
281
     1
1001
DRAWINGVARIABLESXDATA
1000
POLARMODE
1000
1
  0
DICTIONARY
  5
17590
102
{ACAD_REACTORS
330
1758F
102
}
330
1758F
100
AcDbDictionary
281
     1
  0
GROUP
  5
1D2A9
102
{ACAD_REACTORS
330
7472
102
}
330
7472
100
AcDbGroup
300

 70
     1
 71
     1
  0
LAYOUT
  5
173D5
102
{ACAD_XDICTIONARY
360
243AE
102
}
102
{ACAD_REACTORS
330
173D3
102
}
330
173D3
100
AcDbPlotSettings
  1

  2
Microsoft Office Document Image Writer
  4

  6

 40
0.0
 41
0.0
 42
0.0
 43
0.0
 44
0.0
 45
0.0
 46
0.0
 47
0.0
 48
0.0
 49
0.0
140
0.0
141
0.0
142
1.0
143
1.0
 70
  1712
 72
     0
 73
     0
 74
     0
  7

 75
     0
147
1.0
148
0.0
149
0.0
100
AcDbLayout
  1
Model
 70
     1
 71
     0
 10
0.0
 20
0.0
 11
12.0
 21
9.0
 12
0.0
 22
0.0
 32
0.0
 14
0.0
 24
0.0
 34
0.0
 15
0.0
 25
0.0
 35
0.0
146
0.0
 13
0.0
 23
0.0
 33
0.0
 16
1.0
 26
0.0
 36
0.0
 17
0.0
 27
1.0
 37
0.0
 76
     0
330
747D
  0
LAYOUT
  5
173D6
102
{ACAD_XDICTIONARY
360
243B0
102
}
102
{ACAD_REACTORS
330
173D3
102
}
330
173D3
100
AcDbPlotSettings
  1

  2
Microsoft Office Document Image Writer
  4

  6

 40
0.0
 41
0.0
 42
0.0
 43
0.0
 44
0.0
 45
0.0
 46
0.0
 47
0.0
 48
0.0
 49
0.0
140
0.0
141
0.0
142
1.0
143
1.0
 70
   688
 72
     0
 73
     0
 74
     5
  7

 75
    16
147
1.0
148
0.0
149
0.0
100
AcDbLayout
  1
レイアウト1
 70
     0
 71
     1
 10
0.0
 20
0.0
 11
420.0
 21
297.0
 12
0.0
 22
0.0
 32
0.0
 14
1.000000000000000E+20
 24
1.000000000000000E+20
 34
1.000000000000000E+20
 15
-1.000000000000000E+20
 25
-1.000000000000000E+20
 35
-1.000000000000000E+20
146
0.0
 13
0.0
 23
0.0
 33
0.0
 16
1.0
 26
0.0
 36
0.0
 17
0.0
 27
1.0
 37
0.0
 76
     0
330
747A
  0
MLINESTYLE
  5
7480
102
{ACAD_REACTORS
330
7473
102
}
330
7473
100
AcDbMlineStyle
  2
STANDARD
 70
     0
  3

 62
     0
 51
90.0
 52
90.0
 71
     2
 49
0.5
 62
   256
  6
BYLAYER
 49
-0.5
 62
   256
  6
BYLAYER
  0
ACDBPLACEHOLDER
  5
173D0
102
{ACAD_REACTORS
330
173CF
102
}
330
173CF
  0
XRECORD
  5
243AD
102
{ACAD_REACTORS
330
243AB
102
}
330
243AB
100
AcDbXrecord
280
     1
340
173D2
  0
XRECORD
  5
243AC
102
{ACAD_REACTORS
330
243AB
102
}
330
243AB
100
AcDbXrecord
280
     1
340
173D1
  0
DICTIONARYVAR
  5
23F43
102
{ACAD_REACTORS
330
23F42
102
}
330
23F42
100
DictionaryVariables
280
     0
  1
1
  0
DICTIONARYVAR
  5
23F44
102
{ACAD_REACTORS
330
23F42
102
}
330
23F42
100
DictionaryVariables
280
     0
  1

  0
DICTIONARY
  5
243AE
330
173D5
100
AcDbDictionary
280
     1
281
     1
  3
ACAD_XREC_ROUNDTRIP
360
243AF
  0
DICTIONARY
  5
243B0
330
173D6
100
AcDbDictionary
280
     1
281
     1
  3
ACAD_XREC_ROUNDTRIP
360
243B1
  0
XRECORD
  5
243AF
102
{ACAD_REACTORS
330
243AE
102
}
330
243AE
100
AcDbXrecord
280
     1
102
SHADEPLOT
 70
     0
102
SHADEPLOTRESLEVEL
 70
     2
102
SHADEPLOTCUSTOMDPI
 70
   300
  0
XRECORD
  5
243B1
102
{ACAD_REACTORS
330
243B0
102
}
330
243B0
100
AcDbXrecord
280
     1
102
SHADEPLOT
 70
     0
102
SHADEPLOTRESLEVEL
 70
     2
102
SHADEPLOTCUSTOMDPI
 70
   300
  0
ENDSEC
  0
EOF
