  0
SECTION
  2
HEADER
  9
$ACADVER
  1
AC1015
  9
$ACADMAINTVER
 70
    20
  9
$DWGCODEPAGE
  3
ANSI_932
  9
$INSBASE
 10
0.0
 20
0.0
 30
0.0
  9
$EXTMIN
 10
139.9999999999995
 20
-0.0000000000000909
 30
0.0
  9
$EXTMAX
 10
16307.2
 20
11409.6
 30
0.0
  9
$LIMMIN
 10
0.0
 20
0.0
  9
$LIMMAX
 10
16800.0
 20
11880.0
  9
$ORTHOMODE
 70
     0
  9
$REGENMODE
 70
     1
  9
$FILLMODE
 70
     1
  9
$QTEXTMODE
 70
     0
  9
$MIRRTEXT
 70
     1
  9
$LTSCALE
 40
20.0
  9
$ATTMODE
 70
     1
  9
$TEXTSIZE
 40
4.0
  9
$TRACEWID
 40
1.0
  9
$TEXTSTYLE
  7
STYLE1
  9
$CLAYER
  8
細線
  9
$CELTYPE
  6
BYLAYER
  9
$CECOLOR
 62
   256
  9
$CELTSCALE
 40
50.0
  9
$DISPSILH
 70
     0
  9
$DIMSCALE
 40
40.0
  9
$DIMASZ
 40
2.5
  9
$DIMEXO
 40
0.5
  9
$DIMDLI
 40
7.0
  9
$DIMRND
 40
0.0
  9
$DIMDLE
 40
0.0
  9
$DIMEXE
 40
1.5
  9
$DIMTP
 40
0.0
  9
$DIMTM
 40
0.0
  9
$DIMTXT
 40
3.0
  9
$DIMCEN
 40
0.0
  9
$DIMTSZ
 40
0.0
  9
$DIMTOL
 70
     0
  9
$DIMLIM
 70
     0
  9
$DIMTIH
 70
     0
  9
$DIMTOH
 70
     0
  9
$DIMSE1
 70
     0
  9
$DIMSE2
 70
     0
  9
$DIMTAD
 70
     3
  9
$DIMZIN
 70
     8
  9
$DIMBLK
  1

  9
$DIMASO
 70
     1
  9
$DIMSHO
 70
     1
  9
$DIMPOST
  1

  9
$DIMAPOST
  1

  9
$DIMALT
 70
     0
  9
$DIMALTD
 70
     2
  9
$DIMALTF
 40
0.0394
  9
$DIMLFAC
 40
1.0
  9
$DIMTOFL
 70
     1
  9
$DIMTVP
 40
0.0
  9
$DIMTIX
 70
     1
  9
$DIMSOXD
 70
     0
  9
$DIMSAH
 70
     1
  9
$DIMBLK1
  1
DOTSMALL
  9
$DIMBLK2
  1
DOTSMALL
  9
$DIMSTYLE
  2
INABA_S40G
  9
$DIMCLRD
 70
     0
  9
$DIMCLRE
 70
     0
  9
$DIMCLRT
 70
     7
  9
$DIMTFAC
 40
1.0
  9
$DIMGAP
 40
1.0
  9
$DIMJUST
 70
     0
  9
$DIMSD1
 70
     0
  9
$DIMSD2
 70
     0
  9
$DIMTOLJ
 70
     1
  9
$DIMTZIN
 70
     0
  9
$DIMALTZ
 70
     0
  9
$DIMALTTZ
 70
     0
  9
$DIMUPT
 70
     0
  9
$DIMDEC
 70
     1
  9
$DIMTDEC
 70
     4
  9
$DIMALTU
 70
     2
  9
$DIMALTTD
 70
     2
  9
$DIMTXSTY
  7
STYLE1
  9
$DIMAUNIT
 70
     0
  9
$DIMADEC
 70
     0
  9
$DIMALTRND
 40
0.0
  9
$DIMAZIN
 70
     0
  9
$DIMDSEP
 70
    46
  9
$DIMATFIT
 70
     3
  9
$DIMFRAC
 70
     0
  9
$DIMLDRBLK
  1

  9
$DIMLUNIT
 70
     2
  9
$DIMLWD
 70
    -2
  9
$DIMLWE
 70
    -2
  9
$DIMTMOVE
 70
     0
  9
$LUNITS
 70
     2
  9
$LUPREC
 70
     1
  9
$SKETCHINC
 40
1.0
  9
$FILLETRAD
 40
3.0
  9
$AUNITS
 70
     0
  9
$AUPREC
 70
     0
  9
$MENU
  1
acad
  9
$ELEVATION
 40
0.0
  9
$PELEVATION
 40
0.0
  9
$THICKNESS
 40
0.0
  9
$LIMCHECK
 70
     0
  9
$CHAMFERA
 40
0.0
  9
$CHAMFERB
 40
0.0
  9
$CHAMFERC
 40
0.0
  9
$CHAMFERD
 40
0.0
  9
$SKPOLY
 70
     0
  9
$TDCREATE
 40
2451368.612993866
  9
$TDUCREATE
 40
2451368.237993866
  9
$TDUPDATE
 40
2455826.601890544
  9
$TDUUPDATE
 40
2455826.226890544
  9
$TDINDWG
 40
0.7654280903
  9
$TDUSRTIMER
 40
0.7654280903
  9
$USRTIMER
 70
     1
  9
$ANGBASE
 50
0.0
  9
$ANGDIR
 70
     0
  9
$PDMODE
 70
     3
  9
$PDSIZE
 40
2.0
  9
$PLINEWID
 40
0.0
  9
$SPLFRAME
 70
     0
  9
$SPLINETYPE
 70
     6
  9
$SPLINESEGS
 70
     8
  9
$HANDSEED
  5
23ADC
  9
$SURFTAB1
 70
     6
  9
$SURFTAB2
 70
     6
  9
$SURFTYPE
 70
     6
  9
$SURFU
 70
     6
  9
$SURFV
 70
     6
  9
$UCSBASE
  2

  9
$UCSNAME
  2

  9
$UCSORG
 10
0.0
 20
0.0
 30
0.0
  9
$UCSXDIR
 10
1.0
 20
0.0
 30
0.0
  9
$UCSYDIR
 10
0.0
 20
1.0
 30
0.0
  9
$UCSORTHOREF
  2

  9
$UCSORTHOVIEW
 70
     0
  9
$UCSORGTOP
 10
0.0
 20
0.0
 30
0.0
  9
$UCSORGBOTTOM
 10
0.0
 20
0.0
 30
0.0
  9
$UCSORGLEFT
 10
0.0
 20
0.0
 30
0.0
  9
$UCSORGRIGHT
 10
0.0
 20
0.0
 30
0.0
  9
$UCSORGFRONT
 10
0.0
 20
0.0
 30
0.0
  9
$UCSORGBACK
 10
0.0
 20
0.0
 30
0.0
  9
$PUCSBASE
  2

  9
$PUCSNAME
  2

  9
$PUCSORG
 10
0.0
 20
0.0
 30
0.0
  9
$PUCSXDIR
 10
1.0
 20
0.0
 30
0.0
  9
$PUCSYDIR
 10
0.0
 20
1.0
 30
0.0
  9
$PUCSORTHOREF
  2

  9
$PUCSORTHOVIEW
 70
     0
  9
$PUCSORGTOP
 10
0.0
 20
0.0
 30
0.0
  9
$PUCSORGBOTTOM
 10
0.0
 20
0.0
 30
0.0
  9
$PUCSORGLEFT
 10
0.0
 20
0.0
 30
0.0
  9
$PUCSORGRIGHT
 10
0.0
 20
0.0
 30
0.0
  9
$PUCSORGFRONT
 10
0.0
 20
0.0
 30
0.0
  9
$PUCSORGBACK
 10
0.0
 20
0.0
 30
0.0
  9
$USERI1
 70
     0
  9
$USERI2
 70
     0
  9
$USERI3
 70
     0
  9
$USERI4
 70
     0
  9
$USERI5
 70
     0
  9
$USERR1
 40
0.0
  9
$USERR2
 40
0.0
  9
$USERR3
 40
0.0
  9
$USERR4
 40
0.0
  9
$USERR5
 40
0.0
  9
$WORLDVIEW
 70
     1
  9
$SHADEDGE
 70
     3
  9
$SHADEDIF
 70
    70
  9
$TILEMODE
 70
     1
  9
$MAXACTVP
 70
    16
  9
$PINSBASE
 10
0.0
 20
0.0
 30
0.0
  9
$PLIMCHECK
 70
     0
  9
$PEXTMIN
 10
1.000000000000000E+20
 20
1.000000000000000E+20
 30
1.000000000000000E+20
  9
$PEXTMAX
 10
-1.000000000000000E+20
 20
-1.000000000000000E+20
 30
-1.000000000000000E+20
  9
$PLIMMIN
 10
0.0
 20
0.0
  9
$PLIMMAX
 10
420.0
 20
297.0
  9
$UNITMODE
 70
     0
  9
$VISRETAIN
 70
     0
  9
$PLINEGEN
 70
     0
  9
$PSLTSCALE
 70
     0
  9
$TREEDEPTH
 70
  3020
  9
$CMLSTYLE
  2
STANDARD
  9
$CMLJUST
 70
     0
  9
$CMLSCALE
 40
1.0
  9
$PROXYGRAPHICS
 70
     1
  9
$MEASUREMENT
 70
     1
  9
$CELWEIGHT
370
    -1
  9
$ENDCAPS
280
     0
  9
$JOINSTYLE
280
     0
  9
$LWDISPLAY
290
     0
  9
$INSUNITS
 70
     0
  9
$HYPERLINKBASE
  1

  9
$STYLESHEET
  1

  9
$XEDIT
290
     1
  9
$CEPSNTYPE
380
     0
  9
$PSTYLEMODE
290
     1
  9
$FINGERPRINTGUID
  2
{5EAC461A-2277-4BF8-9AB0-99C43BB394F0}
  9
$VERSIONGUID
  2
{BA6582F0-7C39-4040-BA32-3DCDB9F50E5A}
  9
$EXTNAMES
290
     1
  9
$PSVPSCALE
 40
0.0
  9
$OLESTARTUP
290
     0
  0
ENDSEC
  0
SECTION
  2
CLASSES
  0
CLASS
  1
ACDBDICTIONARYWDFLT
  2
AcDbDictionaryWithDefault
  3
ObjectDBX Classes
 90
        0
280
     0
281
     0
  0
CLASS
  1
DICTIONARYVAR
  2
AcDbDictionaryVar
  3
ObjectDBX Classes
 90
        0
280
     0
281
     0
  0
CLASS
  1
ACDBPLACEHOLDER
  2
AcDbPlaceHolder
  3
ObjectDBX Classes
 90
        0
280
     0
281
     0
  0
CLASS
  1
LAYOUT
  2
AcDbLayout
  3
ObjectDBX Classes
 90
        0
280
     0
281
     0
  0
ENDSEC
  0
SECTION
  2
TABLES
  0
TABLE
  2
VPORT
  5
746D
330
0
100
AcDbSymbolTable
 70
     2
  0
VPORT
  5
23AD4
330
746D
100
AcDbSymbolTableRecord
100
AcDbViewportTableRecord
  2
*Active
 70
     0
 10
0.0
 20
0.0
 11
1.0
 21
1.0
 12
8400.000000000002
 22
6532.467989526317
 13
0.0
 23
0.0
 14
10.0
 24
10.0
 15
10.0
 25
10.0
 16
0.0
 26
0.0
 36
1.0
 17
0.0
 27
0.0
 37
0.0
 40
13159.96111582214
 41
1.522222222222222
 42
50.0
 43
0.0
 44
0.0
 50
0.0
 51
0.0
 71
     0
 72
     0
 73
     1
 74
     0
 75
     0
 76
     0
 77
     0
 78
     0
281
     0
 65
     1
110
0.0
120
0.0
130
0.0
111
1.0
121
0.0
131
0.0
112
0.0
122
1.0
132
0.0
 79
     0
146
0.0
  0
ENDTAB
  0
TABLE
  2
LTYPE
  5
746A
330
0
100
AcDbSymbolTable
 70
     5
  0
LTYPE
  5
7477
330
746A
100
AcDbSymbolTableRecord
100
AcDbLinetypeTableRecord
  2
BYBLOCK
 70
     0
  3

 72
    65
 73
     0
 40
0.0
  0
LTYPE
  5
7478
330
746A
100
AcDbSymbolTableRecord
100
AcDbLinetypeTableRecord
  2
BYLAYER
 70
     0
  3

 72
    65
 73
     0
 40
0.0
  0
LTYPE
  5
7479
330
746A
100
AcDbSymbolTableRecord
100
AcDbLinetypeTableRecord
  2
CONTINUOUS
 70
     0
  3
Solid line
 72
    65
 73
     0
 40
0.0
  0
LTYPE
  5
7816
330
746A
100
AcDbSymbolTableRecord
100
AcDbLinetypeTableRecord
  2
CENTER
 70
     0
  3
____ _ ____ _ ____ _ ____ _ ____ _ ____ _ ____ 
 72
    65
 73
     4
 40
2.0
 49
1.25
 74
     0
 49
-0.25
 74
     0
 49
0.25
 74
     0
 49
-0.25
 74
     0
  0
LTYPE
  5
781A
330
746A
100
AcDbSymbolTableRecord
100
AcDbLinetypeTableRecord
  2
HIDDEN
 70
     0
  3
__ __ __ __ __ __ __ __ __ __ __ __ __ __ __ __
 72
    65
 73
     2
 40
0.375
 49
0.25
 74
     0
 49
-0.125
 74
     0
  0
LTYPE
  5
781B
330
746A
100
AcDbSymbolTableRecord
100
AcDbLinetypeTableRecord
  2
PHANTOM
 70
     0
  3
______  __  __  ______  __  __  ______  __  __ 
 72
    65
 73
     6
 40
2.5
 49
1.25
 74
     0
 49
-0.25
 74
     0
 49
0.25
 74
     0
 49
-0.25
 74
     0
 49
0.25
 74
     0
 49
-0.25
 74
     0
  0
LTYPE
  5
12CC3
330
746A
100
AcDbSymbolTableRecord
100
AcDbLinetypeTableRecord
  2
HIDDENX2
 70
     0
  3
Hidden (2x) ____ ____ ____ ____ ____ ____ ____
 72
    65
 73
     2
 40
19.05
 49
12.7
 74
     0
 49
-6.349999999999999
 74
     0
  0
ENDTAB
  0
TABLE
  2
LAYER
  5
7467
102
{ACAD_XDICTIONARY
360
1758F
102
}
330
0
100
AcDbSymbolTable
 70
    12
  0
LAYER
  5
7474
330
7467
100
AcDbSymbolTableRecord
100
AcDbLayerTableRecord
  2
0
 70
     0
 62
     7
  6
CONTINUOUS
370
    -3
390
173D0
  0
LAYER
  5
DEB2
330
7467
100
AcDbSymbolTableRecord
100
AcDbLayerTableRecord
  2
センター
 70
     0
 62
     3
  6
CENTER
370
    -3
390
173D0
  0
LAYER
  5
DEB3
330
7467
100
AcDbSymbolTableRecord
100
AcDbLayerTableRecord
  2
寸法
 70
     0
 62
     4
  6
CONTINUOUS
370
    -3
390
173D0
  0
LAYER
  5
DEB4
330
7467
100
AcDbSymbolTableRecord
100
AcDbLayerTableRecord
  2
部品1
 70
     0
 62
     7
  6
CONTINUOUS
370
    -3
390
173D0
  0
LAYER
  5
DEB5
330
7467
100
AcDbSymbolTableRecord
100
AcDbLayerTableRecord
  2
補助
 70
     0
 62
    -1
  6
CONTINUOUS
370
    -3
390
173D0
  0
LAYER
  5
DEB6
330
7467
100
AcDbSymbolTableRecord
100
AcDbLayerTableRecord
  2
文字
 70
     0
 62
     7
  6
CONTINUOUS
370
    -3
390
173D0
  0
LAYER
  5
F255
330
7467
100
AcDbSymbolTableRecord
100
AcDbLayerTableRecord
  2
DEFPOINTS
 70
     0
 62
     7
  6
CONTINUOUS
290
     0
370
    -3
390
173D0
  0
LAYER
  5
10B54
330
7467
100
AcDbSymbolTableRecord
100
AcDbLayerTableRecord
  2
仕様書枠
 70
     0
 62
   230
  6
CONTINUOUS
370
    -3
390
173D0
  0
LAYER
  5
11729
330
7467
100
AcDbSymbolTableRecord
100
AcDbLayerTableRecord
  2
Ｇ．Ｌ
 70
     0
 62
    30
  6
CONTINUOUS
370
    -3
390
173D0
  0
LAYER
  5
1173F
330
7467
100
AcDbSymbolTableRecord
100
AcDbLayerTableRecord
  2
細線
 70
     0
 62
     5
  6
CONTINUOUS
370
    -3
390
173D0
  0
LAYER
  5
12CC4
330
7467
100
AcDbSymbolTableRecord
100
AcDbLayerTableRecord
  2
想像線
 70
     0
 62
     6
  6
PHANTOM
370
    -3
390
173D0
  0
LAYER
  5
142E2
330
7467
100
AcDbSymbolTableRecord
100
AcDbLayerTableRecord
  2
破線
 70
     0
 62
     2
  6
HIDDEN
370
    -3
390
173D0
  0
ENDTAB
  0
TABLE
  2
STYLE
  5
7468
330
0
100
AcDbSymbolTable
 70
     7
  0
STYLE
  5
7475
330
7468
100
AcDbSymbolTableRecord
100
AcDbTextStyleTableRecord
  2
STANDARD
 70
     0
 40
0.0
 41
1.0
 50
0.0
 71
     0
 42
4.0
  3
txt
  4
C:\AutoCAD LT\bigfont.shx
  0
STYLE
  5
763C
330
7468
100
AcDbSymbolTableRecord
100
AcDbTextStyleTableRecord
  2
MSMINCHO
 70
     0
 40
0.0
 41
1.0
 50
0.0
 71
     0
 42
1.199999999999999
  3
C:\AutoCAD LT\msminch2.TTF
  4

  0
STYLE
  5
F706
330
7468
100
AcDbSymbolTableRecord
100
AcDbTextStyleTableRecord
  2
STYLE1
 70
     0
 40
0.0
 41
1.0
 50
0.0
 71
     0
 42
4.0
  3
isocp.shx
  4
bigfont.shx
  0
STYLE
  5
103BF
330
7468
100
AcDbSymbolTableRecord
100
AcDbTextStyleTableRecord
  2
STYLE2
 70
     0
 40
0.0
 41
1.0
 50
0.0
 71
     0
 42
100.0
  3
MS PGothic.ttf
  4

1001
ACAD
1000
MS PGothic
1071
    32818
  0
STYLE
  5
10BAA
330
7468
100
AcDbSymbolTableRecord
100
AcDbTextStyleTableRecord
  2
STYLE3
 70
     0
 40
0.0
 41
1.0
 50
0.0
 71
     0
 42
100.0
  3

  4

1001
ACAD
1000
DFPGothic-EB
1071
    32818
  0
STYLE
  5
11A15
330
7468
100
AcDbSymbolTableRecord
100
AcDbTextStyleTableRecord
  2
MSGOTHIC
 70
     0
 40
0.0
 41
1.0
 50
0.0
 71
     0
 42
3.5
  3
msgothi2.ttf
  4

  0
STYLE
  5
13E96
330
7468
100
AcDbSymbolTableRecord
100
AcDbTextStyleTableRecord
  2
MSPゴシック
 70
     0
 40
0.0
 41
1.0
 50
0.0
 71
     0
 42
4.0
  3
MS PGothic.ttf
  4

1001
ACAD
1000
MS PGothic
1071
    32818
  0
ENDTAB
  0
TABLE
  2
VIEW
  5
746B
330
0
100
AcDbSymbolTable
 70
     0
  0
ENDTAB
  0
TABLE
  2
UCS
  5
746C
330
0
100
AcDbSymbolTable
 70
     0
  0
ENDTAB
  0
TABLE
  2
APPID
  5
746E
330
0
100
AcDbSymbolTable
 70
     6
  0
APPID
  5
7476
330
746E
100
AcDbSymbolTableRecord
100
AcDbRegAppTableRecord
  2
ACAD
 70
     0
  0
APPID
  5
DEA9
330
746E
100
AcDbSymbolTableRecord
100
AcDbRegAppTableRecord
  2
CONTENTBLOCKICON
 70
     0
  0
APPID
  5
DEAA
330
746E
100
AcDbSymbolTableRecord
100
AcDbRegAppTableRecord
  2
CONTENTBLOCKDESCRIPTION
 70
     0
  0
APPID
  5
E71D
330
746E
100
AcDbSymbolTableRecord
100
AcDbRegAppTableRecord
  2
CONTENTTABDATA
 70
     0
  0
APPID
  5
E71E
330
746E
100
AcDbSymbolTableRecord
100
AcDbRegAppTableRecord
  2
CONTENTCURRENTTAB
 70
     0
  0
APPID
  5
F3BA
330
746E
100
AcDbSymbolTableRecord
100
AcDbRegAppTableRecord
  2
DRAWINGVARIABLESXDATA
 70
     0
  0
ENDTAB
  0
TABLE
  2
DIMSTYLE
  5
746F
330
0
100
AcDbSymbolTable
 70
     6
100
AcDbDimStyleTable
 71
     1
340
F71F
  0
DIMSTYLE
105
7484
330
746F
100
AcDbSymbolTableRecord
100
AcDbDimStyleTableRecord
  2
JIS
 70
     0
 41
2.5
 42
1.0
 43
7.0
 44
1.0
 73
     0
 74
     0
 77
     1
 78
     8
140
2.5
141
0.0
143
0.0394
147
0.0
172
     1
174
     1
175
     1
340
7475
  0
DIMSTYLE
105
F236
330
746F
100
AcDbSymbolTableRecord
100
AcDbDimStyleTableRecord
  2
INABA_S40
 70
     0
 40
40.0
 41
2.5
 42
0.5
 43
7.0
 44
1.5
 73
     0
 74
     0
 77
     3
 78
     8
140
3.0
141
0.0
143
0.0394
147
1.0
172
     1
173
     1
174
     1
175
     1
178
     7
289
     0
340
7475
341
DEAC
343
DEAC
344
DEAC
  0
DIMSTYLE
105
F71F
102
{ACAD_REACTORS
330
20DE1
330
20DFB
330
22741
330
2275B
330
229ED
330
229EC
330
22A4B
330
230CB
330
230AF
330
2308C
330
2308A
330
23061
330
23059
330
23058
330
23057
330
23064
330
23063
330
23062
330
23066
330
23069
330
2305D
330
238D2
330
238D3
330
238DB
330
238E2
330
238E5
330
23945
102
}
330
746F
100
AcDbSymbolTableRecord
100
AcDbDimStyleTableRecord
  2
INABA_S40G
 70
     0
 40
40.0
 41
2.5
 42
0.5
 43
7.0
 44
1.5
 73
     0
 74
     0
 77
     3
 78
     8
140
3.0
141
0.0
143
0.0394
147
1.0
172
     1
173
     1
174
     1
178
     7
271
     1
340
F706
341
F770
343
F770
344
F770
  0
DIMSTYLE
105
142E3
330
746F
100
AcDbSymbolTableRecord
100
AcDbDimStyleTableRecord
  2
INABA_S1
 70
     0
 40
0.0
 41
2.5
 42
0.5
 43
7.0
 44
1.5
 73
     0
 74
     0
 77
     3
 78
     8
140
3.0
141
0.0
143
0.0394
146
0.5
147
0.5
172
     1
173
     1
176
   256
177
   256
178
     7
271
     2
272
     2
284
     8
288
     1
340
7475
341
DEAC
343
DEAC
344
DEAC
  0
DIMSTYLE
105
14463
330
746F
100
AcDbSymbolTableRecord
100
AcDbDimStyleTableRecord
  2
INABA_S30G
 70
     0
 40
30.0
 41
2.5
 42
0.5
 43
7.0
 44
1.5
 73
     0
 74
     0
 77
     3
 78
     8
140
3.0
141
0.0
143
0.0394
147
1.0
172
     1
173
     1
174
     1
175
     1
178
     7
271
     1
340
F706
341
F770
343
F770
344
F770
  0
DIMSTYLE
105
1758E
330
746F
100
AcDbSymbolTableRecord
100
AcDbDimStyleTableRecord
  2
INABA_S50G
 70
     0
 41
125.0
 42
25.0
 43
7.0
 44
75.0
 73
     0
 74
     0
 77
     3
 78
     8
140
150.0
141
0.0
143
0.0394
147
25.0
172
     1
173
     1
174
     1
175
     1
178
     7
271
     1
340
F706
341
F770
343
F770
344
F770
  0
ENDTAB
  0
TABLE
  2
BLOCK_RECORD
  5
7466
330
0
100
AcDbSymbolTable
 70
    56
  0
BLOCK_RECORD
  5
747D
330
7466
100
AcDbSymbolTableRecord
100
AcDbBlockTableRecord
  2
*MODEL_SPACE
340
173D5
  0
BLOCK_RECORD
  5
747A
330
7466
100
AcDbSymbolTableRecord
100
AcDbBlockTableRecord
  2
*PAPER_SPACE
340
173D6
  0
BLOCK_RECORD
  5
DEAC
330
7466
100
AcDbSymbolTableRecord
100
AcDbBlockTableRecord
  2
_OPEN
340
0
  0
BLOCK_RECORD
  5
F770
330
7466
100
AcDbSymbolTableRecord
100
AcDbBlockTableRecord
  2
_DOTSMALL
340
0
102
{BLKREFS
331
18C65
331
18C66
331
18C59
331
18C5A
331
18C4D
331
18C4E
331
18C41
331
18C42
331
18C35
331
18C36
331
18C29
331
18C2A
331
18C1D
331
18C1E
331
18C0F
331
18C10
331
18C03
331
18C04
331
18BF5
331
18BF6
331
18BE7
331
18BE8
331
18BD9
331
18BDA
331
18BCD
331
18BCE
331
21316
331
21317
331
21321
331
21322
331
2132A
331
2132B
331
235B6
331
235B7
331
235C9
331
235CA
331
235D3
331
235D4
331
235E5
331
235E6
331
235EE
331
235EF
331
23613
331
23614
331
2361C
331
2361D
331
23643
331
23644
331
2364D
331
2364E
331
23678
331
23679
331
23683
331
23684
331
2368E
331
2368F
331
236B2
331
236B3
331
236BB
331
236BC
331
236F6
331
236F7
331
23700
331
23701
331
23712
331
23713
331
2371B
331
2371C
331
23724
331
23725
331
2372D
331
2372E
331
23736
331
23737
331
23763
331
23764
331
23757
331
23758
331
2374B
331
2374C
331
23789
331
2378A
331
2377D
331
2377E
331
2376F
331
23770
331
23A4B
331
23A4C
331
23A56
331
23A57
331
23A5F
331
23A60
331
23A68
331
23A69
331
23A71
331
23A72
331
23A7A
331
23A7B
331
23AC4
331
23AC5
102
}
  0
BLOCK_RECORD
  5
164B4
330
7466
100
AcDbSymbolTableRecord
100
AcDbBlockTableRecord
  2
_DOT
340
0
102
{BLKREFS
331
18C73
331
18C74
102
}
  0
BLOCK_RECORD
  5
18BC8
330
7466
100
AcDbSymbolTableRecord
100
AcDbBlockTableRecord
  2
*D3
340
0
  0
BLOCK_RECORD
  5
18BD4
330
7466
100
AcDbSymbolTableRecord
100
AcDbBlockTableRecord
  2
*D4
340
0
  0
BLOCK_RECORD
  5
18BE0
330
7466
100
AcDbSymbolTableRecord
100
AcDbBlockTableRecord
  2
*D5
340
0
  0
BLOCK_RECORD
  5
18BEE
330
7466
100
AcDbSymbolTableRecord
100
AcDbBlockTableRecord
  2
*D6
340
0
  0
BLOCK_RECORD
  5
18BFC
330
7466
100
AcDbSymbolTableRecord
100
AcDbBlockTableRecord
  2
*D7
340
0
  0
BLOCK_RECORD
  5
18C0A
330
7466
100
AcDbSymbolTableRecord
100
AcDbBlockTableRecord
  2
*D8
340
0
  0
BLOCK_RECORD
  5
18C16
330
7466
100
AcDbSymbolTableRecord
100
AcDbBlockTableRecord
  2
*D9
340
0
  0
BLOCK_RECORD
  5
18C24
330
7466
100
AcDbSymbolTableRecord
100
AcDbBlockTableRecord
  2
*D10
340
0
  0
BLOCK_RECORD
  5
18C30
330
7466
100
AcDbSymbolTableRecord
100
AcDbBlockTableRecord
  2
*D11
340
0
  0
BLOCK_RECORD
  5
18C3C
330
7466
100
AcDbSymbolTableRecord
100
AcDbBlockTableRecord
  2
*D12
340
0
  0
BLOCK_RECORD
  5
18C48
330
7466
100
AcDbSymbolTableRecord
100
AcDbBlockTableRecord
  2
*D13
340
0
  0
BLOCK_RECORD
  5
18C54
330
7466
100
AcDbSymbolTableRecord
100
AcDbBlockTableRecord
  2
*D14
340
0
  0
BLOCK_RECORD
  5
18C60
330
7466
100
AcDbSymbolTableRecord
100
AcDbBlockTableRecord
  2
*D15
340
0
  0
BLOCK_RECORD
  5
18C6C
330
7466
100
AcDbSymbolTableRecord
100
AcDbBlockTableRecord
  2
*D16
340
0
  0
BLOCK_RECORD
  5
18C7A
330
7466
100
AcDbSymbolTableRecord
100
AcDbBlockTableRecord
  2
A$C3B1A506B
340
0
  0
BLOCK_RECORD
  5
1C4CA
330
7466
100
AcDbSymbolTableRecord
100
AcDbBlockTableRecord
  2
_NONE
340
0
  0
BLOCK_RECORD
  5
20DE2
330
7466
100
AcDbSymbolTableRecord
100
AcDbBlockTableRecord
  2
*D19
340
0
  0
BLOCK_RECORD
  5
20DFC
330
7466
100
AcDbSymbolTableRecord
100
AcDbBlockTableRecord
  2
*D20
340
0
  0
BLOCK_RECORD
  5
22742
330
7466
100
AcDbSymbolTableRecord
100
AcDbBlockTableRecord
  2
*D25
340
0
  0
BLOCK_RECORD
  5
2275C
330
7466
100
AcDbSymbolTableRecord
100
AcDbBlockTableRecord
  2
*D26
340
0
  0
BLOCK_RECORD
  5
22AFD
330
7466
100
AcDbSymbolTableRecord
100
AcDbBlockTableRecord
  2
*D27
340
0
  0
BLOCK_RECORD
  5
22B0A
330
7466
100
AcDbSymbolTableRecord
100
AcDbBlockTableRecord
  2
*D28
340
0
  0
BLOCK_RECORD
  5
22B17
330
7466
100
AcDbSymbolTableRecord
100
AcDbBlockTableRecord
  2
*D29
340
0
  0
BLOCK_RECORD
  5
230DE
330
7466
100
AcDbSymbolTableRecord
100
AcDbBlockTableRecord
  2
*D30
340
0
  0
BLOCK_RECORD
  5
230F8
330
7466
100
AcDbSymbolTableRecord
100
AcDbBlockTableRecord
  2
*D31
340
0
  0
BLOCK_RECORD
  5
2310F
330
7466
100
AcDbSymbolTableRecord
100
AcDbBlockTableRecord
  2
*D32
340
0
  0
BLOCK_RECORD
  5
23135
330
7466
100
AcDbSymbolTableRecord
100
AcDbBlockTableRecord
  2
*D33
340
0
  0
BLOCK_RECORD
  5
2315C
330
7466
100
AcDbSymbolTableRecord
100
AcDbBlockTableRecord
  2
*D34
340
0
  0
BLOCK_RECORD
  5
23168
330
7466
100
AcDbSymbolTableRecord
100
AcDbBlockTableRecord
  2
*D35
340
0
  0
BLOCK_RECORD
  5
23173
330
7466
100
AcDbSymbolTableRecord
100
AcDbBlockTableRecord
  2
*D36
340
0
  0
BLOCK_RECORD
  5
2317F
330
7466
100
AcDbSymbolTableRecord
100
AcDbBlockTableRecord
  2
*D37
340
0
  0
BLOCK_RECORD
  5
2318B
330
7466
100
AcDbSymbolTableRecord
100
AcDbBlockTableRecord
  2
*D38
340
0
  0
BLOCK_RECORD
  5
23197
330
7466
100
AcDbSymbolTableRecord
100
AcDbBlockTableRecord
  2
*D39
340
0
  0
BLOCK_RECORD
  5
231A3
330
7466
100
AcDbSymbolTableRecord
100
AcDbBlockTableRecord
  2
*D40
340
0
  0
BLOCK_RECORD
  5
231AF
330
7466
100
AcDbSymbolTableRecord
100
AcDbBlockTableRecord
  2
*D41
340
0
  0
BLOCK_RECORD
  5
231C8
330
7466
100
AcDbSymbolTableRecord
100
AcDbBlockTableRecord
  2
*D42
340
0
  0
BLOCK_RECORD
  5
231D4
330
7466
100
AcDbSymbolTableRecord
100
AcDbBlockTableRecord
  2
*D43
340
0
  0
BLOCK_RECORD
  5
239FE
330
7466
100
AcDbSymbolTableRecord
100
AcDbBlockTableRecord
  2
*D50
340
0
  0
BLOCK_RECORD
  5
23A0A
330
7466
100
AcDbSymbolTableRecord
100
AcDbBlockTableRecord
  2
*D51
340
0
  0
BLOCK_RECORD
  5
23A18
330
7466
100
AcDbSymbolTableRecord
100
AcDbBlockTableRecord
  2
*D52
340
0
  0
BLOCK_RECORD
  5
23A24
330
7466
100
AcDbSymbolTableRecord
100
AcDbBlockTableRecord
  2
*D53
340
0
  0
BLOCK_RECORD
  5
23A30
330
7466
100
AcDbSymbolTableRecord
100
AcDbBlockTableRecord
  2
*D54
340
0
  0
BLOCK_RECORD
  5
23A3C
330
7466
100
AcDbSymbolTableRecord
100
AcDbBlockTableRecord
  2
*D55
340
0
  0
ENDTAB
  0
ENDSEC
  0
SECTION
  2
BLOCKS
  0
BLOCK
  5
7489
330
747D
100
AcDbEntity
  8
0
100
AcDbBlockBegin
  2
*MODEL_SPACE
 70
     0
 10
0.0
 20
0.0
 30
0.0
  3
*MODEL_SPACE
  1

  0
ENDBLK
  5
748A
330
747D
100
AcDbEntity
  8
0
100
AcDbBlockEnd
  0
BLOCK
  5
7487
330
747A
100
AcDbEntity
 67
     1
  8
0
100
AcDbBlockBegin
  2
*PAPER_SPACE
 70
     0
 10
0.0
 20
0.0
 30
0.0
  3
*PAPER_SPACE
  1

  0
ENDBLK
  5
7488
330
747A
100
AcDbEntity
 67
     1
  8
0
100
AcDbBlockEnd
  0
BLOCK
  5
DEAD
330
DEAC
100
AcDbEntity
  8
0
100
AcDbBlockBegin
  2
_OPEN
 70
     0
 10
0.0
 20
0.0
 30
0.0
  3
_OPEN
  1

  0
LINE
  5
DEAE
330
DEAC
100
AcDbEntity
  8
0
  6
ByBlock
 62
     0
100
AcDbLine
 10
-1.0
 20
0.1666666666666666
 30
0.0
 11
0.0
 21
0.0
 31
0.0
  0
LINE
  5
DEAF
330
DEAC
100
AcDbEntity
  8
0
  6
ByBlock
 62
     0
100
AcDbLine
 10
0.0
 20
0.0
 30
0.0
 11
-1.0
 21
-0.1666666666666666
 31
0.0
  0
LINE
  5
DEB0
330
DEAC
100
AcDbEntity
  8
0
  6
ByBlock
 62
     0
100
AcDbLine
 10
0.0
 20
0.0
 30
0.0
 11
-1.0
 21
0.0
 31
0.0
  0
ENDBLK
  5
DEB1
330
DEAC
100
AcDbEntity
  8
0
100
AcDbBlockEnd
  0
BLOCK
  5
F771
330
F770
100
AcDbEntity
  8
0
 48
50.0
100
AcDbBlockBegin
  2
_DOTSMALL
 70
     0
 10
0.0
 20
0.0
 30
0.0
  3
_DOTSMALL
  1

  0
LWPOLYLINE
  5
F772
330
F770
100
AcDbEntity
  8
0
  6
ByBlock
 62
     0
 48
50.0
100
AcDbPolyline
 90
        2
 70
     1
 43
0.5
 10
-0.0625
 20
0.0
 42
1.0
 10
0.0625
 20
0.0
 42
1.0
  0
ENDBLK
  5
F776
330
F770
100
AcDbEntity
  8
0
 48
50.0
100
AcDbBlockEnd
  0
BLOCK
  5
164BA
330
164B4
100
AcDbEntity
  8
0
 48
50.0
100
AcDbBlockBegin
  2
_DOT
 70
     0
 10
0.0
 20
0.0
 30
0.0
  3
_DOT
  1

  0
LWPOLYLINE
  5
164B5
330
164B4
100
AcDbEntity
  8
0
  6
ByBlock
 62
     0
 48
50.0
100
AcDbPolyline
 90
        2
 70
     1
 43
0.5
 10
-0.25
 20
0.0
 42
1.0
 10
0.25
 20
0.0
 42
1.0
  0
LINE
  5
164B9
330
164B4
100
AcDbEntity
  8
0
  6
ByBlock
 62
     0
 48
50.0
100
AcDbLine
 10
-0.5
 20
0.0
 30
0.0
 11
-1.0
 21
0.0
 31
0.0
  0
ENDBLK
  5
164BB
330
164B4
100
AcDbEntity
  8
0
 48
50.0
100
AcDbBlockEnd
  0
BLOCK
  5
18BC9
330
18BC8
100
AcDbEntity
  8
0
 48
50.0
100
AcDbBlockBegin
  2
*D3
 70
     1
 10
0.0
 20
0.0
 30
0.0
  3
*D3
  1

  0
LINE
  5
18BCA
330
18BC8
100
AcDbEntity
  8
寸法
 62
     0
 48
50.0
370
    -2
100
AcDbLine
 10
7649.896575106999
 20
9636.123139034717
 30
0.0
 11
8702.429862581047
 21
9636.123139034717
 31
0.0
  0
LINE
  5
18BCB
330
18BC8
100
AcDbEntity
  8
寸法
 62
     0
 48
50.0
370
    -2
100
AcDbLine
 10
7649.896575106973
 20
7846.123139034709
 30
0.0
 11
8702.429862581047
 21
7846.123139034709
 31
0.0
  0
LINE
  5
18BCC
330
18BC8
100
AcDbEntity
  8
寸法
 62
     0
 48
50.0
370
    -2
100
AcDbLine
 10
8642.429862581046
 20
9636.123139034717
 30
0.0
 11
8642.429862581046
 21
7846.123139034709
 31
0.0
  0
INSERT
  5
18BCD
330
18BC8
100
AcDbEntity
  8
寸法
 62
     0
 48
50.0
370
    -2
100
AcDbBlockReference
  2
_DOTSMALL
 10
8642.429862581046
 20
9636.123139034717
 30
0.0
 41
100.0
 42
100.0
 43
100.0
 50
90.0
  0
INSERT
  5
18BCE
330
18BC8
100
AcDbEntity
  8
寸法
 62
     0
 48
50.0
370
    -2
100
AcDbBlockReference
  2
_DOTSMALL
 10
8642.429862581046
 20
7846.123139034709
 30
0.0
 41
100.0
 42
100.0
 43
100.0
 50
270.0
  0
MTEXT
  5
18BCF
330
18BC8
100
AcDbEntity
  8
寸法
 62
     7
 48
50.0
100
AcDbMText
 10
8542.429862581045
 20
8741.123139034712
 30
0.0
 40
120.0
 41
0.0
 71
     5
 72
     1
  1
\A1;1790
  7
STYLE1
 11
0.0000000000000001
 21
1.0
 31
0.0
 73
     1
 44
1.0
1001
ACAD
1000
MTEXTBEGIN
1070
    73
1070
     1
1070
    44
1040
1.0
1070
    74
1070
     0
1000
MTEXTEND
  0
POINT
  5
18BD0
330
18BC8
100
AcDbEntity
  8
DEFPOINTS
 62
     0
 48
50.0
100
AcDbPoint
 10
7629.896575106998
 20
9636.123139034717
 30
0.0
  0
POINT
  5
18BD1
330
18BC8
100
AcDbEntity
  8
DEFPOINTS
 62
     0
 48
50.0
100
AcDbPoint
 10
7629.896575106974
 20
7846.123139034709
 30
0.0
  0
POINT
  5
18BD2
330
18BC8
100
AcDbEntity
  8
DEFPOINTS
 62
     0
 48
50.0
100
AcDbPoint
 10
8642.429862581046
 20
7846.123139034709
 30
0.0
  0
ENDBLK
  5
18BD3
330
18BC8
100
AcDbEntity
  8
0
 48
50.0
100
AcDbBlockEnd
  0
BLOCK
  5
18BD5
330
18BD4
100
AcDbEntity
  8
0
 48
50.0
100
AcDbBlockBegin
  2
*D4
 70
     1
 10
0.0
 20
0.0
 30
0.0
  3
*D4
  1

  0
LINE
  5
18BD6
330
18BD4
100
AcDbEntity
  8
寸法
 62
     0
 48
50.0
370
    -2
100
AcDbLine
 10
4214.896575106998
 20
9656.123139034622
 30
0.0
 11
4214.896575106998
 21
10211.93135865972
 31
0.0
  0
LINE
  5
18BD7
330
18BD4
100
AcDbEntity
  8
寸法
 62
     0
 48
50.0
370
    -2
100
AcDbLine
 10
7574.896575106999
 20
9656.123139034718
 30
0.0
 11
7574.896575106999
 21
10211.93135865972
 31
0.0
  0
LINE
  5
18BD8
330
18BD4
100
AcDbEntity
  8
寸法
 62
     0
 48
50.0
370
    -2
100
AcDbLine
 10
4214.896575106998
 20
10151.93135865972
 30
0.0
 11
7574.896575106999
 21
10151.93135865972
 31
0.0
  0
INSERT
  5
18BD9
330
18BD4
100
AcDbEntity
  8
寸法
 62
     0
 48
50.0
370
    -2
100
AcDbBlockReference
  2
_DOTSMALL
 10
4214.896575106998
 20
10151.93135865972
 30
0.0
 41
100.0
 42
100.0
 43
100.0
 50
180.0
  0
INSERT
  5
18BDA
330
18BD4
100
AcDbEntity
  8
寸法
 62
     0
 48
50.0
370
    -2
100
AcDbBlockReference
  2
_DOTSMALL
 10
7574.896575106999
 20
10151.93135865972
 30
0.0
 41
100.0
 42
100.0
 43
100.0
  0
MTEXT
  5
18BDB
330
18BD4
100
AcDbEntity
  8
寸法
 62
     7
 48
50.0
100
AcDbMText
 10
5894.896575106997
 20
10251.94316968334
 30
0.0
 40
120.0
 41
0.0
 71
     5
 72
     1
  1
\A1;8X420=3360
  7
STYLE1
 73
     1
 44
1.0
1001
ACAD
1000
MTEXTBEGIN
1070
    73
1070
     1
1070
    44
1040
1.0
1070
    74
1070
     0
1000
MTEXTEND
  0
POINT
  5
18BDC
330
18BD4
100
AcDbEntity
  8
DEFPOINTS
 62
     0
 48
50.0
100
AcDbPoint
 10
4214.896575106998
 20
9636.123139034623
 30
0.0
  0
POINT
  5
18BDD
330
18BD4
100
AcDbEntity
  8
DEFPOINTS
 62
     0
 48
50.0
100
AcDbPoint
 10
7574.896575106999
 20
9636.123139034717
 30
0.0
  0
POINT
  5
18BDE
330
18BD4
100
AcDbEntity
  8
DEFPOINTS
 62
     0
 48
50.0
100
AcDbPoint
 10
7574.896575106999
 20
10151.93135865972
 30
0.0
  0
ENDBLK
  5
18BDF
330
18BD4
100
AcDbEntity
  8
0
 48
50.0
100
AcDbBlockEnd
  0
BLOCK
  5
18BE1
330
18BE0
100
AcDbEntity
  8
0
 48
50.0
100
AcDbBlockBegin
  2
*D5
 70
     1
 10
0.0
 20
0.0
 30
0.0
  3
*D5
  1

  0
LINE
  5
18BE2
330
18BE0
100
AcDbEntity
  8
寸法
 62
     0
 48
50.0
370
    -2
100
AcDbLine
 10
7574.896575106999
 20
9656.123139034718
 30
0.0
 11
7574.896575106999
 21
10211.9313586597
 31
0.0
  0
LINE
  5
18BE3
330
18BE0
100
AcDbEntity
  8
寸法
 62
     0
 48
50.0
370
    -2
100
AcDbLine
 10
7629.896575106998
 20
9656.123139034718
 30
0.0
 11
7629.896575106998
 21
10211.9313586597
 31
0.0
  0
LINE
  5
18BE4
330
18BE0
100
AcDbEntity
  8
寸法
 62
     0
 48
50.0
370
    -2
100
AcDbLine
 10
7574.896575106999
 20
10151.9313586597
 30
0.0
 11
7474.896575106999
 21
10151.9313586597
 31
0.0
  0
LINE
  5
18BE5
330
18BE0
100
AcDbEntity
  8
寸法
 62
     0
 48
50.0
370
    -2
100
AcDbLine
 10
7629.896575106998
 20
10151.9313586597
 30
0.0
 11
8046.867137855477
 21
10151.9313586597
 31
0.0
  0
LINE
  5
18BE6
330
18BE0
100
AcDbEntity
  8
寸法
 62
     0
 48
50.0
370
    -2
100
AcDbLine
 10
7574.896575106999
 20
10151.9313586597
 30
0.0
 11
7629.896575106998
 21
10151.9313586597
 31
0.0
  0
INSERT
  5
18BE7
330
18BE0
100
AcDbEntity
  8
寸法
 62
     0
 48
50.0
370
    -2
100
AcDbBlockReference
  2
_DOTSMALL
 10
7574.896575106999
 20
10151.9313586597
 30
0.0
 41
100.0
 42
100.0
 43
100.0
  0
INSERT
  5
18BE8
330
18BE0
100
AcDbEntity
  8
寸法
 62
     0
 48
50.0
370
    -2
100
AcDbBlockReference
  2
_DOTSMALL
 10
7629.896575106998
 20
10151.9313586597
 30
0.0
 41
100.0
 42
100.0
 43
100.0
 50
180.0
  0
MTEXT
  5
18BE9
330
18BE0
100
AcDbEntity
  8
寸法
 62
     7
 48
50.0
100
AcDbMText
 10
7938.381856481237
 20
10251.9313586597
 30
0.0
 40
120.0
 41
0.0
 71
     5
 72
     1
  1
\A1;55
  7
STYLE1
 73
     1
 44
1.0
1001
ACAD
1000
MTEXTBEGIN
1070
    73
1070
     1
1070
    44
1040
1.0
1070
    74
1070
     0
1000
MTEXTEND
  0
POINT
  5
18BEA
330
18BE0
100
AcDbEntity
  8
DEFPOINTS
 62
     0
 48
50.0
100
AcDbPoint
 10
7574.896575106999
 20
9636.123139034717
 30
0.0
  0
POINT
  5
18BEB
330
18BE0
100
AcDbEntity
  8
DEFPOINTS
 62
     0
 48
50.0
100
AcDbPoint
 10
7629.896575106998
 20
9636.123139034717
 30
0.0
  0
POINT
  5
18BEC
330
18BE0
100
AcDbEntity
  8
DEFPOINTS
 62
     0
 48
50.0
100
AcDbPoint
 10
7629.896575106998
 20
10151.9313586597
 30
0.0
  0
ENDBLK
  5
18BED
330
18BE0
100
AcDbEntity
  8
0
 48
50.0
100
AcDbBlockEnd
  0
BLOCK
  5
18BEF
330
18BEE
100
AcDbEntity
  8
0
 48
50.0
100
AcDbBlockBegin
  2
*D6
 70
     1
 10
0.0
 20
0.0
 30
0.0
  3
*D6
  1

  0
LINE
  5
18BF0
330
18BEE
100
AcDbEntity
  8
寸法
 62
     0
 48
50.0
370
    -2
100
AcDbLine
 10
7649.896575106999
 20
9636.123139034717
 30
0.0
 11
8337.32292084141
 21
9636.123139034717
 31
0.0
  0
LINE
  5
18BF1
330
18BEE
100
AcDbEntity
  8
寸法
 62
     0
 48
50.0
370
    -2
100
AcDbLine
 10
7649.896575106999
 20
9581.123139034721
 30
0.0
 11
8337.32292084141
 21
9581.123139034721
 31
0.0
  0
LINE
  5
18BF2
330
18BEE
100
AcDbEntity
  8
寸法
 62
     0
 48
50.0
370
    -2
100
AcDbLine
 10
8277.322920841411
 20
9581.123139034721
 30
0.0
 11
8277.322920841411
 21
9481.123139034719
 31
0.0
  0
LINE
  5
18BF3
330
18BEE
100
AcDbEntity
  8
寸法
 62
     0
 48
50.0
370
    -2
100
AcDbLine
 10
8277.322920841411
 20
9636.123139034717
 30
0.0
 11
8277.322920841411
 21
10053.09370178319
 31
0.0
  0
LINE
  5
18BF4
330
18BEE
100
AcDbEntity
  8
寸法
 62
     0
 48
50.0
370
    -2
100
AcDbLine
 10
8277.322920841411
 20
9581.123139034721
 30
0.0
 11
8277.322920841411
 21
9636.123139034717
 31
0.0
  0
INSERT
  5
18BF5
330
18BEE
100
AcDbEntity
  8
寸法
 62
     0
 48
50.0
370
    -2
100
AcDbBlockReference
  2
_DOTSMALL
 10
8277.322920841411
 20
9581.123139034721
 30
0.0
 41
100.0
 42
100.0
 43
100.0
 50
90.0
  0
INSERT
  5
18BF6
330
18BEE
100
AcDbEntity
  8
寸法
 62
     0
 48
50.0
370
    -2
100
AcDbBlockReference
  2
_DOTSMALL
 10
8277.322920841411
 20
9636.123139034717
 30
0.0
 41
100.0
 42
100.0
 43
100.0
 50
270.0
  0
MTEXT
  5
18BF7
330
18BEE
100
AcDbEntity
  8
寸法
 62
     7
 48
50.0
100
AcDbMText
 10
8177.32292084141
 20
9944.608420408957
 30
0.0
 40
120.0
 41
0.0
 71
     5
 72
     1
  1
\A1;55
  7
STYLE1
 11
0.0000000000000001
 21
1.0
 31
0.0
 73
     1
 44
1.0
1001
ACAD
1000
MTEXTBEGIN
1070
    73
1070
     1
1070
    44
1040
1.0
1070
    74
1070
     0
1000
MTEXTEND
  0
POINT
  5
18BF8
330
18BEE
100
AcDbEntity
  8
DEFPOINTS
 62
     0
 48
50.0
100
AcDbPoint
 10
7629.896575106998
 20
9636.123139034717
 30
0.0
  0
POINT
  5
18BF9
330
18BEE
100
AcDbEntity
  8
DEFPOINTS
 62
     0
 48
50.0
100
AcDbPoint
 10
7629.896575106998
 20
9581.123139034721
 30
0.0
  0
POINT
  5
18BFA
330
18BEE
100
AcDbEntity
  8
DEFPOINTS
 62
     0
 48
50.0
100
AcDbPoint
 10
8277.322920841411
 20
9581.123139034721
 30
0.0
  0
ENDBLK
  5
18BFB
330
18BEE
100
AcDbEntity
  8
0
 48
50.0
100
AcDbBlockEnd
  0
BLOCK
  5
18BFD
330
18BFC
100
AcDbEntity
  8
0
 48
50.0
100
AcDbBlockBegin
  2
*D7
 70
     1
 10
0.0
 20
0.0
 30
0.0
  3
*D7
  1

  0
LINE
  5
18BFE
330
18BFC
100
AcDbEntity
  8
寸法
 62
     0
 48
50.0
370
    -2
100
AcDbLine
 10
4159.896575106963
 20
9656.123139034622
 30
0.0
 11
4159.896575106963
 21
10211.9313586596
 31
0.0
  0
LINE
  5
18BFF
330
18BFC
100
AcDbEntity
  8
寸法
 62
     0
 48
50.0
370
    -2
100
AcDbLine
 10
4214.896575106998
 20
9656.123139034622
 30
0.0
 11
4214.896575106998
 21
10211.9313586596
 31
0.0
  0
LINE
  5
18C00
330
18BFC
100
AcDbEntity
  8
寸法
 62
     0
 48
50.0
370
    -2
100
AcDbLine
 10
4214.896575106998
 20
10151.9313586596
 30
0.0
 11
4314.896575106998
 21
10151.9313586596
 31
0.0
  0
LINE
  5
18C01
330
18BFC
100
AcDbEntity
  8
寸法
 62
     0
 48
50.0
370
    -2
100
AcDbLine
 10
4159.896575106963
 20
10151.9313586596
 30
0.0
 11
3742.926012358486
 21
10151.9313586596
 31
0.0
  0
LINE
  5
18C02
330
18BFC
100
AcDbEntity
  8
寸法
 62
     0
 48
50.0
370
    -2
100
AcDbLine
 10
4214.896575106998
 20
10151.9313586596
 30
0.0
 11
4159.896575106963
 21
10151.9313586596
 31
0.0
  0
INSERT
  5
18C03
330
18BFC
100
AcDbEntity
  8
寸法
 62
     0
 48
50.0
370
    -2
100
AcDbBlockReference
  2
_DOTSMALL
 10
4214.896575106998
 20
10151.9313586596
 30
0.0
 41
100.0
 42
100.0
 43
100.0
 50
180.0
  0
INSERT
  5
18C04
330
18BFC
100
AcDbEntity
  8
寸法
 62
     0
 48
50.0
370
    -2
100
AcDbBlockReference
  2
_DOTSMALL
 10
4159.896575106963
 20
10151.9313586596
 30
0.0
 41
100.0
 42
100.0
 43
100.0
  0
MTEXT
  5
18C05
330
18BFC
100
AcDbEntity
  8
寸法
 62
     7
 48
50.0
100
AcDbMText
 10
3851.411293732725
 20
10251.9313586596
 30
0.0
 40
120.0
 41
0.0
 71
     5
 72
     1
  1
\A1;55
  7
STYLE1
 73
     1
 44
1.0
1001
ACAD
1000
MTEXTBEGIN
1070
    73
1070
     1
1070
    44
1040
1.0
1070
    74
1070
     0
1000
MTEXTEND
  0
POINT
  5
18C06
330
18BFC
100
AcDbEntity
  8
DEFPOINTS
 62
     0
 48
50.0
100
AcDbPoint
 10
4159.896575106963
 20
9636.123139034623
 30
0.0
  0
POINT
  5
18C07
330
18BFC
100
AcDbEntity
  8
DEFPOINTS
 62
     0
 48
50.0
100
AcDbPoint
 10
4214.896575106998
 20
9636.123139034623
 30
0.0
  0
POINT
  5
18C08
330
18BFC
100
AcDbEntity
  8
DEFPOINTS
 62
     0
 48
50.0
100
AcDbPoint
 10
4214.896575106998
 20
10151.9313586596
 30
0.0
  0
ENDBLK
  5
18C09
330
18BFC
100
AcDbEntity
  8
0
 48
50.0
100
AcDbBlockEnd
  0
BLOCK
  5
18C0B
330
18C0A
100
AcDbEntity
  8
0
 48
50.0
100
AcDbBlockBegin
  2
*D8
 70
     1
 10
0.0
 20
0.0
 30
0.0
  3
*D8
  1

  0
LINE
  5
18C0C
330
18C0A
100
AcDbEntity
  8
寸法
 62
     0
 48
50.0
370
    -2
100
AcDbLine
 10
4159.896575106992
 20
7826.123139034546
 30
0.0
 11
4159.896575106992
 21
6804.372203245664
 31
0.0
  0
LINE
  5
18C0D
330
18C0A
100
AcDbEntity
  8
寸法
 62
     0
 48
50.0
370
    -2
100
AcDbLine
 10
7629.896575106974
 20
7826.123139034674
 30
0.0
 11
7629.896575106974
 21
6804.372203245664
 31
0.0
  0
LINE
  5
18C0E
330
18C0A
100
AcDbEntity
  8
寸法
 62
     0
 48
50.0
370
    -2
100
AcDbLine
 10
4159.896575106992
 20
6864.372203245665
 30
0.0
 11
7629.896575106974
 21
6864.372203245665
 31
0.0
  0
INSERT
  5
18C0F
330
18C0A
100
AcDbEntity
  8
寸法
 62
     0
 48
50.0
370
    -2
100
AcDbBlockReference
  2
_DOTSMALL
 10
4159.896575106992
 20
6864.372203245665
 30
0.0
 41
100.0
 42
100.0
 43
100.0
 50
180.0
  0
INSERT
  5
18C10
330
18C0A
100
AcDbEntity
  8
寸法
 62
     0
 48
50.0
370
    -2
100
AcDbBlockReference
  2
_DOTSMALL
 10
7629.896575106974
 20
6864.372203245665
 30
0.0
 41
100.0
 42
100.0
 43
100.0
  0
MTEXT
  5
18C11
330
18C0A
100
AcDbEntity
  8
寸法
 62
     7
 48
50.0
100
AcDbMText
 10
5911.12376113973
 20
6964.372203245665
 30
0.0
 40
120.0
 41
0.0
 71
     5
 72
     1
  1
\A1;3470
  7
STYLE1
 73
     1
 44
1.0
1001
ACAD
1000
MTEXTBEGIN
1070
    73
1070
     1
1070
    44
1040
1.0
1070
    74
1070
     0
1000
MTEXTEND
  0
POINT
  5
18C12
330
18C0A
100
AcDbEntity
  8
DEFPOINTS
 62
     0
 48
50.0
100
AcDbPoint
 10
4159.896575106992
 20
7846.123139034546
 30
0.0
  0
POINT
  5
18C13
330
18C0A
100
AcDbEntity
  8
DEFPOINTS
 62
     0
 48
50.0
100
AcDbPoint
 10
7629.896575106974
 20
7846.123139034673
 30
0.0
  0
POINT
  5
18C14
330
18C0A
100
AcDbEntity
  8
DEFPOINTS
 62
     0
 48
50.0
100
AcDbPoint
 10
7629.896575106974
 20
6864.372203245665
 30
0.0
  0
ENDBLK
  5
18C15
330
18C0A
100
AcDbEntity
  8
0
 48
50.0
100
AcDbBlockEnd
  0
BLOCK
  5
18C17
330
18C16
100
AcDbEntity
  8
0
 48
50.0
100
AcDbBlockBegin
  2
*D9
 70
     1
 10
0.0
 20
0.0
 30
0.0
  3
*D9
  1

  0
LINE
  5
18C18
330
18C16
100
AcDbEntity
  8
寸法
 62
     0
 48
50.0
370
    -2
100
AcDbLine
 10
7649.896575106973
 20
7901.123139034706
 30
0.0
 11
8337.322920841385
 21
7901.123139034706
 31
0.0
  0
LINE
  5
18C19
330
18C16
100
AcDbEntity
  8
寸法
 62
     0
 48
50.0
370
    -2
100
AcDbLine
 10
7649.896575106973
 20
7846.123139034709
 30
0.0
 11
8337.322920841385
 21
7846.123139034709
 31
0.0
  0
LINE
  5
18C1A
330
18C16
100
AcDbEntity
  8
寸法
 62
     0
 48
50.0
370
    -2
100
AcDbLine
 10
8277.322920841385
 20
7901.123139034706
 30
0.0
 11
8277.322920841385
 21
8001.123139034707
 31
0.0
  0
LINE
  5
18C1B
330
18C16
100
AcDbEntity
  8
寸法
 62
     0
 48
50.0
370
    -2
100
AcDbLine
 10
8277.322920841385
 20
7846.123139034709
 30
0.0
 11
8277.322920841385
 21
7429.152576286229
 31
0.0
  0
LINE
  5
18C1C
330
18C16
100
AcDbEntity
  8
寸法
 62
     0
 48
50.0
370
    -2
100
AcDbLine
 10
8277.322920841385
 20
7901.123139034706
 30
0.0
 11
8277.322920841385
 21
7846.123139034709
 31
0.0
  0
INSERT
  5
18C1D
330
18C16
100
AcDbEntity
  8
寸法
 62
     0
 48
50.0
370
    -2
100
AcDbBlockReference
  2
_DOTSMALL
 10
8277.322920841385
 20
7901.123139034706
 30
0.0
 41
100.0
 42
100.0
 43
100.0
 50
270.0
  0
INSERT
  5
18C1E
330
18C16
100
AcDbEntity
  8
寸法
 62
     0
 48
50.0
370
    -2
100
AcDbBlockReference
  2
_DOTSMALL
 10
8277.322920841385
 20
7846.123139034709
 30
0.0
 41
100.0
 42
100.0
 43
100.0
 50
90.0
  0
MTEXT
  5
18C1F
330
18C16
100
AcDbEntity
  8
寸法
 62
     7
 48
50.0
100
AcDbMText
 10
8177.322920841383
 20
7537.637857660469
 30
0.0
 40
120.0
 41
0.0
 71
     5
 72
     1
  1
\A1;55
  7
STYLE1
 11
0.0000000000000001
 21
1.0
 31
0.0
 73
     1
 44
1.0
1001
ACAD
1000
MTEXTBEGIN
1070
    73
1070
     1
1070
    44
1040
1.0
1070
    74
1070
     0
1000
MTEXTEND
  0
POINT
  5
18C20
330
18C16
100
AcDbEntity
  8
DEFPOINTS
 62
     0
 48
50.0
100
AcDbPoint
 10
7629.896575106974
 20
7901.123139034706
 30
0.0
  0
POINT
  5
18C21
330
18C16
100
AcDbEntity
  8
DEFPOINTS
 62
     0
 48
50.0
100
AcDbPoint
 10
7629.896575106974
 20
7846.123139034709
 30
0.0
  0
POINT
  5
18C22
330
18C16
100
AcDbEntity
  8
DEFPOINTS
 62
     0
 48
50.0
100
AcDbPoint
 10
8277.322920841385
 20
7846.123139034709
 30
0.0
  0
ENDBLK
  5
18C23
330
18C16
100
AcDbEntity
  8
0
 48
50.0
100
AcDbBlockEnd
  0
BLOCK
  5
18C25
330
18C24
100
AcDbEntity
  8
0
 48
50.0
100
AcDbBlockBegin
  2
*D10
 70
     1
 10
0.0
 20
0.0
 30
0.0
  3
*D10
  1

  0
LINE
  5
18C26
330
18C24
100
AcDbEntity
  8
寸法
 62
     0
 48
50.0
370
    -2
100
AcDbLine
 10
6533.037591258376
 20
9136.123139034728
 30
0.0
 11
6465.083950562664
 21
8882.516699399049
 31
0.0
  0
LINE
  5
18C27
330
18C24
100
AcDbEntity
  8
寸法
 62
     0
 48
50.0
370
    -2
100
AcDbLine
 10
7596.037591258388
 20
9136.123139034721
 30
0.0
 11
7528.083950562677
 21
8882.516699399049
 31
0.0
  0
LINE
  5
18C28
330
18C24
100
AcDbEntity
  8
寸法
 62
     0
 48
50.0
370
    -2
100
AcDbLine
 10
6481.160902108531
 20
8942.51669939905
 30
0.0
 11
7544.160902108544
 21
8942.51669939905
 31
0.0
  0
INSERT
  5
18C29
330
18C24
100
AcDbEntity
  8
寸法
 62
     0
 48
50.0
370
    -2
100
AcDbBlockReference
  2
_DOTSMALL
 10
6481.160902108531
 20
8942.51669939905
 30
0.0
 41
100.0
 42
100.0
 43
100.0
 50
180.0
  0
INSERT
  5
18C2A
330
18C24
100
AcDbEntity
  8
寸法
 62
     0
 48
50.0
370
    -2
100
AcDbBlockReference
  2
_DOTSMALL
 10
7544.160902108544
 20
8942.51669939905
 30
0.0
 41
100.0
 42
100.0
 43
100.0
  0
MTEXT
  5
18C2B
330
18C24
100
AcDbEntity
  8
寸法
 62
     7
 48
50.0
100
AcDbMText
 10
7061.28653022935
 20
9042.516699399049
 30
0.0
 40
120.0
 41
0.0
 71
     5
 72
     1
  1
\A1;1063
  7
STYLE1
 73
     1
 44
1.0
1001
ACAD
1000
MTEXTBEGIN
1070
    73
1070
     1
1070
    44
1040
1.0
1070
    74
1070
     0
1000
MTEXTEND
  0
POINT
  5
18C2C
330
18C24
100
AcDbEntity
  8
DEFPOINTS
 62
     0
 48
50.0
100
AcDbPoint
 10
6538.396575106998
 20
9156.123139034727
 30
0.0
  0
POINT
  5
18C2D
330
18C24
100
AcDbEntity
  8
DEFPOINTS
 62
     0
 48
50.0
100
AcDbPoint
 10
7601.39657510701
 20
9156.12313903472
 30
0.0
  0
POINT
  5
18C2E
330
18C24
100
AcDbEntity
  8
DEFPOINTS
 62
     0
 48
50.0
100
AcDbPoint
 10
7544.160902108544
 20
8942.51669939905
 30
0.0
  0
ENDBLK
  5
18C2F
330
18C24
100
AcDbEntity
  8
0
 48
50.0
100
AcDbBlockEnd
  0
BLOCK
  5
18C31
330
18C30
100
AcDbEntity
  8
0
 48
50.0
100
AcDbBlockBegin
  2
*D11
 70
     1
 10
0.0
 20
0.0
 30
0.0
  3
*D11
  1

  0
LINE
  5
18C32
330
18C30
100
AcDbEntity
  8
寸法
 62
     0
 48
50.0
370
    -2
100
AcDbLine
 10
7621.396575106999
 20
9600.764155186094
 30
0.0
 11
8016.754300969024
 21
9494.828371819961
 31
0.0
  0
LINE
  5
18C33
330
18C30
100
AcDbEntity
  8
寸法
 62
     0
 48
50.0
370
    -2
100
AcDbLine
 10
7621.396575106999
 20
9150.764155186099
 30
0.0
 11
8016.754300969024
 21
9044.828371819964
 31
0.0
  0
LINE
  5
18C34
330
18C30
100
AcDbEntity
  8
寸法
 62
     0
 48
50.0
370
    -2
100
AcDbLine
 10
7956.754300969024
 20
9510.905323365827
 30
0.0
 11
7956.754300969024
 21
9060.90532336583
 31
0.0
  0
INSERT
  5
18C35
330
18C30
100
AcDbEntity
  8
寸法
 62
     0
 48
50.0
370
    -2
100
AcDbBlockReference
  2
_DOTSMALL
 10
7956.754300969024
 20
9510.905323365827
 30
0.0
 41
100.0
 42
100.0
 43
100.0
 50
90.0
  0
INSERT
  5
18C36
330
18C30
100
AcDbEntity
  8
寸法
 62
     0
 48
50.0
370
    -2
100
AcDbBlockReference
  2
_DOTSMALL
 10
7956.754300969024
 20
9060.90532336583
 30
0.0
 41
100.0
 42
100.0
 43
100.0
 50
270.0
  0
MTEXT
  5
18C37
330
18C30
100
AcDbEntity
  8
寸法
 62
     7
 48
50.0
100
AcDbMText
 10
7856.754300969022
 20
9285.905323365829
 30
0.0
 40
120.0
 41
0.0
 71
     5
 72
     1
  1
\A1;450
  7
STYLE1
 11
0.0000000000000001
 21
1.0
 31
0.0
 73
     1
 44
1.0
1001
ACAD
1000
MTEXTBEGIN
1070
    73
1070
     1
1070
    44
1040
1.0
1070
    74
1070
     0
1000
MTEXTEND
  0
POINT
  5
18C38
330
18C30
100
AcDbEntity
  8
DEFPOINTS
 62
     0
 48
50.0
100
AcDbPoint
 10
7601.396575106999
 20
9606.123139034718
 30
0.0
  0
POINT
  5
18C39
330
18C30
100
AcDbEntity
  8
DEFPOINTS
 62
     0
 48
50.0
100
AcDbPoint
 10
7601.396575106999
 20
9156.12313903472
 30
0.0
  0
POINT
  5
18C3A
330
18C30
100
AcDbEntity
  8
DEFPOINTS
 62
     0
 48
50.0
100
AcDbPoint
 10
7956.754300969024
 20
9060.90532336583
 30
0.0
  0
ENDBLK
  5
18C3B
330
18C30
100
AcDbEntity
  8
0
 48
50.0
100
AcDbBlockEnd
  0
BLOCK
  5
18C3D
330
18C3C
100
AcDbEntity
  8
0
 48
50.0
100
AcDbBlockBegin
  2
*D12
 70
     1
 10
0.0
 20
0.0
 30
0.0
  3
*D12
  1

  0
LINE
  5
18C3E
330
18C3C
100
AcDbEntity
  8
寸法
 62
     0
 48
50.0
370
    -2
100
AcDbLine
 10
7649.896575106999
 20
9581.123139034721
 30
0.0
 11
8337.32292084141
 21
9581.123139034721
 31
0.0
  0
LINE
  5
18C3F
330
18C3C
100
AcDbEntity
  8
寸法
 62
     0
 48
50.0
370
    -2
100
AcDbLine
 10
7649.896575106973
 20
7901.123139034706
 30
0.0
 11
8337.32292084141
 21
7901.123139034706
 31
0.0
  0
LINE
  5
18C40
330
18C3C
100
AcDbEntity
  8
寸法
 62
     0
 48
50.0
370
    -2
100
AcDbLine
 10
8277.322920841411
 20
9581.123139034721
 30
0.0
 11
8277.322920841411
 21
7901.123139034706
 31
0.0
  0
INSERT
  5
18C41
330
18C3C
100
AcDbEntity
  8
寸法
 62
     0
 48
50.0
370
    -2
100
AcDbBlockReference
  2
_DOTSMALL
 10
8277.322920841411
 20
9581.123139034721
 30
0.0
 41
100.0
 42
100.0
 43
100.0
 50
90.0
  0
INSERT
  5
18C42
330
18C3C
100
AcDbEntity
  8
寸法
 62
     0
 48
50.0
370
    -2
100
AcDbBlockReference
  2
_DOTSMALL
 10
8277.322920841411
 20
7901.123139034706
 30
0.0
 41
100.0
 42
100.0
 43
100.0
 50
270.0
  0
MTEXT
  5
18C43
330
18C3C
100
AcDbEntity
  8
寸法
 62
     7
 48
50.0
100
AcDbMText
 10
8177.311109817788
 20
8741.123139034712
 30
0.0
 40
120.0
 41
0.0
 71
     5
 72
     1
  1
\A1;4X420=1680
  7
STYLE1
 11
0.0000000000000001
 21
1.0
 31
0.0
 73
     1
 44
1.0
1001
ACAD
1000
MTEXTBEGIN
1070
    73
1070
     1
1070
    44
1040
1.0
1070
    74
1070
     0
1000
MTEXTEND
  0
POINT
  5
18C44
330
18C3C
100
AcDbEntity
  8
DEFPOINTS
 62
     0
 48
50.0
100
AcDbPoint
 10
7629.896575106998
 20
9581.123139034721
 30
0.0
  0
POINT
  5
18C45
330
18C3C
100
AcDbEntity
  8
DEFPOINTS
 62
     0
 48
50.0
100
AcDbPoint
 10
7629.896575106974
 20
7901.123139034706
 30
0.0
  0
POINT
  5
18C46
330
18C3C
100
AcDbEntity
  8
DEFPOINTS
 62
     0
 48
50.0
100
AcDbPoint
 10
8277.322920841411
 20
7901.123139034706
 30
0.0
  0
ENDBLK
  5
18C47
330
18C3C
100
AcDbEntity
  8
0
 48
50.0
100
AcDbBlockEnd
  0
BLOCK
  5
18C49
330
18C48
100
AcDbEntity
  8
0
 48
50.0
100
AcDbBlockBegin
  2
*D13
 70
     1
 10
0.0
 20
0.0
 30
0.0
  3
*D13
  1

  0
LINE
  5
18C4A
330
18C48
100
AcDbEntity
  8
寸法
 62
     0
 48
50.0
370
    -2
100
AcDbLine
 10
4183.037591258377
 20
9136.123139034619
 30
0.0
 11
4115.083950562663
 21
8882.516699398941
 31
0.0
  0
LINE
  5
18C4B
330
18C48
100
AcDbEntity
  8
寸法
 62
     0
 48
50.0
370
    -2
100
AcDbLine
 10
5246.037591258307
 20
9136.123139034671
 30
0.0
 11
5178.08395056258
 21
8882.516699398941
 31
0.0
  0
LINE
  5
18C4C
330
18C48
100
AcDbEntity
  8
寸法
 62
     0
 48
50.0
370
    -2
100
AcDbLine
 10
4131.160902108532
 20
8942.516699398941
 30
0.0
 11
5194.160902108448
 21
8942.516699398941
 31
0.0
  0
INSERT
  5
18C4D
330
18C48
100
AcDbEntity
  8
寸法
 62
     0
 48
50.0
370
    -2
100
AcDbBlockReference
  2
_DOTSMALL
 10
4131.160902108532
 20
8942.516699398941
 30
0.0
 41
100.0
 42
100.0
 43
100.0
 50
180.0
  0
INSERT
  5
18C4E
330
18C48
100
AcDbEntity
  8
寸法
 62
     0
 48
50.0
370
    -2
100
AcDbBlockReference
  2
_DOTSMALL
 10
5194.160902108448
 20
8942.516699398941
 30
0.0
 41
100.0
 42
100.0
 43
100.0
  0
MTEXT
  5
18C4F
330
18C48
100
AcDbEntity
  8
寸法
 62
     7
 48
50.0
100
AcDbMText
 10
4658.986452655306
 20
9042.516699398941
 30
0.0
 40
120.0
 41
0.0
 71
     5
 72
     1
  1
\A1;1063
  7
STYLE1
 73
     1
 44
1.0
1001
ACAD
1000
MTEXTBEGIN
1070
    73
1070
     1
1070
    44
1040
1.0
1070
    74
1070
     0
1000
MTEXTEND
  0
POINT
  5
18C50
330
18C48
100
AcDbEntity
  8
DEFPOINTS
 62
     0
 48
50.0
100
AcDbPoint
 10
4188.396575106999
 20
9156.123139034617
 30
0.0
  0
POINT
  5
18C51
330
18C48
100
AcDbEntity
  8
DEFPOINTS
 62
     0
 48
50.0
100
AcDbPoint
 10
5251.396575106929
 20
9156.123139034672
 30
0.0
  0
POINT
  5
18C52
330
18C48
100
AcDbEntity
  8
DEFPOINTS
 62
     0
 48
50.0
100
AcDbPoint
 10
5194.160902108448
 20
8942.516699398941
 30
0.0
  0
ENDBLK
  5
18C53
330
18C48
100
AcDbEntity
  8
0
 48
50.0
100
AcDbBlockEnd
  0
BLOCK
  5
18C55
330
18C54
100
AcDbEntity
  8
0
 48
50.0
100
AcDbBlockBegin
  2
*D14
 70
     1
 10
0.0
 20
0.0
 30
0.0
  3
*D14
  1

  0
LINE
  5
18C56
330
18C54
100
AcDbEntity
  8
寸法
 62
     0
 48
50.0
370
    -2
100
AcDbLine
 10
5274.037591258307
 20
9136.123139034669
 30
0.0
 11
5206.08395056258
 21
8882.516699398941
 31
0.0
  0
LINE
  5
18C57
330
18C54
100
AcDbEntity
  8
寸法
 62
     0
 48
50.0
370
    -2
100
AcDbLine
 10
6505.037591258377
 20
9136.123139034662
 30
0.0
 11
6437.083950562653
 21
8882.516699398941
 31
0.0
  0
LINE
  5
18C58
330
18C54
100
AcDbEntity
  8
寸法
 62
     0
 48
50.0
370
    -2
100
AcDbLine
 10
5222.160902108448
 20
8942.516699398941
 30
0.0
 11
6453.16090210852
 21
8942.516699398941
 31
0.0
  0
INSERT
  5
18C59
330
18C54
100
AcDbEntity
  8
寸法
 62
     0
 48
50.0
370
    -2
100
AcDbBlockReference
  2
_DOTSMALL
 10
5222.160902108448
 20
8942.516699398941
 30
0.0
 41
100.0
 42
100.0
 43
100.0
 50
180.0
  0
INSERT
  5
18C5A
330
18C54
100
AcDbEntity
  8
寸法
 62
     0
 48
50.0
370
    -2
100
AcDbBlockReference
  2
_DOTSMALL
 10
6453.16090210852
 20
8942.516699398941
 30
0.0
 41
100.0
 42
100.0
 43
100.0
  0
MTEXT
  5
18C5B
330
18C54
100
AcDbEntity
  8
寸法
 62
     7
 48
50.0
100
AcDbMText
 10
6081.244808320626
 20
9042.528510422561
 30
0.0
 40
120.0
 41
0.0
 71
     5
 72
     1
  1
\A1;1231
  7
STYLE1
 73
     1
 44
1.0
1001
ACAD
1000
MTEXTBEGIN
1070
    73
1070
     1
1070
    44
1040
1.0
1070
    74
1070
     0
1000
MTEXTEND
  0
POINT
  5
18C5C
330
18C54
100
AcDbEntity
  8
DEFPOINTS
 62
     0
 48
50.0
100
AcDbPoint
 10
5279.396575106929
 20
9156.123139034669
 30
0.0
  0
POINT
  5
18C5D
330
18C54
100
AcDbEntity
  8
DEFPOINTS
 62
     0
 48
50.0
100
AcDbPoint
 10
6510.396575106999
 20
9156.123139034662
 30
0.0
  0
POINT
  5
18C5E
330
18C54
100
AcDbEntity
  8
DEFPOINTS
 62
     0
 48
50.0
100
AcDbPoint
 10
6453.16090210852
 20
8942.516699398941
 30
0.0
  0
ENDBLK
  5
18C5F
330
18C54
100
AcDbEntity
  8
0
 48
50.0
100
AcDbBlockEnd
  0
BLOCK
  5
18C61
330
18C60
100
AcDbEntity
  8
0
 48
50.0
100
AcDbBlockBegin
  2
*D15
 70
     1
 10
0.0
 20
0.0
 30
0.0
  3
*D15
  1

  0
LINE
  5
18C62
330
18C60
100
AcDbEntity
  8
寸法
 62
     0
 48
50.0
370
    -2
100
AcDbLine
 10
5065.896575106966
 20
7749.123139034579
 30
0.0
 11
5065.896575106966
 21
7099.952920982538
 31
0.0
  0
LINE
  5
18C63
330
18C60
100
AcDbEntity
  8
寸法
 62
     0
 48
50.0
370
    -2
100
AcDbLine
 10
6331.896575106966
 20
7749.123139034579
 30
0.0
 11
6331.896575106966
 21
7099.952920982538
 31
0.0
  0
LINE
  5
18C64
330
18C60
100
AcDbEntity
  8
寸法
 62
     0
 48
50.0
370
    -2
100
AcDbLine
 10
5065.896575106966
 20
7159.952920982537
 30
0.0
 11
6331.896575106966
 21
7159.952920982537
 31
0.0
  0
INSERT
  5
18C65
330
18C60
100
AcDbEntity
  8
寸法
 62
     0
 48
50.0
370
    -2
100
AcDbBlockReference
  2
_DOTSMALL
 10
5065.896575106966
 20
7159.952920982537
 30
0.0
 41
100.0
 42
100.0
 43
100.0
 50
180.0
  0
INSERT
  5
18C66
330
18C60
100
AcDbEntity
  8
寸法
 62
     0
 48
50.0
370
    -2
100
AcDbBlockReference
  2
_DOTSMALL
 10
6331.896575106966
 20
7159.952920982537
 30
0.0
 41
100.0
 42
100.0
 43
100.0
  0
MTEXT
  5
18C67
330
18C60
100
AcDbEntity
  8
寸法
 62
     7
 48
50.0
100
AcDbMText
 10
5711.986008735934
 20
7359.964732006159
 30
0.0
 40
120.0
 41
0.0
 71
     5
 72
     1
  1
\A1;有効開口部間口\P1266
  7
STYLE1
 73
     1
 44
1.0
1001
ACAD
1000
MTEXTBEGIN
1070
    73
1070
     1
1070
    44
1040
1.0
1070
    74
1070
     0
1000
MTEXTEND
  0
POINT
  5
18C68
330
18C60
100
AcDbEntity
  8
DEFPOINTS
 62
     0
 48
50.0
100
AcDbPoint
 10
5065.896575106966
 20
7769.123139034579
 30
0.0
  0
POINT
  5
18C69
330
18C60
100
AcDbEntity
  8
DEFPOINTS
 62
     0
 48
50.0
100
AcDbPoint
 10
6331.896575106966
 20
7769.123139034579
 30
0.0
  0
POINT
  5
18C6A
330
18C60
100
AcDbEntity
  8
DEFPOINTS
 62
     0
 48
50.0
100
AcDbPoint
 10
6331.896575106966
 20
7159.952920982537
 30
0.0
  0
ENDBLK
  5
18C6B
330
18C60
100
AcDbEntity
  8
0
 48
50.0
100
AcDbBlockEnd
  0
BLOCK
  5
18C6D
330
18C6C
100
AcDbEntity
  8
0
 48
50.0
100
AcDbBlockBegin
  2
*D16
 70
     1
 10
0.0
 20
0.0
 30
0.0
  3
*D16
  1

  0
LINE
  5
18C6E
330
18C6C
100
AcDbEntity
  8
寸法
 62
     0
 48
50.0
370
    -2
100
AcDbLine
 10
7200.896575106966
 20
7846.123139034578
 30
0.0
 11
7457.192158500191
 21
7846.123139034578
 31
0.0
  0
LINE
  5
18C6F
330
18C6C
100
AcDbEntity
  8
寸法
 62
     0
 48
50.0
370
    -2
100
AcDbLine
 10
7199.896575106966
 20
7769.123139034579
 30
0.0
 11
7457.192158500191
 21
7769.123139034579
 31
0.0
  0
LINE
  5
18C70
330
18C6C
100
AcDbEntity
  8
寸法
 62
     0
 48
50.0
370
    -2
100
AcDbLine
 10
7417.192158500192
 20
7866.123139034579
 30
0.0
 11
7417.192158500192
 21
7886.123139034578
 31
0.0
  0
LINE
  5
18C71
330
18C6C
100
AcDbEntity
  8
寸法
 62
     0
 48
50.0
370
    -2
100
AcDbLine
 10
7417.192158500192
 20
7749.123139034579
 30
0.0
 11
7417.192158500192
 21
7533.123139034573
 31
0.0
  0
LINE
  5
18C72
330
18C6C
100
AcDbEntity
  8
寸法
 62
     0
 48
50.0
370
    -2
100
AcDbLine
 10
7417.192158500192
 20
7846.123139034578
 30
0.0
 11
7417.192158500192
 21
7769.123139034579
 31
0.0
  0
INSERT
  5
18C73
330
18C6C
100
AcDbEntity
  8
寸法
 62
     0
 48
50.0
370
    -2
100
AcDbBlockReference
  2
_DOT
 10
7417.192158500192
 20
7846.123139034578
 30
0.0
 41
20.0
 42
20.0
 43
20.0
 50
270.0
  0
INSERT
  5
18C74
330
18C6C
100
AcDbEntity
  8
寸法
 62
     0
 48
50.0
370
    -2
100
AcDbBlockReference
  2
_DOT
 10
7417.192158500192
 20
7769.123139034579
 30
0.0
 41
20.0
 42
20.0
 43
20.0
 50
90.0
  0
MTEXT
  5
18C75
330
18C6C
100
AcDbEntity
  8
寸法
 62
     7
 48
50.0
100
AcDbMText
 10
7325.192158500191
 20
7631.123139034575
 30
0.0
 40
120.0
 41
0.0
 71
     5
 72
     1
  1
\A1;77
  7
STYLE1
 11
0.0000000000000001
 21
1.0
 31
0.0
 73
     1
 44
1.0
1001
ACAD
1000
MTEXTBEGIN
1070
    73
1070
     1
1070
    44
1040
1.0
1070
    74
1070
     0
1000
MTEXTEND
  0
POINT
  5
18C76
330
18C6C
100
AcDbEntity
  8
DEFPOINTS
 62
     0
 48
50.0
100
AcDbPoint
 10
7180.896575106967
 20
7846.123139034578
 30
0.0
  0
POINT
  5
18C77
330
18C6C
100
AcDbEntity
  8
DEFPOINTS
 62
     0
 48
50.0
100
AcDbPoint
 10
7179.896575106965
 20
7769.123139034579
 30
0.0
  0
POINT
  5
18C78
330
18C6C
100
AcDbEntity
  8
DEFPOINTS
 62
     0
 48
50.0
100
AcDbPoint
 10
7417.192158500192
 20
7769.123139034579
 30
0.0
  0
ENDBLK
  5
18C79
330
18C6C
100
AcDbEntity
  8
0
 48
50.0
100
AcDbBlockEnd
  0
BLOCK
  5
18DA0
330
18C7A
100
AcDbEntity
  8
0
 48
50.0
100
AcDbBlockBegin
  2
A$C3B1A506B
 70
     0
 10
0.0
 20
0.0
 30
0.0
  3
A$C3B1A506B
  1

  0
MTEXT
  5
18C7B
330
18C7A
100
AcDbEntity
  8
寸法
 62
     7
 48
50.0
100
AcDbMText
 10
3342.250386887194
 20
2778.329429134012
 30
0.0
 40
96.0
 41
0.0
 71
     5
 72
     1
  1
棚 2段
  7
STYLE1
 73
     1
 44
1.0
1001
ACAD
1000
MTEXTBEGIN
1070
    73
1070
     1
1070
    44
1040
1.0
1070
    74
1070
     0
1000
MTEXTEND
  0
MTEXT
  5
18C7C
330
18C7A
100
AcDbEntity
  8
寸法
 62
     7
 48
50.0
100
AcDbMText
 10
2167.25038688716
 20
2778.329429133986
 30
0.0
 40
96.0
 41
0.0
 71
     5
 72
     1
  1
棚 2段
  7
STYLE1
 73
     1
 44
1.0
1001
ACAD
1000
MTEXTBEGIN
1070
    73
1070
     1
1070
    44
1040
1.0
1070
    74
1070
     0
1000
MTEXTEND
  0
MTEXT
  5
18C7D
330
18C7A
100
AcDbEntity
  8
寸法
 62
     7
 48
50.0
100
AcDbMText
 10
992.2503868871608
 20
2778.329429133935
 30
0.0
 40
96.0
 41
0.0
 71
     5
 72
     1
  1
棚 2段
  7
STYLE1
 73
     1
 44
1.0
1001
ACAD
1000
MTEXTBEGIN
1070
    73
1070
     1
1070
    44
1040
1.0
1070
    74
1070
     0
1000
MTEXTEND
  0
LINE
  5
18C7E
330
18C7A
100
AcDbEntity
  8
細線
 48
50.0
100
AcDbLine
 10
2771.970589276527
 20
1368.994384123192
 30
0.0
 11
3398.970589276523
 21
1368.994384123192
 31
0.0
  0
LINE
  5
18C7F
330
18C7A
100
AcDbEntity
  8
細線
 48
50.0
100
AcDbLine
 10
2117.970593930113
 20
1335.285615569113
 30
0.0
 11
3398.970589276523
 21
1335.285615569113
 31
0.0
  0
LINE
  5
18C80
330
18C7A
100
AcDbEntity
  8
細線
 48
50.0
100
AcDbLine
 10
2076.970593930115
 20
1364.690523565368
 30
0.0
 11
1322.970589276523
 21
1364.690523565367
 31
0.0
  0
LINE
  5
18C81
330
18C7A
100
AcDbEntity
  8
細線
100
AcDbLine
 10
3170.720579860066
 20
1388.494284088199
 30
0.0
 11
3173.052119381877
 21
1393.494286728162
 31
0.0
  0
LINE
  5
18C82
330
18C7A
100
AcDbEntity
  8
細線
100
AcDbLine
 10
3240.720589276525
 20
1388.494269174465
 30
0.0
 11
3238.389042800336
 21
1393.494286728144
 31
0.0
  0
LINE
  5
18C83
330
18C7A
100
AcDbEntity
  8
細線
100
AcDbLine
 10
3238.389042800336
 20
1393.494286728144
 30
0.0
 11
3173.052119381862
 21
1393.494286728133
 31
0.0
  0
LINE
  5
18C84
330
18C7A
100
AcDbEntity
  8
細線
100
AcDbLine
 10
3098.389042800336
 20
1393.494286728144
 30
0.0
 11
3033.052119381862
 21
1393.494286728133
 31
0.0
  0
LINE
  5
18C85
330
18C7A
100
AcDbEntity
  8
細線
100
AcDbLine
 10
3100.720589276523
 20
1388.494269174465
 30
0.0
 11
3098.389042800336
 21
1393.494286728144
 31
0.0
  0
LINE
  5
18C86
330
18C7A
100
AcDbEntity
  8
細線
100
AcDbLine
 10
3030.720579860066
 20
1388.494284088199
 30
0.0
 11
3033.052119381875
 21
1393.494286728162
 31
0.0
  0
LINE
  5
18C87
330
18C7A
100
AcDbEntity
  8
細線
100
AcDbLine
 10
2890.720589276525
 20
1388.494269174465
 30
0.0
 11
2893.052128798336
 21
1393.494271814428
 31
0.0
  0
LINE
  5
18C88
330
18C7A
100
AcDbEntity
  8
細線
100
AcDbLine
 10
2960.720598692984
 20
1388.494254260731
 30
0.0
 11
2958.389052216793
 21
1393.49427181441
 31
0.0
  0
LINE
  5
18C89
330
18C7A
100
AcDbEntity
  8
細線
100
AcDbLine
 10
2958.389052216795
 20
1393.49427181441
 30
0.0
 11
2893.052128798321
 21
1393.494271814399
 31
0.0
  0
LINE
  5
18C8A
330
18C7A
100
AcDbEntity
  8
細線
100
AcDbLine
 10
2667.139038146739
 20
1359.494298590735
 30
0.0
 11
2601.802114728263
 21
1359.494298590724
 31
0.0
  0
LINE
  5
18C8B
330
18C7A
100
AcDbEntity
  8
細線
100
AcDbLine
 10
2669.470584622926
 20
1354.494281037055
 30
0.0
 11
2667.139038146737
 21
1359.494298590735
 31
0.0
  0
LINE
  5
18C8C
330
18C7A
100
AcDbEntity
  8
細線
100
AcDbLine
 10
2599.470575206469
 20
1354.49429595079
 30
0.0
 11
2601.802114728278
 21
1359.494298590752
 31
0.0
  0
LINE
  5
18C8D
330
18C7A
100
AcDbEntity
  8
細線
 48
50.0
100
AcDbLine
 10
2440.853968524536
 20
1372.765132327548
 30
0.0
 11
2446.609486107205
 21
1354.494281037057
 31
0.0
  0
LINE
  5
18C8E
330
18C7A
100
AcDbEntity
  8
細線
 48
50.0
100
AcDbLine
 10
2429.925520044106
 20
1372.765132327546
 30
0.0
 11
2440.853968524536
 21
1372.765132327548
 31
0.0
  0
ARC
  5
18C8F
330
18C7A
100
AcDbEntity
  8
細線
 48
50.0
100
AcDbCircle
 10
2424.471163986787
 20
1374.265132327546
 30
0.0
 40
5.0
100
AcDbArc
 50
204.6243183520723
 51
335.3756816479278
  0
ARC
  5
18C90
330
18C7A
100
AcDbEntity
  8
細線
 48
50.0
100
AcDbCircle
 10
2429.925520044106
 20
1371.765132327546
 30
0.0
 40
1.0
100
AcDbArc
 50
90.0
 51
155.3756816479277
  0
ARC
  5
18C91
330
18C7A
100
AcDbEntity
  8
細線
 48
50.0
100
AcDbCircle
 10
2419.016807929469
 20
1371.765132327546
 30
0.0
 40
1.0
100
AcDbArc
 50
24.62431835207225
 51
90.0
  0
LINE
  5
18C92
330
18C7A
100
AcDbEntity
  8
細線
 48
50.0
100
AcDbLine
 10
2408.088359449037
 20
1372.765132327548
 30
0.0
 11
2419.016807929469
 21
1372.765132327546
 31
0.0
  0
LINE
  5
18C93
330
18C7A
100
AcDbEntity
  8
細線
 48
50.0
100
AcDbLine
 10
2402.33284186637
 20
1354.494281037054
 30
0.0
 11
2408.088359449037
 21
1372.765132327548
 31
0.0
  0
LINE
  5
18C94
330
18C7A
100
AcDbEntity
  8
細線
100
AcDbLine
 10
2458.070304175992
 20
1354.494278397076
 30
0.0
 11
2460.401843697802
 21
1359.494281037039
 31
0.0
  0
LINE
  5
18C95
330
18C7A
100
AcDbEntity
  8
細線
100
AcDbLine
 10
2528.070313592451
 20
1354.494263483342
 30
0.0
 11
2525.738767116262
 21
1359.494281037021
 31
0.0
  0
LINE
  5
18C96
330
18C7A
100
AcDbEntity
  8
細線
100
AcDbLine
 10
2525.738767116262
 20
1359.494281037021
 30
0.0
 11
2460.40184369779
 21
1359.49428103701
 31
0.0
  0
LINE
  5
18C97
330
18C7A
100
AcDbEntity
  8
細線
100
AcDbLine
 10
2387.139046332155
 20
1359.494281037021
 30
0.0
 11
2321.80212291368
 21
1359.49428103701
 31
0.0
  0
LINE
  5
18C98
330
18C7A
100
AcDbEntity
  8
細線
100
AcDbLine
 10
2389.470592808342
 20
1354.494263483342
 30
0.0
 11
2387.139046332153
 21
1359.494281037021
 31
0.0
  0
LINE
  5
18C99
330
18C7A
100
AcDbEntity
  8
細線
100
AcDbLine
 10
2319.470584622926
 20
1354.494281037054
 30
0.0
 11
2321.802122913694
 21
1359.494281037039
 31
0.0
  0
LINE
  5
18C9A
330
18C7A
100
AcDbEntity
  8
細線
100
AcDbLine
 10
2179.47061994182
 20
1354.494289224422
 30
0.0
 11
2181.802158232587
 21
1359.494289224407
 31
0.0
  0
LINE
  5
18C9B
330
18C7A
100
AcDbEntity
  8
細線
100
AcDbLine
 10
2249.470628127236
 20
1354.49427167071
 30
0.0
 11
2247.139081651047
 21
1359.494289224389
 31
0.0
  0
LINE
  5
18C9C
330
18C7A
100
AcDbEntity
  8
細線
100
AcDbLine
 10
2247.139081651047
 20
1359.494289224389
 30
0.0
 11
2181.802158232573
 21
1359.494289224378
 31
0.0
  0
LINE
  5
18C9D
330
18C7A
100
AcDbEntity
  8
細線
100
AcDbLine
 10
1807.970585744697
 20
1320.494460905133
 30
0.0
 11
1810.302124035464
 21
1325.494460905118
 31
0.0
  0
LINE
  5
18C9E
330
18C7A
100
AcDbEntity
  8
細線
100
AcDbLine
 10
1877.970593930113
 20
1320.494443351421
 30
0.0
 11
1875.639047453926
 21
1325.4944609051
 31
0.0
  0
LINE
  5
18C9F
330
18C7A
100
AcDbEntity
  8
細線
100
AcDbLine
 10
1875.639047453926
 20
1325.4944609051
 30
0.0
 11
1810.302124035452
 21
1325.494460905089
 31
0.0
  0
LINE
  5
18CA0
330
18C7A
100
AcDbEntity
  8
細線
100
AcDbLine
 10
2015.639047453926
 20
1325.4944609051
 30
0.0
 11
1950.302124035452
 21
1325.494460905089
 31
0.0
  0
LINE
  5
18CA1
330
18C7A
100
AcDbEntity
  8
細線
100
AcDbLine
 10
2017.970593930113
 20
1320.494443351421
 30
0.0
 11
2015.639047453924
 21
1325.4944609051
 31
0.0
  0
LINE
  5
18CA2
330
18C7A
100
AcDbEntity
  8
細線
100
AcDbLine
 10
1947.970585744697
 20
1320.494460905133
 30
0.0
 11
1950.302124035465
 21
1325.494460905118
 31
0.0
  0
LINE
  5
18CA3
330
18C7A
100
AcDbEntity
  8
細線
100
AcDbLine
 10
1735.639047453926
 20
1325.494460905098
 30
0.0
 11
1670.302124035454
 21
1325.494460905087
 31
0.0
  0
LINE
  5
18CA4
330
18C7A
100
AcDbEntity
  8
細線
100
AcDbLine
 10
1737.970593930113
 20
1320.494443351419
 30
0.0
 11
1735.639047453926
 21
1325.494460905098
 31
0.0
  0
LINE
  5
18CA5
330
18C7A
100
AcDbEntity
  8
細線
100
AcDbLine
 10
1667.970585744697
 20
1320.494460905131
 30
0.0
 11
1670.302124035465
 21
1325.494460905116
 31
0.0
  0
LINE
  5
18CA6
330
18C7A
100
AcDbEntity
  8
細線
100
AcDbLine
 10
1527.970593930113
 20
1320.494460905133
 30
0.0
 11
1530.302132220881
 21
1325.494460905118
 31
0.0
  0
LINE
  5
18CA7
330
18C7A
100
AcDbEntity
  8
細線
100
AcDbLine
 10
1597.970602115529
 20
1320.494443351421
 30
0.0
 11
1595.639055639342
 21
1325.4944609051
 31
0.0
  0
LINE
  5
18CA8
330
18C7A
100
AcDbEntity
  8
細線
100
AcDbLine
 10
1595.639055639342
 20
1325.4944609051
 30
0.0
 11
1530.302132220869
 21
1325.494460905089
 31
0.0
  0
ARC
  5
18CA9
330
18C7A
100
AcDbEntity
  8
部品1
 48
0.01
100
AcDbCircle
 10
1483.470482677778
 20
1319.493338720063
 30
0.0
 40
0.5
100
AcDbArc
 50
270.0
 51
0.0
  0
LINE
  5
18CAA
330
18C7A
100
AcDbEntity
  8
部品1
 48
0.01
100
AcDbLine
 10
1483.970482677778
 20
1320.493338720063
 30
0.0
 11
1483.970482677778
 21
1319.493338720063
 31
0.0
  0
LINE
  5
18CAB
330
18C7A
100
AcDbEntity
  8
部品1
 48
0.01
100
AcDbLine
 10
1483.970482677778
 20
1320.493338720063
 30
0.0
 11
1483.970482677778
 21
1319.493338720063
 31
0.0
  0
LINE
  5
18CAC
330
18C7A
100
AcDbEntity
  8
部品1
 48
0.01
100
AcDbLine
 10
1483.470482677778
 20
1318.993338720063
 30
0.0
 11
1476.857977247713
 21
1318.993338720062
 31
0.0
  0
ARC
  5
18CAD
330
18C7A
100
AcDbEntity
  8
部品1
100
AcDbCircle
 10
1476.926326800494
 20
1319.993338720062
 30
0.0
 40
1.0
100
AcDbArc
 50
160.5287793655865
 51
270.0
  0
ARC
  5
18CAE
330
18C7A
100
AcDbEntity
  8
部品1
100
AcDbCircle
 10
1451.470482677778
 20
1328.993338720062
 30
0.0
 40
26.0
100
AcDbArc
 50
340.5287793655865
 51
0.0
  0
LINE
  5
18CAF
330
18C7A
100
AcDbEntity
  8
部品1
100
AcDbLine
 10
1477.470482677778
 20
1328.993338720062
 30
0.0
 11
1477.470482677778
 21
1333.993338720061
 31
0.0
  0
ARC
  5
18CB0
330
18C7A
100
AcDbEntity
  8
部品1
 48
0.01
100
AcDbCircle
 10
1475.470482677778
 20
1333.993338720061
 30
0.0
 40
2.0
100
AcDbArc
 50
0.0
 51
90.0
  0
ARC
  5
18CB1
330
18C7A
100
AcDbEntity
  8
部品1
100
AcDbCircle
 10
1473.862091052968
 20
1332.993338720062
 30
0.0
 40
3.0
100
AcDbArc
 50
90.0
 51
141.6069559808035
  0
LINE
  5
18CB2
330
18C7A
100
AcDbEntity
  8
部品1
 48
0.01
100
AcDbLine
 10
1475.470482677778
 20
1335.993338720062
 30
0.0
 11
1473.862091052968
 21
1335.993338720062
 31
0.0
  0
ARC
  5
18CB3
330
18C7A
100
AcDbEntity
  8
部品1
100
AcDbCircle
 10
1455.399768463507
 20
1332.293338720065
 30
0.0
 40
3.0
100
AcDbArc
 50
254.0576313943215
 51
270.0
  0
ARC
  5
18CB4
330
18C7A
100
AcDbEntity
  8
部品1
100
AcDbCircle
 10
1462.541196892049
 20
1332.293338720065
 30
0.0
 40
3.0
100
AcDbArc
 50
270.0
 51
285.9423686056786
  0
LINE
  5
18CB5
330
18C7A
100
AcDbEntity
  8
部品1
100
AcDbLine
 10
1462.541196892049
 20
1329.293338720064
 30
0.0
 11
1455.399768463507
 21
1329.293338720064
 31
0.0
  0
ARC
  5
18CB6
330
18C7A
100
AcDbEntity
  8
部品1
100
AcDbCircle
 10
1458.970482677778
 20
1344.793338720065
 30
0.0
 40
16.0
100
AcDbArc
 50
285.9423686056786
 51
321.6069559808035
  0
LINE
  5
18CB7
330
18C7A
100
AcDbEntity
  8
部品1
 48
0.01
100
AcDbLine
 10
1442.470482677778
 20
1335.993338720062
 30
0.0
 11
1444.078874302588
 21
1335.993338720062
 31
0.0
  0
ARC
  5
18CB8
330
18C7A
100
AcDbEntity
  8
部品1
100
AcDbCircle
 10
1444.078874302588
 20
1332.993338720062
 30
0.0
 40
3.0
100
AcDbArc
 50
38.39304401919648
 51
90.0
  0
ARC
  5
18CB9
330
18C7A
100
AcDbEntity
  8
部品1
100
AcDbCircle
 10
1458.970482677778
 20
1344.793338720065
 30
0.0
 40
16.0
100
AcDbArc
 50
218.3930440191965
 51
254.0576313943215
  0
LINE
  5
18CBA
330
18C7A
100
AcDbEntity
  8
部品1
100
AcDbLine
 10
1440.470482677778
 20
1328.993338720062
 30
0.0
 11
1440.470482677778
 21
1333.993338720061
 31
0.0
  0
ARC
  5
18CBB
330
18C7A
100
AcDbEntity
  8
部品1
 48
0.01
100
AcDbCircle
 10
1442.470482677778
 20
1333.993338720061
 30
0.0
 40
2.0
100
AcDbArc
 50
90.0
 51
180.0
  0
ARC
  5
18CBC
330
18C7A
100
AcDbEntity
  8
部品1
100
AcDbCircle
 10
1466.470482677778
 20
1328.993338720062
 30
0.0
 40
26.0
100
AcDbArc
 50
180.0
 51
199.4712206344134
  0
ARC
  5
18CBD
330
18C7A
100
AcDbEntity
  8
部品1
 48
0.01
100
AcDbCircle
 10
1434.470482677778
 20
1319.493338720063
 30
0.0
 40
0.5
100
AcDbArc
 50
180.0
 51
270.0
  0
LINE
  5
18CBE
330
18C7A
100
AcDbEntity
  8
部品1
 48
0.01
100
AcDbLine
 10
1434.470482677778
 20
1318.993338720063
 30
0.0
 11
1441.014638555061
 21
1318.993338720062
 31
0.0
  0
LINE
  5
18CBF
330
18C7A
100
AcDbEntity
  8
部品1
 48
0.01
100
AcDbLine
 10
1433.970482677778
 20
1320.493338720063
 30
0.0
 11
1433.970482677778
 21
1319.493338720063
 31
0.0
  0
ARC
  5
18CC0
330
18C7A
100
AcDbEntity
  8
部品1
100
AcDbCircle
 10
1441.014638555061
 20
1319.993338720062
 30
0.0
 40
1.0
100
AcDbArc
 50
270.0
 51
19.47122063441346
  0
LINE
  5
18CC1
330
18C7A
100
AcDbEntity
  8
細線
100
AcDbLine
 10
1479.470482677785
 20
1338.493338720065
 30
0.0
 11
1438.470482677785
 21
1338.493338720058
 31
0.0
  0
LINE
  5
18CC2
330
18C7A
100
AcDbEntity
  8
細線
100
AcDbLine
 10
1438.470482677785
 20
1338.493338720058
 30
0.0
 11
1438.470482677785
 21
1320.49333872004
 31
0.0
  0
LINE
  5
18CC3
330
18C7A
100
AcDbEntity
  8
細線
100
AcDbLine
 10
1479.470482677785
 20
1338.493338720065
 30
0.0
 11
1479.470482677785
 21
1320.49333872004
 31
0.0
  0
LINE
  5
18CC4
330
18C7A
100
AcDbEntity
  8
細線
100
AcDbLine
 10
1322.970589276523
 20
1324.494269174465
 30
0.0
 11
1322.970589276523
 21
1320.494269174513
 31
0.0
  0
LINE
  5
18CC5
330
18C7A
100
AcDbEntity
  8
寸法
 48
50.0
100
AcDbLine
 10
1746.17359555837
 20
1170.531020743327
 30
0.0
 11
1694.767587648266
 21
1170.531020743327
 31
0.0
  0
LINE
  5
18CC6
330
18C7A
100
AcDbEntity
  8
寸法
 48
50.0
100
AcDbLine
 10
1694.767587648266
 20
1170.531020743327
 30
0.0
 11
1694.767587648266
 21
1201.841179395494
 31
0.0
  0
LINE
  5
18CC7
330
18C7A
100
AcDbEntity
  8
寸法
 48
50.0
100
AcDbLine
 10
1694.767587648266
 20
1201.841179395494
 30
0.0
 11
1665.006255656843
 21
1201.841179395494
 31
0.0
  0
LINE
  5
18CC8
330
18C7A
100
AcDbEntity
  8
寸法
 48
50.0
100
AcDbLine
 10
1665.006255656843
 20
1201.841179395494
 30
0.0
 11
1720.470591603318
 21
1239.420630324105
 31
0.0
  0
LINE
  5
18CC9
330
18C7A
100
AcDbEntity
  8
寸法
 48
50.0
100
AcDbLine
 10
1775.934927549793
 20
1201.841179395494
 30
0.0
 11
1720.470591603318
 21
1239.420630324105
 31
0.0
  0
LINE
  5
18CCA
330
18C7A
100
AcDbEntity
  8
寸法
 48
50.0
100
AcDbLine
 10
1746.17359555837
 20
1201.841179395494
 30
0.0
 11
1775.934927549793
 21
1201.841179395494
 31
0.0
  0
LINE
  5
18CCB
330
18C7A
100
AcDbEntity
  8
寸法
 48
50.0
100
AcDbLine
 10
1746.17359555837
 20
1170.531020743327
 30
0.0
 11
1746.17359555837
 21
1201.841179395494
 31
0.0
  0
LINE
  5
18CCC
330
18C7A
100
AcDbEntity
  8
寸法
 48
50.0
100
AcDbLine
 10
1694.767587648266
 20
1170.531020743327
 30
0.0
 11
1746.17359555837
 21
1170.531020743327
 31
0.0
  0
LINE
  5
18CCD
330
18C7A
100
AcDbEntity
  8
寸法
 48
50.0
100
AcDbLine
 10
2025.339129835225
 20
1227.676611498152
 30
0.0
 11
2025.339129835225
 21
1174.01297691636
 31
0.0
  0
LINE
  5
18CCE
330
18C7A
100
AcDbEntity
  8
寸法
 48
50.0
100
AcDbLine
 10
2114.623348430647
 20
1203.752977228664
 30
0.0
 11
2025.339129835225
 21
1227.676611498152
 31
0.0
  0
LINE
  5
18CCF
330
18C7A
100
AcDbEntity
  8
寸法
 48
50.0
100
AcDbLine
 10
1895.471408254923
 20
1203.752977228664
 30
0.0
 11
2114.623348430647
 21
1203.752977228664
 31
0.0
  0
DIMENSION
  5
18CD0
330
18C7A
100
AcDbEntity
  8
寸法
 48
50.0
100
AcDbDimension
  2
*D15
 10
2588.970589276523
 20
706.3240511224249
 30
0.0
 11
1969.060022905491
 21
706.3240511224249
 31
0.0
 12
-3742.925985830444
 22
-6453.628869860112
 32
0.0
 70
   128
  1
有効開口部間口\P<>
 71
     5
 42
1266.0
  3
INABA_S40G
100
AcDbAlignedDimension
 13
1322.970589276523
 23
1315.494269174465
 33
0.0
 14
2588.970589276523
 24
1315.494269174465
 34
0.0
100
AcDbRotatedDimension
1001
ACAD
1000
DSTYLE
1002
{
1070
   341
1005
0
1002
}
  0
LINE
  5
18CD1
330
18C7A
100
AcDbEntity
  8
部品1
100
AcDbLine
 10
3409.970589276524
 20
1392.494269174465
 30
0.0
 11
3437.970589276523
 21
1392.494269174465
 31
0.0
  0
DIMENSION
  5
18CD2
330
18C7A
100
AcDbEntity
  8
寸法
100
AcDbDimension
  2
*D16
 10
3674.266172669749
 20
1315.494269174465
 30
0.0
 11
3674.266172669748
 21
1177.494269174462
 31
0.0
 12
-3742.925985830444
 22
-6453.628869860112
 32
0.0
 70
   128
 71
     5
 42
77.0
  3
INABA_S40
100
AcDbAlignedDimension
 13
3437.970589276523
 23
1392.494269174465
 33
0.0
 14
3436.970589276523
 24
1315.494269174465
 34
0.0
 50
90.0
100
AcDbRotatedDimension
1001
ACAD
1000
DSTYLE
1002
{
1070
    41
1040
0.5
1070
    44
1040
1.0
1070
   147
1040
0.8
1070
   271
1070
     2
1070
   272
1070
     2
1070
   289
1070
     3
1070
   340
1005
F706
1070
   343
1005
164B4
1070
   344
1005
164B4
1002
}
  0
LINE
  5
18CD3
330
18C7A
100
AcDbEntity
  8
部品1
100
AcDbLine
 10
3437.970589276523
 20
1315.494269174465
 30
0.0
 11
3437.970589276523
 21
1392.494269174465
 31
0.0
  0
LINE
  5
18CD4
330
18C7A
100
AcDbEntity
  8
部品1
100
AcDbLine
 10
3398.970589276523
 20
1388.494269174465
 30
0.0
 11
3409.970589276524
 21
1388.494269174465
 31
0.0
  0
LINE
  5
18CD5
330
18C7A
100
AcDbEntity
  8
部品1
100
AcDbLine
 10
3407.970589276523
 20
1324.494269174465
 30
0.0
 11
3407.970589276523
 21
1315.494269174465
 31
0.0
  0
LINE
  5
18CD6
330
18C7A
100
AcDbEntity
  8
部品1
100
AcDbLine
 10
3398.970589276523
 20
1324.494269174465
 30
0.0
 11
3407.970589276523
 21
1324.494269174465
 31
0.0
  0
LINE
  5
18CD7
330
18C7A
100
AcDbEntity
  8
部品1
100
AcDbLine
 10
3398.970589276523
 20
1388.494269174465
 30
0.0
 11
3398.970589276523
 21
1324.494269174465
 31
0.0
  0
LINE
  5
18CD8
330
18C7A
100
AcDbEntity
  8
部品1
100
AcDbLine
 10
3409.970589276524
 20
1419.494269174465
 30
0.0
 11
3409.970589276524
 21
1388.494269174465
 31
0.0
  0
LINE
  5
18CD9
330
18C7A
100
AcDbEntity
  8
部品1
100
AcDbLine
 10
1322.970589276523
 20
1388.494269174465
 30
0.0
 11
1311.970589276523
 21
1388.494269174465
 31
0.0
  0
LINE
  5
18CDA
330
18C7A
100
AcDbEntity
  8
部品1
100
AcDbLine
 10
1283.970589276523
 20
1392.494269174465
 30
0.0
 11
1311.970589276523
 21
1392.494269174465
 31
0.0
  0
LINE
  5
18CDB
330
18C7A
100
AcDbEntity
  8
部品1
100
AcDbLine
 10
1313.970589276523
 20
1324.494269174465
 30
0.0
 11
1313.970589276523
 21
1315.494269174465
 31
0.0
  0
LINE
  5
18CDC
330
18C7A
100
AcDbEntity
  8
部品1
100
AcDbLine
 10
1322.970589276523
 20
1324.494269174465
 30
0.0
 11
1313.970589276523
 21
1324.494269174465
 31
0.0
  0
LINE
  5
18CDD
330
18C7A
100
AcDbEntity
  8
部品1
100
AcDbLine
 10
1313.970589276523
 20
1315.494269174465
 30
0.0
 11
1283.970589276523
 21
1315.494269174465
 31
0.0
  0
LINE
  5
18CDE
330
18C7A
100
AcDbEntity
  8
部品1
100
AcDbLine
 10
1283.970589276523
 20
1315.494269174465
 30
0.0
 11
1283.970589276523
 21
1392.494269174465
 31
0.0
  0
LINE
  5
18CDF
330
18C7A
100
AcDbEntity
  8
部品1
100
AcDbLine
 10
1322.970589276523
 20
1388.494269174465
 30
0.0
 11
1322.970589276523
 21
1324.494269174465
 31
0.0
  0
LINE
  5
18CE0
330
18C7A
100
AcDbEntity
  8
部品1
100
AcDbLine
 10
1311.970589276523
 20
1419.494269174462
 30
0.0
 11
1311.970589276523
 21
1388.494269174465
 31
0.0
  0
LINE
  5
18CE1
330
18C7A
100
AcDbEntity
  8
部品1
100
AcDbLine
 10
1311.970589276523
 20
1419.494269174462
 30
0.0
 11
3409.970589276524
 21
1419.494269174465
 31
0.0
  0
LINE
  5
18CE2
330
18C7A
100
AcDbEntity
  8
部品1
100
AcDbLine
 10
3407.970589276523
 20
1315.494269174465
 30
0.0
 11
3437.970589276523
 21
1315.494269174465
 31
0.0
  0
LINE
  5
18CE3
330
18C7A
100
AcDbEntity
  8
部品1
100
AcDbLine
 10
1313.970589276523
 20
1315.494269174465
 30
0.0
 11
3410.970589276523
 21
1315.494269174465
 31
0.0
  0
LINE
  5
18CE4
330
18C7A
100
AcDbEntity
  8
細線
  6
Continuous
 62
     5
100
AcDbLine
 10
2689.970589276527
 20
1354.494269174462
 30
0.0
 11
2689.970589276527
 21
1354.494269174462
 31
0.0
  0
LINE
  5
18CE5
330
18C7A
100
AcDbEntity
  8
細線
  6
Continuous
 62
     5
100
AcDbLine
 10
2682.470589276527
 20
1354.494269174462
 30
0.0
 11
2682.470589276527
 21
1354.494269174462
 31
0.0
  0
LINE
  5
18CE6
330
18C7A
100
AcDbEntity
  8
細線
  6
Continuous
 62
     5
100
AcDbLine
 10
2676.470589276527
 20
1354.494269174462
 30
0.0
 11
2676.470589276527
 21
1354.494269174462
 31
0.0
  0
LINE
  5
18CE7
330
18C7A
100
AcDbEntity
  8
細線
  6
Continuous
 62
     5
100
AcDbLine
 10
2743.970589276527
 20
1373.494269174462
 30
0.0
 11
2743.970589276527
 21
1373.494269174462
 31
0.0
  0
LINE
  5
18CE8
330
18C7A
100
AcDbEntity
  8
細線
 48
50.0
100
AcDbLine
 10
1336.970593930116
 20
1341.094443351418
 30
0.0
 11
1336.970593930113
 21
1349.490593759059
 31
0.0
  0
LINE
  5
18CE9
330
18C7A
100
AcDbEntity
  8
細線
 48
50.0
100
AcDbLine
 10
1336.970593930113
 20
1349.490593759059
 30
0.0
 11
1322.970589276523
 21
1349.490593759057
 31
0.0
  0
LINE
  5
18CEA
330
18C7A
100
AcDbEntity
  8
細線
 48
50.0
100
AcDbLine
 10
2087.970593930113
 20
1337.644443351419
 30
0.0
 11
2087.970593930113
 21
1342.494443351421
 31
0.0
  0
LINE
  5
18CEB
330
18C7A
100
AcDbEntity
  8
細線
 48
50.0
100
AcDbLine
 10
2087.970593930113
 20
1342.494443351421
 30
0.0
 11
2102.970593930113
 21
1342.494443351421
 31
0.0
  0
LINE
  5
18CEC
330
18C7A
100
AcDbEntity
  8
細線
 48
50.0
100
AcDbLine
 10
2102.970593930113
 20
1342.494443351421
 30
0.0
 11
2102.970593930115
 21
1349.494443351419
 31
0.0
  0
LINE
  5
18CED
330
18C7A
100
AcDbEntity
  8
細線
 48
50.0
100
AcDbLine
 10
2102.970593930115
 20
1349.494443351419
 30
0.0
 11
2117.970593930113
 21
1349.494443351419
 31
0.0
  0
LINE
  5
18CEE
330
18C7A
100
AcDbEntity
  8
細線
 48
50.0
100
AcDbLine
 10
2117.970593930113
 20
1349.494443351419
 30
0.0
 11
2117.970593930113
 21
1320.494443351421
 31
0.0
  0
LINE
  5
18CEF
330
18C7A
100
AcDbEntity
  8
細線
 48
50.0
100
AcDbLine
 10
1313.970589276523
 20
1320.491777694889
 30
0.0
 11
1527.970593930113
 21
1320.494460905133
 31
0.0
  0
LINE
  5
18CF0
330
18C7A
100
AcDbEntity
  8
細線
 48
50.0
100
AcDbLine
 10
2017.970593930113
 20
1320.494443351421
 30
0.0
 11
2117.970593930113
 21
1320.494443351421
 31
0.0
  0
LINE
  5
18CF1
330
18C7A
100
AcDbEntity
  8
細線
 48
50.0
100
AcDbLine
 10
1737.970593930113
 20
1320.494443351419
 30
0.0
 11
1807.970593930113
 21
1320.494443351423
 31
0.0
  0
LINE
  5
18CF2
330
18C7A
100
AcDbEntity
  8
細線
 48
50.0
100
AcDbLine
 10
1750.832558942642
 20
1320.494443351419
 30
0.0
 11
1756.588076525309
 21
1338.765294641913
 31
0.0
  0
LINE
  5
18CF3
330
18C7A
100
AcDbEntity
  8
細線
 48
50.0
100
AcDbLine
 10
1756.588076525309
 20
1338.765294641913
 30
0.0
 11
1767.516525005743
 21
1338.765294641911
 31
0.0
  0
ARC
  5
18CF4
330
18C7A
100
AcDbEntity
  8
細線
 48
50.0
100
AcDbCircle
 10
1767.516525005743
 20
1337.765294641911
 30
0.0
 40
1.0
100
AcDbArc
 50
24.62431835207225
 51
90.0
  0
ARC
  5
18CF5
330
18C7A
100
AcDbEntity
  8
細線
 48
50.0
100
AcDbCircle
 10
1778.425237120377
 20
1337.765294641911
 30
0.0
 40
1.0
100
AcDbArc
 50
90.0
 51
155.3756816479277
  0
ARC
  5
18CF6
330
18C7A
100
AcDbEntity
  8
細線
 48
50.0
100
AcDbCircle
 10
1772.970881063058
 20
1340.265294641911
 30
0.0
 40
5.0
100
AcDbArc
 50
204.6243183520723
 51
335.3756816479278
  0
LINE
  5
18CF7
330
18C7A
100
AcDbEntity
  8
細線
 48
50.0
100
AcDbLine
 10
1778.425237120377
 20
1338.765294641911
 30
0.0
 11
1789.35368560081
 21
1338.765294641913
 31
0.0
  0
LINE
  5
18CF8
330
18C7A
100
AcDbEntity
  8
細線
 48
50.0
100
AcDbLine
 10
1789.35368560081
 20
1338.765294641913
 30
0.0
 11
1795.109203183478
 21
1320.494443351423
 31
0.0
  0
LINE
  5
18CF9
330
18C7A
100
AcDbEntity
  8
細線
 48
50.0
100
AcDbLine
 10
2087.970593930113
 20
1341.094443351419
 30
0.0
 11
1336.970593930116
 21
1341.094443351418
 31
0.0
  0
LINE
  5
18CFA
330
18C7A
100
AcDbEntity
  8
細線
 48
50.0
100
AcDbLine
 10
1947.970593930113
 20
1320.494443351421
 30
0.0
 11
1877.970593930113
 21
1320.494443351421
 31
0.0
  0
LINE
  5
18CFB
330
18C7A
100
AcDbEntity
  8
細線
100
AcDbLine
 10
1667.970593930113
 20
1320.494443351421
 30
0.0
 11
1597.970602115529
 21
1320.494443351421
 31
0.0
  0
LINE
  5
18CFC
330
18C7A
100
AcDbEntity
  8
細線
 48
50.0
100
AcDbLine
 10
2741.970584622936
 20
1375.094487209288
 30
0.0
 11
2106.970593930113
 21
1375.094487209284
 31
0.0
  0
LINE
  5
18CFD
330
18C7A
100
AcDbEntity
  8
細線
 48
50.0
100
AcDbLine
 10
2106.970593930113
 20
1371.990637616925
 30
0.0
 11
2106.970593930113
 21
1376.490637616925
 31
0.0
  0
LINE
  5
18CFE
330
18C7A
100
AcDbEntity
  8
細線
 48
50.0
100
AcDbLine
 10
2106.970593930113
 20
1376.490637616925
 30
0.0
 11
2091.970593930113
 21
1376.490637616925
 31
0.0
  0
LINE
  5
18CFF
330
18C7A
100
AcDbEntity
  8
細線
 48
50.0
100
AcDbLine
 10
2091.970593930113
 20
1376.490637616925
 30
0.0
 11
2091.970593930113
 21
1383.490637616927
 31
0.0
  0
LINE
  5
18D00
330
18C7A
100
AcDbEntity
  8
細線
 48
50.0
100
AcDbLine
 10
2091.970593930113
 20
1383.490637616927
 30
0.0
 11
2076.970593930115
 21
1383.490637616924
 31
0.0
  0
LINE
  5
18D01
330
18C7A
100
AcDbEntity
  8
細線
 48
50.0
100
AcDbLine
 10
2076.970593930115
 20
1383.490637616924
 30
0.0
 11
2076.970593930115
 21
1345.890409513813
 31
0.0
  0
LINE
  5
18D02
330
18C7A
100
AcDbEntity
  8
細線
 48
50.0
100
AcDbLine
 10
2076.970593930115
 20
1345.890409513813
 30
0.0
 11
2096.970601231289
 21
1345.890451063353
 31
0.0
  0
LINE
  5
18D03
330
18C7A
100
AcDbEntity
  8
細線
 48
50.0
100
AcDbLine
 10
2096.970556362348
 20
1354.493912699161
 30
0.0
 11
2096.970601231289
 21
1345.890451063353
 31
0.0
  0
LINE
  5
18D04
330
18C7A
100
AcDbEntity
  8
細線
 48
50.0
100
AcDbLine
 10
2741.970584622936
 20
1371.644487209287
 30
0.0
 11
2741.970584622936
 21
1376.494487209284
 31
0.0
  0
LINE
  5
18D05
330
18C7A
100
AcDbEntity
  8
細線
 48
50.0
100
AcDbLine
 10
2741.970584622936
 20
1376.494487209284
 30
0.0
 11
2756.970584622934
 21
1376.494487209285
 31
0.0
  0
LINE
  5
18D06
330
18C7A
100
AcDbEntity
  8
細線
 48
50.0
100
AcDbLine
 10
2756.970584622934
 20
1376.494487209285
 30
0.0
 11
2756.970596256909
 21
1383.494487209331
 31
0.0
  0
LINE
  5
18D07
330
18C7A
100
AcDbEntity
  8
細線
 48
50.0
100
AcDbLine
 10
2756.970596256909
 20
1383.494487209331
 30
0.0
 11
2771.970594427439
 21
1383.494487209329
 31
0.0
  0
LINE
  5
18D08
330
18C7A
100
AcDbEntity
  8
細線
 48
50.0
100
AcDbLine
 10
2771.970594427439
 20
1383.494487209329
 30
0.0
 11
2771.970584125617
 21
1354.494281037055
 31
0.0
  0
LINE
  5
18D09
330
18C7A
100
AcDbEntity
  8
細線
 48
50.0
100
AcDbLine
 10
2458.070304175992
 20
1354.494278397076
 30
0.0
 11
2389.470863838818
 21
1354.494283787084
 31
0.0
  0
LINE
  5
18D0A
330
18C7A
100
AcDbEntity
  8
細線
 48
50.0
100
AcDbLine
 10
2096.970556362348
 20
1354.493912699161
 30
0.0
 11
2108.203245717057
 21
1354.494095652309
 31
0.0
  0
ARC
  5
18D0B
330
18C7A
100
AcDbEntity
  8
細線
 48
50.0
100
AcDbCircle
 10
2114.785538024393
 20
1353.294259565922
 30
0.0
 40
1.8
100
AcDbArc
 50
270.0006665777295
 51
345.000555481349
  0
LINE
  5
18D0C
330
18C7A
100
AcDbEntity
  8
細線
 48
50.0
100
AcDbLine
 10
2116.771971470473
 20
1353.753100023201
 30
0.0
 11
2116.524209028273
 21
1352.828402141094
 31
0.0
  0
LINE
  5
18D0D
330
18C7A
100
AcDbEntity
  8
細線
 48
50.0
100
AcDbLine
 10
2114.785558965548
 20
1351.494259566043
 30
0.0
 11
2111.155631546781
 21
1351.494217335563
 31
0.0
  0
ARC
  5
18D0E
330
18C7A
100
AcDbEntity
  8
細線
 48
50.0
100
AcDbCircle
 10
2111.155610605627
 20
1353.29421733544
 30
0.0
 40
1.8
100
AcDbArc
 50
195.0010443049965
 51
270.0006665777295
  0
LINE
  5
18D0F
330
18C7A
100
AcDbEntity
  8
細線
 48
50.0
100
AcDbLine
 10
2109.169183113368
 20
1353.752932303007
 30
0.0
 11
2109.416952609882
 21
1352.828311364425
 31
0.0
  0
ARC
  5
18D10
330
18C7A
100
AcDbEntity
  8
細線
 48
50.0
100
AcDbCircle
 10
2108.203262004622
 20
1353.494095652444
 30
0.0
 40
1.0
100
AcDbArc
 50
15.00104430499651
 51
90.00093320877969
  0
LINE
  5
18D11
330
18C7A
100
AcDbEntity
  8
細線
 48
50.0
100
AcDbLine
 10
2117.737892825577
 20
1354.494290342714
 30
0.0
 11
2118.679652976481
 21
1354.494296916564
 31
0.0
  0
ARC
  5
18D12
330
18C7A
100
AcDbEntity
  8
細線
 48
50.0
100
AcDbCircle
 10
2117.737899805961
 20
1353.49429034274
 30
0.0
 40
1.0
100
AcDbArc
 50
90.0003999466794
 51
165.000555481349
  0
LINE
  5
18D13
330
18C7A
100
AcDbEntity
  8
細線
 48
50.0
100
AcDbLine
 10
2669.470584622926
 20
1354.494281037055
 30
0.0
 11
2771.970584125617
 21
1354.494281037055
 31
0.0
  0
LINE
  5
18D14
330
18C7A
100
AcDbEntity
  8
細線
 48
50.0
100
AcDbLine
 10
2179.47061994182
 20
1354.494289224422
 30
0.0
 11
2118.370558714898
 21
1354.494296916564
 31
0.0
  0
LINE
  5
18D15
330
18C7A
100
AcDbEntity
  8
細線
 48
50.0
100
AcDbLine
 10
2599.470584622926
 20
1354.494281037057
 30
0.0
 11
2529.470584622926
 21
1354.494281037055
 31
0.0
  0
LINE
  5
18D16
330
18C7A
100
AcDbEntity
  8
細線
 48
50.0
100
AcDbLine
 10
2319.470584622926
 20
1354.494281037054
 30
0.0
 11
2249.470567335051
 21
1354.494281037057
 31
0.0
  0
ARC
  5
18D17
330
18C7A
100
AcDbEntity
  8
細線
 48
50.0
100
AcDbCircle
 10
2756.170589276533
 20
1387.694269174466
 30
0.0
 40
0.8
100
AcDbArc
 50
359.9997333689499
 51
89.99986668437072
  0
ARC
  5
18D18
330
18C7A
100
AcDbEntity
  8
細線
 48
50.0
100
AcDbCircle
 10
2763.770596101631
 20
1387.694280343081
 30
0.0
 40
0.8
100
AcDbArc
 50
90.00014387753465
 51
179.9997333689498
  0
LINE
  5
18D19
330
18C7A
100
AcDbEntity
  8
細線
 48
50.0
100
AcDbLine
 10
2756.170591137969
 20
1388.494269174465
 30
0.0
 11
2750.970589276525
 21
1388.494269174465
 31
0.0
  0
ARC
  5
18D1A
330
18C7A
100
AcDbEntity
  8
細線
 48
50.0
100
AcDbCircle
 10
2757.670589276524
 20
1386.194269174464
 30
0.0
 40
0.7
100
AcDbArc
 50
180.0
 51
270.0
  0
ARC
  5
18D1B
330
18C7A
100
AcDbEntity
  8
細線
 48
50.0
100
AcDbCircle
 10
2762.270589276524
 20
1386.194269174464
 30
0.0
 40
0.7
100
AcDbArc
 50
270.0
 51
0.0
  0
LINE
  5
18D1C
330
18C7A
100
AcDbEntity
  8
細線
 48
50.0
100
AcDbLine
 10
2762.970589276525
 20
1386.194269174464
 30
0.0
 11
2762.970596101639
 21
1387.694284065954
 31
0.0
  0
LINE
  5
18D1D
330
18C7A
100
AcDbEntity
  8
細線
 48
50.0
100
AcDbLine
 10
2757.670589276524
 20
1385.494269174465
 30
0.0
 11
2762.270589276524
 21
1385.494269174465
 31
0.0
  0
LINE
  5
18D1E
330
18C7A
100
AcDbEntity
  8
細線
 48
50.0
100
AcDbLine
 10
2756.970589276525
 20
1387.694269174466
 30
0.0
 11
2756.970589276525
 21
1386.194269174464
 31
0.0
  0
LINE
  5
18D1F
330
18C7A
100
AcDbEntity
  8
細線
 48
50.0
100
AcDbLine
 10
3382.570589276527
 20
1418.494269174465
 30
0.0
 11
2745.970589276525
 21
1418.494269174463
 31
0.0
  0
LINE
  5
18D20
330
18C7A
100
AcDbEntity
  8
細線
 48
50.0
100
AcDbLine
 10
3408.470589276525
 20
1413.494269174467
 30
0.0
 11
3392.570589276527
 21
1413.494269174465
 31
0.0
  0
LINE
  5
18D21
330
18C7A
100
AcDbEntity
  8
細線
 48
50.0
100
AcDbLine
 10
3392.570589276526
 20
1413.494269174465
 30
0.0
 11
3382.570589276527
 21
1418.494269174465
 31
0.0
  0
LINE
  5
18D22
330
18C7A
100
AcDbEntity
  8
細線
100
AcDbLine
 10
2993.470589276525
 20
1388.494269174465
 30
0.0
 11
2993.470589276525
 21
1417.794269174464
 31
0.0
  0
LINE
  5
18D23
330
18C7A
100
AcDbEntity
  8
細線
100
AcDbLine
 10
2993.470589276525
 20
1417.794269174464
 30
0.0
 11
3013.470589276525
 21
1417.794269174464
 31
0.0
  0
LINE
  5
18D24
330
18C7A
100
AcDbEntity
  8
細線
100
AcDbLine
 10
3013.470589276525
 20
1388.494269174465
 30
0.0
 11
3013.470589276525
 21
1417.794269174464
 31
0.0
  0
LINE
  5
18D25
330
18C7A
100
AcDbEntity
  8
細線
100
AcDbLine
 10
3170.720589276524
 20
1388.494269174465
 30
0.0
 11
3100.720589276523
 21
1388.494269174465
 31
0.0
  0
LINE
  5
18D26
330
18C7A
100
AcDbEntity
  8
細線
 48
50.0
100
AcDbLine
 10
2890.720589276525
 20
1388.494269174465
 30
0.0
 11
2763.766368849365
 21
1388.494269174465
 31
0.0
  0
LINE
  5
18D27
330
18C7A
100
AcDbEntity
  8
細線
100
AcDbLine
 10
3030.720589276525
 20
1388.494269174465
 30
0.0
 11
2960.720589276525
 21
1388.494269174465
 31
0.0
  0
LINE
  5
18D28
330
18C7A
100
AcDbEntity
  8
細線
 48
50.0
100
AcDbLine
 10
2750.970589276525
 20
1380.494269174465
 30
0.0
 11
2750.970589276525
 21
1388.494269174465
 31
0.0
  0
LINE
  5
18D29
330
18C7A
100
AcDbEntity
  8
細線
 48
50.0
100
AcDbLine
 10
2730.970589276524
 20
1380.494269174467
 30
0.0
 11
2750.970589276525
 21
1380.494269174465
 31
0.0
  0
LINE
  5
18D2A
330
18C7A
100
AcDbEntity
  8
細線
 48
50.0
100
AcDbLine
 10
2745.970589276525
 20
1418.494269174465
 30
0.0
 11
2745.970589276525
 21
1413.494269174465
 31
0.0
  0
LINE
  5
18D2B
330
18C7A
100
AcDbEntity
  8
細線
 48
50.0
100
AcDbLine
 10
2730.970589276525
 20
1418.494269174463
 30
0.0
 11
2745.970589276525
 21
1418.494269174465
 31
0.0
  0
LINE
  5
18D2C
330
18C7A
100
AcDbEntity
  8
細線
 48
50.0
100
AcDbLine
 10
2730.970589276524
 20
1380.494269174467
 30
0.0
 11
2730.970589276525
 21
1418.494269174463
 31
0.0
  0
LINE
  5
18D2D
330
18C7A
100
AcDbEntity
  8
細線
100
AcDbLine
 10
3398.970589276523
 20
1388.494269174465
 30
0.0
 11
3240.720589276525
 21
1388.494269174465
 31
0.0
  0
LINE
  5
18D2E
330
18C7A
100
AcDbEntity
  8
細線
 48
50.0
100
AcDbLine
 10
3408.470589276525
 20
1413.494269174467
 30
0.0
 11
3408.470589276524
 21
1388.494269174465
 31
0.0
  0
TEXT
  5
18D2F
330
18C7A
100
AcDbEntity
  8
部品1
100
AcDbText
 10
1860.154865991392
 20
46.99880823813145
 30
0.0
 40
135.0
  1
平面図
  7
STYLE2
100
AcDbText
  0
LWPOLYLINE
  5
18D30
330
18C7A
100
AcDbEntity
  8
部品1
100
AcDbPolyline
 90
        4
 70
     1
 43
0.0
 10
1770.23525616235
 20
239.8923374566548
 10
1770.23525616235
 20
0.0000159111223184
 10
2533.705922390791
 20
0.0000159111223184
 10
2533.705922390791
 20
239.8923374566548
  0
LINE
  5
18D31
330
18C7A
100
AcDbEntity
  8
部品1
100
AcDbLine
 10
1534.470589276487
 20
3154.494269174626
 30
0.0
 11
2769.470589276552
 21
3154.494269174626
 31
0.0
  0
LINE
  5
18D32
330
18C7A
100
AcDbEntity
  8
部品1
 48
50.0
100
AcDbLine
 10
1311.970589276523
 20
1420.494269174462
 30
0.0
 11
3411.970589276523
 21
1420.494269174465
 31
0.0
  0
LINE
  5
18D33
330
18C7A
100
AcDbEntity
  8
部品1
 48
50.0
100
AcDbLine
 10
471.9705892765232
 20
1392.494269174465
 30
0.0
 11
1311.970589276523
 21
1392.494269174465
 31
0.0
  0
DIMENSION
  5
18D34
330
18C7A
100
AcDbEntity
  8
寸法
100
AcDbDimension
  2
*D14
 10
2710.234916278077
 20
2488.887829538828
 30
0.0
 11
2338.318822490183
 21
2488.887829538828
 31
0.0
 12
-3742.925985830444
 22
-6453.628869860112
 32
0.0
 70
   128
 71
     5
 42
1231.00000000007
  3
INABA_S40G
100
AcDbAlignedDimension
 13
1536.470589276486
 23
2702.494269174557
 33
0.0
 14
2767.470589276556
 24
2702.494269174549
 34
0.0
100
AcDbRotatedDimension
1001
ACAD
1000
DSTYLE
1002
{
1002
}
  0
LINE
  5
18D35
330
18C7A
100
AcDbEntity
  8
部品1
100
AcDbLine
 10
1536.470589276487
 20
2702.494269174557
 30
0.0
 11
2767.470589276554
 21
2702.494269174615
 31
0.0
  0
LINE
  5
18D36
330
18C7A
100
AcDbEntity
  8
部品1
100
AcDbLine
 10
1536.470589276487
 20
3152.494269174557
 30
0.0
 11
2767.470589276556
 21
3152.494269174615
 31
0.0
  0
LINE
  5
18D37
330
18C7A
100
AcDbEntity
  8
細線
 48
50.0
100
AcDbLine
 10
1508.470589276487
 20
3152.494269174558
 30
0.0
 11
445.4705892765559
 21
2702.494269174509
 31
0.0
  0
LINE
  5
18D38
330
18C7A
100
AcDbEntity
  8
細線
 48
50.0
100
AcDbLine
 10
1508.470589276487
 20
2702.494269174558
 30
0.0
 11
445.4705892765542
 21
3152.494269174509
 31
0.0
  0
LINE
  5
18D39
330
18C7A
100
AcDbEntity
  8
部品1
100
AcDbLine
 10
1556.970589276487
 20
3172.494269174611
 30
0.0
 11
1556.970589276487
 21
3154.494269174611
 31
0.0
  0
LINE
  5
18D3A
330
18C7A
100
AcDbEntity
  8
部品1
100
AcDbLine
 10
1556.970589276487
 20
3172.494269174611
 30
0.0
 11
1550.970589276487
 21
3172.494269174611
 31
0.0
  0
LINE
  5
18D3B
330
18C7A
100
AcDbEntity
  8
部品1
100
AcDbLine
 10
1534.470589276487
 20
3146.494269174608
 30
0.0
 11
1509.470589276487
 21
3146.494269174611
 31
0.0
  0
LINE
  5
18D3C
330
18C7A
100
AcDbEntity
  8
部品1
100
AcDbLine
 10
1486.970589276487
 20
3172.494269174611
 30
0.0
 11
1486.970589276487
 21
3154.494269174611
 31
0.0
  0
LINE
  5
18D3D
330
18C7A
100
AcDbEntity
  8
部品1
100
AcDbLine
 10
1492.970589276487
 20
3172.494269174611
 30
0.0
 11
1486.970589276487
 21
3172.494269174611
 31
0.0
  0
LINE
  5
18D3E
330
18C7A
100
AcDbEntity
  8
部品1
100
AcDbLine
 10
1534.470589276487
 20
2702.494269174615
 30
0.0
 11
1509.470589276487
 21
2702.494269174615
 31
0.0
  0
LINE
  5
18D3F
330
18C7A
100
AcDbEntity
  8
部品1
 48
50.0
100
AcDbLine
 10
1536.470589276487
 20
3152.494269174611
 30
0.0
 11
1536.470589276487
 21
2702.494269174615
 31
0.0
  0
LINE
  5
18D40
330
18C7A
100
AcDbEntity
  8
部品1
 48
50.0
100
AcDbLine
 10
1508.470589276487
 20
3152.494269174607
 30
0.0
 11
1508.470589276487
 21
2702.494269174615
 31
0.0
  0
LINE
  5
18D41
330
18C7A
100
AcDbEntity
  8
部品1
 48
50.0
100
AcDbLine
 10
1534.470589276487
 20
3154.494269174618
 30
0.0
 11
1534.470589276487
 21
2702.494269174615
 31
0.0
  0
LINE
  5
18D42
330
18C7A
100
AcDbEntity
  8
部品1
 48
50.0
100
AcDbLine
 10
1509.470589276487
 20
3154.494269174615
 30
0.0
 11
1509.470589276487
 21
2702.494269174615
 31
0.0
  0
LINE
  5
18D43
330
18C7A
100
AcDbEntity
  8
部品1
100
AcDbLine
 10
3411.970589276556
 20
1392.494269174582
 30
0.0
 11
3411.970589276556
 21
1420.494269174596
 31
0.0
  0
LINE
  5
18D44
330
18C7A
100
AcDbEntity
  8
部品1
100
AcDbLine
 10
1311.970589276523
 20
1392.494269174596
 30
0.0
 11
1311.970589276523
 21
1420.494269174596
 31
0.0
  0
LINE
  5
18D45
330
18C7A
100
AcDbEntity
  8
部品1
100
AcDbLine
 10
891.9705892765232
 20
1392.494269174596
 30
0.0
 11
891.9705892765232
 21
1420.494269174596
 31
0.0
  0
LINE
  5
18D46
330
18C7A
100
AcDbEntity
  8
部品1
100
AcDbLine
 10
3411.97058927652
 20
3182.494269174477
 30
0.0
 11
3411.970589276523
 21
3154.494269174477
 31
0.0
  0
LINE
  5
18D47
330
18C7A
100
AcDbEntity
  8
部品1
100
AcDbLine
 10
2571.97058927652
 20
3182.494269174477
 30
0.0
 11
2571.970589276523
 21
3154.494269174477
 31
0.0
  0
LINE
  5
18D48
330
18C7A
100
AcDbEntity
  8
部品1
100
AcDbLine
 10
2991.97058927652
 20
3182.494269174477
 30
0.0
 11
2991.970589276523
 21
3154.494269174477
 31
0.0
  0
LINE
  5
18D49
330
18C7A
100
AcDbEntity
  8
部品1
100
AcDbLine
 10
2151.970589276519
 20
3182.494269174477
 30
0.0
 11
2151.970589276523
 21
3154.494269174477
 31
0.0
  0
LINE
  5
18D4A
330
18C7A
100
AcDbEntity
  8
部品1
100
AcDbLine
 10
1731.970589276519
 20
3182.494269174477
 30
0.0
 11
1731.970589276523
 21
3154.494269174477
 31
0.0
  0
LINE
  5
18D4B
330
18C7A
100
AcDbEntity
  8
部品1
100
AcDbLine
 10
1311.970589276519
 20
3182.494269174477
 30
0.0
 11
1311.970589276523
 21
3154.494269174477
 31
0.0
  0
LINE
  5
18D4C
330
18C7A
100
AcDbEntity
  8
部品1
100
AcDbLine
 10
891.9705892765195
 20
3182.494269174477
 30
0.0
 11
891.9705892765232
 21
3154.494269174477
 31
0.0
  0
LINE
  5
18D4D
330
18C7A
100
AcDbEntity
  8
部品1
100
AcDbLine
 10
471.9705892765232
 20
1392.494269174596
 30
0.0
 11
471.9705892765232
 21
1420.494269174596
 31
0.0
  0
LINE
  5
18D4E
330
18C7A
100
AcDbEntity
  8
部品1
100
AcDbLine
 10
444.9705892765305
 20
1420.494269174558
 30
0.0
 11
3858.970589276556
 21
1420.494269174596
 31
0.0
  0
LINE
  5
18D4F
330
18C7A
100
AcDbEntity
  8
部品1
100
AcDbLine
 10
3831.970589276556
 20
1392.494269174596
 30
0.0
 11
3831.970589276556
 21
1420.494269174596
 31
0.0
  0
LINE
  5
18D50
330
18C7A
100
AcDbEntity
  8
部品1
100
AcDbLine
 10
3858.970589276556
 20
1447.494269174593
 30
0.0
 11
3886.970589276556
 21
1447.494269174593
 31
0.0
  0
LINE
  5
18D51
330
18C7A
100
AcDbEntity
  8
部品1
100
AcDbLine
 10
3858.970589276556
 20
1867.494269174607
 30
0.0
 11
3886.970589276556
 21
1867.494269174607
 31
0.0
  0
LINE
  5
18D52
330
18C7A
100
AcDbEntity
  8
部品1
100
AcDbLine
 10
444.9705892765305
 20
1867.49426917448
 30
0.0
 11
416.9705892765305
 21
1867.49426917448
 31
0.0
  0
LINE
  5
18D53
330
18C7A
100
AcDbEntity
  8
部品1
100
AcDbLine
 10
3830.470589276541
 20
1867.49426917458
 30
0.0
 11
473.4705892765396
 21
1867.49426917448
 31
0.0
  0
LINE
  5
18D54
330
18C7A
100
AcDbEntity
  8
部品1
100
AcDbLine
 10
3830.470589276541
 20
2287.49426917458
 30
0.0
 11
473.4705892765396
 21
2287.49426917448
 31
0.0
  0
LINE
  5
18D55
330
18C7A
100
AcDbEntity
  8
部品1
100
AcDbLine
 10
444.9705892765305
 20
2287.49426917448
 30
0.0
 11
416.9705892765305
 21
2287.49426917448
 31
0.0
  0
LINE
  5
18D56
330
18C7A
100
AcDbEntity
  8
部品1
100
AcDbLine
 10
3858.970589276556
 20
2287.494269174608
 30
0.0
 11
3886.970589276556
 21
2287.494269174608
 31
0.0
  0
LINE
  5
18D57
330
18C7A
100
AcDbEntity
  8
部品1
 48
50.0
100
AcDbLine
 10
2151.970589276551
 20
2702.494269174586
 30
0.0
 11
2151.970589276581
 21
1448.994269174494
 31
0.0
  0
LINE
  5
18D58
330
18C7A
100
AcDbEntity
  8
破線
 48
10.0
100
AcDbLine
 10
2959.470589276535
 20
1472.494269174522
 30
0.0
 11
2176.970589276532
 21
1472.494269174505
 31
0.0
  0
LINE
  5
18D59
330
18C7A
100
AcDbEntity
  8
破線
 48
10.0
100
AcDbLine
 10
3009.47058927653
 20
1448.994269174509
 30
0.0
 11
3009.47058927653
 21
2702.494269174615
 31
0.0
  0
LINE
  5
18D5A
330
18C7A
100
AcDbEntity
  8
破線
 48
10.0
100
AcDbLine
 10
2959.470589276535
 20
1448.994269174505
 30
0.0
 11
2959.470589276531
 21
2702.494269174615
 31
0.0
  0
LINE
  5
18D5B
330
18C7A
100
AcDbEntity
  8
破線
 48
10.0
100
AcDbLine
 10
1344.47058927653
 20
1448.994269174509
 30
0.0
 11
1344.47058927653
 21
2702.494269174615
 31
0.0
  0
LINE
  5
18D5C
330
18C7A
100
AcDbEntity
  8
破線
 48
10.0
100
AcDbLine
 10
1294.470589276534
 20
1448.994269174505
 30
0.0
 11
1294.47058927653
 21
2702.494269174615
 31
0.0
  0
DIMENSION
  5
18D5D
330
18C7A
100
AcDbEntity
  8
寸法
100
AcDbDimension
  2
*D13
 10
1451.234916278005
 20
2488.887829538828
 30
0.0
 11
916.0604668248634
 21
2488.887829538828
 31
0.0
 12
-3742.925985830444
 22
-6453.628869860112
 32
0.0
 70
   128
 71
     5
 42
1062.99999999993
  3
INABA_S40G
100
AcDbAlignedDimension
 13
445.4705892765559
 23
2702.494269174505
 33
0.0
 14
1508.470589276486
 24
2702.494269174558
 34
0.0
100
AcDbRotatedDimension
1001
ACAD
1000
DSTYLE
1002
{
1002
}
  0
LINE
  5
18D5E
330
18C7A
100
AcDbEntity
  8
破線
 48
10.0
100
AcDbLine
 10
1294.470589276534
 20
1472.494269174469
 30
0.0
 11
496.9705892765414
 21
1472.494269174476
 31
0.0
  0
LINE
  5
18D5F
330
18C7A
100
AcDbEntity
  8
部品1
100
AcDbLine
 10
3831.970589276556
 20
3182.494269174604
 30
0.0
 11
3831.970589276556
 21
3154.494269174604
 31
0.0
  0
LINE
  5
18D60
330
18C7A
100
AcDbEntity
  8
部品1
100
AcDbLine
 10
3831.970589276556
 20
3182.494269174626
 30
0.0
 11
3831.970589276556
 21
3154.494269174626
 31
0.0
  0
LINE
  5
18D61
330
18C7A
100
AcDbEntity
  8
部品1
100
AcDbLine
 10
3858.970589276556
 20
3127.494269174607
 30
0.0
 11
3886.970589276556
 21
3127.494269174607
 31
0.0
  0
LINE
  5
18D62
330
18C7A
100
AcDbEntity
  8
部品1
100
AcDbLine
 10
3858.970589276556
 20
2707.494269174608
 30
0.0
 11
3886.970589276556
 21
2707.494269174608
 31
0.0
  0
LINE
  5
18D63
330
18C7A
100
AcDbEntity
  8
部品1
100
AcDbLine
 10
3858.470589276556
 20
3152.494269174604
 30
0.0
 11
3858.470589276556
 21
2702.494269174608
 31
0.0
  0
LINE
  5
18D64
330
18C7A
100
AcDbEntity
  8
部品1
100
AcDbLine
 10
3886.970589276533
 20
1447.494269174593
 30
0.0
 11
3886.970589276531
 21
1392.494269174596
 31
0.0
  0
LINE
  5
18D65
330
18C7A
100
AcDbEntity
  8
部品1
 48
50.0
100
AcDbLine
 10
3830.470589276556
 20
1448.994269174596
 30
0.0
 11
3858.970589276554
 21
1420.494269174596
 31
0.0
  0
LINE
  5
18D66
330
18C7A
100
AcDbEntity
  8
部品1
100
AcDbLine
 10
3886.970589276531
 20
1392.494269174596
 30
0.0
 11
3835.970589276531
 21
1392.494269174596
 31
0.0
  0
LINE
  5
18D67
330
18C7A
100
AcDbEntity
  8
部品1
100
AcDbLine
 10
3858.970589276533
 20
1447.494269174593
 30
0.0
 11
3886.970589276531
 21
1447.494269174593
 31
0.0
  0
LINE
  5
18D68
330
18C7A
100
AcDbEntity
  8
部品1
100
AcDbLine
 10
3886.970589276556
 20
3182.494269174604
 30
0.0
 11
3886.970589276531
 21
1392.494269174596
 31
0.0
  0
DIMENSION
  5
18D69
330
18C7A
100
AcDbEntity
  8
寸法
100
AcDbDimension
  2
*D12
 10
4534.396935010967
 20
1447.494269174593
 30
0.0
 11
4534.396935010965
 21
2287.4942691746
 31
0.0
 12
-3742.925985830444
 22
-6453.628869860112
 32
0.0
 70
   128
  1
4X420=<>
 71
     5
 42
1680.000000000014
  3
INABA_S40G
100
AcDbAlignedDimension
 13
3886.970589276556
 23
3127.494269174607
 33
0.0
 14
3886.970589276531
 24
1447.494269174593
 34
0.0
 50
90.0
100
AcDbRotatedDimension
1001
ACAD
1000
DSTYLE
1002
{
1002
}
  0
LINE
  5
18D6A
330
18C7A
100
AcDbEntity
  8
部品1
100
AcDbLine
 10
3858.970589276556
 20
3154.494269174604
 30
0.0
 11
3858.970589276534
 21
1420.494269174596
 31
0.0
  0
DIMENSION
  5
18D6B
330
18C7A
100
AcDbEntity
  8
寸法
100
AcDbDimension
  2
*D11
 10
4213.82831513858
 20
2607.276453505718
 30
0.0
 11
4113.828315138579
 21
2832.276453505718
 31
0.0
 12
-3742.925985830444
 22
-6453.628869860112
 32
0.0
 71
     5
 42
449.9999999999963
  3
INABA_S40G
100
AcDbAlignedDimension
 13
3858.470589276556
 23
3152.494269174604
 33
0.0
 14
3858.470589276556
 24
2702.494269174608
 34
0.0
 50
90.0
100
AcDbRotatedDimension
1001
ACAD
1000
DSTYLE
1002
{
1002
}
  0
LINE
  5
18D6C
330
18C7A
100
AcDbEntity
  8
部品1
100
AcDbLine
 10
3830.470589276547
 20
2702.494269174608
 30
0.0
 11
3830.470589276556
 21
1448.994269174596
 31
0.0
  0
LINE
  5
18D6D
330
18C7A
100
AcDbEntity
  8
破線
 48
10.0
100
AcDbLine
 10
3806.970589276549
 20
2702.494269174608
 30
0.0
 11
3806.970589276558
 21
1472.494269174593
 31
0.0
  0
LINE
  5
18D6E
330
18C7A
100
AcDbEntity
  8
部品1
100
AcDbLine
 10
2769.470589276556
 20
3146.494269174608
 30
0.0
 11
2794.470589276556
 21
3146.494269174611
 31
0.0
  0
LINE
  5
18D6F
330
18C7A
100
AcDbEntity
  8
部品1
100
AcDbLine
 10
2810.970589276556
 20
3172.494269174611
 30
0.0
 11
2816.970589276556
 21
3172.494269174611
 31
0.0
  0
LINE
  5
18D70
330
18C7A
100
AcDbEntity
  8
部品1
100
AcDbLine
 10
2816.970589276556
 20
3172.494269174611
 30
0.0
 11
2816.970589276556
 21
3154.494269174611
 31
0.0
  0
LINE
  5
18D71
330
18C7A
100
AcDbEntity
  8
部品1
100
AcDbLine
 10
2746.970589276556
 20
3172.494269174611
 30
0.0
 11
2752.970589276556
 21
3172.494269174611
 31
0.0
  0
LINE
  5
18D72
330
18C7A
100
AcDbEntity
  8
部品1
100
AcDbLine
 10
2746.970589276556
 20
3172.494269174611
 30
0.0
 11
2746.970589276556
 21
3154.494269174611
 31
0.0
  0
LINE
  5
18D73
330
18C7A
100
AcDbEntity
  8
部品1
100
AcDbLine
 10
2769.470589276556
 20
2702.494269174615
 30
0.0
 11
2794.470589276556
 21
2702.494269174615
 31
0.0
  0
LINE
  5
18D74
330
18C7A
100
AcDbEntity
  8
部品1
 48
50.0
100
AcDbLine
 10
2794.470589276556
 20
3154.494269174615
 30
0.0
 11
2794.470589276556
 21
2702.494269174615
 31
0.0
  0
LINE
  5
18D75
330
18C7A
100
AcDbEntity
  8
部品1
 48
50.0
100
AcDbLine
 10
2769.470589276554
 20
3154.494269174618
 30
0.0
 11
2769.470589276556
 21
2702.494269174615
 31
0.0
  0
LINE
  5
18D76
330
18C7A
100
AcDbEntity
  8
部品1
 48
50.0
100
AcDbLine
 10
2795.470589276556
 20
3152.494269174607
 30
0.0
 11
2795.470589276556
 21
2702.494269174615
 31
0.0
  0
LINE
  5
18D77
330
18C7A
100
AcDbEntity
  8
部品1
 48
50.0
100
AcDbLine
 10
2767.470589276556
 20
3152.494269174611
 30
0.0
 11
2767.470589276556
 21
2702.494269174615
 31
0.0
  0
LINE
  5
18D78
330
18C7A
100
AcDbEntity
  8
破線
 48
10.0
100
AcDbLine
 10
2176.97058927653
 20
1448.994269174509
 30
0.0
 11
2176.97058927653
 21
2702.494269174588
 31
0.0
  0
LINE
  5
18D79
330
18C7A
100
AcDbEntity
  8
破線
 48
10.0
100
AcDbLine
 10
2126.970589276534
 20
1448.994269174505
 30
0.0
 11
2126.970589276531
 21
2702.494269174586
 31
0.0
  0
LINE
  5
18D7A
330
18C7A
100
AcDbEntity
  8
部品1
100
AcDbLine
 10
2794.470589276556
 20
3154.494269174622
 30
0.0
 11
3858.970589276556
 21
3154.494269174604
 31
0.0
  0
LINE
  5
18D7B
330
18C7A
100
AcDbEntity
  8
細線
 48
50.0
100
AcDbLine
 10
3858.470589276556
 20
2702.494269174608
 30
0.0
 11
2795.470589276556
 21
3152.494269174607
 31
0.0
  0
LINE
  5
18D7C
330
18C7A
100
AcDbEntity
  8
部品1
100
AcDbLine
 10
2795.470589276555
 20
2702.494269174615
 30
0.0
 11
3858.470589276556
 21
2702.494269174608
 31
0.0
  0
LINE
  5
18D7D
330
18C7A
100
AcDbEntity
  8
部品1
100
AcDbLine
 10
2795.470589276556
 20
3152.494269174611
 30
0.0
 11
3858.470589276556
 21
3152.494269174604
 31
0.0
  0
LINE
  5
18D7E
330
18C7A
100
AcDbEntity
  8
細線
 48
50.0
100
AcDbLine
 10
3858.470589276556
 20
3152.494269174604
 30
0.0
 11
2795.470589276555
 21
2702.494269174615
 31
0.0
  0
DIMENSION
  5
18D7F
330
18C7A
100
AcDbEntity
  8
寸法
100
AcDbDimension
  2
*D10
 10
3801.234916278101
 20
2488.887829538937
 30
0.0
 11
3318.360544398907
 21
2488.887829538937
 31
0.0
 12
-3742.925985830444
 22
-6453.628869860112
 32
0.0
 70
   128
 71
     5
 42
1063.000000000012
  3
INABA_S40G
100
AcDbAlignedDimension
 13
2795.470589276555
 23
2702.494269174615
 33
0.0
 14
3858.470589276567
 24
2702.494269174608
 34
0.0
100
AcDbRotatedDimension
1001
ACAD
1000
DSTYLE
1002
{
1002
}
  0
LINE
  5
18D80
330
18C7A
100
AcDbEntity
  8
破線
 48
10.0
100
AcDbLine
 10
3806.970589276556
 20
1472.494269174594
 30
0.0
 11
3009.47058927653
 21
1472.494269174523
 31
0.0
  0
DIMENSION
  5
18D81
330
18C7A
100
AcDbEntity
  8
寸法
100
AcDbDimension
  2
*D9
 10
4534.396935010941
 20
1392.494269174596
 30
0.0
 11
4534.39693501094
 21
1084.008987800356
 31
0.0
 12
-3742.925985830444
 22
-6453.628869860112
 32
0.0
 70
   128
 71
     5
 42
54.99999999999636
  3
INABA_S40G
100
AcDbAlignedDimension
 13
3886.970589276531
 23
1447.494269174593
 33
0.0
 14
3886.970589276531
 24
1392.494269174596
 34
0.0
 50
90.0
100
AcDbRotatedDimension
1001
ACAD
1000
DSTYLE
1002
{
1002
}
  0
LINE
  5
18D82
330
18C7A
100
AcDbEntity
  8
部品1
100
AcDbLine
 10
471.9705892765196
 20
3182.494269174477
 30
0.0
 11
471.9705892765232
 21
3154.494269174477
 31
0.0
  0
LINE
  5
18D83
330
18C7A
100
AcDbEntity
  8
部品1
100
AcDbLine
 10
471.9705892765559
 20
3182.494269174509
 30
0.0
 11
471.9705892765559
 21
3154.494269174509
 31
0.0
  0
LINE
  5
18D84
330
18C7A
100
AcDbEntity
  8
部品1
100
AcDbLine
 10
444.9705892765232
 20
3127.49426917448
 30
0.0
 11
416.9705892765232
 21
3127.49426917448
 31
0.0
  0
LINE
  5
18D85
330
18C7A
100
AcDbEntity
  8
部品1
100
AcDbLine
 10
444.9705892765305
 20
2707.49426917448
 30
0.0
 11
416.9705892765305
 21
2707.49426917448
 31
0.0
  0
LINE
  5
18D86
330
18C7A
100
AcDbEntity
  8
部品1
 48
50.0
100
AcDbLine
 10
445.4705892765542
 20
3152.494269174506
 30
0.0
 11
445.4705892765559
 21
2702.494269174505
 31
0.0
  0
LINE
  5
18D87
330
18C7A
100
AcDbEntity
  8
部品1
 48
50.0
100
AcDbLine
 10
473.470589276545
 20
1448.994269174573
 30
0.0
 11
444.970589276545
 21
1420.494269174574
 31
0.0
  0
LINE
  5
18D88
330
18C7A
100
AcDbEntity
  8
部品1
100
AcDbLine
 10
471.9705892765232
 20
1392.494269174465
 30
0.0
 11
416.9705892765486
 21
1392.494269174465
 31
0.0
  0
LINE
  5
18D89
330
18C7A
100
AcDbEntity
  8
部品1
100
AcDbLine
 10
444.9705892765305
 20
1447.494269174429
 30
0.0
 11
416.9705892765469
 21
1447.494269174429
 31
0.0
  0
LINE
  5
18D8A
330
18C7A
100
AcDbEntity
  8
部品1
100
AcDbLine
 10
444.9705892765305
 20
1447.494269174465
 30
0.0
 11
416.9705892765469
 21
1447.494269174465
 31
0.0
  0
LINE
  5
18D8B
330
18C7A
100
AcDbEntity
  8
部品1
100
AcDbLine
 10
444.9705892765469
 20
1447.49426917448
 30
0.0
 11
416.9705892765469
 21
1447.49426917448
 31
0.0
  0
LINE
  5
18D8C
330
18C7A
100
AcDbEntity
  8
部品1
100
AcDbLine
 10
416.9705892765469
 20
1447.494269174429
 30
0.0
 11
416.9705892765486
 21
1392.494269174433
 31
0.0
  0
LINE
  5
18D8D
330
18C7A
100
AcDbEntity
  8
部品1
100
AcDbLine
 10
416.9705892765196
 20
3182.494269174477
 30
0.0
 11
416.9705892765486
 21
1392.494269174465
 31
0.0
  0
LINE
  5
18D8E
330
18C7A
100
AcDbEntity
  8
部品1
100
AcDbLine
 10
444.9705892765305
 20
1420.494269174556
 30
0.0
 11
444.9705892765559
 21
3154.494269174509
 31
0.0
  0
LINE
  5
18D8F
330
18C7A
100
AcDbEntity
  8
部品1
100
AcDbLine
 10
473.4705892765323
 20
2702.494269174608
 30
0.0
 11
473.470589276545
 21
1448.994269174571
 31
0.0
  0
LINE
  5
18D90
330
18C7A
100
AcDbEntity
  8
破線
 48
10.0
100
AcDbLine
 10
496.9705892765305
 20
2702.494269174608
 30
0.0
 11
496.9705892765451
 21
1472.494269174476
 31
0.0
  0
DIMENSION
  5
18D91
330
18C7A
100
AcDbEntity
  8
寸法
100
AcDbDimension
  2
*D8
 10
3886.970589276531
 20
410.7433333855515
 30
0.0
 11
2168.197775309287
 21
410.7433333855515
 31
0.0
 12
-3742.925985830444
 22
-6453.628869860112
 32
0.0
 70
   128
 71
     5
 42
3469.999999999982
  3
INABA_S40G
100
AcDbAlignedDimension
 13
416.9705892765486
 23
1392.494269174433
 33
0.0
 14
3886.970589276531
 24
1392.49426917456
 34
0.0
100
AcDbRotatedDimension
1001
ACAD
1000
DSTYLE
1002
{
1070
   341
1005
0
1002
}
  0
LINE
  5
18D92
330
18C7A
100
AcDbEntity
  8
部品1
100
AcDbLine
 10
444.9705892765559
 20
3154.494269174624
 30
0.0
 11
1509.470589276487
 21
3154.494269174626
 31
0.0
  0
LINE
  5
18D93
330
18C7A
100
AcDbEntity
  8
部品1
100
AcDbLine
 10
3886.970589276531
 20
1392.494269174596
 30
0.0
 11
3411.970589276556
 21
1392.494269174582
 31
0.0
  0
LINE
  5
18D94
330
18C7A
100
AcDbEntity
  8
部品1
100
AcDbLine
 10
416.9705892765559
 20
3182.494269174509
 30
0.0
 11
3886.970589276556
 21
3182.494269174604
 31
0.0
  0
LINE
  5
18D95
330
18C7A
100
AcDbEntity
  8
部品1
100
AcDbLine
 10
445.4705892765559
 20
2702.494269174509
 30
0.0
 11
1508.470589276487
 21
2702.494269174558
 31
0.0
  0
LINE
  5
18D96
330
18C7A
100
AcDbEntity
  8
細線
 48
50.0
100
AcDbLine
 10
2767.470589276556
 20
3152.494269174611
 30
0.0
 11
1536.470589276487
 21
2702.494269174558
 31
0.0
  0
LINE
  5
18D97
330
18C7A
100
AcDbEntity
  8
部品1
100
AcDbLine
 10
445.4705892765542
 20
3152.494269174509
 30
0.0
 11
1508.470589276485
 21
3152.494269174558
 31
0.0
  0
LINE
  5
18D98
330
18C7A
100
AcDbEntity
  8
細線
 48
50.0
100
AcDbLine
 10
2767.470589276554
 20
2702.494269174615
 30
0.0
 11
1536.470589276485
 21
3152.494269174558
 31
0.0
  0
LINE
  5
18D99
330
18C7A
100
AcDbEntity
  8
破線
 48
10.0
100
AcDbLine
 10
2126.970589276534
 20
1472.494269174502
 30
0.0
 11
1344.47058927653
 21
1472.494269174473
 31
0.0
  0
LINE
  5
18D9A
330
18C7A
100
AcDbEntity
  8
部品1
100
AcDbLine
 10
3830.470589276556
 20
1448.994269174596
 30
0.0
 11
473.4705892764487
 21
1448.994269174476
 31
0.0
  0
DIMENSION
  5
18D9B
330
18C7A
100
AcDbEntity
  8
寸法
100
AcDbDimension
  2
*D7
 10
471.970589276555
 20
3698.302488799491
 30
0.0
 11
108.4853079022819
 21
3698.302488799491
 31
0.0
 12
-3742.925985830444
 22
-6453.628869860112
 32
0.0
 70
   128
 71
     5
 42
55.00000000003456
  3
INABA_S40G
100
AcDbAlignedDimension
 13
416.9705892765205
 23
3182.494269174509
 33
0.0
 14
471.970589276555
 24
3182.494269174509
 34
0.0
100
AcDbRotatedDimension
1001
ACAD
1000
DSTYLE
1002
{
1002
}
  0
DIMENSION
  5
18D9C
330
18C7A
100
AcDbEntity
  8
寸法
100
AcDbDimension
  2
*D6
 10
4534.396935010967
 20
3127.494269174607
 30
0.0
 11
4534.396935010965
 21
3490.979550548844
 31
0.0
 12
-3742.925985830444
 22
-6453.628869860112
 32
0.0
 70
   128
 71
     5
 42
54.99999999999636
  3
INABA_S40G
100
AcDbAlignedDimension
 13
3886.970589276556
 23
3182.494269174604
 33
0.0
 14
3886.970589276556
 24
3127.494269174607
 34
0.0
 50
90.0
100
AcDbRotatedDimension
1001
ACAD
1000
DSTYLE
1002
{
1002
}
  0
DIMENSION
  5
18D9D
330
18C7A
100
AcDbEntity
  8
寸法
100
AcDbDimension
  2
*D5
 10
3886.970589276556
 20
3698.302488799589
 30
0.0
 11
4195.455870650794
 21
3698.302488799589
 31
0.0
 12
-3742.925985830444
 22
-6453.628869860112
 32
0.0
 70
   128
 71
     5
 42
55.0
  3
INABA_S40G
100
AcDbAlignedDimension
 13
3831.970589276556
 23
3182.494269174604
 33
0.0
 14
3886.970589276556
 24
3182.494269174604
 34
0.0
100
AcDbRotatedDimension
1001
ACAD
1000
DSTYLE
1002
{
1002
}
  0
DIMENSION
  5
18D9E
330
18C7A
100
AcDbEntity
  8
寸法
100
AcDbDimension
  2
*D4
 10
3831.970589276556
 20
3698.302488799607
 30
0.0
 11
2151.970589276555
 21
3698.302488799607
 31
0.0
 12
-3742.925985830444
 22
-6453.628869860112
 32
0.0
 70
   128
  1
8X420=<>
 71
     5
 42
3360.000000000001
  3
INABA_S40G
100
AcDbAlignedDimension
 13
471.970589276555
 23
3182.494269174509
 33
0.0
 14
3831.970589276556
 24
3182.494269174604
 34
0.0
100
AcDbRotatedDimension
1001
ACAD
1000
DSTYLE
1002
{
1002
}
  0
DIMENSION
  5
18D9F
330
18C7A
100
AcDbEntity
  8
寸法
100
AcDbDimension
  2
*D3
 10
4899.503876750603
 20
1392.494269174596
 30
0.0
 11
4899.503876750601
 21
2287.4942691746
 31
0.0
 12
-3742.925985830444
 22
-6453.628869860112
 32
0.0
 70
   128
 71
     5
 42
1790.000000000007
  3
INABA_S40G
100
AcDbAlignedDimension
 13
3886.970589276556
 23
3182.494269174604
 33
0.0
 14
3886.970589276531
 24
1392.494269174596
 34
0.0
 50
90.0
100
AcDbRotatedDimension
1001
ACAD
1000
DSTYLE
1002
{
1002
}
  0
ENDBLK
  5
18DA1
330
18C7A
100
AcDbEntity
  8
0
 48
50.0
100
AcDbBlockEnd
  0
BLOCK
  5
1C4CB
330
1C4CA
100
AcDbEntity
  8
0
 48
50.0
100
AcDbBlockBegin
  2
_NONE
 70
     0
 10
0.0
 20
0.0
 30
0.0
  3
_NONE
  1

  0
CIRCLE
  5
1C4CC
330
1C4CA
100
AcDbEntity
  8
0
  6
ByBlock
 62
     0
 48
50.0
100
AcDbCircle
 10
0.0
 20
0.0
 30
0.0
 40
0.25
  0
ENDBLK
  5
1C4CD
330
1C4CA
100
AcDbEntity
  8
0
 48
50.0
100
AcDbBlockEnd
  0
BLOCK
  5
20DEE
330
20DE2
100
AcDbEntity
  8
0
 48
50.0
100
AcDbBlockBegin
  2
*D19
 70
     1
 10
0.0
 20
0.0
 30
0.0
  3
*D19
  1

  0
LINE
  5
2363E
330
20DE2
100
AcDbEntity
  8
寸法
 62
     0
 48
50.0
370
    -2
100
AcDbLine
 10
9458.6
 20
7547.069485050446
 30
0.0
 11
9458.6
 21
8545.289807109368
 31
0.0
  0
LINE
  5
2363F
330
20DE2
100
AcDbEntity
  8
寸法
 62
     0
 48
50.0
370
    -2
100
AcDbLine
 10
9503.6
 20
8273.335943144358
 30
0.0
 11
9503.6
 21
8545.289807109368
 31
0.0
  0
LINE
  5
23640
330
20DE2
100
AcDbEntity
  8
寸法
 62
     0
 48
50.0
370
    -2
100
AcDbLine
 10
9458.6
 20
8485.289807109367
 30
0.0
 11
9358.6
 21
8485.289807109367
 31
0.0
  0
LINE
  5
23641
330
20DE2
100
AcDbEntity
  8
寸法
 62
     0
 48
50.0
370
    -2
100
AcDbLine
 10
9503.6
 20
8485.289807109367
 30
0.0
 11
9840.949242404919
 21
8485.289807109367
 31
0.0
  0
LINE
  5
23642
330
20DE2
100
AcDbEntity
  8
寸法
 62
     0
 48
50.0
370
    -2
100
AcDbLine
 10
9458.6
 20
8485.289807109367
 30
0.0
 11
9503.6
 21
8485.289807109367
 31
0.0
  0
INSERT
  5
23643
330
20DE2
100
AcDbEntity
  8
寸法
 62
     0
 48
50.0
370
    -2
100
AcDbBlockReference
  2
_DOTSMALL
 10
9458.6
 20
8485.289807109367
 30
0.0
 41
100.0
 42
100.0
 43
100.0
  0
INSERT
  5
23644
330
20DE2
100
AcDbEntity
  8
寸法
 62
     0
 48
50.0
370
    -2
100
AcDbBlockReference
  2
_DOTSMALL
 10
9503.6
 20
8485.289807109367
 30
0.0
 41
100.0
 42
100.0
 43
100.0
 50
180.0
  0
MTEXT
  5
23645
330
20DE2
100
AcDbEntity
  8
寸法
 62
     7
 48
50.0
100
AcDbMText
 10
9774.77462120246
 20
8585.289807109367
 30
0.0
 40
120.0
 41
0.0
 71
     5
 72
     1
  1
\A1;a
  7
STYLE1
 73
     1
 44
1.0
1001
ACAD
1000
MTEXTBEGIN
1070
    73
1070
     1
1070
    44
1040
1.0
1070
    74
1070
     0
1000
MTEXTEND
  0
POINT
  5
23646
330
20DE2
100
AcDbEntity
  8
DEFPOINTS
 62
     0
 48
50.0
100
AcDbPoint
 10
9458.6
 20
7527.069485050446
 30
0.0
  0
POINT
  5
23647
330
20DE2
100
AcDbEntity
  8
DEFPOINTS
 62
     0
 48
50.0
100
AcDbPoint
 10
9503.6
 20
8253.335943144357
 30
0.0
  0
POINT
  5
23648
330
20DE2
100
AcDbEntity
  8
DEFPOINTS
 62
     0
 48
50.0
100
AcDbPoint
 10
9503.6
 20
8485.289807109367
 30
0.0
  0
ENDBLK
  5
20DEF
330
20DE2
100
AcDbEntity
  8
0
 48
50.0
100
AcDbBlockEnd
  0
BLOCK
  5
20E08
330
20DFC
100
AcDbEntity
  8
0
 48
50.0
100
AcDbBlockBegin
  2
*D20
 70
     1
 10
0.0
 20
0.0
 30
0.0
  3
*D20
  1

  0
LINE
  5
23673
330
20DFC
100
AcDbEntity
  8
寸法
 62
     0
 48
50.0
370
    -2
100
AcDbLine
 10
6943.600000000003
 20
8273.335943144358
 30
0.0
 11
6943.600000000003
 21
8545.289807109366
 31
0.0
  0
LINE
  5
23674
330
20DFC
100
AcDbEntity
  8
寸法
 62
     0
 48
50.0
370
    -2
100
AcDbLine
 10
6988.600000000001
 20
7547.069485050444
 30
0.0
 11
6988.600000000001
 21
8545.289807109366
 31
0.0
  0
LINE
  5
23675
330
20DFC
100
AcDbEntity
  8
寸法
 62
     0
 48
50.0
370
    -2
100
AcDbLine
 10
6988.600000000001
 20
8485.289807109365
 30
0.0
 11
7088.600000000001
 21
8485.289807109365
 31
0.0
  0
LINE
  5
23676
330
20DFC
100
AcDbEntity
  8
寸法
 62
     0
 48
50.0
370
    -2
100
AcDbLine
 10
6943.600000000003
 20
8485.289807109365
 30
0.0
 11
6606.250757595083
 21
8485.289807109365
 31
0.0
  0
LINE
  5
23677
330
20DFC
100
AcDbEntity
  8
寸法
 62
     0
 48
50.0
370
    -2
100
AcDbLine
 10
6988.600000000001
 20
8485.289807109365
 30
0.0
 11
6943.600000000003
 21
8485.289807109365
 31
0.0
  0
INSERT
  5
23678
330
20DFC
100
AcDbEntity
  8
寸法
 62
     0
 48
50.0
370
    -2
100
AcDbBlockReference
  2
_DOTSMALL
 10
6988.600000000001
 20
8485.289807109365
 30
0.0
 41
100.0
 42
100.0
 43
100.0
 50
180.0
  0
INSERT
  5
23679
330
20DFC
100
AcDbEntity
  8
寸法
 62
     0
 48
50.0
370
    -2
100
AcDbBlockReference
  2
_DOTSMALL
 10
6943.600000000003
 20
8485.289807109365
 30
0.0
 41
100.0
 42
100.0
 43
100.0
  0
MTEXT
  5
2367A
330
20DFC
100
AcDbEntity
  8
寸法
 62
     7
 48
50.0
100
AcDbMText
 10
6672.425378797541
 20
8585.289807109367
 30
0.0
 40
120.0
 41
0.0
 71
     5
 72
     1
  1
\A1;a
  7
STYLE1
 73
     1
 44
1.0
1001
ACAD
1000
MTEXTBEGIN
1070
    73
1070
     1
1070
    44
1040
1.0
1070
    74
1070
     0
1000
MTEXTEND
  0
POINT
  5
2367B
330
20DFC
100
AcDbEntity
  8
DEFPOINTS
 62
     0
 48
50.0
100
AcDbPoint
 10
6943.600000000003
 20
8253.335943144357
 30
0.0
  0
POINT
  5
2367C
330
20DFC
100
AcDbEntity
  8
DEFPOINTS
 62
     0
 48
50.0
100
AcDbPoint
 10
6988.600000000001
 20
7527.069485050444
 30
0.0
  0
POINT
  5
2367D
330
20DFC
100
AcDbEntity
  8
DEFPOINTS
 62
     0
 48
50.0
100
AcDbPoint
 10
6988.600000000001
 20
8485.289807109365
 30
0.0
  0
ENDBLK
  5
20E09
330
20DFC
100
AcDbEntity
  8
0
 48
50.0
100
AcDbBlockEnd
  0
BLOCK
  5
2274E
330
22742
100
AcDbEntity
  8
0
 48
50.0
100
AcDbBlockBegin
  2
*D25
 70
     1
 10
0.0
 20
0.0
 30
0.0
  3
*D25
  1

  0
LINE
  5
23689
330
22742
100
AcDbEntity
  8
寸法
 62
     0
 48
50.0
370
    -2
100
AcDbLine
 10
6345.665006330071
 20
7602.069485050463
 30
0.0
 11
6053.721909610675
 21
7602.069485050463
 31
0.0
  0
LINE
  5
2368A
330
22742
100
AcDbEntity
  8
寸法
 62
     0
 48
50.0
370
    -2
100
AcDbLine
 10
6968.600000000001
 20
7527.069485050444
 30
0.0
 11
6053.721909610675
 21
7527.069485050446
 31
0.0
  0
LINE
  5
2368B
330
22742
100
AcDbEntity
  8
寸法
 62
     0
 48
50.0
370
    -2
100
AcDbLine
 10
6113.721909610674
 20
7602.069485050463
 30
0.0
 11
6113.721909610674
 21
7702.069485050464
 31
0.0
  0
LINE
  5
2368C
330
22742
100
AcDbEntity
  8
寸法
 62
     0
 48
50.0
370
    -2
100
AcDbLine
 10
6113.721909610674
 20
7527.069485050446
 30
0.0
 11
6113.721909610674
 21
7427.069485050445
 31
0.0
  0
LINE
  5
2368D
330
22742
100
AcDbEntity
  8
寸法
 62
     0
 48
50.0
370
    -2
100
AcDbLine
 10
6113.721909610674
 20
7602.069485050463
 30
0.0
 11
6113.721909610674
 21
7527.069485050446
 31
0.0
  0
INSERT
  5
2368E
330
22742
100
AcDbEntity
  8
寸法
 62
     0
 48
50.0
370
    -2
100
AcDbBlockReference
  2
_DOTSMALL
 10
6113.721909610674
 20
7602.069485050463
 30
0.0
 41
100.0
 42
100.0
 43
100.0
 50
270.0
  0
INSERT
  5
2368F
330
22742
100
AcDbEntity
  8
寸法
 62
     0
 48
50.0
370
    -2
100
AcDbBlockReference
  2
_DOTSMALL
 10
6113.721909610674
 20
7527.069485050446
 30
0.0
 41
100.0
 42
100.0
 43
100.0
 50
90.0
  0
MTEXT
  5
23690
330
22742
100
AcDbEntity
  8
寸法
 62
     7
 48
50.0
100
AcDbMText
 10
6013.721909610674
 20
7564.569485050455
 30
0.0
 40
120.0
 41
0.0
 71
     5
 72
     1
  1
\A1;c
  7
STYLE1
 11
0.0000000000000001
 21
1.0
 31
0.0
 73
     1
 44
1.0
1001
ACAD
1000
MTEXTBEGIN
1070
    73
1070
     1
1070
    44
1040
1.0
1070
    74
1070
     0
1000
MTEXTEND
  0
POINT
  5
23691
330
22742
100
AcDbEntity
  8
DEFPOINTS
 62
     0
 48
50.0
100
AcDbPoint
 10
6365.665006330072
 20
7602.069485050463
 30
0.0
  0
POINT
  5
23692
330
22742
100
AcDbEntity
  8
DEFPOINTS
 62
     0
 48
50.0
100
AcDbPoint
 10
6988.600000000001
 20
7527.069485050444
 30
0.0
  0
POINT
  5
23693
330
22742
100
AcDbEntity
  8
DEFPOINTS
 62
     0
 48
50.0
100
AcDbPoint
 10
6113.721909610674
 20
7527.069485050446
 30
0.0
  0
ENDBLK
  5
2274F
330
22742
100
AcDbEntity
  8
0
 48
50.0
100
AcDbBlockEnd
  0
BLOCK
  5
22768
330
2275C
100
AcDbEntity
  8
0
 48
50.0
100
AcDbBlockBegin
  2
*D26
 70
     1
 10
0.0
 20
0.0
 30
0.0
  3
*D26
  1

  0
LINE
  5
2367E
330
2275C
100
AcDbEntity
  8
寸法
 62
     0
 48
50.0
370
    -2
100
AcDbLine
 10
6968.600000000001
 20
6147.06948505043
 30
0.0
 11
6053.721909610676
 21
6147.069485050431
 31
0.0
  0
LINE
  5
2367F
330
2275C
100
AcDbEntity
  8
寸法
 62
     0
 48
50.0
370
    -2
100
AcDbLine
 10
6345.665006330073
 20
6092.069485050471
 30
0.0
 11
6053.721909610675
 21
6092.069485050472
 31
0.0
  0
LINE
  5
23680
330
2275C
100
AcDbEntity
  8
寸法
 62
     0
 48
50.0
370
    -2
100
AcDbLine
 10
6113.721909610675
 20
6147.069485050431
 30
0.0
 11
6113.721909610675
 21
6247.069485050431
 31
0.0
  0
LINE
  5
23681
330
2275C
100
AcDbEntity
  8
寸法
 62
     0
 48
50.0
370
    -2
100
AcDbLine
 10
6113.721909610674
 20
6092.069485050472
 30
0.0
 11
6113.721909610674
 21
5992.069485050471
 31
0.0
  0
LINE
  5
23682
330
2275C
100
AcDbEntity
  8
寸法
 62
     0
 48
50.0
370
    -2
100
AcDbLine
 10
6113.721909610675
 20
6147.069485050431
 30
0.0
 11
6113.721909610674
 21
6092.069485050472
 31
0.0
  0
INSERT
  5
23683
330
2275C
100
AcDbEntity
  8
寸法
 62
     0
 48
50.0
370
    -2
100
AcDbBlockReference
  2
_DOTSMALL
 10
6113.721909610675
 20
6147.069485050431
 30
0.0
 41
100.0
 42
100.0
 43
100.0
 50
270.0
  0
INSERT
  5
23684
330
2275C
100
AcDbEntity
  8
寸法
 62
     0
 48
50.0
370
    -2
100
AcDbBlockReference
  2
_DOTSMALL
 10
6113.721909610674
 20
6092.069485050472
 30
0.0
 41
100.0
 42
100.0
 43
100.0
 50
90.0
  0
MTEXT
  5
23685
330
2275C
100
AcDbEntity
  8
寸法
 62
     7
 48
50.0
100
AcDbMText
 10
6013.721909610674
 20
6119.569485050451
 30
0.0
 40
120.0
 41
0.0
 71
     5
 72
     1
  1
\A1;b
  7
STYLE1
 11
0.0000000000000001
 21
1.0
 31
0.0
 73
     1
 44
1.0
1001
ACAD
1000
MTEXTBEGIN
1070
    73
1070
     1
1070
    44
1040
1.0
1070
    74
1070
     0
1000
MTEXTEND
  0
POINT
  5
23686
330
2275C
100
AcDbEntity
  8
DEFPOINTS
 62
     0
 48
50.0
100
AcDbPoint
 10
6988.600000000001
 20
6147.06948505043
 30
0.0
  0
POINT
  5
23687
330
2275C
100
AcDbEntity
  8
DEFPOINTS
 62
     0
 48
50.0
100
AcDbPoint
 10
6365.665006330073
 20
6092.069485050471
 30
0.0
  0
POINT
  5
23688
330
2275C
100
AcDbEntity
  8
DEFPOINTS
 62
     0
 48
50.0
100
AcDbPoint
 10
6113.721909610674
 20
6092.069485050472
 30
0.0
  0
ENDBLK
  5
22769
330
2275C
100
AcDbEntity
  8
0
 48
50.0
100
AcDbBlockEnd
  0
BLOCK
  5
22B08
330
22AFD
100
AcDbEntity
  8
0
 48
50.0
100
AcDbBlockBegin
  2
*D27
 70
     1
 10
0.0
 20
0.0
 30
0.0
  3
*D27
  1

  0
LINE
  5
23AC0
330
22AFD
100
AcDbEntity
  8
寸法
 62
     0
 48
50.0
370
    -2
100
AcDbLine
 10
9458.6
 20
7226.225276361926
 30
0.0
 11
9458.6
 21
7169.232012323092
 31
0.0
  0
LINE
  5
23AC1
330
22AFD
100
AcDbEntity
  8
寸法
 62
     0
 48
50.0
370
    -2
100
AcDbLine
 10
9338.600000000001
 20
7249.232012323092
 30
0.0
 11
9338.600000000001
 21
7289.232012323093
 31
0.0
  0
LINE
  5
23AC2
330
22AFD
100
AcDbEntity
  8
寸法
 62
     0
 48
50.0
370
    -2
100
AcDbLine
 10
9338.600000000001
 20
7229.232012323094
 30
0.0
 11
9458.6
 21
7229.232012323094
 31
0.0
  0
LINE
  5
23AC3
330
22AFD
100
AcDbEntity
  8
寸法
 62
     0
 48
50.0
370
    -2
100
AcDbLine
 10
9458.6
 20
7229.232012323094
 30
0.0
 11
9864.706299212599
 21
7229.232012323094
 31
0.0
  0
INSERT
  5
23AC4
330
22AFD
100
AcDbEntity
  8
寸法
 62
     0
 48
50.0
370
    -2
100
AcDbBlockReference
  2
_DOTSMALL
 10
9338.600000000001
 20
7229.232012323094
 30
0.0
 41
100.0
 42
100.0
 43
100.0
 50
180.0
  0
INSERT
  5
23AC5
330
22AFD
100
AcDbEntity
  8
寸法
 62
     0
 48
50.0
370
    -2
100
AcDbBlockReference
  2
_DOTSMALL
 10
9458.6
 20
7229.232012323094
 30
0.0
 41
100.0
 42
100.0
 43
100.0
  0
MTEXT
  5
23AC6
330
22AFD
100
AcDbEntity
  8
寸法
 62
     7
 48
50.0
100
AcDbMText
 10
9728.659055118111
 20
7329.243823346715
 30
0.0
 40
120.0
 41
0.0
 71
     5
 72
     1
  1
\A1;120
  7
STYLE1
 73
     1
 44
1.0
1001
ACAD
1000
MTEXTBEGIN
1070
    73
1070
     1
1070
    44
1040
1.0
1070
    74
1070
     0
1000
MTEXTEND
  0
POINT
  5
23AC7
330
22AFD
100
AcDbEntity
  8
DEFPOINTS
 62
     0
 48
50.0
100
AcDbPoint
 10
9458.6
 20
7246.225276361926
 30
0.0
  0
POINT
  5
23AC8
330
22AFD
100
AcDbEntity
  8
DEFPOINTS
 62
     0
 48
50.0
100
AcDbPoint
 10
9338.600000000001
 20
7229.232012323094
 30
0.0
  0
POINT
  5
23AC9
330
22AFD
100
AcDbEntity
  8
DEFPOINTS
 62
     0
 48
50.0
100
AcDbPoint
 10
9338.600000000001
 20
7229.232012323094
 30
0.0
  0
ENDBLK
  5
22B09
330
22AFD
100
AcDbEntity
  8
0
 48
50.0
100
AcDbBlockEnd
  0
BLOCK
  5
22B15
330
22B0A
100
AcDbEntity
  8
0
 48
50.0
100
AcDbBlockBegin
  2
*D28
 70
     1
 10
0.0
 20
0.0
 30
0.0
  3
*D28
  1

  0
LINE
  5
236F2
330
22B0A
100
AcDbEntity
  8
寸法
 62
     0
 48
50.0
370
    -2
100
AcDbLine
 10
8944.534750000405
 20
6427.069485050461
 30
0.0
 11
8825.469500000812
 21
6427.069485050461
 31
0.0
  0
LINE
  5
236F3
330
22B0A
100
AcDbEntity
  8
寸法
 62
     0
 48
50.0
370
    -2
100
AcDbLine
 10
8944.534750000411
 20
6147.069485050472
 30
0.0
 11
8825.469500000812
 21
6147.069485050472
 31
0.0
  0
LINE
  5
236F4
330
22B0A
100
AcDbEntity
  8
寸法
 62
     0
 48
50.0
370
    -2
100
AcDbLine
 10
8885.469500000811
 20
6427.069485050461
 30
0.0
 11
8885.469500000811
 21
6147.069485050472
 31
0.0
  0
LINE
  5
236F5
330
22B0A
100
AcDbEntity
  8
寸法
 62
     0
 48
50.0
370
    -2
100
AcDbLine
 10
8885.469500000811
 20
6147.069485050472
 30
0.0
 11
8885.469500000811
 21
5710.535036231561
 31
0.0
  0
INSERT
  5
236F6
330
22B0A
100
AcDbEntity
  8
寸法
 62
     0
 48
50.0
370
    -2
100
AcDbBlockReference
  2
_DOTSMALL
 10
8885.469500000811
 20
6427.069485050461
 30
0.0
 41
100.0
 42
100.0
 43
100.0
 50
90.0
  0
INSERT
  5
236F7
330
22B0A
100
AcDbEntity
  8
寸法
 62
     0
 48
50.0
370
    -2
100
AcDbBlockReference
  2
_DOTSMALL
 10
8885.469500000811
 20
6147.069485050472
 30
0.0
 41
100.0
 42
100.0
 43
100.0
 50
270.0
  0
MTEXT
  5
236F8
330
22B0A
100
AcDbEntity
  8
寸法
 62
     7
 48
50.0
100
AcDbMText
 10
8785.457688977187
 20
5860.105902373295
 30
0.0
 40
120.0
 41
0.0
 71
     5
 72
     1
  1
\A1;280
  7
STYLE1
 11
0.0000000000000001
 21
1.0
 31
0.0
 73
     1
 44
1.0
1001
ACAD
1000
MTEXTBEGIN
1070
    73
1070
     1
1070
    44
1040
1.0
1070
    74
1070
     0
1000
MTEXTEND
  0
POINT
  5
236F9
330
22B0A
100
AcDbEntity
  8
DEFPOINTS
 62
     0
 48
50.0
100
AcDbPoint
 10
8964.534750000407
 20
6427.069485050461
 30
0.0
  0
POINT
  5
236FA
330
22B0A
100
AcDbEntity
  8
DEFPOINTS
 62
     0
 48
50.0
100
AcDbPoint
 10
8964.53475000041
 20
6147.069485050472
 30
0.0
  0
POINT
  5
236FB
330
22B0A
100
AcDbEntity
  8
DEFPOINTS
 62
     0
 48
50.0
100
AcDbPoint
 10
8885.469500000811
 20
6147.069485050472
 30
0.0
  0
ENDBLK
  5
22B16
330
22B0A
100
AcDbEntity
  8
0
 48
50.0
100
AcDbBlockEnd
  0
BLOCK
  5
22B22
330
22B17
100
AcDbEntity
  8
0
 48
50.0
100
AcDbBlockBegin
  2
*D29
 70
     1
 10
0.0
 20
0.0
 30
0.0
  3
*D29
  1

  0
LINE
  5
23649
330
22B17
100
AcDbEntity
  8
寸法
 62
     0
 48
50.0
370
    -2
100
AcDbLine
 10
8944.534750000411
 20
7527.069485050443
 30
0.0
 11
8825.469500000812
 21
7527.069485050443
 31
0.0
  0
LINE
  5
2364A
330
22B17
100
AcDbEntity
  8
寸法
 62
     0
 48
50.0
370
    -2
100
AcDbLine
 10
8944.534750000411
 20
7327.069485050448
 30
0.0
 11
8825.469500000812
 21
7327.069485050448
 31
0.0
  0
LINE
  5
2364B
330
22B17
100
AcDbEntity
  8
寸法
 62
     0
 48
50.0
370
    -2
100
AcDbLine
 10
8885.469500000811
 20
7327.069485050448
 30
0.0
 11
8885.469500000811
 21
7527.069485050443
 31
0.0
  0
LINE
  5
2364C
330
22B17
100
AcDbEntity
  8
寸法
 62
     0
 48
50.0
370
    -2
100
AcDbLine
 10
8885.469500000811
 20
7527.069485050443
 30
0.0
 11
8885.469500000811
 21
7963.60393386934
 31
0.0
  0
INSERT
  5
2364D
330
22B17
100
AcDbEntity
  8
寸法
 62
     0
 48
50.0
370
    -2
100
AcDbBlockReference
  2
_DOTSMALL
 10
8885.469500000811
 20
7327.069485050448
 30
0.0
 41
100.0
 42
100.0
 43
100.0
 50
270.0
  0
INSERT
  5
2364E
330
22B17
100
AcDbEntity
  8
寸法
 62
     0
 48
50.0
370
    -2
100
AcDbBlockReference
  2
_DOTSMALL
 10
8885.469500000811
 20
7527.069485050443
 30
0.0
 41
100.0
 42
100.0
 43
100.0
 50
90.0
  0
MTEXT
  5
2364F
330
22B17
100
AcDbEntity
  8
寸法
 62
     7
 48
50.0
100
AcDbMText
 10
8785.457688977187
 20
7814.033067727608
 30
0.0
 40
120.0
 41
0.0
 71
     5
 72
     1
  1
\A1;200
  7
STYLE1
 11
0.0000000000000001
 21
1.0
 31
0.0
 73
     1
 44
1.0
1001
ACAD
1000
MTEXTBEGIN
1070
    73
1070
     1
1070
    44
1040
1.0
1070
    74
1070
     0
1000
MTEXTEND
  0
POINT
  5
23650
330
22B17
100
AcDbEntity
  8
DEFPOINTS
 62
     0
 48
50.0
100
AcDbPoint
 10
8964.53475000041
 20
7527.069485050443
 30
0.0
  0
POINT
  5
23651
330
22B17
100
AcDbEntity
  8
DEFPOINTS
 62
     0
 48
50.0
100
AcDbPoint
 10
8964.53475000041
 20
7327.069485050448
 30
0.0
  0
POINT
  5
23652
330
22B17
100
AcDbEntity
  8
DEFPOINTS
 62
     0
 48
50.0
100
AcDbPoint
 10
8885.469500000811
 20
7327.069485050448
 30
0.0
  0
ENDBLK
  5
22B23
330
22B17
100
AcDbEntity
  8
0
 48
50.0
100
AcDbBlockEnd
  0
BLOCK
  5
230E9
330
230DE
100
AcDbEntity
  8
0
 48
50.0
100
AcDbBlockBegin
  2
*D30
 70
     1
 10
0.0
 20
0.0
 30
0.0
  3
*D30
  1

  0
LINE
  5
235CF
330
230DE
100
AcDbEntity
  8
寸法
 62
     0
 48
50.0
370
    -2
100
AcDbLine
 10
6968.600000000001
 20
7527.069485050448
 30
0.0
 11
6305.665006330072
 21
7527.069485050448
 31
0.0
  0
LINE
  5
235D0
330
230DE
100
AcDbEntity
  8
寸法
 62
     0
 48
50.0
370
    -2
100
AcDbLine
 10
7041.600000000001
 20
7404.069485050448
 30
0.0
 11
6305.665006330072
 21
7404.069485050448
 31
0.0
  0
LINE
  5
235D1
330
230DE
100
AcDbEntity
  8
寸法
 62
     0
 48
50.0
370
    -2
100
AcDbLine
 10
6365.665006330072
 20
7404.069485050448
 30
0.0
 11
6365.665006330072
 21
7527.069485050448
 31
0.0
  0
LINE
  5
235D2
330
230DE
100
AcDbEntity
  8
寸法
 62
     0
 48
50.0
370
    -2
100
AcDbLine
 10
6365.665006330072
 20
7527.069485050448
 30
0.0
 11
6365.665006330072
 21
7938.661368142485
 31
0.0
  0
INSERT
  5
235D3
330
230DE
100
AcDbEntity
  8
寸法
 62
     0
 48
50.0
370
    -2
100
AcDbBlockReference
  2
_DOTSMALL
 10
6365.665006330072
 20
7404.069485050448
 30
0.0
 41
100.0
 42
100.0
 43
100.0
 50
270.0
  0
INSERT
  5
235D4
330
230DE
100
AcDbEntity
  8
寸法
 62
     0
 48
50.0
370
    -2
100
AcDbBlockReference
  2
_DOTSMALL
 10
6365.665006330072
 20
7527.069485050448
 30
0.0
 41
100.0
 42
100.0
 43
100.0
 50
90.0
  0
MTEXT
  5
235D5
330
230DE
100
AcDbEntity
  8
寸法
 62
     7
 48
50.0
100
AcDbMText
 10
6265.653195306449
 20
7800.176086768248
 30
0.0
 40
120.0
 41
0.0
 71
     5
 72
     1
  1
\A1;123
  7
STYLE1
 11
0.0000000000000001
 21
1.0
 31
0.0
 73
     1
 44
1.0
1001
ACAD
1000
MTEXTBEGIN
1070
    73
1070
     1
1070
    44
1040
1.0
1070
    74
1070
     0
1000
MTEXTEND
  0
POINT
  5
235D6
330
230DE
100
AcDbEntity
  8
DEFPOINTS
 62
     0
 48
50.0
100
AcDbPoint
 10
6988.600000000001
 20
7527.069485050448
 30
0.0
  0
POINT
  5
235D7
330
230DE
100
AcDbEntity
  8
DEFPOINTS
 62
     0
 48
50.0
100
AcDbPoint
 10
7061.6
 20
7404.069485050448
 30
0.0
  0
POINT
  5
235D8
330
230DE
100
AcDbEntity
  8
DEFPOINTS
 62
     0
 48
50.0
100
AcDbPoint
 10
6365.665006330072
 20
7404.069485050448
 30
0.0
  0
ENDBLK
  5
230EA
330
230DE
100
AcDbEntity
  8
0
 48
50.0
100
AcDbBlockEnd
  0
BLOCK
  5
23103
330
230F8
100
AcDbEntity
  8
0
 48
50.0
100
AcDbBlockBegin
  2
*D31
 70
     1
 10
0.0
 20
0.0
 30
0.0
  3
*D31
  1

  0
LINE
  5
235C5
330
230F8
100
AcDbEntity
  8
寸法
 62
     0
 48
50.0
370
    -2
100
AcDbLine
 10
7111.6
 20
7474.069485050448
 30
0.0
 11
7111.6
 21
8313.335943144359
 31
0.0
  0
LINE
  5
235C6
330
230F8
100
AcDbEntity
  8
寸法
 62
     0
 48
50.0
370
    -2
100
AcDbLine
 10
6988.600000000001
 20
7547.069485050449
 30
0.0
 11
6988.600000000001
 21
8313.335943144359
 31
0.0
  0
LINE
  5
235C7
330
230F8
100
AcDbEntity
  8
寸法
 62
     0
 48
50.0
370
    -2
100
AcDbLine
 10
7111.6
 20
8253.335943144358
 30
0.0
 11
6988.600000000001
 21
8253.335943144358
 31
0.0
  0
LINE
  5
235C8
330
230F8
100
AcDbEntity
  8
寸法
 62
     0
 48
50.0
370
    -2
100
AcDbLine
 10
6988.600000000001
 20
8253.335943144358
 30
0.0
 11
6577.008116907963
 21
8253.335943144358
 31
0.0
  0
INSERT
  5
235C9
330
230F8
100
AcDbEntity
  8
寸法
 62
     0
 48
50.0
370
    -2
100
AcDbBlockReference
  2
_DOTSMALL
 10
7111.6
 20
8253.335943144358
 30
0.0
 41
100.0
 42
100.0
 43
100.0
  0
INSERT
  5
235CA
330
230F8
100
AcDbEntity
  8
寸法
 62
     0
 48
50.0
370
    -2
100
AcDbBlockReference
  2
_DOTSMALL
 10
6988.600000000001
 20
8253.335943144358
 30
0.0
 41
100.0
 42
100.0
 43
100.0
 50
180.0
  0
MTEXT
  5
235CB
330
230F8
100
AcDbEntity
  8
寸法
 62
     7
 48
50.0
100
AcDbMText
 10
6715.493398282203
 20
8353.34775416798
 30
0.0
 40
120.0
 41
0.0
 71
     5
 72
     1
  1
\A1;123
  7
STYLE1
 73
     1
 44
1.0
1001
ACAD
1000
MTEXTBEGIN
1070
    73
1070
     1
1070
    44
1040
1.0
1070
    74
1070
     0
1000
MTEXTEND
  0
POINT
  5
235CC
330
230F8
100
AcDbEntity
  8
DEFPOINTS
 62
     0
 48
50.0
100
AcDbPoint
 10
7111.6
 20
7454.069485050448
 30
0.0
  0
POINT
  5
235CD
330
230F8
100
AcDbEntity
  8
DEFPOINTS
 62
     0
 48
50.0
100
AcDbPoint
 10
6988.600000000001
 20
7527.069485050448
 30
0.0
  0
POINT
  5
235CE
330
230F8
100
AcDbEntity
  8
DEFPOINTS
 62
     0
 48
50.0
100
AcDbPoint
 10
6988.600000000001
 20
8253.335943144358
 30
0.0
  0
ENDBLK
  5
23104
330
230F8
100
AcDbEntity
  8
0
 48
50.0
100
AcDbBlockEnd
  0
BLOCK
  5
23119
330
2310F
100
AcDbEntity
  8
0
 48
50.0
100
AcDbBlockBegin
  2
*D32
 70
     1
 10
0.0
 20
0.0
 30
0.0
  3
*D32
  1

  0
LINE
  5
2370F
330
2310F
100
AcDbEntity
  8
寸法
 62
     0
 48
50.0
370
    -2
100
AcDbLine
 10
9458.6
 20
7547.069485050449
 30
0.0
 11
9458.6
 21
8069.678301720697
 31
0.0
  0
LINE
  5
23710
330
2310F
100
AcDbEntity
  8
寸法
 62
     0
 48
50.0
370
    -2
100
AcDbLine
 10
8633.600000000008
 20
6944.069485050448
 30
0.0
 11
8633.600000000008
 21
8069.678301720697
 31
0.0
  0
LINE
  5
23711
330
2310F
100
AcDbEntity
  8
寸法
 62
     0
 48
50.0
370
    -2
100
AcDbLine
 10
9458.6
 20
8009.678301720695
 30
0.0
 11
8633.600000000008
 21
8009.678301720695
 31
0.0
  0
INSERT
  5
23712
330
2310F
100
AcDbEntity
  8
寸法
 62
     0
 48
50.0
370
    -2
100
AcDbBlockReference
  2
_DOTSMALL
 10
9458.6
 20
8009.678301720695
 30
0.0
 41
100.0
 42
100.0
 43
100.0
  0
INSERT
  5
23713
330
2310F
100
AcDbEntity
  8
寸法
 62
     0
 48
50.0
370
    -2
100
AcDbBlockReference
  2
_DOTSMALL
 10
8633.600000000008
 20
8009.678301720695
 30
0.0
 41
100.0
 42
100.0
 43
100.0
 50
180.0
  0
MTEXT
  5
23714
330
2310F
100
AcDbEntity
  8
寸法
 62
     7
 48
50.0
100
AcDbMText
 10
9046.100000000004
 20
8109.690112744317
 30
0.0
 40
120.0
 41
0.0
 71
     5
 72
     1
  1
\A1;825
  7
STYLE1
 73
     1
 44
1.0
1001
ACAD
1000
MTEXTBEGIN
1070
    73
1070
     1
1070
    44
1040
1.0
1070
    74
1070
     0
1000
MTEXTEND
  0
POINT
  5
23715
330
2310F
100
AcDbEntity
  8
DEFPOINTS
 62
     0
 48
50.0
100
AcDbPoint
 10
9458.6
 20
7527.069485050448
 30
0.0
  0
POINT
  5
23716
330
2310F
100
AcDbEntity
  8
DEFPOINTS
 62
     0
 48
50.0
100
AcDbPoint
 10
8633.600000000008
 20
6924.069485050448
 30
0.0
  0
POINT
  5
23717
330
2310F
100
AcDbEntity
  8
DEFPOINTS
 62
     0
 48
50.0
100
AcDbPoint
 10
8633.600000000008
 20
8009.678301720695
 30
0.0
  0
ENDBLK
  5
2311A
330
2310F
100
AcDbEntity
  8
0
 48
50.0
100
AcDbBlockEnd
  0
BLOCK
  5
23140
330
23135
100
AcDbEntity
  8
0
 48
50.0
100
AcDbBlockBegin
  2
*D33
 70
     1
 10
0.0
 20
0.0
 30
0.0
  3
*D33
  1

  0
LINE
  5
235B2
330
23135
100
AcDbEntity
  8
寸法
 62
     0
 48
50.0
370
    -2
100
AcDbLine
 10
9458.6
 20
7547.069485050449
 30
0.0
 11
9458.6
 21
8313.335943144359
 31
0.0
  0
LINE
  5
235B3
330
23135
100
AcDbEntity
  8
寸法
 62
     0
 48
50.0
370
    -2
100
AcDbLine
 10
9335.600000000001
 20
7474.069485050448
 30
0.0
 11
9335.600000000001
 21
8313.335943144359
 31
0.0
  0
LINE
  5
235B4
330
23135
100
AcDbEntity
  8
寸法
 62
     0
 48
50.0
370
    -2
100
AcDbLine
 10
9335.600000000001
 20
8253.335943144358
 30
0.0
 11
9458.6
 21
8253.335943144358
 31
0.0
  0
LINE
  5
235B5
330
23135
100
AcDbEntity
  8
寸法
 62
     0
 48
50.0
370
    -2
100
AcDbLine
 10
9458.6
 20
8253.335943144358
 30
0.0
 11
9870.191883092036
 21
8253.335943144358
 31
0.0
  0
INSERT
  5
235B6
330
23135
100
AcDbEntity
  8
寸法
 62
     0
 48
50.0
370
    -2
100
AcDbBlockReference
  2
_DOTSMALL
 10
9335.600000000001
 20
8253.335943144358
 30
0.0
 41
100.0
 42
100.0
 43
100.0
 50
180.0
  0
INSERT
  5
235B7
330
23135
100
AcDbEntity
  8
寸法
 62
     0
 48
50.0
370
    -2
100
AcDbBlockReference
  2
_DOTSMALL
 10
9458.6
 20
8253.335943144358
 30
0.0
 41
100.0
 42
100.0
 43
100.0
  0
MTEXT
  5
235B8
330
23135
100
AcDbEntity
  8
寸法
 62
     7
 48
50.0
100
AcDbMText
 10
9731.706601717799
 20
8353.34775416798
 30
0.0
 40
120.0
 41
0.0
 71
     5
 72
     1
  1
\A1;123
  7
STYLE1
 73
     1
 44
1.0
1001
ACAD
1000
MTEXTBEGIN
1070
    73
1070
     1
1070
    44
1040
1.0
1070
    74
1070
     0
1000
MTEXTEND
  0
POINT
  5
235B9
330
23135
100
AcDbEntity
  8
DEFPOINTS
 62
     0
 48
50.0
100
AcDbPoint
 10
9458.6
 20
7527.069485050448
 30
0.0
  0
POINT
  5
235BA
330
23135
100
AcDbEntity
  8
DEFPOINTS
 62
     0
 48
50.0
100
AcDbPoint
 10
9335.600000000001
 20
7454.069485050448
 30
0.0
  0
POINT
  5
235BB
330
23135
100
AcDbEntity
  8
DEFPOINTS
 62
     0
 48
50.0
100
AcDbPoint
 10
9335.600000000001
 20
8253.335943144358
 30
0.0
  0
ENDBLK
  5
23141
330
23135
100
AcDbEntity
  8
0
 48
50.0
100
AcDbBlockEnd
  0
BLOCK
  5
23166
330
2315C
100
AcDbEntity
  8
0
 48
50.0
100
AcDbBlockBegin
  2
*D34
 70
     1
 10
0.0
 20
0.0
 30
0.0
  3
*D34
  1

  0
LINE
  5
23733
330
2315C
100
AcDbEntity
  8
寸法
 62
     0
 48
50.0
370
    -2
100
AcDbLine
 10
7813.600000000008
 20
6944.069485050448
 30
0.0
 11
7813.600000000008
 21
8069.678301720697
 31
0.0
  0
LINE
  5
23734
330
2315C
100
AcDbEntity
  8
寸法
 62
     0
 48
50.0
370
    -2
100
AcDbLine
 10
8633.600000000008
 20
6944.069485050448
 30
0.0
 11
8633.600000000008
 21
8069.678301720697
 31
0.0
  0
LINE
  5
23735
330
2315C
100
AcDbEntity
  8
寸法
 62
     0
 48
50.0
370
    -2
100
AcDbLine
 10
7813.600000000008
 20
8009.678301720695
 30
0.0
 11
8633.600000000008
 21
8009.678301720695
 31
0.0
  0
INSERT
  5
23736
330
2315C
100
AcDbEntity
  8
寸法
 62
     0
 48
50.0
370
    -2
100
AcDbBlockReference
  2
_DOTSMALL
 10
7813.600000000008
 20
8009.678301720695
 30
0.0
 41
100.0
 42
100.0
 43
100.0
 50
180.0
  0
INSERT
  5
23737
330
2315C
100
AcDbEntity
  8
寸法
 62
     0
 48
50.0
370
    -2
100
AcDbBlockReference
  2
_DOTSMALL
 10
8633.600000000008
 20
8009.678301720695
 30
0.0
 41
100.0
 42
100.0
 43
100.0
  0
MTEXT
  5
23738
330
2315C
100
AcDbEntity
  8
寸法
 62
     7
 48
50.0
100
AcDbMText
 10
8223.600000000008
 20
8109.690112744317
 30
0.0
 40
120.0
 41
0.0
 71
     5
 72
     1
  1
\A1;820
  7
STYLE1
 73
     1
 44
1.0
1001
ACAD
1000
MTEXTBEGIN
1070
    73
1070
     1
1070
    44
1040
1.0
1070
    74
1070
     0
1000
MTEXTEND
  0
POINT
  5
23739
330
2315C
100
AcDbEntity
  8
DEFPOINTS
 62
     0
 48
50.0
100
AcDbPoint
 10
7813.600000000008
 20
6924.069485050448
 30
0.0
  0
POINT
  5
2373A
330
2315C
100
AcDbEntity
  8
DEFPOINTS
 62
     0
 48
50.0
100
AcDbPoint
 10
8633.600000000008
 20
6924.069485050448
 30
0.0
  0
POINT
  5
2373B
330
2315C
100
AcDbEntity
  8
DEFPOINTS
 62
     0
 48
50.0
100
AcDbPoint
 10
8633.600000000008
 20
8009.678301720695
 30
0.0
  0
ENDBLK
  5
23167
330
2315C
100
AcDbEntity
  8
0
 48
50.0
100
AcDbBlockEnd
  0
BLOCK
  5
23171
330
23168
100
AcDbEntity
  8
0
 48
50.0
100
AcDbBlockBegin
  2
*D35
 70
     1
 10
0.0
 20
0.0
 30
0.0
  3
*D35
  1

  0
LINE
  5
235EB
330
23168
100
AcDbEntity
  8
寸法
 62
     0
 48
50.0
370
    -2
100
AcDbLine
 10
9335.600000000001
 20
7474.069485050448
 30
0.0
 11
9335.600000000001
 21
8313.335943144359
 31
0.0
  0
LINE
  5
235EC
330
23168
100
AcDbEntity
  8
寸法
 62
     0
 48
50.0
370
    -2
100
AcDbLine
 10
7111.6
 20
7474.069485050448
 30
0.0
 11
7111.6
 21
8313.335943144359
 31
0.0
  0
LINE
  5
235ED
330
23168
100
AcDbEntity
  8
寸法
 62
     0
 48
50.0
370
    -2
100
AcDbLine
 10
9335.600000000001
 20
8253.335943144358
 30
0.0
 11
7111.6
 21
8253.335943144358
 31
0.0
  0
INSERT
  5
235EE
330
23168
100
AcDbEntity
  8
寸法
 62
     0
 48
50.0
370
    -2
100
AcDbBlockReference
  2
_DOTSMALL
 10
9335.600000000001
 20
8253.335943144358
 30
0.0
 41
100.0
 42
100.0
 43
100.0
  0
INSERT
  5
235EF
330
23168
100
AcDbEntity
  8
寸法
 62
     0
 48
50.0
370
    -2
100
AcDbBlockReference
  2
_DOTSMALL
 10
7111.6
 20
8253.335943144358
 30
0.0
 41
100.0
 42
100.0
 43
100.0
 50
180.0
  0
MTEXT
  5
235F0
330
23168
100
AcDbEntity
  8
寸法
 62
     7
 48
50.0
100
AcDbMText
 10
8223.600000000001
 20
8353.34775416798
 30
0.0
 40
120.0
 41
0.0
 71
     5
 72
     1
  1
\A1;2224
  7
STYLE1
 73
     1
 44
1.0
1001
ACAD
1000
MTEXTBEGIN
1070
    73
1070
     1
1070
    44
1040
1.0
1070
    74
1070
     0
1000
MTEXTEND
  0
POINT
  5
235F1
330
23168
100
AcDbEntity
  8
DEFPOINTS
 62
     0
 48
50.0
100
AcDbPoint
 10
9335.600000000001
 20
7454.069485050448
 30
0.0
  0
POINT
  5
235F2
330
23168
100
AcDbEntity
  8
DEFPOINTS
 62
     0
 48
50.0
100
AcDbPoint
 10
7111.6
 20
7454.069485050448
 30
0.0
  0
POINT
  5
235F3
330
23168
100
AcDbEntity
  8
DEFPOINTS
 62
     0
 48
50.0
100
AcDbPoint
 10
7111.6
 20
8253.335943144358
 30
0.0
  0
ENDBLK
  5
23172
330
23168
100
AcDbEntity
  8
0
 48
50.0
100
AcDbBlockEnd
  0
BLOCK
  5
2317D
330
23173
100
AcDbEntity
  8
0
 48
50.0
100
AcDbBlockBegin
  2
*D36
 70
     1
 10
0.0
 20
0.0
 30
0.0
  3
*D36
  1

  0
LINE
  5
235E2
330
23173
100
AcDbEntity
  8
寸法
 62
     0
 48
50.0
370
    -2
100
AcDbLine
 10
6988.600000000001
 20
7547.069485050449
 30
0.0
 11
6988.600000000001
 21
8545.289807109366
 31
0.0
  0
LINE
  5
235E3
330
23173
100
AcDbEntity
  8
寸法
 62
     0
 48
50.0
370
    -2
100
AcDbLine
 10
9458.6
 20
7547.069485050449
 30
0.0
 11
9458.6
 21
8545.289807109366
 31
0.0
  0
LINE
  5
235E4
330
23173
100
AcDbEntity
  8
寸法
 62
     0
 48
50.0
370
    -2
100
AcDbLine
 10
6988.600000000001
 20
8485.289807109365
 30
0.0
 11
9458.6
 21
8485.289807109365
 31
0.0
  0
INSERT
  5
235E5
330
23173
100
AcDbEntity
  8
寸法
 62
     0
 48
50.0
370
    -2
100
AcDbBlockReference
  2
_DOTSMALL
 10
6988.600000000001
 20
8485.289807109365
 30
0.0
 41
100.0
 42
100.0
 43
100.0
 50
180.0
  0
INSERT
  5
235E6
330
23173
100
AcDbEntity
  8
寸法
 62
     0
 48
50.0
370
    -2
100
AcDbBlockReference
  2
_DOTSMALL
 10
9458.6
 20
8485.289807109365
 30
0.0
 41
100.0
 42
100.0
 43
100.0
  0
MTEXT
  5
235E7
330
23173
100
AcDbEntity
  8
寸法
 62
     7
 48
50.0
100
AcDbMText
 10
8223.600000000001
 20
8585.301618132987
 30
0.0
 40
120.0
 41
0.0
 71
     5
 72
     1
  1
\A1;2470
  7
STYLE1
 73
     1
 44
1.0
1001
ACAD
1000
MTEXTBEGIN
1070
    73
1070
     1
1070
    44
1040
1.0
1070
    74
1070
     0
1000
MTEXTEND
  0
POINT
  5
235E8
330
23173
100
AcDbEntity
  8
DEFPOINTS
 62
     0
 48
50.0
100
AcDbPoint
 10
6988.600000000001
 20
7527.069485050448
 30
0.0
  0
POINT
  5
235E9
330
23173
100
AcDbEntity
  8
DEFPOINTS
 62
     0
 48
50.0
100
AcDbPoint
 10
9458.6
 20
7527.069485050448
 30
0.0
  0
POINT
  5
235EA
330
23173
100
AcDbEntity
  8
DEFPOINTS
 62
     0
 48
50.0
100
AcDbPoint
 10
9458.6
 20
8485.289807109365
 30
0.0
  0
ENDBLK
  5
2317E
330
23173
100
AcDbEntity
  8
0
 48
50.0
100
AcDbBlockEnd
  0
BLOCK
  5
23189
330
2317F
100
AcDbEntity
  8
0
 48
50.0
100
AcDbBlockBegin
  2
*D37
 70
     1
 10
0.0
 20
0.0
 30
0.0
  3
*D37
  1

  0
LINE
  5
2372A
330
2317F
100
AcDbEntity
  8
寸法
 62
     0
 48
50.0
370
    -2
100
AcDbLine
 10
7743.600000000007
 20
6874.069485050448
 30
0.0
 11
7411.285990614302
 21
6874.069485050448
 31
0.0
  0
LINE
  5
2372B
330
2317F
100
AcDbEntity
  8
寸法
 62
     0
 48
50.0
370
    -2
100
AcDbLine
 10
7542.765475140901
 20
7527.069485050448
 30
0.0
 11
7411.285990614302
 21
7527.069485050448
 31
0.0
  0
LINE
  5
2372C
330
2317F
100
AcDbEntity
  8
寸法
 62
     0
 48
50.0
370
    -2
100
AcDbLine
 10
7471.285990614302
 20
6874.069485050448
 30
0.0
 11
7471.285990614302
 21
7527.069485050448
 31
0.0
  0
INSERT
  5
2372D
330
2317F
100
AcDbEntity
  8
寸法
 62
     0
 48
50.0
370
    -2
100
AcDbBlockReference
  2
_DOTSMALL
 10
7471.285990614302
 20
6874.069485050448
 30
0.0
 41
100.0
 42
100.0
 43
100.0
 50
270.0
  0
INSERT
  5
2372E
330
2317F
100
AcDbEntity
  8
寸法
 62
     0
 48
50.0
370
    -2
100
AcDbBlockReference
  2
_DOTSMALL
 10
7471.285990614302
 20
7527.069485050448
 30
0.0
 41
100.0
 42
100.0
 43
100.0
 50
90.0
  0
MTEXT
  5
2372F
330
2317F
100
AcDbEntity
  8
寸法
 62
     7
 48
50.0
100
AcDbMText
 10
7371.285990614301
 20
7166.664275744626
 30
0.0
 40
120.0
 41
0.0
 71
     5
 72
     1
  1
\A1;653
  7
STYLE1
 11
0.0000000000000001
 21
1.0
 31
0.0
 73
     1
 44
1.0
1001
ACAD
1000
MTEXTBEGIN
1070
    73
1070
     1
1070
    44
1040
1.0
1070
    74
1070
     0
1000
MTEXTEND
  0
POINT
  5
23730
330
2317F
100
AcDbEntity
  8
DEFPOINTS
 62
     0
 48
50.0
100
AcDbPoint
 10
7763.600000000008
 20
6874.069485050448
 30
0.0
  0
POINT
  5
23731
330
2317F
100
AcDbEntity
  8
DEFPOINTS
 62
     0
 48
50.0
100
AcDbPoint
 10
7562.765475140901
 20
7527.069485050448
 30
0.0
  0
POINT
  5
23732
330
2317F
100
AcDbEntity
  8
DEFPOINTS
 62
     0
 48
50.0
100
AcDbPoint
 10
7471.285990614302
 20
7527.069485050448
 30
0.0
  0
ENDBLK
  5
2318A
330
2317F
100
AcDbEntity
  8
0
 48
50.0
100
AcDbBlockEnd
  0
BLOCK
  5
23195
330
2318B
100
AcDbEntity
  8
0
 48
50.0
100
AcDbBlockBegin
  2
*D38
 70
     1
 10
0.0
 20
0.0
 30
0.0
  3
*D38
  1

  0
LINE
  5
23721
330
2318B
100
AcDbEntity
  8
寸法
 62
     0
 48
50.0
370
    -2
100
AcDbLine
 10
7813.600000000008
 20
6944.069485050448
 30
0.0
 11
7813.600000000008
 21
8069.678301720697
 31
0.0
  0
LINE
  5
23722
330
2318B
100
AcDbEntity
  8
寸法
 62
     0
 48
50.0
370
    -2
100
AcDbLine
 10
6988.600000000001
 20
7547.069485050449
 30
0.0
 11
6988.600000000001
 21
8069.678301720697
 31
0.0
  0
LINE
  5
23723
330
2318B
100
AcDbEntity
  8
寸法
 62
     0
 48
50.0
370
    -2
100
AcDbLine
 10
7813.600000000008
 20
8009.678301720695
 30
0.0
 11
6988.600000000001
 21
8009.678301720695
 31
0.0
  0
INSERT
  5
23724
330
2318B
100
AcDbEntity
  8
寸法
 62
     0
 48
50.0
370
    -2
100
AcDbBlockReference
  2
_DOTSMALL
 10
7813.600000000008
 20
8009.678301720695
 30
0.0
 41
100.0
 42
100.0
 43
100.0
  0
INSERT
  5
23725
330
2318B
100
AcDbEntity
  8
寸法
 62
     0
 48
50.0
370
    -2
100
AcDbBlockReference
  2
_DOTSMALL
 10
6988.600000000001
 20
8009.678301720695
 30
0.0
 41
100.0
 42
100.0
 43
100.0
 50
180.0
  0
MTEXT
  5
23726
330
2318B
100
AcDbEntity
  8
寸法
 62
     7
 48
50.0
100
AcDbMText
 10
7401.100000000004
 20
8109.690112744317
 30
0.0
 40
120.0
 41
0.0
 71
     5
 72
     1
  1
\A1;825
  7
STYLE1
 73
     1
 44
1.0
1001
ACAD
1000
MTEXTBEGIN
1070
    73
1070
     1
1070
    44
1040
1.0
1070
    74
1070
     0
1000
MTEXTEND
  0
POINT
  5
23727
330
2318B
100
AcDbEntity
  8
DEFPOINTS
 62
     0
 48
50.0
100
AcDbPoint
 10
7813.600000000008
 20
6924.069485050448
 30
0.0
  0
POINT
  5
23728
330
2318B
100
AcDbEntity
  8
DEFPOINTS
 62
     0
 48
50.0
100
AcDbPoint
 10
6988.600000000001
 20
7527.069485050448
 30
0.0
  0
POINT
  5
23729
330
2318B
100
AcDbEntity
  8
DEFPOINTS
 62
     0
 48
50.0
100
AcDbPoint
 10
6988.600000000001
 20
8009.678301720695
 30
0.0
  0
ENDBLK
  5
23196
330
2318B
100
AcDbEntity
  8
0
 48
50.0
100
AcDbBlockEnd
  0
BLOCK
  5
231A1
330
23197
100
AcDbEntity
  8
0
 48
50.0
100
AcDbBlockBegin
  2
*D39
 70
     1
 10
0.0
 20
0.0
 30
0.0
  3
*D39
  1

  0
LINE
  5
23610
330
23197
100
AcDbEntity
  8
寸法
 62
     0
 48
50.0
370
    -2
100
AcDbLine
 10
6968.600000000001
 20
7527.069485050448
 30
0.0
 11
6053.721909610675
 21
7527.069485050448
 31
0.0
  0
LINE
  5
23611
330
23197
100
AcDbEntity
  8
寸法
 62
     0
 48
50.0
370
    -2
100
AcDbLine
 10
6968.600000000001
 20
6147.069485050447
 30
0.0
 11
6053.721909610675
 21
6147.069485050448
 31
0.0
  0
LINE
  5
23612
330
23197
100
AcDbEntity
  8
寸法
 62
     0
 48
50.0
370
    -2
100
AcDbLine
 10
6113.721909610674
 20
7527.069485050448
 30
0.0
 11
6113.721909610674
 21
6147.069485050448
 31
0.0
  0
INSERT
  5
23613
330
23197
100
AcDbEntity
  8
寸法
 62
     0
 48
50.0
370
    -2
100
AcDbBlockReference
  2
_DOTSMALL
 10
6113.721909610674
 20
7527.069485050448
 30
0.0
 41
100.0
 42
100.0
 43
100.0
 50
90.0
  0
INSERT
  5
23614
330
23197
100
AcDbEntity
  8
寸法
 62
     0
 48
50.0
370
    -2
100
AcDbBlockReference
  2
_DOTSMALL
 10
6113.721909610674
 20
6147.069485050448
 30
0.0
 41
100.0
 42
100.0
 43
100.0
 50
270.0
  0
MTEXT
  5
23615
330
23197
100
AcDbEntity
  8
寸法
 62
     7
 48
50.0
100
AcDbMText
 10
6013.721909610673
 20
6874.569485050447
 30
0.0
 40
120.0
 41
0.0
 71
     5
 72
     1
  1
\A1;1380
  7
STYLE1
 11
0.0000000000000001
 21
1.0
 31
0.0
 73
     1
 44
1.0
1001
ACAD
1000
MTEXTBEGIN
1070
    73
1070
     1
1070
    44
1040
1.0
1070
    74
1070
     0
1000
MTEXTEND
  0
POINT
  5
23616
330
23197
100
AcDbEntity
  8
DEFPOINTS
 62
     0
 48
50.0
100
AcDbPoint
 10
6988.600000000001
 20
7527.069485050448
 30
0.0
  0
POINT
  5
23617
330
23197
100
AcDbEntity
  8
DEFPOINTS
 62
     0
 48
50.0
100
AcDbPoint
 10
6988.600000000001
 20
6147.069485050447
 30
0.0
  0
POINT
  5
23618
330
23197
100
AcDbEntity
  8
DEFPOINTS
 62
     0
 48
50.0
100
AcDbPoint
 10
6113.721909610674
 20
6147.069485050448
 30
0.0
  0
ENDBLK
  5
231A2
330
23197
100
AcDbEntity
  8
0
 48
50.0
100
AcDbBlockEnd
  0
BLOCK
  5
231AD
330
231A3
100
AcDbEntity
  8
0
 48
50.0
100
AcDbBlockBegin
  2
*D40
 70
     1
 10
0.0
 20
0.0
 30
0.0
  3
*D40
  1

  0
LINE
  5
236B8
330
231A3
100
AcDbEntity
  8
寸法
 62
     0
 48
50.0
370
    -2
100
AcDbLine
 10
7041.600000000001
 20
7404.069485050448
 30
0.0
 11
6305.665006330073
 21
7404.069485050448
 31
0.0
  0
LINE
  5
236B9
330
231A3
100
AcDbEntity
  8
寸法
 62
     0
 48
50.0
370
    -2
100
AcDbLine
 10
7041.600000000008
 20
6345.069485050451
 30
0.0
 11
6305.665006330073
 21
6345.069485050451
 31
0.0
  0
LINE
  5
236BA
330
231A3
100
AcDbEntity
  8
寸法
 62
     0
 48
50.0
370
    -2
100
AcDbLine
 10
6365.665006330073
 20
7404.069485050448
 30
0.0
 11
6365.665006330073
 21
6345.069485050451
 31
0.0
  0
INSERT
  5
236BB
330
231A3
100
AcDbEntity
  8
寸法
 62
     0
 48
50.0
370
    -2
100
AcDbBlockReference
  2
_DOTSMALL
 10
6365.665006330073
 20
7404.069485050448
 30
0.0
 41
100.0
 42
100.0
 43
100.0
 50
90.0
  0
INSERT
  5
236BC
330
231A3
100
AcDbEntity
  8
寸法
 62
     0
 48
50.0
370
    -2
100
AcDbBlockReference
  2
_DOTSMALL
 10
6365.665006330073
 20
6345.069485050451
 30
0.0
 41
100.0
 42
100.0
 43
100.0
 50
270.0
  0
MTEXT
  5
236BD
330
231A3
100
AcDbEntity
  8
寸法
 62
     7
 48
50.0
100
AcDbMText
 10
6265.665006330071
 20
6874.569485050447
 30
0.0
 40
120.0
 41
0.0
 71
     5
 72
     1
  1
\A1;1059
  7
STYLE1
 11
0.0000000000000001
 21
1.0
 31
0.0
 73
     1
 44
1.0
1001
ACAD
1000
MTEXTBEGIN
1070
    73
1070
     1
1070
    44
1040
1.0
1070
    74
1070
     0
1000
MTEXTEND
  0
POINT
  5
236BE
330
231A3
100
AcDbEntity
  8
DEFPOINTS
 62
     0
 48
50.0
100
AcDbPoint
 10
7061.6
 20
7404.069485050448
 30
0.0
  0
POINT
  5
236BF
330
231A3
100
AcDbEntity
  8
DEFPOINTS
 62
     0
 48
50.0
100
AcDbPoint
 10
7061.600000000009
 20
6345.069485050451
 30
0.0
  0
POINT
  5
236C0
330
231A3
100
AcDbEntity
  8
DEFPOINTS
 62
     0
 48
50.0
100
AcDbPoint
 10
6365.665006330073
 20
6345.069485050451
 30
0.0
  0
ENDBLK
  5
231AE
330
231A3
100
AcDbEntity
  8
0
 48
50.0
100
AcDbBlockEnd
  0
BLOCK
  5
231BA
330
231AF
100
AcDbEntity
  8
0
 48
50.0
100
AcDbBlockBegin
  2
*D41
 70
     1
 10
0.0
 20
0.0
 30
0.0
  3
*D41
  1

  0
LINE
  5
236AE
330
231AF
100
AcDbEntity
  8
寸法
 62
     0
 48
50.0
370
    -2
100
AcDbLine
 10
7041.600000000008
 20
6345.069485050451
 30
0.0
 11
6305.665006330073
 21
6345.069485050451
 31
0.0
  0
LINE
  5
236AF
330
231AF
100
AcDbEntity
  8
寸法
 62
     0
 48
50.0
370
    -2
100
AcDbLine
 10
6968.600000000001
 20
6147.069485050447
 30
0.0
 11
6305.665006330073
 21
6147.069485050447
 31
0.0
  0
LINE
  5
236B0
330
231AF
100
AcDbEntity
  8
寸法
 62
     0
 48
50.0
370
    -2
100
AcDbLine
 10
6365.665006330073
 20
6345.069485050451
 30
0.0
 11
6365.665006330073
 21
6147.069485050447
 31
0.0
  0
LINE
  5
236B1
330
231AF
100
AcDbEntity
  8
寸法
 62
     0
 48
50.0
370
    -2
100
AcDbLine
 10
6365.665006330073
 20
6147.069485050447
 30
0.0
 11
6365.665006330072
 21
5675.328876378197
 31
0.0
  0
INSERT
  5
236B2
330
231AF
100
AcDbEntity
  8
寸法
 62
     0
 48
50.0
370
    -2
100
AcDbBlockReference
  2
_DOTSMALL
 10
6365.665006330073
 20
6345.069485050451
 30
0.0
 41
100.0
 42
100.0
 43
100.0
 50
90.0
  0
INSERT
  5
236B3
330
231AF
100
AcDbEntity
  8
寸法
 62
     0
 48
50.0
370
    -2
100
AcDbBlockReference
  2
_DOTSMALL
 10
6365.665006330073
 20
6147.069485050447
 30
0.0
 41
100.0
 42
100.0
 43
100.0
 50
270.0
  0
MTEXT
  5
236B4
330
231AF
100
AcDbEntity
  8
寸法
 62
     7
 48
50.0
100
AcDbMText
 10
6265.665006330071
 20
5811.538536207856
 30
0.0
 40
120.0
 41
0.0
 71
     5
 72
     1
  1
\A1;198
  7
STYLE1
 11
0.0000000000000001
 21
1.0
 31
0.0
 73
     1
 44
1.0
1001
ACAD
1000
MTEXTBEGIN
1070
    73
1070
     1
1070
    44
1040
1.0
1070
    74
1070
     0
1000
MTEXTEND
  0
POINT
  5
236B5
330
231AF
100
AcDbEntity
  8
DEFPOINTS
 62
     0
 48
50.0
100
AcDbPoint
 10
7061.600000000009
 20
6345.069485050451
 30
0.0
  0
POINT
  5
236B6
330
231AF
100
AcDbEntity
  8
DEFPOINTS
 62
     0
 48
50.0
100
AcDbPoint
 10
6988.600000000001
 20
6147.069485050447
 30
0.0
  0
POINT
  5
236B7
330
231AF
100
AcDbEntity
  8
DEFPOINTS
 62
     0
 48
50.0
100
AcDbPoint
 10
6365.665006330073
 20
6147.069485050447
 30
0.0
  0
ENDBLK
  5
231BB
330
231AF
100
AcDbEntity
  8
0
 48
50.0
100
AcDbBlockEnd
  0
BLOCK
  5
231D2
330
231C8
100
AcDbEntity
  8
0
 48
50.0
100
AcDbBlockBegin
  2
*D42
 70
     1
 10
0.0
 20
0.0
 30
0.0
  3
*D42
  1

  0
LINE
  5
23619
330
231C8
100
AcDbEntity
  8
寸法
 62
     0
 48
50.0
370
    -2
100
AcDbLine
 10
6968.600000000001
 20
6147.06948505043
 30
0.0
 11
6815.512673767877
 21
6147.06948505043
 31
0.0
  0
LINE
  5
2361A
330
231C8
100
AcDbEntity
  8
寸法
 62
     0
 48
50.0
370
    -2
100
AcDbLine
 10
7324.325326928804
 20
5427.06948505043
 30
0.0
 11
6815.512673767876
 21
5427.06948505043
 31
0.0
  0
LINE
  5
2361B
330
231C8
100
AcDbEntity
  8
寸法
 62
     0
 48
50.0
370
    -2
100
AcDbLine
 10
6875.512673767876
 20
6147.06948505043
 30
0.0
 11
6875.512673767876
 21
5427.06948505043
 31
0.0
  0
INSERT
  5
2361C
330
231C8
100
AcDbEntity
  8
寸法
 62
     0
 48
50.0
370
    -2
100
AcDbBlockReference
  2
_DOTSMALL
 10
6875.512673767876
 20
6147.06948505043
 30
0.0
 41
100.0
 42
100.0
 43
100.0
 50
90.0
  0
INSERT
  5
2361D
330
231C8
100
AcDbEntity
  8
寸法
 62
     0
 48
50.0
370
    -2
100
AcDbBlockReference
  2
_DOTSMALL
 10
6875.512673767876
 20
5427.06948505043
 30
0.0
 41
100.0
 42
100.0
 43
100.0
 50
270.0
  0
MTEXT
  5
2361E
330
231C8
100
AcDbEntity
  8
寸法
 62
     7
 48
50.0
100
AcDbMText
 10
6775.500862744253
 20
5787.069485050431
 30
0.0
 40
120.0
 41
0.0
 71
     5
 72
     1
  1
\A1;扉の出720
  7
STYLE1
 11
0.0000000000000001
 21
1.0
 31
0.0
 73
     1
 44
1.0
1001
ACAD
1000
MTEXTBEGIN
1070
    73
1070
     1
1070
    44
1040
1.0
1070
    74
1070
     0
1000
MTEXTEND
  0
POINT
  5
2361F
330
231C8
100
AcDbEntity
  8
DEFPOINTS
 62
     0
 48
50.0
100
AcDbPoint
 10
6988.600000000001
 20
6147.06948505043
 30
0.0
  0
POINT
  5
23620
330
231C8
100
AcDbEntity
  8
DEFPOINTS
 62
     0
 48
50.0
100
AcDbPoint
 10
7344.325326928805
 20
5427.06948505043
 30
0.0
  0
POINT
  5
23621
330
231C8
100
AcDbEntity
  8
DEFPOINTS
 62
     0
 48
50.0
100
AcDbPoint
 10
6875.512673767876
 20
5427.06948505043
 30
0.0
  0
ENDBLK
  5
231D3
330
231C8
100
AcDbEntity
  8
0
 48
50.0
100
AcDbBlockEnd
  0
BLOCK
  5
231DE
330
231D4
100
AcDbEntity
  8
0
 48
50.0
100
AcDbBlockBegin
  2
*D43
 70
     1
 10
0.0
 20
0.0
 30
0.0
  3
*D43
  1

  0
LINE
  5
23718
330
231D4
100
AcDbEntity
  8
寸法
 62
     0
 48
50.0
370
    -2
100
AcDbLine
 10
7542.765475140901
 20
6147.069485050458
 30
0.0
 11
7411.285990614302
 21
6147.069485050458
 31
0.0
  0
LINE
  5
23719
330
231D4
100
AcDbEntity
  8
寸法
 62
     0
 48
50.0
370
    -2
100
AcDbLine
 10
7743.600000000007
 20
6874.069485050448
 30
0.0
 11
7411.285990614302
 21
6874.069485050448
 31
0.0
  0
LINE
  5
2371A
330
231D4
100
AcDbEntity
  8
寸法
 62
     0
 48
50.0
370
    -2
100
AcDbLine
 10
7471.285990614302
 20
6147.069485050458
 30
0.0
 11
7471.285990614302
 21
6874.069485050448
 31
0.0
  0
INSERT
  5
2371B
330
231D4
100
AcDbEntity
  8
寸法
 62
     0
 48
50.0
370
    -2
100
AcDbBlockReference
  2
_DOTSMALL
 10
7471.285990614302
 20
6147.069485050458
 30
0.0
 41
100.0
 42
100.0
 43
100.0
 50
270.0
  0
INSERT
  5
2371C
330
231D4
100
AcDbEntity
  8
寸法
 62
     0
 48
50.0
370
    -2
100
AcDbBlockReference
  2
_DOTSMALL
 10
7471.285990614302
 20
6874.069485050448
 30
0.0
 41
100.0
 42
100.0
 43
100.0
 50
90.0
  0
MTEXT
  5
2371D
330
231D4
100
AcDbEntity
  8
寸法
 62
     7
 48
50.0
100
AcDbMText
 10
7371.274179590679
 20
6552.069485050449
 30
0.0
 40
120.0
 41
0.0
 71
     5
 72
     1
  1
\A1;727
  7
STYLE1
 11
0.0000000000000001
 21
1.0
 31
0.0
 73
     1
 44
1.0
1001
ACAD
1000
MTEXTBEGIN
1070
    73
1070
     1
1070
    44
1040
1.0
1070
    74
1070
     0
1000
MTEXTEND
  0
POINT
  5
2371E
330
231D4
100
AcDbEntity
  8
DEFPOINTS
 62
     0
 48
50.0
100
AcDbPoint
 10
7562.765475140901
 20
6147.069485050458
 30
0.0
  0
POINT
  5
2371F
330
231D4
100
AcDbEntity
  8
DEFPOINTS
 62
     0
 48
50.0
100
AcDbPoint
 10
7763.600000000008
 20
6874.069485050448
 30
0.0
  0
POINT
  5
23720
330
231D4
100
AcDbEntity
  8
DEFPOINTS
 62
     0
 48
50.0
100
AcDbPoint
 10
7471.285990614302
 20
6874.069485050448
 30
0.0
  0
ENDBLK
  5
231DF
330
231D4
100
AcDbEntity
  8
0
 48
50.0
100
AcDbBlockEnd
  0
BLOCK
  5
23A08
330
239FE
100
AcDbEntity
  8
0
 48
50.0
100
AcDbBlockBegin
  2
*D50
 70
     1
 10
0.0
 20
0.0
 30
0.0
  3
*D50
  1

  0
LINE
  5
23A48
330
239FE
100
AcDbEntity
  8
寸法
 62
     0
 48
50.0
370
    -2
100
AcDbLine
 10
8301.334942393577
 20
1787.407492851404
 30
0.0
 11
8843.20354216242
 21
1787.407492851403
 31
0.0
  0
LINE
  5
23A49
330
239FE
100
AcDbEntity
  8
寸法
 62
     0
 48
50.0
370
    -2
100
AcDbLine
 10
8301.334942393577
 20
1463.407492851403
 30
0.0
 11
8843.20354216242
 21
1463.407492851402
 31
0.0
  0
LINE
  5
23A4A
330
239FE
100
AcDbEntity
  8
寸法
 62
     0
 48
50.0
370
    -2
100
AcDbLine
 10
8783.203542162421
 20
1787.407492851403
 30
0.0
 11
8783.203542162421
 21
1463.407492851402
 31
0.0
  0
INSERT
  5
23A4B
330
239FE
100
AcDbEntity
  8
寸法
 62
     0
 48
50.0
370
    -2
100
AcDbBlockReference
  2
_DOTSMALL
 10
8783.203542162421
 20
1787.407492851403
 30
0.0
 41
100.0
 42
100.0
 43
100.0
 50
90.0
  0
INSERT
  5
23A4C
330
239FE
100
AcDbEntity
  8
寸法
 62
     0
 48
50.0
370
    -2
100
AcDbBlockReference
  2
_DOTSMALL
 10
8783.203542162421
 20
1463.407492851402
 30
0.0
 41
100.0
 42
100.0
 43
100.0
 50
270.0
  0
MTEXT
  5
23A4D
330
239FE
100
AcDbEntity
  8
寸法
 62
     7
 48
50.0
100
AcDbMText
 10
8683.203542162422
 20
1625.407492851405
 30
0.0
 40
120.0
 41
0.0
 71
     5
 72
     1
  1
\A1;180
  7
STYLE1
 11
0.0000000000000001
 21
1.0
 31
0.0
 73
     1
 44
1.0
1001
ACAD
1000
MTEXTBEGIN
1070
    73
1070
     1
1070
    44
1040
1.0
1070
    74
1070
     0
1000
MTEXTEND
  0
POINT
  5
23A4E
330
239FE
100
AcDbEntity
  8
DEFPOINTS
 62
     0
 48
50.0
100
AcDbPoint
 10
8281.334942393575
 20
1787.407492851404
 30
0.0
  0
POINT
  5
23A4F
330
239FE
100
AcDbEntity
  8
DEFPOINTS
 62
     0
 48
50.0
100
AcDbPoint
 10
8281.334942393575
 20
1463.407492851403
 30
0.0
  0
POINT
  5
23A50
330
239FE
100
AcDbEntity
  8
DEFPOINTS
 62
     0
 48
50.0
100
AcDbPoint
 10
8783.203542162421
 20
1463.407492851402
 30
0.0
  0
ENDBLK
  5
23A09
330
239FE
100
AcDbEntity
  8
0
 48
50.0
100
AcDbBlockEnd
  0
BLOCK
  5
23A16
330
23A0A
100
AcDbEntity
  8
0
 48
50.0
100
AcDbBlockBegin
  2
*D51
 70
     1
 10
0.0
 20
0.0
 30
0.0
  3
*D51
  1

  0
LINE
  5
23A51
330
23A0A
100
AcDbEntity
  8
寸法
 62
     0
 48
50.0
370
    -2
100
AcDbLine
 10
8114.134942393578
 20
1840.167492851405
 30
0.0
 11
9119.258208281449
 21
1840.167492851405
 31
0.0
  0
LINE
  5
23A52
330
23A0A
100
AcDbEntity
  8
寸法
 62
     0
 48
50.0
370
    -2
100
AcDbLine
 10
8301.334942393577
 20
1787.407492851404
 30
0.0
 11
9119.258208281449
 21
1787.407492851403
 31
0.0
  0
LINE
  5
23A53
330
23A0A
100
AcDbEntity
  8
寸法
 62
     0
 48
50.0
370
    -2
100
AcDbLine
 10
9059.258208281447
 20
1840.167492851405
 30
0.0
 11
9059.258208281447
 21
1940.167492851404
 31
0.0
  0
LINE
  5
23A54
330
23A0A
100
AcDbEntity
  8
寸法
 62
     0
 48
50.0
370
    -2
100
AcDbLine
 10
9059.258208281447
 20
1787.407492851403
 30
0.0
 11
9059.258208281447
 21
1055.389686008437
 31
0.0
  0
LINE
  5
23A55
330
23A0A
100
AcDbEntity
  8
寸法
 62
     0
 48
50.0
370
    -2
100
AcDbLine
 10
9059.258208281447
 20
1840.167492851405
 30
0.0
 11
9059.258208281447
 21
1787.407492851403
 31
0.0
  0
INSERT
  5
23A56
330
23A0A
100
AcDbEntity
  8
寸法
 62
     0
 48
50.0
370
    -2
100
AcDbBlockReference
  2
_DOTSMALL
 10
9059.258208281447
 20
1840.167492851405
 30
0.0
 41
100.0
 42
100.0
 43
100.0
 50
270.0
  0
INSERT
  5
23A57
330
23A0A
100
AcDbEntity
  8
寸法
 62
     0
 48
50.0
370
    -2
100
AcDbBlockReference
  2
_DOTSMALL
 10
9059.258208281447
 20
1787.407492851403
 30
0.0
 41
100.0
 42
100.0
 43
100.0
 50
90.0
  0
MTEXT
  5
23A58
330
23A0A
100
AcDbEntity
  8
寸法
 62
     7
 48
50.0
100
AcDbMText
 10
8959.246397257826
 20
1321.398589429921
 30
0.0
 40
120.0
 41
0.0
 71
     5
 72
     1
  1
\A1;20～25
  7
STYLE1
 11
0.0000000000000001
 21
1.0
 31
0.0
 73
     1
 44
1.0
1001
ACAD
1000
MTEXTBEGIN
1070
    73
1070
     1
1070
    44
1040
1.0
1070
    74
1070
     0
1000
MTEXTEND
  0
POINT
  5
23A59
330
23A0A
100
AcDbEntity
  8
DEFPOINTS
 62
     0
 48
50.0
100
AcDbPoint
 10
8094.134942393578
 20
1840.167492851405
 30
0.0
  0
POINT
  5
23A5A
330
23A0A
100
AcDbEntity
  8
DEFPOINTS
 62
     0
 48
50.0
100
AcDbPoint
 10
8281.334942393575
 20
1787.407492851404
 30
0.0
  0
POINT
  5
23A5B
330
23A0A
100
AcDbEntity
  8
DEFPOINTS
 62
     0
 48
50.0
100
AcDbPoint
 10
9059.258208281447
 20
1787.407492851403
 30
0.0
  0
ENDBLK
  5
23A17
330
23A0A
100
AcDbEntity
  8
0
 48
50.0
100
AcDbBlockEnd
  0
BLOCK
  5
23A22
330
23A18
100
AcDbEntity
  8
0
 48
50.0
100
AcDbBlockBegin
  2
*D52
 70
     1
 10
0.0
 20
0.0
 30
0.0
  3
*D52
  1

  0
LINE
  5
23A5C
330
23A18
100
AcDbEntity
  8
寸法
 62
     0
 48
50.0
370
    -2
100
AcDbLine
 10
6019.295629216383
 20
1243.407492851404
 30
0.0
 11
5836.875315483923
 21
1243.407492851404
 31
0.0
  0
LINE
  5
23A5D
330
23A18
100
AcDbEntity
  8
寸法
 62
     0
 48
50.0
370
    -2
100
AcDbLine
 10
5939.295629216386
 20
1003.407492851404
 30
0.0
 11
5836.875315483923
 21
1003.407492851404
 31
0.0
  0
LINE
  5
23A5E
330
23A18
100
AcDbEntity
  8
寸法
 62
     0
 48
50.0
370
    -2
100
AcDbLine
 10
5896.875315483923
 20
1243.407492851404
 30
0.0
 11
5896.875315483923
 21
1003.407492851404
 31
0.0
  0
INSERT
  5
23A5F
330
23A18
100
AcDbEntity
  8
寸法
 62
     0
 48
50.0
370
    -2
100
AcDbBlockReference
  2
_DOTSMALL
 10
5896.875315483923
 20
1243.407492851404
 30
0.0
 41
100.0
 42
100.0
 43
100.0
 50
90.0
  0
INSERT
  5
23A60
330
23A18
100
AcDbEntity
  8
寸法
 62
     0
 48
50.0
370
    -2
100
AcDbBlockReference
  2
_DOTSMALL
 10
5896.875315483923
 20
1003.407492851404
 30
0.0
 41
100.0
 42
100.0
 43
100.0
 50
270.0
  0
MTEXT
  5
23A61
330
23A18
100
AcDbEntity
  8
寸法
 62
     7
 48
50.0
100
AcDbMText
 10
5796.875315483923
 20
1123.407492851404
 30
0.0
 40
120.0
 41
0.0
 71
     5
 72
     1
  1
\A1;150
  7
STYLE1
 11
0.0000000000000001
 21
1.0
 31
0.0
 73
     1
 44
1.0
1001
ACAD
1000
MTEXTBEGIN
1070
    73
1070
     1
1070
    44
1040
1.0
1070
    74
1070
     0
1000
MTEXTEND
  0
POINT
  5
23A62
330
23A18
100
AcDbEntity
  8
DEFPOINTS
 62
     0
 48
50.0
100
AcDbPoint
 10
6039.295629216383
 20
1243.407492851404
 30
0.0
  0
POINT
  5
23A63
330
23A18
100
AcDbEntity
  8
DEFPOINTS
 62
     0
 48
50.0
100
AcDbPoint
 10
5959.295629216386
 20
1003.407492851404
 30
0.0
  0
POINT
  5
23A64
330
23A18
100
AcDbEntity
  8
DEFPOINTS
 62
     0
 48
50.0
100
AcDbPoint
 10
5896.875315483923
 20
1003.407492851404
 30
0.0
  0
ENDBLK
  5
23A23
330
23A18
100
AcDbEntity
  8
0
 48
50.0
100
AcDbBlockEnd
  0
BLOCK
  5
23A2E
330
23A24
100
AcDbEntity
  8
0
 48
50.0
100
AcDbBlockBegin
  2
*D53
 70
     1
 10
0.0
 20
0.0
 30
0.0
  3
*D53
  1

  0
LINE
  5
23A65
330
23A24
100
AcDbEntity
  8
寸法
 62
     0
 48
50.0
370
    -2
100
AcDbLine
 10
6147.295629216383
 20
1787.407492851404
 30
0.0
 11
5372.258390654643
 21
1787.407492851404
 31
0.0
  0
LINE
  5
23A66
330
23A24
100
AcDbEntity
  8
寸法
 62
     0
 48
50.0
370
    -2
100
AcDbLine
 10
5939.295629216386
 20
1003.407492851404
 30
0.0
 11
5372.258390654643
 21
1003.407492851404
 31
0.0
  0
LINE
  5
23A67
330
23A24
100
AcDbEntity
  8
寸法
 62
     0
 48
50.0
370
    -2
100
AcDbLine
 10
5432.258390654642
 20
1787.407492851404
 30
0.0
 11
5432.258390654642
 21
1003.407492851404
 31
0.0
  0
INSERT
  5
23A68
330
23A24
100
AcDbEntity
  8
寸法
 62
     0
 48
50.0
370
    -2
100
AcDbBlockReference
  2
_DOTSMALL
 10
5432.258390654642
 20
1787.407492851404
 30
0.0
 41
100.0
 42
100.0
 43
100.0
 50
90.0
  0
INSERT
  5
23A69
330
23A24
100
AcDbEntity
  8
寸法
 62
     0
 48
50.0
370
    -2
100
AcDbBlockReference
  2
_DOTSMALL
 10
5432.258390654642
 20
1003.407492851404
 30
0.0
 41
100.0
 42
100.0
 43
100.0
 50
270.0
  0
MTEXT
  5
23A6A
330
23A24
100
AcDbEntity
  8
寸法
 62
     7
 48
50.0
100
AcDbMText
 10
5332.258390654643
 20
1374.947642507404
 30
0.0
 40
120.0
 41
0.0
 71
     5
 72
     1
  1
\A1;540
  7
STYLE1
 11
0.0000000000000001
 21
1.0
 31
0.0
 73
     1
 44
1.0
1001
ACAD
1000
MTEXTBEGIN
1070
    73
1070
     1
1070
    44
1040
1.0
1070
    74
1070
     0
1000
MTEXTEND
  0
POINT
  5
23A6B
330
23A24
100
AcDbEntity
  8
DEFPOINTS
 62
     0
 48
50.0
100
AcDbPoint
 10
6167.295629216383
 20
1787.407492851404
 30
0.0
  0
POINT
  5
23A6C
330
23A24
100
AcDbEntity
  8
DEFPOINTS
 62
     0
 48
50.0
100
AcDbPoint
 10
5959.295629216386
 20
1003.407492851404
 30
0.0
  0
POINT
  5
23A6D
330
23A24
100
AcDbEntity
  8
DEFPOINTS
 62
     0
 48
50.0
100
AcDbPoint
 10
5432.258390654642
 20
1003.407492851404
 30
0.0
  0
ENDBLK
  5
23A2F
330
23A24
100
AcDbEntity
  8
0
 48
50.0
100
AcDbBlockEnd
  0
BLOCK
  5
23A3A
330
23A30
100
AcDbEntity
  8
0
 48
50.0
100
AcDbBlockBegin
  2
*D54
 70
     1
 10
0.0
 20
0.0
 30
0.0
  3
*D54
  1

  0
LINE
  5
23A6E
330
23A30
100
AcDbEntity
  8
寸法
 62
     0
 48
50.0
370
    -2
100
AcDbLine
 10
6039.295629216383
 20
855.4074928514037
 30
0.0
 11
6039.295629216383
 21
404.9778548462436
 31
0.0
  0
LINE
  5
23A6F
330
23A30
100
AcDbEntity
  8
寸法
 62
     0
 48
50.0
370
    -2
100
AcDbLine
 10
6487.295629216382
 20
855.4074928514037
 30
0.0
 11
6487.295629216382
 21
404.9778548462436
 31
0.0
  0
LINE
  5
23A70
330
23A30
100
AcDbEntity
  8
寸法
 62
     0
 48
50.0
370
    -2
100
AcDbLine
 10
6039.295629216383
 20
464.9778548462436
 30
0.0
 11
6487.295629216382
 21
464.9778548462436
 31
0.0
  0
INSERT
  5
23A71
330
23A30
100
AcDbEntity
  8
寸法
 62
     0
 48
50.0
370
    -2
100
AcDbBlockReference
  2
_DOTSMALL
 10
6039.295629216383
 20
464.9778548462436
 30
0.0
 41
100.0
 42
100.0
 43
100.0
 50
180.0
  0
INSERT
  5
23A72
330
23A30
100
AcDbEntity
  8
寸法
 62
     0
 48
50.0
370
    -2
100
AcDbBlockReference
  2
_DOTSMALL
 10
6487.295629216382
 20
464.9778548462436
 30
0.0
 41
100.0
 42
100.0
 43
100.0
  0
MTEXT
  5
23A73
330
23A30
100
AcDbEntity
  8
寸法
 62
     7
 48
50.0
100
AcDbMText
 10
6243.198870538159
 20
564.9778548462436
 30
0.0
 40
120.0
 41
0.0
 71
     5
 72
     1
  1
\A1;300
  7
STYLE1
 73
     1
 44
1.0
1001
ACAD
1000
MTEXTBEGIN
1070
    73
1070
     1
1070
    44
1040
1.0
1070
    74
1070
     0
1000
MTEXTEND
  0
POINT
  5
23A74
330
23A30
100
AcDbEntity
  8
DEFPOINTS
 62
     0
 48
50.0
100
AcDbPoint
 10
6039.295629216383
 20
875.4074928514038
 30
0.0
  0
POINT
  5
23A75
330
23A30
100
AcDbEntity
  8
DEFPOINTS
 62
     0
 48
50.0
100
AcDbPoint
 10
6487.295629216382
 20
875.4074928514038
 30
0.0
  0
POINT
  5
23A76
330
23A30
100
AcDbEntity
  8
DEFPOINTS
 62
     0
 48
50.0
100
AcDbPoint
 10
6487.295629216382
 20
464.9778548462436
 30
0.0
  0
ENDBLK
  5
23A3B
330
23A30
100
AcDbEntity
  8
0
 48
50.0
100
AcDbBlockEnd
  0
BLOCK
  5
23A46
330
23A3C
100
AcDbEntity
  8
0
 48
50.0
100
AcDbBlockBegin
  2
*D55
 70
     1
 10
0.0
 20
0.0
 30
0.0
  3
*D55
  1

  0
LINE
  5
23A77
330
23A3C
100
AcDbEntity
  8
寸法
 62
     0
 48
50.0
370
    -2
100
AcDbLine
 10
6359.295629216383
 20
1807.407492851403
 30
0.0
 11
6359.295629216383
 21
2267.075300767784
 31
0.0
  0
LINE
  5
23A78
330
23A3C
100
AcDbEntity
  8
寸法
 62
     0
 48
50.0
370
    -2
100
AcDbLine
 10
6167.295629216383
 20
1807.407492851403
 30
0.0
 11
6167.295629216383
 21
2267.075300767784
 31
0.0
  0
LINE
  5
23A79
330
23A3C
100
AcDbEntity
  8
寸法
 62
     0
 48
50.0
370
    -2
100
AcDbLine
 10
6359.295629216383
 20
2207.075300767784
 30
0.0
 11
6167.295629216383
 21
2207.075300767784
 31
0.0
  0
INSERT
  5
23A7A
330
23A3C
100
AcDbEntity
  8
寸法
 62
     0
 48
50.0
370
    -2
100
AcDbBlockReference
  2
_DOTSMALL
 10
6359.295629216383
 20
2207.075300767784
 30
0.0
 41
100.0
 42
100.0
 43
100.0
  0
INSERT
  5
23A7B
330
23A3C
100
AcDbEntity
  8
寸法
 62
     0
 48
50.0
370
    -2
100
AcDbBlockReference
  2
_DOTSMALL
 10
6167.295629216383
 20
2207.075300767784
 30
0.0
 41
100.0
 42
100.0
 43
100.0
 50
180.0
  0
MTEXT
  5
23A7C
330
23A3C
100
AcDbEntity
  8
寸法
 62
     7
 48
50.0
100
AcDbMText
 10
6263.295629216383
 20
2507.11073383865
 30
0.0
 40
120.0
 41
0.0
 71
     5
 72
     1
  1
\A1;120\P200\P280
  7
STYLE1
 73
     1
 44
1.0
1001
ACAD
1000
MTEXTBEGIN
1070
    73
1070
     1
1070
    44
1040
1.0
1070
    74
1070
     0
1000
MTEXTEND
  0
POINT
  5
23A7D
330
23A3C
100
AcDbEntity
  8
DEFPOINTS
 62
     0
 48
50.0
100
AcDbPoint
 10
6359.295629216383
 20
1787.407492851404
 30
0.0
  0
POINT
  5
23A7E
330
23A3C
100
AcDbEntity
  8
DEFPOINTS
 62
     0
 48
50.0
100
AcDbPoint
 10
6167.295629216383
 20
1787.407492851404
 30
0.0
  0
POINT
  5
23A7F
330
23A3C
100
AcDbEntity
  8
DEFPOINTS
 62
     0
 48
50.0
100
AcDbPoint
 10
6167.295629216383
 20
2207.075300767784
 30
0.0
  0
ENDBLK
  5
23A47
330
23A3C
100
AcDbEntity
  8
0
 48
50.0
100
AcDbBlockEnd
  0
ENDSEC
  0
SECTION
  2
ENTITIES
  0
MTEXT
  5
763F
330
747D
100
AcDbEntity
  8
0
100
AcDbMText
 10
302.846345836809
 20
280.1983726409901
 30
0.0
 40
3.5
 41
5.323721266742722
 71
     1
 72
     5
  1

  7
MSMINCHO
 73
     1
 44
1.0
1001
ACAD
1000
MTEXTBEGIN
1070
    73
1070
     1
1070
    44
1040
1.0
1070
    74
1070
     0
1000
MTEXTEND
  0
LINE
  5
10B57
330
747D
100
AcDbEntity
  8
補助
  6
PHANTOM
 62
   230
 48
50.0
100
AcDbLine
 10
139.9999999999995
 20
11409.6
 30
0.0
 11
16307.2
 21
11409.6
 31
0.0
  0
LINE
  5
10B59
330
747D
100
AcDbEntity
  8
仕様書枠
  6
Continuous
 48
50.0
100
AcDbLine
 10
13107.2
 20
1200.0
 30
0.0
 11
13107.2
 21
-0.0000000000000729
 31
0.0
  0
LINE
  5
10B5D
330
747D
100
AcDbEntity
  8
仕様書枠
 48
50.0
100
AcDbLine
 10
140.0
 20
0.0
 30
0.0
 11
16307.2
 21
-0.0000000000000909
 31
0.0
  0
LINE
  5
10B5E
330
747D
100
AcDbEntity
  8
補助
  6
PHANTOM
 62
   230
 48
50.0
100
AcDbLine
 10
16307.2
 20
11409.6
 30
0.0
 11
16307.2
 21
1200.0
 31
0.0
  0
LINE
  5
10B6C
330
747D
100
AcDbEntity
  8
仕様書枠
 48
50.0
100
AcDbLine
 10
13107.2
 20
1200.0
 30
0.0
 11
16307.2
 21
1200.0
 31
0.0
  0
TEXT
  5
10B73
330
747D
100
AcDbEntity
  8
文字
 62
     7
 48
50.0
100
AcDbText
 10
13162.9790565769
 20
895.0906074299405
 30
0.0
 40
200.0
  1
基 礎 図
  7
STYLE2
100
AcDbText
  0
LINE
  5
10B7B
330
747D
100
AcDbEntity
  8
仕様書枠
 48
50.0
100
AcDbLine
 10
13107.2
 20
800.0
 30
0.0
 11
14251.2
 21
800.0
 31
0.0
  0
LINE
  5
10B88
330
747D
100
AcDbEntity
  8
仕様書枠
  6
Continuous
 48
50.0
100
AcDbLine
 10
14251.2
 20
1200.0
 30
0.0
 11
14251.2
 21
800.0
 31
0.0
  0
LINE
  5
16462
330
747D
100
AcDbEntity
  8
仕様書枠
 48
50.0
100
AcDbLine
 10
16307.2
 20
1200.0
 30
0.0
 11
16307.2
 21
-0.0000000000000909
 31
0.0
  0
LINE
  5
1903B
330
747D
100
AcDbEntity
  8
補助
  6
PHANTOM
 62
   230
 48
50.0
100
AcDbLine
 10
140.0
 20
0.0
 30
0.0
 11
139.9999999999995
 21
11409.6
 31
0.0
  0
LEADER
  5
1AC27
330
747D
100
AcDbEntity
  8
寸法
 48
50.0
100
AcDbLeader
  3
INABA_S50G
 73
     0
 74
     0
 75
     1
 40
120.0
 41
720.0000000000001
 76
     3
 10
9458.695499614997
 20
6857.862601795186
 30
0.0
 10
9615.469074001282
 20
6596.848688227352
 30
0.0
 10
9740.469074001282
 20
6596.848688227352
 30
0.0
340
1AC28
1001
ACAD
1000
DSTYLE
1002
{
1070
   341
1005
0
1070
    40
1040
1.0
1070
   343
1005
0
1070
   344
1005
0
1002
}
  0
MTEXT
  5
1AC28
102
{ACAD_REACTORS
330
1AC27
102
}
330
747D
100
AcDbEntity
  8
部品1
 62
     7
 48
50.0
100
AcDbMText
 10
10485.46907400128
 20
6681.848688227353
 30
0.0
 40
120.0
 41
0.0
 71
     6
 72
     1
  1
\A1;床下換気口
  7
STYLE1
 73
     1
 44
1.0
1001
ACAD
1000
MTEXTBEGIN
1070
    73
1070
     1
1070
    44
1040
1.0
1070
    74
1070
     0
1000
MTEXTEND
  0
TEXT
  5
1AC29
330
747D
100
AcDbEntity
  8
部品1
 48
50.0
100
AcDbText
 10
9807.430138461178
 20
5936.962877863478
 30
0.0
 40
80.0
  1
(a=45,b=55,c=75)
  7
STYLE1
100
AcDbText
  0
TEXT
  5
1AC2A
330
747D
100
AcDbEntity
  8
部品1
 48
50.0
100
AcDbText
 10
9648.851129706878
 20
6043.808098732232
 30
0.0
 40
80.0
  1
※a,b,cは屋根の出幅です。
  7
STYLE1
100
AcDbText
  0
MTEXT
  5
1AC2B
102
{ACAD_REACTORS
330
1AC2C
102
}
330
747D
100
AcDbEntity
  8
部品1
 62
     7
 48
50.0
100
AcDbMText
 10
10446.63832569548
 20
6223.118785665307
 30
0.0
 40
120.0
 41
0.0
 71
     6
 72
     1
  1
\A1;屋根の外寸
  7
STYLE1
 73
     1
 44
1.0
1001
ACAD
1000
MTEXTBEGIN
1070
    73
1070
     1
1070
    44
1040
1.0
1070
    74
1070
     0
1000
MTEXTEND
  0
LEADER
  5
1AC2C
330
747D
100
AcDbEntity
  8
寸法
 48
50.0
100
AcDbLeader
  3
INABA_S50G
 73
     0
 74
     0
 75
     1
 40
120.0
 41
672.0
 76
     3
 10
9508.69831350344
 20
6397.008129128883
 30
0.0
 10
9624.638325695482
 20
6138.118785665307
 30
0.0
 10
9749.638325695482
 20
6138.118785665307
 30
0.0
340
1AC2B
1001
ACAD
1000
DSTYLE
1002
{
1070
   341
1005
0
1070
    40
1040
1.0
1070
   343
1005
0
1070
   344
1005
0
1002
}
  0
TEXT
  5
1C7A1
330
747D
100
AcDbEntity
  8
文字
 62
     7
 48
50.0
100
AcDbText
 10
13188.16259899338
 20
79.80631269190417
 30
0.0
 40
80.0
  1
※布基礎には換気口を設けてください。
  7
STYLE2
100
AcDbText
  0
TEXT
  5
1C7E7
330
747D
100
AcDbEntity
  8
文字
 62
     7
 48
50.0
100
AcDbText
 10
13188.16259899338
 20
246.7109242801889
 30
0.0
 40
80.0
  1
※寒冷地等は地域の実情に合わせた基礎にして下さい。
  7
STYLE2
100
AcDbText
  0
TEXT
  5
1C7E8
330
747D
100
AcDbEntity
  8
文字
 62
     7
 48
50.0
100
AcDbText
 10
14325.79230300687
 20
499.5983841039506
 30
0.0
 40
160.0
  1
ＮＸＮ－１１ＤＬ－３
  7
STYLE2
100
AcDbText
  0
TEXT
  5
1C7EC
330
747D
100
AcDbEntity
  8
文字
 62
     7
 48
50.0
100
AcDbText
 10
14524.131837222
 20
1031.557706291229
 30
0.0
 40
100.0
  1
<縮尺> S=1/40
  7
STYLE2
100
AcDbText
  0
TEXT
  5
1C7ED
330
747D
100
AcDbEntity
  8
文字
 62
     7
 48
50.0
100
AcDbText
 10
13201.43669998441
 20
477.2740661031257
 30
0.0
 40
160.0
  1
機種名
  7
STYLE2
100
AcDbText
  0
LINE
  5
1C7EF
330
747D
100
AcDbEntity
  8
文字
 62
     7
 48
50.0
100
AcDbLine
 10
13187.2
 20
400.0
 30
0.0
 11
16227.2
 21
400.0
 31
0.0
  0
MTEXT
  5
1D2D5
102
{ACAD_REACTORS
330
1D2D6
102
}
330
747D
100
AcDbEntity
  8
部品1
 62
     7
 48
50.0
100
AcDbMText
 10
10653.99523070988
 20
7842.682229292954
 30
0.0
 40
120.0
 41
0.0
 71
     6
 72
     1
  1
アンカーボルト
  7
STYLE1
 73
     1
 44
1.0
1001
ACAD
1000
MTEXTBEGIN
1070
    73
1070
     1
1070
    44
1040
1.0
1070
    74
1070
     0
1000
MTEXTEND
  0
LEADER
  5
1D2D6
330
747D
100
AcDbEntity
  8
寸法
 48
50.0
100
AcDbLeader
  3
INABA_S50G
 73
     0
 74
     0
 75
     1
 40
120.0
 41
994.3492424049171
 76
     3
 10
9335.680085756999
 20
7404.277329409158
 30
0.0
 10
9509.645988304965
 20
7757.682229292953
 30
0.0
 10
9634.645988304965
 20
7757.682229292953
 30
0.0
340
1D2D5
1001
ACAD
1000
DSTYLE
1002
{
1070
   341
1005
0
1070
    40
1040
1.0
1070
   343
1005
0
1070
   344
1005
0
1002
}
  0
MTEXT
  5
1D332
102
{ACAD_REACTORS
330
1D333
102
}
330
747D
100
AcDbEntity
  8
部品1
 62
     7
 48
50.0
100
AcDbMText
 10
9148.828697015693
 20
6728.705188562758
 30
0.0
 40
120.0
 41
0.0
 71
     6
 72
     1
  1
CB
  7
STYLE1
 73
     1
 44
1.0
1001
ACAD
1000
MTEXTBEGIN
1070
    73
1070
     1
1070
    44
1040
1.0
1070
    74
1070
     0
1000
MTEXTEND
  0
LEADER
  5
1D333
330
747D
100
AcDbEntity
  8
寸法
 48
50.0
100
AcDbLeader
  3
INABA_S50G
 73
     0
 74
     0
 75
     1
 40
120.0
 41
149.591883092037
 76
     3
 10
8721.954011061013
 20
6866.423502117584
 30
0.0
 10
8849.236813923658
 20
6643.705188562758
 30
0.0
 10
8974.236813923658
 20
6643.705188562758
 30
0.0
340
1D332
1001
ACAD
1000
DSTYLE
1002
{
1070
   341
1005
0
1070
    40
1040
1.0
1070
   343
1005
0
1070
   344
1005
0
1002
}
  0
DIMENSION
  5
20DE1
330
747D
100
AcDbEntity
  8
寸法
 48
50.0
100
AcDbDimension
  2
*D19
 10
9503.6
 20
8485.289807109367
 30
0.0
 11
9774.77462120246
 21
8485.289807109367
 31
0.0
 70
   160
  1
a
 71
     5
 42
45.0
  3
INABA_S40G
100
AcDbAlignedDimension
 13
9458.6
 23
7527.069485050446
 33
0.0
 14
9503.6
 24
8253.335943144357
 34
0.0
100
AcDbRotatedDimension
1001
ACAD
1000
DSTYLE
1002
{
1070
   341
1005
0
1002
}
  0
DIMENSION
  5
20DFB
330
747D
100
AcDbEntity
  8
寸法
 48
50.0
100
AcDbDimension
  2
*D20
 10
6988.600000000001
 20
8485.289807109365
 30
0.0
 11
6672.425378797541
 21
8485.289807109365
 31
0.0
 70
   160
  1
a
 71
     5
 42
44.99999999999636
  3
INABA_S40G
100
AcDbAlignedDimension
 13
6943.600000000003
 23
8253.335943144357
 33
0.0
 14
6988.600000000001
 24
7527.069485050444
 34
0.0
100
AcDbRotatedDimension
1001
ACAD
1000
DSTYLE
1002
{
1070
   341
1005
0
1002
}
  0
LINE
  5
22711
330
747D
100
AcDbEntity
  8
想像線
 48
10.0
100
AcDbLine
 10
9503.6
 20
7602.069485050448
 30
0.0
 11
6943.600000000003
 21
7602.069485050454
 31
0.0
  0
LINE
  5
22712
330
747D
100
AcDbEntity
  8
想像線
 48
10.0
100
AcDbLine
 10
6943.600000000002
 20
6092.069485050457
 30
0.0
 11
6943.600000000003
 21
7602.069485050448
 31
0.0
  0
LINE
  5
22713
330
747D
100
AcDbEntity
  8
想像線
 48
10.0
100
AcDbLine
 10
9503.6
 20
6092.069485050465
 30
0.0
 11
9503.6
 21
7602.069485050448
 31
0.0
  0
LINE
  5
22714
330
747D
100
AcDbEntity
  8
想像線
 48
10.0
100
AcDbLine
 10
9503.6
 20
6092.069485050465
 30
0.0
 11
6943.600000000003
 21
6092.069485050462
 31
0.0
  0
DIMENSION
  5
22741
330
747D
100
AcDbEntity
  8
寸法
 48
50.0
100
AcDbDimension
  2
*D25
 10
6113.721909610674
 20
7527.069485050446
 30
0.0
 11
6013.721909610674
 21
7564.569485050455
 31
0.0
 70
    32
  1
c
 71
     5
 42
75.0000000000191
  3
INABA_S40G
100
AcDbAlignedDimension
 13
6365.665006330072
 23
7602.069485050463
 33
0.0
 14
6988.600000000001
 24
7527.069485050444
 34
0.0
 50
90.0
100
AcDbRotatedDimension
1001
ACAD
1000
DSTYLE
1002
{
1070
   341
1005
0
1002
}
  0
DIMENSION
  5
2275B
330
747D
100
AcDbEntity
  8
寸法
 48
50.0
100
AcDbDimension
  2
*D26
 10
6113.721909610674
 20
6092.069485050472
 30
0.0
 11
6013.721909610674
 21
6119.569485050451
 31
0.0
 70
    32
  1
b
 71
     5
 42
54.99999999995907
  3
INABA_S40G
100
AcDbAlignedDimension
 13
6988.600000000001
 23
6147.06948505043
 33
0.0
 14
6365.665006330073
 24
6092.069485050471
 34
0.0
 50
90.0
100
AcDbRotatedDimension
1001
ACAD
1000
DSTYLE
1002
{
1070
   341
1005
0
1002
}
  0
DIMENSION
  5
229EC
330
747D
100
AcDbEntity
  8
寸法
 48
50.0
100
AcDbDimension
  2
*D28
 10
8885.469500000811
 20
6147.069485050472
 30
0.0
 11
8885.469500000809
 21
5860.105902373295
 31
0.0
 70
   160
 71
     5
 42
279.9999999999891
  3
INABA_S40G
100
AcDbAlignedDimension
 13
8964.534750000407
 23
6427.069485050461
 33
0.0
 14
8964.53475000041
 24
6147.069485050472
 34
0.0
 50
90.0
100
AcDbRotatedDimension
1001
ACAD
1000
DSTYLE
1002
{
1070
   341
1005
0
1002
}
  0
DIMENSION
  5
229ED
330
747D
100
AcDbEntity
  8
寸法
 48
50.0
100
AcDbDimension
  2
*D29
 10
8885.469500000811
 20
7327.069485050448
 30
0.0
 11
8885.469500000809
 21
7814.033067727608
 31
0.0
 70
   160
 71
     5
 42
199.9999999999945
  3
INABA_S40G
100
AcDbAlignedDimension
 13
8964.53475000041
 23
7527.069485050443
 33
0.0
 14
8964.53475000041
 24
7327.069485050448
 34
0.0
 50
90.0
100
AcDbRotatedDimension
1001
ACAD
1000
DSTYLE
1002
{
1070
   341
1005
0
1002
}
  0
DIMENSION
  5
22A4B
330
747D
100
AcDbEntity
  8
寸法
 48
50.0
100
AcDbDimension
  2
*D27
 10
9338.600000000001
 20
7229.232012323094
 30
0.0
 11
9728.659055118111
 21
7229.232012323094
 31
0.0
 70
   160
 71
     5
 42
120.0
  3
INABA_S40G
100
AcDbAlignedDimension
 13
9458.6
 23
7246.225276361926
 33
0.0
 14
9338.600000000001
 24
7229.232012323094
 34
0.0
100
AcDbRotatedDimension
1001
ACAD
1000
DSTYLE
1002
{
1070
   341
1005
0
1002
}
  0
LINE
  5
23050
330
747D
100
AcDbEntity
  8
部品1
 48
50.0
100
AcDbLine
 10
9338.600000000003
 20
7327.069485050448
 30
0.0
 11
7108.599999999995
 21
7327.069485050447
 31
0.0
  0
LINE
  5
23051
330
747D
100
AcDbEntity
  8
部品1
 48
50.0
100
AcDbLine
 10
9458.6
 20
6147.069485050466
 30
0.0
 11
6988.599999999997
 21
6147.069485050444
 31
0.0
  0
LINE
  5
23054
330
747D
100
AcDbEntity
  8
部品1
 48
50.0
100
AcDbLine
 10
9458.6
 20
7527.069485050448
 30
0.0
 11
6988.600000000001
 21
7527.069485050448
 31
0.0
  0
DIMENSION
  5
23057
330
747D
100
AcDbEntity
  8
寸法
 48
50.0
100
AcDbDimension
  2
*D34
 10
8633.600000000008
 20
8009.678301720695
 30
0.0
 11
8223.600000000008
 21
8109.690112744317
 31
0.0
 70
    32
 71
     5
 42
820.0
  3
INABA_S40G
100
AcDbAlignedDimension
 13
7813.600000000008
 23
6924.069485050448
 33
0.0
 14
8633.600000000008
 24
6924.069485050448
 34
0.0
100
AcDbRotatedDimension
1001
ACAD
1000
DSTYLE
1002
{
1070
   341
1005
0
1002
}
  0
DIMENSION
  5
23058
330
747D
100
AcDbEntity
  8
寸法
 48
50.0
100
AcDbDimension
  2
*D35
 10
7111.6
 20
8253.335943144358
 30
0.0
 11
8223.600000000001
 21
8353.34775416798
 31
0.0
 70
    32
 71
     5
 42
2224.0
  3
INABA_S40G
100
AcDbAlignedDimension
 13
9335.600000000001
 23
7454.069485050448
 33
0.0
 14
7111.6
 24
7454.069485050448
 34
0.0
100
AcDbRotatedDimension
1001
ACAD
1000
DSTYLE
1002
{
1070
   341
1005
0
1002
}
  0
DIMENSION
  5
23059
330
747D
100
AcDbEntity
  8
寸法
 48
50.0
100
AcDbDimension
  2
*D36
 10
9458.6
 20
8485.289807109365
 30
0.0
 11
8223.600000000001
 21
8585.301618132987
 31
0.0
 70
    32
 71
     5
 42
2470.0
  3
INABA_S40G
100
AcDbAlignedDimension
 13
6988.600000000001
 23
7527.069485050448
 33
0.0
 14
9458.6
 24
7527.069485050448
 34
0.0
100
AcDbRotatedDimension
1001
ACAD
1000
DSTYLE
1002
{
1070
   341
1005
0
1002
}
  0
LINE
  5
2305B
330
747D
100
AcDbEntity
  8
部品1
 48
50.0
100
AcDbLine
 10
7713.600000000008
 20
6774.069485050448
 30
0.0
 11
7713.600000000008
 21
6974.069485050448
 31
0.0
  0
LINE
  5
2305C
330
747D
100
AcDbEntity
  8
部品1
 48
50.0
100
AcDbLine
 10
7913.600000000008
 20
6774.069485050448
 30
0.0
 11
7913.600000000008
 21
6974.069485050448
 31
0.0
  0
DIMENSION
  5
2305D
330
747D
100
AcDbEntity
  8
寸法
 48
50.0
100
AcDbDimension
  2
*D37
 10
7471.285990614302
 20
7527.069485050448
 30
0.0
 11
7471.285990614301
 21
7166.664275744624
 31
0.0
 70
   160
 71
     5
 42
653.0
  3
INABA_S40G
100
AcDbAlignedDimension
 13
7763.600000000008
 23
6874.069485050448
 33
0.0
 14
7562.765475140901
 24
7527.069485050448
 34
0.0
 50
90.0
100
AcDbRotatedDimension
1001
ACAD
1000
DSTYLE
1002
{
1070
   341
1005
0
1002
}
  0
LINE
  5
2305E
102
{ACAD_REACTORS
330
23AB5
102
}
330
747D
100
AcDbEntity
  8
部品1
 48
50.0
100
AcDbLine
 10
6988.600000000001
 20
6147.069485050447
 30
0.0
 11
6988.600000000001
 21
7527.069485050448
 31
0.0
  0
DIMENSION
  5
23061
330
747D
100
AcDbEntity
  8
寸法
 48
50.0
100
AcDbDimension
  2
*D38
 10
6988.600000000001
 20
8009.678301720695
 30
0.0
 11
7401.100000000004
 21
8109.690112744317
 31
0.0
 70
    32
 71
     5
 42
825.0000000000072
  3
INABA_S40G
100
AcDbAlignedDimension
 13
7813.600000000008
 23
6924.069485050448
 33
0.0
 14
6988.600000000001
 24
7527.069485050448
 34
0.0
100
AcDbRotatedDimension
1001
ACAD
1000
DSTYLE
1002
{
1070
   341
1005
0
1002
}
  0
DIMENSION
  5
23062
330
747D
100
AcDbEntity
  8
寸法
 48
50.0
100
AcDbDimension
  2
*D39
 10
6113.721909610674
 20
6147.069485050448
 30
0.0
 11
6113.721909610672
 21
6874.569485050447
 31
0.0
 70
   160
 71
     5
 42
1380.0
  3
INABA_S40G
100
AcDbAlignedDimension
 13
6988.600000000001
 23
7527.069485050448
 33
0.0
 14
6988.600000000001
 24
6147.069485050447
 34
0.0
 50
90.0
100
AcDbRotatedDimension
1001
ACAD
1000
DSTYLE
1002
{
1070
   341
1005
0
1002
}
  0
DIMENSION
  5
23063
330
747D
100
AcDbEntity
  8
寸法
 48
50.0
100
AcDbDimension
  2
*D40
 10
6365.665006330073
 20
6345.069485050451
 30
0.0
 11
6365.665006330072
 21
6874.569485050447
 31
0.0
 70
   160
 71
     5
 42
1058.999999999996
  3
INABA_S40G
100
AcDbAlignedDimension
 13
7061.6
 23
7404.069485050448
 33
0.0
 14
7061.600000000009
 24
6345.069485050451
 34
0.0
 50
90.0
100
AcDbRotatedDimension
1001
ACAD
1000
DSTYLE
1002
{
1070
   341
1005
0
1002
}
  0
DIMENSION
  5
23064
330
747D
100
AcDbEntity
  8
寸法
 48
50.0
100
AcDbDimension
  2
*D41
 10
6365.665006330073
 20
6147.069485050447
 30
0.0
 11
6365.665006330072
 21
5811.538536207856
 31
0.0
 70
   160
 71
     5
 42
198.0000000000036
  3
INABA_S40G
100
AcDbAlignedDimension
 13
7061.600000000009
 23
6345.069485050451
 33
0.0
 14
6988.600000000001
 24
6147.069485050447
 34
0.0
 50
90.0
100
AcDbRotatedDimension
1001
ACAD
1000
DSTYLE
1002
{
1070
   341
1005
0
1002
}
  0
DIMENSION
  5
23066
330
747D
100
AcDbEntity
  8
寸法
 48
50.0
100
AcDbDimension
  2
*D42
 10
6875.512673767876
 20
5427.06948505043
 30
0.0
 11
6875.512673767875
 21
5787.069485050431
 31
0.0
 70
   160
  1
扉の出<>
 71
     5
 42
720.0
  3
INABA_S40G
100
AcDbAlignedDimension
 13
6988.600000000001
 23
6147.06948505043
 33
0.0
 14
7344.325326928805
 24
5427.06948505043
 34
0.0
 50
90.0
100
AcDbRotatedDimension
1001
ACAD
1000
DSTYLE
1002
{
1070
   341
1005
0
1002
}
  0
LINE
  5
23067
330
747D
100
AcDbEntity
  8
想像線
 48
5.0
100
AcDbLine
 10
7758.6
 20
6147.06948505044
 30
0.0
 11
7758.6
 21
5427.06948505043
 31
0.0
  0
ARC
  5
23068
330
747D
100
AcDbEntity
  8
想像線
 48
5.0
100
AcDbCircle
 10
7758.6
 20
6147.06948505043
 30
0.0
 40
720.0
100
AcDbArc
 50
180.0
 51
270.0
  0
DIMENSION
  5
23069
330
747D
100
AcDbEntity
  8
寸法
 48
50.0
100
AcDbDimension
  2
*D43
 10
7471.285990614302
 20
6874.069485050448
 30
0.0
 11
7471.285990614301
 21
6552.069485050449
 31
0.0
 70
   160
 71
     5
 42
726.9999999999891
  3
INABA_S40G
100
AcDbAlignedDimension
 13
7562.765475140901
 23
6147.069485050458
 33
0.0
 14
7763.600000000008
 24
6874.069485050448
 34
0.0
 50
90.0
100
AcDbRotatedDimension
1001
ACAD
1000
DSTYLE
1002
{
1070
   341
1005
0
1002
}
  0
LINE
  5
2306A
330
747D
100
AcDbEntity
  8
細線
 48
50.0
100
AcDbLine
 10
7303.600000000006
 20
6280.67280373341
 30
0.0
 11
7449.996681317031
 21
6427.069485050449
 31
0.0
  0
LINE
  5
2306B
330
747D
100
AcDbEntity
  8
細線
 48
50.0
100
AcDbLine
 10
7303.600000000004
 20
6325.574084338761
 30
0.0
 11
7405.095400711693
 21
6427.069485050449
 31
0.0
  0
LINE
  5
2306C
330
747D
100
AcDbEntity
  8
部品1
 48
50.0
100
AcDbLine
 10
7303.600000000002
 20
6427.069485050449
 30
0.0
 11
7303.600000000007
 21
6147.069485050447
 31
0.0
  0
LINE
  5
2306D
330
747D
100
AcDbEntity
  8
部品1
 48
50.0
100
AcDbLine
 10
7503.600000000002
 20
6427.069485050449
 30
0.0
 11
7503.600000000007
 21
6147.069485050451
 31
0.0
  0
LINE
  5
2306E
330
747D
100
AcDbEntity
  8
細線
 48
50.0
100
AcDbLine
 10
7303.600000000004
 20
6235.771523128067
 30
0.0
 11
7494.897961922385
 21
6427.069485050449
 31
0.0
  0
LINE
  5
2306F
330
747D
100
AcDbEntity
  8
細線
 48
50.0
100
AcDbLine
 10
7303.600000000007
 20
6190.870242522723
 30
0.0
 11
7503.6
 21
6390.870242522715
 31
0.0
  0
LINE
  5
23070
330
747D
100
AcDbEntity
  8
細線
 48
50.0
100
AcDbLine
 10
7304.70052313308
 20
6147.069485050447
 30
0.0
 11
7503.600000000004
 21
6345.968961917375
 31
0.0
  0
CIRCLE
  5
23071
330
747D
100
AcDbEntity
  8
部品1
 48
50.0
100
AcDbCircle
 10
7111.599999999993
 20
6345.069485050451
 30
0.0
 40
35.0
  0
LINE
  5
23072
330
747D
100
AcDbEntity
  8
センター
 48
2.0
100
AcDbLine
 10
7111.600000000009
 20
6395.069485050452
 30
0.0
 11
7111.600000000009
 21
6295.069485050452
 31
0.0
  0
LINE
  5
23073
330
747D
100
AcDbEntity
  8
センター
 48
2.0
100
AcDbLine
 10
7061.600000000009
 20
6345.069485050451
 30
0.0
 11
7161.600000000008
 21
6345.069485050451
 31
0.0
  0
LINE
  5
23074
330
747D
100
AcDbEntity
  8
細線
 48
50.0
100
AcDbLine
 10
7394.503084343772
 20
6147.06948505045
 30
0.0
 11
7503.600000000004
 21
6256.166400706683
 31
0.0
  0
LINE
  5
23075
330
747D
100
AcDbEntity
  8
細線
 48
50.0
100
AcDbLine
 10
7349.601803738426
 20
6147.06948505045
 30
0.0
 11
7503.600000000004
 21
6301.067681312032
 31
0.0
  0
LINE
  5
23076
330
747D
100
AcDbEntity
  8
細線
 48
50.0
100
AcDbLine
 10
7439.404364949118
 20
6147.069485050451
 30
0.0
 11
7503.600000000007
 21
6211.26512010134
 31
0.0
  0
LINE
  5
23077
330
747D
100
AcDbEntity
  8
細線
 48
50.0
100
AcDbLine
 10
7484.305645554467
 20
6147.069485050454
 30
0.0
 11
7503.600000000007
 21
6166.363839495994
 31
0.0
  0
LINE
  5
23078
102
{ACAD_REACTORS
330
23AB5
102
}
330
747D
100
AcDbEntity
  8
部品1
 48
50.0
100
AcDbLine
 10
7108.6
 20
6762.069485050459
 30
0.0
 11
6988.600000000001
 21
6762.069485050459
 31
0.0
  0
LINE
  5
23079
330
747D
100
AcDbEntity
  8
細線
 48
50.0
100
AcDbLine
 10
7303.600000000004
 20
6370.475364944106
 30
0.0
 11
7360.194120106341
 21
6427.069485050449
 31
0.0
  0
LINE
  5
2307A
330
747D
100
AcDbEntity
  8
細線
 48
50.0
100
AcDbLine
 10
8123.600000000006
 20
6280.67280373341
 30
0.0
 11
8269.996681317037
 21
6427.069485050456
 31
0.0
  0
LINE
  5
2307B
330
747D
100
AcDbEntity
  8
細線
 48
50.0
100
AcDbLine
 10
8123.600000000005
 20
6325.574084338759
 30
0.0
 11
8225.095400711701
 21
6427.069485050456
 31
0.0
  0
LINE
  5
2307C
330
747D
100
AcDbEntity
  8
部品1
 48
50.0
100
AcDbLine
 10
8323.6
 20
6427.069485050456
 30
0.0
 11
8323.600000000007
 21
6147.069485050451
 31
0.0
  0
LINE
  5
2307D
330
747D
100
AcDbEntity
  8
部品1
 48
50.0
100
AcDbLine
 10
8123.600000000001
 20
6427.069485050454
 30
0.0
 11
8123.600000000008
 21
6147.069485050447
 31
0.0
  0
LINE
  5
2307E
330
747D
100
AcDbEntity
  8
細線
 48
50.0
100
AcDbLine
 10
8123.600000000005
 20
6235.771523128067
 30
0.0
 11
8314.897961922392
 21
6427.069485050456
 31
0.0
  0
LINE
  5
2307F
330
747D
100
AcDbEntity
  8
細線
 48
50.0
100
AcDbLine
 10
8123.600000000008
 20
6190.870242522722
 30
0.0
 11
8323.600000000002
 21
6390.870242522717
 31
0.0
  0
LINE
  5
23080
330
747D
100
AcDbEntity
  8
細線
 48
50.0
100
AcDbLine
 10
8124.70052313308
 20
6147.069485050447
 30
0.0
 11
8323.6
 21
6345.968961917375
 31
0.0
  0
TEXT
  5
23081
330
747D
100
AcDbEntity
  8
寸法
 48
50.0
100
AcDbText
 10
7853.814275324047
 20
6165.750775843186
 30
0.0
 40
120.0
  1
扉面
  7
STYLE1
100
AcDbText
  0
LINE
  5
23082
330
747D
100
AcDbEntity
  8
細線
 48
50.0
100
AcDbLine
 10
8214.503084343773
 20
6147.06948505045
 30
0.0
 11
8323.600000000004
 21
6256.166400706683
 31
0.0
  0
LINE
  5
23083
330
747D
100
AcDbEntity
  8
細線
 48
50.0
100
AcDbLine
 10
8169.601803738427
 20
6147.06948505045
 30
0.0
 11
8323.600000000004
 21
6301.06768131203
 31
0.0
  0
LINE
  5
23084
330
747D
100
AcDbEntity
  8
細線
 48
50.0
100
AcDbLine
 10
8259.404364949119
 20
6147.069485050451
 30
0.0
 11
8323.600000000007
 21
6211.26512010134
 31
0.0
  0
LINE
  5
23085
330
747D
100
AcDbEntity
  8
細線
 48
50.0
100
AcDbLine
 10
8304.305645554467
 20
6147.069485050454
 30
0.0
 11
8323.600000000007
 21
6166.363839495994
 31
0.0
  0
LINE
  5
23086
330
747D
100
AcDbEntity
  8
センター
 48
2.0
100
AcDbLine
 10
7763.600000000008
 20
6874.069485050448
 30
0.0
 11
7863.600000000008
 21
6874.069485050448
 31
0.0
  0
LINE
  5
23087
330
747D
100
AcDbEntity
  8
部品1
 48
50.0
100
AcDbLine
 10
7913.600000000008
 20
6774.069485050448
 30
0.0
 11
7713.600000000008
 21
6774.069485050448
 31
0.0
  0
LINE
  5
23088
330
747D
100
AcDbEntity
  8
センター
 48
2.0
100
AcDbLine
 10
7813.600000000008
 20
6924.069485050448
 30
0.0
 11
7813.600000000008
 21
6824.069485050448
 31
0.0
  0
LINE
  5
23089
330
747D
100
AcDbEntity
  8
細線
 48
50.0
100
AcDbLine
 10
8123.600000000005
 20
6370.475364944106
 30
0.0
 11
8180.194120106351
 21
6427.069485050456
 31
0.0
  0
DIMENSION
  5
2308A
330
747D
100
AcDbEntity
  8
寸法
 48
50.0
100
AcDbDimension
  2
*D30
 10
6365.665006330072
 20
7404.069485050448
 30
0.0
 11
6365.665006330072
 21
7800.176086768248
 31
0.0
 70
   160
 71
     5
 42
123.0
  3
INABA_S40G
100
AcDbAlignedDimension
 13
6988.600000000001
 23
7527.069485050448
 33
0.0
 14
7061.6
 24
7404.069485050448
 34
0.0
 50
90.0
100
AcDbRotatedDimension
1001
ACAD
1000
DSTYLE
1002
{
1070
   341
1005
0
1002
}
  0
DIMENSION
  5
2308C
330
747D
100
AcDbEntity
  8
寸法
 48
50.0
100
AcDbDimension
  2
*D31
 10
6988.600000000001
 20
8253.335943144358
 30
0.0
 11
6715.493398282203
 21
8253.335943144358
 31
0.0
 70
   160
 71
     5
 42
123.0
  3
INABA_S40G
100
AcDbAlignedDimension
 13
7111.6
 23
7454.069485050448
 33
0.0
 14
6988.600000000001
 24
7527.069485050448
 34
0.0
100
AcDbRotatedDimension
1001
ACAD
1000
DSTYLE
1002
{
1070
   341
1005
0
1002
}
  0
LINE
  5
2308E
330
747D
100
AcDbEntity
  8
細線
 48
50.0
100
AcDbLine
 10
7303.600000000007
 20
7463.99457402429
 30
0.0
 11
7366.674911026168
 21
7527.069485050448
 31
0.0
  0
LINE
  5
2308F
330
747D
100
AcDbEntity
  8
細線
 48
50.0
100
AcDbLine
 10
7303.60000000001
 20
7419.093293418946
 30
0.0
 11
7411.576191631512
 21
7527.069485050446
 31
0.0
  0
LINE
  5
23090
330
747D
100
AcDbEntity
  8
部品1
 48
50.0
100
AcDbLine
 10
7503.600000000007
 20
7527.069485050448
 30
0.0
 11
7503.600000000012
 21
7327.069485050445
 31
0.0
  0
LINE
  5
23091
330
747D
100
AcDbEntity
  8
部品1
 48
50.0
100
AcDbLine
 10
7303.600000000007
 20
7527.069485050448
 30
0.0
 11
7303.600000000011
 21
7327.069485050445
 31
0.0
  0
LINE
  5
23092
330
747D
100
AcDbEntity
  8
細線
 48
50.0
100
AcDbLine
 10
7303.60000000001
 20
7374.192012813598
 30
0.0
 11
7456.477472236858
 21
7527.069485050448
 31
0.0
  0
LINE
  5
23093
330
747D
100
AcDbEntity
  8
細線
 48
50.0
100
AcDbLine
 10
7303.600000000011
 20
7329.290732208253
 30
0.0
 11
7501.378752842201
 21
7527.069485050446
 31
0.0
  0
LINE
  5
23094
102
{ACAD_REACTORS
330
23AB5
102
}
330
747D
100
AcDbEntity
  8
部品1
 48
50.0
100
AcDbLine
 10
7108.599999999999
 20
6962.069485050459
 30
0.0
 11
6988.600000000001
 21
6962.069485050459
 31
0.0
  0
CIRCLE
  5
23095
330
747D
100
AcDbEntity
  8
部品1
 48
50.0
100
AcDbCircle
 10
7111.6
 20
7404.069485050448
 30
0.0
 40
35.0
  0
LINE
  5
23096
330
747D
100
AcDbEntity
  8
センター
 48
2.0
100
AcDbLine
 10
7111.6
 20
7454.069485050448
 30
0.0
 11
7111.6
 21
7354.069485050448
 31
0.0
  0
LINE
  5
23097
330
747D
100
AcDbEntity
  8
センター
 48
2.0
100
AcDbLine
 10
7061.6
 20
7404.069485050448
 30
0.0
 11
7161.599999999999
 21
7404.069485050448
 31
0.0
  0
LINE
  5
23098
330
747D
100
AcDbEntity
  8
細線
 48
50.0
100
AcDbLine
 10
7346.280033447545
 20
7327.069485050444
 30
0.0
 11
7503.600000000007
 21
7484.389451602905
 31
0.0
  0
LINE
  5
23099
330
747D
100
AcDbEntity
  8
細線
 48
50.0
100
AcDbLine
 10
7391.181314052878
 20
7327.069485050445
 30
0.0
 11
7503.600000000007
 21
7439.488170997559
 31
0.0
  0
LINE
  5
2309A
330
747D
100
AcDbEntity
  8
細線
 48
50.0
100
AcDbLine
 10
7480.983875263568
 20
7327.069485050444
 30
0.0
 11
7503.600000000012
 21
7349.685609786885
 31
0.0
  0
LINE
  5
2309B
330
747D
100
AcDbEntity
  8
細線
 48
50.0
100
AcDbLine
 10
7436.082594658232
 20
7327.069485050445
 30
0.0
 11
7503.600000000012
 21
7394.586890392222
 31
0.0
  0
LINE
  5
2309C
330
747D
100
AcDbEntity
  8
細線
 48
50.0
100
AcDbLine
 10
7303.600000000007
 20
7508.895854629634
 30
0.0
 11
7321.773630420821
 21
7527.069485050448
 31
0.0
  0
LINE
  5
2309D
330
747D
100
AcDbEntity
  8
細線
 48
50.0
100
AcDbLine
 10
8123.600000000008
 20
7463.99457402429
 30
0.0
 11
8186.674911026168
 21
7527.069485050448
 31
0.0
  0
LINE
  5
2309E
330
747D
100
AcDbEntity
  8
細線
 48
50.0
100
AcDbLine
 10
8123.600000000008
 20
7419.093293418947
 30
0.0
 11
8231.576191631511
 21
7527.069485050446
 31
0.0
  0
LINE
  5
2309F
330
747D
100
AcDbEntity
  8
部品1
 48
50.0
100
AcDbLine
 10
8323.600000000007
 20
7527.069485050448
 30
0.0
 11
8323.600000000011
 21
7327.069485050448
 31
0.0
  0
LINE
  5
230A0
330
747D
100
AcDbEntity
  8
部品1
 48
50.0
100
AcDbLine
 10
8123.600000000008
 20
7527.069485050448
 30
0.0
 11
8123.600000000012
 21
7327.069485050448
 31
0.0
  0
LINE
  5
230A1
330
747D
100
AcDbEntity
  8
細線
 48
50.0
100
AcDbLine
 10
8123.600000000012
 20
7329.290732208256
 30
0.0
 11
8321.378752842202
 21
7527.069485050446
 31
0.0
  0
LINE
  5
230A2
330
747D
100
AcDbEntity
  8
細線
 48
50.0
100
AcDbLine
 10
8123.600000000012
 20
7374.192012813598
 30
0.0
 11
8276.477472236859
 21
7527.069485050448
 31
0.0
  0
LINE
  5
230A3
330
747D
100
AcDbEntity
  8
部品1
 48
50.0
100
AcDbLine
 10
7913.600000000008
 20
6974.069485050448
 30
0.0
 11
7713.600000000008
 21
6974.069485050448
 31
0.0
  0
LINE
  5
230A4
330
747D
100
AcDbEntity
  8
細線
 48
50.0
100
AcDbLine
 10
8211.181314052881
 20
7327.069485050448
 30
0.0
 11
8323.600000000007
 21
7439.488170997559
 31
0.0
  0
LINE
  5
230A5
330
747D
100
AcDbEntity
  8
細線
 48
50.0
100
AcDbLine
 10
8166.280033447545
 20
7327.069485050445
 30
0.0
 11
8323.600000000007
 21
7484.389451602905
 31
0.0
  0
LINE
  5
230A6
330
747D
100
AcDbEntity
  8
細線
 48
50.0
100
AcDbLine
 10
8300.98387526357
 20
7327.069485050445
 30
0.0
 11
8323.600000000011
 21
7349.685609786885
 31
0.0
  0
LINE
  5
230A7
330
747D
100
AcDbEntity
  8
細線
 48
50.0
100
AcDbLine
 10
8256.082594658231
 20
7327.069485050448
 30
0.0
 11
8323.600000000011
 21
7394.586890392223
 31
0.0
  0
LINE
  5
230A8
330
747D
100
AcDbEntity
  8
細線
 48
50.0
100
AcDbLine
 10
8123.600000000008
 20
7508.895854629634
 30
0.0
 11
8141.773630420821
 21
7527.069485050448
 31
0.0
  0
LINE
  5
230AA
330
747D
100
AcDbEntity
  8
部品1
 48
50.0
100
AcDbLine
 10
8533.600000000008
 20
6774.069485050448
 30
0.0
 11
8533.600000000008
 21
6974.069485050448
 31
0.0
  0
LINE
  5
230AB
330
747D
100
AcDbEntity
  8
部品1
 48
50.0
100
AcDbLine
 10
8733.600000000008
 20
6774.069485050448
 30
0.0
 11
8733.600000000008
 21
6974.069485050448
 31
0.0
  0
LINE
  5
230AC
102
{ACAD_REACTORS
330
23A9B
102
}
330
747D
100
AcDbEntity
  8
部品1
 48
50.0
100
AcDbLine
 10
9458.6
 20
6147.069485050466
 30
0.0
 11
9458.6
 21
7527.069485050448
 31
0.0
  0
DIMENSION
  5
230AF
330
747D
100
AcDbEntity
  8
寸法
 48
50.0
100
AcDbDimension
  2
*D32
 10
8633.600000000008
 20
8009.678301720695
 30
0.0
 11
9046.100000000004
 21
8109.690112744317
 31
0.0
 70
    32
 71
     5
 42
824.9999999999927
  3
INABA_S40G
100
AcDbAlignedDimension
 13
9458.6
 23
7527.069485050448
 33
0.0
 14
8633.600000000008
 24
6924.069485050448
 34
0.0
100
AcDbRotatedDimension
1001
ACAD
1000
DSTYLE
1002
{
1070
   341
1005
0
1002
}
  0
LINE
  5
230B7
330
747D
100
AcDbEntity
  8
細線
 48
50.0
100
AcDbLine
 10
8943.600000000003
 20
6325.574084338759
 30
0.0
 11
9045.095400711707
 21
6427.069485050463
 31
0.0
  0
LINE
  5
230B8
330
747D
100
AcDbEntity
  8
細線
 48
50.0
100
AcDbLine
 10
8943.600000000007
 20
6280.67280373341
 30
0.0
 11
9089.996681317044
 21
6427.069485050464
 31
0.0
  0
LINE
  5
230B9
330
747D
100
AcDbEntity
  8
細線
 48
50.0
100
AcDbLine
 10
8944.70052313308
 20
6147.069485050447
 30
0.0
 11
9143.600000000001
 21
6345.968961917375
 31
0.0
  0
LINE
  5
230BA
330
747D
100
AcDbEntity
  8
細線
 48
50.0
100
AcDbLine
 10
8943.600000000008
 20
6190.870242522722
 30
0.0
 11
9143.600000000002
 21
6390.870242522717
 31
0.0
  0
LINE
  5
230BB
330
747D
100
AcDbEntity
  8
細線
 48
50.0
100
AcDbLine
 10
8943.600000000003
 20
6235.771523128067
 30
0.0
 11
9134.8979619224
 21
6427.069485050463
 31
0.0
  0
LINE
  5
230BC
330
747D
100
AcDbEntity
  8
部品1
 48
50.0
100
AcDbLine
 10
8943.600000000001
 20
6427.069485050461
 30
0.0
 11
8943.600000000008
 21
6147.069485050447
 31
0.0
  0
LINE
  5
230BD
330
747D
100
AcDbEntity
  8
部品1
 48
50.0
100
AcDbLine
 10
9143.600000000001
 20
6427.069485050463
 30
0.0
 11
9143.600000000008
 21
6147.069485050451
 31
0.0
  0
LINE
  5
230BE
330
747D
100
AcDbEntity
  8
細線
 48
50.0
100
AcDbLine
 10
8989.601803738425
 20
6147.06948505045
 30
0.0
 11
9143.600000000004
 21
6301.06768131203
 31
0.0
  0
LINE
  5
230BF
330
747D
100
AcDbEntity
  8
細線
 48
50.0
100
AcDbLine
 10
9034.503084343773
 20
6147.06948505045
 30
0.0
 11
9143.600000000004
 21
6256.166400706683
 31
0.0
  0
LINE
  5
230C0
330
747D
100
AcDbEntity
  8
細線
 48
50.0
100
AcDbLine
 10
9124.305645554466
 20
6147.069485050454
 30
0.0
 11
9143.600000000008
 21
6166.363839495994
 31
0.0
  0
LINE
  5
230C1
330
747D
100
AcDbEntity
  8
細線
 48
50.0
100
AcDbLine
 10
9079.40436494912
 20
6147.069485050451
 30
0.0
 11
9143.600000000008
 21
6211.26512010134
 31
0.0
  0
LINE
  5
230C2
330
747D
100
AcDbEntity
  8
センター
 48
2.0
100
AcDbLine
 10
8583.600000000009
 20
6874.069485050448
 30
0.0
 11
8683.600000000009
 21
6874.069485050448
 31
0.0
  0
LINE
  5
230C3
330
747D
100
AcDbEntity
  8
部品1
 48
50.0
100
AcDbLine
 10
8733.600000000008
 20
6774.069485050448
 30
0.0
 11
8533.600000000008
 21
6774.069485050448
 31
0.0
  0
LINE
  5
230C4
330
747D
100
AcDbEntity
  8
センター
 48
2.0
100
AcDbLine
 10
8633.600000000008
 20
6924.069485050448
 30
0.0
 11
8633.600000000008
 21
6824.069485050448
 31
0.0
  0
LINE
  5
230C5
330
747D
100
AcDbEntity
  8
細線
 48
50.0
100
AcDbLine
 10
8943.600000000003
 20
6370.475364944106
 30
0.0
 11
9000.19412010636
 21
6427.069485050461
 31
0.0
  0
CIRCLE
  5
230C6
330
747D
100
AcDbEntity
  8
部品1
 48
50.0
100
AcDbCircle
 10
9335.600000000008
 20
6345.069485050451
 30
0.0
 40
35.0
  0
LINE
  5
230C7
330
747D
100
AcDbEntity
  8
センター
 48
2.0
100
AcDbLine
 10
9335.600000000008
 20
6395.069485050452
 30
0.0
 11
9335.600000000008
 21
6295.069485050452
 31
0.0
  0
LINE
  5
230C8
330
747D
100
AcDbEntity
  8
センター
 48
2.0
100
AcDbLine
 10
9285.600000000007
 20
6345.069485050451
 30
0.0
 11
9385.600000000009
 21
6345.069485050451
 31
0.0
  0
LINE
  5
230C9
102
{ACAD_REACTORS
330
23A9B
102
}
330
747D
100
AcDbEntity
  8
部品1
 48
50.0
100
AcDbLine
 10
9458.6
 20
6762.069485050459
 30
0.0
 11
9338.600000000001
 21
6762.069485050459
 31
0.0
  0
DIMENSION
  5
230CB
330
747D
100
AcDbEntity
  8
寸法
 48
50.0
100
AcDbDimension
  2
*D33
 10
9335.600000000001
 20
8253.335943144358
 30
0.0
 11
9731.706601717799
 21
8253.335943144358
 31
0.0
 70
   160
 71
     5
 42
123.0
  3
INABA_S40G
100
AcDbAlignedDimension
 13
9458.6
 23
7527.069485050448
 33
0.0
 14
9335.600000000001
 24
7454.069485050448
 34
0.0
100
AcDbRotatedDimension
1001
ACAD
1000
DSTYLE
1002
{
1070
   341
1005
0
1002
}
  0
LINE
  5
230CC
330
747D
100
AcDbEntity
  8
細線
 48
50.0
100
AcDbLine
 10
8943.600000000008
 20
7463.99457402429
 30
0.0
 11
9006.674911026168
 21
7527.069485050448
 31
0.0
  0
LINE
  5
230CD
330
747D
100
AcDbEntity
  8
細線
 48
50.0
100
AcDbLine
 10
8943.600000000008
 20
7419.093293418947
 30
0.0
 11
9051.576191631511
 21
7527.069485050446
 31
0.0
  0
LINE
  5
230CE
330
747D
100
AcDbEntity
  8
細線
 48
50.0
100
AcDbLine
 10
8943.600000000012
 20
7374.192012813598
 30
0.0
 11
9096.477472236859
 21
7527.069485050448
 31
0.0
  0
LINE
  5
230CF
330
747D
100
AcDbEntity
  8
細線
 48
50.0
100
AcDbLine
 10
8943.600000000012
 20
7329.290732208256
 30
0.0
 11
9141.378752842202
 21
7527.069485050446
 31
0.0
  0
LINE
  5
230D0
330
747D
100
AcDbEntity
  8
部品1
 48
50.0
100
AcDbLine
 10
8943.600000000008
 20
7527.069485050448
 30
0.0
 11
8943.600000000012
 21
7327.069485050448
 31
0.0
  0
LINE
  5
230D1
330
747D
100
AcDbEntity
  8
部品1
 48
50.0
100
AcDbLine
 10
9143.600000000008
 20
7527.069485050448
 30
0.0
 11
9143.600000000011
 21
7327.069485050448
 31
0.0
  0
LINE
  5
230D3
330
747D
100
AcDbEntity
  8
部品1
 48
50.0
100
AcDbLine
 10
8733.600000000008
 20
6974.069485050448
 30
0.0
 11
8533.600000000008
 21
6974.069485050448
 31
0.0
  0
LINE
  5
230D4
330
747D
100
AcDbEntity
  8
細線
 48
50.0
100
AcDbLine
 10
8986.280033447545
 20
7327.069485050445
 30
0.0
 11
9143.600000000008
 21
7484.389451602905
 31
0.0
  0
LINE
  5
230D5
330
747D
100
AcDbEntity
  8
細線
 48
50.0
100
AcDbLine
 10
9031.181314052881
 20
7327.069485050448
 30
0.0
 11
9143.600000000008
 21
7439.488170997559
 31
0.0
  0
LINE
  5
230D6
330
747D
100
AcDbEntity
  8
細線
 48
50.0
100
AcDbLine
 10
9076.082594658231
 20
7327.069485050448
 30
0.0
 11
9143.600000000011
 21
7394.586890392223
 31
0.0
  0
LINE
  5
230D7
330
747D
100
AcDbEntity
  8
細線
 48
50.0
100
AcDbLine
 10
9120.98387526357
 20
7327.069485050445
 30
0.0
 11
9143.600000000011
 21
7349.685609786885
 31
0.0
  0
LINE
  5
230D8
330
747D
100
AcDbEntity
  8
細線
 48
50.0
100
AcDbLine
 10
8943.600000000008
 20
7508.895854629634
 30
0.0
 11
8961.77363042082
 21
7527.069485050448
 31
0.0
  0
LINE
  5
230DA
102
{ACAD_REACTORS
330
23A9B
102
}
330
747D
100
AcDbEntity
  8
部品1
 48
50.0
100
AcDbLine
 10
9458.6
 20
6962.069485050459
 30
0.0
 11
9338.600000000001
 21
6962.069485050458
 31
0.0
  0
LINE
  5
230DB
330
747D
100
AcDbEntity
  8
センター
 48
2.0
100
AcDbLine
 10
9285.6
 20
7404.069485050448
 30
0.0
 11
9385.600000000001
 21
7404.069485050448
 31
0.0
  0
CIRCLE
  5
230DC
330
747D
100
AcDbEntity
  8
部品1
 48
50.0
100
AcDbCircle
 10
9335.600000000001
 20
7404.069485050448
 30
0.0
 40
35.0
  0
LINE
  5
230DD
330
747D
100
AcDbEntity
  8
センター
 48
2.0
100
AcDbLine
 10
9335.600000000001
 20
7454.069485050448
 30
0.0
 11
9335.600000000001
 21
7354.069485050448
 31
0.0
  0
TEXT
  5
236D1
330
747D
100
AcDbEntity
  8
文字
 62
     7
 48
50.0
100
AcDbText
 10
14251.2
 20
838.2527270729188
 30
0.0
 40
100.0
  1
～一般型・多雪地型・豪雪地型～
  7
STYLE2
100
AcDbText
  0
LINE
  5
236F1
330
747D
100
AcDbEntity
  8
部品1
 48
50.0
100
AcDbLine
 10
9338.600000000001
 20
6427.069485050466
 30
0.0
 11
7108.6
 21
6427.069485050445
 31
0.0
  0
LINE
  5
238C9
330
747D
100
AcDbEntity
  8
部品1
100
AcDbLine
 10
11167.61237579337
 20
3186.746160051989
 30
0.0
 11
5096.627190407119
 21
3186.746160051989
 31
0.0
  0
LINE
  5
238CA
330
747D
100
AcDbEntity
  8
部品1
100
AcDbLine
 10
11167.61237579337
 20
2946.746160051987
 30
0.0
 11
5096.627190407122
 21
2946.746160051987
 31
0.0
  0
LINE
  5
238CB
330
747D
100
AcDbEntity
  8
部品1
100
AcDbLine
 10
5096.627190407123
 20
222.4391904673421
 30
0.0
 11
11167.61237579337
 21
222.4391904673421
 31
0.0
  0
LEADER
  5
238CC
330
747D
100
AcDbEntity
  8
寸法
 48
50.0
100
AcDbLeader
  3
INABA_S50G
 73
     0
 74
     0
 75
     1
 40
102.2727272727273
 41
680.0000000000001
 76
     3
 10
8104.734942393577
 20
2186.282773960547
 30
0.0
 10
8139.088913506935
 20
2596.735585067087
 30
0.0
 10
8264.088913506935
 20
2596.735585067087
 30
0.0
340
238CD
1001
ACAD
1000
DSTYLE
1002
{
1070
   341
1005
0
1070
    40
1040
1.0
1070
   343
1005
0
1070
   344
1005
0
1002
}
  0
MTEXT
  5
238CD
102
{ACAD_REACTORS
330
238CC
102
}
330
747D
100
AcDbEntity
  8
部品1
 62
     7
 48
50.0
100
AcDbMText
 10
8289.088913506935
 20
2672.871948703452
 30
0.0
 40
80.0
 41
0.8
 71
     4
 72
     1
  1
\A1;ナット(市販品)
  7
STYLE2
 73
     1
 44
1.0
1001
ACAD
1000
MTEXTBEGIN
1070
    73
1070
     1
1070
    44
1040
1.0
1070
    74
1070
     0
1000
MTEXTEND
  0
LEADER
  5
238CE
330
747D
100
AcDbEntity
  8
寸法
 48
50.0
100
AcDbLeader
  3
INABA_S50G
 73
     0
 74
     0
 75
     1
 40
102.2727272727273
 41
906.8181818181818
 76
     3
 10
8128.734942393577
 20
2056.530781295684
 30
0.0
 10
8170.606532762416
 20
2411.7665023023
 30
0.0
 10
8295.606532762416
 20
2411.7665023023
 30
0.0
340
238CF
1001
ACAD
1000
DSTYLE
1002
{
1070
   341
1005
0
1070
    40
1040
1.0
1070
   343
1005
0
1070
   344
1005
0
1002
}
  0
MTEXT
  5
238CF
102
{ACAD_REACTORS
330
238CE
102
}
330
747D
100
AcDbEntity
  8
部品1
 62
     7
 48
50.0
100
AcDbMText
 10
8320.606532762417
 20
2487.902865938664
 30
0.0
 40
80.0
 41
0.8
 71
     4
 72
     1
  1
\A1;ワッシャー(市販品)
  7
STYLE2
 73
     1
 44
1.0
1001
ACAD
1000
MTEXTBEGIN
1070
    73
1070
     1
1070
    44
1040
1.0
1070
    74
1070
     0
1000
MTEXTEND
  0
LWPOLYLINE
  5
238D0
330
747D
100
AcDbEntity
  8
部品1
 48
50.0
100
AcDbPolyline
 90
        2
 70
     0
 43
8.0
 10
8281.334942393575
 20
1547.407492851404
 10
8575.03740579296
 20
1547.407492851404
  0
TEXT
  5
238D1
330
747D
100
AcDbEntity
  8
部品1
 48
50.0
100
AcDbText
 10
8285.688526678006
 20
2143.286173613604
 30
0.0
 40
80.0
  1
基礎ボルト(市販品)
  7
STYLE2
100
AcDbText
  0
DIMENSION
  5
238D2
330
747D
100
AcDbEntity
  8
寸法
 48
50.0
100
AcDbDimension
  2
*D50
 10
8783.203542162421
 20
1463.407492851402
 30
0.0
 11
8683.203542162422
 21
1625.407492851405
 31
0.0
 70
    32
  1
180
 71
     5
 42
324.0000000000009
  3
INABA_S40G
100
AcDbAlignedDimension
 13
8281.334942393575
 23
1787.407492851404
 33
0.0
 14
8281.334942393575
 24
1463.407492851403
 34
0.0
 50
90.0
100
AcDbRotatedDimension
1001
ACAD
1000
DSTYLE
1002
{
1070
   341
1005
0
1002
}
  0
DIMENSION
  5
238D3
330
747D
100
AcDbEntity
  8
寸法
 48
50.0
100
AcDbDimension
  2
*D51
 10
9059.258208281447
 20
1787.407492851403
 30
0.0
 11
9059.258208281447
 21
1321.398589429921
 31
0.0
 70
   160
  1
20～25
 71
     5
 42
52.76000000000113
  3
INABA_S40G
100
AcDbAlignedDimension
 13
8094.134942393578
 23
1840.167492851405
 33
0.0
 14
8281.334942393575
 24
1787.407492851404
 34
0.0
 50
90.0
100
AcDbRotatedDimension
1001
ACAD
1000
DSTYLE
1002
{
1070
   341
1005
0
1002
}
  0
MTEXT
  5
238D4
102
{ACAD_REACTORS
330
238D5
102
}
330
747D
100
AcDbEntity
  8
部品1
 62
     7
 48
50.0
100
AcDbMText
 10
8290.279404812897
 20
2051.790819004634
 30
0.0
 40
80.0
 41
0.8
 71
     4
 72
     1
  1
M10X160
  7
STYLE2
 73
     1
 44
1.0
1001
ACAD
1000
MTEXTBEGIN
1070
    73
1070
     1
1070
    44
1040
1.0
1070
    74
1070
     0
1000
MTEXTEND
  0
LEADER
  5
238D5
330
747D
100
AcDbEntity
  8
寸法
 48
50.0
100
AcDbLeader
  3
INABA_S50G
 73
     0
 74
     0
 75
     1
 40
80.0
 41
435.0
 76
     3
 10
8097.734942393577
 20
1836.567492851404
 30
0.0
 10
8140.279404812897
 20
1986.790819004633
 30
0.0
 10
8265.279404812897
 20
1986.790819004633
 30
0.0
340
238D4
1001
ACAD
1000
DSTYLE
1002
{
1070
   341
1005
0
1070
    40
1040
1.0
1070
   343
1005
0
1070
   344
1005
0
1002
}
  0
LINE
  5
238D6
330
747D
100
AcDbEntity
  8
部品1
100
AcDbLine
 10
5096.62719040712
 20
3186.746160051989
 30
0.0
 11
5096.627190407122
 21
222.4391904673421
 31
0.0
  0
LEADER
  5
238D7
330
747D
100
AcDbEntity
  8
寸法
 48
50.0
100
AcDbLeader
  3
INABA_S50G
 73
     0
 75
     1
 40
113.1818181818182
 41
608.6363636363635
 76
     3
 10
8057.471692531628
 20
1736.923166209682
 30
0.0
 10
7923.667863840279
 20
2588.302248566161
 30
0.0
 10
7798.667863840279
 20
2588.302248566161
 30
0.0
340
238D8
1001
ACAD
1000
DSTYLE
1002
{
1070
   341
1005
0
1070
    40
1040
1.0
1070
   343
1005
0
1070
   344
1005
0
1002
}
  0
MTEXT
  5
238D8
102
{ACAD_REACTORS
330
238D7
102
}
330
747D
100
AcDbEntity
  8
寸法
 62
     7
 48
50.0
100
AcDbMText
 10
7773.667863840279
 20
2669.89315765707
 30
0.0
 40
80.0
 41
0.8
 71
     6
 72
     1
  1
\A1;φ70スリーブ
  7
STYLE2
 73
     1
 44
1.0
1001
ACAD
1000
MTEXTBEGIN
1070
    73
1070
     1
1070
    44
1040
1.0
1070
    74
1070
     0
1000
MTEXTEND
  0
LWPOLYLINE
  5
238D9
330
747D
100
AcDbEntity
  8
部品1
 48
50.0
100
AcDbPolyline
 90
        2
 70
     0
 43
8.0
 10
5753.155727383425
 20
1547.407492851404
 10
6167.295629216383
 20
1547.407492851404
  0
TEXT
  5
238DA
330
747D
100
AcDbEntity
  8
部品1
 48
50.0
100
AcDbText
 10
5753.155727383425
 20
1558.646485134659
 30
0.0
 40
80.0
  1
▽G.L
  7
STYLE2
100
AcDbText
  0
DIMENSION
  5
238DB
330
747D
100
AcDbEntity
  8
寸法
 48
50.0
100
AcDbDimension
  2
*D52
 10
5896.875315483923
 20
1003.407492851404
 30
0.0
 11
5896.875315483923
 21
1123.407492851404
 31
0.0
 70
   160
  1
150
 71
     5
 42
240.0
  3
INABA_S40G
100
AcDbAlignedDimension
 13
6039.295629216383
 23
1243.407492851404
 33
0.0
 14
5959.295629216386
 24
1003.407492851404
 34
0.0
 50
90.0
100
AcDbRotatedDimension
1001
ACAD
1000
DSTYLE
1002
{
1070
   341
1005
0
1002
}
  0
LEADER
  5
238DC
330
747D
100
AcDbEntity
  8
寸法
 48
50.0
100
AcDbLeader
  3
INABA_S50G
 71
     0
 73
     0
 75
     1
 40
100.0
 41
225.0
 76
     3
 10
6135.198581568526
 20
1123.407492851403
 30
0.0
 10
6013.360603021189
 20
859.8847992329675
 30
0.0
 10
5888.360603021189
 20
859.8847992329675
 30
0.0
1001
ACAD
1000
DSTYLE
1002
{
1070
    40
1040
1.0
1070
   272
1070
     1
1070
   279
1070
     1
1070
   341
1005
0
1002
}
  0
LEADER
  5
238DD
330
747D
100
AcDbEntity
  8
寸法
 48
50.0
100
AcDbLeader
  3
INABA_S50G
 71
     0
 73
     0
 75
     1
 40
100.0
 41
222.7272727272727
 76
     3
 10
6263.295629216383
 20
1123.407492851403
 30
0.0
 10
6041.483330578623
 20
679.5686466935239
 30
0.0
 10
5916.483330578623
 20
679.5686466935239
 30
0.0
1001
ACAD
1000
DSTYLE
1002
{
1070
    40
1040
1.0
1070
   272
1070
     1
1070
   279
1070
     1
1070
   341
1005
0
1002
}
  0
MTEXT
  5
238DE
102
{ACAD_REACTORS
330
238DF
102
}
330
747D
100
AcDbEntity
  8
寸法
 62
     7
 48
50.0
100
AcDbMText
 10
6078.045574993578
 20
1388.70809566886
 30
0.0
 40
80.0
 41
0.8
 71
     6
 72
     1
  1
\A1;D10@300
  7
STYLE2
 73
     1
 44
1.0
1001
ACAD
1000
MTEXTBEGIN
1070
    73
1070
     1
1070
    44
1040
1.0
1070
    74
1070
     0
1000
MTEXTEND
  0
LEADER
  5
238DF
330
747D
100
AcDbEntity
  8
寸法
 48
50.0
100
AcDbLeader
  3
INABA_S50G
 71
     0
 73
     0
 75
     1
 40
100.0
 41
540.3409090909091
 76
     3
 10
6271.295629216383
 20
1545.534707548527
 30
0.0
 10
6213.313392687684
 20
1324.064379007722
 30
0.0
 10
6088.313392687684
 20
1324.064379007722
 30
0.0
213
-9.732182305893367
223
-4.643716661138569
233
0.0
1001
ACAD
1000
DSTYLE
1002
{
1070
    40
1040
1.0
1070
   272
1070
     1
1070
   279
1070
     1
1070
   341
1005
0
1002
}
  0
LEADER
  5
238E0
330
747D
100
AcDbEntity
  8
寸法
 48
50.0
100
AcDbLeader
  3
INABA_S50G
 71
     0
 73
     0
 75
     1
 40
130.1136363636363
 41
651.1363636363636
 76
     3
 10
6247.295629216383
 20
1787.407492851404
 30
0.0
 10
6134.871049052367
 20
1927.878258307992
 30
0.0
 10
6009.871049052367
 20
1927.878258307992
 30
0.0
1001
ACAD
1000
DSTYLE
1002
{
1070
    40
1040
1.0
1070
   272
1070
     1
1070
   279
1070
     1
1070
   341
1005
0
1002
}
  0
MTEXT
  5
238E1
102
{ACAD_REACTORS
330
238E0
102
}
330
747D
100
AcDbEntity
  8
寸法
 62
     7
 48
50.0
100
AcDbMText
 10
5947.19714973311
 20
1999.923712853446
 30
0.0
 40
80.0
 41
0.8
 71
     6
 72
     1
  1
\A1;金コテ押エ
  7
STYLE2
 73
     1
 44
1.0
1001
ACAD
1000
MTEXTBEGIN
1070
    73
1070
     1
1070
    44
1040
1.0
1070
    74
1070
     0
1000
MTEXTEND
  0
DIMENSION
  5
238E2
330
747D
100
AcDbEntity
  8
寸法
 48
50.0
100
AcDbDimension
  2
*D53
 10
5432.258390654642
 20
1003.407492851404
 30
0.0
 11
5432.258390654642
 21
1374.947642507404
 31
0.0
 70
   160
  1
540
 71
     5
 42
784.0
  3
INABA_S40G
100
AcDbAlignedDimension
 13
6167.295629216383
 23
1787.407492851404
 33
0.0
 14
5959.295629216386
 24
1003.407492851404
 34
0.0
 50
90.0
100
AcDbRotatedDimension
1001
ACAD
1000
DSTYLE
1002
{
1070
   341
1005
0
1002
}
  0
MTEXT
  5
238E3
102
{ACAD_REACTORS
330
238DD
102
}
330
747D
100
AcDbEntity
  8
寸法
 62
     7
 48
50.0
100
AcDbMText
 10
5896.483330578623
 20
739.568646693524
 30
0.0
 40
80.0
 41
0.8
 71
     6
 72
     1
  1
D13
  7
STYLE2
 73
     1
 44
1.0
1001
ACAD
1000
MTEXTBEGIN
1070
    73
1070
     1
1070
    44
1040
1.0
1070
    74
1070
     0
1000
MTEXTEND
  0
MTEXT
  5
238E4
102
{ACAD_REACTORS
330
238DC
102
}
330
747D
100
AcDbEntity
  8
寸法
 62
     7
 48
50.0
100
AcDbMText
 10
5868.360603021188
 20
919.8847992329675
 30
0.0
 40
80.0
 41
0.8
 71
     6
 72
     1
  1
D10
  7
STYLE2
 73
     1
 44
1.0
1001
ACAD
1000
MTEXTBEGIN
1070
    73
1070
     1
1070
    44
1040
1.0
1070
    74
1070
     0
1000
MTEXTEND
  0
DIMENSION
  5
238E5
330
747D
100
AcDbEntity
  8
寸法
 48
50.0
100
AcDbDimension
  2
*D54
 10
6487.295629216382
 20
464.9778548462436
 30
0.0
 11
6243.198870538159
 21
464.9778548462436
 31
0.0
 70
   160
  1
300
 71
     5
 42
448.0
  3
INABA_S40G
100
AcDbAlignedDimension
 13
6039.295629216383
 23
875.4074928514038
 33
0.0
 14
6487.295629216382
 24
875.4074928514038
 34
0.0
100
AcDbRotatedDimension
1001
ACAD
1000
DSTYLE
1002
{
1070
   341
1005
0
1002
}
  0
MTEXT
  5
238E6
102
{ACAD_REACTORS
330
238E7
102
}
330
747D
100
AcDbEntity
  8
寸法
 62
     7
 48
50.0
100
AcDbMText
 10
7800.310870048638
 20
2309.208885749555
 30
0.0
 40
80.0
 41
0.8
 71
     6
 72
     1
  1
\A1;アンカープレート L
  7
STYLE2
 73
     1
 44
1.0
1001
ACAD
1000
MTEXTBEGIN
1070
    73
1070
     1
1070
    44
1040
1.0
1070
    74
1070
     0
1000
MTEXTEND
  0
LEADER
  5
238E7
330
747D
100
AcDbEntity
  8
寸法
 48
50.0
100
AcDbLeader
  3
INABA_S50G
 73
     0
 75
     1
 40
106.3636363636363
 41
893.1818181818181
 76
     3
 10
7998.734942393578
 20
1856.967492851405
 30
0.0
 10
7950.310870048638
 20
2231.027067567737
 30
0.0
 10
7825.310870048638
 20
2231.027067567737
 30
0.0
340
238E6
1001
ACAD
1000
DSTYLE
1002
{
1070
   341
1005
0
1070
    40
1040
1.0
1070
   343
1005
0
1070
   344
1005
0
1002
}
  0
LINE
  5
238E8
330
747D
100
AcDbEntity
  8
細線
 48
50.0
100
AcDbLine
 10
6287.295629216384
 20
1625.780385519234
 30
0.0
 11
6359.295629216383
 21
1697.780385519234
 31
0.0
  0
ARC
  5
238E9
330
747D
100
AcDbEntity
  8
部品1
 48
50.0
100
AcDbCircle
 10
6263.295629216384
 20
1647.661922245649
 30
0.0
 40
24.0
100
AcDbArc
 50
0.0
 51
180.0
  0
CIRCLE
  5
238EA
330
747D
100
AcDbEntity
  8
部品1
 48
50.0
100
AcDbCircle
 10
6263.295629216384
 20
1647.661922245649
 30
0.0
 40
8.0
  0
LINE
  5
238EB
330
747D
100
AcDbEntity
  8
部品1
 48
50.0
100
AcDbLine
 10
6167.295629216384
 20
1243.407492851404
 30
0.0
 11
6167.295629216384
 21
1787.407492851404
 31
0.0
  0
LINE
  5
238EC
330
747D
100
AcDbEntity
  8
部品1
 48
50.0
100
AcDbLine
 10
6359.295629216383
 20
1787.407492851404
 30
0.0
 11
6359.295629216383
 21
1243.407492851404
 31
0.0
  0
MTEXT
  5
238ED
102
{ACAD_REACTORS
330
238F2
102
}
330
747D
100
AcDbEntity
  8
寸法
 62
     7
 48
50.0
100
AcDbMText
 10
6442.181566243778
 20
1809.963392144214
 30
0.0
 40
80.0
 41
0.8
 71
     4
 72
     1
  1
D13
  7
STYLE2
 73
     1
 44
1.0
1001
ACAD
1000
MTEXTBEGIN
1070
    73
1070
     1
1070
    44
1040
1.0
1070
    74
1070
     0
1000
MTEXTEND
  0
LEADER
  5
238EE
330
747D
100
AcDbEntity
  8
寸法
 48
50.0
100
AcDbLeader
  3
INABA_S50G
 71
     0
 73
     0
 74
     0
 75
     1
 40
100.0
 41
225.0
 76
     3
 10
6391.198581568525
 20
1123.407492851403
 30
0.0
 10
6445.623289023068
 20
1028.010423908431
 30
0.0
 10
6570.623289023068
 20
1028.010423908431
 30
0.0
1001
ACAD
1000
DSTYLE
1002
{
1070
    40
1040
1.0
1070
   272
1070
     1
1070
   279
1070
     1
1070
   341
1005
0
1002
}
  0
LEADER
  5
238EF
330
747D
100
AcDbEntity
  8
寸法
 48
50.0
100
AcDbLeader
  3
INABA_S50G
 71
     0
 73
     0
 74
     0
 75
     1
 40
100.0
 41
540.3409090909091
 76
     3
 10
6337.240798229557
 20
1106.666962437878
 30
0.0
 10
6456.034085077634
 20
765.0361444429809
 30
0.0
 10
6581.034085077634
 20
765.0361444429809
 30
0.0
213
0.0
223
-1.022262676269383
233
0.0
1001
ACAD
1000
DSTYLE
1002
{
1070
    40
1040
1.0
1070
   272
1070
     1
1070
   279
1070
     1
1070
   341
1005
0
1002
}
  0
MTEXT
  5
238F0
102
{ACAD_REACTORS
330
238EE
102
}
330
747D
100
AcDbEntity
  8
寸法
 62
     7
 48
50.0
100
AcDbMText
 10
6590.623289023068
 20
1088.010423908431
 30
0.0
 40
80.0
 41
0.8
 71
     4
 72
     1
  1
D10
  7
STYLE2
 73
     1
 44
1.0
1001
ACAD
1000
MTEXTBEGIN
1070
    73
1070
     1
1070
    44
1040
1.0
1070
    74
1070
     0
1000
MTEXTEND
  0
LWPOLYLINE
  5
238F1
330
747D
100
AcDbEntity
  8
部品1
 48
50.0
100
AcDbPolyline
 90
        2
 70
     0
 43
8.0
 10
6359.295629216383
 20
1547.407492851404
 10
6773.43553104934
 20
1547.407492851404
  0
LEADER
  5
238F2
330
747D
100
AcDbEntity
  8
寸法
 48
50.0
100
AcDbLeader
  3
INABA_S50G
 71
     0
 73
     0
 74
     0
 75
     1
 40
100.0
 41
222.7272727272727
 76
     3
 10
6263.295629216383
 20
1647.661922245649
 30
0.0
 10
6317.181566243778
 20
1746.897495098823
 30
0.0
 10
6442.181566243778
 20
1746.897495098823
 30
0.0
1001
ACAD
1000
DSTYLE
1002
{
1070
    40
1040
1.0
1070
   272
1070
     1
1070
   279
1070
     1
1070
   341
1005
0
1002
}
  0
LINE
  5
238F3
330
747D
100
AcDbEntity
  8
細線
 48
50.0
100
AcDbLine
 10
6039.295629216376
 20
1162.254238613575
 30
0.0
 11
6120.448883454212
 21
1243.407492851404
 31
0.0
  0
LINE
  5
238F4
330
747D
100
AcDbEntity
  8
細線
 48
50.0
100
AcDbLine
 10
6247.161476693787
 20
1181.534707548526
 30
0.0
 11
6271.295629216389
 21
1205.668860071125
 31
0.0
  0
LINE
  5
238F5
330
747D
100
AcDbEntity
  8
細線
 48
50.0
100
AcDbLine
 10
6154.093493633457
 20
1115.407492851403
 30
0.0
 11
6271.295629216384
 21
1232.609628434329
 31
0.0
  0
LINE
  5
238F6
330
747D
100
AcDbEntity
  8
部品1
 48
50.0
100
AcDbLine
 10
6039.295629216383
 20
1003.407492851404
 30
0.0
 11
6039.295629216383
 21
1243.407492851404
 31
0.0
  0
LINE
  5
238F7
330
747D
100
AcDbEntity
  8
細線
 48
50.0
100
AcDbLine
 10
6396.560408902328
 20
1115.407492851403
 30
0.0
 11
6487.295629216383
 21
1206.142713165462
 31
0.0
  0
LINE
  5
238F8
330
747D
100
AcDbEntity
  8
細線
 48
50.0
100
AcDbLine
 10
6369.619640539111
 20
1115.407492851403
 30
0.0
 11
6487.295629216383
 21
1233.08348152867
 31
0.0
  0
LINE
  5
238F9
330
747D
100
AcDbEntity
  8
部品1
 48
50.0
100
AcDbLine
 10
6487.295629216383
 20
1243.407492851404
 30
0.0
 11
6487.295629216383
 21
1003.407492851404
 31
0.0
  0
LINE
  5
238FA
330
747D
100
AcDbEntity
  8
部品1
 48
50.0
100
AcDbLine
 10
6287.295629216389
 20
1123.407492851403
 30
0.0
 11
6287.295629216384
 21
1647.661922245649
 31
0.0
  0
LINE
  5
238FB
330
747D
100
AcDbEntity
  8
部品1
 48
50.0
100
AcDbLine
 10
6271.295629216389
 20
1123.407492851403
 30
0.0
 11
6271.295629216377
 21
1647.661922245649
 31
0.0
  0
LINE
  5
238FC
330
747D
100
AcDbEntity
  8
細線
 48
50.0
100
AcDbLine
 10
6255.295629216384
 20
1162.728091707915
 30
0.0
 11
6271.295629216389
 21
1178.728091707915
 31
0.0
  0
LINE
  5
238FD
330
747D
100
AcDbEntity
  8
細線
 48
50.0
100
AcDbLine
 10
6244.478468712397
 20
875.4074928514038
 30
0.0
 11
6278.77596534358
 21
1003.407492851404
 31
0.0
  0
LINE
  5
238FE
330
747D
100
AcDbEntity
  8
部品1
 48
50.0
100
AcDbLine
 10
6567.295629216387
 20
875.4074928514038
 30
0.0
 11
5959.295629216385
 21
875.4074928514038
 31
0.0
  0
LINE
  5
238FF
330
747D
100
AcDbEntity
  8
部品1
 48
50.0
100
AcDbLine
 10
6095.295629216384
 20
1099.407492851403
 30
0.0
 11
6431.295629216383
 21
1099.407492851403
 31
0.0
  0
LINE
  5
23900
330
747D
100
AcDbEntity
  8
部品1
 48
50.0
100
AcDbLine
 10
6095.295629216384
 20
1115.407492851403
 30
0.0
 11
6431.295629216383
 21
1115.407492851403
 31
0.0
  0
LINE
  5
23901
330
747D
100
AcDbEntity
  8
部品1
 48
50.0
100
AcDbLine
 10
6567.295629216387
 20
1003.407492851404
 30
0.0
 11
5959.295629216385
 21
1003.407492851404
 31
0.0
  0
CIRCLE
  5
23902
330
747D
100
AcDbEntity
  8
部品1
 48
50.0
100
AcDbCircle
 10
6263.295629216384
 20
1123.407492851403
 30
0.0
 40
8.0
  0
LINE
  5
23903
330
747D
100
AcDbEntity
  8
細線
 48
50.0
100
AcDbLine
 10
6257.619640539116
 20
1003.407492851404
 30
0.0
 11
6353.619640539116
 21
1099.407492851403
 31
0.0
  0
LINE
  5
23904
330
747D
100
AcDbEntity
  8
細線
 48
50.0
100
AcDbLine
 10
6086.7023788179
 20
875.4074928514038
 30
0.0
 11
6120.999875449083
 21
1003.407492851404
 31
0.0
  0
LINE
  5
23905
330
747D
100
AcDbEntity
  8
細線
 48
50.0
100
AcDbLine
 10
6165.590423765145
 20
875.4074928514018
 30
0.0
 11
6199.887920396328
 21
1003.407492851402
 31
0.0
  0
LINE
  5
23906
330
747D
100
AcDbEntity
  8
細線
 48
50.0
100
AcDbLine
 10
6007.814333870641
 20
875.4074928514018
 30
0.0
 11
6042.111830501824
 21
1003.407492851402
 31
0.0
  0
LINE
  5
23907
330
747D
100
AcDbEntity
  8
部品1
 48
50.0
100
AcDbLine
 10
5959.295629216385
 20
875.4074928514038
 30
0.0
 11
5959.295629216385
 21
1003.407492851404
 31
0.0
  0
LINE
  5
23908
330
747D
100
AcDbEntity
  8
細線
 48
50.0
100
AcDbLine
 10
6093.133159436245
 20
899.4074928514036
 30
0.0
 11
6099.563940054594
 21
875.4074928514038
 31
0.0
  0
LINE
  5
23909
330
747D
100
AcDbEntity
  8
細線
 48
50.0
100
AcDbLine
 10
6014.245114488995
 20
899.4074928514036
 30
0.0
 11
6020.675895107341
 21
875.4074928514038
 31
0.0
  0
LINE
  5
2390A
330
747D
100
AcDbEntity
  8
細線
 48
50.0
100
AcDbLine
 10
6250.90924933075
 20
899.4074928514036
 30
0.0
 11
6257.340029949097
 21
875.4074928514038
 31
0.0
  0
LINE
  5
2390B
330
747D
100
AcDbEntity
  8
細線
 48
50.0
100
AcDbLine
 10
6172.021204383498
 20
899.4074928514036
 30
0.0
 11
6178.451985001844
 21
875.4074928514038
 31
0.0
  0
LINE
  5
2390C
330
747D
100
AcDbEntity
  8
細線
 48
50.0
100
AcDbLine
 10
6069.034261996667
 20
1003.407492851404
 30
0.0
 11
6165.034261996667
 21
1099.407492851403
 31
0.0
  0
LINE
  5
2390D
330
747D
100
AcDbEntity
  8
細線
 48
50.0
100
AcDbLine
 10
6042.093493633456
 20
1003.407492851404
 30
0.0
 11
6138.093493633456
 21
1099.407492851403
 31
0.0
  0
LINE
  5
2390E
330
747D
100
AcDbEntity
  8
部品1
 48
50.0
100
AcDbLine
 10
6095.295629216384
 20
1115.407492851403
 30
0.0
 11
6095.295629216384
 21
1099.407492851403
 31
0.0
  0
LINE
  5
2390F
330
747D
100
AcDbEntity
  8
細線
 48
50.0
100
AcDbLine
 10
6035.681049883484
 20
979.4074928514037
 30
0.0
 11
6029.250269265136
 21
1003.407492851404
 31
0.0
  0
LINE
  5
23910
330
747D
100
AcDbEntity
  8
細線
 48
50.0
100
AcDbLine
 10
5959.295629216383
 20
988.7474138171837
 30
0.0
 11
5963.223785554578
 21
1003.407492851404
 31
0.0
  0
LINE
  5
23911
330
747D
100
AcDbEntity
  8
部品1
 48
50.0
100
AcDbLine
 10
6255.295629216384
 20
1181.534707548526
 30
0.0
 11
6239.295629216384
 21
1181.534707548526
 31
0.0
  0
CIRCLE
  5
23912
330
747D
100
AcDbEntity
  8
部品1
 48
50.0
100
AcDbCircle
 10
6135.295629216384
 20
1123.407492851403
 30
0.0
 40
8.0
  0
LINE
  5
23913
330
747D
100
AcDbEntity
  8
細線
 48
50.0
100
AcDbLine
 10
6207.975030359872
 20
1115.407492851403
 30
0.0
 11
6239.295629216384
 21
1146.728091707915
 31
0.0
  0
ARC
  5
23914
330
747D
100
AcDbEntity
  8
部品1
 48
50.0
100
AcDbCircle
 10
6263.295629216384
 20
1123.407492851403
 30
0.0
 40
24.0
100
AcDbArc
 50
180.0
 51
199.4712206344897
  0
LINE
  5
23915
330
747D
100
AcDbEntity
  8
細線
 48
50.0
100
AcDbLine
 10
6114.569094830734
 20
979.4074928514037
 30
0.0
 11
6108.138314212389
 21
1003.407492851404
 31
0.0
  0
LINE
  5
23916
330
747D
100
AcDbEntity
  8
細線
 48
50.0
100
AcDbLine
 10
6193.457139777987
 20
979.4074928514037
 30
0.0
 11
6187.026359159641
 21
1003.407492851404
 31
0.0
  0
LINE
  5
23917
330
747D
100
AcDbEntity
  8
細線
 48
50.0
100
AcDbLine
 10
6095.975030359872
 20
1003.407492851404
 30
0.0
 11
6191.975030359873
 21
1099.407492851403
 31
0.0
  0
LINE
  5
23918
330
747D
100
AcDbEntity
  8
部品1
 48
50.0
100
AcDbLine
 10
6239.295629216384
 20
1181.534707548526
 30
0.0
 11
6239.295629216384
 21
1123.407492851403
 31
0.0
  0
LINE
  5
23919
330
747D
100
AcDbEntity
  8
細線
 48
50.0
100
AcDbLine
 10
6181.034261996667
 20
1115.407492851403
 30
0.0
 11
6239.295629216384
 21
1173.668860071122
 31
0.0
  0
LINE
  5
2391A
330
747D
100
AcDbEntity
  8
部品1
 48
50.0
100
AcDbLine
 10
6255.295629216384
 20
1181.534707548526
 30
0.0
 11
6255.295629216384
 21
1123.407492851403
 31
0.0
  0
LINE
  5
2391B
330
747D
100
AcDbEntity
  8
部品1
 48
50.0
100
AcDbLine
 10
6567.295629216387
 20
1003.407492851404
 30
0.0
 11
6567.295629216387
 21
875.4074928514038
 31
0.0
  0
LINE
  5
2391C
330
747D
100
AcDbEntity
  8
細線
 48
50.0
100
AcDbLine
 10
6481.142603554137
 20
875.4074928514038
 30
0.0
 11
6515.440100185322
 21
1003.407492851402
 31
0.0
  0
LINE
  5
2391D
330
747D
100
AcDbEntity
  8
細線
 48
50.0
100
AcDbLine
 10
6323.366513659642
 20
875.4074928514038
 30
0.0
 11
6357.66401029083
 21
1003.407492851402
 31
0.0
  0
LINE
  5
2391E
330
747D
100
AcDbEntity
  8
細線
 48
50.0
100
AcDbLine
 10
6402.254558606891
 20
875.4074928514018
 30
0.0
 11
6436.552055238077
 21
1003.407492851402
 31
0.0
  0
LINE
  5
2391F
330
747D
100
AcDbEntity
  8
細線
 48
50.0
100
AcDbLine
 10
6408.685339225242
 20
899.4074928514036
 30
0.0
 11
6415.11611984359
 21
875.4074928514038
 31
0.0
  0
LINE
  5
23920
330
747D
100
AcDbEntity
  8
細線
 48
50.0
100
AcDbLine
 10
6329.797294277996
 20
899.4074928514036
 30
0.0
 11
6336.228074896342
 21
875.4074928514038
 31
0.0
  0
LINE
  5
23921
330
747D
100
AcDbEntity
  8
細線
 48
50.0
100
AcDbLine
 10
6487.573384172489
 20
899.4074928514036
 30
0.0
 11
6494.004164790837
 21
875.4074928514038
 31
0.0
  0
LINE
  5
23922
330
747D
100
AcDbEntity
  8
細線
 48
50.0
100
AcDbLine
 10
6566.461429119735
 20
899.4074928514036
 30
0.0
 11
6567.295629216383
 21
896.2942157070392
 31
0.0
  0
LINE
  5
23923
330
747D
100
AcDbEntity
  8
細線
 48
50.0
100
AcDbLine
 10
6560.030648501386
 20
875.4074928514018
 30
0.0
 11
6567.295629216383
 21
902.5207699957919
 31
0.0
  0
LINE
  5
23924
330
747D
100
AcDbEntity
  8
細線
 48
50.0
100
AcDbLine
 10
6423.501177265531
 20
1115.407492851403
 30
0.0
 11
6487.295629216383
 21
1179.201944802255
 31
0.0
  0
CIRCLE
  5
23925
330
747D
100
AcDbEntity
  8
部品1
 48
50.0
100
AcDbCircle
 10
6391.295629216383
 20
1123.407492851403
 30
0.0
 40
8.0
  0
ARC
  5
23926
330
747D
100
AcDbEntity
  8
部品1
 48
50.0
100
AcDbCircle
 10
6263.295629216384
 20
1123.407492851403
 30
0.0
 40
24.0
100
AcDbArc
 50
340.5287793655103
 51
0.0
  0
LINE
  5
23927
330
747D
100
AcDbEntity
  8
細線
 48
50.0
100
AcDbLine
 10
6272.34518472524
 20
979.4074928514037
 30
0.0
 11
6265.914404106892
 21
1003.407492851404
 31
0.0
  0
LINE
  5
23928
330
747D
100
AcDbEntity
  8
細線
 48
50.0
100
AcDbLine
 10
6351.233229672486
 20
979.4074928514037
 30
0.0
 11
6344.802449054139
 21
1003.407492851404
 31
0.0
  0
LINE
  5
23929
330
747D
100
AcDbEntity
  8
細線
 48
50.0
100
AcDbLine
 10
6284.560408902327
 20
1003.407492851404
 30
0.0
 11
6380.560408902328
 21
1099.407492851403
 31
0.0
  0
LINE
  5
2392A
330
747D
100
AcDbEntity
  8
細線
 48
50.0
100
AcDbLine
 10
6311.50117726553
 20
1003.407492851404
 30
0.0
 11
6407.502065110668
 21
1099.408380696543
 31
0.0
  0
LINE
  5
2392B
330
747D
100
AcDbEntity
  8
部品1
 48
50.0
100
AcDbLine
 10
6431.295629216383
 20
1115.407492851403
 30
0.0
 11
6431.295629216383
 21
1099.407492851403
 31
0.0
  0
LINE
  5
2392C
330
747D
100
AcDbEntity
  8
細線
 48
50.0
100
AcDbLine
 10
6509.009319566978
 20
979.4074928514037
 30
0.0
 11
6502.57853894863
 21
1003.407492851404
 31
0.0
  0
LINE
  5
2392D
330
747D
100
AcDbEntity
  8
細線
 48
50.0
100
AcDbLine
 10
6473.145787444777
 20
1003.407492851404
 30
0.0
 11
6487.295629216383
 21
1017.55733462301
 31
0.0
  0
LINE
  5
2392E
330
747D
100
AcDbEntity
  8
細線
 48
50.0
100
AcDbLine
 10
6430.121274619731
 20
979.4074928514037
 30
0.0
 11
6423.690494001384
 21
1003.407492851404
 31
0.0
  0
LINE
  5
2392F
330
747D
100
AcDbEntity
  8
細線
 48
50.0
100
AcDbLine
 10
6167.295629216384
 20
1317.195006976781
 30
0.0
 11
6271.295629216389
 21
1421.195006976784
 31
0.0
  0
LINE
  5
23930
330
747D
100
AcDbEntity
  8
細線
 48
50.0
100
AcDbLine
 10
6167.295629216384
 20
1344.13577533999
 30
0.0
 11
6271.295629216384
 21
1448.13577533999
 31
0.0
  0
LINE
  5
23931
330
747D
100
AcDbEntity
  8
細線
 48
50.0
100
AcDbLine
 10
6167.295629216384
 20
1290.254238613575
 30
0.0
 11
6271.295629216389
 21
1394.254238613575
 31
0.0
  0
LINE
  5
23932
330
747D
100
AcDbEntity
  8
細線
 48
50.0
100
AcDbLine
 10
6255.295629216384
 20
1593.780385519234
 30
0.0
 11
6271.295629216384
 21
1609.780385519234
 31
0.0
  0
LINE
  5
23933
330
747D
100
AcDbEntity
  8
細線
 48
50.0
100
AcDbLine
 10
6255.295629216384
 20
1620.721153882441
 30
0.0
 11
6271.295629216384
 21
1636.721153882441
 31
0.0
  0
LINE
  5
23934
330
747D
100
AcDbEntity
  8
部品1
 48
50.0
100
AcDbLine
 10
6039.295629216383
 20
1243.407492851404
 30
0.0
 11
6167.295629216384
 21
1243.407492851404
 31
0.0
  0
LINE
  5
23935
330
747D
100
AcDbEntity
  8
細線
 48
50.0
100
AcDbLine
 10
6039.295629216376
 20
1189.195006976779
 30
0.0
 11
6093.508115091008
 21
1243.407492851404
 31
0.0
  0
LINE
  5
23936
330
747D
100
AcDbEntity
  8
細線
 48
50.0
100
AcDbLine
 10
6039.295629216376
 20
1216.13577533999
 30
0.0
 11
6066.567346727797
 21
1243.407492851404
 31
0.0
  0
LINE
  5
23937
330
747D
100
AcDbEntity
  8
部品1
 48
50.0
100
AcDbLine
 10
6255.295629216384
 20
1589.534707548526
 30
0.0
 11
6239.295629216384
 21
1589.534707548529
 31
0.0
  0
LINE
  5
23938
330
747D
100
AcDbEntity
  8
細線
 48
50.0
100
AcDbLine
 10
6167.295629216384
 20
1505.780385519234
 30
0.0
 11
6251.049951245677
 21
1589.534707548526
 31
0.0
  0
LINE
  5
23939
330
747D
100
AcDbEntity
  8
細線
 48
50.0
100
AcDbLine
 10
6167.295629216384
 20
1532.721153882441
 30
0.0
 11
6239.295629216384
 21
1604.721153882441
 31
0.0
  0
LINE
  5
2393A
330
747D
100
AcDbEntity
  8
部品1
 48
50.0
100
AcDbLine
 10
6239.295629216384
 20
1589.534707548529
 30
0.0
 11
6239.295629216384
 21
1647.661922245649
 31
0.0
  0
LINE
  5
2393B
330
747D
100
AcDbEntity
  8
細線
 48
50.0
100
AcDbLine
 10
6167.295629216384
 20
1559.661922245649
 30
0.0
 11
6239.295629216384
 21
1631.661922245649
 31
0.0
  0
LINE
  5
2393C
330
747D
100
AcDbEntity
  8
部品1
 48
50.0
100
AcDbLine
 10
6255.295629216384
 20
1589.534707548526
 30
0.0
 11
6255.295629216384
 21
1647.661922245649
 31
0.0
  0
LINE
  5
2393D
330
747D
100
AcDbEntity
  8
細線
 48
50.0
100
AcDbLine
 10
6287.295629216389
 20
1410.254238613575
 30
0.0
 11
6359.295629216376
 21
1482.254238613575
 31
0.0
  0
LINE
  5
2393E
330
747D
100
AcDbEntity
  8
部品1
 48
50.0
100
AcDbLine
 10
6359.295629216383
 20
1243.407492851404
 30
0.0
 11
6487.295629216383
 21
1243.407492851404
 31
0.0
  0
LINE
  5
2393F
330
747D
100
AcDbEntity
  8
細線
 48
50.0
100
AcDbLine
 10
6287.295629216389
 20
1221.668860071125
 30
0.0
 11
6359.295629216376
 21
1293.668860071119
 31
0.0
  0
LINE
  5
23940
330
747D
100
AcDbEntity
  8
細線
 48
50.0
100
AcDbLine
 10
6287.295629216389
 20
1248.609628434333
 30
0.0
 11
6359.295629216376
 21
1320.609628434329
 31
0.0
  0
LINE
  5
23941
330
747D
100
AcDbEntity
  8
細線
 48
50.0
100
AcDbLine
 10
6287.295629216389
 20
1194.728091707915
 30
0.0
 11
6359.295629216376
 21
1266.728091707915
 31
0.0
  0
LINE
  5
23942
330
747D
100
AcDbEntity
  8
細線
 48
50.0
100
AcDbLine
 10
6287.295629216384
 20
1464.13577533999
 30
0.0
 11
6359.295629216383
 21
1536.13577533999
 31
0.0
  0
LINE
  5
23943
330
747D
100
AcDbEntity
  8
細線
 48
50.0
100
AcDbLine
 10
6287.295629216389
 20
1437.195006976784
 30
0.0
 11
6359.295629216376
 21
1509.195006976779
 31
0.0
  0
MTEXT
  5
23944
102
{ACAD_REACTORS
330
238EF
102
}
330
747D
100
AcDbEntity
  8
寸法
 62
     7
 48
50.0
100
AcDbMText
 10
6601.034085077635
 20
826.0584071192507
 30
0.0
 40
80.0
 41
0.8
 71
     4
 72
     1
  1
\A1;D10@300
  7
STYLE2
 73
     1
 44
1.0
1001
ACAD
1000
MTEXTBEGIN
1070
    73
1070
     1
1070
    44
1040
1.0
1070
    74
1070
     0
1000
MTEXTEND
  0
DIMENSION
  5
23945
330
747D
100
AcDbEntity
  8
寸法
 48
50.0
100
AcDbDimension
  2
*D55
 10
6167.295629216383
 20
2207.075300767784
 30
0.0
 11
6263.295629216383
 21
2207.075300767784
 31
0.0
 70
   160
  1
120\P200\P280
 71
     5
 42
192.0
  3
INABA_S40G
100
AcDbAlignedDimension
 13
6359.295629216383
 23
1787.407492851404
 33
0.0
 14
6167.295629216383
 24
1787.407492851404
 34
0.0
100
AcDbRotatedDimension
1001
ACAD
1000
DSTYLE
1002
{
1070
   341
1005
0
1002
}
  0
LINE
  5
23946
330
747D
100
AcDbEntity
  8
部品1
 48
50.0
100
AcDbLine
 10
6167.295629216384
 20
1787.407492851404
 30
0.0
 11
6359.295629216383
 21
1787.407492851404
 31
0.0
  0
LINE
  5
23947
330
747D
100
AcDbEntity
  8
細線
 48
50.0
100
AcDbLine
 10
6167.295629216384
 20
1748.247300788102
 30
0.0
 11
6206.455821279687
 21
1787.407492851404
 31
0.0
  0
LINE
  5
23948
330
747D
100
AcDbEntity
  8
細線
 48
50.0
100
AcDbLine
 10
6167.295629216384
 20
1721.306532424893
 30
0.0
 11
6233.396589642893
 21
1787.407492851404
 31
0.0
  0
LINE
  5
23949
330
747D
100
AcDbEntity
  8
細線
 48
50.0
100
AcDbLine
 10
6167.295629216384
 20
1775.188069151309
 30
0.0
 11
6179.515052916478
 21
1787.407492851404
 31
0.0
  0
LINE
  5
2394A
330
747D
100
AcDbEntity
  8
細線
 48
50.0
100
AcDbLine
 10
6286.848336482369
 20
1652.273861148426
 30
0.0
 11
6359.295629216383
 21
1724.721153882441
 31
0.0
  0
LINE
  5
2394B
330
747D
100
AcDbEntity
  8
細線
 48
50.0
100
AcDbLine
 10
6275.788051718853
 20
1668.15434474812
 30
0.0
 11
6359.295629216383
 21
1751.661922245649
 31
0.0
  0
LINE
  5
2394C
330
747D
100
AcDbEntity
  8
細線
 48
50.0
100
AcDbLine
 10
8151.734942393579
 20
1628.535775339992
 30
0.0
 11
8281.334942393575
 21
1758.13577533999
 31
0.0
  0
LINE
  5
2394D
330
747D
100
AcDbEntity
  8
部品1
100
AcDbLine
 10
8281.334942393575
 20
1243.407492851404
 30
0.0
 11
8281.334942393575
 21
1787.407492851404
 31
0.0
  0
LINE
  5
2394E
330
747D
100
AcDbEntity
  8
部品1
 48
50.0
100
AcDbLine
 10
7867.334942393576
 20
1243.407492851404
 30
0.0
 11
7867.334942393576
 21
1787.407492851404
 31
0.0
  0
LINE
  5
2394F
330
747D
100
AcDbEntity
  8
細線
 48
50.0
100
AcDbLine
 10
7867.334942393576
 20
1559.661922245649
 30
0.0
 11
8025.734942393576
 21
1718.061922245646
 31
0.0
  0
LINE
  5
23950
330
747D
100
AcDbEntity
  8
細線
 48
50.0
100
AcDbLine
 10
7867.334942393576
 20
1532.721153882441
 30
0.0
 11
8025.734942393576
 21
1691.121153882439
 31
0.0
  0
LINE
  5
23951
330
747D
100
AcDbEntity
  8
細線
 48
50.0
100
AcDbLine
 10
7867.334942393576
 20
1505.780385519234
 30
0.0
 11
8025.734942393574
 21
1664.180385519226
 31
0.0
  0
TEXT
  5
23952
330
747D
100
AcDbEntity
  8
部品1
 48
50.0
100
AcDbText
 10
7453.195040560621
 20
1558.646485134659
 30
0.0
 40
80.0
  1
▽G.L
  7
STYLE2
100
AcDbText
  0
LINE
  5
23953
330
747D
100
AcDbEntity
  8
部品1
100
AcDbLine
 10
8097.734942393577
 20
1562.407492851404
 30
0.0
 11
8097.734942393573
 21
1836.567492851404
 31
0.0
  0
LINE
  5
23954
330
747D
100
AcDbEntity
  8
部品1
100
AcDbLine
 10
8079.734942393576
 20
1562.407492851404
 30
0.0
 11
8079.734942393574
 21
1836.567492851404
 31
0.0
  0
LINE
  5
23955
330
747D
100
AcDbEntity
  8
細線
 48
50.0
100
AcDbLine
 10
8151.734942393579
 20
1574.654238613562
 30
0.0
 11
8281.334942393575
 21
1704.254238613553
 31
0.0
  0
LINE
  5
23956
330
747D
100
AcDbEntity
  8
細線
 48
50.0
100
AcDbLine
 10
8151.734942393579
 20
1601.595006976775
 30
0.0
 11
8281.334942393575
 21
1731.195006976772
 31
0.0
  0
LINE
  5
23957
330
747D
100
AcDbEntity
  8
部品1
100
AcDbLine
 10
8151.734942393579
 20
1463.407492851404
 30
0.0
 11
8151.734942393579
 21
1787.407492851404
 31
0.0
  0
LINE
  5
23958
330
747D
100
AcDbEntity
  8
部品1
100
AcDbLine
 10
8025.734942393571
 20
1463.407492851404
 30
0.0
 11
8025.734942393578
 21
1787.407492851404
 31
0.0
  0
LINE
  5
23959
330
747D
100
AcDbEntity
  8
細線
 48
50.0
100
AcDbLine
 10
7867.334942393576
 20
1317.195006976781
 30
0.0
 11
8025.734942393571
 21
1475.59500697677
 31
0.0
  0
LINE
  5
2395A
330
747D
100
AcDbEntity
  8
細線
 48
50.0
100
AcDbLine
 10
7867.334942393576
 20
1290.254238613575
 30
0.0
 11
8040.488196631413
 21
1463.407492851402
 31
0.0
  0
LINE
  5
2395B
330
747D
100
AcDbEntity
  8
細線
 48
50.0
100
AcDbLine
 10
7867.334942393576
 20
1344.13577533999
 30
0.0
 11
8025.734942393571
 21
1502.535775339985
 31
0.0
  0
LINE
  5
2395C
330
747D
100
AcDbEntity
  8
細線
 48
50.0
100
AcDbLine
 10
7796.014343537066
 20
1003.407492851404
 30
0.0
 11
8281.334942393575
 21
1488.728091707911
 31
0.0
  0
LINE
  5
2395D
330
747D
100
AcDbEntity
  8
細線
 48
50.0
100
AcDbLine
 10
7769.073575173861
 20
1003.407492851404
 30
0.0
 11
8281.334942393581
 21
1515.668860071118
 31
0.0
  0
LINE
  5
2395E
330
747D
100
AcDbEntity
  8
細線
 48
50.0
100
AcDbLine
 10
7742.132806810651
 20
1003.407492851404
 30
0.0
 11
8281.334942393575
 21
1542.609628434329
 31
0.0
  0
LINE
  5
2395F
330
747D
100
AcDbEntity
  8
部品1
 48
50.0
100
AcDbLine
 10
8489.334942393581
 20
1003.407492851404
 30
0.0
 11
7659.334942393581
 21
1003.407492851404
 31
0.0
  0
LINE
  5
23960
330
747D
100
AcDbEntity
  8
部品1
 48
50.0
100
AcDbLine
 10
8489.334942393581
 20
875.4074928514038
 30
0.0
 11
7659.334942393581
 21
875.4074928514038
 31
0.0
  0
LINE
  5
23961
330
747D
100
AcDbEntity
  8
細線
 48
50.0
100
AcDbLine
 10
7739.334942393573
 20
1162.254238613575
 30
0.0
 11
7820.488196631406
 21
1243.407492851404
 31
0.0
  0
LINE
  5
23962
330
747D
100
AcDbEntity
  8
部品1
 48
50.0
100
AcDbLine
 10
7739.334942393576
 20
1003.407492851404
 30
0.0
 11
7739.334942393576
 21
1243.407492851404
 31
0.0
  0
LINE
  5
23963
330
747D
100
AcDbEntity
  8
細線
 48
50.0
100
AcDbLine
 10
7786.741691995094
 20
875.4074928514038
 30
0.0
 11
7821.039188626277
 21
1003.407492851404
 31
0.0
  0
LINE
  5
23964
330
747D
100
AcDbEntity
  8
部品1
 48
50.0
100
AcDbLine
 10
7659.334942393581
 20
875.4074928514038
 30
0.0
 11
7659.334942393581
 21
1003.407492851404
 31
0.0
  0
LINE
  5
23965
330
747D
100
AcDbEntity
  8
細線
 48
50.0
100
AcDbLine
 10
7707.853647047835
 20
875.4074928514018
 30
0.0
 11
7742.151143679018
 21
1003.407492851402
 31
0.0
  0
LINE
  5
23966
330
747D
100
AcDbEntity
  8
細線
 48
50.0
100
AcDbLine
 10
7865.629736942342
 20
875.4074928514018
 30
0.0
 11
7899.927233573523
 21
1003.407492851402
 31
0.0
  0
LINE
  5
23967
330
747D
100
AcDbEntity
  8
細線
 48
50.0
100
AcDbLine
 10
7714.284427666189
 20
899.4074928514036
 30
0.0
 11
7720.715208284535
 21
875.4074928514038
 31
0.0
  0
LINE
  5
23968
330
747D
100
AcDbEntity
  8
細線
 48
50.0
100
AcDbLine
 10
7872.060517560692
 20
899.4074928514036
 30
0.0
 11
7878.49129817904
 21
875.4074928514038
 31
0.0
  0
LINE
  5
23969
330
747D
100
AcDbEntity
  8
細線
 48
50.0
100
AcDbLine
 10
7793.172472613441
 20
899.4074928514036
 30
0.0
 11
7799.603253231788
 21
875.4074928514038
 31
0.0
  0
LINE
  5
2396A
330
747D
100
AcDbEntity
  8
細線
 48
50.0
100
AcDbLine
 10
7659.334942393576
 20
988.7474138171837
 30
0.0
 11
7663.263098731771
 21
1003.407492851404
 31
0.0
  0
LINE
  5
2396B
330
747D
100
AcDbEntity
  8
細線
 48
50.0
100
AcDbLine
 10
7735.720363060679
 20
979.4074928514037
 30
0.0
 11
7729.289582442333
 21
1003.407492851404
 31
0.0
  0
LINE
  5
2396C
330
747D
100
AcDbEntity
  8
細線
 48
50.0
100
AcDbLine
 10
7893.496452955182
 20
979.4074928514037
 30
0.0
 11
7887.065672336834
 21
1003.407492851404
 31
0.0
  0
LINE
  5
2396D
330
747D
100
AcDbEntity
  8
細線
 48
50.0
100
AcDbLine
 10
7814.608408007931
 20
979.4074928514037
 30
0.0
 11
7808.177627389582
 21
1003.407492851404
 31
0.0
  0
LWPOLYLINE
  5
2396E
330
747D
100
AcDbEntity
  8
部品1
 48
50.0
100
AcDbPolyline
 90
        2
 70
     0
 43
8.0
 10
7453.195040560621
 20
1547.407492851404
 10
7867.334942393576
 20
1547.407492851404
  0
LINE
  5
2396F
330
747D
100
AcDbEntity
  8
細線
 48
50.0
100
AcDbLine
 10
7739.334942393573
 20
1189.195006976779
 30
0.0
 11
7793.547428268201
 21
1243.407492851404
 31
0.0
  0
LINE
  5
23970
330
747D
100
AcDbEntity
  8
部品1
 48
50.0
100
AcDbLine
 10
7739.334942393576
 20
1243.407492851404
 30
0.0
 11
7867.334942393576
 21
1243.407492851404
 31
0.0
  0
LINE
  5
23971
330
747D
100
AcDbEntity
  8
細線
 48
50.0
100
AcDbLine
 10
7739.334942393573
 20
1216.13577533999
 30
0.0
 11
7766.606659904993
 21
1243.407492851404
 31
0.0
  0
LINE
  5
23972
330
747D
100
AcDbEntity
  8
細線
 48
50.0
100
AcDbLine
 10
7984.599722079521
 20
1003.407492851404
 30
0.0
 11
8281.334942393575
 21
1300.142713165456
 31
0.0
  0
LINE
  5
23973
330
747D
100
AcDbEntity
  8
細線
 48
50.0
100
AcDbLine
 10
8011.540490442726
 20
1003.407492851404
 30
0.0
 11
8281.334942393575
 21
1273.201944802261
 31
0.0
  0
LINE
  5
23974
330
747D
100
AcDbEntity
  8
細線
 48
50.0
100
AcDbLine
 10
7957.658953716311
 20
1003.407492851404
 30
0.0
 11
8281.334942393575
 21
1327.08348152867
 31
0.0
  0
LINE
  5
23975
330
747D
100
AcDbEntity
  8
細線
 48
50.0
100
AcDbLine
 10
8173.185100621969
 20
1003.407492851404
 30
0.0
 11
8409.334942393575
 21
1239.557334623012
 31
0.0
  0
LINE
  5
23976
330
747D
100
AcDbEntity
  8
細線
 48
50.0
100
AcDbLine
 10
8200.125868985182
 20
1003.407492851404
 30
0.0
 11
8409.334942393575
 21
1212.616566259797
 31
0.0
  0
LINE
  5
23977
330
747D
100
AcDbEntity
  8
部品1
 48
50.0
100
AcDbLine
 10
8409.334942393575
 20
1243.407492851404
 30
0.0
 11
8409.334942393575
 21
1003.407492851404
 31
0.0
  0
LINE
  5
23978
330
747D
100
AcDbEntity
  8
細線
 48
50.0
100
AcDbLine
 10
8227.066637348386
 20
1003.407492851404
 30
0.0
 11
8409.334942393575
 21
1185.6757978966
 31
0.0
  0
LINE
  5
23979
330
747D
100
AcDbEntity
  8
細線
 48
50.0
100
AcDbLine
 10
8102.293871784089
 20
875.4074928514018
 30
0.0
 11
8136.591368415269
 21
1003.407492851402
 31
0.0
  0
LINE
  5
2397A
330
747D
100
AcDbEntity
  8
細線
 48
50.0
100
AcDbLine
 10
7944.517781889591
 20
875.4074928514038
 30
0.0
 11
7978.815278520776
 21
1003.407492851404
 31
0.0
  0
LINE
  5
2397B
330
747D
100
AcDbEntity
  8
細線
 48
50.0
100
AcDbLine
 10
8023.405826836839
 20
875.4074928514038
 30
0.0
 11
8057.703323468023
 21
1003.407492851402
 31
0.0
  0
LINE
  5
2397C
330
747D
100
AcDbEntity
  8
細線
 48
50.0
100
AcDbLine
 10
8181.181916731331
 20
875.4074928514038
 30
0.0
 11
8215.479413362514
 21
1003.407492851402
 31
0.0
  0
LINE
  5
2397D
330
747D
100
AcDbEntity
  8
細線
 48
50.0
100
AcDbLine
 10
8029.836607455191
 20
899.4074928514036
 30
0.0
 11
8036.267388073538
 21
875.4074928514038
 31
0.0
  0
LINE
  5
2397E
330
747D
100
AcDbEntity
  8
細線
 48
50.0
100
AcDbLine
 10
7950.948562507943
 20
899.4074928514036
 30
0.0
 11
7957.379343126291
 21
875.4074928514038
 31
0.0
  0
LINE
  5
2397F
330
747D
100
AcDbEntity
  8
細線
 48
50.0
100
AcDbLine
 10
8187.612697349683
 20
899.4074928514036
 30
0.0
 11
8194.043477968028
 21
875.4074928514038
 31
0.0
  0
LINE
  5
23980
330
747D
100
AcDbEntity
  8
細線
 48
50.0
100
AcDbLine
 10
8108.724652402438
 20
899.4074928514036
 30
0.0
 11
8115.155433020785
 21
875.4074928514038
 31
0.0
  0
LINE
  5
23981
330
747D
100
AcDbEntity
  8
細線
 48
50.0
100
AcDbLine
 10
8051.272542849678
 20
979.4074928514037
 30
0.0
 11
8044.841762231332
 21
1003.407492851404
 31
0.0
  0
LINE
  5
23982
330
747D
100
AcDbEntity
  8
細線
 48
50.0
100
AcDbLine
 10
7972.384497902432
 20
979.4074928514037
 30
0.0
 11
7965.953717284087
 21
1003.407492851404
 31
0.0
  0
LINE
  5
23983
330
747D
100
AcDbEntity
  8
細線
 48
50.0
100
AcDbLine
 10
8130.160587796927
 20
979.4074928514037
 30
0.0
 11
8123.729807178579
 21
1003.407492851404
 31
0.0
  0
LINE
  5
23984
330
747D
100
AcDbEntity
  8
細線
 48
50.0
100
AcDbLine
 10
8209.048632744172
 20
979.4074928514037
 30
0.0
 11
8202.617852125825
 21
1003.407492851404
 31
0.0
  0
LINE
  5
23985
330
747D
100
AcDbEntity
  8
部品1
 48
50.0
100
AcDbLine
 10
8489.334942393581
 20
1003.407492851404
 30
0.0
 11
8489.334942393581
 21
875.4074928514038
 31
0.0
  0
LINE
  5
23986
330
747D
100
AcDbEntity
  8
細線
 48
50.0
100
AcDbLine
 10
8417.846051573071
 20
875.4074928514018
 30
0.0
 11
8452.143548204258
 21
1003.407492851401
 31
0.0
  0
LINE
  5
23987
330
747D
100
AcDbEntity
  8
細線
 48
50.0
100
AcDbLine
 10
8260.069961678579
 20
875.4074928514018
 30
0.0
 11
8294.367458309753
 21
1003.407492851404
 31
0.0
  0
LINE
  5
23988
330
747D
100
AcDbEntity
  8
細線
 48
50.0
100
AcDbLine
 10
8338.958006625828
 20
875.4074928514009
 30
0.0
 11
8373.255503257011
 21
1003.407492851401
 31
0.0
  0
LINE
  5
23989
330
747D
100
AcDbEntity
  8
細線
 48
50.0
100
AcDbLine
 10
8266.500742296928
 20
899.4074928514036
 30
0.0
 11
8272.931522915285
 21
875.4074928514038
 31
0.0
  0
LINE
  5
2398A
330
747D
100
AcDbEntity
  8
細線
 48
50.0
100
AcDbLine
 10
8345.388787244177
 20
899.4074928514018
 30
0.0
 11
8351.819567862523
 21
875.4074928514018
 31
0.0
  0
LINE
  5
2398B
330
747D
100
AcDbEntity
  8
細線
 48
50.0
100
AcDbLine
 10
8424.276832191422
 20
899.4074928514018
 30
0.0
 11
8430.70761280977
 21
875.4074928514018
 31
0.0
  0
LINE
  5
2398C
330
747D
100
AcDbEntity
  8
細線
 48
50.0
100
AcDbLine
 10
8287.93667769141
 20
979.4074928514037
 30
0.0
 11
8281.505897073063
 21
1003.407492851404
 31
0.0
  0
LINE
  5
2398D
330
747D
100
AcDbEntity
  8
細線
 48
50.0
100
AcDbLine
 10
8366.824722638666
 20
979.4074928514019
 30
0.0
 11
8360.393942020321
 21
1003.407492851402
 31
0.0
  0
LINE
  5
2398E
330
747D
100
AcDbEntity
  8
細線
 48
50.0
100
AcDbLine
 10
8445.712767585913
 20
979.4074928514019
 30
0.0
 11
8439.281986967566
 21
1003.407492851402
 31
0.0
  0
LINE
  5
2398F
330
747D
100
AcDbEntity
  8
部品1
100
AcDbLine
 10
8151.734942393579
 20
1463.407492851402
 30
0.0
 11
8025.734942393571
 21
1463.407492851402
 31
0.0
  0
LINE
  5
23990
330
747D
100
AcDbEntity
  8
部品1
100
AcDbLine
 10
8133.734942393578
 20
1544.407492851403
 30
0.0
 11
8133.734942393578
 21
1562.407492851404
 31
0.0
  0
ARC
  5
23991
330
747D
100
AcDbEntity
  8
部品1
100
AcDbCircle
 10
8097.734942393577
 20
1562.407492851404
 30
0.0
 40
18.0
100
AcDbArc
 50
180.0
 51
270.0
  0
LINE
  5
23992
330
747D
100
AcDbEntity
  8
部品1
100
AcDbLine
 10
8097.734942393577
 20
1544.407492851403
 30
0.0
 11
8133.734942393578
 21
1544.407492851403
 31
0.0
  0
LINE
  5
23993
330
747D
100
AcDbEntity
  8
部品1
100
AcDbLine
 10
8097.734942393577
 20
1562.407492851404
 30
0.0
 11
8133.734942393578
 21
1562.407492851404
 31
0.0
  0
LINE
  5
23994
330
747D
100
AcDbEntity
  8
部品1
 48
50.0
100
AcDbLine
 10
8281.334942393575
 20
1243.407492851404
 30
0.0
 11
8409.334942393575
 21
1243.407492851404
 31
0.0
  0
LINE
  5
23995
330
747D
100
AcDbEntity
  8
部品1
100
AcDbLine
 10
7887.134942393577
 20
1877.407492851403
 30
0.0
 11
7924.934942393578
 21
1877.407492851403
 31
0.0
  0
LINE
  5
23996
330
747D
100
AcDbEntity
  8
細線
 48
50.0
100
AcDbLine
 10
7867.334942393576
 20
1748.247300788102
 30
0.0
 11
7906.495134456884
 21
1787.407492851404
 31
0.0
  0
LINE
  5
23997
330
747D
100
AcDbEntity
  8
細線
 48
50.0
100
AcDbLine
 10
7867.334942393576
 20
1721.306532424893
 30
0.0
 11
7933.435902820086
 21
1787.407492851404
 31
0.0
  0
LINE
  5
23998
330
747D
100
AcDbEntity
  8
部品1
 48
50.0
100
AcDbLine
 10
7867.334942393576
 20
1787.407492851404
 30
0.0
 11
8281.334942393581
 21
1787.407492851404
 31
0.0
  0
LINE
  5
23999
330
747D
100
AcDbEntity
  8
部品1
100
AcDbLine
 10
7884.434942393578
 20
1866.607492851403
 30
0.0
 11
7884.434942393578
 21
1874.707492851404
 31
0.0
  0
ARC
  5
2399A
330
747D
100
AcDbEntity
  8
部品1
100
AcDbCircle
 10
7887.134942393577
 20
1874.707492851404
 30
0.0
 40
2.7
100
AcDbArc
 50
90.0
 51
180.0
  0
ARC
  5
2399B
330
747D
100
AcDbEntity
  8
部品1
100
AcDbCircle
 10
7876.334942393576
 20
1861.799396554111
 30
0.0
 40
2.7
100
AcDbArc
 50
104.0362434679067
 51
180.0
  0
LINE
  5
2399C
330
747D
100
AcDbEntity
  8
部品1
100
AcDbLine
 10
7875.680096205979
 20
1864.418781304503
 30
0.0
 11
7884.434942393578
 21
1866.607492851403
 31
0.0
  0
ARC
  5
2399D
330
747D
100
AcDbEntity
  8
部品1
100
AcDbCircle
 10
7876.334942393576
 20
1799.667492851404
 30
0.0
 40
2.7
100
AcDbArc
 50
180.0
 51
270.0
  0
LINE
  5
2399E
330
747D
100
AcDbEntity
  8
細線
 48
50.0
100
AcDbLine
 10
7867.334942393576
 20
1775.188069151309
 30
0.0
 11
7879.554366093671
 21
1787.407492851404
 31
0.0
  0
LINE
  5
2399F
330
747D
100
AcDbEntity
  8
部品1
100
AcDbLine
 10
7876.334942393576
 20
1796.967492851404
 30
0.0
 11
7888.034942393571
 21
1796.967492851404
 31
0.0
  0
LINE
  5
239A0
330
747D
100
AcDbEntity
  8
部品1
100
AcDbLine
 10
7873.634942393578
 20
1799.667492851404
 30
0.0
 11
7873.634942393578
 21
1861.799396554111
 31
0.0
  0
LINE
  5
239A1
330
747D
100
AcDbEntity
  8
部品1
100
AcDbLine
 10
8032.294942393571
 20
1796.967492851404
 30
0.0
 11
8233.634942393571
 21
1796.967492851404
 31
0.0
  0
LINE
  5
239A2
330
747D
100
AcDbEntity
  8
部品1
100
AcDbLine
 10
7924.934942393578
 20
1877.407492851403
 30
0.0
 11
7924.934942393578
 21
1885.507492851404
 31
0.0
  0
LINE
  5
239A3
330
747D
100
AcDbEntity
  8
部品1
100
AcDbLine
 10
7975.334942393576
 20
1896.3074928514
 30
0.0
 11
7975.334942393576
 21
1845.007492851404
 31
0.0
  0
LINE
  5
239A4
330
747D
100
AcDbEntity
  8
部品1
100
AcDbLine
 10
7998.734942393578
 20
1856.967492851404
 30
0.0
 11
8026.894942393578
 21
1856.967492851404
 31
0.0
  0
ARC
  5
239A5
330
747D
100
AcDbEntity
  8
部品1
100
AcDbCircle
 10
7998.734942393578
 20
1854.267492851404
 30
0.0
 40
2.7
100
AcDbArc
 50
90.0
 51
180.0
  0
ARC
  5
239A6
330
747D
100
AcDbEntity
  8
部品1
100
AcDbCircle
 10
8026.894942393578
 20
1854.267492851404
 30
0.0
 40
2.7
100
AcDbArc
 50
0.0
 51
90.0
  0
LINE
  5
239A7
330
747D
100
AcDbEntity
  8
部品1
100
AcDbLine
 10
8017.634942393577
 20
1842.307492851403
 30
0.0
 11
8017.634942393577
 21
1799.667492851404
 31
0.0
  0
LINE
  5
239A8
330
747D
100
AcDbEntity
  8
部品1
100
AcDbLine
 10
8003.234942393577
 20
1796.967492851404
 30
0.0
 11
8014.934942393578
 21
1796.967492851404
 31
0.0
  0
ARC
  5
239A9
330
747D
100
AcDbEntity
  8
部品1
100
AcDbCircle
 10
8032.294942393571
 20
1799.667492851404
 30
0.0
 40
2.7
100
AcDbArc
 50
180.0
 51
270.0
  0
ARC
  5
239AA
330
747D
100
AcDbEntity
  8
部品1
100
AcDbCircle
 10
8014.934942393578
 20
1799.667492851404
 30
0.0
 40
2.7
100
AcDbArc
 50
270.0
 51
0.0
  0
LINE
  5
239AB
330
747D
100
AcDbEntity
  8
部品1
100
AcDbLine
 10
7975.334942393576
 20
1845.007492851404
 30
0.0
 11
8014.934942393578
 21
1845.007492851404
 31
0.0
  0
ARC
  5
239AC
330
747D
100
AcDbEntity
  8
部品1
100
AcDbCircle
 10
8014.934942393578
 20
1842.307492851403
 30
0.0
 40
2.7
100
AcDbArc
 50
0.0
 51
90.0
  0
LINE
  5
239AD
330
747D
100
AcDbEntity
  8
部品1
100
AcDbLine
 10
8029.594942393577
 20
1854.267492851404
 30
0.0
 11
8029.594942393575
 21
1799.667492851404
 31
0.0
  0
LINE
  5
239AE
330
747D
100
AcDbEntity
  8
部品1
100
AcDbLine
 10
7996.034942393577
 20
1854.267492851404
 30
0.0
 11
7996.034942393577
 21
1837.167492851404
 31
0.0
  0
LINE
  5
239AF
330
747D
100
AcDbEntity
  8
細線
100
AcDbLine
 10
8094.134942393578
 20
1796.967492851404
 30
0.0
 11
8094.134942393578
 21
1840.167492851404
 31
0.0
  0
LINE
  5
239B0
330
747D
100
AcDbEntity
  8
細線
100
AcDbLine
 10
8083.33494239358
 20
1796.967492851404
 30
0.0
 11
8083.334942393575
 21
1840.167492851404
 31
0.0
  0
LINE
  5
239B1
330
747D
100
AcDbEntity
  8
部品1
100
AcDbLine
 10
8079.734942393576
 20
1836.567492851404
 30
0.0
 11
8097.734942393577
 21
1836.567492851404
 31
0.0
  0
LINE
  5
239B2
330
747D
100
AcDbEntity
  8
部品1
100
AcDbLine
 10
8083.334942393575
 20
1840.167492851404
 30
0.0
 11
8094.134942393578
 21
1840.167492851404
 31
0.0
  0
ELLIPSE
  5
239B3
330
747D
100
AcDbEntity
  8
部品1
 48
50.0
100
AcDbEllipse
 10
8088.734942393577
 20
2056.530781295677
 30
0.0
 11
40.0
 21
0.0
 31
0.0
210
0.0
220
0.0
230
1.0
 40
0.4
 41
0.0
 42
6.283185307179586
  0
ELLIPSE
  5
239B4
330
747D
100
AcDbEntity
  8
部品1
 48
50.0
100
AcDbEllipse
 10
8088.734942393577
 20
2046.930781295677
 30
0.0
 11
40.0
 21
0.0
 31
0.0
210
0.0
220
0.0
230
1.0
 40
0.4
 41
3.141592653589793
 42
6.283185307179586
  0
LINE
  5
239B5
330
747D
100
AcDbEntity
  8
部品1
 48
50.0
100
AcDbLine
 10
8048.734942393577
 20
2056.530781295677
 30
0.0
 11
8048.734942393577
 21
2046.930781295676
 31
0.0
  0
ARC
  5
239B6
330
747D
100
AcDbEntity
  8
部品1
100
AcDbCircle
 10
7972.634942393577
 20
1896.3074928514
 30
0.0
 40
2.7
100
AcDbArc
 50
0.0
 51
90.0
  0
ARC
  5
239B7
330
747D
100
AcDbEntity
  8
部品1
100
AcDbCircle
 10
7930.334942393575
 20
1896.307492851403
 30
0.0
 40
2.7
100
AcDbArc
 50
90.0
 51
180.0
  0
LINE
  5
239B8
330
747D
100
AcDbEntity
  8
部品1
100
AcDbLine
 10
7927.634942393577
 20
1888.207492851404
 30
0.0
 11
7927.634942393577
 21
1888.207492851404
 31
0.0
  0
LINE
  5
239B9
330
747D
100
AcDbEntity
  8
部品1
100
AcDbLine
 10
7927.634942393577
 20
1888.207492851404
 30
0.0
 11
7927.634942393577
 21
1896.307492851403
 31
0.0
  0
LINE
  5
239BA
330
747D
100
AcDbEntity
  8
部品1
100
AcDbLine
 10
7930.334942393575
 20
1899.007492851404
 30
0.0
 11
7972.634942393577
 21
1899.0074928514
 31
0.0
  0
ARC
  5
239BB
330
747D
100
AcDbEntity
  8
部品1
100
AcDbCircle
 10
7927.634942393577
 20
1885.507492851404
 30
0.0
 40
2.7
100
AcDbArc
 50
90.0
 51
180.0
  0
ELLIPSE
  5
239BC
330
747D
100
AcDbEntity
  8
部品1
 48
50.0
100
AcDbEllipse
 10
8088.734942393577
 20
2056.530781295677
 30
0.0
 11
18.4
 21
0.0
 31
0.0
210
0.0
220
0.0
230
1.0
 40
0.3478260869565217
 41
0.0
 42
6.283185307179586
  0
LINE
  5
239BD
330
747D
100
AcDbEntity
  8
部品1
 48
50.0
100
AcDbLine
 10
8128.734942393577
 20
2046.930781295676
 30
0.0
 11
8128.734942393577
 21
2056.530781295677
 31
0.0
  0
LINE
  5
239BE
330
747D
100
AcDbEntity
  8
部品1
 48
50.0
100
AcDbLine
 10
8056.734942393578
 20
2178.282773960546
 30
0.0
 11
8072.734942393578
 21
2170.282773960547
 31
0.0
  0
LINE
  5
239BF
330
747D
100
AcDbEntity
  8
部品1
 48
50.0
100
AcDbLine
 10
8056.734942393578
 20
2146.282773960547
 30
0.0
 11
8072.734942393578
 21
2138.282773960547
 31
0.0
  0
LINE
  5
239C0
330
747D
100
AcDbEntity
  8
部品1
 48
50.0
100
AcDbLine
 10
8056.734942393578
 20
2178.282773960546
 30
0.0
 11
8072.734942393578
 21
2186.282773960547
 31
0.0
  0
LINE
  5
239C1
330
747D
100
AcDbEntity
  8
部品1
 48
50.0
100
AcDbLine
 10
8056.734942393578
 20
2146.282773960547
 30
0.0
 11
8056.734942393578
 21
2178.282773960546
 31
0.0
  0
LINE
  5
239C2
330
747D
100
AcDbEntity
  8
部品1
 48
50.0
100
AcDbLine
 10
8072.734942393578
 20
2186.282773960547
 30
0.0
 11
8104.734942393577
 21
2186.282773960547
 31
0.0
  0
ELLIPSE
  5
239C3
330
747D
100
AcDbEntity
  8
細線
 48
50.0
100
AcDbEllipse
 10
8088.734942393577
 20
2178.282773960546
 30
0.0
 11
14.76670786606846
 21
0.0
 31
0.0
210
0.0
220
0.0
230
1.0
 40
0.2071254069489396
 41
0.0
 42
6.283185307179586
  0
LINE
  5
239C4
330
747D
100
AcDbEntity
  8
部品1
 48
50.0
100
AcDbLine
 10
8072.734942393578
 20
2138.282773960547
 30
0.0
 11
8104.734942393577
 21
2138.282773960547
 31
0.0
  0
LINE
  5
239C5
330
747D
100
AcDbEntity
  8
部品1
 48
50.0
100
AcDbLine
 10
8104.734942393577
 20
2138.282773960547
 30
0.0
 11
8120.734942393578
 21
2146.282773960547
 31
0.0
  0
LINE
  5
239C6
330
747D
100
AcDbEntity
  8
部品1
 48
50.0
100
AcDbLine
 10
8072.734942393578
 20
2170.282773960547
 30
0.0
 11
8104.734942393577
 21
2170.282773960547
 31
0.0
  0
LINE
  5
239C7
330
747D
100
AcDbEntity
  8
部品1
 48
50.0
100
AcDbLine
 10
8104.734942393577
 20
2170.282773960547
 30
0.0
 11
8120.734942393578
 21
2178.282773960546
 31
0.0
  0
LINE
  5
239C8
330
747D
100
AcDbEntity
  8
細線
 48
50.0
100
AcDbLine
 10
8104.734942393577
 20
2138.282773960547
 30
0.0
 11
8104.734942393577
 21
2170.282773960547
 31
0.0
  0
LINE
  5
239C9
330
747D
100
AcDbEntity
  8
部品1
 48
50.0
100
AcDbLine
 10
8120.734942393578
 20
2146.282773960547
 30
0.0
 11
8120.734942393578
 21
2178.282773960546
 31
0.0
  0
LINE
  5
239CA
330
747D
100
AcDbEntity
  8
細線
 48
50.0
100
AcDbLine
 10
8072.734942393578
 20
2138.282773960547
 30
0.0
 11
8072.734942393578
 21
2170.282773960547
 31
0.0
  0
LINE
  5
239CB
330
747D
100
AcDbEntity
  8
部品1
 48
50.0
100
AcDbLine
 10
8104.734942393577
 20
2186.282773960547
 30
0.0
 11
8120.734942393578
 21
2178.282773960546
 31
0.0
  0
TEXT
  5
239CC
330
747D
100
AcDbEntity
  8
部品1
100
AcDbText
 10
7789.507191585508
 20
3007.194228100562
 30
0.0
 40
120.0
  1
基礎詳細
  7
STYLE2
100
AcDbText
  0
LINE
  5
239CD
330
747D
100
AcDbEntity
  8
部品1
100
AcDbLine
 10
11167.61237579336
 20
222.4391904673421
 30
0.0
 11
11167.61237579337
 21
3186.746160051989
 31
0.0
  0
LINE
  5
239CE
330
747D
100
AcDbEntity
  8
細線
100
AcDbLine
 10
10175.50420837312
 20
1547.407492851404
 30
0.0
 11
9980.870874696336
 21
1742.040826528187
 31
0.0
  0
LINE
  5
239CF
330
747D
100
AcDbEntity
  8
部品1
100
AcDbLine
 10
9980.870874696336
 20
1787.407492851404
 30
0.0
 11
10460.87087469633
 21
1787.407492851404
 31
0.0
  0
LINE
  5
239D0
330
747D
100
AcDbEntity
  8
細線
 48
50.0
100
AcDbLine
 10
10114.94175913959
 20
1327.708577198054
 30
0.0
 11
10149.23925577078
 21
1455.708577198053
 31
0.0
  0
LINE
  5
239D1
330
747D
100
AcDbEntity
  8
部品1
100
AcDbLine
 10
9860.870874696335
 20
1327.70857719805
 30
0.0
 11
10580.87087469633
 21
1327.708577198054
 31
0.0
  0
LINE
  5
239D2
330
747D
100
AcDbEntity
  8
部品1
100
AcDbLine
 10
9860.870874696335
 20
1455.708577198054
 30
0.0
 11
10580.87087469633
 21
1455.708577198056
 31
0.0
  0
LINE
  5
239D3
330
747D
100
AcDbEntity
  8
細線
100
AcDbLine
 10
10041.78952018957
 20
1455.708577198054
 30
0.0
 11
10133.48843584292
 21
1547.407492851404
 31
0.0
  0
LWPOLYLINE
  5
239D4
330
747D
100
AcDbEntity
  8
部品1
 48
50.0
100
AcDbPolyline
 90
        2
 70
     0
 43
12.0
 10
9596.259612595947
 20
1547.407492851404
 10
10797.35191572757
 20
1547.407492851404
  0
LINE
  5
239D5
330
747D
100
AcDbEntity
  8
細線
100
AcDbLine
 10
10124.59252012769
 20
1547.407492851404
 30
0.0
 11
9980.870874696336
 21
1691.129138282757
 31
0.0
  0
TEXT
  5
239D6
330
747D
100
AcDbEntity
  8
部品1
 48
50.0
100
AcDbText
 10
9216.752787937833
 20
1280.607752214095
 30
0.0
 40
80.0
  1
ボルトの出
 50
90.0
  7
STYLE2
100
AcDbText
  0
LINE
  5
239D7
330
747D
100
AcDbEntity
  8
部品1
100
AcDbLine
 10
9980.870874696336
 20
1547.407492851404
 30
0.0
 11
9980.870874696336
 21
1787.407492851404
 31
0.0
  0
LINE
  5
239D8
330
747D
100
AcDbEntity
  8
細線
 48
50.0
100
AcDbLine
 10
9957.165669245094
 20
1327.708577198053
 30
0.0
 11
9991.463165876277
 21
1455.708577198053
 31
0.0
  0
LINE
  5
239D9
330
747D
100
AcDbEntity
  8
細線
 48
50.0
100
AcDbLine
 10
10036.05371419234
 20
1327.708577198054
 30
0.0
 11
10070.35121082353
 21
1455.708577198054
 31
0.0
  0
LINE
  5
239DA
330
747D
100
AcDbEntity
  8
細線
 48
50.0
100
AcDbLine
 10
9878.277624297847
 20
1327.708577198054
 30
0.0
 11
9912.575120929034
 21
1455.708577198054
 31
0.0
  0
LINE
  5
239DB
330
747D
100
AcDbEntity
  8
部品1
100
AcDbLine
 10
9860.870874696335
 20
1327.70857719805
 30
0.0
 11
9860.870874696335
 21
1547.407492851404
 31
0.0
  0
LINE
  5
239DC
330
747D
100
AcDbEntity
  8
細線
 48
50.0
100
AcDbLine
 10
9963.596449863446
 20
1351.708577198054
 30
0.0
 11
9970.027230481795
 21
1327.708577198054
 31
0.0
  0
LINE
  5
239DD
330
747D
100
AcDbEntity
  8
細線
 48
50.0
100
AcDbLine
 10
9884.708404916196
 20
1351.708577198054
 30
0.0
 11
9891.139185534543
 21
1327.708577198054
 31
0.0
  0
LINE
  5
239DE
330
747D
100
AcDbEntity
  8
細線
 48
50.0
100
AcDbLine
 10
10042.4844948107
 20
1351.708577198054
 30
0.0
 11
10048.91527542904
 21
1327.708577198054
 31
0.0
  0
LINE
  5
239DF
330
747D
100
AcDbEntity
  8
細線
 48
50.0
100
AcDbLine
 10
10121.37253975794
 20
1351.708577198054
 30
0.0
 11
10127.80332037629
 21
1327.708577198054
 31
0.0
  0
LINE
  5
239E0
330
747D
100
AcDbEntity
  8
細線
 48
50.0
100
AcDbLine
 10
9906.144340310685
 20
1431.708577198054
 30
0.0
 11
9899.713559692337
 21
1455.708577198054
 31
0.0
  0
LINE
  5
239E1
330
747D
100
AcDbEntity
  8
細線
 48
50.0
100
AcDbLine
 10
10063.92043020519
 20
1431.708577198054
 30
0.0
 11
10057.48964958684
 21
1455.708577198054
 31
0.0
  0
LINE
  5
239E2
330
747D
100
AcDbEntity
  8
細線
 48
50.0
100
AcDbLine
 10
9985.032385257936
 20
1431.708577198054
 30
0.0
 11
9978.601604639589
 21
1455.708577198054
 31
0.0
  0
LINE
  5
239E3
330
747D
100
AcDbEntity
  8
細線
100
AcDbLine
 10
9973.907269195663
 20
1455.708577198054
 30
0.0
 11
10065.60618484901
 21
1547.407492851404
 31
0.0
  0
LINE
  5
239E4
330
747D
100
AcDbEntity
  8
細線
100
AcDbLine
 10
10007.84839469262
 20
1455.708577198054
 30
0.0
 11
10099.54731034596
 21
1547.407492851404
 31
0.0
  0
LINE
  5
239E5
330
747D
100
AcDbEntity
  8
細線
100
AcDbLine
 10
10396.12152410332
 20
1547.407492851404
 30
0.0
 11
10156.12152410332
 21
1787.407492851404
 31
0.0
  0
LINE
  5
239E6
330
747D
100
AcDbEntity
  8
細線
100
AcDbLine
 10
10447.03321234875
 20
1547.407492851405
 30
0.0
 11
10207.03321234875
 21
1787.407492851404
 31
0.0
  0
LINE
  5
239E7
330
747D
100
AcDbEntity
  8
部品1
100
AcDbLine
 10
10460.87087469633
 20
1787.407492851404
 30
0.0
 11
10460.87087469633
 21
1547.407492851404
 31
0.0
  0
LINE
  5
239E8
330
747D
100
AcDbEntity
  8
細線
 48
50.0
100
AcDbLine
 10
10430.49393892858
 20
1327.708577198051
 30
0.0
 11
10464.79143555976
 21
1455.708577198051
 31
0.0
  0
LINE
  5
239E9
330
747D
100
AcDbEntity
  8
細線
100
AcDbLine
 10
10401.78952018957
 20
1455.708577198055
 30
0.0
 11
10493.48843584292
 21
1547.407492851404
 31
0.0
  0
LINE
  5
239EA
330
747D
100
AcDbEntity
  8
細線
 48
50.0
100
AcDbLine
 10
10351.60589398133
 20
1327.708577198053
 30
0.0
 11
10385.9033906125
 21
1455.708577198054
 31
0.0
  0
LINE
  5
239EB
330
747D
100
AcDbEntity
  8
細線
 48
50.0
100
AcDbLine
 10
10193.82980408684
 20
1327.708577198053
 30
0.0
 11
10228.12730071802
 21
1455.708577198053
 31
0.0
  0
LINE
  5
239EC
330
747D
100
AcDbEntity
  8
細線
 48
50.0
100
AcDbLine
 10
10272.71784903408
 20
1327.708577198054
 30
0.0
 11
10307.01534566527
 21
1455.708577198053
 31
0.0
  0
LINE
  5
239ED
330
747D
100
AcDbEntity
  8
細線
 48
50.0
100
AcDbLine
 10
10279.14862965243
 20
1351.708577198054
 30
0.0
 11
10285.57941027078
 21
1327.708577198054
 31
0.0
  0
LINE
  5
239EE
330
747D
100
AcDbEntity
  8
細線
 48
50.0
100
AcDbLine
 10
10200.26058470519
 20
1351.708577198054
 30
0.0
 11
10206.69136532353
 21
1327.708577198054
 31
0.0
  0
LINE
  5
239EF
330
747D
100
AcDbEntity
  8
細線
 48
50.0
100
AcDbLine
 10
10358.03667459968
 20
1351.708577198054
 30
0.0
 11
10364.46745521804
 21
1327.708577198054
 31
0.0
  0
LINE
  5
239F0
330
747D
100
AcDbEntity
  8
細線
 48
50.0
100
AcDbLine
 10
10436.92471954693
 20
1351.708577198053
 30
0.0
 11
10443.35550016528
 21
1327.708577198053
 31
0.0
  0
LINE
  5
239F1
330
747D
100
AcDbEntity
  8
細線
 48
50.0
100
AcDbLine
 10
10300.58456504692
 20
1431.708577198054
 30
0.0
 11
10294.15378442858
 21
1455.708577198054
 31
0.0
  0
LINE
  5
239F2
330
747D
100
AcDbEntity
  8
細線
 48
50.0
100
AcDbLine
 10
10221.69652009968
 20
1431.708577198054
 30
0.0
 11
10215.26573948133
 21
1455.708577198054
 31
0.0
  0
LINE
  5
239F3
330
747D
100
AcDbEntity
  8
細線
 48
50.0
100
AcDbLine
 10
10142.80847515243
 20
1431.708577198054
 30
0.0
 11
10136.37769453408
 21
1455.708577198054
 31
0.0
  0
LINE
  5
239F4
330
747D
100
AcDbEntity
  8
細線
100
AcDbLine
 10
10367.84839469262
 20
1455.708577198055
 30
0.0
 11
10459.54731034596
 21
1547.407492851404
 31
0.0
  0
LINE
  5
239F5
330
747D
100
AcDbEntity
  8
細線
 48
50.0
100
AcDbLine
 10
10379.47260999416
 20
1431.708577198054
 30
0.0
 11
10373.04182937581
 21
1455.708577198054
 31
0.0
  0
LINE
  5
239F6
330
747D
100
AcDbEntity
  8
細線
100
AcDbLine
 10
10333.90726919567
 20
1455.708577198055
 30
0.0
 11
10425.60618484901
 21
1547.407492851404
 31
0.0
  0
LINE
  5
239F7
330
747D
100
AcDbEntity
  8
細線
 48
50.0
100
AcDbLine
 10
10458.36065494142
 20
1431.708577198053
 30
0.0
 11
10451.92987432307
 21
1455.708577198053
 31
0.0
  0
LINE
  5
239F8
330
747D
100
AcDbEntity
  8
細線
 48
50.0
100
AcDbLine
 10
10509.38198387582
 20
1327.708577198053
 30
0.0
 11
10543.67948050701
 21
1455.708577198051
 31
0.0
  0
LINE
  5
239F9
330
747D
100
AcDbEntity
  8
部品1
100
AcDbLine
 10
10580.87087469633
 20
1547.407492851404
 30
0.0
 11
10580.87087469633
 21
1327.708577198054
 31
0.0
  0
LINE
  5
239FA
330
747D
100
AcDbEntity
  8
細線
 48
50.0
100
AcDbLine
 10
10515.81276449418
 20
1351.708577198053
 30
0.0
 11
10522.24354511252
 21
1327.708577198053
 31
0.0
  0
LINE
  5
239FB
330
747D
100
AcDbEntity
  8
細線
 48
50.0
100
AcDbLine
 10
10537.24869988867
 20
1431.708577198053
 30
0.0
 11
10530.81791927032
 21
1455.708577198053
 31
0.0
  0
LEADER
  5
239FC
330
747D
100
AcDbEntity
  8
寸法
 48
50.0
100
AcDbLeader
  3
INABA_S50G
 73
     0
 74
     0
 75
     1
 40
120.0
 41
185.591883092037
 76
     3
 10
10391.59528631226
 20
1787.407492851404
 30
0.0
 10
10424.7334929459
 20
1959.553813532541
 30
0.0
 10
10549.7334929459
 20
1959.553813532541
 30
0.0
340
239FD
1001
ACAD
1000
DSTYLE
1002
{
1070
    40
1040
1.0
1002
}
  0
MTEXT
  5
239FD
102
{ACAD_REACTORS
330
239FC
102
}
330
747D
100
AcDbEntity
  8
寸法
 62
     7
 48
50.0
100
AcDbMText
 10
10574.7334929459
 20
2044.553813532541
 30
0.0
 40
120.0
 41
0.8
 71
     4
 72
     1
  1
\A1;C.B
  7
STYLE1
 73
     1
 44
1.0
1001
ACAD
1000
MTEXTBEGIN
1070
    73
1070
     1
1070
    44
1040
1.0
1070
    74
1070
     0
1000
MTEXTEND
  0
LINE
  5
23A80
102
{ACAD_REACTORS
330
23A9B
102
}
330
747D
100
AcDbEntity
  8
部品1
 48
50.0
100
AcDbLine
 10
9338.599999999997
 20
6427.069485050465
 30
0.0
 11
9338.600000000001
 21
7327.069485050448
 31
0.0
  0
LINE
  5
23A81
102
{ACAD_REACTORS
330
23AB5
102
}
330
747D
100
AcDbEntity
  8
部品1
 48
50.0
100
AcDbLine
 10
7108.600000000001
 20
6427.069485050445
 30
0.0
 11
7108.599999999997
 21
7327.06948505045
 31
0.0
  0
HATCH
  5
23A9B
330
747D
100
AcDbEntity
  8
細線
 48
50.0
100
AcDbHatch
 10
0.0
 20
0.0
 30
0.0
210
0.0
220
0.0
230
1.0
  2
LINE
 70
     0
 71
     1
 91
        1
 92
        7
 72
     0
 73
     1
 93
        4
 10
9458.6
 20
6962.06948505046
 10
9338.600000000003
 20
6962.069485050458
 10
9338.600000000003
 20
6762.069485050462
 10
9458.6
 20
6762.069485050459
 97
        4
330
230DA
330
23A80
330
230C9
330
230AC
 75
     0
 76
     1
 52
45.0
 41
10.0
 77
     0
 78
     1
 53
45.0
 43
0.0
 44
0.0
 45
-22.45064030267288
 46
22.45064030267288
 79
     0
 47
4.754880448627615
 98
        1
 10
9435.290354745085
 20
6885.974519785723
  0
HATCH
  5
23AB5
330
747D
100
AcDbEntity
  8
細線
 48
50.0
100
AcDbHatch
 10
0.0
 20
0.0
 30
0.0
210
0.0
220
0.0
230
1.0
  2
LINE
 70
     0
 71
     1
 91
        1
 92
        7
 72
     0
 73
     1
 93
        4
 10
7108.6
 20
6962.069485050459
 10
6988.599999999999
 20
6962.069485050458
 10
6988.600000000001
 20
6762.069485050457
 10
7108.599999999999
 20
6762.069485050459
 97
        4
330
23094
330
2305E
330
23078
330
23A81
 75
     0
 76
     1
 52
45.0
 41
10.0
 77
     0
 78
     1
 53
45.0
 43
0.0
 44
0.0
 45
-22.45064030267288
 46
22.45064030267288
 79
     0
 47
4.754880448627615
 98
        1
 10
7070.851786857122
 20
6847.93545398385
  0
ENDSEC
  0
SECTION
  2
OBJECTS
  0
DICTIONARY
  5
7471
330
0
100
AcDbDictionary
281
     1
  3
ACAD_COLOR
350
173D2
  3
ACAD_GROUP
350
7472
  3
ACAD_LAYOUT
350
173D3
  3
ACAD_MATERIAL
350
173D1
  3
ACAD_MLINESTYLE
350
7473
  3
ACAD_PLOTSETTINGS
350
173D4
  3
ACAD_PLOTSTYLENAME
350
173CF
  3
ACDBHEADERROUNDTRIPXREC
350
23AD5
  3
AcDbVariableDictionary
350
236A2
  3
CONTENTDICTIONARY
350
E71C
  3
DRAWINGVARIABLESDICT
350
F3B9
  0
DICTIONARY
  5
1758F
330
7467
100
AcDbDictionary
280
     1
281
     1
  3
ACAD_LAYERSTATES
360
17590
  0
DICTIONARY
  5
173D2
102
{ACAD_REACTORS
330
7471
102
}
330
7471
100
AcDbDictionary
281
     1
  0
DICTIONARY
  5
7472
102
{ACAD_REACTORS
330
7471
102
}
330
7471
100
AcDbDictionary
281
     1
  3
*A1
350
1D2A9
  0
DICTIONARY
  5
173D3
102
{ACAD_REACTORS
330
7471
102
}
330
7471
100
AcDbDictionary
281
     1
  3
Model
350
173D5
  3
レイアウト1
350
173D6
  0
DICTIONARY
  5
173D1
102
{ACAD_REACTORS
330
7471
102
}
330
7471
100
AcDbDictionary
281
     1
  0
DICTIONARY
  5
7473
102
{ACAD_REACTORS
330
7471
102
}
330
7471
100
AcDbDictionary
281
     1
  3
STANDARD
350
7480
  0
DICTIONARY
  5
173D4
102
{ACAD_REACTORS
330
7471
102
}
330
7471
100
AcDbDictionary
281
     1
  0
ACDBDICTIONARYWDFLT
  5
173CF
102
{ACAD_REACTORS
330
7471
102
}
330
7471
100
AcDbDictionary
281
     1
  3
Normal
350
173D0
100
AcDbDictionaryWithDefault
340
173D0
  0
DICTIONARY
  5
23AD5
102
{ACAD_REACTORS
330
7471
102
}
330
7471
100
AcDbDictionary
281
     1
  3
COLORDICT
350
23AD7
  3
MATERIALDICT
350
23AD6
  0
DICTIONARY
  5
236A2
102
{ACAD_REACTORS
330
7471
102
}
330
7471
100
AcDbDictionary
281
     1
  3
DIMASSOC
350
236A3
  3
PROJECTNAME
350
236A4
  0
DICTIONARY
  5
E71C
102
{ACAD_REACTORS
330
7471
102
}
330
7471
100
AcDbDictionary
281
     1
  0
DICTIONARY
  5
F3B9
102
{ACAD_REACTORS
330
7471
102
}
330
7471
100
AcDbDictionary
281
     1
1001
DRAWINGVARIABLESXDATA
1000
POLARMODE
1000
1
  0
DICTIONARY
  5
17590
102
{ACAD_REACTORS
330
1758F
102
}
330
1758F
100
AcDbDictionary
281
     1
  0
GROUP
  5
1D2A9
102
{ACAD_REACTORS
330
7472
102
}
330
7472
100
AcDbGroup
300

 70
     1
 71
     1
  0
LAYOUT
  5
173D5
102
{ACAD_XDICTIONARY
360
23AD8
102
}
102
{ACAD_REACTORS
330
173D3
102
}
330
173D3
100
AcDbPlotSettings
  1

  2
Microsoft Office Document Image Writer
  4

  6

 40
0.0
 41
0.0
 42
0.0
 43
0.0
 44
0.0
 45
0.0
 46
0.0
 47
0.0
 48
0.0
 49
0.0
140
0.0
141
0.0
142
1.0
143
1.0
 70
  1712
 72
     0
 73
     0
 74
     0
  7

 75
     0
147
1.0
148
0.0
149
0.0
100
AcDbLayout
  1
Model
 70
     1
 71
     0
 10
0.0
 20
0.0
 11
12.0
 21
9.0
 12
0.0
 22
0.0
 32
0.0
 14
0.0
 24
0.0
 34
0.0
 15
0.0
 25
0.0
 35
0.0
146
0.0
 13
0.0
 23
0.0
 33
0.0
 16
1.0
 26
0.0
 36
0.0
 17
0.0
 27
1.0
 37
0.0
 76
     0
330
747D
  0
LAYOUT
  5
173D6
102
{ACAD_XDICTIONARY
360
23ADA
102
}
102
{ACAD_REACTORS
330
173D3
102
}
330
173D3
100
AcDbPlotSettings
  1

  2
Microsoft Office Document Image Writer
  4

  6

 40
0.0
 41
0.0
 42
0.0
 43
0.0
 44
0.0
 45
0.0
 46
0.0
 47
0.0
 48
0.0
 49
0.0
140
0.0
141
0.0
142
1.0
143
1.0
 70
   688
 72
     0
 73
     0
 74
     5
  7

 75
    16
147
1.0
148
0.0
149
0.0
100
AcDbLayout
  1
レイアウト1
 70
     0
 71
     1
 10
0.0
 20
0.0
 11
420.0
 21
297.0
 12
0.0
 22
0.0
 32
0.0
 14
1.000000000000000E+20
 24
1.000000000000000E+20
 34
1.000000000000000E+20
 15
-1.000000000000000E+20
 25
-1.000000000000000E+20
 35
-1.000000000000000E+20
146
0.0
 13
0.0
 23
0.0
 33
0.0
 16
1.0
 26
0.0
 36
0.0
 17
0.0
 27
1.0
 37
0.0
 76
     0
330
747A
  0
MLINESTYLE
  5
7480
102
{ACAD_REACTORS
330
7473
102
}
330
7473
100
AcDbMlineStyle
  2
STANDARD
 70
     0
  3

 62
     0
 51
90.0
 52
90.0
 71
     2
 49
0.5
 62
   256
  6
BYLAYER
 49
-0.5
 62
   256
  6
BYLAYER
  0
ACDBPLACEHOLDER
  5
173D0
102
{ACAD_REACTORS
330
173CF
102
}
330
173CF
  0
XRECORD
  5
23AD7
102
{ACAD_REACTORS
330
23AD5
102
}
330
23AD5
100
AcDbXrecord
280
     1
340
173D2
  0
XRECORD
  5
23AD6
102
{ACAD_REACTORS
330
23AD5
102
}
330
23AD5
100
AcDbXrecord
280
     1
340
173D1
  0
DICTIONARYVAR
  5
236A3
102
{ACAD_REACTORS
330
236A2
102
}
330
236A2
100
DictionaryVariables
280
     0
  1
1
  0
DICTIONARYVAR
  5
236A4
102
{ACAD_REACTORS
330
236A2
102
}
330
236A2
100
DictionaryVariables
280
     0
  1

  0
DICTIONARY
  5
23AD8
330
173D5
100
AcDbDictionary
280
     1
281
     1
  3
ACAD_XREC_ROUNDTRIP
360
23AD9
  0
DICTIONARY
  5
23ADA
330
173D6
100
AcDbDictionary
280
     1
281
     1
  3
ACAD_XREC_ROUNDTRIP
360
23ADB
  0
XRECORD
  5
23AD9
102
{ACAD_REACTORS
330
23AD8
102
}
330
23AD8
100
AcDbXrecord
280
     1
102
SHADEPLOT
 70
     0
102
SHADEPLOTRESLEVEL
 70
     2
102
SHADEPLOTCUSTOMDPI
 70
   300
  0
XRECORD
  5
23ADB
102
{ACAD_REACTORS
330
23ADA
102
}
330
23ADA
100
AcDbXrecord
280
     1
102
SHADEPLOT
 70
     0
102
SHADEPLOTRESLEVEL
 70
     2
102
SHADEPLOTCUSTOMDPI
 70
   300
  0
ENDSEC
  0
EOF
