  0
SECTION
  2
HEADER
  9
$ACADVER
  1
AC1015
  9
$ACADMAINTVER
 70
    20
  9
$DWGCODEPAGE
  3
ANSI_932
  9
$INSBASE
 10
0.0
 20
0.0
 30
0.0
  9
$EXTMIN
 10
139.9999999999995
 20
-0.0000000000000909
 30
0.0
  9
$EXTMAX
 10
16307.2
 20
11409.6
 30
0.0
  9
$LIMMIN
 10
0.0
 20
0.0
  9
$LIMMAX
 10
16800.0
 20
11880.0
  9
$ORTHOMODE
 70
     0
  9
$REGENMODE
 70
     1
  9
$FILLMODE
 70
     1
  9
$QTEXTMODE
 70
     0
  9
$MIRRTEXT
 70
     1
  9
$LTSCALE
 40
20.0
  9
$ATTMODE
 70
     1
  9
$TEXTSIZE
 40
4.0
  9
$TRACEWID
 40
1.0
  9
$TEXTSTYLE
  7
STYLE1
  9
$CLAYER
  8
寸法
  9
$CELTYPE
  6
BYLAYER
  9
$CECOLOR
 62
   256
  9
$CELTSCALE
 40
50.0
  9
$DISPSILH
 70
     0
  9
$DIMSCALE
 40
40.0
  9
$DIMASZ
 40
2.5
  9
$DIMEXO
 40
0.5
  9
$DIMDLI
 40
7.0
  9
$DIMRND
 40
0.0
  9
$DIMDLE
 40
0.0
  9
$DIMEXE
 40
1.5
  9
$DIMTP
 40
0.0
  9
$DIMTM
 40
0.0
  9
$DIMTXT
 40
3.0
  9
$DIMCEN
 40
0.0
  9
$DIMTSZ
 40
0.0
  9
$DIMTOL
 70
     0
  9
$DIMLIM
 70
     0
  9
$DIMTIH
 70
     0
  9
$DIMTOH
 70
     0
  9
$DIMSE1
 70
     0
  9
$DIMSE2
 70
     0
  9
$DIMTAD
 70
     3
  9
$DIMZIN
 70
     8
  9
$DIMBLK
  1

  9
$DIMASO
 70
     1
  9
$DIMSHO
 70
     1
  9
$DIMPOST
  1

  9
$DIMAPOST
  1

  9
$DIMALT
 70
     0
  9
$DIMALTD
 70
     2
  9
$DIMALTF
 40
0.0394
  9
$DIMLFAC
 40
1.0
  9
$DIMTOFL
 70
     1
  9
$DIMTVP
 40
0.0
  9
$DIMTIX
 70
     1
  9
$DIMSOXD
 70
     0
  9
$DIMSAH
 70
     1
  9
$DIMBLK1
  1
DOTSMALL
  9
$DIMBLK2
  1
DOTSMALL
  9
$DIMSTYLE
  2
INABA_S40G
  9
$DIMCLRD
 70
     0
  9
$DIMCLRE
 70
     0
  9
$DIMCLRT
 70
     7
  9
$DIMTFAC
 40
1.0
  9
$DIMGAP
 40
1.0
  9
$DIMJUST
 70
     0
  9
$DIMSD1
 70
     0
  9
$DIMSD2
 70
     0
  9
$DIMTOLJ
 70
     1
  9
$DIMTZIN
 70
     0
  9
$DIMALTZ
 70
     0
  9
$DIMALTTZ
 70
     0
  9
$DIMUPT
 70
     0
  9
$DIMDEC
 70
     1
  9
$DIMTDEC
 70
     4
  9
$DIMALTU
 70
     2
  9
$DIMALTTD
 70
     2
  9
$DIMTXSTY
  7
STYLE1
  9
$DIMAUNIT
 70
     0
  9
$DIMADEC
 70
     0
  9
$DIMALTRND
 40
0.0
  9
$DIMAZIN
 70
     0
  9
$DIMDSEP
 70
    46
  9
$DIMATFIT
 70
     3
  9
$DIMFRAC
 70
     0
  9
$DIMLDRBLK
  1

  9
$DIMLUNIT
 70
     2
  9
$DIMLWD
 70
    -2
  9
$DIMLWE
 70
    -2
  9
$DIMTMOVE
 70
     0
  9
$LUNITS
 70
     2
  9
$LUPREC
 70
     1
  9
$SKETCHINC
 40
1.0
  9
$FILLETRAD
 40
3.0
  9
$AUNITS
 70
     0
  9
$AUPREC
 70
     0
  9
$MENU
  1
acad
  9
$ELEVATION
 40
0.0
  9
$PELEVATION
 40
0.0
  9
$THICKNESS
 40
0.0
  9
$LIMCHECK
 70
     0
  9
$CHAMFERA
 40
0.0
  9
$CHAMFERB
 40
0.0
  9
$CHAMFERC
 40
0.0
  9
$CHAMFERD
 40
0.0
  9
$SKPOLY
 70
     0
  9
$TDCREATE
 40
2451368.612993866
  9
$TDUCREATE
 40
2451368.237993866
  9
$TDUPDATE
 40
2455826.601797234
  9
$TDUUPDATE
 40
2455826.226797234
  9
$TDINDWG
 40
0.8003035880
  9
$TDUSRTIMER
 40
0.8003035880
  9
$USRTIMER
 70
     1
  9
$ANGBASE
 50
0.0
  9
$ANGDIR
 70
     0
  9
$PDMODE
 70
     3
  9
$PDSIZE
 40
2.0
  9
$PLINEWID
 40
0.0
  9
$SPLFRAME
 70
     0
  9
$SPLINETYPE
 70
     6
  9
$SPLINESEGS
 70
     8
  9
$HANDSEED
  5
2A27C
  9
$SURFTAB1
 70
     6
  9
$SURFTAB2
 70
     6
  9
$SURFTYPE
 70
     6
  9
$SURFU
 70
     6
  9
$SURFV
 70
     6
  9
$UCSBASE
  2

  9
$UCSNAME
  2

  9
$UCSORG
 10
0.0
 20
0.0
 30
0.0
  9
$UCSXDIR
 10
1.0
 20
0.0
 30
0.0
  9
$UCSYDIR
 10
0.0
 20
1.0
 30
0.0
  9
$UCSORTHOREF
  2

  9
$UCSORTHOVIEW
 70
     0
  9
$UCSORGTOP
 10
0.0
 20
0.0
 30
0.0
  9
$UCSORGBOTTOM
 10
0.0
 20
0.0
 30
0.0
  9
$UCSORGLEFT
 10
0.0
 20
0.0
 30
0.0
  9
$UCSORGRIGHT
 10
0.0
 20
0.0
 30
0.0
  9
$UCSORGFRONT
 10
0.0
 20
0.0
 30
0.0
  9
$UCSORGBACK
 10
0.0
 20
0.0
 30
0.0
  9
$PUCSBASE
  2

  9
$PUCSNAME
  2

  9
$PUCSORG
 10
0.0
 20
0.0
 30
0.0
  9
$PUCSXDIR
 10
1.0
 20
0.0
 30
0.0
  9
$PUCSYDIR
 10
0.0
 20
1.0
 30
0.0
  9
$PUCSORTHOREF
  2

  9
$PUCSORTHOVIEW
 70
     0
  9
$PUCSORGTOP
 10
0.0
 20
0.0
 30
0.0
  9
$PUCSORGBOTTOM
 10
0.0
 20
0.0
 30
0.0
  9
$PUCSORGLEFT
 10
0.0
 20
0.0
 30
0.0
  9
$PUCSORGRIGHT
 10
0.0
 20
0.0
 30
0.0
  9
$PUCSORGFRONT
 10
0.0
 20
0.0
 30
0.0
  9
$PUCSORGBACK
 10
0.0
 20
0.0
 30
0.0
  9
$USERI1
 70
     0
  9
$USERI2
 70
     0
  9
$USERI3
 70
     0
  9
$USERI4
 70
     0
  9
$USERI5
 70
     0
  9
$USERR1
 40
0.0
  9
$USERR2
 40
0.0
  9
$USERR3
 40
0.0
  9
$USERR4
 40
0.0
  9
$USERR5
 40
0.0
  9
$WORLDVIEW
 70
     1
  9
$SHADEDGE
 70
     3
  9
$SHADEDIF
 70
    70
  9
$TILEMODE
 70
     1
  9
$MAXACTVP
 70
    16
  9
$PINSBASE
 10
0.0
 20
0.0
 30
0.0
  9
$PLIMCHECK
 70
     0
  9
$PEXTMIN
 10
1.000000000000000E+20
 20
1.000000000000000E+20
 30
1.000000000000000E+20
  9
$PEXTMAX
 10
-1.000000000000000E+20
 20
-1.000000000000000E+20
 30
-1.000000000000000E+20
  9
$PLIMMIN
 10
0.0
 20
0.0
  9
$PLIMMAX
 10
420.0
 20
297.0
  9
$UNITMODE
 70
     0
  9
$VISRETAIN
 70
     0
  9
$PLINEGEN
 70
     0
  9
$PSLTSCALE
 70
     0
  9
$TREEDEPTH
 70
  3020
  9
$CMLSTYLE
  2
STANDARD
  9
$CMLJUST
 70
     0
  9
$CMLSCALE
 40
1.0
  9
$PROXYGRAPHICS
 70
     1
  9
$MEASUREMENT
 70
     1
  9
$CELWEIGHT
370
    -1
  9
$ENDCAPS
280
     0
  9
$JOINSTYLE
280
     0
  9
$LWDISPLAY
290
     0
  9
$INSUNITS
 70
     0
  9
$HYPERLINKBASE
  1

  9
$STYLESHEET
  1

  9
$XEDIT
290
     1
  9
$CEPSNTYPE
380
     0
  9
$PSTYLEMODE
290
     1
  9
$FINGERPRINTGUID
  2
{5EAC461A-2277-4BF8-9AB0-99C43BB394F0}
  9
$VERSIONGUID
  2
{EFDF5D83-870A-4DE1-934D-E513923A6D81}
  9
$EXTNAMES
290
     1
  9
$PSVPSCALE
 40
0.0
  9
$OLESTARTUP
290
     0
  0
ENDSEC
  0
SECTION
  2
CLASSES
  0
CLASS
  1
ACDBDICTIONARYWDFLT
  2
AcDbDictionaryWithDefault
  3
ObjectDBX Classes
 90
        0
280
     0
281
     0
  0
CLASS
  1
DICTIONARYVAR
  2
AcDbDictionaryVar
  3
ObjectDBX Classes
 90
        0
280
     0
281
     0
  0
CLASS
  1
ACDBPLACEHOLDER
  2
AcDbPlaceHolder
  3
ObjectDBX Classes
 90
        0
280
     0
281
     0
  0
CLASS
  1
LAYOUT
  2
AcDbLayout
  3
ObjectDBX Classes
 90
        0
280
     0
281
     0
  0
ENDSEC
  0
SECTION
  2
TABLES
  0
TABLE
  2
VPORT
  5
746D
330
0
100
AcDbSymbolTable
 70
     2
  0
VPORT
  5
2A274
330
746D
100
AcDbSymbolTableRecord
100
AcDbViewportTableRecord
  2
*Active
 70
     0
 10
0.0
 20
0.0
 11
1.0
 21
1.0
 12
8399.999999999998
 22
6532.141621995997
 13
0.0
 23
0.0
 14
10.0
 24
10.0
 15
10.0
 25
10.0
 16
0.0
 26
0.0
 36
1.0
 17
0.0
 27
0.0
 37
0.0
 40
13160.76428707948
 41
1.522222222222222
 42
50.0
 43
0.0
 44
0.0
 50
0.0
 51
0.0
 71
     0
 72
     0
 73
     1
 74
     0
 75
     0
 76
     0
 77
     0
 78
     0
281
     0
 65
     1
110
0.0
120
0.0
130
0.0
111
1.0
121
0.0
131
0.0
112
0.0
122
1.0
132
0.0
 79
     0
146
0.0
  0
ENDTAB
  0
TABLE
  2
LTYPE
  5
746A
330
0
100
AcDbSymbolTable
 70
     5
  0
LTYPE
  5
7477
330
746A
100
AcDbSymbolTableRecord
100
AcDbLinetypeTableRecord
  2
BYBLOCK
 70
     0
  3

 72
    65
 73
     0
 40
0.0
  0
LTYPE
  5
7478
330
746A
100
AcDbSymbolTableRecord
100
AcDbLinetypeTableRecord
  2
BYLAYER
 70
     0
  3

 72
    65
 73
     0
 40
0.0
  0
LTYPE
  5
7479
330
746A
100
AcDbSymbolTableRecord
100
AcDbLinetypeTableRecord
  2
CONTINUOUS
 70
     0
  3
Solid line
 72
    65
 73
     0
 40
0.0
  0
LTYPE
  5
7816
330
746A
100
AcDbSymbolTableRecord
100
AcDbLinetypeTableRecord
  2
CENTER
 70
     0
  3
____ _ ____ _ ____ _ ____ _ ____ _ ____ _ ____ 
 72
    65
 73
     4
 40
2.0
 49
1.25
 74
     0
 49
-0.25
 74
     0
 49
0.25
 74
     0
 49
-0.25
 74
     0
  0
LTYPE
  5
781A
330
746A
100
AcDbSymbolTableRecord
100
AcDbLinetypeTableRecord
  2
HIDDEN
 70
     0
  3
__ __ __ __ __ __ __ __ __ __ __ __ __ __ __ __
 72
    65
 73
     2
 40
0.375
 49
0.25
 74
     0
 49
-0.125
 74
     0
  0
LTYPE
  5
781B
330
746A
100
AcDbSymbolTableRecord
100
AcDbLinetypeTableRecord
  2
PHANTOM
 70
     0
  3
______  __  __  ______  __  __  ______  __  __ 
 72
    65
 73
     6
 40
2.5
 49
1.25
 74
     0
 49
-0.25
 74
     0
 49
0.25
 74
     0
 49
-0.25
 74
     0
 49
0.25
 74
     0
 49
-0.25
 74
     0
  0
LTYPE
  5
12CC3
330
746A
100
AcDbSymbolTableRecord
100
AcDbLinetypeTableRecord
  2
HIDDENX2
 70
     0
  3
Hidden (2x) ____ ____ ____ ____ ____ ____ ____
 72
    65
 73
     2
 40
19.05
 49
12.7
 74
     0
 49
-6.349999999999999
 74
     0
  0
ENDTAB
  0
TABLE
  2
LAYER
  5
7467
102
{ACAD_XDICTIONARY
360
1758F
102
}
330
0
100
AcDbSymbolTable
 70
    12
  0
LAYER
  5
7474
330
7467
100
AcDbSymbolTableRecord
100
AcDbLayerTableRecord
  2
0
 70
     0
 62
     7
  6
CONTINUOUS
370
    -3
390
173D0
  0
LAYER
  5
DEB2
330
7467
100
AcDbSymbolTableRecord
100
AcDbLayerTableRecord
  2
センター
 70
     0
 62
     3
  6
CENTER
370
    -3
390
173D0
  0
LAYER
  5
DEB3
330
7467
100
AcDbSymbolTableRecord
100
AcDbLayerTableRecord
  2
寸法
 70
     0
 62
     4
  6
CONTINUOUS
370
    -3
390
173D0
  0
LAYER
  5
DEB4
330
7467
100
AcDbSymbolTableRecord
100
AcDbLayerTableRecord
  2
部品1
 70
     0
 62
     7
  6
CONTINUOUS
370
    -3
390
173D0
  0
LAYER
  5
DEB5
330
7467
100
AcDbSymbolTableRecord
100
AcDbLayerTableRecord
  2
補助
 70
     0
 62
    -1
  6
CONTINUOUS
370
    -3
390
173D0
  0
LAYER
  5
DEB6
330
7467
100
AcDbSymbolTableRecord
100
AcDbLayerTableRecord
  2
文字
 70
     0
 62
     7
  6
CONTINUOUS
370
    -3
390
173D0
  0
LAYER
  5
F255
330
7467
100
AcDbSymbolTableRecord
100
AcDbLayerTableRecord
  2
DEFPOINTS
 70
     0
 62
     7
  6
CONTINUOUS
290
     0
370
    -3
390
173D0
  0
LAYER
  5
10B54
330
7467
100
AcDbSymbolTableRecord
100
AcDbLayerTableRecord
  2
仕様書枠
 70
     0
 62
   230
  6
CONTINUOUS
370
    -3
390
173D0
  0
LAYER
  5
11729
330
7467
100
AcDbSymbolTableRecord
100
AcDbLayerTableRecord
  2
Ｇ．Ｌ
 70
     0
 62
    30
  6
CONTINUOUS
370
    -3
390
173D0
  0
LAYER
  5
1173F
330
7467
100
AcDbSymbolTableRecord
100
AcDbLayerTableRecord
  2
細線
 70
     0
 62
     5
  6
CONTINUOUS
370
    -3
390
173D0
  0
LAYER
  5
12CC4
330
7467
100
AcDbSymbolTableRecord
100
AcDbLayerTableRecord
  2
想像線
 70
     0
 62
     6
  6
PHANTOM
370
    -3
390
173D0
  0
LAYER
  5
142E2
330
7467
100
AcDbSymbolTableRecord
100
AcDbLayerTableRecord
  2
破線
 70
     0
 62
     2
  6
HIDDEN
370
    -3
390
173D0
  0
ENDTAB
  0
TABLE
  2
STYLE
  5
7468
330
0
100
AcDbSymbolTable
 70
     7
  0
STYLE
  5
7475
330
7468
100
AcDbSymbolTableRecord
100
AcDbTextStyleTableRecord
  2
STANDARD
 70
     0
 40
0.0
 41
1.0
 50
0.0
 71
     0
 42
4.0
  3
txt
  4
C:\AutoCAD LT\bigfont.shx
  0
STYLE
  5
763C
330
7468
100
AcDbSymbolTableRecord
100
AcDbTextStyleTableRecord
  2
MSMINCHO
 70
     0
 40
0.0
 41
1.0
 50
0.0
 71
     0
 42
1.199999999999999
  3
C:\AutoCAD LT\msminch2.TTF
  4

  0
STYLE
  5
F706
330
7468
100
AcDbSymbolTableRecord
100
AcDbTextStyleTableRecord
  2
STYLE1
 70
     0
 40
0.0
 41
1.0
 50
0.0
 71
     0
 42
4.0
  3
isocp.shx
  4
bigfont.shx
  0
STYLE
  5
103BF
330
7468
100
AcDbSymbolTableRecord
100
AcDbTextStyleTableRecord
  2
STYLE2
 70
     0
 40
0.0
 41
1.0
 50
0.0
 71
     0
 42
100.0
  3
MS PGothic.ttf
  4

1001
ACAD
1000
MS PGothic
1071
    32818
  0
STYLE
  5
10BAA
330
7468
100
AcDbSymbolTableRecord
100
AcDbTextStyleTableRecord
  2
STYLE3
 70
     0
 40
0.0
 41
1.0
 50
0.0
 71
     0
 42
100.0
  3

  4

1001
ACAD
1000
DFPGothic-EB
1071
    32818
  0
STYLE
  5
11A15
330
7468
100
AcDbSymbolTableRecord
100
AcDbTextStyleTableRecord
  2
MSGOTHIC
 70
     0
 40
0.0
 41
1.0
 50
0.0
 71
     0
 42
3.5
  3
msgothi2.ttf
  4

  0
STYLE
  5
13E96
330
7468
100
AcDbSymbolTableRecord
100
AcDbTextStyleTableRecord
  2
MSPゴシック
 70
     0
 40
0.0
 41
1.0
 50
0.0
 71
     0
 42
4.0
  3
MS PGothic.ttf
  4

1001
ACAD
1000
MS PGothic
1071
    32818
  0
ENDTAB
  0
TABLE
  2
VIEW
  5
746B
330
0
100
AcDbSymbolTable
 70
     0
  0
ENDTAB
  0
TABLE
  2
UCS
  5
746C
330
0
100
AcDbSymbolTable
 70
     0
  0
ENDTAB
  0
TABLE
  2
APPID
  5
746E
330
0
100
AcDbSymbolTable
 70
     6
  0
APPID
  5
7476
330
746E
100
AcDbSymbolTableRecord
100
AcDbRegAppTableRecord
  2
ACAD
 70
     0
  0
APPID
  5
DEA9
330
746E
100
AcDbSymbolTableRecord
100
AcDbRegAppTableRecord
  2
CONTENTBLOCKICON
 70
     0
  0
APPID
  5
DEAA
330
746E
100
AcDbSymbolTableRecord
100
AcDbRegAppTableRecord
  2
CONTENTBLOCKDESCRIPTION
 70
     0
  0
APPID
  5
E71D
330
746E
100
AcDbSymbolTableRecord
100
AcDbRegAppTableRecord
  2
CONTENTTABDATA
 70
     0
  0
APPID
  5
E71E
330
746E
100
AcDbSymbolTableRecord
100
AcDbRegAppTableRecord
  2
CONTENTCURRENTTAB
 70
     0
  0
APPID
  5
F3BA
330
746E
100
AcDbSymbolTableRecord
100
AcDbRegAppTableRecord
  2
DRAWINGVARIABLESXDATA
 70
     0
  0
ENDTAB
  0
TABLE
  2
DIMSTYLE
  5
746F
330
0
100
AcDbSymbolTable
 70
     6
100
AcDbDimStyleTable
 71
     1
340
F71F
  0
DIMSTYLE
105
7484
330
746F
100
AcDbSymbolTableRecord
100
AcDbDimStyleTableRecord
  2
JIS
 70
     0
 41
2.5
 42
1.0
 43
7.0
 44
1.0
 73
     0
 74
     0
 77
     1
 78
     8
140
2.5
141
0.0
143
0.0394
147
0.0
172
     1
174
     1
175
     1
340
7475
  0
DIMSTYLE
105
F236
330
746F
100
AcDbSymbolTableRecord
100
AcDbDimStyleTableRecord
  2
INABA_S40
 70
     0
 40
40.0
 41
2.5
 42
0.5
 43
7.0
 44
1.5
 73
     0
 74
     0
 77
     3
 78
     8
140
3.0
141
0.0
143
0.0394
147
1.0
172
     1
173
     1
174
     1
175
     1
178
     7
289
     0
340
7475
341
DEAC
343
DEAC
344
DEAC
  0
DIMSTYLE
105
F71F
102
{ACAD_REACTORS
330
28EFF
330
28F00
330
28F01
330
28F02
330
28F03
330
28F08
330
28F09
330
296AC
330
2966A
330
295FC
330
295FB
330
295FA
330
295F1
330
295B3
330
29595
330
29594
330
29592
330
29520
330
2951F
330
2951E
330
29518
330
29517
330
2950C
330
29509
330
29528
330
29529
330
29524
330
29521
330
2952C
330
2951D
330
2A15A
330
2A1BA
330
2A1BD
330
2A1C4
330
2A1CC
330
2A1CD
102
}
330
746F
100
AcDbSymbolTableRecord
100
AcDbDimStyleTableRecord
  2
INABA_S40G
 70
     0
 40
40.0
 41
2.5
 42
0.5
 43
7.0
 44
1.5
 73
     0
 74
     0
 77
     3
 78
     8
140
3.0
141
0.0
143
0.0394
147
1.0
172
     1
173
     1
174
     1
178
     7
271
     1
340
F706
341
F770
343
F770
344
F770
  0
DIMSTYLE
105
142E3
330
746F
100
AcDbSymbolTableRecord
100
AcDbDimStyleTableRecord
  2
INABA_S1
 70
     0
 40
0.0
 41
2.5
 42
0.5
 43
7.0
 44
1.5
 73
     0
 74
     0
 77
     3
 78
     8
140
3.0
141
0.0
143
0.0394
146
0.5
147
0.5
172
     1
173
     1
176
   256
177
   256
178
     7
271
     2
272
     2
284
     8
288
     1
340
7475
341
DEAC
343
DEAC
344
DEAC
  0
DIMSTYLE
105
14463
330
746F
100
AcDbSymbolTableRecord
100
AcDbDimStyleTableRecord
  2
INABA_S30G
 70
     0
 40
30.0
 41
2.5
 42
0.5
 43
7.0
 44
1.5
 73
     0
 74
     0
 77
     3
 78
     8
140
3.0
141
0.0
143
0.0394
147
1.0
172
     1
173
     1
174
     1
175
     1
178
     7
271
     1
340
F706
341
F770
343
F770
344
F770
  0
DIMSTYLE
105
1758E
330
746F
100
AcDbSymbolTableRecord
100
AcDbDimStyleTableRecord
  2
INABA_S50G
 70
     0
 41
125.0
 42
25.0
 43
7.0
 44
75.0
 73
     0
 74
     0
 77
     3
 78
     8
140
150.0
141
0.0
143
0.0394
147
25.0
172
     1
173
     1
174
     1
175
     1
178
     7
271
     1
340
F706
341
F770
343
F770
344
F770
  0
ENDTAB
  0
TABLE
  2
BLOCK_RECORD
  5
7466
330
0
100
AcDbSymbolTable
 70
    57
  0
BLOCK_RECORD
  5
747D
330
7466
100
AcDbSymbolTableRecord
100
AcDbBlockTableRecord
  2
*MODEL_SPACE
340
173D5
  0
BLOCK_RECORD
  5
747A
330
7466
100
AcDbSymbolTableRecord
100
AcDbBlockTableRecord
  2
*PAPER_SPACE
340
173D6
  0
BLOCK_RECORD
  5
DEAC
330
7466
100
AcDbSymbolTableRecord
100
AcDbBlockTableRecord
  2
_OPEN
340
0
  0
BLOCK_RECORD
  5
F770
330
7466
100
AcDbSymbolTableRecord
100
AcDbBlockTableRecord
  2
_DOTSMALL
340
0
102
{BLKREFS
331
18C65
331
18C66
331
18C59
331
18C5A
331
18C4D
331
18C4E
331
18C41
331
18C42
331
18C35
331
18C36
331
18C29
331
18C2A
331
18C1D
331
18C1E
331
18C0F
331
18C10
331
18C03
331
18C04
331
18BF5
331
18BF6
331
18BE7
331
18BE8
331
18BD9
331
18BDA
331
18BCD
331
18BCE
331
29C69
331
29C6A
331
29C72
331
29C73
331
29C9F
331
29CA0
331
29CA9
331
29CAA
331
29CB3
331
29CB4
331
29CBC
331
29CBD
331
29CF2
331
29CF3
331
29D04
331
29D05
331
29D20
331
29D21
331
29D50
331
29D51
331
29D5B
331
29D5C
331
29D66
331
29D67
331
29D71
331
29D72
331
29D7C
331
29D7D
331
29DA0
331
29DA1
331
29DA9
331
29DAA
331
29E56
331
29E57
331
29E7C
331
29E7D
331
29E85
331
29E86
331
29E8E
331
29E8F
331
29E97
331
29E98
331
29EA0
331
29EA1
331
29EA9
331
29EAA
331
29EB2
331
29EB3
331
29EBB
331
29EBC
331
29ECD
331
29ECE
331
29ED6
331
29ED7
331
29EDF
331
29EE0
331
29EE8
331
29EE9
331
29F08
331
29F09
331
29F14
331
29F15
331
2A224
331
2A225
331
2A22D
331
2A22E
331
2A236
331
2A237
331
2A23F
331
2A240
331
2A24A
331
2A24B
331
2A253
331
2A254
102
}
  0
BLOCK_RECORD
  5
164B4
330
7466
100
AcDbSymbolTableRecord
100
AcDbBlockTableRecord
  2
_DOT
340
0
102
{BLKREFS
331
18C73
331
18C74
102
}
  0
BLOCK_RECORD
  5
18BC8
330
7466
100
AcDbSymbolTableRecord
100
AcDbBlockTableRecord
  2
*D3
340
0
  0
BLOCK_RECORD
  5
18BD4
330
7466
100
AcDbSymbolTableRecord
100
AcDbBlockTableRecord
  2
*D4
340
0
  0
BLOCK_RECORD
  5
18BE0
330
7466
100
AcDbSymbolTableRecord
100
AcDbBlockTableRecord
  2
*D5
340
0
  0
BLOCK_RECORD
  5
18BEE
330
7466
100
AcDbSymbolTableRecord
100
AcDbBlockTableRecord
  2
*D6
340
0
  0
BLOCK_RECORD
  5
18BFC
330
7466
100
AcDbSymbolTableRecord
100
AcDbBlockTableRecord
  2
*D7
340
0
  0
BLOCK_RECORD
  5
18C0A
330
7466
100
AcDbSymbolTableRecord
100
AcDbBlockTableRecord
  2
*D8
340
0
  0
BLOCK_RECORD
  5
18C16
330
7466
100
AcDbSymbolTableRecord
100
AcDbBlockTableRecord
  2
*D9
340
0
  0
BLOCK_RECORD
  5
18C24
330
7466
100
AcDbSymbolTableRecord
100
AcDbBlockTableRecord
  2
*D10
340
0
  0
BLOCK_RECORD
  5
18C30
330
7466
100
AcDbSymbolTableRecord
100
AcDbBlockTableRecord
  2
*D11
340
0
  0
BLOCK_RECORD
  5
18C3C
330
7466
100
AcDbSymbolTableRecord
100
AcDbBlockTableRecord
  2
*D12
340
0
  0
BLOCK_RECORD
  5
18C48
330
7466
100
AcDbSymbolTableRecord
100
AcDbBlockTableRecord
  2
*D13
340
0
  0
BLOCK_RECORD
  5
18C54
330
7466
100
AcDbSymbolTableRecord
100
AcDbBlockTableRecord
  2
*D14
340
0
  0
BLOCK_RECORD
  5
18C60
330
7466
100
AcDbSymbolTableRecord
100
AcDbBlockTableRecord
  2
*D15
340
0
  0
BLOCK_RECORD
  5
18C6C
330
7466
100
AcDbSymbolTableRecord
100
AcDbBlockTableRecord
  2
*D16
340
0
  0
BLOCK_RECORD
  5
18C7A
330
7466
100
AcDbSymbolTableRecord
100
AcDbBlockTableRecord
  2
A$C3B1A506B
340
0
  0
BLOCK_RECORD
  5
1C4CA
330
7466
100
AcDbSymbolTableRecord
100
AcDbBlockTableRecord
  2
_NONE
340
0
  0
BLOCK_RECORD
  5
29014
330
7466
100
AcDbSymbolTableRecord
100
AcDbBlockTableRecord
  2
*D19
340
0
  0
BLOCK_RECORD
  5
29021
330
7466
100
AcDbSymbolTableRecord
100
AcDbBlockTableRecord
  2
*D20
340
0
  0
BLOCK_RECORD
  5
2902E
330
7466
100
AcDbSymbolTableRecord
100
AcDbBlockTableRecord
  2
*D21
340
0
  0
BLOCK_RECORD
  5
2903B
330
7466
100
AcDbSymbolTableRecord
100
AcDbBlockTableRecord
  2
*D22
340
0
  0
BLOCK_RECORD
  5
29049
330
7466
100
AcDbSymbolTableRecord
100
AcDbBlockTableRecord
  2
*D23
340
0
  0
BLOCK_RECORD
  5
29057
330
7466
100
AcDbSymbolTableRecord
100
AcDbBlockTableRecord
  2
*D24
340
0
  0
BLOCK_RECORD
  5
29065
330
7466
100
AcDbSymbolTableRecord
100
AcDbBlockTableRecord
  2
*D25
340
0
  0
BLOCK_RECORD
  5
296BF
330
7466
100
AcDbSymbolTableRecord
100
AcDbBlockTableRecord
  2
*D26
340
0
  0
BLOCK_RECORD
  5
296CB
330
7466
100
AcDbSymbolTableRecord
100
AcDbBlockTableRecord
  2
*D27
340
0
  0
BLOCK_RECORD
  5
296D7
330
7466
100
AcDbSymbolTableRecord
100
AcDbBlockTableRecord
  2
*D28
340
0
  0
BLOCK_RECORD
  5
296E3
330
7466
100
AcDbSymbolTableRecord
100
AcDbBlockTableRecord
  2
*D29
340
0
  0
BLOCK_RECORD
  5
296EF
330
7466
100
AcDbSymbolTableRecord
100
AcDbBlockTableRecord
  2
*D30
340
0
  0
BLOCK_RECORD
  5
296FB
330
7466
100
AcDbSymbolTableRecord
100
AcDbBlockTableRecord
  2
*D31
340
0
  0
BLOCK_RECORD
  5
29706
330
7466
100
AcDbSymbolTableRecord
100
AcDbBlockTableRecord
  2
*D32
340
0
  0
BLOCK_RECORD
  5
29712
330
7466
100
AcDbSymbolTableRecord
100
AcDbBlockTableRecord
  2
*D33
340
0
  0
BLOCK_RECORD
  5
2971D
330
7466
100
AcDbSymbolTableRecord
100
AcDbBlockTableRecord
  2
*D34
340
0
  0
BLOCK_RECORD
  5
29729
330
7466
100
AcDbSymbolTableRecord
100
AcDbBlockTableRecord
  2
*D35
340
0
  0
BLOCK_RECORD
  5
2974E
330
7466
100
AcDbSymbolTableRecord
100
AcDbBlockTableRecord
  2
*D36
340
0
  0
BLOCK_RECORD
  5
2975A
330
7466
100
AcDbSymbolTableRecord
100
AcDbBlockTableRecord
  2
*D37
340
0
  0
BLOCK_RECORD
  5
29767
330
7466
100
AcDbSymbolTableRecord
100
AcDbBlockTableRecord
  2
*D38
340
0
  0
BLOCK_RECORD
  5
29773
330
7466
100
AcDbSymbolTableRecord
100
AcDbBlockTableRecord
  2
*D39
340
0
  0
BLOCK_RECORD
  5
2978B
330
7466
100
AcDbSymbolTableRecord
100
AcDbBlockTableRecord
  2
*D40
340
0
  0
BLOCK_RECORD
  5
29798
330
7466
100
AcDbSymbolTableRecord
100
AcDbBlockTableRecord
  2
*D41
340
0
  0
BLOCK_RECORD
  5
297AF
330
7466
100
AcDbSymbolTableRecord
100
AcDbBlockTableRecord
  2
*D42
340
0
  0
BLOCK_RECORD
  5
297C8
330
7466
100
AcDbSymbolTableRecord
100
AcDbBlockTableRecord
  2
*D43
340
0
  0
BLOCK_RECORD
  5
297D4
330
7466
100
AcDbSymbolTableRecord
100
AcDbBlockTableRecord
  2
*D44
340
0
  0
BLOCK_RECORD
  5
297E0
330
7466
100
AcDbSymbolTableRecord
100
AcDbBlockTableRecord
  2
*D45
340
0
  0
BLOCK_RECORD
  5
297EC
330
7466
100
AcDbSymbolTableRecord
100
AcDbBlockTableRecord
  2
*D46
340
0
  0
BLOCK_RECORD
  5
297F8
330
7466
100
AcDbSymbolTableRecord
100
AcDbBlockTableRecord
  2
*D47
340
0
  0
BLOCK_RECORD
  5
29811
330
7466
100
AcDbSymbolTableRecord
100
AcDbBlockTableRecord
  2
*D48
340
0
  0
BLOCK_RECORD
  5
29F0E
330
7466
100
AcDbSymbolTableRecord
100
AcDbBlockTableRecord
  2
*D49
340
0
  0
BLOCK_RECORD
  5
29F1B
330
7466
100
AcDbSymbolTableRecord
100
AcDbBlockTableRecord
  2
A$C265C1BCD
340
0
  0
BLOCK_RECORD
  5
2A1D7
330
7466
100
AcDbSymbolTableRecord
100
AcDbBlockTableRecord
  2
*D51
340
0
  0
BLOCK_RECORD
  5
2A1E3
330
7466
100
AcDbSymbolTableRecord
100
AcDbBlockTableRecord
  2
*D52
340
0
  0
BLOCK_RECORD
  5
2A1EF
330
7466
100
AcDbSymbolTableRecord
100
AcDbBlockTableRecord
  2
*D53
340
0
  0
BLOCK_RECORD
  5
2A1FB
330
7466
100
AcDbSymbolTableRecord
100
AcDbBlockTableRecord
  2
*D54
340
0
  0
BLOCK_RECORD
  5
2A207
330
7466
100
AcDbSymbolTableRecord
100
AcDbBlockTableRecord
  2
*D55
340
0
  0
BLOCK_RECORD
  5
2A215
330
7466
100
AcDbSymbolTableRecord
100
AcDbBlockTableRecord
  2
*D56
340
0
  0
ENDTAB
  0
ENDSEC
  0
SECTION
  2
BLOCKS
  0
BLOCK
  5
7489
330
747D
100
AcDbEntity
  8
0
100
AcDbBlockBegin
  2
*MODEL_SPACE
 70
     0
 10
0.0
 20
0.0
 30
0.0
  3
*MODEL_SPACE
  1

  0
ENDBLK
  5
748A
330
747D
100
AcDbEntity
  8
0
100
AcDbBlockEnd
  0
BLOCK
  5
7487
330
747A
100
AcDbEntity
 67
     1
  8
0
100
AcDbBlockBegin
  2
*PAPER_SPACE
 70
     0
 10
0.0
 20
0.0
 30
0.0
  3
*PAPER_SPACE
  1

  0
ENDBLK
  5
7488
330
747A
100
AcDbEntity
 67
     1
  8
0
100
AcDbBlockEnd
  0
BLOCK
  5
DEAD
330
DEAC
100
AcDbEntity
  8
0
100
AcDbBlockBegin
  2
_OPEN
 70
     0
 10
0.0
 20
0.0
 30
0.0
  3
_OPEN
  1

  0
LINE
  5
DEAE
330
DEAC
100
AcDbEntity
  8
0
  6
ByBlock
 62
     0
100
AcDbLine
 10
-1.0
 20
0.1666666666666666
 30
0.0
 11
0.0
 21
0.0
 31
0.0
  0
LINE
  5
DEAF
330
DEAC
100
AcDbEntity
  8
0
  6
ByBlock
 62
     0
100
AcDbLine
 10
0.0
 20
0.0
 30
0.0
 11
-1.0
 21
-0.1666666666666666
 31
0.0
  0
LINE
  5
DEB0
330
DEAC
100
AcDbEntity
  8
0
  6
ByBlock
 62
     0
100
AcDbLine
 10
0.0
 20
0.0
 30
0.0
 11
-1.0
 21
0.0
 31
0.0
  0
ENDBLK
  5
DEB1
330
DEAC
100
AcDbEntity
  8
0
100
AcDbBlockEnd
  0
BLOCK
  5
F771
330
F770
100
AcDbEntity
  8
0
 48
50.0
100
AcDbBlockBegin
  2
_DOTSMALL
 70
     0
 10
0.0
 20
0.0
 30
0.0
  3
_DOTSMALL
  1

  0
LWPOLYLINE
  5
F772
330
F770
100
AcDbEntity
  8
0
  6
ByBlock
 62
     0
 48
50.0
100
AcDbPolyline
 90
        2
 70
     1
 43
0.5
 10
-0.0625
 20
0.0
 42
1.0
 10
0.0625
 20
0.0
 42
1.0
  0
ENDBLK
  5
F776
330
F770
100
AcDbEntity
  8
0
 48
50.0
100
AcDbBlockEnd
  0
BLOCK
  5
164BA
330
164B4
100
AcDbEntity
  8
0
 48
50.0
100
AcDbBlockBegin
  2
_DOT
 70
     0
 10
0.0
 20
0.0
 30
0.0
  3
_DOT
  1

  0
LWPOLYLINE
  5
164B5
330
164B4
100
AcDbEntity
  8
0
  6
ByBlock
 62
     0
 48
50.0
100
AcDbPolyline
 90
        2
 70
     1
 43
0.5
 10
-0.25
 20
0.0
 42
1.0
 10
0.25
 20
0.0
 42
1.0
  0
LINE
  5
164B9
330
164B4
100
AcDbEntity
  8
0
  6
ByBlock
 62
     0
 48
50.0
100
AcDbLine
 10
-0.5
 20
0.0
 30
0.0
 11
-1.0
 21
0.0
 31
0.0
  0
ENDBLK
  5
164BB
330
164B4
100
AcDbEntity
  8
0
 48
50.0
100
AcDbBlockEnd
  0
BLOCK
  5
18BC9
330
18BC8
100
AcDbEntity
  8
0
 48
50.0
100
AcDbBlockBegin
  2
*D3
 70
     1
 10
0.0
 20
0.0
 30
0.0
  3
*D3
  1

  0
LINE
  5
18BCA
330
18BC8
100
AcDbEntity
  8
寸法
 62
     0
 48
50.0
370
    -2
100
AcDbLine
 10
7649.896575106999
 20
9636.123139034717
 30
0.0
 11
8702.429862581047
 21
9636.123139034717
 31
0.0
  0
LINE
  5
18BCB
330
18BC8
100
AcDbEntity
  8
寸法
 62
     0
 48
50.0
370
    -2
100
AcDbLine
 10
7649.896575106973
 20
7846.123139034709
 30
0.0
 11
8702.429862581047
 21
7846.123139034709
 31
0.0
  0
LINE
  5
18BCC
330
18BC8
100
AcDbEntity
  8
寸法
 62
     0
 48
50.0
370
    -2
100
AcDbLine
 10
8642.429862581046
 20
9636.123139034717
 30
0.0
 11
8642.429862581046
 21
7846.123139034709
 31
0.0
  0
INSERT
  5
18BCD
330
18BC8
100
AcDbEntity
  8
寸法
 62
     0
 48
50.0
370
    -2
100
AcDbBlockReference
  2
_DOTSMALL
 10
8642.429862581046
 20
9636.123139034717
 30
0.0
 41
100.0
 42
100.0
 43
100.0
 50
90.0
  0
INSERT
  5
18BCE
330
18BC8
100
AcDbEntity
  8
寸法
 62
     0
 48
50.0
370
    -2
100
AcDbBlockReference
  2
_DOTSMALL
 10
8642.429862581046
 20
7846.123139034709
 30
0.0
 41
100.0
 42
100.0
 43
100.0
 50
270.0
  0
MTEXT
  5
18BCF
330
18BC8
100
AcDbEntity
  8
寸法
 62
     7
 48
50.0
100
AcDbMText
 10
8542.429862581045
 20
8741.123139034712
 30
0.0
 40
120.0
 41
0.0
 71
     5
 72
     1
  1
\A1;1790
  7
STYLE1
 11
0.0000000000000001
 21
1.0
 31
0.0
 73
     1
 44
1.0
1001
ACAD
1000
MTEXTBEGIN
1070
    73
1070
     1
1070
    44
1040
1.0
1070
    74
1070
     0
1000
MTEXTEND
  0
POINT
  5
18BD0
330
18BC8
100
AcDbEntity
  8
DEFPOINTS
 62
     0
 48
50.0
100
AcDbPoint
 10
7629.896575106998
 20
9636.123139034717
 30
0.0
  0
POINT
  5
18BD1
330
18BC8
100
AcDbEntity
  8
DEFPOINTS
 62
     0
 48
50.0
100
AcDbPoint
 10
7629.896575106974
 20
7846.123139034709
 30
0.0
  0
POINT
  5
18BD2
330
18BC8
100
AcDbEntity
  8
DEFPOINTS
 62
     0
 48
50.0
100
AcDbPoint
 10
8642.429862581046
 20
7846.123139034709
 30
0.0
  0
ENDBLK
  5
18BD3
330
18BC8
100
AcDbEntity
  8
0
 48
50.0
100
AcDbBlockEnd
  0
BLOCK
  5
18BD5
330
18BD4
100
AcDbEntity
  8
0
 48
50.0
100
AcDbBlockBegin
  2
*D4
 70
     1
 10
0.0
 20
0.0
 30
0.0
  3
*D4
  1

  0
LINE
  5
18BD6
330
18BD4
100
AcDbEntity
  8
寸法
 62
     0
 48
50.0
370
    -2
100
AcDbLine
 10
4214.896575106998
 20
9656.123139034622
 30
0.0
 11
4214.896575106998
 21
10211.93135865972
 31
0.0
  0
LINE
  5
18BD7
330
18BD4
100
AcDbEntity
  8
寸法
 62
     0
 48
50.0
370
    -2
100
AcDbLine
 10
7574.896575106999
 20
9656.123139034718
 30
0.0
 11
7574.896575106999
 21
10211.93135865972
 31
0.0
  0
LINE
  5
18BD8
330
18BD4
100
AcDbEntity
  8
寸法
 62
     0
 48
50.0
370
    -2
100
AcDbLine
 10
4214.896575106998
 20
10151.93135865972
 30
0.0
 11
7574.896575106999
 21
10151.93135865972
 31
0.0
  0
INSERT
  5
18BD9
330
18BD4
100
AcDbEntity
  8
寸法
 62
     0
 48
50.0
370
    -2
100
AcDbBlockReference
  2
_DOTSMALL
 10
4214.896575106998
 20
10151.93135865972
 30
0.0
 41
100.0
 42
100.0
 43
100.0
 50
180.0
  0
INSERT
  5
18BDA
330
18BD4
100
AcDbEntity
  8
寸法
 62
     0
 48
50.0
370
    -2
100
AcDbBlockReference
  2
_DOTSMALL
 10
7574.896575106999
 20
10151.93135865972
 30
0.0
 41
100.0
 42
100.0
 43
100.0
  0
MTEXT
  5
18BDB
330
18BD4
100
AcDbEntity
  8
寸法
 62
     7
 48
50.0
100
AcDbMText
 10
5894.896575106997
 20
10251.94316968334
 30
0.0
 40
120.0
 41
0.0
 71
     5
 72
     1
  1
\A1;8X420=3360
  7
STYLE1
 73
     1
 44
1.0
1001
ACAD
1000
MTEXTBEGIN
1070
    73
1070
     1
1070
    44
1040
1.0
1070
    74
1070
     0
1000
MTEXTEND
  0
POINT
  5
18BDC
330
18BD4
100
AcDbEntity
  8
DEFPOINTS
 62
     0
 48
50.0
100
AcDbPoint
 10
4214.896575106998
 20
9636.123139034623
 30
0.0
  0
POINT
  5
18BDD
330
18BD4
100
AcDbEntity
  8
DEFPOINTS
 62
     0
 48
50.0
100
AcDbPoint
 10
7574.896575106999
 20
9636.123139034717
 30
0.0
  0
POINT
  5
18BDE
330
18BD4
100
AcDbEntity
  8
DEFPOINTS
 62
     0
 48
50.0
100
AcDbPoint
 10
7574.896575106999
 20
10151.93135865972
 30
0.0
  0
ENDBLK
  5
18BDF
330
18BD4
100
AcDbEntity
  8
0
 48
50.0
100
AcDbBlockEnd
  0
BLOCK
  5
18BE1
330
18BE0
100
AcDbEntity
  8
0
 48
50.0
100
AcDbBlockBegin
  2
*D5
 70
     1
 10
0.0
 20
0.0
 30
0.0
  3
*D5
  1

  0
LINE
  5
18BE2
330
18BE0
100
AcDbEntity
  8
寸法
 62
     0
 48
50.0
370
    -2
100
AcDbLine
 10
7574.896575106999
 20
9656.123139034718
 30
0.0
 11
7574.896575106999
 21
10211.9313586597
 31
0.0
  0
LINE
  5
18BE3
330
18BE0
100
AcDbEntity
  8
寸法
 62
     0
 48
50.0
370
    -2
100
AcDbLine
 10
7629.896575106998
 20
9656.123139034718
 30
0.0
 11
7629.896575106998
 21
10211.9313586597
 31
0.0
  0
LINE
  5
18BE4
330
18BE0
100
AcDbEntity
  8
寸法
 62
     0
 48
50.0
370
    -2
100
AcDbLine
 10
7574.896575106999
 20
10151.9313586597
 30
0.0
 11
7474.896575106999
 21
10151.9313586597
 31
0.0
  0
LINE
  5
18BE5
330
18BE0
100
AcDbEntity
  8
寸法
 62
     0
 48
50.0
370
    -2
100
AcDbLine
 10
7629.896575106998
 20
10151.9313586597
 30
0.0
 11
8046.867137855477
 21
10151.9313586597
 31
0.0
  0
LINE
  5
18BE6
330
18BE0
100
AcDbEntity
  8
寸法
 62
     0
 48
50.0
370
    -2
100
AcDbLine
 10
7574.896575106999
 20
10151.9313586597
 30
0.0
 11
7629.896575106998
 21
10151.9313586597
 31
0.0
  0
INSERT
  5
18BE7
330
18BE0
100
AcDbEntity
  8
寸法
 62
     0
 48
50.0
370
    -2
100
AcDbBlockReference
  2
_DOTSMALL
 10
7574.896575106999
 20
10151.9313586597
 30
0.0
 41
100.0
 42
100.0
 43
100.0
  0
INSERT
  5
18BE8
330
18BE0
100
AcDbEntity
  8
寸法
 62
     0
 48
50.0
370
    -2
100
AcDbBlockReference
  2
_DOTSMALL
 10
7629.896575106998
 20
10151.9313586597
 30
0.0
 41
100.0
 42
100.0
 43
100.0
 50
180.0
  0
MTEXT
  5
18BE9
330
18BE0
100
AcDbEntity
  8
寸法
 62
     7
 48
50.0
100
AcDbMText
 10
7938.381856481237
 20
10251.9313586597
 30
0.0
 40
120.0
 41
0.0
 71
     5
 72
     1
  1
\A1;55
  7
STYLE1
 73
     1
 44
1.0
1001
ACAD
1000
MTEXTBEGIN
1070
    73
1070
     1
1070
    44
1040
1.0
1070
    74
1070
     0
1000
MTEXTEND
  0
POINT
  5
18BEA
330
18BE0
100
AcDbEntity
  8
DEFPOINTS
 62
     0
 48
50.0
100
AcDbPoint
 10
7574.896575106999
 20
9636.123139034717
 30
0.0
  0
POINT
  5
18BEB
330
18BE0
100
AcDbEntity
  8
DEFPOINTS
 62
     0
 48
50.0
100
AcDbPoint
 10
7629.896575106998
 20
9636.123139034717
 30
0.0
  0
POINT
  5
18BEC
330
18BE0
100
AcDbEntity
  8
DEFPOINTS
 62
     0
 48
50.0
100
AcDbPoint
 10
7629.896575106998
 20
10151.9313586597
 30
0.0
  0
ENDBLK
  5
18BED
330
18BE0
100
AcDbEntity
  8
0
 48
50.0
100
AcDbBlockEnd
  0
BLOCK
  5
18BEF
330
18BEE
100
AcDbEntity
  8
0
 48
50.0
100
AcDbBlockBegin
  2
*D6
 70
     1
 10
0.0
 20
0.0
 30
0.0
  3
*D6
  1

  0
LINE
  5
18BF0
330
18BEE
100
AcDbEntity
  8
寸法
 62
     0
 48
50.0
370
    -2
100
AcDbLine
 10
7649.896575106999
 20
9636.123139034717
 30
0.0
 11
8337.32292084141
 21
9636.123139034717
 31
0.0
  0
LINE
  5
18BF1
330
18BEE
100
AcDbEntity
  8
寸法
 62
     0
 48
50.0
370
    -2
100
AcDbLine
 10
7649.896575106999
 20
9581.123139034721
 30
0.0
 11
8337.32292084141
 21
9581.123139034721
 31
0.0
  0
LINE
  5
18BF2
330
18BEE
100
AcDbEntity
  8
寸法
 62
     0
 48
50.0
370
    -2
100
AcDbLine
 10
8277.322920841411
 20
9581.123139034721
 30
0.0
 11
8277.322920841411
 21
9481.123139034719
 31
0.0
  0
LINE
  5
18BF3
330
18BEE
100
AcDbEntity
  8
寸法
 62
     0
 48
50.0
370
    -2
100
AcDbLine
 10
8277.322920841411
 20
9636.123139034717
 30
0.0
 11
8277.322920841411
 21
10053.09370178319
 31
0.0
  0
LINE
  5
18BF4
330
18BEE
100
AcDbEntity
  8
寸法
 62
     0
 48
50.0
370
    -2
100
AcDbLine
 10
8277.322920841411
 20
9581.123139034721
 30
0.0
 11
8277.322920841411
 21
9636.123139034717
 31
0.0
  0
INSERT
  5
18BF5
330
18BEE
100
AcDbEntity
  8
寸法
 62
     0
 48
50.0
370
    -2
100
AcDbBlockReference
  2
_DOTSMALL
 10
8277.322920841411
 20
9581.123139034721
 30
0.0
 41
100.0
 42
100.0
 43
100.0
 50
90.0
  0
INSERT
  5
18BF6
330
18BEE
100
AcDbEntity
  8
寸法
 62
     0
 48
50.0
370
    -2
100
AcDbBlockReference
  2
_DOTSMALL
 10
8277.322920841411
 20
9636.123139034717
 30
0.0
 41
100.0
 42
100.0
 43
100.0
 50
270.0
  0
MTEXT
  5
18BF7
330
18BEE
100
AcDbEntity
  8
寸法
 62
     7
 48
50.0
100
AcDbMText
 10
8177.32292084141
 20
9944.608420408957
 30
0.0
 40
120.0
 41
0.0
 71
     5
 72
     1
  1
\A1;55
  7
STYLE1
 11
0.0000000000000001
 21
1.0
 31
0.0
 73
     1
 44
1.0
1001
ACAD
1000
MTEXTBEGIN
1070
    73
1070
     1
1070
    44
1040
1.0
1070
    74
1070
     0
1000
MTEXTEND
  0
POINT
  5
18BF8
330
18BEE
100
AcDbEntity
  8
DEFPOINTS
 62
     0
 48
50.0
100
AcDbPoint
 10
7629.896575106998
 20
9636.123139034717
 30
0.0
  0
POINT
  5
18BF9
330
18BEE
100
AcDbEntity
  8
DEFPOINTS
 62
     0
 48
50.0
100
AcDbPoint
 10
7629.896575106998
 20
9581.123139034721
 30
0.0
  0
POINT
  5
18BFA
330
18BEE
100
AcDbEntity
  8
DEFPOINTS
 62
     0
 48
50.0
100
AcDbPoint
 10
8277.322920841411
 20
9581.123139034721
 30
0.0
  0
ENDBLK
  5
18BFB
330
18BEE
100
AcDbEntity
  8
0
 48
50.0
100
AcDbBlockEnd
  0
BLOCK
  5
18BFD
330
18BFC
100
AcDbEntity
  8
0
 48
50.0
100
AcDbBlockBegin
  2
*D7
 70
     1
 10
0.0
 20
0.0
 30
0.0
  3
*D7
  1

  0
LINE
  5
18BFE
330
18BFC
100
AcDbEntity
  8
寸法
 62
     0
 48
50.0
370
    -2
100
AcDbLine
 10
4159.896575106963
 20
9656.123139034622
 30
0.0
 11
4159.896575106963
 21
10211.9313586596
 31
0.0
  0
LINE
  5
18BFF
330
18BFC
100
AcDbEntity
  8
寸法
 62
     0
 48
50.0
370
    -2
100
AcDbLine
 10
4214.896575106998
 20
9656.123139034622
 30
0.0
 11
4214.896575106998
 21
10211.9313586596
 31
0.0
  0
LINE
  5
18C00
330
18BFC
100
AcDbEntity
  8
寸法
 62
     0
 48
50.0
370
    -2
100
AcDbLine
 10
4214.896575106998
 20
10151.9313586596
 30
0.0
 11
4314.896575106998
 21
10151.9313586596
 31
0.0
  0
LINE
  5
18C01
330
18BFC
100
AcDbEntity
  8
寸法
 62
     0
 48
50.0
370
    -2
100
AcDbLine
 10
4159.896575106963
 20
10151.9313586596
 30
0.0
 11
3742.926012358486
 21
10151.9313586596
 31
0.0
  0
LINE
  5
18C02
330
18BFC
100
AcDbEntity
  8
寸法
 62
     0
 48
50.0
370
    -2
100
AcDbLine
 10
4214.896575106998
 20
10151.9313586596
 30
0.0
 11
4159.896575106963
 21
10151.9313586596
 31
0.0
  0
INSERT
  5
18C03
330
18BFC
100
AcDbEntity
  8
寸法
 62
     0
 48
50.0
370
    -2
100
AcDbBlockReference
  2
_DOTSMALL
 10
4214.896575106998
 20
10151.9313586596
 30
0.0
 41
100.0
 42
100.0
 43
100.0
 50
180.0
  0
INSERT
  5
18C04
330
18BFC
100
AcDbEntity
  8
寸法
 62
     0
 48
50.0
370
    -2
100
AcDbBlockReference
  2
_DOTSMALL
 10
4159.896575106963
 20
10151.9313586596
 30
0.0
 41
100.0
 42
100.0
 43
100.0
  0
MTEXT
  5
18C05
330
18BFC
100
AcDbEntity
  8
寸法
 62
     7
 48
50.0
100
AcDbMText
 10
3851.411293732725
 20
10251.9313586596
 30
0.0
 40
120.0
 41
0.0
 71
     5
 72
     1
  1
\A1;55
  7
STYLE1
 73
     1
 44
1.0
1001
ACAD
1000
MTEXTBEGIN
1070
    73
1070
     1
1070
    44
1040
1.0
1070
    74
1070
     0
1000
MTEXTEND
  0
POINT
  5
18C06
330
18BFC
100
AcDbEntity
  8
DEFPOINTS
 62
     0
 48
50.0
100
AcDbPoint
 10
4159.896575106963
 20
9636.123139034623
 30
0.0
  0
POINT
  5
18C07
330
18BFC
100
AcDbEntity
  8
DEFPOINTS
 62
     0
 48
50.0
100
AcDbPoint
 10
4214.896575106998
 20
9636.123139034623
 30
0.0
  0
POINT
  5
18C08
330
18BFC
100
AcDbEntity
  8
DEFPOINTS
 62
     0
 48
50.0
100
AcDbPoint
 10
4214.896575106998
 20
10151.9313586596
 30
0.0
  0
ENDBLK
  5
18C09
330
18BFC
100
AcDbEntity
  8
0
 48
50.0
100
AcDbBlockEnd
  0
BLOCK
  5
18C0B
330
18C0A
100
AcDbEntity
  8
0
 48
50.0
100
AcDbBlockBegin
  2
*D8
 70
     1
 10
0.0
 20
0.0
 30
0.0
  3
*D8
  1

  0
LINE
  5
18C0C
330
18C0A
100
AcDbEntity
  8
寸法
 62
     0
 48
50.0
370
    -2
100
AcDbLine
 10
4159.896575106992
 20
7826.123139034546
 30
0.0
 11
4159.896575106992
 21
6804.372203245664
 31
0.0
  0
LINE
  5
18C0D
330
18C0A
100
AcDbEntity
  8
寸法
 62
     0
 48
50.0
370
    -2
100
AcDbLine
 10
7629.896575106974
 20
7826.123139034674
 30
0.0
 11
7629.896575106974
 21
6804.372203245664
 31
0.0
  0
LINE
  5
18C0E
330
18C0A
100
AcDbEntity
  8
寸法
 62
     0
 48
50.0
370
    -2
100
AcDbLine
 10
4159.896575106992
 20
6864.372203245665
 30
0.0
 11
7629.896575106974
 21
6864.372203245665
 31
0.0
  0
INSERT
  5
18C0F
330
18C0A
100
AcDbEntity
  8
寸法
 62
     0
 48
50.0
370
    -2
100
AcDbBlockReference
  2
_DOTSMALL
 10
4159.896575106992
 20
6864.372203245665
 30
0.0
 41
100.0
 42
100.0
 43
100.0
 50
180.0
  0
INSERT
  5
18C10
330
18C0A
100
AcDbEntity
  8
寸法
 62
     0
 48
50.0
370
    -2
100
AcDbBlockReference
  2
_DOTSMALL
 10
7629.896575106974
 20
6864.372203245665
 30
0.0
 41
100.0
 42
100.0
 43
100.0
  0
MTEXT
  5
18C11
330
18C0A
100
AcDbEntity
  8
寸法
 62
     7
 48
50.0
100
AcDbMText
 10
5911.12376113973
 20
6964.372203245665
 30
0.0
 40
120.0
 41
0.0
 71
     5
 72
     1
  1
\A1;3470
  7
STYLE1
 73
     1
 44
1.0
1001
ACAD
1000
MTEXTBEGIN
1070
    73
1070
     1
1070
    44
1040
1.0
1070
    74
1070
     0
1000
MTEXTEND
  0
POINT
  5
18C12
330
18C0A
100
AcDbEntity
  8
DEFPOINTS
 62
     0
 48
50.0
100
AcDbPoint
 10
4159.896575106992
 20
7846.123139034546
 30
0.0
  0
POINT
  5
18C13
330
18C0A
100
AcDbEntity
  8
DEFPOINTS
 62
     0
 48
50.0
100
AcDbPoint
 10
7629.896575106974
 20
7846.123139034673
 30
0.0
  0
POINT
  5
18C14
330
18C0A
100
AcDbEntity
  8
DEFPOINTS
 62
     0
 48
50.0
100
AcDbPoint
 10
7629.896575106974
 20
6864.372203245665
 30
0.0
  0
ENDBLK
  5
18C15
330
18C0A
100
AcDbEntity
  8
0
 48
50.0
100
AcDbBlockEnd
  0
BLOCK
  5
18C17
330
18C16
100
AcDbEntity
  8
0
 48
50.0
100
AcDbBlockBegin
  2
*D9
 70
     1
 10
0.0
 20
0.0
 30
0.0
  3
*D9
  1

  0
LINE
  5
18C18
330
18C16
100
AcDbEntity
  8
寸法
 62
     0
 48
50.0
370
    -2
100
AcDbLine
 10
7649.896575106973
 20
7901.123139034706
 30
0.0
 11
8337.322920841385
 21
7901.123139034706
 31
0.0
  0
LINE
  5
18C19
330
18C16
100
AcDbEntity
  8
寸法
 62
     0
 48
50.0
370
    -2
100
AcDbLine
 10
7649.896575106973
 20
7846.123139034709
 30
0.0
 11
8337.322920841385
 21
7846.123139034709
 31
0.0
  0
LINE
  5
18C1A
330
18C16
100
AcDbEntity
  8
寸法
 62
     0
 48
50.0
370
    -2
100
AcDbLine
 10
8277.322920841385
 20
7901.123139034706
 30
0.0
 11
8277.322920841385
 21
8001.123139034707
 31
0.0
  0
LINE
  5
18C1B
330
18C16
100
AcDbEntity
  8
寸法
 62
     0
 48
50.0
370
    -2
100
AcDbLine
 10
8277.322920841385
 20
7846.123139034709
 30
0.0
 11
8277.322920841385
 21
7429.152576286229
 31
0.0
  0
LINE
  5
18C1C
330
18C16
100
AcDbEntity
  8
寸法
 62
     0
 48
50.0
370
    -2
100
AcDbLine
 10
8277.322920841385
 20
7901.123139034706
 30
0.0
 11
8277.322920841385
 21
7846.123139034709
 31
0.0
  0
INSERT
  5
18C1D
330
18C16
100
AcDbEntity
  8
寸法
 62
     0
 48
50.0
370
    -2
100
AcDbBlockReference
  2
_DOTSMALL
 10
8277.322920841385
 20
7901.123139034706
 30
0.0
 41
100.0
 42
100.0
 43
100.0
 50
270.0
  0
INSERT
  5
18C1E
330
18C16
100
AcDbEntity
  8
寸法
 62
     0
 48
50.0
370
    -2
100
AcDbBlockReference
  2
_DOTSMALL
 10
8277.322920841385
 20
7846.123139034709
 30
0.0
 41
100.0
 42
100.0
 43
100.0
 50
90.0
  0
MTEXT
  5
18C1F
330
18C16
100
AcDbEntity
  8
寸法
 62
     7
 48
50.0
100
AcDbMText
 10
8177.322920841383
 20
7537.637857660469
 30
0.0
 40
120.0
 41
0.0
 71
     5
 72
     1
  1
\A1;55
  7
STYLE1
 11
0.0000000000000001
 21
1.0
 31
0.0
 73
     1
 44
1.0
1001
ACAD
1000
MTEXTBEGIN
1070
    73
1070
     1
1070
    44
1040
1.0
1070
    74
1070
     0
1000
MTEXTEND
  0
POINT
  5
18C20
330
18C16
100
AcDbEntity
  8
DEFPOINTS
 62
     0
 48
50.0
100
AcDbPoint
 10
7629.896575106974
 20
7901.123139034706
 30
0.0
  0
POINT
  5
18C21
330
18C16
100
AcDbEntity
  8
DEFPOINTS
 62
     0
 48
50.0
100
AcDbPoint
 10
7629.896575106974
 20
7846.123139034709
 30
0.0
  0
POINT
  5
18C22
330
18C16
100
AcDbEntity
  8
DEFPOINTS
 62
     0
 48
50.0
100
AcDbPoint
 10
8277.322920841385
 20
7846.123139034709
 30
0.0
  0
ENDBLK
  5
18C23
330
18C16
100
AcDbEntity
  8
0
 48
50.0
100
AcDbBlockEnd
  0
BLOCK
  5
18C25
330
18C24
100
AcDbEntity
  8
0
 48
50.0
100
AcDbBlockBegin
  2
*D10
 70
     1
 10
0.0
 20
0.0
 30
0.0
  3
*D10
  1

  0
LINE
  5
18C26
330
18C24
100
AcDbEntity
  8
寸法
 62
     0
 48
50.0
370
    -2
100
AcDbLine
 10
6533.037591258376
 20
9136.123139034728
 30
0.0
 11
6465.083950562664
 21
8882.516699399049
 31
0.0
  0
LINE
  5
18C27
330
18C24
100
AcDbEntity
  8
寸法
 62
     0
 48
50.0
370
    -2
100
AcDbLine
 10
7596.037591258388
 20
9136.123139034721
 30
0.0
 11
7528.083950562677
 21
8882.516699399049
 31
0.0
  0
LINE
  5
18C28
330
18C24
100
AcDbEntity
  8
寸法
 62
     0
 48
50.0
370
    -2
100
AcDbLine
 10
6481.160902108531
 20
8942.51669939905
 30
0.0
 11
7544.160902108544
 21
8942.51669939905
 31
0.0
  0
INSERT
  5
18C29
330
18C24
100
AcDbEntity
  8
寸法
 62
     0
 48
50.0
370
    -2
100
AcDbBlockReference
  2
_DOTSMALL
 10
6481.160902108531
 20
8942.51669939905
 30
0.0
 41
100.0
 42
100.0
 43
100.0
 50
180.0
  0
INSERT
  5
18C2A
330
18C24
100
AcDbEntity
  8
寸法
 62
     0
 48
50.0
370
    -2
100
AcDbBlockReference
  2
_DOTSMALL
 10
7544.160902108544
 20
8942.51669939905
 30
0.0
 41
100.0
 42
100.0
 43
100.0
  0
MTEXT
  5
18C2B
330
18C24
100
AcDbEntity
  8
寸法
 62
     7
 48
50.0
100
AcDbMText
 10
7061.28653022935
 20
9042.516699399049
 30
0.0
 40
120.0
 41
0.0
 71
     5
 72
     1
  1
\A1;1063
  7
STYLE1
 73
     1
 44
1.0
1001
ACAD
1000
MTEXTBEGIN
1070
    73
1070
     1
1070
    44
1040
1.0
1070
    74
1070
     0
1000
MTEXTEND
  0
POINT
  5
18C2C
330
18C24
100
AcDbEntity
  8
DEFPOINTS
 62
     0
 48
50.0
100
AcDbPoint
 10
6538.396575106998
 20
9156.123139034727
 30
0.0
  0
POINT
  5
18C2D
330
18C24
100
AcDbEntity
  8
DEFPOINTS
 62
     0
 48
50.0
100
AcDbPoint
 10
7601.39657510701
 20
9156.12313903472
 30
0.0
  0
POINT
  5
18C2E
330
18C24
100
AcDbEntity
  8
DEFPOINTS
 62
     0
 48
50.0
100
AcDbPoint
 10
7544.160902108544
 20
8942.51669939905
 30
0.0
  0
ENDBLK
  5
18C2F
330
18C24
100
AcDbEntity
  8
0
 48
50.0
100
AcDbBlockEnd
  0
BLOCK
  5
18C31
330
18C30
100
AcDbEntity
  8
0
 48
50.0
100
AcDbBlockBegin
  2
*D11
 70
     1
 10
0.0
 20
0.0
 30
0.0
  3
*D11
  1

  0
LINE
  5
18C32
330
18C30
100
AcDbEntity
  8
寸法
 62
     0
 48
50.0
370
    -2
100
AcDbLine
 10
7621.396575106999
 20
9600.764155186094
 30
0.0
 11
8016.754300969024
 21
9494.828371819961
 31
0.0
  0
LINE
  5
18C33
330
18C30
100
AcDbEntity
  8
寸法
 62
     0
 48
50.0
370
    -2
100
AcDbLine
 10
7621.396575106999
 20
9150.764155186099
 30
0.0
 11
8016.754300969024
 21
9044.828371819964
 31
0.0
  0
LINE
  5
18C34
330
18C30
100
AcDbEntity
  8
寸法
 62
     0
 48
50.0
370
    -2
100
AcDbLine
 10
7956.754300969024
 20
9510.905323365827
 30
0.0
 11
7956.754300969024
 21
9060.90532336583
 31
0.0
  0
INSERT
  5
18C35
330
18C30
100
AcDbEntity
  8
寸法
 62
     0
 48
50.0
370
    -2
100
AcDbBlockReference
  2
_DOTSMALL
 10
7956.754300969024
 20
9510.905323365827
 30
0.0
 41
100.0
 42
100.0
 43
100.0
 50
90.0
  0
INSERT
  5
18C36
330
18C30
100
AcDbEntity
  8
寸法
 62
     0
 48
50.0
370
    -2
100
AcDbBlockReference
  2
_DOTSMALL
 10
7956.754300969024
 20
9060.90532336583
 30
0.0
 41
100.0
 42
100.0
 43
100.0
 50
270.0
  0
MTEXT
  5
18C37
330
18C30
100
AcDbEntity
  8
寸法
 62
     7
 48
50.0
100
AcDbMText
 10
7856.754300969022
 20
9285.905323365829
 30
0.0
 40
120.0
 41
0.0
 71
     5
 72
     1
  1
\A1;450
  7
STYLE1
 11
0.0000000000000001
 21
1.0
 31
0.0
 73
     1
 44
1.0
1001
ACAD
1000
MTEXTBEGIN
1070
    73
1070
     1
1070
    44
1040
1.0
1070
    74
1070
     0
1000
MTEXTEND
  0
POINT
  5
18C38
330
18C30
100
AcDbEntity
  8
DEFPOINTS
 62
     0
 48
50.0
100
AcDbPoint
 10
7601.396575106999
 20
9606.123139034718
 30
0.0
  0
POINT
  5
18C39
330
18C30
100
AcDbEntity
  8
DEFPOINTS
 62
     0
 48
50.0
100
AcDbPoint
 10
7601.396575106999
 20
9156.12313903472
 30
0.0
  0
POINT
  5
18C3A
330
18C30
100
AcDbEntity
  8
DEFPOINTS
 62
     0
 48
50.0
100
AcDbPoint
 10
7956.754300969024
 20
9060.90532336583
 30
0.0
  0
ENDBLK
  5
18C3B
330
18C30
100
AcDbEntity
  8
0
 48
50.0
100
AcDbBlockEnd
  0
BLOCK
  5
18C3D
330
18C3C
100
AcDbEntity
  8
0
 48
50.0
100
AcDbBlockBegin
  2
*D12
 70
     1
 10
0.0
 20
0.0
 30
0.0
  3
*D12
  1

  0
LINE
  5
18C3E
330
18C3C
100
AcDbEntity
  8
寸法
 62
     0
 48
50.0
370
    -2
100
AcDbLine
 10
7649.896575106999
 20
9581.123139034721
 30
0.0
 11
8337.32292084141
 21
9581.123139034721
 31
0.0
  0
LINE
  5
18C3F
330
18C3C
100
AcDbEntity
  8
寸法
 62
     0
 48
50.0
370
    -2
100
AcDbLine
 10
7649.896575106973
 20
7901.123139034706
 30
0.0
 11
8337.32292084141
 21
7901.123139034706
 31
0.0
  0
LINE
  5
18C40
330
18C3C
100
AcDbEntity
  8
寸法
 62
     0
 48
50.0
370
    -2
100
AcDbLine
 10
8277.322920841411
 20
9581.123139034721
 30
0.0
 11
8277.322920841411
 21
7901.123139034706
 31
0.0
  0
INSERT
  5
18C41
330
18C3C
100
AcDbEntity
  8
寸法
 62
     0
 48
50.0
370
    -2
100
AcDbBlockReference
  2
_DOTSMALL
 10
8277.322920841411
 20
9581.123139034721
 30
0.0
 41
100.0
 42
100.0
 43
100.0
 50
90.0
  0
INSERT
  5
18C42
330
18C3C
100
AcDbEntity
  8
寸法
 62
     0
 48
50.0
370
    -2
100
AcDbBlockReference
  2
_DOTSMALL
 10
8277.322920841411
 20
7901.123139034706
 30
0.0
 41
100.0
 42
100.0
 43
100.0
 50
270.0
  0
MTEXT
  5
18C43
330
18C3C
100
AcDbEntity
  8
寸法
 62
     7
 48
50.0
100
AcDbMText
 10
8177.311109817788
 20
8741.123139034712
 30
0.0
 40
120.0
 41
0.0
 71
     5
 72
     1
  1
\A1;4X420=1680
  7
STYLE1
 11
0.0000000000000001
 21
1.0
 31
0.0
 73
     1
 44
1.0
1001
ACAD
1000
MTEXTBEGIN
1070
    73
1070
     1
1070
    44
1040
1.0
1070
    74
1070
     0
1000
MTEXTEND
  0
POINT
  5
18C44
330
18C3C
100
AcDbEntity
  8
DEFPOINTS
 62
     0
 48
50.0
100
AcDbPoint
 10
7629.896575106998
 20
9581.123139034721
 30
0.0
  0
POINT
  5
18C45
330
18C3C
100
AcDbEntity
  8
DEFPOINTS
 62
     0
 48
50.0
100
AcDbPoint
 10
7629.896575106974
 20
7901.123139034706
 30
0.0
  0
POINT
  5
18C46
330
18C3C
100
AcDbEntity
  8
DEFPOINTS
 62
     0
 48
50.0
100
AcDbPoint
 10
8277.322920841411
 20
7901.123139034706
 30
0.0
  0
ENDBLK
  5
18C47
330
18C3C
100
AcDbEntity
  8
0
 48
50.0
100
AcDbBlockEnd
  0
BLOCK
  5
18C49
330
18C48
100
AcDbEntity
  8
0
 48
50.0
100
AcDbBlockBegin
  2
*D13
 70
     1
 10
0.0
 20
0.0
 30
0.0
  3
*D13
  1

  0
LINE
  5
18C4A
330
18C48
100
AcDbEntity
  8
寸法
 62
     0
 48
50.0
370
    -2
100
AcDbLine
 10
4183.037591258377
 20
9136.123139034619
 30
0.0
 11
4115.083950562663
 21
8882.516699398941
 31
0.0
  0
LINE
  5
18C4B
330
18C48
100
AcDbEntity
  8
寸法
 62
     0
 48
50.0
370
    -2
100
AcDbLine
 10
5246.037591258307
 20
9136.123139034671
 30
0.0
 11
5178.08395056258
 21
8882.516699398941
 31
0.0
  0
LINE
  5
18C4C
330
18C48
100
AcDbEntity
  8
寸法
 62
     0
 48
50.0
370
    -2
100
AcDbLine
 10
4131.160902108532
 20
8942.516699398941
 30
0.0
 11
5194.160902108448
 21
8942.516699398941
 31
0.0
  0
INSERT
  5
18C4D
330
18C48
100
AcDbEntity
  8
寸法
 62
     0
 48
50.0
370
    -2
100
AcDbBlockReference
  2
_DOTSMALL
 10
4131.160902108532
 20
8942.516699398941
 30
0.0
 41
100.0
 42
100.0
 43
100.0
 50
180.0
  0
INSERT
  5
18C4E
330
18C48
100
AcDbEntity
  8
寸法
 62
     0
 48
50.0
370
    -2
100
AcDbBlockReference
  2
_DOTSMALL
 10
5194.160902108448
 20
8942.516699398941
 30
0.0
 41
100.0
 42
100.0
 43
100.0
  0
MTEXT
  5
18C4F
330
18C48
100
AcDbEntity
  8
寸法
 62
     7
 48
50.0
100
AcDbMText
 10
4658.986452655306
 20
9042.516699398941
 30
0.0
 40
120.0
 41
0.0
 71
     5
 72
     1
  1
\A1;1063
  7
STYLE1
 73
     1
 44
1.0
1001
ACAD
1000
MTEXTBEGIN
1070
    73
1070
     1
1070
    44
1040
1.0
1070
    74
1070
     0
1000
MTEXTEND
  0
POINT
  5
18C50
330
18C48
100
AcDbEntity
  8
DEFPOINTS
 62
     0
 48
50.0
100
AcDbPoint
 10
4188.396575106999
 20
9156.123139034617
 30
0.0
  0
POINT
  5
18C51
330
18C48
100
AcDbEntity
  8
DEFPOINTS
 62
     0
 48
50.0
100
AcDbPoint
 10
5251.396575106929
 20
9156.123139034672
 30
0.0
  0
POINT
  5
18C52
330
18C48
100
AcDbEntity
  8
DEFPOINTS
 62
     0
 48
50.0
100
AcDbPoint
 10
5194.160902108448
 20
8942.516699398941
 30
0.0
  0
ENDBLK
  5
18C53
330
18C48
100
AcDbEntity
  8
0
 48
50.0
100
AcDbBlockEnd
  0
BLOCK
  5
18C55
330
18C54
100
AcDbEntity
  8
0
 48
50.0
100
AcDbBlockBegin
  2
*D14
 70
     1
 10
0.0
 20
0.0
 30
0.0
  3
*D14
  1

  0
LINE
  5
18C56
330
18C54
100
AcDbEntity
  8
寸法
 62
     0
 48
50.0
370
    -2
100
AcDbLine
 10
5274.037591258307
 20
9136.123139034669
 30
0.0
 11
5206.08395056258
 21
8882.516699398941
 31
0.0
  0
LINE
  5
18C57
330
18C54
100
AcDbEntity
  8
寸法
 62
     0
 48
50.0
370
    -2
100
AcDbLine
 10
6505.037591258377
 20
9136.123139034662
 30
0.0
 11
6437.083950562653
 21
8882.516699398941
 31
0.0
  0
LINE
  5
18C58
330
18C54
100
AcDbEntity
  8
寸法
 62
     0
 48
50.0
370
    -2
100
AcDbLine
 10
5222.160902108448
 20
8942.516699398941
 30
0.0
 11
6453.16090210852
 21
8942.516699398941
 31
0.0
  0
INSERT
  5
18C59
330
18C54
100
AcDbEntity
  8
寸法
 62
     0
 48
50.0
370
    -2
100
AcDbBlockReference
  2
_DOTSMALL
 10
5222.160902108448
 20
8942.516699398941
 30
0.0
 41
100.0
 42
100.0
 43
100.0
 50
180.0
  0
INSERT
  5
18C5A
330
18C54
100
AcDbEntity
  8
寸法
 62
     0
 48
50.0
370
    -2
100
AcDbBlockReference
  2
_DOTSMALL
 10
6453.16090210852
 20
8942.516699398941
 30
0.0
 41
100.0
 42
100.0
 43
100.0
  0
MTEXT
  5
18C5B
330
18C54
100
AcDbEntity
  8
寸法
 62
     7
 48
50.0
100
AcDbMText
 10
6081.244808320626
 20
9042.528510422561
 30
0.0
 40
120.0
 41
0.0
 71
     5
 72
     1
  1
\A1;1231
  7
STYLE1
 73
     1
 44
1.0
1001
ACAD
1000
MTEXTBEGIN
1070
    73
1070
     1
1070
    44
1040
1.0
1070
    74
1070
     0
1000
MTEXTEND
  0
POINT
  5
18C5C
330
18C54
100
AcDbEntity
  8
DEFPOINTS
 62
     0
 48
50.0
100
AcDbPoint
 10
5279.396575106929
 20
9156.123139034669
 30
0.0
  0
POINT
  5
18C5D
330
18C54
100
AcDbEntity
  8
DEFPOINTS
 62
     0
 48
50.0
100
AcDbPoint
 10
6510.396575106999
 20
9156.123139034662
 30
0.0
  0
POINT
  5
18C5E
330
18C54
100
AcDbEntity
  8
DEFPOINTS
 62
     0
 48
50.0
100
AcDbPoint
 10
6453.16090210852
 20
8942.516699398941
 30
0.0
  0
ENDBLK
  5
18C5F
330
18C54
100
AcDbEntity
  8
0
 48
50.0
100
AcDbBlockEnd
  0
BLOCK
  5
18C61
330
18C60
100
AcDbEntity
  8
0
 48
50.0
100
AcDbBlockBegin
  2
*D15
 70
     1
 10
0.0
 20
0.0
 30
0.0
  3
*D15
  1

  0
LINE
  5
18C62
330
18C60
100
AcDbEntity
  8
寸法
 62
     0
 48
50.0
370
    -2
100
AcDbLine
 10
5065.896575106966
 20
7749.123139034579
 30
0.0
 11
5065.896575106966
 21
7099.952920982538
 31
0.0
  0
LINE
  5
18C63
330
18C60
100
AcDbEntity
  8
寸法
 62
     0
 48
50.0
370
    -2
100
AcDbLine
 10
6331.896575106966
 20
7749.123139034579
 30
0.0
 11
6331.896575106966
 21
7099.952920982538
 31
0.0
  0
LINE
  5
18C64
330
18C60
100
AcDbEntity
  8
寸法
 62
     0
 48
50.0
370
    -2
100
AcDbLine
 10
5065.896575106966
 20
7159.952920982537
 30
0.0
 11
6331.896575106966
 21
7159.952920982537
 31
0.0
  0
INSERT
  5
18C65
330
18C60
100
AcDbEntity
  8
寸法
 62
     0
 48
50.0
370
    -2
100
AcDbBlockReference
  2
_DOTSMALL
 10
5065.896575106966
 20
7159.952920982537
 30
0.0
 41
100.0
 42
100.0
 43
100.0
 50
180.0
  0
INSERT
  5
18C66
330
18C60
100
AcDbEntity
  8
寸法
 62
     0
 48
50.0
370
    -2
100
AcDbBlockReference
  2
_DOTSMALL
 10
6331.896575106966
 20
7159.952920982537
 30
0.0
 41
100.0
 42
100.0
 43
100.0
  0
MTEXT
  5
18C67
330
18C60
100
AcDbEntity
  8
寸法
 62
     7
 48
50.0
100
AcDbMText
 10
5711.986008735934
 20
7359.964732006159
 30
0.0
 40
120.0
 41
0.0
 71
     5
 72
     1
  1
\A1;有効開口部間口\P1266
  7
STYLE1
 73
     1
 44
1.0
1001
ACAD
1000
MTEXTBEGIN
1070
    73
1070
     1
1070
    44
1040
1.0
1070
    74
1070
     0
1000
MTEXTEND
  0
POINT
  5
18C68
330
18C60
100
AcDbEntity
  8
DEFPOINTS
 62
     0
 48
50.0
100
AcDbPoint
 10
5065.896575106966
 20
7769.123139034579
 30
0.0
  0
POINT
  5
18C69
330
18C60
100
AcDbEntity
  8
DEFPOINTS
 62
     0
 48
50.0
100
AcDbPoint
 10
6331.896575106966
 20
7769.123139034579
 30
0.0
  0
POINT
  5
18C6A
330
18C60
100
AcDbEntity
  8
DEFPOINTS
 62
     0
 48
50.0
100
AcDbPoint
 10
6331.896575106966
 20
7159.952920982537
 30
0.0
  0
ENDBLK
  5
18C6B
330
18C60
100
AcDbEntity
  8
0
 48
50.0
100
AcDbBlockEnd
  0
BLOCK
  5
18C6D
330
18C6C
100
AcDbEntity
  8
0
 48
50.0
100
AcDbBlockBegin
  2
*D16
 70
     1
 10
0.0
 20
0.0
 30
0.0
  3
*D16
  1

  0
LINE
  5
18C6E
330
18C6C
100
AcDbEntity
  8
寸法
 62
     0
 48
50.0
370
    -2
100
AcDbLine
 10
7200.896575106966
 20
7846.123139034578
 30
0.0
 11
7457.192158500191
 21
7846.123139034578
 31
0.0
  0
LINE
  5
18C6F
330
18C6C
100
AcDbEntity
  8
寸法
 62
     0
 48
50.0
370
    -2
100
AcDbLine
 10
7199.896575106966
 20
7769.123139034579
 30
0.0
 11
7457.192158500191
 21
7769.123139034579
 31
0.0
  0
LINE
  5
18C70
330
18C6C
100
AcDbEntity
  8
寸法
 62
     0
 48
50.0
370
    -2
100
AcDbLine
 10
7417.192158500192
 20
7866.123139034579
 30
0.0
 11
7417.192158500192
 21
7886.123139034578
 31
0.0
  0
LINE
  5
18C71
330
18C6C
100
AcDbEntity
  8
寸法
 62
     0
 48
50.0
370
    -2
100
AcDbLine
 10
7417.192158500192
 20
7749.123139034579
 30
0.0
 11
7417.192158500192
 21
7533.123139034573
 31
0.0
  0
LINE
  5
18C72
330
18C6C
100
AcDbEntity
  8
寸法
 62
     0
 48
50.0
370
    -2
100
AcDbLine
 10
7417.192158500192
 20
7846.123139034578
 30
0.0
 11
7417.192158500192
 21
7769.123139034579
 31
0.0
  0
INSERT
  5
18C73
330
18C6C
100
AcDbEntity
  8
寸法
 62
     0
 48
50.0
370
    -2
100
AcDbBlockReference
  2
_DOT
 10
7417.192158500192
 20
7846.123139034578
 30
0.0
 41
20.0
 42
20.0
 43
20.0
 50
270.0
  0
INSERT
  5
18C74
330
18C6C
100
AcDbEntity
  8
寸法
 62
     0
 48
50.0
370
    -2
100
AcDbBlockReference
  2
_DOT
 10
7417.192158500192
 20
7769.123139034579
 30
0.0
 41
20.0
 42
20.0
 43
20.0
 50
90.0
  0
MTEXT
  5
18C75
330
18C6C
100
AcDbEntity
  8
寸法
 62
     7
 48
50.0
100
AcDbMText
 10
7325.192158500191
 20
7631.123139034575
 30
0.0
 40
120.0
 41
0.0
 71
     5
 72
     1
  1
\A1;77
  7
STYLE1
 11
0.0000000000000001
 21
1.0
 31
0.0
 73
     1
 44
1.0
1001
ACAD
1000
MTEXTBEGIN
1070
    73
1070
     1
1070
    44
1040
1.0
1070
    74
1070
     0
1000
MTEXTEND
  0
POINT
  5
18C76
330
18C6C
100
AcDbEntity
  8
DEFPOINTS
 62
     0
 48
50.0
100
AcDbPoint
 10
7180.896575106967
 20
7846.123139034578
 30
0.0
  0
POINT
  5
18C77
330
18C6C
100
AcDbEntity
  8
DEFPOINTS
 62
     0
 48
50.0
100
AcDbPoint
 10
7179.896575106965
 20
7769.123139034579
 30
0.0
  0
POINT
  5
18C78
330
18C6C
100
AcDbEntity
  8
DEFPOINTS
 62
     0
 48
50.0
100
AcDbPoint
 10
7417.192158500192
 20
7769.123139034579
 30
0.0
  0
ENDBLK
  5
18C79
330
18C6C
100
AcDbEntity
  8
0
 48
50.0
100
AcDbBlockEnd
  0
BLOCK
  5
18DA0
330
18C7A
100
AcDbEntity
  8
0
 48
50.0
100
AcDbBlockBegin
  2
A$C3B1A506B
 70
     0
 10
0.0
 20
0.0
 30
0.0
  3
A$C3B1A506B
  1

  0
MTEXT
  5
18C7B
330
18C7A
100
AcDbEntity
  8
寸法
 62
     7
 48
50.0
100
AcDbMText
 10
3342.250386887194
 20
2778.329429134012
 30
0.0
 40
96.0
 41
0.0
 71
     5
 72
     1
  1
棚 2段
  7
STYLE1
 73
     1
 44
1.0
1001
ACAD
1000
MTEXTBEGIN
1070
    73
1070
     1
1070
    44
1040
1.0
1070
    74
1070
     0
1000
MTEXTEND
  0
MTEXT
  5
18C7C
330
18C7A
100
AcDbEntity
  8
寸法
 62
     7
 48
50.0
100
AcDbMText
 10
2167.25038688716
 20
2778.329429133986
 30
0.0
 40
96.0
 41
0.0
 71
     5
 72
     1
  1
棚 2段
  7
STYLE1
 73
     1
 44
1.0
1001
ACAD
1000
MTEXTBEGIN
1070
    73
1070
     1
1070
    44
1040
1.0
1070
    74
1070
     0
1000
MTEXTEND
  0
MTEXT
  5
18C7D
330
18C7A
100
AcDbEntity
  8
寸法
 62
     7
 48
50.0
100
AcDbMText
 10
992.2503868871608
 20
2778.329429133935
 30
0.0
 40
96.0
 41
0.0
 71
     5
 72
     1
  1
棚 2段
  7
STYLE1
 73
     1
 44
1.0
1001
ACAD
1000
MTEXTBEGIN
1070
    73
1070
     1
1070
    44
1040
1.0
1070
    74
1070
     0
1000
MTEXTEND
  0
LINE
  5
18C7E
330
18C7A
100
AcDbEntity
  8
細線
 48
50.0
100
AcDbLine
 10
2771.970589276527
 20
1368.994384123192
 30
0.0
 11
3398.970589276523
 21
1368.994384123192
 31
0.0
  0
LINE
  5
18C7F
330
18C7A
100
AcDbEntity
  8
細線
 48
50.0
100
AcDbLine
 10
2117.970593930113
 20
1335.285615569113
 30
0.0
 11
3398.970589276523
 21
1335.285615569113
 31
0.0
  0
LINE
  5
18C80
330
18C7A
100
AcDbEntity
  8
細線
 48
50.0
100
AcDbLine
 10
2076.970593930115
 20
1364.690523565368
 30
0.0
 11
1322.970589276523
 21
1364.690523565367
 31
0.0
  0
LINE
  5
18C81
330
18C7A
100
AcDbEntity
  8
細線
100
AcDbLine
 10
3170.720579860066
 20
1388.494284088199
 30
0.0
 11
3173.052119381877
 21
1393.494286728162
 31
0.0
  0
LINE
  5
18C82
330
18C7A
100
AcDbEntity
  8
細線
100
AcDbLine
 10
3240.720589276525
 20
1388.494269174465
 30
0.0
 11
3238.389042800336
 21
1393.494286728144
 31
0.0
  0
LINE
  5
18C83
330
18C7A
100
AcDbEntity
  8
細線
100
AcDbLine
 10
3238.389042800336
 20
1393.494286728144
 30
0.0
 11
3173.052119381862
 21
1393.494286728133
 31
0.0
  0
LINE
  5
18C84
330
18C7A
100
AcDbEntity
  8
細線
100
AcDbLine
 10
3098.389042800336
 20
1393.494286728144
 30
0.0
 11
3033.052119381862
 21
1393.494286728133
 31
0.0
  0
LINE
  5
18C85
330
18C7A
100
AcDbEntity
  8
細線
100
AcDbLine
 10
3100.720589276523
 20
1388.494269174465
 30
0.0
 11
3098.389042800336
 21
1393.494286728144
 31
0.0
  0
LINE
  5
18C86
330
18C7A
100
AcDbEntity
  8
細線
100
AcDbLine
 10
3030.720579860066
 20
1388.494284088199
 30
0.0
 11
3033.052119381875
 21
1393.494286728162
 31
0.0
  0
LINE
  5
18C87
330
18C7A
100
AcDbEntity
  8
細線
100
AcDbLine
 10
2890.720589276525
 20
1388.494269174465
 30
0.0
 11
2893.052128798336
 21
1393.494271814428
 31
0.0
  0
LINE
  5
18C88
330
18C7A
100
AcDbEntity
  8
細線
100
AcDbLine
 10
2960.720598692984
 20
1388.494254260731
 30
0.0
 11
2958.389052216793
 21
1393.49427181441
 31
0.0
  0
LINE
  5
18C89
330
18C7A
100
AcDbEntity
  8
細線
100
AcDbLine
 10
2958.389052216795
 20
1393.49427181441
 30
0.0
 11
2893.052128798321
 21
1393.494271814399
 31
0.0
  0
LINE
  5
18C8A
330
18C7A
100
AcDbEntity
  8
細線
100
AcDbLine
 10
2667.139038146739
 20
1359.494298590735
 30
0.0
 11
2601.802114728263
 21
1359.494298590724
 31
0.0
  0
LINE
  5
18C8B
330
18C7A
100
AcDbEntity
  8
細線
100
AcDbLine
 10
2669.470584622926
 20
1354.494281037055
 30
0.0
 11
2667.139038146737
 21
1359.494298590735
 31
0.0
  0
LINE
  5
18C8C
330
18C7A
100
AcDbEntity
  8
細線
100
AcDbLine
 10
2599.470575206469
 20
1354.49429595079
 30
0.0
 11
2601.802114728278
 21
1359.494298590752
 31
0.0
  0
LINE
  5
18C8D
330
18C7A
100
AcDbEntity
  8
細線
 48
50.0
100
AcDbLine
 10
2440.853968524536
 20
1372.765132327548
 30
0.0
 11
2446.609486107205
 21
1354.494281037057
 31
0.0
  0
LINE
  5
18C8E
330
18C7A
100
AcDbEntity
  8
細線
 48
50.0
100
AcDbLine
 10
2429.925520044106
 20
1372.765132327546
 30
0.0
 11
2440.853968524536
 21
1372.765132327548
 31
0.0
  0
ARC
  5
18C8F
330
18C7A
100
AcDbEntity
  8
細線
 48
50.0
100
AcDbCircle
 10
2424.471163986787
 20
1374.265132327546
 30
0.0
 40
5.0
100
AcDbArc
 50
204.6243183520723
 51
335.3756816479278
  0
ARC
  5
18C90
330
18C7A
100
AcDbEntity
  8
細線
 48
50.0
100
AcDbCircle
 10
2429.925520044106
 20
1371.765132327546
 30
0.0
 40
1.0
100
AcDbArc
 50
90.0
 51
155.3756816479277
  0
ARC
  5
18C91
330
18C7A
100
AcDbEntity
  8
細線
 48
50.0
100
AcDbCircle
 10
2419.016807929469
 20
1371.765132327546
 30
0.0
 40
1.0
100
AcDbArc
 50
24.62431835207225
 51
90.0
  0
LINE
  5
18C92
330
18C7A
100
AcDbEntity
  8
細線
 48
50.0
100
AcDbLine
 10
2408.088359449037
 20
1372.765132327548
 30
0.0
 11
2419.016807929469
 21
1372.765132327546
 31
0.0
  0
LINE
  5
18C93
330
18C7A
100
AcDbEntity
  8
細線
 48
50.0
100
AcDbLine
 10
2402.33284186637
 20
1354.494281037054
 30
0.0
 11
2408.088359449037
 21
1372.765132327548
 31
0.0
  0
LINE
  5
18C94
330
18C7A
100
AcDbEntity
  8
細線
100
AcDbLine
 10
2458.070304175992
 20
1354.494278397076
 30
0.0
 11
2460.401843697802
 21
1359.494281037039
 31
0.0
  0
LINE
  5
18C95
330
18C7A
100
AcDbEntity
  8
細線
100
AcDbLine
 10
2528.070313592451
 20
1354.494263483342
 30
0.0
 11
2525.738767116262
 21
1359.494281037021
 31
0.0
  0
LINE
  5
18C96
330
18C7A
100
AcDbEntity
  8
細線
100
AcDbLine
 10
2525.738767116262
 20
1359.494281037021
 30
0.0
 11
2460.40184369779
 21
1359.49428103701
 31
0.0
  0
LINE
  5
18C97
330
18C7A
100
AcDbEntity
  8
細線
100
AcDbLine
 10
2387.139046332155
 20
1359.494281037021
 30
0.0
 11
2321.80212291368
 21
1359.49428103701
 31
0.0
  0
LINE
  5
18C98
330
18C7A
100
AcDbEntity
  8
細線
100
AcDbLine
 10
2389.470592808342
 20
1354.494263483342
 30
0.0
 11
2387.139046332153
 21
1359.494281037021
 31
0.0
  0
LINE
  5
18C99
330
18C7A
100
AcDbEntity
  8
細線
100
AcDbLine
 10
2319.470584622926
 20
1354.494281037054
 30
0.0
 11
2321.802122913694
 21
1359.494281037039
 31
0.0
  0
LINE
  5
18C9A
330
18C7A
100
AcDbEntity
  8
細線
100
AcDbLine
 10
2179.47061994182
 20
1354.494289224422
 30
0.0
 11
2181.802158232587
 21
1359.494289224407
 31
0.0
  0
LINE
  5
18C9B
330
18C7A
100
AcDbEntity
  8
細線
100
AcDbLine
 10
2249.470628127236
 20
1354.49427167071
 30
0.0
 11
2247.139081651047
 21
1359.494289224389
 31
0.0
  0
LINE
  5
18C9C
330
18C7A
100
AcDbEntity
  8
細線
100
AcDbLine
 10
2247.139081651047
 20
1359.494289224389
 30
0.0
 11
2181.802158232573
 21
1359.494289224378
 31
0.0
  0
LINE
  5
18C9D
330
18C7A
100
AcDbEntity
  8
細線
100
AcDbLine
 10
1807.970585744697
 20
1320.494460905133
 30
0.0
 11
1810.302124035464
 21
1325.494460905118
 31
0.0
  0
LINE
  5
18C9E
330
18C7A
100
AcDbEntity
  8
細線
100
AcDbLine
 10
1877.970593930113
 20
1320.494443351421
 30
0.0
 11
1875.639047453926
 21
1325.4944609051
 31
0.0
  0
LINE
  5
18C9F
330
18C7A
100
AcDbEntity
  8
細線
100
AcDbLine
 10
1875.639047453926
 20
1325.4944609051
 30
0.0
 11
1810.302124035452
 21
1325.494460905089
 31
0.0
  0
LINE
  5
18CA0
330
18C7A
100
AcDbEntity
  8
細線
100
AcDbLine
 10
2015.639047453926
 20
1325.4944609051
 30
0.0
 11
1950.302124035452
 21
1325.494460905089
 31
0.0
  0
LINE
  5
18CA1
330
18C7A
100
AcDbEntity
  8
細線
100
AcDbLine
 10
2017.970593930113
 20
1320.494443351421
 30
0.0
 11
2015.639047453924
 21
1325.4944609051
 31
0.0
  0
LINE
  5
18CA2
330
18C7A
100
AcDbEntity
  8
細線
100
AcDbLine
 10
1947.970585744697
 20
1320.494460905133
 30
0.0
 11
1950.302124035465
 21
1325.494460905118
 31
0.0
  0
LINE
  5
18CA3
330
18C7A
100
AcDbEntity
  8
細線
100
AcDbLine
 10
1735.639047453926
 20
1325.494460905098
 30
0.0
 11
1670.302124035454
 21
1325.494460905087
 31
0.0
  0
LINE
  5
18CA4
330
18C7A
100
AcDbEntity
  8
細線
100
AcDbLine
 10
1737.970593930113
 20
1320.494443351419
 30
0.0
 11
1735.639047453926
 21
1325.494460905098
 31
0.0
  0
LINE
  5
18CA5
330
18C7A
100
AcDbEntity
  8
細線
100
AcDbLine
 10
1667.970585744697
 20
1320.494460905131
 30
0.0
 11
1670.302124035465
 21
1325.494460905116
 31
0.0
  0
LINE
  5
18CA6
330
18C7A
100
AcDbEntity
  8
細線
100
AcDbLine
 10
1527.970593930113
 20
1320.494460905133
 30
0.0
 11
1530.302132220881
 21
1325.494460905118
 31
0.0
  0
LINE
  5
18CA7
330
18C7A
100
AcDbEntity
  8
細線
100
AcDbLine
 10
1597.970602115529
 20
1320.494443351421
 30
0.0
 11
1595.639055639342
 21
1325.4944609051
 31
0.0
  0
LINE
  5
18CA8
330
18C7A
100
AcDbEntity
  8
細線
100
AcDbLine
 10
1595.639055639342
 20
1325.4944609051
 30
0.0
 11
1530.302132220869
 21
1325.494460905089
 31
0.0
  0
ARC
  5
18CA9
330
18C7A
100
AcDbEntity
  8
部品1
 48
0.01
100
AcDbCircle
 10
1483.470482677778
 20
1319.493338720063
 30
0.0
 40
0.5
100
AcDbArc
 50
270.0
 51
0.0
  0
LINE
  5
18CAA
330
18C7A
100
AcDbEntity
  8
部品1
 48
0.01
100
AcDbLine
 10
1483.970482677778
 20
1320.493338720063
 30
0.0
 11
1483.970482677778
 21
1319.493338720063
 31
0.0
  0
LINE
  5
18CAB
330
18C7A
100
AcDbEntity
  8
部品1
 48
0.01
100
AcDbLine
 10
1483.970482677778
 20
1320.493338720063
 30
0.0
 11
1483.970482677778
 21
1319.493338720063
 31
0.0
  0
LINE
  5
18CAC
330
18C7A
100
AcDbEntity
  8
部品1
 48
0.01
100
AcDbLine
 10
1483.470482677778
 20
1318.993338720063
 30
0.0
 11
1476.857977247713
 21
1318.993338720062
 31
0.0
  0
ARC
  5
18CAD
330
18C7A
100
AcDbEntity
  8
部品1
100
AcDbCircle
 10
1476.926326800494
 20
1319.993338720062
 30
0.0
 40
1.0
100
AcDbArc
 50
160.5287793655865
 51
270.0
  0
ARC
  5
18CAE
330
18C7A
100
AcDbEntity
  8
部品1
100
AcDbCircle
 10
1451.470482677778
 20
1328.993338720062
 30
0.0
 40
26.0
100
AcDbArc
 50
340.5287793655865
 51
0.0
  0
LINE
  5
18CAF
330
18C7A
100
AcDbEntity
  8
部品1
100
AcDbLine
 10
1477.470482677778
 20
1328.993338720062
 30
0.0
 11
1477.470482677778
 21
1333.993338720061
 31
0.0
  0
ARC
  5
18CB0
330
18C7A
100
AcDbEntity
  8
部品1
 48
0.01
100
AcDbCircle
 10
1475.470482677778
 20
1333.993338720061
 30
0.0
 40
2.0
100
AcDbArc
 50
0.0
 51
90.0
  0
ARC
  5
18CB1
330
18C7A
100
AcDbEntity
  8
部品1
100
AcDbCircle
 10
1473.862091052968
 20
1332.993338720062
 30
0.0
 40
3.0
100
AcDbArc
 50
90.0
 51
141.6069559808035
  0
LINE
  5
18CB2
330
18C7A
100
AcDbEntity
  8
部品1
 48
0.01
100
AcDbLine
 10
1475.470482677778
 20
1335.993338720062
 30
0.0
 11
1473.862091052968
 21
1335.993338720062
 31
0.0
  0
ARC
  5
18CB3
330
18C7A
100
AcDbEntity
  8
部品1
100
AcDbCircle
 10
1455.399768463507
 20
1332.293338720065
 30
0.0
 40
3.0
100
AcDbArc
 50
254.0576313943215
 51
270.0
  0
ARC
  5
18CB4
330
18C7A
100
AcDbEntity
  8
部品1
100
AcDbCircle
 10
1462.541196892049
 20
1332.293338720065
 30
0.0
 40
3.0
100
AcDbArc
 50
270.0
 51
285.9423686056786
  0
LINE
  5
18CB5
330
18C7A
100
AcDbEntity
  8
部品1
100
AcDbLine
 10
1462.541196892049
 20
1329.293338720064
 30
0.0
 11
1455.399768463507
 21
1329.293338720064
 31
0.0
  0
ARC
  5
18CB6
330
18C7A
100
AcDbEntity
  8
部品1
100
AcDbCircle
 10
1458.970482677778
 20
1344.793338720065
 30
0.0
 40
16.0
100
AcDbArc
 50
285.9423686056786
 51
321.6069559808035
  0
LINE
  5
18CB7
330
18C7A
100
AcDbEntity
  8
部品1
 48
0.01
100
AcDbLine
 10
1442.470482677778
 20
1335.993338720062
 30
0.0
 11
1444.078874302588
 21
1335.993338720062
 31
0.0
  0
ARC
  5
18CB8
330
18C7A
100
AcDbEntity
  8
部品1
100
AcDbCircle
 10
1444.078874302588
 20
1332.993338720062
 30
0.0
 40
3.0
100
AcDbArc
 50
38.39304401919648
 51
90.0
  0
ARC
  5
18CB9
330
18C7A
100
AcDbEntity
  8
部品1
100
AcDbCircle
 10
1458.970482677778
 20
1344.793338720065
 30
0.0
 40
16.0
100
AcDbArc
 50
218.3930440191965
 51
254.0576313943215
  0
LINE
  5
18CBA
330
18C7A
100
AcDbEntity
  8
部品1
100
AcDbLine
 10
1440.470482677778
 20
1328.993338720062
 30
0.0
 11
1440.470482677778
 21
1333.993338720061
 31
0.0
  0
ARC
  5
18CBB
330
18C7A
100
AcDbEntity
  8
部品1
 48
0.01
100
AcDbCircle
 10
1442.470482677778
 20
1333.993338720061
 30
0.0
 40
2.0
100
AcDbArc
 50
90.0
 51
180.0
  0
ARC
  5
18CBC
330
18C7A
100
AcDbEntity
  8
部品1
100
AcDbCircle
 10
1466.470482677778
 20
1328.993338720062
 30
0.0
 40
26.0
100
AcDbArc
 50
180.0
 51
199.4712206344134
  0
ARC
  5
18CBD
330
18C7A
100
AcDbEntity
  8
部品1
 48
0.01
100
AcDbCircle
 10
1434.470482677778
 20
1319.493338720063
 30
0.0
 40
0.5
100
AcDbArc
 50
180.0
 51
270.0
  0
LINE
  5
18CBE
330
18C7A
100
AcDbEntity
  8
部品1
 48
0.01
100
AcDbLine
 10
1434.470482677778
 20
1318.993338720063
 30
0.0
 11
1441.014638555061
 21
1318.993338720062
 31
0.0
  0
LINE
  5
18CBF
330
18C7A
100
AcDbEntity
  8
部品1
 48
0.01
100
AcDbLine
 10
1433.970482677778
 20
1320.493338720063
 30
0.0
 11
1433.970482677778
 21
1319.493338720063
 31
0.0
  0
ARC
  5
18CC0
330
18C7A
100
AcDbEntity
  8
部品1
100
AcDbCircle
 10
1441.014638555061
 20
1319.993338720062
 30
0.0
 40
1.0
100
AcDbArc
 50
270.0
 51
19.47122063441346
  0
LINE
  5
18CC1
330
18C7A
100
AcDbEntity
  8
細線
100
AcDbLine
 10
1479.470482677785
 20
1338.493338720065
 30
0.0
 11
1438.470482677785
 21
1338.493338720058
 31
0.0
  0
LINE
  5
18CC2
330
18C7A
100
AcDbEntity
  8
細線
100
AcDbLine
 10
1438.470482677785
 20
1338.493338720058
 30
0.0
 11
1438.470482677785
 21
1320.49333872004
 31
0.0
  0
LINE
  5
18CC3
330
18C7A
100
AcDbEntity
  8
細線
100
AcDbLine
 10
1479.470482677785
 20
1338.493338720065
 30
0.0
 11
1479.470482677785
 21
1320.49333872004
 31
0.0
  0
LINE
  5
18CC4
330
18C7A
100
AcDbEntity
  8
細線
100
AcDbLine
 10
1322.970589276523
 20
1324.494269174465
 30
0.0
 11
1322.970589276523
 21
1320.494269174513
 31
0.0
  0
LINE
  5
18CC5
330
18C7A
100
AcDbEntity
  8
寸法
 48
50.0
100
AcDbLine
 10
1746.17359555837
 20
1170.531020743327
 30
0.0
 11
1694.767587648266
 21
1170.531020743327
 31
0.0
  0
LINE
  5
18CC6
330
18C7A
100
AcDbEntity
  8
寸法
 48
50.0
100
AcDbLine
 10
1694.767587648266
 20
1170.531020743327
 30
0.0
 11
1694.767587648266
 21
1201.841179395494
 31
0.0
  0
LINE
  5
18CC7
330
18C7A
100
AcDbEntity
  8
寸法
 48
50.0
100
AcDbLine
 10
1694.767587648266
 20
1201.841179395494
 30
0.0
 11
1665.006255656843
 21
1201.841179395494
 31
0.0
  0
LINE
  5
18CC8
330
18C7A
100
AcDbEntity
  8
寸法
 48
50.0
100
AcDbLine
 10
1665.006255656843
 20
1201.841179395494
 30
0.0
 11
1720.470591603318
 21
1239.420630324105
 31
0.0
  0
LINE
  5
18CC9
330
18C7A
100
AcDbEntity
  8
寸法
 48
50.0
100
AcDbLine
 10
1775.934927549793
 20
1201.841179395494
 30
0.0
 11
1720.470591603318
 21
1239.420630324105
 31
0.0
  0
LINE
  5
18CCA
330
18C7A
100
AcDbEntity
  8
寸法
 48
50.0
100
AcDbLine
 10
1746.17359555837
 20
1201.841179395494
 30
0.0
 11
1775.934927549793
 21
1201.841179395494
 31
0.0
  0
LINE
  5
18CCB
330
18C7A
100
AcDbEntity
  8
寸法
 48
50.0
100
AcDbLine
 10
1746.17359555837
 20
1170.531020743327
 30
0.0
 11
1746.17359555837
 21
1201.841179395494
 31
0.0
  0
LINE
  5
18CCC
330
18C7A
100
AcDbEntity
  8
寸法
 48
50.0
100
AcDbLine
 10
1694.767587648266
 20
1170.531020743327
 30
0.0
 11
1746.17359555837
 21
1170.531020743327
 31
0.0
  0
LINE
  5
18CCD
330
18C7A
100
AcDbEntity
  8
寸法
 48
50.0
100
AcDbLine
 10
2025.339129835225
 20
1227.676611498152
 30
0.0
 11
2025.339129835225
 21
1174.01297691636
 31
0.0
  0
LINE
  5
18CCE
330
18C7A
100
AcDbEntity
  8
寸法
 48
50.0
100
AcDbLine
 10
2114.623348430647
 20
1203.752977228664
 30
0.0
 11
2025.339129835225
 21
1227.676611498152
 31
0.0
  0
LINE
  5
18CCF
330
18C7A
100
AcDbEntity
  8
寸法
 48
50.0
100
AcDbLine
 10
1895.471408254923
 20
1203.752977228664
 30
0.0
 11
2114.623348430647
 21
1203.752977228664
 31
0.0
  0
DIMENSION
  5
18CD0
330
18C7A
100
AcDbEntity
  8
寸法
 48
50.0
100
AcDbDimension
  2
*D15
 10
2588.970589276523
 20
706.3240511224249
 30
0.0
 11
1969.060022905491
 21
706.3240511224249
 31
0.0
 12
-3742.925985830444
 22
-6453.628869860112
 32
0.0
 70
   128
  1
有効開口部間口\P<>
 71
     5
 42
1266.0
  3
INABA_S40G
100
AcDbAlignedDimension
 13
1322.970589276523
 23
1315.494269174465
 33
0.0
 14
2588.970589276523
 24
1315.494269174465
 34
0.0
100
AcDbRotatedDimension
1001
ACAD
1000
DSTYLE
1002
{
1070
   341
1005
0
1002
}
  0
LINE
  5
18CD1
330
18C7A
100
AcDbEntity
  8
部品1
100
AcDbLine
 10
3409.970589276524
 20
1392.494269174465
 30
0.0
 11
3437.970589276523
 21
1392.494269174465
 31
0.0
  0
DIMENSION
  5
18CD2
330
18C7A
100
AcDbEntity
  8
寸法
100
AcDbDimension
  2
*D16
 10
3674.266172669749
 20
1315.494269174465
 30
0.0
 11
3674.266172669748
 21
1177.494269174462
 31
0.0
 12
-3742.925985830444
 22
-6453.628869860112
 32
0.0
 70
   128
 71
     5
 42
77.0
  3
INABA_S40
100
AcDbAlignedDimension
 13
3437.970589276523
 23
1392.494269174465
 33
0.0
 14
3436.970589276523
 24
1315.494269174465
 34
0.0
 50
90.0
100
AcDbRotatedDimension
1001
ACAD
1000
DSTYLE
1002
{
1070
    41
1040
0.5
1070
    44
1040
1.0
1070
   147
1040
0.8
1070
   271
1070
     2
1070
   272
1070
     2
1070
   289
1070
     3
1070
   340
1005
F706
1070
   343
1005
164B4
1070
   344
1005
164B4
1002
}
  0
LINE
  5
18CD3
330
18C7A
100
AcDbEntity
  8
部品1
100
AcDbLine
 10
3437.970589276523
 20
1315.494269174465
 30
0.0
 11
3437.970589276523
 21
1392.494269174465
 31
0.0
  0
LINE
  5
18CD4
330
18C7A
100
AcDbEntity
  8
部品1
100
AcDbLine
 10
3398.970589276523
 20
1388.494269174465
 30
0.0
 11
3409.970589276524
 21
1388.494269174465
 31
0.0
  0
LINE
  5
18CD5
330
18C7A
100
AcDbEntity
  8
部品1
100
AcDbLine
 10
3407.970589276523
 20
1324.494269174465
 30
0.0
 11
3407.970589276523
 21
1315.494269174465
 31
0.0
  0
LINE
  5
18CD6
330
18C7A
100
AcDbEntity
  8
部品1
100
AcDbLine
 10
3398.970589276523
 20
1324.494269174465
 30
0.0
 11
3407.970589276523
 21
1324.494269174465
 31
0.0
  0
LINE
  5
18CD7
330
18C7A
100
AcDbEntity
  8
部品1
100
AcDbLine
 10
3398.970589276523
 20
1388.494269174465
 30
0.0
 11
3398.970589276523
 21
1324.494269174465
 31
0.0
  0
LINE
  5
18CD8
330
18C7A
100
AcDbEntity
  8
部品1
100
AcDbLine
 10
3409.970589276524
 20
1419.494269174465
 30
0.0
 11
3409.970589276524
 21
1388.494269174465
 31
0.0
  0
LINE
  5
18CD9
330
18C7A
100
AcDbEntity
  8
部品1
100
AcDbLine
 10
1322.970589276523
 20
1388.494269174465
 30
0.0
 11
1311.970589276523
 21
1388.494269174465
 31
0.0
  0
LINE
  5
18CDA
330
18C7A
100
AcDbEntity
  8
部品1
100
AcDbLine
 10
1283.970589276523
 20
1392.494269174465
 30
0.0
 11
1311.970589276523
 21
1392.494269174465
 31
0.0
  0
LINE
  5
18CDB
330
18C7A
100
AcDbEntity
  8
部品1
100
AcDbLine
 10
1313.970589276523
 20
1324.494269174465
 30
0.0
 11
1313.970589276523
 21
1315.494269174465
 31
0.0
  0
LINE
  5
18CDC
330
18C7A
100
AcDbEntity
  8
部品1
100
AcDbLine
 10
1322.970589276523
 20
1324.494269174465
 30
0.0
 11
1313.970589276523
 21
1324.494269174465
 31
0.0
  0
LINE
  5
18CDD
330
18C7A
100
AcDbEntity
  8
部品1
100
AcDbLine
 10
1313.970589276523
 20
1315.494269174465
 30
0.0
 11
1283.970589276523
 21
1315.494269174465
 31
0.0
  0
LINE
  5
18CDE
330
18C7A
100
AcDbEntity
  8
部品1
100
AcDbLine
 10
1283.970589276523
 20
1315.494269174465
 30
0.0
 11
1283.970589276523
 21
1392.494269174465
 31
0.0
  0
LINE
  5
18CDF
330
18C7A
100
AcDbEntity
  8
部品1
100
AcDbLine
 10
1322.970589276523
 20
1388.494269174465
 30
0.0
 11
1322.970589276523
 21
1324.494269174465
 31
0.0
  0
LINE
  5
18CE0
330
18C7A
100
AcDbEntity
  8
部品1
100
AcDbLine
 10
1311.970589276523
 20
1419.494269174462
 30
0.0
 11
1311.970589276523
 21
1388.494269174465
 31
0.0
  0
LINE
  5
18CE1
330
18C7A
100
AcDbEntity
  8
部品1
100
AcDbLine
 10
1311.970589276523
 20
1419.494269174462
 30
0.0
 11
3409.970589276524
 21
1419.494269174465
 31
0.0
  0
LINE
  5
18CE2
330
18C7A
100
AcDbEntity
  8
部品1
100
AcDbLine
 10
3407.970589276523
 20
1315.494269174465
 30
0.0
 11
3437.970589276523
 21
1315.494269174465
 31
0.0
  0
LINE
  5
18CE3
330
18C7A
100
AcDbEntity
  8
部品1
100
AcDbLine
 10
1313.970589276523
 20
1315.494269174465
 30
0.0
 11
3410.970589276523
 21
1315.494269174465
 31
0.0
  0
LINE
  5
18CE4
330
18C7A
100
AcDbEntity
  8
細線
  6
Continuous
 62
     5
100
AcDbLine
 10
2689.970589276527
 20
1354.494269174462
 30
0.0
 11
2689.970589276527
 21
1354.494269174462
 31
0.0
  0
LINE
  5
18CE5
330
18C7A
100
AcDbEntity
  8
細線
  6
Continuous
 62
     5
100
AcDbLine
 10
2682.470589276527
 20
1354.494269174462
 30
0.0
 11
2682.470589276527
 21
1354.494269174462
 31
0.0
  0
LINE
  5
18CE6
330
18C7A
100
AcDbEntity
  8
細線
  6
Continuous
 62
     5
100
AcDbLine
 10
2676.470589276527
 20
1354.494269174462
 30
0.0
 11
2676.470589276527
 21
1354.494269174462
 31
0.0
  0
LINE
  5
18CE7
330
18C7A
100
AcDbEntity
  8
細線
  6
Continuous
 62
     5
100
AcDbLine
 10
2743.970589276527
 20
1373.494269174462
 30
0.0
 11
2743.970589276527
 21
1373.494269174462
 31
0.0
  0
LINE
  5
18CE8
330
18C7A
100
AcDbEntity
  8
細線
 48
50.0
100
AcDbLine
 10
1336.970593930116
 20
1341.094443351418
 30
0.0
 11
1336.970593930113
 21
1349.490593759059
 31
0.0
  0
LINE
  5
18CE9
330
18C7A
100
AcDbEntity
  8
細線
 48
50.0
100
AcDbLine
 10
1336.970593930113
 20
1349.490593759059
 30
0.0
 11
1322.970589276523
 21
1349.490593759057
 31
0.0
  0
LINE
  5
18CEA
330
18C7A
100
AcDbEntity
  8
細線
 48
50.0
100
AcDbLine
 10
2087.970593930113
 20
1337.644443351419
 30
0.0
 11
2087.970593930113
 21
1342.494443351421
 31
0.0
  0
LINE
  5
18CEB
330
18C7A
100
AcDbEntity
  8
細線
 48
50.0
100
AcDbLine
 10
2087.970593930113
 20
1342.494443351421
 30
0.0
 11
2102.970593930113
 21
1342.494443351421
 31
0.0
  0
LINE
  5
18CEC
330
18C7A
100
AcDbEntity
  8
細線
 48
50.0
100
AcDbLine
 10
2102.970593930113
 20
1342.494443351421
 30
0.0
 11
2102.970593930115
 21
1349.494443351419
 31
0.0
  0
LINE
  5
18CED
330
18C7A
100
AcDbEntity
  8
細線
 48
50.0
100
AcDbLine
 10
2102.970593930115
 20
1349.494443351419
 30
0.0
 11
2117.970593930113
 21
1349.494443351419
 31
0.0
  0
LINE
  5
18CEE
330
18C7A
100
AcDbEntity
  8
細線
 48
50.0
100
AcDbLine
 10
2117.970593930113
 20
1349.494443351419
 30
0.0
 11
2117.970593930113
 21
1320.494443351421
 31
0.0
  0
LINE
  5
18CEF
330
18C7A
100
AcDbEntity
  8
細線
 48
50.0
100
AcDbLine
 10
1313.970589276523
 20
1320.491777694889
 30
0.0
 11
1527.970593930113
 21
1320.494460905133
 31
0.0
  0
LINE
  5
18CF0
330
18C7A
100
AcDbEntity
  8
細線
 48
50.0
100
AcDbLine
 10
2017.970593930113
 20
1320.494443351421
 30
0.0
 11
2117.970593930113
 21
1320.494443351421
 31
0.0
  0
LINE
  5
18CF1
330
18C7A
100
AcDbEntity
  8
細線
 48
50.0
100
AcDbLine
 10
1737.970593930113
 20
1320.494443351419
 30
0.0
 11
1807.970593930113
 21
1320.494443351423
 31
0.0
  0
LINE
  5
18CF2
330
18C7A
100
AcDbEntity
  8
細線
 48
50.0
100
AcDbLine
 10
1750.832558942642
 20
1320.494443351419
 30
0.0
 11
1756.588076525309
 21
1338.765294641913
 31
0.0
  0
LINE
  5
18CF3
330
18C7A
100
AcDbEntity
  8
細線
 48
50.0
100
AcDbLine
 10
1756.588076525309
 20
1338.765294641913
 30
0.0
 11
1767.516525005743
 21
1338.765294641911
 31
0.0
  0
ARC
  5
18CF4
330
18C7A
100
AcDbEntity
  8
細線
 48
50.0
100
AcDbCircle
 10
1767.516525005743
 20
1337.765294641911
 30
0.0
 40
1.0
100
AcDbArc
 50
24.62431835207225
 51
90.0
  0
ARC
  5
18CF5
330
18C7A
100
AcDbEntity
  8
細線
 48
50.0
100
AcDbCircle
 10
1778.425237120377
 20
1337.765294641911
 30
0.0
 40
1.0
100
AcDbArc
 50
90.0
 51
155.3756816479277
  0
ARC
  5
18CF6
330
18C7A
100
AcDbEntity
  8
細線
 48
50.0
100
AcDbCircle
 10
1772.970881063058
 20
1340.265294641911
 30
0.0
 40
5.0
100
AcDbArc
 50
204.6243183520723
 51
335.3756816479278
  0
LINE
  5
18CF7
330
18C7A
100
AcDbEntity
  8
細線
 48
50.0
100
AcDbLine
 10
1778.425237120377
 20
1338.765294641911
 30
0.0
 11
1789.35368560081
 21
1338.765294641913
 31
0.0
  0
LINE
  5
18CF8
330
18C7A
100
AcDbEntity
  8
細線
 48
50.0
100
AcDbLine
 10
1789.35368560081
 20
1338.765294641913
 30
0.0
 11
1795.109203183478
 21
1320.494443351423
 31
0.0
  0
LINE
  5
18CF9
330
18C7A
100
AcDbEntity
  8
細線
 48
50.0
100
AcDbLine
 10
2087.970593930113
 20
1341.094443351419
 30
0.0
 11
1336.970593930116
 21
1341.094443351418
 31
0.0
  0
LINE
  5
18CFA
330
18C7A
100
AcDbEntity
  8
細線
 48
50.0
100
AcDbLine
 10
1947.970593930113
 20
1320.494443351421
 30
0.0
 11
1877.970593930113
 21
1320.494443351421
 31
0.0
  0
LINE
  5
18CFB
330
18C7A
100
AcDbEntity
  8
細線
100
AcDbLine
 10
1667.970593930113
 20
1320.494443351421
 30
0.0
 11
1597.970602115529
 21
1320.494443351421
 31
0.0
  0
LINE
  5
18CFC
330
18C7A
100
AcDbEntity
  8
細線
 48
50.0
100
AcDbLine
 10
2741.970584622936
 20
1375.094487209288
 30
0.0
 11
2106.970593930113
 21
1375.094487209284
 31
0.0
  0
LINE
  5
18CFD
330
18C7A
100
AcDbEntity
  8
細線
 48
50.0
100
AcDbLine
 10
2106.970593930113
 20
1371.990637616925
 30
0.0
 11
2106.970593930113
 21
1376.490637616925
 31
0.0
  0
LINE
  5
18CFE
330
18C7A
100
AcDbEntity
  8
細線
 48
50.0
100
AcDbLine
 10
2106.970593930113
 20
1376.490637616925
 30
0.0
 11
2091.970593930113
 21
1376.490637616925
 31
0.0
  0
LINE
  5
18CFF
330
18C7A
100
AcDbEntity
  8
細線
 48
50.0
100
AcDbLine
 10
2091.970593930113
 20
1376.490637616925
 30
0.0
 11
2091.970593930113
 21
1383.490637616927
 31
0.0
  0
LINE
  5
18D00
330
18C7A
100
AcDbEntity
  8
細線
 48
50.0
100
AcDbLine
 10
2091.970593930113
 20
1383.490637616927
 30
0.0
 11
2076.970593930115
 21
1383.490637616924
 31
0.0
  0
LINE
  5
18D01
330
18C7A
100
AcDbEntity
  8
細線
 48
50.0
100
AcDbLine
 10
2076.970593930115
 20
1383.490637616924
 30
0.0
 11
2076.970593930115
 21
1345.890409513813
 31
0.0
  0
LINE
  5
18D02
330
18C7A
100
AcDbEntity
  8
細線
 48
50.0
100
AcDbLine
 10
2076.970593930115
 20
1345.890409513813
 30
0.0
 11
2096.970601231289
 21
1345.890451063353
 31
0.0
  0
LINE
  5
18D03
330
18C7A
100
AcDbEntity
  8
細線
 48
50.0
100
AcDbLine
 10
2096.970556362348
 20
1354.493912699161
 30
0.0
 11
2096.970601231289
 21
1345.890451063353
 31
0.0
  0
LINE
  5
18D04
330
18C7A
100
AcDbEntity
  8
細線
 48
50.0
100
AcDbLine
 10
2741.970584622936
 20
1371.644487209287
 30
0.0
 11
2741.970584622936
 21
1376.494487209284
 31
0.0
  0
LINE
  5
18D05
330
18C7A
100
AcDbEntity
  8
細線
 48
50.0
100
AcDbLine
 10
2741.970584622936
 20
1376.494487209284
 30
0.0
 11
2756.970584622934
 21
1376.494487209285
 31
0.0
  0
LINE
  5
18D06
330
18C7A
100
AcDbEntity
  8
細線
 48
50.0
100
AcDbLine
 10
2756.970584622934
 20
1376.494487209285
 30
0.0
 11
2756.970596256909
 21
1383.494487209331
 31
0.0
  0
LINE
  5
18D07
330
18C7A
100
AcDbEntity
  8
細線
 48
50.0
100
AcDbLine
 10
2756.970596256909
 20
1383.494487209331
 30
0.0
 11
2771.970594427439
 21
1383.494487209329
 31
0.0
  0
LINE
  5
18D08
330
18C7A
100
AcDbEntity
  8
細線
 48
50.0
100
AcDbLine
 10
2771.970594427439
 20
1383.494487209329
 30
0.0
 11
2771.970584125617
 21
1354.494281037055
 31
0.0
  0
LINE
  5
18D09
330
18C7A
100
AcDbEntity
  8
細線
 48
50.0
100
AcDbLine
 10
2458.070304175992
 20
1354.494278397076
 30
0.0
 11
2389.470863838818
 21
1354.494283787084
 31
0.0
  0
LINE
  5
18D0A
330
18C7A
100
AcDbEntity
  8
細線
 48
50.0
100
AcDbLine
 10
2096.970556362348
 20
1354.493912699161
 30
0.0
 11
2108.203245717057
 21
1354.494095652309
 31
0.0
  0
ARC
  5
18D0B
330
18C7A
100
AcDbEntity
  8
細線
 48
50.0
100
AcDbCircle
 10
2114.785538024393
 20
1353.294259565922
 30
0.0
 40
1.8
100
AcDbArc
 50
270.0006665777295
 51
345.000555481349
  0
LINE
  5
18D0C
330
18C7A
100
AcDbEntity
  8
細線
 48
50.0
100
AcDbLine
 10
2116.771971470473
 20
1353.753100023201
 30
0.0
 11
2116.524209028273
 21
1352.828402141094
 31
0.0
  0
LINE
  5
18D0D
330
18C7A
100
AcDbEntity
  8
細線
 48
50.0
100
AcDbLine
 10
2114.785558965548
 20
1351.494259566043
 30
0.0
 11
2111.155631546781
 21
1351.494217335563
 31
0.0
  0
ARC
  5
18D0E
330
18C7A
100
AcDbEntity
  8
細線
 48
50.0
100
AcDbCircle
 10
2111.155610605627
 20
1353.29421733544
 30
0.0
 40
1.8
100
AcDbArc
 50
195.0010443049965
 51
270.0006665777295
  0
LINE
  5
18D0F
330
18C7A
100
AcDbEntity
  8
細線
 48
50.0
100
AcDbLine
 10
2109.169183113368
 20
1353.752932303007
 30
0.0
 11
2109.416952609882
 21
1352.828311364425
 31
0.0
  0
ARC
  5
18D10
330
18C7A
100
AcDbEntity
  8
細線
 48
50.0
100
AcDbCircle
 10
2108.203262004622
 20
1353.494095652444
 30
0.0
 40
1.0
100
AcDbArc
 50
15.00104430499651
 51
90.00093320877969
  0
LINE
  5
18D11
330
18C7A
100
AcDbEntity
  8
細線
 48
50.0
100
AcDbLine
 10
2117.737892825577
 20
1354.494290342714
 30
0.0
 11
2118.679652976481
 21
1354.494296916564
 31
0.0
  0
ARC
  5
18D12
330
18C7A
100
AcDbEntity
  8
細線
 48
50.0
100
AcDbCircle
 10
2117.737899805961
 20
1353.49429034274
 30
0.0
 40
1.0
100
AcDbArc
 50
90.0003999466794
 51
165.000555481349
  0
LINE
  5
18D13
330
18C7A
100
AcDbEntity
  8
細線
 48
50.0
100
AcDbLine
 10
2669.470584622926
 20
1354.494281037055
 30
0.0
 11
2771.970584125617
 21
1354.494281037055
 31
0.0
  0
LINE
  5
18D14
330
18C7A
100
AcDbEntity
  8
細線
 48
50.0
100
AcDbLine
 10
2179.47061994182
 20
1354.494289224422
 30
0.0
 11
2118.370558714898
 21
1354.494296916564
 31
0.0
  0
LINE
  5
18D15
330
18C7A
100
AcDbEntity
  8
細線
 48
50.0
100
AcDbLine
 10
2599.470584622926
 20
1354.494281037057
 30
0.0
 11
2529.470584622926
 21
1354.494281037055
 31
0.0
  0
LINE
  5
18D16
330
18C7A
100
AcDbEntity
  8
細線
 48
50.0
100
AcDbLine
 10
2319.470584622926
 20
1354.494281037054
 30
0.0
 11
2249.470567335051
 21
1354.494281037057
 31
0.0
  0
ARC
  5
18D17
330
18C7A
100
AcDbEntity
  8
細線
 48
50.0
100
AcDbCircle
 10
2756.170589276533
 20
1387.694269174466
 30
0.0
 40
0.8
100
AcDbArc
 50
359.9997333689499
 51
89.99986668437072
  0
ARC
  5
18D18
330
18C7A
100
AcDbEntity
  8
細線
 48
50.0
100
AcDbCircle
 10
2763.770596101631
 20
1387.694280343081
 30
0.0
 40
0.8
100
AcDbArc
 50
90.00014387753465
 51
179.9997333689498
  0
LINE
  5
18D19
330
18C7A
100
AcDbEntity
  8
細線
 48
50.0
100
AcDbLine
 10
2756.170591137969
 20
1388.494269174465
 30
0.0
 11
2750.970589276525
 21
1388.494269174465
 31
0.0
  0
ARC
  5
18D1A
330
18C7A
100
AcDbEntity
  8
細線
 48
50.0
100
AcDbCircle
 10
2757.670589276524
 20
1386.194269174464
 30
0.0
 40
0.7
100
AcDbArc
 50
180.0
 51
270.0
  0
ARC
  5
18D1B
330
18C7A
100
AcDbEntity
  8
細線
 48
50.0
100
AcDbCircle
 10
2762.270589276524
 20
1386.194269174464
 30
0.0
 40
0.7
100
AcDbArc
 50
270.0
 51
0.0
  0
LINE
  5
18D1C
330
18C7A
100
AcDbEntity
  8
細線
 48
50.0
100
AcDbLine
 10
2762.970589276525
 20
1386.194269174464
 30
0.0
 11
2762.970596101639
 21
1387.694284065954
 31
0.0
  0
LINE
  5
18D1D
330
18C7A
100
AcDbEntity
  8
細線
 48
50.0
100
AcDbLine
 10
2757.670589276524
 20
1385.494269174465
 30
0.0
 11
2762.270589276524
 21
1385.494269174465
 31
0.0
  0
LINE
  5
18D1E
330
18C7A
100
AcDbEntity
  8
細線
 48
50.0
100
AcDbLine
 10
2756.970589276525
 20
1387.694269174466
 30
0.0
 11
2756.970589276525
 21
1386.194269174464
 31
0.0
  0
LINE
  5
18D1F
330
18C7A
100
AcDbEntity
  8
細線
 48
50.0
100
AcDbLine
 10
3382.570589276527
 20
1418.494269174465
 30
0.0
 11
2745.970589276525
 21
1418.494269174463
 31
0.0
  0
LINE
  5
18D20
330
18C7A
100
AcDbEntity
  8
細線
 48
50.0
100
AcDbLine
 10
3408.470589276525
 20
1413.494269174467
 30
0.0
 11
3392.570589276527
 21
1413.494269174465
 31
0.0
  0
LINE
  5
18D21
330
18C7A
100
AcDbEntity
  8
細線
 48
50.0
100
AcDbLine
 10
3392.570589276526
 20
1413.494269174465
 30
0.0
 11
3382.570589276527
 21
1418.494269174465
 31
0.0
  0
LINE
  5
18D22
330
18C7A
100
AcDbEntity
  8
細線
100
AcDbLine
 10
2993.470589276525
 20
1388.494269174465
 30
0.0
 11
2993.470589276525
 21
1417.794269174464
 31
0.0
  0
LINE
  5
18D23
330
18C7A
100
AcDbEntity
  8
細線
100
AcDbLine
 10
2993.470589276525
 20
1417.794269174464
 30
0.0
 11
3013.470589276525
 21
1417.794269174464
 31
0.0
  0
LINE
  5
18D24
330
18C7A
100
AcDbEntity
  8
細線
100
AcDbLine
 10
3013.470589276525
 20
1388.494269174465
 30
0.0
 11
3013.470589276525
 21
1417.794269174464
 31
0.0
  0
LINE
  5
18D25
330
18C7A
100
AcDbEntity
  8
細線
100
AcDbLine
 10
3170.720589276524
 20
1388.494269174465
 30
0.0
 11
3100.720589276523
 21
1388.494269174465
 31
0.0
  0
LINE
  5
18D26
330
18C7A
100
AcDbEntity
  8
細線
 48
50.0
100
AcDbLine
 10
2890.720589276525
 20
1388.494269174465
 30
0.0
 11
2763.766368849365
 21
1388.494269174465
 31
0.0
  0
LINE
  5
18D27
330
18C7A
100
AcDbEntity
  8
細線
100
AcDbLine
 10
3030.720589276525
 20
1388.494269174465
 30
0.0
 11
2960.720589276525
 21
1388.494269174465
 31
0.0
  0
LINE
  5
18D28
330
18C7A
100
AcDbEntity
  8
細線
 48
50.0
100
AcDbLine
 10
2750.970589276525
 20
1380.494269174465
 30
0.0
 11
2750.970589276525
 21
1388.494269174465
 31
0.0
  0
LINE
  5
18D29
330
18C7A
100
AcDbEntity
  8
細線
 48
50.0
100
AcDbLine
 10
2730.970589276524
 20
1380.494269174467
 30
0.0
 11
2750.970589276525
 21
1380.494269174465
 31
0.0
  0
LINE
  5
18D2A
330
18C7A
100
AcDbEntity
  8
細線
 48
50.0
100
AcDbLine
 10
2745.970589276525
 20
1418.494269174465
 30
0.0
 11
2745.970589276525
 21
1413.494269174465
 31
0.0
  0
LINE
  5
18D2B
330
18C7A
100
AcDbEntity
  8
細線
 48
50.0
100
AcDbLine
 10
2730.970589276525
 20
1418.494269174463
 30
0.0
 11
2745.970589276525
 21
1418.494269174465
 31
0.0
  0
LINE
  5
18D2C
330
18C7A
100
AcDbEntity
  8
細線
 48
50.0
100
AcDbLine
 10
2730.970589276524
 20
1380.494269174467
 30
0.0
 11
2730.970589276525
 21
1418.494269174463
 31
0.0
  0
LINE
  5
18D2D
330
18C7A
100
AcDbEntity
  8
細線
100
AcDbLine
 10
3398.970589276523
 20
1388.494269174465
 30
0.0
 11
3240.720589276525
 21
1388.494269174465
 31
0.0
  0
LINE
  5
18D2E
330
18C7A
100
AcDbEntity
  8
細線
 48
50.0
100
AcDbLine
 10
3408.470589276525
 20
1413.494269174467
 30
0.0
 11
3408.470589276524
 21
1388.494269174465
 31
0.0
  0
TEXT
  5
18D2F
330
18C7A
100
AcDbEntity
  8
部品1
100
AcDbText
 10
1860.154865991392
 20
46.99880823813145
 30
0.0
 40
135.0
  1
平面図
  7
STYLE2
100
AcDbText
  0
LWPOLYLINE
  5
18D30
330
18C7A
100
AcDbEntity
  8
部品1
100
AcDbPolyline
 90
        4
 70
     1
 43
0.0
 10
1770.23525616235
 20
239.8923374566548
 10
1770.23525616235
 20
0.0000159111223184
 10
2533.705922390791
 20
0.0000159111223184
 10
2533.705922390791
 20
239.8923374566548
  0
LINE
  5
18D31
330
18C7A
100
AcDbEntity
  8
部品1
100
AcDbLine
 10
1534.470589276487
 20
3154.494269174626
 30
0.0
 11
2769.470589276552
 21
3154.494269174626
 31
0.0
  0
LINE
  5
18D32
330
18C7A
100
AcDbEntity
  8
部品1
 48
50.0
100
AcDbLine
 10
1311.970589276523
 20
1420.494269174462
 30
0.0
 11
3411.970589276523
 21
1420.494269174465
 31
0.0
  0
LINE
  5
18D33
330
18C7A
100
AcDbEntity
  8
部品1
 48
50.0
100
AcDbLine
 10
471.9705892765232
 20
1392.494269174465
 30
0.0
 11
1311.970589276523
 21
1392.494269174465
 31
0.0
  0
DIMENSION
  5
18D34
330
18C7A
100
AcDbEntity
  8
寸法
100
AcDbDimension
  2
*D14
 10
2710.234916278077
 20
2488.887829538828
 30
0.0
 11
2338.318822490183
 21
2488.887829538828
 31
0.0
 12
-3742.925985830444
 22
-6453.628869860112
 32
0.0
 70
   128
 71
     5
 42
1231.00000000007
  3
INABA_S40G
100
AcDbAlignedDimension
 13
1536.470589276486
 23
2702.494269174557
 33
0.0
 14
2767.470589276556
 24
2702.494269174549
 34
0.0
100
AcDbRotatedDimension
1001
ACAD
1000
DSTYLE
1002
{
1002
}
  0
LINE
  5
18D35
330
18C7A
100
AcDbEntity
  8
部品1
100
AcDbLine
 10
1536.470589276487
 20
2702.494269174557
 30
0.0
 11
2767.470589276554
 21
2702.494269174615
 31
0.0
  0
LINE
  5
18D36
330
18C7A
100
AcDbEntity
  8
部品1
100
AcDbLine
 10
1536.470589276487
 20
3152.494269174557
 30
0.0
 11
2767.470589276556
 21
3152.494269174615
 31
0.0
  0
LINE
  5
18D37
330
18C7A
100
AcDbEntity
  8
細線
 48
50.0
100
AcDbLine
 10
1508.470589276487
 20
3152.494269174558
 30
0.0
 11
445.4705892765559
 21
2702.494269174509
 31
0.0
  0
LINE
  5
18D38
330
18C7A
100
AcDbEntity
  8
細線
 48
50.0
100
AcDbLine
 10
1508.470589276487
 20
2702.494269174558
 30
0.0
 11
445.4705892765542
 21
3152.494269174509
 31
0.0
  0
LINE
  5
18D39
330
18C7A
100
AcDbEntity
  8
部品1
100
AcDbLine
 10
1556.970589276487
 20
3172.494269174611
 30
0.0
 11
1556.970589276487
 21
3154.494269174611
 31
0.0
  0
LINE
  5
18D3A
330
18C7A
100
AcDbEntity
  8
部品1
100
AcDbLine
 10
1556.970589276487
 20
3172.494269174611
 30
0.0
 11
1550.970589276487
 21
3172.494269174611
 31
0.0
  0
LINE
  5
18D3B
330
18C7A
100
AcDbEntity
  8
部品1
100
AcDbLine
 10
1534.470589276487
 20
3146.494269174608
 30
0.0
 11
1509.470589276487
 21
3146.494269174611
 31
0.0
  0
LINE
  5
18D3C
330
18C7A
100
AcDbEntity
  8
部品1
100
AcDbLine
 10
1486.970589276487
 20
3172.494269174611
 30
0.0
 11
1486.970589276487
 21
3154.494269174611
 31
0.0
  0
LINE
  5
18D3D
330
18C7A
100
AcDbEntity
  8
部品1
100
AcDbLine
 10
1492.970589276487
 20
3172.494269174611
 30
0.0
 11
1486.970589276487
 21
3172.494269174611
 31
0.0
  0
LINE
  5
18D3E
330
18C7A
100
AcDbEntity
  8
部品1
100
AcDbLine
 10
1534.470589276487
 20
2702.494269174615
 30
0.0
 11
1509.470589276487
 21
2702.494269174615
 31
0.0
  0
LINE
  5
18D3F
330
18C7A
100
AcDbEntity
  8
部品1
 48
50.0
100
AcDbLine
 10
1536.470589276487
 20
3152.494269174611
 30
0.0
 11
1536.470589276487
 21
2702.494269174615
 31
0.0
  0
LINE
  5
18D40
330
18C7A
100
AcDbEntity
  8
部品1
 48
50.0
100
AcDbLine
 10
1508.470589276487
 20
3152.494269174607
 30
0.0
 11
1508.470589276487
 21
2702.494269174615
 31
0.0
  0
LINE
  5
18D41
330
18C7A
100
AcDbEntity
  8
部品1
 48
50.0
100
AcDbLine
 10
1534.470589276487
 20
3154.494269174618
 30
0.0
 11
1534.470589276487
 21
2702.494269174615
 31
0.0
  0
LINE
  5
18D42
330
18C7A
100
AcDbEntity
  8
部品1
 48
50.0
100
AcDbLine
 10
1509.470589276487
 20
3154.494269174615
 30
0.0
 11
1509.470589276487
 21
2702.494269174615
 31
0.0
  0
LINE
  5
18D43
330
18C7A
100
AcDbEntity
  8
部品1
100
AcDbLine
 10
3411.970589276556
 20
1392.494269174582
 30
0.0
 11
3411.970589276556
 21
1420.494269174596
 31
0.0
  0
LINE
  5
18D44
330
18C7A
100
AcDbEntity
  8
部品1
100
AcDbLine
 10
1311.970589276523
 20
1392.494269174596
 30
0.0
 11
1311.970589276523
 21
1420.494269174596
 31
0.0
  0
LINE
  5
18D45
330
18C7A
100
AcDbEntity
  8
部品1
100
AcDbLine
 10
891.9705892765232
 20
1392.494269174596
 30
0.0
 11
891.9705892765232
 21
1420.494269174596
 31
0.0
  0
LINE
  5
18D46
330
18C7A
100
AcDbEntity
  8
部品1
100
AcDbLine
 10
3411.97058927652
 20
3182.494269174477
 30
0.0
 11
3411.970589276523
 21
3154.494269174477
 31
0.0
  0
LINE
  5
18D47
330
18C7A
100
AcDbEntity
  8
部品1
100
AcDbLine
 10
2571.97058927652
 20
3182.494269174477
 30
0.0
 11
2571.970589276523
 21
3154.494269174477
 31
0.0
  0
LINE
  5
18D48
330
18C7A
100
AcDbEntity
  8
部品1
100
AcDbLine
 10
2991.97058927652
 20
3182.494269174477
 30
0.0
 11
2991.970589276523
 21
3154.494269174477
 31
0.0
  0
LINE
  5
18D49
330
18C7A
100
AcDbEntity
  8
部品1
100
AcDbLine
 10
2151.970589276519
 20
3182.494269174477
 30
0.0
 11
2151.970589276523
 21
3154.494269174477
 31
0.0
  0
LINE
  5
18D4A
330
18C7A
100
AcDbEntity
  8
部品1
100
AcDbLine
 10
1731.970589276519
 20
3182.494269174477
 30
0.0
 11
1731.970589276523
 21
3154.494269174477
 31
0.0
  0
LINE
  5
18D4B
330
18C7A
100
AcDbEntity
  8
部品1
100
AcDbLine
 10
1311.970589276519
 20
3182.494269174477
 30
0.0
 11
1311.970589276523
 21
3154.494269174477
 31
0.0
  0
LINE
  5
18D4C
330
18C7A
100
AcDbEntity
  8
部品1
100
AcDbLine
 10
891.9705892765195
 20
3182.494269174477
 30
0.0
 11
891.9705892765232
 21
3154.494269174477
 31
0.0
  0
LINE
  5
18D4D
330
18C7A
100
AcDbEntity
  8
部品1
100
AcDbLine
 10
471.9705892765232
 20
1392.494269174596
 30
0.0
 11
471.9705892765232
 21
1420.494269174596
 31
0.0
  0
LINE
  5
18D4E
330
18C7A
100
AcDbEntity
  8
部品1
100
AcDbLine
 10
444.9705892765305
 20
1420.494269174558
 30
0.0
 11
3858.970589276556
 21
1420.494269174596
 31
0.0
  0
LINE
  5
18D4F
330
18C7A
100
AcDbEntity
  8
部品1
100
AcDbLine
 10
3831.970589276556
 20
1392.494269174596
 30
0.0
 11
3831.970589276556
 21
1420.494269174596
 31
0.0
  0
LINE
  5
18D50
330
18C7A
100
AcDbEntity
  8
部品1
100
AcDbLine
 10
3858.970589276556
 20
1447.494269174593
 30
0.0
 11
3886.970589276556
 21
1447.494269174593
 31
0.0
  0
LINE
  5
18D51
330
18C7A
100
AcDbEntity
  8
部品1
100
AcDbLine
 10
3858.970589276556
 20
1867.494269174607
 30
0.0
 11
3886.970589276556
 21
1867.494269174607
 31
0.0
  0
LINE
  5
18D52
330
18C7A
100
AcDbEntity
  8
部品1
100
AcDbLine
 10
444.9705892765305
 20
1867.49426917448
 30
0.0
 11
416.9705892765305
 21
1867.49426917448
 31
0.0
  0
LINE
  5
18D53
330
18C7A
100
AcDbEntity
  8
部品1
100
AcDbLine
 10
3830.470589276541
 20
1867.49426917458
 30
0.0
 11
473.4705892765396
 21
1867.49426917448
 31
0.0
  0
LINE
  5
18D54
330
18C7A
100
AcDbEntity
  8
部品1
100
AcDbLine
 10
3830.470589276541
 20
2287.49426917458
 30
0.0
 11
473.4705892765396
 21
2287.49426917448
 31
0.0
  0
LINE
  5
18D55
330
18C7A
100
AcDbEntity
  8
部品1
100
AcDbLine
 10
444.9705892765305
 20
2287.49426917448
 30
0.0
 11
416.9705892765305
 21
2287.49426917448
 31
0.0
  0
LINE
  5
18D56
330
18C7A
100
AcDbEntity
  8
部品1
100
AcDbLine
 10
3858.970589276556
 20
2287.494269174608
 30
0.0
 11
3886.970589276556
 21
2287.494269174608
 31
0.0
  0
LINE
  5
18D57
330
18C7A
100
AcDbEntity
  8
部品1
 48
50.0
100
AcDbLine
 10
2151.970589276551
 20
2702.494269174586
 30
0.0
 11
2151.970589276581
 21
1448.994269174494
 31
0.0
  0
LINE
  5
18D58
330
18C7A
100
AcDbEntity
  8
破線
 48
10.0
100
AcDbLine
 10
2959.470589276535
 20
1472.494269174522
 30
0.0
 11
2176.970589276532
 21
1472.494269174505
 31
0.0
  0
LINE
  5
18D59
330
18C7A
100
AcDbEntity
  8
破線
 48
10.0
100
AcDbLine
 10
3009.47058927653
 20
1448.994269174509
 30
0.0
 11
3009.47058927653
 21
2702.494269174615
 31
0.0
  0
LINE
  5
18D5A
330
18C7A
100
AcDbEntity
  8
破線
 48
10.0
100
AcDbLine
 10
2959.470589276535
 20
1448.994269174505
 30
0.0
 11
2959.470589276531
 21
2702.494269174615
 31
0.0
  0
LINE
  5
18D5B
330
18C7A
100
AcDbEntity
  8
破線
 48
10.0
100
AcDbLine
 10
1344.47058927653
 20
1448.994269174509
 30
0.0
 11
1344.47058927653
 21
2702.494269174615
 31
0.0
  0
LINE
  5
18D5C
330
18C7A
100
AcDbEntity
  8
破線
 48
10.0
100
AcDbLine
 10
1294.470589276534
 20
1448.994269174505
 30
0.0
 11
1294.47058927653
 21
2702.494269174615
 31
0.0
  0
DIMENSION
  5
18D5D
330
18C7A
100
AcDbEntity
  8
寸法
100
AcDbDimension
  2
*D13
 10
1451.234916278005
 20
2488.887829538828
 30
0.0
 11
916.0604668248634
 21
2488.887829538828
 31
0.0
 12
-3742.925985830444
 22
-6453.628869860112
 32
0.0
 70
   128
 71
     5
 42
1062.99999999993
  3
INABA_S40G
100
AcDbAlignedDimension
 13
445.4705892765559
 23
2702.494269174505
 33
0.0
 14
1508.470589276486
 24
2702.494269174558
 34
0.0
100
AcDbRotatedDimension
1001
ACAD
1000
DSTYLE
1002
{
1002
}
  0
LINE
  5
18D5E
330
18C7A
100
AcDbEntity
  8
破線
 48
10.0
100
AcDbLine
 10
1294.470589276534
 20
1472.494269174469
 30
0.0
 11
496.9705892765414
 21
1472.494269174476
 31
0.0
  0
LINE
  5
18D5F
330
18C7A
100
AcDbEntity
  8
部品1
100
AcDbLine
 10
3831.970589276556
 20
3182.494269174604
 30
0.0
 11
3831.970589276556
 21
3154.494269174604
 31
0.0
  0
LINE
  5
18D60
330
18C7A
100
AcDbEntity
  8
部品1
100
AcDbLine
 10
3831.970589276556
 20
3182.494269174626
 30
0.0
 11
3831.970589276556
 21
3154.494269174626
 31
0.0
  0
LINE
  5
18D61
330
18C7A
100
AcDbEntity
  8
部品1
100
AcDbLine
 10
3858.970589276556
 20
3127.494269174607
 30
0.0
 11
3886.970589276556
 21
3127.494269174607
 31
0.0
  0
LINE
  5
18D62
330
18C7A
100
AcDbEntity
  8
部品1
100
AcDbLine
 10
3858.970589276556
 20
2707.494269174608
 30
0.0
 11
3886.970589276556
 21
2707.494269174608
 31
0.0
  0
LINE
  5
18D63
330
18C7A
100
AcDbEntity
  8
部品1
100
AcDbLine
 10
3858.470589276556
 20
3152.494269174604
 30
0.0
 11
3858.470589276556
 21
2702.494269174608
 31
0.0
  0
LINE
  5
18D64
330
18C7A
100
AcDbEntity
  8
部品1
100
AcDbLine
 10
3886.970589276533
 20
1447.494269174593
 30
0.0
 11
3886.970589276531
 21
1392.494269174596
 31
0.0
  0
LINE
  5
18D65
330
18C7A
100
AcDbEntity
  8
部品1
 48
50.0
100
AcDbLine
 10
3830.470589276556
 20
1448.994269174596
 30
0.0
 11
3858.970589276554
 21
1420.494269174596
 31
0.0
  0
LINE
  5
18D66
330
18C7A
100
AcDbEntity
  8
部品1
100
AcDbLine
 10
3886.970589276531
 20
1392.494269174596
 30
0.0
 11
3835.970589276531
 21
1392.494269174596
 31
0.0
  0
LINE
  5
18D67
330
18C7A
100
AcDbEntity
  8
部品1
100
AcDbLine
 10
3858.970589276533
 20
1447.494269174593
 30
0.0
 11
3886.970589276531
 21
1447.494269174593
 31
0.0
  0
LINE
  5
18D68
330
18C7A
100
AcDbEntity
  8
部品1
100
AcDbLine
 10
3886.970589276556
 20
3182.494269174604
 30
0.0
 11
3886.970589276531
 21
1392.494269174596
 31
0.0
  0
DIMENSION
  5
18D69
330
18C7A
100
AcDbEntity
  8
寸法
100
AcDbDimension
  2
*D12
 10
4534.396935010967
 20
1447.494269174593
 30
0.0
 11
4534.396935010965
 21
2287.4942691746
 31
0.0
 12
-3742.925985830444
 22
-6453.628869860112
 32
0.0
 70
   128
  1
4X420=<>
 71
     5
 42
1680.000000000014
  3
INABA_S40G
100
AcDbAlignedDimension
 13
3886.970589276556
 23
3127.494269174607
 33
0.0
 14
3886.970589276531
 24
1447.494269174593
 34
0.0
 50
90.0
100
AcDbRotatedDimension
1001
ACAD
1000
DSTYLE
1002
{
1002
}
  0
LINE
  5
18D6A
330
18C7A
100
AcDbEntity
  8
部品1
100
AcDbLine
 10
3858.970589276556
 20
3154.494269174604
 30
0.0
 11
3858.970589276534
 21
1420.494269174596
 31
0.0
  0
DIMENSION
  5
18D6B
330
18C7A
100
AcDbEntity
  8
寸法
100
AcDbDimension
  2
*D11
 10
4213.82831513858
 20
2607.276453505718
 30
0.0
 11
4113.828315138579
 21
2832.276453505718
 31
0.0
 12
-3742.925985830444
 22
-6453.628869860112
 32
0.0
 71
     5
 42
449.9999999999963
  3
INABA_S40G
100
AcDbAlignedDimension
 13
3858.470589276556
 23
3152.494269174604
 33
0.0
 14
3858.470589276556
 24
2702.494269174608
 34
0.0
 50
90.0
100
AcDbRotatedDimension
1001
ACAD
1000
DSTYLE
1002
{
1002
}
  0
LINE
  5
18D6C
330
18C7A
100
AcDbEntity
  8
部品1
100
AcDbLine
 10
3830.470589276547
 20
2702.494269174608
 30
0.0
 11
3830.470589276556
 21
1448.994269174596
 31
0.0
  0
LINE
  5
18D6D
330
18C7A
100
AcDbEntity
  8
破線
 48
10.0
100
AcDbLine
 10
3806.970589276549
 20
2702.494269174608
 30
0.0
 11
3806.970589276558
 21
1472.494269174593
 31
0.0
  0
LINE
  5
18D6E
330
18C7A
100
AcDbEntity
  8
部品1
100
AcDbLine
 10
2769.470589276556
 20
3146.494269174608
 30
0.0
 11
2794.470589276556
 21
3146.494269174611
 31
0.0
  0
LINE
  5
18D6F
330
18C7A
100
AcDbEntity
  8
部品1
100
AcDbLine
 10
2810.970589276556
 20
3172.494269174611
 30
0.0
 11
2816.970589276556
 21
3172.494269174611
 31
0.0
  0
LINE
  5
18D70
330
18C7A
100
AcDbEntity
  8
部品1
100
AcDbLine
 10
2816.970589276556
 20
3172.494269174611
 30
0.0
 11
2816.970589276556
 21
3154.494269174611
 31
0.0
  0
LINE
  5
18D71
330
18C7A
100
AcDbEntity
  8
部品1
100
AcDbLine
 10
2746.970589276556
 20
3172.494269174611
 30
0.0
 11
2752.970589276556
 21
3172.494269174611
 31
0.0
  0
LINE
  5
18D72
330
18C7A
100
AcDbEntity
  8
部品1
100
AcDbLine
 10
2746.970589276556
 20
3172.494269174611
 30
0.0
 11
2746.970589276556
 21
3154.494269174611
 31
0.0
  0
LINE
  5
18D73
330
18C7A
100
AcDbEntity
  8
部品1
100
AcDbLine
 10
2769.470589276556
 20
2702.494269174615
 30
0.0
 11
2794.470589276556
 21
2702.494269174615
 31
0.0
  0
LINE
  5
18D74
330
18C7A
100
AcDbEntity
  8
部品1
 48
50.0
100
AcDbLine
 10
2794.470589276556
 20
3154.494269174615
 30
0.0
 11
2794.470589276556
 21
2702.494269174615
 31
0.0
  0
LINE
  5
18D75
330
18C7A
100
AcDbEntity
  8
部品1
 48
50.0
100
AcDbLine
 10
2769.470589276554
 20
3154.494269174618
 30
0.0
 11
2769.470589276556
 21
2702.494269174615
 31
0.0
  0
LINE
  5
18D76
330
18C7A
100
AcDbEntity
  8
部品1
 48
50.0
100
AcDbLine
 10
2795.470589276556
 20
3152.494269174607
 30
0.0
 11
2795.470589276556
 21
2702.494269174615
 31
0.0
  0
LINE
  5
18D77
330
18C7A
100
AcDbEntity
  8
部品1
 48
50.0
100
AcDbLine
 10
2767.470589276556
 20
3152.494269174611
 30
0.0
 11
2767.470589276556
 21
2702.494269174615
 31
0.0
  0
LINE
  5
18D78
330
18C7A
100
AcDbEntity
  8
破線
 48
10.0
100
AcDbLine
 10
2176.97058927653
 20
1448.994269174509
 30
0.0
 11
2176.97058927653
 21
2702.494269174588
 31
0.0
  0
LINE
  5
18D79
330
18C7A
100
AcDbEntity
  8
破線
 48
10.0
100
AcDbLine
 10
2126.970589276534
 20
1448.994269174505
 30
0.0
 11
2126.970589276531
 21
2702.494269174586
 31
0.0
  0
LINE
  5
18D7A
330
18C7A
100
AcDbEntity
  8
部品1
100
AcDbLine
 10
2794.470589276556
 20
3154.494269174622
 30
0.0
 11
3858.970589276556
 21
3154.494269174604
 31
0.0
  0
LINE
  5
18D7B
330
18C7A
100
AcDbEntity
  8
細線
 48
50.0
100
AcDbLine
 10
3858.470589276556
 20
2702.494269174608
 30
0.0
 11
2795.470589276556
 21
3152.494269174607
 31
0.0
  0
LINE
  5
18D7C
330
18C7A
100
AcDbEntity
  8
部品1
100
AcDbLine
 10
2795.470589276555
 20
2702.494269174615
 30
0.0
 11
3858.470589276556
 21
2702.494269174608
 31
0.0
  0
LINE
  5
18D7D
330
18C7A
100
AcDbEntity
  8
部品1
100
AcDbLine
 10
2795.470589276556
 20
3152.494269174611
 30
0.0
 11
3858.470589276556
 21
3152.494269174604
 31
0.0
  0
LINE
  5
18D7E
330
18C7A
100
AcDbEntity
  8
細線
 48
50.0
100
AcDbLine
 10
3858.470589276556
 20
3152.494269174604
 30
0.0
 11
2795.470589276555
 21
2702.494269174615
 31
0.0
  0
DIMENSION
  5
18D7F
330
18C7A
100
AcDbEntity
  8
寸法
100
AcDbDimension
  2
*D10
 10
3801.234916278101
 20
2488.887829538937
 30
0.0
 11
3318.360544398907
 21
2488.887829538937
 31
0.0
 12
-3742.925985830444
 22
-6453.628869860112
 32
0.0
 70
   128
 71
     5
 42
1063.000000000012
  3
INABA_S40G
100
AcDbAlignedDimension
 13
2795.470589276555
 23
2702.494269174615
 33
0.0
 14
3858.470589276567
 24
2702.494269174608
 34
0.0
100
AcDbRotatedDimension
1001
ACAD
1000
DSTYLE
1002
{
1002
}
  0
LINE
  5
18D80
330
18C7A
100
AcDbEntity
  8
破線
 48
10.0
100
AcDbLine
 10
3806.970589276556
 20
1472.494269174594
 30
0.0
 11
3009.47058927653
 21
1472.494269174523
 31
0.0
  0
DIMENSION
  5
18D81
330
18C7A
100
AcDbEntity
  8
寸法
100
AcDbDimension
  2
*D9
 10
4534.396935010941
 20
1392.494269174596
 30
0.0
 11
4534.39693501094
 21
1084.008987800356
 31
0.0
 12
-3742.925985830444
 22
-6453.628869860112
 32
0.0
 70
   128
 71
     5
 42
54.99999999999636
  3
INABA_S40G
100
AcDbAlignedDimension
 13
3886.970589276531
 23
1447.494269174593
 33
0.0
 14
3886.970589276531
 24
1392.494269174596
 34
0.0
 50
90.0
100
AcDbRotatedDimension
1001
ACAD
1000
DSTYLE
1002
{
1002
}
  0
LINE
  5
18D82
330
18C7A
100
AcDbEntity
  8
部品1
100
AcDbLine
 10
471.9705892765196
 20
3182.494269174477
 30
0.0
 11
471.9705892765232
 21
3154.494269174477
 31
0.0
  0
LINE
  5
18D83
330
18C7A
100
AcDbEntity
  8
部品1
100
AcDbLine
 10
471.9705892765559
 20
3182.494269174509
 30
0.0
 11
471.9705892765559
 21
3154.494269174509
 31
0.0
  0
LINE
  5
18D84
330
18C7A
100
AcDbEntity
  8
部品1
100
AcDbLine
 10
444.9705892765232
 20
3127.49426917448
 30
0.0
 11
416.9705892765232
 21
3127.49426917448
 31
0.0
  0
LINE
  5
18D85
330
18C7A
100
AcDbEntity
  8
部品1
100
AcDbLine
 10
444.9705892765305
 20
2707.49426917448
 30
0.0
 11
416.9705892765305
 21
2707.49426917448
 31
0.0
  0
LINE
  5
18D86
330
18C7A
100
AcDbEntity
  8
部品1
 48
50.0
100
AcDbLine
 10
445.4705892765542
 20
3152.494269174506
 30
0.0
 11
445.4705892765559
 21
2702.494269174505
 31
0.0
  0
LINE
  5
18D87
330
18C7A
100
AcDbEntity
  8
部品1
 48
50.0
100
AcDbLine
 10
473.470589276545
 20
1448.994269174573
 30
0.0
 11
444.970589276545
 21
1420.494269174574
 31
0.0
  0
LINE
  5
18D88
330
18C7A
100
AcDbEntity
  8
部品1
100
AcDbLine
 10
471.9705892765232
 20
1392.494269174465
 30
0.0
 11
416.9705892765486
 21
1392.494269174465
 31
0.0
  0
LINE
  5
18D89
330
18C7A
100
AcDbEntity
  8
部品1
100
AcDbLine
 10
444.9705892765305
 20
1447.494269174429
 30
0.0
 11
416.9705892765469
 21
1447.494269174429
 31
0.0
  0
LINE
  5
18D8A
330
18C7A
100
AcDbEntity
  8
部品1
100
AcDbLine
 10
444.9705892765305
 20
1447.494269174465
 30
0.0
 11
416.9705892765469
 21
1447.494269174465
 31
0.0
  0
LINE
  5
18D8B
330
18C7A
100
AcDbEntity
  8
部品1
100
AcDbLine
 10
444.9705892765469
 20
1447.49426917448
 30
0.0
 11
416.9705892765469
 21
1447.49426917448
 31
0.0
  0
LINE
  5
18D8C
330
18C7A
100
AcDbEntity
  8
部品1
100
AcDbLine
 10
416.9705892765469
 20
1447.494269174429
 30
0.0
 11
416.9705892765486
 21
1392.494269174433
 31
0.0
  0
LINE
  5
18D8D
330
18C7A
100
AcDbEntity
  8
部品1
100
AcDbLine
 10
416.9705892765196
 20
3182.494269174477
 30
0.0
 11
416.9705892765486
 21
1392.494269174465
 31
0.0
  0
LINE
  5
18D8E
330
18C7A
100
AcDbEntity
  8
部品1
100
AcDbLine
 10
444.9705892765305
 20
1420.494269174556
 30
0.0
 11
444.9705892765559
 21
3154.494269174509
 31
0.0
  0
LINE
  5
18D8F
330
18C7A
100
AcDbEntity
  8
部品1
100
AcDbLine
 10
473.4705892765323
 20
2702.494269174608
 30
0.0
 11
473.470589276545
 21
1448.994269174571
 31
0.0
  0
LINE
  5
18D90
330
18C7A
100
AcDbEntity
  8
破線
 48
10.0
100
AcDbLine
 10
496.9705892765305
 20
2702.494269174608
 30
0.0
 11
496.9705892765451
 21
1472.494269174476
 31
0.0
  0
DIMENSION
  5
18D91
330
18C7A
100
AcDbEntity
  8
寸法
100
AcDbDimension
  2
*D8
 10
3886.970589276531
 20
410.7433333855515
 30
0.0
 11
2168.197775309287
 21
410.7433333855515
 31
0.0
 12
-3742.925985830444
 22
-6453.628869860112
 32
0.0
 70
   128
 71
     5
 42
3469.999999999982
  3
INABA_S40G
100
AcDbAlignedDimension
 13
416.9705892765486
 23
1392.494269174433
 33
0.0
 14
3886.970589276531
 24
1392.49426917456
 34
0.0
100
AcDbRotatedDimension
1001
ACAD
1000
DSTYLE
1002
{
1070
   341
1005
0
1002
}
  0
LINE
  5
18D92
330
18C7A
100
AcDbEntity
  8
部品1
100
AcDbLine
 10
444.9705892765559
 20
3154.494269174624
 30
0.0
 11
1509.470589276487
 21
3154.494269174626
 31
0.0
  0
LINE
  5
18D93
330
18C7A
100
AcDbEntity
  8
部品1
100
AcDbLine
 10
3886.970589276531
 20
1392.494269174596
 30
0.0
 11
3411.970589276556
 21
1392.494269174582
 31
0.0
  0
LINE
  5
18D94
330
18C7A
100
AcDbEntity
  8
部品1
100
AcDbLine
 10
416.9705892765559
 20
3182.494269174509
 30
0.0
 11
3886.970589276556
 21
3182.494269174604
 31
0.0
  0
LINE
  5
18D95
330
18C7A
100
AcDbEntity
  8
部品1
100
AcDbLine
 10
445.4705892765559
 20
2702.494269174509
 30
0.0
 11
1508.470589276487
 21
2702.494269174558
 31
0.0
  0
LINE
  5
18D96
330
18C7A
100
AcDbEntity
  8
細線
 48
50.0
100
AcDbLine
 10
2767.470589276556
 20
3152.494269174611
 30
0.0
 11
1536.470589276487
 21
2702.494269174558
 31
0.0
  0
LINE
  5
18D97
330
18C7A
100
AcDbEntity
  8
部品1
100
AcDbLine
 10
445.4705892765542
 20
3152.494269174509
 30
0.0
 11
1508.470589276485
 21
3152.494269174558
 31
0.0
  0
LINE
  5
18D98
330
18C7A
100
AcDbEntity
  8
細線
 48
50.0
100
AcDbLine
 10
2767.470589276554
 20
2702.494269174615
 30
0.0
 11
1536.470589276485
 21
3152.494269174558
 31
0.0
  0
LINE
  5
18D99
330
18C7A
100
AcDbEntity
  8
破線
 48
10.0
100
AcDbLine
 10
2126.970589276534
 20
1472.494269174502
 30
0.0
 11
1344.47058927653
 21
1472.494269174473
 31
0.0
  0
LINE
  5
18D9A
330
18C7A
100
AcDbEntity
  8
部品1
100
AcDbLine
 10
3830.470589276556
 20
1448.994269174596
 30
0.0
 11
473.4705892764487
 21
1448.994269174476
 31
0.0
  0
DIMENSION
  5
18D9B
330
18C7A
100
AcDbEntity
  8
寸法
100
AcDbDimension
  2
*D7
 10
471.970589276555
 20
3698.302488799491
 30
0.0
 11
108.4853079022819
 21
3698.302488799491
 31
0.0
 12
-3742.925985830444
 22
-6453.628869860112
 32
0.0
 70
   128
 71
     5
 42
55.00000000003456
  3
INABA_S40G
100
AcDbAlignedDimension
 13
416.9705892765205
 23
3182.494269174509
 33
0.0
 14
471.970589276555
 24
3182.494269174509
 34
0.0
100
AcDbRotatedDimension
1001
ACAD
1000
DSTYLE
1002
{
1002
}
  0
DIMENSION
  5
18D9C
330
18C7A
100
AcDbEntity
  8
寸法
100
AcDbDimension
  2
*D6
 10
4534.396935010967
 20
3127.494269174607
 30
0.0
 11
4534.396935010965
 21
3490.979550548844
 31
0.0
 12
-3742.925985830444
 22
-6453.628869860112
 32
0.0
 70
   128
 71
     5
 42
54.99999999999636
  3
INABA_S40G
100
AcDbAlignedDimension
 13
3886.970589276556
 23
3182.494269174604
 33
0.0
 14
3886.970589276556
 24
3127.494269174607
 34
0.0
 50
90.0
100
AcDbRotatedDimension
1001
ACAD
1000
DSTYLE
1002
{
1002
}
  0
DIMENSION
  5
18D9D
330
18C7A
100
AcDbEntity
  8
寸法
100
AcDbDimension
  2
*D5
 10
3886.970589276556
 20
3698.302488799589
 30
0.0
 11
4195.455870650794
 21
3698.302488799589
 31
0.0
 12
-3742.925985830444
 22
-6453.628869860112
 32
0.0
 70
   128
 71
     5
 42
55.0
  3
INABA_S40G
100
AcDbAlignedDimension
 13
3831.970589276556
 23
3182.494269174604
 33
0.0
 14
3886.970589276556
 24
3182.494269174604
 34
0.0
100
AcDbRotatedDimension
1001
ACAD
1000
DSTYLE
1002
{
1002
}
  0
DIMENSION
  5
18D9E
330
18C7A
100
AcDbEntity
  8
寸法
100
AcDbDimension
  2
*D4
 10
3831.970589276556
 20
3698.302488799607
 30
0.0
 11
2151.970589276555
 21
3698.302488799607
 31
0.0
 12
-3742.925985830444
 22
-6453.628869860112
 32
0.0
 70
   128
  1
8X420=<>
 71
     5
 42
3360.000000000001
  3
INABA_S40G
100
AcDbAlignedDimension
 13
471.970589276555
 23
3182.494269174509
 33
0.0
 14
3831.970589276556
 24
3182.494269174604
 34
0.0
100
AcDbRotatedDimension
1001
ACAD
1000
DSTYLE
1002
{
1002
}
  0
DIMENSION
  5
18D9F
330
18C7A
100
AcDbEntity
  8
寸法
100
AcDbDimension
  2
*D3
 10
4899.503876750603
 20
1392.494269174596
 30
0.0
 11
4899.503876750601
 21
2287.4942691746
 31
0.0
 12
-3742.925985830444
 22
-6453.628869860112
 32
0.0
 70
   128
 71
     5
 42
1790.000000000007
  3
INABA_S40G
100
AcDbAlignedDimension
 13
3886.970589276556
 23
3182.494269174604
 33
0.0
 14
3886.970589276531
 24
1392.494269174596
 34
0.0
 50
90.0
100
AcDbRotatedDimension
1001
ACAD
1000
DSTYLE
1002
{
1002
}
  0
ENDBLK
  5
18DA1
330
18C7A
100
AcDbEntity
  8
0
 48
50.0
100
AcDbBlockEnd
  0
BLOCK
  5
1C4CB
330
1C4CA
100
AcDbEntity
  8
0
 48
50.0
100
AcDbBlockBegin
  2
_NONE
 70
     0
 10
0.0
 20
0.0
 30
0.0
  3
_NONE
  1

  0
CIRCLE
  5
1C4CC
330
1C4CA
100
AcDbEntity
  8
0
  6
ByBlock
 62
     0
 48
50.0
100
AcDbCircle
 10
0.0
 20
0.0
 30
0.0
 40
0.25
  0
ENDBLK
  5
1C4CD
330
1C4CA
100
AcDbEntity
  8
0
 48
50.0
100
AcDbBlockEnd
  0
BLOCK
  5
2901F
330
29014
100
AcDbEntity
  8
0
 48
50.0
100
AcDbBlockBegin
  2
*D19
 70
     1
 10
0.0
 20
0.0
 30
0.0
  3
*D19
  1

  0
LINE
  5
29F04
330
29014
100
AcDbEntity
  8
寸法
 62
     0
 48
50.0
370
    -2
100
AcDbLine
 10
12738.6
 20
7185.508261603671
 30
0.0
 11
12738.6
 21
7128.514997564838
 31
0.0
  0
LINE
  5
29F05
330
29014
100
AcDbEntity
  8
寸法
 62
     0
 48
50.0
370
    -2
100
AcDbLine
 10
12618.6
 20
7174.764997564839
 30
0.0
 11
12618.6
 21
7128.514997564838
 31
0.0
  0
LINE
  5
29F06
330
29014
100
AcDbEntity
  8
寸法
 62
     0
 48
50.0
370
    -2
100
AcDbLine
 10
12618.6
 20
7188.514997564839
 30
0.0
 11
12738.6
 21
7188.514997564839
 31
0.0
  0
LINE
  5
29F07
330
29014
100
AcDbEntity
  8
寸法
 62
     0
 48
50.0
370
    -2
100
AcDbLine
 10
12738.6
 20
7188.514997564839
 30
0.0
 11
13144.7062992126
 21
7188.514997564839
 31
0.0
  0
INSERT
  5
29F08
330
29014
100
AcDbEntity
  8
寸法
 62
     0
 48
50.0
370
    -2
100
AcDbBlockReference
  2
_DOTSMALL
 10
12618.6
 20
7188.514997564839
 30
0.0
 41
100.0
 42
100.0
 43
100.0
 50
180.0
  0
INSERT
  5
29F09
330
29014
100
AcDbEntity
  8
寸法
 62
     0
 48
50.0
370
    -2
100
AcDbBlockReference
  2
_DOTSMALL
 10
12738.6
 20
7188.514997564839
 30
0.0
 41
100.0
 42
100.0
 43
100.0
  0
MTEXT
  5
29F0A
330
29014
100
AcDbEntity
  8
寸法
 62
     7
 48
50.0
100
AcDbMText
 10
13008.65905511811
 20
7288.526808588461
 30
0.0
 40
120.0
 41
0.0
 71
     5
 72
     1
  1
\A1;120
  7
STYLE1
 73
     1
 44
1.0
1001
ACAD
1000
MTEXTBEGIN
1070
    73
1070
     1
1070
    44
1040
1.0
1070
    74
1070
     0
1000
MTEXTEND
  0
POINT
  5
29F0B
330
29014
100
AcDbEntity
  8
DEFPOINTS
 62
     0
 48
50.0
100
AcDbPoint
 10
12738.6
 20
7205.508261603672
 30
0.0
  0
POINT
  5
29F0C
330
29014
100
AcDbEntity
  8
DEFPOINTS
 62
     0
 48
50.0
100
AcDbPoint
 10
12618.6
 20
7194.764997564838
 30
0.0
  0
POINT
  5
29F0D
330
29014
100
AcDbEntity
  8
DEFPOINTS
 62
     0
 48
50.0
100
AcDbPoint
 10
12618.6
 20
7188.514997564839
 30
0.0
  0
ENDBLK
  5
29020
330
29014
100
AcDbEntity
  8
0
 48
50.0
100
AcDbBlockEnd
  0
BLOCK
  5
2902C
330
29021
100
AcDbEntity
  8
0
 48
50.0
100
AcDbBlockBegin
  2
*D20
 70
     1
 10
0.0
 20
0.0
 30
0.0
  3
*D20
  1

  0
LINE
  5
29D4C
330
29021
100
AcDbEntity
  8
寸法
 62
     0
 48
50.0
370
    -2
100
AcDbLine
 10
12224.53475000041
 20
7486.352470292188
 30
0.0
 11
12105.46950000081
 21
7486.352470292188
 31
0.0
  0
LINE
  5
29D4D
330
29021
100
AcDbEntity
  8
寸法
 62
     0
 48
50.0
370
    -2
100
AcDbLine
 10
12224.53475000041
 20
7286.352470292193
 30
0.0
 11
12105.46950000081
 21
7286.352470292193
 31
0.0
  0
LINE
  5
29D4E
330
29021
100
AcDbEntity
  8
寸法
 62
     0
 48
50.0
370
    -2
100
AcDbLine
 10
12165.46950000081
 20
7286.352470292193
 30
0.0
 11
12165.46950000081
 21
7486.352470292188
 31
0.0
  0
LINE
  5
29D4F
330
29021
100
AcDbEntity
  8
寸法
 62
     0
 48
50.0
370
    -2
100
AcDbLine
 10
12165.46950000081
 20
7486.352470292188
 30
0.0
 11
12165.46950000081
 21
7922.886919111086
 31
0.0
  0
INSERT
  5
29D50
330
29021
100
AcDbEntity
  8
寸法
 62
     0
 48
50.0
370
    -2
100
AcDbBlockReference
  2
_DOTSMALL
 10
12165.46950000081
 20
7286.352470292193
 30
0.0
 41
100.0
 42
100.0
 43
100.0
 50
270.0
  0
INSERT
  5
29D51
330
29021
100
AcDbEntity
  8
寸法
 62
     0
 48
50.0
370
    -2
100
AcDbBlockReference
  2
_DOTSMALL
 10
12165.46950000081
 20
7486.352470292188
 30
0.0
 41
100.0
 42
100.0
 43
100.0
 50
90.0
  0
MTEXT
  5
29D52
330
29021
100
AcDbEntity
  8
寸法
 62
     7
 48
50.0
100
AcDbMText
 10
12065.45768897719
 20
7773.316052969355
 30
0.0
 40
120.0
 41
0.0
 71
     5
 72
     1
  1
\A1;200
  7
STYLE1
 11
0.0000000000000001
 21
1.0
 31
0.0
 73
     1
 44
1.0
1001
ACAD
1000
MTEXTBEGIN
1070
    73
1070
     1
1070
    44
1040
1.0
1070
    74
1070
     0
1000
MTEXTEND
  0
POINT
  5
29D53
330
29021
100
AcDbEntity
  8
DEFPOINTS
 62
     0
 48
50.0
100
AcDbPoint
 10
12244.53475000041
 20
7486.352470292188
 30
0.0
  0
POINT
  5
29D54
330
29021
100
AcDbEntity
  8
DEFPOINTS
 62
     0
 48
50.0
100
AcDbPoint
 10
12244.53475000041
 20
7286.352470292193
 30
0.0
  0
POINT
  5
29D55
330
29021
100
AcDbEntity
  8
DEFPOINTS
 62
     0
 48
50.0
100
AcDbPoint
 10
12165.46950000081
 20
7286.352470292193
 30
0.0
  0
ENDBLK
  5
2902D
330
29021
100
AcDbEntity
  8
0
 48
50.0
100
AcDbBlockEnd
  0
BLOCK
  5
29039
330
2902E
100
AcDbEntity
  8
0
 48
50.0
100
AcDbBlockBegin
  2
*D21
 70
     1
 10
0.0
 20
0.0
 30
0.0
  3
*D21
  1

  0
LINE
  5
29E52
330
2902E
100
AcDbEntity
  8
寸法
 62
     0
 48
50.0
370
    -2
100
AcDbLine
 10
12224.53475000041
 20
6386.352470292214
 30
0.0
 11
12105.46950000081
 21
6386.352470292214
 31
0.0
  0
LINE
  5
29E53
330
2902E
100
AcDbEntity
  8
寸法
 62
     0
 48
50.0
370
    -2
100
AcDbLine
 10
12224.53475000041
 20
6106.352470292218
 30
0.0
 11
12105.46950000081
 21
6106.352470292218
 31
0.0
  0
LINE
  5
29E54
330
2902E
100
AcDbEntity
  8
寸法
 62
     0
 48
50.0
370
    -2
100
AcDbLine
 10
12165.46950000081
 20
6386.352470292214
 30
0.0
 11
12165.46950000081
 21
6106.352470292218
 31
0.0
  0
LINE
  5
29E55
330
2902E
100
AcDbEntity
  8
寸法
 62
     0
 48
50.0
370
    -2
100
AcDbLine
 10
12165.46950000081
 20
6106.352470292218
 30
0.0
 11
12165.46950000081
 21
5669.818021473305
 31
0.0
  0
INSERT
  5
29E56
330
2902E
100
AcDbEntity
  8
寸法
 62
     0
 48
50.0
370
    -2
100
AcDbBlockReference
  2
_DOTSMALL
 10
12165.46950000081
 20
6386.352470292214
 30
0.0
 41
100.0
 42
100.0
 43
100.0
 50
90.0
  0
INSERT
  5
29E57
330
2902E
100
AcDbEntity
  8
寸法
 62
     0
 48
50.0
370
    -2
100
AcDbBlockReference
  2
_DOTSMALL
 10
12165.46950000081
 20
6106.352470292218
 30
0.0
 41
100.0
 42
100.0
 43
100.0
 50
270.0
  0
MTEXT
  5
29E58
330
2902E
100
AcDbEntity
  8
寸法
 62
     7
 48
50.0
100
AcDbMText
 10
12065.45768897719
 20
5819.38888761504
 30
0.0
 40
120.0
 41
0.0
 71
     5
 72
     1
  1
\A1;280
  7
STYLE1
 11
0.0000000000000001
 21
1.0
 31
0.0
 73
     1
 44
1.0
1001
ACAD
1000
MTEXTBEGIN
1070
    73
1070
     1
1070
    44
1040
1.0
1070
    74
1070
     0
1000
MTEXTEND
  0
POINT
  5
29E59
330
2902E
100
AcDbEntity
  8
DEFPOINTS
 62
     0
 48
50.0
100
AcDbPoint
 10
12244.53475000041
 20
6386.352470292214
 30
0.0
  0
POINT
  5
29E5A
330
2902E
100
AcDbEntity
  8
DEFPOINTS
 62
     0
 48
50.0
100
AcDbPoint
 10
12244.53475000041
 20
6106.352470292218
 30
0.0
  0
POINT
  5
29E5B
330
2902E
100
AcDbEntity
  8
DEFPOINTS
 62
     0
 48
50.0
100
AcDbPoint
 10
12165.46950000081
 20
6106.352470292218
 30
0.0
  0
ENDBLK
  5
2903A
330
2902E
100
AcDbEntity
  8
0
 48
50.0
100
AcDbBlockEnd
  0
BLOCK
  5
29047
330
2903B
100
AcDbEntity
  8
0
 48
50.0
100
AcDbBlockBegin
  2
*D22
 70
     1
 10
0.0
 20
0.0
 30
0.0
  3
*D22
  1

  0
LINE
  5
29D77
330
2903B
100
AcDbEntity
  8
寸法
 62
     0
 48
50.0
370
    -2
100
AcDbLine
 10
3688.600000000004
 20
6106.35247029219
 30
0.0
 11
2773.72190961068
 21
6106.35247029219
 31
0.0
  0
LINE
  5
29D78
330
2903B
100
AcDbEntity
  8
寸法
 62
     0
 48
50.0
370
    -2
100
AcDbLine
 10
3065.665006330079
 20
6051.35247029223
 30
0.0
 11
2773.72190961068
 21
6051.35247029223
 31
0.0
  0
LINE
  5
29D79
330
2903B
100
AcDbEntity
  8
寸法
 62
     0
 48
50.0
370
    -2
100
AcDbLine
 10
2833.72190961068
 20
6106.35247029219
 30
0.0
 11
2833.72190961068
 21
6206.352470292189
 31
0.0
  0
LINE
  5
29D7A
330
2903B
100
AcDbEntity
  8
寸法
 62
     0
 48
50.0
370
    -2
100
AcDbLine
 10
2833.72190961068
 20
6051.35247029223
 30
0.0
 11
2833.72190961068
 21
5951.35247029223
 31
0.0
  0
LINE
  5
29D7B
330
2903B
100
AcDbEntity
  8
寸法
 62
     0
 48
50.0
370
    -2
100
AcDbLine
 10
2833.72190961068
 20
6106.35247029219
 30
0.0
 11
2833.72190961068
 21
6051.35247029223
 31
0.0
  0
INSERT
  5
29D7C
330
2903B
100
AcDbEntity
  8
寸法
 62
     0
 48
50.0
370
    -2
100
AcDbBlockReference
  2
_DOTSMALL
 10
2833.72190961068
 20
6106.35247029219
 30
0.0
 41
100.0
 42
100.0
 43
100.0
 50
270.0
  0
INSERT
  5
29D7D
330
2903B
100
AcDbEntity
  8
寸法
 62
     0
 48
50.0
370
    -2
100
AcDbBlockReference
  2
_DOTSMALL
 10
2833.72190961068
 20
6051.35247029223
 30
0.0
 41
100.0
 42
100.0
 43
100.0
 50
90.0
  0
MTEXT
  5
29D7E
330
2903B
100
AcDbEntity
  8
寸法
 62
     7
 48
50.0
100
AcDbMText
 10
2733.721909610679
 20
6078.852470292211
 30
0.0
 40
120.0
 41
0.0
 71
     5
 72
     1
  1
\A1;b
  7
STYLE1
 11
0.0000000000000001
 21
1.0
 31
0.0
 73
     1
 44
1.0
1001
ACAD
1000
MTEXTBEGIN
1070
    73
1070
     1
1070
    44
1040
1.0
1070
    74
1070
     0
1000
MTEXTEND
  0
POINT
  5
29D7F
330
2903B
100
AcDbEntity
  8
DEFPOINTS
 62
     0
 48
50.0
100
AcDbPoint
 10
3708.600000000004
 20
6106.35247029219
 30
0.0
  0
POINT
  5
29D80
330
2903B
100
AcDbEntity
  8
DEFPOINTS
 62
     0
 48
50.0
100
AcDbPoint
 10
3085.665006330079
 20
6051.35247029223
 30
0.0
  0
POINT
  5
29D81
330
2903B
100
AcDbEntity
  8
DEFPOINTS
 62
     0
 48
50.0
100
AcDbPoint
 10
2833.72190961068
 20
6051.35247029223
 30
0.0
  0
ENDBLK
  5
29048
330
2903B
100
AcDbEntity
  8
0
 48
50.0
100
AcDbBlockEnd
  0
BLOCK
  5
29055
330
29049
100
AcDbEntity
  8
0
 48
50.0
100
AcDbBlockBegin
  2
*D23
 70
     1
 10
0.0
 20
0.0
 30
0.0
  3
*D23
  1

  0
LINE
  5
29D6C
330
29049
100
AcDbEntity
  8
寸法
 62
     0
 48
50.0
370
    -2
100
AcDbLine
 10
3065.665006330075
 20
7561.352470292224
 30
0.0
 11
2773.72190961068
 21
7561.352470292224
 31
0.0
  0
LINE
  5
29D6D
330
29049
100
AcDbEntity
  8
寸法
 62
     0
 48
50.0
370
    -2
100
AcDbLine
 10
3688.600000000004
 20
7486.352470292205
 30
0.0
 11
2773.72190961068
 21
7486.352470292205
 31
0.0
  0
LINE
  5
29D6E
330
29049
100
AcDbEntity
  8
寸法
 62
     0
 48
50.0
370
    -2
100
AcDbLine
 10
2833.72190961068
 20
7561.352470292224
 30
0.0
 11
2833.72190961068
 21
7661.352470292223
 31
0.0
  0
LINE
  5
29D6F
330
29049
100
AcDbEntity
  8
寸法
 62
     0
 48
50.0
370
    -2
100
AcDbLine
 10
2833.72190961068
 20
7486.352470292205
 30
0.0
 11
2833.72190961068
 21
7386.352470292205
 31
0.0
  0
LINE
  5
29D70
330
29049
100
AcDbEntity
  8
寸法
 62
     0
 48
50.0
370
    -2
100
AcDbLine
 10
2833.72190961068
 20
7561.352470292224
 30
0.0
 11
2833.72190961068
 21
7486.352470292205
 31
0.0
  0
INSERT
  5
29D71
330
29049
100
AcDbEntity
  8
寸法
 62
     0
 48
50.0
370
    -2
100
AcDbBlockReference
  2
_DOTSMALL
 10
2833.72190961068
 20
7561.352470292224
 30
0.0
 41
100.0
 42
100.0
 43
100.0
 50
270.0
  0
INSERT
  5
29D72
330
29049
100
AcDbEntity
  8
寸法
 62
     0
 48
50.0
370
    -2
100
AcDbBlockReference
  2
_DOTSMALL
 10
2833.72190961068
 20
7486.352470292205
 30
0.0
 41
100.0
 42
100.0
 43
100.0
 50
90.0
  0
MTEXT
  5
29D73
330
29049
100
AcDbEntity
  8
寸法
 62
     7
 48
50.0
100
AcDbMText
 10
2733.721909610679
 20
7523.852470292215
 30
0.0
 40
120.0
 41
0.0
 71
     5
 72
     1
  1
\A1;c
  7
STYLE1
 11
0.0000000000000001
 21
1.0
 31
0.0
 73
     1
 44
1.0
1001
ACAD
1000
MTEXTBEGIN
1070
    73
1070
     1
1070
    44
1040
1.0
1070
    74
1070
     0
1000
MTEXTEND
  0
POINT
  5
29D74
330
29049
100
AcDbEntity
  8
DEFPOINTS
 62
     0
 48
50.0
100
AcDbPoint
 10
3085.665006330075
 20
7561.352470292224
 30
0.0
  0
POINT
  5
29D75
330
29049
100
AcDbEntity
  8
DEFPOINTS
 62
     0
 48
50.0
100
AcDbPoint
 10
3708.600000000004
 20
7486.352470292205
 30
0.0
  0
POINT
  5
29D76
330
29049
100
AcDbEntity
  8
DEFPOINTS
 62
     0
 48
50.0
100
AcDbPoint
 10
2833.72190961068
 20
7486.352470292205
 30
0.0
  0
ENDBLK
  5
29056
330
29049
100
AcDbEntity
  8
0
 48
50.0
100
AcDbBlockEnd
  0
BLOCK
  5
29063
330
29057
100
AcDbEntity
  8
0
 48
50.0
100
AcDbBlockBegin
  2
*D24
 70
     1
 10
0.0
 20
0.0
 30
0.0
  3
*D24
  1

  0
LINE
  5
29D61
330
29057
100
AcDbEntity
  8
寸法
 62
     0
 48
50.0
370
    -2
100
AcDbLine
 10
3663.600000000008
 20
8232.618928386116
 30
0.0
 11
3663.600000000008
 21
8504.572792351126
 31
0.0
  0
LINE
  5
29D62
330
29057
100
AcDbEntity
  8
寸法
 62
     0
 48
50.0
370
    -2
100
AcDbLine
 10
3708.600000000004
 20
7506.352470292203
 30
0.0
 11
3708.600000000004
 21
8504.572792351126
 31
0.0
  0
LINE
  5
29D63
330
29057
100
AcDbEntity
  8
寸法
 62
     0
 48
50.0
370
    -2
100
AcDbLine
 10
3708.600000000004
 20
8444.572792351126
 30
0.0
 11
3808.600000000004
 21
8444.572792351126
 31
0.0
  0
LINE
  5
29D64
330
29057
100
AcDbEntity
  8
寸法
 62
     0
 48
50.0
370
    -2
100
AcDbLine
 10
3663.600000000008
 20
8444.572792351126
 30
0.0
 11
3326.250757595086
 21
8444.572792351126
 31
0.0
  0
LINE
  5
29D65
330
29057
100
AcDbEntity
  8
寸法
 62
     0
 48
50.0
370
    -2
100
AcDbLine
 10
3708.600000000004
 20
8444.572792351126
 30
0.0
 11
3663.600000000008
 21
8444.572792351126
 31
0.0
  0
INSERT
  5
29D66
330
29057
100
AcDbEntity
  8
寸法
 62
     0
 48
50.0
370
    -2
100
AcDbBlockReference
  2
_DOTSMALL
 10
3708.600000000004
 20
8444.572792351126
 30
0.0
 41
100.0
 42
100.0
 43
100.0
 50
180.0
  0
INSERT
  5
29D67
330
29057
100
AcDbEntity
  8
寸法
 62
     0
 48
50.0
370
    -2
100
AcDbBlockReference
  2
_DOTSMALL
 10
3663.600000000008
 20
8444.572792351126
 30
0.0
 41
100.0
 42
100.0
 43
100.0
  0
MTEXT
  5
29D68
330
29057
100
AcDbEntity
  8
寸法
 62
     7
 48
50.0
100
AcDbMText
 10
3392.425378797546
 20
8544.572792351125
 30
0.0
 40
120.0
 41
0.0
 71
     5
 72
     1
  1
\A1;a
  7
STYLE1
 73
     1
 44
1.0
1001
ACAD
1000
MTEXTBEGIN
1070
    73
1070
     1
1070
    44
1040
1.0
1070
    74
1070
     0
1000
MTEXTEND
  0
POINT
  5
29D69
330
29057
100
AcDbEntity
  8
DEFPOINTS
 62
     0
 48
50.0
100
AcDbPoint
 10
3663.600000000008
 20
8212.618928386117
 30
0.0
  0
POINT
  5
29D6A
330
29057
100
AcDbEntity
  8
DEFPOINTS
 62
     0
 48
50.0
100
AcDbPoint
 10
3708.600000000004
 20
7486.352470292205
 30
0.0
  0
POINT
  5
29D6B
330
29057
100
AcDbEntity
  8
DEFPOINTS
 62
     0
 48
50.0
100
AcDbPoint
 10
3708.600000000004
 20
8444.572792351126
 30
0.0
  0
ENDBLK
  5
29064
330
29057
100
AcDbEntity
  8
0
 48
50.0
100
AcDbBlockEnd
  0
BLOCK
  5
29071
330
29065
100
AcDbEntity
  8
0
 48
50.0
100
AcDbBlockBegin
  2
*D25
 70
     1
 10
0.0
 20
0.0
 30
0.0
  3
*D25
  1

  0
LINE
  5
29D56
330
29065
100
AcDbEntity
  8
寸法
 62
     0
 48
50.0
370
    -2
100
AcDbLine
 10
12738.6
 20
7506.352470292191
 30
0.0
 11
12738.6
 21
8504.572792351114
 31
0.0
  0
LINE
  5
29D57
330
29065
100
AcDbEntity
  8
寸法
 62
     0
 48
50.0
370
    -2
100
AcDbLine
 10
12783.6
 20
8232.618928386102
 30
0.0
 11
12783.6
 21
8504.572792351114
 31
0.0
  0
LINE
  5
29D58
330
29065
100
AcDbEntity
  8
寸法
 62
     0
 48
50.0
370
    -2
100
AcDbLine
 10
12738.6
 20
8444.572792351113
 30
0.0
 11
12638.6
 21
8444.572792351113
 31
0.0
  0
LINE
  5
29D59
330
29065
100
AcDbEntity
  8
寸法
 62
     0
 48
50.0
370
    -2
100
AcDbLine
 10
12783.6
 20
8444.572792351113
 30
0.0
 11
13120.94924240492
 21
8444.572792351113
 31
0.0
  0
LINE
  5
29D5A
330
29065
100
AcDbEntity
  8
寸法
 62
     0
 48
50.0
370
    -2
100
AcDbLine
 10
12738.6
 20
8444.572792351113
 30
0.0
 11
12783.6
 21
8444.572792351113
 31
0.0
  0
INSERT
  5
29D5B
330
29065
100
AcDbEntity
  8
寸法
 62
     0
 48
50.0
370
    -2
100
AcDbBlockReference
  2
_DOTSMALL
 10
12738.6
 20
8444.572792351113
 30
0.0
 41
100.0
 42
100.0
 43
100.0
  0
INSERT
  5
29D5C
330
29065
100
AcDbEntity
  8
寸法
 62
     0
 48
50.0
370
    -2
100
AcDbBlockReference
  2
_DOTSMALL
 10
12783.6
 20
8444.572792351113
 30
0.0
 41
100.0
 42
100.0
 43
100.0
 50
180.0
  0
MTEXT
  5
29D5D
330
29065
100
AcDbEntity
  8
寸法
 62
     7
 48
50.0
100
AcDbMText
 10
13054.77462120246
 20
8544.572792351113
 30
0.0
 40
120.0
 41
0.0
 71
     5
 72
     1
  1
\A1;a
  7
STYLE1
 73
     1
 44
1.0
1001
ACAD
1000
MTEXTBEGIN
1070
    73
1070
     1
1070
    44
1040
1.0
1070
    74
1070
     0
1000
MTEXTEND
  0
POINT
  5
29D5E
330
29065
100
AcDbEntity
  8
DEFPOINTS
 62
     0
 48
50.0
100
AcDbPoint
 10
12738.6
 20
7486.352470292192
 30
0.0
  0
POINT
  5
29D5F
330
29065
100
AcDbEntity
  8
DEFPOINTS
 62
     0
 48
50.0
100
AcDbPoint
 10
12783.6
 20
8212.618928386103
 30
0.0
  0
POINT
  5
29D60
330
29065
100
AcDbEntity
  8
DEFPOINTS
 62
     0
 48
50.0
100
AcDbPoint
 10
12783.6
 20
8444.572792351113
 30
0.0
  0
ENDBLK
  5
29072
330
29065
100
AcDbEntity
  8
0
 48
50.0
100
AcDbBlockEnd
  0
BLOCK
  5
296C9
330
296BF
100
AcDbEntity
  8
0
 48
50.0
100
AcDbBlockBegin
  2
*D26
 70
     1
 10
0.0
 20
0.0
 30
0.0
  3
*D26
  1

  0
LINE
  5
29EDC
330
296BF
100
AcDbEntity
  8
寸法
 62
     0
 48
50.0
370
    -2
100
AcDbLine
 10
8633.600000000011
 20
6903.35247029219
 30
0.0
 11
8633.600000000011
 21
8028.961286962438
 31
0.0
  0
LINE
  5
29EDD
330
296BF
100
AcDbEntity
  8
寸法
 62
     0
 48
50.0
370
    -2
100
AcDbLine
 10
7813.600000000011
 20
6903.35247029219
 30
0.0
 11
7813.600000000011
 21
8028.961286962438
 31
0.0
  0
LINE
  5
29EDE
330
296BF
100
AcDbEntity
  8
寸法
 62
     0
 48
50.0
370
    -2
100
AcDbLine
 10
8633.600000000011
 20
7968.961286962438
 30
0.0
 11
7813.600000000011
 21
7968.961286962438
 31
0.0
  0
INSERT
  5
29EDF
330
296BF
100
AcDbEntity
  8
寸法
 62
     0
 48
50.0
370
    -2
100
AcDbBlockReference
  2
_DOTSMALL
 10
8633.600000000011
 20
7968.961286962438
 30
0.0
 41
100.0
 42
100.0
 43
100.0
  0
INSERT
  5
29EE0
330
296BF
100
AcDbEntity
  8
寸法
 62
     0
 48
50.0
370
    -2
100
AcDbBlockReference
  2
_DOTSMALL
 10
7813.600000000011
 20
7968.961286962438
 30
0.0
 41
100.0
 42
100.0
 43
100.0
 50
180.0
  0
MTEXT
  5
29EE1
330
296BF
100
AcDbEntity
  8
寸法
 62
     7
 48
50.0
100
AcDbMText
 10
8223.600000000011
 20
8068.973097986059
 30
0.0
 40
120.0
 41
0.0
 71
     5
 72
     1
  1
\A1;820
  7
STYLE1
 73
     1
 44
1.0
1001
ACAD
1000
MTEXTBEGIN
1070
    73
1070
     1
1070
    44
1040
1.0
1070
    74
1070
     0
1000
MTEXTEND
  0
POINT
  5
29EE2
330
296BF
100
AcDbEntity
  8
DEFPOINTS
 62
     0
 48
50.0
100
AcDbPoint
 10
8633.600000000011
 20
6883.352470292189
 30
0.0
  0
POINT
  5
29EE3
330
296BF
100
AcDbEntity
  8
DEFPOINTS
 62
     0
 48
50.0
100
AcDbPoint
 10
7813.600000000011
 20
6883.352470292189
 30
0.0
  0
POINT
  5
29EE4
330
296BF
100
AcDbEntity
  8
DEFPOINTS
 62
     0
 48
50.0
100
AcDbPoint
 10
7813.600000000011
 20
7968.961286962438
 30
0.0
  0
ENDBLK
  5
296CA
330
296BF
100
AcDbEntity
  8
0
 48
50.0
100
AcDbBlockEnd
  0
BLOCK
  5
296D5
330
296CB
100
AcDbEntity
  8
0
 48
50.0
100
AcDbBlockBegin
  2
*D27
 70
     1
 10
0.0
 20
0.0
 30
0.0
  3
*D27
  1

  0
LINE
  5
29CEF
330
296CB
100
AcDbEntity
  8
寸法
 62
     0
 48
50.0
370
    -2
100
AcDbLine
 10
3708.600000000001
 20
7506.352470292189
 30
0.0
 11
3708.600000000001
 21
8504.572792351108
 31
0.0
  0
LINE
  5
29CF0
330
296CB
100
AcDbEntity
  8
寸法
 62
     0
 48
50.0
370
    -2
100
AcDbLine
 10
12738.6
 20
7506.352470292189
 30
0.0
 11
12738.6
 21
8504.572792351108
 31
0.0
  0
LINE
  5
29CF1
330
296CB
100
AcDbEntity
  8
寸法
 62
     0
 48
50.0
370
    -2
100
AcDbLine
 10
3708.600000000001
 20
8444.572792351108
 30
0.0
 11
12738.6
 21
8444.572792351108
 31
0.0
  0
INSERT
  5
29CF2
330
296CB
100
AcDbEntity
  8
寸法
 62
     0
 48
50.0
370
    -2
100
AcDbBlockReference
  2
_DOTSMALL
 10
3708.600000000001
 20
8444.572792351108
 30
0.0
 41
100.0
 42
100.0
 43
100.0
 50
180.0
  0
INSERT
  5
29CF3
330
296CB
100
AcDbEntity
  8
寸法
 62
     0
 48
50.0
370
    -2
100
AcDbBlockReference
  2
_DOTSMALL
 10
12738.6
 20
8444.572792351108
 30
0.0
 41
100.0
 42
100.0
 43
100.0
  0
MTEXT
  5
29CF4
330
296CB
100
AcDbEntity
  8
寸法
 62
     7
 48
50.0
100
AcDbMText
 10
8223.600000000001
 20
8544.58460337473
 30
0.0
 40
120.0
 41
0.0
 71
     5
 72
     1
  1
\A1;N X 820+10
  7
STYLE1
 73
     1
 44
1.0
1001
ACAD
1000
MTEXTBEGIN
1070
    73
1070
     1
1070
    44
1040
1.0
1070
    74
1070
     0
1000
MTEXTEND
  0
POINT
  5
29CF5
330
296CB
100
AcDbEntity
  8
DEFPOINTS
 62
     0
 48
50.0
100
AcDbPoint
 10
3708.600000000001
 20
7486.352470292189
 30
0.0
  0
POINT
  5
29CF6
330
296CB
100
AcDbEntity
  8
DEFPOINTS
 62
     0
 48
50.0
100
AcDbPoint
 10
12738.6
 20
7486.352470292189
 30
0.0
  0
POINT
  5
29CF7
330
296CB
100
AcDbEntity
  8
DEFPOINTS
 62
     0
 48
50.0
100
AcDbPoint
 10
12738.6
 20
8444.572792351108
 30
0.0
  0
ENDBLK
  5
296D6
330
296CB
100
AcDbEntity
  8
0
 48
50.0
100
AcDbBlockEnd
  0
BLOCK
  5
296E1
330
296D7
100
AcDbEntity
  8
0
 48
50.0
100
AcDbBlockBegin
  2
*D28
 70
     1
 10
0.0
 20
0.0
 30
0.0
  3
*D28
  1

  0
LINE
  5
29ED3
330
296D7
100
AcDbEntity
  8
寸法
 62
     0
 48
50.0
370
    -2
100
AcDbLine
 10
7813.600000000008
 20
6903.35247029219
 30
0.0
 11
7813.600000000008
 21
8028.961286962438
 31
0.0
  0
LINE
  5
29ED4
330
296D7
100
AcDbEntity
  8
寸法
 62
     0
 48
50.0
370
    -2
100
AcDbLine
 10
6993.600000000012
 20
6903.35247029219
 30
0.0
 11
6993.600000000012
 21
8028.961286962438
 31
0.0
  0
LINE
  5
29ED5
330
296D7
100
AcDbEntity
  8
寸法
 62
     0
 48
50.0
370
    -2
100
AcDbLine
 10
7813.600000000008
 20
7968.961286962438
 30
0.0
 11
6993.600000000012
 21
7968.961286962438
 31
0.0
  0
INSERT
  5
29ED6
330
296D7
100
AcDbEntity
  8
寸法
 62
     0
 48
50.0
370
    -2
100
AcDbBlockReference
  2
_DOTSMALL
 10
7813.600000000008
 20
7968.961286962438
 30
0.0
 41
100.0
 42
100.0
 43
100.0
  0
INSERT
  5
29ED7
330
296D7
100
AcDbEntity
  8
寸法
 62
     0
 48
50.0
370
    -2
100
AcDbBlockReference
  2
_DOTSMALL
 10
6993.600000000012
 20
7968.961286962438
 30
0.0
 41
100.0
 42
100.0
 43
100.0
 50
180.0
  0
MTEXT
  5
29ED8
330
296D7
100
AcDbEntity
  8
寸法
 62
     7
 48
50.0
100
AcDbMText
 10
7403.60000000001
 20
8068.973097986059
 30
0.0
 40
120.0
 41
0.0
 71
     5
 72
     1
  1
\A1;820
  7
STYLE1
 73
     1
 44
1.0
1001
ACAD
1000
MTEXTBEGIN
1070
    73
1070
     1
1070
    44
1040
1.0
1070
    74
1070
     0
1000
MTEXTEND
  0
POINT
  5
29ED9
330
296D7
100
AcDbEntity
  8
DEFPOINTS
 62
     0
 48
50.0
100
AcDbPoint
 10
7813.600000000008
 20
6883.352470292189
 30
0.0
  0
POINT
  5
29EDA
330
296D7
100
AcDbEntity
  8
DEFPOINTS
 62
     0
 48
50.0
100
AcDbPoint
 10
6993.600000000012
 20
6883.352470292189
 30
0.0
  0
POINT
  5
29EDB
330
296D7
100
AcDbEntity
  8
DEFPOINTS
 62
     0
 48
50.0
100
AcDbPoint
 10
6993.600000000012
 20
7968.961286962438
 30
0.0
  0
ENDBLK
  5
296E2
330
296D7
100
AcDbEntity
  8
0
 48
50.0
100
AcDbBlockEnd
  0
BLOCK
  5
296ED
330
296E3
100
AcDbEntity
  8
0
 48
50.0
100
AcDbBlockBegin
  2
*D29
 70
     1
 10
0.0
 20
0.0
 30
0.0
  3
*D29
  1

  0
LINE
  5
29ECA
330
296E3
100
AcDbEntity
  8
寸法
 62
     0
 48
50.0
370
    -2
100
AcDbLine
 10
6993.600000000012
 20
6903.35247029219
 30
0.0
 11
6993.600000000012
 21
8028.961286962438
 31
0.0
  0
LINE
  5
29ECB
330
296E3
100
AcDbEntity
  8
寸法
 62
     0
 48
50.0
370
    -2
100
AcDbLine
 10
6173.600000000011
 20
6903.35247029219
 30
0.0
 11
6173.600000000011
 21
8028.961286962438
 31
0.0
  0
LINE
  5
29ECC
330
296E3
100
AcDbEntity
  8
寸法
 62
     0
 48
50.0
370
    -2
100
AcDbLine
 10
6993.600000000012
 20
7968.961286962438
 30
0.0
 11
6173.600000000011
 21
7968.961286962438
 31
0.0
  0
INSERT
  5
29ECD
330
296E3
100
AcDbEntity
  8
寸法
 62
     0
 48
50.0
370
    -2
100
AcDbBlockReference
  2
_DOTSMALL
 10
6993.600000000012
 20
7968.961286962438
 30
0.0
 41
100.0
 42
100.0
 43
100.0
  0
INSERT
  5
29ECE
330
296E3
100
AcDbEntity
  8
寸法
 62
     0
 48
50.0
370
    -2
100
AcDbBlockReference
  2
_DOTSMALL
 10
6173.600000000011
 20
7968.961286962438
 30
0.0
 41
100.0
 42
100.0
 43
100.0
 50
180.0
  0
MTEXT
  5
29ECF
330
296E3
100
AcDbEntity
  8
寸法
 62
     7
 48
50.0
100
AcDbMText
 10
6583.600000000011
 20
8068.973097986059
 30
0.0
 40
120.0
 41
0.0
 71
     5
 72
     1
  1
\A1;820
  7
STYLE1
 73
     1
 44
1.0
1001
ACAD
1000
MTEXTBEGIN
1070
    73
1070
     1
1070
    44
1040
1.0
1070
    74
1070
     0
1000
MTEXTEND
  0
POINT
  5
29ED0
330
296E3
100
AcDbEntity
  8
DEFPOINTS
 62
     0
 48
50.0
100
AcDbPoint
 10
6993.600000000012
 20
6883.352470292189
 30
0.0
  0
POINT
  5
29ED1
330
296E3
100
AcDbEntity
  8
DEFPOINTS
 62
     0
 48
50.0
100
AcDbPoint
 10
6173.600000000011
 20
6883.352470292189
 30
0.0
  0
POINT
  5
29ED2
330
296E3
100
AcDbEntity
  8
DEFPOINTS
 62
     0
 48
50.0
100
AcDbPoint
 10
6173.600000000011
 20
7968.961286962438
 30
0.0
  0
ENDBLK
  5
296EE
330
296E3
100
AcDbEntity
  8
0
 48
50.0
100
AcDbBlockEnd
  0
BLOCK
  5
296F9
330
296EF
100
AcDbEntity
  8
0
 48
50.0
100
AcDbBlockBegin
  2
*D30
 70
     1
 10
0.0
 20
0.0
 30
0.0
  3
*D30
  1

  0
LINE
  5
29EE5
330
296EF
100
AcDbEntity
  8
寸法
 62
     0
 48
50.0
370
    -2
100
AcDbLine
 10
4463.600000000007
 20
6833.352470292189
 30
0.0
 11
4131.285990614304
 21
6833.352470292189
 31
0.0
  0
LINE
  5
29EE6
330
296EF
100
AcDbEntity
  8
寸法
 62
     0
 48
50.0
370
    -2
100
AcDbLine
 10
4262.765475140901
 20
7486.352470292189
 30
0.0
 11
4131.285990614304
 21
7486.352470292189
 31
0.0
  0
LINE
  5
29EE7
330
296EF
100
AcDbEntity
  8
寸法
 62
     0
 48
50.0
370
    -2
100
AcDbLine
 10
4191.285990614304
 20
6833.352470292189
 30
0.0
 11
4191.285990614304
 21
7486.352470292189
 31
0.0
  0
INSERT
  5
29EE8
330
296EF
100
AcDbEntity
  8
寸法
 62
     0
 48
50.0
370
    -2
100
AcDbBlockReference
  2
_DOTSMALL
 10
4191.285990614304
 20
6833.352470292189
 30
0.0
 41
100.0
 42
100.0
 43
100.0
 50
270.0
  0
INSERT
  5
29EE9
330
296EF
100
AcDbEntity
  8
寸法
 62
     0
 48
50.0
370
    -2
100
AcDbBlockReference
  2
_DOTSMALL
 10
4191.285990614304
 20
7486.352470292189
 30
0.0
 41
100.0
 42
100.0
 43
100.0
 50
90.0
  0
MTEXT
  5
29EEA
330
296EF
100
AcDbEntity
  8
寸法
 62
     7
 48
50.0
100
AcDbMText
 10
4091.285990614302
 20
7099.841747520251
 30
0.0
 40
120.0
 41
0.0
 71
     5
 72
     1
  1
\A1;653
  7
STYLE1
 11
0.0000000000000001
 21
1.0
 31
0.0
 73
     1
 44
1.0
1001
ACAD
1000
MTEXTBEGIN
1070
    73
1070
     1
1070
    44
1040
1.0
1070
    74
1070
     0
1000
MTEXTEND
  0
POINT
  5
29EEB
330
296EF
100
AcDbEntity
  8
DEFPOINTS
 62
     0
 48
50.0
100
AcDbPoint
 10
4483.600000000008
 20
6833.352470292189
 30
0.0
  0
POINT
  5
29EEC
330
296EF
100
AcDbEntity
  8
DEFPOINTS
 62
     0
 48
50.0
100
AcDbPoint
 10
4282.765475140901
 20
7486.352470292189
 30
0.0
  0
POINT
  5
29EED
330
296EF
100
AcDbEntity
  8
DEFPOINTS
 62
     0
 48
50.0
100
AcDbPoint
 10
4191.285990614304
 20
7486.352470292189
 30
0.0
  0
ENDBLK
  5
296FA
330
296EF
100
AcDbEntity
  8
0
 48
50.0
100
AcDbBlockEnd
  0
BLOCK
  5
29704
330
296FB
100
AcDbEntity
  8
0
 48
50.0
100
AcDbBlockBegin
  2
*D31
 70
     1
 10
0.0
 20
0.0
 30
0.0
  3
*D31
  1

  0
LINE
  5
29EB8
330
296FB
100
AcDbEntity
  8
寸法
 62
     0
 48
50.0
370
    -2
100
AcDbLine
 10
5353.600000000011
 20
6903.35247029219
 30
0.0
 11
5353.600000000011
 21
8028.961286962438
 31
0.0
  0
LINE
  5
29EB9
330
296FB
100
AcDbEntity
  8
寸法
 62
     0
 48
50.0
370
    -2
100
AcDbLine
 10
4533.600000000007
 20
6903.35247029219
 30
0.0
 11
4533.600000000007
 21
8028.961286962438
 31
0.0
  0
LINE
  5
29EBA
330
296FB
100
AcDbEntity
  8
寸法
 62
     0
 48
50.0
370
    -2
100
AcDbLine
 10
5353.600000000011
 20
7968.961286962438
 30
0.0
 11
4533.600000000007
 21
7968.961286962438
 31
0.0
  0
INSERT
  5
29EBB
330
296FB
100
AcDbEntity
  8
寸法
 62
     0
 48
50.0
370
    -2
100
AcDbBlockReference
  2
_DOTSMALL
 10
5353.600000000011
 20
7968.961286962438
 30
0.0
 41
100.0
 42
100.0
 43
100.0
  0
INSERT
  5
29EBC
330
296FB
100
AcDbEntity
  8
寸法
 62
     0
 48
50.0
370
    -2
100
AcDbBlockReference
  2
_DOTSMALL
 10
4533.600000000007
 20
7968.961286962438
 30
0.0
 41
100.0
 42
100.0
 43
100.0
 50
180.0
  0
MTEXT
  5
29EBD
330
296FB
100
AcDbEntity
  8
寸法
 62
     7
 48
50.0
100
AcDbMText
 10
4943.600000000009
 20
8068.973097986059
 30
0.0
 40
120.0
 41
0.0
 71
     5
 72
     1
  1
\A1;820
  7
STYLE1
 73
     1
 44
1.0
1001
ACAD
1000
MTEXTBEGIN
1070
    73
1070
     1
1070
    44
1040
1.0
1070
    74
1070
     0
1000
MTEXTEND
  0
POINT
  5
29EBE
330
296FB
100
AcDbEntity
  8
DEFPOINTS
 62
     0
 48
50.0
100
AcDbPoint
 10
5353.600000000011
 20
6883.352470292189
 30
0.0
  0
POINT
  5
29EBF
330
296FB
100
AcDbEntity
  8
DEFPOINTS
 62
     0
 48
50.0
100
AcDbPoint
 10
4533.600000000007
 20
6883.352470292189
 30
0.0
  0
POINT
  5
29EC0
330
296FB
100
AcDbEntity
  8
DEFPOINTS
 62
     0
 48
50.0
100
AcDbPoint
 10
4533.600000000007
 20
7968.961286962438
 30
0.0
  0
ENDBLK
  5
29705
330
296FB
100
AcDbEntity
  8
0
 48
50.0
100
AcDbBlockEnd
  0
BLOCK
  5
29710
330
29706
100
AcDbEntity
  8
0
 48
50.0
100
AcDbBlockBegin
  2
*D32
 70
     1
 10
0.0
 20
0.0
 30
0.0
  3
*D32
  1

  0
LINE
  5
29EAF
330
29706
100
AcDbEntity
  8
寸法
 62
     0
 48
50.0
370
    -2
100
AcDbLine
 10
4533.600000000007
 20
6903.35247029219
 30
0.0
 11
4533.600000000007
 21
8028.961286962438
 31
0.0
  0
LINE
  5
29EB0
330
29706
100
AcDbEntity
  8
寸法
 62
     0
 48
50.0
370
    -2
100
AcDbLine
 10
3708.600000000001
 20
7506.352470292189
 30
0.0
 11
3708.600000000001
 21
8028.961286962438
 31
0.0
  0
LINE
  5
29EB1
330
29706
100
AcDbEntity
  8
寸法
 62
     0
 48
50.0
370
    -2
100
AcDbLine
 10
4533.600000000007
 20
7968.961286962438
 30
0.0
 11
3708.600000000001
 21
7968.961286962438
 31
0.0
  0
INSERT
  5
29EB2
330
29706
100
AcDbEntity
  8
寸法
 62
     0
 48
50.0
370
    -2
100
AcDbBlockReference
  2
_DOTSMALL
 10
4533.600000000007
 20
7968.961286962438
 30
0.0
 41
100.0
 42
100.0
 43
100.0
  0
INSERT
  5
29EB3
330
29706
100
AcDbEntity
  8
寸法
 62
     0
 48
50.0
370
    -2
100
AcDbBlockReference
  2
_DOTSMALL
 10
3708.600000000001
 20
7968.961286962438
 30
0.0
 41
100.0
 42
100.0
 43
100.0
 50
180.0
  0
MTEXT
  5
29EB4
330
29706
100
AcDbEntity
  8
寸法
 62
     7
 48
50.0
100
AcDbMText
 10
4121.100000000004
 20
8068.973097986059
 30
0.0
 40
120.0
 41
0.0
 71
     5
 72
     1
  1
\A1;825
  7
STYLE1
 73
     1
 44
1.0
1001
ACAD
1000
MTEXTBEGIN
1070
    73
1070
     1
1070
    44
1040
1.0
1070
    74
1070
     0
1000
MTEXTEND
  0
POINT
  5
29EB5
330
29706
100
AcDbEntity
  8
DEFPOINTS
 62
     0
 48
50.0
100
AcDbPoint
 10
4533.600000000007
 20
6883.352470292189
 30
0.0
  0
POINT
  5
29EB6
330
29706
100
AcDbEntity
  8
DEFPOINTS
 62
     0
 48
50.0
100
AcDbPoint
 10
3708.600000000001
 20
7486.352470292189
 30
0.0
  0
POINT
  5
29EB7
330
29706
100
AcDbEntity
  8
DEFPOINTS
 62
     0
 48
50.0
100
AcDbPoint
 10
3708.600000000001
 20
7968.961286962438
 30
0.0
  0
ENDBLK
  5
29711
330
29706
100
AcDbEntity
  8
0
 48
50.0
100
AcDbBlockEnd
  0
BLOCK
  5
2971B
330
29712
100
AcDbEntity
  8
0
 48
50.0
100
AcDbBlockBegin
  2
*D33
 70
     1
 10
0.0
 20
0.0
 30
0.0
  3
*D33
  1

  0
LINE
  5
29EA6
330
29712
100
AcDbEntity
  8
寸法
 62
     0
 48
50.0
370
    -2
100
AcDbLine
 10
6173.600000000011
 20
6903.35247029219
 30
0.0
 11
6173.600000000011
 21
8028.961286962438
 31
0.0
  0
LINE
  5
29EA7
330
29712
100
AcDbEntity
  8
寸法
 62
     0
 48
50.0
370
    -2
100
AcDbLine
 10
5353.600000000011
 20
6903.35247029219
 30
0.0
 11
5353.600000000011
 21
8028.961286962438
 31
0.0
  0
LINE
  5
29EA8
330
29712
100
AcDbEntity
  8
寸法
 62
     0
 48
50.0
370
    -2
100
AcDbLine
 10
6173.600000000011
 20
7968.961286962438
 30
0.0
 11
5353.600000000011
 21
7968.961286962438
 31
0.0
  0
INSERT
  5
29EA9
330
29712
100
AcDbEntity
  8
寸法
 62
     0
 48
50.0
370
    -2
100
AcDbBlockReference
  2
_DOTSMALL
 10
6173.600000000011
 20
7968.961286962438
 30
0.0
 41
100.0
 42
100.0
 43
100.0
  0
INSERT
  5
29EAA
330
29712
100
AcDbEntity
  8
寸法
 62
     0
 48
50.0
370
    -2
100
AcDbBlockReference
  2
_DOTSMALL
 10
5353.600000000011
 20
7968.961286962438
 30
0.0
 41
100.0
 42
100.0
 43
100.0
 50
180.0
  0
MTEXT
  5
29EAB
330
29712
100
AcDbEntity
  8
寸法
 62
     7
 48
50.0
100
AcDbMText
 10
5763.600000000011
 20
8068.973097986059
 30
0.0
 40
120.0
 41
0.0
 71
     5
 72
     1
  1
\A1;820
  7
STYLE1
 73
     1
 44
1.0
1001
ACAD
1000
MTEXTBEGIN
1070
    73
1070
     1
1070
    44
1040
1.0
1070
    74
1070
     0
1000
MTEXTEND
  0
POINT
  5
29EAC
330
29712
100
AcDbEntity
  8
DEFPOINTS
 62
     0
 48
50.0
100
AcDbPoint
 10
6173.600000000011
 20
6883.352470292189
 30
0.0
  0
POINT
  5
29EAD
330
29712
100
AcDbEntity
  8
DEFPOINTS
 62
     0
 48
50.0
100
AcDbPoint
 10
5353.600000000011
 20
6883.352470292189
 30
0.0
  0
POINT
  5
29EAE
330
29712
100
AcDbEntity
  8
DEFPOINTS
 62
     0
 48
50.0
100
AcDbPoint
 10
5353.600000000011
 20
7968.961286962438
 30
0.0
  0
ENDBLK
  5
2971C
330
29712
100
AcDbEntity
  8
0
 48
50.0
100
AcDbBlockEnd
  0
BLOCK
  5
29727
330
2971D
100
AcDbEntity
  8
0
 48
50.0
100
AcDbBlockBegin
  2
*D34
 70
     1
 10
0.0
 20
0.0
 30
0.0
  3
*D34
  1

  0
LINE
  5
29D1D
330
2971D
100
AcDbEntity
  8
寸法
 62
     0
 48
50.0
370
    -2
100
AcDbLine
 10
3688.6
 20
7486.352470292189
 30
0.0
 11
2773.721909610674
 21
7486.352470292189
 31
0.0
  0
LINE
  5
29D1E
330
2971D
100
AcDbEntity
  8
寸法
 62
     0
 48
50.0
370
    -2
100
AcDbLine
 10
3688.6
 20
6106.35247029219
 30
0.0
 11
2773.721909610674
 21
6106.35247029219
 31
0.0
  0
LINE
  5
29D1F
330
2971D
100
AcDbEntity
  8
寸法
 62
     0
 48
50.0
370
    -2
100
AcDbLine
 10
2833.721909610675
 20
7486.352470292189
 30
0.0
 11
2833.721909610673
 21
6106.35247029219
 31
0.0
  0
INSERT
  5
29D20
330
2971D
100
AcDbEntity
  8
寸法
 62
     0
 48
50.0
370
    -2
100
AcDbBlockReference
  2
_DOTSMALL
 10
2833.721909610675
 20
7486.352470292189
 30
0.0
 41
100.0
 42
100.0
 43
100.0
 50
90.0
  0
INSERT
  5
29D21
330
2971D
100
AcDbEntity
  8
寸法
 62
     0
 48
50.0
370
    -2
100
AcDbBlockReference
  2
_DOTSMALL
 10
2833.721909610673
 20
6106.35247029219
 30
0.0
 41
100.0
 42
100.0
 43
100.0
 50
270.0
  0
MTEXT
  5
29D22
330
2971D
100
AcDbEntity
  8
寸法
 62
     7
 48
50.0
100
AcDbMText
 10
2733.721909610673
 20
6833.85247029219
 30
0.0
 40
120.0
 41
0.0
 71
     5
 72
     1
  1
\A1;1380
  7
STYLE1
 11
0.0000000000000001
 21
1.0
 31
0.0
 73
     1
 44
1.0
1001
ACAD
1000
MTEXTBEGIN
1070
    73
1070
     1
1070
    44
1040
1.0
1070
    74
1070
     0
1000
MTEXTEND
  0
POINT
  5
29D23
330
2971D
100
AcDbEntity
  8
DEFPOINTS
 62
     0
 48
50.0
100
AcDbPoint
 10
3708.600000000001
 20
7486.352470292189
 30
0.0
  0
POINT
  5
29D24
330
2971D
100
AcDbEntity
  8
DEFPOINTS
 62
     0
 48
50.0
100
AcDbPoint
 10
3708.600000000001
 20
6106.35247029219
 30
0.0
  0
POINT
  5
29D25
330
2971D
100
AcDbEntity
  8
DEFPOINTS
 62
     0
 48
50.0
100
AcDbPoint
 10
2833.721909610673
 20
6106.35247029219
 30
0.0
  0
ENDBLK
  5
29728
330
2971D
100
AcDbEntity
  8
0
 48
50.0
100
AcDbBlockEnd
  0
BLOCK
  5
29733
330
29729
100
AcDbEntity
  8
0
 48
50.0
100
AcDbBlockBegin
  2
*D35
 70
     1
 10
0.0
 20
0.0
 30
0.0
  3
*D35
  1

  0
LINE
  5
29DA6
330
29729
100
AcDbEntity
  8
寸法
 62
     0
 48
50.0
370
    -2
100
AcDbLine
 10
3761.600000000001
 20
7363.35247029219
 30
0.0
 11
3025.665006330072
 21
7363.35247029219
 31
0.0
  0
LINE
  5
29DA7
330
29729
100
AcDbEntity
  8
寸法
 62
     0
 48
50.0
370
    -2
100
AcDbLine
 10
3761.600000000008
 20
6304.352470292194
 30
0.0
 11
3025.665006330072
 21
6304.352470292194
 31
0.0
  0
LINE
  5
29DA8
330
29729
100
AcDbEntity
  8
寸法
 62
     0
 48
50.0
370
    -2
100
AcDbLine
 10
3085.665006330073
 20
7363.35247029219
 30
0.0
 11
3085.665006330073
 21
6304.352470292194
 31
0.0
  0
INSERT
  5
29DA9
330
29729
100
AcDbEntity
  8
寸法
 62
     0
 48
50.0
370
    -2
100
AcDbBlockReference
  2
_DOTSMALL
 10
3085.665006330073
 20
7363.35247029219
 30
0.0
 41
100.0
 42
100.0
 43
100.0
 50
90.0
  0
INSERT
  5
29DAA
330
29729
100
AcDbEntity
  8
寸法
 62
     0
 48
50.0
370
    -2
100
AcDbBlockReference
  2
_DOTSMALL
 10
3085.665006330073
 20
6304.352470292194
 30
0.0
 41
100.0
 42
100.0
 43
100.0
 50
270.0
  0
MTEXT
  5
29DAB
330
29729
100
AcDbEntity
  8
寸法
 62
     7
 48
50.0
100
AcDbMText
 10
2985.665006330071
 20
6833.85247029219
 30
0.0
 40
120.0
 41
0.0
 71
     5
 72
     1
  1
\A1;1059
  7
STYLE1
 11
0.0000000000000001
 21
1.0
 31
0.0
 73
     1
 44
1.0
1001
ACAD
1000
MTEXTBEGIN
1070
    73
1070
     1
1070
    44
1040
1.0
1070
    74
1070
     0
1000
MTEXTEND
  0
POINT
  5
29DAC
330
29729
100
AcDbEntity
  8
DEFPOINTS
 62
     0
 48
50.0
100
AcDbPoint
 10
3781.6
 20
7363.35247029219
 30
0.0
  0
POINT
  5
29DAD
330
29729
100
AcDbEntity
  8
DEFPOINTS
 62
     0
 48
50.0
100
AcDbPoint
 10
3781.600000000008
 20
6304.352470292194
 30
0.0
  0
POINT
  5
29DAE
330
29729
100
AcDbEntity
  8
DEFPOINTS
 62
     0
 48
50.0
100
AcDbPoint
 10
3085.665006330073
 20
6304.352470292194
 30
0.0
  0
ENDBLK
  5
29734
330
29729
100
AcDbEntity
  8
0
 48
50.0
100
AcDbBlockEnd
  0
BLOCK
  5
29758
330
2974E
100
AcDbEntity
  8
0
 48
50.0
100
AcDbBlockBegin
  2
*D36
 70
     1
 10
0.0
 20
0.0
 30
0.0
  3
*D36
  1

  0
LINE
  5
29D01
330
2974E
100
AcDbEntity
  8
寸法
 62
     0
 48
50.0
370
    -2
100
AcDbLine
 10
3688.600000000004
 20
6106.352470292186
 30
0.0
 11
3535.512673767883
 21
6106.352470292186
 31
0.0
  0
LINE
  5
29D02
330
2974E
100
AcDbEntity
  8
寸法
 62
     0
 48
50.0
370
    -2
100
AcDbLine
 10
4044.325326928809
 20
5386.352470292186
 30
0.0
 11
3535.512673767883
 21
5386.352470292186
 31
0.0
  0
LINE
  5
29D03
330
2974E
100
AcDbEntity
  8
寸法
 62
     0
 48
50.0
370
    -2
100
AcDbLine
 10
3595.512673767883
 20
6106.352470292186
 30
0.0
 11
3595.512673767883
 21
5386.352470292186
 31
0.0
  0
INSERT
  5
29D04
330
2974E
100
AcDbEntity
  8
寸法
 62
     0
 48
50.0
370
    -2
100
AcDbBlockReference
  2
_DOTSMALL
 10
3595.512673767883
 20
6106.352470292186
 30
0.0
 41
100.0
 42
100.0
 43
100.0
 50
90.0
  0
INSERT
  5
29D05
330
2974E
100
AcDbEntity
  8
寸法
 62
     0
 48
50.0
370
    -2
100
AcDbBlockReference
  2
_DOTSMALL
 10
3595.512673767883
 20
5386.352470292186
 30
0.0
 41
100.0
 42
100.0
 43
100.0
 50
270.0
  0
MTEXT
  5
29D06
330
2974E
100
AcDbEntity
  8
寸法
 62
     7
 48
50.0
100
AcDbMText
 10
3495.50086274426
 20
5746.352470292187
 30
0.0
 40
120.0
 41
0.0
 71
     5
 72
     1
  1
\A1;扉の出720
  7
STYLE1
 11
0.0000000000000001
 21
1.0
 31
0.0
 73
     1
 44
1.0
1001
ACAD
1000
MTEXTBEGIN
1070
    73
1070
     1
1070
    44
1040
1.0
1070
    74
1070
     0
1000
MTEXTEND
  0
POINT
  5
29D07
330
2974E
100
AcDbEntity
  8
DEFPOINTS
 62
     0
 48
50.0
100
AcDbPoint
 10
3708.600000000004
 20
6106.352470292186
 30
0.0
  0
POINT
  5
29D08
330
2974E
100
AcDbEntity
  8
DEFPOINTS
 62
     0
 48
50.0
100
AcDbPoint
 10
4064.325326928808
 20
5386.352470292186
 30
0.0
  0
POINT
  5
29D09
330
2974E
100
AcDbEntity
  8
DEFPOINTS
 62
     0
 48
50.0
100
AcDbPoint
 10
3595.512673767883
 20
5386.352470292186
 30
0.0
  0
ENDBLK
  5
29759
330
2974E
100
AcDbEntity
  8
0
 48
50.0
100
AcDbBlockEnd
  0
BLOCK
  5
29765
330
2975A
100
AcDbEntity
  8
0
 48
50.0
100
AcDbBlockBegin
  2
*D37
 70
     1
 10
0.0
 20
0.0
 30
0.0
  3
*D37
  1

  0
LINE
  5
29D9C
330
2975A
100
AcDbEntity
  8
寸法
 62
     0
 48
50.0
370
    -2
100
AcDbLine
 10
3761.600000000008
 20
6304.352470292194
 30
0.0
 11
3025.665006330072
 21
6304.352470292194
 31
0.0
  0
LINE
  5
29D9D
330
2975A
100
AcDbEntity
  8
寸法
 62
     0
 48
50.0
370
    -2
100
AcDbLine
 10
3688.6
 20
6106.35247029219
 30
0.0
 11
3025.665006330072
 21
6106.35247029219
 31
0.0
  0
LINE
  5
29D9E
330
2975A
100
AcDbEntity
  8
寸法
 62
     0
 48
50.0
370
    -2
100
AcDbLine
 10
3085.665006330073
 20
6304.352470292194
 30
0.0
 11
3085.665006330073
 21
6106.35247029219
 31
0.0
  0
LINE
  5
29D9F
330
2975A
100
AcDbEntity
  8
寸法
 62
     0
 48
50.0
370
    -2
100
AcDbLine
 10
3085.665006330073
 20
6106.35247029219
 30
0.0
 11
3085.665006330073
 21
5634.611861619941
 31
0.0
  0
INSERT
  5
29DA0
330
2975A
100
AcDbEntity
  8
寸法
 62
     0
 48
50.0
370
    -2
100
AcDbBlockReference
  2
_DOTSMALL
 10
3085.665006330073
 20
6304.352470292194
 30
0.0
 41
100.0
 42
100.0
 43
100.0
 50
90.0
  0
INSERT
  5
29DA1
330
2975A
100
AcDbEntity
  8
寸法
 62
     0
 48
50.0
370
    -2
100
AcDbBlockReference
  2
_DOTSMALL
 10
3085.665006330073
 20
6106.35247029219
 30
0.0
 41
100.0
 42
100.0
 43
100.0
 50
270.0
  0
MTEXT
  5
29DA2
330
2975A
100
AcDbEntity
  8
寸法
 62
     7
 48
50.0
100
AcDbMText
 10
2985.665006330071
 20
5770.821521449597
 30
0.0
 40
120.0
 41
0.0
 71
     5
 72
     1
  1
\A1;198
  7
STYLE1
 11
0.0000000000000001
 21
1.0
 31
0.0
 73
     1
 44
1.0
1001
ACAD
1000
MTEXTBEGIN
1070
    73
1070
     1
1070
    44
1040
1.0
1070
    74
1070
     0
1000
MTEXTEND
  0
POINT
  5
29DA3
330
2975A
100
AcDbEntity
  8
DEFPOINTS
 62
     0
 48
50.0
100
AcDbPoint
 10
3781.600000000008
 20
6304.352470292194
 30
0.0
  0
POINT
  5
29DA4
330
2975A
100
AcDbEntity
  8
DEFPOINTS
 62
     0
 48
50.0
100
AcDbPoint
 10
3708.600000000001
 20
6106.35247029219
 30
0.0
  0
POINT
  5
29DA5
330
2975A
100
AcDbEntity
  8
DEFPOINTS
 62
     0
 48
50.0
100
AcDbPoint
 10
3085.665006330073
 20
6106.35247029219
 30
0.0
  0
ENDBLK
  5
29766
330
2975A
100
AcDbEntity
  8
0
 48
50.0
100
AcDbBlockEnd
  0
BLOCK
  5
29771
330
29767
100
AcDbEntity
  8
0
 48
50.0
100
AcDbBlockBegin
  2
*D38
 70
     1
 10
0.0
 20
0.0
 30
0.0
  3
*D38
  1

  0
LINE
  5
29E9D
330
29767
100
AcDbEntity
  8
寸法
 62
     0
 48
50.0
370
    -2
100
AcDbLine
 10
4262.765475140901
 20
6106.3524702922
 30
0.0
 11
4131.2859906143
 21
6106.3524702922
 31
0.0
  0
LINE
  5
29E9E
330
29767
100
AcDbEntity
  8
寸法
 62
     0
 48
50.0
370
    -2
100
AcDbLine
 10
4463.600000000007
 20
6833.352470292189
 30
0.0
 11
4131.285990614302
 21
6833.352470292189
 31
0.0
  0
LINE
  5
29E9F
330
29767
100
AcDbEntity
  8
寸法
 62
     0
 48
50.0
370
    -2
100
AcDbLine
 10
4191.285990614301
 20
6106.3524702922
 30
0.0
 11
4191.285990614302
 21
6833.352470292189
 31
0.0
  0
INSERT
  5
29EA0
330
29767
100
AcDbEntity
  8
寸法
 62
     0
 48
50.0
370
    -2
100
AcDbBlockReference
  2
_DOTSMALL
 10
4191.285990614301
 20
6106.3524702922
 30
0.0
 41
100.0
 42
100.0
 43
100.0
 50
270.0
  0
INSERT
  5
29EA1
330
29767
100
AcDbEntity
  8
寸法
 62
     0
 48
50.0
370
    -2
100
AcDbBlockReference
  2
_DOTSMALL
 10
4191.285990614302
 20
6833.352470292189
 30
0.0
 41
100.0
 42
100.0
 43
100.0
 50
90.0
  0
MTEXT
  5
29EA2
330
29767
100
AcDbEntity
  8
寸法
 62
     7
 48
50.0
100
AcDbMText
 10
4091.274179590679
 20
6548.35247029219
 30
0.0
 40
120.0
 41
0.0
 71
     5
 72
     1
  1
\A1;727
  7
STYLE1
 11
0.0000000000000001
 21
1.0
 31
0.0
 73
     1
 44
1.0
1001
ACAD
1000
MTEXTBEGIN
1070
    73
1070
     1
1070
    44
1040
1.0
1070
    74
1070
     0
1000
MTEXTEND
  0
POINT
  5
29EA3
330
29767
100
AcDbEntity
  8
DEFPOINTS
 62
     0
 48
50.0
100
AcDbPoint
 10
4282.765475140901
 20
6106.3524702922
 30
0.0
  0
POINT
  5
29EA4
330
29767
100
AcDbEntity
  8
DEFPOINTS
 62
     0
 48
50.0
100
AcDbPoint
 10
4483.600000000008
 20
6833.352470292189
 30
0.0
  0
POINT
  5
29EA5
330
29767
100
AcDbEntity
  8
DEFPOINTS
 62
     0
 48
50.0
100
AcDbPoint
 10
4191.285990614302
 20
6833.352470292189
 30
0.0
  0
ENDBLK
  5
29772
330
29767
100
AcDbEntity
  8
0
 48
50.0
100
AcDbBlockEnd
  0
BLOCK
  5
2977C
330
29773
100
AcDbEntity
  8
0
 48
50.0
100
AcDbBlockBegin
  2
*D39
 70
     1
 10
0.0
 20
0.0
 30
0.0
  3
*D39
  1

  0
LINE
  5
29CB9
330
29773
100
AcDbEntity
  8
寸法
 62
     0
 48
50.0
370
    -2
100
AcDbLine
 10
6055.600000000004
 20
7433.352470292189
 30
0.0
 11
6055.600000000004
 21
8272.6189283861
 31
0.0
  0
LINE
  5
29CBA
330
29773
100
AcDbEntity
  8
寸法
 62
     0
 48
50.0
370
    -2
100
AcDbLine
 10
3831.6
 20
7433.352470292189
 30
0.0
 11
3831.6
 21
8272.6189283861
 31
0.0
  0
LINE
  5
29CBB
330
29773
100
AcDbEntity
  8
寸法
 62
     0
 48
50.0
370
    -2
100
AcDbLine
 10
6055.600000000004
 20
8212.618928386101
 30
0.0
 11
3831.6
 21
8212.618928386101
 31
0.0
  0
INSERT
  5
29CBC
330
29773
100
AcDbEntity
  8
寸法
 62
     0
 48
50.0
370
    -2
100
AcDbBlockReference
  2
_DOTSMALL
 10
6055.600000000004
 20
8212.618928386101
 30
0.0
 41
100.0
 42
100.0
 43
100.0
  0
INSERT
  5
29CBD
330
29773
100
AcDbEntity
  8
寸法
 62
     0
 48
50.0
370
    -2
100
AcDbBlockReference
  2
_DOTSMALL
 10
3831.6
 20
8212.618928386101
 30
0.0
 41
100.0
 42
100.0
 43
100.0
 50
180.0
  0
MTEXT
  5
29CBE
330
29773
100
AcDbEntity
  8
寸法
 62
     7
 48
50.0
100
AcDbMText
 10
4943.600000000002
 20
8312.630739409723
 30
0.0
 40
120.0
 41
0.0
 71
     5
 72
     1
  1
\A1;2224
  7
STYLE1
 73
     1
 44
1.0
1001
ACAD
1000
MTEXTBEGIN
1070
    73
1070
     1
1070
    44
1040
1.0
1070
    74
1070
     0
1000
MTEXTEND
  0
POINT
  5
29CBF
330
29773
100
AcDbEntity
  8
DEFPOINTS
 62
     0
 48
50.0
100
AcDbPoint
 10
6055.600000000004
 20
7413.35247029219
 30
0.0
  0
POINT
  5
29CC0
330
29773
100
AcDbEntity
  8
DEFPOINTS
 62
     0
 48
50.0
100
AcDbPoint
 10
3831.6
 20
7413.35247029219
 30
0.0
  0
POINT
  5
29CC1
330
29773
100
AcDbEntity
  8
DEFPOINTS
 62
     0
 48
50.0
100
AcDbPoint
 10
3831.6
 20
8212.618928386101
 30
0.0
  0
ENDBLK
  5
2977D
330
29773
100
AcDbEntity
  8
0
 48
50.0
100
AcDbBlockEnd
  0
BLOCK
  5
29796
330
2978B
100
AcDbEntity
  8
0
 48
50.0
100
AcDbBlockBegin
  2
*D40
 70
     1
 10
0.0
 20
0.0
 30
0.0
  3
*D40
  1

  0
LINE
  5
29CAF
330
2978B
100
AcDbEntity
  8
寸法
 62
     0
 48
50.0
370
    -2
100
AcDbLine
 10
3688.6
 20
7486.352470292189
 30
0.0
 11
3025.665006330072
 21
7486.352470292189
 31
0.0
  0
LINE
  5
29CB0
330
2978B
100
AcDbEntity
  8
寸法
 62
     0
 48
50.0
370
    -2
100
AcDbLine
 10
3761.600000000001
 20
7363.35247029219
 30
0.0
 11
3025.665006330072
 21
7363.35247029219
 31
0.0
  0
LINE
  5
29CB1
330
2978B
100
AcDbEntity
  8
寸法
 62
     0
 48
50.0
370
    -2
100
AcDbLine
 10
3085.665006330073
 20
7363.35247029219
 30
0.0
 11
3085.665006330073
 21
7486.352470292189
 31
0.0
  0
LINE
  5
29CB2
330
2978B
100
AcDbEntity
  8
寸法
 62
     0
 48
50.0
370
    -2
100
AcDbLine
 10
3085.665006330073
 20
7486.352470292189
 30
0.0
 11
3085.665006330073
 21
7897.944353384227
 31
0.0
  0
INSERT
  5
29CB3
330
2978B
100
AcDbEntity
  8
寸法
 62
     0
 48
50.0
370
    -2
100
AcDbBlockReference
  2
_DOTSMALL
 10
3085.665006330073
 20
7363.35247029219
 30
0.0
 41
100.0
 42
100.0
 43
100.0
 50
270.0
  0
INSERT
  5
29CB4
330
2978B
100
AcDbEntity
  8
寸法
 62
     0
 48
50.0
370
    -2
100
AcDbBlockReference
  2
_DOTSMALL
 10
3085.665006330073
 20
7486.352470292189
 30
0.0
 41
100.0
 42
100.0
 43
100.0
 50
90.0
  0
MTEXT
  5
29CB5
330
2978B
100
AcDbEntity
  8
寸法
 62
     7
 48
50.0
100
AcDbMText
 10
2985.653195306449
 20
7759.459072009988
 30
0.0
 40
120.0
 41
0.0
 71
     5
 72
     1
  1
\A1;123
  7
STYLE1
 11
0.0000000000000001
 21
1.0
 31
0.0
 73
     1
 44
1.0
1001
ACAD
1000
MTEXTBEGIN
1070
    73
1070
     1
1070
    44
1040
1.0
1070
    74
1070
     0
1000
MTEXTEND
  0
POINT
  5
29CB6
330
2978B
100
AcDbEntity
  8
DEFPOINTS
 62
     0
 48
50.0
100
AcDbPoint
 10
3708.600000000001
 20
7486.352470292189
 30
0.0
  0
POINT
  5
29CB7
330
2978B
100
AcDbEntity
  8
DEFPOINTS
 62
     0
 48
50.0
100
AcDbPoint
 10
3781.6
 20
7363.35247029219
 30
0.0
  0
POINT
  5
29CB8
330
2978B
100
AcDbEntity
  8
DEFPOINTS
 62
     0
 48
50.0
100
AcDbPoint
 10
3085.665006330073
 20
7363.35247029219
 30
0.0
  0
ENDBLK
  5
29797
330
2978B
100
AcDbEntity
  8
0
 48
50.0
100
AcDbBlockEnd
  0
BLOCK
  5
297A3
330
29798
100
AcDbEntity
  8
0
 48
50.0
100
AcDbBlockBegin
  2
*D41
 70
     1
 10
0.0
 20
0.0
 30
0.0
  3
*D41
  1

  0
LINE
  5
29CA5
330
29798
100
AcDbEntity
  8
寸法
 62
     0
 48
50.0
370
    -2
100
AcDbLine
 10
3831.6
 20
7433.352470292189
 30
0.0
 11
3831.6
 21
8272.6189283861
 31
0.0
  0
LINE
  5
29CA6
330
29798
100
AcDbEntity
  8
寸法
 62
     0
 48
50.0
370
    -2
100
AcDbLine
 10
3708.600000000001
 20
7506.352470292189
 30
0.0
 11
3708.600000000001
 21
8272.6189283861
 31
0.0
  0
LINE
  5
29CA7
330
29798
100
AcDbEntity
  8
寸法
 62
     0
 48
50.0
370
    -2
100
AcDbLine
 10
3831.6
 20
8212.618928386101
 30
0.0
 11
3708.600000000001
 21
8212.618928386101
 31
0.0
  0
LINE
  5
29CA8
330
29798
100
AcDbEntity
  8
寸法
 62
     0
 48
50.0
370
    -2
100
AcDbLine
 10
3708.600000000001
 20
8212.618928386101
 30
0.0
 11
3297.008116907964
 21
8212.618928386101
 31
0.0
  0
INSERT
  5
29CA9
330
29798
100
AcDbEntity
  8
寸法
 62
     0
 48
50.0
370
    -2
100
AcDbBlockReference
  2
_DOTSMALL
 10
3831.6
 20
8212.618928386101
 30
0.0
 41
100.0
 42
100.0
 43
100.0
  0
INSERT
  5
29CAA
330
29798
100
AcDbEntity
  8
寸法
 62
     0
 48
50.0
370
    -2
100
AcDbBlockReference
  2
_DOTSMALL
 10
3708.600000000001
 20
8212.618928386101
 30
0.0
 41
100.0
 42
100.0
 43
100.0
 50
180.0
  0
MTEXT
  5
29CAB
330
29798
100
AcDbEntity
  8
寸法
 62
     7
 48
50.0
100
AcDbMText
 10
3435.493398282203
 20
8312.630739409723
 30
0.0
 40
120.0
 41
0.0
 71
     5
 72
     1
  1
\A1;123
  7
STYLE1
 73
     1
 44
1.0
1001
ACAD
1000
MTEXTBEGIN
1070
    73
1070
     1
1070
    44
1040
1.0
1070
    74
1070
     0
1000
MTEXTEND
  0
POINT
  5
29CAC
330
29798
100
AcDbEntity
  8
DEFPOINTS
 62
     0
 48
50.0
100
AcDbPoint
 10
3831.6
 20
7413.35247029219
 30
0.0
  0
POINT
  5
29CAD
330
29798
100
AcDbEntity
  8
DEFPOINTS
 62
     0
 48
50.0
100
AcDbPoint
 10
3708.600000000001
 20
7486.352470292189
 30
0.0
  0
POINT
  5
29CAE
330
29798
100
AcDbEntity
  8
DEFPOINTS
 62
     0
 48
50.0
100
AcDbPoint
 10
3708.600000000001
 20
8212.618928386101
 30
0.0
  0
ENDBLK
  5
297A4
330
29798
100
AcDbEntity
  8
0
 48
50.0
100
AcDbBlockEnd
  0
BLOCK
  5
297B9
330
297AF
100
AcDbEntity
  8
0
 48
50.0
100
AcDbBlockBegin
  2
*D42
 70
     1
 10
0.0
 20
0.0
 30
0.0
  3
*D42
  1

  0
LINE
  5
29C9C
330
297AF
100
AcDbEntity
  8
寸法
 62
     0
 48
50.0
370
    -2
100
AcDbLine
 10
7695.6
 20
7433.352470292189
 30
0.0
 11
7695.6
 21
8272.6189283861
 31
0.0
  0
LINE
  5
29C9D
330
297AF
100
AcDbEntity
  8
寸法
 62
     0
 48
50.0
370
    -2
100
AcDbLine
 10
6055.600000000004
 20
7433.352470292189
 30
0.0
 11
6055.600000000004
 21
8272.6189283861
 31
0.0
  0
LINE
  5
29C9E
330
297AF
100
AcDbEntity
  8
寸法
 62
     0
 48
50.0
370
    -2
100
AcDbLine
 10
7695.6
 20
8212.618928386101
 30
0.0
 11
6055.600000000004
 21
8212.618928386101
 31
0.0
  0
INSERT
  5
29C9F
330
297AF
100
AcDbEntity
  8
寸法
 62
     0
 48
50.0
370
    -2
100
AcDbBlockReference
  2
_DOTSMALL
 10
7695.6
 20
8212.618928386101
 30
0.0
 41
100.0
 42
100.0
 43
100.0
  0
INSERT
  5
29CA0
330
297AF
100
AcDbEntity
  8
寸法
 62
     0
 48
50.0
370
    -2
100
AcDbBlockReference
  2
_DOTSMALL
 10
6055.600000000004
 20
8212.618928386101
 30
0.0
 41
100.0
 42
100.0
 43
100.0
 50
180.0
  0
MTEXT
  5
29CA1
330
297AF
100
AcDbEntity
  8
寸法
 62
     7
 48
50.0
100
AcDbMText
 10
6875.600000000003
 20
8312.6189283861
 30
0.0
 40
120.0
 41
0.0
 71
     5
 72
     1
  1
\A1;1640
  7
STYLE1
 73
     1
 44
1.0
1001
ACAD
1000
MTEXTBEGIN
1070
    73
1070
     1
1070
    44
1040
1.0
1070
    74
1070
     0
1000
MTEXTEND
  0
POINT
  5
29CA2
330
297AF
100
AcDbEntity
  8
DEFPOINTS
 62
     0
 48
50.0
100
AcDbPoint
 10
7695.6
 20
7413.35247029219
 30
0.0
  0
POINT
  5
29CA3
330
297AF
100
AcDbEntity
  8
DEFPOINTS
 62
     0
 48
50.0
100
AcDbPoint
 10
6055.600000000004
 20
7413.35247029219
 30
0.0
  0
POINT
  5
29CA4
330
297AF
100
AcDbEntity
  8
DEFPOINTS
 62
     0
 48
50.0
100
AcDbPoint
 10
6055.600000000004
 20
8212.618928386101
 30
0.0
  0
ENDBLK
  5
297BA
330
297AF
100
AcDbEntity
  8
0
 48
50.0
100
AcDbBlockEnd
  0
BLOCK
  5
297D2
330
297C8
100
AcDbEntity
  8
0
 48
50.0
100
AcDbBlockBegin
  2
*D43
 70
     1
 10
0.0
 20
0.0
 30
0.0
  3
*D43
  1

  0
LINE
  5
29E94
330
297C8
100
AcDbEntity
  8
寸法
 62
     0
 48
50.0
370
    -2
100
AcDbLine
 10
10273.6
 20
6903.35247029219
 30
0.0
 11
10273.6
 21
8028.961286962438
 31
0.0
  0
LINE
  5
29E95
330
297C8
100
AcDbEntity
  8
寸法
 62
     0
 48
50.0
370
    -2
100
AcDbLine
 10
9453.600000000012
 20
6903.35247029219
 30
0.0
 11
9453.600000000012
 21
8028.961286962438
 31
0.0
  0
LINE
  5
29E96
330
297C8
100
AcDbEntity
  8
寸法
 62
     0
 48
50.0
370
    -2
100
AcDbLine
 10
10273.6
 20
7968.961286962438
 30
0.0
 11
9453.600000000012
 21
7968.961286962438
 31
0.0
  0
INSERT
  5
29E97
330
297C8
100
AcDbEntity
  8
寸法
 62
     0
 48
50.0
370
    -2
100
AcDbBlockReference
  2
_DOTSMALL
 10
10273.6
 20
7968.961286962438
 30
0.0
 41
100.0
 42
100.0
 43
100.0
  0
INSERT
  5
29E98
330
297C8
100
AcDbEntity
  8
寸法
 62
     0
 48
50.0
370
    -2
100
AcDbBlockReference
  2
_DOTSMALL
 10
9453.600000000012
 20
7968.961286962438
 30
0.0
 41
100.0
 42
100.0
 43
100.0
 50
180.0
  0
MTEXT
  5
29E99
330
297C8
100
AcDbEntity
  8
寸法
 62
     7
 48
50.0
100
AcDbMText
 10
9863.60000000001
 20
8068.973097986059
 30
0.0
 40
120.0
 41
0.0
 71
     5
 72
     1
  1
\A1;820
  7
STYLE1
 73
     1
 44
1.0
1001
ACAD
1000
MTEXTBEGIN
1070
    73
1070
     1
1070
    44
1040
1.0
1070
    74
1070
     0
1000
MTEXTEND
  0
POINT
  5
29E9A
330
297C8
100
AcDbEntity
  8
DEFPOINTS
 62
     0
 48
50.0
100
AcDbPoint
 10
10273.6
 20
6883.352470292189
 30
0.0
  0
POINT
  5
29E9B
330
297C8
100
AcDbEntity
  8
DEFPOINTS
 62
     0
 48
50.0
100
AcDbPoint
 10
9453.600000000012
 20
6883.352470292189
 30
0.0
  0
POINT
  5
29E9C
330
297C8
100
AcDbEntity
  8
DEFPOINTS
 62
     0
 48
50.0
100
AcDbPoint
 10
9453.600000000012
 20
7968.961286962438
 30
0.0
  0
ENDBLK
  5
297D3
330
297C8
100
AcDbEntity
  8
0
 48
50.0
100
AcDbBlockEnd
  0
BLOCK
  5
297DE
330
297D4
100
AcDbEntity
  8
0
 48
50.0
100
AcDbBlockBegin
  2
*D44
 70
     1
 10
0.0
 20
0.0
 30
0.0
  3
*D44
  1

  0
LINE
  5
29E8B
330
297D4
100
AcDbEntity
  8
寸法
 62
     0
 48
50.0
370
    -2
100
AcDbLine
 10
12738.6
 20
7506.352470292189
 30
0.0
 11
12738.6
 21
8028.961286962438
 31
0.0
  0
LINE
  5
29E8C
330
297D4
100
AcDbEntity
  8
寸法
 62
     0
 48
50.0
370
    -2
100
AcDbLine
 10
11913.60000000001
 20
6903.35247029219
 30
0.0
 11
11913.60000000001
 21
8028.961286962438
 31
0.0
  0
LINE
  5
29E8D
330
297D4
100
AcDbEntity
  8
寸法
 62
     0
 48
50.0
370
    -2
100
AcDbLine
 10
12738.6
 20
7968.961286962438
 30
0.0
 11
11913.60000000001
 21
7968.961286962438
 31
0.0
  0
INSERT
  5
29E8E
330
297D4
100
AcDbEntity
  8
寸法
 62
     0
 48
50.0
370
    -2
100
AcDbBlockReference
  2
_DOTSMALL
 10
12738.6
 20
7968.961286962438
 30
0.0
 41
100.0
 42
100.0
 43
100.0
  0
INSERT
  5
29E8F
330
297D4
100
AcDbEntity
  8
寸法
 62
     0
 48
50.0
370
    -2
100
AcDbBlockReference
  2
_DOTSMALL
 10
11913.60000000001
 20
7968.961286962438
 30
0.0
 41
100.0
 42
100.0
 43
100.0
 50
180.0
  0
MTEXT
  5
29E90
330
297D4
100
AcDbEntity
  8
寸法
 62
     7
 48
50.0
100
AcDbMText
 10
12326.1
 20
8068.973097986059
 30
0.0
 40
120.0
 41
0.0
 71
     5
 72
     1
  1
\A1;825
  7
STYLE1
 73
     1
 44
1.0
1001
ACAD
1000
MTEXTBEGIN
1070
    73
1070
     1
1070
    44
1040
1.0
1070
    74
1070
     0
1000
MTEXTEND
  0
POINT
  5
29E91
330
297D4
100
AcDbEntity
  8
DEFPOINTS
 62
     0
 48
50.0
100
AcDbPoint
 10
12738.6
 20
7486.352470292189
 30
0.0
  0
POINT
  5
29E92
330
297D4
100
AcDbEntity
  8
DEFPOINTS
 62
     0
 48
50.0
100
AcDbPoint
 10
11913.60000000001
 20
6883.352470292189
 30
0.0
  0
POINT
  5
29E93
330
297D4
100
AcDbEntity
  8
DEFPOINTS
 62
     0
 48
50.0
100
AcDbPoint
 10
11913.60000000001
 20
7968.961286962438
 30
0.0
  0
ENDBLK
  5
297DF
330
297D4
100
AcDbEntity
  8
0
 48
50.0
100
AcDbBlockEnd
  0
BLOCK
  5
297EA
330
297E0
100
AcDbEntity
  8
0
 48
50.0
100
AcDbBlockBegin
  2
*D45
 70
     1
 10
0.0
 20
0.0
 30
0.0
  3
*D45
  1

  0
LINE
  5
29E82
330
297E0
100
AcDbEntity
  8
寸法
 62
     0
 48
50.0
370
    -2
100
AcDbLine
 10
11913.60000000001
 20
6903.35247029219
 30
0.0
 11
11913.60000000001
 21
8028.961286962438
 31
0.0
  0
LINE
  5
29E83
330
297E0
100
AcDbEntity
  8
寸法
 62
     0
 48
50.0
370
    -2
100
AcDbLine
 10
11093.60000000001
 20
6903.35247029219
 30
0.0
 11
11093.60000000001
 21
8028.961286962438
 31
0.0
  0
LINE
  5
29E84
330
297E0
100
AcDbEntity
  8
寸法
 62
     0
 48
50.0
370
    -2
100
AcDbLine
 10
11913.60000000001
 20
7968.961286962438
 30
0.0
 11
11093.60000000001
 21
7968.961286962438
 31
0.0
  0
INSERT
  5
29E85
330
297E0
100
AcDbEntity
  8
寸法
 62
     0
 48
50.0
370
    -2
100
AcDbBlockReference
  2
_DOTSMALL
 10
11913.60000000001
 20
7968.961286962438
 30
0.0
 41
100.0
 42
100.0
 43
100.0
  0
INSERT
  5
29E86
330
297E0
100
AcDbEntity
  8
寸法
 62
     0
 48
50.0
370
    -2
100
AcDbBlockReference
  2
_DOTSMALL
 10
11093.60000000001
 20
7968.961286962438
 30
0.0
 41
100.0
 42
100.0
 43
100.0
 50
180.0
  0
MTEXT
  5
29E87
330
297E0
100
AcDbEntity
  8
寸法
 62
     7
 48
50.0
100
AcDbMText
 10
11503.6
 20
8068.973097986059
 30
0.0
 40
120.0
 41
0.0
 71
     5
 72
     1
  1
\A1;820
  7
STYLE1
 73
     1
 44
1.0
1001
ACAD
1000
MTEXTBEGIN
1070
    73
1070
     1
1070
    44
1040
1.0
1070
    74
1070
     0
1000
MTEXTEND
  0
POINT
  5
29E88
330
297E0
100
AcDbEntity
  8
DEFPOINTS
 62
     0
 48
50.0
100
AcDbPoint
 10
11913.60000000001
 20
6883.352470292189
 30
0.0
  0
POINT
  5
29E89
330
297E0
100
AcDbEntity
  8
DEFPOINTS
 62
     0
 48
50.0
100
AcDbPoint
 10
11093.60000000001
 20
6883.352470292189
 30
0.0
  0
POINT
  5
29E8A
330
297E0
100
AcDbEntity
  8
DEFPOINTS
 62
     0
 48
50.0
100
AcDbPoint
 10
11093.60000000001
 20
7968.961286962438
 30
0.0
  0
ENDBLK
  5
297EB
330
297E0
100
AcDbEntity
  8
0
 48
50.0
100
AcDbBlockEnd
  0
BLOCK
  5
297F6
330
297EC
100
AcDbEntity
  8
0
 48
50.0
100
AcDbBlockBegin
  2
*D46
 70
     1
 10
0.0
 20
0.0
 30
0.0
  3
*D46
  1

  0
LINE
  5
29E79
330
297EC
100
AcDbEntity
  8
寸法
 62
     0
 48
50.0
370
    -2
100
AcDbLine
 10
11093.60000000001
 20
6903.35247029219
 30
0.0
 11
11093.60000000001
 21
8028.961286962438
 31
0.0
  0
LINE
  5
29E7A
330
297EC
100
AcDbEntity
  8
寸法
 62
     0
 48
50.0
370
    -2
100
AcDbLine
 10
10273.6
 20
6903.35247029219
 30
0.0
 11
10273.6
 21
8028.961286962438
 31
0.0
  0
LINE
  5
29E7B
330
297EC
100
AcDbEntity
  8
寸法
 62
     0
 48
50.0
370
    -2
100
AcDbLine
 10
11093.60000000001
 20
7968.961286962438
 30
0.0
 11
10273.6
 21
7968.961286962438
 31
0.0
  0
INSERT
  5
29E7C
330
297EC
100
AcDbEntity
  8
寸法
 62
     0
 48
50.0
370
    -2
100
AcDbBlockReference
  2
_DOTSMALL
 10
11093.60000000001
 20
7968.961286962438
 30
0.0
 41
100.0
 42
100.0
 43
100.0
  0
INSERT
  5
29E7D
330
297EC
100
AcDbEntity
  8
寸法
 62
     0
 48
50.0
370
    -2
100
AcDbBlockReference
  2
_DOTSMALL
 10
10273.6
 20
7968.961286962438
 30
0.0
 41
100.0
 42
100.0
 43
100.0
 50
180.0
  0
MTEXT
  5
29E7E
330
297EC
100
AcDbEntity
  8
寸法
 62
     7
 48
50.0
100
AcDbMText
 10
10683.60000000001
 20
8068.973097986059
 30
0.0
 40
120.0
 41
0.0
 71
     5
 72
     1
  1
\A1;820
  7
STYLE1
 73
     1
 44
1.0
1001
ACAD
1000
MTEXTBEGIN
1070
    73
1070
     1
1070
    44
1040
1.0
1070
    74
1070
     0
1000
MTEXTEND
  0
POINT
  5
29E7F
330
297EC
100
AcDbEntity
  8
DEFPOINTS
 62
     0
 48
50.0
100
AcDbPoint
 10
11093.60000000001
 20
6883.352470292189
 30
0.0
  0
POINT
  5
29E80
330
297EC
100
AcDbEntity
  8
DEFPOINTS
 62
     0
 48
50.0
100
AcDbPoint
 10
10273.6
 20
6883.352470292189
 30
0.0
  0
POINT
  5
29E81
330
297EC
100
AcDbEntity
  8
DEFPOINTS
 62
     0
 48
50.0
100
AcDbPoint
 10
10273.6
 20
7968.961286962438
 30
0.0
  0
ENDBLK
  5
297F7
330
297EC
100
AcDbEntity
  8
0
 48
50.0
100
AcDbBlockEnd
  0
BLOCK
  5
29802
330
297F8
100
AcDbEntity
  8
0
 48
50.0
100
AcDbBlockBegin
  2
*D47
 70
     1
 10
0.0
 20
0.0
 30
0.0
  3
*D47
  1

  0
LINE
  5
29C6F
330
297F8
100
AcDbEntity
  8
寸法
 62
     0
 48
50.0
370
    -2
100
AcDbLine
 10
12615.6
 20
7433.352470292189
 30
0.0
 11
12615.6
 21
8272.6189283861
 31
0.0
  0
LINE
  5
29C70
330
297F8
100
AcDbEntity
  8
寸法
 62
     0
 48
50.0
370
    -2
100
AcDbLine
 10
10155.6
 20
7433.352470292189
 30
0.0
 11
10155.6
 21
8272.6189283861
 31
0.0
  0
LINE
  5
29C71
330
297F8
100
AcDbEntity
  8
寸法
 62
     0
 48
50.0
370
    -2
100
AcDbLine
 10
12615.6
 20
8212.618928386101
 30
0.0
 11
10155.6
 21
8212.618928386101
 31
0.0
  0
INSERT
  5
29C72
330
297F8
100
AcDbEntity
  8
寸法
 62
     0
 48
50.0
370
    -2
100
AcDbBlockReference
  2
_DOTSMALL
 10
12615.6
 20
8212.618928386101
 30
0.0
 41
100.0
 42
100.0
 43
100.0
  0
INSERT
  5
29C73
330
297F8
100
AcDbEntity
  8
寸法
 62
     0
 48
50.0
370
    -2
100
AcDbBlockReference
  2
_DOTSMALL
 10
10155.6
 20
8212.618928386101
 30
0.0
 41
100.0
 42
100.0
 43
100.0
 50
180.0
  0
MTEXT
  5
29C74
330
297F8
100
AcDbEntity
  8
寸法
 62
     7
 48
50.0
100
AcDbMText
 10
11385.6
 20
8312.630739409723
 30
0.0
 40
120.0
 41
0.0
 71
     5
 72
     1
  1
\A1;2460
  7
STYLE1
 73
     1
 44
1.0
1001
ACAD
1000
MTEXTBEGIN
1070
    73
1070
     1
1070
    44
1040
1.0
1070
    74
1070
     0
1000
MTEXTEND
  0
POINT
  5
29C75
330
297F8
100
AcDbEntity
  8
DEFPOINTS
 62
     0
 48
50.0
100
AcDbPoint
 10
12615.6
 20
7413.35247029219
 30
0.0
  0
POINT
  5
29C76
330
297F8
100
AcDbEntity
  8
DEFPOINTS
 62
     0
 48
50.0
100
AcDbPoint
 10
10155.6
 20
7413.35247029219
 30
0.0
  0
POINT
  5
29C77
330
297F8
100
AcDbEntity
  8
DEFPOINTS
 62
     0
 48
50.0
100
AcDbPoint
 10
10155.6
 20
8212.618928386101
 30
0.0
  0
ENDBLK
  5
29803
330
297F8
100
AcDbEntity
  8
0
 48
50.0
100
AcDbBlockEnd
  0
BLOCK
  5
2981C
330
29811
100
AcDbEntity
  8
0
 48
50.0
100
AcDbBlockBegin
  2
*D48
 70
     1
 10
0.0
 20
0.0
 30
0.0
  3
*D48
  1

  0
LINE
  5
29C65
330
29811
100
AcDbEntity
  8
寸法
 62
     0
 48
50.0
370
    -2
100
AcDbLine
 10
12738.6
 20
7506.352470292189
 30
0.0
 11
12738.6
 21
8272.6189283861
 31
0.0
  0
LINE
  5
29C66
330
29811
100
AcDbEntity
  8
寸法
 62
     0
 48
50.0
370
    -2
100
AcDbLine
 10
12615.6
 20
7433.352470292189
 30
0.0
 11
12615.6
 21
8272.6189283861
 31
0.0
  0
LINE
  5
29C67
330
29811
100
AcDbEntity
  8
寸法
 62
     0
 48
50.0
370
    -2
100
AcDbLine
 10
12615.6
 20
8212.618928386101
 30
0.0
 11
12738.6
 21
8212.618928386101
 31
0.0
  0
LINE
  5
29C68
330
29811
100
AcDbEntity
  8
寸法
 62
     0
 48
50.0
370
    -2
100
AcDbLine
 10
12738.6
 20
8212.618928386101
 30
0.0
 11
13150.19188309204
 21
8212.618928386101
 31
0.0
  0
INSERT
  5
29C69
330
29811
100
AcDbEntity
  8
寸法
 62
     0
 48
50.0
370
    -2
100
AcDbBlockReference
  2
_DOTSMALL
 10
12615.6
 20
8212.618928386101
 30
0.0
 41
100.0
 42
100.0
 43
100.0
 50
180.0
  0
INSERT
  5
29C6A
330
29811
100
AcDbEntity
  8
寸法
 62
     0
 48
50.0
370
    -2
100
AcDbBlockReference
  2
_DOTSMALL
 10
12738.6
 20
8212.618928386101
 30
0.0
 41
100.0
 42
100.0
 43
100.0
  0
MTEXT
  5
29C6B
330
29811
100
AcDbEntity
  8
寸法
 62
     7
 48
50.0
100
AcDbMText
 10
13011.7066017178
 20
8312.630739409723
 30
0.0
 40
120.0
 41
0.0
 71
     5
 72
     1
  1
\A1;123
  7
STYLE1
 73
     1
 44
1.0
1001
ACAD
1000
MTEXTBEGIN
1070
    73
1070
     1
1070
    44
1040
1.0
1070
    74
1070
     0
1000
MTEXTEND
  0
POINT
  5
29C6C
330
29811
100
AcDbEntity
  8
DEFPOINTS
 62
     0
 48
50.0
100
AcDbPoint
 10
12738.6
 20
7486.352470292189
 30
0.0
  0
POINT
  5
29C6D
330
29811
100
AcDbEntity
  8
DEFPOINTS
 62
     0
 48
50.0
100
AcDbPoint
 10
12615.6
 20
7413.35247029219
 30
0.0
  0
POINT
  5
29C6E
330
29811
100
AcDbEntity
  8
DEFPOINTS
 62
     0
 48
50.0
100
AcDbPoint
 10
12615.6
 20
8212.618928386101
 30
0.0
  0
ENDBLK
  5
2981D
330
29811
100
AcDbEntity
  8
0
 48
50.0
100
AcDbBlockEnd
  0
BLOCK
  5
29F0F
330
29F0E
100
AcDbEntity
  8
0
 48
50.0
100
AcDbBlockBegin
  2
*D49
 70
     1
 10
0.0
 20
0.0
 30
0.0
  3
*D49
  1

  0
LINE
  5
29F10
330
29F0E
100
AcDbEntity
  8
寸法
 62
     0
 48
50.0
370
    -2
100
AcDbLine
 10
11918.6
 20
7185.508261603669
 30
0.0
 11
11918.6
 21
7128.514997564836
 31
0.0
  0
LINE
  5
29F11
330
29F0E
100
AcDbEntity
  8
寸法
 62
     0
 48
50.0
370
    -2
100
AcDbLine
 10
11798.6
 20
7208.514997564837
 30
0.0
 11
11798.6
 21
7248.514997564837
 31
0.0
  0
LINE
  5
29F12
330
29F0E
100
AcDbEntity
  8
寸法
 62
     0
 48
50.0
370
    -2
100
AcDbLine
 10
11798.6
 20
7188.514997564836
 30
0.0
 11
11918.6
 21
7188.514997564836
 31
0.0
  0
LINE
  5
29F13
330
29F0E
100
AcDbEntity
  8
寸法
 62
     0
 48
50.0
370
    -2
100
AcDbLine
 10
11918.6
 20
7188.514997564836
 30
0.0
 11
12324.7062992126
 21
7188.514997564836
 31
0.0
  0
INSERT
  5
29F14
330
29F0E
100
AcDbEntity
  8
寸法
 62
     0
 48
50.0
370
    -2
100
AcDbBlockReference
  2
_DOTSMALL
 10
11798.6
 20
7188.514997564836
 30
0.0
 41
100.0
 42
100.0
 43
100.0
 50
180.0
  0
INSERT
  5
29F15
330
29F0E
100
AcDbEntity
  8
寸法
 62
     0
 48
50.0
370
    -2
100
AcDbBlockReference
  2
_DOTSMALL
 10
11918.6
 20
7188.514997564836
 30
0.0
 41
100.0
 42
100.0
 43
100.0
  0
MTEXT
  5
29F16
330
29F0E
100
AcDbEntity
  8
寸法
 62
     7
 48
50.0
100
AcDbMText
 10
12188.65905511812
 20
7288.526808588459
 30
0.0
 40
120.0
 41
0.0
 71
     5
 72
     1
  1
\A1;120
  7
STYLE1
 73
     1
 44
1.0
1001
ACAD
1000
MTEXTBEGIN
1070
    73
1070
     1
1070
    44
1040
1.0
1070
    74
1070
     0
1000
MTEXTEND
  0
POINT
  5
29F17
330
29F0E
100
AcDbEntity
  8
DEFPOINTS
 62
     0
 48
50.0
100
AcDbPoint
 10
11918.6
 20
7205.508261603668
 30
0.0
  0
POINT
  5
29F18
330
29F0E
100
AcDbEntity
  8
DEFPOINTS
 62
     0
 48
50.0
100
AcDbPoint
 10
11798.6
 20
7188.514997564836
 30
0.0
  0
POINT
  5
29F19
330
29F0E
100
AcDbEntity
  8
DEFPOINTS
 62
     0
 48
50.0
100
AcDbPoint
 10
11798.6
 20
7188.514997564836
 30
0.0
  0
ENDBLK
  5
29F1A
330
29F0E
100
AcDbEntity
  8
0
 48
50.0
100
AcDbBlockEnd
  0
BLOCK
  5
29F1D
330
29F1B
100
AcDbEntity
  8
0
 48
50.0
100
AcDbBlockBegin
  2
A$C265C1BCD
 70
     0
 10
0.0
 20
0.0
 30
0.0
  3
A$C265C1BCD
  1

  0
DIMENSION
  5
29F1C
330
29F1B
100
AcDbEntity
  8
寸法
 48
50.0
100
AcDbDimension
  2
*D49
 10
12.50000396401629
 20
59.99999782230407
 30
0.0
 11
402.5590590821338
 21
59.99999782230407
 31
0.0
 12
-11786.09999603598
 22
-7128.514999742532
 32
0.0
 70
   128
 71
     5
 42
120.0000000000018
  3
INABA_S40G
100
AcDbAlignedDimension
 13
132.5000039640181
 23
76.99326186113649
 33
0.0
 14
12.50000396401629
 24
59.99999782230407
 34
0.0
100
AcDbRotatedDimension
1001
ACAD
1000
DSTYLE
1002
{
1070
   341
1005
0
1002
}
  0
ENDBLK
  5
29F1E
330
29F1B
100
AcDbEntity
  8
0
 48
50.0
100
AcDbBlockEnd
  0
BLOCK
  5
2A1E1
330
2A1D7
100
AcDbEntity
  8
0
 48
50.0
100
AcDbBlockBegin
  2
*D51
 70
     1
 10
0.0
 20
0.0
 30
0.0
  3
*D51
  1

  0
LINE
  5
2A221
330
2A1D7
100
AcDbEntity
  8
寸法
 62
     0
 48
50.0
370
    -2
100
AcDbLine
 10
6397.930794917275
 20
1892.913950619795
 30
0.0
 11
6397.930794917275
 21
2352.581758536176
 31
0.0
  0
LINE
  5
2A222
330
2A1D7
100
AcDbEntity
  8
寸法
 62
     0
 48
50.0
370
    -2
100
AcDbLine
 10
6205.930794917275
 20
1892.913950619795
 30
0.0
 11
6205.930794917275
 21
2352.581758536176
 31
0.0
  0
LINE
  5
2A223
330
2A1D7
100
AcDbEntity
  8
寸法
 62
     0
 48
50.0
370
    -2
100
AcDbLine
 10
6397.930794917275
 20
2292.581758536176
 30
0.0
 11
6205.930794917275
 21
2292.581758536176
 31
0.0
  0
INSERT
  5
2A224
330
2A1D7
100
AcDbEntity
  8
寸法
 62
     0
 48
50.0
370
    -2
100
AcDbBlockReference
  2
_DOTSMALL
 10
6397.930794917275
 20
2292.581758536176
 30
0.0
 41
100.0
 42
100.0
 43
100.0
  0
INSERT
  5
2A225
330
2A1D7
100
AcDbEntity
  8
寸法
 62
     0
 48
50.0
370
    -2
100
AcDbBlockReference
  2
_DOTSMALL
 10
6205.930794917275
 20
2292.581758536176
 30
0.0
 41
100.0
 42
100.0
 43
100.0
 50
180.0
  0
MTEXT
  5
2A226
330
2A1D7
100
AcDbEntity
  8
寸法
 62
     7
 48
50.0
100
AcDbMText
 10
6301.930794917275
 20
2592.617191607042
 30
0.0
 40
120.0
 41
0.0
 71
     5
 72
     1
  1
\A1;120\P200\P280
  7
STYLE1
 73
     1
 44
1.0
1001
ACAD
1000
MTEXTBEGIN
1070
    73
1070
     1
1070
    44
1040
1.0
1070
    74
1070
     0
1000
MTEXTEND
  0
POINT
  5
2A227
330
2A1D7
100
AcDbEntity
  8
DEFPOINTS
 62
     0
 48
50.0
100
AcDbPoint
 10
6397.930794917275
 20
1872.913950619795
 30
0.0
  0
POINT
  5
2A228
330
2A1D7
100
AcDbEntity
  8
DEFPOINTS
 62
     0
 48
50.0
100
AcDbPoint
 10
6205.930794917275
 20
1872.913950619795
 30
0.0
  0
POINT
  5
2A229
330
2A1D7
100
AcDbEntity
  8
DEFPOINTS
 62
     0
 48
50.0
100
AcDbPoint
 10
6205.930794917275
 20
2292.581758536176
 30
0.0
  0
ENDBLK
  5
2A1E2
330
2A1D7
100
AcDbEntity
  8
0
 48
50.0
100
AcDbBlockEnd
  0
BLOCK
  5
2A1ED
330
2A1E3
100
AcDbEntity
  8
0
 48
50.0
100
AcDbBlockBegin
  2
*D52
 70
     1
 10
0.0
 20
0.0
 30
0.0
  3
*D52
  1

  0
LINE
  5
2A22A
330
2A1E3
100
AcDbEntity
  8
寸法
 62
     0
 48
50.0
370
    -2
100
AcDbLine
 10
6077.930794917275
 20
940.9139506197952
 30
0.0
 11
6077.930794917275
 21
490.4843126146352
 31
0.0
  0
LINE
  5
2A22B
330
2A1E3
100
AcDbEntity
  8
寸法
 62
     0
 48
50.0
370
    -2
100
AcDbLine
 10
6525.930794917275
 20
940.9139506197952
 30
0.0
 11
6525.930794917275
 21
490.4843126146352
 31
0.0
  0
LINE
  5
2A22C
330
2A1E3
100
AcDbEntity
  8
寸法
 62
     0
 48
50.0
370
    -2
100
AcDbLine
 10
6077.930794917275
 20
550.4843126146352
 30
0.0
 11
6525.930794917275
 21
550.4843126146352
 31
0.0
  0
INSERT
  5
2A22D
330
2A1E3
100
AcDbEntity
  8
寸法
 62
     0
 48
50.0
370
    -2
100
AcDbBlockReference
  2
_DOTSMALL
 10
6077.930794917275
 20
550.4843126146352
 30
0.0
 41
100.0
 42
100.0
 43
100.0
 50
180.0
  0
INSERT
  5
2A22E
330
2A1E3
100
AcDbEntity
  8
寸法
 62
     0
 48
50.0
370
    -2
100
AcDbBlockReference
  2
_DOTSMALL
 10
6525.930794917275
 20
550.4843126146352
 30
0.0
 41
100.0
 42
100.0
 43
100.0
  0
MTEXT
  5
2A22F
330
2A1E3
100
AcDbEntity
  8
寸法
 62
     7
 48
50.0
100
AcDbMText
 10
6281.834036239052
 20
650.4843126146352
 30
0.0
 40
120.0
 41
0.0
 71
     5
 72
     1
  1
\A1;300
  7
STYLE1
 73
     1
 44
1.0
1001
ACAD
1000
MTEXTBEGIN
1070
    73
1070
     1
1070
    44
1040
1.0
1070
    74
1070
     0
1000
MTEXTEND
  0
POINT
  5
2A230
330
2A1E3
100
AcDbEntity
  8
DEFPOINTS
 62
     0
 48
50.0
100
AcDbPoint
 10
6077.930794917275
 20
960.9139506197953
 30
0.0
  0
POINT
  5
2A231
330
2A1E3
100
AcDbEntity
  8
DEFPOINTS
 62
     0
 48
50.0
100
AcDbPoint
 10
6525.930794917275
 20
960.9139506197953
 30
0.0
  0
POINT
  5
2A232
330
2A1E3
100
AcDbEntity
  8
DEFPOINTS
 62
     0
 48
50.0
100
AcDbPoint
 10
6525.930794917275
 20
550.4843126146352
 30
0.0
  0
ENDBLK
  5
2A1EE
330
2A1E3
100
AcDbEntity
  8
0
 48
50.0
100
AcDbBlockEnd
  0
BLOCK
  5
2A1F9
330
2A1EF
100
AcDbEntity
  8
0
 48
50.0
100
AcDbBlockBegin
  2
*D53
 70
     1
 10
0.0
 20
0.0
 30
0.0
  3
*D53
  1

  0
LINE
  5
2A233
330
2A1EF
100
AcDbEntity
  8
寸法
 62
     0
 48
50.0
370
    -2
100
AcDbLine
 10
6185.930794917275
 20
1872.913950619795
 30
0.0
 11
5410.893556355535
 21
1872.913950619795
 31
0.0
  0
LINE
  5
2A234
330
2A1EF
100
AcDbEntity
  8
寸法
 62
     0
 48
50.0
370
    -2
100
AcDbLine
 10
5977.930794917279
 20
1088.913950619795
 30
0.0
 11
5410.893556355535
 21
1088.913950619795
 31
0.0
  0
LINE
  5
2A235
330
2A1EF
100
AcDbEntity
  8
寸法
 62
     0
 48
50.0
370
    -2
100
AcDbLine
 10
5470.893556355535
 20
1872.913950619795
 30
0.0
 11
5470.893556355535
 21
1088.913950619795
 31
0.0
  0
INSERT
  5
2A236
330
2A1EF
100
AcDbEntity
  8
寸法
 62
     0
 48
50.0
370
    -2
100
AcDbBlockReference
  2
_DOTSMALL
 10
5470.893556355535
 20
1872.913950619795
 30
0.0
 41
100.0
 42
100.0
 43
100.0
 50
90.0
  0
INSERT
  5
2A237
330
2A1EF
100
AcDbEntity
  8
寸法
 62
     0
 48
50.0
370
    -2
100
AcDbBlockReference
  2
_DOTSMALL
 10
5470.893556355535
 20
1088.913950619795
 30
0.0
 41
100.0
 42
100.0
 43
100.0
 50
270.0
  0
MTEXT
  5
2A238
330
2A1EF
100
AcDbEntity
  8
寸法
 62
     7
 48
50.0
100
AcDbMText
 10
5370.893556355535
 20
1460.454100275796
 30
0.0
 40
120.0
 41
0.0
 71
     5
 72
     1
  1
\A1;540
  7
STYLE1
 11
0.0000000000000001
 21
1.0
 31
0.0
 73
     1
 44
1.0
1001
ACAD
1000
MTEXTBEGIN
1070
    73
1070
     1
1070
    44
1040
1.0
1070
    74
1070
     0
1000
MTEXTEND
  0
POINT
  5
2A239
330
2A1EF
100
AcDbEntity
  8
DEFPOINTS
 62
     0
 48
50.0
100
AcDbPoint
 10
6205.930794917275
 20
1872.913950619795
 30
0.0
  0
POINT
  5
2A23A
330
2A1EF
100
AcDbEntity
  8
DEFPOINTS
 62
     0
 48
50.0
100
AcDbPoint
 10
5997.930794917279
 20
1088.913950619795
 30
0.0
  0
POINT
  5
2A23B
330
2A1EF
100
AcDbEntity
  8
DEFPOINTS
 62
     0
 48
50.0
100
AcDbPoint
 10
5470.893556355535
 20
1088.913950619795
 30
0.0
  0
ENDBLK
  5
2A1FA
330
2A1EF
100
AcDbEntity
  8
0
 48
50.0
100
AcDbBlockEnd
  0
BLOCK
  5
2A205
330
2A1FB
100
AcDbEntity
  8
0
 48
50.0
100
AcDbBlockBegin
  2
*D54
 70
     1
 10
0.0
 20
0.0
 30
0.0
  3
*D54
  1

  0
LINE
  5
2A23C
330
2A1FB
100
AcDbEntity
  8
寸法
 62
     0
 48
50.0
370
    -2
100
AcDbLine
 10
6057.930794917275
 20
1328.913950619795
 30
0.0
 11
5875.510481184816
 21
1328.913950619795
 31
0.0
  0
LINE
  5
2A23D
330
2A1FB
100
AcDbEntity
  8
寸法
 62
     0
 48
50.0
370
    -2
100
AcDbLine
 10
5977.930794917279
 20
1088.913950619795
 30
0.0
 11
5875.510481184816
 21
1088.913950619795
 31
0.0
  0
LINE
  5
2A23E
330
2A1FB
100
AcDbEntity
  8
寸法
 62
     0
 48
50.0
370
    -2
100
AcDbLine
 10
5935.510481184816
 20
1328.913950619795
 30
0.0
 11
5935.510481184816
 21
1088.913950619795
 31
0.0
  0
INSERT
  5
2A23F
330
2A1FB
100
AcDbEntity
  8
寸法
 62
     0
 48
50.0
370
    -2
100
AcDbBlockReference
  2
_DOTSMALL
 10
5935.510481184816
 20
1328.913950619795
 30
0.0
 41
100.0
 42
100.0
 43
100.0
 50
90.0
  0
INSERT
  5
2A240
330
2A1FB
100
AcDbEntity
  8
寸法
 62
     0
 48
50.0
370
    -2
100
AcDbBlockReference
  2
_DOTSMALL
 10
5935.510481184816
 20
1088.913950619795
 30
0.0
 41
100.0
 42
100.0
 43
100.0
 50
270.0
  0
MTEXT
  5
2A241
330
2A1FB
100
AcDbEntity
  8
寸法
 62
     7
 48
50.0
100
AcDbMText
 10
5835.510481184815
 20
1208.913950619796
 30
0.0
 40
120.0
 41
0.0
 71
     5
 72
     1
  1
\A1;150
  7
STYLE1
 11
0.0000000000000001
 21
1.0
 31
0.0
 73
     1
 44
1.0
1001
ACAD
1000
MTEXTBEGIN
1070
    73
1070
     1
1070
    44
1040
1.0
1070
    74
1070
     0
1000
MTEXTEND
  0
POINT
  5
2A242
330
2A1FB
100
AcDbEntity
  8
DEFPOINTS
 62
     0
 48
50.0
100
AcDbPoint
 10
6077.930794917275
 20
1328.913950619795
 30
0.0
  0
POINT
  5
2A243
330
2A1FB
100
AcDbEntity
  8
DEFPOINTS
 62
     0
 48
50.0
100
AcDbPoint
 10
5997.930794917279
 20
1088.913950619795
 30
0.0
  0
POINT
  5
2A244
330
2A1FB
100
AcDbEntity
  8
DEFPOINTS
 62
     0
 48
50.0
100
AcDbPoint
 10
5935.510481184816
 20
1088.913950619795
 30
0.0
  0
ENDBLK
  5
2A206
330
2A1FB
100
AcDbEntity
  8
0
 48
50.0
100
AcDbBlockEnd
  0
BLOCK
  5
2A213
330
2A207
100
AcDbEntity
  8
0
 48
50.0
100
AcDbBlockBegin
  2
*D55
 70
     1
 10
0.0
 20
0.0
 30
0.0
  3
*D55
  1

  0
LINE
  5
2A245
330
2A207
100
AcDbEntity
  8
寸法
 62
     0
 48
50.0
370
    -2
100
AcDbLine
 10
8152.77010809447
 20
1925.673950619796
 30
0.0
 11
9157.893373982341
 21
1925.673950619796
 31
0.0
  0
LINE
  5
2A246
330
2A207
100
AcDbEntity
  8
寸法
 62
     0
 48
50.0
370
    -2
100
AcDbLine
 10
8339.970108094469
 20
1872.913950619795
 30
0.0
 11
9157.893373982341
 21
1872.913950619795
 31
0.0
  0
LINE
  5
2A247
330
2A207
100
AcDbEntity
  8
寸法
 62
     0
 48
50.0
370
    -2
100
AcDbLine
 10
9097.893373982341
 20
1925.673950619796
 30
0.0
 11
9097.893373982341
 21
2025.673950619796
 31
0.0
  0
LINE
  5
2A248
330
2A207
100
AcDbEntity
  8
寸法
 62
     0
 48
50.0
370
    -2
100
AcDbLine
 10
9097.893373982341
 20
1872.913950619795
 30
0.0
 11
9097.893373982341
 21
1140.896143776829
 31
0.0
  0
LINE
  5
2A249
330
2A207
100
AcDbEntity
  8
寸法
 62
     0
 48
50.0
370
    -2
100
AcDbLine
 10
9097.893373982341
 20
1925.673950619796
 30
0.0
 11
9097.893373982341
 21
1872.913950619795
 31
0.0
  0
INSERT
  5
2A24A
330
2A207
100
AcDbEntity
  8
寸法
 62
     0
 48
50.0
370
    -2
100
AcDbBlockReference
  2
_DOTSMALL
 10
9097.893373982341
 20
1925.673950619796
 30
0.0
 41
100.0
 42
100.0
 43
100.0
 50
270.0
  0
INSERT
  5
2A24B
330
2A207
100
AcDbEntity
  8
寸法
 62
     0
 48
50.0
370
    -2
100
AcDbBlockReference
  2
_DOTSMALL
 10
9097.893373982341
 20
1872.913950619795
 30
0.0
 41
100.0
 42
100.0
 43
100.0
 50
90.0
  0
MTEXT
  5
2A24C
330
2A207
100
AcDbEntity
  8
寸法
 62
     7
 48
50.0
100
AcDbMText
 10
8997.881562958719
 20
1406.905047198313
 30
0.0
 40
120.0
 41
0.0
 71
     5
 72
     1
  1
\A1;20～25
  7
STYLE1
 11
0.0000000000000001
 21
1.0
 31
0.0
 73
     1
 44
1.0
1001
ACAD
1000
MTEXTBEGIN
1070
    73
1070
     1
1070
    44
1040
1.0
1070
    74
1070
     0
1000
MTEXTEND
  0
POINT
  5
2A24D
330
2A207
100
AcDbEntity
  8
DEFPOINTS
 62
     0
 48
50.0
100
AcDbPoint
 10
8132.77010809447
 20
1925.673950619796
 30
0.0
  0
POINT
  5
2A24E
330
2A207
100
AcDbEntity
  8
DEFPOINTS
 62
     0
 48
50.0
100
AcDbPoint
 10
8319.970108094469
 20
1872.913950619795
 30
0.0
  0
POINT
  5
2A24F
330
2A207
100
AcDbEntity
  8
DEFPOINTS
 62
     0
 48
50.0
100
AcDbPoint
 10
9097.893373982341
 20
1872.913950619795
 30
0.0
  0
ENDBLK
  5
2A214
330
2A207
100
AcDbEntity
  8
0
 48
50.0
100
AcDbBlockEnd
  0
BLOCK
  5
2A21F
330
2A215
100
AcDbEntity
  8
0
 48
50.0
100
AcDbBlockBegin
  2
*D56
 70
     1
 10
0.0
 20
0.0
 30
0.0
  3
*D56
  1

  0
LINE
  5
2A250
330
2A215
100
AcDbEntity
  8
寸法
 62
     0
 48
50.0
370
    -2
100
AcDbLine
 10
8339.970108094469
 20
1872.913950619795
 30
0.0
 11
8881.838707863314
 21
1872.913950619795
 31
0.0
  0
LINE
  5
2A251
330
2A215
100
AcDbEntity
  8
寸法
 62
     0
 48
50.0
370
    -2
100
AcDbLine
 10
8339.970108094469
 20
1548.913950619794
 30
0.0
 11
8881.838707863314
 21
1548.913950619794
 31
0.0
  0
LINE
  5
2A252
330
2A215
100
AcDbEntity
  8
寸法
 62
     0
 48
50.0
370
    -2
100
AcDbLine
 10
8821.838707863312
 20
1872.913950619795
 30
0.0
 11
8821.838707863312
 21
1548.913950619794
 31
0.0
  0
INSERT
  5
2A253
330
2A215
100
AcDbEntity
  8
寸法
 62
     0
 48
50.0
370
    -2
100
AcDbBlockReference
  2
_DOTSMALL
 10
8821.838707863312
 20
1872.913950619795
 30
0.0
 41
100.0
 42
100.0
 43
100.0
 50
90.0
  0
INSERT
  5
2A254
330
2A215
100
AcDbEntity
  8
寸法
 62
     0
 48
50.0
370
    -2
100
AcDbBlockReference
  2
_DOTSMALL
 10
8821.838707863312
 20
1548.913950619794
 30
0.0
 41
100.0
 42
100.0
 43
100.0
 50
270.0
  0
MTEXT
  5
2A255
330
2A215
100
AcDbEntity
  8
寸法
 62
     7
 48
50.0
100
AcDbMText
 10
8721.838707863312
 20
1710.913950619796
 30
0.0
 40
120.0
 41
0.0
 71
     5
 72
     1
  1
\A1;180
  7
STYLE1
 11
0.0000000000000001
 21
1.0
 31
0.0
 73
     1
 44
1.0
1001
ACAD
1000
MTEXTBEGIN
1070
    73
1070
     1
1070
    44
1040
1.0
1070
    74
1070
     0
1000
MTEXTEND
  0
POINT
  5
2A256
330
2A215
100
AcDbEntity
  8
DEFPOINTS
 62
     0
 48
50.0
100
AcDbPoint
 10
8319.970108094469
 20
1872.913950619795
 30
0.0
  0
POINT
  5
2A257
330
2A215
100
AcDbEntity
  8
DEFPOINTS
 62
     0
 48
50.0
100
AcDbPoint
 10
8319.970108094469
 20
1548.913950619794
 30
0.0
  0
POINT
  5
2A258
330
2A215
100
AcDbEntity
  8
DEFPOINTS
 62
     0
 48
50.0
100
AcDbPoint
 10
8821.838707863312
 20
1548.913950619794
 30
0.0
  0
ENDBLK
  5
2A220
330
2A215
100
AcDbEntity
  8
0
 48
50.0
100
AcDbBlockEnd
  0
ENDSEC
  0
SECTION
  2
ENTITIES
  0
MTEXT
  5
763F
330
747D
100
AcDbEntity
  8
0
100
AcDbMText
 10
302.846345836809
 20
280.1983726409901
 30
0.0
 40
3.5
 41
5.323721266742722
 71
     1
 72
     5
  1

  7
MSMINCHO
 73
     1
 44
1.0
1001
ACAD
1000
MTEXTBEGIN
1070
    73
1070
     1
1070
    44
1040
1.0
1070
    74
1070
     0
1000
MTEXTEND
  0
LINE
  5
10B57
330
747D
100
AcDbEntity
  8
補助
  6
PHANTOM
 62
   230
 48
50.0
100
AcDbLine
 10
139.9999999999995
 20
11409.6
 30
0.0
 11
16307.2
 21
11409.6
 31
0.0
  0
LINE
  5
10B59
330
747D
100
AcDbEntity
  8
仕様書枠
  6
Continuous
 48
50.0
100
AcDbLine
 10
13107.2
 20
1200.0
 30
0.0
 11
13107.2
 21
-0.0000000000000729
 31
0.0
  0
LINE
  5
10B5D
330
747D
100
AcDbEntity
  8
仕様書枠
 48
50.0
100
AcDbLine
 10
140.0
 20
0.0
 30
0.0
 11
16307.2
 21
-0.0000000000000909
 31
0.0
  0
LINE
  5
10B5E
330
747D
100
AcDbEntity
  8
補助
  6
PHANTOM
 62
   230
 48
50.0
100
AcDbLine
 10
16307.2
 20
11409.6
 30
0.0
 11
16307.2
 21
1200.0
 31
0.0
  0
LINE
  5
10B6C
330
747D
100
AcDbEntity
  8
仕様書枠
 48
50.0
100
AcDbLine
 10
13107.2
 20
1200.0
 30
0.0
 11
16307.2
 21
1200.0
 31
0.0
  0
TEXT
  5
10B73
330
747D
100
AcDbEntity
  8
文字
 62
     7
 48
50.0
100
AcDbText
 10
13162.9790565769
 20
895.0906074299405
 30
0.0
 40
200.0
  1
基 礎 図
  7
STYLE2
100
AcDbText
  0
LINE
  5
10B7B
330
747D
100
AcDbEntity
  8
仕様書枠
 48
50.0
100
AcDbLine
 10
13107.2
 20
800.0
 30
0.0
 11
14251.2
 21
800.0
 31
0.0
  0
LINE
  5
10B88
330
747D
100
AcDbEntity
  8
仕様書枠
  6
Continuous
 48
50.0
100
AcDbLine
 10
14251.2
 20
1200.0
 30
0.0
 11
14251.2
 21
800.0
 31
0.0
  0
LINE
  5
16462
330
747D
100
AcDbEntity
  8
仕様書枠
 48
50.0
100
AcDbLine
 10
16307.2
 20
1200.0
 30
0.0
 11
16307.2
 21
-0.0000000000000909
 31
0.0
  0
LINE
  5
1903B
330
747D
100
AcDbEntity
  8
補助
  6
PHANTOM
 62
   230
 48
50.0
100
AcDbLine
 10
140.0
 20
0.0
 30
0.0
 11
139.9999999999995
 21
11409.6
 31
0.0
  0
TEXT
  5
1C7A1
330
747D
100
AcDbEntity
  8
文字
 62
     7
 48
50.0
100
AcDbText
 10
13188.16259899338
 20
79.80631269190417
 30
0.0
 40
80.0
  1
※布基礎には換気口を設けてください。
  7
STYLE2
100
AcDbText
  0
TEXT
  5
1C7E7
330
747D
100
AcDbEntity
  8
文字
 62
     7
 48
50.0
100
AcDbText
 10
13188.16259899338
 20
246.7109242801889
 30
0.0
 40
80.0
  1
※寒冷地等は地域の実情に合わせた基礎にして下さい。
  7
STYLE2
100
AcDbText
  0
TEXT
  5
1C7EC
330
747D
100
AcDbEntity
  8
文字
 62
     7
 48
50.0
100
AcDbText
 10
14524.131837222
 20
1031.557706291229
 30
0.0
 40
100.0
  1
<縮尺> S=1/40
  7
STYLE2
100
AcDbText
  0
TEXT
  5
1C7ED
330
747D
100
AcDbEntity
  8
文字
 62
     7
 48
50.0
100
AcDbText
 10
13201.43669998441
 20
477.2740661031257
 30
0.0
 40
160.0
  1
機種名
  7
STYLE2
100
AcDbText
  0
LINE
  5
1C7EF
330
747D
100
AcDbEntity
  8
文字
 62
     7
 48
50.0
100
AcDbLine
 10
13187.2
 20
400.0
 30
0.0
 11
16227.2
 21
400.0
 31
0.0
  0
TEXT
  5
271E7
330
747D
100
AcDbEntity
  8
部品1
100
AcDbText
 10
7020.398178799905
 20
5273.072859500072
 30
0.0
 40
135.0
  1
11連棟・14連棟・17連棟・20連棟
  7
STYLE2
100
AcDbText
  0
TEXT
  5
27754
330
747D
100
AcDbEntity
  8
文字
 62
     7
 48
50.0
100
AcDbText
 10
14271.39351435261
 20
483.8967129911416
 30
0.0
 40
160.0
  1
ＮＸＮ－１１ＤＬ-Ｎ
  7
STYLE2
100
AcDbText
  0
MTEXT
  5
27DA8
330
747D
100
AcDbEntity
  8
寸法
 62
     7
 48
50.0
100
AcDbMText
 10
8796.984919384902
 20
8065.789758569174
 30
0.0
 40
120.0
 41
0.0
 71
     5
 72
     1
  1
\A1;820
  7
STYLE1
 73
     1
 44
1.0
1001
ACAD
1000
MTEXTBEGIN
1070
    73
1070
     1
1070
    44
1040
1.0
1070
    74
1070
     0
1000
MTEXTEND
  0
MTEXT
  5
27DAE
330
747D
100
AcDbEntity
  8
寸法
 62
     7
 48
50.0
100
AcDbMText
 10
8085.036898755092
 20
8300.096317515459
 30
0.0
 40
120.0
 41
0.0
 71
     5
 72
     1
  1
\A1;2460
  7
STYLE1
 73
     1
 44
1.0
1001
ACAD
1000
MTEXTBEGIN
1070
    73
1070
     1
1070
    44
1040
1.0
1070
    74
1070
     0
1000
MTEXTEND
  0
MTEXT
  5
27DAF
330
747D
100
AcDbEntity
  8
寸法
 62
     7
 48
50.0
100
AcDbMText
 10
9300.38621656746
 20
8065.789758569174
 30
0.0
 40
120.0
 41
0.0
 71
     5
 72
     1
  1
\A1;820
  7
STYLE1
 73
     1
 44
1.0
1001
ACAD
1000
MTEXTBEGIN
1070
    73
1070
     1
1070
    44
1040
1.0
1070
    74
1070
     0
1000
MTEXTEND
  0
MTEXT
  5
27DB0
330
747D
100
AcDbEntity
  8
寸法
 62
     7
 48
50.0
100
AcDbMText
 10
9820.799137359472
 20
8300.096317515459
 30
0.0
 40
120.0
 41
0.0
 71
     5
 72
     1
  1
\A1;2460
  7
STYLE1
 73
     1
 44
1.0
1001
ACAD
1000
MTEXTBEGIN
1070
    73
1070
     1
1070
    44
1040
1.0
1070
    74
1070
     0
1000
MTEXTEND
  0
DIMENSION
  5
28EFF
330
747D
100
AcDbEntity
  8
寸法
 48
50.0
100
AcDbDimension
  2
*D19
 10
12618.6
 20
7188.514997564839
 30
0.0
 11
13008.65905511811
 21
7188.514997564839
 31
0.0
 70
   160
 71
     5
 42
120.0
  3
INABA_S40G
100
AcDbAlignedDimension
 13
12738.6
 23
7205.508261603672
 33
0.0
 14
12618.6
 24
7194.764997564838
 34
0.0
100
AcDbRotatedDimension
1001
ACAD
1000
DSTYLE
1002
{
1070
   341
1005
0
1002
}
  0
DIMENSION
  5
28F00
330
747D
100
AcDbEntity
  8
寸法
 48
50.0
100
AcDbDimension
  2
*D20
 10
12165.46950000081
 20
7286.352470292193
 30
0.0
 11
12165.46950000081
 21
7773.316052969355
 31
0.0
 70
   160
 71
     5
 42
199.9999999999945
  3
INABA_S40G
100
AcDbAlignedDimension
 13
12244.53475000041
 23
7486.352470292188
 33
0.0
 14
12244.53475000041
 24
7286.352470292193
 34
0.0
 50
90.0
100
AcDbRotatedDimension
1001
ACAD
1000
DSTYLE
1002
{
1070
   341
1005
0
1002
}
  0
DIMENSION
  5
28F01
330
747D
100
AcDbEntity
  8
寸法
 48
50.0
100
AcDbDimension
  2
*D21
 10
12165.46950000081
 20
6106.352470292218
 30
0.0
 11
12165.46950000081
 21
5819.38888761504
 31
0.0
 70
   160
 71
     5
 42
279.9999999999964
  3
INABA_S40G
100
AcDbAlignedDimension
 13
12244.53475000041
 23
6386.352470292214
 33
0.0
 14
12244.53475000041
 24
6106.352470292218
 34
0.0
 50
90.0
100
AcDbRotatedDimension
1001
ACAD
1000
DSTYLE
1002
{
1070
   341
1005
0
1002
}
  0
DIMENSION
  5
28F02
330
747D
100
AcDbEntity
  8
寸法
 48
50.0
100
AcDbDimension
  2
*D22
 10
2833.72190961068
 20
6051.35247029223
 30
0.0
 11
2733.721909610679
 21
6078.852470292211
 31
0.0
 70
    32
  1
b
 71
     5
 42
54.99999999995907
  3
INABA_S40G
100
AcDbAlignedDimension
 13
3708.600000000004
 23
6106.35247029219
 33
0.0
 14
3085.665006330079
 24
6051.35247029223
 34
0.0
 50
90.0
100
AcDbRotatedDimension
1001
ACAD
1000
DSTYLE
1002
{
1070
   341
1005
0
1002
}
  0
DIMENSION
  5
28F03
330
747D
100
AcDbEntity
  8
寸法
 48
50.0
100
AcDbDimension
  2
*D23
 10
2833.72190961068
 20
7486.352470292205
 30
0.0
 11
2733.721909610679
 21
7523.852470292215
 31
0.0
 70
    32
  1
c
 71
     5
 42
75.0000000000191
  3
INABA_S40G
100
AcDbAlignedDimension
 13
3085.665006330075
 23
7561.352470292224
 33
0.0
 14
3708.600000000004
 24
7486.352470292205
 34
0.0
 50
90.0
100
AcDbRotatedDimension
1001
ACAD
1000
DSTYLE
1002
{
1070
   341
1005
0
1002
}
  0
LINE
  5
28F05
330
747D
100
AcDbEntity
  8
想像線
 48
10.0
100
AcDbLine
 10
12783.6
 20
6051.35247029221
 30
0.0
 11
12783.6
 21
7561.352470292193
 31
0.0
  0
LINE
  5
28F06
330
747D
100
AcDbEntity
  8
想像線
 48
10.0
100
AcDbLine
 10
3663.600000000008
 20
6051.352470292217
 30
0.0
 11
3663.600000000008
 21
7561.352470292208
 31
0.0
  0
DIMENSION
  5
28F08
330
747D
100
AcDbEntity
  8
寸法
 48
50.0
100
AcDbDimension
  2
*D24
 10
3708.600000000004
 20
8444.572792351126
 30
0.0
 11
3392.425378797546
 21
8444.572792351126
 31
0.0
 70
   160
  1
a
 71
     5
 42
44.99999999999636
  3
INABA_S40G
100
AcDbAlignedDimension
 13
3663.600000000008
 23
8212.618928386117
 33
0.0
 14
3708.600000000004
 24
7486.352470292205
 34
0.0
100
AcDbRotatedDimension
1001
ACAD
1000
DSTYLE
1002
{
1070
   341
1005
0
1002
}
  0
DIMENSION
  5
28F09
330
747D
100
AcDbEntity
  8
寸法
 48
50.0
100
AcDbDimension
  2
*D25
 10
12783.6
 20
8444.572792351113
 30
0.0
 11
13054.77462120246
 21
8444.572792351113
 31
0.0
 70
   160
  1
a
 71
     5
 42
45.0
  3
INABA_S40G
100
AcDbAlignedDimension
 13
12738.6
 23
7486.352470292192
 33
0.0
 14
12783.6
 24
8212.618928386103
 34
0.0
100
AcDbRotatedDimension
1001
ACAD
1000
DSTYLE
1002
{
1070
   341
1005
0
1002
}
  0
LEADER
  5
28F0A
330
747D
100
AcDbEntity
  8
寸法
 48
50.0
100
AcDbLeader
  3
INABA_S50G
 73
     0
 74
     0
 75
     1
 40
120.0
 41
149.591883092037
 76
     3
 10
12001.95401106101
 20
6825.70648735933
 30
0.0
 10
12129.23681392366
 20
6602.988173804503
 30
0.0
 10
12254.23681392366
 20
6602.988173804503
 30
0.0
340
28F0B
1001
ACAD
1000
DSTYLE
1002
{
1070
   341
1005
0
1070
    40
1040
1.0
1070
   343
1005
0
1070
   344
1005
0
1002
}
  0
MTEXT
  5
28F0B
102
{ACAD_REACTORS
330
28F0A
102
}
330
747D
100
AcDbEntity
  8
部品1
 62
     7
 48
50.0
100
AcDbMText
 10
12428.82869701569
 20
6687.988173804503
 30
0.0
 40
120.0
 41
0.0
 71
     6
 72
     1
  1
CB
  7
STYLE1
 73
     1
 44
1.0
1001
ACAD
1000
MTEXTBEGIN
1070
    73
1070
     1
1070
    44
1040
1.0
1070
    74
1070
     0
1000
MTEXTEND
  0
LEADER
  5
28F0C
330
747D
100
AcDbEntity
  8
寸法
 48
50.0
100
AcDbLeader
  3
INABA_S50G
 73
     0
 74
     0
 75
     1
 40
120.0
 41
994.3492424049171
 76
     3
 10
12615.680085757
 20
7363.560314650903
 30
0.0
 10
12789.64598830496
 20
7716.965214534699
 30
0.0
 10
12914.64598830496
 20
7716.965214534699
 30
0.0
340
28F0D
1001
ACAD
1000
DSTYLE
1002
{
1070
   341
1005
0
1070
    40
1040
1.0
1070
   343
1005
0
1070
   344
1005
0
1002
}
  0
MTEXT
  5
28F0D
102
{ACAD_REACTORS
330
28F0C
102
}
330
747D
100
AcDbEntity
  8
部品1
 62
     7
 48
50.0
100
AcDbMText
 10
13933.99523070988
 20
7801.9652145347
 30
0.0
 40
120.0
 41
0.0
 71
     6
 72
     1
  1
アンカーボルト
  7
STYLE1
 73
     1
 44
1.0
1001
ACAD
1000
MTEXTBEGIN
1070
    73
1070
     1
1070
    44
1040
1.0
1070
    74
1070
     0
1000
MTEXTEND
  0
LEADER
  5
28F0E
330
747D
100
AcDbEntity
  8
寸法
 48
50.0
100
AcDbLeader
  3
INABA_S50G
 73
     0
 74
     0
 75
     1
 40
120.0
 41
672.0
 76
     3
 10
12788.69831350344
 20
6356.291114370628
 30
0.0
 10
12904.63832569548
 20
6097.401770907052
 30
0.0
 10
13029.63832569548
 20
6097.401770907052
 30
0.0
340
28F0F
1001
ACAD
1000
DSTYLE
1002
{
1070
   341
1005
0
1070
    40
1040
1.0
1070
   343
1005
0
1070
   344
1005
0
1002
}
  0
MTEXT
  5
28F0F
102
{ACAD_REACTORS
330
28F0E
102
}
330
747D
100
AcDbEntity
  8
部品1
 62
     7
 48
50.0
100
AcDbMText
 10
13726.63832569548
 20
6182.401770907052
 30
0.0
 40
120.0
 41
0.0
 71
     6
 72
     1
  1
\A1;屋根の外寸
  7
STYLE1
 73
     1
 44
1.0
1001
ACAD
1000
MTEXTBEGIN
1070
    73
1070
     1
1070
    44
1040
1.0
1070
    74
1070
     0
1000
MTEXTEND
  0
TEXT
  5
28F10
330
747D
100
AcDbEntity
  8
部品1
 48
50.0
100
AcDbText
 10
12928.85112970688
 20
6003.091083973977
 30
0.0
 40
80.0
  1
※a,b,cは屋根の出幅です。
  7
STYLE1
100
AcDbText
  0
TEXT
  5
28F11
330
747D
100
AcDbEntity
  8
部品1
 48
50.0
100
AcDbText
 10
13087.43013846118
 20
5896.245863105224
 30
0.0
 40
80.0
  1
(a=45,b=55,c=75)
  7
STYLE1
100
AcDbText
  0
MTEXT
  5
28F12
102
{ACAD_REACTORS
330
28F13
102
}
330
747D
100
AcDbEntity
  8
部品1
 62
     7
 48
50.0
100
AcDbMText
 10
13765.46907400128
 20
6641.131673469098
 30
0.0
 40
120.0
 41
0.0
 71
     6
 72
     1
  1
\A1;床下換気口
  7
STYLE1
 73
     1
 44
1.0
1001
ACAD
1000
MTEXTBEGIN
1070
    73
1070
     1
1070
    44
1040
1.0
1070
    74
1070
     0
1000
MTEXTEND
  0
LEADER
  5
28F13
330
747D
100
AcDbEntity
  8
寸法
 48
50.0
100
AcDbLeader
  3
INABA_S50G
 73
     0
 74
     0
 75
     1
 40
120.0
 41
720.0000000000001
 76
     3
 10
12738.69549961499
 20
6817.145587036931
 30
0.0
 10
12895.46907400128
 20
6556.131673469097
 30
0.0
 10
13020.46907400128
 20
6556.131673469097
 30
0.0
340
28F12
1001
ACAD
1000
DSTYLE
1002
{
1070
   341
1005
0
1070
    40
1040
1.0
1070
   343
1005
0
1070
   344
1005
0
1002
}
  0
LINE
  5
291C8
330
747D
100
AcDbEntity
  8
想像線
 48
10.0
100
AcDbLine
 10
12783.6
 20
6051.352470292211
 30
0.0
 11
3663.600000000008
 21
6051.352470292198
 31
0.0
  0
LINE
  5
291C9
330
747D
100
AcDbEntity
  8
想像線
 48
10.0
100
AcDbLine
 10
12783.6
 20
7561.352470292185
 30
0.0
 11
3663.600000000008
 21
7561.352470292206
 31
0.0
  0
LINE
  5
29504
330
747D
100
AcDbEntity
  8
部品1
 48
50.0
100
AcDbLine
 10
12618.6
 20
7286.352470292192
 30
0.0
 11
3828.599999999998
 21
7286.352470292192
 31
0.0
  0
LINE
  5
29507
330
747D
100
AcDbEntity
  8
部品1
 48
50.0
100
AcDbLine
 10
12738.6
 20
6106.352470292215
 30
0.0
 11
3708.599999999997
 21
6106.352470292186
 31
0.0
  0
LINE
  5
29508
330
747D
100
AcDbEntity
  8
部品1
 48
50.0
100
AcDbLine
 10
12738.6
 20
7486.352470292193
 30
0.0
 11
3708.600000000001
 21
7486.352470292189
 31
0.0
  0
DIMENSION
  5
29509
330
747D
100
AcDbEntity
  8
寸法
 48
50.0
100
AcDbDimension
  2
*D26
 10
7813.600000000011
 20
7968.961286962438
 30
0.0
 11
8223.600000000011
 21
8068.973097986059
 31
0.0
 70
    32
 71
     5
 42
820.0
  3
INABA_S40G
100
AcDbAlignedDimension
 13
8633.600000000011
 23
6883.352470292189
 33
0.0
 14
7813.600000000011
 24
6883.352470292189
 34
0.0
100
AcDbRotatedDimension
1001
ACAD
1000
DSTYLE
1002
{
1070
   341
1005
0
1002
}
  0
TEXT
  5
2950A
330
747D
100
AcDbEntity
  8
寸法
 48
50.0
100
AcDbText
 10
8410.836945956594
 20
6125.033761084927
 30
0.0
 40
120.0
  1
扉面
  7
STYLE1
100
AcDbText
  0
DIMENSION
  5
2950C
330
747D
100
AcDbEntity
  8
寸法
 48
50.0
100
AcDbDimension
  2
*D27
 10
12738.6
 20
8444.572792351108
 30
0.0
 11
8223.600000000001
 21
8544.58460337473
 31
0.0
 70
    32
  1
N X 820+10
 71
     5
 42
9030.0
  3
INABA_S40G
100
AcDbAlignedDimension
 13
3708.600000000001
 23
7486.352470292189
 33
0.0
 14
12738.6
 24
7486.352470292189
 34
0.0
100
AcDbRotatedDimension
1001
ACAD
1000
DSTYLE
1002
{
1070
   341
1005
0
1002
}
  0
LINE
  5
2950D
330
747D
100
AcDbEntity
  8
細線
 48
50.0
100
AcDbLine
 10
3708.599999999997
 20
6808.474998055328
 30
0.0
 11
3821.477472236866
 21
6921.352470292198
 31
0.0
  0
LINE
  5
2950E
330
747D
100
AcDbEntity
  8
細線
 48
50.0
100
AcDbLine
 10
3708.599999999997
 20
6853.376278660674
 30
0.0
 11
3776.576191631522
 21
6921.352470292198
 31
0.0
  0
LINE
  5
2950F
330
747D
100
AcDbEntity
  8
部品1
 48
50.0
100
AcDbLine
 10
7913.600000000011
 20
6733.352470292189
 30
0.0
 11
7913.600000000011
 21
6933.352470292189
 31
0.0
  0
LINE
  5
29510
330
747D
100
AcDbEntity
  8
部品1
 48
50.0
100
AcDbLine
 10
7713.600000000011
 20
6733.352470292189
 30
0.0
 11
7713.600000000011
 21
6933.352470292189
 31
0.0
  0
LINE
  5
29511
330
747D
100
AcDbEntity
  8
部品1
 48
50.0
100
AcDbLine
 10
7093.600000000012
 20
6733.352470292189
 30
0.0
 11
7093.600000000012
 21
6933.352470292189
 31
0.0
  0
LINE
  5
29512
330
747D
100
AcDbEntity
  8
部品1
 48
50.0
100
AcDbLine
 10
6893.600000000012
 20
6733.352470292189
 30
0.0
 11
6893.600000000012
 21
6933.352470292189
 31
0.0
  0
LINE
  5
29513
330
747D
100
AcDbEntity
  8
部品1
 48
50.0
100
AcDbLine
 10
6273.600000000011
 20
6733.352470292189
 30
0.0
 11
6273.600000000011
 21
6933.352470292189
 31
0.0
  0
LINE
  5
29514
330
747D
100
AcDbEntity
  8
部品1
 48
50.0
100
AcDbLine
 10
6073.600000000011
 20
6733.352470292189
 30
0.0
 11
6073.600000000011
 21
6933.352470292189
 31
0.0
  0
DIMENSION
  5
29517
330
747D
100
AcDbEntity
  8
寸法
 48
50.0
100
AcDbDimension
  2
*D28
 10
6993.600000000012
 20
7968.961286962438
 30
0.0
 11
7403.60000000001
 21
8068.973097986059
 31
0.0
 70
    32
 71
     5
 42
819.9999999999963
  3
INABA_S40G
100
AcDbAlignedDimension
 13
7813.600000000008
 23
6883.352470292189
 33
0.0
 14
6993.600000000012
 24
6883.352470292189
 34
0.0
100
AcDbRotatedDimension
1001
ACAD
1000
DSTYLE
1002
{
1070
   341
1005
0
1002
}
  0
DIMENSION
  5
29518
330
747D
100
AcDbEntity
  8
寸法
 48
50.0
100
AcDbDimension
  2
*D29
 10
6173.600000000011
 20
7968.961286962438
 30
0.0
 11
6583.600000000011
 21
8068.973097986059
 31
0.0
 70
    32
 71
     5
 42
820.0
  3
INABA_S40G
100
AcDbAlignedDimension
 13
6993.600000000012
 23
6883.352470292189
 33
0.0
 14
6173.600000000011
 24
6883.352470292189
 34
0.0
100
AcDbRotatedDimension
1001
ACAD
1000
DSTYLE
1002
{
1070
   341
1005
0
1002
}
  0
LINE
  5
29519
330
747D
100
AcDbEntity
  8
部品1
 48
50.0
100
AcDbLine
 10
5453.600000000012
 20
6733.352470292189
 30
0.0
 11
5453.600000000012
 21
6933.352470292189
 31
0.0
  0
LINE
  5
2951A
330
747D
100
AcDbEntity
  8
部品1
 48
50.0
100
AcDbLine
 10
5253.600000000012
 20
6733.352470292189
 30
0.0
 11
5253.600000000012
 21
6933.352470292189
 31
0.0
  0
LINE
  5
2951B
330
747D
100
AcDbEntity
  8
部品1
 48
50.0
100
AcDbLine
 10
4633.600000000007
 20
6733.352470292189
 30
0.0
 11
4633.600000000007
 21
6933.352470292189
 31
0.0
  0
LINE
  5
2951C
330
747D
100
AcDbEntity
  8
部品1
 48
50.0
100
AcDbLine
 10
4433.600000000008
 20
6733.352470292189
 30
0.0
 11
4433.600000000008
 21
6933.352470292189
 31
0.0
  0
DIMENSION
  5
2951D
330
747D
100
AcDbEntity
  8
寸法
 48
50.0
100
AcDbDimension
  2
*D30
 10
4191.285990614304
 20
7486.352470292189
 30
0.0
 11
4191.285990614302
 21
7099.841747520251
 31
0.0
 70
   160
 71
     5
 42
653.0
  3
INABA_S40G
100
AcDbAlignedDimension
 13
4483.600000000008
 23
6833.352470292189
 33
0.0
 14
4282.765475140901
 24
7486.352470292189
 34
0.0
 50
90.0
100
AcDbRotatedDimension
1001
ACAD
1000
DSTYLE
1002
{
1070
   341
1005
0
1002
}
  0
DIMENSION
  5
2951E
330
747D
100
AcDbEntity
  8
寸法
 48
50.0
100
AcDbDimension
  2
*D31
 10
4533.600000000007
 20
7968.961286962438
 30
0.0
 11
4943.600000000009
 21
8068.973097986059
 31
0.0
 70
    32
 71
     5
 42
820.0000000000036
  3
INABA_S40G
100
AcDbAlignedDimension
 13
5353.600000000011
 23
6883.352470292189
 33
0.0
 14
4533.600000000007
 24
6883.352470292189
 34
0.0
100
AcDbRotatedDimension
1001
ACAD
1000
DSTYLE
1002
{
1070
   341
1005
0
1002
}
  0
DIMENSION
  5
2951F
330
747D
100
AcDbEntity
  8
寸法
 48
50.0
100
AcDbDimension
  2
*D32
 10
3708.600000000001
 20
7968.961286962438
 30
0.0
 11
4121.100000000004
 21
8068.973097986059
 31
0.0
 70
    32
 71
     5
 42
825.0000000000072
  3
INABA_S40G
100
AcDbAlignedDimension
 13
4533.600000000007
 23
6883.352470292189
 33
0.0
 14
3708.600000000001
 24
7486.352470292189
 34
0.0
100
AcDbRotatedDimension
1001
ACAD
1000
DSTYLE
1002
{
1070
   341
1005
0
1002
}
  0
DIMENSION
  5
29520
330
747D
100
AcDbEntity
  8
寸法
 48
50.0
100
AcDbDimension
  2
*D33
 10
5353.600000000011
 20
7968.961286962438
 30
0.0
 11
5763.600000000011
 21
8068.973097986059
 31
0.0
 70
    32
 71
     5
 42
820.0
  3
INABA_S40G
100
AcDbAlignedDimension
 13
6173.600000000011
 23
6883.352470292189
 33
0.0
 14
5353.600000000011
 24
6883.352470292189
 34
0.0
100
AcDbRotatedDimension
1001
ACAD
1000
DSTYLE
1002
{
1070
   341
1005
0
1002
}
  0
DIMENSION
  5
29521
330
747D
100
AcDbEntity
  8
寸法
 48
50.0
100
AcDbDimension
  2
*D34
 10
2833.721909610673
 20
6106.35247029219
 30
0.0
 11
2833.721909610673
 21
6833.85247029219
 31
0.0
 70
   160
 71
     5
 42
1380.0
  3
INABA_S40G
100
AcDbAlignedDimension
 13
3708.600000000001
 23
7486.352470292189
 33
0.0
 14
3708.600000000001
 24
6106.35247029219
 34
0.0
 50
90.0
100
AcDbRotatedDimension
1001
ACAD
1000
DSTYLE
1002
{
1070
   341
1005
0
1002
}
  0
LINE
  5
29522
330
747D
100
AcDbEntity
  8
部品1
 48
50.0
100
AcDbLine
 10
3708.600000000001
 20
6106.35247029219
 30
0.0
 11
3708.600000000001
 21
7486.352470292189
 31
0.0
  0
DIMENSION
  5
29524
330
747D
100
AcDbEntity
  8
寸法
 48
50.0
100
AcDbDimension
  2
*D35
 10
3085.665006330073
 20
6304.352470292194
 30
0.0
 11
3085.665006330071
 21
6833.85247029219
 31
0.0
 70
   160
 71
     5
 42
1058.999999999996
  3
INABA_S40G
100
AcDbAlignedDimension
 13
3781.6
 23
7363.35247029219
 33
0.0
 14
3781.600000000008
 24
6304.352470292194
 34
0.0
 50
90.0
100
AcDbRotatedDimension
1001
ACAD
1000
DSTYLE
1002
{
1070
   341
1005
0
1002
}
  0
DIMENSION
  5
29528
330
747D
100
AcDbEntity
  8
寸法
 48
50.0
100
AcDbDimension
  2
*D36
 10
3595.512673767883
 20
5386.352470292186
 30
0.0
 11
3595.512673767882
 21
5746.352470292187
 31
0.0
 70
   160
  1
扉の出<>
 71
     5
 42
720.0
  3
INABA_S40G
100
AcDbAlignedDimension
 13
3708.600000000004
 23
6106.352470292186
 33
0.0
 14
4064.325326928808
 24
5386.352470292186
 34
0.0
 50
90.0
100
AcDbRotatedDimension
1001
ACAD
1000
DSTYLE
1002
{
1070
   341
1005
0
1002
}
  0
DIMENSION
  5
29529
330
747D
100
AcDbEntity
  8
寸法
 48
50.0
100
AcDbDimension
  2
*D37
 10
3085.665006330073
 20
6106.35247029219
 30
0.0
 11
3085.665006330071
 21
5770.821521449597
 31
0.0
 70
   160
 71
     5
 42
198.0000000000036
  3
INABA_S40G
100
AcDbAlignedDimension
 13
3781.600000000008
 23
6304.352470292194
 33
0.0
 14
3708.600000000001
 24
6106.35247029219
 34
0.0
 50
90.0
100
AcDbRotatedDimension
1001
ACAD
1000
DSTYLE
1002
{
1070
   341
1005
0
1002
}
  0
LINE
  5
2952A
330
747D
100
AcDbEntity
  8
想像線
 48
5.0
100
AcDbLine
 10
4478.600000000004
 20
6106.352470292204
 30
0.0
 11
4478.600000000004
 21
5386.352470292194
 31
0.0
  0
ARC
  5
2952B
330
747D
100
AcDbEntity
  8
想像線
 48
5.0
100
AcDbCircle
 10
4478.600000000004
 20
6106.352470292193
 30
0.0
 40
720.0
100
AcDbArc
 50
180.0
 51
270.0
  0
DIMENSION
  5
2952C
330
747D
100
AcDbEntity
  8
寸法
 48
50.0
100
AcDbDimension
  2
*D38
 10
4191.285990614302
 20
6833.352470292189
 30
0.0
 11
4191.2859906143
 21
6548.35247029219
 31
0.0
 70
   160
 71
     5
 42
726.9999999999891
  3
INABA_S40G
100
AcDbAlignedDimension
 13
4282.765475140901
 23
6106.3524702922
 33
0.0
 14
4483.600000000008
 24
6833.352470292189
 34
0.0
 50
90.0
100
AcDbRotatedDimension
1001
ACAD
1000
DSTYLE
1002
{
1070
   341
1005
0
1002
}
  0
LINE
  5
2952D
330
747D
100
AcDbEntity
  8
細線
 48
50.0
100
AcDbLine
 10
4023.599999999998
 20
6284.857069580485
 30
0.0
 11
4125.095400711703
 21
6386.352470292188
 31
0.0
  0
LINE
  5
2952E
330
747D
100
AcDbEntity
  8
部品1
 48
50.0
100
AcDbLine
 10
4223.599999999996
 20
6386.35247029219
 30
0.0
 11
4223.600000000003
 21
6106.352470292188
 31
0.0
  0
LINE
  5
2952F
330
747D
100
AcDbEntity
  8
部品1
 48
50.0
100
AcDbLine
 10
4023.599999999996
 20
6386.352470292188
 30
0.0
 11
4023.600000000004
 21
6106.352470292184
 31
0.0
  0
LINE
  5
29530
330
747D
100
AcDbEntity
  8
細線
 48
50.0
100
AcDbLine
 10
4024.700523133076
 20
6106.352470292186
 30
0.0
 11
4223.6
 21
6305.25194715911
 31
0.0
  0
LINE
  5
29531
330
747D
100
AcDbEntity
  8
細線
 48
50.0
100
AcDbLine
 10
4023.600000000004
 20
6150.15322776446
 30
0.0
 11
4223.599999999998
 21
6350.153227764453
 31
0.0
  0
LINE
  5
29532
330
747D
100
AcDbEntity
  8
細線
 48
50.0
100
AcDbLine
 10
4023.600000000002
 20
6195.054508369803
 30
0.0
 11
4214.897961922388
 21
6386.35247029219
 31
0.0
  0
LINE
  5
29533
330
747D
100
AcDbEntity
  8
細線
 48
50.0
100
AcDbLine
 10
4023.600000000002
 20
6239.955788975148
 30
0.0
 11
4169.996681317042
 21
6386.352470292188
 31
0.0
  0
LINE
  5
29534
330
747D
100
AcDbEntity
  8
センター
 48
2.0
100
AcDbLine
 10
3831.600000000008
 20
6354.352470292194
 30
0.0
 11
3831.600000000008
 21
6254.352470292193
 31
0.0
  0
CIRCLE
  5
29535
330
747D
100
AcDbEntity
  8
部品1
 48
50.0
100
AcDbCircle
 10
3831.599999999993
 20
6304.352470292194
 30
0.0
 40
35.0
  0
LINE
  5
29536
330
747D
100
AcDbEntity
  8
センター
 48
2.0
100
AcDbLine
 10
3781.600000000008
 20
6304.352470292194
 30
0.0
 11
3881.600000000008
 21
6304.352470292194
 31
0.0
  0
LINE
  5
29537
330
747D
100
AcDbEntity
  8
細線
 48
50.0
100
AcDbLine
 10
4114.503084343769
 20
6106.352470292186
 30
0.0
 11
4223.6
 21
6215.449385948419
 31
0.0
  0
LINE
  5
29538
330
747D
100
AcDbEntity
  8
細線
 48
50.0
100
AcDbLine
 10
4069.601803738422
 20
6106.352470292186
 30
0.0
 11
4223.6
 21
6260.350666553766
 31
0.0
  0
LINE
  5
29539
330
747D
100
AcDbEntity
  8
細線
 48
50.0
100
AcDbLine
 10
4159.404364949116
 20
6106.352470292188
 30
0.0
 11
4223.600000000002
 21
6170.548105343073
 31
0.0
  0
LINE
  5
2953A
330
747D
100
AcDbEntity
  8
細線
 48
50.0
100
AcDbLine
 10
4204.305645554462
 20
6106.35247029219
 30
0.0
 11
4223.600000000002
 21
6125.646824737727
 31
0.0
  0
LINE
  5
2953B
330
747D
100
AcDbEntity
  8
細線
 48
50.0
100
AcDbLine
 10
3711.28003344756
 20
6721.352470292199
 30
0.0
 11
3828.6
 21
6838.672436844639
 31
0.0
  0
LINE
  5
2953C
330
747D
100
AcDbEntity
  8
細線
 48
50.0
100
AcDbLine
 10
3708.599999999999
 20
6763.573717449985
 30
0.0
 11
3828.599999999999
 21
6883.573717449983
 31
0.0
  0
LINE
  5
2953D
330
747D
100
AcDbEntity
  8
部品1
 48
50.0
100
AcDbLine
 10
3828.6
 20
6721.352470292199
 30
0.0
 11
3708.599999999999
 21
6721.352470292199
 31
0.0
  0
LINE
  5
2953E
330
747D
100
AcDbEntity
  8
細線
 48
50.0
100
AcDbLine
 10
3801.082594658247
 20
6721.352470292197
 30
0.0
 11
3828.6
 21
6748.869875633937
 31
0.0
  0
LINE
  5
2953F
330
747D
100
AcDbEntity
  8
細線
 48
50.0
100
AcDbLine
 10
3756.181314052905
 20
6721.352470292199
 30
0.0
 11
3828.6
 21
6793.771156239298
 31
0.0
  0
LINE
  5
29540
330
747D
100
AcDbEntity
  8
細線
 48
50.0
100
AcDbLine
 10
4023.599999999997
 20
6329.758350185832
 30
0.0
 11
4080.194120106354
 21
6386.35247029219
 31
0.0
  0
LINE
  5
2954C
330
747D
100
AcDbEntity
  8
センター
 48
2.0
100
AcDbLine
 10
4483.600000000008
 20
6833.352470292189
 30
0.0
 11
4583.600000000007
 21
6833.352470292189
 31
0.0
  0
LINE
  5
2954D
330
747D
100
AcDbEntity
  8
部品1
 48
50.0
100
AcDbLine
 10
4633.600000000007
 20
6733.352470292189
 30
0.0
 11
4433.600000000008
 21
6733.352470292189
 31
0.0
  0
LINE
  5
2954E
330
747D
100
AcDbEntity
  8
センター
 48
2.0
100
AcDbLine
 10
4533.600000000007
 20
6883.352470292189
 30
0.0
 11
4533.600000000007
 21
6783.352470292189
 31
0.0
  0
LINE
  5
2955B
330
747D
100
AcDbEntity
  8
センター
 48
2.0
100
AcDbLine
 10
5303.600000000011
 20
6833.352470292189
 30
0.0
 11
5403.600000000011
 21
6833.352470292189
 31
0.0
  0
LINE
  5
2955C
330
747D
100
AcDbEntity
  8
部品1
 48
50.0
100
AcDbLine
 10
5453.600000000012
 20
6733.352470292189
 30
0.0
 11
5253.600000000012
 21
6733.352470292189
 31
0.0
  0
LINE
  5
2955D
330
747D
100
AcDbEntity
  8
センター
 48
2.0
100
AcDbLine
 10
5353.600000000011
 20
6883.352470292189
 30
0.0
 11
5353.600000000011
 21
6783.352470292189
 31
0.0
  0
CIRCLE
  5
29566
330
747D
100
AcDbEntity
  8
部品1
 48
50.0
100
AcDbCircle
 10
6055.600000000011
 20
6304.352470292194
 30
0.0
 40
35.0
  0
LINE
  5
29567
330
747D
100
AcDbEntity
  8
センター
 48
2.0
100
AcDbLine
 10
6055.600000000011
 20
6354.352470292194
 30
0.0
 11
6055.600000000011
 21
6254.352470292193
 31
0.0
  0
LINE
  5
29568
330
747D
100
AcDbEntity
  8
センター
 48
2.0
100
AcDbLine
 10
6005.600000000011
 20
6304.352470292194
 30
0.0
 11
6105.600000000011
 21
6304.352470292194
 31
0.0
  0
LINE
  5
2956D
330
747D
100
AcDbEntity
  8
センター
 48
2.0
100
AcDbLine
 10
6123.600000000011
 20
6833.352470292189
 30
0.0
 11
6223.600000000011
 21
6833.352470292189
 31
0.0
  0
LINE
  5
2956E
330
747D
100
AcDbEntity
  8
部品1
 48
50.0
100
AcDbLine
 10
6273.600000000011
 20
6733.352470292189
 30
0.0
 11
6073.600000000011
 21
6733.352470292189
 31
0.0
  0
LINE
  5
2956F
330
747D
100
AcDbEntity
  8
センター
 48
2.0
100
AcDbLine
 10
6173.600000000011
 20
6883.352470292189
 30
0.0
 11
6173.600000000011
 21
6783.352470292189
 31
0.0
  0
LINE
  5
2957C
330
747D
100
AcDbEntity
  8
センター
 48
2.0
100
AcDbLine
 10
6943.600000000012
 20
6833.352470292189
 30
0.0
 11
7043.600000000012
 21
6833.352470292189
 31
0.0
  0
LINE
  5
2957D
330
747D
100
AcDbEntity
  8
部品1
 48
50.0
100
AcDbLine
 10
7093.600000000012
 20
6733.352470292189
 30
0.0
 11
6893.600000000012
 21
6733.352470292189
 31
0.0
  0
LINE
  5
2957E
330
747D
100
AcDbEntity
  8
センター
 48
2.0
100
AcDbLine
 10
6993.600000000012
 20
6883.352470292189
 30
0.0
 11
6993.600000000012
 21
6783.352470292189
 31
0.0
  0
LINE
  5
29587
330
747D
100
AcDbEntity
  8
センター
 48
2.0
100
AcDbLine
 10
7695.600000000012
 20
6354.352470292194
 30
0.0
 11
7695.600000000012
 21
6254.352470292193
 31
0.0
  0
CIRCLE
  5
29588
330
747D
100
AcDbEntity
  8
部品1
 48
50.0
100
AcDbCircle
 10
7695.600000000012
 20
6304.352470292194
 30
0.0
 40
35.0
  0
LINE
  5
29589
330
747D
100
AcDbEntity
  8
センター
 48
2.0
100
AcDbLine
 10
7645.600000000012
 20
6304.352470292194
 30
0.0
 11
7745.600000000012
 21
6304.352470292194
 31
0.0
  0
LINE
  5
2958E
330
747D
100
AcDbEntity
  8
センター
 48
2.0
100
AcDbLine
 10
7763.60000000001
 20
6833.352470292189
 30
0.0
 11
7863.600000000011
 21
6833.352470292189
 31
0.0
  0
LINE
  5
2958F
330
747D
100
AcDbEntity
  8
部品1
 48
50.0
100
AcDbLine
 10
7913.600000000011
 20
6733.352470292189
 30
0.0
 11
7713.600000000011
 21
6733.352470292189
 31
0.0
  0
LINE
  5
29590
330
747D
100
AcDbEntity
  8
センター
 48
2.0
100
AcDbLine
 10
7813.600000000011
 20
6883.352470292189
 30
0.0
 11
7813.600000000011
 21
6783.352470292189
 31
0.0
  0
DIMENSION
  5
29592
330
747D
100
AcDbEntity
  8
寸法
 48
50.0
100
AcDbDimension
  2
*D39
 10
3831.6
 20
8212.618928386101
 30
0.0
 11
4943.600000000002
 21
8312.630739409723
 31
0.0
 70
    32
 71
     5
 42
2224.000000000004
  3
INABA_S40G
100
AcDbAlignedDimension
 13
6055.600000000004
 23
7413.35247029219
 33
0.0
 14
3831.6
 24
7413.35247029219
 34
0.0
100
AcDbRotatedDimension
1001
ACAD
1000
DSTYLE
1002
{
1070
   341
1005
0
1002
}
  0
DIMENSION
  5
29594
330
747D
100
AcDbEntity
  8
寸法
 48
50.0
100
AcDbDimension
  2
*D40
 10
3085.665006330073
 20
7363.35247029219
 30
0.0
 11
3085.665006330071
 21
7759.459072009988
 31
0.0
 70
   160
 71
     5
 42
123.0
  3
INABA_S40G
100
AcDbAlignedDimension
 13
3708.600000000001
 23
7486.352470292189
 33
0.0
 14
3781.6
 24
7363.35247029219
 34
0.0
 50
90.0
100
AcDbRotatedDimension
1001
ACAD
1000
DSTYLE
1002
{
1070
   341
1005
0
1002
}
  0
DIMENSION
  5
29595
330
747D
100
AcDbEntity
  8
寸法
 48
50.0
100
AcDbDimension
  2
*D41
 10
3708.600000000001
 20
8212.618928386101
 30
0.0
 11
3435.493398282203
 21
8212.618928386101
 31
0.0
 70
   160
 71
     5
 42
123.0
  3
INABA_S40G
100
AcDbAlignedDimension
 13
3831.6
 23
7413.35247029219
 33
0.0
 14
3708.600000000001
 24
7486.352470292189
 34
0.0
100
AcDbRotatedDimension
1001
ACAD
1000
DSTYLE
1002
{
1070
   341
1005
0
1002
}
  0
LINE
  5
29597
330
747D
100
AcDbEntity
  8
細線
 48
50.0
100
AcDbLine
 10
4023.600000000004
 20
7423.277559266026
 30
0.0
 11
4086.674911026164
 21
7486.352470292183
 31
0.0
  0
LINE
  5
29598
330
747D
100
AcDbEntity
  8
部品1
 48
50.0
100
AcDbLine
 10
4023.600000000004
 20
7486.352470292183
 30
0.0
 11
4023.600000000008
 21
7286.352470292192
 31
0.0
  0
LINE
  5
29599
330
747D
100
AcDbEntity
  8
部品1
 48
50.0
100
AcDbLine
 10
4223.600000000003
 20
7486.352470292183
 30
0.0
 11
4223.600000000006
 21
7286.352470292192
 31
0.0
  0
LINE
  5
2959A
330
747D
100
AcDbEntity
  8
細線
 48
50.0
100
AcDbLine
 10
4023.600000000008
 20
7288.573717449992
 30
0.0
 11
4221.378752842201
 21
7486.352470292183
 31
0.0
  0
LINE
  5
2959B
330
747D
100
AcDbEntity
  8
細線
 48
50.0
100
AcDbLine
 10
4023.600000000006
 20
7333.474998055335
 30
0.0
 11
4176.477472236856
 21
7486.352470292186
 31
0.0
  0
LINE
  5
2959C
330
747D
100
AcDbEntity
  8
細線
 48
50.0
100
AcDbLine
 10
4023.600000000004
 20
7378.37627866068
 30
0.0
 11
4131.576191631509
 21
7486.352470292183
 31
0.0
  0
LINE
  5
2959D
330
747D
100
AcDbEntity
  8
細線
 48
50.0
100
AcDbLine
 10
3708.599999999999
 20
6898.277559266022
 30
0.0
 11
3731.674911026177
 21
6921.3524702922
 31
0.0
  0
LINE
  5
2959E
330
747D
100
AcDbEntity
  8
部品1
 48
50.0
100
AcDbLine
 10
3828.599999999999
 20
6921.3524702922
 30
0.0
 11
3708.599999999999
 21
6921.352470292198
 31
0.0
  0
LINE
  5
2959F
330
747D
100
AcDbEntity
  8
センター
 48
2.0
100
AcDbLine
 10
3831.6
 20
7413.35247029219
 30
0.0
 11
3831.6
 21
7313.352470292191
 31
0.0
  0
LINE
  5
295A0
330
747D
100
AcDbEntity
  8
センター
 48
2.0
100
AcDbLine
 10
3781.6
 20
7363.35247029219
 30
0.0
 11
3881.6
 21
7363.35247029219
 31
0.0
  0
CIRCLE
  5
295A1
330
747D
100
AcDbEntity
  8
部品1
 48
50.0
100
AcDbCircle
 10
3831.6
 20
7363.35247029219
 30
0.0
 40
35.0
  0
LINE
  5
295A2
330
747D
100
AcDbEntity
  8
細線
 48
50.0
100
AcDbLine
 10
4111.181314052913
 20
7286.352470292192
 30
0.0
 11
4223.600000000003
 21
7398.771156239297
 31
0.0
  0
LINE
  5
295A3
330
747D
100
AcDbEntity
  8
細線
 48
50.0
100
AcDbLine
 10
4066.280033447553
 20
7286.352470292192
 30
0.0
 11
4223.600000000002
 21
7443.672436844642
 31
0.0
  0
LINE
  5
295A4
330
747D
100
AcDbEntity
  8
細線
 48
50.0
100
AcDbLine
 10
4200.983875263604
 20
7286.35247029219
 30
0.0
 11
4223.600000000006
 21
7308.968595028597
 31
0.0
  0
LINE
  5
295A5
330
747D
100
AcDbEntity
  8
細線
 48
50.0
100
AcDbLine
 10
4156.08259465825
 20
7286.352470292192
 30
0.0
 11
4223.600000000003
 21
7353.869875633946
 31
0.0
  0
LINE
  5
295A6
330
747D
100
AcDbEntity
  8
細線
 48
50.0
100
AcDbLine
 10
4023.600000000004
 20
7468.178839871369
 30
0.0
 11
4041.773630420817
 21
7486.352470292186
 31
0.0
  0
LINE
  5
295A7
330
747D
100
AcDbEntity
  8
細線
 48
50.0
100
AcDbLine
 10
4843.600000000004
 20
7423.277559266026
 30
0.0
 11
4906.674911026165
 21
7486.352470292183
 31
0.0
  0
LINE
  5
295A8
330
747D
100
AcDbEntity
  8
細線
 48
50.0
100
AcDbLine
 10
4843.600000000004
 20
7378.37627866068
 30
0.0
 11
4951.576191631509
 21
7486.352470292183
 31
0.0
  0
LINE
  5
295A9
330
747D
100
AcDbEntity
  8
細線
 48
50.0
100
AcDbLine
 10
4843.600000000005
 20
7333.474998055335
 30
0.0
 11
4996.477472236857
 21
7486.352470292186
 31
0.0
  0
LINE
  5
295AA
330
747D
100
AcDbEntity
  8
細線
 48
50.0
100
AcDbLine
 10
4843.600000000008
 20
7288.573717449992
 30
0.0
 11
5041.378752842202
 21
7486.352470292183
 31
0.0
  0
LINE
  5
295AB
330
747D
100
AcDbEntity
  8
部品1
 48
50.0
100
AcDbLine
 10
5043.600000000004
 20
7486.352470292183
 30
0.0
 11
5043.600000000005
 21
7286.352470292192
 31
0.0
  0
LINE
  5
295AC
330
747D
100
AcDbEntity
  8
部品1
 48
50.0
100
AcDbLine
 10
4843.600000000004
 20
7486.352470292183
 30
0.0
 11
4843.600000000008
 21
7286.352470292192
 31
0.0
  0
LINE
  5
295AD
330
747D
100
AcDbEntity
  8
部品1
 48
50.0
100
AcDbLine
 10
4633.600000000007
 20
6933.352470292189
 30
0.0
 11
4433.600000000008
 21
6933.352470292189
 31
0.0
  0
LINE
  5
295AE
330
747D
100
AcDbEntity
  8
細線
 48
50.0
100
AcDbLine
 10
4931.181314052913
 20
7286.352470292192
 30
0.0
 11
5043.600000000004
 21
7398.771156239297
 31
0.0
  0
LINE
  5
295AF
330
747D
100
AcDbEntity
  8
細線
 48
50.0
100
AcDbLine
 10
4886.280033447552
 20
7286.352470292192
 30
0.0
 11
5043.600000000002
 21
7443.672436844642
 31
0.0
  0
LINE
  5
295B0
330
747D
100
AcDbEntity
  8
細線
 48
50.0
100
AcDbLine
 10
4976.08259465825
 20
7286.352470292192
 30
0.0
 11
5043.600000000004
 21
7353.869875633946
 31
0.0
  0
LINE
  5
295B1
330
747D
100
AcDbEntity
  8
細線
 48
50.0
100
AcDbLine
 10
5020.983875263604
 20
7286.35247029219
 30
0.0
 11
5043.600000000005
 21
7308.968595028597
 31
0.0
  0
LINE
  5
295B2
330
747D
100
AcDbEntity
  8
細線
 48
50.0
100
AcDbLine
 10
4843.600000000004
 20
7468.178839871369
 30
0.0
 11
4861.773630420817
 21
7486.352470292186
 31
0.0
  0
DIMENSION
  5
295B3
330
747D
100
AcDbEntity
  8
寸法
 48
50.0
100
AcDbDimension
  2
*D42
 10
6055.600000000004
 20
8212.618928386101
 30
0.0
 11
6875.600000000003
 21
8312.6189283861
 31
0.0
 70
    32
 71
     5
 42
1639.999999999996
  3
INABA_S40G
100
AcDbAlignedDimension
 13
7695.6
 23
7413.35247029219
 33
0.0
 14
6055.600000000004
 24
7413.35247029219
 34
0.0
100
AcDbRotatedDimension
1001
ACAD
1000
DSTYLE
1002
{
1070
   341
1005
0
1002
}
  0
LINE
  5
295B4
330
747D
100
AcDbEntity
  8
細線
 48
50.0
100
AcDbLine
 10
5663.600000000004
 20
7423.277559266026
 30
0.0
 11
5726.674911026164
 21
7486.352470292183
 31
0.0
  0
LINE
  5
295B5
330
747D
100
AcDbEntity
  8
部品1
 48
50.0
100
AcDbLine
 10
5663.600000000004
 20
7486.352470292183
 30
0.0
 11
5663.600000000008
 21
7286.352470292192
 31
0.0
  0
LINE
  5
295B6
330
747D
100
AcDbEntity
  8
部品1
 48
50.0
100
AcDbLine
 10
5863.600000000004
 20
7486.352470292183
 30
0.0
 11
5863.600000000006
 21
7286.352470292192
 31
0.0
  0
LINE
  5
295B7
330
747D
100
AcDbEntity
  8
細線
 48
50.0
100
AcDbLine
 10
5663.600000000008
 20
7288.573717449992
 30
0.0
 11
5861.378752842202
 21
7486.352470292183
 31
0.0
  0
LINE
  5
295B8
330
747D
100
AcDbEntity
  8
細線
 48
50.0
100
AcDbLine
 10
5663.600000000005
 20
7333.474998055335
 30
0.0
 11
5816.477472236857
 21
7486.352470292186
 31
0.0
  0
LINE
  5
295B9
330
747D
100
AcDbEntity
  8
細線
 48
50.0
100
AcDbLine
 10
5663.600000000004
 20
7378.37627866068
 30
0.0
 11
5771.57619163151
 21
7486.352470292183
 31
0.0
  0
LINE
  5
295BB
330
747D
100
AcDbEntity
  8
部品1
 48
50.0
100
AcDbLine
 10
5453.600000000012
 20
6933.352470292189
 30
0.0
 11
5253.600000000012
 21
6933.352470292189
 31
0.0
  0
LINE
  5
295BC
330
747D
100
AcDbEntity
  8
細線
 48
50.0
100
AcDbLine
 10
5751.181314052914
 20
7286.352470292192
 30
0.0
 11
5863.600000000004
 21
7398.771156239297
 31
0.0
  0
LINE
  5
295BD
330
747D
100
AcDbEntity
  8
細線
 48
50.0
100
AcDbLine
 10
5706.280033447552
 20
7286.352470292192
 30
0.0
 11
5863.600000000002
 21
7443.672436844642
 31
0.0
  0
LINE
  5
295BE
330
747D
100
AcDbEntity
  8
細線
 48
50.0
100
AcDbLine
 10
5840.983875263604
 20
7286.35247029219
 30
0.0
 11
5863.600000000006
 21
7308.968595028597
 31
0.0
  0
LINE
  5
295BF
330
747D
100
AcDbEntity
  8
細線
 48
50.0
100
AcDbLine
 10
5796.08259465825
 20
7286.352470292192
 30
0.0
 11
5863.600000000004
 21
7353.869875633946
 31
0.0
  0
LINE
  5
295C0
330
747D
100
AcDbEntity
  8
細線
 48
50.0
100
AcDbLine
 10
5663.600000000004
 20
7468.178839871369
 30
0.0
 11
5681.773630420817
 21
7486.352470292186
 31
0.0
  0
LINE
  5
295C1
330
747D
100
AcDbEntity
  8
細線
 48
50.0
100
AcDbLine
 10
6483.600000000004
 20
7423.277559266026
 30
0.0
 11
6546.674911026165
 21
7486.352470292183
 31
0.0
  0
LINE
  5
295C2
330
747D
100
AcDbEntity
  8
細線
 48
50.0
100
AcDbLine
 10
6483.600000000004
 20
7378.37627866068
 30
0.0
 11
6591.576191631509
 21
7486.352470292183
 31
0.0
  0
LINE
  5
295C3
330
747D
100
AcDbEntity
  8
細線
 48
50.0
100
AcDbLine
 10
6483.600000000006
 20
7333.474998055335
 30
0.0
 11
6636.477472236856
 21
7486.352470292186
 31
0.0
  0
LINE
  5
295C4
330
747D
100
AcDbEntity
  8
細線
 48
50.0
100
AcDbLine
 10
6483.600000000008
 20
7288.573717449992
 30
0.0
 11
6681.378752842201
 21
7486.352470292183
 31
0.0
  0
LINE
  5
295C5
330
747D
100
AcDbEntity
  8
部品1
 48
50.0
100
AcDbLine
 10
6683.600000000004
 20
7486.352470292183
 30
0.0
 11
6683.600000000005
 21
7286.352470292192
 31
0.0
  0
LINE
  5
295C6
330
747D
100
AcDbEntity
  8
部品1
 48
50.0
100
AcDbLine
 10
6483.600000000004
 20
7486.352470292183
 30
0.0
 11
6483.600000000008
 21
7286.352470292192
 31
0.0
  0
LINE
  5
295C7
330
747D
100
AcDbEntity
  8
部品1
 48
50.0
100
AcDbLine
 10
6273.600000000011
 20
6933.352470292189
 30
0.0
 11
6073.600000000011
 21
6933.352470292189
 31
0.0
  0
LINE
  5
295C8
330
747D
100
AcDbEntity
  8
センター
 48
2.0
100
AcDbLine
 10
6005.600000000004
 20
7363.35247029219
 30
0.0
 11
6105.600000000004
 21
7363.35247029219
 31
0.0
  0
CIRCLE
  5
295C9
330
747D
100
AcDbEntity
  8
部品1
 48
50.0
100
AcDbCircle
 10
6055.600000000004
 20
7363.35247029219
 30
0.0
 40
35.0
  0
LINE
  5
295CA
330
747D
100
AcDbEntity
  8
センター
 48
2.0
100
AcDbLine
 10
6055.600000000004
 20
7413.35247029219
 30
0.0
 11
6055.600000000004
 21
7313.352470292191
 31
0.0
  0
LINE
  5
295CB
330
747D
100
AcDbEntity
  8
細線
 48
50.0
100
AcDbLine
 10
6571.181314052914
 20
7286.352470292192
 30
0.0
 11
6683.600000000004
 21
7398.771156239297
 31
0.0
  0
LINE
  5
295CC
330
747D
100
AcDbEntity
  8
細線
 48
50.0
100
AcDbLine
 10
6526.280033447553
 20
7286.352470292192
 30
0.0
 11
6683.600000000002
 21
7443.672436844642
 31
0.0
  0
LINE
  5
295CD
330
747D
100
AcDbEntity
  8
細線
 48
50.0
100
AcDbLine
 10
6616.082594658251
 20
7286.352470292192
 30
0.0
 11
6683.600000000004
 21
7353.869875633946
 31
0.0
  0
LINE
  5
295CE
330
747D
100
AcDbEntity
  8
細線
 48
50.0
100
AcDbLine
 10
6660.983875263603
 20
7286.35247029219
 30
0.0
 11
6683.600000000005
 21
7308.968595028597
 31
0.0
  0
LINE
  5
295CF
330
747D
100
AcDbEntity
  8
細線
 48
50.0
100
AcDbLine
 10
6483.600000000004
 20
7468.178839871369
 30
0.0
 11
6501.773630420817
 21
7486.352470292186
 31
0.0
  0
LINE
  5
295D0
330
747D
100
AcDbEntity
  8
細線
 48
50.0
100
AcDbLine
 10
7303.600000000004
 20
7423.277559266026
 30
0.0
 11
7366.674911026165
 21
7486.352470292183
 31
0.0
  0
LINE
  5
295D1
330
747D
100
AcDbEntity
  8
部品1
 48
50.0
100
AcDbLine
 10
7303.600000000004
 20
7486.352470292183
 30
0.0
 11
7303.600000000007
 21
7286.352470292192
 31
0.0
  0
LINE
  5
295D2
330
747D
100
AcDbEntity
  8
部品1
 48
50.0
100
AcDbLine
 10
7503.600000000004
 20
7486.352470292183
 30
0.0
 11
7503.600000000005
 21
7286.352470292192
 31
0.0
  0
LINE
  5
295D3
330
747D
100
AcDbEntity
  8
細線
 48
50.0
100
AcDbLine
 10
7303.600000000007
 20
7288.573717449992
 30
0.0
 11
7501.378752842201
 21
7486.352470292183
 31
0.0
  0
LINE
  5
295D4
330
747D
100
AcDbEntity
  8
細線
 48
50.0
100
AcDbLine
 10
7303.600000000006
 20
7333.474998055335
 30
0.0
 11
7456.477472236857
 21
7486.352470292186
 31
0.0
  0
LINE
  5
295D5
330
747D
100
AcDbEntity
  8
細線
 48
50.0
100
AcDbLine
 10
7303.600000000004
 20
7378.37627866068
 30
0.0
 11
7411.576191631509
 21
7486.352470292183
 31
0.0
  0
LINE
  5
295D6
330
747D
100
AcDbEntity
  8
部品1
 48
50.0
100
AcDbLine
 10
7093.600000000012
 20
6933.352470292189
 30
0.0
 11
6893.600000000012
 21
6933.352470292189
 31
0.0
  0
LINE
  5
295D7
330
747D
100
AcDbEntity
  8
細線
 48
50.0
100
AcDbLine
 10
7391.181314052913
 20
7286.352470292192
 30
0.0
 11
7503.600000000004
 21
7398.771156239297
 31
0.0
  0
LINE
  5
295D8
330
747D
100
AcDbEntity
  8
細線
 48
50.0
100
AcDbLine
 10
7346.280033447553
 20
7286.352470292192
 30
0.0
 11
7503.600000000003
 21
7443.672436844642
 31
0.0
  0
LINE
  5
295D9
330
747D
100
AcDbEntity
  8
細線
 48
50.0
100
AcDbLine
 10
7480.983875263603
 20
7286.35247029219
 30
0.0
 11
7503.600000000005
 21
7308.968595028597
 31
0.0
  0
LINE
  5
295DA
330
747D
100
AcDbEntity
  8
細線
 48
50.0
100
AcDbLine
 10
7436.082594658249
 20
7286.352470292192
 30
0.0
 11
7503.600000000004
 21
7353.869875633946
 31
0.0
  0
LINE
  5
295DB
330
747D
100
AcDbEntity
  8
細線
 48
50.0
100
AcDbLine
 10
7303.600000000004
 20
7468.178839871369
 30
0.0
 11
7321.773630420818
 21
7486.352470292186
 31
0.0
  0
LINE
  5
295DC
330
747D
100
AcDbEntity
  8
細線
 48
50.0
100
AcDbLine
 10
8123.600000000001
 20
7423.277559266022
 30
0.0
 11
8186.674911026162
 21
7486.352470292181
 31
0.0
  0
LINE
  5
295DD
330
747D
100
AcDbEntity
  8
細線
 48
50.0
100
AcDbLine
 10
8123.600000000006
 20
7288.573717449988
 30
0.0
 11
8321.3787528422
 21
7486.352470292181
 31
0.0
  0
LINE
  5
295DE
330
747D
100
AcDbEntity
  8
細線
 48
50.0
100
AcDbLine
 10
8123.600000000005
 20
7333.474998055331
 30
0.0
 11
8276.477472236853
 21
7486.352470292182
 31
0.0
  0
LINE
  5
295DF
330
747D
100
AcDbEntity
  8
細線
 48
50.0
100
AcDbLine
 10
8123.600000000001
 20
7378.376278660677
 30
0.0
 11
8231.576191631509
 21
7486.352470292181
 31
0.0
  0
LINE
  5
295E0
330
747D
100
AcDbEntity
  8
部品1
 48
50.0
100
AcDbLine
 10
8123.600000000001
 20
7486.352470292181
 30
0.0
 11
8123.600000000006
 21
7286.352470292188
 31
0.0
  0
LINE
  5
295E1
330
747D
100
AcDbEntity
  8
部品1
 48
50.0
100
AcDbLine
 10
8323.600000000002
 20
7486.352470292181
 30
0.0
 11
8323.600000000004
 21
7286.352470292188
 31
0.0
  0
LINE
  5
295E2
330
747D
100
AcDbEntity
  8
部品1
 48
50.0
100
AcDbLine
 10
7913.600000000011
 20
6933.352470292189
 30
0.0
 11
7713.600000000011
 21
6933.352470292189
 31
0.0
  0
LINE
  5
295E3
330
747D
100
AcDbEntity
  8
センター
 48
2.0
100
AcDbLine
 10
7695.600000000005
 20
7413.35247029219
 30
0.0
 11
7695.600000000005
 21
7313.352470292191
 31
0.0
  0
CIRCLE
  5
295E4
330
747D
100
AcDbEntity
  8
部品1
 48
50.0
100
AcDbCircle
 10
7695.600000000005
 20
7363.35247029219
 30
0.0
 40
35.0
  0
LINE
  5
295E5
330
747D
100
AcDbEntity
  8
センター
 48
2.0
100
AcDbLine
 10
7645.600000000005
 20
7363.35247029219
 30
0.0
 11
7745.600000000004
 21
7363.35247029219
 31
0.0
  0
LINE
  5
295E6
330
747D
100
AcDbEntity
  8
細線
 48
50.0
100
AcDbLine
 10
8211.181314052913
 20
7286.352470292188
 30
0.0
 11
8323.600000000002
 21
7398.771156239295
 31
0.0
  0
LINE
  5
295E7
330
747D
100
AcDbEntity
  8
細線
 48
50.0
100
AcDbLine
 10
8166.28003344755
 20
7286.352470292188
 30
0.0
 11
8323.6
 21
7443.672436844638
 31
0.0
  0
LINE
  5
295E8
330
747D
100
AcDbEntity
  8
細線
 48
50.0
100
AcDbLine
 10
8300.983875263602
 20
7286.352470292186
 30
0.0
 11
8323.600000000004
 21
7308.968595028592
 31
0.0
  0
LINE
  5
295E9
330
747D
100
AcDbEntity
  8
細線
 48
50.0
100
AcDbLine
 10
8256.082594658249
 20
7286.352470292188
 30
0.0
 11
8323.600000000002
 21
7353.869875633941
 31
0.0
  0
LINE
  5
295EA
330
747D
100
AcDbEntity
  8
細線
 48
50.0
100
AcDbLine
 10
8123.600000000001
 20
7468.178839871365
 30
0.0
 11
8141.773630420816
 21
7486.352470292182
 31
0.0
  0
LINE
  5
295EB
330
747D
100
AcDbEntity
  8
寸法
 48
50.0
100
AcDbLine
 10
7695.6
 20
8212.618928385987
 30
0.0
 11
8395.644554822071
 21
8212.618928385987
 31
0.0
  0
LINE
  5
295ED
330
747D
100
AcDbEntity
  8
細線
 48
50.0
100
AcDbLine
 10
12618.6
 20
6788.474998055325
 30
0.0
 11
12738.60000000001
 21
6908.474998055329
 31
0.0
  0
LINE
  5
295EE
330
747D
100
AcDbEntity
  8
細線
 48
50.0
100
AcDbLine
 10
12618.6
 20
6833.376278660669
 30
0.0
 11
12706.57619163153
 21
6921.352470292196
 31
0.0
  0
DIMENSION
  5
295F1
330
747D
100
AcDbEntity
  8
寸法
 48
50.0
100
AcDbDimension
  2
*D43
 10
9453.600000000012
 20
7968.961286962438
 30
0.0
 11
9863.60000000001
 21
8068.973097986059
 31
0.0
 70
    32
 71
     5
 42
819.9999999999963
  3
INABA_S40G
100
AcDbAlignedDimension
 13
10273.6
 23
6883.352470292189
 33
0.0
 14
9453.600000000012
 24
6883.352470292189
 34
0.0
100
AcDbRotatedDimension
1001
ACAD
1000
DSTYLE
1002
{
1070
   341
1005
0
1002
}
  0
LINE
  5
295F2
330
747D
100
AcDbEntity
  8
部品1
 48
50.0
100
AcDbLine
 10
9353.600000000012
 20
6733.352470292189
 30
0.0
 11
9353.600000000012
 21
6933.352470292189
 31
0.0
  0
LINE
  5
295F3
330
747D
100
AcDbEntity
  8
部品1
 48
50.0
100
AcDbLine
 10
9553.600000000011
 20
6733.352470292189
 30
0.0
 11
9553.600000000011
 21
6933.352470292189
 31
0.0
  0
LINE
  5
295F4
330
747D
100
AcDbEntity
  8
部品1
 48
50.0
100
AcDbLine
 10
11813.60000000001
 20
6733.352470292189
 30
0.0
 11
11813.60000000001
 21
6933.352470292189
 31
0.0
  0
LINE
  5
295F5
330
747D
100
AcDbEntity
  8
部品1
 48
50.0
100
AcDbLine
 10
12013.60000000001
 20
6733.352470292189
 30
0.0
 11
12013.60000000001
 21
6933.352470292189
 31
0.0
  0
LINE
  5
295F6
330
747D
100
AcDbEntity
  8
部品1
 48
50.0
100
AcDbLine
 10
10993.6
 20
6733.352470292189
 30
0.0
 11
10993.6
 21
6933.352470292189
 31
0.0
  0
LINE
  5
295F7
330
747D
100
AcDbEntity
  8
部品1
 48
50.0
100
AcDbLine
 10
11193.60000000001
 20
6733.352470292189
 30
0.0
 11
11193.60000000001
 21
6933.352470292189
 31
0.0
  0
LINE
  5
295F8
330
747D
100
AcDbEntity
  8
部品1
 48
50.0
100
AcDbLine
 10
10173.6
 20
6733.352470292189
 30
0.0
 11
10173.6
 21
6933.352470292189
 31
0.0
  0
LINE
  5
295F9
330
747D
100
AcDbEntity
  8
部品1
 48
50.0
100
AcDbLine
 10
10373.6
 20
6733.352470292189
 30
0.0
 11
10373.6
 21
6933.352470292189
 31
0.0
  0
DIMENSION
  5
295FA
330
747D
100
AcDbEntity
  8
寸法
 48
50.0
100
AcDbDimension
  2
*D44
 10
11913.60000000001
 20
7968.961286962438
 30
0.0
 11
12326.1
 21
8068.973097986059
 31
0.0
 70
    32
 71
     5
 42
824.9999999999927
  3
INABA_S40G
100
AcDbAlignedDimension
 13
12738.6
 23
7486.352470292189
 33
0.0
 14
11913.60000000001
 24
6883.352470292189
 34
0.0
100
AcDbRotatedDimension
1001
ACAD
1000
DSTYLE
1002
{
1070
   341
1005
0
1002
}
  0
DIMENSION
  5
295FB
330
747D
100
AcDbEntity
  8
寸法
 48
50.0
100
AcDbDimension
  2
*D45
 10
11093.60000000001
 20
7968.961286962438
 30
0.0
 11
11503.6
 21
8068.973097986059
 31
0.0
 70
    32
 71
     5
 42
820.0
  3
INABA_S40G
100
AcDbAlignedDimension
 13
11913.60000000001
 23
6883.352470292189
 33
0.0
 14
11093.60000000001
 24
6883.352470292189
 34
0.0
100
AcDbRotatedDimension
1001
ACAD
1000
DSTYLE
1002
{
1070
   341
1005
0
1002
}
  0
DIMENSION
  5
295FC
330
747D
100
AcDbEntity
  8
寸法
 48
50.0
100
AcDbDimension
  2
*D46
 10
10273.6
 20
7968.961286962438
 30
0.0
 11
10683.60000000001
 21
8068.973097986059
 31
0.0
 70
    32
 71
     5
 42
820.0
  3
INABA_S40G
100
AcDbAlignedDimension
 13
11093.60000000001
 23
6883.352470292189
 33
0.0
 14
10273.6
 24
6883.352470292189
 34
0.0
100
AcDbRotatedDimension
1001
ACAD
1000
DSTYLE
1002
{
1070
   341
1005
0
1002
}
  0
LINE
  5
295FE
330
747D
100
AcDbEntity
  8
部品1
 48
50.0
100
AcDbLine
 10
12738.6
 20
6106.352470292208
 30
0.0
 11
12738.6
 21
7486.352470292189
 31
0.0
  0
LINE
  5
29600
330
747D
100
AcDbEntity
  8
部品1
 48
50.0
100
AcDbLine
 10
8533.600000000012
 20
6733.352470292189
 30
0.0
 11
8533.600000000012
 21
6933.352470292189
 31
0.0
  0
LINE
  5
29601
330
747D
100
AcDbEntity
  8
部品1
 48
50.0
100
AcDbLine
 10
8733.600000000011
 20
6733.352470292189
 30
0.0
 11
8733.600000000011
 21
6933.352470292189
 31
0.0
  0
LINE
  5
29605
330
747D
100
AcDbEntity
  8
細線
 48
50.0
100
AcDbLine
 10
8943.600000000001
 20
6195.054508369802
 30
0.0
 11
9134.897961922405
 21
6386.352470292203
 31
0.0
  0
LINE
  5
29607
330
747D
100
AcDbEntity
  8
細線
 48
50.0
100
AcDbLine
 10
8943.600000000007
 20
6150.15322776446
 30
0.0
 11
9143.599999999997
 21
6350.153227764449
 31
0.0
  0
LINE
  5
29608
330
747D
100
AcDbEntity
  8
細線
 48
50.0
100
AcDbLine
 10
8944.700523133098
 20
6106.352470292203
 30
0.0
 11
9143.599999999999
 21
6305.251947159106
 31
0.0
  0
LINE
  5
29609
330
747D
100
AcDbEntity
  8
部品1
 48
50.0
100
AcDbLine
 10
8943.599999999994
 20
6386.352470292205
 30
0.0
 11
8943.600000000007
 21
6106.352470292203
 31
0.0
  0
LINE
  5
2960A
330
747D
100
AcDbEntity
  8
部品1
 48
50.0
100
AcDbLine
 10
9143.599999999997
 20
6386.352470292205
 30
0.0
 11
9143.600000000002
 21
6106.352470292184
 31
0.0
  0
LINE
  5
2960D
330
747D
100
AcDbEntity
  8
細線
 48
50.0
100
AcDbLine
 10
9034.503084343766
 20
6106.352470292183
 30
0.0
 11
9143.599999999999
 21
6215.449385948415
 31
0.0
  0
LINE
  5
2960E
330
747D
100
AcDbEntity
  8
細線
 48
50.0
100
AcDbLine
 10
8989.601803738421
 20
6106.352470292183
 30
0.0
 11
9143.599999999999
 21
6260.350666553763
 31
0.0
  0
LINE
  5
29611
330
747D
100
AcDbEntity
  8
細線
 48
50.0
100
AcDbLine
 10
9124.305645554462
 20
6106.352470292186
 30
0.0
 11
9143.600000000001
 21
6125.646824737724
 31
0.0
  0
LINE
  5
29612
330
747D
100
AcDbEntity
  8
細線
 48
50.0
100
AcDbLine
 10
9079.404364949114
 20
6106.352470292184
 30
0.0
 11
9143.600000000001
 21
6170.54810534307
 31
0.0
  0
LINE
  5
29613
330
747D
100
AcDbEntity
  8
部品1
 48
50.0
100
AcDbLine
 10
8733.600000000011
 20
6733.352470292189
 30
0.0
 11
8533.600000000012
 21
6733.352470292189
 31
0.0
  0
LINE
  5
29614
330
747D
100
AcDbEntity
  8
センター
 48
2.0
100
AcDbLine
 10
8583.600000000011
 20
6833.352470292189
 30
0.0
 11
8683.60000000001
 21
6833.352470292189
 31
0.0
  0
LINE
  5
29615
330
747D
100
AcDbEntity
  8
センター
 48
2.0
100
AcDbLine
 10
8633.600000000011
 20
6883.352470292189
 30
0.0
 11
8633.600000000011
 21
6783.352470292189
 31
0.0
  0
LINE
  5
29616
330
747D
100
AcDbEntity
  8
細線
 48
50.0
100
AcDbLine
 10
8943.600000000001
 20
6239.955788975144
 30
0.0
 11
9089.996681317058
 21
6386.352470292204
 31
0.0
  0
LINE
  5
29617
330
747D
100
AcDbEntity
  8
細線
 48
50.0
100
AcDbLine
 10
8943.599999999996
 20
6284.857069580505
 30
0.0
 11
9045.09540071173
 21
6386.352470292205
 31
0.0
  0
LINE
  5
29618
330
747D
100
AcDbEntity
  8
細線
 48
50.0
100
AcDbLine
 10
8943.599999999994
 20
6329.758350185828
 30
0.0
 11
9000.194120106373
 21
6386.352470292205
 31
0.0
  0
LINE
  5
2961B
330
747D
100
AcDbEntity
  8
細線
 48
50.0
100
AcDbLine
 10
9763.599999999996
 20
6284.857069580481
 30
0.0
 11
9865.095400711723
 21
6386.352470292209
 31
0.0
  0
LINE
  5
2961C
330
747D
100
AcDbEntity
  8
細線
 48
50.0
100
AcDbLine
 10
9764.700523133075
 20
6106.352470292183
 30
0.0
 11
9963.599999999999
 21
6305.251947159106
 31
0.0
  0
LINE
  5
2961D
330
747D
100
AcDbEntity
  8
細線
 48
50.0
100
AcDbLine
 10
9763.600000000003
 20
6150.153227764456
 30
0.0
 11
9963.599999999997
 21
6350.153227764449
 31
0.0
  0
LINE
  5
2961E
330
747D
100
AcDbEntity
  8
細線
 48
50.0
100
AcDbLine
 10
9763.600000000002
 20
6195.0545083698
 30
0.0
 11
9954.897961922409
 21
6386.352470292208
 31
0.0
  0
LINE
  5
2961F
330
747D
100
AcDbEntity
  8
細線
 48
50.0
100
AcDbLine
 10
9763.600000000002
 20
6239.955788975144
 30
0.0
 11
9909.996681317061
 21
6386.352470292207
 31
0.0
  0
LINE
  5
29620
330
747D
100
AcDbEntity
  8
部品1
 48
50.0
100
AcDbLine
 10
9763.599999999994
 20
6386.352470292208
 30
0.0
 11
9763.600000000003
 21
6106.35247029218
 31
0.0
  0
LINE
  5
29621
330
747D
100
AcDbEntity
  8
部品1
 48
50.0
100
AcDbLine
 10
9963.599999999996
 20
6386.352470292208
 30
0.0
 11
9963.600000000003
 21
6106.352470292184
 31
0.0
  0
LINE
  5
29622
330
747D
100
AcDbEntity
  8
細線
 48
50.0
100
AcDbLine
 10
9854.503084343768
 20
6106.352470292183
 30
0.0
 11
9963.599999999999
 21
6215.449385948415
 31
0.0
  0
LINE
  5
29623
330
747D
100
AcDbEntity
  8
細線
 48
50.0
100
AcDbLine
 10
9809.60180373842
 20
6106.352470292183
 30
0.0
 11
9963.599999999999
 21
6260.350666553763
 31
0.0
  0
LINE
  5
29624
330
747D
100
AcDbEntity
  8
細線
 48
50.0
100
AcDbLine
 10
9899.404364949115
 20
6106.352470292184
 30
0.0
 11
9963.600000000001
 21
6170.54810534307
 31
0.0
  0
LINE
  5
29625
330
747D
100
AcDbEntity
  8
細線
 48
50.0
100
AcDbLine
 10
9944.305645554461
 20
6106.352470292186
 30
0.0
 11
9963.600000000001
 21
6125.646824737724
 31
0.0
  0
LINE
  5
29626
330
747D
100
AcDbEntity
  8
センター
 48
2.0
100
AcDbLine
 10
9403.600000000011
 20
6833.352470292189
 30
0.0
 11
9503.600000000011
 21
6833.352470292189
 31
0.0
  0
LINE
  5
29627
330
747D
100
AcDbEntity
  8
部品1
 48
50.0
100
AcDbLine
 10
9553.600000000011
 20
6733.352470292189
 30
0.0
 11
9353.600000000012
 21
6733.352470292189
 31
0.0
  0
LINE
  5
29628
330
747D
100
AcDbEntity
  8
センター
 48
2.0
100
AcDbLine
 10
9453.600000000012
 20
6883.352470292189
 30
0.0
 11
9453.600000000012
 21
6783.352470292189
 31
0.0
  0
LINE
  5
29629
330
747D
100
AcDbEntity
  8
細線
 48
50.0
100
AcDbLine
 10
9763.599999999996
 20
6329.758350185828
 30
0.0
 11
9820.194120106375
 21
6386.352470292208
 31
0.0
  0
LINE
  5
29631
330
747D
100
AcDbEntity
  8
センター
 48
2.0
100
AcDbLine
 10
10155.60000000001
 20
6354.352470292194
 30
0.0
 11
10155.60000000001
 21
6254.352470292193
 31
0.0
  0
CIRCLE
  5
29632
330
747D
100
AcDbEntity
  8
部品1
 48
50.0
100
AcDbCircle
 10
10155.60000000001
 20
6304.352470292194
 30
0.0
 40
35.0
  0
LINE
  5
29633
330
747D
100
AcDbEntity
  8
センター
 48
2.0
100
AcDbLine
 10
10105.60000000001
 20
6304.352470292194
 30
0.0
 11
10205.60000000001
 21
6304.352470292194
 31
0.0
  0
LINE
  5
29638
330
747D
100
AcDbEntity
  8
部品1
 48
50.0
100
AcDbLine
 10
10373.6
 20
6733.352470292189
 30
0.0
 11
10173.6
 21
6733.352470292189
 31
0.0
  0
LINE
  5
29639
330
747D
100
AcDbEntity
  8
センター
 48
2.0
100
AcDbLine
 10
10223.60000000001
 20
6833.352470292189
 30
0.0
 11
10323.60000000001
 21
6833.352470292189
 31
0.0
  0
LINE
  5
2963A
330
747D
100
AcDbEntity
  8
センター
 48
2.0
100
AcDbLine
 10
10273.6
 20
6883.352470292189
 30
0.0
 11
10273.6
 21
6783.352470292189
 31
0.0
  0
LINE
  5
29647
330
747D
100
AcDbEntity
  8
センター
 48
2.0
100
AcDbLine
 10
11043.60000000001
 20
6833.352470292189
 30
0.0
 11
11143.60000000001
 21
6833.352470292189
 31
0.0
  0
LINE
  5
29648
330
747D
100
AcDbEntity
  8
部品1
 48
50.0
100
AcDbLine
 10
11193.60000000001
 20
6733.352470292189
 30
0.0
 11
10993.6
 21
6733.352470292189
 31
0.0
  0
LINE
  5
29649
330
747D
100
AcDbEntity
  8
センター
 48
2.0
100
AcDbLine
 10
11093.60000000001
 20
6883.352470292189
 30
0.0
 11
11093.60000000001
 21
6783.352470292189
 31
0.0
  0
LINE
  5
2965C
330
747D
100
AcDbEntity
  8
センター
 48
2.0
100
AcDbLine
 10
11863.6
 20
6833.352470292189
 30
0.0
 11
11963.6
 21
6833.352470292189
 31
0.0
  0
LINE
  5
2965D
330
747D
100
AcDbEntity
  8
部品1
 48
50.0
100
AcDbLine
 10
12013.60000000001
 20
6733.352470292189
 30
0.0
 11
11813.60000000001
 21
6733.352470292189
 31
0.0
  0
LINE
  5
2965E
330
747D
100
AcDbEntity
  8
センター
 48
2.0
100
AcDbLine
 10
11913.60000000001
 20
6883.352470292189
 30
0.0
 11
11913.60000000001
 21
6783.352470292189
 31
0.0
  0
LINE
  5
29660
330
747D
100
AcDbEntity
  8
センター
 48
2.0
100
AcDbLine
 10
12615.60000000001
 20
6354.352470292194
 30
0.0
 11
12615.60000000001
 21
6254.352470292193
 31
0.0
  0
CIRCLE
  5
29661
330
747D
100
AcDbEntity
  8
部品1
 48
50.0
100
AcDbCircle
 10
12615.60000000001
 20
6304.352470292194
 30
0.0
 40
35.0
  0
LINE
  5
29662
330
747D
100
AcDbEntity
  8
センター
 48
2.0
100
AcDbLine
 10
12565.60000000001
 20
6304.352470292194
 30
0.0
 11
12665.60000000001
 21
6304.352470292194
 31
0.0
  0
LINE
  5
29663
330
747D
100
AcDbEntity
  8
細線
 48
50.0
100
AcDbLine
 10
12731.08259465825
 20
6721.352470292193
 30
0.0
 11
12738.6
 21
6728.869875633944
 31
0.0
  0
LINE
  5
29664
330
747D
100
AcDbEntity
  8
細線
 48
50.0
100
AcDbLine
 10
12686.18131405291
 20
6721.352470292194
 30
0.0
 11
12738.60000000001
 21
6773.77115623929
 31
0.0
  0
LINE
  5
29665
330
747D
100
AcDbEntity
  8
細線
 48
50.0
100
AcDbLine
 10
12641.28003344757
 20
6721.352470292197
 30
0.0
 11
12738.6
 21
6818.672436844636
 31
0.0
  0
LINE
  5
29666
330
747D
100
AcDbEntity
  8
細線
 48
50.0
100
AcDbLine
 10
12618.6
 20
6743.573717449975
 30
0.0
 11
12738.6
 21
6863.57371744998
 31
0.0
  0
LINE
  5
29667
330
747D
100
AcDbEntity
  8
部品1
 48
50.0
100
AcDbLine
 10
12738.6
 20
6721.352470292197
 30
0.0
 11
12618.6
 21
6721.352470292197
 31
0.0
  0
DIMENSION
  5
2966A
330
747D
100
AcDbEntity
  8
寸法
 48
50.0
100
AcDbDimension
  2
*D47
 10
10155.6
 20
8212.618928386101
 30
0.0
 11
11385.6
 21
8312.630739409723
 31
0.0
 70
    32
 71
     5
 42
2460.0
  3
INABA_S40G
100
AcDbAlignedDimension
 13
12615.6
 23
7413.35247029219
 33
0.0
 14
10155.6
 24
7413.35247029219
 34
0.0
100
AcDbRotatedDimension
1001
ACAD
1000
DSTYLE
1002
{
1070
   341
1005
0
1002
}
  0
LINE
  5
2966C
330
747D
100
AcDbEntity
  8
寸法
 48
50.0
100
AcDbLine
 10
9455.55544517793
 20
8212.618928386101
 30
0.0
 11
10155.6
 21
8212.618928386101
 31
0.0
  0
LINE
  5
2966F
330
747D
100
AcDbEntity
  8
寸法
 48
50.0
100
AcDbLine
 10
9173.600000000007
 20
7968.961286962438
 30
0.0
 11
9453.600000000006
 21
7968.961286962438
 31
0.0
  0
LINE
  5
29670
330
747D
100
AcDbEntity
  8
細線
 48
50.0
100
AcDbLine
 10
8943.600000000001
 20
7423.277559266022
 30
0.0
 11
9006.674911026163
 21
7486.352470292181
 31
0.0
  0
LINE
  5
29671
330
747D
100
AcDbEntity
  8
細線
 48
50.0
100
AcDbLine
 10
8943.600000000001
 20
7378.376278660677
 30
0.0
 11
9051.576191631509
 21
7486.352470292181
 31
0.0
  0
LINE
  5
29672
330
747D
100
AcDbEntity
  8
細線
 48
50.0
100
AcDbLine
 10
8943.600000000003
 20
7333.474998055331
 30
0.0
 11
9096.477472236854
 21
7486.352470292182
 31
0.0
  0
LINE
  5
29673
330
747D
100
AcDbEntity
  8
細線
 48
50.0
100
AcDbLine
 10
8943.600000000007
 20
7288.573717449988
 30
0.0
 11
9141.378752842211
 21
7486.352470292192
 31
0.0
  0
LINE
  5
29674
330
747D
100
AcDbEntity
  8
部品1
 48
50.0
100
AcDbLine
 10
8943.600000000001
 20
7486.352470292181
 30
0.0
 11
8943.600000000007
 21
7286.352470292188
 31
0.0
  0
LINE
  5
29678
330
747D
100
AcDbEntity
  8
部品1
 48
50.0
100
AcDbLine
 10
8733.600000000011
 20
6933.352470292189
 30
0.0
 11
8533.600000000012
 21
6933.352470292189
 31
0.0
  0
LINE
  5
2967B
330
747D
100
AcDbEntity
  8
細線
 48
50.0
100
AcDbLine
 10
9031.181314052913
 20
7286.352470292188
 30
0.0
 11
9143.599999999999
 21
7398.771156239293
 31
0.0
  0
LINE
  5
2967C
330
747D
100
AcDbEntity
  8
細線
 48
50.0
100
AcDbLine
 10
8986.280033447551
 20
7286.352470292188
 30
0.0
 11
9143.599999999999
 21
7443.672436844635
 31
0.0
  0
LINE
  5
2967D
330
747D
100
AcDbEntity
  8
細線
 48
50.0
100
AcDbLine
 10
9139.47692715765
 20
7349.74680279159
 30
0.0
 11
9143.600000000002
 21
7353.869875633941
 31
0.0
  0
LINE
  5
2967E
330
747D
100
AcDbEntity
  8
細線
 48
50.0
100
AcDbLine
 10
9076.082594658249
 20
7286.352470292188
 30
0.0
 11
9143.600000000001
 21
7353.869875633941
 31
0.0
  0
LINE
  5
2967F
330
747D
100
AcDbEntity
  8
細線
 48
50.0
100
AcDbLine
 10
9120.983875263609
 20
7286.352470292192
 30
0.0
 11
9143.600000000004
 21
7308.968595028592
 31
0.0
  0
LINE
  5
29680
330
747D
100
AcDbEntity
  8
部品1
 48
50.0
100
AcDbLine
 10
9143.599999999997
 20
7486.352470292192
 30
0.0
 11
9143.600000000004
 21
7286.352470292188
 31
0.0
  0
LINE
  5
29681
330
747D
100
AcDbEntity
  8
寸法
 48
50.0
100
AcDbLine
 10
8633.600000000008
 20
7968.961286962322
 30
0.0
 11
8913.600000000007
 21
7968.961286962322
 31
0.0
  0
LINE
  5
29682
330
747D
100
AcDbEntity
  8
細線
 48
50.0
100
AcDbLine
 10
8943.600000000001
 20
7468.178839871365
 30
0.0
 11
8961.773630420815
 21
7486.352470292182
 31
0.0
  0
LINE
  5
29683
330
747D
100
AcDbEntity
  8
細線
 48
50.0
100
AcDbLine
 10
9763.600000000003
 20
7423.277559266022
 30
0.0
 11
9826.674911026163
 21
7486.352470292181
 31
0.0
  0
LINE
  5
29684
330
747D
100
AcDbEntity
  8
細線
 48
50.0
100
AcDbLine
 10
9763.600000000007
 20
7288.573717449988
 30
0.0
 11
9961.3787528422
 21
7486.352470292181
 31
0.0
  0
LINE
  5
29685
330
747D
100
AcDbEntity
  8
細線
 48
50.0
100
AcDbLine
 10
9763.600000000003
 20
7333.474998055331
 30
0.0
 11
9916.477472236856
 21
7486.352470292182
 31
0.0
  0
LINE
  5
29686
330
747D
100
AcDbEntity
  8
細線
 48
50.0
100
AcDbLine
 10
9763.600000000003
 20
7378.376278660677
 30
0.0
 11
9871.576191631508
 21
7486.352470292181
 31
0.0
  0
LINE
  5
29687
330
747D
100
AcDbEntity
  8
部品1
 48
50.0
100
AcDbLine
 10
9763.600000000003
 20
7486.352470292181
 30
0.0
 11
9763.600000000007
 21
7286.352470292188
 31
0.0
  0
LINE
  5
29688
330
747D
100
AcDbEntity
  8
部品1
 48
50.0
100
AcDbLine
 10
9963.600000000003
 20
7486.352470292181
 30
0.0
 11
9963.600000000004
 21
7286.352470292188
 31
0.0
  0
LINE
  5
29689
330
747D
100
AcDbEntity
  8
部品1
 48
50.0
100
AcDbLine
 10
9553.600000000011
 20
6933.352470292189
 30
0.0
 11
9353.600000000012
 21
6933.352470292189
 31
0.0
  0
LINE
  5
2968A
330
747D
100
AcDbEntity
  8
細線
 48
50.0
100
AcDbLine
 10
9851.181314052913
 20
7286.352470292188
 30
0.0
 11
9963.600000000003
 21
7398.771156239295
 31
0.0
  0
LINE
  5
2968B
330
747D
100
AcDbEntity
  8
細線
 48
50.0
100
AcDbLine
 10
9806.280033447551
 20
7286.352470292188
 30
0.0
 11
9963.600000000001
 21
7443.672436844638
 31
0.0
  0
LINE
  5
2968C
330
747D
100
AcDbEntity
  8
細線
 48
50.0
100
AcDbLine
 10
9940.983875263603
 20
7286.352470292186
 30
0.0
 11
9963.600000000004
 21
7308.968595028592
 31
0.0
  0
LINE
  5
2968D
330
747D
100
AcDbEntity
  8
細線
 48
50.0
100
AcDbLine
 10
9896.082594658249
 20
7286.352470292188
 30
0.0
 11
9963.600000000003
 21
7353.869875633941
 31
0.0
  0
LINE
  5
2968E
330
747D
100
AcDbEntity
  8
細線
 48
50.0
100
AcDbLine
 10
9763.600000000003
 20
7468.178839871365
 30
0.0
 11
9781.773630420815
 21
7486.352470292182
 31
0.0
  0
LINE
  5
29690
330
747D
100
AcDbEntity
  8
細線
 48
50.0
100
AcDbLine
 10
10583.6
 20
7423.277559266022
 30
0.0
 11
10646.67491102616
 21
7486.352470292181
 31
0.0
  0
LINE
  5
29691
330
747D
100
AcDbEntity
  8
部品1
 48
50.0
100
AcDbLine
 10
10783.6
 20
7486.352470292181
 30
0.0
 11
10783.6
 21
7286.352470292188
 31
0.0
  0
LINE
  5
29692
330
747D
100
AcDbEntity
  8
部品1
 48
50.0
100
AcDbLine
 10
10583.6
 20
7486.352470292181
 30
0.0
 11
10583.6
 21
7286.352470292188
 31
0.0
  0
LINE
  5
29693
330
747D
100
AcDbEntity
  8
細線
 48
50.0
100
AcDbLine
 10
10583.6
 20
7378.376278660677
 30
0.0
 11
10691.57619163151
 21
7486.352470292181
 31
0.0
  0
LINE
  5
29694
330
747D
100
AcDbEntity
  8
細線
 48
50.0
100
AcDbLine
 10
10583.6
 20
7333.474998055331
 30
0.0
 11
10736.47747223685
 21
7486.352470292182
 31
0.0
  0
LINE
  5
29695
330
747D
100
AcDbEntity
  8
細線
 48
50.0
100
AcDbLine
 10
10583.6
 20
7288.573717449988
 30
0.0
 11
10781.3787528422
 21
7486.352470292181
 31
0.0
  0
LINE
  5
29696
330
747D
100
AcDbEntity
  8
部品1
 48
50.0
100
AcDbLine
 10
10373.6
 20
6933.352470292189
 30
0.0
 11
10173.6
 21
6933.352470292189
 31
0.0
  0
LINE
  5
29697
330
747D
100
AcDbEntity
  8
センター
 48
2.0
100
AcDbLine
 10
10155.6
 20
7413.35247029219
 30
0.0
 11
10155.6
 21
7313.352470292191
 31
0.0
  0
CIRCLE
  5
29698
330
747D
100
AcDbEntity
  8
部品1
 48
50.0
100
AcDbCircle
 10
10155.6
 20
7363.35247029219
 30
0.0
 40
35.0
  0
LINE
  5
29699
330
747D
100
AcDbEntity
  8
センター
 48
2.0
100
AcDbLine
 10
10105.6
 20
7363.35247029219
 30
0.0
 11
10205.6
 21
7363.35247029219
 31
0.0
  0
LINE
  5
2969A
330
747D
100
AcDbEntity
  8
細線
 48
50.0
100
AcDbLine
 10
10671.18131405291
 20
7286.352470292188
 30
0.0
 11
10783.6
 21
7398.771156239295
 31
0.0
  0
LINE
  5
2969B
330
747D
100
AcDbEntity
  8
細線
 48
50.0
100
AcDbLine
 10
10626.28003344755
 20
7286.352470292188
 30
0.0
 11
10783.6
 21
7443.672436844638
 31
0.0
  0
LINE
  5
2969C
330
747D
100
AcDbEntity
  8
細線
 48
50.0
100
AcDbLine
 10
10716.08259465825
 20
7286.352470292188
 30
0.0
 11
10783.6
 21
7353.869875633941
 31
0.0
  0
LINE
  5
2969D
330
747D
100
AcDbEntity
  8
細線
 48
50.0
100
AcDbLine
 10
10760.9838752636
 20
7286.352470292186
 30
0.0
 11
10783.6
 21
7308.968595028592
 31
0.0
  0
LINE
  5
2969E
330
747D
100
AcDbEntity
  8
細線
 48
50.0
100
AcDbLine
 10
10583.6
 20
7468.178839871365
 30
0.0
 11
10601.77363042081
 21
7486.352470292182
 31
0.0
  0
LINE
  5
2969F
330
747D
100
AcDbEntity
  8
細線
 48
50.0
100
AcDbLine
 10
11403.6
 20
7378.376278660677
 30
0.0
 11
11511.5761916315
 21
7486.352470292181
 31
0.0
  0
LINE
  5
296A0
330
747D
100
AcDbEntity
  8
細線
 48
50.0
100
AcDbLine
 10
11403.6
 20
7423.277559266022
 30
0.0
 11
11466.67491102616
 21
7486.352470292181
 31
0.0
  0
LINE
  5
296A1
330
747D
100
AcDbEntity
  8
細線
 48
50.0
100
AcDbLine
 10
11403.6
 20
7333.474998055331
 30
0.0
 11
11556.47747223685
 21
7486.352470292182
 31
0.0
  0
LINE
  5
296A2
330
747D
100
AcDbEntity
  8
部品1
 48
50.0
100
AcDbLine
 10
11603.6
 20
7486.352470292181
 30
0.0
 11
11603.6
 21
7286.352470292188
 31
0.0
  0
LINE
  5
296A3
330
747D
100
AcDbEntity
  8
部品1
 48
50.0
100
AcDbLine
 10
11403.6
 20
7486.352470292181
 30
0.0
 11
11403.6
 21
7286.352470292188
 31
0.0
  0
LINE
  5
296A4
330
747D
100
AcDbEntity
  8
細線
 48
50.0
100
AcDbLine
 10
11403.6
 20
7288.573717449988
 30
0.0
 11
11601.3787528422
 21
7486.352470292181
 31
0.0
  0
LINE
  5
296A5
330
747D
100
AcDbEntity
  8
部品1
 48
50.0
100
AcDbLine
 10
11193.60000000001
 20
6933.352470292189
 30
0.0
 11
10993.6
 21
6933.352470292189
 31
0.0
  0
LINE
  5
296A6
330
747D
100
AcDbEntity
  8
細線
 48
50.0
100
AcDbLine
 10
11446.28003344755
 20
7286.352470292188
 30
0.0
 11
11603.6
 21
7443.672436844638
 31
0.0
  0
LINE
  5
296A7
330
747D
100
AcDbEntity
  8
細線
 48
50.0
100
AcDbLine
 10
11491.18131405291
 20
7286.352470292188
 30
0.0
 11
11603.6
 21
7398.771156239295
 31
0.0
  0
LINE
  5
296A8
330
747D
100
AcDbEntity
  8
細線
 48
50.0
100
AcDbLine
 10
11580.9838752636
 20
7286.352470292186
 30
0.0
 11
11603.6
 21
7308.968595028592
 31
0.0
  0
LINE
  5
296A9
330
747D
100
AcDbEntity
  8
細線
 48
50.0
100
AcDbLine
 10
11536.08259465825
 20
7286.352470292188
 30
0.0
 11
11603.6
 21
7353.869875633941
 31
0.0
  0
LINE
  5
296AA
330
747D
100
AcDbEntity
  8
細線
 48
50.0
100
AcDbLine
 10
11403.6
 20
7468.178839871365
 30
0.0
 11
11421.77363042081
 21
7486.352470292182
 31
0.0
  0
DIMENSION
  5
296AC
330
747D
100
AcDbEntity
  8
寸法
 48
50.0
100
AcDbDimension
  2
*D48
 10
12615.6
 20
8212.618928386101
 30
0.0
 11
13011.7066017178
 21
8212.618928386101
 31
0.0
 70
   160
 71
     5
 42
123.0
  3
INABA_S40G
100
AcDbAlignedDimension
 13
12738.6
 23
7486.352470292189
 33
0.0
 14
12615.6
 24
7413.35247029219
 34
0.0
100
AcDbRotatedDimension
1001
ACAD
1000
DSTYLE
1002
{
1070
   341
1005
0
1002
}
  0
LINE
  5
296AD
330
747D
100
AcDbEntity
  8
細線
 48
50.0
100
AcDbLine
 10
12223.6
 20
7378.376278660677
 30
0.0
 11
12331.57619163151
 21
7486.352470292181
 31
0.0
  0
LINE
  5
296AE
330
747D
100
AcDbEntity
  8
細線
 48
50.0
100
AcDbLine
 10
12223.6
 20
7423.277559266022
 30
0.0
 11
12286.67491102616
 21
7486.352470292181
 31
0.0
  0
LINE
  5
296AF
330
747D
100
AcDbEntity
  8
細線
 48
50.0
100
AcDbLine
 10
12223.6
 20
7333.474998055331
 30
0.0
 11
12376.47747223685
 21
7486.352470292182
 31
0.0
  0
LINE
  5
296B0
330
747D
100
AcDbEntity
  8
細線
 48
50.0
100
AcDbLine
 10
12223.6
 20
7288.573717449988
 30
0.0
 11
12421.3787528422
 21
7486.352470292181
 31
0.0
  0
LINE
  5
296B1
330
747D
100
AcDbEntity
  8
部品1
 48
50.0
100
AcDbLine
 10
12223.6
 20
7486.352470292181
 30
0.0
 11
12223.6
 21
7286.352470292188
 31
0.0
  0
LINE
  5
296B2
330
747D
100
AcDbEntity
  8
部品1
 48
50.0
100
AcDbLine
 10
12423.6
 20
7486.352470292181
 30
0.0
 11
12423.6
 21
7286.352470292188
 31
0.0
  0
LINE
  5
296B3
330
747D
100
AcDbEntity
  8
部品1
 48
50.0
100
AcDbLine
 10
12013.60000000001
 20
6933.352470292189
 30
0.0
 11
11813.60000000001
 21
6933.352470292189
 31
0.0
  0
LINE
  5
296B4
330
747D
100
AcDbEntity
  8
細線
 48
50.0
100
AcDbLine
 10
12266.28003344755
 20
7286.352470292188
 30
0.0
 11
12423.6
 21
7443.672436844638
 31
0.0
  0
LINE
  5
296B5
330
747D
100
AcDbEntity
  8
細線
 48
50.0
100
AcDbLine
 10
12311.18131405291
 20
7286.352470292188
 30
0.0
 11
12423.6
 21
7398.771156239295
 31
0.0
  0
LINE
  5
296B6
330
747D
100
AcDbEntity
  8
細線
 48
50.0
100
AcDbLine
 10
12400.9838752636
 20
7286.352470292186
 30
0.0
 11
12423.6
 21
7308.968595028592
 31
0.0
  0
LINE
  5
296B7
330
747D
100
AcDbEntity
  8
細線
 48
50.0
100
AcDbLine
 10
12356.08259465825
 20
7286.352470292188
 30
0.0
 11
12423.6
 21
7353.869875633941
 31
0.0
  0
LINE
  5
296B8
330
747D
100
AcDbEntity
  8
細線
 48
50.0
100
AcDbLine
 10
12223.6
 20
7468.178839871365
 30
0.0
 11
12241.77363042081
 21
7486.352470292182
 31
0.0
  0
LINE
  5
296BA
330
747D
100
AcDbEntity
  8
細線
 48
50.0
100
AcDbLine
 10
12618.6
 20
6878.277559266011
 30
0.0
 11
12661.67491102618
 21
6921.352470292197
 31
0.0
  0
LINE
  5
296BB
330
747D
100
AcDbEntity
  8
部品1
 48
50.0
100
AcDbLine
 10
12738.6
 20
6921.352470292197
 30
0.0
 11
12618.6
 21
6921.352470292196
 31
0.0
  0
LINE
  5
296BC
330
747D
100
AcDbEntity
  8
センター
 48
2.0
100
AcDbLine
 10
12615.6
 20
7413.35247029219
 30
0.0
 11
12615.6
 21
7313.352470292191
 31
0.0
  0
CIRCLE
  5
296BD
330
747D
100
AcDbEntity
  8
部品1
 48
50.0
100
AcDbCircle
 10
12615.6
 20
7363.35247029219
 30
0.0
 40
35.0
  0
LINE
  5
296BE
330
747D
100
AcDbEntity
  8
センター
 48
2.0
100
AcDbLine
 10
12565.6
 20
7363.35247029219
 30
0.0
 11
12665.6
 21
7363.35247029219
 31
0.0
  0
TEXT
  5
29DBF
330
747D
100
AcDbEntity
  8
文字
 62
     7
 48
50.0
100
AcDbText
 10
7604.429147872264
 20
4481.682584257066
 30
0.0
 40
200.0
  1
〈参 考 図〉
  7
STYLE2
100
AcDbText
  0
TEXT
  5
29DD0
330
747D
100
AcDbEntity
  8
文字
 62
     7
 48
50.0
100
AcDbText
 10
14251.2
 20
838.2527270729188
 30
0.0
 40
100.0
  1
～一般型・多雪地型・豪雪地型～
  7
STYLE2
100
AcDbText
  0
LINE
  5
29DF0
330
747D
100
AcDbEntity
  8
部品1
 48
50.0
100
AcDbLine
 10
12618.6
 20
6386.352470292217
 30
0.0
 11
3828.600000000001
 21
6386.352470292187
 31
0.0
  0
LINE
  5
29DF2
330
747D
100
AcDbEntity
  8
細線
 48
50.0
100
AcDbLine
 10
4843.599999999997
 20
6329.758350185832
 30
0.0
 11
4900.194120106355
 21
6386.35247029219
 31
0.0
  0
LINE
  5
29DF3
330
747D
100
AcDbEntity
  8
細線
 48
50.0
100
AcDbLine
 10
5024.305645554463
 20
6106.35247029219
 30
0.0
 11
5043.600000000002
 21
6125.646824737727
 31
0.0
  0
LINE
  5
29DF4
330
747D
100
AcDbEntity
  8
細線
 48
50.0
100
AcDbLine
 10
4979.404364949115
 20
6106.352470292188
 30
0.0
 11
5043.600000000002
 21
6170.548105343073
 31
0.0
  0
LINE
  5
29DF5
330
747D
100
AcDbEntity
  8
細線
 48
50.0
100
AcDbLine
 10
4889.601803738422
 20
6106.352470292186
 30
0.0
 11
5043.600000000001
 21
6260.350666553766
 31
0.0
  0
LINE
  5
29DF6
330
747D
100
AcDbEntity
  8
細線
 48
50.0
100
AcDbLine
 10
4934.503084343769
 20
6106.352470292186
 30
0.0
 11
5043.600000000001
 21
6215.449385948419
 31
0.0
  0
LINE
  5
29DF7
330
747D
100
AcDbEntity
  8
細線
 48
50.0
100
AcDbLine
 10
4843.600000000002
 20
6239.955788975148
 30
0.0
 11
4989.996681317042
 21
6386.352470292188
 31
0.0
  0
LINE
  5
29DF8
330
747D
100
AcDbEntity
  8
細線
 48
50.0
100
AcDbLine
 10
4843.600000000002
 20
6195.054508369803
 30
0.0
 11
5034.897961922388
 21
6386.35247029219
 31
0.0
  0
LINE
  5
29DF9
330
747D
100
AcDbEntity
  8
細線
 48
50.0
100
AcDbLine
 10
4843.600000000004
 20
6150.15322776446
 30
0.0
 11
5043.599999999998
 21
6350.153227764453
 31
0.0
  0
LINE
  5
29DFA
330
747D
100
AcDbEntity
  8
細線
 48
50.0
100
AcDbLine
 10
4844.700523133077
 20
6106.352470292186
 30
0.0
 11
5043.600000000001
 21
6305.25194715911
 31
0.0
  0
LINE
  5
29DFB
330
747D
100
AcDbEntity
  8
部品1
 48
50.0
100
AcDbLine
 10
4843.599999999997
 20
6386.352470292188
 30
0.0
 11
4843.600000000004
 21
6106.352470292184
 31
0.0
  0
LINE
  5
29DFC
330
747D
100
AcDbEntity
  8
部品1
 48
50.0
100
AcDbLine
 10
5043.599999999997
 20
6386.35247029219
 30
0.0
 11
5043.600000000004
 21
6106.352470292188
 31
0.0
  0
LINE
  5
29DFD
330
747D
100
AcDbEntity
  8
細線
 48
50.0
100
AcDbLine
 10
4843.599999999998
 20
6284.857069580485
 30
0.0
 11
4945.095400711704
 21
6386.352470292188
 31
0.0
  0
LINE
  5
29DFE
330
747D
100
AcDbEntity
  8
細線
 48
50.0
100
AcDbLine
 10
5663.599999999997
 20
6329.758350185832
 30
0.0
 11
5720.194120106355
 21
6386.35247029219
 31
0.0
  0
LINE
  5
29DFF
330
747D
100
AcDbEntity
  8
細線
 48
50.0
100
AcDbLine
 10
5844.305645554463
 20
6106.35247029219
 30
0.0
 11
5863.600000000002
 21
6125.646824737727
 31
0.0
  0
LINE
  5
29E00
330
747D
100
AcDbEntity
  8
細線
 48
50.0
100
AcDbLine
 10
5799.404364949116
 20
6106.352470292188
 30
0.0
 11
5863.600000000002
 21
6170.548105343073
 31
0.0
  0
LINE
  5
29E01
330
747D
100
AcDbEntity
  8
細線
 48
50.0
100
AcDbLine
 10
5709.601803738422
 20
6106.352470292186
 30
0.0
 11
5863.6
 21
6260.350666553766
 31
0.0
  0
LINE
  5
29E02
330
747D
100
AcDbEntity
  8
細線
 48
50.0
100
AcDbLine
 10
5754.503084343769
 20
6106.352470292186
 30
0.0
 11
5863.6
 21
6215.449385948419
 31
0.0
  0
LINE
  5
29E03
330
747D
100
AcDbEntity
  8
細線
 48
50.0
100
AcDbLine
 10
5663.600000000002
 20
6239.955788975148
 30
0.0
 11
5809.996681317042
 21
6386.352470292188
 31
0.0
  0
LINE
  5
29E04
330
747D
100
AcDbEntity
  8
細線
 48
50.0
100
AcDbLine
 10
5663.600000000002
 20
6195.054508369803
 30
0.0
 11
5854.897961922389
 21
6386.35247029219
 31
0.0
  0
LINE
  5
29E05
330
747D
100
AcDbEntity
  8
細線
 48
50.0
100
AcDbLine
 10
5663.600000000004
 20
6150.15322776446
 30
0.0
 11
5863.599999999999
 21
6350.153227764453
 31
0.0
  0
LINE
  5
29E06
330
747D
100
AcDbEntity
  8
細線
 48
50.0
100
AcDbLine
 10
5664.700523133077
 20
6106.352470292186
 30
0.0
 11
5863.6
 21
6305.25194715911
 31
0.0
  0
LINE
  5
29E07
330
747D
100
AcDbEntity
  8
部品1
 48
50.0
100
AcDbLine
 10
5663.599999999997
 20
6386.352470292188
 30
0.0
 11
5663.600000000004
 21
6106.352470292184
 31
0.0
  0
LINE
  5
29E08
330
747D
100
AcDbEntity
  8
部品1
 48
50.0
100
AcDbLine
 10
5863.599999999997
 20
6386.35247029219
 30
0.0
 11
5863.600000000004
 21
6106.352470292188
 31
0.0
  0
LINE
  5
29E09
330
747D
100
AcDbEntity
  8
細線
 48
50.0
100
AcDbLine
 10
5663.599999999998
 20
6284.857069580485
 30
0.0
 11
5765.095400711704
 21
6386.352470292188
 31
0.0
  0
LINE
  5
29E0A
330
747D
100
AcDbEntity
  8
細線
 48
50.0
100
AcDbLine
 10
6483.599999999997
 20
6329.758350185832
 30
0.0
 11
6540.194120106355
 21
6386.35247029219
 31
0.0
  0
LINE
  5
29E0B
330
747D
100
AcDbEntity
  8
細線
 48
50.0
100
AcDbLine
 10
6664.305645554462
 20
6106.35247029219
 30
0.0
 11
6683.600000000002
 21
6125.646824737727
 31
0.0
  0
LINE
  5
29E0C
330
747D
100
AcDbEntity
  8
細線
 48
50.0
100
AcDbLine
 10
6619.404364949116
 20
6106.352470292188
 30
0.0
 11
6683.600000000002
 21
6170.548105343073
 31
0.0
  0
LINE
  5
29E0D
330
747D
100
AcDbEntity
  8
細線
 48
50.0
100
AcDbLine
 10
6529.601803738422
 20
6106.352470292186
 30
0.0
 11
6683.6
 21
6260.350666553766
 31
0.0
  0
LINE
  5
29E0E
330
747D
100
AcDbEntity
  8
細線
 48
50.0
100
AcDbLine
 10
6574.503084343769
 20
6106.352470292186
 30
0.0
 11
6683.6
 21
6215.449385948419
 31
0.0
  0
LINE
  5
29E0F
330
747D
100
AcDbEntity
  8
細線
 48
50.0
100
AcDbLine
 10
6483.600000000002
 20
6239.955788975148
 30
0.0
 11
6629.996681317043
 21
6386.352470292188
 31
0.0
  0
LINE
  5
29E10
330
747D
100
AcDbEntity
  8
細線
 48
50.0
100
AcDbLine
 10
6483.600000000002
 20
6195.054508369803
 30
0.0
 11
6674.897961922389
 21
6386.35247029219
 31
0.0
  0
LINE
  5
29E11
330
747D
100
AcDbEntity
  8
細線
 48
50.0
100
AcDbLine
 10
6483.600000000004
 20
6150.15322776446
 30
0.0
 11
6683.599999999998
 21
6350.153227764453
 31
0.0
  0
LINE
  5
29E12
330
747D
100
AcDbEntity
  8
細線
 48
50.0
100
AcDbLine
 10
6484.700523133077
 20
6106.352470292186
 30
0.0
 11
6683.6
 21
6305.25194715911
 31
0.0
  0
LINE
  5
29E13
330
747D
100
AcDbEntity
  8
部品1
 48
50.0
100
AcDbLine
 10
6483.599999999997
 20
6386.352470292188
 30
0.0
 11
6483.600000000004
 21
6106.352470292184
 31
0.0
  0
LINE
  5
29E14
330
747D
100
AcDbEntity
  8
部品1
 48
50.0
100
AcDbLine
 10
6683.599999999997
 20
6386.35247029219
 30
0.0
 11
6683.600000000004
 21
6106.352470292188
 31
0.0
  0
LINE
  5
29E15
330
747D
100
AcDbEntity
  8
細線
 48
50.0
100
AcDbLine
 10
6483.599999999999
 20
6284.857069580485
 30
0.0
 11
6585.095400711704
 21
6386.352470292188
 31
0.0
  0
LINE
  5
29E16
330
747D
100
AcDbEntity
  8
細線
 48
50.0
100
AcDbLine
 10
7303.599999999997
 20
6329.758350185832
 30
0.0
 11
7360.194120106355
 21
6386.35247029219
 31
0.0
  0
LINE
  5
29E17
330
747D
100
AcDbEntity
  8
細線
 48
50.0
100
AcDbLine
 10
7484.305645554463
 20
6106.35247029219
 30
0.0
 11
7503.600000000003
 21
6125.646824737727
 31
0.0
  0
LINE
  5
29E18
330
747D
100
AcDbEntity
  8
細線
 48
50.0
100
AcDbLine
 10
7439.404364949116
 20
6106.352470292188
 30
0.0
 11
7503.600000000003
 21
6170.548105343073
 31
0.0
  0
LINE
  5
29E19
330
747D
100
AcDbEntity
  8
細線
 48
50.0
100
AcDbLine
 10
7349.601803738422
 20
6106.352470292186
 30
0.0
 11
7503.6
 21
6260.350666553766
 31
0.0
  0
LINE
  5
29E1A
330
747D
100
AcDbEntity
  8
細線
 48
50.0
100
AcDbLine
 10
7394.503084343769
 20
6106.352470292186
 30
0.0
 11
7503.6
 21
6215.449385948419
 31
0.0
  0
LINE
  5
29E1B
330
747D
100
AcDbEntity
  8
細線
 48
50.0
100
AcDbLine
 10
7303.600000000002
 20
6239.955788975148
 30
0.0
 11
7449.996681317042
 21
6386.352470292188
 31
0.0
  0
LINE
  5
29E1C
330
747D
100
AcDbEntity
  8
細線
 48
50.0
100
AcDbLine
 10
7303.600000000002
 20
6195.054508369803
 30
0.0
 11
7494.897961922389
 21
6386.35247029219
 31
0.0
  0
LINE
  5
29E1D
330
747D
100
AcDbEntity
  8
細線
 48
50.0
100
AcDbLine
 10
7303.600000000004
 20
6150.15322776446
 30
0.0
 11
7503.599999999998
 21
6350.153227764453
 31
0.0
  0
LINE
  5
29E1E
330
747D
100
AcDbEntity
  8
細線
 48
50.0
100
AcDbLine
 10
7304.700523133077
 20
6106.352470292186
 30
0.0
 11
7503.6
 21
6305.25194715911
 31
0.0
  0
LINE
  5
29E1F
330
747D
100
AcDbEntity
  8
部品1
 48
50.0
100
AcDbLine
 10
7303.599999999997
 20
6386.352470292188
 30
0.0
 11
7303.600000000004
 21
6106.352470292184
 31
0.0
  0
LINE
  5
29E20
330
747D
100
AcDbEntity
  8
部品1
 48
50.0
100
AcDbLine
 10
7503.599999999997
 20
6386.35247029219
 30
0.0
 11
7503.600000000004
 21
6106.352470292188
 31
0.0
  0
LINE
  5
29E21
330
747D
100
AcDbEntity
  8
細線
 48
50.0
100
AcDbLine
 10
7303.599999999999
 20
6284.857069580485
 30
0.0
 11
7405.095400711704
 21
6386.352470292188
 31
0.0
  0
LINE
  5
29E22
330
747D
100
AcDbEntity
  8
細線
 48
50.0
100
AcDbLine
 10
8123.599999999997
 20
6329.758350185832
 30
0.0
 11
8180.194120106355
 21
6386.35247029219
 31
0.0
  0
LINE
  5
29E23
330
747D
100
AcDbEntity
  8
細線
 48
50.0
100
AcDbLine
 10
8304.305645554462
 20
6106.35247029219
 30
0.0
 11
8323.600000000002
 21
6125.646824737727
 31
0.0
  0
LINE
  5
29E24
330
747D
100
AcDbEntity
  8
細線
 48
50.0
100
AcDbLine
 10
8259.404364949116
 20
6106.352470292188
 30
0.0
 11
8323.600000000002
 21
6170.548105343073
 31
0.0
  0
LINE
  5
29E25
330
747D
100
AcDbEntity
  8
細線
 48
50.0
100
AcDbLine
 10
8169.601803738421
 20
6106.352470292186
 30
0.0
 11
8323.6
 21
6260.350666553766
 31
0.0
  0
LINE
  5
29E26
330
747D
100
AcDbEntity
  8
細線
 48
50.0
100
AcDbLine
 10
8214.503084343769
 20
6106.352470292186
 30
0.0
 11
8323.6
 21
6215.449385948419
 31
0.0
  0
LINE
  5
29E27
330
747D
100
AcDbEntity
  8
細線
 48
50.0
100
AcDbLine
 10
8123.600000000001
 20
6239.955788975148
 30
0.0
 11
8269.996681317044
 21
6386.352470292188
 31
0.0
  0
LINE
  5
29E28
330
747D
100
AcDbEntity
  8
細線
 48
50.0
100
AcDbLine
 10
8123.600000000001
 20
6195.054508369803
 30
0.0
 11
8314.897961922389
 21
6386.35247029219
 31
0.0
  0
LINE
  5
29E29
330
747D
100
AcDbEntity
  8
細線
 48
50.0
100
AcDbLine
 10
8123.600000000005
 20
6150.15322776446
 30
0.0
 11
8323.599999999998
 21
6350.153227764453
 31
0.0
  0
LINE
  5
29E2A
330
747D
100
AcDbEntity
  8
細線
 48
50.0
100
AcDbLine
 10
8124.700523133077
 20
6106.352470292186
 30
0.0
 11
8323.6
 21
6305.25194715911
 31
0.0
  0
LINE
  5
29E2B
330
747D
100
AcDbEntity
  8
部品1
 48
50.0
100
AcDbLine
 10
8123.599999999997
 20
6386.352470292188
 30
0.0
 11
8123.600000000005
 21
6106.352470292184
 31
0.0
  0
LINE
  5
29E2C
330
747D
100
AcDbEntity
  8
部品1
 48
50.0
100
AcDbLine
 10
8323.599999999997
 20
6386.35247029219
 30
0.0
 11
8323.600000000004
 21
6106.352470292188
 31
0.0
  0
LINE
  5
29E2D
330
747D
100
AcDbEntity
  8
細線
 48
50.0
100
AcDbLine
 10
8123.599999999999
 20
6284.857069580485
 30
0.0
 11
8225.095400711703
 21
6386.352470292188
 31
0.0
  0
LINE
  5
29E2E
330
747D
100
AcDbEntity
  8
細線
 48
50.0
100
AcDbLine
 10
10583.59999999999
 20
6329.758350185828
 30
0.0
 11
10640.19412010637
 21
6386.352470292208
 31
0.0
  0
LINE
  5
29E2F
330
747D
100
AcDbEntity
  8
細線
 48
50.0
100
AcDbLine
 10
10764.30564555446
 20
6106.352470292186
 30
0.0
 11
10783.6
 21
6125.646824737724
 31
0.0
  0
LINE
  5
29E30
330
747D
100
AcDbEntity
  8
細線
 48
50.0
100
AcDbLine
 10
10719.40436494911
 20
6106.352470292184
 30
0.0
 11
10783.6
 21
6170.54810534307
 31
0.0
  0
LINE
  5
29E31
330
747D
100
AcDbEntity
  8
細線
 48
50.0
100
AcDbLine
 10
10629.60180373842
 20
6106.352470292183
 30
0.0
 11
10783.6
 21
6260.350666553763
 31
0.0
  0
LINE
  5
29E32
330
747D
100
AcDbEntity
  8
細線
 48
50.0
100
AcDbLine
 10
10674.50308434376
 20
6106.352470292183
 30
0.0
 11
10783.6
 21
6215.449385948415
 31
0.0
  0
LINE
  5
29E33
330
747D
100
AcDbEntity
  8
部品1
 48
50.0
100
AcDbLine
 10
10783.59999999999
 20
6386.352470292208
 30
0.0
 11
10783.6
 21
6106.352470292184
 31
0.0
  0
LINE
  5
29E34
330
747D
100
AcDbEntity
  8
部品1
 48
50.0
100
AcDbLine
 10
10583.59999999999
 20
6386.352470292208
 30
0.0
 11
10583.6
 21
6106.35247029218
 31
0.0
  0
LINE
  5
29E35
330
747D
100
AcDbEntity
  8
細線
 48
50.0
100
AcDbLine
 10
10583.6
 20
6239.955788975144
 30
0.0
 11
10729.99668131706
 21
6386.352470292207
 31
0.0
  0
LINE
  5
29E36
330
747D
100
AcDbEntity
  8
細線
 48
50.0
100
AcDbLine
 10
10583.6
 20
6195.0545083698
 30
0.0
 11
10774.89796192241
 21
6386.352470292208
 31
0.0
  0
LINE
  5
29E37
330
747D
100
AcDbEntity
  8
細線
 48
50.0
100
AcDbLine
 10
10583.6
 20
6150.153227764456
 30
0.0
 11
10783.59999999999
 21
6350.153227764449
 31
0.0
  0
LINE
  5
29E38
330
747D
100
AcDbEntity
  8
細線
 48
50.0
100
AcDbLine
 10
10584.70052313307
 20
6106.352470292183
 30
0.0
 11
10783.6
 21
6305.251947159106
 31
0.0
  0
LINE
  5
29E39
330
747D
100
AcDbEntity
  8
細線
 48
50.0
100
AcDbLine
 10
10583.59999999999
 20
6284.857069580481
 30
0.0
 11
10685.09540071172
 21
6386.352470292209
 31
0.0
  0
LINE
  5
29E3A
330
747D
100
AcDbEntity
  8
細線
 48
50.0
100
AcDbLine
 10
11403.59999999999
 20
6329.758350185828
 30
0.0
 11
11460.19412010637
 21
6386.352470292208
 31
0.0
  0
LINE
  5
29E3B
330
747D
100
AcDbEntity
  8
細線
 48
50.0
100
AcDbLine
 10
11584.30564555446
 20
6106.352470292186
 30
0.0
 11
11603.6
 21
6125.646824737724
 31
0.0
  0
LINE
  5
29E3C
330
747D
100
AcDbEntity
  8
細線
 48
50.0
100
AcDbLine
 10
11539.40436494911
 20
6106.352470292184
 30
0.0
 11
11603.6
 21
6170.54810534307
 31
0.0
  0
LINE
  5
29E3D
330
747D
100
AcDbEntity
  8
細線
 48
50.0
100
AcDbLine
 10
11449.60180373842
 20
6106.352470292183
 30
0.0
 11
11603.6
 21
6260.350666553763
 31
0.0
  0
LINE
  5
29E3E
330
747D
100
AcDbEntity
  8
細線
 48
50.0
100
AcDbLine
 10
11494.50308434377
 20
6106.352470292183
 30
0.0
 11
11603.6
 21
6215.449385948415
 31
0.0
  0
LINE
  5
29E3F
330
747D
100
AcDbEntity
  8
部品1
 48
50.0
100
AcDbLine
 10
11603.59999999999
 20
6386.352470292208
 30
0.0
 11
11603.6
 21
6106.352470292184
 31
0.0
  0
LINE
  5
29E40
330
747D
100
AcDbEntity
  8
部品1
 48
50.0
100
AcDbLine
 10
11403.59999999999
 20
6386.352470292208
 30
0.0
 11
11403.6
 21
6106.35247029218
 31
0.0
  0
LINE
  5
29E41
330
747D
100
AcDbEntity
  8
細線
 48
50.0
100
AcDbLine
 10
11403.6
 20
6239.955788975144
 30
0.0
 11
11549.99668131706
 21
6386.352470292207
 31
0.0
  0
LINE
  5
29E42
330
747D
100
AcDbEntity
  8
細線
 48
50.0
100
AcDbLine
 10
11403.6
 20
6195.0545083698
 30
0.0
 11
11594.89796192241
 21
6386.352470292208
 31
0.0
  0
LINE
  5
29E43
330
747D
100
AcDbEntity
  8
細線
 48
50.0
100
AcDbLine
 10
11403.6
 20
6150.153227764456
 30
0.0
 11
11603.6
 21
6350.153227764449
 31
0.0
  0
LINE
  5
29E44
330
747D
100
AcDbEntity
  8
細線
 48
50.0
100
AcDbLine
 10
11404.70052313307
 20
6106.352470292183
 30
0.0
 11
11603.6
 21
6305.251947159106
 31
0.0
  0
LINE
  5
29E45
330
747D
100
AcDbEntity
  8
細線
 48
50.0
100
AcDbLine
 10
11403.6
 20
6284.857069580481
 30
0.0
 11
11505.09540071172
 21
6386.352470292209
 31
0.0
  0
LINE
  5
29E46
330
747D
100
AcDbEntity
  8
細線
 48
50.0
100
AcDbLine
 10
12223.59999999999
 20
6329.758350185828
 30
0.0
 11
12280.19412010637
 21
6386.352470292208
 31
0.0
  0
LINE
  5
29E47
330
747D
100
AcDbEntity
  8
細線
 48
50.0
100
AcDbLine
 10
12404.30564555446
 20
6106.352470292186
 30
0.0
 11
12423.6
 21
6125.646824737724
 31
0.0
  0
LINE
  5
29E48
330
747D
100
AcDbEntity
  8
細線
 48
50.0
100
AcDbLine
 10
12359.40436494911
 20
6106.352470292184
 30
0.0
 11
12423.6
 21
6170.54810534307
 31
0.0
  0
LINE
  5
29E49
330
747D
100
AcDbEntity
  8
細線
 48
50.0
100
AcDbLine
 10
12269.60180373842
 20
6106.352470292183
 30
0.0
 11
12423.6
 21
6260.350666553763
 31
0.0
  0
LINE
  5
29E4A
330
747D
100
AcDbEntity
  8
細線
 48
50.0
100
AcDbLine
 10
12314.50308434377
 20
6106.352470292183
 30
0.0
 11
12423.6
 21
6215.449385948415
 31
0.0
  0
LINE
  5
29E4B
330
747D
100
AcDbEntity
  8
部品1
 48
50.0
100
AcDbLine
 10
12423.59999999999
 20
6386.352470292208
 30
0.0
 11
12423.6
 21
6106.352470292184
 31
0.0
  0
LINE
  5
29E4C
330
747D
100
AcDbEntity
  8
部品1
 48
50.0
100
AcDbLine
 10
12223.59999999999
 20
6386.352470292208
 30
0.0
 11
12223.6
 21
6106.35247029218
 31
0.0
  0
LINE
  5
29E4D
330
747D
100
AcDbEntity
  8
細線
 48
50.0
100
AcDbLine
 10
12223.6
 20
6239.955788975144
 30
0.0
 11
12369.99668131706
 21
6386.352470292207
 31
0.0
  0
LINE
  5
29E4E
330
747D
100
AcDbEntity
  8
細線
 48
50.0
100
AcDbLine
 10
12223.6
 20
6195.0545083698
 30
0.0
 11
12414.89796192241
 21
6386.352470292208
 31
0.0
  0
LINE
  5
29E4F
330
747D
100
AcDbEntity
  8
細線
 48
50.0
100
AcDbLine
 10
12223.6
 20
6150.153227764456
 30
0.0
 11
12423.59999999999
 21
6350.153227764449
 31
0.0
  0
LINE
  5
29E50
330
747D
100
AcDbEntity
  8
細線
 48
50.0
100
AcDbLine
 10
12224.70052313307
 20
6106.352470292183
 30
0.0
 11
12423.6
 21
6305.251947159106
 31
0.0
  0
LINE
  5
29E51
330
747D
100
AcDbEntity
  8
細線
 48
50.0
100
AcDbLine
 10
12223.59999999999
 20
6284.857069580481
 30
0.0
 11
12325.09540071172
 21
6386.352470292209
 31
0.0
  0
LINE
  5
29EF8
330
747D
100
AcDbEntity
  8
部品1
 48
50.0
100
AcDbLine
 10
3828.600000000001
 20
6386.352470292187
 30
0.0
 11
3828.599999999997
 21
7286.35247029219
 31
0.0
  0
LINE
  5
29EF9
330
747D
100
AcDbEntity
  8
部品1
 48
50.0
100
AcDbLine
 10
12618.6
 20
6386.352470292216
 30
0.0
 11
12618.6
 21
7286.35247029219
 31
0.0
  0
MTEXT
  5
2A0A2
102
{ACAD_REACTORS
330
2A0A3
102
}
330
747D
100
AcDbEntity
  8
寸法
 62
     7
 48
50.0
100
AcDbMText
 10
10613.36865864679
 20
2130.060271300933
 30
0.0
 40
120.0
 41
0.8
 71
     4
 72
     1
  1
\A1;C.B
  7
STYLE1
 73
     1
 44
1.0
1001
ACAD
1000
MTEXTBEGIN
1070
    73
1070
     1
1070
    44
1040
1.0
1070
    74
1070
     0
1000
MTEXTEND
  0
LEADER
  5
2A0A3
330
747D
100
AcDbEntity
  8
寸法
 48
50.0
100
AcDbLeader
  3
INABA_S50G
 73
     0
 74
     0
 75
     1
 40
120.0
 41
185.591883092037
 76
     3
 10
10430.23045201315
 20
1872.913950619795
 30
0.0
 10
10463.36865864679
 20
2045.060271300933
 30
0.0
 10
10588.36865864679
 20
2045.060271300933
 30
0.0
340
2A0A2
1001
ACAD
1000
DSTYLE
1002
{
1070
    40
1040
1.0
1002
}
  0
LINE
  5
2A0A4
330
747D
100
AcDbEntity
  8
細線
 48
50.0
100
AcDbLine
 10
10575.88386558956
 20
1517.215034966444
 30
0.0
 11
10569.45308497121
 21
1541.215034966444
 31
0.0
  0
LINE
  5
2A0A5
330
747D
100
AcDbEntity
  8
細線
 48
50.0
100
AcDbLine
 10
10554.44793019507
 20
1437.215034966444
 30
0.0
 11
10560.87871081342
 21
1413.215034966444
 31
0.0
  0
LINE
  5
2A0A6
330
747D
100
AcDbEntity
  8
部品1
100
AcDbLine
 10
10619.50604039723
 20
1632.913950619795
 30
0.0
 11
10619.50604039723
 21
1413.215034966445
 31
0.0
  0
LINE
  5
2A0A7
330
747D
100
AcDbEntity
  8
細線
 48
50.0
100
AcDbLine
 10
10548.01714957672
 20
1413.215034966444
 30
0.0
 11
10582.3146462079
 21
1541.215034966442
 31
0.0
  0
LINE
  5
2A0A8
330
747D
100
AcDbEntity
  8
細線
 48
50.0
100
AcDbLine
 10
10496.99582064231
 20
1517.215034966444
 30
0.0
 11
10490.56504002396
 21
1541.215034966444
 31
0.0
  0
LINE
  5
2A0A9
330
747D
100
AcDbEntity
  8
細線
100
AcDbLine
 10
10372.54243489656
 20
1541.215034966447
 30
0.0
 11
10464.2413505499
 21
1632.913950619795
 31
0.0
  0
LINE
  5
2A0AA
330
747D
100
AcDbEntity
  8
細線
 48
50.0
100
AcDbLine
 10
10418.10777569505
 20
1517.215034966445
 30
0.0
 11
10411.67699507671
 21
1541.215034966445
 31
0.0
  0
LINE
  5
2A0AB
330
747D
100
AcDbEntity
  8
細線
100
AcDbLine
 10
10406.48356039352
 20
1541.215034966447
 30
0.0
 11
10498.18247604686
 21
1632.913950619795
 31
0.0
  0
LINE
  5
2A0AC
330
747D
100
AcDbEntity
  8
細線
 48
50.0
100
AcDbLine
 10
10181.44364085332
 20
1517.215034966445
 30
0.0
 11
10175.01286023498
 21
1541.215034966445
 31
0.0
  0
LINE
  5
2A0AD
330
747D
100
AcDbEntity
  8
細線
 48
50.0
100
AcDbLine
 10
10260.33168580057
 20
1517.215034966445
 30
0.0
 11
10253.90090518222
 21
1541.215034966445
 31
0.0
  0
LINE
  5
2A0AE
330
747D
100
AcDbEntity
  8
細線
 48
50.0
100
AcDbLine
 10
10339.21973074782
 20
1517.215034966445
 30
0.0
 11
10332.78895012947
 21
1541.215034966445
 31
0.0
  0
LINE
  5
2A0AF
330
747D
100
AcDbEntity
  8
細線
 48
50.0
100
AcDbLine
 10
10475.55988524782
 20
1437.215034966444
 30
0.0
 11
10481.99066586617
 21
1413.215034966444
 31
0.0
  0
LINE
  5
2A0B0
330
747D
100
AcDbEntity
  8
細線
 48
50.0
100
AcDbLine
 10
10396.67184030057
 20
1437.215034966445
 30
0.0
 11
10403.10262091893
 21
1413.215034966445
 31
0.0
  0
LINE
  5
2A0B1
330
747D
100
AcDbEntity
  8
細線
 48
50.0
100
AcDbLine
 10
10238.89575040608
 20
1437.215034966445
 30
0.0
 11
10245.32653102443
 21
1413.215034966445
 31
0.0
  0
LINE
  5
2A0B2
330
747D
100
AcDbEntity
  8
細線
 48
50.0
100
AcDbLine
 10
10317.78379535333
 20
1437.215034966445
 30
0.0
 11
10324.21457597167
 21
1413.215034966445
 31
0.0
  0
LINE
  5
2A0B3
330
747D
100
AcDbEntity
  8
細線
 48
50.0
100
AcDbLine
 10
10311.35301473498
 20
1413.215034966445
 30
0.0
 11
10345.65051136616
 21
1541.215034966444
 31
0.0
  0
LINE
  5
2A0B4
330
747D
100
AcDbEntity
  8
細線
 48
50.0
100
AcDbLine
 10
10232.46496978773
 20
1413.215034966444
 30
0.0
 11
10266.76246641891
 21
1541.215034966444
 31
0.0
  0
LINE
  5
2A0B5
330
747D
100
AcDbEntity
  8
細線
 48
50.0
100
AcDbLine
 10
10390.24105968222
 20
1413.215034966444
 30
0.0
 11
10424.5385563134
 21
1541.215034966445
 31
0.0
  0
LINE
  5
2A0B6
330
747D
100
AcDbEntity
  8
細線
100
AcDbLine
 10
10440.42468589047
 20
1541.215034966447
 30
0.0
 11
10532.12360154381
 21
1632.913950619795
 31
0.0
  0
LINE
  5
2A0B7
330
747D
100
AcDbEntity
  8
細線
 48
50.0
100
AcDbLine
 10
10469.12910462947
 20
1413.215034966443
 30
0.0
 11
10503.42660126066
 21
1541.215034966442
 31
0.0
  0
LINE
  5
2A0B8
330
747D
100
AcDbEntity
  8
部品1
100
AcDbLine
 10
10499.50604039723
 20
1872.913950619795
 30
0.0
 11
10499.50604039723
 21
1632.913950619795
 31
0.0
  0
LINE
  5
2A0B9
330
747D
100
AcDbEntity
  8
細線
100
AcDbLine
 10
10485.66837804964
 20
1632.913950619797
 30
0.0
 11
10245.66837804965
 21
1872.913950619795
 31
0.0
  0
LINE
  5
2A0BA
330
747D
100
AcDbEntity
  8
細線
100
AcDbLine
 10
10434.75668980421
 20
1632.913950619795
 30
0.0
 11
10194.75668980421
 21
1872.913950619795
 31
0.0
  0
LINE
  5
2A0BB
330
747D
100
AcDbEntity
  8
細線
100
AcDbLine
 10
10046.48356039351
 20
1541.215034966445
 30
0.0
 11
10138.18247604686
 21
1632.913950619795
 31
0.0
  0
LINE
  5
2A0BC
330
747D
100
AcDbEntity
  8
細線
100
AcDbLine
 10
10012.54243489655
 20
1541.215034966445
 30
0.0
 11
10104.2413505499
 21
1632.913950619795
 31
0.0
  0
LINE
  5
2A0BD
330
747D
100
AcDbEntity
  8
細線
 48
50.0
100
AcDbLine
 10
10023.66755095883
 20
1517.215034966445
 30
0.0
 11
10017.23677034048
 21
1541.215034966445
 31
0.0
  0
LINE
  5
2A0BE
330
747D
100
AcDbEntity
  8
細線
 48
50.0
100
AcDbLine
 10
10102.55559590608
 20
1517.215034966445
 30
0.0
 11
10096.12481528773
 21
1541.215034966445
 31
0.0
  0
LINE
  5
2A0BF
330
747D
100
AcDbEntity
  8
細線
 48
50.0
100
AcDbLine
 10
9944.779506011578
 20
1517.215034966445
 30
0.0
 11
9938.348725393229
 21
1541.215034966445
 31
0.0
  0
LINE
  5
2A0C0
330
747D
100
AcDbEntity
  8
細線
 48
50.0
100
AcDbLine
 10
10160.00770545884
 20
1437.215034966445
 30
0.0
 11
10166.43848607718
 21
1413.215034966445
 31
0.0
  0
LINE
  5
2A0C1
330
747D
100
AcDbEntity
  8
細線
 48
50.0
100
AcDbLine
 10
10081.11966051159
 20
1437.215034966445
 30
0.0
 11
10087.55044112993
 21
1413.215034966445
 31
0.0
  0
LINE
  5
2A0C2
330
747D
100
AcDbEntity
  8
細線
 48
50.0
100
AcDbLine
 10
9923.343570617088
 20
1437.215034966445
 30
0.0
 11
9929.774351235437
 21
1413.215034966445
 31
0.0
  0
LINE
  5
2A0C3
330
747D
100
AcDbEntity
  8
細線
 48
50.0
100
AcDbLine
 10
10002.23161556434
 20
1437.215034966445
 30
0.0
 11
10008.66239618268
 21
1413.215034966445
 31
0.0
  0
LINE
  5
2A0C4
330
747D
100
AcDbEntity
  8
部品1
100
AcDbLine
 10
9899.506040397227
 20
1413.215034966441
 30
0.0
 11
9899.506040397227
 21
1632.913950619795
 31
0.0
  0
LINE
  5
2A0C5
330
747D
100
AcDbEntity
  8
細線
 48
50.0
100
AcDbLine
 10
9916.91278999874
 20
1413.215034966445
 30
0.0
 11
9951.210286629924
 21
1541.215034966445
 31
0.0
  0
LINE
  5
2A0C6
330
747D
100
AcDbEntity
  8
細線
 48
50.0
100
AcDbLine
 10
10074.68887989324
 20
1413.215034966445
 30
0.0
 11
10108.98637652442
 21
1541.215034966445
 31
0.0
  0
LINE
  5
2A0C7
330
747D
100
AcDbEntity
  8
細線
 48
50.0
100
AcDbLine
 10
9995.800834945988
 20
1413.215034966444
 30
0.0
 11
10030.09833157717
 21
1541.215034966444
 31
0.0
  0
LINE
  5
2A0C8
330
747D
100
AcDbEntity
  8
部品1
100
AcDbLine
 10
10019.50604039723
 20
1632.913950619795
 30
0.0
 11
10019.50604039723
 21
1872.913950619795
 31
0.0
  0
TEXT
  5
2A0C9
330
747D
100
AcDbEntity
  8
部品1
 48
50.0
100
AcDbText
 10
9255.387953638726
 20
1366.114209982486
 30
0.0
 40
80.0
  1
ボルトの出
 50
90.0
  7
STYLE2
100
AcDbText
  0
LINE
  5
2A0CA
330
747D
100
AcDbEntity
  8
細線
100
AcDbLine
 10
10163.22768582858
 20
1632.913950619795
 30
0.0
 11
10019.50604039723
 21
1776.635596051148
 31
0.0
  0
LWPOLYLINE
  5
2A0CB
330
747D
100
AcDbEntity
  8
部品1
 48
50.0
100
AcDbPolyline
 90
        2
 70
     0
 43
12.0
 10
9634.894778296839
 20
1632.913950619795
 10
10835.98708142846
 20
1632.913950619795
  0
LINE
  5
2A0CC
330
747D
100
AcDbEntity
  8
細線
100
AcDbLine
 10
10080.42468589047
 20
1541.215034966445
 30
0.0
 11
10172.12360154381
 21
1632.913950619795
 31
0.0
  0
LINE
  5
2A0CD
330
747D
100
AcDbEntity
  8
部品1
100
AcDbLine
 10
9899.506040397227
 20
1541.215034966445
 30
0.0
 11
10619.50604039723
 21
1541.215034966448
 31
0.0
  0
LINE
  5
2A0CE
330
747D
100
AcDbEntity
  8
部品1
100
AcDbLine
 10
9899.506040397227
 20
1413.215034966441
 30
0.0
 11
10619.50604039723
 21
1413.215034966445
 31
0.0
  0
LINE
  5
2A0CF
330
747D
100
AcDbEntity
  8
細線
 48
50.0
100
AcDbLine
 10
10153.57692484048
 20
1413.215034966445
 30
0.0
 11
10187.87442147167
 21
1541.215034966444
 31
0.0
  0
LINE
  5
2A0D0
330
747D
100
AcDbEntity
  8
部品1
100
AcDbLine
 10
10019.50604039723
 20
1872.913950619795
 30
0.0
 11
10499.50604039723
 21
1872.913950619795
 31
0.0
  0
LINE
  5
2A0D1
330
747D
100
AcDbEntity
  8
細線
100
AcDbLine
 10
10214.13937407401
 20
1632.913950619795
 30
0.0
 11
10019.50604039723
 21
1827.547284296578
 31
0.0
  0
LINE
  5
2A0D2
330
747D
100
AcDbEntity
  8
部品1
100
AcDbLine
 10
11206.24754149426
 20
307.9456482357337
 30
0.0
 11
11206.24754149426
 21
3272.252617820381
 31
0.0
  0
TEXT
  5
2A0D3
330
747D
100
AcDbEntity
  8
部品1
100
AcDbText
 10
7828.1423572864
 20
3092.700685868953
 30
0.0
 40
120.0
  1
基礎詳細
  7
STYLE2
100
AcDbText
  0
LINE
  5
2A0D4
330
747D
100
AcDbEntity
  8
部品1
 48
50.0
100
AcDbLine
 10
8143.370108094471
 20
2271.789231728938
 30
0.0
 11
8159.370108094469
 21
2263.789231728938
 31
0.0
  0
LINE
  5
2A0D5
330
747D
100
AcDbEntity
  8
細線
 48
50.0
100
AcDbLine
 10
8111.370108094471
 20
2223.789231728938
 30
0.0
 11
8111.370108094471
 21
2255.789231728938
 31
0.0
  0
LINE
  5
2A0D6
330
747D
100
AcDbEntity
  8
部品1
 48
50.0
100
AcDbLine
 10
8159.370108094469
 20
2231.789231728938
 30
0.0
 11
8159.370108094469
 21
2263.789231728938
 31
0.0
  0
LINE
  5
2A0D7
330
747D
100
AcDbEntity
  8
細線
 48
50.0
100
AcDbLine
 10
8143.370108094471
 20
2223.789231728938
 30
0.0
 11
8143.370108094471
 21
2255.789231728938
 31
0.0
  0
LINE
  5
2A0D8
330
747D
100
AcDbEntity
  8
部品1
 48
50.0
100
AcDbLine
 10
8143.370108094471
 20
2255.789231728938
 30
0.0
 11
8159.370108094469
 21
2263.789231728938
 31
0.0
  0
LINE
  5
2A0D9
330
747D
100
AcDbEntity
  8
部品1
 48
50.0
100
AcDbLine
 10
8111.370108094471
 20
2255.789231728938
 30
0.0
 11
8143.370108094471
 21
2255.789231728938
 31
0.0
  0
LINE
  5
2A0DA
330
747D
100
AcDbEntity
  8
部品1
 48
50.0
100
AcDbLine
 10
8143.370108094471
 20
2223.789231728938
 30
0.0
 11
8159.370108094469
 21
2231.789231728938
 31
0.0
  0
LINE
  5
2A0DB
330
747D
100
AcDbEntity
  8
部品1
 48
50.0
100
AcDbLine
 10
8111.370108094471
 20
2223.789231728938
 30
0.0
 11
8143.370108094471
 21
2223.789231728938
 31
0.0
  0
ELLIPSE
  5
2A0DC
330
747D
100
AcDbEntity
  8
細線
 48
50.0
100
AcDbEllipse
 10
8127.370108094471
 20
2263.789231728938
 30
0.0
 11
14.76670786606846
 21
0.0
 31
0.0
210
0.0
220
0.0
230
1.0
 40
0.2071254069489396
 41
0.0
 42
6.283185307179586
  0
LINE
  5
2A0DD
330
747D
100
AcDbEntity
  8
部品1
 48
50.0
100
AcDbLine
 10
8111.370108094471
 20
2271.789231728938
 30
0.0
 11
8143.370108094471
 21
2271.789231728938
 31
0.0
  0
LINE
  5
2A0DE
330
747D
100
AcDbEntity
  8
部品1
 48
50.0
100
AcDbLine
 10
8095.370108094469
 20
2231.789231728938
 30
0.0
 11
8095.370108094469
 21
2263.789231728938
 31
0.0
  0
LINE
  5
2A0DF
330
747D
100
AcDbEntity
  8
部品1
 48
50.0
100
AcDbLine
 10
8095.370108094469
 20
2263.789231728938
 30
0.0
 11
8111.370108094471
 21
2271.789231728938
 31
0.0
  0
LINE
  5
2A0E0
330
747D
100
AcDbEntity
  8
部品1
 48
50.0
100
AcDbLine
 10
8095.370108094469
 20
2231.789231728938
 30
0.0
 11
8111.370108094471
 21
2223.789231728938
 31
0.0
  0
LINE
  5
2A0E1
330
747D
100
AcDbEntity
  8
部品1
 48
50.0
100
AcDbLine
 10
8095.370108094469
 20
2263.789231728938
 30
0.0
 11
8111.370108094471
 21
2255.789231728938
 31
0.0
  0
LINE
  5
2A0E2
330
747D
100
AcDbEntity
  8
部品1
 48
50.0
100
AcDbLine
 10
8167.370108094472
 20
2132.437239064068
 30
0.0
 11
8167.370108094472
 21
2142.037239064068
 31
0.0
  0
ELLIPSE
  5
2A0E3
330
747D
100
AcDbEntity
  8
部品1
 48
50.0
100
AcDbEllipse
 10
8127.370108094471
 20
2142.037239064068
 30
0.0
 11
18.4
 21
0.0
 31
0.0
210
0.0
220
0.0
230
1.0
 40
0.3478260869565217
 41
0.0
 42
6.283185307179586
  0
ARC
  5
2A0E4
330
747D
100
AcDbEntity
  8
部品1
100
AcDbCircle
 10
7966.27010809447
 20
1971.013950619796
 30
0.0
 40
2.7
100
AcDbArc
 50
90.0
 51
180.0
  0
LINE
  5
2A0E5
330
747D
100
AcDbEntity
  8
部品1
100
AcDbLine
 10
7968.970108094469
 20
1984.513950619795
 30
0.0
 11
8011.270108094469
 21
1984.513950619792
 31
0.0
  0
LINE
  5
2A0E6
330
747D
100
AcDbEntity
  8
部品1
100
AcDbLine
 10
7966.27010809447
 20
1973.713950619795
 30
0.0
 11
7966.27010809447
 21
1981.813950619795
 31
0.0
  0
LINE
  5
2A0E7
330
747D
100
AcDbEntity
  8
部品1
100
AcDbLine
 10
7966.27010809447
 20
1973.713950619795
 30
0.0
 11
7966.27010809447
 21
1973.713950619795
 31
0.0
  0
ARC
  5
2A0E8
330
747D
100
AcDbEntity
  8
部品1
100
AcDbCircle
 10
7968.970108094469
 20
1981.813950619795
 30
0.0
 40
2.7
100
AcDbArc
 50
90.0
 51
180.0
  0
ARC
  5
2A0E9
330
747D
100
AcDbEntity
  8
部品1
100
AcDbCircle
 10
8011.270108094469
 20
1981.813950619792
 30
0.0
 40
2.7
100
AcDbArc
 50
0.0
 51
90.0
  0
LINE
  5
2A0EA
330
747D
100
AcDbEntity
  8
部品1
 48
50.0
100
AcDbLine
 10
8087.37010809447
 20
2142.037239064068
 30
0.0
 11
8087.37010809447
 21
2132.437239064068
 31
0.0
  0
ELLIPSE
  5
2A0EB
330
747D
100
AcDbEntity
  8
部品1
 48
50.0
100
AcDbEllipse
 10
8127.370108094471
 20
2132.437239064068
 30
0.0
 11
40.0
 21
0.0
 31
0.0
210
0.0
220
0.0
230
1.0
 40
0.4
 41
3.141592653589793
 42
6.283185307179586
  0
ELLIPSE
  5
2A0EC
330
747D
100
AcDbEntity
  8
部品1
 48
50.0
100
AcDbEllipse
 10
8127.370108094471
 20
2142.037239064068
 30
0.0
 11
40.0
 21
0.0
 31
0.0
210
0.0
220
0.0
230
1.0
 40
0.4
 41
0.0
 42
6.283185307179586
  0
LINE
  5
2A0ED
330
747D
100
AcDbEntity
  8
部品1
100
AcDbLine
 10
8121.970108094469
 20
1925.673950619795
 30
0.0
 11
8132.77010809447
 21
1925.673950619795
 31
0.0
  0
LINE
  5
2A0EE
330
747D
100
AcDbEntity
  8
部品1
100
AcDbLine
 10
8118.37010809447
 20
1922.073950619796
 30
0.0
 11
8136.370108094471
 21
1922.073950619796
 31
0.0
  0
LINE
  5
2A0EF
330
747D
100
AcDbEntity
  8
細線
100
AcDbLine
 10
8121.970108094473
 20
1882.473950619796
 30
0.0
 11
8121.970108094469
 21
1925.673950619795
 31
0.0
  0
LINE
  5
2A0F0
330
747D
100
AcDbEntity
  8
細線
100
AcDbLine
 10
8132.77010809447
 20
1882.473950619796
 30
0.0
 11
8132.77010809447
 21
1925.673950619795
 31
0.0
  0
LINE
  5
2A0F1
330
747D
100
AcDbEntity
  8
部品1
100
AcDbLine
 10
8034.67010809447
 20
1939.773950619796
 30
0.0
 11
8034.67010809447
 21
1922.673950619795
 31
0.0
  0
LINE
  5
2A0F2
330
747D
100
AcDbEntity
  8
部品1
100
AcDbLine
 10
8068.230108094471
 20
1939.773950619796
 30
0.0
 11
8068.230108094466
 21
1885.173950619795
 31
0.0
  0
ARC
  5
2A0F3
330
747D
100
AcDbEntity
  8
部品1
100
AcDbCircle
 10
8053.57010809447
 20
1927.813950619795
 30
0.0
 40
2.7
100
AcDbArc
 50
0.0
 51
90.0
  0
LINE
  5
2A0F4
330
747D
100
AcDbEntity
  8
部品1
100
AcDbLine
 10
8013.970108094468
 20
1930.513950619795
 30
0.0
 11
8053.57010809447
 21
1930.513950619795
 31
0.0
  0
ARC
  5
2A0F5
330
747D
100
AcDbEntity
  8
部品1
100
AcDbCircle
 10
8053.57010809447
 20
1885.173950619795
 30
0.0
 40
2.7
100
AcDbArc
 50
270.0
 51
0.0
  0
ARC
  5
2A0F6
330
747D
100
AcDbEntity
  8
部品1
100
AcDbCircle
 10
8070.930108094463
 20
1885.173950619795
 30
0.0
 40
2.7
100
AcDbArc
 50
180.0
 51
270.0
  0
LINE
  5
2A0F7
330
747D
100
AcDbEntity
  8
部品1
100
AcDbLine
 10
8041.870108094469
 20
1882.473950619796
 30
0.0
 11
8053.57010809447
 21
1882.473950619796
 31
0.0
  0
LINE
  5
2A0F8
330
747D
100
AcDbEntity
  8
部品1
100
AcDbLine
 10
8056.270108094471
 20
1927.813950619795
 30
0.0
 11
8056.270108094471
 21
1885.173950619795
 31
0.0
  0
ARC
  5
2A0F9
330
747D
100
AcDbEntity
  8
部品1
100
AcDbCircle
 10
8065.530108094469
 20
1939.773950619796
 30
0.0
 40
2.7
100
AcDbArc
 50
0.0
 51
90.0
  0
ARC
  5
2A0FA
330
747D
100
AcDbEntity
  8
部品1
100
AcDbCircle
 10
8037.370108094469
 20
1939.773950619796
 30
0.0
 40
2.7
100
AcDbArc
 50
90.0
 51
180.0
  0
LINE
  5
2A0FB
330
747D
100
AcDbEntity
  8
部品1
100
AcDbLine
 10
8037.370108094469
 20
1942.473950619796
 30
0.0
 11
8065.530108094469
 21
1942.473950619796
 31
0.0
  0
LINE
  5
2A0FC
330
747D
100
AcDbEntity
  8
部品1
100
AcDbLine
 10
8013.970108094468
 20
1981.813950619792
 30
0.0
 11
8013.970108094468
 21
1930.513950619795
 31
0.0
  0
LINE
  5
2A0FD
330
747D
100
AcDbEntity
  8
部品1
100
AcDbLine
 10
7963.570108094471
 20
1962.913950619795
 30
0.0
 11
7963.570108094471
 21
1971.013950619796
 31
0.0
  0
LINE
  5
2A0FE
330
747D
100
AcDbEntity
  8
部品1
100
AcDbLine
 10
8070.930108094463
 20
1882.473950619796
 30
0.0
 11
8272.270108094465
 21
1882.473950619796
 31
0.0
  0
LINE
  5
2A0FF
330
747D
100
AcDbEntity
  8
部品1
100
AcDbLine
 10
7912.270108094469
 20
1885.173950619795
 30
0.0
 11
7912.270108094469
 21
1947.305854322503
 31
0.0
  0
LINE
  5
2A100
330
747D
100
AcDbEntity
  8
部品1
100
AcDbLine
 10
7914.970108094469
 20
1882.473950619796
 30
0.0
 11
7926.670108094464
 21
1882.473950619796
 31
0.0
  0
LINE
  5
2A101
330
747D
100
AcDbEntity
  8
細線
 48
50.0
100
AcDbLine
 10
7905.970108094469
 20
1860.6945269197
 30
0.0
 11
7918.189531794563
 21
1872.913950619795
 31
0.0
  0
ARC
  5
2A102
330
747D
100
AcDbEntity
  8
部品1
100
AcDbCircle
 10
7914.970108094469
 20
1885.173950619795
 30
0.0
 40
2.7
100
AcDbArc
 50
180.0
 51
270.0
  0
LINE
  5
2A103
330
747D
100
AcDbEntity
  8
部品1
100
AcDbLine
 10
7914.315261906871
 20
1949.925239072895
 30
0.0
 11
7923.070108094471
 21
1952.113950619795
 31
0.0
  0
ARC
  5
2A104
330
747D
100
AcDbEntity
  8
部品1
100
AcDbCircle
 10
7914.970108094469
 20
1947.305854322503
 30
0.0
 40
2.7
100
AcDbArc
 50
104.0362434679067
 51
180.0
  0
ARC
  5
2A105
330
747D
100
AcDbEntity
  8
部品1
100
AcDbCircle
 10
7925.77010809447
 20
1960.213950619795
 30
0.0
 40
2.7
100
AcDbArc
 50
90.0
 51
180.0
  0
LINE
  5
2A106
330
747D
100
AcDbEntity
  8
部品1
100
AcDbLine
 10
7923.070108094471
 20
1952.113950619795
 30
0.0
 11
7923.070108094471
 21
1960.213950619795
 31
0.0
  0
LINE
  5
2A107
330
747D
100
AcDbEntity
  8
部品1
 48
50.0
100
AcDbLine
 10
7905.970108094469
 20
1872.913950619795
 30
0.0
 11
8319.970108094471
 21
1872.913950619795
 31
0.0
  0
LINE
  5
2A108
330
747D
100
AcDbEntity
  8
細線
 48
50.0
100
AcDbLine
 10
7905.970108094469
 20
1806.812990193285
 30
0.0
 11
7972.071068520979
 21
1872.913950619795
 31
0.0
  0
LINE
  5
2A109
330
747D
100
AcDbEntity
  8
細線
 48
50.0
100
AcDbLine
 10
7905.970108094469
 20
1833.753758556493
 30
0.0
 11
7945.130300157777
 21
1872.913950619795
 31
0.0
  0
LINE
  5
2A10A
330
747D
100
AcDbEntity
  8
部品1
100
AcDbLine
 10
7925.77010809447
 20
1962.913950619795
 30
0.0
 11
7963.570108094471
 21
1962.913950619795
 31
0.0
  0
LINE
  5
2A10B
330
747D
100
AcDbEntity
  8
部品1
 48
50.0
100
AcDbLine
 10
8319.970108094469
 20
1328.913950619795
 30
0.0
 11
8447.97010809447
 21
1328.913950619795
 31
0.0
  0
LINE
  5
2A10C
330
747D
100
AcDbEntity
  8
部品1
100
AcDbLine
 10
8136.370108094471
 20
1647.913950619795
 30
0.0
 11
8172.370108094471
 21
1647.913950619795
 31
0.0
  0
LINE
  5
2A10D
330
747D
100
AcDbEntity
  8
部品1
100
AcDbLine
 10
8136.370108094471
 20
1629.913950619795
 30
0.0
 11
8172.370108094471
 21
1629.913950619795
 31
0.0
  0
ARC
  5
2A10E
330
747D
100
AcDbEntity
  8
部品1
100
AcDbCircle
 10
8136.370108094471
 20
1647.913950619795
 30
0.0
 40
18.0
100
AcDbArc
 50
180.0
 51
270.0
  0
LINE
  5
2A10F
330
747D
100
AcDbEntity
  8
部品1
100
AcDbLine
 10
8172.370108094471
 20
1629.913950619795
 30
0.0
 11
8172.370108094471
 21
1647.913950619795
 31
0.0
  0
LINE
  5
2A110
330
747D
100
AcDbEntity
  8
部品1
100
AcDbLine
 10
8190.370108094469
 20
1548.913950619793
 30
0.0
 11
8064.370108094463
 21
1548.913950619793
 31
0.0
  0
LINE
  5
2A111
330
747D
100
AcDbEntity
  8
細線
 48
50.0
100
AcDbLine
 10
8484.347933286803
 20
1064.913950619793
 30
0.0
 11
8477.917152668458
 21
1088.913950619793
 31
0.0
  0
LINE
  5
2A112
330
747D
100
AcDbEntity
  8
細線
 48
50.0
100
AcDbLine
 10
8405.45988833956
 20
1064.913950619793
 30
0.0
 11
8399.029107721213
 21
1088.913950619793
 31
0.0
  0
LINE
  5
2A113
330
747D
100
AcDbEntity
  8
細線
 48
50.0
100
AcDbLine
 10
8326.571843392303
 20
1064.913950619795
 30
0.0
 11
8320.141062773954
 21
1088.913950619795
 31
0.0
  0
LINE
  5
2A114
330
747D
100
AcDbEntity
  8
細線
 48
50.0
100
AcDbLine
 10
8462.911997892316
 20
984.9139506197934
 30
0.0
 11
8469.342778510663
 21
960.9139506197934
 31
0.0
  0
LINE
  5
2A115
330
747D
100
AcDbEntity
  8
細線
 48
50.0
100
AcDbLine
 10
8384.023952945069
 20
984.9139506197934
 30
0.0
 11
8390.454733563416
 21
960.9139506197934
 31
0.0
  0
LINE
  5
2A116
330
747D
100
AcDbEntity
  8
細線
 48
50.0
100
AcDbLine
 10
8305.13590799782
 20
984.9139506197953
 30
0.0
 11
8311.566688616178
 21
960.9139506197953
 31
0.0
  0
LINE
  5
2A117
330
747D
100
AcDbEntity
  8
細線
 48
50.0
100
AcDbLine
 10
8377.59317232672
 20
960.9139506197925
 30
0.0
 11
8411.890668957903
 21
1088.913950619792
 31
0.0
  0
LINE
  5
2A118
330
747D
100
AcDbEntity
  8
細線
 48
50.0
100
AcDbLine
 10
8298.705127379472
 20
960.9139506197934
 30
0.0
 11
8333.002624010644
 21
1088.913950619795
 31
0.0
  0
LINE
  5
2A119
330
747D
100
AcDbEntity
  8
細線
 48
50.0
100
AcDbLine
 10
8456.481217273964
 20
960.9139506197934
 30
0.0
 11
8490.77871390515
 21
1088.913950619792
 31
0.0
  0
LINE
  5
2A11A
330
747D
100
AcDbEntity
  8
部品1
 48
50.0
100
AcDbLine
 10
8527.970108094471
 20
1088.913950619795
 30
0.0
 11
8527.970108094471
 21
960.9139506197953
 31
0.0
  0
LINE
  5
2A11B
330
747D
100
AcDbEntity
  8
細線
 48
50.0
100
AcDbLine
 10
8247.683798445065
 20
1064.913950619795
 30
0.0
 11
8241.25301782672
 21
1088.913950619795
 31
0.0
  0
LINE
  5
2A11C
330
747D
100
AcDbEntity
  8
細線
 48
50.0
100
AcDbLine
 10
8168.795753497819
 20
1064.913950619795
 30
0.0
 11
8162.364972879471
 21
1088.913950619795
 31
0.0
  0
LINE
  5
2A11D
330
747D
100
AcDbEntity
  8
細線
 48
50.0
100
AcDbLine
 10
8011.019663603326
 20
1064.913950619795
 30
0.0
 11
8004.588882984979
 21
1088.913950619795
 31
0.0
  0
LINE
  5
2A11E
330
747D
100
AcDbEntity
  8
細線
 48
50.0
100
AcDbLine
 10
8089.907708550573
 20
1064.913950619795
 30
0.0
 11
8083.476927932224
 21
1088.913950619795
 31
0.0
  0
LINE
  5
2A11F
330
747D
100
AcDbEntity
  8
細線
 48
50.0
100
AcDbLine
 10
8147.35981810333
 20
984.9139506197953
 30
0.0
 11
8153.790598721675
 21
960.9139506197953
 31
0.0
  0
LINE
  5
2A120
330
747D
100
AcDbEntity
  8
細線
 48
50.0
100
AcDbLine
 10
8226.247863050575
 20
984.9139506197953
 30
0.0
 11
8232.678643668922
 21
960.9139506197953
 31
0.0
  0
LINE
  5
2A121
330
747D
100
AcDbEntity
  8
細線
 48
50.0
100
AcDbLine
 10
7989.583728208836
 20
984.9139506197953
 30
0.0
 11
7996.014508827184
 21
960.9139506197953
 31
0.0
  0
LINE
  5
2A122
330
747D
100
AcDbEntity
  8
細線
 48
50.0
100
AcDbLine
 10
8068.471773156083
 20
984.9139506197953
 30
0.0
 11
8074.902553774432
 21
960.9139506197953
 31
0.0
  0
LINE
  5
2A123
330
747D
100
AcDbEntity
  8
細線
 48
50.0
100
AcDbLine
 10
8219.817082432221
 20
960.9139506197953
 30
0.0
 11
8254.114579063408
 21
1088.913950619793
 31
0.0
  0
LINE
  5
2A124
330
747D
100
AcDbEntity
  8
細線
 48
50.0
100
AcDbLine
 10
8062.040992537731
 20
960.9139506197953
 30
0.0
 11
8096.338489168918
 21
1088.913950619793
 31
0.0
  0
LINE
  5
2A125
330
747D
100
AcDbEntity
  8
細線
 48
50.0
100
AcDbLine
 10
7983.152947590484
 20
960.9139506197953
 30
0.0
 11
8017.450444221667
 21
1088.913950619795
 31
0.0
  0
LINE
  5
2A126
330
747D
100
AcDbEntity
  8
細線
 48
50.0
100
AcDbLine
 10
8140.92903748498
 20
960.9139506197934
 30
0.0
 11
8175.226534116161
 21
1088.913950619793
 31
0.0
  0
LINE
  5
2A127
330
747D
100
AcDbEntity
  8
細線
 48
50.0
100
AcDbLine
 10
8265.701803049278
 20
1088.913950619795
 30
0.0
 11
8447.97010809447
 21
1271.182255664991
 31
0.0
  0
LINE
  5
2A128
330
747D
100
AcDbEntity
  8
部品1
 48
50.0
100
AcDbLine
 10
8447.97010809447
 20
1328.913950619795
 30
0.0
 11
8447.97010809447
 21
1088.913950619795
 31
0.0
  0
LINE
  5
2A129
330
747D
100
AcDbEntity
  8
細線
 48
50.0
100
AcDbLine
 10
8238.761034686076
 20
1088.913950619795
 30
0.0
 11
8447.97010809447
 21
1298.123024028188
 31
0.0
  0
LINE
  5
2A12A
330
747D
100
AcDbEntity
  8
細線
 48
50.0
100
AcDbLine
 10
8211.820266322863
 20
1088.913950619795
 30
0.0
 11
8447.97010809447
 21
1325.063792391404
 31
0.0
  0
LINE
  5
2A12B
330
747D
100
AcDbEntity
  8
細線
 48
50.0
100
AcDbLine
 10
7996.294119417203
 20
1088.913950619795
 30
0.0
 11
8319.970108094469
 21
1412.589939297061
 31
0.0
  0
LINE
  5
2A12C
330
747D
100
AcDbEntity
  8
細線
 48
50.0
100
AcDbLine
 10
8050.17565614362
 20
1088.913950619795
 30
0.0
 11
8319.970108094469
 21
1358.708402570653
 31
0.0
  0
LINE
  5
2A12D
330
747D
100
AcDbEntity
  8
細線
 48
50.0
100
AcDbLine
 10
8023.234887780414
 20
1088.913950619795
 30
0.0
 11
8319.970108094469
 21
1385.649170933848
 31
0.0
  0
LINE
  5
2A12E
330
747D
100
AcDbEntity
  8
細線
 48
50.0
100
AcDbLine
 10
7777.970108094464
 20
1301.642233108381
 30
0.0
 11
7805.241825605884
 21
1328.913950619795
 31
0.0
  0
LINE
  5
2A12F
330
747D
100
AcDbEntity
  8
部品1
 48
50.0
100
AcDbLine
 10
7777.970108094469
 20
1328.913950619795
 30
0.0
 11
7905.970108094469
 21
1328.913950619795
 31
0.0
  0
LINE
  5
2A130
330
747D
100
AcDbEntity
  8
細線
 48
50.0
100
AcDbLine
 10
7777.970108094464
 20
1274.70146474517
 30
0.0
 11
7832.182593969093
 21
1328.913950619795
 31
0.0
  0
LWPOLYLINE
  5
2A131
330
747D
100
AcDbEntity
  8
部品1
 48
50.0
100
AcDbPolyline
 90
        2
 70
     0
 43
8.0
 10
7491.830206261512
 20
1632.913950619796
 10
7905.970108094469
 20
1632.913950619796
  0
LINE
  5
2A132
330
747D
100
AcDbEntity
  8
細線
 48
50.0
100
AcDbLine
 10
7853.243573708823
 20
1064.913950619795
 30
0.0
 11
7846.812793090475
 21
1088.913950619795
 31
0.0
  0
LINE
  5
2A133
330
747D
100
AcDbEntity
  8
細線
 48
50.0
100
AcDbLine
 10
7932.131618656075
 20
1064.913950619795
 30
0.0
 11
7925.700838037727
 21
1088.913950619795
 31
0.0
  0
LINE
  5
2A134
330
747D
100
AcDbEntity
  8
細線
 48
50.0
100
AcDbLine
 10
7774.355528761571
 20
1064.913950619795
 30
0.0
 11
7767.924748143226
 21
1088.913950619795
 31
0.0
  0
LINE
  5
2A135
330
747D
100
AcDbEntity
  8
細線
 48
50.0
100
AcDbLine
 10
7697.97010809447
 20
1074.253871585575
 30
0.0
 11
7701.898264432664
 21
1088.913950619795
 31
0.0
  0
LINE
  5
2A136
330
747D
100
AcDbEntity
  8
細線
 48
50.0
100
AcDbLine
 10
7831.807638314335
 20
984.9139506197953
 30
0.0
 11
7838.23841893268
 21
960.9139506197953
 31
0.0
  0
LINE
  5
2A137
330
747D
100
AcDbEntity
  8
細線
 48
50.0
100
AcDbLine
 10
7910.695683261585
 20
984.9139506197953
 30
0.0
 11
7917.126463879933
 21
960.9139506197953
 31
0.0
  0
LINE
  5
2A138
330
747D
100
AcDbEntity
  8
細線
 48
50.0
100
AcDbLine
 10
7752.919593367082
 20
984.9139506197953
 30
0.0
 11
7759.350373985428
 21
960.9139506197953
 31
0.0
  0
LINE
  5
2A139
330
747D
100
AcDbEntity
  8
細線
 48
50.0
100
AcDbLine
 10
7904.264902643234
 20
960.9139506197934
 30
0.0
 11
7938.562399274416
 21
1088.913950619793
 31
0.0
  0
LINE
  5
2A13A
330
747D
100
AcDbEntity
  8
細線
 48
50.0
100
AcDbLine
 10
7746.488812748729
 20
960.9139506197934
 30
0.0
 11
7780.786309379911
 21
1088.913950619793
 31
0.0
  0
LINE
  5
2A13B
330
747D
100
AcDbEntity
  8
部品1
 48
50.0
100
AcDbLine
 10
7697.970108094472
 20
960.9139506197953
 30
0.0
 11
7697.970108094472
 21
1088.913950619795
 31
0.0
  0
LINE
  5
2A13C
330
747D
100
AcDbEntity
  8
細線
 48
50.0
100
AcDbLine
 10
7825.376857695987
 20
960.9139506197953
 30
0.0
 11
7859.67435432717
 21
1088.913950619795
 31
0.0
  0
LINE
  5
2A13D
330
747D
100
AcDbEntity
  8
部品1
 48
50.0
100
AcDbLine
 10
7777.970108094469
 20
1088.913950619795
 30
0.0
 11
7777.970108094469
 21
1328.913950619795
 31
0.0
  0
LINE
  5
2A13E
330
747D
100
AcDbEntity
  8
細線
 48
50.0
100
AcDbLine
 10
7777.970108094464
 20
1247.760696381966
 30
0.0
 11
7859.123362332299
 21
1328.913950619795
 31
0.0
  0
LINE
  5
2A13F
330
747D
100
AcDbEntity
  8
部品1
 48
50.0
100
AcDbLine
 10
8527.970108094471
 20
960.9139506197953
 30
0.0
 11
7697.970108094472
 21
960.9139506197953
 31
0.0
  0
LINE
  5
2A140
330
747D
100
AcDbEntity
  8
部品1
 48
50.0
100
AcDbLine
 10
8527.970108094471
 20
1088.913950619795
 30
0.0
 11
7697.970108094472
 21
1088.913950619795
 31
0.0
  0
LINE
  5
2A141
330
747D
100
AcDbEntity
  8
細線
 48
50.0
100
AcDbLine
 10
7780.767972511545
 20
1088.913950619795
 30
0.0
 11
8319.970108094469
 21
1628.116086202721
 31
0.0
  0
LINE
  5
2A142
330
747D
100
AcDbEntity
  8
細線
 48
50.0
100
AcDbLine
 10
7807.708740874755
 20
1088.913950619795
 30
0.0
 11
8319.970108094471
 21
1601.175317839509
 31
0.0
  0
LINE
  5
2A143
330
747D
100
AcDbEntity
  8
細線
 48
50.0
100
AcDbLine
 10
7834.649509237959
 20
1088.913950619795
 30
0.0
 11
8319.970108094469
 21
1574.234549476303
 31
0.0
  0
LINE
  5
2A144
330
747D
100
AcDbEntity
  8
細線
 48
50.0
100
AcDbLine
 10
7905.970108094469
 20
1429.642233108381
 30
0.0
 11
8064.370108094463
 21
1588.042233108376
 31
0.0
  0
LINE
  5
2A145
330
747D
100
AcDbEntity
  8
細線
 48
50.0
100
AcDbLine
 10
7905.970108094469
 20
1375.760696381966
 30
0.0
 11
8079.123362332307
 21
1548.913950619793
 31
0.0
  0
LINE
  5
2A146
330
747D
100
AcDbEntity
  8
細線
 48
50.0
100
AcDbLine
 10
7905.970108094469
 20
1402.701464745173
 30
0.0
 11
8064.370108094463
 21
1561.101464745162
 31
0.0
  0
LINE
  5
2A147
330
747D
100
AcDbEntity
  8
部品1
100
AcDbLine
 10
8064.370108094463
 20
1548.913950619795
 30
0.0
 11
8064.37010809447
 21
1872.913950619795
 31
0.0
  0
LINE
  5
2A148
330
747D
100
AcDbEntity
  8
部品1
100
AcDbLine
 10
8190.370108094469
 20
1548.913950619795
 30
0.0
 11
8190.370108094469
 21
1872.913950619795
 31
0.0
  0
LINE
  5
2A149
330
747D
100
AcDbEntity
  8
細線
 48
50.0
100
AcDbLine
 10
8190.370108094469
 20
1687.101464745166
 30
0.0
 11
8319.970108094469
 21
1816.701464745163
 31
0.0
  0
LINE
  5
2A14A
330
747D
100
AcDbEntity
  8
細線
 48
50.0
100
AcDbLine
 10
8190.370108094469
 20
1660.160696381954
 30
0.0
 11
8319.970108094469
 21
1789.760696381945
 31
0.0
  0
LINE
  5
2A14B
330
747D
100
AcDbEntity
  8
部品1
100
AcDbLine
 10
8118.37010809447
 20
1647.913950619795
 30
0.0
 11
8118.370108094467
 21
1922.073950619796
 31
0.0
  0
LINE
  5
2A14C
330
747D
100
AcDbEntity
  8
部品1
100
AcDbLine
 10
8136.370108094471
 20
1647.913950619795
 30
0.0
 11
8136.370108094466
 21
1922.073950619796
 31
0.0
  0
TEXT
  5
2A14D
330
747D
100
AcDbEntity
  8
部品1
 48
50.0
100
AcDbText
 10
7491.830206261512
 20
1644.15294290305
 30
0.0
 40
80.0
  1
▽G.L
  7
STYLE2
100
AcDbText
  0
LINE
  5
2A14E
330
747D
100
AcDbEntity
  8
細線
 48
50.0
100
AcDbLine
 10
7905.970108094469
 20
1591.286843287625
 30
0.0
 11
8064.370108094466
 21
1749.686843287618
 31
0.0
  0
LINE
  5
2A14F
330
747D
100
AcDbEntity
  8
細線
 48
50.0
100
AcDbLine
 10
7905.970108094469
 20
1618.227611650833
 30
0.0
 11
8064.370108094468
 21
1776.627611650831
 31
0.0
  0
LINE
  5
2A150
330
747D
100
AcDbEntity
  8
細線
 48
50.0
100
AcDbLine
 10
7905.970108094469
 20
1645.168380014041
 30
0.0
 11
8064.370108094468
 21
1803.568380014038
 31
0.0
  0
LINE
  5
2A151
330
747D
100
AcDbEntity
  8
部品1
 48
50.0
100
AcDbLine
 10
7905.970108094469
 20
1328.913950619795
 30
0.0
 11
7905.970108094469
 21
1872.913950619795
 31
0.0
  0
LINE
  5
2A152
330
747D
100
AcDbEntity
  8
部品1
100
AcDbLine
 10
8319.970108094469
 20
1328.913950619795
 30
0.0
 11
8319.970108094469
 21
1872.913950619795
 31
0.0
  0
LINE
  5
2A153
330
747D
100
AcDbEntity
  8
細線
 48
50.0
100
AcDbLine
 10
8190.370108094469
 20
1714.042233108384
 30
0.0
 11
8319.970108094469
 21
1843.642233108382
 31
0.0
  0
LINE
  5
2A154
330
747D
100
AcDbEntity
  8
細線
 48
50.0
100
AcDbLine
 10
6314.423217419746
 20
1753.660802516511
 30
0.0
 11
6397.930794917276
 21
1837.168380014041
 31
0.0
  0
LINE
  5
2A155
330
747D
100
AcDbEntity
  8
細線
 48
50.0
100
AcDbLine
 10
6325.483502183263
 20
1737.780318916817
 30
0.0
 11
6397.930794917276
 21
1810.227611650833
 31
0.0
  0
LINE
  5
2A156
330
747D
100
AcDbEntity
  8
細線
 48
50.0
100
AcDbLine
 10
6205.930794917276
 20
1860.6945269197
 30
0.0
 11
6218.15021861737
 21
1872.913950619795
 31
0.0
  0
LINE
  5
2A157
330
747D
100
AcDbEntity
  8
細線
 48
50.0
100
AcDbLine
 10
6205.930794917276
 20
1806.812990193285
 30
0.0
 11
6272.031755343785
 21
1872.913950619795
 31
0.0
  0
LINE
  5
2A158
330
747D
100
AcDbEntity
  8
細線
 48
50.0
100
AcDbLine
 10
6205.930794917276
 20
1833.753758556493
 30
0.0
 11
6245.090986980581
 21
1872.913950619795
 31
0.0
  0
LINE
  5
2A159
330
747D
100
AcDbEntity
  8
部品1
 48
50.0
100
AcDbLine
 10
6205.930794917276
 20
1872.913950619795
 30
0.0
 11
6397.930794917276
 21
1872.913950619795
 31
0.0
  0
DIMENSION
  5
2A15A
330
747D
100
AcDbEntity
  8
寸法
 48
50.0
100
AcDbDimension
  2
*D51
 10
6205.930794917275
 20
2292.581758536176
 30
0.0
 11
6301.930794917275
 21
2292.581758536176
 31
0.0
 70
   160
  1
120\P200\P280
 71
     5
 42
192.0
  3
INABA_S40G
100
AcDbAlignedDimension
 13
6397.930794917275
 23
1872.913950619795
 33
0.0
 14
6205.930794917275
 24
1872.913950619795
 34
0.0
100
AcDbRotatedDimension
1001
ACAD
1000
DSTYLE
1002
{
1070
   341
1005
0
1002
}
  0
MTEXT
  5
2A15B
102
{ACAD_REACTORS
330
2A1B0
102
}
330
747D
100
AcDbEntity
  8
寸法
 62
     7
 48
50.0
100
AcDbMText
 10
6639.669250778526
 20
911.5648648876423
 30
0.0
 40
80.0
 41
0.8
 71
     4
 72
     1
  1
\A1;D10@300
  7
STYLE2
 73
     1
 44
1.0
1001
ACAD
1000
MTEXTBEGIN
1070
    73
1070
     1
1070
    44
1040
1.0
1070
    74
1070
     0
1000
MTEXTEND
  0
LINE
  5
2A15C
330
747D
100
AcDbEntity
  8
細線
 48
50.0
100
AcDbLine
 10
6325.930794917281
 20
1522.701464745176
 30
0.0
 11
6397.930794917269
 21
1594.70146474517
 31
0.0
  0
LINE
  5
2A15D
330
747D
100
AcDbEntity
  8
細線
 48
50.0
100
AcDbLine
 10
6325.930794917276
 20
1549.642233108381
 30
0.0
 11
6397.930794917276
 21
1621.642233108381
 31
0.0
  0
LINE
  5
2A15E
330
747D
100
AcDbEntity
  8
細線
 48
50.0
100
AcDbLine
 10
6325.930794917281
 20
1280.234549476307
 30
0.0
 11
6397.930794917269
 21
1352.234549476307
 31
0.0
  0
LINE
  5
2A15F
330
747D
100
AcDbEntity
  8
細線
 48
50.0
100
AcDbLine
 10
6325.930794917281
 20
1334.116086202725
 30
0.0
 11
6397.930794917269
 21
1406.116086202721
 31
0.0
  0
LINE
  5
2A160
330
747D
100
AcDbEntity
  8
細線
 48
50.0
100
AcDbLine
 10
6325.930794917281
 20
1307.175317839516
 30
0.0
 11
6397.930794917269
 21
1379.175317839511
 31
0.0
  0
LINE
  5
2A161
330
747D
100
AcDbEntity
  8
部品1
 48
50.0
100
AcDbLine
 10
6397.930794917276
 20
1328.913950619795
 30
0.0
 11
6525.930794917276
 21
1328.913950619795
 31
0.0
  0
LINE
  5
2A162
330
747D
100
AcDbEntity
  8
細線
 48
50.0
100
AcDbLine
 10
6325.930794917281
 20
1495.760696381966
 30
0.0
 11
6397.930794917269
 21
1567.760696381966
 31
0.0
  0
LINE
  5
2A163
330
747D
100
AcDbEntity
  8
部品1
 48
50.0
100
AcDbLine
 10
6293.930794917276
 20
1675.041165316917
 30
0.0
 11
6293.930794917276
 21
1733.16838001404
 31
0.0
  0
LINE
  5
2A164
330
747D
100
AcDbEntity
  8
細線
 48
50.0
100
AcDbLine
 10
6205.930794917276
 20
1645.168380014041
 30
0.0
 11
6277.930794917276
 21
1717.168380014041
 31
0.0
  0
LINE
  5
2A165
330
747D
100
AcDbEntity
  8
部品1
 48
50.0
100
AcDbLine
 10
6277.930794917276
 20
1675.041165316921
 30
0.0
 11
6277.930794917276
 21
1733.16838001404
 31
0.0
  0
LINE
  5
2A166
330
747D
100
AcDbEntity
  8
細線
 48
50.0
100
AcDbLine
 10
6205.930794917276
 20
1618.227611650833
 30
0.0
 11
6277.930794917276
 21
1690.227611650833
 31
0.0
  0
LINE
  5
2A167
330
747D
100
AcDbEntity
  8
細線
 48
50.0
100
AcDbLine
 10
6205.930794917276
 20
1591.286843287625
 30
0.0
 11
6289.68511694657
 21
1675.041165316917
 31
0.0
  0
LINE
  5
2A168
330
747D
100
AcDbEntity
  8
部品1
 48
50.0
100
AcDbLine
 10
6293.930794917276
 20
1675.041165316917
 30
0.0
 11
6277.930794917276
 21
1675.041165316921
 31
0.0
  0
LINE
  5
2A169
330
747D
100
AcDbEntity
  8
細線
 48
50.0
100
AcDbLine
 10
6077.930794917269
 20
1301.642233108381
 30
0.0
 11
6105.202512428689
 21
1328.913950619795
 31
0.0
  0
LINE
  5
2A16A
330
747D
100
AcDbEntity
  8
細線
 48
50.0
100
AcDbLine
 10
6077.930794917269
 20
1274.70146474517
 30
0.0
 11
6132.1432807919
 21
1328.913950619795
 31
0.0
  0
LINE
  5
2A16B
330
747D
100
AcDbEntity
  8
部品1
 48
50.0
100
AcDbLine
 10
6077.930794917276
 20
1328.913950619795
 30
0.0
 11
6205.930794917276
 21
1328.913950619795
 31
0.0
  0
LINE
  5
2A16C
330
747D
100
AcDbEntity
  8
細線
 48
50.0
100
AcDbLine
 10
6293.930794917276
 20
1706.227611650833
 30
0.0
 11
6309.930794917276
 21
1722.227611650833
 31
0.0
  0
LINE
  5
2A16D
330
747D
100
AcDbEntity
  8
細線
 48
50.0
100
AcDbLine
 10
6293.930794917276
 20
1679.286843287625
 30
0.0
 11
6309.930794917276
 21
1695.286843287625
 31
0.0
  0
LINE
  5
2A16E
330
747D
100
AcDbEntity
  8
細線
 48
50.0
100
AcDbLine
 10
6205.930794917276
 20
1375.760696381966
 30
0.0
 11
6309.930794917281
 21
1479.760696381966
 31
0.0
  0
LINE
  5
2A16F
330
747D
100
AcDbEntity
  8
細線
 48
50.0
100
AcDbLine
 10
6205.930794917276
 20
1429.642233108381
 30
0.0
 11
6309.930794917276
 21
1533.642233108381
 31
0.0
  0
LINE
  5
2A170
330
747D
100
AcDbEntity
  8
細線
 48
50.0
100
AcDbLine
 10
6205.930794917276
 20
1402.701464745173
 30
0.0
 11
6309.930794917281
 21
1506.701464745176
 31
0.0
  0
LINE
  5
2A171
330
747D
100
AcDbEntity
  8
細線
 48
50.0
100
AcDbLine
 10
6468.756440320624
 20
1064.913950619795
 30
0.0
 11
6462.325659702277
 21
1088.913950619795
 31
0.0
  0
LINE
  5
2A172
330
747D
100
AcDbEntity
  8
細線
 48
50.0
100
AcDbLine
 10
6511.78095314567
 20
1088.913950619795
 30
0.0
 11
6525.930794917276
 21
1103.063792391402
 31
0.0
  0
LINE
  5
2A173
330
747D
100
AcDbEntity
  8
細線
 48
50.0
100
AcDbLine
 10
6547.644485267871
 20
1064.913950619795
 30
0.0
 11
6541.213704649523
 21
1088.913950619795
 31
0.0
  0
LINE
  5
2A174
330
747D
100
AcDbEntity
  8
部品1
 48
50.0
100
AcDbLine
 10
6469.930794917276
 20
1200.913950619795
 30
0.0
 11
6469.930794917276
 21
1184.913950619795
 31
0.0
  0
LINE
  5
2A175
330
747D
100
AcDbEntity
  8
細線
 48
50.0
100
AcDbLine
 10
6350.136342966424
 20
1088.913950619795
 30
0.0
 11
6446.137230811562
 21
1184.914838464934
 31
0.0
  0
LINE
  5
2A176
330
747D
100
AcDbEntity
  8
細線
 48
50.0
100
AcDbLine
 10
6323.19557460322
 20
1088.913950619795
 30
0.0
 11
6419.195574603221
 21
1184.913950619795
 31
0.0
  0
LINE
  5
2A177
330
747D
100
AcDbEntity
  8
細線
 48
50.0
100
AcDbLine
 10
6389.868395373378
 20
1064.913950619795
 30
0.0
 11
6383.437614755032
 21
1088.913950619795
 31
0.0
  0
LINE
  5
2A178
330
747D
100
AcDbEntity
  8
細線
 48
50.0
100
AcDbLine
 10
6310.980350426133
 20
1064.913950619795
 30
0.0
 11
6304.549569807785
 21
1088.913950619795
 31
0.0
  0
ARC
  5
2A179
330
747D
100
AcDbEntity
  8
部品1
 48
50.0
100
AcDbCircle
 10
6301.930794917276
 20
1208.913950619795
 30
0.0
 40
24.0
100
AcDbArc
 50
340.5287793655256
 51
0.0
  0
CIRCLE
  5
2A17A
330
747D
100
AcDbEntity
  8
部品1
 48
50.0
100
AcDbCircle
 10
6429.930794917275
 20
1208.913950619795
 30
0.0
 40
8.0
  0
LINE
  5
2A17B
330
747D
100
AcDbEntity
  8
細線
 48
50.0
100
AcDbLine
 10
6462.136342966423
 20
1200.913950619795
 30
0.0
 11
6525.930794917276
 21
1264.708402570646
 31
0.0
  0
LINE
  5
2A17C
330
747D
100
AcDbEntity
  8
細線
 48
50.0
100
AcDbLine
 10
6598.665814202279
 20
960.9139506197934
 30
0.0
 11
6605.930794917276
 21
988.0272277641834
 31
0.0
  0
LINE
  5
2A17D
330
747D
100
AcDbEntity
  8
細線
 48
50.0
100
AcDbLine
 10
6605.096594820628
 20
984.9139506197953
 30
0.0
 11
6605.930794917276
 21
981.8006734754307
 31
0.0
  0
LINE
  5
2A17E
330
747D
100
AcDbEntity
  8
細線
 48
50.0
100
AcDbLine
 10
6526.208549873381
 20
984.9139506197953
 30
0.0
 11
6532.639330491729
 21
960.9139506197953
 31
0.0
  0
LINE
  5
2A17F
330
747D
100
AcDbEntity
  8
細線
 48
50.0
100
AcDbLine
 10
6368.432459978889
 20
984.9139506197953
 30
0.0
 11
6374.863240597235
 21
960.9139506197953
 31
0.0
  0
LINE
  5
2A180
330
747D
100
AcDbEntity
  8
細線
 48
50.0
100
AcDbLine
 10
6447.320504926134
 20
984.9139506197953
 30
0.0
 11
6453.751285544481
 21
960.9139506197953
 31
0.0
  0
LINE
  5
2A181
330
747D
100
AcDbEntity
  8
細線
 48
50.0
100
AcDbLine
 10
6440.889724307784
 20
960.9139506197934
 30
0.0
 11
6475.187220938969
 21
1088.913950619793
 31
0.0
  0
LINE
  5
2A182
330
747D
100
AcDbEntity
  8
細線
 48
50.0
100
AcDbLine
 10
6362.001679360536
 20
960.9139506197953
 30
0.0
 11
6396.299175991722
 21
1088.913950619793
 31
0.0
  0
LINE
  5
2A183
330
747D
100
AcDbEntity
  8
細線
 48
50.0
100
AcDbLine
 10
6519.77776925503
 20
960.9139506197953
 30
0.0
 11
6554.075265886215
 21
1088.913950619793
 31
0.0
  0
LINE
  5
2A184
330
747D
100
AcDbEntity
  8
部品1
 48
50.0
100
AcDbLine
 10
6605.930794917281
 20
1088.913950619795
 30
0.0
 11
6605.930794917281
 21
960.9139506197953
 31
0.0
  0
LINE
  5
2A185
330
747D
100
AcDbEntity
  8
部品1
 48
50.0
100
AcDbLine
 10
6293.930794917276
 20
1267.041165316918
 30
0.0
 11
6293.930794917276
 21
1208.913950619795
 31
0.0
  0
LINE
  5
2A186
330
747D
100
AcDbEntity
  8
細線
 48
50.0
100
AcDbLine
 10
6219.66942769756
 20
1200.913950619795
 30
0.0
 11
6277.930794917276
 21
1259.175317839513
 31
0.0
  0
LINE
  5
2A187
330
747D
100
AcDbEntity
  8
部品1
 48
50.0
100
AcDbLine
 10
6277.930794917276
 20
1267.041165316918
 30
0.0
 11
6277.930794917276
 21
1208.913950619795
 31
0.0
  0
LINE
  5
2A188
330
747D
100
AcDbEntity
  8
細線
 48
50.0
100
AcDbLine
 10
6134.610196060765
 20
1088.913950619795
 30
0.0
 11
6230.610196060765
 21
1184.913950619795
 31
0.0
  0
LINE
  5
2A189
330
747D
100
AcDbEntity
  8
細線
 48
50.0
100
AcDbLine
 10
6232.09230547888
 20
1064.913950619795
 30
0.0
 11
6225.661524860534
 21
1088.913950619795
 31
0.0
  0
LINE
  5
2A18A
330
747D
100
AcDbEntity
  8
細線
 48
50.0
100
AcDbLine
 10
6153.204260531627
 20
1064.913950619795
 30
0.0
 11
6146.773479913282
 21
1088.913950619795
 31
0.0
  0
ARC
  5
2A18B
330
747D
100
AcDbEntity
  8
部品1
 48
50.0
100
AcDbCircle
 10
6301.930794917276
 20
1208.913950619795
 30
0.0
 40
24.0
100
AcDbArc
 50
180.0
 51
199.4712206344743
  0
LINE
  5
2A18C
330
747D
100
AcDbEntity
  8
細線
 48
50.0
100
AcDbLine
 10
6246.610196060765
 20
1200.913950619795
 30
0.0
 11
6277.930794917276
 21
1232.234549476307
 31
0.0
  0
CIRCLE
  5
2A18D
330
747D
100
AcDbEntity
  8
部品1
 48
50.0
100
AcDbCircle
 10
6173.930794917276
 20
1208.913950619795
 30
0.0
 40
8.0
  0
LINE
  5
2A18E
330
747D
100
AcDbEntity
  8
部品1
 48
50.0
100
AcDbLine
 10
6293.930794917276
 20
1267.041165316918
 30
0.0
 11
6277.930794917276
 21
1267.041165316918
 31
0.0
  0
LINE
  5
2A18F
330
747D
100
AcDbEntity
  8
細線
 48
50.0
100
AcDbLine
 10
5997.930794917277
 20
1074.253871585575
 30
0.0
 11
6001.858951255472
 21
1088.913950619795
 31
0.0
  0
LINE
  5
2A190
330
747D
100
AcDbEntity
  8
細線
 48
50.0
100
AcDbLine
 10
6074.316215584377
 20
1064.913950619795
 30
0.0
 11
6067.885434966029
 21
1088.913950619795
 31
0.0
  0
LINE
  5
2A191
330
747D
100
AcDbEntity
  8
部品1
 48
50.0
100
AcDbLine
 10
6133.930794917276
 20
1200.913950619795
 30
0.0
 11
6133.930794917276
 21
1184.913950619795
 31
0.0
  0
LINE
  5
2A192
330
747D
100
AcDbEntity
  8
細線
 48
50.0
100
AcDbLine
 10
6080.728659334349
 20
1088.913950619795
 30
0.0
 11
6176.728659334349
 21
1184.913950619795
 31
0.0
  0
LINE
  5
2A193
330
747D
100
AcDbEntity
  8
細線
 48
50.0
100
AcDbLine
 10
6107.669427697559
 20
1088.913950619795
 30
0.0
 11
6203.669427697559
 21
1184.913950619795
 31
0.0
  0
LINE
  5
2A194
330
747D
100
AcDbEntity
  8
細線
 48
50.0
100
AcDbLine
 10
6210.65637008439
 20
984.9139506197953
 30
0.0
 11
6217.087150702737
 21
960.9139506197953
 31
0.0
  0
LINE
  5
2A195
330
747D
100
AcDbEntity
  8
細線
 48
50.0
100
AcDbLine
 10
6289.544415031643
 20
984.9139506197953
 30
0.0
 11
6295.975195649989
 21
960.9139506197953
 31
0.0
  0
LINE
  5
2A196
330
747D
100
AcDbEntity
  8
細線
 48
50.0
100
AcDbLine
 10
6052.880280189888
 20
984.9139506197953
 30
0.0
 11
6059.311060808234
 21
960.9139506197953
 31
0.0
  0
LINE
  5
2A197
330
747D
100
AcDbEntity
  8
細線
 48
50.0
100
AcDbLine
 10
6131.768325137138
 20
984.9139506197953
 30
0.0
 11
6138.199105755486
 21
960.9139506197953
 31
0.0
  0
LINE
  5
2A198
330
747D
100
AcDbEntity
  8
部品1
 48
50.0
100
AcDbLine
 10
5997.930794917277
 20
960.9139506197953
 30
0.0
 11
5997.930794917277
 21
1088.913950619795
 31
0.0
  0
LINE
  5
2A199
330
747D
100
AcDbEntity
  8
細線
 48
50.0
100
AcDbLine
 10
6046.449499571534
 20
960.9139506197934
 30
0.0
 11
6080.746996202717
 21
1088.913950619793
 31
0.0
  0
LINE
  5
2A19A
330
747D
100
AcDbEntity
  8
細線
 48
50.0
100
AcDbLine
 10
6204.225589466037
 20
960.9139506197934
 30
0.0
 11
6238.52308609722
 21
1088.913950619793
 31
0.0
  0
LINE
  5
2A19B
330
747D
100
AcDbEntity
  8
細線
 48
50.0
100
AcDbLine
 10
6125.337544518792
 20
960.9139506197953
 30
0.0
 11
6159.635041149975
 21
1088.913950619795
 31
0.0
  0
LINE
  5
2A19C
330
747D
100
AcDbEntity
  8
細線
 48
50.0
100
AcDbLine
 10
6296.25480624001
 20
1088.913950619795
 30
0.0
 11
6392.25480624001
 21
1184.913950619795
 31
0.0
  0
CIRCLE
  5
2A19D
330
747D
100
AcDbEntity
  8
部品1
 48
50.0
100
AcDbCircle
 10
6301.930794917276
 20
1208.913950619795
 30
0.0
 40
8.0
  0
LINE
  5
2A19E
330
747D
100
AcDbEntity
  8
部品1
 48
50.0
100
AcDbLine
 10
6605.930794917281
 20
1088.913950619795
 30
0.0
 11
5997.930794917277
 21
1088.913950619795
 31
0.0
  0
LINE
  5
2A19F
330
747D
100
AcDbEntity
  8
部品1
 48
50.0
100
AcDbLine
 10
6133.930794917276
 20
1200.913950619795
 30
0.0
 11
6469.930794917276
 21
1200.913950619795
 31
0.0
  0
LINE
  5
2A1A0
330
747D
100
AcDbEntity
  8
部品1
 48
50.0
100
AcDbLine
 10
6133.930794917276
 20
1184.913950619795
 30
0.0
 11
6469.930794917276
 21
1184.913950619795
 31
0.0
  0
LINE
  5
2A1A1
330
747D
100
AcDbEntity
  8
部品1
 48
50.0
100
AcDbLine
 10
6605.930794917281
 20
960.9139506197953
 30
0.0
 11
5997.930794917277
 21
960.9139506197953
 31
0.0
  0
LINE
  5
2A1A2
330
747D
100
AcDbEntity
  8
細線
 48
50.0
100
AcDbLine
 10
6283.11363441329
 20
960.9139506197953
 30
0.0
 11
6317.411131044473
 21
1088.913950619795
 31
0.0
  0
LINE
  5
2A1A3
330
747D
100
AcDbEntity
  8
細線
 48
50.0
100
AcDbLine
 10
6293.930794917276
 20
1248.234549476306
 30
0.0
 11
6309.930794917281
 21
1264.234549476306
 31
0.0
  0
LINE
  5
2A1A4
330
747D
100
AcDbEntity
  8
部品1
 48
50.0
100
AcDbLine
 10
6309.930794917281
 20
1208.913950619795
 30
0.0
 11
6309.930794917269
 21
1733.16838001404
 31
0.0
  0
LINE
  5
2A1A5
330
747D
100
AcDbEntity
  8
部品1
 48
50.0
100
AcDbLine
 10
6325.930794917281
 20
1208.913950619795
 30
0.0
 11
6325.930794917276
 21
1733.16838001404
 31
0.0
  0
LINE
  5
2A1A6
330
747D
100
AcDbEntity
  8
部品1
 48
50.0
100
AcDbLine
 10
6525.930794917276
 20
1328.913950619795
 30
0.0
 11
6525.930794917276
 21
1088.913950619795
 31
0.0
  0
LINE
  5
2A1A7
330
747D
100
AcDbEntity
  8
細線
 48
50.0
100
AcDbLine
 10
6408.254806240003
 20
1200.913950619795
 30
0.0
 11
6525.930794917276
 21
1318.589939297061
 31
0.0
  0
LINE
  5
2A1A8
330
747D
100
AcDbEntity
  8
細線
 48
50.0
100
AcDbLine
 10
6435.19557460322
 20
1200.913950619795
 30
0.0
 11
6525.930794917276
 21
1291.649170933854
 31
0.0
  0
LINE
  5
2A1A9
330
747D
100
AcDbEntity
  8
部品1
 48
50.0
100
AcDbLine
 10
6077.930794917276
 20
1088.913950619795
 30
0.0
 11
6077.930794917276
 21
1328.913950619795
 31
0.0
  0
LINE
  5
2A1AA
330
747D
100
AcDbEntity
  8
細線
 48
50.0
100
AcDbLine
 10
6192.728659334349
 20
1200.913950619795
 30
0.0
 11
6309.930794917276
 21
1318.116086202721
 31
0.0
  0
LINE
  5
2A1AB
330
747D
100
AcDbEntity
  8
細線
 48
50.0
100
AcDbLine
 10
6285.79664239468
 20
1267.041165316918
 30
0.0
 11
6309.930794917281
 21
1291.175317839516
 31
0.0
  0
LINE
  5
2A1AC
330
747D
100
AcDbEntity
  8
細線
 48
50.0
100
AcDbLine
 10
6077.930794917269
 20
1247.760696381966
 30
0.0
 11
6159.084049155104
 21
1328.913950619795
 31
0.0
  0
LEADER
  5
2A1AD
330
747D
100
AcDbEntity
  8
寸法
 48
50.0
100
AcDbLeader
  3
INABA_S50G
 71
     0
 73
     0
 74
     0
 75
     1
 40
100.0
 41
222.7272727272727
 76
     3
 10
6301.930794917275
 20
1733.16838001404
 30
0.0
 10
6355.816731944671
 20
1832.403952867215
 30
0.0
 10
6480.816731944671
 20
1832.403952867215
 30
0.0
1001
ACAD
1000
DSTYLE
1002
{
1070
    40
1040
1.0
1070
   272
1070
     1
1070
   279
1070
     1
1070
   341
1005
0
1002
}
  0
LWPOLYLINE
  5
2A1AE
330
747D
100
AcDbEntity
  8
部品1
 48
50.0
100
AcDbPolyline
 90
        2
 70
     0
 43
8.0
 10
6397.930794917275
 20
1632.913950619796
 10
6812.070696750232
 20
1632.913950619796
  0
MTEXT
  5
2A1AF
102
{ACAD_REACTORS
330
2A1B1
102
}
330
747D
100
AcDbEntity
  8
寸法
 62
     7
 48
50.0
100
AcDbMText
 10
6629.258454723959
 20
1173.516881676823
 30
0.0
 40
80.0
 41
0.8
 71
     4
 72
     1
  1
D10
  7
STYLE2
 73
     1
 44
1.0
1001
ACAD
1000
MTEXTBEGIN
1070
    73
1070
     1
1070
    44
1040
1.0
1070
    74
1070
     0
1000
MTEXTEND
  0
LEADER
  5
2A1B0
330
747D
100
AcDbEntity
  8
寸法
 48
50.0
100
AcDbLeader
  3
INABA_S50G
 71
     0
 73
     0
 74
     0
 75
     1
 40
100.0
 41
540.3409090909091
 76
     3
 10
6375.87596393045
 20
1192.17342020627
 30
0.0
 10
6494.669250778527
 20
850.5426022113724
 30
0.0
 10
6619.669250778527
 20
850.5426022113724
 30
0.0
213
0.0
223
-1.022262676269383
233
0.0
1001
ACAD
1000
DSTYLE
1002
{
1070
    40
1040
1.0
1070
   272
1070
     1
1070
   279
1070
     1
1070
   341
1005
0
1002
}
  0
LEADER
  5
2A1B1
330
747D
100
AcDbEntity
  8
寸法
 48
50.0
100
AcDbLeader
  3
INABA_S50G
 71
     0
 73
     0
 74
     0
 75
     1
 40
100.0
 41
225.0
 76
     3
 10
6429.833747269419
 20
1208.913950619795
 30
0.0
 10
6484.258454723961
 20
1113.516881676823
 30
0.0
 10
6609.258454723961
 20
1113.516881676823
 30
0.0
1001
ACAD
1000
DSTYLE
1002
{
1070
    40
1040
1.0
1070
   272
1070
     1
1070
   279
1070
     1
1070
   341
1005
0
1002
}
  0
MTEXT
  5
2A1B2
102
{ACAD_REACTORS
330
2A1AD
102
}
330
747D
100
AcDbEntity
  8
寸法
 62
     7
 48
50.0
100
AcDbMText
 10
6480.816731944671
 20
1895.469849912606
 30
0.0
 40
80.0
 41
0.8
 71
     4
 72
     1
  1
D13
  7
STYLE2
 73
     1
 44
1.0
1001
ACAD
1000
MTEXTBEGIN
1070
    73
1070
     1
1070
    44
1040
1.0
1070
    74
1070
     0
1000
MTEXTEND
  0
LINE
  5
2A1B3
330
747D
100
AcDbEntity
  8
部品1
 48
50.0
100
AcDbLine
 10
6397.930794917276
 20
1872.913950619795
 30
0.0
 11
6397.930794917276
 21
1328.913950619795
 31
0.0
  0
LINE
  5
2A1B4
330
747D
100
AcDbEntity
  8
部品1
 48
50.0
100
AcDbLine
 10
6205.930794917276
 20
1328.913950619795
 30
0.0
 11
6205.930794917276
 21
1872.913950619795
 31
0.0
  0
CIRCLE
  5
2A1B5
330
747D
100
AcDbEntity
  8
部品1
 48
50.0
100
AcDbCircle
 10
6301.930794917276
 20
1733.16838001404
 30
0.0
 40
8.0
  0
ARC
  5
2A1B6
330
747D
100
AcDbEntity
  8
部品1
 48
50.0
100
AcDbCircle
 10
6301.930794917276
 20
1733.16838001404
 30
0.0
 40
24.0
100
AcDbArc
 50
0.0
 51
180.0
  0
LINE
  5
2A1B7
330
747D
100
AcDbEntity
  8
細線
 48
50.0
100
AcDbLine
 10
6325.930794917276
 20
1711.286843287625
 30
0.0
 11
6397.930794917276
 21
1783.286843287626
 31
0.0
  0
LEADER
  5
2A1B8
330
747D
100
AcDbEntity
  8
寸法
 48
50.0
100
AcDbLeader
  3
INABA_S50G
 73
     0
 75
     1
 40
106.3636363636363
 41
893.1818181818181
 76
     3
 10
8037.370108094469
 20
1942.473950619796
 30
0.0
 10
7988.946035749529
 20
2316.533525336129
 30
0.0
 10
7863.946035749529
 20
2316.533525336129
 30
0.0
340
2A1B9
1001
ACAD
1000
DSTYLE
1002
{
1070
   341
1005
0
1070
    40
1040
1.0
1070
   343
1005
0
1070
   344
1005
0
1002
}
  0
MTEXT
  5
2A1B9
102
{ACAD_REACTORS
330
2A1B8
102
}
330
747D
100
AcDbEntity
  8
寸法
 62
     7
 48
50.0
100
AcDbMText
 10
7838.946035749529
 20
2394.715343517948
 30
0.0
 40
80.0
 41
0.8
 71
     6
 72
     1
  1
\A1;アンカープレート L
  7
STYLE2
 73
     1
 44
1.0
1001
ACAD
1000
MTEXTBEGIN
1070
    73
1070
     1
1070
    44
1040
1.0
1070
    74
1070
     0
1000
MTEXTEND
  0
DIMENSION
  5
2A1BA
330
747D
100
AcDbEntity
  8
寸法
 48
50.0
100
AcDbDimension
  2
*D52
 10
6525.930794917275
 20
550.4843126146352
 30
0.0
 11
6281.834036239052
 21
550.4843126146352
 31
0.0
 70
   160
  1
300
 71
     5
 42
448.0
  3
INABA_S40G
100
AcDbAlignedDimension
 13
6077.930794917275
 23
960.9139506197953
 33
0.0
 14
6525.930794917275
 24
960.9139506197953
 34
0.0
100
AcDbRotatedDimension
1001
ACAD
1000
DSTYLE
1002
{
1070
   341
1005
0
1002
}
  0
MTEXT
  5
2A1BB
102
{ACAD_REACTORS
330
2A1C3
102
}
330
747D
100
AcDbEntity
  8
寸法
 62
     7
 48
50.0
100
AcDbMText
 10
5906.995768722081
 20
1005.391257001359
 30
0.0
 40
80.0
 41
0.8
 71
     6
 72
     1
  1
D10
  7
STYLE2
 73
     1
 44
1.0
1001
ACAD
1000
MTEXTBEGIN
1070
    73
1070
     1
1070
    44
1040
1.0
1070
    74
1070
     0
1000
MTEXTEND
  0
MTEXT
  5
2A1BC
102
{ACAD_REACTORS
330
2A1C2
102
}
330
747D
100
AcDbEntity
  8
寸法
 62
     7
 48
50.0
100
AcDbMText
 10
5935.118496279516
 20
825.0751044619155
 30
0.0
 40
80.0
 41
0.8
 71
     6
 72
     1
  1
D13
  7
STYLE2
 73
     1
 44
1.0
1001
ACAD
1000
MTEXTBEGIN
1070
    73
1070
     1
1070
    44
1040
1.0
1070
    74
1070
     0
1000
MTEXTEND
  0
DIMENSION
  5
2A1BD
330
747D
100
AcDbEntity
  8
寸法
 48
50.0
100
AcDbDimension
  2
*D53
 10
5470.893556355535
 20
1088.913950619795
 30
0.0
 11
5470.893556355535
 21
1460.454100275796
 31
0.0
 70
   160
  1
540
 71
     5
 42
784.0
  3
INABA_S40G
100
AcDbAlignedDimension
 13
6205.930794917275
 23
1872.913950619795
 33
0.0
 14
5997.930794917279
 24
1088.913950619795
 34
0.0
 50
90.0
100
AcDbRotatedDimension
1001
ACAD
1000
DSTYLE
1002
{
1070
   341
1005
0
1002
}
  0
MTEXT
  5
2A1BE
102
{ACAD_REACTORS
330
2A1BF
102
}
330
747D
100
AcDbEntity
  8
寸法
 62
     7
 48
50.0
100
AcDbMText
 10
5985.832315434002
 20
2085.430170621838
 30
0.0
 40
80.0
 41
0.8
 71
     6
 72
     1
  1
\A1;金コテ押エ
  7
STYLE2
 73
     1
 44
1.0
1001
ACAD
1000
MTEXTBEGIN
1070
    73
1070
     1
1070
    44
1040
1.0
1070
    74
1070
     0
1000
MTEXTEND
  0
LEADER
  5
2A1BF
330
747D
100
AcDbEntity
  8
寸法
 48
50.0
100
AcDbLeader
  3
INABA_S50G
 71
     0
 73
     0
 75
     1
 40
130.1136363636363
 41
651.1363636363636
 76
     3
 10
6285.930794917275
 20
1872.913950619795
 30
0.0
 10
6173.506214753259
 20
2013.384716076384
 30
0.0
 10
6048.506214753259
 20
2013.384716076384
 30
0.0
1001
ACAD
1000
DSTYLE
1002
{
1070
    40
1040
1.0
1070
   272
1070
     1
1070
   279
1070
     1
1070
   341
1005
0
1002
}
  0
LEADER
  5
2A1C0
330
747D
100
AcDbEntity
  8
寸法
 48
50.0
100
AcDbLeader
  3
INABA_S50G
 71
     0
 73
     0
 75
     1
 40
100.0
 41
540.3409090909091
 76
     3
 10
6309.930794917275
 20
1631.041165316919
 30
0.0
 10
6251.948558388577
 20
1409.570836776113
 30
0.0
 10
6126.948558388577
 20
1409.570836776113
 30
0.0
213
-9.732182305893367
223
-4.643716661138569
233
0.0
1001
ACAD
1000
DSTYLE
1002
{
1070
    40
1040
1.0
1070
   272
1070
     1
1070
   279
1070
     1
1070
   341
1005
0
1002
}
  0
MTEXT
  5
2A1C1
102
{ACAD_REACTORS
330
2A1C0
102
}
330
747D
100
AcDbEntity
  8
寸法
 62
     7
 48
50.0
100
AcDbMText
 10
6116.680740694471
 20
1474.214553437252
 30
0.0
 40
80.0
 41
0.8
 71
     6
 72
     1
  1
\A1;D10@300
  7
STYLE2
 73
     1
 44
1.0
1001
ACAD
1000
MTEXTBEGIN
1070
    73
1070
     1
1070
    44
1040
1.0
1070
    74
1070
     0
1000
MTEXTEND
  0
LEADER
  5
2A1C2
330
747D
100
AcDbEntity
  8
寸法
 48
50.0
100
AcDbLeader
  3
INABA_S50G
 71
     0
 73
     0
 75
     1
 40
100.0
 41
222.7272727272727
 76
     3
 10
6301.930794917275
 20
1208.913950619795
 30
0.0
 10
6080.118496279516
 20
765.0751044619156
 30
0.0
 10
5955.118496279516
 20
765.0751044619156
 30
0.0
1001
ACAD
1000
DSTYLE
1002
{
1070
    40
1040
1.0
1070
   272
1070
     1
1070
   279
1070
     1
1070
   341
1005
0
1002
}
  0
LEADER
  5
2A1C3
330
747D
100
AcDbEntity
  8
寸法
 48
50.0
100
AcDbLeader
  3
INABA_S50G
 71
     0
 73
     0
 75
     1
 40
100.0
 41
225.0
 76
     3
 10
6173.833747269418
 20
1208.913950619795
 30
0.0
 10
6051.995768722082
 20
945.391257001359
 30
0.0
 10
5926.995768722082
 20
945.391257001359
 30
0.0
1001
ACAD
1000
DSTYLE
1002
{
1070
    40
1040
1.0
1070
   272
1070
     1
1070
   279
1070
     1
1070
   341
1005
0
1002
}
  0
DIMENSION
  5
2A1C4
330
747D
100
AcDbEntity
  8
寸法
 48
50.0
100
AcDbDimension
  2
*D54
 10
5935.510481184816
 20
1088.913950619795
 30
0.0
 11
5935.510481184816
 21
1208.913950619796
 31
0.0
 70
   160
  1
150
 71
     5
 42
240.0
  3
INABA_S40G
100
AcDbAlignedDimension
 13
6077.930794917275
 23
1328.913950619795
 33
0.0
 14
5997.930794917279
 24
1088.913950619795
 34
0.0
 50
90.0
100
AcDbRotatedDimension
1001
ACAD
1000
DSTYLE
1002
{
1070
   341
1005
0
1002
}
  0
TEXT
  5
2A1C5
330
747D
100
AcDbEntity
  8
部品1
 48
50.0
100
AcDbText
 10
5791.790893084319
 20
1644.15294290305
 30
0.0
 40
80.0
  1
▽G.L
  7
STYLE2
100
AcDbText
  0
LWPOLYLINE
  5
2A1C6
330
747D
100
AcDbEntity
  8
部品1
 48
50.0
100
AcDbPolyline
 90
        2
 70
     0
 43
8.0
 10
5791.790893084319
 20
1632.913950619796
 10
6205.930794917275
 20
1632.913950619796
  0
MTEXT
  5
2A1C7
102
{ACAD_REACTORS
330
2A1C8
102
}
330
747D
100
AcDbEntity
  8
寸法
 62
     7
 48
50.0
100
AcDbMText
 10
7812.303029541173
 20
2755.399615425461
 30
0.0
 40
80.0
 41
0.8
 71
     6
 72
     1
  1
\A1;φ70スリーブ
  7
STYLE2
 73
     1
 44
1.0
1001
ACAD
1000
MTEXTBEGIN
1070
    73
1070
     1
1070
    44
1040
1.0
1070
    74
1070
     0
1000
MTEXTEND
  0
LEADER
  5
2A1C8
330
747D
100
AcDbEntity
  8
寸法
 48
50.0
100
AcDbLeader
  3
INABA_S50G
 73
     0
 75
     1
 40
113.1818181818182
 41
608.6363636363635
 76
     3
 10
8096.106858232522
 20
1822.429623978074
 30
0.0
 10
7962.303029541172
 20
2673.808706334552
 30
0.0
 10
7837.303029541172
 20
2673.808706334552
 30
0.0
340
2A1C7
1001
ACAD
1000
DSTYLE
1002
{
1070
   341
1005
0
1070
    40
1040
1.0
1070
   343
1005
0
1070
   344
1005
0
1002
}
  0
LINE
  5
2A1C9
330
747D
100
AcDbEntity
  8
部品1
100
AcDbLine
 10
5135.262356108013
 20
3272.252617820381
 30
0.0
 11
5135.262356108015
 21
307.9456482357337
 31
0.0
  0
LEADER
  5
2A1CA
330
747D
100
AcDbEntity
  8
寸法
 48
50.0
100
AcDbLeader
  3
INABA_S50G
 73
     0
 74
     0
 75
     1
 40
80.0
 41
435.0
 76
     3
 10
8136.370108094471
 20
1922.073950619796
 30
0.0
 10
8178.914570513789
 20
2072.297276773025
 30
0.0
 10
8303.914570513789
 20
2072.297276773025
 30
0.0
340
2A1CB
1001
ACAD
1000
DSTYLE
1002
{
1070
   341
1005
0
1070
    40
1040
1.0
1070
   343
1005
0
1070
   344
1005
0
1002
}
  0
MTEXT
  5
2A1CB
102
{ACAD_REACTORS
330
2A1CA
102
}
330
747D
100
AcDbEntity
  8
部品1
 62
     7
 48
50.0
100
AcDbMText
 10
8328.91457051379
 20
2137.297276773026
 30
0.0
 40
80.0
 41
0.8
 71
     4
 72
     1
  1
M10X160
  7
STYLE2
 73
     1
 44
1.0
1001
ACAD
1000
MTEXTBEGIN
1070
    73
1070
     1
1070
    44
1040
1.0
1070
    74
1070
     0
1000
MTEXTEND
  0
DIMENSION
  5
2A1CC
330
747D
100
AcDbEntity
  8
寸法
 48
50.0
100
AcDbDimension
  2
*D55
 10
9097.893373982341
 20
1872.913950619795
 30
0.0
 11
9097.893373982341
 21
1406.905047198313
 31
0.0
 70
   160
  1
20～25
 71
     5
 42
52.76000000000113
  3
INABA_S40G
100
AcDbAlignedDimension
 13
8132.77010809447
 23
1925.673950619796
 33
0.0
 14
8319.970108094469
 24
1872.913950619795
 34
0.0
 50
90.0
100
AcDbRotatedDimension
1001
ACAD
1000
DSTYLE
1002
{
1070
   341
1005
0
1002
}
  0
DIMENSION
  5
2A1CD
330
747D
100
AcDbEntity
  8
寸法
 48
50.0
100
AcDbDimension
  2
*D56
 10
8821.838707863312
 20
1548.913950619794
 30
0.0
 11
8721.838707863312
 21
1710.913950619796
 31
0.0
 70
    32
  1
180
 71
     5
 42
324.0000000000009
  3
INABA_S40G
100
AcDbAlignedDimension
 13
8319.970108094469
 23
1872.913950619795
 33
0.0
 14
8319.970108094469
 24
1548.913950619794
 34
0.0
 50
90.0
100
AcDbRotatedDimension
1001
ACAD
1000
DSTYLE
1002
{
1070
   341
1005
0
1002
}
  0
TEXT
  5
2A1CE
330
747D
100
AcDbEntity
  8
部品1
 48
50.0
100
AcDbText
 10
8324.323692378897
 20
2228.792631381995
 30
0.0
 40
80.0
  1
基礎ボルト(市販品)
  7
STYLE2
100
AcDbText
  0
LWPOLYLINE
  5
2A1CF
330
747D
100
AcDbEntity
  8
部品1
 48
50.0
100
AcDbPolyline
 90
        2
 70
     0
 43
8.0
 10
8319.970108094469
 20
1632.913950619796
 10
8613.672571493854
 20
1632.913950619796
  0
MTEXT
  5
2A1D0
102
{ACAD_REACTORS
330
2A1D1
102
}
330
747D
100
AcDbEntity
  8
部品1
 62
     7
 48
50.0
100
AcDbMText
 10
8359.241698463309
 20
2573.409323707056
 30
0.0
 40
80.0
 41
0.8
 71
     4
 72
     1
  1
\A1;ワッシャー(市販品)
  7
STYLE2
 73
     1
 44
1.0
1001
ACAD
1000
MTEXTBEGIN
1070
    73
1070
     1
1070
    44
1040
1.0
1070
    74
1070
     0
1000
MTEXTEND
  0
LEADER
  5
2A1D1
330
747D
100
AcDbEntity
  8
寸法
 48
50.0
100
AcDbLeader
  3
INABA_S50G
 73
     0
 74
     0
 75
     1
 40
102.2727272727273
 41
906.8181818181818
 76
     3
 10
8167.370108094472
 20
2142.037239064075
 30
0.0
 10
8209.241698463308
 20
2497.272960070692
 30
0.0
 10
8334.241698463308
 20
2497.272960070692
 30
0.0
340
2A1D0
1001
ACAD
1000
DSTYLE
1002
{
1070
   341
1005
0
1070
    40
1040
1.0
1070
   343
1005
0
1070
   344
1005
0
1002
}
  0
MTEXT
  5
2A1D2
102
{ACAD_REACTORS
330
2A1D3
102
}
330
747D
100
AcDbEntity
  8
部品1
 62
     7
 48
50.0
100
AcDbMText
 10
8327.724079207825
 20
2758.378406471843
 30
0.0
 40
80.0
 41
0.8
 71
     4
 72
     1
  1
\A1;ナット(市販品)
  7
STYLE2
 73
     1
 44
1.0
1001
ACAD
1000
MTEXTBEGIN
1070
    73
1070
     1
1070
    44
1040
1.0
1070
    74
1070
     0
1000
MTEXTEND
  0
LEADER
  5
2A1D3
330
747D
100
AcDbEntity
  8
寸法
 48
50.0
100
AcDbLeader
  3
INABA_S50G
 73
     0
 74
     0
 75
     1
 40
102.2727272727273
 41
680.0000000000001
 76
     3
 10
8143.370108094471
 20
2271.789231728938
 30
0.0
 10
8177.724079207825
 20
2682.242042835479
 30
0.0
 10
8302.724079207825
 20
2682.242042835479
 30
0.0
340
2A1D2
1001
ACAD
1000
DSTYLE
1002
{
1070
   341
1005
0
1070
    40
1040
1.0
1070
   343
1005
0
1070
   344
1005
0
1002
}
  0
LINE
  5
2A1D4
330
747D
100
AcDbEntity
  8
部品1
100
AcDbLine
 10
5135.262356108016
 20
307.9456482357337
 30
0.0
 11
11206.24754149426
 21
307.9456482357337
 31
0.0
  0
LINE
  5
2A1D5
330
747D
100
AcDbEntity
  8
部品1
100
AcDbLine
 10
11206.24754149426
 20
3032.252617820379
 30
0.0
 11
5135.262356108015
 21
3032.252617820379
 31
0.0
  0
LINE
  5
2A1D6
330
747D
100
AcDbEntity
  8
部品1
100
AcDbLine
 10
11206.24754149426
 20
3272.252617820381
 30
0.0
 11
5135.262356108011
 21
3272.252617820381
 31
0.0
  0
SPLINE
  5
2A268
330
747D
100
AcDbEntity
  8
細線
 48
50.0
100
AcDbSpline
210
0.0
220
0.0
230
1.0
 70
     8
 71
     3
 72
    10
 73
     6
 74
     4
 42
0.0000000001
 43
0.0000000001
 44
0.0000000001
 40
0.0
 40
0.0
 40
0.0
 40
0.0
 40
192.2397835813012
 40
392.3518421163208
 40
606.4563990014053
 40
606.4563990014053
 40
606.4563990014053
 40
606.4563990014053
 10
9023.479324976484
 20
6945.145249524533
 30
0.0
 10
8923.533137733199
 20
6933.569485769344
 30
0.0
 10
8719.547937860035
 20
6909.943927372212
 30
0.0
 10
9139.205370787678
 20
6776.667167341066
 30
0.0
 10
8918.409965217493
 20
6752.441552015205
 30
0.0
 10
8804.28295844853
 20
6739.919566074703
 30
0.0
 11
9023.479324976484
 21
6945.145249524533
 31
0.0
 11
8837.789953175084
 21
6895.389932307306
 31
0.0
 11
9011.09207947001
 21
6795.333903039797
 31
0.0
 11
8804.28295844853
 21
6739.919566074703
 31
0.0
  0
LINE
  5
2A269
330
747D
100
AcDbEntity
  8
細線
 48
50.0
100
AcDbLine
 10
9093.213914976194
 20
7999.220810850063
 30
0.0
 11
8763.93099649111
 21
5677.433697986844
 31
0.0
  0
ENDSEC
  0
SECTION
  2
OBJECTS
  0
DICTIONARY
  5
7471
330
0
100
AcDbDictionary
281
     1
  3
ACAD_COLOR
350
173D2
  3
ACAD_GROUP
350
7472
  3
ACAD_LAYOUT
350
173D3
  3
ACAD_MATERIAL
350
173D1
  3
ACAD_MLINESTYLE
350
7473
  3
ACAD_PLOTSETTINGS
350
173D4
  3
ACAD_PLOTSTYLENAME
350
173CF
  3
ACDBHEADERROUNDTRIPXREC
350
2A275
  3
AcDbVariableDictionary
350
29D90
  3
CONTENTDICTIONARY
350
E71C
  3
DRAWINGVARIABLESDICT
350
F3B9
  0
DICTIONARY
  5
1758F
330
7467
100
AcDbDictionary
280
     1
281
     1
  3
ACAD_LAYERSTATES
360
17590
  0
DICTIONARY
  5
173D2
102
{ACAD_REACTORS
330
7471
102
}
330
7471
100
AcDbDictionary
281
     1
  0
DICTIONARY
  5
7472
102
{ACAD_REACTORS
330
7471
102
}
330
7471
100
AcDbDictionary
281
     1
  3
*A1
350
1D2A9
  0
DICTIONARY
  5
173D3
102
{ACAD_REACTORS
330
7471
102
}
330
7471
100
AcDbDictionary
281
     1
  3
Model
350
173D5
  3
レイアウト1
350
173D6
  0
DICTIONARY
  5
173D1
102
{ACAD_REACTORS
330
7471
102
}
330
7471
100
AcDbDictionary
281
     1
  0
DICTIONARY
  5
7473
102
{ACAD_REACTORS
330
7471
102
}
330
7471
100
AcDbDictionary
281
     1
  3
STANDARD
350
7480
  0
DICTIONARY
  5
173D4
102
{ACAD_REACTORS
330
7471
102
}
330
7471
100
AcDbDictionary
281
     1
  0
ACDBDICTIONARYWDFLT
  5
173CF
102
{ACAD_REACTORS
330
7471
102
}
330
7471
100
AcDbDictionary
281
     1
  3
Normal
350
173D0
100
AcDbDictionaryWithDefault
340
173D0
  0
DICTIONARY
  5
2A275
102
{ACAD_REACTORS
330
7471
102
}
330
7471
100
AcDbDictionary
281
     1
  3
COLORDICT
350
2A277
  3
MATERIALDICT
350
2A276
  0
DICTIONARY
  5
29D90
102
{ACAD_REACTORS
330
7471
102
}
330
7471
100
AcDbDictionary
281
     1
  3
DIMASSOC
350
29D91
  3
PROJECTNAME
350
29D92
  0
DICTIONARY
  5
E71C
102
{ACAD_REACTORS
330
7471
102
}
330
7471
100
AcDbDictionary
281
     1
  0
DICTIONARY
  5
F3B9
102
{ACAD_REACTORS
330
7471
102
}
330
7471
100
AcDbDictionary
281
     1
1001
DRAWINGVARIABLESXDATA
1000
POLARMODE
1000
1
  0
DICTIONARY
  5
17590
102
{ACAD_REACTORS
330
1758F
102
}
330
1758F
100
AcDbDictionary
281
     1
  0
GROUP
  5
1D2A9
102
{ACAD_REACTORS
330
7472
102
}
330
7472
100
AcDbGroup
300

 70
     1
 71
     1
  0
LAYOUT
  5
173D5
102
{ACAD_XDICTIONARY
360
2A278
102
}
102
{ACAD_REACTORS
330
173D3
102
}
330
173D3
100
AcDbPlotSettings
  1

  2
Microsoft Office Document Image Writer
  4

  6

 40
0.0
 41
0.0
 42
0.0
 43
0.0
 44
0.0
 45
0.0
 46
0.0
 47
0.0
 48
0.0
 49
0.0
140
0.0
141
0.0
142
1.0
143
1.0
 70
  1712
 72
     0
 73
     0
 74
     0
  7

 75
     0
147
1.0
148
0.0
149
0.0
100
AcDbLayout
  1
Model
 70
     1
 71
     0
 10
0.0
 20
0.0
 11
12.0
 21
9.0
 12
0.0
 22
0.0
 32
0.0
 14
0.0
 24
0.0
 34
0.0
 15
0.0
 25
0.0
 35
0.0
146
0.0
 13
0.0
 23
0.0
 33
0.0
 16
1.0
 26
0.0
 36
0.0
 17
0.0
 27
1.0
 37
0.0
 76
     0
330
747D
  0
LAYOUT
  5
173D6
102
{ACAD_XDICTIONARY
360
2A27A
102
}
102
{ACAD_REACTORS
330
173D3
102
}
330
173D3
100
AcDbPlotSettings
  1

  2
Microsoft Office Document Image Writer
  4

  6

 40
0.0
 41
0.0
 42
0.0
 43
0.0
 44
0.0
 45
0.0
 46
0.0
 47
0.0
 48
0.0
 49
0.0
140
0.0
141
0.0
142
1.0
143
1.0
 70
   688
 72
     0
 73
     0
 74
     5
  7

 75
    16
147
1.0
148
0.0
149
0.0
100
AcDbLayout
  1
レイアウト1
 70
     0
 71
     1
 10
0.0
 20
0.0
 11
420.0
 21
297.0
 12
0.0
 22
0.0
 32
0.0
 14
1.000000000000000E+20
 24
1.000000000000000E+20
 34
1.000000000000000E+20
 15
-1.000000000000000E+20
 25
-1.000000000000000E+20
 35
-1.000000000000000E+20
146
0.0
 13
0.0
 23
0.0
 33
0.0
 16
1.0
 26
0.0
 36
0.0
 17
0.0
 27
1.0
 37
0.0
 76
     0
330
747A
  0
MLINESTYLE
  5
7480
102
{ACAD_REACTORS
330
7473
102
}
330
7473
100
AcDbMlineStyle
  2
STANDARD
 70
     0
  3

 62
     0
 51
90.0
 52
90.0
 71
     2
 49
0.5
 62
   256
  6
BYLAYER
 49
-0.5
 62
   256
  6
BYLAYER
  0
ACDBPLACEHOLDER
  5
173D0
102
{ACAD_REACTORS
330
173CF
102
}
330
173CF
  0
XRECORD
  5
2A277
102
{ACAD_REACTORS
330
2A275
102
}
330
2A275
100
AcDbXrecord
280
     1
340
173D2
  0
XRECORD
  5
2A276
102
{ACAD_REACTORS
330
2A275
102
}
330
2A275
100
AcDbXrecord
280
     1
340
173D1
  0
DICTIONARYVAR
  5
29D91
102
{ACAD_REACTORS
330
29D90
102
}
330
29D90
100
DictionaryVariables
280
     0
  1
1
  0
DICTIONARYVAR
  5
29D92
102
{ACAD_REACTORS
330
29D90
102
}
330
29D90
100
DictionaryVariables
280
     0
  1

  0
DICTIONARY
  5
2A278
330
173D5
100
AcDbDictionary
280
     1
281
     1
  3
ACAD_XREC_ROUNDTRIP
360
2A279
  0
DICTIONARY
  5
2A27A
330
173D6
100
AcDbDictionary
280
     1
281
     1
  3
ACAD_XREC_ROUNDTRIP
360
2A27B
  0
XRECORD
  5
2A279
102
{ACAD_REACTORS
330
2A278
102
}
330
2A278
100
AcDbXrecord
280
     1
102
SHADEPLOT
 70
     0
102
SHADEPLOTRESLEVEL
 70
     2
102
SHADEPLOTCUSTOMDPI
 70
   300
  0
XRECORD
  5
2A27B
102
{ACAD_REACTORS
330
2A27A
102
}
330
2A27A
100
AcDbXrecord
280
     1
102
SHADEPLOT
 70
     0
102
SHADEPLOTRESLEVEL
 70
     2
102
SHADEPLOTCUSTOMDPI
 70
   300
  0
ENDSEC
  0
EOF
