  0
SECTION
  2
HEADER
  9
$ACADVER
  1
AC1015
  9
$ACADMAINTVER
 70
    20
  9
$DWGCODEPAGE
  3
ANSI_932
  9
$INSBASE
 10
0.0
 20
0.0
 30
0.0
  9
$EXTMIN
 10
139.9999999999995
 20
-0.0000000000000909
 30
0.0
  9
$EXTMAX
 10
16307.2
 20
11409.6
 30
0.0
  9
$LIMMIN
 10
0.0
 20
0.0
  9
$LIMMAX
 10
16800.0
 20
11880.0
  9
$ORTHOMODE
 70
     0
  9
$REGENMODE
 70
     1
  9
$FILLMODE
 70
     1
  9
$QTEXTMODE
 70
     0
  9
$MIRRTEXT
 70
     1
  9
$LTSCALE
 40
20.0
  9
$ATTMODE
 70
     1
  9
$TEXTSIZE
 40
4.0
  9
$TRACEWID
 40
1.0
  9
$TEXTSTYLE
  7
STYLE1
  9
$CLAYER
  8
寸法
  9
$CELTYPE
  6
BYLAYER
  9
$CECOLOR
 62
   256
  9
$CELTSCALE
 40
50.0
  9
$DISPSILH
 70
     0
  9
$DIMSCALE
 40
40.0
  9
$DIMASZ
 40
2.5
  9
$DIMEXO
 40
0.5
  9
$DIMDLI
 40
7.0
  9
$DIMRND
 40
0.0
  9
$DIMDLE
 40
0.0
  9
$DIMEXE
 40
1.5
  9
$DIMTP
 40
0.0
  9
$DIMTM
 40
0.0
  9
$DIMTXT
 40
3.0
  9
$DIMCEN
 40
0.0
  9
$DIMTSZ
 40
0.0
  9
$DIMTOL
 70
     0
  9
$DIMLIM
 70
     0
  9
$DIMTIH
 70
     0
  9
$DIMTOH
 70
     0
  9
$DIMSE1
 70
     0
  9
$DIMSE2
 70
     0
  9
$DIMTAD
 70
     3
  9
$DIMZIN
 70
     8
  9
$DIMBLK
  1

  9
$DIMASO
 70
     1
  9
$DIMSHO
 70
     1
  9
$DIMPOST
  1

  9
$DIMAPOST
  1

  9
$DIMALT
 70
     0
  9
$DIMALTD
 70
     2
  9
$DIMALTF
 40
0.0394
  9
$DIMLFAC
 40
1.0
  9
$DIMTOFL
 70
     1
  9
$DIMTVP
 40
0.0
  9
$DIMTIX
 70
     1
  9
$DIMSOXD
 70
     0
  9
$DIMSAH
 70
     1
  9
$DIMBLK1
  1
DOTSMALL
  9
$DIMBLK2
  1
DOTSMALL
  9
$DIMSTYLE
  2
INABA_S40G
  9
$DIMCLRD
 70
     0
  9
$DIMCLRE
 70
     0
  9
$DIMCLRT
 70
     7
  9
$DIMTFAC
 40
1.0
  9
$DIMGAP
 40
1.0
  9
$DIMJUST
 70
     0
  9
$DIMSD1
 70
     0
  9
$DIMSD2
 70
     0
  9
$DIMTOLJ
 70
     1
  9
$DIMTZIN
 70
     0
  9
$DIMALTZ
 70
     0
  9
$DIMALTTZ
 70
     0
  9
$DIMUPT
 70
     0
  9
$DIMDEC
 70
     1
  9
$DIMTDEC
 70
     4
  9
$DIMALTU
 70
     2
  9
$DIMALTTD
 70
     2
  9
$DIMTXSTY
  7
STYLE1
  9
$DIMAUNIT
 70
     0
  9
$DIMADEC
 70
     0
  9
$DIMALTRND
 40
0.0
  9
$DIMAZIN
 70
     0
  9
$DIMDSEP
 70
    46
  9
$DIMATFIT
 70
     3
  9
$DIMFRAC
 70
     0
  9
$DIMLDRBLK
  1

  9
$DIMLUNIT
 70
     2
  9
$DIMLWD
 70
    -2
  9
$DIMLWE
 70
    -2
  9
$DIMTMOVE
 70
     0
  9
$LUNITS
 70
     2
  9
$LUPREC
 70
     1
  9
$SKETCHINC
 40
1.0
  9
$FILLETRAD
 40
3.0
  9
$AUNITS
 70
     0
  9
$AUPREC
 70
     0
  9
$MENU
  1
acad
  9
$ELEVATION
 40
0.0
  9
$PELEVATION
 40
0.0
  9
$THICKNESS
 40
0.0
  9
$LIMCHECK
 70
     0
  9
$CHAMFERA
 40
0.0
  9
$CHAMFERB
 40
0.0
  9
$CHAMFERC
 40
0.0
  9
$CHAMFERD
 40
0.0
  9
$SKPOLY
 70
     0
  9
$TDCREATE
 40
2451368.612993866
  9
$TDUCREATE
 40
2451368.237993866
  9
$TDUPDATE
 40
2455826.601765950
  9
$TDUUPDATE
 40
2455826.226765950
  9
$TDINDWG
 40
0.7807230093
  9
$TDUSRTIMER
 40
0.7807230093
  9
$USRTIMER
 70
     1
  9
$ANGBASE
 50
0.0
  9
$ANGDIR
 70
     0
  9
$PDMODE
 70
     3
  9
$PDSIZE
 40
2.0
  9
$PLINEWID
 40
0.0
  9
$SPLFRAME
 70
     0
  9
$SPLINETYPE
 70
     6
  9
$SPLINESEGS
 70
     8
  9
$HANDSEED
  5
2781A
  9
$SURFTAB1
 70
     6
  9
$SURFTAB2
 70
     6
  9
$SURFTYPE
 70
     6
  9
$SURFU
 70
     6
  9
$SURFV
 70
     6
  9
$UCSBASE
  2

  9
$UCSNAME
  2

  9
$UCSORG
 10
0.0
 20
0.0
 30
0.0
  9
$UCSXDIR
 10
1.0
 20
0.0
 30
0.0
  9
$UCSYDIR
 10
0.0
 20
1.0
 30
0.0
  9
$UCSORTHOREF
  2

  9
$UCSORTHOVIEW
 70
     0
  9
$UCSORGTOP
 10
0.0
 20
0.0
 30
0.0
  9
$UCSORGBOTTOM
 10
0.0
 20
0.0
 30
0.0
  9
$UCSORGLEFT
 10
0.0
 20
0.0
 30
0.0
  9
$UCSORGRIGHT
 10
0.0
 20
0.0
 30
0.0
  9
$UCSORGFRONT
 10
0.0
 20
0.0
 30
0.0
  9
$UCSORGBACK
 10
0.0
 20
0.0
 30
0.0
  9
$PUCSBASE
  2

  9
$PUCSNAME
  2

  9
$PUCSORG
 10
0.0
 20
0.0
 30
0.0
  9
$PUCSXDIR
 10
1.0
 20
0.0
 30
0.0
  9
$PUCSYDIR
 10
0.0
 20
1.0
 30
0.0
  9
$PUCSORTHOREF
  2

  9
$PUCSORTHOVIEW
 70
     0
  9
$PUCSORGTOP
 10
0.0
 20
0.0
 30
0.0
  9
$PUCSORGBOTTOM
 10
0.0
 20
0.0
 30
0.0
  9
$PUCSORGLEFT
 10
0.0
 20
0.0
 30
0.0
  9
$PUCSORGRIGHT
 10
0.0
 20
0.0
 30
0.0
  9
$PUCSORGFRONT
 10
0.0
 20
0.0
 30
0.0
  9
$PUCSORGBACK
 10
0.0
 20
0.0
 30
0.0
  9
$USERI1
 70
     0
  9
$USERI2
 70
     0
  9
$USERI3
 70
     0
  9
$USERI4
 70
     0
  9
$USERI5
 70
     0
  9
$USERR1
 40
0.0
  9
$USERR2
 40
0.0
  9
$USERR3
 40
0.0
  9
$USERR4
 40
0.0
  9
$USERR5
 40
0.0
  9
$WORLDVIEW
 70
     1
  9
$SHADEDGE
 70
     3
  9
$SHADEDIF
 70
    70
  9
$TILEMODE
 70
     1
  9
$MAXACTVP
 70
    16
  9
$PINSBASE
 10
0.0
 20
0.0
 30
0.0
  9
$PLIMCHECK
 70
     0
  9
$PEXTMIN
 10
1.000000000000000E+20
 20
1.000000000000000E+20
 30
1.000000000000000E+20
  9
$PEXTMAX
 10
-1.000000000000000E+20
 20
-1.000000000000000E+20
 30
-1.000000000000000E+20
  9
$PLIMMIN
 10
0.0
 20
0.0
  9
$PLIMMAX
 10
420.0
 20
297.0
  9
$UNITMODE
 70
     0
  9
$VISRETAIN
 70
     0
  9
$PLINEGEN
 70
     0
  9
$PSLTSCALE
 70
     0
  9
$TREEDEPTH
 70
  3020
  9
$CMLSTYLE
  2
STANDARD
  9
$CMLJUST
 70
     0
  9
$CMLSCALE
 40
1.0
  9
$PROXYGRAPHICS
 70
     1
  9
$MEASUREMENT
 70
     1
  9
$CELWEIGHT
370
    -1
  9
$ENDCAPS
280
     0
  9
$JOINSTYLE
280
     0
  9
$LWDISPLAY
290
     0
  9
$INSUNITS
 70
     0
  9
$HYPERLINKBASE
  1

  9
$STYLESHEET
  1
ACA3.ctb
  9
$XEDIT
290
     1
  9
$CEPSNTYPE
380
     0
  9
$PSTYLEMODE
290
     1
  9
$FINGERPRINTGUID
  2
{5EAC461A-2277-4BF8-9AB0-99C43BB394F0}
  9
$VERSIONGUID
  2
{C154DAF7-3028-4511-BFB5-E69FB64699C1}
  9
$EXTNAMES
290
     1
  9
$PSVPSCALE
 40
0.0
  9
$OLESTARTUP
290
     0
  0
ENDSEC
  0
SECTION
  2
CLASSES
  0
CLASS
  1
ACDBDICTIONARYWDFLT
  2
AcDbDictionaryWithDefault
  3
ObjectDBX Classes
 90
        0
280
     0
281
     0
  0
CLASS
  1
DICTIONARYVAR
  2
AcDbDictionaryVar
  3
ObjectDBX Classes
 90
        0
280
     0
281
     0
  0
CLASS
  1
ACDBPLACEHOLDER
  2
AcDbPlaceHolder
  3
ObjectDBX Classes
 90
        0
280
     0
281
     0
  0
CLASS
  1
LAYOUT
  2
AcDbLayout
  3
ObjectDBX Classes
 90
        0
280
     0
281
     0
  0
ENDSEC
  0
SECTION
  2
TABLES
  0
TABLE
  2
VPORT
  5
746D
330
0
100
AcDbSymbolTable
 70
     2
  0
VPORT
  5
27812
330
746D
100
AcDbSymbolTableRecord
100
AcDbViewportTableRecord
  2
*Active
 70
     0
 10
0.0
 20
0.0
 11
1.0
 21
1.0
 12
8400.0
 22
6549.864803020255
 13
0.0
 23
0.0
 14
10.0
 24
10.0
 15
10.0
 25
10.0
 16
0.0
 26
0.0
 36
1.0
 17
0.0
 27
0.0
 37
0.0
 40
13195.73479055294
 41
1.522222222222221
 42
50.0
 43
0.0
 44
0.0
 50
0.0
 51
0.0
 71
     0
 72
     0
 73
     1
 74
     0
 75
     0
 76
     0
 77
     0
 78
     0
281
     0
 65
     1
110
0.0
120
0.0
130
0.0
111
1.0
121
0.0
131
0.0
112
0.0
122
1.0
132
0.0
 79
     0
146
0.0
  0
ENDTAB
  0
TABLE
  2
LTYPE
  5
746A
330
0
100
AcDbSymbolTable
 70
     5
  0
LTYPE
  5
7477
330
746A
100
AcDbSymbolTableRecord
100
AcDbLinetypeTableRecord
  2
BYBLOCK
 70
     0
  3

 72
    65
 73
     0
 40
0.0
  0
LTYPE
  5
7478
330
746A
100
AcDbSymbolTableRecord
100
AcDbLinetypeTableRecord
  2
BYLAYER
 70
     0
  3

 72
    65
 73
     0
 40
0.0
  0
LTYPE
  5
7479
330
746A
100
AcDbSymbolTableRecord
100
AcDbLinetypeTableRecord
  2
CONTINUOUS
 70
     0
  3
Solid line
 72
    65
 73
     0
 40
0.0
  0
LTYPE
  5
7816
330
746A
100
AcDbSymbolTableRecord
100
AcDbLinetypeTableRecord
  2
CENTER
 70
     0
  3
____ _ ____ _ ____ _ ____ _ ____ _ ____ _ ____ 
 72
    65
 73
     4
 40
2.0
 49
1.25
 74
     0
 49
-0.25
 74
     0
 49
0.25
 74
     0
 49
-0.25
 74
     0
  0
LTYPE
  5
781A
330
746A
100
AcDbSymbolTableRecord
100
AcDbLinetypeTableRecord
  2
HIDDEN
 70
     0
  3
__ __ __ __ __ __ __ __ __ __ __ __ __ __ __ __
 72
    65
 73
     2
 40
0.375
 49
0.25
 74
     0
 49
-0.125
 74
     0
  0
LTYPE
  5
781B
330
746A
100
AcDbSymbolTableRecord
100
AcDbLinetypeTableRecord
  2
PHANTOM
 70
     0
  3
______  __  __  ______  __  __  ______  __  __ 
 72
    65
 73
     6
 40
2.5
 49
1.25
 74
     0
 49
-0.25
 74
     0
 49
0.25
 74
     0
 49
-0.25
 74
     0
 49
0.25
 74
     0
 49
-0.25
 74
     0
  0
LTYPE
  5
12CC3
330
746A
100
AcDbSymbolTableRecord
100
AcDbLinetypeTableRecord
  2
HIDDENX2
 70
     0
  3
Hidden (2x) ____ ____ ____ ____ ____ ____ ____
 72
    65
 73
     2
 40
19.05
 49
12.7
 74
     0
 49
-6.349999999999999
 74
     0
  0
ENDTAB
  0
TABLE
  2
LAYER
  5
7467
102
{ACAD_XDICTIONARY
360
1758F
102
}
330
0
100
AcDbSymbolTable
 70
    12
  0
LAYER
  5
7474
330
7467
100
AcDbSymbolTableRecord
100
AcDbLayerTableRecord
  2
0
 70
     0
 62
     7
  6
CONTINUOUS
370
    -3
390
173D0
  0
LAYER
  5
DEB2
330
7467
100
AcDbSymbolTableRecord
100
AcDbLayerTableRecord
  2
センター
 70
     0
 62
     3
  6
CENTER
370
    -3
390
173D0
  0
LAYER
  5
DEB3
330
7467
100
AcDbSymbolTableRecord
100
AcDbLayerTableRecord
  2
寸法
 70
     0
 62
     4
  6
CONTINUOUS
370
    -3
390
173D0
  0
LAYER
  5
DEB4
330
7467
100
AcDbSymbolTableRecord
100
AcDbLayerTableRecord
  2
部品1
 70
     0
 62
     7
  6
CONTINUOUS
370
    -3
390
173D0
  0
LAYER
  5
DEB5
330
7467
100
AcDbSymbolTableRecord
100
AcDbLayerTableRecord
  2
補助
 70
     0
 62
    -1
  6
CONTINUOUS
370
    -3
390
173D0
  0
LAYER
  5
DEB6
330
7467
100
AcDbSymbolTableRecord
100
AcDbLayerTableRecord
  2
文字
 70
     0
 62
     7
  6
CONTINUOUS
370
    -3
390
173D0
  0
LAYER
  5
F255
330
7467
100
AcDbSymbolTableRecord
100
AcDbLayerTableRecord
  2
DEFPOINTS
 70
     0
 62
     7
  6
CONTINUOUS
290
     0
370
    -3
390
173D0
  0
LAYER
  5
10B54
330
7467
100
AcDbSymbolTableRecord
100
AcDbLayerTableRecord
  2
仕様書枠
 70
     0
 62
   230
  6
CONTINUOUS
370
    -3
390
173D0
  0
LAYER
  5
11729
330
7467
100
AcDbSymbolTableRecord
100
AcDbLayerTableRecord
  2
Ｇ．Ｌ
 70
     0
 62
    30
  6
CONTINUOUS
370
    -3
390
173D0
  0
LAYER
  5
1173F
330
7467
100
AcDbSymbolTableRecord
100
AcDbLayerTableRecord
  2
細線
 70
     0
 62
     5
  6
CONTINUOUS
370
    -3
390
173D0
  0
LAYER
  5
12CC4
330
7467
100
AcDbSymbolTableRecord
100
AcDbLayerTableRecord
  2
想像線
 70
     0
 62
     6
  6
PHANTOM
370
    -3
390
173D0
  0
LAYER
  5
142E2
330
7467
100
AcDbSymbolTableRecord
100
AcDbLayerTableRecord
  2
破線
 70
     0
 62
     2
  6
HIDDEN
370
    -3
390
173D0
  0
ENDTAB
  0
TABLE
  2
STYLE
  5
7468
330
0
100
AcDbSymbolTable
 70
     7
  0
STYLE
  5
7475
330
7468
100
AcDbSymbolTableRecord
100
AcDbTextStyleTableRecord
  2
STANDARD
 70
     0
 40
0.0
 41
1.0
 50
0.0
 71
     0
 42
4.0
  3
txt
  4
C:\AutoCAD LT\bigfont.shx
  0
STYLE
  5
763C
330
7468
100
AcDbSymbolTableRecord
100
AcDbTextStyleTableRecord
  2
MSMINCHO
 70
     0
 40
0.0
 41
1.0
 50
0.0
 71
     0
 42
1.199999999999999
  3
C:\AutoCAD LT\msminch2.TTF
  4

  0
STYLE
  5
F706
330
7468
100
AcDbSymbolTableRecord
100
AcDbTextStyleTableRecord
  2
STYLE1
 70
     0
 40
0.0
 41
1.0
 50
0.0
 71
     0
 42
4.0
  3
isocp.shx
  4
bigfont.shx
  0
STYLE
  5
103BF
330
7468
100
AcDbSymbolTableRecord
100
AcDbTextStyleTableRecord
  2
STYLE2
 70
     0
 40
0.0
 41
1.0
 50
0.0
 71
     0
 42
100.0
  3
MS PGothic.ttf
  4

1001
ACAD
1000
MS PGothic
1071
    32818
  0
STYLE
  5
10BAA
330
7468
100
AcDbSymbolTableRecord
100
AcDbTextStyleTableRecord
  2
STYLE3
 70
     0
 40
0.0
 41
1.0
 50
0.0
 71
     0
 42
100.0
  3

  4

1001
ACAD
1000
DFPGothic-EB
1071
    32818
  0
STYLE
  5
11A15
330
7468
100
AcDbSymbolTableRecord
100
AcDbTextStyleTableRecord
  2
MSGOTHIC
 70
     0
 40
0.0
 41
1.0
 50
0.0
 71
     0
 42
3.5
  3
msgothi2.ttf
  4

  0
STYLE
  5
13E96
330
7468
100
AcDbSymbolTableRecord
100
AcDbTextStyleTableRecord
  2
MSPゴシック
 70
     0
 40
0.0
 41
1.0
 50
0.0
 71
     0
 42
4.0
  3
MS PGothic.ttf
  4

1001
ACAD
1000
MS PGothic
1071
    32818
  0
ENDTAB
  0
TABLE
  2
VIEW
  5
746B
330
0
100
AcDbSymbolTable
 70
     0
  0
ENDTAB
  0
TABLE
  2
UCS
  5
746C
330
0
100
AcDbSymbolTable
 70
     0
  0
ENDTAB
  0
TABLE
  2
APPID
  5
746E
330
0
100
AcDbSymbolTable
 70
     6
  0
APPID
  5
7476
330
746E
100
AcDbSymbolTableRecord
100
AcDbRegAppTableRecord
  2
ACAD
 70
     0
  0
APPID
  5
DEA9
330
746E
100
AcDbSymbolTableRecord
100
AcDbRegAppTableRecord
  2
CONTENTBLOCKICON
 70
     0
  0
APPID
  5
DEAA
330
746E
100
AcDbSymbolTableRecord
100
AcDbRegAppTableRecord
  2
CONTENTBLOCKDESCRIPTION
 70
     0
  0
APPID
  5
E71D
330
746E
100
AcDbSymbolTableRecord
100
AcDbRegAppTableRecord
  2
CONTENTTABDATA
 70
     0
  0
APPID
  5
E71E
330
746E
100
AcDbSymbolTableRecord
100
AcDbRegAppTableRecord
  2
CONTENTCURRENTTAB
 70
     0
  0
APPID
  5
F3BA
330
746E
100
AcDbSymbolTableRecord
100
AcDbRegAppTableRecord
  2
DRAWINGVARIABLESXDATA
 70
     0
  0
ENDTAB
  0
TABLE
  2
DIMSTYLE
  5
746F
330
0
100
AcDbSymbolTable
 70
     6
100
AcDbDimStyleTable
 71
     1
340
F71F
  0
DIMSTYLE
105
7484
330
746F
100
AcDbSymbolTableRecord
100
AcDbDimStyleTableRecord
  2
JIS
 70
     0
 41
2.5
 42
1.0
 43
7.0
 44
1.0
 73
     0
 74
     0
 77
     1
 78
     8
140
2.5
141
0.0
143
0.0394
147
0.0
172
     1
174
     1
175
     1
340
7475
  0
DIMSTYLE
105
F236
330
746F
100
AcDbSymbolTableRecord
100
AcDbDimStyleTableRecord
  2
INABA_S40
 70
     0
 40
40.0
 41
2.5
 42
0.5
 43
7.0
 44
1.5
 73
     0
 74
     0
 77
     3
 78
     8
140
3.0
141
0.0
143
0.0394
147
1.0
172
     1
173
     1
174
     1
175
     1
178
     7
289
     0
340
7475
341
DEAC
343
DEAC
344
DEAC
  0
DIMSTYLE
105
F71F
102
{ACAD_REACTORS
330
20DE1
330
229ED
330
229EC
330
269C9
330
26995
330
26932
330
26931
330
26930
330
2692D
330
268F3
330
2686B
330
2686A
330
26869
330
2685D
330
2685C
330
274FA
330
274FB
330
27503
330
2750A
330
2750D
330
2756D
330
276BB
330
268E0
330
268DF
330
268DD
330
26891
330
26880
330
2687E
330
2687B
330
26877
330
26874
330
26873
330
26872
330
2685E
330
2275B
330
22741
330
20DFB
102
}
330
746F
100
AcDbSymbolTableRecord
100
AcDbDimStyleTableRecord
  2
INABA_S40G
 70
     0
 40
40.0
 41
2.5
 42
0.5
 43
7.0
 44
1.5
 73
     0
 74
     0
 77
     3
 78
     8
140
3.0
141
0.0
143
0.0394
147
1.0
172
     1
173
     1
174
     1
178
     7
271
     1
340
F706
341
F770
343
F770
344
F770
  0
DIMSTYLE
105
142E3
330
746F
100
AcDbSymbolTableRecord
100
AcDbDimStyleTableRecord
  2
INABA_S1
 70
     0
 40
0.0
 41
2.5
 42
0.5
 43
7.0
 44
1.5
 73
     0
 74
     0
 77
     3
 78
     8
140
3.0
141
0.0
143
0.0394
146
0.5
147
0.5
172
     1
173
     1
176
   256
177
   256
178
     7
271
     2
272
     2
284
     8
288
     1
340
7475
341
DEAC
343
DEAC
344
DEAC
  0
DIMSTYLE
105
14463
330
746F
100
AcDbSymbolTableRecord
100
AcDbDimStyleTableRecord
  2
INABA_S30G
 70
     0
 40
30.0
 41
2.5
 42
0.5
 43
7.0
 44
1.5
 73
     0
 74
     0
 77
     3
 78
     8
140
3.0
141
0.0
143
0.0394
147
1.0
172
     1
173
     1
174
     1
175
     1
178
     7
271
     1
340
F706
341
F770
343
F770
344
F770
  0
DIMSTYLE
105
1758E
330
746F
100
AcDbSymbolTableRecord
100
AcDbDimStyleTableRecord
  2
INABA_S50G
 70
     0
 41
125.0
 42
25.0
 43
7.0
 44
75.0
 73
     0
 74
     0
 77
     3
 78
     8
140
150.0
141
0.0
143
0.0394
147
25.0
172
     1
173
     1
174
     1
175
     1
178
     7
271
     1
340
F706
341
F770
343
F770
344
F770
  0
ENDTAB
  0
TABLE
  2
BLOCK_RECORD
  5
7466
330
0
100
AcDbSymbolTable
 70
    56
  0
BLOCK_RECORD
  5
747D
330
7466
100
AcDbSymbolTableRecord
100
AcDbBlockTableRecord
  2
*MODEL_SPACE
340
173D5
  0
BLOCK_RECORD
  5
747A
330
7466
100
AcDbSymbolTableRecord
100
AcDbBlockTableRecord
  2
*PAPER_SPACE
340
173D6
  0
BLOCK_RECORD
  5
DEAC
330
7466
100
AcDbSymbolTableRecord
100
AcDbBlockTableRecord
  2
_OPEN
340
0
  0
BLOCK_RECORD
  5
F770
330
7466
100
AcDbSymbolTableRecord
100
AcDbBlockTableRecord
  2
_DOTSMALL
340
0
102
{BLKREFS
331
18C65
331
18C66
331
18C59
331
18C5A
331
18C4D
331
18C4E
331
18C41
331
18C42
331
18C35
331
18C36
331
18C29
331
18C2A
331
18C1D
331
18C1E
331
18C0F
331
18C10
331
18C03
331
18C04
331
18BF5
331
18BF6
331
18BE7
331
18BE8
331
18BD9
331
18BDA
331
18BCD
331
18BCE
331
270C9
331
270CA
331
270D2
331
270D3
331
270FF
331
27100
331
2719B
331
2719C
331
271AF
331
271B0
331
271E5
331
271E6
331
272CA
331
272CB
331
272E6
331
272E7
331
272EF
331
272F0
331
272F8
331
272F9
331
27301
331
27302
331
2732E
331
2732F
331
27337
331
27338
331
27340
331
27341
331
27349
331
2734A
331
27673
331
27674
331
2767E
331
2767F
331
27687
331
27688
331
27690
331
27691
331
27699
331
2769A
331
276A2
331
276A3
331
27709
331
2770A
331
2777C
331
2777D
331
27786
331
27787
331
2778F
331
27790
331
27798
331
27799
331
277A1
331
277A2
331
277AB
331
277AC
331
277B4
331
277B5
331
277BD
331
277BE
331
277C6
331
277C7
331
277CF
331
277D0
331
277D8
331
277D9
331
277E1
331
277E2
331
277EC
331
277ED
331
277F7
331
277F8
331
27802
331
27803
102
}
  0
BLOCK_RECORD
  5
164B4
330
7466
100
AcDbSymbolTableRecord
100
AcDbBlockTableRecord
  2
_DOT
340
0
102
{BLKREFS
331
18C73
331
18C74
102
}
  0
BLOCK_RECORD
  5
18BC8
330
7466
100
AcDbSymbolTableRecord
100
AcDbBlockTableRecord
  2
*D3
340
0
  0
BLOCK_RECORD
  5
18BD4
330
7466
100
AcDbSymbolTableRecord
100
AcDbBlockTableRecord
  2
*D4
340
0
  0
BLOCK_RECORD
  5
18BE0
330
7466
100
AcDbSymbolTableRecord
100
AcDbBlockTableRecord
  2
*D5
340
0
  0
BLOCK_RECORD
  5
18BEE
330
7466
100
AcDbSymbolTableRecord
100
AcDbBlockTableRecord
  2
*D6
340
0
  0
BLOCK_RECORD
  5
18BFC
330
7466
100
AcDbSymbolTableRecord
100
AcDbBlockTableRecord
  2
*D7
340
0
  0
BLOCK_RECORD
  5
18C0A
330
7466
100
AcDbSymbolTableRecord
100
AcDbBlockTableRecord
  2
*D8
340
0
  0
BLOCK_RECORD
  5
18C16
330
7466
100
AcDbSymbolTableRecord
100
AcDbBlockTableRecord
  2
*D9
340
0
  0
BLOCK_RECORD
  5
18C24
330
7466
100
AcDbSymbolTableRecord
100
AcDbBlockTableRecord
  2
*D10
340
0
  0
BLOCK_RECORD
  5
18C30
330
7466
100
AcDbSymbolTableRecord
100
AcDbBlockTableRecord
  2
*D11
340
0
  0
BLOCK_RECORD
  5
18C3C
330
7466
100
AcDbSymbolTableRecord
100
AcDbBlockTableRecord
  2
*D12
340
0
  0
BLOCK_RECORD
  5
18C48
330
7466
100
AcDbSymbolTableRecord
100
AcDbBlockTableRecord
  2
*D13
340
0
  0
BLOCK_RECORD
  5
18C54
330
7466
100
AcDbSymbolTableRecord
100
AcDbBlockTableRecord
  2
*D14
340
0
  0
BLOCK_RECORD
  5
18C60
330
7466
100
AcDbSymbolTableRecord
100
AcDbBlockTableRecord
  2
*D15
340
0
  0
BLOCK_RECORD
  5
18C6C
330
7466
100
AcDbSymbolTableRecord
100
AcDbBlockTableRecord
  2
*D16
340
0
  0
BLOCK_RECORD
  5
18C7A
330
7466
100
AcDbSymbolTableRecord
100
AcDbBlockTableRecord
  2
A$C3B1A506B
340
0
  0
BLOCK_RECORD
  5
1C4CA
330
7466
100
AcDbSymbolTableRecord
100
AcDbBlockTableRecord
  2
_NONE
340
0
  0
BLOCK_RECORD
  5
20DE2
330
7466
100
AcDbSymbolTableRecord
100
AcDbBlockTableRecord
  2
*D19
340
0
  0
BLOCK_RECORD
  5
20DFC
330
7466
100
AcDbSymbolTableRecord
100
AcDbBlockTableRecord
  2
*D20
340
0
  0
BLOCK_RECORD
  5
22742
330
7466
100
AcDbSymbolTableRecord
100
AcDbBlockTableRecord
  2
*D21
340
0
  0
BLOCK_RECORD
  5
2275C
330
7466
100
AcDbSymbolTableRecord
100
AcDbBlockTableRecord
  2
*D22
340
0
  0
BLOCK_RECORD
  5
22B0A
330
7466
100
AcDbSymbolTableRecord
100
AcDbBlockTableRecord
  2
*D23
340
0
  0
BLOCK_RECORD
  5
22B17
330
7466
100
AcDbSymbolTableRecord
100
AcDbBlockTableRecord
  2
*D24
340
0
  0
BLOCK_RECORD
  5
269DC
330
7466
100
AcDbSymbolTableRecord
100
AcDbBlockTableRecord
  2
*D25
340
0
  0
BLOCK_RECORD
  5
269E8
330
7466
100
AcDbSymbolTableRecord
100
AcDbBlockTableRecord
  2
*D26
340
0
  0
BLOCK_RECORD
  5
26A0F
330
7466
100
AcDbSymbolTableRecord
100
AcDbBlockTableRecord
  2
*D27
340
0
  0
BLOCK_RECORD
  5
26A1B
330
7466
100
AcDbSymbolTableRecord
100
AcDbBlockTableRecord
  2
*D28
340
0
  0
BLOCK_RECORD
  5
26A27
330
7466
100
AcDbSymbolTableRecord
100
AcDbBlockTableRecord
  2
*D29
340
0
  0
BLOCK_RECORD
  5
26A33
330
7466
100
AcDbSymbolTableRecord
100
AcDbBlockTableRecord
  2
*D30
340
0
  0
BLOCK_RECORD
  5
26A3F
330
7466
100
AcDbSymbolTableRecord
100
AcDbBlockTableRecord
  2
*D31
340
0
  0
BLOCK_RECORD
  5
26A4A
330
7466
100
AcDbSymbolTableRecord
100
AcDbBlockTableRecord
  2
*D32
340
0
  0
BLOCK_RECORD
  5
26A56
330
7466
100
AcDbSymbolTableRecord
100
AcDbBlockTableRecord
  2
*D33
340
0
  0
BLOCK_RECORD
  5
26A62
330
7466
100
AcDbSymbolTableRecord
100
AcDbBlockTableRecord
  2
*D34
340
0
  0
BLOCK_RECORD
  5
26A6E
330
7466
100
AcDbSymbolTableRecord
100
AcDbBlockTableRecord
  2
*D35
340
0
  0
BLOCK_RECORD
  5
26A7A
330
7466
100
AcDbSymbolTableRecord
100
AcDbBlockTableRecord
  2
*D36
340
0
  0
BLOCK_RECORD
  5
26A86
330
7466
100
AcDbSymbolTableRecord
100
AcDbBlockTableRecord
  2
*D37
340
0
  0
BLOCK_RECORD
  5
26AAA
330
7466
100
AcDbSymbolTableRecord
100
AcDbBlockTableRecord
  2
*D38
340
0
  0
BLOCK_RECORD
  5
26AB7
330
7466
100
AcDbSymbolTableRecord
100
AcDbBlockTableRecord
  2
*D39
340
0
  0
BLOCK_RECORD
  5
26AC3
330
7466
100
AcDbSymbolTableRecord
100
AcDbBlockTableRecord
  2
*D40
340
0
  0
BLOCK_RECORD
  5
26ACF
330
7466
100
AcDbSymbolTableRecord
100
AcDbBlockTableRecord
  2
*D41
340
0
  0
BLOCK_RECORD
  5
26AE4
330
7466
100
AcDbSymbolTableRecord
100
AcDbBlockTableRecord
  2
*D42
340
0
  0
BLOCK_RECORD
  5
26AF1
330
7466
100
AcDbSymbolTableRecord
100
AcDbBlockTableRecord
  2
*D43
340
0
  0
BLOCK_RECORD
  5
26B0B
330
7466
100
AcDbSymbolTableRecord
100
AcDbBlockTableRecord
  2
*D44
340
0
  0
BLOCK_RECORD
  5
26B24
330
7466
100
AcDbSymbolTableRecord
100
AcDbBlockTableRecord
  2
*D45
340
0
  0
BLOCK_RECORD
  5
26B30
330
7466
100
AcDbSymbolTableRecord
100
AcDbBlockTableRecord
  2
*D46
340
0
  0
BLOCK_RECORD
  5
26B3C
330
7466
100
AcDbSymbolTableRecord
100
AcDbBlockTableRecord
  2
*D47
340
0
  0
BLOCK_RECORD
  5
26B48
330
7466
100
AcDbSymbolTableRecord
100
AcDbBlockTableRecord
  2
*D48
340
0
  0
BLOCK_RECORD
  5
27626
330
7466
100
AcDbSymbolTableRecord
100
AcDbBlockTableRecord
  2
*D49
340
0
  0
BLOCK_RECORD
  5
27632
330
7466
100
AcDbSymbolTableRecord
100
AcDbBlockTableRecord
  2
*D50
340
0
  0
BLOCK_RECORD
  5
27640
330
7466
100
AcDbSymbolTableRecord
100
AcDbBlockTableRecord
  2
*D51
340
0
  0
BLOCK_RECORD
  5
2764C
330
7466
100
AcDbSymbolTableRecord
100
AcDbBlockTableRecord
  2
*D52
340
0
  0
BLOCK_RECORD
  5
27658
330
7466
100
AcDbSymbolTableRecord
100
AcDbBlockTableRecord
  2
*D53
340
0
  0
BLOCK_RECORD
  5
27664
330
7466
100
AcDbSymbolTableRecord
100
AcDbBlockTableRecord
  2
*D54
340
0
  0
BLOCK_RECORD
  5
276BC
330
7466
100
AcDbSymbolTableRecord
100
AcDbBlockTableRecord
  2
*D55
340
0
  0
ENDTAB
  0
ENDSEC
  0
SECTION
  2
BLOCKS
  0
BLOCK
  5
7489
330
747D
100
AcDbEntity
  8
0
100
AcDbBlockBegin
  2
*MODEL_SPACE
 70
     0
 10
0.0
 20
0.0
 30
0.0
  3
*MODEL_SPACE
  1

  0
ENDBLK
  5
748A
330
747D
100
AcDbEntity
  8
0
100
AcDbBlockEnd
  0
BLOCK
  5
7487
330
747A
100
AcDbEntity
 67
     1
  8
0
100
AcDbBlockBegin
  2
*PAPER_SPACE
 70
     0
 10
0.0
 20
0.0
 30
0.0
  3
*PAPER_SPACE
  1

  0
ENDBLK
  5
7488
330
747A
100
AcDbEntity
 67
     1
  8
0
100
AcDbBlockEnd
  0
BLOCK
  5
DEAD
330
DEAC
100
AcDbEntity
  8
0
100
AcDbBlockBegin
  2
_OPEN
 70
     0
 10
0.0
 20
0.0
 30
0.0
  3
_OPEN
  1

  0
LINE
  5
DEAE
330
DEAC
100
AcDbEntity
  8
0
  6
ByBlock
 62
     0
100
AcDbLine
 10
-1.0
 20
0.1666666666666666
 30
0.0
 11
0.0
 21
0.0
 31
0.0
  0
LINE
  5
DEAF
330
DEAC
100
AcDbEntity
  8
0
  6
ByBlock
 62
     0
100
AcDbLine
 10
0.0
 20
0.0
 30
0.0
 11
-1.0
 21
-0.1666666666666666
 31
0.0
  0
LINE
  5
DEB0
330
DEAC
100
AcDbEntity
  8
0
  6
ByBlock
 62
     0
100
AcDbLine
 10
0.0
 20
0.0
 30
0.0
 11
-1.0
 21
0.0
 31
0.0
  0
ENDBLK
  5
DEB1
330
DEAC
100
AcDbEntity
  8
0
100
AcDbBlockEnd
  0
BLOCK
  5
F771
330
F770
100
AcDbEntity
  8
0
 48
50.0
100
AcDbBlockBegin
  2
_DOTSMALL
 70
     0
 10
0.0
 20
0.0
 30
0.0
  3
_DOTSMALL
  1

  0
LWPOLYLINE
  5
F772
330
F770
100
AcDbEntity
  8
0
  6
ByBlock
 62
     0
 48
50.0
100
AcDbPolyline
 90
        2
 70
     1
 43
0.5
 10
-0.0625
 20
0.0
 42
1.0
 10
0.0625
 20
0.0
 42
1.0
  0
ENDBLK
  5
F776
330
F770
100
AcDbEntity
  8
0
 48
50.0
100
AcDbBlockEnd
  0
BLOCK
  5
164BA
330
164B4
100
AcDbEntity
  8
0
 48
50.0
100
AcDbBlockBegin
  2
_DOT
 70
     0
 10
0.0
 20
0.0
 30
0.0
  3
_DOT
  1

  0
LWPOLYLINE
  5
164B5
330
164B4
100
AcDbEntity
  8
0
  6
ByBlock
 62
     0
 48
50.0
100
AcDbPolyline
 90
        2
 70
     1
 43
0.5
 10
-0.25
 20
0.0
 42
1.0
 10
0.25
 20
0.0
 42
1.0
  0
LINE
  5
164B9
330
164B4
100
AcDbEntity
  8
0
  6
ByBlock
 62
     0
 48
50.0
100
AcDbLine
 10
-0.5
 20
0.0
 30
0.0
 11
-1.0
 21
0.0
 31
0.0
  0
ENDBLK
  5
164BB
330
164B4
100
AcDbEntity
  8
0
 48
50.0
100
AcDbBlockEnd
  0
BLOCK
  5
18BC9
330
18BC8
100
AcDbEntity
  8
0
 48
50.0
100
AcDbBlockBegin
  2
*D3
 70
     1
 10
0.0
 20
0.0
 30
0.0
  3
*D3
  1

  0
LINE
  5
18BCA
330
18BC8
100
AcDbEntity
  8
寸法
 62
     0
 48
50.0
370
    -2
100
AcDbLine
 10
7649.896575106999
 20
9636.123139034717
 30
0.0
 11
8702.429862581047
 21
9636.123139034717
 31
0.0
  0
LINE
  5
18BCB
330
18BC8
100
AcDbEntity
  8
寸法
 62
     0
 48
50.0
370
    -2
100
AcDbLine
 10
7649.896575106973
 20
7846.123139034709
 30
0.0
 11
8702.429862581047
 21
7846.123139034709
 31
0.0
  0
LINE
  5
18BCC
330
18BC8
100
AcDbEntity
  8
寸法
 62
     0
 48
50.0
370
    -2
100
AcDbLine
 10
8642.429862581046
 20
9636.123139034717
 30
0.0
 11
8642.429862581046
 21
7846.123139034709
 31
0.0
  0
INSERT
  5
18BCD
330
18BC8
100
AcDbEntity
  8
寸法
 62
     0
 48
50.0
370
    -2
100
AcDbBlockReference
  2
_DOTSMALL
 10
8642.429862581046
 20
9636.123139034717
 30
0.0
 41
100.0
 42
100.0
 43
100.0
 50
90.0
  0
INSERT
  5
18BCE
330
18BC8
100
AcDbEntity
  8
寸法
 62
     0
 48
50.0
370
    -2
100
AcDbBlockReference
  2
_DOTSMALL
 10
8642.429862581046
 20
7846.123139034709
 30
0.0
 41
100.0
 42
100.0
 43
100.0
 50
270.0
  0
MTEXT
  5
18BCF
330
18BC8
100
AcDbEntity
  8
寸法
 62
     7
 48
50.0
100
AcDbMText
 10
8542.429862581045
 20
8741.123139034712
 30
0.0
 40
120.0
 41
0.0
 71
     5
 72
     1
  1
\A1;1790
  7
STYLE1
 11
0.0000000000000001
 21
1.0
 31
0.0
 73
     1
 44
1.0
1001
ACAD
1000
MTEXTBEGIN
1070
    73
1070
     1
1070
    44
1040
1.0
1070
    74
1070
     0
1000
MTEXTEND
  0
POINT
  5
18BD0
330
18BC8
100
AcDbEntity
  8
DEFPOINTS
 62
     0
 48
50.0
100
AcDbPoint
 10
7629.896575106998
 20
9636.123139034717
 30
0.0
  0
POINT
  5
18BD1
330
18BC8
100
AcDbEntity
  8
DEFPOINTS
 62
     0
 48
50.0
100
AcDbPoint
 10
7629.896575106974
 20
7846.123139034709
 30
0.0
  0
POINT
  5
18BD2
330
18BC8
100
AcDbEntity
  8
DEFPOINTS
 62
     0
 48
50.0
100
AcDbPoint
 10
8642.429862581046
 20
7846.123139034709
 30
0.0
  0
ENDBLK
  5
18BD3
330
18BC8
100
AcDbEntity
  8
0
 48
50.0
100
AcDbBlockEnd
  0
BLOCK
  5
18BD5
330
18BD4
100
AcDbEntity
  8
0
 48
50.0
100
AcDbBlockBegin
  2
*D4
 70
     1
 10
0.0
 20
0.0
 30
0.0
  3
*D4
  1

  0
LINE
  5
18BD6
330
18BD4
100
AcDbEntity
  8
寸法
 62
     0
 48
50.0
370
    -2
100
AcDbLine
 10
4214.896575106998
 20
9656.123139034622
 30
0.0
 11
4214.896575106998
 21
10211.93135865972
 31
0.0
  0
LINE
  5
18BD7
330
18BD4
100
AcDbEntity
  8
寸法
 62
     0
 48
50.0
370
    -2
100
AcDbLine
 10
7574.896575106999
 20
9656.123139034718
 30
0.0
 11
7574.896575106999
 21
10211.93135865972
 31
0.0
  0
LINE
  5
18BD8
330
18BD4
100
AcDbEntity
  8
寸法
 62
     0
 48
50.0
370
    -2
100
AcDbLine
 10
4214.896575106998
 20
10151.93135865972
 30
0.0
 11
7574.896575106999
 21
10151.93135865972
 31
0.0
  0
INSERT
  5
18BD9
330
18BD4
100
AcDbEntity
  8
寸法
 62
     0
 48
50.0
370
    -2
100
AcDbBlockReference
  2
_DOTSMALL
 10
4214.896575106998
 20
10151.93135865972
 30
0.0
 41
100.0
 42
100.0
 43
100.0
 50
180.0
  0
INSERT
  5
18BDA
330
18BD4
100
AcDbEntity
  8
寸法
 62
     0
 48
50.0
370
    -2
100
AcDbBlockReference
  2
_DOTSMALL
 10
7574.896575106999
 20
10151.93135865972
 30
0.0
 41
100.0
 42
100.0
 43
100.0
  0
MTEXT
  5
18BDB
330
18BD4
100
AcDbEntity
  8
寸法
 62
     7
 48
50.0
100
AcDbMText
 10
5894.896575106997
 20
10251.94316968334
 30
0.0
 40
120.0
 41
0.0
 71
     5
 72
     1
  1
\A1;8X420=3360
  7
STYLE1
 73
     1
 44
1.0
1001
ACAD
1000
MTEXTBEGIN
1070
    73
1070
     1
1070
    44
1040
1.0
1070
    74
1070
     0
1000
MTEXTEND
  0
POINT
  5
18BDC
330
18BD4
100
AcDbEntity
  8
DEFPOINTS
 62
     0
 48
50.0
100
AcDbPoint
 10
4214.896575106998
 20
9636.123139034623
 30
0.0
  0
POINT
  5
18BDD
330
18BD4
100
AcDbEntity
  8
DEFPOINTS
 62
     0
 48
50.0
100
AcDbPoint
 10
7574.896575106999
 20
9636.123139034717
 30
0.0
  0
POINT
  5
18BDE
330
18BD4
100
AcDbEntity
  8
DEFPOINTS
 62
     0
 48
50.0
100
AcDbPoint
 10
7574.896575106999
 20
10151.93135865972
 30
0.0
  0
ENDBLK
  5
18BDF
330
18BD4
100
AcDbEntity
  8
0
 48
50.0
100
AcDbBlockEnd
  0
BLOCK
  5
18BE1
330
18BE0
100
AcDbEntity
  8
0
 48
50.0
100
AcDbBlockBegin
  2
*D5
 70
     1
 10
0.0
 20
0.0
 30
0.0
  3
*D5
  1

  0
LINE
  5
18BE2
330
18BE0
100
AcDbEntity
  8
寸法
 62
     0
 48
50.0
370
    -2
100
AcDbLine
 10
7574.896575106999
 20
9656.123139034718
 30
0.0
 11
7574.896575106999
 21
10211.9313586597
 31
0.0
  0
LINE
  5
18BE3
330
18BE0
100
AcDbEntity
  8
寸法
 62
     0
 48
50.0
370
    -2
100
AcDbLine
 10
7629.896575106998
 20
9656.123139034718
 30
0.0
 11
7629.896575106998
 21
10211.9313586597
 31
0.0
  0
LINE
  5
18BE4
330
18BE0
100
AcDbEntity
  8
寸法
 62
     0
 48
50.0
370
    -2
100
AcDbLine
 10
7574.896575106999
 20
10151.9313586597
 30
0.0
 11
7474.896575106999
 21
10151.9313586597
 31
0.0
  0
LINE
  5
18BE5
330
18BE0
100
AcDbEntity
  8
寸法
 62
     0
 48
50.0
370
    -2
100
AcDbLine
 10
7629.896575106998
 20
10151.9313586597
 30
0.0
 11
8046.867137855477
 21
10151.9313586597
 31
0.0
  0
LINE
  5
18BE6
330
18BE0
100
AcDbEntity
  8
寸法
 62
     0
 48
50.0
370
    -2
100
AcDbLine
 10
7574.896575106999
 20
10151.9313586597
 30
0.0
 11
7629.896575106998
 21
10151.9313586597
 31
0.0
  0
INSERT
  5
18BE7
330
18BE0
100
AcDbEntity
  8
寸法
 62
     0
 48
50.0
370
    -2
100
AcDbBlockReference
  2
_DOTSMALL
 10
7574.896575106999
 20
10151.9313586597
 30
0.0
 41
100.0
 42
100.0
 43
100.0
  0
INSERT
  5
18BE8
330
18BE0
100
AcDbEntity
  8
寸法
 62
     0
 48
50.0
370
    -2
100
AcDbBlockReference
  2
_DOTSMALL
 10
7629.896575106998
 20
10151.9313586597
 30
0.0
 41
100.0
 42
100.0
 43
100.0
 50
180.0
  0
MTEXT
  5
18BE9
330
18BE0
100
AcDbEntity
  8
寸法
 62
     7
 48
50.0
100
AcDbMText
 10
7938.381856481237
 20
10251.9313586597
 30
0.0
 40
120.0
 41
0.0
 71
     5
 72
     1
  1
\A1;55
  7
STYLE1
 73
     1
 44
1.0
1001
ACAD
1000
MTEXTBEGIN
1070
    73
1070
     1
1070
    44
1040
1.0
1070
    74
1070
     0
1000
MTEXTEND
  0
POINT
  5
18BEA
330
18BE0
100
AcDbEntity
  8
DEFPOINTS
 62
     0
 48
50.0
100
AcDbPoint
 10
7574.896575106999
 20
9636.123139034717
 30
0.0
  0
POINT
  5
18BEB
330
18BE0
100
AcDbEntity
  8
DEFPOINTS
 62
     0
 48
50.0
100
AcDbPoint
 10
7629.896575106998
 20
9636.123139034717
 30
0.0
  0
POINT
  5
18BEC
330
18BE0
100
AcDbEntity
  8
DEFPOINTS
 62
     0
 48
50.0
100
AcDbPoint
 10
7629.896575106998
 20
10151.9313586597
 30
0.0
  0
ENDBLK
  5
18BED
330
18BE0
100
AcDbEntity
  8
0
 48
50.0
100
AcDbBlockEnd
  0
BLOCK
  5
18BEF
330
18BEE
100
AcDbEntity
  8
0
 48
50.0
100
AcDbBlockBegin
  2
*D6
 70
     1
 10
0.0
 20
0.0
 30
0.0
  3
*D6
  1

  0
LINE
  5
18BF0
330
18BEE
100
AcDbEntity
  8
寸法
 62
     0
 48
50.0
370
    -2
100
AcDbLine
 10
7649.896575106999
 20
9636.123139034717
 30
0.0
 11
8337.32292084141
 21
9636.123139034717
 31
0.0
  0
LINE
  5
18BF1
330
18BEE
100
AcDbEntity
  8
寸法
 62
     0
 48
50.0
370
    -2
100
AcDbLine
 10
7649.896575106999
 20
9581.123139034721
 30
0.0
 11
8337.32292084141
 21
9581.123139034721
 31
0.0
  0
LINE
  5
18BF2
330
18BEE
100
AcDbEntity
  8
寸法
 62
     0
 48
50.0
370
    -2
100
AcDbLine
 10
8277.322920841411
 20
9581.123139034721
 30
0.0
 11
8277.322920841411
 21
9481.123139034719
 31
0.0
  0
LINE
  5
18BF3
330
18BEE
100
AcDbEntity
  8
寸法
 62
     0
 48
50.0
370
    -2
100
AcDbLine
 10
8277.322920841411
 20
9636.123139034717
 30
0.0
 11
8277.322920841411
 21
10053.09370178319
 31
0.0
  0
LINE
  5
18BF4
330
18BEE
100
AcDbEntity
  8
寸法
 62
     0
 48
50.0
370
    -2
100
AcDbLine
 10
8277.322920841411
 20
9581.123139034721
 30
0.0
 11
8277.322920841411
 21
9636.123139034717
 31
0.0
  0
INSERT
  5
18BF5
330
18BEE
100
AcDbEntity
  8
寸法
 62
     0
 48
50.0
370
    -2
100
AcDbBlockReference
  2
_DOTSMALL
 10
8277.322920841411
 20
9581.123139034721
 30
0.0
 41
100.0
 42
100.0
 43
100.0
 50
90.0
  0
INSERT
  5
18BF6
330
18BEE
100
AcDbEntity
  8
寸法
 62
     0
 48
50.0
370
    -2
100
AcDbBlockReference
  2
_DOTSMALL
 10
8277.322920841411
 20
9636.123139034717
 30
0.0
 41
100.0
 42
100.0
 43
100.0
 50
270.0
  0
MTEXT
  5
18BF7
330
18BEE
100
AcDbEntity
  8
寸法
 62
     7
 48
50.0
100
AcDbMText
 10
8177.32292084141
 20
9944.608420408957
 30
0.0
 40
120.0
 41
0.0
 71
     5
 72
     1
  1
\A1;55
  7
STYLE1
 11
0.0000000000000001
 21
1.0
 31
0.0
 73
     1
 44
1.0
1001
ACAD
1000
MTEXTBEGIN
1070
    73
1070
     1
1070
    44
1040
1.0
1070
    74
1070
     0
1000
MTEXTEND
  0
POINT
  5
18BF8
330
18BEE
100
AcDbEntity
  8
DEFPOINTS
 62
     0
 48
50.0
100
AcDbPoint
 10
7629.896575106998
 20
9636.123139034717
 30
0.0
  0
POINT
  5
18BF9
330
18BEE
100
AcDbEntity
  8
DEFPOINTS
 62
     0
 48
50.0
100
AcDbPoint
 10
7629.896575106998
 20
9581.123139034721
 30
0.0
  0
POINT
  5
18BFA
330
18BEE
100
AcDbEntity
  8
DEFPOINTS
 62
     0
 48
50.0
100
AcDbPoint
 10
8277.322920841411
 20
9581.123139034721
 30
0.0
  0
ENDBLK
  5
18BFB
330
18BEE
100
AcDbEntity
  8
0
 48
50.0
100
AcDbBlockEnd
  0
BLOCK
  5
18BFD
330
18BFC
100
AcDbEntity
  8
0
 48
50.0
100
AcDbBlockBegin
  2
*D7
 70
     1
 10
0.0
 20
0.0
 30
0.0
  3
*D7
  1

  0
LINE
  5
18BFE
330
18BFC
100
AcDbEntity
  8
寸法
 62
     0
 48
50.0
370
    -2
100
AcDbLine
 10
4159.896575106963
 20
9656.123139034622
 30
0.0
 11
4159.896575106963
 21
10211.9313586596
 31
0.0
  0
LINE
  5
18BFF
330
18BFC
100
AcDbEntity
  8
寸法
 62
     0
 48
50.0
370
    -2
100
AcDbLine
 10
4214.896575106998
 20
9656.123139034622
 30
0.0
 11
4214.896575106998
 21
10211.9313586596
 31
0.0
  0
LINE
  5
18C00
330
18BFC
100
AcDbEntity
  8
寸法
 62
     0
 48
50.0
370
    -2
100
AcDbLine
 10
4214.896575106998
 20
10151.9313586596
 30
0.0
 11
4314.896575106998
 21
10151.9313586596
 31
0.0
  0
LINE
  5
18C01
330
18BFC
100
AcDbEntity
  8
寸法
 62
     0
 48
50.0
370
    -2
100
AcDbLine
 10
4159.896575106963
 20
10151.9313586596
 30
0.0
 11
3742.926012358486
 21
10151.9313586596
 31
0.0
  0
LINE
  5
18C02
330
18BFC
100
AcDbEntity
  8
寸法
 62
     0
 48
50.0
370
    -2
100
AcDbLine
 10
4214.896575106998
 20
10151.9313586596
 30
0.0
 11
4159.896575106963
 21
10151.9313586596
 31
0.0
  0
INSERT
  5
18C03
330
18BFC
100
AcDbEntity
  8
寸法
 62
     0
 48
50.0
370
    -2
100
AcDbBlockReference
  2
_DOTSMALL
 10
4214.896575106998
 20
10151.9313586596
 30
0.0
 41
100.0
 42
100.0
 43
100.0
 50
180.0
  0
INSERT
  5
18C04
330
18BFC
100
AcDbEntity
  8
寸法
 62
     0
 48
50.0
370
    -2
100
AcDbBlockReference
  2
_DOTSMALL
 10
4159.896575106963
 20
10151.9313586596
 30
0.0
 41
100.0
 42
100.0
 43
100.0
  0
MTEXT
  5
18C05
330
18BFC
100
AcDbEntity
  8
寸法
 62
     7
 48
50.0
100
AcDbMText
 10
3851.411293732725
 20
10251.9313586596
 30
0.0
 40
120.0
 41
0.0
 71
     5
 72
     1
  1
\A1;55
  7
STYLE1
 73
     1
 44
1.0
1001
ACAD
1000
MTEXTBEGIN
1070
    73
1070
     1
1070
    44
1040
1.0
1070
    74
1070
     0
1000
MTEXTEND
  0
POINT
  5
18C06
330
18BFC
100
AcDbEntity
  8
DEFPOINTS
 62
     0
 48
50.0
100
AcDbPoint
 10
4159.896575106963
 20
9636.123139034623
 30
0.0
  0
POINT
  5
18C07
330
18BFC
100
AcDbEntity
  8
DEFPOINTS
 62
     0
 48
50.0
100
AcDbPoint
 10
4214.896575106998
 20
9636.123139034623
 30
0.0
  0
POINT
  5
18C08
330
18BFC
100
AcDbEntity
  8
DEFPOINTS
 62
     0
 48
50.0
100
AcDbPoint
 10
4214.896575106998
 20
10151.9313586596
 30
0.0
  0
ENDBLK
  5
18C09
330
18BFC
100
AcDbEntity
  8
0
 48
50.0
100
AcDbBlockEnd
  0
BLOCK
  5
18C0B
330
18C0A
100
AcDbEntity
  8
0
 48
50.0
100
AcDbBlockBegin
  2
*D8
 70
     1
 10
0.0
 20
0.0
 30
0.0
  3
*D8
  1

  0
LINE
  5
18C0C
330
18C0A
100
AcDbEntity
  8
寸法
 62
     0
 48
50.0
370
    -2
100
AcDbLine
 10
4159.896575106992
 20
7826.123139034546
 30
0.0
 11
4159.896575106992
 21
6804.372203245664
 31
0.0
  0
LINE
  5
18C0D
330
18C0A
100
AcDbEntity
  8
寸法
 62
     0
 48
50.0
370
    -2
100
AcDbLine
 10
7629.896575106974
 20
7826.123139034674
 30
0.0
 11
7629.896575106974
 21
6804.372203245664
 31
0.0
  0
LINE
  5
18C0E
330
18C0A
100
AcDbEntity
  8
寸法
 62
     0
 48
50.0
370
    -2
100
AcDbLine
 10
4159.896575106992
 20
6864.372203245665
 30
0.0
 11
7629.896575106974
 21
6864.372203245665
 31
0.0
  0
INSERT
  5
18C0F
330
18C0A
100
AcDbEntity
  8
寸法
 62
     0
 48
50.0
370
    -2
100
AcDbBlockReference
  2
_DOTSMALL
 10
4159.896575106992
 20
6864.372203245665
 30
0.0
 41
100.0
 42
100.0
 43
100.0
 50
180.0
  0
INSERT
  5
18C10
330
18C0A
100
AcDbEntity
  8
寸法
 62
     0
 48
50.0
370
    -2
100
AcDbBlockReference
  2
_DOTSMALL
 10
7629.896575106974
 20
6864.372203245665
 30
0.0
 41
100.0
 42
100.0
 43
100.0
  0
MTEXT
  5
18C11
330
18C0A
100
AcDbEntity
  8
寸法
 62
     7
 48
50.0
100
AcDbMText
 10
5911.12376113973
 20
6964.372203245665
 30
0.0
 40
120.0
 41
0.0
 71
     5
 72
     1
  1
\A1;3470
  7
STYLE1
 73
     1
 44
1.0
1001
ACAD
1000
MTEXTBEGIN
1070
    73
1070
     1
1070
    44
1040
1.0
1070
    74
1070
     0
1000
MTEXTEND
  0
POINT
  5
18C12
330
18C0A
100
AcDbEntity
  8
DEFPOINTS
 62
     0
 48
50.0
100
AcDbPoint
 10
4159.896575106992
 20
7846.123139034546
 30
0.0
  0
POINT
  5
18C13
330
18C0A
100
AcDbEntity
  8
DEFPOINTS
 62
     0
 48
50.0
100
AcDbPoint
 10
7629.896575106974
 20
7846.123139034673
 30
0.0
  0
POINT
  5
18C14
330
18C0A
100
AcDbEntity
  8
DEFPOINTS
 62
     0
 48
50.0
100
AcDbPoint
 10
7629.896575106974
 20
6864.372203245665
 30
0.0
  0
ENDBLK
  5
18C15
330
18C0A
100
AcDbEntity
  8
0
 48
50.0
100
AcDbBlockEnd
  0
BLOCK
  5
18C17
330
18C16
100
AcDbEntity
  8
0
 48
50.0
100
AcDbBlockBegin
  2
*D9
 70
     1
 10
0.0
 20
0.0
 30
0.0
  3
*D9
  1

  0
LINE
  5
18C18
330
18C16
100
AcDbEntity
  8
寸法
 62
     0
 48
50.0
370
    -2
100
AcDbLine
 10
7649.896575106973
 20
7901.123139034706
 30
0.0
 11
8337.322920841385
 21
7901.123139034706
 31
0.0
  0
LINE
  5
18C19
330
18C16
100
AcDbEntity
  8
寸法
 62
     0
 48
50.0
370
    -2
100
AcDbLine
 10
7649.896575106973
 20
7846.123139034709
 30
0.0
 11
8337.322920841385
 21
7846.123139034709
 31
0.0
  0
LINE
  5
18C1A
330
18C16
100
AcDbEntity
  8
寸法
 62
     0
 48
50.0
370
    -2
100
AcDbLine
 10
8277.322920841385
 20
7901.123139034706
 30
0.0
 11
8277.322920841385
 21
8001.123139034707
 31
0.0
  0
LINE
  5
18C1B
330
18C16
100
AcDbEntity
  8
寸法
 62
     0
 48
50.0
370
    -2
100
AcDbLine
 10
8277.322920841385
 20
7846.123139034709
 30
0.0
 11
8277.322920841385
 21
7429.152576286229
 31
0.0
  0
LINE
  5
18C1C
330
18C16
100
AcDbEntity
  8
寸法
 62
     0
 48
50.0
370
    -2
100
AcDbLine
 10
8277.322920841385
 20
7901.123139034706
 30
0.0
 11
8277.322920841385
 21
7846.123139034709
 31
0.0
  0
INSERT
  5
18C1D
330
18C16
100
AcDbEntity
  8
寸法
 62
     0
 48
50.0
370
    -2
100
AcDbBlockReference
  2
_DOTSMALL
 10
8277.322920841385
 20
7901.123139034706
 30
0.0
 41
100.0
 42
100.0
 43
100.0
 50
270.0
  0
INSERT
  5
18C1E
330
18C16
100
AcDbEntity
  8
寸法
 62
     0
 48
50.0
370
    -2
100
AcDbBlockReference
  2
_DOTSMALL
 10
8277.322920841385
 20
7846.123139034709
 30
0.0
 41
100.0
 42
100.0
 43
100.0
 50
90.0
  0
MTEXT
  5
18C1F
330
18C16
100
AcDbEntity
  8
寸法
 62
     7
 48
50.0
100
AcDbMText
 10
8177.322920841383
 20
7537.637857660469
 30
0.0
 40
120.0
 41
0.0
 71
     5
 72
     1
  1
\A1;55
  7
STYLE1
 11
0.0000000000000001
 21
1.0
 31
0.0
 73
     1
 44
1.0
1001
ACAD
1000
MTEXTBEGIN
1070
    73
1070
     1
1070
    44
1040
1.0
1070
    74
1070
     0
1000
MTEXTEND
  0
POINT
  5
18C20
330
18C16
100
AcDbEntity
  8
DEFPOINTS
 62
     0
 48
50.0
100
AcDbPoint
 10
7629.896575106974
 20
7901.123139034706
 30
0.0
  0
POINT
  5
18C21
330
18C16
100
AcDbEntity
  8
DEFPOINTS
 62
     0
 48
50.0
100
AcDbPoint
 10
7629.896575106974
 20
7846.123139034709
 30
0.0
  0
POINT
  5
18C22
330
18C16
100
AcDbEntity
  8
DEFPOINTS
 62
     0
 48
50.0
100
AcDbPoint
 10
8277.322920841385
 20
7846.123139034709
 30
0.0
  0
ENDBLK
  5
18C23
330
18C16
100
AcDbEntity
  8
0
 48
50.0
100
AcDbBlockEnd
  0
BLOCK
  5
18C25
330
18C24
100
AcDbEntity
  8
0
 48
50.0
100
AcDbBlockBegin
  2
*D10
 70
     1
 10
0.0
 20
0.0
 30
0.0
  3
*D10
  1

  0
LINE
  5
18C26
330
18C24
100
AcDbEntity
  8
寸法
 62
     0
 48
50.0
370
    -2
100
AcDbLine
 10
6533.037591258376
 20
9136.123139034728
 30
0.0
 11
6465.083950562664
 21
8882.516699399049
 31
0.0
  0
LINE
  5
18C27
330
18C24
100
AcDbEntity
  8
寸法
 62
     0
 48
50.0
370
    -2
100
AcDbLine
 10
7596.037591258388
 20
9136.123139034721
 30
0.0
 11
7528.083950562677
 21
8882.516699399049
 31
0.0
  0
LINE
  5
18C28
330
18C24
100
AcDbEntity
  8
寸法
 62
     0
 48
50.0
370
    -2
100
AcDbLine
 10
6481.160902108531
 20
8942.51669939905
 30
0.0
 11
7544.160902108544
 21
8942.51669939905
 31
0.0
  0
INSERT
  5
18C29
330
18C24
100
AcDbEntity
  8
寸法
 62
     0
 48
50.0
370
    -2
100
AcDbBlockReference
  2
_DOTSMALL
 10
6481.160902108531
 20
8942.51669939905
 30
0.0
 41
100.0
 42
100.0
 43
100.0
 50
180.0
  0
INSERT
  5
18C2A
330
18C24
100
AcDbEntity
  8
寸法
 62
     0
 48
50.0
370
    -2
100
AcDbBlockReference
  2
_DOTSMALL
 10
7544.160902108544
 20
8942.51669939905
 30
0.0
 41
100.0
 42
100.0
 43
100.0
  0
MTEXT
  5
18C2B
330
18C24
100
AcDbEntity
  8
寸法
 62
     7
 48
50.0
100
AcDbMText
 10
7061.28653022935
 20
9042.516699399049
 30
0.0
 40
120.0
 41
0.0
 71
     5
 72
     1
  1
\A1;1063
  7
STYLE1
 73
     1
 44
1.0
1001
ACAD
1000
MTEXTBEGIN
1070
    73
1070
     1
1070
    44
1040
1.0
1070
    74
1070
     0
1000
MTEXTEND
  0
POINT
  5
18C2C
330
18C24
100
AcDbEntity
  8
DEFPOINTS
 62
     0
 48
50.0
100
AcDbPoint
 10
6538.396575106998
 20
9156.123139034727
 30
0.0
  0
POINT
  5
18C2D
330
18C24
100
AcDbEntity
  8
DEFPOINTS
 62
     0
 48
50.0
100
AcDbPoint
 10
7601.39657510701
 20
9156.12313903472
 30
0.0
  0
POINT
  5
18C2E
330
18C24
100
AcDbEntity
  8
DEFPOINTS
 62
     0
 48
50.0
100
AcDbPoint
 10
7544.160902108544
 20
8942.51669939905
 30
0.0
  0
ENDBLK
  5
18C2F
330
18C24
100
AcDbEntity
  8
0
 48
50.0
100
AcDbBlockEnd
  0
BLOCK
  5
18C31
330
18C30
100
AcDbEntity
  8
0
 48
50.0
100
AcDbBlockBegin
  2
*D11
 70
     1
 10
0.0
 20
0.0
 30
0.0
  3
*D11
  1

  0
LINE
  5
18C32
330
18C30
100
AcDbEntity
  8
寸法
 62
     0
 48
50.0
370
    -2
100
AcDbLine
 10
7621.396575106999
 20
9600.764155186094
 30
0.0
 11
8016.754300969024
 21
9494.828371819961
 31
0.0
  0
LINE
  5
18C33
330
18C30
100
AcDbEntity
  8
寸法
 62
     0
 48
50.0
370
    -2
100
AcDbLine
 10
7621.396575106999
 20
9150.764155186099
 30
0.0
 11
8016.754300969024
 21
9044.828371819964
 31
0.0
  0
LINE
  5
18C34
330
18C30
100
AcDbEntity
  8
寸法
 62
     0
 48
50.0
370
    -2
100
AcDbLine
 10
7956.754300969024
 20
9510.905323365827
 30
0.0
 11
7956.754300969024
 21
9060.90532336583
 31
0.0
  0
INSERT
  5
18C35
330
18C30
100
AcDbEntity
  8
寸法
 62
     0
 48
50.0
370
    -2
100
AcDbBlockReference
  2
_DOTSMALL
 10
7956.754300969024
 20
9510.905323365827
 30
0.0
 41
100.0
 42
100.0
 43
100.0
 50
90.0
  0
INSERT
  5
18C36
330
18C30
100
AcDbEntity
  8
寸法
 62
     0
 48
50.0
370
    -2
100
AcDbBlockReference
  2
_DOTSMALL
 10
7956.754300969024
 20
9060.90532336583
 30
0.0
 41
100.0
 42
100.0
 43
100.0
 50
270.0
  0
MTEXT
  5
18C37
330
18C30
100
AcDbEntity
  8
寸法
 62
     7
 48
50.0
100
AcDbMText
 10
7856.754300969022
 20
9285.905323365829
 30
0.0
 40
120.0
 41
0.0
 71
     5
 72
     1
  1
\A1;450
  7
STYLE1
 11
0.0000000000000001
 21
1.0
 31
0.0
 73
     1
 44
1.0
1001
ACAD
1000
MTEXTBEGIN
1070
    73
1070
     1
1070
    44
1040
1.0
1070
    74
1070
     0
1000
MTEXTEND
  0
POINT
  5
18C38
330
18C30
100
AcDbEntity
  8
DEFPOINTS
 62
     0
 48
50.0
100
AcDbPoint
 10
7601.396575106999
 20
9606.123139034718
 30
0.0
  0
POINT
  5
18C39
330
18C30
100
AcDbEntity
  8
DEFPOINTS
 62
     0
 48
50.0
100
AcDbPoint
 10
7601.396575106999
 20
9156.12313903472
 30
0.0
  0
POINT
  5
18C3A
330
18C30
100
AcDbEntity
  8
DEFPOINTS
 62
     0
 48
50.0
100
AcDbPoint
 10
7956.754300969024
 20
9060.90532336583
 30
0.0
  0
ENDBLK
  5
18C3B
330
18C30
100
AcDbEntity
  8
0
 48
50.0
100
AcDbBlockEnd
  0
BLOCK
  5
18C3D
330
18C3C
100
AcDbEntity
  8
0
 48
50.0
100
AcDbBlockBegin
  2
*D12
 70
     1
 10
0.0
 20
0.0
 30
0.0
  3
*D12
  1

  0
LINE
  5
18C3E
330
18C3C
100
AcDbEntity
  8
寸法
 62
     0
 48
50.0
370
    -2
100
AcDbLine
 10
7649.896575106999
 20
9581.123139034721
 30
0.0
 11
8337.32292084141
 21
9581.123139034721
 31
0.0
  0
LINE
  5
18C3F
330
18C3C
100
AcDbEntity
  8
寸法
 62
     0
 48
50.0
370
    -2
100
AcDbLine
 10
7649.896575106973
 20
7901.123139034706
 30
0.0
 11
8337.32292084141
 21
7901.123139034706
 31
0.0
  0
LINE
  5
18C40
330
18C3C
100
AcDbEntity
  8
寸法
 62
     0
 48
50.0
370
    -2
100
AcDbLine
 10
8277.322920841411
 20
9581.123139034721
 30
0.0
 11
8277.322920841411
 21
7901.123139034706
 31
0.0
  0
INSERT
  5
18C41
330
18C3C
100
AcDbEntity
  8
寸法
 62
     0
 48
50.0
370
    -2
100
AcDbBlockReference
  2
_DOTSMALL
 10
8277.322920841411
 20
9581.123139034721
 30
0.0
 41
100.0
 42
100.0
 43
100.0
 50
90.0
  0
INSERT
  5
18C42
330
18C3C
100
AcDbEntity
  8
寸法
 62
     0
 48
50.0
370
    -2
100
AcDbBlockReference
  2
_DOTSMALL
 10
8277.322920841411
 20
7901.123139034706
 30
0.0
 41
100.0
 42
100.0
 43
100.0
 50
270.0
  0
MTEXT
  5
18C43
330
18C3C
100
AcDbEntity
  8
寸法
 62
     7
 48
50.0
100
AcDbMText
 10
8177.311109817788
 20
8741.123139034712
 30
0.0
 40
120.0
 41
0.0
 71
     5
 72
     1
  1
\A1;4X420=1680
  7
STYLE1
 11
0.0000000000000001
 21
1.0
 31
0.0
 73
     1
 44
1.0
1001
ACAD
1000
MTEXTBEGIN
1070
    73
1070
     1
1070
    44
1040
1.0
1070
    74
1070
     0
1000
MTEXTEND
  0
POINT
  5
18C44
330
18C3C
100
AcDbEntity
  8
DEFPOINTS
 62
     0
 48
50.0
100
AcDbPoint
 10
7629.896575106998
 20
9581.123139034721
 30
0.0
  0
POINT
  5
18C45
330
18C3C
100
AcDbEntity
  8
DEFPOINTS
 62
     0
 48
50.0
100
AcDbPoint
 10
7629.896575106974
 20
7901.123139034706
 30
0.0
  0
POINT
  5
18C46
330
18C3C
100
AcDbEntity
  8
DEFPOINTS
 62
     0
 48
50.0
100
AcDbPoint
 10
8277.322920841411
 20
7901.123139034706
 30
0.0
  0
ENDBLK
  5
18C47
330
18C3C
100
AcDbEntity
  8
0
 48
50.0
100
AcDbBlockEnd
  0
BLOCK
  5
18C49
330
18C48
100
AcDbEntity
  8
0
 48
50.0
100
AcDbBlockBegin
  2
*D13
 70
     1
 10
0.0
 20
0.0
 30
0.0
  3
*D13
  1

  0
LINE
  5
18C4A
330
18C48
100
AcDbEntity
  8
寸法
 62
     0
 48
50.0
370
    -2
100
AcDbLine
 10
4183.037591258377
 20
9136.123139034619
 30
0.0
 11
4115.083950562663
 21
8882.516699398941
 31
0.0
  0
LINE
  5
18C4B
330
18C48
100
AcDbEntity
  8
寸法
 62
     0
 48
50.0
370
    -2
100
AcDbLine
 10
5246.037591258307
 20
9136.123139034671
 30
0.0
 11
5178.08395056258
 21
8882.516699398941
 31
0.0
  0
LINE
  5
18C4C
330
18C48
100
AcDbEntity
  8
寸法
 62
     0
 48
50.0
370
    -2
100
AcDbLine
 10
4131.160902108532
 20
8942.516699398941
 30
0.0
 11
5194.160902108448
 21
8942.516699398941
 31
0.0
  0
INSERT
  5
18C4D
330
18C48
100
AcDbEntity
  8
寸法
 62
     0
 48
50.0
370
    -2
100
AcDbBlockReference
  2
_DOTSMALL
 10
4131.160902108532
 20
8942.516699398941
 30
0.0
 41
100.0
 42
100.0
 43
100.0
 50
180.0
  0
INSERT
  5
18C4E
330
18C48
100
AcDbEntity
  8
寸法
 62
     0
 48
50.0
370
    -2
100
AcDbBlockReference
  2
_DOTSMALL
 10
5194.160902108448
 20
8942.516699398941
 30
0.0
 41
100.0
 42
100.0
 43
100.0
  0
MTEXT
  5
18C4F
330
18C48
100
AcDbEntity
  8
寸法
 62
     7
 48
50.0
100
AcDbMText
 10
4658.986452655306
 20
9042.516699398941
 30
0.0
 40
120.0
 41
0.0
 71
     5
 72
     1
  1
\A1;1063
  7
STYLE1
 73
     1
 44
1.0
1001
ACAD
1000
MTEXTBEGIN
1070
    73
1070
     1
1070
    44
1040
1.0
1070
    74
1070
     0
1000
MTEXTEND
  0
POINT
  5
18C50
330
18C48
100
AcDbEntity
  8
DEFPOINTS
 62
     0
 48
50.0
100
AcDbPoint
 10
4188.396575106999
 20
9156.123139034617
 30
0.0
  0
POINT
  5
18C51
330
18C48
100
AcDbEntity
  8
DEFPOINTS
 62
     0
 48
50.0
100
AcDbPoint
 10
5251.396575106929
 20
9156.123139034672
 30
0.0
  0
POINT
  5
18C52
330
18C48
100
AcDbEntity
  8
DEFPOINTS
 62
     0
 48
50.0
100
AcDbPoint
 10
5194.160902108448
 20
8942.516699398941
 30
0.0
  0
ENDBLK
  5
18C53
330
18C48
100
AcDbEntity
  8
0
 48
50.0
100
AcDbBlockEnd
  0
BLOCK
  5
18C55
330
18C54
100
AcDbEntity
  8
0
 48
50.0
100
AcDbBlockBegin
  2
*D14
 70
     1
 10
0.0
 20
0.0
 30
0.0
  3
*D14
  1

  0
LINE
  5
18C56
330
18C54
100
AcDbEntity
  8
寸法
 62
     0
 48
50.0
370
    -2
100
AcDbLine
 10
5274.037591258307
 20
9136.123139034669
 30
0.0
 11
5206.08395056258
 21
8882.516699398941
 31
0.0
  0
LINE
  5
18C57
330
18C54
100
AcDbEntity
  8
寸法
 62
     0
 48
50.0
370
    -2
100
AcDbLine
 10
6505.037591258377
 20
9136.123139034662
 30
0.0
 11
6437.083950562653
 21
8882.516699398941
 31
0.0
  0
LINE
  5
18C58
330
18C54
100
AcDbEntity
  8
寸法
 62
     0
 48
50.0
370
    -2
100
AcDbLine
 10
5222.160902108448
 20
8942.516699398941
 30
0.0
 11
6453.16090210852
 21
8942.516699398941
 31
0.0
  0
INSERT
  5
18C59
330
18C54
100
AcDbEntity
  8
寸法
 62
     0
 48
50.0
370
    -2
100
AcDbBlockReference
  2
_DOTSMALL
 10
5222.160902108448
 20
8942.516699398941
 30
0.0
 41
100.0
 42
100.0
 43
100.0
 50
180.0
  0
INSERT
  5
18C5A
330
18C54
100
AcDbEntity
  8
寸法
 62
     0
 48
50.0
370
    -2
100
AcDbBlockReference
  2
_DOTSMALL
 10
6453.16090210852
 20
8942.516699398941
 30
0.0
 41
100.0
 42
100.0
 43
100.0
  0
MTEXT
  5
18C5B
330
18C54
100
AcDbEntity
  8
寸法
 62
     7
 48
50.0
100
AcDbMText
 10
6081.244808320626
 20
9042.528510422561
 30
0.0
 40
120.0
 41
0.0
 71
     5
 72
     1
  1
\A1;1231
  7
STYLE1
 73
     1
 44
1.0
1001
ACAD
1000
MTEXTBEGIN
1070
    73
1070
     1
1070
    44
1040
1.0
1070
    74
1070
     0
1000
MTEXTEND
  0
POINT
  5
18C5C
330
18C54
100
AcDbEntity
  8
DEFPOINTS
 62
     0
 48
50.0
100
AcDbPoint
 10
5279.396575106929
 20
9156.123139034669
 30
0.0
  0
POINT
  5
18C5D
330
18C54
100
AcDbEntity
  8
DEFPOINTS
 62
     0
 48
50.0
100
AcDbPoint
 10
6510.396575106999
 20
9156.123139034662
 30
0.0
  0
POINT
  5
18C5E
330
18C54
100
AcDbEntity
  8
DEFPOINTS
 62
     0
 48
50.0
100
AcDbPoint
 10
6453.16090210852
 20
8942.516699398941
 30
0.0
  0
ENDBLK
  5
18C5F
330
18C54
100
AcDbEntity
  8
0
 48
50.0
100
AcDbBlockEnd
  0
BLOCK
  5
18C61
330
18C60
100
AcDbEntity
  8
0
 48
50.0
100
AcDbBlockBegin
  2
*D15
 70
     1
 10
0.0
 20
0.0
 30
0.0
  3
*D15
  1

  0
LINE
  5
18C62
330
18C60
100
AcDbEntity
  8
寸法
 62
     0
 48
50.0
370
    -2
100
AcDbLine
 10
5065.896575106966
 20
7749.123139034579
 30
0.0
 11
5065.896575106966
 21
7099.952920982538
 31
0.0
  0
LINE
  5
18C63
330
18C60
100
AcDbEntity
  8
寸法
 62
     0
 48
50.0
370
    -2
100
AcDbLine
 10
6331.896575106966
 20
7749.123139034579
 30
0.0
 11
6331.896575106966
 21
7099.952920982538
 31
0.0
  0
LINE
  5
18C64
330
18C60
100
AcDbEntity
  8
寸法
 62
     0
 48
50.0
370
    -2
100
AcDbLine
 10
5065.896575106966
 20
7159.952920982537
 30
0.0
 11
6331.896575106966
 21
7159.952920982537
 31
0.0
  0
INSERT
  5
18C65
330
18C60
100
AcDbEntity
  8
寸法
 62
     0
 48
50.0
370
    -2
100
AcDbBlockReference
  2
_DOTSMALL
 10
5065.896575106966
 20
7159.952920982537
 30
0.0
 41
100.0
 42
100.0
 43
100.0
 50
180.0
  0
INSERT
  5
18C66
330
18C60
100
AcDbEntity
  8
寸法
 62
     0
 48
50.0
370
    -2
100
AcDbBlockReference
  2
_DOTSMALL
 10
6331.896575106966
 20
7159.952920982537
 30
0.0
 41
100.0
 42
100.0
 43
100.0
  0
MTEXT
  5
18C67
330
18C60
100
AcDbEntity
  8
寸法
 62
     7
 48
50.0
100
AcDbMText
 10
5711.986008735934
 20
7359.964732006159
 30
0.0
 40
120.0
 41
0.0
 71
     5
 72
     1
  1
\A1;有効開口部間口\P1266
  7
STYLE1
 73
     1
 44
1.0
1001
ACAD
1000
MTEXTBEGIN
1070
    73
1070
     1
1070
    44
1040
1.0
1070
    74
1070
     0
1000
MTEXTEND
  0
POINT
  5
18C68
330
18C60
100
AcDbEntity
  8
DEFPOINTS
 62
     0
 48
50.0
100
AcDbPoint
 10
5065.896575106966
 20
7769.123139034579
 30
0.0
  0
POINT
  5
18C69
330
18C60
100
AcDbEntity
  8
DEFPOINTS
 62
     0
 48
50.0
100
AcDbPoint
 10
6331.896575106966
 20
7769.123139034579
 30
0.0
  0
POINT
  5
18C6A
330
18C60
100
AcDbEntity
  8
DEFPOINTS
 62
     0
 48
50.0
100
AcDbPoint
 10
6331.896575106966
 20
7159.952920982537
 30
0.0
  0
ENDBLK
  5
18C6B
330
18C60
100
AcDbEntity
  8
0
 48
50.0
100
AcDbBlockEnd
  0
BLOCK
  5
18C6D
330
18C6C
100
AcDbEntity
  8
0
 48
50.0
100
AcDbBlockBegin
  2
*D16
 70
     1
 10
0.0
 20
0.0
 30
0.0
  3
*D16
  1

  0
LINE
  5
18C6E
330
18C6C
100
AcDbEntity
  8
寸法
 62
     0
 48
50.0
370
    -2
100
AcDbLine
 10
7200.896575106966
 20
7846.123139034578
 30
0.0
 11
7457.192158500191
 21
7846.123139034578
 31
0.0
  0
LINE
  5
18C6F
330
18C6C
100
AcDbEntity
  8
寸法
 62
     0
 48
50.0
370
    -2
100
AcDbLine
 10
7199.896575106966
 20
7769.123139034579
 30
0.0
 11
7457.192158500191
 21
7769.123139034579
 31
0.0
  0
LINE
  5
18C70
330
18C6C
100
AcDbEntity
  8
寸法
 62
     0
 48
50.0
370
    -2
100
AcDbLine
 10
7417.192158500192
 20
7866.123139034579
 30
0.0
 11
7417.192158500192
 21
7886.123139034578
 31
0.0
  0
LINE
  5
18C71
330
18C6C
100
AcDbEntity
  8
寸法
 62
     0
 48
50.0
370
    -2
100
AcDbLine
 10
7417.192158500192
 20
7749.123139034579
 30
0.0
 11
7417.192158500192
 21
7533.123139034573
 31
0.0
  0
LINE
  5
18C72
330
18C6C
100
AcDbEntity
  8
寸法
 62
     0
 48
50.0
370
    -2
100
AcDbLine
 10
7417.192158500192
 20
7846.123139034578
 30
0.0
 11
7417.192158500192
 21
7769.123139034579
 31
0.0
  0
INSERT
  5
18C73
330
18C6C
100
AcDbEntity
  8
寸法
 62
     0
 48
50.0
370
    -2
100
AcDbBlockReference
  2
_DOT
 10
7417.192158500192
 20
7846.123139034578
 30
0.0
 41
20.0
 42
20.0
 43
20.0
 50
270.0
  0
INSERT
  5
18C74
330
18C6C
100
AcDbEntity
  8
寸法
 62
     0
 48
50.0
370
    -2
100
AcDbBlockReference
  2
_DOT
 10
7417.192158500192
 20
7769.123139034579
 30
0.0
 41
20.0
 42
20.0
 43
20.0
 50
90.0
  0
MTEXT
  5
18C75
330
18C6C
100
AcDbEntity
  8
寸法
 62
     7
 48
50.0
100
AcDbMText
 10
7325.192158500191
 20
7631.123139034575
 30
0.0
 40
120.0
 41
0.0
 71
     5
 72
     1
  1
\A1;77
  7
STYLE1
 11
0.0000000000000001
 21
1.0
 31
0.0
 73
     1
 44
1.0
1001
ACAD
1000
MTEXTBEGIN
1070
    73
1070
     1
1070
    44
1040
1.0
1070
    74
1070
     0
1000
MTEXTEND
  0
POINT
  5
18C76
330
18C6C
100
AcDbEntity
  8
DEFPOINTS
 62
     0
 48
50.0
100
AcDbPoint
 10
7180.896575106967
 20
7846.123139034578
 30
0.0
  0
POINT
  5
18C77
330
18C6C
100
AcDbEntity
  8
DEFPOINTS
 62
     0
 48
50.0
100
AcDbPoint
 10
7179.896575106965
 20
7769.123139034579
 30
0.0
  0
POINT
  5
18C78
330
18C6C
100
AcDbEntity
  8
DEFPOINTS
 62
     0
 48
50.0
100
AcDbPoint
 10
7417.192158500192
 20
7769.123139034579
 30
0.0
  0
ENDBLK
  5
18C79
330
18C6C
100
AcDbEntity
  8
0
 48
50.0
100
AcDbBlockEnd
  0
BLOCK
  5
18DA0
330
18C7A
100
AcDbEntity
  8
0
 48
50.0
100
AcDbBlockBegin
  2
A$C3B1A506B
 70
     0
 10
0.0
 20
0.0
 30
0.0
  3
A$C3B1A506B
  1

  0
MTEXT
  5
18C7B
330
18C7A
100
AcDbEntity
  8
寸法
 62
     7
 48
50.0
100
AcDbMText
 10
3342.250386887194
 20
2778.329429134012
 30
0.0
 40
96.0
 41
0.0
 71
     5
 72
     1
  1
棚 2段
  7
STYLE1
 73
     1
 44
1.0
1001
ACAD
1000
MTEXTBEGIN
1070
    73
1070
     1
1070
    44
1040
1.0
1070
    74
1070
     0
1000
MTEXTEND
  0
MTEXT
  5
18C7C
330
18C7A
100
AcDbEntity
  8
寸法
 62
     7
 48
50.0
100
AcDbMText
 10
2167.25038688716
 20
2778.329429133986
 30
0.0
 40
96.0
 41
0.0
 71
     5
 72
     1
  1
棚 2段
  7
STYLE1
 73
     1
 44
1.0
1001
ACAD
1000
MTEXTBEGIN
1070
    73
1070
     1
1070
    44
1040
1.0
1070
    74
1070
     0
1000
MTEXTEND
  0
MTEXT
  5
18C7D
330
18C7A
100
AcDbEntity
  8
寸法
 62
     7
 48
50.0
100
AcDbMText
 10
992.2503868871608
 20
2778.329429133935
 30
0.0
 40
96.0
 41
0.0
 71
     5
 72
     1
  1
棚 2段
  7
STYLE1
 73
     1
 44
1.0
1001
ACAD
1000
MTEXTBEGIN
1070
    73
1070
     1
1070
    44
1040
1.0
1070
    74
1070
     0
1000
MTEXTEND
  0
LINE
  5
18C7E
330
18C7A
100
AcDbEntity
  8
細線
 48
50.0
100
AcDbLine
 10
2771.970589276527
 20
1368.994384123192
 30
0.0
 11
3398.970589276523
 21
1368.994384123192
 31
0.0
  0
LINE
  5
18C7F
330
18C7A
100
AcDbEntity
  8
細線
 48
50.0
100
AcDbLine
 10
2117.970593930113
 20
1335.285615569113
 30
0.0
 11
3398.970589276523
 21
1335.285615569113
 31
0.0
  0
LINE
  5
18C80
330
18C7A
100
AcDbEntity
  8
細線
 48
50.0
100
AcDbLine
 10
2076.970593930115
 20
1364.690523565368
 30
0.0
 11
1322.970589276523
 21
1364.690523565367
 31
0.0
  0
LINE
  5
18C81
330
18C7A
100
AcDbEntity
  8
細線
100
AcDbLine
 10
3170.720579860066
 20
1388.494284088199
 30
0.0
 11
3173.052119381877
 21
1393.494286728162
 31
0.0
  0
LINE
  5
18C82
330
18C7A
100
AcDbEntity
  8
細線
100
AcDbLine
 10
3240.720589276525
 20
1388.494269174465
 30
0.0
 11
3238.389042800336
 21
1393.494286728144
 31
0.0
  0
LINE
  5
18C83
330
18C7A
100
AcDbEntity
  8
細線
100
AcDbLine
 10
3238.389042800336
 20
1393.494286728144
 30
0.0
 11
3173.052119381862
 21
1393.494286728133
 31
0.0
  0
LINE
  5
18C84
330
18C7A
100
AcDbEntity
  8
細線
100
AcDbLine
 10
3098.389042800336
 20
1393.494286728144
 30
0.0
 11
3033.052119381862
 21
1393.494286728133
 31
0.0
  0
LINE
  5
18C85
330
18C7A
100
AcDbEntity
  8
細線
100
AcDbLine
 10
3100.720589276523
 20
1388.494269174465
 30
0.0
 11
3098.389042800336
 21
1393.494286728144
 31
0.0
  0
LINE
  5
18C86
330
18C7A
100
AcDbEntity
  8
細線
100
AcDbLine
 10
3030.720579860066
 20
1388.494284088199
 30
0.0
 11
3033.052119381875
 21
1393.494286728162
 31
0.0
  0
LINE
  5
18C87
330
18C7A
100
AcDbEntity
  8
細線
100
AcDbLine
 10
2890.720589276525
 20
1388.494269174465
 30
0.0
 11
2893.052128798336
 21
1393.494271814428
 31
0.0
  0
LINE
  5
18C88
330
18C7A
100
AcDbEntity
  8
細線
100
AcDbLine
 10
2960.720598692984
 20
1388.494254260731
 30
0.0
 11
2958.389052216793
 21
1393.49427181441
 31
0.0
  0
LINE
  5
18C89
330
18C7A
100
AcDbEntity
  8
細線
100
AcDbLine
 10
2958.389052216795
 20
1393.49427181441
 30
0.0
 11
2893.052128798321
 21
1393.494271814399
 31
0.0
  0
LINE
  5
18C8A
330
18C7A
100
AcDbEntity
  8
細線
100
AcDbLine
 10
2667.139038146739
 20
1359.494298590735
 30
0.0
 11
2601.802114728263
 21
1359.494298590724
 31
0.0
  0
LINE
  5
18C8B
330
18C7A
100
AcDbEntity
  8
細線
100
AcDbLine
 10
2669.470584622926
 20
1354.494281037055
 30
0.0
 11
2667.139038146737
 21
1359.494298590735
 31
0.0
  0
LINE
  5
18C8C
330
18C7A
100
AcDbEntity
  8
細線
100
AcDbLine
 10
2599.470575206469
 20
1354.49429595079
 30
0.0
 11
2601.802114728278
 21
1359.494298590752
 31
0.0
  0
LINE
  5
18C8D
330
18C7A
100
AcDbEntity
  8
細線
 48
50.0
100
AcDbLine
 10
2440.853968524536
 20
1372.765132327548
 30
0.0
 11
2446.609486107205
 21
1354.494281037057
 31
0.0
  0
LINE
  5
18C8E
330
18C7A
100
AcDbEntity
  8
細線
 48
50.0
100
AcDbLine
 10
2429.925520044106
 20
1372.765132327546
 30
0.0
 11
2440.853968524536
 21
1372.765132327548
 31
0.0
  0
ARC
  5
18C8F
330
18C7A
100
AcDbEntity
  8
細線
 48
50.0
100
AcDbCircle
 10
2424.471163986787
 20
1374.265132327546
 30
0.0
 40
5.0
100
AcDbArc
 50
204.6243183520723
 51
335.3756816479278
  0
ARC
  5
18C90
330
18C7A
100
AcDbEntity
  8
細線
 48
50.0
100
AcDbCircle
 10
2429.925520044106
 20
1371.765132327546
 30
0.0
 40
1.0
100
AcDbArc
 50
90.0
 51
155.3756816479277
  0
ARC
  5
18C91
330
18C7A
100
AcDbEntity
  8
細線
 48
50.0
100
AcDbCircle
 10
2419.016807929469
 20
1371.765132327546
 30
0.0
 40
1.0
100
AcDbArc
 50
24.62431835207225
 51
90.0
  0
LINE
  5
18C92
330
18C7A
100
AcDbEntity
  8
細線
 48
50.0
100
AcDbLine
 10
2408.088359449037
 20
1372.765132327548
 30
0.0
 11
2419.016807929469
 21
1372.765132327546
 31
0.0
  0
LINE
  5
18C93
330
18C7A
100
AcDbEntity
  8
細線
 48
50.0
100
AcDbLine
 10
2402.33284186637
 20
1354.494281037054
 30
0.0
 11
2408.088359449037
 21
1372.765132327548
 31
0.0
  0
LINE
  5
18C94
330
18C7A
100
AcDbEntity
  8
細線
100
AcDbLine
 10
2458.070304175992
 20
1354.494278397076
 30
0.0
 11
2460.401843697802
 21
1359.494281037039
 31
0.0
  0
LINE
  5
18C95
330
18C7A
100
AcDbEntity
  8
細線
100
AcDbLine
 10
2528.070313592451
 20
1354.494263483342
 30
0.0
 11
2525.738767116262
 21
1359.494281037021
 31
0.0
  0
LINE
  5
18C96
330
18C7A
100
AcDbEntity
  8
細線
100
AcDbLine
 10
2525.738767116262
 20
1359.494281037021
 30
0.0
 11
2460.40184369779
 21
1359.49428103701
 31
0.0
  0
LINE
  5
18C97
330
18C7A
100
AcDbEntity
  8
細線
100
AcDbLine
 10
2387.139046332155
 20
1359.494281037021
 30
0.0
 11
2321.80212291368
 21
1359.49428103701
 31
0.0
  0
LINE
  5
18C98
330
18C7A
100
AcDbEntity
  8
細線
100
AcDbLine
 10
2389.470592808342
 20
1354.494263483342
 30
0.0
 11
2387.139046332153
 21
1359.494281037021
 31
0.0
  0
LINE
  5
18C99
330
18C7A
100
AcDbEntity
  8
細線
100
AcDbLine
 10
2319.470584622926
 20
1354.494281037054
 30
0.0
 11
2321.802122913694
 21
1359.494281037039
 31
0.0
  0
LINE
  5
18C9A
330
18C7A
100
AcDbEntity
  8
細線
100
AcDbLine
 10
2179.47061994182
 20
1354.494289224422
 30
0.0
 11
2181.802158232587
 21
1359.494289224407
 31
0.0
  0
LINE
  5
18C9B
330
18C7A
100
AcDbEntity
  8
細線
100
AcDbLine
 10
2249.470628127236
 20
1354.49427167071
 30
0.0
 11
2247.139081651047
 21
1359.494289224389
 31
0.0
  0
LINE
  5
18C9C
330
18C7A
100
AcDbEntity
  8
細線
100
AcDbLine
 10
2247.139081651047
 20
1359.494289224389
 30
0.0
 11
2181.802158232573
 21
1359.494289224378
 31
0.0
  0
LINE
  5
18C9D
330
18C7A
100
AcDbEntity
  8
細線
100
AcDbLine
 10
1807.970585744697
 20
1320.494460905133
 30
0.0
 11
1810.302124035464
 21
1325.494460905118
 31
0.0
  0
LINE
  5
18C9E
330
18C7A
100
AcDbEntity
  8
細線
100
AcDbLine
 10
1877.970593930113
 20
1320.494443351421
 30
0.0
 11
1875.639047453926
 21
1325.4944609051
 31
0.0
  0
LINE
  5
18C9F
330
18C7A
100
AcDbEntity
  8
細線
100
AcDbLine
 10
1875.639047453926
 20
1325.4944609051
 30
0.0
 11
1810.302124035452
 21
1325.494460905089
 31
0.0
  0
LINE
  5
18CA0
330
18C7A
100
AcDbEntity
  8
細線
100
AcDbLine
 10
2015.639047453926
 20
1325.4944609051
 30
0.0
 11
1950.302124035452
 21
1325.494460905089
 31
0.0
  0
LINE
  5
18CA1
330
18C7A
100
AcDbEntity
  8
細線
100
AcDbLine
 10
2017.970593930113
 20
1320.494443351421
 30
0.0
 11
2015.639047453924
 21
1325.4944609051
 31
0.0
  0
LINE
  5
18CA2
330
18C7A
100
AcDbEntity
  8
細線
100
AcDbLine
 10
1947.970585744697
 20
1320.494460905133
 30
0.0
 11
1950.302124035465
 21
1325.494460905118
 31
0.0
  0
LINE
  5
18CA3
330
18C7A
100
AcDbEntity
  8
細線
100
AcDbLine
 10
1735.639047453926
 20
1325.494460905098
 30
0.0
 11
1670.302124035454
 21
1325.494460905087
 31
0.0
  0
LINE
  5
18CA4
330
18C7A
100
AcDbEntity
  8
細線
100
AcDbLine
 10
1737.970593930113
 20
1320.494443351419
 30
0.0
 11
1735.639047453926
 21
1325.494460905098
 31
0.0
  0
LINE
  5
18CA5
330
18C7A
100
AcDbEntity
  8
細線
100
AcDbLine
 10
1667.970585744697
 20
1320.494460905131
 30
0.0
 11
1670.302124035465
 21
1325.494460905116
 31
0.0
  0
LINE
  5
18CA6
330
18C7A
100
AcDbEntity
  8
細線
100
AcDbLine
 10
1527.970593930113
 20
1320.494460905133
 30
0.0
 11
1530.302132220881
 21
1325.494460905118
 31
0.0
  0
LINE
  5
18CA7
330
18C7A
100
AcDbEntity
  8
細線
100
AcDbLine
 10
1597.970602115529
 20
1320.494443351421
 30
0.0
 11
1595.639055639342
 21
1325.4944609051
 31
0.0
  0
LINE
  5
18CA8
330
18C7A
100
AcDbEntity
  8
細線
100
AcDbLine
 10
1595.639055639342
 20
1325.4944609051
 30
0.0
 11
1530.302132220869
 21
1325.494460905089
 31
0.0
  0
ARC
  5
18CA9
330
18C7A
100
AcDbEntity
  8
部品1
 48
0.01
100
AcDbCircle
 10
1483.470482677778
 20
1319.493338720063
 30
0.0
 40
0.5
100
AcDbArc
 50
270.0
 51
0.0
  0
LINE
  5
18CAA
330
18C7A
100
AcDbEntity
  8
部品1
 48
0.01
100
AcDbLine
 10
1483.970482677778
 20
1320.493338720063
 30
0.0
 11
1483.970482677778
 21
1319.493338720063
 31
0.0
  0
LINE
  5
18CAB
330
18C7A
100
AcDbEntity
  8
部品1
 48
0.01
100
AcDbLine
 10
1483.970482677778
 20
1320.493338720063
 30
0.0
 11
1483.970482677778
 21
1319.493338720063
 31
0.0
  0
LINE
  5
18CAC
330
18C7A
100
AcDbEntity
  8
部品1
 48
0.01
100
AcDbLine
 10
1483.470482677778
 20
1318.993338720063
 30
0.0
 11
1476.857977247713
 21
1318.993338720062
 31
0.0
  0
ARC
  5
18CAD
330
18C7A
100
AcDbEntity
  8
部品1
100
AcDbCircle
 10
1476.926326800494
 20
1319.993338720062
 30
0.0
 40
1.0
100
AcDbArc
 50
160.5287793655865
 51
270.0
  0
ARC
  5
18CAE
330
18C7A
100
AcDbEntity
  8
部品1
100
AcDbCircle
 10
1451.470482677778
 20
1328.993338720062
 30
0.0
 40
26.0
100
AcDbArc
 50
340.5287793655865
 51
0.0
  0
LINE
  5
18CAF
330
18C7A
100
AcDbEntity
  8
部品1
100
AcDbLine
 10
1477.470482677778
 20
1328.993338720062
 30
0.0
 11
1477.470482677778
 21
1333.993338720061
 31
0.0
  0
ARC
  5
18CB0
330
18C7A
100
AcDbEntity
  8
部品1
 48
0.01
100
AcDbCircle
 10
1475.470482677778
 20
1333.993338720061
 30
0.0
 40
2.0
100
AcDbArc
 50
0.0
 51
90.0
  0
ARC
  5
18CB1
330
18C7A
100
AcDbEntity
  8
部品1
100
AcDbCircle
 10
1473.862091052968
 20
1332.993338720062
 30
0.0
 40
3.0
100
AcDbArc
 50
90.0
 51
141.6069559808035
  0
LINE
  5
18CB2
330
18C7A
100
AcDbEntity
  8
部品1
 48
0.01
100
AcDbLine
 10
1475.470482677778
 20
1335.993338720062
 30
0.0
 11
1473.862091052968
 21
1335.993338720062
 31
0.0
  0
ARC
  5
18CB3
330
18C7A
100
AcDbEntity
  8
部品1
100
AcDbCircle
 10
1455.399768463507
 20
1332.293338720065
 30
0.0
 40
3.0
100
AcDbArc
 50
254.0576313943215
 51
270.0
  0
ARC
  5
18CB4
330
18C7A
100
AcDbEntity
  8
部品1
100
AcDbCircle
 10
1462.541196892049
 20
1332.293338720065
 30
0.0
 40
3.0
100
AcDbArc
 50
270.0
 51
285.9423686056786
  0
LINE
  5
18CB5
330
18C7A
100
AcDbEntity
  8
部品1
100
AcDbLine
 10
1462.541196892049
 20
1329.293338720064
 30
0.0
 11
1455.399768463507
 21
1329.293338720064
 31
0.0
  0
ARC
  5
18CB6
330
18C7A
100
AcDbEntity
  8
部品1
100
AcDbCircle
 10
1458.970482677778
 20
1344.793338720065
 30
0.0
 40
16.0
100
AcDbArc
 50
285.9423686056786
 51
321.6069559808035
  0
LINE
  5
18CB7
330
18C7A
100
AcDbEntity
  8
部品1
 48
0.01
100
AcDbLine
 10
1442.470482677778
 20
1335.993338720062
 30
0.0
 11
1444.078874302588
 21
1335.993338720062
 31
0.0
  0
ARC
  5
18CB8
330
18C7A
100
AcDbEntity
  8
部品1
100
AcDbCircle
 10
1444.078874302588
 20
1332.993338720062
 30
0.0
 40
3.0
100
AcDbArc
 50
38.39304401919648
 51
90.0
  0
ARC
  5
18CB9
330
18C7A
100
AcDbEntity
  8
部品1
100
AcDbCircle
 10
1458.970482677778
 20
1344.793338720065
 30
0.0
 40
16.0
100
AcDbArc
 50
218.3930440191965
 51
254.0576313943215
  0
LINE
  5
18CBA
330
18C7A
100
AcDbEntity
  8
部品1
100
AcDbLine
 10
1440.470482677778
 20
1328.993338720062
 30
0.0
 11
1440.470482677778
 21
1333.993338720061
 31
0.0
  0
ARC
  5
18CBB
330
18C7A
100
AcDbEntity
  8
部品1
 48
0.01
100
AcDbCircle
 10
1442.470482677778
 20
1333.993338720061
 30
0.0
 40
2.0
100
AcDbArc
 50
90.0
 51
180.0
  0
ARC
  5
18CBC
330
18C7A
100
AcDbEntity
  8
部品1
100
AcDbCircle
 10
1466.470482677778
 20
1328.993338720062
 30
0.0
 40
26.0
100
AcDbArc
 50
180.0
 51
199.4712206344134
  0
ARC
  5
18CBD
330
18C7A
100
AcDbEntity
  8
部品1
 48
0.01
100
AcDbCircle
 10
1434.470482677778
 20
1319.493338720063
 30
0.0
 40
0.5
100
AcDbArc
 50
180.0
 51
270.0
  0
LINE
  5
18CBE
330
18C7A
100
AcDbEntity
  8
部品1
 48
0.01
100
AcDbLine
 10
1434.470482677778
 20
1318.993338720063
 30
0.0
 11
1441.014638555061
 21
1318.993338720062
 31
0.0
  0
LINE
  5
18CBF
330
18C7A
100
AcDbEntity
  8
部品1
 48
0.01
100
AcDbLine
 10
1433.970482677778
 20
1320.493338720063
 30
0.0
 11
1433.970482677778
 21
1319.493338720063
 31
0.0
  0
ARC
  5
18CC0
330
18C7A
100
AcDbEntity
  8
部品1
100
AcDbCircle
 10
1441.014638555061
 20
1319.993338720062
 30
0.0
 40
1.0
100
AcDbArc
 50
270.0
 51
19.47122063441346
  0
LINE
  5
18CC1
330
18C7A
100
AcDbEntity
  8
細線
100
AcDbLine
 10
1479.470482677785
 20
1338.493338720065
 30
0.0
 11
1438.470482677785
 21
1338.493338720058
 31
0.0
  0
LINE
  5
18CC2
330
18C7A
100
AcDbEntity
  8
細線
100
AcDbLine
 10
1438.470482677785
 20
1338.493338720058
 30
0.0
 11
1438.470482677785
 21
1320.49333872004
 31
0.0
  0
LINE
  5
18CC3
330
18C7A
100
AcDbEntity
  8
細線
100
AcDbLine
 10
1479.470482677785
 20
1338.493338720065
 30
0.0
 11
1479.470482677785
 21
1320.49333872004
 31
0.0
  0
LINE
  5
18CC4
330
18C7A
100
AcDbEntity
  8
細線
100
AcDbLine
 10
1322.970589276523
 20
1324.494269174465
 30
0.0
 11
1322.970589276523
 21
1320.494269174513
 31
0.0
  0
LINE
  5
18CC5
330
18C7A
100
AcDbEntity
  8
寸法
 48
50.0
100
AcDbLine
 10
1746.17359555837
 20
1170.531020743327
 30
0.0
 11
1694.767587648266
 21
1170.531020743327
 31
0.0
  0
LINE
  5
18CC6
330
18C7A
100
AcDbEntity
  8
寸法
 48
50.0
100
AcDbLine
 10
1694.767587648266
 20
1170.531020743327
 30
0.0
 11
1694.767587648266
 21
1201.841179395494
 31
0.0
  0
LINE
  5
18CC7
330
18C7A
100
AcDbEntity
  8
寸法
 48
50.0
100
AcDbLine
 10
1694.767587648266
 20
1201.841179395494
 30
0.0
 11
1665.006255656843
 21
1201.841179395494
 31
0.0
  0
LINE
  5
18CC8
330
18C7A
100
AcDbEntity
  8
寸法
 48
50.0
100
AcDbLine
 10
1665.006255656843
 20
1201.841179395494
 30
0.0
 11
1720.470591603318
 21
1239.420630324105
 31
0.0
  0
LINE
  5
18CC9
330
18C7A
100
AcDbEntity
  8
寸法
 48
50.0
100
AcDbLine
 10
1775.934927549793
 20
1201.841179395494
 30
0.0
 11
1720.470591603318
 21
1239.420630324105
 31
0.0
  0
LINE
  5
18CCA
330
18C7A
100
AcDbEntity
  8
寸法
 48
50.0
100
AcDbLine
 10
1746.17359555837
 20
1201.841179395494
 30
0.0
 11
1775.934927549793
 21
1201.841179395494
 31
0.0
  0
LINE
  5
18CCB
330
18C7A
100
AcDbEntity
  8
寸法
 48
50.0
100
AcDbLine
 10
1746.17359555837
 20
1170.531020743327
 30
0.0
 11
1746.17359555837
 21
1201.841179395494
 31
0.0
  0
LINE
  5
18CCC
330
18C7A
100
AcDbEntity
  8
寸法
 48
50.0
100
AcDbLine
 10
1694.767587648266
 20
1170.531020743327
 30
0.0
 11
1746.17359555837
 21
1170.531020743327
 31
0.0
  0
LINE
  5
18CCD
330
18C7A
100
AcDbEntity
  8
寸法
 48
50.0
100
AcDbLine
 10
2025.339129835225
 20
1227.676611498152
 30
0.0
 11
2025.339129835225
 21
1174.01297691636
 31
0.0
  0
LINE
  5
18CCE
330
18C7A
100
AcDbEntity
  8
寸法
 48
50.0
100
AcDbLine
 10
2114.623348430647
 20
1203.752977228664
 30
0.0
 11
2025.339129835225
 21
1227.676611498152
 31
0.0
  0
LINE
  5
18CCF
330
18C7A
100
AcDbEntity
  8
寸法
 48
50.0
100
AcDbLine
 10
1895.471408254923
 20
1203.752977228664
 30
0.0
 11
2114.623348430647
 21
1203.752977228664
 31
0.0
  0
DIMENSION
  5
18CD0
330
18C7A
100
AcDbEntity
  8
寸法
 48
50.0
100
AcDbDimension
  2
*D15
 10
2588.970589276523
 20
706.3240511224249
 30
0.0
 11
1969.060022905491
 21
706.3240511224249
 31
0.0
 12
-3742.925985830444
 22
-6453.628869860112
 32
0.0
 70
   128
  1
有効開口部間口\P<>
 71
     5
 42
1266.0
  3
INABA_S40G
100
AcDbAlignedDimension
 13
1322.970589276523
 23
1315.494269174465
 33
0.0
 14
2588.970589276523
 24
1315.494269174465
 34
0.0
100
AcDbRotatedDimension
1001
ACAD
1000
DSTYLE
1002
{
1070
   341
1005
0
1002
}
  0
LINE
  5
18CD1
330
18C7A
100
AcDbEntity
  8
部品1
100
AcDbLine
 10
3409.970589276524
 20
1392.494269174465
 30
0.0
 11
3437.970589276523
 21
1392.494269174465
 31
0.0
  0
DIMENSION
  5
18CD2
330
18C7A
100
AcDbEntity
  8
寸法
100
AcDbDimension
  2
*D16
 10
3674.266172669749
 20
1315.494269174465
 30
0.0
 11
3674.266172669748
 21
1177.494269174462
 31
0.0
 12
-3742.925985830444
 22
-6453.628869860112
 32
0.0
 70
   128
 71
     5
 42
77.0
  3
INABA_S40
100
AcDbAlignedDimension
 13
3437.970589276523
 23
1392.494269174465
 33
0.0
 14
3436.970589276523
 24
1315.494269174465
 34
0.0
 50
90.0
100
AcDbRotatedDimension
1001
ACAD
1000
DSTYLE
1002
{
1070
    41
1040
0.5
1070
    44
1040
1.0
1070
   147
1040
0.8
1070
   271
1070
     2
1070
   272
1070
     2
1070
   289
1070
     3
1070
   340
1005
F706
1070
   343
1005
164B4
1070
   344
1005
164B4
1002
}
  0
LINE
  5
18CD3
330
18C7A
100
AcDbEntity
  8
部品1
100
AcDbLine
 10
3437.970589276523
 20
1315.494269174465
 30
0.0
 11
3437.970589276523
 21
1392.494269174465
 31
0.0
  0
LINE
  5
18CD4
330
18C7A
100
AcDbEntity
  8
部品1
100
AcDbLine
 10
3398.970589276523
 20
1388.494269174465
 30
0.0
 11
3409.970589276524
 21
1388.494269174465
 31
0.0
  0
LINE
  5
18CD5
330
18C7A
100
AcDbEntity
  8
部品1
100
AcDbLine
 10
3407.970589276523
 20
1324.494269174465
 30
0.0
 11
3407.970589276523
 21
1315.494269174465
 31
0.0
  0
LINE
  5
18CD6
330
18C7A
100
AcDbEntity
  8
部品1
100
AcDbLine
 10
3398.970589276523
 20
1324.494269174465
 30
0.0
 11
3407.970589276523
 21
1324.494269174465
 31
0.0
  0
LINE
  5
18CD7
330
18C7A
100
AcDbEntity
  8
部品1
100
AcDbLine
 10
3398.970589276523
 20
1388.494269174465
 30
0.0
 11
3398.970589276523
 21
1324.494269174465
 31
0.0
  0
LINE
  5
18CD8
330
18C7A
100
AcDbEntity
  8
部品1
100
AcDbLine
 10
3409.970589276524
 20
1419.494269174465
 30
0.0
 11
3409.970589276524
 21
1388.494269174465
 31
0.0
  0
LINE
  5
18CD9
330
18C7A
100
AcDbEntity
  8
部品1
100
AcDbLine
 10
1322.970589276523
 20
1388.494269174465
 30
0.0
 11
1311.970589276523
 21
1388.494269174465
 31
0.0
  0
LINE
  5
18CDA
330
18C7A
100
AcDbEntity
  8
部品1
100
AcDbLine
 10
1283.970589276523
 20
1392.494269174465
 30
0.0
 11
1311.970589276523
 21
1392.494269174465
 31
0.0
  0
LINE
  5
18CDB
330
18C7A
100
AcDbEntity
  8
部品1
100
AcDbLine
 10
1313.970589276523
 20
1324.494269174465
 30
0.0
 11
1313.970589276523
 21
1315.494269174465
 31
0.0
  0
LINE
  5
18CDC
330
18C7A
100
AcDbEntity
  8
部品1
100
AcDbLine
 10
1322.970589276523
 20
1324.494269174465
 30
0.0
 11
1313.970589276523
 21
1324.494269174465
 31
0.0
  0
LINE
  5
18CDD
330
18C7A
100
AcDbEntity
  8
部品1
100
AcDbLine
 10
1313.970589276523
 20
1315.494269174465
 30
0.0
 11
1283.970589276523
 21
1315.494269174465
 31
0.0
  0
LINE
  5
18CDE
330
18C7A
100
AcDbEntity
  8
部品1
100
AcDbLine
 10
1283.970589276523
 20
1315.494269174465
 30
0.0
 11
1283.970589276523
 21
1392.494269174465
 31
0.0
  0
LINE
  5
18CDF
330
18C7A
100
AcDbEntity
  8
部品1
100
AcDbLine
 10
1322.970589276523
 20
1388.494269174465
 30
0.0
 11
1322.970589276523
 21
1324.494269174465
 31
0.0
  0
LINE
  5
18CE0
330
18C7A
100
AcDbEntity
  8
部品1
100
AcDbLine
 10
1311.970589276523
 20
1419.494269174462
 30
0.0
 11
1311.970589276523
 21
1388.494269174465
 31
0.0
  0
LINE
  5
18CE1
330
18C7A
100
AcDbEntity
  8
部品1
100
AcDbLine
 10
1311.970589276523
 20
1419.494269174462
 30
0.0
 11
3409.970589276524
 21
1419.494269174465
 31
0.0
  0
LINE
  5
18CE2
330
18C7A
100
AcDbEntity
  8
部品1
100
AcDbLine
 10
3407.970589276523
 20
1315.494269174465
 30
0.0
 11
3437.970589276523
 21
1315.494269174465
 31
0.0
  0
LINE
  5
18CE3
330
18C7A
100
AcDbEntity
  8
部品1
100
AcDbLine
 10
1313.970589276523
 20
1315.494269174465
 30
0.0
 11
3410.970589276523
 21
1315.494269174465
 31
0.0
  0
LINE
  5
18CE4
330
18C7A
100
AcDbEntity
  8
細線
  6
Continuous
 62
     5
100
AcDbLine
 10
2689.970589276527
 20
1354.494269174462
 30
0.0
 11
2689.970589276527
 21
1354.494269174462
 31
0.0
  0
LINE
  5
18CE5
330
18C7A
100
AcDbEntity
  8
細線
  6
Continuous
 62
     5
100
AcDbLine
 10
2682.470589276527
 20
1354.494269174462
 30
0.0
 11
2682.470589276527
 21
1354.494269174462
 31
0.0
  0
LINE
  5
18CE6
330
18C7A
100
AcDbEntity
  8
細線
  6
Continuous
 62
     5
100
AcDbLine
 10
2676.470589276527
 20
1354.494269174462
 30
0.0
 11
2676.470589276527
 21
1354.494269174462
 31
0.0
  0
LINE
  5
18CE7
330
18C7A
100
AcDbEntity
  8
細線
  6
Continuous
 62
     5
100
AcDbLine
 10
2743.970589276527
 20
1373.494269174462
 30
0.0
 11
2743.970589276527
 21
1373.494269174462
 31
0.0
  0
LINE
  5
18CE8
330
18C7A
100
AcDbEntity
  8
細線
 48
50.0
100
AcDbLine
 10
1336.970593930116
 20
1341.094443351418
 30
0.0
 11
1336.970593930113
 21
1349.490593759059
 31
0.0
  0
LINE
  5
18CE9
330
18C7A
100
AcDbEntity
  8
細線
 48
50.0
100
AcDbLine
 10
1336.970593930113
 20
1349.490593759059
 30
0.0
 11
1322.970589276523
 21
1349.490593759057
 31
0.0
  0
LINE
  5
18CEA
330
18C7A
100
AcDbEntity
  8
細線
 48
50.0
100
AcDbLine
 10
2087.970593930113
 20
1337.644443351419
 30
0.0
 11
2087.970593930113
 21
1342.494443351421
 31
0.0
  0
LINE
  5
18CEB
330
18C7A
100
AcDbEntity
  8
細線
 48
50.0
100
AcDbLine
 10
2087.970593930113
 20
1342.494443351421
 30
0.0
 11
2102.970593930113
 21
1342.494443351421
 31
0.0
  0
LINE
  5
18CEC
330
18C7A
100
AcDbEntity
  8
細線
 48
50.0
100
AcDbLine
 10
2102.970593930113
 20
1342.494443351421
 30
0.0
 11
2102.970593930115
 21
1349.494443351419
 31
0.0
  0
LINE
  5
18CED
330
18C7A
100
AcDbEntity
  8
細線
 48
50.0
100
AcDbLine
 10
2102.970593930115
 20
1349.494443351419
 30
0.0
 11
2117.970593930113
 21
1349.494443351419
 31
0.0
  0
LINE
  5
18CEE
330
18C7A
100
AcDbEntity
  8
細線
 48
50.0
100
AcDbLine
 10
2117.970593930113
 20
1349.494443351419
 30
0.0
 11
2117.970593930113
 21
1320.494443351421
 31
0.0
  0
LINE
  5
18CEF
330
18C7A
100
AcDbEntity
  8
細線
 48
50.0
100
AcDbLine
 10
1313.970589276523
 20
1320.491777694889
 30
0.0
 11
1527.970593930113
 21
1320.494460905133
 31
0.0
  0
LINE
  5
18CF0
330
18C7A
100
AcDbEntity
  8
細線
 48
50.0
100
AcDbLine
 10
2017.970593930113
 20
1320.494443351421
 30
0.0
 11
2117.970593930113
 21
1320.494443351421
 31
0.0
  0
LINE
  5
18CF1
330
18C7A
100
AcDbEntity
  8
細線
 48
50.0
100
AcDbLine
 10
1737.970593930113
 20
1320.494443351419
 30
0.0
 11
1807.970593930113
 21
1320.494443351423
 31
0.0
  0
LINE
  5
18CF2
330
18C7A
100
AcDbEntity
  8
細線
 48
50.0
100
AcDbLine
 10
1750.832558942642
 20
1320.494443351419
 30
0.0
 11
1756.588076525309
 21
1338.765294641913
 31
0.0
  0
LINE
  5
18CF3
330
18C7A
100
AcDbEntity
  8
細線
 48
50.0
100
AcDbLine
 10
1756.588076525309
 20
1338.765294641913
 30
0.0
 11
1767.516525005743
 21
1338.765294641911
 31
0.0
  0
ARC
  5
18CF4
330
18C7A
100
AcDbEntity
  8
細線
 48
50.0
100
AcDbCircle
 10
1767.516525005743
 20
1337.765294641911
 30
0.0
 40
1.0
100
AcDbArc
 50
24.62431835207225
 51
90.0
  0
ARC
  5
18CF5
330
18C7A
100
AcDbEntity
  8
細線
 48
50.0
100
AcDbCircle
 10
1778.425237120377
 20
1337.765294641911
 30
0.0
 40
1.0
100
AcDbArc
 50
90.0
 51
155.3756816479277
  0
ARC
  5
18CF6
330
18C7A
100
AcDbEntity
  8
細線
 48
50.0
100
AcDbCircle
 10
1772.970881063058
 20
1340.265294641911
 30
0.0
 40
5.0
100
AcDbArc
 50
204.6243183520723
 51
335.3756816479278
  0
LINE
  5
18CF7
330
18C7A
100
AcDbEntity
  8
細線
 48
50.0
100
AcDbLine
 10
1778.425237120377
 20
1338.765294641911
 30
0.0
 11
1789.35368560081
 21
1338.765294641913
 31
0.0
  0
LINE
  5
18CF8
330
18C7A
100
AcDbEntity
  8
細線
 48
50.0
100
AcDbLine
 10
1789.35368560081
 20
1338.765294641913
 30
0.0
 11
1795.109203183478
 21
1320.494443351423
 31
0.0
  0
LINE
  5
18CF9
330
18C7A
100
AcDbEntity
  8
細線
 48
50.0
100
AcDbLine
 10
2087.970593930113
 20
1341.094443351419
 30
0.0
 11
1336.970593930116
 21
1341.094443351418
 31
0.0
  0
LINE
  5
18CFA
330
18C7A
100
AcDbEntity
  8
細線
 48
50.0
100
AcDbLine
 10
1947.970593930113
 20
1320.494443351421
 30
0.0
 11
1877.970593930113
 21
1320.494443351421
 31
0.0
  0
LINE
  5
18CFB
330
18C7A
100
AcDbEntity
  8
細線
100
AcDbLine
 10
1667.970593930113
 20
1320.494443351421
 30
0.0
 11
1597.970602115529
 21
1320.494443351421
 31
0.0
  0
LINE
  5
18CFC
330
18C7A
100
AcDbEntity
  8
細線
 48
50.0
100
AcDbLine
 10
2741.970584622936
 20
1375.094487209288
 30
0.0
 11
2106.970593930113
 21
1375.094487209284
 31
0.0
  0
LINE
  5
18CFD
330
18C7A
100
AcDbEntity
  8
細線
 48
50.0
100
AcDbLine
 10
2106.970593930113
 20
1371.990637616925
 30
0.0
 11
2106.970593930113
 21
1376.490637616925
 31
0.0
  0
LINE
  5
18CFE
330
18C7A
100
AcDbEntity
  8
細線
 48
50.0
100
AcDbLine
 10
2106.970593930113
 20
1376.490637616925
 30
0.0
 11
2091.970593930113
 21
1376.490637616925
 31
0.0
  0
LINE
  5
18CFF
330
18C7A
100
AcDbEntity
  8
細線
 48
50.0
100
AcDbLine
 10
2091.970593930113
 20
1376.490637616925
 30
0.0
 11
2091.970593930113
 21
1383.490637616927
 31
0.0
  0
LINE
  5
18D00
330
18C7A
100
AcDbEntity
  8
細線
 48
50.0
100
AcDbLine
 10
2091.970593930113
 20
1383.490637616927
 30
0.0
 11
2076.970593930115
 21
1383.490637616924
 31
0.0
  0
LINE
  5
18D01
330
18C7A
100
AcDbEntity
  8
細線
 48
50.0
100
AcDbLine
 10
2076.970593930115
 20
1383.490637616924
 30
0.0
 11
2076.970593930115
 21
1345.890409513813
 31
0.0
  0
LINE
  5
18D02
330
18C7A
100
AcDbEntity
  8
細線
 48
50.0
100
AcDbLine
 10
2076.970593930115
 20
1345.890409513813
 30
0.0
 11
2096.970601231289
 21
1345.890451063353
 31
0.0
  0
LINE
  5
18D03
330
18C7A
100
AcDbEntity
  8
細線
 48
50.0
100
AcDbLine
 10
2096.970556362348
 20
1354.493912699161
 30
0.0
 11
2096.970601231289
 21
1345.890451063353
 31
0.0
  0
LINE
  5
18D04
330
18C7A
100
AcDbEntity
  8
細線
 48
50.0
100
AcDbLine
 10
2741.970584622936
 20
1371.644487209287
 30
0.0
 11
2741.970584622936
 21
1376.494487209284
 31
0.0
  0
LINE
  5
18D05
330
18C7A
100
AcDbEntity
  8
細線
 48
50.0
100
AcDbLine
 10
2741.970584622936
 20
1376.494487209284
 30
0.0
 11
2756.970584622934
 21
1376.494487209285
 31
0.0
  0
LINE
  5
18D06
330
18C7A
100
AcDbEntity
  8
細線
 48
50.0
100
AcDbLine
 10
2756.970584622934
 20
1376.494487209285
 30
0.0
 11
2756.970596256909
 21
1383.494487209331
 31
0.0
  0
LINE
  5
18D07
330
18C7A
100
AcDbEntity
  8
細線
 48
50.0
100
AcDbLine
 10
2756.970596256909
 20
1383.494487209331
 30
0.0
 11
2771.970594427439
 21
1383.494487209329
 31
0.0
  0
LINE
  5
18D08
330
18C7A
100
AcDbEntity
  8
細線
 48
50.0
100
AcDbLine
 10
2771.970594427439
 20
1383.494487209329
 30
0.0
 11
2771.970584125617
 21
1354.494281037055
 31
0.0
  0
LINE
  5
18D09
330
18C7A
100
AcDbEntity
  8
細線
 48
50.0
100
AcDbLine
 10
2458.070304175992
 20
1354.494278397076
 30
0.0
 11
2389.470863838818
 21
1354.494283787084
 31
0.0
  0
LINE
  5
18D0A
330
18C7A
100
AcDbEntity
  8
細線
 48
50.0
100
AcDbLine
 10
2096.970556362348
 20
1354.493912699161
 30
0.0
 11
2108.203245717057
 21
1354.494095652309
 31
0.0
  0
ARC
  5
18D0B
330
18C7A
100
AcDbEntity
  8
細線
 48
50.0
100
AcDbCircle
 10
2114.785538024393
 20
1353.294259565922
 30
0.0
 40
1.8
100
AcDbArc
 50
270.0006665777295
 51
345.000555481349
  0
LINE
  5
18D0C
330
18C7A
100
AcDbEntity
  8
細線
 48
50.0
100
AcDbLine
 10
2116.771971470473
 20
1353.753100023201
 30
0.0
 11
2116.524209028273
 21
1352.828402141094
 31
0.0
  0
LINE
  5
18D0D
330
18C7A
100
AcDbEntity
  8
細線
 48
50.0
100
AcDbLine
 10
2114.785558965548
 20
1351.494259566043
 30
0.0
 11
2111.155631546781
 21
1351.494217335563
 31
0.0
  0
ARC
  5
18D0E
330
18C7A
100
AcDbEntity
  8
細線
 48
50.0
100
AcDbCircle
 10
2111.155610605627
 20
1353.29421733544
 30
0.0
 40
1.8
100
AcDbArc
 50
195.0010443049965
 51
270.0006665777295
  0
LINE
  5
18D0F
330
18C7A
100
AcDbEntity
  8
細線
 48
50.0
100
AcDbLine
 10
2109.169183113368
 20
1353.752932303007
 30
0.0
 11
2109.416952609882
 21
1352.828311364425
 31
0.0
  0
ARC
  5
18D10
330
18C7A
100
AcDbEntity
  8
細線
 48
50.0
100
AcDbCircle
 10
2108.203262004622
 20
1353.494095652444
 30
0.0
 40
1.0
100
AcDbArc
 50
15.00104430499651
 51
90.00093320877969
  0
LINE
  5
18D11
330
18C7A
100
AcDbEntity
  8
細線
 48
50.0
100
AcDbLine
 10
2117.737892825577
 20
1354.494290342714
 30
0.0
 11
2118.679652976481
 21
1354.494296916564
 31
0.0
  0
ARC
  5
18D12
330
18C7A
100
AcDbEntity
  8
細線
 48
50.0
100
AcDbCircle
 10
2117.737899805961
 20
1353.49429034274
 30
0.0
 40
1.0
100
AcDbArc
 50
90.0003999466794
 51
165.000555481349
  0
LINE
  5
18D13
330
18C7A
100
AcDbEntity
  8
細線
 48
50.0
100
AcDbLine
 10
2669.470584622926
 20
1354.494281037055
 30
0.0
 11
2771.970584125617
 21
1354.494281037055
 31
0.0
  0
LINE
  5
18D14
330
18C7A
100
AcDbEntity
  8
細線
 48
50.0
100
AcDbLine
 10
2179.47061994182
 20
1354.494289224422
 30
0.0
 11
2118.370558714898
 21
1354.494296916564
 31
0.0
  0
LINE
  5
18D15
330
18C7A
100
AcDbEntity
  8
細線
 48
50.0
100
AcDbLine
 10
2599.470584622926
 20
1354.494281037057
 30
0.0
 11
2529.470584622926
 21
1354.494281037055
 31
0.0
  0
LINE
  5
18D16
330
18C7A
100
AcDbEntity
  8
細線
 48
50.0
100
AcDbLine
 10
2319.470584622926
 20
1354.494281037054
 30
0.0
 11
2249.470567335051
 21
1354.494281037057
 31
0.0
  0
ARC
  5
18D17
330
18C7A
100
AcDbEntity
  8
細線
 48
50.0
100
AcDbCircle
 10
2756.170589276533
 20
1387.694269174466
 30
0.0
 40
0.8
100
AcDbArc
 50
359.9997333689499
 51
89.99986668437072
  0
ARC
  5
18D18
330
18C7A
100
AcDbEntity
  8
細線
 48
50.0
100
AcDbCircle
 10
2763.770596101631
 20
1387.694280343081
 30
0.0
 40
0.8
100
AcDbArc
 50
90.00014387753465
 51
179.9997333689498
  0
LINE
  5
18D19
330
18C7A
100
AcDbEntity
  8
細線
 48
50.0
100
AcDbLine
 10
2756.170591137969
 20
1388.494269174465
 30
0.0
 11
2750.970589276525
 21
1388.494269174465
 31
0.0
  0
ARC
  5
18D1A
330
18C7A
100
AcDbEntity
  8
細線
 48
50.0
100
AcDbCircle
 10
2757.670589276524
 20
1386.194269174464
 30
0.0
 40
0.7
100
AcDbArc
 50
180.0
 51
270.0
  0
ARC
  5
18D1B
330
18C7A
100
AcDbEntity
  8
細線
 48
50.0
100
AcDbCircle
 10
2762.270589276524
 20
1386.194269174464
 30
0.0
 40
0.7
100
AcDbArc
 50
270.0
 51
0.0
  0
LINE
  5
18D1C
330
18C7A
100
AcDbEntity
  8
細線
 48
50.0
100
AcDbLine
 10
2762.970589276525
 20
1386.194269174464
 30
0.0
 11
2762.970596101639
 21
1387.694284065954
 31
0.0
  0
LINE
  5
18D1D
330
18C7A
100
AcDbEntity
  8
細線
 48
50.0
100
AcDbLine
 10
2757.670589276524
 20
1385.494269174465
 30
0.0
 11
2762.270589276524
 21
1385.494269174465
 31
0.0
  0
LINE
  5
18D1E
330
18C7A
100
AcDbEntity
  8
細線
 48
50.0
100
AcDbLine
 10
2756.970589276525
 20
1387.694269174466
 30
0.0
 11
2756.970589276525
 21
1386.194269174464
 31
0.0
  0
LINE
  5
18D1F
330
18C7A
100
AcDbEntity
  8
細線
 48
50.0
100
AcDbLine
 10
3382.570589276527
 20
1418.494269174465
 30
0.0
 11
2745.970589276525
 21
1418.494269174463
 31
0.0
  0
LINE
  5
18D20
330
18C7A
100
AcDbEntity
  8
細線
 48
50.0
100
AcDbLine
 10
3408.470589276525
 20
1413.494269174467
 30
0.0
 11
3392.570589276527
 21
1413.494269174465
 31
0.0
  0
LINE
  5
18D21
330
18C7A
100
AcDbEntity
  8
細線
 48
50.0
100
AcDbLine
 10
3392.570589276526
 20
1413.494269174465
 30
0.0
 11
3382.570589276527
 21
1418.494269174465
 31
0.0
  0
LINE
  5
18D22
330
18C7A
100
AcDbEntity
  8
細線
100
AcDbLine
 10
2993.470589276525
 20
1388.494269174465
 30
0.0
 11
2993.470589276525
 21
1417.794269174464
 31
0.0
  0
LINE
  5
18D23
330
18C7A
100
AcDbEntity
  8
細線
100
AcDbLine
 10
2993.470589276525
 20
1417.794269174464
 30
0.0
 11
3013.470589276525
 21
1417.794269174464
 31
0.0
  0
LINE
  5
18D24
330
18C7A
100
AcDbEntity
  8
細線
100
AcDbLine
 10
3013.470589276525
 20
1388.494269174465
 30
0.0
 11
3013.470589276525
 21
1417.794269174464
 31
0.0
  0
LINE
  5
18D25
330
18C7A
100
AcDbEntity
  8
細線
100
AcDbLine
 10
3170.720589276524
 20
1388.494269174465
 30
0.0
 11
3100.720589276523
 21
1388.494269174465
 31
0.0
  0
LINE
  5
18D26
330
18C7A
100
AcDbEntity
  8
細線
 48
50.0
100
AcDbLine
 10
2890.720589276525
 20
1388.494269174465
 30
0.0
 11
2763.766368849365
 21
1388.494269174465
 31
0.0
  0
LINE
  5
18D27
330
18C7A
100
AcDbEntity
  8
細線
100
AcDbLine
 10
3030.720589276525
 20
1388.494269174465
 30
0.0
 11
2960.720589276525
 21
1388.494269174465
 31
0.0
  0
LINE
  5
18D28
330
18C7A
100
AcDbEntity
  8
細線
 48
50.0
100
AcDbLine
 10
2750.970589276525
 20
1380.494269174465
 30
0.0
 11
2750.970589276525
 21
1388.494269174465
 31
0.0
  0
LINE
  5
18D29
330
18C7A
100
AcDbEntity
  8
細線
 48
50.0
100
AcDbLine
 10
2730.970589276524
 20
1380.494269174467
 30
0.0
 11
2750.970589276525
 21
1380.494269174465
 31
0.0
  0
LINE
  5
18D2A
330
18C7A
100
AcDbEntity
  8
細線
 48
50.0
100
AcDbLine
 10
2745.970589276525
 20
1418.494269174465
 30
0.0
 11
2745.970589276525
 21
1413.494269174465
 31
0.0
  0
LINE
  5
18D2B
330
18C7A
100
AcDbEntity
  8
細線
 48
50.0
100
AcDbLine
 10
2730.970589276525
 20
1418.494269174463
 30
0.0
 11
2745.970589276525
 21
1418.494269174465
 31
0.0
  0
LINE
  5
18D2C
330
18C7A
100
AcDbEntity
  8
細線
 48
50.0
100
AcDbLine
 10
2730.970589276524
 20
1380.494269174467
 30
0.0
 11
2730.970589276525
 21
1418.494269174463
 31
0.0
  0
LINE
  5
18D2D
330
18C7A
100
AcDbEntity
  8
細線
100
AcDbLine
 10
3398.970589276523
 20
1388.494269174465
 30
0.0
 11
3240.720589276525
 21
1388.494269174465
 31
0.0
  0
LINE
  5
18D2E
330
18C7A
100
AcDbEntity
  8
細線
 48
50.0
100
AcDbLine
 10
3408.470589276525
 20
1413.494269174467
 30
0.0
 11
3408.470589276524
 21
1388.494269174465
 31
0.0
  0
TEXT
  5
18D2F
330
18C7A
100
AcDbEntity
  8
部品1
100
AcDbText
 10
1860.154865991392
 20
46.99880823813145
 30
0.0
 40
135.0
  1
平面図
  7
STYLE2
100
AcDbText
  0
LWPOLYLINE
  5
18D30
330
18C7A
100
AcDbEntity
  8
部品1
100
AcDbPolyline
 90
        4
 70
     1
 43
0.0
 10
1770.23525616235
 20
239.8923374566548
 10
1770.23525616235
 20
0.0000159111223184
 10
2533.705922390791
 20
0.0000159111223184
 10
2533.705922390791
 20
239.8923374566548
  0
LINE
  5
18D31
330
18C7A
100
AcDbEntity
  8
部品1
100
AcDbLine
 10
1534.470589276487
 20
3154.494269174626
 30
0.0
 11
2769.470589276552
 21
3154.494269174626
 31
0.0
  0
LINE
  5
18D32
330
18C7A
100
AcDbEntity
  8
部品1
 48
50.0
100
AcDbLine
 10
1311.970589276523
 20
1420.494269174462
 30
0.0
 11
3411.970589276523
 21
1420.494269174465
 31
0.0
  0
LINE
  5
18D33
330
18C7A
100
AcDbEntity
  8
部品1
 48
50.0
100
AcDbLine
 10
471.9705892765232
 20
1392.494269174465
 30
0.0
 11
1311.970589276523
 21
1392.494269174465
 31
0.0
  0
DIMENSION
  5
18D34
330
18C7A
100
AcDbEntity
  8
寸法
100
AcDbDimension
  2
*D14
 10
2710.234916278077
 20
2488.887829538828
 30
0.0
 11
2338.318822490183
 21
2488.887829538828
 31
0.0
 12
-3742.925985830444
 22
-6453.628869860112
 32
0.0
 70
   128
 71
     5
 42
1231.00000000007
  3
INABA_S40G
100
AcDbAlignedDimension
 13
1536.470589276486
 23
2702.494269174557
 33
0.0
 14
2767.470589276556
 24
2702.494269174549
 34
0.0
100
AcDbRotatedDimension
1001
ACAD
1000
DSTYLE
1002
{
1002
}
  0
LINE
  5
18D35
330
18C7A
100
AcDbEntity
  8
部品1
100
AcDbLine
 10
1536.470589276487
 20
2702.494269174557
 30
0.0
 11
2767.470589276554
 21
2702.494269174615
 31
0.0
  0
LINE
  5
18D36
330
18C7A
100
AcDbEntity
  8
部品1
100
AcDbLine
 10
1536.470589276487
 20
3152.494269174557
 30
0.0
 11
2767.470589276556
 21
3152.494269174615
 31
0.0
  0
LINE
  5
18D37
330
18C7A
100
AcDbEntity
  8
細線
 48
50.0
100
AcDbLine
 10
1508.470589276487
 20
3152.494269174558
 30
0.0
 11
445.4705892765559
 21
2702.494269174509
 31
0.0
  0
LINE
  5
18D38
330
18C7A
100
AcDbEntity
  8
細線
 48
50.0
100
AcDbLine
 10
1508.470589276487
 20
2702.494269174558
 30
0.0
 11
445.4705892765542
 21
3152.494269174509
 31
0.0
  0
LINE
  5
18D39
330
18C7A
100
AcDbEntity
  8
部品1
100
AcDbLine
 10
1556.970589276487
 20
3172.494269174611
 30
0.0
 11
1556.970589276487
 21
3154.494269174611
 31
0.0
  0
LINE
  5
18D3A
330
18C7A
100
AcDbEntity
  8
部品1
100
AcDbLine
 10
1556.970589276487
 20
3172.494269174611
 30
0.0
 11
1550.970589276487
 21
3172.494269174611
 31
0.0
  0
LINE
  5
18D3B
330
18C7A
100
AcDbEntity
  8
部品1
100
AcDbLine
 10
1534.470589276487
 20
3146.494269174608
 30
0.0
 11
1509.470589276487
 21
3146.494269174611
 31
0.0
  0
LINE
  5
18D3C
330
18C7A
100
AcDbEntity
  8
部品1
100
AcDbLine
 10
1486.970589276487
 20
3172.494269174611
 30
0.0
 11
1486.970589276487
 21
3154.494269174611
 31
0.0
  0
LINE
  5
18D3D
330
18C7A
100
AcDbEntity
  8
部品1
100
AcDbLine
 10
1492.970589276487
 20
3172.494269174611
 30
0.0
 11
1486.970589276487
 21
3172.494269174611
 31
0.0
  0
LINE
  5
18D3E
330
18C7A
100
AcDbEntity
  8
部品1
100
AcDbLine
 10
1534.470589276487
 20
2702.494269174615
 30
0.0
 11
1509.470589276487
 21
2702.494269174615
 31
0.0
  0
LINE
  5
18D3F
330
18C7A
100
AcDbEntity
  8
部品1
 48
50.0
100
AcDbLine
 10
1536.470589276487
 20
3152.494269174611
 30
0.0
 11
1536.470589276487
 21
2702.494269174615
 31
0.0
  0
LINE
  5
18D40
330
18C7A
100
AcDbEntity
  8
部品1
 48
50.0
100
AcDbLine
 10
1508.470589276487
 20
3152.494269174607
 30
0.0
 11
1508.470589276487
 21
2702.494269174615
 31
0.0
  0
LINE
  5
18D41
330
18C7A
100
AcDbEntity
  8
部品1
 48
50.0
100
AcDbLine
 10
1534.470589276487
 20
3154.494269174618
 30
0.0
 11
1534.470589276487
 21
2702.494269174615
 31
0.0
  0
LINE
  5
18D42
330
18C7A
100
AcDbEntity
  8
部品1
 48
50.0
100
AcDbLine
 10
1509.470589276487
 20
3154.494269174615
 30
0.0
 11
1509.470589276487
 21
2702.494269174615
 31
0.0
  0
LINE
  5
18D43
330
18C7A
100
AcDbEntity
  8
部品1
100
AcDbLine
 10
3411.970589276556
 20
1392.494269174582
 30
0.0
 11
3411.970589276556
 21
1420.494269174596
 31
0.0
  0
LINE
  5
18D44
330
18C7A
100
AcDbEntity
  8
部品1
100
AcDbLine
 10
1311.970589276523
 20
1392.494269174596
 30
0.0
 11
1311.970589276523
 21
1420.494269174596
 31
0.0
  0
LINE
  5
18D45
330
18C7A
100
AcDbEntity
  8
部品1
100
AcDbLine
 10
891.9705892765232
 20
1392.494269174596
 30
0.0
 11
891.9705892765232
 21
1420.494269174596
 31
0.0
  0
LINE
  5
18D46
330
18C7A
100
AcDbEntity
  8
部品1
100
AcDbLine
 10
3411.97058927652
 20
3182.494269174477
 30
0.0
 11
3411.970589276523
 21
3154.494269174477
 31
0.0
  0
LINE
  5
18D47
330
18C7A
100
AcDbEntity
  8
部品1
100
AcDbLine
 10
2571.97058927652
 20
3182.494269174477
 30
0.0
 11
2571.970589276523
 21
3154.494269174477
 31
0.0
  0
LINE
  5
18D48
330
18C7A
100
AcDbEntity
  8
部品1
100
AcDbLine
 10
2991.97058927652
 20
3182.494269174477
 30
0.0
 11
2991.970589276523
 21
3154.494269174477
 31
0.0
  0
LINE
  5
18D49
330
18C7A
100
AcDbEntity
  8
部品1
100
AcDbLine
 10
2151.970589276519
 20
3182.494269174477
 30
0.0
 11
2151.970589276523
 21
3154.494269174477
 31
0.0
  0
LINE
  5
18D4A
330
18C7A
100
AcDbEntity
  8
部品1
100
AcDbLine
 10
1731.970589276519
 20
3182.494269174477
 30
0.0
 11
1731.970589276523
 21
3154.494269174477
 31
0.0
  0
LINE
  5
18D4B
330
18C7A
100
AcDbEntity
  8
部品1
100
AcDbLine
 10
1311.970589276519
 20
3182.494269174477
 30
0.0
 11
1311.970589276523
 21
3154.494269174477
 31
0.0
  0
LINE
  5
18D4C
330
18C7A
100
AcDbEntity
  8
部品1
100
AcDbLine
 10
891.9705892765195
 20
3182.494269174477
 30
0.0
 11
891.9705892765232
 21
3154.494269174477
 31
0.0
  0
LINE
  5
18D4D
330
18C7A
100
AcDbEntity
  8
部品1
100
AcDbLine
 10
471.9705892765232
 20
1392.494269174596
 30
0.0
 11
471.9705892765232
 21
1420.494269174596
 31
0.0
  0
LINE
  5
18D4E
330
18C7A
100
AcDbEntity
  8
部品1
100
AcDbLine
 10
444.9705892765305
 20
1420.494269174558
 30
0.0
 11
3858.970589276556
 21
1420.494269174596
 31
0.0
  0
LINE
  5
18D4F
330
18C7A
100
AcDbEntity
  8
部品1
100
AcDbLine
 10
3831.970589276556
 20
1392.494269174596
 30
0.0
 11
3831.970589276556
 21
1420.494269174596
 31
0.0
  0
LINE
  5
18D50
330
18C7A
100
AcDbEntity
  8
部品1
100
AcDbLine
 10
3858.970589276556
 20
1447.494269174593
 30
0.0
 11
3886.970589276556
 21
1447.494269174593
 31
0.0
  0
LINE
  5
18D51
330
18C7A
100
AcDbEntity
  8
部品1
100
AcDbLine
 10
3858.970589276556
 20
1867.494269174607
 30
0.0
 11
3886.970589276556
 21
1867.494269174607
 31
0.0
  0
LINE
  5
18D52
330
18C7A
100
AcDbEntity
  8
部品1
100
AcDbLine
 10
444.9705892765305
 20
1867.49426917448
 30
0.0
 11
416.9705892765305
 21
1867.49426917448
 31
0.0
  0
LINE
  5
18D53
330
18C7A
100
AcDbEntity
  8
部品1
100
AcDbLine
 10
3830.470589276541
 20
1867.49426917458
 30
0.0
 11
473.4705892765396
 21
1867.49426917448
 31
0.0
  0
LINE
  5
18D54
330
18C7A
100
AcDbEntity
  8
部品1
100
AcDbLine
 10
3830.470589276541
 20
2287.49426917458
 30
0.0
 11
473.4705892765396
 21
2287.49426917448
 31
0.0
  0
LINE
  5
18D55
330
18C7A
100
AcDbEntity
  8
部品1
100
AcDbLine
 10
444.9705892765305
 20
2287.49426917448
 30
0.0
 11
416.9705892765305
 21
2287.49426917448
 31
0.0
  0
LINE
  5
18D56
330
18C7A
100
AcDbEntity
  8
部品1
100
AcDbLine
 10
3858.970589276556
 20
2287.494269174608
 30
0.0
 11
3886.970589276556
 21
2287.494269174608
 31
0.0
  0
LINE
  5
18D57
330
18C7A
100
AcDbEntity
  8
部品1
 48
50.0
100
AcDbLine
 10
2151.970589276551
 20
2702.494269174586
 30
0.0
 11
2151.970589276581
 21
1448.994269174494
 31
0.0
  0
LINE
  5
18D58
330
18C7A
100
AcDbEntity
  8
破線
 48
10.0
100
AcDbLine
 10
2959.470589276535
 20
1472.494269174522
 30
0.0
 11
2176.970589276532
 21
1472.494269174505
 31
0.0
  0
LINE
  5
18D59
330
18C7A
100
AcDbEntity
  8
破線
 48
10.0
100
AcDbLine
 10
3009.47058927653
 20
1448.994269174509
 30
0.0
 11
3009.47058927653
 21
2702.494269174615
 31
0.0
  0
LINE
  5
18D5A
330
18C7A
100
AcDbEntity
  8
破線
 48
10.0
100
AcDbLine
 10
2959.470589276535
 20
1448.994269174505
 30
0.0
 11
2959.470589276531
 21
2702.494269174615
 31
0.0
  0
LINE
  5
18D5B
330
18C7A
100
AcDbEntity
  8
破線
 48
10.0
100
AcDbLine
 10
1344.47058927653
 20
1448.994269174509
 30
0.0
 11
1344.47058927653
 21
2702.494269174615
 31
0.0
  0
LINE
  5
18D5C
330
18C7A
100
AcDbEntity
  8
破線
 48
10.0
100
AcDbLine
 10
1294.470589276534
 20
1448.994269174505
 30
0.0
 11
1294.47058927653
 21
2702.494269174615
 31
0.0
  0
DIMENSION
  5
18D5D
330
18C7A
100
AcDbEntity
  8
寸法
100
AcDbDimension
  2
*D13
 10
1451.234916278005
 20
2488.887829538828
 30
0.0
 11
916.0604668248634
 21
2488.887829538828
 31
0.0
 12
-3742.925985830444
 22
-6453.628869860112
 32
0.0
 70
   128
 71
     5
 42
1062.99999999993
  3
INABA_S40G
100
AcDbAlignedDimension
 13
445.4705892765559
 23
2702.494269174505
 33
0.0
 14
1508.470589276486
 24
2702.494269174558
 34
0.0
100
AcDbRotatedDimension
1001
ACAD
1000
DSTYLE
1002
{
1002
}
  0
LINE
  5
18D5E
330
18C7A
100
AcDbEntity
  8
破線
 48
10.0
100
AcDbLine
 10
1294.470589276534
 20
1472.494269174469
 30
0.0
 11
496.9705892765414
 21
1472.494269174476
 31
0.0
  0
LINE
  5
18D5F
330
18C7A
100
AcDbEntity
  8
部品1
100
AcDbLine
 10
3831.970589276556
 20
3182.494269174604
 30
0.0
 11
3831.970589276556
 21
3154.494269174604
 31
0.0
  0
LINE
  5
18D60
330
18C7A
100
AcDbEntity
  8
部品1
100
AcDbLine
 10
3831.970589276556
 20
3182.494269174626
 30
0.0
 11
3831.970589276556
 21
3154.494269174626
 31
0.0
  0
LINE
  5
18D61
330
18C7A
100
AcDbEntity
  8
部品1
100
AcDbLine
 10
3858.970589276556
 20
3127.494269174607
 30
0.0
 11
3886.970589276556
 21
3127.494269174607
 31
0.0
  0
LINE
  5
18D62
330
18C7A
100
AcDbEntity
  8
部品1
100
AcDbLine
 10
3858.970589276556
 20
2707.494269174608
 30
0.0
 11
3886.970589276556
 21
2707.494269174608
 31
0.0
  0
LINE
  5
18D63
330
18C7A
100
AcDbEntity
  8
部品1
100
AcDbLine
 10
3858.470589276556
 20
3152.494269174604
 30
0.0
 11
3858.470589276556
 21
2702.494269174608
 31
0.0
  0
LINE
  5
18D64
330
18C7A
100
AcDbEntity
  8
部品1
100
AcDbLine
 10
3886.970589276533
 20
1447.494269174593
 30
0.0
 11
3886.970589276531
 21
1392.494269174596
 31
0.0
  0
LINE
  5
18D65
330
18C7A
100
AcDbEntity
  8
部品1
 48
50.0
100
AcDbLine
 10
3830.470589276556
 20
1448.994269174596
 30
0.0
 11
3858.970589276554
 21
1420.494269174596
 31
0.0
  0
LINE
  5
18D66
330
18C7A
100
AcDbEntity
  8
部品1
100
AcDbLine
 10
3886.970589276531
 20
1392.494269174596
 30
0.0
 11
3835.970589276531
 21
1392.494269174596
 31
0.0
  0
LINE
  5
18D67
330
18C7A
100
AcDbEntity
  8
部品1
100
AcDbLine
 10
3858.970589276533
 20
1447.494269174593
 30
0.0
 11
3886.970589276531
 21
1447.494269174593
 31
0.0
  0
LINE
  5
18D68
330
18C7A
100
AcDbEntity
  8
部品1
100
AcDbLine
 10
3886.970589276556
 20
3182.494269174604
 30
0.0
 11
3886.970589276531
 21
1392.494269174596
 31
0.0
  0
DIMENSION
  5
18D69
330
18C7A
100
AcDbEntity
  8
寸法
100
AcDbDimension
  2
*D12
 10
4534.396935010967
 20
1447.494269174593
 30
0.0
 11
4534.396935010965
 21
2287.4942691746
 31
0.0
 12
-3742.925985830444
 22
-6453.628869860112
 32
0.0
 70
   128
  1
4X420=<>
 71
     5
 42
1680.000000000014
  3
INABA_S40G
100
AcDbAlignedDimension
 13
3886.970589276556
 23
3127.494269174607
 33
0.0
 14
3886.970589276531
 24
1447.494269174593
 34
0.0
 50
90.0
100
AcDbRotatedDimension
1001
ACAD
1000
DSTYLE
1002
{
1002
}
  0
LINE
  5
18D6A
330
18C7A
100
AcDbEntity
  8
部品1
100
AcDbLine
 10
3858.970589276556
 20
3154.494269174604
 30
0.0
 11
3858.970589276534
 21
1420.494269174596
 31
0.0
  0
DIMENSION
  5
18D6B
330
18C7A
100
AcDbEntity
  8
寸法
100
AcDbDimension
  2
*D11
 10
4213.82831513858
 20
2607.276453505718
 30
0.0
 11
4113.828315138579
 21
2832.276453505718
 31
0.0
 12
-3742.925985830444
 22
-6453.628869860112
 32
0.0
 71
     5
 42
449.9999999999963
  3
INABA_S40G
100
AcDbAlignedDimension
 13
3858.470589276556
 23
3152.494269174604
 33
0.0
 14
3858.470589276556
 24
2702.494269174608
 34
0.0
 50
90.0
100
AcDbRotatedDimension
1001
ACAD
1000
DSTYLE
1002
{
1002
}
  0
LINE
  5
18D6C
330
18C7A
100
AcDbEntity
  8
部品1
100
AcDbLine
 10
3830.470589276547
 20
2702.494269174608
 30
0.0
 11
3830.470589276556
 21
1448.994269174596
 31
0.0
  0
LINE
  5
18D6D
330
18C7A
100
AcDbEntity
  8
破線
 48
10.0
100
AcDbLine
 10
3806.970589276549
 20
2702.494269174608
 30
0.0
 11
3806.970589276558
 21
1472.494269174593
 31
0.0
  0
LINE
  5
18D6E
330
18C7A
100
AcDbEntity
  8
部品1
100
AcDbLine
 10
2769.470589276556
 20
3146.494269174608
 30
0.0
 11
2794.470589276556
 21
3146.494269174611
 31
0.0
  0
LINE
  5
18D6F
330
18C7A
100
AcDbEntity
  8
部品1
100
AcDbLine
 10
2810.970589276556
 20
3172.494269174611
 30
0.0
 11
2816.970589276556
 21
3172.494269174611
 31
0.0
  0
LINE
  5
18D70
330
18C7A
100
AcDbEntity
  8
部品1
100
AcDbLine
 10
2816.970589276556
 20
3172.494269174611
 30
0.0
 11
2816.970589276556
 21
3154.494269174611
 31
0.0
  0
LINE
  5
18D71
330
18C7A
100
AcDbEntity
  8
部品1
100
AcDbLine
 10
2746.970589276556
 20
3172.494269174611
 30
0.0
 11
2752.970589276556
 21
3172.494269174611
 31
0.0
  0
LINE
  5
18D72
330
18C7A
100
AcDbEntity
  8
部品1
100
AcDbLine
 10
2746.970589276556
 20
3172.494269174611
 30
0.0
 11
2746.970589276556
 21
3154.494269174611
 31
0.0
  0
LINE
  5
18D73
330
18C7A
100
AcDbEntity
  8
部品1
100
AcDbLine
 10
2769.470589276556
 20
2702.494269174615
 30
0.0
 11
2794.470589276556
 21
2702.494269174615
 31
0.0
  0
LINE
  5
18D74
330
18C7A
100
AcDbEntity
  8
部品1
 48
50.0
100
AcDbLine
 10
2794.470589276556
 20
3154.494269174615
 30
0.0
 11
2794.470589276556
 21
2702.494269174615
 31
0.0
  0
LINE
  5
18D75
330
18C7A
100
AcDbEntity
  8
部品1
 48
50.0
100
AcDbLine
 10
2769.470589276554
 20
3154.494269174618
 30
0.0
 11
2769.470589276556
 21
2702.494269174615
 31
0.0
  0
LINE
  5
18D76
330
18C7A
100
AcDbEntity
  8
部品1
 48
50.0
100
AcDbLine
 10
2795.470589276556
 20
3152.494269174607
 30
0.0
 11
2795.470589276556
 21
2702.494269174615
 31
0.0
  0
LINE
  5
18D77
330
18C7A
100
AcDbEntity
  8
部品1
 48
50.0
100
AcDbLine
 10
2767.470589276556
 20
3152.494269174611
 30
0.0
 11
2767.470589276556
 21
2702.494269174615
 31
0.0
  0
LINE
  5
18D78
330
18C7A
100
AcDbEntity
  8
破線
 48
10.0
100
AcDbLine
 10
2176.97058927653
 20
1448.994269174509
 30
0.0
 11
2176.97058927653
 21
2702.494269174588
 31
0.0
  0
LINE
  5
18D79
330
18C7A
100
AcDbEntity
  8
破線
 48
10.0
100
AcDbLine
 10
2126.970589276534
 20
1448.994269174505
 30
0.0
 11
2126.970589276531
 21
2702.494269174586
 31
0.0
  0
LINE
  5
18D7A
330
18C7A
100
AcDbEntity
  8
部品1
100
AcDbLine
 10
2794.470589276556
 20
3154.494269174622
 30
0.0
 11
3858.970589276556
 21
3154.494269174604
 31
0.0
  0
LINE
  5
18D7B
330
18C7A
100
AcDbEntity
  8
細線
 48
50.0
100
AcDbLine
 10
3858.470589276556
 20
2702.494269174608
 30
0.0
 11
2795.470589276556
 21
3152.494269174607
 31
0.0
  0
LINE
  5
18D7C
330
18C7A
100
AcDbEntity
  8
部品1
100
AcDbLine
 10
2795.470589276555
 20
2702.494269174615
 30
0.0
 11
3858.470589276556
 21
2702.494269174608
 31
0.0
  0
LINE
  5
18D7D
330
18C7A
100
AcDbEntity
  8
部品1
100
AcDbLine
 10
2795.470589276556
 20
3152.494269174611
 30
0.0
 11
3858.470589276556
 21
3152.494269174604
 31
0.0
  0
LINE
  5
18D7E
330
18C7A
100
AcDbEntity
  8
細線
 48
50.0
100
AcDbLine
 10
3858.470589276556
 20
3152.494269174604
 30
0.0
 11
2795.470589276555
 21
2702.494269174615
 31
0.0
  0
DIMENSION
  5
18D7F
330
18C7A
100
AcDbEntity
  8
寸法
100
AcDbDimension
  2
*D10
 10
3801.234916278101
 20
2488.887829538937
 30
0.0
 11
3318.360544398907
 21
2488.887829538937
 31
0.0
 12
-3742.925985830444
 22
-6453.628869860112
 32
0.0
 70
   128
 71
     5
 42
1063.000000000012
  3
INABA_S40G
100
AcDbAlignedDimension
 13
2795.470589276555
 23
2702.494269174615
 33
0.0
 14
3858.470589276567
 24
2702.494269174608
 34
0.0
100
AcDbRotatedDimension
1001
ACAD
1000
DSTYLE
1002
{
1002
}
  0
LINE
  5
18D80
330
18C7A
100
AcDbEntity
  8
破線
 48
10.0
100
AcDbLine
 10
3806.970589276556
 20
1472.494269174594
 30
0.0
 11
3009.47058927653
 21
1472.494269174523
 31
0.0
  0
DIMENSION
  5
18D81
330
18C7A
100
AcDbEntity
  8
寸法
100
AcDbDimension
  2
*D9
 10
4534.396935010941
 20
1392.494269174596
 30
0.0
 11
4534.39693501094
 21
1084.008987800356
 31
0.0
 12
-3742.925985830444
 22
-6453.628869860112
 32
0.0
 70
   128
 71
     5
 42
54.99999999999636
  3
INABA_S40G
100
AcDbAlignedDimension
 13
3886.970589276531
 23
1447.494269174593
 33
0.0
 14
3886.970589276531
 24
1392.494269174596
 34
0.0
 50
90.0
100
AcDbRotatedDimension
1001
ACAD
1000
DSTYLE
1002
{
1002
}
  0
LINE
  5
18D82
330
18C7A
100
AcDbEntity
  8
部品1
100
AcDbLine
 10
471.9705892765196
 20
3182.494269174477
 30
0.0
 11
471.9705892765232
 21
3154.494269174477
 31
0.0
  0
LINE
  5
18D83
330
18C7A
100
AcDbEntity
  8
部品1
100
AcDbLine
 10
471.9705892765559
 20
3182.494269174509
 30
0.0
 11
471.9705892765559
 21
3154.494269174509
 31
0.0
  0
LINE
  5
18D84
330
18C7A
100
AcDbEntity
  8
部品1
100
AcDbLine
 10
444.9705892765232
 20
3127.49426917448
 30
0.0
 11
416.9705892765232
 21
3127.49426917448
 31
0.0
  0
LINE
  5
18D85
330
18C7A
100
AcDbEntity
  8
部品1
100
AcDbLine
 10
444.9705892765305
 20
2707.49426917448
 30
0.0
 11
416.9705892765305
 21
2707.49426917448
 31
0.0
  0
LINE
  5
18D86
330
18C7A
100
AcDbEntity
  8
部品1
 48
50.0
100
AcDbLine
 10
445.4705892765542
 20
3152.494269174506
 30
0.0
 11
445.4705892765559
 21
2702.494269174505
 31
0.0
  0
LINE
  5
18D87
330
18C7A
100
AcDbEntity
  8
部品1
 48
50.0
100
AcDbLine
 10
473.470589276545
 20
1448.994269174573
 30
0.0
 11
444.970589276545
 21
1420.494269174574
 31
0.0
  0
LINE
  5
18D88
330
18C7A
100
AcDbEntity
  8
部品1
100
AcDbLine
 10
471.9705892765232
 20
1392.494269174465
 30
0.0
 11
416.9705892765486
 21
1392.494269174465
 31
0.0
  0
LINE
  5
18D89
330
18C7A
100
AcDbEntity
  8
部品1
100
AcDbLine
 10
444.9705892765305
 20
1447.494269174429
 30
0.0
 11
416.9705892765469
 21
1447.494269174429
 31
0.0
  0
LINE
  5
18D8A
330
18C7A
100
AcDbEntity
  8
部品1
100
AcDbLine
 10
444.9705892765305
 20
1447.494269174465
 30
0.0
 11
416.9705892765469
 21
1447.494269174465
 31
0.0
  0
LINE
  5
18D8B
330
18C7A
100
AcDbEntity
  8
部品1
100
AcDbLine
 10
444.9705892765469
 20
1447.49426917448
 30
0.0
 11
416.9705892765469
 21
1447.49426917448
 31
0.0
  0
LINE
  5
18D8C
330
18C7A
100
AcDbEntity
  8
部品1
100
AcDbLine
 10
416.9705892765469
 20
1447.494269174429
 30
0.0
 11
416.9705892765486
 21
1392.494269174433
 31
0.0
  0
LINE
  5
18D8D
330
18C7A
100
AcDbEntity
  8
部品1
100
AcDbLine
 10
416.9705892765196
 20
3182.494269174477
 30
0.0
 11
416.9705892765486
 21
1392.494269174465
 31
0.0
  0
LINE
  5
18D8E
330
18C7A
100
AcDbEntity
  8
部品1
100
AcDbLine
 10
444.9705892765305
 20
1420.494269174556
 30
0.0
 11
444.9705892765559
 21
3154.494269174509
 31
0.0
  0
LINE
  5
18D8F
330
18C7A
100
AcDbEntity
  8
部品1
100
AcDbLine
 10
473.4705892765323
 20
2702.494269174608
 30
0.0
 11
473.470589276545
 21
1448.994269174571
 31
0.0
  0
LINE
  5
18D90
330
18C7A
100
AcDbEntity
  8
破線
 48
10.0
100
AcDbLine
 10
496.9705892765305
 20
2702.494269174608
 30
0.0
 11
496.9705892765451
 21
1472.494269174476
 31
0.0
  0
DIMENSION
  5
18D91
330
18C7A
100
AcDbEntity
  8
寸法
100
AcDbDimension
  2
*D8
 10
3886.970589276531
 20
410.7433333855515
 30
0.0
 11
2168.197775309287
 21
410.7433333855515
 31
0.0
 12
-3742.925985830444
 22
-6453.628869860112
 32
0.0
 70
   128
 71
     5
 42
3469.999999999982
  3
INABA_S40G
100
AcDbAlignedDimension
 13
416.9705892765486
 23
1392.494269174433
 33
0.0
 14
3886.970589276531
 24
1392.49426917456
 34
0.0
100
AcDbRotatedDimension
1001
ACAD
1000
DSTYLE
1002
{
1070
   341
1005
0
1002
}
  0
LINE
  5
18D92
330
18C7A
100
AcDbEntity
  8
部品1
100
AcDbLine
 10
444.9705892765559
 20
3154.494269174624
 30
0.0
 11
1509.470589276487
 21
3154.494269174626
 31
0.0
  0
LINE
  5
18D93
330
18C7A
100
AcDbEntity
  8
部品1
100
AcDbLine
 10
3886.970589276531
 20
1392.494269174596
 30
0.0
 11
3411.970589276556
 21
1392.494269174582
 31
0.0
  0
LINE
  5
18D94
330
18C7A
100
AcDbEntity
  8
部品1
100
AcDbLine
 10
416.9705892765559
 20
3182.494269174509
 30
0.0
 11
3886.970589276556
 21
3182.494269174604
 31
0.0
  0
LINE
  5
18D95
330
18C7A
100
AcDbEntity
  8
部品1
100
AcDbLine
 10
445.4705892765559
 20
2702.494269174509
 30
0.0
 11
1508.470589276487
 21
2702.494269174558
 31
0.0
  0
LINE
  5
18D96
330
18C7A
100
AcDbEntity
  8
細線
 48
50.0
100
AcDbLine
 10
2767.470589276556
 20
3152.494269174611
 30
0.0
 11
1536.470589276487
 21
2702.494269174558
 31
0.0
  0
LINE
  5
18D97
330
18C7A
100
AcDbEntity
  8
部品1
100
AcDbLine
 10
445.4705892765542
 20
3152.494269174509
 30
0.0
 11
1508.470589276485
 21
3152.494269174558
 31
0.0
  0
LINE
  5
18D98
330
18C7A
100
AcDbEntity
  8
細線
 48
50.0
100
AcDbLine
 10
2767.470589276554
 20
2702.494269174615
 30
0.0
 11
1536.470589276485
 21
3152.494269174558
 31
0.0
  0
LINE
  5
18D99
330
18C7A
100
AcDbEntity
  8
破線
 48
10.0
100
AcDbLine
 10
2126.970589276534
 20
1472.494269174502
 30
0.0
 11
1344.47058927653
 21
1472.494269174473
 31
0.0
  0
LINE
  5
18D9A
330
18C7A
100
AcDbEntity
  8
部品1
100
AcDbLine
 10
3830.470589276556
 20
1448.994269174596
 30
0.0
 11
473.4705892764487
 21
1448.994269174476
 31
0.0
  0
DIMENSION
  5
18D9B
330
18C7A
100
AcDbEntity
  8
寸法
100
AcDbDimension
  2
*D7
 10
471.970589276555
 20
3698.302488799491
 30
0.0
 11
108.4853079022819
 21
3698.302488799491
 31
0.0
 12
-3742.925985830444
 22
-6453.628869860112
 32
0.0
 70
   128
 71
     5
 42
55.00000000003456
  3
INABA_S40G
100
AcDbAlignedDimension
 13
416.9705892765205
 23
3182.494269174509
 33
0.0
 14
471.970589276555
 24
3182.494269174509
 34
0.0
100
AcDbRotatedDimension
1001
ACAD
1000
DSTYLE
1002
{
1002
}
  0
DIMENSION
  5
18D9C
330
18C7A
100
AcDbEntity
  8
寸法
100
AcDbDimension
  2
*D6
 10
4534.396935010967
 20
3127.494269174607
 30
0.0
 11
4534.396935010965
 21
3490.979550548844
 31
0.0
 12
-3742.925985830444
 22
-6453.628869860112
 32
0.0
 70
   128
 71
     5
 42
54.99999999999636
  3
INABA_S40G
100
AcDbAlignedDimension
 13
3886.970589276556
 23
3182.494269174604
 33
0.0
 14
3886.970589276556
 24
3127.494269174607
 34
0.0
 50
90.0
100
AcDbRotatedDimension
1001
ACAD
1000
DSTYLE
1002
{
1002
}
  0
DIMENSION
  5
18D9D
330
18C7A
100
AcDbEntity
  8
寸法
100
AcDbDimension
  2
*D5
 10
3886.970589276556
 20
3698.302488799589
 30
0.0
 11
4195.455870650794
 21
3698.302488799589
 31
0.0
 12
-3742.925985830444
 22
-6453.628869860112
 32
0.0
 70
   128
 71
     5
 42
55.0
  3
INABA_S40G
100
AcDbAlignedDimension
 13
3831.970589276556
 23
3182.494269174604
 33
0.0
 14
3886.970589276556
 24
3182.494269174604
 34
0.0
100
AcDbRotatedDimension
1001
ACAD
1000
DSTYLE
1002
{
1002
}
  0
DIMENSION
  5
18D9E
330
18C7A
100
AcDbEntity
  8
寸法
100
AcDbDimension
  2
*D4
 10
3831.970589276556
 20
3698.302488799607
 30
0.0
 11
2151.970589276555
 21
3698.302488799607
 31
0.0
 12
-3742.925985830444
 22
-6453.628869860112
 32
0.0
 70
   128
  1
8X420=<>
 71
     5
 42
3360.000000000001
  3
INABA_S40G
100
AcDbAlignedDimension
 13
471.970589276555
 23
3182.494269174509
 33
0.0
 14
3831.970589276556
 24
3182.494269174604
 34
0.0
100
AcDbRotatedDimension
1001
ACAD
1000
DSTYLE
1002
{
1002
}
  0
DIMENSION
  5
18D9F
330
18C7A
100
AcDbEntity
  8
寸法
100
AcDbDimension
  2
*D3
 10
4899.503876750603
 20
1392.494269174596
 30
0.0
 11
4899.503876750601
 21
2287.4942691746
 31
0.0
 12
-3742.925985830444
 22
-6453.628869860112
 32
0.0
 70
   128
 71
     5
 42
1790.000000000007
  3
INABA_S40G
100
AcDbAlignedDimension
 13
3886.970589276556
 23
3182.494269174604
 33
0.0
 14
3886.970589276531
 24
1392.494269174596
 34
0.0
 50
90.0
100
AcDbRotatedDimension
1001
ACAD
1000
DSTYLE
1002
{
1002
}
  0
ENDBLK
  5
18DA1
330
18C7A
100
AcDbEntity
  8
0
 48
50.0
100
AcDbBlockEnd
  0
BLOCK
  5
1C4CB
330
1C4CA
100
AcDbEntity
  8
0
 48
50.0
100
AcDbBlockBegin
  2
_NONE
 70
     0
 10
0.0
 20
0.0
 30
0.0
  3
_NONE
  1

  0
CIRCLE
  5
1C4CC
330
1C4CA
100
AcDbEntity
  8
0
  6
ByBlock
 62
     0
 48
50.0
100
AcDbCircle
 10
0.0
 20
0.0
 30
0.0
 40
0.25
  0
ENDBLK
  5
1C4CD
330
1C4CA
100
AcDbEntity
  8
0
 48
50.0
100
AcDbBlockEnd
  0
BLOCK
  5
20DEE
330
20DE2
100
AcDbEntity
  8
0
 48
50.0
100
AcDbBlockBegin
  2
*D19
 70
     1
 10
0.0
 20
0.0
 30
0.0
  3
*D19
  1

  0
LINE
  5
271E0
330
20DE2
100
AcDbEntity
  8
寸法
 62
     0
 48
50.0
370
    -2
100
AcDbLine
 10
12328.6
 20
7725.184450786733
 30
0.0
 11
12328.6
 21
8723.404772845656
 31
0.0
  0
LINE
  5
271E1
330
20DE2
100
AcDbEntity
  8
寸法
 62
     0
 48
50.0
370
    -2
100
AcDbLine
 10
12373.6
 20
8451.450908880644
 30
0.0
 11
12373.6
 21
8723.404772845656
 31
0.0
  0
LINE
  5
271E2
330
20DE2
100
AcDbEntity
  8
寸法
 62
     0
 48
50.0
370
    -2
100
AcDbLine
 10
12328.6
 20
8663.404772845655
 30
0.0
 11
12228.6
 21
8663.404772845655
 31
0.0
  0
LINE
  5
271E3
330
20DE2
100
AcDbEntity
  8
寸法
 62
     0
 48
50.0
370
    -2
100
AcDbLine
 10
12373.6
 20
8663.404772845655
 30
0.0
 11
12710.94924240492
 21
8663.404772845655
 31
0.0
  0
LINE
  5
271E4
330
20DE2
100
AcDbEntity
  8
寸法
 62
     0
 48
50.0
370
    -2
100
AcDbLine
 10
12328.6
 20
8663.404772845655
 30
0.0
 11
12373.6
 21
8663.404772845655
 31
0.0
  0
INSERT
  5
271E5
330
20DE2
100
AcDbEntity
  8
寸法
 62
     0
 48
50.0
370
    -2
100
AcDbBlockReference
  2
_DOTSMALL
 10
12328.6
 20
8663.404772845655
 30
0.0
 41
100.0
 42
100.0
 43
100.0
  0
INSERT
  5
271E6
330
20DE2
100
AcDbEntity
  8
寸法
 62
     0
 48
50.0
370
    -2
100
AcDbBlockReference
  2
_DOTSMALL
 10
12373.6
 20
8663.404772845655
 30
0.0
 41
100.0
 42
100.0
 43
100.0
 50
180.0
  0
MTEXT
  5
271E7
330
20DE2
100
AcDbEntity
  8
寸法
 62
     7
 48
50.0
100
AcDbMText
 10
12644.77462120246
 20
8763.404772845655
 30
0.0
 40
120.0
 41
0.0
 71
     5
 72
     1
  1
\A1;a
  7
STYLE1
 73
     1
 44
1.0
1001
ACAD
1000
MTEXTBEGIN
1070
    73
1070
     1
1070
    44
1040
1.0
1070
    74
1070
     0
1000
MTEXTEND
  0
POINT
  5
271E8
330
20DE2
100
AcDbEntity
  8
DEFPOINTS
 62
     0
 48
50.0
100
AcDbPoint
 10
12328.6
 20
7705.184450786735
 30
0.0
  0
POINT
  5
271E9
330
20DE2
100
AcDbEntity
  8
DEFPOINTS
 62
     0
 48
50.0
100
AcDbPoint
 10
12373.6
 20
8431.450908880645
 30
0.0
  0
POINT
  5
271EA
330
20DE2
100
AcDbEntity
  8
DEFPOINTS
 62
     0
 48
50.0
100
AcDbPoint
 10
12373.6
 20
8663.404772845655
 30
0.0
  0
ENDBLK
  5
20DEF
330
20DE2
100
AcDbEntity
  8
0
 48
50.0
100
AcDbBlockEnd
  0
BLOCK
  5
20E08
330
20DFC
100
AcDbEntity
  8
0
 48
50.0
100
AcDbBlockBegin
  2
*D20
 70
     1
 10
0.0
 20
0.0
 30
0.0
  3
*D20
  1

  0
LINE
  5
277FD
330
20DFC
100
AcDbEntity
  8
寸法
 62
     0
 48
50.0
370
    -2
100
AcDbLine
 10
4073.600000000004
 20
8451.45090888066
 30
0.0
 11
4073.600000000004
 21
8723.40477284567
 31
0.0
  0
LINE
  5
277FE
330
20DFC
100
AcDbEntity
  8
寸法
 62
     0
 48
50.0
370
    -2
100
AcDbLine
 10
4118.6
 20
7725.184450786748
 30
0.0
 11
4118.6
 21
8723.40477284567
 31
0.0
  0
LINE
  5
277FF
330
20DFC
100
AcDbEntity
  8
寸法
 62
     0
 48
50.0
370
    -2
100
AcDbLine
 10
4118.6
 20
8663.404772845671
 30
0.0
 11
4218.600000000001
 21
8663.404772845671
 31
0.0
  0
LINE
  5
27800
330
20DFC
100
AcDbEntity
  8
寸法
 62
     0
 48
50.0
370
    -2
100
AcDbLine
 10
4073.600000000004
 20
8663.404772845671
 30
0.0
 11
3736.250757595082
 21
8663.404772845671
 31
0.0
  0
LINE
  5
27801
330
20DFC
100
AcDbEntity
  8
寸法
 62
     0
 48
50.0
370
    -2
100
AcDbLine
 10
4118.6
 20
8663.404772845671
 30
0.0
 11
4073.600000000004
 21
8663.404772845671
 31
0.0
  0
INSERT
  5
27802
330
20DFC
100
AcDbEntity
  8
寸法
 62
     0
 48
50.0
370
    -2
100
AcDbBlockReference
  2
_DOTSMALL
 10
4118.6
 20
8663.404772845671
 30
0.0
 41
100.0
 42
100.0
 43
100.0
 50
180.0
  0
INSERT
  5
27803
330
20DFC
100
AcDbEntity
  8
寸法
 62
     0
 48
50.0
370
    -2
100
AcDbBlockReference
  2
_DOTSMALL
 10
4073.600000000004
 20
8663.404772845671
 30
0.0
 41
100.0
 42
100.0
 43
100.0
  0
MTEXT
  5
27804
330
20DFC
100
AcDbEntity
  8
寸法
 62
     7
 48
50.0
100
AcDbMText
 10
3802.425378797541
 20
8763.404772845671
 30
0.0
 40
120.0
 41
0.0
 71
     5
 72
     1
  1
\A1;a
  7
STYLE1
 73
     1
 44
1.0
1001
ACAD
1000
MTEXTBEGIN
1070
    73
1070
     1
1070
    44
1040
1.0
1070
    74
1070
     0
1000
MTEXTEND
  0
POINT
  5
27805
330
20DFC
100
AcDbEntity
  8
DEFPOINTS
 62
     0
 48
50.0
100
AcDbPoint
 10
4073.600000000004
 20
8431.450908880661
 30
0.0
  0
POINT
  5
27806
330
20DFC
100
AcDbEntity
  8
DEFPOINTS
 62
     0
 48
50.0
100
AcDbPoint
 10
4118.6
 20
7705.184450786749
 30
0.0
  0
POINT
  5
27807
330
20DFC
100
AcDbEntity
  8
DEFPOINTS
 62
     0
 48
50.0
100
AcDbPoint
 10
4118.6
 20
8663.404772845671
 30
0.0
  0
ENDBLK
  5
20E09
330
20DFC
100
AcDbEntity
  8
0
 48
50.0
100
AcDbBlockEnd
  0
BLOCK
  5
2274E
330
22742
100
AcDbEntity
  8
0
 48
50.0
100
AcDbBlockBegin
  2
*D21
 70
     1
 10
0.0
 20
0.0
 30
0.0
  3
*D21
  1

  0
LINE
  5
277F2
330
22742
100
AcDbEntity
  8
寸法
 62
     0
 48
50.0
370
    -2
100
AcDbLine
 10
3475.665006330071
 20
7780.184450786767
 30
0.0
 11
3183.721909610677
 21
7780.184450786767
 31
0.0
  0
LINE
  5
277F3
330
22742
100
AcDbEntity
  8
寸法
 62
     0
 48
50.0
370
    -2
100
AcDbLine
 10
4098.6
 20
7705.184450786749
 30
0.0
 11
3183.721909610677
 21
7705.184450786749
 31
0.0
  0
LINE
  5
277F4
330
22742
100
AcDbEntity
  8
寸法
 62
     0
 48
50.0
370
    -2
100
AcDbLine
 10
3243.721909610677
 20
7780.184450786767
 30
0.0
 11
3243.721909610677
 21
7880.184450786767
 31
0.0
  0
LINE
  5
277F5
330
22742
100
AcDbEntity
  8
寸法
 62
     0
 48
50.0
370
    -2
100
AcDbLine
 10
3243.721909610677
 20
7705.184450786749
 30
0.0
 11
3243.721909610677
 21
7605.184450786748
 31
0.0
  0
LINE
  5
277F6
330
22742
100
AcDbEntity
  8
寸法
 62
     0
 48
50.0
370
    -2
100
AcDbLine
 10
3243.721909610677
 20
7780.184450786767
 30
0.0
 11
3243.721909610677
 21
7705.184450786749
 31
0.0
  0
INSERT
  5
277F7
330
22742
100
AcDbEntity
  8
寸法
 62
     0
 48
50.0
370
    -2
100
AcDbBlockReference
  2
_DOTSMALL
 10
3243.721909610677
 20
7780.184450786767
 30
0.0
 41
100.0
 42
100.0
 43
100.0
 50
270.0
  0
INSERT
  5
277F8
330
22742
100
AcDbEntity
  8
寸法
 62
     0
 48
50.0
370
    -2
100
AcDbBlockReference
  2
_DOTSMALL
 10
3243.721909610677
 20
7705.184450786749
 30
0.0
 41
100.0
 42
100.0
 43
100.0
 50
90.0
  0
MTEXT
  5
277F9
330
22742
100
AcDbEntity
  8
寸法
 62
     7
 48
50.0
100
AcDbMText
 10
3143.721909610675
 20
7742.684450786758
 30
0.0
 40
120.0
 41
0.0
 71
     5
 72
     1
  1
\A1;c
  7
STYLE1
 11
0.0000000000000001
 21
1.0
 31
0.0
 73
     1
 44
1.0
1001
ACAD
1000
MTEXTBEGIN
1070
    73
1070
     1
1070
    44
1040
1.0
1070
    74
1070
     0
1000
MTEXTEND
  0
POINT
  5
277FA
330
22742
100
AcDbEntity
  8
DEFPOINTS
 62
     0
 48
50.0
100
AcDbPoint
 10
3495.665006330071
 20
7780.184450786767
 30
0.0
  0
POINT
  5
277FB
330
22742
100
AcDbEntity
  8
DEFPOINTS
 62
     0
 48
50.0
100
AcDbPoint
 10
4118.6
 20
7705.184450786749
 30
0.0
  0
POINT
  5
277FC
330
22742
100
AcDbEntity
  8
DEFPOINTS
 62
     0
 48
50.0
100
AcDbPoint
 10
3243.721909610677
 20
7705.184450786749
 30
0.0
  0
ENDBLK
  5
2274F
330
22742
100
AcDbEntity
  8
0
 48
50.0
100
AcDbBlockEnd
  0
BLOCK
  5
22768
330
2275C
100
AcDbEntity
  8
0
 48
50.0
100
AcDbBlockBegin
  2
*D22
 70
     1
 10
0.0
 20
0.0
 30
0.0
  3
*D22
  1

  0
LINE
  5
277E7
330
2275C
100
AcDbEntity
  8
寸法
 62
     0
 48
50.0
370
    -2
100
AcDbLine
 10
4098.6
 20
6325.184450786734
 30
0.0
 11
3183.721909610677
 21
6325.184450786734
 31
0.0
  0
LINE
  5
277E8
330
2275C
100
AcDbEntity
  8
寸法
 62
     0
 48
50.0
370
    -2
100
AcDbLine
 10
3475.665006330075
 20
6270.184450786775
 30
0.0
 11
3183.721909610677
 21
6270.184450786775
 31
0.0
  0
LINE
  5
277E9
330
2275C
100
AcDbEntity
  8
寸法
 62
     0
 48
50.0
370
    -2
100
AcDbLine
 10
3243.721909610677
 20
6325.184450786734
 30
0.0
 11
3243.721909610677
 21
6425.184450786733
 31
0.0
  0
LINE
  5
277EA
330
2275C
100
AcDbEntity
  8
寸法
 62
     0
 48
50.0
370
    -2
100
AcDbLine
 10
3243.721909610677
 20
6270.184450786775
 30
0.0
 11
3243.721909610677
 21
6170.184450786774
 31
0.0
  0
LINE
  5
277EB
330
2275C
100
AcDbEntity
  8
寸法
 62
     0
 48
50.0
370
    -2
100
AcDbLine
 10
3243.721909610677
 20
6325.184450786734
 30
0.0
 11
3243.721909610677
 21
6270.184450786775
 31
0.0
  0
INSERT
  5
277EC
330
2275C
100
AcDbEntity
  8
寸法
 62
     0
 48
50.0
370
    -2
100
AcDbBlockReference
  2
_DOTSMALL
 10
3243.721909610677
 20
6325.184450786734
 30
0.0
 41
100.0
 42
100.0
 43
100.0
 50
270.0
  0
INSERT
  5
277ED
330
2275C
100
AcDbEntity
  8
寸法
 62
     0
 48
50.0
370
    -2
100
AcDbBlockReference
  2
_DOTSMALL
 10
3243.721909610677
 20
6270.184450786775
 30
0.0
 41
100.0
 42
100.0
 43
100.0
 50
90.0
  0
MTEXT
  5
277EE
330
2275C
100
AcDbEntity
  8
寸法
 62
     7
 48
50.0
100
AcDbMText
 10
3143.721909610676
 20
6297.684450786755
 30
0.0
 40
120.0
 41
0.0
 71
     5
 72
     1
  1
\A1;b
  7
STYLE1
 11
0.0000000000000001
 21
1.0
 31
0.0
 73
     1
 44
1.0
1001
ACAD
1000
MTEXTBEGIN
1070
    73
1070
     1
1070
    44
1040
1.0
1070
    74
1070
     0
1000
MTEXTEND
  0
POINT
  5
277EF
330
2275C
100
AcDbEntity
  8
DEFPOINTS
 62
     0
 48
50.0
100
AcDbPoint
 10
4118.6
 20
6325.184450786734
 30
0.0
  0
POINT
  5
277F0
330
2275C
100
AcDbEntity
  8
DEFPOINTS
 62
     0
 48
50.0
100
AcDbPoint
 10
3495.665006330075
 20
6270.184450786775
 30
0.0
  0
POINT
  5
277F1
330
2275C
100
AcDbEntity
  8
DEFPOINTS
 62
     0
 48
50.0
100
AcDbPoint
 10
3243.721909610677
 20
6270.184450786775
 30
0.0
  0
ENDBLK
  5
22769
330
2275C
100
AcDbEntity
  8
0
 48
50.0
100
AcDbBlockEnd
  0
BLOCK
  5
22B15
330
22B0A
100
AcDbEntity
  8
0
 48
50.0
100
AcDbBlockBegin
  2
*D23
 70
     1
 10
0.0
 20
0.0
 30
0.0
  3
*D23
  1

  0
LINE
  5
272C6
330
22B0A
100
AcDbEntity
  8
寸法
 62
     0
 48
50.0
370
    -2
100
AcDbLine
 10
11814.53475000041
 20
6605.184450786757
 30
0.0
 11
11695.46950000081
 21
6605.184450786757
 31
0.0
  0
LINE
  5
272C7
330
22B0A
100
AcDbEntity
  8
寸法
 62
     0
 48
50.0
370
    -2
100
AcDbLine
 10
11814.53475000041
 20
6325.18445078676
 30
0.0
 11
11695.46950000081
 21
6325.18445078676
 31
0.0
  0
LINE
  5
272C8
330
22B0A
100
AcDbEntity
  8
寸法
 62
     0
 48
50.0
370
    -2
100
AcDbLine
 10
11755.46950000081
 20
6605.184450786757
 30
0.0
 11
11755.46950000081
 21
6325.18445078676
 31
0.0
  0
LINE
  5
272C9
330
22B0A
100
AcDbEntity
  8
寸法
 62
     0
 48
50.0
370
    -2
100
AcDbLine
 10
11755.46950000081
 20
6325.18445078676
 30
0.0
 11
11755.46950000081
 21
5888.650001967847
 31
0.0
  0
INSERT
  5
272CA
330
22B0A
100
AcDbEntity
  8
寸法
 62
     0
 48
50.0
370
    -2
100
AcDbBlockReference
  2
_DOTSMALL
 10
11755.46950000081
 20
6605.184450786757
 30
0.0
 41
100.0
 42
100.0
 43
100.0
 50
90.0
  0
INSERT
  5
272CB
330
22B0A
100
AcDbEntity
  8
寸法
 62
     0
 48
50.0
370
    -2
100
AcDbBlockReference
  2
_DOTSMALL
 10
11755.46950000081
 20
6325.18445078676
 30
0.0
 41
100.0
 42
100.0
 43
100.0
 50
270.0
  0
MTEXT
  5
272CC
330
22B0A
100
AcDbEntity
  8
寸法
 62
     7
 48
50.0
100
AcDbMText
 10
11655.45768897718
 20
6038.220868109582
 30
0.0
 40
120.0
 41
0.0
 71
     5
 72
     1
  1
\A1;280
  7
STYLE1
 11
0.0000000000000001
 21
1.0
 31
0.0
 73
     1
 44
1.0
1001
ACAD
1000
MTEXTBEGIN
1070
    73
1070
     1
1070
    44
1040
1.0
1070
    74
1070
     0
1000
MTEXTEND
  0
POINT
  5
272CD
330
22B0A
100
AcDbEntity
  8
DEFPOINTS
 62
     0
 48
50.0
100
AcDbPoint
 10
11834.53475000041
 20
6605.184450786757
 30
0.0
  0
POINT
  5
272CE
330
22B0A
100
AcDbEntity
  8
DEFPOINTS
 62
     0
 48
50.0
100
AcDbPoint
 10
11834.53475000041
 20
6325.18445078676
 30
0.0
  0
POINT
  5
272CF
330
22B0A
100
AcDbEntity
  8
DEFPOINTS
 62
     0
 48
50.0
100
AcDbPoint
 10
11755.46950000081
 20
6325.18445078676
 30
0.0
  0
ENDBLK
  5
22B16
330
22B0A
100
AcDbEntity
  8
0
 48
50.0
100
AcDbBlockEnd
  0
BLOCK
  5
22B22
330
22B17
100
AcDbEntity
  8
0
 48
50.0
100
AcDbBlockBegin
  2
*D24
 70
     1
 10
0.0
 20
0.0
 30
0.0
  3
*D24
  1

  0
LINE
  5
271AB
330
22B17
100
AcDbEntity
  8
寸法
 62
     0
 48
50.0
370
    -2
100
AcDbLine
 10
11814.53475000041
 20
7705.18445078673
 30
0.0
 11
11695.46950000081
 21
7705.18445078673
 31
0.0
  0
LINE
  5
271AC
330
22B17
100
AcDbEntity
  8
寸法
 62
     0
 48
50.0
370
    -2
100
AcDbLine
 10
11814.53475000041
 20
7505.184450786735
 30
0.0
 11
11695.46950000081
 21
7505.184450786735
 31
0.0
  0
LINE
  5
271AD
330
22B17
100
AcDbEntity
  8
寸法
 62
     0
 48
50.0
370
    -2
100
AcDbLine
 10
11755.46950000081
 20
7505.184450786735
 30
0.0
 11
11755.46950000081
 21
7705.18445078673
 31
0.0
  0
LINE
  5
271AE
330
22B17
100
AcDbEntity
  8
寸法
 62
     0
 48
50.0
370
    -2
100
AcDbLine
 10
11755.46950000081
 20
7705.18445078673
 30
0.0
 11
11755.46950000081
 21
8141.718899605628
 31
0.0
  0
INSERT
  5
271AF
330
22B17
100
AcDbEntity
  8
寸法
 62
     0
 48
50.0
370
    -2
100
AcDbBlockReference
  2
_DOTSMALL
 10
11755.46950000081
 20
7505.184450786735
 30
0.0
 41
100.0
 42
100.0
 43
100.0
 50
270.0
  0
INSERT
  5
271B0
330
22B17
100
AcDbEntity
  8
寸法
 62
     0
 48
50.0
370
    -2
100
AcDbBlockReference
  2
_DOTSMALL
 10
11755.46950000081
 20
7705.18445078673
 30
0.0
 41
100.0
 42
100.0
 43
100.0
 50
90.0
  0
MTEXT
  5
271B1
330
22B17
100
AcDbEntity
  8
寸法
 62
     7
 48
50.0
100
AcDbMText
 10
11655.45768897718
 20
7992.148033463897
 30
0.0
 40
120.0
 41
0.0
 71
     5
 72
     1
  1
\A1;200
  7
STYLE1
 11
0.0000000000000001
 21
1.0
 31
0.0
 73
     1
 44
1.0
1001
ACAD
1000
MTEXTBEGIN
1070
    73
1070
     1
1070
    44
1040
1.0
1070
    74
1070
     0
1000
MTEXTEND
  0
POINT
  5
271B2
330
22B17
100
AcDbEntity
  8
DEFPOINTS
 62
     0
 48
50.0
100
AcDbPoint
 10
11834.53475000041
 20
7705.18445078673
 30
0.0
  0
POINT
  5
271B3
330
22B17
100
AcDbEntity
  8
DEFPOINTS
 62
     0
 48
50.0
100
AcDbPoint
 10
11834.53475000041
 20
7505.184450786735
 30
0.0
  0
POINT
  5
271B4
330
22B17
100
AcDbEntity
  8
DEFPOINTS
 62
     0
 48
50.0
100
AcDbPoint
 10
11755.46950000081
 20
7505.184450786735
 30
0.0
  0
ENDBLK
  5
22B23
330
22B17
100
AcDbEntity
  8
0
 48
50.0
100
AcDbBlockEnd
  0
BLOCK
  5
269E6
330
269DC
100
AcDbEntity
  8
0
 48
50.0
100
AcDbBlockBegin
  2
*D25
 70
     1
 10
0.0
 20
0.0
 30
0.0
  3
*D25
  1

  0
LINE
  5
270CF
330
269DC
100
AcDbEntity
  8
寸法
 62
     0
 48
50.0
370
    -2
100
AcDbLine
 10
12205.6
 20
7652.184450786734
 30
0.0
 11
12205.6
 21
8491.450908880644
 31
0.0
  0
LINE
  5
270D0
330
269DC
100
AcDbEntity
  8
寸法
 62
     0
 48
50.0
370
    -2
100
AcDbLine
 10
9745.600000000001
 20
7652.184450786734
 30
0.0
 11
9745.600000000001
 21
8491.450908880644
 31
0.0
  0
LINE
  5
270D1
330
269DC
100
AcDbEntity
  8
寸法
 62
     0
 48
50.0
370
    -2
100
AcDbLine
 10
12205.6
 20
8431.450908880645
 30
0.0
 11
9745.600000000001
 21
8431.450908880645
 31
0.0
  0
INSERT
  5
270D2
330
269DC
100
AcDbEntity
  8
寸法
 62
     0
 48
50.0
370
    -2
100
AcDbBlockReference
  2
_DOTSMALL
 10
12205.6
 20
8431.450908880645
 30
0.0
 41
100.0
 42
100.0
 43
100.0
  0
INSERT
  5
270D3
330
269DC
100
AcDbEntity
  8
寸法
 62
     0
 48
50.0
370
    -2
100
AcDbBlockReference
  2
_DOTSMALL
 10
9745.600000000001
 20
8431.450908880645
 30
0.0
 41
100.0
 42
100.0
 43
100.0
 50
180.0
  0
MTEXT
  5
270D4
330
269DC
100
AcDbEntity
  8
寸法
 62
     7
 48
50.0
100
AcDbMText
 10
10975.6
 20
8531.462719904267
 30
0.0
 40
120.0
 41
0.0
 71
     5
 72
     1
  1
\A1;2460
  7
STYLE1
 73
     1
 44
1.0
1001
ACAD
1000
MTEXTBEGIN
1070
    73
1070
     1
1070
    44
1040
1.0
1070
    74
1070
     0
1000
MTEXTEND
  0
POINT
  5
270D5
330
269DC
100
AcDbEntity
  8
DEFPOINTS
 62
     0
 48
50.0
100
AcDbPoint
 10
12205.6
 20
7632.184450786734
 30
0.0
  0
POINT
  5
270D6
330
269DC
100
AcDbEntity
  8
DEFPOINTS
 62
     0
 48
50.0
100
AcDbPoint
 10
9745.600000000001
 20
7632.184450786734
 30
0.0
  0
POINT
  5
270D7
330
269DC
100
AcDbEntity
  8
DEFPOINTS
 62
     0
 48
50.0
100
AcDbPoint
 10
9745.600000000001
 20
8431.450908880645
 30
0.0
  0
ENDBLK
  5
269E7
330
269DC
100
AcDbEntity
  8
0
 48
50.0
100
AcDbBlockEnd
  0
BLOCK
  5
269F3
330
269E8
100
AcDbEntity
  8
0
 48
50.0
100
AcDbBlockBegin
  2
*D26
 70
     1
 10
0.0
 20
0.0
 30
0.0
  3
*D26
  1

  0
LINE
  5
270C5
330
269E8
100
AcDbEntity
  8
寸法
 62
     0
 48
50.0
370
    -2
100
AcDbLine
 10
12328.6
 20
7725.184450786733
 30
0.0
 11
12328.6
 21
8491.450908880644
 31
0.0
  0
LINE
  5
270C6
330
269E8
100
AcDbEntity
  8
寸法
 62
     0
 48
50.0
370
    -2
100
AcDbLine
 10
12205.6
 20
7652.184450786734
 30
0.0
 11
12205.6
 21
8491.450908880644
 31
0.0
  0
LINE
  5
270C7
330
269E8
100
AcDbEntity
  8
寸法
 62
     0
 48
50.0
370
    -2
100
AcDbLine
 10
12205.6
 20
8431.450908880645
 30
0.0
 11
12328.6
 21
8431.450908880645
 31
0.0
  0
LINE
  5
270C8
330
269E8
100
AcDbEntity
  8
寸法
 62
     0
 48
50.0
370
    -2
100
AcDbLine
 10
12328.6
 20
8431.450908880645
 30
0.0
 11
12740.19188309204
 21
8431.450908880645
 31
0.0
  0
INSERT
  5
270C9
330
269E8
100
AcDbEntity
  8
寸法
 62
     0
 48
50.0
370
    -2
100
AcDbBlockReference
  2
_DOTSMALL
 10
12205.6
 20
8431.450908880645
 30
0.0
 41
100.0
 42
100.0
 43
100.0
 50
180.0
  0
INSERT
  5
270CA
330
269E8
100
AcDbEntity
  8
寸法
 62
     0
 48
50.0
370
    -2
100
AcDbBlockReference
  2
_DOTSMALL
 10
12328.6
 20
8431.450908880645
 30
0.0
 41
100.0
 42
100.0
 43
100.0
  0
MTEXT
  5
270CB
330
269E8
100
AcDbEntity
  8
寸法
 62
     7
 48
50.0
100
AcDbMText
 10
12601.7066017178
 20
8531.462719904267
 30
0.0
 40
120.0
 41
0.0
 71
     5
 72
     1
  1
\A1;123
  7
STYLE1
 73
     1
 44
1.0
1001
ACAD
1000
MTEXTBEGIN
1070
    73
1070
     1
1070
    44
1040
1.0
1070
    74
1070
     0
1000
MTEXTEND
  0
POINT
  5
270CC
330
269E8
100
AcDbEntity
  8
DEFPOINTS
 62
     0
 48
50.0
100
AcDbPoint
 10
12328.6
 20
7705.184450786735
 30
0.0
  0
POINT
  5
270CD
330
269E8
100
AcDbEntity
  8
DEFPOINTS
 62
     0
 48
50.0
100
AcDbPoint
 10
12205.6
 20
7632.184450786734
 30
0.0
  0
POINT
  5
270CE
330
269E8
100
AcDbEntity
  8
DEFPOINTS
 62
     0
 48
50.0
100
AcDbPoint
 10
12205.6
 20
8431.450908880645
 30
0.0
  0
ENDBLK
  5
269F4
330
269E8
100
AcDbEntity
  8
0
 48
50.0
100
AcDbBlockEnd
  0
BLOCK
  5
26A19
330
26A0F
100
AcDbEntity
  8
0
 48
50.0
100
AcDbBlockBegin
  2
*D27
 70
     1
 10
0.0
 20
0.0
 30
0.0
  3
*D27
  1

  0
LINE
  5
27198
330
26A0F
100
AcDbEntity
  8
寸法
 62
     0
 48
50.0
370
    -2
100
AcDbLine
 10
9745.600000000001
 20
7652.184450786734
 30
0.0
 11
9745.600000000001
 21
8491.450908880644
 31
0.0
  0
LINE
  5
27199
330
26A0F
100
AcDbEntity
  8
寸法
 62
     0
 48
50.0
370
    -2
100
AcDbLine
 10
8105.600000000002
 20
7652.184450786734
 30
0.0
 11
8105.600000000002
 21
8491.450908880644
 31
0.0
  0
LINE
  5
2719A
330
26A0F
100
AcDbEntity
  8
寸法
 62
     0
 48
50.0
370
    -2
100
AcDbLine
 10
9745.600000000001
 20
8431.450908880645
 30
0.0
 11
8105.600000000002
 21
8431.450908880645
 31
0.0
  0
INSERT
  5
2719B
330
26A0F
100
AcDbEntity
  8
寸法
 62
     0
 48
50.0
370
    -2
100
AcDbBlockReference
  2
_DOTSMALL
 10
9745.600000000001
 20
8431.450908880645
 30
0.0
 41
100.0
 42
100.0
 43
100.0
  0
INSERT
  5
2719C
330
26A0F
100
AcDbEntity
  8
寸法
 62
     0
 48
50.0
370
    -2
100
AcDbBlockReference
  2
_DOTSMALL
 10
8105.600000000002
 20
8431.450908880645
 30
0.0
 41
100.0
 42
100.0
 43
100.0
 50
180.0
  0
MTEXT
  5
2719D
330
26A0F
100
AcDbEntity
  8
寸法
 62
     7
 48
50.0
100
AcDbMText
 10
8925.600000000002
 20
8531.450908880644
 30
0.0
 40
120.0
 41
0.0
 71
     5
 72
     1
  1
\A1;1640
  7
STYLE1
 73
     1
 44
1.0
1001
ACAD
1000
MTEXTBEGIN
1070
    73
1070
     1
1070
    44
1040
1.0
1070
    74
1070
     0
1000
MTEXTEND
  0
POINT
  5
2719E
330
26A0F
100
AcDbEntity
  8
DEFPOINTS
 62
     0
 48
50.0
100
AcDbPoint
 10
9745.600000000001
 20
7632.184450786734
 30
0.0
  0
POINT
  5
2719F
330
26A0F
100
AcDbEntity
  8
DEFPOINTS
 62
     0
 48
50.0
100
AcDbPoint
 10
8105.600000000002
 20
7632.184450786734
 30
0.0
  0
POINT
  5
271A0
330
26A0F
100
AcDbEntity
  8
DEFPOINTS
 62
     0
 48
50.0
100
AcDbPoint
 10
8105.600000000002
 20
8431.450908880645
 30
0.0
  0
ENDBLK
  5
26A1A
330
26A0F
100
AcDbEntity
  8
0
 48
50.0
100
AcDbBlockEnd
  0
BLOCK
  5
26A25
330
26A1B
100
AcDbEntity
  8
0
 48
50.0
100
AcDbBlockBegin
  2
*D28
 70
     1
 10
0.0
 20
0.0
 30
0.0
  3
*D28
  1

  0
LINE
  5
27346
330
26A1B
100
AcDbEntity
  8
寸法
 62
     0
 48
50.0
370
    -2
100
AcDbLine
 10
9043.60000000001
 20
7122.184450786733
 30
0.0
 11
9043.60000000001
 21
8247.793267456982
 31
0.0
  0
LINE
  5
27347
330
26A1B
100
AcDbEntity
  8
寸法
 62
     0
 48
50.0
370
    -2
100
AcDbLine
 10
8223.60000000001
 20
7122.184450786733
 30
0.0
 11
8223.60000000001
 21
8247.793267456982
 31
0.0
  0
LINE
  5
27348
330
26A1B
100
AcDbEntity
  8
寸法
 62
     0
 48
50.0
370
    -2
100
AcDbLine
 10
9043.60000000001
 20
8187.793267456981
 30
0.0
 11
8223.60000000001
 21
8187.793267456981
 31
0.0
  0
INSERT
  5
27349
330
26A1B
100
AcDbEntity
  8
寸法
 62
     0
 48
50.0
370
    -2
100
AcDbBlockReference
  2
_DOTSMALL
 10
9043.60000000001
 20
8187.793267456981
 30
0.0
 41
100.0
 42
100.0
 43
100.0
  0
INSERT
  5
2734A
330
26A1B
100
AcDbEntity
  8
寸法
 62
     0
 48
50.0
370
    -2
100
AcDbBlockReference
  2
_DOTSMALL
 10
8223.60000000001
 20
8187.793267456981
 30
0.0
 41
100.0
 42
100.0
 43
100.0
 50
180.0
  0
MTEXT
  5
2734B
330
26A1B
100
AcDbEntity
  8
寸法
 62
     7
 48
50.0
100
AcDbMText
 10
8633.60000000001
 20
8287.805078480603
 30
0.0
 40
120.0
 41
0.0
 71
     5
 72
     1
  1
\A1;820
  7
STYLE1
 73
     1
 44
1.0
1001
ACAD
1000
MTEXTBEGIN
1070
    73
1070
     1
1070
    44
1040
1.0
1070
    74
1070
     0
1000
MTEXTEND
  0
POINT
  5
2734C
330
26A1B
100
AcDbEntity
  8
DEFPOINTS
 62
     0
 48
50.0
100
AcDbPoint
 10
9043.60000000001
 20
7102.184450786734
 30
0.0
  0
POINT
  5
2734D
330
26A1B
100
AcDbEntity
  8
DEFPOINTS
 62
     0
 48
50.0
100
AcDbPoint
 10
8223.60000000001
 20
7102.184450786734
 30
0.0
  0
POINT
  5
2734E
330
26A1B
100
AcDbEntity
  8
DEFPOINTS
 62
     0
 48
50.0
100
AcDbPoint
 10
8223.60000000001
 20
8187.793267456981
 30
0.0
  0
ENDBLK
  5
26A26
330
26A1B
100
AcDbEntity
  8
0
 48
50.0
100
AcDbBlockEnd
  0
BLOCK
  5
26A31
330
26A27
100
AcDbEntity
  8
0
 48
50.0
100
AcDbBlockBegin
  2
*D29
 70
     1
 10
0.0
 20
0.0
 30
0.0
  3
*D29
  1

  0
LINE
  5
277DE
330
26A27
100
AcDbEntity
  8
寸法
 62
     0
 48
50.0
370
    -2
100
AcDbLine
 10
4118.6
 20
7725.184450786733
 30
0.0
 11
4118.6
 21
8723.404772845652
 31
0.0
  0
LINE
  5
277DF
330
26A27
100
AcDbEntity
  8
寸法
 62
     0
 48
50.0
370
    -2
100
AcDbLine
 10
12328.6
 20
7725.184450786733
 30
0.0
 11
12328.6
 21
8723.404772845652
 31
0.0
  0
LINE
  5
277E0
330
26A27
100
AcDbEntity
  8
寸法
 62
     0
 48
50.0
370
    -2
100
AcDbLine
 10
4118.6
 20
8663.404772845652
 30
0.0
 11
12328.6
 21
8663.404772845652
 31
0.0
  0
INSERT
  5
277E1
330
26A27
100
AcDbEntity
  8
寸法
 62
     0
 48
50.0
370
    -2
100
AcDbBlockReference
  2
_DOTSMALL
 10
4118.6
 20
8663.404772845652
 30
0.0
 41
100.0
 42
100.0
 43
100.0
 50
180.0
  0
INSERT
  5
277E2
330
26A27
100
AcDbEntity
  8
寸法
 62
     0
 48
50.0
370
    -2
100
AcDbBlockReference
  2
_DOTSMALL
 10
12328.6
 20
8663.404772845652
 30
0.0
 41
100.0
 42
100.0
 43
100.0
  0
MTEXT
  5
277E3
330
26A27
100
AcDbEntity
  8
寸法
 62
     7
 48
50.0
100
AcDbMText
 10
8223.600000000001
 20
8763.416583869274
 30
0.0
 40
120.0
 41
0.0
 71
     5
 72
     1
  1
\A1;8210
  7
STYLE1
 73
     1
 44
1.0
1001
ACAD
1000
MTEXTBEGIN
1070
    73
1070
     1
1070
    44
1040
1.0
1070
    74
1070
     0
1000
MTEXTEND
  0
POINT
  5
277E4
330
26A27
100
AcDbEntity
  8
DEFPOINTS
 62
     0
 48
50.0
100
AcDbPoint
 10
4118.6
 20
7705.184450786735
 30
0.0
  0
POINT
  5
277E5
330
26A27
100
AcDbEntity
  8
DEFPOINTS
 62
     0
 48
50.0
100
AcDbPoint
 10
12328.6
 20
7705.184450786735
 30
0.0
  0
POINT
  5
277E6
330
26A27
100
AcDbEntity
  8
DEFPOINTS
 62
     0
 48
50.0
100
AcDbPoint
 10
12328.6
 20
8663.404772845652
 30
0.0
  0
ENDBLK
  5
26A32
330
26A27
100
AcDbEntity
  8
0
 48
50.0
100
AcDbBlockEnd
  0
BLOCK
  5
26A3D
330
26A33
100
AcDbEntity
  8
0
 48
50.0
100
AcDbBlockBegin
  2
*D30
 70
     1
 10
0.0
 20
0.0
 30
0.0
  3
*D30
  1

  0
LINE
  5
2733D
330
26A33
100
AcDbEntity
  8
寸法
 62
     0
 48
50.0
370
    -2
100
AcDbLine
 10
8223.600000000008
 20
7122.184450786733
 30
0.0
 11
8223.600000000008
 21
8247.793267456982
 31
0.0
  0
LINE
  5
2733E
330
26A33
100
AcDbEntity
  8
寸法
 62
     0
 48
50.0
370
    -2
100
AcDbLine
 10
7403.60000000001
 20
7122.184450786733
 30
0.0
 11
7403.60000000001
 21
8247.793267456982
 31
0.0
  0
LINE
  5
2733F
330
26A33
100
AcDbEntity
  8
寸法
 62
     0
 48
50.0
370
    -2
100
AcDbLine
 10
8223.600000000008
 20
8187.793267456981
 30
0.0
 11
7403.60000000001
 21
8187.793267456981
 31
0.0
  0
INSERT
  5
27340
330
26A33
100
AcDbEntity
  8
寸法
 62
     0
 48
50.0
370
    -2
100
AcDbBlockReference
  2
_DOTSMALL
 10
8223.600000000008
 20
8187.793267456981
 30
0.0
 41
100.0
 42
100.0
 43
100.0
  0
INSERT
  5
27341
330
26A33
100
AcDbEntity
  8
寸法
 62
     0
 48
50.0
370
    -2
100
AcDbBlockReference
  2
_DOTSMALL
 10
7403.60000000001
 20
8187.793267456981
 30
0.0
 41
100.0
 42
100.0
 43
100.0
 50
180.0
  0
MTEXT
  5
27342
330
26A33
100
AcDbEntity
  8
寸法
 62
     7
 48
50.0
100
AcDbMText
 10
7813.600000000008
 20
8287.805078480603
 30
0.0
 40
120.0
 41
0.0
 71
     5
 72
     1
  1
\A1;820
  7
STYLE1
 73
     1
 44
1.0
1001
ACAD
1000
MTEXTBEGIN
1070
    73
1070
     1
1070
    44
1040
1.0
1070
    74
1070
     0
1000
MTEXTEND
  0
POINT
  5
27343
330
26A33
100
AcDbEntity
  8
DEFPOINTS
 62
     0
 48
50.0
100
AcDbPoint
 10
8223.600000000008
 20
7102.184450786734
 30
0.0
  0
POINT
  5
27344
330
26A33
100
AcDbEntity
  8
DEFPOINTS
 62
     0
 48
50.0
100
AcDbPoint
 10
7403.60000000001
 20
7102.184450786734
 30
0.0
  0
POINT
  5
27345
330
26A33
100
AcDbEntity
  8
DEFPOINTS
 62
     0
 48
50.0
100
AcDbPoint
 10
7403.60000000001
 20
8187.793267456981
 30
0.0
  0
ENDBLK
  5
26A3E
330
26A33
100
AcDbEntity
  8
0
 48
50.0
100
AcDbBlockEnd
  0
BLOCK
  5
26A48
330
26A3F
100
AcDbEntity
  8
0
 48
50.0
100
AcDbBlockBegin
  2
*D31
 70
     1
 10
0.0
 20
0.0
 30
0.0
  3
*D31
  1

  0
LINE
  5
27334
330
26A3F
100
AcDbEntity
  8
寸法
 62
     0
 48
50.0
370
    -2
100
AcDbLine
 10
6583.60000000001
 20
7122.184450786733
 30
0.0
 11
6583.60000000001
 21
8247.793267456982
 31
0.0
  0
LINE
  5
27335
330
26A3F
100
AcDbEntity
  8
寸法
 62
     0
 48
50.0
370
    -2
100
AcDbLine
 10
5763.60000000001
 20
7122.184450786733
 30
0.0
 11
5763.60000000001
 21
8247.793267456982
 31
0.0
  0
LINE
  5
27336
330
26A3F
100
AcDbEntity
  8
寸法
 62
     0
 48
50.0
370
    -2
100
AcDbLine
 10
6583.60000000001
 20
8187.793267456981
 30
0.0
 11
5763.60000000001
 21
8187.793267456981
 31
0.0
  0
INSERT
  5
27337
330
26A3F
100
AcDbEntity
  8
寸法
 62
     0
 48
50.0
370
    -2
100
AcDbBlockReference
  2
_DOTSMALL
 10
6583.60000000001
 20
8187.793267456981
 30
0.0
 41
100.0
 42
100.0
 43
100.0
  0
INSERT
  5
27338
330
26A3F
100
AcDbEntity
  8
寸法
 62
     0
 48
50.0
370
    -2
100
AcDbBlockReference
  2
_DOTSMALL
 10
5763.60000000001
 20
8187.793267456981
 30
0.0
 41
100.0
 42
100.0
 43
100.0
 50
180.0
  0
MTEXT
  5
27339
330
26A3F
100
AcDbEntity
  8
寸法
 62
     7
 48
50.0
100
AcDbMText
 10
6173.60000000001
 20
8287.805078480603
 30
0.0
 40
120.0
 41
0.0
 71
     5
 72
     1
  1
\A1;820
  7
STYLE1
 73
     1
 44
1.0
1001
ACAD
1000
MTEXTBEGIN
1070
    73
1070
     1
1070
    44
1040
1.0
1070
    74
1070
     0
1000
MTEXTEND
  0
POINT
  5
2733A
330
26A3F
100
AcDbEntity
  8
DEFPOINTS
 62
     0
 48
50.0
100
AcDbPoint
 10
6583.60000000001
 20
7102.184450786734
 30
0.0
  0
POINT
  5
2733B
330
26A3F
100
AcDbEntity
  8
DEFPOINTS
 62
     0
 48
50.0
100
AcDbPoint
 10
5763.60000000001
 20
7102.184450786734
 30
0.0
  0
POINT
  5
2733C
330
26A3F
100
AcDbEntity
  8
DEFPOINTS
 62
     0
 48
50.0
100
AcDbPoint
 10
5763.60000000001
 20
8187.793267456981
 30
0.0
  0
ENDBLK
  5
26A49
330
26A3F
100
AcDbEntity
  8
0
 48
50.0
100
AcDbBlockEnd
  0
BLOCK
  5
26A54
330
26A4A
100
AcDbEntity
  8
0
 48
50.0
100
AcDbBlockBegin
  2
*D32
 70
     1
 10
0.0
 20
0.0
 30
0.0
  3
*D32
  1

  0
LINE
  5
2732B
330
26A4A
100
AcDbEntity
  8
寸法
 62
     0
 48
50.0
370
    -2
100
AcDbLine
 10
7403.60000000001
 20
7122.184450786733
 30
0.0
 11
7403.60000000001
 21
8247.793267456982
 31
0.0
  0
LINE
  5
2732C
330
26A4A
100
AcDbEntity
  8
寸法
 62
     0
 48
50.0
370
    -2
100
AcDbLine
 10
6583.60000000001
 20
7122.184450786733
 30
0.0
 11
6583.60000000001
 21
8247.793267456982
 31
0.0
  0
LINE
  5
2732D
330
26A4A
100
AcDbEntity
  8
寸法
 62
     0
 48
50.0
370
    -2
100
AcDbLine
 10
7403.60000000001
 20
8187.793267456981
 30
0.0
 11
6583.60000000001
 21
8187.793267456981
 31
0.0
  0
INSERT
  5
2732E
330
26A4A
100
AcDbEntity
  8
寸法
 62
     0
 48
50.0
370
    -2
100
AcDbBlockReference
  2
_DOTSMALL
 10
7403.60000000001
 20
8187.793267456981
 30
0.0
 41
100.0
 42
100.0
 43
100.0
  0
INSERT
  5
2732F
330
26A4A
100
AcDbEntity
  8
寸法
 62
     0
 48
50.0
370
    -2
100
AcDbBlockReference
  2
_DOTSMALL
 10
6583.60000000001
 20
8187.793267456981
 30
0.0
 41
100.0
 42
100.0
 43
100.0
 50
180.0
  0
MTEXT
  5
27330
330
26A4A
100
AcDbEntity
  8
寸法
 62
     7
 48
50.0
100
AcDbMText
 10
6993.600000000009
 20
8287.805078480603
 30
0.0
 40
120.0
 41
0.0
 71
     5
 72
     1
  1
\A1;820
  7
STYLE1
 73
     1
 44
1.0
1001
ACAD
1000
MTEXTBEGIN
1070
    73
1070
     1
1070
    44
1040
1.0
1070
    74
1070
     0
1000
MTEXTEND
  0
POINT
  5
27331
330
26A4A
100
AcDbEntity
  8
DEFPOINTS
 62
     0
 48
50.0
100
AcDbPoint
 10
7403.60000000001
 20
7102.184450786734
 30
0.0
  0
POINT
  5
27332
330
26A4A
100
AcDbEntity
  8
DEFPOINTS
 62
     0
 48
50.0
100
AcDbPoint
 10
6583.60000000001
 20
7102.184450786734
 30
0.0
  0
POINT
  5
27333
330
26A4A
100
AcDbEntity
  8
DEFPOINTS
 62
     0
 48
50.0
100
AcDbPoint
 10
6583.60000000001
 20
8187.793267456981
 30
0.0
  0
ENDBLK
  5
26A55
330
26A4A
100
AcDbEntity
  8
0
 48
50.0
100
AcDbBlockEnd
  0
BLOCK
  5
26A60
330
26A56
100
AcDbEntity
  8
0
 48
50.0
100
AcDbBlockBegin
  2
*D33
 70
     1
 10
0.0
 20
0.0
 30
0.0
  3
*D33
  1

  0
LINE
  5
277D5
330
26A56
100
AcDbEntity
  8
寸法
 62
     0
 48
50.0
370
    -2
100
AcDbLine
 10
4873.600000000007
 20
7052.184450786734
 30
0.0
 11
4541.285990614304
 21
7052.184450786734
 31
0.0
  0
LINE
  5
277D6
330
26A56
100
AcDbEntity
  8
寸法
 62
     0
 48
50.0
370
    -2
100
AcDbLine
 10
4672.765475140901
 20
7705.184450786735
 30
0.0
 11
4541.285990614304
 21
7705.184450786735
 31
0.0
  0
LINE
  5
277D7
330
26A56
100
AcDbEntity
  8
寸法
 62
     0
 48
50.0
370
    -2
100
AcDbLine
 10
4601.285990614304
 20
7052.184450786734
 30
0.0
 11
4601.285990614304
 21
7705.184450786735
 31
0.0
  0
INSERT
  5
277D8
330
26A56
100
AcDbEntity
  8
寸法
 62
     0
 48
50.0
370
    -2
100
AcDbBlockReference
  2
_DOTSMALL
 10
4601.285990614304
 20
7052.184450786734
 30
0.0
 41
100.0
 42
100.0
 43
100.0
 50
270.0
  0
INSERT
  5
277D9
330
26A56
100
AcDbEntity
  8
寸法
 62
     0
 48
50.0
370
    -2
100
AcDbBlockReference
  2
_DOTSMALL
 10
4601.285990614304
 20
7705.184450786735
 30
0.0
 41
100.0
 42
100.0
 43
100.0
 50
90.0
  0
MTEXT
  5
277DA
330
26A56
100
AcDbEntity
  8
寸法
 62
     7
 48
50.0
100
AcDbMText
 10
4501.285990614301
 20
7302.079979385267
 30
0.0
 40
120.0
 41
0.0
 71
     5
 72
     1
  1
\A1;653
  7
STYLE1
 11
0.0000000000000001
 21
1.0
 31
0.0
 73
     1
 44
1.0
1001
ACAD
1000
MTEXTBEGIN
1070
    73
1070
     1
1070
    44
1040
1.0
1070
    74
1070
     0
1000
MTEXTEND
  0
POINT
  5
277DB
330
26A56
100
AcDbEntity
  8
DEFPOINTS
 62
     0
 48
50.0
100
AcDbPoint
 10
4893.600000000008
 20
7052.184450786734
 30
0.0
  0
POINT
  5
277DC
330
26A56
100
AcDbEntity
  8
DEFPOINTS
 62
     0
 48
50.0
100
AcDbPoint
 10
4692.765475140901
 20
7705.184450786735
 30
0.0
  0
POINT
  5
277DD
330
26A56
100
AcDbEntity
  8
DEFPOINTS
 62
     0
 48
50.0
100
AcDbPoint
 10
4601.285990614304
 20
7705.184450786735
 30
0.0
  0
ENDBLK
  5
26A61
330
26A56
100
AcDbEntity
  8
0
 48
50.0
100
AcDbBlockEnd
  0
BLOCK
  5
26A6C
330
26A62
100
AcDbEntity
  8
0
 48
50.0
100
AcDbBlockBegin
  2
*D34
 70
     1
 10
0.0
 20
0.0
 30
0.0
  3
*D34
  1

  0
LINE
  5
277CC
330
26A62
100
AcDbEntity
  8
寸法
 62
     0
 48
50.0
370
    -2
100
AcDbLine
 10
4943.600000000007
 20
7122.184450786733
 30
0.0
 11
4943.600000000007
 21
8247.793267456982
 31
0.0
  0
LINE
  5
277CD
330
26A62
100
AcDbEntity
  8
寸法
 62
     0
 48
50.0
370
    -2
100
AcDbLine
 10
4118.6
 20
7725.184450786733
 30
0.0
 11
4118.6
 21
8247.793267456982
 31
0.0
  0
LINE
  5
277CE
330
26A62
100
AcDbEntity
  8
寸法
 62
     0
 48
50.0
370
    -2
100
AcDbLine
 10
4943.600000000007
 20
8187.793267456981
 30
0.0
 11
4118.6
 21
8187.793267456981
 31
0.0
  0
INSERT
  5
277CF
330
26A62
100
AcDbEntity
  8
寸法
 62
     0
 48
50.0
370
    -2
100
AcDbBlockReference
  2
_DOTSMALL
 10
4943.600000000007
 20
8187.793267456981
 30
0.0
 41
100.0
 42
100.0
 43
100.0
  0
INSERT
  5
277D0
330
26A62
100
AcDbEntity
  8
寸法
 62
     0
 48
50.0
370
    -2
100
AcDbBlockReference
  2
_DOTSMALL
 10
4118.6
 20
8187.793267456981
 30
0.0
 41
100.0
 42
100.0
 43
100.0
 50
180.0
  0
MTEXT
  5
277D1
330
26A62
100
AcDbEntity
  8
寸法
 62
     7
 48
50.0
100
AcDbMText
 10
4531.100000000004
 20
8287.805078480603
 30
0.0
 40
120.0
 41
0.0
 71
     5
 72
     1
  1
\A1;825
  7
STYLE1
 73
     1
 44
1.0
1001
ACAD
1000
MTEXTBEGIN
1070
    73
1070
     1
1070
    44
1040
1.0
1070
    74
1070
     0
1000
MTEXTEND
  0
POINT
  5
277D2
330
26A62
100
AcDbEntity
  8
DEFPOINTS
 62
     0
 48
50.0
100
AcDbPoint
 10
4943.600000000007
 20
7102.184450786734
 30
0.0
  0
POINT
  5
277D3
330
26A62
100
AcDbEntity
  8
DEFPOINTS
 62
     0
 48
50.0
100
AcDbPoint
 10
4118.6
 20
7705.184450786735
 30
0.0
  0
POINT
  5
277D4
330
26A62
100
AcDbEntity
  8
DEFPOINTS
 62
     0
 48
50.0
100
AcDbPoint
 10
4118.6
 20
8187.793267456981
 30
0.0
  0
ENDBLK
  5
26A6D
330
26A62
100
AcDbEntity
  8
0
 48
50.0
100
AcDbBlockEnd
  0
BLOCK
  5
26A78
330
26A6E
100
AcDbEntity
  8
0
 48
50.0
100
AcDbBlockBegin
  2
*D35
 70
     1
 10
0.0
 20
0.0
 30
0.0
  3
*D35
  1

  0
LINE
  5
277C3
330
26A6E
100
AcDbEntity
  8
寸法
 62
     0
 48
50.0
370
    -2
100
AcDbLine
 10
4098.6
 20
7705.184450786735
 30
0.0
 11
3183.721909610675
 21
7705.184450786735
 31
0.0
  0
LINE
  5
277C4
330
26A6E
100
AcDbEntity
  8
寸法
 62
     0
 48
50.0
370
    -2
100
AcDbLine
 10
4098.6
 20
6325.184450786734
 30
0.0
 11
3183.721909610674
 21
6325.184450786734
 31
0.0
  0
LINE
  5
277C5
330
26A6E
100
AcDbEntity
  8
寸法
 62
     0
 48
50.0
370
    -2
100
AcDbLine
 10
3243.721909610675
 20
7705.184450786735
 30
0.0
 11
3243.721909610674
 21
6325.184450786734
 31
0.0
  0
INSERT
  5
277C6
330
26A6E
100
AcDbEntity
  8
寸法
 62
     0
 48
50.0
370
    -2
100
AcDbBlockReference
  2
_DOTSMALL
 10
3243.721909610675
 20
7705.184450786735
 30
0.0
 41
100.0
 42
100.0
 43
100.0
 50
90.0
  0
INSERT
  5
277C7
330
26A6E
100
AcDbEntity
  8
寸法
 62
     0
 48
50.0
370
    -2
100
AcDbBlockReference
  2
_DOTSMALL
 10
3243.721909610674
 20
6325.184450786734
 30
0.0
 41
100.0
 42
100.0
 43
100.0
 50
270.0
  0
MTEXT
  5
277C8
330
26A6E
100
AcDbEntity
  8
寸法
 62
     7
 48
50.0
100
AcDbMText
 10
3143.721909610673
 20
7052.684450786734
 30
0.0
 40
120.0
 41
0.0
 71
     5
 72
     1
  1
\A1;1380
  7
STYLE1
 11
0.0000000000000001
 21
1.0
 31
0.0
 73
     1
 44
1.0
1001
ACAD
1000
MTEXTBEGIN
1070
    73
1070
     1
1070
    44
1040
1.0
1070
    74
1070
     0
1000
MTEXTEND
  0
POINT
  5
277C9
330
26A6E
100
AcDbEntity
  8
DEFPOINTS
 62
     0
 48
50.0
100
AcDbPoint
 10
4118.6
 20
7705.184450786735
 30
0.0
  0
POINT
  5
277CA
330
26A6E
100
AcDbEntity
  8
DEFPOINTS
 62
     0
 48
50.0
100
AcDbPoint
 10
4118.6
 20
6325.184450786734
 30
0.0
  0
POINT
  5
277CB
330
26A6E
100
AcDbEntity
  8
DEFPOINTS
 62
     0
 48
50.0
100
AcDbPoint
 10
3243.721909610674
 20
6325.184450786734
 30
0.0
  0
ENDBLK
  5
26A79
330
26A6E
100
AcDbEntity
  8
0
 48
50.0
100
AcDbBlockEnd
  0
BLOCK
  5
26A84
330
26A7A
100
AcDbEntity
  8
0
 48
50.0
100
AcDbBlockBegin
  2
*D36
 70
     1
 10
0.0
 20
0.0
 30
0.0
  3
*D36
  1

  0
LINE
  5
277BA
330
26A7A
100
AcDbEntity
  8
寸法
 62
     0
 48
50.0
370
    -2
100
AcDbLine
 10
4171.6
 20
7582.184450786733
 30
0.0
 11
3435.665006330073
 21
7582.184450786733
 31
0.0
  0
LINE
  5
277BB
330
26A7A
100
AcDbEntity
  8
寸法
 62
     0
 48
50.0
370
    -2
100
AcDbLine
 10
4171.600000000007
 20
6523.184450786738
 30
0.0
 11
3435.665006330072
 21
6523.184450786738
 31
0.0
  0
LINE
  5
277BC
330
26A7A
100
AcDbEntity
  8
寸法
 62
     0
 48
50.0
370
    -2
100
AcDbLine
 10
3495.665006330073
 20
7582.184450786733
 30
0.0
 11
3495.665006330072
 21
6523.184450786738
 31
0.0
  0
INSERT
  5
277BD
330
26A7A
100
AcDbEntity
  8
寸法
 62
     0
 48
50.0
370
    -2
100
AcDbBlockReference
  2
_DOTSMALL
 10
3495.665006330073
 20
7582.184450786733
 30
0.0
 41
100.0
 42
100.0
 43
100.0
 50
90.0
  0
INSERT
  5
277BE
330
26A7A
100
AcDbEntity
  8
寸法
 62
     0
 48
50.0
370
    -2
100
AcDbBlockReference
  2
_DOTSMALL
 10
3495.665006330072
 20
6523.184450786738
 30
0.0
 41
100.0
 42
100.0
 43
100.0
 50
270.0
  0
MTEXT
  5
277BF
330
26A7A
100
AcDbEntity
  8
寸法
 62
     7
 48
50.0
100
AcDbMText
 10
3395.665006330072
 20
7052.684450786734
 30
0.0
 40
120.0
 41
0.0
 71
     5
 72
     1
  1
\A1;1059
  7
STYLE1
 11
0.0000000000000001
 21
1.0
 31
0.0
 73
     1
 44
1.0
1001
ACAD
1000
MTEXTBEGIN
1070
    73
1070
     1
1070
    44
1040
1.0
1070
    74
1070
     0
1000
MTEXTEND
  0
POINT
  5
277C0
330
26A7A
100
AcDbEntity
  8
DEFPOINTS
 62
     0
 48
50.0
100
AcDbPoint
 10
4191.6
 20
7582.184450786733
 30
0.0
  0
POINT
  5
277C1
330
26A7A
100
AcDbEntity
  8
DEFPOINTS
 62
     0
 48
50.0
100
AcDbPoint
 10
4191.600000000007
 20
6523.184450786738
 30
0.0
  0
POINT
  5
277C2
330
26A7A
100
AcDbEntity
  8
DEFPOINTS
 62
     0
 48
50.0
100
AcDbPoint
 10
3495.665006330072
 20
6523.184450786738
 30
0.0
  0
ENDBLK
  5
26A85
330
26A7A
100
AcDbEntity
  8
0
 48
50.0
100
AcDbBlockEnd
  0
BLOCK
  5
26A8F
330
26A86
100
AcDbEntity
  8
0
 48
50.0
100
AcDbBlockBegin
  2
*D37
 70
     1
 10
0.0
 20
0.0
 30
0.0
  3
*D37
  1

  0
LINE
  5
277B1
330
26A86
100
AcDbEntity
  8
寸法
 62
     0
 48
50.0
370
    -2
100
AcDbLine
 10
5763.60000000001
 20
7122.184450786733
 30
0.0
 11
5763.60000000001
 21
8247.793267456982
 31
0.0
  0
LINE
  5
277B2
330
26A86
100
AcDbEntity
  8
寸法
 62
     0
 48
50.0
370
    -2
100
AcDbLine
 10
4943.600000000007
 20
7122.184450786733
 30
0.0
 11
4943.600000000007
 21
8247.793267456982
 31
0.0
  0
LINE
  5
277B3
330
26A86
100
AcDbEntity
  8
寸法
 62
     0
 48
50.0
370
    -2
100
AcDbLine
 10
5763.60000000001
 20
8187.793267456981
 30
0.0
 11
4943.600000000007
 21
8187.793267456981
 31
0.0
  0
INSERT
  5
277B4
330
26A86
100
AcDbEntity
  8
寸法
 62
     0
 48
50.0
370
    -2
100
AcDbBlockReference
  2
_DOTSMALL
 10
5763.60000000001
 20
8187.793267456981
 30
0.0
 41
100.0
 42
100.0
 43
100.0
  0
INSERT
  5
277B5
330
26A86
100
AcDbEntity
  8
寸法
 62
     0
 48
50.0
370
    -2
100
AcDbBlockReference
  2
_DOTSMALL
 10
4943.600000000007
 20
8187.793267456981
 30
0.0
 41
100.0
 42
100.0
 43
100.0
 50
180.0
  0
MTEXT
  5
277B6
330
26A86
100
AcDbEntity
  8
寸法
 62
     7
 48
50.0
100
AcDbMText
 10
5353.600000000009
 20
8287.805078480603
 30
0.0
 40
120.0
 41
0.0
 71
     5
 72
     1
  1
\A1;820
  7
STYLE1
 73
     1
 44
1.0
1001
ACAD
1000
MTEXTBEGIN
1070
    73
1070
     1
1070
    44
1040
1.0
1070
    74
1070
     0
1000
MTEXTEND
  0
POINT
  5
277B7
330
26A86
100
AcDbEntity
  8
DEFPOINTS
 62
     0
 48
50.0
100
AcDbPoint
 10
5763.60000000001
 20
7102.184450786734
 30
0.0
  0
POINT
  5
277B8
330
26A86
100
AcDbEntity
  8
DEFPOINTS
 62
     0
 48
50.0
100
AcDbPoint
 10
4943.600000000007
 20
7102.184450786734
 30
0.0
  0
POINT
  5
277B9
330
26A86
100
AcDbEntity
  8
DEFPOINTS
 62
     0
 48
50.0
100
AcDbPoint
 10
4943.600000000007
 20
8187.793267456981
 30
0.0
  0
ENDBLK
  5
26A90
330
26A86
100
AcDbEntity
  8
0
 48
50.0
100
AcDbBlockEnd
  0
BLOCK
  5
26AB5
330
26AAA
100
AcDbEntity
  8
0
 48
50.0
100
AcDbBlockBegin
  2
*D38
 70
     1
 10
0.0
 20
0.0
 30
0.0
  3
*D38
  1

  0
LINE
  5
277A7
330
26AAA
100
AcDbEntity
  8
寸法
 62
     0
 48
50.0
370
    -2
100
AcDbLine
 10
4171.600000000007
 20
6523.184450786738
 30
0.0
 11
3435.665006330072
 21
6523.184450786738
 31
0.0
  0
LINE
  5
277A8
330
26AAA
100
AcDbEntity
  8
寸法
 62
     0
 48
50.0
370
    -2
100
AcDbLine
 10
4098.6
 20
6325.184450786734
 30
0.0
 11
3435.665006330072
 21
6325.184450786734
 31
0.0
  0
LINE
  5
277A9
330
26AAA
100
AcDbEntity
  8
寸法
 62
     0
 48
50.0
370
    -2
100
AcDbLine
 10
3495.665006330072
 20
6523.184450786738
 30
0.0
 11
3495.665006330072
 21
6325.184450786734
 31
0.0
  0
LINE
  5
277AA
330
26AAA
100
AcDbEntity
  8
寸法
 62
     0
 48
50.0
370
    -2
100
AcDbLine
 10
3495.665006330072
 20
6325.184450786734
 30
0.0
 11
3495.665006330072
 21
5853.443842114484
 31
0.0
  0
INSERT
  5
277AB
330
26AAA
100
AcDbEntity
  8
寸法
 62
     0
 48
50.0
370
    -2
100
AcDbBlockReference
  2
_DOTSMALL
 10
3495.665006330072
 20
6523.184450786738
 30
0.0
 41
100.0
 42
100.0
 43
100.0
 50
90.0
  0
INSERT
  5
277AC
330
26AAA
100
AcDbEntity
  8
寸法
 62
     0
 48
50.0
370
    -2
100
AcDbBlockReference
  2
_DOTSMALL
 10
3495.665006330072
 20
6325.184450786734
 30
0.0
 41
100.0
 42
100.0
 43
100.0
 50
270.0
  0
MTEXT
  5
277AD
330
26AAA
100
AcDbEntity
  8
寸法
 62
     7
 48
50.0
100
AcDbMText
 10
3395.665006330072
 20
5989.653501944141
 30
0.0
 40
120.0
 41
0.0
 71
     5
 72
     1
  1
\A1;198
  7
STYLE1
 11
0.0000000000000001
 21
1.0
 31
0.0
 73
     1
 44
1.0
1001
ACAD
1000
MTEXTBEGIN
1070
    73
1070
     1
1070
    44
1040
1.0
1070
    74
1070
     0
1000
MTEXTEND
  0
POINT
  5
277AE
330
26AAA
100
AcDbEntity
  8
DEFPOINTS
 62
     0
 48
50.0
100
AcDbPoint
 10
4191.600000000007
 20
6523.184450786738
 30
0.0
  0
POINT
  5
277AF
330
26AAA
100
AcDbEntity
  8
DEFPOINTS
 62
     0
 48
50.0
100
AcDbPoint
 10
4118.6
 20
6325.184450786734
 30
0.0
  0
POINT
  5
277B0
330
26AAA
100
AcDbEntity
  8
DEFPOINTS
 62
     0
 48
50.0
100
AcDbPoint
 10
3495.665006330072
 20
6325.184450786734
 30
0.0
  0
ENDBLK
  5
26AB6
330
26AAA
100
AcDbEntity
  8
0
 48
50.0
100
AcDbBlockEnd
  0
BLOCK
  5
26AC1
330
26AB7
100
AcDbEntity
  8
0
 48
50.0
100
AcDbBlockBegin
  2
*D39
 70
     1
 10
0.0
 20
0.0
 30
0.0
  3
*D39
  1

  0
LINE
  5
2779E
330
26AB7
100
AcDbEntity
  8
寸法
 62
     0
 48
50.0
370
    -2
100
AcDbLine
 10
4098.600000000003
 20
6325.18445078673
 30
0.0
 11
3945.512673767881
 21
6325.18445078673
 31
0.0
  0
LINE
  5
2779F
330
26AB7
100
AcDbEntity
  8
寸法
 62
     0
 48
50.0
370
    -2
100
AcDbLine
 10
4454.325326928809
 20
5605.18445078673
 30
0.0
 11
3945.512673767881
 21
5605.18445078673
 31
0.0
  0
LINE
  5
277A0
330
26AB7
100
AcDbEntity
  8
寸法
 62
     0
 48
50.0
370
    -2
100
AcDbLine
 10
4005.512673767881
 20
6325.18445078673
 30
0.0
 11
4005.512673767881
 21
5605.18445078673
 31
0.0
  0
INSERT
  5
277A1
330
26AB7
100
AcDbEntity
  8
寸法
 62
     0
 48
50.0
370
    -2
100
AcDbBlockReference
  2
_DOTSMALL
 10
4005.512673767881
 20
6325.18445078673
 30
0.0
 41
100.0
 42
100.0
 43
100.0
 50
90.0
  0
INSERT
  5
277A2
330
26AB7
100
AcDbEntity
  8
寸法
 62
     0
 48
50.0
370
    -2
100
AcDbBlockReference
  2
_DOTSMALL
 10
4005.512673767881
 20
5605.18445078673
 30
0.0
 41
100.0
 42
100.0
 43
100.0
 50
270.0
  0
MTEXT
  5
277A3
330
26AB7
100
AcDbEntity
  8
寸法
 62
     7
 48
50.0
100
AcDbMText
 10
3905.500862744258
 20
5965.184450786731
 30
0.0
 40
120.0
 41
0.0
 71
     5
 72
     1
  1
\A1;扉の出720
  7
STYLE1
 11
0.0000000000000001
 21
1.0
 31
0.0
 73
     1
 44
1.0
1001
ACAD
1000
MTEXTBEGIN
1070
    73
1070
     1
1070
    44
1040
1.0
1070
    74
1070
     0
1000
MTEXTEND
  0
POINT
  5
277A4
330
26AB7
100
AcDbEntity
  8
DEFPOINTS
 62
     0
 48
50.0
100
AcDbPoint
 10
4118.600000000004
 20
6325.18445078673
 30
0.0
  0
POINT
  5
277A5
330
26AB7
100
AcDbEntity
  8
DEFPOINTS
 62
     0
 48
50.0
100
AcDbPoint
 10
4474.325326928808
 20
5605.18445078673
 30
0.0
  0
POINT
  5
277A6
330
26AB7
100
AcDbEntity
  8
DEFPOINTS
 62
     0
 48
50.0
100
AcDbPoint
 10
4005.512673767881
 20
5605.18445078673
 30
0.0
  0
ENDBLK
  5
26AC2
330
26AB7
100
AcDbEntity
  8
0
 48
50.0
100
AcDbBlockEnd
  0
BLOCK
  5
26ACD
330
26AC3
100
AcDbEntity
  8
0
 48
50.0
100
AcDbBlockBegin
  2
*D40
 70
     1
 10
0.0
 20
0.0
 30
0.0
  3
*D40
  1

  0
LINE
  5
27795
330
26AC3
100
AcDbEntity
  8
寸法
 62
     0
 48
50.0
370
    -2
100
AcDbLine
 10
4672.765475140901
 20
6325.184450786744
 30
0.0
 11
4541.285990614301
 21
6325.184450786744
 31
0.0
  0
LINE
  5
27796
330
26AC3
100
AcDbEntity
  8
寸法
 62
     0
 48
50.0
370
    -2
100
AcDbLine
 10
4873.600000000007
 20
7052.184450786734
 30
0.0
 11
4541.285990614301
 21
7052.184450786734
 31
0.0
  0
LINE
  5
27797
330
26AC3
100
AcDbEntity
  8
寸法
 62
     0
 48
50.0
370
    -2
100
AcDbLine
 10
4601.285990614302
 20
6325.184450786744
 30
0.0
 11
4601.285990614302
 21
7052.184450786734
 31
0.0
  0
INSERT
  5
27798
330
26AC3
100
AcDbEntity
  8
寸法
 62
     0
 48
50.0
370
    -2
100
AcDbBlockReference
  2
_DOTSMALL
 10
4601.285990614302
 20
6325.184450786744
 30
0.0
 41
100.0
 42
100.0
 43
100.0
 50
270.0
  0
INSERT
  5
27799
330
26AC3
100
AcDbEntity
  8
寸法
 62
     0
 48
50.0
370
    -2
100
AcDbBlockReference
  2
_DOTSMALL
 10
4601.285990614302
 20
7052.184450786734
 30
0.0
 41
100.0
 42
100.0
 43
100.0
 50
90.0
  0
MTEXT
  5
2779A
330
26AC3
100
AcDbEntity
  8
寸法
 62
     7
 48
50.0
100
AcDbMText
 10
4501.274179590678
 20
6767.184450786733
 30
0.0
 40
120.0
 41
0.0
 71
     5
 72
     1
  1
\A1;727
  7
STYLE1
 11
0.0000000000000001
 21
1.0
 31
0.0
 73
     1
 44
1.0
1001
ACAD
1000
MTEXTBEGIN
1070
    73
1070
     1
1070
    44
1040
1.0
1070
    74
1070
     0
1000
MTEXTEND
  0
POINT
  5
2779B
330
26AC3
100
AcDbEntity
  8
DEFPOINTS
 62
     0
 48
50.0
100
AcDbPoint
 10
4692.765475140901
 20
6325.184450786744
 30
0.0
  0
POINT
  5
2779C
330
26AC3
100
AcDbEntity
  8
DEFPOINTS
 62
     0
 48
50.0
100
AcDbPoint
 10
4893.600000000008
 20
7052.184450786734
 30
0.0
  0
POINT
  5
2779D
330
26AC3
100
AcDbEntity
  8
DEFPOINTS
 62
     0
 48
50.0
100
AcDbPoint
 10
4601.285990614302
 20
7052.184450786734
 30
0.0
  0
ENDBLK
  5
26ACE
330
26AC3
100
AcDbEntity
  8
0
 48
50.0
100
AcDbBlockEnd
  0
BLOCK
  5
26AD8
330
26ACF
100
AcDbEntity
  8
0
 48
50.0
100
AcDbBlockBegin
  2
*D41
 70
     1
 10
0.0
 20
0.0
 30
0.0
  3
*D41
  1

  0
LINE
  5
2778C
330
26ACF
100
AcDbEntity
  8
寸法
 62
     0
 48
50.0
370
    -2
100
AcDbLine
 10
6465.600000000002
 20
7652.184450786734
 30
0.0
 11
6465.600000000002
 21
8491.450908880644
 31
0.0
  0
LINE
  5
2778D
330
26ACF
100
AcDbEntity
  8
寸法
 62
     0
 48
50.0
370
    -2
100
AcDbLine
 10
4241.6
 20
7652.184450786734
 30
0.0
 11
4241.6
 21
8491.450908880644
 31
0.0
  0
LINE
  5
2778E
330
26ACF
100
AcDbEntity
  8
寸法
 62
     0
 48
50.0
370
    -2
100
AcDbLine
 10
6465.600000000002
 20
8431.450908880645
 30
0.0
 11
4241.6
 21
8431.450908880645
 31
0.0
  0
INSERT
  5
2778F
330
26ACF
100
AcDbEntity
  8
寸法
 62
     0
 48
50.0
370
    -2
100
AcDbBlockReference
  2
_DOTSMALL
 10
6465.600000000002
 20
8431.450908880645
 30
0.0
 41
100.0
 42
100.0
 43
100.0
  0
INSERT
  5
27790
330
26ACF
100
AcDbEntity
  8
寸法
 62
     0
 48
50.0
370
    -2
100
AcDbBlockReference
  2
_DOTSMALL
 10
4241.6
 20
8431.450908880645
 30
0.0
 41
100.0
 42
100.0
 43
100.0
 50
180.0
  0
MTEXT
  5
27791
330
26ACF
100
AcDbEntity
  8
寸法
 62
     7
 48
50.0
100
AcDbMText
 10
5353.600000000001
 20
8531.462719904267
 30
0.0
 40
120.0
 41
0.0
 71
     5
 72
     1
  1
\A1;2224
  7
STYLE1
 73
     1
 44
1.0
1001
ACAD
1000
MTEXTBEGIN
1070
    73
1070
     1
1070
    44
1040
1.0
1070
    74
1070
     0
1000
MTEXTEND
  0
POINT
  5
27792
330
26ACF
100
AcDbEntity
  8
DEFPOINTS
 62
     0
 48
50.0
100
AcDbPoint
 10
6465.600000000002
 20
7632.184450786734
 30
0.0
  0
POINT
  5
27793
330
26ACF
100
AcDbEntity
  8
DEFPOINTS
 62
     0
 48
50.0
100
AcDbPoint
 10
4241.6
 20
7632.184450786734
 30
0.0
  0
POINT
  5
27794
330
26ACF
100
AcDbEntity
  8
DEFPOINTS
 62
     0
 48
50.0
100
AcDbPoint
 10
4241.6
 20
8431.450908880645
 30
0.0
  0
ENDBLK
  5
26AD9
330
26ACF
100
AcDbEntity
  8
0
 48
50.0
100
AcDbBlockEnd
  0
BLOCK
  5
26AEF
330
26AE4
100
AcDbEntity
  8
0
 48
50.0
100
AcDbBlockBegin
  2
*D42
 70
     1
 10
0.0
 20
0.0
 30
0.0
  3
*D42
  1

  0
LINE
  5
27782
330
26AE4
100
AcDbEntity
  8
寸法
 62
     0
 48
50.0
370
    -2
100
AcDbLine
 10
4098.6
 20
7705.184450786735
 30
0.0
 11
3435.665006330073
 21
7705.184450786735
 31
0.0
  0
LINE
  5
27783
330
26AE4
100
AcDbEntity
  8
寸法
 62
     0
 48
50.0
370
    -2
100
AcDbLine
 10
4171.6
 20
7582.184450786733
 30
0.0
 11
3435.665006330073
 21
7582.184450786733
 31
0.0
  0
LINE
  5
27784
330
26AE4
100
AcDbEntity
  8
寸法
 62
     0
 48
50.0
370
    -2
100
AcDbLine
 10
3495.665006330073
 20
7582.184450786733
 30
0.0
 11
3495.665006330073
 21
7705.184450786735
 31
0.0
  0
LINE
  5
27785
330
26AE4
100
AcDbEntity
  8
寸法
 62
     0
 48
50.0
370
    -2
100
AcDbLine
 10
3495.665006330073
 20
7705.184450786735
 30
0.0
 11
3495.665006330073
 21
8116.776333878773
 31
0.0
  0
INSERT
  5
27786
330
26AE4
100
AcDbEntity
  8
寸法
 62
     0
 48
50.0
370
    -2
100
AcDbBlockReference
  2
_DOTSMALL
 10
3495.665006330073
 20
7582.184450786733
 30
0.0
 41
100.0
 42
100.0
 43
100.0
 50
270.0
  0
INSERT
  5
27787
330
26AE4
100
AcDbEntity
  8
寸法
 62
     0
 48
50.0
370
    -2
100
AcDbBlockReference
  2
_DOTSMALL
 10
3495.665006330073
 20
7705.184450786735
 30
0.0
 41
100.0
 42
100.0
 43
100.0
 50
90.0
  0
MTEXT
  5
27788
330
26AE4
100
AcDbEntity
  8
寸法
 62
     7
 48
50.0
100
AcDbMText
 10
3395.653195306449
 20
7978.291052504534
 30
0.0
 40
120.0
 41
0.0
 71
     5
 72
     1
  1
\A1;123
  7
STYLE1
 11
0.0000000000000001
 21
1.0
 31
0.0
 73
     1
 44
1.0
1001
ACAD
1000
MTEXTBEGIN
1070
    73
1070
     1
1070
    44
1040
1.0
1070
    74
1070
     0
1000
MTEXTEND
  0
POINT
  5
27789
330
26AE4
100
AcDbEntity
  8
DEFPOINTS
 62
     0
 48
50.0
100
AcDbPoint
 10
4118.6
 20
7705.184450786735
 30
0.0
  0
POINT
  5
2778A
330
26AE4
100
AcDbEntity
  8
DEFPOINTS
 62
     0
 48
50.0
100
AcDbPoint
 10
4191.6
 20
7582.184450786733
 30
0.0
  0
POINT
  5
2778B
330
26AE4
100
AcDbEntity
  8
DEFPOINTS
 62
     0
 48
50.0
100
AcDbPoint
 10
3495.665006330073
 20
7582.184450786733
 30
0.0
  0
ENDBLK
  5
26AF0
330
26AE4
100
AcDbEntity
  8
0
 48
50.0
100
AcDbBlockEnd
  0
BLOCK
  5
26AFC
330
26AF1
100
AcDbEntity
  8
0
 48
50.0
100
AcDbBlockBegin
  2
*D43
 70
     1
 10
0.0
 20
0.0
 30
0.0
  3
*D43
  1

  0
LINE
  5
27778
330
26AF1
100
AcDbEntity
  8
寸法
 62
     0
 48
50.0
370
    -2
100
AcDbLine
 10
4241.6
 20
7652.184450786734
 30
0.0
 11
4241.6
 21
8491.450908880644
 31
0.0
  0
LINE
  5
27779
330
26AF1
100
AcDbEntity
  8
寸法
 62
     0
 48
50.0
370
    -2
100
AcDbLine
 10
4118.6
 20
7725.184450786733
 30
0.0
 11
4118.6
 21
8491.450908880644
 31
0.0
  0
LINE
  5
2777A
330
26AF1
100
AcDbEntity
  8
寸法
 62
     0
 48
50.0
370
    -2
100
AcDbLine
 10
4241.6
 20
8431.450908880645
 30
0.0
 11
4118.6
 21
8431.450908880645
 31
0.0
  0
LINE
  5
2777B
330
26AF1
100
AcDbEntity
  8
寸法
 62
     0
 48
50.0
370
    -2
100
AcDbLine
 10
4118.6
 20
8431.450908880645
 30
0.0
 11
3707.008116907964
 21
8431.450908880645
 31
0.0
  0
INSERT
  5
2777C
330
26AF1
100
AcDbEntity
  8
寸法
 62
     0
 48
50.0
370
    -2
100
AcDbBlockReference
  2
_DOTSMALL
 10
4241.6
 20
8431.450908880645
 30
0.0
 41
100.0
 42
100.0
 43
100.0
  0
INSERT
  5
2777D
330
26AF1
100
AcDbEntity
  8
寸法
 62
     0
 48
50.0
370
    -2
100
AcDbBlockReference
  2
_DOTSMALL
 10
4118.6
 20
8431.450908880645
 30
0.0
 41
100.0
 42
100.0
 43
100.0
 50
180.0
  0
MTEXT
  5
2777E
330
26AF1
100
AcDbEntity
  8
寸法
 62
     7
 48
50.0
100
AcDbMText
 10
3845.493398282202
 20
8531.462719904267
 30
0.0
 40
120.0
 41
0.0
 71
     5
 72
     1
  1
\A1;123
  7
STYLE1
 73
     1
 44
1.0
1001
ACAD
1000
MTEXTBEGIN
1070
    73
1070
     1
1070
    44
1040
1.0
1070
    74
1070
     0
1000
MTEXTEND
  0
POINT
  5
2777F
330
26AF1
100
AcDbEntity
  8
DEFPOINTS
 62
     0
 48
50.0
100
AcDbPoint
 10
4241.6
 20
7632.184450786734
 30
0.0
  0
POINT
  5
27780
330
26AF1
100
AcDbEntity
  8
DEFPOINTS
 62
     0
 48
50.0
100
AcDbPoint
 10
4118.6
 20
7705.184450786735
 30
0.0
  0
POINT
  5
27781
330
26AF1
100
AcDbEntity
  8
DEFPOINTS
 62
     0
 48
50.0
100
AcDbPoint
 10
4118.6
 20
8431.450908880645
 30
0.0
  0
ENDBLK
  5
26AFD
330
26AF1
100
AcDbEntity
  8
0
 48
50.0
100
AcDbBlockEnd
  0
BLOCK
  5
26B15
330
26B0B
100
AcDbEntity
  8
0
 48
50.0
100
AcDbBlockBegin
  2
*D44
 70
     1
 10
0.0
 20
0.0
 30
0.0
  3
*D44
  1

  0
LINE
  5
270FC
330
26B0B
100
AcDbEntity
  8
寸法
 62
     0
 48
50.0
370
    -2
100
AcDbLine
 10
8105.6
 20
7652.184450786734
 30
0.0
 11
8105.6
 21
8491.450908880644
 31
0.0
  0
LINE
  5
270FD
330
26B0B
100
AcDbEntity
  8
寸法
 62
     0
 48
50.0
370
    -2
100
AcDbLine
 10
6465.600000000002
 20
7652.184450786734
 30
0.0
 11
6465.600000000002
 21
8491.450908880644
 31
0.0
  0
LINE
  5
270FE
330
26B0B
100
AcDbEntity
  8
寸法
 62
     0
 48
50.0
370
    -2
100
AcDbLine
 10
8105.6
 20
8431.450908880645
 30
0.0
 11
6465.600000000002
 21
8431.450908880645
 31
0.0
  0
INSERT
  5
270FF
330
26B0B
100
AcDbEntity
  8
寸法
 62
     0
 48
50.0
370
    -2
100
AcDbBlockReference
  2
_DOTSMALL
 10
8105.6
 20
8431.450908880645
 30
0.0
 41
100.0
 42
100.0
 43
100.0
  0
INSERT
  5
27100
330
26B0B
100
AcDbEntity
  8
寸法
 62
     0
 48
50.0
370
    -2
100
AcDbBlockReference
  2
_DOTSMALL
 10
6465.600000000002
 20
8431.450908880645
 30
0.0
 41
100.0
 42
100.0
 43
100.0
 50
180.0
  0
MTEXT
  5
27101
330
26B0B
100
AcDbEntity
  8
寸法
 62
     7
 48
50.0
100
AcDbMText
 10
7285.600000000001
 20
8531.450908880644
 30
0.0
 40
120.0
 41
0.0
 71
     5
 72
     1
  1
\A1;1640
  7
STYLE1
 73
     1
 44
1.0
1001
ACAD
1000
MTEXTBEGIN
1070
    73
1070
     1
1070
    44
1040
1.0
1070
    74
1070
     0
1000
MTEXTEND
  0
POINT
  5
27102
330
26B0B
100
AcDbEntity
  8
DEFPOINTS
 62
     0
 48
50.0
100
AcDbPoint
 10
8105.6
 20
7632.184450786734
 30
0.0
  0
POINT
  5
27103
330
26B0B
100
AcDbEntity
  8
DEFPOINTS
 62
     0
 48
50.0
100
AcDbPoint
 10
6465.600000000002
 20
7632.184450786734
 30
0.0
  0
POINT
  5
27104
330
26B0B
100
AcDbEntity
  8
DEFPOINTS
 62
     0
 48
50.0
100
AcDbPoint
 10
6465.600000000002
 20
8431.450908880645
 30
0.0
  0
ENDBLK
  5
26B16
330
26B0B
100
AcDbEntity
  8
0
 48
50.0
100
AcDbBlockEnd
  0
BLOCK
  5
26B2E
330
26B24
100
AcDbEntity
  8
0
 48
50.0
100
AcDbBlockBegin
  2
*D45
 70
     1
 10
0.0
 20
0.0
 30
0.0
  3
*D45
  1

  0
LINE
  5
272FE
330
26B24
100
AcDbEntity
  8
寸法
 62
     0
 48
50.0
370
    -2
100
AcDbLine
 10
9863.600000000008
 20
7122.184450786733
 30
0.0
 11
9863.600000000008
 21
8247.793267456982
 31
0.0
  0
LINE
  5
272FF
330
26B24
100
AcDbEntity
  8
寸法
 62
     0
 48
50.0
370
    -2
100
AcDbLine
 10
9043.60000000001
 20
7122.184450786733
 30
0.0
 11
9043.60000000001
 21
8247.793267456982
 31
0.0
  0
LINE
  5
27300
330
26B24
100
AcDbEntity
  8
寸法
 62
     0
 48
50.0
370
    -2
100
AcDbLine
 10
9863.600000000008
 20
8187.793267456981
 30
0.0
 11
9043.60000000001
 21
8187.793267456981
 31
0.0
  0
INSERT
  5
27301
330
26B24
100
AcDbEntity
  8
寸法
 62
     0
 48
50.0
370
    -2
100
AcDbBlockReference
  2
_DOTSMALL
 10
9863.600000000008
 20
8187.793267456981
 30
0.0
 41
100.0
 42
100.0
 43
100.0
  0
INSERT
  5
27302
330
26B24
100
AcDbEntity
  8
寸法
 62
     0
 48
50.0
370
    -2
100
AcDbBlockReference
  2
_DOTSMALL
 10
9043.60000000001
 20
8187.793267456981
 30
0.0
 41
100.0
 42
100.0
 43
100.0
 50
180.0
  0
MTEXT
  5
27303
330
26B24
100
AcDbEntity
  8
寸法
 62
     7
 48
50.0
100
AcDbMText
 10
9453.60000000001
 20
8287.805078480603
 30
0.0
 40
120.0
 41
0.0
 71
     5
 72
     1
  1
\A1;820
  7
STYLE1
 73
     1
 44
1.0
1001
ACAD
1000
MTEXTBEGIN
1070
    73
1070
     1
1070
    44
1040
1.0
1070
    74
1070
     0
1000
MTEXTEND
  0
POINT
  5
27304
330
26B24
100
AcDbEntity
  8
DEFPOINTS
 62
     0
 48
50.0
100
AcDbPoint
 10
9863.600000000008
 20
7102.184450786734
 30
0.0
  0
POINT
  5
27305
330
26B24
100
AcDbEntity
  8
DEFPOINTS
 62
     0
 48
50.0
100
AcDbPoint
 10
9043.60000000001
 20
7102.184450786734
 30
0.0
  0
POINT
  5
27306
330
26B24
100
AcDbEntity
  8
DEFPOINTS
 62
     0
 48
50.0
100
AcDbPoint
 10
9043.60000000001
 20
8187.793267456981
 30
0.0
  0
ENDBLK
  5
26B2F
330
26B24
100
AcDbEntity
  8
0
 48
50.0
100
AcDbBlockEnd
  0
BLOCK
  5
26B3A
330
26B30
100
AcDbEntity
  8
0
 48
50.0
100
AcDbBlockBegin
  2
*D46
 70
     1
 10
0.0
 20
0.0
 30
0.0
  3
*D46
  1

  0
LINE
  5
272F5
330
26B30
100
AcDbEntity
  8
寸法
 62
     0
 48
50.0
370
    -2
100
AcDbLine
 10
11503.6
 20
7122.184450786733
 30
0.0
 11
11503.6
 21
8247.793267456982
 31
0.0
  0
LINE
  5
272F6
330
26B30
100
AcDbEntity
  8
寸法
 62
     0
 48
50.0
370
    -2
100
AcDbLine
 10
10683.60000000001
 20
7122.184450786733
 30
0.0
 11
10683.60000000001
 21
8247.793267456982
 31
0.0
  0
LINE
  5
272F7
330
26B30
100
AcDbEntity
  8
寸法
 62
     0
 48
50.0
370
    -2
100
AcDbLine
 10
11503.6
 20
8187.793267456981
 30
0.0
 11
10683.60000000001
 21
8187.793267456981
 31
0.0
  0
INSERT
  5
272F8
330
26B30
100
AcDbEntity
  8
寸法
 62
     0
 48
50.0
370
    -2
100
AcDbBlockReference
  2
_DOTSMALL
 10
11503.6
 20
8187.793267456981
 30
0.0
 41
100.0
 42
100.0
 43
100.0
  0
INSERT
  5
272F9
330
26B30
100
AcDbEntity
  8
寸法
 62
     0
 48
50.0
370
    -2
100
AcDbBlockReference
  2
_DOTSMALL
 10
10683.60000000001
 20
8187.793267456981
 30
0.0
 41
100.0
 42
100.0
 43
100.0
 50
180.0
  0
MTEXT
  5
272FA
330
26B30
100
AcDbEntity
  8
寸法
 62
     7
 48
50.0
100
AcDbMText
 10
11093.60000000001
 20
8287.805078480603
 30
0.0
 40
120.0
 41
0.0
 71
     5
 72
     1
  1
\A1;820
  7
STYLE1
 73
     1
 44
1.0
1001
ACAD
1000
MTEXTBEGIN
1070
    73
1070
     1
1070
    44
1040
1.0
1070
    74
1070
     0
1000
MTEXTEND
  0
POINT
  5
272FB
330
26B30
100
AcDbEntity
  8
DEFPOINTS
 62
     0
 48
50.0
100
AcDbPoint
 10
11503.6
 20
7102.184450786734
 30
0.0
  0
POINT
  5
272FC
330
26B30
100
AcDbEntity
  8
DEFPOINTS
 62
     0
 48
50.0
100
AcDbPoint
 10
10683.60000000001
 20
7102.184450786734
 30
0.0
  0
POINT
  5
272FD
330
26B30
100
AcDbEntity
  8
DEFPOINTS
 62
     0
 48
50.0
100
AcDbPoint
 10
10683.60000000001
 20
8187.793267456981
 30
0.0
  0
ENDBLK
  5
26B3B
330
26B30
100
AcDbEntity
  8
0
 48
50.0
100
AcDbBlockEnd
  0
BLOCK
  5
26B46
330
26B3C
100
AcDbEntity
  8
0
 48
50.0
100
AcDbBlockBegin
  2
*D47
 70
     1
 10
0.0
 20
0.0
 30
0.0
  3
*D47
  1

  0
LINE
  5
272EC
330
26B3C
100
AcDbEntity
  8
寸法
 62
     0
 48
50.0
370
    -2
100
AcDbLine
 10
12328.6
 20
7725.184450786733
 30
0.0
 11
12328.6
 21
8247.793267456982
 31
0.0
  0
LINE
  5
272ED
330
26B3C
100
AcDbEntity
  8
寸法
 62
     0
 48
50.0
370
    -2
100
AcDbLine
 10
11503.6
 20
7122.184450786733
 30
0.0
 11
11503.6
 21
8247.793267456982
 31
0.0
  0
LINE
  5
272EE
330
26B3C
100
AcDbEntity
  8
寸法
 62
     0
 48
50.0
370
    -2
100
AcDbLine
 10
12328.6
 20
8187.793267456981
 30
0.0
 11
11503.6
 21
8187.793267456981
 31
0.0
  0
INSERT
  5
272EF
330
26B3C
100
AcDbEntity
  8
寸法
 62
     0
 48
50.0
370
    -2
100
AcDbBlockReference
  2
_DOTSMALL
 10
12328.6
 20
8187.793267456981
 30
0.0
 41
100.0
 42
100.0
 43
100.0
  0
INSERT
  5
272F0
330
26B3C
100
AcDbEntity
  8
寸法
 62
     0
 48
50.0
370
    -2
100
AcDbBlockReference
  2
_DOTSMALL
 10
11503.6
 20
8187.793267456981
 30
0.0
 41
100.0
 42
100.0
 43
100.0
 50
180.0
  0
MTEXT
  5
272F1
330
26B3C
100
AcDbEntity
  8
寸法
 62
     7
 48
50.0
100
AcDbMText
 10
11916.1
 20
8287.805078480603
 30
0.0
 40
120.0
 41
0.0
 71
     5
 72
     1
  1
\A1;825
  7
STYLE1
 73
     1
 44
1.0
1001
ACAD
1000
MTEXTBEGIN
1070
    73
1070
     1
1070
    44
1040
1.0
1070
    74
1070
     0
1000
MTEXTEND
  0
POINT
  5
272F2
330
26B3C
100
AcDbEntity
  8
DEFPOINTS
 62
     0
 48
50.0
100
AcDbPoint
 10
12328.6
 20
7705.184450786735
 30
0.0
  0
POINT
  5
272F3
330
26B3C
100
AcDbEntity
  8
DEFPOINTS
 62
     0
 48
50.0
100
AcDbPoint
 10
11503.6
 20
7102.184450786734
 30
0.0
  0
POINT
  5
272F4
330
26B3C
100
AcDbEntity
  8
DEFPOINTS
 62
     0
 48
50.0
100
AcDbPoint
 10
11503.6
 20
8187.793267456981
 30
0.0
  0
ENDBLK
  5
26B47
330
26B3C
100
AcDbEntity
  8
0
 48
50.0
100
AcDbBlockEnd
  0
BLOCK
  5
26B52
330
26B48
100
AcDbEntity
  8
0
 48
50.0
100
AcDbBlockBegin
  2
*D48
 70
     1
 10
0.0
 20
0.0
 30
0.0
  3
*D48
  1

  0
LINE
  5
272E3
330
26B48
100
AcDbEntity
  8
寸法
 62
     0
 48
50.0
370
    -2
100
AcDbLine
 10
10683.60000000001
 20
7122.184450786733
 30
0.0
 11
10683.60000000001
 21
8247.793267456982
 31
0.0
  0
LINE
  5
272E4
330
26B48
100
AcDbEntity
  8
寸法
 62
     0
 48
50.0
370
    -2
100
AcDbLine
 10
9863.600000000008
 20
7122.184450786733
 30
0.0
 11
9863.600000000008
 21
8247.793267456982
 31
0.0
  0
LINE
  5
272E5
330
26B48
100
AcDbEntity
  8
寸法
 62
     0
 48
50.0
370
    -2
100
AcDbLine
 10
10683.60000000001
 20
8187.793267456981
 30
0.0
 11
9863.600000000008
 21
8187.793267456981
 31
0.0
  0
INSERT
  5
272E6
330
26B48
100
AcDbEntity
  8
寸法
 62
     0
 48
50.0
370
    -2
100
AcDbBlockReference
  2
_DOTSMALL
 10
10683.60000000001
 20
8187.793267456981
 30
0.0
 41
100.0
 42
100.0
 43
100.0
  0
INSERT
  5
272E7
330
26B48
100
AcDbEntity
  8
寸法
 62
     0
 48
50.0
370
    -2
100
AcDbBlockReference
  2
_DOTSMALL
 10
9863.600000000008
 20
8187.793267456981
 30
0.0
 41
100.0
 42
100.0
 43
100.0
 50
180.0
  0
MTEXT
  5
272E8
330
26B48
100
AcDbEntity
  8
寸法
 62
     7
 48
50.0
100
AcDbMText
 10
10273.6
 20
8287.805078480603
 30
0.0
 40
120.0
 41
0.0
 71
     5
 72
     1
  1
\A1;820
  7
STYLE1
 73
     1
 44
1.0
1001
ACAD
1000
MTEXTBEGIN
1070
    73
1070
     1
1070
    44
1040
1.0
1070
    74
1070
     0
1000
MTEXTEND
  0
POINT
  5
272E9
330
26B48
100
AcDbEntity
  8
DEFPOINTS
 62
     0
 48
50.0
100
AcDbPoint
 10
10683.60000000001
 20
7102.184450786734
 30
0.0
  0
POINT
  5
272EA
330
26B48
100
AcDbEntity
  8
DEFPOINTS
 62
     0
 48
50.0
100
AcDbPoint
 10
9863.600000000008
 20
7102.184450786734
 30
0.0
  0
POINT
  5
272EB
330
26B48
100
AcDbEntity
  8
DEFPOINTS
 62
     0
 48
50.0
100
AcDbPoint
 10
9863.600000000008
 20
8187.793267456981
 30
0.0
  0
ENDBLK
  5
26B53
330
26B48
100
AcDbEntity
  8
0
 48
50.0
100
AcDbBlockEnd
  0
BLOCK
  5
27630
330
27626
100
AcDbEntity
  8
0
 48
50.0
100
AcDbBlockBegin
  2
*D49
 70
     1
 10
0.0
 20
0.0
 30
0.0
  3
*D49
  1

  0
LINE
  5
27670
330
27626
100
AcDbEntity
  8
寸法
 62
     0
 48
50.0
370
    -2
100
AcDbLine
 10
8362.006077174056
 20
2017.584479392613
 30
0.0
 11
8903.874676942903
 21
2017.584479392613
 31
0.0
  0
LINE
  5
27671
330
27626
100
AcDbEntity
  8
寸法
 62
     0
 48
50.0
370
    -2
100
AcDbLine
 10
8362.006077174056
 20
1693.584479392612
 30
0.0
 11
8903.874676942903
 21
1693.584479392612
 31
0.0
  0
LINE
  5
27672
330
27626
100
AcDbEntity
  8
寸法
 62
     0
 48
50.0
370
    -2
100
AcDbLine
 10
8843.874676942901
 20
2017.584479392613
 30
0.0
 11
8843.874676942901
 21
1693.584479392612
 31
0.0
  0
INSERT
  5
27673
330
27626
100
AcDbEntity
  8
寸法
 62
     0
 48
50.0
370
    -2
100
AcDbBlockReference
  2
_DOTSMALL
 10
8843.874676942901
 20
2017.584479392613
 30
0.0
 41
100.0
 42
100.0
 43
100.0
 50
90.0
  0
INSERT
  5
27674
330
27626
100
AcDbEntity
  8
寸法
 62
     0
 48
50.0
370
    -2
100
AcDbBlockReference
  2
_DOTSMALL
 10
8843.874676942901
 20
1693.584479392612
 30
0.0
 41
100.0
 42
100.0
 43
100.0
 50
270.0
  0
MTEXT
  5
27675
330
27626
100
AcDbEntity
  8
寸法
 62
     7
 48
50.0
100
AcDbMText
 10
8743.874676942901
 20
1855.584479392614
 30
0.0
 40
120.0
 41
0.0
 71
     5
 72
     1
  1
\A1;180
  7
STYLE1
 11
0.0000000000000001
 21
1.0
 31
0.0
 73
     1
 44
1.0
1001
ACAD
1000
MTEXTBEGIN
1070
    73
1070
     1
1070
    44
1040
1.0
1070
    74
1070
     0
1000
MTEXTEND
  0
POINT
  5
27676
330
27626
100
AcDbEntity
  8
DEFPOINTS
 62
     0
 48
50.0
100
AcDbPoint
 10
8342.006077174058
 20
2017.584479392613
 30
0.0
  0
POINT
  5
27677
330
27626
100
AcDbEntity
  8
DEFPOINTS
 62
     0
 48
50.0
100
AcDbPoint
 10
8342.006077174058
 20
1693.584479392612
 30
0.0
  0
POINT
  5
27678
330
27626
100
AcDbEntity
  8
DEFPOINTS
 62
     0
 48
50.0
100
AcDbPoint
 10
8843.874676942901
 20
1693.584479392612
 30
0.0
  0
ENDBLK
  5
27631
330
27626
100
AcDbEntity
  8
0
 48
50.0
100
AcDbBlockEnd
  0
BLOCK
  5
2763E
330
27632
100
AcDbEntity
  8
0
 48
50.0
100
AcDbBlockBegin
  2
*D50
 70
     1
 10
0.0
 20
0.0
 30
0.0
  3
*D50
  1

  0
LINE
  5
27679
330
27632
100
AcDbEntity
  8
寸法
 62
     0
 48
50.0
370
    -2
100
AcDbLine
 10
8174.806077174059
 20
2070.344479392614
 30
0.0
 11
9179.929343061928
 21
2070.344479392614
 31
0.0
  0
LINE
  5
2767A
330
27632
100
AcDbEntity
  8
寸法
 62
     0
 48
50.0
370
    -2
100
AcDbLine
 10
8362.006077174056
 20
2017.584479392613
 30
0.0
 11
9179.929343061928
 21
2017.584479392613
 31
0.0
  0
LINE
  5
2767B
330
27632
100
AcDbEntity
  8
寸法
 62
     0
 48
50.0
370
    -2
100
AcDbLine
 10
9119.929343061929
 20
2070.344479392614
 30
0.0
 11
9119.929343061929
 21
2170.344479392614
 31
0.0
  0
LINE
  5
2767C
330
27632
100
AcDbEntity
  8
寸法
 62
     0
 48
50.0
370
    -2
100
AcDbLine
 10
9119.929343061929
 20
2017.584479392613
 30
0.0
 11
9119.929343061929
 21
1285.566672549647
 31
0.0
  0
LINE
  5
2767D
330
27632
100
AcDbEntity
  8
寸法
 62
     0
 48
50.0
370
    -2
100
AcDbLine
 10
9119.929343061929
 20
2070.344479392614
 30
0.0
 11
9119.929343061929
 21
2017.584479392613
 31
0.0
  0
INSERT
  5
2767E
330
27632
100
AcDbEntity
  8
寸法
 62
     0
 48
50.0
370
    -2
100
AcDbBlockReference
  2
_DOTSMALL
 10
9119.929343061929
 20
2070.344479392614
 30
0.0
 41
100.0
 42
100.0
 43
100.0
 50
270.0
  0
INSERT
  5
2767F
330
27632
100
AcDbEntity
  8
寸法
 62
     0
 48
50.0
370
    -2
100
AcDbBlockReference
  2
_DOTSMALL
 10
9119.929343061929
 20
2017.584479392613
 30
0.0
 41
100.0
 42
100.0
 43
100.0
 50
90.0
  0
MTEXT
  5
27680
330
27632
100
AcDbEntity
  8
寸法
 62
     7
 48
50.0
100
AcDbMText
 10
9019.917532038308
 20
1551.575575971131
 30
0.0
 40
120.0
 41
0.0
 71
     5
 72
     1
  1
\A1;20～25
  7
STYLE1
 11
0.0000000000000001
 21
1.0
 31
0.0
 73
     1
 44
1.0
1001
ACAD
1000
MTEXTBEGIN
1070
    73
1070
     1
1070
    44
1040
1.0
1070
    74
1070
     0
1000
MTEXTEND
  0
POINT
  5
27681
330
27632
100
AcDbEntity
  8
DEFPOINTS
 62
     0
 48
50.0
100
AcDbPoint
 10
8154.806077174058
 20
2070.344479392614
 30
0.0
  0
POINT
  5
27682
330
27632
100
AcDbEntity
  8
DEFPOINTS
 62
     0
 48
50.0
100
AcDbPoint
 10
8342.006077174058
 20
2017.584479392613
 30
0.0
  0
POINT
  5
27683
330
27632
100
AcDbEntity
  8
DEFPOINTS
 62
     0
 48
50.0
100
AcDbPoint
 10
9119.929343061929
 20
2017.584479392613
 30
0.0
  0
ENDBLK
  5
2763F
330
27632
100
AcDbEntity
  8
0
 48
50.0
100
AcDbBlockEnd
  0
BLOCK
  5
2764A
330
27640
100
AcDbEntity
  8
0
 48
50.0
100
AcDbBlockBegin
  2
*D51
 70
     1
 10
0.0
 20
0.0
 30
0.0
  3
*D51
  1

  0
LINE
  5
27684
330
27640
100
AcDbEntity
  8
寸法
 62
     0
 48
50.0
370
    -2
100
AcDbLine
 10
6079.966763996864
 20
1473.584479392613
 30
0.0
 11
5897.546450264404
 21
1473.584479392613
 31
0.0
  0
LINE
  5
27685
330
27640
100
AcDbEntity
  8
寸法
 62
     0
 48
50.0
370
    -2
100
AcDbLine
 10
5999.966763996868
 20
1233.584479392613
 30
0.0
 11
5897.546450264404
 21
1233.584479392613
 31
0.0
  0
LINE
  5
27686
330
27640
100
AcDbEntity
  8
寸法
 62
     0
 48
50.0
370
    -2
100
AcDbLine
 10
5957.546450264405
 20
1473.584479392613
 30
0.0
 11
5957.546450264405
 21
1233.584479392613
 31
0.0
  0
INSERT
  5
27687
330
27640
100
AcDbEntity
  8
寸法
 62
     0
 48
50.0
370
    -2
100
AcDbBlockReference
  2
_DOTSMALL
 10
5957.546450264405
 20
1473.584479392613
 30
0.0
 41
100.0
 42
100.0
 43
100.0
 50
90.0
  0
INSERT
  5
27688
330
27640
100
AcDbEntity
  8
寸法
 62
     0
 48
50.0
370
    -2
100
AcDbBlockReference
  2
_DOTSMALL
 10
5957.546450264405
 20
1233.584479392613
 30
0.0
 41
100.0
 42
100.0
 43
100.0
 50
270.0
  0
MTEXT
  5
27689
330
27640
100
AcDbEntity
  8
寸法
 62
     7
 48
50.0
100
AcDbMText
 10
5857.546450264404
 20
1353.584479392614
 30
0.0
 40
120.0
 41
0.0
 71
     5
 72
     1
  1
\A1;150
  7
STYLE1
 11
0.0000000000000001
 21
1.0
 31
0.0
 73
     1
 44
1.0
1001
ACAD
1000
MTEXTBEGIN
1070
    73
1070
     1
1070
    44
1040
1.0
1070
    74
1070
     0
1000
MTEXTEND
  0
POINT
  5
2768A
330
27640
100
AcDbEntity
  8
DEFPOINTS
 62
     0
 48
50.0
100
AcDbPoint
 10
6099.966763996864
 20
1473.584479392613
 30
0.0
  0
POINT
  5
2768B
330
27640
100
AcDbEntity
  8
DEFPOINTS
 62
     0
 48
50.0
100
AcDbPoint
 10
6019.966763996867
 20
1233.584479392613
 30
0.0
  0
POINT
  5
2768C
330
27640
100
AcDbEntity
  8
DEFPOINTS
 62
     0
 48
50.0
100
AcDbPoint
 10
5957.546450264405
 20
1233.584479392613
 30
0.0
  0
ENDBLK
  5
2764B
330
27640
100
AcDbEntity
  8
0
 48
50.0
100
AcDbBlockEnd
  0
BLOCK
  5
27656
330
2764C
100
AcDbEntity
  8
0
 48
50.0
100
AcDbBlockBegin
  2
*D52
 70
     1
 10
0.0
 20
0.0
 30
0.0
  3
*D52
  1

  0
LINE
  5
2768D
330
2764C
100
AcDbEntity
  8
寸法
 62
     0
 48
50.0
370
    -2
100
AcDbLine
 10
6207.966763996864
 20
2017.584479392613
 30
0.0
 11
5432.929525435124
 21
2017.584479392614
 31
0.0
  0
LINE
  5
2768E
330
2764C
100
AcDbEntity
  8
寸法
 62
     0
 48
50.0
370
    -2
100
AcDbLine
 10
5999.966763996868
 20
1233.584479392613
 30
0.0
 11
5432.929525435124
 21
1233.584479392614
 31
0.0
  0
LINE
  5
2768F
330
2764C
100
AcDbEntity
  8
寸法
 62
     0
 48
50.0
370
    -2
100
AcDbLine
 10
5492.929525435124
 20
2017.584479392614
 30
0.0
 11
5492.929525435124
 21
1233.584479392614
 31
0.0
  0
INSERT
  5
27690
330
2764C
100
AcDbEntity
  8
寸法
 62
     0
 48
50.0
370
    -2
100
AcDbBlockReference
  2
_DOTSMALL
 10
5492.929525435124
 20
2017.584479392614
 30
0.0
 41
100.0
 42
100.0
 43
100.0
 50
90.0
  0
INSERT
  5
27691
330
2764C
100
AcDbEntity
  8
寸法
 62
     0
 48
50.0
370
    -2
100
AcDbBlockReference
  2
_DOTSMALL
 10
5492.929525435124
 20
1233.584479392614
 30
0.0
 41
100.0
 42
100.0
 43
100.0
 50
270.0
  0
MTEXT
  5
27692
330
2764C
100
AcDbEntity
  8
寸法
 62
     7
 48
50.0
100
AcDbMText
 10
5392.929525435124
 20
1605.124629048614
 30
0.0
 40
120.0
 41
0.0
 71
     5
 72
     1
  1
\A1;540
  7
STYLE1
 11
0.0000000000000001
 21
1.0
 31
0.0
 73
     1
 44
1.0
1001
ACAD
1000
MTEXTBEGIN
1070
    73
1070
     1
1070
    44
1040
1.0
1070
    74
1070
     0
1000
MTEXTEND
  0
POINT
  5
27693
330
2764C
100
AcDbEntity
  8
DEFPOINTS
 62
     0
 48
50.0
100
AcDbPoint
 10
6227.966763996864
 20
2017.584479392613
 30
0.0
  0
POINT
  5
27694
330
2764C
100
AcDbEntity
  8
DEFPOINTS
 62
     0
 48
50.0
100
AcDbPoint
 10
6019.966763996867
 20
1233.584479392613
 30
0.0
  0
POINT
  5
27695
330
2764C
100
AcDbEntity
  8
DEFPOINTS
 62
     0
 48
50.0
100
AcDbPoint
 10
5492.929525435124
 20
1233.584479392614
 30
0.0
  0
ENDBLK
  5
27657
330
2764C
100
AcDbEntity
  8
0
 48
50.0
100
AcDbBlockEnd
  0
BLOCK
  5
27662
330
27658
100
AcDbEntity
  8
0
 48
50.0
100
AcDbBlockBegin
  2
*D53
 70
     1
 10
0.0
 20
0.0
 30
0.0
  3
*D53
  1

  0
LINE
  5
27696
330
27658
100
AcDbEntity
  8
寸法
 62
     0
 48
50.0
370
    -2
100
AcDbLine
 10
6099.966763996864
 20
1085.584479392613
 30
0.0
 11
6099.966763996864
 21
635.1548413874533
 31
0.0
  0
LINE
  5
27697
330
27658
100
AcDbEntity
  8
寸法
 62
     0
 48
50.0
370
    -2
100
AcDbLine
 10
6547.966763996864
 20
1085.584479392613
 30
0.0
 11
6547.966763996864
 21
635.1548413874533
 31
0.0
  0
LINE
  5
27698
330
27658
100
AcDbEntity
  8
寸法
 62
     0
 48
50.0
370
    -2
100
AcDbLine
 10
6099.966763996864
 20
695.1548413874534
 30
0.0
 11
6547.966763996864
 21
695.1548413874534
 31
0.0
  0
INSERT
  5
27699
330
27658
100
AcDbEntity
  8
寸法
 62
     0
 48
50.0
370
    -2
100
AcDbBlockReference
  2
_DOTSMALL
 10
6099.966763996864
 20
695.1548413874534
 30
0.0
 41
100.0
 42
100.0
 43
100.0
 50
180.0
  0
INSERT
  5
2769A
330
27658
100
AcDbEntity
  8
寸法
 62
     0
 48
50.0
370
    -2
100
AcDbBlockReference
  2
_DOTSMALL
 10
6547.966763996864
 20
695.1548413874534
 30
0.0
 41
100.0
 42
100.0
 43
100.0
  0
MTEXT
  5
2769B
330
27658
100
AcDbEntity
  8
寸法
 62
     7
 48
50.0
100
AcDbMText
 10
6303.87000531864
 20
795.1548413874534
 30
0.0
 40
120.0
 41
0.0
 71
     5
 72
     1
  1
\A1;300
  7
STYLE1
 73
     1
 44
1.0
1001
ACAD
1000
MTEXTBEGIN
1070
    73
1070
     1
1070
    44
1040
1.0
1070
    74
1070
     0
1000
MTEXTEND
  0
POINT
  5
2769C
330
27658
100
AcDbEntity
  8
DEFPOINTS
 62
     0
 48
50.0
100
AcDbPoint
 10
6099.966763996864
 20
1105.584479392613
 30
0.0
  0
POINT
  5
2769D
330
27658
100
AcDbEntity
  8
DEFPOINTS
 62
     0
 48
50.0
100
AcDbPoint
 10
6547.966763996864
 20
1105.584479392613
 30
0.0
  0
POINT
  5
2769E
330
27658
100
AcDbEntity
  8
DEFPOINTS
 62
     0
 48
50.0
100
AcDbPoint
 10
6547.966763996864
 20
695.1548413874534
 30
0.0
  0
ENDBLK
  5
27663
330
27658
100
AcDbEntity
  8
0
 48
50.0
100
AcDbBlockEnd
  0
BLOCK
  5
2766E
330
27664
100
AcDbEntity
  8
0
 48
50.0
100
AcDbBlockBegin
  2
*D54
 70
     1
 10
0.0
 20
0.0
 30
0.0
  3
*D54
  1

  0
LINE
  5
2769F
330
27664
100
AcDbEntity
  8
寸法
 62
     0
 48
50.0
370
    -2
100
AcDbLine
 10
6419.966763996864
 20
2037.584479392613
 30
0.0
 11
6419.966763996864
 21
2497.252287308994
 31
0.0
  0
LINE
  5
276A0
330
27664
100
AcDbEntity
  8
寸法
 62
     0
 48
50.0
370
    -2
100
AcDbLine
 10
6227.966763996864
 20
2037.584479392613
 30
0.0
 11
6227.966763996864
 21
2497.252287308994
 31
0.0
  0
LINE
  5
276A1
330
27664
100
AcDbEntity
  8
寸法
 62
     0
 48
50.0
370
    -2
100
AcDbLine
 10
6419.966763996864
 20
2437.252287308994
 30
0.0
 11
6227.966763996864
 21
2437.252287308994
 31
0.0
  0
INSERT
  5
276A2
330
27664
100
AcDbEntity
  8
寸法
 62
     0
 48
50.0
370
    -2
100
AcDbBlockReference
  2
_DOTSMALL
 10
6419.966763996864
 20
2437.252287308994
 30
0.0
 41
100.0
 42
100.0
 43
100.0
  0
INSERT
  5
276A3
330
27664
100
AcDbEntity
  8
寸法
 62
     0
 48
50.0
370
    -2
100
AcDbBlockReference
  2
_DOTSMALL
 10
6227.966763996864
 20
2437.252287308994
 30
0.0
 41
100.0
 42
100.0
 43
100.0
 50
180.0
  0
MTEXT
  5
276A4
330
27664
100
AcDbEntity
  8
寸法
 62
     7
 48
50.0
100
AcDbMText
 10
6323.966763996864
 20
2737.28772037986
 30
0.0
 40
120.0
 41
0.0
 71
     5
 72
     1
  1
\A1;120\P200\P280
  7
STYLE1
 73
     1
 44
1.0
1001
ACAD
1000
MTEXTBEGIN
1070
    73
1070
     1
1070
    44
1040
1.0
1070
    74
1070
     0
1000
MTEXTEND
  0
POINT
  5
276A5
330
27664
100
AcDbEntity
  8
DEFPOINTS
 62
     0
 48
50.0
100
AcDbPoint
 10
6419.966763996864
 20
2017.584479392613
 30
0.0
  0
POINT
  5
276A6
330
27664
100
AcDbEntity
  8
DEFPOINTS
 62
     0
 48
50.0
100
AcDbPoint
 10
6227.966763996864
 20
2017.584479392613
 30
0.0
  0
POINT
  5
276A7
330
27664
100
AcDbEntity
  8
DEFPOINTS
 62
     0
 48
50.0
100
AcDbPoint
 10
6227.966763996864
 20
2437.252287308994
 30
0.0
  0
ENDBLK
  5
2766F
330
27664
100
AcDbEntity
  8
0
 48
50.0
100
AcDbBlockEnd
  0
BLOCK
  5
276C7
330
276BC
100
AcDbEntity
  8
0
 48
50.0
100
AcDbBlockBegin
  2
*D55
 70
     1
 10
0.0
 20
0.0
 30
0.0
  3
*D55
  1

  0
LINE
  5
27705
330
276BC
100
AcDbEntity
  8
寸法
 62
     0
 48
50.0
370
    -2
100
AcDbLine
 10
12328.6
 20
7160.184450786736
 30
0.0
 11
12328.6
 21
7381.319814647999
 31
0.0
  0
LINE
  5
27706
330
276BC
100
AcDbEntity
  8
寸法
 62
     0
 48
50.0
370
    -2
100
AcDbLine
 10
12208.6
 20
7160.184450786738
 30
0.0
 11
12208.6
 21
7381.319814647999
 31
0.0
  0
LINE
  5
27707
330
276BC
100
AcDbEntity
  8
寸法
 62
     0
 48
50.0
370
    -2
100
AcDbLine
 10
12208.6
 20
7321.319814647999
 30
0.0
 11
12328.6
 21
7321.319814647999
 31
0.0
  0
LINE
  5
27708
330
276BC
100
AcDbEntity
  8
寸法
 62
     0
 48
50.0
370
    -2
100
AcDbLine
 10
12328.6
 20
7321.319814647999
 30
0.0
 11
12750.63252150471
 21
7321.319814647999
 31
0.0
  0
INSERT
  5
27709
330
276BC
100
AcDbEntity
  8
寸法
 62
     0
 48
50.0
370
    -2
100
AcDbBlockReference
  2
_DOTSMALL
 10
12208.6
 20
7321.319814647999
 30
0.0
 41
100.0
 42
100.0
 43
100.0
 50
180.0
  0
INSERT
  5
2770A
330
276BC
100
AcDbEntity
  8
寸法
 62
     0
 48
50.0
370
    -2
100
AcDbBlockReference
  2
_DOTSMALL
 10
12328.6
 20
7321.319814647999
 30
0.0
 41
100.0
 42
100.0
 43
100.0
  0
MTEXT
  5
2770B
330
276BC
100
AcDbEntity
  8
寸法
 62
     7
 48
50.0
100
AcDbMText
 10
12614.58527741022
 20
7421.331625671621
 30
0.0
 40
120.0
 41
0.0
 71
     5
 72
     1
  1
\A1;120
  7
STYLE1
 73
     1
 44
1.0
1001
ACAD
1000
MTEXTBEGIN
1070
    73
1070
     1
1070
    44
1040
1.0
1070
    74
1070
     0
1000
MTEXTEND
  0
POINT
  5
2770C
330
276BC
100
AcDbEntity
  8
DEFPOINTS
 62
     0
 48
50.0
100
AcDbPoint
 10
12328.6
 20
7140.184450786738
 30
0.0
  0
POINT
  5
2770D
330
276BC
100
AcDbEntity
  8
DEFPOINTS
 62
     0
 48
50.0
100
AcDbPoint
 10
12208.6
 20
7140.184450786738
 30
0.0
  0
POINT
  5
2770E
330
276BC
100
AcDbEntity
  8
DEFPOINTS
 62
     0
 48
50.0
100
AcDbPoint
 10
12208.6
 20
7321.319814647999
 30
0.0
  0
ENDBLK
  5
276C8
330
276BC
100
AcDbEntity
  8
0
 48
50.0
100
AcDbBlockEnd
  0
ENDSEC
  0
SECTION
  2
ENTITIES
  0
MTEXT
  5
763F
330
747D
100
AcDbEntity
  8
0
100
AcDbMText
 10
302.846345836809
 20
280.1983726409901
 30
0.0
 40
3.5
 41
5.323721266742722
 71
     1
 72
     5
  1

  7
MSMINCHO
 73
     1
 44
1.0
1001
ACAD
1000
MTEXTBEGIN
1070
    73
1070
     1
1070
    44
1040
1.0
1070
    74
1070
     0
1000
MTEXTEND
  0
LINE
  5
10B57
330
747D
100
AcDbEntity
  8
補助
  6
PHANTOM
 62
   230
 48
50.0
100
AcDbLine
 10
139.9999999999995
 20
11409.6
 30
0.0
 11
16307.2
 21
11409.6
 31
0.0
  0
LINE
  5
10B59
330
747D
100
AcDbEntity
  8
仕様書枠
  6
Continuous
 48
50.0
100
AcDbLine
 10
13107.2
 20
1200.0
 30
0.0
 11
13107.2
 21
-0.0000000000000729
 31
0.0
  0
LINE
  5
10B5D
330
747D
100
AcDbEntity
  8
仕様書枠
 48
50.0
100
AcDbLine
 10
140.0
 20
0.0
 30
0.0
 11
16307.2
 21
-0.0000000000000909
 31
0.0
  0
LINE
  5
10B5E
330
747D
100
AcDbEntity
  8
補助
  6
PHANTOM
 62
   230
 48
50.0
100
AcDbLine
 10
16307.2
 20
11409.6
 30
0.0
 11
16307.2
 21
1200.0
 31
0.0
  0
LINE
  5
10B6C
330
747D
100
AcDbEntity
  8
仕様書枠
 48
50.0
100
AcDbLine
 10
13107.2
 20
1200.0
 30
0.0
 11
16307.2
 21
1200.0
 31
0.0
  0
TEXT
  5
10B73
330
747D
100
AcDbEntity
  8
文字
 62
     7
 48
50.0
100
AcDbText
 10
13162.9790565769
 20
895.0906074299405
 30
0.0
 40
200.0
  1
基 礎 図
  7
STYLE2
100
AcDbText
  0
LINE
  5
10B7B
330
747D
100
AcDbEntity
  8
仕様書枠
 48
50.0
100
AcDbLine
 10
13107.2
 20
800.0
 30
0.0
 11
14251.2
 21
800.0
 31
0.0
  0
LINE
  5
10B88
330
747D
100
AcDbEntity
  8
仕様書枠
  6
Continuous
 48
50.0
100
AcDbLine
 10
14251.2
 20
1200.0
 30
0.0
 11
14251.2
 21
800.0
 31
0.0
  0
LINE
  5
16462
330
747D
100
AcDbEntity
  8
仕様書枠
 48
50.0
100
AcDbLine
 10
16307.2
 20
1200.0
 30
0.0
 11
16307.2
 21
-0.0000000000000909
 31
0.0
  0
LINE
  5
1903B
330
747D
100
AcDbEntity
  8
補助
  6
PHANTOM
 62
   230
 48
50.0
100
AcDbLine
 10
140.0
 20
0.0
 30
0.0
 11
139.9999999999995
 21
11409.6
 31
0.0
  0
LEADER
  5
1AC27
330
747D
100
AcDbEntity
  8
寸法
 48
50.0
100
AcDbLeader
  3
INABA_S50G
 73
     0
 74
     0
 75
     1
 40
120.0
 41
720.0000000000001
 76
     3
 10
12328.69549961499
 20
7035.977567531474
 30
0.0
 10
12485.46907400128
 20
6774.96365396364
 30
0.0
 10
12610.46907400128
 20
6774.96365396364
 30
0.0
340
1AC28
1001
ACAD
1000
DSTYLE
1002
{
1070
   341
1005
0
1070
    40
1040
1.0
1070
   343
1005
0
1070
   344
1005
0
1002
}
  0
MTEXT
  5
1AC28
102
{ACAD_REACTORS
330
1AC27
102
}
330
747D
100
AcDbEntity
  8
部品1
 62
     7
 48
50.0
100
AcDbMText
 10
13355.46907400128
 20
6859.963653963641
 30
0.0
 40
120.0
 41
0.0
 71
     6
 72
     1
  1
\A1;床下換気口
  7
STYLE1
 73
     1
 44
1.0
1001
ACAD
1000
MTEXTBEGIN
1070
    73
1070
     1
1070
    44
1040
1.0
1070
    74
1070
     0
1000
MTEXTEND
  0
TEXT
  5
1AC29
330
747D
100
AcDbEntity
  8
部品1
 48
50.0
100
AcDbText
 10
12677.43013846118
 20
6115.077843599766
 30
0.0
 40
80.0
  1
(a=45,b=55,c=75)
  7
STYLE1
100
AcDbText
  0
TEXT
  5
1AC2A
330
747D
100
AcDbEntity
  8
部品1
 48
50.0
100
AcDbText
 10
12518.85112970688
 20
6221.923064468519
 30
0.0
 40
80.0
  1
※a,b,cは屋根の出幅です。
  7
STYLE1
100
AcDbText
  0
MTEXT
  5
1AC2B
102
{ACAD_REACTORS
330
1AC2C
102
}
330
747D
100
AcDbEntity
  8
部品1
 62
     7
 48
50.0
100
AcDbMText
 10
13316.63832569548
 20
6401.233751401594
 30
0.0
 40
120.0
 41
0.0
 71
     6
 72
     1
  1
\A1;屋根の外寸
  7
STYLE1
 73
     1
 44
1.0
1001
ACAD
1000
MTEXTBEGIN
1070
    73
1070
     1
1070
    44
1040
1.0
1070
    74
1070
     0
1000
MTEXTEND
  0
LEADER
  5
1AC2C
330
747D
100
AcDbEntity
  8
寸法
 48
50.0
100
AcDbLeader
  3
INABA_S50G
 73
     0
 74
     0
 75
     1
 40
120.0
 41
672.0
 76
     3
 10
12378.69831350344
 20
6575.123094865169
 30
0.0
 10
12494.63832569548
 20
6316.233751401594
 30
0.0
 10
12619.63832569548
 20
6316.233751401594
 30
0.0
340
1AC2B
1001
ACAD
1000
DSTYLE
1002
{
1070
   341
1005
0
1070
    40
1040
1.0
1070
   343
1005
0
1070
   344
1005
0
1002
}
  0
TEXT
  5
1C7A1
330
747D
100
AcDbEntity
  8
文字
 62
     7
 48
50.0
100
AcDbText
 10
13188.16259899338
 20
79.80631269190417
 30
0.0
 40
80.0
  1
※布基礎には換気口を設けてください。
  7
STYLE2
100
AcDbText
  0
TEXT
  5
1C7E7
330
747D
100
AcDbEntity
  8
文字
 62
     7
 48
50.0
100
AcDbText
 10
13188.16259899338
 20
246.7109242801889
 30
0.0
 40
80.0
  1
※寒冷地等は地域の実情に合わせた基礎にして下さい。
  7
STYLE2
100
AcDbText
  0
TEXT
  5
1C7E8
330
747D
100
AcDbEntity
  8
文字
 62
     7
 48
50.0
100
AcDbText
 10
14325.79230300687
 20
499.5983841039506
 30
0.0
 40
160.0
  1
ＮＸＮ－１１ＤＬ－１０
  7
STYLE2
100
AcDbText
  0
TEXT
  5
1C7EC
330
747D
100
AcDbEntity
  8
文字
 62
     7
 48
50.0
100
AcDbText
 10
14524.131837222
 20
1031.557706291229
 30
0.0
 40
100.0
  1
<縮尺> S=1/40
  7
STYLE2
100
AcDbText
  0
TEXT
  5
1C7ED
330
747D
100
AcDbEntity
  8
文字
 62
     7
 48
50.0
100
AcDbText
 10
13201.43669998441
 20
477.2740661031257
 30
0.0
 40
160.0
  1
機種名
  7
STYLE2
100
AcDbText
  0
LINE
  5
1C7EF
330
747D
100
AcDbEntity
  8
文字
 62
     7
 48
50.0
100
AcDbLine
 10
13187.2
 20
400.0
 30
0.0
 11
16227.2
 21
400.0
 31
0.0
  0
MTEXT
  5
1D2D5
102
{ACAD_REACTORS
330
1D2D6
102
}
330
747D
100
AcDbEntity
  8
部品1
 62
     7
 48
50.0
100
AcDbMText
 10
13523.99523070988
 20
8020.797195029242
 30
0.0
 40
120.0
 41
0.0
 71
     6
 72
     1
  1
アンカーボルト
  7
STYLE1
 73
     1
 44
1.0
1001
ACAD
1000
MTEXTBEGIN
1070
    73
1070
     1
1070
    44
1040
1.0
1070
    74
1070
     0
1000
MTEXTEND
  0
LEADER
  5
1D2D6
330
747D
100
AcDbEntity
  8
寸法
 48
50.0
100
AcDbLeader
  3
INABA_S50G
 73
     0
 74
     0
 75
     1
 40
120.0
 41
994.3492424049171
 76
     3
 10
12205.680085757
 20
7582.392295145445
 30
0.0
 10
12379.64598830496
 20
7935.797195029241
 30
0.0
 10
12504.64598830496
 20
7935.797195029241
 30
0.0
340
1D2D5
1001
ACAD
1000
DSTYLE
1002
{
1070
   341
1005
0
1070
    40
1040
1.0
1070
   343
1005
0
1070
   344
1005
0
1002
}
  0
MTEXT
  5
1D332
102
{ACAD_REACTORS
330
1D333
102
}
330
747D
100
AcDbEntity
  8
部品1
 62
     7
 48
50.0
100
AcDbMText
 10
12018.82869701569
 20
6906.820154299045
 30
0.0
 40
120.0
 41
0.0
 71
     6
 72
     1
  1
CB
  7
STYLE1
 73
     1
 44
1.0
1001
ACAD
1000
MTEXTBEGIN
1070
    73
1070
     1
1070
    44
1040
1.0
1070
    74
1070
     0
1000
MTEXTEND
  0
LEADER
  5
1D333
330
747D
100
AcDbEntity
  8
寸法
 48
50.0
100
AcDbLeader
  3
INABA_S50G
 73
     0
 74
     0
 75
     1
 40
120.0
 41
149.591883092037
 76
     3
 10
11591.95401106101
 20
7044.538467853872
 30
0.0
 10
11719.23681392365
 20
6821.820154299046
 30
0.0
 10
11844.23681392365
 20
6821.820154299046
 30
0.0
340
1D332
1001
ACAD
1000
DSTYLE
1002
{
1070
   341
1005
0
1070
    40
1040
1.0
1070
   343
1005
0
1070
   344
1005
0
1002
}
  0
DIMENSION
  5
20DE1
330
747D
100
AcDbEntity
  8
寸法
 48
50.0
100
AcDbDimension
  2
*D19
 10
12373.6
 20
8663.404772845655
 30
0.0
 11
12644.77462120246
 21
8663.404772845655
 31
0.0
 70
   160
  1
a
 71
     5
 42
45.0
  3
INABA_S40G
100
AcDbAlignedDimension
 13
12328.6
 23
7705.184450786735
 33
0.0
 14
12373.6
 24
8431.450908880645
 34
0.0
100
AcDbRotatedDimension
1001
ACAD
1000
DSTYLE
1002
{
1070
   341
1005
0
1002
}
  0
DIMENSION
  5
20DFB
330
747D
100
AcDbEntity
  8
寸法
 48
50.0
100
AcDbDimension
  2
*D20
 10
4118.6
 20
8663.404772845671
 30
0.0
 11
3802.425378797541
 21
8663.404772845671
 31
0.0
 70
   160
  1
a
 71
     5
 42
44.99999999999636
  3
INABA_S40G
100
AcDbAlignedDimension
 13
4073.600000000004
 23
8431.450908880661
 33
0.0
 14
4118.6
 24
7705.184450786749
 34
0.0
100
AcDbRotatedDimension
1001
ACAD
1000
DSTYLE
1002
{
1070
   341
1005
0
1002
}
  0
LINE
  5
22711
330
747D
100
AcDbEntity
  8
想像線
 48
10.0
100
AcDbLine
 10
12373.6
 20
7780.184450786734
 30
0.0
 11
4073.600000000004
 21
7780.184450786754
 31
0.0
  0
LINE
  5
22712
330
747D
100
AcDbEntity
  8
想像線
 48
10.0
100
AcDbLine
 10
4073.600000000004
 20
6270.184450786761
 30
0.0
 11
4073.600000000004
 21
7780.184450786752
 31
0.0
  0
LINE
  5
22713
330
747D
100
AcDbEntity
  8
想像線
 48
10.0
100
AcDbLine
 10
12373.6
 20
6270.184450786752
 30
0.0
 11
12373.6
 21
7780.184450786736
 31
0.0
  0
LINE
  5
22714
330
747D
100
AcDbEntity
  8
想像線
 48
10.0
100
AcDbLine
 10
12373.6
 20
6270.184450786752
 30
0.0
 11
4073.600000000004
 21
6270.184450786742
 31
0.0
  0
DIMENSION
  5
22741
330
747D
100
AcDbEntity
  8
寸法
 48
50.0
100
AcDbDimension
  2
*D21
 10
3243.721909610677
 20
7705.184450786749
 30
0.0
 11
3143.721909610675
 21
7742.684450786758
 31
0.0
 70
    32
  1
c
 71
     5
 42
75.0000000000191
  3
INABA_S40G
100
AcDbAlignedDimension
 13
3495.665006330071
 23
7780.184450786767
 33
0.0
 14
4118.6
 24
7705.184450786749
 34
0.0
 50
90.0
100
AcDbRotatedDimension
1001
ACAD
1000
DSTYLE
1002
{
1070
   341
1005
0
1002
}
  0
DIMENSION
  5
2275B
330
747D
100
AcDbEntity
  8
寸法
 48
50.0
100
AcDbDimension
  2
*D22
 10
3243.721909610677
 20
6270.184450786775
 30
0.0
 11
3143.721909610676
 21
6297.684450786755
 31
0.0
 70
    32
  1
b
 71
     5
 42
54.99999999995907
  3
INABA_S40G
100
AcDbAlignedDimension
 13
4118.6
 23
6325.184450786734
 33
0.0
 14
3495.665006330075
 24
6270.184450786775
 34
0.0
 50
90.0
100
AcDbRotatedDimension
1001
ACAD
1000
DSTYLE
1002
{
1070
   341
1005
0
1002
}
  0
DIMENSION
  5
229EC
330
747D
100
AcDbEntity
  8
寸法
 48
50.0
100
AcDbDimension
  2
*D23
 10
11755.46950000081
 20
6325.18445078676
 30
0.0
 11
11755.46950000081
 21
6038.220868109582
 31
0.0
 70
   160
 71
     5
 42
279.9999999999964
  3
INABA_S40G
100
AcDbAlignedDimension
 13
11834.53475000041
 23
6605.184450786757
 33
0.0
 14
11834.53475000041
 24
6325.18445078676
 34
0.0
 50
90.0
100
AcDbRotatedDimension
1001
ACAD
1000
DSTYLE
1002
{
1070
   341
1005
0
1002
}
  0
DIMENSION
  5
229ED
330
747D
100
AcDbEntity
  8
寸法
 48
50.0
100
AcDbDimension
  2
*D24
 10
11755.46950000081
 20
7505.184450786735
 30
0.0
 11
11755.46950000081
 21
7992.148033463897
 31
0.0
 70
   160
 71
     5
 42
199.9999999999945
  3
INABA_S40G
100
AcDbAlignedDimension
 13
11834.53475000041
 23
7705.18445078673
 33
0.0
 14
11834.53475000041
 24
7505.184450786735
 34
0.0
 50
90.0
100
AcDbRotatedDimension
1001
ACAD
1000
DSTYLE
1002
{
1070
   341
1005
0
1002
}
  0
LINE
  5
2685A
330
747D
100
AcDbEntity
  8
部品1
 48
50.0
100
AcDbLine
 10
12208.6
 20
7505.184450786734
 30
0.0
 11
4238.599999999997
 21
7505.184450786734
 31
0.0
  0
DIMENSION
  5
2685C
330
747D
100
AcDbEntity
  8
寸法
 48
50.0
100
AcDbDimension
  2
*D27
 10
8105.600000000002
 20
8431.450908880645
 30
0.0
 11
8925.600000000002
 21
8531.450908880644
 31
0.0
 70
    32
 71
     5
 42
1639.999999999998
  3
INABA_S40G
100
AcDbAlignedDimension
 13
9745.600000000001
 23
7632.184450786734
 33
0.0
 14
8105.600000000002
 24
7632.184450786734
 34
0.0
100
AcDbRotatedDimension
1001
ACAD
1000
DSTYLE
1002
{
1070
   341
1005
0
1002
}
  0
DIMENSION
  5
2685D
330
747D
100
AcDbEntity
  8
寸法
 48
50.0
100
AcDbDimension
  2
*D28
 10
8223.60000000001
 20
8187.793267456981
 30
0.0
 11
8633.60000000001
 21
8287.805078480603
 31
0.0
 70
    32
 71
     5
 42
820.0
  3
INABA_S40G
100
AcDbAlignedDimension
 13
9043.60000000001
 23
7102.184450786734
 33
0.0
 14
8223.60000000001
 24
7102.184450786734
 34
0.0
100
AcDbRotatedDimension
1001
ACAD
1000
DSTYLE
1002
{
1070
   341
1005
0
1002
}
  0
DIMENSION
  5
2685E
330
747D
100
AcDbEntity
  8
寸法
 48
50.0
100
AcDbDimension
  2
*D29
 10
12328.6
 20
8663.404772845652
 30
0.0
 11
8223.600000000001
 21
8763.416583869274
 31
0.0
 70
    32
 71
     5
 42
8210.0
  3
INABA_S40G
100
AcDbAlignedDimension
 13
4118.6
 23
7705.184450786735
 33
0.0
 14
12328.6
 24
7705.184450786735
 34
0.0
100
AcDbRotatedDimension
1001
ACAD
1000
DSTYLE
1002
{
1070
   341
1005
0
1002
}
  0
LINE
  5
26860
330
747D
100
AcDbEntity
  8
部品1
 48
50.0
100
AcDbLine
 10
12328.6
 20
6325.18445078676
 30
0.0
 11
4118.599999999997
 21
6325.18445078673
 31
0.0
  0
LINE
  5
26862
330
747D
100
AcDbEntity
  8
部品1
 48
50.0
100
AcDbLine
 10
12328.6
 20
7705.184450786735
 30
0.0
 11
4118.6
 21
7705.184450786735
 31
0.0
  0
LINE
  5
26863
330
747D
100
AcDbEntity
  8
細線
 48
50.0
100
AcDbLine
 10
4118.600000000004
 20
7027.30697854988
 30
0.0
 11
4231.477472236874
 21
7140.184450786749
 31
0.0
  0
LINE
  5
26864
330
747D
100
AcDbEntity
  8
細線
 48
50.0
100
AcDbLine
 10
4118.600000000004
 20
7072.208259155226
 30
0.0
 11
4186.576191631528
 21
7140.184450786749
 31
0.0
  0
LINE
  5
26865
330
747D
100
AcDbEntity
  8
部品1
 48
50.0
100
AcDbLine
 10
8123.600000000008
 20
6952.184450786734
 30
0.0
 11
8123.600000000008
 21
7152.184450786734
 31
0.0
  0
LINE
  5
26866
330
747D
100
AcDbEntity
  8
部品1
 48
50.0
100
AcDbLine
 10
8323.600000000009
 20
6952.184450786734
 30
0.0
 11
8323.600000000009
 21
7152.184450786734
 31
0.0
  0
DIMENSION
  5
26869
330
747D
100
AcDbEntity
  8
寸法
 48
50.0
100
AcDbDimension
  2
*D30
 10
7403.60000000001
 20
8187.793267456981
 30
0.0
 11
7813.600000000008
 21
8287.805078480603
 31
0.0
 70
    32
 71
     5
 42
819.9999999999981
  3
INABA_S40G
100
AcDbAlignedDimension
 13
8223.600000000008
 23
7102.184450786734
 33
0.0
 14
7403.60000000001
 24
7102.184450786734
 34
0.0
100
AcDbRotatedDimension
1001
ACAD
1000
DSTYLE
1002
{
1070
   341
1005
0
1002
}
  0
DIMENSION
  5
2686A
330
747D
100
AcDbEntity
  8
寸法
 48
50.0
100
AcDbDimension
  2
*D31
 10
5763.60000000001
 20
8187.793267456981
 30
0.0
 11
6173.60000000001
 21
8287.805078480603
 31
0.0
 70
    32
 71
     5
 42
820.0
  3
INABA_S40G
100
AcDbAlignedDimension
 13
6583.60000000001
 23
7102.184450786734
 33
0.0
 14
5763.60000000001
 24
7102.184450786734
 34
0.0
100
AcDbRotatedDimension
1001
ACAD
1000
DSTYLE
1002
{
1070
   341
1005
0
1002
}
  0
DIMENSION
  5
2686B
330
747D
100
AcDbEntity
  8
寸法
 48
50.0
100
AcDbDimension
  2
*D32
 10
6583.60000000001
 20
8187.793267456981
 30
0.0
 11
6993.600000000009
 21
8287.805078480603
 31
0.0
 70
    32
 71
     5
 42
820.0
  3
INABA_S40G
100
AcDbAlignedDimension
 13
7403.60000000001
 23
7102.184450786734
 33
0.0
 14
6583.60000000001
 24
7102.184450786734
 34
0.0
100
AcDbRotatedDimension
1001
ACAD
1000
DSTYLE
1002
{
1070
   341
1005
0
1002
}
  0
LINE
  5
2686C
330
747D
100
AcDbEntity
  8
部品1
 48
50.0
100
AcDbLine
 10
5863.600000000009
 20
6952.184450786734
 30
0.0
 11
5863.600000000009
 21
7152.184450786734
 31
0.0
  0
LINE
  5
2686D
330
747D
100
AcDbEntity
  8
部品1
 48
50.0
100
AcDbLine
 10
5663.600000000009
 20
6952.184450786734
 30
0.0
 11
5663.600000000009
 21
7152.184450786734
 31
0.0
  0
LINE
  5
2686E
330
747D
100
AcDbEntity
  8
部品1
 48
50.0
100
AcDbLine
 10
6683.600000000009
 20
6952.184450786734
 30
0.0
 11
6683.600000000009
 21
7152.184450786734
 31
0.0
  0
LINE
  5
2686F
330
747D
100
AcDbEntity
  8
部品1
 48
50.0
100
AcDbLine
 10
6483.600000000009
 20
6952.184450786734
 30
0.0
 11
6483.600000000009
 21
7152.184450786734
 31
0.0
  0
LINE
  5
26870
330
747D
100
AcDbEntity
  8
部品1
 48
50.0
100
AcDbLine
 10
7503.60000000001
 20
6952.184450786734
 30
0.0
 11
7503.60000000001
 21
7152.184450786734
 31
0.0
  0
LINE
  5
26871
330
747D
100
AcDbEntity
  8
部品1
 48
50.0
100
AcDbLine
 10
7303.60000000001
 20
6952.184450786734
 30
0.0
 11
7303.60000000001
 21
7152.184450786734
 31
0.0
  0
DIMENSION
  5
26872
330
747D
100
AcDbEntity
  8
寸法
 48
50.0
100
AcDbDimension
  2
*D33
 10
4601.285990614304
 20
7705.184450786735
 30
0.0
 11
4601.285990614302
 21
7302.079979385267
 31
0.0
 70
   160
 71
     5
 42
653.0
  3
INABA_S40G
100
AcDbAlignedDimension
 13
4893.600000000008
 23
7052.184450786734
 33
0.0
 14
4692.765475140901
 24
7705.184450786735
 34
0.0
 50
90.0
100
AcDbRotatedDimension
1001
ACAD
1000
DSTYLE
1002
{
1070
   341
1005
0
1002
}
  0
DIMENSION
  5
26873
330
747D
100
AcDbEntity
  8
寸法
 48
50.0
100
AcDbDimension
  2
*D34
 10
4118.6
 20
8187.793267456981
 30
0.0
 11
4531.100000000004
 21
8287.805078480603
 31
0.0
 70
    32
 71
     5
 42
825.0000000000072
  3
INABA_S40G
100
AcDbAlignedDimension
 13
4943.600000000007
 23
7102.184450786734
 33
0.0
 14
4118.6
 24
7705.184450786735
 34
0.0
100
AcDbRotatedDimension
1001
ACAD
1000
DSTYLE
1002
{
1070
   341
1005
0
1002
}
  0
DIMENSION
  5
26874
330
747D
100
AcDbEntity
  8
寸法
 48
50.0
100
AcDbDimension
  2
*D35
 10
3243.721909610674
 20
6325.184450786734
 30
0.0
 11
3243.721909610673
 21
7052.684450786734
 31
0.0
 70
   160
 71
     5
 42
1380.0
  3
INABA_S40G
100
AcDbAlignedDimension
 13
4118.6
 23
7705.184450786735
 33
0.0
 14
4118.6
 24
6325.184450786734
 34
0.0
 50
90.0
100
AcDbRotatedDimension
1001
ACAD
1000
DSTYLE
1002
{
1070
   341
1005
0
1002
}
  0
LINE
  5
26875
330
747D
100
AcDbEntity
  8
部品1
 48
50.0
100
AcDbLine
 10
4118.6
 20
6325.184450786734
 30
0.0
 11
4118.6
 21
7705.184450786735
 31
0.0
  0
DIMENSION
  5
26877
330
747D
100
AcDbEntity
  8
寸法
 48
50.0
100
AcDbDimension
  2
*D36
 10
3495.665006330072
 20
6523.184450786738
 30
0.0
 11
3495.665006330071
 21
7052.684450786734
 31
0.0
 70
   160
 71
     5
 42
1058.999999999996
  3
INABA_S40G
100
AcDbAlignedDimension
 13
4191.6
 23
7582.184450786733
 33
0.0
 14
4191.600000000007
 24
6523.184450786738
 34
0.0
 50
90.0
100
AcDbRotatedDimension
1001
ACAD
1000
DSTYLE
1002
{
1070
   341
1005
0
1002
}
  0
LINE
  5
26879
330
747D
100
AcDbEntity
  8
部品1
 48
50.0
100
AcDbLine
 10
4843.600000000008
 20
6952.184450786734
 30
0.0
 11
4843.600000000008
 21
7152.184450786734
 31
0.0
  0
LINE
  5
2687A
330
747D
100
AcDbEntity
  8
部品1
 48
50.0
100
AcDbLine
 10
5043.600000000008
 20
6952.184450786734
 30
0.0
 11
5043.600000000008
 21
7152.184450786734
 31
0.0
  0
DIMENSION
  5
2687B
330
747D
100
AcDbEntity
  8
寸法
 48
50.0
100
AcDbDimension
  2
*D37
 10
4943.600000000007
 20
8187.793267456981
 30
0.0
 11
5353.600000000009
 21
8287.805078480603
 31
0.0
 70
    32
 71
     5
 42
820.0000000000018
  3
INABA_S40G
100
AcDbAlignedDimension
 13
5763.60000000001
 23
7102.184450786734
 33
0.0
 14
4943.600000000007
 24
7102.184450786734
 34
0.0
100
AcDbRotatedDimension
1001
ACAD
1000
DSTYLE
1002
{
1070
   341
1005
0
1002
}
  0
DIMENSION
  5
2687E
330
747D
100
AcDbEntity
  8
寸法
 48
50.0
100
AcDbDimension
  2
*D38
 10
3495.665006330072
 20
6325.184450786734
 30
0.0
 11
3495.665006330071
 21
5989.653501944141
 31
0.0
 70
   160
 71
     5
 42
198.0000000000036
  3
INABA_S40G
100
AcDbAlignedDimension
 13
4191.600000000007
 23
6523.184450786738
 33
0.0
 14
4118.6
 24
6325.184450786734
 34
0.0
 50
90.0
100
AcDbRotatedDimension
1001
ACAD
1000
DSTYLE
1002
{
1070
   341
1005
0
1002
}
  0
ARC
  5
2687F
330
747D
100
AcDbEntity
  8
想像線
 48
5.0
100
AcDbCircle
 10
4888.600000000003
 20
6325.184450786737
 30
0.0
 40
720.0
100
AcDbArc
 50
180.0
 51
270.0
  0
DIMENSION
  5
26880
330
747D
100
AcDbEntity
  8
寸法
 48
50.0
100
AcDbDimension
  2
*D39
 10
4005.512673767881
 20
5605.18445078673
 30
0.0
 11
4005.512673767881
 21
5965.184450786731
 31
0.0
 70
   160
  1
扉の出<>
 71
     5
 42
720.0
  3
INABA_S40G
100
AcDbAlignedDimension
 13
4118.600000000004
 23
6325.18445078673
 33
0.0
 14
4474.325326928808
 24
5605.18445078673
 34
0.0
 50
90.0
100
AcDbRotatedDimension
1001
ACAD
1000
DSTYLE
1002
{
1070
   341
1005
0
1002
}
  0
LINE
  5
26881
330
747D
100
AcDbEntity
  8
想像線
 48
5.0
100
AcDbLine
 10
4888.600000000003
 20
6325.184450786748
 30
0.0
 11
4888.600000000003
 21
5605.184450786737
 31
0.0
  0
LINE
  5
26882
330
747D
100
AcDbEntity
  8
センター
 48
2.0
100
AcDbLine
 10
4241.600000000008
 20
6573.184450786738
 30
0.0
 11
4241.600000000008
 21
6473.184450786738
 31
0.0
  0
CIRCLE
  5
26883
330
747D
100
AcDbEntity
  8
部品1
 48
50.0
100
AcDbCircle
 10
4241.599999999993
 20
6523.184450786738
 30
0.0
 40
35.0
  0
LINE
  5
26884
330
747D
100
AcDbEntity
  8
センター
 48
2.0
100
AcDbLine
 10
4191.600000000007
 20
6523.184450786738
 30
0.0
 11
4291.600000000007
 21
6523.184450786738
 31
0.0
  0
LINE
  5
26885
330
747D
100
AcDbEntity
  8
細線
 48
50.0
100
AcDbLine
 10
4121.280033447565
 20
6940.184450786749
 30
0.0
 11
4238.599999999999
 21
7057.504417339186
 31
0.0
  0
LINE
  5
26886
330
747D
100
AcDbEntity
  8
細線
 48
50.0
100
AcDbLine
 10
4118.600000000004
 20
6982.405697944535
 30
0.0
 11
4238.599999999999
 21
7102.405697944529
 31
0.0
  0
LINE
  5
26887
330
747D
100
AcDbEntity
  8
部品1
 48
50.0
100
AcDbLine
 10
4238.599999999999
 20
6940.184450786749
 30
0.0
 11
4118.600000000004
 21
6940.184450786749
 31
0.0
  0
LINE
  5
26888
330
747D
100
AcDbEntity
  8
細線
 48
50.0
100
AcDbLine
 10
4211.082594658253
 20
6940.184450786746
 30
0.0
 11
4238.599999999999
 21
6967.701856128491
 31
0.0
  0
LINE
  5
26889
330
747D
100
AcDbEntity
  8
細線
 48
50.0
100
AcDbLine
 10
4166.181314052908
 20
6940.184450786749
 30
0.0
 11
4238.599999999999
 21
7012.603136733838
 31
0.0
  0
LINE
  5
2688A
330
747D
100
AcDbEntity
  8
部品1
 48
50.0
100
AcDbLine
 10
4633.600000000003
 20
6605.184450786731
 30
0.0
 11
4633.60000000001
 21
6325.184450786741
 31
0.0
  0
LINE
  5
2688B
330
747D
100
AcDbEntity
  8
部品1
 48
50.0
100
AcDbLine
 10
4433.600000000003
 20
6605.184450786731
 30
0.0
 11
4433.600000000009
 21
6325.184450786737
 31
0.0
  0
LINE
  5
2688C
330
747D
100
AcDbEntity
  8
細線
 48
50.0
100
AcDbLine
 10
4434.700523133082
 20
6325.184450786737
 30
0.0
 11
4633.600000000003
 21
6524.083927653663
 31
0.0
  0
LINE
  5
2688D
330
747D
100
AcDbEntity
  8
細線
 48
50.0
100
AcDbLine
 10
4433.600000000009
 20
6368.985208259013
 30
0.0
 11
4633.600000000003
 21
6568.985208259004
 31
0.0
  0
LINE
  5
2688E
330
747D
100
AcDbEntity
  8
細線
 48
50.0
100
AcDbLine
 10
4433.600000000006
 20
6413.886488864356
 30
0.0
 11
4624.897961922389
 21
6605.184450786731
 31
0.0
  0
LINE
  5
2688F
330
747D
100
AcDbEntity
  8
細線
 48
50.0
100
AcDbLine
 10
4433.600000000008
 20
6458.7877694697
 30
0.0
 11
4579.996681317024
 21
6605.184450786731
 31
0.0
  0
LINE
  5
26890
330
747D
100
AcDbEntity
  8
細線
 48
50.0
100
AcDbLine
 10
4433.600000000006
 20
6503.68905007505
 30
0.0
 11
4535.095400711692
 21
6605.184450786731
 31
0.0
  0
DIMENSION
  5
26891
330
747D
100
AcDbEntity
  8
寸法
 48
50.0
100
AcDbDimension
  2
*D40
 10
4601.285990614302
 20
7052.184450786734
 30
0.0
 11
4601.2859906143
 21
6767.184450786733
 31
0.0
 70
   160
 71
     5
 42
726.9999999999891
  3
INABA_S40G
100
AcDbAlignedDimension
 13
4692.765475140901
 23
6325.184450786744
 33
0.0
 14
4893.600000000008
 24
7052.184450786734
 34
0.0
 50
90.0
100
AcDbRotatedDimension
1001
ACAD
1000
DSTYLE
1002
{
1070
   341
1005
0
1002
}
  0
LINE
  5
26892
330
747D
100
AcDbEntity
  8
細線
 48
50.0
100
AcDbLine
 10
4479.601803738425
 20
6325.184450786739
 30
0.0
 11
4633.600000000006
 21
6479.182647048316
 31
0.0
  0
LINE
  5
26893
330
747D
100
AcDbEntity
  8
細線
 48
50.0
100
AcDbLine
 10
4524.503084343774
 20
6325.184450786739
 30
0.0
 11
4633.600000000006
 21
6434.281366442973
 31
0.0
  0
LINE
  5
26894
330
747D
100
AcDbEntity
  8
細線
 48
50.0
100
AcDbLine
 10
4614.305645554466
 20
6325.184450786743
 30
0.0
 11
4633.60000000001
 21
6344.478805232284
 31
0.0
  0
LINE
  5
26895
330
747D
100
AcDbEntity
  8
細線
 48
50.0
100
AcDbLine
 10
4569.40436494912
 20
6325.184450786741
 30
0.0
 11
4633.60000000001
 21
6389.380085837629
 31
0.0
  0
LINE
  5
26896
330
747D
100
AcDbEntity
  8
細線
 48
50.0
100
AcDbLine
 10
4433.600000000004
 20
6548.590330680396
 30
0.0
 11
4490.194120106336
 21
6605.18445078673
 31
0.0
  0
LINE
  5
26897
330
747D
100
AcDbEntity
  8
センター
 48
2.0
100
AcDbLine
 10
4893.600000000008
 20
7052.184450786734
 30
0.0
 11
4993.600000000007
 21
7052.184450786734
 31
0.0
  0
LINE
  5
26898
330
747D
100
AcDbEntity
  8
部品1
 48
50.0
100
AcDbLine
 10
5043.600000000008
 20
6952.184450786734
 30
0.0
 11
4843.600000000008
 21
6952.184450786734
 31
0.0
  0
LINE
  5
26899
330
747D
100
AcDbEntity
  8
センター
 48
2.0
100
AcDbLine
 10
4943.600000000007
 20
7102.184450786734
 30
0.0
 11
4943.600000000007
 21
7002.184450786734
 31
0.0
  0
LINE
  5
268A6
330
747D
100
AcDbEntity
  8
センター
 48
2.0
100
AcDbLine
 10
5713.60000000001
 20
7052.184450786734
 30
0.0
 11
5813.600000000009
 21
7052.184450786734
 31
0.0
  0
LINE
  5
268A7
330
747D
100
AcDbEntity
  8
部品1
 48
50.0
100
AcDbLine
 10
5863.600000000009
 20
6952.184450786734
 30
0.0
 11
5663.600000000009
 21
6952.184450786734
 31
0.0
  0
LINE
  5
268A8
330
747D
100
AcDbEntity
  8
センター
 48
2.0
100
AcDbLine
 10
5763.60000000001
 20
7102.184450786734
 30
0.0
 11
5763.60000000001
 21
7002.184450786734
 31
0.0
  0
CIRCLE
  5
268B0
330
747D
100
AcDbEntity
  8
部品1
 48
50.0
100
AcDbCircle
 10
6465.600000000009
 20
6523.184450786738
 30
0.0
 40
35.0
  0
LINE
  5
268B1
330
747D
100
AcDbEntity
  8
センター
 48
2.0
100
AcDbLine
 10
6465.600000000009
 20
6573.184450786738
 30
0.0
 11
6465.600000000009
 21
6473.184450786738
 31
0.0
  0
LINE
  5
268B6
330
747D
100
AcDbEntity
  8
センター
 48
2.0
100
AcDbLine
 10
6415.600000000009
 20
6523.184450786738
 30
0.0
 11
6515.600000000009
 21
6523.184450786738
 31
0.0
  0
LINE
  5
268B8
330
747D
100
AcDbEntity
  8
センター
 48
2.0
100
AcDbLine
 10
6533.60000000001
 20
7052.184450786734
 30
0.0
 11
6633.60000000001
 21
7052.184450786734
 31
0.0
  0
LINE
  5
268B9
330
747D
100
AcDbEntity
  8
部品1
 48
50.0
100
AcDbLine
 10
6683.600000000009
 20
6952.184450786734
 30
0.0
 11
6483.600000000009
 21
6952.184450786734
 31
0.0
  0
LINE
  5
268BA
330
747D
100
AcDbEntity
  8
センター
 48
2.0
100
AcDbLine
 10
6583.60000000001
 20
7102.184450786734
 30
0.0
 11
6583.60000000001
 21
7002.184450786734
 31
0.0
  0
LINE
  5
268C7
330
747D
100
AcDbEntity
  8
センター
 48
2.0
100
AcDbLine
 10
7353.60000000001
 20
7052.184450786734
 30
0.0
 11
7453.60000000001
 21
7052.184450786734
 31
0.0
  0
LINE
  5
268C8
330
747D
100
AcDbEntity
  8
部品1
 48
50.0
100
AcDbLine
 10
7503.60000000001
 20
6952.184450786734
 30
0.0
 11
7303.60000000001
 21
6952.184450786734
 31
0.0
  0
LINE
  5
268C9
330
747D
100
AcDbEntity
  8
センター
 48
2.0
100
AcDbLine
 10
7403.60000000001
 20
7102.184450786734
 30
0.0
 11
7403.60000000001
 21
7002.184450786734
 31
0.0
  0
LINE
  5
268D1
330
747D
100
AcDbEntity
  8
センター
 48
2.0
100
AcDbLine
 10
8105.600000000009
 20
6573.184450786738
 30
0.0
 11
8105.600000000009
 21
6473.184450786738
 31
0.0
  0
CIRCLE
  5
268D2
330
747D
100
AcDbEntity
  8
部品1
 48
50.0
100
AcDbCircle
 10
8105.600000000009
 20
6523.184450786738
 30
0.0
 40
35.0
  0
TEXT
  5
268D7
330
747D
100
AcDbEntity
  8
寸法
 48
50.0
100
AcDbText
 10
8222.401545870919
 20
6343.865741579471
 30
0.0
 40
120.0
  1
扉面
  7
STYLE1
100
AcDbText
  0
LINE
  5
268D8
330
747D
100
AcDbEntity
  8
センター
 48
2.0
100
AcDbLine
 10
8055.60000000001
 20
6523.184450786738
 30
0.0
 11
8155.60000000001
 21
6523.184450786738
 31
0.0
  0
LINE
  5
268DA
330
747D
100
AcDbEntity
  8
部品1
 48
50.0
100
AcDbLine
 10
8323.600000000009
 20
6952.184450786734
 30
0.0
 11
8123.600000000008
 21
6952.184450786734
 31
0.0
  0
LINE
  5
268DB
330
747D
100
AcDbEntity
  8
センター
 48
2.0
100
AcDbLine
 10
8173.600000000009
 20
7052.184450786734
 30
0.0
 11
8273.600000000008
 21
7052.184450786734
 31
0.0
  0
LINE
  5
268DC
330
747D
100
AcDbEntity
  8
センター
 48
2.0
100
AcDbLine
 10
8223.60000000001
 20
7102.184450786734
 30
0.0
 11
8223.60000000001
 21
7002.184450786734
 31
0.0
  0
DIMENSION
  5
268DD
330
747D
100
AcDbEntity
  8
寸法
 48
50.0
100
AcDbDimension
  2
*D41
 10
4241.6
 20
8431.450908880645
 30
0.0
 11
5353.600000000001
 21
8531.462719904267
 31
0.0
 70
    32
 71
     5
 42
2224.000000000002
  3
INABA_S40G
100
AcDbAlignedDimension
 13
6465.600000000002
 23
7632.184450786734
 33
0.0
 14
4241.6
 24
7632.184450786734
 34
0.0
100
AcDbRotatedDimension
1001
ACAD
1000
DSTYLE
1002
{
1070
   341
1005
0
1002
}
  0
DIMENSION
  5
268DF
330
747D
100
AcDbEntity
  8
寸法
 48
50.0
100
AcDbDimension
  2
*D42
 10
3495.665006330073
 20
7582.184450786733
 30
0.0
 11
3495.665006330071
 21
7978.291052504534
 31
0.0
 70
   160
 71
     5
 42
123.0
  3
INABA_S40G
100
AcDbAlignedDimension
 13
4118.6
 23
7705.184450786735
 33
0.0
 14
4191.6
 24
7582.184450786733
 34
0.0
 50
90.0
100
AcDbRotatedDimension
1001
ACAD
1000
DSTYLE
1002
{
1070
   341
1005
0
1002
}
  0
DIMENSION
  5
268E0
330
747D
100
AcDbEntity
  8
寸法
 48
50.0
100
AcDbDimension
  2
*D43
 10
4118.6
 20
8431.450908880645
 30
0.0
 11
3845.493398282202
 21
8431.450908880645
 31
0.0
 70
   160
 71
     5
 42
123.0
  3
INABA_S40G
100
AcDbAlignedDimension
 13
4241.6
 23
7632.184450786734
 33
0.0
 14
4118.6
 24
7705.184450786735
 34
0.0
100
AcDbRotatedDimension
1001
ACAD
1000
DSTYLE
1002
{
1070
   341
1005
0
1002
}
  0
LINE
  5
268E2
330
747D
100
AcDbEntity
  8
細線
 48
50.0
100
AcDbLine
 10
4118.600000000004
 20
7117.109539760571
 30
0.0
 11
4141.674911026182
 21
7140.184450786749
 31
0.0
  0
LINE
  5
268E3
330
747D
100
AcDbEntity
  8
部品1
 48
50.0
100
AcDbLine
 10
4238.599999999997
 20
7140.184450786749
 30
0.0
 11
4118.600000000004
 21
7140.184450786749
 31
0.0
  0
LINE
  5
268E4
330
747D
100
AcDbEntity
  8
センター
 48
2.0
100
AcDbLine
 10
4191.6
 20
7582.184450786733
 30
0.0
 11
4291.6
 21
7582.184450786733
 31
0.0
  0
LINE
  5
268E5
330
747D
100
AcDbEntity
  8
センター
 48
2.0
100
AcDbLine
 10
4241.6
 20
7632.184450786734
 30
0.0
 11
4241.6
 21
7532.184450786734
 31
0.0
  0
CIRCLE
  5
268E6
330
747D
100
AcDbEntity
  8
部品1
 48
50.0
100
AcDbCircle
 10
4241.6
 20
7582.184450786733
 30
0.0
 40
35.0
  0
LINE
  5
268E7
330
747D
100
AcDbEntity
  8
部品1
 48
50.0
100
AcDbLine
 10
4633.60000000001
 20
7705.184450786737
 30
0.0
 11
4633.600000000013
 21
7505.184450786737
 31
0.0
  0
LINE
  5
268E8
330
747D
100
AcDbEntity
  8
部品1
 48
50.0
100
AcDbLine
 10
4433.600000000009
 20
7705.184450786737
 30
0.0
 11
4433.600000000013
 21
7505.184450786737
 31
0.0
  0
LINE
  5
268E9
330
747D
100
AcDbEntity
  8
細線
 48
50.0
100
AcDbLine
 10
4433.600000000011
 20
7597.208259155235
 30
0.0
 11
4541.576191631515
 21
7705.184450786737
 31
0.0
  0
LINE
  5
268EA
330
747D
100
AcDbEntity
  8
細線
 48
50.0
100
AcDbLine
 10
4433.600000000011
 20
7552.306978549885
 30
0.0
 11
4586.47747223686
 21
7705.184450786737
 31
0.0
  0
LINE
  5
268EB
330
747D
100
AcDbEntity
  8
細線
 48
50.0
100
AcDbLine
 10
4433.600000000011
 20
7507.405697944541
 30
0.0
 11
4631.378752842205
 21
7705.184450786737
 31
0.0
  0
LINE
  5
268EC
330
747D
100
AcDbEntity
  8
細線
 48
50.0
100
AcDbLine
 10
4433.600000000011
 20
7642.109539760578
 30
0.0
 11
4496.674911026171
 21
7705.184450786738
 31
0.0
  0
LINE
  5
268ED
330
747D
100
AcDbEntity
  8
細線
 48
50.0
100
AcDbLine
 10
4476.280033447548
 20
7505.184450786737
 30
0.0
 11
4633.600000000007
 21
7662.504417339194
 31
0.0
  0
LINE
  5
268EE
330
747D
100
AcDbEntity
  8
細線
 48
50.0
100
AcDbLine
 10
4521.18131405288
 20
7505.184450786739
 30
0.0
 11
4633.60000000001
 21
7617.603136733849
 31
0.0
  0
LINE
  5
268EF
330
747D
100
AcDbEntity
  8
細線
 48
50.0
100
AcDbLine
 10
4610.983875263566
 20
7505.184450786737
 30
0.0
 11
4633.600000000013
 21
7527.80057552318
 31
0.0
  0
LINE
  5
268F0
330
747D
100
AcDbEntity
  8
細線
 48
50.0
100
AcDbLine
 10
4566.082594658229
 20
7505.184450786737
 30
0.0
 11
4633.600000000011
 21
7572.701856128521
 31
0.0
  0
LINE
  5
268F1
330
747D
100
AcDbEntity
  8
部品1
 48
50.0
100
AcDbLine
 10
5043.600000000008
 20
7152.184450786734
 30
0.0
 11
4843.600000000008
 21
7152.184450786734
 31
0.0
  0
LINE
  5
268F2
330
747D
100
AcDbEntity
  8
細線
 48
50.0
100
AcDbLine
 10
4433.600000000009
 20
7687.010820365924
 30
0.0
 11
4451.773630420825
 21
7705.184450786737
 31
0.0
  0
DIMENSION
  5
268F3
330
747D
100
AcDbEntity
  8
寸法
 48
50.0
100
AcDbDimension
  2
*D44
 10
6465.600000000002
 20
8431.450908880645
 30
0.0
 11
7285.600000000001
 21
8531.450908880644
 31
0.0
 70
    32
 71
     5
 42
1639.999999999998
  3
INABA_S40G
100
AcDbAlignedDimension
 13
8105.6
 23
7632.184450786734
 33
0.0
 14
6465.600000000002
 24
7632.184450786734
 34
0.0
100
AcDbRotatedDimension
1001
ACAD
1000
DSTYLE
1002
{
1070
   341
1005
0
1002
}
  0
LINE
  5
268F5
330
747D
100
AcDbEntity
  8
部品1
 48
50.0
100
AcDbLine
 10
5453.600000000009
 20
7705.184450786737
 30
0.0
 11
5453.600000000013
 21
7505.184450786737
 31
0.0
  0
LINE
  5
268F6
330
747D
100
AcDbEntity
  8
部品1
 48
50.0
100
AcDbLine
 10
5253.600000000009
 20
7705.184450786737
 30
0.0
 11
5253.600000000012
 21
7505.184450786737
 31
0.0
  0
LINE
  5
268F7
330
747D
100
AcDbEntity
  8
細線
 48
50.0
100
AcDbLine
 10
5253.600000000012
 20
7507.405697944541
 30
0.0
 11
5451.378752842206
 21
7705.184450786737
 31
0.0
  0
LINE
  5
268F8
330
747D
100
AcDbEntity
  8
細線
 48
50.0
100
AcDbLine
 10
5253.600000000012
 20
7552.306978549885
 30
0.0
 11
5406.47747223686
 21
7705.184450786737
 31
0.0
  0
LINE
  5
268F9
330
747D
100
AcDbEntity
  8
細線
 48
50.0
100
AcDbLine
 10
5253.600000000012
 20
7597.208259155235
 30
0.0
 11
5361.576191631515
 21
7705.184450786737
 31
0.0
  0
LINE
  5
268FA
330
747D
100
AcDbEntity
  8
細線
 48
50.0
100
AcDbLine
 10
5253.600000000012
 20
7642.109539760578
 30
0.0
 11
5316.674911026172
 21
7705.184450786738
 31
0.0
  0
LINE
  5
268FB
330
747D
100
AcDbEntity
  8
細線
 48
50.0
100
AcDbLine
 10
5296.280033447549
 20
7505.184450786737
 30
0.0
 11
5453.600000000008
 21
7662.504417339194
 31
0.0
  0
LINE
  5
268FC
330
747D
100
AcDbEntity
  8
細線
 48
50.0
100
AcDbLine
 10
5341.181314052882
 20
7505.184450786739
 30
0.0
 11
5453.600000000009
 21
7617.603136733849
 31
0.0
  0
LINE
  5
268FD
330
747D
100
AcDbEntity
  8
細線
 48
50.0
100
AcDbLine
 10
5430.983875263566
 20
7505.184450786737
 30
0.0
 11
5453.600000000013
 21
7527.80057552318
 31
0.0
  0
LINE
  5
268FE
330
747D
100
AcDbEntity
  8
細線
 48
50.0
100
AcDbLine
 10
5386.08259465823
 20
7505.184450786737
 30
0.0
 11
5453.600000000012
 21
7572.701856128521
 31
0.0
  0
LINE
  5
268FF
330
747D
100
AcDbEntity
  8
部品1
 48
50.0
100
AcDbLine
 10
5863.600000000009
 20
7152.184450786734
 30
0.0
 11
5663.600000000009
 21
7152.184450786734
 31
0.0
  0
LINE
  5
26900
330
747D
100
AcDbEntity
  8
細線
 48
50.0
100
AcDbLine
 10
5253.600000000009
 20
7687.010820365924
 30
0.0
 11
5271.773630420824
 21
7705.184450786737
 31
0.0
  0
LINE
  5
26901
330
747D
100
AcDbEntity
  8
部品1
 48
50.0
100
AcDbLine
 10
6273.600000000009
 20
7705.184450786737
 30
0.0
 11
6273.600000000013
 21
7505.184450786737
 31
0.0
  0
LINE
  5
26902
330
747D
100
AcDbEntity
  8
部品1
 48
50.0
100
AcDbLine
 10
6073.600000000009
 20
7705.184450786737
 30
0.0
 11
6073.600000000013
 21
7505.184450786737
 31
0.0
  0
LINE
  5
26903
330
747D
100
AcDbEntity
  8
細線
 48
50.0
100
AcDbLine
 10
6073.600000000011
 20
7597.208259155235
 30
0.0
 11
6181.576191631515
 21
7705.184450786737
 31
0.0
  0
LINE
  5
26904
330
747D
100
AcDbEntity
  8
細線
 48
50.0
100
AcDbLine
 10
6073.600000000011
 20
7552.306978549885
 30
0.0
 11
6226.477472236861
 21
7705.184450786737
 31
0.0
  0
LINE
  5
26905
330
747D
100
AcDbEntity
  8
細線
 48
50.0
100
AcDbLine
 10
6073.600000000011
 20
7507.405697944541
 30
0.0
 11
6271.378752842205
 21
7705.184450786737
 31
0.0
  0
LINE
  5
26906
330
747D
100
AcDbEntity
  8
細線
 48
50.0
100
AcDbLine
 10
6073.600000000011
 20
7642.109539760578
 30
0.0
 11
6136.674911026172
 21
7705.184450786738
 31
0.0
  0
LINE
  5
26907
330
747D
100
AcDbEntity
  8
細線
 48
50.0
100
AcDbLine
 10
6116.280033447549
 20
7505.184450786737
 30
0.0
 11
6273.600000000008
 21
7662.504417339194
 31
0.0
  0
LINE
  5
26908
330
747D
100
AcDbEntity
  8
細線
 48
50.0
100
AcDbLine
 10
6161.181314052881
 20
7505.184450786739
 30
0.0
 11
6273.600000000009
 21
7617.603136733849
 31
0.0
  0
LINE
  5
26909
330
747D
100
AcDbEntity
  8
細線
 48
50.0
100
AcDbLine
 10
6250.983875263566
 20
7505.184450786737
 30
0.0
 11
6273.600000000013
 21
7527.80057552318
 31
0.0
  0
LINE
  5
2690A
330
747D
100
AcDbEntity
  8
細線
 48
50.0
100
AcDbLine
 10
6206.08259465823
 20
7505.184450786737
 30
0.0
 11
6273.600000000011
 21
7572.701856128521
 31
0.0
  0
LINE
  5
2690B
330
747D
100
AcDbEntity
  8
部品1
 48
50.0
100
AcDbLine
 10
6683.600000000009
 20
7152.184450786734
 30
0.0
 11
6483.600000000009
 21
7152.184450786734
 31
0.0
  0
LINE
  5
2690C
330
747D
100
AcDbEntity
  8
センター
 48
2.0
100
AcDbLine
 10
6415.600000000002
 20
7582.184450786733
 30
0.0
 11
6515.600000000002
 21
7582.184450786733
 31
0.0
  0
CIRCLE
  5
2690D
330
747D
100
AcDbEntity
  8
部品1
 48
50.0
100
AcDbCircle
 10
6465.600000000002
 20
7582.184450786733
 30
0.0
 40
35.0
  0
LINE
  5
2690E
330
747D
100
AcDbEntity
  8
センター
 48
2.0
100
AcDbLine
 10
6465.600000000002
 20
7632.184450786734
 30
0.0
 11
6465.600000000002
 21
7532.184450786734
 31
0.0
  0
LINE
  5
2690F
330
747D
100
AcDbEntity
  8
細線
 48
50.0
100
AcDbLine
 10
6073.600000000009
 20
7687.010820365924
 30
0.0
 11
6091.773630420824
 21
7705.184450786737
 31
0.0
  0
LINE
  5
26910
330
747D
100
AcDbEntity
  8
部品1
 48
50.0
100
AcDbLine
 10
7093.600000000009
 20
7705.184450786737
 30
0.0
 11
7093.600000000013
 21
7505.184450786737
 31
0.0
  0
LINE
  5
26911
330
747D
100
AcDbEntity
  8
部品1
 48
50.0
100
AcDbLine
 10
6893.600000000009
 20
7705.184450786737
 30
0.0
 11
6893.600000000013
 21
7505.184450786737
 31
0.0
  0
LINE
  5
26912
330
747D
100
AcDbEntity
  8
細線
 48
50.0
100
AcDbLine
 10
6893.600000000012
 20
7507.405697944541
 30
0.0
 11
7091.378752842205
 21
7705.184450786737
 31
0.0
  0
LINE
  5
26913
330
747D
100
AcDbEntity
  8
細線
 48
50.0
100
AcDbLine
 10
6893.600000000012
 20
7552.306978549885
 30
0.0
 11
7046.47747223686
 21
7705.184450786737
 31
0.0
  0
LINE
  5
26914
330
747D
100
AcDbEntity
  8
細線
 48
50.0
100
AcDbLine
 10
6893.600000000012
 20
7597.208259155235
 30
0.0
 11
7001.576191631516
 21
7705.184450786737
 31
0.0
  0
LINE
  5
26915
330
747D
100
AcDbEntity
  8
細線
 48
50.0
100
AcDbLine
 10
6893.600000000012
 20
7642.109539760578
 30
0.0
 11
6956.674911026173
 21
7705.184450786738
 31
0.0
  0
LINE
  5
26916
330
747D
100
AcDbEntity
  8
細線
 48
50.0
100
AcDbLine
 10
6936.280033447549
 20
7505.184450786737
 30
0.0
 11
7093.600000000008
 21
7662.504417339194
 31
0.0
  0
LINE
  5
26917
330
747D
100
AcDbEntity
  8
細線
 48
50.0
100
AcDbLine
 10
6981.181314052881
 20
7505.184450786739
 30
0.0
 11
7093.600000000009
 21
7617.603136733849
 31
0.0
  0
LINE
  5
26918
330
747D
100
AcDbEntity
  8
細線
 48
50.0
100
AcDbLine
 10
7070.983875263566
 20
7505.184450786737
 30
0.0
 11
7093.600000000013
 21
7527.80057552318
 31
0.0
  0
LINE
  5
26919
330
747D
100
AcDbEntity
  8
細線
 48
50.0
100
AcDbLine
 10
7026.08259465823
 20
7505.184450786737
 30
0.0
 11
7093.600000000012
 21
7572.701856128521
 31
0.0
  0
LINE
  5
2691A
330
747D
100
AcDbEntity
  8
部品1
 48
50.0
100
AcDbLine
 10
7503.60000000001
 20
7152.184450786734
 30
0.0
 11
7303.60000000001
 21
7152.184450786734
 31
0.0
  0
LINE
  5
2691B
330
747D
100
AcDbEntity
  8
細線
 48
50.0
100
AcDbLine
 10
6893.600000000009
 20
7687.010820365924
 30
0.0
 11
6911.773630420825
 21
7705.184450786737
 31
0.0
  0
LINE
  5
2691C
330
747D
100
AcDbEntity
  8
部品1
 48
50.0
100
AcDbLine
 10
7913.600000000008
 20
7705.184450786737
 30
0.0
 11
7913.600000000015
 21
7505.184450786737
 31
0.0
  0
LINE
  5
2691D
330
747D
100
AcDbEntity
  8
部品1
 48
50.0
100
AcDbLine
 10
7713.60000000001
 20
7705.184450786737
 30
0.0
 11
7713.600000000013
 21
7505.184450786737
 31
0.0
  0
LINE
  5
2691E
330
747D
100
AcDbEntity
  8
細線
 48
50.0
100
AcDbLine
 10
7713.600000000011
 20
7597.208259155235
 30
0.0
 11
7821.576191631514
 21
7705.184450786737
 31
0.0
  0
LINE
  5
2691F
330
747D
100
AcDbEntity
  8
細線
 48
50.0
100
AcDbLine
 10
7713.600000000011
 20
7552.306978549885
 30
0.0
 11
7866.47747223686
 21
7705.184450786737
 31
0.0
  0
LINE
  5
26920
330
747D
100
AcDbEntity
  8
細線
 48
50.0
100
AcDbLine
 10
7713.600000000011
 20
7507.405697944541
 30
0.0
 11
7911.378752842205
 21
7705.184450786737
 31
0.0
  0
LINE
  5
26921
330
747D
100
AcDbEntity
  8
細線
 48
50.0
100
AcDbLine
 10
7713.600000000011
 20
7642.109539760578
 30
0.0
 11
7776.674911026171
 21
7705.184450786738
 31
0.0
  0
LINE
  5
26922
330
747D
100
AcDbEntity
  8
細線
 48
50.0
100
AcDbLine
 10
7756.280033447549
 20
7505.184450786737
 30
0.0
 11
7913.600000000008
 21
7662.504417339194
 31
0.0
  0
LINE
  5
26923
330
747D
100
AcDbEntity
  8
細線
 48
50.0
100
AcDbLine
 10
7801.181314052882
 20
7505.184450786739
 30
0.0
 11
7913.600000000008
 21
7617.603136733849
 31
0.0
  0
LINE
  5
26924
330
747D
100
AcDbEntity
  8
細線
 48
50.0
100
AcDbLine
 10
7890.983875263565
 20
7505.184450786737
 30
0.0
 11
7913.600000000015
 21
7527.80057552318
 31
0.0
  0
LINE
  5
26925
330
747D
100
AcDbEntity
  8
細線
 48
50.0
100
AcDbLine
 10
7846.082594658231
 20
7505.184450786737
 30
0.0
 11
7913.600000000011
 21
7572.701856128521
 31
0.0
  0
LINE
  5
26926
330
747D
100
AcDbEntity
  8
部品1
 48
50.0
100
AcDbLine
 10
8323.600000000009
 20
7152.184450786734
 30
0.0
 11
8123.600000000008
 21
7152.184450786734
 31
0.0
  0
LINE
  5
26927
330
747D
100
AcDbEntity
  8
センター
 48
2.0
100
AcDbLine
 10
8105.600000000002
 20
7632.184450786734
 30
0.0
 11
8105.600000000002
 21
7532.184450786734
 31
0.0
  0
CIRCLE
  5
26928
330
747D
100
AcDbEntity
  8
部品1
 48
50.0
100
AcDbCircle
 10
8105.600000000002
 20
7582.184450786733
 30
0.0
 40
35.0
  0
LINE
  5
26929
330
747D
100
AcDbEntity
  8
センター
 48
2.0
100
AcDbLine
 10
8055.600000000003
 20
7582.184450786733
 30
0.0
 11
8155.600000000003
 21
7582.184450786733
 31
0.0
  0
LINE
  5
2692A
330
747D
100
AcDbEntity
  8
細線
 48
50.0
100
AcDbLine
 10
7713.60000000001
 20
7687.010820365924
 30
0.0
 11
7731.773630420825
 21
7705.184450786737
 31
0.0
  0
LINE
  5
2692B
330
747D
100
AcDbEntity
  8
細線
 48
50.0
100
AcDbLine
 10
12208.6
 20
7007.306978549867
 30
0.0
 11
12328.6
 21
7127.306978549866
 31
0.0
  0
LINE
  5
2692C
330
747D
100
AcDbEntity
  8
細線
 48
50.0
100
AcDbLine
 10
12208.6
 20
7052.208259155214
 30
0.0
 11
12296.57619163152
 21
7140.184450786738
 31
0.0
  0
DIMENSION
  5
2692D
330
747D
100
AcDbEntity
  8
寸法
 48
50.0
100
AcDbDimension
  2
*D45
 10
9043.60000000001
 20
8187.793267456981
 30
0.0
 11
9453.60000000001
 21
8287.805078480603
 31
0.0
 70
    32
 71
     5
 42
819.9999999999981
  3
INABA_S40G
100
AcDbAlignedDimension
 13
9863.600000000008
 23
7102.184450786734
 33
0.0
 14
9043.60000000001
 24
7102.184450786734
 34
0.0
100
AcDbRotatedDimension
1001
ACAD
1000
DSTYLE
1002
{
1070
   341
1005
0
1002
}
  0
LINE
  5
2692E
330
747D
100
AcDbEntity
  8
部品1
 48
50.0
100
AcDbLine
 10
8943.600000000008
 20
6952.184450786734
 30
0.0
 11
8943.600000000008
 21
7152.184450786734
 31
0.0
  0
LINE
  5
2692F
330
747D
100
AcDbEntity
  8
部品1
 48
50.0
100
AcDbLine
 10
9143.600000000009
 20
6952.184450786734
 30
0.0
 11
9143.600000000009
 21
7152.184450786734
 31
0.0
  0
DIMENSION
  5
26930
330
747D
100
AcDbEntity
  8
寸法
 48
50.0
100
AcDbDimension
  2
*D46
 10
10683.60000000001
 20
8187.793267456981
 30
0.0
 11
11093.60000000001
 21
8287.805078480603
 31
0.0
 70
    32
 71
     5
 42
820.0
  3
INABA_S40G
100
AcDbAlignedDimension
 13
11503.6
 23
7102.184450786734
 33
0.0
 14
10683.60000000001
 24
7102.184450786734
 34
0.0
100
AcDbRotatedDimension
1001
ACAD
1000
DSTYLE
1002
{
1070
   341
1005
0
1002
}
  0
DIMENSION
  5
26931
330
747D
100
AcDbEntity
  8
寸法
 48
50.0
100
AcDbDimension
  2
*D47
 10
11503.6
 20
8187.793267456981
 30
0.0
 11
11916.1
 21
8287.805078480603
 31
0.0
 70
    32
 71
     5
 42
824.9999999999927
  3
INABA_S40G
100
AcDbAlignedDimension
 13
12328.6
 23
7705.184450786735
 33
0.0
 14
11503.6
 24
7102.184450786734
 34
0.0
100
AcDbRotatedDimension
1001
ACAD
1000
DSTYLE
1002
{
1070
   341
1005
0
1002
}
  0
DIMENSION
  5
26932
330
747D
100
AcDbEntity
  8
寸法
 48
50.0
100
AcDbDimension
  2
*D48
 10
9863.600000000008
 20
8187.793267456981
 30
0.0
 11
10273.6
 21
8287.805078480603
 31
0.0
 70
    32
 71
     5
 42
820.0
  3
INABA_S40G
100
AcDbAlignedDimension
 13
10683.60000000001
 23
7102.184450786734
 33
0.0
 14
9863.600000000008
 24
7102.184450786734
 34
0.0
100
AcDbRotatedDimension
1001
ACAD
1000
DSTYLE
1002
{
1070
   341
1005
0
1002
}
  0
LINE
  5
26933
330
747D
100
AcDbEntity
  8
部品1
 48
50.0
100
AcDbLine
 10
9763.600000000009
 20
6952.184450786734
 30
0.0
 11
9763.600000000009
 21
7152.184450786734
 31
0.0
  0
LINE
  5
26934
330
747D
100
AcDbEntity
  8
部品1
 48
50.0
100
AcDbLine
 10
9963.600000000008
 20
6952.184450786734
 30
0.0
 11
9963.600000000008
 21
7152.184450786734
 31
0.0
  0
LINE
  5
26935
330
747D
100
AcDbEntity
  8
部品1
 48
50.0
100
AcDbLine
 10
10583.60000000001
 20
6952.184450786734
 30
0.0
 11
10583.60000000001
 21
7152.184450786734
 31
0.0
  0
LINE
  5
26936
330
747D
100
AcDbEntity
  8
部品1
 48
50.0
100
AcDbLine
 10
10783.60000000001
 20
6952.184450786734
 30
0.0
 11
10783.60000000001
 21
7152.184450786734
 31
0.0
  0
LINE
  5
26938
330
747D
100
AcDbEntity
  8
部品1
 48
50.0
100
AcDbLine
 10
12328.6
 20
6325.184450786752
 30
0.0
 11
12328.6
 21
7705.184450786735
 31
0.0
  0
LINE
  5
2693A
330
747D
100
AcDbEntity
  8
部品1
 48
50.0
100
AcDbLine
 10
11403.60000000001
 20
6952.184450786734
 30
0.0
 11
11403.60000000001
 21
7152.184450786734
 31
0.0
  0
LINE
  5
2693B
330
747D
100
AcDbEntity
  8
部品1
 48
50.0
100
AcDbLine
 10
11603.6
 20
6952.184450786734
 30
0.0
 11
11603.6
 21
7152.184450786734
 31
0.0
  0
LINE
  5
26948
330
747D
100
AcDbEntity
  8
部品1
 48
50.0
100
AcDbLine
 10
9143.600000000009
 20
6952.184450786734
 30
0.0
 11
8943.600000000008
 21
6952.184450786734
 31
0.0
  0
LINE
  5
26949
330
747D
100
AcDbEntity
  8
センター
 48
2.0
100
AcDbLine
 10
8993.600000000009
 20
7052.184450786734
 30
0.0
 11
9093.600000000009
 21
7052.184450786734
 31
0.0
  0
LINE
  5
2694A
330
747D
100
AcDbEntity
  8
センター
 48
2.0
100
AcDbLine
 10
9043.60000000001
 20
7102.184450786734
 30
0.0
 11
9043.60000000001
 21
7002.184450786734
 31
0.0
  0
LINE
  5
26952
330
747D
100
AcDbEntity
  8
センター
 48
2.0
100
AcDbLine
 10
9745.600000000008
 20
6573.184450786738
 30
0.0
 11
9745.600000000008
 21
6473.184450786738
 31
0.0
  0
CIRCLE
  5
26953
330
747D
100
AcDbEntity
  8
部品1
 48
50.0
100
AcDbCircle
 10
9745.600000000008
 20
6523.184450786738
 30
0.0
 40
35.0
  0
LINE
  5
26958
330
747D
100
AcDbEntity
  8
センター
 48
2.0
100
AcDbLine
 10
9695.600000000007
 20
6523.184450786738
 30
0.0
 11
9795.600000000007
 21
6523.184450786738
 31
0.0
  0
LINE
  5
2695A
330
747D
100
AcDbEntity
  8
センター
 48
2.0
100
AcDbLine
 10
9813.600000000008
 20
7052.184450786734
 30
0.0
 11
9913.600000000009
 21
7052.184450786734
 31
0.0
  0
LINE
  5
2695B
330
747D
100
AcDbEntity
  8
部品1
 48
50.0
100
AcDbLine
 10
9963.600000000008
 20
6952.184450786734
 30
0.0
 11
9763.600000000009
 21
6952.184450786734
 31
0.0
  0
LINE
  5
2695C
330
747D
100
AcDbEntity
  8
センター
 48
2.0
100
AcDbLine
 10
9863.600000000008
 20
7102.184450786734
 30
0.0
 11
9863.600000000008
 21
7002.184450786734
 31
0.0
  0
LINE
  5
26969
330
747D
100
AcDbEntity
  8
センター
 48
2.0
100
AcDbLine
 10
10633.6
 20
7052.184450786734
 30
0.0
 11
10733.6
 21
7052.184450786734
 31
0.0
  0
LINE
  5
2696A
330
747D
100
AcDbEntity
  8
部品1
 48
50.0
100
AcDbLine
 10
10783.60000000001
 20
6952.184450786734
 30
0.0
 11
10583.60000000001
 21
6952.184450786734
 31
0.0
  0
LINE
  5
2696B
330
747D
100
AcDbEntity
  8
センター
 48
2.0
100
AcDbLine
 10
10683.60000000001
 20
7102.184450786734
 30
0.0
 11
10683.60000000001
 21
7002.184450786734
 31
0.0
  0
LINE
  5
26978
330
747D
100
AcDbEntity
  8
センター
 48
2.0
100
AcDbLine
 10
11453.60000000001
 20
7052.184450786734
 30
0.0
 11
11553.60000000001
 21
7052.184450786734
 31
0.0
  0
LINE
  5
26979
330
747D
100
AcDbEntity
  8
部品1
 48
50.0
100
AcDbLine
 10
11603.6
 20
6952.184450786734
 30
0.0
 11
11403.60000000001
 21
6952.184450786734
 31
0.0
  0
LINE
  5
2697A
330
747D
100
AcDbEntity
  8
センター
 48
2.0
100
AcDbLine
 10
11503.6
 20
7102.184450786734
 30
0.0
 11
11503.6
 21
7002.184450786734
 31
0.0
  0
CIRCLE
  5
26988
330
747D
100
AcDbEntity
  8
部品1
 48
50.0
100
AcDbCircle
 10
12205.6
 20
6523.184450786738
 30
0.0
 40
35.0
  0
LINE
  5
26989
330
747D
100
AcDbEntity
  8
センター
 48
2.0
100
AcDbLine
 10
12205.6
 20
6573.184450786738
 30
0.0
 11
12205.6
 21
6473.184450786738
 31
0.0
  0
LINE
  5
2698E
330
747D
100
AcDbEntity
  8
センター
 48
2.0
100
AcDbLine
 10
12155.60000000001
 20
6523.184450786738
 30
0.0
 11
12255.60000000001
 21
6523.184450786738
 31
0.0
  0
LINE
  5
26990
330
747D
100
AcDbEntity
  8
細線
 48
50.0
100
AcDbLine
 10
12321.08259465825
 20
6940.184450786735
 30
0.0
 11
12328.6
 21
6947.701856128482
 31
0.0
  0
LINE
  5
26991
330
747D
100
AcDbEntity
  8
細線
 48
50.0
100
AcDbLine
 10
12276.18131405291
 20
6940.184450786738
 30
0.0
 11
12328.6
 21
6992.60313673383
 31
0.0
  0
LINE
  5
26992
330
747D
100
AcDbEntity
  8
細線
 48
50.0
100
AcDbLine
 10
12231.28003344756
 20
6940.184450786738
 30
0.0
 11
12328.6
 21
7037.504417339174
 31
0.0
  0
LINE
  5
26993
330
747D
100
AcDbEntity
  8
細線
 48
50.0
100
AcDbLine
 10
12208.6
 20
6962.405697944518
 30
0.0
 11
12328.6
 21
7082.40569794452
 31
0.0
  0
LINE
  5
26994
330
747D
100
AcDbEntity
  8
部品1
 48
50.0
100
AcDbLine
 10
12328.6
 20
6940.184450786738
 30
0.0
 11
12208.6
 21
6940.184450786738
 31
0.0
  0
DIMENSION
  5
26995
330
747D
100
AcDbEntity
  8
寸法
 48
50.0
100
AcDbDimension
  2
*D25
 10
9745.600000000001
 20
8431.450908880645
 30
0.0
 11
10975.6
 21
8531.462719904267
 31
0.0
 70
    32
 71
     5
 42
2460.0
  3
INABA_S40G
100
AcDbAlignedDimension
 13
12205.6
 23
7632.184450786734
 33
0.0
 14
9745.600000000001
 24
7632.184450786734
 34
0.0
100
AcDbRotatedDimension
1001
ACAD
1000
DSTYLE
1002
{
1070
   341
1005
0
1002
}
  0
LINE
  5
26996
330
747D
100
AcDbEntity
  8
部品1
 48
50.0
100
AcDbLine
 10
8733.600000000008
 20
7705.184450786737
 30
0.0
 11
8733.600000000015
 21
7505.184450786737
 31
0.0
  0
LINE
  5
26997
330
747D
100
AcDbEntity
  8
部品1
 48
50.0
100
AcDbLine
 10
8533.600000000008
 20
7705.184450786737
 30
0.0
 11
8533.600000000015
 21
7505.184450786737
 31
0.0
  0
LINE
  5
26998
330
747D
100
AcDbEntity
  8
細線
 48
50.0
100
AcDbLine
 10
8533.600000000012
 20
7507.405697944541
 30
0.0
 11
8731.378752842205
 21
7705.184450786737
 31
0.0
  0
LINE
  5
26999
330
747D
100
AcDbEntity
  8
細線
 48
50.0
100
AcDbLine
 10
8533.600000000012
 20
7552.306978549885
 30
0.0
 11
8686.477472236862
 21
7705.184450786737
 31
0.0
  0
LINE
  5
2699A
330
747D
100
AcDbEntity
  8
細線
 48
50.0
100
AcDbLine
 10
8533.600000000012
 20
7597.208259155235
 30
0.0
 11
8641.576191631514
 21
7705.184450786737
 31
0.0
  0
LINE
  5
2699B
330
747D
100
AcDbEntity
  8
細線
 48
50.0
100
AcDbLine
 10
8533.600000000012
 20
7642.109539760578
 30
0.0
 11
8596.674911026171
 21
7705.184450786738
 31
0.0
  0
LINE
  5
2699C
330
747D
100
AcDbEntity
  8
細線
 48
50.0
100
AcDbLine
 10
8576.280033447549
 20
7505.184450786737
 30
0.0
 11
8733.600000000008
 21
7662.504417339194
 31
0.0
  0
LINE
  5
2699D
330
747D
100
AcDbEntity
  8
細線
 48
50.0
100
AcDbLine
 10
8621.181314052881
 20
7505.184450786739
 30
0.0
 11
8733.600000000008
 21
7617.603136733849
 31
0.0
  0
LINE
  5
2699E
330
747D
100
AcDbEntity
  8
細線
 48
50.0
100
AcDbLine
 10
8710.983875263563
 20
7505.184450786737
 30
0.0
 11
8733.600000000015
 21
7527.80057552318
 31
0.0
  0
LINE
  5
2699F
330
747D
100
AcDbEntity
  8
細線
 48
50.0
100
AcDbLine
 10
8666.082594658227
 20
7505.184450786737
 30
0.0
 11
8733.600000000011
 21
7572.701856128521
 31
0.0
  0
LINE
  5
269A0
330
747D
100
AcDbEntity
  8
部品1
 48
50.0
100
AcDbLine
 10
9143.600000000009
 20
7152.184450786734
 30
0.0
 11
8943.600000000008
 21
7152.184450786734
 31
0.0
  0
LINE
  5
269A1
330
747D
100
AcDbEntity
  8
細線
 48
50.0
100
AcDbLine
 10
8533.600000000008
 20
7687.010820365924
 30
0.0
 11
8551.773630420823
 21
7705.184450786737
 31
0.0
  0
LINE
  5
269A2
330
747D
100
AcDbEntity
  8
部品1
 48
50.0
100
AcDbLine
 10
9553.600000000008
 20
7705.184450786737
 30
0.0
 11
9553.600000000015
 21
7505.184450786737
 31
0.0
  0
LINE
  5
269A3
330
747D
100
AcDbEntity
  8
部品1
 48
50.0
100
AcDbLine
 10
9353.600000000007
 20
7705.184450786737
 30
0.0
 11
9353.600000000016
 21
7505.184450786737
 31
0.0
  0
LINE
  5
269A4
330
747D
100
AcDbEntity
  8
細線
 48
50.0
100
AcDbLine
 10
9353.600000000012
 20
7597.208259155235
 30
0.0
 11
9461.576191631515
 21
7705.184450786737
 31
0.0
  0
LINE
  5
269A5
330
747D
100
AcDbEntity
  8
細線
 48
50.0
100
AcDbLine
 10
9353.600000000012
 20
7552.306978549885
 30
0.0
 11
9506.477472236863
 21
7705.184450786737
 31
0.0
  0
LINE
  5
269A6
330
747D
100
AcDbEntity
  8
細線
 48
50.0
100
AcDbLine
 10
9353.600000000012
 20
7507.405697944541
 30
0.0
 11
9551.378752842206
 21
7705.184450786737
 31
0.0
  0
LINE
  5
269A7
330
747D
100
AcDbEntity
  8
細線
 48
50.0
100
AcDbLine
 10
9353.600000000012
 20
7642.109539760578
 30
0.0
 11
9416.674911026172
 21
7705.184450786738
 31
0.0
  0
LINE
  5
269A8
330
747D
100
AcDbEntity
  8
細線
 48
50.0
100
AcDbLine
 10
9396.280033447549
 20
7505.184450786737
 30
0.0
 11
9553.600000000008
 21
7662.504417339194
 31
0.0
  0
LINE
  5
269A9
330
747D
100
AcDbEntity
  8
細線
 48
50.0
100
AcDbLine
 10
9441.181314052881
 20
7505.184450786739
 30
0.0
 11
9553.600000000008
 21
7617.603136733849
 31
0.0
  0
LINE
  5
269AA
330
747D
100
AcDbEntity
  8
細線
 48
50.0
100
AcDbLine
 10
9530.983875263563
 20
7505.184450786737
 30
0.0
 11
9553.600000000015
 21
7527.80057552318
 31
0.0
  0
LINE
  5
269AB
330
747D
100
AcDbEntity
  8
細線
 48
50.0
100
AcDbLine
 10
9486.082594658228
 20
7505.184450786737
 30
0.0
 11
9553.600000000011
 21
7572.701856128521
 31
0.0
  0
LINE
  5
269AC
330
747D
100
AcDbEntity
  8
部品1
 48
50.0
100
AcDbLine
 10
9963.600000000008
 20
7152.184450786734
 30
0.0
 11
9763.600000000009
 21
7152.184450786734
 31
0.0
  0
LINE
  5
269AD
330
747D
100
AcDbEntity
  8
センター
 48
2.0
100
AcDbLine
 10
9695.6
 20
7582.184450786733
 30
0.0
 11
9795.6
 21
7582.184450786733
 31
0.0
  0
LINE
  5
269AE
330
747D
100
AcDbEntity
  8
センター
 48
2.0
100
AcDbLine
 10
9745.600000000001
 20
7632.184450786734
 30
0.0
 11
9745.600000000001
 21
7532.184450786734
 31
0.0
  0
CIRCLE
  5
269AF
330
747D
100
AcDbEntity
  8
部品1
 48
50.0
100
AcDbCircle
 10
9745.600000000001
 20
7582.184450786733
 30
0.0
 40
35.0
  0
LINE
  5
269B0
330
747D
100
AcDbEntity
  8
細線
 48
50.0
100
AcDbLine
 10
9353.600000000007
 20
7687.010820365924
 30
0.0
 11
9371.773630420824
 21
7705.184450786737
 31
0.0
  0
LINE
  5
269B1
330
747D
100
AcDbEntity
  8
部品1
 48
50.0
100
AcDbLine
 10
10373.6
 20
7705.184450786737
 30
0.0
 11
10373.60000000001
 21
7505.184450786737
 31
0.0
  0
LINE
  5
269B2
330
747D
100
AcDbEntity
  8
部品1
 48
50.0
100
AcDbLine
 10
10173.6
 20
7705.184450786737
 30
0.0
 11
10173.60000000001
 21
7505.184450786737
 31
0.0
  0
LINE
  5
269B3
330
747D
100
AcDbEntity
  8
細線
 48
50.0
100
AcDbLine
 10
10173.60000000001
 20
7642.109539760578
 30
0.0
 11
10236.67491102617
 21
7705.184450786738
 31
0.0
  0
LINE
  5
269B4
330
747D
100
AcDbEntity
  8
細線
 48
50.0
100
AcDbLine
 10
10173.60000000001
 20
7507.405697944541
 30
0.0
 11
10371.3787528422
 21
7705.184450786737
 31
0.0
  0
LINE
  5
269B5
330
747D
100
AcDbEntity
  8
細線
 48
50.0
100
AcDbLine
 10
10173.60000000001
 20
7552.306978549885
 30
0.0
 11
10326.47747223686
 21
7705.184450786737
 31
0.0
  0
LINE
  5
269B6
330
747D
100
AcDbEntity
  8
細線
 48
50.0
100
AcDbLine
 10
10173.60000000001
 20
7597.208259155235
 30
0.0
 11
10281.57619163151
 21
7705.184450786737
 31
0.0
  0
LINE
  5
269B7
330
747D
100
AcDbEntity
  8
細線
 48
50.0
100
AcDbLine
 10
10261.18131405288
 20
7505.184450786739
 30
0.0
 11
10373.6
 21
7617.603136733849
 31
0.0
  0
LINE
  5
269B8
330
747D
100
AcDbEntity
  8
細線
 48
50.0
100
AcDbLine
 10
10216.28003344755
 20
7505.184450786737
 30
0.0
 11
10373.6
 21
7662.504417339194
 31
0.0
  0
LINE
  5
269B9
330
747D
100
AcDbEntity
  8
細線
 48
50.0
100
AcDbLine
 10
10350.98387526356
 20
7505.184450786737
 30
0.0
 11
10373.60000000001
 21
7527.80057552318
 31
0.0
  0
LINE
  5
269BA
330
747D
100
AcDbEntity
  8
細線
 48
50.0
100
AcDbLine
 10
10306.08259465823
 20
7505.184450786737
 30
0.0
 11
10373.60000000001
 21
7572.701856128521
 31
0.0
  0
LINE
  5
269BB
330
747D
100
AcDbEntity
  8
部品1
 48
50.0
100
AcDbLine
 10
10783.60000000001
 20
7152.184450786734
 30
0.0
 11
10583.60000000001
 21
7152.184450786734
 31
0.0
  0
LINE
  5
269BC
330
747D
100
AcDbEntity
  8
細線
 48
50.0
100
AcDbLine
 10
10173.6
 20
7687.010820365924
 30
0.0
 11
10191.77363042082
 21
7705.184450786737
 31
0.0
  0
LINE
  5
269BD
330
747D
100
AcDbEntity
  8
部品1
 48
50.0
100
AcDbLine
 10
11193.60000000001
 20
7705.184450786797
 30
0.0
 11
11193.60000000001
 21
7505.184450786797
 31
0.0
  0
LINE
  5
269BE
330
747D
100
AcDbEntity
  8
部品1
 48
50.0
100
AcDbLine
 10
10993.6
 20
7705.184450786797
 30
0.0
 11
10993.60000000001
 21
7505.184450786797
 31
0.0
  0
LINE
  5
269BF
330
747D
100
AcDbEntity
  8
細線
 48
50.0
100
AcDbLine
 10
10993.60000000001
 20
7642.109539760636
 30
0.0
 11
11056.67491102617
 21
7705.184450786797
 31
0.0
  0
LINE
  5
269C0
330
747D
100
AcDbEntity
  8
細線
 48
50.0
100
AcDbLine
 10
10993.60000000001
 20
7507.4056979446
 30
0.0
 11
11191.3787528422
 21
7705.184450786797
 31
0.0
  0
LINE
  5
269C1
330
747D
100
AcDbEntity
  8
細線
 48
50.0
100
AcDbLine
 10
10993.60000000001
 20
7552.306978549943
 30
0.0
 11
11146.47747223686
 21
7705.184450786797
 31
0.0
  0
LINE
  5
269C2
330
747D
100
AcDbEntity
  8
細線
 48
50.0
100
AcDbLine
 10
10993.60000000001
 20
7597.208259155293
 30
0.0
 11
11101.57619163151
 21
7705.184450786797
 31
0.0
  0
LINE
  5
269C3
330
747D
100
AcDbEntity
  8
細線
 48
50.0
100
AcDbLine
 10
11081.18131405288
 20
7505.184450786797
 30
0.0
 11
11193.60000000001
 21
7617.603136733909
 31
0.0
  0
LINE
  5
269C4
330
747D
100
AcDbEntity
  8
細線
 48
50.0
100
AcDbLine
 10
11036.28003344755
 20
7505.184450786797
 30
0.0
 11
11193.60000000001
 21
7662.504417339253
 31
0.0
  0
LINE
  5
269C5
330
747D
100
AcDbEntity
  8
細線
 48
50.0
100
AcDbLine
 10
11126.08259465823
 20
7505.184450786797
 30
0.0
 11
11193.60000000001
 21
7572.70185612858
 31
0.0
  0
LINE
  5
269C6
330
747D
100
AcDbEntity
  8
細線
 48
50.0
100
AcDbLine
 10
11170.98387526356
 20
7505.184450786797
 30
0.0
 11
11193.60000000001
 21
7527.800575523241
 31
0.0
  0
LINE
  5
269C7
330
747D
100
AcDbEntity
  8
部品1
 48
50.0
100
AcDbLine
 10
11603.6
 20
7152.184450786734
 30
0.0
 11
11403.60000000001
 21
7152.184450786734
 31
0.0
  0
LINE
  5
269C8
330
747D
100
AcDbEntity
  8
細線
 48
50.0
100
AcDbLine
 10
10993.6
 20
7687.010820365983
 30
0.0
 11
11011.77363042082
 21
7705.184450786797
 31
0.0
  0
DIMENSION
  5
269C9
330
747D
100
AcDbEntity
  8
寸法
 48
50.0
100
AcDbDimension
  2
*D26
 10
12205.6
 20
8431.450908880645
 30
0.0
 11
12601.7066017178
 21
8431.450908880645
 31
0.0
 70
   160
 71
     5
 42
123.0
  3
INABA_S40G
100
AcDbAlignedDimension
 13
12328.6
 23
7705.184450786735
 33
0.0
 14
12205.6
 24
7632.184450786734
 34
0.0
100
AcDbRotatedDimension
1001
ACAD
1000
DSTYLE
1002
{
1070
   341
1005
0
1002
}
  0
LINE
  5
269CC
330
747D
100
AcDbEntity
  8
部品1
 48
50.0
100
AcDbLine
 10
12013.60000000001
 20
7705.184450786797
 30
0.0
 11
12013.60000000001
 21
7505.184450786797
 31
0.0
  0
LINE
  5
269CD
330
747D
100
AcDbEntity
  8
部品1
 48
50.0
100
AcDbLine
 10
11813.60000000001
 20
7705.184450786797
 30
0.0
 11
11813.60000000001
 21
7505.184450786797
 31
0.0
  0
LINE
  5
269CE
330
747D
100
AcDbEntity
  8
細線
 48
50.0
100
AcDbLine
 10
11813.60000000001
 20
7597.208259155293
 30
0.0
 11
11921.57619163151
 21
7705.184450786797
 31
0.0
  0
LINE
  5
269CF
330
747D
100
AcDbEntity
  8
細線
 48
50.0
100
AcDbLine
 10
11813.60000000001
 20
7552.306978549943
 30
0.0
 11
11966.47747223686
 21
7705.184450786797
 31
0.0
  0
LINE
  5
269D0
330
747D
100
AcDbEntity
  8
細線
 48
50.0
100
AcDbLine
 10
11813.60000000001
 20
7507.4056979446
 30
0.0
 11
12011.3787528422
 21
7705.184450786797
 31
0.0
  0
LINE
  5
269D1
330
747D
100
AcDbEntity
  8
細線
 48
50.0
100
AcDbLine
 10
11813.60000000001
 20
7642.109539760636
 30
0.0
 11
11876.67491102617
 21
7705.184450786797
 31
0.0
  0
LINE
  5
269D2
330
747D
100
AcDbEntity
  8
細線
 48
50.0
100
AcDbLine
 10
11901.18131405288
 20
7505.184450786797
 30
0.0
 11
12013.60000000001
 21
7617.603136733909
 31
0.0
  0
LINE
  5
269D3
330
747D
100
AcDbEntity
  8
細線
 48
50.0
100
AcDbLine
 10
11856.28003344755
 20
7505.184450786797
 30
0.0
 11
12013.60000000001
 21
7662.504417339253
 31
0.0
  0
LINE
  5
269D4
330
747D
100
AcDbEntity
  8
細線
 48
50.0
100
AcDbLine
 10
11946.08259465823
 20
7505.184450786797
 30
0.0
 11
12013.60000000001
 21
7572.70185612858
 31
0.0
  0
LINE
  5
269D5
330
747D
100
AcDbEntity
  8
細線
 48
50.0
100
AcDbLine
 10
11990.98387526356
 20
7505.184450786797
 30
0.0
 11
12013.60000000001
 21
7527.800575523241
 31
0.0
  0
LINE
  5
269D6
330
747D
100
AcDbEntity
  8
細線
 48
50.0
100
AcDbLine
 10
12208.6
 20
7097.109539760556
 30
0.0
 11
12251.67491102618
 21
7140.184450786738
 31
0.0
  0
LINE
  5
269D7
330
747D
100
AcDbEntity
  8
部品1
 48
50.0
100
AcDbLine
 10
12328.6
 20
7140.184450786738
 30
0.0
 11
12208.6
 21
7140.184450786738
 31
0.0
  0
LINE
  5
269D8
330
747D
100
AcDbEntity
  8
センター
 48
2.0
100
AcDbLine
 10
12155.6
 20
7582.184450786733
 30
0.0
 11
12255.6
 21
7582.184450786733
 31
0.0
  0
CIRCLE
  5
269D9
330
747D
100
AcDbEntity
  8
部品1
 48
50.0
100
AcDbCircle
 10
12205.6
 20
7582.184450786733
 30
0.0
 40
35.0
  0
LINE
  5
269DA
330
747D
100
AcDbEntity
  8
センター
 48
2.0
100
AcDbLine
 10
12205.6
 20
7632.184450786734
 30
0.0
 11
12205.6
 21
7532.184450786734
 31
0.0
  0
LINE
  5
269DB
330
747D
100
AcDbEntity
  8
細線
 48
50.0
100
AcDbLine
 10
11813.60000000001
 20
7687.010820365983
 30
0.0
 11
11831.77363042082
 21
7705.184450786797
 31
0.0
  0
TEXT
  5
27228
330
747D
100
AcDbEntity
  8
文字
 62
     7
 48
50.0
100
AcDbText
 10
7588.309445075222
 20
5013.404472809286
 30
0.0
 40
200.0
  1
〈参 考 図〉
  7
STYLE2
100
AcDbText
  0
TEXT
  5
27239
330
747D
100
AcDbEntity
  8
文字
 62
     7
 48
50.0
100
AcDbText
 10
14251.2
 20
838.2527270729188
 30
0.0
 40
100.0
  1
～一般型・多雪地型・豪雪地型～
  7
STYLE2
100
AcDbText
  0
LINE
  5
27259
330
747D
100
AcDbEntity
  8
部品1
 48
50.0
100
AcDbLine
 10
12208.6
 20
6605.184450786758
 30
0.0
 11
4238.6
 21
6605.184450786731
 31
0.0
  0
LINE
  5
2725A
330
747D
100
AcDbEntity
  8
細線
 48
50.0
100
AcDbLine
 10
5253.600000000004
 20
6548.590330680396
 30
0.0
 11
5310.194120106335
 21
6605.18445078673
 31
0.0
  0
LINE
  5
2725B
330
747D
100
AcDbEntity
  8
細線
 48
50.0
100
AcDbLine
 10
5389.404364949119
 20
6325.184450786741
 30
0.0
 11
5453.600000000009
 21
6389.380085837629
 31
0.0
  0
LINE
  5
2725C
330
747D
100
AcDbEntity
  8
細線
 48
50.0
100
AcDbLine
 10
5434.305645554466
 20
6325.184450786743
 30
0.0
 11
5453.600000000009
 21
6344.478805232284
 31
0.0
  0
LINE
  5
2725D
330
747D
100
AcDbEntity
  8
細線
 48
50.0
100
AcDbLine
 10
5344.503084343774
 20
6325.184450786739
 30
0.0
 11
5453.600000000005
 21
6434.281366442973
 31
0.0
  0
LINE
  5
2725E
330
747D
100
AcDbEntity
  8
細線
 48
50.0
100
AcDbLine
 10
5299.601803738426
 20
6325.184450786739
 30
0.0
 11
5453.600000000005
 21
6479.182647048316
 31
0.0
  0
LINE
  5
2725F
330
747D
100
AcDbEntity
  8
細線
 48
50.0
100
AcDbLine
 10
5253.600000000005
 20
6503.68905007505
 30
0.0
 11
5355.095400711693
 21
6605.184450786731
 31
0.0
  0
LINE
  5
27260
330
747D
100
AcDbEntity
  8
細線
 48
50.0
100
AcDbLine
 10
5253.600000000008
 20
6458.7877694697
 30
0.0
 11
5399.996681317023
 21
6605.184450786731
 31
0.0
  0
LINE
  5
27261
330
747D
100
AcDbEntity
  8
細線
 48
50.0
100
AcDbLine
 10
5253.600000000005
 20
6413.886488864356
 30
0.0
 11
5444.897961922389
 21
6605.184450786731
 31
0.0
  0
LINE
  5
27262
330
747D
100
AcDbEntity
  8
細線
 48
50.0
100
AcDbLine
 10
5253.600000000009
 20
6368.985208259013
 30
0.0
 11
5453.600000000005
 21
6568.985208259004
 31
0.0
  0
LINE
  5
27263
330
747D
100
AcDbEntity
  8
細線
 48
50.0
100
AcDbLine
 10
5254.700523133082
 20
6325.184450786737
 30
0.0
 11
5453.600000000005
 21
6524.083927653663
 31
0.0
  0
LINE
  5
27264
330
747D
100
AcDbEntity
  8
部品1
 48
50.0
100
AcDbLine
 10
5253.600000000003
 20
6605.184450786731
 30
0.0
 11
5253.600000000009
 21
6325.184450786737
 31
0.0
  0
LINE
  5
27265
330
747D
100
AcDbEntity
  8
部品1
 48
50.0
100
AcDbLine
 10
5453.600000000005
 20
6605.184450786731
 30
0.0
 11
5453.600000000009
 21
6325.184450786741
 31
0.0
  0
LINE
  5
27266
330
747D
100
AcDbEntity
  8
細線
 48
50.0
100
AcDbLine
 10
6073.600000000004
 20
6548.590330680396
 30
0.0
 11
6130.194120106335
 21
6605.18445078673
 31
0.0
  0
LINE
  5
27267
330
747D
100
AcDbEntity
  8
細線
 48
50.0
100
AcDbLine
 10
6209.404364949119
 20
6325.184450786741
 30
0.0
 11
6273.600000000009
 21
6389.380085837629
 31
0.0
  0
LINE
  5
27268
330
747D
100
AcDbEntity
  8
細線
 48
50.0
100
AcDbLine
 10
6254.305645554467
 20
6325.184450786743
 30
0.0
 11
6273.600000000009
 21
6344.478805232284
 31
0.0
  0
LINE
  5
27269
330
747D
100
AcDbEntity
  8
細線
 48
50.0
100
AcDbLine
 10
6164.503084343774
 20
6325.184450786739
 30
0.0
 11
6273.600000000006
 21
6434.281366442973
 31
0.0
  0
LINE
  5
2726A
330
747D
100
AcDbEntity
  8
細線
 48
50.0
100
AcDbLine
 10
6119.601803738426
 20
6325.184450786739
 30
0.0
 11
6273.600000000006
 21
6479.182647048316
 31
0.0
  0
LINE
  5
2726B
330
747D
100
AcDbEntity
  8
細線
 48
50.0
100
AcDbLine
 10
6073.600000000006
 20
6503.68905007505
 30
0.0
 11
6175.095400711692
 21
6605.184450786731
 31
0.0
  0
LINE
  5
2726C
330
747D
100
AcDbEntity
  8
細線
 48
50.0
100
AcDbLine
 10
6073.600000000007
 20
6458.7877694697
 30
0.0
 11
6219.996681317024
 21
6605.184450786731
 31
0.0
  0
LINE
  5
2726D
330
747D
100
AcDbEntity
  8
細線
 48
50.0
100
AcDbLine
 10
6073.600000000006
 20
6413.886488864356
 30
0.0
 11
6264.89796192239
 21
6605.184450786731
 31
0.0
  0
LINE
  5
2726E
330
747D
100
AcDbEntity
  8
細線
 48
50.0
100
AcDbLine
 10
6073.600000000009
 20
6368.985208259013
 30
0.0
 11
6273.600000000004
 21
6568.985208259004
 31
0.0
  0
LINE
  5
2726F
330
747D
100
AcDbEntity
  8
細線
 48
50.0
100
AcDbLine
 10
6074.700523133082
 20
6325.184450786737
 30
0.0
 11
6273.600000000004
 21
6524.083927653663
 31
0.0
  0
LINE
  5
27270
330
747D
100
AcDbEntity
  8
部品1
 48
50.0
100
AcDbLine
 10
6073.600000000003
 20
6605.184450786731
 30
0.0
 11
6073.600000000009
 21
6325.184450786737
 31
0.0
  0
LINE
  5
27271
330
747D
100
AcDbEntity
  8
部品1
 48
50.0
100
AcDbLine
 10
6273.600000000004
 20
6605.184450786731
 30
0.0
 11
6273.600000000009
 21
6325.184450786741
 31
0.0
  0
LINE
  5
27272
330
747D
100
AcDbEntity
  8
細線
 48
50.0
100
AcDbLine
 10
6893.600000000003
 20
6548.590330680396
 30
0.0
 11
6950.194120106336
 21
6605.18445078673
 31
0.0
  0
LINE
  5
27273
330
747D
100
AcDbEntity
  8
細線
 48
50.0
100
AcDbLine
 10
7029.40436494912
 20
6325.184450786741
 30
0.0
 11
7093.600000000009
 21
6389.380085837629
 31
0.0
  0
LINE
  5
27274
330
747D
100
AcDbEntity
  8
細線
 48
50.0
100
AcDbLine
 10
7074.305645554466
 20
6325.184450786743
 30
0.0
 11
7093.600000000009
 21
6344.478805232284
 31
0.0
  0
LINE
  5
27275
330
747D
100
AcDbEntity
  8
細線
 48
50.0
100
AcDbLine
 10
6984.503084343774
 20
6325.184450786739
 30
0.0
 11
7093.600000000006
 21
6434.281366442973
 31
0.0
  0
LINE
  5
27276
330
747D
100
AcDbEntity
  8
細線
 48
50.0
100
AcDbLine
 10
6939.601803738425
 20
6325.184450786739
 30
0.0
 11
7093.600000000006
 21
6479.182647048316
 31
0.0
  0
LINE
  5
27277
330
747D
100
AcDbEntity
  8
細線
 48
50.0
100
AcDbLine
 10
6893.600000000006
 20
6503.68905007505
 30
0.0
 11
6995.095400711692
 21
6605.184450786731
 31
0.0
  0
LINE
  5
27278
330
747D
100
AcDbEntity
  8
細線
 48
50.0
100
AcDbLine
 10
6893.600000000008
 20
6458.7877694697
 30
0.0
 11
7039.996681317024
 21
6605.184450786731
 31
0.0
  0
LINE
  5
27279
330
747D
100
AcDbEntity
  8
細線
 48
50.0
100
AcDbLine
 10
6893.600000000006
 20
6413.886488864356
 30
0.0
 11
7084.89796192239
 21
6605.184450786731
 31
0.0
  0
LINE
  5
2727A
330
747D
100
AcDbEntity
  8
細線
 48
50.0
100
AcDbLine
 10
6893.600000000009
 20
6368.985208259013
 30
0.0
 11
7093.600000000003
 21
6568.985208259004
 31
0.0
  0
LINE
  5
2727B
330
747D
100
AcDbEntity
  8
細線
 48
50.0
100
AcDbLine
 10
6894.700523133082
 20
6325.184450786737
 30
0.0
 11
7093.600000000003
 21
6524.083927653663
 31
0.0
  0
LINE
  5
2727C
330
747D
100
AcDbEntity
  8
部品1
 48
50.0
100
AcDbLine
 10
6893.600000000003
 20
6605.184450786731
 30
0.0
 11
6893.600000000009
 21
6325.184450786737
 31
0.0
  0
LINE
  5
2727D
330
747D
100
AcDbEntity
  8
部品1
 48
50.0
100
AcDbLine
 10
7093.600000000003
 20
6605.184450786731
 30
0.0
 11
7093.600000000009
 21
6325.184450786741
 31
0.0
  0
LINE
  5
2727E
330
747D
100
AcDbEntity
  8
細線
 48
50.0
100
AcDbLine
 10
7713.600000000004
 20
6548.590330680396
 30
0.0
 11
7770.194120106336
 21
6605.18445078673
 31
0.0
  0
LINE
  5
2727F
330
747D
100
AcDbEntity
  8
細線
 48
50.0
100
AcDbLine
 10
7849.40436494912
 20
6325.184450786741
 30
0.0
 11
7913.600000000009
 21
6389.380085837629
 31
0.0
  0
LINE
  5
27280
330
747D
100
AcDbEntity
  8
細線
 48
50.0
100
AcDbLine
 10
7894.305645554466
 20
6325.184450786743
 30
0.0
 11
7913.600000000009
 21
6344.478805232284
 31
0.0
  0
LINE
  5
27281
330
747D
100
AcDbEntity
  8
細線
 48
50.0
100
AcDbLine
 10
7804.503084343775
 20
6325.184450786739
 30
0.0
 11
7913.600000000006
 21
6434.281366442973
 31
0.0
  0
LINE
  5
27282
330
747D
100
AcDbEntity
  8
細線
 48
50.0
100
AcDbLine
 10
7759.601803738426
 20
6325.184450786739
 30
0.0
 11
7913.600000000006
 21
6479.182647048316
 31
0.0
  0
LINE
  5
27283
330
747D
100
AcDbEntity
  8
細線
 48
50.0
100
AcDbLine
 10
7713.600000000006
 20
6503.68905007505
 30
0.0
 11
7815.095400711692
 21
6605.184450786731
 31
0.0
  0
LINE
  5
27284
330
747D
100
AcDbEntity
  8
細線
 48
50.0
100
AcDbLine
 10
7713.600000000008
 20
6458.7877694697
 30
0.0
 11
7859.996681317024
 21
6605.184450786731
 31
0.0
  0
LINE
  5
27285
330
747D
100
AcDbEntity
  8
細線
 48
50.0
100
AcDbLine
 10
7713.600000000006
 20
6413.886488864356
 30
0.0
 11
7904.89796192239
 21
6605.184450786731
 31
0.0
  0
LINE
  5
27286
330
747D
100
AcDbEntity
  8
細線
 48
50.0
100
AcDbLine
 10
7713.60000000001
 20
6368.985208259013
 30
0.0
 11
7913.600000000004
 21
6568.985208259004
 31
0.0
  0
LINE
  5
27287
330
747D
100
AcDbEntity
  8
細線
 48
50.0
100
AcDbLine
 10
7714.700523133082
 20
6325.184450786737
 30
0.0
 11
7913.600000000004
 21
6524.083927653663
 31
0.0
  0
LINE
  5
27288
330
747D
100
AcDbEntity
  8
部品1
 48
50.0
100
AcDbLine
 10
7713.600000000004
 20
6605.184450786731
 30
0.0
 11
7713.60000000001
 21
6325.184450786737
 31
0.0
  0
LINE
  5
27289
330
747D
100
AcDbEntity
  8
部品1
 48
50.0
100
AcDbLine
 10
7913.600000000004
 20
6605.184450786731
 30
0.0
 11
7913.600000000009
 21
6325.184450786741
 31
0.0
  0
LINE
  5
2728A
330
747D
100
AcDbEntity
  8
細線
 48
50.0
100
AcDbLine
 10
8533.600000000005
 20
6548.590330680396
 30
0.0
 11
8590.194120106335
 21
6605.18445078673
 31
0.0
  0
LINE
  5
2728B
330
747D
100
AcDbEntity
  8
細線
 48
50.0
100
AcDbLine
 10
8669.404364949119
 20
6325.184450786741
 30
0.0
 11
8733.600000000009
 21
6389.380085837629
 31
0.0
  0
LINE
  5
2728C
330
747D
100
AcDbEntity
  8
細線
 48
50.0
100
AcDbLine
 10
8714.305645554466
 20
6325.184450786743
 30
0.0
 11
8733.600000000009
 21
6344.478805232284
 31
0.0
  0
LINE
  5
2728D
330
747D
100
AcDbEntity
  8
細線
 48
50.0
100
AcDbLine
 10
8624.503084343775
 20
6325.184450786739
 30
0.0
 11
8733.600000000006
 21
6434.281366442973
 31
0.0
  0
LINE
  5
2728E
330
747D
100
AcDbEntity
  8
細線
 48
50.0
100
AcDbLine
 10
8579.601803738425
 20
6325.184450786739
 30
0.0
 11
8733.600000000006
 21
6479.182647048316
 31
0.0
  0
LINE
  5
2728F
330
747D
100
AcDbEntity
  8
細線
 48
50.0
100
AcDbLine
 10
8533.600000000005
 20
6503.68905007505
 30
0.0
 11
8635.095400711692
 21
6605.184450786731
 31
0.0
  0
LINE
  5
27290
330
747D
100
AcDbEntity
  8
細線
 48
50.0
100
AcDbLine
 10
8533.600000000008
 20
6458.7877694697
 30
0.0
 11
8679.996681317026
 21
6605.184450786731
 31
0.0
  0
LINE
  5
27291
330
747D
100
AcDbEntity
  8
細線
 48
50.0
100
AcDbLine
 10
8533.600000000005
 20
6413.886488864356
 30
0.0
 11
8724.89796192239
 21
6605.184450786731
 31
0.0
  0
LINE
  5
27292
330
747D
100
AcDbEntity
  8
細線
 48
50.0
100
AcDbLine
 10
8533.60000000001
 20
6368.985208259013
 30
0.0
 11
8733.600000000004
 21
6568.985208259004
 31
0.0
  0
LINE
  5
27293
330
747D
100
AcDbEntity
  8
細線
 48
50.0
100
AcDbLine
 10
8534.700523133082
 20
6325.184450786737
 30
0.0
 11
8733.600000000004
 21
6524.083927653663
 31
0.0
  0
LINE
  5
27294
330
747D
100
AcDbEntity
  8
部品1
 48
50.0
100
AcDbLine
 10
8533.600000000003
 20
6605.184450786731
 30
0.0
 11
8533.60000000001
 21
6325.184450786737
 31
0.0
  0
LINE
  5
27295
330
747D
100
AcDbEntity
  8
部品1
 48
50.0
100
AcDbLine
 10
8733.600000000004
 20
6605.184450786731
 30
0.0
 11
8733.600000000009
 21
6325.184450786741
 31
0.0
  0
LINE
  5
27296
330
747D
100
AcDbEntity
  8
細線
 48
50.0
100
AcDbLine
 10
9353.600000000005
 20
6548.590330680396
 30
0.0
 11
9410.194120106336
 21
6605.18445078673
 31
0.0
  0
LINE
  5
27297
330
747D
100
AcDbEntity
  8
細線
 48
50.0
100
AcDbLine
 10
9489.40436494912
 20
6325.184450786741
 30
0.0
 11
9553.60000000001
 21
6389.380085837629
 31
0.0
  0
LINE
  5
27298
330
747D
100
AcDbEntity
  8
細線
 48
50.0
100
AcDbLine
 10
9534.305645554466
 20
6325.184450786743
 30
0.0
 11
9553.60000000001
 21
6344.478805232284
 31
0.0
  0
LINE
  5
27299
330
747D
100
AcDbEntity
  8
細線
 48
50.0
100
AcDbLine
 10
9444.503084343775
 20
6325.184450786739
 30
0.0
 11
9553.600000000006
 21
6434.281366442973
 31
0.0
  0
LINE
  5
2729A
330
747D
100
AcDbEntity
  8
細線
 48
50.0
100
AcDbLine
 10
9399.601803738425
 20
6325.184450786739
 30
0.0
 11
9553.600000000006
 21
6479.182647048316
 31
0.0
  0
LINE
  5
2729B
330
747D
100
AcDbEntity
  8
細線
 48
50.0
100
AcDbLine
 10
9353.600000000005
 20
6503.68905007505
 30
0.0
 11
9455.095400711693
 21
6605.184450786731
 31
0.0
  0
LINE
  5
2729C
330
747D
100
AcDbEntity
  8
細線
 48
50.0
100
AcDbLine
 10
9353.600000000007
 20
6458.7877694697
 30
0.0
 11
9499.996681317025
 21
6605.184450786731
 31
0.0
  0
LINE
  5
2729D
330
747D
100
AcDbEntity
  8
細線
 48
50.0
100
AcDbLine
 10
9353.600000000005
 20
6413.886488864356
 30
0.0
 11
9544.897961922391
 21
6605.184450786731
 31
0.0
  0
LINE
  5
2729E
330
747D
100
AcDbEntity
  8
細線
 48
50.0
100
AcDbLine
 10
9353.60000000001
 20
6368.985208259013
 30
0.0
 11
9553.600000000004
 21
6568.985208259004
 31
0.0
  0
LINE
  5
2729F
330
747D
100
AcDbEntity
  8
細線
 48
50.0
100
AcDbLine
 10
9354.700523133082
 20
6325.184450786737
 30
0.0
 11
9553.600000000004
 21
6524.083927653663
 31
0.0
  0
LINE
  5
272A0
330
747D
100
AcDbEntity
  8
部品1
 48
50.0
100
AcDbLine
 10
9353.600000000003
 20
6605.184450786731
 30
0.0
 11
9353.60000000001
 21
6325.184450786737
 31
0.0
  0
LINE
  5
272A1
330
747D
100
AcDbEntity
  8
部品1
 48
50.0
100
AcDbLine
 10
9553.600000000004
 20
6605.184450786731
 30
0.0
 11
9553.60000000001
 21
6325.184450786741
 31
0.0
  0
LINE
  5
272A2
330
747D
100
AcDbEntity
  8
細線
 48
50.0
100
AcDbLine
 10
10173.6
 20
6548.590330680396
 30
0.0
 11
10230.19412010633
 21
6605.18445078673
 31
0.0
  0
LINE
  5
272A3
330
747D
100
AcDbEntity
  8
細線
 48
50.0
100
AcDbLine
 10
10309.40436494912
 20
6325.184450786741
 30
0.0
 11
10373.60000000001
 21
6389.380085837629
 31
0.0
  0
LINE
  5
272A4
330
747D
100
AcDbEntity
  8
細線
 48
50.0
100
AcDbLine
 10
10354.30564555446
 20
6325.184450786743
 30
0.0
 11
10373.60000000001
 21
6344.478805232284
 31
0.0
  0
LINE
  5
272A5
330
747D
100
AcDbEntity
  8
細線
 48
50.0
100
AcDbLine
 10
10264.50308434377
 20
6325.184450786739
 30
0.0
 11
10373.6
 21
6434.281366442973
 31
0.0
  0
LINE
  5
272A6
330
747D
100
AcDbEntity
  8
細線
 48
50.0
100
AcDbLine
 10
10219.60180373842
 20
6325.184450786739
 30
0.0
 11
10373.6
 21
6479.182647048316
 31
0.0
  0
LINE
  5
272A7
330
747D
100
AcDbEntity
  8
細線
 48
50.0
100
AcDbLine
 10
10173.6
 20
6503.68905007505
 30
0.0
 11
10275.09540071169
 21
6605.184450786731
 31
0.0
  0
LINE
  5
272A8
330
747D
100
AcDbEntity
  8
細線
 48
50.0
100
AcDbLine
 10
10173.6
 20
6458.7877694697
 30
0.0
 11
10319.99668131702
 21
6605.184450786731
 31
0.0
  0
LINE
  5
272A9
330
747D
100
AcDbEntity
  8
細線
 48
50.0
100
AcDbLine
 10
10173.6
 20
6413.886488864356
 30
0.0
 11
10364.89796192239
 21
6605.184450786731
 31
0.0
  0
LINE
  5
272AA
330
747D
100
AcDbEntity
  8
細線
 48
50.0
100
AcDbLine
 10
10173.60000000001
 20
6368.985208259013
 30
0.0
 11
10373.6
 21
6568.985208259004
 31
0.0
  0
LINE
  5
272AB
330
747D
100
AcDbEntity
  8
細線
 48
50.0
100
AcDbLine
 10
10174.70052313308
 20
6325.184450786737
 30
0.0
 11
10373.6
 21
6524.083927653663
 31
0.0
  0
LINE
  5
272AC
330
747D
100
AcDbEntity
  8
部品1
 48
50.0
100
AcDbLine
 10
10173.6
 20
6605.184450786731
 30
0.0
 11
10173.60000000001
 21
6325.184450786737
 31
0.0
  0
LINE
  5
272AD
330
747D
100
AcDbEntity
  8
部品1
 48
50.0
100
AcDbLine
 10
10373.6
 20
6605.184450786731
 30
0.0
 11
10373.60000000001
 21
6325.184450786741
 31
0.0
  0
LINE
  5
272AE
330
747D
100
AcDbEntity
  8
細線
 48
50.0
100
AcDbLine
 10
10993.6
 20
6548.590330680396
 30
0.0
 11
11050.19412010633
 21
6605.18445078673
 31
0.0
  0
LINE
  5
272AF
330
747D
100
AcDbEntity
  8
細線
 48
50.0
100
AcDbLine
 10
11129.40436494912
 20
6325.184450786741
 30
0.0
 11
11193.60000000001
 21
6389.380085837629
 31
0.0
  0
LINE
  5
272B0
330
747D
100
AcDbEntity
  8
細線
 48
50.0
100
AcDbLine
 10
11174.30564555446
 20
6325.184450786743
 30
0.0
 11
11193.60000000001
 21
6344.478805232284
 31
0.0
  0
LINE
  5
272B1
330
747D
100
AcDbEntity
  8
細線
 48
50.0
100
AcDbLine
 10
11084.50308434377
 20
6325.184450786739
 30
0.0
 11
11193.6
 21
6434.281366442973
 31
0.0
  0
LINE
  5
272B2
330
747D
100
AcDbEntity
  8
細線
 48
50.0
100
AcDbLine
 10
11039.60180373842
 20
6325.184450786739
 30
0.0
 11
11193.6
 21
6479.182647048316
 31
0.0
  0
LINE
  5
272B3
330
747D
100
AcDbEntity
  8
細線
 48
50.0
100
AcDbLine
 10
10993.6
 20
6503.68905007505
 30
0.0
 11
11095.09540071169
 21
6605.184450786731
 31
0.0
  0
LINE
  5
272B4
330
747D
100
AcDbEntity
  8
細線
 48
50.0
100
AcDbLine
 10
10993.6
 20
6458.7877694697
 30
0.0
 11
11139.99668131702
 21
6605.184450786731
 31
0.0
  0
LINE
  5
272B5
330
747D
100
AcDbEntity
  8
細線
 48
50.0
100
AcDbLine
 10
10993.6
 20
6413.886488864356
 30
0.0
 11
11184.89796192239
 21
6605.184450786731
 31
0.0
  0
LINE
  5
272B6
330
747D
100
AcDbEntity
  8
細線
 48
50.0
100
AcDbLine
 10
10993.60000000001
 20
6368.985208259013
 30
0.0
 11
11193.6
 21
6568.985208259004
 31
0.0
  0
LINE
  5
272B7
330
747D
100
AcDbEntity
  8
細線
 48
50.0
100
AcDbLine
 10
10994.70052313308
 20
6325.184450786737
 30
0.0
 11
11193.6
 21
6524.083927653663
 31
0.0
  0
LINE
  5
272B8
330
747D
100
AcDbEntity
  8
部品1
 48
50.0
100
AcDbLine
 10
10993.6
 20
6605.184450786731
 30
0.0
 11
10993.60000000001
 21
6325.184450786737
 31
0.0
  0
LINE
  5
272B9
330
747D
100
AcDbEntity
  8
部品1
 48
50.0
100
AcDbLine
 10
11193.6
 20
6605.184450786731
 30
0.0
 11
11193.60000000001
 21
6325.184450786741
 31
0.0
  0
LINE
  5
272BA
330
747D
100
AcDbEntity
  8
細線
 48
50.0
100
AcDbLine
 10
11813.6
 20
6548.590330680396
 30
0.0
 11
11870.19412010633
 21
6605.18445078673
 31
0.0
  0
LINE
  5
272BB
330
747D
100
AcDbEntity
  8
細線
 48
50.0
100
AcDbLine
 10
11949.40436494912
 20
6325.184450786741
 30
0.0
 11
12013.60000000001
 21
6389.380085837629
 31
0.0
  0
LINE
  5
272BC
330
747D
100
AcDbEntity
  8
細線
 48
50.0
100
AcDbLine
 10
11994.30564555446
 20
6325.184450786743
 30
0.0
 11
12013.60000000001
 21
6344.478805232284
 31
0.0
  0
LINE
  5
272BD
330
747D
100
AcDbEntity
  8
細線
 48
50.0
100
AcDbLine
 10
11904.50308434377
 20
6325.184450786739
 30
0.0
 11
12013.6
 21
6434.281366442973
 31
0.0
  0
LINE
  5
272BE
330
747D
100
AcDbEntity
  8
細線
 48
50.0
100
AcDbLine
 10
11859.60180373842
 20
6325.184450786739
 30
0.0
 11
12013.6
 21
6479.182647048316
 31
0.0
  0
LINE
  5
272BF
330
747D
100
AcDbEntity
  8
細線
 48
50.0
100
AcDbLine
 10
11813.6
 20
6503.68905007505
 30
0.0
 11
11915.09540071169
 21
6605.184450786731
 31
0.0
  0
LINE
  5
272C0
330
747D
100
AcDbEntity
  8
細線
 48
50.0
100
AcDbLine
 10
11813.60000000001
 20
6458.7877694697
 30
0.0
 11
11959.99668131702
 21
6605.184450786731
 31
0.0
  0
LINE
  5
272C1
330
747D
100
AcDbEntity
  8
細線
 48
50.0
100
AcDbLine
 10
11813.6
 20
6413.886488864356
 30
0.0
 11
12004.89796192239
 21
6605.184450786731
 31
0.0
  0
LINE
  5
272C2
330
747D
100
AcDbEntity
  8
細線
 48
50.0
100
AcDbLine
 10
11813.60000000001
 20
6368.985208259013
 30
0.0
 11
12013.6
 21
6568.985208259004
 31
0.0
  0
LINE
  5
272C3
330
747D
100
AcDbEntity
  8
細線
 48
50.0
100
AcDbLine
 10
11814.70052313308
 20
6325.184450786737
 30
0.0
 11
12013.6
 21
6524.083927653663
 31
0.0
  0
LINE
  5
272C4
330
747D
100
AcDbEntity
  8
部品1
 48
50.0
100
AcDbLine
 10
11813.6
 20
6605.184450786731
 30
0.0
 11
11813.60000000001
 21
6325.184450786737
 31
0.0
  0
LINE
  5
272C5
330
747D
100
AcDbEntity
  8
部品1
 48
50.0
100
AcDbLine
 10
12013.6
 20
6605.184450786731
 30
0.0
 11
12013.60000000001
 21
6325.184450786741
 31
0.0
  0
LINE
  5
27362
330
747D
100
AcDbEntity
  8
部品1
 48
50.0
100
AcDbLine
 10
12208.6
 20
6605.184450786758
 30
0.0
 11
12208.6
 21
7505.184450786734
 31
0.0
  0
LINE
  5
27363
330
747D
100
AcDbEntity
  8
部品1
 48
50.0
100
AcDbLine
 10
4238.6
 20
6605.18445078673
 30
0.0
 11
4238.599999999997
 21
7505.184450786734
 31
0.0
  0
LINE
  5
274F1
330
747D
100
AcDbEntity
  8
部品1
100
AcDbLine
 10
11228.28351057385
 20
3416.923146593199
 30
0.0
 11
5157.2983251876
 21
3416.923146593199
 31
0.0
  0
LINE
  5
274F2
330
747D
100
AcDbEntity
  8
部品1
100
AcDbLine
 10
11228.28351057385
 20
3176.923146593197
 30
0.0
 11
5157.298325187603
 21
3176.923146593197
 31
0.0
  0
LINE
  5
274F3
330
747D
100
AcDbEntity
  8
部品1
100
AcDbLine
 10
5157.298325187605
 20
452.6161770085519
 30
0.0
 11
11228.28351057385
 21
452.6161770085519
 31
0.0
  0
LEADER
  5
274F4
330
747D
100
AcDbEntity
  8
寸法
 48
50.0
100
AcDbLeader
  3
INABA_S50G
 73
     0
 74
     0
 75
     1
 40
102.2727272727273
 41
680.0000000000001
 76
     3
 10
8165.406077174059
 20
2416.459760501756
 30
0.0
 10
8199.760048287414
 20
2826.912571608297
 30
0.0
 10
8324.760048287414
 20
2826.912571608297
 30
0.0
340
274F5
1001
ACAD
1000
DSTYLE
1002
{
1070
   341
1005
0
1070
    40
1040
1.0
1070
   343
1005
0
1070
   344
1005
0
1002
}
  0
MTEXT
  5
274F5
102
{ACAD_REACTORS
330
274F4
102
}
330
747D
100
AcDbEntity
  8
部品1
 62
     7
 48
50.0
100
AcDbMText
 10
8349.760048287414
 20
2903.048935244661
 30
0.0
 40
80.0
 41
0.8
 71
     4
 72
     1
  1
\A1;ナット(市販品)
  7
STYLE2
 73
     1
 44
1.0
1001
ACAD
1000
MTEXTBEGIN
1070
    73
1070
     1
1070
    44
1040
1.0
1070
    74
1070
     0
1000
MTEXTEND
  0
LEADER
  5
274F6
330
747D
100
AcDbEntity
  8
寸法
 48
50.0
100
AcDbLeader
  3
INABA_S50G
 73
     0
 74
     0
 75
     1
 40
102.2727272727273
 41
906.8181818181818
 76
     3
 10
8189.406077174059
 20
2286.707767836893
 30
0.0
 10
8231.277667542897
 20
2641.94348884351
 30
0.0
 10
8356.277667542897
 20
2641.94348884351
 30
0.0
340
274F7
1001
ACAD
1000
DSTYLE
1002
{
1070
   341
1005
0
1070
    40
1040
1.0
1070
   343
1005
0
1070
   344
1005
0
1002
}
  0
MTEXT
  5
274F7
102
{ACAD_REACTORS
330
274F6
102
}
330
747D
100
AcDbEntity
  8
部品1
 62
     7
 48
50.0
100
AcDbMText
 10
8381.277667542898
 20
2718.079852479874
 30
0.0
 40
80.0
 41
0.8
 71
     4
 72
     1
  1
\A1;ワッシャー(市販品)
  7
STYLE2
 73
     1
 44
1.0
1001
ACAD
1000
MTEXTBEGIN
1070
    73
1070
     1
1070
    44
1040
1.0
1070
    74
1070
     0
1000
MTEXTEND
  0
LWPOLYLINE
  5
274F8
330
747D
100
AcDbEntity
  8
部品1
 48
50.0
100
AcDbPolyline
 90
        2
 70
     0
 43
8.0
 10
8342.006077174058
 20
1777.584479392614
 10
8635.708540573443
 20
1777.584479392614
  0
TEXT
  5
274F9
330
747D
100
AcDbEntity
  8
部品1
 48
50.0
100
AcDbText
 10
8346.359661458485
 20
2373.463160154813
 30
0.0
 40
80.0
  1
基礎ボルト(市販品)
  7
STYLE2
100
AcDbText
  0
DIMENSION
  5
274FA
330
747D
100
AcDbEntity
  8
寸法
 48
50.0
100
AcDbDimension
  2
*D49
 10
8843.874676942901
 20
1693.584479392612
 30
0.0
 11
8743.874676942901
 21
1855.584479392614
 31
0.0
 70
    32
  1
180
 71
     5
 42
324.0000000000009
  3
INABA_S40G
100
AcDbAlignedDimension
 13
8342.006077174058
 23
2017.584479392613
 33
0.0
 14
8342.006077174058
 24
1693.584479392612
 34
0.0
 50
90.0
100
AcDbRotatedDimension
1001
ACAD
1000
DSTYLE
1002
{
1070
   341
1005
0
1002
}
  0
DIMENSION
  5
274FB
330
747D
100
AcDbEntity
  8
寸法
 48
50.0
100
AcDbDimension
  2
*D50
 10
9119.929343061929
 20
2017.584479392613
 30
0.0
 11
9119.929343061929
 21
1551.575575971131
 31
0.0
 70
   160
  1
20～25
 71
     5
 42
52.76000000000113
  3
INABA_S40G
100
AcDbAlignedDimension
 13
8154.806077174058
 23
2070.344479392614
 33
0.0
 14
8342.006077174058
 24
2017.584479392613
 34
0.0
 50
90.0
100
AcDbRotatedDimension
1001
ACAD
1000
DSTYLE
1002
{
1070
   341
1005
0
1002
}
  0
MTEXT
  5
274FC
102
{ACAD_REACTORS
330
274FD
102
}
330
747D
100
AcDbEntity
  8
部品1
 62
     7
 48
50.0
100
AcDbMText
 10
8350.950539593377
 20
2281.967805545844
 30
0.0
 40
80.0
 41
0.8
 71
     4
 72
     1
  1
M10X160
  7
STYLE2
 73
     1
 44
1.0
1001
ACAD
1000
MTEXTBEGIN
1070
    73
1070
     1
1070
    44
1040
1.0
1070
    74
1070
     0
1000
MTEXTEND
  0
LEADER
  5
274FD
330
747D
100
AcDbEntity
  8
寸法
 48
50.0
100
AcDbLeader
  3
INABA_S50G
 73
     0
 74
     0
 75
     1
 40
80.0
 41
435.0
 76
     3
 10
8158.40607717406
 20
2066.744479392614
 30
0.0
 10
8200.950539593376
 20
2216.967805545843
 30
0.0
 10
8325.950539593376
 20
2216.967805545843
 30
0.0
340
274FC
1001
ACAD
1000
DSTYLE
1002
{
1070
   341
1005
0
1070
    40
1040
1.0
1070
   343
1005
0
1070
   344
1005
0
1002
}
  0
LINE
  5
274FE
330
747D
100
AcDbEntity
  8
部品1
100
AcDbLine
 10
5157.298325187601
 20
3416.923146593199
 30
0.0
 11
5157.298325187603
 21
452.6161770085519
 31
0.0
  0
LEADER
  5
274FF
330
747D
100
AcDbEntity
  8
寸法
 48
50.0
100
AcDbLeader
  3
INABA_S50G
 73
     0
 75
     1
 40
113.1818181818182
 41
608.6363636363635
 76
     3
 10
8118.142827312111
 20
1967.100152750892
 30
0.0
 10
7984.338998620761
 20
2818.47923510737
 30
0.0
 10
7859.338998620761
 20
2818.47923510737
 30
0.0
340
27500
1001
ACAD
1000
DSTYLE
1002
{
1070
   341
1005
0
1070
    40
1040
1.0
1070
   343
1005
0
1070
   344
1005
0
1002
}
  0
MTEXT
  5
27500
102
{ACAD_REACTORS
330
274FF
102
}
330
747D
100
AcDbEntity
  8
寸法
 62
     7
 48
50.0
100
AcDbMText
 10
7834.338998620761
 20
2900.070144198279
 30
0.0
 40
80.0
 41
0.8
 71
     6
 72
     1
  1
\A1;φ70スリーブ
  7
STYLE2
 73
     1
 44
1.0
1001
ACAD
1000
MTEXTBEGIN
1070
    73
1070
     1
1070
    44
1040
1.0
1070
    74
1070
     0
1000
MTEXTEND
  0
LWPOLYLINE
  5
27501
330
747D
100
AcDbEntity
  8
部品1
 48
50.0
100
AcDbPolyline
 90
        2
 70
     0
 43
8.0
 10
5813.826862163907
 20
1777.584479392614
 10
6227.966763996864
 20
1777.584479392614
  0
TEXT
  5
27502
330
747D
100
AcDbEntity
  8
部品1
 48
50.0
100
AcDbText
 10
5813.826862163907
 20
1788.823471675869
 30
0.0
 40
80.0
  1
▽G.L
  7
STYLE2
100
AcDbText
  0
DIMENSION
  5
27503
330
747D
100
AcDbEntity
  8
寸法
 48
50.0
100
AcDbDimension
  2
*D51
 10
5957.546450264405
 20
1233.584479392613
 30
0.0
 11
5957.546450264405
 21
1353.584479392614
 31
0.0
 70
   160
  1
150
 71
     5
 42
240.0
  3
INABA_S40G
100
AcDbAlignedDimension
 13
6099.966763996864
 23
1473.584479392613
 33
0.0
 14
6019.966763996867
 24
1233.584479392613
 34
0.0
 50
90.0
100
AcDbRotatedDimension
1001
ACAD
1000
DSTYLE
1002
{
1070
   341
1005
0
1002
}
  0
LEADER
  5
27504
330
747D
100
AcDbEntity
  8
寸法
 48
50.0
100
AcDbLeader
  3
INABA_S50G
 71
     0
 73
     0
 75
     1
 40
100.0
 41
225.0
 76
     3
 10
6195.869716349007
 20
1353.584479392613
 30
0.0
 10
6074.03173780167
 20
1090.061785774177
 30
0.0
 10
5949.03173780167
 20
1090.061785774177
 30
0.0
1001
ACAD
1000
DSTYLE
1002
{
1070
    40
1040
1.0
1070
   272
1070
     1
1070
   279
1070
     1
1070
   341
1005
0
1002
}
  0
LEADER
  5
27505
330
747D
100
AcDbEntity
  8
寸法
 48
50.0
100
AcDbLeader
  3
INABA_S50G
 71
     0
 73
     0
 75
     1
 40
100.0
 41
222.7272727272727
 76
     3
 10
6323.966763996864
 20
1353.584479392613
 30
0.0
 10
6102.154465359104
 20
909.7456332347338
 30
0.0
 10
5977.154465359104
 20
909.7456332347338
 30
0.0
1001
ACAD
1000
DSTYLE
1002
{
1070
    40
1040
1.0
1070
   272
1070
     1
1070
   279
1070
     1
1070
   341
1005
0
1002
}
  0
MTEXT
  5
27506
102
{ACAD_REACTORS
330
27507
102
}
330
747D
100
AcDbEntity
  8
寸法
 62
     7
 48
50.0
100
AcDbMText
 10
6138.716709774059
 20
1618.88508221007
 30
0.0
 40
80.0
 41
0.8
 71
     6
 72
     1
  1
\A1;D10@300
  7
STYLE2
 73
     1
 44
1.0
1001
ACAD
1000
MTEXTBEGIN
1070
    73
1070
     1
1070
    44
1040
1.0
1070
    74
1070
     0
1000
MTEXTEND
  0
LEADER
  5
27507
330
747D
100
AcDbEntity
  8
寸法
 48
50.0
100
AcDbLeader
  3
INABA_S50G
 71
     0
 73
     0
 75
     1
 40
100.0
 41
540.3409090909091
 76
     3
 10
6331.966763996864
 20
1775.711694089737
 30
0.0
 10
6273.984527468165
 20
1554.241365548931
 30
0.0
 10
6148.984527468165
 20
1554.241365548931
 30
0.0
213
-9.732182305893367
223
-4.643716661138569
233
0.0
1001
ACAD
1000
DSTYLE
1002
{
1070
    40
1040
1.0
1070
   272
1070
     1
1070
   279
1070
     1
1070
   341
1005
0
1002
}
  0
LEADER
  5
27508
330
747D
100
AcDbEntity
  8
寸法
 48
50.0
100
AcDbLeader
  3
INABA_S50G
 71
     0
 73
     0
 75
     1
 40
130.1136363636363
 41
651.1363636363636
 76
     3
 10
6307.966763996864
 20
2017.584479392613
 30
0.0
 10
6195.542183832848
 20
2158.055244849202
 30
0.0
 10
6070.542183832848
 20
2158.055244849202
 30
0.0
1001
ACAD
1000
DSTYLE
1002
{
1070
    40
1040
1.0
1070
   272
1070
     1
1070
   279
1070
     1
1070
   341
1005
0
1002
}
  0
MTEXT
  5
27509
102
{ACAD_REACTORS
330
27508
102
}
330
747D
100
AcDbEntity
  8
寸法
 62
     7
 48
50.0
100
AcDbMText
 10
6007.868284513591
 20
2230.100699394656
 30
0.0
 40
80.0
 41
0.8
 71
     6
 72
     1
  1
\A1;金コテ押エ
  7
STYLE2
 73
     1
 44
1.0
1001
ACAD
1000
MTEXTBEGIN
1070
    73
1070
     1
1070
    44
1040
1.0
1070
    74
1070
     0
1000
MTEXTEND
  0
DIMENSION
  5
2750A
330
747D
100
AcDbEntity
  8
寸法
 48
50.0
100
AcDbDimension
  2
*D52
 10
5492.929525435124
 20
1233.584479392614
 30
0.0
 11
5492.929525435124
 21
1605.124629048614
 31
0.0
 70
   160
  1
540
 71
     5
 42
784.0
  3
INABA_S40G
100
AcDbAlignedDimension
 13
6227.966763996864
 23
2017.584479392613
 33
0.0
 14
6019.966763996867
 24
1233.584479392613
 34
0.0
 50
90.0
100
AcDbRotatedDimension
1001
ACAD
1000
DSTYLE
1002
{
1070
   341
1005
0
1002
}
  0
MTEXT
  5
2750B
102
{ACAD_REACTORS
330
27505
102
}
330
747D
100
AcDbEntity
  8
寸法
 62
     7
 48
50.0
100
AcDbMText
 10
5957.154465359105
 20
969.7456332347337
 30
0.0
 40
80.0
 41
0.8
 71
     6
 72
     1
  1
D13
  7
STYLE2
 73
     1
 44
1.0
1001
ACAD
1000
MTEXTBEGIN
1070
    73
1070
     1
1070
    44
1040
1.0
1070
    74
1070
     0
1000
MTEXTEND
  0
MTEXT
  5
2750C
102
{ACAD_REACTORS
330
27504
102
}
330
747D
100
AcDbEntity
  8
寸法
 62
     7
 48
50.0
100
AcDbMText
 10
5929.03173780167
 20
1150.061785774177
 30
0.0
 40
80.0
 41
0.8
 71
     6
 72
     1
  1
D10
  7
STYLE2
 73
     1
 44
1.0
1001
ACAD
1000
MTEXTBEGIN
1070
    73
1070
     1
1070
    44
1040
1.0
1070
    74
1070
     0
1000
MTEXTEND
  0
DIMENSION
  5
2750D
330
747D
100
AcDbEntity
  8
寸法
 48
50.0
100
AcDbDimension
  2
*D53
 10
6547.966763996864
 20
695.1548413874534
 30
0.0
 11
6303.87000531864
 21
695.1548413874534
 31
0.0
 70
   160
  1
300
 71
     5
 42
448.0
  3
INABA_S40G
100
AcDbAlignedDimension
 13
6099.966763996864
 23
1105.584479392613
 33
0.0
 14
6547.966763996864
 24
1105.584479392613
 34
0.0
100
AcDbRotatedDimension
1001
ACAD
1000
DSTYLE
1002
{
1070
   341
1005
0
1002
}
  0
MTEXT
  5
2750E
102
{ACAD_REACTORS
330
2750F
102
}
330
747D
100
AcDbEntity
  8
寸法
 62
     7
 48
50.0
100
AcDbMText
 10
7860.982004829118
 20
2539.385872290765
 30
0.0
 40
80.0
 41
0.8
 71
     6
 72
     1
  1
\A1;アンカープレート L
  7
STYLE2
 73
     1
 44
1.0
1001
ACAD
1000
MTEXTBEGIN
1070
    73
1070
     1
1070
    44
1040
1.0
1070
    74
1070
     0
1000
MTEXTEND
  0
LEADER
  5
2750F
330
747D
100
AcDbEntity
  8
寸法
 48
50.0
100
AcDbLeader
  3
INABA_S50G
 73
     0
 75
     1
 40
106.3636363636363
 41
893.1818181818181
 76
     3
 10
8059.406077174058
 20
2087.144479392615
 30
0.0
 10
8010.982004829118
 20
2461.204054108947
 30
0.0
 10
7885.982004829118
 20
2461.204054108947
 30
0.0
340
2750E
1001
ACAD
1000
DSTYLE
1002
{
1070
   341
1005
0
1070
    40
1040
1.0
1070
   343
1005
0
1070
   344
1005
0
1002
}
  0
LINE
  5
27510
330
747D
100
AcDbEntity
  8
細線
 48
50.0
100
AcDbLine
 10
6347.966763996865
 20
1855.957372060444
 30
0.0
 11
6419.966763996865
 21
1927.957372060444
 31
0.0
  0
ARC
  5
27511
330
747D
100
AcDbEntity
  8
部品1
 48
50.0
100
AcDbCircle
 10
6323.966763996865
 20
1877.838908786859
 30
0.0
 40
24.0
100
AcDbArc
 50
0.0
 51
180.0
  0
CIRCLE
  5
27512
330
747D
100
AcDbEntity
  8
部品1
 48
50.0
100
AcDbCircle
 10
6323.966763996865
 20
1877.838908786859
 30
0.0
 40
8.0
  0
LINE
  5
27513
330
747D
100
AcDbEntity
  8
部品1
 48
50.0
100
AcDbLine
 10
6227.966763996865
 20
1473.584479392613
 30
0.0
 11
6227.966763996865
 21
2017.584479392613
 31
0.0
  0
LINE
  5
27514
330
747D
100
AcDbEntity
  8
部品1
 48
50.0
100
AcDbLine
 10
6419.966763996865
 20
2017.584479392613
 30
0.0
 11
6419.966763996865
 21
1473.584479392613
 31
0.0
  0
MTEXT
  5
27515
102
{ACAD_REACTORS
330
2751A
102
}
330
747D
100
AcDbEntity
  8
寸法
 62
     7
 48
50.0
100
AcDbMText
 10
6502.852701024258
 20
2040.140378685424
 30
0.0
 40
80.0
 41
0.8
 71
     4
 72
     1
  1
D13
  7
STYLE2
 73
     1
 44
1.0
1001
ACAD
1000
MTEXTBEGIN
1070
    73
1070
     1
1070
    44
1040
1.0
1070
    74
1070
     0
1000
MTEXTEND
  0
LEADER
  5
27516
330
747D
100
AcDbEntity
  8
寸法
 48
50.0
100
AcDbLeader
  3
INABA_S50G
 71
     0
 73
     0
 74
     0
 75
     1
 40
100.0
 41
225.0
 76
     3
 10
6451.869716349007
 20
1353.584479392613
 30
0.0
 10
6506.294423803549
 20
1258.187410449641
 30
0.0
 10
6631.294423803549
 20
1258.187410449641
 30
0.0
1001
ACAD
1000
DSTYLE
1002
{
1070
    40
1040
1.0
1070
   272
1070
     1
1070
   279
1070
     1
1070
   341
1005
0
1002
}
  0
LEADER
  5
27517
330
747D
100
AcDbEntity
  8
寸法
 48
50.0
100
AcDbLeader
  3
INABA_S50G
 71
     0
 73
     0
 74
     0
 75
     1
 40
100.0
 41
540.3409090909091
 76
     3
 10
6397.911933010039
 20
1336.843948979088
 30
0.0
 10
6516.705219858114
 20
995.2131309841906
 30
0.0
 10
6641.705219858114
 20
995.2131309841906
 30
0.0
213
0.0
223
-1.022262676269383
233
0.0
1001
ACAD
1000
DSTYLE
1002
{
1070
    40
1040
1.0
1070
   272
1070
     1
1070
   279
1070
     1
1070
   341
1005
0
1002
}
  0
MTEXT
  5
27518
102
{ACAD_REACTORS
330
27516
102
}
330
747D
100
AcDbEntity
  8
寸法
 62
     7
 48
50.0
100
AcDbMText
 10
6651.294423803548
 20
1318.187410449641
 30
0.0
 40
80.0
 41
0.8
 71
     4
 72
     1
  1
D10
  7
STYLE2
 73
     1
 44
1.0
1001
ACAD
1000
MTEXTBEGIN
1070
    73
1070
     1
1070
    44
1040
1.0
1070
    74
1070
     0
1000
MTEXTEND
  0
LWPOLYLINE
  5
27519
330
747D
100
AcDbEntity
  8
部品1
 48
50.0
100
AcDbPolyline
 90
        2
 70
     0
 43
8.0
 10
6419.966763996864
 20
1777.584479392614
 10
6834.106665829821
 20
1777.584479392614
  0
LEADER
  5
2751A
330
747D
100
AcDbEntity
  8
寸法
 48
50.0
100
AcDbLeader
  3
INABA_S50G
 71
     0
 73
     0
 74
     0
 75
     1
 40
100.0
 41
222.7272727272727
 76
     3
 10
6323.966763996864
 20
1877.838908786859
 30
0.0
 10
6377.852701024259
 20
1977.074481640033
 30
0.0
 10
6502.852701024258
 20
1977.074481640033
 30
0.0
1001
ACAD
1000
DSTYLE
1002
{
1070
    40
1040
1.0
1070
   272
1070
     1
1070
   279
1070
     1
1070
   341
1005
0
1002
}
  0
LINE
  5
2751B
330
747D
100
AcDbEntity
  8
細線
 48
50.0
100
AcDbLine
 10
6099.966763996857
 20
1392.431225154784
 30
0.0
 11
6181.120018234693
 21
1473.584479392613
 31
0.0
  0
LINE
  5
2751C
330
747D
100
AcDbEntity
  8
細線
 48
50.0
100
AcDbLine
 10
6307.832611474268
 20
1411.711694089736
 30
0.0
 11
6331.96676399687
 21
1435.845846612335
 31
0.0
  0
LINE
  5
2751D
330
747D
100
AcDbEntity
  8
細線
 48
50.0
100
AcDbLine
 10
6214.764628413938
 20
1345.584479392613
 30
0.0
 11
6331.966763996865
 21
1462.786614975539
 31
0.0
  0
LINE
  5
2751E
330
747D
100
AcDbEntity
  8
部品1
 48
50.0
100
AcDbLine
 10
6099.966763996865
 20
1233.584479392613
 30
0.0
 11
6099.966763996865
 21
1473.584479392613
 31
0.0
  0
LINE
  5
2751F
330
747D
100
AcDbEntity
  8
細線
 48
50.0
100
AcDbLine
 10
6457.231543682809
 20
1345.584479392613
 30
0.0
 11
6547.966763996865
 21
1436.319699706672
 31
0.0
  0
LINE
  5
27520
330
747D
100
AcDbEntity
  8
細線
 48
50.0
100
AcDbLine
 10
6430.290775319592
 20
1345.584479392613
 30
0.0
 11
6547.966763996865
 21
1463.260468069879
 31
0.0
  0
LINE
  5
27521
330
747D
100
AcDbEntity
  8
部品1
 48
50.0
100
AcDbLine
 10
6547.966763996865
 20
1473.584479392613
 30
0.0
 11
6547.966763996865
 21
1233.584479392613
 31
0.0
  0
LINE
  5
27522
330
747D
100
AcDbEntity
  8
部品1
 48
50.0
100
AcDbLine
 10
6347.96676399687
 20
1353.584479392613
 30
0.0
 11
6347.966763996865
 21
1877.838908786859
 31
0.0
  0
LINE
  5
27523
330
747D
100
AcDbEntity
  8
部品1
 48
50.0
100
AcDbLine
 10
6331.96676399687
 20
1353.584479392613
 30
0.0
 11
6331.966763996858
 21
1877.838908786859
 31
0.0
  0
LINE
  5
27524
330
747D
100
AcDbEntity
  8
細線
 48
50.0
100
AcDbLine
 10
6315.966763996865
 20
1392.905078249125
 30
0.0
 11
6331.96676399687
 21
1408.905078249125
 31
0.0
  0
LINE
  5
27525
330
747D
100
AcDbEntity
  8
細線
 48
50.0
100
AcDbLine
 10
6305.149603492878
 20
1105.584479392613
 30
0.0
 11
6339.447100124061
 21
1233.584479392613
 31
0.0
  0
LINE
  5
27526
330
747D
100
AcDbEntity
  8
部品1
 48
50.0
100
AcDbLine
 10
6627.966763996868
 20
1105.584479392613
 30
0.0
 11
6019.966763996866
 21
1105.584479392613
 31
0.0
  0
LINE
  5
27527
330
747D
100
AcDbEntity
  8
部品1
 48
50.0
100
AcDbLine
 10
6155.966763996865
 20
1329.584479392613
 30
0.0
 11
6491.966763996865
 21
1329.584479392613
 31
0.0
  0
LINE
  5
27528
330
747D
100
AcDbEntity
  8
部品1
 48
50.0
100
AcDbLine
 10
6155.966763996865
 20
1345.584479392613
 30
0.0
 11
6491.966763996865
 21
1345.584479392613
 31
0.0
  0
LINE
  5
27529
330
747D
100
AcDbEntity
  8
部品1
 48
50.0
100
AcDbLine
 10
6627.966763996868
 20
1233.584479392613
 30
0.0
 11
6019.966763996866
 21
1233.584479392613
 31
0.0
  0
CIRCLE
  5
2752A
330
747D
100
AcDbEntity
  8
部品1
 48
50.0
100
AcDbCircle
 10
6323.966763996865
 20
1353.584479392613
 30
0.0
 40
8.0
  0
LINE
  5
2752B
330
747D
100
AcDbEntity
  8
細線
 48
50.0
100
AcDbLine
 10
6318.290775319598
 20
1233.584479392613
 30
0.0
 11
6414.290775319599
 21
1329.584479392613
 31
0.0
  0
LINE
  5
2752C
330
747D
100
AcDbEntity
  8
細線
 48
50.0
100
AcDbLine
 10
6147.373513598381
 20
1105.584479392613
 30
0.0
 11
6181.671010229564
 21
1233.584479392613
 31
0.0
  0
LINE
  5
2752D
330
747D
100
AcDbEntity
  8
細線
 48
50.0
100
AcDbLine
 10
6226.261558545626
 20
1105.584479392611
 30
0.0
 11
6260.559055176809
 21
1233.584479392612
 31
0.0
  0
LINE
  5
2752E
330
747D
100
AcDbEntity
  8
細線
 48
50.0
100
AcDbLine
 10
6068.485468651123
 20
1105.584479392611
 30
0.0
 11
6102.782965282306
 21
1233.584479392612
 31
0.0
  0
LINE
  5
2752F
330
747D
100
AcDbEntity
  8
部品1
 48
50.0
100
AcDbLine
 10
6019.966763996866
 20
1105.584479392613
 30
0.0
 11
6019.966763996866
 21
1233.584479392613
 31
0.0
  0
LINE
  5
27530
330
747D
100
AcDbEntity
  8
細線
 48
50.0
100
AcDbLine
 10
6153.804294216726
 20
1129.584479392613
 30
0.0
 11
6160.235074835075
 21
1105.584479392613
 31
0.0
  0
LINE
  5
27531
330
747D
100
AcDbEntity
  8
細線
 48
50.0
100
AcDbLine
 10
6074.916249269476
 20
1129.584479392613
 30
0.0
 11
6081.347029887822
 21
1105.584479392613
 31
0.0
  0
LINE
  5
27532
330
747D
100
AcDbEntity
  8
細線
 48
50.0
100
AcDbLine
 10
6311.580384111232
 20
1129.584479392613
 30
0.0
 11
6318.011164729578
 21
1105.584479392613
 31
0.0
  0
LINE
  5
27533
330
747D
100
AcDbEntity
  8
細線
 48
50.0
100
AcDbLine
 10
6232.692339163979
 20
1129.584479392613
 30
0.0
 11
6239.123119782325
 21
1105.584479392613
 31
0.0
  0
LINE
  5
27534
330
747D
100
AcDbEntity
  8
細線
 48
50.0
100
AcDbLine
 10
6129.705396777148
 20
1233.584479392613
 30
0.0
 11
6225.705396777148
 21
1329.584479392613
 31
0.0
  0
LINE
  5
27535
330
747D
100
AcDbEntity
  8
細線
 48
50.0
100
AcDbLine
 10
6102.764628413937
 20
1233.584479392613
 30
0.0
 11
6198.764628413937
 21
1329.584479392613
 31
0.0
  0
LINE
  5
27536
330
747D
100
AcDbEntity
  8
部品1
 48
50.0
100
AcDbLine
 10
6155.966763996865
 20
1345.584479392613
 30
0.0
 11
6155.966763996865
 21
1329.584479392613
 31
0.0
  0
LINE
  5
27537
330
747D
100
AcDbEntity
  8
細線
 48
50.0
100
AcDbLine
 10
6096.352184663965
 20
1209.584479392613
 30
0.0
 11
6089.921404045617
 21
1233.584479392613
 31
0.0
  0
LINE
  5
27538
330
747D
100
AcDbEntity
  8
細線
 48
50.0
100
AcDbLine
 10
6019.966763996865
 20
1218.924400358393
 30
0.0
 11
6023.89492033506
 21
1233.584479392613
 31
0.0
  0
LINE
  5
27539
330
747D
100
AcDbEntity
  8
部品1
 48
50.0
100
AcDbLine
 10
6315.966763996865
 20
1411.711694089736
 30
0.0
 11
6299.966763996865
 21
1411.711694089736
 31
0.0
  0
CIRCLE
  5
2753A
330
747D
100
AcDbEntity
  8
部品1
 48
50.0
100
AcDbCircle
 10
6195.966763996865
 20
1353.584479392613
 30
0.0
 40
8.0
  0
LINE
  5
2753B
330
747D
100
AcDbEntity
  8
細線
 48
50.0
100
AcDbLine
 10
6268.646165140353
 20
1345.584479392613
 30
0.0
 11
6299.966763996865
 21
1376.905078249125
 31
0.0
  0
ARC
  5
2753C
330
747D
100
AcDbEntity
  8
部品1
 48
50.0
100
AcDbCircle
 10
6323.966763996865
 20
1353.584479392613
 30
0.0
 40
24.0
100
AcDbArc
 50
180.0
 51
199.4712206344774
  0
LINE
  5
2753D
330
747D
100
AcDbEntity
  8
細線
 48
50.0
100
AcDbLine
 10
6175.240229611215
 20
1209.584479392613
 30
0.0
 11
6168.80944899287
 21
1233.584479392613
 31
0.0
  0
LINE
  5
2753E
330
747D
100
AcDbEntity
  8
細線
 48
50.0
100
AcDbLine
 10
6254.128274558468
 20
1209.584479392613
 30
0.0
 11
6247.697493940123
 21
1233.584479392613
 31
0.0
  0
LINE
  5
2753F
330
747D
100
AcDbEntity
  8
細線
 48
50.0
100
AcDbLine
 10
6156.646165140354
 20
1233.584479392613
 30
0.0
 11
6252.646165140354
 21
1329.584479392613
 31
0.0
  0
LINE
  5
27540
330
747D
100
AcDbEntity
  8
部品1
 48
50.0
100
AcDbLine
 10
6299.966763996865
 20
1411.711694089736
 30
0.0
 11
6299.966763996865
 21
1353.584479392613
 31
0.0
  0
LINE
  5
27541
330
747D
100
AcDbEntity
  8
細線
 48
50.0
100
AcDbLine
 10
6241.705396777148
 20
1345.584479392613
 30
0.0
 11
6299.966763996865
 21
1403.845846612332
 31
0.0
  0
LINE
  5
27542
330
747D
100
AcDbEntity
  8
部品1
 48
50.0
100
AcDbLine
 10
6315.966763996865
 20
1411.711694089736
 30
0.0
 11
6315.966763996865
 21
1353.584479392613
 31
0.0
  0
LINE
  5
27543
330
747D
100
AcDbEntity
  8
部品1
 48
50.0
100
AcDbLine
 10
6627.966763996868
 20
1233.584479392613
 30
0.0
 11
6627.966763996868
 21
1105.584479392613
 31
0.0
  0
LINE
  5
27544
330
747D
100
AcDbEntity
  8
細線
 48
50.0
100
AcDbLine
 10
6541.813738334619
 20
1105.584479392613
 30
0.0
 11
6576.111234965804
 21
1233.584479392612
 31
0.0
  0
LINE
  5
27545
330
747D
100
AcDbEntity
  8
細線
 48
50.0
100
AcDbLine
 10
6384.037648440124
 20
1105.584479392613
 30
0.0
 11
6418.33514507131
 21
1233.584479392612
 31
0.0
  0
LINE
  5
27546
330
747D
100
AcDbEntity
  8
細線
 48
50.0
100
AcDbLine
 10
6462.925693387373
 20
1105.584479392611
 30
0.0
 11
6497.223190018558
 21
1233.584479392612
 31
0.0
  0
LINE
  5
27547
330
747D
100
AcDbEntity
  8
細線
 48
50.0
100
AcDbLine
 10
6469.356474005723
 20
1129.584479392613
 30
0.0
 11
6475.78725462407
 21
1105.584479392613
 31
0.0
  0
LINE
  5
27548
330
747D
100
AcDbEntity
  8
細線
 48
50.0
100
AcDbLine
 10
6390.468429058477
 20
1129.584479392613
 30
0.0
 11
6396.899209676823
 21
1105.584479392613
 31
0.0
  0
LINE
  5
27549
330
747D
100
AcDbEntity
  8
細線
 48
50.0
100
AcDbLine
 10
6548.244518952969
 20
1129.584479392613
 30
0.0
 11
6554.675299571318
 21
1105.584479392613
 31
0.0
  0
LINE
  5
2754A
330
747D
100
AcDbEntity
  8
細線
 48
50.0
100
AcDbLine
 10
6627.132563900217
 20
1129.584479392613
 30
0.0
 11
6627.966763996865
 21
1126.471202248249
 31
0.0
  0
LINE
  5
2754B
330
747D
100
AcDbEntity
  8
細線
 48
50.0
100
AcDbLine
 10
6620.701783281868
 20
1105.584479392611
 30
0.0
 11
6627.966763996865
 21
1132.697756537001
 31
0.0
  0
LINE
  5
2754C
330
747D
100
AcDbEntity
  8
細線
 48
50.0
100
AcDbLine
 10
6484.172312046012
 20
1345.584479392613
 30
0.0
 11
6547.966763996865
 21
1409.378931343464
 31
0.0
  0
CIRCLE
  5
2754D
330
747D
100
AcDbEntity
  8
部品1
 48
50.0
100
AcDbCircle
 10
6451.966763996864
 20
1353.584479392613
 30
0.0
 40
8.0
  0
ARC
  5
2754E
330
747D
100
AcDbEntity
  8
部品1
 48
50.0
100
AcDbCircle
 10
6323.966763996865
 20
1353.584479392613
 30
0.0
 40
24.0
100
AcDbArc
 50
340.5287793655226
 51
0.0
  0
LINE
  5
2754F
330
747D
100
AcDbEntity
  8
細線
 48
50.0
100
AcDbLine
 10
6333.016319505721
 20
1209.584479392613
 30
0.0
 11
6326.585538887373
 21
1233.584479392613
 31
0.0
  0
LINE
  5
27550
330
747D
100
AcDbEntity
  8
細線
 48
50.0
100
AcDbLine
 10
6411.904364452967
 20
1209.584479392613
 30
0.0
 11
6405.47358383462
 21
1233.584479392613
 31
0.0
  0
LINE
  5
27551
330
747D
100
AcDbEntity
  8
細線
 48
50.0
100
AcDbLine
 10
6345.231543682809
 20
1233.584479392613
 30
0.0
 11
6441.231543682808
 21
1329.584479392613
 31
0.0
  0
LINE
  5
27552
330
747D
100
AcDbEntity
  8
細線
 48
50.0
100
AcDbLine
 10
6372.172312046012
 20
1233.584479392613
 30
0.0
 11
6468.173199891149
 21
1329.585367237752
 31
0.0
  0
LINE
  5
27553
330
747D
100
AcDbEntity
  8
部品1
 48
50.0
100
AcDbLine
 10
6491.966763996865
 20
1345.584479392613
 30
0.0
 11
6491.966763996865
 21
1329.584479392613
 31
0.0
  0
LINE
  5
27554
330
747D
100
AcDbEntity
  8
細線
 48
50.0
100
AcDbLine
 10
6569.68045434746
 20
1209.584479392613
 30
0.0
 11
6563.249673729112
 21
1233.584479392613
 31
0.0
  0
LINE
  5
27555
330
747D
100
AcDbEntity
  8
細線
 48
50.0
100
AcDbLine
 10
6533.816922225259
 20
1233.584479392613
 30
0.0
 11
6547.966763996865
 21
1247.73432116422
 31
0.0
  0
LINE
  5
27556
330
747D
100
AcDbEntity
  8
細線
 48
50.0
100
AcDbLine
 10
6490.792409400213
 20
1209.584479392613
 30
0.0
 11
6484.361628781866
 21
1233.584479392613
 31
0.0
  0
LINE
  5
27557
330
747D
100
AcDbEntity
  8
細線
 48
50.0
100
AcDbLine
 10
6227.966763996865
 20
1547.371993517991
 30
0.0
 11
6331.96676399687
 21
1651.371993517994
 31
0.0
  0
LINE
  5
27558
330
747D
100
AcDbEntity
  8
細線
 48
50.0
100
AcDbLine
 10
6227.966763996865
 20
1574.3127618812
 30
0.0
 11
6331.966763996865
 21
1678.312761881199
 31
0.0
  0
LINE
  5
27559
330
747D
100
AcDbEntity
  8
細線
 48
50.0
100
AcDbLine
 10
6227.966763996865
 20
1520.431225154784
 30
0.0
 11
6331.96676399687
 21
1624.431225154784
 31
0.0
  0
LINE
  5
2755A
330
747D
100
AcDbEntity
  8
細線
 48
50.0
100
AcDbLine
 10
6315.966763996865
 20
1823.957372060444
 30
0.0
 11
6331.966763996865
 21
1839.957372060444
 31
0.0
  0
LINE
  5
2755B
330
747D
100
AcDbEntity
  8
細線
 48
50.0
100
AcDbLine
 10
6315.966763996865
 20
1850.898140423651
 30
0.0
 11
6331.966763996865
 21
1866.898140423651
 31
0.0
  0
LINE
  5
2755C
330
747D
100
AcDbEntity
  8
部品1
 48
50.0
100
AcDbLine
 10
6099.966763996865
 20
1473.584479392613
 30
0.0
 11
6227.966763996865
 21
1473.584479392613
 31
0.0
  0
LINE
  5
2755D
330
747D
100
AcDbEntity
  8
細線
 48
50.0
100
AcDbLine
 10
6099.966763996857
 20
1419.371993517989
 30
0.0
 11
6154.179249871489
 21
1473.584479392613
 31
0.0
  0
LINE
  5
2755E
330
747D
100
AcDbEntity
  8
細線
 48
50.0
100
AcDbLine
 10
6099.966763996857
 20
1446.312761881199
 30
0.0
 11
6127.238481508278
 21
1473.584479392613
 31
0.0
  0
LINE
  5
2755F
330
747D
100
AcDbEntity
  8
部品1
 48
50.0
100
AcDbLine
 10
6315.966763996865
 20
1819.711694089736
 30
0.0
 11
6299.966763996865
 21
1819.711694089739
 31
0.0
  0
LINE
  5
27560
330
747D
100
AcDbEntity
  8
細線
 48
50.0
100
AcDbLine
 10
6227.966763996865
 20
1735.957372060444
 30
0.0
 11
6311.721086026158
 21
1819.711694089736
 31
0.0
  0
LINE
  5
27561
330
747D
100
AcDbEntity
  8
細線
 48
50.0
100
AcDbLine
 10
6227.966763996865
 20
1762.898140423651
 30
0.0
 11
6299.966763996865
 21
1834.898140423651
 31
0.0
  0
LINE
  5
27562
330
747D
100
AcDbEntity
  8
部品1
 48
50.0
100
AcDbLine
 10
6299.966763996865
 20
1819.711694089739
 30
0.0
 11
6299.966763996865
 21
1877.838908786859
 31
0.0
  0
LINE
  5
27563
330
747D
100
AcDbEntity
  8
細線
 48
50.0
100
AcDbLine
 10
6227.966763996865
 20
1789.838908786859
 30
0.0
 11
6299.966763996865
 21
1861.838908786859
 31
0.0
  0
LINE
  5
27564
330
747D
100
AcDbEntity
  8
部品1
 48
50.0
100
AcDbLine
 10
6315.966763996865
 20
1819.711694089736
 30
0.0
 11
6315.966763996865
 21
1877.838908786859
 31
0.0
  0
LINE
  5
27565
330
747D
100
AcDbEntity
  8
細線
 48
50.0
100
AcDbLine
 10
6347.96676399687
 20
1640.431225154784
 30
0.0
 11
6419.966763996858
 21
1712.431225154784
 31
0.0
  0
LINE
  5
27566
330
747D
100
AcDbEntity
  8
部品1
 48
50.0
100
AcDbLine
 10
6419.966763996865
 20
1473.584479392613
 30
0.0
 11
6547.966763996865
 21
1473.584479392613
 31
0.0
  0
LINE
  5
27567
330
747D
100
AcDbEntity
  8
細線
 48
50.0
100
AcDbLine
 10
6347.96676399687
 20
1451.845846612335
 30
0.0
 11
6419.966763996858
 21
1523.845846612329
 31
0.0
  0
LINE
  5
27568
330
747D
100
AcDbEntity
  8
細線
 48
50.0
100
AcDbLine
 10
6347.96676399687
 20
1478.786614975543
 30
0.0
 11
6419.966763996858
 21
1550.786614975539
 31
0.0
  0
LINE
  5
27569
330
747D
100
AcDbEntity
  8
細線
 48
50.0
100
AcDbLine
 10
6347.96676399687
 20
1424.905078249125
 30
0.0
 11
6419.966763996858
 21
1496.905078249125
 31
0.0
  0
LINE
  5
2756A
330
747D
100
AcDbEntity
  8
細線
 48
50.0
100
AcDbLine
 10
6347.966763996865
 20
1694.312761881199
 30
0.0
 11
6419.966763996865
 21
1766.312761881199
 31
0.0
  0
LINE
  5
2756B
330
747D
100
AcDbEntity
  8
細線
 48
50.0
100
AcDbLine
 10
6347.96676399687
 20
1667.371993517994
 30
0.0
 11
6419.966763996858
 21
1739.371993517989
 31
0.0
  0
MTEXT
  5
2756C
102
{ACAD_REACTORS
330
27517
102
}
330
747D
100
AcDbEntity
  8
寸法
 62
     7
 48
50.0
100
AcDbMText
 10
6661.705219858115
 20
1056.23539366046
 30
0.0
 40
80.0
 41
0.8
 71
     4
 72
     1
  1
\A1;D10@300
  7
STYLE2
 73
     1
 44
1.0
1001
ACAD
1000
MTEXTBEGIN
1070
    73
1070
     1
1070
    44
1040
1.0
1070
    74
1070
     0
1000
MTEXTEND
  0
DIMENSION
  5
2756D
330
747D
100
AcDbEntity
  8
寸法
 48
50.0
100
AcDbDimension
  2
*D54
 10
6227.966763996864
 20
2437.252287308994
 30
0.0
 11
6323.966763996864
 21
2437.252287308994
 31
0.0
 70
   160
  1
120\P200\P280
 71
     5
 42
192.0
  3
INABA_S40G
100
AcDbAlignedDimension
 13
6419.966763996864
 23
2017.584479392613
 33
0.0
 14
6227.966763996864
 24
2017.584479392613
 34
0.0
100
AcDbRotatedDimension
1001
ACAD
1000
DSTYLE
1002
{
1070
   341
1005
0
1002
}
  0
LINE
  5
2756E
330
747D
100
AcDbEntity
  8
部品1
 48
50.0
100
AcDbLine
 10
6227.966763996865
 20
2017.584479392613
 30
0.0
 11
6419.966763996865
 21
2017.584479392613
 31
0.0
  0
LINE
  5
2756F
330
747D
100
AcDbEntity
  8
細線
 48
50.0
100
AcDbLine
 10
6227.966763996865
 20
1978.424287329312
 30
0.0
 11
6267.126956060169
 21
2017.584479392613
 31
0.0
  0
LINE
  5
27570
330
747D
100
AcDbEntity
  8
細線
 48
50.0
100
AcDbLine
 10
6227.966763996865
 20
1951.483518966103
 30
0.0
 11
6294.067724423374
 21
2017.584479392613
 31
0.0
  0
LINE
  5
27571
330
747D
100
AcDbEntity
  8
細線
 48
50.0
100
AcDbLine
 10
6227.966763996865
 20
2005.365055692519
 30
0.0
 11
6240.186187696959
 21
2017.584479392613
 31
0.0
  0
LINE
  5
27572
330
747D
100
AcDbEntity
  8
細線
 48
50.0
100
AcDbLine
 10
6347.519471262851
 20
1882.450847689635
 30
0.0
 11
6419.966763996865
 21
1954.898140423651
 31
0.0
  0
LINE
  5
27573
330
747D
100
AcDbEntity
  8
細線
 48
50.0
100
AcDbLine
 10
6336.459186499334
 20
1898.33133128933
 30
0.0
 11
6419.966763996865
 21
1981.838908786859
 31
0.0
  0
LINE
  5
27574
330
747D
100
AcDbEntity
  8
細線
 48
50.0
100
AcDbLine
 10
8212.406077174058
 20
1858.712761881202
 30
0.0
 11
8342.006077174058
 21
1988.3127618812
 31
0.0
  0
LINE
  5
27575
330
747D
100
AcDbEntity
  8
部品1
100
AcDbLine
 10
8342.006077174058
 20
1473.584479392613
 30
0.0
 11
8342.006077174058
 21
2017.584479392613
 31
0.0
  0
LINE
  5
27576
330
747D
100
AcDbEntity
  8
部品1
 48
50.0
100
AcDbLine
 10
7928.006077174058
 20
1473.584479392613
 30
0.0
 11
7928.006077174058
 21
2017.584479392613
 31
0.0
  0
LINE
  5
27577
330
747D
100
AcDbEntity
  8
細線
 48
50.0
100
AcDbLine
 10
7928.006077174058
 20
1789.838908786859
 30
0.0
 11
8086.406077174057
 21
1948.238908786856
 31
0.0
  0
LINE
  5
27578
330
747D
100
AcDbEntity
  8
細線
 48
50.0
100
AcDbLine
 10
7928.006077174058
 20
1762.898140423651
 30
0.0
 11
8086.406077174057
 21
1921.298140423649
 31
0.0
  0
LINE
  5
27579
330
747D
100
AcDbEntity
  8
細線
 48
50.0
100
AcDbLine
 10
7928.006077174058
 20
1735.957372060444
 30
0.0
 11
8086.406077174055
 21
1894.357372060436
 31
0.0
  0
TEXT
  5
2757A
330
747D
100
AcDbEntity
  8
部品1
 48
50.0
100
AcDbText
 10
7513.866175341101
 20
1788.823471675869
 30
0.0
 40
80.0
  1
▽G.L
  7
STYLE2
100
AcDbText
  0
LINE
  5
2757B
330
747D
100
AcDbEntity
  8
部品1
100
AcDbLine
 10
8158.40607717406
 20
1792.584479392613
 30
0.0
 11
8158.406077174054
 21
2066.744479392614
 31
0.0
  0
LINE
  5
2757C
330
747D
100
AcDbEntity
  8
部品1
100
AcDbLine
 10
8140.406077174059
 20
1792.584479392613
 30
0.0
 11
8140.406077174054
 21
2066.744479392614
 31
0.0
  0
LINE
  5
2757D
330
747D
100
AcDbEntity
  8
細線
 48
50.0
100
AcDbLine
 10
8212.406077174058
 20
1804.831225154772
 30
0.0
 11
8342.006077174058
 21
1934.431225154763
 31
0.0
  0
LINE
  5
2757E
330
747D
100
AcDbEntity
  8
細線
 48
50.0
100
AcDbLine
 10
8212.406077174058
 20
1831.771993517985
 30
0.0
 11
8342.006077174058
 21
1961.371993517981
 31
0.0
  0
LINE
  5
2757F
330
747D
100
AcDbEntity
  8
部品1
100
AcDbLine
 10
8212.406077174058
 20
1693.584479392614
 30
0.0
 11
8212.406077174058
 21
2017.584479392613
 31
0.0
  0
LINE
  5
27580
330
747D
100
AcDbEntity
  8
部品1
100
AcDbLine
 10
8086.406077174052
 20
1693.584479392614
 30
0.0
 11
8086.406077174059
 21
2017.584479392613
 31
0.0
  0
LINE
  5
27581
330
747D
100
AcDbEntity
  8
細線
 48
50.0
100
AcDbLine
 10
7928.006077174058
 20
1547.371993517991
 30
0.0
 11
8086.406077174052
 21
1705.77199351798
 31
0.0
  0
LINE
  5
27582
330
747D
100
AcDbEntity
  8
細線
 48
50.0
100
AcDbLine
 10
7928.006077174058
 20
1520.431225154784
 30
0.0
 11
8101.159331411894
 21
1693.584479392611
 31
0.0
  0
LINE
  5
27583
330
747D
100
AcDbEntity
  8
細線
 48
50.0
100
AcDbLine
 10
7928.006077174058
 20
1574.3127618812
 30
0.0
 11
8086.406077174052
 21
1732.712761881195
 31
0.0
  0
LINE
  5
27584
330
747D
100
AcDbEntity
  8
細線
 48
50.0
100
AcDbLine
 10
7856.685478317547
 20
1233.584479392613
 30
0.0
 11
8342.006077174058
 21
1718.905078249121
 31
0.0
  0
LINE
  5
27585
330
747D
100
AcDbEntity
  8
細線
 48
50.0
100
AcDbLine
 10
7829.744709954342
 20
1233.584479392613
 30
0.0
 11
8342.00607717406
 21
1745.845846612327
 31
0.0
  0
LINE
  5
27586
330
747D
100
AcDbEntity
  8
細線
 48
50.0
100
AcDbLine
 10
7802.803941591133
 20
1233.584479392613
 30
0.0
 11
8342.006077174058
 21
1772.786614975539
 31
0.0
  0
LINE
  5
27587
330
747D
100
AcDbEntity
  8
部品1
 48
50.0
100
AcDbLine
 10
8550.00607717406
 20
1233.584479392613
 30
0.0
 11
7720.006077174061
 21
1233.584479392613
 31
0.0
  0
LINE
  5
27588
330
747D
100
AcDbEntity
  8
部品1
 48
50.0
100
AcDbLine
 10
8550.00607717406
 20
1105.584479392613
 30
0.0
 11
7720.006077174061
 21
1105.584479392613
 31
0.0
  0
LINE
  5
27589
330
747D
100
AcDbEntity
  8
細線
 48
50.0
100
AcDbLine
 10
7800.006077174053
 20
1392.431225154784
 30
0.0
 11
7881.159331411888
 21
1473.584479392613
 31
0.0
  0
LINE
  5
2758A
330
747D
100
AcDbEntity
  8
部品1
 48
50.0
100
AcDbLine
 10
7800.006077174058
 20
1233.584479392613
 30
0.0
 11
7800.006077174058
 21
1473.584479392613
 31
0.0
  0
LINE
  5
2758B
330
747D
100
AcDbEntity
  8
細線
 48
50.0
100
AcDbLine
 10
7847.412826775574
 20
1105.584479392613
 30
0.0
 11
7881.710323406759
 21
1233.584479392613
 31
0.0
  0
LINE
  5
2758C
330
747D
100
AcDbEntity
  8
部品1
 48
50.0
100
AcDbLine
 10
7720.006077174061
 20
1105.584479392613
 30
0.0
 11
7720.006077174061
 21
1233.584479392613
 31
0.0
  0
LINE
  5
2758D
330
747D
100
AcDbEntity
  8
細線
 48
50.0
100
AcDbLine
 10
7768.524781828317
 20
1105.584479392611
 30
0.0
 11
7802.8222784595
 21
1233.584479392612
 31
0.0
  0
LINE
  5
2758E
330
747D
100
AcDbEntity
  8
細線
 48
50.0
100
AcDbLine
 10
7926.300871722822
 20
1105.584479392611
 30
0.0
 11
7960.598368354003
 21
1233.584479392612
 31
0.0
  0
LINE
  5
2758F
330
747D
100
AcDbEntity
  8
細線
 48
50.0
100
AcDbLine
 10
7774.95556244667
 20
1129.584479392613
 30
0.0
 11
7781.386343065015
 21
1105.584479392613
 31
0.0
  0
LINE
  5
27590
330
747D
100
AcDbEntity
  8
細線
 48
50.0
100
AcDbLine
 10
7932.731652341174
 20
1129.584479392613
 30
0.0
 11
7939.162432959522
 21
1105.584479392613
 31
0.0
  0
LINE
  5
27591
330
747D
100
AcDbEntity
  8
細線
 48
50.0
100
AcDbLine
 10
7853.843607393923
 20
1129.584479392613
 30
0.0
 11
7860.274388012268
 21
1105.584479392613
 31
0.0
  0
LINE
  5
27592
330
747D
100
AcDbEntity
  8
細線
 48
50.0
100
AcDbLine
 10
7720.006077174058
 20
1218.924400358393
 30
0.0
 11
7723.934233512252
 21
1233.584479392613
 31
0.0
  0
LINE
  5
27593
330
747D
100
AcDbEntity
  8
細線
 48
50.0
100
AcDbLine
 10
7796.39149784116
 20
1209.584479392613
 30
0.0
 11
7789.960717222813
 21
1233.584479392613
 31
0.0
  0
LINE
  5
27594
330
747D
100
AcDbEntity
  8
細線
 48
50.0
100
AcDbLine
 10
7954.167587735662
 20
1209.584479392613
 30
0.0
 11
7947.736807117315
 21
1233.584479392613
 31
0.0
  0
LINE
  5
27595
330
747D
100
AcDbEntity
  8
細線
 48
50.0
100
AcDbLine
 10
7875.279542788412
 20
1209.584479392613
 30
0.0
 11
7868.848762170064
 21
1233.584479392613
 31
0.0
  0
LWPOLYLINE
  5
27596
330
747D
100
AcDbEntity
  8
部品1
 48
50.0
100
AcDbPolyline
 90
        2
 70
     0
 43
8.0
 10
7513.866175341101
 20
1777.584479392614
 10
7928.006077174058
 20
1777.584479392614
  0
LINE
  5
27597
330
747D
100
AcDbEntity
  8
細線
 48
50.0
100
AcDbLine
 10
7800.006077174053
 20
1419.371993517989
 30
0.0
 11
7854.218563048682
 21
1473.584479392613
 31
0.0
  0
LINE
  5
27598
330
747D
100
AcDbEntity
  8
部品1
 48
50.0
100
AcDbLine
 10
7800.006077174058
 20
1473.584479392613
 30
0.0
 11
7928.006077174058
 21
1473.584479392613
 31
0.0
  0
LINE
  5
27599
330
747D
100
AcDbEntity
  8
細線
 48
50.0
100
AcDbLine
 10
7800.006077174053
 20
1446.312761881199
 30
0.0
 11
7827.277794685473
 21
1473.584479392613
 31
0.0
  0
LINE
  5
2759A
330
747D
100
AcDbEntity
  8
細線
 48
50.0
100
AcDbLine
 10
8045.270856860003
 20
1233.584479392613
 30
0.0
 11
8342.006077174058
 21
1530.319699706666
 31
0.0
  0
LINE
  5
2759B
330
747D
100
AcDbEntity
  8
細線
 48
50.0
100
AcDbLine
 10
8072.211625223209
 20
1233.584479392613
 30
0.0
 11
8342.006077174058
 21
1503.378931343471
 31
0.0
  0
LINE
  5
2759C
330
747D
100
AcDbEntity
  8
細線
 48
50.0
100
AcDbLine
 10
8018.330088496792
 20
1233.584479392613
 30
0.0
 11
8342.006077174058
 21
1557.26046806988
 31
0.0
  0
LINE
  5
2759D
330
747D
100
AcDbEntity
  8
細線
 48
50.0
100
AcDbLine
 10
8233.85623540245
 20
1233.584479392613
 30
0.0
 11
8470.006077174058
 21
1469.734321164222
 31
0.0
  0
LINE
  5
2759E
330
747D
100
AcDbEntity
  8
細線
 48
50.0
100
AcDbLine
 10
8260.797003765663
 20
1233.584479392613
 30
0.0
 11
8470.006077174058
 21
1442.793552801006
 31
0.0
  0
LINE
  5
2759F
330
747D
100
AcDbEntity
  8
部品1
 48
50.0
100
AcDbLine
 10
8470.006077174058
 20
1473.584479392613
 30
0.0
 11
8470.006077174058
 21
1233.584479392613
 31
0.0
  0
LINE
  5
275A0
330
747D
100
AcDbEntity
  8
細線
 48
50.0
100
AcDbLine
 10
8287.737772128867
 20
1233.584479392613
 30
0.0
 11
8470.006077174058
 21
1415.852784437809
 31
0.0
  0
LINE
  5
275A1
330
747D
100
AcDbEntity
  8
細線
 48
50.0
100
AcDbLine
 10
8162.965006564569
 20
1105.584479392611
 30
0.0
 11
8197.26250319575
 21
1233.584479392612
 31
0.0
  0
LINE
  5
275A2
330
747D
100
AcDbEntity
  8
細線
 48
50.0
100
AcDbLine
 10
8005.188916670073
 20
1105.584479392613
 30
0.0
 11
8039.486413301256
 21
1233.584479392613
 31
0.0
  0
LINE
  5
275A3
330
747D
100
AcDbEntity
  8
細線
 48
50.0
100
AcDbLine
 10
8084.07696161732
 20
1105.584479392613
 30
0.0
 11
8118.374458248505
 21
1233.584479392612
 31
0.0
  0
LINE
  5
275A4
330
747D
100
AcDbEntity
  8
細線
 48
50.0
100
AcDbLine
 10
8241.85305151181
 20
1105.584479392613
 30
0.0
 11
8276.150548142997
 21
1233.584479392612
 31
0.0
  0
LINE
  5
275A5
330
747D
100
AcDbEntity
  8
細線
 48
50.0
100
AcDbLine
 10
8090.50774223567
 20
1129.584479392613
 30
0.0
 11
8096.938522854019
 21
1105.584479392613
 31
0.0
  0
LINE
  5
275A6
330
747D
100
AcDbEntity
  8
細線
 48
50.0
100
AcDbLine
 10
8011.619697288425
 20
1129.584479392613
 30
0.0
 11
8018.050477906774
 21
1105.584479392613
 31
0.0
  0
LINE
  5
275A7
330
747D
100
AcDbEntity
  8
細線
 48
50.0
100
AcDbLine
 10
8248.283832130164
 20
1129.584479392613
 30
0.0
 11
8254.714612748511
 21
1105.584479392613
 31
0.0
  0
LINE
  5
275A8
330
747D
100
AcDbEntity
  8
細線
 48
50.0
100
AcDbLine
 10
8169.395787182919
 20
1129.584479392613
 30
0.0
 11
8175.826567801264
 21
1105.584479392613
 31
0.0
  0
LINE
  5
275A9
330
747D
100
AcDbEntity
  8
細線
 48
50.0
100
AcDbLine
 10
8111.943677630161
 20
1209.584479392613
 30
0.0
 11
8105.512897011813
 21
1233.584479392613
 31
0.0
  0
LINE
  5
275AA
330
747D
100
AcDbEntity
  8
細線
 48
50.0
100
AcDbLine
 10
8033.055632682915
 20
1209.584479392613
 30
0.0
 11
8026.624852064568
 21
1233.584479392613
 31
0.0
  0
LINE
  5
275AB
330
747D
100
AcDbEntity
  8
細線
 48
50.0
100
AcDbLine
 10
8190.831722577408
 20
1209.584479392613
 30
0.0
 11
8184.40094195906
 21
1233.584479392613
 31
0.0
  0
LINE
  5
275AC
330
747D
100
AcDbEntity
  8
細線
 48
50.0
100
AcDbLine
 10
8269.719767524653
 20
1209.584479392613
 30
0.0
 11
8263.288986906308
 21
1233.584479392613
 31
0.0
  0
LINE
  5
275AD
330
747D
100
AcDbEntity
  8
部品1
 48
50.0
100
AcDbLine
 10
8550.00607717406
 20
1233.584479392613
 30
0.0
 11
8550.00607717406
 21
1105.584479392613
 31
0.0
  0
LINE
  5
275AE
330
747D
100
AcDbEntity
  8
細線
 48
50.0
100
AcDbLine
 10
8478.517186353553
 20
1105.584479392611
 30
0.0
 11
8512.814682984739
 21
1233.584479392611
 31
0.0
  0
LINE
  5
275AF
330
747D
100
AcDbEntity
  8
細線
 48
50.0
100
AcDbLine
 10
8320.741096459061
 20
1105.584479392611
 30
0.0
 11
8355.038593090233
 21
1233.584479392613
 31
0.0
  0
LINE
  5
275B0
330
747D
100
AcDbEntity
  8
細線
 48
50.0
100
AcDbLine
 10
8399.629141406309
 20
1105.584479392611
 30
0.0
 11
8433.926638037492
 21
1233.584479392611
 31
0.0
  0
LINE
  5
275B1
330
747D
100
AcDbEntity
  8
細線
 48
50.0
100
AcDbLine
 10
8327.171877077409
 20
1129.584479392613
 30
0.0
 11
8333.602657695767
 21
1105.584479392613
 31
0.0
  0
LINE
  5
275B2
330
747D
100
AcDbEntity
  8
細線
 48
50.0
100
AcDbLine
 10
8406.059922024658
 20
1129.584479392611
 30
0.0
 11
8412.490702643005
 21
1105.584479392611
 31
0.0
  0
LINE
  5
275B3
330
747D
100
AcDbEntity
  8
細線
 48
50.0
100
AcDbLine
 10
8484.947966971905
 20
1129.584479392611
 30
0.0
 11
8491.378747590252
 21
1105.584479392611
 31
0.0
  0
LINE
  5
275B4
330
747D
100
AcDbEntity
  8
細線
 48
50.0
100
AcDbLine
 10
8348.607812471891
 20
1209.584479392613
 30
0.0
 11
8342.177031853543
 21
1233.584479392613
 31
0.0
  0
LINE
  5
275B5
330
747D
100
AcDbEntity
  8
細線
 48
50.0
100
AcDbLine
 10
8427.495857419147
 20
1209.584479392612
 30
0.0
 11
8421.065076800802
 21
1233.584479392612
 31
0.0
  0
LINE
  5
275B6
330
747D
100
AcDbEntity
  8
細線
 48
50.0
100
AcDbLine
 10
8506.383902366392
 20
1209.584479392612
 30
0.0
 11
8499.953121748047
 21
1233.584479392612
 31
0.0
  0
LINE
  5
275B7
330
747D
100
AcDbEntity
  8
部品1
100
AcDbLine
 10
8212.406077174058
 20
1693.584479392611
 30
0.0
 11
8086.406077174052
 21
1693.584479392611
 31
0.0
  0
LINE
  5
275B8
330
747D
100
AcDbEntity
  8
部品1
100
AcDbLine
 10
8194.406077174059
 20
1774.584479392613
 30
0.0
 11
8194.406077174059
 21
1792.584479392613
 31
0.0
  0
ARC
  5
275B9
330
747D
100
AcDbEntity
  8
部品1
100
AcDbCircle
 10
8158.40607717406
 20
1792.584479392613
 30
0.0
 40
18.0
100
AcDbArc
 50
180.0
 51
270.0
  0
LINE
  5
275BA
330
747D
100
AcDbEntity
  8
部品1
100
AcDbLine
 10
8158.40607717406
 20
1774.584479392613
 30
0.0
 11
8194.406077174059
 21
1774.584479392613
 31
0.0
  0
LINE
  5
275BB
330
747D
100
AcDbEntity
  8
部品1
100
AcDbLine
 10
8158.40607717406
 20
1792.584479392613
 30
0.0
 11
8194.406077174059
 21
1792.584479392613
 31
0.0
  0
LINE
  5
275BC
330
747D
100
AcDbEntity
  8
部品1
 48
50.0
100
AcDbLine
 10
8342.006077174058
 20
1473.584479392613
 30
0.0
 11
8470.006077174058
 21
1473.584479392613
 31
0.0
  0
LINE
  5
275BD
330
747D
100
AcDbEntity
  8
部品1
100
AcDbLine
 10
7947.806077174059
 20
2107.584479392613
 30
0.0
 11
7985.60607717406
 21
2107.584479392613
 31
0.0
  0
LINE
  5
275BE
330
747D
100
AcDbEntity
  8
細線
 48
50.0
100
AcDbLine
 10
7928.006077174058
 20
1978.424287329312
 30
0.0
 11
7967.166269237364
 21
2017.584479392613
 31
0.0
  0
LINE
  5
275BF
330
747D
100
AcDbEntity
  8
細線
 48
50.0
100
AcDbLine
 10
7928.006077174058
 20
1951.483518966103
 30
0.0
 11
7994.107037600568
 21
2017.584479392613
 31
0.0
  0
LINE
  5
275C0
330
747D
100
AcDbEntity
  8
部品1
 48
50.0
100
AcDbLine
 10
7928.006077174058
 20
2017.584479392613
 30
0.0
 11
8342.00607717406
 21
2017.584479392613
 31
0.0
  0
LINE
  5
275C1
330
747D
100
AcDbEntity
  8
部品1
100
AcDbLine
 10
7945.10607717406
 20
2096.784479392614
 30
0.0
 11
7945.10607717406
 21
2104.884479392614
 31
0.0
  0
ARC
  5
275C2
330
747D
100
AcDbEntity
  8
部品1
100
AcDbCircle
 10
7947.806077174059
 20
2104.884479392614
 30
0.0
 40
2.7
100
AcDbArc
 50
90.0
 51
180.0
  0
ARC
  5
275C3
330
747D
100
AcDbEntity
  8
部品1
100
AcDbCircle
 10
7937.006077174057
 20
2091.976383095321
 30
0.0
 40
2.7
100
AcDbArc
 50
104.0362434679067
 51
180.0
  0
LINE
  5
275C4
330
747D
100
AcDbEntity
  8
部品1
100
AcDbLine
 10
7936.35123098646
 20
2094.595767845714
 30
0.0
 11
7945.10607717406
 21
2096.784479392614
 31
0.0
  0
ARC
  5
275C5
330
747D
100
AcDbEntity
  8
部品1
100
AcDbCircle
 10
7937.006077174057
 20
2029.844479392614
 30
0.0
 40
2.7
100
AcDbArc
 50
180.0
 51
270.0
  0
LINE
  5
275C6
330
747D
100
AcDbEntity
  8
細線
 48
50.0
100
AcDbLine
 10
7928.006077174058
 20
2005.365055692519
 30
0.0
 11
7940.225500874152
 21
2017.584479392613
 31
0.0
  0
LINE
  5
275C7
330
747D
100
AcDbEntity
  8
部品1
100
AcDbLine
 10
7937.006077174057
 20
2027.144479392614
 30
0.0
 11
7948.706077174053
 21
2027.144479392614
 31
0.0
  0
LINE
  5
275C8
330
747D
100
AcDbEntity
  8
部品1
100
AcDbLine
 10
7934.306077174058
 20
2029.844479392614
 30
0.0
 11
7934.306077174058
 21
2091.976383095321
 31
0.0
  0
LINE
  5
275C9
330
747D
100
AcDbEntity
  8
部品1
100
AcDbLine
 10
8092.966077174052
 20
2027.144479392614
 30
0.0
 11
8294.306077174054
 21
2027.144479392614
 31
0.0
  0
LINE
  5
275CA
330
747D
100
AcDbEntity
  8
部品1
100
AcDbLine
 10
7985.60607717406
 20
2107.584479392613
 30
0.0
 11
7985.60607717406
 21
2115.684479392614
 31
0.0
  0
LINE
  5
275CB
330
747D
100
AcDbEntity
  8
部品1
100
AcDbLine
 10
8036.006077174057
 20
2126.48447939261
 30
0.0
 11
8036.006077174057
 21
2075.184479392614
 31
0.0
  0
LINE
  5
275CC
330
747D
100
AcDbEntity
  8
部品1
100
AcDbLine
 10
8059.406077174058
 20
2087.144479392614
 30
0.0
 11
8087.566077174058
 21
2087.144479392614
 31
0.0
  0
ARC
  5
275CD
330
747D
100
AcDbEntity
  8
部品1
100
AcDbCircle
 10
8059.406077174058
 20
2084.444479392614
 30
0.0
 40
2.7
100
AcDbArc
 50
90.0
 51
180.0
  0
ARC
  5
275CE
330
747D
100
AcDbEntity
  8
部品1
100
AcDbCircle
 10
8087.566077174058
 20
2084.444479392614
 30
0.0
 40
2.7
100
AcDbArc
 50
0.0
 51
90.0
  0
LINE
  5
275CF
330
747D
100
AcDbEntity
  8
部品1
100
AcDbLine
 10
8078.306077174058
 20
2072.484479392613
 30
0.0
 11
8078.306077174058
 21
2029.844479392614
 31
0.0
  0
LINE
  5
275D0
330
747D
100
AcDbEntity
  8
部品1
100
AcDbLine
 10
8063.906077174058
 20
2027.144479392614
 30
0.0
 11
8075.606077174059
 21
2027.144479392614
 31
0.0
  0
ARC
  5
275D1
330
747D
100
AcDbEntity
  8
部品1
100
AcDbCircle
 10
8092.966077174052
 20
2029.844479392614
 30
0.0
 40
2.7
100
AcDbArc
 50
180.0
 51
270.0
  0
ARC
  5
275D2
330
747D
100
AcDbEntity
  8
部品1
100
AcDbCircle
 10
8075.606077174059
 20
2029.844479392614
 30
0.0
 40
2.7
100
AcDbArc
 50
270.0
 51
0.0
  0
LINE
  5
275D3
330
747D
100
AcDbEntity
  8
部品1
100
AcDbLine
 10
8036.006077174057
 20
2075.184479392614
 30
0.0
 11
8075.606077174059
 21
2075.184479392614
 31
0.0
  0
ARC
  5
275D4
330
747D
100
AcDbEntity
  8
部品1
100
AcDbCircle
 10
8075.606077174059
 20
2072.484479392613
 30
0.0
 40
2.7
100
AcDbArc
 50
0.0
 51
90.0
  0
LINE
  5
275D5
330
747D
100
AcDbEntity
  8
部品1
100
AcDbLine
 10
8090.26607717406
 20
2084.444479392614
 30
0.0
 11
8090.266077174055
 21
2029.844479392614
 31
0.0
  0
LINE
  5
275D6
330
747D
100
AcDbEntity
  8
部品1
100
AcDbLine
 10
8056.706077174059
 20
2084.444479392614
 30
0.0
 11
8056.706077174059
 21
2067.344479392614
 31
0.0
  0
LINE
  5
275D7
330
747D
100
AcDbEntity
  8
細線
100
AcDbLine
 10
8154.806077174058
 20
2027.144479392614
 30
0.0
 11
8154.806077174058
 21
2070.344479392614
 31
0.0
  0
LINE
  5
275D8
330
747D
100
AcDbEntity
  8
細線
100
AcDbLine
 10
8144.00607717406
 20
2027.144479392614
 30
0.0
 11
8144.006077174058
 21
2070.344479392614
 31
0.0
  0
LINE
  5
275D9
330
747D
100
AcDbEntity
  8
部品1
100
AcDbLine
 10
8140.406077174059
 20
2066.744479392614
 30
0.0
 11
8158.40607717406
 21
2066.744479392614
 31
0.0
  0
LINE
  5
275DA
330
747D
100
AcDbEntity
  8
部品1
100
AcDbLine
 10
8144.006077174058
 20
2070.344479392614
 30
0.0
 11
8154.806077174058
 21
2070.344479392614
 31
0.0
  0
ELLIPSE
  5
275DB
330
747D
100
AcDbEntity
  8
部品1
 48
50.0
100
AcDbEllipse
 10
8149.406077174059
 20
2286.707767836886
 30
0.0
 11
40.0
 21
0.0
 31
0.0
210
0.0
220
0.0
230
1.0
 40
0.4
 41
0.0
 42
6.283185307179586
  0
ELLIPSE
  5
275DC
330
747D
100
AcDbEntity
  8
部品1
 48
50.0
100
AcDbEllipse
 10
8149.406077174059
 20
2277.107767836886
 30
0.0
 11
40.0
 21
0.0
 31
0.0
210
0.0
220
0.0
230
1.0
 40
0.4
 41
3.141592653589793
 42
6.283185307179586
  0
LINE
  5
275DD
330
747D
100
AcDbEntity
  8
部品1
 48
50.0
100
AcDbLine
 10
8109.406077174059
 20
2286.707767836886
 30
0.0
 11
8109.406077174059
 21
2277.107767836886
 31
0.0
  0
ARC
  5
275DE
330
747D
100
AcDbEntity
  8
部品1
100
AcDbCircle
 10
8033.306077174058
 20
2126.48447939261
 30
0.0
 40
2.7
100
AcDbArc
 50
0.0
 51
90.0
  0
ARC
  5
275DF
330
747D
100
AcDbEntity
  8
部品1
100
AcDbCircle
 10
7991.006077174057
 20
2126.484479392613
 30
0.0
 40
2.7
100
AcDbArc
 50
90.0
 51
180.0
  0
LINE
  5
275E0
330
747D
100
AcDbEntity
  8
部品1
100
AcDbLine
 10
7988.306077174058
 20
2118.384479392614
 30
0.0
 11
7988.306077174058
 21
2118.384479392614
 31
0.0
  0
LINE
  5
275E1
330
747D
100
AcDbEntity
  8
部品1
100
AcDbLine
 10
7988.306077174058
 20
2118.384479392614
 30
0.0
 11
7988.306077174058
 21
2126.484479392613
 31
0.0
  0
LINE
  5
275E2
330
747D
100
AcDbEntity
  8
部品1
100
AcDbLine
 10
7991.006077174057
 20
2129.184479392614
 30
0.0
 11
8033.306077174058
 21
2129.18447939261
 31
0.0
  0
ARC
  5
275E3
330
747D
100
AcDbEntity
  8
部品1
100
AcDbCircle
 10
7988.306077174058
 20
2115.684479392614
 30
0.0
 40
2.7
100
AcDbArc
 50
90.0
 51
180.0
  0
ELLIPSE
  5
275E4
330
747D
100
AcDbEntity
  8
部品1
 48
50.0
100
AcDbEllipse
 10
8149.406077174059
 20
2286.707767836886
 30
0.0
 11
18.4
 21
0.0
 31
0.0
210
0.0
220
0.0
230
1.0
 40
0.3478260869565217
 41
0.0
 42
6.283185307179586
  0
LINE
  5
275E5
330
747D
100
AcDbEntity
  8
部品1
 48
50.0
100
AcDbLine
 10
8189.406077174059
 20
2277.107767836886
 30
0.0
 11
8189.406077174059
 21
2286.707767836886
 31
0.0
  0
LINE
  5
275E6
330
747D
100
AcDbEntity
  8
部品1
 48
50.0
100
AcDbLine
 10
8117.406077174058
 20
2408.459760501756
 30
0.0
 11
8133.406077174059
 21
2400.459760501756
 31
0.0
  0
LINE
  5
275E7
330
747D
100
AcDbEntity
  8
部品1
 48
50.0
100
AcDbLine
 10
8117.406077174058
 20
2376.459760501756
 30
0.0
 11
8133.406077174059
 21
2368.459760501756
 31
0.0
  0
LINE
  5
275E8
330
747D
100
AcDbEntity
  8
部品1
 48
50.0
100
AcDbLine
 10
8117.406077174058
 20
2408.459760501756
 30
0.0
 11
8133.406077174059
 21
2416.459760501756
 31
0.0
  0
LINE
  5
275E9
330
747D
100
AcDbEntity
  8
部品1
 48
50.0
100
AcDbLine
 10
8117.406077174058
 20
2376.459760501756
 30
0.0
 11
8117.406077174058
 21
2408.459760501756
 31
0.0
  0
LINE
  5
275EA
330
747D
100
AcDbEntity
  8
部品1
 48
50.0
100
AcDbLine
 10
8133.406077174059
 20
2416.459760501756
 30
0.0
 11
8165.406077174059
 21
2416.459760501756
 31
0.0
  0
ELLIPSE
  5
275EB
330
747D
100
AcDbEntity
  8
細線
 48
50.0
100
AcDbEllipse
 10
8149.406077174059
 20
2408.459760501756
 30
0.0
 11
14.76670786606846
 21
0.0
 31
0.0
210
0.0
220
0.0
230
1.0
 40
0.2071254069489396
 41
0.0
 42
6.283185307179586
  0
LINE
  5
275EC
330
747D
100
AcDbEntity
  8
部品1
 48
50.0
100
AcDbLine
 10
8133.406077174059
 20
2368.459760501756
 30
0.0
 11
8165.406077174059
 21
2368.459760501756
 31
0.0
  0
LINE
  5
275ED
330
747D
100
AcDbEntity
  8
部品1
 48
50.0
100
AcDbLine
 10
8165.406077174059
 20
2368.459760501756
 30
0.0
 11
8181.406077174058
 21
2376.459760501756
 31
0.0
  0
LINE
  5
275EE
330
747D
100
AcDbEntity
  8
部品1
 48
50.0
100
AcDbLine
 10
8133.406077174059
 20
2400.459760501756
 30
0.0
 11
8165.406077174059
 21
2400.459760501756
 31
0.0
  0
LINE
  5
275EF
330
747D
100
AcDbEntity
  8
部品1
 48
50.0
100
AcDbLine
 10
8165.406077174059
 20
2400.459760501756
 30
0.0
 11
8181.406077174058
 21
2408.459760501756
 31
0.0
  0
LINE
  5
275F0
330
747D
100
AcDbEntity
  8
細線
 48
50.0
100
AcDbLine
 10
8165.406077174059
 20
2368.459760501756
 30
0.0
 11
8165.406077174059
 21
2400.459760501756
 31
0.0
  0
LINE
  5
275F1
330
747D
100
AcDbEntity
  8
部品1
 48
50.0
100
AcDbLine
 10
8181.406077174058
 20
2376.459760501756
 30
0.0
 11
8181.406077174058
 21
2408.459760501756
 31
0.0
  0
LINE
  5
275F2
330
747D
100
AcDbEntity
  8
細線
 48
50.0
100
AcDbLine
 10
8133.406077174059
 20
2368.459760501756
 30
0.0
 11
8133.406077174059
 21
2400.459760501756
 31
0.0
  0
LINE
  5
275F3
330
747D
100
AcDbEntity
  8
部品1
 48
50.0
100
AcDbLine
 10
8165.406077174059
 20
2416.459760501756
 30
0.0
 11
8181.406077174058
 21
2408.459760501756
 31
0.0
  0
TEXT
  5
275F4
330
747D
100
AcDbEntity
  8
部品1
100
AcDbText
 10
7850.178326365989
 20
3237.371214641771
 30
0.0
 40
120.0
  1
基礎詳細
  7
STYLE2
100
AcDbText
  0
LINE
  5
275F5
330
747D
100
AcDbEntity
  8
部品1
100
AcDbLine
 10
11228.28351057385
 20
452.6161770085519
 30
0.0
 11
11228.28351057385
 21
3416.923146593199
 31
0.0
  0
LINE
  5
275F6
330
747D
100
AcDbEntity
  8
細線
100
AcDbLine
 10
10236.1753431536
 20
1777.584479392613
 30
0.0
 11
10041.54200947681
 21
1972.217813069396
 31
0.0
  0
LINE
  5
275F7
330
747D
100
AcDbEntity
  8
部品1
100
AcDbLine
 10
10041.54200947681
 20
2017.584479392613
 30
0.0
 11
10521.54200947681
 21
2017.584479392613
 31
0.0
  0
LINE
  5
275F8
330
747D
100
AcDbEntity
  8
細線
 48
50.0
100
AcDbLine
 10
10175.61289392007
 20
1557.885563739263
 30
0.0
 11
10209.91039055126
 21
1685.885563739262
 31
0.0
  0
LINE
  5
275F9
330
747D
100
AcDbEntity
  8
部品1
100
AcDbLine
 10
9921.542009476816
 20
1557.88556373926
 30
0.0
 11
10641.54200947681
 21
1557.885563739263
 31
0.0
  0
LINE
  5
275FA
330
747D
100
AcDbEntity
  8
部品1
100
AcDbLine
 10
9921.542009476816
 20
1685.885563739264
 30
0.0
 11
10641.54200947681
 21
1685.885563739266
 31
0.0
  0
LINE
  5
275FB
330
747D
100
AcDbEntity
  8
細線
100
AcDbLine
 10
10102.46065497006
 20
1685.885563739264
 30
0.0
 11
10194.1595706234
 21
1777.584479392613
 31
0.0
  0
LWPOLYLINE
  5
275FC
330
747D
100
AcDbEntity
  8
部品1
 48
50.0
100
AcDbPolyline
 90
        2
 70
     0
 43
12.0
 10
9656.930747376428
 20
1777.584479392613
 10
10858.02305050805
 20
1777.584479392613
  0
LINE
  5
275FD
330
747D
100
AcDbEntity
  8
細線
100
AcDbLine
 10
10185.26365490817
 20
1777.584479392613
 30
0.0
 11
10041.54200947681
 21
1921.306124823966
 31
0.0
  0
TEXT
  5
275FE
330
747D
100
AcDbEntity
  8
部品1
 48
50.0
100
AcDbText
 10
9277.423922718313
 20
1510.784738755305
 30
0.0
 40
80.0
  1
ボルトの出
 50
90.0
  7
STYLE2
100
AcDbText
  0
LINE
  5
275FF
330
747D
100
AcDbEntity
  8
部品1
100
AcDbLine
 10
10041.54200947681
 20
1777.584479392613
 30
0.0
 11
10041.54200947681
 21
2017.584479392613
 31
0.0
  0
LINE
  5
27600
330
747D
100
AcDbEntity
  8
細線
 48
50.0
100
AcDbLine
 10
10017.83680402557
 20
1557.885563739263
 30
0.0
 11
10052.13430065676
 21
1685.885563739262
 31
0.0
  0
LINE
  5
27601
330
747D
100
AcDbEntity
  8
細線
 48
50.0
100
AcDbLine
 10
10096.72484897282
 20
1557.885563739263
 30
0.0
 11
10131.02234560401
 21
1685.885563739264
 31
0.0
  0
LINE
  5
27602
330
747D
100
AcDbEntity
  8
細線
 48
50.0
100
AcDbLine
 10
9938.948759078328
 20
1557.885563739263
 30
0.0
 11
9973.246255709513
 21
1685.885563739264
 31
0.0
  0
LINE
  5
27603
330
747D
100
AcDbEntity
  8
部品1
100
AcDbLine
 10
9921.542009476816
 20
1557.88556373926
 30
0.0
 11
9921.542009476816
 21
1777.584479392613
 31
0.0
  0
LINE
  5
27604
330
747D
100
AcDbEntity
  8
細線
 48
50.0
100
AcDbLine
 10
10024.26758464392
 20
1581.885563739263
 30
0.0
 11
10030.69836526227
 21
1557.885563739263
 31
0.0
  0
LINE
  5
27605
330
747D
100
AcDbEntity
  8
細線
 48
50.0
100
AcDbLine
 10
9945.379539696677
 20
1581.885563739263
 30
0.0
 11
9951.810320315026
 21
1557.885563739263
 31
0.0
  0
LINE
  5
27606
330
747D
100
AcDbEntity
  8
細線
 48
50.0
100
AcDbLine
 10
10103.15562959118
 20
1581.885563739263
 30
0.0
 11
10109.58641020952
 21
1557.885563739263
 31
0.0
  0
LINE
  5
27607
330
747D
100
AcDbEntity
  8
細線
 48
50.0
100
AcDbLine
 10
10182.04367453842
 20
1581.885563739263
 30
0.0
 11
10188.47445515677
 21
1557.885563739263
 31
0.0
  0
LINE
  5
27608
330
747D
100
AcDbEntity
  8
細線
 48
50.0
100
AcDbLine
 10
9966.815475091166
 20
1661.885563739263
 30
0.0
 11
9960.384694472818
 21
1685.885563739264
 31
0.0
  0
LINE
  5
27609
330
747D
100
AcDbEntity
  8
細線
 48
50.0
100
AcDbLine
 10
10124.59156498567
 20
1661.885563739263
 30
0.0
 11
10118.16078436732
 21
1685.885563739264
 31
0.0
  0
LINE
  5
2760A
330
747D
100
AcDbEntity
  8
細線
 48
50.0
100
AcDbLine
 10
10045.70352003841
 20
1661.885563739263
 30
0.0
 11
10039.27273942007
 21
1685.885563739264
 31
0.0
  0
LINE
  5
2760B
330
747D
100
AcDbEntity
  8
細線
100
AcDbLine
 10
10034.57840397614
 20
1685.885563739264
 30
0.0
 11
10126.27731962949
 21
1777.584479392613
 31
0.0
  0
LINE
  5
2760C
330
747D
100
AcDbEntity
  8
細線
100
AcDbLine
 10
10068.5195294731
 20
1685.885563739264
 30
0.0
 11
10160.21844512644
 21
1777.584479392613
 31
0.0
  0
LINE
  5
2760D
330
747D
100
AcDbEntity
  8
細線
100
AcDbLine
 10
10456.7926588838
 20
1777.584479392613
 30
0.0
 11
10216.7926588838
 21
2017.584479392613
 31
0.0
  0
LINE
  5
2760E
330
747D
100
AcDbEntity
  8
細線
100
AcDbLine
 10
10507.70434712923
 20
1777.584479392615
 30
0.0
 11
10267.70434712923
 21
2017.584479392613
 31
0.0
  0
LINE
  5
2760F
330
747D
100
AcDbEntity
  8
部品1
100
AcDbLine
 10
10521.54200947681
 20
2017.584479392613
 30
0.0
 11
10521.54200947681
 21
1777.584479392613
 31
0.0
  0
LINE
  5
27610
330
747D
100
AcDbEntity
  8
細線
 48
50.0
100
AcDbLine
 10
10491.16507370906
 20
1557.885563739261
 30
0.0
 11
10525.46257034024
 21
1685.885563739261
 31
0.0
  0
LINE
  5
27611
330
747D
100
AcDbEntity
  8
細線
100
AcDbLine
 10
10462.46065497005
 20
1685.885563739265
 30
0.0
 11
10554.1595706234
 21
1777.584479392613
 31
0.0
  0
LINE
  5
27612
330
747D
100
AcDbEntity
  8
細線
 48
50.0
100
AcDbLine
 10
10412.27702876181
 20
1557.885563739263
 30
0.0
 11
10446.57452539299
 21
1685.885563739264
 31
0.0
  0
LINE
  5
27613
330
747D
100
AcDbEntity
  8
細線
 48
50.0
100
AcDbLine
 10
10254.50093886732
 20
1557.885563739263
 30
0.0
 11
10288.7984354985
 21
1685.885563739262
 31
0.0
  0
LINE
  5
27614
330
747D
100
AcDbEntity
  8
細線
 48
50.0
100
AcDbLine
 10
10333.38898381456
 20
1557.885563739263
 30
0.0
 11
10367.68648044575
 21
1685.885563739262
 31
0.0
  0
LINE
  5
27615
330
747D
100
AcDbEntity
  8
細線
 48
50.0
100
AcDbLine
 10
10339.81976443292
 20
1581.885563739263
 30
0.0
 11
10346.25054505126
 21
1557.885563739263
 31
0.0
  0
LINE
  5
27616
330
747D
100
AcDbEntity
  8
細線
 48
50.0
100
AcDbLine
 10
10260.93171948567
 20
1581.885563739263
 30
0.0
 11
10267.36250010402
 21
1557.885563739263
 31
0.0
  0
LINE
  5
27617
330
747D
100
AcDbEntity
  8
細線
 48
50.0
100
AcDbLine
 10
10418.70780938016
 20
1581.885563739263
 30
0.0
 11
10425.13858999852
 21
1557.885563739263
 31
0.0
  0
LINE
  5
27618
330
747D
100
AcDbEntity
  8
細線
 48
50.0
100
AcDbLine
 10
10497.59585432741
 20
1581.885563739263
 30
0.0
 11
10504.02663494576
 21
1557.885563739263
 31
0.0
  0
LINE
  5
27619
330
747D
100
AcDbEntity
  8
細線
 48
50.0
100
AcDbLine
 10
10361.2556998274
 20
1661.885563739263
 30
0.0
 11
10354.82491920906
 21
1685.885563739264
 31
0.0
  0
LINE
  5
2761A
330
747D
100
AcDbEntity
  8
細線
 48
50.0
100
AcDbLine
 10
10282.36765488016
 20
1661.885563739263
 30
0.0
 11
10275.93687426181
 21
1685.885563739264
 31
0.0
  0
LINE
  5
2761B
330
747D
100
AcDbEntity
  8
細線
 48
50.0
100
AcDbLine
 10
10203.47960993291
 20
1661.885563739263
 30
0.0
 11
10197.04882931457
 21
1685.885563739264
 31
0.0
  0
LINE
  5
2761C
330
747D
100
AcDbEntity
  8
細線
100
AcDbLine
 10
10428.5195294731
 20
1685.885563739265
 30
0.0
 11
10520.21844512645
 21
1777.584479392613
 31
0.0
  0
LINE
  5
2761D
330
747D
100
AcDbEntity
  8
細線
 48
50.0
100
AcDbLine
 10
10440.14374477464
 20
1661.885563739263
 30
0.0
 11
10433.7129641563
 21
1685.885563739264
 31
0.0
  0
LINE
  5
2761E
330
747D
100
AcDbEntity
  8
細線
100
AcDbLine
 10
10394.57840397615
 20
1685.885563739265
 30
0.0
 11
10486.27731962949
 21
1777.584479392613
 31
0.0
  0
LINE
  5
2761F
330
747D
100
AcDbEntity
  8
細線
 48
50.0
100
AcDbLine
 10
10519.0317897219
 20
1661.885563739263
 30
0.0
 11
10512.60100910355
 21
1685.885563739262
 31
0.0
  0
LINE
  5
27620
330
747D
100
AcDbEntity
  8
細線
 48
50.0
100
AcDbLine
 10
10570.05311865631
 20
1557.885563739263
 30
0.0
 11
10604.35061528749
 21
1685.885563739261
 31
0.0
  0
LINE
  5
27621
330
747D
100
AcDbEntity
  8
部品1
100
AcDbLine
 10
10641.54200947681
 20
1777.584479392613
 30
0.0
 11
10641.54200947682
 21
1557.885563739263
 31
0.0
  0
LINE
  5
27622
330
747D
100
AcDbEntity
  8
細線
 48
50.0
100
AcDbLine
 10
10576.48389927466
 20
1581.885563739263
 30
0.0
 11
10582.914679893
 21
1557.885563739263
 31
0.0
  0
LINE
  5
27623
330
747D
100
AcDbEntity
  8
細線
 48
50.0
100
AcDbLine
 10
10597.91983466915
 20
1661.885563739263
 30
0.0
 11
10591.4890540508
 21
1685.885563739262
 31
0.0
  0
LEADER
  5
27624
330
747D
100
AcDbEntity
  8
寸法
 48
50.0
100
AcDbLeader
  3
INABA_S50G
 73
     0
 74
     0
 75
     1
 40
120.0
 41
185.591883092037
 76
     3
 10
10452.26642109274
 20
2017.584479392613
 30
0.0
 10
10485.40462772638
 20
2189.730800073752
 30
0.0
 10
10610.40462772638
 20
2189.730800073752
 30
0.0
340
27625
1001
ACAD
1000
DSTYLE
1002
{
1070
    40
1040
1.0
1002
}
  0
MTEXT
  5
27625
102
{ACAD_REACTORS
330
27624
102
}
330
747D
100
AcDbEntity
  8
寸法
 62
     7
 48
50.0
100
AcDbMText
 10
10635.40462772638
 20
2274.730800073751
 30
0.0
 40
120.0
 41
0.8
 71
     4
 72
     1
  1
\A1;C.B
  7
STYLE1
 73
     1
 44
1.0
1001
ACAD
1000
MTEXTBEGIN
1070
    73
1070
     1
1070
    44
1040
1.0
1070
    74
1070
     0
1000
MTEXTEND
  0
DIMENSION
  5
276BB
330
747D
100
AcDbEntity
  8
寸法
 48
50.0
100
AcDbDimension
  2
*D55
 10
12208.6
 20
7321.319814647999
 30
0.0
 11
12614.58527741022
 21
7321.319814647999
 31
0.0
 70
   160
 71
     5
 42
120.0
  3
INABA_S40G
100
AcDbAlignedDimension
 13
12328.6
 23
7140.184450786738
 33
0.0
 14
12208.6
 24
7140.184450786738
 34
0.0
100
AcDbRotatedDimension
1001
ACAD
1000
DSTYLE
1002
{
1070
   341
1005
0
1002
}
  0
ENDSEC
  0
SECTION
  2
OBJECTS
  0
DICTIONARY
  5
7471
330
0
100
AcDbDictionary
281
     1
  3
ACAD_COLOR
350
173D2
  3
ACAD_GROUP
350
7472
  3
ACAD_LAYOUT
350
173D3
  3
ACAD_MATERIAL
350
173D1
  3
ACAD_MLINESTYLE
350
7473
  3
ACAD_PLOTSETTINGS
350
173D4
  3
ACAD_PLOTSTYLENAME
350
173CF
  3
ACDBHEADERROUNDTRIPXREC
350
27813
  3
AcDbVariableDictionary
350
271F9
  3
CONTENTDICTIONARY
350
E71C
  3
DRAWINGVARIABLESDICT
350
F3B9
  0
DICTIONARY
  5
1758F
330
7467
100
AcDbDictionary
280
     1
281
     1
  3
ACAD_LAYERSTATES
360
17590
  0
DICTIONARY
  5
173D2
102
{ACAD_REACTORS
330
7471
102
}
330
7471
100
AcDbDictionary
281
     1
  0
DICTIONARY
  5
7472
102
{ACAD_REACTORS
330
7471
102
}
330
7471
100
AcDbDictionary
281
     1
  3
*A1
350
1D2A9
  0
DICTIONARY
  5
173D3
102
{ACAD_REACTORS
330
7471
102
}
330
7471
100
AcDbDictionary
281
     1
  3
Model
350
173D5
  3
レイアウト1
350
173D6
  0
DICTIONARY
  5
173D1
102
{ACAD_REACTORS
330
7471
102
}
330
7471
100
AcDbDictionary
281
     1
  0
DICTIONARY
  5
7473
102
{ACAD_REACTORS
330
7471
102
}
330
7471
100
AcDbDictionary
281
     1
  3
STANDARD
350
7480
  0
DICTIONARY
  5
173D4
102
{ACAD_REACTORS
330
7471
102
}
330
7471
100
AcDbDictionary
281
     1
  0
ACDBDICTIONARYWDFLT
  5
173CF
102
{ACAD_REACTORS
330
7471
102
}
330
7471
100
AcDbDictionary
281
     1
  3
Normal
350
173D0
100
AcDbDictionaryWithDefault
340
173D0
  0
DICTIONARY
  5
27813
102
{ACAD_REACTORS
330
7471
102
}
330
7471
100
AcDbDictionary
281
     1
  3
COLORDICT
350
27815
  3
MATERIALDICT
350
27814
  0
DICTIONARY
  5
271F9
102
{ACAD_REACTORS
330
7471
102
}
330
7471
100
AcDbDictionary
281
     1
  3
DIMASSOC
350
271FA
  3
PROJECTNAME
350
271FB
  0
DICTIONARY
  5
E71C
102
{ACAD_REACTORS
330
7471
102
}
330
7471
100
AcDbDictionary
281
     1
  0
DICTIONARY
  5
F3B9
102
{ACAD_REACTORS
330
7471
102
}
330
7471
100
AcDbDictionary
281
     1
1001
DRAWINGVARIABLESXDATA
1000
POLARMODE
1000
1
  0
DICTIONARY
  5
17590
102
{ACAD_REACTORS
330
1758F
102
}
330
1758F
100
AcDbDictionary
281
     1
  0
GROUP
  5
1D2A9
102
{ACAD_REACTORS
330
7472
102
}
330
7472
100
AcDbGroup
300

 70
     1
 71
     1
  0
LAYOUT
  5
173D5
102
{ACAD_XDICTIONARY
360
27816
102
}
102
{ACAD_REACTORS
330
173D3
102
}
330
173D3
100
AcDbPlotSettings
  1

  2
クセロPDFよこ.pc3
  4
A3
  6

 40
3.174999952316284
 41
3.174999952316284
 42
3.17498779296875
 43
3.17498779296875
 44
419.9466552734374
 45
296.9259948730469
 46
0.0
 47
0.0
 48
0.0
 49
0.0
140
0.0
141
0.0
142
1.0
143
40.0
 70
 11952
 72
     1
 73
     0
 74
     2
  7
ACA3.ctb
 75
    24
147
0.025
148
0.0
149
0.0
100
AcDbLayout
  1
Model
 70
     1
 71
     0
 10
0.0
 20
0.0
 11
12.0
 21
9.0
 12
0.0
 22
0.0
 32
0.0
 14
0.0
 24
0.0
 34
0.0
 15
0.0
 25
0.0
 35
0.0
146
0.0
 13
0.0
 23
0.0
 33
0.0
 16
1.0
 26
0.0
 36
0.0
 17
0.0
 27
1.0
 37
0.0
 76
     0
330
747D
  0
LAYOUT
  5
173D6
102
{ACAD_XDICTIONARY
360
27818
102
}
102
{ACAD_REACTORS
330
173D3
102
}
330
173D3
100
AcDbPlotSettings
  1

  2
Microsoft Office Document Image Writer
  4

  6

 40
0.0
 41
0.0
 42
0.0
 43
0.0
 44
0.0
 45
0.0
 46
0.0
 47
0.0
 48
0.0
 49
0.0
140
0.0
141
0.0
142
1.0
143
1.0
 70
   688
 72
     0
 73
     0
 74
     5
  7
ACA3.ctb
 75
    16
147
1.0
148
0.0
149
0.0
100
AcDbLayout
  1
レイアウト1
 70
     0
 71
     1
 10
0.0
 20
0.0
 11
420.0
 21
297.0
 12
0.0
 22
0.0
 32
0.0
 14
1.000000000000000E+20
 24
1.000000000000000E+20
 34
1.000000000000000E+20
 15
-1.000000000000000E+20
 25
-1.000000000000000E+20
 35
-1.000000000000000E+20
146
0.0
 13
0.0
 23
0.0
 33
0.0
 16
1.0
 26
0.0
 36
0.0
 17
0.0
 27
1.0
 37
0.0
 76
     0
330
747A
  0
MLINESTYLE
  5
7480
102
{ACAD_REACTORS
330
7473
102
}
330
7473
100
AcDbMlineStyle
  2
STANDARD
 70
     0
  3

 62
     0
 51
90.0
 52
90.0
 71
     2
 49
0.5
 62
   256
  6
BYLAYER
 49
-0.5
 62
   256
  6
BYLAYER
  0
ACDBPLACEHOLDER
  5
173D0
102
{ACAD_REACTORS
330
173CF
102
}
330
173CF
  0
XRECORD
  5
27815
102
{ACAD_REACTORS
330
27813
102
}
330
27813
100
AcDbXrecord
280
     1
340
173D2
  0
XRECORD
  5
27814
102
{ACAD_REACTORS
330
27813
102
}
330
27813
100
AcDbXrecord
280
     1
340
173D1
  0
DICTIONARYVAR
  5
271FA
102
{ACAD_REACTORS
330
271F9
102
}
330
271F9
100
DictionaryVariables
280
     0
  1
1
  0
DICTIONARYVAR
  5
271FB
102
{ACAD_REACTORS
330
271F9
102
}
330
271F9
100
DictionaryVariables
280
     0
  1

  0
DICTIONARY
  5
27816
330
173D5
100
AcDbDictionary
280
     1
281
     1
  3
ACAD_XREC_ROUNDTRIP
360
27817
  0
DICTIONARY
  5
27818
330
173D6
100
AcDbDictionary
280
     1
281
     1
  3
ACAD_XREC_ROUNDTRIP
360
27819
  0
XRECORD
  5
27817
102
{ACAD_REACTORS
330
27816
102
}
330
27816
100
AcDbXrecord
280
     1
102
SHADEPLOT
 70
     0
102
SHADEPLOTRESLEVEL
 70
     2
102
SHADEPLOTCUSTOMDPI
 70
   150
  0
XRECORD
  5
27819
102
{ACAD_REACTORS
330
27818
102
}
330
27818
100
AcDbXrecord
280
     1
102
SHADEPLOT
 70
     0
102
SHADEPLOTRESLEVEL
 70
     2
102
SHADEPLOTCUSTOMDPI
 70
   300
  0
ENDSEC
  0
EOF
