  0
SECTION
  2
HEADER
  9
$ACADVER
  1
AC1015
  9
$ACADMAINTVER
 70
    20
  9
$DWGCODEPAGE
  3
ANSI_932
  9
$INSBASE
 10
0.0
 20
0.0
 30
0.0
  9
$EXTMIN
 10
139.9999999999995
 20
-0.0000000000000909
 30
0.0
  9
$EXTMAX
 10
16307.2
 20
11409.6
 30
0.0
  9
$LIMMIN
 10
0.0
 20
0.0
  9
$LIMMAX
 10
16800.0
 20
11880.0
  9
$ORTHOMODE
 70
     0
  9
$REGENMODE
 70
     1
  9
$FILLMODE
 70
     1
  9
$QTEXTMODE
 70
     0
  9
$MIRRTEXT
 70
     1
  9
$LTSCALE
 40
20.0
  9
$ATTMODE
 70
     1
  9
$TEXTSIZE
 40
4.0
  9
$TRACEWID
 40
1.0
  9
$TEXTSTYLE
  7
STYLE1
  9
$CLAYER
  8
細線
  9
$CELTYPE
  6
BYLAYER
  9
$CECOLOR
 62
   256
  9
$CELTSCALE
 40
50.0
  9
$DISPSILH
 70
     0
  9
$DIMSCALE
 40
40.0
  9
$DIMASZ
 40
2.5
  9
$DIMEXO
 40
0.5
  9
$DIMDLI
 40
7.0
  9
$DIMRND
 40
0.0
  9
$DIMDLE
 40
0.0
  9
$DIMEXE
 40
1.5
  9
$DIMTP
 40
0.0
  9
$DIMTM
 40
0.0
  9
$DIMTXT
 40
3.0
  9
$DIMCEN
 40
0.0
  9
$DIMTSZ
 40
0.0
  9
$DIMTOL
 70
     0
  9
$DIMLIM
 70
     0
  9
$DIMTIH
 70
     0
  9
$DIMTOH
 70
     0
  9
$DIMSE1
 70
     0
  9
$DIMSE2
 70
     0
  9
$DIMTAD
 70
     3
  9
$DIMZIN
 70
     8
  9
$DIMBLK
  1

  9
$DIMASO
 70
     1
  9
$DIMSHO
 70
     1
  9
$DIMPOST
  1

  9
$DIMAPOST
  1

  9
$DIMALT
 70
     0
  9
$DIMALTD
 70
     2
  9
$DIMALTF
 40
0.0394
  9
$DIMLFAC
 40
1.0
  9
$DIMTOFL
 70
     1
  9
$DIMTVP
 40
0.0
  9
$DIMTIX
 70
     1
  9
$DIMSOXD
 70
     0
  9
$DIMSAH
 70
     1
  9
$DIMBLK1
  1
DOTSMALL
  9
$DIMBLK2
  1
DOTSMALL
  9
$DIMSTYLE
  2
INABA_S40G
  9
$DIMCLRD
 70
     0
  9
$DIMCLRE
 70
     0
  9
$DIMCLRT
 70
     7
  9
$DIMTFAC
 40
1.0
  9
$DIMGAP
 40
1.0
  9
$DIMJUST
 70
     0
  9
$DIMSD1
 70
     0
  9
$DIMSD2
 70
     0
  9
$DIMTOLJ
 70
     1
  9
$DIMTZIN
 70
     0
  9
$DIMALTZ
 70
     0
  9
$DIMALTTZ
 70
     0
  9
$DIMUPT
 70
     0
  9
$DIMDEC
 70
     1
  9
$DIMTDEC
 70
     4
  9
$DIMALTU
 70
     2
  9
$DIMALTTD
 70
     2
  9
$DIMTXSTY
  7
STYLE1
  9
$DIMAUNIT
 70
     0
  9
$DIMADEC
 70
     0
  9
$DIMALTRND
 40
0.0
  9
$DIMAZIN
 70
     0
  9
$DIMDSEP
 70
    46
  9
$DIMATFIT
 70
     3
  9
$DIMFRAC
 70
     0
  9
$DIMLDRBLK
  1

  9
$DIMLUNIT
 70
     2
  9
$DIMLWD
 70
    -2
  9
$DIMLWE
 70
    -2
  9
$DIMTMOVE
 70
     0
  9
$LUNITS
 70
     2
  9
$LUPREC
 70
     1
  9
$SKETCHINC
 40
1.0
  9
$FILLETRAD
 40
3.0
  9
$AUNITS
 70
     0
  9
$AUPREC
 70
     0
  9
$MENU
  1
acad
  9
$ELEVATION
 40
0.0
  9
$PELEVATION
 40
0.0
  9
$THICKNESS
 40
0.0
  9
$LIMCHECK
 70
     0
  9
$CHAMFERA
 40
0.0
  9
$CHAMFERB
 40
0.0
  9
$CHAMFERC
 40
0.0
  9
$CHAMFERD
 40
0.0
  9
$SKPOLY
 70
     0
  9
$TDCREATE
 40
2451368.612993866
  9
$TDUCREATE
 40
2451368.237993866
  9
$TDUPDATE
 40
2455826.588431713
  9
$TDUUPDATE
 40
2455826.213431713
  9
$TDINDWG
 40
0.8150651157
  9
$TDUSRTIMER
 40
0.8150651157
  9
$USRTIMER
 70
     1
  9
$ANGBASE
 50
0.0
  9
$ANGDIR
 70
     0
  9
$PDMODE
 70
     3
  9
$PDSIZE
 40
2.0
  9
$PLINEWID
 40
0.0
  9
$SPLFRAME
 70
     0
  9
$SPLINETYPE
 70
     6
  9
$SPLINESEGS
 70
     8
  9
$HANDSEED
  5
2B81D
  9
$SURFTAB1
 70
     6
  9
$SURFTAB2
 70
     6
  9
$SURFTYPE
 70
     6
  9
$SURFU
 70
     6
  9
$SURFV
 70
     6
  9
$UCSBASE
  2

  9
$UCSNAME
  2

  9
$UCSORG
 10
0.0
 20
0.0
 30
0.0
  9
$UCSXDIR
 10
1.0
 20
0.0
 30
0.0
  9
$UCSYDIR
 10
0.0
 20
1.0
 30
0.0
  9
$UCSORTHOREF
  2

  9
$UCSORTHOVIEW
 70
     0
  9
$UCSORGTOP
 10
0.0
 20
0.0
 30
0.0
  9
$UCSORGBOTTOM
 10
0.0
 20
0.0
 30
0.0
  9
$UCSORGLEFT
 10
0.0
 20
0.0
 30
0.0
  9
$UCSORGRIGHT
 10
0.0
 20
0.0
 30
0.0
  9
$UCSORGFRONT
 10
0.0
 20
0.0
 30
0.0
  9
$UCSORGBACK
 10
0.0
 20
0.0
 30
0.0
  9
$PUCSBASE
  2

  9
$PUCSNAME
  2

  9
$PUCSORG
 10
0.0
 20
0.0
 30
0.0
  9
$PUCSXDIR
 10
1.0
 20
0.0
 30
0.0
  9
$PUCSYDIR
 10
0.0
 20
1.0
 30
0.0
  9
$PUCSORTHOREF
  2

  9
$PUCSORTHOVIEW
 70
     0
  9
$PUCSORGTOP
 10
0.0
 20
0.0
 30
0.0
  9
$PUCSORGBOTTOM
 10
0.0
 20
0.0
 30
0.0
  9
$PUCSORGLEFT
 10
0.0
 20
0.0
 30
0.0
  9
$PUCSORGRIGHT
 10
0.0
 20
0.0
 30
0.0
  9
$PUCSORGFRONT
 10
0.0
 20
0.0
 30
0.0
  9
$PUCSORGBACK
 10
0.0
 20
0.0
 30
0.0
  9
$USERI1
 70
     0
  9
$USERI2
 70
     0
  9
$USERI3
 70
     0
  9
$USERI4
 70
     0
  9
$USERI5
 70
     0
  9
$USERR1
 40
0.0
  9
$USERR2
 40
0.0
  9
$USERR3
 40
0.0
  9
$USERR4
 40
0.0
  9
$USERR5
 40
0.0
  9
$WORLDVIEW
 70
     1
  9
$SHADEDGE
 70
     3
  9
$SHADEDIF
 70
    70
  9
$TILEMODE
 70
     1
  9
$MAXACTVP
 70
    16
  9
$PINSBASE
 10
0.0
 20
0.0
 30
0.0
  9
$PLIMCHECK
 70
     0
  9
$PEXTMIN
 10
1.000000000000000E+20
 20
1.000000000000000E+20
 30
1.000000000000000E+20
  9
$PEXTMAX
 10
-1.000000000000000E+20
 20
-1.000000000000000E+20
 30
-1.000000000000000E+20
  9
$PLIMMIN
 10
0.0
 20
0.0
  9
$PLIMMAX
 10
420.0
 20
297.0
  9
$UNITMODE
 70
     0
  9
$VISRETAIN
 70
     0
  9
$PLINEGEN
 70
     0
  9
$PSLTSCALE
 70
     0
  9
$TREEDEPTH
 70
  3020
  9
$CMLSTYLE
  2
STANDARD
  9
$CMLJUST
 70
     0
  9
$CMLSCALE
 40
1.0
  9
$PROXYGRAPHICS
 70
     1
  9
$MEASUREMENT
 70
     1
  9
$CELWEIGHT
370
    -1
  9
$ENDCAPS
280
     0
  9
$JOINSTYLE
280
     0
  9
$LWDISPLAY
290
     0
  9
$INSUNITS
 70
     0
  9
$HYPERLINKBASE
  1

  9
$STYLESHEET
  1
ACA3.ctb
  9
$XEDIT
290
     1
  9
$CEPSNTYPE
380
     0
  9
$PSTYLEMODE
290
     1
  9
$FINGERPRINTGUID
  2
{5EAC461A-2277-4BF8-9AB0-99C43BB394F0}
  9
$VERSIONGUID
  2
{83658732-5049-4352-A4E2-A9C297721189}
  9
$EXTNAMES
290
     1
  9
$PSVPSCALE
 40
0.0
  9
$OLESTARTUP
290
     0
  0
ENDSEC
  0
SECTION
  2
CLASSES
  0
CLASS
  1
ACDBDICTIONARYWDFLT
  2
AcDbDictionaryWithDefault
  3
ObjectDBX Classes
 90
        0
280
     0
281
     0
  0
CLASS
  1
DICTIONARYVAR
  2
AcDbDictionaryVar
  3
ObjectDBX Classes
 90
        0
280
     0
281
     0
  0
CLASS
  1
ACDBPLACEHOLDER
  2
AcDbPlaceHolder
  3
ObjectDBX Classes
 90
        0
280
     0
281
     0
  0
CLASS
  1
LAYOUT
  2
AcDbLayout
  3
ObjectDBX Classes
 90
        0
280
     0
281
     0
  0
ENDSEC
  0
SECTION
  2
TABLES
  0
TABLE
  2
VPORT
  5
746D
330
0
100
AcDbSymbolTable
 70
     2
  0
VPORT
  5
2B815
330
746D
100
AcDbSymbolTableRecord
100
AcDbViewportTableRecord
  2
*Active
 70
     0
 10
0.0
 20
0.0
 11
1.0
 21
1.0
 12
8400.0
 22
6549.78343810319
 13
0.0
 23
0.0
 14
10.0
 24
10.0
 15
10.0
 25
10.0
 16
0.0
 26
0.0
 36
1.0
 17
0.0
 27
0.0
 37
0.0
 40
13195.93622444292
 41
1.522222222222222
 42
50.0
 43
0.0
 44
0.0
 50
0.0
 51
0.0
 71
     0
 72
     0
 73
     1
 74
     0
 75
     0
 76
     0
 77
     0
 78
     0
281
     0
 65
     1
110
0.0
120
0.0
130
0.0
111
1.0
121
0.0
131
0.0
112
0.0
122
1.0
132
0.0
 79
     0
146
0.0
  0
ENDTAB
  0
TABLE
  2
LTYPE
  5
746A
330
0
100
AcDbSymbolTable
 70
     5
  0
LTYPE
  5
7477
330
746A
100
AcDbSymbolTableRecord
100
AcDbLinetypeTableRecord
  2
BYBLOCK
 70
     0
  3

 72
    65
 73
     0
 40
0.0
  0
LTYPE
  5
7478
330
746A
100
AcDbSymbolTableRecord
100
AcDbLinetypeTableRecord
  2
BYLAYER
 70
     0
  3

 72
    65
 73
     0
 40
0.0
  0
LTYPE
  5
7479
330
746A
100
AcDbSymbolTableRecord
100
AcDbLinetypeTableRecord
  2
CONTINUOUS
 70
     0
  3
Solid line
 72
    65
 73
     0
 40
0.0
  0
LTYPE
  5
7816
330
746A
100
AcDbSymbolTableRecord
100
AcDbLinetypeTableRecord
  2
CENTER
 70
     0
  3
____ _ ____ _ ____ _ ____ _ ____ _ ____ _ ____ 
 72
    65
 73
     4
 40
2.0
 49
1.25
 74
     0
 49
-0.25
 74
     0
 49
0.25
 74
     0
 49
-0.25
 74
     0
  0
LTYPE
  5
781A
330
746A
100
AcDbSymbolTableRecord
100
AcDbLinetypeTableRecord
  2
HIDDEN
 70
     0
  3
__ __ __ __ __ __ __ __ __ __ __ __ __ __ __ __
 72
    65
 73
     2
 40
0.375
 49
0.25
 74
     0
 49
-0.125
 74
     0
  0
LTYPE
  5
781B
330
746A
100
AcDbSymbolTableRecord
100
AcDbLinetypeTableRecord
  2
PHANTOM
 70
     0
  3
______  __  __  ______  __  __  ______  __  __ 
 72
    65
 73
     6
 40
2.5
 49
1.25
 74
     0
 49
-0.25
 74
     0
 49
0.25
 74
     0
 49
-0.25
 74
     0
 49
0.25
 74
     0
 49
-0.25
 74
     0
  0
LTYPE
  5
12CC3
330
746A
100
AcDbSymbolTableRecord
100
AcDbLinetypeTableRecord
  2
HIDDENX2
 70
     0
  3
Hidden (2x) ____ ____ ____ ____ ____ ____ ____
 72
    65
 73
     2
 40
19.05
 49
12.7
 74
     0
 49
-6.349999999999999
 74
     0
  0
ENDTAB
  0
TABLE
  2
LAYER
  5
7467
102
{ACAD_XDICTIONARY
360
1758F
102
}
330
0
100
AcDbSymbolTable
 70
    12
  0
LAYER
  5
7474
330
7467
100
AcDbSymbolTableRecord
100
AcDbLayerTableRecord
  2
0
 70
     0
 62
     7
  6
CONTINUOUS
370
    -3
390
173D0
  0
LAYER
  5
DEB2
330
7467
100
AcDbSymbolTableRecord
100
AcDbLayerTableRecord
  2
センター
 70
     0
 62
     3
  6
CENTER
370
    -3
390
173D0
  0
LAYER
  5
DEB3
330
7467
100
AcDbSymbolTableRecord
100
AcDbLayerTableRecord
  2
寸法
 70
     0
 62
     4
  6
CONTINUOUS
370
    -3
390
173D0
  0
LAYER
  5
DEB4
330
7467
100
AcDbSymbolTableRecord
100
AcDbLayerTableRecord
  2
部品1
 70
     0
 62
     7
  6
CONTINUOUS
370
    -3
390
173D0
  0
LAYER
  5
DEB5
330
7467
100
AcDbSymbolTableRecord
100
AcDbLayerTableRecord
  2
補助
 70
     0
 62
    -1
  6
CONTINUOUS
370
    -3
390
173D0
  0
LAYER
  5
DEB6
330
7467
100
AcDbSymbolTableRecord
100
AcDbLayerTableRecord
  2
文字
 70
     0
 62
     7
  6
CONTINUOUS
370
    -3
390
173D0
  0
LAYER
  5
F255
330
7467
100
AcDbSymbolTableRecord
100
AcDbLayerTableRecord
  2
DEFPOINTS
 70
     0
 62
     7
  6
CONTINUOUS
290
     0
370
    -3
390
173D0
  0
LAYER
  5
10B54
330
7467
100
AcDbSymbolTableRecord
100
AcDbLayerTableRecord
  2
仕様書枠
 70
     0
 62
   230
  6
CONTINUOUS
370
    -3
390
173D0
  0
LAYER
  5
11729
330
7467
100
AcDbSymbolTableRecord
100
AcDbLayerTableRecord
  2
Ｇ．Ｌ
 70
     0
 62
    30
  6
CONTINUOUS
370
    -3
390
173D0
  0
LAYER
  5
1173F
330
7467
100
AcDbSymbolTableRecord
100
AcDbLayerTableRecord
  2
細線
 70
     0
 62
     5
  6
CONTINUOUS
370
    -3
390
173D0
  0
LAYER
  5
12CC4
330
7467
100
AcDbSymbolTableRecord
100
AcDbLayerTableRecord
  2
想像線
 70
     0
 62
     6
  6
PHANTOM
370
    -3
390
173D0
  0
LAYER
  5
142E2
330
7467
100
AcDbSymbolTableRecord
100
AcDbLayerTableRecord
  2
破線
 70
     0
 62
     2
  6
HIDDEN
370
    -3
390
173D0
  0
ENDTAB
  0
TABLE
  2
STYLE
  5
7468
330
0
100
AcDbSymbolTable
 70
     7
  0
STYLE
  5
7475
330
7468
100
AcDbSymbolTableRecord
100
AcDbTextStyleTableRecord
  2
STANDARD
 70
     0
 40
0.0
 41
1.0
 50
0.0
 71
     0
 42
4.0
  3
txt
  4
C:\AutoCAD LT\bigfont.shx
  0
STYLE
  5
763C
330
7468
100
AcDbSymbolTableRecord
100
AcDbTextStyleTableRecord
  2
MSMINCHO
 70
     0
 40
0.0
 41
1.0
 50
0.0
 71
     0
 42
1.199999999999999
  3
C:\AutoCAD LT\msminch2.TTF
  4

  0
STYLE
  5
F706
330
7468
100
AcDbSymbolTableRecord
100
AcDbTextStyleTableRecord
  2
STYLE1
 70
     0
 40
0.0
 41
1.0
 50
0.0
 71
     0
 42
4.0
  3
isocp.shx
  4
bigfont.shx
  0
STYLE
  5
103BF
330
7468
100
AcDbSymbolTableRecord
100
AcDbTextStyleTableRecord
  2
STYLE2
 70
     0
 40
0.0
 41
1.0
 50
0.0
 71
     0
 42
100.0
  3
MS PGothic.ttf
  4

1001
ACAD
1000
MS PGothic
1071
    32818
  0
STYLE
  5
10BAA
330
7468
100
AcDbSymbolTableRecord
100
AcDbTextStyleTableRecord
  2
STYLE3
 70
     0
 40
0.0
 41
1.0
 50
0.0
 71
     0
 42
100.0
  3

  4

1001
ACAD
1000
DFPGothic-EB
1071
    32818
  0
STYLE
  5
11A15
330
7468
100
AcDbSymbolTableRecord
100
AcDbTextStyleTableRecord
  2
MSGOTHIC
 70
     0
 40
0.0
 41
1.0
 50
0.0
 71
     0
 42
3.5
  3
msgothi2.ttf
  4

  0
STYLE
  5
13E96
330
7468
100
AcDbSymbolTableRecord
100
AcDbTextStyleTableRecord
  2
MSPゴシック
 70
     0
 40
0.0
 41
1.0
 50
0.0
 71
     0
 42
4.0
  3
MS PGothic.ttf
  4

1001
ACAD
1000
MS PGothic
1071
    32818
  0
ENDTAB
  0
TABLE
  2
VIEW
  5
746B
330
0
100
AcDbSymbolTable
 70
     0
  0
ENDTAB
  0
TABLE
  2
UCS
  5
746C
330
0
100
AcDbSymbolTable
 70
     0
  0
ENDTAB
  0
TABLE
  2
APPID
  5
746E
330
0
100
AcDbSymbolTable
 70
     6
  0
APPID
  5
7476
330
746E
100
AcDbSymbolTableRecord
100
AcDbRegAppTableRecord
  2
ACAD
 70
     0
  0
APPID
  5
DEA9
330
746E
100
AcDbSymbolTableRecord
100
AcDbRegAppTableRecord
  2
CONTENTBLOCKICON
 70
     0
  0
APPID
  5
DEAA
330
746E
100
AcDbSymbolTableRecord
100
AcDbRegAppTableRecord
  2
CONTENTBLOCKDESCRIPTION
 70
     0
  0
APPID
  5
E71D
330
746E
100
AcDbSymbolTableRecord
100
AcDbRegAppTableRecord
  2
CONTENTTABDATA
 70
     0
  0
APPID
  5
E71E
330
746E
100
AcDbSymbolTableRecord
100
AcDbRegAppTableRecord
  2
CONTENTCURRENTTAB
 70
     0
  0
APPID
  5
F3BA
330
746E
100
AcDbSymbolTableRecord
100
AcDbRegAppTableRecord
  2
DRAWINGVARIABLESXDATA
 70
     0
  0
ENDTAB
  0
TABLE
  2
DIMSTYLE
  5
746F
330
0
100
AcDbSymbolTable
 70
     6
100
AcDbDimStyleTable
 71
     1
340
F71F
  0
DIMSTYLE
105
7484
330
746F
100
AcDbSymbolTableRecord
100
AcDbDimStyleTableRecord
  2
JIS
 70
     0
 41
2.5
 42
1.0
 43
7.0
 44
1.0
 73
     0
 74
     0
 77
     1
 78
     8
140
2.5
141
0.0
143
0.0394
147
0.0
172
     1
174
     1
175
     1
340
7475
  0
DIMSTYLE
105
F236
330
746F
100
AcDbSymbolTableRecord
100
AcDbDimStyleTableRecord
  2
INABA_S40
 70
     0
 40
40.0
 41
2.5
 42
0.5
 43
7.0
 44
1.5
 73
     0
 74
     0
 77
     3
 78
     8
140
3.0
141
0.0
143
0.0394
147
1.0
172
     1
173
     1
174
     1
175
     1
178
     7
289
     0
340
7475
341
DEAC
343
DEAC
344
DEAC
  0
DIMSTYLE
105
F71F
102
{ACAD_REACTORS
330
2A8DC
330
2A8C0
330
2A89E
330
2A89D
330
2A897
330
2A896
330
2A803
330
2A800
330
2A7E4
330
2A7DF
330
2A7DD
330
2A7D9
330
2A7D8
330
2A77C
330
2A793
330
2A7DB
330
2A78A
330
2A782
330
2A781
330
2A784
330
2AFD6
330
2AFD7
330
2AFD8
330
2AFD9
330
2AFDA
330
2AFDF
330
2AFE0
330
2B62A
330
2B62B
330
2B633
330
2B63A
330
2B63D
330
2B69D
102
}
330
746F
100
AcDbSymbolTableRecord
100
AcDbDimStyleTableRecord
  2
INABA_S40G
 70
     0
 40
40.0
 41
2.5
 42
0.5
 43
7.0
 44
1.5
 73
     0
 74
     0
 77
     3
 78
     8
140
3.0
141
0.0
143
0.0394
147
1.0
172
     1
173
     1
174
     1
178
     7
271
     1
340
F706
341
F770
343
F770
344
F770
  0
DIMSTYLE
105
142E3
330
746F
100
AcDbSymbolTableRecord
100
AcDbDimStyleTableRecord
  2
INABA_S1
 70
     0
 40
0.0
 41
2.5
 42
0.5
 43
7.0
 44
1.5
 73
     0
 74
     0
 77
     3
 78
     8
140
3.0
141
0.0
143
0.0394
146
0.5
147
0.5
172
     1
173
     1
176
   256
177
   256
178
     7
271
     2
272
     2
284
     8
288
     1
340
7475
341
DEAC
343
DEAC
344
DEAC
  0
DIMSTYLE
105
14463
330
746F
100
AcDbSymbolTableRecord
100
AcDbDimStyleTableRecord
  2
INABA_S30G
 70
     0
 40
30.0
 41
2.5
 42
0.5
 43
7.0
 44
1.5
 73
     0
 74
     0
 77
     3
 78
     8
140
3.0
141
0.0
143
0.0394
147
1.0
172
     1
173
     1
174
     1
175
     1
178
     7
271
     1
340
F706
341
F770
343
F770
344
F770
  0
DIMSTYLE
105
1758E
330
746F
100
AcDbSymbolTableRecord
100
AcDbDimStyleTableRecord
  2
INABA_S50G
 70
     0
 41
125.0
 42
25.0
 43
7.0
 44
75.0
 73
     0
 74
     0
 77
     3
 78
     8
140
150.0
141
0.0
143
0.0394
147
25.0
172
     1
173
     1
174
     1
175
     1
178
     7
271
     1
340
F706
341
F770
343
F770
344
F770
  0
ENDTAB
  0
TABLE
  2
BLOCK_RECORD
  5
7466
330
0
100
AcDbSymbolTable
 70
    52
  0
BLOCK_RECORD
  5
747D
330
7466
100
AcDbSymbolTableRecord
100
AcDbBlockTableRecord
  2
*MODEL_SPACE
340
173D5
  0
BLOCK_RECORD
  5
747A
330
7466
100
AcDbSymbolTableRecord
100
AcDbBlockTableRecord
  2
*PAPER_SPACE
340
173D6
  0
BLOCK_RECORD
  5
DEAC
330
7466
100
AcDbSymbolTableRecord
100
AcDbBlockTableRecord
  2
_OPEN
340
0
  0
BLOCK_RECORD
  5
F770
330
7466
100
AcDbSymbolTableRecord
100
AcDbBlockTableRecord
  2
_DOTSMALL
340
0
102
{BLKREFS
331
18C65
331
18C66
331
18C59
331
18C5A
331
18C4D
331
18C4E
331
18C41
331
18C42
331
18C35
331
18C36
331
18C29
331
18C2A
331
18C1D
331
18C1E
331
18C0F
331
18C10
331
18C03
331
18C04
331
18BF5
331
18BF6
331
18BE7
331
18BE8
331
18BD9
331
18BDA
331
18BCD
331
18BCE
331
2B2AA
331
2B2AB
331
2B2B5
331
2B2B6
331
2B2C0
331
2B2C1
331
2B2CB
331
2B2CC
331
2B2D5
331
2B2D6
331
2B2F3
331
2B2F4
331
2B2FC
331
2B2FD
331
2B305
331
2B306
331
2B30E
331
2B30F
331
2B317
331
2B318
331
2B320
331
2B321
331
2B329
331
2B32A
331
2B332
331
2B333
331
2B33C
331
2B33D
331
2B345
331
2B346
331
2B34F
331
2B350
331
2B359
331
2B35A
331
2B362
331
2B363
331
2B36B
331
2B36C
331
2B374
331
2B375
331
2B388
331
2B389
331
2B391
331
2B392
331
2B3A3
331
2B3A4
331
2B3C7
331
2B3C8
331
2B3D0
331
2B3D1
331
2B465
331
2B466
331
2B498
331
2B499
331
2B7A3
331
2B7A4
331
2B7AE
331
2B7AF
331
2B7B7
331
2B7B8
331
2B7C0
331
2B7C1
331
2B7C9
331
2B7CA
331
2B7D2
331
2B7D3
102
}
  0
BLOCK_RECORD
  5
164B4
330
7466
100
AcDbSymbolTableRecord
100
AcDbBlockTableRecord
  2
_DOT
340
0
102
{BLKREFS
331
18C73
331
18C74
102
}
  0
BLOCK_RECORD
  5
18BC8
330
7466
100
AcDbSymbolTableRecord
100
AcDbBlockTableRecord
  2
*D3
340
0
  0
BLOCK_RECORD
  5
18BD4
330
7466
100
AcDbSymbolTableRecord
100
AcDbBlockTableRecord
  2
*D4
340
0
  0
BLOCK_RECORD
  5
18BE0
330
7466
100
AcDbSymbolTableRecord
100
AcDbBlockTableRecord
  2
*D5
340
0
  0
BLOCK_RECORD
  5
18BEE
330
7466
100
AcDbSymbolTableRecord
100
AcDbBlockTableRecord
  2
*D6
340
0
  0
BLOCK_RECORD
  5
18BFC
330
7466
100
AcDbSymbolTableRecord
100
AcDbBlockTableRecord
  2
*D7
340
0
  0
BLOCK_RECORD
  5
18C0A
330
7466
100
AcDbSymbolTableRecord
100
AcDbBlockTableRecord
  2
*D8
340
0
  0
BLOCK_RECORD
  5
18C16
330
7466
100
AcDbSymbolTableRecord
100
AcDbBlockTableRecord
  2
*D9
340
0
  0
BLOCK_RECORD
  5
18C24
330
7466
100
AcDbSymbolTableRecord
100
AcDbBlockTableRecord
  2
*D10
340
0
  0
BLOCK_RECORD
  5
18C30
330
7466
100
AcDbSymbolTableRecord
100
AcDbBlockTableRecord
  2
*D11
340
0
  0
BLOCK_RECORD
  5
18C3C
330
7466
100
AcDbSymbolTableRecord
100
AcDbBlockTableRecord
  2
*D12
340
0
  0
BLOCK_RECORD
  5
18C48
330
7466
100
AcDbSymbolTableRecord
100
AcDbBlockTableRecord
  2
*D13
340
0
  0
BLOCK_RECORD
  5
18C54
330
7466
100
AcDbSymbolTableRecord
100
AcDbBlockTableRecord
  2
*D14
340
0
  0
BLOCK_RECORD
  5
18C60
330
7466
100
AcDbSymbolTableRecord
100
AcDbBlockTableRecord
  2
*D15
340
0
  0
BLOCK_RECORD
  5
18C6C
330
7466
100
AcDbSymbolTableRecord
100
AcDbBlockTableRecord
  2
*D16
340
0
  0
BLOCK_RECORD
  5
18C7A
330
7466
100
AcDbSymbolTableRecord
100
AcDbBlockTableRecord
  2
A$C3B1A506B
340
0
  0
BLOCK_RECORD
  5
1C4CA
330
7466
100
AcDbSymbolTableRecord
100
AcDbBlockTableRecord
  2
_NONE
340
0
  0
BLOCK_RECORD
  5
2A8F6
330
7466
100
AcDbSymbolTableRecord
100
AcDbBlockTableRecord
  2
*D19
340
0
  0
BLOCK_RECORD
  5
2A902
330
7466
100
AcDbSymbolTableRecord
100
AcDbBlockTableRecord
  2
*D20
340
0
  0
BLOCK_RECORD
  5
2A90E
330
7466
100
AcDbSymbolTableRecord
100
AcDbBlockTableRecord
  2
*D21
340
0
  0
BLOCK_RECORD
  5
2A91A
330
7466
100
AcDbSymbolTableRecord
100
AcDbBlockTableRecord
  2
*D22
340
0
  0
BLOCK_RECORD
  5
2A927
330
7466
100
AcDbSymbolTableRecord
100
AcDbBlockTableRecord
  2
*D23
340
0
  0
BLOCK_RECORD
  5
2A940
330
7466
100
AcDbSymbolTableRecord
100
AcDbBlockTableRecord
  2
*D24
340
0
  0
BLOCK_RECORD
  5
2A959
330
7466
100
AcDbSymbolTableRecord
100
AcDbBlockTableRecord
  2
*D25
340
0
  0
BLOCK_RECORD
  5
2A964
330
7466
100
AcDbSymbolTableRecord
100
AcDbBlockTableRecord
  2
*D26
340
0
  0
BLOCK_RECORD
  5
2A970
330
7466
100
AcDbSymbolTableRecord
100
AcDbBlockTableRecord
  2
*D27
340
0
  0
BLOCK_RECORD
  5
2A987
330
7466
100
AcDbSymbolTableRecord
100
AcDbBlockTableRecord
  2
*D28
340
0
  0
BLOCK_RECORD
  5
2A9A1
330
7466
100
AcDbSymbolTableRecord
100
AcDbBlockTableRecord
  2
*D29
340
0
  0
BLOCK_RECORD
  5
2A9AD
330
7466
100
AcDbSymbolTableRecord
100
AcDbBlockTableRecord
  2
*D30
340
0
  0
BLOCK_RECORD
  5
2A9BA
330
7466
100
AcDbSymbolTableRecord
100
AcDbBlockTableRecord
  2
*D31
340
0
  0
BLOCK_RECORD
  5
2A9C5
330
7466
100
AcDbSymbolTableRecord
100
AcDbBlockTableRecord
  2
*D32
340
0
  0
BLOCK_RECORD
  5
2A9DE
330
7466
100
AcDbSymbolTableRecord
100
AcDbBlockTableRecord
  2
*D33
340
0
  0
BLOCK_RECORD
  5
2A9EA
330
7466
100
AcDbSymbolTableRecord
100
AcDbBlockTableRecord
  2
*D34
340
0
  0
BLOCK_RECORD
  5
2A9F6
330
7466
100
AcDbSymbolTableRecord
100
AcDbBlockTableRecord
  2
*D35
340
0
  0
BLOCK_RECORD
  5
2AA01
330
7466
100
AcDbSymbolTableRecord
100
AcDbBlockTableRecord
  2
*D36
340
0
  0
BLOCK_RECORD
  5
2AA0D
330
7466
100
AcDbSymbolTableRecord
100
AcDbBlockTableRecord
  2
*D37
340
0
  0
BLOCK_RECORD
  5
2AA19
330
7466
100
AcDbSymbolTableRecord
100
AcDbBlockTableRecord
  2
*D38
340
0
  0
BLOCK_RECORD
  5
2B0ED
330
7466
100
AcDbSymbolTableRecord
100
AcDbBlockTableRecord
  2
*D39
340
0
  0
BLOCK_RECORD
  5
2B0FA
330
7466
100
AcDbSymbolTableRecord
100
AcDbBlockTableRecord
  2
*D40
340
0
  0
BLOCK_RECORD
  5
2B107
330
7466
100
AcDbSymbolTableRecord
100
AcDbBlockTableRecord
  2
*D41
340
0
  0
BLOCK_RECORD
  5
2B114
330
7466
100
AcDbSymbolTableRecord
100
AcDbBlockTableRecord
  2
*D42
340
0
  0
BLOCK_RECORD
  5
2B122
330
7466
100
AcDbSymbolTableRecord
100
AcDbBlockTableRecord
  2
*D43
340
0
  0
BLOCK_RECORD
  5
2B130
330
7466
100
AcDbSymbolTableRecord
100
AcDbBlockTableRecord
  2
*D44
340
0
  0
BLOCK_RECORD
  5
2B13E
330
7466
100
AcDbSymbolTableRecord
100
AcDbBlockTableRecord
  2
*D45
340
0
  0
BLOCK_RECORD
  5
2B756
330
7466
100
AcDbSymbolTableRecord
100
AcDbBlockTableRecord
  2
*D46
340
0
  0
BLOCK_RECORD
  5
2B762
330
7466
100
AcDbSymbolTableRecord
100
AcDbBlockTableRecord
  2
*D47
340
0
  0
BLOCK_RECORD
  5
2B770
330
7466
100
AcDbSymbolTableRecord
100
AcDbBlockTableRecord
  2
*D48
340
0
  0
BLOCK_RECORD
  5
2B77C
330
7466
100
AcDbSymbolTableRecord
100
AcDbBlockTableRecord
  2
*D49
340
0
  0
BLOCK_RECORD
  5
2B788
330
7466
100
AcDbSymbolTableRecord
100
AcDbBlockTableRecord
  2
*D50
340
0
  0
BLOCK_RECORD
  5
2B794
330
7466
100
AcDbSymbolTableRecord
100
AcDbBlockTableRecord
  2
*D51
340
0
  0
ENDTAB
  0
ENDSEC
  0
SECTION
  2
BLOCKS
  0
BLOCK
  5
7489
330
747D
100
AcDbEntity
  8
0
100
AcDbBlockBegin
  2
*MODEL_SPACE
 70
     0
 10
0.0
 20
0.0
 30
0.0
  3
*MODEL_SPACE
  1

  0
ENDBLK
  5
748A
330
747D
100
AcDbEntity
  8
0
100
AcDbBlockEnd
  0
BLOCK
  5
7487
330
747A
100
AcDbEntity
 67
     1
  8
0
100
AcDbBlockBegin
  2
*PAPER_SPACE
 70
     0
 10
0.0
 20
0.0
 30
0.0
  3
*PAPER_SPACE
  1

  0
ENDBLK
  5
7488
330
747A
100
AcDbEntity
 67
     1
  8
0
100
AcDbBlockEnd
  0
BLOCK
  5
DEAD
330
DEAC
100
AcDbEntity
  8
0
100
AcDbBlockBegin
  2
_OPEN
 70
     0
 10
0.0
 20
0.0
 30
0.0
  3
_OPEN
  1

  0
LINE
  5
DEAE
330
DEAC
100
AcDbEntity
  8
0
  6
ByBlock
 62
     0
100
AcDbLine
 10
-1.0
 20
0.1666666666666666
 30
0.0
 11
0.0
 21
0.0
 31
0.0
  0
LINE
  5
DEAF
330
DEAC
100
AcDbEntity
  8
0
  6
ByBlock
 62
     0
100
AcDbLine
 10
0.0
 20
0.0
 30
0.0
 11
-1.0
 21
-0.1666666666666666
 31
0.0
  0
LINE
  5
DEB0
330
DEAC
100
AcDbEntity
  8
0
  6
ByBlock
 62
     0
100
AcDbLine
 10
0.0
 20
0.0
 30
0.0
 11
-1.0
 21
0.0
 31
0.0
  0
ENDBLK
  5
DEB1
330
DEAC
100
AcDbEntity
  8
0
100
AcDbBlockEnd
  0
BLOCK
  5
F771
330
F770
100
AcDbEntity
  8
0
 48
50.0
100
AcDbBlockBegin
  2
_DOTSMALL
 70
     0
 10
0.0
 20
0.0
 30
0.0
  3
_DOTSMALL
  1

  0
LWPOLYLINE
  5
F772
330
F770
100
AcDbEntity
  8
0
  6
ByBlock
 62
     0
 48
50.0
100
AcDbPolyline
 90
        2
 70
     1
 43
0.5
 10
-0.0625
 20
0.0
 42
1.0
 10
0.0625
 20
0.0
 42
1.0
  0
ENDBLK
  5
F776
330
F770
100
AcDbEntity
  8
0
 48
50.0
100
AcDbBlockEnd
  0
BLOCK
  5
164BA
330
164B4
100
AcDbEntity
  8
0
 48
50.0
100
AcDbBlockBegin
  2
_DOT
 70
     0
 10
0.0
 20
0.0
 30
0.0
  3
_DOT
  1

  0
LWPOLYLINE
  5
164B5
330
164B4
100
AcDbEntity
  8
0
  6
ByBlock
 62
     0
 48
50.0
100
AcDbPolyline
 90
        2
 70
     1
 43
0.5
 10
-0.25
 20
0.0
 42
1.0
 10
0.25
 20
0.0
 42
1.0
  0
LINE
  5
164B9
330
164B4
100
AcDbEntity
  8
0
  6
ByBlock
 62
     0
 48
50.0
100
AcDbLine
 10
-0.5
 20
0.0
 30
0.0
 11
-1.0
 21
0.0
 31
0.0
  0
ENDBLK
  5
164BB
330
164B4
100
AcDbEntity
  8
0
 48
50.0
100
AcDbBlockEnd
  0
BLOCK
  5
18BC9
330
18BC8
100
AcDbEntity
  8
0
 48
50.0
100
AcDbBlockBegin
  2
*D3
 70
     1
 10
0.0
 20
0.0
 30
0.0
  3
*D3
  1

  0
LINE
  5
18BCA
330
18BC8
100
AcDbEntity
  8
寸法
 62
     0
 48
50.0
370
    -2
100
AcDbLine
 10
7649.896575106999
 20
9636.123139034717
 30
0.0
 11
8702.429862581047
 21
9636.123139034717
 31
0.0
  0
LINE
  5
18BCB
330
18BC8
100
AcDbEntity
  8
寸法
 62
     0
 48
50.0
370
    -2
100
AcDbLine
 10
7649.896575106973
 20
7846.123139034709
 30
0.0
 11
8702.429862581047
 21
7846.123139034709
 31
0.0
  0
LINE
  5
18BCC
330
18BC8
100
AcDbEntity
  8
寸法
 62
     0
 48
50.0
370
    -2
100
AcDbLine
 10
8642.429862581046
 20
9636.123139034717
 30
0.0
 11
8642.429862581046
 21
7846.123139034709
 31
0.0
  0
INSERT
  5
18BCD
330
18BC8
100
AcDbEntity
  8
寸法
 62
     0
 48
50.0
370
    -2
100
AcDbBlockReference
  2
_DOTSMALL
 10
8642.429862581046
 20
9636.123139034717
 30
0.0
 41
100.0
 42
100.0
 43
100.0
 50
90.0
  0
INSERT
  5
18BCE
330
18BC8
100
AcDbEntity
  8
寸法
 62
     0
 48
50.0
370
    -2
100
AcDbBlockReference
  2
_DOTSMALL
 10
8642.429862581046
 20
7846.123139034709
 30
0.0
 41
100.0
 42
100.0
 43
100.0
 50
270.0
  0
MTEXT
  5
18BCF
330
18BC8
100
AcDbEntity
  8
寸法
 62
     7
 48
50.0
100
AcDbMText
 10
8542.429862581045
 20
8741.123139034712
 30
0.0
 40
120.0
 41
0.0
 71
     5
 72
     1
  1
\A1;1790
  7
STYLE1
 11
0.0000000000000001
 21
1.0
 31
0.0
 73
     1
 44
1.0
1001
ACAD
1000
MTEXTBEGIN
1070
    73
1070
     1
1070
    44
1040
1.0
1070
    74
1070
     0
1000
MTEXTEND
  0
POINT
  5
18BD0
330
18BC8
100
AcDbEntity
  8
DEFPOINTS
 62
     0
 48
50.0
100
AcDbPoint
 10
7629.896575106998
 20
9636.123139034717
 30
0.0
  0
POINT
  5
18BD1
330
18BC8
100
AcDbEntity
  8
DEFPOINTS
 62
     0
 48
50.0
100
AcDbPoint
 10
7629.896575106974
 20
7846.123139034709
 30
0.0
  0
POINT
  5
18BD2
330
18BC8
100
AcDbEntity
  8
DEFPOINTS
 62
     0
 48
50.0
100
AcDbPoint
 10
8642.429862581046
 20
7846.123139034709
 30
0.0
  0
ENDBLK
  5
18BD3
330
18BC8
100
AcDbEntity
  8
0
 48
50.0
100
AcDbBlockEnd
  0
BLOCK
  5
18BD5
330
18BD4
100
AcDbEntity
  8
0
 48
50.0
100
AcDbBlockBegin
  2
*D4
 70
     1
 10
0.0
 20
0.0
 30
0.0
  3
*D4
  1

  0
LINE
  5
18BD6
330
18BD4
100
AcDbEntity
  8
寸法
 62
     0
 48
50.0
370
    -2
100
AcDbLine
 10
4214.896575106998
 20
9656.123139034622
 30
0.0
 11
4214.896575106998
 21
10211.93135865972
 31
0.0
  0
LINE
  5
18BD7
330
18BD4
100
AcDbEntity
  8
寸法
 62
     0
 48
50.0
370
    -2
100
AcDbLine
 10
7574.896575106999
 20
9656.123139034718
 30
0.0
 11
7574.896575106999
 21
10211.93135865972
 31
0.0
  0
LINE
  5
18BD8
330
18BD4
100
AcDbEntity
  8
寸法
 62
     0
 48
50.0
370
    -2
100
AcDbLine
 10
4214.896575106998
 20
10151.93135865972
 30
0.0
 11
7574.896575106999
 21
10151.93135865972
 31
0.0
  0
INSERT
  5
18BD9
330
18BD4
100
AcDbEntity
  8
寸法
 62
     0
 48
50.0
370
    -2
100
AcDbBlockReference
  2
_DOTSMALL
 10
4214.896575106998
 20
10151.93135865972
 30
0.0
 41
100.0
 42
100.0
 43
100.0
 50
180.0
  0
INSERT
  5
18BDA
330
18BD4
100
AcDbEntity
  8
寸法
 62
     0
 48
50.0
370
    -2
100
AcDbBlockReference
  2
_DOTSMALL
 10
7574.896575106999
 20
10151.93135865972
 30
0.0
 41
100.0
 42
100.0
 43
100.0
  0
MTEXT
  5
18BDB
330
18BD4
100
AcDbEntity
  8
寸法
 62
     7
 48
50.0
100
AcDbMText
 10
5894.896575106997
 20
10251.94316968334
 30
0.0
 40
120.0
 41
0.0
 71
     5
 72
     1
  1
\A1;8X420=3360
  7
STYLE1
 73
     1
 44
1.0
1001
ACAD
1000
MTEXTBEGIN
1070
    73
1070
     1
1070
    44
1040
1.0
1070
    74
1070
     0
1000
MTEXTEND
  0
POINT
  5
18BDC
330
18BD4
100
AcDbEntity
  8
DEFPOINTS
 62
     0
 48
50.0
100
AcDbPoint
 10
4214.896575106998
 20
9636.123139034623
 30
0.0
  0
POINT
  5
18BDD
330
18BD4
100
AcDbEntity
  8
DEFPOINTS
 62
     0
 48
50.0
100
AcDbPoint
 10
7574.896575106999
 20
9636.123139034717
 30
0.0
  0
POINT
  5
18BDE
330
18BD4
100
AcDbEntity
  8
DEFPOINTS
 62
     0
 48
50.0
100
AcDbPoint
 10
7574.896575106999
 20
10151.93135865972
 30
0.0
  0
ENDBLK
  5
18BDF
330
18BD4
100
AcDbEntity
  8
0
 48
50.0
100
AcDbBlockEnd
  0
BLOCK
  5
18BE1
330
18BE0
100
AcDbEntity
  8
0
 48
50.0
100
AcDbBlockBegin
  2
*D5
 70
     1
 10
0.0
 20
0.0
 30
0.0
  3
*D5
  1

  0
LINE
  5
18BE2
330
18BE0
100
AcDbEntity
  8
寸法
 62
     0
 48
50.0
370
    -2
100
AcDbLine
 10
7574.896575106999
 20
9656.123139034718
 30
0.0
 11
7574.896575106999
 21
10211.9313586597
 31
0.0
  0
LINE
  5
18BE3
330
18BE0
100
AcDbEntity
  8
寸法
 62
     0
 48
50.0
370
    -2
100
AcDbLine
 10
7629.896575106998
 20
9656.123139034718
 30
0.0
 11
7629.896575106998
 21
10211.9313586597
 31
0.0
  0
LINE
  5
18BE4
330
18BE0
100
AcDbEntity
  8
寸法
 62
     0
 48
50.0
370
    -2
100
AcDbLine
 10
7574.896575106999
 20
10151.9313586597
 30
0.0
 11
7474.896575106999
 21
10151.9313586597
 31
0.0
  0
LINE
  5
18BE5
330
18BE0
100
AcDbEntity
  8
寸法
 62
     0
 48
50.0
370
    -2
100
AcDbLine
 10
7629.896575106998
 20
10151.9313586597
 30
0.0
 11
8046.867137855477
 21
10151.9313586597
 31
0.0
  0
LINE
  5
18BE6
330
18BE0
100
AcDbEntity
  8
寸法
 62
     0
 48
50.0
370
    -2
100
AcDbLine
 10
7574.896575106999
 20
10151.9313586597
 30
0.0
 11
7629.896575106998
 21
10151.9313586597
 31
0.0
  0
INSERT
  5
18BE7
330
18BE0
100
AcDbEntity
  8
寸法
 62
     0
 48
50.0
370
    -2
100
AcDbBlockReference
  2
_DOTSMALL
 10
7574.896575106999
 20
10151.9313586597
 30
0.0
 41
100.0
 42
100.0
 43
100.0
  0
INSERT
  5
18BE8
330
18BE0
100
AcDbEntity
  8
寸法
 62
     0
 48
50.0
370
    -2
100
AcDbBlockReference
  2
_DOTSMALL
 10
7629.896575106998
 20
10151.9313586597
 30
0.0
 41
100.0
 42
100.0
 43
100.0
 50
180.0
  0
MTEXT
  5
18BE9
330
18BE0
100
AcDbEntity
  8
寸法
 62
     7
 48
50.0
100
AcDbMText
 10
7938.381856481237
 20
10251.9313586597
 30
0.0
 40
120.0
 41
0.0
 71
     5
 72
     1
  1
\A1;55
  7
STYLE1
 73
     1
 44
1.0
1001
ACAD
1000
MTEXTBEGIN
1070
    73
1070
     1
1070
    44
1040
1.0
1070
    74
1070
     0
1000
MTEXTEND
  0
POINT
  5
18BEA
330
18BE0
100
AcDbEntity
  8
DEFPOINTS
 62
     0
 48
50.0
100
AcDbPoint
 10
7574.896575106999
 20
9636.123139034717
 30
0.0
  0
POINT
  5
18BEB
330
18BE0
100
AcDbEntity
  8
DEFPOINTS
 62
     0
 48
50.0
100
AcDbPoint
 10
7629.896575106998
 20
9636.123139034717
 30
0.0
  0
POINT
  5
18BEC
330
18BE0
100
AcDbEntity
  8
DEFPOINTS
 62
     0
 48
50.0
100
AcDbPoint
 10
7629.896575106998
 20
10151.9313586597
 30
0.0
  0
ENDBLK
  5
18BED
330
18BE0
100
AcDbEntity
  8
0
 48
50.0
100
AcDbBlockEnd
  0
BLOCK
  5
18BEF
330
18BEE
100
AcDbEntity
  8
0
 48
50.0
100
AcDbBlockBegin
  2
*D6
 70
     1
 10
0.0
 20
0.0
 30
0.0
  3
*D6
  1

  0
LINE
  5
18BF0
330
18BEE
100
AcDbEntity
  8
寸法
 62
     0
 48
50.0
370
    -2
100
AcDbLine
 10
7649.896575106999
 20
9636.123139034717
 30
0.0
 11
8337.32292084141
 21
9636.123139034717
 31
0.0
  0
LINE
  5
18BF1
330
18BEE
100
AcDbEntity
  8
寸法
 62
     0
 48
50.0
370
    -2
100
AcDbLine
 10
7649.896575106999
 20
9581.123139034721
 30
0.0
 11
8337.32292084141
 21
9581.123139034721
 31
0.0
  0
LINE
  5
18BF2
330
18BEE
100
AcDbEntity
  8
寸法
 62
     0
 48
50.0
370
    -2
100
AcDbLine
 10
8277.322920841411
 20
9581.123139034721
 30
0.0
 11
8277.322920841411
 21
9481.123139034719
 31
0.0
  0
LINE
  5
18BF3
330
18BEE
100
AcDbEntity
  8
寸法
 62
     0
 48
50.0
370
    -2
100
AcDbLine
 10
8277.322920841411
 20
9636.123139034717
 30
0.0
 11
8277.322920841411
 21
10053.09370178319
 31
0.0
  0
LINE
  5
18BF4
330
18BEE
100
AcDbEntity
  8
寸法
 62
     0
 48
50.0
370
    -2
100
AcDbLine
 10
8277.322920841411
 20
9581.123139034721
 30
0.0
 11
8277.322920841411
 21
9636.123139034717
 31
0.0
  0
INSERT
  5
18BF5
330
18BEE
100
AcDbEntity
  8
寸法
 62
     0
 48
50.0
370
    -2
100
AcDbBlockReference
  2
_DOTSMALL
 10
8277.322920841411
 20
9581.123139034721
 30
0.0
 41
100.0
 42
100.0
 43
100.0
 50
90.0
  0
INSERT
  5
18BF6
330
18BEE
100
AcDbEntity
  8
寸法
 62
     0
 48
50.0
370
    -2
100
AcDbBlockReference
  2
_DOTSMALL
 10
8277.322920841411
 20
9636.123139034717
 30
0.0
 41
100.0
 42
100.0
 43
100.0
 50
270.0
  0
MTEXT
  5
18BF7
330
18BEE
100
AcDbEntity
  8
寸法
 62
     7
 48
50.0
100
AcDbMText
 10
8177.32292084141
 20
9944.608420408957
 30
0.0
 40
120.0
 41
0.0
 71
     5
 72
     1
  1
\A1;55
  7
STYLE1
 11
0.0000000000000001
 21
1.0
 31
0.0
 73
     1
 44
1.0
1001
ACAD
1000
MTEXTBEGIN
1070
    73
1070
     1
1070
    44
1040
1.0
1070
    74
1070
     0
1000
MTEXTEND
  0
POINT
  5
18BF8
330
18BEE
100
AcDbEntity
  8
DEFPOINTS
 62
     0
 48
50.0
100
AcDbPoint
 10
7629.896575106998
 20
9636.123139034717
 30
0.0
  0
POINT
  5
18BF9
330
18BEE
100
AcDbEntity
  8
DEFPOINTS
 62
     0
 48
50.0
100
AcDbPoint
 10
7629.896575106998
 20
9581.123139034721
 30
0.0
  0
POINT
  5
18BFA
330
18BEE
100
AcDbEntity
  8
DEFPOINTS
 62
     0
 48
50.0
100
AcDbPoint
 10
8277.322920841411
 20
9581.123139034721
 30
0.0
  0
ENDBLK
  5
18BFB
330
18BEE
100
AcDbEntity
  8
0
 48
50.0
100
AcDbBlockEnd
  0
BLOCK
  5
18BFD
330
18BFC
100
AcDbEntity
  8
0
 48
50.0
100
AcDbBlockBegin
  2
*D7
 70
     1
 10
0.0
 20
0.0
 30
0.0
  3
*D7
  1

  0
LINE
  5
18BFE
330
18BFC
100
AcDbEntity
  8
寸法
 62
     0
 48
50.0
370
    -2
100
AcDbLine
 10
4159.896575106963
 20
9656.123139034622
 30
0.0
 11
4159.896575106963
 21
10211.9313586596
 31
0.0
  0
LINE
  5
18BFF
330
18BFC
100
AcDbEntity
  8
寸法
 62
     0
 48
50.0
370
    -2
100
AcDbLine
 10
4214.896575106998
 20
9656.123139034622
 30
0.0
 11
4214.896575106998
 21
10211.9313586596
 31
0.0
  0
LINE
  5
18C00
330
18BFC
100
AcDbEntity
  8
寸法
 62
     0
 48
50.0
370
    -2
100
AcDbLine
 10
4214.896575106998
 20
10151.9313586596
 30
0.0
 11
4314.896575106998
 21
10151.9313586596
 31
0.0
  0
LINE
  5
18C01
330
18BFC
100
AcDbEntity
  8
寸法
 62
     0
 48
50.0
370
    -2
100
AcDbLine
 10
4159.896575106963
 20
10151.9313586596
 30
0.0
 11
3742.926012358486
 21
10151.9313586596
 31
0.0
  0
LINE
  5
18C02
330
18BFC
100
AcDbEntity
  8
寸法
 62
     0
 48
50.0
370
    -2
100
AcDbLine
 10
4214.896575106998
 20
10151.9313586596
 30
0.0
 11
4159.896575106963
 21
10151.9313586596
 31
0.0
  0
INSERT
  5
18C03
330
18BFC
100
AcDbEntity
  8
寸法
 62
     0
 48
50.0
370
    -2
100
AcDbBlockReference
  2
_DOTSMALL
 10
4214.896575106998
 20
10151.9313586596
 30
0.0
 41
100.0
 42
100.0
 43
100.0
 50
180.0
  0
INSERT
  5
18C04
330
18BFC
100
AcDbEntity
  8
寸法
 62
     0
 48
50.0
370
    -2
100
AcDbBlockReference
  2
_DOTSMALL
 10
4159.896575106963
 20
10151.9313586596
 30
0.0
 41
100.0
 42
100.0
 43
100.0
  0
MTEXT
  5
18C05
330
18BFC
100
AcDbEntity
  8
寸法
 62
     7
 48
50.0
100
AcDbMText
 10
3851.411293732725
 20
10251.9313586596
 30
0.0
 40
120.0
 41
0.0
 71
     5
 72
     1
  1
\A1;55
  7
STYLE1
 73
     1
 44
1.0
1001
ACAD
1000
MTEXTBEGIN
1070
    73
1070
     1
1070
    44
1040
1.0
1070
    74
1070
     0
1000
MTEXTEND
  0
POINT
  5
18C06
330
18BFC
100
AcDbEntity
  8
DEFPOINTS
 62
     0
 48
50.0
100
AcDbPoint
 10
4159.896575106963
 20
9636.123139034623
 30
0.0
  0
POINT
  5
18C07
330
18BFC
100
AcDbEntity
  8
DEFPOINTS
 62
     0
 48
50.0
100
AcDbPoint
 10
4214.896575106998
 20
9636.123139034623
 30
0.0
  0
POINT
  5
18C08
330
18BFC
100
AcDbEntity
  8
DEFPOINTS
 62
     0
 48
50.0
100
AcDbPoint
 10
4214.896575106998
 20
10151.9313586596
 30
0.0
  0
ENDBLK
  5
18C09
330
18BFC
100
AcDbEntity
  8
0
 48
50.0
100
AcDbBlockEnd
  0
BLOCK
  5
18C0B
330
18C0A
100
AcDbEntity
  8
0
 48
50.0
100
AcDbBlockBegin
  2
*D8
 70
     1
 10
0.0
 20
0.0
 30
0.0
  3
*D8
  1

  0
LINE
  5
18C0C
330
18C0A
100
AcDbEntity
  8
寸法
 62
     0
 48
50.0
370
    -2
100
AcDbLine
 10
4159.896575106992
 20
7826.123139034546
 30
0.0
 11
4159.896575106992
 21
6804.372203245664
 31
0.0
  0
LINE
  5
18C0D
330
18C0A
100
AcDbEntity
  8
寸法
 62
     0
 48
50.0
370
    -2
100
AcDbLine
 10
7629.896575106974
 20
7826.123139034674
 30
0.0
 11
7629.896575106974
 21
6804.372203245664
 31
0.0
  0
LINE
  5
18C0E
330
18C0A
100
AcDbEntity
  8
寸法
 62
     0
 48
50.0
370
    -2
100
AcDbLine
 10
4159.896575106992
 20
6864.372203245665
 30
0.0
 11
7629.896575106974
 21
6864.372203245665
 31
0.0
  0
INSERT
  5
18C0F
330
18C0A
100
AcDbEntity
  8
寸法
 62
     0
 48
50.0
370
    -2
100
AcDbBlockReference
  2
_DOTSMALL
 10
4159.896575106992
 20
6864.372203245665
 30
0.0
 41
100.0
 42
100.0
 43
100.0
 50
180.0
  0
INSERT
  5
18C10
330
18C0A
100
AcDbEntity
  8
寸法
 62
     0
 48
50.0
370
    -2
100
AcDbBlockReference
  2
_DOTSMALL
 10
7629.896575106974
 20
6864.372203245665
 30
0.0
 41
100.0
 42
100.0
 43
100.0
  0
MTEXT
  5
18C11
330
18C0A
100
AcDbEntity
  8
寸法
 62
     7
 48
50.0
100
AcDbMText
 10
5911.12376113973
 20
6964.372203245665
 30
0.0
 40
120.0
 41
0.0
 71
     5
 72
     1
  1
\A1;3470
  7
STYLE1
 73
     1
 44
1.0
1001
ACAD
1000
MTEXTBEGIN
1070
    73
1070
     1
1070
    44
1040
1.0
1070
    74
1070
     0
1000
MTEXTEND
  0
POINT
  5
18C12
330
18C0A
100
AcDbEntity
  8
DEFPOINTS
 62
     0
 48
50.0
100
AcDbPoint
 10
4159.896575106992
 20
7846.123139034546
 30
0.0
  0
POINT
  5
18C13
330
18C0A
100
AcDbEntity
  8
DEFPOINTS
 62
     0
 48
50.0
100
AcDbPoint
 10
7629.896575106974
 20
7846.123139034673
 30
0.0
  0
POINT
  5
18C14
330
18C0A
100
AcDbEntity
  8
DEFPOINTS
 62
     0
 48
50.0
100
AcDbPoint
 10
7629.896575106974
 20
6864.372203245665
 30
0.0
  0
ENDBLK
  5
18C15
330
18C0A
100
AcDbEntity
  8
0
 48
50.0
100
AcDbBlockEnd
  0
BLOCK
  5
18C17
330
18C16
100
AcDbEntity
  8
0
 48
50.0
100
AcDbBlockBegin
  2
*D9
 70
     1
 10
0.0
 20
0.0
 30
0.0
  3
*D9
  1

  0
LINE
  5
18C18
330
18C16
100
AcDbEntity
  8
寸法
 62
     0
 48
50.0
370
    -2
100
AcDbLine
 10
7649.896575106973
 20
7901.123139034706
 30
0.0
 11
8337.322920841385
 21
7901.123139034706
 31
0.0
  0
LINE
  5
18C19
330
18C16
100
AcDbEntity
  8
寸法
 62
     0
 48
50.0
370
    -2
100
AcDbLine
 10
7649.896575106973
 20
7846.123139034709
 30
0.0
 11
8337.322920841385
 21
7846.123139034709
 31
0.0
  0
LINE
  5
18C1A
330
18C16
100
AcDbEntity
  8
寸法
 62
     0
 48
50.0
370
    -2
100
AcDbLine
 10
8277.322920841385
 20
7901.123139034706
 30
0.0
 11
8277.322920841385
 21
8001.123139034707
 31
0.0
  0
LINE
  5
18C1B
330
18C16
100
AcDbEntity
  8
寸法
 62
     0
 48
50.0
370
    -2
100
AcDbLine
 10
8277.322920841385
 20
7846.123139034709
 30
0.0
 11
8277.322920841385
 21
7429.152576286229
 31
0.0
  0
LINE
  5
18C1C
330
18C16
100
AcDbEntity
  8
寸法
 62
     0
 48
50.0
370
    -2
100
AcDbLine
 10
8277.322920841385
 20
7901.123139034706
 30
0.0
 11
8277.322920841385
 21
7846.123139034709
 31
0.0
  0
INSERT
  5
18C1D
330
18C16
100
AcDbEntity
  8
寸法
 62
     0
 48
50.0
370
    -2
100
AcDbBlockReference
  2
_DOTSMALL
 10
8277.322920841385
 20
7901.123139034706
 30
0.0
 41
100.0
 42
100.0
 43
100.0
 50
270.0
  0
INSERT
  5
18C1E
330
18C16
100
AcDbEntity
  8
寸法
 62
     0
 48
50.0
370
    -2
100
AcDbBlockReference
  2
_DOTSMALL
 10
8277.322920841385
 20
7846.123139034709
 30
0.0
 41
100.0
 42
100.0
 43
100.0
 50
90.0
  0
MTEXT
  5
18C1F
330
18C16
100
AcDbEntity
  8
寸法
 62
     7
 48
50.0
100
AcDbMText
 10
8177.322920841383
 20
7537.637857660469
 30
0.0
 40
120.0
 41
0.0
 71
     5
 72
     1
  1
\A1;55
  7
STYLE1
 11
0.0000000000000001
 21
1.0
 31
0.0
 73
     1
 44
1.0
1001
ACAD
1000
MTEXTBEGIN
1070
    73
1070
     1
1070
    44
1040
1.0
1070
    74
1070
     0
1000
MTEXTEND
  0
POINT
  5
18C20
330
18C16
100
AcDbEntity
  8
DEFPOINTS
 62
     0
 48
50.0
100
AcDbPoint
 10
7629.896575106974
 20
7901.123139034706
 30
0.0
  0
POINT
  5
18C21
330
18C16
100
AcDbEntity
  8
DEFPOINTS
 62
     0
 48
50.0
100
AcDbPoint
 10
7629.896575106974
 20
7846.123139034709
 30
0.0
  0
POINT
  5
18C22
330
18C16
100
AcDbEntity
  8
DEFPOINTS
 62
     0
 48
50.0
100
AcDbPoint
 10
8277.322920841385
 20
7846.123139034709
 30
0.0
  0
ENDBLK
  5
18C23
330
18C16
100
AcDbEntity
  8
0
 48
50.0
100
AcDbBlockEnd
  0
BLOCK
  5
18C25
330
18C24
100
AcDbEntity
  8
0
 48
50.0
100
AcDbBlockBegin
  2
*D10
 70
     1
 10
0.0
 20
0.0
 30
0.0
  3
*D10
  1

  0
LINE
  5
18C26
330
18C24
100
AcDbEntity
  8
寸法
 62
     0
 48
50.0
370
    -2
100
AcDbLine
 10
6533.037591258376
 20
9136.123139034728
 30
0.0
 11
6465.083950562664
 21
8882.516699399049
 31
0.0
  0
LINE
  5
18C27
330
18C24
100
AcDbEntity
  8
寸法
 62
     0
 48
50.0
370
    -2
100
AcDbLine
 10
7596.037591258388
 20
9136.123139034721
 30
0.0
 11
7528.083950562677
 21
8882.516699399049
 31
0.0
  0
LINE
  5
18C28
330
18C24
100
AcDbEntity
  8
寸法
 62
     0
 48
50.0
370
    -2
100
AcDbLine
 10
6481.160902108531
 20
8942.51669939905
 30
0.0
 11
7544.160902108544
 21
8942.51669939905
 31
0.0
  0
INSERT
  5
18C29
330
18C24
100
AcDbEntity
  8
寸法
 62
     0
 48
50.0
370
    -2
100
AcDbBlockReference
  2
_DOTSMALL
 10
6481.160902108531
 20
8942.51669939905
 30
0.0
 41
100.0
 42
100.0
 43
100.0
 50
180.0
  0
INSERT
  5
18C2A
330
18C24
100
AcDbEntity
  8
寸法
 62
     0
 48
50.0
370
    -2
100
AcDbBlockReference
  2
_DOTSMALL
 10
7544.160902108544
 20
8942.51669939905
 30
0.0
 41
100.0
 42
100.0
 43
100.0
  0
MTEXT
  5
18C2B
330
18C24
100
AcDbEntity
  8
寸法
 62
     7
 48
50.0
100
AcDbMText
 10
7061.28653022935
 20
9042.516699399049
 30
0.0
 40
120.0
 41
0.0
 71
     5
 72
     1
  1
\A1;1063
  7
STYLE1
 73
     1
 44
1.0
1001
ACAD
1000
MTEXTBEGIN
1070
    73
1070
     1
1070
    44
1040
1.0
1070
    74
1070
     0
1000
MTEXTEND
  0
POINT
  5
18C2C
330
18C24
100
AcDbEntity
  8
DEFPOINTS
 62
     0
 48
50.0
100
AcDbPoint
 10
6538.396575106998
 20
9156.123139034727
 30
0.0
  0
POINT
  5
18C2D
330
18C24
100
AcDbEntity
  8
DEFPOINTS
 62
     0
 48
50.0
100
AcDbPoint
 10
7601.39657510701
 20
9156.12313903472
 30
0.0
  0
POINT
  5
18C2E
330
18C24
100
AcDbEntity
  8
DEFPOINTS
 62
     0
 48
50.0
100
AcDbPoint
 10
7544.160902108544
 20
8942.51669939905
 30
0.0
  0
ENDBLK
  5
18C2F
330
18C24
100
AcDbEntity
  8
0
 48
50.0
100
AcDbBlockEnd
  0
BLOCK
  5
18C31
330
18C30
100
AcDbEntity
  8
0
 48
50.0
100
AcDbBlockBegin
  2
*D11
 70
     1
 10
0.0
 20
0.0
 30
0.0
  3
*D11
  1

  0
LINE
  5
18C32
330
18C30
100
AcDbEntity
  8
寸法
 62
     0
 48
50.0
370
    -2
100
AcDbLine
 10
7621.396575106999
 20
9600.764155186094
 30
0.0
 11
8016.754300969024
 21
9494.828371819961
 31
0.0
  0
LINE
  5
18C33
330
18C30
100
AcDbEntity
  8
寸法
 62
     0
 48
50.0
370
    -2
100
AcDbLine
 10
7621.396575106999
 20
9150.764155186099
 30
0.0
 11
8016.754300969024
 21
9044.828371819964
 31
0.0
  0
LINE
  5
18C34
330
18C30
100
AcDbEntity
  8
寸法
 62
     0
 48
50.0
370
    -2
100
AcDbLine
 10
7956.754300969024
 20
9510.905323365827
 30
0.0
 11
7956.754300969024
 21
9060.90532336583
 31
0.0
  0
INSERT
  5
18C35
330
18C30
100
AcDbEntity
  8
寸法
 62
     0
 48
50.0
370
    -2
100
AcDbBlockReference
  2
_DOTSMALL
 10
7956.754300969024
 20
9510.905323365827
 30
0.0
 41
100.0
 42
100.0
 43
100.0
 50
90.0
  0
INSERT
  5
18C36
330
18C30
100
AcDbEntity
  8
寸法
 62
     0
 48
50.0
370
    -2
100
AcDbBlockReference
  2
_DOTSMALL
 10
7956.754300969024
 20
9060.90532336583
 30
0.0
 41
100.0
 42
100.0
 43
100.0
 50
270.0
  0
MTEXT
  5
18C37
330
18C30
100
AcDbEntity
  8
寸法
 62
     7
 48
50.0
100
AcDbMText
 10
7856.754300969022
 20
9285.905323365829
 30
0.0
 40
120.0
 41
0.0
 71
     5
 72
     1
  1
\A1;450
  7
STYLE1
 11
0.0000000000000001
 21
1.0
 31
0.0
 73
     1
 44
1.0
1001
ACAD
1000
MTEXTBEGIN
1070
    73
1070
     1
1070
    44
1040
1.0
1070
    74
1070
     0
1000
MTEXTEND
  0
POINT
  5
18C38
330
18C30
100
AcDbEntity
  8
DEFPOINTS
 62
     0
 48
50.0
100
AcDbPoint
 10
7601.396575106999
 20
9606.123139034718
 30
0.0
  0
POINT
  5
18C39
330
18C30
100
AcDbEntity
  8
DEFPOINTS
 62
     0
 48
50.0
100
AcDbPoint
 10
7601.396575106999
 20
9156.12313903472
 30
0.0
  0
POINT
  5
18C3A
330
18C30
100
AcDbEntity
  8
DEFPOINTS
 62
     0
 48
50.0
100
AcDbPoint
 10
7956.754300969024
 20
9060.90532336583
 30
0.0
  0
ENDBLK
  5
18C3B
330
18C30
100
AcDbEntity
  8
0
 48
50.0
100
AcDbBlockEnd
  0
BLOCK
  5
18C3D
330
18C3C
100
AcDbEntity
  8
0
 48
50.0
100
AcDbBlockBegin
  2
*D12
 70
     1
 10
0.0
 20
0.0
 30
0.0
  3
*D12
  1

  0
LINE
  5
18C3E
330
18C3C
100
AcDbEntity
  8
寸法
 62
     0
 48
50.0
370
    -2
100
AcDbLine
 10
7649.896575106999
 20
9581.123139034721
 30
0.0
 11
8337.32292084141
 21
9581.123139034721
 31
0.0
  0
LINE
  5
18C3F
330
18C3C
100
AcDbEntity
  8
寸法
 62
     0
 48
50.0
370
    -2
100
AcDbLine
 10
7649.896575106973
 20
7901.123139034706
 30
0.0
 11
8337.32292084141
 21
7901.123139034706
 31
0.0
  0
LINE
  5
18C40
330
18C3C
100
AcDbEntity
  8
寸法
 62
     0
 48
50.0
370
    -2
100
AcDbLine
 10
8277.322920841411
 20
9581.123139034721
 30
0.0
 11
8277.322920841411
 21
7901.123139034706
 31
0.0
  0
INSERT
  5
18C41
330
18C3C
100
AcDbEntity
  8
寸法
 62
     0
 48
50.0
370
    -2
100
AcDbBlockReference
  2
_DOTSMALL
 10
8277.322920841411
 20
9581.123139034721
 30
0.0
 41
100.0
 42
100.0
 43
100.0
 50
90.0
  0
INSERT
  5
18C42
330
18C3C
100
AcDbEntity
  8
寸法
 62
     0
 48
50.0
370
    -2
100
AcDbBlockReference
  2
_DOTSMALL
 10
8277.322920841411
 20
7901.123139034706
 30
0.0
 41
100.0
 42
100.0
 43
100.0
 50
270.0
  0
MTEXT
  5
18C43
330
18C3C
100
AcDbEntity
  8
寸法
 62
     7
 48
50.0
100
AcDbMText
 10
8177.311109817788
 20
8741.123139034712
 30
0.0
 40
120.0
 41
0.0
 71
     5
 72
     1
  1
\A1;4X420=1680
  7
STYLE1
 11
0.0000000000000001
 21
1.0
 31
0.0
 73
     1
 44
1.0
1001
ACAD
1000
MTEXTBEGIN
1070
    73
1070
     1
1070
    44
1040
1.0
1070
    74
1070
     0
1000
MTEXTEND
  0
POINT
  5
18C44
330
18C3C
100
AcDbEntity
  8
DEFPOINTS
 62
     0
 48
50.0
100
AcDbPoint
 10
7629.896575106998
 20
9581.123139034721
 30
0.0
  0
POINT
  5
18C45
330
18C3C
100
AcDbEntity
  8
DEFPOINTS
 62
     0
 48
50.0
100
AcDbPoint
 10
7629.896575106974
 20
7901.123139034706
 30
0.0
  0
POINT
  5
18C46
330
18C3C
100
AcDbEntity
  8
DEFPOINTS
 62
     0
 48
50.0
100
AcDbPoint
 10
8277.322920841411
 20
7901.123139034706
 30
0.0
  0
ENDBLK
  5
18C47
330
18C3C
100
AcDbEntity
  8
0
 48
50.0
100
AcDbBlockEnd
  0
BLOCK
  5
18C49
330
18C48
100
AcDbEntity
  8
0
 48
50.0
100
AcDbBlockBegin
  2
*D13
 70
     1
 10
0.0
 20
0.0
 30
0.0
  3
*D13
  1

  0
LINE
  5
18C4A
330
18C48
100
AcDbEntity
  8
寸法
 62
     0
 48
50.0
370
    -2
100
AcDbLine
 10
4183.037591258377
 20
9136.123139034619
 30
0.0
 11
4115.083950562663
 21
8882.516699398941
 31
0.0
  0
LINE
  5
18C4B
330
18C48
100
AcDbEntity
  8
寸法
 62
     0
 48
50.0
370
    -2
100
AcDbLine
 10
5246.037591258307
 20
9136.123139034671
 30
0.0
 11
5178.08395056258
 21
8882.516699398941
 31
0.0
  0
LINE
  5
18C4C
330
18C48
100
AcDbEntity
  8
寸法
 62
     0
 48
50.0
370
    -2
100
AcDbLine
 10
4131.160902108532
 20
8942.516699398941
 30
0.0
 11
5194.160902108448
 21
8942.516699398941
 31
0.0
  0
INSERT
  5
18C4D
330
18C48
100
AcDbEntity
  8
寸法
 62
     0
 48
50.0
370
    -2
100
AcDbBlockReference
  2
_DOTSMALL
 10
4131.160902108532
 20
8942.516699398941
 30
0.0
 41
100.0
 42
100.0
 43
100.0
 50
180.0
  0
INSERT
  5
18C4E
330
18C48
100
AcDbEntity
  8
寸法
 62
     0
 48
50.0
370
    -2
100
AcDbBlockReference
  2
_DOTSMALL
 10
5194.160902108448
 20
8942.516699398941
 30
0.0
 41
100.0
 42
100.0
 43
100.0
  0
MTEXT
  5
18C4F
330
18C48
100
AcDbEntity
  8
寸法
 62
     7
 48
50.0
100
AcDbMText
 10
4658.986452655306
 20
9042.516699398941
 30
0.0
 40
120.0
 41
0.0
 71
     5
 72
     1
  1
\A1;1063
  7
STYLE1
 73
     1
 44
1.0
1001
ACAD
1000
MTEXTBEGIN
1070
    73
1070
     1
1070
    44
1040
1.0
1070
    74
1070
     0
1000
MTEXTEND
  0
POINT
  5
18C50
330
18C48
100
AcDbEntity
  8
DEFPOINTS
 62
     0
 48
50.0
100
AcDbPoint
 10
4188.396575106999
 20
9156.123139034617
 30
0.0
  0
POINT
  5
18C51
330
18C48
100
AcDbEntity
  8
DEFPOINTS
 62
     0
 48
50.0
100
AcDbPoint
 10
5251.396575106929
 20
9156.123139034672
 30
0.0
  0
POINT
  5
18C52
330
18C48
100
AcDbEntity
  8
DEFPOINTS
 62
     0
 48
50.0
100
AcDbPoint
 10
5194.160902108448
 20
8942.516699398941
 30
0.0
  0
ENDBLK
  5
18C53
330
18C48
100
AcDbEntity
  8
0
 48
50.0
100
AcDbBlockEnd
  0
BLOCK
  5
18C55
330
18C54
100
AcDbEntity
  8
0
 48
50.0
100
AcDbBlockBegin
  2
*D14
 70
     1
 10
0.0
 20
0.0
 30
0.0
  3
*D14
  1

  0
LINE
  5
18C56
330
18C54
100
AcDbEntity
  8
寸法
 62
     0
 48
50.0
370
    -2
100
AcDbLine
 10
5274.037591258307
 20
9136.123139034669
 30
0.0
 11
5206.08395056258
 21
8882.516699398941
 31
0.0
  0
LINE
  5
18C57
330
18C54
100
AcDbEntity
  8
寸法
 62
     0
 48
50.0
370
    -2
100
AcDbLine
 10
6505.037591258377
 20
9136.123139034662
 30
0.0
 11
6437.083950562653
 21
8882.516699398941
 31
0.0
  0
LINE
  5
18C58
330
18C54
100
AcDbEntity
  8
寸法
 62
     0
 48
50.0
370
    -2
100
AcDbLine
 10
5222.160902108448
 20
8942.516699398941
 30
0.0
 11
6453.16090210852
 21
8942.516699398941
 31
0.0
  0
INSERT
  5
18C59
330
18C54
100
AcDbEntity
  8
寸法
 62
     0
 48
50.0
370
    -2
100
AcDbBlockReference
  2
_DOTSMALL
 10
5222.160902108448
 20
8942.516699398941
 30
0.0
 41
100.0
 42
100.0
 43
100.0
 50
180.0
  0
INSERT
  5
18C5A
330
18C54
100
AcDbEntity
  8
寸法
 62
     0
 48
50.0
370
    -2
100
AcDbBlockReference
  2
_DOTSMALL
 10
6453.16090210852
 20
8942.516699398941
 30
0.0
 41
100.0
 42
100.0
 43
100.0
  0
MTEXT
  5
18C5B
330
18C54
100
AcDbEntity
  8
寸法
 62
     7
 48
50.0
100
AcDbMText
 10
6081.244808320626
 20
9042.528510422561
 30
0.0
 40
120.0
 41
0.0
 71
     5
 72
     1
  1
\A1;1231
  7
STYLE1
 73
     1
 44
1.0
1001
ACAD
1000
MTEXTBEGIN
1070
    73
1070
     1
1070
    44
1040
1.0
1070
    74
1070
     0
1000
MTEXTEND
  0
POINT
  5
18C5C
330
18C54
100
AcDbEntity
  8
DEFPOINTS
 62
     0
 48
50.0
100
AcDbPoint
 10
5279.396575106929
 20
9156.123139034669
 30
0.0
  0
POINT
  5
18C5D
330
18C54
100
AcDbEntity
  8
DEFPOINTS
 62
     0
 48
50.0
100
AcDbPoint
 10
6510.396575106999
 20
9156.123139034662
 30
0.0
  0
POINT
  5
18C5E
330
18C54
100
AcDbEntity
  8
DEFPOINTS
 62
     0
 48
50.0
100
AcDbPoint
 10
6453.16090210852
 20
8942.516699398941
 30
0.0
  0
ENDBLK
  5
18C5F
330
18C54
100
AcDbEntity
  8
0
 48
50.0
100
AcDbBlockEnd
  0
BLOCK
  5
18C61
330
18C60
100
AcDbEntity
  8
0
 48
50.0
100
AcDbBlockBegin
  2
*D15
 70
     1
 10
0.0
 20
0.0
 30
0.0
  3
*D15
  1

  0
LINE
  5
18C62
330
18C60
100
AcDbEntity
  8
寸法
 62
     0
 48
50.0
370
    -2
100
AcDbLine
 10
5065.896575106966
 20
7749.123139034579
 30
0.0
 11
5065.896575106966
 21
7099.952920982538
 31
0.0
  0
LINE
  5
18C63
330
18C60
100
AcDbEntity
  8
寸法
 62
     0
 48
50.0
370
    -2
100
AcDbLine
 10
6331.896575106966
 20
7749.123139034579
 30
0.0
 11
6331.896575106966
 21
7099.952920982538
 31
0.0
  0
LINE
  5
18C64
330
18C60
100
AcDbEntity
  8
寸法
 62
     0
 48
50.0
370
    -2
100
AcDbLine
 10
5065.896575106966
 20
7159.952920982537
 30
0.0
 11
6331.896575106966
 21
7159.952920982537
 31
0.0
  0
INSERT
  5
18C65
330
18C60
100
AcDbEntity
  8
寸法
 62
     0
 48
50.0
370
    -2
100
AcDbBlockReference
  2
_DOTSMALL
 10
5065.896575106966
 20
7159.952920982537
 30
0.0
 41
100.0
 42
100.0
 43
100.0
 50
180.0
  0
INSERT
  5
18C66
330
18C60
100
AcDbEntity
  8
寸法
 62
     0
 48
50.0
370
    -2
100
AcDbBlockReference
  2
_DOTSMALL
 10
6331.896575106966
 20
7159.952920982537
 30
0.0
 41
100.0
 42
100.0
 43
100.0
  0
MTEXT
  5
18C67
330
18C60
100
AcDbEntity
  8
寸法
 62
     7
 48
50.0
100
AcDbMText
 10
5711.986008735934
 20
7359.964732006159
 30
0.0
 40
120.0
 41
0.0
 71
     5
 72
     1
  1
\A1;有効開口部間口\P1266
  7
STYLE1
 73
     1
 44
1.0
1001
ACAD
1000
MTEXTBEGIN
1070
    73
1070
     1
1070
    44
1040
1.0
1070
    74
1070
     0
1000
MTEXTEND
  0
POINT
  5
18C68
330
18C60
100
AcDbEntity
  8
DEFPOINTS
 62
     0
 48
50.0
100
AcDbPoint
 10
5065.896575106966
 20
7769.123139034579
 30
0.0
  0
POINT
  5
18C69
330
18C60
100
AcDbEntity
  8
DEFPOINTS
 62
     0
 48
50.0
100
AcDbPoint
 10
6331.896575106966
 20
7769.123139034579
 30
0.0
  0
POINT
  5
18C6A
330
18C60
100
AcDbEntity
  8
DEFPOINTS
 62
     0
 48
50.0
100
AcDbPoint
 10
6331.896575106966
 20
7159.952920982537
 30
0.0
  0
ENDBLK
  5
18C6B
330
18C60
100
AcDbEntity
  8
0
 48
50.0
100
AcDbBlockEnd
  0
BLOCK
  5
18C6D
330
18C6C
100
AcDbEntity
  8
0
 48
50.0
100
AcDbBlockBegin
  2
*D16
 70
     1
 10
0.0
 20
0.0
 30
0.0
  3
*D16
  1

  0
LINE
  5
18C6E
330
18C6C
100
AcDbEntity
  8
寸法
 62
     0
 48
50.0
370
    -2
100
AcDbLine
 10
7200.896575106966
 20
7846.123139034578
 30
0.0
 11
7457.192158500191
 21
7846.123139034578
 31
0.0
  0
LINE
  5
18C6F
330
18C6C
100
AcDbEntity
  8
寸法
 62
     0
 48
50.0
370
    -2
100
AcDbLine
 10
7199.896575106966
 20
7769.123139034579
 30
0.0
 11
7457.192158500191
 21
7769.123139034579
 31
0.0
  0
LINE
  5
18C70
330
18C6C
100
AcDbEntity
  8
寸法
 62
     0
 48
50.0
370
    -2
100
AcDbLine
 10
7417.192158500192
 20
7866.123139034579
 30
0.0
 11
7417.192158500192
 21
7886.123139034578
 31
0.0
  0
LINE
  5
18C71
330
18C6C
100
AcDbEntity
  8
寸法
 62
     0
 48
50.0
370
    -2
100
AcDbLine
 10
7417.192158500192
 20
7749.123139034579
 30
0.0
 11
7417.192158500192
 21
7533.123139034573
 31
0.0
  0
LINE
  5
18C72
330
18C6C
100
AcDbEntity
  8
寸法
 62
     0
 48
50.0
370
    -2
100
AcDbLine
 10
7417.192158500192
 20
7846.123139034578
 30
0.0
 11
7417.192158500192
 21
7769.123139034579
 31
0.0
  0
INSERT
  5
18C73
330
18C6C
100
AcDbEntity
  8
寸法
 62
     0
 48
50.0
370
    -2
100
AcDbBlockReference
  2
_DOT
 10
7417.192158500192
 20
7846.123139034578
 30
0.0
 41
20.0
 42
20.0
 43
20.0
 50
270.0
  0
INSERT
  5
18C74
330
18C6C
100
AcDbEntity
  8
寸法
 62
     0
 48
50.0
370
    -2
100
AcDbBlockReference
  2
_DOT
 10
7417.192158500192
 20
7769.123139034579
 30
0.0
 41
20.0
 42
20.0
 43
20.0
 50
90.0
  0
MTEXT
  5
18C75
330
18C6C
100
AcDbEntity
  8
寸法
 62
     7
 48
50.0
100
AcDbMText
 10
7325.192158500191
 20
7631.123139034575
 30
0.0
 40
120.0
 41
0.0
 71
     5
 72
     1
  1
\A1;77
  7
STYLE1
 11
0.0000000000000001
 21
1.0
 31
0.0
 73
     1
 44
1.0
1001
ACAD
1000
MTEXTBEGIN
1070
    73
1070
     1
1070
    44
1040
1.0
1070
    74
1070
     0
1000
MTEXTEND
  0
POINT
  5
18C76
330
18C6C
100
AcDbEntity
  8
DEFPOINTS
 62
     0
 48
50.0
100
AcDbPoint
 10
7180.896575106967
 20
7846.123139034578
 30
0.0
  0
POINT
  5
18C77
330
18C6C
100
AcDbEntity
  8
DEFPOINTS
 62
     0
 48
50.0
100
AcDbPoint
 10
7179.896575106965
 20
7769.123139034579
 30
0.0
  0
POINT
  5
18C78
330
18C6C
100
AcDbEntity
  8
DEFPOINTS
 62
     0
 48
50.0
100
AcDbPoint
 10
7417.192158500192
 20
7769.123139034579
 30
0.0
  0
ENDBLK
  5
18C79
330
18C6C
100
AcDbEntity
  8
0
 48
50.0
100
AcDbBlockEnd
  0
BLOCK
  5
18DA0
330
18C7A
100
AcDbEntity
  8
0
 48
50.0
100
AcDbBlockBegin
  2
A$C3B1A506B
 70
     0
 10
0.0
 20
0.0
 30
0.0
  3
A$C3B1A506B
  1

  0
MTEXT
  5
18C7B
330
18C7A
100
AcDbEntity
  8
寸法
 62
     7
 48
50.0
100
AcDbMText
 10
3342.250386887194
 20
2778.329429134012
 30
0.0
 40
96.0
 41
0.0
 71
     5
 72
     1
  1
棚 2段
  7
STYLE1
 73
     1
 44
1.0
1001
ACAD
1000
MTEXTBEGIN
1070
    73
1070
     1
1070
    44
1040
1.0
1070
    74
1070
     0
1000
MTEXTEND
  0
MTEXT
  5
18C7C
330
18C7A
100
AcDbEntity
  8
寸法
 62
     7
 48
50.0
100
AcDbMText
 10
2167.25038688716
 20
2778.329429133986
 30
0.0
 40
96.0
 41
0.0
 71
     5
 72
     1
  1
棚 2段
  7
STYLE1
 73
     1
 44
1.0
1001
ACAD
1000
MTEXTBEGIN
1070
    73
1070
     1
1070
    44
1040
1.0
1070
    74
1070
     0
1000
MTEXTEND
  0
MTEXT
  5
18C7D
330
18C7A
100
AcDbEntity
  8
寸法
 62
     7
 48
50.0
100
AcDbMText
 10
992.2503868871608
 20
2778.329429133935
 30
0.0
 40
96.0
 41
0.0
 71
     5
 72
     1
  1
棚 2段
  7
STYLE1
 73
     1
 44
1.0
1001
ACAD
1000
MTEXTBEGIN
1070
    73
1070
     1
1070
    44
1040
1.0
1070
    74
1070
     0
1000
MTEXTEND
  0
LINE
  5
18C7E
330
18C7A
100
AcDbEntity
  8
細線
 48
50.0
100
AcDbLine
 10
2771.970589276527
 20
1368.994384123192
 30
0.0
 11
3398.970589276523
 21
1368.994384123192
 31
0.0
  0
LINE
  5
18C7F
330
18C7A
100
AcDbEntity
  8
細線
 48
50.0
100
AcDbLine
 10
2117.970593930113
 20
1335.285615569113
 30
0.0
 11
3398.970589276523
 21
1335.285615569113
 31
0.0
  0
LINE
  5
18C80
330
18C7A
100
AcDbEntity
  8
細線
 48
50.0
100
AcDbLine
 10
2076.970593930115
 20
1364.690523565368
 30
0.0
 11
1322.970589276523
 21
1364.690523565367
 31
0.0
  0
LINE
  5
18C81
330
18C7A
100
AcDbEntity
  8
細線
100
AcDbLine
 10
3170.720579860066
 20
1388.494284088199
 30
0.0
 11
3173.052119381877
 21
1393.494286728162
 31
0.0
  0
LINE
  5
18C82
330
18C7A
100
AcDbEntity
  8
細線
100
AcDbLine
 10
3240.720589276525
 20
1388.494269174465
 30
0.0
 11
3238.389042800336
 21
1393.494286728144
 31
0.0
  0
LINE
  5
18C83
330
18C7A
100
AcDbEntity
  8
細線
100
AcDbLine
 10
3238.389042800336
 20
1393.494286728144
 30
0.0
 11
3173.052119381862
 21
1393.494286728133
 31
0.0
  0
LINE
  5
18C84
330
18C7A
100
AcDbEntity
  8
細線
100
AcDbLine
 10
3098.389042800336
 20
1393.494286728144
 30
0.0
 11
3033.052119381862
 21
1393.494286728133
 31
0.0
  0
LINE
  5
18C85
330
18C7A
100
AcDbEntity
  8
細線
100
AcDbLine
 10
3100.720589276523
 20
1388.494269174465
 30
0.0
 11
3098.389042800336
 21
1393.494286728144
 31
0.0
  0
LINE
  5
18C86
330
18C7A
100
AcDbEntity
  8
細線
100
AcDbLine
 10
3030.720579860066
 20
1388.494284088199
 30
0.0
 11
3033.052119381875
 21
1393.494286728162
 31
0.0
  0
LINE
  5
18C87
330
18C7A
100
AcDbEntity
  8
細線
100
AcDbLine
 10
2890.720589276525
 20
1388.494269174465
 30
0.0
 11
2893.052128798336
 21
1393.494271814428
 31
0.0
  0
LINE
  5
18C88
330
18C7A
100
AcDbEntity
  8
細線
100
AcDbLine
 10
2960.720598692984
 20
1388.494254260731
 30
0.0
 11
2958.389052216793
 21
1393.49427181441
 31
0.0
  0
LINE
  5
18C89
330
18C7A
100
AcDbEntity
  8
細線
100
AcDbLine
 10
2958.389052216795
 20
1393.49427181441
 30
0.0
 11
2893.052128798321
 21
1393.494271814399
 31
0.0
  0
LINE
  5
18C8A
330
18C7A
100
AcDbEntity
  8
細線
100
AcDbLine
 10
2667.139038146739
 20
1359.494298590735
 30
0.0
 11
2601.802114728263
 21
1359.494298590724
 31
0.0
  0
LINE
  5
18C8B
330
18C7A
100
AcDbEntity
  8
細線
100
AcDbLine
 10
2669.470584622926
 20
1354.494281037055
 30
0.0
 11
2667.139038146737
 21
1359.494298590735
 31
0.0
  0
LINE
  5
18C8C
330
18C7A
100
AcDbEntity
  8
細線
100
AcDbLine
 10
2599.470575206469
 20
1354.49429595079
 30
0.0
 11
2601.802114728278
 21
1359.494298590752
 31
0.0
  0
LINE
  5
18C8D
330
18C7A
100
AcDbEntity
  8
細線
 48
50.0
100
AcDbLine
 10
2440.853968524536
 20
1372.765132327548
 30
0.0
 11
2446.609486107205
 21
1354.494281037057
 31
0.0
  0
LINE
  5
18C8E
330
18C7A
100
AcDbEntity
  8
細線
 48
50.0
100
AcDbLine
 10
2429.925520044106
 20
1372.765132327546
 30
0.0
 11
2440.853968524536
 21
1372.765132327548
 31
0.0
  0
ARC
  5
18C8F
330
18C7A
100
AcDbEntity
  8
細線
 48
50.0
100
AcDbCircle
 10
2424.471163986787
 20
1374.265132327546
 30
0.0
 40
5.0
100
AcDbArc
 50
204.6243183520723
 51
335.3756816479278
  0
ARC
  5
18C90
330
18C7A
100
AcDbEntity
  8
細線
 48
50.0
100
AcDbCircle
 10
2429.925520044106
 20
1371.765132327546
 30
0.0
 40
1.0
100
AcDbArc
 50
90.0
 51
155.3756816479277
  0
ARC
  5
18C91
330
18C7A
100
AcDbEntity
  8
細線
 48
50.0
100
AcDbCircle
 10
2419.016807929469
 20
1371.765132327546
 30
0.0
 40
1.0
100
AcDbArc
 50
24.62431835207225
 51
90.0
  0
LINE
  5
18C92
330
18C7A
100
AcDbEntity
  8
細線
 48
50.0
100
AcDbLine
 10
2408.088359449037
 20
1372.765132327548
 30
0.0
 11
2419.016807929469
 21
1372.765132327546
 31
0.0
  0
LINE
  5
18C93
330
18C7A
100
AcDbEntity
  8
細線
 48
50.0
100
AcDbLine
 10
2402.33284186637
 20
1354.494281037054
 30
0.0
 11
2408.088359449037
 21
1372.765132327548
 31
0.0
  0
LINE
  5
18C94
330
18C7A
100
AcDbEntity
  8
細線
100
AcDbLine
 10
2458.070304175992
 20
1354.494278397076
 30
0.0
 11
2460.401843697802
 21
1359.494281037039
 31
0.0
  0
LINE
  5
18C95
330
18C7A
100
AcDbEntity
  8
細線
100
AcDbLine
 10
2528.070313592451
 20
1354.494263483342
 30
0.0
 11
2525.738767116262
 21
1359.494281037021
 31
0.0
  0
LINE
  5
18C96
330
18C7A
100
AcDbEntity
  8
細線
100
AcDbLine
 10
2525.738767116262
 20
1359.494281037021
 30
0.0
 11
2460.40184369779
 21
1359.49428103701
 31
0.0
  0
LINE
  5
18C97
330
18C7A
100
AcDbEntity
  8
細線
100
AcDbLine
 10
2387.139046332155
 20
1359.494281037021
 30
0.0
 11
2321.80212291368
 21
1359.49428103701
 31
0.0
  0
LINE
  5
18C98
330
18C7A
100
AcDbEntity
  8
細線
100
AcDbLine
 10
2389.470592808342
 20
1354.494263483342
 30
0.0
 11
2387.139046332153
 21
1359.494281037021
 31
0.0
  0
LINE
  5
18C99
330
18C7A
100
AcDbEntity
  8
細線
100
AcDbLine
 10
2319.470584622926
 20
1354.494281037054
 30
0.0
 11
2321.802122913694
 21
1359.494281037039
 31
0.0
  0
LINE
  5
18C9A
330
18C7A
100
AcDbEntity
  8
細線
100
AcDbLine
 10
2179.47061994182
 20
1354.494289224422
 30
0.0
 11
2181.802158232587
 21
1359.494289224407
 31
0.0
  0
LINE
  5
18C9B
330
18C7A
100
AcDbEntity
  8
細線
100
AcDbLine
 10
2249.470628127236
 20
1354.49427167071
 30
0.0
 11
2247.139081651047
 21
1359.494289224389
 31
0.0
  0
LINE
  5
18C9C
330
18C7A
100
AcDbEntity
  8
細線
100
AcDbLine
 10
2247.139081651047
 20
1359.494289224389
 30
0.0
 11
2181.802158232573
 21
1359.494289224378
 31
0.0
  0
LINE
  5
18C9D
330
18C7A
100
AcDbEntity
  8
細線
100
AcDbLine
 10
1807.970585744697
 20
1320.494460905133
 30
0.0
 11
1810.302124035464
 21
1325.494460905118
 31
0.0
  0
LINE
  5
18C9E
330
18C7A
100
AcDbEntity
  8
細線
100
AcDbLine
 10
1877.970593930113
 20
1320.494443351421
 30
0.0
 11
1875.639047453926
 21
1325.4944609051
 31
0.0
  0
LINE
  5
18C9F
330
18C7A
100
AcDbEntity
  8
細線
100
AcDbLine
 10
1875.639047453926
 20
1325.4944609051
 30
0.0
 11
1810.302124035452
 21
1325.494460905089
 31
0.0
  0
LINE
  5
18CA0
330
18C7A
100
AcDbEntity
  8
細線
100
AcDbLine
 10
2015.639047453926
 20
1325.4944609051
 30
0.0
 11
1950.302124035452
 21
1325.494460905089
 31
0.0
  0
LINE
  5
18CA1
330
18C7A
100
AcDbEntity
  8
細線
100
AcDbLine
 10
2017.970593930113
 20
1320.494443351421
 30
0.0
 11
2015.639047453924
 21
1325.4944609051
 31
0.0
  0
LINE
  5
18CA2
330
18C7A
100
AcDbEntity
  8
細線
100
AcDbLine
 10
1947.970585744697
 20
1320.494460905133
 30
0.0
 11
1950.302124035465
 21
1325.494460905118
 31
0.0
  0
LINE
  5
18CA3
330
18C7A
100
AcDbEntity
  8
細線
100
AcDbLine
 10
1735.639047453926
 20
1325.494460905098
 30
0.0
 11
1670.302124035454
 21
1325.494460905087
 31
0.0
  0
LINE
  5
18CA4
330
18C7A
100
AcDbEntity
  8
細線
100
AcDbLine
 10
1737.970593930113
 20
1320.494443351419
 30
0.0
 11
1735.639047453926
 21
1325.494460905098
 31
0.0
  0
LINE
  5
18CA5
330
18C7A
100
AcDbEntity
  8
細線
100
AcDbLine
 10
1667.970585744697
 20
1320.494460905131
 30
0.0
 11
1670.302124035465
 21
1325.494460905116
 31
0.0
  0
LINE
  5
18CA6
330
18C7A
100
AcDbEntity
  8
細線
100
AcDbLine
 10
1527.970593930113
 20
1320.494460905133
 30
0.0
 11
1530.302132220881
 21
1325.494460905118
 31
0.0
  0
LINE
  5
18CA7
330
18C7A
100
AcDbEntity
  8
細線
100
AcDbLine
 10
1597.970602115529
 20
1320.494443351421
 30
0.0
 11
1595.639055639342
 21
1325.4944609051
 31
0.0
  0
LINE
  5
18CA8
330
18C7A
100
AcDbEntity
  8
細線
100
AcDbLine
 10
1595.639055639342
 20
1325.4944609051
 30
0.0
 11
1530.302132220869
 21
1325.494460905089
 31
0.0
  0
ARC
  5
18CA9
330
18C7A
100
AcDbEntity
  8
部品1
 48
0.01
100
AcDbCircle
 10
1483.470482677778
 20
1319.493338720063
 30
0.0
 40
0.5
100
AcDbArc
 50
270.0
 51
0.0
  0
LINE
  5
18CAA
330
18C7A
100
AcDbEntity
  8
部品1
 48
0.01
100
AcDbLine
 10
1483.970482677778
 20
1320.493338720063
 30
0.0
 11
1483.970482677778
 21
1319.493338720063
 31
0.0
  0
LINE
  5
18CAB
330
18C7A
100
AcDbEntity
  8
部品1
 48
0.01
100
AcDbLine
 10
1483.970482677778
 20
1320.493338720063
 30
0.0
 11
1483.970482677778
 21
1319.493338720063
 31
0.0
  0
LINE
  5
18CAC
330
18C7A
100
AcDbEntity
  8
部品1
 48
0.01
100
AcDbLine
 10
1483.470482677778
 20
1318.993338720063
 30
0.0
 11
1476.857977247713
 21
1318.993338720062
 31
0.0
  0
ARC
  5
18CAD
330
18C7A
100
AcDbEntity
  8
部品1
100
AcDbCircle
 10
1476.926326800494
 20
1319.993338720062
 30
0.0
 40
1.0
100
AcDbArc
 50
160.5287793655865
 51
270.0
  0
ARC
  5
18CAE
330
18C7A
100
AcDbEntity
  8
部品1
100
AcDbCircle
 10
1451.470482677778
 20
1328.993338720062
 30
0.0
 40
26.0
100
AcDbArc
 50
340.5287793655865
 51
0.0
  0
LINE
  5
18CAF
330
18C7A
100
AcDbEntity
  8
部品1
100
AcDbLine
 10
1477.470482677778
 20
1328.993338720062
 30
0.0
 11
1477.470482677778
 21
1333.993338720061
 31
0.0
  0
ARC
  5
18CB0
330
18C7A
100
AcDbEntity
  8
部品1
 48
0.01
100
AcDbCircle
 10
1475.470482677778
 20
1333.993338720061
 30
0.0
 40
2.0
100
AcDbArc
 50
0.0
 51
90.0
  0
ARC
  5
18CB1
330
18C7A
100
AcDbEntity
  8
部品1
100
AcDbCircle
 10
1473.862091052968
 20
1332.993338720062
 30
0.0
 40
3.0
100
AcDbArc
 50
90.0
 51
141.6069559808035
  0
LINE
  5
18CB2
330
18C7A
100
AcDbEntity
  8
部品1
 48
0.01
100
AcDbLine
 10
1475.470482677778
 20
1335.993338720062
 30
0.0
 11
1473.862091052968
 21
1335.993338720062
 31
0.0
  0
ARC
  5
18CB3
330
18C7A
100
AcDbEntity
  8
部品1
100
AcDbCircle
 10
1455.399768463507
 20
1332.293338720065
 30
0.0
 40
3.0
100
AcDbArc
 50
254.0576313943215
 51
270.0
  0
ARC
  5
18CB4
330
18C7A
100
AcDbEntity
  8
部品1
100
AcDbCircle
 10
1462.541196892049
 20
1332.293338720065
 30
0.0
 40
3.0
100
AcDbArc
 50
270.0
 51
285.9423686056786
  0
LINE
  5
18CB5
330
18C7A
100
AcDbEntity
  8
部品1
100
AcDbLine
 10
1462.541196892049
 20
1329.293338720064
 30
0.0
 11
1455.399768463507
 21
1329.293338720064
 31
0.0
  0
ARC
  5
18CB6
330
18C7A
100
AcDbEntity
  8
部品1
100
AcDbCircle
 10
1458.970482677778
 20
1344.793338720065
 30
0.0
 40
16.0
100
AcDbArc
 50
285.9423686056786
 51
321.6069559808035
  0
LINE
  5
18CB7
330
18C7A
100
AcDbEntity
  8
部品1
 48
0.01
100
AcDbLine
 10
1442.470482677778
 20
1335.993338720062
 30
0.0
 11
1444.078874302588
 21
1335.993338720062
 31
0.0
  0
ARC
  5
18CB8
330
18C7A
100
AcDbEntity
  8
部品1
100
AcDbCircle
 10
1444.078874302588
 20
1332.993338720062
 30
0.0
 40
3.0
100
AcDbArc
 50
38.39304401919648
 51
90.0
  0
ARC
  5
18CB9
330
18C7A
100
AcDbEntity
  8
部品1
100
AcDbCircle
 10
1458.970482677778
 20
1344.793338720065
 30
0.0
 40
16.0
100
AcDbArc
 50
218.3930440191965
 51
254.0576313943215
  0
LINE
  5
18CBA
330
18C7A
100
AcDbEntity
  8
部品1
100
AcDbLine
 10
1440.470482677778
 20
1328.993338720062
 30
0.0
 11
1440.470482677778
 21
1333.993338720061
 31
0.0
  0
ARC
  5
18CBB
330
18C7A
100
AcDbEntity
  8
部品1
 48
0.01
100
AcDbCircle
 10
1442.470482677778
 20
1333.993338720061
 30
0.0
 40
2.0
100
AcDbArc
 50
90.0
 51
180.0
  0
ARC
  5
18CBC
330
18C7A
100
AcDbEntity
  8
部品1
100
AcDbCircle
 10
1466.470482677778
 20
1328.993338720062
 30
0.0
 40
26.0
100
AcDbArc
 50
180.0
 51
199.4712206344134
  0
ARC
  5
18CBD
330
18C7A
100
AcDbEntity
  8
部品1
 48
0.01
100
AcDbCircle
 10
1434.470482677778
 20
1319.493338720063
 30
0.0
 40
0.5
100
AcDbArc
 50
180.0
 51
270.0
  0
LINE
  5
18CBE
330
18C7A
100
AcDbEntity
  8
部品1
 48
0.01
100
AcDbLine
 10
1434.470482677778
 20
1318.993338720063
 30
0.0
 11
1441.014638555061
 21
1318.993338720062
 31
0.0
  0
LINE
  5
18CBF
330
18C7A
100
AcDbEntity
  8
部品1
 48
0.01
100
AcDbLine
 10
1433.970482677778
 20
1320.493338720063
 30
0.0
 11
1433.970482677778
 21
1319.493338720063
 31
0.0
  0
ARC
  5
18CC0
330
18C7A
100
AcDbEntity
  8
部品1
100
AcDbCircle
 10
1441.014638555061
 20
1319.993338720062
 30
0.0
 40
1.0
100
AcDbArc
 50
270.0
 51
19.47122063441346
  0
LINE
  5
18CC1
330
18C7A
100
AcDbEntity
  8
細線
100
AcDbLine
 10
1479.470482677785
 20
1338.493338720065
 30
0.0
 11
1438.470482677785
 21
1338.493338720058
 31
0.0
  0
LINE
  5
18CC2
330
18C7A
100
AcDbEntity
  8
細線
100
AcDbLine
 10
1438.470482677785
 20
1338.493338720058
 30
0.0
 11
1438.470482677785
 21
1320.49333872004
 31
0.0
  0
LINE
  5
18CC3
330
18C7A
100
AcDbEntity
  8
細線
100
AcDbLine
 10
1479.470482677785
 20
1338.493338720065
 30
0.0
 11
1479.470482677785
 21
1320.49333872004
 31
0.0
  0
LINE
  5
18CC4
330
18C7A
100
AcDbEntity
  8
細線
100
AcDbLine
 10
1322.970589276523
 20
1324.494269174465
 30
0.0
 11
1322.970589276523
 21
1320.494269174513
 31
0.0
  0
LINE
  5
18CC5
330
18C7A
100
AcDbEntity
  8
寸法
 48
50.0
100
AcDbLine
 10
1746.17359555837
 20
1170.531020743327
 30
0.0
 11
1694.767587648266
 21
1170.531020743327
 31
0.0
  0
LINE
  5
18CC6
330
18C7A
100
AcDbEntity
  8
寸法
 48
50.0
100
AcDbLine
 10
1694.767587648266
 20
1170.531020743327
 30
0.0
 11
1694.767587648266
 21
1201.841179395494
 31
0.0
  0
LINE
  5
18CC7
330
18C7A
100
AcDbEntity
  8
寸法
 48
50.0
100
AcDbLine
 10
1694.767587648266
 20
1201.841179395494
 30
0.0
 11
1665.006255656843
 21
1201.841179395494
 31
0.0
  0
LINE
  5
18CC8
330
18C7A
100
AcDbEntity
  8
寸法
 48
50.0
100
AcDbLine
 10
1665.006255656843
 20
1201.841179395494
 30
0.0
 11
1720.470591603318
 21
1239.420630324105
 31
0.0
  0
LINE
  5
18CC9
330
18C7A
100
AcDbEntity
  8
寸法
 48
50.0
100
AcDbLine
 10
1775.934927549793
 20
1201.841179395494
 30
0.0
 11
1720.470591603318
 21
1239.420630324105
 31
0.0
  0
LINE
  5
18CCA
330
18C7A
100
AcDbEntity
  8
寸法
 48
50.0
100
AcDbLine
 10
1746.17359555837
 20
1201.841179395494
 30
0.0
 11
1775.934927549793
 21
1201.841179395494
 31
0.0
  0
LINE
  5
18CCB
330
18C7A
100
AcDbEntity
  8
寸法
 48
50.0
100
AcDbLine
 10
1746.17359555837
 20
1170.531020743327
 30
0.0
 11
1746.17359555837
 21
1201.841179395494
 31
0.0
  0
LINE
  5
18CCC
330
18C7A
100
AcDbEntity
  8
寸法
 48
50.0
100
AcDbLine
 10
1694.767587648266
 20
1170.531020743327
 30
0.0
 11
1746.17359555837
 21
1170.531020743327
 31
0.0
  0
LINE
  5
18CCD
330
18C7A
100
AcDbEntity
  8
寸法
 48
50.0
100
AcDbLine
 10
2025.339129835225
 20
1227.676611498152
 30
0.0
 11
2025.339129835225
 21
1174.01297691636
 31
0.0
  0
LINE
  5
18CCE
330
18C7A
100
AcDbEntity
  8
寸法
 48
50.0
100
AcDbLine
 10
2114.623348430647
 20
1203.752977228664
 30
0.0
 11
2025.339129835225
 21
1227.676611498152
 31
0.0
  0
LINE
  5
18CCF
330
18C7A
100
AcDbEntity
  8
寸法
 48
50.0
100
AcDbLine
 10
1895.471408254923
 20
1203.752977228664
 30
0.0
 11
2114.623348430647
 21
1203.752977228664
 31
0.0
  0
DIMENSION
  5
18CD0
330
18C7A
100
AcDbEntity
  8
寸法
 48
50.0
100
AcDbDimension
  2
*D15
 10
2588.970589276523
 20
706.3240511224249
 30
0.0
 11
1969.060022905491
 21
706.3240511224249
 31
0.0
 12
-3742.925985830444
 22
-6453.628869860112
 32
0.0
 70
   128
  1
有効開口部間口\P<>
 71
     5
 42
1266.0
  3
INABA_S40G
100
AcDbAlignedDimension
 13
1322.970589276523
 23
1315.494269174465
 33
0.0
 14
2588.970589276523
 24
1315.494269174465
 34
0.0
100
AcDbRotatedDimension
1001
ACAD
1000
DSTYLE
1002
{
1070
   341
1005
0
1002
}
  0
LINE
  5
18CD1
330
18C7A
100
AcDbEntity
  8
部品1
100
AcDbLine
 10
3409.970589276524
 20
1392.494269174465
 30
0.0
 11
3437.970589276523
 21
1392.494269174465
 31
0.0
  0
DIMENSION
  5
18CD2
330
18C7A
100
AcDbEntity
  8
寸法
100
AcDbDimension
  2
*D16
 10
3674.266172669749
 20
1315.494269174465
 30
0.0
 11
3674.266172669748
 21
1177.494269174462
 31
0.0
 12
-3742.925985830444
 22
-6453.628869860112
 32
0.0
 70
   128
 71
     5
 42
77.0
  3
INABA_S40
100
AcDbAlignedDimension
 13
3437.970589276523
 23
1392.494269174465
 33
0.0
 14
3436.970589276523
 24
1315.494269174465
 34
0.0
 50
90.0
100
AcDbRotatedDimension
1001
ACAD
1000
DSTYLE
1002
{
1070
    41
1040
0.5
1070
    44
1040
1.0
1070
   147
1040
0.8
1070
   271
1070
     2
1070
   272
1070
     2
1070
   289
1070
     3
1070
   340
1005
F706
1070
   343
1005
164B4
1070
   344
1005
164B4
1002
}
  0
LINE
  5
18CD3
330
18C7A
100
AcDbEntity
  8
部品1
100
AcDbLine
 10
3437.970589276523
 20
1315.494269174465
 30
0.0
 11
3437.970589276523
 21
1392.494269174465
 31
0.0
  0
LINE
  5
18CD4
330
18C7A
100
AcDbEntity
  8
部品1
100
AcDbLine
 10
3398.970589276523
 20
1388.494269174465
 30
0.0
 11
3409.970589276524
 21
1388.494269174465
 31
0.0
  0
LINE
  5
18CD5
330
18C7A
100
AcDbEntity
  8
部品1
100
AcDbLine
 10
3407.970589276523
 20
1324.494269174465
 30
0.0
 11
3407.970589276523
 21
1315.494269174465
 31
0.0
  0
LINE
  5
18CD6
330
18C7A
100
AcDbEntity
  8
部品1
100
AcDbLine
 10
3398.970589276523
 20
1324.494269174465
 30
0.0
 11
3407.970589276523
 21
1324.494269174465
 31
0.0
  0
LINE
  5
18CD7
330
18C7A
100
AcDbEntity
  8
部品1
100
AcDbLine
 10
3398.970589276523
 20
1388.494269174465
 30
0.0
 11
3398.970589276523
 21
1324.494269174465
 31
0.0
  0
LINE
  5
18CD8
330
18C7A
100
AcDbEntity
  8
部品1
100
AcDbLine
 10
3409.970589276524
 20
1419.494269174465
 30
0.0
 11
3409.970589276524
 21
1388.494269174465
 31
0.0
  0
LINE
  5
18CD9
330
18C7A
100
AcDbEntity
  8
部品1
100
AcDbLine
 10
1322.970589276523
 20
1388.494269174465
 30
0.0
 11
1311.970589276523
 21
1388.494269174465
 31
0.0
  0
LINE
  5
18CDA
330
18C7A
100
AcDbEntity
  8
部品1
100
AcDbLine
 10
1283.970589276523
 20
1392.494269174465
 30
0.0
 11
1311.970589276523
 21
1392.494269174465
 31
0.0
  0
LINE
  5
18CDB
330
18C7A
100
AcDbEntity
  8
部品1
100
AcDbLine
 10
1313.970589276523
 20
1324.494269174465
 30
0.0
 11
1313.970589276523
 21
1315.494269174465
 31
0.0
  0
LINE
  5
18CDC
330
18C7A
100
AcDbEntity
  8
部品1
100
AcDbLine
 10
1322.970589276523
 20
1324.494269174465
 30
0.0
 11
1313.970589276523
 21
1324.494269174465
 31
0.0
  0
LINE
  5
18CDD
330
18C7A
100
AcDbEntity
  8
部品1
100
AcDbLine
 10
1313.970589276523
 20
1315.494269174465
 30
0.0
 11
1283.970589276523
 21
1315.494269174465
 31
0.0
  0
LINE
  5
18CDE
330
18C7A
100
AcDbEntity
  8
部品1
100
AcDbLine
 10
1283.970589276523
 20
1315.494269174465
 30
0.0
 11
1283.970589276523
 21
1392.494269174465
 31
0.0
  0
LINE
  5
18CDF
330
18C7A
100
AcDbEntity
  8
部品1
100
AcDbLine
 10
1322.970589276523
 20
1388.494269174465
 30
0.0
 11
1322.970589276523
 21
1324.494269174465
 31
0.0
  0
LINE
  5
18CE0
330
18C7A
100
AcDbEntity
  8
部品1
100
AcDbLine
 10
1311.970589276523
 20
1419.494269174462
 30
0.0
 11
1311.970589276523
 21
1388.494269174465
 31
0.0
  0
LINE
  5
18CE1
330
18C7A
100
AcDbEntity
  8
部品1
100
AcDbLine
 10
1311.970589276523
 20
1419.494269174462
 30
0.0
 11
3409.970589276524
 21
1419.494269174465
 31
0.0
  0
LINE
  5
18CE2
330
18C7A
100
AcDbEntity
  8
部品1
100
AcDbLine
 10
3407.970589276523
 20
1315.494269174465
 30
0.0
 11
3437.970589276523
 21
1315.494269174465
 31
0.0
  0
LINE
  5
18CE3
330
18C7A
100
AcDbEntity
  8
部品1
100
AcDbLine
 10
1313.970589276523
 20
1315.494269174465
 30
0.0
 11
3410.970589276523
 21
1315.494269174465
 31
0.0
  0
LINE
  5
18CE4
330
18C7A
100
AcDbEntity
  8
細線
  6
Continuous
 62
     5
100
AcDbLine
 10
2689.970589276527
 20
1354.494269174462
 30
0.0
 11
2689.970589276527
 21
1354.494269174462
 31
0.0
  0
LINE
  5
18CE5
330
18C7A
100
AcDbEntity
  8
細線
  6
Continuous
 62
     5
100
AcDbLine
 10
2682.470589276527
 20
1354.494269174462
 30
0.0
 11
2682.470589276527
 21
1354.494269174462
 31
0.0
  0
LINE
  5
18CE6
330
18C7A
100
AcDbEntity
  8
細線
  6
Continuous
 62
     5
100
AcDbLine
 10
2676.470589276527
 20
1354.494269174462
 30
0.0
 11
2676.470589276527
 21
1354.494269174462
 31
0.0
  0
LINE
  5
18CE7
330
18C7A
100
AcDbEntity
  8
細線
  6
Continuous
 62
     5
100
AcDbLine
 10
2743.970589276527
 20
1373.494269174462
 30
0.0
 11
2743.970589276527
 21
1373.494269174462
 31
0.0
  0
LINE
  5
18CE8
330
18C7A
100
AcDbEntity
  8
細線
 48
50.0
100
AcDbLine
 10
1336.970593930116
 20
1341.094443351418
 30
0.0
 11
1336.970593930113
 21
1349.490593759059
 31
0.0
  0
LINE
  5
18CE9
330
18C7A
100
AcDbEntity
  8
細線
 48
50.0
100
AcDbLine
 10
1336.970593930113
 20
1349.490593759059
 30
0.0
 11
1322.970589276523
 21
1349.490593759057
 31
0.0
  0
LINE
  5
18CEA
330
18C7A
100
AcDbEntity
  8
細線
 48
50.0
100
AcDbLine
 10
2087.970593930113
 20
1337.644443351419
 30
0.0
 11
2087.970593930113
 21
1342.494443351421
 31
0.0
  0
LINE
  5
18CEB
330
18C7A
100
AcDbEntity
  8
細線
 48
50.0
100
AcDbLine
 10
2087.970593930113
 20
1342.494443351421
 30
0.0
 11
2102.970593930113
 21
1342.494443351421
 31
0.0
  0
LINE
  5
18CEC
330
18C7A
100
AcDbEntity
  8
細線
 48
50.0
100
AcDbLine
 10
2102.970593930113
 20
1342.494443351421
 30
0.0
 11
2102.970593930115
 21
1349.494443351419
 31
0.0
  0
LINE
  5
18CED
330
18C7A
100
AcDbEntity
  8
細線
 48
50.0
100
AcDbLine
 10
2102.970593930115
 20
1349.494443351419
 30
0.0
 11
2117.970593930113
 21
1349.494443351419
 31
0.0
  0
LINE
  5
18CEE
330
18C7A
100
AcDbEntity
  8
細線
 48
50.0
100
AcDbLine
 10
2117.970593930113
 20
1349.494443351419
 30
0.0
 11
2117.970593930113
 21
1320.494443351421
 31
0.0
  0
LINE
  5
18CEF
330
18C7A
100
AcDbEntity
  8
細線
 48
50.0
100
AcDbLine
 10
1313.970589276523
 20
1320.491777694889
 30
0.0
 11
1527.970593930113
 21
1320.494460905133
 31
0.0
  0
LINE
  5
18CF0
330
18C7A
100
AcDbEntity
  8
細線
 48
50.0
100
AcDbLine
 10
2017.970593930113
 20
1320.494443351421
 30
0.0
 11
2117.970593930113
 21
1320.494443351421
 31
0.0
  0
LINE
  5
18CF1
330
18C7A
100
AcDbEntity
  8
細線
 48
50.0
100
AcDbLine
 10
1737.970593930113
 20
1320.494443351419
 30
0.0
 11
1807.970593930113
 21
1320.494443351423
 31
0.0
  0
LINE
  5
18CF2
330
18C7A
100
AcDbEntity
  8
細線
 48
50.0
100
AcDbLine
 10
1750.832558942642
 20
1320.494443351419
 30
0.0
 11
1756.588076525309
 21
1338.765294641913
 31
0.0
  0
LINE
  5
18CF3
330
18C7A
100
AcDbEntity
  8
細線
 48
50.0
100
AcDbLine
 10
1756.588076525309
 20
1338.765294641913
 30
0.0
 11
1767.516525005743
 21
1338.765294641911
 31
0.0
  0
ARC
  5
18CF4
330
18C7A
100
AcDbEntity
  8
細線
 48
50.0
100
AcDbCircle
 10
1767.516525005743
 20
1337.765294641911
 30
0.0
 40
1.0
100
AcDbArc
 50
24.62431835207225
 51
90.0
  0
ARC
  5
18CF5
330
18C7A
100
AcDbEntity
  8
細線
 48
50.0
100
AcDbCircle
 10
1778.425237120377
 20
1337.765294641911
 30
0.0
 40
1.0
100
AcDbArc
 50
90.0
 51
155.3756816479277
  0
ARC
  5
18CF6
330
18C7A
100
AcDbEntity
  8
細線
 48
50.0
100
AcDbCircle
 10
1772.970881063058
 20
1340.265294641911
 30
0.0
 40
5.0
100
AcDbArc
 50
204.6243183520723
 51
335.3756816479278
  0
LINE
  5
18CF7
330
18C7A
100
AcDbEntity
  8
細線
 48
50.0
100
AcDbLine
 10
1778.425237120377
 20
1338.765294641911
 30
0.0
 11
1789.35368560081
 21
1338.765294641913
 31
0.0
  0
LINE
  5
18CF8
330
18C7A
100
AcDbEntity
  8
細線
 48
50.0
100
AcDbLine
 10
1789.35368560081
 20
1338.765294641913
 30
0.0
 11
1795.109203183478
 21
1320.494443351423
 31
0.0
  0
LINE
  5
18CF9
330
18C7A
100
AcDbEntity
  8
細線
 48
50.0
100
AcDbLine
 10
2087.970593930113
 20
1341.094443351419
 30
0.0
 11
1336.970593930116
 21
1341.094443351418
 31
0.0
  0
LINE
  5
18CFA
330
18C7A
100
AcDbEntity
  8
細線
 48
50.0
100
AcDbLine
 10
1947.970593930113
 20
1320.494443351421
 30
0.0
 11
1877.970593930113
 21
1320.494443351421
 31
0.0
  0
LINE
  5
18CFB
330
18C7A
100
AcDbEntity
  8
細線
100
AcDbLine
 10
1667.970593930113
 20
1320.494443351421
 30
0.0
 11
1597.970602115529
 21
1320.494443351421
 31
0.0
  0
LINE
  5
18CFC
330
18C7A
100
AcDbEntity
  8
細線
 48
50.0
100
AcDbLine
 10
2741.970584622936
 20
1375.094487209288
 30
0.0
 11
2106.970593930113
 21
1375.094487209284
 31
0.0
  0
LINE
  5
18CFD
330
18C7A
100
AcDbEntity
  8
細線
 48
50.0
100
AcDbLine
 10
2106.970593930113
 20
1371.990637616925
 30
0.0
 11
2106.970593930113
 21
1376.490637616925
 31
0.0
  0
LINE
  5
18CFE
330
18C7A
100
AcDbEntity
  8
細線
 48
50.0
100
AcDbLine
 10
2106.970593930113
 20
1376.490637616925
 30
0.0
 11
2091.970593930113
 21
1376.490637616925
 31
0.0
  0
LINE
  5
18CFF
330
18C7A
100
AcDbEntity
  8
細線
 48
50.0
100
AcDbLine
 10
2091.970593930113
 20
1376.490637616925
 30
0.0
 11
2091.970593930113
 21
1383.490637616927
 31
0.0
  0
LINE
  5
18D00
330
18C7A
100
AcDbEntity
  8
細線
 48
50.0
100
AcDbLine
 10
2091.970593930113
 20
1383.490637616927
 30
0.0
 11
2076.970593930115
 21
1383.490637616924
 31
0.0
  0
LINE
  5
18D01
330
18C7A
100
AcDbEntity
  8
細線
 48
50.0
100
AcDbLine
 10
2076.970593930115
 20
1383.490637616924
 30
0.0
 11
2076.970593930115
 21
1345.890409513813
 31
0.0
  0
LINE
  5
18D02
330
18C7A
100
AcDbEntity
  8
細線
 48
50.0
100
AcDbLine
 10
2076.970593930115
 20
1345.890409513813
 30
0.0
 11
2096.970601231289
 21
1345.890451063353
 31
0.0
  0
LINE
  5
18D03
330
18C7A
100
AcDbEntity
  8
細線
 48
50.0
100
AcDbLine
 10
2096.970556362348
 20
1354.493912699161
 30
0.0
 11
2096.970601231289
 21
1345.890451063353
 31
0.0
  0
LINE
  5
18D04
330
18C7A
100
AcDbEntity
  8
細線
 48
50.0
100
AcDbLine
 10
2741.970584622936
 20
1371.644487209287
 30
0.0
 11
2741.970584622936
 21
1376.494487209284
 31
0.0
  0
LINE
  5
18D05
330
18C7A
100
AcDbEntity
  8
細線
 48
50.0
100
AcDbLine
 10
2741.970584622936
 20
1376.494487209284
 30
0.0
 11
2756.970584622934
 21
1376.494487209285
 31
0.0
  0
LINE
  5
18D06
330
18C7A
100
AcDbEntity
  8
細線
 48
50.0
100
AcDbLine
 10
2756.970584622934
 20
1376.494487209285
 30
0.0
 11
2756.970596256909
 21
1383.494487209331
 31
0.0
  0
LINE
  5
18D07
330
18C7A
100
AcDbEntity
  8
細線
 48
50.0
100
AcDbLine
 10
2756.970596256909
 20
1383.494487209331
 30
0.0
 11
2771.970594427439
 21
1383.494487209329
 31
0.0
  0
LINE
  5
18D08
330
18C7A
100
AcDbEntity
  8
細線
 48
50.0
100
AcDbLine
 10
2771.970594427439
 20
1383.494487209329
 30
0.0
 11
2771.970584125617
 21
1354.494281037055
 31
0.0
  0
LINE
  5
18D09
330
18C7A
100
AcDbEntity
  8
細線
 48
50.0
100
AcDbLine
 10
2458.070304175992
 20
1354.494278397076
 30
0.0
 11
2389.470863838818
 21
1354.494283787084
 31
0.0
  0
LINE
  5
18D0A
330
18C7A
100
AcDbEntity
  8
細線
 48
50.0
100
AcDbLine
 10
2096.970556362348
 20
1354.493912699161
 30
0.0
 11
2108.203245717057
 21
1354.494095652309
 31
0.0
  0
ARC
  5
18D0B
330
18C7A
100
AcDbEntity
  8
細線
 48
50.0
100
AcDbCircle
 10
2114.785538024393
 20
1353.294259565922
 30
0.0
 40
1.8
100
AcDbArc
 50
270.0006665777295
 51
345.000555481349
  0
LINE
  5
18D0C
330
18C7A
100
AcDbEntity
  8
細線
 48
50.0
100
AcDbLine
 10
2116.771971470473
 20
1353.753100023201
 30
0.0
 11
2116.524209028273
 21
1352.828402141094
 31
0.0
  0
LINE
  5
18D0D
330
18C7A
100
AcDbEntity
  8
細線
 48
50.0
100
AcDbLine
 10
2114.785558965548
 20
1351.494259566043
 30
0.0
 11
2111.155631546781
 21
1351.494217335563
 31
0.0
  0
ARC
  5
18D0E
330
18C7A
100
AcDbEntity
  8
細線
 48
50.0
100
AcDbCircle
 10
2111.155610605627
 20
1353.29421733544
 30
0.0
 40
1.8
100
AcDbArc
 50
195.0010443049965
 51
270.0006665777295
  0
LINE
  5
18D0F
330
18C7A
100
AcDbEntity
  8
細線
 48
50.0
100
AcDbLine
 10
2109.169183113368
 20
1353.752932303007
 30
0.0
 11
2109.416952609882
 21
1352.828311364425
 31
0.0
  0
ARC
  5
18D10
330
18C7A
100
AcDbEntity
  8
細線
 48
50.0
100
AcDbCircle
 10
2108.203262004622
 20
1353.494095652444
 30
0.0
 40
1.0
100
AcDbArc
 50
15.00104430499651
 51
90.00093320877969
  0
LINE
  5
18D11
330
18C7A
100
AcDbEntity
  8
細線
 48
50.0
100
AcDbLine
 10
2117.737892825577
 20
1354.494290342714
 30
0.0
 11
2118.679652976481
 21
1354.494296916564
 31
0.0
  0
ARC
  5
18D12
330
18C7A
100
AcDbEntity
  8
細線
 48
50.0
100
AcDbCircle
 10
2117.737899805961
 20
1353.49429034274
 30
0.0
 40
1.0
100
AcDbArc
 50
90.0003999466794
 51
165.000555481349
  0
LINE
  5
18D13
330
18C7A
100
AcDbEntity
  8
細線
 48
50.0
100
AcDbLine
 10
2669.470584622926
 20
1354.494281037055
 30
0.0
 11
2771.970584125617
 21
1354.494281037055
 31
0.0
  0
LINE
  5
18D14
330
18C7A
100
AcDbEntity
  8
細線
 48
50.0
100
AcDbLine
 10
2179.47061994182
 20
1354.494289224422
 30
0.0
 11
2118.370558714898
 21
1354.494296916564
 31
0.0
  0
LINE
  5
18D15
330
18C7A
100
AcDbEntity
  8
細線
 48
50.0
100
AcDbLine
 10
2599.470584622926
 20
1354.494281037057
 30
0.0
 11
2529.470584622926
 21
1354.494281037055
 31
0.0
  0
LINE
  5
18D16
330
18C7A
100
AcDbEntity
  8
細線
 48
50.0
100
AcDbLine
 10
2319.470584622926
 20
1354.494281037054
 30
0.0
 11
2249.470567335051
 21
1354.494281037057
 31
0.0
  0
ARC
  5
18D17
330
18C7A
100
AcDbEntity
  8
細線
 48
50.0
100
AcDbCircle
 10
2756.170589276533
 20
1387.694269174466
 30
0.0
 40
0.8
100
AcDbArc
 50
359.9997333689499
 51
89.99986668437072
  0
ARC
  5
18D18
330
18C7A
100
AcDbEntity
  8
細線
 48
50.0
100
AcDbCircle
 10
2763.770596101631
 20
1387.694280343081
 30
0.0
 40
0.8
100
AcDbArc
 50
90.00014387753465
 51
179.9997333689498
  0
LINE
  5
18D19
330
18C7A
100
AcDbEntity
  8
細線
 48
50.0
100
AcDbLine
 10
2756.170591137969
 20
1388.494269174465
 30
0.0
 11
2750.970589276525
 21
1388.494269174465
 31
0.0
  0
ARC
  5
18D1A
330
18C7A
100
AcDbEntity
  8
細線
 48
50.0
100
AcDbCircle
 10
2757.670589276524
 20
1386.194269174464
 30
0.0
 40
0.7
100
AcDbArc
 50
180.0
 51
270.0
  0
ARC
  5
18D1B
330
18C7A
100
AcDbEntity
  8
細線
 48
50.0
100
AcDbCircle
 10
2762.270589276524
 20
1386.194269174464
 30
0.0
 40
0.7
100
AcDbArc
 50
270.0
 51
0.0
  0
LINE
  5
18D1C
330
18C7A
100
AcDbEntity
  8
細線
 48
50.0
100
AcDbLine
 10
2762.970589276525
 20
1386.194269174464
 30
0.0
 11
2762.970596101639
 21
1387.694284065954
 31
0.0
  0
LINE
  5
18D1D
330
18C7A
100
AcDbEntity
  8
細線
 48
50.0
100
AcDbLine
 10
2757.670589276524
 20
1385.494269174465
 30
0.0
 11
2762.270589276524
 21
1385.494269174465
 31
0.0
  0
LINE
  5
18D1E
330
18C7A
100
AcDbEntity
  8
細線
 48
50.0
100
AcDbLine
 10
2756.970589276525
 20
1387.694269174466
 30
0.0
 11
2756.970589276525
 21
1386.194269174464
 31
0.0
  0
LINE
  5
18D1F
330
18C7A
100
AcDbEntity
  8
細線
 48
50.0
100
AcDbLine
 10
3382.570589276527
 20
1418.494269174465
 30
0.0
 11
2745.970589276525
 21
1418.494269174463
 31
0.0
  0
LINE
  5
18D20
330
18C7A
100
AcDbEntity
  8
細線
 48
50.0
100
AcDbLine
 10
3408.470589276525
 20
1413.494269174467
 30
0.0
 11
3392.570589276527
 21
1413.494269174465
 31
0.0
  0
LINE
  5
18D21
330
18C7A
100
AcDbEntity
  8
細線
 48
50.0
100
AcDbLine
 10
3392.570589276526
 20
1413.494269174465
 30
0.0
 11
3382.570589276527
 21
1418.494269174465
 31
0.0
  0
LINE
  5
18D22
330
18C7A
100
AcDbEntity
  8
細線
100
AcDbLine
 10
2993.470589276525
 20
1388.494269174465
 30
0.0
 11
2993.470589276525
 21
1417.794269174464
 31
0.0
  0
LINE
  5
18D23
330
18C7A
100
AcDbEntity
  8
細線
100
AcDbLine
 10
2993.470589276525
 20
1417.794269174464
 30
0.0
 11
3013.470589276525
 21
1417.794269174464
 31
0.0
  0
LINE
  5
18D24
330
18C7A
100
AcDbEntity
  8
細線
100
AcDbLine
 10
3013.470589276525
 20
1388.494269174465
 30
0.0
 11
3013.470589276525
 21
1417.794269174464
 31
0.0
  0
LINE
  5
18D25
330
18C7A
100
AcDbEntity
  8
細線
100
AcDbLine
 10
3170.720589276524
 20
1388.494269174465
 30
0.0
 11
3100.720589276523
 21
1388.494269174465
 31
0.0
  0
LINE
  5
18D26
330
18C7A
100
AcDbEntity
  8
細線
 48
50.0
100
AcDbLine
 10
2890.720589276525
 20
1388.494269174465
 30
0.0
 11
2763.766368849365
 21
1388.494269174465
 31
0.0
  0
LINE
  5
18D27
330
18C7A
100
AcDbEntity
  8
細線
100
AcDbLine
 10
3030.720589276525
 20
1388.494269174465
 30
0.0
 11
2960.720589276525
 21
1388.494269174465
 31
0.0
  0
LINE
  5
18D28
330
18C7A
100
AcDbEntity
  8
細線
 48
50.0
100
AcDbLine
 10
2750.970589276525
 20
1380.494269174465
 30
0.0
 11
2750.970589276525
 21
1388.494269174465
 31
0.0
  0
LINE
  5
18D29
330
18C7A
100
AcDbEntity
  8
細線
 48
50.0
100
AcDbLine
 10
2730.970589276524
 20
1380.494269174467
 30
0.0
 11
2750.970589276525
 21
1380.494269174465
 31
0.0
  0
LINE
  5
18D2A
330
18C7A
100
AcDbEntity
  8
細線
 48
50.0
100
AcDbLine
 10
2745.970589276525
 20
1418.494269174465
 30
0.0
 11
2745.970589276525
 21
1413.494269174465
 31
0.0
  0
LINE
  5
18D2B
330
18C7A
100
AcDbEntity
  8
細線
 48
50.0
100
AcDbLine
 10
2730.970589276525
 20
1418.494269174463
 30
0.0
 11
2745.970589276525
 21
1418.494269174465
 31
0.0
  0
LINE
  5
18D2C
330
18C7A
100
AcDbEntity
  8
細線
 48
50.0
100
AcDbLine
 10
2730.970589276524
 20
1380.494269174467
 30
0.0
 11
2730.970589276525
 21
1418.494269174463
 31
0.0
  0
LINE
  5
18D2D
330
18C7A
100
AcDbEntity
  8
細線
100
AcDbLine
 10
3398.970589276523
 20
1388.494269174465
 30
0.0
 11
3240.720589276525
 21
1388.494269174465
 31
0.0
  0
LINE
  5
18D2E
330
18C7A
100
AcDbEntity
  8
細線
 48
50.0
100
AcDbLine
 10
3408.470589276525
 20
1413.494269174467
 30
0.0
 11
3408.470589276524
 21
1388.494269174465
 31
0.0
  0
TEXT
  5
18D2F
330
18C7A
100
AcDbEntity
  8
部品1
100
AcDbText
 10
1860.154865991392
 20
46.99880823813145
 30
0.0
 40
135.0
  1
平面図
  7
STYLE2
100
AcDbText
  0
LWPOLYLINE
  5
18D30
330
18C7A
100
AcDbEntity
  8
部品1
100
AcDbPolyline
 90
        4
 70
     1
 43
0.0
 10
1770.23525616235
 20
239.8923374566548
 10
1770.23525616235
 20
0.0000159111223184
 10
2533.705922390791
 20
0.0000159111223184
 10
2533.705922390791
 20
239.8923374566548
  0
LINE
  5
18D31
330
18C7A
100
AcDbEntity
  8
部品1
100
AcDbLine
 10
1534.470589276487
 20
3154.494269174626
 30
0.0
 11
2769.470589276552
 21
3154.494269174626
 31
0.0
  0
LINE
  5
18D32
330
18C7A
100
AcDbEntity
  8
部品1
 48
50.0
100
AcDbLine
 10
1311.970589276523
 20
1420.494269174462
 30
0.0
 11
3411.970589276523
 21
1420.494269174465
 31
0.0
  0
LINE
  5
18D33
330
18C7A
100
AcDbEntity
  8
部品1
 48
50.0
100
AcDbLine
 10
471.9705892765232
 20
1392.494269174465
 30
0.0
 11
1311.970589276523
 21
1392.494269174465
 31
0.0
  0
DIMENSION
  5
18D34
330
18C7A
100
AcDbEntity
  8
寸法
100
AcDbDimension
  2
*D14
 10
2710.234916278077
 20
2488.887829538828
 30
0.0
 11
2338.318822490183
 21
2488.887829538828
 31
0.0
 12
-3742.925985830444
 22
-6453.628869860112
 32
0.0
 70
   128
 71
     5
 42
1231.00000000007
  3
INABA_S40G
100
AcDbAlignedDimension
 13
1536.470589276486
 23
2702.494269174557
 33
0.0
 14
2767.470589276556
 24
2702.494269174549
 34
0.0
100
AcDbRotatedDimension
1001
ACAD
1000
DSTYLE
1002
{
1002
}
  0
LINE
  5
18D35
330
18C7A
100
AcDbEntity
  8
部品1
100
AcDbLine
 10
1536.470589276487
 20
2702.494269174557
 30
0.0
 11
2767.470589276554
 21
2702.494269174615
 31
0.0
  0
LINE
  5
18D36
330
18C7A
100
AcDbEntity
  8
部品1
100
AcDbLine
 10
1536.470589276487
 20
3152.494269174557
 30
0.0
 11
2767.470589276556
 21
3152.494269174615
 31
0.0
  0
LINE
  5
18D37
330
18C7A
100
AcDbEntity
  8
細線
 48
50.0
100
AcDbLine
 10
1508.470589276487
 20
3152.494269174558
 30
0.0
 11
445.4705892765559
 21
2702.494269174509
 31
0.0
  0
LINE
  5
18D38
330
18C7A
100
AcDbEntity
  8
細線
 48
50.0
100
AcDbLine
 10
1508.470589276487
 20
2702.494269174558
 30
0.0
 11
445.4705892765542
 21
3152.494269174509
 31
0.0
  0
LINE
  5
18D39
330
18C7A
100
AcDbEntity
  8
部品1
100
AcDbLine
 10
1556.970589276487
 20
3172.494269174611
 30
0.0
 11
1556.970589276487
 21
3154.494269174611
 31
0.0
  0
LINE
  5
18D3A
330
18C7A
100
AcDbEntity
  8
部品1
100
AcDbLine
 10
1556.970589276487
 20
3172.494269174611
 30
0.0
 11
1550.970589276487
 21
3172.494269174611
 31
0.0
  0
LINE
  5
18D3B
330
18C7A
100
AcDbEntity
  8
部品1
100
AcDbLine
 10
1534.470589276487
 20
3146.494269174608
 30
0.0
 11
1509.470589276487
 21
3146.494269174611
 31
0.0
  0
LINE
  5
18D3C
330
18C7A
100
AcDbEntity
  8
部品1
100
AcDbLine
 10
1486.970589276487
 20
3172.494269174611
 30
0.0
 11
1486.970589276487
 21
3154.494269174611
 31
0.0
  0
LINE
  5
18D3D
330
18C7A
100
AcDbEntity
  8
部品1
100
AcDbLine
 10
1492.970589276487
 20
3172.494269174611
 30
0.0
 11
1486.970589276487
 21
3172.494269174611
 31
0.0
  0
LINE
  5
18D3E
330
18C7A
100
AcDbEntity
  8
部品1
100
AcDbLine
 10
1534.470589276487
 20
2702.494269174615
 30
0.0
 11
1509.470589276487
 21
2702.494269174615
 31
0.0
  0
LINE
  5
18D3F
330
18C7A
100
AcDbEntity
  8
部品1
 48
50.0
100
AcDbLine
 10
1536.470589276487
 20
3152.494269174611
 30
0.0
 11
1536.470589276487
 21
2702.494269174615
 31
0.0
  0
LINE
  5
18D40
330
18C7A
100
AcDbEntity
  8
部品1
 48
50.0
100
AcDbLine
 10
1508.470589276487
 20
3152.494269174607
 30
0.0
 11
1508.470589276487
 21
2702.494269174615
 31
0.0
  0
LINE
  5
18D41
330
18C7A
100
AcDbEntity
  8
部品1
 48
50.0
100
AcDbLine
 10
1534.470589276487
 20
3154.494269174618
 30
0.0
 11
1534.470589276487
 21
2702.494269174615
 31
0.0
  0
LINE
  5
18D42
330
18C7A
100
AcDbEntity
  8
部品1
 48
50.0
100
AcDbLine
 10
1509.470589276487
 20
3154.494269174615
 30
0.0
 11
1509.470589276487
 21
2702.494269174615
 31
0.0
  0
LINE
  5
18D43
330
18C7A
100
AcDbEntity
  8
部品1
100
AcDbLine
 10
3411.970589276556
 20
1392.494269174582
 30
0.0
 11
3411.970589276556
 21
1420.494269174596
 31
0.0
  0
LINE
  5
18D44
330
18C7A
100
AcDbEntity
  8
部品1
100
AcDbLine
 10
1311.970589276523
 20
1392.494269174596
 30
0.0
 11
1311.970589276523
 21
1420.494269174596
 31
0.0
  0
LINE
  5
18D45
330
18C7A
100
AcDbEntity
  8
部品1
100
AcDbLine
 10
891.9705892765232
 20
1392.494269174596
 30
0.0
 11
891.9705892765232
 21
1420.494269174596
 31
0.0
  0
LINE
  5
18D46
330
18C7A
100
AcDbEntity
  8
部品1
100
AcDbLine
 10
3411.97058927652
 20
3182.494269174477
 30
0.0
 11
3411.970589276523
 21
3154.494269174477
 31
0.0
  0
LINE
  5
18D47
330
18C7A
100
AcDbEntity
  8
部品1
100
AcDbLine
 10
2571.97058927652
 20
3182.494269174477
 30
0.0
 11
2571.970589276523
 21
3154.494269174477
 31
0.0
  0
LINE
  5
18D48
330
18C7A
100
AcDbEntity
  8
部品1
100
AcDbLine
 10
2991.97058927652
 20
3182.494269174477
 30
0.0
 11
2991.970589276523
 21
3154.494269174477
 31
0.0
  0
LINE
  5
18D49
330
18C7A
100
AcDbEntity
  8
部品1
100
AcDbLine
 10
2151.970589276519
 20
3182.494269174477
 30
0.0
 11
2151.970589276523
 21
3154.494269174477
 31
0.0
  0
LINE
  5
18D4A
330
18C7A
100
AcDbEntity
  8
部品1
100
AcDbLine
 10
1731.970589276519
 20
3182.494269174477
 30
0.0
 11
1731.970589276523
 21
3154.494269174477
 31
0.0
  0
LINE
  5
18D4B
330
18C7A
100
AcDbEntity
  8
部品1
100
AcDbLine
 10
1311.970589276519
 20
3182.494269174477
 30
0.0
 11
1311.970589276523
 21
3154.494269174477
 31
0.0
  0
LINE
  5
18D4C
330
18C7A
100
AcDbEntity
  8
部品1
100
AcDbLine
 10
891.9705892765195
 20
3182.494269174477
 30
0.0
 11
891.9705892765232
 21
3154.494269174477
 31
0.0
  0
LINE
  5
18D4D
330
18C7A
100
AcDbEntity
  8
部品1
100
AcDbLine
 10
471.9705892765232
 20
1392.494269174596
 30
0.0
 11
471.9705892765232
 21
1420.494269174596
 31
0.0
  0
LINE
  5
18D4E
330
18C7A
100
AcDbEntity
  8
部品1
100
AcDbLine
 10
444.9705892765305
 20
1420.494269174558
 30
0.0
 11
3858.970589276556
 21
1420.494269174596
 31
0.0
  0
LINE
  5
18D4F
330
18C7A
100
AcDbEntity
  8
部品1
100
AcDbLine
 10
3831.970589276556
 20
1392.494269174596
 30
0.0
 11
3831.970589276556
 21
1420.494269174596
 31
0.0
  0
LINE
  5
18D50
330
18C7A
100
AcDbEntity
  8
部品1
100
AcDbLine
 10
3858.970589276556
 20
1447.494269174593
 30
0.0
 11
3886.970589276556
 21
1447.494269174593
 31
0.0
  0
LINE
  5
18D51
330
18C7A
100
AcDbEntity
  8
部品1
100
AcDbLine
 10
3858.970589276556
 20
1867.494269174607
 30
0.0
 11
3886.970589276556
 21
1867.494269174607
 31
0.0
  0
LINE
  5
18D52
330
18C7A
100
AcDbEntity
  8
部品1
100
AcDbLine
 10
444.9705892765305
 20
1867.49426917448
 30
0.0
 11
416.9705892765305
 21
1867.49426917448
 31
0.0
  0
LINE
  5
18D53
330
18C7A
100
AcDbEntity
  8
部品1
100
AcDbLine
 10
3830.470589276541
 20
1867.49426917458
 30
0.0
 11
473.4705892765396
 21
1867.49426917448
 31
0.0
  0
LINE
  5
18D54
330
18C7A
100
AcDbEntity
  8
部品1
100
AcDbLine
 10
3830.470589276541
 20
2287.49426917458
 30
0.0
 11
473.4705892765396
 21
2287.49426917448
 31
0.0
  0
LINE
  5
18D55
330
18C7A
100
AcDbEntity
  8
部品1
100
AcDbLine
 10
444.9705892765305
 20
2287.49426917448
 30
0.0
 11
416.9705892765305
 21
2287.49426917448
 31
0.0
  0
LINE
  5
18D56
330
18C7A
100
AcDbEntity
  8
部品1
100
AcDbLine
 10
3858.970589276556
 20
2287.494269174608
 30
0.0
 11
3886.970589276556
 21
2287.494269174608
 31
0.0
  0
LINE
  5
18D57
330
18C7A
100
AcDbEntity
  8
部品1
 48
50.0
100
AcDbLine
 10
2151.970589276551
 20
2702.494269174586
 30
0.0
 11
2151.970589276581
 21
1448.994269174494
 31
0.0
  0
LINE
  5
18D58
330
18C7A
100
AcDbEntity
  8
破線
 48
10.0
100
AcDbLine
 10
2959.470589276535
 20
1472.494269174522
 30
0.0
 11
2176.970589276532
 21
1472.494269174505
 31
0.0
  0
LINE
  5
18D59
330
18C7A
100
AcDbEntity
  8
破線
 48
10.0
100
AcDbLine
 10
3009.47058927653
 20
1448.994269174509
 30
0.0
 11
3009.47058927653
 21
2702.494269174615
 31
0.0
  0
LINE
  5
18D5A
330
18C7A
100
AcDbEntity
  8
破線
 48
10.0
100
AcDbLine
 10
2959.470589276535
 20
1448.994269174505
 30
0.0
 11
2959.470589276531
 21
2702.494269174615
 31
0.0
  0
LINE
  5
18D5B
330
18C7A
100
AcDbEntity
  8
破線
 48
10.0
100
AcDbLine
 10
1344.47058927653
 20
1448.994269174509
 30
0.0
 11
1344.47058927653
 21
2702.494269174615
 31
0.0
  0
LINE
  5
18D5C
330
18C7A
100
AcDbEntity
  8
破線
 48
10.0
100
AcDbLine
 10
1294.470589276534
 20
1448.994269174505
 30
0.0
 11
1294.47058927653
 21
2702.494269174615
 31
0.0
  0
DIMENSION
  5
18D5D
330
18C7A
100
AcDbEntity
  8
寸法
100
AcDbDimension
  2
*D13
 10
1451.234916278005
 20
2488.887829538828
 30
0.0
 11
916.0604668248634
 21
2488.887829538828
 31
0.0
 12
-3742.925985830444
 22
-6453.628869860112
 32
0.0
 70
   128
 71
     5
 42
1062.99999999993
  3
INABA_S40G
100
AcDbAlignedDimension
 13
445.4705892765559
 23
2702.494269174505
 33
0.0
 14
1508.470589276486
 24
2702.494269174558
 34
0.0
100
AcDbRotatedDimension
1001
ACAD
1000
DSTYLE
1002
{
1002
}
  0
LINE
  5
18D5E
330
18C7A
100
AcDbEntity
  8
破線
 48
10.0
100
AcDbLine
 10
1294.470589276534
 20
1472.494269174469
 30
0.0
 11
496.9705892765414
 21
1472.494269174476
 31
0.0
  0
LINE
  5
18D5F
330
18C7A
100
AcDbEntity
  8
部品1
100
AcDbLine
 10
3831.970589276556
 20
3182.494269174604
 30
0.0
 11
3831.970589276556
 21
3154.494269174604
 31
0.0
  0
LINE
  5
18D60
330
18C7A
100
AcDbEntity
  8
部品1
100
AcDbLine
 10
3831.970589276556
 20
3182.494269174626
 30
0.0
 11
3831.970589276556
 21
3154.494269174626
 31
0.0
  0
LINE
  5
18D61
330
18C7A
100
AcDbEntity
  8
部品1
100
AcDbLine
 10
3858.970589276556
 20
3127.494269174607
 30
0.0
 11
3886.970589276556
 21
3127.494269174607
 31
0.0
  0
LINE
  5
18D62
330
18C7A
100
AcDbEntity
  8
部品1
100
AcDbLine
 10
3858.970589276556
 20
2707.494269174608
 30
0.0
 11
3886.970589276556
 21
2707.494269174608
 31
0.0
  0
LINE
  5
18D63
330
18C7A
100
AcDbEntity
  8
部品1
100
AcDbLine
 10
3858.470589276556
 20
3152.494269174604
 30
0.0
 11
3858.470589276556
 21
2702.494269174608
 31
0.0
  0
LINE
  5
18D64
330
18C7A
100
AcDbEntity
  8
部品1
100
AcDbLine
 10
3886.970589276533
 20
1447.494269174593
 30
0.0
 11
3886.970589276531
 21
1392.494269174596
 31
0.0
  0
LINE
  5
18D65
330
18C7A
100
AcDbEntity
  8
部品1
 48
50.0
100
AcDbLine
 10
3830.470589276556
 20
1448.994269174596
 30
0.0
 11
3858.970589276554
 21
1420.494269174596
 31
0.0
  0
LINE
  5
18D66
330
18C7A
100
AcDbEntity
  8
部品1
100
AcDbLine
 10
3886.970589276531
 20
1392.494269174596
 30
0.0
 11
3835.970589276531
 21
1392.494269174596
 31
0.0
  0
LINE
  5
18D67
330
18C7A
100
AcDbEntity
  8
部品1
100
AcDbLine
 10
3858.970589276533
 20
1447.494269174593
 30
0.0
 11
3886.970589276531
 21
1447.494269174593
 31
0.0
  0
LINE
  5
18D68
330
18C7A
100
AcDbEntity
  8
部品1
100
AcDbLine
 10
3886.970589276556
 20
3182.494269174604
 30
0.0
 11
3886.970589276531
 21
1392.494269174596
 31
0.0
  0
DIMENSION
  5
18D69
330
18C7A
100
AcDbEntity
  8
寸法
100
AcDbDimension
  2
*D12
 10
4534.396935010967
 20
1447.494269174593
 30
0.0
 11
4534.396935010965
 21
2287.4942691746
 31
0.0
 12
-3742.925985830444
 22
-6453.628869860112
 32
0.0
 70
   128
  1
4X420=<>
 71
     5
 42
1680.000000000014
  3
INABA_S40G
100
AcDbAlignedDimension
 13
3886.970589276556
 23
3127.494269174607
 33
0.0
 14
3886.970589276531
 24
1447.494269174593
 34
0.0
 50
90.0
100
AcDbRotatedDimension
1001
ACAD
1000
DSTYLE
1002
{
1002
}
  0
LINE
  5
18D6A
330
18C7A
100
AcDbEntity
  8
部品1
100
AcDbLine
 10
3858.970589276556
 20
3154.494269174604
 30
0.0
 11
3858.970589276534
 21
1420.494269174596
 31
0.0
  0
DIMENSION
  5
18D6B
330
18C7A
100
AcDbEntity
  8
寸法
100
AcDbDimension
  2
*D11
 10
4213.82831513858
 20
2607.276453505718
 30
0.0
 11
4113.828315138579
 21
2832.276453505718
 31
0.0
 12
-3742.925985830444
 22
-6453.628869860112
 32
0.0
 71
     5
 42
449.9999999999963
  3
INABA_S40G
100
AcDbAlignedDimension
 13
3858.470589276556
 23
3152.494269174604
 33
0.0
 14
3858.470589276556
 24
2702.494269174608
 34
0.0
 50
90.0
100
AcDbRotatedDimension
1001
ACAD
1000
DSTYLE
1002
{
1002
}
  0
LINE
  5
18D6C
330
18C7A
100
AcDbEntity
  8
部品1
100
AcDbLine
 10
3830.470589276547
 20
2702.494269174608
 30
0.0
 11
3830.470589276556
 21
1448.994269174596
 31
0.0
  0
LINE
  5
18D6D
330
18C7A
100
AcDbEntity
  8
破線
 48
10.0
100
AcDbLine
 10
3806.970589276549
 20
2702.494269174608
 30
0.0
 11
3806.970589276558
 21
1472.494269174593
 31
0.0
  0
LINE
  5
18D6E
330
18C7A
100
AcDbEntity
  8
部品1
100
AcDbLine
 10
2769.470589276556
 20
3146.494269174608
 30
0.0
 11
2794.470589276556
 21
3146.494269174611
 31
0.0
  0
LINE
  5
18D6F
330
18C7A
100
AcDbEntity
  8
部品1
100
AcDbLine
 10
2810.970589276556
 20
3172.494269174611
 30
0.0
 11
2816.970589276556
 21
3172.494269174611
 31
0.0
  0
LINE
  5
18D70
330
18C7A
100
AcDbEntity
  8
部品1
100
AcDbLine
 10
2816.970589276556
 20
3172.494269174611
 30
0.0
 11
2816.970589276556
 21
3154.494269174611
 31
0.0
  0
LINE
  5
18D71
330
18C7A
100
AcDbEntity
  8
部品1
100
AcDbLine
 10
2746.970589276556
 20
3172.494269174611
 30
0.0
 11
2752.970589276556
 21
3172.494269174611
 31
0.0
  0
LINE
  5
18D72
330
18C7A
100
AcDbEntity
  8
部品1
100
AcDbLine
 10
2746.970589276556
 20
3172.494269174611
 30
0.0
 11
2746.970589276556
 21
3154.494269174611
 31
0.0
  0
LINE
  5
18D73
330
18C7A
100
AcDbEntity
  8
部品1
100
AcDbLine
 10
2769.470589276556
 20
2702.494269174615
 30
0.0
 11
2794.470589276556
 21
2702.494269174615
 31
0.0
  0
LINE
  5
18D74
330
18C7A
100
AcDbEntity
  8
部品1
 48
50.0
100
AcDbLine
 10
2794.470589276556
 20
3154.494269174615
 30
0.0
 11
2794.470589276556
 21
2702.494269174615
 31
0.0
  0
LINE
  5
18D75
330
18C7A
100
AcDbEntity
  8
部品1
 48
50.0
100
AcDbLine
 10
2769.470589276554
 20
3154.494269174618
 30
0.0
 11
2769.470589276556
 21
2702.494269174615
 31
0.0
  0
LINE
  5
18D76
330
18C7A
100
AcDbEntity
  8
部品1
 48
50.0
100
AcDbLine
 10
2795.470589276556
 20
3152.494269174607
 30
0.0
 11
2795.470589276556
 21
2702.494269174615
 31
0.0
  0
LINE
  5
18D77
330
18C7A
100
AcDbEntity
  8
部品1
 48
50.0
100
AcDbLine
 10
2767.470589276556
 20
3152.494269174611
 30
0.0
 11
2767.470589276556
 21
2702.494269174615
 31
0.0
  0
LINE
  5
18D78
330
18C7A
100
AcDbEntity
  8
破線
 48
10.0
100
AcDbLine
 10
2176.97058927653
 20
1448.994269174509
 30
0.0
 11
2176.97058927653
 21
2702.494269174588
 31
0.0
  0
LINE
  5
18D79
330
18C7A
100
AcDbEntity
  8
破線
 48
10.0
100
AcDbLine
 10
2126.970589276534
 20
1448.994269174505
 30
0.0
 11
2126.970589276531
 21
2702.494269174586
 31
0.0
  0
LINE
  5
18D7A
330
18C7A
100
AcDbEntity
  8
部品1
100
AcDbLine
 10
2794.470589276556
 20
3154.494269174622
 30
0.0
 11
3858.970589276556
 21
3154.494269174604
 31
0.0
  0
LINE
  5
18D7B
330
18C7A
100
AcDbEntity
  8
細線
 48
50.0
100
AcDbLine
 10
3858.470589276556
 20
2702.494269174608
 30
0.0
 11
2795.470589276556
 21
3152.494269174607
 31
0.0
  0
LINE
  5
18D7C
330
18C7A
100
AcDbEntity
  8
部品1
100
AcDbLine
 10
2795.470589276555
 20
2702.494269174615
 30
0.0
 11
3858.470589276556
 21
2702.494269174608
 31
0.0
  0
LINE
  5
18D7D
330
18C7A
100
AcDbEntity
  8
部品1
100
AcDbLine
 10
2795.470589276556
 20
3152.494269174611
 30
0.0
 11
3858.470589276556
 21
3152.494269174604
 31
0.0
  0
LINE
  5
18D7E
330
18C7A
100
AcDbEntity
  8
細線
 48
50.0
100
AcDbLine
 10
3858.470589276556
 20
3152.494269174604
 30
0.0
 11
2795.470589276555
 21
2702.494269174615
 31
0.0
  0
DIMENSION
  5
18D7F
330
18C7A
100
AcDbEntity
  8
寸法
100
AcDbDimension
  2
*D10
 10
3801.234916278101
 20
2488.887829538937
 30
0.0
 11
3318.360544398907
 21
2488.887829538937
 31
0.0
 12
-3742.925985830444
 22
-6453.628869860112
 32
0.0
 70
   128
 71
     5
 42
1063.000000000012
  3
INABA_S40G
100
AcDbAlignedDimension
 13
2795.470589276555
 23
2702.494269174615
 33
0.0
 14
3858.470589276567
 24
2702.494269174608
 34
0.0
100
AcDbRotatedDimension
1001
ACAD
1000
DSTYLE
1002
{
1002
}
  0
LINE
  5
18D80
330
18C7A
100
AcDbEntity
  8
破線
 48
10.0
100
AcDbLine
 10
3806.970589276556
 20
1472.494269174594
 30
0.0
 11
3009.47058927653
 21
1472.494269174523
 31
0.0
  0
DIMENSION
  5
18D81
330
18C7A
100
AcDbEntity
  8
寸法
100
AcDbDimension
  2
*D9
 10
4534.396935010941
 20
1392.494269174596
 30
0.0
 11
4534.39693501094
 21
1084.008987800356
 31
0.0
 12
-3742.925985830444
 22
-6453.628869860112
 32
0.0
 70
   128
 71
     5
 42
54.99999999999636
  3
INABA_S40G
100
AcDbAlignedDimension
 13
3886.970589276531
 23
1447.494269174593
 33
0.0
 14
3886.970589276531
 24
1392.494269174596
 34
0.0
 50
90.0
100
AcDbRotatedDimension
1001
ACAD
1000
DSTYLE
1002
{
1002
}
  0
LINE
  5
18D82
330
18C7A
100
AcDbEntity
  8
部品1
100
AcDbLine
 10
471.9705892765196
 20
3182.494269174477
 30
0.0
 11
471.9705892765232
 21
3154.494269174477
 31
0.0
  0
LINE
  5
18D83
330
18C7A
100
AcDbEntity
  8
部品1
100
AcDbLine
 10
471.9705892765559
 20
3182.494269174509
 30
0.0
 11
471.9705892765559
 21
3154.494269174509
 31
0.0
  0
LINE
  5
18D84
330
18C7A
100
AcDbEntity
  8
部品1
100
AcDbLine
 10
444.9705892765232
 20
3127.49426917448
 30
0.0
 11
416.9705892765232
 21
3127.49426917448
 31
0.0
  0
LINE
  5
18D85
330
18C7A
100
AcDbEntity
  8
部品1
100
AcDbLine
 10
444.9705892765305
 20
2707.49426917448
 30
0.0
 11
416.9705892765305
 21
2707.49426917448
 31
0.0
  0
LINE
  5
18D86
330
18C7A
100
AcDbEntity
  8
部品1
 48
50.0
100
AcDbLine
 10
445.4705892765542
 20
3152.494269174506
 30
0.0
 11
445.4705892765559
 21
2702.494269174505
 31
0.0
  0
LINE
  5
18D87
330
18C7A
100
AcDbEntity
  8
部品1
 48
50.0
100
AcDbLine
 10
473.470589276545
 20
1448.994269174573
 30
0.0
 11
444.970589276545
 21
1420.494269174574
 31
0.0
  0
LINE
  5
18D88
330
18C7A
100
AcDbEntity
  8
部品1
100
AcDbLine
 10
471.9705892765232
 20
1392.494269174465
 30
0.0
 11
416.9705892765486
 21
1392.494269174465
 31
0.0
  0
LINE
  5
18D89
330
18C7A
100
AcDbEntity
  8
部品1
100
AcDbLine
 10
444.9705892765305
 20
1447.494269174429
 30
0.0
 11
416.9705892765469
 21
1447.494269174429
 31
0.0
  0
LINE
  5
18D8A
330
18C7A
100
AcDbEntity
  8
部品1
100
AcDbLine
 10
444.9705892765305
 20
1447.494269174465
 30
0.0
 11
416.9705892765469
 21
1447.494269174465
 31
0.0
  0
LINE
  5
18D8B
330
18C7A
100
AcDbEntity
  8
部品1
100
AcDbLine
 10
444.9705892765469
 20
1447.49426917448
 30
0.0
 11
416.9705892765469
 21
1447.49426917448
 31
0.0
  0
LINE
  5
18D8C
330
18C7A
100
AcDbEntity
  8
部品1
100
AcDbLine
 10
416.9705892765469
 20
1447.494269174429
 30
0.0
 11
416.9705892765486
 21
1392.494269174433
 31
0.0
  0
LINE
  5
18D8D
330
18C7A
100
AcDbEntity
  8
部品1
100
AcDbLine
 10
416.9705892765196
 20
3182.494269174477
 30
0.0
 11
416.9705892765486
 21
1392.494269174465
 31
0.0
  0
LINE
  5
18D8E
330
18C7A
100
AcDbEntity
  8
部品1
100
AcDbLine
 10
444.9705892765305
 20
1420.494269174556
 30
0.0
 11
444.9705892765559
 21
3154.494269174509
 31
0.0
  0
LINE
  5
18D8F
330
18C7A
100
AcDbEntity
  8
部品1
100
AcDbLine
 10
473.4705892765323
 20
2702.494269174608
 30
0.0
 11
473.470589276545
 21
1448.994269174571
 31
0.0
  0
LINE
  5
18D90
330
18C7A
100
AcDbEntity
  8
破線
 48
10.0
100
AcDbLine
 10
496.9705892765305
 20
2702.494269174608
 30
0.0
 11
496.9705892765451
 21
1472.494269174476
 31
0.0
  0
DIMENSION
  5
18D91
330
18C7A
100
AcDbEntity
  8
寸法
100
AcDbDimension
  2
*D8
 10
3886.970589276531
 20
410.7433333855515
 30
0.0
 11
2168.197775309287
 21
410.7433333855515
 31
0.0
 12
-3742.925985830444
 22
-6453.628869860112
 32
0.0
 70
   128
 71
     5
 42
3469.999999999982
  3
INABA_S40G
100
AcDbAlignedDimension
 13
416.9705892765486
 23
1392.494269174433
 33
0.0
 14
3886.970589276531
 24
1392.49426917456
 34
0.0
100
AcDbRotatedDimension
1001
ACAD
1000
DSTYLE
1002
{
1070
   341
1005
0
1002
}
  0
LINE
  5
18D92
330
18C7A
100
AcDbEntity
  8
部品1
100
AcDbLine
 10
444.9705892765559
 20
3154.494269174624
 30
0.0
 11
1509.470589276487
 21
3154.494269174626
 31
0.0
  0
LINE
  5
18D93
330
18C7A
100
AcDbEntity
  8
部品1
100
AcDbLine
 10
3886.970589276531
 20
1392.494269174596
 30
0.0
 11
3411.970589276556
 21
1392.494269174582
 31
0.0
  0
LINE
  5
18D94
330
18C7A
100
AcDbEntity
  8
部品1
100
AcDbLine
 10
416.9705892765559
 20
3182.494269174509
 30
0.0
 11
3886.970589276556
 21
3182.494269174604
 31
0.0
  0
LINE
  5
18D95
330
18C7A
100
AcDbEntity
  8
部品1
100
AcDbLine
 10
445.4705892765559
 20
2702.494269174509
 30
0.0
 11
1508.470589276487
 21
2702.494269174558
 31
0.0
  0
LINE
  5
18D96
330
18C7A
100
AcDbEntity
  8
細線
 48
50.0
100
AcDbLine
 10
2767.470589276556
 20
3152.494269174611
 30
0.0
 11
1536.470589276487
 21
2702.494269174558
 31
0.0
  0
LINE
  5
18D97
330
18C7A
100
AcDbEntity
  8
部品1
100
AcDbLine
 10
445.4705892765542
 20
3152.494269174509
 30
0.0
 11
1508.470589276485
 21
3152.494269174558
 31
0.0
  0
LINE
  5
18D98
330
18C7A
100
AcDbEntity
  8
細線
 48
50.0
100
AcDbLine
 10
2767.470589276554
 20
2702.494269174615
 30
0.0
 11
1536.470589276485
 21
3152.494269174558
 31
0.0
  0
LINE
  5
18D99
330
18C7A
100
AcDbEntity
  8
破線
 48
10.0
100
AcDbLine
 10
2126.970589276534
 20
1472.494269174502
 30
0.0
 11
1344.47058927653
 21
1472.494269174473
 31
0.0
  0
LINE
  5
18D9A
330
18C7A
100
AcDbEntity
  8
部品1
100
AcDbLine
 10
3830.470589276556
 20
1448.994269174596
 30
0.0
 11
473.4705892764487
 21
1448.994269174476
 31
0.0
  0
DIMENSION
  5
18D9B
330
18C7A
100
AcDbEntity
  8
寸法
100
AcDbDimension
  2
*D7
 10
471.970589276555
 20
3698.302488799491
 30
0.0
 11
108.4853079022819
 21
3698.302488799491
 31
0.0
 12
-3742.925985830444
 22
-6453.628869860112
 32
0.0
 70
   128
 71
     5
 42
55.00000000003456
  3
INABA_S40G
100
AcDbAlignedDimension
 13
416.9705892765205
 23
3182.494269174509
 33
0.0
 14
471.970589276555
 24
3182.494269174509
 34
0.0
100
AcDbRotatedDimension
1001
ACAD
1000
DSTYLE
1002
{
1002
}
  0
DIMENSION
  5
18D9C
330
18C7A
100
AcDbEntity
  8
寸法
100
AcDbDimension
  2
*D6
 10
4534.396935010967
 20
3127.494269174607
 30
0.0
 11
4534.396935010965
 21
3490.979550548844
 31
0.0
 12
-3742.925985830444
 22
-6453.628869860112
 32
0.0
 70
   128
 71
     5
 42
54.99999999999636
  3
INABA_S40G
100
AcDbAlignedDimension
 13
3886.970589276556
 23
3182.494269174604
 33
0.0
 14
3886.970589276556
 24
3127.494269174607
 34
0.0
 50
90.0
100
AcDbRotatedDimension
1001
ACAD
1000
DSTYLE
1002
{
1002
}
  0
DIMENSION
  5
18D9D
330
18C7A
100
AcDbEntity
  8
寸法
100
AcDbDimension
  2
*D5
 10
3886.970589276556
 20
3698.302488799589
 30
0.0
 11
4195.455870650794
 21
3698.302488799589
 31
0.0
 12
-3742.925985830444
 22
-6453.628869860112
 32
0.0
 70
   128
 71
     5
 42
55.0
  3
INABA_S40G
100
AcDbAlignedDimension
 13
3831.970589276556
 23
3182.494269174604
 33
0.0
 14
3886.970589276556
 24
3182.494269174604
 34
0.0
100
AcDbRotatedDimension
1001
ACAD
1000
DSTYLE
1002
{
1002
}
  0
DIMENSION
  5
18D9E
330
18C7A
100
AcDbEntity
  8
寸法
100
AcDbDimension
  2
*D4
 10
3831.970589276556
 20
3698.302488799607
 30
0.0
 11
2151.970589276555
 21
3698.302488799607
 31
0.0
 12
-3742.925985830444
 22
-6453.628869860112
 32
0.0
 70
   128
  1
8X420=<>
 71
     5
 42
3360.000000000001
  3
INABA_S40G
100
AcDbAlignedDimension
 13
471.970589276555
 23
3182.494269174509
 33
0.0
 14
3831.970589276556
 24
3182.494269174604
 34
0.0
100
AcDbRotatedDimension
1001
ACAD
1000
DSTYLE
1002
{
1002
}
  0
DIMENSION
  5
18D9F
330
18C7A
100
AcDbEntity
  8
寸法
100
AcDbDimension
  2
*D3
 10
4899.503876750603
 20
1392.494269174596
 30
0.0
 11
4899.503876750601
 21
2287.4942691746
 31
0.0
 12
-3742.925985830444
 22
-6453.628869860112
 32
0.0
 70
   128
 71
     5
 42
1790.000000000007
  3
INABA_S40G
100
AcDbAlignedDimension
 13
3886.970589276556
 23
3182.494269174604
 33
0.0
 14
3886.970589276531
 24
1392.494269174596
 34
0.0
 50
90.0
100
AcDbRotatedDimension
1001
ACAD
1000
DSTYLE
1002
{
1002
}
  0
ENDBLK
  5
18DA1
330
18C7A
100
AcDbEntity
  8
0
 48
50.0
100
AcDbBlockEnd
  0
BLOCK
  5
1C4CB
330
1C4CA
100
AcDbEntity
  8
0
 48
50.0
100
AcDbBlockBegin
  2
_NONE
 70
     0
 10
0.0
 20
0.0
 30
0.0
  3
_NONE
  1

  0
CIRCLE
  5
1C4CC
330
1C4CA
100
AcDbEntity
  8
0
  6
ByBlock
 62
     0
 48
50.0
100
AcDbCircle
 10
0.0
 20
0.0
 30
0.0
 40
0.25
  0
ENDBLK
  5
1C4CD
330
1C4CA
100
AcDbEntity
  8
0
 48
50.0
100
AcDbBlockEnd
  0
BLOCK
  5
2A900
330
2A8F6
100
AcDbEntity
  8
0
 48
50.0
100
AcDbBlockBegin
  2
*D19
 70
     1
 10
0.0
 20
0.0
 30
0.0
  3
*D19
  1

  0
LINE
  5
2B3A0
330
2A8F6
100
AcDbEntity
  8
寸法
 62
     0
 48
50.0
370
    -2
100
AcDbLine
 10
4044.359716040831
 20
7177.552183902538
 30
0.0
 11
4044.359716040831
 21
8175.772505961457
 31
0.0
  0
LINE
  5
2B3A1
330
2A8F6
100
AcDbEntity
  8
寸法
 62
     0
 48
50.0
370
    -2
100
AcDbLine
 10
12604.35971604083
 20
7177.552183902538
 30
0.0
 11
12604.35971604083
 21
8175.772505961457
 31
0.0
  0
LINE
  5
2B3A2
330
2A8F6
100
AcDbEntity
  8
寸法
 62
     0
 48
50.0
370
    -2
100
AcDbLine
 10
4044.359716040831
 20
8115.772505961457
 30
0.0
 11
12604.35971604083
 21
8115.772505961457
 31
0.0
  0
INSERT
  5
2B3A3
330
2A8F6
100
AcDbEntity
  8
寸法
 62
     0
 48
50.0
370
    -2
100
AcDbBlockReference
  2
_DOTSMALL
 10
4044.359716040831
 20
8115.772505961457
 30
0.0
 41
100.0
 42
100.0
 43
100.0
 50
180.0
  0
INSERT
  5
2B3A4
330
2A8F6
100
AcDbEntity
  8
寸法
 62
     0
 48
50.0
370
    -2
100
AcDbBlockReference
  2
_DOTSMALL
 10
12604.35971604083
 20
8115.772505961457
 30
0.0
 41
100.0
 42
100.0
 43
100.0
  0
MTEXT
  5
2B3A5
330
2A8F6
100
AcDbEntity
  8
寸法
 62
     7
 48
50.0
100
AcDbMText
 10
8324.359716040831
 20
8215.772505961457
 30
0.0
 40
120.0
 41
0.0
 71
     5
 72
     1
  1
\A1;N X 950+10
  7
STYLE1
 73
     1
 44
1.0
1001
ACAD
1000
MTEXTBEGIN
1070
    73
1070
     1
1070
    44
1040
1.0
1070
    74
1070
     0
1000
MTEXTEND
  0
POINT
  5
2B3A6
330
2A8F6
100
AcDbEntity
  8
DEFPOINTS
 62
     0
 48
50.0
100
AcDbPoint
 10
4044.359716040831
 20
7157.552183902538
 30
0.0
  0
POINT
  5
2B3A7
330
2A8F6
100
AcDbEntity
  8
DEFPOINTS
 62
     0
 48
50.0
100
AcDbPoint
 10
12604.35971604083
 20
7157.552183902538
 30
0.0
  0
POINT
  5
2B3A8
330
2A8F6
100
AcDbEntity
  8
DEFPOINTS
 62
     0
 48
50.0
100
AcDbPoint
 10
12604.35971604083
 20
8115.772505961457
 30
0.0
  0
ENDBLK
  5
2A901
330
2A8F6
100
AcDbEntity
  8
0
 48
50.0
100
AcDbBlockEnd
  0
BLOCK
  5
2A90C
330
2A902
100
AcDbEntity
  8
0
 48
50.0
100
AcDbBlockBegin
  2
*D20
 70
     1
 10
0.0
 20
0.0
 30
0.0
  3
*D20
  1

  0
LINE
  5
2B3CD
330
2A902
100
AcDbEntity
  8
寸法
 62
     0
 48
50.0
370
    -2
100
AcDbLine
 10
4097.359716040831
 20
7034.55218390254
 30
0.0
 11
3361.424722370904
 21
7034.55218390254
 31
0.0
  0
LINE
  5
2B3CE
330
2A902
100
AcDbEntity
  8
寸法
 62
     0
 48
50.0
370
    -2
100
AcDbLine
 10
4097.359716040839
 20
6395.552183902542
 30
0.0
 11
3361.424722370904
 21
6395.552183902542
 31
0.0
  0
LINE
  5
2B3CF
330
2A902
100
AcDbEntity
  8
寸法
 62
     0
 48
50.0
370
    -2
100
AcDbLine
 10
3421.424722370904
 20
7034.55218390254
 30
0.0
 11
3421.424722370904
 21
6395.552183902542
 31
0.0
  0
INSERT
  5
2B3D0
330
2A902
100
AcDbEntity
  8
寸法
 62
     0
 48
50.0
370
    -2
100
AcDbBlockReference
  2
_DOTSMALL
 10
3421.424722370904
 20
7034.55218390254
 30
0.0
 41
100.0
 42
100.0
 43
100.0
 50
90.0
  0
INSERT
  5
2B3D1
330
2A902
100
AcDbEntity
  8
寸法
 62
     0
 48
50.0
370
    -2
100
AcDbBlockReference
  2
_DOTSMALL
 10
3421.424722370904
 20
6395.552183902542
 30
0.0
 41
100.0
 42
100.0
 43
100.0
 50
270.0
  0
MTEXT
  5
2B3D2
330
2A902
100
AcDbEntity
  8
寸法
 62
     7
 48
50.0
100
AcDbMText
 10
3321.424722370903
 20
6715.052183902539
 30
0.0
 40
120.0
 41
0.0
 71
     5
 72
     1
  1
\A1;639
  7
STYLE1
 11
0.0000000000000001
 21
1.0
 31
0.0
 73
     1
 44
1.0
1001
ACAD
1000
MTEXTBEGIN
1070
    73
1070
     1
1070
    44
1040
1.0
1070
    74
1070
     0
1000
MTEXTEND
  0
POINT
  5
2B3D3
330
2A902
100
AcDbEntity
  8
DEFPOINTS
 62
     0
 48
50.0
100
AcDbPoint
 10
4117.359716040832
 20
7034.55218390254
 30
0.0
  0
POINT
  5
2B3D4
330
2A902
100
AcDbEntity
  8
DEFPOINTS
 62
     0
 48
50.0
100
AcDbPoint
 10
4117.359716040839
 20
6395.552183902542
 30
0.0
  0
POINT
  5
2B3D5
330
2A902
100
AcDbEntity
  8
DEFPOINTS
 62
     0
 48
50.0
100
AcDbPoint
 10
3421.424722370904
 20
6395.552183902542
 30
0.0
  0
ENDBLK
  5
2A90D
330
2A902
100
AcDbEntity
  8
0
 48
50.0
100
AcDbBlockEnd
  0
BLOCK
  5
2A918
330
2A90E
100
AcDbEntity
  8
0
 48
50.0
100
AcDbBlockBegin
  2
*D21
 70
     1
 10
0.0
 20
0.0
 30
0.0
  3
*D21
  1

  0
LINE
  5
2B38E
330
2A90E
100
AcDbEntity
  8
寸法
 62
     0
 48
50.0
370
    -2
100
AcDbLine
 10
4024.359716040832
 20
7157.552183902538
 30
0.0
 11
3109.481625651505
 21
7157.552183902538
 31
0.0
  0
LINE
  5
2B38F
330
2A90E
100
AcDbEntity
  8
寸法
 62
     0
 48
50.0
370
    -2
100
AcDbLine
 10
4024.359716040832
 20
6197.552183902539
 30
0.0
 11
3109.481625651505
 21
6197.552183902539
 31
0.0
  0
LINE
  5
2B390
330
2A90E
100
AcDbEntity
  8
寸法
 62
     0
 48
50.0
370
    -2
100
AcDbLine
 10
3169.481625651505
 20
7157.552183902538
 30
0.0
 11
3169.481625651505
 21
6197.552183902539
 31
0.0
  0
INSERT
  5
2B391
330
2A90E
100
AcDbEntity
  8
寸法
 62
     0
 48
50.0
370
    -2
100
AcDbBlockReference
  2
_DOTSMALL
 10
3169.481625651505
 20
7157.552183902538
 30
0.0
 41
100.0
 42
100.0
 43
100.0
 50
90.0
  0
INSERT
  5
2B392
330
2A90E
100
AcDbEntity
  8
寸法
 62
     0
 48
50.0
370
    -2
100
AcDbBlockReference
  2
_DOTSMALL
 10
3169.481625651505
 20
6197.552183902539
 30
0.0
 41
100.0
 42
100.0
 43
100.0
 50
270.0
  0
MTEXT
  5
2B393
330
2A90E
100
AcDbEntity
  8
寸法
 62
     7
 48
50.0
100
AcDbMText
 10
3069.481625651504
 20
6715.052183902539
 30
0.0
 40
120.0
 41
0.0
 71
     5
 72
     1
  1
\A1;960
  7
STYLE1
 11
0.0000000000000001
 21
1.0
 31
0.0
 73
     1
 44
1.0
1001
ACAD
1000
MTEXTBEGIN
1070
    73
1070
     1
1070
    44
1040
1.0
1070
    74
1070
     0
1000
MTEXTEND
  0
POINT
  5
2B394
330
2A90E
100
AcDbEntity
  8
DEFPOINTS
 62
     0
 48
50.0
100
AcDbPoint
 10
4044.359716040831
 20
7157.552183902538
 30
0.0
  0
POINT
  5
2B395
330
2A90E
100
AcDbEntity
  8
DEFPOINTS
 62
     0
 48
50.0
100
AcDbPoint
 10
4044.359716040831
 20
6197.552183902539
 30
0.0
  0
POINT
  5
2B396
330
2A90E
100
AcDbEntity
  8
DEFPOINTS
 62
     0
 48
50.0
100
AcDbPoint
 10
3169.481625651505
 20
6197.552183902539
 30
0.0
  0
ENDBLK
  5
2A919
330
2A90E
100
AcDbEntity
  8
0
 48
50.0
100
AcDbBlockEnd
  0
BLOCK
  5
2A925
330
2A91A
100
AcDbEntity
  8
0
 48
50.0
100
AcDbBlockBegin
  2
*D22
 70
     1
 10
0.0
 20
0.0
 30
0.0
  3
*D22
  1

  0
LINE
  5
2B384
330
2A91A
100
AcDbEntity
  8
寸法
 62
     0
 48
50.0
370
    -2
100
AcDbLine
 10
4598.525191181732
 20
6197.55218390255
 30
0.0
 11
4467.045706655134
 21
6197.55218390255
 31
0.0
  0
LINE
  5
2B385
330
2A91A
100
AcDbEntity
  8
寸法
 62
     0
 48
50.0
370
    -2
100
AcDbLine
 10
4929.359716040838
 20
6677.552183902538
 30
0.0
 11
4467.045706655134
 21
6677.552183902538
 31
0.0
  0
LINE
  5
2B386
330
2A91A
100
AcDbEntity
  8
寸法
 62
     0
 48
50.0
370
    -2
100
AcDbLine
 10
4527.045706655133
 20
6677.552183902538
 30
0.0
 11
4527.045706655133
 21
6197.55218390255
 31
0.0
  0
LINE
  5
2B387
330
2A91A
100
AcDbEntity
  8
寸法
 62
     0
 48
50.0
370
    -2
100
AcDbLine
 10
4527.045706655133
 20
6197.55218390255
 30
0.0
 11
4527.045706655132
 21
5750.945884689951
 31
0.0
  0
INSERT
  5
2B388
330
2A91A
100
AcDbEntity
  8
寸法
 62
     0
 48
50.0
370
    -2
100
AcDbBlockReference
  2
_DOTSMALL
 10
4527.045706655133
 20
6677.552183902538
 30
0.0
 41
100.0
 42
100.0
 43
100.0
 50
90.0
  0
INSERT
  5
2B389
330
2A91A
100
AcDbEntity
  8
寸法
 62
     0
 48
50.0
370
    -2
100
AcDbBlockReference
  2
_DOTSMALL
 10
4527.045706655133
 20
6197.55218390255
 30
0.0
 41
100.0
 42
100.0
 43
100.0
 50
270.0
  0
MTEXT
  5
2B38A
330
2A91A
100
AcDbEntity
  8
寸法
 62
     7
 48
50.0
100
AcDbMText
 10
4427.045706655131
 20
5904.99312878444
 30
0.0
 40
120.0
 41
0.0
 71
     5
 72
     1
  1
\A1;480
  7
STYLE1
 11
0.0000000000000001
 21
1.0
 31
0.0
 73
     1
 44
1.0
1001
ACAD
1000
MTEXTBEGIN
1070
    73
1070
     1
1070
    44
1040
1.0
1070
    74
1070
     0
1000
MTEXTEND
  0
POINT
  5
2B38B
330
2A91A
100
AcDbEntity
  8
DEFPOINTS
 62
     0
 48
50.0
100
AcDbPoint
 10
4618.525191181732
 20
6197.55218390255
 30
0.0
  0
POINT
  5
2B38C
330
2A91A
100
AcDbEntity
  8
DEFPOINTS
 62
     0
 48
50.0
100
AcDbPoint
 10
4949.359716040839
 20
6677.552183902538
 30
0.0
  0
POINT
  5
2B38D
330
2A91A
100
AcDbEntity
  8
DEFPOINTS
 62
     0
 48
50.0
100
AcDbPoint
 10
4527.045706655133
 20
6677.552183902538
 30
0.0
  0
ENDBLK
  5
2A926
330
2A91A
100
AcDbEntity
  8
0
 48
50.0
100
AcDbBlockEnd
  0
BLOCK
  5
2A932
330
2A927
100
AcDbEntity
  8
0
 48
50.0
100
AcDbBlockBegin
  2
*D23
 70
     1
 10
0.0
 20
0.0
 30
0.0
  3
*D23
  1

  0
LINE
  5
2B3C3
330
2A927
100
AcDbEntity
  8
寸法
 62
     0
 48
50.0
370
    -2
100
AcDbLine
 10
4097.359716040839
 20
6395.552183902542
 30
0.0
 11
3361.424722370904
 21
6395.552183902542
 31
0.0
  0
LINE
  5
2B3C4
330
2A927
100
AcDbEntity
  8
寸法
 62
     0
 48
50.0
370
    -2
100
AcDbLine
 10
4024.359716040832
 20
6197.552183902539
 30
0.0
 11
3361.424722370904
 21
6197.552183902539
 31
0.0
  0
LINE
  5
2B3C5
330
2A927
100
AcDbEntity
  8
寸法
 62
     0
 48
50.0
370
    -2
100
AcDbLine
 10
3421.424722370904
 20
6395.552183902542
 30
0.0
 11
3421.424722370904
 21
6197.552183902539
 31
0.0
  0
LINE
  5
2B3C6
330
2A927
100
AcDbEntity
  8
寸法
 62
     0
 48
50.0
370
    -2
100
AcDbLine
 10
3421.424722370904
 20
6197.552183902539
 30
0.0
 11
3421.424722370904
 21
5725.811575230289
 31
0.0
  0
INSERT
  5
2B3C7
330
2A927
100
AcDbEntity
  8
寸法
 62
     0
 48
50.0
370
    -2
100
AcDbBlockReference
  2
_DOTSMALL
 10
3421.424722370904
 20
6395.552183902542
 30
0.0
 41
100.0
 42
100.0
 43
100.0
 50
90.0
  0
INSERT
  5
2B3C8
330
2A927
100
AcDbEntity
  8
寸法
 62
     0
 48
50.0
370
    -2
100
AcDbBlockReference
  2
_DOTSMALL
 10
3421.424722370904
 20
6197.552183902539
 30
0.0
 41
100.0
 42
100.0
 43
100.0
 50
270.0
  0
MTEXT
  5
2B3C9
330
2A927
100
AcDbEntity
  8
寸法
 62
     7
 48
50.0
100
AcDbMText
 10
3321.424722370903
 20
5862.021235059946
 30
0.0
 40
120.0
 41
0.0
 71
     5
 72
     1
  1
\A1;198
  7
STYLE1
 11
0.0000000000000001
 21
1.0
 31
0.0
 73
     1
 44
1.0
1001
ACAD
1000
MTEXTBEGIN
1070
    73
1070
     1
1070
    44
1040
1.0
1070
    74
1070
     0
1000
MTEXTEND
  0
POINT
  5
2B3CA
330
2A927
100
AcDbEntity
  8
DEFPOINTS
 62
     0
 48
50.0
100
AcDbPoint
 10
4117.359716040839
 20
6395.552183902542
 30
0.0
  0
POINT
  5
2B3CB
330
2A927
100
AcDbEntity
  8
DEFPOINTS
 62
     0
 48
50.0
100
AcDbPoint
 10
4044.359716040831
 20
6197.552183902539
 30
0.0
  0
POINT
  5
2B3CC
330
2A927
100
AcDbEntity
  8
DEFPOINTS
 62
     0
 48
50.0
100
AcDbPoint
 10
3421.424722370904
 20
6197.552183902539
 30
0.0
  0
ENDBLK
  5
2A933
330
2A927
100
AcDbEntity
  8
0
 48
50.0
100
AcDbBlockEnd
  0
BLOCK
  5
2A94A
330
2A940
100
AcDbEntity
  8
0
 48
50.0
100
AcDbBlockBegin
  2
*D24
 70
     1
 10
0.0
 20
0.0
 30
0.0
  3
*D24
  1

  0
LINE
  5
2B371
330
2A940
100
AcDbEntity
  8
寸法
 62
     0
 48
50.0
370
    -2
100
AcDbLine
 10
4024.359716040835
 20
6197.552183902535
 30
0.0
 11
3871.272389808714
 21
6197.552183902535
 31
0.0
  0
LINE
  5
2B372
330
2A940
100
AcDbEntity
  8
寸法
 62
     0
 48
50.0
370
    -2
100
AcDbLine
 10
4380.08504296964
 20
5477.552183902535
 30
0.0
 11
3871.272389808714
 21
5477.552183902535
 31
0.0
  0
LINE
  5
2B373
330
2A940
100
AcDbEntity
  8
寸法
 62
     0
 48
50.0
370
    -2
100
AcDbLine
 10
3931.272389808714
 20
6197.552183902535
 30
0.0
 11
3931.272389808714
 21
5477.552183902535
 31
0.0
  0
INSERT
  5
2B374
330
2A940
100
AcDbEntity
  8
寸法
 62
     0
 48
50.0
370
    -2
100
AcDbBlockReference
  2
_DOTSMALL
 10
3931.272389808714
 20
6197.552183902535
 30
0.0
 41
100.0
 42
100.0
 43
100.0
 50
90.0
  0
INSERT
  5
2B375
330
2A940
100
AcDbEntity
  8
寸法
 62
     0
 48
50.0
370
    -2
100
AcDbBlockReference
  2
_DOTSMALL
 10
3931.272389808714
 20
5477.552183902535
 30
0.0
 41
100.0
 42
100.0
 43
100.0
 50
270.0
  0
MTEXT
  5
2B376
330
2A940
100
AcDbEntity
  8
寸法
 62
     7
 48
50.0
100
AcDbMText
 10
3831.260578785091
 20
5837.552183902536
 30
0.0
 40
120.0
 41
0.0
 71
     5
 72
     1
  1
\A1;扉の出720
  7
STYLE1
 11
0.0000000000000001
 21
1.0
 31
0.0
 73
     1
 44
1.0
1001
ACAD
1000
MTEXTBEGIN
1070
    73
1070
     1
1070
    44
1040
1.0
1070
    74
1070
     0
1000
MTEXTEND
  0
POINT
  5
2B377
330
2A940
100
AcDbEntity
  8
DEFPOINTS
 62
     0
 48
50.0
100
AcDbPoint
 10
4044.359716040835
 20
6197.552183902535
 30
0.0
  0
POINT
  5
2B378
330
2A940
100
AcDbEntity
  8
DEFPOINTS
 62
     0
 48
50.0
100
AcDbPoint
 10
4400.08504296964
 20
5477.552183902535
 30
0.0
  0
POINT
  5
2B379
330
2A940
100
AcDbEntity
  8
DEFPOINTS
 62
     0
 48
50.0
100
AcDbPoint
 10
3931.272389808714
 20
5477.552183902535
 30
0.0
  0
ENDBLK
  5
2A94B
330
2A940
100
AcDbEntity
  8
0
 48
50.0
100
AcDbBlockEnd
  0
BLOCK
  5
2A962
330
2A959
100
AcDbEntity
  8
0
 48
50.0
100
AcDbBlockBegin
  2
*D25
 70
     1
 10
0.0
 20
0.0
 30
0.0
  3
*D25
  1

  0
LINE
  5
2B368
330
2A959
100
AcDbEntity
  8
寸法
 62
     0
 48
50.0
370
    -2
100
AcDbLine
 10
5949.359716040839
 20
6747.552183902539
 30
0.0
 11
5949.359716040839
 21
7700.161000572787
 31
0.0
  0
LINE
  5
2B369
330
2A959
100
AcDbEntity
  8
寸法
 62
     0
 48
50.0
370
    -2
100
AcDbLine
 10
4999.359716040839
 20
6747.552183902539
 30
0.0
 11
4999.359716040839
 21
7700.161000572787
 31
0.0
  0
LINE
  5
2B36A
330
2A959
100
AcDbEntity
  8
寸法
 62
     0
 48
50.0
370
    -2
100
AcDbLine
 10
5949.359716040839
 20
7640.161000572788
 30
0.0
 11
4999.359716040839
 21
7640.161000572788
 31
0.0
  0
INSERT
  5
2B36B
330
2A959
100
AcDbEntity
  8
寸法
 62
     0
 48
50.0
370
    -2
100
AcDbBlockReference
  2
_DOTSMALL
 10
5949.359716040839
 20
7640.161000572788
 30
0.0
 41
100.0
 42
100.0
 43
100.0
  0
INSERT
  5
2B36C
330
2A959
100
AcDbEntity
  8
寸法
 62
     0
 48
50.0
370
    -2
100
AcDbBlockReference
  2
_DOTSMALL
 10
4999.359716040839
 20
7640.161000572788
 30
0.0
 41
100.0
 42
100.0
 43
100.0
 50
180.0
  0
MTEXT
  5
2B36D
330
2A959
100
AcDbEntity
  8
寸法
 62
     7
 48
50.0
100
AcDbMText
 10
5474.359716040839
 20
7740.161000572787
 30
0.0
 40
120.0
 41
0.0
 71
     5
 72
     1
  1
\A1;950
  7
STYLE1
 73
     1
 44
1.0
1001
ACAD
1000
MTEXTBEGIN
1070
    73
1070
     1
1070
    44
1040
1.0
1070
    74
1070
     0
1000
MTEXTEND
  0
POINT
  5
2B36E
330
2A959
100
AcDbEntity
  8
DEFPOINTS
 62
     0
 48
50.0
100
AcDbPoint
 10
5949.359716040839
 20
6727.552183902538
 30
0.0
  0
POINT
  5
2B36F
330
2A959
100
AcDbEntity
  8
DEFPOINTS
 62
     0
 48
50.0
100
AcDbPoint
 10
4999.359716040839
 20
6727.552183902538
 30
0.0
  0
POINT
  5
2B370
330
2A959
100
AcDbEntity
  8
DEFPOINTS
 62
     0
 48
50.0
100
AcDbPoint
 10
4999.359716040839
 20
7640.161000572788
 30
0.0
  0
ENDBLK
  5
2A963
330
2A959
100
AcDbEntity
  8
0
 48
50.0
100
AcDbBlockEnd
  0
BLOCK
  5
2A96E
330
2A964
100
AcDbEntity
  8
0
 48
50.0
100
AcDbBlockBegin
  2
*D26
 70
     1
 10
0.0
 20
0.0
 30
0.0
  3
*D26
  1

  0
LINE
  5
2B35F
330
2A964
100
AcDbEntity
  8
寸法
 62
     0
 48
50.0
370
    -2
100
AcDbLine
 10
6781.359716040832
 20
7104.552183902538
 30
0.0
 11
6781.359716040832
 21
7943.81864199645
 31
0.0
  0
LINE
  5
2B360
330
2A964
100
AcDbEntity
  8
寸法
 62
     0
 48
50.0
370
    -2
100
AcDbLine
 10
4167.359716040832
 20
7104.552183902538
 30
0.0
 11
4167.359716040832
 21
7943.81864199645
 31
0.0
  0
LINE
  5
2B361
330
2A964
100
AcDbEntity
  8
寸法
 62
     0
 48
50.0
370
    -2
100
AcDbLine
 10
6781.359716040832
 20
7883.81864199645
 30
0.0
 11
4167.359716040832
 21
7883.81864199645
 31
0.0
  0
INSERT
  5
2B362
330
2A964
100
AcDbEntity
  8
寸法
 62
     0
 48
50.0
370
    -2
100
AcDbBlockReference
  2
_DOTSMALL
 10
6781.359716040832
 20
7883.81864199645
 30
0.0
 41
100.0
 42
100.0
 43
100.0
  0
INSERT
  5
2B363
330
2A964
100
AcDbEntity
  8
寸法
 62
     0
 48
50.0
370
    -2
100
AcDbBlockReference
  2
_DOTSMALL
 10
4167.359716040832
 20
7883.81864199645
 30
0.0
 41
100.0
 42
100.0
 43
100.0
 50
180.0
  0
MTEXT
  5
2B364
330
2A964
100
AcDbEntity
  8
寸法
 62
     7
 48
50.0
100
AcDbMText
 10
5474.359716040832
 20
7983.830453020072
 30
0.0
 40
120.0
 41
0.0
 71
     5
 72
     1
  1
\A1;2614
  7
STYLE1
 73
     1
 44
1.0
1001
ACAD
1000
MTEXTBEGIN
1070
    73
1070
     1
1070
    44
1040
1.0
1070
    74
1070
     0
1000
MTEXTEND
  0
POINT
  5
2B365
330
2A964
100
AcDbEntity
  8
DEFPOINTS
 62
     0
 48
50.0
100
AcDbPoint
 10
6781.359716040832
 20
7084.552183902539
 30
0.0
  0
POINT
  5
2B366
330
2A964
100
AcDbEntity
  8
DEFPOINTS
 62
     0
 48
50.0
100
AcDbPoint
 10
4167.359716040832
 20
7084.552183902539
 30
0.0
  0
POINT
  5
2B367
330
2A964
100
AcDbEntity
  8
DEFPOINTS
 62
     0
 48
50.0
100
AcDbPoint
 10
4167.359716040832
 20
7883.81864199645
 30
0.0
  0
ENDBLK
  5
2A96F
330
2A964
100
AcDbEntity
  8
0
 48
50.0
100
AcDbBlockEnd
  0
BLOCK
  5
2A97B
330
2A970
100
AcDbEntity
  8
0
 48
50.0
100
AcDbBlockBegin
  2
*D27
 70
     1
 10
0.0
 20
0.0
 30
0.0
  3
*D27
  1

  0
LINE
  5
2B355
330
2A970
100
AcDbEntity
  8
寸法
 62
     0
 48
50.0
370
    -2
100
AcDbLine
 10
4024.359716040832
 20
7157.552183902538
 30
0.0
 11
3361.424722370904
 21
7157.552183902538
 31
0.0
  0
LINE
  5
2B356
330
2A970
100
AcDbEntity
  8
寸法
 62
     0
 48
50.0
370
    -2
100
AcDbLine
 10
4097.359716040831
 20
7034.55218390254
 30
0.0
 11
3361.424722370904
 21
7034.55218390254
 31
0.0
  0
LINE
  5
2B357
330
2A970
100
AcDbEntity
  8
寸法
 62
     0
 48
50.0
370
    -2
100
AcDbLine
 10
3421.424722370904
 20
7034.55218390254
 30
0.0
 11
3421.424722370904
 21
7157.552183902538
 31
0.0
  0
LINE
  5
2B358
330
2A970
100
AcDbEntity
  8
寸法
 62
     0
 48
50.0
370
    -2
100
AcDbLine
 10
3421.424722370904
 20
7157.552183902538
 30
0.0
 11
3421.424722370904
 21
7569.144066994576
 31
0.0
  0
INSERT
  5
2B359
330
2A970
100
AcDbEntity
  8
寸法
 62
     0
 48
50.0
370
    -2
100
AcDbBlockReference
  2
_DOTSMALL
 10
3421.424722370904
 20
7034.55218390254
 30
0.0
 41
100.0
 42
100.0
 43
100.0
 50
270.0
  0
INSERT
  5
2B35A
330
2A970
100
AcDbEntity
  8
寸法
 62
     0
 48
50.0
370
    -2
100
AcDbBlockReference
  2
_DOTSMALL
 10
3421.424722370904
 20
7157.552183902538
 30
0.0
 41
100.0
 42
100.0
 43
100.0
 50
90.0
  0
MTEXT
  5
2B35B
330
2A970
100
AcDbEntity
  8
寸法
 62
     7
 48
50.0
100
AcDbMText
 10
3321.412911347281
 20
7430.658785620337
 30
0.0
 40
120.0
 41
0.0
 71
     5
 72
     1
  1
\A1;123
  7
STYLE1
 11
0.0000000000000001
 21
1.0
 31
0.0
 73
     1
 44
1.0
1001
ACAD
1000
MTEXTBEGIN
1070
    73
1070
     1
1070
    44
1040
1.0
1070
    74
1070
     0
1000
MTEXTEND
  0
POINT
  5
2B35C
330
2A970
100
AcDbEntity
  8
DEFPOINTS
 62
     0
 48
50.0
100
AcDbPoint
 10
4044.359716040831
 20
7157.552183902538
 30
0.0
  0
POINT
  5
2B35D
330
2A970
100
AcDbEntity
  8
DEFPOINTS
 62
     0
 48
50.0
100
AcDbPoint
 10
4117.359716040832
 20
7034.55218390254
 30
0.0
  0
POINT
  5
2B35E
330
2A970
100
AcDbEntity
  8
DEFPOINTS
 62
     0
 48
50.0
100
AcDbPoint
 10
3421.424722370904
 20
7034.55218390254
 30
0.0
  0
ENDBLK
  5
2A97C
330
2A970
100
AcDbEntity
  8
0
 48
50.0
100
AcDbBlockEnd
  0
BLOCK
  5
2A992
330
2A987
100
AcDbEntity
  8
0
 48
50.0
100
AcDbBlockBegin
  2
*D28
 70
     1
 10
0.0
 20
0.0
 30
0.0
  3
*D28
  1

  0
LINE
  5
2B34B
330
2A987
100
AcDbEntity
  8
寸法
 62
     0
 48
50.0
370
    -2
100
AcDbLine
 10
4167.359716040832
 20
7104.552183902538
 30
0.0
 11
4167.359716040832
 21
7943.81864199645
 31
0.0
  0
LINE
  5
2B34C
330
2A987
100
AcDbEntity
  8
寸法
 62
     0
 48
50.0
370
    -2
100
AcDbLine
 10
4044.359716040831
 20
7177.552183902538
 30
0.0
 11
4044.359716040831
 21
7943.81864199645
 31
0.0
  0
LINE
  5
2B34D
330
2A987
100
AcDbEntity
  8
寸法
 62
     0
 48
50.0
370
    -2
100
AcDbLine
 10
4167.359716040832
 20
7883.81864199645
 30
0.0
 11
4044.359716040831
 21
7883.81864199645
 31
0.0
  0
LINE
  5
2B34E
330
2A987
100
AcDbEntity
  8
寸法
 62
     0
 48
50.0
370
    -2
100
AcDbLine
 10
4044.359716040831
 20
7883.81864199645
 30
0.0
 11
3632.767832948796
 21
7883.81864199645
 31
0.0
  0
INSERT
  5
2B34F
330
2A987
100
AcDbEntity
  8
寸法
 62
     0
 48
50.0
370
    -2
100
AcDbBlockReference
  2
_DOTSMALL
 10
4167.359716040832
 20
7883.81864199645
 30
0.0
 41
100.0
 42
100.0
 43
100.0
  0
INSERT
  5
2B350
330
2A987
100
AcDbEntity
  8
寸法
 62
     0
 48
50.0
370
    -2
100
AcDbBlockReference
  2
_DOTSMALL
 10
4044.359716040831
 20
7883.81864199645
 30
0.0
 41
100.0
 42
100.0
 43
100.0
 50
180.0
  0
MTEXT
  5
2B351
330
2A987
100
AcDbEntity
  8
寸法
 62
     7
 48
50.0
100
AcDbMText
 10
3771.253114323034
 20
7983.830453020072
 30
0.0
 40
120.0
 41
0.0
 71
     5
 72
     1
  1
\A1;123
  7
STYLE1
 73
     1
 44
1.0
1001
ACAD
1000
MTEXTBEGIN
1070
    73
1070
     1
1070
    44
1040
1.0
1070
    74
1070
     0
1000
MTEXTEND
  0
POINT
  5
2B352
330
2A987
100
AcDbEntity
  8
DEFPOINTS
 62
     0
 48
50.0
100
AcDbPoint
 10
4167.359716040832
 20
7084.552183902539
 30
0.0
  0
POINT
  5
2B353
330
2A987
100
AcDbEntity
  8
DEFPOINTS
 62
     0
 48
50.0
100
AcDbPoint
 10
4044.359716040831
 20
7157.552183902538
 30
0.0
  0
POINT
  5
2B354
330
2A987
100
AcDbEntity
  8
DEFPOINTS
 62
     0
 48
50.0
100
AcDbPoint
 10
4044.359716040831
 20
7883.81864199645
 30
0.0
  0
ENDBLK
  5
2A993
330
2A987
100
AcDbEntity
  8
0
 48
50.0
100
AcDbBlockEnd
  0
BLOCK
  5
2A9AB
330
2A9A1
100
AcDbEntity
  8
0
 48
50.0
100
AcDbBlockBegin
  2
*D29
 70
     1
 10
0.0
 20
0.0
 30
0.0
  3
*D29
  1

  0
LINE
  5
2B342
330
2A9A1
100
AcDbEntity
  8
寸法
 62
     0
 48
50.0
370
    -2
100
AcDbLine
 10
4999.359716040839
 20
6747.552183902539
 30
0.0
 11
4999.359716040839
 21
7700.161000572787
 31
0.0
  0
LINE
  5
2B343
330
2A9A1
100
AcDbEntity
  8
寸法
 62
     0
 48
50.0
370
    -2
100
AcDbLine
 10
4044.359716040831
 20
7177.552183902538
 30
0.0
 11
4044.359716040831
 21
7700.161000572787
 31
0.0
  0
LINE
  5
2B344
330
2A9A1
100
AcDbEntity
  8
寸法
 62
     0
 48
50.0
370
    -2
100
AcDbLine
 10
4999.359716040839
 20
7640.161000572788
 30
0.0
 11
4044.359716040831
 21
7640.161000572788
 31
0.0
  0
INSERT
  5
2B345
330
2A9A1
100
AcDbEntity
  8
寸法
 62
     0
 48
50.0
370
    -2
100
AcDbBlockReference
  2
_DOTSMALL
 10
4999.359716040839
 20
7640.161000572788
 30
0.0
 41
100.0
 42
100.0
 43
100.0
  0
INSERT
  5
2B346
330
2A9A1
100
AcDbEntity
  8
寸法
 62
     0
 48
50.0
370
    -2
100
AcDbBlockReference
  2
_DOTSMALL
 10
4044.359716040831
 20
7640.161000572788
 30
0.0
 41
100.0
 42
100.0
 43
100.0
 50
180.0
  0
MTEXT
  5
2B347
330
2A9A1
100
AcDbEntity
  8
寸法
 62
     7
 48
50.0
100
AcDbMText
 10
4521.859716040835
 20
7740.161000572787
 30
0.0
 40
120.0
 41
0.0
 71
     5
 72
     1
  1
\A1;955
  7
STYLE1
 73
     1
 44
1.0
1001
ACAD
1000
MTEXTBEGIN
1070
    73
1070
     1
1070
    44
1040
1.0
1070
    74
1070
     0
1000
MTEXTEND
  0
POINT
  5
2B348
330
2A9A1
100
AcDbEntity
  8
DEFPOINTS
 62
     0
 48
50.0
100
AcDbPoint
 10
4999.359716040839
 20
6727.552183902538
 30
0.0
  0
POINT
  5
2B349
330
2A9A1
100
AcDbEntity
  8
DEFPOINTS
 62
     0
 48
50.0
100
AcDbPoint
 10
4044.359716040831
 20
7157.552183902538
 30
0.0
  0
POINT
  5
2B34A
330
2A9A1
100
AcDbEntity
  8
DEFPOINTS
 62
     0
 48
50.0
100
AcDbPoint
 10
4044.359716040831
 20
7640.161000572788
 30
0.0
  0
ENDBLK
  5
2A9AC
330
2A9A1
100
AcDbEntity
  8
0
 48
50.0
100
AcDbBlockEnd
  0
BLOCK
  5
2A9B8
330
2A9AD
100
AcDbEntity
  8
0
 48
50.0
100
AcDbBlockBegin
  2
*D30
 70
     1
 10
0.0
 20
0.0
 30
0.0
  3
*D30
  1

  0
LINE
  5
2B338
330
2A9AD
100
AcDbEntity
  8
寸法
 62
     0
 48
50.0
370
    -2
100
AcDbLine
 10
4929.359716040838
 20
6677.552183902538
 30
0.0
 11
4467.045706655133
 21
6677.552183902538
 31
0.0
  0
LINE
  5
2B339
330
2A9AD
100
AcDbEntity
  8
寸法
 62
     0
 48
50.0
370
    -2
100
AcDbLine
 10
4598.525191181732
 20
7157.552183902538
 30
0.0
 11
4467.045706655133
 21
7157.552183902538
 31
0.0
  0
LINE
  5
2B33A
330
2A9AD
100
AcDbEntity
  8
寸法
 62
     0
 48
50.0
370
    -2
100
AcDbLine
 10
4527.045706655132
 20
6677.552183902538
 30
0.0
 11
4527.045706655132
 21
7157.552183902538
 31
0.0
  0
LINE
  5
2B33B
330
2A9AD
100
AcDbEntity
  8
寸法
 62
     0
 48
50.0
370
    -2
100
AcDbLine
 10
4527.045706655132
 20
7157.552183902538
 30
0.0
 11
4527.045706655132
 21
7604.158483115138
 31
0.0
  0
INSERT
  5
2B33C
330
2A9AD
100
AcDbEntity
  8
寸法
 62
     0
 48
50.0
370
    -2
100
AcDbBlockReference
  2
_DOTSMALL
 10
4527.045706655132
 20
6677.552183902538
 30
0.0
 41
100.0
 42
100.0
 43
100.0
 50
270.0
  0
INSERT
  5
2B33D
330
2A9AD
100
AcDbEntity
  8
寸法
 62
     0
 48
50.0
370
    -2
100
AcDbBlockReference
  2
_DOTSMALL
 10
4527.045706655132
 20
7157.552183902538
 30
0.0
 41
100.0
 42
100.0
 43
100.0
 50
90.0
  0
MTEXT
  5
2B33E
330
2A9AD
100
AcDbEntity
  8
寸法
 62
     7
 48
50.0
100
AcDbMText
 10
4427.045706655131
 20
7450.111239020651
 30
0.0
 40
120.0
 41
0.0
 71
     5
 72
     1
  1
\A1;480
  7
STYLE1
 11
0.0000000000000001
 21
1.0
 31
0.0
 73
     1
 44
1.0
1001
ACAD
1000
MTEXTBEGIN
1070
    73
1070
     1
1070
    44
1040
1.0
1070
    74
1070
     0
1000
MTEXTEND
  0
POINT
  5
2B33F
330
2A9AD
100
AcDbEntity
  8
DEFPOINTS
 62
     0
 48
50.0
100
AcDbPoint
 10
4949.359716040839
 20
6677.552183902538
 30
0.0
  0
POINT
  5
2B340
330
2A9AD
100
AcDbEntity
  8
DEFPOINTS
 62
     0
 48
50.0
100
AcDbPoint
 10
4618.525191181732
 20
7157.552183902538
 30
0.0
  0
POINT
  5
2B341
330
2A9AD
100
AcDbEntity
  8
DEFPOINTS
 62
     0
 48
50.0
100
AcDbPoint
 10
4527.045706655132
 20
7157.552183902538
 30
0.0
  0
ENDBLK
  5
2A9B9
330
2A9AD
100
AcDbEntity
  8
0
 48
50.0
100
AcDbBlockEnd
  0
BLOCK
  5
2A9C3
330
2A9BA
100
AcDbEntity
  8
0
 48
50.0
100
AcDbBlockBegin
  2
*D31
 70
     1
 10
0.0
 20
0.0
 30
0.0
  3
*D31
  1

  0
LINE
  5
2B32F
330
2A9BA
100
AcDbEntity
  8
寸法
 62
     0
 48
50.0
370
    -2
100
AcDbLine
 10
6899.359716040838
 20
6747.552183902539
 30
0.0
 11
6899.359716040838
 21
7700.161000572787
 31
0.0
  0
LINE
  5
2B330
330
2A9BA
100
AcDbEntity
  8
寸法
 62
     0
 48
50.0
370
    -2
100
AcDbLine
 10
5949.359716040839
 20
6747.552183902539
 30
0.0
 11
5949.359716040839
 21
7700.161000572787
 31
0.0
  0
LINE
  5
2B331
330
2A9BA
100
AcDbEntity
  8
寸法
 62
     0
 48
50.0
370
    -2
100
AcDbLine
 10
6899.359716040838
 20
7640.161000572788
 30
0.0
 11
5949.359716040839
 21
7640.161000572788
 31
0.0
  0
INSERT
  5
2B332
330
2A9BA
100
AcDbEntity
  8
寸法
 62
     0
 48
50.0
370
    -2
100
AcDbBlockReference
  2
_DOTSMALL
 10
6899.359716040838
 20
7640.161000572788
 30
0.0
 41
100.0
 42
100.0
 43
100.0
  0
INSERT
  5
2B333
330
2A9BA
100
AcDbEntity
  8
寸法
 62
     0
 48
50.0
370
    -2
100
AcDbBlockReference
  2
_DOTSMALL
 10
5949.359716040839
 20
7640.161000572788
 30
0.0
 41
100.0
 42
100.0
 43
100.0
 50
180.0
  0
MTEXT
  5
2B334
330
2A9BA
100
AcDbEntity
  8
寸法
 62
     7
 48
50.0
100
AcDbMText
 10
6424.359716040838
 20
7740.161000572787
 30
0.0
 40
120.0
 41
0.0
 71
     5
 72
     1
  1
\A1;950
  7
STYLE1
 73
     1
 44
1.0
1001
ACAD
1000
MTEXTBEGIN
1070
    73
1070
     1
1070
    44
1040
1.0
1070
    74
1070
     0
1000
MTEXTEND
  0
POINT
  5
2B335
330
2A9BA
100
AcDbEntity
  8
DEFPOINTS
 62
     0
 48
50.0
100
AcDbPoint
 10
6899.359716040838
 20
6727.552183902538
 30
0.0
  0
POINT
  5
2B336
330
2A9BA
100
AcDbEntity
  8
DEFPOINTS
 62
     0
 48
50.0
100
AcDbPoint
 10
5949.359716040839
 20
6727.552183902538
 30
0.0
  0
POINT
  5
2B337
330
2A9BA
100
AcDbEntity
  8
DEFPOINTS
 62
     0
 48
50.0
100
AcDbPoint
 10
5949.359716040839
 20
7640.161000572788
 30
0.0
  0
ENDBLK
  5
2A9C4
330
2A9BA
100
AcDbEntity
  8
0
 48
50.0
100
AcDbBlockEnd
  0
BLOCK
  5
2A9CF
330
2A9C5
100
AcDbEntity
  8
0
 48
50.0
100
AcDbBlockBegin
  2
*D32
 70
     1
 10
0.0
 20
0.0
 30
0.0
  3
*D32
  1

  0
LINE
  5
2B326
330
2A9C5
100
AcDbEntity
  8
寸法
 62
     0
 48
50.0
370
    -2
100
AcDbLine
 10
7849.359716040838
 20
6747.552183902539
 30
0.0
 11
7849.359716040838
 21
7700.161000572787
 31
0.0
  0
LINE
  5
2B327
330
2A9C5
100
AcDbEntity
  8
寸法
 62
     0
 48
50.0
370
    -2
100
AcDbLine
 10
6899.359716040838
 20
6747.552183902539
 30
0.0
 11
6899.359716040838
 21
7700.161000572787
 31
0.0
  0
LINE
  5
2B328
330
2A9C5
100
AcDbEntity
  8
寸法
 62
     0
 48
50.0
370
    -2
100
AcDbLine
 10
7849.359716040838
 20
7640.161000572788
 30
0.0
 11
6899.359716040838
 21
7640.161000572788
 31
0.0
  0
INSERT
  5
2B329
330
2A9C5
100
AcDbEntity
  8
寸法
 62
     0
 48
50.0
370
    -2
100
AcDbBlockReference
  2
_DOTSMALL
 10
7849.359716040838
 20
7640.161000572788
 30
0.0
 41
100.0
 42
100.0
 43
100.0
  0
INSERT
  5
2B32A
330
2A9C5
100
AcDbEntity
  8
寸法
 62
     0
 48
50.0
370
    -2
100
AcDbBlockReference
  2
_DOTSMALL
 10
6899.359716040838
 20
7640.161000572788
 30
0.0
 41
100.0
 42
100.0
 43
100.0
 50
180.0
  0
MTEXT
  5
2B32B
330
2A9C5
100
AcDbEntity
  8
寸法
 62
     7
 48
50.0
100
AcDbMText
 10
7374.359716040839
 20
7740.161000572787
 30
0.0
 40
120.0
 41
0.0
 71
     5
 72
     1
  1
\A1;950
  7
STYLE1
 73
     1
 44
1.0
1001
ACAD
1000
MTEXTBEGIN
1070
    73
1070
     1
1070
    44
1040
1.0
1070
    74
1070
     0
1000
MTEXTEND
  0
POINT
  5
2B32C
330
2A9C5
100
AcDbEntity
  8
DEFPOINTS
 62
     0
 48
50.0
100
AcDbPoint
 10
7849.359716040838
 20
6727.552183902538
 30
0.0
  0
POINT
  5
2B32D
330
2A9C5
100
AcDbEntity
  8
DEFPOINTS
 62
     0
 48
50.0
100
AcDbPoint
 10
6899.359716040838
 20
6727.552183902538
 30
0.0
  0
POINT
  5
2B32E
330
2A9C5
100
AcDbEntity
  8
DEFPOINTS
 62
     0
 48
50.0
100
AcDbPoint
 10
6899.359716040838
 20
7640.161000572788
 30
0.0
  0
ENDBLK
  5
2A9D0
330
2A9C5
100
AcDbEntity
  8
0
 48
50.0
100
AcDbBlockEnd
  0
BLOCK
  5
2A9E8
330
2A9DE
100
AcDbEntity
  8
0
 48
50.0
100
AcDbBlockBegin
  2
*D33
 70
     1
 10
0.0
 20
0.0
 30
0.0
  3
*D33
  1

  0
LINE
  5
2B31D
330
2A9DE
100
AcDbEntity
  8
寸法
 62
     0
 48
50.0
370
    -2
100
AcDbLine
 10
12604.35971604083
 20
7177.552183902538
 30
0.0
 11
12604.35971604083
 21
7700.161000572787
 31
0.0
  0
LINE
  5
2B31E
330
2A9DE
100
AcDbEntity
  8
寸法
 62
     0
 48
50.0
370
    -2
100
AcDbLine
 10
11649.35971604084
 20
6747.552183902539
 30
0.0
 11
11649.35971604084
 21
7700.161000572787
 31
0.0
  0
LINE
  5
2B31F
330
2A9DE
100
AcDbEntity
  8
寸法
 62
     0
 48
50.0
370
    -2
100
AcDbLine
 10
12604.35971604083
 20
7640.161000572788
 30
0.0
 11
11649.35971604084
 21
7640.161000572788
 31
0.0
  0
INSERT
  5
2B320
330
2A9DE
100
AcDbEntity
  8
寸法
 62
     0
 48
50.0
370
    -2
100
AcDbBlockReference
  2
_DOTSMALL
 10
12604.35971604083
 20
7640.161000572788
 30
0.0
 41
100.0
 42
100.0
 43
100.0
  0
INSERT
  5
2B321
330
2A9DE
100
AcDbEntity
  8
寸法
 62
     0
 48
50.0
370
    -2
100
AcDbBlockReference
  2
_DOTSMALL
 10
11649.35971604084
 20
7640.161000572788
 30
0.0
 41
100.0
 42
100.0
 43
100.0
 50
180.0
  0
MTEXT
  5
2B322
330
2A9DE
100
AcDbEntity
  8
寸法
 62
     7
 48
50.0
100
AcDbMText
 10
12126.85971604083
 20
7740.161000572787
 30
0.0
 40
120.0
 41
0.0
 71
     5
 72
     1
  1
\A1;955
  7
STYLE1
 73
     1
 44
1.0
1001
ACAD
1000
MTEXTBEGIN
1070
    73
1070
     1
1070
    44
1040
1.0
1070
    74
1070
     0
1000
MTEXTEND
  0
POINT
  5
2B323
330
2A9DE
100
AcDbEntity
  8
DEFPOINTS
 62
     0
 48
50.0
100
AcDbPoint
 10
12604.35971604083
 20
7157.552183902538
 30
0.0
  0
POINT
  5
2B324
330
2A9DE
100
AcDbEntity
  8
DEFPOINTS
 62
     0
 48
50.0
100
AcDbPoint
 10
11649.35971604084
 20
6727.552183902538
 30
0.0
  0
POINT
  5
2B325
330
2A9DE
100
AcDbEntity
  8
DEFPOINTS
 62
     0
 48
50.0
100
AcDbPoint
 10
11649.35971604084
 20
7640.161000572788
 30
0.0
  0
ENDBLK
  5
2A9E9
330
2A9DE
100
AcDbEntity
  8
0
 48
50.0
100
AcDbBlockEnd
  0
BLOCK
  5
2A9F4
330
2A9EA
100
AcDbEntity
  8
0
 48
50.0
100
AcDbBlockBegin
  2
*D34
 70
     1
 10
0.0
 20
0.0
 30
0.0
  3
*D34
  1

  0
LINE
  5
2B314
330
2A9EA
100
AcDbEntity
  8
寸法
 62
     0
 48
50.0
370
    -2
100
AcDbLine
 10
12481.35971604083
 20
7104.552183902538
 30
0.0
 11
12481.35971604083
 21
7943.81864199645
 31
0.0
  0
LINE
  5
2B315
330
2A9EA
100
AcDbEntity
  8
寸法
 62
     0
 48
50.0
370
    -2
100
AcDbLine
 10
9631.359716040833
 20
7104.552183902538
 30
0.0
 11
9631.359716040833
 21
7943.81864199645
 31
0.0
  0
LINE
  5
2B316
330
2A9EA
100
AcDbEntity
  8
寸法
 62
     0
 48
50.0
370
    -2
100
AcDbLine
 10
12481.35971604083
 20
7883.81864199645
 30
0.0
 11
9631.359716040833
 21
7883.81864199645
 31
0.0
  0
INSERT
  5
2B317
330
2A9EA
100
AcDbEntity
  8
寸法
 62
     0
 48
50.0
370
    -2
100
AcDbBlockReference
  2
_DOTSMALL
 10
12481.35971604083
 20
7883.81864199645
 30
0.0
 41
100.0
 42
100.0
 43
100.0
  0
INSERT
  5
2B318
330
2A9EA
100
AcDbEntity
  8
寸法
 62
     0
 48
50.0
370
    -2
100
AcDbBlockReference
  2
_DOTSMALL
 10
9631.359716040833
 20
7883.81864199645
 30
0.0
 41
100.0
 42
100.0
 43
100.0
 50
180.0
  0
MTEXT
  5
2B319
330
2A9EA
100
AcDbEntity
  8
寸法
 62
     7
 48
50.0
100
AcDbMText
 10
11056.35971604083
 20
7983.830453020072
 30
0.0
 40
120.0
 41
0.0
 71
     5
 72
     1
  1
\A1;2850
  7
STYLE1
 73
     1
 44
1.0
1001
ACAD
1000
MTEXTBEGIN
1070
    73
1070
     1
1070
    44
1040
1.0
1070
    74
1070
     0
1000
MTEXTEND
  0
POINT
  5
2B31A
330
2A9EA
100
AcDbEntity
  8
DEFPOINTS
 62
     0
 48
50.0
100
AcDbPoint
 10
12481.35971604083
 20
7084.552183902539
 30
0.0
  0
POINT
  5
2B31B
330
2A9EA
100
AcDbEntity
  8
DEFPOINTS
 62
     0
 48
50.0
100
AcDbPoint
 10
9631.359716040833
 20
7084.552183902539
 30
0.0
  0
POINT
  5
2B31C
330
2A9EA
100
AcDbEntity
  8
DEFPOINTS
 62
     0
 48
50.0
100
AcDbPoint
 10
9631.359716040833
 20
7883.81864199645
 30
0.0
  0
ENDBLK
  5
2A9F5
330
2A9EA
100
AcDbEntity
  8
0
 48
50.0
100
AcDbBlockEnd
  0
BLOCK
  5
2A9FF
330
2A9F6
100
AcDbEntity
  8
0
 48
50.0
100
AcDbBlockBegin
  2
*D35
 70
     1
 10
0.0
 20
0.0
 30
0.0
  3
*D35
  1

  0
LINE
  5
2B30B
330
2A9F6
100
AcDbEntity
  8
寸法
 62
     0
 48
50.0
370
    -2
100
AcDbLine
 10
10699.35971604084
 20
6747.552183902539
 30
0.0
 11
10699.35971604084
 21
7700.161000572787
 31
0.0
  0
LINE
  5
2B30C
330
2A9F6
100
AcDbEntity
  8
寸法
 62
     0
 48
50.0
370
    -2
100
AcDbLine
 10
9749.35971604084
 20
6747.552183902539
 30
0.0
 11
9749.35971604084
 21
7700.161000572787
 31
0.0
  0
LINE
  5
2B30D
330
2A9F6
100
AcDbEntity
  8
寸法
 62
     0
 48
50.0
370
    -2
100
AcDbLine
 10
10699.35971604084
 20
7640.161000572788
 30
0.0
 11
9749.35971604084
 21
7640.161000572788
 31
0.0
  0
INSERT
  5
2B30E
330
2A9F6
100
AcDbEntity
  8
寸法
 62
     0
 48
50.0
370
    -2
100
AcDbBlockReference
  2
_DOTSMALL
 10
10699.35971604084
 20
7640.161000572788
 30
0.0
 41
100.0
 42
100.0
 43
100.0
  0
INSERT
  5
2B30F
330
2A9F6
100
AcDbEntity
  8
寸法
 62
     0
 48
50.0
370
    -2
100
AcDbBlockReference
  2
_DOTSMALL
 10
9749.35971604084
 20
7640.161000572788
 30
0.0
 41
100.0
 42
100.0
 43
100.0
 50
180.0
  0
MTEXT
  5
2B310
330
2A9F6
100
AcDbEntity
  8
寸法
 62
     7
 48
50.0
100
AcDbMText
 10
10224.35971604084
 20
7740.161000572787
 30
0.0
 40
120.0
 41
0.0
 71
     5
 72
     1
  1
\A1;950
  7
STYLE1
 73
     1
 44
1.0
1001
ACAD
1000
MTEXTBEGIN
1070
    73
1070
     1
1070
    44
1040
1.0
1070
    74
1070
     0
1000
MTEXTEND
  0
POINT
  5
2B311
330
2A9F6
100
AcDbEntity
  8
DEFPOINTS
 62
     0
 48
50.0
100
AcDbPoint
 10
10699.35971604084
 20
6727.552183902538
 30
0.0
  0
POINT
  5
2B312
330
2A9F6
100
AcDbEntity
  8
DEFPOINTS
 62
     0
 48
50.0
100
AcDbPoint
 10
9749.35971604084
 20
6727.552183902538
 30
0.0
  0
POINT
  5
2B313
330
2A9F6
100
AcDbEntity
  8
DEFPOINTS
 62
     0
 48
50.0
100
AcDbPoint
 10
9749.35971604084
 20
7640.161000572788
 30
0.0
  0
ENDBLK
  5
2AA00
330
2A9F6
100
AcDbEntity
  8
0
 48
50.0
100
AcDbBlockEnd
  0
BLOCK
  5
2AA0B
330
2AA01
100
AcDbEntity
  8
0
 48
50.0
100
AcDbBlockBegin
  2
*D36
 70
     1
 10
0.0
 20
0.0
 30
0.0
  3
*D36
  1

  0
LINE
  5
2B302
330
2AA01
100
AcDbEntity
  8
寸法
 62
     0
 48
50.0
370
    -2
100
AcDbLine
 10
9749.35971604084
 20
6747.552183902539
 30
0.0
 11
9749.35971604084
 21
7700.161000572787
 31
0.0
  0
LINE
  5
2B303
330
2AA01
100
AcDbEntity
  8
寸法
 62
     0
 48
50.0
370
    -2
100
AcDbLine
 10
8799.359716040838
 20
6747.552183902539
 30
0.0
 11
8799.359716040838
 21
7700.161000572787
 31
0.0
  0
LINE
  5
2B304
330
2AA01
100
AcDbEntity
  8
寸法
 62
     0
 48
50.0
370
    -2
100
AcDbLine
 10
9749.35971604084
 20
7640.161000572788
 30
0.0
 11
8799.359716040838
 21
7640.161000572788
 31
0.0
  0
INSERT
  5
2B305
330
2AA01
100
AcDbEntity
  8
寸法
 62
     0
 48
50.0
370
    -2
100
AcDbBlockReference
  2
_DOTSMALL
 10
9749.35971604084
 20
7640.161000572788
 30
0.0
 41
100.0
 42
100.0
 43
100.0
  0
INSERT
  5
2B306
330
2AA01
100
AcDbEntity
  8
寸法
 62
     0
 48
50.0
370
    -2
100
AcDbBlockReference
  2
_DOTSMALL
 10
8799.359716040838
 20
7640.161000572788
 30
0.0
 41
100.0
 42
100.0
 43
100.0
 50
180.0
  0
MTEXT
  5
2B307
330
2AA01
100
AcDbEntity
  8
寸法
 62
     7
 48
50.0
100
AcDbMText
 10
9274.359716040839
 20
7740.161000572787
 30
0.0
 40
120.0
 41
0.0
 71
     5
 72
     1
  1
\A1;950
  7
STYLE1
 73
     1
 44
1.0
1001
ACAD
1000
MTEXTBEGIN
1070
    73
1070
     1
1070
    44
1040
1.0
1070
    74
1070
     0
1000
MTEXTEND
  0
POINT
  5
2B308
330
2AA01
100
AcDbEntity
  8
DEFPOINTS
 62
     0
 48
50.0
100
AcDbPoint
 10
9749.35971604084
 20
6727.552183902538
 30
0.0
  0
POINT
  5
2B309
330
2AA01
100
AcDbEntity
  8
DEFPOINTS
 62
     0
 48
50.0
100
AcDbPoint
 10
8799.359716040838
 20
6727.552183902538
 30
0.0
  0
POINT
  5
2B30A
330
2AA01
100
AcDbEntity
  8
DEFPOINTS
 62
     0
 48
50.0
100
AcDbPoint
 10
8799.359716040838
 20
7640.161000572788
 30
0.0
  0
ENDBLK
  5
2AA0C
330
2AA01
100
AcDbEntity
  8
0
 48
50.0
100
AcDbBlockEnd
  0
BLOCK
  5
2AA17
330
2AA0D
100
AcDbEntity
  8
0
 48
50.0
100
AcDbBlockBegin
  2
*D37
 70
     1
 10
0.0
 20
0.0
 30
0.0
  3
*D37
  1

  0
LINE
  5
2B2F9
330
2AA0D
100
AcDbEntity
  8
寸法
 62
     0
 48
50.0
370
    -2
100
AcDbLine
 10
11649.35971604084
 20
6747.552183902539
 30
0.0
 11
11649.35971604084
 21
7700.161000572787
 31
0.0
  0
LINE
  5
2B2FA
330
2AA0D
100
AcDbEntity
  8
寸法
 62
     0
 48
50.0
370
    -2
100
AcDbLine
 10
10699.35971604084
 20
6747.552183902539
 30
0.0
 11
10699.35971604084
 21
7700.161000572787
 31
0.0
  0
LINE
  5
2B2FB
330
2AA0D
100
AcDbEntity
  8
寸法
 62
     0
 48
50.0
370
    -2
100
AcDbLine
 10
11649.35971604084
 20
7640.161000572788
 30
0.0
 11
10699.35971604084
 21
7640.161000572788
 31
0.0
  0
INSERT
  5
2B2FC
330
2AA0D
100
AcDbEntity
  8
寸法
 62
     0
 48
50.0
370
    -2
100
AcDbBlockReference
  2
_DOTSMALL
 10
11649.35971604084
 20
7640.161000572788
 30
0.0
 41
100.0
 42
100.0
 43
100.0
  0
INSERT
  5
2B2FD
330
2AA0D
100
AcDbEntity
  8
寸法
 62
     0
 48
50.0
370
    -2
100
AcDbBlockReference
  2
_DOTSMALL
 10
10699.35971604084
 20
7640.161000572788
 30
0.0
 41
100.0
 42
100.0
 43
100.0
 50
180.0
  0
MTEXT
  5
2B2FE
330
2AA0D
100
AcDbEntity
  8
寸法
 62
     7
 48
50.0
100
AcDbMText
 10
11174.35971604084
 20
7740.161000572787
 30
0.0
 40
120.0
 41
0.0
 71
     5
 72
     1
  1
\A1;950
  7
STYLE1
 73
     1
 44
1.0
1001
ACAD
1000
MTEXTBEGIN
1070
    73
1070
     1
1070
    44
1040
1.0
1070
    74
1070
     0
1000
MTEXTEND
  0
POINT
  5
2B2FF
330
2AA0D
100
AcDbEntity
  8
DEFPOINTS
 62
     0
 48
50.0
100
AcDbPoint
 10
11649.35971604084
 20
6727.552183902538
 30
0.0
  0
POINT
  5
2B300
330
2AA0D
100
AcDbEntity
  8
DEFPOINTS
 62
     0
 48
50.0
100
AcDbPoint
 10
10699.35971604084
 20
6727.552183902538
 30
0.0
  0
POINT
  5
2B301
330
2AA0D
100
AcDbEntity
  8
DEFPOINTS
 62
     0
 48
50.0
100
AcDbPoint
 10
10699.35971604084
 20
7640.161000572788
 30
0.0
  0
ENDBLK
  5
2AA18
330
2AA0D
100
AcDbEntity
  8
0
 48
50.0
100
AcDbBlockEnd
  0
BLOCK
  5
2AA24
330
2AA19
100
AcDbEntity
  8
0
 48
50.0
100
AcDbBlockBegin
  2
*D38
 70
     1
 10
0.0
 20
0.0
 30
0.0
  3
*D38
  1

  0
LINE
  5
2B2EF
330
2AA19
100
AcDbEntity
  8
寸法
 62
     0
 48
50.0
370
    -2
100
AcDbLine
 10
12604.35971604083
 20
7177.552183902538
 30
0.0
 11
12604.35971604083
 21
7943.81864199645
 31
0.0
  0
LINE
  5
2B2F0
330
2AA19
100
AcDbEntity
  8
寸法
 62
     0
 48
50.0
370
    -2
100
AcDbLine
 10
12481.35971604083
 20
7104.552183902538
 30
0.0
 11
12481.35971604083
 21
7943.81864199645
 31
0.0
  0
LINE
  5
2B2F1
330
2AA19
100
AcDbEntity
  8
寸法
 62
     0
 48
50.0
370
    -2
100
AcDbLine
 10
12481.35971604083
 20
7883.81864199645
 30
0.0
 11
12604.35971604083
 21
7883.81864199645
 31
0.0
  0
LINE
  5
2B2F2
330
2AA19
100
AcDbEntity
  8
寸法
 62
     0
 48
50.0
370
    -2
100
AcDbLine
 10
12604.35971604083
 20
7883.81864199645
 30
0.0
 11
13015.95159913287
 21
7883.81864199645
 31
0.0
  0
INSERT
  5
2B2F3
330
2AA19
100
AcDbEntity
  8
寸法
 62
     0
 48
50.0
370
    -2
100
AcDbBlockReference
  2
_DOTSMALL
 10
12481.35971604083
 20
7883.81864199645
 30
0.0
 41
100.0
 42
100.0
 43
100.0
 50
180.0
  0
INSERT
  5
2B2F4
330
2AA19
100
AcDbEntity
  8
寸法
 62
     0
 48
50.0
370
    -2
100
AcDbBlockReference
  2
_DOTSMALL
 10
12604.35971604083
 20
7883.81864199645
 30
0.0
 41
100.0
 42
100.0
 43
100.0
  0
MTEXT
  5
2B2F5
330
2AA19
100
AcDbEntity
  8
寸法
 62
     7
 48
50.0
100
AcDbMText
 10
12877.46631775863
 20
7983.830453020072
 30
0.0
 40
120.0
 41
0.0
 71
     5
 72
     1
  1
\A1;123
  7
STYLE1
 73
     1
 44
1.0
1001
ACAD
1000
MTEXTBEGIN
1070
    73
1070
     1
1070
    44
1040
1.0
1070
    74
1070
     0
1000
MTEXTEND
  0
POINT
  5
2B2F6
330
2AA19
100
AcDbEntity
  8
DEFPOINTS
 62
     0
 48
50.0
100
AcDbPoint
 10
12604.35971604083
 20
7157.552183902538
 30
0.0
  0
POINT
  5
2B2F7
330
2AA19
100
AcDbEntity
  8
DEFPOINTS
 62
     0
 48
50.0
100
AcDbPoint
 10
12481.35971604083
 20
7084.552183902539
 30
0.0
  0
POINT
  5
2B2F8
330
2AA19
100
AcDbEntity
  8
DEFPOINTS
 62
     0
 48
50.0
100
AcDbPoint
 10
12481.35971604083
 20
7883.81864199645
 30
0.0
  0
ENDBLK
  5
2AA25
330
2AA19
100
AcDbEntity
  8
0
 48
50.0
100
AcDbBlockEnd
  0
BLOCK
  5
2B0F8
330
2B0ED
100
AcDbEntity
  8
0
 48
50.0
100
AcDbBlockBegin
  2
*D39
 70
     1
 10
0.0
 20
0.0
 30
0.0
  3
*D39
  1

  0
LINE
  5
2B494
330
2B0ED
100
AcDbEntity
  8
寸法
 62
     0
 48
50.0
370
    -2
100
AcDbLine
 10
12604.35971604083
 20
6874.233289970757
 30
0.0
 11
12604.35971604083
 21
6817.240025931926
 31
0.0
  0
LINE
  5
2B495
330
2B0ED
100
AcDbEntity
  8
寸法
 62
     0
 48
50.0
370
    -2
100
AcDbLine
 10
12484.35971604083
 20
6897.240025931925
 30
0.0
 11
12484.35971604083
 21
6937.240025931926
 31
0.0
  0
LINE
  5
2B496
330
2B0ED
100
AcDbEntity
  8
寸法
 62
     0
 48
50.0
370
    -2
100
AcDbLine
 10
12484.35971604083
 20
6877.240025931925
 30
0.0
 11
12604.35971604083
 21
6877.240025931925
 31
0.0
  0
LINE
  5
2B497
330
2B0ED
100
AcDbEntity
  8
寸法
 62
     0
 48
50.0
370
    -2
100
AcDbLine
 10
12604.35971604083
 20
6877.240025931925
 30
0.0
 11
13027.38333808807
 21
6877.240025931925
 31
0.0
  0
INSERT
  5
2B498
330
2B0ED
100
AcDbEntity
  8
寸法
 62
     0
 48
50.0
370
    -2
100
AcDbBlockReference
  2
_DOTSMALL
 10
12484.35971604083
 20
6877.240025931925
 30
0.0
 41
100.0
 42
100.0
 43
100.0
 50
180.0
  0
INSERT
  5
2B499
330
2B0ED
100
AcDbEntity
  8
寸法
 62
     0
 48
50.0
370
    -2
100
AcDbBlockReference
  2
_DOTSMALL
 10
12604.35971604083
 20
6877.240025931925
 30
0.0
 41
100.0
 42
100.0
 43
100.0
  0
MTEXT
  5
2B49A
330
2B0ED
100
AcDbEntity
  8
寸法
 62
     7
 48
50.0
100
AcDbMText
 10
12891.33609399359
 20
6977.251836955547
 30
0.0
 40
120.0
 41
0.0
 71
     5
 72
     1
  1
\A1;120
  7
STYLE1
 73
     1
 44
1.0
1001
ACAD
1000
MTEXTBEGIN
1070
    73
1070
     1
1070
    44
1040
1.0
1070
    74
1070
     0
1000
MTEXTEND
  0
POINT
  5
2B49B
330
2B0ED
100
AcDbEntity
  8
DEFPOINTS
 62
     0
 48
50.0
100
AcDbPoint
 10
12604.35971604083
 20
6894.233289970758
 30
0.0
  0
POINT
  5
2B49C
330
2B0ED
100
AcDbEntity
  8
DEFPOINTS
 62
     0
 48
50.0
100
AcDbPoint
 10
12484.35971604083
 20
6877.240025931925
 30
0.0
  0
POINT
  5
2B49D
330
2B0ED
100
AcDbEntity
  8
DEFPOINTS
 62
     0
 48
50.0
100
AcDbPoint
 10
12484.35971604083
 20
6877.240025931925
 30
0.0
  0
ENDBLK
  5
2B0F9
330
2B0ED
100
AcDbEntity
  8
0
 48
50.0
100
AcDbBlockEnd
  0
BLOCK
  5
2B105
330
2B0FA
100
AcDbEntity
  8
0
 48
50.0
100
AcDbBlockBegin
  2
*D40
 70
     1
 10
0.0
 20
0.0
 30
0.0
  3
*D40
  1

  0
LINE
  5
2B461
330
2B0FA
100
AcDbEntity
  8
寸法
 62
     0
 48
50.0
370
    -2
100
AcDbLine
 10
12204.35971604084
 20
6477.55218390257
 30
0.0
 11
11889.71721712329
 21
6477.55218390257
 31
0.0
  0
LINE
  5
2B462
330
2B0FA
100
AcDbEntity
  8
寸法
 62
     0
 48
50.0
370
    -2
100
AcDbLine
 10
12204.35971604084
 20
6197.552183902548
 30
0.0
 11
11889.71721712329
 21
6197.552183902548
 31
0.0
  0
LINE
  5
2B463
330
2B0FA
100
AcDbEntity
  8
寸法
 62
     0
 48
50.0
370
    -2
100
AcDbLine
 10
11949.71721712329
 20
6477.55218390257
 30
0.0
 11
11949.71721712329
 21
6197.552183902548
 31
0.0
  0
LINE
  5
2B464
330
2B0FA
100
AcDbEntity
  8
寸法
 62
     0
 48
50.0
370
    -2
100
AcDbLine
 10
11949.71721712329
 20
6197.552183902548
 30
0.0
 11
11949.71721712329
 21
5798.410451619083
 31
0.0
  0
INSERT
  5
2B465
330
2B0FA
100
AcDbEntity
  8
寸法
 62
     0
 48
50.0
370
    -2
100
AcDbBlockReference
  2
_DOTSMALL
 10
11949.71721712329
 20
6477.55218390257
 30
0.0
 41
100.0
 42
100.0
 43
100.0
 50
90.0
  0
INSERT
  5
2B466
330
2B0FA
100
AcDbEntity
  8
寸法
 62
     0
 48
50.0
370
    -2
100
AcDbBlockReference
  2
_DOTSMALL
 10
11949.71721712329
 20
6197.552183902548
 30
0.0
 41
100.0
 42
100.0
 43
100.0
 50
270.0
  0
MTEXT
  5
2B467
330
2B0FA
100
AcDbEntity
  8
寸法
 62
     7
 48
50.0
100
AcDbMText
 10
11849.70540609966
 20
5947.981317760817
 30
0.0
 40
120.0
 41
0.0
 71
     5
 72
     1
  1
\A1;280
  7
STYLE1
 11
0.0000000000000001
 21
1.0
 31
0.0
 73
     1
 44
1.0
1001
ACAD
1000
MTEXTBEGIN
1070
    73
1070
     1
1070
    44
1040
1.0
1070
    74
1070
     0
1000
MTEXTEND
  0
POINT
  5
2B468
330
2B0FA
100
AcDbEntity
  8
DEFPOINTS
 62
     0
 48
50.0
100
AcDbPoint
 10
12224.35971604084
 20
6477.55218390257
 30
0.0
  0
POINT
  5
2B469
330
2B0FA
100
AcDbEntity
  8
DEFPOINTS
 62
     0
 48
50.0
100
AcDbPoint
 10
12224.35971604084
 20
6197.552183902548
 30
0.0
  0
POINT
  5
2B46A
330
2B0FA
100
AcDbEntity
  8
DEFPOINTS
 62
     0
 48
50.0
100
AcDbPoint
 10
11949.71721712329
 20
6197.552183902548
 30
0.0
  0
ENDBLK
  5
2B106
330
2B0FA
100
AcDbEntity
  8
0
 48
50.0
100
AcDbBlockEnd
  0
BLOCK
  5
2B112
330
2B107
100
AcDbEntity
  8
0
 48
50.0
100
AcDbBlockBegin
  2
*D41
 70
     1
 10
0.0
 20
0.0
 30
0.0
  3
*D41
  1

  0
LINE
  5
2B2D1
330
2B107
100
AcDbEntity
  8
寸法
 62
     0
 48
50.0
370
    -2
100
AcDbLine
 10
12129.61439805248
 20
7157.552183902528
 30
0.0
 11
11889.71721712329
 21
7157.552183902528
 31
0.0
  0
LINE
  5
2B2D2
330
2B107
100
AcDbEntity
  8
寸法
 62
     0
 48
50.0
370
    -2
100
AcDbLine
 10
12129.61439805248
 20
6957.552183902528
 30
0.0
 11
11889.71721712329
 21
6957.552183902528
 31
0.0
  0
LINE
  5
2B2D3
330
2B107
100
AcDbEntity
  8
寸法
 62
     0
 48
50.0
370
    -2
100
AcDbLine
 10
11949.71721712329
 20
6957.552183902528
 30
0.0
 11
11949.71721712329
 21
7157.552183902528
 31
0.0
  0
LINE
  5
2B2D4
330
2B107
100
AcDbEntity
  8
寸法
 62
     0
 48
50.0
370
    -2
100
AcDbLine
 10
11949.71721712329
 20
7157.552183902528
 30
0.0
 11
11949.71721712329
 21
7556.693916185995
 31
0.0
  0
INSERT
  5
2B2D5
330
2B107
100
AcDbEntity
  8
寸法
 62
     0
 48
50.0
370
    -2
100
AcDbBlockReference
  2
_DOTSMALL
 10
11949.71721712329
 20
6957.552183902528
 30
0.0
 41
100.0
 42
100.0
 43
100.0
 50
270.0
  0
INSERT
  5
2B2D6
330
2B107
100
AcDbEntity
  8
寸法
 62
     0
 48
50.0
370
    -2
100
AcDbBlockReference
  2
_DOTSMALL
 10
11949.71721712329
 20
7157.552183902528
 30
0.0
 41
100.0
 42
100.0
 43
100.0
 50
90.0
  0
MTEXT
  5
2B2D7
330
2B107
100
AcDbEntity
  8
寸法
 62
     7
 48
50.0
100
AcDbMText
 10
11849.70540609966
 20
7407.123050044264
 30
0.0
 40
120.0
 41
0.0
 71
     5
 72
     1
  1
\A1;200
  7
STYLE1
 11
0.0000000000000001
 21
1.0
 31
0.0
 73
     1
 44
1.0
1001
ACAD
1000
MTEXTBEGIN
1070
    73
1070
     1
1070
    44
1040
1.0
1070
    74
1070
     0
1000
MTEXTEND
  0
POINT
  5
2B2D8
330
2B107
100
AcDbEntity
  8
DEFPOINTS
 62
     0
 48
50.0
100
AcDbPoint
 10
12149.61439805248
 20
7157.552183902528
 30
0.0
  0
POINT
  5
2B2D9
330
2B107
100
AcDbEntity
  8
DEFPOINTS
 62
     0
 48
50.0
100
AcDbPoint
 10
12149.61439805248
 20
6957.552183902528
 30
0.0
  0
POINT
  5
2B2DA
330
2B107
100
AcDbEntity
  8
DEFPOINTS
 62
     0
 48
50.0
100
AcDbPoint
 10
11949.71721712329
 20
6957.552183902528
 30
0.0
  0
ENDBLK
  5
2B113
330
2B107
100
AcDbEntity
  8
0
 48
50.0
100
AcDbBlockEnd
  0
BLOCK
  5
2B120
330
2B114
100
AcDbEntity
  8
0
 48
50.0
100
AcDbBlockBegin
  2
*D42
 70
     1
 10
0.0
 20
0.0
 30
0.0
  3
*D42
  1

  0
LINE
  5
2B2C6
330
2B114
100
AcDbEntity
  8
寸法
 62
     0
 48
50.0
370
    -2
100
AcDbLine
 10
4024.359716040835
 20
6197.552183902535
 30
0.0
 11
3109.481625651504
 21
6197.552183902535
 31
0.0
  0
LINE
  5
2B2C7
330
2B114
100
AcDbEntity
  8
寸法
 62
     0
 48
50.0
370
    -2
100
AcDbLine
 10
3401.424722370903
 20
6142.55218390256
 30
0.0
 11
3109.481625651504
 21
6142.55218390256
 31
0.0
  0
LINE
  5
2B2C8
330
2B114
100
AcDbEntity
  8
寸法
 62
     0
 48
50.0
370
    -2
100
AcDbLine
 10
3169.481625651505
 20
6197.552183902535
 30
0.0
 11
3169.481625651505
 21
6297.552183902535
 31
0.0
  0
LINE
  5
2B2C9
330
2B114
100
AcDbEntity
  8
寸法
 62
     0
 48
50.0
370
    -2
100
AcDbLine
 10
3169.481625651505
 20
6142.55218390256
 30
0.0
 11
3169.481625651505
 21
6042.552183902561
 31
0.0
  0
LINE
  5
2B2CA
330
2B114
100
AcDbEntity
  8
寸法
 62
     0
 48
50.0
370
    -2
100
AcDbLine
 10
3169.481625651505
 20
6197.552183902535
 30
0.0
 11
3169.481625651505
 21
6142.55218390256
 31
0.0
  0
INSERT
  5
2B2CB
330
2B114
100
AcDbEntity
  8
寸法
 62
     0
 48
50.0
370
    -2
100
AcDbBlockReference
  2
_DOTSMALL
 10
3169.481625651505
 20
6197.552183902535
 30
0.0
 41
100.0
 42
100.0
 43
100.0
 50
270.0
  0
INSERT
  5
2B2CC
330
2B114
100
AcDbEntity
  8
寸法
 62
     0
 48
50.0
370
    -2
100
AcDbBlockReference
  2
_DOTSMALL
 10
3169.481625651505
 20
6142.55218390256
 30
0.0
 41
100.0
 42
100.0
 43
100.0
 50
90.0
  0
MTEXT
  5
2B2CD
330
2B114
100
AcDbEntity
  8
寸法
 62
     7
 48
50.0
100
AcDbMText
 10
3069.481625651504
 20
6170.052183902549
 30
0.0
 40
120.0
 41
0.0
 71
     5
 72
     1
  1
\A1;b
  7
STYLE1
 11
0.0000000000000001
 21
1.0
 31
0.0
 73
     1
 44
1.0
1001
ACAD
1000
MTEXTBEGIN
1070
    73
1070
     1
1070
    44
1040
1.0
1070
    74
1070
     0
1000
MTEXTEND
  0
POINT
  5
2B2CE
330
2B114
100
AcDbEntity
  8
DEFPOINTS
 62
     0
 48
50.0
100
AcDbPoint
 10
4044.359716040835
 20
6197.552183902535
 30
0.0
  0
POINT
  5
2B2CF
330
2B114
100
AcDbEntity
  8
DEFPOINTS
 62
     0
 48
50.0
100
AcDbPoint
 10
3421.424722370903
 20
6142.55218390256
 30
0.0
  0
POINT
  5
2B2D0
330
2B114
100
AcDbEntity
  8
DEFPOINTS
 62
     0
 48
50.0
100
AcDbPoint
 10
3169.481625651505
 20
6142.55218390256
 30
0.0
  0
ENDBLK
  5
2B121
330
2B114
100
AcDbEntity
  8
0
 48
50.0
100
AcDbBlockEnd
  0
BLOCK
  5
2B12E
330
2B122
100
AcDbEntity
  8
0
 48
50.0
100
AcDbBlockBegin
  2
*D43
 70
     1
 10
0.0
 20
0.0
 30
0.0
  3
*D43
  1

  0
LINE
  5
2B2BB
330
2B122
100
AcDbEntity
  8
寸法
 62
     0
 48
50.0
370
    -2
100
AcDbLine
 10
3401.424722370896
 20
7232.552183902541
 30
0.0
 11
3109.481625651504
 21
7232.552183902541
 31
0.0
  0
LINE
  5
2B2BC
330
2B122
100
AcDbEntity
  8
寸法
 62
     0
 48
50.0
370
    -2
100
AcDbLine
 10
4024.359716040835
 20
7157.552183902535
 30
0.0
 11
3109.481625651504
 21
7157.552183902535
 31
0.0
  0
LINE
  5
2B2BD
330
2B122
100
AcDbEntity
  8
寸法
 62
     0
 48
50.0
370
    -2
100
AcDbLine
 10
3169.481625651505
 20
7232.552183902541
 30
0.0
 11
3169.481625651505
 21
7332.552183902541
 31
0.0
  0
LINE
  5
2B2BE
330
2B122
100
AcDbEntity
  8
寸法
 62
     0
 48
50.0
370
    -2
100
AcDbLine
 10
3169.481625651505
 20
7157.552183902535
 30
0.0
 11
3169.481625651505
 21
7057.552183902536
 31
0.0
  0
LINE
  5
2B2BF
330
2B122
100
AcDbEntity
  8
寸法
 62
     0
 48
50.0
370
    -2
100
AcDbLine
 10
3169.481625651505
 20
7232.552183902541
 30
0.0
 11
3169.481625651505
 21
7157.552183902535
 31
0.0
  0
INSERT
  5
2B2C0
330
2B122
100
AcDbEntity
  8
寸法
 62
     0
 48
50.0
370
    -2
100
AcDbBlockReference
  2
_DOTSMALL
 10
3169.481625651505
 20
7232.552183902541
 30
0.0
 41
100.0
 42
100.0
 43
100.0
 50
270.0
  0
INSERT
  5
2B2C1
330
2B122
100
AcDbEntity
  8
寸法
 62
     0
 48
50.0
370
    -2
100
AcDbBlockReference
  2
_DOTSMALL
 10
3169.481625651505
 20
7157.552183902535
 30
0.0
 41
100.0
 42
100.0
 43
100.0
 50
90.0
  0
MTEXT
  5
2B2C2
330
2B122
100
AcDbEntity
  8
寸法
 62
     7
 48
50.0
100
AcDbMText
 10
3069.481625651504
 20
7195.052183902538
 30
0.0
 40
120.0
 41
0.0
 71
     5
 72
     1
  1
\A1;c
  7
STYLE1
 11
0.0000000000000001
 21
1.0
 31
0.0
 73
     1
 44
1.0
1001
ACAD
1000
MTEXTBEGIN
1070
    73
1070
     1
1070
    44
1040
1.0
1070
    74
1070
     0
1000
MTEXTEND
  0
POINT
  5
2B2C3
330
2B122
100
AcDbEntity
  8
DEFPOINTS
 62
     0
 48
50.0
100
AcDbPoint
 10
3421.424722370896
 20
7232.552183902541
 30
0.0
  0
POINT
  5
2B2C4
330
2B122
100
AcDbEntity
  8
DEFPOINTS
 62
     0
 48
50.0
100
AcDbPoint
 10
4044.359716040835
 20
7157.552183902535
 30
0.0
  0
POINT
  5
2B2C5
330
2B122
100
AcDbEntity
  8
DEFPOINTS
 62
     0
 48
50.0
100
AcDbPoint
 10
3169.481625651505
 20
7157.552183902535
 30
0.0
  0
ENDBLK
  5
2B12F
330
2B122
100
AcDbEntity
  8
0
 48
50.0
100
AcDbBlockEnd
  0
BLOCK
  5
2B13C
330
2B130
100
AcDbEntity
  8
0
 48
50.0
100
AcDbBlockBegin
  2
*D44
 70
     1
 10
0.0
 20
0.0
 30
0.0
  3
*D44
  1

  0
LINE
  5
2B2B0
330
2B130
100
AcDbEntity
  8
寸法
 62
     0
 48
50.0
370
    -2
100
AcDbLine
 10
3999.359716040835
 20
7903.818641996446
 30
0.0
 11
3999.359716040835
 21
8175.772505961456
 31
0.0
  0
LINE
  5
2B2B1
330
2B130
100
AcDbEntity
  8
寸法
 62
     0
 48
50.0
370
    -2
100
AcDbLine
 10
4044.359716040835
 20
7177.552183902536
 30
0.0
 11
4044.359716040835
 21
8175.772505961456
 31
0.0
  0
LINE
  5
2B2B2
330
2B130
100
AcDbEntity
  8
寸法
 62
     0
 48
50.0
370
    -2
100
AcDbLine
 10
4044.359716040835
 20
8115.772505961455
 30
0.0
 11
4144.359716040835
 21
8115.772505961455
 31
0.0
  0
LINE
  5
2B2B3
330
2B130
100
AcDbEntity
  8
寸法
 62
     0
 48
50.0
370
    -2
100
AcDbLine
 10
3999.359716040835
 20
8115.772505961455
 30
0.0
 11
3662.010473635918
 21
8115.772505961455
 31
0.0
  0
LINE
  5
2B2B4
330
2B130
100
AcDbEntity
  8
寸法
 62
     0
 48
50.0
370
    -2
100
AcDbLine
 10
4044.359716040835
 20
8115.772505961455
 30
0.0
 11
3999.359716040835
 21
8115.772505961455
 31
0.0
  0
INSERT
  5
2B2B5
330
2B130
100
AcDbEntity
  8
寸法
 62
     0
 48
50.0
370
    -2
100
AcDbBlockReference
  2
_DOTSMALL
 10
4044.359716040835
 20
8115.772505961455
 30
0.0
 41
100.0
 42
100.0
 43
100.0
 50
180.0
  0
INSERT
  5
2B2B6
330
2B130
100
AcDbEntity
  8
寸法
 62
     0
 48
50.0
370
    -2
100
AcDbBlockReference
  2
_DOTSMALL
 10
3999.359716040835
 20
8115.772505961455
 30
0.0
 41
100.0
 42
100.0
 43
100.0
  0
MTEXT
  5
2B2B7
330
2B130
100
AcDbEntity
  8
寸法
 62
     7
 48
50.0
100
AcDbMText
 10
3728.185094838377
 20
8215.772505961455
 30
0.0
 40
120.0
 41
0.0
 71
     5
 72
     1
  1
\A1;a
  7
STYLE1
 73
     1
 44
1.0
1001
ACAD
1000
MTEXTBEGIN
1070
    73
1070
     1
1070
    44
1040
1.0
1070
    74
1070
     0
1000
MTEXTEND
  0
POINT
  5
2B2B8
330
2B130
100
AcDbEntity
  8
DEFPOINTS
 62
     0
 48
50.0
100
AcDbPoint
 10
3999.359716040835
 20
7883.818641996445
 30
0.0
  0
POINT
  5
2B2B9
330
2B130
100
AcDbEntity
  8
DEFPOINTS
 62
     0
 48
50.0
100
AcDbPoint
 10
4044.359716040835
 20
7157.552183902535
 30
0.0
  0
POINT
  5
2B2BA
330
2B130
100
AcDbEntity
  8
DEFPOINTS
 62
     0
 48
50.0
100
AcDbPoint
 10
4044.359716040835
 20
8115.772505961455
 30
0.0
  0
ENDBLK
  5
2B13D
330
2B130
100
AcDbEntity
  8
0
 48
50.0
100
AcDbBlockEnd
  0
BLOCK
  5
2B14A
330
2B13E
100
AcDbEntity
  8
0
 48
50.0
100
AcDbBlockBegin
  2
*D45
 70
     1
 10
0.0
 20
0.0
 30
0.0
  3
*D45
  1

  0
LINE
  5
2B2A5
330
2B13E
100
AcDbEntity
  8
寸法
 62
     0
 48
50.0
370
    -2
100
AcDbLine
 10
12604.35971604083
 20
7177.552183902538
 30
0.0
 11
12604.35971604083
 21
8175.772505961459
 31
0.0
  0
LINE
  5
2B2A6
330
2B13E
100
AcDbEntity
  8
寸法
 62
     0
 48
50.0
370
    -2
100
AcDbLine
 10
12649.35971604083
 20
7903.81864199645
 30
0.0
 11
12649.35971604083
 21
8175.772505961459
 31
0.0
  0
LINE
  5
2B2A7
330
2B13E
100
AcDbEntity
  8
寸法
 62
     0
 48
50.0
370
    -2
100
AcDbLine
 10
12604.35971604083
 20
8115.772505961459
 30
0.0
 11
12504.35971604083
 21
8115.772505961459
 31
0.0
  0
LINE
  5
2B2A8
330
2B13E
100
AcDbEntity
  8
寸法
 62
     0
 48
50.0
370
    -2
100
AcDbLine
 10
12649.35971604083
 20
8115.772505961459
 30
0.0
 11
12986.70895844575
 21
8115.772505961459
 31
0.0
  0
LINE
  5
2B2A9
330
2B13E
100
AcDbEntity
  8
寸法
 62
     0
 48
50.0
370
    -2
100
AcDbLine
 10
12604.35971604083
 20
8115.772505961459
 30
0.0
 11
12649.35971604083
 21
8115.772505961459
 31
0.0
  0
INSERT
  5
2B2AA
330
2B13E
100
AcDbEntity
  8
寸法
 62
     0
 48
50.0
370
    -2
100
AcDbBlockReference
  2
_DOTSMALL
 10
12604.35971604083
 20
8115.772505961459
 30
0.0
 41
100.0
 42
100.0
 43
100.0
  0
INSERT
  5
2B2AB
330
2B13E
100
AcDbEntity
  8
寸法
 62
     0
 48
50.0
370
    -2
100
AcDbBlockReference
  2
_DOTSMALL
 10
12649.35971604083
 20
8115.772505961459
 30
0.0
 41
100.0
 42
100.0
 43
100.0
 50
180.0
  0
MTEXT
  5
2B2AC
330
2B13E
100
AcDbEntity
  8
寸法
 62
     7
 48
50.0
100
AcDbMText
 10
12920.53433724329
 20
8215.772505961458
 30
0.0
 40
120.0
 41
0.0
 71
     5
 72
     1
  1
\A1;a
  7
STYLE1
 73
     1
 44
1.0
1001
ACAD
1000
MTEXTBEGIN
1070
    73
1070
     1
1070
    44
1040
1.0
1070
    74
1070
     0
1000
MTEXTEND
  0
POINT
  5
2B2AD
330
2B13E
100
AcDbEntity
  8
DEFPOINTS
 62
     0
 48
50.0
100
AcDbPoint
 10
12604.35971604083
 20
7157.552183902538
 30
0.0
  0
POINT
  5
2B2AE
330
2B13E
100
AcDbEntity
  8
DEFPOINTS
 62
     0
 48
50.0
100
AcDbPoint
 10
12649.35971604083
 20
7883.81864199645
 30
0.0
  0
POINT
  5
2B2AF
330
2B13E
100
AcDbEntity
  8
DEFPOINTS
 62
     0
 48
50.0
100
AcDbPoint
 10
12649.35971604083
 20
8115.772505961459
 30
0.0
  0
ENDBLK
  5
2B14B
330
2B13E
100
AcDbEntity
  8
0
 48
50.0
100
AcDbBlockEnd
  0
BLOCK
  5
2B760
330
2B756
100
AcDbEntity
  8
0
 48
50.0
100
AcDbBlockBegin
  2
*D46
 70
     1
 10
0.0
 20
0.0
 30
0.0
  3
*D46
  1

  0
LINE
  5
2B7A0
330
2B756
100
AcDbEntity
  8
寸法
 62
     0
 48
50.0
370
    -2
100
AcDbLine
 10
8708.154665521773
 20
1794.649082196849
 30
0.0
 11
9250.023265290616
 21
1794.649082196849
 31
0.0
  0
LINE
  5
2B7A1
330
2B756
100
AcDbEntity
  8
寸法
 62
     0
 48
50.0
370
    -2
100
AcDbLine
 10
8708.154665521773
 20
1470.649082196848
 30
0.0
 11
9250.023265290616
 21
1470.649082196848
 31
0.0
  0
LINE
  5
2B7A2
330
2B756
100
AcDbEntity
  8
寸法
 62
     0
 48
50.0
370
    -2
100
AcDbLine
 10
9190.023265290617
 20
1794.649082196849
 30
0.0
 11
9190.023265290617
 21
1470.649082196848
 31
0.0
  0
INSERT
  5
2B7A3
330
2B756
100
AcDbEntity
  8
寸法
 62
     0
 48
50.0
370
    -2
100
AcDbBlockReference
  2
_DOTSMALL
 10
9190.023265290617
 20
1794.649082196849
 30
0.0
 41
100.0
 42
100.0
 43
100.0
 50
90.0
  0
INSERT
  5
2B7A4
330
2B756
100
AcDbEntity
  8
寸法
 62
     0
 48
50.0
370
    -2
100
AcDbBlockReference
  2
_DOTSMALL
 10
9190.023265290617
 20
1470.649082196848
 30
0.0
 41
100.0
 42
100.0
 43
100.0
 50
270.0
  0
MTEXT
  5
2B7A5
330
2B756
100
AcDbEntity
  8
寸法
 62
     7
 48
50.0
100
AcDbMText
 10
9090.023265290616
 20
1632.64908219685
 30
0.0
 40
120.0
 41
0.0
 71
     5
 72
     1
  1
\A1;180
  7
STYLE1
 11
0.0000000000000001
 21
1.0
 31
0.0
 73
     1
 44
1.0
1001
ACAD
1000
MTEXTBEGIN
1070
    73
1070
     1
1070
    44
1040
1.0
1070
    74
1070
     0
1000
MTEXTEND
  0
POINT
  5
2B7A6
330
2B756
100
AcDbEntity
  8
DEFPOINTS
 62
     0
 48
50.0
100
AcDbPoint
 10
8688.154665521771
 20
1794.649082196849
 30
0.0
  0
POINT
  5
2B7A7
330
2B756
100
AcDbEntity
  8
DEFPOINTS
 62
     0
 48
50.0
100
AcDbPoint
 10
8688.154665521771
 20
1470.649082196848
 30
0.0
  0
POINT
  5
2B7A8
330
2B756
100
AcDbEntity
  8
DEFPOINTS
 62
     0
 48
50.0
100
AcDbPoint
 10
9190.023265290617
 20
1470.649082196848
 30
0.0
  0
ENDBLK
  5
2B761
330
2B756
100
AcDbEntity
  8
0
 48
50.0
100
AcDbBlockEnd
  0
BLOCK
  5
2B76E
330
2B762
100
AcDbEntity
  8
0
 48
50.0
100
AcDbBlockBegin
  2
*D47
 70
     1
 10
0.0
 20
0.0
 30
0.0
  3
*D47
  1

  0
LINE
  5
2B7A9
330
2B762
100
AcDbEntity
  8
寸法
 62
     0
 48
50.0
370
    -2
100
AcDbLine
 10
8520.954665521774
 20
1847.40908219685
 30
0.0
 11
9526.077931409643
 21
1847.40908219685
 31
0.0
  0
LINE
  5
2B7AA
330
2B762
100
AcDbEntity
  8
寸法
 62
     0
 48
50.0
370
    -2
100
AcDbLine
 10
8708.154665521773
 20
1794.649082196849
 30
0.0
 11
9526.077931409643
 21
1794.649082196849
 31
0.0
  0
LINE
  5
2B7AB
330
2B762
100
AcDbEntity
  8
寸法
 62
     0
 48
50.0
370
    -2
100
AcDbLine
 10
9466.077931409643
 20
1847.40908219685
 30
0.0
 11
9466.077931409643
 21
1947.40908219685
 31
0.0
  0
LINE
  5
2B7AC
330
2B762
100
AcDbEntity
  8
寸法
 62
     0
 48
50.0
370
    -2
100
AcDbLine
 10
9466.077931409643
 20
1794.649082196849
 30
0.0
 11
9466.077931409643
 21
1062.631275353882
 31
0.0
  0
LINE
  5
2B7AD
330
2B762
100
AcDbEntity
  8
寸法
 62
     0
 48
50.0
370
    -2
100
AcDbLine
 10
9466.077931409643
 20
1847.40908219685
 30
0.0
 11
9466.077931409643
 21
1794.649082196849
 31
0.0
  0
INSERT
  5
2B7AE
330
2B762
100
AcDbEntity
  8
寸法
 62
     0
 48
50.0
370
    -2
100
AcDbBlockReference
  2
_DOTSMALL
 10
9466.077931409643
 20
1847.40908219685
 30
0.0
 41
100.0
 42
100.0
 43
100.0
 50
270.0
  0
INSERT
  5
2B7AF
330
2B762
100
AcDbEntity
  8
寸法
 62
     0
 48
50.0
370
    -2
100
AcDbBlockReference
  2
_DOTSMALL
 10
9466.077931409643
 20
1794.649082196849
 30
0.0
 41
100.0
 42
100.0
 43
100.0
 50
90.0
  0
MTEXT
  5
2B7B0
330
2B762
100
AcDbEntity
  8
寸法
 62
     7
 48
50.0
100
AcDbMText
 10
9366.066120386021
 20
1328.640178775366
 30
0.0
 40
120.0
 41
0.0
 71
     5
 72
     1
  1
\A1;20～25
  7
STYLE1
 11
0.0000000000000001
 21
1.0
 31
0.0
 73
     1
 44
1.0
1001
ACAD
1000
MTEXTBEGIN
1070
    73
1070
     1
1070
    44
1040
1.0
1070
    74
1070
     0
1000
MTEXTEND
  0
POINT
  5
2B7B1
330
2B762
100
AcDbEntity
  8
DEFPOINTS
 62
     0
 48
50.0
100
AcDbPoint
 10
8500.954665521772
 20
1847.40908219685
 30
0.0
  0
POINT
  5
2B7B2
330
2B762
100
AcDbEntity
  8
DEFPOINTS
 62
     0
 48
50.0
100
AcDbPoint
 10
8688.154665521771
 20
1794.649082196849
 30
0.0
  0
POINT
  5
2B7B3
330
2B762
100
AcDbEntity
  8
DEFPOINTS
 62
     0
 48
50.0
100
AcDbPoint
 10
9466.077931409643
 20
1794.649082196849
 30
0.0
  0
ENDBLK
  5
2B76F
330
2B762
100
AcDbEntity
  8
0
 48
50.0
100
AcDbBlockEnd
  0
BLOCK
  5
2B77A
330
2B770
100
AcDbEntity
  8
0
 48
50.0
100
AcDbBlockBegin
  2
*D48
 70
     1
 10
0.0
 20
0.0
 30
0.0
  3
*D48
  1

  0
LINE
  5
2B7B4
330
2B770
100
AcDbEntity
  8
寸法
 62
     0
 48
50.0
370
    -2
100
AcDbLine
 10
6426.115352344578
 20
1250.649082196849
 30
0.0
 11
6243.695038612119
 21
1250.649082196849
 31
0.0
  0
LINE
  5
2B7B5
330
2B770
100
AcDbEntity
  8
寸法
 62
     0
 48
50.0
370
    -2
100
AcDbLine
 10
6346.115352344583
 20
1010.649082196849
 30
0.0
 11
6243.695038612119
 21
1010.649082196849
 31
0.0
  0
LINE
  5
2B7B6
330
2B770
100
AcDbEntity
  8
寸法
 62
     0
 48
50.0
370
    -2
100
AcDbLine
 10
6303.695038612119
 20
1250.649082196849
 30
0.0
 11
6303.695038612119
 21
1010.649082196849
 31
0.0
  0
INSERT
  5
2B7B7
330
2B770
100
AcDbEntity
  8
寸法
 62
     0
 48
50.0
370
    -2
100
AcDbBlockReference
  2
_DOTSMALL
 10
6303.695038612119
 20
1250.649082196849
 30
0.0
 41
100.0
 42
100.0
 43
100.0
 50
90.0
  0
INSERT
  5
2B7B8
330
2B770
100
AcDbEntity
  8
寸法
 62
     0
 48
50.0
370
    -2
100
AcDbBlockReference
  2
_DOTSMALL
 10
6303.695038612119
 20
1010.649082196849
 30
0.0
 41
100.0
 42
100.0
 43
100.0
 50
270.0
  0
MTEXT
  5
2B7B9
330
2B770
100
AcDbEntity
  8
寸法
 62
     7
 48
50.0
100
AcDbMText
 10
6203.695038612119
 20
1130.64908219685
 30
0.0
 40
120.0
 41
0.0
 71
     5
 72
     1
  1
\A1;150
  7
STYLE1
 11
0.0000000000000001
 21
1.0
 31
0.0
 73
     1
 44
1.0
1001
ACAD
1000
MTEXTBEGIN
1070
    73
1070
     1
1070
    44
1040
1.0
1070
    74
1070
     0
1000
MTEXTEND
  0
POINT
  5
2B7BA
330
2B770
100
AcDbEntity
  8
DEFPOINTS
 62
     0
 48
50.0
100
AcDbPoint
 10
6446.115352344579
 20
1250.649082196849
 30
0.0
  0
POINT
  5
2B7BB
330
2B770
100
AcDbEntity
  8
DEFPOINTS
 62
     0
 48
50.0
100
AcDbPoint
 10
6366.115352344582
 20
1010.649082196849
 30
0.0
  0
POINT
  5
2B7BC
330
2B770
100
AcDbEntity
  8
DEFPOINTS
 62
     0
 48
50.0
100
AcDbPoint
 10
6303.695038612119
 20
1010.649082196849
 30
0.0
  0
ENDBLK
  5
2B77B
330
2B770
100
AcDbEntity
  8
0
 48
50.0
100
AcDbBlockEnd
  0
BLOCK
  5
2B786
330
2B77C
100
AcDbEntity
  8
0
 48
50.0
100
AcDbBlockBegin
  2
*D49
 70
     1
 10
0.0
 20
0.0
 30
0.0
  3
*D49
  1

  0
LINE
  5
2B7BD
330
2B77C
100
AcDbEntity
  8
寸法
 62
     0
 48
50.0
370
    -2
100
AcDbLine
 10
6554.115352344578
 20
1794.649082196849
 30
0.0
 11
5779.078113782838
 21
1794.649082196849
 31
0.0
  0
LINE
  5
2B7BE
330
2B77C
100
AcDbEntity
  8
寸法
 62
     0
 48
50.0
370
    -2
100
AcDbLine
 10
6346.115352344583
 20
1010.649082196849
 30
0.0
 11
5779.078113782838
 21
1010.649082196849
 31
0.0
  0
LINE
  5
2B7BF
330
2B77C
100
AcDbEntity
  8
寸法
 62
     0
 48
50.0
370
    -2
100
AcDbLine
 10
5839.078113782838
 20
1794.649082196849
 30
0.0
 11
5839.078113782838
 21
1010.649082196849
 31
0.0
  0
INSERT
  5
2B7C0
330
2B77C
100
AcDbEntity
  8
寸法
 62
     0
 48
50.0
370
    -2
100
AcDbBlockReference
  2
_DOTSMALL
 10
5839.078113782838
 20
1794.649082196849
 30
0.0
 41
100.0
 42
100.0
 43
100.0
 50
90.0
  0
INSERT
  5
2B7C1
330
2B77C
100
AcDbEntity
  8
寸法
 62
     0
 48
50.0
370
    -2
100
AcDbBlockReference
  2
_DOTSMALL
 10
5839.078113782838
 20
1010.649082196849
 30
0.0
 41
100.0
 42
100.0
 43
100.0
 50
270.0
  0
MTEXT
  5
2B7C2
330
2B77C
100
AcDbEntity
  8
寸法
 62
     7
 48
50.0
100
AcDbMText
 10
5739.078113782838
 20
1382.18923185285
 30
0.0
 40
120.0
 41
0.0
 71
     5
 72
     1
  1
\A1;540
  7
STYLE1
 11
0.0000000000000001
 21
1.0
 31
0.0
 73
     1
 44
1.0
1001
ACAD
1000
MTEXTBEGIN
1070
    73
1070
     1
1070
    44
1040
1.0
1070
    74
1070
     0
1000
MTEXTEND
  0
POINT
  5
2B7C3
330
2B77C
100
AcDbEntity
  8
DEFPOINTS
 62
     0
 48
50.0
100
AcDbPoint
 10
6574.115352344579
 20
1794.649082196849
 30
0.0
  0
POINT
  5
2B7C4
330
2B77C
100
AcDbEntity
  8
DEFPOINTS
 62
     0
 48
50.0
100
AcDbPoint
 10
6366.115352344582
 20
1010.649082196849
 30
0.0
  0
POINT
  5
2B7C5
330
2B77C
100
AcDbEntity
  8
DEFPOINTS
 62
     0
 48
50.0
100
AcDbPoint
 10
5839.078113782838
 20
1010.649082196849
 30
0.0
  0
ENDBLK
  5
2B787
330
2B77C
100
AcDbEntity
  8
0
 48
50.0
100
AcDbBlockEnd
  0
BLOCK
  5
2B792
330
2B788
100
AcDbEntity
  8
0
 48
50.0
100
AcDbBlockBegin
  2
*D50
 70
     1
 10
0.0
 20
0.0
 30
0.0
  3
*D50
  1

  0
LINE
  5
2B7C6
330
2B788
100
AcDbEntity
  8
寸法
 62
     0
 48
50.0
370
    -2
100
AcDbLine
 10
6446.115352344579
 20
862.6490821968491
 30
0.0
 11
6446.115352344579
 21
412.219444191689
 31
0.0
  0
LINE
  5
2B7C7
330
2B788
100
AcDbEntity
  8
寸法
 62
     0
 48
50.0
370
    -2
100
AcDbLine
 10
6894.115352344577
 20
862.6490821968491
 30
0.0
 11
6894.115352344577
 21
412.219444191689
 31
0.0
  0
LINE
  5
2B7C8
330
2B788
100
AcDbEntity
  8
寸法
 62
     0
 48
50.0
370
    -2
100
AcDbLine
 10
6446.115352344579
 20
472.219444191689
 30
0.0
 11
6894.115352344577
 21
472.219444191689
 31
0.0
  0
INSERT
  5
2B7C9
330
2B788
100
AcDbEntity
  8
寸法
 62
     0
 48
50.0
370
    -2
100
AcDbBlockReference
  2
_DOTSMALL
 10
6446.115352344579
 20
472.219444191689
 30
0.0
 41
100.0
 42
100.0
 43
100.0
 50
180.0
  0
INSERT
  5
2B7CA
330
2B788
100
AcDbEntity
  8
寸法
 62
     0
 48
50.0
370
    -2
100
AcDbBlockReference
  2
_DOTSMALL
 10
6894.115352344577
 20
472.219444191689
 30
0.0
 41
100.0
 42
100.0
 43
100.0
  0
MTEXT
  5
2B7CB
330
2B788
100
AcDbEntity
  8
寸法
 62
     7
 48
50.0
100
AcDbMText
 10
6650.018593666354
 20
572.219444191689
 30
0.0
 40
120.0
 41
0.0
 71
     5
 72
     1
  1
\A1;300
  7
STYLE1
 73
     1
 44
1.0
1001
ACAD
1000
MTEXTBEGIN
1070
    73
1070
     1
1070
    44
1040
1.0
1070
    74
1070
     0
1000
MTEXTEND
  0
POINT
  5
2B7CC
330
2B788
100
AcDbEntity
  8
DEFPOINTS
 62
     0
 48
50.0
100
AcDbPoint
 10
6446.115352344579
 20
882.6490821968491
 30
0.0
  0
POINT
  5
2B7CD
330
2B788
100
AcDbEntity
  8
DEFPOINTS
 62
     0
 48
50.0
100
AcDbPoint
 10
6894.115352344577
 20
882.6490821968491
 30
0.0
  0
POINT
  5
2B7CE
330
2B788
100
AcDbEntity
  8
DEFPOINTS
 62
     0
 48
50.0
100
AcDbPoint
 10
6894.115352344577
 20
472.219444191689
 30
0.0
  0
ENDBLK
  5
2B793
330
2B788
100
AcDbEntity
  8
0
 48
50.0
100
AcDbBlockEnd
  0
BLOCK
  5
2B79E
330
2B794
100
AcDbEntity
  8
0
 48
50.0
100
AcDbBlockBegin
  2
*D51
 70
     1
 10
0.0
 20
0.0
 30
0.0
  3
*D51
  1

  0
LINE
  5
2B7CF
330
2B794
100
AcDbEntity
  8
寸法
 62
     0
 48
50.0
370
    -2
100
AcDbLine
 10
6766.115352344579
 20
1814.649082196849
 30
0.0
 11
6766.115352344579
 21
2274.31689011323
 31
0.0
  0
LINE
  5
2B7D0
330
2B794
100
AcDbEntity
  8
寸法
 62
     0
 48
50.0
370
    -2
100
AcDbLine
 10
6574.115352344579
 20
1814.649082196849
 30
0.0
 11
6574.115352344579
 21
2274.31689011323
 31
0.0
  0
LINE
  5
2B7D1
330
2B794
100
AcDbEntity
  8
寸法
 62
     0
 48
50.0
370
    -2
100
AcDbLine
 10
6766.115352344579
 20
2214.316890113229
 30
0.0
 11
6574.115352344579
 21
2214.316890113229
 31
0.0
  0
INSERT
  5
2B7D2
330
2B794
100
AcDbEntity
  8
寸法
 62
     0
 48
50.0
370
    -2
100
AcDbBlockReference
  2
_DOTSMALL
 10
6766.115352344579
 20
2214.316890113229
 30
0.0
 41
100.0
 42
100.0
 43
100.0
  0
INSERT
  5
2B7D3
330
2B794
100
AcDbEntity
  8
寸法
 62
     0
 48
50.0
370
    -2
100
AcDbBlockReference
  2
_DOTSMALL
 10
6574.115352344579
 20
2214.316890113229
 30
0.0
 41
100.0
 42
100.0
 43
100.0
 50
180.0
  0
MTEXT
  5
2B7D4
330
2B794
100
AcDbEntity
  8
寸法
 62
     7
 48
50.0
100
AcDbMText
 10
6670.115352344578
 20
2514.352323184096
 30
0.0
 40
120.0
 41
0.0
 71
     5
 72
     1
  1
\A1;120\P200\P280
  7
STYLE1
 73
     1
 44
1.0
1001
ACAD
1000
MTEXTBEGIN
1070
    73
1070
     1
1070
    44
1040
1.0
1070
    74
1070
     0
1000
MTEXTEND
  0
POINT
  5
2B7D5
330
2B794
100
AcDbEntity
  8
DEFPOINTS
 62
     0
 48
50.0
100
AcDbPoint
 10
6766.115352344579
 20
1794.649082196849
 30
0.0
  0
POINT
  5
2B7D6
330
2B794
100
AcDbEntity
  8
DEFPOINTS
 62
     0
 48
50.0
100
AcDbPoint
 10
6574.115352344579
 20
1794.649082196849
 30
0.0
  0
POINT
  5
2B7D7
330
2B794
100
AcDbEntity
  8
DEFPOINTS
 62
     0
 48
50.0
100
AcDbPoint
 10
6574.115352344579
 20
2214.316890113229
 30
0.0
  0
ENDBLK
  5
2B79F
330
2B794
100
AcDbEntity
  8
0
 48
50.0
100
AcDbBlockEnd
  0
ENDSEC
  0
SECTION
  2
ENTITIES
  0
MTEXT
  5
763F
330
747D
100
AcDbEntity
  8
0
100
AcDbMText
 10
302.846345836809
 20
280.1983726409901
 30
0.0
 40
3.5
 41
5.323721266742722
 71
     1
 72
     5
  1

  7
MSMINCHO
 73
     1
 44
1.0
1001
ACAD
1000
MTEXTBEGIN
1070
    73
1070
     1
1070
    44
1040
1.0
1070
    74
1070
     0
1000
MTEXTEND
  0
LINE
  5
10B57
330
747D
100
AcDbEntity
  8
補助
  6
PHANTOM
 62
   230
 48
50.0
100
AcDbLine
 10
139.9999999999995
 20
11409.6
 30
0.0
 11
16307.2
 21
11409.6
 31
0.0
  0
LINE
  5
10B59
330
747D
100
AcDbEntity
  8
仕様書枠
  6
Continuous
 48
50.0
100
AcDbLine
 10
13107.2
 20
1200.0
 30
0.0
 11
13107.2
 21
-0.0000000000000729
 31
0.0
  0
LINE
  5
10B5D
330
747D
100
AcDbEntity
  8
仕様書枠
 48
50.0
100
AcDbLine
 10
140.0
 20
0.0
 30
0.0
 11
16307.2
 21
-0.0000000000000909
 31
0.0
  0
LINE
  5
10B5E
330
747D
100
AcDbEntity
  8
補助
  6
PHANTOM
 62
   230
 48
50.0
100
AcDbLine
 10
16307.2
 20
11409.6
 30
0.0
 11
16307.2
 21
1200.0
 31
0.0
  0
LINE
  5
10B6C
330
747D
100
AcDbEntity
  8
仕様書枠
 48
50.0
100
AcDbLine
 10
13107.2
 20
1200.0
 30
0.0
 11
16307.2
 21
1200.0
 31
0.0
  0
TEXT
  5
10B73
330
747D
100
AcDbEntity
  8
文字
 62
     7
 48
50.0
100
AcDbText
 10
13162.9790565769
 20
895.0906074299405
 30
0.0
 40
200.0
  1
基 礎 図
  7
STYLE2
100
AcDbText
  0
LINE
  5
10B7B
330
747D
100
AcDbEntity
  8
仕様書枠
 48
50.0
100
AcDbLine
 10
13107.2
 20
800.0
 30
0.0
 11
14251.2
 21
800.0
 31
0.0
  0
LINE
  5
10B88
330
747D
100
AcDbEntity
  8
仕様書枠
  6
Continuous
 48
50.0
100
AcDbLine
 10
14251.2
 20
1200.0
 30
0.0
 11
14251.2
 21
800.0
 31
0.0
  0
LINE
  5
16462
330
747D
100
AcDbEntity
  8
仕様書枠
 48
50.0
100
AcDbLine
 10
16307.2
 20
1200.0
 30
0.0
 11
16307.2
 21
-0.0000000000000909
 31
0.0
  0
LINE
  5
1903B
330
747D
100
AcDbEntity
  8
補助
  6
PHANTOM
 62
   230
 48
50.0
100
AcDbLine
 10
140.0
 20
0.0
 30
0.0
 11
139.9999999999995
 21
11409.6
 31
0.0
  0
TEXT
  5
1C7A1
330
747D
100
AcDbEntity
  8
文字
 62
     7
 48
50.0
100
AcDbText
 10
13188.16259899338
 20
79.80631269190417
 30
0.0
 40
80.0
  1
※布基礎には換気口を設けてください。
  7
STYLE2
100
AcDbText
  0
TEXT
  5
1C7E7
330
747D
100
AcDbEntity
  8
文字
 62
     7
 48
50.0
100
AcDbText
 10
13188.16259899338
 20
246.7109242801889
 30
0.0
 40
80.0
  1
※寒冷地等は地域の実情に合わせた基礎にして下さい。
  7
STYLE2
100
AcDbText
  0
TEXT
  5
1C7EC
330
747D
100
AcDbEntity
  8
文字
 62
     7
 48
50.0
100
AcDbText
 10
14524.131837222
 20
1031.557706291229
 30
0.0
 40
100.0
  1
<縮尺> S=1/40
  7
STYLE2
100
AcDbText
  0
TEXT
  5
1C7ED
330
747D
100
AcDbEntity
  8
文字
 62
     7
 48
50.0
100
AcDbText
 10
13201.43669998441
 20
477.2740661031257
 30
0.0
 40
160.0
  1
機種名
  7
STYLE2
100
AcDbText
  0
LINE
  5
1C7EF
330
747D
100
AcDbEntity
  8
文字
 62
     7
 48
50.0
100
AcDbLine
 10
13187.2
 20
400.0
 30
0.0
 11
16227.2
 21
400.0
 31
0.0
  0
TEXT
  5
271E7
330
747D
100
AcDbEntity
  8
部品1
100
AcDbText
 10
7020.398178799904
 20
5362.981535303235
 30
0.0
 40
135.0
  1
9連棟・12連棟・15連棟・18連棟
  7
STYLE2
100
AcDbText
  0
TEXT
  5
27754
330
747D
100
AcDbEntity
  8
文字
 62
     7
 48
50.0
100
AcDbText
 10
14271.39351435261
 20
483.8967129911416
 30
0.0
 40
160.0
  1
ＮＸＮ－０９ＤＬ-Ｎ
  7
STYLE2
100
AcDbText
  0
LINE
  5
2A779
330
747D
100
AcDbEntity
  8
寸法
 48
50.0
100
AcDbLine
 10
8519.359716040838
 20
7640.161000572786
 30
0.0
 11
8799.359716040838
 21
7640.161000572786
 31
0.0
  0
TEXT
  5
2A77B
330
747D
100
AcDbEntity
  8
寸法
 48
50.0
100
AcDbText
 10
8663.136784621697
 20
6216.233474695276
 30
0.0
 40
120.0
  1
扉面
  7
STYLE1
100
AcDbText
  0
DIMENSION
  5
2A77C
330
747D
100
AcDbEntity
  8
寸法
 48
50.0
100
AcDbDimension
  2
*D19
 10
12604.35971604083
 20
8115.772505961457
 30
0.0
 11
8324.359716040831
 21
8215.772505961457
 31
0.0
 70
    32
  1
N X 950+10
 71
     5
 42
8560.0
  3
INABA_S40G
100
AcDbAlignedDimension
 13
4044.359716040831
 23
7157.552183902538
 33
0.0
 14
12604.35971604083
 24
7157.552183902538
 34
0.0
100
AcDbRotatedDimension
1001
ACAD
1000
DSTYLE
1002
{
1070
   341
1005
0
1002
}
  0
DIMENSION
  5
2A781
330
747D
100
AcDbEntity
  8
寸法
 48
50.0
100
AcDbDimension
  2
*D20
 10
3421.424722370904
 20
6395.552183902542
 30
0.0
 11
3421.424722370903
 21
6715.052183902539
 31
0.0
 70
   160
 71
     5
 42
638.9999999999964
  3
INABA_S40G
100
AcDbAlignedDimension
 13
4117.359716040832
 23
7034.55218390254
 33
0.0
 14
4117.359716040839
 24
6395.552183902542
 34
0.0
 50
90.0
100
AcDbRotatedDimension
1001
ACAD
1000
DSTYLE
1002
{
1070
   341
1005
0
1002
}
  0
DIMENSION
  5
2A782
330
747D
100
AcDbEntity
  8
寸法
 48
50.0
100
AcDbDimension
  2
*D21
 10
3169.481625651505
 20
6197.552183902539
 30
0.0
 11
3169.481625651505
 21
6715.052183902539
 31
0.0
 70
   160
 71
     5
 42
960.0
  3
INABA_S40G
100
AcDbAlignedDimension
 13
4044.359716040831
 23
7157.552183902538
 33
0.0
 14
4044.359716040831
 24
6197.552183902539
 34
0.0
 50
90.0
100
AcDbRotatedDimension
1001
ACAD
1000
DSTYLE
1002
{
1070
   341
1005
0
1002
}
  0
DIMENSION
  5
2A784
330
747D
100
AcDbEntity
  8
寸法
 48
50.0
100
AcDbDimension
  2
*D22
 10
4527.045706655133
 20
6677.552183902538
 30
0.0
 11
4527.045706655131
 21
5904.99312878444
 31
0.0
 70
   160
 71
     5
 42
479.999999999989
  3
INABA_S40G
100
AcDbAlignedDimension
 13
4618.525191181732
 23
6197.55218390255
 33
0.0
 14
4949.359716040839
 24
6677.552183902538
 34
0.0
 50
90.0
100
AcDbRotatedDimension
1001
ACAD
1000
DSTYLE
1002
{
1070
   341
1005
0
1002
}
  0
LINE
  5
2A785
330
747D
100
AcDbEntity
  8
部品1
 48
50.0
100
AcDbLine
 10
4044.359716040831
 20
6197.552183902539
 30
0.0
 11
4044.359716040831
 21
7157.552183902538
 31
0.0
  0
LINE
  5
2A789
330
747D
100
AcDbEntity
  8
部品1
 48
50.0
100
AcDbLine
 10
12604.35971604083
 20
6197.552183902576
 30
0.0
 11
4044.359716040828
 21
6197.552183902535
 31
0.0
  0
DIMENSION
  5
2A78A
330
747D
100
AcDbEntity
  8
寸法
 48
50.0
100
AcDbDimension
  2
*D23
 10
3421.424722370904
 20
6197.552183902539
 30
0.0
 11
3421.424722370903
 21
5862.021235059946
 31
0.0
 70
   160
 71
     5
 42
198.0000000000036
  3
INABA_S40G
100
AcDbAlignedDimension
 13
4117.359716040839
 23
6395.552183902542
 33
0.0
 14
4044.359716040831
 24
6197.552183902539
 34
0.0
 50
90.0
100
AcDbRotatedDimension
1001
ACAD
1000
DSTYLE
1002
{
1070
   341
1005
0
1002
}
  0
ARC
  5
2A78C
330
747D
100
AcDbEntity
  8
想像線
 48
5.0
100
AcDbCircle
 10
4814.359716040836
 20
6197.552183902542
 30
0.0
 40
720.0
100
AcDbArc
 50
180.0
 51
270.0
  0
LINE
  5
2A78D
330
747D
100
AcDbEntity
  8
細線
 48
50.0
100
AcDbLine
 10
4424.359716040837
 20
6420.958057301277
 30
0.0
 11
4480.953842642098
 21
6477.552183902536
 31
0.0
  0
LINE
  5
2A78E
330
747D
100
AcDbEntity
  8
細線
 48
50.0
100
AcDbLine
 10
4424.35971604084
 20
6376.056776695937
 30
0.0
 11
4525.855123247439
 21
6477.552183902535
 31
0.0
  0
LINE
  5
2A78F
330
747D
100
AcDbEntity
  8
細線
 48
50.0
100
AcDbLine
 10
4425.460239173915
 20
6197.552177407636
 30
0.0
 11
4624.359716040833
 21
6396.451654274553
 31
0.0
  0
LINE
  5
2A790
330
747D
100
AcDbEntity
  8
細線
 48
50.0
100
AcDbLine
 10
4424.359716040842
 20
6241.352934879909
 30
0.0
 11
4624.359716040835
 21
6441.3529348799
 31
0.0
  0
LINE
  5
2A791
330
747D
100
AcDbEntity
  8
細線
 48
50.0
100
AcDbLine
 10
4424.359716040838
 20
6286.254215485251
 30
0.0
 11
4615.657684458121
 21
6477.552183902535
 31
0.0
  0
LINE
  5
2A792
330
747D
100
AcDbEntity
  8
細線
 48
50.0
100
AcDbLine
 10
4424.359716040838
 20
6331.155496090596
 30
0.0
 11
4570.756403852779
 21
6477.552183902536
 31
0.0
  0
DIMENSION
  5
2A793
330
747D
100
AcDbEntity
  8
寸法
 48
50.0
100
AcDbDimension
  2
*D24
 10
3931.272389808714
 20
5477.552183902535
 30
0.0
 11
3931.272389808714
 21
5837.552183902536
 31
0.0
 70
   160
  1
扉の出<>
 71
     5
 42
720.0
  3
INABA_S40G
100
AcDbAlignedDimension
 13
4044.359716040835
 23
6197.552183902535
 33
0.0
 14
4400.08504296964
 24
5477.552183902535
 34
0.0
 50
90.0
100
AcDbRotatedDimension
1001
ACAD
1000
DSTYLE
1002
{
1070
   341
1005
0
1002
}
  0
LINE
  5
2A794
330
747D
100
AcDbEntity
  8
部品1
 48
50.0
100
AcDbLine
 10
4424.359716040831
 20
6477.552183902536
 30
0.0
 11
4424.359716040845
 21
6197.552177407633
 31
0.0
  0
LINE
  5
2A795
330
747D
100
AcDbEntity
  8
センター
 48
2.0
100
AcDbLine
 10
4167.359716040839
 20
6445.552183902542
 30
0.0
 11
4167.359716040839
 21
6345.552183902542
 31
0.0
  0
CIRCLE
  5
2A796
330
747D
100
AcDbEntity
  8
部品1
 48
50.0
100
AcDbCircle
 10
4167.359716040824
 20
6395.552183902542
 30
0.0
 40
35.0
  0
LINE
  5
2A797
330
747D
100
AcDbEntity
  8
センター
 48
2.0
100
AcDbLine
 10
4117.359716040839
 20
6395.552183902542
 30
0.0
 11
4217.359716040839
 21
6395.552183902542
 31
0.0
  0
LINE
  5
2A798
330
747D
100
AcDbEntity
  8
想像線
 48
5.0
100
AcDbLine
 10
4814.359716040836
 20
6197.552183902553
 30
0.0
 11
4814.359716040836
 21
5477.552183902542
 31
0.0
  0
LINE
  5
2A799
330
747D
100
AcDbEntity
  8
細線
 48
50.0
100
AcDbLine
 10
4560.164080989952
 20
6197.552177407636
 30
0.0
 11
4624.359716040842
 21
6261.747812458523
 31
0.0
  0
LINE
  5
2A79A
330
747D
100
AcDbEntity
  8
細線
 48
50.0
100
AcDbLine
 10
4515.262800384607
 20
6197.552177407636
 30
0.0
 11
4624.359716040839
 21
6306.649093063868
 31
0.0
  0
LINE
  5
2A79B
330
747D
100
AcDbEntity
  8
細線
 48
50.0
100
AcDbLine
 10
4470.36151977926
 20
6197.552177407636
 30
0.0
 11
4624.359716040835
 21
6351.55037366921
 31
0.0
  0
LINE
  5
2A79C
330
747D
100
AcDbEntity
  8
部品1
 48
50.0
100
AcDbLine
 10
4624.359716040832
 20
6477.552183902537
 30
0.0
 11
4624.359716040845
 21
6197.552177407636
 31
0.0
  0
LINE
  5
2A79D
330
747D
100
AcDbEntity
  8
細線
 48
50.0
100
AcDbLine
 10
4605.0653615953
 20
6197.552177407639
 30
0.0
 11
4624.359716040845
 21
6216.846531853182
 31
0.0
  0
LINE
  5
2A7B7
330
747D
100
AcDbEntity
  8
センター
 48
2.0
100
AcDbLine
 10
6781.359716040839
 20
6445.552183902542
 30
0.0
 11
6781.359716040839
 21
6345.552183902542
 31
0.0
  0
LINE
  5
2A7B8
330
747D
100
AcDbEntity
  8
センター
 48
2.0
100
AcDbLine
 10
6731.359716040839
 20
6395.552183902542
 30
0.0
 11
6831.359716040839
 21
6395.552183902542
 31
0.0
  0
CIRCLE
  5
2A7B9
330
747D
100
AcDbEntity
  8
部品1
 48
50.0
100
AcDbCircle
 10
6781.359716040839
 20
6395.552183902542
 30
0.0
 40
35.0
  0
LINE
  5
2A7C6
330
747D
100
AcDbEntity
  8
細線
 48
50.0
100
AcDbLine
 10
8360.164080989957
 20
6197.552177407631
 30
0.0
 11
8424.359716040843
 21
6261.747812458517
 31
0.0
  0
LINE
  5
2A7C7
330
747D
100
AcDbEntity
  8
細線
 48
50.0
100
AcDbLine
 10
8315.262800384608
 20
6197.552177407629
 30
0.0
 11
8424.359716040838
 21
6306.649093063861
 31
0.0
  0
LINE
  5
2A7C8
330
747D
100
AcDbEntity
  8
細線
 48
50.0
100
AcDbLine
 10
8272.708246041679
 20
6199.898903670044
 30
0.0
 11
8424.359716040843
 21
6351.55037366921
 31
0.0
  0
LINE
  5
2A7CA
330
747D
100
AcDbEntity
  8
部品1
 48
50.0
100
AcDbLine
 10
8224.359716040835
 20
6477.552183902559
 30
0.0
 11
8224.359716040847
 21
6197.552177407628
 31
0.0
  0
LINE
  5
2A7CB
330
747D
100
AcDbEntity
  8
部品1
 48
50.0
100
AcDbLine
 10
8424.359716040836
 20
6477.552183902554
 30
0.0
 11
8424.359716040846
 21
6197.552177407631
 31
0.0
  0
LINE
  5
2A7CD
330
747D
100
AcDbEntity
  8
細線
 48
50.0
100
AcDbLine
 10
8405.065361595303
 20
6197.552177407633
 30
0.0
 11
8424.359716040845
 21
6216.846531853175
 31
0.0
  0
LINE
  5
2A7CE
330
747D
100
AcDbEntity
  8
細線
 48
50.0
100
AcDbLine
 10
8224.359716040842
 20
6286.254215485249
 30
0.0
 11
8415.657684458146
 21
6477.552183902552
 31
0.0
  0
LINE
  5
2A7CF
330
747D
100
AcDbEntity
  8
細線
 48
50.0
100
AcDbLine
 10
8224.359716040842
 20
6331.155496090591
 30
0.0
 11
8370.756403852817
 21
6477.552183902552
 31
0.0
  0
LINE
  5
2A7D0
330
747D
100
AcDbEntity
  8
細線
 48
50.0
100
AcDbLine
 10
8225.460245668845
 20
6197.552183902556
 30
0.0
 11
8424.359716040838
 21
6396.451654274549
 31
0.0
  0
LINE
  5
2A7D1
330
747D
100
AcDbEntity
  8
細線
 48
50.0
100
AcDbLine
 10
8224.359716040844
 20
6241.352934879906
 30
0.0
 11
8424.359716040838
 21
6441.352934879889
 31
0.0
  0
LINE
  5
2A7D2
330
747D
100
AcDbEntity
  8
細線
 48
50.0
100
AcDbLine
 10
8224.359716040842
 20
6376.056776695937
 30
0.0
 11
8325.855123247457
 21
6477.552183902559
 31
0.0
  0
LINE
  5
2A7D3
330
747D
100
AcDbEntity
  8
細線
 48
50.0
100
AcDbLine
 10
8224.359716040837
 20
6420.958057301277
 30
0.0
 11
8280.953842642123
 21
6477.552183902557
 31
0.0
  0
LINE
  5
2A7D6
102
{ACAD_REACTORS
330
2B7F7
102
}
330
747D
100
AcDbEntity
  8
部品1
 48
50.0
100
AcDbLine
 10
12484.35971604083
 20
6957.55218390254
 30
0.0
 11
4164.359716040828
 21
6957.552183902539
 31
0.0
  0
LINE
  5
2A7D7
102
{ACAD_REACTORS
330
2B7F7
102
}
330
747D
100
AcDbEntity
  8
部品1
 48
50.0
100
AcDbLine
 10
12541.88505365758
 20
7157.552183902535
 30
0.0
 11
4044.359716040831
 21
7157.552183902538
 31
0.0
  0
DIMENSION
  5
2A7D8
330
747D
100
AcDbEntity
  8
寸法
 48
50.0
100
AcDbDimension
  2
*D25
 10
4999.359716040839
 20
7640.161000572788
 30
0.0
 11
5474.359716040839
 21
7740.161000572787
 31
0.0
 70
    32
 71
     5
 42
950.0
  3
INABA_S40G
100
AcDbAlignedDimension
 13
5949.359716040839
 23
6727.552183902538
 33
0.0
 14
4999.359716040839
 24
6727.552183902538
 34
0.0
100
AcDbRotatedDimension
1001
ACAD
1000
DSTYLE
1002
{
1070
   341
1005
0
1002
}
  0
DIMENSION
  5
2A7D9
330
747D
100
AcDbEntity
  8
寸法
 48
50.0
100
AcDbDimension
  2
*D26
 10
4167.359716040832
 20
7883.81864199645
 30
0.0
 11
5474.359716040832
 21
7983.830453020072
 31
0.0
 70
    32
 71
     5
 42
2614.0
  3
INABA_S40G
100
AcDbAlignedDimension
 13
6781.359716040832
 23
7084.552183902539
 33
0.0
 14
4167.359716040832
 24
7084.552183902539
 34
0.0
100
AcDbRotatedDimension
1001
ACAD
1000
DSTYLE
1002
{
1070
   341
1005
0
1002
}
  0
DIMENSION
  5
2A7DB
330
747D
100
AcDbEntity
  8
寸法
 48
50.0
100
AcDbDimension
  2
*D27
 10
3421.424722370904
 20
7034.55218390254
 30
0.0
 11
3421.424722370903
 21
7430.658785620337
 31
0.0
 70
   160
 71
     5
 42
123.0
  3
INABA_S40G
100
AcDbAlignedDimension
 13
4044.359716040831
 23
7157.552183902538
 33
0.0
 14
4117.359716040832
 24
7034.55218390254
 34
0.0
 50
90.0
100
AcDbRotatedDimension
1001
ACAD
1000
DSTYLE
1002
{
1070
   341
1005
0
1002
}
  0
DIMENSION
  5
2A7DD
330
747D
100
AcDbEntity
  8
寸法
 48
50.0
100
AcDbDimension
  2
*D28
 10
4044.359716040831
 20
7883.81864199645
 30
0.0
 11
3771.253114323034
 21
7883.81864199645
 31
0.0
 70
   160
 71
     5
 42
123.0
  3
INABA_S40G
100
AcDbAlignedDimension
 13
4167.359716040832
 23
7084.552183902539
 33
0.0
 14
4044.359716040831
 24
7157.552183902538
 34
0.0
100
AcDbRotatedDimension
1001
ACAD
1000
DSTYLE
1002
{
1070
   341
1005
0
1002
}
  0
DIMENSION
  5
2A7DF
330
747D
100
AcDbEntity
  8
寸法
 48
50.0
100
AcDbDimension
  2
*D29
 10
4044.359716040831
 20
7640.161000572788
 30
0.0
 11
4521.859716040835
 21
7740.161000572787
 31
0.0
 70
    32
 71
     5
 42
955.0000000000073
  3
INABA_S40G
100
AcDbAlignedDimension
 13
4999.359716040839
 23
6727.552183902538
 33
0.0
 14
4044.359716040831
 24
7157.552183902538
 34
0.0
100
AcDbRotatedDimension
1001
ACAD
1000
DSTYLE
1002
{
1070
   341
1005
0
1002
}
  0
LINE
  5
2A7E0
330
747D
100
AcDbEntity
  8
細線
 48
50.0
100
AcDbLine
 10
4424.359716040845
 20
6959.773424565444
 30
0.0
 11
4622.138468883033
 21
7157.552177407632
 31
0.0
  0
LINE
  5
2A7E1
330
747D
100
AcDbEntity
  8
細線
 48
50.0
100
AcDbLine
 10
4424.359716040842
 20
7004.674705170784
 30
0.0
 11
4577.237188277689
 21
7157.552177407635
 31
0.0
  0
LINE
  5
2A7E2
330
747D
100
AcDbEntity
  8
細線
 48
50.0
100
AcDbLine
 10
4424.35971604084
 20
7049.575985776129
 30
0.0
 11
4532.335907672345
 21
7157.552177407634
 31
0.0
  0
LINE
  5
2A7E3
330
747D
100
AcDbEntity
  8
細線
 48
50.0
100
AcDbLine
 10
4424.359716040838
 20
7094.477266381473
 30
0.0
 11
4487.434627066999
 21
7157.552177407635
 31
0.0
  0
DIMENSION
  5
2A7E4
330
747D
100
AcDbEntity
  8
寸法
 48
50.0
100
AcDbDimension
  2
*D30
 10
4527.045706655132
 20
7157.552183902538
 30
0.0
 11
4527.045706655131
 21
7450.111239020651
 31
0.0
 70
   160
 71
     5
 42
480.0
  3
INABA_S40G
100
AcDbAlignedDimension
 13
4949.359716040839
 23
6677.552183902538
 33
0.0
 14
4618.525191181732
 24
7157.552183902538
 34
0.0
 50
90.0
100
AcDbRotatedDimension
1001
ACAD
1000
DSTYLE
1002
{
1070
   341
1005
0
1002
}
  0
LINE
  5
2A7E5
330
747D
100
AcDbEntity
  8
部品1
 48
50.0
100
AcDbLine
 10
4424.359716040837
 20
7157.552177407634
 30
0.0
 11
4424.359716040846
 21
6957.552183902541
 31
0.0
  0
LINE
  5
2A7E6
330
747D
100
AcDbEntity
  8
細線
 48
50.0
100
AcDbLine
 10
4136.842310699085
 20
6602.552177407551
 30
0.0
 11
4164.359716040831
 21
6630.069582749297
 31
0.0
  0
LINE
  5
2A7E7
330
747D
100
AcDbEntity
  8
細線
 48
50.0
100
AcDbLine
 10
4091.94103009374
 20
6602.552177407551
 30
0.0
 11
4164.359716040831
 21
6674.970863354644
 31
0.0
  0
LINE
  5
2A7E8
330
747D
100
AcDbEntity
  8
細線
 48
50.0
100
AcDbLine
 10
4047.039749488394
 20
6602.552177407552
 30
0.0
 11
4164.35971604083
 21
6719.872143959986
 31
0.0
  0
LINE
  5
2A7E9
330
747D
100
AcDbEntity
  8
細線
 48
50.0
100
AcDbLine
 10
4044.359716040837
 20
6644.77342456534
 30
0.0
 11
4164.359716040829
 21
6764.773424565333
 31
0.0
  0
LINE
  5
2A7EA
330
747D
100
AcDbEntity
  8
細線
 48
50.0
100
AcDbLine
 10
4044.359716040839
 20
6689.674705170687
 30
0.0
 11
4157.237188277703
 21
6802.552177407553
 31
0.0
  0
LINE
  5
2A7EB
330
747D
100
AcDbEntity
  8
細線
 48
50.0
100
AcDbLine
 10
4044.359716040839
 20
6734.575985776032
 30
0.0
 11
4112.335907672357
 21
6802.552177407553
 31
0.0
  0
LINE
  5
2A7EC
330
747D
100
AcDbEntity
  8
細線
 48
50.0
100
AcDbLine
 10
4044.359716040837
 20
6779.477266381376
 30
0.0
 11
4067.434627067014
 21
6802.552177407555
 31
0.0
  0
LINE
  5
2A7ED
330
747D
100
AcDbEntity
  8
部品1
 48
50.0
100
AcDbLine
 10
4164.359716040829
 20
6802.552177407553
 30
0.0
 11
4044.359716040837
 21
6802.552177407553
 31
0.0
  0
LINE
  5
2A7EE
330
747D
100
AcDbEntity
  8
部品1
 48
50.0
100
AcDbLine
 10
4164.359716040831
 20
6602.552177407552
 30
0.0
 11
4044.359716040837
 21
6602.552177407552
 31
0.0
  0
LINE
  5
2A7EF
330
747D
100
AcDbEntity
  8
センター
 48
2.0
100
AcDbLine
 10
4167.359716040832
 20
7084.552183902539
 30
0.0
 11
4167.359716040832
 21
6984.55218390254
 31
0.0
  0
CIRCLE
  5
2A7F0
330
747D
100
AcDbEntity
  8
部品1
 48
50.0
100
AcDbCircle
 10
4167.359716040832
 20
7034.55218390254
 30
0.0
 40
35.0
  0
LINE
  5
2A7F1
330
747D
100
AcDbEntity
  8
センター
 48
2.0
100
AcDbLine
 10
4117.359716040832
 20
7034.55218390254
 30
0.0
 11
4217.359716040832
 21
7034.55218390254
 31
0.0
  0
LINE
  5
2A7F2
330
747D
100
AcDbEntity
  8
細線
 48
50.0
100
AcDbLine
 10
4424.359716040837
 20
7139.378546986818
 30
0.0
 11
4442.533346461654
 21
7157.552177407635
 31
0.0
  0
LINE
  5
2A7F3
330
747D
100
AcDbEntity
  8
部品1
 48
50.0
100
AcDbLine
 10
4624.359716040837
 20
7157.552177407634
 30
0.0
 11
4624.359716040845
 21
6957.552183902541
 31
0.0
  0
LINE
  5
2A7F4
330
747D
100
AcDbEntity
  8
細線
 48
50.0
100
AcDbLine
 10
4601.743597799312
 20
6957.552183902539
 30
0.0
 11
4624.359716040842
 21
6980.168302144068
 31
0.0
  0
LINE
  5
2A7F5
330
747D
100
AcDbEntity
  8
細線
 48
50.0
100
AcDbLine
 10
4556.842317193968
 20
6957.552183902539
 30
0.0
 11
4624.359716040842
 21
7025.069582749409
 31
0.0
  0
LINE
  5
2A7F6
330
747D
100
AcDbEntity
  8
細線
 48
50.0
100
AcDbLine
 10
4511.941036588636
 20
6957.552183902542
 30
0.0
 11
4624.359716040837
 21
7069.970863354743
 31
0.0
  0
LINE
  5
2A7F7
330
747D
100
AcDbEntity
  8
細線
 48
50.0
100
AcDbLine
 10
4467.039755983283
 20
6957.552183902539
 30
0.0
 11
4624.359716040837
 21
7114.872143960089
 31
0.0
  0
LINE
  5
2A7F8
330
747D
100
AcDbEntity
  8
部品1
 48
50.0
100
AcDbLine
 10
5099.359716040839
 20
6577.552183902539
 30
0.0
 11
4899.359716040839
 21
6577.552183902539
 31
0.0
  0
LINE
  5
2A7F9
330
747D
100
AcDbEntity
  8
部品1
 48
50.0
100
AcDbLine
 10
5099.359716040839
 20
6777.552183902539
 30
0.0
 11
4899.359716040839
 21
6777.552183902539
 31
0.0
  0
LINE
  5
2A7FA
330
747D
100
AcDbEntity
  8
センター
 48
2.0
100
AcDbLine
 10
4999.359716040839
 20
6727.552183902538
 30
0.0
 11
4999.359716040839
 21
6627.552183902539
 31
0.0
  0
LINE
  5
2A7FB
330
747D
100
AcDbEntity
  8
部品1
 48
50.0
100
AcDbLine
 10
4899.359716040839
 20
6577.552183902539
 30
0.0
 11
4899.359716040839
 21
6777.552183902539
 31
0.0
  0
LINE
  5
2A7FC
330
747D
100
AcDbEntity
  8
センター
 48
2.0
100
AcDbLine
 10
4949.359716040839
 20
6677.552183902538
 30
0.0
 11
5049.359716040839
 21
6677.552183902538
 31
0.0
  0
LINE
  5
2A7FD
330
747D
100
AcDbEntity
  8
部品1
 48
50.0
100
AcDbLine
 10
5099.359716040839
 20
6577.552183902539
 30
0.0
 11
5099.359716040839
 21
6777.552183902539
 31
0.0
  0
LINE
  5
2A7FE
330
747D
100
AcDbEntity
  8
寸法
 48
50.0
100
AcDbLine
 10
6781.359716040832
 20
7883.818641996334
 30
0.0
 11
7481.404270862902
 21
7883.818641996334
 31
0.0
  0
LINE
  5
2A7FF
330
747D
100
AcDbEntity
  8
センター
 48
2.0
100
AcDbLine
 10
6849.359716040838
 20
6677.552183902538
 30
0.0
 11
6949.359716040838
 21
6677.552183902538
 31
0.0
  0
DIMENSION
  5
2A800
330
747D
100
AcDbEntity
  8
寸法
 48
50.0
100
AcDbDimension
  2
*D31
 10
5949.359716040839
 20
7640.161000572788
 30
0.0
 11
6424.359716040838
 21
7740.161000572787
 31
0.0
 70
    32
 71
     5
 42
950.0
  3
INABA_S40G
100
AcDbAlignedDimension
 13
6899.359716040838
 23
6727.552183902538
 33
0.0
 14
5949.359716040839
 24
6727.552183902538
 34
0.0
100
AcDbRotatedDimension
1001
ACAD
1000
DSTYLE
1002
{
1070
   341
1005
0
1002
}
  0
LINE
  5
2A801
330
747D
100
AcDbEntity
  8
部品1
 48
50.0
100
AcDbLine
 10
6999.359716040839
 20
6777.552183902539
 30
0.0
 11
6799.359716040838
 21
6777.552183902539
 31
0.0
  0
LINE
  5
2A802
330
747D
100
AcDbEntity
  8
部品1
 48
50.0
100
AcDbLine
 10
6999.359716040839
 20
6577.552183902539
 30
0.0
 11
6799.359716040838
 21
6577.552183902539
 31
0.0
  0
DIMENSION
  5
2A803
330
747D
100
AcDbEntity
  8
寸法
 48
50.0
100
AcDbDimension
  2
*D32
 10
6899.359716040838
 20
7640.161000572788
 30
0.0
 11
7374.359716040839
 21
7740.161000572787
 31
0.0
 70
    32
 71
     5
 42
950.0
  3
INABA_S40G
100
AcDbAlignedDimension
 13
7849.359716040838
 23
6727.552183902538
 33
0.0
 14
6899.359716040838
 24
6727.552183902538
 34
0.0
100
AcDbRotatedDimension
1001
ACAD
1000
DSTYLE
1002
{
1070
   341
1005
0
1002
}
  0
LINE
  5
2A804
330
747D
100
AcDbEntity
  8
細線
 48
50.0
100
AcDbLine
 10
5374.359716040845
 20
6959.773424565439
 30
0.0
 11
5572.138468883033
 21
7157.552177407629
 31
0.0
  0
LINE
  5
2A805
330
747D
100
AcDbEntity
  8
細線
 48
50.0
100
AcDbLine
 10
5374.359716040842
 20
7004.674705170782
 30
0.0
 11
5527.237188277689
 21
7157.552177407632
 31
0.0
  0
LINE
  5
2A806
330
747D
100
AcDbEntity
  8
細線
 48
50.0
100
AcDbLine
 10
5374.359716040842
 20
7049.575985776129
 30
0.0
 11
5482.335907672345
 21
7157.552177407632
 31
0.0
  0
LINE
  5
2A807
330
747D
100
AcDbEntity
  8
細線
 48
50.0
100
AcDbLine
 10
5374.359716040839
 20
7094.477266381471
 30
0.0
 11
5437.434627066999
 21
7157.552177407632
 31
0.0
  0
LINE
  5
2A808
330
747D
100
AcDbEntity
  8
部品1
 48
50.0
100
AcDbLine
 10
5374.359716040837
 20
7157.552177407632
 30
0.0
 11
5374.359716040846
 21
6957.552183902541
 31
0.0
  0
LINE
  5
2A809
330
747D
100
AcDbEntity
  8
部品1
 48
50.0
100
AcDbLine
 10
5574.359716040837
 20
7157.552177407632
 30
0.0
 11
5574.359716040846
 21
6957.552183902539
 31
0.0
  0
LINE
  5
2A80A
330
747D
100
AcDbEntity
  8
細線
 48
50.0
100
AcDbLine
 10
5461.941036588652
 20
6957.552183902541
 30
0.0
 11
5574.359716040839
 21
7069.970863354743
 31
0.0
  0
LINE
  5
2A80B
330
747D
100
AcDbEntity
  8
細線
 48
50.0
100
AcDbLine
 10
5417.039755983289
 20
6957.552183902539
 30
0.0
 11
5574.359716040837
 21
7114.872143960086
 31
0.0
  0
LINE
  5
2A80C
330
747D
100
AcDbEntity
  8
細線
 48
50.0
100
AcDbLine
 10
5551.74359779933
 20
6957.552183902539
 30
0.0
 11
5574.359716040845
 21
6980.168302144058
 31
0.0
  0
LINE
  5
2A80D
330
747D
100
AcDbEntity
  8
細線
 48
50.0
100
AcDbLine
 10
5506.842317193972
 20
6957.552183902539
 30
0.0
 11
5574.359716040842
 21
7025.069582749409
 31
0.0
  0
LINE
  5
2A80E
330
747D
100
AcDbEntity
  8
部品1
 48
50.0
100
AcDbLine
 10
6049.359716040839
 20
6777.552183902539
 30
0.0
 11
5849.359716040839
 21
6777.552183902539
 31
0.0
  0
LINE
  5
2A80F
330
747D
100
AcDbEntity
  8
部品1
 48
50.0
100
AcDbLine
 10
6049.359716040839
 20
6577.552183902539
 30
0.0
 11
5849.359716040839
 21
6577.552183902539
 31
0.0
  0
LINE
  5
2A810
330
747D
100
AcDbEntity
  8
部品1
 48
50.0
100
AcDbLine
 10
5849.359716040839
 20
6577.552183902539
 30
0.0
 11
5849.359716040839
 21
6777.552183902539
 31
0.0
  0
LINE
  5
2A811
330
747D
100
AcDbEntity
  8
センター
 48
2.0
100
AcDbLine
 10
5899.359716040839
 20
6677.552183902538
 30
0.0
 11
5999.359716040839
 21
6677.552183902538
 31
0.0
  0
LINE
  5
2A812
330
747D
100
AcDbEntity
  8
センター
 48
2.0
100
AcDbLine
 10
5949.359716040839
 20
6727.552183902538
 30
0.0
 11
5949.359716040839
 21
6627.552183902539
 31
0.0
  0
LINE
  5
2A813
330
747D
100
AcDbEntity
  8
部品1
 48
50.0
100
AcDbLine
 10
6049.359716040839
 20
6577.552183902539
 30
0.0
 11
6049.359716040839
 21
6777.552183902539
 31
0.0
  0
LINE
  5
2A814
330
747D
100
AcDbEntity
  8
細線
 48
50.0
100
AcDbLine
 10
5374.359716040837
 20
7139.378546986818
 30
0.0
 11
5392.533346461654
 21
7157.552177407632
 31
0.0
  0
LINE
  5
2A815
330
747D
100
AcDbEntity
  8
細線
 48
50.0
100
AcDbLine
 10
6324.359716040846
 20
6959.773424565438
 30
0.0
 11
6522.138468883037
 21
7157.552177407629
 31
0.0
  0
LINE
  5
2A816
330
747D
100
AcDbEntity
  8
細線
 48
50.0
100
AcDbLine
 10
6324.359716040842
 20
7004.674705170782
 30
0.0
 11
6477.23718827769
 21
7157.552177407632
 31
0.0
  0
LINE
  5
2A817
330
747D
100
AcDbEntity
  8
細線
 48
50.0
100
AcDbLine
 10
6324.359716040841
 20
7049.575985776126
 30
0.0
 11
6432.335907672345
 21
7157.552177407629
 31
0.0
  0
LINE
  5
2A818
330
747D
100
AcDbEntity
  8
細線
 48
50.0
100
AcDbLine
 10
6324.359716040839
 20
7094.477266381469
 30
0.0
 11
6387.434627066999
 21
7157.552177407632
 31
0.0
  0
LINE
  5
2A819
330
747D
100
AcDbEntity
  8
部品1
 48
50.0
100
AcDbLine
 10
6324.359716040837
 20
7157.552177407629
 30
0.0
 11
6324.359716040845
 21
6957.552183902539
 31
0.0
  0
LINE
  5
2A81A
330
747D
100
AcDbEntity
  8
部品1
 48
50.0
100
AcDbLine
 10
6524.359716040837
 20
7157.552177407629
 30
0.0
 11
6524.359716040844
 21
6957.552183902539
 31
0.0
  0
LINE
  5
2A81C
330
747D
100
AcDbEntity
  8
細線
 48
50.0
100
AcDbLine
 10
6456.842317193973
 20
6957.552183902542
 30
0.0
 11
6524.359716040841
 21
7025.069582749406
 31
0.0
  0
LINE
  5
2A81D
330
747D
100
AcDbEntity
  8
細線
 48
50.0
100
AcDbLine
 10
6411.941036588638
 20
6957.552183902541
 30
0.0
 11
6524.359716040837
 21
7069.97086335474
 31
0.0
  0
LINE
  5
2A81E
330
747D
100
AcDbEntity
  8
細線
 48
50.0
100
AcDbLine
 10
6367.039755983285
 20
6957.552183902537
 30
0.0
 11
6524.359716040837
 21
7114.872143960084
 31
0.0
  0
LINE
  5
2A81F
330
747D
100
AcDbEntity
  8
部品1
 48
50.0
100
AcDbLine
 10
6799.359716040838
 20
6577.552183902539
 30
0.0
 11
6799.359716040838
 21
6777.552183902539
 31
0.0
  0
LINE
  5
2A820
330
747D
100
AcDbEntity
  8
センター
 48
2.0
100
AcDbLine
 10
6899.359716040838
 20
6727.552183902538
 30
0.0
 11
6899.359716040838
 21
6627.552183902539
 31
0.0
  0
LINE
  5
2A821
330
747D
100
AcDbEntity
  8
細線
 48
50.0
100
AcDbLine
 10
6501.743597799322
 20
6957.552183902539
 30
0.0
 11
6524.359716040843
 21
6980.168302144062
 31
0.0
  0
LINE
  5
2A822
330
747D
100
AcDbEntity
  8
センター
 48
2.0
100
AcDbLine
 10
6781.359716040832
 20
7084.552183902539
 30
0.0
 11
6781.359716040832
 21
6984.55218390254
 31
0.0
  0
LINE
  5
2A823
330
747D
100
AcDbEntity
  8
センター
 48
2.0
100
AcDbLine
 10
6731.359716040832
 20
7034.55218390254
 30
0.0
 11
6831.359716040832
 21
7034.55218390254
 31
0.0
  0
CIRCLE
  5
2A824
330
747D
100
AcDbEntity
  8
部品1
 48
50.0
100
AcDbCircle
 10
6781.359716040832
 20
7034.55218390254
 30
0.0
 40
35.0
  0
LINE
  5
2A825
330
747D
100
AcDbEntity
  8
細線
 48
50.0
100
AcDbLine
 10
6324.359716040837
 20
7139.378546986815
 30
0.0
 11
6342.533346461654
 21
7157.552177407632
 31
0.0
  0
LINE
  5
2A829
330
747D
100
AcDbEntity
  8
細線
 48
50.0
100
AcDbLine
 10
7274.359716040847
 20
6959.773424565438
 30
0.0
 11
7472.138468883037
 21
7157.552177407629
 31
0.0
  0
LINE
  5
2A82A
330
747D
100
AcDbEntity
  8
細線
 48
50.0
100
AcDbLine
 10
7274.359716040844
 20
7004.674705170782
 30
0.0
 11
7427.237188277692
 21
7157.552177407632
 31
0.0
  0
LINE
  5
2A82B
330
747D
100
AcDbEntity
  8
細線
 48
50.0
100
AcDbLine
 10
7274.359716040844
 20
7049.575985776126
 30
0.0
 11
7382.335907672346
 21
7157.552177407629
 31
0.0
  0
LINE
  5
2A82C
330
747D
100
AcDbEntity
  8
細線
 48
50.0
100
AcDbLine
 10
7274.359716040838
 20
7094.477266381469
 30
0.0
 11
7337.434627067003
 21
7157.552177407632
 31
0.0
  0
LINE
  5
2A82D
330
747D
100
AcDbEntity
  8
部品1
 48
50.0
100
AcDbLine
 10
7474.359716040838
 20
7157.552177407629
 30
0.0
 11
7474.359716040847
 21
6957.552183902539
 31
0.0
  0
LINE
  5
2A82E
330
747D
100
AcDbEntity
  8
部品1
 48
50.0
100
AcDbLine
 10
7274.359716040838
 20
7157.552177407629
 30
0.0
 11
7274.359716040847
 21
6957.552183902539
 31
0.0
  0
LINE
  5
2A82F
330
747D
100
AcDbEntity
  8
部品1
 48
50.0
100
AcDbLine
 10
6999.359716040839
 20
6577.552183902539
 30
0.0
 11
6999.359716040839
 21
6777.552183902539
 31
0.0
  0
LINE
  5
2A830
330
747D
100
AcDbEntity
  8
細線
 48
50.0
100
AcDbLine
 10
7451.743597799325
 20
6957.552183902539
 30
0.0
 11
7474.359716040844
 21
6980.168302144061
 31
0.0
  0
LINE
  5
2A831
330
747D
100
AcDbEntity
  8
細線
 48
50.0
100
AcDbLine
 10
7406.842317193974
 20
6957.552183902542
 30
0.0
 11
7474.359716040843
 21
7025.069582749406
 31
0.0
  0
LINE
  5
2A832
330
747D
100
AcDbEntity
  8
細線
 48
50.0
100
AcDbLine
 10
7361.941036588643
 20
6957.552183902541
 30
0.0
 11
7474.359716040838
 21
7069.97086335474
 31
0.0
  0
LINE
  5
2A833
330
747D
100
AcDbEntity
  8
細線
 48
50.0
100
AcDbLine
 10
7317.039755983287
 20
6957.552183902537
 30
0.0
 11
7474.359716040838
 21
7114.872143960084
 31
0.0
  0
LINE
  5
2A834
330
747D
100
AcDbEntity
  8
細線
 48
50.0
100
AcDbLine
 10
7274.359716040838
 20
7139.378546986815
 30
0.0
 11
7292.533346461656
 21
7157.552177407632
 31
0.0
  0
LINE
  5
2A838
102
{ACAD_REACTORS
330
2B7F7
102
}
330
747D
100
AcDbEntity
  8
部品1
 48
50.0
100
AcDbLine
 10
8424.359716040838
 20
7157.552177407628
 30
0.0
 11
8424.359716040846
 21
6957.552183902535
 31
0.0
  0
LINE
  5
2A839
102
{ACAD_REACTORS
330
2B7F7
102
}
330
747D
100
AcDbEntity
  8
部品1
 48
50.0
100
AcDbLine
 10
8224.359716040838
 20
7157.552177407628
 30
0.0
 11
8224.359716040847
 21
6957.552183902539
 31
0.0
  0
LINE
  5
2A83E
330
747D
100
AcDbEntity
  8
部品1
 48
50.0
100
AcDbLine
 10
7949.359716040838
 20
6777.552183902539
 30
0.0
 11
7749.359716040839
 21
6777.552183902539
 31
0.0
  0
LINE
  5
2A83F
330
747D
100
AcDbEntity
  8
部品1
 48
50.0
100
AcDbLine
 10
7949.359716040838
 20
6577.552183902539
 30
0.0
 11
7749.359716040839
 21
6577.552183902539
 31
0.0
  0
LINE
  5
2A840
330
747D
100
AcDbEntity
  8
センター
 48
2.0
100
AcDbLine
 10
7799.359716040838
 20
6677.552183902538
 30
0.0
 11
7899.359716040838
 21
6677.552183902538
 31
0.0
  0
LINE
  5
2A841
330
747D
100
AcDbEntity
  8
センター
 48
2.0
100
AcDbLine
 10
7849.359716040838
 20
6727.552183902538
 30
0.0
 11
7849.359716040838
 21
6627.552183902539
 31
0.0
  0
LINE
  5
2A842
330
747D
100
AcDbEntity
  8
部品1
 48
50.0
100
AcDbLine
 10
7749.359716040839
 20
6577.552183902539
 30
0.0
 11
7749.359716040839
 21
6777.552183902539
 31
0.0
  0
LINE
  5
2A843
330
747D
100
AcDbEntity
  8
部品1
 48
50.0
100
AcDbLine
 10
7949.359716040838
 20
6577.552183902539
 30
0.0
 11
7949.359716040838
 21
6777.552183902539
 31
0.0
  0
LINE
  5
2A850
330
747D
100
AcDbEntity
  8
寸法
 48
50.0
100
AcDbLine
 10
7849.359716040838
 20
7640.161000572671
 30
0.0
 11
8129.359716040839
 21
7640.161000572671
 31
0.0
  0
LINE
  5
2A856
330
747D
100
AcDbEntity
  8
部品1
 48
50.0
100
AcDbLine
 10
12604.35971604083
 20
6197.552183902557
 30
0.0
 11
12604.35971604083
 21
7157.552183902538
 31
0.0
  0
LINE
  5
2A85F
330
747D
100
AcDbEntity
  8
細線
 48
50.0
100
AcDbLine
 10
9355.065361595299
 20
6197.552177407636
 30
0.0
 11
9374.359716040842
 21
6216.846531853176
 31
0.0
  0
LINE
  5
2A860
330
747D
100
AcDbEntity
  8
細線
 48
50.0
100
AcDbLine
 10
9310.164080989954
 20
6197.552177407631
 30
0.0
 11
9374.359716040842
 21
6261.747812458519
 31
0.0
  0
LINE
  5
2A861
330
747D
100
AcDbEntity
  8
細線
 48
50.0
100
AcDbLine
 10
9265.262800384608
 20
6197.552177407631
 30
0.0
 11
9374.359716040839
 21
6306.649093063865
 31
0.0
  0
LINE
  5
2A862
330
747D
100
AcDbEntity
  8
細線
 48
50.0
100
AcDbLine
 10
9220.36151977926
 20
6197.552177407631
 30
0.0
 11
9374.359716040835
 21
6351.550373669206
 31
0.0
  0
LINE
  5
2A863
330
747D
100
AcDbEntity
  8
細線
 48
50.0
100
AcDbLine
 10
9175.460239173915
 20
6197.552177407631
 30
0.0
 11
9374.359716040833
 21
6396.451654274549
 31
0.0
  0
LINE
  5
2A864
330
747D
100
AcDbEntity
  8
細線
 48
50.0
100
AcDbLine
 10
9174.359716040843
 20
6241.352934879905
 30
0.0
 11
9374.35971604083
 21
6441.352934879893
 31
0.0
  0
LINE
  5
2A865
330
747D
100
AcDbEntity
  8
部品1
 48
50.0
100
AcDbLine
 10
9174.359716040831
 20
6477.552183902557
 30
0.0
 11
9174.359716040845
 21
6197.552177407629
 31
0.0
  0
LINE
  5
2A866
330
747D
100
AcDbEntity
  8
細線
 48
50.0
100
AcDbLine
 10
9174.359716040838
 20
6420.958057301277
 30
0.0
 11
9230.953842642122
 21
6477.552183902557
 31
0.0
  0
LINE
  5
2A867
330
747D
100
AcDbEntity
  8
細線
 48
50.0
100
AcDbLine
 10
9174.359716040841
 20
6376.056776695937
 30
0.0
 11
9275.855123247458
 21
6477.552183902557
 31
0.0
  0
LINE
  5
2A868
330
747D
100
AcDbEntity
  8
細線
 48
50.0
100
AcDbLine
 10
9174.359716040838
 20
6286.254215485246
 30
0.0
 11
9365.657684458151
 21
6477.552183902557
 31
0.0
  0
LINE
  5
2A869
330
747D
100
AcDbEntity
  8
細線
 48
50.0
100
AcDbLine
 10
9174.359716040838
 20
6331.155496090591
 30
0.0
 11
9320.756403852803
 21
6477.552183902557
 31
0.0
  0
LINE
  5
2A86A
330
747D
100
AcDbEntity
  8
部品1
 48
50.0
100
AcDbLine
 10
9374.359716040832
 20
6477.552183902557
 30
0.0
 11
9374.359716040844
 21
6197.552177407633
 31
0.0
  0
LINE
  5
2A86B
330
747D
100
AcDbEntity
  8
センター
 48
2.0
100
AcDbLine
 10
9581.359716040839
 20
6395.552183902542
 30
0.0
 11
9681.359716040839
 21
6395.552183902542
 31
0.0
  0
CIRCLE
  5
2A86C
330
747D
100
AcDbEntity
  8
部品1
 48
50.0
100
AcDbCircle
 10
9631.35971604084
 20
6395.552183902542
 30
0.0
 40
35.0
  0
LINE
  5
2A86D
330
747D
100
AcDbEntity
  8
センター
 48
2.0
100
AcDbLine
 10
9631.35971604084
 20
6445.552183902542
 30
0.0
 11
9631.35971604084
 21
6345.552183902542
 31
0.0
  0
LINE
  5
2A86E
330
747D
100
AcDbEntity
  8
センター
 48
2.0
100
AcDbLine
 10
9581.359716040839
 20
6395.552183902542
 30
0.0
 11
9681.359716040839
 21
6395.552183902542
 31
0.0
  0
CIRCLE
  5
2A86F
330
747D
100
AcDbEntity
  8
部品1
 48
50.0
100
AcDbCircle
 10
9631.35971604084
 20
6395.552183902542
 30
0.0
 40
35.0
  0
LINE
  5
2A870
330
747D
100
AcDbEntity
  8
センター
 48
2.0
100
AcDbLine
 10
9631.35971604084
 20
6445.552183902542
 30
0.0
 11
9631.35971604084
 21
6345.552183902542
 31
0.0
  0
LINE
  5
2A893
330
747D
100
AcDbEntity
  8
センター
 48
2.0
100
AcDbLine
 10
12431.35971604084
 20
6395.552183902542
 30
0.0
 11
12531.35971604084
 21
6395.552183902542
 31
0.0
  0
LINE
  5
2A894
330
747D
100
AcDbEntity
  8
センター
 48
2.0
100
AcDbLine
 10
12481.35971604084
 20
6445.552183902542
 30
0.0
 11
12481.35971604084
 21
6345.552183902542
 31
0.0
  0
CIRCLE
  5
2A895
330
747D
100
AcDbEntity
  8
部品1
 48
50.0
100
AcDbCircle
 10
12481.35971604084
 20
6395.552183902542
 30
0.0
 40
35.0
  0
DIMENSION
  5
2A896
330
747D
100
AcDbEntity
  8
寸法
 48
50.0
100
AcDbDimension
  2
*D33
 10
11649.35971604084
 20
7640.161000572788
 30
0.0
 11
12126.85971604083
 21
7740.161000572787
 31
0.0
 70
    32
 71
     5
 42
954.9999999999927
  3
INABA_S40G
100
AcDbAlignedDimension
 13
12604.35971604083
 23
7157.552183902538
 33
0.0
 14
11649.35971604084
 24
6727.552183902538
 34
0.0
100
AcDbRotatedDimension
1001
ACAD
1000
DSTYLE
1002
{
1070
   341
1005
0
1002
}
  0
DIMENSION
  5
2A897
330
747D
100
AcDbEntity
  8
寸法
 48
50.0
100
AcDbDimension
  2
*D34
 10
9631.359716040833
 20
7883.81864199645
 30
0.0
 11
11056.35971604083
 21
7983.830453020072
 31
0.0
 70
    32
 71
     5
 42
2850.0
  3
INABA_S40G
100
AcDbAlignedDimension
 13
12481.35971604083
 23
7084.552183902539
 33
0.0
 14
9631.359716040833
 24
7084.552183902539
 34
0.0
100
AcDbRotatedDimension
1001
ACAD
1000
DSTYLE
1002
{
1070
   341
1005
0
1002
}
  0
LINE
  5
2A898
330
747D
100
AcDbEntity
  8
細線
 48
50.0
100
AcDbLine
 10
10167.03975598329
 20
6957.552183902537
 30
0.0
 11
10324.35971604084
 21
7114.872143960083
 31
0.0
  0
LINE
  5
2A899
330
747D
100
AcDbEntity
  8
細線
 48
50.0
100
AcDbLine
 10
10124.35971604084
 20
6959.773424565439
 30
0.0
 11
10322.13846888303
 21
7157.552177407628
 31
0.0
  0
LINE
  5
2A89A
330
747D
100
AcDbEntity
  8
細線
 48
50.0
100
AcDbLine
 10
10124.35971604084
 20
7004.674705170781
 30
0.0
 11
10277.23718827769
 21
7157.552177407628
 31
0.0
  0
LINE
  5
2A89B
330
747D
100
AcDbEntity
  8
細線
 48
50.0
100
AcDbLine
 10
10124.35971604084
 20
7049.575985776124
 30
0.0
 11
10232.33590767234
 21
7157.552177407628
 31
0.0
  0
LINE
  5
2A89C
330
747D
100
AcDbEntity
  8
細線
 48
50.0
100
AcDbLine
 10
10124.35971604084
 20
7094.477266381467
 30
0.0
 11
10187.434627067
 21
7157.552177407628
 31
0.0
  0
DIMENSION
  5
2A89D
330
747D
100
AcDbEntity
  8
寸法
 48
50.0
100
AcDbDimension
  2
*D35
 10
9749.35971604084
 20
7640.161000572788
 30
0.0
 11
10224.35971604084
 21
7640.161000572788
 31
0.0
 70
   160
 71
     5
 42
950.0
  3
INABA_S40G
100
AcDbAlignedDimension
 13
10699.35971604084
 23
6727.552183902538
 33
0.0
 14
9749.35971604084
 24
6727.552183902538
 34
0.0
100
AcDbRotatedDimension
1001
ACAD
1000
DSTYLE
1002
{
1070
   341
1005
0
1002
}
  0
DIMENSION
  5
2A89E
330
747D
100
AcDbEntity
  8
寸法
 48
50.0
100
AcDbDimension
  2
*D36
 10
8799.359716040838
 20
7640.161000572788
 30
0.0
 11
9274.359716040839
 21
7740.161000572787
 31
0.0
 70
    32
 71
     5
 42
950.0
  3
INABA_S40G
100
AcDbAlignedDimension
 13
9749.35971604084
 23
6727.552183902538
 33
0.0
 14
8799.359716040838
 24
6727.552183902538
 34
0.0
100
AcDbRotatedDimension
1001
ACAD
1000
DSTYLE
1002
{
1070
   341
1005
0
1002
}
  0
LINE
  5
2A89F
330
747D
100
AcDbEntity
  8
細線
 48
50.0
100
AcDbLine
 10
9351.743597799309
 20
6957.552183902537
 30
0.0
 11
9374.359716040842
 21
6980.168302144067
 31
0.0
  0
LINE
  5
2A8A0
330
747D
100
AcDbEntity
  8
細線
 48
50.0
100
AcDbLine
 10
9306.842317193968
 20
6957.552183902535
 30
0.0
 11
9374.359716040842
 21
7025.069582749407
 31
0.0
  0
LINE
  5
2A8A1
330
747D
100
AcDbEntity
  8
細線
 48
50.0
100
AcDbLine
 10
9261.94103658862
 20
6957.552183902535
 30
0.0
 11
9374.359716040839
 21
7069.97086335474
 31
0.0
  0
LINE
  5
2A8A2
330
747D
100
AcDbEntity
  8
細線
 48
50.0
100
AcDbLine
 10
9217.039755983284
 20
6957.552183902535
 30
0.0
 11
9374.359716040837
 21
7114.872143960084
 31
0.0
  0
LINE
  5
2A8A3
330
747D
100
AcDbEntity
  8
細線
 48
50.0
100
AcDbLine
 10
9174.359716040846
 20
6959.773424565439
 30
0.0
 11
9372.138468883033
 21
7157.552177407628
 31
0.0
  0
LINE
  5
2A8A4
330
747D
100
AcDbEntity
  8
細線
 48
50.0
100
AcDbLine
 10
9174.359716040841
 20
7004.674705170784
 30
0.0
 11
9327.23718827769
 21
7157.552177407628
 31
0.0
  0
LINE
  5
2A8A5
330
747D
100
AcDbEntity
  8
細線
 48
50.0
100
AcDbLine
 10
9174.359716040841
 20
7049.575985776126
 30
0.0
 11
9282.335907672344
 21
7157.552177407628
 31
0.0
  0
LINE
  5
2A8A6
330
747D
100
AcDbEntity
  8
細線
 48
50.0
100
AcDbLine
 10
9174.359716040838
 20
7094.477266381469
 30
0.0
 11
9237.434627066999
 21
7157.552177407629
 31
0.0
  0
LINE
  5
2A8A7
330
747D
100
AcDbEntity
  8
部品1
 48
50.0
100
AcDbLine
 10
9174.359716040838
 20
7157.552177407629
 30
0.0
 11
9174.359716040846
 21
6957.552183902535
 31
0.0
  0
LINE
  5
2A8A8
330
747D
100
AcDbEntity
  8
センター
 48
2.0
100
AcDbLine
 10
8749.359716040839
 20
6677.552183902538
 30
0.0
 11
8849.359716040838
 21
6677.552183902538
 31
0.0
  0
LINE
  5
2A8A9
330
747D
100
AcDbEntity
  8
部品1
 48
50.0
100
AcDbLine
 10
8899.359716040839
 20
6777.552183902539
 30
0.0
 11
8699.359716040838
 21
6777.552183902539
 31
0.0
  0
LINE
  5
2A8AA
330
747D
100
AcDbEntity
  8
部品1
 48
50.0
100
AcDbLine
 10
8899.359716040839
 20
6577.552183902539
 30
0.0
 11
8699.359716040838
 21
6577.552183902539
 31
0.0
  0
LINE
  5
2A8AB
330
747D
100
AcDbEntity
  8
部品1
 48
50.0
100
AcDbLine
 10
8699.359716040838
 20
6577.552183902539
 30
0.0
 11
8699.359716040838
 21
6777.552183902539
 31
0.0
  0
LINE
  5
2A8AC
330
747D
100
AcDbEntity
  8
部品1
 48
50.0
100
AcDbLine
 10
8899.359716040839
 20
6577.552183902539
 30
0.0
 11
8899.359716040839
 21
6777.552183902539
 31
0.0
  0
LINE
  5
2A8AD
330
747D
100
AcDbEntity
  8
センター
 48
2.0
100
AcDbLine
 10
8799.359716040838
 20
6727.552183902538
 30
0.0
 11
8799.359716040838
 21
6627.552183902539
 31
0.0
  0
LINE
  5
2A8AE
330
747D
100
AcDbEntity
  8
細線
 48
50.0
100
AcDbLine
 10
9174.359716040838
 20
7139.378546986815
 30
0.0
 11
9192.533346461653
 21
7157.552177407632
 31
0.0
  0
LINE
  5
2A8AF
330
747D
100
AcDbEntity
  8
部品1
 48
50.0
100
AcDbLine
 10
10124.35971604084
 20
7157.552177407628
 30
0.0
 11
10124.35971604084
 21
6957.552183902537
 31
0.0
  0
LINE
  5
2A8B0
330
747D
100
AcDbEntity
  8
部品1
 48
50.0
100
AcDbLine
 10
9374.359716040837
 20
7157.552177407629
 30
0.0
 11
9374.359716040848
 21
6957.552183902535
 31
0.0
  0
LINE
  5
2A8B1
330
747D
100
AcDbEntity
  8
センター
 48
2.0
100
AcDbLine
 10
9699.35971604084
 20
6677.552183902538
 30
0.0
 11
9799.359716040839
 21
6677.552183902538
 31
0.0
  0
LINE
  5
2A8B2
330
747D
100
AcDbEntity
  8
部品1
 48
50.0
100
AcDbLine
 10
9849.35971604084
 20
6577.552183902539
 30
0.0
 11
9649.359716040841
 21
6577.552183902539
 31
0.0
  0
LINE
  5
2A8B3
330
747D
100
AcDbEntity
  8
部品1
 48
50.0
100
AcDbLine
 10
9849.35971604084
 20
6777.552183902539
 30
0.0
 11
9649.359716040841
 21
6777.552183902539
 31
0.0
  0
LINE
  5
2A8B4
330
747D
100
AcDbEntity
  8
センター
 48
2.0
100
AcDbLine
 10
9749.35971604084
 20
6727.552183902538
 30
0.0
 11
9749.35971604084
 21
6627.552183902539
 31
0.0
  0
LINE
  5
2A8B5
330
747D
100
AcDbEntity
  8
部品1
 48
50.0
100
AcDbLine
 10
9649.359716040841
 20
6577.552183902539
 30
0.0
 11
9649.359716040841
 21
6777.552183902539
 31
0.0
  0
CIRCLE
  5
2A8B6
330
747D
100
AcDbEntity
  8
部品1
 48
50.0
100
AcDbCircle
 10
9631.359716040833
 20
7034.55218390254
 30
0.0
 40
35.0
  0
LINE
  5
2A8B7
330
747D
100
AcDbEntity
  8
センター
 48
2.0
100
AcDbLine
 10
9581.359716040832
 20
7034.55218390254
 30
0.0
 11
9681.359716040832
 21
7034.55218390254
 31
0.0
  0
LINE
  5
2A8B8
330
747D
100
AcDbEntity
  8
センター
 48
2.0
100
AcDbLine
 10
9631.359716040833
 20
7084.552183902539
 30
0.0
 11
9631.359716040833
 21
6984.55218390254
 31
0.0
  0
CIRCLE
  5
2A8B9
330
747D
100
AcDbEntity
  8
部品1
 48
50.0
100
AcDbCircle
 10
9631.359716040833
 20
7034.55218390254
 30
0.0
 40
35.0
  0
LINE
  5
2A8BA
330
747D
100
AcDbEntity
  8
センター
 48
2.0
100
AcDbLine
 10
9631.359716040833
 20
7084.552183902539
 30
0.0
 11
9631.359716040833
 21
6984.55218390254
 31
0.0
  0
LINE
  5
2A8BB
330
747D
100
AcDbEntity
  8
センター
 48
2.0
100
AcDbLine
 10
9581.359716040832
 20
7034.55218390254
 30
0.0
 11
9681.359716040832
 21
7034.55218390254
 31
0.0
  0
LINE
  5
2A8BC
330
747D
100
AcDbEntity
  8
部品1
 48
50.0
100
AcDbLine
 10
9849.35971604084
 20
6577.552183902539
 30
0.0
 11
9849.35971604084
 21
6777.552183902539
 31
0.0
  0
LINE
  5
2A8BD
330
747D
100
AcDbEntity
  8
細線
 48
50.0
100
AcDbLine
 10
10124.35971604084
 20
7139.378546986815
 30
0.0
 11
10142.53334646165
 21
7157.552177407628
 31
0.0
  0
LINE
  5
2A8BE
330
747D
100
AcDbEntity
  8
寸法
 48
50.0
100
AcDbLine
 10
8931.31516121876
 20
7883.81864199645
 30
0.0
 11
9631.359716040833
 21
7883.81864199645
 31
0.0
  0
DIMENSION
  5
2A8C0
330
747D
100
AcDbEntity
  8
寸法
 48
50.0
100
AcDbDimension
  2
*D37
 10
10699.35971604084
 20
7640.161000572788
 30
0.0
 11
11174.35971604084
 21
7740.161000572787
 31
0.0
 70
    32
 71
     5
 42
950.0
  3
INABA_S40G
100
AcDbAlignedDimension
 13
11649.35971604084
 23
6727.552183902538
 33
0.0
 14
10699.35971604084
 24
6727.552183902538
 34
0.0
100
AcDbRotatedDimension
1001
ACAD
1000
DSTYLE
1002
{
1070
   341
1005
0
1002
}
  0
LINE
  5
2A8C1
330
747D
100
AcDbEntity
  8
部品1
 48
50.0
100
AcDbLine
 10
10324.35971604084
 20
7157.552177407628
 30
0.0
 11
10324.35971604084
 21
6957.552183902537
 31
0.0
  0
LINE
  5
2A8C2
330
747D
100
AcDbEntity
  8
細線
 48
50.0
100
AcDbLine
 10
10301.74359779933
 20
6957.552183902537
 30
0.0
 11
10324.35971604084
 21
6980.168302144057
 31
0.0
  0
LINE
  5
2A8C3
330
747D
100
AcDbEntity
  8
細線
 48
50.0
100
AcDbLine
 10
10256.84231719397
 20
6957.552183902539
 30
0.0
 11
10324.35971604084
 21
7025.069582749407
 31
0.0
  0
LINE
  5
2A8C4
330
747D
100
AcDbEntity
  8
細線
 48
50.0
100
AcDbLine
 10
10211.94103658865
 20
6957.552183902535
 30
0.0
 11
10324.35971604084
 21
7069.97086335474
 31
0.0
  0
LINE
  5
2A8C5
330
747D
100
AcDbEntity
  8
部品1
 48
50.0
100
AcDbLine
 10
10799.35971604084
 20
6577.552183902539
 30
0.0
 11
10799.35971604084
 21
6777.552183902539
 31
0.0
  0
LINE
  5
2A8C6
330
747D
100
AcDbEntity
  8
部品1
 48
50.0
100
AcDbLine
 10
10599.35971604084
 20
6577.552183902539
 30
0.0
 11
10599.35971604084
 21
6777.552183902539
 31
0.0
  0
LINE
  5
2A8C7
330
747D
100
AcDbEntity
  8
センター
 48
2.0
100
AcDbLine
 10
10699.35971604084
 20
6727.552183902538
 30
0.0
 11
10699.35971604084
 21
6627.552183902539
 31
0.0
  0
LINE
  5
2A8C8
330
747D
100
AcDbEntity
  8
部品1
 48
50.0
100
AcDbLine
 10
10799.35971604084
 20
6777.552183902539
 30
0.0
 11
10599.35971604084
 21
6777.552183902539
 31
0.0
  0
LINE
  5
2A8C9
330
747D
100
AcDbEntity
  8
部品1
 48
50.0
100
AcDbLine
 10
10799.35971604084
 20
6577.552183902539
 30
0.0
 11
10599.35971604084
 21
6577.552183902539
 31
0.0
  0
LINE
  5
2A8CA
330
747D
100
AcDbEntity
  8
センター
 48
2.0
100
AcDbLine
 10
10649.35971604084
 20
6677.552183902538
 30
0.0
 11
10749.35971604084
 21
6677.552183902538
 31
0.0
  0
LINE
  5
2A8CB
330
747D
100
AcDbEntity
  8
細線
 48
50.0
100
AcDbLine
 10
11074.35971604085
 20
6959.773424565435
 30
0.0
 11
11272.13846888303
 21
7157.552177407628
 31
0.0
  0
LINE
  5
2A8CC
330
747D
100
AcDbEntity
  8
細線
 48
50.0
100
AcDbLine
 10
11074.35971604084
 20
7004.67470517078
 30
0.0
 11
11227.23718827769
 21
7157.552177407628
 31
0.0
  0
LINE
  5
2A8CD
330
747D
100
AcDbEntity
  8
細線
 48
50.0
100
AcDbLine
 10
11074.35971604084
 20
7049.575985776124
 30
0.0
 11
11182.33590767234
 21
7157.552177407628
 31
0.0
  0
LINE
  5
2A8CE
330
747D
100
AcDbEntity
  8
細線
 48
50.0
100
AcDbLine
 10
11074.35971604084
 20
7094.477266381467
 30
0.0
 11
11137.434627067
 21
7157.552177407628
 31
0.0
  0
LINE
  5
2A8CF
330
747D
100
AcDbEntity
  8
部品1
 48
50.0
100
AcDbLine
 10
11274.35971604084
 20
7157.552177407628
 30
0.0
 11
11274.35971604084
 21
6957.552183902537
 31
0.0
  0
LINE
  5
2A8D0
330
747D
100
AcDbEntity
  8
部品1
 48
50.0
100
AcDbLine
 10
11074.35971604084
 20
7157.552177407628
 30
0.0
 11
11074.35971604085
 21
6957.552183902537
 31
0.0
  0
LINE
  5
2A8D1
330
747D
100
AcDbEntity
  8
細線
 48
50.0
100
AcDbLine
 10
11206.84231719398
 20
6957.552183902541
 30
0.0
 11
11274.35971604084
 21
7025.069582749406
 31
0.0
  0
LINE
  5
2A8D2
330
747D
100
AcDbEntity
  8
細線
 48
50.0
100
AcDbLine
 10
11161.94103658865
 20
6957.552183902535
 30
0.0
 11
11274.35971604084
 21
7069.97086335474
 31
0.0
  0
LINE
  5
2A8D3
330
747D
100
AcDbEntity
  8
細線
 48
50.0
100
AcDbLine
 10
11117.03975598329
 20
6957.552183902539
 30
0.0
 11
11274.35971604084
 21
7114.872143960083
 31
0.0
  0
LINE
  5
2A8D4
330
747D
100
AcDbEntity
  8
細線
 48
50.0
100
AcDbLine
 10
11251.74359779933
 20
6957.552183902537
 30
0.0
 11
11274.35971604084
 21
6980.168302144054
 31
0.0
  0
LINE
  5
2A8D5
330
747D
100
AcDbEntity
  8
センター
 48
2.0
100
AcDbLine
 10
11599.35971604084
 20
6677.552183902538
 30
0.0
 11
11699.35971604084
 21
6677.552183902538
 31
0.0
  0
LINE
  5
2A8D6
330
747D
100
AcDbEntity
  8
部品1
 48
50.0
100
AcDbLine
 10
11749.35971604084
 20
6777.552183902539
 30
0.0
 11
11549.35971604084
 21
6777.552183902539
 31
0.0
  0
LINE
  5
2A8D7
330
747D
100
AcDbEntity
  8
部品1
 48
50.0
100
AcDbLine
 10
11749.35971604084
 20
6577.552183902539
 30
0.0
 11
11549.35971604084
 21
6577.552183902539
 31
0.0
  0
LINE
  5
2A8D8
330
747D
100
AcDbEntity
  8
部品1
 48
50.0
100
AcDbLine
 10
11549.35971604084
 20
6577.552183902539
 30
0.0
 11
11549.35971604084
 21
6777.552183902539
 31
0.0
  0
LINE
  5
2A8D9
330
747D
100
AcDbEntity
  8
部品1
 48
50.0
100
AcDbLine
 10
11749.35971604084
 20
6577.552183902539
 30
0.0
 11
11749.35971604084
 21
6777.552183902539
 31
0.0
  0
LINE
  5
2A8DA
330
747D
100
AcDbEntity
  8
センター
 48
2.0
100
AcDbLine
 10
11649.35971604084
 20
6727.552183902538
 30
0.0
 11
11649.35971604084
 21
6627.552183902539
 31
0.0
  0
LINE
  5
2A8DB
330
747D
100
AcDbEntity
  8
細線
 48
50.0
100
AcDbLine
 10
11074.35971604084
 20
7139.378546986815
 30
0.0
 11
11092.53334646165
 21
7157.552177407628
 31
0.0
  0
DIMENSION
  5
2A8DC
330
747D
100
AcDbEntity
  8
寸法
 48
50.0
100
AcDbDimension
  2
*D38
 10
12481.35971604083
 20
7883.81864199645
 30
0.0
 11
12877.46631775863
 21
7883.81864199645
 31
0.0
 70
   160
 71
     5
 42
123.0
  3
INABA_S40G
100
AcDbAlignedDimension
 13
12604.35971604083
 23
7157.552183902538
 33
0.0
 14
12481.35971604083
 24
7084.552183902539
 34
0.0
100
AcDbRotatedDimension
1001
ACAD
1000
DSTYLE
1002
{
1070
   341
1005
0
1002
}
  0
LINE
  5
2A8DF
330
747D
100
AcDbEntity
  8
細線
 48
50.0
100
AcDbLine
 10
12024.35971604085
 20
6959.773424565435
 30
0.0
 11
12222.13846888303
 21
7157.552177407627
 31
0.0
  0
LINE
  5
2A8E0
330
747D
100
AcDbEntity
  8
細線
 48
50.0
100
AcDbLine
 10
12024.35971604084
 20
7004.674705170781
 30
0.0
 11
12177.23718827769
 21
7157.552177407628
 31
0.0
  0
LINE
  5
2A8E1
330
747D
100
AcDbEntity
  8
細線
 48
50.0
100
AcDbLine
 10
12024.35971604084
 20
7049.575985776124
 30
0.0
 11
12132.33590767234
 21
7157.552177407627
 31
0.0
  0
LINE
  5
2A8E2
330
747D
100
AcDbEntity
  8
細線
 48
50.0
100
AcDbLine
 10
12024.35971604084
 20
7094.477266381466
 30
0.0
 11
12087.434627067
 21
7157.552177407627
 31
0.0
  0
LINE
  5
2A8E3
330
747D
100
AcDbEntity
  8
部品1
 48
50.0
100
AcDbLine
 10
12024.35971604084
 20
7157.552177407627
 30
0.0
 11
12024.35971604085
 21
6957.552183902537
 31
0.0
  0
LINE
  5
2A8E4
330
747D
100
AcDbEntity
  8
部品1
 48
50.0
100
AcDbLine
 10
12224.35971604084
 20
7157.552177407627
 30
0.0
 11
12224.35971604084
 21
6957.552183902539
 31
0.0
  0
LINE
  5
2A8E5
330
747D
100
AcDbEntity
  8
細線
 48
50.0
100
AcDbLine
 10
12201.74359779931
 20
6957.552183902541
 30
0.0
 11
12224.35971604085
 21
6980.168302144064
 31
0.0
  0
LINE
  5
2A8E6
330
747D
100
AcDbEntity
  8
細線
 48
50.0
100
AcDbLine
 10
12156.84231719398
 20
6957.552183902541
 30
0.0
 11
12224.35971604084
 21
7025.069582749404
 31
0.0
  0
LINE
  5
2A8E7
330
747D
100
AcDbEntity
  8
細線
 48
50.0
100
AcDbLine
 10
12111.94103658862
 20
6957.552183902541
 30
0.0
 11
12224.35971604084
 21
7069.970863354736
 31
0.0
  0
LINE
  5
2A8E8
330
747D
100
AcDbEntity
  8
細線
 48
50.0
100
AcDbLine
 10
12067.03975598329
 20
6957.552183902539
 30
0.0
 11
12224.35971604084
 21
7114.872143960082
 31
0.0
  0
LINE
  5
2A8E9
330
747D
100
AcDbEntity
  8
細線
 48
50.0
100
AcDbLine
 10
12596.84231069908
 20
6602.552177407621
 30
0.0
 11
12604.35971604084
 21
6610.069582749372
 31
0.0
  0
LINE
  5
2A8EA
330
747D
100
AcDbEntity
  8
細線
 48
50.0
100
AcDbLine
 10
12551.94103009374
 20
6602.552177407623
 30
0.0
 11
12604.35971604084
 21
6654.970863354718
 31
0.0
  0
LINE
  5
2A8EB
330
747D
100
AcDbEntity
  8
細線
 48
50.0
100
AcDbLine
 10
12507.0397494884
 20
6602.552177407623
 30
0.0
 11
12604.35971604083
 21
6699.87214396006
 31
0.0
  0
LINE
  5
2A8EC
330
747D
100
AcDbEntity
  8
細線
 48
50.0
100
AcDbLine
 10
12484.35971604083
 20
6624.773424565401
 30
0.0
 11
12604.35971604083
 21
6744.773424565405
 31
0.0
  0
LINE
  5
2A8ED
330
747D
100
AcDbEntity
  8
細線
 48
50.0
100
AcDbLine
 10
12484.35971604083
 20
6669.674705170748
 30
0.0
 11
12604.35971604083
 21
6789.674705170748
 31
0.0
  0
LINE
  5
2A8EE
330
747D
100
AcDbEntity
  8
細線
 48
50.0
100
AcDbLine
 10
12484.35971604083
 20
6714.575985776099
 30
0.0
 11
12572.33590767236
 21
6802.552177407623
 31
0.0
  0
LINE
  5
2A8EF
330
747D
100
AcDbEntity
  8
細線
 48
50.0
100
AcDbLine
 10
12484.35971604083
 20
6759.477266381439
 30
0.0
 11
12527.43462706701
 21
6802.552177407624
 31
0.0
  0
LINE
  5
2A8F0
330
747D
100
AcDbEntity
  8
部品1
 48
50.0
100
AcDbLine
 10
12604.35971604083
 20
6802.552177407623
 30
0.0
 11
12484.35971604083
 21
6802.552177407621
 31
0.0
  0
LINE
  5
2A8F1
330
747D
100
AcDbEntity
  8
部品1
 48
50.0
100
AcDbLine
 10
12604.35971604083
 20
6602.552177407623
 30
0.0
 11
12484.35971604083
 21
6602.552177407621
 31
0.0
  0
LINE
  5
2A8F2
330
747D
100
AcDbEntity
  8
センター
 48
2.0
100
AcDbLine
 10
12431.35971604083
 20
7034.55218390254
 30
0.0
 11
12531.35971604083
 21
7034.55218390254
 31
0.0
  0
LINE
  5
2A8F3
330
747D
100
AcDbEntity
  8
センター
 48
2.0
100
AcDbLine
 10
12481.35971604083
 20
7084.552183902539
 30
0.0
 11
12481.35971604083
 21
6984.55218390254
 31
0.0
  0
CIRCLE
  5
2A8F4
330
747D
100
AcDbEntity
  8
部品1
 48
50.0
100
AcDbCircle
 10
12481.35971604083
 20
7034.55218390254
 30
0.0
 40
35.0
  0
LINE
  5
2A8F5
330
747D
100
AcDbEntity
  8
細線
 48
50.0
100
AcDbLine
 10
12024.35971604084
 20
7139.378546986811
 30
0.0
 11
12042.53334646165
 21
7157.552177407628
 31
0.0
  0
MTEXT
  5
2ABF3
330
747D
100
AcDbEntity
  8
寸法
 62
     7
 48
50.0
100
AcDbMText
 10
9242.790607884209
 20
7971.296031125807
 30
0.0
 40
120.0
 41
0.0
 71
     5
 72
     1
  1
2850
  7
STYLE1
 73
     1
 44
1.0
1001
ACAD
1000
MTEXTBEGIN
1070
    73
1070
     1
1070
    44
1040
1.0
1070
    74
1070
     0
1000
MTEXTEND
  0
MTEXT
  5
2ABF4
330
747D
100
AcDbEntity
  8
寸法
 62
     7
 48
50.0
100
AcDbMText
 10
8646.145932608291
 20
7736.98947217952
 30
0.0
 40
120.0
 41
0.0
 71
     5
 72
     1
  1
950
  7
STYLE1
 73
     1
 44
1.0
1001
ACAD
1000
MTEXTBEGIN
1070
    73
1070
     1
1070
    44
1040
1.0
1070
    74
1070
     0
1000
MTEXTEND
  0
MTEXT
  5
2ABF6
330
747D
100
AcDbEntity
  8
寸法
 62
     7
 48
50.0
100
AcDbMText
 10
7174.657878500574
 20
7971.296031125807
 30
0.0
 40
120.0
 41
0.0
 71
     5
 72
     1
  1
2850
  7
STYLE1
 73
     1
 44
1.0
1001
ACAD
1000
MTEXTBEGIN
1070
    73
1070
     1
1070
    44
1040
1.0
1070
    74
1070
     0
1000
MTEXTEND
  0
MTEXT
  5
2ABF7
330
747D
100
AcDbEntity
  8
寸法
 62
     7
 48
50.0
100
AcDbMText
 10
8008.848526967174
 20
7736.98947217952
 30
0.0
 40
120.0
 41
0.0
 71
     5
 72
     1
  1
950
  7
STYLE1
 73
     1
 44
1.0
1001
ACAD
1000
MTEXTBEGIN
1070
    73
1070
     1
1070
    44
1040
1.0
1070
    74
1070
     0
1000
MTEXTEND
  0
DIMENSION
  5
2AFD6
330
747D
100
AcDbEntity
  8
寸法
 48
50.0
100
AcDbDimension
  2
*D39
 10
12484.35971604083
 20
6877.240025931925
 30
0.0
 11
12891.33609399359
 21
6877.240025931925
 31
0.0
 70
   160
 71
     5
 42
120.0
  3
INABA_S40G
100
AcDbAlignedDimension
 13
12604.35971604083
 23
6894.233289970758
 33
0.0
 14
12484.35971604083
 24
6877.240025931925
 34
0.0
100
AcDbRotatedDimension
1001
ACAD
1000
DSTYLE
1002
{
1070
   341
1005
0
1002
}
  0
DIMENSION
  5
2AFD7
330
747D
100
AcDbEntity
  8
寸法
 48
50.0
100
AcDbDimension
  2
*D40
 10
11949.71721712329
 20
6197.552183902548
 30
0.0
 11
11949.71721712329
 21
5947.981317760817
 31
0.0
 70
   160
 71
     5
 42
280.0000000000228
  3
INABA_S40G
100
AcDbAlignedDimension
 13
12224.35971604084
 23
6477.55218390257
 33
0.0
 14
12224.35971604084
 24
6197.552183902548
 34
0.0
 50
90.0
100
AcDbRotatedDimension
1001
ACAD
1000
DSTYLE
1002
{
1070
   341
1005
0
1002
}
  0
DIMENSION
  5
2AFD8
330
747D
100
AcDbEntity
  8
寸法
 48
50.0
100
AcDbDimension
  2
*D41
 10
11949.71721712329
 20
6957.552183902528
 30
0.0
 11
11949.71721712329
 21
7407.123050044264
 31
0.0
 70
   160
 71
     5
 42
200.0
  3
INABA_S40G
100
AcDbAlignedDimension
 13
12149.61439805248
 23
7157.552183902528
 33
0.0
 14
12149.61439805248
 24
6957.552183902528
 34
0.0
 50
90.0
100
AcDbRotatedDimension
1001
ACAD
1000
DSTYLE
1002
{
1070
   341
1005
0
1002
}
  0
DIMENSION
  5
2AFD9
330
747D
100
AcDbEntity
  8
寸法
 48
50.0
100
AcDbDimension
  2
*D42
 10
3169.481625651505
 20
6142.55218390256
 30
0.0
 11
3069.481625651504
 21
6170.052183902549
 31
0.0
 70
    32
  1
b
 71
     5
 42
54.99999999997453
  3
INABA_S40G
100
AcDbAlignedDimension
 13
4044.359716040835
 23
6197.552183902535
 33
0.0
 14
3421.424722370903
 24
6142.55218390256
 34
0.0
 50
90.0
100
AcDbRotatedDimension
1001
ACAD
1000
DSTYLE
1002
{
1070
   341
1005
0
1002
}
  0
DIMENSION
  5
2AFDA
330
747D
100
AcDbEntity
  8
寸法
 48
50.0
100
AcDbDimension
  2
*D43
 10
3169.481625651505
 20
7157.552183902535
 30
0.0
 11
3069.481625651504
 21
7195.052183902538
 31
0.0
 70
    32
  1
c
 71
     5
 42
75.00000000000636
  3
INABA_S40G
100
AcDbAlignedDimension
 13
3421.424722370896
 23
7232.552183902541
 33
0.0
 14
4044.359716040835
 24
7157.552183902535
 34
0.0
 50
90.0
100
AcDbRotatedDimension
1001
ACAD
1000
DSTYLE
1002
{
1070
   341
1005
0
1002
}
  0
LINE
  5
2AFDC
330
747D
100
AcDbEntity
  8
想像線
 48
10.0
100
AcDbLine
 10
12649.35971604083
 20
6142.552183902555
 30
0.0
 11
12649.35971604083
 21
7232.552183902541
 31
0.0
  0
LINE
  5
2AFDD
330
747D
100
AcDbEntity
  8
想像線
 48
10.0
100
AcDbLine
 10
3999.359716040828
 20
6142.552183902547
 30
0.0
 11
3999.359716040835
 21
7232.552183902541
 31
0.0
  0
DIMENSION
  5
2AFDF
330
747D
100
AcDbEntity
  8
寸法
 48
50.0
100
AcDbDimension
  2
*D44
 10
4044.359716040835
 20
8115.772505961455
 30
0.0
 11
3728.185094838377
 21
8115.772505961455
 31
0.0
 70
   160
  1
a
 71
     5
 42
45.0
  3
INABA_S40G
100
AcDbAlignedDimension
 13
3999.359716040835
 23
7883.818641996445
 33
0.0
 14
4044.359716040835
 24
7157.552183902535
 34
0.0
100
AcDbRotatedDimension
1001
ACAD
1000
DSTYLE
1002
{
1070
   341
1005
0
1002
}
  0
DIMENSION
  5
2AFE0
330
747D
100
AcDbEntity
  8
寸法
 48
50.0
100
AcDbDimension
  2
*D45
 10
12649.35971604083
 20
8115.772505961459
 30
0.0
 11
12920.53433724329
 21
8115.772505961459
 31
0.0
 70
   160
  1
a
 71
     5
 42
45.0
  3
INABA_S40G
100
AcDbAlignedDimension
 13
12604.35971604083
 23
7157.552183902538
 33
0.0
 14
12649.35971604083
 24
7883.81864199645
 34
0.0
100
AcDbRotatedDimension
1001
ACAD
1000
DSTYLE
1002
{
1070
   341
1005
0
1002
}
  0
LEADER
  5
2AFE1
330
747D
100
AcDbEntity
  8
寸法
 48
50.0
100
AcDbLeader
  3
INABA_S50G
 73
     0
 74
     0
 75
     1
 40
120.0
 41
149.591883092037
 76
     3
 10
11737.71372710185
 20
6743.057894492764
 30
0.0
 10
11864.99652996449
 20
6520.339580937939
 30
0.0
 10
11989.99652996449
 20
6520.339580937939
 30
0.0
340
2AFE2
1001
ACAD
1000
DSTYLE
1002
{
1070
   341
1005
0
1070
    40
1040
1.0
1070
   343
1005
0
1070
   344
1005
0
1002
}
  0
MTEXT
  5
2AFE2
102
{ACAD_REACTORS
330
2AFE1
102
}
330
747D
100
AcDbEntity
  8
部品1
 62
     7
 48
50.0
100
AcDbMText
 10
12164.58841305653
 20
6605.33958093794
 30
0.0
 40
120.0
 41
0.0
 71
     6
 72
     1
  1
CB
  7
STYLE1
 73
     1
 44
1.0
1001
ACAD
1000
MTEXTBEGIN
1070
    73
1070
     1
1070
    44
1040
1.0
1070
    74
1070
     0
1000
MTEXTEND
  0
LEADER
  5
2AFE3
330
747D
100
AcDbEntity
  8
寸法
 48
50.0
100
AcDbLeader
  3
INABA_S50G
 73
     0
 74
     0
 75
     1
 40
120.0
 41
994.3492424049171
 76
     3
 10
12481.43980179784
 20
7034.76002826125
 30
0.0
 10
12655.40570434579
 20
7388.164928145048
 30
0.0
 10
12780.40570434579
 20
7388.164928145048
 30
0.0
340
2AFE4
1001
ACAD
1000
DSTYLE
1002
{
1070
   341
1005
0
1070
    40
1040
1.0
1070
   343
1005
0
1070
   344
1005
0
1002
}
  0
MTEXT
  5
2AFE4
102
{ACAD_REACTORS
330
2AFE3
102
}
330
747D
100
AcDbEntity
  8
部品1
 62
     7
 48
50.0
100
AcDbMText
 10
13799.75494675071
 20
7473.164928145049
 30
0.0
 40
120.0
 41
0.0
 71
     6
 72
     1
  1
アンカーボルト
  7
STYLE1
 73
     1
 44
1.0
1001
ACAD
1000
MTEXTBEGIN
1070
    73
1070
     1
1070
    44
1040
1.0
1070
    74
1070
     0
1000
MTEXTEND
  0
LEADER
  5
2AFE5
330
747D
100
AcDbEntity
  8
寸法
 48
50.0
100
AcDbLeader
  3
INABA_S50G
 73
     0
 74
     0
 75
     1
 40
120.0
 41
672.0
 76
     3
 10
12654.45802954427
 20
6206.769932880821
 30
0.0
 10
12770.39804173631
 20
5947.880589417246
 30
0.0
 10
12895.39804173631
 20
5947.880589417246
 30
0.0
340
2AFE6
1001
ACAD
1000
DSTYLE
1002
{
1070
   341
1005
0
1070
    40
1040
1.0
1070
   343
1005
0
1070
   344
1005
0
1002
}
  0
MTEXT
  5
2AFE6
102
{ACAD_REACTORS
330
2AFE5
102
}
330
747D
100
AcDbEntity
  8
部品1
 62
     7
 48
50.0
100
AcDbMText
 10
13592.39804173631
 20
6032.880589417246
 30
0.0
 40
120.0
 41
0.0
 71
     6
 72
     1
  1
\A1;屋根の外寸
  7
STYLE1
 73
     1
 44
1.0
1001
ACAD
1000
MTEXTBEGIN
1070
    73
1070
     1
1070
    44
1040
1.0
1070
    74
1070
     0
1000
MTEXTEND
  0
TEXT
  5
2AFE7
330
747D
100
AcDbEntity
  8
部品1
 48
50.0
100
AcDbText
 10
12794.61084574771
 20
5853.569902484171
 30
0.0
 40
80.0
  1
※a,b,cは屋根の出幅です。
  7
STYLE1
100
AcDbText
  0
TEXT
  5
2AFE8
330
747D
100
AcDbEntity
  8
部品1
 48
50.0
100
AcDbText
 10
12953.18985450201
 20
5746.724681615416
 30
0.0
 40
80.0
  1
(a=45,b=55,c=75)
  7
STYLE1
100
AcDbText
  0
MTEXT
  5
2AFE9
102
{ACAD_REACTORS
330
2AFEA
102
}
330
747D
100
AcDbEntity
  8
部品1
 62
     7
 48
50.0
100
AcDbMText
 10
13632.59314761159
 20
6512.269040394516
 30
0.0
 40
120.0
 41
0.0
 71
     6
 72
     1
  1
\A1;床下換気口
  7
STYLE1
 73
     1
 44
1.0
1001
ACAD
1000
MTEXTBEGIN
1070
    73
1070
     1
1070
    44
1040
1.0
1070
    74
1070
     0
1000
MTEXTEND
  0
LEADER
  5
2AFEA
330
747D
100
AcDbEntity
  8
寸法
 48
50.0
100
AcDbLeader
  3
INABA_S50G
 73
     0
 74
     0
 75
     1
 40
120.0
 41
720.0000000000001
 76
     3
 10
12605.8195732253
 20
6688.282953962349
 30
0.0
 10
12762.59314761158
 20
6427.269040394515
 30
0.0
 10
12887.59314761159
 20
6427.269040394515
 30
0.0
340
2AFE9
1001
ACAD
1000
DSTYLE
1002
{
1070
   341
1005
0
1070
    40
1040
1.0
1070
   343
1005
0
1070
   344
1005
0
1002
}
  0
LINE
  5
2B2A3
330
747D
100
AcDbEntity
  8
想像線
 48
10.0
100
AcDbLine
 10
12578.80430037824
 20
7232.552183902538
 30
0.0
 11
3999.359716040835
 21
7232.552183902555
 31
0.0
  0
LINE
  5
2B2A4
330
747D
100
AcDbEntity
  8
想像線
 48
10.0
100
AcDbLine
 10
12649.35971604083
 20
6142.552183902553
 30
0.0
 11
3999.359716040828
 21
6142.552183902537
 31
0.0
  0
TEXT
  5
2B3E6
330
747D
100
AcDbEntity
  8
文字
 62
     7
 48
50.0
100
AcDbText
 10
7602.119448535062
 20
4702.912051866468
 30
0.0
 40
200.0
  1
〈参 考 図〉
  7
STYLE2
100
AcDbText
  0
TEXT
  5
2B3F7
330
747D
100
AcDbEntity
  8
文字
 62
     7
 48
50.0
100
AcDbText
 10
14251.2
 20
838.2527270729188
 30
0.0
 40
100.0
  1
～一般型・多雪地型・豪雪地型～
  7
STYLE2
100
AcDbText
  0
LINE
  5
2B417
330
747D
100
AcDbEntity
  8
部品1
 48
50.0
100
AcDbLine
 10
12604.35971604083
 20
6477.552183902585
 30
0.0
 11
4164.359716040832
 21
6477.552183902533
 31
0.0
  0
LINE
  5
2B419
330
747D
100
AcDbEntity
  8
細線
 48
50.0
100
AcDbLine
 10
5555.0653615953
 20
6197.552177407639
 30
0.0
 11
5574.359716040845
 21
6216.846531853182
 31
0.0
  0
LINE
  5
2B41A
330
747D
100
AcDbEntity
  8
部品1
 48
50.0
100
AcDbLine
 10
5574.359716040832
 20
6477.552183902537
 30
0.0
 11
5574.359716040845
 21
6197.552177407636
 31
0.0
  0
LINE
  5
2B41B
330
747D
100
AcDbEntity
  8
細線
 48
50.0
100
AcDbLine
 10
5420.361519779261
 20
6197.552177407636
 30
0.0
 11
5574.359716040835
 21
6351.55037366921
 31
0.0
  0
LINE
  5
2B41C
330
747D
100
AcDbEntity
  8
細線
 48
50.0
100
AcDbLine
 10
5465.262800384607
 20
6197.552177407636
 30
0.0
 11
5574.359716040839
 21
6306.649093063868
 31
0.0
  0
LINE
  5
2B41D
330
747D
100
AcDbEntity
  8
細線
 48
50.0
100
AcDbLine
 10
5510.164080989953
 20
6197.552177407636
 30
0.0
 11
5574.359716040842
 21
6261.747812458523
 31
0.0
  0
LINE
  5
2B41E
330
747D
100
AcDbEntity
  8
部品1
 48
50.0
100
AcDbLine
 10
5374.359716040831
 20
6477.552183902536
 30
0.0
 11
5374.359716040845
 21
6197.552177407633
 31
0.0
  0
LINE
  5
2B41F
330
747D
100
AcDbEntity
  8
細線
 48
50.0
100
AcDbLine
 10
5374.359716040839
 20
6331.155496090596
 30
0.0
 11
5520.756403852779
 21
6477.552183902536
 31
0.0
  0
LINE
  5
2B420
330
747D
100
AcDbEntity
  8
細線
 48
50.0
100
AcDbLine
 10
5374.359716040839
 20
6286.254215485251
 30
0.0
 11
5565.657684458122
 21
6477.552183902535
 31
0.0
  0
LINE
  5
2B421
330
747D
100
AcDbEntity
  8
細線
 48
50.0
100
AcDbLine
 10
5374.359716040842
 20
6241.352934879909
 30
0.0
 11
5574.359716040835
 21
6441.3529348799
 31
0.0
  0
LINE
  5
2B422
330
747D
100
AcDbEntity
  8
細線
 48
50.0
100
AcDbLine
 10
5375.460239173915
 20
6197.552177407636
 30
0.0
 11
5574.359716040834
 21
6396.451654274553
 31
0.0
  0
LINE
  5
2B423
330
747D
100
AcDbEntity
  8
細線
 48
50.0
100
AcDbLine
 10
5374.35971604084
 20
6376.056776695937
 30
0.0
 11
5475.855123247439
 21
6477.552183902535
 31
0.0
  0
LINE
  5
2B424
330
747D
100
AcDbEntity
  8
細線
 48
50.0
100
AcDbLine
 10
5374.359716040837
 20
6420.958057301277
 30
0.0
 11
5430.953842642098
 21
6477.552183902536
 31
0.0
  0
LINE
  5
2B425
330
747D
100
AcDbEntity
  8
細線
 48
50.0
100
AcDbLine
 10
6505.065361595299
 20
6197.552177407639
 30
0.0
 11
6524.359716040844
 21
6216.846531853182
 31
0.0
  0
LINE
  5
2B426
330
747D
100
AcDbEntity
  8
部品1
 48
50.0
100
AcDbLine
 10
6524.359716040831
 20
6477.552183902537
 30
0.0
 11
6524.359716040844
 21
6197.552177407636
 31
0.0
  0
LINE
  5
2B427
330
747D
100
AcDbEntity
  8
細線
 48
50.0
100
AcDbLine
 10
6370.361519779261
 20
6197.552177407636
 30
0.0
 11
6524.359716040835
 21
6351.55037366921
 31
0.0
  0
LINE
  5
2B428
330
747D
100
AcDbEntity
  8
細線
 48
50.0
100
AcDbLine
 10
6415.262800384607
 20
6197.552177407636
 30
0.0
 11
6524.359716040838
 21
6306.649093063868
 31
0.0
  0
LINE
  5
2B429
330
747D
100
AcDbEntity
  8
細線
 48
50.0
100
AcDbLine
 10
6460.164080989952
 20
6197.552177407636
 30
0.0
 11
6524.359716040843
 21
6261.747812458523
 31
0.0
  0
LINE
  5
2B42A
330
747D
100
AcDbEntity
  8
部品1
 48
50.0
100
AcDbLine
 10
6324.359716040831
 20
6477.552183902536
 30
0.0
 11
6324.359716040845
 21
6197.552177407633
 31
0.0
  0
LINE
  5
2B42B
330
747D
100
AcDbEntity
  8
細線
 48
50.0
100
AcDbLine
 10
6324.359716040839
 20
6331.155496090596
 30
0.0
 11
6470.756403852779
 21
6477.552183902536
 31
0.0
  0
LINE
  5
2B42C
330
747D
100
AcDbEntity
  8
細線
 48
50.0
100
AcDbLine
 10
6324.359716040839
 20
6286.254215485251
 30
0.0
 11
6515.657684458121
 21
6477.552183902535
 31
0.0
  0
LINE
  5
2B42D
330
747D
100
AcDbEntity
  8
細線
 48
50.0
100
AcDbLine
 10
6324.359716040842
 20
6241.352934879909
 30
0.0
 11
6524.359716040835
 21
6441.3529348799
 31
0.0
  0
LINE
  5
2B42E
330
747D
100
AcDbEntity
  8
細線
 48
50.0
100
AcDbLine
 10
6325.460239173915
 20
6197.552177407636
 30
0.0
 11
6524.359716040834
 21
6396.451654274553
 31
0.0
  0
LINE
  5
2B42F
330
747D
100
AcDbEntity
  8
細線
 48
50.0
100
AcDbLine
 10
6324.359716040841
 20
6376.056776695937
 30
0.0
 11
6425.855123247439
 21
6477.552183902535
 31
0.0
  0
LINE
  5
2B430
330
747D
100
AcDbEntity
  8
細線
 48
50.0
100
AcDbLine
 10
6324.359716040837
 20
6420.958057301277
 30
0.0
 11
6380.953842642099
 21
6477.552183902536
 31
0.0
  0
LINE
  5
2B431
330
747D
100
AcDbEntity
  8
細線
 48
50.0
100
AcDbLine
 10
7455.065361595299
 20
6197.552177407639
 30
0.0
 11
7474.359716040844
 21
6216.846531853182
 31
0.0
  0
LINE
  5
2B432
330
747D
100
AcDbEntity
  8
部品1
 48
50.0
100
AcDbLine
 10
7474.359716040831
 20
6477.552183902537
 30
0.0
 11
7474.359716040844
 21
6197.552177407636
 31
0.0
  0
LINE
  5
2B433
330
747D
100
AcDbEntity
  8
細線
 48
50.0
100
AcDbLine
 10
7320.36151977926
 20
6197.552177407636
 30
0.0
 11
7474.359716040836
 21
6351.55037366921
 31
0.0
  0
LINE
  5
2B434
330
747D
100
AcDbEntity
  8
細線
 48
50.0
100
AcDbLine
 10
7365.262800384607
 20
6197.552177407636
 30
0.0
 11
7474.359716040838
 21
6306.649093063868
 31
0.0
  0
LINE
  5
2B435
330
747D
100
AcDbEntity
  8
細線
 48
50.0
100
AcDbLine
 10
7410.164080989954
 20
6197.552177407636
 30
0.0
 11
7474.359716040843
 21
6261.747812458523
 31
0.0
  0
LINE
  5
2B436
330
747D
100
AcDbEntity
  8
部品1
 48
50.0
100
AcDbLine
 10
7274.359716040831
 20
6477.552183902536
 30
0.0
 11
7274.359716040844
 21
6197.552177407633
 31
0.0
  0
LINE
  5
2B437
330
747D
100
AcDbEntity
  8
細線
 48
50.0
100
AcDbLine
 10
7274.359716040838
 20
6331.155496090596
 30
0.0
 11
7420.756403852779
 21
6477.552183902536
 31
0.0
  0
LINE
  5
2B438
330
747D
100
AcDbEntity
  8
細線
 48
50.0
100
AcDbLine
 10
7274.359716040838
 20
6286.254215485251
 30
0.0
 11
7465.657684458121
 21
6477.552183902535
 31
0.0
  0
LINE
  5
2B439
330
747D
100
AcDbEntity
  8
細線
 48
50.0
100
AcDbLine
 10
7274.359716040843
 20
6241.352934879909
 30
0.0
 11
7474.359716040836
 21
6441.3529348799
 31
0.0
  0
LINE
  5
2B43A
330
747D
100
AcDbEntity
  8
細線
 48
50.0
100
AcDbLine
 10
7275.460239173916
 20
6197.552177407636
 30
0.0
 11
7474.359716040834
 21
6396.451654274553
 31
0.0
  0
LINE
  5
2B43B
330
747D
100
AcDbEntity
  8
細線
 48
50.0
100
AcDbLine
 10
7274.359716040841
 20
6376.056776695937
 30
0.0
 11
7375.855123247439
 21
6477.552183902535
 31
0.0
  0
LINE
  5
2B43C
330
747D
100
AcDbEntity
  8
細線
 48
50.0
100
AcDbLine
 10
7274.359716040837
 20
6420.958057301277
 30
0.0
 11
7330.953842642099
 21
6477.552183902536
 31
0.0
  0
LINE
  5
2B43D
330
747D
100
AcDbEntity
  8
部品1
 48
50.0
100
AcDbLine
 10
10324.35971604083
 20
6477.552183902557
 30
0.0
 11
10324.35971604084
 21
6197.552177407633
 31
0.0
  0
LINE
  5
2B43E
330
747D
100
AcDbEntity
  8
細線
 48
50.0
100
AcDbLine
 10
10124.35971604084
 20
6331.155496090591
 30
0.0
 11
10270.7564038528
 21
6477.552183902557
 31
0.0
  0
LINE
  5
2B43F
330
747D
100
AcDbEntity
  8
細線
 48
50.0
100
AcDbLine
 10
10124.35971604084
 20
6286.254215485246
 30
0.0
 11
10315.65768445815
 21
6477.552183902557
 31
0.0
  0
LINE
  5
2B440
330
747D
100
AcDbEntity
  8
細線
 48
50.0
100
AcDbLine
 10
10124.35971604084
 20
6376.056776695937
 30
0.0
 11
10225.85512324746
 21
6477.552183902557
 31
0.0
  0
LINE
  5
2B441
330
747D
100
AcDbEntity
  8
細線
 48
50.0
100
AcDbLine
 10
10124.35971604084
 20
6420.958057301277
 30
0.0
 11
10180.95384264212
 21
6477.552183902557
 31
0.0
  0
LINE
  5
2B442
330
747D
100
AcDbEntity
  8
部品1
 48
50.0
100
AcDbLine
 10
10124.35971604083
 20
6477.552183902557
 30
0.0
 11
10124.35971604084
 21
6197.552177407629
 31
0.0
  0
LINE
  5
2B443
330
747D
100
AcDbEntity
  8
細線
 48
50.0
100
AcDbLine
 10
10124.35971604084
 20
6241.352934879905
 30
0.0
 11
10324.35971604083
 21
6441.352934879893
 31
0.0
  0
LINE
  5
2B444
330
747D
100
AcDbEntity
  8
細線
 48
50.0
100
AcDbLine
 10
10125.46023917391
 20
6197.552177407631
 30
0.0
 11
10324.35971604083
 21
6396.451654274549
 31
0.0
  0
LINE
  5
2B445
330
747D
100
AcDbEntity
  8
細線
 48
50.0
100
AcDbLine
 10
10170.36151977926
 20
6197.552177407631
 30
0.0
 11
10324.35971604083
 21
6351.550373669206
 31
0.0
  0
LINE
  5
2B446
330
747D
100
AcDbEntity
  8
細線
 48
50.0
100
AcDbLine
 10
10215.26280038461
 20
6197.552177407631
 30
0.0
 11
10324.35971604084
 21
6306.649093063865
 31
0.0
  0
LINE
  5
2B447
330
747D
100
AcDbEntity
  8
細線
 48
50.0
100
AcDbLine
 10
10260.16408098995
 20
6197.552177407631
 30
0.0
 11
10324.35971604084
 21
6261.747812458519
 31
0.0
  0
LINE
  5
2B448
330
747D
100
AcDbEntity
  8
細線
 48
50.0
100
AcDbLine
 10
10305.0653615953
 20
6197.552177407636
 30
0.0
 11
10324.35971604084
 21
6216.846531853176
 31
0.0
  0
LINE
  5
2B449
330
747D
100
AcDbEntity
  8
部品1
 48
50.0
100
AcDbLine
 10
11274.35971604083
 20
6477.552183902557
 30
0.0
 11
11274.35971604084
 21
6197.552177407633
 31
0.0
  0
LINE
  5
2B44A
330
747D
100
AcDbEntity
  8
細線
 48
50.0
100
AcDbLine
 10
11074.35971604084
 20
6331.155496090591
 30
0.0
 11
11220.7564038528
 21
6477.552183902557
 31
0.0
  0
LINE
  5
2B44B
330
747D
100
AcDbEntity
  8
細線
 48
50.0
100
AcDbLine
 10
11074.35971604084
 20
6286.254215485246
 30
0.0
 11
11265.65768445815
 21
6477.552183902557
 31
0.0
  0
LINE
  5
2B44C
330
747D
100
AcDbEntity
  8
細線
 48
50.0
100
AcDbLine
 10
11074.35971604084
 20
6376.056776695937
 30
0.0
 11
11175.85512324746
 21
6477.552183902557
 31
0.0
  0
LINE
  5
2B44D
330
747D
100
AcDbEntity
  8
細線
 48
50.0
100
AcDbLine
 10
11074.35971604084
 20
6420.958057301277
 30
0.0
 11
11130.95384264212
 21
6477.552183902557
 31
0.0
  0
LINE
  5
2B44E
330
747D
100
AcDbEntity
  8
部品1
 48
50.0
100
AcDbLine
 10
11074.35971604083
 20
6477.552183902557
 30
0.0
 11
11074.35971604084
 21
6197.552177407629
 31
0.0
  0
LINE
  5
2B44F
330
747D
100
AcDbEntity
  8
細線
 48
50.0
100
AcDbLine
 10
11074.35971604084
 20
6241.352934879905
 30
0.0
 11
11274.35971604083
 21
6441.352934879893
 31
0.0
  0
LINE
  5
2B450
330
747D
100
AcDbEntity
  8
細線
 48
50.0
100
AcDbLine
 10
11075.46023917391
 20
6197.552177407631
 30
0.0
 11
11274.35971604083
 21
6396.451654274549
 31
0.0
  0
LINE
  5
2B451
330
747D
100
AcDbEntity
  8
細線
 48
50.0
100
AcDbLine
 10
11120.36151977926
 20
6197.552177407631
 30
0.0
 11
11274.35971604083
 21
6351.550373669206
 31
0.0
  0
LINE
  5
2B452
330
747D
100
AcDbEntity
  8
細線
 48
50.0
100
AcDbLine
 10
11165.2628003846
 20
6197.552177407631
 30
0.0
 11
11274.35971604084
 21
6306.649093063865
 31
0.0
  0
LINE
  5
2B453
330
747D
100
AcDbEntity
  8
細線
 48
50.0
100
AcDbLine
 10
11210.16408098995
 20
6197.552177407631
 30
0.0
 11
11274.35971604084
 21
6261.747812458519
 31
0.0
  0
LINE
  5
2B454
330
747D
100
AcDbEntity
  8
細線
 48
50.0
100
AcDbLine
 10
11255.0653615953
 20
6197.552177407636
 30
0.0
 11
11274.35971604084
 21
6216.846531853176
 31
0.0
  0
LINE
  5
2B455
330
747D
100
AcDbEntity
  8
部品1
 48
50.0
100
AcDbLine
 10
12224.35971604083
 20
6477.552183902557
 30
0.0
 11
12224.35971604084
 21
6197.552177407633
 31
0.0
  0
LINE
  5
2B456
330
747D
100
AcDbEntity
  8
細線
 48
50.0
100
AcDbLine
 10
12024.35971604083
 20
6331.155496090591
 30
0.0
 11
12170.7564038528
 21
6477.552183902557
 31
0.0
  0
LINE
  5
2B457
330
747D
100
AcDbEntity
  8
細線
 48
50.0
100
AcDbLine
 10
12024.35971604084
 20
6286.254215485246
 30
0.0
 11
12215.65768445815
 21
6477.552183902557
 31
0.0
  0
LINE
  5
2B458
330
747D
100
AcDbEntity
  8
細線
 48
50.0
100
AcDbLine
 10
12024.35971604084
 20
6376.056776695937
 30
0.0
 11
12125.85512324746
 21
6477.552183902557
 31
0.0
  0
LINE
  5
2B459
330
747D
100
AcDbEntity
  8
細線
 48
50.0
100
AcDbLine
 10
12024.35971604083
 20
6420.958057301277
 30
0.0
 11
12080.95384264212
 21
6477.552183902557
 31
0.0
  0
LINE
  5
2B45A
330
747D
100
AcDbEntity
  8
部品1
 48
50.0
100
AcDbLine
 10
12024.35971604083
 20
6477.552183902557
 30
0.0
 11
12024.35971604084
 21
6197.552177407629
 31
0.0
  0
LINE
  5
2B45B
330
747D
100
AcDbEntity
  8
細線
 48
50.0
100
AcDbLine
 10
12024.35971604084
 20
6241.352934879905
 30
0.0
 11
12224.35971604083
 21
6441.352934879893
 31
0.0
  0
LINE
  5
2B45C
330
747D
100
AcDbEntity
  8
細線
 48
50.0
100
AcDbLine
 10
12025.46023917391
 20
6197.552177407631
 30
0.0
 11
12224.35971604083
 21
6396.451654274549
 31
0.0
  0
LINE
  5
2B45D
330
747D
100
AcDbEntity
  8
細線
 48
50.0
100
AcDbLine
 10
12070.36151977926
 20
6197.552177407631
 30
0.0
 11
12224.35971604083
 21
6351.550373669206
 31
0.0
  0
LINE
  5
2B45E
330
747D
100
AcDbEntity
  8
細線
 48
50.0
100
AcDbLine
 10
12115.2628003846
 20
6197.552177407631
 30
0.0
 11
12224.35971604084
 21
6306.649093063865
 31
0.0
  0
LINE
  5
2B45F
330
747D
100
AcDbEntity
  8
細線
 48
50.0
100
AcDbLine
 10
12160.16408098995
 20
6197.552177407631
 30
0.0
 11
12224.35971604084
 21
6261.747812458519
 31
0.0
  0
LINE
  5
2B460
330
747D
100
AcDbEntity
  8
細線
 48
50.0
100
AcDbLine
 10
12205.0653615953
 20
6197.552177407636
 30
0.0
 11
12224.35971604084
 21
6216.846531853176
 31
0.0
  0
LINE
  5
2B47E
330
747D
100
AcDbEntity
  8
部品1
 48
50.0
100
AcDbLine
 10
12484.35971604083
 20
6477.552183902585
 30
0.0
 11
12484.35971604083
 21
6957.552183902535
 31
0.0
  0
LINE
  5
2B47F
330
747D
100
AcDbEntity
  8
部品1
 48
50.0
100
AcDbLine
 10
4164.359716040832
 20
6477.552183902533
 30
0.0
 11
4164.359716040828
 21
6957.552183902539
 31
0.0
  0
LINE
  5
2B621
330
747D
100
AcDbEntity
  8
部品1
100
AcDbLine
 10
11574.43209892157
 20
3193.987749397435
 30
0.0
 11
5503.446913535314
 21
3193.987749397435
 31
0.0
  0
LINE
  5
2B622
330
747D
100
AcDbEntity
  8
部品1
100
AcDbLine
 10
11574.43209892156
 20
2953.987749397433
 30
0.0
 11
5503.446913535317
 21
2953.987749397433
 31
0.0
  0
LINE
  5
2B623
330
747D
100
AcDbEntity
  8
部品1
100
AcDbLine
 10
5503.446913535319
 20
229.6807798127875
 30
0.0
 11
11574.43209892156
 21
229.6807798127875
 31
0.0
  0
LEADER
  5
2B624
330
747D
100
AcDbEntity
  8
寸法
 48
50.0
100
AcDbLeader
  3
INABA_S50G
 73
     0
 74
     0
 75
     1
 40
102.2727272727273
 41
680.0000000000001
 76
     3
 10
8511.554665521773
 20
2193.524363305992
 30
0.0
 10
8545.908636635131
 20
2603.977174412533
 30
0.0
 10
8670.908636635131
 20
2603.977174412533
 30
0.0
340
2B625
1001
ACAD
1000
DSTYLE
1002
{
1070
   341
1005
0
1070
    40
1040
1.0
1070
   343
1005
0
1070
   344
1005
0
1002
}
  0
MTEXT
  5
2B625
102
{ACAD_REACTORS
330
2B624
102
}
330
747D
100
AcDbEntity
  8
部品1
 62
     7
 48
50.0
100
AcDbMText
 10
8695.908636635129
 20
2680.113538048897
 30
0.0
 40
80.0
 41
0.8
 71
     4
 72
     1
  1
\A1;ナット(市販品)
  7
STYLE2
 73
     1
 44
1.0
1001
ACAD
1000
MTEXTBEGIN
1070
    73
1070
     1
1070
    44
1040
1.0
1070
    74
1070
     0
1000
MTEXTEND
  0
LEADER
  5
2B626
330
747D
100
AcDbEntity
  8
寸法
 48
50.0
100
AcDbLeader
  3
INABA_S50G
 73
     0
 74
     0
 75
     1
 40
102.2727272727273
 41
906.8181818181818
 76
     3
 10
8535.554665521773
 20
2063.772370641129
 30
0.0
 10
8577.426255890612
 20
2419.008091647746
 30
0.0
 10
8702.426255890612
 20
2419.008091647746
 30
0.0
340
2B627
1001
ACAD
1000
DSTYLE
1002
{
1070
   341
1005
0
1070
    40
1040
1.0
1070
   343
1005
0
1070
   344
1005
0
1002
}
  0
MTEXT
  5
2B627
102
{ACAD_REACTORS
330
2B626
102
}
330
747D
100
AcDbEntity
  8
部品1
 62
     7
 48
50.0
100
AcDbMText
 10
8727.426255890611
 20
2495.14445528411
 30
0.0
 40
80.0
 41
0.8
 71
     4
 72
     1
  1
\A1;ワッシャー(市販品)
  7
STYLE2
 73
     1
 44
1.0
1001
ACAD
1000
MTEXTBEGIN
1070
    73
1070
     1
1070
    44
1040
1.0
1070
    74
1070
     0
1000
MTEXTEND
  0
LWPOLYLINE
  5
2B628
330
747D
100
AcDbEntity
  8
部品1
 48
50.0
100
AcDbPolyline
 90
        2
 70
     0
 43
8.0
 10
8688.154665521771
 20
1554.64908219685
 10
8981.857128921156
 20
1554.64908219685
  0
TEXT
  5
2B629
330
747D
100
AcDbEntity
  8
部品1
 48
50.0
100
AcDbText
 10
8692.5082498062
 20
2150.527762959049
 30
0.0
 40
80.0
  1
基礎ボルト(市販品)
  7
STYLE2
100
AcDbText
  0
DIMENSION
  5
2B62A
330
747D
100
AcDbEntity
  8
寸法
 48
50.0
100
AcDbDimension
  2
*D46
 10
9190.023265290617
 20
1470.649082196848
 30
0.0
 11
9090.023265290616
 21
1632.64908219685
 31
0.0
 70
    32
  1
180
 71
     5
 42
324.0000000000009
  3
INABA_S40G
100
AcDbAlignedDimension
 13
8688.154665521771
 23
1794.649082196849
 33
0.0
 14
8688.154665521771
 24
1470.649082196848
 34
0.0
 50
90.0
100
AcDbRotatedDimension
1001
ACAD
1000
DSTYLE
1002
{
1070
   341
1005
0
1002
}
  0
DIMENSION
  5
2B62B
330
747D
100
AcDbEntity
  8
寸法
 48
50.0
100
AcDbDimension
  2
*D47
 10
9466.077931409643
 20
1794.649082196849
 30
0.0
 11
9466.077931409643
 21
1328.640178775366
 31
0.0
 70
   160
  1
20～25
 71
     5
 42
52.76000000000113
  3
INABA_S40G
100
AcDbAlignedDimension
 13
8500.954665521772
 23
1847.40908219685
 33
0.0
 14
8688.154665521771
 24
1794.649082196849
 34
0.0
 50
90.0
100
AcDbRotatedDimension
1001
ACAD
1000
DSTYLE
1002
{
1070
   341
1005
0
1002
}
  0
MTEXT
  5
2B62C
102
{ACAD_REACTORS
330
2B62D
102
}
330
747D
100
AcDbEntity
  8
部品1
 62
     7
 48
50.0
100
AcDbMText
 10
8697.099127941092
 20
2059.032408350079
 30
0.0
 40
80.0
 41
0.8
 71
     4
 72
     1
  1
M10X160
  7
STYLE2
 73
     1
 44
1.0
1001
ACAD
1000
MTEXTBEGIN
1070
    73
1070
     1
1070
    44
1040
1.0
1070
    74
1070
     0
1000
MTEXTEND
  0
LEADER
  5
2B62D
330
747D
100
AcDbEntity
  8
寸法
 48
50.0
100
AcDbLeader
  3
INABA_S50G
 73
     0
 74
     0
 75
     1
 40
80.0
 41
435.0
 76
     3
 10
8504.554665521773
 20
1843.80908219685
 30
0.0
 10
8547.099127941093
 20
1994.032408350079
 30
0.0
 10
8672.099127941093
 20
1994.032408350079
 30
0.0
340
2B62C
1001
ACAD
1000
DSTYLE
1002
{
1070
   341
1005
0
1070
    40
1040
1.0
1070
   343
1005
0
1070
   344
1005
0
1002
}
  0
LINE
  5
2B62E
330
747D
100
AcDbEntity
  8
部品1
100
AcDbLine
 10
5503.446913535316
 20
3193.987749397435
 30
0.0
 11
5503.446913535317
 21
229.6807798127875
 31
0.0
  0
LEADER
  5
2B62F
330
747D
100
AcDbEntity
  8
寸法
 48
50.0
100
AcDbLeader
  3
INABA_S50G
 73
     0
 75
     1
 40
113.1818181818182
 41
608.6363636363635
 76
     3
 10
8464.291415659824
 20
1744.164755555128
 30
0.0
 10
8330.487586968475
 20
2595.543837911606
 30
0.0
 10
8205.487586968475
 20
2595.543837911606
 30
0.0
340
2B630
1001
ACAD
1000
DSTYLE
1002
{
1070
   341
1005
0
1070
    40
1040
1.0
1070
   343
1005
0
1070
   344
1005
0
1002
}
  0
MTEXT
  5
2B630
102
{ACAD_REACTORS
330
2B62F
102
}
330
747D
100
AcDbEntity
  8
寸法
 62
     7
 48
50.0
100
AcDbMText
 10
8180.487586968475
 20
2677.134747002515
 30
0.0
 40
80.0
 41
0.8
 71
     6
 72
     1
  1
\A1;φ70スリーブ
  7
STYLE2
 73
     1
 44
1.0
1001
ACAD
1000
MTEXTBEGIN
1070
    73
1070
     1
1070
    44
1040
1.0
1070
    74
1070
     0
1000
MTEXTEND
  0
LWPOLYLINE
  5
2B631
330
747D
100
AcDbEntity
  8
部品1
 48
50.0
100
AcDbPolyline
 90
        2
 70
     0
 43
8.0
 10
6159.975450511621
 20
1554.64908219685
 10
6574.115352344579
 20
1554.64908219685
  0
TEXT
  5
2B632
330
747D
100
AcDbEntity
  8
部品1
 48
50.0
100
AcDbText
 10
6159.975450511621
 20
1565.888074480104
 30
0.0
 40
80.0
  1
▽G.L
  7
STYLE2
100
AcDbText
  0
DIMENSION
  5
2B633
330
747D
100
AcDbEntity
  8
寸法
 48
50.0
100
AcDbDimension
  2
*D48
 10
6303.695038612119
 20
1010.649082196849
 30
0.0
 11
6303.695038612119
 21
1130.64908219685
 31
0.0
 70
   160
  1
150
 71
     5
 42
240.0
  3
INABA_S40G
100
AcDbAlignedDimension
 13
6446.115352344579
 23
1250.649082196849
 33
0.0
 14
6366.115352344582
 24
1010.649082196849
 34
0.0
 50
90.0
100
AcDbRotatedDimension
1001
ACAD
1000
DSTYLE
1002
{
1070
   341
1005
0
1002
}
  0
LEADER
  5
2B634
330
747D
100
AcDbEntity
  8
寸法
 48
50.0
100
AcDbLeader
  3
INABA_S50G
 71
     0
 73
     0
 75
     1
 40
100.0
 41
225.0
 76
     3
 10
6542.018304696721
 20
1130.649082196849
 30
0.0
 10
6420.180326149384
 20
867.1263885784128
 30
0.0
 10
6295.180326149385
 20
867.1263885784128
 30
0.0
1001
ACAD
1000
DSTYLE
1002
{
1070
    40
1040
1.0
1070
   272
1070
     1
1070
   279
1070
     1
1070
   341
1005
0
1002
}
  0
LEADER
  5
2B635
330
747D
100
AcDbEntity
  8
寸法
 48
50.0
100
AcDbLeader
  3
INABA_S50G
 71
     0
 73
     0
 75
     1
 40
100.0
 41
222.7272727272727
 76
     3
 10
6670.115352344578
 20
1130.649082196849
 30
0.0
 10
6448.303053706819
 20
686.8102360389693
 30
0.0
 10
6323.303053706819
 20
686.8102360389693
 30
0.0
1001
ACAD
1000
DSTYLE
1002
{
1070
    40
1040
1.0
1070
   272
1070
     1
1070
   279
1070
     1
1070
   341
1005
0
1002
}
  0
MTEXT
  5
2B636
102
{ACAD_REACTORS
330
2B637
102
}
330
747D
100
AcDbEntity
  8
寸法
 62
     7
 48
50.0
100
AcDbMText
 10
6484.865298121774
 20
1395.949685014306
 30
0.0
 40
80.0
 41
0.8
 71
     6
 72
     1
  1
\A1;D10@300
  7
STYLE2
 73
     1
 44
1.0
1001
ACAD
1000
MTEXTBEGIN
1070
    73
1070
     1
1070
    44
1040
1.0
1070
    74
1070
     0
1000
MTEXTEND
  0
LEADER
  5
2B637
330
747D
100
AcDbEntity
  8
寸法
 48
50.0
100
AcDbLeader
  3
INABA_S50G
 71
     0
 73
     0
 75
     1
 40
100.0
 41
540.3409090909091
 76
     3
 10
6678.115352344578
 20
1552.776296893972
 30
0.0
 10
6620.133115815881
 20
1331.305968353167
 30
0.0
 10
6495.133115815881
 20
1331.305968353167
 30
0.0
213
-9.732182305893367
223
-4.643716661138569
233
0.0
1001
ACAD
1000
DSTYLE
1002
{
1070
    40
1040
1.0
1070
   272
1070
     1
1070
   279
1070
     1
1070
   341
1005
0
1002
}
  0
LEADER
  5
2B638
330
747D
100
AcDbEntity
  8
寸法
 48
50.0
100
AcDbLeader
  3
INABA_S50G
 71
     0
 73
     0
 75
     1
 40
130.1136363636363
 41
651.1363636363636
 76
     3
 10
6654.115352344579
 20
1794.649082196849
 30
0.0
 10
6541.690772180562
 20
1935.119847653437
 30
0.0
 10
6416.690772180562
 20
1935.119847653437
 30
0.0
1001
ACAD
1000
DSTYLE
1002
{
1070
    40
1040
1.0
1070
   272
1070
     1
1070
   279
1070
     1
1070
   341
1005
0
1002
}
  0
MTEXT
  5
2B639
102
{ACAD_REACTORS
330
2B638
102
}
330
747D
100
AcDbEntity
  8
寸法
 62
     7
 48
50.0
100
AcDbMText
 10
6354.016872861305
 20
2007.165302198892
 30
0.0
 40
80.0
 41
0.8
 71
     6
 72
     1
  1
\A1;金コテ押エ
  7
STYLE2
 73
     1
 44
1.0
1001
ACAD
1000
MTEXTBEGIN
1070
    73
1070
     1
1070
    44
1040
1.0
1070
    74
1070
     0
1000
MTEXTEND
  0
DIMENSION
  5
2B63A
330
747D
100
AcDbEntity
  8
寸法
 48
50.0
100
AcDbDimension
  2
*D49
 10
5839.078113782838
 20
1010.649082196849
 30
0.0
 11
5839.078113782838
 21
1382.18923185285
 31
0.0
 70
   160
  1
540
 71
     5
 42
784.0
  3
INABA_S40G
100
AcDbAlignedDimension
 13
6574.115352344579
 23
1794.649082196849
 33
0.0
 14
6366.115352344582
 24
1010.649082196849
 34
0.0
 50
90.0
100
AcDbRotatedDimension
1001
ACAD
1000
DSTYLE
1002
{
1070
   341
1005
0
1002
}
  0
MTEXT
  5
2B63B
102
{ACAD_REACTORS
330
2B635
102
}
330
747D
100
AcDbEntity
  8
寸法
 62
     7
 48
50.0
100
AcDbMText
 10
6303.303053706819
 20
746.8102360389694
 30
0.0
 40
80.0
 41
0.8
 71
     6
 72
     1
  1
D13
  7
STYLE2
 73
     1
 44
1.0
1001
ACAD
1000
MTEXTBEGIN
1070
    73
1070
     1
1070
    44
1040
1.0
1070
    74
1070
     0
1000
MTEXTEND
  0
MTEXT
  5
2B63C
102
{ACAD_REACTORS
330
2B634
102
}
330
747D
100
AcDbEntity
  8
寸法
 62
     7
 48
50.0
100
AcDbMText
 10
6275.180326149384
 20
927.1263885784128
 30
0.0
 40
80.0
 41
0.8
 71
     6
 72
     1
  1
D10
  7
STYLE2
 73
     1
 44
1.0
1001
ACAD
1000
MTEXTBEGIN
1070
    73
1070
     1
1070
    44
1040
1.0
1070
    74
1070
     0
1000
MTEXTEND
  0
DIMENSION
  5
2B63D
330
747D
100
AcDbEntity
  8
寸法
 48
50.0
100
AcDbDimension
  2
*D50
 10
6894.115352344577
 20
472.219444191689
 30
0.0
 11
6650.018593666354
 21
472.219444191689
 31
0.0
 70
   160
  1
300
 71
     5
 42
448.0
  3
INABA_S40G
100
AcDbAlignedDimension
 13
6446.115352344579
 23
882.6490821968491
 33
0.0
 14
6894.115352344577
 24
882.6490821968491
 34
0.0
100
AcDbRotatedDimension
1001
ACAD
1000
DSTYLE
1002
{
1070
   341
1005
0
1002
}
  0
MTEXT
  5
2B63E
102
{ACAD_REACTORS
330
2B63F
102
}
330
747D
100
AcDbEntity
  8
寸法
 62
     7
 48
50.0
100
AcDbMText
 10
8207.130593176833
 20
2316.450475095001
 30
0.0
 40
80.0
 41
0.8
 71
     6
 72
     1
  1
\A1;アンカープレート L
  7
STYLE2
 73
     1
 44
1.0
1001
ACAD
1000
MTEXTBEGIN
1070
    73
1070
     1
1070
    44
1040
1.0
1070
    74
1070
     0
1000
MTEXTEND
  0
LEADER
  5
2B63F
330
747D
100
AcDbEntity
  8
寸法
 48
50.0
100
AcDbLeader
  3
INABA_S50G
 73
     0
 75
     1
 40
106.3636363636363
 41
893.1818181818181
 76
     3
 10
8405.554665521774
 20
1864.20908219685
 30
0.0
 10
8357.130593176833
 20
2238.268656913183
 30
0.0
 10
8232.130593176833
 20
2238.268656913183
 30
0.0
340
2B63E
1001
ACAD
1000
DSTYLE
1002
{
1070
   341
1005
0
1070
    40
1040
1.0
1070
   343
1005
0
1070
   344
1005
0
1002
}
  0
LINE
  5
2B640
330
747D
100
AcDbEntity
  8
細線
 48
50.0
100
AcDbLine
 10
6694.115352344579
 20
1633.02197486468
 30
0.0
 11
6766.115352344579
 21
1705.021974864679
 31
0.0
  0
ARC
  5
2B641
330
747D
100
AcDbEntity
  8
部品1
 48
50.0
100
AcDbCircle
 10
6670.11535234458
 20
1654.903511591095
 30
0.0
 40
24.0
100
AcDbArc
 50
0.0
 51
180.0
  0
CIRCLE
  5
2B642
330
747D
100
AcDbEntity
  8
部品1
 48
50.0
100
AcDbCircle
 10
6670.11535234458
 20
1654.903511591095
 30
0.0
 40
8.0
  0
LINE
  5
2B643
330
747D
100
AcDbEntity
  8
部品1
 48
50.0
100
AcDbLine
 10
6574.115352344579
 20
1250.649082196849
 30
0.0
 11
6574.115352344579
 21
1794.649082196849
 31
0.0
  0
LINE
  5
2B644
330
747D
100
AcDbEntity
  8
部品1
 48
50.0
100
AcDbLine
 10
6766.115352344579
 20
1794.649082196849
 30
0.0
 11
6766.115352344579
 21
1250.649082196849
 31
0.0
  0
MTEXT
  5
2B645
102
{ACAD_REACTORS
330
2B64A
102
}
330
747D
100
AcDbEntity
  8
寸法
 62
     7
 48
50.0
100
AcDbMText
 10
6849.001289371973
 20
1817.20498148966
 30
0.0
 40
80.0
 41
0.8
 71
     4
 72
     1
  1
D13
  7
STYLE2
 73
     1
 44
1.0
1001
ACAD
1000
MTEXTBEGIN
1070
    73
1070
     1
1070
    44
1040
1.0
1070
    74
1070
     0
1000
MTEXTEND
  0
LEADER
  5
2B646
330
747D
100
AcDbEntity
  8
寸法
 48
50.0
100
AcDbLeader
  3
INABA_S50G
 71
     0
 73
     0
 74
     0
 75
     1
 40
100.0
 41
225.0
 76
     3
 10
6798.018304696721
 20
1130.649082196849
 30
0.0
 10
6852.443012151264
 20
1035.252013253876
 30
0.0
 10
6977.443012151264
 20
1035.252013253876
 30
0.0
1001
ACAD
1000
DSTYLE
1002
{
1070
    40
1040
1.0
1070
   272
1070
     1
1070
   279
1070
     1
1070
   341
1005
0
1002
}
  0
LEADER
  5
2B647
330
747D
100
AcDbEntity
  8
寸法
 48
50.0
100
AcDbLeader
  3
INABA_S50G
 71
     0
 73
     0
 74
     0
 75
     1
 40
100.0
 41
540.3409090909091
 76
     3
 10
6744.060521357752
 20
1113.908551783324
 30
0.0
 10
6862.85380820583
 20
772.2777337884263
 30
0.0
 10
6987.85380820583
 20
772.2777337884263
 30
0.0
213
0.0
223
-1.022262676269383
233
0.0
1001
ACAD
1000
DSTYLE
1002
{
1070
    40
1040
1.0
1070
   272
1070
     1
1070
   279
1070
     1
1070
   341
1005
0
1002
}
  0
MTEXT
  5
2B648
102
{ACAD_REACTORS
330
2B646
102
}
330
747D
100
AcDbEntity
  8
寸法
 62
     7
 48
50.0
100
AcDbMText
 10
6997.443012151264
 20
1095.252013253876
 30
0.0
 40
80.0
 41
0.8
 71
     4
 72
     1
  1
D10
  7
STYLE2
 73
     1
 44
1.0
1001
ACAD
1000
MTEXTBEGIN
1070
    73
1070
     1
1070
    44
1040
1.0
1070
    74
1070
     0
1000
MTEXTEND
  0
LWPOLYLINE
  5
2B649
330
747D
100
AcDbEntity
  8
部品1
 48
50.0
100
AcDbPolyline
 90
        2
 70
     0
 43
8.0
 10
6766.115352344579
 20
1554.64908219685
 10
7180.255254177535
 20
1554.64908219685
  0
LEADER
  5
2B64A
330
747D
100
AcDbEntity
  8
寸法
 48
50.0
100
AcDbLeader
  3
INABA_S50G
 71
     0
 73
     0
 74
     0
 75
     1
 40
100.0
 41
222.7272727272727
 76
     3
 10
6670.115352344578
 20
1654.903511591095
 30
0.0
 10
6724.001289371973
 20
1754.139084444268
 30
0.0
 10
6849.001289371973
 20
1754.139084444268
 30
0.0
1001
ACAD
1000
DSTYLE
1002
{
1070
    40
1040
1.0
1070
   272
1070
     1
1070
   279
1070
     1
1070
   341
1005
0
1002
}
  0
LINE
  5
2B64B
330
747D
100
AcDbEntity
  8
細線
 48
50.0
100
AcDbLine
 10
6446.115352344572
 20
1169.49582795902
 30
0.0
 11
6527.268606582407
 21
1250.649082196849
 31
0.0
  0
LINE
  5
2B64C
330
747D
100
AcDbEntity
  8
細線
 48
50.0
100
AcDbLine
 10
6653.981199821983
 20
1188.776296893971
 30
0.0
 11
6678.115352344585
 21
1212.91044941657
 31
0.0
  0
LINE
  5
2B64D
330
747D
100
AcDbEntity
  8
細線
 48
50.0
100
AcDbLine
 10
6560.913216761652
 20
1122.649082196849
 30
0.0
 11
6678.11535234458
 21
1239.851217779775
 31
0.0
  0
LINE
  5
2B64E
330
747D
100
AcDbEntity
  8
部品1
 48
50.0
100
AcDbLine
 10
6446.115352344579
 20
1010.649082196849
 30
0.0
 11
6446.115352344579
 21
1250.649082196849
 31
0.0
  0
LINE
  5
2B64F
330
747D
100
AcDbEntity
  8
細線
 48
50.0
100
AcDbLine
 10
6803.380132030523
 20
1122.649082196849
 30
0.0
 11
6894.115352344579
 21
1213.384302510908
 31
0.0
  0
LINE
  5
2B650
330
747D
100
AcDbEntity
  8
細線
 48
50.0
100
AcDbLine
 10
6776.439363667306
 20
1122.649082196849
 30
0.0
 11
6894.115352344579
 21
1240.325070874115
 31
0.0
  0
LINE
  5
2B651
330
747D
100
AcDbEntity
  8
部品1
 48
50.0
100
AcDbLine
 10
6894.115352344579
 20
1250.649082196849
 30
0.0
 11
6894.115352344579
 21
1010.649082196849
 31
0.0
  0
LINE
  5
2B652
330
747D
100
AcDbEntity
  8
部品1
 48
50.0
100
AcDbLine
 10
6694.115352344585
 20
1130.649082196849
 30
0.0
 11
6694.115352344579
 21
1654.903511591095
 31
0.0
  0
LINE
  5
2B653
330
747D
100
AcDbEntity
  8
部品1
 48
50.0
100
AcDbLine
 10
6678.115352344585
 20
1130.649082196849
 30
0.0
 11
6678.115352344573
 21
1654.903511591095
 31
0.0
  0
LINE
  5
2B654
330
747D
100
AcDbEntity
  8
細線
 48
50.0
100
AcDbLine
 10
6662.11535234458
 20
1169.96968105336
 30
0.0
 11
6678.115352344585
 21
1185.96968105336
 31
0.0
  0
LINE
  5
2B655
330
747D
100
AcDbEntity
  8
細線
 48
50.0
100
AcDbLine
 10
6651.298191840592
 20
882.6490821968491
 30
0.0
 11
6685.595688471775
 21
1010.649082196849
 31
0.0
  0
LINE
  5
2B656
330
747D
100
AcDbEntity
  8
部品1
 48
50.0
100
AcDbLine
 10
6974.115352344583
 20
882.6490821968491
 30
0.0
 11
6366.115352344581
 21
882.6490821968491
 31
0.0
  0
LINE
  5
2B657
330
747D
100
AcDbEntity
  8
部品1
 48
50.0
100
AcDbLine
 10
6502.115352344579
 20
1106.649082196849
 30
0.0
 11
6838.115352344579
 21
1106.649082196849
 31
0.0
  0
LINE
  5
2B658
330
747D
100
AcDbEntity
  8
部品1
 48
50.0
100
AcDbLine
 10
6502.115352344579
 20
1122.649082196849
 30
0.0
 11
6838.115352344579
 21
1122.649082196849
 31
0.0
  0
LINE
  5
2B659
330
747D
100
AcDbEntity
  8
部品1
 48
50.0
100
AcDbLine
 10
6974.115352344583
 20
1010.649082196849
 30
0.0
 11
6366.115352344581
 21
1010.649082196849
 31
0.0
  0
CIRCLE
  5
2B65A
330
747D
100
AcDbEntity
  8
部品1
 48
50.0
100
AcDbCircle
 10
6670.11535234458
 20
1130.649082196849
 30
0.0
 40
8.0
  0
LINE
  5
2B65B
330
747D
100
AcDbEntity
  8
細線
 48
50.0
100
AcDbLine
 10
6664.439363667312
 20
1010.649082196849
 30
0.0
 11
6760.439363667313
 21
1106.649082196849
 31
0.0
  0
LINE
  5
2B65C
330
747D
100
AcDbEntity
  8
細線
 48
50.0
100
AcDbLine
 10
6493.522101946095
 20
882.6490821968491
 30
0.0
 11
6527.819598577278
 21
1010.649082196849
 31
0.0
  0
LINE
  5
2B65D
330
747D
100
AcDbEntity
  8
細線
 48
50.0
100
AcDbLine
 10
6572.410146893341
 20
882.6490821968473
 30
0.0
 11
6606.707643524524
 21
1010.649082196847
 31
0.0
  0
LINE
  5
2B65E
330
747D
100
AcDbEntity
  8
細線
 48
50.0
100
AcDbLine
 10
6414.634056998837
 20
882.6490821968473
 30
0.0
 11
6448.93155363002
 21
1010.649082196847
 31
0.0
  0
LINE
  5
2B65F
330
747D
100
AcDbEntity
  8
部品1
 48
50.0
100
AcDbLine
 10
6366.115352344581
 20
882.6490821968491
 30
0.0
 11
6366.115352344581
 21
1010.649082196849
 31
0.0
  0
LINE
  5
2B660
330
747D
100
AcDbEntity
  8
細線
 48
50.0
100
AcDbLine
 10
6499.952882564442
 20
906.6490821968491
 30
0.0
 11
6506.38366318279
 21
882.6490821968491
 31
0.0
  0
LINE
  5
2B661
330
747D
100
AcDbEntity
  8
細線
 48
50.0
100
AcDbLine
 10
6421.064837617191
 20
906.6490821968491
 30
0.0
 11
6427.495618235536
 21
882.6490821968491
 31
0.0
  0
LINE
  5
2B662
330
747D
100
AcDbEntity
  8
細線
 48
50.0
100
AcDbLine
 10
6657.728972458946
 20
906.6490821968491
 30
0.0
 11
6664.159753077292
 21
882.6490821968491
 31
0.0
  0
LINE
  5
2B663
330
747D
100
AcDbEntity
  8
細線
 48
50.0
100
AcDbLine
 10
6578.840927511693
 20
906.6490821968491
 30
0.0
 11
6585.27170813004
 21
882.6490821968491
 31
0.0
  0
LINE
  5
2B664
330
747D
100
AcDbEntity
  8
細線
 48
50.0
100
AcDbLine
 10
6475.853985124863
 20
1010.649082196849
 30
0.0
 11
6571.853985124862
 21
1106.649082196849
 31
0.0
  0
LINE
  5
2B665
330
747D
100
AcDbEntity
  8
細線
 48
50.0
100
AcDbLine
 10
6448.913216761652
 20
1010.649082196849
 30
0.0
 11
6544.913216761651
 21
1106.649082196849
 31
0.0
  0
LINE
  5
2B666
330
747D
100
AcDbEntity
  8
部品1
 48
50.0
100
AcDbLine
 10
6502.115352344579
 20
1122.649082196849
 30
0.0
 11
6502.115352344579
 21
1106.649082196849
 31
0.0
  0
LINE
  5
2B667
330
747D
100
AcDbEntity
  8
細線
 48
50.0
100
AcDbLine
 10
6442.500773011679
 20
986.6490821968492
 30
0.0
 11
6436.069992393331
 21
1010.649082196849
 31
0.0
  0
LINE
  5
2B668
330
747D
100
AcDbEntity
  8
細線
 48
50.0
100
AcDbLine
 10
6366.115352344579
 20
995.9890031626292
 30
0.0
 11
6370.043508682774
 21
1010.649082196849
 31
0.0
  0
LINE
  5
2B669
330
747D
100
AcDbEntity
  8
部品1
 48
50.0
100
AcDbLine
 10
6662.11535234458
 20
1188.776296893971
 30
0.0
 11
6646.115352344579
 21
1188.776296893971
 31
0.0
  0
CIRCLE
  5
2B66A
330
747D
100
AcDbEntity
  8
部品1
 48
50.0
100
AcDbCircle
 10
6542.11535234458
 20
1130.649082196849
 30
0.0
 40
8.0
  0
LINE
  5
2B66B
330
747D
100
AcDbEntity
  8
細線
 48
50.0
100
AcDbLine
 10
6614.794753488067
 20
1122.649082196849
 30
0.0
 11
6646.115352344579
 21
1153.96968105336
 31
0.0
  0
ARC
  5
2B66C
330
747D
100
AcDbEntity
  8
部品1
 48
50.0
100
AcDbCircle
 10
6670.11535234458
 20
1130.649082196849
 30
0.0
 40
24.0
100
AcDbArc
 50
180.0
 51
199.4712206344728
  0
LINE
  5
2B66D
330
747D
100
AcDbEntity
  8
細線
 48
50.0
100
AcDbLine
 10
6521.38881795893
 20
986.6490821968492
 30
0.0
 11
6514.958037340583
 21
1010.649082196849
 31
0.0
  0
LINE
  5
2B66E
330
747D
100
AcDbEntity
  8
細線
 48
50.0
100
AcDbLine
 10
6600.276862906183
 20
986.6490821968492
 30
0.0
 11
6593.846082287837
 21
1010.649082196849
 31
0.0
  0
LINE
  5
2B66F
330
747D
100
AcDbEntity
  8
細線
 48
50.0
100
AcDbLine
 10
6502.794753488068
 20
1010.649082196849
 30
0.0
 11
6598.794753488068
 21
1106.649082196849
 31
0.0
  0
LINE
  5
2B670
330
747D
100
AcDbEntity
  8
部品1
 48
50.0
100
AcDbLine
 10
6646.115352344579
 20
1188.776296893971
 30
0.0
 11
6646.115352344579
 21
1130.649082196849
 31
0.0
  0
LINE
  5
2B671
330
747D
100
AcDbEntity
  8
細線
 48
50.0
100
AcDbLine
 10
6587.853985124863
 20
1122.649082196849
 30
0.0
 11
6646.115352344579
 21
1180.910449416567
 31
0.0
  0
LINE
  5
2B672
330
747D
100
AcDbEntity
  8
部品1
 48
50.0
100
AcDbLine
 10
6662.11535234458
 20
1188.776296893971
 30
0.0
 11
6662.11535234458
 21
1130.649082196849
 31
0.0
  0
LINE
  5
2B673
330
747D
100
AcDbEntity
  8
部品1
 48
50.0
100
AcDbLine
 10
6974.115352344583
 20
1010.649082196849
 30
0.0
 11
6974.115352344583
 21
882.6490821968491
 31
0.0
  0
LINE
  5
2B674
330
747D
100
AcDbEntity
  8
細線
 48
50.0
100
AcDbLine
 10
6887.962326682333
 20
882.6490821968491
 30
0.0
 11
6922.259823313517
 21
1010.649082196847
 31
0.0
  0
LINE
  5
2B675
330
747D
100
AcDbEntity
  8
細線
 48
50.0
100
AcDbLine
 10
6730.186236787838
 20
882.6490821968491
 30
0.0
 11
6764.483733419026
 21
1010.649082196847
 31
0.0
  0
LINE
  5
2B676
330
747D
100
AcDbEntity
  8
細線
 48
50.0
100
AcDbLine
 10
6809.074281735087
 20
882.6490821968473
 30
0.0
 11
6843.371778366273
 21
1010.649082196847
 31
0.0
  0
LINE
  5
2B677
330
747D
100
AcDbEntity
  8
細線
 48
50.0
100
AcDbLine
 10
6815.505062353437
 20
906.6490821968491
 30
0.0
 11
6821.935842971786
 21
882.6490821968491
 31
0.0
  0
LINE
  5
2B678
330
747D
100
AcDbEntity
  8
細線
 48
50.0
100
AcDbLine
 10
6736.617017406192
 20
906.6490821968491
 30
0.0
 11
6743.047798024538
 21
882.6490821968491
 31
0.0
  0
LINE
  5
2B679
330
747D
100
AcDbEntity
  8
細線
 48
50.0
100
AcDbLine
 10
6894.393107300685
 20
906.6490821968491
 30
0.0
 11
6900.823887919033
 21
882.6490821968491
 31
0.0
  0
LINE
  5
2B67A
330
747D
100
AcDbEntity
  8
細線
 48
50.0
100
AcDbLine
 10
6973.281152247931
 20
906.6490821968491
 30
0.0
 11
6974.115352344579
 21
903.5358050524846
 31
0.0
  0
LINE
  5
2B67B
330
747D
100
AcDbEntity
  8
細線
 48
50.0
100
AcDbLine
 10
6966.850371629582
 20
882.6490821968473
 30
0.0
 11
6974.115352344579
 21
909.7623593412372
 31
0.0
  0
LINE
  5
2B67C
330
747D
100
AcDbEntity
  8
細線
 48
50.0
100
AcDbLine
 10
6830.320900393727
 20
1122.649082196849
 30
0.0
 11
6894.115352344579
 21
1186.4435341477
 31
0.0
  0
CIRCLE
  5
2B67D
330
747D
100
AcDbEntity
  8
部品1
 48
50.0
100
AcDbCircle
 10
6798.11535234458
 20
1130.649082196849
 30
0.0
 40
8.0
  0
ARC
  5
2B67E
330
747D
100
AcDbEntity
  8
部品1
 48
50.0
100
AcDbCircle
 10
6670.11535234458
 20
1130.649082196849
 30
0.0
 40
24.0
100
AcDbArc
 50
340.5287793655272
 51
0.0
  0
LINE
  5
2B67F
330
747D
100
AcDbEntity
  8
細線
 48
50.0
100
AcDbLine
 10
6679.164907853436
 20
986.6490821968492
 30
0.0
 11
6672.734127235088
 21
1010.649082196849
 31
0.0
  0
LINE
  5
2B680
330
747D
100
AcDbEntity
  8
細線
 48
50.0
100
AcDbLine
 10
6758.052952800681
 20
986.6490821968492
 30
0.0
 11
6751.622172182336
 21
1010.649082196849
 31
0.0
  0
LINE
  5
2B681
330
747D
100
AcDbEntity
  8
細線
 48
50.0
100
AcDbLine
 10
6691.380132030523
 20
1010.649082196849
 30
0.0
 11
6787.380132030524
 21
1106.649082196849
 31
0.0
  0
LINE
  5
2B682
330
747D
100
AcDbEntity
  8
細線
 48
50.0
100
AcDbLine
 10
6718.320900393726
 20
1010.649082196849
 30
0.0
 11
6814.321788238864
 21
1106.649970041988
 31
0.0
  0
LINE
  5
2B683
330
747D
100
AcDbEntity
  8
部品1
 48
50.0
100
AcDbLine
 10
6838.115352344579
 20
1122.649082196849
 30
0.0
 11
6838.115352344579
 21
1106.649082196849
 31
0.0
  0
LINE
  5
2B684
330
747D
100
AcDbEntity
  8
細線
 48
50.0
100
AcDbLine
 10
6915.829042695174
 20
986.6490821968492
 30
0.0
 11
6909.398262076826
 21
1010.649082196849
 31
0.0
  0
LINE
  5
2B685
330
747D
100
AcDbEntity
  8
細線
 48
50.0
100
AcDbLine
 10
6879.965510572972
 20
1010.649082196849
 30
0.0
 11
6894.115352344579
 21
1024.798923968456
 31
0.0
  0
LINE
  5
2B686
330
747D
100
AcDbEntity
  8
細線
 48
50.0
100
AcDbLine
 10
6836.940997747927
 20
986.6490821968492
 30
0.0
 11
6830.51021712958
 21
1010.649082196849
 31
0.0
  0
LINE
  5
2B687
330
747D
100
AcDbEntity
  8
細線
 48
50.0
100
AcDbLine
 10
6574.115352344579
 20
1324.436596322227
 30
0.0
 11
6678.115352344585
 21
1428.43659632223
 31
0.0
  0
LINE
  5
2B688
330
747D
100
AcDbEntity
  8
細線
 48
50.0
100
AcDbLine
 10
6574.115352344579
 20
1351.377364685435
 30
0.0
 11
6678.11535234458
 21
1455.377364685435
 31
0.0
  0
LINE
  5
2B689
330
747D
100
AcDbEntity
  8
細線
 48
50.0
100
AcDbLine
 10
6574.115352344579
 20
1297.49582795902
 30
0.0
 11
6678.115352344585
 21
1401.49582795902
 31
0.0
  0
LINE
  5
2B68A
330
747D
100
AcDbEntity
  8
細線
 48
50.0
100
AcDbLine
 10
6662.11535234458
 20
1601.02197486468
 30
0.0
 11
6678.11535234458
 21
1617.02197486468
 31
0.0
  0
LINE
  5
2B68B
330
747D
100
AcDbEntity
  8
細線
 48
50.0
100
AcDbLine
 10
6662.11535234458
 20
1627.962743227887
 30
0.0
 11
6678.11535234458
 21
1643.962743227887
 31
0.0
  0
LINE
  5
2B68C
330
747D
100
AcDbEntity
  8
部品1
 48
50.0
100
AcDbLine
 10
6446.115352344579
 20
1250.649082196849
 30
0.0
 11
6574.115352344579
 21
1250.649082196849
 31
0.0
  0
LINE
  5
2B68D
330
747D
100
AcDbEntity
  8
細線
 48
50.0
100
AcDbLine
 10
6446.115352344572
 20
1196.436596322224
 30
0.0
 11
6500.327838219203
 21
1250.649082196849
 31
0.0
  0
LINE
  5
2B68E
330
747D
100
AcDbEntity
  8
細線
 48
50.0
100
AcDbLine
 10
6446.115352344572
 20
1223.377364685435
 30
0.0
 11
6473.387069855992
 21
1250.649082196849
 31
0.0
  0
LINE
  5
2B68F
330
747D
100
AcDbEntity
  8
部品1
 48
50.0
100
AcDbLine
 10
6662.11535234458
 20
1596.776296893971
 30
0.0
 11
6646.115352344579
 21
1596.776296893975
 31
0.0
  0
LINE
  5
2B690
330
747D
100
AcDbEntity
  8
細線
 48
50.0
100
AcDbLine
 10
6574.115352344579
 20
1513.021974864679
 30
0.0
 11
6657.869674373873
 21
1596.776296893971
 31
0.0
  0
LINE
  5
2B691
330
747D
100
AcDbEntity
  8
細線
 48
50.0
100
AcDbLine
 10
6574.115352344579
 20
1539.962743227887
 30
0.0
 11
6646.115352344579
 21
1611.962743227887
 31
0.0
  0
LINE
  5
2B692
330
747D
100
AcDbEntity
  8
部品1
 48
50.0
100
AcDbLine
 10
6646.115352344579
 20
1596.776296893975
 30
0.0
 11
6646.115352344579
 21
1654.903511591095
 31
0.0
  0
LINE
  5
2B693
330
747D
100
AcDbEntity
  8
細線
 48
50.0
100
AcDbLine
 10
6574.115352344579
 20
1566.903511591094
 30
0.0
 11
6646.115352344579
 21
1638.903511591094
 31
0.0
  0
LINE
  5
2B694
330
747D
100
AcDbEntity
  8
部品1
 48
50.0
100
AcDbLine
 10
6662.11535234458
 20
1596.776296893971
 30
0.0
 11
6662.11535234458
 21
1654.903511591095
 31
0.0
  0
LINE
  5
2B695
330
747D
100
AcDbEntity
  8
細線
 48
50.0
100
AcDbLine
 10
6694.115352344585
 20
1417.49582795902
 30
0.0
 11
6766.115352344572
 21
1489.49582795902
 31
0.0
  0
LINE
  5
2B696
330
747D
100
AcDbEntity
  8
部品1
 48
50.0
100
AcDbLine
 10
6766.115352344579
 20
1250.649082196849
 30
0.0
 11
6894.115352344579
 21
1250.649082196849
 31
0.0
  0
LINE
  5
2B697
330
747D
100
AcDbEntity
  8
細線
 48
50.0
100
AcDbLine
 10
6694.115352344585
 20
1228.91044941657
 30
0.0
 11
6766.115352344572
 21
1300.910449416565
 31
0.0
  0
LINE
  5
2B698
330
747D
100
AcDbEntity
  8
細線
 48
50.0
100
AcDbLine
 10
6694.115352344585
 20
1255.851217779778
 30
0.0
 11
6766.115352344572
 21
1327.851217779774
 31
0.0
  0
LINE
  5
2B699
330
747D
100
AcDbEntity
  8
細線
 48
50.0
100
AcDbLine
 10
6694.115352344585
 20
1201.96968105336
 30
0.0
 11
6766.115352344572
 21
1273.96968105336
 31
0.0
  0
LINE
  5
2B69A
330
747D
100
AcDbEntity
  8
細線
 48
50.0
100
AcDbLine
 10
6694.115352344579
 20
1471.377364685435
 30
0.0
 11
6766.115352344579
 21
1543.377364685435
 31
0.0
  0
LINE
  5
2B69B
330
747D
100
AcDbEntity
  8
細線
 48
50.0
100
AcDbLine
 10
6694.115352344585
 20
1444.43659632223
 30
0.0
 11
6766.115352344572
 21
1516.436596322224
 31
0.0
  0
MTEXT
  5
2B69C
102
{ACAD_REACTORS
330
2B647
102
}
330
747D
100
AcDbEntity
  8
寸法
 62
     7
 48
50.0
100
AcDbMText
 10
7007.85380820583
 20
833.299996464696
 30
0.0
 40
80.0
 41
0.8
 71
     4
 72
     1
  1
\A1;D10@300
  7
STYLE2
 73
     1
 44
1.0
1001
ACAD
1000
MTEXTBEGIN
1070
    73
1070
     1
1070
    44
1040
1.0
1070
    74
1070
     0
1000
MTEXTEND
  0
DIMENSION
  5
2B69D
330
747D
100
AcDbEntity
  8
寸法
 48
50.0
100
AcDbDimension
  2
*D51
 10
6574.115352344579
 20
2214.316890113229
 30
0.0
 11
6670.115352344578
 21
2214.316890113229
 31
0.0
 70
   160
  1
120\P200\P280
 71
     5
 42
192.0
  3
INABA_S40G
100
AcDbAlignedDimension
 13
6766.115352344579
 23
1794.649082196849
 33
0.0
 14
6574.115352344579
 24
1794.649082196849
 34
0.0
100
AcDbRotatedDimension
1001
ACAD
1000
DSTYLE
1002
{
1070
   341
1005
0
1002
}
  0
LINE
  5
2B69E
330
747D
100
AcDbEntity
  8
部品1
 48
50.0
100
AcDbLine
 10
6574.115352344579
 20
1794.649082196849
 30
0.0
 11
6766.115352344579
 21
1794.649082196849
 31
0.0
  0
LINE
  5
2B69F
330
747D
100
AcDbEntity
  8
細線
 48
50.0
100
AcDbLine
 10
6574.115352344579
 20
1755.488890133547
 30
0.0
 11
6613.275544407883
 21
1794.649082196849
 31
0.0
  0
LINE
  5
2B6A0
330
747D
100
AcDbEntity
  8
細線
 48
50.0
100
AcDbLine
 10
6574.115352344579
 20
1728.548121770339
 30
0.0
 11
6640.216312771087
 21
1794.649082196849
 31
0.0
  0
LINE
  5
2B6A1
330
747D
100
AcDbEntity
  8
細線
 48
50.0
100
AcDbLine
 10
6574.115352344579
 20
1782.429658496754
 30
0.0
 11
6586.334776044674
 21
1794.649082196849
 31
0.0
  0
LINE
  5
2B6A2
330
747D
100
AcDbEntity
  8
細線
 48
50.0
100
AcDbLine
 10
6693.668059610565
 20
1659.515450493871
 30
0.0
 11
6766.115352344579
 21
1731.962743227887
 31
0.0
  0
LINE
  5
2B6A3
330
747D
100
AcDbEntity
  8
細線
 48
50.0
100
AcDbLine
 10
6682.607774847049
 20
1675.395934093565
 30
0.0
 11
6766.115352344579
 21
1758.903511591094
 31
0.0
  0
LINE
  5
2B6A4
330
747D
100
AcDbEntity
  8
細線
 48
50.0
100
AcDbLine
 10
8558.554665521773
 20
1635.777364685437
 30
0.0
 11
8688.154665521771
 21
1765.377364685436
 31
0.0
  0
LINE
  5
2B6A5
330
747D
100
AcDbEntity
  8
部品1
100
AcDbLine
 10
8688.154665521771
 20
1250.649082196849
 30
0.0
 11
8688.154665521771
 21
1794.649082196849
 31
0.0
  0
LINE
  5
2B6A6
330
747D
100
AcDbEntity
  8
部品1
 48
50.0
100
AcDbLine
 10
8274.154665521772
 20
1250.649082196849
 30
0.0
 11
8274.154665521772
 21
1794.649082196849
 31
0.0
  0
LINE
  5
2B6A7
330
747D
100
AcDbEntity
  8
細線
 48
50.0
100
AcDbLine
 10
8274.154665521772
 20
1566.903511591094
 30
0.0
 11
8432.554665521772
 21
1725.303511591091
 31
0.0
  0
LINE
  5
2B6A8
330
747D
100
AcDbEntity
  8
細線
 48
50.0
100
AcDbLine
 10
8274.154665521772
 20
1539.962743227887
 30
0.0
 11
8432.554665521772
 21
1698.362743227884
 31
0.0
  0
LINE
  5
2B6A9
330
747D
100
AcDbEntity
  8
細線
 48
50.0
100
AcDbLine
 10
8274.154665521772
 20
1513.021974864679
 30
0.0
 11
8432.554665521768
 21
1671.421974864672
 31
0.0
  0
TEXT
  5
2B6AA
330
747D
100
AcDbEntity
  8
部品1
 48
50.0
100
AcDbText
 10
7860.014763688816
 20
1565.888074480104
 30
0.0
 40
80.0
  1
▽G.L
  7
STYLE2
100
AcDbText
  0
LINE
  5
2B6AB
330
747D
100
AcDbEntity
  8
部品1
100
AcDbLine
 10
8504.554665521773
 20
1569.649082196849
 30
0.0
 11
8504.554665521769
 21
1843.80908219685
 31
0.0
  0
LINE
  5
2B6AC
330
747D
100
AcDbEntity
  8
部品1
100
AcDbLine
 10
8486.554665521772
 20
1569.649082196849
 30
0.0
 11
8486.55466552177
 21
1843.80908219685
 31
0.0
  0
LINE
  5
2B6AD
330
747D
100
AcDbEntity
  8
細線
 48
50.0
100
AcDbLine
 10
8558.554665521773
 20
1581.895827959008
 30
0.0
 11
8688.154665521771
 21
1711.495827958999
 31
0.0
  0
LINE
  5
2B6AE
330
747D
100
AcDbEntity
  8
細線
 48
50.0
100
AcDbLine
 10
8558.554665521773
 20
1608.83659632222
 30
0.0
 11
8688.154665521771
 21
1738.436596322217
 31
0.0
  0
LINE
  5
2B6AF
330
747D
100
AcDbEntity
  8
部品1
100
AcDbLine
 10
8558.554665521773
 20
1470.649082196849
 30
0.0
 11
8558.554665521773
 21
1794.649082196849
 31
0.0
  0
LINE
  5
2B6B0
330
747D
100
AcDbEntity
  8
部品1
100
AcDbLine
 10
8432.554665521767
 20
1470.649082196849
 30
0.0
 11
8432.554665521774
 21
1794.649082196849
 31
0.0
  0
LINE
  5
2B6B1
330
747D
100
AcDbEntity
  8
細線
 48
50.0
100
AcDbLine
 10
8274.154665521772
 20
1324.436596322227
 30
0.0
 11
8432.554665521767
 21
1482.836596322216
 31
0.0
  0
LINE
  5
2B6B2
330
747D
100
AcDbEntity
  8
細線
 48
50.0
100
AcDbLine
 10
8274.154665521772
 20
1297.49582795902
 30
0.0
 11
8447.307919759609
 21
1470.649082196847
 31
0.0
  0
LINE
  5
2B6B3
330
747D
100
AcDbEntity
  8
細線
 48
50.0
100
AcDbLine
 10
8274.154665521772
 20
1351.377364685435
 30
0.0
 11
8432.554665521767
 21
1509.77736468543
 31
0.0
  0
LINE
  5
2B6B4
330
747D
100
AcDbEntity
  8
細線
 48
50.0
100
AcDbLine
 10
8202.834066665262
 20
1010.649082196849
 30
0.0
 11
8688.154665521771
 21
1495.969681053357
 31
0.0
  0
LINE
  5
2B6B5
330
747D
100
AcDbEntity
  8
細線
 48
50.0
100
AcDbLine
 10
8175.893298302057
 20
1010.649082196849
 30
0.0
 11
8688.154665521777
 21
1522.910449416563
 31
0.0
  0
LINE
  5
2B6B6
330
747D
100
AcDbEntity
  8
細線
 48
50.0
100
AcDbLine
 10
8148.952529938847
 20
1010.649082196849
 30
0.0
 11
8688.154665521771
 21
1549.851217779775
 31
0.0
  0
LINE
  5
2B6B7
330
747D
100
AcDbEntity
  8
部品1
 48
50.0
100
AcDbLine
 10
8896.154665521775
 20
1010.649082196849
 30
0.0
 11
8066.154665521775
 21
1010.649082196849
 31
0.0
  0
LINE
  5
2B6B8
330
747D
100
AcDbEntity
  8
部品1
 48
50.0
100
AcDbLine
 10
8896.154665521775
 20
882.6490821968491
 30
0.0
 11
8066.154665521775
 21
882.6490821968491
 31
0.0
  0
LINE
  5
2B6B9
330
747D
100
AcDbEntity
  8
細線
 48
50.0
100
AcDbLine
 10
8146.154665521768
 20
1169.49582795902
 30
0.0
 11
8227.307919759601
 21
1250.649082196849
 31
0.0
  0
LINE
  5
2B6BA
330
747D
100
AcDbEntity
  8
部品1
 48
50.0
100
AcDbLine
 10
8146.154665521772
 20
1010.649082196849
 30
0.0
 11
8146.154665521772
 21
1250.649082196849
 31
0.0
  0
LINE
  5
2B6BB
330
747D
100
AcDbEntity
  8
細線
 48
50.0
100
AcDbLine
 10
8193.561415123289
 20
882.6490821968491
 30
0.0
 11
8227.858911754472
 21
1010.649082196849
 31
0.0
  0
LINE
  5
2B6BC
330
747D
100
AcDbEntity
  8
部品1
 48
50.0
100
AcDbLine
 10
8066.154665521775
 20
882.6490821968491
 30
0.0
 11
8066.154665521775
 21
1010.649082196849
 31
0.0
  0
LINE
  5
2B6BD
330
747D
100
AcDbEntity
  8
細線
 48
50.0
100
AcDbLine
 10
8114.673370176031
 20
882.6490821968473
 30
0.0
 11
8148.970866807214
 21
1010.649082196847
 31
0.0
  0
LINE
  5
2B6BE
330
747D
100
AcDbEntity
  8
細線
 48
50.0
100
AcDbLine
 10
8272.449460070538
 20
882.6490821968473
 30
0.0
 11
8306.746956701719
 21
1010.649082196847
 31
0.0
  0
LINE
  5
2B6BF
330
747D
100
AcDbEntity
  8
細線
 48
50.0
100
AcDbLine
 10
8121.104150794385
 20
906.6490821968491
 30
0.0
 11
8127.53493141273
 21
882.6490821968491
 31
0.0
  0
LINE
  5
2B6C0
330
747D
100
AcDbEntity
  8
細線
 48
50.0
100
AcDbLine
 10
8278.880240688888
 20
906.6490821968491
 30
0.0
 11
8285.311021307235
 21
882.6490821968491
 31
0.0
  0
LINE
  5
2B6C1
330
747D
100
AcDbEntity
  8
細線
 48
50.0
100
AcDbLine
 10
8199.992195741637
 20
906.6490821968491
 30
0.0
 11
8206.422976359984
 21
882.6490821968491
 31
0.0
  0
LINE
  5
2B6C2
330
747D
100
AcDbEntity
  8
細線
 48
50.0
100
AcDbLine
 10
8066.154665521771
 20
995.9890031626292
 30
0.0
 11
8070.082821859967
 21
1010.649082196849
 31
0.0
  0
LINE
  5
2B6C3
330
747D
100
AcDbEntity
  8
細線
 48
50.0
100
AcDbLine
 10
8142.540086188875
 20
986.6490821968492
 30
0.0
 11
8136.109305570528
 21
1010.649082196849
 31
0.0
  0
LINE
  5
2B6C4
330
747D
100
AcDbEntity
  8
細線
 48
50.0
100
AcDbLine
 10
8300.316176083377
 20
986.6490821968492
 30
0.0
 11
8293.88539546503
 21
1010.649082196849
 31
0.0
  0
LINE
  5
2B6C5
330
747D
100
AcDbEntity
  8
細線
 48
50.0
100
AcDbLine
 10
8221.428131136127
 20
986.6490821968492
 30
0.0
 11
8214.997350517778
 21
1010.649082196849
 31
0.0
  0
LWPOLYLINE
  5
2B6C6
330
747D
100
AcDbEntity
  8
部品1
 48
50.0
100
AcDbPolyline
 90
        2
 70
     0
 43
8.0
 10
7860.014763688816
 20
1554.64908219685
 10
8274.154665521772
 20
1554.64908219685
  0
LINE
  5
2B6C7
330
747D
100
AcDbEntity
  8
細線
 48
50.0
100
AcDbLine
 10
8146.154665521768
 20
1196.436596322224
 30
0.0
 11
8200.367151396397
 21
1250.649082196849
 31
0.0
  0
LINE
  5
2B6C8
330
747D
100
AcDbEntity
  8
部品1
 48
50.0
100
AcDbLine
 10
8146.154665521772
 20
1250.649082196849
 30
0.0
 11
8274.154665521772
 21
1250.649082196849
 31
0.0
  0
LINE
  5
2B6C9
330
747D
100
AcDbEntity
  8
細線
 48
50.0
100
AcDbLine
 10
8146.154665521768
 20
1223.377364685435
 30
0.0
 11
8173.426383033186
 21
1250.649082196849
 31
0.0
  0
LINE
  5
2B6CA
330
747D
100
AcDbEntity
  8
細線
 48
50.0
100
AcDbLine
 10
8391.419445207716
 20
1010.649082196849
 30
0.0
 11
8688.154665521771
 21
1307.384302510901
 31
0.0
  0
LINE
  5
2B6CB
330
747D
100
AcDbEntity
  8
細線
 48
50.0
100
AcDbLine
 10
8418.360213570922
 20
1010.649082196849
 30
0.0
 11
8688.154665521771
 21
1280.443534147706
 31
0.0
  0
LINE
  5
2B6CC
330
747D
100
AcDbEntity
  8
細線
 48
50.0
100
AcDbLine
 10
8364.478676844507
 20
1010.649082196849
 30
0.0
 11
8688.154665521771
 21
1334.325070874115
 31
0.0
  0
LINE
  5
2B6CD
330
747D
100
AcDbEntity
  8
細線
 48
50.0
100
AcDbLine
 10
8580.004823750165
 20
1010.649082196849
 30
0.0
 11
8816.154665521771
 21
1246.798923968457
 31
0.0
  0
LINE
  5
2B6CE
330
747D
100
AcDbEntity
  8
細線
 48
50.0
100
AcDbLine
 10
8606.945592113378
 20
1010.649082196849
 30
0.0
 11
8816.154665521771
 21
1219.858155605242
 31
0.0
  0
LINE
  5
2B6CF
330
747D
100
AcDbEntity
  8
部品1
 48
50.0
100
AcDbLine
 10
8816.154665521771
 20
1250.649082196849
 30
0.0
 11
8816.154665521771
 21
1010.649082196849
 31
0.0
  0
LINE
  5
2B6D0
330
747D
100
AcDbEntity
  8
細線
 48
50.0
100
AcDbLine
 10
8633.886360476582
 20
1010.649082196849
 30
0.0
 11
8816.154665521771
 21
1192.917387242045
 31
0.0
  0
LINE
  5
2B6D1
330
747D
100
AcDbEntity
  8
細線
 48
50.0
100
AcDbLine
 10
8509.113594912284
 20
882.6490821968473
 30
0.0
 11
8543.411091543465
 21
1010.649082196847
 31
0.0
  0
LINE
  5
2B6D2
330
747D
100
AcDbEntity
  8
細線
 48
50.0
100
AcDbLine
 10
8351.337505017786
 20
882.6490821968491
 30
0.0
 11
8385.635001648971
 21
1010.649082196849
 31
0.0
  0
LINE
  5
2B6D3
330
747D
100
AcDbEntity
  8
細線
 48
50.0
100
AcDbLine
 10
8430.225549965035
 20
882.6490821968491
 30
0.0
 11
8464.52304659622
 21
1010.649082196847
 31
0.0
  0
LINE
  5
2B6D4
330
747D
100
AcDbEntity
  8
細線
 48
50.0
100
AcDbLine
 10
8588.001639859525
 20
882.6490821968491
 30
0.0
 11
8622.29913649071
 21
1010.649082196847
 31
0.0
  0
LINE
  5
2B6D5
330
747D
100
AcDbEntity
  8
細線
 48
50.0
100
AcDbLine
 10
8436.656330583387
 20
906.6490821968491
 30
0.0
 11
8443.087111201734
 21
882.6490821968491
 31
0.0
  0
LINE
  5
2B6D6
330
747D
100
AcDbEntity
  8
細線
 48
50.0
100
AcDbLine
 10
8357.768285636138
 20
906.6490821968491
 30
0.0
 11
8364.199066254487
 21
882.6490821968491
 31
0.0
  0
LINE
  5
2B6D7
330
747D
100
AcDbEntity
  8
細線
 48
50.0
100
AcDbLine
 10
8594.432420477879
 20
906.6490821968491
 30
0.0
 11
8600.863201096224
 21
882.6490821968491
 31
0.0
  0
LINE
  5
2B6D8
330
747D
100
AcDbEntity
  8
細線
 48
50.0
100
AcDbLine
 10
8515.544375530634
 20
906.6490821968491
 30
0.0
 11
8521.975156148981
 21
882.6490821968491
 31
0.0
  0
LINE
  5
2B6D9
330
747D
100
AcDbEntity
  8
細線
 48
50.0
100
AcDbLine
 10
8458.092265977875
 20
986.6490821968492
 30
0.0
 11
8451.661485359528
 21
1010.649082196849
 31
0.0
  0
LINE
  5
2B6DA
330
747D
100
AcDbEntity
  8
細線
 48
50.0
100
AcDbLine
 10
8379.204221030628
 20
986.6490821968492
 30
0.0
 11
8372.773440412283
 21
1010.649082196849
 31
0.0
  0
LINE
  5
2B6DB
330
747D
100
AcDbEntity
  8
細線
 48
50.0
100
AcDbLine
 10
8536.980310925121
 20
986.6490821968492
 30
0.0
 11
8530.549530306775
 21
1010.649082196849
 31
0.0
  0
LINE
  5
2B6DC
330
747D
100
AcDbEntity
  8
細線
 48
50.0
100
AcDbLine
 10
8615.868355872368
 20
986.6490821968492
 30
0.0
 11
8609.437575254021
 21
1010.649082196849
 31
0.0
  0
LINE
  5
2B6DD
330
747D
100
AcDbEntity
  8
部品1
 48
50.0
100
AcDbLine
 10
8896.154665521775
 20
1010.649082196849
 30
0.0
 11
8896.154665521775
 21
882.6490821968491
 31
0.0
  0
LINE
  5
2B6DE
330
747D
100
AcDbEntity
  8
細線
 48
50.0
100
AcDbLine
 10
8824.665774701268
 20
882.6490821968473
 30
0.0
 11
8858.963271332454
 21
1010.649082196846
 31
0.0
  0
LINE
  5
2B6DF
330
747D
100
AcDbEntity
  8
細線
 48
50.0
100
AcDbLine
 10
8666.889684806774
 20
882.6490821968473
 30
0.0
 11
8701.18718143795
 21
1010.649082196849
 31
0.0
  0
LINE
  5
2B6E0
330
747D
100
AcDbEntity
  8
細線
 48
50.0
100
AcDbLine
 10
8745.777729754022
 20
882.6490821968464
 30
0.0
 11
8780.075226385205
 21
1010.649082196846
 31
0.0
  0
LINE
  5
2B6E1
330
747D
100
AcDbEntity
  8
細線
 48
50.0
100
AcDbLine
 10
8673.320465425124
 20
906.6490821968491
 30
0.0
 11
8679.751246043482
 21
882.6490821968491
 31
0.0
  0
LINE
  5
2B6E2
330
747D
100
AcDbEntity
  8
細線
 48
50.0
100
AcDbLine
 10
8752.208510372373
 20
906.6490821968473
 30
0.0
 11
8758.63929099072
 21
882.6490821968473
 31
0.0
  0
LINE
  5
2B6E3
330
747D
100
AcDbEntity
  8
細線
 48
50.0
100
AcDbLine
 10
8831.096555319618
 20
906.6490821968473
 30
0.0
 11
8837.527335937966
 21
882.6490821968473
 31
0.0
  0
LINE
  5
2B6E4
330
747D
100
AcDbEntity
  8
細線
 48
50.0
100
AcDbLine
 10
8694.756400819606
 20
986.6490821968492
 30
0.0
 11
8688.325620201259
 21
1010.649082196849
 31
0.0
  0
LINE
  5
2B6E5
330
747D
100
AcDbEntity
  8
細線
 48
50.0
100
AcDbLine
 10
8773.644445766862
 20
986.6490821968472
 30
0.0
 11
8767.213665148515
 21
1010.649082196847
 31
0.0
  0
LINE
  5
2B6E6
330
747D
100
AcDbEntity
  8
細線
 48
50.0
100
AcDbLine
 10
8852.532490714109
 20
986.6490821968472
 30
0.0
 11
8846.101710095762
 21
1010.649082196847
 31
0.0
  0
LINE
  5
2B6E7
330
747D
100
AcDbEntity
  8
部品1
100
AcDbLine
 10
8558.554665521773
 20
1470.649082196847
 30
0.0
 11
8432.554665521767
 21
1470.649082196847
 31
0.0
  0
LINE
  5
2B6E8
330
747D
100
AcDbEntity
  8
部品1
100
AcDbLine
 10
8540.554665521773
 20
1551.649082196849
 30
0.0
 11
8540.554665521773
 21
1569.649082196849
 31
0.0
  0
ARC
  5
2B6E9
330
747D
100
AcDbEntity
  8
部品1
100
AcDbCircle
 10
8504.554665521773
 20
1569.649082196849
 30
0.0
 40
18.0
100
AcDbArc
 50
180.0
 51
270.0
  0
LINE
  5
2B6EA
330
747D
100
AcDbEntity
  8
部品1
100
AcDbLine
 10
8504.554665521773
 20
1551.649082196849
 30
0.0
 11
8540.554665521773
 21
1551.649082196849
 31
0.0
  0
LINE
  5
2B6EB
330
747D
100
AcDbEntity
  8
部品1
100
AcDbLine
 10
8504.554665521773
 20
1569.649082196849
 30
0.0
 11
8540.554665521773
 21
1569.649082196849
 31
0.0
  0
LINE
  5
2B6EC
330
747D
100
AcDbEntity
  8
部品1
 48
50.0
100
AcDbLine
 10
8688.154665521771
 20
1250.649082196849
 30
0.0
 11
8816.154665521771
 21
1250.649082196849
 31
0.0
  0
LINE
  5
2B6ED
330
747D
100
AcDbEntity
  8
部品1
100
AcDbLine
 10
8293.954665521772
 20
1884.649082196849
 30
0.0
 11
8331.754665521774
 21
1884.649082196849
 31
0.0
  0
LINE
  5
2B6EE
330
747D
100
AcDbEntity
  8
細線
 48
50.0
100
AcDbLine
 10
8274.154665521772
 20
1755.488890133547
 30
0.0
 11
8313.31485758508
 21
1794.649082196849
 31
0.0
  0
LINE
  5
2B6EF
330
747D
100
AcDbEntity
  8
細線
 48
50.0
100
AcDbLine
 10
8274.154665521772
 20
1728.548121770339
 30
0.0
 11
8340.255625948282
 21
1794.649082196849
 31
0.0
  0
LINE
  5
2B6F0
330
747D
100
AcDbEntity
  8
部品1
 48
50.0
100
AcDbLine
 10
8274.154665521772
 20
1794.649082196849
 30
0.0
 11
8688.154665521777
 21
1794.649082196849
 31
0.0
  0
LINE
  5
2B6F1
330
747D
100
AcDbEntity
  8
部品1
100
AcDbLine
 10
8291.254665521774
 20
1873.849082196849
 30
0.0
 11
8291.254665521774
 21
1881.949082196849
 31
0.0
  0
ARC
  5
2B6F2
330
747D
100
AcDbEntity
  8
部品1
100
AcDbCircle
 10
8293.954665521772
 20
1881.949082196849
 30
0.0
 40
2.7
100
AcDbArc
 50
90.0
 51
180.0
  0
ARC
  5
2B6F3
330
747D
100
AcDbEntity
  8
部品1
100
AcDbCircle
 10
8283.154665521772
 20
1869.040985899557
 30
0.0
 40
2.7
100
AcDbArc
 50
104.0362434679067
 51
180.0
  0
LINE
  5
2B6F4
330
747D
100
AcDbEntity
  8
部品1
100
AcDbLine
 10
8282.499819334175
 20
1871.660370649949
 30
0.0
 11
8291.254665521774
 21
1873.849082196849
 31
0.0
  0
ARC
  5
2B6F5
330
747D
100
AcDbEntity
  8
部品1
100
AcDbCircle
 10
8283.154665521772
 20
1806.909082196849
 30
0.0
 40
2.7
100
AcDbArc
 50
180.0
 51
270.0
  0
LINE
  5
2B6F6
330
747D
100
AcDbEntity
  8
細線
 48
50.0
100
AcDbLine
 10
8274.154665521772
 20
1782.429658496754
 30
0.0
 11
8286.374089221867
 21
1794.649082196849
 31
0.0
  0
LINE
  5
2B6F7
330
747D
100
AcDbEntity
  8
部品1
100
AcDbLine
 10
8283.154665521772
 20
1804.20908219685
 30
0.0
 11
8294.854665521766
 21
1804.20908219685
 31
0.0
  0
LINE
  5
2B6F8
330
747D
100
AcDbEntity
  8
部品1
100
AcDbLine
 10
8280.454665521773
 20
1806.909082196849
 30
0.0
 11
8280.454665521773
 21
1869.040985899557
 31
0.0
  0
LINE
  5
2B6F9
330
747D
100
AcDbEntity
  8
部品1
100
AcDbLine
 10
8439.114665521767
 20
1804.20908219685
 30
0.0
 11
8640.454665521767
 21
1804.20908219685
 31
0.0
  0
LINE
  5
2B6FA
330
747D
100
AcDbEntity
  8
部品1
100
AcDbLine
 10
8331.754665521774
 20
1884.649082196849
 30
0.0
 11
8331.754665521774
 21
1892.749082196849
 31
0.0
  0
LINE
  5
2B6FB
330
747D
100
AcDbEntity
  8
部品1
100
AcDbLine
 10
8382.154665521772
 20
1903.549082196846
 30
0.0
 11
8382.154665521772
 21
1852.249082196849
 31
0.0
  0
LINE
  5
2B6FC
330
747D
100
AcDbEntity
  8
部品1
100
AcDbLine
 10
8405.554665521774
 20
1864.209082196849
 30
0.0
 11
8433.714665521774
 21
1864.209082196849
 31
0.0
  0
ARC
  5
2B6FD
330
747D
100
AcDbEntity
  8
部品1
100
AcDbCircle
 10
8405.554665521774
 20
1861.50908219685
 30
0.0
 40
2.7
100
AcDbArc
 50
90.0
 51
180.0
  0
ARC
  5
2B6FE
330
747D
100
AcDbEntity
  8
部品1
100
AcDbCircle
 10
8433.714665521774
 20
1861.50908219685
 30
0.0
 40
2.7
100
AcDbArc
 50
0.0
 51
90.0
  0
LINE
  5
2B6FF
330
747D
100
AcDbEntity
  8
部品1
100
AcDbLine
 10
8424.454665521773
 20
1849.549082196849
 30
0.0
 11
8424.454665521773
 21
1806.909082196849
 31
0.0
  0
LINE
  5
2B700
330
747D
100
AcDbEntity
  8
部品1
100
AcDbLine
 10
8410.054665521773
 20
1804.20908219685
 30
0.0
 11
8421.754665521774
 21
1804.20908219685
 31
0.0
  0
ARC
  5
2B701
330
747D
100
AcDbEntity
  8
部品1
100
AcDbCircle
 10
8439.114665521767
 20
1806.909082196849
 30
0.0
 40
2.7
100
AcDbArc
 50
180.0
 51
270.0
  0
ARC
  5
2B702
330
747D
100
AcDbEntity
  8
部品1
100
AcDbCircle
 10
8421.754665521774
 20
1806.909082196849
 30
0.0
 40
2.7
100
AcDbArc
 50
270.0
 51
0.0
  0
LINE
  5
2B703
330
747D
100
AcDbEntity
  8
部品1
100
AcDbLine
 10
8382.154665521772
 20
1852.249082196849
 30
0.0
 11
8421.754665521774
 21
1852.249082196849
 31
0.0
  0
ARC
  5
2B704
330
747D
100
AcDbEntity
  8
部品1
100
AcDbCircle
 10
8421.754665521774
 20
1849.549082196849
 30
0.0
 40
2.7
100
AcDbArc
 50
0.0
 51
90.0
  0
LINE
  5
2B705
330
747D
100
AcDbEntity
  8
部品1
100
AcDbLine
 10
8436.414665521773
 20
1861.50908219685
 30
0.0
 11
8436.414665521771
 21
1806.909082196849
 31
0.0
  0
LINE
  5
2B706
330
747D
100
AcDbEntity
  8
部品1
100
AcDbLine
 10
8402.854665521772
 20
1861.50908219685
 30
0.0
 11
8402.854665521772
 21
1844.409082196849
 31
0.0
  0
LINE
  5
2B707
330
747D
100
AcDbEntity
  8
細線
100
AcDbLine
 10
8500.954665521772
 20
1804.20908219685
 30
0.0
 11
8500.954665521772
 21
1847.409082196849
 31
0.0
  0
LINE
  5
2B708
330
747D
100
AcDbEntity
  8
細線
100
AcDbLine
 10
8490.154665521776
 20
1804.20908219685
 30
0.0
 11
8490.154665521771
 21
1847.409082196849
 31
0.0
  0
LINE
  5
2B709
330
747D
100
AcDbEntity
  8
部品1
100
AcDbLine
 10
8486.554665521772
 20
1843.80908219685
 30
0.0
 11
8504.554665521773
 21
1843.80908219685
 31
0.0
  0
LINE
  5
2B70A
330
747D
100
AcDbEntity
  8
部品1
100
AcDbLine
 10
8490.154665521771
 20
1847.409082196849
 30
0.0
 11
8500.954665521772
 21
1847.409082196849
 31
0.0
  0
ELLIPSE
  5
2B70B
330
747D
100
AcDbEntity
  8
部品1
 48
50.0
100
AcDbEllipse
 10
8495.554665521773
 20
2063.772370641121
 30
0.0
 11
40.0
 21
0.0
 31
0.0
210
0.0
220
0.0
230
1.0
 40
0.4
 41
0.0
 42
6.283185307179586
  0
ELLIPSE
  5
2B70C
330
747D
100
AcDbEntity
  8
部品1
 48
50.0
100
AcDbEllipse
 10
8495.554665521773
 20
2054.172370641122
 30
0.0
 11
40.0
 21
0.0
 31
0.0
210
0.0
220
0.0
230
1.0
 40
0.4
 41
3.141592653589793
 42
6.283185307179586
  0
LINE
  5
2B70D
330
747D
100
AcDbEntity
  8
部品1
 48
50.0
100
AcDbLine
 10
8455.554665521773
 20
2063.772370641121
 30
0.0
 11
8455.554665521773
 21
2054.172370641121
 31
0.0
  0
ARC
  5
2B70E
330
747D
100
AcDbEntity
  8
部品1
100
AcDbCircle
 10
8379.454665521773
 20
1903.549082196846
 30
0.0
 40
2.7
100
AcDbArc
 50
0.0
 51
90.0
  0
ARC
  5
2B70F
330
747D
100
AcDbEntity
  8
部品1
100
AcDbCircle
 10
8337.15466552177
 20
1903.549082196849
 30
0.0
 40
2.7
100
AcDbArc
 50
90.0
 51
180.0
  0
LINE
  5
2B710
330
747D
100
AcDbEntity
  8
部品1
100
AcDbLine
 10
8334.454665521773
 20
1895.449082196849
 30
0.0
 11
8334.454665521773
 21
1895.449082196849
 31
0.0
  0
LINE
  5
2B711
330
747D
100
AcDbEntity
  8
部品1
100
AcDbLine
 10
8334.454665521773
 20
1895.449082196849
 30
0.0
 11
8334.454665521773
 21
1903.549082196849
 31
0.0
  0
LINE
  5
2B712
330
747D
100
AcDbEntity
  8
部品1
100
AcDbLine
 10
8337.15466552177
 20
1906.249082196849
 30
0.0
 11
8379.454665521773
 21
1906.249082196846
 31
0.0
  0
ARC
  5
2B713
330
747D
100
AcDbEntity
  8
部品1
100
AcDbCircle
 10
8334.454665521773
 20
1892.749082196849
 30
0.0
 40
2.7
100
AcDbArc
 50
90.0
 51
180.0
  0
ELLIPSE
  5
2B714
330
747D
100
AcDbEntity
  8
部品1
 48
50.0
100
AcDbEllipse
 10
8495.554665521773
 20
2063.772370641121
 30
0.0
 11
18.4
 21
0.0
 31
0.0
210
0.0
220
0.0
230
1.0
 40
0.3478260869565217
 41
0.0
 42
6.283185307179586
  0
LINE
  5
2B715
330
747D
100
AcDbEntity
  8
部品1
 48
50.0
100
AcDbLine
 10
8535.554665521773
 20
2054.172370641121
 30
0.0
 11
8535.554665521773
 21
2063.772370641121
 31
0.0
  0
LINE
  5
2B716
330
747D
100
AcDbEntity
  8
部品1
 48
50.0
100
AcDbLine
 10
8463.554665521774
 20
2185.524363305992
 30
0.0
 11
8479.554665521773
 21
2177.524363305992
 31
0.0
  0
LINE
  5
2B717
330
747D
100
AcDbEntity
  8
部品1
 48
50.0
100
AcDbLine
 10
8463.554665521774
 20
2153.524363305992
 30
0.0
 11
8479.554665521773
 21
2145.524363305992
 31
0.0
  0
LINE
  5
2B718
330
747D
100
AcDbEntity
  8
部品1
 48
50.0
100
AcDbLine
 10
8463.554665521774
 20
2185.524363305992
 30
0.0
 11
8479.554665521773
 21
2193.524363305992
 31
0.0
  0
LINE
  5
2B719
330
747D
100
AcDbEntity
  8
部品1
 48
50.0
100
AcDbLine
 10
8463.554665521774
 20
2153.524363305992
 30
0.0
 11
8463.554665521774
 21
2185.524363305992
 31
0.0
  0
LINE
  5
2B71A
330
747D
100
AcDbEntity
  8
部品1
 48
50.0
100
AcDbLine
 10
8479.554665521773
 20
2193.524363305992
 30
0.0
 11
8511.554665521773
 21
2193.524363305992
 31
0.0
  0
ELLIPSE
  5
2B71B
330
747D
100
AcDbEntity
  8
細線
 48
50.0
100
AcDbEllipse
 10
8495.554665521773
 20
2185.524363305992
 30
0.0
 11
14.76670786606846
 21
0.0
 31
0.0
210
0.0
220
0.0
230
1.0
 40
0.2071254069489396
 41
0.0
 42
6.283185307179586
  0
LINE
  5
2B71C
330
747D
100
AcDbEntity
  8
部品1
 48
50.0
100
AcDbLine
 10
8479.554665521773
 20
2145.524363305992
 30
0.0
 11
8511.554665521773
 21
2145.524363305992
 31
0.0
  0
LINE
  5
2B71D
330
747D
100
AcDbEntity
  8
部品1
 48
50.0
100
AcDbLine
 10
8511.554665521773
 20
2145.524363305992
 30
0.0
 11
8527.554665521774
 21
2153.524363305992
 31
0.0
  0
LINE
  5
2B71E
330
747D
100
AcDbEntity
  8
部品1
 48
50.0
100
AcDbLine
 10
8479.554665521773
 20
2177.524363305992
 30
0.0
 11
8511.554665521773
 21
2177.524363305992
 31
0.0
  0
LINE
  5
2B71F
330
747D
100
AcDbEntity
  8
部品1
 48
50.0
100
AcDbLine
 10
8511.554665521773
 20
2177.524363305992
 30
0.0
 11
8527.554665521774
 21
2185.524363305992
 31
0.0
  0
LINE
  5
2B720
330
747D
100
AcDbEntity
  8
細線
 48
50.0
100
AcDbLine
 10
8511.554665521773
 20
2145.524363305992
 30
0.0
 11
8511.554665521773
 21
2177.524363305992
 31
0.0
  0
LINE
  5
2B721
330
747D
100
AcDbEntity
  8
部品1
 48
50.0
100
AcDbLine
 10
8527.554665521774
 20
2153.524363305992
 30
0.0
 11
8527.554665521774
 21
2185.524363305992
 31
0.0
  0
LINE
  5
2B722
330
747D
100
AcDbEntity
  8
細線
 48
50.0
100
AcDbLine
 10
8479.554665521773
 20
2145.524363305992
 30
0.0
 11
8479.554665521773
 21
2177.524363305992
 31
0.0
  0
LINE
  5
2B723
330
747D
100
AcDbEntity
  8
部品1
 48
50.0
100
AcDbLine
 10
8511.554665521773
 20
2193.524363305992
 30
0.0
 11
8527.554665521774
 21
2185.524363305992
 31
0.0
  0
TEXT
  5
2B724
330
747D
100
AcDbEntity
  8
部品1
100
AcDbText
 10
8196.326914713704
 20
3014.435817446007
 30
0.0
 40
120.0
  1
基礎詳細
  7
STYLE2
100
AcDbText
  0
LINE
  5
2B725
330
747D
100
AcDbEntity
  8
部品1
100
AcDbLine
 10
11574.43209892156
 20
229.6807798127875
 30
0.0
 11
11574.43209892157
 21
3193.987749397435
 31
0.0
  0
LINE
  5
2B726
330
747D
100
AcDbEntity
  8
細線
100
AcDbLine
 10
10582.32393150131
 20
1554.649082196849
 30
0.0
 11
10387.69059782453
 21
1749.282415873632
 31
0.0
  0
LINE
  5
2B727
330
747D
100
AcDbEntity
  8
部品1
100
AcDbLine
 10
10387.69059782453
 20
1794.649082196849
 30
0.0
 11
10867.69059782453
 21
1794.649082196849
 31
0.0
  0
LINE
  5
2B728
330
747D
100
AcDbEntity
  8
細線
 48
50.0
100
AcDbLine
 10
10521.76148226779
 20
1334.950166543499
 30
0.0
 11
10556.05897889897
 21
1462.950166543498
 31
0.0
  0
LINE
  5
2B729
330
747D
100
AcDbEntity
  8
部品1
100
AcDbLine
 10
10267.69059782453
 20
1334.950166543495
 30
0.0
 11
10987.69059782453
 21
1334.950166543499
 31
0.0
  0
LINE
  5
2B72A
330
747D
100
AcDbEntity
  8
部品1
100
AcDbLine
 10
10267.69059782453
 20
1462.950166543499
 30
0.0
 11
10987.69059782453
 21
1462.950166543502
 31
0.0
  0
LINE
  5
2B72B
330
747D
100
AcDbEntity
  8
細線
100
AcDbLine
 10
10448.60924331777
 20
1462.950166543499
 30
0.0
 11
10540.30815897112
 21
1554.649082196849
 31
0.0
  0
LWPOLYLINE
  5
2B72C
330
747D
100
AcDbEntity
  8
部品1
 48
50.0
100
AcDbPolyline
 90
        2
 70
     0
 43
12.0
 10
10003.07933572414
 20
1554.649082196849
 10
11204.17163885576
 20
1554.649082196849
  0
LINE
  5
2B72D
330
747D
100
AcDbEntity
  8
細線
100
AcDbLine
 10
10531.41224325588
 20
1554.649082196849
 30
0.0
 11
10387.69059782453
 21
1698.370727628202
 31
0.0
  0
TEXT
  5
2B72E
330
747D
100
AcDbEntity
  8
部品1
 48
50.0
100
AcDbText
 10
9623.572511066029
 20
1287.84934155954
 30
0.0
 40
80.0
  1
ボルトの出
 50
90.0
  7
STYLE2
100
AcDbText
  0
LINE
  5
2B72F
330
747D
100
AcDbEntity
  8
部品1
100
AcDbLine
 10
10387.69059782453
 20
1554.649082196849
 30
0.0
 11
10387.69059782453
 21
1794.649082196849
 31
0.0
  0
LINE
  5
2B730
330
747D
100
AcDbEntity
  8
細線
 48
50.0
100
AcDbLine
 10
10363.98539237329
 20
1334.950166543498
 30
0.0
 11
10398.28288900447
 21
1462.950166543498
 31
0.0
  0
LINE
  5
2B731
330
747D
100
AcDbEntity
  8
細線
 48
50.0
100
AcDbLine
 10
10442.87343732054
 20
1334.950166543499
 30
0.0
 11
10477.17093395172
 21
1462.950166543499
 31
0.0
  0
LINE
  5
2B732
330
747D
100
AcDbEntity
  8
細線
 48
50.0
100
AcDbLine
 10
10285.09734742604
 20
1334.950166543499
 30
0.0
 11
10319.39484405723
 21
1462.950166543499
 31
0.0
  0
LINE
  5
2B733
330
747D
100
AcDbEntity
  8
部品1
100
AcDbLine
 10
10267.69059782453
 20
1334.950166543495
 30
0.0
 11
10267.69059782453
 21
1554.649082196849
 31
0.0
  0
LINE
  5
2B734
330
747D
100
AcDbEntity
  8
細線
 48
50.0
100
AcDbLine
 10
10370.41617299164
 20
1358.950166543499
 30
0.0
 11
10376.84695360999
 21
1334.950166543499
 31
0.0
  0
LINE
  5
2B735
330
747D
100
AcDbEntity
  8
細線
 48
50.0
100
AcDbLine
 10
10291.52812804439
 20
1358.950166543499
 30
0.0
 11
10297.95890866274
 21
1334.950166543499
 31
0.0
  0
LINE
  5
2B736
330
747D
100
AcDbEntity
  8
細線
 48
50.0
100
AcDbLine
 10
10449.30421793889
 20
1358.950166543499
 30
0.0
 11
10455.73499855724
 21
1334.950166543499
 31
0.0
  0
LINE
  5
2B737
330
747D
100
AcDbEntity
  8
細線
 48
50.0
100
AcDbLine
 10
10528.19226288614
 20
1358.950166543499
 30
0.0
 11
10534.62304350448
 21
1334.950166543499
 31
0.0
  0
LINE
  5
2B738
330
747D
100
AcDbEntity
  8
細線
 48
50.0
100
AcDbLine
 10
10312.96406343888
 20
1438.950166543499
 30
0.0
 11
10306.53328282053
 21
1462.950166543499
 31
0.0
  0
LINE
  5
2B739
330
747D
100
AcDbEntity
  8
細線
 48
50.0
100
AcDbLine
 10
10470.74015333338
 20
1438.950166543499
 30
0.0
 11
10464.30937271503
 21
1462.950166543499
 31
0.0
  0
LINE
  5
2B73A
330
747D
100
AcDbEntity
  8
細線
 48
50.0
100
AcDbLine
 10
10391.85210838613
 20
1438.950166543499
 30
0.0
 11
10385.42132776778
 21
1462.950166543499
 31
0.0
  0
LINE
  5
2B73B
330
747D
100
AcDbEntity
  8
細線
100
AcDbLine
 10
10380.72699232386
 20
1462.950166543499
 30
0.0
 11
10472.42590797721
 21
1554.649082196849
 31
0.0
  0
LINE
  5
2B73C
330
747D
100
AcDbEntity
  8
細線
100
AcDbLine
 10
10414.66811782082
 20
1462.950166543499
 30
0.0
 11
10506.36703347416
 21
1554.649082196849
 31
0.0
  0
LINE
  5
2B73D
330
747D
100
AcDbEntity
  8
細線
100
AcDbLine
 10
10802.94124723152
 20
1554.649082196849
 30
0.0
 11
10562.94124723152
 21
1794.649082196849
 31
0.0
  0
LINE
  5
2B73E
330
747D
100
AcDbEntity
  8
細線
100
AcDbLine
 10
10853.85293547695
 20
1554.649082196851
 30
0.0
 11
10613.85293547695
 21
1794.649082196849
 31
0.0
  0
LINE
  5
2B73F
330
747D
100
AcDbEntity
  8
部品1
100
AcDbLine
 10
10867.69059782453
 20
1794.649082196849
 30
0.0
 11
10867.69059782453
 21
1554.649082196849
 31
0.0
  0
LINE
  5
2B740
330
747D
100
AcDbEntity
  8
細線
 48
50.0
100
AcDbLine
 10
10837.31366205678
 20
1334.950166543496
 30
0.0
 11
10871.61115868796
 21
1462.950166543496
 31
0.0
  0
LINE
  5
2B741
330
747D
100
AcDbEntity
  8
細線
100
AcDbLine
 10
10808.60924331777
 20
1462.950166543501
 30
0.0
 11
10900.30815897111
 21
1554.649082196849
 31
0.0
  0
LINE
  5
2B742
330
747D
100
AcDbEntity
  8
細線
 48
50.0
100
AcDbLine
 10
10758.42561710953
 20
1334.950166543498
 30
0.0
 11
10792.7231137407
 21
1462.950166543499
 31
0.0
  0
LINE
  5
2B743
330
747D
100
AcDbEntity
  8
細線
 48
50.0
100
AcDbLine
 10
10600.64952721504
 20
1334.950166543498
 30
0.0
 11
10634.94702384622
 21
1462.950166543498
 31
0.0
  0
LINE
  5
2B744
330
747D
100
AcDbEntity
  8
細線
 48
50.0
100
AcDbLine
 10
10679.53757216228
 20
1334.950166543499
 30
0.0
 11
10713.83506879346
 21
1462.950166543498
 31
0.0
  0
LINE
  5
2B745
330
747D
100
AcDbEntity
  8
細線
 48
50.0
100
AcDbLine
 10
10685.96835278063
 20
1358.950166543499
 30
0.0
 11
10692.39913339898
 21
1334.950166543499
 31
0.0
  0
LINE
  5
2B746
330
747D
100
AcDbEntity
  8
細線
 48
50.0
100
AcDbLine
 10
10607.08030783338
 20
1358.950166543499
 30
0.0
 11
10613.51108845173
 21
1334.950166543499
 31
0.0
  0
LINE
  5
2B747
330
747D
100
AcDbEntity
  8
細線
 48
50.0
100
AcDbLine
 10
10764.85639772788
 20
1358.950166543499
 30
0.0
 11
10771.28717834623
 21
1334.950166543499
 31
0.0
  0
LINE
  5
2B748
330
747D
100
AcDbEntity
  8
細線
 48
50.0
100
AcDbLine
 10
10843.74444267513
 20
1358.950166543498
 30
0.0
 11
10850.17522329347
 21
1334.950166543498
 31
0.0
  0
LINE
  5
2B749
330
747D
100
AcDbEntity
  8
細線
 48
50.0
100
AcDbLine
 10
10707.40428817512
 20
1438.950166543499
 30
0.0
 11
10700.97350755677
 21
1462.950166543499
 31
0.0
  0
LINE
  5
2B74A
330
747D
100
AcDbEntity
  8
細線
 48
50.0
100
AcDbLine
 10
10628.51624322787
 20
1438.950166543499
 30
0.0
 11
10622.08546260953
 21
1462.950166543499
 31
0.0
  0
LINE
  5
2B74B
330
747D
100
AcDbEntity
  8
細線
 48
50.0
100
AcDbLine
 10
10549.62819828063
 20
1438.950166543499
 30
0.0
 11
10543.19741766228
 21
1462.950166543499
 31
0.0
  0
LINE
  5
2B74C
330
747D
100
AcDbEntity
  8
細線
100
AcDbLine
 10
10774.66811782082
 20
1462.950166543501
 30
0.0
 11
10866.36703347416
 21
1554.649082196849
 31
0.0
  0
LINE
  5
2B74D
330
747D
100
AcDbEntity
  8
細線
 48
50.0
100
AcDbLine
 10
10786.29233312236
 20
1438.950166543499
 30
0.0
 11
10779.86155250401
 21
1462.950166543499
 31
0.0
  0
LINE
  5
2B74E
330
747D
100
AcDbEntity
  8
細線
100
AcDbLine
 10
10740.72699232386
 20
1462.950166543501
 30
0.0
 11
10832.42590797721
 21
1554.649082196849
 31
0.0
  0
LINE
  5
2B74F
330
747D
100
AcDbEntity
  8
細線
 48
50.0
100
AcDbLine
 10
10865.18037806962
 20
1438.950166543498
 30
0.0
 11
10858.74959745127
 21
1462.950166543498
 31
0.0
  0
LINE
  5
2B750
330
747D
100
AcDbEntity
  8
細線
 48
50.0
100
AcDbLine
 10
10916.20170700402
 20
1334.950166543498
 30
0.0
 11
10950.4992036352
 21
1462.950166543496
 31
0.0
  0
LINE
  5
2B751
330
747D
100
AcDbEntity
  8
部品1
100
AcDbLine
 10
10987.69059782453
 20
1554.649082196849
 30
0.0
 11
10987.69059782453
 21
1334.950166543499
 31
0.0
  0
LINE
  5
2B752
330
747D
100
AcDbEntity
  8
細線
 48
50.0
100
AcDbLine
 10
10922.63248762237
 20
1358.950166543498
 30
0.0
 11
10929.06326824072
 21
1334.950166543498
 31
0.0
  0
LINE
  5
2B753
330
747D
100
AcDbEntity
  8
細線
 48
50.0
100
AcDbLine
 10
10944.06842301686
 20
1438.950166543498
 30
0.0
 11
10937.63764239851
 21
1462.950166543498
 31
0.0
  0
LEADER
  5
2B754
330
747D
100
AcDbEntity
  8
寸法
 48
50.0
100
AcDbLeader
  3
INABA_S50G
 73
     0
 74
     0
 75
     1
 40
120.0
 41
185.591883092037
 76
     3
 10
10798.41500944045
 20
1794.649082196849
 30
0.0
 10
10831.55321607409
 20
1966.795402877987
 30
0.0
 10
10956.55321607409
 20
1966.795402877987
 30
0.0
340
2B755
1001
ACAD
1000
DSTYLE
1002
{
1070
    40
1040
1.0
1002
}
  0
MTEXT
  5
2B755
102
{ACAD_REACTORS
330
2B754
102
}
330
747D
100
AcDbEntity
  8
寸法
 62
     7
 48
50.0
100
AcDbMText
 10
10981.5532160741
 20
2051.795402877987
 30
0.0
 40
120.0
 41
0.8
 71
     4
 72
     1
  1
\A1;C.B
  7
STYLE1
 73
     1
 44
1.0
1001
ACAD
1000
MTEXTBEGIN
1070
    73
1070
     1
1070
    44
1040
1.0
1070
    74
1070
     0
1000
MTEXTEND
  0
SPLINE
  5
2B7EF
330
747D
100
AcDbEntity
  8
細線
 48
50.0
100
AcDbSpline
210
0.0
220
0.0
230
1.0
 70
     8
 71
     3
 72
    10
 73
     6
 74
     4
 42
0.0000000001
 43
0.0000000001
 44
0.0000000001
 40
0.0
 40
0.0
 40
0.0
 40
0.0
 40
192.2397835813012
 40
392.3518421163208
 40
606.4563990014053
 40
606.4563990014053
 40
606.4563990014053
 40
606.4563990014053
 10
8320.077593042308
 20
6781.913496820893
 30
0.0
 10
8220.131405799021
 20
6770.337733065703
 30
0.0
 10
8016.14620592586
 20
6746.712174668572
 30
0.0
 10
8435.803638853503
 20
6613.435414637425
 30
0.0
 10
8215.008233283318
 20
6589.209799311563
 30
0.0
 10
8100.881226514353
 20
6576.687813371062
 30
0.0
 11
8320.077593042308
 21
6781.913496820893
 31
0.0
 11
8134.388221240909
 21
6732.158179603664
 31
0.0
 11
8307.690347535833
 21
6632.102150336155
 31
0.0
 11
8100.881226514353
 21
6576.687813371062
 31
0.0
  0
LINE
  5
2B7F0
330
747D
100
AcDbEntity
  8
細線
 48
50.0
100
AcDbLine
 10
8389.812183042016
 20
7623.545292402396
 30
0.0
 11
8060.529264556933
 21
5808.34754394009
 31
0.0
  0
HATCH
  5
2B7F7
330
747D
100
AcDbEntity
  8
細線
 48
50.0
100
AcDbHatch
 10
0.0
 20
0.0
 30
0.0
210
0.0
220
0.0
230
1.0
  2
LINE
 70
     0
 71
     1
 91
        1
 92
        7
 72
     0
 73
     1
 93
        4
 10
8424.359716040838
 20
7157.552183902537
 10
8224.359716040838
 20
7157.552183902537
 10
8224.359716040847
 20
6957.55218390254
 10
8424.359716040848
 20
6957.552183902541
 97
        4
330
2A7D7
330
2A839
330
2A7D6
330
2A838
 75
     0
 76
     1
 52
45.0
 41
10.0
 77
     0
 78
     1
 53
45.0
 43
0.0
 44
0.0
 45
-22.45064030267288
 46
22.45064030267288
 79
     0
 47
1.144427252249761
 98
        1
 10
8312.286747730183
 20
7055.933523083247
  0
ENDSEC
  0
SECTION
  2
OBJECTS
  0
DICTIONARY
  5
7471
330
0
100
AcDbDictionary
281
     1
  3
ACAD_COLOR
350
173D2
  3
ACAD_GROUP
350
7472
  3
ACAD_LAYOUT
350
173D3
  3
ACAD_MATERIAL
350
173D1
  3
ACAD_MLINESTYLE
350
7473
  3
ACAD_PLOTSETTINGS
350
173D4
  3
ACAD_PLOTSTYLENAME
350
173CF
  3
ACDBHEADERROUNDTRIPXREC
350
2B816
  3
AcDbVariableDictionary
350
2B3B7
  3
CONTENTDICTIONARY
350
E71C
  3
DRAWINGVARIABLESDICT
350
F3B9
  0
DICTIONARY
  5
1758F
330
7467
100
AcDbDictionary
280
     1
281
     1
  3
ACAD_LAYERSTATES
360
17590
  0
DICTIONARY
  5
173D2
102
{ACAD_REACTORS
330
7471
102
}
330
7471
100
AcDbDictionary
281
     1
  0
DICTIONARY
  5
7472
102
{ACAD_REACTORS
330
7471
102
}
330
7471
100
AcDbDictionary
281
     1
  3
*A1
350
1D2A9
  0
DICTIONARY
  5
173D3
102
{ACAD_REACTORS
330
7471
102
}
330
7471
100
AcDbDictionary
281
     1
  3
Model
350
173D5
  3
レイアウト1
350
173D6
  0
DICTIONARY
  5
173D1
102
{ACAD_REACTORS
330
7471
102
}
330
7471
100
AcDbDictionary
281
     1
  0
DICTIONARY
  5
7473
102
{ACAD_REACTORS
330
7471
102
}
330
7471
100
AcDbDictionary
281
     1
  3
STANDARD
350
7480
  0
DICTIONARY
  5
173D4
102
{ACAD_REACTORS
330
7471
102
}
330
7471
100
AcDbDictionary
281
     1
  0
ACDBDICTIONARYWDFLT
  5
173CF
102
{ACAD_REACTORS
330
7471
102
}
330
7471
100
AcDbDictionary
281
     1
  3
Normal
350
173D0
100
AcDbDictionaryWithDefault
340
173D0
  0
DICTIONARY
  5
2B816
102
{ACAD_REACTORS
330
7471
102
}
330
7471
100
AcDbDictionary
281
     1
  3
COLORDICT
350
2B818
  3
MATERIALDICT
350
2B817
  0
DICTIONARY
  5
2B3B7
102
{ACAD_REACTORS
330
7471
102
}
330
7471
100
AcDbDictionary
281
     1
  3
DIMASSOC
350
2B3B8
  3
PROJECTNAME
350
2B3B9
  0
DICTIONARY
  5
E71C
102
{ACAD_REACTORS
330
7471
102
}
330
7471
100
AcDbDictionary
281
     1
  0
DICTIONARY
  5
F3B9
102
{ACAD_REACTORS
330
7471
102
}
330
7471
100
AcDbDictionary
281
     1
1001
DRAWINGVARIABLESXDATA
1000
POLARMODE
1000
1
  0
DICTIONARY
  5
17590
102
{ACAD_REACTORS
330
1758F
102
}
330
1758F
100
AcDbDictionary
281
     1
  0
GROUP
  5
1D2A9
102
{ACAD_REACTORS
330
7472
102
}
330
7472
100
AcDbGroup
300

 70
     1
 71
     1
  0
LAYOUT
  5
173D5
102
{ACAD_XDICTIONARY
360
2B819
102
}
102
{ACAD_REACTORS
330
173D3
102
}
330
173D3
100
AcDbPlotSettings
  1

  2
クセロPDFよこ.pc3
  4
A3
  6

 40
3.174999952316284
 41
3.174999952316284
 42
3.17498779296875
 43
3.17498779296875
 44
419.9466552734374
 45
296.9259948730469
 46
0.0
 47
0.0
 48
0.0
 49
0.0
140
0.0
141
0.0
142
1.0
143
40.0
 70
 11952
 72
     1
 73
     0
 74
     2
  7
ACA3.ctb
 75
    24
147
0.025
148
0.0
149
0.0
100
AcDbLayout
  1
Model
 70
     1
 71
     0
 10
0.0
 20
0.0
 11
12.0
 21
9.0
 12
0.0
 22
0.0
 32
0.0
 14
0.0
 24
0.0
 34
0.0
 15
0.0
 25
0.0
 35
0.0
146
0.0
 13
0.0
 23
0.0
 33
0.0
 16
1.0
 26
0.0
 36
0.0
 17
0.0
 27
1.0
 37
0.0
 76
     0
330
747D
  0
LAYOUT
  5
173D6
102
{ACAD_XDICTIONARY
360
2B81B
102
}
102
{ACAD_REACTORS
330
173D3
102
}
330
173D3
100
AcDbPlotSettings
  1

  2
Microsoft Office Document Image Writer
  4

  6

 40
0.0
 41
0.0
 42
0.0
 43
0.0
 44
0.0
 45
0.0
 46
0.0
 47
0.0
 48
0.0
 49
0.0
140
0.0
141
0.0
142
1.0
143
1.0
 70
   688
 72
     0
 73
     0
 74
     5
  7
ACA3.ctb
 75
    16
147
1.0
148
0.0
149
0.0
100
AcDbLayout
  1
レイアウト1
 70
     0
 71
     1
 10
0.0
 20
0.0
 11
420.0
 21
297.0
 12
0.0
 22
0.0
 32
0.0
 14
1.000000000000000E+20
 24
1.000000000000000E+20
 34
1.000000000000000E+20
 15
-1.000000000000000E+20
 25
-1.000000000000000E+20
 35
-1.000000000000000E+20
146
0.0
 13
0.0
 23
0.0
 33
0.0
 16
1.0
 26
0.0
 36
0.0
 17
0.0
 27
1.0
 37
0.0
 76
     0
330
747A
  0
MLINESTYLE
  5
7480
102
{ACAD_REACTORS
330
7473
102
}
330
7473
100
AcDbMlineStyle
  2
STANDARD
 70
     0
  3

 62
     0
 51
90.0
 52
90.0
 71
     2
 49
0.5
 62
   256
  6
BYLAYER
 49
-0.5
 62
   256
  6
BYLAYER
  0
ACDBPLACEHOLDER
  5
173D0
102
{ACAD_REACTORS
330
173CF
102
}
330
173CF
  0
XRECORD
  5
2B818
102
{ACAD_REACTORS
330
2B816
102
}
330
2B816
100
AcDbXrecord
280
     1
340
173D2
  0
XRECORD
  5
2B817
102
{ACAD_REACTORS
330
2B816
102
}
330
2B816
100
AcDbXrecord
280
     1
340
173D1
  0
DICTIONARYVAR
  5
2B3B8
102
{ACAD_REACTORS
330
2B3B7
102
}
330
2B3B7
100
DictionaryVariables
280
     0
  1
1
  0
DICTIONARYVAR
  5
2B3B9
102
{ACAD_REACTORS
330
2B3B7
102
}
330
2B3B7
100
DictionaryVariables
280
     0
  1

  0
DICTIONARY
  5
2B819
330
173D5
100
AcDbDictionary
280
     1
281
     1
  3
ACAD_XREC_ROUNDTRIP
360
2B81A
  0
DICTIONARY
  5
2B81B
330
173D6
100
AcDbDictionary
280
     1
281
     1
  3
ACAD_XREC_ROUNDTRIP
360
2B81C
  0
XRECORD
  5
2B81A
102
{ACAD_REACTORS
330
2B819
102
}
330
2B819
100
AcDbXrecord
280
     1
102
SHADEPLOT
 70
     0
102
SHADEPLOTRESLEVEL
 70
     2
102
SHADEPLOTCUSTOMDPI
 70
   150
  0
XRECORD
  5
2B81C
102
{ACAD_REACTORS
330
2B81B
102
}
330
2B81B
100
AcDbXrecord
280
     1
102
SHADEPLOT
 70
     0
102
SHADEPLOTRESLEVEL
 70
     2
102
SHADEPLOTCUSTOMDPI
 70
   300
  0
ENDSEC
  0
EOF
