  0
SECTION
  2
HEADER
  9
$ACADVER
  1
AC1015
  9
$ACADMAINTVER
 70
    20
  9
$DWGCODEPAGE
  3
ANSI_932
  9
$INSBASE
 10
0.0
 20
0.0
 30
0.0
  9
$EXTMIN
 10
139.9999999999995
 20
-0.0000000000000909
 30
0.0
  9
$EXTMAX
 10
16307.2
 20
11409.6
 30
0.0
  9
$LIMMIN
 10
0.0
 20
0.0
  9
$LIMMAX
 10
16800.0
 20
11880.0
  9
$ORTHOMODE
 70
     0
  9
$REGENMODE
 70
     1
  9
$FILLMODE
 70
     1
  9
$QTEXTMODE
 70
     0
  9
$MIRRTEXT
 70
     1
  9
$LTSCALE
 40
20.0
  9
$ATTMODE
 70
     1
  9
$TEXTSIZE
 40
4.0
  9
$TRACEWID
 40
1.0
  9
$TEXTSTYLE
  7
STYLE1
  9
$CLAYER
  8
寸法
  9
$CELTYPE
  6
BYLAYER
  9
$CECOLOR
 62
   256
  9
$CELTSCALE
 40
50.0
  9
$DISPSILH
 70
     0
  9
$DIMSCALE
 40
40.0
  9
$DIMASZ
 40
2.5
  9
$DIMEXO
 40
0.5
  9
$DIMDLI
 40
7.0
  9
$DIMRND
 40
0.0
  9
$DIMDLE
 40
0.0
  9
$DIMEXE
 40
1.5
  9
$DIMTP
 40
0.0
  9
$DIMTM
 40
0.0
  9
$DIMTXT
 40
3.0
  9
$DIMCEN
 40
0.0
  9
$DIMTSZ
 40
0.0
  9
$DIMTOL
 70
     0
  9
$DIMLIM
 70
     0
  9
$DIMTIH
 70
     0
  9
$DIMTOH
 70
     0
  9
$DIMSE1
 70
     0
  9
$DIMSE2
 70
     0
  9
$DIMTAD
 70
     3
  9
$DIMZIN
 70
     8
  9
$DIMBLK
  1

  9
$DIMASO
 70
     1
  9
$DIMSHO
 70
     1
  9
$DIMPOST
  1

  9
$DIMAPOST
  1

  9
$DIMALT
 70
     0
  9
$DIMALTD
 70
     2
  9
$DIMALTF
 40
0.0394
  9
$DIMLFAC
 40
1.0
  9
$DIMTOFL
 70
     1
  9
$DIMTVP
 40
0.0
  9
$DIMTIX
 70
     1
  9
$DIMSOXD
 70
     0
  9
$DIMSAH
 70
     1
  9
$DIMBLK1
  1
DOTSMALL
  9
$DIMBLK2
  1
DOTSMALL
  9
$DIMSTYLE
  2
INABA_S40G
  9
$DIMCLRD
 70
     0
  9
$DIMCLRE
 70
     0
  9
$DIMCLRT
 70
     7
  9
$DIMTFAC
 40
1.0
  9
$DIMGAP
 40
1.0
  9
$DIMJUST
 70
     0
  9
$DIMSD1
 70
     0
  9
$DIMSD2
 70
     0
  9
$DIMTOLJ
 70
     1
  9
$DIMTZIN
 70
     0
  9
$DIMALTZ
 70
     0
  9
$DIMALTTZ
 70
     0
  9
$DIMUPT
 70
     0
  9
$DIMDEC
 70
     1
  9
$DIMTDEC
 70
     4
  9
$DIMALTU
 70
     2
  9
$DIMALTTD
 70
     2
  9
$DIMTXSTY
  7
STYLE1
  9
$DIMAUNIT
 70
     0
  9
$DIMADEC
 70
     0
  9
$DIMALTRND
 40
0.0
  9
$DIMAZIN
 70
     0
  9
$DIMDSEP
 70
    46
  9
$DIMATFIT
 70
     3
  9
$DIMFRAC
 70
     0
  9
$DIMLDRBLK
  1

  9
$DIMLUNIT
 70
     2
  9
$DIMLWD
 70
    -2
  9
$DIMLWE
 70
    -2
  9
$DIMTMOVE
 70
     0
  9
$LUNITS
 70
     2
  9
$LUPREC
 70
     1
  9
$SKETCHINC
 40
1.0
  9
$FILLETRAD
 40
3.0
  9
$AUNITS
 70
     0
  9
$AUPREC
 70
     0
  9
$MENU
  1
acad
  9
$ELEVATION
 40
0.0
  9
$PELEVATION
 40
0.0
  9
$THICKNESS
 40
0.0
  9
$LIMCHECK
 70
     0
  9
$CHAMFERA
 40
0.0
  9
$CHAMFERB
 40
0.0
  9
$CHAMFERC
 40
0.0
  9
$CHAMFERD
 40
0.0
  9
$SKPOLY
 70
     0
  9
$TDCREATE
 40
2451368.612993866
  9
$TDUCREATE
 40
2451368.237993866
  9
$TDUPDATE
 40
2455826.588400602
  9
$TDUUPDATE
 40
2455826.213400602
  9
$TDINDWG
 40
0.7801869329
  9
$TDUSRTIMER
 40
0.7801869329
  9
$USRTIMER
 70
     1
  9
$ANGBASE
 50
0.0
  9
$ANGDIR
 70
     0
  9
$PDMODE
 70
     3
  9
$PDSIZE
 40
2.0
  9
$PLINEWID
 40
0.0
  9
$SPLFRAME
 70
     0
  9
$SPLINETYPE
 70
     6
  9
$SPLINESEGS
 70
     8
  9
$HANDSEED
  5
27741
  9
$SURFTAB1
 70
     6
  9
$SURFTAB2
 70
     6
  9
$SURFTYPE
 70
     6
  9
$SURFU
 70
     6
  9
$SURFV
 70
     6
  9
$UCSBASE
  2

  9
$UCSNAME
  2

  9
$UCSORG
 10
0.0
 20
0.0
 30
0.0
  9
$UCSXDIR
 10
1.0
 20
0.0
 30
0.0
  9
$UCSYDIR
 10
0.0
 20
1.0
 30
0.0
  9
$UCSORTHOREF
  2

  9
$UCSORTHOVIEW
 70
     0
  9
$UCSORGTOP
 10
0.0
 20
0.0
 30
0.0
  9
$UCSORGBOTTOM
 10
0.0
 20
0.0
 30
0.0
  9
$UCSORGLEFT
 10
0.0
 20
0.0
 30
0.0
  9
$UCSORGRIGHT
 10
0.0
 20
0.0
 30
0.0
  9
$UCSORGFRONT
 10
0.0
 20
0.0
 30
0.0
  9
$UCSORGBACK
 10
0.0
 20
0.0
 30
0.0
  9
$PUCSBASE
  2

  9
$PUCSNAME
  2

  9
$PUCSORG
 10
0.0
 20
0.0
 30
0.0
  9
$PUCSXDIR
 10
1.0
 20
0.0
 30
0.0
  9
$PUCSYDIR
 10
0.0
 20
1.0
 30
0.0
  9
$PUCSORTHOREF
  2

  9
$PUCSORTHOVIEW
 70
     0
  9
$PUCSORGTOP
 10
0.0
 20
0.0
 30
0.0
  9
$PUCSORGBOTTOM
 10
0.0
 20
0.0
 30
0.0
  9
$PUCSORGLEFT
 10
0.0
 20
0.0
 30
0.0
  9
$PUCSORGRIGHT
 10
0.0
 20
0.0
 30
0.0
  9
$PUCSORGFRONT
 10
0.0
 20
0.0
 30
0.0
  9
$PUCSORGBACK
 10
0.0
 20
0.0
 30
0.0
  9
$USERI1
 70
     0
  9
$USERI2
 70
     0
  9
$USERI3
 70
     0
  9
$USERI4
 70
     0
  9
$USERI5
 70
     0
  9
$USERR1
 40
0.0
  9
$USERR2
 40
0.0
  9
$USERR3
 40
0.0
  9
$USERR4
 40
0.0
  9
$USERR5
 40
0.0
  9
$WORLDVIEW
 70
     1
  9
$SHADEDGE
 70
     3
  9
$SHADEDIF
 70
    70
  9
$TILEMODE
 70
     1
  9
$MAXACTVP
 70
    16
  9
$PINSBASE
 10
0.0
 20
0.0
 30
0.0
  9
$PLIMCHECK
 70
     0
  9
$PEXTMIN
 10
1.000000000000000E+20
 20
1.000000000000000E+20
 30
1.000000000000000E+20
  9
$PEXTMAX
 10
-1.000000000000000E+20
 20
-1.000000000000000E+20
 30
-1.000000000000000E+20
  9
$PLIMMIN
 10
0.0
 20
0.0
  9
$PLIMMAX
 10
420.0
 20
297.0
  9
$UNITMODE
 70
     0
  9
$VISRETAIN
 70
     0
  9
$PLINEGEN
 70
     0
  9
$PSLTSCALE
 70
     0
  9
$TREEDEPTH
 70
  3020
  9
$CMLSTYLE
  2
STANDARD
  9
$CMLJUST
 70
     0
  9
$CMLSCALE
 40
1.0
  9
$PROXYGRAPHICS
 70
     1
  9
$MEASUREMENT
 70
     1
  9
$CELWEIGHT
370
    -1
  9
$ENDCAPS
280
     0
  9
$JOINSTYLE
280
     0
  9
$LWDISPLAY
290
     0
  9
$INSUNITS
 70
     0
  9
$HYPERLINKBASE
  1

  9
$STYLESHEET
  1

  9
$XEDIT
290
     1
  9
$CEPSNTYPE
380
     0
  9
$PSTYLEMODE
290
     1
  9
$FINGERPRINTGUID
  2
{5EAC461A-2277-4BF8-9AB0-99C43BB394F0}
  9
$VERSIONGUID
  2
{6D2BF58A-D0D0-46B8-A58C-65C8883EBD00}
  9
$EXTNAMES
290
     1
  9
$PSVPSCALE
 40
0.0
  9
$OLESTARTUP
290
     0
  0
ENDSEC
  0
SECTION
  2
CLASSES
  0
CLASS
  1
ACDBDICTIONARYWDFLT
  2
AcDbDictionaryWithDefault
  3
ObjectDBX Classes
 90
        0
280
     0
281
     0
  0
CLASS
  1
DICTIONARYVAR
  2
AcDbDictionaryVar
  3
ObjectDBX Classes
 90
        0
280
     0
281
     0
  0
CLASS
  1
ACDBPLACEHOLDER
  2
AcDbPlaceHolder
  3
ObjectDBX Classes
 90
        0
280
     0
281
     0
  0
CLASS
  1
LAYOUT
  2
AcDbLayout
  3
ObjectDBX Classes
 90
        0
280
     0
281
     0
  0
ENDSEC
  0
SECTION
  2
TABLES
  0
TABLE
  2
VPORT
  5
746D
330
0
100
AcDbSymbolTable
 70
     2
  0
VPORT
  5
27739
330
746D
100
AcDbSymbolTableRecord
100
AcDbViewportTableRecord
  2
*Active
 70
     0
 10
0.0
 20
0.0
 11
1.0
 21
1.0
 12
8400.0
 22
6532.386359045581
 13
0.0
 23
0.0
 14
10.0
 24
10.0
 15
10.0
 25
10.0
 16
0.0
 26
0.0
 36
1.0
 17
0.0
 27
0.0
 37
0.0
 40
13160.16200362426
 41
1.522222222222222
 42
50.0
 43
0.0
 44
0.0
 50
0.0
 51
0.0
 71
     0
 72
     0
 73
     1
 74
     0
 75
     0
 76
     0
 77
     0
 78
     0
281
     0
 65
     1
110
0.0
120
0.0
130
0.0
111
1.0
121
0.0
131
0.0
112
0.0
122
1.0
132
0.0
 79
     0
146
0.0
  0
ENDTAB
  0
TABLE
  2
LTYPE
  5
746A
330
0
100
AcDbSymbolTable
 70
     5
  0
LTYPE
  5
7477
330
746A
100
AcDbSymbolTableRecord
100
AcDbLinetypeTableRecord
  2
BYBLOCK
 70
     0
  3

 72
    65
 73
     0
 40
0.0
  0
LTYPE
  5
7478
330
746A
100
AcDbSymbolTableRecord
100
AcDbLinetypeTableRecord
  2
BYLAYER
 70
     0
  3

 72
    65
 73
     0
 40
0.0
  0
LTYPE
  5
7479
330
746A
100
AcDbSymbolTableRecord
100
AcDbLinetypeTableRecord
  2
CONTINUOUS
 70
     0
  3
Solid line
 72
    65
 73
     0
 40
0.0
  0
LTYPE
  5
7816
330
746A
100
AcDbSymbolTableRecord
100
AcDbLinetypeTableRecord
  2
CENTER
 70
     0
  3
____ _ ____ _ ____ _ ____ _ ____ _ ____ _ ____ 
 72
    65
 73
     4
 40
2.0
 49
1.25
 74
     0
 49
-0.25
 74
     0
 49
0.25
 74
     0
 49
-0.25
 74
     0
  0
LTYPE
  5
781A
330
746A
100
AcDbSymbolTableRecord
100
AcDbLinetypeTableRecord
  2
HIDDEN
 70
     0
  3
__ __ __ __ __ __ __ __ __ __ __ __ __ __ __ __
 72
    65
 73
     2
 40
0.375
 49
0.25
 74
     0
 49
-0.125
 74
     0
  0
LTYPE
  5
781B
330
746A
100
AcDbSymbolTableRecord
100
AcDbLinetypeTableRecord
  2
PHANTOM
 70
     0
  3
______  __  __  ______  __  __  ______  __  __ 
 72
    65
 73
     6
 40
2.5
 49
1.25
 74
     0
 49
-0.25
 74
     0
 49
0.25
 74
     0
 49
-0.25
 74
     0
 49
0.25
 74
     0
 49
-0.25
 74
     0
  0
LTYPE
  5
12CC3
330
746A
100
AcDbSymbolTableRecord
100
AcDbLinetypeTableRecord
  2
HIDDENX2
 70
     0
  3
Hidden (2x) ____ ____ ____ ____ ____ ____ ____
 72
    65
 73
     2
 40
19.05
 49
12.7
 74
     0
 49
-6.349999999999999
 74
     0
  0
ENDTAB
  0
TABLE
  2
LAYER
  5
7467
102
{ACAD_XDICTIONARY
360
1758F
102
}
330
0
100
AcDbSymbolTable
 70
    12
  0
LAYER
  5
7474
330
7467
100
AcDbSymbolTableRecord
100
AcDbLayerTableRecord
  2
0
 70
     0
 62
     7
  6
CONTINUOUS
370
    -3
390
173D0
  0
LAYER
  5
DEB2
330
7467
100
AcDbSymbolTableRecord
100
AcDbLayerTableRecord
  2
センター
 70
     0
 62
     3
  6
CENTER
370
    -3
390
173D0
  0
LAYER
  5
DEB3
330
7467
100
AcDbSymbolTableRecord
100
AcDbLayerTableRecord
  2
寸法
 70
     0
 62
     4
  6
CONTINUOUS
370
    -3
390
173D0
  0
LAYER
  5
DEB4
330
7467
100
AcDbSymbolTableRecord
100
AcDbLayerTableRecord
  2
部品1
 70
     0
 62
     7
  6
CONTINUOUS
370
    -3
390
173D0
  0
LAYER
  5
DEB5
330
7467
100
AcDbSymbolTableRecord
100
AcDbLayerTableRecord
  2
補助
 70
     0
 62
    -1
  6
CONTINUOUS
370
    -3
390
173D0
  0
LAYER
  5
DEB6
330
7467
100
AcDbSymbolTableRecord
100
AcDbLayerTableRecord
  2
文字
 70
     0
 62
     7
  6
CONTINUOUS
370
    -3
390
173D0
  0
LAYER
  5
F255
330
7467
100
AcDbSymbolTableRecord
100
AcDbLayerTableRecord
  2
DEFPOINTS
 70
     0
 62
     7
  6
CONTINUOUS
290
     0
370
    -3
390
173D0
  0
LAYER
  5
10B54
330
7467
100
AcDbSymbolTableRecord
100
AcDbLayerTableRecord
  2
仕様書枠
 70
     0
 62
   230
  6
CONTINUOUS
370
    -3
390
173D0
  0
LAYER
  5
11729
330
7467
100
AcDbSymbolTableRecord
100
AcDbLayerTableRecord
  2
Ｇ．Ｌ
 70
     0
 62
    30
  6
CONTINUOUS
370
    -3
390
173D0
  0
LAYER
  5
1173F
330
7467
100
AcDbSymbolTableRecord
100
AcDbLayerTableRecord
  2
細線
 70
     0
 62
     5
  6
CONTINUOUS
370
    -3
390
173D0
  0
LAYER
  5
12CC4
330
7467
100
AcDbSymbolTableRecord
100
AcDbLayerTableRecord
  2
想像線
 70
     0
 62
     6
  6
PHANTOM
370
    -3
390
173D0
  0
LAYER
  5
142E2
330
7467
100
AcDbSymbolTableRecord
100
AcDbLayerTableRecord
  2
破線
 70
     0
 62
     2
  6
HIDDEN
370
    -3
390
173D0
  0
ENDTAB
  0
TABLE
  2
STYLE
  5
7468
330
0
100
AcDbSymbolTable
 70
     7
  0
STYLE
  5
7475
330
7468
100
AcDbSymbolTableRecord
100
AcDbTextStyleTableRecord
  2
STANDARD
 70
     0
 40
0.0
 41
1.0
 50
0.0
 71
     0
 42
4.0
  3
txt
  4
C:\AutoCAD LT\bigfont.shx
  0
STYLE
  5
763C
330
7468
100
AcDbSymbolTableRecord
100
AcDbTextStyleTableRecord
  2
MSMINCHO
 70
     0
 40
0.0
 41
1.0
 50
0.0
 71
     0
 42
1.199999999999999
  3
C:\AutoCAD LT\msminch2.TTF
  4

  0
STYLE
  5
F706
330
7468
100
AcDbSymbolTableRecord
100
AcDbTextStyleTableRecord
  2
STYLE1
 70
     0
 40
0.0
 41
1.0
 50
0.0
 71
     0
 42
4.0
  3
isocp.shx
  4
bigfont.shx
  0
STYLE
  5
103BF
330
7468
100
AcDbSymbolTableRecord
100
AcDbTextStyleTableRecord
  2
STYLE2
 70
     0
 40
0.0
 41
1.0
 50
0.0
 71
     0
 42
100.0
  3
MS PGothic.ttf
  4

1001
ACAD
1000
MS PGothic
1071
    32818
  0
STYLE
  5
10BAA
330
7468
100
AcDbSymbolTableRecord
100
AcDbTextStyleTableRecord
  2
STYLE3
 70
     0
 40
0.0
 41
1.0
 50
0.0
 71
     0
 42
100.0
  3

  4

1001
ACAD
1000
DFPGothic-EB
1071
    32818
  0
STYLE
  5
11A15
330
7468
100
AcDbSymbolTableRecord
100
AcDbTextStyleTableRecord
  2
MSGOTHIC
 70
     0
 40
0.0
 41
1.0
 50
0.0
 71
     0
 42
3.5
  3
msgothi2.ttf
  4

  0
STYLE
  5
13E96
330
7468
100
AcDbSymbolTableRecord
100
AcDbTextStyleTableRecord
  2
MSPゴシック
 70
     0
 40
0.0
 41
1.0
 50
0.0
 71
     0
 42
4.0
  3
MS PGothic.ttf
  4

1001
ACAD
1000
MS PGothic
1071
    32818
  0
ENDTAB
  0
TABLE
  2
VIEW
  5
746B
330
0
100
AcDbSymbolTable
 70
     0
  0
ENDTAB
  0
TABLE
  2
UCS
  5
746C
330
0
100
AcDbSymbolTable
 70
     0
  0
ENDTAB
  0
TABLE
  2
APPID
  5
746E
330
0
100
AcDbSymbolTable
 70
     6
  0
APPID
  5
7476
330
746E
100
AcDbSymbolTableRecord
100
AcDbRegAppTableRecord
  2
ACAD
 70
     0
  0
APPID
  5
DEA9
330
746E
100
AcDbSymbolTableRecord
100
AcDbRegAppTableRecord
  2
CONTENTBLOCKICON
 70
     0
  0
APPID
  5
DEAA
330
746E
100
AcDbSymbolTableRecord
100
AcDbRegAppTableRecord
  2
CONTENTBLOCKDESCRIPTION
 70
     0
  0
APPID
  5
E71D
330
746E
100
AcDbSymbolTableRecord
100
AcDbRegAppTableRecord
  2
CONTENTTABDATA
 70
     0
  0
APPID
  5
E71E
330
746E
100
AcDbSymbolTableRecord
100
AcDbRegAppTableRecord
  2
CONTENTCURRENTTAB
 70
     0
  0
APPID
  5
F3BA
330
746E
100
AcDbSymbolTableRecord
100
AcDbRegAppTableRecord
  2
DRAWINGVARIABLESXDATA
 70
     0
  0
ENDTAB
  0
TABLE
  2
DIMSTYLE
  5
746F
330
0
100
AcDbSymbolTable
 70
     6
100
AcDbDimStyleTable
 71
     1
340
F71F
  0
DIMSTYLE
105
7484
330
746F
100
AcDbSymbolTableRecord
100
AcDbDimStyleTableRecord
  2
JIS
 70
     0
 41
2.5
 42
1.0
 43
7.0
 44
1.0
 73
     0
 74
     0
 77
     1
 78
     8
140
2.5
141
0.0
143
0.0394
147
0.0
172
     1
174
     1
175
     1
340
7475
  0
DIMSTYLE
105
F236
330
746F
100
AcDbSymbolTableRecord
100
AcDbDimStyleTableRecord
  2
INABA_S40
 70
     0
 40
40.0
 41
2.5
 42
0.5
 43
7.0
 44
1.5
 73
     0
 74
     0
 77
     3
 78
     8
140
3.0
141
0.0
143
0.0394
147
1.0
172
     1
173
     1
174
     1
175
     1
178
     7
289
     0
340
7475
341
DEAC
343
DEAC
344
DEAC
  0
DIMSTYLE
105
F71F
102
{ACAD_REACTORS
330
20DE1
330
20DFB
330
22741
330
2275B
330
23978
330
23980
330
239DB
330
26E85
330
26E66
330
26E41
330
26E3E
330
26E3D
330
26DDB
330
26DC0
330
26DBE
330
26D9F
330
26D9D
330
26D9C
330
26D9B
330
26D57
330
26D56
330
26D51
330
26D61
330
26DA1
330
26D60
330
26D5A
330
26D59
330
26D58
330
27581
330
27582
330
2758A
330
27591
330
27594
330
275F4
102
}
330
746F
100
AcDbSymbolTableRecord
100
AcDbDimStyleTableRecord
  2
INABA_S40G
 70
     0
 40
40.0
 41
2.5
 42
0.5
 43
7.0
 44
1.5
 73
     0
 74
     0
 77
     3
 78
     8
140
3.0
141
0.0
143
0.0394
147
1.0
172
     1
173
     1
174
     1
178
     7
271
     1
340
F706
341
F770
343
F770
344
F770
  0
DIMSTYLE
105
142E3
330
746F
100
AcDbSymbolTableRecord
100
AcDbDimStyleTableRecord
  2
INABA_S1
 70
     0
 40
0.0
 41
2.5
 42
0.5
 43
7.0
 44
1.5
 73
     0
 74
     0
 77
     3
 78
     8
140
3.0
141
0.0
143
0.0394
146
0.5
147
0.5
172
     1
173
     1
176
   256
177
   256
178
     7
271
     2
272
     2
284
     8
288
     1
340
7475
341
DEAC
343
DEAC
344
DEAC
  0
DIMSTYLE
105
14463
330
746F
100
AcDbSymbolTableRecord
100
AcDbDimStyleTableRecord
  2
INABA_S30G
 70
     0
 40
30.0
 41
2.5
 42
0.5
 43
7.0
 44
1.5
 73
     0
 74
     0
 77
     3
 78
     8
140
3.0
141
0.0
143
0.0394
147
1.0
172
     1
173
     1
174
     1
175
     1
178
     7
271
     1
340
F706
341
F770
343
F770
344
F770
  0
DIMSTYLE
105
1758E
330
746F
100
AcDbSymbolTableRecord
100
AcDbDimStyleTableRecord
  2
INABA_S50G
 70
     0
 41
125.0
 42
25.0
 43
7.0
 44
75.0
 73
     0
 74
     0
 77
     3
 78
     8
140
150.0
141
0.0
143
0.0394
147
25.0
172
     1
173
     1
174
     1
175
     1
178
     7
271
     1
340
F706
341
F770
343
F770
344
F770
  0
ENDTAB
  0
TABLE
  2
BLOCK_RECORD
  5
7466
330
0
100
AcDbSymbolTable
 70
    63
  0
BLOCK_RECORD
  5
747D
330
7466
100
AcDbSymbolTableRecord
100
AcDbBlockTableRecord
  2
*MODEL_SPACE
340
173D5
  0
BLOCK_RECORD
  5
747A
330
7466
100
AcDbSymbolTableRecord
100
AcDbBlockTableRecord
  2
*PAPER_SPACE
340
173D6
  0
BLOCK_RECORD
  5
DEAC
330
7466
100
AcDbSymbolTableRecord
100
AcDbBlockTableRecord
  2
_OPEN
340
0
  0
BLOCK_RECORD
  5
F770
330
7466
100
AcDbSymbolTableRecord
100
AcDbBlockTableRecord
  2
_DOTSMALL
340
0
102
{BLKREFS
331
18C65
331
18C66
331
18C59
331
18C5A
331
18C4D
331
18C4E
331
18C41
331
18C42
331
18C35
331
18C36
331
18C29
331
18C2A
331
18C1D
331
18C1E
331
18C0F
331
18C10
331
18C03
331
18C04
331
18BF5
331
18BF6
331
18BE7
331
18BE8
331
18BD9
331
18BDA
331
18BCD
331
18BCE
331
21316
331
21317
331
21321
331
21322
331
2132A
331
2132B
331
271F2
331
271F3
331
271FB
331
271FC
331
27204
331
27205
331
2720D
331
2720E
331
27216
331
27217
331
2721F
331
27220
331
27228
331
27229
331
27231
331
27232
331
2723B
331
2723C
331
27244
331
27245
331
2724D
331
2724E
331
27257
331
27258
331
27260
331
27261
331
27269
331
2726A
331
27272
331
27273
331
2727B
331
2727C
331
27285
331
27286
331
272A1
331
272A2
331
272AB
331
272AC
331
272C0
331
272C1
331
272CA
331
272CB
331
272DF
331
272E0
331
272EA
331
272EB
331
272F5
331
272F6
331
27319
331
2731A
331
27322
331
27323
331
273B2
331
273B3
331
273BC
331
273BD
331
273E5
331
273E6
331
27438
331
27439
331
2742C
331
2742D
331
2741E
331
2741F
331
27412
331
27413
331
27406
331
27407
331
273FA
331
273FB
331
276FA
331
276FB
331
27705
331
27706
331
2770E
331
2770F
331
27717
331
27718
331
27720
331
27721
331
27729
331
2772A
102
}
  0
BLOCK_RECORD
  5
164B4
330
7466
100
AcDbSymbolTableRecord
100
AcDbBlockTableRecord
  2
_DOT
340
0
102
{BLKREFS
331
18C73
331
18C74
102
}
  0
BLOCK_RECORD
  5
18BC8
330
7466
100
AcDbSymbolTableRecord
100
AcDbBlockTableRecord
  2
*D3
340
0
  0
BLOCK_RECORD
  5
18BD4
330
7466
100
AcDbSymbolTableRecord
100
AcDbBlockTableRecord
  2
*D4
340
0
  0
BLOCK_RECORD
  5
18BE0
330
7466
100
AcDbSymbolTableRecord
100
AcDbBlockTableRecord
  2
*D5
340
0
  0
BLOCK_RECORD
  5
18BEE
330
7466
100
AcDbSymbolTableRecord
100
AcDbBlockTableRecord
  2
*D6
340
0
  0
BLOCK_RECORD
  5
18BFC
330
7466
100
AcDbSymbolTableRecord
100
AcDbBlockTableRecord
  2
*D7
340
0
  0
BLOCK_RECORD
  5
18C0A
330
7466
100
AcDbSymbolTableRecord
100
AcDbBlockTableRecord
  2
*D8
340
0
  0
BLOCK_RECORD
  5
18C16
330
7466
100
AcDbSymbolTableRecord
100
AcDbBlockTableRecord
  2
*D9
340
0
  0
BLOCK_RECORD
  5
18C24
330
7466
100
AcDbSymbolTableRecord
100
AcDbBlockTableRecord
  2
*D10
340
0
  0
BLOCK_RECORD
  5
18C30
330
7466
100
AcDbSymbolTableRecord
100
AcDbBlockTableRecord
  2
*D11
340
0
  0
BLOCK_RECORD
  5
18C3C
330
7466
100
AcDbSymbolTableRecord
100
AcDbBlockTableRecord
  2
*D12
340
0
  0
BLOCK_RECORD
  5
18C48
330
7466
100
AcDbSymbolTableRecord
100
AcDbBlockTableRecord
  2
*D13
340
0
  0
BLOCK_RECORD
  5
18C54
330
7466
100
AcDbSymbolTableRecord
100
AcDbBlockTableRecord
  2
*D14
340
0
  0
BLOCK_RECORD
  5
18C60
330
7466
100
AcDbSymbolTableRecord
100
AcDbBlockTableRecord
  2
*D15
340
0
  0
BLOCK_RECORD
  5
18C6C
330
7466
100
AcDbSymbolTableRecord
100
AcDbBlockTableRecord
  2
*D16
340
0
  0
BLOCK_RECORD
  5
18C7A
330
7466
100
AcDbSymbolTableRecord
100
AcDbBlockTableRecord
  2
A$C3B1A506B
340
0
  0
BLOCK_RECORD
  5
1C4CA
330
7466
100
AcDbSymbolTableRecord
100
AcDbBlockTableRecord
  2
_NONE
340
0
  0
BLOCK_RECORD
  5
20DE2
330
7466
100
AcDbSymbolTableRecord
100
AcDbBlockTableRecord
  2
*D19
340
0
  0
BLOCK_RECORD
  5
20DFC
330
7466
100
AcDbSymbolTableRecord
100
AcDbBlockTableRecord
  2
*D20
340
0
  0
BLOCK_RECORD
  5
22742
330
7466
100
AcDbSymbolTableRecord
100
AcDbBlockTableRecord
  2
*D25
340
0
  0
BLOCK_RECORD
  5
2275C
330
7466
100
AcDbSymbolTableRecord
100
AcDbBlockTableRecord
  2
*D26
340
0
  0
BLOCK_RECORD
  5
239F3
330
7466
100
AcDbSymbolTableRecord
100
AcDbBlockTableRecord
  2
*D27
340
0
  0
BLOCK_RECORD
  5
23A23
330
7466
100
AcDbSymbolTableRecord
100
AcDbBlockTableRecord
  2
*D28
340
0
  0
BLOCK_RECORD
  5
23ADE
330
7466
100
AcDbSymbolTableRecord
100
AcDbBlockTableRecord
  2
*D29
340
0
  0
BLOCK_RECORD
  5
26E94
330
7466
100
AcDbSymbolTableRecord
100
AcDbBlockTableRecord
  2
*D30
340
0
  0
BLOCK_RECORD
  5
26EAC
330
7466
100
AcDbSymbolTableRecord
100
AcDbBlockTableRecord
  2
*D31
340
0
  0
BLOCK_RECORD
  5
26EB7
330
7466
100
AcDbSymbolTableRecord
100
AcDbBlockTableRecord
  2
*D32
340
0
  0
BLOCK_RECORD
  5
26EC3
330
7466
100
AcDbSymbolTableRecord
100
AcDbBlockTableRecord
  2
*D33
340
0
  0
BLOCK_RECORD
  5
26ECF
330
7466
100
AcDbSymbolTableRecord
100
AcDbBlockTableRecord
  2
*D34
340
0
  0
BLOCK_RECORD
  5
26EDB
330
7466
100
AcDbSymbolTableRecord
100
AcDbBlockTableRecord
  2
*D35
340
0
  0
BLOCK_RECORD
  5
26EE7
330
7466
100
AcDbSymbolTableRecord
100
AcDbBlockTableRecord
  2
*D36
340
0
  0
BLOCK_RECORD
  5
26EF3
330
7466
100
AcDbSymbolTableRecord
100
AcDbBlockTableRecord
  2
*D37
340
0
  0
BLOCK_RECORD
  5
26F1A
330
7466
100
AcDbSymbolTableRecord
100
AcDbBlockTableRecord
  2
*D38
340
0
  0
BLOCK_RECORD
  5
26F26
330
7466
100
AcDbSymbolTableRecord
100
AcDbBlockTableRecord
  2
*D39
340
0
  0
BLOCK_RECORD
  5
26F32
330
7466
100
AcDbSymbolTableRecord
100
AcDbBlockTableRecord
  2
*D40
340
0
  0
BLOCK_RECORD
  5
26F3E
330
7466
100
AcDbSymbolTableRecord
100
AcDbBlockTableRecord
  2
*D41
340
0
  0
BLOCK_RECORD
  5
26F4B
330
7466
100
AcDbSymbolTableRecord
100
AcDbBlockTableRecord
  2
*D42
340
0
  0
BLOCK_RECORD
  5
26F57
330
7466
100
AcDbSymbolTableRecord
100
AcDbBlockTableRecord
  2
*D43
340
0
  0
BLOCK_RECORD
  5
26F6F
330
7466
100
AcDbSymbolTableRecord
100
AcDbBlockTableRecord
  2
*D44
340
0
  0
BLOCK_RECORD
  5
26F7C
330
7466
100
AcDbSymbolTableRecord
100
AcDbBlockTableRecord
  2
*D45
340
0
  0
BLOCK_RECORD
  5
26F95
330
7466
100
AcDbSymbolTableRecord
100
AcDbBlockTableRecord
  2
*D46
340
0
  0
BLOCK_RECORD
  5
26FA2
330
7466
100
AcDbSymbolTableRecord
100
AcDbBlockTableRecord
  2
*D47
340
0
  0
BLOCK_RECORD
  5
26FAE
330
7466
100
AcDbSymbolTableRecord
100
AcDbBlockTableRecord
  2
*D48
340
0
  0
BLOCK_RECORD
  5
26FC3
330
7466
100
AcDbSymbolTableRecord
100
AcDbBlockTableRecord
  2
*D49
340
0
  0
BLOCK_RECORD
  5
26FDD
330
7466
100
AcDbSymbolTableRecord
100
AcDbBlockTableRecord
  2
*D50
340
0
  0
BLOCK_RECORD
  5
276AD
330
7466
100
AcDbSymbolTableRecord
100
AcDbBlockTableRecord
  2
*D57
340
0
  0
BLOCK_RECORD
  5
276B9
330
7466
100
AcDbSymbolTableRecord
100
AcDbBlockTableRecord
  2
*D58
340
0
  0
BLOCK_RECORD
  5
276C7
330
7466
100
AcDbSymbolTableRecord
100
AcDbBlockTableRecord
  2
*D59
340
0
  0
BLOCK_RECORD
  5
276D3
330
7466
100
AcDbSymbolTableRecord
100
AcDbBlockTableRecord
  2
*D60
340
0
  0
BLOCK_RECORD
  5
276DF
330
7466
100
AcDbSymbolTableRecord
100
AcDbBlockTableRecord
  2
*D61
340
0
  0
BLOCK_RECORD
  5
276EB
330
7466
100
AcDbSymbolTableRecord
100
AcDbBlockTableRecord
  2
*D62
340
0
  0
ENDTAB
  0
ENDSEC
  0
SECTION
  2
BLOCKS
  0
BLOCK
  5
7489
330
747D
100
AcDbEntity
  8
0
100
AcDbBlockBegin
  2
*MODEL_SPACE
 70
     0
 10
0.0
 20
0.0
 30
0.0
  3
*MODEL_SPACE
  1

  0
ENDBLK
  5
748A
330
747D
100
AcDbEntity
  8
0
100
AcDbBlockEnd
  0
BLOCK
  5
7487
330
747A
100
AcDbEntity
 67
     1
  8
0
100
AcDbBlockBegin
  2
*PAPER_SPACE
 70
     0
 10
0.0
 20
0.0
 30
0.0
  3
*PAPER_SPACE
  1

  0
ENDBLK
  5
7488
330
747A
100
AcDbEntity
 67
     1
  8
0
100
AcDbBlockEnd
  0
BLOCK
  5
DEAD
330
DEAC
100
AcDbEntity
  8
0
100
AcDbBlockBegin
  2
_OPEN
 70
     0
 10
0.0
 20
0.0
 30
0.0
  3
_OPEN
  1

  0
LINE
  5
DEAE
330
DEAC
100
AcDbEntity
  8
0
  6
ByBlock
 62
     0
100
AcDbLine
 10
-1.0
 20
0.1666666666666666
 30
0.0
 11
0.0
 21
0.0
 31
0.0
  0
LINE
  5
DEAF
330
DEAC
100
AcDbEntity
  8
0
  6
ByBlock
 62
     0
100
AcDbLine
 10
0.0
 20
0.0
 30
0.0
 11
-1.0
 21
-0.1666666666666666
 31
0.0
  0
LINE
  5
DEB0
330
DEAC
100
AcDbEntity
  8
0
  6
ByBlock
 62
     0
100
AcDbLine
 10
0.0
 20
0.0
 30
0.0
 11
-1.0
 21
0.0
 31
0.0
  0
ENDBLK
  5
DEB1
330
DEAC
100
AcDbEntity
  8
0
100
AcDbBlockEnd
  0
BLOCK
  5
F771
330
F770
100
AcDbEntity
  8
0
 48
50.0
100
AcDbBlockBegin
  2
_DOTSMALL
 70
     0
 10
0.0
 20
0.0
 30
0.0
  3
_DOTSMALL
  1

  0
LWPOLYLINE
  5
F772
330
F770
100
AcDbEntity
  8
0
  6
ByBlock
 62
     0
 48
50.0
100
AcDbPolyline
 90
        2
 70
     1
 43
0.5
 10
-0.0625
 20
0.0
 42
1.0
 10
0.0625
 20
0.0
 42
1.0
  0
ENDBLK
  5
F776
330
F770
100
AcDbEntity
  8
0
 48
50.0
100
AcDbBlockEnd
  0
BLOCK
  5
164BA
330
164B4
100
AcDbEntity
  8
0
 48
50.0
100
AcDbBlockBegin
  2
_DOT
 70
     0
 10
0.0
 20
0.0
 30
0.0
  3
_DOT
  1

  0
LWPOLYLINE
  5
164B5
330
164B4
100
AcDbEntity
  8
0
  6
ByBlock
 62
     0
 48
50.0
100
AcDbPolyline
 90
        2
 70
     1
 43
0.5
 10
-0.25
 20
0.0
 42
1.0
 10
0.25
 20
0.0
 42
1.0
  0
LINE
  5
164B9
330
164B4
100
AcDbEntity
  8
0
  6
ByBlock
 62
     0
 48
50.0
100
AcDbLine
 10
-0.5
 20
0.0
 30
0.0
 11
-1.0
 21
0.0
 31
0.0
  0
ENDBLK
  5
164BB
330
164B4
100
AcDbEntity
  8
0
 48
50.0
100
AcDbBlockEnd
  0
BLOCK
  5
18BC9
330
18BC8
100
AcDbEntity
  8
0
 48
50.0
100
AcDbBlockBegin
  2
*D3
 70
     1
 10
0.0
 20
0.0
 30
0.0
  3
*D3
  1

  0
LINE
  5
18BCA
330
18BC8
100
AcDbEntity
  8
寸法
 62
     0
 48
50.0
370
    -2
100
AcDbLine
 10
7649.896575106999
 20
9636.123139034717
 30
0.0
 11
8702.429862581047
 21
9636.123139034717
 31
0.0
  0
LINE
  5
18BCB
330
18BC8
100
AcDbEntity
  8
寸法
 62
     0
 48
50.0
370
    -2
100
AcDbLine
 10
7649.896575106973
 20
7846.123139034709
 30
0.0
 11
8702.429862581047
 21
7846.123139034709
 31
0.0
  0
LINE
  5
18BCC
330
18BC8
100
AcDbEntity
  8
寸法
 62
     0
 48
50.0
370
    -2
100
AcDbLine
 10
8642.429862581046
 20
9636.123139034717
 30
0.0
 11
8642.429862581046
 21
7846.123139034709
 31
0.0
  0
INSERT
  5
18BCD
330
18BC8
100
AcDbEntity
  8
寸法
 62
     0
 48
50.0
370
    -2
100
AcDbBlockReference
  2
_DOTSMALL
 10
8642.429862581046
 20
9636.123139034717
 30
0.0
 41
100.0
 42
100.0
 43
100.0
 50
90.0
  0
INSERT
  5
18BCE
330
18BC8
100
AcDbEntity
  8
寸法
 62
     0
 48
50.0
370
    -2
100
AcDbBlockReference
  2
_DOTSMALL
 10
8642.429862581046
 20
7846.123139034709
 30
0.0
 41
100.0
 42
100.0
 43
100.0
 50
270.0
  0
MTEXT
  5
18BCF
330
18BC8
100
AcDbEntity
  8
寸法
 62
     7
 48
50.0
100
AcDbMText
 10
8542.429862581045
 20
8741.123139034712
 30
0.0
 40
120.0
 41
0.0
 71
     5
 72
     1
  1
\A1;1790
  7
STYLE1
 11
0.0000000000000001
 21
1.0
 31
0.0
 73
     1
 44
1.0
1001
ACAD
1000
MTEXTBEGIN
1070
    73
1070
     1
1070
    44
1040
1.0
1070
    74
1070
     0
1000
MTEXTEND
  0
POINT
  5
18BD0
330
18BC8
100
AcDbEntity
  8
DEFPOINTS
 62
     0
 48
50.0
100
AcDbPoint
 10
7629.896575106998
 20
9636.123139034717
 30
0.0
  0
POINT
  5
18BD1
330
18BC8
100
AcDbEntity
  8
DEFPOINTS
 62
     0
 48
50.0
100
AcDbPoint
 10
7629.896575106974
 20
7846.123139034709
 30
0.0
  0
POINT
  5
18BD2
330
18BC8
100
AcDbEntity
  8
DEFPOINTS
 62
     0
 48
50.0
100
AcDbPoint
 10
8642.429862581046
 20
7846.123139034709
 30
0.0
  0
ENDBLK
  5
18BD3
330
18BC8
100
AcDbEntity
  8
0
 48
50.0
100
AcDbBlockEnd
  0
BLOCK
  5
18BD5
330
18BD4
100
AcDbEntity
  8
0
 48
50.0
100
AcDbBlockBegin
  2
*D4
 70
     1
 10
0.0
 20
0.0
 30
0.0
  3
*D4
  1

  0
LINE
  5
18BD6
330
18BD4
100
AcDbEntity
  8
寸法
 62
     0
 48
50.0
370
    -2
100
AcDbLine
 10
4214.896575106998
 20
9656.123139034622
 30
0.0
 11
4214.896575106998
 21
10211.93135865972
 31
0.0
  0
LINE
  5
18BD7
330
18BD4
100
AcDbEntity
  8
寸法
 62
     0
 48
50.0
370
    -2
100
AcDbLine
 10
7574.896575106999
 20
9656.123139034718
 30
0.0
 11
7574.896575106999
 21
10211.93135865972
 31
0.0
  0
LINE
  5
18BD8
330
18BD4
100
AcDbEntity
  8
寸法
 62
     0
 48
50.0
370
    -2
100
AcDbLine
 10
4214.896575106998
 20
10151.93135865972
 30
0.0
 11
7574.896575106999
 21
10151.93135865972
 31
0.0
  0
INSERT
  5
18BD9
330
18BD4
100
AcDbEntity
  8
寸法
 62
     0
 48
50.0
370
    -2
100
AcDbBlockReference
  2
_DOTSMALL
 10
4214.896575106998
 20
10151.93135865972
 30
0.0
 41
100.0
 42
100.0
 43
100.0
 50
180.0
  0
INSERT
  5
18BDA
330
18BD4
100
AcDbEntity
  8
寸法
 62
     0
 48
50.0
370
    -2
100
AcDbBlockReference
  2
_DOTSMALL
 10
7574.896575106999
 20
10151.93135865972
 30
0.0
 41
100.0
 42
100.0
 43
100.0
  0
MTEXT
  5
18BDB
330
18BD4
100
AcDbEntity
  8
寸法
 62
     7
 48
50.0
100
AcDbMText
 10
5894.896575106997
 20
10251.94316968334
 30
0.0
 40
120.0
 41
0.0
 71
     5
 72
     1
  1
\A1;8X420=3360
  7
STYLE1
 73
     1
 44
1.0
1001
ACAD
1000
MTEXTBEGIN
1070
    73
1070
     1
1070
    44
1040
1.0
1070
    74
1070
     0
1000
MTEXTEND
  0
POINT
  5
18BDC
330
18BD4
100
AcDbEntity
  8
DEFPOINTS
 62
     0
 48
50.0
100
AcDbPoint
 10
4214.896575106998
 20
9636.123139034623
 30
0.0
  0
POINT
  5
18BDD
330
18BD4
100
AcDbEntity
  8
DEFPOINTS
 62
     0
 48
50.0
100
AcDbPoint
 10
7574.896575106999
 20
9636.123139034717
 30
0.0
  0
POINT
  5
18BDE
330
18BD4
100
AcDbEntity
  8
DEFPOINTS
 62
     0
 48
50.0
100
AcDbPoint
 10
7574.896575106999
 20
10151.93135865972
 30
0.0
  0
ENDBLK
  5
18BDF
330
18BD4
100
AcDbEntity
  8
0
 48
50.0
100
AcDbBlockEnd
  0
BLOCK
  5
18BE1
330
18BE0
100
AcDbEntity
  8
0
 48
50.0
100
AcDbBlockBegin
  2
*D5
 70
     1
 10
0.0
 20
0.0
 30
0.0
  3
*D5
  1

  0
LINE
  5
18BE2
330
18BE0
100
AcDbEntity
  8
寸法
 62
     0
 48
50.0
370
    -2
100
AcDbLine
 10
7574.896575106999
 20
9656.123139034718
 30
0.0
 11
7574.896575106999
 21
10211.9313586597
 31
0.0
  0
LINE
  5
18BE3
330
18BE0
100
AcDbEntity
  8
寸法
 62
     0
 48
50.0
370
    -2
100
AcDbLine
 10
7629.896575106998
 20
9656.123139034718
 30
0.0
 11
7629.896575106998
 21
10211.9313586597
 31
0.0
  0
LINE
  5
18BE4
330
18BE0
100
AcDbEntity
  8
寸法
 62
     0
 48
50.0
370
    -2
100
AcDbLine
 10
7574.896575106999
 20
10151.9313586597
 30
0.0
 11
7474.896575106999
 21
10151.9313586597
 31
0.0
  0
LINE
  5
18BE5
330
18BE0
100
AcDbEntity
  8
寸法
 62
     0
 48
50.0
370
    -2
100
AcDbLine
 10
7629.896575106998
 20
10151.9313586597
 30
0.0
 11
8046.867137855477
 21
10151.9313586597
 31
0.0
  0
LINE
  5
18BE6
330
18BE0
100
AcDbEntity
  8
寸法
 62
     0
 48
50.0
370
    -2
100
AcDbLine
 10
7574.896575106999
 20
10151.9313586597
 30
0.0
 11
7629.896575106998
 21
10151.9313586597
 31
0.0
  0
INSERT
  5
18BE7
330
18BE0
100
AcDbEntity
  8
寸法
 62
     0
 48
50.0
370
    -2
100
AcDbBlockReference
  2
_DOTSMALL
 10
7574.896575106999
 20
10151.9313586597
 30
0.0
 41
100.0
 42
100.0
 43
100.0
  0
INSERT
  5
18BE8
330
18BE0
100
AcDbEntity
  8
寸法
 62
     0
 48
50.0
370
    -2
100
AcDbBlockReference
  2
_DOTSMALL
 10
7629.896575106998
 20
10151.9313586597
 30
0.0
 41
100.0
 42
100.0
 43
100.0
 50
180.0
  0
MTEXT
  5
18BE9
330
18BE0
100
AcDbEntity
  8
寸法
 62
     7
 48
50.0
100
AcDbMText
 10
7938.381856481237
 20
10251.9313586597
 30
0.0
 40
120.0
 41
0.0
 71
     5
 72
     1
  1
\A1;55
  7
STYLE1
 73
     1
 44
1.0
1001
ACAD
1000
MTEXTBEGIN
1070
    73
1070
     1
1070
    44
1040
1.0
1070
    74
1070
     0
1000
MTEXTEND
  0
POINT
  5
18BEA
330
18BE0
100
AcDbEntity
  8
DEFPOINTS
 62
     0
 48
50.0
100
AcDbPoint
 10
7574.896575106999
 20
9636.123139034717
 30
0.0
  0
POINT
  5
18BEB
330
18BE0
100
AcDbEntity
  8
DEFPOINTS
 62
     0
 48
50.0
100
AcDbPoint
 10
7629.896575106998
 20
9636.123139034717
 30
0.0
  0
POINT
  5
18BEC
330
18BE0
100
AcDbEntity
  8
DEFPOINTS
 62
     0
 48
50.0
100
AcDbPoint
 10
7629.896575106998
 20
10151.9313586597
 30
0.0
  0
ENDBLK
  5
18BED
330
18BE0
100
AcDbEntity
  8
0
 48
50.0
100
AcDbBlockEnd
  0
BLOCK
  5
18BEF
330
18BEE
100
AcDbEntity
  8
0
 48
50.0
100
AcDbBlockBegin
  2
*D6
 70
     1
 10
0.0
 20
0.0
 30
0.0
  3
*D6
  1

  0
LINE
  5
18BF0
330
18BEE
100
AcDbEntity
  8
寸法
 62
     0
 48
50.0
370
    -2
100
AcDbLine
 10
7649.896575106999
 20
9636.123139034717
 30
0.0
 11
8337.32292084141
 21
9636.123139034717
 31
0.0
  0
LINE
  5
18BF1
330
18BEE
100
AcDbEntity
  8
寸法
 62
     0
 48
50.0
370
    -2
100
AcDbLine
 10
7649.896575106999
 20
9581.123139034721
 30
0.0
 11
8337.32292084141
 21
9581.123139034721
 31
0.0
  0
LINE
  5
18BF2
330
18BEE
100
AcDbEntity
  8
寸法
 62
     0
 48
50.0
370
    -2
100
AcDbLine
 10
8277.322920841411
 20
9581.123139034721
 30
0.0
 11
8277.322920841411
 21
9481.123139034719
 31
0.0
  0
LINE
  5
18BF3
330
18BEE
100
AcDbEntity
  8
寸法
 62
     0
 48
50.0
370
    -2
100
AcDbLine
 10
8277.322920841411
 20
9636.123139034717
 30
0.0
 11
8277.322920841411
 21
10053.09370178319
 31
0.0
  0
LINE
  5
18BF4
330
18BEE
100
AcDbEntity
  8
寸法
 62
     0
 48
50.0
370
    -2
100
AcDbLine
 10
8277.322920841411
 20
9581.123139034721
 30
0.0
 11
8277.322920841411
 21
9636.123139034717
 31
0.0
  0
INSERT
  5
18BF5
330
18BEE
100
AcDbEntity
  8
寸法
 62
     0
 48
50.0
370
    -2
100
AcDbBlockReference
  2
_DOTSMALL
 10
8277.322920841411
 20
9581.123139034721
 30
0.0
 41
100.0
 42
100.0
 43
100.0
 50
90.0
  0
INSERT
  5
18BF6
330
18BEE
100
AcDbEntity
  8
寸法
 62
     0
 48
50.0
370
    -2
100
AcDbBlockReference
  2
_DOTSMALL
 10
8277.322920841411
 20
9636.123139034717
 30
0.0
 41
100.0
 42
100.0
 43
100.0
 50
270.0
  0
MTEXT
  5
18BF7
330
18BEE
100
AcDbEntity
  8
寸法
 62
     7
 48
50.0
100
AcDbMText
 10
8177.32292084141
 20
9944.608420408957
 30
0.0
 40
120.0
 41
0.0
 71
     5
 72
     1
  1
\A1;55
  7
STYLE1
 11
0.0000000000000001
 21
1.0
 31
0.0
 73
     1
 44
1.0
1001
ACAD
1000
MTEXTBEGIN
1070
    73
1070
     1
1070
    44
1040
1.0
1070
    74
1070
     0
1000
MTEXTEND
  0
POINT
  5
18BF8
330
18BEE
100
AcDbEntity
  8
DEFPOINTS
 62
     0
 48
50.0
100
AcDbPoint
 10
7629.896575106998
 20
9636.123139034717
 30
0.0
  0
POINT
  5
18BF9
330
18BEE
100
AcDbEntity
  8
DEFPOINTS
 62
     0
 48
50.0
100
AcDbPoint
 10
7629.896575106998
 20
9581.123139034721
 30
0.0
  0
POINT
  5
18BFA
330
18BEE
100
AcDbEntity
  8
DEFPOINTS
 62
     0
 48
50.0
100
AcDbPoint
 10
8277.322920841411
 20
9581.123139034721
 30
0.0
  0
ENDBLK
  5
18BFB
330
18BEE
100
AcDbEntity
  8
0
 48
50.0
100
AcDbBlockEnd
  0
BLOCK
  5
18BFD
330
18BFC
100
AcDbEntity
  8
0
 48
50.0
100
AcDbBlockBegin
  2
*D7
 70
     1
 10
0.0
 20
0.0
 30
0.0
  3
*D7
  1

  0
LINE
  5
18BFE
330
18BFC
100
AcDbEntity
  8
寸法
 62
     0
 48
50.0
370
    -2
100
AcDbLine
 10
4159.896575106963
 20
9656.123139034622
 30
0.0
 11
4159.896575106963
 21
10211.9313586596
 31
0.0
  0
LINE
  5
18BFF
330
18BFC
100
AcDbEntity
  8
寸法
 62
     0
 48
50.0
370
    -2
100
AcDbLine
 10
4214.896575106998
 20
9656.123139034622
 30
0.0
 11
4214.896575106998
 21
10211.9313586596
 31
0.0
  0
LINE
  5
18C00
330
18BFC
100
AcDbEntity
  8
寸法
 62
     0
 48
50.0
370
    -2
100
AcDbLine
 10
4214.896575106998
 20
10151.9313586596
 30
0.0
 11
4314.896575106998
 21
10151.9313586596
 31
0.0
  0
LINE
  5
18C01
330
18BFC
100
AcDbEntity
  8
寸法
 62
     0
 48
50.0
370
    -2
100
AcDbLine
 10
4159.896575106963
 20
10151.9313586596
 30
0.0
 11
3742.926012358486
 21
10151.9313586596
 31
0.0
  0
LINE
  5
18C02
330
18BFC
100
AcDbEntity
  8
寸法
 62
     0
 48
50.0
370
    -2
100
AcDbLine
 10
4214.896575106998
 20
10151.9313586596
 30
0.0
 11
4159.896575106963
 21
10151.9313586596
 31
0.0
  0
INSERT
  5
18C03
330
18BFC
100
AcDbEntity
  8
寸法
 62
     0
 48
50.0
370
    -2
100
AcDbBlockReference
  2
_DOTSMALL
 10
4214.896575106998
 20
10151.9313586596
 30
0.0
 41
100.0
 42
100.0
 43
100.0
 50
180.0
  0
INSERT
  5
18C04
330
18BFC
100
AcDbEntity
  8
寸法
 62
     0
 48
50.0
370
    -2
100
AcDbBlockReference
  2
_DOTSMALL
 10
4159.896575106963
 20
10151.9313586596
 30
0.0
 41
100.0
 42
100.0
 43
100.0
  0
MTEXT
  5
18C05
330
18BFC
100
AcDbEntity
  8
寸法
 62
     7
 48
50.0
100
AcDbMText
 10
3851.411293732725
 20
10251.9313586596
 30
0.0
 40
120.0
 41
0.0
 71
     5
 72
     1
  1
\A1;55
  7
STYLE1
 73
     1
 44
1.0
1001
ACAD
1000
MTEXTBEGIN
1070
    73
1070
     1
1070
    44
1040
1.0
1070
    74
1070
     0
1000
MTEXTEND
  0
POINT
  5
18C06
330
18BFC
100
AcDbEntity
  8
DEFPOINTS
 62
     0
 48
50.0
100
AcDbPoint
 10
4159.896575106963
 20
9636.123139034623
 30
0.0
  0
POINT
  5
18C07
330
18BFC
100
AcDbEntity
  8
DEFPOINTS
 62
     0
 48
50.0
100
AcDbPoint
 10
4214.896575106998
 20
9636.123139034623
 30
0.0
  0
POINT
  5
18C08
330
18BFC
100
AcDbEntity
  8
DEFPOINTS
 62
     0
 48
50.0
100
AcDbPoint
 10
4214.896575106998
 20
10151.9313586596
 30
0.0
  0
ENDBLK
  5
18C09
330
18BFC
100
AcDbEntity
  8
0
 48
50.0
100
AcDbBlockEnd
  0
BLOCK
  5
18C0B
330
18C0A
100
AcDbEntity
  8
0
 48
50.0
100
AcDbBlockBegin
  2
*D8
 70
     1
 10
0.0
 20
0.0
 30
0.0
  3
*D8
  1

  0
LINE
  5
18C0C
330
18C0A
100
AcDbEntity
  8
寸法
 62
     0
 48
50.0
370
    -2
100
AcDbLine
 10
4159.896575106992
 20
7826.123139034546
 30
0.0
 11
4159.896575106992
 21
6804.372203245664
 31
0.0
  0
LINE
  5
18C0D
330
18C0A
100
AcDbEntity
  8
寸法
 62
     0
 48
50.0
370
    -2
100
AcDbLine
 10
7629.896575106974
 20
7826.123139034674
 30
0.0
 11
7629.896575106974
 21
6804.372203245664
 31
0.0
  0
LINE
  5
18C0E
330
18C0A
100
AcDbEntity
  8
寸法
 62
     0
 48
50.0
370
    -2
100
AcDbLine
 10
4159.896575106992
 20
6864.372203245665
 30
0.0
 11
7629.896575106974
 21
6864.372203245665
 31
0.0
  0
INSERT
  5
18C0F
330
18C0A
100
AcDbEntity
  8
寸法
 62
     0
 48
50.0
370
    -2
100
AcDbBlockReference
  2
_DOTSMALL
 10
4159.896575106992
 20
6864.372203245665
 30
0.0
 41
100.0
 42
100.0
 43
100.0
 50
180.0
  0
INSERT
  5
18C10
330
18C0A
100
AcDbEntity
  8
寸法
 62
     0
 48
50.0
370
    -2
100
AcDbBlockReference
  2
_DOTSMALL
 10
7629.896575106974
 20
6864.372203245665
 30
0.0
 41
100.0
 42
100.0
 43
100.0
  0
MTEXT
  5
18C11
330
18C0A
100
AcDbEntity
  8
寸法
 62
     7
 48
50.0
100
AcDbMText
 10
5911.12376113973
 20
6964.372203245665
 30
0.0
 40
120.0
 41
0.0
 71
     5
 72
     1
  1
\A1;3470
  7
STYLE1
 73
     1
 44
1.0
1001
ACAD
1000
MTEXTBEGIN
1070
    73
1070
     1
1070
    44
1040
1.0
1070
    74
1070
     0
1000
MTEXTEND
  0
POINT
  5
18C12
330
18C0A
100
AcDbEntity
  8
DEFPOINTS
 62
     0
 48
50.0
100
AcDbPoint
 10
4159.896575106992
 20
7846.123139034546
 30
0.0
  0
POINT
  5
18C13
330
18C0A
100
AcDbEntity
  8
DEFPOINTS
 62
     0
 48
50.0
100
AcDbPoint
 10
7629.896575106974
 20
7846.123139034673
 30
0.0
  0
POINT
  5
18C14
330
18C0A
100
AcDbEntity
  8
DEFPOINTS
 62
     0
 48
50.0
100
AcDbPoint
 10
7629.896575106974
 20
6864.372203245665
 30
0.0
  0
ENDBLK
  5
18C15
330
18C0A
100
AcDbEntity
  8
0
 48
50.0
100
AcDbBlockEnd
  0
BLOCK
  5
18C17
330
18C16
100
AcDbEntity
  8
0
 48
50.0
100
AcDbBlockBegin
  2
*D9
 70
     1
 10
0.0
 20
0.0
 30
0.0
  3
*D9
  1

  0
LINE
  5
18C18
330
18C16
100
AcDbEntity
  8
寸法
 62
     0
 48
50.0
370
    -2
100
AcDbLine
 10
7649.896575106973
 20
7901.123139034706
 30
0.0
 11
8337.322920841385
 21
7901.123139034706
 31
0.0
  0
LINE
  5
18C19
330
18C16
100
AcDbEntity
  8
寸法
 62
     0
 48
50.0
370
    -2
100
AcDbLine
 10
7649.896575106973
 20
7846.123139034709
 30
0.0
 11
8337.322920841385
 21
7846.123139034709
 31
0.0
  0
LINE
  5
18C1A
330
18C16
100
AcDbEntity
  8
寸法
 62
     0
 48
50.0
370
    -2
100
AcDbLine
 10
8277.322920841385
 20
7901.123139034706
 30
0.0
 11
8277.322920841385
 21
8001.123139034707
 31
0.0
  0
LINE
  5
18C1B
330
18C16
100
AcDbEntity
  8
寸法
 62
     0
 48
50.0
370
    -2
100
AcDbLine
 10
8277.322920841385
 20
7846.123139034709
 30
0.0
 11
8277.322920841385
 21
7429.152576286229
 31
0.0
  0
LINE
  5
18C1C
330
18C16
100
AcDbEntity
  8
寸法
 62
     0
 48
50.0
370
    -2
100
AcDbLine
 10
8277.322920841385
 20
7901.123139034706
 30
0.0
 11
8277.322920841385
 21
7846.123139034709
 31
0.0
  0
INSERT
  5
18C1D
330
18C16
100
AcDbEntity
  8
寸法
 62
     0
 48
50.0
370
    -2
100
AcDbBlockReference
  2
_DOTSMALL
 10
8277.322920841385
 20
7901.123139034706
 30
0.0
 41
100.0
 42
100.0
 43
100.0
 50
270.0
  0
INSERT
  5
18C1E
330
18C16
100
AcDbEntity
  8
寸法
 62
     0
 48
50.0
370
    -2
100
AcDbBlockReference
  2
_DOTSMALL
 10
8277.322920841385
 20
7846.123139034709
 30
0.0
 41
100.0
 42
100.0
 43
100.0
 50
90.0
  0
MTEXT
  5
18C1F
330
18C16
100
AcDbEntity
  8
寸法
 62
     7
 48
50.0
100
AcDbMText
 10
8177.322920841383
 20
7537.637857660469
 30
0.0
 40
120.0
 41
0.0
 71
     5
 72
     1
  1
\A1;55
  7
STYLE1
 11
0.0000000000000001
 21
1.0
 31
0.0
 73
     1
 44
1.0
1001
ACAD
1000
MTEXTBEGIN
1070
    73
1070
     1
1070
    44
1040
1.0
1070
    74
1070
     0
1000
MTEXTEND
  0
POINT
  5
18C20
330
18C16
100
AcDbEntity
  8
DEFPOINTS
 62
     0
 48
50.0
100
AcDbPoint
 10
7629.896575106974
 20
7901.123139034706
 30
0.0
  0
POINT
  5
18C21
330
18C16
100
AcDbEntity
  8
DEFPOINTS
 62
     0
 48
50.0
100
AcDbPoint
 10
7629.896575106974
 20
7846.123139034709
 30
0.0
  0
POINT
  5
18C22
330
18C16
100
AcDbEntity
  8
DEFPOINTS
 62
     0
 48
50.0
100
AcDbPoint
 10
8277.322920841385
 20
7846.123139034709
 30
0.0
  0
ENDBLK
  5
18C23
330
18C16
100
AcDbEntity
  8
0
 48
50.0
100
AcDbBlockEnd
  0
BLOCK
  5
18C25
330
18C24
100
AcDbEntity
  8
0
 48
50.0
100
AcDbBlockBegin
  2
*D10
 70
     1
 10
0.0
 20
0.0
 30
0.0
  3
*D10
  1

  0
LINE
  5
18C26
330
18C24
100
AcDbEntity
  8
寸法
 62
     0
 48
50.0
370
    -2
100
AcDbLine
 10
6533.037591258376
 20
9136.123139034728
 30
0.0
 11
6465.083950562664
 21
8882.516699399049
 31
0.0
  0
LINE
  5
18C27
330
18C24
100
AcDbEntity
  8
寸法
 62
     0
 48
50.0
370
    -2
100
AcDbLine
 10
7596.037591258388
 20
9136.123139034721
 30
0.0
 11
7528.083950562677
 21
8882.516699399049
 31
0.0
  0
LINE
  5
18C28
330
18C24
100
AcDbEntity
  8
寸法
 62
     0
 48
50.0
370
    -2
100
AcDbLine
 10
6481.160902108531
 20
8942.51669939905
 30
0.0
 11
7544.160902108544
 21
8942.51669939905
 31
0.0
  0
INSERT
  5
18C29
330
18C24
100
AcDbEntity
  8
寸法
 62
     0
 48
50.0
370
    -2
100
AcDbBlockReference
  2
_DOTSMALL
 10
6481.160902108531
 20
8942.51669939905
 30
0.0
 41
100.0
 42
100.0
 43
100.0
 50
180.0
  0
INSERT
  5
18C2A
330
18C24
100
AcDbEntity
  8
寸法
 62
     0
 48
50.0
370
    -2
100
AcDbBlockReference
  2
_DOTSMALL
 10
7544.160902108544
 20
8942.51669939905
 30
0.0
 41
100.0
 42
100.0
 43
100.0
  0
MTEXT
  5
18C2B
330
18C24
100
AcDbEntity
  8
寸法
 62
     7
 48
50.0
100
AcDbMText
 10
7061.28653022935
 20
9042.516699399049
 30
0.0
 40
120.0
 41
0.0
 71
     5
 72
     1
  1
\A1;1063
  7
STYLE1
 73
     1
 44
1.0
1001
ACAD
1000
MTEXTBEGIN
1070
    73
1070
     1
1070
    44
1040
1.0
1070
    74
1070
     0
1000
MTEXTEND
  0
POINT
  5
18C2C
330
18C24
100
AcDbEntity
  8
DEFPOINTS
 62
     0
 48
50.0
100
AcDbPoint
 10
6538.396575106998
 20
9156.123139034727
 30
0.0
  0
POINT
  5
18C2D
330
18C24
100
AcDbEntity
  8
DEFPOINTS
 62
     0
 48
50.0
100
AcDbPoint
 10
7601.39657510701
 20
9156.12313903472
 30
0.0
  0
POINT
  5
18C2E
330
18C24
100
AcDbEntity
  8
DEFPOINTS
 62
     0
 48
50.0
100
AcDbPoint
 10
7544.160902108544
 20
8942.51669939905
 30
0.0
  0
ENDBLK
  5
18C2F
330
18C24
100
AcDbEntity
  8
0
 48
50.0
100
AcDbBlockEnd
  0
BLOCK
  5
18C31
330
18C30
100
AcDbEntity
  8
0
 48
50.0
100
AcDbBlockBegin
  2
*D11
 70
     1
 10
0.0
 20
0.0
 30
0.0
  3
*D11
  1

  0
LINE
  5
18C32
330
18C30
100
AcDbEntity
  8
寸法
 62
     0
 48
50.0
370
    -2
100
AcDbLine
 10
7621.396575106999
 20
9600.764155186094
 30
0.0
 11
8016.754300969024
 21
9494.828371819961
 31
0.0
  0
LINE
  5
18C33
330
18C30
100
AcDbEntity
  8
寸法
 62
     0
 48
50.0
370
    -2
100
AcDbLine
 10
7621.396575106999
 20
9150.764155186099
 30
0.0
 11
8016.754300969024
 21
9044.828371819964
 31
0.0
  0
LINE
  5
18C34
330
18C30
100
AcDbEntity
  8
寸法
 62
     0
 48
50.0
370
    -2
100
AcDbLine
 10
7956.754300969024
 20
9510.905323365827
 30
0.0
 11
7956.754300969024
 21
9060.90532336583
 31
0.0
  0
INSERT
  5
18C35
330
18C30
100
AcDbEntity
  8
寸法
 62
     0
 48
50.0
370
    -2
100
AcDbBlockReference
  2
_DOTSMALL
 10
7956.754300969024
 20
9510.905323365827
 30
0.0
 41
100.0
 42
100.0
 43
100.0
 50
90.0
  0
INSERT
  5
18C36
330
18C30
100
AcDbEntity
  8
寸法
 62
     0
 48
50.0
370
    -2
100
AcDbBlockReference
  2
_DOTSMALL
 10
7956.754300969024
 20
9060.90532336583
 30
0.0
 41
100.0
 42
100.0
 43
100.0
 50
270.0
  0
MTEXT
  5
18C37
330
18C30
100
AcDbEntity
  8
寸法
 62
     7
 48
50.0
100
AcDbMText
 10
7856.754300969022
 20
9285.905323365829
 30
0.0
 40
120.0
 41
0.0
 71
     5
 72
     1
  1
\A1;450
  7
STYLE1
 11
0.0000000000000001
 21
1.0
 31
0.0
 73
     1
 44
1.0
1001
ACAD
1000
MTEXTBEGIN
1070
    73
1070
     1
1070
    44
1040
1.0
1070
    74
1070
     0
1000
MTEXTEND
  0
POINT
  5
18C38
330
18C30
100
AcDbEntity
  8
DEFPOINTS
 62
     0
 48
50.0
100
AcDbPoint
 10
7601.396575106999
 20
9606.123139034718
 30
0.0
  0
POINT
  5
18C39
330
18C30
100
AcDbEntity
  8
DEFPOINTS
 62
     0
 48
50.0
100
AcDbPoint
 10
7601.396575106999
 20
9156.12313903472
 30
0.0
  0
POINT
  5
18C3A
330
18C30
100
AcDbEntity
  8
DEFPOINTS
 62
     0
 48
50.0
100
AcDbPoint
 10
7956.754300969024
 20
9060.90532336583
 30
0.0
  0
ENDBLK
  5
18C3B
330
18C30
100
AcDbEntity
  8
0
 48
50.0
100
AcDbBlockEnd
  0
BLOCK
  5
18C3D
330
18C3C
100
AcDbEntity
  8
0
 48
50.0
100
AcDbBlockBegin
  2
*D12
 70
     1
 10
0.0
 20
0.0
 30
0.0
  3
*D12
  1

  0
LINE
  5
18C3E
330
18C3C
100
AcDbEntity
  8
寸法
 62
     0
 48
50.0
370
    -2
100
AcDbLine
 10
7649.896575106999
 20
9581.123139034721
 30
0.0
 11
8337.32292084141
 21
9581.123139034721
 31
0.0
  0
LINE
  5
18C3F
330
18C3C
100
AcDbEntity
  8
寸法
 62
     0
 48
50.0
370
    -2
100
AcDbLine
 10
7649.896575106973
 20
7901.123139034706
 30
0.0
 11
8337.32292084141
 21
7901.123139034706
 31
0.0
  0
LINE
  5
18C40
330
18C3C
100
AcDbEntity
  8
寸法
 62
     0
 48
50.0
370
    -2
100
AcDbLine
 10
8277.322920841411
 20
9581.123139034721
 30
0.0
 11
8277.322920841411
 21
7901.123139034706
 31
0.0
  0
INSERT
  5
18C41
330
18C3C
100
AcDbEntity
  8
寸法
 62
     0
 48
50.0
370
    -2
100
AcDbBlockReference
  2
_DOTSMALL
 10
8277.322920841411
 20
9581.123139034721
 30
0.0
 41
100.0
 42
100.0
 43
100.0
 50
90.0
  0
INSERT
  5
18C42
330
18C3C
100
AcDbEntity
  8
寸法
 62
     0
 48
50.0
370
    -2
100
AcDbBlockReference
  2
_DOTSMALL
 10
8277.322920841411
 20
7901.123139034706
 30
0.0
 41
100.0
 42
100.0
 43
100.0
 50
270.0
  0
MTEXT
  5
18C43
330
18C3C
100
AcDbEntity
  8
寸法
 62
     7
 48
50.0
100
AcDbMText
 10
8177.311109817788
 20
8741.123139034712
 30
0.0
 40
120.0
 41
0.0
 71
     5
 72
     1
  1
\A1;4X420=1680
  7
STYLE1
 11
0.0000000000000001
 21
1.0
 31
0.0
 73
     1
 44
1.0
1001
ACAD
1000
MTEXTBEGIN
1070
    73
1070
     1
1070
    44
1040
1.0
1070
    74
1070
     0
1000
MTEXTEND
  0
POINT
  5
18C44
330
18C3C
100
AcDbEntity
  8
DEFPOINTS
 62
     0
 48
50.0
100
AcDbPoint
 10
7629.896575106998
 20
9581.123139034721
 30
0.0
  0
POINT
  5
18C45
330
18C3C
100
AcDbEntity
  8
DEFPOINTS
 62
     0
 48
50.0
100
AcDbPoint
 10
7629.896575106974
 20
7901.123139034706
 30
0.0
  0
POINT
  5
18C46
330
18C3C
100
AcDbEntity
  8
DEFPOINTS
 62
     0
 48
50.0
100
AcDbPoint
 10
8277.322920841411
 20
7901.123139034706
 30
0.0
  0
ENDBLK
  5
18C47
330
18C3C
100
AcDbEntity
  8
0
 48
50.0
100
AcDbBlockEnd
  0
BLOCK
  5
18C49
330
18C48
100
AcDbEntity
  8
0
 48
50.0
100
AcDbBlockBegin
  2
*D13
 70
     1
 10
0.0
 20
0.0
 30
0.0
  3
*D13
  1

  0
LINE
  5
18C4A
330
18C48
100
AcDbEntity
  8
寸法
 62
     0
 48
50.0
370
    -2
100
AcDbLine
 10
4183.037591258377
 20
9136.123139034619
 30
0.0
 11
4115.083950562663
 21
8882.516699398941
 31
0.0
  0
LINE
  5
18C4B
330
18C48
100
AcDbEntity
  8
寸法
 62
     0
 48
50.0
370
    -2
100
AcDbLine
 10
5246.037591258307
 20
9136.123139034671
 30
0.0
 11
5178.08395056258
 21
8882.516699398941
 31
0.0
  0
LINE
  5
18C4C
330
18C48
100
AcDbEntity
  8
寸法
 62
     0
 48
50.0
370
    -2
100
AcDbLine
 10
4131.160902108532
 20
8942.516699398941
 30
0.0
 11
5194.160902108448
 21
8942.516699398941
 31
0.0
  0
INSERT
  5
18C4D
330
18C48
100
AcDbEntity
  8
寸法
 62
     0
 48
50.0
370
    -2
100
AcDbBlockReference
  2
_DOTSMALL
 10
4131.160902108532
 20
8942.516699398941
 30
0.0
 41
100.0
 42
100.0
 43
100.0
 50
180.0
  0
INSERT
  5
18C4E
330
18C48
100
AcDbEntity
  8
寸法
 62
     0
 48
50.0
370
    -2
100
AcDbBlockReference
  2
_DOTSMALL
 10
5194.160902108448
 20
8942.516699398941
 30
0.0
 41
100.0
 42
100.0
 43
100.0
  0
MTEXT
  5
18C4F
330
18C48
100
AcDbEntity
  8
寸法
 62
     7
 48
50.0
100
AcDbMText
 10
4658.986452655306
 20
9042.516699398941
 30
0.0
 40
120.0
 41
0.0
 71
     5
 72
     1
  1
\A1;1063
  7
STYLE1
 73
     1
 44
1.0
1001
ACAD
1000
MTEXTBEGIN
1070
    73
1070
     1
1070
    44
1040
1.0
1070
    74
1070
     0
1000
MTEXTEND
  0
POINT
  5
18C50
330
18C48
100
AcDbEntity
  8
DEFPOINTS
 62
     0
 48
50.0
100
AcDbPoint
 10
4188.396575106999
 20
9156.123139034617
 30
0.0
  0
POINT
  5
18C51
330
18C48
100
AcDbEntity
  8
DEFPOINTS
 62
     0
 48
50.0
100
AcDbPoint
 10
5251.396575106929
 20
9156.123139034672
 30
0.0
  0
POINT
  5
18C52
330
18C48
100
AcDbEntity
  8
DEFPOINTS
 62
     0
 48
50.0
100
AcDbPoint
 10
5194.160902108448
 20
8942.516699398941
 30
0.0
  0
ENDBLK
  5
18C53
330
18C48
100
AcDbEntity
  8
0
 48
50.0
100
AcDbBlockEnd
  0
BLOCK
  5
18C55
330
18C54
100
AcDbEntity
  8
0
 48
50.0
100
AcDbBlockBegin
  2
*D14
 70
     1
 10
0.0
 20
0.0
 30
0.0
  3
*D14
  1

  0
LINE
  5
18C56
330
18C54
100
AcDbEntity
  8
寸法
 62
     0
 48
50.0
370
    -2
100
AcDbLine
 10
5274.037591258307
 20
9136.123139034669
 30
0.0
 11
5206.08395056258
 21
8882.516699398941
 31
0.0
  0
LINE
  5
18C57
330
18C54
100
AcDbEntity
  8
寸法
 62
     0
 48
50.0
370
    -2
100
AcDbLine
 10
6505.037591258377
 20
9136.123139034662
 30
0.0
 11
6437.083950562653
 21
8882.516699398941
 31
0.0
  0
LINE
  5
18C58
330
18C54
100
AcDbEntity
  8
寸法
 62
     0
 48
50.0
370
    -2
100
AcDbLine
 10
5222.160902108448
 20
8942.516699398941
 30
0.0
 11
6453.16090210852
 21
8942.516699398941
 31
0.0
  0
INSERT
  5
18C59
330
18C54
100
AcDbEntity
  8
寸法
 62
     0
 48
50.0
370
    -2
100
AcDbBlockReference
  2
_DOTSMALL
 10
5222.160902108448
 20
8942.516699398941
 30
0.0
 41
100.0
 42
100.0
 43
100.0
 50
180.0
  0
INSERT
  5
18C5A
330
18C54
100
AcDbEntity
  8
寸法
 62
     0
 48
50.0
370
    -2
100
AcDbBlockReference
  2
_DOTSMALL
 10
6453.16090210852
 20
8942.516699398941
 30
0.0
 41
100.0
 42
100.0
 43
100.0
  0
MTEXT
  5
18C5B
330
18C54
100
AcDbEntity
  8
寸法
 62
     7
 48
50.0
100
AcDbMText
 10
6081.244808320626
 20
9042.528510422561
 30
0.0
 40
120.0
 41
0.0
 71
     5
 72
     1
  1
\A1;1231
  7
STYLE1
 73
     1
 44
1.0
1001
ACAD
1000
MTEXTBEGIN
1070
    73
1070
     1
1070
    44
1040
1.0
1070
    74
1070
     0
1000
MTEXTEND
  0
POINT
  5
18C5C
330
18C54
100
AcDbEntity
  8
DEFPOINTS
 62
     0
 48
50.0
100
AcDbPoint
 10
5279.396575106929
 20
9156.123139034669
 30
0.0
  0
POINT
  5
18C5D
330
18C54
100
AcDbEntity
  8
DEFPOINTS
 62
     0
 48
50.0
100
AcDbPoint
 10
6510.396575106999
 20
9156.123139034662
 30
0.0
  0
POINT
  5
18C5E
330
18C54
100
AcDbEntity
  8
DEFPOINTS
 62
     0
 48
50.0
100
AcDbPoint
 10
6453.16090210852
 20
8942.516699398941
 30
0.0
  0
ENDBLK
  5
18C5F
330
18C54
100
AcDbEntity
  8
0
 48
50.0
100
AcDbBlockEnd
  0
BLOCK
  5
18C61
330
18C60
100
AcDbEntity
  8
0
 48
50.0
100
AcDbBlockBegin
  2
*D15
 70
     1
 10
0.0
 20
0.0
 30
0.0
  3
*D15
  1

  0
LINE
  5
18C62
330
18C60
100
AcDbEntity
  8
寸法
 62
     0
 48
50.0
370
    -2
100
AcDbLine
 10
5065.896575106966
 20
7749.123139034579
 30
0.0
 11
5065.896575106966
 21
7099.952920982538
 31
0.0
  0
LINE
  5
18C63
330
18C60
100
AcDbEntity
  8
寸法
 62
     0
 48
50.0
370
    -2
100
AcDbLine
 10
6331.896575106966
 20
7749.123139034579
 30
0.0
 11
6331.896575106966
 21
7099.952920982538
 31
0.0
  0
LINE
  5
18C64
330
18C60
100
AcDbEntity
  8
寸法
 62
     0
 48
50.0
370
    -2
100
AcDbLine
 10
5065.896575106966
 20
7159.952920982537
 30
0.0
 11
6331.896575106966
 21
7159.952920982537
 31
0.0
  0
INSERT
  5
18C65
330
18C60
100
AcDbEntity
  8
寸法
 62
     0
 48
50.0
370
    -2
100
AcDbBlockReference
  2
_DOTSMALL
 10
5065.896575106966
 20
7159.952920982537
 30
0.0
 41
100.0
 42
100.0
 43
100.0
 50
180.0
  0
INSERT
  5
18C66
330
18C60
100
AcDbEntity
  8
寸法
 62
     0
 48
50.0
370
    -2
100
AcDbBlockReference
  2
_DOTSMALL
 10
6331.896575106966
 20
7159.952920982537
 30
0.0
 41
100.0
 42
100.0
 43
100.0
  0
MTEXT
  5
18C67
330
18C60
100
AcDbEntity
  8
寸法
 62
     7
 48
50.0
100
AcDbMText
 10
5711.986008735934
 20
7359.964732006159
 30
0.0
 40
120.0
 41
0.0
 71
     5
 72
     1
  1
\A1;有効開口部間口\P1266
  7
STYLE1
 73
     1
 44
1.0
1001
ACAD
1000
MTEXTBEGIN
1070
    73
1070
     1
1070
    44
1040
1.0
1070
    74
1070
     0
1000
MTEXTEND
  0
POINT
  5
18C68
330
18C60
100
AcDbEntity
  8
DEFPOINTS
 62
     0
 48
50.0
100
AcDbPoint
 10
5065.896575106966
 20
7769.123139034579
 30
0.0
  0
POINT
  5
18C69
330
18C60
100
AcDbEntity
  8
DEFPOINTS
 62
     0
 48
50.0
100
AcDbPoint
 10
6331.896575106966
 20
7769.123139034579
 30
0.0
  0
POINT
  5
18C6A
330
18C60
100
AcDbEntity
  8
DEFPOINTS
 62
     0
 48
50.0
100
AcDbPoint
 10
6331.896575106966
 20
7159.952920982537
 30
0.0
  0
ENDBLK
  5
18C6B
330
18C60
100
AcDbEntity
  8
0
 48
50.0
100
AcDbBlockEnd
  0
BLOCK
  5
18C6D
330
18C6C
100
AcDbEntity
  8
0
 48
50.0
100
AcDbBlockBegin
  2
*D16
 70
     1
 10
0.0
 20
0.0
 30
0.0
  3
*D16
  1

  0
LINE
  5
18C6E
330
18C6C
100
AcDbEntity
  8
寸法
 62
     0
 48
50.0
370
    -2
100
AcDbLine
 10
7200.896575106966
 20
7846.123139034578
 30
0.0
 11
7457.192158500191
 21
7846.123139034578
 31
0.0
  0
LINE
  5
18C6F
330
18C6C
100
AcDbEntity
  8
寸法
 62
     0
 48
50.0
370
    -2
100
AcDbLine
 10
7199.896575106966
 20
7769.123139034579
 30
0.0
 11
7457.192158500191
 21
7769.123139034579
 31
0.0
  0
LINE
  5
18C70
330
18C6C
100
AcDbEntity
  8
寸法
 62
     0
 48
50.0
370
    -2
100
AcDbLine
 10
7417.192158500192
 20
7866.123139034579
 30
0.0
 11
7417.192158500192
 21
7886.123139034578
 31
0.0
  0
LINE
  5
18C71
330
18C6C
100
AcDbEntity
  8
寸法
 62
     0
 48
50.0
370
    -2
100
AcDbLine
 10
7417.192158500192
 20
7749.123139034579
 30
0.0
 11
7417.192158500192
 21
7533.123139034573
 31
0.0
  0
LINE
  5
18C72
330
18C6C
100
AcDbEntity
  8
寸法
 62
     0
 48
50.0
370
    -2
100
AcDbLine
 10
7417.192158500192
 20
7846.123139034578
 30
0.0
 11
7417.192158500192
 21
7769.123139034579
 31
0.0
  0
INSERT
  5
18C73
330
18C6C
100
AcDbEntity
  8
寸法
 62
     0
 48
50.0
370
    -2
100
AcDbBlockReference
  2
_DOT
 10
7417.192158500192
 20
7846.123139034578
 30
0.0
 41
20.0
 42
20.0
 43
20.0
 50
270.0
  0
INSERT
  5
18C74
330
18C6C
100
AcDbEntity
  8
寸法
 62
     0
 48
50.0
370
    -2
100
AcDbBlockReference
  2
_DOT
 10
7417.192158500192
 20
7769.123139034579
 30
0.0
 41
20.0
 42
20.0
 43
20.0
 50
90.0
  0
MTEXT
  5
18C75
330
18C6C
100
AcDbEntity
  8
寸法
 62
     7
 48
50.0
100
AcDbMText
 10
7325.192158500191
 20
7631.123139034575
 30
0.0
 40
120.0
 41
0.0
 71
     5
 72
     1
  1
\A1;77
  7
STYLE1
 11
0.0000000000000001
 21
1.0
 31
0.0
 73
     1
 44
1.0
1001
ACAD
1000
MTEXTBEGIN
1070
    73
1070
     1
1070
    44
1040
1.0
1070
    74
1070
     0
1000
MTEXTEND
  0
POINT
  5
18C76
330
18C6C
100
AcDbEntity
  8
DEFPOINTS
 62
     0
 48
50.0
100
AcDbPoint
 10
7180.896575106967
 20
7846.123139034578
 30
0.0
  0
POINT
  5
18C77
330
18C6C
100
AcDbEntity
  8
DEFPOINTS
 62
     0
 48
50.0
100
AcDbPoint
 10
7179.896575106965
 20
7769.123139034579
 30
0.0
  0
POINT
  5
18C78
330
18C6C
100
AcDbEntity
  8
DEFPOINTS
 62
     0
 48
50.0
100
AcDbPoint
 10
7417.192158500192
 20
7769.123139034579
 30
0.0
  0
ENDBLK
  5
18C79
330
18C6C
100
AcDbEntity
  8
0
 48
50.0
100
AcDbBlockEnd
  0
BLOCK
  5
18DA0
330
18C7A
100
AcDbEntity
  8
0
 48
50.0
100
AcDbBlockBegin
  2
A$C3B1A506B
 70
     0
 10
0.0
 20
0.0
 30
0.0
  3
A$C3B1A506B
  1

  0
MTEXT
  5
18C7B
330
18C7A
100
AcDbEntity
  8
寸法
 62
     7
 48
50.0
100
AcDbMText
 10
3342.250386887194
 20
2778.329429134012
 30
0.0
 40
96.0
 41
0.0
 71
     5
 72
     1
  1
棚 2段
  7
STYLE1
 73
     1
 44
1.0
1001
ACAD
1000
MTEXTBEGIN
1070
    73
1070
     1
1070
    44
1040
1.0
1070
    74
1070
     0
1000
MTEXTEND
  0
MTEXT
  5
18C7C
330
18C7A
100
AcDbEntity
  8
寸法
 62
     7
 48
50.0
100
AcDbMText
 10
2167.25038688716
 20
2778.329429133986
 30
0.0
 40
96.0
 41
0.0
 71
     5
 72
     1
  1
棚 2段
  7
STYLE1
 73
     1
 44
1.0
1001
ACAD
1000
MTEXTBEGIN
1070
    73
1070
     1
1070
    44
1040
1.0
1070
    74
1070
     0
1000
MTEXTEND
  0
MTEXT
  5
18C7D
330
18C7A
100
AcDbEntity
  8
寸法
 62
     7
 48
50.0
100
AcDbMText
 10
992.2503868871608
 20
2778.329429133935
 30
0.0
 40
96.0
 41
0.0
 71
     5
 72
     1
  1
棚 2段
  7
STYLE1
 73
     1
 44
1.0
1001
ACAD
1000
MTEXTBEGIN
1070
    73
1070
     1
1070
    44
1040
1.0
1070
    74
1070
     0
1000
MTEXTEND
  0
LINE
  5
18C7E
330
18C7A
100
AcDbEntity
  8
細線
 48
50.0
100
AcDbLine
 10
2771.970589276527
 20
1368.994384123192
 30
0.0
 11
3398.970589276523
 21
1368.994384123192
 31
0.0
  0
LINE
  5
18C7F
330
18C7A
100
AcDbEntity
  8
細線
 48
50.0
100
AcDbLine
 10
2117.970593930113
 20
1335.285615569113
 30
0.0
 11
3398.970589276523
 21
1335.285615569113
 31
0.0
  0
LINE
  5
18C80
330
18C7A
100
AcDbEntity
  8
細線
 48
50.0
100
AcDbLine
 10
2076.970593930115
 20
1364.690523565368
 30
0.0
 11
1322.970589276523
 21
1364.690523565367
 31
0.0
  0
LINE
  5
18C81
330
18C7A
100
AcDbEntity
  8
細線
100
AcDbLine
 10
3170.720579860066
 20
1388.494284088199
 30
0.0
 11
3173.052119381877
 21
1393.494286728162
 31
0.0
  0
LINE
  5
18C82
330
18C7A
100
AcDbEntity
  8
細線
100
AcDbLine
 10
3240.720589276525
 20
1388.494269174465
 30
0.0
 11
3238.389042800336
 21
1393.494286728144
 31
0.0
  0
LINE
  5
18C83
330
18C7A
100
AcDbEntity
  8
細線
100
AcDbLine
 10
3238.389042800336
 20
1393.494286728144
 30
0.0
 11
3173.052119381862
 21
1393.494286728133
 31
0.0
  0
LINE
  5
18C84
330
18C7A
100
AcDbEntity
  8
細線
100
AcDbLine
 10
3098.389042800336
 20
1393.494286728144
 30
0.0
 11
3033.052119381862
 21
1393.494286728133
 31
0.0
  0
LINE
  5
18C85
330
18C7A
100
AcDbEntity
  8
細線
100
AcDbLine
 10
3100.720589276523
 20
1388.494269174465
 30
0.0
 11
3098.389042800336
 21
1393.494286728144
 31
0.0
  0
LINE
  5
18C86
330
18C7A
100
AcDbEntity
  8
細線
100
AcDbLine
 10
3030.720579860066
 20
1388.494284088199
 30
0.0
 11
3033.052119381875
 21
1393.494286728162
 31
0.0
  0
LINE
  5
18C87
330
18C7A
100
AcDbEntity
  8
細線
100
AcDbLine
 10
2890.720589276525
 20
1388.494269174465
 30
0.0
 11
2893.052128798336
 21
1393.494271814428
 31
0.0
  0
LINE
  5
18C88
330
18C7A
100
AcDbEntity
  8
細線
100
AcDbLine
 10
2960.720598692984
 20
1388.494254260731
 30
0.0
 11
2958.389052216793
 21
1393.49427181441
 31
0.0
  0
LINE
  5
18C89
330
18C7A
100
AcDbEntity
  8
細線
100
AcDbLine
 10
2958.389052216795
 20
1393.49427181441
 30
0.0
 11
2893.052128798321
 21
1393.494271814399
 31
0.0
  0
LINE
  5
18C8A
330
18C7A
100
AcDbEntity
  8
細線
100
AcDbLine
 10
2667.139038146739
 20
1359.494298590735
 30
0.0
 11
2601.802114728263
 21
1359.494298590724
 31
0.0
  0
LINE
  5
18C8B
330
18C7A
100
AcDbEntity
  8
細線
100
AcDbLine
 10
2669.470584622926
 20
1354.494281037055
 30
0.0
 11
2667.139038146737
 21
1359.494298590735
 31
0.0
  0
LINE
  5
18C8C
330
18C7A
100
AcDbEntity
  8
細線
100
AcDbLine
 10
2599.470575206469
 20
1354.49429595079
 30
0.0
 11
2601.802114728278
 21
1359.494298590752
 31
0.0
  0
LINE
  5
18C8D
330
18C7A
100
AcDbEntity
  8
細線
 48
50.0
100
AcDbLine
 10
2440.853968524536
 20
1372.765132327548
 30
0.0
 11
2446.609486107205
 21
1354.494281037057
 31
0.0
  0
LINE
  5
18C8E
330
18C7A
100
AcDbEntity
  8
細線
 48
50.0
100
AcDbLine
 10
2429.925520044106
 20
1372.765132327546
 30
0.0
 11
2440.853968524536
 21
1372.765132327548
 31
0.0
  0
ARC
  5
18C8F
330
18C7A
100
AcDbEntity
  8
細線
 48
50.0
100
AcDbCircle
 10
2424.471163986787
 20
1374.265132327546
 30
0.0
 40
5.0
100
AcDbArc
 50
204.6243183520723
 51
335.3756816479278
  0
ARC
  5
18C90
330
18C7A
100
AcDbEntity
  8
細線
 48
50.0
100
AcDbCircle
 10
2429.925520044106
 20
1371.765132327546
 30
0.0
 40
1.0
100
AcDbArc
 50
90.0
 51
155.3756816479277
  0
ARC
  5
18C91
330
18C7A
100
AcDbEntity
  8
細線
 48
50.0
100
AcDbCircle
 10
2419.016807929469
 20
1371.765132327546
 30
0.0
 40
1.0
100
AcDbArc
 50
24.62431835207225
 51
90.0
  0
LINE
  5
18C92
330
18C7A
100
AcDbEntity
  8
細線
 48
50.0
100
AcDbLine
 10
2408.088359449037
 20
1372.765132327548
 30
0.0
 11
2419.016807929469
 21
1372.765132327546
 31
0.0
  0
LINE
  5
18C93
330
18C7A
100
AcDbEntity
  8
細線
 48
50.0
100
AcDbLine
 10
2402.33284186637
 20
1354.494281037054
 30
0.0
 11
2408.088359449037
 21
1372.765132327548
 31
0.0
  0
LINE
  5
18C94
330
18C7A
100
AcDbEntity
  8
細線
100
AcDbLine
 10
2458.070304175992
 20
1354.494278397076
 30
0.0
 11
2460.401843697802
 21
1359.494281037039
 31
0.0
  0
LINE
  5
18C95
330
18C7A
100
AcDbEntity
  8
細線
100
AcDbLine
 10
2528.070313592451
 20
1354.494263483342
 30
0.0
 11
2525.738767116262
 21
1359.494281037021
 31
0.0
  0
LINE
  5
18C96
330
18C7A
100
AcDbEntity
  8
細線
100
AcDbLine
 10
2525.738767116262
 20
1359.494281037021
 30
0.0
 11
2460.40184369779
 21
1359.49428103701
 31
0.0
  0
LINE
  5
18C97
330
18C7A
100
AcDbEntity
  8
細線
100
AcDbLine
 10
2387.139046332155
 20
1359.494281037021
 30
0.0
 11
2321.80212291368
 21
1359.49428103701
 31
0.0
  0
LINE
  5
18C98
330
18C7A
100
AcDbEntity
  8
細線
100
AcDbLine
 10
2389.470592808342
 20
1354.494263483342
 30
0.0
 11
2387.139046332153
 21
1359.494281037021
 31
0.0
  0
LINE
  5
18C99
330
18C7A
100
AcDbEntity
  8
細線
100
AcDbLine
 10
2319.470584622926
 20
1354.494281037054
 30
0.0
 11
2321.802122913694
 21
1359.494281037039
 31
0.0
  0
LINE
  5
18C9A
330
18C7A
100
AcDbEntity
  8
細線
100
AcDbLine
 10
2179.47061994182
 20
1354.494289224422
 30
0.0
 11
2181.802158232587
 21
1359.494289224407
 31
0.0
  0
LINE
  5
18C9B
330
18C7A
100
AcDbEntity
  8
細線
100
AcDbLine
 10
2249.470628127236
 20
1354.49427167071
 30
0.0
 11
2247.139081651047
 21
1359.494289224389
 31
0.0
  0
LINE
  5
18C9C
330
18C7A
100
AcDbEntity
  8
細線
100
AcDbLine
 10
2247.139081651047
 20
1359.494289224389
 30
0.0
 11
2181.802158232573
 21
1359.494289224378
 31
0.0
  0
LINE
  5
18C9D
330
18C7A
100
AcDbEntity
  8
細線
100
AcDbLine
 10
1807.970585744697
 20
1320.494460905133
 30
0.0
 11
1810.302124035464
 21
1325.494460905118
 31
0.0
  0
LINE
  5
18C9E
330
18C7A
100
AcDbEntity
  8
細線
100
AcDbLine
 10
1877.970593930113
 20
1320.494443351421
 30
0.0
 11
1875.639047453926
 21
1325.4944609051
 31
0.0
  0
LINE
  5
18C9F
330
18C7A
100
AcDbEntity
  8
細線
100
AcDbLine
 10
1875.639047453926
 20
1325.4944609051
 30
0.0
 11
1810.302124035452
 21
1325.494460905089
 31
0.0
  0
LINE
  5
18CA0
330
18C7A
100
AcDbEntity
  8
細線
100
AcDbLine
 10
2015.639047453926
 20
1325.4944609051
 30
0.0
 11
1950.302124035452
 21
1325.494460905089
 31
0.0
  0
LINE
  5
18CA1
330
18C7A
100
AcDbEntity
  8
細線
100
AcDbLine
 10
2017.970593930113
 20
1320.494443351421
 30
0.0
 11
2015.639047453924
 21
1325.4944609051
 31
0.0
  0
LINE
  5
18CA2
330
18C7A
100
AcDbEntity
  8
細線
100
AcDbLine
 10
1947.970585744697
 20
1320.494460905133
 30
0.0
 11
1950.302124035465
 21
1325.494460905118
 31
0.0
  0
LINE
  5
18CA3
330
18C7A
100
AcDbEntity
  8
細線
100
AcDbLine
 10
1735.639047453926
 20
1325.494460905098
 30
0.0
 11
1670.302124035454
 21
1325.494460905087
 31
0.0
  0
LINE
  5
18CA4
330
18C7A
100
AcDbEntity
  8
細線
100
AcDbLine
 10
1737.970593930113
 20
1320.494443351419
 30
0.0
 11
1735.639047453926
 21
1325.494460905098
 31
0.0
  0
LINE
  5
18CA5
330
18C7A
100
AcDbEntity
  8
細線
100
AcDbLine
 10
1667.970585744697
 20
1320.494460905131
 30
0.0
 11
1670.302124035465
 21
1325.494460905116
 31
0.0
  0
LINE
  5
18CA6
330
18C7A
100
AcDbEntity
  8
細線
100
AcDbLine
 10
1527.970593930113
 20
1320.494460905133
 30
0.0
 11
1530.302132220881
 21
1325.494460905118
 31
0.0
  0
LINE
  5
18CA7
330
18C7A
100
AcDbEntity
  8
細線
100
AcDbLine
 10
1597.970602115529
 20
1320.494443351421
 30
0.0
 11
1595.639055639342
 21
1325.4944609051
 31
0.0
  0
LINE
  5
18CA8
330
18C7A
100
AcDbEntity
  8
細線
100
AcDbLine
 10
1595.639055639342
 20
1325.4944609051
 30
0.0
 11
1530.302132220869
 21
1325.494460905089
 31
0.0
  0
ARC
  5
18CA9
330
18C7A
100
AcDbEntity
  8
部品1
 48
0.01
100
AcDbCircle
 10
1483.470482677778
 20
1319.493338720063
 30
0.0
 40
0.5
100
AcDbArc
 50
270.0
 51
0.0
  0
LINE
  5
18CAA
330
18C7A
100
AcDbEntity
  8
部品1
 48
0.01
100
AcDbLine
 10
1483.970482677778
 20
1320.493338720063
 30
0.0
 11
1483.970482677778
 21
1319.493338720063
 31
0.0
  0
LINE
  5
18CAB
330
18C7A
100
AcDbEntity
  8
部品1
 48
0.01
100
AcDbLine
 10
1483.970482677778
 20
1320.493338720063
 30
0.0
 11
1483.970482677778
 21
1319.493338720063
 31
0.0
  0
LINE
  5
18CAC
330
18C7A
100
AcDbEntity
  8
部品1
 48
0.01
100
AcDbLine
 10
1483.470482677778
 20
1318.993338720063
 30
0.0
 11
1476.857977247713
 21
1318.993338720062
 31
0.0
  0
ARC
  5
18CAD
330
18C7A
100
AcDbEntity
  8
部品1
100
AcDbCircle
 10
1476.926326800494
 20
1319.993338720062
 30
0.0
 40
1.0
100
AcDbArc
 50
160.5287793655865
 51
270.0
  0
ARC
  5
18CAE
330
18C7A
100
AcDbEntity
  8
部品1
100
AcDbCircle
 10
1451.470482677778
 20
1328.993338720062
 30
0.0
 40
26.0
100
AcDbArc
 50
340.5287793655865
 51
0.0
  0
LINE
  5
18CAF
330
18C7A
100
AcDbEntity
  8
部品1
100
AcDbLine
 10
1477.470482677778
 20
1328.993338720062
 30
0.0
 11
1477.470482677778
 21
1333.993338720061
 31
0.0
  0
ARC
  5
18CB0
330
18C7A
100
AcDbEntity
  8
部品1
 48
0.01
100
AcDbCircle
 10
1475.470482677778
 20
1333.993338720061
 30
0.0
 40
2.0
100
AcDbArc
 50
0.0
 51
90.0
  0
ARC
  5
18CB1
330
18C7A
100
AcDbEntity
  8
部品1
100
AcDbCircle
 10
1473.862091052968
 20
1332.993338720062
 30
0.0
 40
3.0
100
AcDbArc
 50
90.0
 51
141.6069559808035
  0
LINE
  5
18CB2
330
18C7A
100
AcDbEntity
  8
部品1
 48
0.01
100
AcDbLine
 10
1475.470482677778
 20
1335.993338720062
 30
0.0
 11
1473.862091052968
 21
1335.993338720062
 31
0.0
  0
ARC
  5
18CB3
330
18C7A
100
AcDbEntity
  8
部品1
100
AcDbCircle
 10
1455.399768463507
 20
1332.293338720065
 30
0.0
 40
3.0
100
AcDbArc
 50
254.0576313943215
 51
270.0
  0
ARC
  5
18CB4
330
18C7A
100
AcDbEntity
  8
部品1
100
AcDbCircle
 10
1462.541196892049
 20
1332.293338720065
 30
0.0
 40
3.0
100
AcDbArc
 50
270.0
 51
285.9423686056786
  0
LINE
  5
18CB5
330
18C7A
100
AcDbEntity
  8
部品1
100
AcDbLine
 10
1462.541196892049
 20
1329.293338720064
 30
0.0
 11
1455.399768463507
 21
1329.293338720064
 31
0.0
  0
ARC
  5
18CB6
330
18C7A
100
AcDbEntity
  8
部品1
100
AcDbCircle
 10
1458.970482677778
 20
1344.793338720065
 30
0.0
 40
16.0
100
AcDbArc
 50
285.9423686056786
 51
321.6069559808035
  0
LINE
  5
18CB7
330
18C7A
100
AcDbEntity
  8
部品1
 48
0.01
100
AcDbLine
 10
1442.470482677778
 20
1335.993338720062
 30
0.0
 11
1444.078874302588
 21
1335.993338720062
 31
0.0
  0
ARC
  5
18CB8
330
18C7A
100
AcDbEntity
  8
部品1
100
AcDbCircle
 10
1444.078874302588
 20
1332.993338720062
 30
0.0
 40
3.0
100
AcDbArc
 50
38.39304401919648
 51
90.0
  0
ARC
  5
18CB9
330
18C7A
100
AcDbEntity
  8
部品1
100
AcDbCircle
 10
1458.970482677778
 20
1344.793338720065
 30
0.0
 40
16.0
100
AcDbArc
 50
218.3930440191965
 51
254.0576313943215
  0
LINE
  5
18CBA
330
18C7A
100
AcDbEntity
  8
部品1
100
AcDbLine
 10
1440.470482677778
 20
1328.993338720062
 30
0.0
 11
1440.470482677778
 21
1333.993338720061
 31
0.0
  0
ARC
  5
18CBB
330
18C7A
100
AcDbEntity
  8
部品1
 48
0.01
100
AcDbCircle
 10
1442.470482677778
 20
1333.993338720061
 30
0.0
 40
2.0
100
AcDbArc
 50
90.0
 51
180.0
  0
ARC
  5
18CBC
330
18C7A
100
AcDbEntity
  8
部品1
100
AcDbCircle
 10
1466.470482677778
 20
1328.993338720062
 30
0.0
 40
26.0
100
AcDbArc
 50
180.0
 51
199.4712206344134
  0
ARC
  5
18CBD
330
18C7A
100
AcDbEntity
  8
部品1
 48
0.01
100
AcDbCircle
 10
1434.470482677778
 20
1319.493338720063
 30
0.0
 40
0.5
100
AcDbArc
 50
180.0
 51
270.0
  0
LINE
  5
18CBE
330
18C7A
100
AcDbEntity
  8
部品1
 48
0.01
100
AcDbLine
 10
1434.470482677778
 20
1318.993338720063
 30
0.0
 11
1441.014638555061
 21
1318.993338720062
 31
0.0
  0
LINE
  5
18CBF
330
18C7A
100
AcDbEntity
  8
部品1
 48
0.01
100
AcDbLine
 10
1433.970482677778
 20
1320.493338720063
 30
0.0
 11
1433.970482677778
 21
1319.493338720063
 31
0.0
  0
ARC
  5
18CC0
330
18C7A
100
AcDbEntity
  8
部品1
100
AcDbCircle
 10
1441.014638555061
 20
1319.993338720062
 30
0.0
 40
1.0
100
AcDbArc
 50
270.0
 51
19.47122063441346
  0
LINE
  5
18CC1
330
18C7A
100
AcDbEntity
  8
細線
100
AcDbLine
 10
1479.470482677785
 20
1338.493338720065
 30
0.0
 11
1438.470482677785
 21
1338.493338720058
 31
0.0
  0
LINE
  5
18CC2
330
18C7A
100
AcDbEntity
  8
細線
100
AcDbLine
 10
1438.470482677785
 20
1338.493338720058
 30
0.0
 11
1438.470482677785
 21
1320.49333872004
 31
0.0
  0
LINE
  5
18CC3
330
18C7A
100
AcDbEntity
  8
細線
100
AcDbLine
 10
1479.470482677785
 20
1338.493338720065
 30
0.0
 11
1479.470482677785
 21
1320.49333872004
 31
0.0
  0
LINE
  5
18CC4
330
18C7A
100
AcDbEntity
  8
細線
100
AcDbLine
 10
1322.970589276523
 20
1324.494269174465
 30
0.0
 11
1322.970589276523
 21
1320.494269174513
 31
0.0
  0
LINE
  5
18CC5
330
18C7A
100
AcDbEntity
  8
寸法
 48
50.0
100
AcDbLine
 10
1746.17359555837
 20
1170.531020743327
 30
0.0
 11
1694.767587648266
 21
1170.531020743327
 31
0.0
  0
LINE
  5
18CC6
330
18C7A
100
AcDbEntity
  8
寸法
 48
50.0
100
AcDbLine
 10
1694.767587648266
 20
1170.531020743327
 30
0.0
 11
1694.767587648266
 21
1201.841179395494
 31
0.0
  0
LINE
  5
18CC7
330
18C7A
100
AcDbEntity
  8
寸法
 48
50.0
100
AcDbLine
 10
1694.767587648266
 20
1201.841179395494
 30
0.0
 11
1665.006255656843
 21
1201.841179395494
 31
0.0
  0
LINE
  5
18CC8
330
18C7A
100
AcDbEntity
  8
寸法
 48
50.0
100
AcDbLine
 10
1665.006255656843
 20
1201.841179395494
 30
0.0
 11
1720.470591603318
 21
1239.420630324105
 31
0.0
  0
LINE
  5
18CC9
330
18C7A
100
AcDbEntity
  8
寸法
 48
50.0
100
AcDbLine
 10
1775.934927549793
 20
1201.841179395494
 30
0.0
 11
1720.470591603318
 21
1239.420630324105
 31
0.0
  0
LINE
  5
18CCA
330
18C7A
100
AcDbEntity
  8
寸法
 48
50.0
100
AcDbLine
 10
1746.17359555837
 20
1201.841179395494
 30
0.0
 11
1775.934927549793
 21
1201.841179395494
 31
0.0
  0
LINE
  5
18CCB
330
18C7A
100
AcDbEntity
  8
寸法
 48
50.0
100
AcDbLine
 10
1746.17359555837
 20
1170.531020743327
 30
0.0
 11
1746.17359555837
 21
1201.841179395494
 31
0.0
  0
LINE
  5
18CCC
330
18C7A
100
AcDbEntity
  8
寸法
 48
50.0
100
AcDbLine
 10
1694.767587648266
 20
1170.531020743327
 30
0.0
 11
1746.17359555837
 21
1170.531020743327
 31
0.0
  0
LINE
  5
18CCD
330
18C7A
100
AcDbEntity
  8
寸法
 48
50.0
100
AcDbLine
 10
2025.339129835225
 20
1227.676611498152
 30
0.0
 11
2025.339129835225
 21
1174.01297691636
 31
0.0
  0
LINE
  5
18CCE
330
18C7A
100
AcDbEntity
  8
寸法
 48
50.0
100
AcDbLine
 10
2114.623348430647
 20
1203.752977228664
 30
0.0
 11
2025.339129835225
 21
1227.676611498152
 31
0.0
  0
LINE
  5
18CCF
330
18C7A
100
AcDbEntity
  8
寸法
 48
50.0
100
AcDbLine
 10
1895.471408254923
 20
1203.752977228664
 30
0.0
 11
2114.623348430647
 21
1203.752977228664
 31
0.0
  0
DIMENSION
  5
18CD0
330
18C7A
100
AcDbEntity
  8
寸法
 48
50.0
100
AcDbDimension
  2
*D15
 10
2588.970589276523
 20
706.3240511224249
 30
0.0
 11
1969.060022905491
 21
706.3240511224249
 31
0.0
 12
-3742.925985830444
 22
-6453.628869860112
 32
0.0
 70
   128
  1
有効開口部間口\P<>
 71
     5
 42
1266.0
  3
INABA_S40G
100
AcDbAlignedDimension
 13
1322.970589276523
 23
1315.494269174465
 33
0.0
 14
2588.970589276523
 24
1315.494269174465
 34
0.0
100
AcDbRotatedDimension
1001
ACAD
1000
DSTYLE
1002
{
1070
   341
1005
0
1002
}
  0
LINE
  5
18CD1
330
18C7A
100
AcDbEntity
  8
部品1
100
AcDbLine
 10
3409.970589276524
 20
1392.494269174465
 30
0.0
 11
3437.970589276523
 21
1392.494269174465
 31
0.0
  0
DIMENSION
  5
18CD2
330
18C7A
100
AcDbEntity
  8
寸法
100
AcDbDimension
  2
*D16
 10
3674.266172669749
 20
1315.494269174465
 30
0.0
 11
3674.266172669748
 21
1177.494269174462
 31
0.0
 12
-3742.925985830444
 22
-6453.628869860112
 32
0.0
 70
   128
 71
     5
 42
77.0
  3
INABA_S40
100
AcDbAlignedDimension
 13
3437.970589276523
 23
1392.494269174465
 33
0.0
 14
3436.970589276523
 24
1315.494269174465
 34
0.0
 50
90.0
100
AcDbRotatedDimension
1001
ACAD
1000
DSTYLE
1002
{
1070
    41
1040
0.5
1070
    44
1040
1.0
1070
   147
1040
0.8
1070
   271
1070
     2
1070
   272
1070
     2
1070
   289
1070
     3
1070
   340
1005
F706
1070
   343
1005
164B4
1070
   344
1005
164B4
1002
}
  0
LINE
  5
18CD3
330
18C7A
100
AcDbEntity
  8
部品1
100
AcDbLine
 10
3437.970589276523
 20
1315.494269174465
 30
0.0
 11
3437.970589276523
 21
1392.494269174465
 31
0.0
  0
LINE
  5
18CD4
330
18C7A
100
AcDbEntity
  8
部品1
100
AcDbLine
 10
3398.970589276523
 20
1388.494269174465
 30
0.0
 11
3409.970589276524
 21
1388.494269174465
 31
0.0
  0
LINE
  5
18CD5
330
18C7A
100
AcDbEntity
  8
部品1
100
AcDbLine
 10
3407.970589276523
 20
1324.494269174465
 30
0.0
 11
3407.970589276523
 21
1315.494269174465
 31
0.0
  0
LINE
  5
18CD6
330
18C7A
100
AcDbEntity
  8
部品1
100
AcDbLine
 10
3398.970589276523
 20
1324.494269174465
 30
0.0
 11
3407.970589276523
 21
1324.494269174465
 31
0.0
  0
LINE
  5
18CD7
330
18C7A
100
AcDbEntity
  8
部品1
100
AcDbLine
 10
3398.970589276523
 20
1388.494269174465
 30
0.0
 11
3398.970589276523
 21
1324.494269174465
 31
0.0
  0
LINE
  5
18CD8
330
18C7A
100
AcDbEntity
  8
部品1
100
AcDbLine
 10
3409.970589276524
 20
1419.494269174465
 30
0.0
 11
3409.970589276524
 21
1388.494269174465
 31
0.0
  0
LINE
  5
18CD9
330
18C7A
100
AcDbEntity
  8
部品1
100
AcDbLine
 10
1322.970589276523
 20
1388.494269174465
 30
0.0
 11
1311.970589276523
 21
1388.494269174465
 31
0.0
  0
LINE
  5
18CDA
330
18C7A
100
AcDbEntity
  8
部品1
100
AcDbLine
 10
1283.970589276523
 20
1392.494269174465
 30
0.0
 11
1311.970589276523
 21
1392.494269174465
 31
0.0
  0
LINE
  5
18CDB
330
18C7A
100
AcDbEntity
  8
部品1
100
AcDbLine
 10
1313.970589276523
 20
1324.494269174465
 30
0.0
 11
1313.970589276523
 21
1315.494269174465
 31
0.0
  0
LINE
  5
18CDC
330
18C7A
100
AcDbEntity
  8
部品1
100
AcDbLine
 10
1322.970589276523
 20
1324.494269174465
 30
0.0
 11
1313.970589276523
 21
1324.494269174465
 31
0.0
  0
LINE
  5
18CDD
330
18C7A
100
AcDbEntity
  8
部品1
100
AcDbLine
 10
1313.970589276523
 20
1315.494269174465
 30
0.0
 11
1283.970589276523
 21
1315.494269174465
 31
0.0
  0
LINE
  5
18CDE
330
18C7A
100
AcDbEntity
  8
部品1
100
AcDbLine
 10
1283.970589276523
 20
1315.494269174465
 30
0.0
 11
1283.970589276523
 21
1392.494269174465
 31
0.0
  0
LINE
  5
18CDF
330
18C7A
100
AcDbEntity
  8
部品1
100
AcDbLine
 10
1322.970589276523
 20
1388.494269174465
 30
0.0
 11
1322.970589276523
 21
1324.494269174465
 31
0.0
  0
LINE
  5
18CE0
330
18C7A
100
AcDbEntity
  8
部品1
100
AcDbLine
 10
1311.970589276523
 20
1419.494269174462
 30
0.0
 11
1311.970589276523
 21
1388.494269174465
 31
0.0
  0
LINE
  5
18CE1
330
18C7A
100
AcDbEntity
  8
部品1
100
AcDbLine
 10
1311.970589276523
 20
1419.494269174462
 30
0.0
 11
3409.970589276524
 21
1419.494269174465
 31
0.0
  0
LINE
  5
18CE2
330
18C7A
100
AcDbEntity
  8
部品1
100
AcDbLine
 10
3407.970589276523
 20
1315.494269174465
 30
0.0
 11
3437.970589276523
 21
1315.494269174465
 31
0.0
  0
LINE
  5
18CE3
330
18C7A
100
AcDbEntity
  8
部品1
100
AcDbLine
 10
1313.970589276523
 20
1315.494269174465
 30
0.0
 11
3410.970589276523
 21
1315.494269174465
 31
0.0
  0
LINE
  5
18CE4
330
18C7A
100
AcDbEntity
  8
細線
  6
Continuous
 62
     5
100
AcDbLine
 10
2689.970589276527
 20
1354.494269174462
 30
0.0
 11
2689.970589276527
 21
1354.494269174462
 31
0.0
  0
LINE
  5
18CE5
330
18C7A
100
AcDbEntity
  8
細線
  6
Continuous
 62
     5
100
AcDbLine
 10
2682.470589276527
 20
1354.494269174462
 30
0.0
 11
2682.470589276527
 21
1354.494269174462
 31
0.0
  0
LINE
  5
18CE6
330
18C7A
100
AcDbEntity
  8
細線
  6
Continuous
 62
     5
100
AcDbLine
 10
2676.470589276527
 20
1354.494269174462
 30
0.0
 11
2676.470589276527
 21
1354.494269174462
 31
0.0
  0
LINE
  5
18CE7
330
18C7A
100
AcDbEntity
  8
細線
  6
Continuous
 62
     5
100
AcDbLine
 10
2743.970589276527
 20
1373.494269174462
 30
0.0
 11
2743.970589276527
 21
1373.494269174462
 31
0.0
  0
LINE
  5
18CE8
330
18C7A
100
AcDbEntity
  8
細線
 48
50.0
100
AcDbLine
 10
1336.970593930116
 20
1341.094443351418
 30
0.0
 11
1336.970593930113
 21
1349.490593759059
 31
0.0
  0
LINE
  5
18CE9
330
18C7A
100
AcDbEntity
  8
細線
 48
50.0
100
AcDbLine
 10
1336.970593930113
 20
1349.490593759059
 30
0.0
 11
1322.970589276523
 21
1349.490593759057
 31
0.0
  0
LINE
  5
18CEA
330
18C7A
100
AcDbEntity
  8
細線
 48
50.0
100
AcDbLine
 10
2087.970593930113
 20
1337.644443351419
 30
0.0
 11
2087.970593930113
 21
1342.494443351421
 31
0.0
  0
LINE
  5
18CEB
330
18C7A
100
AcDbEntity
  8
細線
 48
50.0
100
AcDbLine
 10
2087.970593930113
 20
1342.494443351421
 30
0.0
 11
2102.970593930113
 21
1342.494443351421
 31
0.0
  0
LINE
  5
18CEC
330
18C7A
100
AcDbEntity
  8
細線
 48
50.0
100
AcDbLine
 10
2102.970593930113
 20
1342.494443351421
 30
0.0
 11
2102.970593930115
 21
1349.494443351419
 31
0.0
  0
LINE
  5
18CED
330
18C7A
100
AcDbEntity
  8
細線
 48
50.0
100
AcDbLine
 10
2102.970593930115
 20
1349.494443351419
 30
0.0
 11
2117.970593930113
 21
1349.494443351419
 31
0.0
  0
LINE
  5
18CEE
330
18C7A
100
AcDbEntity
  8
細線
 48
50.0
100
AcDbLine
 10
2117.970593930113
 20
1349.494443351419
 30
0.0
 11
2117.970593930113
 21
1320.494443351421
 31
0.0
  0
LINE
  5
18CEF
330
18C7A
100
AcDbEntity
  8
細線
 48
50.0
100
AcDbLine
 10
1313.970589276523
 20
1320.491777694889
 30
0.0
 11
1527.970593930113
 21
1320.494460905133
 31
0.0
  0
LINE
  5
18CF0
330
18C7A
100
AcDbEntity
  8
細線
 48
50.0
100
AcDbLine
 10
2017.970593930113
 20
1320.494443351421
 30
0.0
 11
2117.970593930113
 21
1320.494443351421
 31
0.0
  0
LINE
  5
18CF1
330
18C7A
100
AcDbEntity
  8
細線
 48
50.0
100
AcDbLine
 10
1737.970593930113
 20
1320.494443351419
 30
0.0
 11
1807.970593930113
 21
1320.494443351423
 31
0.0
  0
LINE
  5
18CF2
330
18C7A
100
AcDbEntity
  8
細線
 48
50.0
100
AcDbLine
 10
1750.832558942642
 20
1320.494443351419
 30
0.0
 11
1756.588076525309
 21
1338.765294641913
 31
0.0
  0
LINE
  5
18CF3
330
18C7A
100
AcDbEntity
  8
細線
 48
50.0
100
AcDbLine
 10
1756.588076525309
 20
1338.765294641913
 30
0.0
 11
1767.516525005743
 21
1338.765294641911
 31
0.0
  0
ARC
  5
18CF4
330
18C7A
100
AcDbEntity
  8
細線
 48
50.0
100
AcDbCircle
 10
1767.516525005743
 20
1337.765294641911
 30
0.0
 40
1.0
100
AcDbArc
 50
24.62431835207225
 51
90.0
  0
ARC
  5
18CF5
330
18C7A
100
AcDbEntity
  8
細線
 48
50.0
100
AcDbCircle
 10
1778.425237120377
 20
1337.765294641911
 30
0.0
 40
1.0
100
AcDbArc
 50
90.0
 51
155.3756816479277
  0
ARC
  5
18CF6
330
18C7A
100
AcDbEntity
  8
細線
 48
50.0
100
AcDbCircle
 10
1772.970881063058
 20
1340.265294641911
 30
0.0
 40
5.0
100
AcDbArc
 50
204.6243183520723
 51
335.3756816479278
  0
LINE
  5
18CF7
330
18C7A
100
AcDbEntity
  8
細線
 48
50.0
100
AcDbLine
 10
1778.425237120377
 20
1338.765294641911
 30
0.0
 11
1789.35368560081
 21
1338.765294641913
 31
0.0
  0
LINE
  5
18CF8
330
18C7A
100
AcDbEntity
  8
細線
 48
50.0
100
AcDbLine
 10
1789.35368560081
 20
1338.765294641913
 30
0.0
 11
1795.109203183478
 21
1320.494443351423
 31
0.0
  0
LINE
  5
18CF9
330
18C7A
100
AcDbEntity
  8
細線
 48
50.0
100
AcDbLine
 10
2087.970593930113
 20
1341.094443351419
 30
0.0
 11
1336.970593930116
 21
1341.094443351418
 31
0.0
  0
LINE
  5
18CFA
330
18C7A
100
AcDbEntity
  8
細線
 48
50.0
100
AcDbLine
 10
1947.970593930113
 20
1320.494443351421
 30
0.0
 11
1877.970593930113
 21
1320.494443351421
 31
0.0
  0
LINE
  5
18CFB
330
18C7A
100
AcDbEntity
  8
細線
100
AcDbLine
 10
1667.970593930113
 20
1320.494443351421
 30
0.0
 11
1597.970602115529
 21
1320.494443351421
 31
0.0
  0
LINE
  5
18CFC
330
18C7A
100
AcDbEntity
  8
細線
 48
50.0
100
AcDbLine
 10
2741.970584622936
 20
1375.094487209288
 30
0.0
 11
2106.970593930113
 21
1375.094487209284
 31
0.0
  0
LINE
  5
18CFD
330
18C7A
100
AcDbEntity
  8
細線
 48
50.0
100
AcDbLine
 10
2106.970593930113
 20
1371.990637616925
 30
0.0
 11
2106.970593930113
 21
1376.490637616925
 31
0.0
  0
LINE
  5
18CFE
330
18C7A
100
AcDbEntity
  8
細線
 48
50.0
100
AcDbLine
 10
2106.970593930113
 20
1376.490637616925
 30
0.0
 11
2091.970593930113
 21
1376.490637616925
 31
0.0
  0
LINE
  5
18CFF
330
18C7A
100
AcDbEntity
  8
細線
 48
50.0
100
AcDbLine
 10
2091.970593930113
 20
1376.490637616925
 30
0.0
 11
2091.970593930113
 21
1383.490637616927
 31
0.0
  0
LINE
  5
18D00
330
18C7A
100
AcDbEntity
  8
細線
 48
50.0
100
AcDbLine
 10
2091.970593930113
 20
1383.490637616927
 30
0.0
 11
2076.970593930115
 21
1383.490637616924
 31
0.0
  0
LINE
  5
18D01
330
18C7A
100
AcDbEntity
  8
細線
 48
50.0
100
AcDbLine
 10
2076.970593930115
 20
1383.490637616924
 30
0.0
 11
2076.970593930115
 21
1345.890409513813
 31
0.0
  0
LINE
  5
18D02
330
18C7A
100
AcDbEntity
  8
細線
 48
50.0
100
AcDbLine
 10
2076.970593930115
 20
1345.890409513813
 30
0.0
 11
2096.970601231289
 21
1345.890451063353
 31
0.0
  0
LINE
  5
18D03
330
18C7A
100
AcDbEntity
  8
細線
 48
50.0
100
AcDbLine
 10
2096.970556362348
 20
1354.493912699161
 30
0.0
 11
2096.970601231289
 21
1345.890451063353
 31
0.0
  0
LINE
  5
18D04
330
18C7A
100
AcDbEntity
  8
細線
 48
50.0
100
AcDbLine
 10
2741.970584622936
 20
1371.644487209287
 30
0.0
 11
2741.970584622936
 21
1376.494487209284
 31
0.0
  0
LINE
  5
18D05
330
18C7A
100
AcDbEntity
  8
細線
 48
50.0
100
AcDbLine
 10
2741.970584622936
 20
1376.494487209284
 30
0.0
 11
2756.970584622934
 21
1376.494487209285
 31
0.0
  0
LINE
  5
18D06
330
18C7A
100
AcDbEntity
  8
細線
 48
50.0
100
AcDbLine
 10
2756.970584622934
 20
1376.494487209285
 30
0.0
 11
2756.970596256909
 21
1383.494487209331
 31
0.0
  0
LINE
  5
18D07
330
18C7A
100
AcDbEntity
  8
細線
 48
50.0
100
AcDbLine
 10
2756.970596256909
 20
1383.494487209331
 30
0.0
 11
2771.970594427439
 21
1383.494487209329
 31
0.0
  0
LINE
  5
18D08
330
18C7A
100
AcDbEntity
  8
細線
 48
50.0
100
AcDbLine
 10
2771.970594427439
 20
1383.494487209329
 30
0.0
 11
2771.970584125617
 21
1354.494281037055
 31
0.0
  0
LINE
  5
18D09
330
18C7A
100
AcDbEntity
  8
細線
 48
50.0
100
AcDbLine
 10
2458.070304175992
 20
1354.494278397076
 30
0.0
 11
2389.470863838818
 21
1354.494283787084
 31
0.0
  0
LINE
  5
18D0A
330
18C7A
100
AcDbEntity
  8
細線
 48
50.0
100
AcDbLine
 10
2096.970556362348
 20
1354.493912699161
 30
0.0
 11
2108.203245717057
 21
1354.494095652309
 31
0.0
  0
ARC
  5
18D0B
330
18C7A
100
AcDbEntity
  8
細線
 48
50.0
100
AcDbCircle
 10
2114.785538024393
 20
1353.294259565922
 30
0.0
 40
1.8
100
AcDbArc
 50
270.0006665777295
 51
345.000555481349
  0
LINE
  5
18D0C
330
18C7A
100
AcDbEntity
  8
細線
 48
50.0
100
AcDbLine
 10
2116.771971470473
 20
1353.753100023201
 30
0.0
 11
2116.524209028273
 21
1352.828402141094
 31
0.0
  0
LINE
  5
18D0D
330
18C7A
100
AcDbEntity
  8
細線
 48
50.0
100
AcDbLine
 10
2114.785558965548
 20
1351.494259566043
 30
0.0
 11
2111.155631546781
 21
1351.494217335563
 31
0.0
  0
ARC
  5
18D0E
330
18C7A
100
AcDbEntity
  8
細線
 48
50.0
100
AcDbCircle
 10
2111.155610605627
 20
1353.29421733544
 30
0.0
 40
1.8
100
AcDbArc
 50
195.0010443049965
 51
270.0006665777295
  0
LINE
  5
18D0F
330
18C7A
100
AcDbEntity
  8
細線
 48
50.0
100
AcDbLine
 10
2109.169183113368
 20
1353.752932303007
 30
0.0
 11
2109.416952609882
 21
1352.828311364425
 31
0.0
  0
ARC
  5
18D10
330
18C7A
100
AcDbEntity
  8
細線
 48
50.0
100
AcDbCircle
 10
2108.203262004622
 20
1353.494095652444
 30
0.0
 40
1.0
100
AcDbArc
 50
15.00104430499651
 51
90.00093320877969
  0
LINE
  5
18D11
330
18C7A
100
AcDbEntity
  8
細線
 48
50.0
100
AcDbLine
 10
2117.737892825577
 20
1354.494290342714
 30
0.0
 11
2118.679652976481
 21
1354.494296916564
 31
0.0
  0
ARC
  5
18D12
330
18C7A
100
AcDbEntity
  8
細線
 48
50.0
100
AcDbCircle
 10
2117.737899805961
 20
1353.49429034274
 30
0.0
 40
1.0
100
AcDbArc
 50
90.0003999466794
 51
165.000555481349
  0
LINE
  5
18D13
330
18C7A
100
AcDbEntity
  8
細線
 48
50.0
100
AcDbLine
 10
2669.470584622926
 20
1354.494281037055
 30
0.0
 11
2771.970584125617
 21
1354.494281037055
 31
0.0
  0
LINE
  5
18D14
330
18C7A
100
AcDbEntity
  8
細線
 48
50.0
100
AcDbLine
 10
2179.47061994182
 20
1354.494289224422
 30
0.0
 11
2118.370558714898
 21
1354.494296916564
 31
0.0
  0
LINE
  5
18D15
330
18C7A
100
AcDbEntity
  8
細線
 48
50.0
100
AcDbLine
 10
2599.470584622926
 20
1354.494281037057
 30
0.0
 11
2529.470584622926
 21
1354.494281037055
 31
0.0
  0
LINE
  5
18D16
330
18C7A
100
AcDbEntity
  8
細線
 48
50.0
100
AcDbLine
 10
2319.470584622926
 20
1354.494281037054
 30
0.0
 11
2249.470567335051
 21
1354.494281037057
 31
0.0
  0
ARC
  5
18D17
330
18C7A
100
AcDbEntity
  8
細線
 48
50.0
100
AcDbCircle
 10
2756.170589276533
 20
1387.694269174466
 30
0.0
 40
0.8
100
AcDbArc
 50
359.9997333689499
 51
89.99986668437072
  0
ARC
  5
18D18
330
18C7A
100
AcDbEntity
  8
細線
 48
50.0
100
AcDbCircle
 10
2763.770596101631
 20
1387.694280343081
 30
0.0
 40
0.8
100
AcDbArc
 50
90.00014387753465
 51
179.9997333689498
  0
LINE
  5
18D19
330
18C7A
100
AcDbEntity
  8
細線
 48
50.0
100
AcDbLine
 10
2756.170591137969
 20
1388.494269174465
 30
0.0
 11
2750.970589276525
 21
1388.494269174465
 31
0.0
  0
ARC
  5
18D1A
330
18C7A
100
AcDbEntity
  8
細線
 48
50.0
100
AcDbCircle
 10
2757.670589276524
 20
1386.194269174464
 30
0.0
 40
0.7
100
AcDbArc
 50
180.0
 51
270.0
  0
ARC
  5
18D1B
330
18C7A
100
AcDbEntity
  8
細線
 48
50.0
100
AcDbCircle
 10
2762.270589276524
 20
1386.194269174464
 30
0.0
 40
0.7
100
AcDbArc
 50
270.0
 51
0.0
  0
LINE
  5
18D1C
330
18C7A
100
AcDbEntity
  8
細線
 48
50.0
100
AcDbLine
 10
2762.970589276525
 20
1386.194269174464
 30
0.0
 11
2762.970596101639
 21
1387.694284065954
 31
0.0
  0
LINE
  5
18D1D
330
18C7A
100
AcDbEntity
  8
細線
 48
50.0
100
AcDbLine
 10
2757.670589276524
 20
1385.494269174465
 30
0.0
 11
2762.270589276524
 21
1385.494269174465
 31
0.0
  0
LINE
  5
18D1E
330
18C7A
100
AcDbEntity
  8
細線
 48
50.0
100
AcDbLine
 10
2756.970589276525
 20
1387.694269174466
 30
0.0
 11
2756.970589276525
 21
1386.194269174464
 31
0.0
  0
LINE
  5
18D1F
330
18C7A
100
AcDbEntity
  8
細線
 48
50.0
100
AcDbLine
 10
3382.570589276527
 20
1418.494269174465
 30
0.0
 11
2745.970589276525
 21
1418.494269174463
 31
0.0
  0
LINE
  5
18D20
330
18C7A
100
AcDbEntity
  8
細線
 48
50.0
100
AcDbLine
 10
3408.470589276525
 20
1413.494269174467
 30
0.0
 11
3392.570589276527
 21
1413.494269174465
 31
0.0
  0
LINE
  5
18D21
330
18C7A
100
AcDbEntity
  8
細線
 48
50.0
100
AcDbLine
 10
3392.570589276526
 20
1413.494269174465
 30
0.0
 11
3382.570589276527
 21
1418.494269174465
 31
0.0
  0
LINE
  5
18D22
330
18C7A
100
AcDbEntity
  8
細線
100
AcDbLine
 10
2993.470589276525
 20
1388.494269174465
 30
0.0
 11
2993.470589276525
 21
1417.794269174464
 31
0.0
  0
LINE
  5
18D23
330
18C7A
100
AcDbEntity
  8
細線
100
AcDbLine
 10
2993.470589276525
 20
1417.794269174464
 30
0.0
 11
3013.470589276525
 21
1417.794269174464
 31
0.0
  0
LINE
  5
18D24
330
18C7A
100
AcDbEntity
  8
細線
100
AcDbLine
 10
3013.470589276525
 20
1388.494269174465
 30
0.0
 11
3013.470589276525
 21
1417.794269174464
 31
0.0
  0
LINE
  5
18D25
330
18C7A
100
AcDbEntity
  8
細線
100
AcDbLine
 10
3170.720589276524
 20
1388.494269174465
 30
0.0
 11
3100.720589276523
 21
1388.494269174465
 31
0.0
  0
LINE
  5
18D26
330
18C7A
100
AcDbEntity
  8
細線
 48
50.0
100
AcDbLine
 10
2890.720589276525
 20
1388.494269174465
 30
0.0
 11
2763.766368849365
 21
1388.494269174465
 31
0.0
  0
LINE
  5
18D27
330
18C7A
100
AcDbEntity
  8
細線
100
AcDbLine
 10
3030.720589276525
 20
1388.494269174465
 30
0.0
 11
2960.720589276525
 21
1388.494269174465
 31
0.0
  0
LINE
  5
18D28
330
18C7A
100
AcDbEntity
  8
細線
 48
50.0
100
AcDbLine
 10
2750.970589276525
 20
1380.494269174465
 30
0.0
 11
2750.970589276525
 21
1388.494269174465
 31
0.0
  0
LINE
  5
18D29
330
18C7A
100
AcDbEntity
  8
細線
 48
50.0
100
AcDbLine
 10
2730.970589276524
 20
1380.494269174467
 30
0.0
 11
2750.970589276525
 21
1380.494269174465
 31
0.0
  0
LINE
  5
18D2A
330
18C7A
100
AcDbEntity
  8
細線
 48
50.0
100
AcDbLine
 10
2745.970589276525
 20
1418.494269174465
 30
0.0
 11
2745.970589276525
 21
1413.494269174465
 31
0.0
  0
LINE
  5
18D2B
330
18C7A
100
AcDbEntity
  8
細線
 48
50.0
100
AcDbLine
 10
2730.970589276525
 20
1418.494269174463
 30
0.0
 11
2745.970589276525
 21
1418.494269174465
 31
0.0
  0
LINE
  5
18D2C
330
18C7A
100
AcDbEntity
  8
細線
 48
50.0
100
AcDbLine
 10
2730.970589276524
 20
1380.494269174467
 30
0.0
 11
2730.970589276525
 21
1418.494269174463
 31
0.0
  0
LINE
  5
18D2D
330
18C7A
100
AcDbEntity
  8
細線
100
AcDbLine
 10
3398.970589276523
 20
1388.494269174465
 30
0.0
 11
3240.720589276525
 21
1388.494269174465
 31
0.0
  0
LINE
  5
18D2E
330
18C7A
100
AcDbEntity
  8
細線
 48
50.0
100
AcDbLine
 10
3408.470589276525
 20
1413.494269174467
 30
0.0
 11
3408.470589276524
 21
1388.494269174465
 31
0.0
  0
TEXT
  5
18D2F
330
18C7A
100
AcDbEntity
  8
部品1
100
AcDbText
 10
1860.154865991392
 20
46.99880823813145
 30
0.0
 40
135.0
  1
平面図
  7
STYLE2
100
AcDbText
  0
LWPOLYLINE
  5
18D30
330
18C7A
100
AcDbEntity
  8
部品1
100
AcDbPolyline
 90
        4
 70
     1
 43
0.0
 10
1770.23525616235
 20
239.8923374566548
 10
1770.23525616235
 20
0.0000159111223184
 10
2533.705922390791
 20
0.0000159111223184
 10
2533.705922390791
 20
239.8923374566548
  0
LINE
  5
18D31
330
18C7A
100
AcDbEntity
  8
部品1
100
AcDbLine
 10
1534.470589276487
 20
3154.494269174626
 30
0.0
 11
2769.470589276552
 21
3154.494269174626
 31
0.0
  0
LINE
  5
18D32
330
18C7A
100
AcDbEntity
  8
部品1
 48
50.0
100
AcDbLine
 10
1311.970589276523
 20
1420.494269174462
 30
0.0
 11
3411.970589276523
 21
1420.494269174465
 31
0.0
  0
LINE
  5
18D33
330
18C7A
100
AcDbEntity
  8
部品1
 48
50.0
100
AcDbLine
 10
471.9705892765232
 20
1392.494269174465
 30
0.0
 11
1311.970589276523
 21
1392.494269174465
 31
0.0
  0
DIMENSION
  5
18D34
330
18C7A
100
AcDbEntity
  8
寸法
100
AcDbDimension
  2
*D14
 10
2710.234916278077
 20
2488.887829538828
 30
0.0
 11
2338.318822490183
 21
2488.887829538828
 31
0.0
 12
-3742.925985830444
 22
-6453.628869860112
 32
0.0
 70
   128
 71
     5
 42
1231.00000000007
  3
INABA_S40G
100
AcDbAlignedDimension
 13
1536.470589276486
 23
2702.494269174557
 33
0.0
 14
2767.470589276556
 24
2702.494269174549
 34
0.0
100
AcDbRotatedDimension
1001
ACAD
1000
DSTYLE
1002
{
1002
}
  0
LINE
  5
18D35
330
18C7A
100
AcDbEntity
  8
部品1
100
AcDbLine
 10
1536.470589276487
 20
2702.494269174557
 30
0.0
 11
2767.470589276554
 21
2702.494269174615
 31
0.0
  0
LINE
  5
18D36
330
18C7A
100
AcDbEntity
  8
部品1
100
AcDbLine
 10
1536.470589276487
 20
3152.494269174557
 30
0.0
 11
2767.470589276556
 21
3152.494269174615
 31
0.0
  0
LINE
  5
18D37
330
18C7A
100
AcDbEntity
  8
細線
 48
50.0
100
AcDbLine
 10
1508.470589276487
 20
3152.494269174558
 30
0.0
 11
445.4705892765559
 21
2702.494269174509
 31
0.0
  0
LINE
  5
18D38
330
18C7A
100
AcDbEntity
  8
細線
 48
50.0
100
AcDbLine
 10
1508.470589276487
 20
2702.494269174558
 30
0.0
 11
445.4705892765542
 21
3152.494269174509
 31
0.0
  0
LINE
  5
18D39
330
18C7A
100
AcDbEntity
  8
部品1
100
AcDbLine
 10
1556.970589276487
 20
3172.494269174611
 30
0.0
 11
1556.970589276487
 21
3154.494269174611
 31
0.0
  0
LINE
  5
18D3A
330
18C7A
100
AcDbEntity
  8
部品1
100
AcDbLine
 10
1556.970589276487
 20
3172.494269174611
 30
0.0
 11
1550.970589276487
 21
3172.494269174611
 31
0.0
  0
LINE
  5
18D3B
330
18C7A
100
AcDbEntity
  8
部品1
100
AcDbLine
 10
1534.470589276487
 20
3146.494269174608
 30
0.0
 11
1509.470589276487
 21
3146.494269174611
 31
0.0
  0
LINE
  5
18D3C
330
18C7A
100
AcDbEntity
  8
部品1
100
AcDbLine
 10
1486.970589276487
 20
3172.494269174611
 30
0.0
 11
1486.970589276487
 21
3154.494269174611
 31
0.0
  0
LINE
  5
18D3D
330
18C7A
100
AcDbEntity
  8
部品1
100
AcDbLine
 10
1492.970589276487
 20
3172.494269174611
 30
0.0
 11
1486.970589276487
 21
3172.494269174611
 31
0.0
  0
LINE
  5
18D3E
330
18C7A
100
AcDbEntity
  8
部品1
100
AcDbLine
 10
1534.470589276487
 20
2702.494269174615
 30
0.0
 11
1509.470589276487
 21
2702.494269174615
 31
0.0
  0
LINE
  5
18D3F
330
18C7A
100
AcDbEntity
  8
部品1
 48
50.0
100
AcDbLine
 10
1536.470589276487
 20
3152.494269174611
 30
0.0
 11
1536.470589276487
 21
2702.494269174615
 31
0.0
  0
LINE
  5
18D40
330
18C7A
100
AcDbEntity
  8
部品1
 48
50.0
100
AcDbLine
 10
1508.470589276487
 20
3152.494269174607
 30
0.0
 11
1508.470589276487
 21
2702.494269174615
 31
0.0
  0
LINE
  5
18D41
330
18C7A
100
AcDbEntity
  8
部品1
 48
50.0
100
AcDbLine
 10
1534.470589276487
 20
3154.494269174618
 30
0.0
 11
1534.470589276487
 21
2702.494269174615
 31
0.0
  0
LINE
  5
18D42
330
18C7A
100
AcDbEntity
  8
部品1
 48
50.0
100
AcDbLine
 10
1509.470589276487
 20
3154.494269174615
 30
0.0
 11
1509.470589276487
 21
2702.494269174615
 31
0.0
  0
LINE
  5
18D43
330
18C7A
100
AcDbEntity
  8
部品1
100
AcDbLine
 10
3411.970589276556
 20
1392.494269174582
 30
0.0
 11
3411.970589276556
 21
1420.494269174596
 31
0.0
  0
LINE
  5
18D44
330
18C7A
100
AcDbEntity
  8
部品1
100
AcDbLine
 10
1311.970589276523
 20
1392.494269174596
 30
0.0
 11
1311.970589276523
 21
1420.494269174596
 31
0.0
  0
LINE
  5
18D45
330
18C7A
100
AcDbEntity
  8
部品1
100
AcDbLine
 10
891.9705892765232
 20
1392.494269174596
 30
0.0
 11
891.9705892765232
 21
1420.494269174596
 31
0.0
  0
LINE
  5
18D46
330
18C7A
100
AcDbEntity
  8
部品1
100
AcDbLine
 10
3411.97058927652
 20
3182.494269174477
 30
0.0
 11
3411.970589276523
 21
3154.494269174477
 31
0.0
  0
LINE
  5
18D47
330
18C7A
100
AcDbEntity
  8
部品1
100
AcDbLine
 10
2571.97058927652
 20
3182.494269174477
 30
0.0
 11
2571.970589276523
 21
3154.494269174477
 31
0.0
  0
LINE
  5
18D48
330
18C7A
100
AcDbEntity
  8
部品1
100
AcDbLine
 10
2991.97058927652
 20
3182.494269174477
 30
0.0
 11
2991.970589276523
 21
3154.494269174477
 31
0.0
  0
LINE
  5
18D49
330
18C7A
100
AcDbEntity
  8
部品1
100
AcDbLine
 10
2151.970589276519
 20
3182.494269174477
 30
0.0
 11
2151.970589276523
 21
3154.494269174477
 31
0.0
  0
LINE
  5
18D4A
330
18C7A
100
AcDbEntity
  8
部品1
100
AcDbLine
 10
1731.970589276519
 20
3182.494269174477
 30
0.0
 11
1731.970589276523
 21
3154.494269174477
 31
0.0
  0
LINE
  5
18D4B
330
18C7A
100
AcDbEntity
  8
部品1
100
AcDbLine
 10
1311.970589276519
 20
3182.494269174477
 30
0.0
 11
1311.970589276523
 21
3154.494269174477
 31
0.0
  0
LINE
  5
18D4C
330
18C7A
100
AcDbEntity
  8
部品1
100
AcDbLine
 10
891.9705892765195
 20
3182.494269174477
 30
0.0
 11
891.9705892765232
 21
3154.494269174477
 31
0.0
  0
LINE
  5
18D4D
330
18C7A
100
AcDbEntity
  8
部品1
100
AcDbLine
 10
471.9705892765232
 20
1392.494269174596
 30
0.0
 11
471.9705892765232
 21
1420.494269174596
 31
0.0
  0
LINE
  5
18D4E
330
18C7A
100
AcDbEntity
  8
部品1
100
AcDbLine
 10
444.9705892765305
 20
1420.494269174558
 30
0.0
 11
3858.970589276556
 21
1420.494269174596
 31
0.0
  0
LINE
  5
18D4F
330
18C7A
100
AcDbEntity
  8
部品1
100
AcDbLine
 10
3831.970589276556
 20
1392.494269174596
 30
0.0
 11
3831.970589276556
 21
1420.494269174596
 31
0.0
  0
LINE
  5
18D50
330
18C7A
100
AcDbEntity
  8
部品1
100
AcDbLine
 10
3858.970589276556
 20
1447.494269174593
 30
0.0
 11
3886.970589276556
 21
1447.494269174593
 31
0.0
  0
LINE
  5
18D51
330
18C7A
100
AcDbEntity
  8
部品1
100
AcDbLine
 10
3858.970589276556
 20
1867.494269174607
 30
0.0
 11
3886.970589276556
 21
1867.494269174607
 31
0.0
  0
LINE
  5
18D52
330
18C7A
100
AcDbEntity
  8
部品1
100
AcDbLine
 10
444.9705892765305
 20
1867.49426917448
 30
0.0
 11
416.9705892765305
 21
1867.49426917448
 31
0.0
  0
LINE
  5
18D53
330
18C7A
100
AcDbEntity
  8
部品1
100
AcDbLine
 10
3830.470589276541
 20
1867.49426917458
 30
0.0
 11
473.4705892765396
 21
1867.49426917448
 31
0.0
  0
LINE
  5
18D54
330
18C7A
100
AcDbEntity
  8
部品1
100
AcDbLine
 10
3830.470589276541
 20
2287.49426917458
 30
0.0
 11
473.4705892765396
 21
2287.49426917448
 31
0.0
  0
LINE
  5
18D55
330
18C7A
100
AcDbEntity
  8
部品1
100
AcDbLine
 10
444.9705892765305
 20
2287.49426917448
 30
0.0
 11
416.9705892765305
 21
2287.49426917448
 31
0.0
  0
LINE
  5
18D56
330
18C7A
100
AcDbEntity
  8
部品1
100
AcDbLine
 10
3858.970589276556
 20
2287.494269174608
 30
0.0
 11
3886.970589276556
 21
2287.494269174608
 31
0.0
  0
LINE
  5
18D57
330
18C7A
100
AcDbEntity
  8
部品1
 48
50.0
100
AcDbLine
 10
2151.970589276551
 20
2702.494269174586
 30
0.0
 11
2151.970589276581
 21
1448.994269174494
 31
0.0
  0
LINE
  5
18D58
330
18C7A
100
AcDbEntity
  8
破線
 48
10.0
100
AcDbLine
 10
2959.470589276535
 20
1472.494269174522
 30
0.0
 11
2176.970589276532
 21
1472.494269174505
 31
0.0
  0
LINE
  5
18D59
330
18C7A
100
AcDbEntity
  8
破線
 48
10.0
100
AcDbLine
 10
3009.47058927653
 20
1448.994269174509
 30
0.0
 11
3009.47058927653
 21
2702.494269174615
 31
0.0
  0
LINE
  5
18D5A
330
18C7A
100
AcDbEntity
  8
破線
 48
10.0
100
AcDbLine
 10
2959.470589276535
 20
1448.994269174505
 30
0.0
 11
2959.470589276531
 21
2702.494269174615
 31
0.0
  0
LINE
  5
18D5B
330
18C7A
100
AcDbEntity
  8
破線
 48
10.0
100
AcDbLine
 10
1344.47058927653
 20
1448.994269174509
 30
0.0
 11
1344.47058927653
 21
2702.494269174615
 31
0.0
  0
LINE
  5
18D5C
330
18C7A
100
AcDbEntity
  8
破線
 48
10.0
100
AcDbLine
 10
1294.470589276534
 20
1448.994269174505
 30
0.0
 11
1294.47058927653
 21
2702.494269174615
 31
0.0
  0
DIMENSION
  5
18D5D
330
18C7A
100
AcDbEntity
  8
寸法
100
AcDbDimension
  2
*D13
 10
1451.234916278005
 20
2488.887829538828
 30
0.0
 11
916.0604668248634
 21
2488.887829538828
 31
0.0
 12
-3742.925985830444
 22
-6453.628869860112
 32
0.0
 70
   128
 71
     5
 42
1062.99999999993
  3
INABA_S40G
100
AcDbAlignedDimension
 13
445.4705892765559
 23
2702.494269174505
 33
0.0
 14
1508.470589276486
 24
2702.494269174558
 34
0.0
100
AcDbRotatedDimension
1001
ACAD
1000
DSTYLE
1002
{
1002
}
  0
LINE
  5
18D5E
330
18C7A
100
AcDbEntity
  8
破線
 48
10.0
100
AcDbLine
 10
1294.470589276534
 20
1472.494269174469
 30
0.0
 11
496.9705892765414
 21
1472.494269174476
 31
0.0
  0
LINE
  5
18D5F
330
18C7A
100
AcDbEntity
  8
部品1
100
AcDbLine
 10
3831.970589276556
 20
3182.494269174604
 30
0.0
 11
3831.970589276556
 21
3154.494269174604
 31
0.0
  0
LINE
  5
18D60
330
18C7A
100
AcDbEntity
  8
部品1
100
AcDbLine
 10
3831.970589276556
 20
3182.494269174626
 30
0.0
 11
3831.970589276556
 21
3154.494269174626
 31
0.0
  0
LINE
  5
18D61
330
18C7A
100
AcDbEntity
  8
部品1
100
AcDbLine
 10
3858.970589276556
 20
3127.494269174607
 30
0.0
 11
3886.970589276556
 21
3127.494269174607
 31
0.0
  0
LINE
  5
18D62
330
18C7A
100
AcDbEntity
  8
部品1
100
AcDbLine
 10
3858.970589276556
 20
2707.494269174608
 30
0.0
 11
3886.970589276556
 21
2707.494269174608
 31
0.0
  0
LINE
  5
18D63
330
18C7A
100
AcDbEntity
  8
部品1
100
AcDbLine
 10
3858.470589276556
 20
3152.494269174604
 30
0.0
 11
3858.470589276556
 21
2702.494269174608
 31
0.0
  0
LINE
  5
18D64
330
18C7A
100
AcDbEntity
  8
部品1
100
AcDbLine
 10
3886.970589276533
 20
1447.494269174593
 30
0.0
 11
3886.970589276531
 21
1392.494269174596
 31
0.0
  0
LINE
  5
18D65
330
18C7A
100
AcDbEntity
  8
部品1
 48
50.0
100
AcDbLine
 10
3830.470589276556
 20
1448.994269174596
 30
0.0
 11
3858.970589276554
 21
1420.494269174596
 31
0.0
  0
LINE
  5
18D66
330
18C7A
100
AcDbEntity
  8
部品1
100
AcDbLine
 10
3886.970589276531
 20
1392.494269174596
 30
0.0
 11
3835.970589276531
 21
1392.494269174596
 31
0.0
  0
LINE
  5
18D67
330
18C7A
100
AcDbEntity
  8
部品1
100
AcDbLine
 10
3858.970589276533
 20
1447.494269174593
 30
0.0
 11
3886.970589276531
 21
1447.494269174593
 31
0.0
  0
LINE
  5
18D68
330
18C7A
100
AcDbEntity
  8
部品1
100
AcDbLine
 10
3886.970589276556
 20
3182.494269174604
 30
0.0
 11
3886.970589276531
 21
1392.494269174596
 31
0.0
  0
DIMENSION
  5
18D69
330
18C7A
100
AcDbEntity
  8
寸法
100
AcDbDimension
  2
*D12
 10
4534.396935010967
 20
1447.494269174593
 30
0.0
 11
4534.396935010965
 21
2287.4942691746
 31
0.0
 12
-3742.925985830444
 22
-6453.628869860112
 32
0.0
 70
   128
  1
4X420=<>
 71
     5
 42
1680.000000000014
  3
INABA_S40G
100
AcDbAlignedDimension
 13
3886.970589276556
 23
3127.494269174607
 33
0.0
 14
3886.970589276531
 24
1447.494269174593
 34
0.0
 50
90.0
100
AcDbRotatedDimension
1001
ACAD
1000
DSTYLE
1002
{
1002
}
  0
LINE
  5
18D6A
330
18C7A
100
AcDbEntity
  8
部品1
100
AcDbLine
 10
3858.970589276556
 20
3154.494269174604
 30
0.0
 11
3858.970589276534
 21
1420.494269174596
 31
0.0
  0
DIMENSION
  5
18D6B
330
18C7A
100
AcDbEntity
  8
寸法
100
AcDbDimension
  2
*D11
 10
4213.82831513858
 20
2607.276453505718
 30
0.0
 11
4113.828315138579
 21
2832.276453505718
 31
0.0
 12
-3742.925985830444
 22
-6453.628869860112
 32
0.0
 71
     5
 42
449.9999999999963
  3
INABA_S40G
100
AcDbAlignedDimension
 13
3858.470589276556
 23
3152.494269174604
 33
0.0
 14
3858.470589276556
 24
2702.494269174608
 34
0.0
 50
90.0
100
AcDbRotatedDimension
1001
ACAD
1000
DSTYLE
1002
{
1002
}
  0
LINE
  5
18D6C
330
18C7A
100
AcDbEntity
  8
部品1
100
AcDbLine
 10
3830.470589276547
 20
2702.494269174608
 30
0.0
 11
3830.470589276556
 21
1448.994269174596
 31
0.0
  0
LINE
  5
18D6D
330
18C7A
100
AcDbEntity
  8
破線
 48
10.0
100
AcDbLine
 10
3806.970589276549
 20
2702.494269174608
 30
0.0
 11
3806.970589276558
 21
1472.494269174593
 31
0.0
  0
LINE
  5
18D6E
330
18C7A
100
AcDbEntity
  8
部品1
100
AcDbLine
 10
2769.470589276556
 20
3146.494269174608
 30
0.0
 11
2794.470589276556
 21
3146.494269174611
 31
0.0
  0
LINE
  5
18D6F
330
18C7A
100
AcDbEntity
  8
部品1
100
AcDbLine
 10
2810.970589276556
 20
3172.494269174611
 30
0.0
 11
2816.970589276556
 21
3172.494269174611
 31
0.0
  0
LINE
  5
18D70
330
18C7A
100
AcDbEntity
  8
部品1
100
AcDbLine
 10
2816.970589276556
 20
3172.494269174611
 30
0.0
 11
2816.970589276556
 21
3154.494269174611
 31
0.0
  0
LINE
  5
18D71
330
18C7A
100
AcDbEntity
  8
部品1
100
AcDbLine
 10
2746.970589276556
 20
3172.494269174611
 30
0.0
 11
2752.970589276556
 21
3172.494269174611
 31
0.0
  0
LINE
  5
18D72
330
18C7A
100
AcDbEntity
  8
部品1
100
AcDbLine
 10
2746.970589276556
 20
3172.494269174611
 30
0.0
 11
2746.970589276556
 21
3154.494269174611
 31
0.0
  0
LINE
  5
18D73
330
18C7A
100
AcDbEntity
  8
部品1
100
AcDbLine
 10
2769.470589276556
 20
2702.494269174615
 30
0.0
 11
2794.470589276556
 21
2702.494269174615
 31
0.0
  0
LINE
  5
18D74
330
18C7A
100
AcDbEntity
  8
部品1
 48
50.0
100
AcDbLine
 10
2794.470589276556
 20
3154.494269174615
 30
0.0
 11
2794.470589276556
 21
2702.494269174615
 31
0.0
  0
LINE
  5
18D75
330
18C7A
100
AcDbEntity
  8
部品1
 48
50.0
100
AcDbLine
 10
2769.470589276554
 20
3154.494269174618
 30
0.0
 11
2769.470589276556
 21
2702.494269174615
 31
0.0
  0
LINE
  5
18D76
330
18C7A
100
AcDbEntity
  8
部品1
 48
50.0
100
AcDbLine
 10
2795.470589276556
 20
3152.494269174607
 30
0.0
 11
2795.470589276556
 21
2702.494269174615
 31
0.0
  0
LINE
  5
18D77
330
18C7A
100
AcDbEntity
  8
部品1
 48
50.0
100
AcDbLine
 10
2767.470589276556
 20
3152.494269174611
 30
0.0
 11
2767.470589276556
 21
2702.494269174615
 31
0.0
  0
LINE
  5
18D78
330
18C7A
100
AcDbEntity
  8
破線
 48
10.0
100
AcDbLine
 10
2176.97058927653
 20
1448.994269174509
 30
0.0
 11
2176.97058927653
 21
2702.494269174588
 31
0.0
  0
LINE
  5
18D79
330
18C7A
100
AcDbEntity
  8
破線
 48
10.0
100
AcDbLine
 10
2126.970589276534
 20
1448.994269174505
 30
0.0
 11
2126.970589276531
 21
2702.494269174586
 31
0.0
  0
LINE
  5
18D7A
330
18C7A
100
AcDbEntity
  8
部品1
100
AcDbLine
 10
2794.470589276556
 20
3154.494269174622
 30
0.0
 11
3858.970589276556
 21
3154.494269174604
 31
0.0
  0
LINE
  5
18D7B
330
18C7A
100
AcDbEntity
  8
細線
 48
50.0
100
AcDbLine
 10
3858.470589276556
 20
2702.494269174608
 30
0.0
 11
2795.470589276556
 21
3152.494269174607
 31
0.0
  0
LINE
  5
18D7C
330
18C7A
100
AcDbEntity
  8
部品1
100
AcDbLine
 10
2795.470589276555
 20
2702.494269174615
 30
0.0
 11
3858.470589276556
 21
2702.494269174608
 31
0.0
  0
LINE
  5
18D7D
330
18C7A
100
AcDbEntity
  8
部品1
100
AcDbLine
 10
2795.470589276556
 20
3152.494269174611
 30
0.0
 11
3858.470589276556
 21
3152.494269174604
 31
0.0
  0
LINE
  5
18D7E
330
18C7A
100
AcDbEntity
  8
細線
 48
50.0
100
AcDbLine
 10
3858.470589276556
 20
3152.494269174604
 30
0.0
 11
2795.470589276555
 21
2702.494269174615
 31
0.0
  0
DIMENSION
  5
18D7F
330
18C7A
100
AcDbEntity
  8
寸法
100
AcDbDimension
  2
*D10
 10
3801.234916278101
 20
2488.887829538937
 30
0.0
 11
3318.360544398907
 21
2488.887829538937
 31
0.0
 12
-3742.925985830444
 22
-6453.628869860112
 32
0.0
 70
   128
 71
     5
 42
1063.000000000012
  3
INABA_S40G
100
AcDbAlignedDimension
 13
2795.470589276555
 23
2702.494269174615
 33
0.0
 14
3858.470589276567
 24
2702.494269174608
 34
0.0
100
AcDbRotatedDimension
1001
ACAD
1000
DSTYLE
1002
{
1002
}
  0
LINE
  5
18D80
330
18C7A
100
AcDbEntity
  8
破線
 48
10.0
100
AcDbLine
 10
3806.970589276556
 20
1472.494269174594
 30
0.0
 11
3009.47058927653
 21
1472.494269174523
 31
0.0
  0
DIMENSION
  5
18D81
330
18C7A
100
AcDbEntity
  8
寸法
100
AcDbDimension
  2
*D9
 10
4534.396935010941
 20
1392.494269174596
 30
0.0
 11
4534.39693501094
 21
1084.008987800356
 31
0.0
 12
-3742.925985830444
 22
-6453.628869860112
 32
0.0
 70
   128
 71
     5
 42
54.99999999999636
  3
INABA_S40G
100
AcDbAlignedDimension
 13
3886.970589276531
 23
1447.494269174593
 33
0.0
 14
3886.970589276531
 24
1392.494269174596
 34
0.0
 50
90.0
100
AcDbRotatedDimension
1001
ACAD
1000
DSTYLE
1002
{
1002
}
  0
LINE
  5
18D82
330
18C7A
100
AcDbEntity
  8
部品1
100
AcDbLine
 10
471.9705892765196
 20
3182.494269174477
 30
0.0
 11
471.9705892765232
 21
3154.494269174477
 31
0.0
  0
LINE
  5
18D83
330
18C7A
100
AcDbEntity
  8
部品1
100
AcDbLine
 10
471.9705892765559
 20
3182.494269174509
 30
0.0
 11
471.9705892765559
 21
3154.494269174509
 31
0.0
  0
LINE
  5
18D84
330
18C7A
100
AcDbEntity
  8
部品1
100
AcDbLine
 10
444.9705892765232
 20
3127.49426917448
 30
0.0
 11
416.9705892765232
 21
3127.49426917448
 31
0.0
  0
LINE
  5
18D85
330
18C7A
100
AcDbEntity
  8
部品1
100
AcDbLine
 10
444.9705892765305
 20
2707.49426917448
 30
0.0
 11
416.9705892765305
 21
2707.49426917448
 31
0.0
  0
LINE
  5
18D86
330
18C7A
100
AcDbEntity
  8
部品1
 48
50.0
100
AcDbLine
 10
445.4705892765542
 20
3152.494269174506
 30
0.0
 11
445.4705892765559
 21
2702.494269174505
 31
0.0
  0
LINE
  5
18D87
330
18C7A
100
AcDbEntity
  8
部品1
 48
50.0
100
AcDbLine
 10
473.470589276545
 20
1448.994269174573
 30
0.0
 11
444.970589276545
 21
1420.494269174574
 31
0.0
  0
LINE
  5
18D88
330
18C7A
100
AcDbEntity
  8
部品1
100
AcDbLine
 10
471.9705892765232
 20
1392.494269174465
 30
0.0
 11
416.9705892765486
 21
1392.494269174465
 31
0.0
  0
LINE
  5
18D89
330
18C7A
100
AcDbEntity
  8
部品1
100
AcDbLine
 10
444.9705892765305
 20
1447.494269174429
 30
0.0
 11
416.9705892765469
 21
1447.494269174429
 31
0.0
  0
LINE
  5
18D8A
330
18C7A
100
AcDbEntity
  8
部品1
100
AcDbLine
 10
444.9705892765305
 20
1447.494269174465
 30
0.0
 11
416.9705892765469
 21
1447.494269174465
 31
0.0
  0
LINE
  5
18D8B
330
18C7A
100
AcDbEntity
  8
部品1
100
AcDbLine
 10
444.9705892765469
 20
1447.49426917448
 30
0.0
 11
416.9705892765469
 21
1447.49426917448
 31
0.0
  0
LINE
  5
18D8C
330
18C7A
100
AcDbEntity
  8
部品1
100
AcDbLine
 10
416.9705892765469
 20
1447.494269174429
 30
0.0
 11
416.9705892765486
 21
1392.494269174433
 31
0.0
  0
LINE
  5
18D8D
330
18C7A
100
AcDbEntity
  8
部品1
100
AcDbLine
 10
416.9705892765196
 20
3182.494269174477
 30
0.0
 11
416.9705892765486
 21
1392.494269174465
 31
0.0
  0
LINE
  5
18D8E
330
18C7A
100
AcDbEntity
  8
部品1
100
AcDbLine
 10
444.9705892765305
 20
1420.494269174556
 30
0.0
 11
444.9705892765559
 21
3154.494269174509
 31
0.0
  0
LINE
  5
18D8F
330
18C7A
100
AcDbEntity
  8
部品1
100
AcDbLine
 10
473.4705892765323
 20
2702.494269174608
 30
0.0
 11
473.470589276545
 21
1448.994269174571
 31
0.0
  0
LINE
  5
18D90
330
18C7A
100
AcDbEntity
  8
破線
 48
10.0
100
AcDbLine
 10
496.9705892765305
 20
2702.494269174608
 30
0.0
 11
496.9705892765451
 21
1472.494269174476
 31
0.0
  0
DIMENSION
  5
18D91
330
18C7A
100
AcDbEntity
  8
寸法
100
AcDbDimension
  2
*D8
 10
3886.970589276531
 20
410.7433333855515
 30
0.0
 11
2168.197775309287
 21
410.7433333855515
 31
0.0
 12
-3742.925985830444
 22
-6453.628869860112
 32
0.0
 70
   128
 71
     5
 42
3469.999999999982
  3
INABA_S40G
100
AcDbAlignedDimension
 13
416.9705892765486
 23
1392.494269174433
 33
0.0
 14
3886.970589276531
 24
1392.49426917456
 34
0.0
100
AcDbRotatedDimension
1001
ACAD
1000
DSTYLE
1002
{
1070
   341
1005
0
1002
}
  0
LINE
  5
18D92
330
18C7A
100
AcDbEntity
  8
部品1
100
AcDbLine
 10
444.9705892765559
 20
3154.494269174624
 30
0.0
 11
1509.470589276487
 21
3154.494269174626
 31
0.0
  0
LINE
  5
18D93
330
18C7A
100
AcDbEntity
  8
部品1
100
AcDbLine
 10
3886.970589276531
 20
1392.494269174596
 30
0.0
 11
3411.970589276556
 21
1392.494269174582
 31
0.0
  0
LINE
  5
18D94
330
18C7A
100
AcDbEntity
  8
部品1
100
AcDbLine
 10
416.9705892765559
 20
3182.494269174509
 30
0.0
 11
3886.970589276556
 21
3182.494269174604
 31
0.0
  0
LINE
  5
18D95
330
18C7A
100
AcDbEntity
  8
部品1
100
AcDbLine
 10
445.4705892765559
 20
2702.494269174509
 30
0.0
 11
1508.470589276487
 21
2702.494269174558
 31
0.0
  0
LINE
  5
18D96
330
18C7A
100
AcDbEntity
  8
細線
 48
50.0
100
AcDbLine
 10
2767.470589276556
 20
3152.494269174611
 30
0.0
 11
1536.470589276487
 21
2702.494269174558
 31
0.0
  0
LINE
  5
18D97
330
18C7A
100
AcDbEntity
  8
部品1
100
AcDbLine
 10
445.4705892765542
 20
3152.494269174509
 30
0.0
 11
1508.470589276485
 21
3152.494269174558
 31
0.0
  0
LINE
  5
18D98
330
18C7A
100
AcDbEntity
  8
細線
 48
50.0
100
AcDbLine
 10
2767.470589276554
 20
2702.494269174615
 30
0.0
 11
1536.470589276485
 21
3152.494269174558
 31
0.0
  0
LINE
  5
18D99
330
18C7A
100
AcDbEntity
  8
破線
 48
10.0
100
AcDbLine
 10
2126.970589276534
 20
1472.494269174502
 30
0.0
 11
1344.47058927653
 21
1472.494269174473
 31
0.0
  0
LINE
  5
18D9A
330
18C7A
100
AcDbEntity
  8
部品1
100
AcDbLine
 10
3830.470589276556
 20
1448.994269174596
 30
0.0
 11
473.4705892764487
 21
1448.994269174476
 31
0.0
  0
DIMENSION
  5
18D9B
330
18C7A
100
AcDbEntity
  8
寸法
100
AcDbDimension
  2
*D7
 10
471.970589276555
 20
3698.302488799491
 30
0.0
 11
108.4853079022819
 21
3698.302488799491
 31
0.0
 12
-3742.925985830444
 22
-6453.628869860112
 32
0.0
 70
   128
 71
     5
 42
55.00000000003456
  3
INABA_S40G
100
AcDbAlignedDimension
 13
416.9705892765205
 23
3182.494269174509
 33
0.0
 14
471.970589276555
 24
3182.494269174509
 34
0.0
100
AcDbRotatedDimension
1001
ACAD
1000
DSTYLE
1002
{
1002
}
  0
DIMENSION
  5
18D9C
330
18C7A
100
AcDbEntity
  8
寸法
100
AcDbDimension
  2
*D6
 10
4534.396935010967
 20
3127.494269174607
 30
0.0
 11
4534.396935010965
 21
3490.979550548844
 31
0.0
 12
-3742.925985830444
 22
-6453.628869860112
 32
0.0
 70
   128
 71
     5
 42
54.99999999999636
  3
INABA_S40G
100
AcDbAlignedDimension
 13
3886.970589276556
 23
3182.494269174604
 33
0.0
 14
3886.970589276556
 24
3127.494269174607
 34
0.0
 50
90.0
100
AcDbRotatedDimension
1001
ACAD
1000
DSTYLE
1002
{
1002
}
  0
DIMENSION
  5
18D9D
330
18C7A
100
AcDbEntity
  8
寸法
100
AcDbDimension
  2
*D5
 10
3886.970589276556
 20
3698.302488799589
 30
0.0
 11
4195.455870650794
 21
3698.302488799589
 31
0.0
 12
-3742.925985830444
 22
-6453.628869860112
 32
0.0
 70
   128
 71
     5
 42
55.0
  3
INABA_S40G
100
AcDbAlignedDimension
 13
3831.970589276556
 23
3182.494269174604
 33
0.0
 14
3886.970589276556
 24
3182.494269174604
 34
0.0
100
AcDbRotatedDimension
1001
ACAD
1000
DSTYLE
1002
{
1002
}
  0
DIMENSION
  5
18D9E
330
18C7A
100
AcDbEntity
  8
寸法
100
AcDbDimension
  2
*D4
 10
3831.970589276556
 20
3698.302488799607
 30
0.0
 11
2151.970589276555
 21
3698.302488799607
 31
0.0
 12
-3742.925985830444
 22
-6453.628869860112
 32
0.0
 70
   128
  1
8X420=<>
 71
     5
 42
3360.000000000001
  3
INABA_S40G
100
AcDbAlignedDimension
 13
471.970589276555
 23
3182.494269174509
 33
0.0
 14
3831.970589276556
 24
3182.494269174604
 34
0.0
100
AcDbRotatedDimension
1001
ACAD
1000
DSTYLE
1002
{
1002
}
  0
DIMENSION
  5
18D9F
330
18C7A
100
AcDbEntity
  8
寸法
100
AcDbDimension
  2
*D3
 10
4899.503876750603
 20
1392.494269174596
 30
0.0
 11
4899.503876750601
 21
2287.4942691746
 31
0.0
 12
-3742.925985830444
 22
-6453.628869860112
 32
0.0
 70
   128
 71
     5
 42
1790.000000000007
  3
INABA_S40G
100
AcDbAlignedDimension
 13
3886.970589276556
 23
3182.494269174604
 33
0.0
 14
3886.970589276531
 24
1392.494269174596
 34
0.0
 50
90.0
100
AcDbRotatedDimension
1001
ACAD
1000
DSTYLE
1002
{
1002
}
  0
ENDBLK
  5
18DA1
330
18C7A
100
AcDbEntity
  8
0
 48
50.0
100
AcDbBlockEnd
  0
BLOCK
  5
1C4CB
330
1C4CA
100
AcDbEntity
  8
0
 48
50.0
100
AcDbBlockBegin
  2
_NONE
 70
     0
 10
0.0
 20
0.0
 30
0.0
  3
_NONE
  1

  0
CIRCLE
  5
1C4CC
330
1C4CA
100
AcDbEntity
  8
0
  6
ByBlock
 62
     0
 48
50.0
100
AcDbCircle
 10
0.0
 20
0.0
 30
0.0
 40
0.25
  0
ENDBLK
  5
1C4CD
330
1C4CA
100
AcDbEntity
  8
0
 48
50.0
100
AcDbBlockEnd
  0
BLOCK
  5
20DEE
330
20DE2
100
AcDbEntity
  8
0
 48
50.0
100
AcDbBlockBegin
  2
*D19
 70
     1
 10
0.0
 20
0.0
 30
0.0
  3
*D19
  1

  0
LINE
  5
272BB
330
20DE2
100
AcDbEntity
  8
寸法
 62
     0
 48
50.0
370
    -2
100
AcDbLine
 10
12028.6
 20
7392.139020432172
 30
0.0
 11
12028.6
 21
8390.359342491093
 31
0.0
  0
LINE
  5
272BC
330
20DE2
100
AcDbEntity
  8
寸法
 62
     0
 48
50.0
370
    -2
100
AcDbLine
 10
12073.6
 20
8118.405478526083
 30
0.0
 11
12073.6
 21
8390.359342491093
 31
0.0
  0
LINE
  5
272BD
330
20DE2
100
AcDbEntity
  8
寸法
 62
     0
 48
50.0
370
    -2
100
AcDbLine
 10
12028.6
 20
8330.359342491092
 30
0.0
 11
11928.6
 21
8330.359342491092
 31
0.0
  0
LINE
  5
272BE
330
20DE2
100
AcDbEntity
  8
寸法
 62
     0
 48
50.0
370
    -2
100
AcDbLine
 10
12073.6
 20
8330.359342491092
 30
0.0
 11
12410.94924240492
 21
8330.359342491092
 31
0.0
  0
LINE
  5
272BF
330
20DE2
100
AcDbEntity
  8
寸法
 62
     0
 48
50.0
370
    -2
100
AcDbLine
 10
12028.6
 20
8330.359342491092
 30
0.0
 11
12073.6
 21
8330.359342491092
 31
0.0
  0
INSERT
  5
272C0
330
20DE2
100
AcDbEntity
  8
寸法
 62
     0
 48
50.0
370
    -2
100
AcDbBlockReference
  2
_DOTSMALL
 10
12028.6
 20
8330.359342491092
 30
0.0
 41
100.0
 42
100.0
 43
100.0
  0
INSERT
  5
272C1
330
20DE2
100
AcDbEntity
  8
寸法
 62
     0
 48
50.0
370
    -2
100
AcDbBlockReference
  2
_DOTSMALL
 10
12073.6
 20
8330.359342491092
 30
0.0
 41
100.0
 42
100.0
 43
100.0
 50
180.0
  0
MTEXT
  5
272C2
330
20DE2
100
AcDbEntity
  8
寸法
 62
     7
 48
50.0
100
AcDbMText
 10
12344.77462120246
 20
8430.359342491092
 30
0.0
 40
120.0
 41
0.0
 71
     5
 72
     1
  1
\A1;a
  7
STYLE1
 73
     1
 44
1.0
1001
ACAD
1000
MTEXTBEGIN
1070
    73
1070
     1
1070
    44
1040
1.0
1070
    74
1070
     0
1000
MTEXTEND
  0
POINT
  5
272C3
330
20DE2
100
AcDbEntity
  8
DEFPOINTS
 62
     0
 48
50.0
100
AcDbPoint
 10
12028.6
 20
7372.139020432172
 30
0.0
  0
POINT
  5
272C4
330
20DE2
100
AcDbEntity
  8
DEFPOINTS
 62
     0
 48
50.0
100
AcDbPoint
 10
12073.6
 20
8098.405478526084
 30
0.0
  0
POINT
  5
272C5
330
20DE2
100
AcDbEntity
  8
DEFPOINTS
 62
     0
 48
50.0
100
AcDbPoint
 10
12073.6
 20
8330.359342491092
 30
0.0
  0
ENDBLK
  5
20DEF
330
20DE2
100
AcDbEntity
  8
0
 48
50.0
100
AcDbBlockEnd
  0
BLOCK
  5
20E08
330
20DFC
100
AcDbEntity
  8
0
 48
50.0
100
AcDbBlockBegin
  2
*D20
 70
     1
 10
0.0
 20
0.0
 30
0.0
  3
*D20
  1

  0
LINE
  5
272DA
330
20DFC
100
AcDbEntity
  8
寸法
 62
     0
 48
50.0
370
    -2
100
AcDbLine
 10
4373.599999999995
 20
8118.40547852608
 30
0.0
 11
4373.599999999995
 21
8390.359342491089
 31
0.0
  0
LINE
  5
272DB
330
20DFC
100
AcDbEntity
  8
寸法
 62
     0
 48
50.0
370
    -2
100
AcDbLine
 10
4418.599999999995
 20
7392.139020432169
 30
0.0
 11
4418.599999999995
 21
8390.359342491089
 31
0.0
  0
LINE
  5
272DC
330
20DFC
100
AcDbEntity
  8
寸法
 62
     0
 48
50.0
370
    -2
100
AcDbLine
 10
4418.599999999995
 20
8330.359342491089
 30
0.0
 11
4518.599999999994
 21
8330.359342491089
 31
0.0
  0
LINE
  5
272DD
330
20DFC
100
AcDbEntity
  8
寸法
 62
     0
 48
50.0
370
    -2
100
AcDbLine
 10
4373.599999999995
 20
8330.359342491089
 30
0.0
 11
4036.250757595078
 21
8330.359342491089
 31
0.0
  0
LINE
  5
272DE
330
20DFC
100
AcDbEntity
  8
寸法
 62
     0
 48
50.0
370
    -2
100
AcDbLine
 10
4418.599999999995
 20
8330.359342491089
 30
0.0
 11
4373.599999999995
 21
8330.359342491089
 31
0.0
  0
INSERT
  5
272DF
330
20DFC
100
AcDbEntity
  8
寸法
 62
     0
 48
50.0
370
    -2
100
AcDbBlockReference
  2
_DOTSMALL
 10
4418.599999999995
 20
8330.359342491089
 30
0.0
 41
100.0
 42
100.0
 43
100.0
 50
180.0
  0
INSERT
  5
272E0
330
20DFC
100
AcDbEntity
  8
寸法
 62
     0
 48
50.0
370
    -2
100
AcDbBlockReference
  2
_DOTSMALL
 10
4373.599999999995
 20
8330.359342491089
 30
0.0
 41
100.0
 42
100.0
 43
100.0
  0
MTEXT
  5
272E1
330
20DFC
100
AcDbEntity
  8
寸法
 62
     7
 48
50.0
100
AcDbMText
 10
4102.425378797536
 20
8430.359342491088
 30
0.0
 40
120.0
 41
0.0
 71
     5
 72
     1
  1
\A1;a
  7
STYLE1
 73
     1
 44
1.0
1001
ACAD
1000
MTEXTBEGIN
1070
    73
1070
     1
1070
    44
1040
1.0
1070
    74
1070
     0
1000
MTEXTEND
  0
POINT
  5
272E2
330
20DFC
100
AcDbEntity
  8
DEFPOINTS
 62
     0
 48
50.0
100
AcDbPoint
 10
4373.599999999995
 20
8098.40547852608
 30
0.0
  0
POINT
  5
272E3
330
20DFC
100
AcDbEntity
  8
DEFPOINTS
 62
     0
 48
50.0
100
AcDbPoint
 10
4418.599999999995
 20
7372.139020432169
 30
0.0
  0
POINT
  5
272E4
330
20DFC
100
AcDbEntity
  8
DEFPOINTS
 62
     0
 48
50.0
100
AcDbPoint
 10
4418.599999999995
 20
8330.359342491089
 30
0.0
  0
ENDBLK
  5
20E09
330
20DFC
100
AcDbEntity
  8
0
 48
50.0
100
AcDbBlockEnd
  0
BLOCK
  5
2274E
330
22742
100
AcDbEntity
  8
0
 48
50.0
100
AcDbBlockBegin
  2
*D25
 70
     1
 10
0.0
 20
0.0
 30
0.0
  3
*D25
  1

  0
LINE
  5
272E5
330
22742
100
AcDbEntity
  8
寸法
 62
     0
 48
50.0
370
    -2
100
AcDbLine
 10
3775.665006330057
 20
7447.139020432175
 30
0.0
 11
3483.721909610666
 21
7447.139020432175
 31
0.0
  0
LINE
  5
272E6
330
22742
100
AcDbEntity
  8
寸法
 62
     0
 48
50.0
370
    -2
100
AcDbLine
 10
4398.599999999994
 20
7372.139020432169
 30
0.0
 11
3483.721909610666
 21
7372.139020432169
 31
0.0
  0
LINE
  5
272E7
330
22742
100
AcDbEntity
  8
寸法
 62
     0
 48
50.0
370
    -2
100
AcDbLine
 10
3543.721909610666
 20
7447.139020432175
 30
0.0
 11
3543.721909610666
 21
7547.139020432175
 31
0.0
  0
LINE
  5
272E8
330
22742
100
AcDbEntity
  8
寸法
 62
     0
 48
50.0
370
    -2
100
AcDbLine
 10
3543.721909610666
 20
7372.139020432169
 30
0.0
 11
3543.721909610666
 21
7272.139020432169
 31
0.0
  0
LINE
  5
272E9
330
22742
100
AcDbEntity
  8
寸法
 62
     0
 48
50.0
370
    -2
100
AcDbLine
 10
3543.721909610666
 20
7447.139020432175
 30
0.0
 11
3543.721909610666
 21
7372.139020432169
 31
0.0
  0
INSERT
  5
272EA
330
22742
100
AcDbEntity
  8
寸法
 62
     0
 48
50.0
370
    -2
100
AcDbBlockReference
  2
_DOTSMALL
 10
3543.721909610666
 20
7447.139020432175
 30
0.0
 41
100.0
 42
100.0
 43
100.0
 50
270.0
  0
INSERT
  5
272EB
330
22742
100
AcDbEntity
  8
寸法
 62
     0
 48
50.0
370
    -2
100
AcDbBlockReference
  2
_DOTSMALL
 10
3543.721909610666
 20
7372.139020432169
 30
0.0
 41
100.0
 42
100.0
 43
100.0
 50
90.0
  0
MTEXT
  5
272EC
330
22742
100
AcDbEntity
  8
寸法
 62
     7
 48
50.0
100
AcDbMText
 10
3443.721909610665
 20
7409.639020432172
 30
0.0
 40
120.0
 41
0.0
 71
     5
 72
     1
  1
\A1;c
  7
STYLE1
 11
0.0000000000000001
 21
1.0
 31
0.0
 73
     1
 44
1.0
1001
ACAD
1000
MTEXTBEGIN
1070
    73
1070
     1
1070
    44
1040
1.0
1070
    74
1070
     0
1000
MTEXTEND
  0
POINT
  5
272ED
330
22742
100
AcDbEntity
  8
DEFPOINTS
 62
     0
 48
50.0
100
AcDbPoint
 10
3795.665006330056
 20
7447.139020432175
 30
0.0
  0
POINT
  5
272EE
330
22742
100
AcDbEntity
  8
DEFPOINTS
 62
     0
 48
50.0
100
AcDbPoint
 10
4418.599999999995
 20
7372.139020432169
 30
0.0
  0
POINT
  5
272EF
330
22742
100
AcDbEntity
  8
DEFPOINTS
 62
     0
 48
50.0
100
AcDbPoint
 10
3543.721909610666
 20
7372.139020432169
 30
0.0
  0
ENDBLK
  5
2274F
330
22742
100
AcDbEntity
  8
0
 48
50.0
100
AcDbBlockEnd
  0
BLOCK
  5
22768
330
2275C
100
AcDbEntity
  8
0
 48
50.0
100
AcDbBlockBegin
  2
*D26
 70
     1
 10
0.0
 20
0.0
 30
0.0
  3
*D26
  1

  0
LINE
  5
272F0
330
2275C
100
AcDbEntity
  8
寸法
 62
     0
 48
50.0
370
    -2
100
AcDbLine
 10
4398.599999999994
 20
6412.139020432168
 30
0.0
 11
3483.721909610666
 21
6412.139020432168
 31
0.0
  0
LINE
  5
272F1
330
2275C
100
AcDbEntity
  8
寸法
 62
     0
 48
50.0
370
    -2
100
AcDbLine
 10
3775.665006330064
 20
6357.139020432194
 30
0.0
 11
3483.721909610666
 21
6357.139020432194
 31
0.0
  0
LINE
  5
272F2
330
2275C
100
AcDbEntity
  8
寸法
 62
     0
 48
50.0
370
    -2
100
AcDbLine
 10
3543.721909610666
 20
6412.139020432168
 30
0.0
 11
3543.721909610666
 21
6512.139020432169
 31
0.0
  0
LINE
  5
272F3
330
2275C
100
AcDbEntity
  8
寸法
 62
     0
 48
50.0
370
    -2
100
AcDbLine
 10
3543.721909610666
 20
6357.139020432194
 30
0.0
 11
3543.721909610666
 21
6257.139020432195
 31
0.0
  0
LINE
  5
272F4
330
2275C
100
AcDbEntity
  8
寸法
 62
     0
 48
50.0
370
    -2
100
AcDbLine
 10
3543.721909610666
 20
6412.139020432168
 30
0.0
 11
3543.721909610666
 21
6357.139020432194
 31
0.0
  0
INSERT
  5
272F5
330
2275C
100
AcDbEntity
  8
寸法
 62
     0
 48
50.0
370
    -2
100
AcDbBlockReference
  2
_DOTSMALL
 10
3543.721909610666
 20
6412.139020432168
 30
0.0
 41
100.0
 42
100.0
 43
100.0
 50
270.0
  0
INSERT
  5
272F6
330
2275C
100
AcDbEntity
  8
寸法
 62
     0
 48
50.0
370
    -2
100
AcDbBlockReference
  2
_DOTSMALL
 10
3543.721909610666
 20
6357.139020432194
 30
0.0
 41
100.0
 42
100.0
 43
100.0
 50
90.0
  0
MTEXT
  5
272F7
330
2275C
100
AcDbEntity
  8
寸法
 62
     7
 48
50.0
100
AcDbMText
 10
3443.721909610665
 20
6384.639020432183
 30
0.0
 40
120.0
 41
0.0
 71
     5
 72
     1
  1
\A1;b
  7
STYLE1
 11
0.0000000000000001
 21
1.0
 31
0.0
 73
     1
 44
1.0
1001
ACAD
1000
MTEXTBEGIN
1070
    73
1070
     1
1070
    44
1040
1.0
1070
    74
1070
     0
1000
MTEXTEND
  0
POINT
  5
272F8
330
2275C
100
AcDbEntity
  8
DEFPOINTS
 62
     0
 48
50.0
100
AcDbPoint
 10
4418.599999999995
 20
6412.139020432168
 30
0.0
  0
POINT
  5
272F9
330
2275C
100
AcDbEntity
  8
DEFPOINTS
 62
     0
 48
50.0
100
AcDbPoint
 10
3795.665006330064
 20
6357.139020432194
 30
0.0
  0
POINT
  5
272FA
330
2275C
100
AcDbEntity
  8
DEFPOINTS
 62
     0
 48
50.0
100
AcDbPoint
 10
3543.721909610666
 20
6357.139020432194
 30
0.0
  0
ENDBLK
  5
22769
330
2275C
100
AcDbEntity
  8
0
 48
50.0
100
AcDbBlockEnd
  0
BLOCK
  5
239FE
330
239F3
100
AcDbEntity
  8
0
 48
50.0
100
AcDbBlockBegin
  2
*D27
 70
     1
 10
0.0
 20
0.0
 30
0.0
  3
*D27
  1

  0
LINE
  5
272C6
330
239F3
100
AcDbEntity
  8
寸法
 62
     0
 48
50.0
370
    -2
100
AcDbLine
 10
11553.85468201165
 20
7372.139020432162
 30
0.0
 11
11313.95750108246
 21
7372.139020432162
 31
0.0
  0
LINE
  5
272C7
330
239F3
100
AcDbEntity
  8
寸法
 62
     0
 48
50.0
370
    -2
100
AcDbLine
 10
11553.85468201165
 20
7172.139020432162
 30
0.0
 11
11313.95750108246
 21
7172.139020432162
 31
0.0
  0
LINE
  5
272C8
330
239F3
100
AcDbEntity
  8
寸法
 62
     0
 48
50.0
370
    -2
100
AcDbLine
 10
11373.95750108246
 20
7172.139020432162
 30
0.0
 11
11373.95750108246
 21
7372.139020432162
 31
0.0
  0
LINE
  5
272C9
330
239F3
100
AcDbEntity
  8
寸法
 62
     0
 48
50.0
370
    -2
100
AcDbLine
 10
11373.95750108246
 20
7372.139020432162
 30
0.0
 11
11373.95750108246
 21
7771.280752715629
 31
0.0
  0
INSERT
  5
272CA
330
239F3
100
AcDbEntity
  8
寸法
 62
     0
 48
50.0
370
    -2
100
AcDbBlockReference
  2
_DOTSMALL
 10
11373.95750108246
 20
7172.139020432162
 30
0.0
 41
100.0
 42
100.0
 43
100.0
 50
270.0
  0
INSERT
  5
272CB
330
239F3
100
AcDbEntity
  8
寸法
 62
     0
 48
50.0
370
    -2
100
AcDbBlockReference
  2
_DOTSMALL
 10
11373.95750108246
 20
7372.139020432162
 30
0.0
 41
100.0
 42
100.0
 43
100.0
 50
90.0
  0
MTEXT
  5
272CC
330
239F3
100
AcDbEntity
  8
寸法
 62
     7
 48
50.0
100
AcDbMText
 10
11273.94569005883
 20
7621.709886573897
 30
0.0
 40
120.0
 41
0.0
 71
     5
 72
     1
  1
\A1;200
  7
STYLE1
 11
0.0000000000000001
 21
1.0
 31
0.0
 73
     1
 44
1.0
1001
ACAD
1000
MTEXTBEGIN
1070
    73
1070
     1
1070
    44
1040
1.0
1070
    74
1070
     0
1000
MTEXTEND
  0
POINT
  5
272CD
330
239F3
100
AcDbEntity
  8
DEFPOINTS
 62
     0
 48
50.0
100
AcDbPoint
 10
11573.85468201165
 20
7372.139020432162
 30
0.0
  0
POINT
  5
272CE
330
239F3
100
AcDbEntity
  8
DEFPOINTS
 62
     0
 48
50.0
100
AcDbPoint
 10
11573.85468201165
 20
7172.139020432162
 30
0.0
  0
POINT
  5
272CF
330
239F3
100
AcDbEntity
  8
DEFPOINTS
 62
     0
 48
50.0
100
AcDbPoint
 10
11373.95750108246
 20
7172.139020432162
 30
0.0
  0
ENDBLK
  5
239FF
330
239F3
100
AcDbEntity
  8
0
 48
50.0
100
AcDbBlockEnd
  0
BLOCK
  5
23A2E
330
23A23
100
AcDbEntity
  8
0
 48
50.0
100
AcDbBlockBegin
  2
*D28
 70
     1
 10
0.0
 20
0.0
 30
0.0
  3
*D28
  1

  0
LINE
  5
273AE
330
23A23
100
AcDbEntity
  8
寸法
 62
     0
 48
50.0
370
    -2
100
AcDbLine
 10
11628.60000000001
 20
6692.139020432207
 30
0.0
 11
11313.95750108246
 21
6692.139020432207
 31
0.0
  0
LINE
  5
273AF
330
23A23
100
AcDbEntity
  8
寸法
 62
     0
 48
50.0
370
    -2
100
AcDbLine
 10
11628.60000000001
 20
6412.139020432181
 30
0.0
 11
11313.95750108246
 21
6412.139020432181
 31
0.0
  0
LINE
  5
273B0
330
23A23
100
AcDbEntity
  8
寸法
 62
     0
 48
50.0
370
    -2
100
AcDbLine
 10
11373.95750108246
 20
6692.139020432207
 30
0.0
 11
11373.95750108246
 21
6412.139020432181
 31
0.0
  0
LINE
  5
273B1
330
23A23
100
AcDbEntity
  8
寸法
 62
     0
 48
50.0
370
    -2
100
AcDbLine
 10
11373.95750108246
 20
6412.139020432181
 30
0.0
 11
11373.95750108246
 21
6012.997288148716
 31
0.0
  0
INSERT
  5
273B2
330
23A23
100
AcDbEntity
  8
寸法
 62
     0
 48
50.0
370
    -2
100
AcDbBlockReference
  2
_DOTSMALL
 10
11373.95750108246
 20
6692.139020432207
 30
0.0
 41
100.0
 42
100.0
 43
100.0
 50
90.0
  0
INSERT
  5
273B3
330
23A23
100
AcDbEntity
  8
寸法
 62
     0
 48
50.0
370
    -2
100
AcDbBlockReference
  2
_DOTSMALL
 10
11373.95750108246
 20
6412.139020432181
 30
0.0
 41
100.0
 42
100.0
 43
100.0
 50
270.0
  0
MTEXT
  5
273B4
330
23A23
100
AcDbEntity
  8
寸法
 62
     7
 48
50.0
100
AcDbMText
 10
11273.94569005883
 20
6162.56815429045
 30
0.0
 40
120.0
 41
0.0
 71
     5
 72
     1
  1
\A1;280
  7
STYLE1
 11
0.0000000000000001
 21
1.0
 31
0.0
 73
     1
 44
1.0
1001
ACAD
1000
MTEXTBEGIN
1070
    73
1070
     1
1070
    44
1040
1.0
1070
    74
1070
     0
1000
MTEXTEND
  0
POINT
  5
273B5
330
23A23
100
AcDbEntity
  8
DEFPOINTS
 62
     0
 48
50.0
100
AcDbPoint
 10
11648.60000000001
 20
6692.139020432207
 30
0.0
  0
POINT
  5
273B6
330
23A23
100
AcDbEntity
  8
DEFPOINTS
 62
     0
 48
50.0
100
AcDbPoint
 10
11648.60000000001
 20
6412.139020432181
 30
0.0
  0
POINT
  5
273B7
330
23A23
100
AcDbEntity
  8
DEFPOINTS
 62
     0
 48
50.0
100
AcDbPoint
 10
11373.95750108246
 20
6412.139020432181
 30
0.0
  0
ENDBLK
  5
23A2F
330
23A23
100
AcDbEntity
  8
0
 48
50.0
100
AcDbBlockEnd
  0
BLOCK
  5
23AE9
330
23ADE
100
AcDbEntity
  8
0
 48
50.0
100
AcDbBlockBegin
  2
*D29
 70
     1
 10
0.0
 20
0.0
 30
0.0
  3
*D29
  1

  0
LINE
  5
273E1
330
23ADE
100
AcDbEntity
  8
寸法
 62
     0
 48
50.0
370
    -2
100
AcDbLine
 10
12028.6
 20
7088.820126500391
 30
0.0
 11
12028.6
 21
7031.82686246156
 31
0.0
  0
LINE
  5
273E2
330
23ADE
100
AcDbEntity
  8
寸法
 62
     0
 48
50.0
370
    -2
100
AcDbLine
 10
11908.6
 20
7111.826862461559
 30
0.0
 11
11908.6
 21
7151.82686246156
 31
0.0
  0
LINE
  5
273E3
330
23ADE
100
AcDbEntity
  8
寸法
 62
     0
 48
50.0
370
    -2
100
AcDbLine
 10
11908.6
 20
7091.826862461559
 30
0.0
 11
12028.6
 21
7091.826862461559
 31
0.0
  0
LINE
  5
273E4
330
23ADE
100
AcDbEntity
  8
寸法
 62
     0
 48
50.0
370
    -2
100
AcDbLine
 10
12028.6
 20
7091.826862461559
 30
0.0
 11
12434.70629921261
 21
7091.826862461559
 31
0.0
  0
INSERT
  5
273E5
330
23ADE
100
AcDbEntity
  8
寸法
 62
     0
 48
50.0
370
    -2
100
AcDbBlockReference
  2
_DOTSMALL
 10
11908.6
 20
7091.826862461559
 30
0.0
 41
100.0
 42
100.0
 43
100.0
 50
180.0
  0
INSERT
  5
273E6
330
23ADE
100
AcDbEntity
  8
寸法
 62
     0
 48
50.0
370
    -2
100
AcDbBlockReference
  2
_DOTSMALL
 10
12028.6
 20
7091.826862461559
 30
0.0
 41
100.0
 42
100.0
 43
100.0
  0
MTEXT
  5
273E7
330
23ADE
100
AcDbEntity
  8
寸法
 62
     7
 48
50.0
100
AcDbMText
 10
12298.65905511812
 20
7191.838673485181
 30
0.0
 40
120.0
 41
0.0
 71
     5
 72
     1
  1
\A1;120
  7
STYLE1
 73
     1
 44
1.0
1001
ACAD
1000
MTEXTBEGIN
1070
    73
1070
     1
1070
    44
1040
1.0
1070
    74
1070
     0
1000
MTEXTEND
  0
POINT
  5
273E8
330
23ADE
100
AcDbEntity
  8
DEFPOINTS
 62
     0
 48
50.0
100
AcDbPoint
 10
12028.6
 20
7108.820126500392
 30
0.0
  0
POINT
  5
273E9
330
23ADE
100
AcDbEntity
  8
DEFPOINTS
 62
     0
 48
50.0
100
AcDbPoint
 10
11908.6
 20
7091.826862461559
 30
0.0
  0
POINT
  5
273EA
330
23ADE
100
AcDbEntity
  8
DEFPOINTS
 62
     0
 48
50.0
100
AcDbPoint
 10
11908.6
 20
7091.826862461559
 30
0.0
  0
ENDBLK
  5
23AEA
330
23ADE
100
AcDbEntity
  8
0
 48
50.0
100
AcDbBlockEnd
  0
BLOCK
  5
26E9D
330
26E94
100
AcDbEntity
  8
0
 48
50.0
100
AcDbBlockBegin
  2
*D30
 70
     1
 10
0.0
 20
0.0
 30
0.0
  3
*D30
  1

  0
LINE
  5
2722E
330
26E94
100
AcDbEntity
  8
寸法
 62
     0
 48
50.0
370
    -2
100
AcDbLine
 10
7273.600000000008
 20
6962.139020432172
 30
0.0
 11
7273.600000000008
 21
7914.747837102421
 31
0.0
  0
LINE
  5
2722F
330
26E94
100
AcDbEntity
  8
寸法
 62
     0
 48
50.0
370
    -2
100
AcDbLine
 10
6323.600000000006
 20
6962.139020432172
 30
0.0
 11
6323.600000000006
 21
7914.747837102421
 31
0.0
  0
LINE
  5
27230
330
26E94
100
AcDbEntity
  8
寸法
 62
     0
 48
50.0
370
    -2
100
AcDbLine
 10
7273.600000000008
 20
7854.747837102421
 30
0.0
 11
6323.600000000006
 21
7854.747837102421
 31
0.0
  0
INSERT
  5
27231
330
26E94
100
AcDbEntity
  8
寸法
 62
     0
 48
50.0
370
    -2
100
AcDbBlockReference
  2
_DOTSMALL
 10
7273.600000000008
 20
7854.747837102421
 30
0.0
 41
100.0
 42
100.0
 43
100.0
  0
INSERT
  5
27232
330
26E94
100
AcDbEntity
  8
寸法
 62
     0
 48
50.0
370
    -2
100
AcDbBlockReference
  2
_DOTSMALL
 10
6323.600000000006
 20
7854.747837102421
 30
0.0
 41
100.0
 42
100.0
 43
100.0
 50
180.0
  0
MTEXT
  5
27233
330
26E94
100
AcDbEntity
  8
寸法
 62
     7
 48
50.0
100
AcDbMText
 10
6798.600000000007
 20
7954.747837102421
 30
0.0
 40
120.0
 41
0.0
 71
     5
 72
     1
  1
\A1;950
  7
STYLE1
 73
     1
 44
1.0
1001
ACAD
1000
MTEXTBEGIN
1070
    73
1070
     1
1070
    44
1040
1.0
1070
    74
1070
     0
1000
MTEXTEND
  0
POINT
  5
27234
330
26E94
100
AcDbEntity
  8
DEFPOINTS
 62
     0
 48
50.0
100
AcDbPoint
 10
7273.600000000008
 20
6942.139020432172
 30
0.0
  0
POINT
  5
27235
330
26E94
100
AcDbEntity
  8
DEFPOINTS
 62
     0
 48
50.0
100
AcDbPoint
 10
6323.600000000006
 20
6942.139020432172
 30
0.0
  0
POINT
  5
27236
330
26E94
100
AcDbEntity
  8
DEFPOINTS
 62
     0
 48
50.0
100
AcDbPoint
 10
6323.600000000006
 20
7854.747837102421
 30
0.0
  0
ENDBLK
  5
26E9E
330
26E94
100
AcDbEntity
  8
0
 48
50.0
100
AcDbBlockEnd
  0
BLOCK
  5
26EB5
330
26EAC
100
AcDbEntity
  8
0
 48
50.0
100
AcDbBlockBegin
  2
*D31
 70
     1
 10
0.0
 20
0.0
 30
0.0
  3
*D31
  1

  0
LINE
  5
27225
330
26EAC
100
AcDbEntity
  8
寸法
 62
     0
 48
50.0
370
    -2
100
AcDbLine
 10
6323.600000000006
 20
6962.139020432172
 30
0.0
 11
6323.600000000006
 21
7914.747837102421
 31
0.0
  0
LINE
  5
27226
330
26EAC
100
AcDbEntity
  8
寸法
 62
     0
 48
50.0
370
    -2
100
AcDbLine
 10
5373.600000000006
 20
6962.139020432172
 30
0.0
 11
5373.600000000006
 21
7914.747837102421
 31
0.0
  0
LINE
  5
27227
330
26EAC
100
AcDbEntity
  8
寸法
 62
     0
 48
50.0
370
    -2
100
AcDbLine
 10
6323.600000000006
 20
7854.747837102421
 30
0.0
 11
5373.600000000006
 21
7854.747837102421
 31
0.0
  0
INSERT
  5
27228
330
26EAC
100
AcDbEntity
  8
寸法
 62
     0
 48
50.0
370
    -2
100
AcDbBlockReference
  2
_DOTSMALL
 10
6323.600000000006
 20
7854.747837102421
 30
0.0
 41
100.0
 42
100.0
 43
100.0
  0
INSERT
  5
27229
330
26EAC
100
AcDbEntity
  8
寸法
 62
     0
 48
50.0
370
    -2
100
AcDbBlockReference
  2
_DOTSMALL
 10
5373.600000000006
 20
7854.747837102421
 30
0.0
 41
100.0
 42
100.0
 43
100.0
 50
180.0
  0
MTEXT
  5
2722A
330
26EAC
100
AcDbEntity
  8
寸法
 62
     7
 48
50.0
100
AcDbMText
 10
5848.600000000007
 20
7954.747837102421
 30
0.0
 40
120.0
 41
0.0
 71
     5
 72
     1
  1
\A1;950
  7
STYLE1
 73
     1
 44
1.0
1001
ACAD
1000
MTEXTBEGIN
1070
    73
1070
     1
1070
    44
1040
1.0
1070
    74
1070
     0
1000
MTEXTEND
  0
POINT
  5
2722B
330
26EAC
100
AcDbEntity
  8
DEFPOINTS
 62
     0
 48
50.0
100
AcDbPoint
 10
6323.600000000006
 20
6942.139020432172
 30
0.0
  0
POINT
  5
2722C
330
26EAC
100
AcDbEntity
  8
DEFPOINTS
 62
     0
 48
50.0
100
AcDbPoint
 10
5373.600000000006
 20
6942.139020432172
 30
0.0
  0
POINT
  5
2722D
330
26EAC
100
AcDbEntity
  8
DEFPOINTS
 62
     0
 48
50.0
100
AcDbPoint
 10
5373.600000000006
 20
7854.747837102421
 30
0.0
  0
ENDBLK
  5
26EB6
330
26EAC
100
AcDbEntity
  8
0
 48
50.0
100
AcDbBlockEnd
  0
BLOCK
  5
26EC1
330
26EB7
100
AcDbEntity
  8
0
 48
50.0
100
AcDbBlockBegin
  2
*D32
 70
     1
 10
0.0
 20
0.0
 30
0.0
  3
*D32
  1

  0
LINE
  5
2721C
330
26EB7
100
AcDbEntity
  8
寸法
 62
     0
 48
50.0
370
    -2
100
AcDbLine
 10
8223.600000000006
 20
6962.139020432172
 30
0.0
 11
8223.600000000006
 21
7914.747837102421
 31
0.0
  0
LINE
  5
2721D
330
26EB7
100
AcDbEntity
  8
寸法
 62
     0
 48
50.0
370
    -2
100
AcDbLine
 10
7273.600000000008
 20
6962.139020432172
 30
0.0
 11
7273.600000000008
 21
7914.747837102421
 31
0.0
  0
LINE
  5
2721E
330
26EB7
100
AcDbEntity
  8
寸法
 62
     0
 48
50.0
370
    -2
100
AcDbLine
 10
8223.600000000006
 20
7854.747837102421
 30
0.0
 11
7273.600000000008
 21
7854.747837102421
 31
0.0
  0
INSERT
  5
2721F
330
26EB7
100
AcDbEntity
  8
寸法
 62
     0
 48
50.0
370
    -2
100
AcDbBlockReference
  2
_DOTSMALL
 10
8223.600000000006
 20
7854.747837102421
 30
0.0
 41
100.0
 42
100.0
 43
100.0
  0
INSERT
  5
27220
330
26EB7
100
AcDbEntity
  8
寸法
 62
     0
 48
50.0
370
    -2
100
AcDbBlockReference
  2
_DOTSMALL
 10
7273.600000000008
 20
7854.747837102421
 30
0.0
 41
100.0
 42
100.0
 43
100.0
 50
180.0
  0
MTEXT
  5
27221
330
26EB7
100
AcDbEntity
  8
寸法
 62
     7
 48
50.0
100
AcDbMText
 10
7748.600000000006
 20
7954.747837102421
 30
0.0
 40
120.0
 41
0.0
 71
     5
 72
     1
  1
\A1;950
  7
STYLE1
 73
     1
 44
1.0
1001
ACAD
1000
MTEXTBEGIN
1070
    73
1070
     1
1070
    44
1040
1.0
1070
    74
1070
     0
1000
MTEXTEND
  0
POINT
  5
27222
330
26EB7
100
AcDbEntity
  8
DEFPOINTS
 62
     0
 48
50.0
100
AcDbPoint
 10
8223.600000000006
 20
6942.139020432172
 30
0.0
  0
POINT
  5
27223
330
26EB7
100
AcDbEntity
  8
DEFPOINTS
 62
     0
 48
50.0
100
AcDbPoint
 10
7273.600000000008
 20
6942.139020432172
 30
0.0
  0
POINT
  5
27224
330
26EB7
100
AcDbEntity
  8
DEFPOINTS
 62
     0
 48
50.0
100
AcDbPoint
 10
7273.600000000008
 20
7854.747837102421
 30
0.0
  0
ENDBLK
  5
26EC2
330
26EB7
100
AcDbEntity
  8
0
 48
50.0
100
AcDbBlockEnd
  0
BLOCK
  5
26ECD
330
26EC3
100
AcDbEntity
  8
0
 48
50.0
100
AcDbBlockBegin
  2
*D33
 70
     1
 10
0.0
 20
0.0
 30
0.0
  3
*D33
  1

  0
LINE
  5
27213
330
26EC3
100
AcDbEntity
  8
寸法
 62
     0
 48
50.0
370
    -2
100
AcDbLine
 10
12028.6
 20
7392.139020432172
 30
0.0
 11
12028.6
 21
7914.747837102421
 31
0.0
  0
LINE
  5
27214
330
26EC3
100
AcDbEntity
  8
寸法
 62
     0
 48
50.0
370
    -2
100
AcDbLine
 10
11073.60000000001
 20
6962.139020432172
 30
0.0
 11
11073.60000000001
 21
7914.747837102421
 31
0.0
  0
LINE
  5
27215
330
26EC3
100
AcDbEntity
  8
寸法
 62
     0
 48
50.0
370
    -2
100
AcDbLine
 10
12028.6
 20
7854.747837102421
 30
0.0
 11
11073.60000000001
 21
7854.747837102421
 31
0.0
  0
INSERT
  5
27216
330
26EC3
100
AcDbEntity
  8
寸法
 62
     0
 48
50.0
370
    -2
100
AcDbBlockReference
  2
_DOTSMALL
 10
12028.6
 20
7854.747837102421
 30
0.0
 41
100.0
 42
100.0
 43
100.0
  0
INSERT
  5
27217
330
26EC3
100
AcDbEntity
  8
寸法
 62
     0
 48
50.0
370
    -2
100
AcDbBlockReference
  2
_DOTSMALL
 10
11073.60000000001
 20
7854.747837102421
 30
0.0
 41
100.0
 42
100.0
 43
100.0
 50
180.0
  0
MTEXT
  5
27218
330
26EC3
100
AcDbEntity
  8
寸法
 62
     7
 48
50.0
100
AcDbMText
 10
11551.1
 20
7954.747837102421
 30
0.0
 40
120.0
 41
0.0
 71
     5
 72
     1
  1
\A1;955
  7
STYLE1
 73
     1
 44
1.0
1001
ACAD
1000
MTEXTBEGIN
1070
    73
1070
     1
1070
    44
1040
1.0
1070
    74
1070
     0
1000
MTEXTEND
  0
POINT
  5
27219
330
26EC3
100
AcDbEntity
  8
DEFPOINTS
 62
     0
 48
50.0
100
AcDbPoint
 10
12028.6
 20
7372.139020432172
 30
0.0
  0
POINT
  5
2721A
330
26EC3
100
AcDbEntity
  8
DEFPOINTS
 62
     0
 48
50.0
100
AcDbPoint
 10
11073.60000000001
 20
6942.139020432172
 30
0.0
  0
POINT
  5
2721B
330
26EC3
100
AcDbEntity
  8
DEFPOINTS
 62
     0
 48
50.0
100
AcDbPoint
 10
11073.60000000001
 20
7854.747837102421
 30
0.0
  0
ENDBLK
  5
26ECE
330
26EC3
100
AcDbEntity
  8
0
 48
50.0
100
AcDbBlockEnd
  0
BLOCK
  5
26ED9
330
26ECF
100
AcDbEntity
  8
0
 48
50.0
100
AcDbBlockBegin
  2
*D34
 70
     1
 10
0.0
 20
0.0
 30
0.0
  3
*D34
  1

  0
LINE
  5
2720A
330
26ECF
100
AcDbEntity
  8
寸法
 62
     0
 48
50.0
370
    -2
100
AcDbLine
 10
11905.6
 20
7319.139020432172
 30
0.0
 11
11905.6
 21
8158.405478526082
 31
0.0
  0
LINE
  5
2720B
330
26ECF
100
AcDbEntity
  8
寸法
 62
     0
 48
50.0
370
    -2
100
AcDbLine
 10
9055.599999999998
 20
7319.139020432172
 30
0.0
 11
9055.599999999998
 21
8158.405478526082
 31
0.0
  0
LINE
  5
2720C
330
26ECF
100
AcDbEntity
  8
寸法
 62
     0
 48
50.0
370
    -2
100
AcDbLine
 10
11905.6
 20
8098.405478526084
 30
0.0
 11
9055.599999999998
 21
8098.405478526084
 31
0.0
  0
INSERT
  5
2720D
330
26ECF
100
AcDbEntity
  8
寸法
 62
     0
 48
50.0
370
    -2
100
AcDbBlockReference
  2
_DOTSMALL
 10
11905.6
 20
8098.405478526084
 30
0.0
 41
100.0
 42
100.0
 43
100.0
  0
INSERT
  5
2720E
330
26ECF
100
AcDbEntity
  8
寸法
 62
     0
 48
50.0
370
    -2
100
AcDbBlockReference
  2
_DOTSMALL
 10
9055.599999999998
 20
8098.405478526084
 30
0.0
 41
100.0
 42
100.0
 43
100.0
 50
180.0
  0
MTEXT
  5
2720F
330
26ECF
100
AcDbEntity
  8
寸法
 62
     7
 48
50.0
100
AcDbMText
 10
10480.6
 20
8198.417289549706
 30
0.0
 40
120.0
 41
0.0
 71
     5
 72
     1
  1
\A1;2850
  7
STYLE1
 73
     1
 44
1.0
1001
ACAD
1000
MTEXTBEGIN
1070
    73
1070
     1
1070
    44
1040
1.0
1070
    74
1070
     0
1000
MTEXTEND
  0
POINT
  5
27210
330
26ECF
100
AcDbEntity
  8
DEFPOINTS
 62
     0
 48
50.0
100
AcDbPoint
 10
11905.6
 20
7299.139020432173
 30
0.0
  0
POINT
  5
27211
330
26ECF
100
AcDbEntity
  8
DEFPOINTS
 62
     0
 48
50.0
100
AcDbPoint
 10
9055.599999999998
 20
7299.139020432173
 30
0.0
  0
POINT
  5
27212
330
26ECF
100
AcDbEntity
  8
DEFPOINTS
 62
     0
 48
50.0
100
AcDbPoint
 10
9055.599999999998
 20
8098.405478526084
 30
0.0
  0
ENDBLK
  5
26EDA
330
26ECF
100
AcDbEntity
  8
0
 48
50.0
100
AcDbBlockEnd
  0
BLOCK
  5
26EE5
330
26EDB
100
AcDbEntity
  8
0
 48
50.0
100
AcDbBlockBegin
  2
*D35
 70
     1
 10
0.0
 20
0.0
 30
0.0
  3
*D35
  1

  0
LINE
  5
27201
330
26EDB
100
AcDbEntity
  8
寸法
 62
     0
 48
50.0
370
    -2
100
AcDbLine
 10
10123.60000000001
 20
6962.139020432172
 30
0.0
 11
10123.60000000001
 21
7914.747837102421
 31
0.0
  0
LINE
  5
27202
330
26EDB
100
AcDbEntity
  8
寸法
 62
     0
 48
50.0
370
    -2
100
AcDbLine
 10
9173.600000000005
 20
6962.139020432172
 30
0.0
 11
9173.600000000005
 21
7914.747837102421
 31
0.0
  0
LINE
  5
27203
330
26EDB
100
AcDbEntity
  8
寸法
 62
     0
 48
50.0
370
    -2
100
AcDbLine
 10
10123.60000000001
 20
7854.747837102421
 30
0.0
 11
9173.600000000005
 21
7854.747837102421
 31
0.0
  0
INSERT
  5
27204
330
26EDB
100
AcDbEntity
  8
寸法
 62
     0
 48
50.0
370
    -2
100
AcDbBlockReference
  2
_DOTSMALL
 10
10123.60000000001
 20
7854.747837102421
 30
0.0
 41
100.0
 42
100.0
 43
100.0
  0
INSERT
  5
27205
330
26EDB
100
AcDbEntity
  8
寸法
 62
     0
 48
50.0
370
    -2
100
AcDbBlockReference
  2
_DOTSMALL
 10
9173.600000000005
 20
7854.747837102421
 30
0.0
 41
100.0
 42
100.0
 43
100.0
 50
180.0
  0
MTEXT
  5
27206
330
26EDB
100
AcDbEntity
  8
寸法
 62
     7
 48
50.0
100
AcDbMText
 10
9648.600000000008
 20
7954.747837102421
 30
0.0
 40
120.0
 41
0.0
 71
     5
 72
     1
  1
\A1;950
  7
STYLE1
 73
     1
 44
1.0
1001
ACAD
1000
MTEXTBEGIN
1070
    73
1070
     1
1070
    44
1040
1.0
1070
    74
1070
     0
1000
MTEXTEND
  0
POINT
  5
27207
330
26EDB
100
AcDbEntity
  8
DEFPOINTS
 62
     0
 48
50.0
100
AcDbPoint
 10
10123.60000000001
 20
6942.139020432172
 30
0.0
  0
POINT
  5
27208
330
26EDB
100
AcDbEntity
  8
DEFPOINTS
 62
     0
 48
50.0
100
AcDbPoint
 10
9173.600000000005
 20
6942.139020432172
 30
0.0
  0
POINT
  5
27209
330
26EDB
100
AcDbEntity
  8
DEFPOINTS
 62
     0
 48
50.0
100
AcDbPoint
 10
9173.600000000005
 20
7854.747837102421
 30
0.0
  0
ENDBLK
  5
26EE6
330
26EDB
100
AcDbEntity
  8
0
 48
50.0
100
AcDbBlockEnd
  0
BLOCK
  5
26EF1
330
26EE7
100
AcDbEntity
  8
0
 48
50.0
100
AcDbBlockBegin
  2
*D36
 70
     1
 10
0.0
 20
0.0
 30
0.0
  3
*D36
  1

  0
LINE
  5
271F8
330
26EE7
100
AcDbEntity
  8
寸法
 62
     0
 48
50.0
370
    -2
100
AcDbLine
 10
11073.60000000001
 20
6962.139020432172
 30
0.0
 11
11073.60000000001
 21
7914.747837102421
 31
0.0
  0
LINE
  5
271F9
330
26EE7
100
AcDbEntity
  8
寸法
 62
     0
 48
50.0
370
    -2
100
AcDbLine
 10
10123.60000000001
 20
6962.139020432172
 30
0.0
 11
10123.60000000001
 21
7914.747837102421
 31
0.0
  0
LINE
  5
271FA
330
26EE7
100
AcDbEntity
  8
寸法
 62
     0
 48
50.0
370
    -2
100
AcDbLine
 10
11073.60000000001
 20
7854.747837102421
 30
0.0
 11
10123.60000000001
 21
7854.747837102421
 31
0.0
  0
INSERT
  5
271FB
330
26EE7
100
AcDbEntity
  8
寸法
 62
     0
 48
50.0
370
    -2
100
AcDbBlockReference
  2
_DOTSMALL
 10
11073.60000000001
 20
7854.747837102421
 30
0.0
 41
100.0
 42
100.0
 43
100.0
  0
INSERT
  5
271FC
330
26EE7
100
AcDbEntity
  8
寸法
 62
     0
 48
50.0
370
    -2
100
AcDbBlockReference
  2
_DOTSMALL
 10
10123.60000000001
 20
7854.747837102421
 30
0.0
 41
100.0
 42
100.0
 43
100.0
 50
180.0
  0
MTEXT
  5
271FD
330
26EE7
100
AcDbEntity
  8
寸法
 62
     7
 48
50.0
100
AcDbMText
 10
10598.60000000001
 20
7954.747837102421
 30
0.0
 40
120.0
 41
0.0
 71
     5
 72
     1
  1
\A1;950
  7
STYLE1
 73
     1
 44
1.0
1001
ACAD
1000
MTEXTBEGIN
1070
    73
1070
     1
1070
    44
1040
1.0
1070
    74
1070
     0
1000
MTEXTEND
  0
POINT
  5
271FE
330
26EE7
100
AcDbEntity
  8
DEFPOINTS
 62
     0
 48
50.0
100
AcDbPoint
 10
11073.60000000001
 20
6942.139020432172
 30
0.0
  0
POINT
  5
271FF
330
26EE7
100
AcDbEntity
  8
DEFPOINTS
 62
     0
 48
50.0
100
AcDbPoint
 10
10123.60000000001
 20
6942.139020432172
 30
0.0
  0
POINT
  5
27200
330
26EE7
100
AcDbEntity
  8
DEFPOINTS
 62
     0
 48
50.0
100
AcDbPoint
 10
10123.60000000001
 20
7854.747837102421
 30
0.0
  0
ENDBLK
  5
26EF2
330
26EE7
100
AcDbEntity
  8
0
 48
50.0
100
AcDbBlockEnd
  0
BLOCK
  5
26EFE
330
26EF3
100
AcDbEntity
  8
0
 48
50.0
100
AcDbBlockBegin
  2
*D37
 70
     1
 10
0.0
 20
0.0
 30
0.0
  3
*D37
  1

  0
LINE
  5
271EE
330
26EF3
100
AcDbEntity
  8
寸法
 62
     0
 48
50.0
370
    -2
100
AcDbLine
 10
12028.6
 20
7392.139020432172
 30
0.0
 11
12028.6
 21
8158.405478526082
 31
0.0
  0
LINE
  5
271EF
330
26EF3
100
AcDbEntity
  8
寸法
 62
     0
 48
50.0
370
    -2
100
AcDbLine
 10
11905.6
 20
7319.139020432172
 30
0.0
 11
11905.6
 21
8158.405478526082
 31
0.0
  0
LINE
  5
271F0
330
26EF3
100
AcDbEntity
  8
寸法
 62
     0
 48
50.0
370
    -2
100
AcDbLine
 10
11905.6
 20
8098.405478526084
 30
0.0
 11
12028.6
 21
8098.405478526084
 31
0.0
  0
LINE
  5
271F1
330
26EF3
100
AcDbEntity
  8
寸法
 62
     0
 48
50.0
370
    -2
100
AcDbLine
 10
12028.6
 20
8098.405478526084
 30
0.0
 11
12440.19188309204
 21
8098.405478526084
 31
0.0
  0
INSERT
  5
271F2
330
26EF3
100
AcDbEntity
  8
寸法
 62
     0
 48
50.0
370
    -2
100
AcDbBlockReference
  2
_DOTSMALL
 10
11905.6
 20
8098.405478526084
 30
0.0
 41
100.0
 42
100.0
 43
100.0
 50
180.0
  0
INSERT
  5
271F3
330
26EF3
100
AcDbEntity
  8
寸法
 62
     0
 48
50.0
370
    -2
100
AcDbBlockReference
  2
_DOTSMALL
 10
12028.6
 20
8098.405478526084
 30
0.0
 41
100.0
 42
100.0
 43
100.0
  0
MTEXT
  5
271F4
330
26EF3
100
AcDbEntity
  8
寸法
 62
     7
 48
50.0
100
AcDbMText
 10
12301.7066017178
 20
8198.417289549706
 30
0.0
 40
120.0
 41
0.0
 71
     5
 72
     1
  1
\A1;123
  7
STYLE1
 73
     1
 44
1.0
1001
ACAD
1000
MTEXTBEGIN
1070
    73
1070
     1
1070
    44
1040
1.0
1070
    74
1070
     0
1000
MTEXTEND
  0
POINT
  5
271F5
330
26EF3
100
AcDbEntity
  8
DEFPOINTS
 62
     0
 48
50.0
100
AcDbPoint
 10
12028.6
 20
7372.139020432172
 30
0.0
  0
POINT
  5
271F6
330
26EF3
100
AcDbEntity
  8
DEFPOINTS
 62
     0
 48
50.0
100
AcDbPoint
 10
11905.6
 20
7299.139020432173
 30
0.0
  0
POINT
  5
271F7
330
26EF3
100
AcDbEntity
  8
DEFPOINTS
 62
     0
 48
50.0
100
AcDbPoint
 10
11905.6
 20
8098.405478526084
 30
0.0
  0
ENDBLK
  5
26EFF
330
26EF3
100
AcDbEntity
  8
0
 48
50.0
100
AcDbBlockEnd
  0
BLOCK
  5
26F24
330
26F1A
100
AcDbEntity
  8
0
 48
50.0
100
AcDbBlockBegin
  2
*D38
 70
     1
 10
0.0
 20
0.0
 30
0.0
  3
*D38
  1

  0
LINE
  5
2726F
330
26F1A
100
AcDbEntity
  8
寸法
 62
     0
 48
50.0
370
    -2
100
AcDbLine
 10
9173.600000000005
 20
6962.139020432172
 30
0.0
 11
9173.600000000005
 21
7914.747837102421
 31
0.0
  0
LINE
  5
27270
330
26F1A
100
AcDbEntity
  8
寸法
 62
     0
 48
50.0
370
    -2
100
AcDbLine
 10
8223.600000000006
 20
6962.139020432172
 30
0.0
 11
8223.600000000006
 21
7914.747837102421
 31
0.0
  0
LINE
  5
27271
330
26F1A
100
AcDbEntity
  8
寸法
 62
     0
 48
50.0
370
    -2
100
AcDbLine
 10
9173.600000000005
 20
7854.747837102421
 30
0.0
 11
8223.600000000006
 21
7854.747837102421
 31
0.0
  0
INSERT
  5
27272
330
26F1A
100
AcDbEntity
  8
寸法
 62
     0
 48
50.0
370
    -2
100
AcDbBlockReference
  2
_DOTSMALL
 10
9173.600000000005
 20
7854.747837102421
 30
0.0
 41
100.0
 42
100.0
 43
100.0
  0
INSERT
  5
27273
330
26F1A
100
AcDbEntity
  8
寸法
 62
     0
 48
50.0
370
    -2
100
AcDbBlockReference
  2
_DOTSMALL
 10
8223.600000000006
 20
7854.747837102421
 30
0.0
 41
100.0
 42
100.0
 43
100.0
 50
180.0
  0
MTEXT
  5
27274
330
26F1A
100
AcDbEntity
  8
寸法
 62
     7
 48
50.0
100
AcDbMText
 10
8698.600000000006
 20
7954.747837102421
 30
0.0
 40
120.0
 41
0.0
 71
     5
 72
     1
  1
\A1;950
  7
STYLE1
 73
     1
 44
1.0
1001
ACAD
1000
MTEXTBEGIN
1070
    73
1070
     1
1070
    44
1040
1.0
1070
    74
1070
     0
1000
MTEXTEND
  0
POINT
  5
27275
330
26F1A
100
AcDbEntity
  8
DEFPOINTS
 62
     0
 48
50.0
100
AcDbPoint
 10
9173.600000000005
 20
6942.139020432172
 30
0.0
  0
POINT
  5
27276
330
26F1A
100
AcDbEntity
  8
DEFPOINTS
 62
     0
 48
50.0
100
AcDbPoint
 10
8223.600000000006
 20
6942.139020432172
 30
0.0
  0
POINT
  5
27277
330
26F1A
100
AcDbEntity
  8
DEFPOINTS
 62
     0
 48
50.0
100
AcDbPoint
 10
8223.600000000006
 20
7854.747837102421
 30
0.0
  0
ENDBLK
  5
26F25
330
26F1A
100
AcDbEntity
  8
0
 48
50.0
100
AcDbBlockEnd
  0
BLOCK
  5
26F30
330
26F26
100
AcDbEntity
  8
0
 48
50.0
100
AcDbBlockBegin
  2
*D39
 70
     1
 10
0.0
 20
0.0
 30
0.0
  3
*D39
  1

  0
LINE
  5
27266
330
26F26
100
AcDbEntity
  8
寸法
 62
     0
 48
50.0
370
    -2
100
AcDbLine
 10
9055.599999999998
 20
7319.139020432172
 30
0.0
 11
9055.599999999998
 21
8158.405478526082
 31
0.0
  0
LINE
  5
27267
330
26F26
100
AcDbEntity
  8
寸法
 62
     0
 48
50.0
370
    -2
100
AcDbLine
 10
7155.599999999999
 20
7319.139020432172
 30
0.0
 11
7155.599999999999
 21
8158.405478526082
 31
0.0
  0
LINE
  5
27268
330
26F26
100
AcDbEntity
  8
寸法
 62
     0
 48
50.0
370
    -2
100
AcDbLine
 10
9055.599999999998
 20
8098.405478526084
 30
0.0
 11
7155.599999999999
 21
8098.405478526084
 31
0.0
  0
INSERT
  5
27269
330
26F26
100
AcDbEntity
  8
寸法
 62
     0
 48
50.0
370
    -2
100
AcDbBlockReference
  2
_DOTSMALL
 10
9055.599999999998
 20
8098.405478526084
 30
0.0
 41
100.0
 42
100.0
 43
100.0
  0
INSERT
  5
2726A
330
26F26
100
AcDbEntity
  8
寸法
 62
     0
 48
50.0
370
    -2
100
AcDbBlockReference
  2
_DOTSMALL
 10
7155.599999999999
 20
8098.405478526084
 30
0.0
 41
100.0
 42
100.0
 43
100.0
 50
180.0
  0
MTEXT
  5
2726B
330
26F26
100
AcDbEntity
  8
寸法
 62
     7
 48
50.0
100
AcDbMText
 10
8105.599999999999
 20
8198.405478526083
 30
0.0
 40
120.0
 41
0.0
 71
     5
 72
     1
  1
\A1;1900
  7
STYLE1
 73
     1
 44
1.0
1001
ACAD
1000
MTEXTBEGIN
1070
    73
1070
     1
1070
    44
1040
1.0
1070
    74
1070
     0
1000
MTEXTEND
  0
POINT
  5
2726C
330
26F26
100
AcDbEntity
  8
DEFPOINTS
 62
     0
 48
50.0
100
AcDbPoint
 10
9055.599999999998
 20
7299.139020432173
 30
0.0
  0
POINT
  5
2726D
330
26F26
100
AcDbEntity
  8
DEFPOINTS
 62
     0
 48
50.0
100
AcDbPoint
 10
7155.599999999999
 20
7299.139020432173
 30
0.0
  0
POINT
  5
2726E
330
26F26
100
AcDbEntity
  8
DEFPOINTS
 62
     0
 48
50.0
100
AcDbPoint
 10
7155.599999999999
 20
8098.405478526084
 30
0.0
  0
ENDBLK
  5
26F31
330
26F26
100
AcDbEntity
  8
0
 48
50.0
100
AcDbBlockEnd
  0
BLOCK
  5
26F3C
330
26F32
100
AcDbEntity
  8
0
 48
50.0
100
AcDbBlockBegin
  2
*D40
 70
     1
 10
0.0
 20
0.0
 30
0.0
  3
*D40
  1

  0
LINE
  5
2725D
330
26F32
100
AcDbEntity
  8
寸法
 62
     0
 48
50.0
370
    -2
100
AcDbLine
 10
4418.599999999999
 20
7392.139020432172
 30
0.0
 11
4418.599999999999
 21
8390.359342491091
 31
0.0
  0
LINE
  5
2725E
330
26F32
100
AcDbEntity
  8
寸法
 62
     0
 48
50.0
370
    -2
100
AcDbLine
 10
12028.6
 20
7392.139020432172
 30
0.0
 11
12028.6
 21
8390.359342491091
 31
0.0
  0
LINE
  5
2725F
330
26F32
100
AcDbEntity
  8
寸法
 62
     0
 48
50.0
370
    -2
100
AcDbLine
 10
4418.599999999999
 20
8330.359342491091
 30
0.0
 11
12028.6
 21
8330.359342491091
 31
0.0
  0
INSERT
  5
27260
330
26F32
100
AcDbEntity
  8
寸法
 62
     0
 48
50.0
370
    -2
100
AcDbBlockReference
  2
_DOTSMALL
 10
4418.599999999999
 20
8330.359342491091
 30
0.0
 41
100.0
 42
100.0
 43
100.0
 50
180.0
  0
INSERT
  5
27261
330
26F32
100
AcDbEntity
  8
寸法
 62
     0
 48
50.0
370
    -2
100
AcDbBlockReference
  2
_DOTSMALL
 10
12028.6
 20
8330.359342491091
 30
0.0
 41
100.0
 42
100.0
 43
100.0
  0
MTEXT
  5
27262
330
26F32
100
AcDbEntity
  8
寸法
 62
     7
 48
50.0
100
AcDbMText
 10
8223.600000000001
 20
8430.35934249109
 30
0.0
 40
120.0
 41
0.0
 71
     5
 72
     1
  1
\A1;7610
  7
STYLE1
 73
     1
 44
1.0
1001
ACAD
1000
MTEXTBEGIN
1070
    73
1070
     1
1070
    44
1040
1.0
1070
    74
1070
     0
1000
MTEXTEND
  0
POINT
  5
27263
330
26F32
100
AcDbEntity
  8
DEFPOINTS
 62
     0
 48
50.0
100
AcDbPoint
 10
4418.599999999999
 20
7372.139020432172
 30
0.0
  0
POINT
  5
27264
330
26F32
100
AcDbEntity
  8
DEFPOINTS
 62
     0
 48
50.0
100
AcDbPoint
 10
12028.6
 20
7372.139020432172
 30
0.0
  0
POINT
  5
27265
330
26F32
100
AcDbEntity
  8
DEFPOINTS
 62
     0
 48
50.0
100
AcDbPoint
 10
12028.6
 20
8330.359342491091
 30
0.0
  0
ENDBLK
  5
26F3D
330
26F32
100
AcDbEntity
  8
0
 48
50.0
100
AcDbBlockEnd
  0
BLOCK
  5
26F49
330
26F3E
100
AcDbEntity
  8
0
 48
50.0
100
AcDbBlockBegin
  2
*D41
 70
     1
 10
0.0
 20
0.0
 30
0.0
  3
*D41
  1

  0
LINE
  5
272A7
330
26F3E
100
AcDbEntity
  8
寸法
 62
     0
 48
50.0
370
    -2
100
AcDbLine
 10
4972.765475140899
 20
6412.139020432184
 30
0.0
 11
4841.285990614301
 21
6412.139020432184
 31
0.0
  0
LINE
  5
272A8
330
26F3E
100
AcDbEntity
  8
寸法
 62
     0
 48
50.0
370
    -2
100
AcDbLine
 10
5303.600000000006
 20
6892.139020432172
 30
0.0
 11
4841.285990614301
 21
6892.139020432172
 31
0.0
  0
LINE
  5
272A9
330
26F3E
100
AcDbEntity
  8
寸法
 62
     0
 48
50.0
370
    -2
100
AcDbLine
 10
4901.285990614301
 20
6892.139020432172
 30
0.0
 11
4901.285990614301
 21
6412.139020432184
 31
0.0
  0
LINE
  5
272AA
330
26F3E
100
AcDbEntity
  8
寸法
 62
     0
 48
50.0
370
    -2
100
AcDbLine
 10
4901.285990614301
 20
6412.139020432184
 30
0.0
 11
4901.285990614301
 21
5965.532721219584
 31
0.0
  0
INSERT
  5
272AB
330
26F3E
100
AcDbEntity
  8
寸法
 62
     0
 48
50.0
370
    -2
100
AcDbBlockReference
  2
_DOTSMALL
 10
4901.285990614301
 20
6892.139020432172
 30
0.0
 41
100.0
 42
100.0
 43
100.0
 50
90.0
  0
INSERT
  5
272AC
330
26F3E
100
AcDbEntity
  8
寸法
 62
     0
 48
50.0
370
    -2
100
AcDbBlockReference
  2
_DOTSMALL
 10
4901.285990614301
 20
6412.139020432184
 30
0.0
 41
100.0
 42
100.0
 43
100.0
 50
270.0
  0
MTEXT
  5
272AD
330
26F3E
100
AcDbEntity
  8
寸法
 62
     7
 48
50.0
100
AcDbMText
 10
4801.285990614299
 20
6119.579965314073
 30
0.0
 40
120.0
 41
0.0
 71
     5
 72
     1
  1
\A1;480
  7
STYLE1
 11
0.0000000000000001
 21
1.0
 31
0.0
 73
     1
 44
1.0
1001
ACAD
1000
MTEXTBEGIN
1070
    73
1070
     1
1070
    44
1040
1.0
1070
    74
1070
     0
1000
MTEXTEND
  0
POINT
  5
272AE
330
26F3E
100
AcDbEntity
  8
DEFPOINTS
 62
     0
 48
50.0
100
AcDbPoint
 10
4992.7654751409
 20
6412.139020432184
 30
0.0
  0
POINT
  5
272AF
330
26F3E
100
AcDbEntity
  8
DEFPOINTS
 62
     0
 48
50.0
100
AcDbPoint
 10
5323.600000000006
 20
6892.139020432172
 30
0.0
  0
POINT
  5
272B0
330
26F3E
100
AcDbEntity
  8
DEFPOINTS
 62
     0
 48
50.0
100
AcDbPoint
 10
4901.285990614301
 20
6892.139020432172
 30
0.0
  0
ENDBLK
  5
26F4A
330
26F3E
100
AcDbEntity
  8
0
 48
50.0
100
AcDbBlockEnd
  0
BLOCK
  5
26F55
330
26F4B
100
AcDbEntity
  8
0
 48
50.0
100
AcDbBlockBegin
  2
*D42
 70
     1
 10
0.0
 20
0.0
 30
0.0
  3
*D42
  1

  0
LINE
  5
2729E
330
26F4B
100
AcDbEntity
  8
寸法
 62
     0
 48
50.0
370
    -2
100
AcDbLine
 10
4398.6
 20
7372.139020432172
 30
0.0
 11
3483.721909610674
 21
7372.139020432172
 31
0.0
  0
LINE
  5
2729F
330
26F4B
100
AcDbEntity
  8
寸法
 62
     0
 48
50.0
370
    -2
100
AcDbLine
 10
4398.6
 20
6412.139020432173
 30
0.0
 11
3483.721909610673
 21
6412.139020432173
 31
0.0
  0
LINE
  5
272A0
330
26F4B
100
AcDbEntity
  8
寸法
 62
     0
 48
50.0
370
    -2
100
AcDbLine
 10
3543.721909610673
 20
7372.139020432172
 30
0.0
 11
3543.721909610673
 21
6412.139020432173
 31
0.0
  0
INSERT
  5
272A1
330
26F4B
100
AcDbEntity
  8
寸法
 62
     0
 48
50.0
370
    -2
100
AcDbBlockReference
  2
_DOTSMALL
 10
3543.721909610673
 20
7372.139020432172
 30
0.0
 41
100.0
 42
100.0
 43
100.0
 50
90.0
  0
INSERT
  5
272A2
330
26F4B
100
AcDbEntity
  8
寸法
 62
     0
 48
50.0
370
    -2
100
AcDbBlockReference
  2
_DOTSMALL
 10
3543.721909610673
 20
6412.139020432173
 30
0.0
 41
100.0
 42
100.0
 43
100.0
 50
270.0
  0
MTEXT
  5
272A3
330
26F4B
100
AcDbEntity
  8
寸法
 62
     7
 48
50.0
100
AcDbMText
 10
3443.721909610673
 20
6929.639020432173
 30
0.0
 40
120.0
 41
0.0
 71
     5
 72
     1
  1
\A1;960
  7
STYLE1
 11
0.0000000000000001
 21
1.0
 31
0.0
 73
     1
 44
1.0
1001
ACAD
1000
MTEXTBEGIN
1070
    73
1070
     1
1070
    44
1040
1.0
1070
    74
1070
     0
1000
MTEXTEND
  0
POINT
  5
272A4
330
26F4B
100
AcDbEntity
  8
DEFPOINTS
 62
     0
 48
50.0
100
AcDbPoint
 10
4418.599999999999
 20
7372.139020432172
 30
0.0
  0
POINT
  5
272A5
330
26F4B
100
AcDbEntity
  8
DEFPOINTS
 62
     0
 48
50.0
100
AcDbPoint
 10
4418.599999999999
 20
6412.139020432173
 30
0.0
  0
POINT
  5
272A6
330
26F4B
100
AcDbEntity
  8
DEFPOINTS
 62
     0
 48
50.0
100
AcDbPoint
 10
3543.721909610673
 20
6412.139020432173
 30
0.0
  0
ENDBLK
  5
26F56
330
26F4B
100
AcDbEntity
  8
0
 48
50.0
100
AcDbBlockEnd
  0
BLOCK
  5
26F61
330
26F57
100
AcDbEntity
  8
0
 48
50.0
100
AcDbBlockBegin
  2
*D43
 70
     1
 10
0.0
 20
0.0
 30
0.0
  3
*D43
  1

  0
LINE
  5
2731F
330
26F57
100
AcDbEntity
  8
寸法
 62
     0
 48
50.0
370
    -2
100
AcDbLine
 10
4471.599999999999
 20
7249.139020432173
 30
0.0
 11
3735.665006330072
 21
7249.139020432173
 31
0.0
  0
LINE
  5
27320
330
26F57
100
AcDbEntity
  8
寸法
 62
     0
 48
50.0
370
    -2
100
AcDbLine
 10
4471.600000000006
 20
6610.139020432176
 30
0.0
 11
3735.665006330072
 21
6610.139020432176
 31
0.0
  0
LINE
  5
27321
330
26F57
100
AcDbEntity
  8
寸法
 62
     0
 48
50.0
370
    -2
100
AcDbLine
 10
3795.665006330072
 20
7249.139020432173
 30
0.0
 11
3795.665006330072
 21
6610.139020432176
 31
0.0
  0
INSERT
  5
27322
330
26F57
100
AcDbEntity
  8
寸法
 62
     0
 48
50.0
370
    -2
100
AcDbBlockReference
  2
_DOTSMALL
 10
3795.665006330072
 20
7249.139020432173
 30
0.0
 41
100.0
 42
100.0
 43
100.0
 50
90.0
  0
INSERT
  5
27323
330
26F57
100
AcDbEntity
  8
寸法
 62
     0
 48
50.0
370
    -2
100
AcDbBlockReference
  2
_DOTSMALL
 10
3795.665006330072
 20
6610.139020432176
 30
0.0
 41
100.0
 42
100.0
 43
100.0
 50
270.0
  0
MTEXT
  5
27324
330
26F57
100
AcDbEntity
  8
寸法
 62
     7
 48
50.0
100
AcDbMText
 10
3695.665006330071
 20
6929.639020432173
 30
0.0
 40
120.0
 41
0.0
 71
     5
 72
     1
  1
\A1;639
  7
STYLE1
 11
0.0000000000000001
 21
1.0
 31
0.0
 73
     1
 44
1.0
1001
ACAD
1000
MTEXTBEGIN
1070
    73
1070
     1
1070
    44
1040
1.0
1070
    74
1070
     0
1000
MTEXTEND
  0
POINT
  5
27325
330
26F57
100
AcDbEntity
  8
DEFPOINTS
 62
     0
 48
50.0
100
AcDbPoint
 10
4491.6
 20
7249.139020432173
 30
0.0
  0
POINT
  5
27326
330
26F57
100
AcDbEntity
  8
DEFPOINTS
 62
     0
 48
50.0
100
AcDbPoint
 10
4491.600000000007
 20
6610.139020432176
 30
0.0
  0
POINT
  5
27327
330
26F57
100
AcDbEntity
  8
DEFPOINTS
 62
     0
 48
50.0
100
AcDbPoint
 10
3795.665006330072
 20
6610.139020432176
 30
0.0
  0
ENDBLK
  5
26F62
330
26F57
100
AcDbEntity
  8
0
 48
50.0
100
AcDbBlockEnd
  0
BLOCK
  5
26F7A
330
26F6F
100
AcDbEntity
  8
0
 48
50.0
100
AcDbBlockBegin
  2
*D44
 70
     1
 10
0.0
 20
0.0
 30
0.0
  3
*D44
  1

  0
LINE
  5
27315
330
26F6F
100
AcDbEntity
  8
寸法
 62
     0
 48
50.0
370
    -2
100
AcDbLine
 10
4471.600000000006
 20
6610.139020432176
 30
0.0
 11
3735.665006330072
 21
6610.139020432176
 31
0.0
  0
LINE
  5
27316
330
26F6F
100
AcDbEntity
  8
寸法
 62
     0
 48
50.0
370
    -2
100
AcDbLine
 10
4398.6
 20
6412.139020432173
 30
0.0
 11
3735.665006330072
 21
6412.139020432173
 31
0.0
  0
LINE
  5
27317
330
26F6F
100
AcDbEntity
  8
寸法
 62
     0
 48
50.0
370
    -2
100
AcDbLine
 10
3795.665006330072
 20
6610.139020432176
 30
0.0
 11
3795.665006330072
 21
6412.139020432173
 31
0.0
  0
LINE
  5
27318
330
26F6F
100
AcDbEntity
  8
寸法
 62
     0
 48
50.0
370
    -2
100
AcDbLine
 10
3795.665006330072
 20
6412.139020432173
 30
0.0
 11
3795.665006330072
 21
5940.398411759923
 31
0.0
  0
INSERT
  5
27319
330
26F6F
100
AcDbEntity
  8
寸法
 62
     0
 48
50.0
370
    -2
100
AcDbBlockReference
  2
_DOTSMALL
 10
3795.665006330072
 20
6610.139020432176
 30
0.0
 41
100.0
 42
100.0
 43
100.0
 50
90.0
  0
INSERT
  5
2731A
330
26F6F
100
AcDbEntity
  8
寸法
 62
     0
 48
50.0
370
    -2
100
AcDbBlockReference
  2
_DOTSMALL
 10
3795.665006330072
 20
6412.139020432173
 30
0.0
 41
100.0
 42
100.0
 43
100.0
 50
270.0
  0
MTEXT
  5
2731B
330
26F6F
100
AcDbEntity
  8
寸法
 62
     7
 48
50.0
100
AcDbMText
 10
3695.665006330071
 20
6076.60807158958
 30
0.0
 40
120.0
 41
0.0
 71
     5
 72
     1
  1
\A1;198
  7
STYLE1
 11
0.0000000000000001
 21
1.0
 31
0.0
 73
     1
 44
1.0
1001
ACAD
1000
MTEXTBEGIN
1070
    73
1070
     1
1070
    44
1040
1.0
1070
    74
1070
     0
1000
MTEXTEND
  0
POINT
  5
2731C
330
26F6F
100
AcDbEntity
  8
DEFPOINTS
 62
     0
 48
50.0
100
AcDbPoint
 10
4491.600000000007
 20
6610.139020432176
 30
0.0
  0
POINT
  5
2731D
330
26F6F
100
AcDbEntity
  8
DEFPOINTS
 62
     0
 48
50.0
100
AcDbPoint
 10
4418.599999999999
 20
6412.139020432173
 30
0.0
  0
POINT
  5
2731E
330
26F6F
100
AcDbEntity
  8
DEFPOINTS
 62
     0
 48
50.0
100
AcDbPoint
 10
3795.665006330072
 20
6412.139020432173
 30
0.0
  0
ENDBLK
  5
26F7B
330
26F6F
100
AcDbEntity
  8
0
 48
50.0
100
AcDbBlockEnd
  0
BLOCK
  5
26F86
330
26F7C
100
AcDbEntity
  8
0
 48
50.0
100
AcDbBlockBegin
  2
*D45
 70
     1
 10
0.0
 20
0.0
 30
0.0
  3
*D45
  1

  0
LINE
  5
27278
330
26F7C
100
AcDbEntity
  8
寸法
 62
     0
 48
50.0
370
    -2
100
AcDbLine
 10
4398.600000000003
 20
6412.139020432168
 30
0.0
 11
4245.512673767881
 21
6412.139020432168
 31
0.0
  0
LINE
  5
27279
330
26F7C
100
AcDbEntity
  8
寸法
 62
     0
 48
50.0
370
    -2
100
AcDbLine
 10
4754.325326928808
 20
5692.139020432168
 30
0.0
 11
4245.51267376788
 21
5692.139020432168
 31
0.0
  0
LINE
  5
2727A
330
26F7C
100
AcDbEntity
  8
寸法
 62
     0
 48
50.0
370
    -2
100
AcDbLine
 10
4305.512673767881
 20
6412.139020432168
 30
0.0
 11
4305.51267376788
 21
5692.139020432168
 31
0.0
  0
INSERT
  5
2727B
330
26F7C
100
AcDbEntity
  8
寸法
 62
     0
 48
50.0
370
    -2
100
AcDbBlockReference
  2
_DOTSMALL
 10
4305.512673767881
 20
6412.139020432168
 30
0.0
 41
100.0
 42
100.0
 43
100.0
 50
90.0
  0
INSERT
  5
2727C
330
26F7C
100
AcDbEntity
  8
寸法
 62
     0
 48
50.0
370
    -2
100
AcDbBlockReference
  2
_DOTSMALL
 10
4305.51267376788
 20
5692.139020432168
 30
0.0
 41
100.0
 42
100.0
 43
100.0
 50
270.0
  0
MTEXT
  5
2727D
330
26F7C
100
AcDbEntity
  8
寸法
 62
     7
 48
50.0
100
AcDbMText
 10
4205.500862744258
 20
6052.13902043217
 30
0.0
 40
120.0
 41
0.0
 71
     5
 72
     1
  1
\A1;扉の出720
  7
STYLE1
 11
0.0000000000000001
 21
1.0
 31
0.0
 73
     1
 44
1.0
1001
ACAD
1000
MTEXTBEGIN
1070
    73
1070
     1
1070
    44
1040
1.0
1070
    74
1070
     0
1000
MTEXTEND
  0
POINT
  5
2727E
330
26F7C
100
AcDbEntity
  8
DEFPOINTS
 62
     0
 48
50.0
100
AcDbPoint
 10
4418.600000000003
 20
6412.139020432168
 30
0.0
  0
POINT
  5
2727F
330
26F7C
100
AcDbEntity
  8
DEFPOINTS
 62
     0
 48
50.0
100
AcDbPoint
 10
4774.325326928808
 20
5692.139020432168
 30
0.0
  0
POINT
  5
27280
330
26F7C
100
AcDbEntity
  8
DEFPOINTS
 62
     0
 48
50.0
100
AcDbPoint
 10
4305.51267376788
 20
5692.139020432168
 30
0.0
  0
ENDBLK
  5
26F87
330
26F7C
100
AcDbEntity
  8
0
 48
50.0
100
AcDbBlockEnd
  0
BLOCK
  5
26FA0
330
26F95
100
AcDbEntity
  8
0
 48
50.0
100
AcDbBlockBegin
  2
*D46
 70
     1
 10
0.0
 20
0.0
 30
0.0
  3
*D46
  1

  0
LINE
  5
27253
330
26F95
100
AcDbEntity
  8
寸法
 62
     0
 48
50.0
370
    -2
100
AcDbLine
 10
5303.600000000006
 20
6892.139020432172
 30
0.0
 11
4841.2859906143
 21
6892.139020432172
 31
0.0
  0
LINE
  5
27254
330
26F95
100
AcDbEntity
  8
寸法
 62
     0
 48
50.0
370
    -2
100
AcDbLine
 10
4972.765475140899
 20
7372.139020432172
 30
0.0
 11
4841.2859906143
 21
7372.139020432172
 31
0.0
  0
LINE
  5
27255
330
26F95
100
AcDbEntity
  8
寸法
 62
     0
 48
50.0
370
    -2
100
AcDbLine
 10
4901.285990614301
 20
6892.139020432172
 30
0.0
 11
4901.285990614301
 21
7372.139020432172
 31
0.0
  0
LINE
  5
27256
330
26F95
100
AcDbEntity
  8
寸法
 62
     0
 48
50.0
370
    -2
100
AcDbLine
 10
4901.285990614301
 20
7372.139020432172
 30
0.0
 11
4901.285990614301
 21
7818.745319644772
 31
0.0
  0
INSERT
  5
27257
330
26F95
100
AcDbEntity
  8
寸法
 62
     0
 48
50.0
370
    -2
100
AcDbBlockReference
  2
_DOTSMALL
 10
4901.285990614301
 20
6892.139020432172
 30
0.0
 41
100.0
 42
100.0
 43
100.0
 50
270.0
  0
INSERT
  5
27258
330
26F95
100
AcDbEntity
  8
寸法
 62
     0
 48
50.0
370
    -2
100
AcDbBlockReference
  2
_DOTSMALL
 10
4901.285990614301
 20
7372.139020432172
 30
0.0
 41
100.0
 42
100.0
 43
100.0
 50
90.0
  0
MTEXT
  5
27259
330
26F95
100
AcDbEntity
  8
寸法
 62
     7
 48
50.0
100
AcDbMText
 10
4801.285990614299
 20
7664.698075550285
 30
0.0
 40
120.0
 41
0.0
 71
     5
 72
     1
  1
\A1;480
  7
STYLE1
 11
0.0000000000000001
 21
1.0
 31
0.0
 73
     1
 44
1.0
1001
ACAD
1000
MTEXTBEGIN
1070
    73
1070
     1
1070
    44
1040
1.0
1070
    74
1070
     0
1000
MTEXTEND
  0
POINT
  5
2725A
330
26F95
100
AcDbEntity
  8
DEFPOINTS
 62
     0
 48
50.0
100
AcDbPoint
 10
5323.600000000006
 20
6892.139020432172
 30
0.0
  0
POINT
  5
2725B
330
26F95
100
AcDbEntity
  8
DEFPOINTS
 62
     0
 48
50.0
100
AcDbPoint
 10
4992.7654751409
 20
7372.139020432172
 30
0.0
  0
POINT
  5
2725C
330
26F95
100
AcDbEntity
  8
DEFPOINTS
 62
     0
 48
50.0
100
AcDbPoint
 10
4901.285990614301
 20
7372.139020432172
 30
0.0
  0
ENDBLK
  5
26FA1
330
26F95
100
AcDbEntity
  8
0
 48
50.0
100
AcDbBlockEnd
  0
BLOCK
  5
26FAC
330
26FA2
100
AcDbEntity
  8
0
 48
50.0
100
AcDbBlockBegin
  2
*D47
 70
     1
 10
0.0
 20
0.0
 30
0.0
  3
*D47
  1

  0
LINE
  5
2724A
330
26FA2
100
AcDbEntity
  8
寸法
 62
     0
 48
50.0
370
    -2
100
AcDbLine
 10
5373.600000000006
 20
6962.139020432172
 30
0.0
 11
5373.600000000006
 21
7914.747837102421
 31
0.0
  0
LINE
  5
2724B
330
26FA2
100
AcDbEntity
  8
寸法
 62
     0
 48
50.0
370
    -2
100
AcDbLine
 10
4418.599999999999
 20
7392.139020432172
 30
0.0
 11
4418.599999999999
 21
7914.747837102421
 31
0.0
  0
LINE
  5
2724C
330
26FA2
100
AcDbEntity
  8
寸法
 62
     0
 48
50.0
370
    -2
100
AcDbLine
 10
5373.600000000006
 20
7854.747837102421
 30
0.0
 11
4418.599999999999
 21
7854.747837102421
 31
0.0
  0
INSERT
  5
2724D
330
26FA2
100
AcDbEntity
  8
寸法
 62
     0
 48
50.0
370
    -2
100
AcDbBlockReference
  2
_DOTSMALL
 10
5373.600000000006
 20
7854.747837102421
 30
0.0
 41
100.0
 42
100.0
 43
100.0
  0
INSERT
  5
2724E
330
26FA2
100
AcDbEntity
  8
寸法
 62
     0
 48
50.0
370
    -2
100
AcDbBlockReference
  2
_DOTSMALL
 10
4418.599999999999
 20
7854.747837102421
 30
0.0
 41
100.0
 42
100.0
 43
100.0
 50
180.0
  0
MTEXT
  5
2724F
330
26FA2
100
AcDbEntity
  8
寸法
 62
     7
 48
50.0
100
AcDbMText
 10
4896.100000000004
 20
7954.747837102421
 30
0.0
 40
120.0
 41
0.0
 71
     5
 72
     1
  1
\A1;955
  7
STYLE1
 73
     1
 44
1.0
1001
ACAD
1000
MTEXTBEGIN
1070
    73
1070
     1
1070
    44
1040
1.0
1070
    74
1070
     0
1000
MTEXTEND
  0
POINT
  5
27250
330
26FA2
100
AcDbEntity
  8
DEFPOINTS
 62
     0
 48
50.0
100
AcDbPoint
 10
5373.600000000006
 20
6942.139020432172
 30
0.0
  0
POINT
  5
27251
330
26FA2
100
AcDbEntity
  8
DEFPOINTS
 62
     0
 48
50.0
100
AcDbPoint
 10
4418.599999999999
 20
7372.139020432172
 30
0.0
  0
POINT
  5
27252
330
26FA2
100
AcDbEntity
  8
DEFPOINTS
 62
     0
 48
50.0
100
AcDbPoint
 10
4418.599999999999
 20
7854.747837102421
 30
0.0
  0
ENDBLK
  5
26FAD
330
26FA2
100
AcDbEntity
  8
0
 48
50.0
100
AcDbBlockEnd
  0
BLOCK
  5
26FB7
330
26FAE
100
AcDbEntity
  8
0
 48
50.0
100
AcDbBlockBegin
  2
*D48
 70
     1
 10
0.0
 20
0.0
 30
0.0
  3
*D48
  1

  0
LINE
  5
27241
330
26FAE
100
AcDbEntity
  8
寸法
 62
     0
 48
50.0
370
    -2
100
AcDbLine
 10
7155.599999999999
 20
7319.139020432172
 30
0.0
 11
7155.599999999999
 21
8158.405478526082
 31
0.0
  0
LINE
  5
27242
330
26FAE
100
AcDbEntity
  8
寸法
 62
     0
 48
50.0
370
    -2
100
AcDbLine
 10
4541.599999999999
 20
7319.139020432172
 30
0.0
 11
4541.599999999999
 21
8158.405478526082
 31
0.0
  0
LINE
  5
27243
330
26FAE
100
AcDbEntity
  8
寸法
 62
     0
 48
50.0
370
    -2
100
AcDbLine
 10
7155.599999999999
 20
8098.405478526084
 30
0.0
 11
4541.599999999999
 21
8098.405478526084
 31
0.0
  0
INSERT
  5
27244
330
26FAE
100
AcDbEntity
  8
寸法
 62
     0
 48
50.0
370
    -2
100
AcDbBlockReference
  2
_DOTSMALL
 10
7155.599999999999
 20
8098.405478526084
 30
0.0
 41
100.0
 42
100.0
 43
100.0
  0
INSERT
  5
27245
330
26FAE
100
AcDbEntity
  8
寸法
 62
     0
 48
50.0
370
    -2
100
AcDbBlockReference
  2
_DOTSMALL
 10
4541.599999999999
 20
8098.405478526084
 30
0.0
 41
100.0
 42
100.0
 43
100.0
 50
180.0
  0
MTEXT
  5
27246
330
26FAE
100
AcDbEntity
  8
寸法
 62
     7
 48
50.0
100
AcDbMText
 10
5848.6
 20
8198.417289549706
 30
0.0
 40
120.0
 41
0.0
 71
     5
 72
     1
  1
\A1;2614
  7
STYLE1
 73
     1
 44
1.0
1001
ACAD
1000
MTEXTBEGIN
1070
    73
1070
     1
1070
    44
1040
1.0
1070
    74
1070
     0
1000
MTEXTEND
  0
POINT
  5
27247
330
26FAE
100
AcDbEntity
  8
DEFPOINTS
 62
     0
 48
50.0
100
AcDbPoint
 10
7155.599999999999
 20
7299.139020432173
 30
0.0
  0
POINT
  5
27248
330
26FAE
100
AcDbEntity
  8
DEFPOINTS
 62
     0
 48
50.0
100
AcDbPoint
 10
4541.599999999999
 20
7299.139020432173
 30
0.0
  0
POINT
  5
27249
330
26FAE
100
AcDbEntity
  8
DEFPOINTS
 62
     0
 48
50.0
100
AcDbPoint
 10
4541.599999999999
 20
8098.405478526084
 30
0.0
  0
ENDBLK
  5
26FB8
330
26FAE
100
AcDbEntity
  8
0
 48
50.0
100
AcDbBlockEnd
  0
BLOCK
  5
26FCE
330
26FC3
100
AcDbEntity
  8
0
 48
50.0
100
AcDbBlockBegin
  2
*D49
 70
     1
 10
0.0
 20
0.0
 30
0.0
  3
*D49
  1

  0
LINE
  5
27237
330
26FC3
100
AcDbEntity
  8
寸法
 62
     0
 48
50.0
370
    -2
100
AcDbLine
 10
4541.599999999999
 20
7319.139020432172
 30
0.0
 11
4541.599999999999
 21
8158.405478526082
 31
0.0
  0
LINE
  5
27238
330
26FC3
100
AcDbEntity
  8
寸法
 62
     0
 48
50.0
370
    -2
100
AcDbLine
 10
4418.599999999999
 20
7392.139020432172
 30
0.0
 11
4418.599999999999
 21
8158.405478526082
 31
0.0
  0
LINE
  5
27239
330
26FC3
100
AcDbEntity
  8
寸法
 62
     0
 48
50.0
370
    -2
100
AcDbLine
 10
4541.599999999999
 20
8098.405478526084
 30
0.0
 11
4418.599999999999
 21
8098.405478526084
 31
0.0
  0
LINE
  5
2723A
330
26FC3
100
AcDbEntity
  8
寸法
 62
     0
 48
50.0
370
    -2
100
AcDbLine
 10
4418.599999999999
 20
8098.405478526084
 30
0.0
 11
4007.008116907962
 21
8098.405478526084
 31
0.0
  0
INSERT
  5
2723B
330
26FC3
100
AcDbEntity
  8
寸法
 62
     0
 48
50.0
370
    -2
100
AcDbBlockReference
  2
_DOTSMALL
 10
4541.599999999999
 20
8098.405478526084
 30
0.0
 41
100.0
 42
100.0
 43
100.0
  0
INSERT
  5
2723C
330
26FC3
100
AcDbEntity
  8
寸法
 62
     0
 48
50.0
370
    -2
100
AcDbBlockReference
  2
_DOTSMALL
 10
4418.599999999999
 20
8098.405478526084
 30
0.0
 41
100.0
 42
100.0
 43
100.0
 50
180.0
  0
MTEXT
  5
2723D
330
26FC3
100
AcDbEntity
  8
寸法
 62
     7
 48
50.0
100
AcDbMText
 10
4145.493398282201
 20
8198.417289549706
 30
0.0
 40
120.0
 41
0.0
 71
     5
 72
     1
  1
\A1;123
  7
STYLE1
 73
     1
 44
1.0
1001
ACAD
1000
MTEXTBEGIN
1070
    73
1070
     1
1070
    44
1040
1.0
1070
    74
1070
     0
1000
MTEXTEND
  0
POINT
  5
2723E
330
26FC3
100
AcDbEntity
  8
DEFPOINTS
 62
     0
 48
50.0
100
AcDbPoint
 10
4541.599999999999
 20
7299.139020432173
 30
0.0
  0
POINT
  5
2723F
330
26FC3
100
AcDbEntity
  8
DEFPOINTS
 62
     0
 48
50.0
100
AcDbPoint
 10
4418.599999999999
 20
7372.139020432172
 30
0.0
  0
POINT
  5
27240
330
26FC3
100
AcDbEntity
  8
DEFPOINTS
 62
     0
 48
50.0
100
AcDbPoint
 10
4418.599999999999
 20
8098.405478526084
 30
0.0
  0
ENDBLK
  5
26FCF
330
26FC3
100
AcDbEntity
  8
0
 48
50.0
100
AcDbBlockEnd
  0
BLOCK
  5
26FE8
330
26FDD
100
AcDbEntity
  8
0
 48
50.0
100
AcDbBlockBegin
  2
*D50
 70
     1
 10
0.0
 20
0.0
 30
0.0
  3
*D50
  1

  0
LINE
  5
27281
330
26FDD
100
AcDbEntity
  8
寸法
 62
     0
 48
50.0
370
    -2
100
AcDbLine
 10
4398.6
 20
7372.139020432172
 30
0.0
 11
3735.665006330072
 21
7372.139020432172
 31
0.0
  0
LINE
  5
27282
330
26FDD
100
AcDbEntity
  8
寸法
 62
     0
 48
50.0
370
    -2
100
AcDbLine
 10
4471.599999999999
 20
7249.139020432173
 30
0.0
 11
3735.665006330072
 21
7249.139020432173
 31
0.0
  0
LINE
  5
27283
330
26FDD
100
AcDbEntity
  8
寸法
 62
     0
 48
50.0
370
    -2
100
AcDbLine
 10
3795.665006330072
 20
7249.139020432173
 30
0.0
 11
3795.665006330072
 21
7372.139020432172
 31
0.0
  0
LINE
  5
27284
330
26FDD
100
AcDbEntity
  8
寸法
 62
     0
 48
50.0
370
    -2
100
AcDbLine
 10
3795.665006330072
 20
7372.139020432172
 30
0.0
 11
3795.665006330072
 21
7783.730903524212
 31
0.0
  0
INSERT
  5
27285
330
26FDD
100
AcDbEntity
  8
寸法
 62
     0
 48
50.0
370
    -2
100
AcDbBlockReference
  2
_DOTSMALL
 10
3795.665006330072
 20
7249.139020432173
 30
0.0
 41
100.0
 42
100.0
 43
100.0
 50
270.0
  0
INSERT
  5
27286
330
26FDD
100
AcDbEntity
  8
寸法
 62
     0
 48
50.0
370
    -2
100
AcDbBlockReference
  2
_DOTSMALL
 10
3795.665006330072
 20
7372.139020432172
 30
0.0
 41
100.0
 42
100.0
 43
100.0
 50
90.0
  0
MTEXT
  5
27287
330
26FDD
100
AcDbEntity
  8
寸法
 62
     7
 48
50.0
100
AcDbMText
 10
3695.653195306448
 20
7645.245622149973
 30
0.0
 40
120.0
 41
0.0
 71
     5
 72
     1
  1
\A1;123
  7
STYLE1
 11
0.0000000000000001
 21
1.0
 31
0.0
 73
     1
 44
1.0
1001
ACAD
1000
MTEXTBEGIN
1070
    73
1070
     1
1070
    44
1040
1.0
1070
    74
1070
     0
1000
MTEXTEND
  0
POINT
  5
27288
330
26FDD
100
AcDbEntity
  8
DEFPOINTS
 62
     0
 48
50.0
100
AcDbPoint
 10
4418.599999999999
 20
7372.139020432172
 30
0.0
  0
POINT
  5
27289
330
26FDD
100
AcDbEntity
  8
DEFPOINTS
 62
     0
 48
50.0
100
AcDbPoint
 10
4491.6
 20
7249.139020432173
 30
0.0
  0
POINT
  5
2728A
330
26FDD
100
AcDbEntity
  8
DEFPOINTS
 62
     0
 48
50.0
100
AcDbPoint
 10
3795.665006330072
 20
7249.139020432173
 30
0.0
  0
ENDBLK
  5
26FE9
330
26FDD
100
AcDbEntity
  8
0
 48
50.0
100
AcDbBlockEnd
  0
BLOCK
  5
276B7
330
276AD
100
AcDbEntity
  8
0
 48
50.0
100
AcDbBlockBegin
  2
*D57
 70
     1
 10
0.0
 20
0.0
 30
0.0
  3
*D57
  1

  0
LINE
  5
276F7
330
276AD
100
AcDbEntity
  8
寸法
 62
     0
 48
50.0
370
    -2
100
AcDbLine
 10
8406.478296687742
 20
1890.996276635405
 30
0.0
 11
8948.346896456587
 21
1890.996276635405
 31
0.0
  0
LINE
  5
276F8
330
276AD
100
AcDbEntity
  8
寸法
 62
     0
 48
50.0
370
    -2
100
AcDbLine
 10
8406.478296687742
 20
1566.996276635405
 30
0.0
 11
8948.346896456587
 21
1566.996276635404
 31
0.0
  0
LINE
  5
276F9
330
276AD
100
AcDbEntity
  8
寸法
 62
     0
 48
50.0
370
    -2
100
AcDbLine
 10
8888.346896456587
 20
1890.996276635405
 30
0.0
 11
8888.346896456587
 21
1566.996276635404
 31
0.0
  0
INSERT
  5
276FA
330
276AD
100
AcDbEntity
  8
寸法
 62
     0
 48
50.0
370
    -2
100
AcDbBlockReference
  2
_DOTSMALL
 10
8888.346896456587
 20
1890.996276635405
 30
0.0
 41
100.0
 42
100.0
 43
100.0
 50
90.0
  0
INSERT
  5
276FB
330
276AD
100
AcDbEntity
  8
寸法
 62
     0
 48
50.0
370
    -2
100
AcDbBlockReference
  2
_DOTSMALL
 10
8888.346896456587
 20
1566.996276635404
 30
0.0
 41
100.0
 42
100.0
 43
100.0
 50
270.0
  0
MTEXT
  5
276FC
330
276AD
100
AcDbEntity
  8
寸法
 62
     7
 48
50.0
100
AcDbMText
 10
8788.346896456587
 20
1728.996276635406
 30
0.0
 40
120.0
 41
0.0
 71
     5
 72
     1
  1
\A1;180
  7
STYLE1
 11
0.0000000000000001
 21
1.0
 31
0.0
 73
     1
 44
1.0
1001
ACAD
1000
MTEXTBEGIN
1070
    73
1070
     1
1070
    44
1040
1.0
1070
    74
1070
     0
1000
MTEXTEND
  0
POINT
  5
276FD
330
276AD
100
AcDbEntity
  8
DEFPOINTS
 62
     0
 48
50.0
100
AcDbPoint
 10
8386.478296687743
 20
1890.996276635405
 30
0.0
  0
POINT
  5
276FE
330
276AD
100
AcDbEntity
  8
DEFPOINTS
 62
     0
 48
50.0
100
AcDbPoint
 10
8386.478296687743
 20
1566.996276635405
 30
0.0
  0
POINT
  5
276FF
330
276AD
100
AcDbEntity
  8
DEFPOINTS
 62
     0
 48
50.0
100
AcDbPoint
 10
8888.346896456587
 20
1566.996276635404
 30
0.0
  0
ENDBLK
  5
276B8
330
276AD
100
AcDbEntity
  8
0
 48
50.0
100
AcDbBlockEnd
  0
BLOCK
  5
276C5
330
276B9
100
AcDbEntity
  8
0
 48
50.0
100
AcDbBlockBegin
  2
*D58
 70
     1
 10
0.0
 20
0.0
 30
0.0
  3
*D58
  1

  0
LINE
  5
27700
330
276B9
100
AcDbEntity
  8
寸法
 62
     0
 48
50.0
370
    -2
100
AcDbLine
 10
8219.278296687745
 20
1943.756276635406
 30
0.0
 11
9224.401562575614
 21
1943.756276635406
 31
0.0
  0
LINE
  5
27701
330
276B9
100
AcDbEntity
  8
寸法
 62
     0
 48
50.0
370
    -2
100
AcDbLine
 10
8406.478296687742
 20
1890.996276635405
 30
0.0
 11
9224.401562575614
 21
1890.996276635405
 31
0.0
  0
LINE
  5
27702
330
276B9
100
AcDbEntity
  8
寸法
 62
     0
 48
50.0
370
    -2
100
AcDbLine
 10
9164.401562575616
 20
1943.756276635406
 30
0.0
 11
9164.401562575616
 21
2043.756276635407
 31
0.0
  0
LINE
  5
27703
330
276B9
100
AcDbEntity
  8
寸法
 62
     0
 48
50.0
370
    -2
100
AcDbLine
 10
9164.401562575616
 20
1890.996276635405
 30
0.0
 11
9164.401562575616
 21
1158.978469792439
 31
0.0
  0
LINE
  5
27704
330
276B9
100
AcDbEntity
  8
寸法
 62
     0
 48
50.0
370
    -2
100
AcDbLine
 10
9164.401562575616
 20
1943.756276635406
 30
0.0
 11
9164.401562575616
 21
1890.996276635405
 31
0.0
  0
INSERT
  5
27705
330
276B9
100
AcDbEntity
  8
寸法
 62
     0
 48
50.0
370
    -2
100
AcDbBlockReference
  2
_DOTSMALL
 10
9164.401562575616
 20
1943.756276635406
 30
0.0
 41
100.0
 42
100.0
 43
100.0
 50
270.0
  0
INSERT
  5
27706
330
276B9
100
AcDbEntity
  8
寸法
 62
     0
 48
50.0
370
    -2
100
AcDbBlockReference
  2
_DOTSMALL
 10
9164.401562575616
 20
1890.996276635405
 30
0.0
 41
100.0
 42
100.0
 43
100.0
 50
90.0
  0
MTEXT
  5
27707
330
276B9
100
AcDbEntity
  8
寸法
 62
     7
 48
50.0
100
AcDbMText
 10
9064.389751551992
 20
1424.987373213923
 30
0.0
 40
120.0
 41
0.0
 71
     5
 72
     1
  1
\A1;20～25
  7
STYLE1
 11
0.0000000000000001
 21
1.0
 31
0.0
 73
     1
 44
1.0
1001
ACAD
1000
MTEXTBEGIN
1070
    73
1070
     1
1070
    44
1040
1.0
1070
    74
1070
     0
1000
MTEXTEND
  0
POINT
  5
27708
330
276B9
100
AcDbEntity
  8
DEFPOINTS
 62
     0
 48
50.0
100
AcDbPoint
 10
8199.278296687744
 20
1943.756276635406
 30
0.0
  0
POINT
  5
27709
330
276B9
100
AcDbEntity
  8
DEFPOINTS
 62
     0
 48
50.0
100
AcDbPoint
 10
8386.478296687743
 20
1890.996276635405
 30
0.0
  0
POINT
  5
2770A
330
276B9
100
AcDbEntity
  8
DEFPOINTS
 62
     0
 48
50.0
100
AcDbPoint
 10
9164.401562575616
 20
1890.996276635405
 30
0.0
  0
ENDBLK
  5
276C6
330
276B9
100
AcDbEntity
  8
0
 48
50.0
100
AcDbBlockEnd
  0
BLOCK
  5
276D1
330
276C7
100
AcDbEntity
  8
0
 48
50.0
100
AcDbBlockBegin
  2
*D59
 70
     1
 10
0.0
 20
0.0
 30
0.0
  3
*D59
  1

  0
LINE
  5
2770B
330
276C7
100
AcDbEntity
  8
寸法
 62
     0
 48
50.0
370
    -2
100
AcDbLine
 10
6124.438983510549
 20
1346.996276635405
 30
0.0
 11
5942.018669778089
 21
1346.996276635405
 31
0.0
  0
LINE
  5
2770C
330
276C7
100
AcDbEntity
  8
寸法
 62
     0
 48
50.0
370
    -2
100
AcDbLine
 10
6044.438983510553
 20
1106.996276635405
 30
0.0
 11
5942.018669778089
 21
1106.996276635405
 31
0.0
  0
LINE
  5
2770D
330
276C7
100
AcDbEntity
  8
寸法
 62
     0
 48
50.0
370
    -2
100
AcDbLine
 10
6002.01866977809
 20
1346.996276635405
 30
0.0
 11
6002.01866977809
 21
1106.996276635405
 31
0.0
  0
INSERT
  5
2770E
330
276C7
100
AcDbEntity
  8
寸法
 62
     0
 48
50.0
370
    -2
100
AcDbBlockReference
  2
_DOTSMALL
 10
6002.01866977809
 20
1346.996276635405
 30
0.0
 41
100.0
 42
100.0
 43
100.0
 50
90.0
  0
INSERT
  5
2770F
330
276C7
100
AcDbEntity
  8
寸法
 62
     0
 48
50.0
370
    -2
100
AcDbBlockReference
  2
_DOTSMALL
 10
6002.01866977809
 20
1106.996276635405
 30
0.0
 41
100.0
 42
100.0
 43
100.0
 50
270.0
  0
MTEXT
  5
27710
330
276C7
100
AcDbEntity
  8
寸法
 62
     7
 48
50.0
100
AcDbMText
 10
5902.01866977809
 20
1226.996276635407
 30
0.0
 40
120.0
 41
0.0
 71
     5
 72
     1
  1
\A1;150
  7
STYLE1
 11
0.0000000000000001
 21
1.0
 31
0.0
 73
     1
 44
1.0
1001
ACAD
1000
MTEXTBEGIN
1070
    73
1070
     1
1070
    44
1040
1.0
1070
    74
1070
     0
1000
MTEXTEND
  0
POINT
  5
27711
330
276C7
100
AcDbEntity
  8
DEFPOINTS
 62
     0
 48
50.0
100
AcDbPoint
 10
6144.43898351055
 20
1346.996276635405
 30
0.0
  0
POINT
  5
27712
330
276C7
100
AcDbEntity
  8
DEFPOINTS
 62
     0
 48
50.0
100
AcDbPoint
 10
6064.438983510552
 20
1106.996276635405
 30
0.0
  0
POINT
  5
27713
330
276C7
100
AcDbEntity
  8
DEFPOINTS
 62
     0
 48
50.0
100
AcDbPoint
 10
6002.01866977809
 20
1106.996276635405
 30
0.0
  0
ENDBLK
  5
276D2
330
276C7
100
AcDbEntity
  8
0
 48
50.0
100
AcDbBlockEnd
  0
BLOCK
  5
276DD
330
276D3
100
AcDbEntity
  8
0
 48
50.0
100
AcDbBlockBegin
  2
*D60
 70
     1
 10
0.0
 20
0.0
 30
0.0
  3
*D60
  1

  0
LINE
  5
27714
330
276D3
100
AcDbEntity
  8
寸法
 62
     0
 48
50.0
370
    -2
100
AcDbLine
 10
6252.43898351055
 20
1890.996276635405
 30
0.0
 11
5477.401744948809
 21
1890.996276635406
 31
0.0
  0
LINE
  5
27715
330
276D3
100
AcDbEntity
  8
寸法
 62
     0
 48
50.0
370
    -2
100
AcDbLine
 10
6044.438983510553
 20
1106.996276635405
 30
0.0
 11
5477.401744948809
 21
1106.996276635406
 31
0.0
  0
LINE
  5
27716
330
276D3
100
AcDbEntity
  8
寸法
 62
     0
 48
50.0
370
    -2
100
AcDbLine
 10
5537.401744948809
 20
1890.996276635406
 30
0.0
 11
5537.401744948809
 21
1106.996276635406
 31
0.0
  0
INSERT
  5
27717
330
276D3
100
AcDbEntity
  8
寸法
 62
     0
 48
50.0
370
    -2
100
AcDbBlockReference
  2
_DOTSMALL
 10
5537.401744948809
 20
1890.996276635406
 30
0.0
 41
100.0
 42
100.0
 43
100.0
 50
90.0
  0
INSERT
  5
27718
330
276D3
100
AcDbEntity
  8
寸法
 62
     0
 48
50.0
370
    -2
100
AcDbBlockReference
  2
_DOTSMALL
 10
5537.401744948809
 20
1106.996276635406
 30
0.0
 41
100.0
 42
100.0
 43
100.0
 50
270.0
  0
MTEXT
  5
27719
330
276D3
100
AcDbEntity
  8
寸法
 62
     7
 48
50.0
100
AcDbMText
 10
5437.401744948809
 20
1478.536426291406
 30
0.0
 40
120.0
 41
0.0
 71
     5
 72
     1
  1
\A1;540
  7
STYLE1
 11
0.0000000000000001
 21
1.0
 31
0.0
 73
     1
 44
1.0
1001
ACAD
1000
MTEXTBEGIN
1070
    73
1070
     1
1070
    44
1040
1.0
1070
    74
1070
     0
1000
MTEXTEND
  0
POINT
  5
2771A
330
276D3
100
AcDbEntity
  8
DEFPOINTS
 62
     0
 48
50.0
100
AcDbPoint
 10
6272.43898351055
 20
1890.996276635405
 30
0.0
  0
POINT
  5
2771B
330
276D3
100
AcDbEntity
  8
DEFPOINTS
 62
     0
 48
50.0
100
AcDbPoint
 10
6064.438983510552
 20
1106.996276635405
 30
0.0
  0
POINT
  5
2771C
330
276D3
100
AcDbEntity
  8
DEFPOINTS
 62
     0
 48
50.0
100
AcDbPoint
 10
5537.401744948809
 20
1106.996276635406
 30
0.0
  0
ENDBLK
  5
276DE
330
276D3
100
AcDbEntity
  8
0
 48
50.0
100
AcDbBlockEnd
  0
BLOCK
  5
276E9
330
276DF
100
AcDbEntity
  8
0
 48
50.0
100
AcDbBlockBegin
  2
*D61
 70
     1
 10
0.0
 20
0.0
 30
0.0
  3
*D61
  1

  0
LINE
  5
2771D
330
276DF
100
AcDbEntity
  8
寸法
 62
     0
 48
50.0
370
    -2
100
AcDbLine
 10
6144.43898351055
 20
958.9962766354055
 30
0.0
 11
6144.43898351055
 21
508.5666386302455
 31
0.0
  0
LINE
  5
2771E
330
276DF
100
AcDbEntity
  8
寸法
 62
     0
 48
50.0
370
    -2
100
AcDbLine
 10
6592.43898351055
 20
958.9962766354055
 30
0.0
 11
6592.43898351055
 21
508.5666386302455
 31
0.0
  0
LINE
  5
2771F
330
276DF
100
AcDbEntity
  8
寸法
 62
     0
 48
50.0
370
    -2
100
AcDbLine
 10
6144.43898351055
 20
568.5666386302455
 30
0.0
 11
6592.43898351055
 21
568.5666386302455
 31
0.0
  0
INSERT
  5
27720
330
276DF
100
AcDbEntity
  8
寸法
 62
     0
 48
50.0
370
    -2
100
AcDbBlockReference
  2
_DOTSMALL
 10
6144.43898351055
 20
568.5666386302455
 30
0.0
 41
100.0
 42
100.0
 43
100.0
 50
180.0
  0
INSERT
  5
27721
330
276DF
100
AcDbEntity
  8
寸法
 62
     0
 48
50.0
370
    -2
100
AcDbBlockReference
  2
_DOTSMALL
 10
6592.43898351055
 20
568.5666386302455
 30
0.0
 41
100.0
 42
100.0
 43
100.0
  0
MTEXT
  5
27722
330
276DF
100
AcDbEntity
  8
寸法
 62
     7
 48
50.0
100
AcDbMText
 10
6348.342224832325
 20
668.5666386302455
 30
0.0
 40
120.0
 41
0.0
 71
     5
 72
     1
  1
\A1;300
  7
STYLE1
 73
     1
 44
1.0
1001
ACAD
1000
MTEXTBEGIN
1070
    73
1070
     1
1070
    44
1040
1.0
1070
    74
1070
     0
1000
MTEXTEND
  0
POINT
  5
27723
330
276DF
100
AcDbEntity
  8
DEFPOINTS
 62
     0
 48
50.0
100
AcDbPoint
 10
6144.43898351055
 20
978.9962766354056
 30
0.0
  0
POINT
  5
27724
330
276DF
100
AcDbEntity
  8
DEFPOINTS
 62
     0
 48
50.0
100
AcDbPoint
 10
6592.43898351055
 20
978.9962766354056
 30
0.0
  0
POINT
  5
27725
330
276DF
100
AcDbEntity
  8
DEFPOINTS
 62
     0
 48
50.0
100
AcDbPoint
 10
6592.43898351055
 20
568.5666386302455
 30
0.0
  0
ENDBLK
  5
276EA
330
276DF
100
AcDbEntity
  8
0
 48
50.0
100
AcDbBlockEnd
  0
BLOCK
  5
276F5
330
276EB
100
AcDbEntity
  8
0
 48
50.0
100
AcDbBlockBegin
  2
*D62
 70
     1
 10
0.0
 20
0.0
 30
0.0
  3
*D62
  1

  0
LINE
  5
27726
330
276EB
100
AcDbEntity
  8
寸法
 62
     0
 48
50.0
370
    -2
100
AcDbLine
 10
6464.43898351055
 20
1910.996276635405
 30
0.0
 11
6464.43898351055
 21
2370.664084551786
 31
0.0
  0
LINE
  5
27727
330
276EB
100
AcDbEntity
  8
寸法
 62
     0
 48
50.0
370
    -2
100
AcDbLine
 10
6272.43898351055
 20
1910.996276635405
 30
0.0
 11
6272.43898351055
 21
2370.664084551786
 31
0.0
  0
LINE
  5
27728
330
276EB
100
AcDbEntity
  8
寸法
 62
     0
 48
50.0
370
    -2
100
AcDbLine
 10
6464.43898351055
 20
2310.664084551786
 30
0.0
 11
6272.43898351055
 21
2310.664084551786
 31
0.0
  0
INSERT
  5
27729
330
276EB
100
AcDbEntity
  8
寸法
 62
     0
 48
50.0
370
    -2
100
AcDbBlockReference
  2
_DOTSMALL
 10
6464.43898351055
 20
2310.664084551786
 30
0.0
 41
100.0
 42
100.0
 43
100.0
  0
INSERT
  5
2772A
330
276EB
100
AcDbEntity
  8
寸法
 62
     0
 48
50.0
370
    -2
100
AcDbBlockReference
  2
_DOTSMALL
 10
6272.43898351055
 20
2310.664084551786
 30
0.0
 41
100.0
 42
100.0
 43
100.0
 50
180.0
  0
MTEXT
  5
2772B
330
276EB
100
AcDbEntity
  8
寸法
 62
     7
 48
50.0
100
AcDbMText
 10
6368.43898351055
 20
2610.699517622652
 30
0.0
 40
120.0
 41
0.0
 71
     5
 72
     1
  1
\A1;120\P200\P280
  7
STYLE1
 73
     1
 44
1.0
1001
ACAD
1000
MTEXTBEGIN
1070
    73
1070
     1
1070
    44
1040
1.0
1070
    74
1070
     0
1000
MTEXTEND
  0
POINT
  5
2772C
330
276EB
100
AcDbEntity
  8
DEFPOINTS
 62
     0
 48
50.0
100
AcDbPoint
 10
6464.43898351055
 20
1890.996276635405
 30
0.0
  0
POINT
  5
2772D
330
276EB
100
AcDbEntity
  8
DEFPOINTS
 62
     0
 48
50.0
100
AcDbPoint
 10
6272.43898351055
 20
1890.996276635405
 30
0.0
  0
POINT
  5
2772E
330
276EB
100
AcDbEntity
  8
DEFPOINTS
 62
     0
 48
50.0
100
AcDbPoint
 10
6272.43898351055
 20
2310.664084551786
 30
0.0
  0
ENDBLK
  5
276F6
330
276EB
100
AcDbEntity
  8
0
 48
50.0
100
AcDbBlockEnd
  0
ENDSEC
  0
SECTION
  2
ENTITIES
  0
MTEXT
  5
763F
330
747D
100
AcDbEntity
  8
0
100
AcDbMText
 10
302.846345836809
 20
280.1983726409901
 30
0.0
 40
3.5
 41
5.323721266742722
 71
     1
 72
     5
  1

  7
MSMINCHO
 73
     1
 44
1.0
1001
ACAD
1000
MTEXTBEGIN
1070
    73
1070
     1
1070
    44
1040
1.0
1070
    74
1070
     0
1000
MTEXTEND
  0
LINE
  5
10B57
330
747D
100
AcDbEntity
  8
補助
  6
PHANTOM
 62
   230
 48
50.0
100
AcDbLine
 10
139.9999999999995
 20
11409.6
 30
0.0
 11
16307.2
 21
11409.6
 31
0.0
  0
LINE
  5
10B59
330
747D
100
AcDbEntity
  8
仕様書枠
  6
Continuous
 48
50.0
100
AcDbLine
 10
13107.2
 20
1200.0
 30
0.0
 11
13107.2
 21
-0.0000000000000729
 31
0.0
  0
LINE
  5
10B5D
330
747D
100
AcDbEntity
  8
仕様書枠
 48
50.0
100
AcDbLine
 10
140.0
 20
0.0
 30
0.0
 11
16307.2
 21
-0.0000000000000909
 31
0.0
  0
LINE
  5
10B5E
330
747D
100
AcDbEntity
  8
補助
  6
PHANTOM
 62
   230
 48
50.0
100
AcDbLine
 10
16307.2
 20
11409.6
 30
0.0
 11
16307.2
 21
1200.0
 31
0.0
  0
LINE
  5
10B6C
330
747D
100
AcDbEntity
  8
仕様書枠
 48
50.0
100
AcDbLine
 10
13107.2
 20
1200.0
 30
0.0
 11
16307.2
 21
1200.0
 31
0.0
  0
TEXT
  5
10B73
330
747D
100
AcDbEntity
  8
文字
 62
     7
 48
50.0
100
AcDbText
 10
13162.9790565769
 20
895.0906074299405
 30
0.0
 40
200.0
  1
基 礎 図
  7
STYLE2
100
AcDbText
  0
LINE
  5
10B7B
330
747D
100
AcDbEntity
  8
仕様書枠
 48
50.0
100
AcDbLine
 10
13107.2
 20
800.0
 30
0.0
 11
14251.2
 21
800.0
 31
0.0
  0
LINE
  5
10B88
330
747D
100
AcDbEntity
  8
仕様書枠
  6
Continuous
 48
50.0
100
AcDbLine
 10
14251.2
 20
1200.0
 30
0.0
 11
14251.2
 21
800.0
 31
0.0
  0
LINE
  5
16462
330
747D
100
AcDbEntity
  8
仕様書枠
 48
50.0
100
AcDbLine
 10
16307.2
 20
1200.0
 30
0.0
 11
16307.2
 21
-0.0000000000000909
 31
0.0
  0
LINE
  5
1903B
330
747D
100
AcDbEntity
  8
補助
  6
PHANTOM
 62
   230
 48
50.0
100
AcDbLine
 10
140.0
 20
0.0
 30
0.0
 11
139.9999999999995
 21
11409.6
 31
0.0
  0
LEADER
  5
1AC27
330
747D
100
AcDbEntity
  8
寸法
 48
50.0
100
AcDbLeader
  3
INABA_S50G
 73
     0
 74
     0
 75
     1
 40
120.0
 41
720.0000000000001
 76
     3
 10
12030.05985718447
 20
6902.869790491982
 30
0.0
 10
12186.83343157076
 20
6641.855876924148
 30
0.0
 10
12311.83343157076
 20
6641.855876924148
 30
0.0
340
1AC28
1001
ACAD
1000
DSTYLE
1002
{
1070
   341
1005
0
1070
    40
1040
1.0
1070
   343
1005
0
1070
   344
1005
0
1002
}
  0
MTEXT
  5
1AC28
102
{ACAD_REACTORS
330
1AC27
102
}
330
747D
100
AcDbEntity
  8
部品1
 62
     7
 48
50.0
100
AcDbMText
 10
13056.83343157076
 20
6726.855876924149
 30
0.0
 40
120.0
 41
0.0
 71
     6
 72
     1
  1
\A1;床下換気口
  7
STYLE1
 73
     1
 44
1.0
1001
ACAD
1000
MTEXTBEGIN
1070
    73
1070
     1
1070
    44
1040
1.0
1070
    74
1070
     0
1000
MTEXTEND
  0
TEXT
  5
1AC29
330
747D
100
AcDbEntity
  8
部品1
 48
50.0
100
AcDbText
 10
12377.43013846118
 20
5961.31151814505
 30
0.0
 40
80.0
  1
(a=45,b=55,c=75)
  7
STYLE1
100
AcDbText
  0
TEXT
  5
1AC2A
330
747D
100
AcDbEntity
  8
部品1
 48
50.0
100
AcDbText
 10
12218.85112970688
 20
6068.156739013804
 30
0.0
 40
80.0
  1
※a,b,cは屋根の出幅です。
  7
STYLE1
100
AcDbText
  0
MTEXT
  5
1AC2B
102
{ACAD_REACTORS
330
1AC2C
102
}
330
747D
100
AcDbEntity
  8
部品1
 62
     7
 48
50.0
100
AcDbMText
 10
13016.63832569548
 20
6247.467425946879
 30
0.0
 40
120.0
 41
0.0
 71
     6
 72
     1
  1
\A1;屋根の外寸
  7
STYLE1
 73
     1
 44
1.0
1001
ACAD
1000
MTEXTBEGIN
1070
    73
1070
     1
1070
    44
1040
1.0
1070
    74
1070
     0
1000
MTEXTEND
  0
LEADER
  5
1AC2C
330
747D
100
AcDbEntity
  8
寸法
 48
50.0
100
AcDbLeader
  3
INABA_S50G
 73
     0
 74
     0
 75
     1
 40
120.0
 41
672.0
 76
     3
 10
12078.69831350344
 20
6421.356769410455
 30
0.0
 10
12194.63832569548
 20
6162.467425946879
 30
0.0
 10
12319.63832569548
 20
6162.467425946879
 30
0.0
340
1AC2B
1001
ACAD
1000
DSTYLE
1002
{
1070
   341
1005
0
1070
    40
1040
1.0
1070
   343
1005
0
1070
   344
1005
0
1002
}
  0
TEXT
  5
1C7A1
330
747D
100
AcDbEntity
  8
文字
 62
     7
 48
50.0
100
AcDbText
 10
13188.16259899338
 20
79.80631269190417
 30
0.0
 40
80.0
  1
※布基礎には換気口を設けてください。
  7
STYLE2
100
AcDbText
  0
TEXT
  5
1C7E7
330
747D
100
AcDbEntity
  8
文字
 62
     7
 48
50.0
100
AcDbText
 10
13188.16259899338
 20
246.7109242801889
 30
0.0
 40
80.0
  1
※寒冷地等は地域の実情に合わせた基礎にして下さい。
  7
STYLE2
100
AcDbText
  0
TEXT
  5
1C7E8
330
747D
100
AcDbEntity
  8
文字
 62
     7
 48
50.0
100
AcDbText
 10
14325.79230300687
 20
499.5983841039506
 30
0.0
 40
160.0
  1
ＮＸＮ－０９ＤＬ－８
  7
STYLE2
100
AcDbText
  0
TEXT
  5
1C7EC
330
747D
100
AcDbEntity
  8
文字
 62
     7
 48
50.0
100
AcDbText
 10
14524.131837222
 20
1031.557706291229
 30
0.0
 40
100.0
  1
<縮尺> S=1/40
  7
STYLE2
100
AcDbText
  0
TEXT
  5
1C7ED
330
747D
100
AcDbEntity
  8
文字
 62
     7
 48
50.0
100
AcDbText
 10
13201.43669998441
 20
477.2740661031257
 30
0.0
 40
160.0
  1
機種名
  7
STYLE2
100
AcDbText
  0
LINE
  5
1C7EF
330
747D
100
AcDbEntity
  8
文字
 62
     7
 48
50.0
100
AcDbLine
 10
13187.2
 20
400.0
 30
0.0
 11
16227.2
 21
400.0
 31
0.0
  0
MTEXT
  5
1D2D5
102
{ACAD_REACTORS
330
1D2D6
102
}
330
747D
100
AcDbEntity
  8
部品1
 62
     7
 48
50.0
100
AcDbMText
 10
13223.99523070988
 20
7687.751764674681
 30
0.0
 40
120.0
 41
0.0
 71
     6
 72
     1
  1
アンカーボルト
  7
STYLE1
 73
     1
 44
1.0
1001
ACAD
1000
MTEXTBEGIN
1070
    73
1070
     1
1070
    44
1040
1.0
1070
    74
1070
     0
1000
MTEXTEND
  0
LEADER
  5
1D2D6
330
747D
100
AcDbEntity
  8
寸法
 48
50.0
100
AcDbLeader
  3
INABA_S50G
 73
     0
 74
     0
 75
     1
 40
120.0
 41
994.3492424049171
 76
     3
 10
11905.68008575701
 20
7249.346864790884
 30
0.0
 10
12079.64598830497
 20
7602.751764674682
 30
0.0
 10
12204.64598830496
 20
7602.751764674682
 30
0.0
340
1D2D5
1001
ACAD
1000
DSTYLE
1002
{
1070
   341
1005
0
1070
    40
1040
1.0
1070
   343
1005
0
1070
   344
1005
0
1002
}
  0
MTEXT
  5
1D332
102
{ACAD_REACTORS
330
1D333
102
}
330
747D
100
AcDbEntity
  8
部品1
 62
     7
 48
50.0
100
AcDbMText
 10
11588.8286970157
 20
6819.926417467573
 30
0.0
 40
120.0
 41
0.0
 71
     6
 72
     1
  1
CB
  7
STYLE1
 73
     1
 44
1.0
1001
ACAD
1000
MTEXTBEGIN
1070
    73
1070
     1
1070
    44
1040
1.0
1070
    74
1070
     0
1000
MTEXTEND
  0
LEADER
  5
1D333
330
747D
100
AcDbEntity
  8
寸法
 48
50.0
100
AcDbLeader
  3
INABA_S50G
 73
     0
 74
     0
 75
     1
 40
120.0
 41
149.591883092037
 76
     3
 10
11161.95401106102
 20
6957.644731022398
 30
0.0
 10
11289.23681392366
 20
6734.926417467573
 30
0.0
 10
11414.23681392366
 20
6734.926417467573
 30
0.0
340
1D332
1001
ACAD
1000
DSTYLE
1002
{
1070
   341
1005
0
1070
    40
1040
1.0
1070
   343
1005
0
1070
   344
1005
0
1002
}
  0
DIMENSION
  5
20DE1
330
747D
100
AcDbEntity
  8
寸法
 48
50.0
100
AcDbDimension
  2
*D19
 10
12073.6
 20
8330.359342491092
 30
0.0
 11
12344.77462120246
 21
8330.359342491092
 31
0.0
 70
   160
  1
a
 71
     5
 42
45.0
  3
INABA_S40G
100
AcDbAlignedDimension
 13
12028.6
 23
7372.139020432172
 33
0.0
 14
12073.6
 24
8098.405478526084
 34
0.0
100
AcDbRotatedDimension
1001
ACAD
1000
DSTYLE
1002
{
1070
   341
1005
0
1002
}
  0
DIMENSION
  5
20DFB
330
747D
100
AcDbEntity
  8
寸法
 48
50.0
100
AcDbDimension
  2
*D20
 10
4418.599999999995
 20
8330.359342491089
 30
0.0
 11
4102.425378797536
 21
8330.359342491089
 31
0.0
 70
   160
  1
a
 71
     5
 42
45.0
  3
INABA_S40G
100
AcDbAlignedDimension
 13
4373.599999999995
 23
8098.40547852608
 33
0.0
 14
4418.599999999995
 24
7372.139020432169
 34
0.0
100
AcDbRotatedDimension
1001
ACAD
1000
DSTYLE
1002
{
1070
   341
1005
0
1002
}
  0
LINE
  5
22711
330
747D
100
AcDbEntity
  8
想像線
 48
10.0
100
AcDbLine
 10
12073.6
 20
7447.139020432175
 30
0.0
 11
4373.599999999995
 21
7447.139020432189
 31
0.0
  0
LINE
  5
22712
330
747D
100
AcDbEntity
  8
想像線
 48
10.0
100
AcDbLine
 10
4373.599999999988
 20
6357.139020432181
 30
0.0
 11
4373.599999999995
 21
7447.139020432175
 31
0.0
  0
LINE
  5
22713
330
747D
100
AcDbEntity
  8
想像線
 48
10.0
100
AcDbLine
 10
12073.6
 20
6357.139020432189
 30
0.0
 11
12073.6
 21
7447.139020432175
 31
0.0
  0
LINE
  5
22714
330
747D
100
AcDbEntity
  8
想像線
 48
10.0
100
AcDbLine
 10
12073.6
 20
6357.139020432189
 30
0.0
 11
4373.599999999988
 21
6357.139020432174
 31
0.0
  0
DIMENSION
  5
22741
330
747D
100
AcDbEntity
  8
寸法
 48
50.0
100
AcDbDimension
  2
*D25
 10
3543.721909610666
 20
7372.139020432169
 30
0.0
 11
3443.721909610665
 21
7409.639020432172
 31
0.0
 70
    32
  1
c
 71
     5
 42
75.00000000000636
  3
INABA_S40G
100
AcDbAlignedDimension
 13
3795.665006330056
 23
7447.139020432175
 33
0.0
 14
4418.599999999995
 24
7372.139020432169
 34
0.0
 50
90.0
100
AcDbRotatedDimension
1001
ACAD
1000
DSTYLE
1002
{
1070
   341
1005
0
1002
}
  0
DIMENSION
  5
2275B
330
747D
100
AcDbEntity
  8
寸法
 48
50.0
100
AcDbDimension
  2
*D26
 10
3543.721909610666
 20
6357.139020432194
 30
0.0
 11
3443.721909610665
 21
6384.639020432183
 31
0.0
 70
    32
  1
b
 71
     5
 42
54.99999999997453
  3
INABA_S40G
100
AcDbAlignedDimension
 13
4418.599999999995
 23
6412.139020432168
 33
0.0
 14
3795.665006330064
 24
6357.139020432194
 34
0.0
 50
90.0
100
AcDbRotatedDimension
1001
ACAD
1000
DSTYLE
1002
{
1070
   341
1005
0
1002
}
  0
DIMENSION
  5
23978
330
747D
100
AcDbEntity
  8
寸法
 48
50.0
100
AcDbDimension
  2
*D27
 10
11373.95750108246
 20
7172.139020432162
 30
0.0
 11
11373.95750108246
 21
7621.709886573897
 31
0.0
 70
   160
 71
     5
 42
200.0
  3
INABA_S40G
100
AcDbAlignedDimension
 13
11573.85468201165
 23
7372.139020432162
 33
0.0
 14
11573.85468201165
 24
7172.139020432162
 34
0.0
 50
90.0
100
AcDbRotatedDimension
1001
ACAD
1000
DSTYLE
1002
{
1070
   341
1005
0
1002
}
  0
DIMENSION
  5
23980
330
747D
100
AcDbEntity
  8
寸法
 48
50.0
100
AcDbDimension
  2
*D28
 10
11373.95750108246
 20
6412.139020432181
 30
0.0
 11
11373.95750108246
 21
6162.56815429045
 31
0.0
 70
   160
 71
     5
 42
280.0000000000245
  3
INABA_S40G
100
AcDbAlignedDimension
 13
11648.60000000001
 23
6692.139020432207
 33
0.0
 14
11648.60000000001
 24
6412.139020432181
 34
0.0
 50
90.0
100
AcDbRotatedDimension
1001
ACAD
1000
DSTYLE
1002
{
1070
   341
1005
0
1002
}
  0
DIMENSION
  5
239DB
330
747D
100
AcDbEntity
  8
寸法
 48
50.0
100
AcDbDimension
  2
*D29
 10
11908.6
 20
7091.826862461559
 30
0.0
 11
12298.65905511812
 21
7091.826862461559
 31
0.0
 70
   160
 71
     5
 42
120.0
  3
INABA_S40G
100
AcDbAlignedDimension
 13
12028.6
 23
7108.820126500392
 33
0.0
 14
11908.6
 24
7091.826862461559
 34
0.0
100
AcDbRotatedDimension
1001
ACAD
1000
DSTYLE
1002
{
1070
   341
1005
0
1002
}
  0
LINE
  5
26D50
330
747D
100
AcDbEntity
  8
部品1
 48
50.0
100
AcDbLine
 10
11908.6
 20
7172.139020432172
 30
0.0
 11
4538.599999999996
 21
7172.139020432175
 31
0.0
  0
DIMENSION
  5
26D51
330
747D
100
AcDbEntity
  8
寸法
 48
50.0
100
AcDbDimension
  2
*D38
 10
8223.600000000006
 20
7854.747837102421
 30
0.0
 11
8698.600000000006
 21
7954.747837102421
 31
0.0
 70
    32
 71
     5
 42
950.0
  3
INABA_S40G
100
AcDbAlignedDimension
 13
9173.600000000005
 23
6942.139020432172
 33
0.0
 14
8223.600000000006
 24
6942.139020432172
 34
0.0
100
AcDbRotatedDimension
1001
ACAD
1000
DSTYLE
1002
{
1070
   341
1005
0
1002
}
  0
LINE
  5
26D53
330
747D
100
AcDbEntity
  8
部品1
 48
50.0
100
AcDbLine
 10
12028.6
 20
7372.139020432172
 30
0.0
 11
4418.599999999999
 21
7372.139020432172
 31
0.0
  0
LINE
  5
26D55
330
747D
100
AcDbEntity
  8
部品1
 48
50.0
100
AcDbLine
 10
12028.6
 20
6412.139020432206
 30
0.0
 11
4418.599999999996
 21
6412.139020432168
 31
0.0
  0
DIMENSION
  5
26D56
330
747D
100
AcDbEntity
  8
寸法
 48
50.0
100
AcDbDimension
  2
*D39
 10
7155.599999999999
 20
8098.405478526084
 30
0.0
 11
8105.599999999999
 21
8198.405478526083
 31
0.0
 70
    32
 71
     5
 42
1899.999999999999
  3
INABA_S40G
100
AcDbAlignedDimension
 13
9055.599999999998
 23
7299.139020432173
 33
0.0
 14
7155.599999999999
 24
7299.139020432173
 34
0.0
100
AcDbRotatedDimension
1001
ACAD
1000
DSTYLE
1002
{
1070
   341
1005
0
1002
}
  0
DIMENSION
  5
26D57
330
747D
100
AcDbEntity
  8
寸法
 48
50.0
100
AcDbDimension
  2
*D40
 10
12028.6
 20
8330.359342491091
 30
0.0
 11
8223.600000000001
 21
8430.35934249109
 31
0.0
 70
    32
 71
     5
 42
7610.000000000002
  3
INABA_S40G
100
AcDbAlignedDimension
 13
4418.599999999999
 23
7372.139020432172
 33
0.0
 14
12028.6
 24
7372.139020432172
 34
0.0
100
AcDbRotatedDimension
1001
ACAD
1000
DSTYLE
1002
{
1070
   341
1005
0
1002
}
  0
DIMENSION
  5
26D58
330
747D
100
AcDbEntity
  8
寸法
 48
50.0
100
AcDbDimension
  2
*D41
 10
4901.285990614301
 20
6892.139020432172
 30
0.0
 11
4901.285990614299
 21
6119.579965314073
 31
0.0
 70
   160
 71
     5
 42
479.999999999989
  3
INABA_S40G
100
AcDbAlignedDimension
 13
4992.7654751409
 23
6412.139020432184
 33
0.0
 14
5323.600000000006
 24
6892.139020432172
 34
0.0
 50
90.0
100
AcDbRotatedDimension
1001
ACAD
1000
DSTYLE
1002
{
1070
   341
1005
0
1002
}
  0
DIMENSION
  5
26D59
330
747D
100
AcDbEntity
  8
寸法
 48
50.0
100
AcDbDimension
  2
*D42
 10
3543.721909610673
 20
6412.139020432173
 30
0.0
 11
3543.721909610673
 21
6929.639020432173
 31
0.0
 70
   160
 71
     5
 42
960.0
  3
INABA_S40G
100
AcDbAlignedDimension
 13
4418.599999999999
 23
7372.139020432172
 33
0.0
 14
4418.599999999999
 24
6412.139020432173
 34
0.0
 50
90.0
100
AcDbRotatedDimension
1001
ACAD
1000
DSTYLE
1002
{
1070
   341
1005
0
1002
}
  0
DIMENSION
  5
26D5A
330
747D
100
AcDbEntity
  8
寸法
 48
50.0
100
AcDbDimension
  2
*D43
 10
3795.665006330072
 20
6610.139020432176
 30
0.0
 11
3795.665006330071
 21
6929.639020432173
 31
0.0
 70
   160
 71
     5
 42
638.9999999999964
  3
INABA_S40G
100
AcDbAlignedDimension
 13
4491.6
 23
7249.139020432173
 33
0.0
 14
4491.600000000007
 24
6610.139020432176
 34
0.0
 50
90.0
100
AcDbRotatedDimension
1001
ACAD
1000
DSTYLE
1002
{
1070
   341
1005
0
1002
}
  0
LINE
  5
26D5C
330
747D
100
AcDbEntity
  8
部品1
 48
50.0
100
AcDbLine
 10
4418.599999999999
 20
6412.139020432173
 30
0.0
 11
4418.599999999999
 21
7372.139020432172
 31
0.0
  0
ARC
  5
26D5E
330
747D
100
AcDbEntity
  8
想像線
 48
5.0
100
AcDbCircle
 10
5188.600000000003
 20
6412.139020432175
 30
0.0
 40
720.0
100
AcDbArc
 50
180.0
 51
270.0
  0
DIMENSION
  5
26D60
330
747D
100
AcDbEntity
  8
寸法
 48
50.0
100
AcDbDimension
  2
*D44
 10
3795.665006330072
 20
6412.139020432173
 30
0.0
 11
3795.665006330071
 21
6076.60807158958
 31
0.0
 70
   160
 71
     5
 42
198.0000000000036
  3
INABA_S40G
100
AcDbAlignedDimension
 13
4491.600000000007
 23
6610.139020432176
 33
0.0
 14
4418.599999999999
 24
6412.139020432173
 34
0.0
 50
90.0
100
AcDbRotatedDimension
1001
ACAD
1000
DSTYLE
1002
{
1070
   341
1005
0
1002
}
  0
DIMENSION
  5
26D61
330
747D
100
AcDbEntity
  8
寸法
 48
50.0
100
AcDbDimension
  2
*D45
 10
4305.51267376788
 20
5692.139020432168
 30
0.0
 11
4305.512673767879
 21
6052.13902043217
 31
0.0
 70
   160
  1
扉の出<>
 71
     5
 42
720.0
  3
INABA_S40G
100
AcDbAlignedDimension
 13
4418.600000000003
 23
6412.139020432168
 33
0.0
 14
4774.325326928808
 24
5692.139020432168
 34
0.0
 50
90.0
100
AcDbRotatedDimension
1001
ACAD
1000
DSTYLE
1002
{
1070
   341
1005
0
1002
}
  0
CIRCLE
  5
26D62
330
747D
100
AcDbEntity
  8
部品1
 48
50.0
100
AcDbCircle
 10
4541.599999999992
 20
6610.139020432176
 30
0.0
 40
35.0
  0
LINE
  5
26D63
330
747D
100
AcDbEntity
  8
センター
 48
2.0
100
AcDbLine
 10
4491.600000000007
 20
6610.139020432176
 30
0.0
 11
4591.600000000006
 21
6610.139020432176
 31
0.0
  0
LINE
  5
26D64
330
747D
100
AcDbEntity
  8
センター
 48
2.0
100
AcDbLine
 10
4541.600000000006
 20
6660.139020432175
 30
0.0
 11
4541.600000000006
 21
6560.139020432176
 31
0.0
  0
LINE
  5
26D65
330
747D
100
AcDbEntity
  8
部品1
 48
50.0
100
AcDbLine
 10
4998.599999999993
 20
6692.139020432176
 30
0.0
 11
4998.599999999997
 21
6412.139020432165
 31
0.0
  0
LINE
  5
26D66
330
747D
100
AcDbEntity
  8
細線
 48
50.0
100
AcDbLine
 10
4934.404364949113
 20
6412.139020432165
 30
0.0
 11
4998.599999999999
 21
6476.334655483054
 31
0.0
  0
LINE
  5
26D67
330
747D
100
AcDbEntity
  8
部品1
 48
50.0
100
AcDbLine
 10
4798.599999999993
 20
6692.139020432172
 30
0.0
 11
4798.599999999997
 21
6412.139020432161
 31
0.0
  0
LINE
  5
26D68
330
747D
100
AcDbEntity
  8
細線
 48
50.0
100
AcDbLine
 10
4889.503084343765
 20
6412.139020432163
 30
0.0
 11
4998.599999999997
 21
6521.235936088398
 31
0.0
  0
LINE
  5
26D69
330
747D
100
AcDbEntity
  8
細線
 48
50.0
100
AcDbLine
 10
4844.601803738416
 20
6412.139020432163
 30
0.0
 11
4998.599999999996
 21
6566.137216693741
 31
0.0
  0
LINE
  5
26D6A
330
747D
100
AcDbEntity
  8
細線
 48
50.0
100
AcDbLine
 10
4799.700523133072
 20
6412.139020432161
 30
0.0
 11
4998.599999999996
 21
6611.038497299087
 31
0.0
  0
LINE
  5
26D6B
330
747D
100
AcDbEntity
  8
細線
 48
50.0
100
AcDbLine
 10
4798.599999999997
 20
6455.939777904436
 30
0.0
 11
4998.599999999994
 21
6655.93977790443
 31
0.0
  0
LINE
  5
26D6C
330
747D
100
AcDbEntity
  8
細線
 48
50.0
100
AcDbLine
 10
4979.305645554457
 20
6412.139020432167
 30
0.0
 11
4998.599999999999
 21
6431.433374877709
 31
0.0
  0
LINE
  5
26D6D
330
747D
100
AcDbEntity
  8
細線
 48
50.0
100
AcDbLine
 10
4798.599999999995
 20
6500.841058509781
 30
0.0
 11
4989.89796192239
 21
6692.139020432174
 31
0.0
  0
LINE
  5
26D6E
330
747D
100
AcDbEntity
  8
細線
 48
50.0
100
AcDbLine
 10
4798.599999999994
 20
6635.544900325816
 30
0.0
 11
4855.194120106339
 21
6692.139020432172
 31
0.0
  0
LINE
  5
26D6F
330
747D
100
AcDbEntity
  8
細線
 48
50.0
100
AcDbLine
 10
4798.599999999995
 20
6590.643619720475
 30
0.0
 11
4900.095400711691
 21
6692.139020432171
 31
0.0
  0
LINE
  5
26D70
330
747D
100
AcDbEntity
  8
細線
 48
50.0
100
AcDbLine
 10
4798.599999999997
 20
6545.742339115124
 30
0.0
 11
4944.99668131703
 21
6692.139020432172
 31
0.0
  0
LINE
  5
26D78
330
747D
100
AcDbEntity
  8
想像線
 48
5.0
100
AcDbLine
 10
5188.600000000003
 20
6412.139020432187
 30
0.0
 11
5188.600000000003
 21
5692.139020432176
 31
0.0
  0
LINE
  5
26D8B
330
747D
100
AcDbEntity
  8
センター
 48
2.0
100
AcDbLine
 10
7105.600000000006
 20
6610.139020432176
 30
0.0
 11
7205.600000000005
 21
6610.139020432176
 31
0.0
  0
CIRCLE
  5
26D8C
330
747D
100
AcDbEntity
  8
部品1
 48
50.0
100
AcDbCircle
 10
7155.600000000005
 20
6610.139020432176
 30
0.0
 40
35.0
  0
LINE
  5
26D8D
330
747D
100
AcDbEntity
  8
センター
 48
2.0
100
AcDbLine
 10
7155.600000000005
 20
6660.139020432175
 30
0.0
 11
7155.600000000005
 21
6560.139020432176
 31
0.0
  0
TEXT
  5
26D9A
330
747D
100
AcDbEntity
  8
寸法
 48
50.0
100
AcDbText
 10
8099.29281954597
 20
6430.82031122491
 30
0.0
 40
120.0
  1
扉面
  7
STYLE1
100
AcDbText
  0
DIMENSION
  5
26D9B
330
747D
100
AcDbEntity
  8
寸法
 48
50.0
100
AcDbDimension
  2
*D46
 10
4901.285990614301
 20
7372.139020432172
 30
0.0
 11
4901.285990614299
 21
7664.698075550285
 31
0.0
 70
   160
 71
     5
 42
480.0
  3
INABA_S40G
100
AcDbAlignedDimension
 13
5323.600000000006
 23
6892.139020432172
 33
0.0
 14
4992.7654751409
 24
7372.139020432172
 34
0.0
 50
90.0
100
AcDbRotatedDimension
1001
ACAD
1000
DSTYLE
1002
{
1070
   341
1005
0
1002
}
  0
DIMENSION
  5
26D9C
330
747D
100
AcDbEntity
  8
寸法
 48
50.0
100
AcDbDimension
  2
*D47
 10
4418.599999999999
 20
7854.747837102421
 30
0.0
 11
4896.100000000004
 21
7954.747837102421
 31
0.0
 70
    32
 71
     5
 42
955.0000000000073
  3
INABA_S40G
100
AcDbAlignedDimension
 13
5373.600000000006
 23
6942.139020432172
 33
0.0
 14
4418.599999999999
 24
7372.139020432172
 34
0.0
100
AcDbRotatedDimension
1001
ACAD
1000
DSTYLE
1002
{
1070
   341
1005
0
1002
}
  0
DIMENSION
  5
26D9D
330
747D
100
AcDbEntity
  8
寸法
 48
50.0
100
AcDbDimension
  2
*D48
 10
4541.599999999999
 20
8098.405478526084
 30
0.0
 11
5848.6
 21
8198.417289549706
 31
0.0
 70
    32
 71
     5
 42
2614.0
  3
INABA_S40G
100
AcDbAlignedDimension
 13
7155.599999999999
 23
7299.139020432173
 33
0.0
 14
4541.599999999999
 24
7299.139020432173
 34
0.0
100
AcDbRotatedDimension
1001
ACAD
1000
DSTYLE
1002
{
1070
   341
1005
0
1002
}
  0
DIMENSION
  5
26D9F
330
747D
100
AcDbEntity
  8
寸法
 48
50.0
100
AcDbDimension
  2
*D49
 10
4418.599999999999
 20
8098.405478526084
 30
0.0
 11
4145.493398282201
 21
8098.405478526084
 31
0.0
 70
   160
 71
     5
 42
123.0
  3
INABA_S40G
100
AcDbAlignedDimension
 13
4541.599999999999
 23
7299.139020432173
 33
0.0
 14
4418.599999999999
 24
7372.139020432172
 34
0.0
100
AcDbRotatedDimension
1001
ACAD
1000
DSTYLE
1002
{
1070
   341
1005
0
1002
}
  0
DIMENSION
  5
26DA1
330
747D
100
AcDbEntity
  8
寸法
 48
50.0
100
AcDbDimension
  2
*D50
 10
3795.665006330072
 20
7249.139020432173
 30
0.0
 11
3795.665006330071
 21
7645.245622149973
 31
0.0
 70
   160
 71
     5
 42
123.0
  3
INABA_S40G
100
AcDbAlignedDimension
 13
4418.599999999999
 23
7372.139020432172
 33
0.0
 14
4491.6
 24
7249.139020432173
 34
0.0
 50
90.0
100
AcDbRotatedDimension
1001
ACAD
1000
DSTYLE
1002
{
1070
   341
1005
0
1002
}
  0
LINE
  5
26DA2
330
747D
100
AcDbEntity
  8
細線
 48
50.0
100
AcDbLine
 10
4798.599999999997
 20
7309.064109406005
 30
0.0
 11
4861.674911026154
 21
7372.139020432162
 31
0.0
  0
LINE
  5
26DA3
330
747D
100
AcDbEntity
  8
部品1
 48
50.0
100
AcDbLine
 10
4798.599999999995
 20
7372.139020432162
 30
0.0
 11
4798.599999999999
 21
7172.139020432176
 31
0.0
  0
LINE
  5
26DA4
330
747D
100
AcDbEntity
  8
部品1
 48
50.0
100
AcDbLine
 10
4998.599999999996
 20
7372.139020432162
 30
0.0
 11
4998.599999999999
 21
7172.139020432176
 31
0.0
  0
LINE
  5
26DA5
330
747D
100
AcDbEntity
  8
細線
 48
50.0
100
AcDbLine
 10
4798.599999999999
 20
7174.360267589968
 30
0.0
 11
4996.378752842192
 21
7372.139020432162
 31
0.0
  0
LINE
  5
26DA6
330
747D
100
AcDbEntity
  8
細線
 48
50.0
100
AcDbLine
 10
4798.599999999997
 20
7219.261548195309
 30
0.0
 11
4951.477472236846
 21
7372.139020432162
 31
0.0
  0
LINE
  5
26DA7
330
747D
100
AcDbEntity
  8
細線
 48
50.0
100
AcDbLine
 10
4798.599999999997
 20
7264.162828800656
 30
0.0
 11
4906.576191631501
 21
7372.139020432162
 31
0.0
  0
LINE
  5
26DA8
330
747D
100
AcDbEntity
  8
細線
 48
50.0
100
AcDbLine
 10
4511.082594658234
 20
6817.139020432151
 30
0.0
 11
4538.599999999997
 21
6844.656425773909
 31
0.0
  0
LINE
  5
26DA9
330
747D
100
AcDbEntity
  8
細線
 48
50.0
100
AcDbLine
 10
4466.181314052891
 20
6817.139020432151
 30
0.0
 11
4538.599999999997
 21
6889.55770637926
 31
0.0
  0
LINE
  5
26DAA
330
747D
100
AcDbEntity
  8
細線
 48
50.0
100
AcDbLine
 10
4421.280033447546
 20
6817.139020432152
 30
0.0
 11
4538.599999999997
 21
6934.458986984601
 31
0.0
  0
LINE
  5
26DAB
330
747D
100
AcDbEntity
  8
細線
 48
50.0
100
AcDbLine
 10
4418.599999999982
 20
6859.360267589934
 30
0.0
 11
4538.599999999997
 21
6979.360267589949
 31
0.0
  0
LINE
  5
26DAC
330
747D
100
AcDbEntity
  8
細線
 48
50.0
100
AcDbLine
 10
4418.599999999985
 20
6904.261548195282
 30
0.0
 11
4531.477472236853
 21
7017.139020432153
 31
0.0
  0
LINE
  5
26DAD
330
747D
100
AcDbEntity
  8
細線
 48
50.0
100
AcDbLine
 10
4418.599999999985
 20
6949.162828800628
 30
0.0
 11
4486.576191631509
 21
7017.139020432151
 31
0.0
  0
LINE
  5
26DAE
330
747D
100
AcDbEntity
  8
細線
 48
50.0
100
AcDbLine
 10
4418.599999999982
 20
6994.064109405973
 30
0.0
 11
4441.674911026165
 21
7017.139020432153
 31
0.0
  0
LINE
  5
26DAF
330
747D
100
AcDbEntity
  8
部品1
 48
50.0
100
AcDbLine
 10
4538.599999999997
 20
7017.139020432153
 30
0.0
 11
4418.599999999982
 21
7017.139020432153
 31
0.0
  0
LINE
  5
26DB0
330
747D
100
AcDbEntity
  8
部品1
 48
50.0
100
AcDbLine
 10
4538.599999999998
 20
6817.139020432154
 30
0.0
 11
4418.599999999982
 21
6817.139020432152
 31
0.0
  0
CIRCLE
  5
26DB1
330
747D
100
AcDbEntity
  8
部品1
 48
50.0
100
AcDbCircle
 10
4541.599999999999
 20
7249.139020432173
 30
0.0
 40
35.0
  0
LINE
  5
26DB2
330
747D
100
AcDbEntity
  8
センター
 48
2.0
100
AcDbLine
 10
4491.6
 20
7249.139020432173
 30
0.0
 11
4591.599999999999
 21
7249.139020432173
 31
0.0
  0
LINE
  5
26DB3
330
747D
100
AcDbEntity
  8
センター
 48
2.0
100
AcDbLine
 10
4541.599999999999
 20
7299.139020432173
 30
0.0
 11
4541.599999999999
 21
7199.139020432173
 31
0.0
  0
LINE
  5
26DB4
330
747D
100
AcDbEntity
  8
細線
 48
50.0
100
AcDbLine
 10
4931.082594658253
 20
7172.139020432178
 30
0.0
 11
4998.599999999997
 21
7239.656425773922
 31
0.0
  0
LINE
  5
26DB5
330
747D
100
AcDbEntity
  8
細線
 48
50.0
100
AcDbLine
 10
4886.181314052915
 20
7172.139020432178
 30
0.0
 11
4998.599999999999
 21
7284.557706379278
 31
0.0
  0
LINE
  5
26DB6
330
747D
100
AcDbEntity
  8
細線
 48
50.0
100
AcDbLine
 10
4841.280033447553
 20
7172.139020432175
 30
0.0
 11
4998.599999999996
 21
7329.458986984619
 31
0.0
  0
LINE
  5
26DB7
330
747D
100
AcDbEntity
  8
細線
 48
50.0
100
AcDbLine
 10
4975.983875263607
 20
7172.139020432176
 30
0.0
 11
4998.599999999999
 21
7194.755145168574
 31
0.0
  0
LINE
  5
26DB8
330
747D
100
AcDbEntity
  8
細線
 48
50.0
100
AcDbLine
 10
4798.599999999995
 20
7353.965390011348
 30
0.0
 11
4816.773630420809
 21
7372.139020432162
 31
0.0
  0
LINE
  5
26DB9
330
747D
100
AcDbEntity
  8
細線
 48
50.0
100
AcDbLine
 10
6786.181314052915
 20
7172.139020432178
 30
0.0
 11
6898.599999999999
 21
7284.557706379278
 31
0.0
  0
LINE
  5
26DBA
330
747D
100
AcDbEntity
  8
細線
 48
50.0
100
AcDbLine
 10
6741.280033447553
 20
7172.139020432175
 30
0.0
 11
6898.599999999996
 21
7329.458986984619
 31
0.0
  0
LINE
  5
26DBB
330
747D
100
AcDbEntity
  8
細線
 48
50.0
100
AcDbLine
 10
6698.599999999998
 20
7174.360267589968
 30
0.0
 11
6896.378752842192
 21
7372.139020432162
 31
0.0
  0
LINE
  5
26DBC
330
747D
100
AcDbEntity
  8
細線
 48
50.0
100
AcDbLine
 10
6698.599999999998
 20
7219.261548195309
 30
0.0
 11
6851.477472236847
 21
7372.139020432162
 31
0.0
  0
LINE
  5
26DBD
330
747D
100
AcDbEntity
  8
細線
 48
50.0
100
AcDbLine
 10
6698.599999999998
 20
7264.162828800656
 30
0.0
 11
6806.576191631501
 21
7372.139020432162
 31
0.0
  0
DIMENSION
  5
26DBE
330
747D
100
AcDbEntity
  8
寸法
 48
50.0
100
AcDbDimension
  2
*D30
 10
6323.600000000006
 20
7854.747837102421
 30
0.0
 11
6798.600000000007
 21
7954.747837102421
 31
0.0
 70
    32
 71
     5
 42
950.0
  3
INABA_S40G
100
AcDbAlignedDimension
 13
7273.600000000008
 23
6942.139020432172
 33
0.0
 14
6323.600000000006
 24
6942.139020432172
 34
0.0
100
AcDbRotatedDimension
1001
ACAD
1000
DSTYLE
1002
{
1070
   341
1005
0
1002
}
  0
DIMENSION
  5
26DC0
330
747D
100
AcDbEntity
  8
寸法
 48
50.0
100
AcDbDimension
  2
*D31
 10
5373.600000000006
 20
7854.747837102421
 30
0.0
 11
5848.600000000007
 21
7954.747837102421
 31
0.0
 70
    32
 71
     5
 42
950.0
  3
INABA_S40G
100
AcDbAlignedDimension
 13
6323.600000000006
 23
6942.139020432172
 33
0.0
 14
5373.600000000006
 24
6942.139020432172
 34
0.0
100
AcDbRotatedDimension
1001
ACAD
1000
DSTYLE
1002
{
1070
   341
1005
0
1002
}
  0
LINE
  5
26DC1
330
747D
100
AcDbEntity
  8
細線
 48
50.0
100
AcDbLine
 10
5748.599999999997
 20
7309.064109406005
 30
0.0
 11
5811.674911026154
 21
7372.139020432162
 31
0.0
  0
LINE
  5
26DC2
330
747D
100
AcDbEntity
  8
細線
 48
50.0
100
AcDbLine
 10
5748.599999999997
 20
7264.162828800656
 30
0.0
 11
5856.576191631501
 21
7372.139020432162
 31
0.0
  0
LINE
  5
26DC3
330
747D
100
AcDbEntity
  8
細線
 48
50.0
100
AcDbLine
 10
5748.599999999997
 20
7219.261548195309
 30
0.0
 11
5901.477472236846
 21
7372.139020432162
 31
0.0
  0
LINE
  5
26DC4
330
747D
100
AcDbEntity
  8
細線
 48
50.0
100
AcDbLine
 10
5748.599999999999
 20
7174.360267589968
 30
0.0
 11
5946.378752842192
 21
7372.139020432162
 31
0.0
  0
LINE
  5
26DC5
330
747D
100
AcDbEntity
  8
部品1
 48
50.0
100
AcDbLine
 10
5948.599999999996
 20
7372.139020432162
 30
0.0
 11
5948.599999999999
 21
7172.139020432176
 31
0.0
  0
LINE
  5
26DC6
330
747D
100
AcDbEntity
  8
部品1
 48
50.0
100
AcDbLine
 10
5748.599999999996
 20
7372.139020432162
 30
0.0
 11
5748.599999999999
 21
7172.139020432176
 31
0.0
  0
LINE
  5
26DC7
330
747D
100
AcDbEntity
  8
センター
 48
2.0
100
AcDbLine
 10
5323.600000000006
 20
6892.139020432172
 30
0.0
 11
5423.600000000007
 21
6892.139020432172
 31
0.0
  0
LINE
  5
26DC8
330
747D
100
AcDbEntity
  8
部品1
 48
50.0
100
AcDbLine
 10
5473.600000000007
 20
6992.139020432173
 30
0.0
 11
5273.600000000007
 21
6992.139020432173
 31
0.0
  0
LINE
  5
26DC9
330
747D
100
AcDbEntity
  8
部品1
 48
50.0
100
AcDbLine
 10
5473.600000000007
 20
6792.139020432172
 30
0.0
 11
5273.600000000007
 21
6792.139020432172
 31
0.0
  0
LINE
  5
26DCA
330
747D
100
AcDbEntity
  8
部品1
 48
50.0
100
AcDbLine
 10
5273.600000000007
 20
6792.139020432172
 30
0.0
 11
5273.600000000007
 21
6992.139020432173
 31
0.0
  0
LINE
  5
26DCB
330
747D
100
AcDbEntity
  8
部品1
 48
50.0
100
AcDbLine
 10
5473.600000000007
 20
6792.139020432172
 30
0.0
 11
5473.600000000007
 21
6992.139020432173
 31
0.0
  0
LINE
  5
26DCC
330
747D
100
AcDbEntity
  8
センター
 48
2.0
100
AcDbLine
 10
5373.600000000006
 20
6942.139020432172
 30
0.0
 11
5373.600000000006
 21
6842.139020432172
 31
0.0
  0
LINE
  5
26DCD
330
747D
100
AcDbEntity
  8
細線
 48
50.0
100
AcDbLine
 10
5881.082594658252
 20
7172.139020432178
 30
0.0
 11
5948.599999999998
 21
7239.656425773922
 31
0.0
  0
LINE
  5
26DCE
330
747D
100
AcDbEntity
  8
細線
 48
50.0
100
AcDbLine
 10
5925.983875263607
 20
7172.139020432176
 30
0.0
 11
5948.599999999999
 21
7194.755145168574
 31
0.0
  0
LINE
  5
26DCF
330
747D
100
AcDbEntity
  8
細線
 48
50.0
100
AcDbLine
 10
5791.280033447553
 20
7172.139020432175
 30
0.0
 11
5948.599999999996
 21
7329.458986984619
 31
0.0
  0
LINE
  5
26DD0
330
747D
100
AcDbEntity
  8
細線
 48
50.0
100
AcDbLine
 10
5836.181314052915
 20
7172.139020432178
 30
0.0
 11
5948.599999999999
 21
7284.557706379278
 31
0.0
  0
LINE
  5
26DD1
330
747D
100
AcDbEntity
  8
細線
 48
50.0
100
AcDbLine
 10
5748.599999999996
 20
7353.965390011348
 30
0.0
 11
5766.773630420809
 21
7372.139020432162
 31
0.0
  0
LINE
  5
26DD2
330
747D
100
AcDbEntity
  8
細線
 48
50.0
100
AcDbLine
 10
6698.599999999998
 20
7309.064109406005
 30
0.0
 11
6761.674911026155
 21
7372.139020432162
 31
0.0
  0
LINE
  5
26DD3
330
747D
100
AcDbEntity
  8
部品1
 48
50.0
100
AcDbLine
 10
6698.599999999996
 20
7372.139020432162
 30
0.0
 11
6698.599999999998
 21
7172.139020432176
 31
0.0
  0
LINE
  5
26DD4
330
747D
100
AcDbEntity
  8
部品1
 48
50.0
100
AcDbLine
 10
6423.600000000007
 20
6992.139020432173
 30
0.0
 11
6223.600000000007
 21
6992.139020432173
 31
0.0
  0
LINE
  5
26DD5
330
747D
100
AcDbEntity
  8
部品1
 48
50.0
100
AcDbLine
 10
6423.600000000007
 20
6792.139020432172
 30
0.0
 11
6223.600000000007
 21
6792.139020432172
 31
0.0
  0
LINE
  5
26DD6
330
747D
100
AcDbEntity
  8
センター
 48
2.0
100
AcDbLine
 10
6273.600000000007
 20
6892.139020432172
 30
0.0
 11
6373.600000000006
 21
6892.139020432172
 31
0.0
  0
LINE
  5
26DD7
330
747D
100
AcDbEntity
  8
部品1
 48
50.0
100
AcDbLine
 10
6223.600000000007
 20
6792.139020432172
 30
0.0
 11
6223.600000000007
 21
6992.139020432173
 31
0.0
  0
LINE
  5
26DD8
330
747D
100
AcDbEntity
  8
センター
 48
2.0
100
AcDbLine
 10
6323.600000000006
 20
6942.139020432172
 30
0.0
 11
6323.600000000006
 21
6842.139020432172
 31
0.0
  0
LINE
  5
26DD9
330
747D
100
AcDbEntity
  8
部品1
 48
50.0
100
AcDbLine
 10
6423.600000000007
 20
6792.139020432172
 30
0.0
 11
6423.600000000007
 21
6992.139020432173
 31
0.0
  0
LINE
  5
26DDA
330
747D
100
AcDbEntity
  8
細線
 48
50.0
100
AcDbLine
 10
6698.599999999996
 20
7353.965390011348
 30
0.0
 11
6716.773630420809
 21
7372.139020432162
 31
0.0
  0
DIMENSION
  5
26DDB
330
747D
100
AcDbEntity
  8
寸法
 48
50.0
100
AcDbDimension
  2
*D32
 10
7273.600000000008
 20
7854.747837102421
 30
0.0
 11
7748.600000000006
 21
7954.747837102421
 31
0.0
 70
    32
 71
     5
 42
949.9999999999991
  3
INABA_S40G
100
AcDbAlignedDimension
 13
8223.600000000006
 23
6942.139020432172
 33
0.0
 14
7273.600000000008
 24
6942.139020432172
 34
0.0
100
AcDbRotatedDimension
1001
ACAD
1000
DSTYLE
1002
{
1070
   341
1005
0
1002
}
  0
LINE
  5
26DDC
330
747D
100
AcDbEntity
  8
部品1
 48
50.0
100
AcDbLine
 10
6898.599999999996
 20
7372.139020432162
 30
0.0
 11
6898.599999999999
 21
7172.139020432176
 31
0.0
  0
LINE
  5
26DDD
330
747D
100
AcDbEntity
  8
部品1
 48
50.0
100
AcDbLine
 10
7373.600000000007
 20
6992.139020432173
 30
0.0
 11
7173.600000000007
 21
6992.139020432173
 31
0.0
  0
LINE
  5
26DDE
330
747D
100
AcDbEntity
  8
部品1
 48
50.0
100
AcDbLine
 10
7373.600000000007
 20
6792.139020432172
 30
0.0
 11
7173.600000000007
 21
6792.139020432172
 31
0.0
  0
LINE
  5
26DDF
330
747D
100
AcDbEntity
  8
部品1
 48
50.0
100
AcDbLine
 10
7173.600000000007
 20
6792.139020432172
 30
0.0
 11
7173.600000000007
 21
6992.139020432173
 31
0.0
  0
LINE
  5
26DE0
330
747D
100
AcDbEntity
  8
細線
 48
50.0
100
AcDbLine
 10
6875.983875263607
 20
7172.139020432176
 30
0.0
 11
6898.599999999999
 21
7194.755145168574
 31
0.0
  0
LINE
  5
26DE1
330
747D
100
AcDbEntity
  8
細線
 48
50.0
100
AcDbLine
 10
6831.082594658252
 20
7172.139020432178
 30
0.0
 11
6898.599999999998
 21
7239.656425773922
 31
0.0
  0
CIRCLE
  5
26DE2
330
747D
100
AcDbEntity
  8
部品1
 48
50.0
100
AcDbCircle
 10
7155.599999999999
 20
7249.139020432173
 30
0.0
 40
35.0
  0
LINE
  5
26DE3
330
747D
100
AcDbEntity
  8
センター
 48
2.0
100
AcDbLine
 10
7105.599999999999
 20
7249.139020432173
 30
0.0
 11
7205.6
 21
7249.139020432173
 31
0.0
  0
LINE
  5
26DE4
330
747D
100
AcDbEntity
  8
センター
 48
2.0
100
AcDbLine
 10
7155.599999999999
 20
7299.139020432173
 30
0.0
 11
7155.599999999999
 21
7199.139020432173
 31
0.0
  0
LINE
  5
26DE5
330
747D
100
AcDbEntity
  8
センター
 48
2.0
100
AcDbLine
 10
7223.600000000008
 20
6892.139020432172
 30
0.0
 11
7323.600000000007
 21
6892.139020432172
 31
0.0
  0
LINE
  5
26DE6
330
747D
100
AcDbEntity
  8
センター
 48
2.0
100
AcDbLine
 10
7273.600000000008
 20
6942.139020432172
 30
0.0
 11
7273.600000000008
 21
6842.139020432172
 31
0.0
  0
LINE
  5
26DE7
330
747D
100
AcDbEntity
  8
部品1
 48
50.0
100
AcDbLine
 10
7373.600000000007
 20
6792.139020432172
 30
0.0
 11
7373.600000000007
 21
6992.139020432173
 31
0.0
  0
LINE
  5
26DE8
330
747D
100
AcDbEntity
  8
部品1
 48
50.0
100
AcDbLine
 10
7848.599999999996
 20
7372.139020432162
 30
0.0
 11
7848.599999999999
 21
7172.139020432176
 31
0.0
  0
LINE
  5
26DE9
330
747D
100
AcDbEntity
  8
細線
 48
50.0
100
AcDbLine
 10
7648.599999999998
 20
7309.064109406005
 30
0.0
 11
7711.674911026155
 21
7372.139020432162
 31
0.0
  0
LINE
  5
26DEA
330
747D
100
AcDbEntity
  8
部品1
 48
50.0
100
AcDbLine
 10
7648.599999999996
 20
7372.139020432162
 30
0.0
 11
7648.599999999999
 21
7172.139020432176
 31
0.0
  0
LINE
  5
26DEB
330
747D
100
AcDbEntity
  8
細線
 48
50.0
100
AcDbLine
 10
7648.599999999998
 20
7264.162828800656
 30
0.0
 11
7756.576191631501
 21
7372.139020432162
 31
0.0
  0
LINE
  5
26DEC
330
747D
100
AcDbEntity
  8
細線
 48
50.0
100
AcDbLine
 10
7648.599999999999
 20
7174.360267589968
 30
0.0
 11
7846.378752842191
 21
7372.139020432162
 31
0.0
  0
LINE
  5
26DED
330
747D
100
AcDbEntity
  8
細線
 48
50.0
100
AcDbLine
 10
7648.599999999998
 20
7219.261548195309
 30
0.0
 11
7801.477472236847
 21
7372.139020432162
 31
0.0
  0
LINE
  5
26DF0
330
747D
100
AcDbEntity
  8
細線
 48
50.0
100
AcDbLine
 10
7825.983875263607
 20
7172.139020432176
 30
0.0
 11
7848.599999999999
 21
7194.755145168574
 31
0.0
  0
LINE
  5
26DF1
330
747D
100
AcDbEntity
  8
細線
 48
50.0
100
AcDbLine
 10
7781.082594658252
 20
7172.139020432178
 30
0.0
 11
7848.599999999997
 21
7239.656425773922
 31
0.0
  0
LINE
  5
26DF2
330
747D
100
AcDbEntity
  8
細線
 48
50.0
100
AcDbLine
 10
7736.181314052915
 20
7172.139020432178
 30
0.0
 11
7848.599999999999
 21
7284.557706379278
 31
0.0
  0
LINE
  5
26DF3
330
747D
100
AcDbEntity
  8
細線
 48
50.0
100
AcDbLine
 10
7691.280033447553
 20
7172.139020432175
 30
0.0
 11
7848.599999999996
 21
7329.458986984619
 31
0.0
  0
LINE
  5
26DF4
330
747D
100
AcDbEntity
  8
部品1
 48
50.0
100
AcDbLine
 10
8323.600000000006
 20
6992.139020432173
 30
0.0
 11
8123.600000000008
 21
6992.139020432173
 31
0.0
  0
LINE
  5
26DF5
330
747D
100
AcDbEntity
  8
センター
 48
2.0
100
AcDbLine
 10
8173.600000000007
 20
6892.139020432172
 30
0.0
 11
8273.600000000007
 21
6892.139020432172
 31
0.0
  0
LINE
  5
26DF6
330
747D
100
AcDbEntity
  8
部品1
 48
50.0
100
AcDbLine
 10
8323.600000000006
 20
6792.139020432172
 30
0.0
 11
8123.600000000008
 21
6792.139020432172
 31
0.0
  0
LINE
  5
26DF7
330
747D
100
AcDbEntity
  8
部品1
 48
50.0
100
AcDbLine
 10
8123.600000000008
 20
6792.139020432172
 30
0.0
 11
8123.600000000008
 21
6992.139020432173
 31
0.0
  0
LINE
  5
26DF8
330
747D
100
AcDbEntity
  8
センター
 48
2.0
100
AcDbLine
 10
8223.600000000006
 20
6942.139020432172
 30
0.0
 11
8223.600000000006
 21
6842.139020432172
 31
0.0
  0
LINE
  5
26DF9
330
747D
100
AcDbEntity
  8
部品1
 48
50.0
100
AcDbLine
 10
8323.600000000006
 20
6792.139020432172
 30
0.0
 11
8323.600000000006
 21
6992.139020432173
 31
0.0
  0
LINE
  5
26DFA
330
747D
100
AcDbEntity
  8
細線
 48
50.0
100
AcDbLine
 10
7648.599999999996
 20
7353.965390011348
 30
0.0
 11
7666.773630420809
 21
7372.139020432162
 31
0.0
  0
LINE
  5
26DFD
330
747D
100
AcDbEntity
  8
部品1
 48
50.0
100
AcDbLine
 10
12028.6
 20
6412.139020432191
 30
0.0
 11
12028.6
 21
7372.139020432172
 31
0.0
  0
LINE
  5
26E0C
330
747D
100
AcDbEntity
  8
センター
 48
2.0
100
AcDbLine
 10
9005.600000000006
 20
6610.139020432176
 30
0.0
 11
9105.600000000006
 21
6610.139020432176
 31
0.0
  0
LINE
  5
26E0D
330
747D
100
AcDbEntity
  8
センター
 48
2.0
100
AcDbLine
 10
9005.600000000006
 20
6610.139020432176
 30
0.0
 11
9105.600000000006
 21
6610.139020432176
 31
0.0
  0
CIRCLE
  5
26E0E
330
747D
100
AcDbEntity
  8
部品1
 48
50.0
100
AcDbCircle
 10
9055.600000000005
 20
6610.139020432176
 30
0.0
 40
35.0
  0
CIRCLE
  5
26E0F
330
747D
100
AcDbEntity
  8
部品1
 48
50.0
100
AcDbCircle
 10
9055.600000000005
 20
6610.139020432176
 30
0.0
 40
35.0
  0
LINE
  5
26E10
330
747D
100
AcDbEntity
  8
センター
 48
2.0
100
AcDbLine
 10
9055.600000000005
 20
6660.139020432175
 30
0.0
 11
9055.600000000005
 21
6560.139020432176
 31
0.0
  0
LINE
  5
26E11
330
747D
100
AcDbEntity
  8
センター
 48
2.0
100
AcDbLine
 10
9055.600000000005
 20
6660.139020432175
 30
0.0
 11
9055.600000000005
 21
6560.139020432176
 31
0.0
  0
LINE
  5
26E3A
330
747D
100
AcDbEntity
  8
センター
 48
2.0
100
AcDbLine
 10
11855.60000000001
 20
6610.139020432176
 30
0.0
 11
11955.60000000001
 21
6610.139020432176
 31
0.0
  0
CIRCLE
  5
26E3B
330
747D
100
AcDbEntity
  8
部品1
 48
50.0
100
AcDbCircle
 10
11905.60000000001
 20
6610.139020432176
 30
0.0
 40
35.0
  0
LINE
  5
26E3C
330
747D
100
AcDbEntity
  8
センター
 48
2.0
100
AcDbLine
 10
11905.60000000001
 20
6660.139020432175
 30
0.0
 11
11905.60000000001
 21
6560.139020432176
 31
0.0
  0
DIMENSION
  5
26E3D
330
747D
100
AcDbEntity
  8
寸法
 48
50.0
100
AcDbDimension
  2
*D33
 10
11073.60000000001
 20
7854.747837102421
 30
0.0
 11
11551.1
 21
7954.747837102421
 31
0.0
 70
    32
 71
     5
 42
954.9999999999927
  3
INABA_S40G
100
AcDbAlignedDimension
 13
12028.6
 23
7372.139020432172
 33
0.0
 14
11073.60000000001
 24
6942.139020432172
 34
0.0
100
AcDbRotatedDimension
1001
ACAD
1000
DSTYLE
1002
{
1070
   341
1005
0
1002
}
  0
DIMENSION
  5
26E3E
330
747D
100
AcDbEntity
  8
寸法
 48
50.0
100
AcDbDimension
  2
*D34
 10
9055.599999999998
 20
8098.405478526084
 30
0.0
 11
10480.6
 21
8198.417289549706
 31
0.0
 70
    32
 71
     5
 42
2850.000000000004
  3
INABA_S40G
100
AcDbAlignedDimension
 13
11905.6
 23
7299.139020432173
 33
0.0
 14
9055.599999999998
 24
7299.139020432173
 34
0.0
100
AcDbRotatedDimension
1001
ACAD
1000
DSTYLE
1002
{
1070
   341
1005
0
1002
}
  0
LINE
  5
26E3F
330
747D
100
AcDbEntity
  8
センター
 48
2.0
100
AcDbLine
 10
10073.60000000001
 20
6892.139020432172
 30
0.0
 11
10173.60000000001
 21
6892.139020432172
 31
0.0
  0
LINE
  5
26E40
330
747D
100
AcDbEntity
  8
部品1
 48
50.0
100
AcDbLine
 10
10223.60000000001
 20
6992.139020432173
 30
0.0
 11
10023.60000000001
 21
6992.139020432173
 31
0.0
  0
DIMENSION
  5
26E41
330
747D
100
AcDbEntity
  8
寸法
 48
50.0
100
AcDbDimension
  2
*D35
 10
9173.600000000005
 20
7854.747837102421
 30
0.0
 11
9648.600000000008
 21
7954.747837102421
 31
0.0
 70
    32
 71
     5
 42
950.0000000000037
  3
INABA_S40G
100
AcDbAlignedDimension
 13
10123.60000000001
 23
6942.139020432172
 33
0.0
 14
9173.600000000005
 24
6942.139020432172
 34
0.0
100
AcDbRotatedDimension
1001
ACAD
1000
DSTYLE
1002
{
1070
   341
1005
0
1002
}
  0
LINE
  5
26E42
330
747D
100
AcDbEntity
  8
部品1
 48
50.0
100
AcDbLine
 10
10223.60000000001
 20
6792.139020432172
 30
0.0
 11
10023.60000000001
 21
6792.139020432172
 31
0.0
  0
LINE
  5
26E43
330
747D
100
AcDbEntity
  8
部品1
 48
50.0
100
AcDbLine
 10
9273.600000000008
 20
6992.139020432173
 30
0.0
 11
9073.600000000006
 21
6992.139020432173
 31
0.0
  0
LINE
  5
26E44
330
747D
100
AcDbEntity
  8
部品1
 48
50.0
100
AcDbLine
 10
9273.600000000008
 20
6792.139020432172
 30
0.0
 11
9073.600000000006
 21
6792.139020432172
 31
0.0
  0
LINE
  5
26E45
330
747D
100
AcDbEntity
  8
細線
 48
50.0
100
AcDbLine
 10
8598.599999999999
 20
7309.064109406005
 30
0.0
 11
8661.674911026155
 21
7372.139020432162
 31
0.0
  0
LINE
  5
26E46
330
747D
100
AcDbEntity
  8
細線
 48
50.0
100
AcDbLine
 10
8598.599999999999
 20
7264.162828800656
 30
0.0
 11
8706.576191631503
 21
7372.139020432162
 31
0.0
  0
LINE
  5
26E47
330
747D
100
AcDbEntity
  8
細線
 48
50.0
100
AcDbLine
 10
8598.599999999999
 20
7219.261548195309
 30
0.0
 11
8751.477472236846
 21
7372.139020432162
 31
0.0
  0
LINE
  5
26E48
330
747D
100
AcDbEntity
  8
細線
 48
50.0
100
AcDbLine
 10
8598.599999999999
 20
7174.360267589968
 30
0.0
 11
8796.378752842192
 21
7372.139020432162
 31
0.0
  0
LINE
  5
26E49
330
747D
100
AcDbEntity
  8
部品1
 48
50.0
100
AcDbLine
 10
8798.599999999995
 20
7372.139020432162
 30
0.0
 11
8798.599999999998
 21
7172.139020432176
 31
0.0
  0
LINE
  5
26E4A
330
747D
100
AcDbEntity
  8
部品1
 48
50.0
100
AcDbLine
 10
8598.599999999995
 20
7372.139020432162
 30
0.0
 11
8598.599999999999
 21
7172.139020432176
 31
0.0
  0
LINE
  5
26E4B
330
747D
100
AcDbEntity
  8
細線
 48
50.0
100
AcDbLine
 10
8641.280033447555
 20
7172.139020432175
 30
0.0
 11
8798.599999999995
 21
7329.458986984619
 31
0.0
  0
LINE
  5
26E4C
330
747D
100
AcDbEntity
  8
細線
 48
50.0
100
AcDbLine
 10
8731.082594658252
 20
7172.139020432178
 30
0.0
 11
8798.599999999998
 21
7239.656425773922
 31
0.0
  0
LINE
  5
26E4D
330
747D
100
AcDbEntity
  8
細線
 48
50.0
100
AcDbLine
 10
8775.983875263605
 20
7172.139020432176
 30
0.0
 11
8798.599999999998
 21
7194.755145168574
 31
0.0
  0
LINE
  5
26E4E
330
747D
100
AcDbEntity
  8
細線
 48
50.0
100
AcDbLine
 10
8686.181314052916
 20
7172.139020432178
 30
0.0
 11
8798.599999999998
 21
7284.557706379278
 31
0.0
  0
LINE
  5
26E4F
330
747D
100
AcDbEntity
  8
センター
 48
2.0
100
AcDbLine
 10
9123.600000000006
 20
6892.139020432172
 30
0.0
 11
9223.60000000001
 21
6892.139020432172
 31
0.0
  0
LINE
  5
26E50
330
747D
100
AcDbEntity
  8
センター
 48
2.0
100
AcDbLine
 10
9173.600000000005
 20
6942.139020432172
 30
0.0
 11
9173.600000000005
 21
6842.139020432172
 31
0.0
  0
LINE
  5
26E51
330
747D
100
AcDbEntity
  8
部品1
 48
50.0
100
AcDbLine
 10
9073.600000000006
 20
6792.139020432172
 30
0.0
 11
9073.600000000006
 21
6992.139020432173
 31
0.0
  0
LINE
  5
26E52
330
747D
100
AcDbEntity
  8
センター
 48
2.0
100
AcDbLine
 10
9005.599999999999
 20
7249.139020432173
 30
0.0
 11
9105.599999999999
 21
7249.139020432173
 31
0.0
  0
CIRCLE
  5
26E53
330
747D
100
AcDbEntity
  8
部品1
 48
50.0
100
AcDbCircle
 10
9055.599999999998
 20
7249.139020432173
 30
0.0
 40
35.0
  0
LINE
  5
26E54
330
747D
100
AcDbEntity
  8
センター
 48
2.0
100
AcDbLine
 10
9005.599999999999
 20
7249.139020432173
 30
0.0
 11
9105.599999999999
 21
7249.139020432173
 31
0.0
  0
CIRCLE
  5
26E55
330
747D
100
AcDbEntity
  8
部品1
 48
50.0
100
AcDbCircle
 10
9055.599999999998
 20
7249.139020432173
 30
0.0
 40
35.0
  0
LINE
  5
26E56
330
747D
100
AcDbEntity
  8
センター
 48
2.0
100
AcDbLine
 10
9055.599999999998
 20
7299.139020432173
 30
0.0
 11
9055.599999999998
 21
7199.139020432173
 31
0.0
  0
LINE
  5
26E57
330
747D
100
AcDbEntity
  8
センター
 48
2.0
100
AcDbLine
 10
9055.599999999998
 20
7299.139020432173
 30
0.0
 11
9055.599999999998
 21
7199.139020432173
 31
0.0
  0
LINE
  5
26E58
330
747D
100
AcDbEntity
  8
細線
 48
50.0
100
AcDbLine
 10
8598.599999999995
 20
7353.965390011348
 30
0.0
 11
8616.773630420809
 21
7372.139020432162
 31
0.0
  0
LINE
  5
26E59
330
747D
100
AcDbEntity
  8
細線
 48
50.0
100
AcDbLine
 10
9548.599999999998
 20
7309.064109405984
 30
0.0
 11
9611.674911026156
 21
7372.13902043214
 31
0.0
  0
LINE
  5
26E5A
330
747D
100
AcDbEntity
  8
細線
 48
50.0
100
AcDbLine
 10
9548.599999999998
 20
7219.261548195287
 30
0.0
 11
9701.477472236851
 21
7372.13902043214
 31
0.0
  0
LINE
  5
26E5B
330
747D
100
AcDbEntity
  8
細線
 48
50.0
100
AcDbLine
 10
9548.600000000002
 20
7174.360267589945
 30
0.0
 11
9746.378752842193
 21
7372.13902043214
 31
0.0
  0
LINE
  5
26E5C
330
747D
100
AcDbEntity
  8
細線
 48
50.0
100
AcDbLine
 10
9548.599999999998
 20
7264.162828800635
 30
0.0
 11
9656.576191631502
 21
7372.13902043214
 31
0.0
  0
LINE
  5
26E5D
330
747D
100
AcDbEntity
  8
部品1
 48
50.0
100
AcDbLine
 10
9548.599999999995
 20
7372.13902043214
 30
0.0
 11
9548.600000000002
 21
7172.139020432154
 31
0.0
  0
LINE
  5
26E5E
330
747D
100
AcDbEntity
  8
部品1
 48
50.0
100
AcDbLine
 10
9748.599999999996
 20
7372.13902043214
 30
0.0
 11
9748.600000000003
 21
7172.139020432154
 31
0.0
  0
LINE
  5
26E5F
330
747D
100
AcDbEntity
  8
細線
 48
50.0
100
AcDbLine
 10
9591.280033447555
 20
7172.139020432152
 30
0.0
 11
9748.599999999996
 21
7329.458986984596
 31
0.0
  0
LINE
  5
26E60
330
747D
100
AcDbEntity
  8
細線
 48
50.0
100
AcDbLine
 10
9636.181314052917
 20
7172.139020432156
 30
0.0
 11
9748.600000000003
 21
7284.557706379256
 31
0.0
  0
LINE
  5
26E61
330
747D
100
AcDbEntity
  8
部品1
 48
50.0
100
AcDbLine
 10
9273.600000000008
 20
6792.139020432172
 30
0.0
 11
9273.600000000008
 21
6992.139020432173
 31
0.0
  0
LINE
  5
26E62
330
747D
100
AcDbEntity
  8
部品1
 48
50.0
100
AcDbLine
 10
10023.60000000001
 20
6792.139020432172
 30
0.0
 11
10023.60000000001
 21
6992.139020432173
 31
0.0
  0
LINE
  5
26E63
330
747D
100
AcDbEntity
  8
細線
 48
50.0
100
AcDbLine
 10
9681.082594658253
 20
7172.139020432156
 30
0.0
 11
9748.599999999999
 21
7239.656425773901
 31
0.0
  0
LINE
  5
26E64
330
747D
100
AcDbEntity
  8
細線
 48
50.0
100
AcDbLine
 10
9725.98387526361
 20
7172.139020432154
 30
0.0
 11
9748.600000000003
 21
7194.755145168553
 31
0.0
  0
LINE
  5
26E65
330
747D
100
AcDbEntity
  8
細線
 48
50.0
100
AcDbLine
 10
9548.599999999995
 20
7353.965390011326
 30
0.0
 11
9566.773630420811
 21
7372.13902043214
 31
0.0
  0
DIMENSION
  5
26E66
330
747D
100
AcDbEntity
  8
寸法
 48
50.0
100
AcDbDimension
  2
*D36
 10
10123.60000000001
 20
7854.747837102421
 30
0.0
 11
10598.60000000001
 21
7954.747837102421
 31
0.0
 70
    32
 71
     5
 42
950.0
  3
INABA_S40G
100
AcDbAlignedDimension
 13
11073.60000000001
 23
6942.139020432172
 33
0.0
 14
10123.60000000001
 24
6942.139020432172
 34
0.0
100
AcDbRotatedDimension
1001
ACAD
1000
DSTYLE
1002
{
1070
   341
1005
0
1002
}
  0
LINE
  5
26E67
330
747D
100
AcDbEntity
  8
細線
 48
50.0
100
AcDbLine
 10
10498.6
 20
7309.064109405984
 30
0.0
 11
10561.67491102615
 21
7372.13902043214
 31
0.0
  0
LINE
  5
26E68
330
747D
100
AcDbEntity
  8
部品1
 48
50.0
100
AcDbLine
 10
10498.59999999999
 20
7372.13902043214
 30
0.0
 11
10498.6
 21
7172.139020432154
 31
0.0
  0
LINE
  5
26E69
330
747D
100
AcDbEntity
  8
部品1
 48
50.0
100
AcDbLine
 10
10698.59999999999
 20
7372.13902043214
 30
0.0
 11
10698.6
 21
7172.139020432154
 31
0.0
  0
LINE
  5
26E6A
330
747D
100
AcDbEntity
  8
細線
 48
50.0
100
AcDbLine
 10
10498.6
 20
7174.360267589945
 30
0.0
 11
10696.37875284219
 21
7372.13902043214
 31
0.0
  0
LINE
  5
26E6B
330
747D
100
AcDbEntity
  8
細線
 48
50.0
100
AcDbLine
 10
10498.6
 20
7219.261548195287
 30
0.0
 11
10651.47747223685
 21
7372.13902043214
 31
0.0
  0
LINE
  5
26E6C
330
747D
100
AcDbEntity
  8
細線
 48
50.0
100
AcDbLine
 10
10498.6
 20
7264.162828800635
 30
0.0
 11
10606.5761916315
 21
7372.13902043214
 31
0.0
  0
LINE
  5
26E6D
330
747D
100
AcDbEntity
  8
センター
 48
2.0
100
AcDbLine
 10
10123.60000000001
 20
6942.139020432172
 30
0.0
 11
10123.60000000001
 21
6842.139020432172
 31
0.0
  0
LINE
  5
26E6E
330
747D
100
AcDbEntity
  8
部品1
 48
50.0
100
AcDbLine
 10
10223.60000000001
 20
6792.139020432172
 30
0.0
 11
10223.60000000001
 21
6992.139020432173
 31
0.0
  0
LINE
  5
26E6F
330
747D
100
AcDbEntity
  8
細線
 48
50.0
100
AcDbLine
 10
10675.98387526361
 20
7172.139020432154
 30
0.0
 11
10698.6
 21
7194.755145168553
 31
0.0
  0
LINE
  5
26E70
330
747D
100
AcDbEntity
  8
細線
 48
50.0
100
AcDbLine
 10
10631.08259465825
 20
7172.139020432156
 30
0.0
 11
10698.6
 21
7239.656425773901
 31
0.0
  0
LINE
  5
26E71
330
747D
100
AcDbEntity
  8
細線
 48
50.0
100
AcDbLine
 10
10586.18131405291
 20
7172.139020432156
 30
0.0
 11
10698.6
 21
7284.557706379256
 31
0.0
  0
LINE
  5
26E72
330
747D
100
AcDbEntity
  8
細線
 48
50.0
100
AcDbLine
 10
10541.28003344755
 20
7172.139020432152
 30
0.0
 11
10698.59999999999
 21
7329.458986984596
 31
0.0
  0
LINE
  5
26E73
330
747D
100
AcDbEntity
  8
細線
 48
50.0
100
AcDbLine
 10
10498.59999999999
 20
7353.965390011326
 30
0.0
 11
10516.77363042081
 21
7372.13902043214
 31
0.0
  0
LINE
  5
26E74
330
747D
100
AcDbEntity
  8
細線
 48
50.0
100
AcDbLine
 10
11448.6
 20
7309.064109405984
 30
0.0
 11
11511.67491102615
 21
7372.13902043214
 31
0.0
  0
LINE
  5
26E75
330
747D
100
AcDbEntity
  8
細線
 48
50.0
100
AcDbLine
 10
11448.6
 20
7264.162828800635
 30
0.0
 11
11556.5761916315
 21
7372.13902043214
 31
0.0
  0
LINE
  5
26E76
330
747D
100
AcDbEntity
  8
細線
 48
50.0
100
AcDbLine
 10
11448.6
 20
7219.261548195287
 30
0.0
 11
11601.47747223685
 21
7372.13902043214
 31
0.0
  0
LINE
  5
26E77
330
747D
100
AcDbEntity
  8
細線
 48
50.0
100
AcDbLine
 10
11448.6
 20
7174.360267589945
 30
0.0
 11
11646.37875284219
 21
7372.13902043214
 31
0.0
  0
LINE
  5
26E78
330
747D
100
AcDbEntity
  8
部品1
 48
50.0
100
AcDbLine
 10
11648.59999999999
 20
7372.13902043214
 30
0.0
 11
11648.6
 21
7172.139020432154
 31
0.0
  0
LINE
  5
26E79
330
747D
100
AcDbEntity
  8
部品1
 48
50.0
100
AcDbLine
 10
11448.59999999999
 20
7372.13902043214
 30
0.0
 11
11448.6
 21
7172.139020432154
 31
0.0
  0
LINE
  5
26E7A
330
747D
100
AcDbEntity
  8
部品1
 48
50.0
100
AcDbLine
 10
11173.60000000001
 20
6992.139020432173
 30
0.0
 11
10973.60000000001
 21
6992.139020432173
 31
0.0
  0
LINE
  5
26E7B
330
747D
100
AcDbEntity
  8
センター
 48
2.0
100
AcDbLine
 10
11023.60000000001
 20
6892.139020432172
 30
0.0
 11
11123.60000000001
 21
6892.139020432172
 31
0.0
  0
LINE
  5
26E7C
330
747D
100
AcDbEntity
  8
部品1
 48
50.0
100
AcDbLine
 10
11173.60000000001
 20
6792.139020432172
 30
0.0
 11
10973.60000000001
 21
6792.139020432172
 31
0.0
  0
LINE
  5
26E7D
330
747D
100
AcDbEntity
  8
部品1
 48
50.0
100
AcDbLine
 10
10973.60000000001
 20
6792.139020432172
 30
0.0
 11
10973.60000000001
 21
6992.139020432173
 31
0.0
  0
LINE
  5
26E7E
330
747D
100
AcDbEntity
  8
センター
 48
2.0
100
AcDbLine
 10
11073.60000000001
 20
6942.139020432172
 30
0.0
 11
11073.60000000001
 21
6842.139020432172
 31
0.0
  0
LINE
  5
26E7F
330
747D
100
AcDbEntity
  8
部品1
 48
50.0
100
AcDbLine
 10
11173.60000000001
 20
6792.139020432172
 30
0.0
 11
11173.60000000001
 21
6992.139020432173
 31
0.0
  0
LINE
  5
26E80
330
747D
100
AcDbEntity
  8
細線
 48
50.0
100
AcDbLine
 10
11491.28003344755
 20
7172.139020432152
 30
0.0
 11
11648.59999999999
 21
7329.458986984596
 31
0.0
  0
LINE
  5
26E81
330
747D
100
AcDbEntity
  8
細線
 48
50.0
100
AcDbLine
 10
11581.08259465825
 20
7172.139020432156
 30
0.0
 11
11648.6
 21
7239.656425773901
 31
0.0
  0
LINE
  5
26E82
330
747D
100
AcDbEntity
  8
細線
 48
50.0
100
AcDbLine
 10
11625.98387526361
 20
7172.139020432154
 30
0.0
 11
11648.6
 21
7194.755145168553
 31
0.0
  0
LINE
  5
26E83
330
747D
100
AcDbEntity
  8
細線
 48
50.0
100
AcDbLine
 10
11536.18131405291
 20
7172.139020432156
 30
0.0
 11
11648.6
 21
7284.557706379256
 31
0.0
  0
LINE
  5
26E84
330
747D
100
AcDbEntity
  8
細線
 48
50.0
100
AcDbLine
 10
11448.59999999999
 20
7353.965390011326
 30
0.0
 11
11466.77363042081
 21
7372.13902043214
 31
0.0
  0
DIMENSION
  5
26E85
330
747D
100
AcDbEntity
  8
寸法
 48
50.0
100
AcDbDimension
  2
*D37
 10
11905.6
 20
8098.405478526084
 30
0.0
 11
12301.7066017178
 21
8098.405478526084
 31
0.0
 70
   160
 71
     5
 42
123.0
  3
INABA_S40G
100
AcDbAlignedDimension
 13
12028.6
 23
7372.139020432172
 33
0.0
 14
11905.6
 24
7299.139020432173
 34
0.0
100
AcDbRotatedDimension
1001
ACAD
1000
DSTYLE
1002
{
1070
   341
1005
0
1002
}
  0
LINE
  5
26E88
330
747D
100
AcDbEntity
  8
細線
 48
50.0
100
AcDbLine
 10
11908.6
 20
6839.360267590002
 30
0.0
 11
12028.59999999999
 21
6959.360267589993
 31
0.0
  0
LINE
  5
26E89
330
747D
100
AcDbEntity
  8
細線
 48
50.0
100
AcDbLine
 10
11908.6
 20
6884.261548195346
 30
0.0
 11
12028.59999999999
 21
7004.261548195336
 31
0.0
  0
LINE
  5
26E8A
330
747D
100
AcDbEntity
  8
細線
 48
50.0
100
AcDbLine
 10
11908.6
 20
6929.162828800698
 30
0.0
 11
11996.57619163151
 21
7017.139020432205
 31
0.0
  0
LINE
  5
26E8B
330
747D
100
AcDbEntity
  8
細線
 48
50.0
100
AcDbLine
 10
11908.6
 20
6974.064109406048
 30
0.0
 11
11951.67491102617
 21
7017.139020432207
 31
0.0
  0
LINE
  5
26E8C
330
747D
100
AcDbEntity
  8
部品1
 48
50.0
100
AcDbLine
 10
12028.59999999999
 20
7017.139020432207
 30
0.0
 11
11908.6
 21
7017.139020432205
 31
0.0
  0
LINE
  5
26E8D
330
747D
100
AcDbEntity
  8
部品1
 48
50.0
100
AcDbLine
 10
12028.59999999999
 20
6817.139020432207
 30
0.0
 11
11908.6
 21
6817.139020432207
 31
0.0
  0
LINE
  5
26E8E
330
747D
100
AcDbEntity
  8
細線
 48
50.0
100
AcDbLine
 10
12021.08259465823
 20
6817.139020432205
 30
0.0
 11
12028.59999999999
 21
6824.656425773952
 31
0.0
  0
LINE
  5
26E8F
330
747D
100
AcDbEntity
  8
細線
 48
50.0
100
AcDbLine
 10
11976.18131405289
 20
6817.139020432207
 30
0.0
 11
12028.59999999999
 21
6869.5577063793
 31
0.0
  0
LINE
  5
26E90
330
747D
100
AcDbEntity
  8
細線
 48
50.0
100
AcDbLine
 10
11931.28003344754
 20
6817.139020432205
 30
0.0
 11
12028.59999999999
 21
6914.458986984645
 31
0.0
  0
LINE
  5
26E91
330
747D
100
AcDbEntity
  8
センター
 48
2.0
100
AcDbLine
 10
11855.6
 20
7249.139020432173
 30
0.0
 11
11955.6
 21
7249.139020432173
 31
0.0
  0
CIRCLE
  5
26E92
330
747D
100
AcDbEntity
  8
部品1
 48
50.0
100
AcDbCircle
 10
11905.6
 20
7249.139020432173
 30
0.0
 40
35.0
  0
LINE
  5
26E93
330
747D
100
AcDbEntity
  8
センター
 48
2.0
100
AcDbLine
 10
11905.6
 20
7299.139020432173
 30
0.0
 11
11905.6
 21
7199.139020432173
 31
0.0
  0
TEXT
  5
27339
330
747D
100
AcDbEntity
  8
文字
 62
     7
 48
50.0
100
AcDbText
 10
14251.2
 20
838.2527270729188
 30
0.0
 40
100.0
  1
～一般型・多雪地型・豪雪地型～
  7
STYLE2
100
AcDbText
  0
LINE
  5
27359
330
747D
100
AcDbEntity
  8
部品1
 48
50.0
100
AcDbLine
 10
11908.6
 20
6692.139020432207
 30
0.0
 11
4538.599999999998
 21
6692.139020432169
 31
0.0
  0
LINE
  5
2735A
330
747D
100
AcDbEntity
  8
細線
 48
50.0
100
AcDbLine
 10
5748.599999999997
 20
6545.742339115124
 30
0.0
 11
5894.996681317031
 21
6692.139020432172
 31
0.0
  0
LINE
  5
2735B
330
747D
100
AcDbEntity
  8
細線
 48
50.0
100
AcDbLine
 10
5748.599999999996
 20
6590.643619720475
 30
0.0
 11
5850.09540071169
 21
6692.139020432171
 31
0.0
  0
LINE
  5
2735C
330
747D
100
AcDbEntity
  8
細線
 48
50.0
100
AcDbLine
 10
5748.599999999994
 20
6635.544900325816
 30
0.0
 11
5805.194120106339
 21
6692.139020432172
 31
0.0
  0
LINE
  5
2735D
330
747D
100
AcDbEntity
  8
細線
 48
50.0
100
AcDbLine
 10
5748.599999999996
 20
6500.841058509781
 30
0.0
 11
5939.89796192239
 21
6692.139020432174
 31
0.0
  0
LINE
  5
2735E
330
747D
100
AcDbEntity
  8
細線
 48
50.0
100
AcDbLine
 10
5929.305645554457
 20
6412.139020432167
 30
0.0
 11
5948.599999999999
 21
6431.433374877709
 31
0.0
  0
LINE
  5
2735F
330
747D
100
AcDbEntity
  8
細線
 48
50.0
100
AcDbLine
 10
5748.599999999997
 20
6455.939777904436
 30
0.0
 11
5948.599999999994
 21
6655.93977790443
 31
0.0
  0
LINE
  5
27360
330
747D
100
AcDbEntity
  8
細線
 48
50.0
100
AcDbLine
 10
5749.700523133072
 20
6412.139020432161
 30
0.0
 11
5948.599999999996
 21
6611.038497299087
 31
0.0
  0
LINE
  5
27361
330
747D
100
AcDbEntity
  8
細線
 48
50.0
100
AcDbLine
 10
5794.601803738416
 20
6412.139020432163
 30
0.0
 11
5948.599999999996
 21
6566.137216693741
 31
0.0
  0
LINE
  5
27362
330
747D
100
AcDbEntity
  8
細線
 48
50.0
100
AcDbLine
 10
5839.503084343764
 20
6412.139020432163
 30
0.0
 11
5948.599999999998
 21
6521.235936088398
 31
0.0
  0
LINE
  5
27363
330
747D
100
AcDbEntity
  8
部品1
 48
50.0
100
AcDbLine
 10
5748.599999999993
 20
6692.139020432172
 30
0.0
 11
5748.599999999997
 21
6412.139020432161
 31
0.0
  0
LINE
  5
27364
330
747D
100
AcDbEntity
  8
細線
 48
50.0
100
AcDbLine
 10
5884.404364949113
 20
6412.139020432165
 30
0.0
 11
5948.599999999999
 21
6476.334655483054
 31
0.0
  0
LINE
  5
27365
330
747D
100
AcDbEntity
  8
部品1
 48
50.0
100
AcDbLine
 10
5948.599999999993
 20
6692.139020432176
 30
0.0
 11
5948.599999999998
 21
6412.139020432165
 31
0.0
  0
LINE
  5
27366
330
747D
100
AcDbEntity
  8
細線
 48
50.0
100
AcDbLine
 10
6698.599999999998
 20
6545.742339115124
 30
0.0
 11
6844.996681317031
 21
6692.139020432172
 31
0.0
  0
LINE
  5
27367
330
747D
100
AcDbEntity
  8
細線
 48
50.0
100
AcDbLine
 10
6698.599999999996
 20
6590.643619720475
 30
0.0
 11
6800.09540071169
 21
6692.139020432171
 31
0.0
  0
LINE
  5
27368
330
747D
100
AcDbEntity
  8
細線
 48
50.0
100
AcDbLine
 10
6698.599999999995
 20
6635.544900325816
 30
0.0
 11
6755.194120106338
 21
6692.139020432172
 31
0.0
  0
LINE
  5
27369
330
747D
100
AcDbEntity
  8
細線
 48
50.0
100
AcDbLine
 10
6698.599999999996
 20
6500.841058509781
 30
0.0
 11
6889.897961922391
 21
6692.139020432174
 31
0.0
  0
LINE
  5
2736A
330
747D
100
AcDbEntity
  8
細線
 48
50.0
100
AcDbLine
 10
6879.305645554457
 20
6412.139020432167
 30
0.0
 11
6898.599999999999
 21
6431.433374877709
 31
0.0
  0
LINE
  5
2736B
330
747D
100
AcDbEntity
  8
細線
 48
50.0
100
AcDbLine
 10
6698.599999999998
 20
6455.939777904436
 30
0.0
 11
6898.599999999994
 21
6655.93977790443
 31
0.0
  0
LINE
  5
2736C
330
747D
100
AcDbEntity
  8
細線
 48
50.0
100
AcDbLine
 10
6699.700523133071
 20
6412.139020432161
 30
0.0
 11
6898.599999999996
 21
6611.038497299087
 31
0.0
  0
LINE
  5
2736D
330
747D
100
AcDbEntity
  8
細線
 48
50.0
100
AcDbLine
 10
6744.601803738416
 20
6412.139020432163
 30
0.0
 11
6898.599999999996
 21
6566.137216693741
 31
0.0
  0
LINE
  5
2736E
330
747D
100
AcDbEntity
  8
細線
 48
50.0
100
AcDbLine
 10
6789.503084343763
 20
6412.139020432163
 30
0.0
 11
6898.599999999998
 21
6521.235936088398
 31
0.0
  0
LINE
  5
2736F
330
747D
100
AcDbEntity
  8
部品1
 48
50.0
100
AcDbLine
 10
6698.599999999993
 20
6692.139020432172
 30
0.0
 11
6698.599999999998
 21
6412.139020432161
 31
0.0
  0
LINE
  5
27370
330
747D
100
AcDbEntity
  8
細線
 48
50.0
100
AcDbLine
 10
6834.404364949112
 20
6412.139020432165
 30
0.0
 11
6898.599999999999
 21
6476.334655483054
 31
0.0
  0
LINE
  5
27371
330
747D
100
AcDbEntity
  8
部品1
 48
50.0
100
AcDbLine
 10
6898.599999999993
 20
6692.139020432176
 30
0.0
 11
6898.599999999998
 21
6412.139020432165
 31
0.0
  0
LINE
  5
27372
330
747D
100
AcDbEntity
  8
細線
 48
50.0
100
AcDbLine
 10
7648.599999999998
 20
6545.742339115124
 30
0.0
 11
7794.99668131703
 21
6692.139020432172
 31
0.0
  0
LINE
  5
27373
330
747D
100
AcDbEntity
  8
細線
 48
50.0
100
AcDbLine
 10
7648.599999999996
 20
6590.643619720475
 30
0.0
 11
7750.09540071169
 21
6692.139020432171
 31
0.0
  0
LINE
  5
27374
330
747D
100
AcDbEntity
  8
細線
 48
50.0
100
AcDbLine
 10
7648.599999999994
 20
6635.544900325816
 30
0.0
 11
7705.19412010634
 21
6692.139020432172
 31
0.0
  0
LINE
  5
27375
330
747D
100
AcDbEntity
  8
細線
 48
50.0
100
AcDbLine
 10
7648.599999999996
 20
6500.841058509781
 30
0.0
 11
7839.897961922391
 21
6692.139020432174
 31
0.0
  0
LINE
  5
27376
330
747D
100
AcDbEntity
  8
細線
 48
50.0
100
AcDbLine
 10
7829.305645554457
 20
6412.139020432167
 30
0.0
 11
7848.599999999999
 21
6431.433374877709
 31
0.0
  0
LINE
  5
27377
330
747D
100
AcDbEntity
  8
細線
 48
50.0
100
AcDbLine
 10
7648.599999999998
 20
6455.939777904436
 30
0.0
 11
7848.599999999994
 21
6655.93977790443
 31
0.0
  0
LINE
  5
27378
330
747D
100
AcDbEntity
  8
細線
 48
50.0
100
AcDbLine
 10
7649.700523133072
 20
6412.139020432161
 30
0.0
 11
7848.599999999996
 21
6611.038497299087
 31
0.0
  0
LINE
  5
27379
330
747D
100
AcDbEntity
  8
細線
 48
50.0
100
AcDbLine
 10
7694.601803738416
 20
6412.139020432163
 30
0.0
 11
7848.599999999996
 21
6566.137216693741
 31
0.0
  0
LINE
  5
2737A
330
747D
100
AcDbEntity
  8
細線
 48
50.0
100
AcDbLine
 10
7739.503084343765
 20
6412.139020432163
 30
0.0
 11
7848.599999999997
 21
6521.235936088398
 31
0.0
  0
LINE
  5
2737B
330
747D
100
AcDbEntity
  8
部品1
 48
50.0
100
AcDbLine
 10
7648.599999999993
 20
6692.139020432172
 30
0.0
 11
7648.599999999998
 21
6412.139020432161
 31
0.0
  0
LINE
  5
2737C
330
747D
100
AcDbEntity
  8
細線
 48
50.0
100
AcDbLine
 10
7784.404364949113
 20
6412.139020432165
 30
0.0
 11
7848.599999999999
 21
6476.334655483054
 31
0.0
  0
LINE
  5
2737D
330
747D
100
AcDbEntity
  8
部品1
 48
50.0
100
AcDbLine
 10
7848.599999999994
 20
6692.139020432176
 30
0.0
 11
7848.599999999997
 21
6412.139020432165
 31
0.0
  0
LINE
  5
2737E
330
747D
100
AcDbEntity
  8
細線
 48
50.0
100
AcDbLine
 10
8598.599999999999
 20
6545.742339115124
 30
0.0
 11
8744.996681317031
 21
6692.139020432172
 31
0.0
  0
LINE
  5
2737F
330
747D
100
AcDbEntity
  8
細線
 48
50.0
100
AcDbLine
 10
8598.599999999995
 20
6590.643619720475
 30
0.0
 11
8700.09540071169
 21
6692.139020432171
 31
0.0
  0
LINE
  5
27380
330
747D
100
AcDbEntity
  8
細線
 48
50.0
100
AcDbLine
 10
8598.599999999995
 20
6635.544900325816
 30
0.0
 11
8655.194120106338
 21
6692.139020432172
 31
0.0
  0
LINE
  5
27381
330
747D
100
AcDbEntity
  8
細線
 48
50.0
100
AcDbLine
 10
8598.599999999995
 20
6500.841058509781
 30
0.0
 11
8789.89796192239
 21
6692.139020432174
 31
0.0
  0
LINE
  5
27382
330
747D
100
AcDbEntity
  8
細線
 48
50.0
100
AcDbLine
 10
8779.305645554456
 20
6412.139020432167
 30
0.0
 11
8798.599999999998
 21
6431.433374877709
 31
0.0
  0
LINE
  5
27383
330
747D
100
AcDbEntity
  8
細線
 48
50.0
100
AcDbLine
 10
8598.599999999999
 20
6455.939777904436
 30
0.0
 11
8798.599999999995
 21
6655.93977790443
 31
0.0
  0
LINE
  5
27384
330
747D
100
AcDbEntity
  8
細線
 48
50.0
100
AcDbLine
 10
8599.700523133073
 20
6412.139020432161
 30
0.0
 11
8798.599999999995
 21
6611.038497299087
 31
0.0
  0
LINE
  5
27385
330
747D
100
AcDbEntity
  8
細線
 48
50.0
100
AcDbLine
 10
8644.601803738416
 20
6412.139020432163
 30
0.0
 11
8798.599999999995
 21
6566.137216693741
 31
0.0
  0
LINE
  5
27386
330
747D
100
AcDbEntity
  8
細線
 48
50.0
100
AcDbLine
 10
8689.503084343764
 20
6412.139020432163
 30
0.0
 11
8798.599999999998
 21
6521.235936088398
 31
0.0
  0
LINE
  5
27387
330
747D
100
AcDbEntity
  8
部品1
 48
50.0
100
AcDbLine
 10
8598.599999999994
 20
6692.139020432172
 30
0.0
 11
8598.599999999999
 21
6412.139020432161
 31
0.0
  0
LINE
  5
27388
330
747D
100
AcDbEntity
  8
細線
 48
50.0
100
AcDbLine
 10
8734.404364949114
 20
6412.139020432165
 30
0.0
 11
8798.599999999998
 21
6476.334655483054
 31
0.0
  0
LINE
  5
27389
330
747D
100
AcDbEntity
  8
部品1
 48
50.0
100
AcDbLine
 10
8798.599999999993
 20
6692.139020432176
 30
0.0
 11
8798.599999999998
 21
6412.139020432165
 31
0.0
  0
LINE
  5
2738A
330
747D
100
AcDbEntity
  8
細線
 48
50.0
100
AcDbLine
 10
9548.599999999998
 20
6545.742339115124
 30
0.0
 11
9694.99668131703
 21
6692.139020432172
 31
0.0
  0
LINE
  5
2738B
330
747D
100
AcDbEntity
  8
細線
 48
50.0
100
AcDbLine
 10
9548.599999999995
 20
6590.643619720475
 30
0.0
 11
9650.095400711691
 21
6692.139020432171
 31
0.0
  0
LINE
  5
2738C
330
747D
100
AcDbEntity
  8
細線
 48
50.0
100
AcDbLine
 10
9548.599999999995
 20
6635.544900325816
 30
0.0
 11
9605.194120106339
 21
6692.139020432172
 31
0.0
  0
LINE
  5
2738D
330
747D
100
AcDbEntity
  8
細線
 48
50.0
100
AcDbLine
 10
9548.599999999995
 20
6500.841058509781
 30
0.0
 11
9739.897961922391
 21
6692.139020432174
 31
0.0
  0
LINE
  5
2738E
330
747D
100
AcDbEntity
  8
細線
 48
50.0
100
AcDbLine
 10
9729.305645554457
 20
6412.139020432167
 30
0.0
 11
9748.599999999999
 21
6431.433374877709
 31
0.0
  0
LINE
  5
2738F
330
747D
100
AcDbEntity
  8
細線
 48
50.0
100
AcDbLine
 10
9548.599999999998
 20
6455.939777904436
 30
0.0
 11
9748.599999999996
 21
6655.93977790443
 31
0.0
  0
LINE
  5
27390
330
747D
100
AcDbEntity
  8
細線
 48
50.0
100
AcDbLine
 10
9549.700523133074
 20
6412.139020432161
 30
0.0
 11
9748.599999999996
 21
6611.038497299087
 31
0.0
  0
LINE
  5
27391
330
747D
100
AcDbEntity
  8
細線
 48
50.0
100
AcDbLine
 10
9594.601803738417
 20
6412.139020432163
 30
0.0
 11
9748.599999999996
 21
6566.137216693741
 31
0.0
  0
LINE
  5
27392
330
747D
100
AcDbEntity
  8
細線
 48
50.0
100
AcDbLine
 10
9639.503084343765
 20
6412.139020432163
 30
0.0
 11
9748.599999999999
 21
6521.235936088398
 31
0.0
  0
LINE
  5
27393
330
747D
100
AcDbEntity
  8
部品1
 48
50.0
100
AcDbLine
 10
9548.599999999993
 20
6692.139020432172
 30
0.0
 11
9548.599999999998
 21
6412.139020432161
 31
0.0
  0
LINE
  5
27394
330
747D
100
AcDbEntity
  8
細線
 48
50.0
100
AcDbLine
 10
9684.404364949115
 20
6412.139020432165
 30
0.0
 11
9748.599999999999
 21
6476.334655483054
 31
0.0
  0
LINE
  5
27395
330
747D
100
AcDbEntity
  8
部品1
 48
50.0
100
AcDbLine
 10
9748.599999999994
 20
6692.139020432176
 30
0.0
 11
9748.599999999999
 21
6412.139020432165
 31
0.0
  0
LINE
  5
27396
330
747D
100
AcDbEntity
  8
細線
 48
50.0
100
AcDbLine
 10
10498.6
 20
6545.742339115124
 30
0.0
 11
10644.99668131703
 21
6692.139020432172
 31
0.0
  0
LINE
  5
27397
330
747D
100
AcDbEntity
  8
細線
 48
50.0
100
AcDbLine
 10
10498.59999999999
 20
6590.643619720475
 30
0.0
 11
10600.09540071169
 21
6692.139020432171
 31
0.0
  0
LINE
  5
27398
330
747D
100
AcDbEntity
  8
細線
 48
50.0
100
AcDbLine
 10
10498.59999999999
 20
6635.544900325816
 30
0.0
 11
10555.19412010634
 21
6692.139020432172
 31
0.0
  0
LINE
  5
27399
330
747D
100
AcDbEntity
  8
細線
 48
50.0
100
AcDbLine
 10
10498.59999999999
 20
6500.841058509781
 30
0.0
 11
10689.89796192239
 21
6692.139020432174
 31
0.0
  0
LINE
  5
2739A
330
747D
100
AcDbEntity
  8
細線
 48
50.0
100
AcDbLine
 10
10679.30564555445
 20
6412.139020432167
 30
0.0
 11
10698.6
 21
6431.433374877709
 31
0.0
  0
LINE
  5
2739B
330
747D
100
AcDbEntity
  8
細線
 48
50.0
100
AcDbLine
 10
10498.6
 20
6455.939777904436
 30
0.0
 11
10698.59999999999
 21
6655.93977790443
 31
0.0
  0
LINE
  5
2739C
330
747D
100
AcDbEntity
  8
細線
 48
50.0
100
AcDbLine
 10
10499.70052313307
 20
6412.139020432161
 30
0.0
 11
10698.59999999999
 21
6611.038497299087
 31
0.0
  0
LINE
  5
2739D
330
747D
100
AcDbEntity
  8
細線
 48
50.0
100
AcDbLine
 10
10544.60180373841
 20
6412.139020432163
 30
0.0
 11
10698.59999999999
 21
6566.137216693741
 31
0.0
  0
LINE
  5
2739E
330
747D
100
AcDbEntity
  8
細線
 48
50.0
100
AcDbLine
 10
10589.50308434376
 20
6412.139020432163
 30
0.0
 11
10698.6
 21
6521.235936088398
 31
0.0
  0
LINE
  5
2739F
330
747D
100
AcDbEntity
  8
部品1
 48
50.0
100
AcDbLine
 10
10498.59999999999
 20
6692.139020432172
 30
0.0
 11
10498.6
 21
6412.139020432161
 31
0.0
  0
LINE
  5
273A0
330
747D
100
AcDbEntity
  8
細線
 48
50.0
100
AcDbLine
 10
10634.40436494911
 20
6412.139020432165
 30
0.0
 11
10698.6
 21
6476.334655483054
 31
0.0
  0
LINE
  5
273A1
330
747D
100
AcDbEntity
  8
部品1
 48
50.0
100
AcDbLine
 10
10698.59999999999
 20
6692.139020432176
 30
0.0
 11
10698.6
 21
6412.139020432165
 31
0.0
  0
LINE
  5
273A2
330
747D
100
AcDbEntity
  8
細線
 48
50.0
100
AcDbLine
 10
11448.6
 20
6545.742339115124
 30
0.0
 11
11594.99668131703
 21
6692.139020432172
 31
0.0
  0
LINE
  5
273A3
330
747D
100
AcDbEntity
  8
細線
 48
50.0
100
AcDbLine
 10
11448.59999999999
 20
6590.643619720475
 30
0.0
 11
11550.09540071169
 21
6692.139020432171
 31
0.0
  0
LINE
  5
273A4
330
747D
100
AcDbEntity
  8
細線
 48
50.0
100
AcDbLine
 10
11448.59999999999
 20
6635.544900325816
 30
0.0
 11
11505.19412010634
 21
6692.139020432172
 31
0.0
  0
LINE
  5
273A5
330
747D
100
AcDbEntity
  8
細線
 48
50.0
100
AcDbLine
 10
11448.59999999999
 20
6500.841058509781
 30
0.0
 11
11639.89796192239
 21
6692.139020432174
 31
0.0
  0
LINE
  5
273A6
330
747D
100
AcDbEntity
  8
細線
 48
50.0
100
AcDbLine
 10
11629.30564555445
 20
6412.139020432167
 30
0.0
 11
11648.6
 21
6431.433374877709
 31
0.0
  0
LINE
  5
273A7
330
747D
100
AcDbEntity
  8
細線
 48
50.0
100
AcDbLine
 10
11448.6
 20
6455.939777904436
 30
0.0
 11
11648.59999999999
 21
6655.93977790443
 31
0.0
  0
LINE
  5
273A8
330
747D
100
AcDbEntity
  8
細線
 48
50.0
100
AcDbLine
 10
11449.70052313307
 20
6412.139020432161
 30
0.0
 11
11648.59999999999
 21
6611.038497299087
 31
0.0
  0
LINE
  5
273A9
330
747D
100
AcDbEntity
  8
細線
 48
50.0
100
AcDbLine
 10
11494.60180373842
 20
6412.139020432163
 30
0.0
 11
11648.59999999999
 21
6566.137216693741
 31
0.0
  0
LINE
  5
273AA
330
747D
100
AcDbEntity
  8
細線
 48
50.0
100
AcDbLine
 10
11539.50308434376
 20
6412.139020432163
 30
0.0
 11
11648.6
 21
6521.235936088398
 31
0.0
  0
LINE
  5
273AB
330
747D
100
AcDbEntity
  8
部品1
 48
50.0
100
AcDbLine
 10
11448.59999999999
 20
6692.139020432172
 30
0.0
 11
11448.6
 21
6412.139020432161
 31
0.0
  0
LINE
  5
273AC
330
747D
100
AcDbEntity
  8
細線
 48
50.0
100
AcDbLine
 10
11584.40436494911
 20
6412.139020432165
 30
0.0
 11
11648.6
 21
6476.334655483054
 31
0.0
  0
LINE
  5
273AD
330
747D
100
AcDbEntity
  8
部品1
 48
50.0
100
AcDbLine
 10
11648.59999999999
 20
6692.139020432176
 30
0.0
 11
11648.6
 21
6412.139020432165
 31
0.0
  0
LINE
  5
273CB
330
747D
100
AcDbEntity
  8
部品1
 48
50.0
100
AcDbLine
 10
11908.6
 20
6692.139020432207
 30
0.0
 11
11908.6
 21
7172.139020432171
 31
0.0
  0
LINE
  5
273CC
330
747D
100
AcDbEntity
  8
部品1
 48
50.0
100
AcDbLine
 10
4538.599999999999
 20
6692.139020432171
 30
0.0
 11
4538.599999999996
 21
7172.139020432172
 31
0.0
  0
LINE
  5
27578
330
747D
100
AcDbEntity
  8
部品1
100
AcDbLine
 10
11272.75573008754
 20
3290.334943835991
 30
0.0
 11
5201.770544701285
 21
3290.334943835991
 31
0.0
  0
LINE
  5
27579
330
747D
100
AcDbEntity
  8
部品1
100
AcDbLine
 10
11272.75573008753
 20
3050.334943835989
 30
0.0
 11
5201.770544701289
 21
3050.334943835989
 31
0.0
  0
LINE
  5
2757A
330
747D
100
AcDbEntity
  8
部品1
100
AcDbLine
 10
5201.77054470129
 20
326.027974251344
 30
0.0
 11
11272.75573008753
 21
326.027974251344
 31
0.0
  0
LEADER
  5
2757B
330
747D
100
AcDbEntity
  8
寸法
 48
50.0
100
AcDbLeader
  3
INABA_S50G
 73
     0
 74
     0
 75
     1
 40
102.2727272727273
 41
680.0000000000001
 76
     3
 10
8209.878296687746
 20
2289.871557744548
 30
0.0
 10
8244.2322678011
 20
2700.324368851089
 30
0.0
 10
8369.2322678011
 20
2700.324368851089
 30
0.0
340
2757C
1001
ACAD
1000
DSTYLE
1002
{
1070
   341
1005
0
1070
    40
1040
1.0
1070
   343
1005
0
1070
   344
1005
0
1002
}
  0
MTEXT
  5
2757C
102
{ACAD_REACTORS
330
2757B
102
}
330
747D
100
AcDbEntity
  8
部品1
 62
     7
 48
50.0
100
AcDbMText
 10
8394.2322678011
 20
2776.460732487453
 30
0.0
 40
80.0
 41
0.8
 71
     4
 72
     1
  1
\A1;ナット(市販品)
  7
STYLE2
 73
     1
 44
1.0
1001
ACAD
1000
MTEXTBEGIN
1070
    73
1070
     1
1070
    44
1040
1.0
1070
    74
1070
     0
1000
MTEXTEND
  0
LEADER
  5
2757D
330
747D
100
AcDbEntity
  8
寸法
 48
50.0
100
AcDbLeader
  3
INABA_S50G
 73
     0
 74
     0
 75
     1
 40
102.2727272727273
 41
906.8181818181818
 76
     3
 10
8233.878296687745
 20
2160.119565079686
 30
0.0
 10
8275.749887056583
 20
2515.355286086302
 30
0.0
 10
8400.749887056583
 20
2515.355286086302
 30
0.0
340
2757E
1001
ACAD
1000
DSTYLE
1002
{
1070
   341
1005
0
1070
    40
1040
1.0
1070
   343
1005
0
1070
   344
1005
0
1002
}
  0
MTEXT
  5
2757E
102
{ACAD_REACTORS
330
2757D
102
}
330
747D
100
AcDbEntity
  8
部品1
 62
     7
 48
50.0
100
AcDbMText
 10
8425.749887056584
 20
2591.491649722666
 30
0.0
 40
80.0
 41
0.8
 71
     4
 72
     1
  1
\A1;ワッシャー(市販品)
  7
STYLE2
 73
     1
 44
1.0
1001
ACAD
1000
MTEXTBEGIN
1070
    73
1070
     1
1070
    44
1040
1.0
1070
    74
1070
     0
1000
MTEXTEND
  0
LWPOLYLINE
  5
2757F
330
747D
100
AcDbEntity
  8
部品1
 48
50.0
100
AcDbPolyline
 90
        2
 70
     0
 43
8.0
 10
8386.478296687743
 20
1650.996276635406
 10
8680.180760087127
 20
1650.996276635406
  0
TEXT
  5
27580
330
747D
100
AcDbEntity
  8
部品1
 48
50.0
100
AcDbText
 10
8390.831880972172
 20
2246.874957397606
 30
0.0
 40
80.0
  1
基礎ボルト(市販品)
  7
STYLE2
100
AcDbText
  0
DIMENSION
  5
27581
330
747D
100
AcDbEntity
  8
寸法
 48
50.0
100
AcDbDimension
  2
*D57
 10
8888.346896456587
 20
1566.996276635404
 30
0.0
 11
8788.346896456587
 21
1728.996276635406
 31
0.0
 70
    32
  1
180
 71
     5
 42
324.0000000000009
  3
INABA_S40G
100
AcDbAlignedDimension
 13
8386.478296687743
 23
1890.996276635405
 33
0.0
 14
8386.478296687743
 24
1566.996276635405
 34
0.0
 50
90.0
100
AcDbRotatedDimension
1001
ACAD
1000
DSTYLE
1002
{
1070
   341
1005
0
1002
}
  0
DIMENSION
  5
27582
330
747D
100
AcDbEntity
  8
寸法
 48
50.0
100
AcDbDimension
  2
*D58
 10
9164.401562575616
 20
1890.996276635405
 30
0.0
 11
9164.401562575616
 21
1424.987373213923
 31
0.0
 70
   160
  1
20～25
 71
     5
 42
52.76000000000113
  3
INABA_S40G
100
AcDbAlignedDimension
 13
8199.278296687744
 23
1943.756276635406
 33
0.0
 14
8386.478296687743
 24
1890.996276635405
 34
0.0
 50
90.0
100
AcDbRotatedDimension
1001
ACAD
1000
DSTYLE
1002
{
1070
   341
1005
0
1002
}
  0
MTEXT
  5
27583
102
{ACAD_REACTORS
330
27584
102
}
330
747D
100
AcDbEntity
  8
部品1
 62
     7
 48
50.0
100
AcDbMText
 10
8395.422759107063
 20
2155.379602788636
 30
0.0
 40
80.0
 41
0.8
 71
     4
 72
     1
  1
M10X160
  7
STYLE2
 73
     1
 44
1.0
1001
ACAD
1000
MTEXTBEGIN
1070
    73
1070
     1
1070
    44
1040
1.0
1070
    74
1070
     0
1000
MTEXTEND
  0
LEADER
  5
27584
330
747D
100
AcDbEntity
  8
寸法
 48
50.0
100
AcDbLeader
  3
INABA_S50G
 73
     0
 74
     0
 75
     1
 40
80.0
 41
435.0
 76
     3
 10
8202.878296687744
 20
1940.156276635406
 30
0.0
 10
8245.422759107063
 20
2090.379602788635
 30
0.0
 10
8370.422759107063
 20
2090.379602788635
 30
0.0
340
27583
1001
ACAD
1000
DSTYLE
1002
{
1070
   341
1005
0
1070
    40
1040
1.0
1070
   343
1005
0
1070
   344
1005
0
1002
}
  0
LINE
  5
27585
330
747D
100
AcDbEntity
  8
部品1
100
AcDbLine
 10
5201.770544701287
 20
3290.334943835991
 30
0.0
 11
5201.770544701289
 21
326.027974251344
 31
0.0
  0
LEADER
  5
27586
330
747D
100
AcDbEntity
  8
寸法
 48
50.0
100
AcDbLeader
  3
INABA_S50G
 73
     0
 75
     1
 40
113.1818181818182
 41
608.6363636363635
 76
     3
 10
8162.615046825795
 20
1840.511949993684
 30
0.0
 10
8028.811218134446
 20
2691.891032350163
 30
0.0
 10
7903.811218134446
 20
2691.891032350163
 30
0.0
340
27587
1001
ACAD
1000
DSTYLE
1002
{
1070
   341
1005
0
1070
    40
1040
1.0
1070
   343
1005
0
1070
   344
1005
0
1002
}
  0
MTEXT
  5
27587
102
{ACAD_REACTORS
330
27586
102
}
330
747D
100
AcDbEntity
  8
寸法
 62
     7
 48
50.0
100
AcDbMText
 10
7878.811218134446
 20
2773.481941441071
 30
0.0
 40
80.0
 41
0.8
 71
     6
 72
     1
  1
\A1;φ70スリーブ
  7
STYLE2
 73
     1
 44
1.0
1001
ACAD
1000
MTEXTBEGIN
1070
    73
1070
     1
1070
    44
1040
1.0
1070
    74
1070
     0
1000
MTEXTEND
  0
LWPOLYLINE
  5
27588
330
747D
100
AcDbEntity
  8
部品1
 48
50.0
100
AcDbPolyline
 90
        2
 70
     0
 43
8.0
 10
5858.299081677593
 20
1650.996276635406
 10
6272.43898351055
 20
1650.996276635406
  0
TEXT
  5
27589
330
747D
100
AcDbEntity
  8
部品1
 48
50.0
100
AcDbText
 10
5858.299081677593
 20
1662.235268918661
 30
0.0
 40
80.0
  1
▽G.L
  7
STYLE2
100
AcDbText
  0
DIMENSION
  5
2758A
330
747D
100
AcDbEntity
  8
寸法
 48
50.0
100
AcDbDimension
  2
*D59
 10
6002.01866977809
 20
1106.996276635405
 30
0.0
 11
6002.01866977809
 21
1226.996276635407
 31
0.0
 70
   160
  1
150
 71
     5
 42
240.0
  3
INABA_S40G
100
AcDbAlignedDimension
 13
6144.43898351055
 23
1346.996276635405
 33
0.0
 14
6064.438983510552
 24
1106.996276635405
 34
0.0
 50
90.0
100
AcDbRotatedDimension
1001
ACAD
1000
DSTYLE
1002
{
1070
   341
1005
0
1002
}
  0
LEADER
  5
2758B
330
747D
100
AcDbEntity
  8
寸法
 48
50.0
100
AcDbLeader
  3
INABA_S50G
 71
     0
 73
     0
 75
     1
 40
100.0
 41
225.0
 76
     3
 10
6240.341935862693
 20
1226.996276635405
 30
0.0
 10
6118.503957315355
 20
963.4735830169693
 30
0.0
 10
5993.503957315355
 20
963.4735830169693
 30
0.0
1001
ACAD
1000
DSTYLE
1002
{
1070
    40
1040
1.0
1070
   272
1070
     1
1070
   279
1070
     1
1070
   341
1005
0
1002
}
  0
LEADER
  5
2758C
330
747D
100
AcDbEntity
  8
寸法
 48
50.0
100
AcDbLeader
  3
INABA_S50G
 71
     0
 73
     0
 75
     1
 40
100.0
 41
222.7272727272727
 76
     3
 10
6368.43898351055
 20
1226.996276635405
 30
0.0
 10
6146.62668487279
 20
783.1574304775259
 30
0.0
 10
6021.62668487279
 20
783.1574304775259
 30
0.0
1001
ACAD
1000
DSTYLE
1002
{
1070
    40
1040
1.0
1070
   272
1070
     1
1070
   279
1070
     1
1070
   341
1005
0
1002
}
  0
MTEXT
  5
2758D
102
{ACAD_REACTORS
330
2758E
102
}
330
747D
100
AcDbEntity
  8
寸法
 62
     7
 48
50.0
100
AcDbMText
 10
6183.188929287744
 20
1492.296879452862
 30
0.0
 40
80.0
 41
0.8
 71
     6
 72
     1
  1
\A1;D10@300
  7
STYLE2
 73
     1
 44
1.0
1001
ACAD
1000
MTEXTBEGIN
1070
    73
1070
     1
1070
    44
1040
1.0
1070
    74
1070
     0
1000
MTEXTEND
  0
LEADER
  5
2758E
330
747D
100
AcDbEntity
  8
寸法
 48
50.0
100
AcDbLeader
  3
INABA_S50G
 71
     0
 73
     0
 75
     1
 40
100.0
 41
540.3409090909091
 76
     3
 10
6376.438983510549
 20
1649.123491332529
 30
0.0
 10
6318.456746981851
 20
1427.653162791724
 30
0.0
 10
6193.456746981851
 20
1427.653162791724
 30
0.0
213
-9.732182305893367
223
-4.643716661138569
233
0.0
1001
ACAD
1000
DSTYLE
1002
{
1070
    40
1040
1.0
1070
   272
1070
     1
1070
   279
1070
     1
1070
   341
1005
0
1002
}
  0
LEADER
  5
2758F
330
747D
100
AcDbEntity
  8
寸法
 48
50.0
100
AcDbLeader
  3
INABA_S50G
 71
     0
 73
     0
 75
     1
 40
130.1136363636363
 41
651.1363636363636
 76
     3
 10
6352.438983510549
 20
1890.996276635405
 30
0.0
 10
6240.014403346533
 20
2031.467042091994
 30
0.0
 10
6115.014403346533
 20
2031.467042091994
 30
0.0
1001
ACAD
1000
DSTYLE
1002
{
1070
    40
1040
1.0
1070
   272
1070
     1
1070
   279
1070
     1
1070
   341
1005
0
1002
}
  0
MTEXT
  5
27590
102
{ACAD_REACTORS
330
2758F
102
}
330
747D
100
AcDbEntity
  8
寸法
 62
     7
 48
50.0
100
AcDbMText
 10
6052.340504027276
 20
2103.512496637448
 30
0.0
 40
80.0
 41
0.8
 71
     6
 72
     1
  1
\A1;金コテ押エ
  7
STYLE2
 73
     1
 44
1.0
1001
ACAD
1000
MTEXTBEGIN
1070
    73
1070
     1
1070
    44
1040
1.0
1070
    74
1070
     0
1000
MTEXTEND
  0
DIMENSION
  5
27591
330
747D
100
AcDbEntity
  8
寸法
 48
50.0
100
AcDbDimension
  2
*D60
 10
5537.401744948809
 20
1106.996276635406
 30
0.0
 11
5537.401744948809
 21
1478.536426291406
 31
0.0
 70
   160
  1
540
 71
     5
 42
784.0
  3
INABA_S40G
100
AcDbAlignedDimension
 13
6272.43898351055
 23
1890.996276635405
 33
0.0
 14
6064.438983510552
 24
1106.996276635405
 34
0.0
 50
90.0
100
AcDbRotatedDimension
1001
ACAD
1000
DSTYLE
1002
{
1070
   341
1005
0
1002
}
  0
MTEXT
  5
27592
102
{ACAD_REACTORS
330
2758C
102
}
330
747D
100
AcDbEntity
  8
寸法
 62
     7
 48
50.0
100
AcDbMText
 10
6001.62668487279
 20
843.1574304775258
 30
0.0
 40
80.0
 41
0.8
 71
     6
 72
     1
  1
D13
  7
STYLE2
 73
     1
 44
1.0
1001
ACAD
1000
MTEXTBEGIN
1070
    73
1070
     1
1070
    44
1040
1.0
1070
    74
1070
     0
1000
MTEXTEND
  0
MTEXT
  5
27593
102
{ACAD_REACTORS
330
2758B
102
}
330
747D
100
AcDbEntity
  8
寸法
 62
     7
 48
50.0
100
AcDbMText
 10
5973.503957315355
 20
1023.473583016969
 30
0.0
 40
80.0
 41
0.8
 71
     6
 72
     1
  1
D10
  7
STYLE2
 73
     1
 44
1.0
1001
ACAD
1000
MTEXTBEGIN
1070
    73
1070
     1
1070
    44
1040
1.0
1070
    74
1070
     0
1000
MTEXTEND
  0
DIMENSION
  5
27594
330
747D
100
AcDbEntity
  8
寸法
 48
50.0
100
AcDbDimension
  2
*D61
 10
6592.43898351055
 20
568.5666386302455
 30
0.0
 11
6348.342224832325
 21
568.5666386302455
 31
0.0
 70
   160
  1
300
 71
     5
 42
448.0
  3
INABA_S40G
100
AcDbAlignedDimension
 13
6144.43898351055
 23
978.9962766354056
 33
0.0
 14
6592.43898351055
 24
978.9962766354056
 34
0.0
100
AcDbRotatedDimension
1001
ACAD
1000
DSTYLE
1002
{
1070
   341
1005
0
1002
}
  0
MTEXT
  5
27595
102
{ACAD_REACTORS
330
27596
102
}
330
747D
100
AcDbEntity
  8
寸法
 62
     7
 48
50.0
100
AcDbMText
 10
7905.454224342804
 20
2412.797669533558
 30
0.0
 40
80.0
 41
0.8
 71
     6
 72
     1
  1
\A1;アンカープレート L
  7
STYLE2
 73
     1
 44
1.0
1001
ACAD
1000
MTEXTBEGIN
1070
    73
1070
     1
1070
    44
1040
1.0
1070
    74
1070
     0
1000
MTEXTEND
  0
LEADER
  5
27596
330
747D
100
AcDbEntity
  8
寸法
 48
50.0
100
AcDbLeader
  3
INABA_S50G
 73
     0
 75
     1
 40
106.3636363636363
 41
893.1818181818181
 76
     3
 10
8103.878296687744
 20
1960.556276635407
 30
0.0
 10
8055.454224342804
 20
2334.615851351739
 30
0.0
 10
7930.454224342804
 20
2334.615851351739
 30
0.0
340
27595
1001
ACAD
1000
DSTYLE
1002
{
1070
   341
1005
0
1070
    40
1040
1.0
1070
   343
1005
0
1070
   344
1005
0
1002
}
  0
LINE
  5
27597
330
747D
100
AcDbEntity
  8
細線
 48
50.0
100
AcDbLine
 10
6392.438983510551
 20
1729.369169303236
 30
0.0
 11
6464.43898351055
 21
1801.369169303236
 31
0.0
  0
ARC
  5
27598
330
747D
100
AcDbEntity
  8
部品1
 48
50.0
100
AcDbCircle
 10
6368.43898351055
 20
1751.250706029651
 30
0.0
 40
24.0
100
AcDbArc
 50
0.0
 51
180.0
  0
CIRCLE
  5
27599
330
747D
100
AcDbEntity
  8
部品1
 48
50.0
100
AcDbCircle
 10
6368.43898351055
 20
1751.250706029651
 30
0.0
 40
8.0
  0
LINE
  5
2759A
330
747D
100
AcDbEntity
  8
部品1
 48
50.0
100
AcDbLine
 10
6272.43898351055
 20
1346.996276635405
 30
0.0
 11
6272.43898351055
 21
1890.996276635405
 31
0.0
  0
LINE
  5
2759B
330
747D
100
AcDbEntity
  8
部品1
 48
50.0
100
AcDbLine
 10
6464.43898351055
 20
1890.996276635405
 30
0.0
 11
6464.43898351055
 21
1346.996276635405
 31
0.0
  0
MTEXT
  5
2759C
102
{ACAD_REACTORS
330
275A1
102
}
330
747D
100
AcDbEntity
  8
寸法
 62
     7
 48
50.0
100
AcDbMText
 10
6547.324920537945
 20
1913.552175928217
 30
0.0
 40
80.0
 41
0.8
 71
     4
 72
     1
  1
D13
  7
STYLE2
 73
     1
 44
1.0
1001
ACAD
1000
MTEXTBEGIN
1070
    73
1070
     1
1070
    44
1040
1.0
1070
    74
1070
     0
1000
MTEXTEND
  0
LEADER
  5
2759D
330
747D
100
AcDbEntity
  8
寸法
 48
50.0
100
AcDbLeader
  3
INABA_S50G
 71
     0
 73
     0
 74
     0
 75
     1
 40
100.0
 41
225.0
 76
     3
 10
6496.341935862692
 20
1226.996276635405
 30
0.0
 10
6550.766643317235
 20
1131.599207692433
 30
0.0
 10
6675.766643317235
 20
1131.599207692433
 30
0.0
1001
ACAD
1000
DSTYLE
1002
{
1070
    40
1040
1.0
1070
   272
1070
     1
1070
   279
1070
     1
1070
   341
1005
0
1002
}
  0
LEADER
  5
2759E
330
747D
100
AcDbEntity
  8
寸法
 48
50.0
100
AcDbLeader
  3
INABA_S50G
 71
     0
 73
     0
 74
     0
 75
     1
 40
100.0
 41
540.3409090909091
 76
     3
 10
6442.384152523723
 20
1210.25574622188
 30
0.0
 10
6561.1774393718
 20
868.6249282269827
 30
0.0
 10
6686.1774393718
 20
868.6249282269827
 30
0.0
213
0.0
223
-1.022262676269383
233
0.0
1001
ACAD
1000
DSTYLE
1002
{
1070
    40
1040
1.0
1070
   272
1070
     1
1070
   279
1070
     1
1070
   341
1005
0
1002
}
  0
MTEXT
  5
2759F
102
{ACAD_REACTORS
330
2759D
102
}
330
747D
100
AcDbEntity
  8
寸法
 62
     7
 48
50.0
100
AcDbMText
 10
6695.766643317234
 20
1191.599207692433
 30
0.0
 40
80.0
 41
0.8
 71
     4
 72
     1
  1
D10
  7
STYLE2
 73
     1
 44
1.0
1001
ACAD
1000
MTEXTBEGIN
1070
    73
1070
     1
1070
    44
1040
1.0
1070
    74
1070
     0
1000
MTEXTEND
  0
LWPOLYLINE
  5
275A0
330
747D
100
AcDbEntity
  8
部品1
 48
50.0
100
AcDbPolyline
 90
        2
 70
     0
 43
8.0
 10
6464.43898351055
 20
1650.996276635406
 10
6878.578885343507
 20
1650.996276635406
  0
LEADER
  5
275A1
330
747D
100
AcDbEntity
  8
寸法
 48
50.0
100
AcDbLeader
  3
INABA_S50G
 71
     0
 73
     0
 74
     0
 75
     1
 40
100.0
 41
222.7272727272727
 76
     3
 10
6368.43898351055
 20
1751.250706029651
 30
0.0
 10
6422.324920537945
 20
1850.486278882825
 30
0.0
 10
6547.324920537945
 20
1850.486278882825
 30
0.0
1001
ACAD
1000
DSTYLE
1002
{
1070
    40
1040
1.0
1070
   272
1070
     1
1070
   279
1070
     1
1070
   341
1005
0
1002
}
  0
LINE
  5
275A2
330
747D
100
AcDbEntity
  8
細線
 48
50.0
100
AcDbLine
 10
6144.438983510543
 20
1265.843022397576
 30
0.0
 11
6225.592237748378
 21
1346.996276635405
 31
0.0
  0
LINE
  5
275A3
330
747D
100
AcDbEntity
  8
細線
 48
50.0
100
AcDbLine
 10
6352.304830987954
 20
1285.123491332528
 30
0.0
 11
6376.438983510556
 21
1309.257643855127
 31
0.0
  0
LINE
  5
275A4
330
747D
100
AcDbEntity
  8
細線
 48
50.0
100
AcDbLine
 10
6259.236847927623
 20
1218.996276635406
 30
0.0
 11
6376.43898351055
 21
1336.198412218331
 31
0.0
  0
LINE
  5
275A5
330
747D
100
AcDbEntity
  8
部品1
 48
50.0
100
AcDbLine
 10
6144.43898351055
 20
1106.996276635405
 30
0.0
 11
6144.43898351055
 21
1346.996276635405
 31
0.0
  0
LINE
  5
275A6
330
747D
100
AcDbEntity
  8
細線
 48
50.0
100
AcDbLine
 10
6501.703763196494
 20
1218.996276635406
 30
0.0
 11
6592.43898351055
 21
1309.731496949465
 31
0.0
  0
LINE
  5
275A7
330
747D
100
AcDbEntity
  8
細線
 48
50.0
100
AcDbLine
 10
6474.762994833278
 20
1218.996276635406
 30
0.0
 11
6592.43898351055
 21
1336.672265312671
 31
0.0
  0
LINE
  5
275A8
330
747D
100
AcDbEntity
  8
部品1
 48
50.0
100
AcDbLine
 10
6592.43898351055
 20
1346.996276635405
 30
0.0
 11
6592.43898351055
 21
1106.996276635405
 31
0.0
  0
LINE
  5
275A9
330
747D
100
AcDbEntity
  8
部品1
 48
50.0
100
AcDbLine
 10
6392.438983510555
 20
1226.996276635405
 30
0.0
 11
6392.438983510551
 21
1751.250706029651
 31
0.0
  0
LINE
  5
275AA
330
747D
100
AcDbEntity
  8
部品1
 48
50.0
100
AcDbLine
 10
6376.438983510556
 20
1226.996276635405
 30
0.0
 11
6376.438983510543
 21
1751.250706029651
 31
0.0
  0
LINE
  5
275AB
330
747D
100
AcDbEntity
  8
細線
 48
50.0
100
AcDbLine
 10
6360.438983510551
 20
1266.316875491917
 30
0.0
 11
6376.438983510556
 21
1282.316875491917
 31
0.0
  0
LINE
  5
275AC
330
747D
100
AcDbEntity
  8
細線
 48
50.0
100
AcDbLine
 10
6349.621823006565
 20
978.9962766354056
 30
0.0
 11
6383.919319637747
 21
1106.996276635405
 31
0.0
  0
LINE
  5
275AD
330
747D
100
AcDbEntity
  8
部品1
 48
50.0
100
AcDbLine
 10
6672.438983510554
 20
978.9962766354056
 30
0.0
 11
6064.438983510552
 21
978.9962766354056
 31
0.0
  0
LINE
  5
275AE
330
747D
100
AcDbEntity
  8
部品1
 48
50.0
100
AcDbLine
 10
6200.438983510551
 20
1202.996276635406
 30
0.0
 11
6536.438983510549
 21
1202.996276635406
 31
0.0
  0
LINE
  5
275AF
330
747D
100
AcDbEntity
  8
部品1
 48
50.0
100
AcDbLine
 10
6200.438983510551
 20
1218.996276635406
 30
0.0
 11
6536.438983510549
 21
1218.996276635406
 31
0.0
  0
LINE
  5
275B0
330
747D
100
AcDbEntity
  8
部品1
 48
50.0
100
AcDbLine
 10
6672.438983510554
 20
1106.996276635405
 30
0.0
 11
6064.438983510552
 21
1106.996276635405
 31
0.0
  0
CIRCLE
  5
275B1
330
747D
100
AcDbEntity
  8
部品1
 48
50.0
100
AcDbCircle
 10
6368.43898351055
 20
1226.996276635405
 30
0.0
 40
8.0
  0
LINE
  5
275B2
330
747D
100
AcDbEntity
  8
細線
 48
50.0
100
AcDbLine
 10
6362.762994833283
 20
1106.996276635405
 30
0.0
 11
6458.762994833283
 21
1202.996276635406
 31
0.0
  0
LINE
  5
275B3
330
747D
100
AcDbEntity
  8
細線
 48
50.0
100
AcDbLine
 10
6191.845733112066
 20
978.9962766354056
 30
0.0
 11
6226.143229743249
 21
1106.996276635405
 31
0.0
  0
LINE
  5
275B4
330
747D
100
AcDbEntity
  8
細線
 48
50.0
100
AcDbLine
 10
6270.733778059311
 20
978.9962766354037
 30
0.0
 11
6305.031274690495
 21
1106.996276635404
 31
0.0
  0
LINE
  5
275B5
330
747D
100
AcDbEntity
  8
細線
 48
50.0
100
AcDbLine
 10
6112.957688164808
 20
978.9962766354037
 30
0.0
 11
6147.255184795991
 21
1106.996276635404
 31
0.0
  0
LINE
  5
275B6
330
747D
100
AcDbEntity
  8
部品1
 48
50.0
100
AcDbLine
 10
6064.438983510552
 20
978.9962766354056
 30
0.0
 11
6064.438983510552
 21
1106.996276635405
 31
0.0
  0
LINE
  5
275B7
330
747D
100
AcDbEntity
  8
細線
 48
50.0
100
AcDbLine
 10
6198.276513730412
 20
1002.996276635405
 30
0.0
 11
6204.70729434876
 21
978.9962766354056
 31
0.0
  0
LINE
  5
275B8
330
747D
100
AcDbEntity
  8
細線
 48
50.0
100
AcDbLine
 10
6119.388468783161
 20
1002.996276635405
 30
0.0
 11
6125.819249401508
 21
978.9962766354056
 31
0.0
  0
LINE
  5
275B9
330
747D
100
AcDbEntity
  8
細線
 48
50.0
100
AcDbLine
 10
6356.052603624918
 20
1002.996276635405
 30
0.0
 11
6362.483384243263
 21
978.9962766354056
 31
0.0
  0
LINE
  5
275BA
330
747D
100
AcDbEntity
  8
細線
 48
50.0
100
AcDbLine
 10
6277.164558677664
 20
1002.996276635405
 30
0.0
 11
6283.595339296011
 21
978.9962766354056
 31
0.0
  0
LINE
  5
275BB
330
747D
100
AcDbEntity
  8
細線
 48
50.0
100
AcDbLine
 10
6174.177616290833
 20
1106.996276635405
 30
0.0
 11
6270.177616290833
 21
1202.996276635406
 31
0.0
  0
LINE
  5
275BC
330
747D
100
AcDbEntity
  8
細線
 48
50.0
100
AcDbLine
 10
6147.236847927622
 20
1106.996276635405
 30
0.0
 11
6243.236847927622
 21
1202.996276635406
 31
0.0
  0
LINE
  5
275BD
330
747D
100
AcDbEntity
  8
部品1
 48
50.0
100
AcDbLine
 10
6200.438983510551
 20
1218.996276635406
 30
0.0
 11
6200.438983510551
 21
1202.996276635406
 31
0.0
  0
LINE
  5
275BE
330
747D
100
AcDbEntity
  8
細線
 48
50.0
100
AcDbLine
 10
6140.82440417765
 20
1082.996276635405
 30
0.0
 11
6134.393623559303
 21
1106.996276635405
 31
0.0
  0
LINE
  5
275BF
330
747D
100
AcDbEntity
  8
細線
 48
50.0
100
AcDbLine
 10
6064.438983510551
 20
1092.336197601185
 30
0.0
 11
6068.367139848746
 21
1106.996276635405
 31
0.0
  0
LINE
  5
275C0
330
747D
100
AcDbEntity
  8
部品1
 48
50.0
100
AcDbLine
 10
6360.438983510551
 20
1285.123491332528
 30
0.0
 11
6344.43898351055
 21
1285.123491332528
 31
0.0
  0
CIRCLE
  5
275C1
330
747D
100
AcDbEntity
  8
部品1
 48
50.0
100
AcDbCircle
 10
6240.43898351055
 20
1226.996276635405
 30
0.0
 40
8.0
  0
LINE
  5
275C2
330
747D
100
AcDbEntity
  8
細線
 48
50.0
100
AcDbLine
 10
6313.118384654039
 20
1218.996276635406
 30
0.0
 11
6344.43898351055
 21
1250.316875491917
 31
0.0
  0
ARC
  5
275C3
330
747D
100
AcDbEntity
  8
部品1
 48
50.0
100
AcDbCircle
 10
6368.43898351055
 20
1226.996276635405
 30
0.0
 40
24.0
100
AcDbArc
 50
180.0
 51
199.4712206344743
  0
LINE
  5
275C4
330
747D
100
AcDbEntity
  8
細線
 48
50.0
100
AcDbLine
 10
6219.712449124902
 20
1082.996276635405
 30
0.0
 11
6213.281668506556
 21
1106.996276635405
 31
0.0
  0
LINE
  5
275C5
330
747D
100
AcDbEntity
  8
細線
 48
50.0
100
AcDbLine
 10
6298.600494072154
 20
1082.996276635405
 30
0.0
 11
6292.169713453809
 21
1106.996276635405
 31
0.0
  0
LINE
  5
275C6
330
747D
100
AcDbEntity
  8
細線
 48
50.0
100
AcDbLine
 10
6201.118384654039
 20
1106.996276635405
 30
0.0
 11
6297.118384654039
 21
1202.996276635406
 31
0.0
  0
LINE
  5
275C7
330
747D
100
AcDbEntity
  8
部品1
 48
50.0
100
AcDbLine
 10
6344.43898351055
 20
1285.123491332528
 30
0.0
 11
6344.43898351055
 21
1226.996276635405
 31
0.0
  0
LINE
  5
275C8
330
747D
100
AcDbEntity
  8
細線
 48
50.0
100
AcDbLine
 10
6286.177616290833
 20
1218.996276635406
 30
0.0
 11
6344.43898351055
 21
1277.257643855124
 31
0.0
  0
LINE
  5
275C9
330
747D
100
AcDbEntity
  8
部品1
 48
50.0
100
AcDbLine
 10
6360.438983510551
 20
1285.123491332528
 30
0.0
 11
6360.438983510551
 21
1226.996276635405
 31
0.0
  0
LINE
  5
275CA
330
747D
100
AcDbEntity
  8
部品1
 48
50.0
100
AcDbLine
 10
6672.438983510554
 20
1106.996276635405
 30
0.0
 11
6672.438983510554
 21
978.9962766354056
 31
0.0
  0
LINE
  5
275CB
330
747D
100
AcDbEntity
  8
細線
 48
50.0
100
AcDbLine
 10
6586.285957848303
 20
978.9962766354056
 30
0.0
 11
6620.58345447949
 21
1106.996276635404
 31
0.0
  0
LINE
  5
275CC
330
747D
100
AcDbEntity
  8
細線
 48
50.0
100
AcDbLine
 10
6428.50986795381
 20
978.9962766354056
 30
0.0
 11
6462.807364584996
 21
1106.996276635404
 31
0.0
  0
LINE
  5
275CD
330
747D
100
AcDbEntity
  8
細線
 48
50.0
100
AcDbLine
 10
6507.397912901058
 20
978.9962766354037
 30
0.0
 11
6541.695409532244
 21
1106.996276635404
 31
0.0
  0
LINE
  5
275CE
330
747D
100
AcDbEntity
  8
細線
 48
50.0
100
AcDbLine
 10
6513.828693519409
 20
1002.996276635405
 30
0.0
 11
6520.259474137756
 21
978.9962766354056
 31
0.0
  0
LINE
  5
275CF
330
747D
100
AcDbEntity
  8
細線
 48
50.0
100
AcDbLine
 10
6434.940648572163
 20
1002.996276635405
 30
0.0
 11
6441.371429190509
 21
978.9962766354056
 31
0.0
  0
LINE
  5
275D0
330
747D
100
AcDbEntity
  8
細線
 48
50.0
100
AcDbLine
 10
6592.716738466656
 20
1002.996276635405
 30
0.0
 11
6599.147519085004
 21
978.9962766354056
 31
0.0
  0
LINE
  5
275D1
330
747D
100
AcDbEntity
  8
細線
 48
50.0
100
AcDbLine
 10
6671.604783413903
 20
1002.996276635405
 30
0.0
 11
6672.438983510549
 21
999.882999491041
 31
0.0
  0
LINE
  5
275D2
330
747D
100
AcDbEntity
  8
細線
 48
50.0
100
AcDbLine
 10
6665.174002795552
 20
978.9962766354037
 30
0.0
 11
6672.438983510549
 21
1006.109553779793
 31
0.0
  0
LINE
  5
275D3
330
747D
100
AcDbEntity
  8
細線
 48
50.0
100
AcDbLine
 10
6528.644531559698
 20
1218.996276635406
 30
0.0
 11
6592.43898351055
 21
1282.790728586256
 31
0.0
  0
CIRCLE
  5
275D4
330
747D
100
AcDbEntity
  8
部品1
 48
50.0
100
AcDbCircle
 10
6496.43898351055
 20
1226.996276635405
 30
0.0
 40
8.0
  0
ARC
  5
275D5
330
747D
100
AcDbEntity
  8
部品1
 48
50.0
100
AcDbCircle
 10
6368.43898351055
 20
1226.996276635405
 30
0.0
 40
24.0
100
AcDbArc
 50
340.5287793655256
 51
0.0
  0
LINE
  5
275D6
330
747D
100
AcDbEntity
  8
細線
 48
50.0
100
AcDbLine
 10
6377.488539019407
 20
1082.996276635405
 30
0.0
 11
6371.057758401059
 21
1106.996276635405
 31
0.0
  0
LINE
  5
275D7
330
747D
100
AcDbEntity
  8
細線
 48
50.0
100
AcDbLine
 10
6456.376583966651
 20
1082.996276635405
 30
0.0
 11
6449.945803348306
 21
1106.996276635405
 31
0.0
  0
LINE
  5
275D8
330
747D
100
AcDbEntity
  8
細線
 48
50.0
100
AcDbLine
 10
6389.703763196494
 20
1106.996276635405
 30
0.0
 11
6485.703763196494
 21
1202.996276635406
 31
0.0
  0
LINE
  5
275D9
330
747D
100
AcDbEntity
  8
細線
 48
50.0
100
AcDbLine
 10
6416.644531559697
 20
1106.996276635405
 30
0.0
 11
6512.645419404835
 21
1202.997164480544
 31
0.0
  0
LINE
  5
275DA
330
747D
100
AcDbEntity
  8
部品1
 48
50.0
100
AcDbLine
 10
6536.438983510549
 20
1218.996276635406
 30
0.0
 11
6536.438983510549
 21
1202.996276635406
 31
0.0
  0
LINE
  5
275DB
330
747D
100
AcDbEntity
  8
細線
 48
50.0
100
AcDbLine
 10
6614.152673861145
 20
1082.996276635405
 30
0.0
 11
6607.721893242796
 21
1106.996276635405
 31
0.0
  0
LINE
  5
275DC
330
747D
100
AcDbEntity
  8
細線
 48
50.0
100
AcDbLine
 10
6578.289141738943
 20
1106.996276635405
 30
0.0
 11
6592.43898351055
 21
1121.146118407012
 31
0.0
  0
LINE
  5
275DD
330
747D
100
AcDbEntity
  8
細線
 48
50.0
100
AcDbLine
 10
6535.264628913897
 20
1082.996276635405
 30
0.0
 11
6528.833848295551
 21
1106.996276635405
 31
0.0
  0
LINE
  5
275DE
330
747D
100
AcDbEntity
  8
細線
 48
50.0
100
AcDbLine
 10
6272.43898351055
 20
1420.783790760784
 30
0.0
 11
6376.438983510556
 21
1524.783790760786
 31
0.0
  0
LINE
  5
275DF
330
747D
100
AcDbEntity
  8
細線
 48
50.0
100
AcDbLine
 10
6272.43898351055
 20
1447.724559123992
 30
0.0
 11
6376.43898351055
 21
1551.724559123991
 31
0.0
  0
LINE
  5
275E0
330
747D
100
AcDbEntity
  8
細線
 48
50.0
100
AcDbLine
 10
6272.43898351055
 20
1393.843022397576
 30
0.0
 11
6376.438983510556
 21
1497.843022397576
 31
0.0
  0
LINE
  5
275E1
330
747D
100
AcDbEntity
  8
細線
 48
50.0
100
AcDbLine
 10
6360.438983510551
 20
1697.369169303236
 30
0.0
 11
6376.43898351055
 21
1713.369169303236
 31
0.0
  0
LINE
  5
275E2
330
747D
100
AcDbEntity
  8
細線
 48
50.0
100
AcDbLine
 10
6360.438983510551
 20
1724.309937666443
 30
0.0
 11
6376.43898351055
 21
1740.309937666443
 31
0.0
  0
LINE
  5
275E3
330
747D
100
AcDbEntity
  8
部品1
 48
50.0
100
AcDbLine
 10
6144.43898351055
 20
1346.996276635405
 30
0.0
 11
6272.43898351055
 21
1346.996276635405
 31
0.0
  0
LINE
  5
275E4
330
747D
100
AcDbEntity
  8
細線
 48
50.0
100
AcDbLine
 10
6144.438983510543
 20
1292.783790760781
 30
0.0
 11
6198.651469385175
 21
1346.996276635405
 31
0.0
  0
LINE
  5
275E5
330
747D
100
AcDbEntity
  8
細線
 48
50.0
100
AcDbLine
 10
6144.438983510543
 20
1319.724559123991
 30
0.0
 11
6171.710701021964
 21
1346.996276635405
 31
0.0
  0
LINE
  5
275E6
330
747D
100
AcDbEntity
  8
部品1
 48
50.0
100
AcDbLine
 10
6360.438983510551
 20
1693.123491332528
 30
0.0
 11
6344.43898351055
 21
1693.123491332531
 31
0.0
  0
LINE
  5
275E7
330
747D
100
AcDbEntity
  8
細線
 48
50.0
100
AcDbLine
 10
6272.43898351055
 20
1609.369169303236
 30
0.0
 11
6356.193305539844
 21
1693.123491332528
 31
0.0
  0
LINE
  5
275E8
330
747D
100
AcDbEntity
  8
細線
 48
50.0
100
AcDbLine
 10
6272.43898351055
 20
1636.309937666443
 30
0.0
 11
6344.43898351055
 21
1708.309937666443
 31
0.0
  0
LINE
  5
275E9
330
747D
100
AcDbEntity
  8
部品1
 48
50.0
100
AcDbLine
 10
6344.43898351055
 20
1693.123491332531
 30
0.0
 11
6344.43898351055
 21
1751.250706029651
 31
0.0
  0
LINE
  5
275EA
330
747D
100
AcDbEntity
  8
細線
 48
50.0
100
AcDbLine
 10
6272.43898351055
 20
1663.250706029651
 30
0.0
 11
6344.43898351055
 21
1735.250706029651
 31
0.0
  0
LINE
  5
275EB
330
747D
100
AcDbEntity
  8
部品1
 48
50.0
100
AcDbLine
 10
6360.438983510551
 20
1693.123491332528
 30
0.0
 11
6360.438983510551
 21
1751.250706029651
 31
0.0
  0
LINE
  5
275EC
330
747D
100
AcDbEntity
  8
細線
 48
50.0
100
AcDbLine
 10
6392.438983510555
 20
1513.843022397576
 30
0.0
 11
6464.438983510543
 21
1585.843022397576
 31
0.0
  0
LINE
  5
275ED
330
747D
100
AcDbEntity
  8
部品1
 48
50.0
100
AcDbLine
 10
6464.43898351055
 20
1346.996276635405
 30
0.0
 11
6592.43898351055
 21
1346.996276635405
 31
0.0
  0
LINE
  5
275EE
330
747D
100
AcDbEntity
  8
細線
 48
50.0
100
AcDbLine
 10
6392.438983510555
 20
1325.257643855127
 30
0.0
 11
6464.438983510543
 21
1397.257643855121
 31
0.0
  0
LINE
  5
275EF
330
747D
100
AcDbEntity
  8
細線
 48
50.0
100
AcDbLine
 10
6392.438983510555
 20
1352.198412218335
 30
0.0
 11
6464.438983510543
 21
1424.198412218331
 31
0.0
  0
LINE
  5
275F0
330
747D
100
AcDbEntity
  8
細線
 48
50.0
100
AcDbLine
 10
6392.438983510555
 20
1298.316875491917
 30
0.0
 11
6464.438983510543
 21
1370.316875491917
 31
0.0
  0
LINE
  5
275F1
330
747D
100
AcDbEntity
  8
細線
 48
50.0
100
AcDbLine
 10
6392.438983510551
 20
1567.724559123991
 30
0.0
 11
6464.43898351055
 21
1639.724559123991
 31
0.0
  0
LINE
  5
275F2
330
747D
100
AcDbEntity
  8
細線
 48
50.0
100
AcDbLine
 10
6392.438983510555
 20
1540.783790760786
 30
0.0
 11
6464.438983510543
 21
1612.783790760781
 31
0.0
  0
MTEXT
  5
275F3
102
{ACAD_REACTORS
330
2759E
102
}
330
747D
100
AcDbEntity
  8
寸法
 62
     7
 48
50.0
100
AcDbMText
 10
6706.177439371801
 20
929.6471909032526
 30
0.0
 40
80.0
 41
0.8
 71
     4
 72
     1
  1
\A1;D10@300
  7
STYLE2
 73
     1
 44
1.0
1001
ACAD
1000
MTEXTBEGIN
1070
    73
1070
     1
1070
    44
1040
1.0
1070
    74
1070
     0
1000
MTEXTEND
  0
DIMENSION
  5
275F4
330
747D
100
AcDbEntity
  8
寸法
 48
50.0
100
AcDbDimension
  2
*D62
 10
6272.43898351055
 20
2310.664084551786
 30
0.0
 11
6368.43898351055
 21
2310.664084551786
 31
0.0
 70
   160
  1
120\P200\P280
 71
     5
 42
192.0
  3
INABA_S40G
100
AcDbAlignedDimension
 13
6464.43898351055
 23
1890.996276635405
 33
0.0
 14
6272.43898351055
 24
1890.996276635405
 34
0.0
100
AcDbRotatedDimension
1001
ACAD
1000
DSTYLE
1002
{
1070
   341
1005
0
1002
}
  0
LINE
  5
275F5
330
747D
100
AcDbEntity
  8
部品1
 48
50.0
100
AcDbLine
 10
6272.43898351055
 20
1890.996276635405
 30
0.0
 11
6464.43898351055
 21
1890.996276635405
 31
0.0
  0
LINE
  5
275F6
330
747D
100
AcDbEntity
  8
細線
 48
50.0
100
AcDbLine
 10
6272.43898351055
 20
1851.836084572104
 30
0.0
 11
6311.599175573854
 21
1890.996276635405
 31
0.0
  0
LINE
  5
275F7
330
747D
100
AcDbEntity
  8
細線
 48
50.0
100
AcDbLine
 10
6272.43898351055
 20
1824.895316208895
 30
0.0
 11
6338.539943937059
 21
1890.996276635405
 31
0.0
  0
LINE
  5
275F8
330
747D
100
AcDbEntity
  8
細線
 48
50.0
100
AcDbLine
 10
6272.43898351055
 20
1878.776852935311
 30
0.0
 11
6284.658407210645
 21
1890.996276635405
 31
0.0
  0
LINE
  5
275F9
330
747D
100
AcDbEntity
  8
細線
 48
50.0
100
AcDbLine
 10
6391.991690776536
 20
1755.862644932427
 30
0.0
 11
6464.43898351055
 21
1828.309937666443
 31
0.0
  0
LINE
  5
275FA
330
747D
100
AcDbEntity
  8
細線
 48
50.0
100
AcDbLine
 10
6380.93140601302
 20
1771.743128532122
 30
0.0
 11
6464.43898351055
 21
1855.250706029651
 31
0.0
  0
LINE
  5
275FB
330
747D
100
AcDbEntity
  8
細線
 48
50.0
100
AcDbLine
 10
8256.878296687744
 20
1732.124559123994
 30
0.0
 11
8386.478296687743
 21
1861.724559123992
 31
0.0
  0
LINE
  5
275FC
330
747D
100
AcDbEntity
  8
部品1
100
AcDbLine
 10
8386.478296687743
 20
1346.996276635405
 30
0.0
 11
8386.478296687743
 21
1890.996276635405
 31
0.0
  0
LINE
  5
275FD
330
747D
100
AcDbEntity
  8
部品1
 48
50.0
100
AcDbLine
 10
7972.478296687743
 20
1346.996276635405
 30
0.0
 11
7972.478296687743
 21
1890.996276635405
 31
0.0
  0
LINE
  5
275FE
330
747D
100
AcDbEntity
  8
細線
 48
50.0
100
AcDbLine
 10
7972.478296687743
 20
1663.250706029651
 30
0.0
 11
8130.878296687743
 21
1821.650706029648
 31
0.0
  0
LINE
  5
275FF
330
747D
100
AcDbEntity
  8
細線
 48
50.0
100
AcDbLine
 10
7972.478296687743
 20
1636.309937666443
 30
0.0
 11
8130.878296687743
 21
1794.709937666441
 31
0.0
  0
LINE
  5
27600
330
747D
100
AcDbEntity
  8
細線
 48
50.0
100
AcDbLine
 10
7972.478296687743
 20
1609.369169303236
 30
0.0
 11
8130.87829668774
 21
1767.769169303228
 31
0.0
  0
TEXT
  5
27601
330
747D
100
AcDbEntity
  8
部品1
 48
50.0
100
AcDbText
 10
7558.338394854787
 20
1662.235268918661
 30
0.0
 40
80.0
  1
▽G.L
  7
STYLE2
100
AcDbText
  0
LINE
  5
27602
330
747D
100
AcDbEntity
  8
部品1
100
AcDbLine
 10
8202.878296687744
 20
1665.996276635405
 30
0.0
 11
8202.878296687741
 21
1940.156276635406
 31
0.0
  0
LINE
  5
27603
330
747D
100
AcDbEntity
  8
部品1
100
AcDbLine
 10
8184.878296687745
 20
1665.996276635405
 30
0.0
 11
8184.87829668774
 21
1940.156276635406
 31
0.0
  0
LINE
  5
27604
330
747D
100
AcDbEntity
  8
細線
 48
50.0
100
AcDbLine
 10
8256.878296687744
 20
1678.243022397564
 30
0.0
 11
8386.478296687743
 21
1807.843022397555
 31
0.0
  0
LINE
  5
27605
330
747D
100
AcDbEntity
  8
細線
 48
50.0
100
AcDbLine
 10
8256.878296687744
 20
1705.183790760777
 30
0.0
 11
8386.478296687743
 21
1834.783790760774
 31
0.0
  0
LINE
  5
27606
330
747D
100
AcDbEntity
  8
部品1
100
AcDbLine
 10
8256.878296687744
 20
1566.996276635405
 30
0.0
 11
8256.878296687744
 21
1890.996276635405
 31
0.0
  0
LINE
  5
27607
330
747D
100
AcDbEntity
  8
部品1
100
AcDbLine
 10
8130.878296687738
 20
1566.996276635405
 30
0.0
 11
8130.878296687745
 21
1890.996276635405
 31
0.0
  0
LINE
  5
27608
330
747D
100
AcDbEntity
  8
細線
 48
50.0
100
AcDbLine
 10
7972.478296687743
 20
1420.783790760784
 30
0.0
 11
8130.878296687738
 21
1579.183790760772
 31
0.0
  0
LINE
  5
27609
330
747D
100
AcDbEntity
  8
細線
 48
50.0
100
AcDbLine
 10
7972.478296687743
 20
1393.843022397576
 30
0.0
 11
8145.63155092558
 21
1566.996276635404
 31
0.0
  0
LINE
  5
2760A
330
747D
100
AcDbEntity
  8
細線
 48
50.0
100
AcDbLine
 10
7972.478296687743
 20
1447.724559123992
 30
0.0
 11
8130.878296687738
 21
1606.124559123986
 31
0.0
  0
LINE
  5
2760B
330
747D
100
AcDbEntity
  8
細線
 48
50.0
100
AcDbLine
 10
7901.157697831234
 20
1106.996276635405
 30
0.0
 11
8386.478296687743
 21
1592.316875491913
 31
0.0
  0
LINE
  5
2760C
330
747D
100
AcDbEntity
  8
細線
 48
50.0
100
AcDbLine
 10
7874.216929468028
 20
1106.996276635405
 30
0.0
 11
8386.478296687746
 21
1619.257643855119
 31
0.0
  0
LINE
  5
2760D
330
747D
100
AcDbEntity
  8
細線
 48
50.0
100
AcDbLine
 10
7847.27616110482
 20
1106.996276635405
 30
0.0
 11
8386.478296687743
 21
1646.198412218331
 31
0.0
  0
LINE
  5
2760E
330
747D
100
AcDbEntity
  8
部品1
 48
50.0
100
AcDbLine
 10
8594.478296687746
 20
1106.996276635405
 30
0.0
 11
7764.478296687747
 21
1106.996276635405
 31
0.0
  0
LINE
  5
2760F
330
747D
100
AcDbEntity
  8
部品1
 48
50.0
100
AcDbLine
 10
8594.478296687746
 20
978.9962766354056
 30
0.0
 11
7764.478296687747
 21
978.9962766354056
 31
0.0
  0
LINE
  5
27610
330
747D
100
AcDbEntity
  8
細線
 48
50.0
100
AcDbLine
 10
7844.478296687739
 20
1265.843022397576
 30
0.0
 11
7925.631550925572
 21
1346.996276635405
 31
0.0
  0
LINE
  5
27611
330
747D
100
AcDbEntity
  8
部品1
 48
50.0
100
AcDbLine
 10
7844.478296687743
 20
1106.996276635405
 30
0.0
 11
7844.478296687743
 21
1346.996276635405
 31
0.0
  0
LINE
  5
27612
330
747D
100
AcDbEntity
  8
細線
 48
50.0
100
AcDbLine
 10
7891.88504628926
 20
978.9962766354056
 30
0.0
 11
7926.182542920443
 21
1106.996276635405
 31
0.0
  0
LINE
  5
27613
330
747D
100
AcDbEntity
  8
部品1
 48
50.0
100
AcDbLine
 10
7764.478296687747
 20
978.9962766354056
 30
0.0
 11
7764.478296687747
 21
1106.996276635405
 31
0.0
  0
LINE
  5
27614
330
747D
100
AcDbEntity
  8
細線
 48
50.0
100
AcDbLine
 10
7812.997001342002
 20
978.9962766354037
 30
0.0
 11
7847.294497973186
 21
1106.996276635404
 31
0.0
  0
LINE
  5
27615
330
747D
100
AcDbEntity
  8
細線
 48
50.0
100
AcDbLine
 10
7970.773091236508
 20
978.9962766354037
 30
0.0
 11
8005.07058786769
 21
1106.996276635404
 31
0.0
  0
LINE
  5
27616
330
747D
100
AcDbEntity
  8
細線
 48
50.0
100
AcDbLine
 10
7819.427781960356
 20
1002.996276635405
 30
0.0
 11
7825.858562578702
 21
978.9962766354056
 31
0.0
  0
LINE
  5
27617
330
747D
100
AcDbEntity
  8
細線
 48
50.0
100
AcDbLine
 10
7977.20387185486
 20
1002.996276635405
 30
0.0
 11
7983.634652473208
 21
978.9962766354056
 31
0.0
  0
LINE
  5
27618
330
747D
100
AcDbEntity
  8
細線
 48
50.0
100
AcDbLine
 10
7898.315826907609
 20
1002.996276635405
 30
0.0
 11
7904.746607525955
 21
978.9962766354056
 31
0.0
  0
LINE
  5
27619
330
747D
100
AcDbEntity
  8
細線
 48
50.0
100
AcDbLine
 10
7764.478296687743
 20
1092.336197601185
 30
0.0
 11
7768.406453025939
 21
1106.996276635405
 31
0.0
  0
LINE
  5
2761A
330
747D
100
AcDbEntity
  8
細線
 48
50.0
100
AcDbLine
 10
7840.863717354846
 20
1082.996276635405
 30
0.0
 11
7834.432936736499
 21
1106.996276635405
 31
0.0
  0
LINE
  5
2761B
330
747D
100
AcDbEntity
  8
細線
 48
50.0
100
AcDbLine
 10
7998.639807249348
 20
1082.996276635405
 30
0.0
 11
7992.209026631001
 21
1106.996276635405
 31
0.0
  0
LINE
  5
2761C
330
747D
100
AcDbEntity
  8
細線
 48
50.0
100
AcDbLine
 10
7919.751762302097
 20
1082.996276635405
 30
0.0
 11
7913.320981683749
 21
1106.996276635405
 31
0.0
  0
LWPOLYLINE
  5
2761D
330
747D
100
AcDbEntity
  8
部品1
 48
50.0
100
AcDbPolyline
 90
        2
 70
     0
 43
8.0
 10
7558.338394854787
 20
1650.996276635406
 10
7972.478296687743
 20
1650.996276635406
  0
LINE
  5
2761E
330
747D
100
AcDbEntity
  8
細線
 48
50.0
100
AcDbLine
 10
7844.478296687739
 20
1292.783790760781
 30
0.0
 11
7898.690782562368
 21
1346.996276635405
 31
0.0
  0
LINE
  5
2761F
330
747D
100
AcDbEntity
  8
部品1
 48
50.0
100
AcDbLine
 10
7844.478296687743
 20
1346.996276635405
 30
0.0
 11
7972.478296687743
 21
1346.996276635405
 31
0.0
  0
LINE
  5
27620
330
747D
100
AcDbEntity
  8
細線
 48
50.0
100
AcDbLine
 10
7844.478296687739
 20
1319.724559123991
 30
0.0
 11
7871.750014199159
 21
1346.996276635405
 31
0.0
  0
LINE
  5
27621
330
747D
100
AcDbEntity
  8
細線
 48
50.0
100
AcDbLine
 10
8089.743076373689
 20
1106.996276635405
 30
0.0
 11
8386.478296687743
 21
1403.731496949458
 31
0.0
  0
LINE
  5
27622
330
747D
100
AcDbEntity
  8
細線
 48
50.0
100
AcDbLine
 10
8116.683844736893
 20
1106.996276635405
 30
0.0
 11
8386.478296687743
 21
1376.790728586263
 31
0.0
  0
LINE
  5
27623
330
747D
100
AcDbEntity
  8
細線
 48
50.0
100
AcDbLine
 10
8062.802308010478
 20
1106.996276635405
 30
0.0
 11
8386.478296687743
 21
1430.672265312671
 31
0.0
  0
LINE
  5
27624
330
747D
100
AcDbEntity
  8
細線
 48
50.0
100
AcDbLine
 10
8278.328454916136
 20
1106.996276635405
 30
0.0
 11
8514.478296687743
 21
1343.146118407014
 31
0.0
  0
LINE
  5
27625
330
747D
100
AcDbEntity
  8
細線
 48
50.0
100
AcDbLine
 10
8305.269223279349
 20
1106.996276635405
 30
0.0
 11
8514.478296687743
 21
1316.205350043799
 31
0.0
  0
LINE
  5
27626
330
747D
100
AcDbEntity
  8
部品1
 48
50.0
100
AcDbLine
 10
8514.478296687743
 20
1346.996276635405
 30
0.0
 11
8514.478296687743
 21
1106.996276635405
 31
0.0
  0
LINE
  5
27627
330
747D
100
AcDbEntity
  8
細線
 48
50.0
100
AcDbLine
 10
8332.209991642553
 20
1106.996276635405
 30
0.0
 11
8514.478296687743
 21
1289.264581680601
 31
0.0
  0
LINE
  5
27628
330
747D
100
AcDbEntity
  8
細線
 48
50.0
100
AcDbLine
 10
8207.437226078255
 20
978.9962766354037
 30
0.0
 11
8241.734722709436
 21
1106.996276635404
 31
0.0
  0
LINE
  5
27629
330
747D
100
AcDbEntity
  8
細線
 48
50.0
100
AcDbLine
 10
8049.661136183759
 20
978.9962766354056
 30
0.0
 11
8083.958632814942
 21
1106.996276635405
 31
0.0
  0
LINE
  5
2762A
330
747D
100
AcDbEntity
  8
細線
 48
50.0
100
AcDbLine
 10
8128.549181131004
 20
978.9962766354056
 30
0.0
 11
8162.846677762191
 21
1106.996276635404
 31
0.0
  0
LINE
  5
2762B
330
747D
100
AcDbEntity
  8
細線
 48
50.0
100
AcDbLine
 10
8286.325271025496
 20
978.9962766354056
 30
0.0
 11
8320.622767656681
 21
1106.996276635404
 31
0.0
  0
LINE
  5
2762C
330
747D
100
AcDbEntity
  8
細線
 48
50.0
100
AcDbLine
 10
8134.979961749357
 20
1002.996276635405
 30
0.0
 11
8141.410742367705
 21
978.9962766354056
 31
0.0
  0
LINE
  5
2762D
330
747D
100
AcDbEntity
  8
細線
 48
50.0
100
AcDbLine
 10
8056.09191680211
 20
1002.996276635405
 30
0.0
 11
8062.522697420458
 21
978.9962766354056
 31
0.0
  0
LINE
  5
2762E
330
747D
100
AcDbEntity
  8
細線
 48
50.0
100
AcDbLine
 10
8292.75605164385
 20
1002.996276635405
 30
0.0
 11
8299.186832262195
 21
978.9962766354056
 31
0.0
  0
LINE
  5
2762F
330
747D
100
AcDbEntity
  8
細線
 48
50.0
100
AcDbLine
 10
8213.868006696605
 20
1002.996276635405
 30
0.0
 11
8220.29878731495
 21
978.9962766354056
 31
0.0
  0
LINE
  5
27630
330
747D
100
AcDbEntity
  8
細線
 48
50.0
100
AcDbLine
 10
8156.415897143846
 20
1082.996276635405
 30
0.0
 11
8149.985116525497
 21
1106.996276635405
 31
0.0
  0
LINE
  5
27631
330
747D
100
AcDbEntity
  8
細線
 48
50.0
100
AcDbLine
 10
8077.527852196601
 20
1082.996276635405
 30
0.0
 11
8071.097071578254
 21
1106.996276635405
 31
0.0
  0
LINE
  5
27632
330
747D
100
AcDbEntity
  8
細線
 48
50.0
100
AcDbLine
 10
8235.303942091093
 20
1082.996276635405
 30
0.0
 11
8228.873161472746
 21
1106.996276635405
 31
0.0
  0
LINE
  5
27633
330
747D
100
AcDbEntity
  8
細線
 48
50.0
100
AcDbLine
 10
8314.19198703834
 20
1082.996276635405
 30
0.0
 11
8307.761206419993
 21
1106.996276635405
 31
0.0
  0
LINE
  5
27634
330
747D
100
AcDbEntity
  8
部品1
 48
50.0
100
AcDbLine
 10
8594.478296687746
 20
1106.996276635405
 30
0.0
 11
8594.478296687746
 21
978.9962766354056
 31
0.0
  0
LINE
  5
27635
330
747D
100
AcDbEntity
  8
細線
 48
50.0
100
AcDbLine
 10
8522.989405867239
 20
978.9962766354037
 30
0.0
 11
8557.286902498423
 21
1106.996276635403
 31
0.0
  0
LINE
  5
27636
330
747D
100
AcDbEntity
  8
細線
 48
50.0
100
AcDbLine
 10
8365.213315972745
 20
978.9962766354037
 30
0.0
 11
8399.510812603919
 21
1106.996276635405
 31
0.0
  0
LINE
  5
27637
330
747D
100
AcDbEntity
  8
細線
 48
50.0
100
AcDbLine
 10
8444.101360919994
 20
978.9962766354028
 30
0.0
 11
8478.398857551177
 21
1106.996276635403
 31
0.0
  0
LINE
  5
27638
330
747D
100
AcDbEntity
  8
細線
 48
50.0
100
AcDbLine
 10
8371.644096591095
 20
1002.996276635405
 30
0.0
 11
8378.074877209453
 21
978.9962766354056
 31
0.0
  0
LINE
  5
27639
330
747D
100
AcDbEntity
  8
細線
 48
50.0
100
AcDbLine
 10
8450.532141538344
 20
1002.996276635403
 30
0.0
 11
8456.962922156689
 21
978.9962766354037
 31
0.0
  0
LINE
  5
2763A
330
747D
100
AcDbEntity
  8
細線
 48
50.0
100
AcDbLine
 10
8529.420186485589
 20
1002.996276635403
 30
0.0
 11
8535.850967103938
 21
978.9962766354037
 31
0.0
  0
LINE
  5
2763B
330
747D
100
AcDbEntity
  8
細線
 48
50.0
100
AcDbLine
 10
8393.080031985578
 20
1082.996276635405
 30
0.0
 11
8386.649251367229
 21
1106.996276635405
 31
0.0
  0
LINE
  5
2763C
330
747D
100
AcDbEntity
  8
細線
 48
50.0
100
AcDbLine
 10
8471.968076932833
 20
1082.996276635403
 30
0.0
 11
8465.537296314487
 21
1106.996276635404
 31
0.0
  0
LINE
  5
2763D
330
747D
100
AcDbEntity
  8
細線
 48
50.0
100
AcDbLine
 10
8550.856121880078
 20
1082.996276635403
 30
0.0
 11
8544.425341261733
 21
1106.996276635404
 31
0.0
  0
LINE
  5
2763E
330
747D
100
AcDbEntity
  8
部品1
100
AcDbLine
 10
8256.878296687744
 20
1566.996276635404
 30
0.0
 11
8130.878296687738
 21
1566.996276635404
 31
0.0
  0
LINE
  5
2763F
330
747D
100
AcDbEntity
  8
部品1
100
AcDbLine
 10
8238.878296687744
 20
1647.996276635405
 30
0.0
 11
8238.878296687744
 21
1665.996276635405
 31
0.0
  0
ARC
  5
27640
330
747D
100
AcDbEntity
  8
部品1
100
AcDbCircle
 10
8202.878296687744
 20
1665.996276635405
 30
0.0
 40
18.0
100
AcDbArc
 50
180.0
 51
270.0
  0
LINE
  5
27641
330
747D
100
AcDbEntity
  8
部品1
100
AcDbLine
 10
8202.878296687744
 20
1647.996276635405
 30
0.0
 11
8238.878296687744
 21
1647.996276635405
 31
0.0
  0
LINE
  5
27642
330
747D
100
AcDbEntity
  8
部品1
100
AcDbLine
 10
8202.878296687744
 20
1665.996276635405
 30
0.0
 11
8238.878296687744
 21
1665.996276635405
 31
0.0
  0
LINE
  5
27643
330
747D
100
AcDbEntity
  8
部品1
 48
50.0
100
AcDbLine
 10
8386.478296687743
 20
1346.996276635405
 30
0.0
 11
8514.478296687743
 21
1346.996276635405
 31
0.0
  0
LINE
  5
27644
330
747D
100
AcDbEntity
  8
部品1
100
AcDbLine
 10
7992.278296687743
 20
1980.996276635406
 30
0.0
 11
8030.078296687745
 21
1980.996276635406
 31
0.0
  0
LINE
  5
27645
330
747D
100
AcDbEntity
  8
細線
 48
50.0
100
AcDbLine
 10
7972.478296687743
 20
1851.836084572104
 30
0.0
 11
8011.638488751051
 21
1890.996276635405
 31
0.0
  0
LINE
  5
27646
330
747D
100
AcDbEntity
  8
細線
 48
50.0
100
AcDbLine
 10
7972.478296687743
 20
1824.895316208895
 30
0.0
 11
8038.579257114255
 21
1890.996276635405
 31
0.0
  0
LINE
  5
27647
330
747D
100
AcDbEntity
  8
部品1
 48
50.0
100
AcDbLine
 10
7972.478296687743
 20
1890.996276635405
 30
0.0
 11
8386.478296687746
 21
1890.996276635405
 31
0.0
  0
LINE
  5
27648
330
747D
100
AcDbEntity
  8
部品1
100
AcDbLine
 10
7989.578296687745
 20
1970.196276635405
 30
0.0
 11
7989.578296687745
 21
1978.296276635406
 31
0.0
  0
ARC
  5
27649
330
747D
100
AcDbEntity
  8
部品1
100
AcDbCircle
 10
7992.278296687743
 20
1978.296276635406
 30
0.0
 40
2.7
100
AcDbArc
 50
90.0
 51
180.0
  0
ARC
  5
2764A
330
747D
100
AcDbEntity
  8
部品1
100
AcDbCircle
 10
7981.478296687743
 20
1965.388180338113
 30
0.0
 40
2.7
100
AcDbArc
 50
104.0362434679067
 51
180.0
  0
LINE
  5
2764B
330
747D
100
AcDbEntity
  8
部品1
100
AcDbLine
 10
7980.823450500145
 20
1968.007565088505
 30
0.0
 11
7989.578296687745
 21
1970.196276635405
 31
0.0
  0
ARC
  5
2764C
330
747D
100
AcDbEntity
  8
部品1
100
AcDbCircle
 10
7981.478296687743
 20
1903.256276635406
 30
0.0
 40
2.7
100
AcDbArc
 50
180.0
 51
270.0
  0
LINE
  5
2764D
330
747D
100
AcDbEntity
  8
細線
 48
50.0
100
AcDbLine
 10
7972.478296687743
 20
1878.776852935311
 30
0.0
 11
7984.697720387838
 21
1890.996276635405
 31
0.0
  0
LINE
  5
2764E
330
747D
100
AcDbEntity
  8
部品1
100
AcDbLine
 10
7981.478296687743
 20
1900.556276635406
 30
0.0
 11
7993.178296687737
 21
1900.556276635406
 31
0.0
  0
LINE
  5
2764F
330
747D
100
AcDbEntity
  8
部品1
100
AcDbLine
 10
7978.778296687744
 20
1903.256276635406
 30
0.0
 11
7978.778296687744
 21
1965.388180338113
 31
0.0
  0
LINE
  5
27650
330
747D
100
AcDbEntity
  8
部品1
100
AcDbLine
 10
8137.438296687738
 20
1900.556276635406
 30
0.0
 11
8338.778296687738
 21
1900.556276635406
 31
0.0
  0
LINE
  5
27651
330
747D
100
AcDbEntity
  8
部品1
100
AcDbLine
 10
8030.078296687745
 20
1980.996276635406
 30
0.0
 11
8030.078296687745
 21
1989.096276635406
 31
0.0
  0
LINE
  5
27652
330
747D
100
AcDbEntity
  8
部品1
100
AcDbLine
 10
8080.478296687742
 20
1999.896276635402
 30
0.0
 11
8080.478296687742
 21
1948.596276635406
 31
0.0
  0
LINE
  5
27653
330
747D
100
AcDbEntity
  8
部品1
100
AcDbLine
 10
8103.878296687744
 20
1960.556276635406
 30
0.0
 11
8132.038296687744
 21
1960.556276635406
 31
0.0
  0
ARC
  5
27654
330
747D
100
AcDbEntity
  8
部品1
100
AcDbCircle
 10
8103.878296687744
 20
1957.856276635406
 30
0.0
 40
2.7
100
AcDbArc
 50
90.0
 51
180.0
  0
ARC
  5
27655
330
747D
100
AcDbEntity
  8
部品1
100
AcDbCircle
 10
8132.038296687744
 20
1957.856276635406
 30
0.0
 40
2.7
100
AcDbArc
 50
0.0
 51
90.0
  0
LINE
  5
27656
330
747D
100
AcDbEntity
  8
部品1
100
AcDbLine
 10
8122.778296687744
 20
1945.896276635405
 30
0.0
 11
8122.778296687744
 21
1903.256276635406
 31
0.0
  0
LINE
  5
27657
330
747D
100
AcDbEntity
  8
部品1
100
AcDbLine
 10
8108.378296687744
 20
1900.556276635406
 30
0.0
 11
8120.078296687745
 21
1900.556276635406
 31
0.0
  0
ARC
  5
27658
330
747D
100
AcDbEntity
  8
部品1
100
AcDbCircle
 10
8137.438296687738
 20
1903.256276635406
 30
0.0
 40
2.7
100
AcDbArc
 50
180.0
 51
270.0
  0
ARC
  5
27659
330
747D
100
AcDbEntity
  8
部品1
100
AcDbCircle
 10
8120.078296687745
 20
1903.256276635406
 30
0.0
 40
2.7
100
AcDbArc
 50
270.0
 51
0.0
  0
LINE
  5
2765A
330
747D
100
AcDbEntity
  8
部品1
100
AcDbLine
 10
8080.478296687742
 20
1948.596276635406
 30
0.0
 11
8120.078296687745
 21
1948.596276635406
 31
0.0
  0
ARC
  5
2765B
330
747D
100
AcDbEntity
  8
部品1
100
AcDbCircle
 10
8120.078296687745
 20
1945.896276635405
 30
0.0
 40
2.7
100
AcDbArc
 50
0.0
 51
90.0
  0
LINE
  5
2765C
330
747D
100
AcDbEntity
  8
部品1
100
AcDbLine
 10
8134.738296687745
 20
1957.856276635406
 30
0.0
 11
8134.738296687741
 21
1903.256276635406
 31
0.0
  0
LINE
  5
2765D
330
747D
100
AcDbEntity
  8
部品1
100
AcDbLine
 10
8101.178296687743
 20
1957.856276635406
 30
0.0
 11
8101.178296687743
 21
1940.756276635406
 31
0.0
  0
LINE
  5
2765E
330
747D
100
AcDbEntity
  8
細線
100
AcDbLine
 10
8199.278296687744
 20
1900.556276635406
 30
0.0
 11
8199.278296687744
 21
1943.756276635406
 31
0.0
  0
LINE
  5
2765F
330
747D
100
AcDbEntity
  8
細線
100
AcDbLine
 10
8188.478296687746
 20
1900.556276635406
 30
0.0
 11
8188.478296687742
 21
1943.756276635406
 31
0.0
  0
LINE
  5
27660
330
747D
100
AcDbEntity
  8
部品1
100
AcDbLine
 10
8184.878296687745
 20
1940.156276635406
 30
0.0
 11
8202.878296687744
 21
1940.156276635406
 31
0.0
  0
LINE
  5
27661
330
747D
100
AcDbEntity
  8
部品1
100
AcDbLine
 10
8188.478296687742
 20
1943.756276635406
 30
0.0
 11
8199.278296687744
 21
1943.756276635406
 31
0.0
  0
ELLIPSE
  5
27662
330
747D
100
AcDbEntity
  8
部品1
 48
50.0
100
AcDbEllipse
 10
8193.878296687744
 20
2160.119565079678
 30
0.0
 11
40.0
 21
0.0
 31
0.0
210
0.0
220
0.0
230
1.0
 40
0.4
 41
0.0
 42
6.283185307179586
  0
ELLIPSE
  5
27663
330
747D
100
AcDbEntity
  8
部品1
 48
50.0
100
AcDbEllipse
 10
8193.878296687744
 20
2150.519565079679
 30
0.0
 11
40.0
 21
0.0
 31
0.0
210
0.0
220
0.0
230
1.0
 40
0.4
 41
3.141592653589793
 42
6.283185307179586
  0
LINE
  5
27664
330
747D
100
AcDbEntity
  8
部品1
 48
50.0
100
AcDbLine
 10
8153.878296687745
 20
2160.119565079678
 30
0.0
 11
8153.878296687745
 21
2150.519565079678
 31
0.0
  0
ARC
  5
27665
330
747D
100
AcDbEntity
  8
部品1
100
AcDbCircle
 10
8077.778296687744
 20
1999.896276635402
 30
0.0
 40
2.7
100
AcDbArc
 50
0.0
 51
90.0
  0
ARC
  5
27666
330
747D
100
AcDbEntity
  8
部品1
100
AcDbCircle
 10
8035.478296687744
 20
1999.896276635405
 30
0.0
 40
2.7
100
AcDbArc
 50
90.0
 51
180.0
  0
LINE
  5
27667
330
747D
100
AcDbEntity
  8
部品1
100
AcDbLine
 10
8032.778296687743
 20
1991.796276635406
 30
0.0
 11
8032.778296687743
 21
1991.796276635406
 31
0.0
  0
LINE
  5
27668
330
747D
100
AcDbEntity
  8
部品1
100
AcDbLine
 10
8032.778296687743
 20
1991.796276635406
 30
0.0
 11
8032.778296687743
 21
1999.896276635405
 31
0.0
  0
LINE
  5
27669
330
747D
100
AcDbEntity
  8
部品1
100
AcDbLine
 10
8035.478296687744
 20
2002.596276635406
 30
0.0
 11
8077.778296687744
 21
2002.596276635403
 31
0.0
  0
ARC
  5
2766A
330
747D
100
AcDbEntity
  8
部品1
100
AcDbCircle
 10
8032.778296687743
 20
1989.096276635406
 30
0.0
 40
2.7
100
AcDbArc
 50
90.0
 51
180.0
  0
ELLIPSE
  5
2766B
330
747D
100
AcDbEntity
  8
部品1
 48
50.0
100
AcDbEllipse
 10
8193.878296687744
 20
2160.119565079678
 30
0.0
 11
18.4
 21
0.0
 31
0.0
210
0.0
220
0.0
230
1.0
 40
0.3478260869565217
 41
0.0
 42
6.283185307179586
  0
LINE
  5
2766C
330
747D
100
AcDbEntity
  8
部品1
 48
50.0
100
AcDbLine
 10
8233.878296687745
 20
2150.519565079678
 30
0.0
 11
8233.878296687745
 21
2160.119565079678
 31
0.0
  0
LINE
  5
2766D
330
747D
100
AcDbEntity
  8
部品1
 48
50.0
100
AcDbLine
 10
8161.878296687744
 20
2281.871557744548
 30
0.0
 11
8177.878296687744
 21
2273.871557744548
 31
0.0
  0
LINE
  5
2766E
330
747D
100
AcDbEntity
  8
部品1
 48
50.0
100
AcDbLine
 10
8161.878296687744
 20
2249.871557744548
 30
0.0
 11
8177.878296687744
 21
2241.871557744548
 31
0.0
  0
LINE
  5
2766F
330
747D
100
AcDbEntity
  8
部品1
 48
50.0
100
AcDbLine
 10
8161.878296687744
 20
2281.871557744548
 30
0.0
 11
8177.878296687744
 21
2289.871557744548
 31
0.0
  0
LINE
  5
27670
330
747D
100
AcDbEntity
  8
部品1
 48
50.0
100
AcDbLine
 10
8161.878296687744
 20
2249.871557744548
 30
0.0
 11
8161.878296687744
 21
2281.871557744548
 31
0.0
  0
LINE
  5
27671
330
747D
100
AcDbEntity
  8
部品1
 48
50.0
100
AcDbLine
 10
8177.878296687744
 20
2289.871557744548
 30
0.0
 11
8209.878296687746
 21
2289.871557744548
 31
0.0
  0
ELLIPSE
  5
27672
330
747D
100
AcDbEntity
  8
細線
 48
50.0
100
AcDbEllipse
 10
8193.878296687744
 20
2281.871557744548
 30
0.0
 11
14.76670786606846
 21
0.0
 31
0.0
210
0.0
220
0.0
230
1.0
 40
0.2071254069489396
 41
0.0
 42
6.283185307179586
  0
LINE
  5
27673
330
747D
100
AcDbEntity
  8
部品1
 48
50.0
100
AcDbLine
 10
8177.878296687744
 20
2241.871557744548
 30
0.0
 11
8209.878296687746
 21
2241.871557744548
 31
0.0
  0
LINE
  5
27674
330
747D
100
AcDbEntity
  8
部品1
 48
50.0
100
AcDbLine
 10
8209.878296687746
 20
2241.871557744548
 30
0.0
 11
8225.878296687744
 21
2249.871557744548
 31
0.0
  0
LINE
  5
27675
330
747D
100
AcDbEntity
  8
部品1
 48
50.0
100
AcDbLine
 10
8177.878296687744
 20
2273.871557744548
 30
0.0
 11
8209.878296687746
 21
2273.871557744548
 31
0.0
  0
LINE
  5
27676
330
747D
100
AcDbEntity
  8
部品1
 48
50.0
100
AcDbLine
 10
8209.878296687746
 20
2273.871557744548
 30
0.0
 11
8225.878296687744
 21
2281.871557744548
 31
0.0
  0
LINE
  5
27677
330
747D
100
AcDbEntity
  8
細線
 48
50.0
100
AcDbLine
 10
8209.878296687746
 20
2241.871557744548
 30
0.0
 11
8209.878296687746
 21
2273.871557744548
 31
0.0
  0
LINE
  5
27678
330
747D
100
AcDbEntity
  8
部品1
 48
50.0
100
AcDbLine
 10
8225.878296687744
 20
2249.871557744548
 30
0.0
 11
8225.878296687744
 21
2281.871557744548
 31
0.0
  0
LINE
  5
27679
330
747D
100
AcDbEntity
  8
細線
 48
50.0
100
AcDbLine
 10
8177.878296687744
 20
2241.871557744548
 30
0.0
 11
8177.878296687744
 21
2273.871557744548
 31
0.0
  0
LINE
  5
2767A
330
747D
100
AcDbEntity
  8
部品1
 48
50.0
100
AcDbLine
 10
8209.878296687746
 20
2289.871557744548
 30
0.0
 11
8225.878296687744
 21
2281.871557744548
 31
0.0
  0
TEXT
  5
2767B
330
747D
100
AcDbEntity
  8
部品1
100
AcDbText
 10
7894.650545879675
 20
3110.783011884564
 30
0.0
 40
120.0
  1
基礎詳細
  7
STYLE2
100
AcDbText
  0
LINE
  5
2767C
330
747D
100
AcDbEntity
  8
部品1
100
AcDbLine
 10
11272.75573008753
 20
326.027974251344
 30
0.0
 11
11272.75573008754
 21
3290.334943835991
 31
0.0
  0
LINE
  5
2767D
330
747D
100
AcDbEntity
  8
細線
100
AcDbLine
 10
10280.64756266728
 20
1650.996276635406
 30
0.0
 11
10086.0142289905
 21
1845.629610312188
 31
0.0
  0
LINE
  5
2767E
330
747D
100
AcDbEntity
  8
部品1
100
AcDbLine
 10
10086.0142289905
 20
1890.996276635405
 30
0.0
 11
10566.0142289905
 21
1890.996276635405
 31
0.0
  0
LINE
  5
2767F
330
747D
100
AcDbEntity
  8
細線
 48
50.0
100
AcDbLine
 10
10220.08511343376
 20
1431.297360982055
 30
0.0
 11
10254.38261006494
 21
1559.297360982055
 31
0.0
  0
LINE
  5
27680
330
747D
100
AcDbEntity
  8
部品1
100
AcDbLine
 10
9966.014228990502
 20
1431.297360982052
 30
0.0
 11
10686.0142289905
 21
1431.297360982055
 31
0.0
  0
LINE
  5
27681
330
747D
100
AcDbEntity
  8
部品1
100
AcDbLine
 10
9966.014228990502
 20
1559.297360982055
 30
0.0
 11
10686.0142289905
 21
1559.297360982058
 31
0.0
  0
LINE
  5
27682
330
747D
100
AcDbEntity
  8
細線
100
AcDbLine
 10
10146.93287448374
 20
1559.297360982055
 30
0.0
 11
10238.63179013709
 21
1650.996276635406
 31
0.0
  0
LWPOLYLINE
  5
27683
330
747D
100
AcDbEntity
  8
部品1
 48
50.0
100
AcDbPolyline
 90
        2
 70
     0
 43
12.0
 10
9701.402966890114
 20
1650.996276635406
 10
10902.49527002174
 20
1650.996276635406
  0
LINE
  5
27684
330
747D
100
AcDbEntity
  8
細線
100
AcDbLine
 10
10229.73587442185
 20
1650.996276635406
 30
0.0
 11
10086.0142289905
 21
1794.717922066758
 31
0.0
  0
TEXT
  5
27685
330
747D
100
AcDbEntity
  8
部品1
 48
50.0
100
AcDbText
 10
9321.896142231999
 20
1384.196535998096
 30
0.0
 40
80.0
  1
ボルトの出
 50
90.0
  7
STYLE2
100
AcDbText
  0
LINE
  5
27686
330
747D
100
AcDbEntity
  8
部品1
100
AcDbLine
 10
10086.0142289905
 20
1650.996276635406
 30
0.0
 11
10086.0142289905
 21
1890.996276635405
 31
0.0
  0
LINE
  5
27687
330
747D
100
AcDbEntity
  8
細線
 48
50.0
100
AcDbLine
 10
10062.30902353926
 20
1431.297360982054
 30
0.0
 11
10096.60652017044
 21
1559.297360982055
 31
0.0
  0
LINE
  5
27688
330
747D
100
AcDbEntity
  8
細線
 48
50.0
100
AcDbLine
 10
10141.19706848651
 20
1431.297360982055
 30
0.0
 11
10175.49456511769
 21
1559.297360982055
 31
0.0
  0
LINE
  5
27689
330
747D
100
AcDbEntity
  8
細線
 48
50.0
100
AcDbLine
 10
9983.420978592015
 20
1431.297360982055
 30
0.0
 11
10017.7184752232
 21
1559.297360982055
 31
0.0
  0
LINE
  5
2768A
330
747D
100
AcDbEntity
  8
部品1
100
AcDbLine
 10
9966.014228990502
 20
1431.297360982052
 30
0.0
 11
9966.014228990502
 21
1650.996276635406
 31
0.0
  0
LINE
  5
2768B
330
747D
100
AcDbEntity
  8
細線
 48
50.0
100
AcDbLine
 10
10068.73980415761
 20
1455.297360982055
 30
0.0
 11
10075.17058477596
 21
1431.297360982055
 31
0.0
  0
LINE
  5
2768C
330
747D
100
AcDbEntity
  8
細線
 48
50.0
100
AcDbLine
 10
9989.851759210361
 20
1455.297360982055
 30
0.0
 11
9996.28253982871
 21
1431.297360982055
 31
0.0
  0
LINE
  5
2768D
330
747D
100
AcDbEntity
  8
細線
 48
50.0
100
AcDbLine
 10
10147.62784910486
 20
1455.297360982055
 30
0.0
 11
10154.05862972321
 21
1431.297360982055
 31
0.0
  0
LINE
  5
2768E
330
747D
100
AcDbEntity
  8
細線
 48
50.0
100
AcDbLine
 10
10226.51589405211
 20
1455.297360982055
 30
0.0
 11
10232.94667467046
 21
1431.297360982055
 31
0.0
  0
LINE
  5
2768F
330
747D
100
AcDbEntity
  8
細線
 48
50.0
100
AcDbLine
 10
10011.28769460485
 20
1535.297360982055
 30
0.0
 11
10004.8569139865
 21
1559.297360982055
 31
0.0
  0
LINE
  5
27690
330
747D
100
AcDbEntity
  8
細線
 48
50.0
100
AcDbLine
 10
10169.06378449935
 20
1535.297360982055
 30
0.0
 11
10162.63300388101
 21
1559.297360982055
 31
0.0
  0
LINE
  5
27691
330
747D
100
AcDbEntity
  8
細線
 48
50.0
100
AcDbLine
 10
10090.1757395521
 20
1535.297360982055
 30
0.0
 11
10083.74495893375
 21
1559.297360982055
 31
0.0
  0
LINE
  5
27692
330
747D
100
AcDbEntity
  8
細線
100
AcDbLine
 10
10079.05062348983
 20
1559.297360982055
 30
0.0
 11
10170.74953914318
 21
1650.996276635406
 31
0.0
  0
LINE
  5
27693
330
747D
100
AcDbEntity
  8
細線
100
AcDbLine
 10
10112.99174898679
 20
1559.297360982055
 30
0.0
 11
10204.69066464013
 21
1650.996276635406
 31
0.0
  0
LINE
  5
27694
330
747D
100
AcDbEntity
  8
細線
100
AcDbLine
 10
10501.26487839749
 20
1650.996276635406
 30
0.0
 11
10261.26487839749
 21
1890.996276635405
 31
0.0
  0
LINE
  5
27695
330
747D
100
AcDbEntity
  8
細線
100
AcDbLine
 10
10552.17656664292
 20
1650.996276635407
 30
0.0
 11
10312.17656664292
 21
1890.996276635405
 31
0.0
  0
LINE
  5
27696
330
747D
100
AcDbEntity
  8
部品1
100
AcDbLine
 10
10566.0142289905
 20
1890.996276635405
 30
0.0
 11
10566.0142289905
 21
1650.996276635406
 31
0.0
  0
LINE
  5
27697
330
747D
100
AcDbEntity
  8
細線
 48
50.0
100
AcDbLine
 10
10535.63729322275
 20
1431.297360982053
 30
0.0
 11
10569.93478985393
 21
1559.297360982053
 31
0.0
  0
LINE
  5
27698
330
747D
100
AcDbEntity
  8
細線
100
AcDbLine
 10
10506.93287448374
 20
1559.297360982057
 30
0.0
 11
10598.63179013708
 21
1650.996276635406
 31
0.0
  0
LINE
  5
27699
330
747D
100
AcDbEntity
  8
細線
 48
50.0
100
AcDbLine
 10
10456.7492482755
 20
1431.297360982054
 30
0.0
 11
10491.04674490667
 21
1559.297360982055
 31
0.0
  0
LINE
  5
2769A
330
747D
100
AcDbEntity
  8
細線
 48
50.0
100
AcDbLine
 10
10298.97315838101
 20
1431.297360982054
 30
0.0
 11
10333.27065501219
 21
1559.297360982055
 31
0.0
  0
LINE
  5
2769B
330
747D
100
AcDbEntity
  8
細線
 48
50.0
100
AcDbLine
 10
10377.86120332825
 20
1431.297360982055
 30
0.0
 11
10412.15869995943
 21
1559.297360982055
 31
0.0
  0
LINE
  5
2769C
330
747D
100
AcDbEntity
  8
細線
 48
50.0
100
AcDbLine
 10
10384.2919839466
 20
1455.297360982055
 30
0.0
 11
10390.72276456495
 21
1431.297360982055
 31
0.0
  0
LINE
  5
2769D
330
747D
100
AcDbEntity
  8
細線
 48
50.0
100
AcDbLine
 10
10305.40393899936
 20
1455.297360982055
 30
0.0
 11
10311.8347196177
 21
1431.297360982055
 31
0.0
  0
LINE
  5
2769E
330
747D
100
AcDbEntity
  8
細線
 48
50.0
100
AcDbLine
 10
10463.18002889385
 20
1455.297360982055
 30
0.0
 11
10469.61080951221
 21
1431.297360982055
 31
0.0
  0
LINE
  5
2769F
330
747D
100
AcDbEntity
  8
細線
 48
50.0
100
AcDbLine
 10
10542.0680738411
 20
1455.297360982054
 30
0.0
 11
10548.49885445944
 21
1431.297360982054
 31
0.0
  0
LINE
  5
276A0
330
747D
100
AcDbEntity
  8
細線
 48
50.0
100
AcDbLine
 10
10405.72791934109
 20
1535.297360982055
 30
0.0
 11
10399.29713872274
 21
1559.297360982055
 31
0.0
  0
LINE
  5
276A1
330
747D
100
AcDbEntity
  8
細線
 48
50.0
100
AcDbLine
 10
10326.83987439384
 20
1535.297360982055
 30
0.0
 11
10320.4090937755
 21
1559.297360982055
 31
0.0
  0
LINE
  5
276A2
330
747D
100
AcDbEntity
  8
細線
 48
50.0
100
AcDbLine
 10
10247.9518294466
 20
1535.297360982055
 30
0.0
 11
10241.52104882825
 21
1559.297360982055
 31
0.0
  0
LINE
  5
276A3
330
747D
100
AcDbEntity
  8
細線
100
AcDbLine
 10
10472.99174898679
 20
1559.297360982057
 30
0.0
 11
10564.69066464013
 21
1650.996276635406
 31
0.0
  0
LINE
  5
276A4
330
747D
100
AcDbEntity
  8
細線
 48
50.0
100
AcDbLine
 10
10484.61596428833
 20
1535.297360982055
 30
0.0
 11
10478.18518366998
 21
1559.297360982055
 31
0.0
  0
LINE
  5
276A5
330
747D
100
AcDbEntity
  8
細線
100
AcDbLine
 10
10439.05062348983
 20
1559.297360982057
 30
0.0
 11
10530.74953914318
 21
1650.996276635406
 31
0.0
  0
LINE
  5
276A6
330
747D
100
AcDbEntity
  8
細線
 48
50.0
100
AcDbLine
 10
10563.50400923559
 20
1535.297360982055
 30
0.0
 11
10557.07322861724
 21
1559.297360982055
 31
0.0
  0
LINE
  5
276A7
330
747D
100
AcDbEntity
  8
細線
 48
50.0
100
AcDbLine
 10
10614.52533816999
 20
1431.297360982054
 30
0.0
 11
10648.82283480118
 21
1559.297360982053
 31
0.0
  0
LINE
  5
276A8
330
747D
100
AcDbEntity
  8
部品1
100
AcDbLine
 10
10686.0142289905
 20
1650.996276635406
 30
0.0
 11
10686.0142289905
 21
1431.297360982055
 31
0.0
  0
LINE
  5
276A9
330
747D
100
AcDbEntity
  8
細線
 48
50.0
100
AcDbLine
 10
10620.95611878834
 20
1455.297360982054
 30
0.0
 11
10627.38689940669
 21
1431.297360982054
 31
0.0
  0
LINE
  5
276AA
330
747D
100
AcDbEntity
  8
細線
 48
50.0
100
AcDbLine
 10
10642.39205418283
 20
1535.297360982055
 30
0.0
 11
10635.96127356449
 21
1559.297360982055
 31
0.0
  0
LEADER
  5
276AB
330
747D
100
AcDbEntity
  8
寸法
 48
50.0
100
AcDbLeader
  3
INABA_S50G
 73
     0
 74
     0
 75
     1
 40
120.0
 41
185.591883092037
 76
     3
 10
10496.73864060642
 20
1890.996276635405
 30
0.0
 10
10529.87684724007
 20
2063.142597316543
 30
0.0
 10
10654.87684724007
 20
2063.142597316543
 30
0.0
340
276AC
1001
ACAD
1000
DSTYLE
1002
{
1070
    40
1040
1.0
1002
}
  0
MTEXT
  5
276AC
102
{ACAD_REACTORS
330
276AB
102
}
330
747D
100
AcDbEntity
  8
寸法
 62
     7
 48
50.0
100
AcDbMText
 10
10679.87684724007
 20
2148.142597316543
 30
0.0
 40
120.0
 41
0.8
 71
     4
 72
     1
  1
\A1;C.B
  7
STYLE1
 73
     1
 44
1.0
1001
ACAD
1000
MTEXTBEGIN
1070
    73
1070
     1
1070
    44
1040
1.0
1070
    74
1070
     0
1000
MTEXTEND
  0
ENDSEC
  0
SECTION
  2
OBJECTS
  0
DICTIONARY
  5
7471
330
0
100
AcDbDictionary
281
     1
  3
ACAD_COLOR
350
173D2
  3
ACAD_GROUP
350
7472
  3
ACAD_LAYOUT
350
173D3
  3
ACAD_MATERIAL
350
173D1
  3
ACAD_MLINESTYLE
350
7473
  3
ACAD_PLOTSETTINGS
350
173D4
  3
ACAD_PLOTSTYLENAME
350
173CF
  3
ACDBHEADERROUNDTRIPXREC
350
2773A
  3
AcDbVariableDictionary
350
27309
  3
CONTENTDICTIONARY
350
E71C
  3
DRAWINGVARIABLESDICT
350
F3B9
  0
DICTIONARY
  5
1758F
330
7467
100
AcDbDictionary
280
     1
281
     1
  3
ACAD_LAYERSTATES
360
17590
  0
DICTIONARY
  5
173D2
102
{ACAD_REACTORS
330
7471
102
}
330
7471
100
AcDbDictionary
281
     1
  0
DICTIONARY
  5
7472
102
{ACAD_REACTORS
330
7471
102
}
330
7471
100
AcDbDictionary
281
     1
  3
*A1
350
1D2A9
  0
DICTIONARY
  5
173D3
102
{ACAD_REACTORS
330
7471
102
}
330
7471
100
AcDbDictionary
281
     1
  3
Model
350
173D5
  3
レイアウト1
350
173D6
  0
DICTIONARY
  5
173D1
102
{ACAD_REACTORS
330
7471
102
}
330
7471
100
AcDbDictionary
281
     1
  0
DICTIONARY
  5
7473
102
{ACAD_REACTORS
330
7471
102
}
330
7471
100
AcDbDictionary
281
     1
  3
STANDARD
350
7480
  0
DICTIONARY
  5
173D4
102
{ACAD_REACTORS
330
7471
102
}
330
7471
100
AcDbDictionary
281
     1
  0
ACDBDICTIONARYWDFLT
  5
173CF
102
{ACAD_REACTORS
330
7471
102
}
330
7471
100
AcDbDictionary
281
     1
  3
Normal
350
173D0
100
AcDbDictionaryWithDefault
340
173D0
  0
DICTIONARY
  5
2773A
102
{ACAD_REACTORS
330
7471
102
}
330
7471
100
AcDbDictionary
281
     1
  3
COLORDICT
350
2773C
  3
MATERIALDICT
350
2773B
  0
DICTIONARY
  5
27309
102
{ACAD_REACTORS
330
7471
102
}
330
7471
100
AcDbDictionary
281
     1
  3
DIMASSOC
350
2730A
  3
PROJECTNAME
350
2730B
  0
DICTIONARY
  5
E71C
102
{ACAD_REACTORS
330
7471
102
}
330
7471
100
AcDbDictionary
281
     1
  0
DICTIONARY
  5
F3B9
102
{ACAD_REACTORS
330
7471
102
}
330
7471
100
AcDbDictionary
281
     1
1001
DRAWINGVARIABLESXDATA
1000
POLARMODE
1000
1
  0
DICTIONARY
  5
17590
102
{ACAD_REACTORS
330
1758F
102
}
330
1758F
100
AcDbDictionary
281
     1
  0
GROUP
  5
1D2A9
102
{ACAD_REACTORS
330
7472
102
}
330
7472
100
AcDbGroup
300

 70
     1
 71
     1
  0
LAYOUT
  5
173D5
102
{ACAD_XDICTIONARY
360
2773D
102
}
102
{ACAD_REACTORS
330
173D3
102
}
330
173D3
100
AcDbPlotSettings
  1

  2
Microsoft Office Document Image Writer
  4

  6

 40
0.0
 41
0.0
 42
0.0
 43
0.0
 44
0.0
 45
0.0
 46
0.0
 47
0.0
 48
0.0
 49
0.0
140
0.0
141
0.0
142
1.0
143
1.0
 70
  1712
 72
     0
 73
     0
 74
     0
  7

 75
     0
147
1.0
148
0.0
149
0.0
100
AcDbLayout
  1
Model
 70
     1
 71
     0
 10
0.0
 20
0.0
 11
12.0
 21
9.0
 12
0.0
 22
0.0
 32
0.0
 14
0.0
 24
0.0
 34
0.0
 15
0.0
 25
0.0
 35
0.0
146
0.0
 13
0.0
 23
0.0
 33
0.0
 16
1.0
 26
0.0
 36
0.0
 17
0.0
 27
1.0
 37
0.0
 76
     0
330
747D
  0
LAYOUT
  5
173D6
102
{ACAD_XDICTIONARY
360
2773F
102
}
102
{ACAD_REACTORS
330
173D3
102
}
330
173D3
100
AcDbPlotSettings
  1

  2
Microsoft Office Document Image Writer
  4

  6

 40
0.0
 41
0.0
 42
0.0
 43
0.0
 44
0.0
 45
0.0
 46
0.0
 47
0.0
 48
0.0
 49
0.0
140
0.0
141
0.0
142
1.0
143
1.0
 70
   688
 72
     0
 73
     0
 74
     5
  7

 75
    16
147
1.0
148
0.0
149
0.0
100
AcDbLayout
  1
レイアウト1
 70
     0
 71
     1
 10
0.0
 20
0.0
 11
420.0
 21
297.0
 12
0.0
 22
0.0
 32
0.0
 14
1.000000000000000E+20
 24
1.000000000000000E+20
 34
1.000000000000000E+20
 15
-1.000000000000000E+20
 25
-1.000000000000000E+20
 35
-1.000000000000000E+20
146
0.0
 13
0.0
 23
0.0
 33
0.0
 16
1.0
 26
0.0
 36
0.0
 17
0.0
 27
1.0
 37
0.0
 76
     0
330
747A
  0
MLINESTYLE
  5
7480
102
{ACAD_REACTORS
330
7473
102
}
330
7473
100
AcDbMlineStyle
  2
STANDARD
 70
     0
  3

 62
     0
 51
90.0
 52
90.0
 71
     2
 49
0.5
 62
   256
  6
BYLAYER
 49
-0.5
 62
   256
  6
BYLAYER
  0
ACDBPLACEHOLDER
  5
173D0
102
{ACAD_REACTORS
330
173CF
102
}
330
173CF
  0
XRECORD
  5
2773C
102
{ACAD_REACTORS
330
2773A
102
}
330
2773A
100
AcDbXrecord
280
     1
340
173D2
  0
XRECORD
  5
2773B
102
{ACAD_REACTORS
330
2773A
102
}
330
2773A
100
AcDbXrecord
280
     1
340
173D1
  0
DICTIONARYVAR
  5
2730A
102
{ACAD_REACTORS
330
27309
102
}
330
27309
100
DictionaryVariables
280
     0
  1
1
  0
DICTIONARYVAR
  5
2730B
102
{ACAD_REACTORS
330
27309
102
}
330
27309
100
DictionaryVariables
280
     0
  1

  0
DICTIONARY
  5
2773D
330
173D5
100
AcDbDictionary
280
     1
281
     1
  3
ACAD_XREC_ROUNDTRIP
360
2773E
  0
DICTIONARY
  5
2773F
330
173D6
100
AcDbDictionary
280
     1
281
     1
  3
ACAD_XREC_ROUNDTRIP
360
27740
  0
XRECORD
  5
2773E
102
{ACAD_REACTORS
330
2773D
102
}
330
2773D
100
AcDbXrecord
280
     1
102
SHADEPLOT
 70
     0
102
SHADEPLOTRESLEVEL
 70
     2
102
SHADEPLOTCUSTOMDPI
 70
   300
  0
XRECORD
  5
27740
102
{ACAD_REACTORS
330
2773F
102
}
330
2773F
100
AcDbXrecord
280
     1
102
SHADEPLOT
 70
     0
102
SHADEPLOTRESLEVEL
 70
     2
102
SHADEPLOTCUSTOMDPI
 70
   300
  0
ENDSEC
  0
EOF
