  0
SECTION
  2
HEADER
  9
$ACADVER
  1
AC1015
  9
$ACADMAINTVER
 70
    20
  9
$DWGCODEPAGE
  3
ANSI_932
  9
$INSBASE
 10
0.0
 20
0.0
 30
0.0
  9
$EXTMIN
 10
139.9999999999995
 20
-0.0000000000000909
 30
0.0
  9
$EXTMAX
 10
16307.2
 20
11409.6
 30
0.0
  9
$LIMMIN
 10
0.0
 20
0.0
  9
$LIMMAX
 10
16800.0
 20
11880.0
  9
$ORTHOMODE
 70
     0
  9
$REGENMODE
 70
     1
  9
$FILLMODE
 70
     1
  9
$QTEXTMODE
 70
     0
  9
$MIRRTEXT
 70
     1
  9
$LTSCALE
 40
20.0
  9
$ATTMODE
 70
     1
  9
$TEXTSIZE
 40
4.0
  9
$TRACEWID
 40
1.0
  9
$TEXTSTYLE
  7
STYLE1
  9
$CLAYER
  8
寸法
  9
$CELTYPE
  6
BYLAYER
  9
$CECOLOR
 62
   256
  9
$CELTSCALE
 40
50.0
  9
$DISPSILH
 70
     0
  9
$DIMSCALE
 40
40.0
  9
$DIMASZ
 40
2.5
  9
$DIMEXO
 40
0.5
  9
$DIMDLI
 40
7.0
  9
$DIMRND
 40
0.0
  9
$DIMDLE
 40
0.0
  9
$DIMEXE
 40
1.5
  9
$DIMTP
 40
0.0
  9
$DIMTM
 40
0.0
  9
$DIMTXT
 40
3.0
  9
$DIMCEN
 40
0.0
  9
$DIMTSZ
 40
0.0
  9
$DIMTOL
 70
     0
  9
$DIMLIM
 70
     0
  9
$DIMTIH
 70
     0
  9
$DIMTOH
 70
     0
  9
$DIMSE1
 70
     0
  9
$DIMSE2
 70
     0
  9
$DIMTAD
 70
     3
  9
$DIMZIN
 70
     8
  9
$DIMBLK
  1

  9
$DIMASO
 70
     1
  9
$DIMSHO
 70
     1
  9
$DIMPOST
  1

  9
$DIMAPOST
  1

  9
$DIMALT
 70
     0
  9
$DIMALTD
 70
     2
  9
$DIMALTF
 40
0.0394
  9
$DIMLFAC
 40
1.0
  9
$DIMTOFL
 70
     1
  9
$DIMTVP
 40
0.0
  9
$DIMTIX
 70
     1
  9
$DIMSOXD
 70
     0
  9
$DIMSAH
 70
     1
  9
$DIMBLK1
  1
DOTSMALL
  9
$DIMBLK2
  1
DOTSMALL
  9
$DIMSTYLE
  2
INABA_S40G
  9
$DIMCLRD
 70
     0
  9
$DIMCLRE
 70
     0
  9
$DIMCLRT
 70
     7
  9
$DIMTFAC
 40
1.0
  9
$DIMGAP
 40
1.0
  9
$DIMJUST
 70
     0
  9
$DIMSD1
 70
     0
  9
$DIMSD2
 70
     0
  9
$DIMTOLJ
 70
     1
  9
$DIMTZIN
 70
     0
  9
$DIMALTZ
 70
     0
  9
$DIMALTTZ
 70
     0
  9
$DIMUPT
 70
     0
  9
$DIMDEC
 70
     1
  9
$DIMTDEC
 70
     4
  9
$DIMALTU
 70
     2
  9
$DIMALTTD
 70
     2
  9
$DIMTXSTY
  7
STYLE1
  9
$DIMAUNIT
 70
     0
  9
$DIMADEC
 70
     0
  9
$DIMALTRND
 40
0.0
  9
$DIMAZIN
 70
     0
  9
$DIMDSEP
 70
    46
  9
$DIMATFIT
 70
     3
  9
$DIMFRAC
 70
     0
  9
$DIMLDRBLK
  1

  9
$DIMLUNIT
 70
     2
  9
$DIMLWD
 70
    -2
  9
$DIMLWE
 70
    -2
  9
$DIMTMOVE
 70
     0
  9
$LUNITS
 70
     2
  9
$LUPREC
 70
     1
  9
$SKETCHINC
 40
1.0
  9
$FILLETRAD
 40
3.0
  9
$AUNITS
 70
     0
  9
$AUPREC
 70
     0
  9
$MENU
  1
acad
  9
$ELEVATION
 40
0.0
  9
$PELEVATION
 40
0.0
  9
$THICKNESS
 40
0.0
  9
$LIMCHECK
 70
     0
  9
$CHAMFERA
 40
0.0
  9
$CHAMFERB
 40
0.0
  9
$CHAMFERC
 40
0.0
  9
$CHAMFERD
 40
0.0
  9
$SKPOLY
 70
     0
  9
$TDCREATE
 40
2451368.612993866
  9
$TDUCREATE
 40
2451368.237993866
  9
$TDUPDATE
 40
2455826.588369502
  9
$TDUUPDATE
 40
2455826.213369503
  9
$TDINDWG
 40
0.7773693519
  9
$TDUSRTIMER
 40
0.7773693519
  9
$USRTIMER
 70
     1
  9
$ANGBASE
 50
0.0
  9
$ANGDIR
 70
     0
  9
$PDMODE
 70
     3
  9
$PDSIZE
 40
2.0
  9
$PLINEWID
 40
0.0
  9
$SPLFRAME
 70
     0
  9
$SPLINETYPE
 70
     6
  9
$SPLINESEGS
 70
     8
  9
$HANDSEED
  5
26DCC
  9
$SURFTAB1
 70
     6
  9
$SURFTAB2
 70
     6
  9
$SURFTYPE
 70
     6
  9
$SURFU
 70
     6
  9
$SURFV
 70
     6
  9
$UCSBASE
  2

  9
$UCSNAME
  2

  9
$UCSORG
 10
0.0
 20
0.0
 30
0.0
  9
$UCSXDIR
 10
1.0
 20
0.0
 30
0.0
  9
$UCSYDIR
 10
0.0
 20
1.0
 30
0.0
  9
$UCSORTHOREF
  2

  9
$UCSORTHOVIEW
 70
     0
  9
$UCSORGTOP
 10
0.0
 20
0.0
 30
0.0
  9
$UCSORGBOTTOM
 10
0.0
 20
0.0
 30
0.0
  9
$UCSORGLEFT
 10
0.0
 20
0.0
 30
0.0
  9
$UCSORGRIGHT
 10
0.0
 20
0.0
 30
0.0
  9
$UCSORGFRONT
 10
0.0
 20
0.0
 30
0.0
  9
$UCSORGBACK
 10
0.0
 20
0.0
 30
0.0
  9
$PUCSBASE
  2

  9
$PUCSNAME
  2

  9
$PUCSORG
 10
0.0
 20
0.0
 30
0.0
  9
$PUCSXDIR
 10
1.0
 20
0.0
 30
0.0
  9
$PUCSYDIR
 10
0.0
 20
1.0
 30
0.0
  9
$PUCSORTHOREF
  2

  9
$PUCSORTHOVIEW
 70
     0
  9
$PUCSORGTOP
 10
0.0
 20
0.0
 30
0.0
  9
$PUCSORGBOTTOM
 10
0.0
 20
0.0
 30
0.0
  9
$PUCSORGLEFT
 10
0.0
 20
0.0
 30
0.0
  9
$PUCSORGRIGHT
 10
0.0
 20
0.0
 30
0.0
  9
$PUCSORGFRONT
 10
0.0
 20
0.0
 30
0.0
  9
$PUCSORGBACK
 10
0.0
 20
0.0
 30
0.0
  9
$USERI1
 70
     0
  9
$USERI2
 70
     0
  9
$USERI3
 70
     0
  9
$USERI4
 70
     0
  9
$USERI5
 70
     0
  9
$USERR1
 40
0.0
  9
$USERR2
 40
0.0
  9
$USERR3
 40
0.0
  9
$USERR4
 40
0.0
  9
$USERR5
 40
0.0
  9
$WORLDVIEW
 70
     1
  9
$SHADEDGE
 70
     3
  9
$SHADEDIF
 70
    70
  9
$TILEMODE
 70
     1
  9
$MAXACTVP
 70
    16
  9
$PINSBASE
 10
0.0
 20
0.0
 30
0.0
  9
$PLIMCHECK
 70
     0
  9
$PEXTMIN
 10
1.000000000000000E+20
 20
1.000000000000000E+20
 30
1.000000000000000E+20
  9
$PEXTMAX
 10
-1.000000000000000E+20
 20
-1.000000000000000E+20
 30
-1.000000000000000E+20
  9
$PLIMMIN
 10
0.0
 20
0.0
  9
$PLIMMAX
 10
420.0
 20
297.0
  9
$UNITMODE
 70
     0
  9
$VISRETAIN
 70
     0
  9
$PLINEGEN
 70
     0
  9
$PSLTSCALE
 70
     0
  9
$TREEDEPTH
 70
  3020
  9
$CMLSTYLE
  2
STANDARD
  9
$CMLJUST
 70
     0
  9
$CMLSCALE
 40
1.0
  9
$PROXYGRAPHICS
 70
     1
  9
$MEASUREMENT
 70
     1
  9
$CELWEIGHT
370
    -1
  9
$ENDCAPS
280
     0
  9
$JOINSTYLE
280
     0
  9
$LWDISPLAY
290
     0
  9
$INSUNITS
 70
     0
  9
$HYPERLINKBASE
  1

  9
$STYLESHEET
  1

  9
$XEDIT
290
     1
  9
$CEPSNTYPE
380
     0
  9
$PSTYLEMODE
290
     1
  9
$FINGERPRINTGUID
  2
{5EAC461A-2277-4BF8-9AB0-99C43BB394F0}
  9
$VERSIONGUID
  2
{03B055C5-819C-4B75-8C7F-1ED57ADED0EC}
  9
$EXTNAMES
290
     1
  9
$PSVPSCALE
 40
0.0
  9
$OLESTARTUP
290
     0
  0
ENDSEC
  0
SECTION
  2
CLASSES
  0
CLASS
  1
ACDBDICTIONARYWDFLT
  2
AcDbDictionaryWithDefault
  3
ObjectDBX Classes
 90
        0
280
     0
281
     0
  0
CLASS
  1
DICTIONARYVAR
  2
AcDbDictionaryVar
  3
ObjectDBX Classes
 90
        0
280
     0
281
     0
  0
CLASS
  1
ACDBPLACEHOLDER
  2
AcDbPlaceHolder
  3
ObjectDBX Classes
 90
        0
280
     0
281
     0
  0
CLASS
  1
LAYOUT
  2
AcDbLayout
  3
ObjectDBX Classes
 90
        0
280
     0
281
     0
  0
ENDSEC
  0
SECTION
  2
TABLES
  0
TABLE
  2
VPORT
  5
746D
330
0
100
AcDbSymbolTable
 70
     2
  0
VPORT
  5
26DC4
330
746D
100
AcDbSymbolTableRecord
100
AcDbViewportTableRecord
  2
*Active
 70
     0
 10
0.0
 20
0.0
 11
1.0
 21
1.0
 12
8400.0
 22
6532.223175279203
 13
0.0
 23
0.0
 14
10.0
 24
10.0
 15
10.0
 25
10.0
 16
0.0
 26
0.0
 36
1.0
 17
0.0
 27
0.0
 37
0.0
 40
13160.56358925593
 41
1.522222222222222
 42
50.0
 43
0.0
 44
0.0
 50
0.0
 51
0.0
 71
     0
 72
     0
 73
     1
 74
     0
 75
     0
 76
     0
 77
     0
 78
     0
281
     0
 65
     1
110
0.0
120
0.0
130
0.0
111
1.0
121
0.0
131
0.0
112
0.0
122
1.0
132
0.0
 79
     0
146
0.0
  0
ENDTAB
  0
TABLE
  2
LTYPE
  5
746A
330
0
100
AcDbSymbolTable
 70
     5
  0
LTYPE
  5
7477
330
746A
100
AcDbSymbolTableRecord
100
AcDbLinetypeTableRecord
  2
BYBLOCK
 70
     0
  3

 72
    65
 73
     0
 40
0.0
  0
LTYPE
  5
7478
330
746A
100
AcDbSymbolTableRecord
100
AcDbLinetypeTableRecord
  2
BYLAYER
 70
     0
  3

 72
    65
 73
     0
 40
0.0
  0
LTYPE
  5
7479
330
746A
100
AcDbSymbolTableRecord
100
AcDbLinetypeTableRecord
  2
CONTINUOUS
 70
     0
  3
Solid line
 72
    65
 73
     0
 40
0.0
  0
LTYPE
  5
7816
330
746A
100
AcDbSymbolTableRecord
100
AcDbLinetypeTableRecord
  2
CENTER
 70
     0
  3
____ _ ____ _ ____ _ ____ _ ____ _ ____ _ ____ 
 72
    65
 73
     4
 40
2.0
 49
1.25
 74
     0
 49
-0.25
 74
     0
 49
0.25
 74
     0
 49
-0.25
 74
     0
  0
LTYPE
  5
781A
330
746A
100
AcDbSymbolTableRecord
100
AcDbLinetypeTableRecord
  2
HIDDEN
 70
     0
  3
__ __ __ __ __ __ __ __ __ __ __ __ __ __ __ __
 72
    65
 73
     2
 40
0.375
 49
0.25
 74
     0
 49
-0.125
 74
     0
  0
LTYPE
  5
781B
330
746A
100
AcDbSymbolTableRecord
100
AcDbLinetypeTableRecord
  2
PHANTOM
 70
     0
  3
______  __  __  ______  __  __  ______  __  __ 
 72
    65
 73
     6
 40
2.5
 49
1.25
 74
     0
 49
-0.25
 74
     0
 49
0.25
 74
     0
 49
-0.25
 74
     0
 49
0.25
 74
     0
 49
-0.25
 74
     0
  0
LTYPE
  5
12CC3
330
746A
100
AcDbSymbolTableRecord
100
AcDbLinetypeTableRecord
  2
HIDDENX2
 70
     0
  3
Hidden (2x) ____ ____ ____ ____ ____ ____ ____
 72
    65
 73
     2
 40
19.05
 49
12.7
 74
     0
 49
-6.349999999999999
 74
     0
  0
ENDTAB
  0
TABLE
  2
LAYER
  5
7467
102
{ACAD_XDICTIONARY
360
1758F
102
}
330
0
100
AcDbSymbolTable
 70
    12
  0
LAYER
  5
7474
330
7467
100
AcDbSymbolTableRecord
100
AcDbLayerTableRecord
  2
0
 70
     0
 62
     7
  6
CONTINUOUS
370
    -3
390
173D0
  0
LAYER
  5
DEB2
330
7467
100
AcDbSymbolTableRecord
100
AcDbLayerTableRecord
  2
センター
 70
     0
 62
     3
  6
CENTER
370
    -3
390
173D0
  0
LAYER
  5
DEB3
330
7467
100
AcDbSymbolTableRecord
100
AcDbLayerTableRecord
  2
寸法
 70
     0
 62
     4
  6
CONTINUOUS
370
    -3
390
173D0
  0
LAYER
  5
DEB4
330
7467
100
AcDbSymbolTableRecord
100
AcDbLayerTableRecord
  2
部品1
 70
     0
 62
     7
  6
CONTINUOUS
370
    -3
390
173D0
  0
LAYER
  5
DEB5
330
7467
100
AcDbSymbolTableRecord
100
AcDbLayerTableRecord
  2
補助
 70
     0
 62
    -1
  6
CONTINUOUS
370
    -3
390
173D0
  0
LAYER
  5
DEB6
330
7467
100
AcDbSymbolTableRecord
100
AcDbLayerTableRecord
  2
文字
 70
     0
 62
     7
  6
CONTINUOUS
370
    -3
390
173D0
  0
LAYER
  5
F255
330
7467
100
AcDbSymbolTableRecord
100
AcDbLayerTableRecord
  2
DEFPOINTS
 70
     0
 62
     7
  6
CONTINUOUS
290
     0
370
    -3
390
173D0
  0
LAYER
  5
10B54
330
7467
100
AcDbSymbolTableRecord
100
AcDbLayerTableRecord
  2
仕様書枠
 70
     0
 62
   230
  6
CONTINUOUS
370
    -3
390
173D0
  0
LAYER
  5
11729
330
7467
100
AcDbSymbolTableRecord
100
AcDbLayerTableRecord
  2
Ｇ．Ｌ
 70
     0
 62
    30
  6
CONTINUOUS
370
    -3
390
173D0
  0
LAYER
  5
1173F
330
7467
100
AcDbSymbolTableRecord
100
AcDbLayerTableRecord
  2
細線
 70
     0
 62
     5
  6
CONTINUOUS
370
    -3
390
173D0
  0
LAYER
  5
12CC4
330
7467
100
AcDbSymbolTableRecord
100
AcDbLayerTableRecord
  2
想像線
 70
     0
 62
     6
  6
PHANTOM
370
    -3
390
173D0
  0
LAYER
  5
142E2
330
7467
100
AcDbSymbolTableRecord
100
AcDbLayerTableRecord
  2
破線
 70
     0
 62
     2
  6
HIDDEN
370
    -3
390
173D0
  0
ENDTAB
  0
TABLE
  2
STYLE
  5
7468
330
0
100
AcDbSymbolTable
 70
     7
  0
STYLE
  5
7475
330
7468
100
AcDbSymbolTableRecord
100
AcDbTextStyleTableRecord
  2
STANDARD
 70
     0
 40
0.0
 41
1.0
 50
0.0
 71
     0
 42
4.0
  3
txt
  4
C:\AutoCAD LT\bigfont.shx
  0
STYLE
  5
763C
330
7468
100
AcDbSymbolTableRecord
100
AcDbTextStyleTableRecord
  2
MSMINCHO
 70
     0
 40
0.0
 41
1.0
 50
0.0
 71
     0
 42
1.199999999999999
  3
C:\AutoCAD LT\msminch2.TTF
  4

  0
STYLE
  5
F706
330
7468
100
AcDbSymbolTableRecord
100
AcDbTextStyleTableRecord
  2
STYLE1
 70
     0
 40
0.0
 41
1.0
 50
0.0
 71
     0
 42
4.0
  3
isocp.shx
  4
bigfont.shx
  0
STYLE
  5
103BF
330
7468
100
AcDbSymbolTableRecord
100
AcDbTextStyleTableRecord
  2
STYLE2
 70
     0
 40
0.0
 41
1.0
 50
0.0
 71
     0
 42
100.0
  3
MS PGothic.ttf
  4

1001
ACAD
1000
MS PGothic
1071
    32818
  0
STYLE
  5
10BAA
330
7468
100
AcDbSymbolTableRecord
100
AcDbTextStyleTableRecord
  2
STYLE3
 70
     0
 40
0.0
 41
1.0
 50
0.0
 71
     0
 42
100.0
  3

  4

1001
ACAD
1000
DFPGothic-EB
1071
    32818
  0
STYLE
  5
11A15
330
7468
100
AcDbSymbolTableRecord
100
AcDbTextStyleTableRecord
  2
MSGOTHIC
 70
     0
 40
0.0
 41
1.0
 50
0.0
 71
     0
 42
3.5
  3
msgothi2.ttf
  4

  0
STYLE
  5
13E96
330
7468
100
AcDbSymbolTableRecord
100
AcDbTextStyleTableRecord
  2
MSPゴシック
 70
     0
 40
0.0
 41
1.0
 50
0.0
 71
     0
 42
4.0
  3
MS PGothic.ttf
  4

1001
ACAD
1000
MS PGothic
1071
    32818
  0
ENDTAB
  0
TABLE
  2
VIEW
  5
746B
330
0
100
AcDbSymbolTable
 70
     0
  0
ENDTAB
  0
TABLE
  2
UCS
  5
746C
330
0
100
AcDbSymbolTable
 70
     0
  0
ENDTAB
  0
TABLE
  2
APPID
  5
746E
330
0
100
AcDbSymbolTable
 70
     6
  0
APPID
  5
7476
330
746E
100
AcDbSymbolTableRecord
100
AcDbRegAppTableRecord
  2
ACAD
 70
     0
  0
APPID
  5
DEA9
330
746E
100
AcDbSymbolTableRecord
100
AcDbRegAppTableRecord
  2
CONTENTBLOCKICON
 70
     0
  0
APPID
  5
DEAA
330
746E
100
AcDbSymbolTableRecord
100
AcDbRegAppTableRecord
  2
CONTENTBLOCKDESCRIPTION
 70
     0
  0
APPID
  5
E71D
330
746E
100
AcDbSymbolTableRecord
100
AcDbRegAppTableRecord
  2
CONTENTTABDATA
 70
     0
  0
APPID
  5
E71E
330
746E
100
AcDbSymbolTableRecord
100
AcDbRegAppTableRecord
  2
CONTENTCURRENTTAB
 70
     0
  0
APPID
  5
F3BA
330
746E
100
AcDbSymbolTableRecord
100
AcDbRegAppTableRecord
  2
DRAWINGVARIABLESXDATA
 70
     0
  0
ENDTAB
  0
TABLE
  2
DIMSTYLE
  5
746F
330
0
100
AcDbSymbolTable
 70
     6
100
AcDbDimStyleTable
 71
     1
340
F71F
  0
DIMSTYLE
105
7484
330
746F
100
AcDbSymbolTableRecord
100
AcDbDimStyleTableRecord
  2
JIS
 70
     0
 41
2.5
 42
1.0
 43
7.0
 44
1.0
 73
     0
 74
     0
 77
     1
 78
     8
140
2.5
141
0.0
143
0.0394
147
0.0
172
     1
174
     1
175
     1
340
7475
  0
DIMSTYLE
105
F236
330
746F
100
AcDbSymbolTableRecord
100
AcDbDimStyleTableRecord
  2
INABA_S40
 70
     0
 40
40.0
 41
2.5
 42
0.5
 43
7.0
 44
1.5
 73
     0
 74
     0
 77
     3
 78
     8
140
3.0
141
0.0
143
0.0394
147
1.0
172
     1
173
     1
174
     1
175
     1
178
     7
289
     0
340
7475
341
DEAC
343
DEAC
344
DEAC
  0
DIMSTYLE
105
F71F
102
{ACAD_REACTORS
330
20DE1
330
20DFB
330
22741
330
2275B
330
23978
330
23980
330
239DB
330
26537
330
26517
330
26516
330
26515
330
2650E
330
2649B
330
26494
330
26492
330
26482
330
26481
330
2647F
330
2647E
330
2643A
330
26439
330
26434
330
26443
330
26440
330
2643F
330
26442
330
2643D
330
26CBB
330
26D1B
330
26D1E
330
26D25
330
26D2D
330
26D2E
102
}
330
746F
100
AcDbSymbolTableRecord
100
AcDbDimStyleTableRecord
  2
INABA_S40G
 70
     0
 40
40.0
 41
2.5
 42
0.5
 43
7.0
 44
1.5
 73
     0
 74
     0
 77
     3
 78
     8
140
3.0
141
0.0
143
0.0394
147
1.0
172
     1
173
     1
174
     1
178
     7
271
     1
340
F706
341
F770
343
F770
344
F770
  0
DIMSTYLE
105
142E3
330
746F
100
AcDbSymbolTableRecord
100
AcDbDimStyleTableRecord
  2
INABA_S1
 70
     0
 40
0.0
 41
2.5
 42
0.5
 43
7.0
 44
1.5
 73
     0
 74
     0
 77
     3
 78
     8
140
3.0
141
0.0
143
0.0394
146
0.5
147
0.5
172
     1
173
     1
176
   256
177
   256
178
     7
271
     2
272
     2
284
     8
288
     1
340
7475
341
DEAC
343
DEAC
344
DEAC
  0
DIMSTYLE
105
14463
330
746F
100
AcDbSymbolTableRecord
100
AcDbDimStyleTableRecord
  2
INABA_S30G
 70
     0
 40
30.0
 41
2.5
 42
0.5
 43
7.0
 44
1.5
 73
     0
 74
     0
 77
     3
 78
     8
140
3.0
141
0.0
143
0.0394
147
1.0
172
     1
173
     1
174
     1
175
     1
178
     7
271
     1
340
F706
341
F770
343
F770
344
F770
  0
DIMSTYLE
105
1758E
330
746F
100
AcDbSymbolTableRecord
100
AcDbDimStyleTableRecord
  2
INABA_S50G
 70
     0
 41
125.0
 42
25.0
 43
7.0
 44
75.0
 73
     0
 74
     0
 77
     3
 78
     8
140
150.0
141
0.0
143
0.0394
147
25.0
172
     1
173
     1
174
     1
175
     1
178
     7
271
     1
340
F706
341
F770
343
F770
344
F770
  0
ENDTAB
  0
TABLE
  2
BLOCK_RECORD
  5
7466
330
0
100
AcDbSymbolTable
 70
    62
  0
BLOCK_RECORD
  5
747D
330
7466
100
AcDbSymbolTableRecord
100
AcDbBlockTableRecord
  2
*MODEL_SPACE
340
173D5
  0
BLOCK_RECORD
  5
747A
330
7466
100
AcDbSymbolTableRecord
100
AcDbBlockTableRecord
  2
*PAPER_SPACE
340
173D6
  0
BLOCK_RECORD
  5
DEAC
330
7466
100
AcDbSymbolTableRecord
100
AcDbBlockTableRecord
  2
_OPEN
340
0
  0
BLOCK_RECORD
  5
F770
330
7466
100
AcDbSymbolTableRecord
100
AcDbBlockTableRecord
  2
_DOTSMALL
340
0
102
{BLKREFS
331
18C65
331
18C66
331
18C59
331
18C5A
331
18C4D
331
18C4E
331
18C41
331
18C42
331
18C35
331
18C36
331
18C29
331
18C2A
331
18C1D
331
18C1E
331
18C0F
331
18C10
331
18C03
331
18C04
331
18BF5
331
18BF6
331
18BE7
331
18BE8
331
18BD9
331
18BDA
331
18BCD
331
18BCE
331
21316
331
21317
331
21321
331
21322
331
2132A
331
2132B
331
2689B
331
2689C
331
268A4
331
268A5
331
268AD
331
268AE
331
268B6
331
268B7
331
268C0
331
268C1
331
268CA
331
268CB
331
268D3
331
268D4
331
268DC
331
268DD
331
268E6
331
268E7
331
268F0
331
268F1
331
268F9
331
268FA
331
26902
331
26903
331
2690B
331
2690C
331
26914
331
26915
331
2691D
331
2691E
331
26930
331
26931
331
26942
331
26943
331
2694C
331
2694D
331
26961
331
26962
331
2696B
331
2696C
331
26980
331
26981
331
2698B
331
2698C
331
26996
331
26997
331
269BA
331
269BB
331
269C3
331
269C4
331
26A50
331
26A51
331
26A5A
331
26A5B
331
26A7A
331
26A7B
331
26AC3
331
26AC4
331
26AB7
331
26AB8
331
26AAB
331
26AAC
331
26A9F
331
26AA0
331
26A93
331
26A94
331
26A85
331
26A86
331
26D85
331
26D86
331
26D8E
331
26D8F
331
26D97
331
26D98
331
26DA0
331
26DA1
331
26DAB
331
26DAC
331
26DB4
331
26DB5
102
}
  0
BLOCK_RECORD
  5
164B4
330
7466
100
AcDbSymbolTableRecord
100
AcDbBlockTableRecord
  2
_DOT
340
0
102
{BLKREFS
331
18C73
331
18C74
102
}
  0
BLOCK_RECORD
  5
18BC8
330
7466
100
AcDbSymbolTableRecord
100
AcDbBlockTableRecord
  2
*D3
340
0
  0
BLOCK_RECORD
  5
18BD4
330
7466
100
AcDbSymbolTableRecord
100
AcDbBlockTableRecord
  2
*D4
340
0
  0
BLOCK_RECORD
  5
18BE0
330
7466
100
AcDbSymbolTableRecord
100
AcDbBlockTableRecord
  2
*D5
340
0
  0
BLOCK_RECORD
  5
18BEE
330
7466
100
AcDbSymbolTableRecord
100
AcDbBlockTableRecord
  2
*D6
340
0
  0
BLOCK_RECORD
  5
18BFC
330
7466
100
AcDbSymbolTableRecord
100
AcDbBlockTableRecord
  2
*D7
340
0
  0
BLOCK_RECORD
  5
18C0A
330
7466
100
AcDbSymbolTableRecord
100
AcDbBlockTableRecord
  2
*D8
340
0
  0
BLOCK_RECORD
  5
18C16
330
7466
100
AcDbSymbolTableRecord
100
AcDbBlockTableRecord
  2
*D9
340
0
  0
BLOCK_RECORD
  5
18C24
330
7466
100
AcDbSymbolTableRecord
100
AcDbBlockTableRecord
  2
*D10
340
0
  0
BLOCK_RECORD
  5
18C30
330
7466
100
AcDbSymbolTableRecord
100
AcDbBlockTableRecord
  2
*D11
340
0
  0
BLOCK_RECORD
  5
18C3C
330
7466
100
AcDbSymbolTableRecord
100
AcDbBlockTableRecord
  2
*D12
340
0
  0
BLOCK_RECORD
  5
18C48
330
7466
100
AcDbSymbolTableRecord
100
AcDbBlockTableRecord
  2
*D13
340
0
  0
BLOCK_RECORD
  5
18C54
330
7466
100
AcDbSymbolTableRecord
100
AcDbBlockTableRecord
  2
*D14
340
0
  0
BLOCK_RECORD
  5
18C60
330
7466
100
AcDbSymbolTableRecord
100
AcDbBlockTableRecord
  2
*D15
340
0
  0
BLOCK_RECORD
  5
18C6C
330
7466
100
AcDbSymbolTableRecord
100
AcDbBlockTableRecord
  2
*D16
340
0
  0
BLOCK_RECORD
  5
18C7A
330
7466
100
AcDbSymbolTableRecord
100
AcDbBlockTableRecord
  2
A$C3B1A506B
340
0
  0
BLOCK_RECORD
  5
1C4CA
330
7466
100
AcDbSymbolTableRecord
100
AcDbBlockTableRecord
  2
_NONE
340
0
  0
BLOCK_RECORD
  5
20DE2
330
7466
100
AcDbSymbolTableRecord
100
AcDbBlockTableRecord
  2
*D19
340
0
  0
BLOCK_RECORD
  5
20DFC
330
7466
100
AcDbSymbolTableRecord
100
AcDbBlockTableRecord
  2
*D20
340
0
  0
BLOCK_RECORD
  5
22742
330
7466
100
AcDbSymbolTableRecord
100
AcDbBlockTableRecord
  2
*D25
340
0
  0
BLOCK_RECORD
  5
2275C
330
7466
100
AcDbSymbolTableRecord
100
AcDbBlockTableRecord
  2
*D26
340
0
  0
BLOCK_RECORD
  5
239F3
330
7466
100
AcDbSymbolTableRecord
100
AcDbBlockTableRecord
  2
*D27
340
0
  0
BLOCK_RECORD
  5
23A23
330
7466
100
AcDbSymbolTableRecord
100
AcDbBlockTableRecord
  2
*D28
340
0
  0
BLOCK_RECORD
  5
23ADE
330
7466
100
AcDbSymbolTableRecord
100
AcDbBlockTableRecord
  2
*D29
340
0
  0
BLOCK_RECORD
  5
26559
330
7466
100
AcDbSymbolTableRecord
100
AcDbBlockTableRecord
  2
*D30
340
0
  0
BLOCK_RECORD
  5
26565
330
7466
100
AcDbSymbolTableRecord
100
AcDbBlockTableRecord
  2
*D31
340
0
  0
BLOCK_RECORD
  5
26571
330
7466
100
AcDbSymbolTableRecord
100
AcDbBlockTableRecord
  2
*D32
340
0
  0
BLOCK_RECORD
  5
2657D
330
7466
100
AcDbSymbolTableRecord
100
AcDbBlockTableRecord
  2
*D33
340
0
  0
BLOCK_RECORD
  5
2658A
330
7466
100
AcDbSymbolTableRecord
100
AcDbBlockTableRecord
  2
*D34
340
0
  0
BLOCK_RECORD
  5
26596
330
7466
100
AcDbSymbolTableRecord
100
AcDbBlockTableRecord
  2
*D35
340
0
  0
BLOCK_RECORD
  5
265A2
330
7466
100
AcDbSymbolTableRecord
100
AcDbBlockTableRecord
  2
*D36
340
0
  0
BLOCK_RECORD
  5
265AE
330
7466
100
AcDbSymbolTableRecord
100
AcDbBlockTableRecord
  2
*D37
340
0
  0
BLOCK_RECORD
  5
265D4
330
7466
100
AcDbSymbolTableRecord
100
AcDbBlockTableRecord
  2
*D38
340
0
  0
BLOCK_RECORD
  5
265E0
330
7466
100
AcDbSymbolTableRecord
100
AcDbBlockTableRecord
  2
*D39
340
0
  0
BLOCK_RECORD
  5
265F8
330
7466
100
AcDbSymbolTableRecord
100
AcDbBlockTableRecord
  2
*D40
340
0
  0
BLOCK_RECORD
  5
26605
330
7466
100
AcDbSymbolTableRecord
100
AcDbBlockTableRecord
  2
*D41
340
0
  0
BLOCK_RECORD
  5
2661C
330
7466
100
AcDbSymbolTableRecord
100
AcDbBlockTableRecord
  2
*D42
340
0
  0
BLOCK_RECORD
  5
26627
330
7466
100
AcDbSymbolTableRecord
100
AcDbBlockTableRecord
  2
*D43
340
0
  0
BLOCK_RECORD
  5
26633
330
7466
100
AcDbSymbolTableRecord
100
AcDbBlockTableRecord
  2
*D44
340
0
  0
BLOCK_RECORD
  5
2665A
330
7466
100
AcDbSymbolTableRecord
100
AcDbBlockTableRecord
  2
*D45
340
0
  0
BLOCK_RECORD
  5
26674
330
7466
100
AcDbSymbolTableRecord
100
AcDbBlockTableRecord
  2
*D46
340
0
  0
BLOCK_RECORD
  5
26680
330
7466
100
AcDbSymbolTableRecord
100
AcDbBlockTableRecord
  2
*D47
340
0
  0
BLOCK_RECORD
  5
2668C
330
7466
100
AcDbSymbolTableRecord
100
AcDbBlockTableRecord
  2
*D48
340
0
  0
BLOCK_RECORD
  5
26698
330
7466
100
AcDbSymbolTableRecord
100
AcDbBlockTableRecord
  2
*D49
340
0
  0
BLOCK_RECORD
  5
26D38
330
7466
100
AcDbSymbolTableRecord
100
AcDbBlockTableRecord
  2
*D56
340
0
  0
BLOCK_RECORD
  5
26D44
330
7466
100
AcDbSymbolTableRecord
100
AcDbBlockTableRecord
  2
*D57
340
0
  0
BLOCK_RECORD
  5
26D50
330
7466
100
AcDbSymbolTableRecord
100
AcDbBlockTableRecord
  2
*D58
340
0
  0
BLOCK_RECORD
  5
26D5C
330
7466
100
AcDbSymbolTableRecord
100
AcDbBlockTableRecord
  2
*D59
340
0
  0
BLOCK_RECORD
  5
26D68
330
7466
100
AcDbSymbolTableRecord
100
AcDbBlockTableRecord
  2
*D60
340
0
  0
BLOCK_RECORD
  5
26D76
330
7466
100
AcDbSymbolTableRecord
100
AcDbBlockTableRecord
  2
*D61
340
0
  0
ENDTAB
  0
ENDSEC
  0
SECTION
  2
BLOCKS
  0
BLOCK
  5
7489
330
747D
100
AcDbEntity
  8
0
100
AcDbBlockBegin
  2
*MODEL_SPACE
 70
     0
 10
0.0
 20
0.0
 30
0.0
  3
*MODEL_SPACE
  1

  0
ENDBLK
  5
748A
330
747D
100
AcDbEntity
  8
0
100
AcDbBlockEnd
  0
BLOCK
  5
7487
330
747A
100
AcDbEntity
 67
     1
  8
0
100
AcDbBlockBegin
  2
*PAPER_SPACE
 70
     0
 10
0.0
 20
0.0
 30
0.0
  3
*PAPER_SPACE
  1

  0
ENDBLK
  5
7488
330
747A
100
AcDbEntity
 67
     1
  8
0
100
AcDbBlockEnd
  0
BLOCK
  5
DEAD
330
DEAC
100
AcDbEntity
  8
0
100
AcDbBlockBegin
  2
_OPEN
 70
     0
 10
0.0
 20
0.0
 30
0.0
  3
_OPEN
  1

  0
LINE
  5
DEAE
330
DEAC
100
AcDbEntity
  8
0
  6
ByBlock
 62
     0
100
AcDbLine
 10
-1.0
 20
0.1666666666666666
 30
0.0
 11
0.0
 21
0.0
 31
0.0
  0
LINE
  5
DEAF
330
DEAC
100
AcDbEntity
  8
0
  6
ByBlock
 62
     0
100
AcDbLine
 10
0.0
 20
0.0
 30
0.0
 11
-1.0
 21
-0.1666666666666666
 31
0.0
  0
LINE
  5
DEB0
330
DEAC
100
AcDbEntity
  8
0
  6
ByBlock
 62
     0
100
AcDbLine
 10
0.0
 20
0.0
 30
0.0
 11
-1.0
 21
0.0
 31
0.0
  0
ENDBLK
  5
DEB1
330
DEAC
100
AcDbEntity
  8
0
100
AcDbBlockEnd
  0
BLOCK
  5
F771
330
F770
100
AcDbEntity
  8
0
 48
50.0
100
AcDbBlockBegin
  2
_DOTSMALL
 70
     0
 10
0.0
 20
0.0
 30
0.0
  3
_DOTSMALL
  1

  0
LWPOLYLINE
  5
F772
330
F770
100
AcDbEntity
  8
0
  6
ByBlock
 62
     0
 48
50.0
100
AcDbPolyline
 90
        2
 70
     1
 43
0.5
 10
-0.0625
 20
0.0
 42
1.0
 10
0.0625
 20
0.0
 42
1.0
  0
ENDBLK
  5
F776
330
F770
100
AcDbEntity
  8
0
 48
50.0
100
AcDbBlockEnd
  0
BLOCK
  5
164BA
330
164B4
100
AcDbEntity
  8
0
 48
50.0
100
AcDbBlockBegin
  2
_DOT
 70
     0
 10
0.0
 20
0.0
 30
0.0
  3
_DOT
  1

  0
LWPOLYLINE
  5
164B5
330
164B4
100
AcDbEntity
  8
0
  6
ByBlock
 62
     0
 48
50.0
100
AcDbPolyline
 90
        2
 70
     1
 43
0.5
 10
-0.25
 20
0.0
 42
1.0
 10
0.25
 20
0.0
 42
1.0
  0
LINE
  5
164B9
330
164B4
100
AcDbEntity
  8
0
  6
ByBlock
 62
     0
 48
50.0
100
AcDbLine
 10
-0.5
 20
0.0
 30
0.0
 11
-1.0
 21
0.0
 31
0.0
  0
ENDBLK
  5
164BB
330
164B4
100
AcDbEntity
  8
0
 48
50.0
100
AcDbBlockEnd
  0
BLOCK
  5
18BC9
330
18BC8
100
AcDbEntity
  8
0
 48
50.0
100
AcDbBlockBegin
  2
*D3
 70
     1
 10
0.0
 20
0.0
 30
0.0
  3
*D3
  1

  0
LINE
  5
18BCA
330
18BC8
100
AcDbEntity
  8
寸法
 62
     0
 48
50.0
370
    -2
100
AcDbLine
 10
7649.896575106999
 20
9636.123139034717
 30
0.0
 11
8702.429862581047
 21
9636.123139034717
 31
0.0
  0
LINE
  5
18BCB
330
18BC8
100
AcDbEntity
  8
寸法
 62
     0
 48
50.0
370
    -2
100
AcDbLine
 10
7649.896575106973
 20
7846.123139034709
 30
0.0
 11
8702.429862581047
 21
7846.123139034709
 31
0.0
  0
LINE
  5
18BCC
330
18BC8
100
AcDbEntity
  8
寸法
 62
     0
 48
50.0
370
    -2
100
AcDbLine
 10
8642.429862581046
 20
9636.123139034717
 30
0.0
 11
8642.429862581046
 21
7846.123139034709
 31
0.0
  0
INSERT
  5
18BCD
330
18BC8
100
AcDbEntity
  8
寸法
 62
     0
 48
50.0
370
    -2
100
AcDbBlockReference
  2
_DOTSMALL
 10
8642.429862581046
 20
9636.123139034717
 30
0.0
 41
100.0
 42
100.0
 43
100.0
 50
90.0
  0
INSERT
  5
18BCE
330
18BC8
100
AcDbEntity
  8
寸法
 62
     0
 48
50.0
370
    -2
100
AcDbBlockReference
  2
_DOTSMALL
 10
8642.429862581046
 20
7846.123139034709
 30
0.0
 41
100.0
 42
100.0
 43
100.0
 50
270.0
  0
MTEXT
  5
18BCF
330
18BC8
100
AcDbEntity
  8
寸法
 62
     7
 48
50.0
100
AcDbMText
 10
8542.429862581045
 20
8741.123139034712
 30
0.0
 40
120.0
 41
0.0
 71
     5
 72
     1
  1
\A1;1790
  7
STYLE1
 11
0.0000000000000001
 21
1.0
 31
0.0
 73
     1
 44
1.0
1001
ACAD
1000
MTEXTBEGIN
1070
    73
1070
     1
1070
    44
1040
1.0
1070
    74
1070
     0
1000
MTEXTEND
  0
POINT
  5
18BD0
330
18BC8
100
AcDbEntity
  8
DEFPOINTS
 62
     0
 48
50.0
100
AcDbPoint
 10
7629.896575106998
 20
9636.123139034717
 30
0.0
  0
POINT
  5
18BD1
330
18BC8
100
AcDbEntity
  8
DEFPOINTS
 62
     0
 48
50.0
100
AcDbPoint
 10
7629.896575106974
 20
7846.123139034709
 30
0.0
  0
POINT
  5
18BD2
330
18BC8
100
AcDbEntity
  8
DEFPOINTS
 62
     0
 48
50.0
100
AcDbPoint
 10
8642.429862581046
 20
7846.123139034709
 30
0.0
  0
ENDBLK
  5
18BD3
330
18BC8
100
AcDbEntity
  8
0
 48
50.0
100
AcDbBlockEnd
  0
BLOCK
  5
18BD5
330
18BD4
100
AcDbEntity
  8
0
 48
50.0
100
AcDbBlockBegin
  2
*D4
 70
     1
 10
0.0
 20
0.0
 30
0.0
  3
*D4
  1

  0
LINE
  5
18BD6
330
18BD4
100
AcDbEntity
  8
寸法
 62
     0
 48
50.0
370
    -2
100
AcDbLine
 10
4214.896575106998
 20
9656.123139034622
 30
0.0
 11
4214.896575106998
 21
10211.93135865972
 31
0.0
  0
LINE
  5
18BD7
330
18BD4
100
AcDbEntity
  8
寸法
 62
     0
 48
50.0
370
    -2
100
AcDbLine
 10
7574.896575106999
 20
9656.123139034718
 30
0.0
 11
7574.896575106999
 21
10211.93135865972
 31
0.0
  0
LINE
  5
18BD8
330
18BD4
100
AcDbEntity
  8
寸法
 62
     0
 48
50.0
370
    -2
100
AcDbLine
 10
4214.896575106998
 20
10151.93135865972
 30
0.0
 11
7574.896575106999
 21
10151.93135865972
 31
0.0
  0
INSERT
  5
18BD9
330
18BD4
100
AcDbEntity
  8
寸法
 62
     0
 48
50.0
370
    -2
100
AcDbBlockReference
  2
_DOTSMALL
 10
4214.896575106998
 20
10151.93135865972
 30
0.0
 41
100.0
 42
100.0
 43
100.0
 50
180.0
  0
INSERT
  5
18BDA
330
18BD4
100
AcDbEntity
  8
寸法
 62
     0
 48
50.0
370
    -2
100
AcDbBlockReference
  2
_DOTSMALL
 10
7574.896575106999
 20
10151.93135865972
 30
0.0
 41
100.0
 42
100.0
 43
100.0
  0
MTEXT
  5
18BDB
330
18BD4
100
AcDbEntity
  8
寸法
 62
     7
 48
50.0
100
AcDbMText
 10
5894.896575106997
 20
10251.94316968334
 30
0.0
 40
120.0
 41
0.0
 71
     5
 72
     1
  1
\A1;8X420=3360
  7
STYLE1
 73
     1
 44
1.0
1001
ACAD
1000
MTEXTBEGIN
1070
    73
1070
     1
1070
    44
1040
1.0
1070
    74
1070
     0
1000
MTEXTEND
  0
POINT
  5
18BDC
330
18BD4
100
AcDbEntity
  8
DEFPOINTS
 62
     0
 48
50.0
100
AcDbPoint
 10
4214.896575106998
 20
9636.123139034623
 30
0.0
  0
POINT
  5
18BDD
330
18BD4
100
AcDbEntity
  8
DEFPOINTS
 62
     0
 48
50.0
100
AcDbPoint
 10
7574.896575106999
 20
9636.123139034717
 30
0.0
  0
POINT
  5
18BDE
330
18BD4
100
AcDbEntity
  8
DEFPOINTS
 62
     0
 48
50.0
100
AcDbPoint
 10
7574.896575106999
 20
10151.93135865972
 30
0.0
  0
ENDBLK
  5
18BDF
330
18BD4
100
AcDbEntity
  8
0
 48
50.0
100
AcDbBlockEnd
  0
BLOCK
  5
18BE1
330
18BE0
100
AcDbEntity
  8
0
 48
50.0
100
AcDbBlockBegin
  2
*D5
 70
     1
 10
0.0
 20
0.0
 30
0.0
  3
*D5
  1

  0
LINE
  5
18BE2
330
18BE0
100
AcDbEntity
  8
寸法
 62
     0
 48
50.0
370
    -2
100
AcDbLine
 10
7574.896575106999
 20
9656.123139034718
 30
0.0
 11
7574.896575106999
 21
10211.9313586597
 31
0.0
  0
LINE
  5
18BE3
330
18BE0
100
AcDbEntity
  8
寸法
 62
     0
 48
50.0
370
    -2
100
AcDbLine
 10
7629.896575106998
 20
9656.123139034718
 30
0.0
 11
7629.896575106998
 21
10211.9313586597
 31
0.0
  0
LINE
  5
18BE4
330
18BE0
100
AcDbEntity
  8
寸法
 62
     0
 48
50.0
370
    -2
100
AcDbLine
 10
7574.896575106999
 20
10151.9313586597
 30
0.0
 11
7474.896575106999
 21
10151.9313586597
 31
0.0
  0
LINE
  5
18BE5
330
18BE0
100
AcDbEntity
  8
寸法
 62
     0
 48
50.0
370
    -2
100
AcDbLine
 10
7629.896575106998
 20
10151.9313586597
 30
0.0
 11
8046.867137855477
 21
10151.9313586597
 31
0.0
  0
LINE
  5
18BE6
330
18BE0
100
AcDbEntity
  8
寸法
 62
     0
 48
50.0
370
    -2
100
AcDbLine
 10
7574.896575106999
 20
10151.9313586597
 30
0.0
 11
7629.896575106998
 21
10151.9313586597
 31
0.0
  0
INSERT
  5
18BE7
330
18BE0
100
AcDbEntity
  8
寸法
 62
     0
 48
50.0
370
    -2
100
AcDbBlockReference
  2
_DOTSMALL
 10
7574.896575106999
 20
10151.9313586597
 30
0.0
 41
100.0
 42
100.0
 43
100.0
  0
INSERT
  5
18BE8
330
18BE0
100
AcDbEntity
  8
寸法
 62
     0
 48
50.0
370
    -2
100
AcDbBlockReference
  2
_DOTSMALL
 10
7629.896575106998
 20
10151.9313586597
 30
0.0
 41
100.0
 42
100.0
 43
100.0
 50
180.0
  0
MTEXT
  5
18BE9
330
18BE0
100
AcDbEntity
  8
寸法
 62
     7
 48
50.0
100
AcDbMText
 10
7938.381856481237
 20
10251.9313586597
 30
0.0
 40
120.0
 41
0.0
 71
     5
 72
     1
  1
\A1;55
  7
STYLE1
 73
     1
 44
1.0
1001
ACAD
1000
MTEXTBEGIN
1070
    73
1070
     1
1070
    44
1040
1.0
1070
    74
1070
     0
1000
MTEXTEND
  0
POINT
  5
18BEA
330
18BE0
100
AcDbEntity
  8
DEFPOINTS
 62
     0
 48
50.0
100
AcDbPoint
 10
7574.896575106999
 20
9636.123139034717
 30
0.0
  0
POINT
  5
18BEB
330
18BE0
100
AcDbEntity
  8
DEFPOINTS
 62
     0
 48
50.0
100
AcDbPoint
 10
7629.896575106998
 20
9636.123139034717
 30
0.0
  0
POINT
  5
18BEC
330
18BE0
100
AcDbEntity
  8
DEFPOINTS
 62
     0
 48
50.0
100
AcDbPoint
 10
7629.896575106998
 20
10151.9313586597
 30
0.0
  0
ENDBLK
  5
18BED
330
18BE0
100
AcDbEntity
  8
0
 48
50.0
100
AcDbBlockEnd
  0
BLOCK
  5
18BEF
330
18BEE
100
AcDbEntity
  8
0
 48
50.0
100
AcDbBlockBegin
  2
*D6
 70
     1
 10
0.0
 20
0.0
 30
0.0
  3
*D6
  1

  0
LINE
  5
18BF0
330
18BEE
100
AcDbEntity
  8
寸法
 62
     0
 48
50.0
370
    -2
100
AcDbLine
 10
7649.896575106999
 20
9636.123139034717
 30
0.0
 11
8337.32292084141
 21
9636.123139034717
 31
0.0
  0
LINE
  5
18BF1
330
18BEE
100
AcDbEntity
  8
寸法
 62
     0
 48
50.0
370
    -2
100
AcDbLine
 10
7649.896575106999
 20
9581.123139034721
 30
0.0
 11
8337.32292084141
 21
9581.123139034721
 31
0.0
  0
LINE
  5
18BF2
330
18BEE
100
AcDbEntity
  8
寸法
 62
     0
 48
50.0
370
    -2
100
AcDbLine
 10
8277.322920841411
 20
9581.123139034721
 30
0.0
 11
8277.322920841411
 21
9481.123139034719
 31
0.0
  0
LINE
  5
18BF3
330
18BEE
100
AcDbEntity
  8
寸法
 62
     0
 48
50.0
370
    -2
100
AcDbLine
 10
8277.322920841411
 20
9636.123139034717
 30
0.0
 11
8277.322920841411
 21
10053.09370178319
 31
0.0
  0
LINE
  5
18BF4
330
18BEE
100
AcDbEntity
  8
寸法
 62
     0
 48
50.0
370
    -2
100
AcDbLine
 10
8277.322920841411
 20
9581.123139034721
 30
0.0
 11
8277.322920841411
 21
9636.123139034717
 31
0.0
  0
INSERT
  5
18BF5
330
18BEE
100
AcDbEntity
  8
寸法
 62
     0
 48
50.0
370
    -2
100
AcDbBlockReference
  2
_DOTSMALL
 10
8277.322920841411
 20
9581.123139034721
 30
0.0
 41
100.0
 42
100.0
 43
100.0
 50
90.0
  0
INSERT
  5
18BF6
330
18BEE
100
AcDbEntity
  8
寸法
 62
     0
 48
50.0
370
    -2
100
AcDbBlockReference
  2
_DOTSMALL
 10
8277.322920841411
 20
9636.123139034717
 30
0.0
 41
100.0
 42
100.0
 43
100.0
 50
270.0
  0
MTEXT
  5
18BF7
330
18BEE
100
AcDbEntity
  8
寸法
 62
     7
 48
50.0
100
AcDbMText
 10
8177.32292084141
 20
9944.608420408957
 30
0.0
 40
120.0
 41
0.0
 71
     5
 72
     1
  1
\A1;55
  7
STYLE1
 11
0.0000000000000001
 21
1.0
 31
0.0
 73
     1
 44
1.0
1001
ACAD
1000
MTEXTBEGIN
1070
    73
1070
     1
1070
    44
1040
1.0
1070
    74
1070
     0
1000
MTEXTEND
  0
POINT
  5
18BF8
330
18BEE
100
AcDbEntity
  8
DEFPOINTS
 62
     0
 48
50.0
100
AcDbPoint
 10
7629.896575106998
 20
9636.123139034717
 30
0.0
  0
POINT
  5
18BF9
330
18BEE
100
AcDbEntity
  8
DEFPOINTS
 62
     0
 48
50.0
100
AcDbPoint
 10
7629.896575106998
 20
9581.123139034721
 30
0.0
  0
POINT
  5
18BFA
330
18BEE
100
AcDbEntity
  8
DEFPOINTS
 62
     0
 48
50.0
100
AcDbPoint
 10
8277.322920841411
 20
9581.123139034721
 30
0.0
  0
ENDBLK
  5
18BFB
330
18BEE
100
AcDbEntity
  8
0
 48
50.0
100
AcDbBlockEnd
  0
BLOCK
  5
18BFD
330
18BFC
100
AcDbEntity
  8
0
 48
50.0
100
AcDbBlockBegin
  2
*D7
 70
     1
 10
0.0
 20
0.0
 30
0.0
  3
*D7
  1

  0
LINE
  5
18BFE
330
18BFC
100
AcDbEntity
  8
寸法
 62
     0
 48
50.0
370
    -2
100
AcDbLine
 10
4159.896575106963
 20
9656.123139034622
 30
0.0
 11
4159.896575106963
 21
10211.9313586596
 31
0.0
  0
LINE
  5
18BFF
330
18BFC
100
AcDbEntity
  8
寸法
 62
     0
 48
50.0
370
    -2
100
AcDbLine
 10
4214.896575106998
 20
9656.123139034622
 30
0.0
 11
4214.896575106998
 21
10211.9313586596
 31
0.0
  0
LINE
  5
18C00
330
18BFC
100
AcDbEntity
  8
寸法
 62
     0
 48
50.0
370
    -2
100
AcDbLine
 10
4214.896575106998
 20
10151.9313586596
 30
0.0
 11
4314.896575106998
 21
10151.9313586596
 31
0.0
  0
LINE
  5
18C01
330
18BFC
100
AcDbEntity
  8
寸法
 62
     0
 48
50.0
370
    -2
100
AcDbLine
 10
4159.896575106963
 20
10151.9313586596
 30
0.0
 11
3742.926012358486
 21
10151.9313586596
 31
0.0
  0
LINE
  5
18C02
330
18BFC
100
AcDbEntity
  8
寸法
 62
     0
 48
50.0
370
    -2
100
AcDbLine
 10
4214.896575106998
 20
10151.9313586596
 30
0.0
 11
4159.896575106963
 21
10151.9313586596
 31
0.0
  0
INSERT
  5
18C03
330
18BFC
100
AcDbEntity
  8
寸法
 62
     0
 48
50.0
370
    -2
100
AcDbBlockReference
  2
_DOTSMALL
 10
4214.896575106998
 20
10151.9313586596
 30
0.0
 41
100.0
 42
100.0
 43
100.0
 50
180.0
  0
INSERT
  5
18C04
330
18BFC
100
AcDbEntity
  8
寸法
 62
     0
 48
50.0
370
    -2
100
AcDbBlockReference
  2
_DOTSMALL
 10
4159.896575106963
 20
10151.9313586596
 30
0.0
 41
100.0
 42
100.0
 43
100.0
  0
MTEXT
  5
18C05
330
18BFC
100
AcDbEntity
  8
寸法
 62
     7
 48
50.0
100
AcDbMText
 10
3851.411293732725
 20
10251.9313586596
 30
0.0
 40
120.0
 41
0.0
 71
     5
 72
     1
  1
\A1;55
  7
STYLE1
 73
     1
 44
1.0
1001
ACAD
1000
MTEXTBEGIN
1070
    73
1070
     1
1070
    44
1040
1.0
1070
    74
1070
     0
1000
MTEXTEND
  0
POINT
  5
18C06
330
18BFC
100
AcDbEntity
  8
DEFPOINTS
 62
     0
 48
50.0
100
AcDbPoint
 10
4159.896575106963
 20
9636.123139034623
 30
0.0
  0
POINT
  5
18C07
330
18BFC
100
AcDbEntity
  8
DEFPOINTS
 62
     0
 48
50.0
100
AcDbPoint
 10
4214.896575106998
 20
9636.123139034623
 30
0.0
  0
POINT
  5
18C08
330
18BFC
100
AcDbEntity
  8
DEFPOINTS
 62
     0
 48
50.0
100
AcDbPoint
 10
4214.896575106998
 20
10151.9313586596
 30
0.0
  0
ENDBLK
  5
18C09
330
18BFC
100
AcDbEntity
  8
0
 48
50.0
100
AcDbBlockEnd
  0
BLOCK
  5
18C0B
330
18C0A
100
AcDbEntity
  8
0
 48
50.0
100
AcDbBlockBegin
  2
*D8
 70
     1
 10
0.0
 20
0.0
 30
0.0
  3
*D8
  1

  0
LINE
  5
18C0C
330
18C0A
100
AcDbEntity
  8
寸法
 62
     0
 48
50.0
370
    -2
100
AcDbLine
 10
4159.896575106992
 20
7826.123139034546
 30
0.0
 11
4159.896575106992
 21
6804.372203245664
 31
0.0
  0
LINE
  5
18C0D
330
18C0A
100
AcDbEntity
  8
寸法
 62
     0
 48
50.0
370
    -2
100
AcDbLine
 10
7629.896575106974
 20
7826.123139034674
 30
0.0
 11
7629.896575106974
 21
6804.372203245664
 31
0.0
  0
LINE
  5
18C0E
330
18C0A
100
AcDbEntity
  8
寸法
 62
     0
 48
50.0
370
    -2
100
AcDbLine
 10
4159.896575106992
 20
6864.372203245665
 30
0.0
 11
7629.896575106974
 21
6864.372203245665
 31
0.0
  0
INSERT
  5
18C0F
330
18C0A
100
AcDbEntity
  8
寸法
 62
     0
 48
50.0
370
    -2
100
AcDbBlockReference
  2
_DOTSMALL
 10
4159.896575106992
 20
6864.372203245665
 30
0.0
 41
100.0
 42
100.0
 43
100.0
 50
180.0
  0
INSERT
  5
18C10
330
18C0A
100
AcDbEntity
  8
寸法
 62
     0
 48
50.0
370
    -2
100
AcDbBlockReference
  2
_DOTSMALL
 10
7629.896575106974
 20
6864.372203245665
 30
0.0
 41
100.0
 42
100.0
 43
100.0
  0
MTEXT
  5
18C11
330
18C0A
100
AcDbEntity
  8
寸法
 62
     7
 48
50.0
100
AcDbMText
 10
5911.12376113973
 20
6964.372203245665
 30
0.0
 40
120.0
 41
0.0
 71
     5
 72
     1
  1
\A1;3470
  7
STYLE1
 73
     1
 44
1.0
1001
ACAD
1000
MTEXTBEGIN
1070
    73
1070
     1
1070
    44
1040
1.0
1070
    74
1070
     0
1000
MTEXTEND
  0
POINT
  5
18C12
330
18C0A
100
AcDbEntity
  8
DEFPOINTS
 62
     0
 48
50.0
100
AcDbPoint
 10
4159.896575106992
 20
7846.123139034546
 30
0.0
  0
POINT
  5
18C13
330
18C0A
100
AcDbEntity
  8
DEFPOINTS
 62
     0
 48
50.0
100
AcDbPoint
 10
7629.896575106974
 20
7846.123139034673
 30
0.0
  0
POINT
  5
18C14
330
18C0A
100
AcDbEntity
  8
DEFPOINTS
 62
     0
 48
50.0
100
AcDbPoint
 10
7629.896575106974
 20
6864.372203245665
 30
0.0
  0
ENDBLK
  5
18C15
330
18C0A
100
AcDbEntity
  8
0
 48
50.0
100
AcDbBlockEnd
  0
BLOCK
  5
18C17
330
18C16
100
AcDbEntity
  8
0
 48
50.0
100
AcDbBlockBegin
  2
*D9
 70
     1
 10
0.0
 20
0.0
 30
0.0
  3
*D9
  1

  0
LINE
  5
18C18
330
18C16
100
AcDbEntity
  8
寸法
 62
     0
 48
50.0
370
    -2
100
AcDbLine
 10
7649.896575106973
 20
7901.123139034706
 30
0.0
 11
8337.322920841385
 21
7901.123139034706
 31
0.0
  0
LINE
  5
18C19
330
18C16
100
AcDbEntity
  8
寸法
 62
     0
 48
50.0
370
    -2
100
AcDbLine
 10
7649.896575106973
 20
7846.123139034709
 30
0.0
 11
8337.322920841385
 21
7846.123139034709
 31
0.0
  0
LINE
  5
18C1A
330
18C16
100
AcDbEntity
  8
寸法
 62
     0
 48
50.0
370
    -2
100
AcDbLine
 10
8277.322920841385
 20
7901.123139034706
 30
0.0
 11
8277.322920841385
 21
8001.123139034707
 31
0.0
  0
LINE
  5
18C1B
330
18C16
100
AcDbEntity
  8
寸法
 62
     0
 48
50.0
370
    -2
100
AcDbLine
 10
8277.322920841385
 20
7846.123139034709
 30
0.0
 11
8277.322920841385
 21
7429.152576286229
 31
0.0
  0
LINE
  5
18C1C
330
18C16
100
AcDbEntity
  8
寸法
 62
     0
 48
50.0
370
    -2
100
AcDbLine
 10
8277.322920841385
 20
7901.123139034706
 30
0.0
 11
8277.322920841385
 21
7846.123139034709
 31
0.0
  0
INSERT
  5
18C1D
330
18C16
100
AcDbEntity
  8
寸法
 62
     0
 48
50.0
370
    -2
100
AcDbBlockReference
  2
_DOTSMALL
 10
8277.322920841385
 20
7901.123139034706
 30
0.0
 41
100.0
 42
100.0
 43
100.0
 50
270.0
  0
INSERT
  5
18C1E
330
18C16
100
AcDbEntity
  8
寸法
 62
     0
 48
50.0
370
    -2
100
AcDbBlockReference
  2
_DOTSMALL
 10
8277.322920841385
 20
7846.123139034709
 30
0.0
 41
100.0
 42
100.0
 43
100.0
 50
90.0
  0
MTEXT
  5
18C1F
330
18C16
100
AcDbEntity
  8
寸法
 62
     7
 48
50.0
100
AcDbMText
 10
8177.322920841383
 20
7537.637857660469
 30
0.0
 40
120.0
 41
0.0
 71
     5
 72
     1
  1
\A1;55
  7
STYLE1
 11
0.0000000000000001
 21
1.0
 31
0.0
 73
     1
 44
1.0
1001
ACAD
1000
MTEXTBEGIN
1070
    73
1070
     1
1070
    44
1040
1.0
1070
    74
1070
     0
1000
MTEXTEND
  0
POINT
  5
18C20
330
18C16
100
AcDbEntity
  8
DEFPOINTS
 62
     0
 48
50.0
100
AcDbPoint
 10
7629.896575106974
 20
7901.123139034706
 30
0.0
  0
POINT
  5
18C21
330
18C16
100
AcDbEntity
  8
DEFPOINTS
 62
     0
 48
50.0
100
AcDbPoint
 10
7629.896575106974
 20
7846.123139034709
 30
0.0
  0
POINT
  5
18C22
330
18C16
100
AcDbEntity
  8
DEFPOINTS
 62
     0
 48
50.0
100
AcDbPoint
 10
8277.322920841385
 20
7846.123139034709
 30
0.0
  0
ENDBLK
  5
18C23
330
18C16
100
AcDbEntity
  8
0
 48
50.0
100
AcDbBlockEnd
  0
BLOCK
  5
18C25
330
18C24
100
AcDbEntity
  8
0
 48
50.0
100
AcDbBlockBegin
  2
*D10
 70
     1
 10
0.0
 20
0.0
 30
0.0
  3
*D10
  1

  0
LINE
  5
18C26
330
18C24
100
AcDbEntity
  8
寸法
 62
     0
 48
50.0
370
    -2
100
AcDbLine
 10
6533.037591258376
 20
9136.123139034728
 30
0.0
 11
6465.083950562664
 21
8882.516699399049
 31
0.0
  0
LINE
  5
18C27
330
18C24
100
AcDbEntity
  8
寸法
 62
     0
 48
50.0
370
    -2
100
AcDbLine
 10
7596.037591258388
 20
9136.123139034721
 30
0.0
 11
7528.083950562677
 21
8882.516699399049
 31
0.0
  0
LINE
  5
18C28
330
18C24
100
AcDbEntity
  8
寸法
 62
     0
 48
50.0
370
    -2
100
AcDbLine
 10
6481.160902108531
 20
8942.51669939905
 30
0.0
 11
7544.160902108544
 21
8942.51669939905
 31
0.0
  0
INSERT
  5
18C29
330
18C24
100
AcDbEntity
  8
寸法
 62
     0
 48
50.0
370
    -2
100
AcDbBlockReference
  2
_DOTSMALL
 10
6481.160902108531
 20
8942.51669939905
 30
0.0
 41
100.0
 42
100.0
 43
100.0
 50
180.0
  0
INSERT
  5
18C2A
330
18C24
100
AcDbEntity
  8
寸法
 62
     0
 48
50.0
370
    -2
100
AcDbBlockReference
  2
_DOTSMALL
 10
7544.160902108544
 20
8942.51669939905
 30
0.0
 41
100.0
 42
100.0
 43
100.0
  0
MTEXT
  5
18C2B
330
18C24
100
AcDbEntity
  8
寸法
 62
     7
 48
50.0
100
AcDbMText
 10
7061.28653022935
 20
9042.516699399049
 30
0.0
 40
120.0
 41
0.0
 71
     5
 72
     1
  1
\A1;1063
  7
STYLE1
 73
     1
 44
1.0
1001
ACAD
1000
MTEXTBEGIN
1070
    73
1070
     1
1070
    44
1040
1.0
1070
    74
1070
     0
1000
MTEXTEND
  0
POINT
  5
18C2C
330
18C24
100
AcDbEntity
  8
DEFPOINTS
 62
     0
 48
50.0
100
AcDbPoint
 10
6538.396575106998
 20
9156.123139034727
 30
0.0
  0
POINT
  5
18C2D
330
18C24
100
AcDbEntity
  8
DEFPOINTS
 62
     0
 48
50.0
100
AcDbPoint
 10
7601.39657510701
 20
9156.12313903472
 30
0.0
  0
POINT
  5
18C2E
330
18C24
100
AcDbEntity
  8
DEFPOINTS
 62
     0
 48
50.0
100
AcDbPoint
 10
7544.160902108544
 20
8942.51669939905
 30
0.0
  0
ENDBLK
  5
18C2F
330
18C24
100
AcDbEntity
  8
0
 48
50.0
100
AcDbBlockEnd
  0
BLOCK
  5
18C31
330
18C30
100
AcDbEntity
  8
0
 48
50.0
100
AcDbBlockBegin
  2
*D11
 70
     1
 10
0.0
 20
0.0
 30
0.0
  3
*D11
  1

  0
LINE
  5
18C32
330
18C30
100
AcDbEntity
  8
寸法
 62
     0
 48
50.0
370
    -2
100
AcDbLine
 10
7621.396575106999
 20
9600.764155186094
 30
0.0
 11
8016.754300969024
 21
9494.828371819961
 31
0.0
  0
LINE
  5
18C33
330
18C30
100
AcDbEntity
  8
寸法
 62
     0
 48
50.0
370
    -2
100
AcDbLine
 10
7621.396575106999
 20
9150.764155186099
 30
0.0
 11
8016.754300969024
 21
9044.828371819964
 31
0.0
  0
LINE
  5
18C34
330
18C30
100
AcDbEntity
  8
寸法
 62
     0
 48
50.0
370
    -2
100
AcDbLine
 10
7956.754300969024
 20
9510.905323365827
 30
0.0
 11
7956.754300969024
 21
9060.90532336583
 31
0.0
  0
INSERT
  5
18C35
330
18C30
100
AcDbEntity
  8
寸法
 62
     0
 48
50.0
370
    -2
100
AcDbBlockReference
  2
_DOTSMALL
 10
7956.754300969024
 20
9510.905323365827
 30
0.0
 41
100.0
 42
100.0
 43
100.0
 50
90.0
  0
INSERT
  5
18C36
330
18C30
100
AcDbEntity
  8
寸法
 62
     0
 48
50.0
370
    -2
100
AcDbBlockReference
  2
_DOTSMALL
 10
7956.754300969024
 20
9060.90532336583
 30
0.0
 41
100.0
 42
100.0
 43
100.0
 50
270.0
  0
MTEXT
  5
18C37
330
18C30
100
AcDbEntity
  8
寸法
 62
     7
 48
50.0
100
AcDbMText
 10
7856.754300969022
 20
9285.905323365829
 30
0.0
 40
120.0
 41
0.0
 71
     5
 72
     1
  1
\A1;450
  7
STYLE1
 11
0.0000000000000001
 21
1.0
 31
0.0
 73
     1
 44
1.0
1001
ACAD
1000
MTEXTBEGIN
1070
    73
1070
     1
1070
    44
1040
1.0
1070
    74
1070
     0
1000
MTEXTEND
  0
POINT
  5
18C38
330
18C30
100
AcDbEntity
  8
DEFPOINTS
 62
     0
 48
50.0
100
AcDbPoint
 10
7601.396575106999
 20
9606.123139034718
 30
0.0
  0
POINT
  5
18C39
330
18C30
100
AcDbEntity
  8
DEFPOINTS
 62
     0
 48
50.0
100
AcDbPoint
 10
7601.396575106999
 20
9156.12313903472
 30
0.0
  0
POINT
  5
18C3A
330
18C30
100
AcDbEntity
  8
DEFPOINTS
 62
     0
 48
50.0
100
AcDbPoint
 10
7956.754300969024
 20
9060.90532336583
 30
0.0
  0
ENDBLK
  5
18C3B
330
18C30
100
AcDbEntity
  8
0
 48
50.0
100
AcDbBlockEnd
  0
BLOCK
  5
18C3D
330
18C3C
100
AcDbEntity
  8
0
 48
50.0
100
AcDbBlockBegin
  2
*D12
 70
     1
 10
0.0
 20
0.0
 30
0.0
  3
*D12
  1

  0
LINE
  5
18C3E
330
18C3C
100
AcDbEntity
  8
寸法
 62
     0
 48
50.0
370
    -2
100
AcDbLine
 10
7649.896575106999
 20
9581.123139034721
 30
0.0
 11
8337.32292084141
 21
9581.123139034721
 31
0.0
  0
LINE
  5
18C3F
330
18C3C
100
AcDbEntity
  8
寸法
 62
     0
 48
50.0
370
    -2
100
AcDbLine
 10
7649.896575106973
 20
7901.123139034706
 30
0.0
 11
8337.32292084141
 21
7901.123139034706
 31
0.0
  0
LINE
  5
18C40
330
18C3C
100
AcDbEntity
  8
寸法
 62
     0
 48
50.0
370
    -2
100
AcDbLine
 10
8277.322920841411
 20
9581.123139034721
 30
0.0
 11
8277.322920841411
 21
7901.123139034706
 31
0.0
  0
INSERT
  5
18C41
330
18C3C
100
AcDbEntity
  8
寸法
 62
     0
 48
50.0
370
    -2
100
AcDbBlockReference
  2
_DOTSMALL
 10
8277.322920841411
 20
9581.123139034721
 30
0.0
 41
100.0
 42
100.0
 43
100.0
 50
90.0
  0
INSERT
  5
18C42
330
18C3C
100
AcDbEntity
  8
寸法
 62
     0
 48
50.0
370
    -2
100
AcDbBlockReference
  2
_DOTSMALL
 10
8277.322920841411
 20
7901.123139034706
 30
0.0
 41
100.0
 42
100.0
 43
100.0
 50
270.0
  0
MTEXT
  5
18C43
330
18C3C
100
AcDbEntity
  8
寸法
 62
     7
 48
50.0
100
AcDbMText
 10
8177.311109817788
 20
8741.123139034712
 30
0.0
 40
120.0
 41
0.0
 71
     5
 72
     1
  1
\A1;4X420=1680
  7
STYLE1
 11
0.0000000000000001
 21
1.0
 31
0.0
 73
     1
 44
1.0
1001
ACAD
1000
MTEXTBEGIN
1070
    73
1070
     1
1070
    44
1040
1.0
1070
    74
1070
     0
1000
MTEXTEND
  0
POINT
  5
18C44
330
18C3C
100
AcDbEntity
  8
DEFPOINTS
 62
     0
 48
50.0
100
AcDbPoint
 10
7629.896575106998
 20
9581.123139034721
 30
0.0
  0
POINT
  5
18C45
330
18C3C
100
AcDbEntity
  8
DEFPOINTS
 62
     0
 48
50.0
100
AcDbPoint
 10
7629.896575106974
 20
7901.123139034706
 30
0.0
  0
POINT
  5
18C46
330
18C3C
100
AcDbEntity
  8
DEFPOINTS
 62
     0
 48
50.0
100
AcDbPoint
 10
8277.322920841411
 20
7901.123139034706
 30
0.0
  0
ENDBLK
  5
18C47
330
18C3C
100
AcDbEntity
  8
0
 48
50.0
100
AcDbBlockEnd
  0
BLOCK
  5
18C49
330
18C48
100
AcDbEntity
  8
0
 48
50.0
100
AcDbBlockBegin
  2
*D13
 70
     1
 10
0.0
 20
0.0
 30
0.0
  3
*D13
  1

  0
LINE
  5
18C4A
330
18C48
100
AcDbEntity
  8
寸法
 62
     0
 48
50.0
370
    -2
100
AcDbLine
 10
4183.037591258377
 20
9136.123139034619
 30
0.0
 11
4115.083950562663
 21
8882.516699398941
 31
0.0
  0
LINE
  5
18C4B
330
18C48
100
AcDbEntity
  8
寸法
 62
     0
 48
50.0
370
    -2
100
AcDbLine
 10
5246.037591258307
 20
9136.123139034671
 30
0.0
 11
5178.08395056258
 21
8882.516699398941
 31
0.0
  0
LINE
  5
18C4C
330
18C48
100
AcDbEntity
  8
寸法
 62
     0
 48
50.0
370
    -2
100
AcDbLine
 10
4131.160902108532
 20
8942.516699398941
 30
0.0
 11
5194.160902108448
 21
8942.516699398941
 31
0.0
  0
INSERT
  5
18C4D
330
18C48
100
AcDbEntity
  8
寸法
 62
     0
 48
50.0
370
    -2
100
AcDbBlockReference
  2
_DOTSMALL
 10
4131.160902108532
 20
8942.516699398941
 30
0.0
 41
100.0
 42
100.0
 43
100.0
 50
180.0
  0
INSERT
  5
18C4E
330
18C48
100
AcDbEntity
  8
寸法
 62
     0
 48
50.0
370
    -2
100
AcDbBlockReference
  2
_DOTSMALL
 10
5194.160902108448
 20
8942.516699398941
 30
0.0
 41
100.0
 42
100.0
 43
100.0
  0
MTEXT
  5
18C4F
330
18C48
100
AcDbEntity
  8
寸法
 62
     7
 48
50.0
100
AcDbMText
 10
4658.986452655306
 20
9042.516699398941
 30
0.0
 40
120.0
 41
0.0
 71
     5
 72
     1
  1
\A1;1063
  7
STYLE1
 73
     1
 44
1.0
1001
ACAD
1000
MTEXTBEGIN
1070
    73
1070
     1
1070
    44
1040
1.0
1070
    74
1070
     0
1000
MTEXTEND
  0
POINT
  5
18C50
330
18C48
100
AcDbEntity
  8
DEFPOINTS
 62
     0
 48
50.0
100
AcDbPoint
 10
4188.396575106999
 20
9156.123139034617
 30
0.0
  0
POINT
  5
18C51
330
18C48
100
AcDbEntity
  8
DEFPOINTS
 62
     0
 48
50.0
100
AcDbPoint
 10
5251.396575106929
 20
9156.123139034672
 30
0.0
  0
POINT
  5
18C52
330
18C48
100
AcDbEntity
  8
DEFPOINTS
 62
     0
 48
50.0
100
AcDbPoint
 10
5194.160902108448
 20
8942.516699398941
 30
0.0
  0
ENDBLK
  5
18C53
330
18C48
100
AcDbEntity
  8
0
 48
50.0
100
AcDbBlockEnd
  0
BLOCK
  5
18C55
330
18C54
100
AcDbEntity
  8
0
 48
50.0
100
AcDbBlockBegin
  2
*D14
 70
     1
 10
0.0
 20
0.0
 30
0.0
  3
*D14
  1

  0
LINE
  5
18C56
330
18C54
100
AcDbEntity
  8
寸法
 62
     0
 48
50.0
370
    -2
100
AcDbLine
 10
5274.037591258307
 20
9136.123139034669
 30
0.0
 11
5206.08395056258
 21
8882.516699398941
 31
0.0
  0
LINE
  5
18C57
330
18C54
100
AcDbEntity
  8
寸法
 62
     0
 48
50.0
370
    -2
100
AcDbLine
 10
6505.037591258377
 20
9136.123139034662
 30
0.0
 11
6437.083950562653
 21
8882.516699398941
 31
0.0
  0
LINE
  5
18C58
330
18C54
100
AcDbEntity
  8
寸法
 62
     0
 48
50.0
370
    -2
100
AcDbLine
 10
5222.160902108448
 20
8942.516699398941
 30
0.0
 11
6453.16090210852
 21
8942.516699398941
 31
0.0
  0
INSERT
  5
18C59
330
18C54
100
AcDbEntity
  8
寸法
 62
     0
 48
50.0
370
    -2
100
AcDbBlockReference
  2
_DOTSMALL
 10
5222.160902108448
 20
8942.516699398941
 30
0.0
 41
100.0
 42
100.0
 43
100.0
 50
180.0
  0
INSERT
  5
18C5A
330
18C54
100
AcDbEntity
  8
寸法
 62
     0
 48
50.0
370
    -2
100
AcDbBlockReference
  2
_DOTSMALL
 10
6453.16090210852
 20
8942.516699398941
 30
0.0
 41
100.0
 42
100.0
 43
100.0
  0
MTEXT
  5
18C5B
330
18C54
100
AcDbEntity
  8
寸法
 62
     7
 48
50.0
100
AcDbMText
 10
6081.244808320626
 20
9042.528510422561
 30
0.0
 40
120.0
 41
0.0
 71
     5
 72
     1
  1
\A1;1231
  7
STYLE1
 73
     1
 44
1.0
1001
ACAD
1000
MTEXTBEGIN
1070
    73
1070
     1
1070
    44
1040
1.0
1070
    74
1070
     0
1000
MTEXTEND
  0
POINT
  5
18C5C
330
18C54
100
AcDbEntity
  8
DEFPOINTS
 62
     0
 48
50.0
100
AcDbPoint
 10
5279.396575106929
 20
9156.123139034669
 30
0.0
  0
POINT
  5
18C5D
330
18C54
100
AcDbEntity
  8
DEFPOINTS
 62
     0
 48
50.0
100
AcDbPoint
 10
6510.396575106999
 20
9156.123139034662
 30
0.0
  0
POINT
  5
18C5E
330
18C54
100
AcDbEntity
  8
DEFPOINTS
 62
     0
 48
50.0
100
AcDbPoint
 10
6453.16090210852
 20
8942.516699398941
 30
0.0
  0
ENDBLK
  5
18C5F
330
18C54
100
AcDbEntity
  8
0
 48
50.0
100
AcDbBlockEnd
  0
BLOCK
  5
18C61
330
18C60
100
AcDbEntity
  8
0
 48
50.0
100
AcDbBlockBegin
  2
*D15
 70
     1
 10
0.0
 20
0.0
 30
0.0
  3
*D15
  1

  0
LINE
  5
18C62
330
18C60
100
AcDbEntity
  8
寸法
 62
     0
 48
50.0
370
    -2
100
AcDbLine
 10
5065.896575106966
 20
7749.123139034579
 30
0.0
 11
5065.896575106966
 21
7099.952920982538
 31
0.0
  0
LINE
  5
18C63
330
18C60
100
AcDbEntity
  8
寸法
 62
     0
 48
50.0
370
    -2
100
AcDbLine
 10
6331.896575106966
 20
7749.123139034579
 30
0.0
 11
6331.896575106966
 21
7099.952920982538
 31
0.0
  0
LINE
  5
18C64
330
18C60
100
AcDbEntity
  8
寸法
 62
     0
 48
50.0
370
    -2
100
AcDbLine
 10
5065.896575106966
 20
7159.952920982537
 30
0.0
 11
6331.896575106966
 21
7159.952920982537
 31
0.0
  0
INSERT
  5
18C65
330
18C60
100
AcDbEntity
  8
寸法
 62
     0
 48
50.0
370
    -2
100
AcDbBlockReference
  2
_DOTSMALL
 10
5065.896575106966
 20
7159.952920982537
 30
0.0
 41
100.0
 42
100.0
 43
100.0
 50
180.0
  0
INSERT
  5
18C66
330
18C60
100
AcDbEntity
  8
寸法
 62
     0
 48
50.0
370
    -2
100
AcDbBlockReference
  2
_DOTSMALL
 10
6331.896575106966
 20
7159.952920982537
 30
0.0
 41
100.0
 42
100.0
 43
100.0
  0
MTEXT
  5
18C67
330
18C60
100
AcDbEntity
  8
寸法
 62
     7
 48
50.0
100
AcDbMText
 10
5711.986008735934
 20
7359.964732006159
 30
0.0
 40
120.0
 41
0.0
 71
     5
 72
     1
  1
\A1;有効開口部間口\P1266
  7
STYLE1
 73
     1
 44
1.0
1001
ACAD
1000
MTEXTBEGIN
1070
    73
1070
     1
1070
    44
1040
1.0
1070
    74
1070
     0
1000
MTEXTEND
  0
POINT
  5
18C68
330
18C60
100
AcDbEntity
  8
DEFPOINTS
 62
     0
 48
50.0
100
AcDbPoint
 10
5065.896575106966
 20
7769.123139034579
 30
0.0
  0
POINT
  5
18C69
330
18C60
100
AcDbEntity
  8
DEFPOINTS
 62
     0
 48
50.0
100
AcDbPoint
 10
6331.896575106966
 20
7769.123139034579
 30
0.0
  0
POINT
  5
18C6A
330
18C60
100
AcDbEntity
  8
DEFPOINTS
 62
     0
 48
50.0
100
AcDbPoint
 10
6331.896575106966
 20
7159.952920982537
 30
0.0
  0
ENDBLK
  5
18C6B
330
18C60
100
AcDbEntity
  8
0
 48
50.0
100
AcDbBlockEnd
  0
BLOCK
  5
18C6D
330
18C6C
100
AcDbEntity
  8
0
 48
50.0
100
AcDbBlockBegin
  2
*D16
 70
     1
 10
0.0
 20
0.0
 30
0.0
  3
*D16
  1

  0
LINE
  5
18C6E
330
18C6C
100
AcDbEntity
  8
寸法
 62
     0
 48
50.0
370
    -2
100
AcDbLine
 10
7200.896575106966
 20
7846.123139034578
 30
0.0
 11
7457.192158500191
 21
7846.123139034578
 31
0.0
  0
LINE
  5
18C6F
330
18C6C
100
AcDbEntity
  8
寸法
 62
     0
 48
50.0
370
    -2
100
AcDbLine
 10
7199.896575106966
 20
7769.123139034579
 30
0.0
 11
7457.192158500191
 21
7769.123139034579
 31
0.0
  0
LINE
  5
18C70
330
18C6C
100
AcDbEntity
  8
寸法
 62
     0
 48
50.0
370
    -2
100
AcDbLine
 10
7417.192158500192
 20
7866.123139034579
 30
0.0
 11
7417.192158500192
 21
7886.123139034578
 31
0.0
  0
LINE
  5
18C71
330
18C6C
100
AcDbEntity
  8
寸法
 62
     0
 48
50.0
370
    -2
100
AcDbLine
 10
7417.192158500192
 20
7749.123139034579
 30
0.0
 11
7417.192158500192
 21
7533.123139034573
 31
0.0
  0
LINE
  5
18C72
330
18C6C
100
AcDbEntity
  8
寸法
 62
     0
 48
50.0
370
    -2
100
AcDbLine
 10
7417.192158500192
 20
7846.123139034578
 30
0.0
 11
7417.192158500192
 21
7769.123139034579
 31
0.0
  0
INSERT
  5
18C73
330
18C6C
100
AcDbEntity
  8
寸法
 62
     0
 48
50.0
370
    -2
100
AcDbBlockReference
  2
_DOT
 10
7417.192158500192
 20
7846.123139034578
 30
0.0
 41
20.0
 42
20.0
 43
20.0
 50
270.0
  0
INSERT
  5
18C74
330
18C6C
100
AcDbEntity
  8
寸法
 62
     0
 48
50.0
370
    -2
100
AcDbBlockReference
  2
_DOT
 10
7417.192158500192
 20
7769.123139034579
 30
0.0
 41
20.0
 42
20.0
 43
20.0
 50
90.0
  0
MTEXT
  5
18C75
330
18C6C
100
AcDbEntity
  8
寸法
 62
     7
 48
50.0
100
AcDbMText
 10
7325.192158500191
 20
7631.123139034575
 30
0.0
 40
120.0
 41
0.0
 71
     5
 72
     1
  1
\A1;77
  7
STYLE1
 11
0.0000000000000001
 21
1.0
 31
0.0
 73
     1
 44
1.0
1001
ACAD
1000
MTEXTBEGIN
1070
    73
1070
     1
1070
    44
1040
1.0
1070
    74
1070
     0
1000
MTEXTEND
  0
POINT
  5
18C76
330
18C6C
100
AcDbEntity
  8
DEFPOINTS
 62
     0
 48
50.0
100
AcDbPoint
 10
7180.896575106967
 20
7846.123139034578
 30
0.0
  0
POINT
  5
18C77
330
18C6C
100
AcDbEntity
  8
DEFPOINTS
 62
     0
 48
50.0
100
AcDbPoint
 10
7179.896575106965
 20
7769.123139034579
 30
0.0
  0
POINT
  5
18C78
330
18C6C
100
AcDbEntity
  8
DEFPOINTS
 62
     0
 48
50.0
100
AcDbPoint
 10
7417.192158500192
 20
7769.123139034579
 30
0.0
  0
ENDBLK
  5
18C79
330
18C6C
100
AcDbEntity
  8
0
 48
50.0
100
AcDbBlockEnd
  0
BLOCK
  5
18DA0
330
18C7A
100
AcDbEntity
  8
0
 48
50.0
100
AcDbBlockBegin
  2
A$C3B1A506B
 70
     0
 10
0.0
 20
0.0
 30
0.0
  3
A$C3B1A506B
  1

  0
MTEXT
  5
18C7B
330
18C7A
100
AcDbEntity
  8
寸法
 62
     7
 48
50.0
100
AcDbMText
 10
3342.250386887194
 20
2778.329429134012
 30
0.0
 40
96.0
 41
0.0
 71
     5
 72
     1
  1
棚 2段
  7
STYLE1
 73
     1
 44
1.0
1001
ACAD
1000
MTEXTBEGIN
1070
    73
1070
     1
1070
    44
1040
1.0
1070
    74
1070
     0
1000
MTEXTEND
  0
MTEXT
  5
18C7C
330
18C7A
100
AcDbEntity
  8
寸法
 62
     7
 48
50.0
100
AcDbMText
 10
2167.25038688716
 20
2778.329429133986
 30
0.0
 40
96.0
 41
0.0
 71
     5
 72
     1
  1
棚 2段
  7
STYLE1
 73
     1
 44
1.0
1001
ACAD
1000
MTEXTBEGIN
1070
    73
1070
     1
1070
    44
1040
1.0
1070
    74
1070
     0
1000
MTEXTEND
  0
MTEXT
  5
18C7D
330
18C7A
100
AcDbEntity
  8
寸法
 62
     7
 48
50.0
100
AcDbMText
 10
992.2503868871608
 20
2778.329429133935
 30
0.0
 40
96.0
 41
0.0
 71
     5
 72
     1
  1
棚 2段
  7
STYLE1
 73
     1
 44
1.0
1001
ACAD
1000
MTEXTBEGIN
1070
    73
1070
     1
1070
    44
1040
1.0
1070
    74
1070
     0
1000
MTEXTEND
  0
LINE
  5
18C7E
330
18C7A
100
AcDbEntity
  8
細線
 48
50.0
100
AcDbLine
 10
2771.970589276527
 20
1368.994384123192
 30
0.0
 11
3398.970589276523
 21
1368.994384123192
 31
0.0
  0
LINE
  5
18C7F
330
18C7A
100
AcDbEntity
  8
細線
 48
50.0
100
AcDbLine
 10
2117.970593930113
 20
1335.285615569113
 30
0.0
 11
3398.970589276523
 21
1335.285615569113
 31
0.0
  0
LINE
  5
18C80
330
18C7A
100
AcDbEntity
  8
細線
 48
50.0
100
AcDbLine
 10
2076.970593930115
 20
1364.690523565368
 30
0.0
 11
1322.970589276523
 21
1364.690523565367
 31
0.0
  0
LINE
  5
18C81
330
18C7A
100
AcDbEntity
  8
細線
100
AcDbLine
 10
3170.720579860066
 20
1388.494284088199
 30
0.0
 11
3173.052119381877
 21
1393.494286728162
 31
0.0
  0
LINE
  5
18C82
330
18C7A
100
AcDbEntity
  8
細線
100
AcDbLine
 10
3240.720589276525
 20
1388.494269174465
 30
0.0
 11
3238.389042800336
 21
1393.494286728144
 31
0.0
  0
LINE
  5
18C83
330
18C7A
100
AcDbEntity
  8
細線
100
AcDbLine
 10
3238.389042800336
 20
1393.494286728144
 30
0.0
 11
3173.052119381862
 21
1393.494286728133
 31
0.0
  0
LINE
  5
18C84
330
18C7A
100
AcDbEntity
  8
細線
100
AcDbLine
 10
3098.389042800336
 20
1393.494286728144
 30
0.0
 11
3033.052119381862
 21
1393.494286728133
 31
0.0
  0
LINE
  5
18C85
330
18C7A
100
AcDbEntity
  8
細線
100
AcDbLine
 10
3100.720589276523
 20
1388.494269174465
 30
0.0
 11
3098.389042800336
 21
1393.494286728144
 31
0.0
  0
LINE
  5
18C86
330
18C7A
100
AcDbEntity
  8
細線
100
AcDbLine
 10
3030.720579860066
 20
1388.494284088199
 30
0.0
 11
3033.052119381875
 21
1393.494286728162
 31
0.0
  0
LINE
  5
18C87
330
18C7A
100
AcDbEntity
  8
細線
100
AcDbLine
 10
2890.720589276525
 20
1388.494269174465
 30
0.0
 11
2893.052128798336
 21
1393.494271814428
 31
0.0
  0
LINE
  5
18C88
330
18C7A
100
AcDbEntity
  8
細線
100
AcDbLine
 10
2960.720598692984
 20
1388.494254260731
 30
0.0
 11
2958.389052216793
 21
1393.49427181441
 31
0.0
  0
LINE
  5
18C89
330
18C7A
100
AcDbEntity
  8
細線
100
AcDbLine
 10
2958.389052216795
 20
1393.49427181441
 30
0.0
 11
2893.052128798321
 21
1393.494271814399
 31
0.0
  0
LINE
  5
18C8A
330
18C7A
100
AcDbEntity
  8
細線
100
AcDbLine
 10
2667.139038146739
 20
1359.494298590735
 30
0.0
 11
2601.802114728263
 21
1359.494298590724
 31
0.0
  0
LINE
  5
18C8B
330
18C7A
100
AcDbEntity
  8
細線
100
AcDbLine
 10
2669.470584622926
 20
1354.494281037055
 30
0.0
 11
2667.139038146737
 21
1359.494298590735
 31
0.0
  0
LINE
  5
18C8C
330
18C7A
100
AcDbEntity
  8
細線
100
AcDbLine
 10
2599.470575206469
 20
1354.49429595079
 30
0.0
 11
2601.802114728278
 21
1359.494298590752
 31
0.0
  0
LINE
  5
18C8D
330
18C7A
100
AcDbEntity
  8
細線
 48
50.0
100
AcDbLine
 10
2440.853968524536
 20
1372.765132327548
 30
0.0
 11
2446.609486107205
 21
1354.494281037057
 31
0.0
  0
LINE
  5
18C8E
330
18C7A
100
AcDbEntity
  8
細線
 48
50.0
100
AcDbLine
 10
2429.925520044106
 20
1372.765132327546
 30
0.0
 11
2440.853968524536
 21
1372.765132327548
 31
0.0
  0
ARC
  5
18C8F
330
18C7A
100
AcDbEntity
  8
細線
 48
50.0
100
AcDbCircle
 10
2424.471163986787
 20
1374.265132327546
 30
0.0
 40
5.0
100
AcDbArc
 50
204.6243183520723
 51
335.3756816479278
  0
ARC
  5
18C90
330
18C7A
100
AcDbEntity
  8
細線
 48
50.0
100
AcDbCircle
 10
2429.925520044106
 20
1371.765132327546
 30
0.0
 40
1.0
100
AcDbArc
 50
90.0
 51
155.3756816479277
  0
ARC
  5
18C91
330
18C7A
100
AcDbEntity
  8
細線
 48
50.0
100
AcDbCircle
 10
2419.016807929469
 20
1371.765132327546
 30
0.0
 40
1.0
100
AcDbArc
 50
24.62431835207225
 51
90.0
  0
LINE
  5
18C92
330
18C7A
100
AcDbEntity
  8
細線
 48
50.0
100
AcDbLine
 10
2408.088359449037
 20
1372.765132327548
 30
0.0
 11
2419.016807929469
 21
1372.765132327546
 31
0.0
  0
LINE
  5
18C93
330
18C7A
100
AcDbEntity
  8
細線
 48
50.0
100
AcDbLine
 10
2402.33284186637
 20
1354.494281037054
 30
0.0
 11
2408.088359449037
 21
1372.765132327548
 31
0.0
  0
LINE
  5
18C94
330
18C7A
100
AcDbEntity
  8
細線
100
AcDbLine
 10
2458.070304175992
 20
1354.494278397076
 30
0.0
 11
2460.401843697802
 21
1359.494281037039
 31
0.0
  0
LINE
  5
18C95
330
18C7A
100
AcDbEntity
  8
細線
100
AcDbLine
 10
2528.070313592451
 20
1354.494263483342
 30
0.0
 11
2525.738767116262
 21
1359.494281037021
 31
0.0
  0
LINE
  5
18C96
330
18C7A
100
AcDbEntity
  8
細線
100
AcDbLine
 10
2525.738767116262
 20
1359.494281037021
 30
0.0
 11
2460.40184369779
 21
1359.49428103701
 31
0.0
  0
LINE
  5
18C97
330
18C7A
100
AcDbEntity
  8
細線
100
AcDbLine
 10
2387.139046332155
 20
1359.494281037021
 30
0.0
 11
2321.80212291368
 21
1359.49428103701
 31
0.0
  0
LINE
  5
18C98
330
18C7A
100
AcDbEntity
  8
細線
100
AcDbLine
 10
2389.470592808342
 20
1354.494263483342
 30
0.0
 11
2387.139046332153
 21
1359.494281037021
 31
0.0
  0
LINE
  5
18C99
330
18C7A
100
AcDbEntity
  8
細線
100
AcDbLine
 10
2319.470584622926
 20
1354.494281037054
 30
0.0
 11
2321.802122913694
 21
1359.494281037039
 31
0.0
  0
LINE
  5
18C9A
330
18C7A
100
AcDbEntity
  8
細線
100
AcDbLine
 10
2179.47061994182
 20
1354.494289224422
 30
0.0
 11
2181.802158232587
 21
1359.494289224407
 31
0.0
  0
LINE
  5
18C9B
330
18C7A
100
AcDbEntity
  8
細線
100
AcDbLine
 10
2249.470628127236
 20
1354.49427167071
 30
0.0
 11
2247.139081651047
 21
1359.494289224389
 31
0.0
  0
LINE
  5
18C9C
330
18C7A
100
AcDbEntity
  8
細線
100
AcDbLine
 10
2247.139081651047
 20
1359.494289224389
 30
0.0
 11
2181.802158232573
 21
1359.494289224378
 31
0.0
  0
LINE
  5
18C9D
330
18C7A
100
AcDbEntity
  8
細線
100
AcDbLine
 10
1807.970585744697
 20
1320.494460905133
 30
0.0
 11
1810.302124035464
 21
1325.494460905118
 31
0.0
  0
LINE
  5
18C9E
330
18C7A
100
AcDbEntity
  8
細線
100
AcDbLine
 10
1877.970593930113
 20
1320.494443351421
 30
0.0
 11
1875.639047453926
 21
1325.4944609051
 31
0.0
  0
LINE
  5
18C9F
330
18C7A
100
AcDbEntity
  8
細線
100
AcDbLine
 10
1875.639047453926
 20
1325.4944609051
 30
0.0
 11
1810.302124035452
 21
1325.494460905089
 31
0.0
  0
LINE
  5
18CA0
330
18C7A
100
AcDbEntity
  8
細線
100
AcDbLine
 10
2015.639047453926
 20
1325.4944609051
 30
0.0
 11
1950.302124035452
 21
1325.494460905089
 31
0.0
  0
LINE
  5
18CA1
330
18C7A
100
AcDbEntity
  8
細線
100
AcDbLine
 10
2017.970593930113
 20
1320.494443351421
 30
0.0
 11
2015.639047453924
 21
1325.4944609051
 31
0.0
  0
LINE
  5
18CA2
330
18C7A
100
AcDbEntity
  8
細線
100
AcDbLine
 10
1947.970585744697
 20
1320.494460905133
 30
0.0
 11
1950.302124035465
 21
1325.494460905118
 31
0.0
  0
LINE
  5
18CA3
330
18C7A
100
AcDbEntity
  8
細線
100
AcDbLine
 10
1735.639047453926
 20
1325.494460905098
 30
0.0
 11
1670.302124035454
 21
1325.494460905087
 31
0.0
  0
LINE
  5
18CA4
330
18C7A
100
AcDbEntity
  8
細線
100
AcDbLine
 10
1737.970593930113
 20
1320.494443351419
 30
0.0
 11
1735.639047453926
 21
1325.494460905098
 31
0.0
  0
LINE
  5
18CA5
330
18C7A
100
AcDbEntity
  8
細線
100
AcDbLine
 10
1667.970585744697
 20
1320.494460905131
 30
0.0
 11
1670.302124035465
 21
1325.494460905116
 31
0.0
  0
LINE
  5
18CA6
330
18C7A
100
AcDbEntity
  8
細線
100
AcDbLine
 10
1527.970593930113
 20
1320.494460905133
 30
0.0
 11
1530.302132220881
 21
1325.494460905118
 31
0.0
  0
LINE
  5
18CA7
330
18C7A
100
AcDbEntity
  8
細線
100
AcDbLine
 10
1597.970602115529
 20
1320.494443351421
 30
0.0
 11
1595.639055639342
 21
1325.4944609051
 31
0.0
  0
LINE
  5
18CA8
330
18C7A
100
AcDbEntity
  8
細線
100
AcDbLine
 10
1595.639055639342
 20
1325.4944609051
 30
0.0
 11
1530.302132220869
 21
1325.494460905089
 31
0.0
  0
ARC
  5
18CA9
330
18C7A
100
AcDbEntity
  8
部品1
 48
0.01
100
AcDbCircle
 10
1483.470482677778
 20
1319.493338720063
 30
0.0
 40
0.5
100
AcDbArc
 50
270.0
 51
0.0
  0
LINE
  5
18CAA
330
18C7A
100
AcDbEntity
  8
部品1
 48
0.01
100
AcDbLine
 10
1483.970482677778
 20
1320.493338720063
 30
0.0
 11
1483.970482677778
 21
1319.493338720063
 31
0.0
  0
LINE
  5
18CAB
330
18C7A
100
AcDbEntity
  8
部品1
 48
0.01
100
AcDbLine
 10
1483.970482677778
 20
1320.493338720063
 30
0.0
 11
1483.970482677778
 21
1319.493338720063
 31
0.0
  0
LINE
  5
18CAC
330
18C7A
100
AcDbEntity
  8
部品1
 48
0.01
100
AcDbLine
 10
1483.470482677778
 20
1318.993338720063
 30
0.0
 11
1476.857977247713
 21
1318.993338720062
 31
0.0
  0
ARC
  5
18CAD
330
18C7A
100
AcDbEntity
  8
部品1
100
AcDbCircle
 10
1476.926326800494
 20
1319.993338720062
 30
0.0
 40
1.0
100
AcDbArc
 50
160.5287793655865
 51
270.0
  0
ARC
  5
18CAE
330
18C7A
100
AcDbEntity
  8
部品1
100
AcDbCircle
 10
1451.470482677778
 20
1328.993338720062
 30
0.0
 40
26.0
100
AcDbArc
 50
340.5287793655865
 51
0.0
  0
LINE
  5
18CAF
330
18C7A
100
AcDbEntity
  8
部品1
100
AcDbLine
 10
1477.470482677778
 20
1328.993338720062
 30
0.0
 11
1477.470482677778
 21
1333.993338720061
 31
0.0
  0
ARC
  5
18CB0
330
18C7A
100
AcDbEntity
  8
部品1
 48
0.01
100
AcDbCircle
 10
1475.470482677778
 20
1333.993338720061
 30
0.0
 40
2.0
100
AcDbArc
 50
0.0
 51
90.0
  0
ARC
  5
18CB1
330
18C7A
100
AcDbEntity
  8
部品1
100
AcDbCircle
 10
1473.862091052968
 20
1332.993338720062
 30
0.0
 40
3.0
100
AcDbArc
 50
90.0
 51
141.6069559808035
  0
LINE
  5
18CB2
330
18C7A
100
AcDbEntity
  8
部品1
 48
0.01
100
AcDbLine
 10
1475.470482677778
 20
1335.993338720062
 30
0.0
 11
1473.862091052968
 21
1335.993338720062
 31
0.0
  0
ARC
  5
18CB3
330
18C7A
100
AcDbEntity
  8
部品1
100
AcDbCircle
 10
1455.399768463507
 20
1332.293338720065
 30
0.0
 40
3.0
100
AcDbArc
 50
254.0576313943215
 51
270.0
  0
ARC
  5
18CB4
330
18C7A
100
AcDbEntity
  8
部品1
100
AcDbCircle
 10
1462.541196892049
 20
1332.293338720065
 30
0.0
 40
3.0
100
AcDbArc
 50
270.0
 51
285.9423686056786
  0
LINE
  5
18CB5
330
18C7A
100
AcDbEntity
  8
部品1
100
AcDbLine
 10
1462.541196892049
 20
1329.293338720064
 30
0.0
 11
1455.399768463507
 21
1329.293338720064
 31
0.0
  0
ARC
  5
18CB6
330
18C7A
100
AcDbEntity
  8
部品1
100
AcDbCircle
 10
1458.970482677778
 20
1344.793338720065
 30
0.0
 40
16.0
100
AcDbArc
 50
285.9423686056786
 51
321.6069559808035
  0
LINE
  5
18CB7
330
18C7A
100
AcDbEntity
  8
部品1
 48
0.01
100
AcDbLine
 10
1442.470482677778
 20
1335.993338720062
 30
0.0
 11
1444.078874302588
 21
1335.993338720062
 31
0.0
  0
ARC
  5
18CB8
330
18C7A
100
AcDbEntity
  8
部品1
100
AcDbCircle
 10
1444.078874302588
 20
1332.993338720062
 30
0.0
 40
3.0
100
AcDbArc
 50
38.39304401919648
 51
90.0
  0
ARC
  5
18CB9
330
18C7A
100
AcDbEntity
  8
部品1
100
AcDbCircle
 10
1458.970482677778
 20
1344.793338720065
 30
0.0
 40
16.0
100
AcDbArc
 50
218.3930440191965
 51
254.0576313943215
  0
LINE
  5
18CBA
330
18C7A
100
AcDbEntity
  8
部品1
100
AcDbLine
 10
1440.470482677778
 20
1328.993338720062
 30
0.0
 11
1440.470482677778
 21
1333.993338720061
 31
0.0
  0
ARC
  5
18CBB
330
18C7A
100
AcDbEntity
  8
部品1
 48
0.01
100
AcDbCircle
 10
1442.470482677778
 20
1333.993338720061
 30
0.0
 40
2.0
100
AcDbArc
 50
90.0
 51
180.0
  0
ARC
  5
18CBC
330
18C7A
100
AcDbEntity
  8
部品1
100
AcDbCircle
 10
1466.470482677778
 20
1328.993338720062
 30
0.0
 40
26.0
100
AcDbArc
 50
180.0
 51
199.4712206344134
  0
ARC
  5
18CBD
330
18C7A
100
AcDbEntity
  8
部品1
 48
0.01
100
AcDbCircle
 10
1434.470482677778
 20
1319.493338720063
 30
0.0
 40
0.5
100
AcDbArc
 50
180.0
 51
270.0
  0
LINE
  5
18CBE
330
18C7A
100
AcDbEntity
  8
部品1
 48
0.01
100
AcDbLine
 10
1434.470482677778
 20
1318.993338720063
 30
0.0
 11
1441.014638555061
 21
1318.993338720062
 31
0.0
  0
LINE
  5
18CBF
330
18C7A
100
AcDbEntity
  8
部品1
 48
0.01
100
AcDbLine
 10
1433.970482677778
 20
1320.493338720063
 30
0.0
 11
1433.970482677778
 21
1319.493338720063
 31
0.0
  0
ARC
  5
18CC0
330
18C7A
100
AcDbEntity
  8
部品1
100
AcDbCircle
 10
1441.014638555061
 20
1319.993338720062
 30
0.0
 40
1.0
100
AcDbArc
 50
270.0
 51
19.47122063441346
  0
LINE
  5
18CC1
330
18C7A
100
AcDbEntity
  8
細線
100
AcDbLine
 10
1479.470482677785
 20
1338.493338720065
 30
0.0
 11
1438.470482677785
 21
1338.493338720058
 31
0.0
  0
LINE
  5
18CC2
330
18C7A
100
AcDbEntity
  8
細線
100
AcDbLine
 10
1438.470482677785
 20
1338.493338720058
 30
0.0
 11
1438.470482677785
 21
1320.49333872004
 31
0.0
  0
LINE
  5
18CC3
330
18C7A
100
AcDbEntity
  8
細線
100
AcDbLine
 10
1479.470482677785
 20
1338.493338720065
 30
0.0
 11
1479.470482677785
 21
1320.49333872004
 31
0.0
  0
LINE
  5
18CC4
330
18C7A
100
AcDbEntity
  8
細線
100
AcDbLine
 10
1322.970589276523
 20
1324.494269174465
 30
0.0
 11
1322.970589276523
 21
1320.494269174513
 31
0.0
  0
LINE
  5
18CC5
330
18C7A
100
AcDbEntity
  8
寸法
 48
50.0
100
AcDbLine
 10
1746.17359555837
 20
1170.531020743327
 30
0.0
 11
1694.767587648266
 21
1170.531020743327
 31
0.0
  0
LINE
  5
18CC6
330
18C7A
100
AcDbEntity
  8
寸法
 48
50.0
100
AcDbLine
 10
1694.767587648266
 20
1170.531020743327
 30
0.0
 11
1694.767587648266
 21
1201.841179395494
 31
0.0
  0
LINE
  5
18CC7
330
18C7A
100
AcDbEntity
  8
寸法
 48
50.0
100
AcDbLine
 10
1694.767587648266
 20
1201.841179395494
 30
0.0
 11
1665.006255656843
 21
1201.841179395494
 31
0.0
  0
LINE
  5
18CC8
330
18C7A
100
AcDbEntity
  8
寸法
 48
50.0
100
AcDbLine
 10
1665.006255656843
 20
1201.841179395494
 30
0.0
 11
1720.470591603318
 21
1239.420630324105
 31
0.0
  0
LINE
  5
18CC9
330
18C7A
100
AcDbEntity
  8
寸法
 48
50.0
100
AcDbLine
 10
1775.934927549793
 20
1201.841179395494
 30
0.0
 11
1720.470591603318
 21
1239.420630324105
 31
0.0
  0
LINE
  5
18CCA
330
18C7A
100
AcDbEntity
  8
寸法
 48
50.0
100
AcDbLine
 10
1746.17359555837
 20
1201.841179395494
 30
0.0
 11
1775.934927549793
 21
1201.841179395494
 31
0.0
  0
LINE
  5
18CCB
330
18C7A
100
AcDbEntity
  8
寸法
 48
50.0
100
AcDbLine
 10
1746.17359555837
 20
1170.531020743327
 30
0.0
 11
1746.17359555837
 21
1201.841179395494
 31
0.0
  0
LINE
  5
18CCC
330
18C7A
100
AcDbEntity
  8
寸法
 48
50.0
100
AcDbLine
 10
1694.767587648266
 20
1170.531020743327
 30
0.0
 11
1746.17359555837
 21
1170.531020743327
 31
0.0
  0
LINE
  5
18CCD
330
18C7A
100
AcDbEntity
  8
寸法
 48
50.0
100
AcDbLine
 10
2025.339129835225
 20
1227.676611498152
 30
0.0
 11
2025.339129835225
 21
1174.01297691636
 31
0.0
  0
LINE
  5
18CCE
330
18C7A
100
AcDbEntity
  8
寸法
 48
50.0
100
AcDbLine
 10
2114.623348430647
 20
1203.752977228664
 30
0.0
 11
2025.339129835225
 21
1227.676611498152
 31
0.0
  0
LINE
  5
18CCF
330
18C7A
100
AcDbEntity
  8
寸法
 48
50.0
100
AcDbLine
 10
1895.471408254923
 20
1203.752977228664
 30
0.0
 11
2114.623348430647
 21
1203.752977228664
 31
0.0
  0
DIMENSION
  5
18CD0
330
18C7A
100
AcDbEntity
  8
寸法
 48
50.0
100
AcDbDimension
  2
*D15
 10
2588.970589276523
 20
706.3240511224249
 30
0.0
 11
1969.060022905491
 21
706.3240511224249
 31
0.0
 12
-3742.925985830444
 22
-6453.628869860112
 32
0.0
 70
   128
  1
有効開口部間口\P<>
 71
     5
 42
1266.0
  3
INABA_S40G
100
AcDbAlignedDimension
 13
1322.970589276523
 23
1315.494269174465
 33
0.0
 14
2588.970589276523
 24
1315.494269174465
 34
0.0
100
AcDbRotatedDimension
1001
ACAD
1000
DSTYLE
1002
{
1070
   341
1005
0
1002
}
  0
LINE
  5
18CD1
330
18C7A
100
AcDbEntity
  8
部品1
100
AcDbLine
 10
3409.970589276524
 20
1392.494269174465
 30
0.0
 11
3437.970589276523
 21
1392.494269174465
 31
0.0
  0
DIMENSION
  5
18CD2
330
18C7A
100
AcDbEntity
  8
寸法
100
AcDbDimension
  2
*D16
 10
3674.266172669749
 20
1315.494269174465
 30
0.0
 11
3674.266172669748
 21
1177.494269174462
 31
0.0
 12
-3742.925985830444
 22
-6453.628869860112
 32
0.0
 70
   128
 71
     5
 42
77.0
  3
INABA_S40
100
AcDbAlignedDimension
 13
3437.970589276523
 23
1392.494269174465
 33
0.0
 14
3436.970589276523
 24
1315.494269174465
 34
0.0
 50
90.0
100
AcDbRotatedDimension
1001
ACAD
1000
DSTYLE
1002
{
1070
    41
1040
0.5
1070
    44
1040
1.0
1070
   147
1040
0.8
1070
   271
1070
     2
1070
   272
1070
     2
1070
   289
1070
     3
1070
   340
1005
F706
1070
   343
1005
164B4
1070
   344
1005
164B4
1002
}
  0
LINE
  5
18CD3
330
18C7A
100
AcDbEntity
  8
部品1
100
AcDbLine
 10
3437.970589276523
 20
1315.494269174465
 30
0.0
 11
3437.970589276523
 21
1392.494269174465
 31
0.0
  0
LINE
  5
18CD4
330
18C7A
100
AcDbEntity
  8
部品1
100
AcDbLine
 10
3398.970589276523
 20
1388.494269174465
 30
0.0
 11
3409.970589276524
 21
1388.494269174465
 31
0.0
  0
LINE
  5
18CD5
330
18C7A
100
AcDbEntity
  8
部品1
100
AcDbLine
 10
3407.970589276523
 20
1324.494269174465
 30
0.0
 11
3407.970589276523
 21
1315.494269174465
 31
0.0
  0
LINE
  5
18CD6
330
18C7A
100
AcDbEntity
  8
部品1
100
AcDbLine
 10
3398.970589276523
 20
1324.494269174465
 30
0.0
 11
3407.970589276523
 21
1324.494269174465
 31
0.0
  0
LINE
  5
18CD7
330
18C7A
100
AcDbEntity
  8
部品1
100
AcDbLine
 10
3398.970589276523
 20
1388.494269174465
 30
0.0
 11
3398.970589276523
 21
1324.494269174465
 31
0.0
  0
LINE
  5
18CD8
330
18C7A
100
AcDbEntity
  8
部品1
100
AcDbLine
 10
3409.970589276524
 20
1419.494269174465
 30
0.0
 11
3409.970589276524
 21
1388.494269174465
 31
0.0
  0
LINE
  5
18CD9
330
18C7A
100
AcDbEntity
  8
部品1
100
AcDbLine
 10
1322.970589276523
 20
1388.494269174465
 30
0.0
 11
1311.970589276523
 21
1388.494269174465
 31
0.0
  0
LINE
  5
18CDA
330
18C7A
100
AcDbEntity
  8
部品1
100
AcDbLine
 10
1283.970589276523
 20
1392.494269174465
 30
0.0
 11
1311.970589276523
 21
1392.494269174465
 31
0.0
  0
LINE
  5
18CDB
330
18C7A
100
AcDbEntity
  8
部品1
100
AcDbLine
 10
1313.970589276523
 20
1324.494269174465
 30
0.0
 11
1313.970589276523
 21
1315.494269174465
 31
0.0
  0
LINE
  5
18CDC
330
18C7A
100
AcDbEntity
  8
部品1
100
AcDbLine
 10
1322.970589276523
 20
1324.494269174465
 30
0.0
 11
1313.970589276523
 21
1324.494269174465
 31
0.0
  0
LINE
  5
18CDD
330
18C7A
100
AcDbEntity
  8
部品1
100
AcDbLine
 10
1313.970589276523
 20
1315.494269174465
 30
0.0
 11
1283.970589276523
 21
1315.494269174465
 31
0.0
  0
LINE
  5
18CDE
330
18C7A
100
AcDbEntity
  8
部品1
100
AcDbLine
 10
1283.970589276523
 20
1315.494269174465
 30
0.0
 11
1283.970589276523
 21
1392.494269174465
 31
0.0
  0
LINE
  5
18CDF
330
18C7A
100
AcDbEntity
  8
部品1
100
AcDbLine
 10
1322.970589276523
 20
1388.494269174465
 30
0.0
 11
1322.970589276523
 21
1324.494269174465
 31
0.0
  0
LINE
  5
18CE0
330
18C7A
100
AcDbEntity
  8
部品1
100
AcDbLine
 10
1311.970589276523
 20
1419.494269174462
 30
0.0
 11
1311.970589276523
 21
1388.494269174465
 31
0.0
  0
LINE
  5
18CE1
330
18C7A
100
AcDbEntity
  8
部品1
100
AcDbLine
 10
1311.970589276523
 20
1419.494269174462
 30
0.0
 11
3409.970589276524
 21
1419.494269174465
 31
0.0
  0
LINE
  5
18CE2
330
18C7A
100
AcDbEntity
  8
部品1
100
AcDbLine
 10
3407.970589276523
 20
1315.494269174465
 30
0.0
 11
3437.970589276523
 21
1315.494269174465
 31
0.0
  0
LINE
  5
18CE3
330
18C7A
100
AcDbEntity
  8
部品1
100
AcDbLine
 10
1313.970589276523
 20
1315.494269174465
 30
0.0
 11
3410.970589276523
 21
1315.494269174465
 31
0.0
  0
LINE
  5
18CE4
330
18C7A
100
AcDbEntity
  8
細線
  6
Continuous
 62
     5
100
AcDbLine
 10
2689.970589276527
 20
1354.494269174462
 30
0.0
 11
2689.970589276527
 21
1354.494269174462
 31
0.0
  0
LINE
  5
18CE5
330
18C7A
100
AcDbEntity
  8
細線
  6
Continuous
 62
     5
100
AcDbLine
 10
2682.470589276527
 20
1354.494269174462
 30
0.0
 11
2682.470589276527
 21
1354.494269174462
 31
0.0
  0
LINE
  5
18CE6
330
18C7A
100
AcDbEntity
  8
細線
  6
Continuous
 62
     5
100
AcDbLine
 10
2676.470589276527
 20
1354.494269174462
 30
0.0
 11
2676.470589276527
 21
1354.494269174462
 31
0.0
  0
LINE
  5
18CE7
330
18C7A
100
AcDbEntity
  8
細線
  6
Continuous
 62
     5
100
AcDbLine
 10
2743.970589276527
 20
1373.494269174462
 30
0.0
 11
2743.970589276527
 21
1373.494269174462
 31
0.0
  0
LINE
  5
18CE8
330
18C7A
100
AcDbEntity
  8
細線
 48
50.0
100
AcDbLine
 10
1336.970593930116
 20
1341.094443351418
 30
0.0
 11
1336.970593930113
 21
1349.490593759059
 31
0.0
  0
LINE
  5
18CE9
330
18C7A
100
AcDbEntity
  8
細線
 48
50.0
100
AcDbLine
 10
1336.970593930113
 20
1349.490593759059
 30
0.0
 11
1322.970589276523
 21
1349.490593759057
 31
0.0
  0
LINE
  5
18CEA
330
18C7A
100
AcDbEntity
  8
細線
 48
50.0
100
AcDbLine
 10
2087.970593930113
 20
1337.644443351419
 30
0.0
 11
2087.970593930113
 21
1342.494443351421
 31
0.0
  0
LINE
  5
18CEB
330
18C7A
100
AcDbEntity
  8
細線
 48
50.0
100
AcDbLine
 10
2087.970593930113
 20
1342.494443351421
 30
0.0
 11
2102.970593930113
 21
1342.494443351421
 31
0.0
  0
LINE
  5
18CEC
330
18C7A
100
AcDbEntity
  8
細線
 48
50.0
100
AcDbLine
 10
2102.970593930113
 20
1342.494443351421
 30
0.0
 11
2102.970593930115
 21
1349.494443351419
 31
0.0
  0
LINE
  5
18CED
330
18C7A
100
AcDbEntity
  8
細線
 48
50.0
100
AcDbLine
 10
2102.970593930115
 20
1349.494443351419
 30
0.0
 11
2117.970593930113
 21
1349.494443351419
 31
0.0
  0
LINE
  5
18CEE
330
18C7A
100
AcDbEntity
  8
細線
 48
50.0
100
AcDbLine
 10
2117.970593930113
 20
1349.494443351419
 30
0.0
 11
2117.970593930113
 21
1320.494443351421
 31
0.0
  0
LINE
  5
18CEF
330
18C7A
100
AcDbEntity
  8
細線
 48
50.0
100
AcDbLine
 10
1313.970589276523
 20
1320.491777694889
 30
0.0
 11
1527.970593930113
 21
1320.494460905133
 31
0.0
  0
LINE
  5
18CF0
330
18C7A
100
AcDbEntity
  8
細線
 48
50.0
100
AcDbLine
 10
2017.970593930113
 20
1320.494443351421
 30
0.0
 11
2117.970593930113
 21
1320.494443351421
 31
0.0
  0
LINE
  5
18CF1
330
18C7A
100
AcDbEntity
  8
細線
 48
50.0
100
AcDbLine
 10
1737.970593930113
 20
1320.494443351419
 30
0.0
 11
1807.970593930113
 21
1320.494443351423
 31
0.0
  0
LINE
  5
18CF2
330
18C7A
100
AcDbEntity
  8
細線
 48
50.0
100
AcDbLine
 10
1750.832558942642
 20
1320.494443351419
 30
0.0
 11
1756.588076525309
 21
1338.765294641913
 31
0.0
  0
LINE
  5
18CF3
330
18C7A
100
AcDbEntity
  8
細線
 48
50.0
100
AcDbLine
 10
1756.588076525309
 20
1338.765294641913
 30
0.0
 11
1767.516525005743
 21
1338.765294641911
 31
0.0
  0
ARC
  5
18CF4
330
18C7A
100
AcDbEntity
  8
細線
 48
50.0
100
AcDbCircle
 10
1767.516525005743
 20
1337.765294641911
 30
0.0
 40
1.0
100
AcDbArc
 50
24.62431835207225
 51
90.0
  0
ARC
  5
18CF5
330
18C7A
100
AcDbEntity
  8
細線
 48
50.0
100
AcDbCircle
 10
1778.425237120377
 20
1337.765294641911
 30
0.0
 40
1.0
100
AcDbArc
 50
90.0
 51
155.3756816479277
  0
ARC
  5
18CF6
330
18C7A
100
AcDbEntity
  8
細線
 48
50.0
100
AcDbCircle
 10
1772.970881063058
 20
1340.265294641911
 30
0.0
 40
5.0
100
AcDbArc
 50
204.6243183520723
 51
335.3756816479278
  0
LINE
  5
18CF7
330
18C7A
100
AcDbEntity
  8
細線
 48
50.0
100
AcDbLine
 10
1778.425237120377
 20
1338.765294641911
 30
0.0
 11
1789.35368560081
 21
1338.765294641913
 31
0.0
  0
LINE
  5
18CF8
330
18C7A
100
AcDbEntity
  8
細線
 48
50.0
100
AcDbLine
 10
1789.35368560081
 20
1338.765294641913
 30
0.0
 11
1795.109203183478
 21
1320.494443351423
 31
0.0
  0
LINE
  5
18CF9
330
18C7A
100
AcDbEntity
  8
細線
 48
50.0
100
AcDbLine
 10
2087.970593930113
 20
1341.094443351419
 30
0.0
 11
1336.970593930116
 21
1341.094443351418
 31
0.0
  0
LINE
  5
18CFA
330
18C7A
100
AcDbEntity
  8
細線
 48
50.0
100
AcDbLine
 10
1947.970593930113
 20
1320.494443351421
 30
0.0
 11
1877.970593930113
 21
1320.494443351421
 31
0.0
  0
LINE
  5
18CFB
330
18C7A
100
AcDbEntity
  8
細線
100
AcDbLine
 10
1667.970593930113
 20
1320.494443351421
 30
0.0
 11
1597.970602115529
 21
1320.494443351421
 31
0.0
  0
LINE
  5
18CFC
330
18C7A
100
AcDbEntity
  8
細線
 48
50.0
100
AcDbLine
 10
2741.970584622936
 20
1375.094487209288
 30
0.0
 11
2106.970593930113
 21
1375.094487209284
 31
0.0
  0
LINE
  5
18CFD
330
18C7A
100
AcDbEntity
  8
細線
 48
50.0
100
AcDbLine
 10
2106.970593930113
 20
1371.990637616925
 30
0.0
 11
2106.970593930113
 21
1376.490637616925
 31
0.0
  0
LINE
  5
18CFE
330
18C7A
100
AcDbEntity
  8
細線
 48
50.0
100
AcDbLine
 10
2106.970593930113
 20
1376.490637616925
 30
0.0
 11
2091.970593930113
 21
1376.490637616925
 31
0.0
  0
LINE
  5
18CFF
330
18C7A
100
AcDbEntity
  8
細線
 48
50.0
100
AcDbLine
 10
2091.970593930113
 20
1376.490637616925
 30
0.0
 11
2091.970593930113
 21
1383.490637616927
 31
0.0
  0
LINE
  5
18D00
330
18C7A
100
AcDbEntity
  8
細線
 48
50.0
100
AcDbLine
 10
2091.970593930113
 20
1383.490637616927
 30
0.0
 11
2076.970593930115
 21
1383.490637616924
 31
0.0
  0
LINE
  5
18D01
330
18C7A
100
AcDbEntity
  8
細線
 48
50.0
100
AcDbLine
 10
2076.970593930115
 20
1383.490637616924
 30
0.0
 11
2076.970593930115
 21
1345.890409513813
 31
0.0
  0
LINE
  5
18D02
330
18C7A
100
AcDbEntity
  8
細線
 48
50.0
100
AcDbLine
 10
2076.970593930115
 20
1345.890409513813
 30
0.0
 11
2096.970601231289
 21
1345.890451063353
 31
0.0
  0
LINE
  5
18D03
330
18C7A
100
AcDbEntity
  8
細線
 48
50.0
100
AcDbLine
 10
2096.970556362348
 20
1354.493912699161
 30
0.0
 11
2096.970601231289
 21
1345.890451063353
 31
0.0
  0
LINE
  5
18D04
330
18C7A
100
AcDbEntity
  8
細線
 48
50.0
100
AcDbLine
 10
2741.970584622936
 20
1371.644487209287
 30
0.0
 11
2741.970584622936
 21
1376.494487209284
 31
0.0
  0
LINE
  5
18D05
330
18C7A
100
AcDbEntity
  8
細線
 48
50.0
100
AcDbLine
 10
2741.970584622936
 20
1376.494487209284
 30
0.0
 11
2756.970584622934
 21
1376.494487209285
 31
0.0
  0
LINE
  5
18D06
330
18C7A
100
AcDbEntity
  8
細線
 48
50.0
100
AcDbLine
 10
2756.970584622934
 20
1376.494487209285
 30
0.0
 11
2756.970596256909
 21
1383.494487209331
 31
0.0
  0
LINE
  5
18D07
330
18C7A
100
AcDbEntity
  8
細線
 48
50.0
100
AcDbLine
 10
2756.970596256909
 20
1383.494487209331
 30
0.0
 11
2771.970594427439
 21
1383.494487209329
 31
0.0
  0
LINE
  5
18D08
330
18C7A
100
AcDbEntity
  8
細線
 48
50.0
100
AcDbLine
 10
2771.970594427439
 20
1383.494487209329
 30
0.0
 11
2771.970584125617
 21
1354.494281037055
 31
0.0
  0
LINE
  5
18D09
330
18C7A
100
AcDbEntity
  8
細線
 48
50.0
100
AcDbLine
 10
2458.070304175992
 20
1354.494278397076
 30
0.0
 11
2389.470863838818
 21
1354.494283787084
 31
0.0
  0
LINE
  5
18D0A
330
18C7A
100
AcDbEntity
  8
細線
 48
50.0
100
AcDbLine
 10
2096.970556362348
 20
1354.493912699161
 30
0.0
 11
2108.203245717057
 21
1354.494095652309
 31
0.0
  0
ARC
  5
18D0B
330
18C7A
100
AcDbEntity
  8
細線
 48
50.0
100
AcDbCircle
 10
2114.785538024393
 20
1353.294259565922
 30
0.0
 40
1.8
100
AcDbArc
 50
270.0006665777295
 51
345.000555481349
  0
LINE
  5
18D0C
330
18C7A
100
AcDbEntity
  8
細線
 48
50.0
100
AcDbLine
 10
2116.771971470473
 20
1353.753100023201
 30
0.0
 11
2116.524209028273
 21
1352.828402141094
 31
0.0
  0
LINE
  5
18D0D
330
18C7A
100
AcDbEntity
  8
細線
 48
50.0
100
AcDbLine
 10
2114.785558965548
 20
1351.494259566043
 30
0.0
 11
2111.155631546781
 21
1351.494217335563
 31
0.0
  0
ARC
  5
18D0E
330
18C7A
100
AcDbEntity
  8
細線
 48
50.0
100
AcDbCircle
 10
2111.155610605627
 20
1353.29421733544
 30
0.0
 40
1.8
100
AcDbArc
 50
195.0010443049965
 51
270.0006665777295
  0
LINE
  5
18D0F
330
18C7A
100
AcDbEntity
  8
細線
 48
50.0
100
AcDbLine
 10
2109.169183113368
 20
1353.752932303007
 30
0.0
 11
2109.416952609882
 21
1352.828311364425
 31
0.0
  0
ARC
  5
18D10
330
18C7A
100
AcDbEntity
  8
細線
 48
50.0
100
AcDbCircle
 10
2108.203262004622
 20
1353.494095652444
 30
0.0
 40
1.0
100
AcDbArc
 50
15.00104430499651
 51
90.00093320877969
  0
LINE
  5
18D11
330
18C7A
100
AcDbEntity
  8
細線
 48
50.0
100
AcDbLine
 10
2117.737892825577
 20
1354.494290342714
 30
0.0
 11
2118.679652976481
 21
1354.494296916564
 31
0.0
  0
ARC
  5
18D12
330
18C7A
100
AcDbEntity
  8
細線
 48
50.0
100
AcDbCircle
 10
2117.737899805961
 20
1353.49429034274
 30
0.0
 40
1.0
100
AcDbArc
 50
90.0003999466794
 51
165.000555481349
  0
LINE
  5
18D13
330
18C7A
100
AcDbEntity
  8
細線
 48
50.0
100
AcDbLine
 10
2669.470584622926
 20
1354.494281037055
 30
0.0
 11
2771.970584125617
 21
1354.494281037055
 31
0.0
  0
LINE
  5
18D14
330
18C7A
100
AcDbEntity
  8
細線
 48
50.0
100
AcDbLine
 10
2179.47061994182
 20
1354.494289224422
 30
0.0
 11
2118.370558714898
 21
1354.494296916564
 31
0.0
  0
LINE
  5
18D15
330
18C7A
100
AcDbEntity
  8
細線
 48
50.0
100
AcDbLine
 10
2599.470584622926
 20
1354.494281037057
 30
0.0
 11
2529.470584622926
 21
1354.494281037055
 31
0.0
  0
LINE
  5
18D16
330
18C7A
100
AcDbEntity
  8
細線
 48
50.0
100
AcDbLine
 10
2319.470584622926
 20
1354.494281037054
 30
0.0
 11
2249.470567335051
 21
1354.494281037057
 31
0.0
  0
ARC
  5
18D17
330
18C7A
100
AcDbEntity
  8
細線
 48
50.0
100
AcDbCircle
 10
2756.170589276533
 20
1387.694269174466
 30
0.0
 40
0.8
100
AcDbArc
 50
359.9997333689499
 51
89.99986668437072
  0
ARC
  5
18D18
330
18C7A
100
AcDbEntity
  8
細線
 48
50.0
100
AcDbCircle
 10
2763.770596101631
 20
1387.694280343081
 30
0.0
 40
0.8
100
AcDbArc
 50
90.00014387753465
 51
179.9997333689498
  0
LINE
  5
18D19
330
18C7A
100
AcDbEntity
  8
細線
 48
50.0
100
AcDbLine
 10
2756.170591137969
 20
1388.494269174465
 30
0.0
 11
2750.970589276525
 21
1388.494269174465
 31
0.0
  0
ARC
  5
18D1A
330
18C7A
100
AcDbEntity
  8
細線
 48
50.0
100
AcDbCircle
 10
2757.670589276524
 20
1386.194269174464
 30
0.0
 40
0.7
100
AcDbArc
 50
180.0
 51
270.0
  0
ARC
  5
18D1B
330
18C7A
100
AcDbEntity
  8
細線
 48
50.0
100
AcDbCircle
 10
2762.270589276524
 20
1386.194269174464
 30
0.0
 40
0.7
100
AcDbArc
 50
270.0
 51
0.0
  0
LINE
  5
18D1C
330
18C7A
100
AcDbEntity
  8
細線
 48
50.0
100
AcDbLine
 10
2762.970589276525
 20
1386.194269174464
 30
0.0
 11
2762.970596101639
 21
1387.694284065954
 31
0.0
  0
LINE
  5
18D1D
330
18C7A
100
AcDbEntity
  8
細線
 48
50.0
100
AcDbLine
 10
2757.670589276524
 20
1385.494269174465
 30
0.0
 11
2762.270589276524
 21
1385.494269174465
 31
0.0
  0
LINE
  5
18D1E
330
18C7A
100
AcDbEntity
  8
細線
 48
50.0
100
AcDbLine
 10
2756.970589276525
 20
1387.694269174466
 30
0.0
 11
2756.970589276525
 21
1386.194269174464
 31
0.0
  0
LINE
  5
18D1F
330
18C7A
100
AcDbEntity
  8
細線
 48
50.0
100
AcDbLine
 10
3382.570589276527
 20
1418.494269174465
 30
0.0
 11
2745.970589276525
 21
1418.494269174463
 31
0.0
  0
LINE
  5
18D20
330
18C7A
100
AcDbEntity
  8
細線
 48
50.0
100
AcDbLine
 10
3408.470589276525
 20
1413.494269174467
 30
0.0
 11
3392.570589276527
 21
1413.494269174465
 31
0.0
  0
LINE
  5
18D21
330
18C7A
100
AcDbEntity
  8
細線
 48
50.0
100
AcDbLine
 10
3392.570589276526
 20
1413.494269174465
 30
0.0
 11
3382.570589276527
 21
1418.494269174465
 31
0.0
  0
LINE
  5
18D22
330
18C7A
100
AcDbEntity
  8
細線
100
AcDbLine
 10
2993.470589276525
 20
1388.494269174465
 30
0.0
 11
2993.470589276525
 21
1417.794269174464
 31
0.0
  0
LINE
  5
18D23
330
18C7A
100
AcDbEntity
  8
細線
100
AcDbLine
 10
2993.470589276525
 20
1417.794269174464
 30
0.0
 11
3013.470589276525
 21
1417.794269174464
 31
0.0
  0
LINE
  5
18D24
330
18C7A
100
AcDbEntity
  8
細線
100
AcDbLine
 10
3013.470589276525
 20
1388.494269174465
 30
0.0
 11
3013.470589276525
 21
1417.794269174464
 31
0.0
  0
LINE
  5
18D25
330
18C7A
100
AcDbEntity
  8
細線
100
AcDbLine
 10
3170.720589276524
 20
1388.494269174465
 30
0.0
 11
3100.720589276523
 21
1388.494269174465
 31
0.0
  0
LINE
  5
18D26
330
18C7A
100
AcDbEntity
  8
細線
 48
50.0
100
AcDbLine
 10
2890.720589276525
 20
1388.494269174465
 30
0.0
 11
2763.766368849365
 21
1388.494269174465
 31
0.0
  0
LINE
  5
18D27
330
18C7A
100
AcDbEntity
  8
細線
100
AcDbLine
 10
3030.720589276525
 20
1388.494269174465
 30
0.0
 11
2960.720589276525
 21
1388.494269174465
 31
0.0
  0
LINE
  5
18D28
330
18C7A
100
AcDbEntity
  8
細線
 48
50.0
100
AcDbLine
 10
2750.970589276525
 20
1380.494269174465
 30
0.0
 11
2750.970589276525
 21
1388.494269174465
 31
0.0
  0
LINE
  5
18D29
330
18C7A
100
AcDbEntity
  8
細線
 48
50.0
100
AcDbLine
 10
2730.970589276524
 20
1380.494269174467
 30
0.0
 11
2750.970589276525
 21
1380.494269174465
 31
0.0
  0
LINE
  5
18D2A
330
18C7A
100
AcDbEntity
  8
細線
 48
50.0
100
AcDbLine
 10
2745.970589276525
 20
1418.494269174465
 30
0.0
 11
2745.970589276525
 21
1413.494269174465
 31
0.0
  0
LINE
  5
18D2B
330
18C7A
100
AcDbEntity
  8
細線
 48
50.0
100
AcDbLine
 10
2730.970589276525
 20
1418.494269174463
 30
0.0
 11
2745.970589276525
 21
1418.494269174465
 31
0.0
  0
LINE
  5
18D2C
330
18C7A
100
AcDbEntity
  8
細線
 48
50.0
100
AcDbLine
 10
2730.970589276524
 20
1380.494269174467
 30
0.0
 11
2730.970589276525
 21
1418.494269174463
 31
0.0
  0
LINE
  5
18D2D
330
18C7A
100
AcDbEntity
  8
細線
100
AcDbLine
 10
3398.970589276523
 20
1388.494269174465
 30
0.0
 11
3240.720589276525
 21
1388.494269174465
 31
0.0
  0
LINE
  5
18D2E
330
18C7A
100
AcDbEntity
  8
細線
 48
50.0
100
AcDbLine
 10
3408.470589276525
 20
1413.494269174467
 30
0.0
 11
3408.470589276524
 21
1388.494269174465
 31
0.0
  0
TEXT
  5
18D2F
330
18C7A
100
AcDbEntity
  8
部品1
100
AcDbText
 10
1860.154865991392
 20
46.99880823813145
 30
0.0
 40
135.0
  1
平面図
  7
STYLE2
100
AcDbText
  0
LWPOLYLINE
  5
18D30
330
18C7A
100
AcDbEntity
  8
部品1
100
AcDbPolyline
 90
        4
 70
     1
 43
0.0
 10
1770.23525616235
 20
239.8923374566548
 10
1770.23525616235
 20
0.0000159111223184
 10
2533.705922390791
 20
0.0000159111223184
 10
2533.705922390791
 20
239.8923374566548
  0
LINE
  5
18D31
330
18C7A
100
AcDbEntity
  8
部品1
100
AcDbLine
 10
1534.470589276487
 20
3154.494269174626
 30
0.0
 11
2769.470589276552
 21
3154.494269174626
 31
0.0
  0
LINE
  5
18D32
330
18C7A
100
AcDbEntity
  8
部品1
 48
50.0
100
AcDbLine
 10
1311.970589276523
 20
1420.494269174462
 30
0.0
 11
3411.970589276523
 21
1420.494269174465
 31
0.0
  0
LINE
  5
18D33
330
18C7A
100
AcDbEntity
  8
部品1
 48
50.0
100
AcDbLine
 10
471.9705892765232
 20
1392.494269174465
 30
0.0
 11
1311.970589276523
 21
1392.494269174465
 31
0.0
  0
DIMENSION
  5
18D34
330
18C7A
100
AcDbEntity
  8
寸法
100
AcDbDimension
  2
*D14
 10
2710.234916278077
 20
2488.887829538828
 30
0.0
 11
2338.318822490183
 21
2488.887829538828
 31
0.0
 12
-3742.925985830444
 22
-6453.628869860112
 32
0.0
 70
   128
 71
     5
 42
1231.00000000007
  3
INABA_S40G
100
AcDbAlignedDimension
 13
1536.470589276486
 23
2702.494269174557
 33
0.0
 14
2767.470589276556
 24
2702.494269174549
 34
0.0
100
AcDbRotatedDimension
1001
ACAD
1000
DSTYLE
1002
{
1002
}
  0
LINE
  5
18D35
330
18C7A
100
AcDbEntity
  8
部品1
100
AcDbLine
 10
1536.470589276487
 20
2702.494269174557
 30
0.0
 11
2767.470589276554
 21
2702.494269174615
 31
0.0
  0
LINE
  5
18D36
330
18C7A
100
AcDbEntity
  8
部品1
100
AcDbLine
 10
1536.470589276487
 20
3152.494269174557
 30
0.0
 11
2767.470589276556
 21
3152.494269174615
 31
0.0
  0
LINE
  5
18D37
330
18C7A
100
AcDbEntity
  8
細線
 48
50.0
100
AcDbLine
 10
1508.470589276487
 20
3152.494269174558
 30
0.0
 11
445.4705892765559
 21
2702.494269174509
 31
0.0
  0
LINE
  5
18D38
330
18C7A
100
AcDbEntity
  8
細線
 48
50.0
100
AcDbLine
 10
1508.470589276487
 20
2702.494269174558
 30
0.0
 11
445.4705892765542
 21
3152.494269174509
 31
0.0
  0
LINE
  5
18D39
330
18C7A
100
AcDbEntity
  8
部品1
100
AcDbLine
 10
1556.970589276487
 20
3172.494269174611
 30
0.0
 11
1556.970589276487
 21
3154.494269174611
 31
0.0
  0
LINE
  5
18D3A
330
18C7A
100
AcDbEntity
  8
部品1
100
AcDbLine
 10
1556.970589276487
 20
3172.494269174611
 30
0.0
 11
1550.970589276487
 21
3172.494269174611
 31
0.0
  0
LINE
  5
18D3B
330
18C7A
100
AcDbEntity
  8
部品1
100
AcDbLine
 10
1534.470589276487
 20
3146.494269174608
 30
0.0
 11
1509.470589276487
 21
3146.494269174611
 31
0.0
  0
LINE
  5
18D3C
330
18C7A
100
AcDbEntity
  8
部品1
100
AcDbLine
 10
1486.970589276487
 20
3172.494269174611
 30
0.0
 11
1486.970589276487
 21
3154.494269174611
 31
0.0
  0
LINE
  5
18D3D
330
18C7A
100
AcDbEntity
  8
部品1
100
AcDbLine
 10
1492.970589276487
 20
3172.494269174611
 30
0.0
 11
1486.970589276487
 21
3172.494269174611
 31
0.0
  0
LINE
  5
18D3E
330
18C7A
100
AcDbEntity
  8
部品1
100
AcDbLine
 10
1534.470589276487
 20
2702.494269174615
 30
0.0
 11
1509.470589276487
 21
2702.494269174615
 31
0.0
  0
LINE
  5
18D3F
330
18C7A
100
AcDbEntity
  8
部品1
 48
50.0
100
AcDbLine
 10
1536.470589276487
 20
3152.494269174611
 30
0.0
 11
1536.470589276487
 21
2702.494269174615
 31
0.0
  0
LINE
  5
18D40
330
18C7A
100
AcDbEntity
  8
部品1
 48
50.0
100
AcDbLine
 10
1508.470589276487
 20
3152.494269174607
 30
0.0
 11
1508.470589276487
 21
2702.494269174615
 31
0.0
  0
LINE
  5
18D41
330
18C7A
100
AcDbEntity
  8
部品1
 48
50.0
100
AcDbLine
 10
1534.470589276487
 20
3154.494269174618
 30
0.0
 11
1534.470589276487
 21
2702.494269174615
 31
0.0
  0
LINE
  5
18D42
330
18C7A
100
AcDbEntity
  8
部品1
 48
50.0
100
AcDbLine
 10
1509.470589276487
 20
3154.494269174615
 30
0.0
 11
1509.470589276487
 21
2702.494269174615
 31
0.0
  0
LINE
  5
18D43
330
18C7A
100
AcDbEntity
  8
部品1
100
AcDbLine
 10
3411.970589276556
 20
1392.494269174582
 30
0.0
 11
3411.970589276556
 21
1420.494269174596
 31
0.0
  0
LINE
  5
18D44
330
18C7A
100
AcDbEntity
  8
部品1
100
AcDbLine
 10
1311.970589276523
 20
1392.494269174596
 30
0.0
 11
1311.970589276523
 21
1420.494269174596
 31
0.0
  0
LINE
  5
18D45
330
18C7A
100
AcDbEntity
  8
部品1
100
AcDbLine
 10
891.9705892765232
 20
1392.494269174596
 30
0.0
 11
891.9705892765232
 21
1420.494269174596
 31
0.0
  0
LINE
  5
18D46
330
18C7A
100
AcDbEntity
  8
部品1
100
AcDbLine
 10
3411.97058927652
 20
3182.494269174477
 30
0.0
 11
3411.970589276523
 21
3154.494269174477
 31
0.0
  0
LINE
  5
18D47
330
18C7A
100
AcDbEntity
  8
部品1
100
AcDbLine
 10
2571.97058927652
 20
3182.494269174477
 30
0.0
 11
2571.970589276523
 21
3154.494269174477
 31
0.0
  0
LINE
  5
18D48
330
18C7A
100
AcDbEntity
  8
部品1
100
AcDbLine
 10
2991.97058927652
 20
3182.494269174477
 30
0.0
 11
2991.970589276523
 21
3154.494269174477
 31
0.0
  0
LINE
  5
18D49
330
18C7A
100
AcDbEntity
  8
部品1
100
AcDbLine
 10
2151.970589276519
 20
3182.494269174477
 30
0.0
 11
2151.970589276523
 21
3154.494269174477
 31
0.0
  0
LINE
  5
18D4A
330
18C7A
100
AcDbEntity
  8
部品1
100
AcDbLine
 10
1731.970589276519
 20
3182.494269174477
 30
0.0
 11
1731.970589276523
 21
3154.494269174477
 31
0.0
  0
LINE
  5
18D4B
330
18C7A
100
AcDbEntity
  8
部品1
100
AcDbLine
 10
1311.970589276519
 20
3182.494269174477
 30
0.0
 11
1311.970589276523
 21
3154.494269174477
 31
0.0
  0
LINE
  5
18D4C
330
18C7A
100
AcDbEntity
  8
部品1
100
AcDbLine
 10
891.9705892765195
 20
3182.494269174477
 30
0.0
 11
891.9705892765232
 21
3154.494269174477
 31
0.0
  0
LINE
  5
18D4D
330
18C7A
100
AcDbEntity
  8
部品1
100
AcDbLine
 10
471.9705892765232
 20
1392.494269174596
 30
0.0
 11
471.9705892765232
 21
1420.494269174596
 31
0.0
  0
LINE
  5
18D4E
330
18C7A
100
AcDbEntity
  8
部品1
100
AcDbLine
 10
444.9705892765305
 20
1420.494269174558
 30
0.0
 11
3858.970589276556
 21
1420.494269174596
 31
0.0
  0
LINE
  5
18D4F
330
18C7A
100
AcDbEntity
  8
部品1
100
AcDbLine
 10
3831.970589276556
 20
1392.494269174596
 30
0.0
 11
3831.970589276556
 21
1420.494269174596
 31
0.0
  0
LINE
  5
18D50
330
18C7A
100
AcDbEntity
  8
部品1
100
AcDbLine
 10
3858.970589276556
 20
1447.494269174593
 30
0.0
 11
3886.970589276556
 21
1447.494269174593
 31
0.0
  0
LINE
  5
18D51
330
18C7A
100
AcDbEntity
  8
部品1
100
AcDbLine
 10
3858.970589276556
 20
1867.494269174607
 30
0.0
 11
3886.970589276556
 21
1867.494269174607
 31
0.0
  0
LINE
  5
18D52
330
18C7A
100
AcDbEntity
  8
部品1
100
AcDbLine
 10
444.9705892765305
 20
1867.49426917448
 30
0.0
 11
416.9705892765305
 21
1867.49426917448
 31
0.0
  0
LINE
  5
18D53
330
18C7A
100
AcDbEntity
  8
部品1
100
AcDbLine
 10
3830.470589276541
 20
1867.49426917458
 30
0.0
 11
473.4705892765396
 21
1867.49426917448
 31
0.0
  0
LINE
  5
18D54
330
18C7A
100
AcDbEntity
  8
部品1
100
AcDbLine
 10
3830.470589276541
 20
2287.49426917458
 30
0.0
 11
473.4705892765396
 21
2287.49426917448
 31
0.0
  0
LINE
  5
18D55
330
18C7A
100
AcDbEntity
  8
部品1
100
AcDbLine
 10
444.9705892765305
 20
2287.49426917448
 30
0.0
 11
416.9705892765305
 21
2287.49426917448
 31
0.0
  0
LINE
  5
18D56
330
18C7A
100
AcDbEntity
  8
部品1
100
AcDbLine
 10
3858.970589276556
 20
2287.494269174608
 30
0.0
 11
3886.970589276556
 21
2287.494269174608
 31
0.0
  0
LINE
  5
18D57
330
18C7A
100
AcDbEntity
  8
部品1
 48
50.0
100
AcDbLine
 10
2151.970589276551
 20
2702.494269174586
 30
0.0
 11
2151.970589276581
 21
1448.994269174494
 31
0.0
  0
LINE
  5
18D58
330
18C7A
100
AcDbEntity
  8
破線
 48
10.0
100
AcDbLine
 10
2959.470589276535
 20
1472.494269174522
 30
0.0
 11
2176.970589276532
 21
1472.494269174505
 31
0.0
  0
LINE
  5
18D59
330
18C7A
100
AcDbEntity
  8
破線
 48
10.0
100
AcDbLine
 10
3009.47058927653
 20
1448.994269174509
 30
0.0
 11
3009.47058927653
 21
2702.494269174615
 31
0.0
  0
LINE
  5
18D5A
330
18C7A
100
AcDbEntity
  8
破線
 48
10.0
100
AcDbLine
 10
2959.470589276535
 20
1448.994269174505
 30
0.0
 11
2959.470589276531
 21
2702.494269174615
 31
0.0
  0
LINE
  5
18D5B
330
18C7A
100
AcDbEntity
  8
破線
 48
10.0
100
AcDbLine
 10
1344.47058927653
 20
1448.994269174509
 30
0.0
 11
1344.47058927653
 21
2702.494269174615
 31
0.0
  0
LINE
  5
18D5C
330
18C7A
100
AcDbEntity
  8
破線
 48
10.0
100
AcDbLine
 10
1294.470589276534
 20
1448.994269174505
 30
0.0
 11
1294.47058927653
 21
2702.494269174615
 31
0.0
  0
DIMENSION
  5
18D5D
330
18C7A
100
AcDbEntity
  8
寸法
100
AcDbDimension
  2
*D13
 10
1451.234916278005
 20
2488.887829538828
 30
0.0
 11
916.0604668248634
 21
2488.887829538828
 31
0.0
 12
-3742.925985830444
 22
-6453.628869860112
 32
0.0
 70
   128
 71
     5
 42
1062.99999999993
  3
INABA_S40G
100
AcDbAlignedDimension
 13
445.4705892765559
 23
2702.494269174505
 33
0.0
 14
1508.470589276486
 24
2702.494269174558
 34
0.0
100
AcDbRotatedDimension
1001
ACAD
1000
DSTYLE
1002
{
1002
}
  0
LINE
  5
18D5E
330
18C7A
100
AcDbEntity
  8
破線
 48
10.0
100
AcDbLine
 10
1294.470589276534
 20
1472.494269174469
 30
0.0
 11
496.9705892765414
 21
1472.494269174476
 31
0.0
  0
LINE
  5
18D5F
330
18C7A
100
AcDbEntity
  8
部品1
100
AcDbLine
 10
3831.970589276556
 20
3182.494269174604
 30
0.0
 11
3831.970589276556
 21
3154.494269174604
 31
0.0
  0
LINE
  5
18D60
330
18C7A
100
AcDbEntity
  8
部品1
100
AcDbLine
 10
3831.970589276556
 20
3182.494269174626
 30
0.0
 11
3831.970589276556
 21
3154.494269174626
 31
0.0
  0
LINE
  5
18D61
330
18C7A
100
AcDbEntity
  8
部品1
100
AcDbLine
 10
3858.970589276556
 20
3127.494269174607
 30
0.0
 11
3886.970589276556
 21
3127.494269174607
 31
0.0
  0
LINE
  5
18D62
330
18C7A
100
AcDbEntity
  8
部品1
100
AcDbLine
 10
3858.970589276556
 20
2707.494269174608
 30
0.0
 11
3886.970589276556
 21
2707.494269174608
 31
0.0
  0
LINE
  5
18D63
330
18C7A
100
AcDbEntity
  8
部品1
100
AcDbLine
 10
3858.470589276556
 20
3152.494269174604
 30
0.0
 11
3858.470589276556
 21
2702.494269174608
 31
0.0
  0
LINE
  5
18D64
330
18C7A
100
AcDbEntity
  8
部品1
100
AcDbLine
 10
3886.970589276533
 20
1447.494269174593
 30
0.0
 11
3886.970589276531
 21
1392.494269174596
 31
0.0
  0
LINE
  5
18D65
330
18C7A
100
AcDbEntity
  8
部品1
 48
50.0
100
AcDbLine
 10
3830.470589276556
 20
1448.994269174596
 30
0.0
 11
3858.970589276554
 21
1420.494269174596
 31
0.0
  0
LINE
  5
18D66
330
18C7A
100
AcDbEntity
  8
部品1
100
AcDbLine
 10
3886.970589276531
 20
1392.494269174596
 30
0.0
 11
3835.970589276531
 21
1392.494269174596
 31
0.0
  0
LINE
  5
18D67
330
18C7A
100
AcDbEntity
  8
部品1
100
AcDbLine
 10
3858.970589276533
 20
1447.494269174593
 30
0.0
 11
3886.970589276531
 21
1447.494269174593
 31
0.0
  0
LINE
  5
18D68
330
18C7A
100
AcDbEntity
  8
部品1
100
AcDbLine
 10
3886.970589276556
 20
3182.494269174604
 30
0.0
 11
3886.970589276531
 21
1392.494269174596
 31
0.0
  0
DIMENSION
  5
18D69
330
18C7A
100
AcDbEntity
  8
寸法
100
AcDbDimension
  2
*D12
 10
4534.396935010967
 20
1447.494269174593
 30
0.0
 11
4534.396935010965
 21
2287.4942691746
 31
0.0
 12
-3742.925985830444
 22
-6453.628869860112
 32
0.0
 70
   128
  1
4X420=<>
 71
     5
 42
1680.000000000014
  3
INABA_S40G
100
AcDbAlignedDimension
 13
3886.970589276556
 23
3127.494269174607
 33
0.0
 14
3886.970589276531
 24
1447.494269174593
 34
0.0
 50
90.0
100
AcDbRotatedDimension
1001
ACAD
1000
DSTYLE
1002
{
1002
}
  0
LINE
  5
18D6A
330
18C7A
100
AcDbEntity
  8
部品1
100
AcDbLine
 10
3858.970589276556
 20
3154.494269174604
 30
0.0
 11
3858.970589276534
 21
1420.494269174596
 31
0.0
  0
DIMENSION
  5
18D6B
330
18C7A
100
AcDbEntity
  8
寸法
100
AcDbDimension
  2
*D11
 10
4213.82831513858
 20
2607.276453505718
 30
0.0
 11
4113.828315138579
 21
2832.276453505718
 31
0.0
 12
-3742.925985830444
 22
-6453.628869860112
 32
0.0
 71
     5
 42
449.9999999999963
  3
INABA_S40G
100
AcDbAlignedDimension
 13
3858.470589276556
 23
3152.494269174604
 33
0.0
 14
3858.470589276556
 24
2702.494269174608
 34
0.0
 50
90.0
100
AcDbRotatedDimension
1001
ACAD
1000
DSTYLE
1002
{
1002
}
  0
LINE
  5
18D6C
330
18C7A
100
AcDbEntity
  8
部品1
100
AcDbLine
 10
3830.470589276547
 20
2702.494269174608
 30
0.0
 11
3830.470589276556
 21
1448.994269174596
 31
0.0
  0
LINE
  5
18D6D
330
18C7A
100
AcDbEntity
  8
破線
 48
10.0
100
AcDbLine
 10
3806.970589276549
 20
2702.494269174608
 30
0.0
 11
3806.970589276558
 21
1472.494269174593
 31
0.0
  0
LINE
  5
18D6E
330
18C7A
100
AcDbEntity
  8
部品1
100
AcDbLine
 10
2769.470589276556
 20
3146.494269174608
 30
0.0
 11
2794.470589276556
 21
3146.494269174611
 31
0.0
  0
LINE
  5
18D6F
330
18C7A
100
AcDbEntity
  8
部品1
100
AcDbLine
 10
2810.970589276556
 20
3172.494269174611
 30
0.0
 11
2816.970589276556
 21
3172.494269174611
 31
0.0
  0
LINE
  5
18D70
330
18C7A
100
AcDbEntity
  8
部品1
100
AcDbLine
 10
2816.970589276556
 20
3172.494269174611
 30
0.0
 11
2816.970589276556
 21
3154.494269174611
 31
0.0
  0
LINE
  5
18D71
330
18C7A
100
AcDbEntity
  8
部品1
100
AcDbLine
 10
2746.970589276556
 20
3172.494269174611
 30
0.0
 11
2752.970589276556
 21
3172.494269174611
 31
0.0
  0
LINE
  5
18D72
330
18C7A
100
AcDbEntity
  8
部品1
100
AcDbLine
 10
2746.970589276556
 20
3172.494269174611
 30
0.0
 11
2746.970589276556
 21
3154.494269174611
 31
0.0
  0
LINE
  5
18D73
330
18C7A
100
AcDbEntity
  8
部品1
100
AcDbLine
 10
2769.470589276556
 20
2702.494269174615
 30
0.0
 11
2794.470589276556
 21
2702.494269174615
 31
0.0
  0
LINE
  5
18D74
330
18C7A
100
AcDbEntity
  8
部品1
 48
50.0
100
AcDbLine
 10
2794.470589276556
 20
3154.494269174615
 30
0.0
 11
2794.470589276556
 21
2702.494269174615
 31
0.0
  0
LINE
  5
18D75
330
18C7A
100
AcDbEntity
  8
部品1
 48
50.0
100
AcDbLine
 10
2769.470589276554
 20
3154.494269174618
 30
0.0
 11
2769.470589276556
 21
2702.494269174615
 31
0.0
  0
LINE
  5
18D76
330
18C7A
100
AcDbEntity
  8
部品1
 48
50.0
100
AcDbLine
 10
2795.470589276556
 20
3152.494269174607
 30
0.0
 11
2795.470589276556
 21
2702.494269174615
 31
0.0
  0
LINE
  5
18D77
330
18C7A
100
AcDbEntity
  8
部品1
 48
50.0
100
AcDbLine
 10
2767.470589276556
 20
3152.494269174611
 30
0.0
 11
2767.470589276556
 21
2702.494269174615
 31
0.0
  0
LINE
  5
18D78
330
18C7A
100
AcDbEntity
  8
破線
 48
10.0
100
AcDbLine
 10
2176.97058927653
 20
1448.994269174509
 30
0.0
 11
2176.97058927653
 21
2702.494269174588
 31
0.0
  0
LINE
  5
18D79
330
18C7A
100
AcDbEntity
  8
破線
 48
10.0
100
AcDbLine
 10
2126.970589276534
 20
1448.994269174505
 30
0.0
 11
2126.970589276531
 21
2702.494269174586
 31
0.0
  0
LINE
  5
18D7A
330
18C7A
100
AcDbEntity
  8
部品1
100
AcDbLine
 10
2794.470589276556
 20
3154.494269174622
 30
0.0
 11
3858.970589276556
 21
3154.494269174604
 31
0.0
  0
LINE
  5
18D7B
330
18C7A
100
AcDbEntity
  8
細線
 48
50.0
100
AcDbLine
 10
3858.470589276556
 20
2702.494269174608
 30
0.0
 11
2795.470589276556
 21
3152.494269174607
 31
0.0
  0
LINE
  5
18D7C
330
18C7A
100
AcDbEntity
  8
部品1
100
AcDbLine
 10
2795.470589276555
 20
2702.494269174615
 30
0.0
 11
3858.470589276556
 21
2702.494269174608
 31
0.0
  0
LINE
  5
18D7D
330
18C7A
100
AcDbEntity
  8
部品1
100
AcDbLine
 10
2795.470589276556
 20
3152.494269174611
 30
0.0
 11
3858.470589276556
 21
3152.494269174604
 31
0.0
  0
LINE
  5
18D7E
330
18C7A
100
AcDbEntity
  8
細線
 48
50.0
100
AcDbLine
 10
3858.470589276556
 20
3152.494269174604
 30
0.0
 11
2795.470589276555
 21
2702.494269174615
 31
0.0
  0
DIMENSION
  5
18D7F
330
18C7A
100
AcDbEntity
  8
寸法
100
AcDbDimension
  2
*D10
 10
3801.234916278101
 20
2488.887829538937
 30
0.0
 11
3318.360544398907
 21
2488.887829538937
 31
0.0
 12
-3742.925985830444
 22
-6453.628869860112
 32
0.0
 70
   128
 71
     5
 42
1063.000000000012
  3
INABA_S40G
100
AcDbAlignedDimension
 13
2795.470589276555
 23
2702.494269174615
 33
0.0
 14
3858.470589276567
 24
2702.494269174608
 34
0.0
100
AcDbRotatedDimension
1001
ACAD
1000
DSTYLE
1002
{
1002
}
  0
LINE
  5
18D80
330
18C7A
100
AcDbEntity
  8
破線
 48
10.0
100
AcDbLine
 10
3806.970589276556
 20
1472.494269174594
 30
0.0
 11
3009.47058927653
 21
1472.494269174523
 31
0.0
  0
DIMENSION
  5
18D81
330
18C7A
100
AcDbEntity
  8
寸法
100
AcDbDimension
  2
*D9
 10
4534.396935010941
 20
1392.494269174596
 30
0.0
 11
4534.39693501094
 21
1084.008987800356
 31
0.0
 12
-3742.925985830444
 22
-6453.628869860112
 32
0.0
 70
   128
 71
     5
 42
54.99999999999636
  3
INABA_S40G
100
AcDbAlignedDimension
 13
3886.970589276531
 23
1447.494269174593
 33
0.0
 14
3886.970589276531
 24
1392.494269174596
 34
0.0
 50
90.0
100
AcDbRotatedDimension
1001
ACAD
1000
DSTYLE
1002
{
1002
}
  0
LINE
  5
18D82
330
18C7A
100
AcDbEntity
  8
部品1
100
AcDbLine
 10
471.9705892765196
 20
3182.494269174477
 30
0.0
 11
471.9705892765232
 21
3154.494269174477
 31
0.0
  0
LINE
  5
18D83
330
18C7A
100
AcDbEntity
  8
部品1
100
AcDbLine
 10
471.9705892765559
 20
3182.494269174509
 30
0.0
 11
471.9705892765559
 21
3154.494269174509
 31
0.0
  0
LINE
  5
18D84
330
18C7A
100
AcDbEntity
  8
部品1
100
AcDbLine
 10
444.9705892765232
 20
3127.49426917448
 30
0.0
 11
416.9705892765232
 21
3127.49426917448
 31
0.0
  0
LINE
  5
18D85
330
18C7A
100
AcDbEntity
  8
部品1
100
AcDbLine
 10
444.9705892765305
 20
2707.49426917448
 30
0.0
 11
416.9705892765305
 21
2707.49426917448
 31
0.0
  0
LINE
  5
18D86
330
18C7A
100
AcDbEntity
  8
部品1
 48
50.0
100
AcDbLine
 10
445.4705892765542
 20
3152.494269174506
 30
0.0
 11
445.4705892765559
 21
2702.494269174505
 31
0.0
  0
LINE
  5
18D87
330
18C7A
100
AcDbEntity
  8
部品1
 48
50.0
100
AcDbLine
 10
473.470589276545
 20
1448.994269174573
 30
0.0
 11
444.970589276545
 21
1420.494269174574
 31
0.0
  0
LINE
  5
18D88
330
18C7A
100
AcDbEntity
  8
部品1
100
AcDbLine
 10
471.9705892765232
 20
1392.494269174465
 30
0.0
 11
416.9705892765486
 21
1392.494269174465
 31
0.0
  0
LINE
  5
18D89
330
18C7A
100
AcDbEntity
  8
部品1
100
AcDbLine
 10
444.9705892765305
 20
1447.494269174429
 30
0.0
 11
416.9705892765469
 21
1447.494269174429
 31
0.0
  0
LINE
  5
18D8A
330
18C7A
100
AcDbEntity
  8
部品1
100
AcDbLine
 10
444.9705892765305
 20
1447.494269174465
 30
0.0
 11
416.9705892765469
 21
1447.494269174465
 31
0.0
  0
LINE
  5
18D8B
330
18C7A
100
AcDbEntity
  8
部品1
100
AcDbLine
 10
444.9705892765469
 20
1447.49426917448
 30
0.0
 11
416.9705892765469
 21
1447.49426917448
 31
0.0
  0
LINE
  5
18D8C
330
18C7A
100
AcDbEntity
  8
部品1
100
AcDbLine
 10
416.9705892765469
 20
1447.494269174429
 30
0.0
 11
416.9705892765486
 21
1392.494269174433
 31
0.0
  0
LINE
  5
18D8D
330
18C7A
100
AcDbEntity
  8
部品1
100
AcDbLine
 10
416.9705892765196
 20
3182.494269174477
 30
0.0
 11
416.9705892765486
 21
1392.494269174465
 31
0.0
  0
LINE
  5
18D8E
330
18C7A
100
AcDbEntity
  8
部品1
100
AcDbLine
 10
444.9705892765305
 20
1420.494269174556
 30
0.0
 11
444.9705892765559
 21
3154.494269174509
 31
0.0
  0
LINE
  5
18D8F
330
18C7A
100
AcDbEntity
  8
部品1
100
AcDbLine
 10
473.4705892765323
 20
2702.494269174608
 30
0.0
 11
473.470589276545
 21
1448.994269174571
 31
0.0
  0
LINE
  5
18D90
330
18C7A
100
AcDbEntity
  8
破線
 48
10.0
100
AcDbLine
 10
496.9705892765305
 20
2702.494269174608
 30
0.0
 11
496.9705892765451
 21
1472.494269174476
 31
0.0
  0
DIMENSION
  5
18D91
330
18C7A
100
AcDbEntity
  8
寸法
100
AcDbDimension
  2
*D8
 10
3886.970589276531
 20
410.7433333855515
 30
0.0
 11
2168.197775309287
 21
410.7433333855515
 31
0.0
 12
-3742.925985830444
 22
-6453.628869860112
 32
0.0
 70
   128
 71
     5
 42
3469.999999999982
  3
INABA_S40G
100
AcDbAlignedDimension
 13
416.9705892765486
 23
1392.494269174433
 33
0.0
 14
3886.970589276531
 24
1392.49426917456
 34
0.0
100
AcDbRotatedDimension
1001
ACAD
1000
DSTYLE
1002
{
1070
   341
1005
0
1002
}
  0
LINE
  5
18D92
330
18C7A
100
AcDbEntity
  8
部品1
100
AcDbLine
 10
444.9705892765559
 20
3154.494269174624
 30
0.0
 11
1509.470589276487
 21
3154.494269174626
 31
0.0
  0
LINE
  5
18D93
330
18C7A
100
AcDbEntity
  8
部品1
100
AcDbLine
 10
3886.970589276531
 20
1392.494269174596
 30
0.0
 11
3411.970589276556
 21
1392.494269174582
 31
0.0
  0
LINE
  5
18D94
330
18C7A
100
AcDbEntity
  8
部品1
100
AcDbLine
 10
416.9705892765559
 20
3182.494269174509
 30
0.0
 11
3886.970589276556
 21
3182.494269174604
 31
0.0
  0
LINE
  5
18D95
330
18C7A
100
AcDbEntity
  8
部品1
100
AcDbLine
 10
445.4705892765559
 20
2702.494269174509
 30
0.0
 11
1508.470589276487
 21
2702.494269174558
 31
0.0
  0
LINE
  5
18D96
330
18C7A
100
AcDbEntity
  8
細線
 48
50.0
100
AcDbLine
 10
2767.470589276556
 20
3152.494269174611
 30
0.0
 11
1536.470589276487
 21
2702.494269174558
 31
0.0
  0
LINE
  5
18D97
330
18C7A
100
AcDbEntity
  8
部品1
100
AcDbLine
 10
445.4705892765542
 20
3152.494269174509
 30
0.0
 11
1508.470589276485
 21
3152.494269174558
 31
0.0
  0
LINE
  5
18D98
330
18C7A
100
AcDbEntity
  8
細線
 48
50.0
100
AcDbLine
 10
2767.470589276554
 20
2702.494269174615
 30
0.0
 11
1536.470589276485
 21
3152.494269174558
 31
0.0
  0
LINE
  5
18D99
330
18C7A
100
AcDbEntity
  8
破線
 48
10.0
100
AcDbLine
 10
2126.970589276534
 20
1472.494269174502
 30
0.0
 11
1344.47058927653
 21
1472.494269174473
 31
0.0
  0
LINE
  5
18D9A
330
18C7A
100
AcDbEntity
  8
部品1
100
AcDbLine
 10
3830.470589276556
 20
1448.994269174596
 30
0.0
 11
473.4705892764487
 21
1448.994269174476
 31
0.0
  0
DIMENSION
  5
18D9B
330
18C7A
100
AcDbEntity
  8
寸法
100
AcDbDimension
  2
*D7
 10
471.970589276555
 20
3698.302488799491
 30
0.0
 11
108.4853079022819
 21
3698.302488799491
 31
0.0
 12
-3742.925985830444
 22
-6453.628869860112
 32
0.0
 70
   128
 71
     5
 42
55.00000000003456
  3
INABA_S40G
100
AcDbAlignedDimension
 13
416.9705892765205
 23
3182.494269174509
 33
0.0
 14
471.970589276555
 24
3182.494269174509
 34
0.0
100
AcDbRotatedDimension
1001
ACAD
1000
DSTYLE
1002
{
1002
}
  0
DIMENSION
  5
18D9C
330
18C7A
100
AcDbEntity
  8
寸法
100
AcDbDimension
  2
*D6
 10
4534.396935010967
 20
3127.494269174607
 30
0.0
 11
4534.396935010965
 21
3490.979550548844
 31
0.0
 12
-3742.925985830444
 22
-6453.628869860112
 32
0.0
 70
   128
 71
     5
 42
54.99999999999636
  3
INABA_S40G
100
AcDbAlignedDimension
 13
3886.970589276556
 23
3182.494269174604
 33
0.0
 14
3886.970589276556
 24
3127.494269174607
 34
0.0
 50
90.0
100
AcDbRotatedDimension
1001
ACAD
1000
DSTYLE
1002
{
1002
}
  0
DIMENSION
  5
18D9D
330
18C7A
100
AcDbEntity
  8
寸法
100
AcDbDimension
  2
*D5
 10
3886.970589276556
 20
3698.302488799589
 30
0.0
 11
4195.455870650794
 21
3698.302488799589
 31
0.0
 12
-3742.925985830444
 22
-6453.628869860112
 32
0.0
 70
   128
 71
     5
 42
55.0
  3
INABA_S40G
100
AcDbAlignedDimension
 13
3831.970589276556
 23
3182.494269174604
 33
0.0
 14
3886.970589276556
 24
3182.494269174604
 34
0.0
100
AcDbRotatedDimension
1001
ACAD
1000
DSTYLE
1002
{
1002
}
  0
DIMENSION
  5
18D9E
330
18C7A
100
AcDbEntity
  8
寸法
100
AcDbDimension
  2
*D4
 10
3831.970589276556
 20
3698.302488799607
 30
0.0
 11
2151.970589276555
 21
3698.302488799607
 31
0.0
 12
-3742.925985830444
 22
-6453.628869860112
 32
0.0
 70
   128
  1
8X420=<>
 71
     5
 42
3360.000000000001
  3
INABA_S40G
100
AcDbAlignedDimension
 13
471.970589276555
 23
3182.494269174509
 33
0.0
 14
3831.970589276556
 24
3182.494269174604
 34
0.0
100
AcDbRotatedDimension
1001
ACAD
1000
DSTYLE
1002
{
1002
}
  0
DIMENSION
  5
18D9F
330
18C7A
100
AcDbEntity
  8
寸法
100
AcDbDimension
  2
*D3
 10
4899.503876750603
 20
1392.494269174596
 30
0.0
 11
4899.503876750601
 21
2287.4942691746
 31
0.0
 12
-3742.925985830444
 22
-6453.628869860112
 32
0.0
 70
   128
 71
     5
 42
1790.000000000007
  3
INABA_S40G
100
AcDbAlignedDimension
 13
3886.970589276556
 23
3182.494269174604
 33
0.0
 14
3886.970589276531
 24
1392.494269174596
 34
0.0
 50
90.0
100
AcDbRotatedDimension
1001
ACAD
1000
DSTYLE
1002
{
1002
}
  0
ENDBLK
  5
18DA1
330
18C7A
100
AcDbEntity
  8
0
 48
50.0
100
AcDbBlockEnd
  0
BLOCK
  5
1C4CB
330
1C4CA
100
AcDbEntity
  8
0
 48
50.0
100
AcDbBlockBegin
  2
_NONE
 70
     0
 10
0.0
 20
0.0
 30
0.0
  3
_NONE
  1

  0
CIRCLE
  5
1C4CC
330
1C4CA
100
AcDbEntity
  8
0
  6
ByBlock
 62
     0
 48
50.0
100
AcDbCircle
 10
0.0
 20
0.0
 30
0.0
 40
0.25
  0
ENDBLK
  5
1C4CD
330
1C4CA
100
AcDbEntity
  8
0
 48
50.0
100
AcDbBlockEnd
  0
BLOCK
  5
20DEE
330
20DE2
100
AcDbEntity
  8
0
 48
50.0
100
AcDbBlockBegin
  2
*D19
 70
     1
 10
0.0
 20
0.0
 30
0.0
  3
*D19
  1

  0
LINE
  5
2695C
330
20DE2
100
AcDbEntity
  8
寸法
 62
     0
 48
50.0
370
    -2
100
AcDbLine
 10
11553.6
 20
7502.039479632578
 30
0.0
 11
11553.6
 21
8500.259801691498
 31
0.0
  0
LINE
  5
2695D
330
20DE2
100
AcDbEntity
  8
寸法
 62
     0
 48
50.0
370
    -2
100
AcDbLine
 10
11598.6
 20
8228.305937726489
 30
0.0
 11
11598.6
 21
8500.259801691498
 31
0.0
  0
LINE
  5
2695E
330
20DE2
100
AcDbEntity
  8
寸法
 62
     0
 48
50.0
370
    -2
100
AcDbLine
 10
11553.6
 20
8440.259801691498
 30
0.0
 11
11453.6
 21
8440.259801691498
 31
0.0
  0
LINE
  5
2695F
330
20DE2
100
AcDbEntity
  8
寸法
 62
     0
 48
50.0
370
    -2
100
AcDbLine
 10
11598.6
 20
8440.259801691498
 30
0.0
 11
11935.94924240492
 21
8440.259801691498
 31
0.0
  0
LINE
  5
26960
330
20DE2
100
AcDbEntity
  8
寸法
 62
     0
 48
50.0
370
    -2
100
AcDbLine
 10
11553.6
 20
8440.259801691498
 30
0.0
 11
11598.6
 21
8440.259801691498
 31
0.0
  0
INSERT
  5
26961
330
20DE2
100
AcDbEntity
  8
寸法
 62
     0
 48
50.0
370
    -2
100
AcDbBlockReference
  2
_DOTSMALL
 10
11553.6
 20
8440.259801691498
 30
0.0
 41
100.0
 42
100.0
 43
100.0
  0
INSERT
  5
26962
330
20DE2
100
AcDbEntity
  8
寸法
 62
     0
 48
50.0
370
    -2
100
AcDbBlockReference
  2
_DOTSMALL
 10
11598.6
 20
8440.259801691498
 30
0.0
 41
100.0
 42
100.0
 43
100.0
 50
180.0
  0
MTEXT
  5
26963
330
20DE2
100
AcDbEntity
  8
寸法
 62
     7
 48
50.0
100
AcDbMText
 10
11869.77462120246
 20
8540.259801691497
 30
0.0
 40
120.0
 41
0.0
 71
     5
 72
     1
  1
\A1;a
  7
STYLE1
 73
     1
 44
1.0
1001
ACAD
1000
MTEXTBEGIN
1070
    73
1070
     1
1070
    44
1040
1.0
1070
    74
1070
     0
1000
MTEXTEND
  0
POINT
  5
26964
330
20DE2
100
AcDbEntity
  8
DEFPOINTS
 62
     0
 48
50.0
100
AcDbPoint
 10
11553.6
 20
7482.039479632579
 30
0.0
  0
POINT
  5
26965
330
20DE2
100
AcDbEntity
  8
DEFPOINTS
 62
     0
 48
50.0
100
AcDbPoint
 10
11598.6
 20
8208.305937726489
 30
0.0
  0
POINT
  5
26966
330
20DE2
100
AcDbEntity
  8
DEFPOINTS
 62
     0
 48
50.0
100
AcDbPoint
 10
11598.6
 20
8440.259801691498
 30
0.0
  0
ENDBLK
  5
20DEF
330
20DE2
100
AcDbEntity
  8
0
 48
50.0
100
AcDbBlockEnd
  0
BLOCK
  5
20E08
330
20DFC
100
AcDbEntity
  8
0
 48
50.0
100
AcDbBlockBegin
  2
*D20
 70
     1
 10
0.0
 20
0.0
 30
0.0
  3
*D20
  1

  0
LINE
  5
2697B
330
20DFC
100
AcDbEntity
  8
寸法
 62
     0
 48
50.0
370
    -2
100
AcDbLine
 10
4848.600000000004
 20
8228.305937726485
 30
0.0
 11
4848.600000000004
 21
8500.259801691495
 31
0.0
  0
LINE
  5
2697C
330
20DFC
100
AcDbEntity
  8
寸法
 62
     0
 48
50.0
370
    -2
100
AcDbLine
 10
4893.600000000004
 20
7502.039479632575
 30
0.0
 11
4893.600000000004
 21
8500.259801691495
 31
0.0
  0
LINE
  5
2697D
330
20DFC
100
AcDbEntity
  8
寸法
 62
     0
 48
50.0
370
    -2
100
AcDbLine
 10
4893.600000000004
 20
8440.259801691494
 30
0.0
 11
4993.600000000004
 21
8440.259801691494
 31
0.0
  0
LINE
  5
2697E
330
20DFC
100
AcDbEntity
  8
寸法
 62
     0
 48
50.0
370
    -2
100
AcDbLine
 10
4848.600000000004
 20
8440.259801691494
 30
0.0
 11
4511.250757595086
 21
8440.259801691494
 31
0.0
  0
LINE
  5
2697F
330
20DFC
100
AcDbEntity
  8
寸法
 62
     0
 48
50.0
370
    -2
100
AcDbLine
 10
4893.600000000004
 20
8440.259801691494
 30
0.0
 11
4848.600000000004
 21
8440.259801691494
 31
0.0
  0
INSERT
  5
26980
330
20DFC
100
AcDbEntity
  8
寸法
 62
     0
 48
50.0
370
    -2
100
AcDbBlockReference
  2
_DOTSMALL
 10
4893.600000000004
 20
8440.259801691494
 30
0.0
 41
100.0
 42
100.0
 43
100.0
 50
180.0
  0
INSERT
  5
26981
330
20DFC
100
AcDbEntity
  8
寸法
 62
     0
 48
50.0
370
    -2
100
AcDbBlockReference
  2
_DOTSMALL
 10
4848.600000000004
 20
8440.259801691494
 30
0.0
 41
100.0
 42
100.0
 43
100.0
  0
MTEXT
  5
26982
330
20DFC
100
AcDbEntity
  8
寸法
 62
     7
 48
50.0
100
AcDbMText
 10
4577.425378797545
 20
8540.259801691496
 30
0.0
 40
120.0
 41
0.0
 71
     5
 72
     1
  1
\A1;a
  7
STYLE1
 73
     1
 44
1.0
1001
ACAD
1000
MTEXTBEGIN
1070
    73
1070
     1
1070
    44
1040
1.0
1070
    74
1070
     0
1000
MTEXTEND
  0
POINT
  5
26983
330
20DFC
100
AcDbEntity
  8
DEFPOINTS
 62
     0
 48
50.0
100
AcDbPoint
 10
4848.600000000004
 20
8208.305937726485
 30
0.0
  0
POINT
  5
26984
330
20DFC
100
AcDbEntity
  8
DEFPOINTS
 62
     0
 48
50.0
100
AcDbPoint
 10
4893.600000000004
 20
7482.039479632574
 30
0.0
  0
POINT
  5
26985
330
20DFC
100
AcDbEntity
  8
DEFPOINTS
 62
     0
 48
50.0
100
AcDbPoint
 10
4893.600000000004
 20
8440.259801691494
 30
0.0
  0
ENDBLK
  5
20E09
330
20DFC
100
AcDbEntity
  8
0
 48
50.0
100
AcDbBlockEnd
  0
BLOCK
  5
2274E
330
22742
100
AcDbEntity
  8
0
 48
50.0
100
AcDbBlockBegin
  2
*D25
 70
     1
 10
0.0
 20
0.0
 30
0.0
  3
*D25
  1

  0
LINE
  5
26986
330
22742
100
AcDbEntity
  8
寸法
 62
     0
 48
50.0
370
    -2
100
AcDbLine
 10
4250.665006330067
 20
7557.039479632582
 30
0.0
 11
3958.721909610677
 21
7557.039479632582
 31
0.0
  0
LINE
  5
26987
330
22742
100
AcDbEntity
  8
寸法
 62
     0
 48
50.0
370
    -2
100
AcDbLine
 10
4873.600000000004
 20
7482.039479632574
 30
0.0
 11
3958.721909610677
 21
7482.039479632574
 31
0.0
  0
LINE
  5
26988
330
22742
100
AcDbEntity
  8
寸法
 62
     0
 48
50.0
370
    -2
100
AcDbLine
 10
4018.721909610676
 20
7557.039479632582
 30
0.0
 11
4018.721909610676
 21
7657.039479632581
 31
0.0
  0
LINE
  5
26989
330
22742
100
AcDbEntity
  8
寸法
 62
     0
 48
50.0
370
    -2
100
AcDbLine
 10
4018.721909610676
 20
7482.039479632574
 30
0.0
 11
4018.721909610676
 21
7382.039479632574
 31
0.0
  0
LINE
  5
2698A
330
22742
100
AcDbEntity
  8
寸法
 62
     0
 48
50.0
370
    -2
100
AcDbLine
 10
4018.721909610676
 20
7557.039479632582
 30
0.0
 11
4018.721909610676
 21
7482.039479632574
 31
0.0
  0
INSERT
  5
2698B
330
22742
100
AcDbEntity
  8
寸法
 62
     0
 48
50.0
370
    -2
100
AcDbBlockReference
  2
_DOTSMALL
 10
4018.721909610676
 20
7557.039479632582
 30
0.0
 41
100.0
 42
100.0
 43
100.0
 50
270.0
  0
INSERT
  5
2698C
330
22742
100
AcDbEntity
  8
寸法
 62
     0
 48
50.0
370
    -2
100
AcDbBlockReference
  2
_DOTSMALL
 10
4018.721909610676
 20
7482.039479632574
 30
0.0
 41
100.0
 42
100.0
 43
100.0
 50
90.0
  0
MTEXT
  5
2698D
330
22742
100
AcDbEntity
  8
寸法
 62
     7
 48
50.0
100
AcDbMText
 10
3918.721909610675
 20
7519.539479632578
 30
0.0
 40
120.0
 41
0.0
 71
     5
 72
     1
  1
\A1;c
  7
STYLE1
 11
0.0000000000000001
 21
1.0
 31
0.0
 73
     1
 44
1.0
1001
ACAD
1000
MTEXTBEGIN
1070
    73
1070
     1
1070
    44
1040
1.0
1070
    74
1070
     0
1000
MTEXTEND
  0
POINT
  5
2698E
330
22742
100
AcDbEntity
  8
DEFPOINTS
 62
     0
 48
50.0
100
AcDbPoint
 10
4270.665006330068
 20
7557.039479632582
 30
0.0
  0
POINT
  5
2698F
330
22742
100
AcDbEntity
  8
DEFPOINTS
 62
     0
 48
50.0
100
AcDbPoint
 10
4893.600000000004
 20
7482.039479632574
 30
0.0
  0
POINT
  5
26990
330
22742
100
AcDbEntity
  8
DEFPOINTS
 62
     0
 48
50.0
100
AcDbPoint
 10
4018.721909610676
 20
7482.039479632574
 30
0.0
  0
ENDBLK
  5
2274F
330
22742
100
AcDbEntity
  8
0
 48
50.0
100
AcDbBlockEnd
  0
BLOCK
  5
22768
330
2275C
100
AcDbEntity
  8
0
 48
50.0
100
AcDbBlockBegin
  2
*D26
 70
     1
 10
0.0
 20
0.0
 30
0.0
  3
*D26
  1

  0
LINE
  5
26991
330
2275C
100
AcDbEntity
  8
寸法
 62
     0
 48
50.0
370
    -2
100
AcDbLine
 10
4873.600000000004
 20
6522.039479632574
 30
0.0
 11
3958.721909610677
 21
6522.039479632574
 31
0.0
  0
LINE
  5
26992
330
2275C
100
AcDbEntity
  8
寸法
 62
     0
 48
50.0
370
    -2
100
AcDbLine
 10
4250.665006330074
 20
6467.0394796326
 30
0.0
 11
3958.721909610677
 21
6467.0394796326
 31
0.0
  0
LINE
  5
26993
330
2275C
100
AcDbEntity
  8
寸法
 62
     0
 48
50.0
370
    -2
100
AcDbLine
 10
4018.721909610676
 20
6522.039479632574
 30
0.0
 11
4018.721909610676
 21
6622.039479632575
 31
0.0
  0
LINE
  5
26994
330
2275C
100
AcDbEntity
  8
寸法
 62
     0
 48
50.0
370
    -2
100
AcDbLine
 10
4018.721909610676
 20
6467.0394796326
 30
0.0
 11
4018.721909610676
 21
6367.0394796326
 31
0.0
  0
LINE
  5
26995
330
2275C
100
AcDbEntity
  8
寸法
 62
     0
 48
50.0
370
    -2
100
AcDbLine
 10
4018.721909610676
 20
6522.039479632574
 30
0.0
 11
4018.721909610676
 21
6467.0394796326
 31
0.0
  0
INSERT
  5
26996
330
2275C
100
AcDbEntity
  8
寸法
 62
     0
 48
50.0
370
    -2
100
AcDbBlockReference
  2
_DOTSMALL
 10
4018.721909610676
 20
6522.039479632574
 30
0.0
 41
100.0
 42
100.0
 43
100.0
 50
270.0
  0
INSERT
  5
26997
330
2275C
100
AcDbEntity
  8
寸法
 62
     0
 48
50.0
370
    -2
100
AcDbBlockReference
  2
_DOTSMALL
 10
4018.721909610676
 20
6467.0394796326
 30
0.0
 41
100.0
 42
100.0
 43
100.0
 50
90.0
  0
MTEXT
  5
26998
330
2275C
100
AcDbEntity
  8
寸法
 62
     7
 48
50.0
100
AcDbMText
 10
3918.721909610676
 20
6494.539479632589
 30
0.0
 40
120.0
 41
0.0
 71
     5
 72
     1
  1
\A1;b
  7
STYLE1
 11
0.0000000000000001
 21
1.0
 31
0.0
 73
     1
 44
1.0
1001
ACAD
1000
MTEXTBEGIN
1070
    73
1070
     1
1070
    44
1040
1.0
1070
    74
1070
     0
1000
MTEXTEND
  0
POINT
  5
26999
330
2275C
100
AcDbEntity
  8
DEFPOINTS
 62
     0
 48
50.0
100
AcDbPoint
 10
4893.600000000004
 20
6522.039479632574
 30
0.0
  0
POINT
  5
2699A
330
2275C
100
AcDbEntity
  8
DEFPOINTS
 62
     0
 48
50.0
100
AcDbPoint
 10
4270.665006330075
 20
6467.0394796326
 30
0.0
  0
POINT
  5
2699B
330
2275C
100
AcDbEntity
  8
DEFPOINTS
 62
     0
 48
50.0
100
AcDbPoint
 10
4018.721909610676
 20
6467.0394796326
 30
0.0
  0
ENDBLK
  5
22769
330
2275C
100
AcDbEntity
  8
0
 48
50.0
100
AcDbBlockEnd
  0
BLOCK
  5
239FE
330
239F3
100
AcDbEntity
  8
0
 48
50.0
100
AcDbBlockBegin
  2
*D27
 70
     1
 10
0.0
 20
0.0
 30
0.0
  3
*D27
  1

  0
LINE
  5
26967
330
239F3
100
AcDbEntity
  8
寸法
 62
     0
 48
50.0
370
    -2
100
AcDbLine
 10
11078.85468201165
 20
7482.039479632567
 30
0.0
 11
10838.95750108246
 21
7482.039479632567
 31
0.0
  0
LINE
  5
26968
330
239F3
100
AcDbEntity
  8
寸法
 62
     0
 48
50.0
370
    -2
100
AcDbLine
 10
11078.85468201165
 20
7282.039479632567
 30
0.0
 11
10838.95750108246
 21
7282.039479632567
 31
0.0
  0
LINE
  5
26969
330
239F3
100
AcDbEntity
  8
寸法
 62
     0
 48
50.0
370
    -2
100
AcDbLine
 10
10898.95750108246
 20
7282.039479632567
 30
0.0
 11
10898.95750108246
 21
7482.039479632567
 31
0.0
  0
LINE
  5
2696A
330
239F3
100
AcDbEntity
  8
寸法
 62
     0
 48
50.0
370
    -2
100
AcDbLine
 10
10898.95750108246
 20
7482.039479632567
 30
0.0
 11
10898.95750108246
 21
7881.181211916033
 31
0.0
  0
INSERT
  5
2696B
330
239F3
100
AcDbEntity
  8
寸法
 62
     0
 48
50.0
370
    -2
100
AcDbBlockReference
  2
_DOTSMALL
 10
10898.95750108246
 20
7282.039479632567
 30
0.0
 41
100.0
 42
100.0
 43
100.0
 50
270.0
  0
INSERT
  5
2696C
330
239F3
100
AcDbEntity
  8
寸法
 62
     0
 48
50.0
370
    -2
100
AcDbBlockReference
  2
_DOTSMALL
 10
10898.95750108246
 20
7482.039479632567
 30
0.0
 41
100.0
 42
100.0
 43
100.0
 50
90.0
  0
MTEXT
  5
2696D
330
239F3
100
AcDbEntity
  8
寸法
 62
     7
 48
50.0
100
AcDbMText
 10
10798.94569005883
 20
7731.610345774303
 30
0.0
 40
120.0
 41
0.0
 71
     5
 72
     1
  1
\A1;200
  7
STYLE1
 11
0.0000000000000001
 21
1.0
 31
0.0
 73
     1
 44
1.0
1001
ACAD
1000
MTEXTBEGIN
1070
    73
1070
     1
1070
    44
1040
1.0
1070
    74
1070
     0
1000
MTEXTEND
  0
POINT
  5
2696E
330
239F3
100
AcDbEntity
  8
DEFPOINTS
 62
     0
 48
50.0
100
AcDbPoint
 10
11098.85468201165
 20
7482.039479632567
 30
0.0
  0
POINT
  5
2696F
330
239F3
100
AcDbEntity
  8
DEFPOINTS
 62
     0
 48
50.0
100
AcDbPoint
 10
11098.85468201165
 20
7282.039479632567
 30
0.0
  0
POINT
  5
26970
330
239F3
100
AcDbEntity
  8
DEFPOINTS
 62
     0
 48
50.0
100
AcDbPoint
 10
10898.95750108246
 20
7282.039479632567
 30
0.0
  0
ENDBLK
  5
239FF
330
239F3
100
AcDbEntity
  8
0
 48
50.0
100
AcDbBlockEnd
  0
BLOCK
  5
23A2E
330
23A23
100
AcDbEntity
  8
0
 48
50.0
100
AcDbBlockBegin
  2
*D28
 70
     1
 10
0.0
 20
0.0
 30
0.0
  3
*D28
  1

  0
LINE
  5
26A4C
330
23A23
100
AcDbEntity
  8
寸法
 62
     0
 48
50.0
370
    -2
100
AcDbLine
 10
11134.2489809612
 20
6802.039479632611
 30
0.0
 11
10838.95750108246
 21
6802.039479632611
 31
0.0
  0
LINE
  5
26A4D
330
23A23
100
AcDbEntity
  8
寸法
 62
     0
 48
50.0
370
    -2
100
AcDbLine
 10
11153.60000000001
 20
6522.039479632588
 30
0.0
 11
10838.95750108246
 21
6522.039479632588
 31
0.0
  0
LINE
  5
26A4E
330
23A23
100
AcDbEntity
  8
寸法
 62
     0
 48
50.0
370
    -2
100
AcDbLine
 10
10898.95750108246
 20
6802.039479632611
 30
0.0
 11
10898.95750108246
 21
6522.039479632588
 31
0.0
  0
LINE
  5
26A4F
330
23A23
100
AcDbEntity
  8
寸法
 62
     0
 48
50.0
370
    -2
100
AcDbLine
 10
10898.95750108246
 20
6522.039479632588
 30
0.0
 11
10898.95750108246
 21
6056.735331613953
 31
0.0
  0
INSERT
  5
26A50
330
23A23
100
AcDbEntity
  8
寸法
 62
     0
 48
50.0
370
    -2
100
AcDbBlockReference
  2
_DOTSMALL
 10
10898.95750108246
 20
6802.039479632611
 30
0.0
 41
100.0
 42
100.0
 43
100.0
 50
90.0
  0
INSERT
  5
26A51
330
23A23
100
AcDbEntity
  8
寸法
 62
     0
 48
50.0
370
    -2
100
AcDbBlockReference
  2
_DOTSMALL
 10
10898.95750108246
 20
6522.039479632588
 30
0.0
 41
100.0
 42
100.0
 43
100.0
 50
270.0
  0
MTEXT
  5
26A52
330
23A23
100
AcDbEntity
  8
寸法
 62
     7
 48
50.0
100
AcDbMText
 10
10798.94569005883
 20
6206.306197755688
 30
0.0
 40
120.0
 41
0.0
 71
     5
 72
     1
  1
\A1;280
  7
STYLE1
 11
0.0000000000000001
 21
1.0
 31
0.0
 73
     1
 44
1.0
1001
ACAD
1000
MTEXTBEGIN
1070
    73
1070
     1
1070
    44
1040
1.0
1070
    74
1070
     0
1000
MTEXTEND
  0
POINT
  5
26A53
330
23A23
100
AcDbEntity
  8
DEFPOINTS
 62
     0
 48
50.0
100
AcDbPoint
 10
11154.2489809612
 20
6802.039479632611
 30
0.0
  0
POINT
  5
26A54
330
23A23
100
AcDbEntity
  8
DEFPOINTS
 62
     0
 48
50.0
100
AcDbPoint
 10
11173.60000000001
 20
6522.039479632588
 30
0.0
  0
POINT
  5
26A55
330
23A23
100
AcDbEntity
  8
DEFPOINTS
 62
     0
 48
50.0
100
AcDbPoint
 10
10898.95750108246
 20
6522.039479632588
 30
0.0
  0
ENDBLK
  5
23A2F
330
23A23
100
AcDbEntity
  8
0
 48
50.0
100
AcDbBlockEnd
  0
BLOCK
  5
23AE9
330
23ADE
100
AcDbEntity
  8
0
 48
50.0
100
AcDbBlockBegin
  2
*D29
 70
     1
 10
0.0
 20
0.0
 30
0.0
  3
*D29
  1

  0
LINE
  5
26A76
330
23ADE
100
AcDbEntity
  8
寸法
 62
     0
 48
50.0
370
    -2
100
AcDbLine
 10
11553.6
 20
7198.720585700797
 30
0.0
 11
11553.6
 21
7141.727321661965
 31
0.0
  0
LINE
  5
26A77
330
23ADE
100
AcDbEntity
  8
寸法
 62
     0
 48
50.0
370
    -2
100
AcDbLine
 10
11433.6
 20
7221.727321661965
 30
0.0
 11
11433.6
 21
7261.727321661965
 31
0.0
  0
LINE
  5
26A78
330
23ADE
100
AcDbEntity
  8
寸法
 62
     0
 48
50.0
370
    -2
100
AcDbLine
 10
11433.6
 20
7201.727321661966
 30
0.0
 11
11553.6
 21
7201.727321661966
 31
0.0
  0
LINE
  5
26A79
330
23ADE
100
AcDbEntity
  8
寸法
 62
     0
 48
50.0
370
    -2
100
AcDbLine
 10
11553.6
 20
7201.727321661966
 30
0.0
 11
11959.7062992126
 21
7201.727321661966
 31
0.0
  0
INSERT
  5
26A7A
330
23ADE
100
AcDbEntity
  8
寸法
 62
     0
 48
50.0
370
    -2
100
AcDbBlockReference
  2
_DOTSMALL
 10
11433.6
 20
7201.727321661966
 30
0.0
 41
100.0
 42
100.0
 43
100.0
 50
180.0
  0
INSERT
  5
26A7B
330
23ADE
100
AcDbEntity
  8
寸法
 62
     0
 48
50.0
370
    -2
100
AcDbBlockReference
  2
_DOTSMALL
 10
11553.6
 20
7201.727321661966
 30
0.0
 41
100.0
 42
100.0
 43
100.0
  0
MTEXT
  5
26A7C
330
23ADE
100
AcDbEntity
  8
寸法
 62
     7
 48
50.0
100
AcDbMText
 10
11823.65905511811
 20
7301.739132685587
 30
0.0
 40
120.0
 41
0.0
 71
     5
 72
     1
  1
\A1;120
  7
STYLE1
 73
     1
 44
1.0
1001
ACAD
1000
MTEXTBEGIN
1070
    73
1070
     1
1070
    44
1040
1.0
1070
    74
1070
     0
1000
MTEXTEND
  0
POINT
  5
26A7D
330
23ADE
100
AcDbEntity
  8
DEFPOINTS
 62
     0
 48
50.0
100
AcDbPoint
 10
11553.6
 20
7218.720585700798
 30
0.0
  0
POINT
  5
26A7E
330
23ADE
100
AcDbEntity
  8
DEFPOINTS
 62
     0
 48
50.0
100
AcDbPoint
 10
11433.6
 20
7201.727321661966
 30
0.0
  0
POINT
  5
26A7F
330
23ADE
100
AcDbEntity
  8
DEFPOINTS
 62
     0
 48
50.0
100
AcDbPoint
 10
11433.6
 20
7201.727321661966
 30
0.0
  0
ENDBLK
  5
23AEA
330
23ADE
100
AcDbEntity
  8
0
 48
50.0
100
AcDbBlockEnd
  0
BLOCK
  5
26563
330
26559
100
AcDbEntity
  8
0
 48
50.0
100
AcDbBlockBegin
  2
*D30
 70
     1
 10
0.0
 20
0.0
 30
0.0
  3
*D30
  1

  0
LINE
  5
2691A
330
26559
100
AcDbEntity
  8
寸法
 62
     0
 48
50.0
370
    -2
100
AcDbLine
 10
8698.600000000007
 20
7072.039479632578
 30
0.0
 11
8698.600000000007
 21
8024.648296302826
 31
0.0
  0
LINE
  5
2691B
330
26559
100
AcDbEntity
  8
寸法
 62
     0
 48
50.0
370
    -2
100
AcDbLine
 10
7748.600000000007
 20
7072.039479632578
 30
0.0
 11
7748.600000000007
 21
8024.648296302826
 31
0.0
  0
LINE
  5
2691C
330
26559
100
AcDbEntity
  8
寸法
 62
     0
 48
50.0
370
    -2
100
AcDbLine
 10
8698.600000000007
 20
7964.648296302826
 30
0.0
 11
7748.600000000007
 21
7964.648296302826
 31
0.0
  0
INSERT
  5
2691D
330
26559
100
AcDbEntity
  8
寸法
 62
     0
 48
50.0
370
    -2
100
AcDbBlockReference
  2
_DOTSMALL
 10
8698.600000000007
 20
7964.648296302826
 30
0.0
 41
100.0
 42
100.0
 43
100.0
  0
INSERT
  5
2691E
330
26559
100
AcDbEntity
  8
寸法
 62
     0
 48
50.0
370
    -2
100
AcDbBlockReference
  2
_DOTSMALL
 10
7748.600000000007
 20
7964.648296302826
 30
0.0
 41
100.0
 42
100.0
 43
100.0
 50
180.0
  0
MTEXT
  5
2691F
330
26559
100
AcDbEntity
  8
寸法
 62
     7
 48
50.0
100
AcDbMText
 10
8223.600000000008
 20
8064.648296302825
 30
0.0
 40
120.0
 41
0.0
 71
     5
 72
     1
  1
\A1;950
  7
STYLE1
 73
     1
 44
1.0
1001
ACAD
1000
MTEXTBEGIN
1070
    73
1070
     1
1070
    44
1040
1.0
1070
    74
1070
     0
1000
MTEXTEND
  0
POINT
  5
26920
330
26559
100
AcDbEntity
  8
DEFPOINTS
 62
     0
 48
50.0
100
AcDbPoint
 10
8698.600000000007
 20
7052.039479632579
 30
0.0
  0
POINT
  5
26921
330
26559
100
AcDbEntity
  8
DEFPOINTS
 62
     0
 48
50.0
100
AcDbPoint
 10
7748.600000000007
 20
7052.039479632579
 30
0.0
  0
POINT
  5
26922
330
26559
100
AcDbEntity
  8
DEFPOINTS
 62
     0
 48
50.0
100
AcDbPoint
 10
7748.600000000007
 20
7964.648296302826
 30
0.0
  0
ENDBLK
  5
26564
330
26559
100
AcDbEntity
  8
0
 48
50.0
100
AcDbBlockEnd
  0
BLOCK
  5
2656F
330
26565
100
AcDbEntity
  8
0
 48
50.0
100
AcDbBlockBegin
  2
*D31
 70
     1
 10
0.0
 20
0.0
 30
0.0
  3
*D31
  1

  0
LINE
  5
26911
330
26565
100
AcDbEntity
  8
寸法
 62
     0
 48
50.0
370
    -2
100
AcDbLine
 10
8580.600000000002
 20
7429.039479632578
 30
0.0
 11
8580.600000000002
 21
8268.30593772649
 31
0.0
  0
LINE
  5
26912
330
26565
100
AcDbEntity
  8
寸法
 62
     0
 48
50.0
370
    -2
100
AcDbLine
 10
6680.600000000001
 20
7429.039479632578
 30
0.0
 11
6680.600000000001
 21
8268.30593772649
 31
0.0
  0
LINE
  5
26913
330
26565
100
AcDbEntity
  8
寸法
 62
     0
 48
50.0
370
    -2
100
AcDbLine
 10
8580.600000000002
 20
8208.305937726489
 30
0.0
 11
6680.600000000001
 21
8208.305937726489
 31
0.0
  0
INSERT
  5
26914
330
26565
100
AcDbEntity
  8
寸法
 62
     0
 48
50.0
370
    -2
100
AcDbBlockReference
  2
_DOTSMALL
 10
8580.600000000002
 20
8208.305937726489
 30
0.0
 41
100.0
 42
100.0
 43
100.0
  0
INSERT
  5
26915
330
26565
100
AcDbEntity
  8
寸法
 62
     0
 48
50.0
370
    -2
100
AcDbBlockReference
  2
_DOTSMALL
 10
6680.600000000001
 20
8208.305937726489
 30
0.0
 41
100.0
 42
100.0
 43
100.0
 50
180.0
  0
MTEXT
  5
26916
330
26565
100
AcDbEntity
  8
寸法
 62
     7
 48
50.0
100
AcDbMText
 10
7630.600000000001
 20
8308.305937726489
 30
0.0
 40
120.0
 41
0.0
 71
     5
 72
     1
  1
\A1;1900
  7
STYLE1
 73
     1
 44
1.0
1001
ACAD
1000
MTEXTBEGIN
1070
    73
1070
     1
1070
    44
1040
1.0
1070
    74
1070
     0
1000
MTEXTEND
  0
POINT
  5
26917
330
26565
100
AcDbEntity
  8
DEFPOINTS
 62
     0
 48
50.0
100
AcDbPoint
 10
8580.600000000002
 20
7409.039479632578
 30
0.0
  0
POINT
  5
26918
330
26565
100
AcDbEntity
  8
DEFPOINTS
 62
     0
 48
50.0
100
AcDbPoint
 10
6680.600000000001
 20
7409.039479632578
 30
0.0
  0
POINT
  5
26919
330
26565
100
AcDbEntity
  8
DEFPOINTS
 62
     0
 48
50.0
100
AcDbPoint
 10
6680.600000000001
 20
8208.305937726489
 30
0.0
  0
ENDBLK
  5
26570
330
26565
100
AcDbEntity
  8
0
 48
50.0
100
AcDbBlockEnd
  0
BLOCK
  5
2657B
330
26571
100
AcDbEntity
  8
0
 48
50.0
100
AcDbBlockBegin
  2
*D32
 70
     1
 10
0.0
 20
0.0
 30
0.0
  3
*D32
  1

  0
LINE
  5
26908
330
26571
100
AcDbEntity
  8
寸法
 62
     0
 48
50.0
370
    -2
100
AcDbLine
 10
4893.600000000001
 20
7502.039479632578
 30
0.0
 11
4893.600000000001
 21
8500.259801691496
 31
0.0
  0
LINE
  5
26909
330
26571
100
AcDbEntity
  8
寸法
 62
     0
 48
50.0
370
    -2
100
AcDbLine
 10
11553.6
 20
7502.039479632578
 30
0.0
 11
11553.6
 21
8500.259801691496
 31
0.0
  0
LINE
  5
2690A
330
26571
100
AcDbEntity
  8
寸法
 62
     0
 48
50.0
370
    -2
100
AcDbLine
 10
4893.600000000001
 20
8440.259801691496
 30
0.0
 11
11553.6
 21
8440.259801691496
 31
0.0
  0
INSERT
  5
2690B
330
26571
100
AcDbEntity
  8
寸法
 62
     0
 48
50.0
370
    -2
100
AcDbBlockReference
  2
_DOTSMALL
 10
4893.600000000001
 20
8440.259801691496
 30
0.0
 41
100.0
 42
100.0
 43
100.0
 50
180.0
  0
INSERT
  5
2690C
330
26571
100
AcDbEntity
  8
寸法
 62
     0
 48
50.0
370
    -2
100
AcDbBlockReference
  2
_DOTSMALL
 10
11553.6
 20
8440.259801691496
 30
0.0
 41
100.0
 42
100.0
 43
100.0
  0
MTEXT
  5
2690D
330
26571
100
AcDbEntity
  8
寸法
 62
     7
 48
50.0
100
AcDbMText
 10
8223.600000000001
 20
8540.259801691496
 30
0.0
 40
120.0
 41
0.0
 71
     5
 72
     1
  1
\A1;6660
  7
STYLE1
 73
     1
 44
1.0
1001
ACAD
1000
MTEXTBEGIN
1070
    73
1070
     1
1070
    44
1040
1.0
1070
    74
1070
     0
1000
MTEXTEND
  0
POINT
  5
2690E
330
26571
100
AcDbEntity
  8
DEFPOINTS
 62
     0
 48
50.0
100
AcDbPoint
 10
4893.600000000001
 20
7482.039479632579
 30
0.0
  0
POINT
  5
2690F
330
26571
100
AcDbEntity
  8
DEFPOINTS
 62
     0
 48
50.0
100
AcDbPoint
 10
11553.6
 20
7482.039479632579
 30
0.0
  0
POINT
  5
26910
330
26571
100
AcDbEntity
  8
DEFPOINTS
 62
     0
 48
50.0
100
AcDbPoint
 10
11553.6
 20
8440.259801691496
 30
0.0
  0
ENDBLK
  5
2657C
330
26571
100
AcDbEntity
  8
0
 48
50.0
100
AcDbBlockEnd
  0
BLOCK
  5
26588
330
2657D
100
AcDbEntity
  8
0
 48
50.0
100
AcDbBlockBegin
  2
*D33
 70
     1
 10
0.0
 20
0.0
 30
0.0
  3
*D33
  1

  0
LINE
  5
26948
330
2657D
100
AcDbEntity
  8
寸法
 62
     0
 48
50.0
370
    -2
100
AcDbLine
 10
5447.765475140901
 20
6522.039479632589
 30
0.0
 11
5316.285990614302
 21
6522.039479632589
 31
0.0
  0
LINE
  5
26949
330
2657D
100
AcDbEntity
  8
寸法
 62
     0
 48
50.0
370
    -2
100
AcDbLine
 10
5778.600000000007
 20
7002.039479632578
 30
0.0
 11
5316.285990614302
 21
7002.039479632578
 31
0.0
  0
LINE
  5
2694A
330
2657D
100
AcDbEntity
  8
寸法
 62
     0
 48
50.0
370
    -2
100
AcDbLine
 10
5376.285990614302
 20
7002.039479632578
 30
0.0
 11
5376.285990614302
 21
6522.039479632589
 31
0.0
  0
LINE
  5
2694B
330
2657D
100
AcDbEntity
  8
寸法
 62
     0
 48
50.0
370
    -2
100
AcDbLine
 10
5376.285990614302
 20
6522.039479632589
 30
0.0
 11
5376.285990614301
 21
6075.43318041999
 31
0.0
  0
INSERT
  5
2694C
330
2657D
100
AcDbEntity
  8
寸法
 62
     0
 48
50.0
370
    -2
100
AcDbBlockReference
  2
_DOTSMALL
 10
5376.285990614302
 20
7002.039479632578
 30
0.0
 41
100.0
 42
100.0
 43
100.0
 50
90.0
  0
INSERT
  5
2694D
330
2657D
100
AcDbEntity
  8
寸法
 62
     0
 48
50.0
370
    -2
100
AcDbBlockReference
  2
_DOTSMALL
 10
5376.285990614302
 20
6522.039479632589
 30
0.0
 41
100.0
 42
100.0
 43
100.0
 50
270.0
  0
MTEXT
  5
2694E
330
2657D
100
AcDbEntity
  8
寸法
 62
     7
 48
50.0
100
AcDbMText
 10
5276.285990614301
 20
6229.480424514479
 30
0.0
 40
120.0
 41
0.0
 71
     5
 72
     1
  1
\A1;480
  7
STYLE1
 11
0.0000000000000001
 21
1.0
 31
0.0
 73
     1
 44
1.0
1001
ACAD
1000
MTEXTBEGIN
1070
    73
1070
     1
1070
    44
1040
1.0
1070
    74
1070
     0
1000
MTEXTEND
  0
POINT
  5
2694F
330
2657D
100
AcDbEntity
  8
DEFPOINTS
 62
     0
 48
50.0
100
AcDbPoint
 10
5467.7654751409
 20
6522.039479632589
 30
0.0
  0
POINT
  5
26950
330
2657D
100
AcDbEntity
  8
DEFPOINTS
 62
     0
 48
50.0
100
AcDbPoint
 10
5798.600000000007
 20
7002.039479632578
 30
0.0
  0
POINT
  5
26951
330
2657D
100
AcDbEntity
  8
DEFPOINTS
 62
     0
 48
50.0
100
AcDbPoint
 10
5376.285990614302
 20
7002.039479632578
 30
0.0
  0
ENDBLK
  5
26589
330
2657D
100
AcDbEntity
  8
0
 48
50.0
100
AcDbBlockEnd
  0
BLOCK
  5
26594
330
2658A
100
AcDbEntity
  8
0
 48
50.0
100
AcDbBlockBegin
  2
*D34
 70
     1
 10
0.0
 20
0.0
 30
0.0
  3
*D34
  1

  0
LINE
  5
269C0
330
2658A
100
AcDbEntity
  8
寸法
 62
     0
 48
50.0
370
    -2
100
AcDbLine
 10
4946.6
 20
7359.039479632578
 30
0.0
 11
4210.665006330073
 21
7359.039479632578
 31
0.0
  0
LINE
  5
269C1
330
2658A
100
AcDbEntity
  8
寸法
 62
     0
 48
50.0
370
    -2
100
AcDbLine
 10
4946.600000000008
 20
6720.039479632582
 30
0.0
 11
4210.665006330073
 21
6720.039479632582
 31
0.0
  0
LINE
  5
269C2
330
2658A
100
AcDbEntity
  8
寸法
 62
     0
 48
50.0
370
    -2
100
AcDbLine
 10
4270.665006330073
 20
7359.039479632578
 30
0.0
 11
4270.665006330073
 21
6720.039479632582
 31
0.0
  0
INSERT
  5
269C3
330
2658A
100
AcDbEntity
  8
寸法
 62
     0
 48
50.0
370
    -2
100
AcDbBlockReference
  2
_DOTSMALL
 10
4270.665006330073
 20
7359.039479632578
 30
0.0
 41
100.0
 42
100.0
 43
100.0
 50
90.0
  0
INSERT
  5
269C4
330
2658A
100
AcDbEntity
  8
寸法
 62
     0
 48
50.0
370
    -2
100
AcDbBlockReference
  2
_DOTSMALL
 10
4270.665006330073
 20
6720.039479632582
 30
0.0
 41
100.0
 42
100.0
 43
100.0
 50
270.0
  0
MTEXT
  5
269C5
330
2658A
100
AcDbEntity
  8
寸法
 62
     7
 48
50.0
100
AcDbMText
 10
4170.665006330071
 20
7039.539479632579
 30
0.0
 40
120.0
 41
0.0
 71
     5
 72
     1
  1
\A1;639
  7
STYLE1
 11
0.0000000000000001
 21
1.0
 31
0.0
 73
     1
 44
1.0
1001
ACAD
1000
MTEXTBEGIN
1070
    73
1070
     1
1070
    44
1040
1.0
1070
    74
1070
     0
1000
MTEXTEND
  0
POINT
  5
269C6
330
2658A
100
AcDbEntity
  8
DEFPOINTS
 62
     0
 48
50.0
100
AcDbPoint
 10
4966.6
 20
7359.039479632578
 30
0.0
  0
POINT
  5
269C7
330
2658A
100
AcDbEntity
  8
DEFPOINTS
 62
     0
 48
50.0
100
AcDbPoint
 10
4966.600000000007
 20
6720.039479632582
 30
0.0
  0
POINT
  5
269C8
330
2658A
100
AcDbEntity
  8
DEFPOINTS
 62
     0
 48
50.0
100
AcDbPoint
 10
4270.665006330073
 20
6720.039479632582
 30
0.0
  0
ENDBLK
  5
26595
330
2658A
100
AcDbEntity
  8
0
 48
50.0
100
AcDbBlockEnd
  0
BLOCK
  5
265A0
330
26596
100
AcDbEntity
  8
0
 48
50.0
100
AcDbBlockBegin
  2
*D35
 70
     1
 10
0.0
 20
0.0
 30
0.0
  3
*D35
  1

  0
LINE
  5
2692D
330
26596
100
AcDbEntity
  8
寸法
 62
     0
 48
50.0
370
    -2
100
AcDbLine
 10
4873.6
 20
7482.039479632579
 30
0.0
 11
3958.721909610675
 21
7482.039479632579
 31
0.0
  0
LINE
  5
2692E
330
26596
100
AcDbEntity
  8
寸法
 62
     0
 48
50.0
370
    -2
100
AcDbLine
 10
4873.6
 20
6522.039479632578
 30
0.0
 11
3958.721909610673
 21
6522.039479632578
 31
0.0
  0
LINE
  5
2692F
330
26596
100
AcDbEntity
  8
寸法
 62
     0
 48
50.0
370
    -2
100
AcDbLine
 10
4018.721909610674
 20
7482.039479632579
 30
0.0
 11
4018.721909610674
 21
6522.039479632578
 31
0.0
  0
INSERT
  5
26930
330
26596
100
AcDbEntity
  8
寸法
 62
     0
 48
50.0
370
    -2
100
AcDbBlockReference
  2
_DOTSMALL
 10
4018.721909610674
 20
7482.039479632579
 30
0.0
 41
100.0
 42
100.0
 43
100.0
 50
90.0
  0
INSERT
  5
26931
330
26596
100
AcDbEntity
  8
寸法
 62
     0
 48
50.0
370
    -2
100
AcDbBlockReference
  2
_DOTSMALL
 10
4018.721909610674
 20
6522.039479632578
 30
0.0
 41
100.0
 42
100.0
 43
100.0
 50
270.0
  0
MTEXT
  5
26932
330
26596
100
AcDbEntity
  8
寸法
 62
     7
 48
50.0
100
AcDbMText
 10
3918.721909610673
 20
7039.539479632579
 30
0.0
 40
120.0
 41
0.0
 71
     5
 72
     1
  1
\A1;960
  7
STYLE1
 11
0.0000000000000001
 21
1.0
 31
0.0
 73
     1
 44
1.0
1001
ACAD
1000
MTEXTBEGIN
1070
    73
1070
     1
1070
    44
1040
1.0
1070
    74
1070
     0
1000
MTEXTEND
  0
POINT
  5
26933
330
26596
100
AcDbEntity
  8
DEFPOINTS
 62
     0
 48
50.0
100
AcDbPoint
 10
4893.600000000001
 20
7482.039479632579
 30
0.0
  0
POINT
  5
26934
330
26596
100
AcDbEntity
  8
DEFPOINTS
 62
     0
 48
50.0
100
AcDbPoint
 10
4893.600000000001
 20
6522.039479632578
 30
0.0
  0
POINT
  5
26935
330
26596
100
AcDbEntity
  8
DEFPOINTS
 62
     0
 48
50.0
100
AcDbPoint
 10
4018.721909610674
 20
6522.039479632578
 30
0.0
  0
ENDBLK
  5
265A1
330
26596
100
AcDbEntity
  8
0
 48
50.0
100
AcDbBlockEnd
  0
BLOCK
  5
265AC
330
265A2
100
AcDbEntity
  8
0
 48
50.0
100
AcDbBlockBegin
  2
*D36
 70
     1
 10
0.0
 20
0.0
 30
0.0
  3
*D36
  1

  0
LINE
  5
2693F
330
265A2
100
AcDbEntity
  8
寸法
 62
     0
 48
50.0
370
    -2
100
AcDbLine
 10
4873.600000000004
 20
6522.039479632574
 30
0.0
 11
4720.51267376788
 21
6522.039479632574
 31
0.0
  0
LINE
  5
26940
330
265A2
100
AcDbEntity
  8
寸法
 62
     0
 48
50.0
370
    -2
100
AcDbLine
 10
5229.325326928808
 20
5802.039479632575
 30
0.0
 11
4720.512673767879
 21
5802.039479632575
 31
0.0
  0
LINE
  5
26941
330
265A2
100
AcDbEntity
  8
寸法
 62
     0
 48
50.0
370
    -2
100
AcDbLine
 10
4780.51267376788
 20
6522.039479632574
 30
0.0
 11
4780.512673767879
 21
5802.039479632575
 31
0.0
  0
INSERT
  5
26942
330
265A2
100
AcDbEntity
  8
寸法
 62
     0
 48
50.0
370
    -2
100
AcDbBlockReference
  2
_DOTSMALL
 10
4780.51267376788
 20
6522.039479632574
 30
0.0
 41
100.0
 42
100.0
 43
100.0
 50
90.0
  0
INSERT
  5
26943
330
265A2
100
AcDbEntity
  8
寸法
 62
     0
 48
50.0
370
    -2
100
AcDbBlockReference
  2
_DOTSMALL
 10
4780.512673767879
 20
5802.039479632575
 30
0.0
 41
100.0
 42
100.0
 43
100.0
 50
270.0
  0
MTEXT
  5
26944
330
265A2
100
AcDbEntity
  8
寸法
 62
     7
 48
50.0
100
AcDbMText
 10
4680.500862744256
 20
6162.039479632575
 30
0.0
 40
120.0
 41
0.0
 71
     5
 72
     1
  1
\A1;扉の出720
  7
STYLE1
 11
0.0000000000000001
 21
1.0
 31
0.0
 73
     1
 44
1.0
1001
ACAD
1000
MTEXTBEGIN
1070
    73
1070
     1
1070
    44
1040
1.0
1070
    74
1070
     0
1000
MTEXTEND
  0
POINT
  5
26945
330
265A2
100
AcDbEntity
  8
DEFPOINTS
 62
     0
 48
50.0
100
AcDbPoint
 10
4893.600000000004
 20
6522.039479632574
 30
0.0
  0
POINT
  5
26946
330
265A2
100
AcDbEntity
  8
DEFPOINTS
 62
     0
 48
50.0
100
AcDbPoint
 10
5249.325326928809
 20
5802.039479632575
 30
0.0
  0
POINT
  5
26947
330
265A2
100
AcDbEntity
  8
DEFPOINTS
 62
     0
 48
50.0
100
AcDbPoint
 10
4780.512673767879
 20
5802.039479632575
 30
0.0
  0
ENDBLK
  5
265AD
330
265A2
100
AcDbEntity
  8
0
 48
50.0
100
AcDbBlockEnd
  0
BLOCK
  5
265B9
330
265AE
100
AcDbEntity
  8
0
 48
50.0
100
AcDbBlockBegin
  2
*D37
 70
     1
 10
0.0
 20
0.0
 30
0.0
  3
*D37
  1

  0
LINE
  5
269B6
330
265AE
100
AcDbEntity
  8
寸法
 62
     0
 48
50.0
370
    -2
100
AcDbLine
 10
4946.600000000008
 20
6720.039479632582
 30
0.0
 11
4210.665006330073
 21
6720.039479632582
 31
0.0
  0
LINE
  5
269B7
330
265AE
100
AcDbEntity
  8
寸法
 62
     0
 48
50.0
370
    -2
100
AcDbLine
 10
4873.6
 20
6522.039479632578
 30
0.0
 11
4210.665006330073
 21
6522.039479632578
 31
0.0
  0
LINE
  5
269B8
330
265AE
100
AcDbEntity
  8
寸法
 62
     0
 48
50.0
370
    -2
100
AcDbLine
 10
4270.665006330073
 20
6720.039479632582
 30
0.0
 11
4270.665006330073
 21
6522.039479632578
 31
0.0
  0
LINE
  5
269B9
330
265AE
100
AcDbEntity
  8
寸法
 62
     0
 48
50.0
370
    -2
100
AcDbLine
 10
4270.665006330073
 20
6522.039479632578
 30
0.0
 11
4270.665006330072
 21
6050.298870960329
 31
0.0
  0
INSERT
  5
269BA
330
265AE
100
AcDbEntity
  8
寸法
 62
     0
 48
50.0
370
    -2
100
AcDbBlockReference
  2
_DOTSMALL
 10
4270.665006330073
 20
6720.039479632582
 30
0.0
 41
100.0
 42
100.0
 43
100.0
 50
90.0
  0
INSERT
  5
269BB
330
265AE
100
AcDbEntity
  8
寸法
 62
     0
 48
50.0
370
    -2
100
AcDbBlockReference
  2
_DOTSMALL
 10
4270.665006330073
 20
6522.039479632578
 30
0.0
 41
100.0
 42
100.0
 43
100.0
 50
270.0
  0
MTEXT
  5
269BC
330
265AE
100
AcDbEntity
  8
寸法
 62
     7
 48
50.0
100
AcDbMText
 10
4170.665006330071
 20
6186.508530789986
 30
0.0
 40
120.0
 41
0.0
 71
     5
 72
     1
  1
\A1;198
  7
STYLE1
 11
0.0000000000000001
 21
1.0
 31
0.0
 73
     1
 44
1.0
1001
ACAD
1000
MTEXTBEGIN
1070
    73
1070
     1
1070
    44
1040
1.0
1070
    74
1070
     0
1000
MTEXTEND
  0
POINT
  5
269BD
330
265AE
100
AcDbEntity
  8
DEFPOINTS
 62
     0
 48
50.0
100
AcDbPoint
 10
4966.600000000007
 20
6720.039479632582
 30
0.0
  0
POINT
  5
269BE
330
265AE
100
AcDbEntity
  8
DEFPOINTS
 62
     0
 48
50.0
100
AcDbPoint
 10
4893.600000000001
 20
6522.039479632578
 30
0.0
  0
POINT
  5
269BF
330
265AE
100
AcDbEntity
  8
DEFPOINTS
 62
     0
 48
50.0
100
AcDbPoint
 10
4270.665006330073
 20
6522.039479632578
 30
0.0
  0
ENDBLK
  5
265BA
330
265AE
100
AcDbEntity
  8
0
 48
50.0
100
AcDbBlockEnd
  0
BLOCK
  5
265DE
330
265D4
100
AcDbEntity
  8
0
 48
50.0
100
AcDbBlockBegin
  2
*D38
 70
     1
 10
0.0
 20
0.0
 30
0.0
  3
*D38
  1

  0
LINE
  5
268FF
330
265D4
100
AcDbEntity
  8
寸法
 62
     0
 48
50.0
370
    -2
100
AcDbLine
 10
5848.600000000008
 20
7072.039479632578
 30
0.0
 11
5848.600000000008
 21
8024.648296302826
 31
0.0
  0
LINE
  5
26900
330
265D4
100
AcDbEntity
  8
寸法
 62
     0
 48
50.0
370
    -2
100
AcDbLine
 10
4893.600000000001
 20
7502.039479632578
 30
0.0
 11
4893.600000000001
 21
8024.648296302826
 31
0.0
  0
LINE
  5
26901
330
265D4
100
AcDbEntity
  8
寸法
 62
     0
 48
50.0
370
    -2
100
AcDbLine
 10
5848.600000000008
 20
7964.648296302826
 30
0.0
 11
4893.600000000001
 21
7964.648296302826
 31
0.0
  0
INSERT
  5
26902
330
265D4
100
AcDbEntity
  8
寸法
 62
     0
 48
50.0
370
    -2
100
AcDbBlockReference
  2
_DOTSMALL
 10
5848.600000000008
 20
7964.648296302826
 30
0.0
 41
100.0
 42
100.0
 43
100.0
  0
INSERT
  5
26903
330
265D4
100
AcDbEntity
  8
寸法
 62
     0
 48
50.0
370
    -2
100
AcDbBlockReference
  2
_DOTSMALL
 10
4893.600000000001
 20
7964.648296302826
 30
0.0
 41
100.0
 42
100.0
 43
100.0
 50
180.0
  0
MTEXT
  5
26904
330
265D4
100
AcDbEntity
  8
寸法
 62
     7
 48
50.0
100
AcDbMText
 10
5371.100000000004
 20
8064.648296302825
 30
0.0
 40
120.0
 41
0.0
 71
     5
 72
     1
  1
\A1;955
  7
STYLE1
 73
     1
 44
1.0
1001
ACAD
1000
MTEXTBEGIN
1070
    73
1070
     1
1070
    44
1040
1.0
1070
    74
1070
     0
1000
MTEXTEND
  0
POINT
  5
26905
330
265D4
100
AcDbEntity
  8
DEFPOINTS
 62
     0
 48
50.0
100
AcDbPoint
 10
5848.600000000008
 20
7052.039479632579
 30
0.0
  0
POINT
  5
26906
330
265D4
100
AcDbEntity
  8
DEFPOINTS
 62
     0
 48
50.0
100
AcDbPoint
 10
4893.600000000001
 20
7482.039479632579
 30
0.0
  0
POINT
  5
26907
330
265D4
100
AcDbEntity
  8
DEFPOINTS
 62
     0
 48
50.0
100
AcDbPoint
 10
4893.600000000001
 20
7964.648296302826
 30
0.0
  0
ENDBLK
  5
265DF
330
265D4
100
AcDbEntity
  8
0
 48
50.0
100
AcDbBlockEnd
  0
BLOCK
  5
265E9
330
265E0
100
AcDbEntity
  8
0
 48
50.0
100
AcDbBlockBegin
  2
*D39
 70
     1
 10
0.0
 20
0.0
 30
0.0
  3
*D39
  1

  0
LINE
  5
268F6
330
265E0
100
AcDbEntity
  8
寸法
 62
     0
 48
50.0
370
    -2
100
AcDbLine
 10
6680.600000000001
 20
7429.039479632578
 30
0.0
 11
6680.600000000001
 21
8268.30593772649
 31
0.0
  0
LINE
  5
268F7
330
265E0
100
AcDbEntity
  8
寸法
 62
     0
 48
50.0
370
    -2
100
AcDbLine
 10
5016.6
 20
7429.039479632578
 30
0.0
 11
5016.6
 21
8268.30593772649
 31
0.0
  0
LINE
  5
268F8
330
265E0
100
AcDbEntity
  8
寸法
 62
     0
 48
50.0
370
    -2
100
AcDbLine
 10
6680.600000000001
 20
8208.305937726489
 30
0.0
 11
5016.6
 21
8208.305937726489
 31
0.0
  0
INSERT
  5
268F9
330
265E0
100
AcDbEntity
  8
寸法
 62
     0
 48
50.0
370
    -2
100
AcDbBlockReference
  2
_DOTSMALL
 10
6680.600000000001
 20
8208.305937726489
 30
0.0
 41
100.0
 42
100.0
 43
100.0
  0
INSERT
  5
268FA
330
265E0
100
AcDbEntity
  8
寸法
 62
     0
 48
50.0
370
    -2
100
AcDbBlockReference
  2
_DOTSMALL
 10
5016.6
 20
8208.305937726489
 30
0.0
 41
100.0
 42
100.0
 43
100.0
 50
180.0
  0
MTEXT
  5
268FB
330
265E0
100
AcDbEntity
  8
寸法
 62
     7
 48
50.0
100
AcDbMText
 10
5848.600000000001
 20
8308.305937726489
 30
0.0
 40
120.0
 41
0.0
 71
     5
 72
     1
  1
\A1;1664
  7
STYLE1
 73
     1
 44
1.0
1001
ACAD
1000
MTEXTBEGIN
1070
    73
1070
     1
1070
    44
1040
1.0
1070
    74
1070
     0
1000
MTEXTEND
  0
POINT
  5
268FC
330
265E0
100
AcDbEntity
  8
DEFPOINTS
 62
     0
 48
50.0
100
AcDbPoint
 10
6680.600000000001
 20
7409.039479632578
 30
0.0
  0
POINT
  5
268FD
330
265E0
100
AcDbEntity
  8
DEFPOINTS
 62
     0
 48
50.0
100
AcDbPoint
 10
5016.6
 20
7409.039479632578
 30
0.0
  0
POINT
  5
268FE
330
265E0
100
AcDbEntity
  8
DEFPOINTS
 62
     0
 48
50.0
100
AcDbPoint
 10
5016.6
 20
8208.305937726489
 30
0.0
  0
ENDBLK
  5
265EA
330
265E0
100
AcDbEntity
  8
0
 48
50.0
100
AcDbBlockEnd
  0
BLOCK
  5
26603
330
265F8
100
AcDbEntity
  8
0
 48
50.0
100
AcDbBlockBegin
  2
*D40
 70
     1
 10
0.0
 20
0.0
 30
0.0
  3
*D40
  1

  0
LINE
  5
268EC
330
265F8
100
AcDbEntity
  8
寸法
 62
     0
 48
50.0
370
    -2
100
AcDbLine
 10
5016.6
 20
7429.039479632578
 30
0.0
 11
5016.6
 21
8268.30593772649
 31
0.0
  0
LINE
  5
268ED
330
265F8
100
AcDbEntity
  8
寸法
 62
     0
 48
50.0
370
    -2
100
AcDbLine
 10
4893.600000000001
 20
7502.039479632578
 30
0.0
 11
4893.600000000001
 21
8268.30593772649
 31
0.0
  0
LINE
  5
268EE
330
265F8
100
AcDbEntity
  8
寸法
 62
     0
 48
50.0
370
    -2
100
AcDbLine
 10
5016.6
 20
8208.305937726489
 30
0.0
 11
4893.600000000001
 21
8208.305937726489
 31
0.0
  0
LINE
  5
268EF
330
265F8
100
AcDbEntity
  8
寸法
 62
     0
 48
50.0
370
    -2
100
AcDbLine
 10
4893.600000000001
 20
8208.305937726489
 30
0.0
 11
4482.008116907962
 21
8208.305937726489
 31
0.0
  0
INSERT
  5
268F0
330
265F8
100
AcDbEntity
  8
寸法
 62
     0
 48
50.0
370
    -2
100
AcDbBlockReference
  2
_DOTSMALL
 10
5016.6
 20
8208.305937726489
 30
0.0
 41
100.0
 42
100.0
 43
100.0
  0
INSERT
  5
268F1
330
265F8
100
AcDbEntity
  8
寸法
 62
     0
 48
50.0
370
    -2
100
AcDbBlockReference
  2
_DOTSMALL
 10
4893.600000000001
 20
8208.305937726489
 30
0.0
 41
100.0
 42
100.0
 43
100.0
 50
180.0
  0
MTEXT
  5
268F2
330
265F8
100
AcDbEntity
  8
寸法
 62
     7
 48
50.0
100
AcDbMText
 10
4620.493398282202
 20
8308.317748750111
 30
0.0
 40
120.0
 41
0.0
 71
     5
 72
     1
  1
\A1;123
  7
STYLE1
 73
     1
 44
1.0
1001
ACAD
1000
MTEXTBEGIN
1070
    73
1070
     1
1070
    44
1040
1.0
1070
    74
1070
     0
1000
MTEXTEND
  0
POINT
  5
268F3
330
265F8
100
AcDbEntity
  8
DEFPOINTS
 62
     0
 48
50.0
100
AcDbPoint
 10
5016.6
 20
7409.039479632578
 30
0.0
  0
POINT
  5
268F4
330
265F8
100
AcDbEntity
  8
DEFPOINTS
 62
     0
 48
50.0
100
AcDbPoint
 10
4893.600000000001
 20
7482.039479632579
 30
0.0
  0
POINT
  5
268F5
330
265F8
100
AcDbEntity
  8
DEFPOINTS
 62
     0
 48
50.0
100
AcDbPoint
 10
4893.600000000001
 20
8208.305937726489
 30
0.0
  0
ENDBLK
  5
26604
330
265F8
100
AcDbEntity
  8
0
 48
50.0
100
AcDbBlockEnd
  0
BLOCK
  5
26610
330
26605
100
AcDbEntity
  8
0
 48
50.0
100
AcDbBlockBegin
  2
*D41
 70
     1
 10
0.0
 20
0.0
 30
0.0
  3
*D41
  1

  0
LINE
  5
268E2
330
26605
100
AcDbEntity
  8
寸法
 62
     0
 48
50.0
370
    -2
100
AcDbLine
 10
4873.6
 20
7482.039479632579
 30
0.0
 11
4210.665006330072
 21
7482.039479632579
 31
0.0
  0
LINE
  5
268E3
330
26605
100
AcDbEntity
  8
寸法
 62
     0
 48
50.0
370
    -2
100
AcDbLine
 10
4946.6
 20
7359.039479632578
 30
0.0
 11
4210.665006330072
 21
7359.039479632578
 31
0.0
  0
LINE
  5
268E4
330
26605
100
AcDbEntity
  8
寸法
 62
     0
 48
50.0
370
    -2
100
AcDbLine
 10
4270.665006330072
 20
7359.039479632578
 30
0.0
 11
4270.665006330072
 21
7482.039479632579
 31
0.0
  0
LINE
  5
268E5
330
26605
100
AcDbEntity
  8
寸法
 62
     0
 48
50.0
370
    -2
100
AcDbLine
 10
4270.665006330072
 20
7482.039479632579
 30
0.0
 11
4270.665006330072
 21
7893.631362724616
 31
0.0
  0
INSERT
  5
268E6
330
26605
100
AcDbEntity
  8
寸法
 62
     0
 48
50.0
370
    -2
100
AcDbBlockReference
  2
_DOTSMALL
 10
4270.665006330072
 20
7359.039479632578
 30
0.0
 41
100.0
 42
100.0
 43
100.0
 50
270.0
  0
INSERT
  5
268E7
330
26605
100
AcDbEntity
  8
寸法
 62
     0
 48
50.0
370
    -2
100
AcDbBlockReference
  2
_DOTSMALL
 10
4270.665006330072
 20
7482.039479632579
 30
0.0
 41
100.0
 42
100.0
 43
100.0
 50
90.0
  0
MTEXT
  5
268E8
330
26605
100
AcDbEntity
  8
寸法
 62
     7
 48
50.0
100
AcDbMText
 10
4170.653195306449
 20
7755.146081350378
 30
0.0
 40
120.0
 41
0.0
 71
     5
 72
     1
  1
\A1;123
  7
STYLE1
 11
0.0000000000000001
 21
1.0
 31
0.0
 73
     1
 44
1.0
1001
ACAD
1000
MTEXTBEGIN
1070
    73
1070
     1
1070
    44
1040
1.0
1070
    74
1070
     0
1000
MTEXTEND
  0
POINT
  5
268E9
330
26605
100
AcDbEntity
  8
DEFPOINTS
 62
     0
 48
50.0
100
AcDbPoint
 10
4893.600000000001
 20
7482.039479632579
 30
0.0
  0
POINT
  5
268EA
330
26605
100
AcDbEntity
  8
DEFPOINTS
 62
     0
 48
50.0
100
AcDbPoint
 10
4966.6
 20
7359.039479632578
 30
0.0
  0
POINT
  5
268EB
330
26605
100
AcDbEntity
  8
DEFPOINTS
 62
     0
 48
50.0
100
AcDbPoint
 10
4270.665006330072
 20
7359.039479632578
 30
0.0
  0
ENDBLK
  5
26611
330
26605
100
AcDbEntity
  8
0
 48
50.0
100
AcDbBlockEnd
  0
BLOCK
  5
26625
330
2661C
100
AcDbEntity
  8
0
 48
50.0
100
AcDbBlockBegin
  2
*D42
 70
     1
 10
0.0
 20
0.0
 30
0.0
  3
*D42
  1

  0
LINE
  5
268D9
330
2661C
100
AcDbEntity
  8
寸法
 62
     0
 48
50.0
370
    -2
100
AcDbLine
 10
6798.600000000007
 20
7072.039479632578
 30
0.0
 11
6798.600000000007
 21
8024.648296302826
 31
0.0
  0
LINE
  5
268DA
330
2661C
100
AcDbEntity
  8
寸法
 62
     0
 48
50.0
370
    -2
100
AcDbLine
 10
5848.600000000008
 20
7072.039479632578
 30
0.0
 11
5848.600000000008
 21
8024.648296302826
 31
0.0
  0
LINE
  5
268DB
330
2661C
100
AcDbEntity
  8
寸法
 62
     0
 48
50.0
370
    -2
100
AcDbLine
 10
6798.600000000007
 20
7964.648296302826
 30
0.0
 11
5848.600000000008
 21
7964.648296302826
 31
0.0
  0
INSERT
  5
268DC
330
2661C
100
AcDbEntity
  8
寸法
 62
     0
 48
50.0
370
    -2
100
AcDbBlockReference
  2
_DOTSMALL
 10
6798.600000000007
 20
7964.648296302826
 30
0.0
 41
100.0
 42
100.0
 43
100.0
  0
INSERT
  5
268DD
330
2661C
100
AcDbEntity
  8
寸法
 62
     0
 48
50.0
370
    -2
100
AcDbBlockReference
  2
_DOTSMALL
 10
5848.600000000008
 20
7964.648296302826
 30
0.0
 41
100.0
 42
100.0
 43
100.0
 50
180.0
  0
MTEXT
  5
268DE
330
2661C
100
AcDbEntity
  8
寸法
 62
     7
 48
50.0
100
AcDbMText
 10
6323.600000000007
 20
8064.648296302825
 30
0.0
 40
120.0
 41
0.0
 71
     5
 72
     1
  1
\A1;950
  7
STYLE1
 73
     1
 44
1.0
1001
ACAD
1000
MTEXTBEGIN
1070
    73
1070
     1
1070
    44
1040
1.0
1070
    74
1070
     0
1000
MTEXTEND
  0
POINT
  5
268DF
330
2661C
100
AcDbEntity
  8
DEFPOINTS
 62
     0
 48
50.0
100
AcDbPoint
 10
6798.600000000007
 20
7052.039479632579
 30
0.0
  0
POINT
  5
268E0
330
2661C
100
AcDbEntity
  8
DEFPOINTS
 62
     0
 48
50.0
100
AcDbPoint
 10
5848.600000000008
 20
7052.039479632579
 30
0.0
  0
POINT
  5
268E1
330
2661C
100
AcDbEntity
  8
DEFPOINTS
 62
     0
 48
50.0
100
AcDbPoint
 10
5848.600000000008
 20
7964.648296302826
 30
0.0
  0
ENDBLK
  5
26626
330
2661C
100
AcDbEntity
  8
0
 48
50.0
100
AcDbBlockEnd
  0
BLOCK
  5
26631
330
26627
100
AcDbEntity
  8
0
 48
50.0
100
AcDbBlockBegin
  2
*D43
 70
     1
 10
0.0
 20
0.0
 30
0.0
  3
*D43
  1

  0
LINE
  5
268D0
330
26627
100
AcDbEntity
  8
寸法
 62
     0
 48
50.0
370
    -2
100
AcDbLine
 10
7748.600000000007
 20
7072.039479632578
 30
0.0
 11
7748.600000000007
 21
8024.648296302826
 31
0.0
  0
LINE
  5
268D1
330
26627
100
AcDbEntity
  8
寸法
 62
     0
 48
50.0
370
    -2
100
AcDbLine
 10
6798.600000000007
 20
7072.039479632578
 30
0.0
 11
6798.600000000007
 21
8024.648296302826
 31
0.0
  0
LINE
  5
268D2
330
26627
100
AcDbEntity
  8
寸法
 62
     0
 48
50.0
370
    -2
100
AcDbLine
 10
7748.600000000007
 20
7964.648296302826
 30
0.0
 11
6798.600000000007
 21
7964.648296302826
 31
0.0
  0
INSERT
  5
268D3
330
26627
100
AcDbEntity
  8
寸法
 62
     0
 48
50.0
370
    -2
100
AcDbBlockReference
  2
_DOTSMALL
 10
7748.600000000007
 20
7964.648296302826
 30
0.0
 41
100.0
 42
100.0
 43
100.0
  0
INSERT
  5
268D4
330
26627
100
AcDbEntity
  8
寸法
 62
     0
 48
50.0
370
    -2
100
AcDbBlockReference
  2
_DOTSMALL
 10
6798.600000000007
 20
7964.648296302826
 30
0.0
 41
100.0
 42
100.0
 43
100.0
 50
180.0
  0
MTEXT
  5
268D5
330
26627
100
AcDbEntity
  8
寸法
 62
     7
 48
50.0
100
AcDbMText
 10
7273.600000000008
 20
8064.648296302825
 30
0.0
 40
120.0
 41
0.0
 71
     5
 72
     1
  1
\A1;950
  7
STYLE1
 73
     1
 44
1.0
1001
ACAD
1000
MTEXTBEGIN
1070
    73
1070
     1
1070
    44
1040
1.0
1070
    74
1070
     0
1000
MTEXTEND
  0
POINT
  5
268D6
330
26627
100
AcDbEntity
  8
DEFPOINTS
 62
     0
 48
50.0
100
AcDbPoint
 10
7748.600000000007
 20
7052.039479632579
 30
0.0
  0
POINT
  5
268D7
330
26627
100
AcDbEntity
  8
DEFPOINTS
 62
     0
 48
50.0
100
AcDbPoint
 10
6798.600000000007
 20
7052.039479632579
 30
0.0
  0
POINT
  5
268D8
330
26627
100
AcDbEntity
  8
DEFPOINTS
 62
     0
 48
50.0
100
AcDbPoint
 10
6798.600000000007
 20
7964.648296302826
 30
0.0
  0
ENDBLK
  5
26632
330
26627
100
AcDbEntity
  8
0
 48
50.0
100
AcDbBlockEnd
  0
BLOCK
  5
2663E
330
26633
100
AcDbEntity
  8
0
 48
50.0
100
AcDbBlockBegin
  2
*D44
 70
     1
 10
0.0
 20
0.0
 30
0.0
  3
*D44
  1

  0
LINE
  5
268C6
330
26633
100
AcDbEntity
  8
寸法
 62
     0
 48
50.0
370
    -2
100
AcDbLine
 10
5778.600000000007
 20
7002.039479632578
 30
0.0
 11
5316.285990614301
 21
7002.039479632578
 31
0.0
  0
LINE
  5
268C7
330
26633
100
AcDbEntity
  8
寸法
 62
     0
 48
50.0
370
    -2
100
AcDbLine
 10
5447.765475140901
 20
7482.039479632579
 30
0.0
 11
5316.285990614301
 21
7482.039479632579
 31
0.0
  0
LINE
  5
268C8
330
26633
100
AcDbEntity
  8
寸法
 62
     0
 48
50.0
370
    -2
100
AcDbLine
 10
5376.285990614301
 20
7002.039479632578
 30
0.0
 11
5376.285990614301
 21
7482.039479632579
 31
0.0
  0
LINE
  5
268C9
330
26633
100
AcDbEntity
  8
寸法
 62
     0
 48
50.0
370
    -2
100
AcDbLine
 10
5376.285990614301
 20
7482.039479632579
 30
0.0
 11
5376.285990614301
 21
7928.645778845177
 31
0.0
  0
INSERT
  5
268CA
330
26633
100
AcDbEntity
  8
寸法
 62
     0
 48
50.0
370
    -2
100
AcDbBlockReference
  2
_DOTSMALL
 10
5376.285990614301
 20
7002.039479632578
 30
0.0
 41
100.0
 42
100.0
 43
100.0
 50
270.0
  0
INSERT
  5
268CB
330
26633
100
AcDbEntity
  8
寸法
 62
     0
 48
50.0
370
    -2
100
AcDbBlockReference
  2
_DOTSMALL
 10
5376.285990614301
 20
7482.039479632579
 30
0.0
 41
100.0
 42
100.0
 43
100.0
 50
90.0
  0
MTEXT
  5
268CC
330
26633
100
AcDbEntity
  8
寸法
 62
     7
 48
50.0
100
AcDbMText
 10
5276.285990614301
 20
7774.59853475069
 30
0.0
 40
120.0
 41
0.0
 71
     5
 72
     1
  1
\A1;480
  7
STYLE1
 11
0.0000000000000001
 21
1.0
 31
0.0
 73
     1
 44
1.0
1001
ACAD
1000
MTEXTBEGIN
1070
    73
1070
     1
1070
    44
1040
1.0
1070
    74
1070
     0
1000
MTEXTEND
  0
POINT
  5
268CD
330
26633
100
AcDbEntity
  8
DEFPOINTS
 62
     0
 48
50.0
100
AcDbPoint
 10
5798.600000000007
 20
7002.039479632578
 30
0.0
  0
POINT
  5
268CE
330
26633
100
AcDbEntity
  8
DEFPOINTS
 62
     0
 48
50.0
100
AcDbPoint
 10
5467.7654751409
 20
7482.039479632579
 30
0.0
  0
POINT
  5
268CF
330
26633
100
AcDbEntity
  8
DEFPOINTS
 62
     0
 48
50.0
100
AcDbPoint
 10
5376.285990614301
 20
7482.039479632579
 30
0.0
  0
ENDBLK
  5
2663F
330
26633
100
AcDbEntity
  8
0
 48
50.0
100
AcDbBlockEnd
  0
BLOCK
  5
26665
330
2665A
100
AcDbEntity
  8
0
 48
50.0
100
AcDbBlockBegin
  2
*D45
 70
     1
 10
0.0
 20
0.0
 30
0.0
  3
*D45
  1

  0
LINE
  5
268BC
330
2665A
100
AcDbEntity
  8
寸法
 62
     0
 48
50.0
370
    -2
100
AcDbLine
 10
11553.6
 20
7502.039479632578
 30
0.0
 11
11553.6
 21
8268.30593772649
 31
0.0
  0
LINE
  5
268BD
330
2665A
100
AcDbEntity
  8
寸法
 62
     0
 48
50.0
370
    -2
100
AcDbLine
 10
11430.6
 20
7429.039479632578
 30
0.0
 11
11430.6
 21
8268.30593772649
 31
0.0
  0
LINE
  5
268BE
330
2665A
100
AcDbEntity
  8
寸法
 62
     0
 48
50.0
370
    -2
100
AcDbLine
 10
11430.6
 20
8208.305937726489
 30
0.0
 11
11553.6
 21
8208.305937726489
 31
0.0
  0
LINE
  5
268BF
330
2665A
100
AcDbEntity
  8
寸法
 62
     0
 48
50.0
370
    -2
100
AcDbLine
 10
11553.6
 20
8208.305937726489
 30
0.0
 11
11965.19188309203
 21
8208.305937726489
 31
0.0
  0
INSERT
  5
268C0
330
2665A
100
AcDbEntity
  8
寸法
 62
     0
 48
50.0
370
    -2
100
AcDbBlockReference
  2
_DOTSMALL
 10
11430.6
 20
8208.305937726489
 30
0.0
 41
100.0
 42
100.0
 43
100.0
 50
180.0
  0
INSERT
  5
268C1
330
2665A
100
AcDbEntity
  8
寸法
 62
     0
 48
50.0
370
    -2
100
AcDbBlockReference
  2
_DOTSMALL
 10
11553.6
 20
8208.305937726489
 30
0.0
 41
100.0
 42
100.0
 43
100.0
  0
MTEXT
  5
268C2
330
2665A
100
AcDbEntity
  8
寸法
 62
     7
 48
50.0
100
AcDbMText
 10
11826.7066017178
 20
8308.317748750111
 30
0.0
 40
120.0
 41
0.0
 71
     5
 72
     1
  1
\A1;123
  7
STYLE1
 73
     1
 44
1.0
1001
ACAD
1000
MTEXTBEGIN
1070
    73
1070
     1
1070
    44
1040
1.0
1070
    74
1070
     0
1000
MTEXTEND
  0
POINT
  5
268C3
330
2665A
100
AcDbEntity
  8
DEFPOINTS
 62
     0
 48
50.0
100
AcDbPoint
 10
11553.6
 20
7482.039479632579
 30
0.0
  0
POINT
  5
268C4
330
2665A
100
AcDbEntity
  8
DEFPOINTS
 62
     0
 48
50.0
100
AcDbPoint
 10
11430.6
 20
7409.039479632578
 30
0.0
  0
POINT
  5
268C5
330
2665A
100
AcDbEntity
  8
DEFPOINTS
 62
     0
 48
50.0
100
AcDbPoint
 10
11430.6
 20
8208.305937726489
 30
0.0
  0
ENDBLK
  5
26666
330
2665A
100
AcDbEntity
  8
0
 48
50.0
100
AcDbBlockEnd
  0
BLOCK
  5
2667E
330
26674
100
AcDbEntity
  8
0
 48
50.0
100
AcDbBlockBegin
  2
*D46
 70
     1
 10
0.0
 20
0.0
 30
0.0
  3
*D46
  1

  0
LINE
  5
268B3
330
26674
100
AcDbEntity
  8
寸法
 62
     0
 48
50.0
370
    -2
100
AcDbLine
 10
10598.60000000001
 20
7072.039479632578
 30
0.0
 11
10598.60000000001
 21
8024.648296302826
 31
0.0
  0
LINE
  5
268B4
330
26674
100
AcDbEntity
  8
寸法
 62
     0
 48
50.0
370
    -2
100
AcDbLine
 10
9648.600000000008
 20
7072.039479632578
 30
0.0
 11
9648.600000000008
 21
8024.648296302826
 31
0.0
  0
LINE
  5
268B5
330
26674
100
AcDbEntity
  8
寸法
 62
     0
 48
50.0
370
    -2
100
AcDbLine
 10
10598.60000000001
 20
7964.648296302826
 30
0.0
 11
9648.600000000008
 21
7964.648296302826
 31
0.0
  0
INSERT
  5
268B6
330
26674
100
AcDbEntity
  8
寸法
 62
     0
 48
50.0
370
    -2
100
AcDbBlockReference
  2
_DOTSMALL
 10
10598.60000000001
 20
7964.648296302826
 30
0.0
 41
100.0
 42
100.0
 43
100.0
  0
INSERT
  5
268B7
330
26674
100
AcDbEntity
  8
寸法
 62
     0
 48
50.0
370
    -2
100
AcDbBlockReference
  2
_DOTSMALL
 10
9648.600000000008
 20
7964.648296302826
 30
0.0
 41
100.0
 42
100.0
 43
100.0
 50
180.0
  0
MTEXT
  5
268B8
330
26674
100
AcDbEntity
  8
寸法
 62
     7
 48
50.0
100
AcDbMText
 10
10123.60000000001
 20
8064.648296302825
 30
0.0
 40
120.0
 41
0.0
 71
     5
 72
     1
  1
\A1;950
  7
STYLE1
 73
     1
 44
1.0
1001
ACAD
1000
MTEXTBEGIN
1070
    73
1070
     1
1070
    44
1040
1.0
1070
    74
1070
     0
1000
MTEXTEND
  0
POINT
  5
268B9
330
26674
100
AcDbEntity
  8
DEFPOINTS
 62
     0
 48
50.0
100
AcDbPoint
 10
10598.60000000001
 20
7052.039479632579
 30
0.0
  0
POINT
  5
268BA
330
26674
100
AcDbEntity
  8
DEFPOINTS
 62
     0
 48
50.0
100
AcDbPoint
 10
9648.600000000008
 20
7052.039479632579
 30
0.0
  0
POINT
  5
268BB
330
26674
100
AcDbEntity
  8
DEFPOINTS
 62
     0
 48
50.0
100
AcDbPoint
 10
9648.600000000008
 20
7964.648296302826
 30
0.0
  0
ENDBLK
  5
2667F
330
26674
100
AcDbEntity
  8
0
 48
50.0
100
AcDbBlockEnd
  0
BLOCK
  5
2668A
330
26680
100
AcDbEntity
  8
0
 48
50.0
100
AcDbBlockBegin
  2
*D47
 70
     1
 10
0.0
 20
0.0
 30
0.0
  3
*D47
  1

  0
LINE
  5
268AA
330
26680
100
AcDbEntity
  8
寸法
 62
     0
 48
50.0
370
    -2
100
AcDbLine
 10
11430.6
 20
7429.039479632578
 30
0.0
 11
11430.6
 21
8268.30593772649
 31
0.0
  0
LINE
  5
268AB
330
26680
100
AcDbEntity
  8
寸法
 62
     0
 48
50.0
370
    -2
100
AcDbLine
 10
8580.600000000002
 20
7429.039479632578
 30
0.0
 11
8580.600000000002
 21
8268.30593772649
 31
0.0
  0
LINE
  5
268AC
330
26680
100
AcDbEntity
  8
寸法
 62
     0
 48
50.0
370
    -2
100
AcDbLine
 10
11430.6
 20
8208.305937726489
 30
0.0
 11
8580.600000000002
 21
8208.305937726489
 31
0.0
  0
INSERT
  5
268AD
330
26680
100
AcDbEntity
  8
寸法
 62
     0
 48
50.0
370
    -2
100
AcDbBlockReference
  2
_DOTSMALL
 10
11430.6
 20
8208.305937726489
 30
0.0
 41
100.0
 42
100.0
 43
100.0
  0
INSERT
  5
268AE
330
26680
100
AcDbEntity
  8
寸法
 62
     0
 48
50.0
370
    -2
100
AcDbBlockReference
  2
_DOTSMALL
 10
8580.600000000002
 20
8208.305937726489
 30
0.0
 41
100.0
 42
100.0
 43
100.0
 50
180.0
  0
MTEXT
  5
268AF
330
26680
100
AcDbEntity
  8
寸法
 62
     7
 48
50.0
100
AcDbMText
 10
10005.6
 20
8308.317748750111
 30
0.0
 40
120.0
 41
0.0
 71
     5
 72
     1
  1
\A1;2850
  7
STYLE1
 73
     1
 44
1.0
1001
ACAD
1000
MTEXTBEGIN
1070
    73
1070
     1
1070
    44
1040
1.0
1070
    74
1070
     0
1000
MTEXTEND
  0
POINT
  5
268B0
330
26680
100
AcDbEntity
  8
DEFPOINTS
 62
     0
 48
50.0
100
AcDbPoint
 10
11430.6
 20
7409.039479632578
 30
0.0
  0
POINT
  5
268B1
330
26680
100
AcDbEntity
  8
DEFPOINTS
 62
     0
 48
50.0
100
AcDbPoint
 10
8580.600000000002
 20
7409.039479632578
 30
0.0
  0
POINT
  5
268B2
330
26680
100
AcDbEntity
  8
DEFPOINTS
 62
     0
 48
50.0
100
AcDbPoint
 10
8580.600000000002
 20
8208.305937726489
 30
0.0
  0
ENDBLK
  5
2668B
330
26680
100
AcDbEntity
  8
0
 48
50.0
100
AcDbBlockEnd
  0
BLOCK
  5
26696
330
2668C
100
AcDbEntity
  8
0
 48
50.0
100
AcDbBlockBegin
  2
*D48
 70
     1
 10
0.0
 20
0.0
 30
0.0
  3
*D48
  1

  0
LINE
  5
268A1
330
2668C
100
AcDbEntity
  8
寸法
 62
     0
 48
50.0
370
    -2
100
AcDbLine
 10
9648.600000000008
 20
7072.039479632578
 30
0.0
 11
9648.600000000008
 21
8024.648296302826
 31
0.0
  0
LINE
  5
268A2
330
2668C
100
AcDbEntity
  8
寸法
 62
     0
 48
50.0
370
    -2
100
AcDbLine
 10
8698.600000000007
 20
7072.039479632578
 30
0.0
 11
8698.600000000007
 21
8024.648296302826
 31
0.0
  0
LINE
  5
268A3
330
2668C
100
AcDbEntity
  8
寸法
 62
     0
 48
50.0
370
    -2
100
AcDbLine
 10
9648.600000000008
 20
7964.648296302826
 30
0.0
 11
8698.600000000007
 21
7964.648296302826
 31
0.0
  0
INSERT
  5
268A4
330
2668C
100
AcDbEntity
  8
寸法
 62
     0
 48
50.0
370
    -2
100
AcDbBlockReference
  2
_DOTSMALL
 10
9648.600000000008
 20
7964.648296302826
 30
0.0
 41
100.0
 42
100.0
 43
100.0
  0
INSERT
  5
268A5
330
2668C
100
AcDbEntity
  8
寸法
 62
     0
 48
50.0
370
    -2
100
AcDbBlockReference
  2
_DOTSMALL
 10
8698.600000000007
 20
7964.648296302826
 30
0.0
 41
100.0
 42
100.0
 43
100.0
 50
180.0
  0
MTEXT
  5
268A6
330
2668C
100
AcDbEntity
  8
寸法
 62
     7
 48
50.0
100
AcDbMText
 10
9173.600000000007
 20
8064.648296302825
 30
0.0
 40
120.0
 41
0.0
 71
     5
 72
     1
  1
\A1;950
  7
STYLE1
 73
     1
 44
1.0
1001
ACAD
1000
MTEXTBEGIN
1070
    73
1070
     1
1070
    44
1040
1.0
1070
    74
1070
     0
1000
MTEXTEND
  0
POINT
  5
268A7
330
2668C
100
AcDbEntity
  8
DEFPOINTS
 62
     0
 48
50.0
100
AcDbPoint
 10
9648.600000000008
 20
7052.039479632579
 30
0.0
  0
POINT
  5
268A8
330
2668C
100
AcDbEntity
  8
DEFPOINTS
 62
     0
 48
50.0
100
AcDbPoint
 10
8698.600000000007
 20
7052.039479632579
 30
0.0
  0
POINT
  5
268A9
330
2668C
100
AcDbEntity
  8
DEFPOINTS
 62
     0
 48
50.0
100
AcDbPoint
 10
8698.600000000007
 20
7964.648296302826
 30
0.0
  0
ENDBLK
  5
26697
330
2668C
100
AcDbEntity
  8
0
 48
50.0
100
AcDbBlockEnd
  0
BLOCK
  5
266A2
330
26698
100
AcDbEntity
  8
0
 48
50.0
100
AcDbBlockBegin
  2
*D49
 70
     1
 10
0.0
 20
0.0
 30
0.0
  3
*D49
  1

  0
LINE
  5
26898
330
26698
100
AcDbEntity
  8
寸法
 62
     0
 48
50.0
370
    -2
100
AcDbLine
 10
11553.6
 20
7502.039479632578
 30
0.0
 11
11553.6
 21
8024.648296302826
 31
0.0
  0
LINE
  5
26899
330
26698
100
AcDbEntity
  8
寸法
 62
     0
 48
50.0
370
    -2
100
AcDbLine
 10
10598.60000000001
 20
7072.039479632578
 30
0.0
 11
10598.60000000001
 21
8024.648296302826
 31
0.0
  0
LINE
  5
2689A
330
26698
100
AcDbEntity
  8
寸法
 62
     0
 48
50.0
370
    -2
100
AcDbLine
 10
11553.6
 20
7964.648296302826
 30
0.0
 11
10598.60000000001
 21
7964.648296302826
 31
0.0
  0
INSERT
  5
2689B
330
26698
100
AcDbEntity
  8
寸法
 62
     0
 48
50.0
370
    -2
100
AcDbBlockReference
  2
_DOTSMALL
 10
11553.6
 20
7964.648296302826
 30
0.0
 41
100.0
 42
100.0
 43
100.0
  0
INSERT
  5
2689C
330
26698
100
AcDbEntity
  8
寸法
 62
     0
 48
50.0
370
    -2
100
AcDbBlockReference
  2
_DOTSMALL
 10
10598.60000000001
 20
7964.648296302826
 30
0.0
 41
100.0
 42
100.0
 43
100.0
 50
180.0
  0
MTEXT
  5
2689D
330
26698
100
AcDbEntity
  8
寸法
 62
     7
 48
50.0
100
AcDbMText
 10
11076.1
 20
8064.648296302825
 30
0.0
 40
120.0
 41
0.0
 71
     5
 72
     1
  1
\A1;955
  7
STYLE1
 73
     1
 44
1.0
1001
ACAD
1000
MTEXTBEGIN
1070
    73
1070
     1
1070
    44
1040
1.0
1070
    74
1070
     0
1000
MTEXTEND
  0
POINT
  5
2689E
330
26698
100
AcDbEntity
  8
DEFPOINTS
 62
     0
 48
50.0
100
AcDbPoint
 10
11553.6
 20
7482.039479632579
 30
0.0
  0
POINT
  5
2689F
330
26698
100
AcDbEntity
  8
DEFPOINTS
 62
     0
 48
50.0
100
AcDbPoint
 10
10598.60000000001
 20
7052.039479632579
 30
0.0
  0
POINT
  5
268A0
330
26698
100
AcDbEntity
  8
DEFPOINTS
 62
     0
 48
50.0
100
AcDbPoint
 10
10598.60000000001
 20
7964.648296302826
 30
0.0
  0
ENDBLK
  5
266A3
330
26698
100
AcDbEntity
  8
0
 48
50.0
100
AcDbBlockEnd
  0
BLOCK
  5
26D42
330
26D38
100
AcDbEntity
  8
0
 48
50.0
100
AcDbBlockBegin
  2
*D56
 70
     1
 10
0.0
 20
0.0
 30
0.0
  3
*D56
  1

  0
LINE
  5
26D82
330
26D38
100
AcDbEntity
  8
寸法
 62
     0
 48
50.0
370
    -2
100
AcDbLine
 10
6477.835308273405
 20
2011.889515405417
 30
0.0
 11
6477.835308273405
 21
2471.557323321798
 31
0.0
  0
LINE
  5
26D83
330
26D38
100
AcDbEntity
  8
寸法
 62
     0
 48
50.0
370
    -2
100
AcDbLine
 10
6285.835308273405
 20
2011.889515405417
 30
0.0
 11
6285.835308273405
 21
2471.557323321798
 31
0.0
  0
LINE
  5
26D84
330
26D38
100
AcDbEntity
  8
寸法
 62
     0
 48
50.0
370
    -2
100
AcDbLine
 10
6477.835308273405
 20
2411.557323321798
 30
0.0
 11
6285.835308273405
 21
2411.557323321798
 31
0.0
  0
INSERT
  5
26D85
330
26D38
100
AcDbEntity
  8
寸法
 62
     0
 48
50.0
370
    -2
100
AcDbBlockReference
  2
_DOTSMALL
 10
6477.835308273405
 20
2411.557323321798
 30
0.0
 41
100.0
 42
100.0
 43
100.0
  0
INSERT
  5
26D86
330
26D38
100
AcDbEntity
  8
寸法
 62
     0
 48
50.0
370
    -2
100
AcDbBlockReference
  2
_DOTSMALL
 10
6285.835308273405
 20
2411.557323321798
 30
0.0
 41
100.0
 42
100.0
 43
100.0
 50
180.0
  0
MTEXT
  5
26D87
330
26D38
100
AcDbEntity
  8
寸法
 62
     7
 48
50.0
100
AcDbMText
 10
6381.835308273405
 20
2711.592756392664
 30
0.0
 40
120.0
 41
0.0
 71
     5
 72
     1
  1
\A1;120\P200\P280
  7
STYLE1
 73
     1
 44
1.0
1001
ACAD
1000
MTEXTBEGIN
1070
    73
1070
     1
1070
    44
1040
1.0
1070
    74
1070
     0
1000
MTEXTEND
  0
POINT
  5
26D88
330
26D38
100
AcDbEntity
  8
DEFPOINTS
 62
     0
 48
50.0
100
AcDbPoint
 10
6477.835308273405
 20
1991.889515405417
 30
0.0
  0
POINT
  5
26D89
330
26D38
100
AcDbEntity
  8
DEFPOINTS
 62
     0
 48
50.0
100
AcDbPoint
 10
6285.835308273405
 20
1991.889515405417
 30
0.0
  0
POINT
  5
26D8A
330
26D38
100
AcDbEntity
  8
DEFPOINTS
 62
     0
 48
50.0
100
AcDbPoint
 10
6285.835308273405
 20
2411.557323321798
 30
0.0
  0
ENDBLK
  5
26D43
330
26D38
100
AcDbEntity
  8
0
 48
50.0
100
AcDbBlockEnd
  0
BLOCK
  5
26D4E
330
26D44
100
AcDbEntity
  8
0
 48
50.0
100
AcDbBlockBegin
  2
*D57
 70
     1
 10
0.0
 20
0.0
 30
0.0
  3
*D57
  1

  0
LINE
  5
26D8B
330
26D44
100
AcDbEntity
  8
寸法
 62
     0
 48
50.0
370
    -2
100
AcDbLine
 10
6157.835308273406
 20
1059.889515405417
 30
0.0
 11
6157.835308273406
 21
609.4598774002569
 31
0.0
  0
LINE
  5
26D8C
330
26D44
100
AcDbEntity
  8
寸法
 62
     0
 48
50.0
370
    -2
100
AcDbLine
 10
6605.835308273405
 20
1059.889515405417
 30
0.0
 11
6605.835308273405
 21
609.4598774002569
 31
0.0
  0
LINE
  5
26D8D
330
26D44
100
AcDbEntity
  8
寸法
 62
     0
 48
50.0
370
    -2
100
AcDbLine
 10
6157.835308273406
 20
669.459877400257
 30
0.0
 11
6605.835308273405
 21
669.459877400257
 31
0.0
  0
INSERT
  5
26D8E
330
26D44
100
AcDbEntity
  8
寸法
 62
     0
 48
50.0
370
    -2
100
AcDbBlockReference
  2
_DOTSMALL
 10
6157.835308273406
 20
669.459877400257
 30
0.0
 41
100.0
 42
100.0
 43
100.0
 50
180.0
  0
INSERT
  5
26D8F
330
26D44
100
AcDbEntity
  8
寸法
 62
     0
 48
50.0
370
    -2
100
AcDbBlockReference
  2
_DOTSMALL
 10
6605.835308273405
 20
669.459877400257
 30
0.0
 41
100.0
 42
100.0
 43
100.0
  0
MTEXT
  5
26D90
330
26D44
100
AcDbEntity
  8
寸法
 62
     7
 48
50.0
100
AcDbMText
 10
6361.738549595182
 20
769.459877400257
 30
0.0
 40
120.0
 41
0.0
 71
     5
 72
     1
  1
\A1;300
  7
STYLE1
 73
     1
 44
1.0
1001
ACAD
1000
MTEXTBEGIN
1070
    73
1070
     1
1070
    44
1040
1.0
1070
    74
1070
     0
1000
MTEXTEND
  0
POINT
  5
26D91
330
26D44
100
AcDbEntity
  8
DEFPOINTS
 62
     0
 48
50.0
100
AcDbPoint
 10
6157.835308273406
 20
1079.889515405417
 30
0.0
  0
POINT
  5
26D92
330
26D44
100
AcDbEntity
  8
DEFPOINTS
 62
     0
 48
50.0
100
AcDbPoint
 10
6605.835308273405
 20
1079.889515405417
 30
0.0
  0
POINT
  5
26D93
330
26D44
100
AcDbEntity
  8
DEFPOINTS
 62
     0
 48
50.0
100
AcDbPoint
 10
6605.835308273405
 20
669.459877400257
 30
0.0
  0
ENDBLK
  5
26D4F
330
26D44
100
AcDbEntity
  8
0
 48
50.0
100
AcDbBlockEnd
  0
BLOCK
  5
26D5A
330
26D50
100
AcDbEntity
  8
0
 48
50.0
100
AcDbBlockBegin
  2
*D58
 70
     1
 10
0.0
 20
0.0
 30
0.0
  3
*D58
  1

  0
LINE
  5
26D94
330
26D50
100
AcDbEntity
  8
寸法
 62
     0
 48
50.0
370
    -2
100
AcDbLine
 10
6265.835308273405
 20
1991.889515405417
 30
0.0
 11
5490.798069711665
 21
1991.889515405417
 31
0.0
  0
LINE
  5
26D95
330
26D50
100
AcDbEntity
  8
寸法
 62
     0
 48
50.0
370
    -2
100
AcDbLine
 10
6057.83530827341
 20
1207.889515405417
 30
0.0
 11
5490.798069711665
 21
1207.889515405417
 31
0.0
  0
LINE
  5
26D96
330
26D50
100
AcDbEntity
  8
寸法
 62
     0
 48
50.0
370
    -2
100
AcDbLine
 10
5550.798069711666
 20
1991.889515405417
 30
0.0
 11
5550.798069711666
 21
1207.889515405417
 31
0.0
  0
INSERT
  5
26D97
330
26D50
100
AcDbEntity
  8
寸法
 62
     0
 48
50.0
370
    -2
100
AcDbBlockReference
  2
_DOTSMALL
 10
5550.798069711666
 20
1991.889515405417
 30
0.0
 41
100.0
 42
100.0
 43
100.0
 50
90.0
  0
INSERT
  5
26D98
330
26D50
100
AcDbEntity
  8
寸法
 62
     0
 48
50.0
370
    -2
100
AcDbBlockReference
  2
_DOTSMALL
 10
5550.798069711666
 20
1207.889515405417
 30
0.0
 41
100.0
 42
100.0
 43
100.0
 50
270.0
  0
MTEXT
  5
26D99
330
26D50
100
AcDbEntity
  8
寸法
 62
     7
 48
50.0
100
AcDbMText
 10
5450.798069711666
 20
1579.429665061418
 30
0.0
 40
120.0
 41
0.0
 71
     5
 72
     1
  1
\A1;540
  7
STYLE1
 11
0.0000000000000001
 21
1.0
 31
0.0
 73
     1
 44
1.0
1001
ACAD
1000
MTEXTBEGIN
1070
    73
1070
     1
1070
    44
1040
1.0
1070
    74
1070
     0
1000
MTEXTEND
  0
POINT
  5
26D9A
330
26D50
100
AcDbEntity
  8
DEFPOINTS
 62
     0
 48
50.0
100
AcDbPoint
 10
6285.835308273405
 20
1991.889515405417
 30
0.0
  0
POINT
  5
26D9B
330
26D50
100
AcDbEntity
  8
DEFPOINTS
 62
     0
 48
50.0
100
AcDbPoint
 10
6077.835308273409
 20
1207.889515405417
 30
0.0
  0
POINT
  5
26D9C
330
26D50
100
AcDbEntity
  8
DEFPOINTS
 62
     0
 48
50.0
100
AcDbPoint
 10
5550.798069711666
 20
1207.889515405417
 30
0.0
  0
ENDBLK
  5
26D5B
330
26D50
100
AcDbEntity
  8
0
 48
50.0
100
AcDbBlockEnd
  0
BLOCK
  5
26D66
330
26D5C
100
AcDbEntity
  8
0
 48
50.0
100
AcDbBlockBegin
  2
*D59
 70
     1
 10
0.0
 20
0.0
 30
0.0
  3
*D59
  1

  0
LINE
  5
26D9D
330
26D5C
100
AcDbEntity
  8
寸法
 62
     0
 48
50.0
370
    -2
100
AcDbLine
 10
6137.835308273405
 20
1447.889515405417
 30
0.0
 11
5955.414994540946
 21
1447.889515405417
 31
0.0
  0
LINE
  5
26D9E
330
26D5C
100
AcDbEntity
  8
寸法
 62
     0
 48
50.0
370
    -2
100
AcDbLine
 10
6057.83530827341
 20
1207.889515405417
 30
0.0
 11
5955.414994540946
 21
1207.889515405417
 31
0.0
  0
LINE
  5
26D9F
330
26D5C
100
AcDbEntity
  8
寸法
 62
     0
 48
50.0
370
    -2
100
AcDbLine
 10
6015.414994540947
 20
1447.889515405417
 30
0.0
 11
6015.414994540947
 21
1207.889515405417
 31
0.0
  0
INSERT
  5
26DA0
330
26D5C
100
AcDbEntity
  8
寸法
 62
     0
 48
50.0
370
    -2
100
AcDbBlockReference
  2
_DOTSMALL
 10
6015.414994540947
 20
1447.889515405417
 30
0.0
 41
100.0
 42
100.0
 43
100.0
 50
90.0
  0
INSERT
  5
26DA1
330
26D5C
100
AcDbEntity
  8
寸法
 62
     0
 48
50.0
370
    -2
100
AcDbBlockReference
  2
_DOTSMALL
 10
6015.414994540947
 20
1207.889515405417
 30
0.0
 41
100.0
 42
100.0
 43
100.0
 50
270.0
  0
MTEXT
  5
26DA2
330
26D5C
100
AcDbEntity
  8
寸法
 62
     7
 48
50.0
100
AcDbMText
 10
5915.414994540946
 20
1327.889515405418
 30
0.0
 40
120.0
 41
0.0
 71
     5
 72
     1
  1
\A1;150
  7
STYLE1
 11
0.0000000000000001
 21
1.0
 31
0.0
 73
     1
 44
1.0
1001
ACAD
1000
MTEXTBEGIN
1070
    73
1070
     1
1070
    44
1040
1.0
1070
    74
1070
     0
1000
MTEXTEND
  0
POINT
  5
26DA3
330
26D5C
100
AcDbEntity
  8
DEFPOINTS
 62
     0
 48
50.0
100
AcDbPoint
 10
6157.835308273406
 20
1447.889515405417
 30
0.0
  0
POINT
  5
26DA4
330
26D5C
100
AcDbEntity
  8
DEFPOINTS
 62
     0
 48
50.0
100
AcDbPoint
 10
6077.835308273409
 20
1207.889515405417
 30
0.0
  0
POINT
  5
26DA5
330
26D5C
100
AcDbEntity
  8
DEFPOINTS
 62
     0
 48
50.0
100
AcDbPoint
 10
6015.414994540947
 20
1207.889515405417
 30
0.0
  0
ENDBLK
  5
26D67
330
26D5C
100
AcDbEntity
  8
0
 48
50.0
100
AcDbBlockEnd
  0
BLOCK
  5
26D74
330
26D68
100
AcDbEntity
  8
0
 48
50.0
100
AcDbBlockBegin
  2
*D60
 70
     1
 10
0.0
 20
0.0
 30
0.0
  3
*D60
  1

  0
LINE
  5
26DA6
330
26D68
100
AcDbEntity
  8
寸法
 62
     0
 48
50.0
370
    -2
100
AcDbLine
 10
8232.6746214506
 20
2044.649515405418
 30
0.0
 11
9237.797887338471
 21
2044.649515405418
 31
0.0
  0
LINE
  5
26DA7
330
26D68
100
AcDbEntity
  8
寸法
 62
     0
 48
50.0
370
    -2
100
AcDbLine
 10
8419.874621450599
 20
1991.889515405417
 30
0.0
 11
9237.797887338471
 21
1991.889515405417
 31
0.0
  0
LINE
  5
26DA8
330
26D68
100
AcDbEntity
  8
寸法
 62
     0
 48
50.0
370
    -2
100
AcDbLine
 10
9177.797887338471
 20
2044.649515405418
 30
0.0
 11
9177.797887338471
 21
2144.649515405419
 31
0.0
  0
LINE
  5
26DA9
330
26D68
100
AcDbEntity
  8
寸法
 62
     0
 48
50.0
370
    -2
100
AcDbLine
 10
9177.797887338471
 20
1991.889515405417
 30
0.0
 11
9177.797887338471
 21
1259.87170856245
 31
0.0
  0
LINE
  5
26DAA
330
26D68
100
AcDbEntity
  8
寸法
 62
     0
 48
50.0
370
    -2
100
AcDbLine
 10
9177.797887338471
 20
2044.649515405418
 30
0.0
 11
9177.797887338471
 21
1991.889515405417
 31
0.0
  0
INSERT
  5
26DAB
330
26D68
100
AcDbEntity
  8
寸法
 62
     0
 48
50.0
370
    -2
100
AcDbBlockReference
  2
_DOTSMALL
 10
9177.797887338471
 20
2044.649515405418
 30
0.0
 41
100.0
 42
100.0
 43
100.0
 50
270.0
  0
INSERT
  5
26DAC
330
26D68
100
AcDbEntity
  8
寸法
 62
     0
 48
50.0
370
    -2
100
AcDbBlockReference
  2
_DOTSMALL
 10
9177.797887338471
 20
1991.889515405417
 30
0.0
 41
100.0
 42
100.0
 43
100.0
 50
90.0
  0
MTEXT
  5
26DAD
330
26D68
100
AcDbEntity
  8
寸法
 62
     7
 48
50.0
100
AcDbMText
 10
9077.786076314849
 20
1525.880611983934
 30
0.0
 40
120.0
 41
0.0
 71
     5
 72
     1
  1
\A1;20～25
  7
STYLE1
 11
0.0000000000000001
 21
1.0
 31
0.0
 73
     1
 44
1.0
1001
ACAD
1000
MTEXTBEGIN
1070
    73
1070
     1
1070
    44
1040
1.0
1070
    74
1070
     0
1000
MTEXTEND
  0
POINT
  5
26DAE
330
26D68
100
AcDbEntity
  8
DEFPOINTS
 62
     0
 48
50.0
100
AcDbPoint
 10
8212.674621450601
 20
2044.649515405418
 30
0.0
  0
POINT
  5
26DAF
330
26D68
100
AcDbEntity
  8
DEFPOINTS
 62
     0
 48
50.0
100
AcDbPoint
 10
8399.874621450599
 20
1991.889515405417
 30
0.0
  0
POINT
  5
26DB0
330
26D68
100
AcDbEntity
  8
DEFPOINTS
 62
     0
 48
50.0
100
AcDbPoint
 10
9177.797887338471
 20
1991.889515405417
 30
0.0
  0
ENDBLK
  5
26D75
330
26D68
100
AcDbEntity
  8
0
 48
50.0
100
AcDbBlockEnd
  0
BLOCK
  5
26D80
330
26D76
100
AcDbEntity
  8
0
 48
50.0
100
AcDbBlockBegin
  2
*D61
 70
     1
 10
0.0
 20
0.0
 30
0.0
  3
*D61
  1

  0
LINE
  5
26DB1
330
26D76
100
AcDbEntity
  8
寸法
 62
     0
 48
50.0
370
    -2
100
AcDbLine
 10
8419.874621450599
 20
1991.889515405417
 30
0.0
 11
8961.743221219443
 21
1991.889515405417
 31
0.0
  0
LINE
  5
26DB2
330
26D76
100
AcDbEntity
  8
寸法
 62
     0
 48
50.0
370
    -2
100
AcDbLine
 10
8419.874621450599
 20
1667.889515405416
 30
0.0
 11
8961.743221219443
 21
1667.889515405416
 31
0.0
  0
LINE
  5
26DB3
330
26D76
100
AcDbEntity
  8
寸法
 62
     0
 48
50.0
370
    -2
100
AcDbLine
 10
8901.743221219444
 20
1991.889515405417
 30
0.0
 11
8901.743221219444
 21
1667.889515405416
 31
0.0
  0
INSERT
  5
26DB4
330
26D76
100
AcDbEntity
  8
寸法
 62
     0
 48
50.0
370
    -2
100
AcDbBlockReference
  2
_DOTSMALL
 10
8901.743221219444
 20
1991.889515405417
 30
0.0
 41
100.0
 42
100.0
 43
100.0
 50
90.0
  0
INSERT
  5
26DB5
330
26D76
100
AcDbEntity
  8
寸法
 62
     0
 48
50.0
370
    -2
100
AcDbBlockReference
  2
_DOTSMALL
 10
8901.743221219444
 20
1667.889515405416
 30
0.0
 41
100.0
 42
100.0
 43
100.0
 50
270.0
  0
MTEXT
  5
26DB6
330
26D76
100
AcDbEntity
  8
寸法
 62
     7
 48
50.0
100
AcDbMText
 10
8801.743221219444
 20
1829.889515405418
 30
0.0
 40
120.0
 41
0.0
 71
     5
 72
     1
  1
\A1;180
  7
STYLE1
 11
0.0000000000000001
 21
1.0
 31
0.0
 73
     1
 44
1.0
1001
ACAD
1000
MTEXTBEGIN
1070
    73
1070
     1
1070
    44
1040
1.0
1070
    74
1070
     0
1000
MTEXTEND
  0
POINT
  5
26DB7
330
26D76
100
AcDbEntity
  8
DEFPOINTS
 62
     0
 48
50.0
100
AcDbPoint
 10
8399.874621450599
 20
1991.889515405417
 30
0.0
  0
POINT
  5
26DB8
330
26D76
100
AcDbEntity
  8
DEFPOINTS
 62
     0
 48
50.0
100
AcDbPoint
 10
8399.874621450599
 20
1667.889515405416
 30
0.0
  0
POINT
  5
26DB9
330
26D76
100
AcDbEntity
  8
DEFPOINTS
 62
     0
 48
50.0
100
AcDbPoint
 10
8901.743221219444
 20
1667.889515405416
 30
0.0
  0
ENDBLK
  5
26D81
330
26D76
100
AcDbEntity
  8
0
 48
50.0
100
AcDbBlockEnd
  0
ENDSEC
  0
SECTION
  2
ENTITIES
  0
MTEXT
  5
763F
330
747D
100
AcDbEntity
  8
0
100
AcDbMText
 10
302.846345836809
 20
280.1983726409901
 30
0.0
 40
3.5
 41
5.323721266742722
 71
     1
 72
     5
  1

  7
MSMINCHO
 73
     1
 44
1.0
1001
ACAD
1000
MTEXTBEGIN
1070
    73
1070
     1
1070
    44
1040
1.0
1070
    74
1070
     0
1000
MTEXTEND
  0
LINE
  5
10B57
330
747D
100
AcDbEntity
  8
補助
  6
PHANTOM
 62
   230
 48
50.0
100
AcDbLine
 10
139.9999999999995
 20
11409.6
 30
0.0
 11
16307.2
 21
11409.6
 31
0.0
  0
LINE
  5
10B59
330
747D
100
AcDbEntity
  8
仕様書枠
  6
Continuous
 48
50.0
100
AcDbLine
 10
13107.2
 20
1200.0
 30
0.0
 11
13107.2
 21
-0.0000000000000729
 31
0.0
  0
LINE
  5
10B5D
330
747D
100
AcDbEntity
  8
仕様書枠
 48
50.0
100
AcDbLine
 10
140.0
 20
0.0
 30
0.0
 11
16307.2
 21
-0.0000000000000909
 31
0.0
  0
LINE
  5
10B5E
330
747D
100
AcDbEntity
  8
補助
  6
PHANTOM
 62
   230
 48
50.0
100
AcDbLine
 10
16307.2
 20
11409.6
 30
0.0
 11
16307.2
 21
1200.0
 31
0.0
  0
LINE
  5
10B6C
330
747D
100
AcDbEntity
  8
仕様書枠
 48
50.0
100
AcDbLine
 10
13107.2
 20
1200.0
 30
0.0
 11
16307.2
 21
1200.0
 31
0.0
  0
TEXT
  5
10B73
330
747D
100
AcDbEntity
  8
文字
 62
     7
 48
50.0
100
AcDbText
 10
13162.9790565769
 20
895.0906074299405
 30
0.0
 40
200.0
  1
基 礎 図
  7
STYLE2
100
AcDbText
  0
LINE
  5
10B7B
330
747D
100
AcDbEntity
  8
仕様書枠
 48
50.0
100
AcDbLine
 10
13107.2
 20
800.0
 30
0.0
 11
14251.2
 21
800.0
 31
0.0
  0
LINE
  5
10B88
330
747D
100
AcDbEntity
  8
仕様書枠
  6
Continuous
 48
50.0
100
AcDbLine
 10
14251.2
 20
1200.0
 30
0.0
 11
14251.2
 21
800.0
 31
0.0
  0
LINE
  5
16462
330
747D
100
AcDbEntity
  8
仕様書枠
 48
50.0
100
AcDbLine
 10
16307.2
 20
1200.0
 30
0.0
 11
16307.2
 21
-0.0000000000000909
 31
0.0
  0
LINE
  5
1903B
330
747D
100
AcDbEntity
  8
補助
  6
PHANTOM
 62
   230
 48
50.0
100
AcDbLine
 10
140.0
 20
0.0
 30
0.0
 11
139.9999999999995
 21
11409.6
 31
0.0
  0
LEADER
  5
1AC27
330
747D
100
AcDbEntity
  8
寸法
 48
50.0
100
AcDbLeader
  3
INABA_S50G
 73
     0
 74
     0
 75
     1
 40
120.0
 41
720.0000000000001
 76
     3
 10
11555.05985718447
 20
7012.770249692387
 30
0.0
 10
11711.83343157075
 20
6751.756336124555
 30
0.0
 10
11836.83343157075
 20
6751.756336124555
 30
0.0
340
1AC28
1001
ACAD
1000
DSTYLE
1002
{
1070
   341
1005
0
1070
    40
1040
1.0
1070
   343
1005
0
1070
   344
1005
0
1002
}
  0
MTEXT
  5
1AC28
102
{ACAD_REACTORS
330
1AC27
102
}
330
747D
100
AcDbEntity
  8
部品1
 62
     7
 48
50.0
100
AcDbMText
 10
12581.83343157075
 20
6836.756336124555
 30
0.0
 40
120.0
 41
0.0
 71
     6
 72
     1
  1
\A1;床下換気口
  7
STYLE1
 73
     1
 44
1.0
1001
ACAD
1000
MTEXTBEGIN
1070
    73
1070
     1
1070
    44
1040
1.0
1070
    74
1070
     0
1000
MTEXTEND
  0
TEXT
  5
1AC29
330
747D
100
AcDbEntity
  8
部品1
 48
50.0
100
AcDbText
 10
11902.43013846117
 20
6071.211977345456
 30
0.0
 40
80.0
  1
(a=45,b=55,c=75)
  7
STYLE1
100
AcDbText
  0
TEXT
  5
1AC2A
330
747D
100
AcDbEntity
  8
部品1
 48
50.0
100
AcDbText
 10
11743.85112970688
 20
6178.05719821421
 30
0.0
 40
80.0
  1
※a,b,cは屋根の出幅です。
  7
STYLE1
100
AcDbText
  0
MTEXT
  5
1AC2B
102
{ACAD_REACTORS
330
1AC2C
102
}
330
747D
100
AcDbEntity
  8
部品1
 62
     7
 48
50.0
100
AcDbMText
 10
12541.63832569548
 20
6357.367885147285
 30
0.0
 40
120.0
 41
0.0
 71
     6
 72
     1
  1
\A1;屋根の外寸
  7
STYLE1
 73
     1
 44
1.0
1001
ACAD
1000
MTEXTBEGIN
1070
    73
1070
     1
1070
    44
1040
1.0
1070
    74
1070
     0
1000
MTEXTEND
  0
LEADER
  5
1AC2C
330
747D
100
AcDbEntity
  8
寸法
 48
50.0
100
AcDbLeader
  3
INABA_S50G
 73
     0
 74
     0
 75
     1
 40
120.0
 41
672.0
 76
     3
 10
11603.69831350344
 20
6531.25722861086
 30
0.0
 10
11719.63832569548
 20
6272.367885147286
 30
0.0
 10
11844.63832569548
 20
6272.367885147286
 30
0.0
340
1AC2B
1001
ACAD
1000
DSTYLE
1002
{
1070
   341
1005
0
1070
    40
1040
1.0
1070
   343
1005
0
1070
   344
1005
0
1002
}
  0
TEXT
  5
1C7A1
330
747D
100
AcDbEntity
  8
文字
 62
     7
 48
50.0
100
AcDbText
 10
13188.16259899338
 20
79.80631269190417
 30
0.0
 40
80.0
  1
※布基礎には換気口を設けてください。
  7
STYLE2
100
AcDbText
  0
TEXT
  5
1C7E7
330
747D
100
AcDbEntity
  8
文字
 62
     7
 48
50.0
100
AcDbText
 10
13188.16259899338
 20
246.7109242801889
 30
0.0
 40
80.0
  1
※寒冷地等は地域の実情に合わせた基礎にして下さい。
  7
STYLE2
100
AcDbText
  0
TEXT
  5
1C7E8
330
747D
100
AcDbEntity
  8
文字
 62
     7
 48
50.0
100
AcDbText
 10
14325.79230300687
 20
499.5983841039506
 30
0.0
 40
160.0
  1
ＮＸＮ－０９ＤＬ－７
  7
STYLE2
100
AcDbText
  0
TEXT
  5
1C7EC
330
747D
100
AcDbEntity
  8
文字
 62
     7
 48
50.0
100
AcDbText
 10
14524.131837222
 20
1031.557706291229
 30
0.0
 40
100.0
  1
<縮尺> S=1/40
  7
STYLE2
100
AcDbText
  0
TEXT
  5
1C7ED
330
747D
100
AcDbEntity
  8
文字
 62
     7
 48
50.0
100
AcDbText
 10
13201.43669998441
 20
477.2740661031257
 30
0.0
 40
160.0
  1
機種名
  7
STYLE2
100
AcDbText
  0
LINE
  5
1C7EF
330
747D
100
AcDbEntity
  8
文字
 62
     7
 48
50.0
100
AcDbLine
 10
13187.2
 20
400.0
 30
0.0
 11
16227.2
 21
400.0
 31
0.0
  0
MTEXT
  5
1D2D5
102
{ACAD_REACTORS
330
1D2D6
102
}
330
747D
100
AcDbEntity
  8
部品1
 62
     7
 48
50.0
100
AcDbMText
 10
12748.99523070988
 20
7797.652223875087
 30
0.0
 40
120.0
 41
0.0
 71
     6
 72
     1
  1
アンカーボルト
  7
STYLE1
 73
     1
 44
1.0
1001
ACAD
1000
MTEXTBEGIN
1070
    73
1070
     1
1070
    44
1040
1.0
1070
    74
1070
     0
1000
MTEXTEND
  0
LEADER
  5
1D2D6
330
747D
100
AcDbEntity
  8
寸法
 48
50.0
100
AcDbLeader
  3
INABA_S50G
 73
     0
 74
     0
 75
     1
 40
120.0
 41
994.3492424049171
 76
     3
 10
11430.68008575701
 20
7359.24732399129
 30
0.0
 10
11604.64598830496
 20
7712.652223875086
 30
0.0
 10
11729.64598830496
 20
7712.652223875086
 30
0.0
340
1D2D5
1001
ACAD
1000
DSTYLE
1002
{
1070
   341
1005
0
1070
    40
1040
1.0
1070
   343
1005
0
1070
   344
1005
0
1002
}
  0
MTEXT
  5
1D332
102
{ACAD_REACTORS
330
1D333
102
}
330
747D
100
AcDbEntity
  8
部品1
 62
     7
 48
50.0
100
AcDbMText
 10
11113.8286970157
 20
6929.826876667978
 30
0.0
 40
120.0
 41
0.0
 71
     6
 72
     1
  1
CB
  7
STYLE1
 73
     1
 44
1.0
1001
ACAD
1000
MTEXTBEGIN
1070
    73
1070
     1
1070
    44
1040
1.0
1070
    74
1070
     0
1000
MTEXTEND
  0
LEADER
  5
1D333
330
747D
100
AcDbEntity
  8
寸法
 48
50.0
100
AcDbLeader
  3
INABA_S50G
 73
     0
 74
     0
 75
     1
 40
120.0
 41
149.591883092037
 76
     3
 10
10686.95401106102
 20
7067.545190222805
 30
0.0
 10
10814.23681392366
 20
6844.826876667979
 30
0.0
 10
10939.23681392366
 20
6844.826876667979
 30
0.0
340
1D332
1001
ACAD
1000
DSTYLE
1002
{
1070
   341
1005
0
1070
    40
1040
1.0
1070
   343
1005
0
1070
   344
1005
0
1002
}
  0
DIMENSION
  5
20DE1
330
747D
100
AcDbEntity
  8
寸法
 48
50.0
100
AcDbDimension
  2
*D19
 10
11598.6
 20
8440.259801691498
 30
0.0
 11
11869.77462120246
 21
8440.259801691498
 31
0.0
 70
   160
  1
a
 71
     5
 42
45.0
  3
INABA_S40G
100
AcDbAlignedDimension
 13
11553.6
 23
7482.039479632579
 33
0.0
 14
11598.6
 24
8208.305937726489
 34
0.0
100
AcDbRotatedDimension
1001
ACAD
1000
DSTYLE
1002
{
1070
   341
1005
0
1002
}
  0
DIMENSION
  5
20DFB
330
747D
100
AcDbEntity
  8
寸法
 48
50.0
100
AcDbDimension
  2
*D20
 10
4893.600000000004
 20
8440.259801691494
 30
0.0
 11
4577.425378797545
 21
8440.259801691494
 31
0.0
 70
   160
  1
a
 71
     5
 42
45.0
  3
INABA_S40G
100
AcDbAlignedDimension
 13
4848.600000000004
 23
8208.305937726485
 33
0.0
 14
4893.600000000004
 24
7482.039479632574
 34
0.0
100
AcDbRotatedDimension
1001
ACAD
1000
DSTYLE
1002
{
1070
   341
1005
0
1002
}
  0
LINE
  5
22711
330
747D
100
AcDbEntity
  8
想像線
 48
10.0
100
AcDbLine
 10
11598.6
 20
7557.039479632582
 30
0.0
 11
4848.600000000003
 21
7557.039479632592
 31
0.0
  0
LINE
  5
22712
330
747D
100
AcDbEntity
  8
想像線
 48
10.0
100
AcDbLine
 10
4848.599999999997
 20
6467.039479632586
 30
0.0
 11
4848.600000000004
 21
7557.039479632582
 31
0.0
  0
LINE
  5
22713
330
747D
100
AcDbEntity
  8
想像線
 48
10.0
100
AcDbLine
 10
11598.6
 20
6467.039479632595
 30
0.0
 11
11598.6
 21
7557.039479632582
 31
0.0
  0
LINE
  5
22714
330
747D
100
AcDbEntity
  8
想像線
 48
10.0
100
AcDbLine
 10
11598.6
 20
6467.039479632595
 30
0.0
 11
4848.599999999996
 21
6467.039479632581
 31
0.0
  0
DIMENSION
  5
22741
330
747D
100
AcDbEntity
  8
寸法
 48
50.0
100
AcDbDimension
  2
*D25
 10
4018.721909610676
 20
7482.039479632574
 30
0.0
 11
3918.721909610675
 21
7519.539479632578
 31
0.0
 70
    32
  1
c
 71
     5
 42
75.00000000000636
  3
INABA_S40G
100
AcDbAlignedDimension
 13
4270.665006330068
 23
7557.039479632582
 33
0.0
 14
4893.600000000004
 24
7482.039479632574
 34
0.0
 50
90.0
100
AcDbRotatedDimension
1001
ACAD
1000
DSTYLE
1002
{
1070
   341
1005
0
1002
}
  0
DIMENSION
  5
2275B
330
747D
100
AcDbEntity
  8
寸法
 48
50.0
100
AcDbDimension
  2
*D26
 10
4018.721909610676
 20
6467.0394796326
 30
0.0
 11
3918.721909610676
 21
6494.539479632589
 31
0.0
 70
    32
  1
b
 71
     5
 42
54.99999999997453
  3
INABA_S40G
100
AcDbAlignedDimension
 13
4893.600000000004
 23
6522.039479632574
 33
0.0
 14
4270.665006330075
 24
6467.0394796326
 34
0.0
 50
90.0
100
AcDbRotatedDimension
1001
ACAD
1000
DSTYLE
1002
{
1070
   341
1005
0
1002
}
  0
DIMENSION
  5
23978
330
747D
100
AcDbEntity
  8
寸法
 48
50.0
100
AcDbDimension
  2
*D27
 10
10898.95750108246
 20
7282.039479632567
 30
0.0
 11
10898.95750108246
 21
7731.610345774303
 31
0.0
 70
   160
 71
     5
 42
200.0
  3
INABA_S40G
100
AcDbAlignedDimension
 13
11098.85468201165
 23
7482.039479632567
 33
0.0
 14
11098.85468201165
 24
7282.039479632567
 34
0.0
 50
90.0
100
AcDbRotatedDimension
1001
ACAD
1000
DSTYLE
1002
{
1070
   341
1005
0
1002
}
  0
DIMENSION
  5
23980
330
747D
100
AcDbEntity
  8
寸法
 48
50.0
100
AcDbDimension
  2
*D28
 10
10898.95750108246
 20
6522.039479632588
 30
0.0
 11
10898.95750108246
 21
6206.306197755688
 31
0.0
 70
   160
 71
     5
 42
280.0000000000245
  3
INABA_S40G
100
AcDbAlignedDimension
 13
11154.2489809612
 23
6802.039479632611
 33
0.0
 14
11173.60000000001
 24
6522.039479632588
 34
0.0
 50
90.0
100
AcDbRotatedDimension
1001
ACAD
1000
DSTYLE
1002
{
1070
   341
1005
0
1002
}
  0
DIMENSION
  5
239DB
330
747D
100
AcDbEntity
  8
寸法
 48
50.0
100
AcDbDimension
  2
*D29
 10
11433.6
 20
7201.727321661966
 30
0.0
 11
11823.65905511811
 21
7201.727321661966
 31
0.0
 70
   160
 71
     5
 42
120.0
  3
INABA_S40G
100
AcDbAlignedDimension
 13
11553.6
 23
7218.720585700798
 33
0.0
 14
11433.6
 24
7201.727321661966
 34
0.0
100
AcDbRotatedDimension
1001
ACAD
1000
DSTYLE
1002
{
1070
   341
1005
0
1002
}
  0
LINE
  5
26433
330
747D
100
AcDbEntity
  8
部品1
 48
50.0
100
AcDbLine
 10
11433.6
 20
7282.039479632579
 30
0.0
 11
5013.599999999996
 21
7282.039479632579
 31
0.0
  0
DIMENSION
  5
26434
330
747D
100
AcDbEntity
  8
寸法
 48
50.0
100
AcDbDimension
  2
*D30
 10
7748.600000000007
 20
7964.648296302826
 30
0.0
 11
8223.600000000008
 21
8064.648296302825
 31
0.0
 70
    32
 71
     5
 42
950.0
  3
INABA_S40G
100
AcDbAlignedDimension
 13
8698.600000000007
 23
7052.039479632579
 33
0.0
 14
7748.600000000007
 24
7052.039479632579
 34
0.0
100
AcDbRotatedDimension
1001
ACAD
1000
DSTYLE
1002
{
1070
   341
1005
0
1002
}
  0
LINE
  5
26435
330
747D
100
AcDbEntity
  8
部品1
 48
50.0
100
AcDbLine
 10
11553.6
 20
6522.039479632613
 30
0.0
 11
4893.599999999997
 21
6522.039479632574
 31
0.0
  0
LINE
  5
26437
330
747D
100
AcDbEntity
  8
部品1
 48
50.0
100
AcDbLine
 10
11553.6
 20
7482.039479632579
 30
0.0
 11
4893.600000000001
 21
7482.039479632579
 31
0.0
  0
DIMENSION
  5
26439
330
747D
100
AcDbEntity
  8
寸法
 48
50.0
100
AcDbDimension
  2
*D31
 10
6680.600000000001
 20
8208.305937726489
 30
0.0
 11
7630.600000000001
 21
8308.305937726489
 31
0.0
 70
    32
 71
     5
 42
1900.0
  3
INABA_S40G
100
AcDbAlignedDimension
 13
8580.600000000002
 23
7409.039479632578
 33
0.0
 14
6680.600000000001
 24
7409.039479632578
 34
0.0
100
AcDbRotatedDimension
1001
ACAD
1000
DSTYLE
1002
{
1070
   341
1005
0
1002
}
  0
DIMENSION
  5
2643A
330
747D
100
AcDbEntity
  8
寸法
 48
50.0
100
AcDbDimension
  2
*D32
 10
11553.6
 20
8440.259801691496
 30
0.0
 11
8223.600000000001
 21
8540.259801691496
 31
0.0
 70
    32
 71
     5
 42
6660.0
  3
INABA_S40G
100
AcDbAlignedDimension
 13
4893.600000000001
 23
7482.039479632579
 33
0.0
 14
11553.6
 24
7482.039479632579
 34
0.0
100
AcDbRotatedDimension
1001
ACAD
1000
DSTYLE
1002
{
1070
   341
1005
0
1002
}
  0
LINE
  5
2643C
330
747D
100
AcDbEntity
  8
部品1
 48
50.0
100
AcDbLine
 10
4893.600000000001
 20
6522.039479632578
 30
0.0
 11
4893.600000000001
 21
7482.039479632579
 31
0.0
  0
DIMENSION
  5
2643D
330
747D
100
AcDbEntity
  8
寸法
 48
50.0
100
AcDbDimension
  2
*D33
 10
5376.285990614302
 20
7002.039479632578
 30
0.0
 11
5376.285990614301
 21
6229.480424514479
 31
0.0
 70
   160
 71
     5
 42
479.999999999989
  3
INABA_S40G
100
AcDbAlignedDimension
 13
5467.7654751409
 23
6522.039479632589
 33
0.0
 14
5798.600000000007
 24
7002.039479632578
 34
0.0
 50
90.0
100
AcDbRotatedDimension
1001
ACAD
1000
DSTYLE
1002
{
1070
   341
1005
0
1002
}
  0
DIMENSION
  5
2643F
330
747D
100
AcDbEntity
  8
寸法
 48
50.0
100
AcDbDimension
  2
*D34
 10
4270.665006330073
 20
6720.039479632582
 30
0.0
 11
4270.665006330071
 21
7039.539479632579
 31
0.0
 70
   160
 71
     5
 42
638.9999999999964
  3
INABA_S40G
100
AcDbAlignedDimension
 13
4966.6
 23
7359.039479632578
 33
0.0
 14
4966.600000000007
 24
6720.039479632582
 34
0.0
 50
90.0
100
AcDbRotatedDimension
1001
ACAD
1000
DSTYLE
1002
{
1070
   341
1005
0
1002
}
  0
DIMENSION
  5
26440
330
747D
100
AcDbEntity
  8
寸法
 48
50.0
100
AcDbDimension
  2
*D35
 10
4018.721909610674
 20
6522.039479632578
 30
0.0
 11
4018.721909610673
 21
7039.539479632579
 31
0.0
 70
   160
 71
     5
 42
960.0
  3
INABA_S40G
100
AcDbAlignedDimension
 13
4893.600000000001
 23
7482.039479632579
 33
0.0
 14
4893.600000000001
 24
6522.039479632578
 34
0.0
 50
90.0
100
AcDbRotatedDimension
1001
ACAD
1000
DSTYLE
1002
{
1070
   341
1005
0
1002
}
  0
ARC
  5
26441
330
747D
100
AcDbEntity
  8
想像線
 48
5.0
100
AcDbCircle
 10
5663.600000000004
 20
6522.039479632582
 30
0.0
 40
720.0
100
AcDbArc
 50
180.0
 51
270.0
  0
DIMENSION
  5
26442
330
747D
100
AcDbEntity
  8
寸法
 48
50.0
100
AcDbDimension
  2
*D36
 10
4780.512673767879
 20
5802.039479632575
 30
0.0
 11
4780.512673767878
 21
6162.039479632575
 31
0.0
 70
   160
  1
扉の出<>
 71
     5
 42
720.0
  3
INABA_S40G
100
AcDbAlignedDimension
 13
4893.600000000004
 23
6522.039479632574
 33
0.0
 14
5249.325326928809
 24
5802.039479632575
 34
0.0
 50
90.0
100
AcDbRotatedDimension
1001
ACAD
1000
DSTYLE
1002
{
1070
   341
1005
0
1002
}
  0
DIMENSION
  5
26443
330
747D
100
AcDbEntity
  8
寸法
 48
50.0
100
AcDbDimension
  2
*D37
 10
4270.665006330073
 20
6522.039479632578
 30
0.0
 11
4270.665006330071
 21
6186.508530789986
 31
0.0
 70
   160
 71
     5
 42
198.0000000000036
  3
INABA_S40G
100
AcDbAlignedDimension
 13
4966.600000000007
 23
6720.039479632582
 33
0.0
 14
4893.600000000001
 24
6522.039479632578
 34
0.0
 50
90.0
100
AcDbRotatedDimension
1001
ACAD
1000
DSTYLE
1002
{
1070
   341
1005
0
1002
}
  0
LINE
  5
26445
330
747D
100
AcDbEntity
  8
センター
 48
2.0
100
AcDbLine
 10
4966.600000000007
 20
6720.039479632582
 30
0.0
 11
5066.600000000008
 21
6720.039479632582
 31
0.0
  0
CIRCLE
  5
26446
330
747D
100
AcDbEntity
  8
部品1
 48
50.0
100
AcDbCircle
 10
5016.599999999993
 20
6720.039479632582
 30
0.0
 40
35.0
  0
LINE
  5
26447
330
747D
100
AcDbEntity
  8
センター
 48
2.0
100
AcDbLine
 10
5016.600000000007
 20
6770.039479632583
 30
0.0
 11
5016.600000000007
 21
6670.039479632582
 31
0.0
  0
LINE
  5
26448
330
747D
100
AcDbEntity
  8
想像線
 48
5.0
100
AcDbLine
 10
5663.600000000004
 20
6522.039479632593
 30
0.0
 11
5663.600000000004
 21
5802.039479632582
 31
0.0
  0
LINE
  5
26449
330
747D
100
AcDbEntity
  8
細線
 48
50.0
100
AcDbLine
 10
5409.404364949113
 20
6522.039479632567
 30
0.0
 11
5473.600000000001
 21
6586.235114683455
 31
0.0
  0
LINE
  5
2644A
330
747D
100
AcDbEntity
  8
細線
 48
50.0
100
AcDbLine
 10
5364.503084343765
 20
6522.039479632565
 30
0.0
 11
5473.6
 21
6631.1363952888
 31
0.0
  0
LINE
  5
2644B
330
747D
100
AcDbEntity
  8
細線
 48
50.0
100
AcDbLine
 10
5319.601803738418
 20
6522.039479632565
 30
0.0
 11
5473.599999999997
 21
6676.037675894143
 31
0.0
  0
LINE
  5
2644C
330
747D
100
AcDbEntity
  8
細線
 48
50.0
100
AcDbLine
 10
5274.700523133073
 20
6522.039479632564
 30
0.0
 11
5473.599999999997
 21
6720.938956499489
 31
0.0
  0
LINE
  5
2644D
330
747D
100
AcDbEntity
  8
細線
 48
50.0
100
AcDbLine
 10
5273.6
 20
6565.840237104838
 30
0.0
 11
5473.599999999994
 21
6765.840237104832
 31
0.0
  0
LINE
  5
2644E
330
747D
100
AcDbEntity
  8
部品1
 48
50.0
100
AcDbLine
 10
5473.599999999994
 20
6802.039479632577
 30
0.0
 11
5473.599999999999
 21
6522.039479632567
 31
0.0
  0
LINE
  5
2644F
330
747D
100
AcDbEntity
  8
部品1
 48
50.0
100
AcDbLine
 10
5273.599999999994
 20
6802.039479632576
 30
0.0
 11
5273.599999999999
 21
6522.039479632564
 31
0.0
  0
LINE
  5
26450
330
747D
100
AcDbEntity
  8
細線
 48
50.0
100
AcDbLine
 10
5454.305645554459
 20
6522.039479632569
 30
0.0
 11
5473.600000000001
 21
6541.333834078111
 31
0.0
  0
LINE
  5
26451
330
747D
100
AcDbEntity
  8
細線
 48
50.0
100
AcDbLine
 10
5273.599999999997
 20
6610.741517710183
 30
0.0
 11
5464.897961922392
 21
6802.039479632579
 31
0.0
  0
LINE
  5
26452
330
747D
100
AcDbEntity
  8
細線
 48
50.0
100
AcDbLine
 10
5273.599999999999
 20
6655.642798315525
 30
0.0
 11
5419.996681317034
 21
6802.039479632577
 31
0.0
  0
LINE
  5
26453
330
747D
100
AcDbEntity
  8
細線
 48
50.0
100
AcDbLine
 10
5273.599999999997
 20
6700.544078920877
 30
0.0
 11
5375.095400711694
 21
6802.039479632576
 31
0.0
  0
LINE
  5
26454
330
747D
100
AcDbEntity
  8
細線
 48
50.0
100
AcDbLine
 10
5273.599999999994
 20
6745.445359526218
 30
0.0
 11
5330.194120106344
 21
6802.039479632576
 31
0.0
  0
LINE
  5
26462
330
747D
100
AcDbEntity
  8
センター
 48
2.0
100
AcDbLine
 10
6630.600000000008
 20
6720.039479632582
 30
0.0
 11
6730.600000000008
 21
6720.039479632582
 31
0.0
  0
CIRCLE
  5
26463
330
747D
100
AcDbEntity
  8
部品1
 48
50.0
100
AcDbCircle
 10
6680.600000000008
 20
6720.039479632582
 30
0.0
 40
35.0
  0
LINE
  5
26464
330
747D
100
AcDbEntity
  8
センター
 48
2.0
100
AcDbLine
 10
6680.600000000008
 20
6770.039479632583
 30
0.0
 11
6680.600000000008
 21
6670.039479632582
 31
0.0
  0
TEXT
  5
26471
330
747D
100
AcDbEntity
  8
寸法
 48
50.0
100
AcDbText
 10
7638.853398235706
 20
6540.720770425316
 30
0.0
 40
120.0
  1
扉面
  7
STYLE1
100
AcDbText
  0
DIMENSION
  5
2647E
330
747D
100
AcDbEntity
  8
寸法
 48
50.0
100
AcDbDimension
  2
*D38
 10
4893.600000000001
 20
7964.648296302826
 30
0.0
 11
5371.100000000004
 21
8064.648296302825
 31
0.0
 70
    32
 71
     5
 42
955.0000000000073
  3
INABA_S40G
100
AcDbAlignedDimension
 13
5848.600000000008
 23
7052.039479632579
 33
0.0
 14
4893.600000000001
 24
7482.039479632579
 34
0.0
100
AcDbRotatedDimension
1001
ACAD
1000
DSTYLE
1002
{
1070
   341
1005
0
1002
}
  0
DIMENSION
  5
2647F
330
747D
100
AcDbEntity
  8
寸法
 48
50.0
100
AcDbDimension
  2
*D39
 10
5016.6
 20
8208.305937726489
 30
0.0
 11
5848.600000000001
 21
8308.305937726489
 31
0.0
 70
    32
 71
     5
 42
1664.0
  3
INABA_S40G
100
AcDbAlignedDimension
 13
6680.600000000001
 23
7409.039479632578
 33
0.0
 14
5016.6
 24
7409.039479632578
 34
0.0
100
AcDbRotatedDimension
1001
ACAD
1000
DSTYLE
1002
{
1070
   341
1005
0
1002
}
  0
DIMENSION
  5
26481
330
747D
100
AcDbEntity
  8
寸法
 48
50.0
100
AcDbDimension
  2
*D40
 10
4893.600000000001
 20
8208.305937726489
 30
0.0
 11
4620.493398282202
 21
8208.305937726489
 31
0.0
 70
   160
 71
     5
 42
123.0
  3
INABA_S40G
100
AcDbAlignedDimension
 13
5016.6
 23
7409.039479632578
 33
0.0
 14
4893.600000000001
 24
7482.039479632579
 34
0.0
100
AcDbRotatedDimension
1001
ACAD
1000
DSTYLE
1002
{
1070
   341
1005
0
1002
}
  0
DIMENSION
  5
26482
330
747D
100
AcDbEntity
  8
寸法
 48
50.0
100
AcDbDimension
  2
*D41
 10
4270.665006330072
 20
7359.039479632578
 30
0.0
 11
4270.665006330071
 21
7755.146081350378
 31
0.0
 70
   160
 71
     5
 42
123.0
  3
INABA_S40G
100
AcDbAlignedDimension
 13
4893.600000000001
 23
7482.039479632579
 33
0.0
 14
4966.6
 24
7359.039479632578
 34
0.0
 50
90.0
100
AcDbRotatedDimension
1001
ACAD
1000
DSTYLE
1002
{
1070
   341
1005
0
1002
}
  0
LINE
  5
26484
330
747D
100
AcDbEntity
  8
細線
 48
50.0
100
AcDbLine
 10
4941.181314052895
 20
6927.039479632561
 30
0.0
 11
5013.6
 21
6999.458165579664
 31
0.0
  0
LINE
  5
26485
330
747D
100
AcDbEntity
  8
細線
 48
50.0
100
AcDbLine
 10
4896.28003344755
 20
6927.039479632561
 30
0.0
 11
5013.599999999999
 21
7044.359446185009
 31
0.0
  0
LINE
  5
26486
330
747D
100
AcDbEntity
  8
細線
 48
50.0
100
AcDbLine
 10
4893.599999999989
 20
6969.260726790349
 30
0.0
 11
5013.599999999999
 21
7089.260726790357
 31
0.0
  0
LINE
  5
26487
330
747D
100
AcDbEntity
  8
細線
 48
50.0
100
AcDbLine
 10
4893.599999999988
 20
7014.162007395691
 30
0.0
 11
5006.477472236861
 21
7127.039479632563
 31
0.0
  0
LINE
  5
26488
330
747D
100
AcDbEntity
  8
細線
 48
50.0
100
AcDbLine
 10
4893.599999999989
 20
7059.063288001038
 30
0.0
 11
4961.576191631512
 21
7127.039479632561
 31
0.0
  0
LINE
  5
26489
330
747D
100
AcDbEntity
  8
部品1
 48
50.0
100
AcDbLine
 10
5013.599999999999
 20
7127.039479632563
 30
0.0
 11
4893.599999999988
 21
7127.039479632562
 31
0.0
  0
LINE
  5
2648A
330
747D
100
AcDbEntity
  8
部品1
 48
50.0
100
AcDbLine
 10
5013.6
 20
6927.039479632561
 30
0.0
 11
4893.599999999988
 21
6927.039479632561
 31
0.0
  0
LINE
  5
2648B
330
747D
100
AcDbEntity
  8
細線
 48
50.0
100
AcDbLine
 10
4893.599999999989
 20
7103.964568606385
 30
0.0
 11
4916.674911026168
 21
7127.039479632562
 31
0.0
  0
LINE
  5
2648C
330
747D
100
AcDbEntity
  8
細線
 48
50.0
100
AcDbLine
 10
4986.082594658239
 20
6927.03947963256
 30
0.0
 11
5013.6
 21
6954.55688497431
 31
0.0
  0
LINE
  5
2648D
330
747D
100
AcDbEntity
  8
センター
 48
2.0
100
AcDbLine
 10
4966.6
 20
7359.039479632578
 30
0.0
 11
5066.600000000001
 21
7359.039479632578
 31
0.0
  0
CIRCLE
  5
2648E
330
747D
100
AcDbEntity
  8
部品1
 48
50.0
100
AcDbCircle
 10
5016.6
 20
7359.039479632578
 30
0.0
 40
35.0
  0
LINE
  5
2648F
330
747D
100
AcDbEntity
  8
センター
 48
2.0
100
AcDbLine
 10
5016.6
 20
7409.039479632578
 30
0.0
 11
5016.6
 21
7309.039479632578
 31
0.0
  0
LINE
  5
26490
330
747D
100
AcDbEntity
  8
部品1
 48
50.0
100
AcDbLine
 10
6898.600000000008
 20
7102.039479632579
 30
0.0
 11
6698.600000000007
 21
7102.039479632579
 31
0.0
  0
LINE
  5
26491
330
747D
100
AcDbEntity
  8
センター
 48
2.0
100
AcDbLine
 10
6748.600000000007
 20
7002.039479632578
 30
0.0
 11
6848.600000000008
 21
7002.039479632578
 31
0.0
  0
DIMENSION
  5
26492
330
747D
100
AcDbEntity
  8
寸法
 48
50.0
100
AcDbDimension
  2
*D42
 10
5848.600000000008
 20
7964.648296302826
 30
0.0
 11
6323.600000000007
 21
8064.648296302825
 31
0.0
 70
    32
 71
     5
 42
950.0
  3
INABA_S40G
100
AcDbAlignedDimension
 13
6798.600000000007
 23
7052.039479632579
 33
0.0
 14
5848.600000000008
 24
7052.039479632579
 34
0.0
100
AcDbRotatedDimension
1001
ACAD
1000
DSTYLE
1002
{
1070
   341
1005
0
1002
}
  0
LINE
  5
26493
330
747D
100
AcDbEntity
  8
部品1
 48
50.0
100
AcDbLine
 10
6898.600000000008
 20
6902.039479632579
 30
0.0
 11
6698.600000000007
 21
6902.039479632579
 31
0.0
  0
DIMENSION
  5
26494
330
747D
100
AcDbEntity
  8
寸法
 48
50.0
100
AcDbDimension
  2
*D43
 10
6798.600000000007
 20
7964.648296302826
 30
0.0
 11
7273.600000000008
 21
8064.648296302825
 31
0.0
 70
    32
 71
     5
 42
950.0
  3
INABA_S40G
100
AcDbAlignedDimension
 13
7748.600000000007
 23
7052.039479632579
 33
0.0
 14
6798.600000000007
 24
7052.039479632579
 34
0.0
100
AcDbRotatedDimension
1001
ACAD
1000
DSTYLE
1002
{
1070
   341
1005
0
1002
}
  0
LINE
  5
26495
330
747D
100
AcDbEntity
  8
細線
 48
50.0
100
AcDbLine
 10
5273.6
 20
7284.26072679037
 30
0.0
 11
5471.378752842194
 21
7482.039479632565
 31
0.0
  0
LINE
  5
26496
330
747D
100
AcDbEntity
  8
細線
 48
50.0
100
AcDbLine
 10
5273.599999999999
 20
7329.16200739571
 30
0.0
 11
5426.477472236848
 21
7482.039479632565
 31
0.0
  0
LINE
  5
26497
330
747D
100
AcDbEntity
  8
細線
 48
50.0
100
AcDbLine
 10
5273.599999999999
 20
7374.063288001058
 30
0.0
 11
5381.576191631502
 21
7482.039479632565
 31
0.0
  0
LINE
  5
26498
330
747D
100
AcDbEntity
  8
細線
 48
50.0
100
AcDbLine
 10
5273.599999999998
 20
7418.964568606407
 30
0.0
 11
5336.674911026157
 21
7482.039479632565
 31
0.0
  0
LINE
  5
26499
330
747D
100
AcDbEntity
  8
部品1
 48
50.0
100
AcDbLine
 10
5473.599999999997
 20
7482.039479632565
 30
0.0
 11
5473.600000000001
 21
7282.039479632579
 31
0.0
  0
LINE
  5
2649A
330
747D
100
AcDbEntity
  8
部品1
 48
50.0
100
AcDbLine
 10
5273.599999999997
 20
7482.039479632565
 30
0.0
 11
5273.6
 21
7282.039479632579
 31
0.0
  0
DIMENSION
  5
2649B
330
747D
100
AcDbEntity
  8
寸法
 48
50.0
100
AcDbDimension
  2
*D44
 10
5376.285990614301
 20
7482.039479632579
 30
0.0
 11
5376.285990614301
 21
7774.59853475069
 31
0.0
 70
   160
 71
     5
 42
480.0
  3
INABA_S40G
100
AcDbAlignedDimension
 13
5798.600000000007
 23
7002.039479632578
 33
0.0
 14
5467.7654751409
 24
7482.039479632579
 34
0.0
 50
90.0
100
AcDbRotatedDimension
1001
ACAD
1000
DSTYLE
1002
{
1070
   341
1005
0
1002
}
  0
LINE
  5
2649C
330
747D
100
AcDbEntity
  8
細線
 48
50.0
100
AcDbLine
 10
5361.181314052916
 20
7282.03947963258
 30
0.0
 11
5473.600000000001
 21
7394.458165579679
 31
0.0
  0
LINE
  5
2649D
330
747D
100
AcDbEntity
  8
細線
 48
50.0
100
AcDbLine
 10
5316.280033447554
 20
7282.039479632577
 30
0.0
 11
5473.599999999997
 21
7439.359446185021
 31
0.0
  0
LINE
  5
2649E
330
747D
100
AcDbEntity
  8
細線
 48
50.0
100
AcDbLine
 10
5450.983875263608
 20
7282.039479632579
 30
0.0
 11
5473.600000000001
 21
7304.655604368976
 31
0.0
  0
LINE
  5
2649F
330
747D
100
AcDbEntity
  8
細線
 48
50.0
100
AcDbLine
 10
5406.082594658254
 20
7282.03947963258
 30
0.0
 11
5473.6
 21
7349.556884974325
 31
0.0
  0
LINE
  5
264A0
330
747D
100
AcDbEntity
  8
部品1
 48
50.0
100
AcDbLine
 10
5948.600000000007
 20
7102.039479632579
 30
0.0
 11
5748.600000000007
 21
7102.039479632579
 31
0.0
  0
LINE
  5
264A1
330
747D
100
AcDbEntity
  8
部品1
 48
50.0
100
AcDbLine
 10
5948.600000000007
 20
6902.039479632579
 30
0.0
 11
5748.600000000007
 21
6902.039479632579
 31
0.0
  0
LINE
  5
264A2
330
747D
100
AcDbEntity
  8
部品1
 48
50.0
100
AcDbLine
 10
5748.600000000007
 20
6902.039479632579
 30
0.0
 11
5748.600000000007
 21
7102.039479632579
 31
0.0
  0
LINE
  5
264A3
330
747D
100
AcDbEntity
  8
センター
 48
2.0
100
AcDbLine
 10
5798.600000000007
 20
7002.039479632578
 30
0.0
 11
5898.600000000008
 21
7002.039479632578
 31
0.0
  0
LINE
  5
264A4
330
747D
100
AcDbEntity
  8
センター
 48
2.0
100
AcDbLine
 10
5848.600000000008
 20
7052.039479632579
 30
0.0
 11
5848.600000000008
 21
6952.039479632579
 31
0.0
  0
LINE
  5
264A5
330
747D
100
AcDbEntity
  8
部品1
 48
50.0
100
AcDbLine
 10
5948.600000000007
 20
6902.039479632579
 30
0.0
 11
5948.600000000007
 21
7102.039479632579
 31
0.0
  0
LINE
  5
264A6
330
747D
100
AcDbEntity
  8
細線
 48
50.0
100
AcDbLine
 10
5273.599999999997
 20
7463.86584921175
 30
0.0
 11
5291.77363042081
 21
7482.039479632565
 31
0.0
  0
LINE
  5
264A7
330
747D
100
AcDbEntity
  8
細線
 48
50.0
100
AcDbLine
 10
6223.599999999997
 20
7418.964568606407
 30
0.0
 11
6286.674911026157
 21
7482.039479632565
 31
0.0
  0
LINE
  5
264A8
330
747D
100
AcDbEntity
  8
部品1
 48
50.0
100
AcDbLine
 10
6223.599999999997
 20
7482.039479632565
 30
0.0
 11
6223.600000000001
 21
7282.039479632579
 31
0.0
  0
LINE
  5
264A9
330
747D
100
AcDbEntity
  8
部品1
 48
50.0
100
AcDbLine
 10
6423.599999999996
 20
7482.039479632565
 30
0.0
 11
6423.6
 21
7282.039479632579
 31
0.0
  0
LINE
  5
264AA
330
747D
100
AcDbEntity
  8
細線
 48
50.0
100
AcDbLine
 10
6223.600000000001
 20
7284.26072679037
 30
0.0
 11
6421.378752842194
 21
7482.039479632565
 31
0.0
  0
LINE
  5
264AB
330
747D
100
AcDbEntity
  8
細線
 48
50.0
100
AcDbLine
 10
6223.599999999999
 20
7329.16200739571
 30
0.0
 11
6376.477472236848
 21
7482.039479632565
 31
0.0
  0
LINE
  5
264AC
330
747D
100
AcDbEntity
  8
細線
 48
50.0
100
AcDbLine
 10
6223.599999999999
 20
7374.063288001058
 30
0.0
 11
6331.576191631502
 21
7482.039479632565
 31
0.0
  0
LINE
  5
264AE
330
747D
100
AcDbEntity
  8
細線
 48
50.0
100
AcDbLine
 10
6356.082594658253
 20
7282.03947963258
 30
0.0
 11
6423.6
 21
7349.556884974325
 31
0.0
  0
LINE
  5
264AF
330
747D
100
AcDbEntity
  8
細線
 48
50.0
100
AcDbLine
 10
6311.181314052916
 20
7282.03947963258
 30
0.0
 11
6423.6
 21
7394.458165579679
 31
0.0
  0
LINE
  5
264B0
330
747D
100
AcDbEntity
  8
細線
 48
50.0
100
AcDbLine
 10
6266.280033447554
 20
7282.039479632577
 30
0.0
 11
6423.599999999996
 21
7439.359446185021
 31
0.0
  0
LINE
  5
264B1
330
747D
100
AcDbEntity
  8
センター
 48
2.0
100
AcDbLine
 10
6798.600000000007
 20
7052.039479632579
 30
0.0
 11
6798.600000000007
 21
6952.039479632579
 31
0.0
  0
LINE
  5
264B2
330
747D
100
AcDbEntity
  8
部品1
 48
50.0
100
AcDbLine
 10
6698.600000000007
 20
6902.039479632579
 30
0.0
 11
6698.600000000007
 21
7102.039479632579
 31
0.0
  0
LINE
  5
264B3
330
747D
100
AcDbEntity
  8
細線
 48
50.0
100
AcDbLine
 10
6400.983875263609
 20
7282.039479632579
 30
0.0
 11
6423.6
 21
7304.655604368976
 31
0.0
  0
CIRCLE
  5
264B4
330
747D
100
AcDbEntity
  8
部品1
 48
50.0
100
AcDbCircle
 10
6680.600000000001
 20
7359.039479632578
 30
0.0
 40
35.0
  0
LINE
  5
264B5
330
747D
100
AcDbEntity
  8
センター
 48
2.0
100
AcDbLine
 10
6630.600000000001
 20
7359.039479632578
 30
0.0
 11
6730.600000000001
 21
7359.039479632578
 31
0.0
  0
LINE
  5
264B6
330
747D
100
AcDbEntity
  8
センター
 48
2.0
100
AcDbLine
 10
6680.600000000001
 20
7409.039479632578
 30
0.0
 11
6680.600000000001
 21
7309.039479632578
 31
0.0
  0
LINE
  5
264B7
330
747D
100
AcDbEntity
  8
細線
 48
50.0
100
AcDbLine
 10
6223.599999999997
 20
7463.86584921175
 30
0.0
 11
6241.77363042081
 21
7482.039479632565
 31
0.0
  0
LINE
  5
264BA
330
747D
100
AcDbEntity
  8
細線
 48
50.0
100
AcDbLine
 10
7173.599999999997
 20
7418.964568606407
 30
0.0
 11
7236.674911026158
 21
7482.039479632565
 31
0.0
  0
LINE
  5
264BB
330
747D
100
AcDbEntity
  8
細線
 48
50.0
100
AcDbLine
 10
7173.599999999999
 20
7374.063288001058
 30
0.0
 11
7281.576191631502
 21
7482.039479632565
 31
0.0
  0
LINE
  5
264BC
330
747D
100
AcDbEntity
  8
細線
 48
50.0
100
AcDbLine
 10
7173.599999999999
 20
7329.16200739571
 30
0.0
 11
7326.477472236847
 21
7482.039479632565
 31
0.0
  0
LINE
  5
264BD
330
747D
100
AcDbEntity
  8
細線
 48
50.0
100
AcDbLine
 10
7173.6
 20
7284.26072679037
 30
0.0
 11
7371.378752842194
 21
7482.039479632565
 31
0.0
  0
LINE
  5
264BE
330
747D
100
AcDbEntity
  8
部品1
 48
50.0
100
AcDbLine
 10
7373.599999999997
 20
7482.039479632565
 30
0.0
 11
7373.6
 21
7282.039479632579
 31
0.0
  0
LINE
  5
264BF
330
747D
100
AcDbEntity
  8
部品1
 48
50.0
100
AcDbLine
 10
7173.599999999997
 20
7482.039479632565
 30
0.0
 11
7173.6
 21
7282.039479632579
 31
0.0
  0
LINE
  5
264C0
330
747D
100
AcDbEntity
  8
部品1
 48
50.0
100
AcDbLine
 10
6898.600000000008
 20
6902.039479632579
 30
0.0
 11
6898.600000000008
 21
7102.039479632579
 31
0.0
  0
LINE
  5
264C1
330
747D
100
AcDbEntity
  8
細線
 48
50.0
100
AcDbLine
 10
7306.082594658254
 20
7282.03947963258
 30
0.0
 11
7373.6
 21
7349.556884974325
 31
0.0
  0
LINE
  5
264C2
330
747D
100
AcDbEntity
  8
細線
 48
50.0
100
AcDbLine
 10
7350.983875263608
 20
7282.039479632579
 30
0.0
 11
7373.6
 21
7304.655604368976
 31
0.0
  0
LINE
  5
264C3
330
747D
100
AcDbEntity
  8
細線
 48
50.0
100
AcDbLine
 10
7216.280033447555
 20
7282.039479632577
 30
0.0
 11
7373.599999999997
 21
7439.359446185021
 31
0.0
  0
LINE
  5
264C4
330
747D
100
AcDbEntity
  8
細線
 48
50.0
100
AcDbLine
 10
7261.181314052916
 20
7282.03947963258
 30
0.0
 11
7373.6
 21
7394.458165579679
 31
0.0
  0
LINE
  5
264C5
330
747D
100
AcDbEntity
  8
細線
 48
50.0
100
AcDbLine
 10
7173.599999999997
 20
7463.86584921175
 30
0.0
 11
7191.773630420811
 21
7482.039479632565
 31
0.0
  0
LINE
  5
264C6
330
747D
100
AcDbEntity
  8
細線
 48
50.0
100
AcDbLine
 10
8123.599999999997
 20
7418.964568606407
 30
0.0
 11
8186.674911026157
 21
7482.039479632565
 31
0.0
  0
LINE
  5
264C7
330
747D
100
AcDbEntity
  8
細線
 48
50.0
100
AcDbLine
 10
8123.599999999999
 20
7374.063288001058
 30
0.0
 11
8231.576191631502
 21
7482.039479632565
 31
0.0
  0
LINE
  5
264C8
330
747D
100
AcDbEntity
  8
細線
 48
50.0
100
AcDbLine
 10
8123.599999999999
 20
7329.16200739571
 30
0.0
 11
8276.477472236846
 21
7482.039479632565
 31
0.0
  0
LINE
  5
264C9
330
747D
100
AcDbEntity
  8
細線
 48
50.0
100
AcDbLine
 10
8123.600000000001
 20
7284.26072679037
 30
0.0
 11
8321.378752842194
 21
7482.039479632565
 31
0.0
  0
LINE
  5
264CA
330
747D
100
AcDbEntity
  8
部品1
 48
50.0
100
AcDbLine
 10
8323.599999999997
 20
7482.039479632565
 30
0.0
 11
8323.6
 21
7282.039479632579
 31
0.0
  0
LINE
  5
264CB
330
747D
100
AcDbEntity
  8
部品1
 48
50.0
100
AcDbLine
 10
8123.599999999997
 20
7482.039479632565
 30
0.0
 11
8123.600000000001
 21
7282.039479632579
 31
0.0
  0
LINE
  5
264CC
330
747D
100
AcDbEntity
  8
部品1
 48
50.0
100
AcDbLine
 10
7848.600000000008
 20
7102.039479632579
 30
0.0
 11
7648.600000000008
 21
7102.039479632579
 31
0.0
  0
LINE
  5
264CD
330
747D
100
AcDbEntity
  8
部品1
 48
50.0
100
AcDbLine
 10
7848.600000000008
 20
6902.039479632579
 30
0.0
 11
7648.600000000008
 21
6902.039479632579
 31
0.0
  0
LINE
  5
264CE
330
747D
100
AcDbEntity
  8
センター
 48
2.0
100
AcDbLine
 10
7698.600000000007
 20
7002.039479632578
 30
0.0
 11
7798.600000000007
 21
7002.039479632578
 31
0.0
  0
LINE
  5
264CF
330
747D
100
AcDbEntity
  8
部品1
 48
50.0
100
AcDbLine
 10
7648.600000000008
 20
6902.039479632579
 30
0.0
 11
7648.600000000008
 21
7102.039479632579
 31
0.0
  0
LINE
  5
264D0
330
747D
100
AcDbEntity
  8
センター
 48
2.0
100
AcDbLine
 10
7748.600000000007
 20
7052.039479632579
 30
0.0
 11
7748.600000000007
 21
6952.039479632579
 31
0.0
  0
LINE
  5
264D1
330
747D
100
AcDbEntity
  8
部品1
 48
50.0
100
AcDbLine
 10
7848.600000000008
 20
6902.039479632579
 30
0.0
 11
7848.600000000008
 21
7102.039479632579
 31
0.0
  0
LINE
  5
264D2
330
747D
100
AcDbEntity
  8
細線
 48
50.0
100
AcDbLine
 10
8166.280033447554
 20
7282.039479632577
 30
0.0
 11
8323.599999999997
 21
7439.359446185021
 31
0.0
  0
LINE
  5
264D3
330
747D
100
AcDbEntity
  8
細線
 48
50.0
100
AcDbLine
 10
8211.181314052916
 20
7282.03947963258
 30
0.0
 11
8323.6
 21
7394.458165579679
 31
0.0
  0
LINE
  5
264D4
330
747D
100
AcDbEntity
  8
細線
 48
50.0
100
AcDbLine
 10
8256.082594658254
 20
7282.03947963258
 30
0.0
 11
8323.6
 21
7349.556884974325
 31
0.0
  0
LINE
  5
264D5
330
747D
100
AcDbEntity
  8
細線
 48
50.0
100
AcDbLine
 10
8300.983875263609
 20
7282.039479632579
 30
0.0
 11
8323.6
 21
7304.655604368976
 31
0.0
  0
LINE
  5
264D6
330
747D
100
AcDbEntity
  8
細線
 48
50.0
100
AcDbLine
 10
8123.599999999997
 20
7463.86584921175
 30
0.0
 11
8141.773630420811
 21
7482.039479632565
 31
0.0
  0
LINE
  5
264D9
330
747D
100
AcDbEntity
  8
部品1
 48
50.0
100
AcDbLine
 10
11553.6
 20
6522.039479632596
 30
0.0
 11
11553.6
 21
7482.039479632579
 31
0.0
  0
LINE
  5
264EB
330
747D
100
AcDbEntity
  8
センター
 48
2.0
100
AcDbLine
 10
8530.600000000008
 20
6720.039479632582
 30
0.0
 11
8630.600000000008
 21
6720.039479632582
 31
0.0
  0
LINE
  5
264EC
330
747D
100
AcDbEntity
  8
センター
 48
2.0
100
AcDbLine
 10
8530.600000000008
 20
6720.039479632582
 30
0.0
 11
8630.600000000008
 21
6720.039479632582
 31
0.0
  0
LINE
  5
264ED
330
747D
100
AcDbEntity
  8
センター
 48
2.0
100
AcDbLine
 10
8580.600000000009
 20
6770.039479632583
 30
0.0
 11
8580.600000000009
 21
6670.039479632582
 31
0.0
  0
CIRCLE
  5
264EE
330
747D
100
AcDbEntity
  8
部品1
 48
50.0
100
AcDbCircle
 10
8580.600000000009
 20
6720.039479632582
 30
0.0
 40
35.0
  0
CIRCLE
  5
264EF
330
747D
100
AcDbEntity
  8
部品1
 48
50.0
100
AcDbCircle
 10
8580.600000000009
 20
6720.039479632582
 30
0.0
 40
35.0
  0
LINE
  5
264F0
330
747D
100
AcDbEntity
  8
センター
 48
2.0
100
AcDbLine
 10
8580.600000000009
 20
6770.039479632583
 30
0.0
 11
8580.600000000009
 21
6670.039479632582
 31
0.0
  0
LINE
  5
26509
330
747D
100
AcDbEntity
  8
センター
 48
2.0
100
AcDbLine
 10
11380.6
 20
6720.039479632582
 30
0.0
 11
11480.6
 21
6720.039479632582
 31
0.0
  0
LINE
  5
2650A
330
747D
100
AcDbEntity
  8
センター
 48
2.0
100
AcDbLine
 10
11430.60000000001
 20
6770.039479632583
 30
0.0
 11
11430.60000000001
 21
6670.039479632582
 31
0.0
  0
CIRCLE
  5
2650B
330
747D
100
AcDbEntity
  8
部品1
 48
50.0
100
AcDbCircle
 10
11430.60000000001
 20
6720.039479632582
 30
0.0
 40
35.0
  0
DIMENSION
  5
2650E
330
747D
100
AcDbEntity
  8
寸法
 48
50.0
100
AcDbDimension
  2
*D45
 10
11430.6
 20
8208.305937726489
 30
0.0
 11
11826.7066017178
 21
8208.305937726489
 31
0.0
 70
   160
 71
     5
 42
123.0
  3
INABA_S40G
100
AcDbAlignedDimension
 13
11553.6
 23
7482.039479632579
 33
0.0
 14
11430.6
 24
7409.039479632578
 34
0.0
100
AcDbRotatedDimension
1001
ACAD
1000
DSTYLE
1002
{
1070
   341
1005
0
1002
}
  0
LINE
  5
26510
330
747D
100
AcDbEntity
  8
細線
 48
50.0
100
AcDbLine
 10
10023.59999999999
 20
7418.964568606385
 30
0.0
 11
10086.67491102615
 21
7482.039479632542
 31
0.0
  0
LINE
  5
26511
330
747D
100
AcDbEntity
  8
細線
 48
50.0
100
AcDbLine
 10
10023.6
 20
7374.063288001036
 30
0.0
 11
10131.5761916315
 21
7482.039479632542
 31
0.0
  0
LINE
  5
26512
330
747D
100
AcDbEntity
  8
細線
 48
50.0
100
AcDbLine
 10
10066.28003344755
 20
7282.039479632555
 30
0.0
 11
10223.59999999999
 21
7439.359446184998
 31
0.0
  0
LINE
  5
26513
330
747D
100
AcDbEntity
  8
細線
 48
50.0
100
AcDbLine
 10
10023.6
 20
7284.260726790347
 30
0.0
 11
10221.37875284219
 21
7482.039479632542
 31
0.0
  0
LINE
  5
26514
330
747D
100
AcDbEntity
  8
細線
 48
50.0
100
AcDbLine
 10
10023.6
 20
7329.162007395689
 30
0.0
 11
10176.47747223685
 21
7482.039479632542
 31
0.0
  0
DIMENSION
  5
26515
330
747D
100
AcDbEntity
  8
寸法
 48
50.0
100
AcDbDimension
  2
*D46
 10
9648.600000000008
 20
7964.648296302826
 30
0.0
 11
10123.60000000001
 21
8064.648296302825
 31
0.0
 70
    32
 71
     5
 42
950.0
  3
INABA_S40G
100
AcDbAlignedDimension
 13
10598.60000000001
 23
7052.039479632579
 33
0.0
 14
9648.600000000008
 24
7052.039479632579
 34
0.0
100
AcDbRotatedDimension
1001
ACAD
1000
DSTYLE
1002
{
1070
   341
1005
0
1002
}
  0
DIMENSION
  5
26516
330
747D
100
AcDbEntity
  8
寸法
 48
50.0
100
AcDbDimension
  2
*D47
 10
8580.600000000002
 20
8208.305937726489
 30
0.0
 11
10005.6
 21
8308.317748750111
 31
0.0
 70
    32
 71
     5
 42
2850.0
  3
INABA_S40G
100
AcDbAlignedDimension
 13
11430.6
 23
7409.039479632578
 33
0.0
 14
8580.600000000002
 24
7409.039479632578
 34
0.0
100
AcDbRotatedDimension
1001
ACAD
1000
DSTYLE
1002
{
1070
   341
1005
0
1002
}
  0
DIMENSION
  5
26517
330
747D
100
AcDbEntity
  8
寸法
 48
50.0
100
AcDbDimension
  2
*D48
 10
8698.600000000007
 20
7964.648296302826
 30
0.0
 11
9173.600000000007
 21
8064.648296302825
 31
0.0
 70
    32
 71
     5
 42
950.0
  3
INABA_S40G
100
AcDbAlignedDimension
 13
9648.600000000008
 23
7052.039479632579
 33
0.0
 14
8698.600000000007
 24
7052.039479632579
 34
0.0
100
AcDbRotatedDimension
1001
ACAD
1000
DSTYLE
1002
{
1070
   341
1005
0
1002
}
  0
LINE
  5
26518
330
747D
100
AcDbEntity
  8
細線
 48
50.0
100
AcDbLine
 10
9250.983875263608
 20
7282.039479632579
 30
0.0
 11
9273.6
 21
7304.655604368976
 31
0.0
  0
LINE
  5
26519
330
747D
100
AcDbEntity
  8
細線
 48
50.0
100
AcDbLine
 10
9206.082594658253
 20
7282.03947963258
 30
0.0
 11
9273.6
 21
7349.556884974325
 31
0.0
  0
LINE
  5
2651A
330
747D
100
AcDbEntity
  8
細線
 48
50.0
100
AcDbLine
 10
9161.181314052916
 20
7282.03947963258
 30
0.0
 11
9273.6
 21
7394.458165579679
 31
0.0
  0
LINE
  5
2651B
330
747D
100
AcDbEntity
  8
細線
 48
50.0
100
AcDbLine
 10
9116.280033447555
 20
7282.039479632577
 30
0.0
 11
9273.599999999998
 21
7439.359446185021
 31
0.0
  0
LINE
  5
2651C
330
747D
100
AcDbEntity
  8
細線
 48
50.0
100
AcDbLine
 10
9073.6
 20
7284.26072679037
 30
0.0
 11
9271.378752842194
 21
7482.039479632565
 31
0.0
  0
LINE
  5
2651D
330
747D
100
AcDbEntity
  8
細線
 48
50.0
100
AcDbLine
 10
9073.599999999997
 20
7418.964568606407
 30
0.0
 11
9136.674911026158
 21
7482.039479632565
 31
0.0
  0
LINE
  5
2651E
330
747D
100
AcDbEntity
  8
部品1
 48
50.0
100
AcDbLine
 10
9073.599999999997
 20
7482.039479632565
 30
0.0
 11
9073.6
 21
7282.039479632579
 31
0.0
  0
LINE
  5
2651F
330
747D
100
AcDbEntity
  8
細線
 48
50.0
100
AcDbLine
 10
9073.599999999998
 20
7329.16200739571
 30
0.0
 11
9226.477472236847
 21
7482.039479632565
 31
0.0
  0
LINE
  5
26520
330
747D
100
AcDbEntity
  8
細線
 48
50.0
100
AcDbLine
 10
9073.599999999998
 20
7374.063288001058
 30
0.0
 11
9181.576191631503
 21
7482.039479632565
 31
0.0
  0
LINE
  5
26521
330
747D
100
AcDbEntity
  8
センター
 48
2.0
100
AcDbLine
 10
8648.600000000007
 20
7002.039479632578
 30
0.0
 11
8748.600000000008
 21
7002.039479632578
 31
0.0
  0
LINE
  5
26522
330
747D
100
AcDbEntity
  8
部品1
 48
50.0
100
AcDbLine
 10
8798.600000000007
 20
7102.039479632579
 30
0.0
 11
8598.600000000008
 21
7102.039479632579
 31
0.0
  0
LINE
  5
26523
330
747D
100
AcDbEntity
  8
部品1
 48
50.0
100
AcDbLine
 10
8798.600000000007
 20
6902.039479632579
 30
0.0
 11
8598.600000000008
 21
6902.039479632579
 31
0.0
  0
LINE
  5
26524
330
747D
100
AcDbEntity
  8
部品1
 48
50.0
100
AcDbLine
 10
8598.600000000008
 20
6902.039479632579
 30
0.0
 11
8598.600000000008
 21
7102.039479632579
 31
0.0
  0
LINE
  5
26525
330
747D
100
AcDbEntity
  8
センター
 48
2.0
100
AcDbLine
 10
8698.600000000007
 20
7052.039479632579
 30
0.0
 11
8698.600000000007
 21
6952.039479632579
 31
0.0
  0
LINE
  5
26526
330
747D
100
AcDbEntity
  8
部品1
 48
50.0
100
AcDbLine
 10
8798.600000000007
 20
6902.039479632579
 30
0.0
 11
8798.600000000007
 21
7102.039479632579
 31
0.0
  0
LINE
  5
26527
330
747D
100
AcDbEntity
  8
センター
 48
2.0
100
AcDbLine
 10
8530.600000000001
 20
7359.039479632578
 30
0.0
 11
8630.600000000001
 21
7359.039479632578
 31
0.0
  0
LINE
  5
26528
330
747D
100
AcDbEntity
  8
センター
 48
2.0
100
AcDbLine
 10
8580.600000000002
 20
7409.039479632578
 30
0.0
 11
8580.600000000002
 21
7309.039479632578
 31
0.0
  0
CIRCLE
  5
26529
330
747D
100
AcDbEntity
  8
部品1
 48
50.0
100
AcDbCircle
 10
8580.600000000002
 20
7359.039479632578
 30
0.0
 40
35.0
  0
LINE
  5
2652A
330
747D
100
AcDbEntity
  8
センター
 48
2.0
100
AcDbLine
 10
8530.600000000001
 20
7359.039479632578
 30
0.0
 11
8630.600000000001
 21
7359.039479632578
 31
0.0
  0
CIRCLE
  5
2652B
330
747D
100
AcDbEntity
  8
部品1
 48
50.0
100
AcDbCircle
 10
8580.600000000002
 20
7359.039479632578
 30
0.0
 40
35.0
  0
LINE
  5
2652C
330
747D
100
AcDbEntity
  8
センター
 48
2.0
100
AcDbLine
 10
8580.600000000002
 20
7409.039479632578
 30
0.0
 11
8580.600000000002
 21
7309.039479632578
 31
0.0
  0
LINE
  5
2652D
330
747D
100
AcDbEntity
  8
細線
 48
50.0
100
AcDbLine
 10
9073.599999999997
 20
7463.86584921175
 30
0.0
 11
9091.77363042081
 21
7482.039479632565
 31
0.0
  0
LINE
  5
2652E
330
747D
100
AcDbEntity
  8
部品1
 48
50.0
100
AcDbLine
 10
10023.59999999999
 20
7482.039479632542
 30
0.0
 11
10023.6
 21
7282.039479632556
 31
0.0
  0
LINE
  5
2652F
330
747D
100
AcDbEntity
  8
部品1
 48
50.0
100
AcDbLine
 10
9273.599999999998
 20
7482.039479632565
 30
0.0
 11
9273.6
 21
7282.039479632579
 31
0.0
  0
LINE
  5
26530
330
747D
100
AcDbEntity
  8
センター
 48
2.0
100
AcDbLine
 10
9598.600000000008
 20
7002.039479632578
 30
0.0
 11
9698.600000000007
 21
7002.039479632578
 31
0.0
  0
LINE
  5
26531
330
747D
100
AcDbEntity
  8
部品1
 48
50.0
100
AcDbLine
 10
9748.600000000008
 20
7102.039479632579
 30
0.0
 11
9548.600000000007
 21
7102.039479632579
 31
0.0
  0
LINE
  5
26532
330
747D
100
AcDbEntity
  8
部品1
 48
50.0
100
AcDbLine
 10
9748.600000000008
 20
6902.039479632579
 30
0.0
 11
9548.600000000007
 21
6902.039479632579
 31
0.0
  0
LINE
  5
26533
330
747D
100
AcDbEntity
  8
部品1
 48
50.0
100
AcDbLine
 10
9548.600000000007
 20
6902.039479632579
 30
0.0
 11
9548.600000000007
 21
7102.039479632579
 31
0.0
  0
LINE
  5
26534
330
747D
100
AcDbEntity
  8
センター
 48
2.0
100
AcDbLine
 10
9648.600000000008
 20
7052.039479632579
 30
0.0
 11
9648.600000000008
 21
6952.039479632579
 31
0.0
  0
LINE
  5
26535
330
747D
100
AcDbEntity
  8
部品1
 48
50.0
100
AcDbLine
 10
9748.600000000008
 20
6902.039479632579
 30
0.0
 11
9748.600000000008
 21
7102.039479632579
 31
0.0
  0
LINE
  5
26536
330
747D
100
AcDbEntity
  8
細線
 48
50.0
100
AcDbLine
 10
10023.59999999999
 20
7463.865849211728
 30
0.0
 11
10041.77363042081
 21
7482.039479632542
 31
0.0
  0
DIMENSION
  5
26537
330
747D
100
AcDbEntity
  8
寸法
 48
50.0
100
AcDbDimension
  2
*D49
 10
10598.60000000001
 20
7964.648296302826
 30
0.0
 11
11076.1
 21
8064.648296302825
 31
0.0
 70
    32
 71
     5
 42
954.9999999999927
  3
INABA_S40G
100
AcDbAlignedDimension
 13
11553.6
 23
7482.039479632579
 33
0.0
 14
10598.60000000001
 24
7052.039479632579
 34
0.0
100
AcDbRotatedDimension
1001
ACAD
1000
DSTYLE
1002
{
1070
   341
1005
0
1002
}
  0
LINE
  5
26538
330
747D
100
AcDbEntity
  8
部品1
 48
50.0
100
AcDbLine
 10
10223.59999999999
 20
7482.039479632542
 30
0.0
 11
10223.6
 21
7282.039479632556
 31
0.0
  0
LINE
  5
26539
330
747D
100
AcDbEntity
  8
細線
 48
50.0
100
AcDbLine
 10
10200.9838752636
 20
7282.039479632556
 30
0.0
 11
10223.6
 21
7304.655604368955
 31
0.0
  0
LINE
  5
2653A
330
747D
100
AcDbEntity
  8
細線
 48
50.0
100
AcDbLine
 10
10156.08259465825
 20
7282.039479632558
 30
0.0
 11
10223.6
 21
7349.556884974304
 31
0.0
  0
LINE
  5
2653B
330
747D
100
AcDbEntity
  8
細線
 48
50.0
100
AcDbLine
 10
10111.18131405291
 20
7282.039479632558
 30
0.0
 11
10223.6
 21
7394.458165579656
 31
0.0
  0
LINE
  5
2653C
330
747D
100
AcDbEntity
  8
部品1
 48
50.0
100
AcDbLine
 10
10698.60000000001
 20
7102.039479632579
 30
0.0
 11
10498.60000000001
 21
7102.039479632579
 31
0.0
  0
LINE
  5
2653D
330
747D
100
AcDbEntity
  8
センター
 48
2.0
100
AcDbLine
 10
10548.60000000001
 20
7002.039479632578
 30
0.0
 11
10648.60000000001
 21
7002.039479632578
 31
0.0
  0
LINE
  5
2653E
330
747D
100
AcDbEntity
  8
部品1
 48
50.0
100
AcDbLine
 10
10698.60000000001
 20
6902.039479632579
 30
0.0
 11
10498.60000000001
 21
6902.039479632579
 31
0.0
  0
LINE
  5
2653F
330
747D
100
AcDbEntity
  8
部品1
 48
50.0
100
AcDbLine
 10
10698.60000000001
 20
6902.039479632579
 30
0.0
 11
10698.60000000001
 21
7102.039479632579
 31
0.0
  0
LINE
  5
26540
330
747D
100
AcDbEntity
  8
部品1
 48
50.0
100
AcDbLine
 10
10498.60000000001
 20
6902.039479632579
 30
0.0
 11
10498.60000000001
 21
7102.039479632579
 31
0.0
  0
LINE
  5
26541
330
747D
100
AcDbEntity
  8
センター
 48
2.0
100
AcDbLine
 10
10598.60000000001
 20
7052.039479632579
 30
0.0
 11
10598.60000000001
 21
6952.039479632579
 31
0.0
  0
LINE
  5
26542
330
747D
100
AcDbEntity
  8
細線
 48
50.0
100
AcDbLine
 10
10973.59999999999
 20
7418.964568606385
 30
0.0
 11
11036.67491102616
 21
7482.039479632542
 31
0.0
  0
LINE
  5
26543
330
747D
100
AcDbEntity
  8
細線
 48
50.0
100
AcDbLine
 10
10973.6
 20
7374.063288001036
 30
0.0
 11
11081.5761916315
 21
7482.039479632542
 31
0.0
  0
LINE
  5
26544
330
747D
100
AcDbEntity
  8
細線
 48
50.0
100
AcDbLine
 10
10973.6
 20
7329.162007395689
 30
0.0
 11
11126.47747223685
 21
7482.039479632542
 31
0.0
  0
LINE
  5
26545
330
747D
100
AcDbEntity
  8
細線
 48
50.0
100
AcDbLine
 10
10973.6
 20
7284.260726790347
 30
0.0
 11
11171.37875284219
 21
7482.039479632542
 31
0.0
  0
LINE
  5
26546
330
747D
100
AcDbEntity
  8
部品1
 48
50.0
100
AcDbLine
 10
11173.59999999999
 20
7482.039479632542
 30
0.0
 11
11173.6
 21
7282.039479632556
 31
0.0
  0
LINE
  5
26547
330
747D
100
AcDbEntity
  8
部品1
 48
50.0
100
AcDbLine
 10
10973.59999999999
 20
7482.039479632542
 30
0.0
 11
10973.6
 21
7282.039479632556
 31
0.0
  0
LINE
  5
26548
330
747D
100
AcDbEntity
  8
細線
 48
50.0
100
AcDbLine
 10
11106.08259465825
 20
7282.039479632558
 30
0.0
 11
11173.6
 21
7349.556884974304
 31
0.0
  0
LINE
  5
26549
330
747D
100
AcDbEntity
  8
細線
 48
50.0
100
AcDbLine
 10
11016.28003344755
 20
7282.039479632555
 30
0.0
 11
11173.59999999999
 21
7439.359446184998
 31
0.0
  0
LINE
  5
2654A
330
747D
100
AcDbEntity
  8
細線
 48
50.0
100
AcDbLine
 10
11061.18131405291
 20
7282.039479632558
 30
0.0
 11
11173.6
 21
7394.458165579656
 31
0.0
  0
LINE
  5
2654B
330
747D
100
AcDbEntity
  8
細線
 48
50.0
100
AcDbLine
 10
11150.98387526361
 20
7282.039479632556
 30
0.0
 11
11173.6
 21
7304.655604368955
 31
0.0
  0
LINE
  5
2654C
330
747D
100
AcDbEntity
  8
細線
 48
50.0
100
AcDbLine
 10
11501.18131405289
 20
6927.039479632615
 30
0.0
 11
11553.59999999999
 21
6979.458165579709
 31
0.0
  0
LINE
  5
2654D
330
747D
100
AcDbEntity
  8
細線
 48
50.0
100
AcDbLine
 10
11456.28003344755
 20
6927.039479632615
 30
0.0
 11
11553.59999999999
 21
7024.359446185053
 31
0.0
  0
LINE
  5
2654E
330
747D
100
AcDbEntity
  8
細線
 48
50.0
100
AcDbLine
 10
11433.6
 20
6949.260726790409
 30
0.0
 11
11553.59999999999
 21
7069.2607267904
 31
0.0
  0
LINE
  5
2654F
330
747D
100
AcDbEntity
  8
細線
 48
50.0
100
AcDbLine
 10
11433.6
 20
6994.162007395755
 30
0.0
 11
11553.59999999999
 21
7114.162007395744
 31
0.0
  0
LINE
  5
26550
330
747D
100
AcDbEntity
  8
細線
 48
50.0
100
AcDbLine
 10
11433.6
 20
7039.063288001099
 30
0.0
 11
11521.57619163151
 21
7127.039479632614
 31
0.0
  0
LINE
  5
26551
330
747D
100
AcDbEntity
  8
部品1
 48
50.0
100
AcDbLine
 10
11553.59999999999
 20
7127.039479632614
 30
0.0
 11
11433.6
 21
7127.039479632614
 31
0.0
  0
LINE
  5
26552
330
747D
100
AcDbEntity
  8
部品1
 48
50.0
100
AcDbLine
 10
11553.59999999999
 20
6927.039479632615
 30
0.0
 11
11433.6
 21
6927.039479632615
 31
0.0
  0
LINE
  5
26553
330
747D
100
AcDbEntity
  8
細線
 48
50.0
100
AcDbLine
 10
11433.6
 20
7083.964568606448
 30
0.0
 11
11476.67491102617
 21
7127.039479632616
 31
0.0
  0
LINE
  5
26554
330
747D
100
AcDbEntity
  8
細線
 48
50.0
100
AcDbLine
 10
11546.08259465824
 20
6927.039479632611
 30
0.0
 11
11553.59999999999
 21
6934.556884974361
 31
0.0
  0
LINE
  5
26555
330
747D
100
AcDbEntity
  8
センター
 48
2.0
100
AcDbLine
 10
11430.6
 20
7409.039479632578
 30
0.0
 11
11430.6
 21
7309.039479632578
 31
0.0
  0
LINE
  5
26556
330
747D
100
AcDbEntity
  8
センター
 48
2.0
100
AcDbLine
 10
11380.6
 20
7359.039479632578
 30
0.0
 11
11480.6
 21
7359.039479632578
 31
0.0
  0
CIRCLE
  5
26557
330
747D
100
AcDbEntity
  8
部品1
 48
50.0
100
AcDbCircle
 10
11430.6
 20
7359.039479632578
 30
0.0
 40
35.0
  0
LINE
  5
26558
330
747D
100
AcDbEntity
  8
細線
 48
50.0
100
AcDbLine
 10
10973.59999999999
 20
7463.865849211728
 30
0.0
 11
10991.77363042081
 21
7482.039479632542
 31
0.0
  0
TEXT
  5
269D9
330
747D
100
AcDbEntity
  8
文字
 62
     7
 48
50.0
100
AcDbText
 10
14251.2
 20
838.2527270729188
 30
0.0
 40
100.0
  1
～一般型・多雪地型・豪雪地型～
  7
STYLE2
100
AcDbText
  0
LINE
  5
269F9
330
747D
100
AcDbEntity
  8
部品1
 48
50.0
100
AcDbLine
 10
11433.6
 20
6802.039479632611
 30
0.0
 11
5013.6
 21
6802.039479632573
 31
0.0
  0
LINE
  5
269FA
330
747D
100
AcDbEntity
  8
細線
 48
50.0
100
AcDbLine
 10
6223.599999999994
 20
6745.445359526218
 30
0.0
 11
6280.194120106344
 21
6802.039479632576
 31
0.0
  0
LINE
  5
269FB
330
747D
100
AcDbEntity
  8
細線
 48
50.0
100
AcDbLine
 10
6223.599999999997
 20
6700.544078920877
 30
0.0
 11
6325.095400711694
 21
6802.039479632576
 31
0.0
  0
LINE
  5
269FC
330
747D
100
AcDbEntity
  8
細線
 48
50.0
100
AcDbLine
 10
6223.599999999999
 20
6655.642798315525
 30
0.0
 11
6369.996681317033
 21
6802.039479632577
 31
0.0
  0
LINE
  5
269FD
330
747D
100
AcDbEntity
  8
細線
 48
50.0
100
AcDbLine
 10
6223.599999999997
 20
6610.741517710183
 30
0.0
 11
6414.897961922392
 21
6802.039479632579
 31
0.0
  0
LINE
  5
269FE
330
747D
100
AcDbEntity
  8
細線
 48
50.0
100
AcDbLine
 10
6404.305645554458
 20
6522.039479632569
 30
0.0
 11
6423.6
 21
6541.333834078111
 31
0.0
  0
LINE
  5
269FF
330
747D
100
AcDbEntity
  8
部品1
 48
50.0
100
AcDbLine
 10
6223.599999999994
 20
6802.039479632576
 30
0.0
 11
6223.599999999999
 21
6522.039479632564
 31
0.0
  0
LINE
  5
26A00
330
747D
100
AcDbEntity
  8
部品1
 48
50.0
100
AcDbLine
 10
6423.599999999995
 20
6802.039479632577
 30
0.0
 11
6423.599999999999
 21
6522.039479632567
 31
0.0
  0
LINE
  5
26A01
330
747D
100
AcDbEntity
  8
細線
 48
50.0
100
AcDbLine
 10
6223.6
 20
6565.840237104838
 30
0.0
 11
6423.599999999995
 21
6765.840237104832
 31
0.0
  0
LINE
  5
26A02
330
747D
100
AcDbEntity
  8
細線
 48
50.0
100
AcDbLine
 10
6224.700523133073
 20
6522.039479632564
 30
0.0
 11
6423.599999999996
 21
6720.938956499489
 31
0.0
  0
LINE
  5
26A03
330
747D
100
AcDbEntity
  8
細線
 48
50.0
100
AcDbLine
 10
6269.601803738417
 20
6522.039479632565
 30
0.0
 11
6423.599999999996
 21
6676.037675894143
 31
0.0
  0
LINE
  5
26A04
330
747D
100
AcDbEntity
  8
細線
 48
50.0
100
AcDbLine
 10
6314.503084343765
 20
6522.039479632565
 30
0.0
 11
6423.599999999999
 21
6631.1363952888
 31
0.0
  0
LINE
  5
26A05
330
747D
100
AcDbEntity
  8
細線
 48
50.0
100
AcDbLine
 10
6359.404364949114
 20
6522.039479632567
 30
0.0
 11
6423.6
 21
6586.235114683455
 31
0.0
  0
LINE
  5
26A06
330
747D
100
AcDbEntity
  8
細線
 48
50.0
100
AcDbLine
 10
7173.599999999995
 20
6745.445359526218
 30
0.0
 11
7230.194120106344
 21
6802.039479632576
 31
0.0
  0
LINE
  5
26A07
330
747D
100
AcDbEntity
  8
細線
 48
50.0
100
AcDbLine
 10
7173.599999999997
 20
6700.544078920877
 30
0.0
 11
7275.095400711693
 21
6802.039479632576
 31
0.0
  0
LINE
  5
26A08
330
747D
100
AcDbEntity
  8
細線
 48
50.0
100
AcDbLine
 10
7173.599999999999
 20
6655.642798315525
 30
0.0
 11
7319.996681317033
 21
6802.039479632577
 31
0.0
  0
LINE
  5
26A09
330
747D
100
AcDbEntity
  8
細線
 48
50.0
100
AcDbLine
 10
7173.599999999997
 20
6610.741517710183
 30
0.0
 11
7364.897961922394
 21
6802.039479632579
 31
0.0
  0
LINE
  5
26A0A
330
747D
100
AcDbEntity
  8
細線
 48
50.0
100
AcDbLine
 10
7354.305645554458
 20
6522.039479632569
 30
0.0
 11
7373.6
 21
6541.333834078111
 31
0.0
  0
LINE
  5
26A0B
330
747D
100
AcDbEntity
  8
部品1
 48
50.0
100
AcDbLine
 10
7173.599999999995
 20
6802.039479632576
 30
0.0
 11
7173.599999999999
 21
6522.039479632564
 31
0.0
  0
LINE
  5
26A0C
330
747D
100
AcDbEntity
  8
部品1
 48
50.0
100
AcDbLine
 10
7373.599999999995
 20
6802.039479632577
 30
0.0
 11
7373.599999999999
 21
6522.039479632567
 31
0.0
  0
LINE
  5
26A0D
330
747D
100
AcDbEntity
  8
細線
 48
50.0
100
AcDbLine
 10
7173.599999999999
 20
6565.840237104838
 30
0.0
 11
7373.599999999995
 21
6765.840237104832
 31
0.0
  0
LINE
  5
26A0E
330
747D
100
AcDbEntity
  8
細線
 48
50.0
100
AcDbLine
 10
7174.700523133073
 20
6522.039479632564
 30
0.0
 11
7373.599999999997
 21
6720.938956499489
 31
0.0
  0
LINE
  5
26A0F
330
747D
100
AcDbEntity
  8
細線
 48
50.0
100
AcDbLine
 10
7219.601803738417
 20
6522.039479632565
 30
0.0
 11
7373.599999999997
 21
6676.037675894143
 31
0.0
  0
LINE
  5
26A10
330
747D
100
AcDbEntity
  8
細線
 48
50.0
100
AcDbLine
 10
7264.503084343765
 20
6522.039479632565
 30
0.0
 11
7373.599999999999
 21
6631.1363952888
 31
0.0
  0
LINE
  5
26A11
330
747D
100
AcDbEntity
  8
細線
 48
50.0
100
AcDbLine
 10
7309.404364949113
 20
6522.039479632567
 30
0.0
 11
7373.6
 21
6586.235114683455
 31
0.0
  0
LINE
  5
26A12
330
747D
100
AcDbEntity
  8
細線
 48
50.0
100
AcDbLine
 10
8123.599999999994
 20
6745.445359526218
 30
0.0
 11
8180.194120106344
 21
6802.039479632576
 31
0.0
  0
LINE
  5
26A13
330
747D
100
AcDbEntity
  8
細線
 48
50.0
100
AcDbLine
 10
8123.599999999997
 20
6700.544078920877
 30
0.0
 11
8225.095400711692
 21
6802.039479632576
 31
0.0
  0
LINE
  5
26A14
330
747D
100
AcDbEntity
  8
細線
 48
50.0
100
AcDbLine
 10
8123.599999999999
 20
6655.642798315525
 30
0.0
 11
8269.996681317032
 21
6802.039479632577
 31
0.0
  0
LINE
  5
26A15
330
747D
100
AcDbEntity
  8
細線
 48
50.0
100
AcDbLine
 10
8123.599999999997
 20
6610.741517710183
 30
0.0
 11
8314.897961922394
 21
6802.039479632579
 31
0.0
  0
LINE
  5
26A16
330
747D
100
AcDbEntity
  8
細線
 48
50.0
100
AcDbLine
 10
8304.305645554457
 20
6522.039479632569
 30
0.0
 11
8323.6
 21
6541.333834078111
 31
0.0
  0
LINE
  5
26A17
330
747D
100
AcDbEntity
  8
部品1
 48
50.0
100
AcDbLine
 10
8123.599999999994
 20
6802.039479632576
 30
0.0
 11
8123.599999999999
 21
6522.039479632564
 31
0.0
  0
LINE
  5
26A18
330
747D
100
AcDbEntity
  8
部品1
 48
50.0
100
AcDbLine
 10
8323.599999999995
 20
6802.039479632577
 30
0.0
 11
8323.599999999998
 21
6522.039479632567
 31
0.0
  0
LINE
  5
26A19
330
747D
100
AcDbEntity
  8
細線
 48
50.0
100
AcDbLine
 10
8123.599999999999
 20
6565.840237104838
 30
0.0
 11
8323.599999999995
 21
6765.840237104832
 31
0.0
  0
LINE
  5
26A1A
330
747D
100
AcDbEntity
  8
細線
 48
50.0
100
AcDbLine
 10
8124.700523133073
 20
6522.039479632564
 30
0.0
 11
8323.599999999997
 21
6720.938956499489
 31
0.0
  0
LINE
  5
26A1B
330
747D
100
AcDbEntity
  8
細線
 48
50.0
100
AcDbLine
 10
8169.601803738418
 20
6522.039479632565
 30
0.0
 11
8323.599999999997
 21
6676.037675894143
 31
0.0
  0
LINE
  5
26A1C
330
747D
100
AcDbEntity
  8
細線
 48
50.0
100
AcDbLine
 10
8214.503084343766
 20
6522.039479632565
 30
0.0
 11
8323.599999999998
 21
6631.1363952888
 31
0.0
  0
LINE
  5
26A1D
330
747D
100
AcDbEntity
  8
細線
 48
50.0
100
AcDbLine
 10
8259.404364949114
 20
6522.039479632567
 30
0.0
 11
8323.6
 21
6586.235114683455
 31
0.0
  0
LINE
  5
26A1E
330
747D
100
AcDbEntity
  8
細線
 48
50.0
100
AcDbLine
 10
9073.599999999995
 20
6745.445359526218
 30
0.0
 11
9130.194120106343
 21
6802.039479632576
 31
0.0
  0
LINE
  5
26A1F
330
747D
100
AcDbEntity
  8
細線
 48
50.0
100
AcDbLine
 10
9073.599999999997
 20
6700.544078920877
 30
0.0
 11
9175.095400711693
 21
6802.039479632576
 31
0.0
  0
LINE
  5
26A20
330
747D
100
AcDbEntity
  8
細線
 48
50.0
100
AcDbLine
 10
9073.599999999998
 20
6655.642798315525
 30
0.0
 11
9219.996681317033
 21
6802.039479632577
 31
0.0
  0
LINE
  5
26A21
330
747D
100
AcDbEntity
  8
細線
 48
50.0
100
AcDbLine
 10
9073.599999999997
 20
6610.741517710183
 30
0.0
 11
9264.897961922393
 21
6802.039479632579
 31
0.0
  0
LINE
  5
26A22
330
747D
100
AcDbEntity
  8
細線
 48
50.0
100
AcDbLine
 10
9254.305645554458
 20
6522.039479632569
 30
0.0
 11
9273.6
 21
6541.333834078111
 31
0.0
  0
LINE
  5
26A23
330
747D
100
AcDbEntity
  8
部品1
 48
50.0
100
AcDbLine
 10
9073.599999999995
 20
6802.039479632576
 30
0.0
 11
9073.599999999998
 21
6522.039479632564
 31
0.0
  0
LINE
  5
26A24
330
747D
100
AcDbEntity
  8
部品1
 48
50.0
100
AcDbLine
 10
9273.599999999994
 20
6802.039479632577
 30
0.0
 11
9273.6
 21
6522.039479632567
 31
0.0
  0
LINE
  5
26A25
330
747D
100
AcDbEntity
  8
細線
 48
50.0
100
AcDbLine
 10
9073.599999999998
 20
6565.840237104838
 30
0.0
 11
9273.599999999994
 21
6765.840237104832
 31
0.0
  0
LINE
  5
26A26
330
747D
100
AcDbEntity
  8
細線
 48
50.0
100
AcDbLine
 10
9074.700523133072
 20
6522.039479632564
 30
0.0
 11
9273.599999999998
 21
6720.938956499489
 31
0.0
  0
LINE
  5
26A27
330
747D
100
AcDbEntity
  8
細線
 48
50.0
100
AcDbLine
 10
9119.601803738417
 20
6522.039479632565
 30
0.0
 11
9273.599999999998
 21
6676.037675894143
 31
0.0
  0
LINE
  5
26A28
330
747D
100
AcDbEntity
  8
細線
 48
50.0
100
AcDbLine
 10
9164.503084343765
 20
6522.039479632565
 30
0.0
 11
9273.6
 21
6631.1363952888
 31
0.0
  0
LINE
  5
26A29
330
747D
100
AcDbEntity
  8
細線
 48
50.0
100
AcDbLine
 10
9209.404364949113
 20
6522.039479632567
 30
0.0
 11
9273.6
 21
6586.235114683455
 31
0.0
  0
LINE
  5
26A2A
330
747D
100
AcDbEntity
  8
細線
 48
50.0
100
AcDbLine
 10
10023.59999999999
 20
6745.445359526218
 30
0.0
 11
10080.19412010634
 21
6802.039479632576
 31
0.0
  0
LINE
  5
26A2B
330
747D
100
AcDbEntity
  8
細線
 48
50.0
100
AcDbLine
 10
10023.59999999999
 20
6700.544078920877
 30
0.0
 11
10125.09540071169
 21
6802.039479632576
 31
0.0
  0
LINE
  5
26A2C
330
747D
100
AcDbEntity
  8
細線
 48
50.0
100
AcDbLine
 10
10023.6
 20
6655.642798315525
 30
0.0
 11
10169.99668131703
 21
6802.039479632577
 31
0.0
  0
LINE
  5
26A2D
330
747D
100
AcDbEntity
  8
細線
 48
50.0
100
AcDbLine
 10
10023.59999999999
 20
6610.741517710183
 30
0.0
 11
10214.89796192239
 21
6802.039479632579
 31
0.0
  0
LINE
  5
26A2E
330
747D
100
AcDbEntity
  8
細線
 48
50.0
100
AcDbLine
 10
10204.30564555446
 20
6522.039479632569
 30
0.0
 11
10223.6
 21
6541.333834078111
 31
0.0
  0
LINE
  5
26A2F
330
747D
100
AcDbEntity
  8
部品1
 48
50.0
100
AcDbLine
 10
10023.59999999999
 20
6802.039479632576
 30
0.0
 11
10023.6
 21
6522.039479632564
 31
0.0
  0
LINE
  5
26A30
330
747D
100
AcDbEntity
  8
部品1
 48
50.0
100
AcDbLine
 10
10223.59999999999
 20
6802.039479632577
 30
0.0
 11
10223.6
 21
6522.039479632567
 31
0.0
  0
LINE
  5
26A31
330
747D
100
AcDbEntity
  8
細線
 48
50.0
100
AcDbLine
 10
10023.6
 20
6565.840237104838
 30
0.0
 11
10223.59999999999
 21
6765.840237104832
 31
0.0
  0
LINE
  5
26A32
330
747D
100
AcDbEntity
  8
細線
 48
50.0
100
AcDbLine
 10
10024.70052313307
 20
6522.039479632564
 30
0.0
 11
10223.59999999999
 21
6720.938956499489
 31
0.0
  0
LINE
  5
26A33
330
747D
100
AcDbEntity
  8
細線
 48
50.0
100
AcDbLine
 10
10069.60180373841
 20
6522.039479632565
 30
0.0
 11
10223.59999999999
 21
6676.037675894143
 31
0.0
  0
LINE
  5
26A34
330
747D
100
AcDbEntity
  8
細線
 48
50.0
100
AcDbLine
 10
10114.50308434376
 20
6522.039479632565
 30
0.0
 11
10223.6
 21
6631.1363952888
 31
0.0
  0
LINE
  5
26A35
330
747D
100
AcDbEntity
  8
細線
 48
50.0
100
AcDbLine
 10
10159.40436494911
 20
6522.039479632567
 30
0.0
 11
10223.6
 21
6586.235114683455
 31
0.0
  0
LINE
  5
26A36
330
747D
100
AcDbEntity
  8
細線
 48
50.0
100
AcDbLine
 10
10973.59999999999
 20
6745.445359526218
 30
0.0
 11
11030.19412010634
 21
6802.039479632576
 31
0.0
  0
LINE
  5
26A37
330
747D
100
AcDbEntity
  8
細線
 48
50.0
100
AcDbLine
 10
10973.59999999999
 20
6700.544078920877
 30
0.0
 11
11075.09540071169
 21
6802.039479632576
 31
0.0
  0
LINE
  5
26A38
330
747D
100
AcDbEntity
  8
細線
 48
50.0
100
AcDbLine
 10
10973.6
 20
6655.642798315525
 30
0.0
 11
11119.99668131703
 21
6802.039479632577
 31
0.0
  0
LINE
  5
26A39
330
747D
100
AcDbEntity
  8
細線
 48
50.0
100
AcDbLine
 10
10973.59999999999
 20
6610.741517710183
 30
0.0
 11
11164.89796192239
 21
6802.039479632579
 31
0.0
  0
LINE
  5
26A3A
330
747D
100
AcDbEntity
  8
細線
 48
50.0
100
AcDbLine
 10
11154.30564555446
 20
6522.039479632569
 30
0.0
 11
11173.6
 21
6541.333834078111
 31
0.0
  0
LINE
  5
26A3B
330
747D
100
AcDbEntity
  8
部品1
 48
50.0
100
AcDbLine
 10
10973.59999999999
 20
6802.039479632576
 30
0.0
 11
10973.6
 21
6522.039479632564
 31
0.0
  0
LINE
  5
26A3C
330
747D
100
AcDbEntity
  8
部品1
 48
50.0
100
AcDbLine
 10
11173.59999999999
 20
6802.039479632577
 30
0.0
 11
11173.6
 21
6522.039479632567
 31
0.0
  0
LINE
  5
26A3D
330
747D
100
AcDbEntity
  8
細線
 48
50.0
100
AcDbLine
 10
10973.6
 20
6565.840237104838
 30
0.0
 11
11173.59999999999
 21
6765.840237104832
 31
0.0
  0
LINE
  5
26A3E
330
747D
100
AcDbEntity
  8
細線
 48
50.0
100
AcDbLine
 10
10974.70052313307
 20
6522.039479632564
 30
0.0
 11
11173.59999999999
 21
6720.938956499489
 31
0.0
  0
LINE
  5
26A3F
330
747D
100
AcDbEntity
  8
細線
 48
50.0
100
AcDbLine
 10
11019.60180373841
 20
6522.039479632565
 30
0.0
 11
11173.59999999999
 21
6676.037675894143
 31
0.0
  0
LINE
  5
26A40
330
747D
100
AcDbEntity
  8
細線
 48
50.0
100
AcDbLine
 10
11064.50308434376
 20
6522.039479632565
 30
0.0
 11
11173.6
 21
6631.1363952888
 31
0.0
  0
LINE
  5
26A41
330
747D
100
AcDbEntity
  8
細線
 48
50.0
100
AcDbLine
 10
11109.40436494911
 20
6522.039479632567
 30
0.0
 11
11173.6
 21
6586.235114683455
 31
0.0
  0
LINE
  5
26A6A
330
747D
100
AcDbEntity
  8
部品1
 48
50.0
100
AcDbLine
 10
11433.6
 20
6802.039479632611
 30
0.0
 11
11433.6
 21
7282.039479632579
 31
0.0
  0
LINE
  5
26A6B
330
747D
100
AcDbEntity
  8
部品1
 48
50.0
100
AcDbLine
 10
5013.6
 20
6802.039479632575
 30
0.0
 11
5013.599999999996
 21
7282.039479632579
 31
0.0
  0
MTEXT
  5
26C03
102
{ACAD_REACTORS
330
26C04
102
}
330
747D
100
AcDbEntity
  8
寸法
 62
     7
 48
50.0
100
AcDbMText
 10
10693.27317200292
 20
2249.035836086555
 30
0.0
 40
120.0
 41
0.8
 71
     4
 72
     1
  1
\A1;C.B
  7
STYLE1
 73
     1
 44
1.0
1001
ACAD
1000
MTEXTBEGIN
1070
    73
1070
     1
1070
    44
1040
1.0
1070
    74
1070
     0
1000
MTEXTEND
  0
LEADER
  5
26C04
330
747D
100
AcDbEntity
  8
寸法
 48
50.0
100
AcDbLeader
  3
INABA_S50G
 73
     0
 74
     0
 75
     1
 40
120.0
 41
185.591883092037
 76
     3
 10
10510.13496536928
 20
1991.889515405417
 30
0.0
 10
10543.27317200292
 20
2164.035836086555
 30
0.0
 10
10668.27317200292
 20
2164.035836086555
 30
0.0
340
26C03
1001
ACAD
1000
DSTYLE
1002
{
1070
    40
1040
1.0
1002
}
  0
LINE
  5
26C05
330
747D
100
AcDbEntity
  8
細線
 48
50.0
100
AcDbLine
 10
10655.78837894569
 20
1636.190599752066
 30
0.0
 11
10649.35759832734
 21
1660.190599752066
 31
0.0
  0
LINE
  5
26C06
330
747D
100
AcDbEntity
  8
細線
 48
50.0
100
AcDbLine
 10
10634.3524435512
 20
1556.190599752066
 30
0.0
 11
10640.78322416955
 21
1532.190599752066
 31
0.0
  0
LINE
  5
26C07
330
747D
100
AcDbEntity
  8
部品1
100
AcDbLine
 10
10699.41055375336
 20
1751.889515405417
 30
0.0
 11
10699.41055375336
 21
1532.190599752067
 31
0.0
  0
LINE
  5
26C08
330
747D
100
AcDbEntity
  8
細線
 48
50.0
100
AcDbLine
 10
10627.92166293285
 20
1532.190599752066
 30
0.0
 11
10662.21915956403
 21
1660.190599752064
 31
0.0
  0
LINE
  5
26C09
330
747D
100
AcDbEntity
  8
細線
 48
50.0
100
AcDbLine
 10
10576.90033399844
 20
1636.190599752066
 30
0.0
 11
10570.46955338009
 21
1660.190599752066
 31
0.0
  0
LINE
  5
26C0A
330
747D
100
AcDbEntity
  8
細線
100
AcDbLine
 10
10452.44694825269
 20
1660.190599752069
 30
0.0
 11
10544.14586390603
 21
1751.889515405417
 31
0.0
  0
LINE
  5
26C0B
330
747D
100
AcDbEntity
  8
細線
 48
50.0
100
AcDbLine
 10
10498.01228905118
 20
1636.190599752067
 30
0.0
 11
10491.58150843284
 21
1660.190599752067
 31
0.0
  0
LINE
  5
26C0C
330
747D
100
AcDbEntity
  8
細線
100
AcDbLine
 10
10486.38807374965
 20
1660.190599752069
 30
0.0
 11
10578.08698940299
 21
1751.889515405417
 31
0.0
  0
LINE
  5
26C0D
330
747D
100
AcDbEntity
  8
細線
 48
50.0
100
AcDbLine
 10
10261.34815420945
 20
1636.190599752067
 30
0.0
 11
10254.91737359111
 21
1660.190599752067
 31
0.0
  0
LINE
  5
26C0E
330
747D
100
AcDbEntity
  8
細線
 48
50.0
100
AcDbLine
 10
10340.2361991567
 20
1636.190599752067
 30
0.0
 11
10333.80541853835
 21
1660.190599752067
 31
0.0
  0
LINE
  5
26C0F
330
747D
100
AcDbEntity
  8
細線
 48
50.0
100
AcDbLine
 10
10419.12424410395
 20
1636.190599752067
 30
0.0
 11
10412.6934634856
 21
1660.190599752067
 31
0.0
  0
LINE
  5
26C10
330
747D
100
AcDbEntity
  8
細線
 48
50.0
100
AcDbLine
 10
10555.46439860395
 20
1556.190599752066
 30
0.0
 11
10561.8951792223
 21
1532.190599752066
 31
0.0
  0
LINE
  5
26C11
330
747D
100
AcDbEntity
  8
細線
 48
50.0
100
AcDbLine
 10
10476.57635365671
 20
1556.190599752067
 30
0.0
 11
10483.00713427506
 21
1532.190599752067
 31
0.0
  0
LINE
  5
26C12
330
747D
100
AcDbEntity
  8
細線
 48
50.0
100
AcDbLine
 10
10318.80026376221
 20
1556.190599752067
 30
0.0
 11
10325.23104438056
 21
1532.190599752067
 31
0.0
  0
LINE
  5
26C13
330
747D
100
AcDbEntity
  8
細線
 48
50.0
100
AcDbLine
 10
10397.68830870946
 20
1556.190599752067
 30
0.0
 11
10404.11908932781
 21
1532.190599752067
 31
0.0
  0
LINE
  5
26C14
330
747D
100
AcDbEntity
  8
細線
 48
50.0
100
AcDbLine
 10
10391.25752809111
 20
1532.190599752067
 30
0.0
 11
10425.55502472229
 21
1660.190599752066
 31
0.0
  0
LINE
  5
26C15
330
747D
100
AcDbEntity
  8
細線
 48
50.0
100
AcDbLine
 10
10312.36948314386
 20
1532.190599752066
 30
0.0
 11
10346.66697977504
 21
1660.190599752066
 31
0.0
  0
LINE
  5
26C16
330
747D
100
AcDbEntity
  8
細線
 48
50.0
100
AcDbLine
 10
10470.14557303835
 20
1532.190599752066
 30
0.0
 11
10504.44306966953
 21
1660.190599752067
 31
0.0
  0
LINE
  5
26C17
330
747D
100
AcDbEntity
  8
細線
100
AcDbLine
 10
10520.3291992466
 20
1660.190599752069
 30
0.0
 11
10612.02811489994
 21
1751.889515405417
 31
0.0
  0
LINE
  5
26C18
330
747D
100
AcDbEntity
  8
細線
 48
50.0
100
AcDbLine
 10
10549.0336179856
 20
1532.190599752064
 30
0.0
 11
10583.33111461679
 21
1660.190599752064
 31
0.0
  0
LINE
  5
26C19
330
747D
100
AcDbEntity
  8
部品1
100
AcDbLine
 10
10579.41055375336
 20
1991.889515405417
 30
0.0
 11
10579.41055375336
 21
1751.889515405417
 31
0.0
  0
LINE
  5
26C1A
330
747D
100
AcDbEntity
  8
細線
100
AcDbLine
 10
10565.57289140577
 20
1751.889515405419
 30
0.0
 11
10325.57289140578
 21
1991.889515405417
 31
0.0
  0
LINE
  5
26C1B
330
747D
100
AcDbEntity
  8
細線
100
AcDbLine
 10
10514.66120316034
 20
1751.889515405417
 30
0.0
 11
10274.66120316034
 21
1991.889515405417
 31
0.0
  0
LINE
  5
26C1C
330
747D
100
AcDbEntity
  8
細線
100
AcDbLine
 10
10126.38807374964
 20
1660.190599752067
 30
0.0
 11
10218.08698940299
 21
1751.889515405417
 31
0.0
  0
LINE
  5
26C1D
330
747D
100
AcDbEntity
  8
細線
100
AcDbLine
 10
10092.44694825268
 20
1660.190599752067
 30
0.0
 11
10184.14586390604
 21
1751.889515405417
 31
0.0
  0
LINE
  5
26C1E
330
747D
100
AcDbEntity
  8
細線
 48
50.0
100
AcDbLine
 10
10103.57206431496
 20
1636.190599752067
 30
0.0
 11
10097.14128369661
 21
1660.190599752067
 31
0.0
  0
LINE
  5
26C1F
330
747D
100
AcDbEntity
  8
細線
 48
50.0
100
AcDbLine
 10
10182.46010926221
 20
1636.190599752067
 30
0.0
 11
10176.02932864386
 21
1660.190599752067
 31
0.0
  0
LINE
  5
26C20
330
747D
100
AcDbEntity
  8
細線
 48
50.0
100
AcDbLine
 10
10024.6840193677
 20
1636.190599752067
 30
0.0
 11
10018.25323874936
 21
1660.190599752067
 31
0.0
  0
LINE
  5
26C21
330
747D
100
AcDbEntity
  8
細線
 48
50.0
100
AcDbLine
 10
10239.91221881497
 20
1556.190599752067
 30
0.0
 11
10246.34299943331
 21
1532.190599752067
 31
0.0
  0
LINE
  5
26C22
330
747D
100
AcDbEntity
  8
細線
 48
50.0
100
AcDbLine
 10
10161.02417386772
 20
1556.190599752067
 30
0.0
 11
10167.45495448607
 21
1532.190599752067
 31
0.0
  0
LINE
  5
26C23
330
747D
100
AcDbEntity
  8
細線
 48
50.0
100
AcDbLine
 10
10003.24808397321
 20
1556.190599752067
 30
0.0
 11
10009.67886459156
 21
1532.190599752067
 31
0.0
  0
LINE
  5
26C24
330
747D
100
AcDbEntity
  8
細線
 48
50.0
100
AcDbLine
 10
10082.13612892047
 20
1556.190599752067
 30
0.0
 11
10088.56690953881
 21
1532.190599752067
 31
0.0
  0
LINE
  5
26C25
330
747D
100
AcDbEntity
  8
部品1
100
AcDbLine
 10
9979.410553753359
 20
1532.190599752063
 30
0.0
 11
9979.410553753359
 21
1751.889515405417
 31
0.0
  0
LINE
  5
26C26
330
747D
100
AcDbEntity
  8
細線
 48
50.0
100
AcDbLine
 10
9996.817303354871
 20
1532.190599752067
 30
0.0
 11
10031.11479998605
 21
1660.190599752067
 31
0.0
  0
LINE
  5
26C27
330
747D
100
AcDbEntity
  8
細線
 48
50.0
100
AcDbLine
 10
10154.59339324937
 20
1532.190599752067
 30
0.0
 11
10188.89088988055
 21
1660.190599752067
 31
0.0
  0
LINE
  5
26C28
330
747D
100
AcDbEntity
  8
細線
 48
50.0
100
AcDbLine
 10
10075.70534830211
 20
1532.190599752066
 30
0.0
 11
10110.0028449333
 21
1660.190599752066
 31
0.0
  0
LINE
  5
26C29
330
747D
100
AcDbEntity
  8
部品1
100
AcDbLine
 10
10099.41055375336
 20
1751.889515405417
 30
0.0
 11
10099.41055375336
 21
1991.889515405417
 31
0.0
  0
TEXT
  5
26C2A
330
747D
100
AcDbEntity
  8
部品1
 48
50.0
100
AcDbText
 10
9335.292466994856
 20
1485.089774768108
 30
0.0
 40
80.0
  1
ボルトの出
 50
90.0
  7
STYLE2
100
AcDbText
  0
LINE
  5
26C2B
330
747D
100
AcDbEntity
  8
細線
100
AcDbLine
 10
10243.13219918471
 20
1751.889515405417
 30
0.0
 11
10099.41055375336
 21
1895.61116083677
 31
0.0
  0
LWPOLYLINE
  5
26C2C
330
747D
100
AcDbEntity
  8
部品1
 48
50.0
100
AcDbPolyline
 90
        2
 70
     0
 43
12.0
 10
9714.799291652969
 20
1751.889515405417
 10
10915.89159478459
 20
1751.889515405417
  0
LINE
  5
26C2D
330
747D
100
AcDbEntity
  8
細線
100
AcDbLine
 10
10160.3291992466
 20
1660.190599752067
 30
0.0
 11
10252.02811489994
 21
1751.889515405417
 31
0.0
  0
LINE
  5
26C2E
330
747D
100
AcDbEntity
  8
部品1
100
AcDbLine
 10
9979.410553753359
 20
1660.190599752067
 30
0.0
 11
10699.41055375336
 21
1660.19059975207
 31
0.0
  0
LINE
  5
26C2F
330
747D
100
AcDbEntity
  8
部品1
100
AcDbLine
 10
9979.410553753359
 20
1532.190599752063
 30
0.0
 11
10699.41055375336
 21
1532.190599752067
 31
0.0
  0
LINE
  5
26C30
330
747D
100
AcDbEntity
  8
細線
 48
50.0
100
AcDbLine
 10
10233.48143819661
 20
1532.190599752067
 30
0.0
 11
10267.7789348278
 21
1660.190599752066
 31
0.0
  0
LINE
  5
26C31
330
747D
100
AcDbEntity
  8
部品1
100
AcDbLine
 10
10099.41055375336
 20
1991.889515405417
 30
0.0
 11
10579.41055375336
 21
1991.889515405417
 31
0.0
  0
LINE
  5
26C32
330
747D
100
AcDbEntity
  8
細線
100
AcDbLine
 10
10294.04388743014
 20
1751.889515405417
 30
0.0
 11
10099.41055375336
 21
1946.5228490822
 31
0.0
  0
LINE
  5
26C33
330
747D
100
AcDbEntity
  8
部品1
100
AcDbLine
 10
11286.15205485039
 20
426.9212130213555
 30
0.0
 11
11286.15205485039
 21
3391.228182606003
 31
0.0
  0
TEXT
  5
26C34
330
747D
100
AcDbEntity
  8
部品1
100
AcDbText
 10
7908.046870642531
 20
3211.676250654575
 30
0.0
 40
120.0
  1
基礎詳細
  7
STYLE2
100
AcDbText
  0
LINE
  5
26C35
330
747D
100
AcDbEntity
  8
部品1
 48
50.0
100
AcDbLine
 10
8223.274621450601
 20
2390.76479651456
 30
0.0
 11
8239.274621450601
 21
2382.76479651456
 31
0.0
  0
LINE
  5
26C36
330
747D
100
AcDbEntity
  8
細線
 48
50.0
100
AcDbLine
 10
8191.274621450601
 20
2342.76479651456
 30
0.0
 11
8191.274621450601
 21
2374.76479651456
 31
0.0
  0
LINE
  5
26C37
330
747D
100
AcDbEntity
  8
部品1
 48
50.0
100
AcDbLine
 10
8239.274621450601
 20
2350.76479651456
 30
0.0
 11
8239.274621450601
 21
2382.76479651456
 31
0.0
  0
LINE
  5
26C38
330
747D
100
AcDbEntity
  8
細線
 48
50.0
100
AcDbLine
 10
8223.274621450601
 20
2342.76479651456
 30
0.0
 11
8223.274621450601
 21
2374.76479651456
 31
0.0
  0
LINE
  5
26C39
330
747D
100
AcDbEntity
  8
部品1
 48
50.0
100
AcDbLine
 10
8223.274621450601
 20
2374.76479651456
 30
0.0
 11
8239.274621450601
 21
2382.76479651456
 31
0.0
  0
LINE
  5
26C3A
330
747D
100
AcDbEntity
  8
部品1
 48
50.0
100
AcDbLine
 10
8191.274621450601
 20
2374.76479651456
 30
0.0
 11
8223.274621450601
 21
2374.76479651456
 31
0.0
  0
LINE
  5
26C3B
330
747D
100
AcDbEntity
  8
部品1
 48
50.0
100
AcDbLine
 10
8223.274621450601
 20
2342.76479651456
 30
0.0
 11
8239.274621450601
 21
2350.76479651456
 31
0.0
  0
LINE
  5
26C3C
330
747D
100
AcDbEntity
  8
部品1
 48
50.0
100
AcDbLine
 10
8191.274621450601
 20
2342.76479651456
 30
0.0
 11
8223.274621450601
 21
2342.76479651456
 31
0.0
  0
ELLIPSE
  5
26C3D
330
747D
100
AcDbEntity
  8
細線
 48
50.0
100
AcDbEllipse
 10
8207.274621450601
 20
2382.76479651456
 30
0.0
 11
14.76670786606846
 21
0.0
 31
0.0
210
0.0
220
0.0
230
1.0
 40
0.2071254069489396
 41
0.0
 42
6.283185307179586
  0
LINE
  5
26C3E
330
747D
100
AcDbEntity
  8
部品1
 48
50.0
100
AcDbLine
 10
8191.274621450601
 20
2390.76479651456
 30
0.0
 11
8223.274621450601
 21
2390.76479651456
 31
0.0
  0
LINE
  5
26C3F
330
747D
100
AcDbEntity
  8
部品1
 48
50.0
100
AcDbLine
 10
8175.274621450601
 20
2350.76479651456
 30
0.0
 11
8175.274621450601
 21
2382.76479651456
 31
0.0
  0
LINE
  5
26C40
330
747D
100
AcDbEntity
  8
部品1
 48
50.0
100
AcDbLine
 10
8175.274621450601
 20
2382.76479651456
 30
0.0
 11
8191.274621450601
 21
2390.76479651456
 31
0.0
  0
LINE
  5
26C41
330
747D
100
AcDbEntity
  8
部品1
 48
50.0
100
AcDbLine
 10
8175.274621450601
 20
2350.76479651456
 30
0.0
 11
8191.274621450601
 21
2342.76479651456
 31
0.0
  0
LINE
  5
26C42
330
747D
100
AcDbEntity
  8
部品1
 48
50.0
100
AcDbLine
 10
8175.274621450601
 20
2382.76479651456
 30
0.0
 11
8191.274621450601
 21
2374.76479651456
 31
0.0
  0
LINE
  5
26C43
330
747D
100
AcDbEntity
  8
部品1
 48
50.0
100
AcDbLine
 10
8247.2746214506
 20
2251.412803849689
 30
0.0
 11
8247.2746214506
 21
2261.012803849689
 31
0.0
  0
ELLIPSE
  5
26C44
330
747D
100
AcDbEntity
  8
部品1
 48
50.0
100
AcDbEllipse
 10
8207.274621450601
 20
2261.012803849689
 30
0.0
 11
18.4
 21
0.0
 31
0.0
210
0.0
220
0.0
230
1.0
 40
0.3478260869565217
 41
0.0
 42
6.283185307179586
  0
ARC
  5
26C45
330
747D
100
AcDbEntity
  8
部品1
100
AcDbCircle
 10
8046.174621450601
 20
2089.989515405417
 30
0.0
 40
2.7
100
AcDbArc
 50
90.0
 51
180.0
  0
LINE
  5
26C46
330
747D
100
AcDbEntity
  8
部品1
100
AcDbLine
 10
8048.874621450599
 20
2103.489515405418
 30
0.0
 11
8091.174621450601
 21
2103.489515405414
 31
0.0
  0
LINE
  5
26C47
330
747D
100
AcDbEntity
  8
部品1
100
AcDbLine
 10
8046.174621450601
 20
2092.689515405417
 30
0.0
 11
8046.174621450601
 21
2100.789515405417
 31
0.0
  0
LINE
  5
26C48
330
747D
100
AcDbEntity
  8
部品1
100
AcDbLine
 10
8046.174621450601
 20
2092.689515405417
 30
0.0
 11
8046.174621450601
 21
2092.689515405417
 31
0.0
  0
ARC
  5
26C49
330
747D
100
AcDbEntity
  8
部品1
100
AcDbCircle
 10
8048.874621450599
 20
2100.789515405417
 30
0.0
 40
2.7
100
AcDbArc
 50
90.0
 51
180.0
  0
ARC
  5
26C4A
330
747D
100
AcDbEntity
  8
部品1
100
AcDbCircle
 10
8091.174621450601
 20
2100.789515405414
 30
0.0
 40
2.7
100
AcDbArc
 50
0.0
 51
90.0
  0
LINE
  5
26C4B
330
747D
100
AcDbEntity
  8
部品1
 48
50.0
100
AcDbLine
 10
8167.2746214506
 20
2261.012803849689
 30
0.0
 11
8167.2746214506
 21
2251.412803849689
 31
0.0
  0
ELLIPSE
  5
26C4C
330
747D
100
AcDbEntity
  8
部品1
 48
50.0
100
AcDbEllipse
 10
8207.274621450601
 20
2251.412803849691
 30
0.0
 11
40.0
 21
0.0
 31
0.0
210
0.0
220
0.0
230
1.0
 40
0.4
 41
3.141592653589793
 42
6.283185307179586
  0
ELLIPSE
  5
26C4D
330
747D
100
AcDbEntity
  8
部品1
 48
50.0
100
AcDbEllipse
 10
8207.274621450601
 20
2261.012803849689
 30
0.0
 11
40.0
 21
0.0
 31
0.0
210
0.0
220
0.0
230
1.0
 40
0.4
 41
0.0
 42
6.283185307179586
  0
LINE
  5
26C4E
330
747D
100
AcDbEntity
  8
部品1
100
AcDbLine
 10
8201.874621450599
 20
2044.649515405417
 30
0.0
 11
8212.674621450601
 21
2044.649515405417
 31
0.0
  0
LINE
  5
26C4F
330
747D
100
AcDbEntity
  8
部品1
100
AcDbLine
 10
8198.2746214506
 20
2041.049515405418
 30
0.0
 11
8216.274621450599
 21
2041.049515405418
 31
0.0
  0
LINE
  5
26C50
330
747D
100
AcDbEntity
  8
細線
100
AcDbLine
 10
8201.874621450603
 20
2001.449515405417
 30
0.0
 11
8201.874621450599
 21
2044.649515405417
 31
0.0
  0
LINE
  5
26C51
330
747D
100
AcDbEntity
  8
細線
100
AcDbLine
 10
8212.674621450601
 20
2001.449515405417
 30
0.0
 11
8212.674621450601
 21
2044.649515405417
 31
0.0
  0
LINE
  5
26C52
330
747D
100
AcDbEntity
  8
部品1
100
AcDbLine
 10
8114.5746214506
 20
2058.749515405418
 30
0.0
 11
8114.5746214506
 21
2041.649515405417
 31
0.0
  0
LINE
  5
26C53
330
747D
100
AcDbEntity
  8
部品1
100
AcDbLine
 10
8148.134621450601
 20
2058.749515405418
 30
0.0
 11
8148.134621450598
 21
2004.149515405417
 31
0.0
  0
ARC
  5
26C54
330
747D
100
AcDbEntity
  8
部品1
100
AcDbCircle
 10
8133.4746214506
 20
2046.789515405417
 30
0.0
 40
2.7
100
AcDbArc
 50
0.0
 51
90.0
  0
LINE
  5
26C55
330
747D
100
AcDbEntity
  8
部品1
100
AcDbLine
 10
8093.8746214506
 20
2049.489515405417
 30
0.0
 11
8133.4746214506
 21
2049.489515405417
 31
0.0
  0
ARC
  5
26C56
330
747D
100
AcDbEntity
  8
部品1
100
AcDbCircle
 10
8133.4746214506
 20
2004.149515405417
 30
0.0
 40
2.7
100
AcDbArc
 50
270.0
 51
0.0
  0
ARC
  5
26C57
330
747D
100
AcDbEntity
  8
部品1
100
AcDbCircle
 10
8150.834621450595
 20
2004.149515405417
 30
0.0
 40
2.7
100
AcDbArc
 50
180.0
 51
270.0
  0
LINE
  5
26C58
330
747D
100
AcDbEntity
  8
部品1
100
AcDbLine
 10
8121.774621450601
 20
2001.449515405417
 30
0.0
 11
8133.4746214506
 21
2001.449515405417
 31
0.0
  0
LINE
  5
26C59
330
747D
100
AcDbEntity
  8
部品1
100
AcDbLine
 10
8136.174621450599
 20
2046.789515405417
 30
0.0
 11
8136.174621450599
 21
2004.149515405417
 31
0.0
  0
ARC
  5
26C5A
330
747D
100
AcDbEntity
  8
部品1
100
AcDbCircle
 10
8145.434621450601
 20
2058.749515405418
 30
0.0
 40
2.7
100
AcDbArc
 50
0.0
 51
90.0
  0
ARC
  5
26C5B
330
747D
100
AcDbEntity
  8
部品1
100
AcDbCircle
 10
8117.274621450601
 20
2058.749515405418
 30
0.0
 40
2.7
100
AcDbArc
 50
90.0
 51
180.0
  0
LINE
  5
26C5C
330
747D
100
AcDbEntity
  8
部品1
100
AcDbLine
 10
8117.274621450601
 20
2061.449515405417
 30
0.0
 11
8145.434621450601
 21
2061.449515405417
 31
0.0
  0
LINE
  5
26C5D
330
747D
100
AcDbEntity
  8
部品1
100
AcDbLine
 10
8093.8746214506
 20
2100.789515405414
 30
0.0
 11
8093.8746214506
 21
2049.489515405417
 31
0.0
  0
LINE
  5
26C5E
330
747D
100
AcDbEntity
  8
部品1
100
AcDbLine
 10
8043.474621450602
 20
2081.889515405417
 30
0.0
 11
8043.474621450602
 21
2089.989515405417
 31
0.0
  0
LINE
  5
26C5F
330
747D
100
AcDbEntity
  8
部品1
100
AcDbLine
 10
8150.834621450595
 20
2001.449515405417
 30
0.0
 11
8352.174621450595
 21
2001.449515405417
 31
0.0
  0
LINE
  5
26C60
330
747D
100
AcDbEntity
  8
部品1
100
AcDbLine
 10
7992.1746214506
 20
2004.149515405417
 30
0.0
 11
7992.1746214506
 21
2066.281419108126
 31
0.0
  0
LINE
  5
26C61
330
747D
100
AcDbEntity
  8
部品1
100
AcDbLine
 10
7994.874621450598
 20
2001.449515405417
 30
0.0
 11
8006.574621450594
 21
2001.449515405417
 31
0.0
  0
LINE
  5
26C62
330
747D
100
AcDbEntity
  8
細線
 48
50.0
100
AcDbLine
 10
7985.8746214506
 20
1979.670091705322
 30
0.0
 11
7998.094045150693
 21
1991.889515405417
 31
0.0
  0
ARC
  5
26C63
330
747D
100
AcDbEntity
  8
部品1
100
AcDbCircle
 10
7994.874621450598
 20
2004.149515405417
 30
0.0
 40
2.7
100
AcDbArc
 50
180.0
 51
270.0
  0
LINE
  5
26C64
330
747D
100
AcDbEntity
  8
部品1
100
AcDbLine
 10
7994.219775263002
 20
2068.900803858517
 30
0.0
 11
8002.974621450603
 21
2071.089515405417
 31
0.0
  0
ARC
  5
26C65
330
747D
100
AcDbEntity
  8
部品1
100
AcDbCircle
 10
7994.874621450598
 20
2066.281419108126
 30
0.0
 40
2.7
100
AcDbArc
 50
104.0362434679067
 51
180.0
  0
ARC
  5
26C66
330
747D
100
AcDbEntity
  8
部品1
100
AcDbCircle
 10
8005.6746214506
 20
2079.189515405417
 30
0.0
 40
2.7
100
AcDbArc
 50
90.0
 51
180.0
  0
LINE
  5
26C67
330
747D
100
AcDbEntity
  8
部品1
100
AcDbLine
 10
8002.974621450603
 20
2071.089515405417
 30
0.0
 11
8002.974621450603
 21
2079.189515405417
 31
0.0
  0
LINE
  5
26C68
330
747D
100
AcDbEntity
  8
部品1
 48
50.0
100
AcDbLine
 10
7985.8746214506
 20
1991.889515405417
 30
0.0
 11
8399.874621450603
 21
1991.889515405417
 31
0.0
  0
LINE
  5
26C69
330
747D
100
AcDbEntity
  8
細線
 48
50.0
100
AcDbLine
 10
7985.8746214506
 20
1925.788554978907
 30
0.0
 11
8051.97558187711
 21
1991.889515405417
 31
0.0
  0
LINE
  5
26C6A
330
747D
100
AcDbEntity
  8
細線
 48
50.0
100
AcDbLine
 10
7985.8746214506
 20
1952.729323342115
 30
0.0
 11
8025.034813513906
 21
1991.889515405417
 31
0.0
  0
LINE
  5
26C6B
330
747D
100
AcDbEntity
  8
部品1
100
AcDbLine
 10
8005.6746214506
 20
2081.889515405417
 30
0.0
 11
8043.474621450602
 21
2081.889515405417
 31
0.0
  0
LINE
  5
26C6C
330
747D
100
AcDbEntity
  8
部品1
 48
50.0
100
AcDbLine
 10
8399.874621450599
 20
1447.889515405417
 30
0.0
 11
8527.874621450598
 21
1447.889515405417
 31
0.0
  0
LINE
  5
26C6D
330
747D
100
AcDbEntity
  8
部品1
100
AcDbLine
 10
8216.274621450599
 20
1766.889515405417
 30
0.0
 11
8252.274621450601
 21
1766.889515405417
 31
0.0
  0
LINE
  5
26C6E
330
747D
100
AcDbEntity
  8
部品1
100
AcDbLine
 10
8216.274621450599
 20
1748.889515405417
 30
0.0
 11
8252.274621450601
 21
1748.889515405417
 31
0.0
  0
ARC
  5
26C6F
330
747D
100
AcDbEntity
  8
部品1
100
AcDbCircle
 10
8216.274621450599
 20
1766.889515405417
 30
0.0
 40
18.0
100
AcDbArc
 50
180.0
 51
270.0
  0
LINE
  5
26C70
330
747D
100
AcDbEntity
  8
部品1
100
AcDbLine
 10
8252.274621450601
 20
1748.889515405417
 30
0.0
 11
8252.274621450601
 21
1766.889515405417
 31
0.0
  0
LINE
  5
26C71
330
747D
100
AcDbEntity
  8
部品1
100
AcDbLine
 10
8270.274621450601
 20
1667.889515405415
 30
0.0
 11
8144.274621450593
 21
1667.889515405415
 31
0.0
  0
LINE
  5
26C72
330
747D
100
AcDbEntity
  8
細線
 48
50.0
100
AcDbLine
 10
8564.252446642935
 20
1183.889515405415
 30
0.0
 11
8557.821666024588
 21
1207.889515405415
 31
0.0
  0
LINE
  5
26C73
330
747D
100
AcDbEntity
  8
細線
 48
50.0
100
AcDbLine
 10
8485.364401695688
 20
1183.889515405415
 30
0.0
 11
8478.933621077343
 21
1207.889515405415
 31
0.0
  0
LINE
  5
26C74
330
747D
100
AcDbEntity
  8
細線
 48
50.0
100
AcDbLine
 10
8406.476356748433
 20
1183.889515405417
 30
0.0
 11
8400.045576130086
 21
1207.889515405417
 31
0.0
  0
LINE
  5
26C75
330
747D
100
AcDbEntity
  8
細線
 48
50.0
100
AcDbLine
 10
8542.816511248446
 20
1103.889515405415
 30
0.0
 11
8549.247291866794
 21
1079.889515405415
 31
0.0
  0
LINE
  5
26C76
330
747D
100
AcDbEntity
  8
細線
 48
50.0
100
AcDbLine
 10
8463.928466301201
 20
1103.889515405415
 30
0.0
 11
8470.359246919548
 21
1079.889515405415
 31
0.0
  0
LINE
  5
26C77
330
747D
100
AcDbEntity
  8
細線
 48
50.0
100
AcDbLine
 10
8385.040421353952
 20
1103.889515405417
 30
0.0
 11
8391.471201972308
 21
1079.889515405417
 31
0.0
  0
LINE
  5
26C78
330
747D
100
AcDbEntity
  8
細線
 48
50.0
100
AcDbLine
 10
8457.49768568285
 20
1079.889515405414
 30
0.0
 11
8491.795182314033
 21
1207.889515405414
 31
0.0
  0
LINE
  5
26C79
330
747D
100
AcDbEntity
  8
細線
 48
50.0
100
AcDbLine
 10
8378.609640735602
 20
1079.889515405415
 30
0.0
 11
8412.907137366776
 21
1207.889515405417
 31
0.0
  0
LINE
  5
26C7A
330
747D
100
AcDbEntity
  8
細線
 48
50.0
100
AcDbLine
 10
8536.385730630094
 20
1079.889515405415
 30
0.0
 11
8570.683227261282
 21
1207.889515405414
 31
0.0
  0
LINE
  5
26C7B
330
747D
100
AcDbEntity
  8
部品1
 48
50.0
100
AcDbLine
 10
8607.874621450603
 20
1207.889515405417
 30
0.0
 11
8607.874621450603
 21
1079.889515405417
 31
0.0
  0
LINE
  5
26C7C
330
747D
100
AcDbEntity
  8
細線
 48
50.0
100
AcDbLine
 10
8327.588311801195
 20
1183.889515405417
 30
0.0
 11
8321.15753118285
 21
1207.889515405417
 31
0.0
  0
LINE
  5
26C7D
330
747D
100
AcDbEntity
  8
細線
 48
50.0
100
AcDbLine
 10
8248.700266853949
 20
1183.889515405417
 30
0.0
 11
8242.269486235603
 21
1207.889515405417
 31
0.0
  0
LINE
  5
26C7E
330
747D
100
AcDbEntity
  8
細線
 48
50.0
100
AcDbLine
 10
8090.924176959456
 20
1183.889515405417
 30
0.0
 11
8084.493396341109
 21
1207.889515405417
 31
0.0
  0
LINE
  5
26C7F
330
747D
100
AcDbEntity
  8
細線
 48
50.0
100
AcDbLine
 10
8169.812221906703
 20
1183.889515405417
 30
0.0
 11
8163.381441288356
 21
1207.889515405417
 31
0.0
  0
LINE
  5
26C80
330
747D
100
AcDbEntity
  8
細線
 48
50.0
100
AcDbLine
 10
8227.26433145946
 20
1103.889515405417
 30
0.0
 11
8233.695112077807
 21
1079.889515405417
 31
0.0
  0
LINE
  5
26C81
330
747D
100
AcDbEntity
  8
細線
 48
50.0
100
AcDbLine
 10
8306.152376406705
 20
1103.889515405417
 30
0.0
 11
8312.583157025052
 21
1079.889515405417
 31
0.0
  0
LINE
  5
26C82
330
747D
100
AcDbEntity
  8
細線
 48
50.0
100
AcDbLine
 10
8069.488241564966
 20
1103.889515405417
 30
0.0
 11
8075.919022183313
 21
1079.889515405417
 31
0.0
  0
LINE
  5
26C83
330
747D
100
AcDbEntity
  8
細線
 48
50.0
100
AcDbLine
 10
8148.376286512213
 20
1103.889515405417
 30
0.0
 11
8154.80706713056
 21
1079.889515405417
 31
0.0
  0
LINE
  5
26C84
330
747D
100
AcDbEntity
  8
細線
 48
50.0
100
AcDbLine
 10
8299.721595788353
 20
1079.889515405417
 30
0.0
 11
8334.019092419538
 21
1207.889515405415
 31
0.0
  0
LINE
  5
26C85
330
747D
100
AcDbEntity
  8
細線
 48
50.0
100
AcDbLine
 10
8141.945505893863
 20
1079.889515405417
 30
0.0
 11
8176.243002525046
 21
1207.889515405415
 31
0.0
  0
LINE
  5
26C86
330
747D
100
AcDbEntity
  8
細線
 48
50.0
100
AcDbLine
 10
8063.057460946614
 20
1079.889515405417
 30
0.0
 11
8097.354957577797
 21
1207.889515405417
 31
0.0
  0
LINE
  5
26C87
330
747D
100
AcDbEntity
  8
細線
 48
50.0
100
AcDbLine
 10
8220.833550841112
 20
1079.889515405415
 30
0.0
 11
8255.131047472293
 21
1207.889515405415
 31
0.0
  0
LINE
  5
26C88
330
747D
100
AcDbEntity
  8
細線
 48
50.0
100
AcDbLine
 10
8345.606316405408
 20
1207.889515405417
 30
0.0
 11
8527.874621450598
 21
1390.157820450613
 31
0.0
  0
LINE
  5
26C89
330
747D
100
AcDbEntity
  8
部品1
 48
50.0
100
AcDbLine
 10
8527.874621450598
 20
1447.889515405417
 30
0.0
 11
8527.874621450598
 21
1207.889515405417
 31
0.0
  0
LINE
  5
26C8A
330
747D
100
AcDbEntity
  8
細線
 48
50.0
100
AcDbLine
 10
8318.665548042204
 20
1207.889515405417
 30
0.0
 11
8527.874621450598
 21
1417.09858881381
 31
0.0
  0
LINE
  5
26C8B
330
747D
100
AcDbEntity
  8
細線
 48
50.0
100
AcDbLine
 10
8291.724779678991
 20
1207.889515405417
 30
0.0
 11
8527.874621450598
 21
1444.039357177025
 31
0.0
  0
LINE
  5
26C8C
330
747D
100
AcDbEntity
  8
細線
 48
50.0
100
AcDbLine
 10
8076.198632773333
 20
1207.889515405417
 30
0.0
 11
8399.874621450599
 21
1531.565504082683
 31
0.0
  0
LINE
  5
26C8D
330
747D
100
AcDbEntity
  8
細線
 48
50.0
100
AcDbLine
 10
8130.08016949975
 20
1207.889515405417
 30
0.0
 11
8399.874621450599
 21
1477.683967356274
 31
0.0
  0
LINE
  5
26C8E
330
747D
100
AcDbEntity
  8
細線
 48
50.0
100
AcDbLine
 10
8103.139401136544
 20
1207.889515405417
 30
0.0
 11
8399.874621450599
 21
1504.62473571947
 31
0.0
  0
LINE
  5
26C8F
330
747D
100
AcDbEntity
  8
細線
 48
50.0
100
AcDbLine
 10
7857.874621450595
 20
1420.617797894003
 30
0.0
 11
7885.146338962015
 21
1447.889515405417
 31
0.0
  0
LINE
  5
26C90
330
747D
100
AcDbEntity
  8
部品1
 48
50.0
100
AcDbLine
 10
7857.8746214506
 20
1447.889515405417
 30
0.0
 11
7985.8746214506
 21
1447.889515405417
 31
0.0
  0
LINE
  5
26C91
330
747D
100
AcDbEntity
  8
細線
 48
50.0
100
AcDbLine
 10
7857.874621450595
 20
1393.677029530792
 30
0.0
 11
7912.087107325224
 21
1447.889515405417
 31
0.0
  0
LWPOLYLINE
  5
26C92
330
747D
100
AcDbEntity
  8
部品1
 48
50.0
100
AcDbPolyline
 90
        2
 70
     0
 43
8.0
 10
7571.734719617643
 20
1751.889515405418
 10
7985.8746214506
 20
1751.889515405418
  0
LINE
  5
26C93
330
747D
100
AcDbEntity
  8
細線
 48
50.0
100
AcDbLine
 10
7933.148087064954
 20
1183.889515405417
 30
0.0
 11
7926.717306446606
 21
1207.889515405417
 31
0.0
  0
LINE
  5
26C94
330
747D
100
AcDbEntity
  8
細線
 48
50.0
100
AcDbLine
 10
8012.036132012203
 20
1183.889515405417
 30
0.0
 11
8005.605351393857
 21
1207.889515405417
 31
0.0
  0
LINE
  5
26C95
330
747D
100
AcDbEntity
  8
細線
 48
50.0
100
AcDbLine
 10
7854.260042117701
 20
1183.889515405417
 30
0.0
 11
7847.829261499355
 21
1207.889515405417
 31
0.0
  0
LINE
  5
26C96
330
747D
100
AcDbEntity
  8
細線
 48
50.0
100
AcDbLine
 10
7777.874621450599
 20
1193.229436371197
 30
0.0
 11
7781.802777788795
 21
1207.889515405417
 31
0.0
  0
LINE
  5
26C97
330
747D
100
AcDbEntity
  8
細線
 48
50.0
100
AcDbLine
 10
7911.712151670464
 20
1103.889515405417
 30
0.0
 11
7918.142932288811
 21
1079.889515405417
 31
0.0
  0
LINE
  5
26C98
330
747D
100
AcDbEntity
  8
細線
 48
50.0
100
AcDbLine
 10
7990.600196617716
 20
1103.889515405417
 30
0.0
 11
7997.030977236064
 21
1079.889515405417
 31
0.0
  0
LINE
  5
26C99
330
747D
100
AcDbEntity
  8
細線
 48
50.0
100
AcDbLine
 10
7832.824106723212
 20
1103.889515405417
 30
0.0
 11
7839.254887341557
 21
1079.889515405417
 31
0.0
  0
LINE
  5
26C9A
330
747D
100
AcDbEntity
  8
細線
 48
50.0
100
AcDbLine
 10
7984.169415999364
 20
1079.889515405415
 30
0.0
 11
8018.466912630545
 21
1207.889515405415
 31
0.0
  0
LINE
  5
26C9B
330
747D
100
AcDbEntity
  8
細線
 48
50.0
100
AcDbLine
 10
7826.393326104859
 20
1079.889515405415
 30
0.0
 11
7860.690822736042
 21
1207.889515405415
 31
0.0
  0
LINE
  5
26C9C
330
747D
100
AcDbEntity
  8
部品1
 48
50.0
100
AcDbLine
 10
7777.874621450603
 20
1079.889515405417
 30
0.0
 11
7777.874621450603
 21
1207.889515405417
 31
0.0
  0
LINE
  5
26C9D
330
747D
100
AcDbEntity
  8
細線
 48
50.0
100
AcDbLine
 10
7905.281371052116
 20
1079.889515405417
 30
0.0
 11
7939.578867683301
 21
1207.889515405417
 31
0.0
  0
LINE
  5
26C9E
330
747D
100
AcDbEntity
  8
部品1
 48
50.0
100
AcDbLine
 10
7857.8746214506
 20
1207.889515405417
 30
0.0
 11
7857.8746214506
 21
1447.889515405417
 31
0.0
  0
LINE
  5
26C9F
330
747D
100
AcDbEntity
  8
細線
 48
50.0
100
AcDbLine
 10
7857.874621450595
 20
1366.736261167588
 30
0.0
 11
7939.027875688428
 21
1447.889515405417
 31
0.0
  0
LINE
  5
26CA0
330
747D
100
AcDbEntity
  8
部品1
 48
50.0
100
AcDbLine
 10
8607.874621450603
 20
1079.889515405417
 30
0.0
 11
7777.874621450603
 21
1079.889515405417
 31
0.0
  0
LINE
  5
26CA1
330
747D
100
AcDbEntity
  8
部品1
 48
50.0
100
AcDbLine
 10
8607.874621450603
 20
1207.889515405417
 30
0.0
 11
7777.874621450603
 21
1207.889515405417
 31
0.0
  0
LINE
  5
26CA2
330
747D
100
AcDbEntity
  8
細線
 48
50.0
100
AcDbLine
 10
7860.672485867675
 20
1207.889515405417
 30
0.0
 11
8399.874621450599
 21
1747.091650988342
 31
0.0
  0
LINE
  5
26CA3
330
747D
100
AcDbEntity
  8
細線
 48
50.0
100
AcDbLine
 10
7887.613254230884
 20
1207.889515405417
 30
0.0
 11
8399.874621450603
 21
1720.150882625131
 31
0.0
  0
LINE
  5
26CA4
330
747D
100
AcDbEntity
  8
細線
 48
50.0
100
AcDbLine
 10
7914.554022594089
 20
1207.889515405417
 30
0.0
 11
8399.874621450599
 21
1693.210114261925
 31
0.0
  0
LINE
  5
26CA5
330
747D
100
AcDbEntity
  8
細線
 48
50.0
100
AcDbLine
 10
7985.8746214506
 20
1548.617797894003
 30
0.0
 11
8144.274621450593
 21
1707.017797893998
 31
0.0
  0
LINE
  5
26CA6
330
747D
100
AcDbEntity
  8
細線
 48
50.0
100
AcDbLine
 10
7985.8746214506
 20
1494.736261167588
 30
0.0
 11
8159.027875688435
 21
1667.889515405415
 31
0.0
  0
LINE
  5
26CA7
330
747D
100
AcDbEntity
  8
細線
 48
50.0
100
AcDbLine
 10
7985.8746214506
 20
1521.677029530795
 30
0.0
 11
8144.274621450593
 21
1680.077029530784
 31
0.0
  0
LINE
  5
26CA8
330
747D
100
AcDbEntity
  8
部品1
100
AcDbLine
 10
8144.274621450593
 20
1667.889515405417
 30
0.0
 11
8144.2746214506
 21
1991.889515405417
 31
0.0
  0
LINE
  5
26CA9
330
747D
100
AcDbEntity
  8
部品1
100
AcDbLine
 10
8270.274621450601
 20
1667.889515405417
 30
0.0
 11
8270.274621450601
 21
1991.889515405417
 31
0.0
  0
LINE
  5
26CAA
330
747D
100
AcDbEntity
  8
細線
 48
50.0
100
AcDbLine
 10
8270.274621450601
 20
1806.077029530788
 30
0.0
 11
8399.874621450599
 21
1935.677029530785
 31
0.0
  0
LINE
  5
26CAB
330
747D
100
AcDbEntity
  8
細線
 48
50.0
100
AcDbLine
 10
8270.274621450601
 20
1779.136261167576
 30
0.0
 11
8399.874621450599
 21
1908.736261167567
 31
0.0
  0
LINE
  5
26CAC
330
747D
100
AcDbEntity
  8
部品1
100
AcDbLine
 10
8198.2746214506
 20
1766.889515405417
 30
0.0
 11
8198.274621450597
 21
2041.049515405418
 31
0.0
  0
LINE
  5
26CAD
330
747D
100
AcDbEntity
  8
部品1
100
AcDbLine
 10
8216.274621450599
 20
1766.889515405417
 30
0.0
 11
8216.274621450597
 21
2041.049515405418
 31
0.0
  0
TEXT
  5
26CAE
330
747D
100
AcDbEntity
  8
部品1
 48
50.0
100
AcDbText
 10
7571.734719617643
 20
1763.128507688672
 30
0.0
 40
80.0
  1
▽G.L
  7
STYLE2
100
AcDbText
  0
LINE
  5
26CAF
330
747D
100
AcDbEntity
  8
細線
 48
50.0
100
AcDbLine
 10
7985.8746214506
 20
1710.262408073247
 30
0.0
 11
8144.274621450596
 21
1868.66240807324
 31
0.0
  0
LINE
  5
26CB0
330
747D
100
AcDbEntity
  8
細線
 48
50.0
100
AcDbLine
 10
7985.8746214506
 20
1737.203176436455
 30
0.0
 11
8144.274621450598
 21
1895.603176436452
 31
0.0
  0
LINE
  5
26CB1
330
747D
100
AcDbEntity
  8
細線
 48
50.0
100
AcDbLine
 10
7985.8746214506
 20
1764.143944799663
 30
0.0
 11
8144.274621450598
 21
1922.543944799659
 31
0.0
  0
LINE
  5
26CB2
330
747D
100
AcDbEntity
  8
部品1
 48
50.0
100
AcDbLine
 10
7985.8746214506
 20
1447.889515405417
 30
0.0
 11
7985.8746214506
 21
1991.889515405417
 31
0.0
  0
LINE
  5
26CB3
330
747D
100
AcDbEntity
  8
部品1
100
AcDbLine
 10
8399.874621450599
 20
1447.889515405417
 30
0.0
 11
8399.874621450599
 21
1991.889515405417
 31
0.0
  0
LINE
  5
26CB4
330
747D
100
AcDbEntity
  8
細線
 48
50.0
100
AcDbLine
 10
8270.274621450601
 20
1833.017797894006
 30
0.0
 11
8399.874621450599
 21
1962.617797894004
 31
0.0
  0
LINE
  5
26CB5
330
747D
100
AcDbEntity
  8
細線
 48
50.0
100
AcDbLine
 10
6394.327730775876
 20
1872.636367302133
 30
0.0
 11
6477.835308273407
 21
1956.143944799663
 31
0.0
  0
LINE
  5
26CB6
330
747D
100
AcDbEntity
  8
細線
 48
50.0
100
AcDbLine
 10
6405.388015539393
 20
1856.755883702439
 30
0.0
 11
6477.835308273407
 21
1929.203176436455
 31
0.0
  0
LINE
  5
26CB7
330
747D
100
AcDbEntity
  8
細線
 48
50.0
100
AcDbLine
 10
6285.835308273407
 20
1979.670091705322
 30
0.0
 11
6298.054731973501
 21
1991.889515405417
 31
0.0
  0
LINE
  5
26CB8
330
747D
100
AcDbEntity
  8
細線
 48
50.0
100
AcDbLine
 10
6285.835308273407
 20
1925.788554978907
 30
0.0
 11
6351.936268699915
 21
1991.889515405417
 31
0.0
  0
LINE
  5
26CB9
330
747D
100
AcDbEntity
  8
細線
 48
50.0
100
AcDbLine
 10
6285.835308273407
 20
1952.729323342115
 30
0.0
 11
6324.995500336711
 21
1991.889515405417
 31
0.0
  0
LINE
  5
26CBA
330
747D
100
AcDbEntity
  8
部品1
 48
50.0
100
AcDbLine
 10
6285.835308273407
 20
1991.889515405417
 30
0.0
 11
6477.835308273407
 21
1991.889515405417
 31
0.0
  0
DIMENSION
  5
26CBB
330
747D
100
AcDbEntity
  8
寸法
 48
50.0
100
AcDbDimension
  2
*D56
 10
6285.835308273405
 20
2411.557323321798
 30
0.0
 11
6381.835308273405
 21
2411.557323321798
 31
0.0
 70
   160
  1
120\P200\P280
 71
     5
 42
192.0
  3
INABA_S40G
100
AcDbAlignedDimension
 13
6477.835308273405
 23
1991.889515405417
 33
0.0
 14
6285.835308273405
 24
1991.889515405417
 34
0.0
100
AcDbRotatedDimension
1001
ACAD
1000
DSTYLE
1002
{
1070
   341
1005
0
1002
}
  0
MTEXT
  5
26CBC
102
{ACAD_REACTORS
330
26D11
102
}
330
747D
100
AcDbEntity
  8
寸法
 62
     7
 48
50.0
100
AcDbMText
 10
6719.573764134657
 20
1030.540429673264
 30
0.0
 40
80.0
 41
0.8
 71
     4
 72
     1
  1
\A1;D10@300
  7
STYLE2
 73
     1
 44
1.0
1001
ACAD
1000
MTEXTBEGIN
1070
    73
1070
     1
1070
    44
1040
1.0
1070
    74
1070
     0
1000
MTEXTEND
  0
LINE
  5
26CBD
330
747D
100
AcDbEntity
  8
細線
 48
50.0
100
AcDbLine
 10
6405.835308273411
 20
1641.677029530798
 30
0.0
 11
6477.8353082734
 21
1713.677029530792
 31
0.0
  0
LINE
  5
26CBE
330
747D
100
AcDbEntity
  8
細線
 48
50.0
100
AcDbLine
 10
6405.835308273407
 20
1668.617797894003
 30
0.0
 11
6477.835308273407
 21
1740.617797894003
 31
0.0
  0
LINE
  5
26CBF
330
747D
100
AcDbEntity
  8
細線
 48
50.0
100
AcDbLine
 10
6405.835308273411
 20
1399.210114261928
 30
0.0
 11
6477.8353082734
 21
1471.210114261928
 31
0.0
  0
LINE
  5
26CC0
330
747D
100
AcDbEntity
  8
細線
 48
50.0
100
AcDbLine
 10
6405.835308273411
 20
1453.091650988346
 30
0.0
 11
6477.8353082734
 21
1525.091650988343
 31
0.0
  0
LINE
  5
26CC1
330
747D
100
AcDbEntity
  8
細線
 48
50.0
100
AcDbLine
 10
6405.835308273411
 20
1426.150882625138
 30
0.0
 11
6477.8353082734
 21
1498.150882625133
 31
0.0
  0
LINE
  5
26CC2
330
747D
100
AcDbEntity
  8
部品1
 48
50.0
100
AcDbLine
 10
6477.835308273407
 20
1447.889515405417
 30
0.0
 11
6605.835308273407
 21
1447.889515405417
 31
0.0
  0
LINE
  5
26CC3
330
747D
100
AcDbEntity
  8
細線
 48
50.0
100
AcDbLine
 10
6405.835308273411
 20
1614.736261167588
 30
0.0
 11
6477.8353082734
 21
1686.736261167588
 31
0.0
  0
LINE
  5
26CC4
330
747D
100
AcDbEntity
  8
部品1
 48
50.0
100
AcDbLine
 10
6373.835308273406
 20
1794.016730102539
 30
0.0
 11
6373.835308273406
 21
1852.143944799663
 31
0.0
  0
LINE
  5
26CC5
330
747D
100
AcDbEntity
  8
細線
 48
50.0
100
AcDbLine
 10
6285.835308273407
 20
1764.143944799663
 30
0.0
 11
6357.835308273407
 21
1836.143944799663
 31
0.0
  0
LINE
  5
26CC6
330
747D
100
AcDbEntity
  8
部品1
 48
50.0
100
AcDbLine
 10
6357.835308273407
 20
1794.016730102543
 30
0.0
 11
6357.835308273407
 21
1852.143944799663
 31
0.0
  0
LINE
  5
26CC7
330
747D
100
AcDbEntity
  8
細線
 48
50.0
100
AcDbLine
 10
6285.835308273407
 20
1737.203176436455
 30
0.0
 11
6357.835308273407
 21
1809.203176436454
 31
0.0
  0
LINE
  5
26CC8
330
747D
100
AcDbEntity
  8
細線
 48
50.0
100
AcDbLine
 10
6285.835308273407
 20
1710.262408073247
 30
0.0
 11
6369.589630302701
 21
1794.016730102539
 31
0.0
  0
LINE
  5
26CC9
330
747D
100
AcDbEntity
  8
部品1
 48
50.0
100
AcDbLine
 10
6373.835308273406
 20
1794.016730102539
 30
0.0
 11
6357.835308273407
 21
1794.016730102543
 31
0.0
  0
LINE
  5
26CCA
330
747D
100
AcDbEntity
  8
細線
 48
50.0
100
AcDbLine
 10
6157.8353082734
 20
1420.617797894003
 30
0.0
 11
6185.10702578482
 21
1447.889515405417
 31
0.0
  0
LINE
  5
26CCB
330
747D
100
AcDbEntity
  8
細線
 48
50.0
100
AcDbLine
 10
6157.8353082734
 20
1393.677029530792
 30
0.0
 11
6212.047794148031
 21
1447.889515405417
 31
0.0
  0
LINE
  5
26CCC
330
747D
100
AcDbEntity
  8
部品1
 48
50.0
100
AcDbLine
 10
6157.835308273407
 20
1447.889515405417
 30
0.0
 11
6285.835308273407
 21
1447.889515405417
 31
0.0
  0
LINE
  5
26CCD
330
747D
100
AcDbEntity
  8
細線
 48
50.0
100
AcDbLine
 10
6373.835308273406
 20
1825.203176436454
 30
0.0
 11
6389.835308273407
 21
1841.203176436454
 31
0.0
  0
LINE
  5
26CCE
330
747D
100
AcDbEntity
  8
細線
 48
50.0
100
AcDbLine
 10
6373.835308273406
 20
1798.262408073247
 30
0.0
 11
6389.835308273407
 21
1814.262408073247
 31
0.0
  0
LINE
  5
26CCF
330
747D
100
AcDbEntity
  8
細線
 48
50.0
100
AcDbLine
 10
6285.835308273407
 20
1494.736261167588
 30
0.0
 11
6389.835308273411
 21
1598.736261167588
 31
0.0
  0
LINE
  5
26CD0
330
747D
100
AcDbEntity
  8
細線
 48
50.0
100
AcDbLine
 10
6285.835308273407
 20
1548.617797894003
 30
0.0
 11
6389.835308273407
 21
1652.617797894003
 31
0.0
  0
LINE
  5
26CD1
330
747D
100
AcDbEntity
  8
細線
 48
50.0
100
AcDbLine
 10
6285.835308273407
 20
1521.677029530795
 30
0.0
 11
6389.835308273411
 21
1625.677029530798
 31
0.0
  0
LINE
  5
26CD2
330
747D
100
AcDbEntity
  8
細線
 48
50.0
100
AcDbLine
 10
6548.660953676753
 20
1183.889515405417
 30
0.0
 11
6542.230173058408
 21
1207.889515405417
 31
0.0
  0
LINE
  5
26CD3
330
747D
100
AcDbEntity
  8
細線
 48
50.0
100
AcDbLine
 10
6591.6854665018
 20
1207.889515405417
 30
0.0
 11
6605.835308273407
 21
1222.039357177024
 31
0.0
  0
LINE
  5
26CD4
330
747D
100
AcDbEntity
  8
細線
 48
50.0
100
AcDbLine
 10
6627.548998624
 20
1183.889515405417
 30
0.0
 11
6621.118218005652
 21
1207.889515405417
 31
0.0
  0
LINE
  5
26CD5
330
747D
100
AcDbEntity
  8
部品1
 48
50.0
100
AcDbLine
 10
6549.835308273407
 20
1319.889515405417
 30
0.0
 11
6549.835308273407
 21
1303.889515405417
 31
0.0
  0
LINE
  5
26CD6
330
747D
100
AcDbEntity
  8
細線
 48
50.0
100
AcDbLine
 10
6430.040856322555
 20
1207.889515405417
 30
0.0
 11
6526.041744167691
 21
1303.890403250556
 31
0.0
  0
LINE
  5
26CD7
330
747D
100
AcDbEntity
  8
細線
 48
50.0
100
AcDbLine
 10
6403.100087959351
 20
1207.889515405417
 30
0.0
 11
6499.10008795935
 21
1303.889515405417
 31
0.0
  0
LINE
  5
26CD8
330
747D
100
AcDbEntity
  8
細線
 48
50.0
100
AcDbLine
 10
6469.772908729509
 20
1183.889515405417
 30
0.0
 11
6463.342128111162
 21
1207.889515405417
 31
0.0
  0
LINE
  5
26CD9
330
747D
100
AcDbEntity
  8
細線
 48
50.0
100
AcDbLine
 10
6390.884863782263
 20
1183.889515405417
 30
0.0
 11
6384.454083163915
 21
1207.889515405417
 31
0.0
  0
ARC
  5
26CDA
330
747D
100
AcDbEntity
  8
部品1
 48
50.0
100
AcDbCircle
 10
6381.835308273407
 20
1327.889515405417
 30
0.0
 40
24.0
100
AcDbArc
 50
340.5287793655256
 51
0.0
  0
CIRCLE
  5
26CDB
330
747D
100
AcDbEntity
  8
部品1
 48
50.0
100
AcDbCircle
 10
6509.835308273406
 20
1327.889515405417
 30
0.0
 40
8.0
  0
LINE
  5
26CDC
330
747D
100
AcDbEntity
  8
細線
 48
50.0
100
AcDbLine
 10
6542.040856322554
 20
1319.889515405417
 30
0.0
 11
6605.835308273407
 21
1383.683967356268
 31
0.0
  0
LINE
  5
26CDD
330
747D
100
AcDbEntity
  8
細線
 48
50.0
100
AcDbLine
 10
6678.57032755841
 20
1079.889515405415
 30
0.0
 11
6685.835308273407
 21
1107.002792549805
 31
0.0
  0
LINE
  5
26CDE
330
747D
100
AcDbEntity
  8
細線
 48
50.0
100
AcDbLine
 10
6685.001108176759
 20
1103.889515405417
 30
0.0
 11
6685.835308273407
 21
1100.776238261052
 31
0.0
  0
LINE
  5
26CDF
330
747D
100
AcDbEntity
  8
細線
 48
50.0
100
AcDbLine
 10
6606.113063229511
 20
1103.889515405417
 30
0.0
 11
6612.543843847859
 21
1079.889515405417
 31
0.0
  0
LINE
  5
26CE0
330
747D
100
AcDbEntity
  8
細線
 48
50.0
100
AcDbLine
 10
6448.336973335019
 20
1103.889515405417
 30
0.0
 11
6454.767753953365
 21
1079.889515405417
 31
0.0
  0
LINE
  5
26CE1
330
747D
100
AcDbEntity
  8
細線
 48
50.0
100
AcDbLine
 10
6527.225018282265
 20
1103.889515405417
 30
0.0
 11
6533.655798900612
 21
1079.889515405417
 31
0.0
  0
LINE
  5
26CE2
330
747D
100
AcDbEntity
  8
細線
 48
50.0
100
AcDbLine
 10
6520.794237663915
 20
1079.889515405415
 30
0.0
 11
6555.0917342951
 21
1207.889515405415
 31
0.0
  0
LINE
  5
26CE3
330
747D
100
AcDbEntity
  8
細線
 48
50.0
100
AcDbLine
 10
6441.906192716666
 20
1079.889515405417
 30
0.0
 11
6476.203689347852
 21
1207.889515405415
 31
0.0
  0
LINE
  5
26CE4
330
747D
100
AcDbEntity
  8
細線
 48
50.0
100
AcDbLine
 10
6599.682282611159
 20
1079.889515405417
 30
0.0
 11
6633.979779242345
 21
1207.889515405415
 31
0.0
  0
LINE
  5
26CE5
330
747D
100
AcDbEntity
  8
部品1
 48
50.0
100
AcDbLine
 10
6685.83530827341
 20
1207.889515405417
 30
0.0
 11
6685.83530827341
 21
1079.889515405417
 31
0.0
  0
LINE
  5
26CE6
330
747D
100
AcDbEntity
  8
部品1
 48
50.0
100
AcDbLine
 10
6373.835308273406
 20
1386.016730102539
 30
0.0
 11
6373.835308273406
 21
1327.889515405417
 31
0.0
  0
LINE
  5
26CE7
330
747D
100
AcDbEntity
  8
細線
 48
50.0
100
AcDbLine
 10
6299.57394105369
 20
1319.889515405417
 30
0.0
 11
6357.835308273407
 21
1378.150882625135
 31
0.0
  0
LINE
  5
26CE8
330
747D
100
AcDbEntity
  8
部品1
 48
50.0
100
AcDbLine
 10
6357.835308273407
 20
1386.016730102539
 30
0.0
 11
6357.835308273407
 21
1327.889515405417
 31
0.0
  0
LINE
  5
26CE9
330
747D
100
AcDbEntity
  8
細線
 48
50.0
100
AcDbLine
 10
6214.514709416896
 20
1207.889515405417
 30
0.0
 11
6310.514709416896
 21
1303.889515405417
 31
0.0
  0
LINE
  5
26CEA
330
747D
100
AcDbEntity
  8
細線
 48
50.0
100
AcDbLine
 10
6311.996818835011
 20
1183.889515405417
 30
0.0
 11
6305.566038216664
 21
1207.889515405417
 31
0.0
  0
LINE
  5
26CEB
330
747D
100
AcDbEntity
  8
細線
 48
50.0
100
AcDbLine
 10
6233.108773887757
 20
1183.889515405417
 30
0.0
 11
6226.677993269412
 21
1207.889515405417
 31
0.0
  0
ARC
  5
26CEC
330
747D
100
AcDbEntity
  8
部品1
 48
50.0
100
AcDbCircle
 10
6381.835308273407
 20
1327.889515405417
 30
0.0
 40
24.0
100
AcDbArc
 50
180.0
 51
199.4712206344743
  0
LINE
  5
26CED
330
747D
100
AcDbEntity
  8
細線
 48
50.0
100
AcDbLine
 10
6326.514709416895
 20
1319.889515405417
 30
0.0
 11
6357.835308273407
 21
1351.210114261929
 31
0.0
  0
CIRCLE
  5
26CEE
330
747D
100
AcDbEntity
  8
部品1
 48
50.0
100
AcDbCircle
 10
6253.835308273407
 20
1327.889515405417
 30
0.0
 40
8.0
  0
LINE
  5
26CEF
330
747D
100
AcDbEntity
  8
部品1
 48
50.0
100
AcDbLine
 10
6373.835308273406
 20
1386.016730102539
 30
0.0
 11
6357.835308273407
 21
1386.016730102539
 31
0.0
  0
LINE
  5
26CF0
330
747D
100
AcDbEntity
  8
細線
 48
50.0
100
AcDbLine
 10
6077.835308273407
 20
1193.229436371197
 30
0.0
 11
6081.763464611602
 21
1207.889515405417
 31
0.0
  0
LINE
  5
26CF1
330
747D
100
AcDbEntity
  8
細線
 48
50.0
100
AcDbLine
 10
6154.220728940507
 20
1183.889515405417
 30
0.0
 11
6147.789948322159
 21
1207.889515405417
 31
0.0
  0
LINE
  5
26CF2
330
747D
100
AcDbEntity
  8
部品1
 48
50.0
100
AcDbLine
 10
6213.835308273406
 20
1319.889515405417
 30
0.0
 11
6213.835308273406
 21
1303.889515405417
 31
0.0
  0
LINE
  5
26CF3
330
747D
100
AcDbEntity
  8
細線
 48
50.0
100
AcDbLine
 10
6160.633172690479
 20
1207.889515405417
 30
0.0
 11
6256.633172690479
 21
1303.889515405417
 31
0.0
  0
LINE
  5
26CF4
330
747D
100
AcDbEntity
  8
細線
 48
50.0
100
AcDbLine
 10
6187.57394105369
 20
1207.889515405417
 30
0.0
 11
6283.57394105369
 21
1303.889515405417
 31
0.0
  0
LINE
  5
26CF5
330
747D
100
AcDbEntity
  8
細線
 48
50.0
100
AcDbLine
 10
6290.560883440521
 20
1103.889515405417
 30
0.0
 11
6296.991664058867
 21
1079.889515405417
 31
0.0
  0
LINE
  5
26CF6
330
747D
100
AcDbEntity
  8
細線
 48
50.0
100
AcDbLine
 10
6369.448928387773
 20
1103.889515405417
 30
0.0
 11
6375.87970900612
 21
1079.889515405417
 31
0.0
  0
LINE
  5
26CF7
330
747D
100
AcDbEntity
  8
細線
 48
50.0
100
AcDbLine
 10
6132.784793546018
 20
1103.889515405417
 30
0.0
 11
6139.215574164364
 21
1079.889515405417
 31
0.0
  0
LINE
  5
26CF8
330
747D
100
AcDbEntity
  8
細線
 48
50.0
100
AcDbLine
 10
6211.672838493268
 20
1103.889515405417
 30
0.0
 11
6218.103619111616
 21
1079.889515405417
 31
0.0
  0
LINE
  5
26CF9
330
747D
100
AcDbEntity
  8
部品1
 48
50.0
100
AcDbLine
 10
6077.835308273408
 20
1079.889515405417
 30
0.0
 11
6077.835308273408
 21
1207.889515405417
 31
0.0
  0
LINE
  5
26CFA
330
747D
100
AcDbEntity
  8
細線
 48
50.0
100
AcDbLine
 10
6126.354012927664
 20
1079.889515405415
 30
0.0
 11
6160.651509558848
 21
1207.889515405415
 31
0.0
  0
LINE
  5
26CFB
330
747D
100
AcDbEntity
  8
細線
 48
50.0
100
AcDbLine
 10
6284.130102822167
 20
1079.889515405415
 30
0.0
 11
6318.42759945335
 21
1207.889515405415
 31
0.0
  0
LINE
  5
26CFC
330
747D
100
AcDbEntity
  8
細線
 48
50.0
100
AcDbLine
 10
6205.242057874922
 20
1079.889515405417
 30
0.0
 11
6239.539554506105
 21
1207.889515405417
 31
0.0
  0
LINE
  5
26CFD
330
747D
100
AcDbEntity
  8
細線
 48
50.0
100
AcDbLine
 10
6376.15931959614
 20
1207.889515405417
 30
0.0
 11
6472.159319596139
 21
1303.889515405417
 31
0.0
  0
CIRCLE
  5
26CFE
330
747D
100
AcDbEntity
  8
部品1
 48
50.0
100
AcDbCircle
 10
6381.835308273407
 20
1327.889515405417
 30
0.0
 40
8.0
  0
LINE
  5
26CFF
330
747D
100
AcDbEntity
  8
部品1
 48
50.0
100
AcDbLine
 10
6685.83530827341
 20
1207.889515405417
 30
0.0
 11
6077.835308273408
 21
1207.889515405417
 31
0.0
  0
LINE
  5
26D00
330
747D
100
AcDbEntity
  8
部品1
 48
50.0
100
AcDbLine
 10
6213.835308273406
 20
1319.889515405417
 30
0.0
 11
6549.835308273407
 21
1319.889515405417
 31
0.0
  0
LINE
  5
26D01
330
747D
100
AcDbEntity
  8
部品1
 48
50.0
100
AcDbLine
 10
6213.835308273406
 20
1303.889515405417
 30
0.0
 11
6549.835308273407
 21
1303.889515405417
 31
0.0
  0
LINE
  5
26D02
330
747D
100
AcDbEntity
  8
部品1
 48
50.0
100
AcDbLine
 10
6685.83530827341
 20
1079.889515405417
 30
0.0
 11
6077.835308273408
 21
1079.889515405417
 31
0.0
  0
LINE
  5
26D03
330
747D
100
AcDbEntity
  8
細線
 48
50.0
100
AcDbLine
 10
6363.01814776942
 20
1079.889515405417
 30
0.0
 11
6397.315644400603
 21
1207.889515405417
 31
0.0
  0
LINE
  5
26D04
330
747D
100
AcDbEntity
  8
細線
 48
50.0
100
AcDbLine
 10
6373.835308273406
 20
1367.210114261928
 30
0.0
 11
6389.835308273411
 21
1383.210114261928
 31
0.0
  0
LINE
  5
26D05
330
747D
100
AcDbEntity
  8
部品1
 48
50.0
100
AcDbLine
 10
6389.835308273411
 20
1327.889515405417
 30
0.0
 11
6389.8353082734
 21
1852.143944799663
 31
0.0
  0
LINE
  5
26D06
330
747D
100
AcDbEntity
  8
部品1
 48
50.0
100
AcDbLine
 10
6405.835308273411
 20
1327.889515405417
 30
0.0
 11
6405.835308273407
 21
1852.143944799663
 31
0.0
  0
LINE
  5
26D07
330
747D
100
AcDbEntity
  8
部品1
 48
50.0
100
AcDbLine
 10
6605.835308273407
 20
1447.889515405417
 30
0.0
 11
6605.835308273407
 21
1207.889515405417
 31
0.0
  0
LINE
  5
26D08
330
747D
100
AcDbEntity
  8
細線
 48
50.0
100
AcDbLine
 10
6488.159319596134
 20
1319.889515405417
 30
0.0
 11
6605.835308273407
 21
1437.565504082683
 31
0.0
  0
LINE
  5
26D09
330
747D
100
AcDbEntity
  8
細線
 48
50.0
100
AcDbLine
 10
6515.100087959351
 20
1319.889515405417
 30
0.0
 11
6605.835308273407
 21
1410.624735719476
 31
0.0
  0
LINE
  5
26D0A
330
747D
100
AcDbEntity
  8
部品1
 48
50.0
100
AcDbLine
 10
6157.835308273407
 20
1207.889515405417
 30
0.0
 11
6157.835308273407
 21
1447.889515405417
 31
0.0
  0
LINE
  5
26D0B
330
747D
100
AcDbEntity
  8
細線
 48
50.0
100
AcDbLine
 10
6272.633172690479
 20
1319.889515405417
 30
0.0
 11
6389.835308273407
 21
1437.091650988343
 31
0.0
  0
LINE
  5
26D0C
330
747D
100
AcDbEntity
  8
細線
 48
50.0
100
AcDbLine
 10
6365.70115575081
 20
1386.016730102539
 30
0.0
 11
6389.835308273411
 21
1410.150882625138
 31
0.0
  0
LINE
  5
26D0D
330
747D
100
AcDbEntity
  8
細線
 48
50.0
100
AcDbLine
 10
6157.8353082734
 20
1366.736261167588
 30
0.0
 11
6238.988562511234
 21
1447.889515405417
 31
0.0
  0
LEADER
  5
26D0E
330
747D
100
AcDbEntity
  8
寸法
 48
50.0
100
AcDbLeader
  3
INABA_S50G
 71
     0
 73
     0
 74
     0
 75
     1
 40
100.0
 41
222.7272727272727
 76
     3
 10
6381.835308273405
 20
1852.143944799663
 30
0.0
 10
6435.721245300801
 20
1951.379517652836
 30
0.0
 10
6560.721245300801
 20
1951.379517652836
 30
0.0
1001
ACAD
1000
DSTYLE
1002
{
1070
    40
1040
1.0
1070
   272
1070
     1
1070
   279
1070
     1
1070
   341
1005
0
1002
}
  0
LWPOLYLINE
  5
26D0F
330
747D
100
AcDbEntity
  8
部品1
 48
50.0
100
AcDbPolyline
 90
        2
 70
     0
 43
8.0
 10
6477.835308273405
 20
1751.889515405418
 10
6891.975210106363
 20
1751.889515405418
  0
MTEXT
  5
26D10
102
{ACAD_REACTORS
330
26D12
102
}
330
747D
100
AcDbEntity
  8
寸法
 62
     7
 48
50.0
100
AcDbMText
 10
6709.16296808009
 20
1292.492446462444
 30
0.0
 40
80.0
 41
0.8
 71
     4
 72
     1
  1
D10
  7
STYLE2
 73
     1
 44
1.0
1001
ACAD
1000
MTEXTBEGIN
1070
    73
1070
     1
1070
    44
1040
1.0
1070
    74
1070
     0
1000
MTEXTEND
  0
LEADER
  5
26D11
330
747D
100
AcDbEntity
  8
寸法
 48
50.0
100
AcDbLeader
  3
INABA_S50G
 71
     0
 73
     0
 74
     0
 75
     1
 40
100.0
 41
540.3409090909091
 76
     3
 10
6455.78047728658
 20
1311.148984991892
 30
0.0
 10
6574.573764134656
 20
969.5181669969942
 30
0.0
 10
6699.573764134656
 20
969.5181669969942
 30
0.0
213
0.0
223
-1.022262676269383
233
0.0
1001
ACAD
1000
DSTYLE
1002
{
1070
    40
1040
1.0
1070
   272
1070
     1
1070
   279
1070
     1
1070
   341
1005
0
1002
}
  0
LEADER
  5
26D12
330
747D
100
AcDbEntity
  8
寸法
 48
50.0
100
AcDbLeader
  3
INABA_S50G
 71
     0
 73
     0
 74
     0
 75
     1
 40
100.0
 41
225.0
 76
     3
 10
6509.73826062555
 20
1327.889515405417
 30
0.0
 10
6564.16296808009
 20
1232.492446462444
 30
0.0
 10
6689.16296808009
 20
1232.492446462444
 30
0.0
1001
ACAD
1000
DSTYLE
1002
{
1070
    40
1040
1.0
1070
   272
1070
     1
1070
   279
1070
     1
1070
   341
1005
0
1002
}
  0
MTEXT
  5
26D13
102
{ACAD_REACTORS
330
26D0E
102
}
330
747D
100
AcDbEntity
  8
寸法
 62
     7
 48
50.0
100
AcDbMText
 10
6560.721245300801
 20
2014.445414698228
 30
0.0
 40
80.0
 41
0.8
 71
     4
 72
     1
  1
D13
  7
STYLE2
 73
     1
 44
1.0
1001
ACAD
1000
MTEXTBEGIN
1070
    73
1070
     1
1070
    44
1040
1.0
1070
    74
1070
     0
1000
MTEXTEND
  0
LINE
  5
26D14
330
747D
100
AcDbEntity
  8
部品1
 48
50.0
100
AcDbLine
 10
6477.835308273407
 20
1991.889515405417
 30
0.0
 11
6477.835308273407
 21
1447.889515405417
 31
0.0
  0
LINE
  5
26D15
330
747D
100
AcDbEntity
  8
部品1
 48
50.0
100
AcDbLine
 10
6285.835308273407
 20
1447.889515405417
 30
0.0
 11
6285.835308273407
 21
1991.889515405417
 31
0.0
  0
CIRCLE
  5
26D16
330
747D
100
AcDbEntity
  8
部品1
 48
50.0
100
AcDbCircle
 10
6381.835308273407
 20
1852.143944799663
 30
0.0
 40
8.0
  0
ARC
  5
26D17
330
747D
100
AcDbEntity
  8
部品1
 48
50.0
100
AcDbCircle
 10
6381.835308273407
 20
1852.143944799663
 30
0.0
 40
24.0
100
AcDbArc
 50
0.0
 51
180.0
  0
LINE
  5
26D18
330
747D
100
AcDbEntity
  8
細線
 48
50.0
100
AcDbLine
 10
6405.835308273407
 20
1830.262408073247
 30
0.0
 11
6477.835308273407
 21
1902.262408073248
 31
0.0
  0
LEADER
  5
26D19
330
747D
100
AcDbEntity
  8
寸法
 48
50.0
100
AcDbLeader
  3
INABA_S50G
 73
     0
 75
     1
 40
106.3636363636363
 41
893.1818181818181
 76
     3
 10
8117.274621450601
 20
2061.449515405419
 30
0.0
 10
8068.850549105659
 20
2435.509090121751
 30
0.0
 10
7943.85054910566
 20
2435.509090121751
 30
0.0
340
26D1A
1001
ACAD
1000
DSTYLE
1002
{
1070
   341
1005
0
1070
    40
1040
1.0
1070
   343
1005
0
1070
   344
1005
0
1002
}
  0
MTEXT
  5
26D1A
102
{ACAD_REACTORS
330
26D19
102
}
330
747D
100
AcDbEntity
  8
寸法
 62
     7
 48
50.0
100
AcDbMText
 10
7918.85054910566
 20
2513.690908303569
 30
0.0
 40
80.0
 41
0.8
 71
     6
 72
     1
  1
\A1;アンカープレート L
  7
STYLE2
 73
     1
 44
1.0
1001
ACAD
1000
MTEXTBEGIN
1070
    73
1070
     1
1070
    44
1040
1.0
1070
    74
1070
     0
1000
MTEXTEND
  0
DIMENSION
  5
26D1B
330
747D
100
AcDbEntity
  8
寸法
 48
50.0
100
AcDbDimension
  2
*D57
 10
6605.835308273405
 20
669.459877400257
 30
0.0
 11
6361.738549595182
 21
669.459877400257
 31
0.0
 70
   160
  1
300
 71
     5
 42
448.0
  3
INABA_S40G
100
AcDbAlignedDimension
 13
6157.835308273406
 23
1079.889515405417
 33
0.0
 14
6605.835308273405
 24
1079.889515405417
 34
0.0
100
AcDbRotatedDimension
1001
ACAD
1000
DSTYLE
1002
{
1070
   341
1005
0
1002
}
  0
MTEXT
  5
26D1C
102
{ACAD_REACTORS
330
26D24
102
}
330
747D
100
AcDbEntity
  8
寸法
 62
     7
 48
50.0
100
AcDbMText
 10
5986.900282078211
 20
1124.366821786981
 30
0.0
 40
80.0
 41
0.8
 71
     6
 72
     1
  1
D10
  7
STYLE2
 73
     1
 44
1.0
1001
ACAD
1000
MTEXTBEGIN
1070
    73
1070
     1
1070
    44
1040
1.0
1070
    74
1070
     0
1000
MTEXTEND
  0
MTEXT
  5
26D1D
102
{ACAD_REACTORS
330
26D23
102
}
330
747D
100
AcDbEntity
  8
寸法
 62
     7
 48
50.0
100
AcDbMText
 10
6015.023009635647
 20
944.0506692475373
 30
0.0
 40
80.0
 41
0.8
 71
     6
 72
     1
  1
D13
  7
STYLE2
 73
     1
 44
1.0
1001
ACAD
1000
MTEXTBEGIN
1070
    73
1070
     1
1070
    44
1040
1.0
1070
    74
1070
     0
1000
MTEXTEND
  0
DIMENSION
  5
26D1E
330
747D
100
AcDbEntity
  8
寸法
 48
50.0
100
AcDbDimension
  2
*D58
 10
5550.798069711666
 20
1207.889515405417
 30
0.0
 11
5550.798069711666
 21
1579.429665061418
 31
0.0
 70
   160
  1
540
 71
     5
 42
784.0
  3
INABA_S40G
100
AcDbAlignedDimension
 13
6285.835308273405
 23
1991.889515405417
 33
0.0
 14
6077.835308273409
 24
1207.889515405417
 34
0.0
 50
90.0
100
AcDbRotatedDimension
1001
ACAD
1000
DSTYLE
1002
{
1070
   341
1005
0
1002
}
  0
MTEXT
  5
26D1F
102
{ACAD_REACTORS
330
26D20
102
}
330
747D
100
AcDbEntity
  8
寸法
 62
     7
 48
50.0
100
AcDbMText
 10
6065.736828790132
 20
2204.405735407459
 30
0.0
 40
80.0
 41
0.8
 71
     6
 72
     1
  1
\A1;金コテ押エ
  7
STYLE2
 73
     1
 44
1.0
1001
ACAD
1000
MTEXTBEGIN
1070
    73
1070
     1
1070
    44
1040
1.0
1070
    74
1070
     0
1000
MTEXTEND
  0
LEADER
  5
26D20
330
747D
100
AcDbEntity
  8
寸法
 48
50.0
100
AcDbLeader
  3
INABA_S50G
 71
     0
 73
     0
 75
     1
 40
130.1136363636363
 41
651.1363636363636
 76
     3
 10
6365.835308273406
 20
1991.889515405417
 30
0.0
 10
6253.41072810939
 20
2132.360280862005
 30
0.0
 10
6128.41072810939
 20
2132.360280862005
 30
0.0
1001
ACAD
1000
DSTYLE
1002
{
1070
    40
1040
1.0
1070
   272
1070
     1
1070
   279
1070
     1
1070
   341
1005
0
1002
}
  0
LEADER
  5
26D21
330
747D
100
AcDbEntity
  8
寸法
 48
50.0
100
AcDbLeader
  3
INABA_S50G
 71
     0
 73
     0
 75
     1
 40
100.0
 41
540.3409090909091
 76
     3
 10
6389.835308273405
 20
1750.01673010254
 30
0.0
 10
6331.853071744707
 20
1528.546401561735
 30
0.0
 10
6206.853071744707
 20
1528.546401561735
 30
0.0
213
-9.732182305893367
223
-4.643716661138569
233
0.0
1001
ACAD
1000
DSTYLE
1002
{
1070
    40
1040
1.0
1070
   272
1070
     1
1070
   279
1070
     1
1070
   341
1005
0
1002
}
  0
MTEXT
  5
26D22
102
{ACAD_REACTORS
330
26D21
102
}
330
747D
100
AcDbEntity
  8
寸法
 62
     7
 48
50.0
100
AcDbMText
 10
6196.585254050601
 20
1593.190118222874
 30
0.0
 40
80.0
 41
0.8
 71
     6
 72
     1
  1
\A1;D10@300
  7
STYLE2
 73
     1
 44
1.0
1001
ACAD
1000
MTEXTBEGIN
1070
    73
1070
     1
1070
    44
1040
1.0
1070
    74
1070
     0
1000
MTEXTEND
  0
LEADER
  5
26D23
330
747D
100
AcDbEntity
  8
寸法
 48
50.0
100
AcDbLeader
  3
INABA_S50G
 71
     0
 73
     0
 75
     1
 40
100.0
 41
222.7272727272727
 76
     3
 10
6381.835308273405
 20
1327.889515405417
 30
0.0
 10
6160.023009635646
 20
884.0506692475374
 30
0.0
 10
6035.023009635646
 20
884.0506692475374
 30
0.0
1001
ACAD
1000
DSTYLE
1002
{
1070
    40
1040
1.0
1070
   272
1070
     1
1070
   279
1070
     1
1070
   341
1005
0
1002
}
  0
LEADER
  5
26D24
330
747D
100
AcDbEntity
  8
寸法
 48
50.0
100
AcDbLeader
  3
INABA_S50G
 71
     0
 73
     0
 75
     1
 40
100.0
 41
225.0
 76
     3
 10
6253.738260625549
 20
1327.889515405417
 30
0.0
 10
6131.900282078212
 20
1064.366821786981
 30
0.0
 10
6006.900282078212
 20
1064.366821786981
 30
0.0
1001
ACAD
1000
DSTYLE
1002
{
1070
    40
1040
1.0
1070
   272
1070
     1
1070
   279
1070
     1
1070
   341
1005
0
1002
}
  0
DIMENSION
  5
26D25
330
747D
100
AcDbEntity
  8
寸法
 48
50.0
100
AcDbDimension
  2
*D59
 10
6015.414994540947
 20
1207.889515405417
 30
0.0
 11
6015.414994540947
 21
1327.889515405418
 31
0.0
 70
   160
  1
150
 71
     5
 42
240.0
  3
INABA_S40G
100
AcDbAlignedDimension
 13
6157.835308273406
 23
1447.889515405417
 33
0.0
 14
6077.835308273409
 24
1207.889515405417
 34
0.0
 50
90.0
100
AcDbRotatedDimension
1001
ACAD
1000
DSTYLE
1002
{
1070
   341
1005
0
1002
}
  0
TEXT
  5
26D26
330
747D
100
AcDbEntity
  8
部品1
 48
50.0
100
AcDbText
 10
5871.695406440449
 20
1763.128507688672
 30
0.0
 40
80.0
  1
▽G.L
  7
STYLE2
100
AcDbText
  0
LWPOLYLINE
  5
26D27
330
747D
100
AcDbEntity
  8
部品1
 48
50.0
100
AcDbPolyline
 90
        2
 70
     0
 43
8.0
 10
5871.695406440449
 20
1751.889515405418
 10
6285.835308273405
 20
1751.889515405418
  0
MTEXT
  5
26D28
102
{ACAD_REACTORS
330
26D29
102
}
330
747D
100
AcDbEntity
  8
寸法
 62
     7
 48
50.0
100
AcDbMText
 10
7892.207542897302
 20
2874.375180211083
 30
0.0
 40
80.0
 41
0.8
 71
     6
 72
     1
  1
\A1;φ70スリーブ
  7
STYLE2
 73
     1
 44
1.0
1001
ACAD
1000
MTEXTBEGIN
1070
    73
1070
     1
1070
    44
1040
1.0
1070
    74
1070
     0
1000
MTEXTEND
  0
LEADER
  5
26D29
330
747D
100
AcDbEntity
  8
寸法
 48
50.0
100
AcDbLeader
  3
INABA_S50G
 73
     0
 75
     1
 40
113.1818181818182
 41
608.6363636363635
 76
     3
 10
8176.01137158865
 20
1941.405188763696
 30
0.0
 10
8042.207542897301
 20
2792.784271120174
 30
0.0
 10
7917.207542897301
 20
2792.784271120174
 30
0.0
340
26D28
1001
ACAD
1000
DSTYLE
1002
{
1070
   341
1005
0
1070
    40
1040
1.0
1070
   343
1005
0
1070
   344
1005
0
1002
}
  0
LINE
  5
26D2A
330
747D
100
AcDbEntity
  8
部品1
100
AcDbLine
 10
5215.166869464143
 20
3391.228182606003
 30
0.0
 11
5215.166869464145
 21
426.9212130213555
 31
0.0
  0
LEADER
  5
26D2B
330
747D
100
AcDbEntity
  8
寸法
 48
50.0
100
AcDbLeader
  3
INABA_S50G
 73
     0
 74
     0
 75
     1
 40
80.0
 41
435.0
 76
     3
 10
8216.274621450599
 20
2041.049515405418
 30
0.0
 10
8258.819083869919
 20
2191.272841558647
 30
0.0
 10
8383.819083869919
 20
2191.272841558647
 30
0.0
340
26D2C
1001
ACAD
1000
DSTYLE
1002
{
1070
   341
1005
0
1070
    40
1040
1.0
1070
   343
1005
0
1070
   344
1005
0
1002
}
  0
MTEXT
  5
26D2C
102
{ACAD_REACTORS
330
26D2B
102
}
330
747D
100
AcDbEntity
  8
部品1
 62
     7
 48
50.0
100
AcDbMText
 10
8408.81908386992
 20
2256.272841558647
 30
0.0
 40
80.0
 41
0.8
 71
     4
 72
     1
  1
M10X160
  7
STYLE2
 73
     1
 44
1.0
1001
ACAD
1000
MTEXTBEGIN
1070
    73
1070
     1
1070
    44
1040
1.0
1070
    74
1070
     0
1000
MTEXTEND
  0
DIMENSION
  5
26D2D
330
747D
100
AcDbEntity
  8
寸法
 48
50.0
100
AcDbDimension
  2
*D60
 10
9177.797887338471
 20
1991.889515405417
 30
0.0
 11
9177.797887338471
 21
1525.880611983934
 31
0.0
 70
   160
  1
20～25
 71
     5
 42
52.76000000000113
  3
INABA_S40G
100
AcDbAlignedDimension
 13
8212.674621450601
 23
2044.649515405418
 33
0.0
 14
8399.874621450599
 24
1991.889515405417
 34
0.0
 50
90.0
100
AcDbRotatedDimension
1001
ACAD
1000
DSTYLE
1002
{
1070
   341
1005
0
1002
}
  0
DIMENSION
  5
26D2E
330
747D
100
AcDbEntity
  8
寸法
 48
50.0
100
AcDbDimension
  2
*D61
 10
8901.743221219444
 20
1667.889515405416
 30
0.0
 11
8801.743221219444
 21
1829.889515405418
 31
0.0
 70
    32
  1
180
 71
     5
 42
324.0000000000009
  3
INABA_S40G
100
AcDbAlignedDimension
 13
8399.874621450599
 23
1991.889515405417
 33
0.0
 14
8399.874621450599
 24
1667.889515405416
 34
0.0
 50
90.0
100
AcDbRotatedDimension
1001
ACAD
1000
DSTYLE
1002
{
1070
   341
1005
0
1002
}
  0
TEXT
  5
26D2F
330
747D
100
AcDbEntity
  8
部品1
 48
50.0
100
AcDbText
 10
8404.228205735028
 20
2347.768196167617
 30
0.0
 40
80.0
  1
基礎ボルト(市販品)
  7
STYLE2
100
AcDbText
  0
LWPOLYLINE
  5
26D30
330
747D
100
AcDbEntity
  8
部品1
 48
50.0
100
AcDbPolyline
 90
        2
 70
     0
 43
8.0
 10
8399.874621450599
 20
1751.889515405418
 10
8693.577084849982
 20
1751.889515405418
  0
MTEXT
  5
26D31
102
{ACAD_REACTORS
330
26D32
102
}
330
747D
100
AcDbEntity
  8
部品1
 62
     7
 48
50.0
100
AcDbMText
 10
8439.146211819439
 20
2692.384888492677
 30
0.0
 40
80.0
 41
0.8
 71
     4
 72
     1
  1
\A1;ワッシャー(市販品)
  7
STYLE2
 73
     1
 44
1.0
1001
ACAD
1000
MTEXTBEGIN
1070
    73
1070
     1
1070
    44
1040
1.0
1070
    74
1070
     0
1000
MTEXTEND
  0
LEADER
  5
26D32
330
747D
100
AcDbEntity
  8
寸法
 48
50.0
100
AcDbLeader
  3
INABA_S50G
 73
     0
 74
     0
 75
     1
 40
102.2727272727273
 41
906.8181818181818
 76
     3
 10
8247.2746214506
 20
2261.012803849697
 30
0.0
 10
8289.14621181944
 20
2616.248524856314
 30
0.0
 10
8414.14621181944
 20
2616.248524856314
 30
0.0
340
26D31
1001
ACAD
1000
DSTYLE
1002
{
1070
   341
1005
0
1070
    40
1040
1.0
1070
   343
1005
0
1070
   344
1005
0
1002
}
  0
MTEXT
  5
26D33
102
{ACAD_REACTORS
330
26D34
102
}
330
747D
100
AcDbEntity
  8
部品1
 62
     7
 48
50.0
100
AcDbMText
 10
8407.628592563957
 20
2877.353971257465
 30
0.0
 40
80.0
 41
0.8
 71
     4
 72
     1
  1
\A1;ナット(市販品)
  7
STYLE2
 73
     1
 44
1.0
1001
ACAD
1000
MTEXTBEGIN
1070
    73
1070
     1
1070
    44
1040
1.0
1070
    74
1070
     0
1000
MTEXTEND
  0
LEADER
  5
26D34
330
747D
100
AcDbEntity
  8
寸法
 48
50.0
100
AcDbLeader
  3
INABA_S50G
 73
     0
 74
     0
 75
     1
 40
102.2727272727273
 41
680.0000000000001
 76
     3
 10
8223.274621450601
 20
2390.76479651456
 30
0.0
 10
8257.628592563957
 20
2801.217607621101
 30
0.0
 10
8382.628592563957
 20
2801.217607621101
 30
0.0
340
26D33
1001
ACAD
1000
DSTYLE
1002
{
1070
   341
1005
0
1070
    40
1040
1.0
1070
   343
1005
0
1070
   344
1005
0
1002
}
  0
LINE
  5
26D35
330
747D
100
AcDbEntity
  8
部品1
100
AcDbLine
 10
5215.166869464146
 20
426.9212130213555
 30
0.0
 11
11286.15205485039
 21
426.9212130213555
 31
0.0
  0
LINE
  5
26D36
330
747D
100
AcDbEntity
  8
部品1
100
AcDbLine
 10
11286.15205485039
 20
3151.228182606001
 30
0.0
 11
5215.166869464145
 21
3151.228182606001
 31
0.0
  0
LINE
  5
26D37
330
747D
100
AcDbEntity
  8
部品1
100
AcDbLine
 10
11286.15205485039
 20
3391.228182606003
 30
0.0
 11
5215.166869464141
 21
3391.228182606003
 31
0.0
  0
ENDSEC
  0
SECTION
  2
OBJECTS
  0
DICTIONARY
  5
7471
330
0
100
AcDbDictionary
281
     1
  3
ACAD_COLOR
350
173D2
  3
ACAD_GROUP
350
7472
  3
ACAD_LAYOUT
350
173D3
  3
ACAD_MATERIAL
350
173D1
  3
ACAD_MLINESTYLE
350
7473
  3
ACAD_PLOTSETTINGS
350
173D4
  3
ACAD_PLOTSTYLENAME
350
173CF
  3
ACDBHEADERROUNDTRIPXREC
350
26DC5
  3
AcDbVariableDictionary
350
269AA
  3
CONTENTDICTIONARY
350
E71C
  3
DRAWINGVARIABLESDICT
350
F3B9
  0
DICTIONARY
  5
1758F
330
7467
100
AcDbDictionary
280
     1
281
     1
  3
ACAD_LAYERSTATES
360
17590
  0
DICTIONARY
  5
173D2
102
{ACAD_REACTORS
330
7471
102
}
330
7471
100
AcDbDictionary
281
     1
  0
DICTIONARY
  5
7472
102
{ACAD_REACTORS
330
7471
102
}
330
7471
100
AcDbDictionary
281
     1
  3
*A1
350
1D2A9
  0
DICTIONARY
  5
173D3
102
{ACAD_REACTORS
330
7471
102
}
330
7471
100
AcDbDictionary
281
     1
  3
Model
350
173D5
  3
レイアウト1
350
173D6
  0
DICTIONARY
  5
173D1
102
{ACAD_REACTORS
330
7471
102
}
330
7471
100
AcDbDictionary
281
     1
  0
DICTIONARY
  5
7473
102
{ACAD_REACTORS
330
7471
102
}
330
7471
100
AcDbDictionary
281
     1
  3
STANDARD
350
7480
  0
DICTIONARY
  5
173D4
102
{ACAD_REACTORS
330
7471
102
}
330
7471
100
AcDbDictionary
281
     1
  0
ACDBDICTIONARYWDFLT
  5
173CF
102
{ACAD_REACTORS
330
7471
102
}
330
7471
100
AcDbDictionary
281
     1
  3
Normal
350
173D0
100
AcDbDictionaryWithDefault
340
173D0
  0
DICTIONARY
  5
26DC5
102
{ACAD_REACTORS
330
7471
102
}
330
7471
100
AcDbDictionary
281
     1
  3
COLORDICT
350
26DC7
  3
MATERIALDICT
350
26DC6
  0
DICTIONARY
  5
269AA
102
{ACAD_REACTORS
330
7471
102
}
330
7471
100
AcDbDictionary
281
     1
  3
DIMASSOC
350
269AB
  3
PROJECTNAME
350
269AC
  0
DICTIONARY
  5
E71C
102
{ACAD_REACTORS
330
7471
102
}
330
7471
100
AcDbDictionary
281
     1
  0
DICTIONARY
  5
F3B9
102
{ACAD_REACTORS
330
7471
102
}
330
7471
100
AcDbDictionary
281
     1
1001
DRAWINGVARIABLESXDATA
1000
POLARMODE
1000
1
  0
DICTIONARY
  5
17590
102
{ACAD_REACTORS
330
1758F
102
}
330
1758F
100
AcDbDictionary
281
     1
  0
GROUP
  5
1D2A9
102
{ACAD_REACTORS
330
7472
102
}
330
7472
100
AcDbGroup
300

 70
     1
 71
     1
  0
LAYOUT
  5
173D5
102
{ACAD_XDICTIONARY
360
26DC8
102
}
102
{ACAD_REACTORS
330
173D3
102
}
330
173D3
100
AcDbPlotSettings
  1

  2
Microsoft Office Document Image Writer
  4

  6

 40
0.0
 41
0.0
 42
0.0
 43
0.0
 44
0.0
 45
0.0
 46
0.0
 47
0.0
 48
0.0
 49
0.0
140
0.0
141
0.0
142
1.0
143
1.0
 70
  1712
 72
     0
 73
     0
 74
     0
  7

 75
     0
147
1.0
148
0.0
149
0.0
100
AcDbLayout
  1
Model
 70
     1
 71
     0
 10
0.0
 20
0.0
 11
12.0
 21
9.0
 12
0.0
 22
0.0
 32
0.0
 14
0.0
 24
0.0
 34
0.0
 15
0.0
 25
0.0
 35
0.0
146
0.0
 13
0.0
 23
0.0
 33
0.0
 16
1.0
 26
0.0
 36
0.0
 17
0.0
 27
1.0
 37
0.0
 76
     0
330
747D
  0
LAYOUT
  5
173D6
102
{ACAD_XDICTIONARY
360
26DCA
102
}
102
{ACAD_REACTORS
330
173D3
102
}
330
173D3
100
AcDbPlotSettings
  1

  2
Microsoft Office Document Image Writer
  4

  6

 40
0.0
 41
0.0
 42
0.0
 43
0.0
 44
0.0
 45
0.0
 46
0.0
 47
0.0
 48
0.0
 49
0.0
140
0.0
141
0.0
142
1.0
143
1.0
 70
   688
 72
     0
 73
     0
 74
     5
  7

 75
    16
147
1.0
148
0.0
149
0.0
100
AcDbLayout
  1
レイアウト1
 70
     0
 71
     1
 10
0.0
 20
0.0
 11
420.0
 21
297.0
 12
0.0
 22
0.0
 32
0.0
 14
1.000000000000000E+20
 24
1.000000000000000E+20
 34
1.000000000000000E+20
 15
-1.000000000000000E+20
 25
-1.000000000000000E+20
 35
-1.000000000000000E+20
146
0.0
 13
0.0
 23
0.0
 33
0.0
 16
1.0
 26
0.0
 36
0.0
 17
0.0
 27
1.0
 37
0.0
 76
     0
330
747A
  0
MLINESTYLE
  5
7480
102
{ACAD_REACTORS
330
7473
102
}
330
7473
100
AcDbMlineStyle
  2
STANDARD
 70
     0
  3

 62
     0
 51
90.0
 52
90.0
 71
     2
 49
0.5
 62
   256
  6
BYLAYER
 49
-0.5
 62
   256
  6
BYLAYER
  0
ACDBPLACEHOLDER
  5
173D0
102
{ACAD_REACTORS
330
173CF
102
}
330
173CF
  0
XRECORD
  5
26DC7
102
{ACAD_REACTORS
330
26DC5
102
}
330
26DC5
100
AcDbXrecord
280
     1
340
173D2
  0
XRECORD
  5
26DC6
102
{ACAD_REACTORS
330
26DC5
102
}
330
26DC5
100
AcDbXrecord
280
     1
340
173D1
  0
DICTIONARYVAR
  5
269AB
102
{ACAD_REACTORS
330
269AA
102
}
330
269AA
100
DictionaryVariables
280
     0
  1
1
  0
DICTIONARYVAR
  5
269AC
102
{ACAD_REACTORS
330
269AA
102
}
330
269AA
100
DictionaryVariables
280
     0
  1

  0
DICTIONARY
  5
26DC8
330
173D5
100
AcDbDictionary
280
     1
281
     1
  3
ACAD_XREC_ROUNDTRIP
360
26DC9
  0
DICTIONARY
  5
26DCA
330
173D6
100
AcDbDictionary
280
     1
281
     1
  3
ACAD_XREC_ROUNDTRIP
360
26DCB
  0
XRECORD
  5
26DC9
102
{ACAD_REACTORS
330
26DC8
102
}
330
26DC8
100
AcDbXrecord
280
     1
102
SHADEPLOT
 70
     0
102
SHADEPLOTRESLEVEL
 70
     2
102
SHADEPLOTCUSTOMDPI
 70
   300
  0
XRECORD
  5
26DCB
102
{ACAD_REACTORS
330
26DCA
102
}
330
26DCA
100
AcDbXrecord
280
     1
102
SHADEPLOT
 70
     0
102
SHADEPLOTRESLEVEL
 70
     2
102
SHADEPLOTCUSTOMDPI
 70
   300
  0
ENDSEC
  0
EOF
