  0
SECTION
  2
HEADER
  9
$ACADVER
  1
AC1015
  9
$ACADMAINTVER
 70
    20
  9
$DWGCODEPAGE
  3
ANSI_932
  9
$INSBASE
 10
0.0
 20
0.0
 30
0.0
  9
$EXTMIN
 10
139.9999999999995
 20
-0.0000000000000909
 30
0.0
  9
$EXTMAX
 10
16307.2
 20
11409.6
 30
0.0
  9
$LIMMIN
 10
0.0
 20
0.0
  9
$LIMMAX
 10
16800.0
 20
11880.0
  9
$ORTHOMODE
 70
     0
  9
$REGENMODE
 70
     1
  9
$FILLMODE
 70
     1
  9
$QTEXTMODE
 70
     0
  9
$MIRRTEXT
 70
     1
  9
$LTSCALE
 40
20.0
  9
$ATTMODE
 70
     1
  9
$TEXTSIZE
 40
4.0
  9
$TRACEWID
 40
1.0
  9
$TEXTSTYLE
  7
STYLE1
  9
$CLAYER
  8
寸法
  9
$CELTYPE
  6
BYLAYER
  9
$CECOLOR
 62
   256
  9
$CELTSCALE
 40
50.0
  9
$DISPSILH
 70
     0
  9
$DIMSCALE
 40
40.0
  9
$DIMASZ
 40
2.5
  9
$DIMEXO
 40
0.5
  9
$DIMDLI
 40
7.0
  9
$DIMRND
 40
0.0
  9
$DIMDLE
 40
0.0
  9
$DIMEXE
 40
1.5
  9
$DIMTP
 40
0.0
  9
$DIMTM
 40
0.0
  9
$DIMTXT
 40
3.0
  9
$DIMCEN
 40
0.0
  9
$DIMTSZ
 40
0.0
  9
$DIMTOL
 70
     0
  9
$DIMLIM
 70
     0
  9
$DIMTIH
 70
     0
  9
$DIMTOH
 70
     0
  9
$DIMSE1
 70
     0
  9
$DIMSE2
 70
     0
  9
$DIMTAD
 70
     3
  9
$DIMZIN
 70
     8
  9
$DIMBLK
  1

  9
$DIMASO
 70
     1
  9
$DIMSHO
 70
     1
  9
$DIMPOST
  1

  9
$DIMAPOST
  1

  9
$DIMALT
 70
     0
  9
$DIMALTD
 70
     2
  9
$DIMALTF
 40
0.0394
  9
$DIMLFAC
 40
1.0
  9
$DIMTOFL
 70
     1
  9
$DIMTVP
 40
0.0
  9
$DIMTIX
 70
     1
  9
$DIMSOXD
 70
     0
  9
$DIMSAH
 70
     1
  9
$DIMBLK1
  1
DOTSMALL
  9
$DIMBLK2
  1
DOTSMALL
  9
$DIMSTYLE
  2
INABA_S40G
  9
$DIMCLRD
 70
     0
  9
$DIMCLRE
 70
     0
  9
$DIMCLRT
 70
     7
  9
$DIMTFAC
 40
1.0
  9
$DIMGAP
 40
1.0
  9
$DIMJUST
 70
     0
  9
$DIMSD1
 70
     0
  9
$DIMSD2
 70
     0
  9
$DIMTOLJ
 70
     1
  9
$DIMTZIN
 70
     0
  9
$DIMALTZ
 70
     0
  9
$DIMALTTZ
 70
     0
  9
$DIMUPT
 70
     0
  9
$DIMDEC
 70
     1
  9
$DIMTDEC
 70
     4
  9
$DIMALTU
 70
     2
  9
$DIMALTTD
 70
     2
  9
$DIMTXSTY
  7
STYLE1
  9
$DIMAUNIT
 70
     0
  9
$DIMADEC
 70
     0
  9
$DIMALTRND
 40
0.0
  9
$DIMAZIN
 70
     0
  9
$DIMDSEP
 70
    46
  9
$DIMATFIT
 70
     3
  9
$DIMFRAC
 70
     0
  9
$DIMLDRBLK
  1

  9
$DIMLUNIT
 70
     2
  9
$DIMLWD
 70
    -2
  9
$DIMLWE
 70
    -2
  9
$DIMTMOVE
 70
     0
  9
$LUNITS
 70
     2
  9
$LUPREC
 70
     1
  9
$SKETCHINC
 40
1.0
  9
$FILLETRAD
 40
3.0
  9
$AUNITS
 70
     0
  9
$AUPREC
 70
     0
  9
$MENU
  1
acad
  9
$ELEVATION
 40
0.0
  9
$PELEVATION
 40
0.0
  9
$THICKNESS
 40
0.0
  9
$LIMCHECK
 70
     0
  9
$CHAMFERA
 40
0.0
  9
$CHAMFERB
 40
0.0
  9
$CHAMFERC
 40
0.0
  9
$CHAMFERD
 40
0.0
  9
$SKPOLY
 70
     0
  9
$TDCREATE
 40
2451368.612993866
  9
$TDUCREATE
 40
2451368.237993866
  9
$TDUPDATE
 40
2455826.588338392
  9
$TDUUPDATE
 40
2455826.213338391
  9
$TDINDWG
 40
0.7776654167
  9
$TDUSRTIMER
 40
0.7776654167
  9
$USRTIMER
 70
     1
  9
$ANGBASE
 50
0.0
  9
$ANGDIR
 70
     0
  9
$PDMODE
 70
     3
  9
$PDSIZE
 40
2.0
  9
$PLINEWID
 40
0.0
  9
$SPLFRAME
 70
     0
  9
$SPLINETYPE
 70
     6
  9
$SPLINESEGS
 70
     8
  9
$HANDSEED
  5
2650B
  9
$SURFTAB1
 70
     6
  9
$SURFTAB2
 70
     6
  9
$SURFTYPE
 70
     6
  9
$SURFU
 70
     6
  9
$SURFV
 70
     6
  9
$UCSBASE
  2

  9
$UCSNAME
  2

  9
$UCSORG
 10
0.0
 20
0.0
 30
0.0
  9
$UCSXDIR
 10
1.0
 20
0.0
 30
0.0
  9
$UCSYDIR
 10
0.0
 20
1.0
 30
0.0
  9
$UCSORTHOREF
  2

  9
$UCSORTHOVIEW
 70
     0
  9
$UCSORGTOP
 10
0.0
 20
0.0
 30
0.0
  9
$UCSORGBOTTOM
 10
0.0
 20
0.0
 30
0.0
  9
$UCSORGLEFT
 10
0.0
 20
0.0
 30
0.0
  9
$UCSORGRIGHT
 10
0.0
 20
0.0
 30
0.0
  9
$UCSORGFRONT
 10
0.0
 20
0.0
 30
0.0
  9
$UCSORGBACK
 10
0.0
 20
0.0
 30
0.0
  9
$PUCSBASE
  2

  9
$PUCSNAME
  2

  9
$PUCSORG
 10
0.0
 20
0.0
 30
0.0
  9
$PUCSXDIR
 10
1.0
 20
0.0
 30
0.0
  9
$PUCSYDIR
 10
0.0
 20
1.0
 30
0.0
  9
$PUCSORTHOREF
  2

  9
$PUCSORTHOVIEW
 70
     0
  9
$PUCSORGTOP
 10
0.0
 20
0.0
 30
0.0
  9
$PUCSORGBOTTOM
 10
0.0
 20
0.0
 30
0.0
  9
$PUCSORGLEFT
 10
0.0
 20
0.0
 30
0.0
  9
$PUCSORGRIGHT
 10
0.0
 20
0.0
 30
0.0
  9
$PUCSORGFRONT
 10
0.0
 20
0.0
 30
0.0
  9
$PUCSORGBACK
 10
0.0
 20
0.0
 30
0.0
  9
$USERI1
 70
     0
  9
$USERI2
 70
     0
  9
$USERI3
 70
     0
  9
$USERI4
 70
     0
  9
$USERI5
 70
     0
  9
$USERR1
 40
0.0
  9
$USERR2
 40
0.0
  9
$USERR3
 40
0.0
  9
$USERR4
 40
0.0
  9
$USERR5
 40
0.0
  9
$WORLDVIEW
 70
     1
  9
$SHADEDGE
 70
     3
  9
$SHADEDIF
 70
    70
  9
$TILEMODE
 70
     1
  9
$MAXACTVP
 70
    16
  9
$PINSBASE
 10
0.0
 20
0.0
 30
0.0
  9
$PLIMCHECK
 70
     0
  9
$PEXTMIN
 10
1.000000000000000E+20
 20
1.000000000000000E+20
 30
1.000000000000000E+20
  9
$PEXTMAX
 10
-1.000000000000000E+20
 20
-1.000000000000000E+20
 30
-1.000000000000000E+20
  9
$PLIMMIN
 10
0.0
 20
0.0
  9
$PLIMMAX
 10
420.0
 20
297.0
  9
$UNITMODE
 70
     0
  9
$VISRETAIN
 70
     0
  9
$PLINEGEN
 70
     0
  9
$PSLTSCALE
 70
     0
  9
$TREEDEPTH
 70
  3020
  9
$CMLSTYLE
  2
STANDARD
  9
$CMLJUST
 70
     0
  9
$CMLSCALE
 40
1.0
  9
$PROXYGRAPHICS
 70
     1
  9
$MEASUREMENT
 70
     1
  9
$CELWEIGHT
370
    -1
  9
$ENDCAPS
280
     0
  9
$JOINSTYLE
280
     0
  9
$LWDISPLAY
290
     0
  9
$INSUNITS
 70
     0
  9
$HYPERLINKBASE
  1

  9
$STYLESHEET
  1

  9
$XEDIT
290
     1
  9
$CEPSNTYPE
380
     0
  9
$PSTYLEMODE
290
     1
  9
$FINGERPRINTGUID
  2
{5EAC461A-2277-4BF8-9AB0-99C43BB394F0}
  9
$VERSIONGUID
  2
{6C3C6F88-6107-47D2-A39C-8F95229F800E}
  9
$EXTNAMES
290
     1
  9
$PSVPSCALE
 40
0.0
  9
$OLESTARTUP
290
     0
  0
ENDSEC
  0
SECTION
  2
CLASSES
  0
CLASS
  1
ACDBDICTIONARYWDFLT
  2
AcDbDictionaryWithDefault
  3
ObjectDBX Classes
 90
        0
280
     0
281
     0
  0
CLASS
  1
DICTIONARYVAR
  2
AcDbDictionaryVar
  3
ObjectDBX Classes
 90
        0
280
     0
281
     0
  0
CLASS
  1
ACDBPLACEHOLDER
  2
AcDbPlaceHolder
  3
ObjectDBX Classes
 90
        0
280
     0
281
     0
  0
CLASS
  1
LAYOUT
  2
AcDbLayout
  3
ObjectDBX Classes
 90
        0
280
     0
281
     0
  0
ENDSEC
  0
SECTION
  2
TABLES
  0
TABLE
  2
VPORT
  5
746D
330
0
100
AcDbSymbolTable
 70
     2
  0
VPORT
  5
26503
330
746D
100
AcDbSymbolTableRecord
100
AcDbViewportTableRecord
  2
*Active
 70
     0
 10
0.0
 20
0.0
 11
1.0
 21
1.0
 12
8400.0
 22
6532.223175279203
 13
0.0
 23
0.0
 14
10.0
 24
10.0
 15
10.0
 25
10.0
 16
0.0
 26
0.0
 36
1.0
 17
0.0
 27
0.0
 37
0.0
 40
13160.56358925593
 41
1.522222222222222
 42
50.0
 43
0.0
 44
0.0
 50
0.0
 51
0.0
 71
     0
 72
     0
 73
     1
 74
     0
 75
     0
 76
     0
 77
     0
 78
     0
281
     0
 65
     1
110
0.0
120
0.0
130
0.0
111
1.0
121
0.0
131
0.0
112
0.0
122
1.0
132
0.0
 79
     0
146
0.0
  0
ENDTAB
  0
TABLE
  2
LTYPE
  5
746A
330
0
100
AcDbSymbolTable
 70
     5
  0
LTYPE
  5
7477
330
746A
100
AcDbSymbolTableRecord
100
AcDbLinetypeTableRecord
  2
BYBLOCK
 70
     0
  3

 72
    65
 73
     0
 40
0.0
  0
LTYPE
  5
7478
330
746A
100
AcDbSymbolTableRecord
100
AcDbLinetypeTableRecord
  2
BYLAYER
 70
     0
  3

 72
    65
 73
     0
 40
0.0
  0
LTYPE
  5
7479
330
746A
100
AcDbSymbolTableRecord
100
AcDbLinetypeTableRecord
  2
CONTINUOUS
 70
     0
  3
Solid line
 72
    65
 73
     0
 40
0.0
  0
LTYPE
  5
7816
330
746A
100
AcDbSymbolTableRecord
100
AcDbLinetypeTableRecord
  2
CENTER
 70
     0
  3
____ _ ____ _ ____ _ ____ _ ____ _ ____ _ ____ 
 72
    65
 73
     4
 40
2.0
 49
1.25
 74
     0
 49
-0.25
 74
     0
 49
0.25
 74
     0
 49
-0.25
 74
     0
  0
LTYPE
  5
781A
330
746A
100
AcDbSymbolTableRecord
100
AcDbLinetypeTableRecord
  2
HIDDEN
 70
     0
  3
__ __ __ __ __ __ __ __ __ __ __ __ __ __ __ __
 72
    65
 73
     2
 40
0.375
 49
0.25
 74
     0
 49
-0.125
 74
     0
  0
LTYPE
  5
781B
330
746A
100
AcDbSymbolTableRecord
100
AcDbLinetypeTableRecord
  2
PHANTOM
 70
     0
  3
______  __  __  ______  __  __  ______  __  __ 
 72
    65
 73
     6
 40
2.5
 49
1.25
 74
     0
 49
-0.25
 74
     0
 49
0.25
 74
     0
 49
-0.25
 74
     0
 49
0.25
 74
     0
 49
-0.25
 74
     0
  0
LTYPE
  5
12CC3
330
746A
100
AcDbSymbolTableRecord
100
AcDbLinetypeTableRecord
  2
HIDDENX2
 70
     0
  3
Hidden (2x) ____ ____ ____ ____ ____ ____ ____
 72
    65
 73
     2
 40
19.05
 49
12.7
 74
     0
 49
-6.349999999999999
 74
     0
  0
ENDTAB
  0
TABLE
  2
LAYER
  5
7467
102
{ACAD_XDICTIONARY
360
1758F
102
}
330
0
100
AcDbSymbolTable
 70
    12
  0
LAYER
  5
7474
330
7467
100
AcDbSymbolTableRecord
100
AcDbLayerTableRecord
  2
0
 70
     0
 62
     7
  6
CONTINUOUS
370
    -3
390
173D0
  0
LAYER
  5
DEB2
330
7467
100
AcDbSymbolTableRecord
100
AcDbLayerTableRecord
  2
センター
 70
     0
 62
     3
  6
CENTER
370
    -3
390
173D0
  0
LAYER
  5
DEB3
330
7467
100
AcDbSymbolTableRecord
100
AcDbLayerTableRecord
  2
寸法
 70
     0
 62
     4
  6
CONTINUOUS
370
    -3
390
173D0
  0
LAYER
  5
DEB4
330
7467
100
AcDbSymbolTableRecord
100
AcDbLayerTableRecord
  2
部品1
 70
     0
 62
     7
  6
CONTINUOUS
370
    -3
390
173D0
  0
LAYER
  5
DEB5
330
7467
100
AcDbSymbolTableRecord
100
AcDbLayerTableRecord
  2
補助
 70
     0
 62
    -1
  6
CONTINUOUS
370
    -3
390
173D0
  0
LAYER
  5
DEB6
330
7467
100
AcDbSymbolTableRecord
100
AcDbLayerTableRecord
  2
文字
 70
     0
 62
     7
  6
CONTINUOUS
370
    -3
390
173D0
  0
LAYER
  5
F255
330
7467
100
AcDbSymbolTableRecord
100
AcDbLayerTableRecord
  2
DEFPOINTS
 70
     0
 62
     7
  6
CONTINUOUS
290
     0
370
    -3
390
173D0
  0
LAYER
  5
10B54
330
7467
100
AcDbSymbolTableRecord
100
AcDbLayerTableRecord
  2
仕様書枠
 70
     0
 62
   230
  6
CONTINUOUS
370
    -3
390
173D0
  0
LAYER
  5
11729
330
7467
100
AcDbSymbolTableRecord
100
AcDbLayerTableRecord
  2
Ｇ．Ｌ
 70
     0
 62
    30
  6
CONTINUOUS
370
    -3
390
173D0
  0
LAYER
  5
1173F
330
7467
100
AcDbSymbolTableRecord
100
AcDbLayerTableRecord
  2
細線
 70
     0
 62
     5
  6
CONTINUOUS
370
    -3
390
173D0
  0
LAYER
  5
12CC4
330
7467
100
AcDbSymbolTableRecord
100
AcDbLayerTableRecord
  2
想像線
 70
     0
 62
     6
  6
PHANTOM
370
    -3
390
173D0
  0
LAYER
  5
142E2
330
7467
100
AcDbSymbolTableRecord
100
AcDbLayerTableRecord
  2
破線
 70
     0
 62
     2
  6
HIDDEN
370
    -3
390
173D0
  0
ENDTAB
  0
TABLE
  2
STYLE
  5
7468
330
0
100
AcDbSymbolTable
 70
     7
  0
STYLE
  5
7475
330
7468
100
AcDbSymbolTableRecord
100
AcDbTextStyleTableRecord
  2
STANDARD
 70
     0
 40
0.0
 41
1.0
 50
0.0
 71
     0
 42
4.0
  3
txt
  4
C:\AutoCAD LT\bigfont.shx
  0
STYLE
  5
763C
330
7468
100
AcDbSymbolTableRecord
100
AcDbTextStyleTableRecord
  2
MSMINCHO
 70
     0
 40
0.0
 41
1.0
 50
0.0
 71
     0
 42
1.199999999999999
  3
C:\AutoCAD LT\msminch2.TTF
  4

  0
STYLE
  5
F706
330
7468
100
AcDbSymbolTableRecord
100
AcDbTextStyleTableRecord
  2
STYLE1
 70
     0
 40
0.0
 41
1.0
 50
0.0
 71
     0
 42
4.0
  3
isocp.shx
  4
bigfont.shx
  0
STYLE
  5
103BF
330
7468
100
AcDbSymbolTableRecord
100
AcDbTextStyleTableRecord
  2
STYLE2
 70
     0
 40
0.0
 41
1.0
 50
0.0
 71
     0
 42
100.0
  3
MS PGothic.ttf
  4

1001
ACAD
1000
MS PGothic
1071
    32818
  0
STYLE
  5
10BAA
330
7468
100
AcDbSymbolTableRecord
100
AcDbTextStyleTableRecord
  2
STYLE3
 70
     0
 40
0.0
 41
1.0
 50
0.0
 71
     0
 42
100.0
  3

  4

1001
ACAD
1000
DFPGothic-EB
1071
    32818
  0
STYLE
  5
11A15
330
7468
100
AcDbSymbolTableRecord
100
AcDbTextStyleTableRecord
  2
MSGOTHIC
 70
     0
 40
0.0
 41
1.0
 50
0.0
 71
     0
 42
3.5
  3
msgothi2.ttf
  4

  0
STYLE
  5
13E96
330
7468
100
AcDbSymbolTableRecord
100
AcDbTextStyleTableRecord
  2
MSPゴシック
 70
     0
 40
0.0
 41
1.0
 50
0.0
 71
     0
 42
4.0
  3
MS PGothic.ttf
  4

1001
ACAD
1000
MS PGothic
1071
    32818
  0
ENDTAB
  0
TABLE
  2
VIEW
  5
746B
330
0
100
AcDbSymbolTable
 70
     0
  0
ENDTAB
  0
TABLE
  2
UCS
  5
746C
330
0
100
AcDbSymbolTable
 70
     0
  0
ENDTAB
  0
TABLE
  2
APPID
  5
746E
330
0
100
AcDbSymbolTable
 70
     6
  0
APPID
  5
7476
330
746E
100
AcDbSymbolTableRecord
100
AcDbRegAppTableRecord
  2
ACAD
 70
     0
  0
APPID
  5
DEA9
330
746E
100
AcDbSymbolTableRecord
100
AcDbRegAppTableRecord
  2
CONTENTBLOCKICON
 70
     0
  0
APPID
  5
DEAA
330
746E
100
AcDbSymbolTableRecord
100
AcDbRegAppTableRecord
  2
CONTENTBLOCKDESCRIPTION
 70
     0
  0
APPID
  5
E71D
330
746E
100
AcDbSymbolTableRecord
100
AcDbRegAppTableRecord
  2
CONTENTTABDATA
 70
     0
  0
APPID
  5
E71E
330
746E
100
AcDbSymbolTableRecord
100
AcDbRegAppTableRecord
  2
CONTENTCURRENTTAB
 70
     0
  0
APPID
  5
F3BA
330
746E
100
AcDbSymbolTableRecord
100
AcDbRegAppTableRecord
  2
DRAWINGVARIABLESXDATA
 70
     0
  0
ENDTAB
  0
TABLE
  2
DIMSTYLE
  5
746F
330
0
100
AcDbSymbolTable
 70
     6
100
AcDbDimStyleTable
 71
     1
340
F71F
  0
DIMSTYLE
105
7484
330
746F
100
AcDbSymbolTableRecord
100
AcDbDimStyleTableRecord
  2
JIS
 70
     0
 41
2.5
 42
1.0
 43
7.0
 44
1.0
 73
     0
 74
     0
 77
     1
 78
     8
140
2.5
141
0.0
143
0.0394
147
0.0
172
     1
174
     1
175
     1
340
7475
  0
DIMSTYLE
105
F236
330
746F
100
AcDbSymbolTableRecord
100
AcDbDimStyleTableRecord
  2
INABA_S40
 70
     0
 40
40.0
 41
2.5
 42
0.5
 43
7.0
 44
1.5
 73
     0
 74
     0
 77
     3
 78
     8
140
3.0
141
0.0
143
0.0394
147
1.0
172
     1
173
     1
174
     1
175
     1
178
     7
289
     0
340
7475
341
DEAC
343
DEAC
344
DEAC
  0
DIMSTYLE
105
F71F
102
{ACAD_REACTORS
330
20DE1
330
20DFB
330
22741
330
2275B
330
23978
330
23980
330
239DB
330
25AC9
330
25AC7
330
25AA9
330
25A57
330
25A36
330
25A35
330
25A34
330
25A31
330
25A2B
330
25A29
330
259F1
330
259EE
330
259EA
330
259FA
330
259F3
330
259F2
330
259F8
330
259F5
330
263C2
330
26422
330
26425
330
2642C
330
26434
330
26435
102
}
330
746F
100
AcDbSymbolTableRecord
100
AcDbDimStyleTableRecord
  2
INABA_S40G
 70
     0
 40
40.0
 41
2.5
 42
0.5
 43
7.0
 44
1.5
 73
     0
 74
     0
 77
     3
 78
     8
140
3.0
141
0.0
143
0.0394
147
1.0
172
     1
173
     1
174
     1
178
     7
271
     1
340
F706
341
F770
343
F770
344
F770
  0
DIMSTYLE
105
142E3
330
746F
100
AcDbSymbolTableRecord
100
AcDbDimStyleTableRecord
  2
INABA_S1
 70
     0
 40
0.0
 41
2.5
 42
0.5
 43
7.0
 44
1.5
 73
     0
 74
     0
 77
     3
 78
     8
140
3.0
141
0.0
143
0.0394
146
0.5
147
0.5
172
     1
173
     1
176
   256
177
   256
178
     7
271
     2
272
     2
284
     8
288
     1
340
7475
341
DEAC
343
DEAC
344
DEAC
  0
DIMSTYLE
105
14463
330
746F
100
AcDbSymbolTableRecord
100
AcDbDimStyleTableRecord
  2
INABA_S30G
 70
     0
 40
30.0
 41
2.5
 42
0.5
 43
7.0
 44
1.5
 73
     0
 74
     0
 77
     3
 78
     8
140
3.0
141
0.0
143
0.0394
147
1.0
172
     1
173
     1
174
     1
175
     1
178
     7
271
     1
340
F706
341
F770
343
F770
344
F770
  0
DIMSTYLE
105
1758E
330
746F
100
AcDbSymbolTableRecord
100
AcDbDimStyleTableRecord
  2
INABA_S50G
 70
     0
 41
125.0
 42
25.0
 43
7.0
 44
75.0
 73
     0
 74
     0
 77
     3
 78
     8
140
150.0
141
0.0
143
0.0394
147
25.0
172
     1
173
     1
174
     1
175
     1
178
     7
271
     1
340
F706
341
F770
343
F770
344
F770
  0
ENDTAB
  0
TABLE
  2
BLOCK_RECORD
  5
7466
330
0
100
AcDbSymbolTable
 70
    60
  0
BLOCK_RECORD
  5
747D
330
7466
100
AcDbSymbolTableRecord
100
AcDbBlockTableRecord
  2
*MODEL_SPACE
340
173D5
  0
BLOCK_RECORD
  5
747A
330
7466
100
AcDbSymbolTableRecord
100
AcDbBlockTableRecord
  2
*PAPER_SPACE
340
173D6
  0
BLOCK_RECORD
  5
DEAC
330
7466
100
AcDbSymbolTableRecord
100
AcDbBlockTableRecord
  2
_OPEN
340
0
  0
BLOCK_RECORD
  5
F770
330
7466
100
AcDbSymbolTableRecord
100
AcDbBlockTableRecord
  2
_DOTSMALL
340
0
102
{BLKREFS
331
18C65
331
18C66
331
18C59
331
18C5A
331
18C4D
331
18C4E
331
18C41
331
18C42
331
18C35
331
18C36
331
18C29
331
18C2A
331
18C1D
331
18C1E
331
18C0F
331
18C10
331
18C03
331
18C04
331
18BF5
331
18BF6
331
18BE7
331
18BE8
331
18BD9
331
18BDA
331
18BCD
331
18BCE
331
21316
331
21317
331
21321
331
21322
331
2132A
331
2132B
331
25FB8
331
25FB9
331
25FC1
331
25FC2
331
25FCA
331
25FCB
331
25FDD
331
25FDE
331
25FE7
331
25FE8
331
25FF0
331
25FF1
331
25FF9
331
25FFA
331
26002
331
26003
331
2600C
331
2600D
331
26016
331
26017
331
2601F
331
26020
331
26028
331
26029
331
26031
331
26032
331
26044
331
26045
331
26056
331
26057
331
26060
331
26061
331
2607F
331
26080
331
2608A
331
2608B
331
26095
331
26096
331
260A0
331
260A1
331
260AA
331
260AB
331
260D8
331
260D9
331
260E1
331
260E2
331
26158
331
26159
331
26162
331
26163
331
26181
331
26182
331
261CA
331
261CB
331
261BE
331
261BF
331
261B2
331
261B3
331
261A6
331
261A7
331
2619A
331
2619B
331
2618C
331
2618D
331
264C4
331
264C5
331
264CF
331
264D0
331
264D8
331
264D9
331
264E1
331
264E2
331
264EA
331
264EB
331
264F3
331
264F4
102
}
  0
BLOCK_RECORD
  5
164B4
330
7466
100
AcDbSymbolTableRecord
100
AcDbBlockTableRecord
  2
_DOT
340
0
102
{BLKREFS
331
18C73
331
18C74
102
}
  0
BLOCK_RECORD
  5
18BC8
330
7466
100
AcDbSymbolTableRecord
100
AcDbBlockTableRecord
  2
*D3
340
0
  0
BLOCK_RECORD
  5
18BD4
330
7466
100
AcDbSymbolTableRecord
100
AcDbBlockTableRecord
  2
*D4
340
0
  0
BLOCK_RECORD
  5
18BE0
330
7466
100
AcDbSymbolTableRecord
100
AcDbBlockTableRecord
  2
*D5
340
0
  0
BLOCK_RECORD
  5
18BEE
330
7466
100
AcDbSymbolTableRecord
100
AcDbBlockTableRecord
  2
*D6
340
0
  0
BLOCK_RECORD
  5
18BFC
330
7466
100
AcDbSymbolTableRecord
100
AcDbBlockTableRecord
  2
*D7
340
0
  0
BLOCK_RECORD
  5
18C0A
330
7466
100
AcDbSymbolTableRecord
100
AcDbBlockTableRecord
  2
*D8
340
0
  0
BLOCK_RECORD
  5
18C16
330
7466
100
AcDbSymbolTableRecord
100
AcDbBlockTableRecord
  2
*D9
340
0
  0
BLOCK_RECORD
  5
18C24
330
7466
100
AcDbSymbolTableRecord
100
AcDbBlockTableRecord
  2
*D10
340
0
  0
BLOCK_RECORD
  5
18C30
330
7466
100
AcDbSymbolTableRecord
100
AcDbBlockTableRecord
  2
*D11
340
0
  0
BLOCK_RECORD
  5
18C3C
330
7466
100
AcDbSymbolTableRecord
100
AcDbBlockTableRecord
  2
*D12
340
0
  0
BLOCK_RECORD
  5
18C48
330
7466
100
AcDbSymbolTableRecord
100
AcDbBlockTableRecord
  2
*D13
340
0
  0
BLOCK_RECORD
  5
18C54
330
7466
100
AcDbSymbolTableRecord
100
AcDbBlockTableRecord
  2
*D14
340
0
  0
BLOCK_RECORD
  5
18C60
330
7466
100
AcDbSymbolTableRecord
100
AcDbBlockTableRecord
  2
*D15
340
0
  0
BLOCK_RECORD
  5
18C6C
330
7466
100
AcDbSymbolTableRecord
100
AcDbBlockTableRecord
  2
*D16
340
0
  0
BLOCK_RECORD
  5
18C7A
330
7466
100
AcDbSymbolTableRecord
100
AcDbBlockTableRecord
  2
A$C3B1A506B
340
0
  0
BLOCK_RECORD
  5
1C4CA
330
7466
100
AcDbSymbolTableRecord
100
AcDbBlockTableRecord
  2
_NONE
340
0
  0
BLOCK_RECORD
  5
20DE2
330
7466
100
AcDbSymbolTableRecord
100
AcDbBlockTableRecord
  2
*D19
340
0
  0
BLOCK_RECORD
  5
20DFC
330
7466
100
AcDbSymbolTableRecord
100
AcDbBlockTableRecord
  2
*D20
340
0
  0
BLOCK_RECORD
  5
22742
330
7466
100
AcDbSymbolTableRecord
100
AcDbBlockTableRecord
  2
*D25
340
0
  0
BLOCK_RECORD
  5
2275C
330
7466
100
AcDbSymbolTableRecord
100
AcDbBlockTableRecord
  2
*D26
340
0
  0
BLOCK_RECORD
  5
239F3
330
7466
100
AcDbSymbolTableRecord
100
AcDbBlockTableRecord
  2
*D27
340
0
  0
BLOCK_RECORD
  5
23A23
330
7466
100
AcDbSymbolTableRecord
100
AcDbBlockTableRecord
  2
*D28
340
0
  0
BLOCK_RECORD
  5
23ADE
330
7466
100
AcDbSymbolTableRecord
100
AcDbBlockTableRecord
  2
*D29
340
0
  0
BLOCK_RECORD
  5
25AE4
330
7466
100
AcDbSymbolTableRecord
100
AcDbBlockTableRecord
  2
*D30
340
0
  0
BLOCK_RECORD
  5
25AFC
330
7466
100
AcDbSymbolTableRecord
100
AcDbBlockTableRecord
  2
*D31
340
0
  0
BLOCK_RECORD
  5
25B08
330
7466
100
AcDbSymbolTableRecord
100
AcDbBlockTableRecord
  2
*D32
340
0
  0
BLOCK_RECORD
  5
25B21
330
7466
100
AcDbSymbolTableRecord
100
AcDbBlockTableRecord
  2
*D33
340
0
  0
BLOCK_RECORD
  5
25B3B
330
7466
100
AcDbSymbolTableRecord
100
AcDbBlockTableRecord
  2
*D34
340
0
  0
BLOCK_RECORD
  5
25B47
330
7466
100
AcDbSymbolTableRecord
100
AcDbBlockTableRecord
  2
*D35
340
0
  0
BLOCK_RECORD
  5
25B53
330
7466
100
AcDbSymbolTableRecord
100
AcDbBlockTableRecord
  2
*D36
340
0
  0
BLOCK_RECORD
  5
25B5F
330
7466
100
AcDbSymbolTableRecord
100
AcDbBlockTableRecord
  2
*D37
340
0
  0
BLOCK_RECORD
  5
25B6B
330
7466
100
AcDbSymbolTableRecord
100
AcDbBlockTableRecord
  2
*D38
340
0
  0
BLOCK_RECORD
  5
25B77
330
7466
100
AcDbSymbolTableRecord
100
AcDbBlockTableRecord
  2
*D39
340
0
  0
BLOCK_RECORD
  5
25B84
330
7466
100
AcDbSymbolTableRecord
100
AcDbBlockTableRecord
  2
*D40
340
0
  0
BLOCK_RECORD
  5
25B9C
330
7466
100
AcDbSymbolTableRecord
100
AcDbBlockTableRecord
  2
*D41
340
0
  0
BLOCK_RECORD
  5
25BC0
330
7466
100
AcDbSymbolTableRecord
100
AcDbBlockTableRecord
  2
*D42
340
0
  0
BLOCK_RECORD
  5
25BDA
330
7466
100
AcDbSymbolTableRecord
100
AcDbBlockTableRecord
  2
*D43
340
0
  0
BLOCK_RECORD
  5
25BE7
330
7466
100
AcDbSymbolTableRecord
100
AcDbBlockTableRecord
  2
*D44
340
0
  0
BLOCK_RECORD
  5
25BF2
330
7466
100
AcDbSymbolTableRecord
100
AcDbBlockTableRecord
  2
*D45
340
0
  0
BLOCK_RECORD
  5
25BFD
330
7466
100
AcDbSymbolTableRecord
100
AcDbBlockTableRecord
  2
*D46
340
0
  0
BLOCK_RECORD
  5
25C09
330
7466
100
AcDbSymbolTableRecord
100
AcDbBlockTableRecord
  2
*D47
340
0
  0
BLOCK_RECORD
  5
2643F
330
7466
100
AcDbSymbolTableRecord
100
AcDbBlockTableRecord
  2
*D54
340
0
  0
BLOCK_RECORD
  5
2644B
330
7466
100
AcDbSymbolTableRecord
100
AcDbBlockTableRecord
  2
*D55
340
0
  0
BLOCK_RECORD
  5
26457
330
7466
100
AcDbSymbolTableRecord
100
AcDbBlockTableRecord
  2
*D56
340
0
  0
BLOCK_RECORD
  5
26463
330
7466
100
AcDbSymbolTableRecord
100
AcDbBlockTableRecord
  2
*D57
340
0
  0
BLOCK_RECORD
  5
2646F
330
7466
100
AcDbSymbolTableRecord
100
AcDbBlockTableRecord
  2
*D58
340
0
  0
BLOCK_RECORD
  5
2647D
330
7466
100
AcDbSymbolTableRecord
100
AcDbBlockTableRecord
  2
*D59
340
0
  0
ENDTAB
  0
ENDSEC
  0
SECTION
  2
BLOCKS
  0
BLOCK
  5
7489
330
747D
100
AcDbEntity
  8
0
100
AcDbBlockBegin
  2
*MODEL_SPACE
 70
     0
 10
0.0
 20
0.0
 30
0.0
  3
*MODEL_SPACE
  1

  0
ENDBLK
  5
748A
330
747D
100
AcDbEntity
  8
0
100
AcDbBlockEnd
  0
BLOCK
  5
7487
330
747A
100
AcDbEntity
 67
     1
  8
0
100
AcDbBlockBegin
  2
*PAPER_SPACE
 70
     0
 10
0.0
 20
0.0
 30
0.0
  3
*PAPER_SPACE
  1

  0
ENDBLK
  5
7488
330
747A
100
AcDbEntity
 67
     1
  8
0
100
AcDbBlockEnd
  0
BLOCK
  5
DEAD
330
DEAC
100
AcDbEntity
  8
0
100
AcDbBlockBegin
  2
_OPEN
 70
     0
 10
0.0
 20
0.0
 30
0.0
  3
_OPEN
  1

  0
LINE
  5
DEAE
330
DEAC
100
AcDbEntity
  8
0
  6
ByBlock
 62
     0
100
AcDbLine
 10
-1.0
 20
0.1666666666666666
 30
0.0
 11
0.0
 21
0.0
 31
0.0
  0
LINE
  5
DEAF
330
DEAC
100
AcDbEntity
  8
0
  6
ByBlock
 62
     0
100
AcDbLine
 10
0.0
 20
0.0
 30
0.0
 11
-1.0
 21
-0.1666666666666666
 31
0.0
  0
LINE
  5
DEB0
330
DEAC
100
AcDbEntity
  8
0
  6
ByBlock
 62
     0
100
AcDbLine
 10
0.0
 20
0.0
 30
0.0
 11
-1.0
 21
0.0
 31
0.0
  0
ENDBLK
  5
DEB1
330
DEAC
100
AcDbEntity
  8
0
100
AcDbBlockEnd
  0
BLOCK
  5
F771
330
F770
100
AcDbEntity
  8
0
 48
50.0
100
AcDbBlockBegin
  2
_DOTSMALL
 70
     0
 10
0.0
 20
0.0
 30
0.0
  3
_DOTSMALL
  1

  0
LWPOLYLINE
  5
F772
330
F770
100
AcDbEntity
  8
0
  6
ByBlock
 62
     0
 48
50.0
100
AcDbPolyline
 90
        2
 70
     1
 43
0.5
 10
-0.0625
 20
0.0
 42
1.0
 10
0.0625
 20
0.0
 42
1.0
  0
ENDBLK
  5
F776
330
F770
100
AcDbEntity
  8
0
 48
50.0
100
AcDbBlockEnd
  0
BLOCK
  5
164BA
330
164B4
100
AcDbEntity
  8
0
 48
50.0
100
AcDbBlockBegin
  2
_DOT
 70
     0
 10
0.0
 20
0.0
 30
0.0
  3
_DOT
  1

  0
LWPOLYLINE
  5
164B5
330
164B4
100
AcDbEntity
  8
0
  6
ByBlock
 62
     0
 48
50.0
100
AcDbPolyline
 90
        2
 70
     1
 43
0.5
 10
-0.25
 20
0.0
 42
1.0
 10
0.25
 20
0.0
 42
1.0
  0
LINE
  5
164B9
330
164B4
100
AcDbEntity
  8
0
  6
ByBlock
 62
     0
 48
50.0
100
AcDbLine
 10
-0.5
 20
0.0
 30
0.0
 11
-1.0
 21
0.0
 31
0.0
  0
ENDBLK
  5
164BB
330
164B4
100
AcDbEntity
  8
0
 48
50.0
100
AcDbBlockEnd
  0
BLOCK
  5
18BC9
330
18BC8
100
AcDbEntity
  8
0
 48
50.0
100
AcDbBlockBegin
  2
*D3
 70
     1
 10
0.0
 20
0.0
 30
0.0
  3
*D3
  1

  0
LINE
  5
18BCA
330
18BC8
100
AcDbEntity
  8
寸法
 62
     0
 48
50.0
370
    -2
100
AcDbLine
 10
7649.896575106999
 20
9636.123139034717
 30
0.0
 11
8702.429862581047
 21
9636.123139034717
 31
0.0
  0
LINE
  5
18BCB
330
18BC8
100
AcDbEntity
  8
寸法
 62
     0
 48
50.0
370
    -2
100
AcDbLine
 10
7649.896575106973
 20
7846.123139034709
 30
0.0
 11
8702.429862581047
 21
7846.123139034709
 31
0.0
  0
LINE
  5
18BCC
330
18BC8
100
AcDbEntity
  8
寸法
 62
     0
 48
50.0
370
    -2
100
AcDbLine
 10
8642.429862581046
 20
9636.123139034717
 30
0.0
 11
8642.429862581046
 21
7846.123139034709
 31
0.0
  0
INSERT
  5
18BCD
330
18BC8
100
AcDbEntity
  8
寸法
 62
     0
 48
50.0
370
    -2
100
AcDbBlockReference
  2
_DOTSMALL
 10
8642.429862581046
 20
9636.123139034717
 30
0.0
 41
100.0
 42
100.0
 43
100.0
 50
90.0
  0
INSERT
  5
18BCE
330
18BC8
100
AcDbEntity
  8
寸法
 62
     0
 48
50.0
370
    -2
100
AcDbBlockReference
  2
_DOTSMALL
 10
8642.429862581046
 20
7846.123139034709
 30
0.0
 41
100.0
 42
100.0
 43
100.0
 50
270.0
  0
MTEXT
  5
18BCF
330
18BC8
100
AcDbEntity
  8
寸法
 62
     7
 48
50.0
100
AcDbMText
 10
8542.429862581045
 20
8741.123139034712
 30
0.0
 40
120.0
 41
0.0
 71
     5
 72
     1
  1
\A1;1790
  7
STYLE1
 11
0.0000000000000001
 21
1.0
 31
0.0
 73
     1
 44
1.0
1001
ACAD
1000
MTEXTBEGIN
1070
    73
1070
     1
1070
    44
1040
1.0
1070
    74
1070
     0
1000
MTEXTEND
  0
POINT
  5
18BD0
330
18BC8
100
AcDbEntity
  8
DEFPOINTS
 62
     0
 48
50.0
100
AcDbPoint
 10
7629.896575106998
 20
9636.123139034717
 30
0.0
  0
POINT
  5
18BD1
330
18BC8
100
AcDbEntity
  8
DEFPOINTS
 62
     0
 48
50.0
100
AcDbPoint
 10
7629.896575106974
 20
7846.123139034709
 30
0.0
  0
POINT
  5
18BD2
330
18BC8
100
AcDbEntity
  8
DEFPOINTS
 62
     0
 48
50.0
100
AcDbPoint
 10
8642.429862581046
 20
7846.123139034709
 30
0.0
  0
ENDBLK
  5
18BD3
330
18BC8
100
AcDbEntity
  8
0
 48
50.0
100
AcDbBlockEnd
  0
BLOCK
  5
18BD5
330
18BD4
100
AcDbEntity
  8
0
 48
50.0
100
AcDbBlockBegin
  2
*D4
 70
     1
 10
0.0
 20
0.0
 30
0.0
  3
*D4
  1

  0
LINE
  5
18BD6
330
18BD4
100
AcDbEntity
  8
寸法
 62
     0
 48
50.0
370
    -2
100
AcDbLine
 10
4214.896575106998
 20
9656.123139034622
 30
0.0
 11
4214.896575106998
 21
10211.93135865972
 31
0.0
  0
LINE
  5
18BD7
330
18BD4
100
AcDbEntity
  8
寸法
 62
     0
 48
50.0
370
    -2
100
AcDbLine
 10
7574.896575106999
 20
9656.123139034718
 30
0.0
 11
7574.896575106999
 21
10211.93135865972
 31
0.0
  0
LINE
  5
18BD8
330
18BD4
100
AcDbEntity
  8
寸法
 62
     0
 48
50.0
370
    -2
100
AcDbLine
 10
4214.896575106998
 20
10151.93135865972
 30
0.0
 11
7574.896575106999
 21
10151.93135865972
 31
0.0
  0
INSERT
  5
18BD9
330
18BD4
100
AcDbEntity
  8
寸法
 62
     0
 48
50.0
370
    -2
100
AcDbBlockReference
  2
_DOTSMALL
 10
4214.896575106998
 20
10151.93135865972
 30
0.0
 41
100.0
 42
100.0
 43
100.0
 50
180.0
  0
INSERT
  5
18BDA
330
18BD4
100
AcDbEntity
  8
寸法
 62
     0
 48
50.0
370
    -2
100
AcDbBlockReference
  2
_DOTSMALL
 10
7574.896575106999
 20
10151.93135865972
 30
0.0
 41
100.0
 42
100.0
 43
100.0
  0
MTEXT
  5
18BDB
330
18BD4
100
AcDbEntity
  8
寸法
 62
     7
 48
50.0
100
AcDbMText
 10
5894.896575106997
 20
10251.94316968334
 30
0.0
 40
120.0
 41
0.0
 71
     5
 72
     1
  1
\A1;8X420=3360
  7
STYLE1
 73
     1
 44
1.0
1001
ACAD
1000
MTEXTBEGIN
1070
    73
1070
     1
1070
    44
1040
1.0
1070
    74
1070
     0
1000
MTEXTEND
  0
POINT
  5
18BDC
330
18BD4
100
AcDbEntity
  8
DEFPOINTS
 62
     0
 48
50.0
100
AcDbPoint
 10
4214.896575106998
 20
9636.123139034623
 30
0.0
  0
POINT
  5
18BDD
330
18BD4
100
AcDbEntity
  8
DEFPOINTS
 62
     0
 48
50.0
100
AcDbPoint
 10
7574.896575106999
 20
9636.123139034717
 30
0.0
  0
POINT
  5
18BDE
330
18BD4
100
AcDbEntity
  8
DEFPOINTS
 62
     0
 48
50.0
100
AcDbPoint
 10
7574.896575106999
 20
10151.93135865972
 30
0.0
  0
ENDBLK
  5
18BDF
330
18BD4
100
AcDbEntity
  8
0
 48
50.0
100
AcDbBlockEnd
  0
BLOCK
  5
18BE1
330
18BE0
100
AcDbEntity
  8
0
 48
50.0
100
AcDbBlockBegin
  2
*D5
 70
     1
 10
0.0
 20
0.0
 30
0.0
  3
*D5
  1

  0
LINE
  5
18BE2
330
18BE0
100
AcDbEntity
  8
寸法
 62
     0
 48
50.0
370
    -2
100
AcDbLine
 10
7574.896575106999
 20
9656.123139034718
 30
0.0
 11
7574.896575106999
 21
10211.9313586597
 31
0.0
  0
LINE
  5
18BE3
330
18BE0
100
AcDbEntity
  8
寸法
 62
     0
 48
50.0
370
    -2
100
AcDbLine
 10
7629.896575106998
 20
9656.123139034718
 30
0.0
 11
7629.896575106998
 21
10211.9313586597
 31
0.0
  0
LINE
  5
18BE4
330
18BE0
100
AcDbEntity
  8
寸法
 62
     0
 48
50.0
370
    -2
100
AcDbLine
 10
7574.896575106999
 20
10151.9313586597
 30
0.0
 11
7474.896575106999
 21
10151.9313586597
 31
0.0
  0
LINE
  5
18BE5
330
18BE0
100
AcDbEntity
  8
寸法
 62
     0
 48
50.0
370
    -2
100
AcDbLine
 10
7629.896575106998
 20
10151.9313586597
 30
0.0
 11
8046.867137855477
 21
10151.9313586597
 31
0.0
  0
LINE
  5
18BE6
330
18BE0
100
AcDbEntity
  8
寸法
 62
     0
 48
50.0
370
    -2
100
AcDbLine
 10
7574.896575106999
 20
10151.9313586597
 30
0.0
 11
7629.896575106998
 21
10151.9313586597
 31
0.0
  0
INSERT
  5
18BE7
330
18BE0
100
AcDbEntity
  8
寸法
 62
     0
 48
50.0
370
    -2
100
AcDbBlockReference
  2
_DOTSMALL
 10
7574.896575106999
 20
10151.9313586597
 30
0.0
 41
100.0
 42
100.0
 43
100.0
  0
INSERT
  5
18BE8
330
18BE0
100
AcDbEntity
  8
寸法
 62
     0
 48
50.0
370
    -2
100
AcDbBlockReference
  2
_DOTSMALL
 10
7629.896575106998
 20
10151.9313586597
 30
0.0
 41
100.0
 42
100.0
 43
100.0
 50
180.0
  0
MTEXT
  5
18BE9
330
18BE0
100
AcDbEntity
  8
寸法
 62
     7
 48
50.0
100
AcDbMText
 10
7938.381856481237
 20
10251.9313586597
 30
0.0
 40
120.0
 41
0.0
 71
     5
 72
     1
  1
\A1;55
  7
STYLE1
 73
     1
 44
1.0
1001
ACAD
1000
MTEXTBEGIN
1070
    73
1070
     1
1070
    44
1040
1.0
1070
    74
1070
     0
1000
MTEXTEND
  0
POINT
  5
18BEA
330
18BE0
100
AcDbEntity
  8
DEFPOINTS
 62
     0
 48
50.0
100
AcDbPoint
 10
7574.896575106999
 20
9636.123139034717
 30
0.0
  0
POINT
  5
18BEB
330
18BE0
100
AcDbEntity
  8
DEFPOINTS
 62
     0
 48
50.0
100
AcDbPoint
 10
7629.896575106998
 20
9636.123139034717
 30
0.0
  0
POINT
  5
18BEC
330
18BE0
100
AcDbEntity
  8
DEFPOINTS
 62
     0
 48
50.0
100
AcDbPoint
 10
7629.896575106998
 20
10151.9313586597
 30
0.0
  0
ENDBLK
  5
18BED
330
18BE0
100
AcDbEntity
  8
0
 48
50.0
100
AcDbBlockEnd
  0
BLOCK
  5
18BEF
330
18BEE
100
AcDbEntity
  8
0
 48
50.0
100
AcDbBlockBegin
  2
*D6
 70
     1
 10
0.0
 20
0.0
 30
0.0
  3
*D6
  1

  0
LINE
  5
18BF0
330
18BEE
100
AcDbEntity
  8
寸法
 62
     0
 48
50.0
370
    -2
100
AcDbLine
 10
7649.896575106999
 20
9636.123139034717
 30
0.0
 11
8337.32292084141
 21
9636.123139034717
 31
0.0
  0
LINE
  5
18BF1
330
18BEE
100
AcDbEntity
  8
寸法
 62
     0
 48
50.0
370
    -2
100
AcDbLine
 10
7649.896575106999
 20
9581.123139034721
 30
0.0
 11
8337.32292084141
 21
9581.123139034721
 31
0.0
  0
LINE
  5
18BF2
330
18BEE
100
AcDbEntity
  8
寸法
 62
     0
 48
50.0
370
    -2
100
AcDbLine
 10
8277.322920841411
 20
9581.123139034721
 30
0.0
 11
8277.322920841411
 21
9481.123139034719
 31
0.0
  0
LINE
  5
18BF3
330
18BEE
100
AcDbEntity
  8
寸法
 62
     0
 48
50.0
370
    -2
100
AcDbLine
 10
8277.322920841411
 20
9636.123139034717
 30
0.0
 11
8277.322920841411
 21
10053.09370178319
 31
0.0
  0
LINE
  5
18BF4
330
18BEE
100
AcDbEntity
  8
寸法
 62
     0
 48
50.0
370
    -2
100
AcDbLine
 10
8277.322920841411
 20
9581.123139034721
 30
0.0
 11
8277.322920841411
 21
9636.123139034717
 31
0.0
  0
INSERT
  5
18BF5
330
18BEE
100
AcDbEntity
  8
寸法
 62
     0
 48
50.0
370
    -2
100
AcDbBlockReference
  2
_DOTSMALL
 10
8277.322920841411
 20
9581.123139034721
 30
0.0
 41
100.0
 42
100.0
 43
100.0
 50
90.0
  0
INSERT
  5
18BF6
330
18BEE
100
AcDbEntity
  8
寸法
 62
     0
 48
50.0
370
    -2
100
AcDbBlockReference
  2
_DOTSMALL
 10
8277.322920841411
 20
9636.123139034717
 30
0.0
 41
100.0
 42
100.0
 43
100.0
 50
270.0
  0
MTEXT
  5
18BF7
330
18BEE
100
AcDbEntity
  8
寸法
 62
     7
 48
50.0
100
AcDbMText
 10
8177.32292084141
 20
9944.608420408957
 30
0.0
 40
120.0
 41
0.0
 71
     5
 72
     1
  1
\A1;55
  7
STYLE1
 11
0.0000000000000001
 21
1.0
 31
0.0
 73
     1
 44
1.0
1001
ACAD
1000
MTEXTBEGIN
1070
    73
1070
     1
1070
    44
1040
1.0
1070
    74
1070
     0
1000
MTEXTEND
  0
POINT
  5
18BF8
330
18BEE
100
AcDbEntity
  8
DEFPOINTS
 62
     0
 48
50.0
100
AcDbPoint
 10
7629.896575106998
 20
9636.123139034717
 30
0.0
  0
POINT
  5
18BF9
330
18BEE
100
AcDbEntity
  8
DEFPOINTS
 62
     0
 48
50.0
100
AcDbPoint
 10
7629.896575106998
 20
9581.123139034721
 30
0.0
  0
POINT
  5
18BFA
330
18BEE
100
AcDbEntity
  8
DEFPOINTS
 62
     0
 48
50.0
100
AcDbPoint
 10
8277.322920841411
 20
9581.123139034721
 30
0.0
  0
ENDBLK
  5
18BFB
330
18BEE
100
AcDbEntity
  8
0
 48
50.0
100
AcDbBlockEnd
  0
BLOCK
  5
18BFD
330
18BFC
100
AcDbEntity
  8
0
 48
50.0
100
AcDbBlockBegin
  2
*D7
 70
     1
 10
0.0
 20
0.0
 30
0.0
  3
*D7
  1

  0
LINE
  5
18BFE
330
18BFC
100
AcDbEntity
  8
寸法
 62
     0
 48
50.0
370
    -2
100
AcDbLine
 10
4159.896575106963
 20
9656.123139034622
 30
0.0
 11
4159.896575106963
 21
10211.9313586596
 31
0.0
  0
LINE
  5
18BFF
330
18BFC
100
AcDbEntity
  8
寸法
 62
     0
 48
50.0
370
    -2
100
AcDbLine
 10
4214.896575106998
 20
9656.123139034622
 30
0.0
 11
4214.896575106998
 21
10211.9313586596
 31
0.0
  0
LINE
  5
18C00
330
18BFC
100
AcDbEntity
  8
寸法
 62
     0
 48
50.0
370
    -2
100
AcDbLine
 10
4214.896575106998
 20
10151.9313586596
 30
0.0
 11
4314.896575106998
 21
10151.9313586596
 31
0.0
  0
LINE
  5
18C01
330
18BFC
100
AcDbEntity
  8
寸法
 62
     0
 48
50.0
370
    -2
100
AcDbLine
 10
4159.896575106963
 20
10151.9313586596
 30
0.0
 11
3742.926012358486
 21
10151.9313586596
 31
0.0
  0
LINE
  5
18C02
330
18BFC
100
AcDbEntity
  8
寸法
 62
     0
 48
50.0
370
    -2
100
AcDbLine
 10
4214.896575106998
 20
10151.9313586596
 30
0.0
 11
4159.896575106963
 21
10151.9313586596
 31
0.0
  0
INSERT
  5
18C03
330
18BFC
100
AcDbEntity
  8
寸法
 62
     0
 48
50.0
370
    -2
100
AcDbBlockReference
  2
_DOTSMALL
 10
4214.896575106998
 20
10151.9313586596
 30
0.0
 41
100.0
 42
100.0
 43
100.0
 50
180.0
  0
INSERT
  5
18C04
330
18BFC
100
AcDbEntity
  8
寸法
 62
     0
 48
50.0
370
    -2
100
AcDbBlockReference
  2
_DOTSMALL
 10
4159.896575106963
 20
10151.9313586596
 30
0.0
 41
100.0
 42
100.0
 43
100.0
  0
MTEXT
  5
18C05
330
18BFC
100
AcDbEntity
  8
寸法
 62
     7
 48
50.0
100
AcDbMText
 10
3851.411293732725
 20
10251.9313586596
 30
0.0
 40
120.0
 41
0.0
 71
     5
 72
     1
  1
\A1;55
  7
STYLE1
 73
     1
 44
1.0
1001
ACAD
1000
MTEXTBEGIN
1070
    73
1070
     1
1070
    44
1040
1.0
1070
    74
1070
     0
1000
MTEXTEND
  0
POINT
  5
18C06
330
18BFC
100
AcDbEntity
  8
DEFPOINTS
 62
     0
 48
50.0
100
AcDbPoint
 10
4159.896575106963
 20
9636.123139034623
 30
0.0
  0
POINT
  5
18C07
330
18BFC
100
AcDbEntity
  8
DEFPOINTS
 62
     0
 48
50.0
100
AcDbPoint
 10
4214.896575106998
 20
9636.123139034623
 30
0.0
  0
POINT
  5
18C08
330
18BFC
100
AcDbEntity
  8
DEFPOINTS
 62
     0
 48
50.0
100
AcDbPoint
 10
4214.896575106998
 20
10151.9313586596
 30
0.0
  0
ENDBLK
  5
18C09
330
18BFC
100
AcDbEntity
  8
0
 48
50.0
100
AcDbBlockEnd
  0
BLOCK
  5
18C0B
330
18C0A
100
AcDbEntity
  8
0
 48
50.0
100
AcDbBlockBegin
  2
*D8
 70
     1
 10
0.0
 20
0.0
 30
0.0
  3
*D8
  1

  0
LINE
  5
18C0C
330
18C0A
100
AcDbEntity
  8
寸法
 62
     0
 48
50.0
370
    -2
100
AcDbLine
 10
4159.896575106992
 20
7826.123139034546
 30
0.0
 11
4159.896575106992
 21
6804.372203245664
 31
0.0
  0
LINE
  5
18C0D
330
18C0A
100
AcDbEntity
  8
寸法
 62
     0
 48
50.0
370
    -2
100
AcDbLine
 10
7629.896575106974
 20
7826.123139034674
 30
0.0
 11
7629.896575106974
 21
6804.372203245664
 31
0.0
  0
LINE
  5
18C0E
330
18C0A
100
AcDbEntity
  8
寸法
 62
     0
 48
50.0
370
    -2
100
AcDbLine
 10
4159.896575106992
 20
6864.372203245665
 30
0.0
 11
7629.896575106974
 21
6864.372203245665
 31
0.0
  0
INSERT
  5
18C0F
330
18C0A
100
AcDbEntity
  8
寸法
 62
     0
 48
50.0
370
    -2
100
AcDbBlockReference
  2
_DOTSMALL
 10
4159.896575106992
 20
6864.372203245665
 30
0.0
 41
100.0
 42
100.0
 43
100.0
 50
180.0
  0
INSERT
  5
18C10
330
18C0A
100
AcDbEntity
  8
寸法
 62
     0
 48
50.0
370
    -2
100
AcDbBlockReference
  2
_DOTSMALL
 10
7629.896575106974
 20
6864.372203245665
 30
0.0
 41
100.0
 42
100.0
 43
100.0
  0
MTEXT
  5
18C11
330
18C0A
100
AcDbEntity
  8
寸法
 62
     7
 48
50.0
100
AcDbMText
 10
5911.12376113973
 20
6964.372203245665
 30
0.0
 40
120.0
 41
0.0
 71
     5
 72
     1
  1
\A1;3470
  7
STYLE1
 73
     1
 44
1.0
1001
ACAD
1000
MTEXTBEGIN
1070
    73
1070
     1
1070
    44
1040
1.0
1070
    74
1070
     0
1000
MTEXTEND
  0
POINT
  5
18C12
330
18C0A
100
AcDbEntity
  8
DEFPOINTS
 62
     0
 48
50.0
100
AcDbPoint
 10
4159.896575106992
 20
7846.123139034546
 30
0.0
  0
POINT
  5
18C13
330
18C0A
100
AcDbEntity
  8
DEFPOINTS
 62
     0
 48
50.0
100
AcDbPoint
 10
7629.896575106974
 20
7846.123139034673
 30
0.0
  0
POINT
  5
18C14
330
18C0A
100
AcDbEntity
  8
DEFPOINTS
 62
     0
 48
50.0
100
AcDbPoint
 10
7629.896575106974
 20
6864.372203245665
 30
0.0
  0
ENDBLK
  5
18C15
330
18C0A
100
AcDbEntity
  8
0
 48
50.0
100
AcDbBlockEnd
  0
BLOCK
  5
18C17
330
18C16
100
AcDbEntity
  8
0
 48
50.0
100
AcDbBlockBegin
  2
*D9
 70
     1
 10
0.0
 20
0.0
 30
0.0
  3
*D9
  1

  0
LINE
  5
18C18
330
18C16
100
AcDbEntity
  8
寸法
 62
     0
 48
50.0
370
    -2
100
AcDbLine
 10
7649.896575106973
 20
7901.123139034706
 30
0.0
 11
8337.322920841385
 21
7901.123139034706
 31
0.0
  0
LINE
  5
18C19
330
18C16
100
AcDbEntity
  8
寸法
 62
     0
 48
50.0
370
    -2
100
AcDbLine
 10
7649.896575106973
 20
7846.123139034709
 30
0.0
 11
8337.322920841385
 21
7846.123139034709
 31
0.0
  0
LINE
  5
18C1A
330
18C16
100
AcDbEntity
  8
寸法
 62
     0
 48
50.0
370
    -2
100
AcDbLine
 10
8277.322920841385
 20
7901.123139034706
 30
0.0
 11
8277.322920841385
 21
8001.123139034707
 31
0.0
  0
LINE
  5
18C1B
330
18C16
100
AcDbEntity
  8
寸法
 62
     0
 48
50.0
370
    -2
100
AcDbLine
 10
8277.322920841385
 20
7846.123139034709
 30
0.0
 11
8277.322920841385
 21
7429.152576286229
 31
0.0
  0
LINE
  5
18C1C
330
18C16
100
AcDbEntity
  8
寸法
 62
     0
 48
50.0
370
    -2
100
AcDbLine
 10
8277.322920841385
 20
7901.123139034706
 30
0.0
 11
8277.322920841385
 21
7846.123139034709
 31
0.0
  0
INSERT
  5
18C1D
330
18C16
100
AcDbEntity
  8
寸法
 62
     0
 48
50.0
370
    -2
100
AcDbBlockReference
  2
_DOTSMALL
 10
8277.322920841385
 20
7901.123139034706
 30
0.0
 41
100.0
 42
100.0
 43
100.0
 50
270.0
  0
INSERT
  5
18C1E
330
18C16
100
AcDbEntity
  8
寸法
 62
     0
 48
50.0
370
    -2
100
AcDbBlockReference
  2
_DOTSMALL
 10
8277.322920841385
 20
7846.123139034709
 30
0.0
 41
100.0
 42
100.0
 43
100.0
 50
90.0
  0
MTEXT
  5
18C1F
330
18C16
100
AcDbEntity
  8
寸法
 62
     7
 48
50.0
100
AcDbMText
 10
8177.322920841383
 20
7537.637857660469
 30
0.0
 40
120.0
 41
0.0
 71
     5
 72
     1
  1
\A1;55
  7
STYLE1
 11
0.0000000000000001
 21
1.0
 31
0.0
 73
     1
 44
1.0
1001
ACAD
1000
MTEXTBEGIN
1070
    73
1070
     1
1070
    44
1040
1.0
1070
    74
1070
     0
1000
MTEXTEND
  0
POINT
  5
18C20
330
18C16
100
AcDbEntity
  8
DEFPOINTS
 62
     0
 48
50.0
100
AcDbPoint
 10
7629.896575106974
 20
7901.123139034706
 30
0.0
  0
POINT
  5
18C21
330
18C16
100
AcDbEntity
  8
DEFPOINTS
 62
     0
 48
50.0
100
AcDbPoint
 10
7629.896575106974
 20
7846.123139034709
 30
0.0
  0
POINT
  5
18C22
330
18C16
100
AcDbEntity
  8
DEFPOINTS
 62
     0
 48
50.0
100
AcDbPoint
 10
8277.322920841385
 20
7846.123139034709
 30
0.0
  0
ENDBLK
  5
18C23
330
18C16
100
AcDbEntity
  8
0
 48
50.0
100
AcDbBlockEnd
  0
BLOCK
  5
18C25
330
18C24
100
AcDbEntity
  8
0
 48
50.0
100
AcDbBlockBegin
  2
*D10
 70
     1
 10
0.0
 20
0.0
 30
0.0
  3
*D10
  1

  0
LINE
  5
18C26
330
18C24
100
AcDbEntity
  8
寸法
 62
     0
 48
50.0
370
    -2
100
AcDbLine
 10
6533.037591258376
 20
9136.123139034728
 30
0.0
 11
6465.083950562664
 21
8882.516699399049
 31
0.0
  0
LINE
  5
18C27
330
18C24
100
AcDbEntity
  8
寸法
 62
     0
 48
50.0
370
    -2
100
AcDbLine
 10
7596.037591258388
 20
9136.123139034721
 30
0.0
 11
7528.083950562677
 21
8882.516699399049
 31
0.0
  0
LINE
  5
18C28
330
18C24
100
AcDbEntity
  8
寸法
 62
     0
 48
50.0
370
    -2
100
AcDbLine
 10
6481.160902108531
 20
8942.51669939905
 30
0.0
 11
7544.160902108544
 21
8942.51669939905
 31
0.0
  0
INSERT
  5
18C29
330
18C24
100
AcDbEntity
  8
寸法
 62
     0
 48
50.0
370
    -2
100
AcDbBlockReference
  2
_DOTSMALL
 10
6481.160902108531
 20
8942.51669939905
 30
0.0
 41
100.0
 42
100.0
 43
100.0
 50
180.0
  0
INSERT
  5
18C2A
330
18C24
100
AcDbEntity
  8
寸法
 62
     0
 48
50.0
370
    -2
100
AcDbBlockReference
  2
_DOTSMALL
 10
7544.160902108544
 20
8942.51669939905
 30
0.0
 41
100.0
 42
100.0
 43
100.0
  0
MTEXT
  5
18C2B
330
18C24
100
AcDbEntity
  8
寸法
 62
     7
 48
50.0
100
AcDbMText
 10
7061.28653022935
 20
9042.516699399049
 30
0.0
 40
120.0
 41
0.0
 71
     5
 72
     1
  1
\A1;1063
  7
STYLE1
 73
     1
 44
1.0
1001
ACAD
1000
MTEXTBEGIN
1070
    73
1070
     1
1070
    44
1040
1.0
1070
    74
1070
     0
1000
MTEXTEND
  0
POINT
  5
18C2C
330
18C24
100
AcDbEntity
  8
DEFPOINTS
 62
     0
 48
50.0
100
AcDbPoint
 10
6538.396575106998
 20
9156.123139034727
 30
0.0
  0
POINT
  5
18C2D
330
18C24
100
AcDbEntity
  8
DEFPOINTS
 62
     0
 48
50.0
100
AcDbPoint
 10
7601.39657510701
 20
9156.12313903472
 30
0.0
  0
POINT
  5
18C2E
330
18C24
100
AcDbEntity
  8
DEFPOINTS
 62
     0
 48
50.0
100
AcDbPoint
 10
7544.160902108544
 20
8942.51669939905
 30
0.0
  0
ENDBLK
  5
18C2F
330
18C24
100
AcDbEntity
  8
0
 48
50.0
100
AcDbBlockEnd
  0
BLOCK
  5
18C31
330
18C30
100
AcDbEntity
  8
0
 48
50.0
100
AcDbBlockBegin
  2
*D11
 70
     1
 10
0.0
 20
0.0
 30
0.0
  3
*D11
  1

  0
LINE
  5
18C32
330
18C30
100
AcDbEntity
  8
寸法
 62
     0
 48
50.0
370
    -2
100
AcDbLine
 10
7621.396575106999
 20
9600.764155186094
 30
0.0
 11
8016.754300969024
 21
9494.828371819961
 31
0.0
  0
LINE
  5
18C33
330
18C30
100
AcDbEntity
  8
寸法
 62
     0
 48
50.0
370
    -2
100
AcDbLine
 10
7621.396575106999
 20
9150.764155186099
 30
0.0
 11
8016.754300969024
 21
9044.828371819964
 31
0.0
  0
LINE
  5
18C34
330
18C30
100
AcDbEntity
  8
寸法
 62
     0
 48
50.0
370
    -2
100
AcDbLine
 10
7956.754300969024
 20
9510.905323365827
 30
0.0
 11
7956.754300969024
 21
9060.90532336583
 31
0.0
  0
INSERT
  5
18C35
330
18C30
100
AcDbEntity
  8
寸法
 62
     0
 48
50.0
370
    -2
100
AcDbBlockReference
  2
_DOTSMALL
 10
7956.754300969024
 20
9510.905323365827
 30
0.0
 41
100.0
 42
100.0
 43
100.0
 50
90.0
  0
INSERT
  5
18C36
330
18C30
100
AcDbEntity
  8
寸法
 62
     0
 48
50.0
370
    -2
100
AcDbBlockReference
  2
_DOTSMALL
 10
7956.754300969024
 20
9060.90532336583
 30
0.0
 41
100.0
 42
100.0
 43
100.0
 50
270.0
  0
MTEXT
  5
18C37
330
18C30
100
AcDbEntity
  8
寸法
 62
     7
 48
50.0
100
AcDbMText
 10
7856.754300969022
 20
9285.905323365829
 30
0.0
 40
120.0
 41
0.0
 71
     5
 72
     1
  1
\A1;450
  7
STYLE1
 11
0.0000000000000001
 21
1.0
 31
0.0
 73
     1
 44
1.0
1001
ACAD
1000
MTEXTBEGIN
1070
    73
1070
     1
1070
    44
1040
1.0
1070
    74
1070
     0
1000
MTEXTEND
  0
POINT
  5
18C38
330
18C30
100
AcDbEntity
  8
DEFPOINTS
 62
     0
 48
50.0
100
AcDbPoint
 10
7601.396575106999
 20
9606.123139034718
 30
0.0
  0
POINT
  5
18C39
330
18C30
100
AcDbEntity
  8
DEFPOINTS
 62
     0
 48
50.0
100
AcDbPoint
 10
7601.396575106999
 20
9156.12313903472
 30
0.0
  0
POINT
  5
18C3A
330
18C30
100
AcDbEntity
  8
DEFPOINTS
 62
     0
 48
50.0
100
AcDbPoint
 10
7956.754300969024
 20
9060.90532336583
 30
0.0
  0
ENDBLK
  5
18C3B
330
18C30
100
AcDbEntity
  8
0
 48
50.0
100
AcDbBlockEnd
  0
BLOCK
  5
18C3D
330
18C3C
100
AcDbEntity
  8
0
 48
50.0
100
AcDbBlockBegin
  2
*D12
 70
     1
 10
0.0
 20
0.0
 30
0.0
  3
*D12
  1

  0
LINE
  5
18C3E
330
18C3C
100
AcDbEntity
  8
寸法
 62
     0
 48
50.0
370
    -2
100
AcDbLine
 10
7649.896575106999
 20
9581.123139034721
 30
0.0
 11
8337.32292084141
 21
9581.123139034721
 31
0.0
  0
LINE
  5
18C3F
330
18C3C
100
AcDbEntity
  8
寸法
 62
     0
 48
50.0
370
    -2
100
AcDbLine
 10
7649.896575106973
 20
7901.123139034706
 30
0.0
 11
8337.32292084141
 21
7901.123139034706
 31
0.0
  0
LINE
  5
18C40
330
18C3C
100
AcDbEntity
  8
寸法
 62
     0
 48
50.0
370
    -2
100
AcDbLine
 10
8277.322920841411
 20
9581.123139034721
 30
0.0
 11
8277.322920841411
 21
7901.123139034706
 31
0.0
  0
INSERT
  5
18C41
330
18C3C
100
AcDbEntity
  8
寸法
 62
     0
 48
50.0
370
    -2
100
AcDbBlockReference
  2
_DOTSMALL
 10
8277.322920841411
 20
9581.123139034721
 30
0.0
 41
100.0
 42
100.0
 43
100.0
 50
90.0
  0
INSERT
  5
18C42
330
18C3C
100
AcDbEntity
  8
寸法
 62
     0
 48
50.0
370
    -2
100
AcDbBlockReference
  2
_DOTSMALL
 10
8277.322920841411
 20
7901.123139034706
 30
0.0
 41
100.0
 42
100.0
 43
100.0
 50
270.0
  0
MTEXT
  5
18C43
330
18C3C
100
AcDbEntity
  8
寸法
 62
     7
 48
50.0
100
AcDbMText
 10
8177.311109817788
 20
8741.123139034712
 30
0.0
 40
120.0
 41
0.0
 71
     5
 72
     1
  1
\A1;4X420=1680
  7
STYLE1
 11
0.0000000000000001
 21
1.0
 31
0.0
 73
     1
 44
1.0
1001
ACAD
1000
MTEXTBEGIN
1070
    73
1070
     1
1070
    44
1040
1.0
1070
    74
1070
     0
1000
MTEXTEND
  0
POINT
  5
18C44
330
18C3C
100
AcDbEntity
  8
DEFPOINTS
 62
     0
 48
50.0
100
AcDbPoint
 10
7629.896575106998
 20
9581.123139034721
 30
0.0
  0
POINT
  5
18C45
330
18C3C
100
AcDbEntity
  8
DEFPOINTS
 62
     0
 48
50.0
100
AcDbPoint
 10
7629.896575106974
 20
7901.123139034706
 30
0.0
  0
POINT
  5
18C46
330
18C3C
100
AcDbEntity
  8
DEFPOINTS
 62
     0
 48
50.0
100
AcDbPoint
 10
8277.322920841411
 20
7901.123139034706
 30
0.0
  0
ENDBLK
  5
18C47
330
18C3C
100
AcDbEntity
  8
0
 48
50.0
100
AcDbBlockEnd
  0
BLOCK
  5
18C49
330
18C48
100
AcDbEntity
  8
0
 48
50.0
100
AcDbBlockBegin
  2
*D13
 70
     1
 10
0.0
 20
0.0
 30
0.0
  3
*D13
  1

  0
LINE
  5
18C4A
330
18C48
100
AcDbEntity
  8
寸法
 62
     0
 48
50.0
370
    -2
100
AcDbLine
 10
4183.037591258377
 20
9136.123139034619
 30
0.0
 11
4115.083950562663
 21
8882.516699398941
 31
0.0
  0
LINE
  5
18C4B
330
18C48
100
AcDbEntity
  8
寸法
 62
     0
 48
50.0
370
    -2
100
AcDbLine
 10
5246.037591258307
 20
9136.123139034671
 30
0.0
 11
5178.08395056258
 21
8882.516699398941
 31
0.0
  0
LINE
  5
18C4C
330
18C48
100
AcDbEntity
  8
寸法
 62
     0
 48
50.0
370
    -2
100
AcDbLine
 10
4131.160902108532
 20
8942.516699398941
 30
0.0
 11
5194.160902108448
 21
8942.516699398941
 31
0.0
  0
INSERT
  5
18C4D
330
18C48
100
AcDbEntity
  8
寸法
 62
     0
 48
50.0
370
    -2
100
AcDbBlockReference
  2
_DOTSMALL
 10
4131.160902108532
 20
8942.516699398941
 30
0.0
 41
100.0
 42
100.0
 43
100.0
 50
180.0
  0
INSERT
  5
18C4E
330
18C48
100
AcDbEntity
  8
寸法
 62
     0
 48
50.0
370
    -2
100
AcDbBlockReference
  2
_DOTSMALL
 10
5194.160902108448
 20
8942.516699398941
 30
0.0
 41
100.0
 42
100.0
 43
100.0
  0
MTEXT
  5
18C4F
330
18C48
100
AcDbEntity
  8
寸法
 62
     7
 48
50.0
100
AcDbMText
 10
4658.986452655306
 20
9042.516699398941
 30
0.0
 40
120.0
 41
0.0
 71
     5
 72
     1
  1
\A1;1063
  7
STYLE1
 73
     1
 44
1.0
1001
ACAD
1000
MTEXTBEGIN
1070
    73
1070
     1
1070
    44
1040
1.0
1070
    74
1070
     0
1000
MTEXTEND
  0
POINT
  5
18C50
330
18C48
100
AcDbEntity
  8
DEFPOINTS
 62
     0
 48
50.0
100
AcDbPoint
 10
4188.396575106999
 20
9156.123139034617
 30
0.0
  0
POINT
  5
18C51
330
18C48
100
AcDbEntity
  8
DEFPOINTS
 62
     0
 48
50.0
100
AcDbPoint
 10
5251.396575106929
 20
9156.123139034672
 30
0.0
  0
POINT
  5
18C52
330
18C48
100
AcDbEntity
  8
DEFPOINTS
 62
     0
 48
50.0
100
AcDbPoint
 10
5194.160902108448
 20
8942.516699398941
 30
0.0
  0
ENDBLK
  5
18C53
330
18C48
100
AcDbEntity
  8
0
 48
50.0
100
AcDbBlockEnd
  0
BLOCK
  5
18C55
330
18C54
100
AcDbEntity
  8
0
 48
50.0
100
AcDbBlockBegin
  2
*D14
 70
     1
 10
0.0
 20
0.0
 30
0.0
  3
*D14
  1

  0
LINE
  5
18C56
330
18C54
100
AcDbEntity
  8
寸法
 62
     0
 48
50.0
370
    -2
100
AcDbLine
 10
5274.037591258307
 20
9136.123139034669
 30
0.0
 11
5206.08395056258
 21
8882.516699398941
 31
0.0
  0
LINE
  5
18C57
330
18C54
100
AcDbEntity
  8
寸法
 62
     0
 48
50.0
370
    -2
100
AcDbLine
 10
6505.037591258377
 20
9136.123139034662
 30
0.0
 11
6437.083950562653
 21
8882.516699398941
 31
0.0
  0
LINE
  5
18C58
330
18C54
100
AcDbEntity
  8
寸法
 62
     0
 48
50.0
370
    -2
100
AcDbLine
 10
5222.160902108448
 20
8942.516699398941
 30
0.0
 11
6453.16090210852
 21
8942.516699398941
 31
0.0
  0
INSERT
  5
18C59
330
18C54
100
AcDbEntity
  8
寸法
 62
     0
 48
50.0
370
    -2
100
AcDbBlockReference
  2
_DOTSMALL
 10
5222.160902108448
 20
8942.516699398941
 30
0.0
 41
100.0
 42
100.0
 43
100.0
 50
180.0
  0
INSERT
  5
18C5A
330
18C54
100
AcDbEntity
  8
寸法
 62
     0
 48
50.0
370
    -2
100
AcDbBlockReference
  2
_DOTSMALL
 10
6453.16090210852
 20
8942.516699398941
 30
0.0
 41
100.0
 42
100.0
 43
100.0
  0
MTEXT
  5
18C5B
330
18C54
100
AcDbEntity
  8
寸法
 62
     7
 48
50.0
100
AcDbMText
 10
6081.244808320626
 20
9042.528510422561
 30
0.0
 40
120.0
 41
0.0
 71
     5
 72
     1
  1
\A1;1231
  7
STYLE1
 73
     1
 44
1.0
1001
ACAD
1000
MTEXTBEGIN
1070
    73
1070
     1
1070
    44
1040
1.0
1070
    74
1070
     0
1000
MTEXTEND
  0
POINT
  5
18C5C
330
18C54
100
AcDbEntity
  8
DEFPOINTS
 62
     0
 48
50.0
100
AcDbPoint
 10
5279.396575106929
 20
9156.123139034669
 30
0.0
  0
POINT
  5
18C5D
330
18C54
100
AcDbEntity
  8
DEFPOINTS
 62
     0
 48
50.0
100
AcDbPoint
 10
6510.396575106999
 20
9156.123139034662
 30
0.0
  0
POINT
  5
18C5E
330
18C54
100
AcDbEntity
  8
DEFPOINTS
 62
     0
 48
50.0
100
AcDbPoint
 10
6453.16090210852
 20
8942.516699398941
 30
0.0
  0
ENDBLK
  5
18C5F
330
18C54
100
AcDbEntity
  8
0
 48
50.0
100
AcDbBlockEnd
  0
BLOCK
  5
18C61
330
18C60
100
AcDbEntity
  8
0
 48
50.0
100
AcDbBlockBegin
  2
*D15
 70
     1
 10
0.0
 20
0.0
 30
0.0
  3
*D15
  1

  0
LINE
  5
18C62
330
18C60
100
AcDbEntity
  8
寸法
 62
     0
 48
50.0
370
    -2
100
AcDbLine
 10
5065.896575106966
 20
7749.123139034579
 30
0.0
 11
5065.896575106966
 21
7099.952920982538
 31
0.0
  0
LINE
  5
18C63
330
18C60
100
AcDbEntity
  8
寸法
 62
     0
 48
50.0
370
    -2
100
AcDbLine
 10
6331.896575106966
 20
7749.123139034579
 30
0.0
 11
6331.896575106966
 21
7099.952920982538
 31
0.0
  0
LINE
  5
18C64
330
18C60
100
AcDbEntity
  8
寸法
 62
     0
 48
50.0
370
    -2
100
AcDbLine
 10
5065.896575106966
 20
7159.952920982537
 30
0.0
 11
6331.896575106966
 21
7159.952920982537
 31
0.0
  0
INSERT
  5
18C65
330
18C60
100
AcDbEntity
  8
寸法
 62
     0
 48
50.0
370
    -2
100
AcDbBlockReference
  2
_DOTSMALL
 10
5065.896575106966
 20
7159.952920982537
 30
0.0
 41
100.0
 42
100.0
 43
100.0
 50
180.0
  0
INSERT
  5
18C66
330
18C60
100
AcDbEntity
  8
寸法
 62
     0
 48
50.0
370
    -2
100
AcDbBlockReference
  2
_DOTSMALL
 10
6331.896575106966
 20
7159.952920982537
 30
0.0
 41
100.0
 42
100.0
 43
100.0
  0
MTEXT
  5
18C67
330
18C60
100
AcDbEntity
  8
寸法
 62
     7
 48
50.0
100
AcDbMText
 10
5711.986008735934
 20
7359.964732006159
 30
0.0
 40
120.0
 41
0.0
 71
     5
 72
     1
  1
\A1;有効開口部間口\P1266
  7
STYLE1
 73
     1
 44
1.0
1001
ACAD
1000
MTEXTBEGIN
1070
    73
1070
     1
1070
    44
1040
1.0
1070
    74
1070
     0
1000
MTEXTEND
  0
POINT
  5
18C68
330
18C60
100
AcDbEntity
  8
DEFPOINTS
 62
     0
 48
50.0
100
AcDbPoint
 10
5065.896575106966
 20
7769.123139034579
 30
0.0
  0
POINT
  5
18C69
330
18C60
100
AcDbEntity
  8
DEFPOINTS
 62
     0
 48
50.0
100
AcDbPoint
 10
6331.896575106966
 20
7769.123139034579
 30
0.0
  0
POINT
  5
18C6A
330
18C60
100
AcDbEntity
  8
DEFPOINTS
 62
     0
 48
50.0
100
AcDbPoint
 10
6331.896575106966
 20
7159.952920982537
 30
0.0
  0
ENDBLK
  5
18C6B
330
18C60
100
AcDbEntity
  8
0
 48
50.0
100
AcDbBlockEnd
  0
BLOCK
  5
18C6D
330
18C6C
100
AcDbEntity
  8
0
 48
50.0
100
AcDbBlockBegin
  2
*D16
 70
     1
 10
0.0
 20
0.0
 30
0.0
  3
*D16
  1

  0
LINE
  5
18C6E
330
18C6C
100
AcDbEntity
  8
寸法
 62
     0
 48
50.0
370
    -2
100
AcDbLine
 10
7200.896575106966
 20
7846.123139034578
 30
0.0
 11
7457.192158500191
 21
7846.123139034578
 31
0.0
  0
LINE
  5
18C6F
330
18C6C
100
AcDbEntity
  8
寸法
 62
     0
 48
50.0
370
    -2
100
AcDbLine
 10
7199.896575106966
 20
7769.123139034579
 30
0.0
 11
7457.192158500191
 21
7769.123139034579
 31
0.0
  0
LINE
  5
18C70
330
18C6C
100
AcDbEntity
  8
寸法
 62
     0
 48
50.0
370
    -2
100
AcDbLine
 10
7417.192158500192
 20
7866.123139034579
 30
0.0
 11
7417.192158500192
 21
7886.123139034578
 31
0.0
  0
LINE
  5
18C71
330
18C6C
100
AcDbEntity
  8
寸法
 62
     0
 48
50.0
370
    -2
100
AcDbLine
 10
7417.192158500192
 20
7749.123139034579
 30
0.0
 11
7417.192158500192
 21
7533.123139034573
 31
0.0
  0
LINE
  5
18C72
330
18C6C
100
AcDbEntity
  8
寸法
 62
     0
 48
50.0
370
    -2
100
AcDbLine
 10
7417.192158500192
 20
7846.123139034578
 30
0.0
 11
7417.192158500192
 21
7769.123139034579
 31
0.0
  0
INSERT
  5
18C73
330
18C6C
100
AcDbEntity
  8
寸法
 62
     0
 48
50.0
370
    -2
100
AcDbBlockReference
  2
_DOT
 10
7417.192158500192
 20
7846.123139034578
 30
0.0
 41
20.0
 42
20.0
 43
20.0
 50
270.0
  0
INSERT
  5
18C74
330
18C6C
100
AcDbEntity
  8
寸法
 62
     0
 48
50.0
370
    -2
100
AcDbBlockReference
  2
_DOT
 10
7417.192158500192
 20
7769.123139034579
 30
0.0
 41
20.0
 42
20.0
 43
20.0
 50
90.0
  0
MTEXT
  5
18C75
330
18C6C
100
AcDbEntity
  8
寸法
 62
     7
 48
50.0
100
AcDbMText
 10
7325.192158500191
 20
7631.123139034575
 30
0.0
 40
120.0
 41
0.0
 71
     5
 72
     1
  1
\A1;77
  7
STYLE1
 11
0.0000000000000001
 21
1.0
 31
0.0
 73
     1
 44
1.0
1001
ACAD
1000
MTEXTBEGIN
1070
    73
1070
     1
1070
    44
1040
1.0
1070
    74
1070
     0
1000
MTEXTEND
  0
POINT
  5
18C76
330
18C6C
100
AcDbEntity
  8
DEFPOINTS
 62
     0
 48
50.0
100
AcDbPoint
 10
7180.896575106967
 20
7846.123139034578
 30
0.0
  0
POINT
  5
18C77
330
18C6C
100
AcDbEntity
  8
DEFPOINTS
 62
     0
 48
50.0
100
AcDbPoint
 10
7179.896575106965
 20
7769.123139034579
 30
0.0
  0
POINT
  5
18C78
330
18C6C
100
AcDbEntity
  8
DEFPOINTS
 62
     0
 48
50.0
100
AcDbPoint
 10
7417.192158500192
 20
7769.123139034579
 30
0.0
  0
ENDBLK
  5
18C79
330
18C6C
100
AcDbEntity
  8
0
 48
50.0
100
AcDbBlockEnd
  0
BLOCK
  5
18DA0
330
18C7A
100
AcDbEntity
  8
0
 48
50.0
100
AcDbBlockBegin
  2
A$C3B1A506B
 70
     0
 10
0.0
 20
0.0
 30
0.0
  3
A$C3B1A506B
  1

  0
MTEXT
  5
18C7B
330
18C7A
100
AcDbEntity
  8
寸法
 62
     7
 48
50.0
100
AcDbMText
 10
3342.250386887194
 20
2778.329429134012
 30
0.0
 40
96.0
 41
0.0
 71
     5
 72
     1
  1
棚 2段
  7
STYLE1
 73
     1
 44
1.0
1001
ACAD
1000
MTEXTBEGIN
1070
    73
1070
     1
1070
    44
1040
1.0
1070
    74
1070
     0
1000
MTEXTEND
  0
MTEXT
  5
18C7C
330
18C7A
100
AcDbEntity
  8
寸法
 62
     7
 48
50.0
100
AcDbMText
 10
2167.25038688716
 20
2778.329429133986
 30
0.0
 40
96.0
 41
0.0
 71
     5
 72
     1
  1
棚 2段
  7
STYLE1
 73
     1
 44
1.0
1001
ACAD
1000
MTEXTBEGIN
1070
    73
1070
     1
1070
    44
1040
1.0
1070
    74
1070
     0
1000
MTEXTEND
  0
MTEXT
  5
18C7D
330
18C7A
100
AcDbEntity
  8
寸法
 62
     7
 48
50.0
100
AcDbMText
 10
992.2503868871608
 20
2778.329429133935
 30
0.0
 40
96.0
 41
0.0
 71
     5
 72
     1
  1
棚 2段
  7
STYLE1
 73
     1
 44
1.0
1001
ACAD
1000
MTEXTBEGIN
1070
    73
1070
     1
1070
    44
1040
1.0
1070
    74
1070
     0
1000
MTEXTEND
  0
LINE
  5
18C7E
330
18C7A
100
AcDbEntity
  8
細線
 48
50.0
100
AcDbLine
 10
2771.970589276527
 20
1368.994384123192
 30
0.0
 11
3398.970589276523
 21
1368.994384123192
 31
0.0
  0
LINE
  5
18C7F
330
18C7A
100
AcDbEntity
  8
細線
 48
50.0
100
AcDbLine
 10
2117.970593930113
 20
1335.285615569113
 30
0.0
 11
3398.970589276523
 21
1335.285615569113
 31
0.0
  0
LINE
  5
18C80
330
18C7A
100
AcDbEntity
  8
細線
 48
50.0
100
AcDbLine
 10
2076.970593930115
 20
1364.690523565368
 30
0.0
 11
1322.970589276523
 21
1364.690523565367
 31
0.0
  0
LINE
  5
18C81
330
18C7A
100
AcDbEntity
  8
細線
100
AcDbLine
 10
3170.720579860066
 20
1388.494284088199
 30
0.0
 11
3173.052119381877
 21
1393.494286728162
 31
0.0
  0
LINE
  5
18C82
330
18C7A
100
AcDbEntity
  8
細線
100
AcDbLine
 10
3240.720589276525
 20
1388.494269174465
 30
0.0
 11
3238.389042800336
 21
1393.494286728144
 31
0.0
  0
LINE
  5
18C83
330
18C7A
100
AcDbEntity
  8
細線
100
AcDbLine
 10
3238.389042800336
 20
1393.494286728144
 30
0.0
 11
3173.052119381862
 21
1393.494286728133
 31
0.0
  0
LINE
  5
18C84
330
18C7A
100
AcDbEntity
  8
細線
100
AcDbLine
 10
3098.389042800336
 20
1393.494286728144
 30
0.0
 11
3033.052119381862
 21
1393.494286728133
 31
0.0
  0
LINE
  5
18C85
330
18C7A
100
AcDbEntity
  8
細線
100
AcDbLine
 10
3100.720589276523
 20
1388.494269174465
 30
0.0
 11
3098.389042800336
 21
1393.494286728144
 31
0.0
  0
LINE
  5
18C86
330
18C7A
100
AcDbEntity
  8
細線
100
AcDbLine
 10
3030.720579860066
 20
1388.494284088199
 30
0.0
 11
3033.052119381875
 21
1393.494286728162
 31
0.0
  0
LINE
  5
18C87
330
18C7A
100
AcDbEntity
  8
細線
100
AcDbLine
 10
2890.720589276525
 20
1388.494269174465
 30
0.0
 11
2893.052128798336
 21
1393.494271814428
 31
0.0
  0
LINE
  5
18C88
330
18C7A
100
AcDbEntity
  8
細線
100
AcDbLine
 10
2960.720598692984
 20
1388.494254260731
 30
0.0
 11
2958.389052216793
 21
1393.49427181441
 31
0.0
  0
LINE
  5
18C89
330
18C7A
100
AcDbEntity
  8
細線
100
AcDbLine
 10
2958.389052216795
 20
1393.49427181441
 30
0.0
 11
2893.052128798321
 21
1393.494271814399
 31
0.0
  0
LINE
  5
18C8A
330
18C7A
100
AcDbEntity
  8
細線
100
AcDbLine
 10
2667.139038146739
 20
1359.494298590735
 30
0.0
 11
2601.802114728263
 21
1359.494298590724
 31
0.0
  0
LINE
  5
18C8B
330
18C7A
100
AcDbEntity
  8
細線
100
AcDbLine
 10
2669.470584622926
 20
1354.494281037055
 30
0.0
 11
2667.139038146737
 21
1359.494298590735
 31
0.0
  0
LINE
  5
18C8C
330
18C7A
100
AcDbEntity
  8
細線
100
AcDbLine
 10
2599.470575206469
 20
1354.49429595079
 30
0.0
 11
2601.802114728278
 21
1359.494298590752
 31
0.0
  0
LINE
  5
18C8D
330
18C7A
100
AcDbEntity
  8
細線
 48
50.0
100
AcDbLine
 10
2440.853968524536
 20
1372.765132327548
 30
0.0
 11
2446.609486107205
 21
1354.494281037057
 31
0.0
  0
LINE
  5
18C8E
330
18C7A
100
AcDbEntity
  8
細線
 48
50.0
100
AcDbLine
 10
2429.925520044106
 20
1372.765132327546
 30
0.0
 11
2440.853968524536
 21
1372.765132327548
 31
0.0
  0
ARC
  5
18C8F
330
18C7A
100
AcDbEntity
  8
細線
 48
50.0
100
AcDbCircle
 10
2424.471163986787
 20
1374.265132327546
 30
0.0
 40
5.0
100
AcDbArc
 50
204.6243183520723
 51
335.3756816479278
  0
ARC
  5
18C90
330
18C7A
100
AcDbEntity
  8
細線
 48
50.0
100
AcDbCircle
 10
2429.925520044106
 20
1371.765132327546
 30
0.0
 40
1.0
100
AcDbArc
 50
90.0
 51
155.3756816479277
  0
ARC
  5
18C91
330
18C7A
100
AcDbEntity
  8
細線
 48
50.0
100
AcDbCircle
 10
2419.016807929469
 20
1371.765132327546
 30
0.0
 40
1.0
100
AcDbArc
 50
24.62431835207225
 51
90.0
  0
LINE
  5
18C92
330
18C7A
100
AcDbEntity
  8
細線
 48
50.0
100
AcDbLine
 10
2408.088359449037
 20
1372.765132327548
 30
0.0
 11
2419.016807929469
 21
1372.765132327546
 31
0.0
  0
LINE
  5
18C93
330
18C7A
100
AcDbEntity
  8
細線
 48
50.0
100
AcDbLine
 10
2402.33284186637
 20
1354.494281037054
 30
0.0
 11
2408.088359449037
 21
1372.765132327548
 31
0.0
  0
LINE
  5
18C94
330
18C7A
100
AcDbEntity
  8
細線
100
AcDbLine
 10
2458.070304175992
 20
1354.494278397076
 30
0.0
 11
2460.401843697802
 21
1359.494281037039
 31
0.0
  0
LINE
  5
18C95
330
18C7A
100
AcDbEntity
  8
細線
100
AcDbLine
 10
2528.070313592451
 20
1354.494263483342
 30
0.0
 11
2525.738767116262
 21
1359.494281037021
 31
0.0
  0
LINE
  5
18C96
330
18C7A
100
AcDbEntity
  8
細線
100
AcDbLine
 10
2525.738767116262
 20
1359.494281037021
 30
0.0
 11
2460.40184369779
 21
1359.49428103701
 31
0.0
  0
LINE
  5
18C97
330
18C7A
100
AcDbEntity
  8
細線
100
AcDbLine
 10
2387.139046332155
 20
1359.494281037021
 30
0.0
 11
2321.80212291368
 21
1359.49428103701
 31
0.0
  0
LINE
  5
18C98
330
18C7A
100
AcDbEntity
  8
細線
100
AcDbLine
 10
2389.470592808342
 20
1354.494263483342
 30
0.0
 11
2387.139046332153
 21
1359.494281037021
 31
0.0
  0
LINE
  5
18C99
330
18C7A
100
AcDbEntity
  8
細線
100
AcDbLine
 10
2319.470584622926
 20
1354.494281037054
 30
0.0
 11
2321.802122913694
 21
1359.494281037039
 31
0.0
  0
LINE
  5
18C9A
330
18C7A
100
AcDbEntity
  8
細線
100
AcDbLine
 10
2179.47061994182
 20
1354.494289224422
 30
0.0
 11
2181.802158232587
 21
1359.494289224407
 31
0.0
  0
LINE
  5
18C9B
330
18C7A
100
AcDbEntity
  8
細線
100
AcDbLine
 10
2249.470628127236
 20
1354.49427167071
 30
0.0
 11
2247.139081651047
 21
1359.494289224389
 31
0.0
  0
LINE
  5
18C9C
330
18C7A
100
AcDbEntity
  8
細線
100
AcDbLine
 10
2247.139081651047
 20
1359.494289224389
 30
0.0
 11
2181.802158232573
 21
1359.494289224378
 31
0.0
  0
LINE
  5
18C9D
330
18C7A
100
AcDbEntity
  8
細線
100
AcDbLine
 10
1807.970585744697
 20
1320.494460905133
 30
0.0
 11
1810.302124035464
 21
1325.494460905118
 31
0.0
  0
LINE
  5
18C9E
330
18C7A
100
AcDbEntity
  8
細線
100
AcDbLine
 10
1877.970593930113
 20
1320.494443351421
 30
0.0
 11
1875.639047453926
 21
1325.4944609051
 31
0.0
  0
LINE
  5
18C9F
330
18C7A
100
AcDbEntity
  8
細線
100
AcDbLine
 10
1875.639047453926
 20
1325.4944609051
 30
0.0
 11
1810.302124035452
 21
1325.494460905089
 31
0.0
  0
LINE
  5
18CA0
330
18C7A
100
AcDbEntity
  8
細線
100
AcDbLine
 10
2015.639047453926
 20
1325.4944609051
 30
0.0
 11
1950.302124035452
 21
1325.494460905089
 31
0.0
  0
LINE
  5
18CA1
330
18C7A
100
AcDbEntity
  8
細線
100
AcDbLine
 10
2017.970593930113
 20
1320.494443351421
 30
0.0
 11
2015.639047453924
 21
1325.4944609051
 31
0.0
  0
LINE
  5
18CA2
330
18C7A
100
AcDbEntity
  8
細線
100
AcDbLine
 10
1947.970585744697
 20
1320.494460905133
 30
0.0
 11
1950.302124035465
 21
1325.494460905118
 31
0.0
  0
LINE
  5
18CA3
330
18C7A
100
AcDbEntity
  8
細線
100
AcDbLine
 10
1735.639047453926
 20
1325.494460905098
 30
0.0
 11
1670.302124035454
 21
1325.494460905087
 31
0.0
  0
LINE
  5
18CA4
330
18C7A
100
AcDbEntity
  8
細線
100
AcDbLine
 10
1737.970593930113
 20
1320.494443351419
 30
0.0
 11
1735.639047453926
 21
1325.494460905098
 31
0.0
  0
LINE
  5
18CA5
330
18C7A
100
AcDbEntity
  8
細線
100
AcDbLine
 10
1667.970585744697
 20
1320.494460905131
 30
0.0
 11
1670.302124035465
 21
1325.494460905116
 31
0.0
  0
LINE
  5
18CA6
330
18C7A
100
AcDbEntity
  8
細線
100
AcDbLine
 10
1527.970593930113
 20
1320.494460905133
 30
0.0
 11
1530.302132220881
 21
1325.494460905118
 31
0.0
  0
LINE
  5
18CA7
330
18C7A
100
AcDbEntity
  8
細線
100
AcDbLine
 10
1597.970602115529
 20
1320.494443351421
 30
0.0
 11
1595.639055639342
 21
1325.4944609051
 31
0.0
  0
LINE
  5
18CA8
330
18C7A
100
AcDbEntity
  8
細線
100
AcDbLine
 10
1595.639055639342
 20
1325.4944609051
 30
0.0
 11
1530.302132220869
 21
1325.494460905089
 31
0.0
  0
ARC
  5
18CA9
330
18C7A
100
AcDbEntity
  8
部品1
 48
0.01
100
AcDbCircle
 10
1483.470482677778
 20
1319.493338720063
 30
0.0
 40
0.5
100
AcDbArc
 50
270.0
 51
0.0
  0
LINE
  5
18CAA
330
18C7A
100
AcDbEntity
  8
部品1
 48
0.01
100
AcDbLine
 10
1483.970482677778
 20
1320.493338720063
 30
0.0
 11
1483.970482677778
 21
1319.493338720063
 31
0.0
  0
LINE
  5
18CAB
330
18C7A
100
AcDbEntity
  8
部品1
 48
0.01
100
AcDbLine
 10
1483.970482677778
 20
1320.493338720063
 30
0.0
 11
1483.970482677778
 21
1319.493338720063
 31
0.0
  0
LINE
  5
18CAC
330
18C7A
100
AcDbEntity
  8
部品1
 48
0.01
100
AcDbLine
 10
1483.470482677778
 20
1318.993338720063
 30
0.0
 11
1476.857977247713
 21
1318.993338720062
 31
0.0
  0
ARC
  5
18CAD
330
18C7A
100
AcDbEntity
  8
部品1
100
AcDbCircle
 10
1476.926326800494
 20
1319.993338720062
 30
0.0
 40
1.0
100
AcDbArc
 50
160.5287793655865
 51
270.0
  0
ARC
  5
18CAE
330
18C7A
100
AcDbEntity
  8
部品1
100
AcDbCircle
 10
1451.470482677778
 20
1328.993338720062
 30
0.0
 40
26.0
100
AcDbArc
 50
340.5287793655865
 51
0.0
  0
LINE
  5
18CAF
330
18C7A
100
AcDbEntity
  8
部品1
100
AcDbLine
 10
1477.470482677778
 20
1328.993338720062
 30
0.0
 11
1477.470482677778
 21
1333.993338720061
 31
0.0
  0
ARC
  5
18CB0
330
18C7A
100
AcDbEntity
  8
部品1
 48
0.01
100
AcDbCircle
 10
1475.470482677778
 20
1333.993338720061
 30
0.0
 40
2.0
100
AcDbArc
 50
0.0
 51
90.0
  0
ARC
  5
18CB1
330
18C7A
100
AcDbEntity
  8
部品1
100
AcDbCircle
 10
1473.862091052968
 20
1332.993338720062
 30
0.0
 40
3.0
100
AcDbArc
 50
90.0
 51
141.6069559808035
  0
LINE
  5
18CB2
330
18C7A
100
AcDbEntity
  8
部品1
 48
0.01
100
AcDbLine
 10
1475.470482677778
 20
1335.993338720062
 30
0.0
 11
1473.862091052968
 21
1335.993338720062
 31
0.0
  0
ARC
  5
18CB3
330
18C7A
100
AcDbEntity
  8
部品1
100
AcDbCircle
 10
1455.399768463507
 20
1332.293338720065
 30
0.0
 40
3.0
100
AcDbArc
 50
254.0576313943215
 51
270.0
  0
ARC
  5
18CB4
330
18C7A
100
AcDbEntity
  8
部品1
100
AcDbCircle
 10
1462.541196892049
 20
1332.293338720065
 30
0.0
 40
3.0
100
AcDbArc
 50
270.0
 51
285.9423686056786
  0
LINE
  5
18CB5
330
18C7A
100
AcDbEntity
  8
部品1
100
AcDbLine
 10
1462.541196892049
 20
1329.293338720064
 30
0.0
 11
1455.399768463507
 21
1329.293338720064
 31
0.0
  0
ARC
  5
18CB6
330
18C7A
100
AcDbEntity
  8
部品1
100
AcDbCircle
 10
1458.970482677778
 20
1344.793338720065
 30
0.0
 40
16.0
100
AcDbArc
 50
285.9423686056786
 51
321.6069559808035
  0
LINE
  5
18CB7
330
18C7A
100
AcDbEntity
  8
部品1
 48
0.01
100
AcDbLine
 10
1442.470482677778
 20
1335.993338720062
 30
0.0
 11
1444.078874302588
 21
1335.993338720062
 31
0.0
  0
ARC
  5
18CB8
330
18C7A
100
AcDbEntity
  8
部品1
100
AcDbCircle
 10
1444.078874302588
 20
1332.993338720062
 30
0.0
 40
3.0
100
AcDbArc
 50
38.39304401919648
 51
90.0
  0
ARC
  5
18CB9
330
18C7A
100
AcDbEntity
  8
部品1
100
AcDbCircle
 10
1458.970482677778
 20
1344.793338720065
 30
0.0
 40
16.0
100
AcDbArc
 50
218.3930440191965
 51
254.0576313943215
  0
LINE
  5
18CBA
330
18C7A
100
AcDbEntity
  8
部品1
100
AcDbLine
 10
1440.470482677778
 20
1328.993338720062
 30
0.0
 11
1440.470482677778
 21
1333.993338720061
 31
0.0
  0
ARC
  5
18CBB
330
18C7A
100
AcDbEntity
  8
部品1
 48
0.01
100
AcDbCircle
 10
1442.470482677778
 20
1333.993338720061
 30
0.0
 40
2.0
100
AcDbArc
 50
90.0
 51
180.0
  0
ARC
  5
18CBC
330
18C7A
100
AcDbEntity
  8
部品1
100
AcDbCircle
 10
1466.470482677778
 20
1328.993338720062
 30
0.0
 40
26.0
100
AcDbArc
 50
180.0
 51
199.4712206344134
  0
ARC
  5
18CBD
330
18C7A
100
AcDbEntity
  8
部品1
 48
0.01
100
AcDbCircle
 10
1434.470482677778
 20
1319.493338720063
 30
0.0
 40
0.5
100
AcDbArc
 50
180.0
 51
270.0
  0
LINE
  5
18CBE
330
18C7A
100
AcDbEntity
  8
部品1
 48
0.01
100
AcDbLine
 10
1434.470482677778
 20
1318.993338720063
 30
0.0
 11
1441.014638555061
 21
1318.993338720062
 31
0.0
  0
LINE
  5
18CBF
330
18C7A
100
AcDbEntity
  8
部品1
 48
0.01
100
AcDbLine
 10
1433.970482677778
 20
1320.493338720063
 30
0.0
 11
1433.970482677778
 21
1319.493338720063
 31
0.0
  0
ARC
  5
18CC0
330
18C7A
100
AcDbEntity
  8
部品1
100
AcDbCircle
 10
1441.014638555061
 20
1319.993338720062
 30
0.0
 40
1.0
100
AcDbArc
 50
270.0
 51
19.47122063441346
  0
LINE
  5
18CC1
330
18C7A
100
AcDbEntity
  8
細線
100
AcDbLine
 10
1479.470482677785
 20
1338.493338720065
 30
0.0
 11
1438.470482677785
 21
1338.493338720058
 31
0.0
  0
LINE
  5
18CC2
330
18C7A
100
AcDbEntity
  8
細線
100
AcDbLine
 10
1438.470482677785
 20
1338.493338720058
 30
0.0
 11
1438.470482677785
 21
1320.49333872004
 31
0.0
  0
LINE
  5
18CC3
330
18C7A
100
AcDbEntity
  8
細線
100
AcDbLine
 10
1479.470482677785
 20
1338.493338720065
 30
0.0
 11
1479.470482677785
 21
1320.49333872004
 31
0.0
  0
LINE
  5
18CC4
330
18C7A
100
AcDbEntity
  8
細線
100
AcDbLine
 10
1322.970589276523
 20
1324.494269174465
 30
0.0
 11
1322.970589276523
 21
1320.494269174513
 31
0.0
  0
LINE
  5
18CC5
330
18C7A
100
AcDbEntity
  8
寸法
 48
50.0
100
AcDbLine
 10
1746.17359555837
 20
1170.531020743327
 30
0.0
 11
1694.767587648266
 21
1170.531020743327
 31
0.0
  0
LINE
  5
18CC6
330
18C7A
100
AcDbEntity
  8
寸法
 48
50.0
100
AcDbLine
 10
1694.767587648266
 20
1170.531020743327
 30
0.0
 11
1694.767587648266
 21
1201.841179395494
 31
0.0
  0
LINE
  5
18CC7
330
18C7A
100
AcDbEntity
  8
寸法
 48
50.0
100
AcDbLine
 10
1694.767587648266
 20
1201.841179395494
 30
0.0
 11
1665.006255656843
 21
1201.841179395494
 31
0.0
  0
LINE
  5
18CC8
330
18C7A
100
AcDbEntity
  8
寸法
 48
50.0
100
AcDbLine
 10
1665.006255656843
 20
1201.841179395494
 30
0.0
 11
1720.470591603318
 21
1239.420630324105
 31
0.0
  0
LINE
  5
18CC9
330
18C7A
100
AcDbEntity
  8
寸法
 48
50.0
100
AcDbLine
 10
1775.934927549793
 20
1201.841179395494
 30
0.0
 11
1720.470591603318
 21
1239.420630324105
 31
0.0
  0
LINE
  5
18CCA
330
18C7A
100
AcDbEntity
  8
寸法
 48
50.0
100
AcDbLine
 10
1746.17359555837
 20
1201.841179395494
 30
0.0
 11
1775.934927549793
 21
1201.841179395494
 31
0.0
  0
LINE
  5
18CCB
330
18C7A
100
AcDbEntity
  8
寸法
 48
50.0
100
AcDbLine
 10
1746.17359555837
 20
1170.531020743327
 30
0.0
 11
1746.17359555837
 21
1201.841179395494
 31
0.0
  0
LINE
  5
18CCC
330
18C7A
100
AcDbEntity
  8
寸法
 48
50.0
100
AcDbLine
 10
1694.767587648266
 20
1170.531020743327
 30
0.0
 11
1746.17359555837
 21
1170.531020743327
 31
0.0
  0
LINE
  5
18CCD
330
18C7A
100
AcDbEntity
  8
寸法
 48
50.0
100
AcDbLine
 10
2025.339129835225
 20
1227.676611498152
 30
0.0
 11
2025.339129835225
 21
1174.01297691636
 31
0.0
  0
LINE
  5
18CCE
330
18C7A
100
AcDbEntity
  8
寸法
 48
50.0
100
AcDbLine
 10
2114.623348430647
 20
1203.752977228664
 30
0.0
 11
2025.339129835225
 21
1227.676611498152
 31
0.0
  0
LINE
  5
18CCF
330
18C7A
100
AcDbEntity
  8
寸法
 48
50.0
100
AcDbLine
 10
1895.471408254923
 20
1203.752977228664
 30
0.0
 11
2114.623348430647
 21
1203.752977228664
 31
0.0
  0
DIMENSION
  5
18CD0
330
18C7A
100
AcDbEntity
  8
寸法
 48
50.0
100
AcDbDimension
  2
*D15
 10
2588.970589276523
 20
706.3240511224249
 30
0.0
 11
1969.060022905491
 21
706.3240511224249
 31
0.0
 12
-3742.925985830444
 22
-6453.628869860112
 32
0.0
 70
   128
  1
有効開口部間口\P<>
 71
     5
 42
1266.0
  3
INABA_S40G
100
AcDbAlignedDimension
 13
1322.970589276523
 23
1315.494269174465
 33
0.0
 14
2588.970589276523
 24
1315.494269174465
 34
0.0
100
AcDbRotatedDimension
1001
ACAD
1000
DSTYLE
1002
{
1070
   341
1005
0
1002
}
  0
LINE
  5
18CD1
330
18C7A
100
AcDbEntity
  8
部品1
100
AcDbLine
 10
3409.970589276524
 20
1392.494269174465
 30
0.0
 11
3437.970589276523
 21
1392.494269174465
 31
0.0
  0
DIMENSION
  5
18CD2
330
18C7A
100
AcDbEntity
  8
寸法
100
AcDbDimension
  2
*D16
 10
3674.266172669749
 20
1315.494269174465
 30
0.0
 11
3674.266172669748
 21
1177.494269174462
 31
0.0
 12
-3742.925985830444
 22
-6453.628869860112
 32
0.0
 70
   128
 71
     5
 42
77.0
  3
INABA_S40
100
AcDbAlignedDimension
 13
3437.970589276523
 23
1392.494269174465
 33
0.0
 14
3436.970589276523
 24
1315.494269174465
 34
0.0
 50
90.0
100
AcDbRotatedDimension
1001
ACAD
1000
DSTYLE
1002
{
1070
    41
1040
0.5
1070
    44
1040
1.0
1070
   147
1040
0.8
1070
   271
1070
     2
1070
   272
1070
     2
1070
   289
1070
     3
1070
   340
1005
F706
1070
   343
1005
164B4
1070
   344
1005
164B4
1002
}
  0
LINE
  5
18CD3
330
18C7A
100
AcDbEntity
  8
部品1
100
AcDbLine
 10
3437.970589276523
 20
1315.494269174465
 30
0.0
 11
3437.970589276523
 21
1392.494269174465
 31
0.0
  0
LINE
  5
18CD4
330
18C7A
100
AcDbEntity
  8
部品1
100
AcDbLine
 10
3398.970589276523
 20
1388.494269174465
 30
0.0
 11
3409.970589276524
 21
1388.494269174465
 31
0.0
  0
LINE
  5
18CD5
330
18C7A
100
AcDbEntity
  8
部品1
100
AcDbLine
 10
3407.970589276523
 20
1324.494269174465
 30
0.0
 11
3407.970589276523
 21
1315.494269174465
 31
0.0
  0
LINE
  5
18CD6
330
18C7A
100
AcDbEntity
  8
部品1
100
AcDbLine
 10
3398.970589276523
 20
1324.494269174465
 30
0.0
 11
3407.970589276523
 21
1324.494269174465
 31
0.0
  0
LINE
  5
18CD7
330
18C7A
100
AcDbEntity
  8
部品1
100
AcDbLine
 10
3398.970589276523
 20
1388.494269174465
 30
0.0
 11
3398.970589276523
 21
1324.494269174465
 31
0.0
  0
LINE
  5
18CD8
330
18C7A
100
AcDbEntity
  8
部品1
100
AcDbLine
 10
3409.970589276524
 20
1419.494269174465
 30
0.0
 11
3409.970589276524
 21
1388.494269174465
 31
0.0
  0
LINE
  5
18CD9
330
18C7A
100
AcDbEntity
  8
部品1
100
AcDbLine
 10
1322.970589276523
 20
1388.494269174465
 30
0.0
 11
1311.970589276523
 21
1388.494269174465
 31
0.0
  0
LINE
  5
18CDA
330
18C7A
100
AcDbEntity
  8
部品1
100
AcDbLine
 10
1283.970589276523
 20
1392.494269174465
 30
0.0
 11
1311.970589276523
 21
1392.494269174465
 31
0.0
  0
LINE
  5
18CDB
330
18C7A
100
AcDbEntity
  8
部品1
100
AcDbLine
 10
1313.970589276523
 20
1324.494269174465
 30
0.0
 11
1313.970589276523
 21
1315.494269174465
 31
0.0
  0
LINE
  5
18CDC
330
18C7A
100
AcDbEntity
  8
部品1
100
AcDbLine
 10
1322.970589276523
 20
1324.494269174465
 30
0.0
 11
1313.970589276523
 21
1324.494269174465
 31
0.0
  0
LINE
  5
18CDD
330
18C7A
100
AcDbEntity
  8
部品1
100
AcDbLine
 10
1313.970589276523
 20
1315.494269174465
 30
0.0
 11
1283.970589276523
 21
1315.494269174465
 31
0.0
  0
LINE
  5
18CDE
330
18C7A
100
AcDbEntity
  8
部品1
100
AcDbLine
 10
1283.970589276523
 20
1315.494269174465
 30
0.0
 11
1283.970589276523
 21
1392.494269174465
 31
0.0
  0
LINE
  5
18CDF
330
18C7A
100
AcDbEntity
  8
部品1
100
AcDbLine
 10
1322.970589276523
 20
1388.494269174465
 30
0.0
 11
1322.970589276523
 21
1324.494269174465
 31
0.0
  0
LINE
  5
18CE0
330
18C7A
100
AcDbEntity
  8
部品1
100
AcDbLine
 10
1311.970589276523
 20
1419.494269174462
 30
0.0
 11
1311.970589276523
 21
1388.494269174465
 31
0.0
  0
LINE
  5
18CE1
330
18C7A
100
AcDbEntity
  8
部品1
100
AcDbLine
 10
1311.970589276523
 20
1419.494269174462
 30
0.0
 11
3409.970589276524
 21
1419.494269174465
 31
0.0
  0
LINE
  5
18CE2
330
18C7A
100
AcDbEntity
  8
部品1
100
AcDbLine
 10
3407.970589276523
 20
1315.494269174465
 30
0.0
 11
3437.970589276523
 21
1315.494269174465
 31
0.0
  0
LINE
  5
18CE3
330
18C7A
100
AcDbEntity
  8
部品1
100
AcDbLine
 10
1313.970589276523
 20
1315.494269174465
 30
0.0
 11
3410.970589276523
 21
1315.494269174465
 31
0.0
  0
LINE
  5
18CE4
330
18C7A
100
AcDbEntity
  8
細線
  6
Continuous
 62
     5
100
AcDbLine
 10
2689.970589276527
 20
1354.494269174462
 30
0.0
 11
2689.970589276527
 21
1354.494269174462
 31
0.0
  0
LINE
  5
18CE5
330
18C7A
100
AcDbEntity
  8
細線
  6
Continuous
 62
     5
100
AcDbLine
 10
2682.470589276527
 20
1354.494269174462
 30
0.0
 11
2682.470589276527
 21
1354.494269174462
 31
0.0
  0
LINE
  5
18CE6
330
18C7A
100
AcDbEntity
  8
細線
  6
Continuous
 62
     5
100
AcDbLine
 10
2676.470589276527
 20
1354.494269174462
 30
0.0
 11
2676.470589276527
 21
1354.494269174462
 31
0.0
  0
LINE
  5
18CE7
330
18C7A
100
AcDbEntity
  8
細線
  6
Continuous
 62
     5
100
AcDbLine
 10
2743.970589276527
 20
1373.494269174462
 30
0.0
 11
2743.970589276527
 21
1373.494269174462
 31
0.0
  0
LINE
  5
18CE8
330
18C7A
100
AcDbEntity
  8
細線
 48
50.0
100
AcDbLine
 10
1336.970593930116
 20
1341.094443351418
 30
0.0
 11
1336.970593930113
 21
1349.490593759059
 31
0.0
  0
LINE
  5
18CE9
330
18C7A
100
AcDbEntity
  8
細線
 48
50.0
100
AcDbLine
 10
1336.970593930113
 20
1349.490593759059
 30
0.0
 11
1322.970589276523
 21
1349.490593759057
 31
0.0
  0
LINE
  5
18CEA
330
18C7A
100
AcDbEntity
  8
細線
 48
50.0
100
AcDbLine
 10
2087.970593930113
 20
1337.644443351419
 30
0.0
 11
2087.970593930113
 21
1342.494443351421
 31
0.0
  0
LINE
  5
18CEB
330
18C7A
100
AcDbEntity
  8
細線
 48
50.0
100
AcDbLine
 10
2087.970593930113
 20
1342.494443351421
 30
0.0
 11
2102.970593930113
 21
1342.494443351421
 31
0.0
  0
LINE
  5
18CEC
330
18C7A
100
AcDbEntity
  8
細線
 48
50.0
100
AcDbLine
 10
2102.970593930113
 20
1342.494443351421
 30
0.0
 11
2102.970593930115
 21
1349.494443351419
 31
0.0
  0
LINE
  5
18CED
330
18C7A
100
AcDbEntity
  8
細線
 48
50.0
100
AcDbLine
 10
2102.970593930115
 20
1349.494443351419
 30
0.0
 11
2117.970593930113
 21
1349.494443351419
 31
0.0
  0
LINE
  5
18CEE
330
18C7A
100
AcDbEntity
  8
細線
 48
50.0
100
AcDbLine
 10
2117.970593930113
 20
1349.494443351419
 30
0.0
 11
2117.970593930113
 21
1320.494443351421
 31
0.0
  0
LINE
  5
18CEF
330
18C7A
100
AcDbEntity
  8
細線
 48
50.0
100
AcDbLine
 10
1313.970589276523
 20
1320.491777694889
 30
0.0
 11
1527.970593930113
 21
1320.494460905133
 31
0.0
  0
LINE
  5
18CF0
330
18C7A
100
AcDbEntity
  8
細線
 48
50.0
100
AcDbLine
 10
2017.970593930113
 20
1320.494443351421
 30
0.0
 11
2117.970593930113
 21
1320.494443351421
 31
0.0
  0
LINE
  5
18CF1
330
18C7A
100
AcDbEntity
  8
細線
 48
50.0
100
AcDbLine
 10
1737.970593930113
 20
1320.494443351419
 30
0.0
 11
1807.970593930113
 21
1320.494443351423
 31
0.0
  0
LINE
  5
18CF2
330
18C7A
100
AcDbEntity
  8
細線
 48
50.0
100
AcDbLine
 10
1750.832558942642
 20
1320.494443351419
 30
0.0
 11
1756.588076525309
 21
1338.765294641913
 31
0.0
  0
LINE
  5
18CF3
330
18C7A
100
AcDbEntity
  8
細線
 48
50.0
100
AcDbLine
 10
1756.588076525309
 20
1338.765294641913
 30
0.0
 11
1767.516525005743
 21
1338.765294641911
 31
0.0
  0
ARC
  5
18CF4
330
18C7A
100
AcDbEntity
  8
細線
 48
50.0
100
AcDbCircle
 10
1767.516525005743
 20
1337.765294641911
 30
0.0
 40
1.0
100
AcDbArc
 50
24.62431835207225
 51
90.0
  0
ARC
  5
18CF5
330
18C7A
100
AcDbEntity
  8
細線
 48
50.0
100
AcDbCircle
 10
1778.425237120377
 20
1337.765294641911
 30
0.0
 40
1.0
100
AcDbArc
 50
90.0
 51
155.3756816479277
  0
ARC
  5
18CF6
330
18C7A
100
AcDbEntity
  8
細線
 48
50.0
100
AcDbCircle
 10
1772.970881063058
 20
1340.265294641911
 30
0.0
 40
5.0
100
AcDbArc
 50
204.6243183520723
 51
335.3756816479278
  0
LINE
  5
18CF7
330
18C7A
100
AcDbEntity
  8
細線
 48
50.0
100
AcDbLine
 10
1778.425237120377
 20
1338.765294641911
 30
0.0
 11
1789.35368560081
 21
1338.765294641913
 31
0.0
  0
LINE
  5
18CF8
330
18C7A
100
AcDbEntity
  8
細線
 48
50.0
100
AcDbLine
 10
1789.35368560081
 20
1338.765294641913
 30
0.0
 11
1795.109203183478
 21
1320.494443351423
 31
0.0
  0
LINE
  5
18CF9
330
18C7A
100
AcDbEntity
  8
細線
 48
50.0
100
AcDbLine
 10
2087.970593930113
 20
1341.094443351419
 30
0.0
 11
1336.970593930116
 21
1341.094443351418
 31
0.0
  0
LINE
  5
18CFA
330
18C7A
100
AcDbEntity
  8
細線
 48
50.0
100
AcDbLine
 10
1947.970593930113
 20
1320.494443351421
 30
0.0
 11
1877.970593930113
 21
1320.494443351421
 31
0.0
  0
LINE
  5
18CFB
330
18C7A
100
AcDbEntity
  8
細線
100
AcDbLine
 10
1667.970593930113
 20
1320.494443351421
 30
0.0
 11
1597.970602115529
 21
1320.494443351421
 31
0.0
  0
LINE
  5
18CFC
330
18C7A
100
AcDbEntity
  8
細線
 48
50.0
100
AcDbLine
 10
2741.970584622936
 20
1375.094487209288
 30
0.0
 11
2106.970593930113
 21
1375.094487209284
 31
0.0
  0
LINE
  5
18CFD
330
18C7A
100
AcDbEntity
  8
細線
 48
50.0
100
AcDbLine
 10
2106.970593930113
 20
1371.990637616925
 30
0.0
 11
2106.970593930113
 21
1376.490637616925
 31
0.0
  0
LINE
  5
18CFE
330
18C7A
100
AcDbEntity
  8
細線
 48
50.0
100
AcDbLine
 10
2106.970593930113
 20
1376.490637616925
 30
0.0
 11
2091.970593930113
 21
1376.490637616925
 31
0.0
  0
LINE
  5
18CFF
330
18C7A
100
AcDbEntity
  8
細線
 48
50.0
100
AcDbLine
 10
2091.970593930113
 20
1376.490637616925
 30
0.0
 11
2091.970593930113
 21
1383.490637616927
 31
0.0
  0
LINE
  5
18D00
330
18C7A
100
AcDbEntity
  8
細線
 48
50.0
100
AcDbLine
 10
2091.970593930113
 20
1383.490637616927
 30
0.0
 11
2076.970593930115
 21
1383.490637616924
 31
0.0
  0
LINE
  5
18D01
330
18C7A
100
AcDbEntity
  8
細線
 48
50.0
100
AcDbLine
 10
2076.970593930115
 20
1383.490637616924
 30
0.0
 11
2076.970593930115
 21
1345.890409513813
 31
0.0
  0
LINE
  5
18D02
330
18C7A
100
AcDbEntity
  8
細線
 48
50.0
100
AcDbLine
 10
2076.970593930115
 20
1345.890409513813
 30
0.0
 11
2096.970601231289
 21
1345.890451063353
 31
0.0
  0
LINE
  5
18D03
330
18C7A
100
AcDbEntity
  8
細線
 48
50.0
100
AcDbLine
 10
2096.970556362348
 20
1354.493912699161
 30
0.0
 11
2096.970601231289
 21
1345.890451063353
 31
0.0
  0
LINE
  5
18D04
330
18C7A
100
AcDbEntity
  8
細線
 48
50.0
100
AcDbLine
 10
2741.970584622936
 20
1371.644487209287
 30
0.0
 11
2741.970584622936
 21
1376.494487209284
 31
0.0
  0
LINE
  5
18D05
330
18C7A
100
AcDbEntity
  8
細線
 48
50.0
100
AcDbLine
 10
2741.970584622936
 20
1376.494487209284
 30
0.0
 11
2756.970584622934
 21
1376.494487209285
 31
0.0
  0
LINE
  5
18D06
330
18C7A
100
AcDbEntity
  8
細線
 48
50.0
100
AcDbLine
 10
2756.970584622934
 20
1376.494487209285
 30
0.0
 11
2756.970596256909
 21
1383.494487209331
 31
0.0
  0
LINE
  5
18D07
330
18C7A
100
AcDbEntity
  8
細線
 48
50.0
100
AcDbLine
 10
2756.970596256909
 20
1383.494487209331
 30
0.0
 11
2771.970594427439
 21
1383.494487209329
 31
0.0
  0
LINE
  5
18D08
330
18C7A
100
AcDbEntity
  8
細線
 48
50.0
100
AcDbLine
 10
2771.970594427439
 20
1383.494487209329
 30
0.0
 11
2771.970584125617
 21
1354.494281037055
 31
0.0
  0
LINE
  5
18D09
330
18C7A
100
AcDbEntity
  8
細線
 48
50.0
100
AcDbLine
 10
2458.070304175992
 20
1354.494278397076
 30
0.0
 11
2389.470863838818
 21
1354.494283787084
 31
0.0
  0
LINE
  5
18D0A
330
18C7A
100
AcDbEntity
  8
細線
 48
50.0
100
AcDbLine
 10
2096.970556362348
 20
1354.493912699161
 30
0.0
 11
2108.203245717057
 21
1354.494095652309
 31
0.0
  0
ARC
  5
18D0B
330
18C7A
100
AcDbEntity
  8
細線
 48
50.0
100
AcDbCircle
 10
2114.785538024393
 20
1353.294259565922
 30
0.0
 40
1.8
100
AcDbArc
 50
270.0006665777295
 51
345.000555481349
  0
LINE
  5
18D0C
330
18C7A
100
AcDbEntity
  8
細線
 48
50.0
100
AcDbLine
 10
2116.771971470473
 20
1353.753100023201
 30
0.0
 11
2116.524209028273
 21
1352.828402141094
 31
0.0
  0
LINE
  5
18D0D
330
18C7A
100
AcDbEntity
  8
細線
 48
50.0
100
AcDbLine
 10
2114.785558965548
 20
1351.494259566043
 30
0.0
 11
2111.155631546781
 21
1351.494217335563
 31
0.0
  0
ARC
  5
18D0E
330
18C7A
100
AcDbEntity
  8
細線
 48
50.0
100
AcDbCircle
 10
2111.155610605627
 20
1353.29421733544
 30
0.0
 40
1.8
100
AcDbArc
 50
195.0010443049965
 51
270.0006665777295
  0
LINE
  5
18D0F
330
18C7A
100
AcDbEntity
  8
細線
 48
50.0
100
AcDbLine
 10
2109.169183113368
 20
1353.752932303007
 30
0.0
 11
2109.416952609882
 21
1352.828311364425
 31
0.0
  0
ARC
  5
18D10
330
18C7A
100
AcDbEntity
  8
細線
 48
50.0
100
AcDbCircle
 10
2108.203262004622
 20
1353.494095652444
 30
0.0
 40
1.0
100
AcDbArc
 50
15.00104430499651
 51
90.00093320877969
  0
LINE
  5
18D11
330
18C7A
100
AcDbEntity
  8
細線
 48
50.0
100
AcDbLine
 10
2117.737892825577
 20
1354.494290342714
 30
0.0
 11
2118.679652976481
 21
1354.494296916564
 31
0.0
  0
ARC
  5
18D12
330
18C7A
100
AcDbEntity
  8
細線
 48
50.0
100
AcDbCircle
 10
2117.737899805961
 20
1353.49429034274
 30
0.0
 40
1.0
100
AcDbArc
 50
90.0003999466794
 51
165.000555481349
  0
LINE
  5
18D13
330
18C7A
100
AcDbEntity
  8
細線
 48
50.0
100
AcDbLine
 10
2669.470584622926
 20
1354.494281037055
 30
0.0
 11
2771.970584125617
 21
1354.494281037055
 31
0.0
  0
LINE
  5
18D14
330
18C7A
100
AcDbEntity
  8
細線
 48
50.0
100
AcDbLine
 10
2179.47061994182
 20
1354.494289224422
 30
0.0
 11
2118.370558714898
 21
1354.494296916564
 31
0.0
  0
LINE
  5
18D15
330
18C7A
100
AcDbEntity
  8
細線
 48
50.0
100
AcDbLine
 10
2599.470584622926
 20
1354.494281037057
 30
0.0
 11
2529.470584622926
 21
1354.494281037055
 31
0.0
  0
LINE
  5
18D16
330
18C7A
100
AcDbEntity
  8
細線
 48
50.0
100
AcDbLine
 10
2319.470584622926
 20
1354.494281037054
 30
0.0
 11
2249.470567335051
 21
1354.494281037057
 31
0.0
  0
ARC
  5
18D17
330
18C7A
100
AcDbEntity
  8
細線
 48
50.0
100
AcDbCircle
 10
2756.170589276533
 20
1387.694269174466
 30
0.0
 40
0.8
100
AcDbArc
 50
359.9997333689499
 51
89.99986668437072
  0
ARC
  5
18D18
330
18C7A
100
AcDbEntity
  8
細線
 48
50.0
100
AcDbCircle
 10
2763.770596101631
 20
1387.694280343081
 30
0.0
 40
0.8
100
AcDbArc
 50
90.00014387753465
 51
179.9997333689498
  0
LINE
  5
18D19
330
18C7A
100
AcDbEntity
  8
細線
 48
50.0
100
AcDbLine
 10
2756.170591137969
 20
1388.494269174465
 30
0.0
 11
2750.970589276525
 21
1388.494269174465
 31
0.0
  0
ARC
  5
18D1A
330
18C7A
100
AcDbEntity
  8
細線
 48
50.0
100
AcDbCircle
 10
2757.670589276524
 20
1386.194269174464
 30
0.0
 40
0.7
100
AcDbArc
 50
180.0
 51
270.0
  0
ARC
  5
18D1B
330
18C7A
100
AcDbEntity
  8
細線
 48
50.0
100
AcDbCircle
 10
2762.270589276524
 20
1386.194269174464
 30
0.0
 40
0.7
100
AcDbArc
 50
270.0
 51
0.0
  0
LINE
  5
18D1C
330
18C7A
100
AcDbEntity
  8
細線
 48
50.0
100
AcDbLine
 10
2762.970589276525
 20
1386.194269174464
 30
0.0
 11
2762.970596101639
 21
1387.694284065954
 31
0.0
  0
LINE
  5
18D1D
330
18C7A
100
AcDbEntity
  8
細線
 48
50.0
100
AcDbLine
 10
2757.670589276524
 20
1385.494269174465
 30
0.0
 11
2762.270589276524
 21
1385.494269174465
 31
0.0
  0
LINE
  5
18D1E
330
18C7A
100
AcDbEntity
  8
細線
 48
50.0
100
AcDbLine
 10
2756.970589276525
 20
1387.694269174466
 30
0.0
 11
2756.970589276525
 21
1386.194269174464
 31
0.0
  0
LINE
  5
18D1F
330
18C7A
100
AcDbEntity
  8
細線
 48
50.0
100
AcDbLine
 10
3382.570589276527
 20
1418.494269174465
 30
0.0
 11
2745.970589276525
 21
1418.494269174463
 31
0.0
  0
LINE
  5
18D20
330
18C7A
100
AcDbEntity
  8
細線
 48
50.0
100
AcDbLine
 10
3408.470589276525
 20
1413.494269174467
 30
0.0
 11
3392.570589276527
 21
1413.494269174465
 31
0.0
  0
LINE
  5
18D21
330
18C7A
100
AcDbEntity
  8
細線
 48
50.0
100
AcDbLine
 10
3392.570589276526
 20
1413.494269174465
 30
0.0
 11
3382.570589276527
 21
1418.494269174465
 31
0.0
  0
LINE
  5
18D22
330
18C7A
100
AcDbEntity
  8
細線
100
AcDbLine
 10
2993.470589276525
 20
1388.494269174465
 30
0.0
 11
2993.470589276525
 21
1417.794269174464
 31
0.0
  0
LINE
  5
18D23
330
18C7A
100
AcDbEntity
  8
細線
100
AcDbLine
 10
2993.470589276525
 20
1417.794269174464
 30
0.0
 11
3013.470589276525
 21
1417.794269174464
 31
0.0
  0
LINE
  5
18D24
330
18C7A
100
AcDbEntity
  8
細線
100
AcDbLine
 10
3013.470589276525
 20
1388.494269174465
 30
0.0
 11
3013.470589276525
 21
1417.794269174464
 31
0.0
  0
LINE
  5
18D25
330
18C7A
100
AcDbEntity
  8
細線
100
AcDbLine
 10
3170.720589276524
 20
1388.494269174465
 30
0.0
 11
3100.720589276523
 21
1388.494269174465
 31
0.0
  0
LINE
  5
18D26
330
18C7A
100
AcDbEntity
  8
細線
 48
50.0
100
AcDbLine
 10
2890.720589276525
 20
1388.494269174465
 30
0.0
 11
2763.766368849365
 21
1388.494269174465
 31
0.0
  0
LINE
  5
18D27
330
18C7A
100
AcDbEntity
  8
細線
100
AcDbLine
 10
3030.720589276525
 20
1388.494269174465
 30
0.0
 11
2960.720589276525
 21
1388.494269174465
 31
0.0
  0
LINE
  5
18D28
330
18C7A
100
AcDbEntity
  8
細線
 48
50.0
100
AcDbLine
 10
2750.970589276525
 20
1380.494269174465
 30
0.0
 11
2750.970589276525
 21
1388.494269174465
 31
0.0
  0
LINE
  5
18D29
330
18C7A
100
AcDbEntity
  8
細線
 48
50.0
100
AcDbLine
 10
2730.970589276524
 20
1380.494269174467
 30
0.0
 11
2750.970589276525
 21
1380.494269174465
 31
0.0
  0
LINE
  5
18D2A
330
18C7A
100
AcDbEntity
  8
細線
 48
50.0
100
AcDbLine
 10
2745.970589276525
 20
1418.494269174465
 30
0.0
 11
2745.970589276525
 21
1413.494269174465
 31
0.0
  0
LINE
  5
18D2B
330
18C7A
100
AcDbEntity
  8
細線
 48
50.0
100
AcDbLine
 10
2730.970589276525
 20
1418.494269174463
 30
0.0
 11
2745.970589276525
 21
1418.494269174465
 31
0.0
  0
LINE
  5
18D2C
330
18C7A
100
AcDbEntity
  8
細線
 48
50.0
100
AcDbLine
 10
2730.970589276524
 20
1380.494269174467
 30
0.0
 11
2730.970589276525
 21
1418.494269174463
 31
0.0
  0
LINE
  5
18D2D
330
18C7A
100
AcDbEntity
  8
細線
100
AcDbLine
 10
3398.970589276523
 20
1388.494269174465
 30
0.0
 11
3240.720589276525
 21
1388.494269174465
 31
0.0
  0
LINE
  5
18D2E
330
18C7A
100
AcDbEntity
  8
細線
 48
50.0
100
AcDbLine
 10
3408.470589276525
 20
1413.494269174467
 30
0.0
 11
3408.470589276524
 21
1388.494269174465
 31
0.0
  0
TEXT
  5
18D2F
330
18C7A
100
AcDbEntity
  8
部品1
100
AcDbText
 10
1860.154865991392
 20
46.99880823813145
 30
0.0
 40
135.0
  1
平面図
  7
STYLE2
100
AcDbText
  0
LWPOLYLINE
  5
18D30
330
18C7A
100
AcDbEntity
  8
部品1
100
AcDbPolyline
 90
        4
 70
     1
 43
0.0
 10
1770.23525616235
 20
239.8923374566548
 10
1770.23525616235
 20
0.0000159111223184
 10
2533.705922390791
 20
0.0000159111223184
 10
2533.705922390791
 20
239.8923374566548
  0
LINE
  5
18D31
330
18C7A
100
AcDbEntity
  8
部品1
100
AcDbLine
 10
1534.470589276487
 20
3154.494269174626
 30
0.0
 11
2769.470589276552
 21
3154.494269174626
 31
0.0
  0
LINE
  5
18D32
330
18C7A
100
AcDbEntity
  8
部品1
 48
50.0
100
AcDbLine
 10
1311.970589276523
 20
1420.494269174462
 30
0.0
 11
3411.970589276523
 21
1420.494269174465
 31
0.0
  0
LINE
  5
18D33
330
18C7A
100
AcDbEntity
  8
部品1
 48
50.0
100
AcDbLine
 10
471.9705892765232
 20
1392.494269174465
 30
0.0
 11
1311.970589276523
 21
1392.494269174465
 31
0.0
  0
DIMENSION
  5
18D34
330
18C7A
100
AcDbEntity
  8
寸法
100
AcDbDimension
  2
*D14
 10
2710.234916278077
 20
2488.887829538828
 30
0.0
 11
2338.318822490183
 21
2488.887829538828
 31
0.0
 12
-3742.925985830444
 22
-6453.628869860112
 32
0.0
 70
   128
 71
     5
 42
1231.00000000007
  3
INABA_S40G
100
AcDbAlignedDimension
 13
1536.470589276486
 23
2702.494269174557
 33
0.0
 14
2767.470589276556
 24
2702.494269174549
 34
0.0
100
AcDbRotatedDimension
1001
ACAD
1000
DSTYLE
1002
{
1002
}
  0
LINE
  5
18D35
330
18C7A
100
AcDbEntity
  8
部品1
100
AcDbLine
 10
1536.470589276487
 20
2702.494269174557
 30
0.0
 11
2767.470589276554
 21
2702.494269174615
 31
0.0
  0
LINE
  5
18D36
330
18C7A
100
AcDbEntity
  8
部品1
100
AcDbLine
 10
1536.470589276487
 20
3152.494269174557
 30
0.0
 11
2767.470589276556
 21
3152.494269174615
 31
0.0
  0
LINE
  5
18D37
330
18C7A
100
AcDbEntity
  8
細線
 48
50.0
100
AcDbLine
 10
1508.470589276487
 20
3152.494269174558
 30
0.0
 11
445.4705892765559
 21
2702.494269174509
 31
0.0
  0
LINE
  5
18D38
330
18C7A
100
AcDbEntity
  8
細線
 48
50.0
100
AcDbLine
 10
1508.470589276487
 20
2702.494269174558
 30
0.0
 11
445.4705892765542
 21
3152.494269174509
 31
0.0
  0
LINE
  5
18D39
330
18C7A
100
AcDbEntity
  8
部品1
100
AcDbLine
 10
1556.970589276487
 20
3172.494269174611
 30
0.0
 11
1556.970589276487
 21
3154.494269174611
 31
0.0
  0
LINE
  5
18D3A
330
18C7A
100
AcDbEntity
  8
部品1
100
AcDbLine
 10
1556.970589276487
 20
3172.494269174611
 30
0.0
 11
1550.970589276487
 21
3172.494269174611
 31
0.0
  0
LINE
  5
18D3B
330
18C7A
100
AcDbEntity
  8
部品1
100
AcDbLine
 10
1534.470589276487
 20
3146.494269174608
 30
0.0
 11
1509.470589276487
 21
3146.494269174611
 31
0.0
  0
LINE
  5
18D3C
330
18C7A
100
AcDbEntity
  8
部品1
100
AcDbLine
 10
1486.970589276487
 20
3172.494269174611
 30
0.0
 11
1486.970589276487
 21
3154.494269174611
 31
0.0
  0
LINE
  5
18D3D
330
18C7A
100
AcDbEntity
  8
部品1
100
AcDbLine
 10
1492.970589276487
 20
3172.494269174611
 30
0.0
 11
1486.970589276487
 21
3172.494269174611
 31
0.0
  0
LINE
  5
18D3E
330
18C7A
100
AcDbEntity
  8
部品1
100
AcDbLine
 10
1534.470589276487
 20
2702.494269174615
 30
0.0
 11
1509.470589276487
 21
2702.494269174615
 31
0.0
  0
LINE
  5
18D3F
330
18C7A
100
AcDbEntity
  8
部品1
 48
50.0
100
AcDbLine
 10
1536.470589276487
 20
3152.494269174611
 30
0.0
 11
1536.470589276487
 21
2702.494269174615
 31
0.0
  0
LINE
  5
18D40
330
18C7A
100
AcDbEntity
  8
部品1
 48
50.0
100
AcDbLine
 10
1508.470589276487
 20
3152.494269174607
 30
0.0
 11
1508.470589276487
 21
2702.494269174615
 31
0.0
  0
LINE
  5
18D41
330
18C7A
100
AcDbEntity
  8
部品1
 48
50.0
100
AcDbLine
 10
1534.470589276487
 20
3154.494269174618
 30
0.0
 11
1534.470589276487
 21
2702.494269174615
 31
0.0
  0
LINE
  5
18D42
330
18C7A
100
AcDbEntity
  8
部品1
 48
50.0
100
AcDbLine
 10
1509.470589276487
 20
3154.494269174615
 30
0.0
 11
1509.470589276487
 21
2702.494269174615
 31
0.0
  0
LINE
  5
18D43
330
18C7A
100
AcDbEntity
  8
部品1
100
AcDbLine
 10
3411.970589276556
 20
1392.494269174582
 30
0.0
 11
3411.970589276556
 21
1420.494269174596
 31
0.0
  0
LINE
  5
18D44
330
18C7A
100
AcDbEntity
  8
部品1
100
AcDbLine
 10
1311.970589276523
 20
1392.494269174596
 30
0.0
 11
1311.970589276523
 21
1420.494269174596
 31
0.0
  0
LINE
  5
18D45
330
18C7A
100
AcDbEntity
  8
部品1
100
AcDbLine
 10
891.9705892765232
 20
1392.494269174596
 30
0.0
 11
891.9705892765232
 21
1420.494269174596
 31
0.0
  0
LINE
  5
18D46
330
18C7A
100
AcDbEntity
  8
部品1
100
AcDbLine
 10
3411.97058927652
 20
3182.494269174477
 30
0.0
 11
3411.970589276523
 21
3154.494269174477
 31
0.0
  0
LINE
  5
18D47
330
18C7A
100
AcDbEntity
  8
部品1
100
AcDbLine
 10
2571.97058927652
 20
3182.494269174477
 30
0.0
 11
2571.970589276523
 21
3154.494269174477
 31
0.0
  0
LINE
  5
18D48
330
18C7A
100
AcDbEntity
  8
部品1
100
AcDbLine
 10
2991.97058927652
 20
3182.494269174477
 30
0.0
 11
2991.970589276523
 21
3154.494269174477
 31
0.0
  0
LINE
  5
18D49
330
18C7A
100
AcDbEntity
  8
部品1
100
AcDbLine
 10
2151.970589276519
 20
3182.494269174477
 30
0.0
 11
2151.970589276523
 21
3154.494269174477
 31
0.0
  0
LINE
  5
18D4A
330
18C7A
100
AcDbEntity
  8
部品1
100
AcDbLine
 10
1731.970589276519
 20
3182.494269174477
 30
0.0
 11
1731.970589276523
 21
3154.494269174477
 31
0.0
  0
LINE
  5
18D4B
330
18C7A
100
AcDbEntity
  8
部品1
100
AcDbLine
 10
1311.970589276519
 20
3182.494269174477
 30
0.0
 11
1311.970589276523
 21
3154.494269174477
 31
0.0
  0
LINE
  5
18D4C
330
18C7A
100
AcDbEntity
  8
部品1
100
AcDbLine
 10
891.9705892765195
 20
3182.494269174477
 30
0.0
 11
891.9705892765232
 21
3154.494269174477
 31
0.0
  0
LINE
  5
18D4D
330
18C7A
100
AcDbEntity
  8
部品1
100
AcDbLine
 10
471.9705892765232
 20
1392.494269174596
 30
0.0
 11
471.9705892765232
 21
1420.494269174596
 31
0.0
  0
LINE
  5
18D4E
330
18C7A
100
AcDbEntity
  8
部品1
100
AcDbLine
 10
444.9705892765305
 20
1420.494269174558
 30
0.0
 11
3858.970589276556
 21
1420.494269174596
 31
0.0
  0
LINE
  5
18D4F
330
18C7A
100
AcDbEntity
  8
部品1
100
AcDbLine
 10
3831.970589276556
 20
1392.494269174596
 30
0.0
 11
3831.970589276556
 21
1420.494269174596
 31
0.0
  0
LINE
  5
18D50
330
18C7A
100
AcDbEntity
  8
部品1
100
AcDbLine
 10
3858.970589276556
 20
1447.494269174593
 30
0.0
 11
3886.970589276556
 21
1447.494269174593
 31
0.0
  0
LINE
  5
18D51
330
18C7A
100
AcDbEntity
  8
部品1
100
AcDbLine
 10
3858.970589276556
 20
1867.494269174607
 30
0.0
 11
3886.970589276556
 21
1867.494269174607
 31
0.0
  0
LINE
  5
18D52
330
18C7A
100
AcDbEntity
  8
部品1
100
AcDbLine
 10
444.9705892765305
 20
1867.49426917448
 30
0.0
 11
416.9705892765305
 21
1867.49426917448
 31
0.0
  0
LINE
  5
18D53
330
18C7A
100
AcDbEntity
  8
部品1
100
AcDbLine
 10
3830.470589276541
 20
1867.49426917458
 30
0.0
 11
473.4705892765396
 21
1867.49426917448
 31
0.0
  0
LINE
  5
18D54
330
18C7A
100
AcDbEntity
  8
部品1
100
AcDbLine
 10
3830.470589276541
 20
2287.49426917458
 30
0.0
 11
473.4705892765396
 21
2287.49426917448
 31
0.0
  0
LINE
  5
18D55
330
18C7A
100
AcDbEntity
  8
部品1
100
AcDbLine
 10
444.9705892765305
 20
2287.49426917448
 30
0.0
 11
416.9705892765305
 21
2287.49426917448
 31
0.0
  0
LINE
  5
18D56
330
18C7A
100
AcDbEntity
  8
部品1
100
AcDbLine
 10
3858.970589276556
 20
2287.494269174608
 30
0.0
 11
3886.970589276556
 21
2287.494269174608
 31
0.0
  0
LINE
  5
18D57
330
18C7A
100
AcDbEntity
  8
部品1
 48
50.0
100
AcDbLine
 10
2151.970589276551
 20
2702.494269174586
 30
0.0
 11
2151.970589276581
 21
1448.994269174494
 31
0.0
  0
LINE
  5
18D58
330
18C7A
100
AcDbEntity
  8
破線
 48
10.0
100
AcDbLine
 10
2959.470589276535
 20
1472.494269174522
 30
0.0
 11
2176.970589276532
 21
1472.494269174505
 31
0.0
  0
LINE
  5
18D59
330
18C7A
100
AcDbEntity
  8
破線
 48
10.0
100
AcDbLine
 10
3009.47058927653
 20
1448.994269174509
 30
0.0
 11
3009.47058927653
 21
2702.494269174615
 31
0.0
  0
LINE
  5
18D5A
330
18C7A
100
AcDbEntity
  8
破線
 48
10.0
100
AcDbLine
 10
2959.470589276535
 20
1448.994269174505
 30
0.0
 11
2959.470589276531
 21
2702.494269174615
 31
0.0
  0
LINE
  5
18D5B
330
18C7A
100
AcDbEntity
  8
破線
 48
10.0
100
AcDbLine
 10
1344.47058927653
 20
1448.994269174509
 30
0.0
 11
1344.47058927653
 21
2702.494269174615
 31
0.0
  0
LINE
  5
18D5C
330
18C7A
100
AcDbEntity
  8
破線
 48
10.0
100
AcDbLine
 10
1294.470589276534
 20
1448.994269174505
 30
0.0
 11
1294.47058927653
 21
2702.494269174615
 31
0.0
  0
DIMENSION
  5
18D5D
330
18C7A
100
AcDbEntity
  8
寸法
100
AcDbDimension
  2
*D13
 10
1451.234916278005
 20
2488.887829538828
 30
0.0
 11
916.0604668248634
 21
2488.887829538828
 31
0.0
 12
-3742.925985830444
 22
-6453.628869860112
 32
0.0
 70
   128
 71
     5
 42
1062.99999999993
  3
INABA_S40G
100
AcDbAlignedDimension
 13
445.4705892765559
 23
2702.494269174505
 33
0.0
 14
1508.470589276486
 24
2702.494269174558
 34
0.0
100
AcDbRotatedDimension
1001
ACAD
1000
DSTYLE
1002
{
1002
}
  0
LINE
  5
18D5E
330
18C7A
100
AcDbEntity
  8
破線
 48
10.0
100
AcDbLine
 10
1294.470589276534
 20
1472.494269174469
 30
0.0
 11
496.9705892765414
 21
1472.494269174476
 31
0.0
  0
LINE
  5
18D5F
330
18C7A
100
AcDbEntity
  8
部品1
100
AcDbLine
 10
3831.970589276556
 20
3182.494269174604
 30
0.0
 11
3831.970589276556
 21
3154.494269174604
 31
0.0
  0
LINE
  5
18D60
330
18C7A
100
AcDbEntity
  8
部品1
100
AcDbLine
 10
3831.970589276556
 20
3182.494269174626
 30
0.0
 11
3831.970589276556
 21
3154.494269174626
 31
0.0
  0
LINE
  5
18D61
330
18C7A
100
AcDbEntity
  8
部品1
100
AcDbLine
 10
3858.970589276556
 20
3127.494269174607
 30
0.0
 11
3886.970589276556
 21
3127.494269174607
 31
0.0
  0
LINE
  5
18D62
330
18C7A
100
AcDbEntity
  8
部品1
100
AcDbLine
 10
3858.970589276556
 20
2707.494269174608
 30
0.0
 11
3886.970589276556
 21
2707.494269174608
 31
0.0
  0
LINE
  5
18D63
330
18C7A
100
AcDbEntity
  8
部品1
100
AcDbLine
 10
3858.470589276556
 20
3152.494269174604
 30
0.0
 11
3858.470589276556
 21
2702.494269174608
 31
0.0
  0
LINE
  5
18D64
330
18C7A
100
AcDbEntity
  8
部品1
100
AcDbLine
 10
3886.970589276533
 20
1447.494269174593
 30
0.0
 11
3886.970589276531
 21
1392.494269174596
 31
0.0
  0
LINE
  5
18D65
330
18C7A
100
AcDbEntity
  8
部品1
 48
50.0
100
AcDbLine
 10
3830.470589276556
 20
1448.994269174596
 30
0.0
 11
3858.970589276554
 21
1420.494269174596
 31
0.0
  0
LINE
  5
18D66
330
18C7A
100
AcDbEntity
  8
部品1
100
AcDbLine
 10
3886.970589276531
 20
1392.494269174596
 30
0.0
 11
3835.970589276531
 21
1392.494269174596
 31
0.0
  0
LINE
  5
18D67
330
18C7A
100
AcDbEntity
  8
部品1
100
AcDbLine
 10
3858.970589276533
 20
1447.494269174593
 30
0.0
 11
3886.970589276531
 21
1447.494269174593
 31
0.0
  0
LINE
  5
18D68
330
18C7A
100
AcDbEntity
  8
部品1
100
AcDbLine
 10
3886.970589276556
 20
3182.494269174604
 30
0.0
 11
3886.970589276531
 21
1392.494269174596
 31
0.0
  0
DIMENSION
  5
18D69
330
18C7A
100
AcDbEntity
  8
寸法
100
AcDbDimension
  2
*D12
 10
4534.396935010967
 20
1447.494269174593
 30
0.0
 11
4534.396935010965
 21
2287.4942691746
 31
0.0
 12
-3742.925985830444
 22
-6453.628869860112
 32
0.0
 70
   128
  1
4X420=<>
 71
     5
 42
1680.000000000014
  3
INABA_S40G
100
AcDbAlignedDimension
 13
3886.970589276556
 23
3127.494269174607
 33
0.0
 14
3886.970589276531
 24
1447.494269174593
 34
0.0
 50
90.0
100
AcDbRotatedDimension
1001
ACAD
1000
DSTYLE
1002
{
1002
}
  0
LINE
  5
18D6A
330
18C7A
100
AcDbEntity
  8
部品1
100
AcDbLine
 10
3858.970589276556
 20
3154.494269174604
 30
0.0
 11
3858.970589276534
 21
1420.494269174596
 31
0.0
  0
DIMENSION
  5
18D6B
330
18C7A
100
AcDbEntity
  8
寸法
100
AcDbDimension
  2
*D11
 10
4213.82831513858
 20
2607.276453505718
 30
0.0
 11
4113.828315138579
 21
2832.276453505718
 31
0.0
 12
-3742.925985830444
 22
-6453.628869860112
 32
0.0
 71
     5
 42
449.9999999999963
  3
INABA_S40G
100
AcDbAlignedDimension
 13
3858.470589276556
 23
3152.494269174604
 33
0.0
 14
3858.470589276556
 24
2702.494269174608
 34
0.0
 50
90.0
100
AcDbRotatedDimension
1001
ACAD
1000
DSTYLE
1002
{
1002
}
  0
LINE
  5
18D6C
330
18C7A
100
AcDbEntity
  8
部品1
100
AcDbLine
 10
3830.470589276547
 20
2702.494269174608
 30
0.0
 11
3830.470589276556
 21
1448.994269174596
 31
0.0
  0
LINE
  5
18D6D
330
18C7A
100
AcDbEntity
  8
破線
 48
10.0
100
AcDbLine
 10
3806.970589276549
 20
2702.494269174608
 30
0.0
 11
3806.970589276558
 21
1472.494269174593
 31
0.0
  0
LINE
  5
18D6E
330
18C7A
100
AcDbEntity
  8
部品1
100
AcDbLine
 10
2769.470589276556
 20
3146.494269174608
 30
0.0
 11
2794.470589276556
 21
3146.494269174611
 31
0.0
  0
LINE
  5
18D6F
330
18C7A
100
AcDbEntity
  8
部品1
100
AcDbLine
 10
2810.970589276556
 20
3172.494269174611
 30
0.0
 11
2816.970589276556
 21
3172.494269174611
 31
0.0
  0
LINE
  5
18D70
330
18C7A
100
AcDbEntity
  8
部品1
100
AcDbLine
 10
2816.970589276556
 20
3172.494269174611
 30
0.0
 11
2816.970589276556
 21
3154.494269174611
 31
0.0
  0
LINE
  5
18D71
330
18C7A
100
AcDbEntity
  8
部品1
100
AcDbLine
 10
2746.970589276556
 20
3172.494269174611
 30
0.0
 11
2752.970589276556
 21
3172.494269174611
 31
0.0
  0
LINE
  5
18D72
330
18C7A
100
AcDbEntity
  8
部品1
100
AcDbLine
 10
2746.970589276556
 20
3172.494269174611
 30
0.0
 11
2746.970589276556
 21
3154.494269174611
 31
0.0
  0
LINE
  5
18D73
330
18C7A
100
AcDbEntity
  8
部品1
100
AcDbLine
 10
2769.470589276556
 20
2702.494269174615
 30
0.0
 11
2794.470589276556
 21
2702.494269174615
 31
0.0
  0
LINE
  5
18D74
330
18C7A
100
AcDbEntity
  8
部品1
 48
50.0
100
AcDbLine
 10
2794.470589276556
 20
3154.494269174615
 30
0.0
 11
2794.470589276556
 21
2702.494269174615
 31
0.0
  0
LINE
  5
18D75
330
18C7A
100
AcDbEntity
  8
部品1
 48
50.0
100
AcDbLine
 10
2769.470589276554
 20
3154.494269174618
 30
0.0
 11
2769.470589276556
 21
2702.494269174615
 31
0.0
  0
LINE
  5
18D76
330
18C7A
100
AcDbEntity
  8
部品1
 48
50.0
100
AcDbLine
 10
2795.470589276556
 20
3152.494269174607
 30
0.0
 11
2795.470589276556
 21
2702.494269174615
 31
0.0
  0
LINE
  5
18D77
330
18C7A
100
AcDbEntity
  8
部品1
 48
50.0
100
AcDbLine
 10
2767.470589276556
 20
3152.494269174611
 30
0.0
 11
2767.470589276556
 21
2702.494269174615
 31
0.0
  0
LINE
  5
18D78
330
18C7A
100
AcDbEntity
  8
破線
 48
10.0
100
AcDbLine
 10
2176.97058927653
 20
1448.994269174509
 30
0.0
 11
2176.97058927653
 21
2702.494269174588
 31
0.0
  0
LINE
  5
18D79
330
18C7A
100
AcDbEntity
  8
破線
 48
10.0
100
AcDbLine
 10
2126.970589276534
 20
1448.994269174505
 30
0.0
 11
2126.970589276531
 21
2702.494269174586
 31
0.0
  0
LINE
  5
18D7A
330
18C7A
100
AcDbEntity
  8
部品1
100
AcDbLine
 10
2794.470589276556
 20
3154.494269174622
 30
0.0
 11
3858.970589276556
 21
3154.494269174604
 31
0.0
  0
LINE
  5
18D7B
330
18C7A
100
AcDbEntity
  8
細線
 48
50.0
100
AcDbLine
 10
3858.470589276556
 20
2702.494269174608
 30
0.0
 11
2795.470589276556
 21
3152.494269174607
 31
0.0
  0
LINE
  5
18D7C
330
18C7A
100
AcDbEntity
  8
部品1
100
AcDbLine
 10
2795.470589276555
 20
2702.494269174615
 30
0.0
 11
3858.470589276556
 21
2702.494269174608
 31
0.0
  0
LINE
  5
18D7D
330
18C7A
100
AcDbEntity
  8
部品1
100
AcDbLine
 10
2795.470589276556
 20
3152.494269174611
 30
0.0
 11
3858.470589276556
 21
3152.494269174604
 31
0.0
  0
LINE
  5
18D7E
330
18C7A
100
AcDbEntity
  8
細線
 48
50.0
100
AcDbLine
 10
3858.470589276556
 20
3152.494269174604
 30
0.0
 11
2795.470589276555
 21
2702.494269174615
 31
0.0
  0
DIMENSION
  5
18D7F
330
18C7A
100
AcDbEntity
  8
寸法
100
AcDbDimension
  2
*D10
 10
3801.234916278101
 20
2488.887829538937
 30
0.0
 11
3318.360544398907
 21
2488.887829538937
 31
0.0
 12
-3742.925985830444
 22
-6453.628869860112
 32
0.0
 70
   128
 71
     5
 42
1063.000000000012
  3
INABA_S40G
100
AcDbAlignedDimension
 13
2795.470589276555
 23
2702.494269174615
 33
0.0
 14
3858.470589276567
 24
2702.494269174608
 34
0.0
100
AcDbRotatedDimension
1001
ACAD
1000
DSTYLE
1002
{
1002
}
  0
LINE
  5
18D80
330
18C7A
100
AcDbEntity
  8
破線
 48
10.0
100
AcDbLine
 10
3806.970589276556
 20
1472.494269174594
 30
0.0
 11
3009.47058927653
 21
1472.494269174523
 31
0.0
  0
DIMENSION
  5
18D81
330
18C7A
100
AcDbEntity
  8
寸法
100
AcDbDimension
  2
*D9
 10
4534.396935010941
 20
1392.494269174596
 30
0.0
 11
4534.39693501094
 21
1084.008987800356
 31
0.0
 12
-3742.925985830444
 22
-6453.628869860112
 32
0.0
 70
   128
 71
     5
 42
54.99999999999636
  3
INABA_S40G
100
AcDbAlignedDimension
 13
3886.970589276531
 23
1447.494269174593
 33
0.0
 14
3886.970589276531
 24
1392.494269174596
 34
0.0
 50
90.0
100
AcDbRotatedDimension
1001
ACAD
1000
DSTYLE
1002
{
1002
}
  0
LINE
  5
18D82
330
18C7A
100
AcDbEntity
  8
部品1
100
AcDbLine
 10
471.9705892765196
 20
3182.494269174477
 30
0.0
 11
471.9705892765232
 21
3154.494269174477
 31
0.0
  0
LINE
  5
18D83
330
18C7A
100
AcDbEntity
  8
部品1
100
AcDbLine
 10
471.9705892765559
 20
3182.494269174509
 30
0.0
 11
471.9705892765559
 21
3154.494269174509
 31
0.0
  0
LINE
  5
18D84
330
18C7A
100
AcDbEntity
  8
部品1
100
AcDbLine
 10
444.9705892765232
 20
3127.49426917448
 30
0.0
 11
416.9705892765232
 21
3127.49426917448
 31
0.0
  0
LINE
  5
18D85
330
18C7A
100
AcDbEntity
  8
部品1
100
AcDbLine
 10
444.9705892765305
 20
2707.49426917448
 30
0.0
 11
416.9705892765305
 21
2707.49426917448
 31
0.0
  0
LINE
  5
18D86
330
18C7A
100
AcDbEntity
  8
部品1
 48
50.0
100
AcDbLine
 10
445.4705892765542
 20
3152.494269174506
 30
0.0
 11
445.4705892765559
 21
2702.494269174505
 31
0.0
  0
LINE
  5
18D87
330
18C7A
100
AcDbEntity
  8
部品1
 48
50.0
100
AcDbLine
 10
473.470589276545
 20
1448.994269174573
 30
0.0
 11
444.970589276545
 21
1420.494269174574
 31
0.0
  0
LINE
  5
18D88
330
18C7A
100
AcDbEntity
  8
部品1
100
AcDbLine
 10
471.9705892765232
 20
1392.494269174465
 30
0.0
 11
416.9705892765486
 21
1392.494269174465
 31
0.0
  0
LINE
  5
18D89
330
18C7A
100
AcDbEntity
  8
部品1
100
AcDbLine
 10
444.9705892765305
 20
1447.494269174429
 30
0.0
 11
416.9705892765469
 21
1447.494269174429
 31
0.0
  0
LINE
  5
18D8A
330
18C7A
100
AcDbEntity
  8
部品1
100
AcDbLine
 10
444.9705892765305
 20
1447.494269174465
 30
0.0
 11
416.9705892765469
 21
1447.494269174465
 31
0.0
  0
LINE
  5
18D8B
330
18C7A
100
AcDbEntity
  8
部品1
100
AcDbLine
 10
444.9705892765469
 20
1447.49426917448
 30
0.0
 11
416.9705892765469
 21
1447.49426917448
 31
0.0
  0
LINE
  5
18D8C
330
18C7A
100
AcDbEntity
  8
部品1
100
AcDbLine
 10
416.9705892765469
 20
1447.494269174429
 30
0.0
 11
416.9705892765486
 21
1392.494269174433
 31
0.0
  0
LINE
  5
18D8D
330
18C7A
100
AcDbEntity
  8
部品1
100
AcDbLine
 10
416.9705892765196
 20
3182.494269174477
 30
0.0
 11
416.9705892765486
 21
1392.494269174465
 31
0.0
  0
LINE
  5
18D8E
330
18C7A
100
AcDbEntity
  8
部品1
100
AcDbLine
 10
444.9705892765305
 20
1420.494269174556
 30
0.0
 11
444.9705892765559
 21
3154.494269174509
 31
0.0
  0
LINE
  5
18D8F
330
18C7A
100
AcDbEntity
  8
部品1
100
AcDbLine
 10
473.4705892765323
 20
2702.494269174608
 30
0.0
 11
473.470589276545
 21
1448.994269174571
 31
0.0
  0
LINE
  5
18D90
330
18C7A
100
AcDbEntity
  8
破線
 48
10.0
100
AcDbLine
 10
496.9705892765305
 20
2702.494269174608
 30
0.0
 11
496.9705892765451
 21
1472.494269174476
 31
0.0
  0
DIMENSION
  5
18D91
330
18C7A
100
AcDbEntity
  8
寸法
100
AcDbDimension
  2
*D8
 10
3886.970589276531
 20
410.7433333855515
 30
0.0
 11
2168.197775309287
 21
410.7433333855515
 31
0.0
 12
-3742.925985830444
 22
-6453.628869860112
 32
0.0
 70
   128
 71
     5
 42
3469.999999999982
  3
INABA_S40G
100
AcDbAlignedDimension
 13
416.9705892765486
 23
1392.494269174433
 33
0.0
 14
3886.970589276531
 24
1392.49426917456
 34
0.0
100
AcDbRotatedDimension
1001
ACAD
1000
DSTYLE
1002
{
1070
   341
1005
0
1002
}
  0
LINE
  5
18D92
330
18C7A
100
AcDbEntity
  8
部品1
100
AcDbLine
 10
444.9705892765559
 20
3154.494269174624
 30
0.0
 11
1509.470589276487
 21
3154.494269174626
 31
0.0
  0
LINE
  5
18D93
330
18C7A
100
AcDbEntity
  8
部品1
100
AcDbLine
 10
3886.970589276531
 20
1392.494269174596
 30
0.0
 11
3411.970589276556
 21
1392.494269174582
 31
0.0
  0
LINE
  5
18D94
330
18C7A
100
AcDbEntity
  8
部品1
100
AcDbLine
 10
416.9705892765559
 20
3182.494269174509
 30
0.0
 11
3886.970589276556
 21
3182.494269174604
 31
0.0
  0
LINE
  5
18D95
330
18C7A
100
AcDbEntity
  8
部品1
100
AcDbLine
 10
445.4705892765559
 20
2702.494269174509
 30
0.0
 11
1508.470589276487
 21
2702.494269174558
 31
0.0
  0
LINE
  5
18D96
330
18C7A
100
AcDbEntity
  8
細線
 48
50.0
100
AcDbLine
 10
2767.470589276556
 20
3152.494269174611
 30
0.0
 11
1536.470589276487
 21
2702.494269174558
 31
0.0
  0
LINE
  5
18D97
330
18C7A
100
AcDbEntity
  8
部品1
100
AcDbLine
 10
445.4705892765542
 20
3152.494269174509
 30
0.0
 11
1508.470589276485
 21
3152.494269174558
 31
0.0
  0
LINE
  5
18D98
330
18C7A
100
AcDbEntity
  8
細線
 48
50.0
100
AcDbLine
 10
2767.470589276554
 20
2702.494269174615
 30
0.0
 11
1536.470589276485
 21
3152.494269174558
 31
0.0
  0
LINE
  5
18D99
330
18C7A
100
AcDbEntity
  8
破線
 48
10.0
100
AcDbLine
 10
2126.970589276534
 20
1472.494269174502
 30
0.0
 11
1344.47058927653
 21
1472.494269174473
 31
0.0
  0
LINE
  5
18D9A
330
18C7A
100
AcDbEntity
  8
部品1
100
AcDbLine
 10
3830.470589276556
 20
1448.994269174596
 30
0.0
 11
473.4705892764487
 21
1448.994269174476
 31
0.0
  0
DIMENSION
  5
18D9B
330
18C7A
100
AcDbEntity
  8
寸法
100
AcDbDimension
  2
*D7
 10
471.970589276555
 20
3698.302488799491
 30
0.0
 11
108.4853079022819
 21
3698.302488799491
 31
0.0
 12
-3742.925985830444
 22
-6453.628869860112
 32
0.0
 70
   128
 71
     5
 42
55.00000000003456
  3
INABA_S40G
100
AcDbAlignedDimension
 13
416.9705892765205
 23
3182.494269174509
 33
0.0
 14
471.970589276555
 24
3182.494269174509
 34
0.0
100
AcDbRotatedDimension
1001
ACAD
1000
DSTYLE
1002
{
1002
}
  0
DIMENSION
  5
18D9C
330
18C7A
100
AcDbEntity
  8
寸法
100
AcDbDimension
  2
*D6
 10
4534.396935010967
 20
3127.494269174607
 30
0.0
 11
4534.396935010965
 21
3490.979550548844
 31
0.0
 12
-3742.925985830444
 22
-6453.628869860112
 32
0.0
 70
   128
 71
     5
 42
54.99999999999636
  3
INABA_S40G
100
AcDbAlignedDimension
 13
3886.970589276556
 23
3182.494269174604
 33
0.0
 14
3886.970589276556
 24
3127.494269174607
 34
0.0
 50
90.0
100
AcDbRotatedDimension
1001
ACAD
1000
DSTYLE
1002
{
1002
}
  0
DIMENSION
  5
18D9D
330
18C7A
100
AcDbEntity
  8
寸法
100
AcDbDimension
  2
*D5
 10
3886.970589276556
 20
3698.302488799589
 30
0.0
 11
4195.455870650794
 21
3698.302488799589
 31
0.0
 12
-3742.925985830444
 22
-6453.628869860112
 32
0.0
 70
   128
 71
     5
 42
55.0
  3
INABA_S40G
100
AcDbAlignedDimension
 13
3831.970589276556
 23
3182.494269174604
 33
0.0
 14
3886.970589276556
 24
3182.494269174604
 34
0.0
100
AcDbRotatedDimension
1001
ACAD
1000
DSTYLE
1002
{
1002
}
  0
DIMENSION
  5
18D9E
330
18C7A
100
AcDbEntity
  8
寸法
100
AcDbDimension
  2
*D4
 10
3831.970589276556
 20
3698.302488799607
 30
0.0
 11
2151.970589276555
 21
3698.302488799607
 31
0.0
 12
-3742.925985830444
 22
-6453.628869860112
 32
0.0
 70
   128
  1
8X420=<>
 71
     5
 42
3360.000000000001
  3
INABA_S40G
100
AcDbAlignedDimension
 13
471.970589276555
 23
3182.494269174509
 33
0.0
 14
3831.970589276556
 24
3182.494269174604
 34
0.0
100
AcDbRotatedDimension
1001
ACAD
1000
DSTYLE
1002
{
1002
}
  0
DIMENSION
  5
18D9F
330
18C7A
100
AcDbEntity
  8
寸法
100
AcDbDimension
  2
*D3
 10
4899.503876750603
 20
1392.494269174596
 30
0.0
 11
4899.503876750601
 21
2287.4942691746
 31
0.0
 12
-3742.925985830444
 22
-6453.628869860112
 32
0.0
 70
   128
 71
     5
 42
1790.000000000007
  3
INABA_S40G
100
AcDbAlignedDimension
 13
3886.970589276556
 23
3182.494269174604
 33
0.0
 14
3886.970589276531
 24
1392.494269174596
 34
0.0
 50
90.0
100
AcDbRotatedDimension
1001
ACAD
1000
DSTYLE
1002
{
1002
}
  0
ENDBLK
  5
18DA1
330
18C7A
100
AcDbEntity
  8
0
 48
50.0
100
AcDbBlockEnd
  0
BLOCK
  5
1C4CB
330
1C4CA
100
AcDbEntity
  8
0
 48
50.0
100
AcDbBlockBegin
  2
_NONE
 70
     0
 10
0.0
 20
0.0
 30
0.0
  3
_NONE
  1

  0
CIRCLE
  5
1C4CC
330
1C4CA
100
AcDbEntity
  8
0
  6
ByBlock
 62
     0
 48
50.0
100
AcDbCircle
 10
0.0
 20
0.0
 30
0.0
 40
0.25
  0
ENDBLK
  5
1C4CD
330
1C4CA
100
AcDbEntity
  8
0
 48
50.0
100
AcDbBlockEnd
  0
BLOCK
  5
20DEE
330
20DE2
100
AcDbEntity
  8
0
 48
50.0
100
AcDbBlockBegin
  2
*D19
 70
     1
 10
0.0
 20
0.0
 30
0.0
  3
*D19
  1

  0
LINE
  5
2607A
330
20DE2
100
AcDbEntity
  8
寸法
 62
     0
 48
50.0
370
    -2
100
AcDbLine
 10
11078.6
 20
7406.475364721399
 30
0.0
 11
11078.6
 21
8404.695686780319
 31
0.0
  0
LINE
  5
2607B
330
20DE2
100
AcDbEntity
  8
寸法
 62
     0
 48
50.0
370
    -2
100
AcDbLine
 10
11123.6
 20
8132.74182281531
 30
0.0
 11
11123.6
 21
8404.695686780319
 31
0.0
  0
LINE
  5
2607C
330
20DE2
100
AcDbEntity
  8
寸法
 62
     0
 48
50.0
370
    -2
100
AcDbLine
 10
11078.6
 20
8344.695686780317
 30
0.0
 11
10978.6
 21
8344.695686780317
 31
0.0
  0
LINE
  5
2607D
330
20DE2
100
AcDbEntity
  8
寸法
 62
     0
 48
50.0
370
    -2
100
AcDbLine
 10
11123.6
 20
8344.695686780317
 30
0.0
 11
11460.94924240492
 21
8344.695686780317
 31
0.0
  0
LINE
  5
2607E
330
20DE2
100
AcDbEntity
  8
寸法
 62
     0
 48
50.0
370
    -2
100
AcDbLine
 10
11078.6
 20
8344.695686780317
 30
0.0
 11
11123.6
 21
8344.695686780317
 31
0.0
  0
INSERT
  5
2607F
330
20DE2
100
AcDbEntity
  8
寸法
 62
     0
 48
50.0
370
    -2
100
AcDbBlockReference
  2
_DOTSMALL
 10
11078.6
 20
8344.695686780317
 30
0.0
 41
100.0
 42
100.0
 43
100.0
  0
INSERT
  5
26080
330
20DE2
100
AcDbEntity
  8
寸法
 62
     0
 48
50.0
370
    -2
100
AcDbBlockReference
  2
_DOTSMALL
 10
11123.6
 20
8344.695686780317
 30
0.0
 41
100.0
 42
100.0
 43
100.0
 50
180.0
  0
MTEXT
  5
26081
330
20DE2
100
AcDbEntity
  8
寸法
 62
     7
 48
50.0
100
AcDbMText
 10
11394.77462120246
 20
8444.695686780319
 30
0.0
 40
120.0
 41
0.0
 71
     5
 72
     1
  1
\A1;a
  7
STYLE1
 73
     1
 44
1.0
1001
ACAD
1000
MTEXTBEGIN
1070
    73
1070
     1
1070
    44
1040
1.0
1070
    74
1070
     0
1000
MTEXTEND
  0
POINT
  5
26082
330
20DE2
100
AcDbEntity
  8
DEFPOINTS
 62
     0
 48
50.0
100
AcDbPoint
 10
11078.6
 20
7386.475364721398
 30
0.0
  0
POINT
  5
26083
330
20DE2
100
AcDbEntity
  8
DEFPOINTS
 62
     0
 48
50.0
100
AcDbPoint
 10
11123.6
 20
8112.741822815308
 30
0.0
  0
POINT
  5
26084
330
20DE2
100
AcDbEntity
  8
DEFPOINTS
 62
     0
 48
50.0
100
AcDbPoint
 10
11123.6
 20
8344.695686780317
 30
0.0
  0
ENDBLK
  5
20DEF
330
20DE2
100
AcDbEntity
  8
0
 48
50.0
100
AcDbBlockEnd
  0
BLOCK
  5
20E08
330
20DFC
100
AcDbEntity
  8
0
 48
50.0
100
AcDbBlockBegin
  2
*D20
 70
     1
 10
0.0
 20
0.0
 30
0.0
  3
*D20
  1

  0
LINE
  5
26085
330
20DFC
100
AcDbEntity
  8
寸法
 62
     0
 48
50.0
370
    -2
100
AcDbLine
 10
5323.600000000004
 20
8132.741822815306
 30
0.0
 11
5323.600000000004
 21
8404.695686780314
 31
0.0
  0
LINE
  5
26086
330
20DFC
100
AcDbEntity
  8
寸法
 62
     0
 48
50.0
370
    -2
100
AcDbLine
 10
5368.600000000004
 20
7406.475364721394
 30
0.0
 11
5368.600000000004
 21
8404.695686780314
 31
0.0
  0
LINE
  5
26087
330
20DFC
100
AcDbEntity
  8
寸法
 62
     0
 48
50.0
370
    -2
100
AcDbLine
 10
5368.600000000004
 20
8344.695686780315
 30
0.0
 11
5468.600000000004
 21
8344.695686780315
 31
0.0
  0
LINE
  5
26088
330
20DFC
100
AcDbEntity
  8
寸法
 62
     0
 48
50.0
370
    -2
100
AcDbLine
 10
5323.600000000004
 20
8344.695686780315
 30
0.0
 11
4986.250757595087
 21
8344.695686780315
 31
0.0
  0
LINE
  5
26089
330
20DFC
100
AcDbEntity
  8
寸法
 62
     0
 48
50.0
370
    -2
100
AcDbLine
 10
5368.600000000004
 20
8344.695686780315
 30
0.0
 11
5323.600000000004
 21
8344.695686780315
 31
0.0
  0
INSERT
  5
2608A
330
20DFC
100
AcDbEntity
  8
寸法
 62
     0
 48
50.0
370
    -2
100
AcDbBlockReference
  2
_DOTSMALL
 10
5368.600000000004
 20
8344.695686780315
 30
0.0
 41
100.0
 42
100.0
 43
100.0
 50
180.0
  0
INSERT
  5
2608B
330
20DFC
100
AcDbEntity
  8
寸法
 62
     0
 48
50.0
370
    -2
100
AcDbBlockReference
  2
_DOTSMALL
 10
5323.600000000004
 20
8344.695686780315
 30
0.0
 41
100.0
 42
100.0
 43
100.0
  0
MTEXT
  5
2608C
330
20DFC
100
AcDbEntity
  8
寸法
 62
     7
 48
50.0
100
AcDbMText
 10
5052.425378797545
 20
8444.695686780315
 30
0.0
 40
120.0
 41
0.0
 71
     5
 72
     1
  1
\A1;a
  7
STYLE1
 73
     1
 44
1.0
1001
ACAD
1000
MTEXTBEGIN
1070
    73
1070
     1
1070
    44
1040
1.0
1070
    74
1070
     0
1000
MTEXTEND
  0
POINT
  5
2608D
330
20DFC
100
AcDbEntity
  8
DEFPOINTS
 62
     0
 48
50.0
100
AcDbPoint
 10
5323.600000000004
 20
8112.741822815307
 30
0.0
  0
POINT
  5
2608E
330
20DFC
100
AcDbEntity
  8
DEFPOINTS
 62
     0
 48
50.0
100
AcDbPoint
 10
5368.600000000004
 20
7386.475364721395
 30
0.0
  0
POINT
  5
2608F
330
20DFC
100
AcDbEntity
  8
DEFPOINTS
 62
     0
 48
50.0
100
AcDbPoint
 10
5368.600000000004
 20
8344.695686780315
 30
0.0
  0
ENDBLK
  5
20E09
330
20DFC
100
AcDbEntity
  8
0
 48
50.0
100
AcDbBlockEnd
  0
BLOCK
  5
2274E
330
22742
100
AcDbEntity
  8
0
 48
50.0
100
AcDbBlockBegin
  2
*D25
 70
     1
 10
0.0
 20
0.0
 30
0.0
  3
*D25
  1

  0
LINE
  5
26090
330
22742
100
AcDbEntity
  8
寸法
 62
     0
 48
50.0
370
    -2
100
AcDbLine
 10
4725.66500633007
 20
7461.475364721401
 30
0.0
 11
4433.721909610676
 21
7461.475364721401
 31
0.0
  0
LINE
  5
26091
330
22742
100
AcDbEntity
  8
寸法
 62
     0
 48
50.0
370
    -2
100
AcDbLine
 10
5348.600000000004
 20
7386.475364721395
 30
0.0
 11
4433.721909610676
 21
7386.475364721395
 31
0.0
  0
LINE
  5
26092
330
22742
100
AcDbEntity
  8
寸法
 62
     0
 48
50.0
370
    -2
100
AcDbLine
 10
4493.721909610676
 20
7461.475364721401
 30
0.0
 11
4493.721909610676
 21
7561.475364721402
 31
0.0
  0
LINE
  5
26093
330
22742
100
AcDbEntity
  8
寸法
 62
     0
 48
50.0
370
    -2
100
AcDbLine
 10
4493.721909610676
 20
7386.475364721395
 30
0.0
 11
4493.721909610676
 21
7286.475364721394
 31
0.0
  0
LINE
  5
26094
330
22742
100
AcDbEntity
  8
寸法
 62
     0
 48
50.0
370
    -2
100
AcDbLine
 10
4493.721909610676
 20
7461.475364721401
 30
0.0
 11
4493.721909610676
 21
7386.475364721395
 31
0.0
  0
INSERT
  5
26095
330
22742
100
AcDbEntity
  8
寸法
 62
     0
 48
50.0
370
    -2
100
AcDbBlockReference
  2
_DOTSMALL
 10
4493.721909610676
 20
7461.475364721401
 30
0.0
 41
100.0
 42
100.0
 43
100.0
 50
270.0
  0
INSERT
  5
26096
330
22742
100
AcDbEntity
  8
寸法
 62
     0
 48
50.0
370
    -2
100
AcDbBlockReference
  2
_DOTSMALL
 10
4493.721909610676
 20
7386.475364721395
 30
0.0
 41
100.0
 42
100.0
 43
100.0
 50
90.0
  0
MTEXT
  5
26097
330
22742
100
AcDbEntity
  8
寸法
 62
     7
 48
50.0
100
AcDbMText
 10
4393.721909610674
 20
7423.975364721399
 30
0.0
 40
120.0
 41
0.0
 71
     5
 72
     1
  1
\A1;c
  7
STYLE1
 11
0.0000000000000001
 21
1.0
 31
0.0
 73
     1
 44
1.0
1001
ACAD
1000
MTEXTBEGIN
1070
    73
1070
     1
1070
    44
1040
1.0
1070
    74
1070
     0
1000
MTEXTEND
  0
POINT
  5
26098
330
22742
100
AcDbEntity
  8
DEFPOINTS
 62
     0
 48
50.0
100
AcDbPoint
 10
4745.665006330071
 20
7461.475364721401
 30
0.0
  0
POINT
  5
26099
330
22742
100
AcDbEntity
  8
DEFPOINTS
 62
     0
 48
50.0
100
AcDbPoint
 10
5368.600000000004
 20
7386.475364721395
 30
0.0
  0
POINT
  5
2609A
330
22742
100
AcDbEntity
  8
DEFPOINTS
 62
     0
 48
50.0
100
AcDbPoint
 10
4493.721909610676
 20
7386.475364721395
 30
0.0
  0
ENDBLK
  5
2274F
330
22742
100
AcDbEntity
  8
0
 48
50.0
100
AcDbBlockEnd
  0
BLOCK
  5
22768
330
2275C
100
AcDbEntity
  8
0
 48
50.0
100
AcDbBlockBegin
  2
*D26
 70
     1
 10
0.0
 20
0.0
 30
0.0
  3
*D26
  1

  0
LINE
  5
2609B
330
2275C
100
AcDbEntity
  8
寸法
 62
     0
 48
50.0
370
    -2
100
AcDbLine
 10
5348.600000000004
 20
6426.475364721395
 30
0.0
 11
4433.721909610676
 21
6426.475364721395
 31
0.0
  0
LINE
  5
2609C
330
2275C
100
AcDbEntity
  8
寸法
 62
     0
 48
50.0
370
    -2
100
AcDbLine
 10
4725.665006330074
 20
6371.47536472142
 30
0.0
 11
4433.721909610676
 21
6371.47536472142
 31
0.0
  0
LINE
  5
2609D
330
2275C
100
AcDbEntity
  8
寸法
 62
     0
 48
50.0
370
    -2
100
AcDbLine
 10
4493.721909610676
 20
6426.475364721395
 30
0.0
 11
4493.721909610676
 21
6526.475364721395
 31
0.0
  0
LINE
  5
2609E
330
2275C
100
AcDbEntity
  8
寸法
 62
     0
 48
50.0
370
    -2
100
AcDbLine
 10
4493.721909610676
 20
6371.47536472142
 30
0.0
 11
4493.721909610676
 21
6271.47536472142
 31
0.0
  0
LINE
  5
2609F
330
2275C
100
AcDbEntity
  8
寸法
 62
     0
 48
50.0
370
    -2
100
AcDbLine
 10
4493.721909610676
 20
6426.475364721395
 30
0.0
 11
4493.721909610676
 21
6371.47536472142
 31
0.0
  0
INSERT
  5
260A0
330
2275C
100
AcDbEntity
  8
寸法
 62
     0
 48
50.0
370
    -2
100
AcDbBlockReference
  2
_DOTSMALL
 10
4493.721909610676
 20
6426.475364721395
 30
0.0
 41
100.0
 42
100.0
 43
100.0
 50
270.0
  0
INSERT
  5
260A1
330
2275C
100
AcDbEntity
  8
寸法
 62
     0
 48
50.0
370
    -2
100
AcDbBlockReference
  2
_DOTSMALL
 10
4493.721909610676
 20
6371.47536472142
 30
0.0
 41
100.0
 42
100.0
 43
100.0
 50
90.0
  0
MTEXT
  5
260A2
330
2275C
100
AcDbEntity
  8
寸法
 62
     7
 48
50.0
100
AcDbMText
 10
4393.721909610674
 20
6398.975364721408
 30
0.0
 40
120.0
 41
0.0
 71
     5
 72
     1
  1
\A1;b
  7
STYLE1
 11
0.0000000000000001
 21
1.0
 31
0.0
 73
     1
 44
1.0
1001
ACAD
1000
MTEXTBEGIN
1070
    73
1070
     1
1070
    44
1040
1.0
1070
    74
1070
     0
1000
MTEXTEND
  0
POINT
  5
260A3
330
2275C
100
AcDbEntity
  8
DEFPOINTS
 62
     0
 48
50.0
100
AcDbPoint
 10
5368.600000000004
 20
6426.475364721395
 30
0.0
  0
POINT
  5
260A4
330
2275C
100
AcDbEntity
  8
DEFPOINTS
 62
     0
 48
50.0
100
AcDbPoint
 10
4745.665006330074
 20
6371.47536472142
 30
0.0
  0
POINT
  5
260A5
330
2275C
100
AcDbEntity
  8
DEFPOINTS
 62
     0
 48
50.0
100
AcDbPoint
 10
4493.721909610676
 20
6371.47536472142
 30
0.0
  0
ENDBLK
  5
22769
330
2275C
100
AcDbEntity
  8
0
 48
50.0
100
AcDbBlockEnd
  0
BLOCK
  5
239FE
330
239F3
100
AcDbEntity
  8
0
 48
50.0
100
AcDbBlockBegin
  2
*D27
 70
     1
 10
0.0
 20
0.0
 30
0.0
  3
*D27
  1

  0
LINE
  5
260A6
330
239F3
100
AcDbEntity
  8
寸法
 62
     0
 48
50.0
370
    -2
100
AcDbLine
 10
10603.85468201165
 20
7386.475364721388
 30
0.0
 11
10363.95750108246
 21
7386.475364721388
 31
0.0
  0
LINE
  5
260A7
330
239F3
100
AcDbEntity
  8
寸法
 62
     0
 48
50.0
370
    -2
100
AcDbLine
 10
10603.85468201165
 20
7186.475364721387
 30
0.0
 11
10363.95750108246
 21
7186.475364721387
 31
0.0
  0
LINE
  5
260A8
330
239F3
100
AcDbEntity
  8
寸法
 62
     0
 48
50.0
370
    -2
100
AcDbLine
 10
10423.95750108246
 20
7186.475364721387
 30
0.0
 11
10423.95750108246
 21
7386.475364721388
 31
0.0
  0
LINE
  5
260A9
330
239F3
100
AcDbEntity
  8
寸法
 62
     0
 48
50.0
370
    -2
100
AcDbLine
 10
10423.95750108246
 20
7386.475364721388
 30
0.0
 11
10423.95750108246
 21
7785.617097004854
 31
0.0
  0
INSERT
  5
260AA
330
239F3
100
AcDbEntity
  8
寸法
 62
     0
 48
50.0
370
    -2
100
AcDbBlockReference
  2
_DOTSMALL
 10
10423.95750108246
 20
7186.475364721387
 30
0.0
 41
100.0
 42
100.0
 43
100.0
 50
270.0
  0
INSERT
  5
260AB
330
239F3
100
AcDbEntity
  8
寸法
 62
     0
 48
50.0
370
    -2
100
AcDbBlockReference
  2
_DOTSMALL
 10
10423.95750108246
 20
7386.475364721388
 30
0.0
 41
100.0
 42
100.0
 43
100.0
 50
90.0
  0
MTEXT
  5
260AC
330
239F3
100
AcDbEntity
  8
寸法
 62
     7
 48
50.0
100
AcDbMText
 10
10323.94569005883
 20
7636.046230863122
 30
0.0
 40
120.0
 41
0.0
 71
     5
 72
     1
  1
\A1;200
  7
STYLE1
 11
0.0000000000000001
 21
1.0
 31
0.0
 73
     1
 44
1.0
1001
ACAD
1000
MTEXTBEGIN
1070
    73
1070
     1
1070
    44
1040
1.0
1070
    74
1070
     0
1000
MTEXTEND
  0
POINT
  5
260AD
330
239F3
100
AcDbEntity
  8
DEFPOINTS
 62
     0
 48
50.0
100
AcDbPoint
 10
10623.85468201165
 20
7386.475364721388
 30
0.0
  0
POINT
  5
260AE
330
239F3
100
AcDbEntity
  8
DEFPOINTS
 62
     0
 48
50.0
100
AcDbPoint
 10
10623.85468201165
 20
7186.475364721387
 30
0.0
  0
POINT
  5
260AF
330
239F3
100
AcDbEntity
  8
DEFPOINTS
 62
     0
 48
50.0
100
AcDbPoint
 10
10423.95750108246
 20
7186.475364721387
 30
0.0
  0
ENDBLK
  5
239FF
330
239F3
100
AcDbEntity
  8
0
 48
50.0
100
AcDbBlockEnd
  0
BLOCK
  5
23A2E
330
23A23
100
AcDbEntity
  8
0
 48
50.0
100
AcDbBlockBegin
  2
*D28
 70
     1
 10
0.0
 20
0.0
 30
0.0
  3
*D28
  1

  0
LINE
  5
26154
330
23A23
100
AcDbEntity
  8
寸法
 62
     0
 48
50.0
370
    -2
100
AcDbLine
 10
10580.09540071157
 20
6706.475364721415
 30
0.0
 11
10363.95750108246
 21
6706.475364721415
 31
0.0
  0
LINE
  5
26155
330
23A23
100
AcDbEntity
  8
寸法
 62
     0
 48
50.0
370
    -2
100
AcDbLine
 10
10678.60000000001
 20
6426.475364721408
 30
0.0
 11
10363.95750108246
 21
6426.475364721408
 31
0.0
  0
LINE
  5
26156
330
23A23
100
AcDbEntity
  8
寸法
 62
     0
 48
50.0
370
    -2
100
AcDbLine
 10
10423.95750108246
 20
6706.475364721415
 30
0.0
 11
10423.95750108246
 21
6426.475364721408
 31
0.0
  0
LINE
  5
26157
330
23A23
100
AcDbEntity
  8
寸法
 62
     0
 48
50.0
370
    -2
100
AcDbLine
 10
10423.95750108246
 20
6426.475364721408
 30
0.0
 11
10423.95750108246
 21
6027.333632437943
 31
0.0
  0
INSERT
  5
26158
330
23A23
100
AcDbEntity
  8
寸法
 62
     0
 48
50.0
370
    -2
100
AcDbBlockReference
  2
_DOTSMALL
 10
10423.95750108246
 20
6706.475364721415
 30
0.0
 41
100.0
 42
100.0
 43
100.0
 50
90.0
  0
INSERT
  5
26159
330
23A23
100
AcDbEntity
  8
寸法
 62
     0
 48
50.0
370
    -2
100
AcDbBlockReference
  2
_DOTSMALL
 10
10423.95750108246
 20
6426.475364721408
 30
0.0
 41
100.0
 42
100.0
 43
100.0
 50
270.0
  0
MTEXT
  5
2615A
330
23A23
100
AcDbEntity
  8
寸法
 62
     7
 48
50.0
100
AcDbMText
 10
10323.94569005883
 20
6176.904498579677
 30
0.0
 40
120.0
 41
0.0
 71
     5
 72
     1
  1
\A1;280
  7
STYLE1
 11
0.0000000000000001
 21
1.0
 31
0.0
 73
     1
 44
1.0
1001
ACAD
1000
MTEXTBEGIN
1070
    73
1070
     1
1070
    44
1040
1.0
1070
    74
1070
     0
1000
MTEXTEND
  0
POINT
  5
2615B
330
23A23
100
AcDbEntity
  8
DEFPOINTS
 62
     0
 48
50.0
100
AcDbPoint
 10
10600.09540071157
 20
6706.475364721415
 30
0.0
  0
POINT
  5
2615C
330
23A23
100
AcDbEntity
  8
DEFPOINTS
 62
     0
 48
50.0
100
AcDbPoint
 10
10698.60000000001
 20
6426.475364721408
 30
0.0
  0
POINT
  5
2615D
330
23A23
100
AcDbEntity
  8
DEFPOINTS
 62
     0
 48
50.0
100
AcDbPoint
 10
10423.95750108246
 20
6426.475364721408
 30
0.0
  0
ENDBLK
  5
23A2F
330
23A23
100
AcDbEntity
  8
0
 48
50.0
100
AcDbBlockEnd
  0
BLOCK
  5
23AE9
330
23ADE
100
AcDbEntity
  8
0
 48
50.0
100
AcDbBlockBegin
  2
*D29
 70
     1
 10
0.0
 20
0.0
 30
0.0
  3
*D29
  1

  0
LINE
  5
2617D
330
23ADE
100
AcDbEntity
  8
寸法
 62
     0
 48
50.0
370
    -2
100
AcDbLine
 10
11078.6
 20
7103.156470789618
 30
0.0
 11
11078.6
 21
7046.163206750785
 31
0.0
  0
LINE
  5
2617E
330
23ADE
100
AcDbEntity
  8
寸法
 62
     0
 48
50.0
370
    -2
100
AcDbLine
 10
10958.6
 20
7126.163206750786
 30
0.0
 11
10958.6
 21
7166.163206750785
 31
0.0
  0
LINE
  5
2617F
330
23ADE
100
AcDbEntity
  8
寸法
 62
     0
 48
50.0
370
    -2
100
AcDbLine
 10
10958.6
 20
7106.163206750785
 30
0.0
 11
11078.6
 21
7106.163206750785
 31
0.0
  0
LINE
  5
26180
330
23ADE
100
AcDbEntity
  8
寸法
 62
     0
 48
50.0
370
    -2
100
AcDbLine
 10
11078.6
 20
7106.163206750785
 30
0.0
 11
11484.7062992126
 21
7106.163206750785
 31
0.0
  0
INSERT
  5
26181
330
23ADE
100
AcDbEntity
  8
寸法
 62
     0
 48
50.0
370
    -2
100
AcDbBlockReference
  2
_DOTSMALL
 10
10958.6
 20
7106.163206750785
 30
0.0
 41
100.0
 42
100.0
 43
100.0
 50
180.0
  0
INSERT
  5
26182
330
23ADE
100
AcDbEntity
  8
寸法
 62
     0
 48
50.0
370
    -2
100
AcDbBlockReference
  2
_DOTSMALL
 10
11078.6
 20
7106.163206750785
 30
0.0
 41
100.0
 42
100.0
 43
100.0
  0
MTEXT
  5
26183
330
23ADE
100
AcDbEntity
  8
寸法
 62
     7
 48
50.0
100
AcDbMText
 10
11348.65905511811
 20
7206.175017774407
 30
0.0
 40
120.0
 41
0.0
 71
     5
 72
     1
  1
\A1;120
  7
STYLE1
 73
     1
 44
1.0
1001
ACAD
1000
MTEXTBEGIN
1070
    73
1070
     1
1070
    44
1040
1.0
1070
    74
1070
     0
1000
MTEXTEND
  0
POINT
  5
26184
330
23ADE
100
AcDbEntity
  8
DEFPOINTS
 62
     0
 48
50.0
100
AcDbPoint
 10
11078.6
 20
7123.156470789618
 30
0.0
  0
POINT
  5
26185
330
23ADE
100
AcDbEntity
  8
DEFPOINTS
 62
     0
 48
50.0
100
AcDbPoint
 10
10958.6
 20
7106.163206750785
 30
0.0
  0
POINT
  5
26186
330
23ADE
100
AcDbEntity
  8
DEFPOINTS
 62
     0
 48
50.0
100
AcDbPoint
 10
10958.6
 20
7106.163206750785
 30
0.0
  0
ENDBLK
  5
23AEA
330
23ADE
100
AcDbEntity
  8
0
 48
50.0
100
AcDbBlockEnd
  0
BLOCK
  5
25AED
330
25AE4
100
AcDbEntity
  8
0
 48
50.0
100
AcDbBlockBegin
  2
*D30
 70
     1
 10
0.0
 20
0.0
 30
0.0
  3
*D30
  1

  0
LINE
  5
25FDA
330
25AE4
100
AcDbEntity
  8
寸法
 62
     0
 48
50.0
370
    -2
100
AcDbLine
 10
8223.600000000008
 20
6976.475364721398
 30
0.0
 11
8223.600000000008
 21
7929.084181391647
 31
0.0
  0
LINE
  5
25FDB
330
25AE4
100
AcDbEntity
  8
寸法
 62
     0
 48
50.0
370
    -2
100
AcDbLine
 10
7273.600000000008
 20
6976.475364721398
 30
0.0
 11
7273.600000000008
 21
7929.084181391647
 31
0.0
  0
LINE
  5
25FDC
330
25AE4
100
AcDbEntity
  8
寸法
 62
     0
 48
50.0
370
    -2
100
AcDbLine
 10
8223.600000000008
 20
7869.084181391646
 30
0.0
 11
7273.600000000008
 21
7869.084181391646
 31
0.0
  0
INSERT
  5
25FDD
330
25AE4
100
AcDbEntity
  8
寸法
 62
     0
 48
50.0
370
    -2
100
AcDbBlockReference
  2
_DOTSMALL
 10
8223.600000000008
 20
7869.084181391646
 30
0.0
 41
100.0
 42
100.0
 43
100.0
  0
INSERT
  5
25FDE
330
25AE4
100
AcDbEntity
  8
寸法
 62
     0
 48
50.0
370
    -2
100
AcDbBlockReference
  2
_DOTSMALL
 10
7273.600000000008
 20
7869.084181391646
 30
0.0
 41
100.0
 42
100.0
 43
100.0
 50
180.0
  0
MTEXT
  5
25FDF
330
25AE4
100
AcDbEntity
  8
寸法
 62
     7
 48
50.0
100
AcDbMText
 10
7748.600000000007
 20
7969.084181391647
 30
0.0
 40
120.0
 41
0.0
 71
     5
 72
     1
  1
\A1;950
  7
STYLE1
 73
     1
 44
1.0
1001
ACAD
1000
MTEXTBEGIN
1070
    73
1070
     1
1070
    44
1040
1.0
1070
    74
1070
     0
1000
MTEXTEND
  0
POINT
  5
25FE0
330
25AE4
100
AcDbEntity
  8
DEFPOINTS
 62
     0
 48
50.0
100
AcDbPoint
 10
8223.600000000008
 20
6956.475364721399
 30
0.0
  0
POINT
  5
25FE1
330
25AE4
100
AcDbEntity
  8
DEFPOINTS
 62
     0
 48
50.0
100
AcDbPoint
 10
7273.600000000008
 20
6956.475364721399
 30
0.0
  0
POINT
  5
25FE2
330
25AE4
100
AcDbEntity
  8
DEFPOINTS
 62
     0
 48
50.0
100
AcDbPoint
 10
7273.600000000008
 20
7869.084181391646
 30
0.0
  0
ENDBLK
  5
25AEE
330
25AE4
100
AcDbEntity
  8
0
 48
50.0
100
AcDbBlockEnd
  0
BLOCK
  5
25B06
330
25AFC
100
AcDbEntity
  8
0
 48
50.0
100
AcDbBlockBegin
  2
*D31
 70
     1
 10
0.0
 20
0.0
 30
0.0
  3
*D31
  1

  0
LINE
  5
25FC7
330
25AFC
100
AcDbEntity
  8
寸法
 62
     0
 48
50.0
370
    -2
100
AcDbLine
 10
10123.60000000001
 20
6976.475364721398
 30
0.0
 11
10123.60000000001
 21
7929.084181391647
 31
0.0
  0
LINE
  5
25FC8
330
25AFC
100
AcDbEntity
  8
寸法
 62
     0
 48
50.0
370
    -2
100
AcDbLine
 10
9173.600000000007
 20
6976.475364721398
 30
0.0
 11
9173.600000000007
 21
7929.084181391647
 31
0.0
  0
LINE
  5
25FC9
330
25AFC
100
AcDbEntity
  8
寸法
 62
     0
 48
50.0
370
    -2
100
AcDbLine
 10
10123.60000000001
 20
7869.084181391646
 30
0.0
 11
9173.600000000007
 21
7869.084181391646
 31
0.0
  0
INSERT
  5
25FCA
330
25AFC
100
AcDbEntity
  8
寸法
 62
     0
 48
50.0
370
    -2
100
AcDbBlockReference
  2
_DOTSMALL
 10
10123.60000000001
 20
7869.084181391646
 30
0.0
 41
100.0
 42
100.0
 43
100.0
  0
INSERT
  5
25FCB
330
25AFC
100
AcDbEntity
  8
寸法
 62
     0
 48
50.0
370
    -2
100
AcDbBlockReference
  2
_DOTSMALL
 10
9173.600000000007
 20
7869.084181391646
 30
0.0
 41
100.0
 42
100.0
 43
100.0
 50
180.0
  0
MTEXT
  5
25FCC
330
25AFC
100
AcDbEntity
  8
寸法
 62
     7
 48
50.0
100
AcDbMText
 10
9648.600000000008
 20
7969.084181391647
 30
0.0
 40
120.0
 41
0.0
 71
     5
 72
     1
  1
\A1;950
  7
STYLE1
 73
     1
 44
1.0
1001
ACAD
1000
MTEXTBEGIN
1070
    73
1070
     1
1070
    44
1040
1.0
1070
    74
1070
     0
1000
MTEXTEND
  0
POINT
  5
25FCD
330
25AFC
100
AcDbEntity
  8
DEFPOINTS
 62
     0
 48
50.0
100
AcDbPoint
 10
10123.60000000001
 20
6956.475364721399
 30
0.0
  0
POINT
  5
25FCE
330
25AFC
100
AcDbEntity
  8
DEFPOINTS
 62
     0
 48
50.0
100
AcDbPoint
 10
9173.600000000007
 20
6956.475364721399
 30
0.0
  0
POINT
  5
25FCF
330
25AFC
100
AcDbEntity
  8
DEFPOINTS
 62
     0
 48
50.0
100
AcDbPoint
 10
9173.600000000007
 20
7869.084181391646
 30
0.0
  0
ENDBLK
  5
25B07
330
25AFC
100
AcDbEntity
  8
0
 48
50.0
100
AcDbBlockEnd
  0
BLOCK
  5
25B12
330
25B08
100
AcDbEntity
  8
0
 48
50.0
100
AcDbBlockBegin
  2
*D32
 70
     1
 10
0.0
 20
0.0
 30
0.0
  3
*D32
  1

  0
LINE
  5
25FBE
330
25B08
100
AcDbEntity
  8
寸法
 62
     0
 48
50.0
370
    -2
100
AcDbLine
 10
11078.6
 20
7406.475364721399
 30
0.0
 11
11078.6
 21
7929.084181391647
 31
0.0
  0
LINE
  5
25FBF
330
25B08
100
AcDbEntity
  8
寸法
 62
     0
 48
50.0
370
    -2
100
AcDbLine
 10
10123.60000000001
 20
6976.475364721398
 30
0.0
 11
10123.60000000001
 21
7929.084181391647
 31
0.0
  0
LINE
  5
25FC0
330
25B08
100
AcDbEntity
  8
寸法
 62
     0
 48
50.0
370
    -2
100
AcDbLine
 10
11078.6
 20
7869.084181391646
 30
0.0
 11
10123.60000000001
 21
7869.084181391646
 31
0.0
  0
INSERT
  5
25FC1
330
25B08
100
AcDbEntity
  8
寸法
 62
     0
 48
50.0
370
    -2
100
AcDbBlockReference
  2
_DOTSMALL
 10
11078.6
 20
7869.084181391646
 30
0.0
 41
100.0
 42
100.0
 43
100.0
  0
INSERT
  5
25FC2
330
25B08
100
AcDbEntity
  8
寸法
 62
     0
 48
50.0
370
    -2
100
AcDbBlockReference
  2
_DOTSMALL
 10
10123.60000000001
 20
7869.084181391646
 30
0.0
 41
100.0
 42
100.0
 43
100.0
 50
180.0
  0
MTEXT
  5
25FC3
330
25B08
100
AcDbEntity
  8
寸法
 62
     7
 48
50.0
100
AcDbMText
 10
10601.1
 20
7969.084181391647
 30
0.0
 40
120.0
 41
0.0
 71
     5
 72
     1
  1
\A1;955
  7
STYLE1
 73
     1
 44
1.0
1001
ACAD
1000
MTEXTBEGIN
1070
    73
1070
     1
1070
    44
1040
1.0
1070
    74
1070
     0
1000
MTEXTEND
  0
POINT
  5
25FC4
330
25B08
100
AcDbEntity
  8
DEFPOINTS
 62
     0
 48
50.0
100
AcDbPoint
 10
11078.6
 20
7386.475364721398
 30
0.0
  0
POINT
  5
25FC5
330
25B08
100
AcDbEntity
  8
DEFPOINTS
 62
     0
 48
50.0
100
AcDbPoint
 10
10123.60000000001
 20
6956.475364721399
 30
0.0
  0
POINT
  5
25FC6
330
25B08
100
AcDbEntity
  8
DEFPOINTS
 62
     0
 48
50.0
100
AcDbPoint
 10
10123.60000000001
 20
7869.084181391646
 30
0.0
  0
ENDBLK
  5
25B13
330
25B08
100
AcDbEntity
  8
0
 48
50.0
100
AcDbBlockEnd
  0
BLOCK
  5
25B2C
330
25B21
100
AcDbEntity
  8
0
 48
50.0
100
AcDbBlockBegin
  2
*D33
 70
     1
 10
0.0
 20
0.0
 30
0.0
  3
*D33
  1

  0
LINE
  5
25FB4
330
25B21
100
AcDbEntity
  8
寸法
 62
     0
 48
50.0
370
    -2
100
AcDbLine
 10
11078.6
 20
7406.475364721399
 30
0.0
 11
11078.6
 21
8172.741822815309
 31
0.0
  0
LINE
  5
25FB5
330
25B21
100
AcDbEntity
  8
寸法
 62
     0
 48
50.0
370
    -2
100
AcDbLine
 10
10955.6
 20
7333.475364721398
 30
0.0
 11
10955.6
 21
8172.741822815309
 31
0.0
  0
LINE
  5
25FB6
330
25B21
100
AcDbEntity
  8
寸法
 62
     0
 48
50.0
370
    -2
100
AcDbLine
 10
10955.6
 20
8112.741822815308
 30
0.0
 11
11078.6
 21
8112.741822815308
 31
0.0
  0
LINE
  5
25FB7
330
25B21
100
AcDbEntity
  8
寸法
 62
     0
 48
50.0
370
    -2
100
AcDbLine
 10
11078.6
 20
8112.741822815308
 30
0.0
 11
11490.19188309204
 21
8112.741822815308
 31
0.0
  0
INSERT
  5
25FB8
330
25B21
100
AcDbEntity
  8
寸法
 62
     0
 48
50.0
370
    -2
100
AcDbBlockReference
  2
_DOTSMALL
 10
10955.6
 20
8112.741822815308
 30
0.0
 41
100.0
 42
100.0
 43
100.0
 50
180.0
  0
INSERT
  5
25FB9
330
25B21
100
AcDbEntity
  8
寸法
 62
     0
 48
50.0
370
    -2
100
AcDbBlockReference
  2
_DOTSMALL
 10
11078.6
 20
8112.741822815308
 30
0.0
 41
100.0
 42
100.0
 43
100.0
  0
MTEXT
  5
25FBA
330
25B21
100
AcDbEntity
  8
寸法
 62
     7
 48
50.0
100
AcDbMText
 10
11351.7066017178
 20
8212.75363383893
 30
0.0
 40
120.0
 41
0.0
 71
     5
 72
     1
  1
\A1;123
  7
STYLE1
 73
     1
 44
1.0
1001
ACAD
1000
MTEXTBEGIN
1070
    73
1070
     1
1070
    44
1040
1.0
1070
    74
1070
     0
1000
MTEXTEND
  0
POINT
  5
25FBB
330
25B21
100
AcDbEntity
  8
DEFPOINTS
 62
     0
 48
50.0
100
AcDbPoint
 10
11078.6
 20
7386.475364721398
 30
0.0
  0
POINT
  5
25FBC
330
25B21
100
AcDbEntity
  8
DEFPOINTS
 62
     0
 48
50.0
100
AcDbPoint
 10
10955.6
 20
7313.475364721398
 30
0.0
  0
POINT
  5
25FBD
330
25B21
100
AcDbEntity
  8
DEFPOINTS
 62
     0
 48
50.0
100
AcDbPoint
 10
10955.6
 20
8112.741822815308
 30
0.0
  0
ENDBLK
  5
25B2D
330
25B21
100
AcDbEntity
  8
0
 48
50.0
100
AcDbBlockEnd
  0
BLOCK
  5
25B45
330
25B3B
100
AcDbEntity
  8
0
 48
50.0
100
AcDbBlockBegin
  2
*D34
 70
     1
 10
0.0
 20
0.0
 30
0.0
  3
*D34
  1

  0
LINE
  5
2602E
330
25B3B
100
AcDbEntity
  8
寸法
 62
     0
 48
50.0
370
    -2
100
AcDbLine
 10
9173.600000000007
 20
6976.475364721398
 30
0.0
 11
9173.600000000007
 21
7929.084181391647
 31
0.0
  0
LINE
  5
2602F
330
25B3B
100
AcDbEntity
  8
寸法
 62
     0
 48
50.0
370
    -2
100
AcDbLine
 10
8223.600000000008
 20
6976.475364721398
 30
0.0
 11
8223.600000000008
 21
7929.084181391647
 31
0.0
  0
LINE
  5
26030
330
25B3B
100
AcDbEntity
  8
寸法
 62
     0
 48
50.0
370
    -2
100
AcDbLine
 10
9173.600000000007
 20
7869.084181391646
 30
0.0
 11
8223.600000000008
 21
7869.084181391646
 31
0.0
  0
INSERT
  5
26031
330
25B3B
100
AcDbEntity
  8
寸法
 62
     0
 48
50.0
370
    -2
100
AcDbBlockReference
  2
_DOTSMALL
 10
9173.600000000007
 20
7869.084181391646
 30
0.0
 41
100.0
 42
100.0
 43
100.0
  0
INSERT
  5
26032
330
25B3B
100
AcDbEntity
  8
寸法
 62
     0
 48
50.0
370
    -2
100
AcDbBlockReference
  2
_DOTSMALL
 10
8223.600000000008
 20
7869.084181391646
 30
0.0
 41
100.0
 42
100.0
 43
100.0
 50
180.0
  0
MTEXT
  5
26033
330
25B3B
100
AcDbEntity
  8
寸法
 62
     7
 48
50.0
100
AcDbMText
 10
8698.600000000007
 20
7969.084181391647
 30
0.0
 40
120.0
 41
0.0
 71
     5
 72
     1
  1
\A1;950
  7
STYLE1
 73
     1
 44
1.0
1001
ACAD
1000
MTEXTBEGIN
1070
    73
1070
     1
1070
    44
1040
1.0
1070
    74
1070
     0
1000
MTEXTEND
  0
POINT
  5
26034
330
25B3B
100
AcDbEntity
  8
DEFPOINTS
 62
     0
 48
50.0
100
AcDbPoint
 10
9173.600000000007
 20
6956.475364721399
 30
0.0
  0
POINT
  5
26035
330
25B3B
100
AcDbEntity
  8
DEFPOINTS
 62
     0
 48
50.0
100
AcDbPoint
 10
8223.600000000008
 20
6956.475364721399
 30
0.0
  0
POINT
  5
26036
330
25B3B
100
AcDbEntity
  8
DEFPOINTS
 62
     0
 48
50.0
100
AcDbPoint
 10
8223.600000000008
 20
7869.084181391646
 30
0.0
  0
ENDBLK
  5
25B46
330
25B3B
100
AcDbEntity
  8
0
 48
50.0
100
AcDbBlockEnd
  0
BLOCK
  5
25B51
330
25B47
100
AcDbEntity
  8
0
 48
50.0
100
AcDbBlockBegin
  2
*D35
 70
     1
 10
0.0
 20
0.0
 30
0.0
  3
*D35
  1

  0
LINE
  5
26025
330
25B47
100
AcDbEntity
  8
寸法
 62
     0
 48
50.0
370
    -2
100
AcDbLine
 10
5368.6
 20
7406.475364721399
 30
0.0
 11
5368.6
 21
8404.695686780316
 31
0.0
  0
LINE
  5
26026
330
25B47
100
AcDbEntity
  8
寸法
 62
     0
 48
50.0
370
    -2
100
AcDbLine
 10
11078.6
 20
7406.475364721399
 30
0.0
 11
11078.6
 21
8404.695686780316
 31
0.0
  0
LINE
  5
26027
330
25B47
100
AcDbEntity
  8
寸法
 62
     0
 48
50.0
370
    -2
100
AcDbLine
 10
5368.6
 20
8344.695686780317
 30
0.0
 11
11078.6
 21
8344.695686780317
 31
0.0
  0
INSERT
  5
26028
330
25B47
100
AcDbEntity
  8
寸法
 62
     0
 48
50.0
370
    -2
100
AcDbBlockReference
  2
_DOTSMALL
 10
5368.6
 20
8344.695686780317
 30
0.0
 41
100.0
 42
100.0
 43
100.0
 50
180.0
  0
INSERT
  5
26029
330
25B47
100
AcDbEntity
  8
寸法
 62
     0
 48
50.0
370
    -2
100
AcDbBlockReference
  2
_DOTSMALL
 10
11078.6
 20
8344.695686780317
 30
0.0
 41
100.0
 42
100.0
 43
100.0
  0
MTEXT
  5
2602A
330
25B47
100
AcDbEntity
  8
寸法
 62
     7
 48
50.0
100
AcDbMText
 10
8223.600000000001
 20
8444.695686780317
 30
0.0
 40
120.0
 41
0.0
 71
     5
 72
     1
  1
\A1;5710
  7
STYLE1
 73
     1
 44
1.0
1001
ACAD
1000
MTEXTBEGIN
1070
    73
1070
     1
1070
    44
1040
1.0
1070
    74
1070
     0
1000
MTEXTEND
  0
POINT
  5
2602B
330
25B47
100
AcDbEntity
  8
DEFPOINTS
 62
     0
 48
50.0
100
AcDbPoint
 10
5368.6
 20
7386.475364721398
 30
0.0
  0
POINT
  5
2602C
330
25B47
100
AcDbEntity
  8
DEFPOINTS
 62
     0
 48
50.0
100
AcDbPoint
 10
11078.6
 20
7386.475364721398
 30
0.0
  0
POINT
  5
2602D
330
25B47
100
AcDbEntity
  8
DEFPOINTS
 62
     0
 48
50.0
100
AcDbPoint
 10
11078.6
 20
8344.695686780317
 30
0.0
  0
ENDBLK
  5
25B52
330
25B47
100
AcDbEntity
  8
0
 48
50.0
100
AcDbBlockEnd
  0
BLOCK
  5
25B5D
330
25B53
100
AcDbEntity
  8
0
 48
50.0
100
AcDbBlockBegin
  2
*D36
 70
     1
 10
0.0
 20
0.0
 30
0.0
  3
*D36
  1

  0
LINE
  5
2601C
330
25B53
100
AcDbEntity
  8
寸法
 62
     0
 48
50.0
370
    -2
100
AcDbLine
 10
10955.6
 20
7333.475364721398
 30
0.0
 11
10955.6
 21
8172.741822815309
 31
0.0
  0
LINE
  5
2601D
330
25B53
100
AcDbEntity
  8
寸法
 62
     0
 48
50.0
370
    -2
100
AcDbLine
 10
8105.6
 20
7333.475364721398
 30
0.0
 11
8105.6
 21
8172.741822815309
 31
0.0
  0
LINE
  5
2601E
330
25B53
100
AcDbEntity
  8
寸法
 62
     0
 48
50.0
370
    -2
100
AcDbLine
 10
10955.6
 20
8112.741822815308
 30
0.0
 11
8105.6
 21
8112.741822815308
 31
0.0
  0
INSERT
  5
2601F
330
25B53
100
AcDbEntity
  8
寸法
 62
     0
 48
50.0
370
    -2
100
AcDbBlockReference
  2
_DOTSMALL
 10
10955.6
 20
8112.741822815308
 30
0.0
 41
100.0
 42
100.0
 43
100.0
  0
INSERT
  5
26020
330
25B53
100
AcDbEntity
  8
寸法
 62
     0
 48
50.0
370
    -2
100
AcDbBlockReference
  2
_DOTSMALL
 10
8105.6
 20
8112.741822815308
 30
0.0
 41
100.0
 42
100.0
 43
100.0
 50
180.0
  0
MTEXT
  5
26021
330
25B53
100
AcDbEntity
  8
寸法
 62
     7
 48
50.0
100
AcDbMText
 10
9530.600000000001
 20
8212.75363383893
 30
0.0
 40
120.0
 41
0.0
 71
     5
 72
     1
  1
\A1;2850
  7
STYLE1
 73
     1
 44
1.0
1001
ACAD
1000
MTEXTBEGIN
1070
    73
1070
     1
1070
    44
1040
1.0
1070
    74
1070
     0
1000
MTEXTEND
  0
POINT
  5
26022
330
25B53
100
AcDbEntity
  8
DEFPOINTS
 62
     0
 48
50.0
100
AcDbPoint
 10
10955.6
 20
7313.475364721398
 30
0.0
  0
POINT
  5
26023
330
25B53
100
AcDbEntity
  8
DEFPOINTS
 62
     0
 48
50.0
100
AcDbPoint
 10
8105.6
 20
7313.475364721398
 30
0.0
  0
POINT
  5
26024
330
25B53
100
AcDbEntity
  8
DEFPOINTS
 62
     0
 48
50.0
100
AcDbPoint
 10
8105.6
 20
8112.741822815308
 30
0.0
  0
ENDBLK
  5
25B5E
330
25B53
100
AcDbEntity
  8
0
 48
50.0
100
AcDbBlockEnd
  0
BLOCK
  5
25B69
330
25B5F
100
AcDbEntity
  8
0
 48
50.0
100
AcDbBlockBegin
  2
*D37
 70
     1
 10
0.0
 20
0.0
 30
0.0
  3
*D37
  1

  0
LINE
  5
260DE
330
25B5F
100
AcDbEntity
  8
寸法
 62
     0
 48
50.0
370
    -2
100
AcDbLine
 10
5421.600000000001
 20
7263.475364721398
 30
0.0
 11
4685.665006330073
 21
7263.475364721398
 31
0.0
  0
LINE
  5
260DF
330
25B5F
100
AcDbEntity
  8
寸法
 62
     0
 48
50.0
370
    -2
100
AcDbLine
 10
5421.600000000008
 20
6624.475364721402
 30
0.0
 11
4685.665006330073
 21
6624.475364721402
 31
0.0
  0
LINE
  5
260E0
330
25B5F
100
AcDbEntity
  8
寸法
 62
     0
 48
50.0
370
    -2
100
AcDbLine
 10
4745.665006330074
 20
7263.475364721398
 30
0.0
 11
4745.665006330074
 21
6624.475364721402
 31
0.0
  0
INSERT
  5
260E1
330
25B5F
100
AcDbEntity
  8
寸法
 62
     0
 48
50.0
370
    -2
100
AcDbBlockReference
  2
_DOTSMALL
 10
4745.665006330074
 20
7263.475364721398
 30
0.0
 41
100.0
 42
100.0
 43
100.0
 50
90.0
  0
INSERT
  5
260E2
330
25B5F
100
AcDbEntity
  8
寸法
 62
     0
 48
50.0
370
    -2
100
AcDbBlockReference
  2
_DOTSMALL
 10
4745.665006330074
 20
6624.475364721402
 30
0.0
 41
100.0
 42
100.0
 43
100.0
 50
270.0
  0
MTEXT
  5
260E3
330
25B5F
100
AcDbEntity
  8
寸法
 62
     7
 48
50.0
100
AcDbMText
 10
4645.665006330071
 20
6943.975364721399
 30
0.0
 40
120.0
 41
0.0
 71
     5
 72
     1
  1
\A1;639
  7
STYLE1
 11
0.0000000000000001
 21
1.0
 31
0.0
 73
     1
 44
1.0
1001
ACAD
1000
MTEXTBEGIN
1070
    73
1070
     1
1070
    44
1040
1.0
1070
    74
1070
     0
1000
MTEXTEND
  0
POINT
  5
260E4
330
25B5F
100
AcDbEntity
  8
DEFPOINTS
 62
     0
 48
50.0
100
AcDbPoint
 10
5441.600000000001
 20
7263.475364721398
 30
0.0
  0
POINT
  5
260E5
330
25B5F
100
AcDbEntity
  8
DEFPOINTS
 62
     0
 48
50.0
100
AcDbPoint
 10
5441.600000000008
 20
6624.475364721402
 30
0.0
  0
POINT
  5
260E6
330
25B5F
100
AcDbEntity
  8
DEFPOINTS
 62
     0
 48
50.0
100
AcDbPoint
 10
4745.665006330074
 20
6624.475364721402
 30
0.0
  0
ENDBLK
  5
25B6A
330
25B5F
100
AcDbEntity
  8
0
 48
50.0
100
AcDbBlockEnd
  0
BLOCK
  5
25B75
330
25B6B
100
AcDbEntity
  8
0
 48
50.0
100
AcDbBlockBegin
  2
*D38
 70
     1
 10
0.0
 20
0.0
 30
0.0
  3
*D38
  1

  0
LINE
  5
26041
330
25B6B
100
AcDbEntity
  8
寸法
 62
     0
 48
50.0
370
    -2
100
AcDbLine
 10
5348.600000000001
 20
7386.475364721398
 30
0.0
 11
4433.721909610675
 21
7386.475364721398
 31
0.0
  0
LINE
  5
26042
330
25B6B
100
AcDbEntity
  8
寸法
 62
     0
 48
50.0
370
    -2
100
AcDbLine
 10
5348.600000000001
 20
6426.475364721397
 30
0.0
 11
4433.721909610675
 21
6426.475364721397
 31
0.0
  0
LINE
  5
26043
330
25B6B
100
AcDbEntity
  8
寸法
 62
     0
 48
50.0
370
    -2
100
AcDbLine
 10
4493.721909610674
 20
7386.475364721398
 30
0.0
 11
4493.721909610674
 21
6426.475364721397
 31
0.0
  0
INSERT
  5
26044
330
25B6B
100
AcDbEntity
  8
寸法
 62
     0
 48
50.0
370
    -2
100
AcDbBlockReference
  2
_DOTSMALL
 10
4493.721909610674
 20
7386.475364721398
 30
0.0
 41
100.0
 42
100.0
 43
100.0
 50
90.0
  0
INSERT
  5
26045
330
25B6B
100
AcDbEntity
  8
寸法
 62
     0
 48
50.0
370
    -2
100
AcDbBlockReference
  2
_DOTSMALL
 10
4493.721909610674
 20
6426.475364721397
 30
0.0
 41
100.0
 42
100.0
 43
100.0
 50
270.0
  0
MTEXT
  5
26046
330
25B6B
100
AcDbEntity
  8
寸法
 62
     7
 48
50.0
100
AcDbMText
 10
4393.721909610673
 20
6943.975364721399
 30
0.0
 40
120.0
 41
0.0
 71
     5
 72
     1
  1
\A1;960
  7
STYLE1
 11
0.0000000000000001
 21
1.0
 31
0.0
 73
     1
 44
1.0
1001
ACAD
1000
MTEXTBEGIN
1070
    73
1070
     1
1070
    44
1040
1.0
1070
    74
1070
     0
1000
MTEXTEND
  0
POINT
  5
26047
330
25B6B
100
AcDbEntity
  8
DEFPOINTS
 62
     0
 48
50.0
100
AcDbPoint
 10
5368.6
 20
7386.475364721398
 30
0.0
  0
POINT
  5
26048
330
25B6B
100
AcDbEntity
  8
DEFPOINTS
 62
     0
 48
50.0
100
AcDbPoint
 10
5368.6
 20
6426.475364721397
 30
0.0
  0
POINT
  5
26049
330
25B6B
100
AcDbEntity
  8
DEFPOINTS
 62
     0
 48
50.0
100
AcDbPoint
 10
4493.721909610674
 20
6426.475364721397
 30
0.0
  0
ENDBLK
  5
25B76
330
25B6B
100
AcDbEntity
  8
0
 48
50.0
100
AcDbBlockEnd
  0
BLOCK
  5
25B82
330
25B77
100
AcDbEntity
  8
0
 48
50.0
100
AcDbBlockBegin
  2
*D39
 70
     1
 10
0.0
 20
0.0
 30
0.0
  3
*D39
  1

  0
LINE
  5
2605C
330
25B77
100
AcDbEntity
  8
寸法
 62
     0
 48
50.0
370
    -2
100
AcDbLine
 10
5922.765475140901
 20
6426.475364721409
 30
0.0
 11
5791.285990614301
 21
6426.475364721409
 31
0.0
  0
LINE
  5
2605D
330
25B77
100
AcDbEntity
  8
寸法
 62
     0
 48
50.0
370
    -2
100
AcDbLine
 10
6253.600000000008
 20
6906.475364721399
 30
0.0
 11
5791.285990614301
 21
6906.475364721399
 31
0.0
  0
LINE
  5
2605E
330
25B77
100
AcDbEntity
  8
寸法
 62
     0
 48
50.0
370
    -2
100
AcDbLine
 10
5851.285990614302
 20
6906.475364721399
 30
0.0
 11
5851.285990614302
 21
6426.475364721409
 31
0.0
  0
LINE
  5
2605F
330
25B77
100
AcDbEntity
  8
寸法
 62
     0
 48
50.0
370
    -2
100
AcDbLine
 10
5851.285990614302
 20
6426.475364721409
 30
0.0
 11
5851.285990614301
 21
5979.86906550881
 31
0.0
  0
INSERT
  5
26060
330
25B77
100
AcDbEntity
  8
寸法
 62
     0
 48
50.0
370
    -2
100
AcDbBlockReference
  2
_DOTSMALL
 10
5851.285990614302
 20
6906.475364721399
 30
0.0
 41
100.0
 42
100.0
 43
100.0
 50
90.0
  0
INSERT
  5
26061
330
25B77
100
AcDbEntity
  8
寸法
 62
     0
 48
50.0
370
    -2
100
AcDbBlockReference
  2
_DOTSMALL
 10
5851.285990614302
 20
6426.475364721409
 30
0.0
 41
100.0
 42
100.0
 43
100.0
 50
270.0
  0
MTEXT
  5
26062
330
25B77
100
AcDbEntity
  8
寸法
 62
     7
 48
50.0
100
AcDbMText
 10
5751.285990614301
 20
6133.916309603299
 30
0.0
 40
120.0
 41
0.0
 71
     5
 72
     1
  1
\A1;480
  7
STYLE1
 11
0.0000000000000001
 21
1.0
 31
0.0
 73
     1
 44
1.0
1001
ACAD
1000
MTEXTBEGIN
1070
    73
1070
     1
1070
    44
1040
1.0
1070
    74
1070
     0
1000
MTEXTEND
  0
POINT
  5
26063
330
25B77
100
AcDbEntity
  8
DEFPOINTS
 62
     0
 48
50.0
100
AcDbPoint
 10
5942.765475140901
 20
6426.475364721409
 30
0.0
  0
POINT
  5
26064
330
25B77
100
AcDbEntity
  8
DEFPOINTS
 62
     0
 48
50.0
100
AcDbPoint
 10
6273.600000000008
 20
6906.475364721399
 30
0.0
  0
POINT
  5
26065
330
25B77
100
AcDbEntity
  8
DEFPOINTS
 62
     0
 48
50.0
100
AcDbPoint
 10
5851.285990614302
 20
6906.475364721399
 30
0.0
  0
ENDBLK
  5
25B83
330
25B77
100
AcDbEntity
  8
0
 48
50.0
100
AcDbBlockEnd
  0
BLOCK
  5
25B8E
330
25B84
100
AcDbEntity
  8
0
 48
50.0
100
AcDbBlockBegin
  2
*D40
 70
     1
 10
0.0
 20
0.0
 30
0.0
  3
*D40
  1

  0
LINE
  5
26053
330
25B84
100
AcDbEntity
  8
寸法
 62
     0
 48
50.0
370
    -2
100
AcDbLine
 10
5348.600000000004
 20
6426.475364721395
 30
0.0
 11
5195.512673767883
 21
6426.475364721395
 31
0.0
  0
LINE
  5
26054
330
25B84
100
AcDbEntity
  8
寸法
 62
     0
 48
50.0
370
    -2
100
AcDbLine
 10
5704.325326928809
 20
5706.475364721395
 30
0.0
 11
5195.512673767881
 21
5706.475364721395
 31
0.0
  0
LINE
  5
26055
330
25B84
100
AcDbEntity
  8
寸法
 62
     0
 48
50.0
370
    -2
100
AcDbLine
 10
5255.512673767881
 20
6426.475364721395
 30
0.0
 11
5255.512673767881
 21
5706.475364721395
 31
0.0
  0
INSERT
  5
26056
330
25B84
100
AcDbEntity
  8
寸法
 62
     0
 48
50.0
370
    -2
100
AcDbBlockReference
  2
_DOTSMALL
 10
5255.512673767881
 20
6426.475364721395
 30
0.0
 41
100.0
 42
100.0
 43
100.0
 50
90.0
  0
INSERT
  5
26057
330
25B84
100
AcDbEntity
  8
寸法
 62
     0
 48
50.0
370
    -2
100
AcDbBlockReference
  2
_DOTSMALL
 10
5255.512673767881
 20
5706.475364721395
 30
0.0
 41
100.0
 42
100.0
 43
100.0
 50
270.0
  0
MTEXT
  5
26058
330
25B84
100
AcDbEntity
  8
寸法
 62
     7
 48
50.0
100
AcDbMText
 10
5155.500862744259
 20
6066.475364721395
 30
0.0
 40
120.0
 41
0.0
 71
     5
 72
     1
  1
\A1;扉の出720
  7
STYLE1
 11
0.0000000000000001
 21
1.0
 31
0.0
 73
     1
 44
1.0
1001
ACAD
1000
MTEXTBEGIN
1070
    73
1070
     1
1070
    44
1040
1.0
1070
    74
1070
     0
1000
MTEXTEND
  0
POINT
  5
26059
330
25B84
100
AcDbEntity
  8
DEFPOINTS
 62
     0
 48
50.0
100
AcDbPoint
 10
5368.600000000004
 20
6426.475364721395
 30
0.0
  0
POINT
  5
2605A
330
25B84
100
AcDbEntity
  8
DEFPOINTS
 62
     0
 48
50.0
100
AcDbPoint
 10
5724.325326928809
 20
5706.475364721395
 30
0.0
  0
POINT
  5
2605B
330
25B84
100
AcDbEntity
  8
DEFPOINTS
 62
     0
 48
50.0
100
AcDbPoint
 10
5255.512673767881
 20
5706.475364721395
 30
0.0
  0
ENDBLK
  5
25B8F
330
25B84
100
AcDbEntity
  8
0
 48
50.0
100
AcDbBlockEnd
  0
BLOCK
  5
25BA7
330
25B9C
100
AcDbEntity
  8
0
 48
50.0
100
AcDbBlockBegin
  2
*D41
 70
     1
 10
0.0
 20
0.0
 30
0.0
  3
*D41
  1

  0
LINE
  5
260D4
330
25B9C
100
AcDbEntity
  8
寸法
 62
     0
 48
50.0
370
    -2
100
AcDbLine
 10
5421.600000000008
 20
6624.475364721402
 30
0.0
 11
4685.665006330073
 21
6624.475364721402
 31
0.0
  0
LINE
  5
260D5
330
25B9C
100
AcDbEntity
  8
寸法
 62
     0
 48
50.0
370
    -2
100
AcDbLine
 10
5348.600000000001
 20
6426.475364721397
 30
0.0
 11
4685.665006330073
 21
6426.475364721397
 31
0.0
  0
LINE
  5
260D6
330
25B9C
100
AcDbEntity
  8
寸法
 62
     0
 48
50.0
370
    -2
100
AcDbLine
 10
4745.665006330074
 20
6624.475364721402
 30
0.0
 11
4745.665006330074
 21
6426.475364721397
 31
0.0
  0
LINE
  5
260D7
330
25B9C
100
AcDbEntity
  8
寸法
 62
     0
 48
50.0
370
    -2
100
AcDbLine
 10
4745.665006330074
 20
6426.475364721397
 30
0.0
 11
4745.665006330072
 21
5954.734756049148
 31
0.0
  0
INSERT
  5
260D8
330
25B9C
100
AcDbEntity
  8
寸法
 62
     0
 48
50.0
370
    -2
100
AcDbBlockReference
  2
_DOTSMALL
 10
4745.665006330074
 20
6624.475364721402
 30
0.0
 41
100.0
 42
100.0
 43
100.0
 50
90.0
  0
INSERT
  5
260D9
330
25B9C
100
AcDbEntity
  8
寸法
 62
     0
 48
50.0
370
    -2
100
AcDbBlockReference
  2
_DOTSMALL
 10
4745.665006330074
 20
6426.475364721397
 30
0.0
 41
100.0
 42
100.0
 43
100.0
 50
270.0
  0
MTEXT
  5
260DA
330
25B9C
100
AcDbEntity
  8
寸法
 62
     7
 48
50.0
100
AcDbMText
 10
4645.665006330071
 20
6090.944415878806
 30
0.0
 40
120.0
 41
0.0
 71
     5
 72
     1
  1
\A1;198
  7
STYLE1
 11
0.0000000000000001
 21
1.0
 31
0.0
 73
     1
 44
1.0
1001
ACAD
1000
MTEXTBEGIN
1070
    73
1070
     1
1070
    44
1040
1.0
1070
    74
1070
     0
1000
MTEXTEND
  0
POINT
  5
260DB
330
25B9C
100
AcDbEntity
  8
DEFPOINTS
 62
     0
 48
50.0
100
AcDbPoint
 10
5441.600000000008
 20
6624.475364721402
 30
0.0
  0
POINT
  5
260DC
330
25B9C
100
AcDbEntity
  8
DEFPOINTS
 62
     0
 48
50.0
100
AcDbPoint
 10
5368.6
 20
6426.475364721397
 30
0.0
  0
POINT
  5
260DD
330
25B9C
100
AcDbEntity
  8
DEFPOINTS
 62
     0
 48
50.0
100
AcDbPoint
 10
4745.665006330074
 20
6426.475364721397
 30
0.0
  0
ENDBLK
  5
25BA8
330
25B9C
100
AcDbEntity
  8
0
 48
50.0
100
AcDbBlockEnd
  0
BLOCK
  5
25BCB
330
25BC0
100
AcDbEntity
  8
0
 48
50.0
100
AcDbBlockBegin
  2
*D42
 70
     1
 10
0.0
 20
0.0
 30
0.0
  3
*D42
  1

  0
LINE
  5
26012
330
25BC0
100
AcDbEntity
  8
寸法
 62
     0
 48
50.0
370
    -2
100
AcDbLine
 10
5348.600000000001
 20
7386.475364721398
 30
0.0
 11
4685.665006330071
 21
7386.475364721398
 31
0.0
  0
LINE
  5
26013
330
25BC0
100
AcDbEntity
  8
寸法
 62
     0
 48
50.0
370
    -2
100
AcDbLine
 10
5421.600000000001
 20
7263.475364721398
 30
0.0
 11
4685.665006330071
 21
7263.475364721398
 31
0.0
  0
LINE
  5
26014
330
25BC0
100
AcDbEntity
  8
寸法
 62
     0
 48
50.0
370
    -2
100
AcDbLine
 10
4745.665006330072
 20
7263.475364721398
 30
0.0
 11
4745.665006330072
 21
7386.475364721398
 31
0.0
  0
LINE
  5
26015
330
25BC0
100
AcDbEntity
  8
寸法
 62
     0
 48
50.0
370
    -2
100
AcDbLine
 10
4745.665006330072
 20
7386.475364721398
 30
0.0
 11
4745.665006330072
 21
7798.067247813436
 31
0.0
  0
INSERT
  5
26016
330
25BC0
100
AcDbEntity
  8
寸法
 62
     0
 48
50.0
370
    -2
100
AcDbBlockReference
  2
_DOTSMALL
 10
4745.665006330072
 20
7263.475364721398
 30
0.0
 41
100.0
 42
100.0
 43
100.0
 50
270.0
  0
INSERT
  5
26017
330
25BC0
100
AcDbEntity
  8
寸法
 62
     0
 48
50.0
370
    -2
100
AcDbBlockReference
  2
_DOTSMALL
 10
4745.665006330072
 20
7386.475364721398
 30
0.0
 41
100.0
 42
100.0
 43
100.0
 50
90.0
  0
MTEXT
  5
26018
330
25BC0
100
AcDbEntity
  8
寸法
 62
     7
 48
50.0
100
AcDbMText
 10
4645.65319530645
 20
7659.581966439198
 30
0.0
 40
120.0
 41
0.0
 71
     5
 72
     1
  1
\A1;123
  7
STYLE1
 11
0.0000000000000001
 21
1.0
 31
0.0
 73
     1
 44
1.0
1001
ACAD
1000
MTEXTBEGIN
1070
    73
1070
     1
1070
    44
1040
1.0
1070
    74
1070
     0
1000
MTEXTEND
  0
POINT
  5
26019
330
25BC0
100
AcDbEntity
  8
DEFPOINTS
 62
     0
 48
50.0
100
AcDbPoint
 10
5368.6
 20
7386.475364721398
 30
0.0
  0
POINT
  5
2601A
330
25BC0
100
AcDbEntity
  8
DEFPOINTS
 62
     0
 48
50.0
100
AcDbPoint
 10
5441.600000000001
 20
7263.475364721398
 30
0.0
  0
POINT
  5
2601B
330
25BC0
100
AcDbEntity
  8
DEFPOINTS
 62
     0
 48
50.0
100
AcDbPoint
 10
4745.665006330072
 20
7263.475364721398
 30
0.0
  0
ENDBLK
  5
25BCC
330
25BC0
100
AcDbEntity
  8
0
 48
50.0
100
AcDbBlockEnd
  0
BLOCK
  5
25BE5
330
25BDA
100
AcDbEntity
  8
0
 48
50.0
100
AcDbBlockBegin
  2
*D43
 70
     1
 10
0.0
 20
0.0
 30
0.0
  3
*D43
  1

  0
LINE
  5
26008
330
25BDA
100
AcDbEntity
  8
寸法
 62
     0
 48
50.0
370
    -2
100
AcDbLine
 10
5491.6
 20
7333.475364721398
 30
0.0
 11
5491.6
 21
8172.741822815309
 31
0.0
  0
LINE
  5
26009
330
25BDA
100
AcDbEntity
  8
寸法
 62
     0
 48
50.0
370
    -2
100
AcDbLine
 10
5368.6
 20
7406.475364721399
 30
0.0
 11
5368.6
 21
8172.741822815309
 31
0.0
  0
LINE
  5
2600A
330
25BDA
100
AcDbEntity
  8
寸法
 62
     0
 48
50.0
370
    -2
100
AcDbLine
 10
5491.6
 20
8112.741822815308
 30
0.0
 11
5368.6
 21
8112.741822815308
 31
0.0
  0
LINE
  5
2600B
330
25BDA
100
AcDbEntity
  8
寸法
 62
     0
 48
50.0
370
    -2
100
AcDbLine
 10
5368.6
 20
8112.741822815308
 30
0.0
 11
4957.008116907963
 21
8112.741822815308
 31
0.0
  0
INSERT
  5
2600C
330
25BDA
100
AcDbEntity
  8
寸法
 62
     0
 48
50.0
370
    -2
100
AcDbBlockReference
  2
_DOTSMALL
 10
5491.6
 20
8112.741822815308
 30
0.0
 41
100.0
 42
100.0
 43
100.0
  0
INSERT
  5
2600D
330
25BDA
100
AcDbEntity
  8
寸法
 62
     0
 48
50.0
370
    -2
100
AcDbBlockReference
  2
_DOTSMALL
 10
5368.6
 20
8112.741822815308
 30
0.0
 41
100.0
 42
100.0
 43
100.0
 50
180.0
  0
MTEXT
  5
2600E
330
25BDA
100
AcDbEntity
  8
寸法
 62
     7
 48
50.0
100
AcDbMText
 10
5095.493398282202
 20
8212.75363383893
 30
0.0
 40
120.0
 41
0.0
 71
     5
 72
     1
  1
\A1;123
  7
STYLE1
 73
     1
 44
1.0
1001
ACAD
1000
MTEXTBEGIN
1070
    73
1070
     1
1070
    44
1040
1.0
1070
    74
1070
     0
1000
MTEXTEND
  0
POINT
  5
2600F
330
25BDA
100
AcDbEntity
  8
DEFPOINTS
 62
     0
 48
50.0
100
AcDbPoint
 10
5491.6
 20
7313.475364721398
 30
0.0
  0
POINT
  5
26010
330
25BDA
100
AcDbEntity
  8
DEFPOINTS
 62
     0
 48
50.0
100
AcDbPoint
 10
5368.6
 20
7386.475364721398
 30
0.0
  0
POINT
  5
26011
330
25BDA
100
AcDbEntity
  8
DEFPOINTS
 62
     0
 48
50.0
100
AcDbPoint
 10
5368.6
 20
8112.741822815308
 30
0.0
  0
ENDBLK
  5
25BE6
330
25BDA
100
AcDbEntity
  8
0
 48
50.0
100
AcDbBlockEnd
  0
BLOCK
  5
25BF0
330
25BE7
100
AcDbEntity
  8
0
 48
50.0
100
AcDbBlockBegin
  2
*D44
 70
     1
 10
0.0
 20
0.0
 30
0.0
  3
*D44
  1

  0
LINE
  5
25FFF
330
25BE7
100
AcDbEntity
  8
寸法
 62
     0
 48
50.0
370
    -2
100
AcDbLine
 10
7273.600000000008
 20
6976.475364721398
 30
0.0
 11
7273.600000000008
 21
7929.084181391647
 31
0.0
  0
LINE
  5
26000
330
25BE7
100
AcDbEntity
  8
寸法
 62
     0
 48
50.0
370
    -2
100
AcDbLine
 10
6323.600000000007
 20
6976.475364721398
 30
0.0
 11
6323.600000000007
 21
7929.084181391647
 31
0.0
  0
LINE
  5
26001
330
25BE7
100
AcDbEntity
  8
寸法
 62
     0
 48
50.0
370
    -2
100
AcDbLine
 10
7273.600000000008
 20
7869.084181391646
 30
0.0
 11
6323.600000000007
 21
7869.084181391646
 31
0.0
  0
INSERT
  5
26002
330
25BE7
100
AcDbEntity
  8
寸法
 62
     0
 48
50.0
370
    -2
100
AcDbBlockReference
  2
_DOTSMALL
 10
7273.600000000008
 20
7869.084181391646
 30
0.0
 41
100.0
 42
100.0
 43
100.0
  0
INSERT
  5
26003
330
25BE7
100
AcDbEntity
  8
寸法
 62
     0
 48
50.0
370
    -2
100
AcDbBlockReference
  2
_DOTSMALL
 10
6323.600000000007
 20
7869.084181391646
 30
0.0
 41
100.0
 42
100.0
 43
100.0
 50
180.0
  0
MTEXT
  5
26004
330
25BE7
100
AcDbEntity
  8
寸法
 62
     7
 48
50.0
100
AcDbMText
 10
6798.600000000007
 20
7969.084181391647
 30
0.0
 40
120.0
 41
0.0
 71
     5
 72
     1
  1
\A1;950
  7
STYLE1
 73
     1
 44
1.0
1001
ACAD
1000
MTEXTBEGIN
1070
    73
1070
     1
1070
    44
1040
1.0
1070
    74
1070
     0
1000
MTEXTEND
  0
POINT
  5
26005
330
25BE7
100
AcDbEntity
  8
DEFPOINTS
 62
     0
 48
50.0
100
AcDbPoint
 10
7273.600000000008
 20
6956.475364721399
 30
0.0
  0
POINT
  5
26006
330
25BE7
100
AcDbEntity
  8
DEFPOINTS
 62
     0
 48
50.0
100
AcDbPoint
 10
6323.600000000007
 20
6956.475364721399
 30
0.0
  0
POINT
  5
26007
330
25BE7
100
AcDbEntity
  8
DEFPOINTS
 62
     0
 48
50.0
100
AcDbPoint
 10
6323.600000000007
 20
7869.084181391646
 30
0.0
  0
ENDBLK
  5
25BF1
330
25BE7
100
AcDbEntity
  8
0
 48
50.0
100
AcDbBlockEnd
  0
BLOCK
  5
25BFB
330
25BF2
100
AcDbEntity
  8
0
 48
50.0
100
AcDbBlockBegin
  2
*D45
 70
     1
 10
0.0
 20
0.0
 30
0.0
  3
*D45
  1

  0
LINE
  5
25FF6
330
25BF2
100
AcDbEntity
  8
寸法
 62
     0
 48
50.0
370
    -2
100
AcDbLine
 10
8105.6
 20
7333.475364721398
 30
0.0
 11
8105.6
 21
8172.741822815309
 31
0.0
  0
LINE
  5
25FF7
330
25BF2
100
AcDbEntity
  8
寸法
 62
     0
 48
50.0
370
    -2
100
AcDbLine
 10
5491.6
 20
7333.475364721398
 30
0.0
 11
5491.6
 21
8172.741822815309
 31
0.0
  0
LINE
  5
25FF8
330
25BF2
100
AcDbEntity
  8
寸法
 62
     0
 48
50.0
370
    -2
100
AcDbLine
 10
8105.6
 20
8112.741822815308
 30
0.0
 11
5491.6
 21
8112.741822815308
 31
0.0
  0
INSERT
  5
25FF9
330
25BF2
100
AcDbEntity
  8
寸法
 62
     0
 48
50.0
370
    -2
100
AcDbBlockReference
  2
_DOTSMALL
 10
8105.6
 20
8112.741822815308
 30
0.0
 41
100.0
 42
100.0
 43
100.0
  0
INSERT
  5
25FFA
330
25BF2
100
AcDbEntity
  8
寸法
 62
     0
 48
50.0
370
    -2
100
AcDbBlockReference
  2
_DOTSMALL
 10
5491.6
 20
8112.741822815308
 30
0.0
 41
100.0
 42
100.0
 43
100.0
 50
180.0
  0
MTEXT
  5
25FFB
330
25BF2
100
AcDbEntity
  8
寸法
 62
     7
 48
50.0
100
AcDbMText
 10
6798.6
 20
8212.75363383893
 30
0.0
 40
120.0
 41
0.0
 71
     5
 72
     1
  1
\A1;2614
  7
STYLE1
 73
     1
 44
1.0
1001
ACAD
1000
MTEXTBEGIN
1070
    73
1070
     1
1070
    44
1040
1.0
1070
    74
1070
     0
1000
MTEXTEND
  0
POINT
  5
25FFC
330
25BF2
100
AcDbEntity
  8
DEFPOINTS
 62
     0
 48
50.0
100
AcDbPoint
 10
8105.6
 20
7313.475364721398
 30
0.0
  0
POINT
  5
25FFD
330
25BF2
100
AcDbEntity
  8
DEFPOINTS
 62
     0
 48
50.0
100
AcDbPoint
 10
5491.6
 20
7313.475364721398
 30
0.0
  0
POINT
  5
25FFE
330
25BF2
100
AcDbEntity
  8
DEFPOINTS
 62
     0
 48
50.0
100
AcDbPoint
 10
5491.6
 20
8112.741822815308
 30
0.0
  0
ENDBLK
  5
25BFC
330
25BF2
100
AcDbEntity
  8
0
 48
50.0
100
AcDbBlockEnd
  0
BLOCK
  5
25C07
330
25BFD
100
AcDbEntity
  8
0
 48
50.0
100
AcDbBlockBegin
  2
*D46
 70
     1
 10
0.0
 20
0.0
 30
0.0
  3
*D46
  1

  0
LINE
  5
25FED
330
25BFD
100
AcDbEntity
  8
寸法
 62
     0
 48
50.0
370
    -2
100
AcDbLine
 10
6323.600000000007
 20
6976.475364721398
 30
0.0
 11
6323.600000000007
 21
7929.084181391647
 31
0.0
  0
LINE
  5
25FEE
330
25BFD
100
AcDbEntity
  8
寸法
 62
     0
 48
50.0
370
    -2
100
AcDbLine
 10
5368.6
 20
7406.475364721399
 30
0.0
 11
5368.6
 21
7929.084181391647
 31
0.0
  0
LINE
  5
25FEF
330
25BFD
100
AcDbEntity
  8
寸法
 62
     0
 48
50.0
370
    -2
100
AcDbLine
 10
6323.600000000007
 20
7869.084181391646
 30
0.0
 11
5368.6
 21
7869.084181391646
 31
0.0
  0
INSERT
  5
25FF0
330
25BFD
100
AcDbEntity
  8
寸法
 62
     0
 48
50.0
370
    -2
100
AcDbBlockReference
  2
_DOTSMALL
 10
6323.600000000007
 20
7869.084181391646
 30
0.0
 41
100.0
 42
100.0
 43
100.0
  0
INSERT
  5
25FF1
330
25BFD
100
AcDbEntity
  8
寸法
 62
     0
 48
50.0
370
    -2
100
AcDbBlockReference
  2
_DOTSMALL
 10
5368.6
 20
7869.084181391646
 30
0.0
 41
100.0
 42
100.0
 43
100.0
 50
180.0
  0
MTEXT
  5
25FF2
330
25BFD
100
AcDbEntity
  8
寸法
 62
     7
 48
50.0
100
AcDbMText
 10
5846.100000000004
 20
7969.084181391647
 30
0.0
 40
120.0
 41
0.0
 71
     5
 72
     1
  1
\A1;955
  7
STYLE1
 73
     1
 44
1.0
1001
ACAD
1000
MTEXTBEGIN
1070
    73
1070
     1
1070
    44
1040
1.0
1070
    74
1070
     0
1000
MTEXTEND
  0
POINT
  5
25FF3
330
25BFD
100
AcDbEntity
  8
DEFPOINTS
 62
     0
 48
50.0
100
AcDbPoint
 10
6323.600000000007
 20
6956.475364721399
 30
0.0
  0
POINT
  5
25FF4
330
25BFD
100
AcDbEntity
  8
DEFPOINTS
 62
     0
 48
50.0
100
AcDbPoint
 10
5368.6
 20
7386.475364721398
 30
0.0
  0
POINT
  5
25FF5
330
25BFD
100
AcDbEntity
  8
DEFPOINTS
 62
     0
 48
50.0
100
AcDbPoint
 10
5368.6
 20
7869.084181391646
 30
0.0
  0
ENDBLK
  5
25C08
330
25BFD
100
AcDbEntity
  8
0
 48
50.0
100
AcDbBlockEnd
  0
BLOCK
  5
25C14
330
25C09
100
AcDbEntity
  8
0
 48
50.0
100
AcDbBlockBegin
  2
*D47
 70
     1
 10
0.0
 20
0.0
 30
0.0
  3
*D47
  1

  0
LINE
  5
25FE3
330
25C09
100
AcDbEntity
  8
寸法
 62
     0
 48
50.0
370
    -2
100
AcDbLine
 10
6253.600000000008
 20
6906.475364721399
 30
0.0
 11
5791.285990614301
 21
6906.475364721399
 31
0.0
  0
LINE
  5
25FE4
330
25C09
100
AcDbEntity
  8
寸法
 62
     0
 48
50.0
370
    -2
100
AcDbLine
 10
5922.765475140901
 20
7386.475364721398
 30
0.0
 11
5791.285990614301
 21
7386.475364721398
 31
0.0
  0
LINE
  5
25FE5
330
25C09
100
AcDbEntity
  8
寸法
 62
     0
 48
50.0
370
    -2
100
AcDbLine
 10
5851.285990614301
 20
6906.475364721399
 30
0.0
 11
5851.285990614301
 21
7386.475364721398
 31
0.0
  0
LINE
  5
25FE6
330
25C09
100
AcDbEntity
  8
寸法
 62
     0
 48
50.0
370
    -2
100
AcDbLine
 10
5851.285990614301
 20
7386.475364721398
 30
0.0
 11
5851.285990614301
 21
7833.081663933997
 31
0.0
  0
INSERT
  5
25FE7
330
25C09
100
AcDbEntity
  8
寸法
 62
     0
 48
50.0
370
    -2
100
AcDbBlockReference
  2
_DOTSMALL
 10
5851.285990614301
 20
6906.475364721399
 30
0.0
 41
100.0
 42
100.0
 43
100.0
 50
270.0
  0
INSERT
  5
25FE8
330
25C09
100
AcDbEntity
  8
寸法
 62
     0
 48
50.0
370
    -2
100
AcDbBlockReference
  2
_DOTSMALL
 10
5851.285990614301
 20
7386.475364721398
 30
0.0
 41
100.0
 42
100.0
 43
100.0
 50
90.0
  0
MTEXT
  5
25FE9
330
25C09
100
AcDbEntity
  8
寸法
 62
     7
 48
50.0
100
AcDbMText
 10
5751.285990614301
 20
7679.03441983951
 30
0.0
 40
120.0
 41
0.0
 71
     5
 72
     1
  1
\A1;480
  7
STYLE1
 11
0.0000000000000001
 21
1.0
 31
0.0
 73
     1
 44
1.0
1001
ACAD
1000
MTEXTBEGIN
1070
    73
1070
     1
1070
    44
1040
1.0
1070
    74
1070
     0
1000
MTEXTEND
  0
POINT
  5
25FEA
330
25C09
100
AcDbEntity
  8
DEFPOINTS
 62
     0
 48
50.0
100
AcDbPoint
 10
6273.600000000008
 20
6906.475364721399
 30
0.0
  0
POINT
  5
25FEB
330
25C09
100
AcDbEntity
  8
DEFPOINTS
 62
     0
 48
50.0
100
AcDbPoint
 10
5942.765475140901
 20
7386.475364721398
 30
0.0
  0
POINT
  5
25FEC
330
25C09
100
AcDbEntity
  8
DEFPOINTS
 62
     0
 48
50.0
100
AcDbPoint
 10
5851.285990614301
 20
7386.475364721398
 30
0.0
  0
ENDBLK
  5
25C15
330
25C09
100
AcDbEntity
  8
0
 48
50.0
100
AcDbBlockEnd
  0
BLOCK
  5
26449
330
2643F
100
AcDbEntity
  8
0
 48
50.0
100
AcDbBlockBegin
  2
*D54
 70
     1
 10
0.0
 20
0.0
 30
0.0
  3
*D54
  1

  0
LINE
  5
264F0
330
2643F
100
AcDbEntity
  8
寸法
 62
     0
 48
50.0
370
    -2
100
AcDbLine
 10
6959.759386444656
 20
2252.448868242054
 30
0.0
 11
6959.759386444656
 21
2712.116676158434
 31
0.0
  0
LINE
  5
264F1
330
2643F
100
AcDbEntity
  8
寸法
 62
     0
 48
50.0
370
    -2
100
AcDbLine
 10
6767.759386444656
 20
2252.448868242054
 30
0.0
 11
6767.759386444656
 21
2712.116676158434
 31
0.0
  0
LINE
  5
264F2
330
2643F
100
AcDbEntity
  8
寸法
 62
     0
 48
50.0
370
    -2
100
AcDbLine
 10
6959.759386444656
 20
2652.116676158435
 30
0.0
 11
6767.759386444656
 21
2652.116676158435
 31
0.0
  0
INSERT
  5
264F3
330
2643F
100
AcDbEntity
  8
寸法
 62
     0
 48
50.0
370
    -2
100
AcDbBlockReference
  2
_DOTSMALL
 10
6959.759386444656
 20
2652.116676158435
 30
0.0
 41
100.0
 42
100.0
 43
100.0
  0
INSERT
  5
264F4
330
2643F
100
AcDbEntity
  8
寸法
 62
     0
 48
50.0
370
    -2
100
AcDbBlockReference
  2
_DOTSMALL
 10
6767.759386444656
 20
2652.116676158435
 30
0.0
 41
100.0
 42
100.0
 43
100.0
 50
180.0
  0
MTEXT
  5
264F5
330
2643F
100
AcDbEntity
  8
寸法
 62
     7
 48
50.0
100
AcDbMText
 10
6863.759386444655
 20
2952.152109229301
 30
0.0
 40
120.0
 41
0.0
 71
     5
 72
     1
  1
\A1;120\P200\P280
  7
STYLE1
 73
     1
 44
1.0
1001
ACAD
1000
MTEXTBEGIN
1070
    73
1070
     1
1070
    44
1040
1.0
1070
    74
1070
     0
1000
MTEXTEND
  0
POINT
  5
264F6
330
2643F
100
AcDbEntity
  8
DEFPOINTS
 62
     0
 48
50.0
100
AcDbPoint
 10
6959.759386444656
 20
2232.448868242054
 30
0.0
  0
POINT
  5
264F7
330
2643F
100
AcDbEntity
  8
DEFPOINTS
 62
     0
 48
50.0
100
AcDbPoint
 10
6767.759386444656
 20
2232.448868242054
 30
0.0
  0
POINT
  5
264F8
330
2643F
100
AcDbEntity
  8
DEFPOINTS
 62
     0
 48
50.0
100
AcDbPoint
 10
6767.759386444656
 20
2652.116676158435
 30
0.0
  0
ENDBLK
  5
2644A
330
2643F
100
AcDbEntity
  8
0
 48
50.0
100
AcDbBlockEnd
  0
BLOCK
  5
26455
330
2644B
100
AcDbEntity
  8
0
 48
50.0
100
AcDbBlockBegin
  2
*D55
 70
     1
 10
0.0
 20
0.0
 30
0.0
  3
*D55
  1

  0
LINE
  5
264E7
330
2644B
100
AcDbEntity
  8
寸法
 62
     0
 48
50.0
370
    -2
100
AcDbLine
 10
6639.759386444656
 20
1300.448868242054
 30
0.0
 11
6639.759386444656
 21
850.019230236894
 31
0.0
  0
LINE
  5
264E8
330
2644B
100
AcDbEntity
  8
寸法
 62
     0
 48
50.0
370
    -2
100
AcDbLine
 10
7087.759386444656
 20
1300.448868242054
 30
0.0
 11
7087.759386444656
 21
850.019230236894
 31
0.0
  0
LINE
  5
264E9
330
2644B
100
AcDbEntity
  8
寸法
 62
     0
 48
50.0
370
    -2
100
AcDbLine
 10
6639.759386444656
 20
910.0192302368942
 30
0.0
 11
7087.759386444656
 21
910.0192302368942
 31
0.0
  0
INSERT
  5
264EA
330
2644B
100
AcDbEntity
  8
寸法
 62
     0
 48
50.0
370
    -2
100
AcDbBlockReference
  2
_DOTSMALL
 10
6639.759386444656
 20
910.0192302368942
 30
0.0
 41
100.0
 42
100.0
 43
100.0
 50
180.0
  0
INSERT
  5
264EB
330
2644B
100
AcDbEntity
  8
寸法
 62
     0
 48
50.0
370
    -2
100
AcDbBlockReference
  2
_DOTSMALL
 10
7087.759386444656
 20
910.0192302368942
 30
0.0
 41
100.0
 42
100.0
 43
100.0
  0
MTEXT
  5
264EC
330
2644B
100
AcDbEntity
  8
寸法
 62
     7
 48
50.0
100
AcDbMText
 10
6843.662627766433
 20
1010.019230236894
 30
0.0
 40
120.0
 41
0.0
 71
     5
 72
     1
  1
\A1;300
  7
STYLE1
 73
     1
 44
1.0
1001
ACAD
1000
MTEXTBEGIN
1070
    73
1070
     1
1070
    44
1040
1.0
1070
    74
1070
     0
1000
MTEXTEND
  0
POINT
  5
264ED
330
2644B
100
AcDbEntity
  8
DEFPOINTS
 62
     0
 48
50.0
100
AcDbPoint
 10
6639.759386444656
 20
1320.448868242054
 30
0.0
  0
POINT
  5
264EE
330
2644B
100
AcDbEntity
  8
DEFPOINTS
 62
     0
 48
50.0
100
AcDbPoint
 10
7087.759386444656
 20
1320.448868242054
 30
0.0
  0
POINT
  5
264EF
330
2644B
100
AcDbEntity
  8
DEFPOINTS
 62
     0
 48
50.0
100
AcDbPoint
 10
7087.759386444656
 20
910.0192302368942
 30
0.0
  0
ENDBLK
  5
26456
330
2644B
100
AcDbEntity
  8
0
 48
50.0
100
AcDbBlockEnd
  0
BLOCK
  5
26461
330
26457
100
AcDbEntity
  8
0
 48
50.0
100
AcDbBlockBegin
  2
*D56
 70
     1
 10
0.0
 20
0.0
 30
0.0
  3
*D56
  1

  0
LINE
  5
264DE
330
26457
100
AcDbEntity
  8
寸法
 62
     0
 48
50.0
370
    -2
100
AcDbLine
 10
6747.759386444656
 20
2232.448868242054
 30
0.0
 11
5972.722147882917
 21
2232.448868242054
 31
0.0
  0
LINE
  5
264DF
330
26457
100
AcDbEntity
  8
寸法
 62
     0
 48
50.0
370
    -2
100
AcDbLine
 10
6539.759386444661
 20
1448.448868242054
 30
0.0
 11
5972.722147882916
 21
1448.448868242054
 31
0.0
  0
LINE
  5
264E0
330
26457
100
AcDbEntity
  8
寸法
 62
     0
 48
50.0
370
    -2
100
AcDbLine
 10
6032.722147882918
 20
2232.448868242054
 30
0.0
 11
6032.722147882916
 21
1448.448868242054
 31
0.0
  0
INSERT
  5
264E1
330
26457
100
AcDbEntity
  8
寸法
 62
     0
 48
50.0
370
    -2
100
AcDbBlockReference
  2
_DOTSMALL
 10
6032.722147882918
 20
2232.448868242054
 30
0.0
 41
100.0
 42
100.0
 43
100.0
 50
90.0
  0
INSERT
  5
264E2
330
26457
100
AcDbEntity
  8
寸法
 62
     0
 48
50.0
370
    -2
100
AcDbBlockReference
  2
_DOTSMALL
 10
6032.722147882916
 20
1448.448868242054
 30
0.0
 41
100.0
 42
100.0
 43
100.0
 50
270.0
  0
MTEXT
  5
264E3
330
26457
100
AcDbEntity
  8
寸法
 62
     7
 48
50.0
100
AcDbMText
 10
5932.722147882916
 20
1819.989017898055
 30
0.0
 40
120.0
 41
0.0
 71
     5
 72
     1
  1
\A1;540
  7
STYLE1
 11
0.0000000000000001
 21
1.0
 31
0.0
 73
     1
 44
1.0
1001
ACAD
1000
MTEXTBEGIN
1070
    73
1070
     1
1070
    44
1040
1.0
1070
    74
1070
     0
1000
MTEXTEND
  0
POINT
  5
264E4
330
26457
100
AcDbEntity
  8
DEFPOINTS
 62
     0
 48
50.0
100
AcDbPoint
 10
6767.759386444656
 20
2232.448868242054
 30
0.0
  0
POINT
  5
264E5
330
26457
100
AcDbEntity
  8
DEFPOINTS
 62
     0
 48
50.0
100
AcDbPoint
 10
6559.759386444659
 20
1448.448868242054
 30
0.0
  0
POINT
  5
264E6
330
26457
100
AcDbEntity
  8
DEFPOINTS
 62
     0
 48
50.0
100
AcDbPoint
 10
6032.722147882916
 20
1448.448868242054
 30
0.0
  0
ENDBLK
  5
26462
330
26457
100
AcDbEntity
  8
0
 48
50.0
100
AcDbBlockEnd
  0
BLOCK
  5
2646D
330
26463
100
AcDbEntity
  8
0
 48
50.0
100
AcDbBlockBegin
  2
*D57
 70
     1
 10
0.0
 20
0.0
 30
0.0
  3
*D57
  1

  0
LINE
  5
264D5
330
26463
100
AcDbEntity
  8
寸法
 62
     0
 48
50.0
370
    -2
100
AcDbLine
 10
6619.759386444656
 20
1688.448868242054
 30
0.0
 11
6437.339072712197
 21
1688.448868242054
 31
0.0
  0
LINE
  5
264D6
330
26463
100
AcDbEntity
  8
寸法
 62
     0
 48
50.0
370
    -2
100
AcDbLine
 10
6539.759386444661
 20
1448.448868242054
 30
0.0
 11
6437.339072712197
 21
1448.448868242054
 31
0.0
  0
LINE
  5
264D7
330
26463
100
AcDbEntity
  8
寸法
 62
     0
 48
50.0
370
    -2
100
AcDbLine
 10
6497.339072712197
 20
1688.448868242054
 30
0.0
 11
6497.339072712197
 21
1448.448868242054
 31
0.0
  0
INSERT
  5
264D8
330
26463
100
AcDbEntity
  8
寸法
 62
     0
 48
50.0
370
    -2
100
AcDbBlockReference
  2
_DOTSMALL
 10
6497.339072712197
 20
1688.448868242054
 30
0.0
 41
100.0
 42
100.0
 43
100.0
 50
90.0
  0
INSERT
  5
264D9
330
26463
100
AcDbEntity
  8
寸法
 62
     0
 48
50.0
370
    -2
100
AcDbBlockReference
  2
_DOTSMALL
 10
6497.339072712197
 20
1448.448868242054
 30
0.0
 41
100.0
 42
100.0
 43
100.0
 50
270.0
  0
MTEXT
  5
264DA
330
26463
100
AcDbEntity
  8
寸法
 62
     7
 48
50.0
100
AcDbMText
 10
6397.339072712197
 20
1568.448868242055
 30
0.0
 40
120.0
 41
0.0
 71
     5
 72
     1
  1
\A1;150
  7
STYLE1
 11
0.0000000000000001
 21
1.0
 31
0.0
 73
     1
 44
1.0
1001
ACAD
1000
MTEXTBEGIN
1070
    73
1070
     1
1070
    44
1040
1.0
1070
    74
1070
     0
1000
MTEXTEND
  0
POINT
  5
264DB
330
26463
100
AcDbEntity
  8
DEFPOINTS
 62
     0
 48
50.0
100
AcDbPoint
 10
6639.759386444656
 20
1688.448868242054
 30
0.0
  0
POINT
  5
264DC
330
26463
100
AcDbEntity
  8
DEFPOINTS
 62
     0
 48
50.0
100
AcDbPoint
 10
6559.759386444659
 20
1448.448868242054
 30
0.0
  0
POINT
  5
264DD
330
26463
100
AcDbEntity
  8
DEFPOINTS
 62
     0
 48
50.0
100
AcDbPoint
 10
6497.339072712197
 20
1448.448868242054
 30
0.0
  0
ENDBLK
  5
2646E
330
26463
100
AcDbEntity
  8
0
 48
50.0
100
AcDbBlockEnd
  0
BLOCK
  5
2647B
330
2646F
100
AcDbEntity
  8
0
 48
50.0
100
AcDbBlockBegin
  2
*D58
 70
     1
 10
0.0
 20
0.0
 30
0.0
  3
*D58
  1

  0
LINE
  5
264CA
330
2646F
100
AcDbEntity
  8
寸法
 62
     0
 48
50.0
370
    -2
100
AcDbLine
 10
8714.59869962185
 20
2285.208868242055
 30
0.0
 11
9719.721965509721
 21
2285.208868242055
 31
0.0
  0
LINE
  5
264CB
330
2646F
100
AcDbEntity
  8
寸法
 62
     0
 48
50.0
370
    -2
100
AcDbLine
 10
8901.798699621849
 20
2232.448868242054
 30
0.0
 11
9719.721965509721
 21
2232.448868242054
 31
0.0
  0
LINE
  5
264CC
330
2646F
100
AcDbEntity
  8
寸法
 62
     0
 48
50.0
370
    -2
100
AcDbLine
 10
9659.721965509723
 20
2285.208868242055
 30
0.0
 11
9659.721965509723
 21
2385.208868242055
 31
0.0
  0
LINE
  5
264CD
330
2646F
100
AcDbEntity
  8
寸法
 62
     0
 48
50.0
370
    -2
100
AcDbLine
 10
9659.721965509723
 20
2232.448868242054
 30
0.0
 11
9659.721965509723
 21
1500.431061399087
 31
0.0
  0
LINE
  5
264CE
330
2646F
100
AcDbEntity
  8
寸法
 62
     0
 48
50.0
370
    -2
100
AcDbLine
 10
9659.721965509723
 20
2285.208868242055
 30
0.0
 11
9659.721965509723
 21
2232.448868242054
 31
0.0
  0
INSERT
  5
264CF
330
2646F
100
AcDbEntity
  8
寸法
 62
     0
 48
50.0
370
    -2
100
AcDbBlockReference
  2
_DOTSMALL
 10
9659.721965509723
 20
2285.208868242055
 30
0.0
 41
100.0
 42
100.0
 43
100.0
 50
270.0
  0
INSERT
  5
264D0
330
2646F
100
AcDbEntity
  8
寸法
 62
     0
 48
50.0
370
    -2
100
AcDbBlockReference
  2
_DOTSMALL
 10
9659.721965509723
 20
2232.448868242054
 30
0.0
 41
100.0
 42
100.0
 43
100.0
 50
90.0
  0
MTEXT
  5
264D1
330
2646F
100
AcDbEntity
  8
寸法
 62
     7
 48
50.0
100
AcDbMText
 10
9559.710154486101
 20
1766.439964820571
 30
0.0
 40
120.0
 41
0.0
 71
     5
 72
     1
  1
\A1;20～25
  7
STYLE1
 11
0.0000000000000001
 21
1.0
 31
0.0
 73
     1
 44
1.0
1001
ACAD
1000
MTEXTBEGIN
1070
    73
1070
     1
1070
    44
1040
1.0
1070
    74
1070
     0
1000
MTEXTEND
  0
POINT
  5
264D2
330
2646F
100
AcDbEntity
  8
DEFPOINTS
 62
     0
 48
50.0
100
AcDbPoint
 10
8694.598699621851
 20
2285.208868242055
 30
0.0
  0
POINT
  5
264D3
330
2646F
100
AcDbEntity
  8
DEFPOINTS
 62
     0
 48
50.0
100
AcDbPoint
 10
8881.79869962185
 20
2232.448868242054
 30
0.0
  0
POINT
  5
264D4
330
2646F
100
AcDbEntity
  8
DEFPOINTS
 62
     0
 48
50.0
100
AcDbPoint
 10
9659.721965509723
 20
2232.448868242054
 30
0.0
  0
ENDBLK
  5
2647C
330
2646F
100
AcDbEntity
  8
0
 48
50.0
100
AcDbBlockEnd
  0
BLOCK
  5
26487
330
2647D
100
AcDbEntity
  8
0
 48
50.0
100
AcDbBlockBegin
  2
*D59
 70
     1
 10
0.0
 20
0.0
 30
0.0
  3
*D59
  1

  0
LINE
  5
264C1
330
2647D
100
AcDbEntity
  8
寸法
 62
     0
 48
50.0
370
    -2
100
AcDbLine
 10
8901.798699621849
 20
2232.448868242054
 30
0.0
 11
9443.667299390694
 21
2232.448868242054
 31
0.0
  0
LINE
  5
264C2
330
2647D
100
AcDbEntity
  8
寸法
 62
     0
 48
50.0
370
    -2
100
AcDbLine
 10
8901.798699621849
 20
1908.448868242053
 30
0.0
 11
9443.667299390694
 21
1908.448868242053
 31
0.0
  0
LINE
  5
264C3
330
2647D
100
AcDbEntity
  8
寸法
 62
     0
 48
50.0
370
    -2
100
AcDbLine
 10
9383.667299390694
 20
2232.448868242054
 30
0.0
 11
9383.667299390694
 21
1908.448868242053
 31
0.0
  0
INSERT
  5
264C4
330
2647D
100
AcDbEntity
  8
寸法
 62
     0
 48
50.0
370
    -2
100
AcDbBlockReference
  2
_DOTSMALL
 10
9383.667299390694
 20
2232.448868242054
 30
0.0
 41
100.0
 42
100.0
 43
100.0
 50
90.0
  0
INSERT
  5
264C5
330
2647D
100
AcDbEntity
  8
寸法
 62
     0
 48
50.0
370
    -2
100
AcDbBlockReference
  2
_DOTSMALL
 10
9383.667299390694
 20
1908.448868242053
 30
0.0
 41
100.0
 42
100.0
 43
100.0
 50
270.0
  0
MTEXT
  5
264C6
330
2647D
100
AcDbEntity
  8
寸法
 62
     7
 48
50.0
100
AcDbMText
 10
9283.667299390694
 20
2070.448868242055
 30
0.0
 40
120.0
 41
0.0
 71
     5
 72
     1
  1
\A1;180
  7
STYLE1
 11
0.0000000000000001
 21
1.0
 31
0.0
 73
     1
 44
1.0
1001
ACAD
1000
MTEXTBEGIN
1070
    73
1070
     1
1070
    44
1040
1.0
1070
    74
1070
     0
1000
MTEXTEND
  0
POINT
  5
264C7
330
2647D
100
AcDbEntity
  8
DEFPOINTS
 62
     0
 48
50.0
100
AcDbPoint
 10
8881.79869962185
 20
2232.448868242054
 30
0.0
  0
POINT
  5
264C8
330
2647D
100
AcDbEntity
  8
DEFPOINTS
 62
     0
 48
50.0
100
AcDbPoint
 10
8881.79869962185
 20
1908.448868242053
 30
0.0
  0
POINT
  5
264C9
330
2647D
100
AcDbEntity
  8
DEFPOINTS
 62
     0
 48
50.0
100
AcDbPoint
 10
9383.667299390694
 20
1908.448868242053
 30
0.0
  0
ENDBLK
  5
26488
330
2647D
100
AcDbEntity
  8
0
 48
50.0
100
AcDbBlockEnd
  0
ENDSEC
  0
SECTION
  2
ENTITIES
  0
MTEXT
  5
763F
330
747D
100
AcDbEntity
  8
0
100
AcDbMText
 10
302.846345836809
 20
280.1983726409901
 30
0.0
 40
3.5
 41
5.323721266742722
 71
     1
 72
     5
  1

  7
MSMINCHO
 73
     1
 44
1.0
1001
ACAD
1000
MTEXTBEGIN
1070
    73
1070
     1
1070
    44
1040
1.0
1070
    74
1070
     0
1000
MTEXTEND
  0
LINE
  5
10B57
330
747D
100
AcDbEntity
  8
補助
  6
PHANTOM
 62
   230
 48
50.0
100
AcDbLine
 10
139.9999999999995
 20
11409.6
 30
0.0
 11
16307.2
 21
11409.6
 31
0.0
  0
LINE
  5
10B59
330
747D
100
AcDbEntity
  8
仕様書枠
  6
Continuous
 48
50.0
100
AcDbLine
 10
13107.2
 20
1200.0
 30
0.0
 11
13107.2
 21
-0.0000000000000729
 31
0.0
  0
LINE
  5
10B5D
330
747D
100
AcDbEntity
  8
仕様書枠
 48
50.0
100
AcDbLine
 10
140.0
 20
0.0
 30
0.0
 11
16307.2
 21
-0.0000000000000909
 31
0.0
  0
LINE
  5
10B5E
330
747D
100
AcDbEntity
  8
補助
  6
PHANTOM
 62
   230
 48
50.0
100
AcDbLine
 10
16307.2
 20
11409.6
 30
0.0
 11
16307.2
 21
1200.0
 31
0.0
  0
LINE
  5
10B6C
330
747D
100
AcDbEntity
  8
仕様書枠
 48
50.0
100
AcDbLine
 10
13107.2
 20
1200.0
 30
0.0
 11
16307.2
 21
1200.0
 31
0.0
  0
TEXT
  5
10B73
330
747D
100
AcDbEntity
  8
文字
 62
     7
 48
50.0
100
AcDbText
 10
13162.9790565769
 20
895.0906074299405
 30
0.0
 40
200.0
  1
基 礎 図
  7
STYLE2
100
AcDbText
  0
LINE
  5
10B7B
330
747D
100
AcDbEntity
  8
仕様書枠
 48
50.0
100
AcDbLine
 10
13107.2
 20
800.0
 30
0.0
 11
14251.2
 21
800.0
 31
0.0
  0
LINE
  5
10B88
330
747D
100
AcDbEntity
  8
仕様書枠
  6
Continuous
 48
50.0
100
AcDbLine
 10
14251.2
 20
1200.0
 30
0.0
 11
14251.2
 21
800.0
 31
0.0
  0
LINE
  5
16462
330
747D
100
AcDbEntity
  8
仕様書枠
 48
50.0
100
AcDbLine
 10
16307.2
 20
1200.0
 30
0.0
 11
16307.2
 21
-0.0000000000000909
 31
0.0
  0
LINE
  5
1903B
330
747D
100
AcDbEntity
  8
補助
  6
PHANTOM
 62
   230
 48
50.0
100
AcDbLine
 10
140.0
 20
0.0
 30
0.0
 11
139.9999999999995
 21
11409.6
 31
0.0
  0
LEADER
  5
1AC27
330
747D
100
AcDbEntity
  8
寸法
 48
50.0
100
AcDbLeader
  3
INABA_S50G
 73
     0
 74
     0
 75
     1
 40
120.0
 41
720.0000000000001
 76
     3
 10
11080.05985718447
 20
6917.206134781207
 30
0.0
 10
11236.83343157075
 20
6656.192221213375
 30
0.0
 10
11361.83343157075
 20
6656.192221213375
 30
0.0
340
1AC28
1001
ACAD
1000
DSTYLE
1002
{
1070
   341
1005
0
1070
    40
1040
1.0
1070
   343
1005
0
1070
   344
1005
0
1002
}
  0
MTEXT
  5
1AC28
102
{ACAD_REACTORS
330
1AC27
102
}
330
747D
100
AcDbEntity
  8
部品1
 62
     7
 48
50.0
100
AcDbMText
 10
12106.83343157075
 20
6741.192221213374
 30
0.0
 40
120.0
 41
0.0
 71
     6
 72
     1
  1
\A1;床下換気口
  7
STYLE1
 73
     1
 44
1.0
1001
ACAD
1000
MTEXTBEGIN
1070
    73
1070
     1
1070
    44
1040
1.0
1070
    74
1070
     0
1000
MTEXTEND
  0
TEXT
  5
1AC29
330
747D
100
AcDbEntity
  8
部品1
 48
50.0
100
AcDbText
 10
11427.43013846118
 20
5975.647862434276
 30
0.0
 40
80.0
  1
(a=45,b=55,c=75)
  7
STYLE1
100
AcDbText
  0
TEXT
  5
1AC2A
330
747D
100
AcDbEntity
  8
部品1
 48
50.0
100
AcDbText
 10
11268.85112970688
 20
6082.49308330303
 30
0.0
 40
80.0
  1
※a,b,cは屋根の出幅です。
  7
STYLE1
100
AcDbText
  0
MTEXT
  5
1AC2B
102
{ACAD_REACTORS
330
1AC2C
102
}
330
747D
100
AcDbEntity
  8
部品1
 62
     7
 48
50.0
100
AcDbMText
 10
12066.63832569548
 20
6261.803770236106
 30
0.0
 40
120.0
 41
0.0
 71
     6
 72
     1
  1
\A1;屋根の外寸
  7
STYLE1
 73
     1
 44
1.0
1001
ACAD
1000
MTEXTBEGIN
1070
    73
1070
     1
1070
    44
1040
1.0
1070
    74
1070
     0
1000
MTEXTEND
  0
LEADER
  5
1AC2C
330
747D
100
AcDbEntity
  8
寸法
 48
50.0
100
AcDbLeader
  3
INABA_S50G
 73
     0
 74
     0
 75
     1
 40
120.0
 41
672.0
 76
     3
 10
11128.69831350344
 20
6435.693113699681
 30
0.0
 10
11244.63832569548
 20
6176.803770236105
 30
0.0
 10
11369.63832569548
 20
6176.803770236105
 30
0.0
340
1AC2B
1001
ACAD
1000
DSTYLE
1002
{
1070
   341
1005
0
1070
    40
1040
1.0
1070
   343
1005
0
1070
   344
1005
0
1002
}
  0
TEXT
  5
1C7A1
330
747D
100
AcDbEntity
  8
文字
 62
     7
 48
50.0
100
AcDbText
 10
13188.16259899338
 20
79.80631269190417
 30
0.0
 40
80.0
  1
※布基礎には換気口を設けてください。
  7
STYLE2
100
AcDbText
  0
TEXT
  5
1C7E7
330
747D
100
AcDbEntity
  8
文字
 62
     7
 48
50.0
100
AcDbText
 10
13188.16259899338
 20
246.7109242801889
 30
0.0
 40
80.0
  1
※寒冷地等は地域の実情に合わせた基礎にして下さい。
  7
STYLE2
100
AcDbText
  0
TEXT
  5
1C7E8
330
747D
100
AcDbEntity
  8
文字
 62
     7
 48
50.0
100
AcDbText
 10
14325.79230300687
 20
499.5983841039506
 30
0.0
 40
160.0
  1
ＮＸＮ－０９ＤＬ－６
  7
STYLE2
100
AcDbText
  0
TEXT
  5
1C7EC
330
747D
100
AcDbEntity
  8
文字
 62
     7
 48
50.0
100
AcDbText
 10
14524.131837222
 20
1031.557706291229
 30
0.0
 40
100.0
  1
<縮尺> S=1/40
  7
STYLE2
100
AcDbText
  0
TEXT
  5
1C7ED
330
747D
100
AcDbEntity
  8
文字
 62
     7
 48
50.0
100
AcDbText
 10
13201.43669998441
 20
477.2740661031257
 30
0.0
 40
160.0
  1
機種名
  7
STYLE2
100
AcDbText
  0
LINE
  5
1C7EF
330
747D
100
AcDbEntity
  8
文字
 62
     7
 48
50.0
100
AcDbLine
 10
13187.2
 20
400.0
 30
0.0
 11
16227.2
 21
400.0
 31
0.0
  0
MTEXT
  5
1D2D5
102
{ACAD_REACTORS
330
1D2D6
102
}
330
747D
100
AcDbEntity
  8
部品1
 62
     7
 48
50.0
100
AcDbMText
 10
12273.99523070988
 20
7702.088108963907
 30
0.0
 40
120.0
 41
0.0
 71
     6
 72
     1
  1
アンカーボルト
  7
STYLE1
 73
     1
 44
1.0
1001
ACAD
1000
MTEXTBEGIN
1070
    73
1070
     1
1070
    44
1040
1.0
1070
    74
1070
     0
1000
MTEXTEND
  0
LEADER
  5
1D2D6
330
747D
100
AcDbEntity
  8
寸法
 48
50.0
100
AcDbLeader
  3
INABA_S50G
 73
     0
 74
     0
 75
     1
 40
120.0
 41
994.3492424049171
 76
     3
 10
10955.680085757
 20
7263.68320908011
 30
0.0
 10
11129.64598830496
 20
7617.088108963907
 30
0.0
 10
11254.64598830496
 20
7617.088108963907
 30
0.0
340
1D2D5
1001
ACAD
1000
DSTYLE
1002
{
1070
   341
1005
0
1070
    40
1040
1.0
1070
   343
1005
0
1070
   344
1005
0
1002
}
  0
MTEXT
  5
1D332
102
{ACAD_REACTORS
330
1D333
102
}
330
747D
100
AcDbEntity
  8
部品1
 62
     7
 48
50.0
100
AcDbMText
 10
10638.8286970157
 20
6834.262761756798
 30
0.0
 40
120.0
 41
0.0
 71
     6
 72
     1
  1
CB
  7
STYLE1
 73
     1
 44
1.0
1001
ACAD
1000
MTEXTBEGIN
1070
    73
1070
     1
1070
    44
1040
1.0
1070
    74
1070
     0
1000
MTEXTEND
  0
LEADER
  5
1D333
330
747D
100
AcDbEntity
  8
寸法
 48
50.0
100
AcDbLeader
  3
INABA_S50G
 73
     0
 74
     0
 75
     1
 40
120.0
 41
149.591883092037
 76
     3
 10
10211.95401106102
 20
6971.981075311624
 30
0.0
 10
10339.23681392366
 20
6749.262761756799
 30
0.0
 10
10464.23681392366
 20
6749.262761756799
 30
0.0
340
1D332
1001
ACAD
1000
DSTYLE
1002
{
1070
   341
1005
0
1070
    40
1040
1.0
1070
   343
1005
0
1070
   344
1005
0
1002
}
  0
DIMENSION
  5
20DE1
330
747D
100
AcDbEntity
  8
寸法
 48
50.0
100
AcDbDimension
  2
*D19
 10
11123.6
 20
8344.695686780317
 30
0.0
 11
11394.77462120246
 21
8344.695686780317
 31
0.0
 70
   160
  1
a
 71
     5
 42
45.0
  3
INABA_S40G
100
AcDbAlignedDimension
 13
11078.6
 23
7386.475364721398
 33
0.0
 14
11123.6
 24
8112.741822815308
 34
0.0
100
AcDbRotatedDimension
1001
ACAD
1000
DSTYLE
1002
{
1070
   341
1005
0
1002
}
  0
DIMENSION
  5
20DFB
330
747D
100
AcDbEntity
  8
寸法
 48
50.0
100
AcDbDimension
  2
*D20
 10
5368.600000000004
 20
8344.695686780315
 30
0.0
 11
5052.425378797545
 21
8344.695686780315
 31
0.0
 70
   160
  1
a
 71
     5
 42
45.0
  3
INABA_S40G
100
AcDbAlignedDimension
 13
5323.600000000004
 23
8112.741822815307
 33
0.0
 14
5368.600000000004
 24
7386.475364721395
 34
0.0
100
AcDbRotatedDimension
1001
ACAD
1000
DSTYLE
1002
{
1070
   341
1005
0
1002
}
  0
LINE
  5
22711
330
747D
100
AcDbEntity
  8
想像線
 48
10.0
100
AcDbLine
 10
11123.6
 20
7461.475364721401
 30
0.0
 11
5323.600000000004
 21
7461.475364721413
 31
0.0
  0
LINE
  5
22712
330
747D
100
AcDbEntity
  8
想像線
 48
10.0
100
AcDbLine
 10
5323.6
 20
6371.475364721407
 30
0.0
 11
5323.600000000004
 21
7461.475364721401
 31
0.0
  0
LINE
  5
22713
330
747D
100
AcDbEntity
  8
想像線
 48
10.0
100
AcDbLine
 10
11123.6
 20
6371.475364721415
 30
0.0
 11
11123.6
 21
7461.475364721401
 31
0.0
  0
LINE
  5
22714
330
747D
100
AcDbEntity
  8
想像線
 48
10.0
100
AcDbLine
 10
11123.6
 20
6371.475364721415
 30
0.0
 11
5323.6
 21
6371.475364721403
 31
0.0
  0
DIMENSION
  5
22741
330
747D
100
AcDbEntity
  8
寸法
 48
50.0
100
AcDbDimension
  2
*D25
 10
4493.721909610676
 20
7386.475364721395
 30
0.0
 11
4393.721909610674
 21
7423.975364721399
 31
0.0
 70
    32
  1
c
 71
     5
 42
75.00000000000636
  3
INABA_S40G
100
AcDbAlignedDimension
 13
4745.665006330071
 23
7461.475364721401
 33
0.0
 14
5368.600000000004
 24
7386.475364721395
 34
0.0
 50
90.0
100
AcDbRotatedDimension
1001
ACAD
1000
DSTYLE
1002
{
1070
   341
1005
0
1002
}
  0
DIMENSION
  5
2275B
330
747D
100
AcDbEntity
  8
寸法
 48
50.0
100
AcDbDimension
  2
*D26
 10
4493.721909610676
 20
6371.47536472142
 30
0.0
 11
4393.721909610674
 21
6398.975364721408
 31
0.0
 70
    32
  1
b
 71
     5
 42
54.99999999997453
  3
INABA_S40G
100
AcDbAlignedDimension
 13
5368.600000000004
 23
6426.475364721395
 33
0.0
 14
4745.665006330074
 24
6371.47536472142
 34
0.0
 50
90.0
100
AcDbRotatedDimension
1001
ACAD
1000
DSTYLE
1002
{
1070
   341
1005
0
1002
}
  0
DIMENSION
  5
23978
330
747D
100
AcDbEntity
  8
寸法
 48
50.0
100
AcDbDimension
  2
*D27
 10
10423.95750108246
 20
7186.475364721387
 30
0.0
 11
10423.95750108245
 21
7636.046230863122
 31
0.0
 70
   160
 71
     5
 42
200.0
  3
INABA_S40G
100
AcDbAlignedDimension
 13
10623.85468201165
 23
7386.475364721388
 33
0.0
 14
10623.85468201165
 24
7186.475364721387
 34
0.0
 50
90.0
100
AcDbRotatedDimension
1001
ACAD
1000
DSTYLE
1002
{
1070
   341
1005
0
1002
}
  0
DIMENSION
  5
23980
330
747D
100
AcDbEntity
  8
寸法
 48
50.0
100
AcDbDimension
  2
*D28
 10
10423.95750108246
 20
6426.475364721408
 30
0.0
 11
10423.95750108245
 21
6176.904498579677
 31
0.0
 70
   160
 71
     5
 42
280.0000000000073
  3
INABA_S40G
100
AcDbAlignedDimension
 13
10600.09540071157
 23
6706.475364721415
 33
0.0
 14
10698.60000000001
 24
6426.475364721408
 34
0.0
 50
90.0
100
AcDbRotatedDimension
1001
ACAD
1000
DSTYLE
1002
{
1070
   341
1005
0
1002
}
  0
DIMENSION
  5
239DB
330
747D
100
AcDbEntity
  8
寸法
 48
50.0
100
AcDbDimension
  2
*D29
 10
10958.6
 20
7106.163206750785
 30
0.0
 11
11348.65905511811
 21
7106.163206750785
 31
0.0
 70
   160
 71
     5
 42
120.0000000000018
  3
INABA_S40G
100
AcDbAlignedDimension
 13
11078.6
 23
7123.156470789618
 33
0.0
 14
10958.6
 24
7106.163206750785
 34
0.0
100
AcDbRotatedDimension
1001
ACAD
1000
DSTYLE
1002
{
1070
   341
1005
0
1002
}
  0
LINE
  5
259E9
330
747D
100
AcDbEntity
  8
部品1
 48
50.0
100
AcDbLine
 10
10958.6
 20
7186.475364721399
 30
0.0
 11
5488.599999999998
 21
7186.475364721399
 31
0.0
  0
DIMENSION
  5
259EA
330
747D
100
AcDbEntity
  8
寸法
 48
50.0
100
AcDbDimension
  2
*D34
 10
8223.600000000008
 20
7869.084181391646
 30
0.0
 11
8698.600000000007
 21
7969.084181391647
 31
0.0
 70
    32
 71
     5
 42
950.0
  3
INABA_S40G
100
AcDbAlignedDimension
 13
9173.600000000007
 23
6956.475364721399
 33
0.0
 14
8223.600000000008
 24
6956.475364721399
 34
0.0
100
AcDbRotatedDimension
1001
ACAD
1000
DSTYLE
1002
{
1070
   341
1005
0
1002
}
  0
TEXT
  5
259EB
330
747D
100
AcDbEntity
  8
寸法
 48
50.0
100
AcDbText
 10
8256.696499061648
 20
6445.156655514137
 30
0.0
 40
120.0
  1
扉面
  7
STYLE1
100
AcDbText
  0
LINE
  5
259EC
330
747D
100
AcDbEntity
  8
部品1
 48
50.0
100
AcDbLine
 10
11078.6
 20
6426.475364721416
 30
0.0
 11
5368.599999999997
 21
6426.475364721395
 31
0.0
  0
DIMENSION
  5
259EE
330
747D
100
AcDbEntity
  8
寸法
 48
50.0
100
AcDbDimension
  2
*D35
 10
11078.6
 20
8344.695686780317
 30
0.0
 11
8223.600000000001
 21
8444.695686780317
 31
0.0
 70
    32
 71
     5
 42
5710.0
  3
INABA_S40G
100
AcDbAlignedDimension
 13
5368.6
 23
7386.475364721398
 33
0.0
 14
11078.6
 24
7386.475364721398
 34
0.0
100
AcDbRotatedDimension
1001
ACAD
1000
DSTYLE
1002
{
1070
   341
1005
0
1002
}
  0
LINE
  5
259EF
330
747D
100
AcDbEntity
  8
部品1
 48
50.0
100
AcDbLine
 10
11078.6
 20
7386.475364721398
 30
0.0
 11
5368.6
 21
7386.475364721398
 31
0.0
  0
DIMENSION
  5
259F1
330
747D
100
AcDbEntity
  8
寸法
 48
50.0
100
AcDbDimension
  2
*D36
 10
8105.6
 20
8112.741822815308
 30
0.0
 11
9530.600000000001
 21
8212.75363383893
 31
0.0
 70
    32
 71
     5
 42
2850.0
  3
INABA_S40G
100
AcDbAlignedDimension
 13
10955.6
 23
7313.475364721398
 33
0.0
 14
8105.6
 24
7313.475364721398
 34
0.0
100
AcDbRotatedDimension
1001
ACAD
1000
DSTYLE
1002
{
1070
   341
1005
0
1002
}
  0
DIMENSION
  5
259F2
330
747D
100
AcDbEntity
  8
寸法
 48
50.0
100
AcDbDimension
  2
*D37
 10
4745.665006330074
 20
6624.475364721402
 30
0.0
 11
4745.665006330071
 21
6943.975364721399
 31
0.0
 70
   160
 71
     5
 42
638.9999999999964
  3
INABA_S40G
100
AcDbAlignedDimension
 13
5441.600000000001
 23
7263.475364721398
 33
0.0
 14
5441.600000000008
 24
6624.475364721402
 34
0.0
 50
90.0
100
AcDbRotatedDimension
1001
ACAD
1000
DSTYLE
1002
{
1070
   341
1005
0
1002
}
  0
DIMENSION
  5
259F3
330
747D
100
AcDbEntity
  8
寸法
 48
50.0
100
AcDbDimension
  2
*D38
 10
4493.721909610674
 20
6426.475364721397
 30
0.0
 11
4493.721909610672
 21
6943.975364721399
 31
0.0
 70
   160
 71
     5
 42
960.0
  3
INABA_S40G
100
AcDbAlignedDimension
 13
5368.6
 23
7386.475364721398
 33
0.0
 14
5368.6
 24
6426.475364721397
 34
0.0
 50
90.0
100
AcDbRotatedDimension
1001
ACAD
1000
DSTYLE
1002
{
1070
   341
1005
0
1002
}
  0
DIMENSION
  5
259F5
330
747D
100
AcDbEntity
  8
寸法
 48
50.0
100
AcDbDimension
  2
*D39
 10
5851.285990614302
 20
6906.475364721399
 30
0.0
 11
5851.2859906143
 21
6133.916309603299
 31
0.0
 70
   160
 71
     5
 42
479.99999999999
  3
INABA_S40G
100
AcDbAlignedDimension
 13
5942.765475140901
 23
6426.475364721409
 33
0.0
 14
6273.600000000008
 24
6906.475364721399
 34
0.0
 50
90.0
100
AcDbRotatedDimension
1001
ACAD
1000
DSTYLE
1002
{
1070
   341
1005
0
1002
}
  0
LINE
  5
259F6
330
747D
100
AcDbEntity
  8
部品1
 48
50.0
100
AcDbLine
 10
5368.6
 20
6426.475364721397
 30
0.0
 11
5368.6
 21
7386.475364721398
 31
0.0
  0
DIMENSION
  5
259F8
330
747D
100
AcDbEntity
  8
寸法
 48
50.0
100
AcDbDimension
  2
*D40
 10
5255.512673767881
 20
5706.475364721395
 30
0.0
 11
5255.512673767881
 21
6066.475364721395
 31
0.0
 70
   160
  1
扉の出<>
 71
     5
 42
720.0
  3
INABA_S40G
100
AcDbAlignedDimension
 13
5368.600000000004
 23
6426.475364721395
 33
0.0
 14
5724.325326928809
 24
5706.475364721395
 34
0.0
 50
90.0
100
AcDbRotatedDimension
1001
ACAD
1000
DSTYLE
1002
{
1070
   341
1005
0
1002
}
  0
DIMENSION
  5
259FA
330
747D
100
AcDbEntity
  8
寸法
 48
50.0
100
AcDbDimension
  2
*D41
 10
4745.665006330074
 20
6426.475364721397
 30
0.0
 11
4745.665006330071
 21
6090.944415878806
 31
0.0
 70
   160
 71
     5
 42
198.0000000000036
  3
INABA_S40G
100
AcDbAlignedDimension
 13
5441.600000000008
 23
6624.475364721402
 33
0.0
 14
5368.6
 24
6426.475364721397
 34
0.0
 50
90.0
100
AcDbRotatedDimension
1001
ACAD
1000
DSTYLE
1002
{
1070
   341
1005
0
1002
}
  0
ARC
  5
25A01
330
747D
100
AcDbEntity
  8
想像線
 48
5.0
100
AcDbCircle
 10
6138.600000000003
 20
6426.475364721402
 30
0.0
 40
720.0
100
AcDbArc
 50
180.0
 51
270.0
  0
CIRCLE
  5
25A02
330
747D
100
AcDbEntity
  8
部品1
 48
50.0
100
AcDbCircle
 10
5491.599999999993
 20
6624.475364721402
 30
0.0
 40
35.0
  0
LINE
  5
25A03
330
747D
100
AcDbEntity
  8
センター
 48
2.0
100
AcDbLine
 10
5441.600000000008
 20
6624.475364721402
 30
0.0
 11
5541.600000000007
 21
6624.475364721402
 31
0.0
  0
LINE
  5
25A04
330
747D
100
AcDbEntity
  8
センター
 48
2.0
100
AcDbLine
 10
5491.600000000008
 20
6674.475364721402
 30
0.0
 11
5491.600000000008
 21
6574.475364721402
 31
0.0
  0
LINE
  5
25A05
330
747D
100
AcDbEntity
  8
細線
 48
50.0
100
AcDbLine
 10
5884.40436494911
 20
6426.475364721385
 30
0.0
 11
5948.600000000002
 21
6490.670999772276
 31
0.0
  0
LINE
  5
25A06
330
747D
100
AcDbEntity
  8
細線
 48
50.0
100
AcDbLine
 10
5839.503084343764
 20
6426.475364721383
 30
0.0
 11
5948.6
 21
6535.572280377619
 31
0.0
  0
LINE
  5
25A07
330
747D
100
AcDbEntity
  8
細線
 48
50.0
100
AcDbLine
 10
5794.601803738419
 20
6426.475364721383
 30
0.0
 11
5948.599999999995
 21
6580.473560982962
 31
0.0
  0
LINE
  5
25A08
330
747D
100
AcDbEntity
  8
細線
 48
50.0
100
AcDbLine
 10
5749.700523133073
 20
6426.475364721383
 30
0.0
 11
5948.599999999995
 21
6625.374841588308
 31
0.0
  0
LINE
  5
25A09
330
747D
100
AcDbEntity
  8
細線
 48
50.0
100
AcDbLine
 10
5748.6
 20
6470.276122193657
 30
0.0
 11
5948.599999999995
 21
6670.27612219365
 31
0.0
  0
LINE
  5
25A0A
330
747D
100
AcDbEntity
  8
部品1
 48
50.0
100
AcDbLine
 10
5948.599999999993
 20
6706.475364721396
 30
0.0
 11
5948.599999999998
 21
6426.475364721385
 31
0.0
  0
LINE
  5
25A0B
330
747D
100
AcDbEntity
  8
部品1
 48
50.0
100
AcDbLine
 10
5748.599999999999
 20
6706.475364721395
 30
0.0
 11
5748.599999999999
 21
6426.475364721382
 31
0.0
  0
LINE
  5
25A0C
330
747D
100
AcDbEntity
  8
細線
 48
50.0
100
AcDbLine
 10
5929.305645554457
 20
6426.475364721387
 30
0.0
 11
5948.6
 21
6445.769719166928
 31
0.0
  0
LINE
  5
25A0D
330
747D
100
AcDbEntity
  8
細線
 48
50.0
100
AcDbLine
 10
5748.599999999995
 20
6604.979964009834
 30
0.0
 11
5850.095400711557
 21
6706.475364721398
 31
0.0
  0
LINE
  5
25A0E
330
747D
100
AcDbEntity
  8
細線
 48
50.0
100
AcDbLine
 10
5748.599999999997
 20
6515.177402799
 30
0.0
 11
5939.897961922394
 21
6706.475364721398
 31
0.0
  0
LINE
  5
25A0F
330
747D
100
AcDbEntity
  8
細線
 48
50.0
100
AcDbLine
 10
5748.599999999999
 20
6560.078683404346
 30
0.0
 11
5894.996681317034
 21
6706.475364721396
 31
0.0
  0
LINE
  5
25A10
330
747D
100
AcDbEntity
  8
細線
 48
50.0
100
AcDbLine
 10
5748.599999999991
 20
6649.881244615179
 30
0.0
 11
5805.194120106214
 21
6706.475364721398
 31
0.0
  0
LINE
  5
25A11
330
747D
100
AcDbEntity
  8
想像線
 48
5.0
100
AcDbLine
 10
6138.600000000003
 20
6426.475364721413
 30
0.0
 11
6138.600000000003
 21
5706.475364721402
 31
0.0
  0
CIRCLE
  5
25A25
330
747D
100
AcDbEntity
  8
部品1
 48
50.0
100
AcDbCircle
 10
8105.600000000007
 20
6624.475364721402
 30
0.0
 40
35.0
  0
LINE
  5
25A26
330
747D
100
AcDbEntity
  8
センター
 48
2.0
100
AcDbLine
 10
8105.600000000007
 20
6674.475364721402
 30
0.0
 11
8105.600000000007
 21
6574.475364721402
 31
0.0
  0
LINE
  5
25A27
330
747D
100
AcDbEntity
  8
センター
 48
2.0
100
AcDbLine
 10
8055.600000000008
 20
6624.475364721402
 30
0.0
 11
8155.600000000008
 21
6624.475364721402
 31
0.0
  0
DIMENSION
  5
25A29
330
747D
100
AcDbEntity
  8
寸法
 48
50.0
100
AcDbDimension
  2
*D42
 10
4745.665006330072
 20
7263.475364721398
 30
0.0
 11
4745.665006330071
 21
7659.581966439198
 31
0.0
 70
   160
 71
     5
 42
123.0
  3
INABA_S40G
100
AcDbAlignedDimension
 13
5368.6
 23
7386.475364721398
 33
0.0
 14
5441.600000000001
 24
7263.475364721398
 34
0.0
 50
90.0
100
AcDbRotatedDimension
1001
ACAD
1000
DSTYLE
1002
{
1070
   341
1005
0
1002
}
  0
DIMENSION
  5
25A2B
330
747D
100
AcDbEntity
  8
寸法
 48
50.0
100
AcDbDimension
  2
*D43
 10
5368.6
 20
8112.741822815308
 30
0.0
 11
5095.493398282202
 21
8112.741822815308
 31
0.0
 70
   160
 71
     5
 42
123.0
  3
INABA_S40G
100
AcDbAlignedDimension
 13
5491.6
 23
7313.475364721398
 33
0.0
 14
5368.6
 24
7386.475364721398
 34
0.0
100
AcDbRotatedDimension
1001
ACAD
1000
DSTYLE
1002
{
1070
   341
1005
0
1002
}
  0
LINE
  5
25A2C
330
747D
100
AcDbEntity
  8
細線
 48
50.0
100
AcDbLine
 10
6786.181314052919
 20
7186.475364721399
 30
0.0
 11
6898.6
 21
7298.894050668498
 31
0.0
  0
LINE
  5
25A2D
330
747D
100
AcDbEntity
  8
細線
 48
50.0
100
AcDbLine
 10
6741.280033447555
 20
7186.475364721397
 30
0.0
 11
6898.6
 21
7343.795331273843
 31
0.0
  0
LINE
  5
25A2E
330
747D
100
AcDbEntity
  8
細線
 48
50.0
100
AcDbLine
 10
6698.6
 20
7188.696611879187
 30
0.0
 11
6896.37875284219
 21
7386.47536472138
 31
0.0
  0
LINE
  5
25A2F
330
747D
100
AcDbEntity
  8
細線
 48
50.0
100
AcDbLine
 10
6698.6
 20
7233.597892484533
 30
0.0
 11
6851.477472236847
 21
7386.475364721381
 31
0.0
  0
LINE
  5
25A30
330
747D
100
AcDbEntity
  8
細線
 48
50.0
100
AcDbLine
 10
6698.599999999998
 20
7278.49917308988
 30
0.0
 11
6806.576191631501
 21
7386.47536472138
 31
0.0
  0
DIMENSION
  5
25A31
330
747D
100
AcDbEntity
  8
寸法
 48
50.0
100
AcDbDimension
  2
*D44
 10
6323.600000000007
 20
7869.084181391646
 30
0.0
 11
6798.600000000007
 21
7969.084181391647
 31
0.0
 70
    32
 71
     5
 42
950.0
  3
INABA_S40G
100
AcDbAlignedDimension
 13
7273.600000000008
 23
6956.475364721399
 33
0.0
 14
6323.600000000007
 24
6956.475364721399
 34
0.0
100
AcDbRotatedDimension
1001
ACAD
1000
DSTYLE
1002
{
1070
   341
1005
0
1002
}
  0
DIMENSION
  5
25A34
330
747D
100
AcDbEntity
  8
寸法
 48
50.0
100
AcDbDimension
  2
*D45
 10
5491.6
 20
8112.741822815308
 30
0.0
 11
6798.6
 21
8212.75363383893
 31
0.0
 70
    32
 71
     5
 42
2614.0
  3
INABA_S40G
100
AcDbAlignedDimension
 13
8105.6
 23
7313.475364721398
 33
0.0
 14
5491.6
 24
7313.475364721398
 34
0.0
100
AcDbRotatedDimension
1001
ACAD
1000
DSTYLE
1002
{
1070
   341
1005
0
1002
}
  0
DIMENSION
  5
25A35
330
747D
100
AcDbEntity
  8
寸法
 48
50.0
100
AcDbDimension
  2
*D46
 10
5368.6
 20
7869.084181391646
 30
0.0
 11
5846.100000000004
 21
7969.084181391647
 31
0.0
 70
    32
 71
     5
 42
955.0000000000073
  3
INABA_S40G
100
AcDbAlignedDimension
 13
6323.600000000007
 23
6956.475364721399
 33
0.0
 14
5368.6
 24
7386.475364721398
 34
0.0
100
AcDbRotatedDimension
1001
ACAD
1000
DSTYLE
1002
{
1070
   341
1005
0
1002
}
  0
DIMENSION
  5
25A36
330
747D
100
AcDbEntity
  8
寸法
 48
50.0
100
AcDbDimension
  2
*D47
 10
5851.285990614301
 20
7386.475364721398
 30
0.0
 11
5851.2859906143
 21
7679.03441983951
 31
0.0
 70
   160
 71
     5
 42
479.999999999999
  3
INABA_S40G
100
AcDbAlignedDimension
 13
6273.600000000008
 23
6906.475364721399
 33
0.0
 14
5942.765475140901
 24
7386.475364721398
 34
0.0
 50
90.0
100
AcDbRotatedDimension
1001
ACAD
1000
DSTYLE
1002
{
1070
   341
1005
0
1002
}
  0
LINE
  5
25A37
330
747D
100
AcDbEntity
  8
細線
 48
50.0
100
AcDbLine
 10
5748.6
 20
7188.696611879191
 30
0.0
 11
5946.378752842191
 21
7386.47536472138
 31
0.0
  0
LINE
  5
25A38
330
747D
100
AcDbEntity
  8
細線
 48
50.0
100
AcDbLine
 10
5748.599999999999
 20
7233.597892484532
 30
0.0
 11
5901.477472236848
 21
7386.475364721381
 31
0.0
  0
LINE
  5
25A39
330
747D
100
AcDbEntity
  8
細線
 48
50.0
100
AcDbLine
 10
5748.599999999999
 20
7278.499173089878
 30
0.0
 11
5856.5761916315
 21
7386.47536472138
 31
0.0
  0
LINE
  5
25A3A
330
747D
100
AcDbEntity
  8
細線
 48
50.0
100
AcDbLine
 10
5748.6
 20
7323.400453695225
 30
0.0
 11
5811.674911026157
 21
7386.475364721381
 31
0.0
  0
LINE
  5
25A3B
330
747D
100
AcDbEntity
  8
部品1
 48
50.0
100
AcDbLine
 10
5948.599999999997
 20
7386.475364721381
 30
0.0
 11
5948.6
 21
7186.475364721397
 31
0.0
  0
LINE
  5
25A3C
330
747D
100
AcDbEntity
  8
部品1
 48
50.0
100
AcDbLine
 10
5748.599999999997
 20
7386.475364721381
 30
0.0
 11
5748.6
 21
7186.475364721397
 31
0.0
  0
LINE
  5
25A3D
330
747D
100
AcDbEntity
  8
細線
 48
50.0
100
AcDbLine
 10
5461.082594658247
 20
6831.475364721384
 30
0.0
 11
5488.600000000001
 21
6858.992770063129
 31
0.0
  0
LINE
  5
25A3E
330
747D
100
AcDbEntity
  8
細線
 48
50.0
100
AcDbLine
 10
5416.181314052905
 20
6831.475364721388
 30
0.0
 11
5488.600000000001
 21
6903.894050668485
 31
0.0
  0
LINE
  5
25A3F
330
747D
100
AcDbEntity
  8
細線
 48
50.0
100
AcDbLine
 10
5371.280033447556
 20
6831.475364721386
 30
0.0
 11
5488.6
 21
6948.79533127383
 31
0.0
  0
LINE
  5
25A40
330
747D
100
AcDbEntity
  8
細線
 48
50.0
100
AcDbLine
 10
5368.6
 20
6873.696611879174
 30
0.0
 11
5488.600000000001
 21
6993.696611879174
 31
0.0
  0
LINE
  5
25A41
330
747D
100
AcDbEntity
  8
細線
 48
50.0
100
AcDbLine
 10
5368.6
 20
6918.59789248452
 30
0.0
 11
5481.477472236864
 21
7031.475364721387
 31
0.0
  0
LINE
  5
25A42
330
747D
100
AcDbEntity
  8
細線
 48
50.0
100
AcDbLine
 10
5368.599999999998
 20
6963.499173089866
 30
0.0
 11
5436.57619163152
 21
7031.475364721386
 31
0.0
  0
LINE
  5
25A43
330
747D
100
AcDbEntity
  8
細線
 48
50.0
100
AcDbLine
 10
5368.6
 20
7008.400453695212
 30
0.0
 11
5391.674911026175
 21
7031.475364721386
 31
0.0
  0
LINE
  5
25A44
330
747D
100
AcDbEntity
  8
部品1
 48
50.0
100
AcDbLine
 10
5488.6
 20
7031.475364721387
 30
0.0
 11
5368.599999999998
 21
7031.475364721387
 31
0.0
  0
LINE
  5
25A45
330
747D
100
AcDbEntity
  8
部品1
 48
50.0
100
AcDbLine
 10
5488.600000000002
 20
6831.475364721389
 30
0.0
 11
5368.599999999998
 21
6831.475364721388
 31
0.0
  0
CIRCLE
  5
25A46
330
747D
100
AcDbEntity
  8
部品1
 48
50.0
100
AcDbCircle
 10
5491.6
 20
7263.475364721398
 30
0.0
 40
35.0
  0
LINE
  5
25A47
330
747D
100
AcDbEntity
  8
センター
 48
2.0
100
AcDbLine
 10
5441.600000000001
 20
7263.475364721398
 30
0.0
 11
5541.6
 21
7263.475364721398
 31
0.0
  0
LINE
  5
25A48
330
747D
100
AcDbEntity
  8
センター
 48
2.0
100
AcDbLine
 10
5491.6
 20
7313.475364721398
 30
0.0
 11
5491.6
 21
7213.475364721398
 31
0.0
  0
LINE
  5
25A49
330
747D
100
AcDbEntity
  8
細線
 48
50.0
100
AcDbLine
 10
5925.983875263591
 20
7186.475364721516
 30
0.0
 11
5948.599999999998
 21
7209.09148945793
 31
0.0
  0
LINE
  5
25A4A
330
747D
100
AcDbEntity
  8
細線
 48
50.0
100
AcDbLine
 10
5881.082594658233
 20
7186.475364721516
 30
0.0
 11
5948.599999999998
 21
7253.992770063279
 31
0.0
  0
LINE
  5
25A4B
330
747D
100
AcDbEntity
  8
細線
 48
50.0
100
AcDbLine
 10
5836.181314052903
 20
7186.475364721399
 30
0.0
 11
5948.6
 21
7298.894050668497
 31
0.0
  0
LINE
  5
25A4C
330
747D
100
AcDbEntity
  8
細線
 48
50.0
100
AcDbLine
 10
5791.280033447556
 20
7186.475364721397
 30
0.0
 11
5948.599999999998
 21
7343.795331273842
 31
0.0
  0
LINE
  5
25A4D
330
747D
100
AcDbEntity
  8
細線
 48
50.0
100
AcDbLine
 10
5748.599999999997
 20
7368.301734300567
 30
0.0
 11
5766.773630420812
 21
7386.475364721383
 31
0.0
  0
LINE
  5
25A4E
330
747D
100
AcDbEntity
  8
細線
 48
50.0
100
AcDbLine
 10
6698.6
 20
7323.400453695225
 30
0.0
 11
6761.674911026154
 21
7386.47536472138
 31
0.0
  0
LINE
  5
25A4F
330
747D
100
AcDbEntity
  8
部品1
 48
50.0
100
AcDbLine
 10
6698.599999999996
 20
7386.475364721381
 30
0.0
 11
6698.6
 21
7186.475364721397
 31
0.0
  0
LINE
  5
25A50
330
747D
100
AcDbEntity
  8
部品1
 48
50.0
100
AcDbLine
 10
6423.600000000007
 20
6806.475364721399
 30
0.0
 11
6223.600000000008
 21
6806.475364721399
 31
0.0
  0
LINE
  5
25A51
330
747D
100
AcDbEntity
  8
部品1
 48
50.0
100
AcDbLine
 10
6423.600000000007
 20
7006.475364721399
 30
0.0
 11
6223.600000000008
 21
7006.475364721399
 31
0.0
  0
LINE
  5
25A52
330
747D
100
AcDbEntity
  8
センター
 48
2.0
100
AcDbLine
 10
6273.600000000008
 20
6906.475364721399
 30
0.0
 11
6373.600000000007
 21
6906.475364721399
 31
0.0
  0
LINE
  5
25A53
330
747D
100
AcDbEntity
  8
センター
 48
2.0
100
AcDbLine
 10
6323.600000000007
 20
6956.475364721399
 30
0.0
 11
6323.600000000007
 21
6856.475364721399
 31
0.0
  0
LINE
  5
25A54
330
747D
100
AcDbEntity
  8
部品1
 48
50.0
100
AcDbLine
 10
6223.600000000008
 20
6806.475364721399
 30
0.0
 11
6223.600000000008
 21
7006.475364721399
 31
0.0
  0
LINE
  5
25A55
330
747D
100
AcDbEntity
  8
部品1
 48
50.0
100
AcDbLine
 10
6423.600000000007
 20
6806.475364721399
 30
0.0
 11
6423.600000000007
 21
7006.475364721399
 31
0.0
  0
LINE
  5
25A56
330
747D
100
AcDbEntity
  8
細線
 48
50.0
100
AcDbLine
 10
6698.599999999998
 20
7368.30173430057
 30
0.0
 11
6716.77363042081
 21
7386.475364721381
 31
0.0
  0
DIMENSION
  5
25A57
330
747D
100
AcDbEntity
  8
寸法
 48
50.0
100
AcDbDimension
  2
*D30
 10
7273.600000000008
 20
7869.084181391646
 30
0.0
 11
7748.600000000007
 21
7969.084181391647
 31
0.0
 70
    32
 71
     5
 42
950.0
  3
INABA_S40G
100
AcDbAlignedDimension
 13
8223.600000000008
 23
6956.475364721399
 33
0.0
 14
7273.600000000008
 24
6956.475364721399
 34
0.0
100
AcDbRotatedDimension
1001
ACAD
1000
DSTYLE
1002
{
1070
   341
1005
0
1002
}
  0
LINE
  5
25A59
330
747D
100
AcDbEntity
  8
部品1
 48
50.0
100
AcDbLine
 10
6898.599999999998
 20
7386.475364721381
 30
0.0
 11
6898.600000000005
 21
7186.475364721397
 31
0.0
  0
LINE
  5
25A5A
330
747D
100
AcDbEntity
  8
部品1
 48
50.0
100
AcDbLine
 10
7373.600000000007
 20
6806.475364721399
 30
0.0
 11
7173.600000000007
 21
6806.475364721399
 31
0.0
  0
LINE
  5
25A5B
330
747D
100
AcDbEntity
  8
部品1
 48
50.0
100
AcDbLine
 10
7373.600000000007
 20
7006.475364721399
 30
0.0
 11
7173.600000000007
 21
7006.475364721399
 31
0.0
  0
LINE
  5
25A5C
330
747D
100
AcDbEntity
  8
部品1
 48
50.0
100
AcDbLine
 10
7173.600000000007
 20
6806.475364721399
 30
0.0
 11
7173.600000000007
 21
7006.475364721399
 31
0.0
  0
LINE
  5
25A5D
330
747D
100
AcDbEntity
  8
細線
 48
50.0
100
AcDbLine
 10
6831.08259465823
 20
7186.475364721516
 30
0.0
 11
6898.599999999992
 21
7253.992770063279
 31
0.0
  0
LINE
  5
25A5E
330
747D
100
AcDbEntity
  8
細線
 48
50.0
100
AcDbLine
 10
6875.983875263584
 20
7186.475364721516
 30
0.0
 11
6898.599999999992
 21
7209.09148945793
 31
0.0
  0
LINE
  5
25A5F
330
747D
100
AcDbEntity
  8
部品1
 48
50.0
100
AcDbLine
 10
7373.600000000007
 20
6806.475364721399
 30
0.0
 11
7373.600000000007
 21
7006.475364721399
 31
0.0
  0
LINE
  5
25A60
330
747D
100
AcDbEntity
  8
センター
 48
2.0
100
AcDbLine
 10
7273.600000000008
 20
6956.475364721399
 30
0.0
 11
7273.600000000008
 21
6856.475364721399
 31
0.0
  0
LINE
  5
25A61
330
747D
100
AcDbEntity
  8
センター
 48
2.0
100
AcDbLine
 10
7223.600000000008
 20
6906.475364721399
 30
0.0
 11
7323.600000000007
 21
6906.475364721399
 31
0.0
  0
LINE
  5
25A62
330
747D
100
AcDbEntity
  8
細線
 48
50.0
100
AcDbLine
 10
7648.600000000001
 20
7188.696611879191
 30
0.0
 11
7846.378752842195
 21
7386.475364721386
 31
0.0
  0
LINE
  5
25A63
330
747D
100
AcDbEntity
  8
細線
 48
50.0
100
AcDbLine
 10
7648.600000000001
 20
7233.59789248454
 30
0.0
 11
7801.477472236847
 21
7386.475364721388
 31
0.0
  0
LINE
  5
25A64
330
747D
100
AcDbEntity
  8
細線
 48
50.0
100
AcDbLine
 10
7648.6
 20
7278.499173089882
 30
0.0
 11
7756.576191631502
 21
7386.475364721386
 31
0.0
  0
LINE
  5
25A65
330
747D
100
AcDbEntity
  8
細線
 48
50.0
100
AcDbLine
 10
7648.6
 20
7323.400453695228
 30
0.0
 11
7711.674911026157
 21
7386.475364721388
 31
0.0
  0
LINE
  5
25A66
330
747D
100
AcDbEntity
  8
部品1
 48
50.0
100
AcDbLine
 10
7848.599999999997
 20
7386.475364721386
 30
0.0
 11
7848.600000000004
 21
7186.475364721397
 31
0.0
  0
LINE
  5
25A67
330
747D
100
AcDbEntity
  8
部品1
 48
50.0
100
AcDbLine
 10
7648.599999999998
 20
7386.475364721386
 30
0.0
 11
7648.600000000005
 21
7186.475364721397
 31
0.0
  0
LINE
  5
25A68
330
747D
100
AcDbEntity
  8
細線
 48
50.0
100
AcDbLine
 10
7825.983875263593
 20
7186.475364721506
 30
0.0
 11
7848.600000000001
 21
7209.091489457918
 31
0.0
  0
LINE
  5
25A69
330
747D
100
AcDbEntity
  8
細線
 48
50.0
100
AcDbLine
 10
7781.082594658236
 20
7186.475364721506
 30
0.0
 11
7848.600000000001
 21
7253.992770063267
 31
0.0
  0
LINE
  5
25A6A
330
747D
100
AcDbEntity
  8
細線
 48
50.0
100
AcDbLine
 10
7736.181314052898
 20
7186.475364721399
 30
0.0
 11
7848.600000000001
 21
7298.894050668502
 31
0.0
  0
LINE
  5
25A6B
330
747D
100
AcDbEntity
  8
細線
 48
50.0
100
AcDbLine
 10
7691.280033447545
 20
7186.475364721397
 30
0.0
 11
7848.599999999999
 21
7343.795331273844
 31
0.0
  0
LINE
  5
25A6C
330
747D
100
AcDbEntity
  8
センター
 48
2.0
100
AcDbLine
 10
8173.600000000007
 20
6906.475364721399
 30
0.0
 11
8273.600000000007
 21
6906.475364721399
 31
0.0
  0
LINE
  5
25A6D
330
747D
100
AcDbEntity
  8
部品1
 48
50.0
100
AcDbLine
 10
8323.600000000007
 20
6806.475364721399
 30
0.0
 11
8123.600000000008
 21
6806.475364721399
 31
0.0
  0
LINE
  5
25A6E
330
747D
100
AcDbEntity
  8
部品1
 48
50.0
100
AcDbLine
 10
8323.600000000007
 20
7006.475364721399
 30
0.0
 11
8123.600000000008
 21
7006.475364721399
 31
0.0
  0
LINE
  5
25A6F
330
747D
100
AcDbEntity
  8
センター
 48
2.0
100
AcDbLine
 10
8223.600000000008
 20
6956.475364721399
 30
0.0
 11
8223.600000000008
 21
6856.475364721399
 31
0.0
  0
LINE
  5
25A70
330
747D
100
AcDbEntity
  8
部品1
 48
50.0
100
AcDbLine
 10
8123.600000000008
 20
6806.475364721399
 30
0.0
 11
8123.600000000008
 21
7006.475364721399
 31
0.0
  0
LINE
  5
25A71
330
747D
100
AcDbEntity
  8
部品1
 48
50.0
100
AcDbLine
 10
8323.600000000007
 20
6806.475364721399
 30
0.0
 11
8323.600000000007
 21
7006.475364721399
 31
0.0
  0
CIRCLE
  5
25A72
330
747D
100
AcDbEntity
  8
部品1
 48
50.0
100
AcDbCircle
 10
8105.6
 20
7263.475364721398
 30
0.0
 40
35.0
  0
LINE
  5
25A73
330
747D
100
AcDbEntity
  8
センター
 48
2.0
100
AcDbLine
 10
8105.6
 20
7313.475364721398
 30
0.0
 11
8105.6
 21
7213.475364721398
 31
0.0
  0
LINE
  5
25A74
330
747D
100
AcDbEntity
  8
センター
 48
2.0
100
AcDbLine
 10
8055.600000000001
 20
7263.475364721398
 30
0.0
 11
8155.600000000001
 21
7263.475364721398
 31
0.0
  0
LINE
  5
25A75
330
747D
100
AcDbEntity
  8
細線
 48
50.0
100
AcDbLine
 10
7648.599999999998
 20
7368.301734300572
 30
0.0
 11
7666.773630420812
 21
7386.475364721388
 31
0.0
  0
LINE
  5
25A7A
330
747D
100
AcDbEntity
  8
部品1
 48
50.0
100
AcDbLine
 10
11078.6
 20
6426.475364721416
 30
0.0
 11
11078.6
 21
7386.475364721398
 31
0.0
  0
LINE
  5
25AA3
330
747D
100
AcDbEntity
  8
センター
 48
2.0
100
AcDbLine
 10
10905.60000000001
 20
6624.475364721402
 30
0.0
 11
11005.60000000001
 21
6624.475364721402
 31
0.0
  0
CIRCLE
  5
25AA4
330
747D
100
AcDbEntity
  8
部品1
 48
50.0
100
AcDbCircle
 10
10955.6
 20
6624.475364721402
 30
0.0
 40
35.0
  0
LINE
  5
25AA5
330
747D
100
AcDbEntity
  8
センター
 48
2.0
100
AcDbLine
 10
10955.6
 20
6674.475364721402
 30
0.0
 11
10955.6
 21
6574.475364721402
 31
0.0
  0
LINE
  5
25AA6
330
747D
100
AcDbEntity
  8
センター
 48
2.0
100
AcDbLine
 10
10073.60000000001
 20
6906.475364721399
 30
0.0
 11
10173.6
 21
6906.475364721399
 31
0.0
  0
LINE
  5
25AA7
330
747D
100
AcDbEntity
  8
部品1
 48
50.0
100
AcDbLine
 10
10223.60000000001
 20
6806.475364721399
 30
0.0
 11
10023.60000000001
 21
6806.475364721399
 31
0.0
  0
LINE
  5
25AA8
330
747D
100
AcDbEntity
  8
部品1
 48
50.0
100
AcDbLine
 10
10223.60000000001
 20
7006.475364721399
 30
0.0
 11
10023.60000000001
 21
7006.475364721399
 31
0.0
  0
DIMENSION
  5
25AA9
330
747D
100
AcDbEntity
  8
寸法
 48
50.0
100
AcDbDimension
  2
*D31
 10
9173.600000000007
 20
7869.084181391646
 30
0.0
 11
9648.600000000008
 21
7969.084181391647
 31
0.0
 70
    32
 71
     5
 42
950.0
  3
INABA_S40G
100
AcDbAlignedDimension
 13
10123.60000000001
 23
6956.475364721399
 33
0.0
 14
9173.600000000007
 24
6956.475364721399
 34
0.0
100
AcDbRotatedDimension
1001
ACAD
1000
DSTYLE
1002
{
1070
   341
1005
0
1002
}
  0
LINE
  5
25AAA
330
747D
100
AcDbEntity
  8
部品1
 48
50.0
100
AcDbLine
 10
9273.600000000007
 20
7006.475364721399
 30
0.0
 11
9073.600000000007
 21
7006.475364721399
 31
0.0
  0
LINE
  5
25AAB
330
747D
100
AcDbEntity
  8
部品1
 48
50.0
100
AcDbLine
 10
9273.600000000007
 20
6806.475364721399
 30
0.0
 11
9073.600000000007
 21
6806.475364721399
 31
0.0
  0
LINE
  5
25AAC
330
747D
100
AcDbEntity
  8
細線
 48
50.0
100
AcDbLine
 10
8598.600000000001
 20
7188.696611879207
 30
0.0
 11
8796.378752842191
 21
7386.475364721404
 31
0.0
  0
LINE
  5
25AAD
330
747D
100
AcDbEntity
  8
細線
 48
50.0
100
AcDbLine
 10
8598.599999999997
 20
7233.597892484553
 30
0.0
 11
8751.477472236846
 21
7386.475364721404
 31
0.0
  0
LINE
  5
25AAE
330
747D
100
AcDbEntity
  8
細線
 48
50.0
100
AcDbLine
 10
8598.599999999999
 20
7278.499173089901
 30
0.0
 11
8706.576191631501
 21
7386.475364721404
 31
0.0
  0
LINE
  5
25AAF
330
747D
100
AcDbEntity
  8
細線
 48
50.0
100
AcDbLine
 10
8598.599999999997
 20
7323.400453695247
 30
0.0
 11
8661.674911026159
 21
7386.475364721405
 31
0.0
  0
LINE
  5
25AB0
330
747D
100
AcDbEntity
  8
部品1
 48
50.0
100
AcDbLine
 10
8798.599999999993
 20
7386.475364721404
 30
0.0
 11
8798.6
 21
7186.475364721397
 31
0.0
  0
LINE
  5
25AB1
330
747D
100
AcDbEntity
  8
部品1
 48
50.0
100
AcDbLine
 10
8598.599999999994
 20
7386.475364721404
 30
0.0
 11
8598.600000000001
 21
7186.475364721397
 31
0.0
  0
LINE
  5
25AB2
330
747D
100
AcDbEntity
  8
細線
 48
50.0
100
AcDbLine
 10
8641.280033447529
 20
7186.475364721397
 30
0.0
 11
8798.599999999995
 21
7343.795331273861
 31
0.0
  0
LINE
  5
25AB3
330
747D
100
AcDbEntity
  8
細線
 48
50.0
100
AcDbLine
 10
8731.08259465823
 20
7186.475364721506
 30
0.0
 11
8798.599999999993
 21
7253.992770063267
 31
0.0
  0
LINE
  5
25AB4
330
747D
100
AcDbEntity
  8
細線
 48
50.0
100
AcDbLine
 10
8775.983875263586
 20
7186.475364721506
 30
0.0
 11
8798.599999999993
 21
7209.091489457918
 31
0.0
  0
LINE
  5
25AB5
330
747D
100
AcDbEntity
  8
細線
 48
50.0
100
AcDbLine
 10
8686.18131405288
 20
7186.475364721399
 30
0.0
 11
8798.599999999998
 21
7298.894050668517
 31
0.0
  0
LINE
  5
25AB6
330
747D
100
AcDbEntity
  8
部品1
 48
50.0
100
AcDbLine
 10
9073.600000000007
 20
6806.475364721399
 30
0.0
 11
9073.600000000007
 21
7006.475364721399
 31
0.0
  0
LINE
  5
25AB7
330
747D
100
AcDbEntity
  8
センター
 48
2.0
100
AcDbLine
 10
9173.600000000007
 20
6956.475364721399
 30
0.0
 11
9173.600000000007
 21
6856.475364721399
 31
0.0
  0
LINE
  5
25AB8
330
747D
100
AcDbEntity
  8
センター
 48
2.0
100
AcDbLine
 10
9123.600000000008
 20
6906.475364721399
 30
0.0
 11
9223.600000000008
 21
6906.475364721399
 31
0.0
  0
LINE
  5
25AB9
330
747D
100
AcDbEntity
  8
細線
 48
50.0
100
AcDbLine
 10
8598.599999999994
 20
7368.30173430059
 30
0.0
 11
8616.773630420809
 21
7386.475364721404
 31
0.0
  0
LINE
  5
25ABA
330
747D
100
AcDbEntity
  8
細線
 48
50.0
100
AcDbLine
 10
9548.600000000002
 20
7188.696611879213
 30
0.0
 11
9746.378752842195
 21
7386.475364721407
 31
0.0
  0
LINE
  5
25ABB
330
747D
100
AcDbEntity
  8
細線
 48
50.0
100
AcDbLine
 10
9548.600000000005
 20
7233.597892484559
 30
0.0
 11
9701.477472236851
 21
7386.475364721409
 31
0.0
  0
LINE
  5
25ABC
330
747D
100
AcDbEntity
  8
細線
 48
50.0
100
AcDbLine
 10
9548.6
 20
7278.499173089904
 30
0.0
 11
9656.576191631504
 21
7386.475364721407
 31
0.0
  0
LINE
  5
25ABD
330
747D
100
AcDbEntity
  8
細線
 48
50.0
100
AcDbLine
 10
9548.6
 20
7323.400453695251
 30
0.0
 11
9611.674911026161
 21
7386.47536472141
 31
0.0
  0
LINE
  5
25ABE
330
747D
100
AcDbEntity
  8
部品1
 48
50.0
100
AcDbLine
 10
9748.599999999997
 20
7386.475364721407
 30
0.0
 11
9748.600000000005
 21
7186.475364721397
 31
0.0
  0
LINE
  5
25ABF
330
747D
100
AcDbEntity
  8
部品1
 48
50.0
100
AcDbLine
 10
9548.599999999998
 20
7386.475364721407
 30
0.0
 11
9548.600000000002
 21
7186.475364721397
 31
0.0
  0
LINE
  5
25AC0
330
747D
100
AcDbEntity
  8
細線
 48
50.0
100
AcDbLine
 10
9636.181314052878
 20
7186.475364721399
 30
0.0
 11
9748.600000000003
 21
7298.894050668522
 31
0.0
  0
LINE
  5
25AC1
330
747D
100
AcDbEntity
  8
細線
 48
50.0
100
AcDbLine
 10
9591.28003344753
 20
7186.475364721397
 30
0.0
 11
9748.599999999999
 21
7343.795331273864
 31
0.0
  0
LINE
  5
25AC2
330
747D
100
AcDbEntity
  8
部品1
 48
50.0
100
AcDbLine
 10
9273.600000000007
 20
6806.475364721399
 30
0.0
 11
9273.600000000007
 21
7006.475364721399
 31
0.0
  0
LINE
  5
25AC3
330
747D
100
AcDbEntity
  8
部品1
 48
50.0
100
AcDbLine
 10
10023.60000000001
 20
6806.475364721399
 30
0.0
 11
10023.60000000001
 21
7006.475364721399
 31
0.0
  0
LINE
  5
25AC4
330
747D
100
AcDbEntity
  8
細線
 48
50.0
100
AcDbLine
 10
9725.983875263587
 20
7186.475364721515
 30
0.0
 11
9748.599999999994
 21
7209.091489457927
 31
0.0
  0
LINE
  5
25AC5
330
747D
100
AcDbEntity
  8
細線
 48
50.0
100
AcDbLine
 10
9681.082594658233
 20
7186.475364721515
 30
0.0
 11
9748.599999999994
 21
7253.992770063276
 31
0.0
  0
LINE
  5
25AC6
330
747D
100
AcDbEntity
  8
細線
 48
50.0
100
AcDbLine
 10
9548.599999999998
 20
7368.301734300593
 30
0.0
 11
9566.773630420813
 21
7386.475364721409
 31
0.0
  0
DIMENSION
  5
25AC7
330
747D
100
AcDbEntity
  8
寸法
 48
50.0
100
AcDbDimension
  2
*D32
 10
10123.60000000001
 20
7869.084181391646
 30
0.0
 11
10601.1
 21
7969.084181391647
 31
0.0
 70
    32
 71
     5
 42
954.9999999999927
  3
INABA_S40G
100
AcDbAlignedDimension
 13
11078.6
 23
7386.475364721398
 33
0.0
 14
10123.60000000001
 24
6956.475364721399
 34
0.0
100
AcDbRotatedDimension
1001
ACAD
1000
DSTYLE
1002
{
1070
   341
1005
0
1002
}
  0
DIMENSION
  5
25AC9
330
747D
100
AcDbEntity
  8
寸法
 48
50.0
100
AcDbDimension
  2
*D33
 10
10955.6
 20
8112.741822815308
 30
0.0
 11
11351.7066017178
 21
8112.741822815308
 31
0.0
 70
   160
 71
     5
 42
123.0
  3
INABA_S40G
100
AcDbAlignedDimension
 13
11078.6
 23
7386.475364721398
 33
0.0
 14
10955.6
 24
7313.475364721398
 34
0.0
100
AcDbRotatedDimension
1001
ACAD
1000
DSTYLE
1002
{
1070
   341
1005
0
1002
}
  0
LINE
  5
25ACA
330
747D
100
AcDbEntity
  8
細線
 48
50.0
100
AcDbLine
 10
10498.59999999999
 20
7188.69661187924
 30
0.0
 11
10696.37875284219
 21
7386.47536472143
 31
0.0
  0
LINE
  5
25ACB
330
747D
100
AcDbEntity
  8
細線
 48
50.0
100
AcDbLine
 10
10498.59999999999
 20
7233.597892484581
 30
0.0
 11
10651.47747223684
 21
7386.475364721428
 31
0.0
  0
LINE
  5
25ACC
330
747D
100
AcDbEntity
  8
細線
 48
50.0
100
AcDbLine
 10
10498.59999999999
 20
7278.499173089923
 30
0.0
 11
10606.5761916315
 21
7386.47536472143
 31
0.0
  0
LINE
  5
25ACD
330
747D
100
AcDbEntity
  8
細線
 48
50.0
100
AcDbLine
 10
10498.59999999999
 20
7323.400453695272
 30
0.0
 11
10561.67491102615
 21
7386.47536472143
 31
0.0
  0
LINE
  5
25ACE
330
747D
100
AcDbEntity
  8
部品1
 48
50.0
100
AcDbLine
 10
10698.59999999999
 20
7386.47536472143
 30
0.0
 11
10698.6
 21
7186.475364721397
 31
0.0
  0
LINE
  5
25ACF
330
747D
100
AcDbEntity
  8
部品1
 48
50.0
100
AcDbLine
 10
10498.59999999999
 20
7386.47536472143
 30
0.0
 11
10498.6
 21
7186.475364721397
 31
0.0
  0
LINE
  5
25AD0
330
747D
100
AcDbEntity
  8
部品1
 48
50.0
100
AcDbLine
 10
10223.60000000001
 20
6806.475364721399
 30
0.0
 11
10223.60000000001
 21
7006.475364721399
 31
0.0
  0
LINE
  5
25AD1
330
747D
100
AcDbEntity
  8
センター
 48
2.0
100
AcDbLine
 10
10123.60000000001
 20
6956.475364721399
 30
0.0
 11
10123.60000000001
 21
6856.475364721399
 31
0.0
  0
LINE
  5
25AD2
330
747D
100
AcDbEntity
  8
細線
 48
50.0
100
AcDbLine
 10
10675.98387526358
 20
7186.475364721515
 30
0.0
 11
10698.59999999999
 21
7209.091489457927
 31
0.0
  0
LINE
  5
25AD3
330
747D
100
AcDbEntity
  8
細線
 48
50.0
100
AcDbLine
 10
10631.08259465822
 20
7186.475364721515
 30
0.0
 11
10698.59999999999
 21
7253.992770063276
 31
0.0
  0
LINE
  5
25AD4
330
747D
100
AcDbEntity
  8
細線
 48
50.0
100
AcDbLine
 10
10586.18131405283
 20
7186.475364721399
 30
0.0
 11
10698.59999999999
 21
7298.894050668542
 31
0.0
  0
LINE
  5
25AD5
330
747D
100
AcDbEntity
  8
細線
 48
50.0
100
AcDbLine
 10
10541.28003344749
 20
7186.475364721397
 30
0.0
 11
10698.59999999999
 21
7343.795331273887
 31
0.0
  0
LINE
  5
25AD6
330
747D
100
AcDbEntity
  8
細線
 48
50.0
100
AcDbLine
 10
10498.59999999999
 20
7368.301734300615
 30
0.0
 11
10516.7736304208
 21
7386.47536472143
 31
0.0
  0
LINE
  5
25AD8
330
747D
100
AcDbEntity
  8
細線
 48
50.0
100
AcDbLine
 10
11071.08259465824
 20
6831.475364721431
 30
0.0
 11
11078.59999999999
 21
6838.992770063178
 31
0.0
  0
LINE
  5
25AD9
330
747D
100
AcDbEntity
  8
細線
 48
50.0
100
AcDbLine
 10
11026.1813140529
 20
6831.475364721433
 30
0.0
 11
11078.59999999999
 21
6883.894050668526
 31
0.0
  0
LINE
  5
25ADA
330
747D
100
AcDbEntity
  8
細線
 48
50.0
100
AcDbLine
 10
10981.28003344755
 20
6831.475364721433
 30
0.0
 11
11078.59999999999
 21
6928.795331273872
 31
0.0
  0
LINE
  5
25ADB
330
747D
100
AcDbEntity
  8
細線
 48
50.0
100
AcDbLine
 10
10958.6
 20
6853.696611879229
 30
0.0
 11
11078.59999999999
 21
6973.696611879216
 31
0.0
  0
LINE
  5
25ADC
330
747D
100
AcDbEntity
  8
細線
 48
50.0
100
AcDbLine
 10
10958.6
 20
6898.597892484573
 30
0.0
 11
11078.59999999999
 21
7018.597892484563
 31
0.0
  0
LINE
  5
25ADD
330
747D
100
AcDbEntity
  8
細線
 48
50.0
100
AcDbLine
 10
10958.6
 20
6943.499173089918
 30
0.0
 11
11046.57619163151
 21
7031.475364721433
 31
0.0
  0
LINE
  5
25ADE
330
747D
100
AcDbEntity
  8
細線
 48
50.0
100
AcDbLine
 10
10958.6
 20
6988.400453695264
 30
0.0
 11
11001.67491102617
 21
7031.475364721434
 31
0.0
  0
LINE
  5
25ADF
330
747D
100
AcDbEntity
  8
部品1
 48
50.0
100
AcDbLine
 10
11078.59999999999
 20
7031.475364721433
 30
0.0
 11
10958.6
 21
7031.475364721432
 31
0.0
  0
LINE
  5
25AE0
330
747D
100
AcDbEntity
  8
部品1
 48
50.0
100
AcDbLine
 10
11078.59999999999
 20
6831.475364721433
 30
0.0
 11
10958.6
 21
6831.475364721431
 31
0.0
  0
CIRCLE
  5
25AE1
330
747D
100
AcDbEntity
  8
部品1
 48
50.0
100
AcDbCircle
 10
10955.6
 20
7263.475364721398
 30
0.0
 40
35.0
  0
LINE
  5
25AE2
330
747D
100
AcDbEntity
  8
センター
 48
2.0
100
AcDbLine
 10
10905.6
 20
7263.475364721398
 30
0.0
 11
11005.6
 21
7263.475364721398
 31
0.0
  0
LINE
  5
25AE3
330
747D
100
AcDbEntity
  8
センター
 48
2.0
100
AcDbLine
 10
10955.6
 20
7313.475364721398
 30
0.0
 11
10955.6
 21
7213.475364721398
 31
0.0
  0
TEXT
  5
260F7
330
747D
100
AcDbEntity
  8
文字
 62
     7
 48
50.0
100
AcDbText
 10
14251.2
 20
838.2527270729188
 30
0.0
 40
100.0
  1
～一般型・多雪地型・豪雪地型～
  7
STYLE2
100
AcDbText
  0
LINE
  5
26117
330
747D
100
AcDbEntity
  8
部品1
 48
50.0
100
AcDbLine
 10
10958.6
 20
6706.475364721416
 30
0.0
 11
5488.600000000003
 21
6706.475364721395
 31
0.0
  0
LINE
  5
26118
330
747D
100
AcDbEntity
  8
細線
 48
50.0
100
AcDbLine
 10
6698.599999999991
 20
6649.881244615179
 30
0.0
 11
6755.194120106215
 21
6706.475364721398
 31
0.0
  0
LINE
  5
26119
330
747D
100
AcDbEntity
  8
細線
 48
50.0
100
AcDbLine
 10
6698.599999999998
 20
6560.078683404346
 30
0.0
 11
6844.996681317034
 21
6706.475364721396
 31
0.0
  0
LINE
  5
2611A
330
747D
100
AcDbEntity
  8
細線
 48
50.0
100
AcDbLine
 10
6698.599999999996
 20
6515.177402799
 30
0.0
 11
6889.897961922393
 21
6706.475364721398
 31
0.0
  0
LINE
  5
2611B
330
747D
100
AcDbEntity
  8
細線
 48
50.0
100
AcDbLine
 10
6698.599999999995
 20
6604.979964009834
 30
0.0
 11
6800.095400711557
 21
6706.475364721398
 31
0.0
  0
LINE
  5
2611C
330
747D
100
AcDbEntity
  8
細線
 48
50.0
100
AcDbLine
 10
6879.305645554457
 20
6426.475364721387
 30
0.0
 11
6898.6
 21
6445.769719166928
 31
0.0
  0
LINE
  5
2611D
330
747D
100
AcDbEntity
  8
部品1
 48
50.0
100
AcDbLine
 10
6698.599999999998
 20
6706.475364721395
 30
0.0
 11
6698.599999999998
 21
6426.475364721382
 31
0.0
  0
LINE
  5
2611E
330
747D
100
AcDbEntity
  8
部品1
 48
50.0
100
AcDbLine
 10
6898.599999999993
 20
6706.475364721396
 30
0.0
 11
6898.599999999999
 21
6426.475364721385
 31
0.0
  0
LINE
  5
2611F
330
747D
100
AcDbEntity
  8
細線
 48
50.0
100
AcDbLine
 10
6698.6
 20
6470.276122193657
 30
0.0
 11
6898.599999999994
 21
6670.27612219365
 31
0.0
  0
LINE
  5
26120
330
747D
100
AcDbEntity
  8
細線
 48
50.0
100
AcDbLine
 10
6699.700523133073
 20
6426.475364721383
 30
0.0
 11
6898.599999999994
 21
6625.374841588308
 31
0.0
  0
LINE
  5
26121
330
747D
100
AcDbEntity
  8
細線
 48
50.0
100
AcDbLine
 10
6744.601803738418
 20
6426.475364721383
 30
0.0
 11
6898.599999999994
 21
6580.473560982962
 31
0.0
  0
LINE
  5
26122
330
747D
100
AcDbEntity
  8
細線
 48
50.0
100
AcDbLine
 10
6789.503084343763
 20
6426.475364721383
 30
0.0
 11
6898.6
 21
6535.572280377619
 31
0.0
  0
LINE
  5
26123
330
747D
100
AcDbEntity
  8
細線
 48
50.0
100
AcDbLine
 10
6834.404364949111
 20
6426.475364721385
 30
0.0
 11
6898.600000000001
 21
6490.670999772276
 31
0.0
  0
LINE
  5
26124
330
747D
100
AcDbEntity
  8
細線
 48
50.0
100
AcDbLine
 10
7648.599999999992
 20
6649.881244615179
 30
0.0
 11
7705.194120106215
 21
6706.475364721398
 31
0.0
  0
LINE
  5
26125
330
747D
100
AcDbEntity
  8
細線
 48
50.0
100
AcDbLine
 10
7648.599999999999
 20
6560.078683404346
 30
0.0
 11
7794.996681317035
 21
6706.475364721396
 31
0.0
  0
LINE
  5
26126
330
747D
100
AcDbEntity
  8
細線
 48
50.0
100
AcDbLine
 10
7648.599999999998
 20
6515.177402799
 30
0.0
 11
7839.897961922393
 21
6706.475364721398
 31
0.0
  0
LINE
  5
26127
330
747D
100
AcDbEntity
  8
細線
 48
50.0
100
AcDbLine
 10
7648.599999999994
 20
6604.979964009834
 30
0.0
 11
7750.095400711557
 21
6706.475364721398
 31
0.0
  0
LINE
  5
26128
330
747D
100
AcDbEntity
  8
細線
 48
50.0
100
AcDbLine
 10
7829.305645554457
 20
6426.475364721387
 30
0.0
 11
7848.600000000001
 21
6445.769719166928
 31
0.0
  0
LINE
  5
26129
330
747D
100
AcDbEntity
  8
部品1
 48
50.0
100
AcDbLine
 10
7648.599999999999
 20
6706.475364721395
 30
0.0
 11
7648.599999999999
 21
6426.475364721382
 31
0.0
  0
LINE
  5
2612A
330
747D
100
AcDbEntity
  8
部品1
 48
50.0
100
AcDbLine
 10
7848.599999999994
 20
6706.475364721396
 30
0.0
 11
7848.599999999999
 21
6426.475364721385
 31
0.0
  0
LINE
  5
2612B
330
747D
100
AcDbEntity
  8
細線
 48
50.0
100
AcDbLine
 10
7648.6
 20
6470.276122193657
 30
0.0
 11
7848.599999999994
 21
6670.27612219365
 31
0.0
  0
LINE
  5
2612C
330
747D
100
AcDbEntity
  8
細線
 48
50.0
100
AcDbLine
 10
7649.700523133073
 20
6426.475364721383
 30
0.0
 11
7848.599999999994
 21
6625.374841588308
 31
0.0
  0
LINE
  5
2612D
330
747D
100
AcDbEntity
  8
細線
 48
50.0
100
AcDbLine
 10
7694.601803738418
 20
6426.475364721383
 30
0.0
 11
7848.599999999994
 21
6580.473560982962
 31
0.0
  0
LINE
  5
2612E
330
747D
100
AcDbEntity
  8
細線
 48
50.0
100
AcDbLine
 10
7739.503084343763
 20
6426.475364721383
 30
0.0
 11
7848.600000000001
 21
6535.572280377619
 31
0.0
  0
LINE
  5
2612F
330
747D
100
AcDbEntity
  8
細線
 48
50.0
100
AcDbLine
 10
7784.404364949111
 20
6426.475364721385
 30
0.0
 11
7848.600000000002
 21
6490.670999772276
 31
0.0
  0
LINE
  5
26130
330
747D
100
AcDbEntity
  8
細線
 48
50.0
100
AcDbLine
 10
8598.599999999992
 20
6649.881244615179
 30
0.0
 11
8655.194120106214
 21
6706.475364721398
 31
0.0
  0
LINE
  5
26131
330
747D
100
AcDbEntity
  8
細線
 48
50.0
100
AcDbLine
 10
8598.599999999999
 20
6560.078683404346
 30
0.0
 11
8744.996681317035
 21
6706.475364721396
 31
0.0
  0
LINE
  5
26132
330
747D
100
AcDbEntity
  8
細線
 48
50.0
100
AcDbLine
 10
8598.599999999997
 20
6515.177402799
 30
0.0
 11
8789.897961922394
 21
6706.475364721398
 31
0.0
  0
LINE
  5
26133
330
747D
100
AcDbEntity
  8
細線
 48
50.0
100
AcDbLine
 10
8598.599999999995
 20
6604.979964009834
 30
0.0
 11
8700.095400711559
 21
6706.475364721398
 31
0.0
  0
LINE
  5
26134
330
747D
100
AcDbEntity
  8
細線
 48
50.0
100
AcDbLine
 10
8779.305645554456
 20
6426.475364721387
 30
0.0
 11
8798.6
 21
6445.769719166928
 31
0.0
  0
LINE
  5
26135
330
747D
100
AcDbEntity
  8
部品1
 48
50.0
100
AcDbLine
 10
8598.599999999999
 20
6706.475364721395
 30
0.0
 11
8598.599999999999
 21
6426.475364721382
 31
0.0
  0
LINE
  5
26136
330
747D
100
AcDbEntity
  8
部品1
 48
50.0
100
AcDbLine
 10
8798.599999999993
 20
6706.475364721396
 30
0.0
 11
8798.599999999998
 21
6426.475364721385
 31
0.0
  0
LINE
  5
26137
330
747D
100
AcDbEntity
  8
細線
 48
50.0
100
AcDbLine
 10
8598.600000000001
 20
6470.276122193657
 30
0.0
 11
8798.599999999995
 21
6670.27612219365
 31
0.0
  0
LINE
  5
26138
330
747D
100
AcDbEntity
  8
細線
 48
50.0
100
AcDbLine
 10
8599.700523133073
 20
6426.475364721383
 30
0.0
 11
8798.599999999995
 21
6625.374841588308
 31
0.0
  0
LINE
  5
26139
330
747D
100
AcDbEntity
  8
細線
 48
50.0
100
AcDbLine
 10
8644.601803738417
 20
6426.475364721383
 30
0.0
 11
8798.599999999995
 21
6580.473560982962
 31
0.0
  0
LINE
  5
2613A
330
747D
100
AcDbEntity
  8
細線
 48
50.0
100
AcDbLine
 10
8689.503084343764
 20
6426.475364721383
 30
0.0
 11
8798.6
 21
6535.572280377619
 31
0.0
  0
LINE
  5
2613B
330
747D
100
AcDbEntity
  8
細線
 48
50.0
100
AcDbLine
 10
8734.404364949112
 20
6426.475364721385
 30
0.0
 11
8798.600000000002
 21
6490.670999772276
 31
0.0
  0
LINE
  5
2613C
330
747D
100
AcDbEntity
  8
細線
 48
50.0
100
AcDbLine
 10
9548.599999999991
 20
6649.881244615179
 30
0.0
 11
9605.194120106215
 21
6706.475364721398
 31
0.0
  0
LINE
  5
2613D
330
747D
100
AcDbEntity
  8
細線
 48
50.0
100
AcDbLine
 10
9548.599999999998
 20
6560.078683404346
 30
0.0
 11
9694.996681317036
 21
6706.475364721396
 31
0.0
  0
LINE
  5
2613E
330
747D
100
AcDbEntity
  8
細線
 48
50.0
100
AcDbLine
 10
9548.599999999998
 20
6515.177402799
 30
0.0
 11
9739.897961922395
 21
6706.475364721398
 31
0.0
  0
LINE
  5
2613F
330
747D
100
AcDbEntity
  8
細線
 48
50.0
100
AcDbLine
 10
9548.599999999995
 20
6604.979964009834
 30
0.0
 11
9650.095400711558
 21
6706.475364721398
 31
0.0
  0
LINE
  5
26140
330
747D
100
AcDbEntity
  8
細線
 48
50.0
100
AcDbLine
 10
9729.305645554457
 20
6426.475364721387
 30
0.0
 11
9748.600000000001
 21
6445.769719166928
 31
0.0
  0
LINE
  5
26141
330
747D
100
AcDbEntity
  8
部品1
 48
50.0
100
AcDbLine
 10
9548.599999999998
 20
6706.475364721395
 30
0.0
 11
9548.599999999998
 21
6426.475364721382
 31
0.0
  0
LINE
  5
26142
330
747D
100
AcDbEntity
  8
部品1
 48
50.0
100
AcDbLine
 10
9748.599999999994
 20
6706.475364721396
 30
0.0
 11
9748.599999999999
 21
6426.475364721385
 31
0.0
  0
LINE
  5
26143
330
747D
100
AcDbEntity
  8
細線
 48
50.0
100
AcDbLine
 10
9548.6
 20
6470.276122193657
 30
0.0
 11
9748.599999999996
 21
6670.27612219365
 31
0.0
  0
LINE
  5
26144
330
747D
100
AcDbEntity
  8
細線
 48
50.0
100
AcDbLine
 10
9549.700523133074
 20
6426.475364721383
 30
0.0
 11
9748.599999999996
 21
6625.374841588308
 31
0.0
  0
LINE
  5
26145
330
747D
100
AcDbEntity
  8
細線
 48
50.0
100
AcDbLine
 10
9594.601803738418
 20
6426.475364721383
 30
0.0
 11
9748.599999999996
 21
6580.473560982962
 31
0.0
  0
LINE
  5
26146
330
747D
100
AcDbEntity
  8
細線
 48
50.0
100
AcDbLine
 10
9639.503084343765
 20
6426.475364721383
 30
0.0
 11
9748.600000000001
 21
6535.572280377619
 31
0.0
  0
LINE
  5
26147
330
747D
100
AcDbEntity
  8
細線
 48
50.0
100
AcDbLine
 10
9684.404364949111
 20
6426.475364721385
 30
0.0
 11
9748.600000000003
 21
6490.670999772276
 31
0.0
  0
LINE
  5
26148
330
747D
100
AcDbEntity
  8
細線
 48
50.0
100
AcDbLine
 10
10498.59999999999
 20
6649.881244615179
 30
0.0
 11
10555.19412010621
 21
6706.475364721398
 31
0.0
  0
LINE
  5
26149
330
747D
100
AcDbEntity
  8
細線
 48
50.0
100
AcDbLine
 10
10498.6
 20
6560.078683404346
 30
0.0
 11
10644.99668131703
 21
6706.475364721396
 31
0.0
  0
LINE
  5
2614A
330
747D
100
AcDbEntity
  8
細線
 48
50.0
100
AcDbLine
 10
10498.6
 20
6515.177402799
 30
0.0
 11
10689.89796192239
 21
6706.475364721398
 31
0.0
  0
LINE
  5
2614B
330
747D
100
AcDbEntity
  8
細線
 48
50.0
100
AcDbLine
 10
10498.59999999999
 20
6604.979964009834
 30
0.0
 11
10600.09540071155
 21
6706.475364721398
 31
0.0
  0
LINE
  5
2614C
330
747D
100
AcDbEntity
  8
細線
 48
50.0
100
AcDbLine
 10
10679.30564555445
 20
6426.475364721387
 30
0.0
 11
10698.6
 21
6445.769719166928
 31
0.0
  0
LINE
  5
2614D
330
747D
100
AcDbEntity
  8
部品1
 48
50.0
100
AcDbLine
 10
10498.6
 20
6706.475364721395
 30
0.0
 11
10498.6
 21
6426.475364721382
 31
0.0
  0
LINE
  5
2614E
330
747D
100
AcDbEntity
  8
部品1
 48
50.0
100
AcDbLine
 10
10698.59999999999
 20
6706.475364721396
 30
0.0
 11
10698.6
 21
6426.475364721385
 31
0.0
  0
LINE
  5
2614F
330
747D
100
AcDbEntity
  8
細線
 48
50.0
100
AcDbLine
 10
10498.6
 20
6470.276122193657
 30
0.0
 11
10698.59999999999
 21
6670.27612219365
 31
0.0
  0
LINE
  5
26150
330
747D
100
AcDbEntity
  8
細線
 48
50.0
100
AcDbLine
 10
10499.70052313307
 20
6426.475364721383
 30
0.0
 11
10698.59999999999
 21
6625.374841588308
 31
0.0
  0
LINE
  5
26151
330
747D
100
AcDbEntity
  8
細線
 48
50.0
100
AcDbLine
 10
10544.60180373842
 20
6426.475364721383
 30
0.0
 11
10698.59999999999
 21
6580.473560982962
 31
0.0
  0
LINE
  5
26152
330
747D
100
AcDbEntity
  8
細線
 48
50.0
100
AcDbLine
 10
10589.50308434376
 20
6426.475364721383
 30
0.0
 11
10698.6
 21
6535.572280377619
 31
0.0
  0
LINE
  5
26153
330
747D
100
AcDbEntity
  8
細線
 48
50.0
100
AcDbLine
 10
10634.40436494911
 20
6426.475364721385
 30
0.0
 11
10698.6
 21
6490.670999772276
 31
0.0
  0
LINE
  5
26171
330
747D
100
AcDbEntity
  8
部品1
 48
50.0
100
AcDbLine
 10
10958.6
 20
6706.475364721417
 30
0.0
 11
10958.6
 21
7186.475364721399
 31
0.0
  0
LINE
  5
26172
330
747D
100
AcDbEntity
  8
部品1
 48
50.0
100
AcDbLine
 10
5488.600000000003
 20
6706.475364721396
 30
0.0
 11
5488.599999999997
 21
7186.475364721397
 31
0.0
  0
MTEXT
  5
2630A
102
{ACAD_REACTORS
330
2630B
102
}
330
747D
100
AcDbEntity
  8
寸法
 62
     7
 48
50.0
100
AcDbMText
 10
11175.19725017417
 20
2489.595188923192
 30
0.0
 40
120.0
 41
0.8
 71
     4
 72
     1
  1
\A1;C.B
  7
STYLE1
 73
     1
 44
1.0
1001
ACAD
1000
MTEXTBEGIN
1070
    73
1070
     1
1070
    44
1040
1.0
1070
    74
1070
     0
1000
MTEXTEND
  0
LEADER
  5
2630B
330
747D
100
AcDbEntity
  8
寸法
 48
50.0
100
AcDbLeader
  3
INABA_S50G
 73
     0
 74
     0
 75
     1
 40
120.0
 41
185.591883092037
 76
     3
 10
10992.05904354053
 20
2232.448868242054
 30
0.0
 10
11025.19725017417
 20
2404.595188923192
 30
0.0
 10
11150.19725017417
 20
2404.595188923192
 30
0.0
340
2630A
1001
ACAD
1000
DSTYLE
1002
{
1070
    40
1040
1.0
1002
}
  0
LINE
  5
2630C
330
747D
100
AcDbEntity
  8
細線
 48
50.0
100
AcDbLine
 10
11137.71245711694
 20
1876.749952588703
 30
0.0
 11
11131.28167649859
 21
1900.749952588703
 31
0.0
  0
LINE
  5
2630D
330
747D
100
AcDbEntity
  8
細線
 48
50.0
100
AcDbLine
 10
11116.27652172245
 20
1796.749952588703
 30
0.0
 11
11122.7073023408
 21
1772.749952588703
 31
0.0
  0
LINE
  5
2630E
330
747D
100
AcDbEntity
  8
部品1
100
AcDbLine
 10
11181.33463192461
 20
1992.448868242054
 30
0.0
 11
11181.33463192461
 21
1772.749952588704
 31
0.0
  0
LINE
  5
2630F
330
747D
100
AcDbEntity
  8
細線
 48
50.0
100
AcDbLine
 10
11109.8457411041
 20
1772.749952588703
 30
0.0
 11
11144.14323773528
 21
1900.749952588702
 31
0.0
  0
LINE
  5
26310
330
747D
100
AcDbEntity
  8
細線
 48
50.0
100
AcDbLine
 10
11058.82441216969
 20
1876.749952588703
 30
0.0
 11
11052.39363155134
 21
1900.749952588703
 31
0.0
  0
LINE
  5
26311
330
747D
100
AcDbEntity
  8
細線
100
AcDbLine
 10
10934.37102642394
 20
1900.749952588706
 30
0.0
 11
11026.06994207728
 21
1992.448868242054
 31
0.0
  0
LINE
  5
26312
330
747D
100
AcDbEntity
  8
細線
 48
50.0
100
AcDbLine
 10
10979.93636722244
 20
1876.749952588704
 30
0.0
 11
10973.50558660409
 21
1900.749952588704
 31
0.0
  0
LINE
  5
26313
330
747D
100
AcDbEntity
  8
細線
100
AcDbLine
 10
10968.3121519209
 20
1900.749952588706
 30
0.0
 11
11060.01106757424
 21
1992.448868242054
 31
0.0
  0
LINE
  5
26314
330
747D
100
AcDbEntity
  8
細線
 48
50.0
100
AcDbLine
 10
10743.2722323807
 20
1876.749952588704
 30
0.0
 11
10736.84145176236
 21
1900.749952588704
 31
0.0
  0
LINE
  5
26315
330
747D
100
AcDbEntity
  8
細線
 48
50.0
100
AcDbLine
 10
10822.16027732795
 20
1876.749952588704
 30
0.0
 11
10815.7294967096
 21
1900.749952588704
 31
0.0
  0
LINE
  5
26316
330
747D
100
AcDbEntity
  8
細線
 48
50.0
100
AcDbLine
 10
10901.0483222752
 20
1876.749952588704
 30
0.0
 11
10894.61754165685
 21
1900.749952588704
 31
0.0
  0
LINE
  5
26317
330
747D
100
AcDbEntity
  8
細線
 48
50.0
100
AcDbLine
 10
11037.3884767752
 20
1796.749952588703
 30
0.0
 11
11043.81925739355
 21
1772.749952588703
 31
0.0
  0
LINE
  5
26318
330
747D
100
AcDbEntity
  8
細線
 48
50.0
100
AcDbLine
 10
10958.50043182795
 20
1796.749952588704
 30
0.0
 11
10964.93121244631
 21
1772.749952588704
 31
0.0
  0
LINE
  5
26319
330
747D
100
AcDbEntity
  8
細線
 48
50.0
100
AcDbLine
 10
10800.72434193346
 20
1796.749952588704
 30
0.0
 11
10807.15512255181
 21
1772.749952588704
 31
0.0
  0
LINE
  5
2631A
330
747D
100
AcDbEntity
  8
細線
 48
50.0
100
AcDbLine
 10
10879.61238688071
 20
1796.749952588704
 30
0.0
 11
10886.04316749905
 21
1772.749952588704
 31
0.0
  0
LINE
  5
2631B
330
747D
100
AcDbEntity
  8
細線
 48
50.0
100
AcDbLine
 10
10873.18160626236
 20
1772.749952588704
 30
0.0
 11
10907.47910289354
 21
1900.749952588703
 31
0.0
  0
LINE
  5
2631C
330
747D
100
AcDbEntity
  8
細線
 48
50.0
100
AcDbLine
 10
10794.29356131511
 20
1772.749952588703
 30
0.0
 11
10828.59105794629
 21
1900.749952588703
 31
0.0
  0
LINE
  5
2631D
330
747D
100
AcDbEntity
  8
細線
 48
50.0
100
AcDbLine
 10
10952.06965120961
 20
1772.749952588703
 30
0.0
 11
10986.36714784078
 21
1900.749952588704
 31
0.0
  0
LINE
  5
2631E
330
747D
100
AcDbEntity
  8
細線
100
AcDbLine
 10
11002.25327741785
 20
1900.749952588706
 30
0.0
 11
11093.95219307119
 21
1992.448868242054
 31
0.0
  0
LINE
  5
2631F
330
747D
100
AcDbEntity
  8
細線
 48
50.0
100
AcDbLine
 10
11030.95769615686
 20
1772.749952588701
 30
0.0
 11
11065.25519278804
 21
1900.749952588702
 31
0.0
  0
LINE
  5
26320
330
747D
100
AcDbEntity
  8
部品1
100
AcDbLine
 10
11061.33463192461
 20
2232.448868242054
 30
0.0
 11
11061.33463192461
 21
1992.448868242054
 31
0.0
  0
LINE
  5
26321
330
747D
100
AcDbEntity
  8
細線
100
AcDbLine
 10
11047.49696957702
 20
1992.448868242056
 30
0.0
 11
10807.49696957703
 21
2232.448868242054
 31
0.0
  0
LINE
  5
26322
330
747D
100
AcDbEntity
  8
細線
100
AcDbLine
 10
10996.58528133159
 20
1992.448868242054
 30
0.0
 11
10756.5852813316
 21
2232.448868242054
 31
0.0
  0
LINE
  5
26323
330
747D
100
AcDbEntity
  8
細線
100
AcDbLine
 10
10608.31215192089
 20
1900.749952588704
 30
0.0
 11
10700.01106757424
 21
1992.448868242054
 31
0.0
  0
LINE
  5
26324
330
747D
100
AcDbEntity
  8
細線
100
AcDbLine
 10
10574.37102642393
 20
1900.749952588704
 30
0.0
 11
10666.06994207728
 21
1992.448868242054
 31
0.0
  0
LINE
  5
26325
330
747D
100
AcDbEntity
  8
細線
 48
50.0
100
AcDbLine
 10
10585.49614248621
 20
1876.749952588704
 30
0.0
 11
10579.06536186786
 21
1900.749952588704
 31
0.0
  0
LINE
  5
26326
330
747D
100
AcDbEntity
  8
細線
 48
50.0
100
AcDbLine
 10
10664.38418743346
 20
1876.749952588704
 30
0.0
 11
10657.95340681511
 21
1900.749952588704
 31
0.0
  0
LINE
  5
26327
330
747D
100
AcDbEntity
  8
細線
 48
50.0
100
AcDbLine
 10
10506.60809753896
 20
1876.749952588704
 30
0.0
 11
10500.17731692061
 21
1900.749952588704
 31
0.0
  0
LINE
  5
26328
330
747D
100
AcDbEntity
  8
細線
 48
50.0
100
AcDbLine
 10
10721.83629698622
 20
1796.749952588704
 30
0.0
 11
10728.26707760456
 21
1772.749952588704
 31
0.0
  0
LINE
  5
26329
330
747D
100
AcDbEntity
  8
細線
 48
50.0
100
AcDbLine
 10
10642.94825203897
 20
1796.749952588704
 30
0.0
 11
10649.37903265732
 21
1772.749952588704
 31
0.0
  0
LINE
  5
2632A
330
747D
100
AcDbEntity
  8
細線
 48
50.0
100
AcDbLine
 10
10485.17216214447
 20
1796.749952588704
 30
0.0
 11
10491.60294276281
 21
1772.749952588704
 31
0.0
  0
LINE
  5
2632B
330
747D
100
AcDbEntity
  8
細線
 48
50.0
100
AcDbLine
 10
10564.06020709172
 20
1796.749952588704
 30
0.0
 11
10570.49098771007
 21
1772.749952588704
 31
0.0
  0
LINE
  5
2632C
330
747D
100
AcDbEntity
  8
部品1
100
AcDbLine
 10
10461.33463192461
 20
1772.7499525887
 30
0.0
 11
10461.33463192461
 21
1992.448868242054
 31
0.0
  0
LINE
  5
2632D
330
747D
100
AcDbEntity
  8
細線
 48
50.0
100
AcDbLine
 10
10478.74138152612
 20
1772.749952588704
 30
0.0
 11
10513.0388781573
 21
1900.749952588704
 31
0.0
  0
LINE
  5
2632E
330
747D
100
AcDbEntity
  8
細線
 48
50.0
100
AcDbLine
 10
10636.51747142062
 20
1772.749952588704
 30
0.0
 11
10670.8149680518
 21
1900.749952588704
 31
0.0
  0
LINE
  5
2632F
330
747D
100
AcDbEntity
  8
細線
 48
50.0
100
AcDbLine
 10
10557.62942647337
 20
1772.749952588703
 30
0.0
 11
10591.92692310455
 21
1900.749952588703
 31
0.0
  0
LINE
  5
26330
330
747D
100
AcDbEntity
  8
部品1
100
AcDbLine
 10
10581.33463192461
 20
1992.448868242054
 30
0.0
 11
10581.33463192461
 21
2232.448868242054
 31
0.0
  0
TEXT
  5
26331
330
747D
100
AcDbEntity
  8
部品1
 48
50.0
100
AcDbText
 10
9817.216545166106
 20
1725.649127604745
 30
0.0
 40
80.0
  1
ボルトの出
 50
90.0
  7
STYLE2
100
AcDbText
  0
LINE
  5
26332
330
747D
100
AcDbEntity
  8
細線
100
AcDbLine
 10
10725.05627735596
 20
1992.448868242054
 30
0.0
 11
10581.33463192461
 21
2136.170513673407
 31
0.0
  0
LWPOLYLINE
  5
26333
330
747D
100
AcDbEntity
  8
部品1
 48
50.0
100
AcDbPolyline
 90
        2
 70
     0
 43
12.0
 10
10196.72336982422
 20
1992.448868242054
 10
11397.81567295584
 20
1992.448868242054
  0
LINE
  5
26334
330
747D
100
AcDbEntity
  8
細線
100
AcDbLine
 10
10642.25327741785
 20
1900.749952588704
 30
0.0
 11
10733.95219307119
 21
1992.448868242054
 31
0.0
  0
LINE
  5
26335
330
747D
100
AcDbEntity
  8
部品1
100
AcDbLine
 10
10461.33463192461
 20
1900.749952588704
 30
0.0
 11
11181.33463192461
 21
1900.749952588707
 31
0.0
  0
LINE
  5
26336
330
747D
100
AcDbEntity
  8
部品1
100
AcDbLine
 10
10461.33463192461
 20
1772.7499525887
 30
0.0
 11
11181.33463192461
 21
1772.749952588704
 31
0.0
  0
LINE
  5
26337
330
747D
100
AcDbEntity
  8
細線
 48
50.0
100
AcDbLine
 10
10715.40551636786
 20
1772.749952588704
 30
0.0
 11
10749.70301299905
 21
1900.749952588703
 31
0.0
  0
LINE
  5
26338
330
747D
100
AcDbEntity
  8
部品1
100
AcDbLine
 10
10581.33463192461
 20
2232.448868242054
 30
0.0
 11
11061.33463192461
 21
2232.448868242054
 31
0.0
  0
LINE
  5
26339
330
747D
100
AcDbEntity
  8
細線
100
AcDbLine
 10
10775.96796560139
 20
1992.448868242054
 30
0.0
 11
10581.33463192461
 21
2187.082201918837
 31
0.0
  0
LINE
  5
2633A
330
747D
100
AcDbEntity
  8
部品1
100
AcDbLine
 10
11768.07613302164
 20
667.4805658579925
 30
0.0
 11
11768.07613302164
 21
3631.78753544264
 31
0.0
  0
TEXT
  5
2633B
330
747D
100
AcDbEntity
  8
部品1
100
AcDbText
 10
8389.970948813781
 20
3452.235603491212
 30
0.0
 40
120.0
  1
基礎詳細
  7
STYLE2
100
AcDbText
  0
LINE
  5
2633C
330
747D
100
AcDbEntity
  8
部品1
 48
50.0
100
AcDbLine
 10
8705.198699621851
 20
2631.324149351197
 30
0.0
 11
8721.198699621851
 21
2623.324149351197
 31
0.0
  0
LINE
  5
2633D
330
747D
100
AcDbEntity
  8
細線
 48
50.0
100
AcDbLine
 10
8673.198699621851
 20
2583.324149351197
 30
0.0
 11
8673.198699621851
 21
2615.324149351197
 31
0.0
  0
LINE
  5
2633E
330
747D
100
AcDbEntity
  8
部品1
 48
50.0
100
AcDbLine
 10
8721.198699621851
 20
2591.324149351197
 30
0.0
 11
8721.198699621851
 21
2623.324149351197
 31
0.0
  0
LINE
  5
2633F
330
747D
100
AcDbEntity
  8
細線
 48
50.0
100
AcDbLine
 10
8705.198699621851
 20
2583.324149351197
 30
0.0
 11
8705.198699621851
 21
2615.324149351197
 31
0.0
  0
LINE
  5
26340
330
747D
100
AcDbEntity
  8
部品1
 48
50.0
100
AcDbLine
 10
8705.198699621851
 20
2615.324149351197
 30
0.0
 11
8721.198699621851
 21
2623.324149351197
 31
0.0
  0
LINE
  5
26341
330
747D
100
AcDbEntity
  8
部品1
 48
50.0
100
AcDbLine
 10
8673.198699621851
 20
2615.324149351197
 30
0.0
 11
8705.198699621851
 21
2615.324149351197
 31
0.0
  0
LINE
  5
26342
330
747D
100
AcDbEntity
  8
部品1
 48
50.0
100
AcDbLine
 10
8705.198699621851
 20
2583.324149351197
 30
0.0
 11
8721.198699621851
 21
2591.324149351197
 31
0.0
  0
LINE
  5
26343
330
747D
100
AcDbEntity
  8
部品1
 48
50.0
100
AcDbLine
 10
8673.198699621851
 20
2583.324149351197
 30
0.0
 11
8705.198699621851
 21
2583.324149351197
 31
0.0
  0
ELLIPSE
  5
26344
330
747D
100
AcDbEntity
  8
細線
 48
50.0
100
AcDbEllipse
 10
8689.198699621851
 20
2623.324149351197
 30
0.0
 11
14.76670786606846
 21
0.0
 31
0.0
210
0.0
220
0.0
230
1.0
 40
0.2071254069489396
 41
0.0
 42
6.283185307179586
  0
LINE
  5
26345
330
747D
100
AcDbEntity
  8
部品1
 48
50.0
100
AcDbLine
 10
8673.198699621851
 20
2631.324149351197
 30
0.0
 11
8705.198699621851
 21
2631.324149351197
 31
0.0
  0
LINE
  5
26346
330
747D
100
AcDbEntity
  8
部品1
 48
50.0
100
AcDbLine
 10
8657.198699621851
 20
2591.324149351197
 30
0.0
 11
8657.198699621851
 21
2623.324149351197
 31
0.0
  0
LINE
  5
26347
330
747D
100
AcDbEntity
  8
部品1
 48
50.0
100
AcDbLine
 10
8657.198699621851
 20
2623.324149351197
 30
0.0
 11
8673.198699621851
 21
2631.324149351197
 31
0.0
  0
LINE
  5
26348
330
747D
100
AcDbEntity
  8
部品1
 48
50.0
100
AcDbLine
 10
8657.198699621851
 20
2591.324149351197
 30
0.0
 11
8673.198699621851
 21
2583.324149351197
 31
0.0
  0
LINE
  5
26349
330
747D
100
AcDbEntity
  8
部品1
 48
50.0
100
AcDbLine
 10
8657.198699621851
 20
2623.324149351197
 30
0.0
 11
8673.198699621851
 21
2615.324149351197
 31
0.0
  0
LINE
  5
2634A
330
747D
100
AcDbEntity
  8
部品1
 48
50.0
100
AcDbLine
 10
8729.198699621852
 20
2491.972156686327
 30
0.0
 11
8729.198699621852
 21
2501.572156686327
 31
0.0
  0
ELLIPSE
  5
2634B
330
747D
100
AcDbEntity
  8
部品1
 48
50.0
100
AcDbEllipse
 10
8689.198699621851
 20
2501.572156686327
 30
0.0
 11
18.4
 21
0.0
 31
0.0
210
0.0
220
0.0
230
1.0
 40
0.3478260869565217
 41
0.0
 42
6.283185307179586
  0
ARC
  5
2634C
330
747D
100
AcDbEntity
  8
部品1
100
AcDbCircle
 10
8528.098699621851
 20
2330.548868242054
 30
0.0
 40
2.7
100
AcDbArc
 50
90.0
 51
180.0
  0
LINE
  5
2634D
330
747D
100
AcDbEntity
  8
部品1
100
AcDbLine
 10
8530.798699621851
 20
2344.048868242055
 30
0.0
 11
8573.09869962185
 21
2344.048868242051
 31
0.0
  0
LINE
  5
2634E
330
747D
100
AcDbEntity
  8
部品1
100
AcDbLine
 10
8528.098699621851
 20
2333.248868242054
 30
0.0
 11
8528.098699621851
 21
2341.348868242054
 31
0.0
  0
LINE
  5
2634F
330
747D
100
AcDbEntity
  8
部品1
100
AcDbLine
 10
8528.098699621851
 20
2333.248868242054
 30
0.0
 11
8528.098699621851
 21
2333.248868242054
 31
0.0
  0
ARC
  5
26350
330
747D
100
AcDbEntity
  8
部品1
100
AcDbCircle
 10
8530.798699621851
 20
2341.348868242054
 30
0.0
 40
2.7
100
AcDbArc
 50
90.0
 51
180.0
  0
ARC
  5
26351
330
747D
100
AcDbEntity
  8
部品1
100
AcDbCircle
 10
8573.09869962185
 20
2341.348868242051
 30
0.0
 40
2.7
100
AcDbArc
 50
0.0
 51
90.0
  0
LINE
  5
26352
330
747D
100
AcDbEntity
  8
部品1
 48
50.0
100
AcDbLine
 10
8649.198699621852
 20
2501.572156686327
 30
0.0
 11
8649.198699621852
 21
2491.972156686327
 31
0.0
  0
ELLIPSE
  5
26353
330
747D
100
AcDbEntity
  8
部品1
 48
50.0
100
AcDbEllipse
 10
8689.198699621851
 20
2491.972156686327
 30
0.0
 11
40.0
 21
0.0
 31
0.0
210
0.0
220
0.0
230
1.0
 40
0.4
 41
3.141592653589793
 42
6.283185307179586
  0
ELLIPSE
  5
26354
330
747D
100
AcDbEntity
  8
部品1
 48
50.0
100
AcDbEllipse
 10
8689.198699621851
 20
2501.572156686327
 30
0.0
 11
40.0
 21
0.0
 31
0.0
210
0.0
220
0.0
230
1.0
 40
0.4
 41
0.0
 42
6.283185307179586
  0
LINE
  5
26355
330
747D
100
AcDbEntity
  8
部品1
100
AcDbLine
 10
8683.798699621851
 20
2285.208868242055
 30
0.0
 11
8694.598699621851
 21
2285.208868242055
 31
0.0
  0
LINE
  5
26356
330
747D
100
AcDbEntity
  8
部品1
100
AcDbLine
 10
8680.198699621852
 20
2281.608868242055
 30
0.0
 11
8698.198699621851
 21
2281.608868242055
 31
0.0
  0
LINE
  5
26357
330
747D
100
AcDbEntity
  8
細線
100
AcDbLine
 10
8683.798699621853
 20
2242.008868242055
 30
0.0
 11
8683.798699621851
 21
2285.208868242055
 31
0.0
  0
LINE
  5
26358
330
747D
100
AcDbEntity
  8
細線
100
AcDbLine
 10
8694.598699621851
 20
2242.008868242055
 30
0.0
 11
8694.598699621851
 21
2285.208868242055
 31
0.0
  0
LINE
  5
26359
330
747D
100
AcDbEntity
  8
部品1
100
AcDbLine
 10
8596.49869962185
 20
2299.308868242055
 30
0.0
 11
8596.49869962185
 21
2282.208868242054
 31
0.0
  0
LINE
  5
2635A
330
747D
100
AcDbEntity
  8
部品1
100
AcDbLine
 10
8630.058699621852
 20
2299.308868242055
 30
0.0
 11
8630.058699621848
 21
2244.708868242055
 31
0.0
  0
ARC
  5
2635B
330
747D
100
AcDbEntity
  8
部品1
100
AcDbCircle
 10
8615.398699621852
 20
2287.348868242054
 30
0.0
 40
2.7
100
AcDbArc
 50
0.0
 51
90.0
  0
LINE
  5
2635C
330
747D
100
AcDbEntity
  8
部品1
100
AcDbLine
 10
8575.798699621849
 20
2290.048868242055
 30
0.0
 11
8615.398699621852
 21
2290.048868242055
 31
0.0
  0
ARC
  5
2635D
330
747D
100
AcDbEntity
  8
部品1
100
AcDbCircle
 10
8615.398699621852
 20
2244.708868242055
 30
0.0
 40
2.7
100
AcDbArc
 50
270.0
 51
0.0
  0
ARC
  5
2635E
330
747D
100
AcDbEntity
  8
部品1
100
AcDbCircle
 10
8632.758699621845
 20
2244.708868242055
 30
0.0
 40
2.7
100
AcDbArc
 50
180.0
 51
270.0
  0
LINE
  5
2635F
330
747D
100
AcDbEntity
  8
部品1
100
AcDbLine
 10
8603.698699621851
 20
2242.008868242055
 30
0.0
 11
8615.398699621852
 21
2242.008868242055
 31
0.0
  0
LINE
  5
26360
330
747D
100
AcDbEntity
  8
部品1
100
AcDbLine
 10
8618.098699621851
 20
2287.348868242054
 30
0.0
 11
8618.098699621851
 21
2244.708868242055
 31
0.0
  0
ARC
  5
26361
330
747D
100
AcDbEntity
  8
部品1
100
AcDbCircle
 10
8627.358699621851
 20
2299.308868242055
 30
0.0
 40
2.7
100
AcDbArc
 50
0.0
 51
90.0
  0
ARC
  5
26362
330
747D
100
AcDbEntity
  8
部品1
100
AcDbCircle
 10
8599.198699621851
 20
2299.308868242055
 30
0.0
 40
2.7
100
AcDbArc
 50
90.0
 51
180.0
  0
LINE
  5
26363
330
747D
100
AcDbEntity
  8
部品1
100
AcDbLine
 10
8599.198699621851
 20
2302.008868242054
 30
0.0
 11
8627.358699621851
 21
2302.008868242054
 31
0.0
  0
LINE
  5
26364
330
747D
100
AcDbEntity
  8
部品1
100
AcDbLine
 10
8575.798699621849
 20
2341.348868242051
 30
0.0
 11
8575.798699621849
 21
2290.048868242055
 31
0.0
  0
LINE
  5
26365
330
747D
100
AcDbEntity
  8
部品1
100
AcDbLine
 10
8525.398699621851
 20
2322.448868242054
 30
0.0
 11
8525.398699621851
 21
2330.548868242054
 31
0.0
  0
LINE
  5
26366
330
747D
100
AcDbEntity
  8
部品1
100
AcDbLine
 10
8632.758699621845
 20
2242.008868242055
 30
0.0
 11
8834.098699621845
 21
2242.008868242055
 31
0.0
  0
LINE
  5
26367
330
747D
100
AcDbEntity
  8
部品1
100
AcDbLine
 10
8474.098699621851
 20
2244.708868242055
 30
0.0
 11
8474.098699621851
 21
2306.840771944763
 31
0.0
  0
LINE
  5
26368
330
747D
100
AcDbEntity
  8
部品1
100
AcDbLine
 10
8476.79869962185
 20
2242.008868242055
 30
0.0
 11
8488.498699621844
 21
2242.008868242055
 31
0.0
  0
LINE
  5
26369
330
747D
100
AcDbEntity
  8
細線
 48
50.0
100
AcDbLine
 10
8467.79869962185
 20
2220.229444541959
 30
0.0
 11
8480.018123321945
 21
2232.448868242054
 31
0.0
  0
ARC
  5
2636A
330
747D
100
AcDbEntity
  8
部品1
100
AcDbCircle
 10
8476.79869962185
 20
2244.708868242055
 30
0.0
 40
2.7
100
AcDbArc
 50
180.0
 51
270.0
  0
LINE
  5
2636B
330
747D
100
AcDbEntity
  8
部品1
100
AcDbLine
 10
8476.143853434253
 20
2309.460156695154
 30
0.0
 11
8484.898699621851
 21
2311.648868242054
 31
0.0
  0
ARC
  5
2636C
330
747D
100
AcDbEntity
  8
部品1
100
AcDbCircle
 10
8476.79869962185
 20
2306.840771944763
 30
0.0
 40
2.7
100
AcDbArc
 50
104.0362434679059
 51
180.0
  0
ARC
  5
2636D
330
747D
100
AcDbEntity
  8
部品1
100
AcDbCircle
 10
8487.598699621852
 20
2319.748868242054
 30
0.0
 40
2.7
100
AcDbArc
 50
90.0
 51
180.0
  0
LINE
  5
2636E
330
747D
100
AcDbEntity
  8
部品1
100
AcDbLine
 10
8484.898699621851
 20
2311.648868242054
 30
0.0
 11
8484.898699621851
 21
2319.748868242054
 31
0.0
  0
LINE
  5
2636F
330
747D
100
AcDbEntity
  8
部品1
 48
50.0
100
AcDbLine
 10
8467.79869962185
 20
2232.448868242054
 30
0.0
 11
8881.798699621853
 21
2232.448868242054
 31
0.0
  0
LINE
  5
26370
330
747D
100
AcDbEntity
  8
細線
 48
50.0
100
AcDbLine
 10
8467.79869962185
 20
2166.347907815544
 30
0.0
 11
8533.89966004836
 21
2232.448868242054
 31
0.0
  0
LINE
  5
26371
330
747D
100
AcDbEntity
  8
細線
 48
50.0
100
AcDbLine
 10
8467.79869962185
 20
2193.288676178752
 30
0.0
 11
8506.958891685156
 21
2232.448868242054
 31
0.0
  0
LINE
  5
26372
330
747D
100
AcDbEntity
  8
部品1
100
AcDbLine
 10
8487.598699621852
 20
2322.448868242054
 30
0.0
 11
8525.398699621851
 21
2322.448868242054
 31
0.0
  0
LINE
  5
26373
330
747D
100
AcDbEntity
  8
部品1
 48
50.0
100
AcDbLine
 10
8881.79869962185
 20
1688.448868242054
 30
0.0
 11
9009.79869962185
 21
1688.448868242054
 31
0.0
  0
LINE
  5
26374
330
747D
100
AcDbEntity
  8
部品1
100
AcDbLine
 10
8698.198699621851
 20
2007.448868242054
 30
0.0
 11
8734.198699621851
 21
2007.448868242054
 31
0.0
  0
LINE
  5
26375
330
747D
100
AcDbEntity
  8
部品1
100
AcDbLine
 10
8698.198699621851
 20
1989.448868242054
 30
0.0
 11
8734.198699621851
 21
1989.448868242054
 31
0.0
  0
ARC
  5
26376
330
747D
100
AcDbEntity
  8
部品1
100
AcDbCircle
 10
8698.198699621851
 20
2007.448868242054
 30
0.0
 40
18.0
100
AcDbArc
 50
180.0
 51
270.0
  0
LINE
  5
26377
330
747D
100
AcDbEntity
  8
部品1
100
AcDbLine
 10
8734.198699621851
 20
1989.448868242054
 30
0.0
 11
8734.198699621851
 21
2007.448868242054
 31
0.0
  0
LINE
  5
26378
330
747D
100
AcDbEntity
  8
部品1
100
AcDbLine
 10
8752.198699621851
 20
1908.448868242052
 30
0.0
 11
8626.198699621843
 21
1908.448868242052
 31
0.0
  0
LINE
  5
26379
330
747D
100
AcDbEntity
  8
細線
 48
50.0
100
AcDbLine
 10
9046.176524814185
 20
1424.448868242052
 30
0.0
 11
9039.745744195839
 21
1448.448868242052
 31
0.0
  0
LINE
  5
2637A
330
747D
100
AcDbEntity
  8
細線
 48
50.0
100
AcDbLine
 10
8967.28847986694
 20
1424.448868242052
 30
0.0
 11
8960.857699248593
 21
1448.448868242052
 31
0.0
  0
LINE
  5
2637B
330
747D
100
AcDbEntity
  8
細線
 48
50.0
100
AcDbLine
 10
8888.400434919685
 20
1424.448868242054
 30
0.0
 11
8881.969654301336
 21
1448.448868242054
 31
0.0
  0
LINE
  5
2637C
330
747D
100
AcDbEntity
  8
細線
 48
50.0
100
AcDbLine
 10
9024.740589419696
 20
1344.448868242052
 30
0.0
 11
9031.171370038043
 21
1320.448868242052
 31
0.0
  0
LINE
  5
2637D
330
747D
100
AcDbEntity
  8
細線
 48
50.0
100
AcDbLine
 10
8945.852544472451
 20
1344.448868242052
 30
0.0
 11
8952.283325090796
 21
1320.448868242052
 31
0.0
  0
LINE
  5
2637E
330
747D
100
AcDbEntity
  8
細線
 48
50.0
100
AcDbLine
 10
8866.964499525202
 20
1344.448868242054
 30
0.0
 11
8873.39528014356
 21
1320.448868242054
 31
0.0
  0
LINE
  5
2637F
330
747D
100
AcDbEntity
  8
細線
 48
50.0
100
AcDbLine
 10
8939.421763854101
 20
1320.448868242051
 30
0.0
 11
8973.719260485285
 21
1448.448868242051
 31
0.0
  0
LINE
  5
26380
330
747D
100
AcDbEntity
  8
細線
 48
50.0
100
AcDbLine
 10
8860.533718906852
 20
1320.448868242052
 30
0.0
 11
8894.831215538026
 21
1448.448868242054
 31
0.0
  0
LINE
  5
26381
330
747D
100
AcDbEntity
  8
細線
 48
50.0
100
AcDbLine
 10
9018.309808801346
 20
1320.448868242052
 30
0.0
 11
9052.607305432532
 21
1448.448868242051
 31
0.0
  0
LINE
  5
26382
330
747D
100
AcDbEntity
  8
部品1
 48
50.0
100
AcDbLine
 10
9089.798699621853
 20
1448.448868242054
 30
0.0
 11
9089.798699621853
 21
1320.448868242054
 31
0.0
  0
LINE
  5
26383
330
747D
100
AcDbEntity
  8
細線
 48
50.0
100
AcDbLine
 10
8809.512389972445
 20
1424.448868242054
 30
0.0
 11
8803.0816093541
 21
1448.448868242054
 31
0.0
  0
LINE
  5
26384
330
747D
100
AcDbEntity
  8
細線
 48
50.0
100
AcDbLine
 10
8730.624345025201
 20
1424.448868242054
 30
0.0
 11
8724.193564406853
 21
1448.448868242054
 31
0.0
  0
LINE
  5
26385
330
747D
100
AcDbEntity
  8
細線
 48
50.0
100
AcDbLine
 10
8572.848255130706
 20
1424.448868242054
 30
0.0
 11
8566.417474512361
 21
1448.448868242054
 31
0.0
  0
LINE
  5
26386
330
747D
100
AcDbEntity
  8
細線
 48
50.0
100
AcDbLine
 10
8651.736300077955
 20
1424.448868242054
 30
0.0
 11
8645.305519459606
 21
1448.448868242054
 31
0.0
  0
LINE
  5
26387
330
747D
100
AcDbEntity
  8
細線
 48
50.0
100
AcDbLine
 10
8709.18840963071
 20
1344.448868242054
 30
0.0
 11
8715.619190249057
 21
1320.448868242054
 31
0.0
  0
LINE
  5
26388
330
747D
100
AcDbEntity
  8
細線
 48
50.0
100
AcDbLine
 10
8788.076454577957
 20
1344.448868242054
 30
0.0
 11
8794.507235196304
 21
1320.448868242054
 31
0.0
  0
LINE
  5
26389
330
747D
100
AcDbEntity
  8
細線
 48
50.0
100
AcDbLine
 10
8551.412319736217
 20
1344.448868242054
 30
0.0
 11
8557.843100354565
 21
1320.448868242054
 31
0.0
  0
LINE
  5
2638A
330
747D
100
AcDbEntity
  8
細線
 48
50.0
100
AcDbLine
 10
8630.300364683463
 20
1344.448868242054
 30
0.0
 11
8636.731145301812
 21
1320.448868242054
 31
0.0
  0
LINE
  5
2638B
330
747D
100
AcDbEntity
  8
細線
 48
50.0
100
AcDbLine
 10
8781.645673959603
 20
1320.448868242054
 30
0.0
 11
8815.943170590788
 21
1448.448868242052
 31
0.0
  0
LINE
  5
2638C
330
747D
100
AcDbEntity
  8
細線
 48
50.0
100
AcDbLine
 10
8623.869584065113
 20
1320.448868242054
 30
0.0
 11
8658.167080696298
 21
1448.448868242052
 31
0.0
  0
LINE
  5
2638D
330
747D
100
AcDbEntity
  8
細線
 48
50.0
100
AcDbLine
 10
8544.981539117866
 20
1320.448868242054
 30
0.0
 11
8579.279035749049
 21
1448.448868242054
 31
0.0
  0
LINE
  5
2638E
330
747D
100
AcDbEntity
  8
細線
 48
50.0
100
AcDbLine
 10
8702.757629012362
 20
1320.448868242052
 30
0.0
 11
8737.055125643543
 21
1448.448868242052
 31
0.0
  0
LINE
  5
2638F
330
747D
100
AcDbEntity
  8
細線
 48
50.0
100
AcDbLine
 10
8827.53039457666
 20
1448.448868242054
 30
0.0
 11
9009.79869962185
 21
1630.71717328725
 31
0.0
  0
LINE
  5
26390
330
747D
100
AcDbEntity
  8
部品1
 48
50.0
100
AcDbLine
 10
9009.79869962185
 20
1688.448868242054
 30
0.0
 11
9009.79869962185
 21
1448.448868242054
 31
0.0
  0
LINE
  5
26391
330
747D
100
AcDbEntity
  8
細線
 48
50.0
100
AcDbLine
 10
8800.589626213456
 20
1448.448868242054
 30
0.0
 11
9009.79869962185
 21
1657.657941650447
 31
0.0
  0
LINE
  5
26392
330
747D
100
AcDbEntity
  8
細線
 48
50.0
100
AcDbLine
 10
8773.648857850243
 20
1448.448868242054
 30
0.0
 11
9009.79869962185
 21
1684.598710013662
 31
0.0
  0
LINE
  5
26393
330
747D
100
AcDbEntity
  8
細線
 48
50.0
100
AcDbLine
 10
8558.122710944585
 20
1448.448868242054
 30
0.0
 11
8881.79869962185
 21
1772.12485691932
 31
0.0
  0
LINE
  5
26394
330
747D
100
AcDbEntity
  8
細線
 48
50.0
100
AcDbLine
 10
8612.004247671
 20
1448.448868242054
 30
0.0
 11
8881.79869962185
 21
1718.243320192911
 31
0.0
  0
LINE
  5
26395
330
747D
100
AcDbEntity
  8
細線
 48
50.0
100
AcDbLine
 10
8585.063479307796
 20
1448.448868242054
 30
0.0
 11
8881.79869962185
 21
1745.184088556107
 31
0.0
  0
LINE
  5
26396
330
747D
100
AcDbEntity
  8
細線
 48
50.0
100
AcDbLine
 10
8339.798699621846
 20
1661.17715073064
 30
0.0
 11
8367.070417133266
 21
1688.448868242054
 31
0.0
  0
LINE
  5
26397
330
747D
100
AcDbEntity
  8
部品1
 48
50.0
100
AcDbLine
 10
8339.79869962185
 20
1688.448868242054
 30
0.0
 11
8467.79869962185
 21
1688.448868242054
 31
0.0
  0
LINE
  5
26398
330
747D
100
AcDbEntity
  8
細線
 48
50.0
100
AcDbLine
 10
8339.798699621846
 20
1634.236382367429
 30
0.0
 11
8394.011185496474
 21
1688.448868242054
 31
0.0
  0
LWPOLYLINE
  5
26399
330
747D
100
AcDbEntity
  8
部品1
 48
50.0
100
AcDbPolyline
 90
        2
 70
     0
 43
8.0
 10
8053.658797788894
 20
1992.448868242055
 10
8467.79869962185
 20
1992.448868242055
  0
LINE
  5
2639A
330
747D
100
AcDbEntity
  8
細線
 48
50.0
100
AcDbLine
 10
8415.072165236205
 20
1424.448868242054
 30
0.0
 11
8408.641384617856
 21
1448.448868242054
 31
0.0
  0
LINE
  5
2639B
330
747D
100
AcDbEntity
  8
細線
 48
50.0
100
AcDbLine
 10
8493.960210183455
 20
1424.448868242054
 30
0.0
 11
8487.529429565107
 21
1448.448868242054
 31
0.0
  0
LINE
  5
2639C
330
747D
100
AcDbEntity
  8
細線
 48
50.0
100
AcDbLine
 10
8336.184120288953
 20
1424.448868242054
 30
0.0
 11
8329.753339670606
 21
1448.448868242054
 31
0.0
  0
LINE
  5
2639D
330
747D
100
AcDbEntity
  8
細線
 48
50.0
100
AcDbLine
 10
8259.79869962185
 20
1433.788789207834
 30
0.0
 11
8263.726855960046
 21
1448.448868242054
 31
0.0
  0
LINE
  5
2639E
330
747D
100
AcDbEntity
  8
細線
 48
50.0
100
AcDbLine
 10
8393.636229841716
 20
1344.448868242054
 30
0.0
 11
8400.067010460061
 21
1320.448868242054
 31
0.0
  0
LINE
  5
2639F
330
747D
100
AcDbEntity
  8
細線
 48
50.0
100
AcDbLine
 10
8472.524274788966
 20
1344.448868242054
 30
0.0
 11
8478.955055407315
 21
1320.448868242054
 31
0.0
  0
LINE
  5
263A0
330
747D
100
AcDbEntity
  8
細線
 48
50.0
100
AcDbLine
 10
8314.748184894462
 20
1344.448868242054
 30
0.0
 11
8321.178965512809
 21
1320.448868242054
 31
0.0
  0
LINE
  5
263A1
330
747D
100
AcDbEntity
  8
細線
 48
50.0
100
AcDbLine
 10
8466.093494170614
 20
1320.448868242052
 30
0.0
 11
8500.390990801795
 21
1448.448868242052
 31
0.0
  0
LINE
  5
263A2
330
747D
100
AcDbEntity
  8
細線
 48
50.0
100
AcDbLine
 10
8308.31740427611
 20
1320.448868242052
 30
0.0
 11
8342.614900907292
 21
1448.448868242052
 31
0.0
  0
LINE
  5
263A3
330
747D
100
AcDbEntity
  8
部品1
 48
50.0
100
AcDbLine
 10
8259.798699621853
 20
1320.448868242054
 30
0.0
 11
8259.798699621853
 21
1448.448868242054
 31
0.0
  0
LINE
  5
263A4
330
747D
100
AcDbEntity
  8
細線
 48
50.0
100
AcDbLine
 10
8387.205449223367
 20
1320.448868242054
 30
0.0
 11
8421.50294585455
 21
1448.448868242054
 31
0.0
  0
LINE
  5
263A5
330
747D
100
AcDbEntity
  8
部品1
 48
50.0
100
AcDbLine
 10
8339.79869962185
 20
1448.448868242054
 30
0.0
 11
8339.79869962185
 21
1688.448868242054
 31
0.0
  0
LINE
  5
263A6
330
747D
100
AcDbEntity
  8
細線
 48
50.0
100
AcDbLine
 10
8339.798699621846
 20
1607.295614004225
 30
0.0
 11
8420.951953859679
 21
1688.448868242054
 31
0.0
  0
LINE
  5
263A7
330
747D
100
AcDbEntity
  8
部品1
 48
50.0
100
AcDbLine
 10
9089.798699621853
 20
1320.448868242054
 30
0.0
 11
8259.798699621853
 21
1320.448868242054
 31
0.0
  0
LINE
  5
263A8
330
747D
100
AcDbEntity
  8
部品1
 48
50.0
100
AcDbLine
 10
9089.798699621853
 20
1448.448868242054
 30
0.0
 11
8259.798699621853
 21
1448.448868242054
 31
0.0
  0
LINE
  5
263A9
330
747D
100
AcDbEntity
  8
細線
 48
50.0
100
AcDbLine
 10
8342.596564038926
 20
1448.448868242054
 30
0.0
 11
8881.79869962185
 21
1987.65100382498
 31
0.0
  0
LINE
  5
263AA
330
747D
100
AcDbEntity
  8
細線
 48
50.0
100
AcDbLine
 10
8369.537332402135
 20
1448.448868242054
 30
0.0
 11
8881.798699621853
 21
1960.710235461768
 31
0.0
  0
LINE
  5
263AB
330
747D
100
AcDbEntity
  8
細線
 48
50.0
100
AcDbLine
 10
8396.478100765341
 20
1448.448868242054
 30
0.0
 11
8881.79869962185
 21
1933.769467098562
 31
0.0
  0
LINE
  5
263AC
330
747D
100
AcDbEntity
  8
細線
 48
50.0
100
AcDbLine
 10
8467.79869962185
 20
1789.17715073064
 30
0.0
 11
8626.198699621843
 21
1947.577150730635
 31
0.0
  0
LINE
  5
263AD
330
747D
100
AcDbEntity
  8
細線
 48
50.0
100
AcDbLine
 10
8467.79869962185
 20
1735.295614004225
 30
0.0
 11
8640.951953859687
 21
1908.448868242052
 31
0.0
  0
LINE
  5
263AE
330
747D
100
AcDbEntity
  8
細線
 48
50.0
100
AcDbLine
 10
8467.79869962185
 20
1762.236382367432
 30
0.0
 11
8626.198699621843
 21
1920.636382367421
 31
0.0
  0
LINE
  5
263AF
330
747D
100
AcDbEntity
  8
部品1
100
AcDbLine
 10
8626.198699621843
 20
1908.448868242054
 30
0.0
 11
8626.19869962185
 21
2232.448868242054
 31
0.0
  0
LINE
  5
263B0
330
747D
100
AcDbEntity
  8
部品1
100
AcDbLine
 10
8752.198699621851
 20
1908.448868242054
 30
0.0
 11
8752.198699621851
 21
2232.448868242054
 31
0.0
  0
LINE
  5
263B1
330
747D
100
AcDbEntity
  8
細線
 48
50.0
100
AcDbLine
 10
8752.198699621851
 20
2046.636382367426
 30
0.0
 11
8881.79869962185
 21
2176.236382367422
 31
0.0
  0
LINE
  5
263B2
330
747D
100
AcDbEntity
  8
細線
 48
50.0
100
AcDbLine
 10
8752.198699621851
 20
2019.695614004213
 30
0.0
 11
8881.79869962185
 21
2149.295614004204
 31
0.0
  0
LINE
  5
263B3
330
747D
100
AcDbEntity
  8
部品1
100
AcDbLine
 10
8680.198699621852
 20
2007.448868242054
 30
0.0
 11
8680.198699621847
 21
2281.608868242055
 31
0.0
  0
LINE
  5
263B4
330
747D
100
AcDbEntity
  8
部品1
100
AcDbLine
 10
8698.198699621851
 20
2007.448868242054
 30
0.0
 11
8698.198699621848
 21
2281.608868242055
 31
0.0
  0
TEXT
  5
263B5
330
747D
100
AcDbEntity
  8
部品1
 48
50.0
100
AcDbText
 10
8053.658797788894
 20
2003.68786052531
 30
0.0
 40
80.0
  1
▽G.L
  7
STYLE2
100
AcDbText
  0
LINE
  5
263B6
330
747D
100
AcDbEntity
  8
細線
 48
50.0
100
AcDbLine
 10
8467.79869962185
 20
1950.821760909884
 30
0.0
 11
8626.198699621848
 21
2109.221760909877
 31
0.0
  0
LINE
  5
263B7
330
747D
100
AcDbEntity
  8
細線
 48
50.0
100
AcDbLine
 10
8467.79869962185
 20
1977.762529273092
 30
0.0
 11
8626.19869962185
 21
2136.162529273089
 31
0.0
  0
LINE
  5
263B8
330
747D
100
AcDbEntity
  8
細線
 48
50.0
100
AcDbLine
 10
8467.79869962185
 20
2004.7032976363
 30
0.0
 11
8626.19869962185
 21
2163.103297636297
 31
0.0
  0
LINE
  5
263B9
330
747D
100
AcDbEntity
  8
部品1
 48
50.0
100
AcDbLine
 10
8467.79869962185
 20
1688.448868242054
 30
0.0
 11
8467.79869962185
 21
2232.448868242054
 31
0.0
  0
LINE
  5
263BA
330
747D
100
AcDbEntity
  8
部品1
100
AcDbLine
 10
8881.79869962185
 20
1688.448868242054
 30
0.0
 11
8881.79869962185
 21
2232.448868242054
 31
0.0
  0
LINE
  5
263BB
330
747D
100
AcDbEntity
  8
細線
 48
50.0
100
AcDbLine
 10
8752.198699621851
 20
2073.577150730643
 30
0.0
 11
8881.79869962185
 21
2203.177150730641
 31
0.0
  0
LINE
  5
263BC
330
747D
100
AcDbEntity
  8
細線
 48
50.0
100
AcDbLine
 10
6876.251808947127
 20
2113.19572013877
 30
0.0
 11
6959.759386444658
 21
2196.7032976363
 31
0.0
  0
LINE
  5
263BD
330
747D
100
AcDbEntity
  8
細線
 48
50.0
100
AcDbLine
 10
6887.312093710644
 20
2097.315236539076
 30
0.0
 11
6959.759386444658
 21
2169.762529273092
 31
0.0
  0
LINE
  5
263BE
330
747D
100
AcDbEntity
  8
細線
 48
50.0
100
AcDbLine
 10
6767.759386444658
 20
2220.229444541959
 30
0.0
 11
6779.978810144752
 21
2232.448868242054
 31
0.0
  0
LINE
  5
263BF
330
747D
100
AcDbEntity
  8
細線
 48
50.0
100
AcDbLine
 10
6767.759386444658
 20
2166.347907815544
 30
0.0
 11
6833.860346871166
 21
2232.448868242054
 31
0.0
  0
LINE
  5
263C0
330
747D
100
AcDbEntity
  8
細線
 48
50.0
100
AcDbLine
 10
6767.759386444658
 20
2193.288676178752
 30
0.0
 11
6806.919578507962
 21
2232.448868242054
 31
0.0
  0
LINE
  5
263C1
330
747D
100
AcDbEntity
  8
部品1
 48
50.0
100
AcDbLine
 10
6767.759386444658
 20
2232.448868242054
 30
0.0
 11
6959.759386444658
 21
2232.448868242054
 31
0.0
  0
DIMENSION
  5
263C2
330
747D
100
AcDbEntity
  8
寸法
 48
50.0
100
AcDbDimension
  2
*D54
 10
6767.759386444656
 20
2652.116676158435
 30
0.0
 11
6863.759386444655
 21
2652.116676158435
 31
0.0
 70
   160
  1
120\P200\P280
 71
     5
 42
192.0
  3
INABA_S40G
100
AcDbAlignedDimension
 13
6959.759386444656
 23
2232.448868242054
 33
0.0
 14
6767.759386444656
 24
2232.448868242054
 34
0.0
100
AcDbRotatedDimension
1001
ACAD
1000
DSTYLE
1002
{
1070
   341
1005
0
1002
}
  0
MTEXT
  5
263C3
102
{ACAD_REACTORS
330
26418
102
}
330
747D
100
AcDbEntity
  8
寸法
 62
     7
 48
50.0
100
AcDbMText
 10
7201.497842305908
 20
1271.099782509901
 30
0.0
 40
80.0
 41
0.8
 71
     4
 72
     1
  1
\A1;D10@300
  7
STYLE2
 73
     1
 44
1.0
1001
ACAD
1000
MTEXTBEGIN
1070
    73
1070
     1
1070
    44
1040
1.0
1070
    74
1070
     0
1000
MTEXTEND
  0
LINE
  5
263C4
330
747D
100
AcDbEntity
  8
細線
 48
50.0
100
AcDbLine
 10
6887.759386444662
 20
1882.236382367435
 30
0.0
 11
6959.759386444649
 21
1954.23638236743
 31
0.0
  0
LINE
  5
263C5
330
747D
100
AcDbEntity
  8
細線
 48
50.0
100
AcDbLine
 10
6887.759386444656
 20
1909.17715073064
 30
0.0
 11
6959.759386444658
 21
1981.17715073064
 31
0.0
  0
LINE
  5
263C6
330
747D
100
AcDbEntity
  8
細線
 48
50.0
100
AcDbLine
 10
6887.759386444662
 20
1639.769467098566
 30
0.0
 11
6959.759386444649
 21
1711.769467098565
 31
0.0
  0
LINE
  5
263C7
330
747D
100
AcDbEntity
  8
細線
 48
50.0
100
AcDbLine
 10
6887.759386444662
 20
1693.651003824983
 30
0.0
 11
6959.759386444649
 21
1765.65100382498
 31
0.0
  0
LINE
  5
263C8
330
747D
100
AcDbEntity
  8
細線
 48
50.0
100
AcDbLine
 10
6887.759386444662
 20
1666.710235461775
 30
0.0
 11
6959.759386444649
 21
1738.71023546177
 31
0.0
  0
LINE
  5
263C9
330
747D
100
AcDbEntity
  8
部品1
 48
50.0
100
AcDbLine
 10
6959.759386444658
 20
1688.448868242054
 30
0.0
 11
7087.759386444656
 21
1688.448868242054
 31
0.0
  0
LINE
  5
263CA
330
747D
100
AcDbEntity
  8
細線
 48
50.0
100
AcDbLine
 10
6887.759386444662
 20
1855.295614004225
 30
0.0
 11
6959.759386444649
 21
1927.295614004225
 31
0.0
  0
LINE
  5
263CB
330
747D
100
AcDbEntity
  8
部品1
 48
50.0
100
AcDbLine
 10
6855.759386444657
 20
2034.576082939176
 30
0.0
 11
6855.759386444657
 21
2092.7032976363
 31
0.0
  0
LINE
  5
263CC
330
747D
100
AcDbEntity
  8
細線
 48
50.0
100
AcDbLine
 10
6767.759386444658
 20
2004.7032976363
 30
0.0
 11
6839.759386444658
 21
2076.7032976363
 31
0.0
  0
LINE
  5
263CD
330
747D
100
AcDbEntity
  8
部品1
 48
50.0
100
AcDbLine
 10
6839.759386444658
 20
2034.57608293918
 30
0.0
 11
6839.759386444658
 21
2092.7032976363
 31
0.0
  0
LINE
  5
263CE
330
747D
100
AcDbEntity
  8
細線
 48
50.0
100
AcDbLine
 10
6767.759386444658
 20
1977.762529273092
 30
0.0
 11
6839.759386444658
 21
2049.762529273092
 31
0.0
  0
LINE
  5
263CF
330
747D
100
AcDbEntity
  8
細線
 48
50.0
100
AcDbLine
 10
6767.759386444658
 20
1950.821760909884
 30
0.0
 11
6851.513708473951
 21
2034.576082939176
 31
0.0
  0
LINE
  5
263D0
330
747D
100
AcDbEntity
  8
部品1
 48
50.0
100
AcDbLine
 10
6855.759386444657
 20
2034.576082939176
 30
0.0
 11
6839.759386444658
 21
2034.57608293918
 31
0.0
  0
LINE
  5
263D1
330
747D
100
AcDbEntity
  8
細線
 48
50.0
100
AcDbLine
 10
6639.759386444651
 20
1661.17715073064
 30
0.0
 11
6667.031103956071
 21
1688.448868242054
 31
0.0
  0
LINE
  5
263D2
330
747D
100
AcDbEntity
  8
細線
 48
50.0
100
AcDbLine
 10
6639.759386444651
 20
1634.236382367429
 30
0.0
 11
6693.971872319282
 21
1688.448868242054
 31
0.0
  0
LINE
  5
263D3
330
747D
100
AcDbEntity
  8
部品1
 48
50.0
100
AcDbLine
 10
6639.759386444658
 20
1688.448868242054
 30
0.0
 11
6767.759386444658
 21
1688.448868242054
 31
0.0
  0
LINE
  5
263D4
330
747D
100
AcDbEntity
  8
細線
 48
50.0
100
AcDbLine
 10
6855.759386444657
 20
2065.762529273092
 30
0.0
 11
6871.759386444657
 21
2081.762529273092
 31
0.0
  0
LINE
  5
263D5
330
747D
100
AcDbEntity
  8
細線
 48
50.0
100
AcDbLine
 10
6855.759386444657
 20
2038.821760909885
 30
0.0
 11
6871.759386444657
 21
2054.821760909885
 31
0.0
  0
LINE
  5
263D6
330
747D
100
AcDbEntity
  8
細線
 48
50.0
100
AcDbLine
 10
6767.759386444658
 20
1735.295614004225
 30
0.0
 11
6871.759386444662
 21
1839.295614004225
 31
0.0
  0
LINE
  5
263D7
330
747D
100
AcDbEntity
  8
細線
 48
50.0
100
AcDbLine
 10
6767.759386444658
 20
1789.17715073064
 30
0.0
 11
6871.759386444657
 21
1893.17715073064
 31
0.0
  0
LINE
  5
263D8
330
747D
100
AcDbEntity
  8
細線
 48
50.0
100
AcDbLine
 10
6767.759386444658
 20
1762.236382367432
 30
0.0
 11
6871.759386444662
 21
1866.236382367435
 31
0.0
  0
LINE
  5
263D9
330
747D
100
AcDbEntity
  8
細線
 48
50.0
100
AcDbLine
 10
7030.585031848004
 20
1424.448868242054
 30
0.0
 11
7024.154251229659
 21
1448.448868242054
 31
0.0
  0
LINE
  5
263DA
330
747D
100
AcDbEntity
  8
細線
 48
50.0
100
AcDbLine
 10
7073.60954467305
 20
1448.448868242054
 30
0.0
 11
7087.759386444656
 21
1462.598710013661
 31
0.0
  0
LINE
  5
263DB
330
747D
100
AcDbEntity
  8
細線
 48
50.0
100
AcDbLine
 10
7109.473076795251
 20
1424.448868242054
 30
0.0
 11
7103.042296176903
 21
1448.448868242054
 31
0.0
  0
LINE
  5
263DC
330
747D
100
AcDbEntity
  8
部品1
 48
50.0
100
AcDbLine
 10
7031.759386444658
 20
1560.448868242054
 30
0.0
 11
7031.759386444658
 21
1544.448868242054
 31
0.0
  0
LINE
  5
263DD
330
747D
100
AcDbEntity
  8
細線
 48
50.0
100
AcDbLine
 10
6911.964934493804
 20
1448.448868242054
 30
0.0
 11
7007.965822338942
 21
1544.449756087193
 31
0.0
  0
LINE
  5
263DE
330
747D
100
AcDbEntity
  8
細線
 48
50.0
100
AcDbLine
 10
6885.024166130602
 20
1448.448868242054
 30
0.0
 11
6981.024166130601
 21
1544.448868242054
 31
0.0
  0
LINE
  5
263DF
330
747D
100
AcDbEntity
  8
細線
 48
50.0
100
AcDbLine
 10
6951.69698690076
 20
1424.448868242054
 30
0.0
 11
6945.266206282413
 21
1448.448868242054
 31
0.0
  0
LINE
  5
263E0
330
747D
100
AcDbEntity
  8
細線
 48
50.0
100
AcDbLine
 10
6872.808941953514
 20
1424.448868242054
 30
0.0
 11
6866.378161335166
 21
1448.448868242054
 31
0.0
  0
ARC
  5
263E1
330
747D
100
AcDbEntity
  8
部品1
 48
50.0
100
AcDbCircle
 10
6863.759386444657
 20
1568.448868242054
 30
0.0
 40
24.0
100
AcDbArc
 50
340.5287793655287
 51
0.0
  0
CIRCLE
  5
263E2
330
747D
100
AcDbEntity
  8
部品1
 48
50.0
100
AcDbCircle
 10
6991.759386444657
 20
1568.448868242054
 30
0.0
 40
8.0
  0
LINE
  5
263E3
330
747D
100
AcDbEntity
  8
細線
 48
50.0
100
AcDbLine
 10
7023.964934493804
 20
1560.448868242054
 30
0.0
 11
7087.759386444656
 21
1624.243320192905
 31
0.0
  0
LINE
  5
263E4
330
747D
100
AcDbEntity
  8
細線
 48
50.0
100
AcDbLine
 10
7160.494405729661
 20
1320.448868242052
 30
0.0
 11
7167.759386444657
 21
1347.562145386442
 31
0.0
  0
LINE
  5
263E5
330
747D
100
AcDbEntity
  8
細線
 48
50.0
100
AcDbLine
 10
7166.925186348009
 20
1344.448868242054
 30
0.0
 11
7167.759386444657
 21
1341.33559109769
 31
0.0
  0
LINE
  5
263E6
330
747D
100
AcDbEntity
  8
細線
 48
50.0
100
AcDbLine
 10
7088.037141400763
 20
1344.448868242054
 30
0.0
 11
7094.46792201911
 21
1320.448868242054
 31
0.0
  0
LINE
  5
263E7
330
747D
100
AcDbEntity
  8
細線
 48
50.0
100
AcDbLine
 10
6930.26105150627
 20
1344.448868242054
 30
0.0
 11
6936.691832124616
 21
1320.448868242054
 31
0.0
  0
LINE
  5
263E8
330
747D
100
AcDbEntity
  8
細線
 48
50.0
100
AcDbLine
 10
7009.149096453516
 20
1344.448868242054
 30
0.0
 11
7015.579877071863
 21
1320.448868242054
 31
0.0
  0
LINE
  5
263E9
330
747D
100
AcDbEntity
  8
細線
 48
50.0
100
AcDbLine
 10
7002.718315835166
 20
1320.448868242052
 30
0.0
 11
7037.01581246635
 21
1448.448868242052
 31
0.0
  0
LINE
  5
263EA
330
747D
100
AcDbEntity
  8
細線
 48
50.0
100
AcDbLine
 10
6923.830270887916
 20
1320.448868242054
 30
0.0
 11
6958.127767519103
 21
1448.448868242052
 31
0.0
  0
LINE
  5
263EB
330
747D
100
AcDbEntity
  8
細線
 48
50.0
100
AcDbLine
 10
7081.60636078241
 20
1320.448868242054
 30
0.0
 11
7115.903857413596
 21
1448.448868242052
 31
0.0
  0
LINE
  5
263EC
330
747D
100
AcDbEntity
  8
部品1
 48
50.0
100
AcDbLine
 10
7167.759386444661
 20
1448.448868242054
 30
0.0
 11
7167.759386444661
 21
1320.448868242054
 31
0.0
  0
LINE
  5
263ED
330
747D
100
AcDbEntity
  8
部品1
 48
50.0
100
AcDbLine
 10
6855.759386444657
 20
1626.576082939176
 30
0.0
 11
6855.759386444657
 21
1568.448868242054
 31
0.0
  0
LINE
  5
263EE
330
747D
100
AcDbEntity
  8
細線
 48
50.0
100
AcDbLine
 10
6781.49801922494
 20
1560.448868242054
 30
0.0
 11
6839.759386444658
 21
1618.710235461773
 31
0.0
  0
LINE
  5
263EF
330
747D
100
AcDbEntity
  8
部品1
 48
50.0
100
AcDbLine
 10
6839.759386444658
 20
1626.576082939176
 30
0.0
 11
6839.759386444658
 21
1568.448868242054
 31
0.0
  0
LINE
  5
263F0
330
747D
100
AcDbEntity
  8
細線
 48
50.0
100
AcDbLine
 10
6696.438787588146
 20
1448.448868242054
 30
0.0
 11
6792.438787588146
 21
1544.448868242054
 31
0.0
  0
LINE
  5
263F1
330
747D
100
AcDbEntity
  8
細線
 48
50.0
100
AcDbLine
 10
6793.920897006261
 20
1424.448868242054
 30
0.0
 11
6787.490116387914
 21
1448.448868242054
 31
0.0
  0
LINE
  5
263F2
330
747D
100
AcDbEntity
  8
細線
 48
50.0
100
AcDbLine
 10
6715.032852059008
 20
1424.448868242054
 30
0.0
 11
6708.602071440663
 21
1448.448868242054
 31
0.0
  0
ARC
  5
263F3
330
747D
100
AcDbEntity
  8
部品1
 48
50.0
100
AcDbCircle
 10
6863.759386444657
 20
1568.448868242054
 30
0.0
 40
24.0
100
AcDbArc
 50
180.0
 51
199.4712206344713
  0
LINE
  5
263F4
330
747D
100
AcDbEntity
  8
細線
 48
50.0
100
AcDbLine
 10
6808.438787588146
 20
1560.448868242054
 30
0.0
 11
6839.759386444658
 21
1591.769467098566
 31
0.0
  0
CIRCLE
  5
263F5
330
747D
100
AcDbEntity
  8
部品1
 48
50.0
100
AcDbCircle
 10
6735.759386444657
 20
1568.448868242054
 30
0.0
 40
8.0
  0
LINE
  5
263F6
330
747D
100
AcDbEntity
  8
部品1
 48
50.0
100
AcDbLine
 10
6855.759386444657
 20
1626.576082939176
 30
0.0
 11
6839.759386444658
 21
1626.576082939176
 31
0.0
  0
LINE
  5
263F7
330
747D
100
AcDbEntity
  8
細線
 48
50.0
100
AcDbLine
 10
6559.759386444657
 20
1433.788789207834
 30
0.0
 11
6563.687542782853
 21
1448.448868242054
 31
0.0
  0
LINE
  5
263F8
330
747D
100
AcDbEntity
  8
細線
 48
50.0
100
AcDbLine
 10
6636.144807111758
 20
1424.448868242054
 30
0.0
 11
6629.71402649341
 21
1448.448868242054
 31
0.0
  0
LINE
  5
263F9
330
747D
100
AcDbEntity
  8
部品1
 48
50.0
100
AcDbLine
 10
6695.759386444658
 20
1560.448868242054
 30
0.0
 11
6695.759386444658
 21
1544.448868242054
 31
0.0
  0
LINE
  5
263FA
330
747D
100
AcDbEntity
  8
細線
 48
50.0
100
AcDbLine
 10
6642.557250861729
 20
1448.448868242054
 30
0.0
 11
6738.55725086173
 21
1544.448868242054
 31
0.0
  0
LINE
  5
263FB
330
747D
100
AcDbEntity
  8
細線
 48
50.0
100
AcDbLine
 10
6669.49801922494
 20
1448.448868242054
 30
0.0
 11
6765.498019224941
 21
1544.448868242054
 31
0.0
  0
LINE
  5
263FC
330
747D
100
AcDbEntity
  8
細線
 48
50.0
100
AcDbLine
 10
6772.484961611772
 20
1344.448868242054
 30
0.0
 11
6778.915742230117
 21
1320.448868242054
 31
0.0
  0
LINE
  5
263FD
330
747D
100
AcDbEntity
  8
細線
 48
50.0
100
AcDbLine
 10
6851.373006559025
 20
1344.448868242054
 30
0.0
 11
6857.80378717737
 21
1320.448868242054
 31
0.0
  0
LINE
  5
263FE
330
747D
100
AcDbEntity
  8
細線
 48
50.0
100
AcDbLine
 10
6614.708871717268
 20
1344.448868242054
 30
0.0
 11
6621.139652335614
 21
1320.448868242054
 31
0.0
  0
LINE
  5
263FF
330
747D
100
AcDbEntity
  8
細線
 48
50.0
100
AcDbLine
 10
6693.596916664519
 20
1344.448868242054
 30
0.0
 11
6700.027697282867
 21
1320.448868242054
 31
0.0
  0
LINE
  5
26400
330
747D
100
AcDbEntity
  8
部品1
 48
50.0
100
AcDbLine
 10
6559.759386444659
 20
1320.448868242054
 30
0.0
 11
6559.759386444659
 21
1448.448868242054
 31
0.0
  0
LINE
  5
26401
330
747D
100
AcDbEntity
  8
細線
 48
50.0
100
AcDbLine
 10
6608.278091098916
 20
1320.448868242052
 30
0.0
 11
6642.575587730099
 21
1448.448868242052
 31
0.0
  0
LINE
  5
26402
330
747D
100
AcDbEntity
  8
細線
 48
50.0
100
AcDbLine
 10
6766.054180993418
 20
1320.448868242052
 30
0.0
 11
6800.351677624601
 21
1448.448868242052
 31
0.0
  0
LINE
  5
26403
330
747D
100
AcDbEntity
  8
細線
 48
50.0
100
AcDbLine
 10
6687.166136046172
 20
1320.448868242054
 30
0.0
 11
6721.463632677355
 21
1448.448868242054
 31
0.0
  0
LINE
  5
26404
330
747D
100
AcDbEntity
  8
細線
 48
50.0
100
AcDbLine
 10
6858.083397767391
 20
1448.448868242054
 30
0.0
 11
6954.08339776739
 21
1544.448868242054
 31
0.0
  0
CIRCLE
  5
26405
330
747D
100
AcDbEntity
  8
部品1
 48
50.0
100
AcDbCircle
 10
6863.759386444657
 20
1568.448868242054
 30
0.0
 40
8.0
  0
LINE
  5
26406
330
747D
100
AcDbEntity
  8
部品1
 48
50.0
100
AcDbLine
 10
7167.759386444661
 20
1448.448868242054
 30
0.0
 11
6559.759386444659
 21
1448.448868242054
 31
0.0
  0
LINE
  5
26407
330
747D
100
AcDbEntity
  8
部品1
 48
50.0
100
AcDbLine
 10
6695.759386444658
 20
1560.448868242054
 30
0.0
 11
7031.759386444658
 21
1560.448868242054
 31
0.0
  0
LINE
  5
26408
330
747D
100
AcDbEntity
  8
部品1
 48
50.0
100
AcDbLine
 10
6695.759386444658
 20
1544.448868242054
 30
0.0
 11
7031.759386444658
 21
1544.448868242054
 31
0.0
  0
LINE
  5
26409
330
747D
100
AcDbEntity
  8
部品1
 48
50.0
100
AcDbLine
 10
7167.759386444661
 20
1320.448868242054
 30
0.0
 11
6559.759386444659
 21
1320.448868242054
 31
0.0
  0
LINE
  5
2640A
330
747D
100
AcDbEntity
  8
細線
 48
50.0
100
AcDbLine
 10
6844.942225940672
 20
1320.448868242054
 30
0.0
 11
6879.239722571854
 21
1448.448868242054
 31
0.0
  0
LINE
  5
2640B
330
747D
100
AcDbEntity
  8
細線
 48
50.0
100
AcDbLine
 10
6855.759386444657
 20
1607.769467098566
 30
0.0
 11
6871.759386444662
 21
1623.769467098566
 31
0.0
  0
LINE
  5
2640C
330
747D
100
AcDbEntity
  8
部品1
 48
50.0
100
AcDbLine
 10
6871.759386444662
 20
1568.448868242054
 30
0.0
 11
6871.75938644465
 21
2092.7032976363
 31
0.0
  0
LINE
  5
2640D
330
747D
100
AcDbEntity
  8
部品1
 48
50.0
100
AcDbLine
 10
6887.759386444662
 20
1568.448868242054
 30
0.0
 11
6887.759386444656
 21
2092.7032976363
 31
0.0
  0
LINE
  5
2640E
330
747D
100
AcDbEntity
  8
部品1
 48
50.0
100
AcDbLine
 10
7087.759386444656
 20
1688.448868242054
 30
0.0
 11
7087.759386444656
 21
1448.448868242054
 31
0.0
  0
LINE
  5
2640F
330
747D
100
AcDbEntity
  8
細線
 48
50.0
100
AcDbLine
 10
6970.083397767385
 20
1560.448868242054
 30
0.0
 11
7087.759386444656
 21
1678.12485691932
 31
0.0
  0
LINE
  5
26410
330
747D
100
AcDbEntity
  8
細線
 48
50.0
100
AcDbLine
 10
6997.0241661306
 20
1560.448868242054
 30
0.0
 11
7087.759386444656
 21
1651.184088556113
 31
0.0
  0
LINE
  5
26411
330
747D
100
AcDbEntity
  8
部品1
 48
50.0
100
AcDbLine
 10
6639.759386444658
 20
1448.448868242054
 30
0.0
 11
6639.759386444658
 21
1688.448868242054
 31
0.0
  0
LINE
  5
26412
330
747D
100
AcDbEntity
  8
細線
 48
50.0
100
AcDbLine
 10
6754.557250861729
 20
1560.448868242054
 30
0.0
 11
6871.759386444657
 21
1677.65100382498
 31
0.0
  0
LINE
  5
26413
330
747D
100
AcDbEntity
  8
細線
 48
50.0
100
AcDbLine
 10
6847.625233922061
 20
1626.576082939176
 30
0.0
 11
6871.759386444662
 21
1650.710235461775
 31
0.0
  0
LINE
  5
26414
330
747D
100
AcDbEntity
  8
細線
 48
50.0
100
AcDbLine
 10
6639.759386444651
 20
1607.295614004225
 30
0.0
 11
6720.912640682485
 21
1688.448868242054
 31
0.0
  0
LEADER
  5
26415
330
747D
100
AcDbEntity
  8
寸法
 48
50.0
100
AcDbLeader
  3
INABA_S50G
 71
     0
 73
     0
 74
     0
 75
     1
 40
100.0
 41
222.7272727272727
 76
     3
 10
6863.759386444655
 20
2092.7032976363
 30
0.0
 10
6917.645323472051
 20
2191.938870489474
 30
0.0
 10
7042.645323472051
 20
2191.938870489474
 30
0.0
1001
ACAD
1000
DSTYLE
1002
{
1070
    40
1040
1.0
1070
   272
1070
     1
1070
   279
1070
     1
1070
   341
1005
0
1002
}
  0
LWPOLYLINE
  5
26416
330
747D
100
AcDbEntity
  8
部品1
 48
50.0
100
AcDbPolyline
 90
        2
 70
     0
 43
8.0
 10
6959.759386444656
 20
1992.448868242055
 10
7373.899288277614
 20
1992.448868242055
  0
MTEXT
  5
26417
102
{ACAD_REACTORS
330
26419
102
}
330
747D
100
AcDbEntity
  8
寸法
 62
     7
 48
50.0
100
AcDbMText
 10
7191.087046251341
 20
1533.051799299081
 30
0.0
 40
80.0
 41
0.8
 71
     4
 72
     1
  1
D10
  7
STYLE2
 73
     1
 44
1.0
1001
ACAD
1000
MTEXTBEGIN
1070
    73
1070
     1
1070
    44
1040
1.0
1070
    74
1070
     0
1000
MTEXTEND
  0
LEADER
  5
26418
330
747D
100
AcDbEntity
  8
寸法
 48
50.0
100
AcDbLeader
  3
INABA_S50G
 71
     0
 73
     0
 74
     0
 75
     1
 40
100.0
 41
540.3409090909091
 76
     3
 10
6937.704555457831
 20
1551.708337828529
 30
0.0
 10
7056.497842305907
 20
1210.077519833631
 30
0.0
 10
7181.497842305907
 20
1210.077519833631
 30
0.0
213
0.0
223
-1.022262676269383
233
0.0
1001
ACAD
1000
DSTYLE
1002
{
1070
    40
1040
1.0
1070
   272
1070
     1
1070
   279
1070
     1
1070
   341
1005
0
1002
}
  0
LEADER
  5
26419
330
747D
100
AcDbEntity
  8
寸法
 48
50.0
100
AcDbLeader
  3
INABA_S50G
 71
     0
 73
     0
 74
     0
 75
     1
 40
100.0
 41
225.0
 76
     3
 10
6991.662338796799
 20
1568.448868242054
 30
0.0
 10
7046.087046251341
 20
1473.051799299082
 30
0.0
 10
7171.087046251341
 20
1473.051799299082
 30
0.0
1001
ACAD
1000
DSTYLE
1002
{
1070
    40
1040
1.0
1070
   272
1070
     1
1070
   279
1070
     1
1070
   341
1005
0
1002
}
  0
MTEXT
  5
2641A
102
{ACAD_REACTORS
330
26415
102
}
330
747D
100
AcDbEntity
  8
寸法
 62
     7
 48
50.0
100
AcDbMText
 10
7042.645323472051
 20
2255.004767534865
 30
0.0
 40
80.0
 41
0.8
 71
     4
 72
     1
  1
D13
  7
STYLE2
 73
     1
 44
1.0
1001
ACAD
1000
MTEXTBEGIN
1070
    73
1070
     1
1070
    44
1040
1.0
1070
    74
1070
     0
1000
MTEXTEND
  0
LINE
  5
2641B
330
747D
100
AcDbEntity
  8
部品1
 48
50.0
100
AcDbLine
 10
6959.759386444658
 20
2232.448868242054
 30
0.0
 11
6959.759386444658
 21
1688.448868242054
 31
0.0
  0
LINE
  5
2641C
330
747D
100
AcDbEntity
  8
部品1
 48
50.0
100
AcDbLine
 10
6767.759386444658
 20
1688.448868242054
 30
0.0
 11
6767.759386444658
 21
2232.448868242054
 31
0.0
  0
CIRCLE
  5
2641D
330
747D
100
AcDbEntity
  8
部品1
 48
50.0
100
AcDbCircle
 10
6863.759386444657
 20
2092.7032976363
 30
0.0
 40
8.0
  0
ARC
  5
2641E
330
747D
100
AcDbEntity
  8
部品1
 48
50.0
100
AcDbCircle
 10
6863.759386444657
 20
2092.7032976363
 30
0.0
 40
24.0
100
AcDbArc
 50
0.0
 51
180.0
  0
LINE
  5
2641F
330
747D
100
AcDbEntity
  8
細線
 48
50.0
100
AcDbLine
 10
6887.759386444656
 20
2070.821760909885
 30
0.0
 11
6959.759386444658
 21
2142.821760909885
 31
0.0
  0
LEADER
  5
26420
330
747D
100
AcDbEntity
  8
寸法
 48
50.0
100
AcDbLeader
  3
INABA_S50G
 73
     0
 75
     1
 40
106.3636363636363
 41
893.1818181818181
 76
     3
 10
8599.198699621851
 20
2302.008868242056
 30
0.0
 10
8550.774627276911
 20
2676.068442958388
 30
0.0
 10
8425.774627276911
 20
2676.068442958388
 30
0.0
340
26421
1001
ACAD
1000
DSTYLE
1002
{
1070
   341
1005
0
1070
    40
1040
1.0
1070
   343
1005
0
1070
   344
1005
0
1002
}
  0
MTEXT
  5
26421
102
{ACAD_REACTORS
330
26420
102
}
330
747D
100
AcDbEntity
  8
寸法
 62
     7
 48
50.0
100
AcDbMText
 10
8400.774627276911
 20
2754.250261140206
 30
0.0
 40
80.0
 41
0.8
 71
     6
 72
     1
  1
\A1;アンカープレート L
  7
STYLE2
 73
     1
 44
1.0
1001
ACAD
1000
MTEXTBEGIN
1070
    73
1070
     1
1070
    44
1040
1.0
1070
    74
1070
     0
1000
MTEXTEND
  0
DIMENSION
  5
26422
330
747D
100
AcDbEntity
  8
寸法
 48
50.0
100
AcDbDimension
  2
*D55
 10
7087.759386444656
 20
910.0192302368942
 30
0.0
 11
6843.662627766433
 21
910.0192302368942
 31
0.0
 70
   160
  1
300
 71
     5
 42
448.0
  3
INABA_S40G
100
AcDbAlignedDimension
 13
6639.759386444656
 23
1320.448868242054
 33
0.0
 14
7087.759386444656
 24
1320.448868242054
 34
0.0
100
AcDbRotatedDimension
1001
ACAD
1000
DSTYLE
1002
{
1070
   341
1005
0
1002
}
  0
MTEXT
  5
26423
102
{ACAD_REACTORS
330
2642B
102
}
330
747D
100
AcDbEntity
  8
寸法
 62
     7
 48
50.0
100
AcDbMText
 10
6468.824360249462
 20
1364.926174623618
 30
0.0
 40
80.0
 41
0.8
 71
     6
 72
     1
  1
D10
  7
STYLE2
 73
     1
 44
1.0
1001
ACAD
1000
MTEXTBEGIN
1070
    73
1070
     1
1070
    44
1040
1.0
1070
    74
1070
     0
1000
MTEXTEND
  0
MTEXT
  5
26424
102
{ACAD_REACTORS
330
2642A
102
}
330
747D
100
AcDbEntity
  8
寸法
 62
     7
 48
50.0
100
AcDbMText
 10
6496.947087806898
 20
1184.610022084174
 30
0.0
 40
80.0
 41
0.8
 71
     6
 72
     1
  1
D13
  7
STYLE2
 73
     1
 44
1.0
1001
ACAD
1000
MTEXTBEGIN
1070
    73
1070
     1
1070
    44
1040
1.0
1070
    74
1070
     0
1000
MTEXTEND
  0
DIMENSION
  5
26425
330
747D
100
AcDbEntity
  8
寸法
 48
50.0
100
AcDbDimension
  2
*D56
 10
6032.722147882916
 20
1448.448868242054
 30
0.0
 11
6032.722147882916
 21
1819.989017898055
 31
0.0
 70
   160
  1
540
 71
     5
 42
784.0
  3
INABA_S40G
100
AcDbAlignedDimension
 13
6767.759386444656
 23
2232.448868242054
 33
0.0
 14
6559.759386444659
 24
1448.448868242054
 34
0.0
 50
90.0
100
AcDbRotatedDimension
1001
ACAD
1000
DSTYLE
1002
{
1070
   341
1005
0
1002
}
  0
MTEXT
  5
26426
102
{ACAD_REACTORS
330
26427
102
}
330
747D
100
AcDbEntity
  8
寸法
 62
     7
 48
50.0
100
AcDbMText
 10
6547.660906961382
 20
2444.965088244097
 30
0.0
 40
80.0
 41
0.8
 71
     6
 72
     1
  1
\A1;金コテ押エ
  7
STYLE2
 73
     1
 44
1.0
1001
ACAD
1000
MTEXTBEGIN
1070
    73
1070
     1
1070
    44
1040
1.0
1070
    74
1070
     0
1000
MTEXTEND
  0
LEADER
  5
26427
330
747D
100
AcDbEntity
  8
寸法
 48
50.0
100
AcDbLeader
  3
INABA_S50G
 71
     0
 73
     0
 75
     1
 40
130.1136363636363
 41
651.1363636363636
 76
     3
 10
6847.759386444656
 20
2232.448868242054
 30
0.0
 10
6735.33480628064
 20
2372.919633698643
 30
0.0
 10
6610.33480628064
 20
2372.919633698643
 30
0.0
1001
ACAD
1000
DSTYLE
1002
{
1070
    40
1040
1.0
1070
   272
1070
     1
1070
   279
1070
     1
1070
   341
1005
0
1002
}
  0
LEADER
  5
26428
330
747D
100
AcDbEntity
  8
寸法
 48
50.0
100
AcDbLeader
  3
INABA_S50G
 71
     0
 73
     0
 75
     1
 40
100.0
 41
540.3409090909091
 76
     3
 10
6871.759386444657
 20
1990.576082939177
 30
0.0
 10
6813.777149915958
 20
1769.105754398372
 30
0.0
 10
6688.777149915958
 20
1769.105754398372
 30
0.0
213
-9.732182305893367
223
-4.643716661138569
233
0.0
1001
ACAD
1000
DSTYLE
1002
{
1070
    40
1040
1.0
1070
   272
1070
     1
1070
   279
1070
     1
1070
   341
1005
0
1002
}
  0
MTEXT
  5
26429
102
{ACAD_REACTORS
330
26428
102
}
330
747D
100
AcDbEntity
  8
寸法
 62
     7
 48
50.0
100
AcDbMText
 10
6678.509332221851
 20
1833.749471059511
 30
0.0
 40
80.0
 41
0.8
 71
     6
 72
     1
  1
\A1;D10@300
  7
STYLE2
 73
     1
 44
1.0
1001
ACAD
1000
MTEXTBEGIN
1070
    73
1070
     1
1070
    44
1040
1.0
1070
    74
1070
     0
1000
MTEXTEND
  0
LEADER
  5
2642A
330
747D
100
AcDbEntity
  8
寸法
 48
50.0
100
AcDbLeader
  3
INABA_S50G
 71
     0
 73
     0
 75
     1
 40
100.0
 41
222.7272727272727
 76
     3
 10
6863.759386444655
 20
1568.448868242054
 30
0.0
 10
6641.947087806896
 20
1124.610022084174
 30
0.0
 10
6516.947087806896
 20
1124.610022084174
 30
0.0
1001
ACAD
1000
DSTYLE
1002
{
1070
    40
1040
1.0
1070
   272
1070
     1
1070
   279
1070
     1
1070
   341
1005
0
1002
}
  0
LEADER
  5
2642B
330
747D
100
AcDbEntity
  8
寸法
 48
50.0
100
AcDbLeader
  3
INABA_S50G
 71
     0
 73
     0
 75
     1
 40
100.0
 41
225.0
 76
     3
 10
6735.662338796799
 20
1568.448868242054
 30
0.0
 10
6613.824360249463
 20
1304.926174623618
 30
0.0
 10
6488.824360249463
 20
1304.926174623618
 30
0.0
1001
ACAD
1000
DSTYLE
1002
{
1070
    40
1040
1.0
1070
   272
1070
     1
1070
   279
1070
     1
1070
   341
1005
0
1002
}
  0
DIMENSION
  5
2642C
330
747D
100
AcDbEntity
  8
寸法
 48
50.0
100
AcDbDimension
  2
*D57
 10
6497.339072712197
 20
1448.448868242054
 30
0.0
 11
6497.339072712197
 21
1568.448868242055
 31
0.0
 70
   160
  1
150
 71
     5
 42
240.0
  3
INABA_S40G
100
AcDbAlignedDimension
 13
6639.759386444656
 23
1688.448868242054
 33
0.0
 14
6559.759386444659
 24
1448.448868242054
 34
0.0
 50
90.0
100
AcDbRotatedDimension
1001
ACAD
1000
DSTYLE
1002
{
1070
   341
1005
0
1002
}
  0
TEXT
  5
2642D
330
747D
100
AcDbEntity
  8
部品1
 48
50.0
100
AcDbText
 10
6353.6194846117
 20
2003.68786052531
 30
0.0
 40
80.0
  1
▽G.L
  7
STYLE2
100
AcDbText
  0
LWPOLYLINE
  5
2642E
330
747D
100
AcDbEntity
  8
部品1
 48
50.0
100
AcDbPolyline
 90
        2
 70
     0
 43
8.0
 10
6353.6194846117
 20
1992.448868242055
 10
6767.759386444656
 20
1992.448868242055
  0
MTEXT
  5
2642F
102
{ACAD_REACTORS
330
26430
102
}
330
747D
100
AcDbEntity
  8
寸法
 62
     7
 48
50.0
100
AcDbMText
 10
8374.131621068553
 20
3114.93453304772
 30
0.0
 40
80.0
 41
0.8
 71
     6
 72
     1
  1
\A1;φ70スリーブ
  7
STYLE2
 73
     1
 44
1.0
1001
ACAD
1000
MTEXTBEGIN
1070
    73
1070
     1
1070
    44
1040
1.0
1070
    74
1070
     0
1000
MTEXTEND
  0
LEADER
  5
26430
330
747D
100
AcDbEntity
  8
寸法
 48
50.0
100
AcDbLeader
  3
INABA_S50G
 73
     0
 75
     1
 40
113.1818181818182
 41
608.6363636363635
 76
     3
 10
8657.935449759902
 20
2181.964541600333
 30
0.0
 10
8524.131621068553
 20
3033.343623956811
 30
0.0
 10
8399.131621068553
 20
3033.343623956811
 30
0.0
340
2642F
1001
ACAD
1000
DSTYLE
1002
{
1070
   341
1005
0
1070
    40
1040
1.0
1070
   343
1005
0
1070
   344
1005
0
1002
}
  0
LINE
  5
26431
330
747D
100
AcDbEntity
  8
部品1
100
AcDbLine
 10
5697.090947635394
 20
3631.78753544264
 30
0.0
 11
5697.090947635395
 21
667.4805658579925
 31
0.0
  0
LEADER
  5
26432
330
747D
100
AcDbEntity
  8
寸法
 48
50.0
100
AcDbLeader
  3
INABA_S50G
 73
     0
 74
     0
 75
     1
 40
80.0
 41
435.0
 76
     3
 10
8698.198699621851
 20
2281.608868242055
 30
0.0
 10
8740.743162041169
 20
2431.832194395284
 30
0.0
 10
8865.743162041169
 20
2431.832194395284
 30
0.0
340
26433
1001
ACAD
1000
DSTYLE
1002
{
1070
   341
1005
0
1070
    40
1040
1.0
1070
   343
1005
0
1070
   344
1005
0
1002
}
  0
MTEXT
  5
26433
102
{ACAD_REACTORS
330
26432
102
}
330
747D
100
AcDbEntity
  8
部品1
 62
     7
 48
50.0
100
AcDbMText
 10
8890.74316204117
 20
2496.832194395285
 30
0.0
 40
80.0
 41
0.8
 71
     4
 72
     1
  1
M10X160
  7
STYLE2
 73
     1
 44
1.0
1001
ACAD
1000
MTEXTBEGIN
1070
    73
1070
     1
1070
    44
1040
1.0
1070
    74
1070
     0
1000
MTEXTEND
  0
DIMENSION
  5
26434
330
747D
100
AcDbEntity
  8
寸法
 48
50.0
100
AcDbDimension
  2
*D58
 10
9659.721965509723
 20
2232.448868242054
 30
0.0
 11
9659.721965509723
 21
1766.439964820571
 31
0.0
 70
   160
  1
20～25
 71
     5
 42
52.76000000000113
  3
INABA_S40G
100
AcDbAlignedDimension
 13
8694.598699621851
 23
2285.208868242055
 33
0.0
 14
8881.79869962185
 24
2232.448868242054
 34
0.0
 50
90.0
100
AcDbRotatedDimension
1001
ACAD
1000
DSTYLE
1002
{
1070
   341
1005
0
1002
}
  0
DIMENSION
  5
26435
330
747D
100
AcDbEntity
  8
寸法
 48
50.0
100
AcDbDimension
  2
*D59
 10
9383.667299390694
 20
1908.448868242053
 30
0.0
 11
9283.667299390694
 21
2070.448868242055
 31
0.0
 70
    32
  1
180
 71
     5
 42
324.0000000000007
  3
INABA_S40G
100
AcDbAlignedDimension
 13
8881.79869962185
 23
2232.448868242054
 33
0.0
 14
8881.79869962185
 24
1908.448868242053
 34
0.0
 50
90.0
100
AcDbRotatedDimension
1001
ACAD
1000
DSTYLE
1002
{
1070
   341
1005
0
1002
}
  0
TEXT
  5
26436
330
747D
100
AcDbEntity
  8
部品1
 48
50.0
100
AcDbText
 10
8886.152283906278
 20
2588.327549004254
 30
0.0
 40
80.0
  1
基礎ボルト(市販品)
  7
STYLE2
100
AcDbText
  0
LWPOLYLINE
  5
26437
330
747D
100
AcDbEntity
  8
部品1
 48
50.0
100
AcDbPolyline
 90
        2
 70
     0
 43
8.0
 10
8881.79869962185
 20
1992.448868242055
 10
9175.501163021234
 20
1992.448868242055
  0
MTEXT
  5
26438
102
{ACAD_REACTORS
330
26439
102
}
330
747D
100
AcDbEntity
  8
部品1
 62
     7
 48
50.0
100
AcDbMText
 10
8921.070289990691
 20
2932.944241329315
 30
0.0
 40
80.0
 41
0.8
 71
     4
 72
     1
  1
\A1;ワッシャー(市販品)
  7
STYLE2
 73
     1
 44
1.0
1001
ACAD
1000
MTEXTBEGIN
1070
    73
1070
     1
1070
    44
1040
1.0
1070
    74
1070
     0
1000
MTEXTEND
  0
LEADER
  5
26439
330
747D
100
AcDbEntity
  8
寸法
 48
50.0
100
AcDbLeader
  3
INABA_S50G
 73
     0
 74
     0
 75
     1
 40
102.2727272727273
 41
906.8181818181818
 76
     3
 10
8729.198699621852
 20
2501.572156686334
 30
0.0
 10
8771.07028999069
 20
2856.807877692951
 30
0.0
 10
8896.07028999069
 20
2856.807877692951
 30
0.0
340
26438
1001
ACAD
1000
DSTYLE
1002
{
1070
   341
1005
0
1070
    40
1040
1.0
1070
   343
1005
0
1070
   344
1005
0
1002
}
  0
MTEXT
  5
2643A
102
{ACAD_REACTORS
330
2643B
102
}
330
747D
100
AcDbEntity
  8
部品1
 62
     7
 48
50.0
100
AcDbMText
 10
8889.552670735207
 20
3117.913324094102
 30
0.0
 40
80.0
 41
0.8
 71
     4
 72
     1
  1
\A1;ナット(市販品)
  7
STYLE2
 73
     1
 44
1.0
1001
ACAD
1000
MTEXTBEGIN
1070
    73
1070
     1
1070
    44
1040
1.0
1070
    74
1070
     0
1000
MTEXTEND
  0
LEADER
  5
2643B
330
747D
100
AcDbEntity
  8
寸法
 48
50.0
100
AcDbLeader
  3
INABA_S50G
 73
     0
 74
     0
 75
     1
 40
102.2727272727273
 41
680.0000000000001
 76
     3
 10
8705.198699621851
 20
2631.324149351197
 30
0.0
 10
8739.552670735207
 20
3041.776960457738
 30
0.0
 10
8864.552670735207
 20
3041.776960457738
 30
0.0
340
2643A
1001
ACAD
1000
DSTYLE
1002
{
1070
   341
1005
0
1070
    40
1040
1.0
1070
   343
1005
0
1070
   344
1005
0
1002
}
  0
LINE
  5
2643C
330
747D
100
AcDbEntity
  8
部品1
100
AcDbLine
 10
5697.090947635397
 20
667.4805658579925
 30
0.0
 11
11768.07613302164
 21
667.4805658579925
 31
0.0
  0
LINE
  5
2643D
330
747D
100
AcDbEntity
  8
部品1
100
AcDbLine
 10
11768.07613302164
 20
3391.787535442638
 30
0.0
 11
5697.090947635395
 21
3391.787535442638
 31
0.0
  0
LINE
  5
2643E
330
747D
100
AcDbEntity
  8
部品1
100
AcDbLine
 10
11768.07613302164
 20
3631.78753544264
 30
0.0
 11
5697.090947635391
 21
3631.78753544264
 31
0.0
  0
ENDSEC
  0
SECTION
  2
OBJECTS
  0
DICTIONARY
  5
7471
330
0
100
AcDbDictionary
281
     1
  3
ACAD_COLOR
350
173D2
  3
ACAD_GROUP
350
7472
  3
ACAD_LAYOUT
350
173D3
  3
ACAD_MATERIAL
350
173D1
  3
ACAD_MLINESTYLE
350
7473
  3
ACAD_PLOTSETTINGS
350
173D4
  3
ACAD_PLOTSTYLENAME
350
173CF
  3
ACDBHEADERROUNDTRIPXREC
350
26504
  3
AcDbVariableDictionary
350
260C8
  3
CONTENTDICTIONARY
350
E71C
  3
DRAWINGVARIABLESDICT
350
F3B9
  0
DICTIONARY
  5
1758F
330
7467
100
AcDbDictionary
280
     1
281
     1
  3
ACAD_LAYERSTATES
360
17590
  0
DICTIONARY
  5
173D2
102
{ACAD_REACTORS
330
7471
102
}
330
7471
100
AcDbDictionary
281
     1
  0
DICTIONARY
  5
7472
102
{ACAD_REACTORS
330
7471
102
}
330
7471
100
AcDbDictionary
281
     1
  3
*A1
350
1D2A9
  0
DICTIONARY
  5
173D3
102
{ACAD_REACTORS
330
7471
102
}
330
7471
100
AcDbDictionary
281
     1
  3
Model
350
173D5
  3
レイアウト1
350
173D6
  0
DICTIONARY
  5
173D1
102
{ACAD_REACTORS
330
7471
102
}
330
7471
100
AcDbDictionary
281
     1
  0
DICTIONARY
  5
7473
102
{ACAD_REACTORS
330
7471
102
}
330
7471
100
AcDbDictionary
281
     1
  3
STANDARD
350
7480
  0
DICTIONARY
  5
173D4
102
{ACAD_REACTORS
330
7471
102
}
330
7471
100
AcDbDictionary
281
     1
  0
ACDBDICTIONARYWDFLT
  5
173CF
102
{ACAD_REACTORS
330
7471
102
}
330
7471
100
AcDbDictionary
281
     1
  3
Normal
350
173D0
100
AcDbDictionaryWithDefault
340
173D0
  0
DICTIONARY
  5
26504
102
{ACAD_REACTORS
330
7471
102
}
330
7471
100
AcDbDictionary
281
     1
  3
COLORDICT
350
26506
  3
MATERIALDICT
350
26505
  0
DICTIONARY
  5
260C8
102
{ACAD_REACTORS
330
7471
102
}
330
7471
100
AcDbDictionary
281
     1
  3
DIMASSOC
350
260C9
  3
PROJECTNAME
350
260CA
  0
DICTIONARY
  5
E71C
102
{ACAD_REACTORS
330
7471
102
}
330
7471
100
AcDbDictionary
281
     1
  0
DICTIONARY
  5
F3B9
102
{ACAD_REACTORS
330
7471
102
}
330
7471
100
AcDbDictionary
281
     1
1001
DRAWINGVARIABLESXDATA
1000
POLARMODE
1000
1
  0
DICTIONARY
  5
17590
102
{ACAD_REACTORS
330
1758F
102
}
330
1758F
100
AcDbDictionary
281
     1
  0
GROUP
  5
1D2A9
102
{ACAD_REACTORS
330
7472
102
}
330
7472
100
AcDbGroup
300

 70
     1
 71
     1
  0
LAYOUT
  5
173D5
102
{ACAD_XDICTIONARY
360
26507
102
}
102
{ACAD_REACTORS
330
173D3
102
}
330
173D3
100
AcDbPlotSettings
  1

  2
Microsoft Office Document Image Writer
  4

  6

 40
0.0
 41
0.0
 42
0.0
 43
0.0
 44
0.0
 45
0.0
 46
0.0
 47
0.0
 48
0.0
 49
0.0
140
0.0
141
0.0
142
1.0
143
1.0
 70
  1712
 72
     0
 73
     0
 74
     0
  7

 75
     0
147
1.0
148
0.0
149
0.0
100
AcDbLayout
  1
Model
 70
     1
 71
     0
 10
0.0
 20
0.0
 11
12.0
 21
9.0
 12
0.0
 22
0.0
 32
0.0
 14
0.0
 24
0.0
 34
0.0
 15
0.0
 25
0.0
 35
0.0
146
0.0
 13
0.0
 23
0.0
 33
0.0
 16
1.0
 26
0.0
 36
0.0
 17
0.0
 27
1.0
 37
0.0
 76
     0
330
747D
  0
LAYOUT
  5
173D6
102
{ACAD_XDICTIONARY
360
26509
102
}
102
{ACAD_REACTORS
330
173D3
102
}
330
173D3
100
AcDbPlotSettings
  1

  2
Microsoft Office Document Image Writer
  4

  6

 40
0.0
 41
0.0
 42
0.0
 43
0.0
 44
0.0
 45
0.0
 46
0.0
 47
0.0
 48
0.0
 49
0.0
140
0.0
141
0.0
142
1.0
143
1.0
 70
   688
 72
     0
 73
     0
 74
     5
  7

 75
    16
147
1.0
148
0.0
149
0.0
100
AcDbLayout
  1
レイアウト1
 70
     0
 71
     1
 10
0.0
 20
0.0
 11
420.0
 21
297.0
 12
0.0
 22
0.0
 32
0.0
 14
1.000000000000000E+20
 24
1.000000000000000E+20
 34
1.000000000000000E+20
 15
-1.000000000000000E+20
 25
-1.000000000000000E+20
 35
-1.000000000000000E+20
146
0.0
 13
0.0
 23
0.0
 33
0.0
 16
1.0
 26
0.0
 36
0.0
 17
0.0
 27
1.0
 37
0.0
 76
     0
330
747A
  0
MLINESTYLE
  5
7480
102
{ACAD_REACTORS
330
7473
102
}
330
7473
100
AcDbMlineStyle
  2
STANDARD
 70
     0
  3

 62
     0
 51
90.0
 52
90.0
 71
     2
 49
0.5
 62
   256
  6
BYLAYER
 49
-0.5
 62
   256
  6
BYLAYER
  0
ACDBPLACEHOLDER
  5
173D0
102
{ACAD_REACTORS
330
173CF
102
}
330
173CF
  0
XRECORD
  5
26506
102
{ACAD_REACTORS
330
26504
102
}
330
26504
100
AcDbXrecord
280
     1
340
173D2
  0
XRECORD
  5
26505
102
{ACAD_REACTORS
330
26504
102
}
330
26504
100
AcDbXrecord
280
     1
340
173D1
  0
DICTIONARYVAR
  5
260C9
102
{ACAD_REACTORS
330
260C8
102
}
330
260C8
100
DictionaryVariables
280
     0
  1
1
  0
DICTIONARYVAR
  5
260CA
102
{ACAD_REACTORS
330
260C8
102
}
330
260C8
100
DictionaryVariables
280
     0
  1

  0
DICTIONARY
  5
26507
330
173D5
100
AcDbDictionary
280
     1
281
     1
  3
ACAD_XREC_ROUNDTRIP
360
26508
  0
DICTIONARY
  5
26509
330
173D6
100
AcDbDictionary
280
     1
281
     1
  3
ACAD_XREC_ROUNDTRIP
360
2650A
  0
XRECORD
  5
26508
102
{ACAD_REACTORS
330
26507
102
}
330
26507
100
AcDbXrecord
280
     1
102
SHADEPLOT
 70
     0
102
SHADEPLOTRESLEVEL
 70
     2
102
SHADEPLOTCUSTOMDPI
 70
   300
  0
XRECORD
  5
2650A
102
{ACAD_REACTORS
330
26509
102
}
330
26509
100
AcDbXrecord
280
     1
102
SHADEPLOT
 70
     0
102
SHADEPLOTRESLEVEL
 70
     2
102
SHADEPLOTCUSTOMDPI
 70
   300
  0
ENDSEC
  0
EOF
