  0
SECTION
  2
HEADER
  9
$ACADVER
  1
AC1015
  9
$ACADMAINTVER
 70
    20
  9
$DWGCODEPAGE
  3
ANSI_932
  9
$INSBASE
 10
0.0
 20
0.0
 30
0.0
  9
$EXTMIN
 10
139.9999999999995
 20
-0.0000000000000909
 30
0.0
  9
$EXTMAX
 10
16307.2
 20
11409.6
 30
0.0
  9
$LIMMIN
 10
0.0
 20
0.0
  9
$LIMMAX
 10
16800.0
 20
11880.0
  9
$ORTHOMODE
 70
     0
  9
$REGENMODE
 70
     1
  9
$FILLMODE
 70
     1
  9
$QTEXTMODE
 70
     0
  9
$MIRRTEXT
 70
     1
  9
$LTSCALE
 40
20.0
  9
$ATTMODE
 70
     1
  9
$TEXTSIZE
 40
4.0
  9
$TRACEWID
 40
1.0
  9
$TEXTSTYLE
  7
STYLE1
  9
$CLAYER
  8
寸法
  9
$CELTYPE
  6
BYLAYER
  9
$CECOLOR
 62
   256
  9
$CELTSCALE
 40
50.0
  9
$DISPSILH
 70
     0
  9
$DIMSCALE
 40
40.0
  9
$DIMASZ
 40
2.5
  9
$DIMEXO
 40
0.5
  9
$DIMDLI
 40
7.0
  9
$DIMRND
 40
0.0
  9
$DIMDLE
 40
0.0
  9
$DIMEXE
 40
1.5
  9
$DIMTP
 40
0.0
  9
$DIMTM
 40
0.0
  9
$DIMTXT
 40
3.0
  9
$DIMCEN
 40
0.0
  9
$DIMTSZ
 40
0.0
  9
$DIMTOL
 70
     0
  9
$DIMLIM
 70
     0
  9
$DIMTIH
 70
     0
  9
$DIMTOH
 70
     0
  9
$DIMSE1
 70
     0
  9
$DIMSE2
 70
     0
  9
$DIMTAD
 70
     3
  9
$DIMZIN
 70
     8
  9
$DIMBLK
  1

  9
$DIMASO
 70
     1
  9
$DIMSHO
 70
     1
  9
$DIMPOST
  1

  9
$DIMAPOST
  1

  9
$DIMALT
 70
     0
  9
$DIMALTD
 70
     2
  9
$DIMALTF
 40
0.0394
  9
$DIMLFAC
 40
1.0
  9
$DIMTOFL
 70
     1
  9
$DIMTVP
 40
0.0
  9
$DIMTIX
 70
     1
  9
$DIMSOXD
 70
     0
  9
$DIMSAH
 70
     1
  9
$DIMBLK1
  1
DOTSMALL
  9
$DIMBLK2
  1
DOTSMALL
  9
$DIMSTYLE
  2
INABA_S40G
  9
$DIMCLRD
 70
     0
  9
$DIMCLRE
 70
     0
  9
$DIMCLRT
 70
     7
  9
$DIMTFAC
 40
1.0
  9
$DIMGAP
 40
1.0
  9
$DIMJUST
 70
     0
  9
$DIMSD1
 70
     0
  9
$DIMSD2
 70
     0
  9
$DIMTOLJ
 70
     1
  9
$DIMTZIN
 70
     0
  9
$DIMALTZ
 70
     0
  9
$DIMALTTZ
 70
     0
  9
$DIMUPT
 70
     0
  9
$DIMDEC
 70
     1
  9
$DIMTDEC
 70
     4
  9
$DIMALTU
 70
     2
  9
$DIMALTTD
 70
     2
  9
$DIMTXSTY
  7
STYLE1
  9
$DIMAUNIT
 70
     0
  9
$DIMADEC
 70
     0
  9
$DIMALTRND
 40
0.0
  9
$DIMAZIN
 70
     0
  9
$DIMDSEP
 70
    46
  9
$DIMATFIT
 70
     3
  9
$DIMFRAC
 70
     0
  9
$DIMLDRBLK
  1

  9
$DIMLUNIT
 70
     2
  9
$DIMLWD
 70
    -2
  9
$DIMLWE
 70
    -2
  9
$DIMTMOVE
 70
     0
  9
$LUNITS
 70
     2
  9
$LUPREC
 70
     1
  9
$SKETCHINC
 40
1.0
  9
$FILLETRAD
 40
3.0
  9
$AUNITS
 70
     0
  9
$AUPREC
 70
     0
  9
$MENU
  1
acad
  9
$ELEVATION
 40
0.0
  9
$PELEVATION
 40
0.0
  9
$THICKNESS
 40
0.0
  9
$LIMCHECK
 70
     0
  9
$CHAMFERA
 40
0.0
  9
$CHAMFERB
 40
0.0
  9
$CHAMFERC
 40
0.0
  9
$CHAMFERD
 40
0.0
  9
$SKPOLY
 70
     0
  9
$TDCREATE
 40
2451368.612993866
  9
$TDUCREATE
 40
2451368.237993866
  9
$TDUPDATE
 40
2455826.588307292
  9
$TDUUPDATE
 40
2455826.213307292
  9
$TDINDWG
 40
0.7739166667
  9
$TDUSRTIMER
 40
0.7739166667
  9
$USRTIMER
 70
     1
  9
$ANGBASE
 50
0.0
  9
$ANGDIR
 70
     0
  9
$PDMODE
 70
     3
  9
$PDSIZE
 40
2.0
  9
$PLINEWID
 40
0.0
  9
$SPLFRAME
 70
     0
  9
$SPLINETYPE
 70
     6
  9
$SPLINESEGS
 70
     8
  9
$HANDSEED
  5
25C0F
  9
$SURFTAB1
 70
     6
  9
$SURFTAB2
 70
     6
  9
$SURFTYPE
 70
     6
  9
$SURFU
 70
     6
  9
$SURFV
 70
     6
  9
$UCSBASE
  2

  9
$UCSNAME
  2

  9
$UCSORG
 10
0.0
 20
0.0
 30
0.0
  9
$UCSXDIR
 10
1.0
 20
0.0
 30
0.0
  9
$UCSYDIR
 10
0.0
 20
1.0
 30
0.0
  9
$UCSORTHOREF
  2

  9
$UCSORTHOVIEW
 70
     0
  9
$UCSORGTOP
 10
0.0
 20
0.0
 30
0.0
  9
$UCSORGBOTTOM
 10
0.0
 20
0.0
 30
0.0
  9
$UCSORGLEFT
 10
0.0
 20
0.0
 30
0.0
  9
$UCSORGRIGHT
 10
0.0
 20
0.0
 30
0.0
  9
$UCSORGFRONT
 10
0.0
 20
0.0
 30
0.0
  9
$UCSORGBACK
 10
0.0
 20
0.0
 30
0.0
  9
$PUCSBASE
  2

  9
$PUCSNAME
  2

  9
$PUCSORG
 10
0.0
 20
0.0
 30
0.0
  9
$PUCSXDIR
 10
1.0
 20
0.0
 30
0.0
  9
$PUCSYDIR
 10
0.0
 20
1.0
 30
0.0
  9
$PUCSORTHOREF
  2

  9
$PUCSORTHOVIEW
 70
     0
  9
$PUCSORGTOP
 10
0.0
 20
0.0
 30
0.0
  9
$PUCSORGBOTTOM
 10
0.0
 20
0.0
 30
0.0
  9
$PUCSORGLEFT
 10
0.0
 20
0.0
 30
0.0
  9
$PUCSORGRIGHT
 10
0.0
 20
0.0
 30
0.0
  9
$PUCSORGFRONT
 10
0.0
 20
0.0
 30
0.0
  9
$PUCSORGBACK
 10
0.0
 20
0.0
 30
0.0
  9
$USERI1
 70
     0
  9
$USERI2
 70
     0
  9
$USERI3
 70
     0
  9
$USERI4
 70
     0
  9
$USERI5
 70
     0
  9
$USERR1
 40
0.0
  9
$USERR2
 40
0.0
  9
$USERR3
 40
0.0
  9
$USERR4
 40
0.0
  9
$USERR5
 40
0.0
  9
$WORLDVIEW
 70
     1
  9
$SHADEDGE
 70
     3
  9
$SHADEDIF
 70
    70
  9
$TILEMODE
 70
     1
  9
$MAXACTVP
 70
    16
  9
$PINSBASE
 10
0.0
 20
0.0
 30
0.0
  9
$PLIMCHECK
 70
     0
  9
$PEXTMIN
 10
1.000000000000000E+20
 20
1.000000000000000E+20
 30
1.000000000000000E+20
  9
$PEXTMAX
 10
-1.000000000000000E+20
 20
-1.000000000000000E+20
 30
-1.000000000000000E+20
  9
$PLIMMIN
 10
0.0
 20
0.0
  9
$PLIMMAX
 10
420.0
 20
297.0
  9
$UNITMODE
 70
     0
  9
$VISRETAIN
 70
     0
  9
$PLINEGEN
 70
     0
  9
$PSLTSCALE
 70
     0
  9
$TREEDEPTH
 70
  3020
  9
$CMLSTYLE
  2
STANDARD
  9
$CMLJUST
 70
     0
  9
$CMLSCALE
 40
1.0
  9
$PROXYGRAPHICS
 70
     1
  9
$MEASUREMENT
 70
     1
  9
$CELWEIGHT
370
    -1
  9
$ENDCAPS
280
     0
  9
$JOINSTYLE
280
     0
  9
$LWDISPLAY
290
     0
  9
$INSUNITS
 70
     0
  9
$HYPERLINKBASE
  1

  9
$STYLESHEET
  1

  9
$XEDIT
290
     1
  9
$CEPSNTYPE
380
     0
  9
$PSTYLEMODE
290
     1
  9
$FINGERPRINTGUID
  2
{5EAC461A-2277-4BF8-9AB0-99C43BB394F0}
  9
$VERSIONGUID
  2
{21658F02-155C-4F0C-9C6E-5429F83E9A9A}
  9
$EXTNAMES
290
     1
  9
$PSVPSCALE
 40
0.0
  9
$OLESTARTUP
290
     0
  0
ENDSEC
  0
SECTION
  2
CLASSES
  0
CLASS
  1
ACDBDICTIONARYWDFLT
  2
AcDbDictionaryWithDefault
  3
ObjectDBX Classes
 90
        0
280
     0
281
     0
  0
CLASS
  1
DICTIONARYVAR
  2
AcDbDictionaryVar
  3
ObjectDBX Classes
 90
        0
280
     0
281
     0
  0
CLASS
  1
ACDBPLACEHOLDER
  2
AcDbPlaceHolder
  3
ObjectDBX Classes
 90
        0
280
     0
281
     0
  0
CLASS
  1
LAYOUT
  2
AcDbLayout
  3
ObjectDBX Classes
 90
        0
280
     0
281
     0
  0
ENDSEC
  0
SECTION
  2
TABLES
  0
TABLE
  2
VPORT
  5
746D
330
0
100
AcDbSymbolTable
 70
     2
  0
VPORT
  5
25C07
330
746D
100
AcDbSymbolTableRecord
100
AcDbViewportTableRecord
  2
*Active
 70
     0
 10
0.0
 20
0.0
 11
1.0
 21
1.0
 12
8400.0
 22
6549.864803020255
 13
0.0
 23
0.0
 14
10.0
 24
10.0
 15
10.0
 25
10.0
 16
0.0
 26
0.0
 36
1.0
 17
0.0
 27
0.0
 37
0.0
 40
13195.73479055294
 41
1.522222222222221
 42
50.0
 43
0.0
 44
0.0
 50
0.0
 51
0.0
 71
     0
 72
     0
 73
     1
 74
     0
 75
     0
 76
     0
 77
     0
 78
     0
281
     0
 65
     1
110
0.0
120
0.0
130
0.0
111
1.0
121
0.0
131
0.0
112
0.0
122
1.0
132
0.0
 79
     0
146
0.0
  0
ENDTAB
  0
TABLE
  2
LTYPE
  5
746A
330
0
100
AcDbSymbolTable
 70
     5
  0
LTYPE
  5
7477
330
746A
100
AcDbSymbolTableRecord
100
AcDbLinetypeTableRecord
  2
BYBLOCK
 70
     0
  3

 72
    65
 73
     0
 40
0.0
  0
LTYPE
  5
7478
330
746A
100
AcDbSymbolTableRecord
100
AcDbLinetypeTableRecord
  2
BYLAYER
 70
     0
  3

 72
    65
 73
     0
 40
0.0
  0
LTYPE
  5
7479
330
746A
100
AcDbSymbolTableRecord
100
AcDbLinetypeTableRecord
  2
CONTINUOUS
 70
     0
  3
Solid line
 72
    65
 73
     0
 40
0.0
  0
LTYPE
  5
7816
330
746A
100
AcDbSymbolTableRecord
100
AcDbLinetypeTableRecord
  2
CENTER
 70
     0
  3
____ _ ____ _ ____ _ ____ _ ____ _ ____ _ ____ 
 72
    65
 73
     4
 40
2.0
 49
1.25
 74
     0
 49
-0.25
 74
     0
 49
0.25
 74
     0
 49
-0.25
 74
     0
  0
LTYPE
  5
781A
330
746A
100
AcDbSymbolTableRecord
100
AcDbLinetypeTableRecord
  2
HIDDEN
 70
     0
  3
__ __ __ __ __ __ __ __ __ __ __ __ __ __ __ __
 72
    65
 73
     2
 40
0.375
 49
0.25
 74
     0
 49
-0.125
 74
     0
  0
LTYPE
  5
781B
330
746A
100
AcDbSymbolTableRecord
100
AcDbLinetypeTableRecord
  2
PHANTOM
 70
     0
  3
______  __  __  ______  __  __  ______  __  __ 
 72
    65
 73
     6
 40
2.5
 49
1.25
 74
     0
 49
-0.25
 74
     0
 49
0.25
 74
     0
 49
-0.25
 74
     0
 49
0.25
 74
     0
 49
-0.25
 74
     0
  0
LTYPE
  5
12CC3
330
746A
100
AcDbSymbolTableRecord
100
AcDbLinetypeTableRecord
  2
HIDDENX2
 70
     0
  3
Hidden (2x) ____ ____ ____ ____ ____ ____ ____
 72
    65
 73
     2
 40
19.05
 49
12.7
 74
     0
 49
-6.349999999999999
 74
     0
  0
ENDTAB
  0
TABLE
  2
LAYER
  5
7467
102
{ACAD_XDICTIONARY
360
1758F
102
}
330
0
100
AcDbSymbolTable
 70
    12
  0
LAYER
  5
7474
330
7467
100
AcDbSymbolTableRecord
100
AcDbLayerTableRecord
  2
0
 70
     0
 62
     7
  6
CONTINUOUS
370
    -3
390
173D0
  0
LAYER
  5
DEB2
330
7467
100
AcDbSymbolTableRecord
100
AcDbLayerTableRecord
  2
センター
 70
     0
 62
     3
  6
CENTER
370
    -3
390
173D0
  0
LAYER
  5
DEB3
330
7467
100
AcDbSymbolTableRecord
100
AcDbLayerTableRecord
  2
寸法
 70
     0
 62
     4
  6
CONTINUOUS
370
    -3
390
173D0
  0
LAYER
  5
DEB4
330
7467
100
AcDbSymbolTableRecord
100
AcDbLayerTableRecord
  2
部品1
 70
     0
 62
     7
  6
CONTINUOUS
370
    -3
390
173D0
  0
LAYER
  5
DEB5
330
7467
100
AcDbSymbolTableRecord
100
AcDbLayerTableRecord
  2
補助
 70
     0
 62
    -1
  6
CONTINUOUS
370
    -3
390
173D0
  0
LAYER
  5
DEB6
330
7467
100
AcDbSymbolTableRecord
100
AcDbLayerTableRecord
  2
文字
 70
     0
 62
     7
  6
CONTINUOUS
370
    -3
390
173D0
  0
LAYER
  5
F255
330
7467
100
AcDbSymbolTableRecord
100
AcDbLayerTableRecord
  2
DEFPOINTS
 70
     0
 62
     7
  6
CONTINUOUS
290
     0
370
    -3
390
173D0
  0
LAYER
  5
10B54
330
7467
100
AcDbSymbolTableRecord
100
AcDbLayerTableRecord
  2
仕様書枠
 70
     0
 62
   230
  6
CONTINUOUS
370
    -3
390
173D0
  0
LAYER
  5
11729
330
7467
100
AcDbSymbolTableRecord
100
AcDbLayerTableRecord
  2
Ｇ．Ｌ
 70
     0
 62
    30
  6
CONTINUOUS
370
    -3
390
173D0
  0
LAYER
  5
1173F
330
7467
100
AcDbSymbolTableRecord
100
AcDbLayerTableRecord
  2
細線
 70
     0
 62
     5
  6
CONTINUOUS
370
    -3
390
173D0
  0
LAYER
  5
12CC4
330
7467
100
AcDbSymbolTableRecord
100
AcDbLayerTableRecord
  2
想像線
 70
     0
 62
     6
  6
PHANTOM
370
    -3
390
173D0
  0
LAYER
  5
142E2
330
7467
100
AcDbSymbolTableRecord
100
AcDbLayerTableRecord
  2
破線
 70
     0
 62
     2
  6
HIDDEN
370
    -3
390
173D0
  0
ENDTAB
  0
TABLE
  2
STYLE
  5
7468
330
0
100
AcDbSymbolTable
 70
     7
  0
STYLE
  5
7475
330
7468
100
AcDbSymbolTableRecord
100
AcDbTextStyleTableRecord
  2
STANDARD
 70
     0
 40
0.0
 41
1.0
 50
0.0
 71
     0
 42
4.0
  3
txt
  4
C:\AutoCAD LT\bigfont.shx
  0
STYLE
  5
763C
330
7468
100
AcDbSymbolTableRecord
100
AcDbTextStyleTableRecord
  2
MSMINCHO
 70
     0
 40
0.0
 41
1.0
 50
0.0
 71
     0
 42
1.199999999999999
  3
C:\AutoCAD LT\msminch2.TTF
  4

  0
STYLE
  5
F706
330
7468
100
AcDbSymbolTableRecord
100
AcDbTextStyleTableRecord
  2
STYLE1
 70
     0
 40
0.0
 41
1.0
 50
0.0
 71
     0
 42
4.0
  3
isocp.shx
  4
bigfont.shx
  0
STYLE
  5
103BF
330
7468
100
AcDbSymbolTableRecord
100
AcDbTextStyleTableRecord
  2
STYLE2
 70
     0
 40
0.0
 41
1.0
 50
0.0
 71
     0
 42
100.0
  3
MS PGothic.ttf
  4

1001
ACAD
1000
MS PGothic
1071
    32818
  0
STYLE
  5
10BAA
330
7468
100
AcDbSymbolTableRecord
100
AcDbTextStyleTableRecord
  2
STYLE3
 70
     0
 40
0.0
 41
1.0
 50
0.0
 71
     0
 42
100.0
  3

  4

1001
ACAD
1000
DFPGothic-EB
1071
    32818
  0
STYLE
  5
11A15
330
7468
100
AcDbSymbolTableRecord
100
AcDbTextStyleTableRecord
  2
MSGOTHIC
 70
     0
 40
0.0
 41
1.0
 50
0.0
 71
     0
 42
3.5
  3
msgothi2.ttf
  4

  0
STYLE
  5
13E96
330
7468
100
AcDbSymbolTableRecord
100
AcDbTextStyleTableRecord
  2
MSPゴシック
 70
     0
 40
0.0
 41
1.0
 50
0.0
 71
     0
 42
4.0
  3
MS PGothic.ttf
  4

1001
ACAD
1000
MS PGothic
1071
    32818
  0
ENDTAB
  0
TABLE
  2
VIEW
  5
746B
330
0
100
AcDbSymbolTable
 70
     0
  0
ENDTAB
  0
TABLE
  2
UCS
  5
746C
330
0
100
AcDbSymbolTable
 70
     0
  0
ENDTAB
  0
TABLE
  2
APPID
  5
746E
330
0
100
AcDbSymbolTable
 70
     6
  0
APPID
  5
7476
330
746E
100
AcDbSymbolTableRecord
100
AcDbRegAppTableRecord
  2
ACAD
 70
     0
  0
APPID
  5
DEA9
330
746E
100
AcDbSymbolTableRecord
100
AcDbRegAppTableRecord
  2
CONTENTBLOCKICON
 70
     0
  0
APPID
  5
DEAA
330
746E
100
AcDbSymbolTableRecord
100
AcDbRegAppTableRecord
  2
CONTENTBLOCKDESCRIPTION
 70
     0
  0
APPID
  5
E71D
330
746E
100
AcDbSymbolTableRecord
100
AcDbRegAppTableRecord
  2
CONTENTTABDATA
 70
     0
  0
APPID
  5
E71E
330
746E
100
AcDbSymbolTableRecord
100
AcDbRegAppTableRecord
  2
CONTENTCURRENTTAB
 70
     0
  0
APPID
  5
F3BA
330
746E
100
AcDbSymbolTableRecord
100
AcDbRegAppTableRecord
  2
DRAWINGVARIABLESXDATA
 70
     0
  0
ENDTAB
  0
TABLE
  2
DIMSTYLE
  5
746F
330
0
100
AcDbSymbolTable
 70
     6
100
AcDbDimStyleTable
 71
     1
340
F71F
  0
DIMSTYLE
105
7484
330
746F
100
AcDbSymbolTableRecord
100
AcDbDimStyleTableRecord
  2
JIS
 70
     0
 41
2.5
 42
1.0
 43
7.0
 44
1.0
 73
     0
 74
     0
 77
     1
 78
     8
140
2.5
141
0.0
143
0.0394
147
0.0
172
     1
174
     1
175
     1
340
7475
  0
DIMSTYLE
105
F236
330
746F
100
AcDbSymbolTableRecord
100
AcDbDimStyleTableRecord
  2
INABA_S40
 70
     0
 40
40.0
 41
2.5
 42
0.5
 43
7.0
 44
1.5
 73
     0
 74
     0
 77
     3
 78
     8
140
3.0
141
0.0
143
0.0394
147
1.0
172
     1
173
     1
174
     1
175
     1
178
     7
289
     0
340
7475
341
DEAC
343
DEAC
344
DEAC
  0
DIMSTYLE
105
F71F
102
{ACAD_REACTORS
330
20DE1
330
20DFB
330
22741
330
2275B
330
23978
330
23980
330
25206
330
251EB
330
251EA
330
25198
330
25184
330
25183
330
25182
330
25181
330
2517C
330
25144
330
25143
330
25140
330
2514C
330
2514B
330
2514A
330
2514F
330
25148
330
25ADC
330
25B3C
330
25B3F
330
25B46
330
25B4E
330
25B4F
330
25BE4
102
}
330
746F
100
AcDbSymbolTableRecord
100
AcDbDimStyleTableRecord
  2
INABA_S40G
 70
     0
 40
40.0
 41
2.5
 42
0.5
 43
7.0
 44
1.5
 73
     0
 74
     0
 77
     3
 78
     8
140
3.0
141
0.0
143
0.0394
147
1.0
172
     1
173
     1
174
     1
178
     7
271
     1
340
F706
341
F770
343
F770
344
F770
  0
DIMSTYLE
105
142E3
330
746F
100
AcDbSymbolTableRecord
100
AcDbDimStyleTableRecord
  2
INABA_S1
 70
     0
 40
0.0
 41
2.5
 42
0.5
 43
7.0
 44
1.5
 73
     0
 74
     0
 77
     3
 78
     8
140
3.0
141
0.0
143
0.0394
146
0.5
147
0.5
172
     1
173
     1
176
   256
177
   256
178
     7
271
     2
272
     2
284
     8
288
     1
340
7475
341
DEAC
343
DEAC
344
DEAC
  0
DIMSTYLE
105
14463
330
746F
100
AcDbSymbolTableRecord
100
AcDbDimStyleTableRecord
  2
INABA_S30G
 70
     0
 40
30.0
 41
2.5
 42
0.5
 43
7.0
 44
1.5
 73
     0
 74
     0
 77
     3
 78
     8
140
3.0
141
0.0
143
0.0394
147
1.0
172
     1
173
     1
174
     1
175
     1
178
     7
271
     1
340
F706
341
F770
343
F770
344
F770
  0
DIMSTYLE
105
1758E
330
746F
100
AcDbSymbolTableRecord
100
AcDbDimStyleTableRecord
  2
INABA_S50G
 70
     0
 41
125.0
 42
25.0
 43
7.0
 44
75.0
 73
     0
 74
     0
 77
     3
 78
     8
140
150.0
141
0.0
143
0.0394
147
25.0
172
     1
173
     1
174
     1
175
     1
178
     7
271
     1
340
F706
341
F770
343
F770
344
F770
  0
ENDTAB
  0
TABLE
  2
BLOCK_RECORD
  5
7466
330
0
100
AcDbSymbolTable
 70
    49
  0
BLOCK_RECORD
  5
747D
330
7466
100
AcDbSymbolTableRecord
100
AcDbBlockTableRecord
  2
*MODEL_SPACE
340
173D5
  0
BLOCK_RECORD
  5
747A
330
7466
100
AcDbSymbolTableRecord
100
AcDbBlockTableRecord
  2
*PAPER_SPACE
340
173D6
  0
BLOCK_RECORD
  5
DEAC
330
7466
100
AcDbSymbolTableRecord
100
AcDbBlockTableRecord
  2
_OPEN
340
0
  0
BLOCK_RECORD
  5
F770
330
7466
100
AcDbSymbolTableRecord
100
AcDbBlockTableRecord
  2
_DOTSMALL
340
0
102
{BLKREFS
331
18C65
331
18C66
331
18C59
331
18C5A
331
18C4D
331
18C4E
331
18C41
331
18C42
331
18C35
331
18C36
331
18C29
331
18C2A
331
18C1D
331
18C1E
331
18C0F
331
18C10
331
18C03
331
18C04
331
18BF5
331
18BF6
331
18BE7
331
18BE8
331
18BD9
331
18BDA
331
18BCD
331
18BCE
331
256C1
331
256C2
331
256CA
331
256CB
331
256D3
331
256D4
331
256DD
331
256DE
331
256E7
331
256E8
331
256F0
331
256F1
331
256F9
331
256FA
331
25702
331
25703
331
2570C
331
2570D
331
25715
331
25716
331
2571E
331
2571F
331
25727
331
25728
331
25743
331
25744
331
2574C
331
2574D
331
25756
331
25757
331
25761
331
25762
331
25775
331
25776
331
2578A
331
2578B
331
25795
331
25796
331
257A0
331
257A1
331
257C4
331
257C5
331
257CD
331
257CE
331
25868
331
25869
331
25BA6
331
25BA7
331
25BAF
331
25BB0
331
25BB8
331
25BB9
331
25BC1
331
25BC2
331
25BCC
331
25BCD
331
25BD5
331
25BD6
331
25BF7
331
25BF8
102
}
  0
BLOCK_RECORD
  5
164B4
330
7466
100
AcDbSymbolTableRecord
100
AcDbBlockTableRecord
  2
_DOT
340
0
102
{BLKREFS
331
18C73
331
18C74
102
}
  0
BLOCK_RECORD
  5
18BC8
330
7466
100
AcDbSymbolTableRecord
100
AcDbBlockTableRecord
  2
*D3
340
0
  0
BLOCK_RECORD
  5
18BD4
330
7466
100
AcDbSymbolTableRecord
100
AcDbBlockTableRecord
  2
*D4
340
0
  0
BLOCK_RECORD
  5
18BE0
330
7466
100
AcDbSymbolTableRecord
100
AcDbBlockTableRecord
  2
*D5
340
0
  0
BLOCK_RECORD
  5
18BEE
330
7466
100
AcDbSymbolTableRecord
100
AcDbBlockTableRecord
  2
*D6
340
0
  0
BLOCK_RECORD
  5
18BFC
330
7466
100
AcDbSymbolTableRecord
100
AcDbBlockTableRecord
  2
*D7
340
0
  0
BLOCK_RECORD
  5
18C0A
330
7466
100
AcDbSymbolTableRecord
100
AcDbBlockTableRecord
  2
*D8
340
0
  0
BLOCK_RECORD
  5
18C16
330
7466
100
AcDbSymbolTableRecord
100
AcDbBlockTableRecord
  2
*D9
340
0
  0
BLOCK_RECORD
  5
18C24
330
7466
100
AcDbSymbolTableRecord
100
AcDbBlockTableRecord
  2
*D10
340
0
  0
BLOCK_RECORD
  5
18C30
330
7466
100
AcDbSymbolTableRecord
100
AcDbBlockTableRecord
  2
*D11
340
0
  0
BLOCK_RECORD
  5
18C3C
330
7466
100
AcDbSymbolTableRecord
100
AcDbBlockTableRecord
  2
*D12
340
0
  0
BLOCK_RECORD
  5
18C48
330
7466
100
AcDbSymbolTableRecord
100
AcDbBlockTableRecord
  2
*D13
340
0
  0
BLOCK_RECORD
  5
18C54
330
7466
100
AcDbSymbolTableRecord
100
AcDbBlockTableRecord
  2
*D14
340
0
  0
BLOCK_RECORD
  5
18C60
330
7466
100
AcDbSymbolTableRecord
100
AcDbBlockTableRecord
  2
*D15
340
0
  0
BLOCK_RECORD
  5
18C6C
330
7466
100
AcDbSymbolTableRecord
100
AcDbBlockTableRecord
  2
*D16
340
0
  0
BLOCK_RECORD
  5
18C7A
330
7466
100
AcDbSymbolTableRecord
100
AcDbBlockTableRecord
  2
A$C3B1A506B
340
0
  0
BLOCK_RECORD
  5
1C4CA
330
7466
100
AcDbSymbolTableRecord
100
AcDbBlockTableRecord
  2
_NONE
340
0
  0
BLOCK_RECORD
  5
20DE2
330
7466
100
AcDbSymbolTableRecord
100
AcDbBlockTableRecord
  2
*D19
340
0
  0
BLOCK_RECORD
  5
20DFC
330
7466
100
AcDbSymbolTableRecord
100
AcDbBlockTableRecord
  2
*D20
340
0
  0
BLOCK_RECORD
  5
22742
330
7466
100
AcDbSymbolTableRecord
100
AcDbBlockTableRecord
  2
*D21
340
0
  0
BLOCK_RECORD
  5
2275C
330
7466
100
AcDbSymbolTableRecord
100
AcDbBlockTableRecord
  2
*D22
340
0
  0
BLOCK_RECORD
  5
239F3
330
7466
100
AcDbSymbolTableRecord
100
AcDbBlockTableRecord
  2
*D23
340
0
  0
BLOCK_RECORD
  5
23A23
330
7466
100
AcDbSymbolTableRecord
100
AcDbBlockTableRecord
  2
*D24
340
0
  0
BLOCK_RECORD
  5
25218
330
7466
100
AcDbSymbolTableRecord
100
AcDbBlockTableRecord
  2
*D25
340
0
  0
BLOCK_RECORD
  5
25224
330
7466
100
AcDbSymbolTableRecord
100
AcDbBlockTableRecord
  2
*D26
340
0
  0
BLOCK_RECORD
  5
25230
330
7466
100
AcDbSymbolTableRecord
100
AcDbBlockTableRecord
  2
*D27
340
0
  0
BLOCK_RECORD
  5
2523C
330
7466
100
AcDbSymbolTableRecord
100
AcDbBlockTableRecord
  2
*D28
340
0
  0
BLOCK_RECORD
  5
25249
330
7466
100
AcDbSymbolTableRecord
100
AcDbBlockTableRecord
  2
*D29
340
0
  0
BLOCK_RECORD
  5
25255
330
7466
100
AcDbSymbolTableRecord
100
AcDbBlockTableRecord
  2
*D30
340
0
  0
BLOCK_RECORD
  5
25261
330
7466
100
AcDbSymbolTableRecord
100
AcDbBlockTableRecord
  2
*D31
340
0
  0
BLOCK_RECORD
  5
2527A
330
7466
100
AcDbSymbolTableRecord
100
AcDbBlockTableRecord
  2
*D32
340
0
  0
BLOCK_RECORD
  5
25293
330
7466
100
AcDbSymbolTableRecord
100
AcDbBlockTableRecord
  2
*D33
340
0
  0
BLOCK_RECORD
  5
252AA
330
7466
100
AcDbSymbolTableRecord
100
AcDbBlockTableRecord
  2
*D34
340
0
  0
BLOCK_RECORD
  5
252B5
330
7466
100
AcDbSymbolTableRecord
100
AcDbBlockTableRecord
  2
*D35
340
0
  0
BLOCK_RECORD
  5
252C0
330
7466
100
AcDbSymbolTableRecord
100
AcDbBlockTableRecord
  2
*D36
340
0
  0
BLOCK_RECORD
  5
252CC
330
7466
100
AcDbSymbolTableRecord
100
AcDbBlockTableRecord
  2
*D37
340
0
  0
BLOCK_RECORD
  5
252E6
330
7466
100
AcDbSymbolTableRecord
100
AcDbBlockTableRecord
  2
*D38
340
0
  0
BLOCK_RECORD
  5
25300
330
7466
100
AcDbSymbolTableRecord
100
AcDbBlockTableRecord
  2
*D39
340
0
  0
BLOCK_RECORD
  5
2530C
330
7466
100
AcDbSymbolTableRecord
100
AcDbBlockTableRecord
  2
*D40
340
0
  0
BLOCK_RECORD
  5
25325
330
7466
100
AcDbSymbolTableRecord
100
AcDbBlockTableRecord
  2
*D41
340
0
  0
BLOCK_RECORD
  5
25B59
330
7466
100
AcDbSymbolTableRecord
100
AcDbBlockTableRecord
  2
*D42
340
0
  0
BLOCK_RECORD
  5
25B65
330
7466
100
AcDbSymbolTableRecord
100
AcDbBlockTableRecord
  2
*D43
340
0
  0
BLOCK_RECORD
  5
25B71
330
7466
100
AcDbSymbolTableRecord
100
AcDbBlockTableRecord
  2
*D44
340
0
  0
BLOCK_RECORD
  5
25B7D
330
7466
100
AcDbSymbolTableRecord
100
AcDbBlockTableRecord
  2
*D45
340
0
  0
BLOCK_RECORD
  5
25B89
330
7466
100
AcDbSymbolTableRecord
100
AcDbBlockTableRecord
  2
*D46
340
0
  0
BLOCK_RECORD
  5
25B97
330
7466
100
AcDbSymbolTableRecord
100
AcDbBlockTableRecord
  2
*D47
340
0
  0
BLOCK_RECORD
  5
25BE5
330
7466
100
AcDbSymbolTableRecord
100
AcDbBlockTableRecord
  2
*D48
340
0
  0
ENDTAB
  0
ENDSEC
  0
SECTION
  2
BLOCKS
  0
BLOCK
  5
7489
330
747D
100
AcDbEntity
  8
0
100
AcDbBlockBegin
  2
*MODEL_SPACE
 70
     0
 10
0.0
 20
0.0
 30
0.0
  3
*MODEL_SPACE
  1

  0
ENDBLK
  5
748A
330
747D
100
AcDbEntity
  8
0
100
AcDbBlockEnd
  0
BLOCK
  5
7487
330
747A
100
AcDbEntity
 67
     1
  8
0
100
AcDbBlockBegin
  2
*PAPER_SPACE
 70
     0
 10
0.0
 20
0.0
 30
0.0
  3
*PAPER_SPACE
  1

  0
ENDBLK
  5
7488
330
747A
100
AcDbEntity
 67
     1
  8
0
100
AcDbBlockEnd
  0
BLOCK
  5
DEAD
330
DEAC
100
AcDbEntity
  8
0
100
AcDbBlockBegin
  2
_OPEN
 70
     0
 10
0.0
 20
0.0
 30
0.0
  3
_OPEN
  1

  0
LINE
  5
DEAE
330
DEAC
100
AcDbEntity
  8
0
  6
ByBlock
 62
     0
100
AcDbLine
 10
-1.0
 20
0.1666666666666666
 30
0.0
 11
0.0
 21
0.0
 31
0.0
  0
LINE
  5
DEAF
330
DEAC
100
AcDbEntity
  8
0
  6
ByBlock
 62
     0
100
AcDbLine
 10
0.0
 20
0.0
 30
0.0
 11
-1.0
 21
-0.1666666666666666
 31
0.0
  0
LINE
  5
DEB0
330
DEAC
100
AcDbEntity
  8
0
  6
ByBlock
 62
     0
100
AcDbLine
 10
0.0
 20
0.0
 30
0.0
 11
-1.0
 21
0.0
 31
0.0
  0
ENDBLK
  5
DEB1
330
DEAC
100
AcDbEntity
  8
0
100
AcDbBlockEnd
  0
BLOCK
  5
F771
330
F770
100
AcDbEntity
  8
0
 48
50.0
100
AcDbBlockBegin
  2
_DOTSMALL
 70
     0
 10
0.0
 20
0.0
 30
0.0
  3
_DOTSMALL
  1

  0
LWPOLYLINE
  5
F772
330
F770
100
AcDbEntity
  8
0
  6
ByBlock
 62
     0
 48
50.0
100
AcDbPolyline
 90
        2
 70
     1
 43
0.5
 10
-0.0625
 20
0.0
 42
1.0
 10
0.0625
 20
0.0
 42
1.0
  0
ENDBLK
  5
F776
330
F770
100
AcDbEntity
  8
0
 48
50.0
100
AcDbBlockEnd
  0
BLOCK
  5
164BA
330
164B4
100
AcDbEntity
  8
0
 48
50.0
100
AcDbBlockBegin
  2
_DOT
 70
     0
 10
0.0
 20
0.0
 30
0.0
  3
_DOT
  1

  0
LWPOLYLINE
  5
164B5
330
164B4
100
AcDbEntity
  8
0
  6
ByBlock
 62
     0
 48
50.0
100
AcDbPolyline
 90
        2
 70
     1
 43
0.5
 10
-0.25
 20
0.0
 42
1.0
 10
0.25
 20
0.0
 42
1.0
  0
LINE
  5
164B9
330
164B4
100
AcDbEntity
  8
0
  6
ByBlock
 62
     0
 48
50.0
100
AcDbLine
 10
-0.5
 20
0.0
 30
0.0
 11
-1.0
 21
0.0
 31
0.0
  0
ENDBLK
  5
164BB
330
164B4
100
AcDbEntity
  8
0
 48
50.0
100
AcDbBlockEnd
  0
BLOCK
  5
18BC9
330
18BC8
100
AcDbEntity
  8
0
 48
50.0
100
AcDbBlockBegin
  2
*D3
 70
     1
 10
0.0
 20
0.0
 30
0.0
  3
*D3
  1

  0
LINE
  5
18BCA
330
18BC8
100
AcDbEntity
  8
寸法
 62
     0
 48
50.0
370
    -2
100
AcDbLine
 10
7649.896575106999
 20
9636.123139034717
 30
0.0
 11
8702.429862581047
 21
9636.123139034717
 31
0.0
  0
LINE
  5
18BCB
330
18BC8
100
AcDbEntity
  8
寸法
 62
     0
 48
50.0
370
    -2
100
AcDbLine
 10
7649.896575106973
 20
7846.123139034709
 30
0.0
 11
8702.429862581047
 21
7846.123139034709
 31
0.0
  0
LINE
  5
18BCC
330
18BC8
100
AcDbEntity
  8
寸法
 62
     0
 48
50.0
370
    -2
100
AcDbLine
 10
8642.429862581046
 20
9636.123139034717
 30
0.0
 11
8642.429862581046
 21
7846.123139034709
 31
0.0
  0
INSERT
  5
18BCD
330
18BC8
100
AcDbEntity
  8
寸法
 62
     0
 48
50.0
370
    -2
100
AcDbBlockReference
  2
_DOTSMALL
 10
8642.429862581046
 20
9636.123139034717
 30
0.0
 41
100.0
 42
100.0
 43
100.0
 50
90.0
  0
INSERT
  5
18BCE
330
18BC8
100
AcDbEntity
  8
寸法
 62
     0
 48
50.0
370
    -2
100
AcDbBlockReference
  2
_DOTSMALL
 10
8642.429862581046
 20
7846.123139034709
 30
0.0
 41
100.0
 42
100.0
 43
100.0
 50
270.0
  0
MTEXT
  5
18BCF
330
18BC8
100
AcDbEntity
  8
寸法
 62
     7
 48
50.0
100
AcDbMText
 10
8542.429862581045
 20
8741.123139034712
 30
0.0
 40
120.0
 41
0.0
 71
     5
 72
     1
  1
\A1;1790
  7
STYLE1
 11
0.0000000000000001
 21
1.0
 31
0.0
 73
     1
 44
1.0
1001
ACAD
1000
MTEXTBEGIN
1070
    73
1070
     1
1070
    44
1040
1.0
1070
    74
1070
     0
1000
MTEXTEND
  0
POINT
  5
18BD0
330
18BC8
100
AcDbEntity
  8
DEFPOINTS
 62
     0
 48
50.0
100
AcDbPoint
 10
7629.896575106998
 20
9636.123139034717
 30
0.0
  0
POINT
  5
18BD1
330
18BC8
100
AcDbEntity
  8
DEFPOINTS
 62
     0
 48
50.0
100
AcDbPoint
 10
7629.896575106974
 20
7846.123139034709
 30
0.0
  0
POINT
  5
18BD2
330
18BC8
100
AcDbEntity
  8
DEFPOINTS
 62
     0
 48
50.0
100
AcDbPoint
 10
8642.429862581046
 20
7846.123139034709
 30
0.0
  0
ENDBLK
  5
18BD3
330
18BC8
100
AcDbEntity
  8
0
 48
50.0
100
AcDbBlockEnd
  0
BLOCK
  5
18BD5
330
18BD4
100
AcDbEntity
  8
0
 48
50.0
100
AcDbBlockBegin
  2
*D4
 70
     1
 10
0.0
 20
0.0
 30
0.0
  3
*D4
  1

  0
LINE
  5
18BD6
330
18BD4
100
AcDbEntity
  8
寸法
 62
     0
 48
50.0
370
    -2
100
AcDbLine
 10
4214.896575106998
 20
9656.123139034622
 30
0.0
 11
4214.896575106998
 21
10211.93135865972
 31
0.0
  0
LINE
  5
18BD7
330
18BD4
100
AcDbEntity
  8
寸法
 62
     0
 48
50.0
370
    -2
100
AcDbLine
 10
7574.896575106999
 20
9656.123139034718
 30
0.0
 11
7574.896575106999
 21
10211.93135865972
 31
0.0
  0
LINE
  5
18BD8
330
18BD4
100
AcDbEntity
  8
寸法
 62
     0
 48
50.0
370
    -2
100
AcDbLine
 10
4214.896575106998
 20
10151.93135865972
 30
0.0
 11
7574.896575106999
 21
10151.93135865972
 31
0.0
  0
INSERT
  5
18BD9
330
18BD4
100
AcDbEntity
  8
寸法
 62
     0
 48
50.0
370
    -2
100
AcDbBlockReference
  2
_DOTSMALL
 10
4214.896575106998
 20
10151.93135865972
 30
0.0
 41
100.0
 42
100.0
 43
100.0
 50
180.0
  0
INSERT
  5
18BDA
330
18BD4
100
AcDbEntity
  8
寸法
 62
     0
 48
50.0
370
    -2
100
AcDbBlockReference
  2
_DOTSMALL
 10
7574.896575106999
 20
10151.93135865972
 30
0.0
 41
100.0
 42
100.0
 43
100.0
  0
MTEXT
  5
18BDB
330
18BD4
100
AcDbEntity
  8
寸法
 62
     7
 48
50.0
100
AcDbMText
 10
5894.896575106997
 20
10251.94316968334
 30
0.0
 40
120.0
 41
0.0
 71
     5
 72
     1
  1
\A1;8X420=3360
  7
STYLE1
 73
     1
 44
1.0
1001
ACAD
1000
MTEXTBEGIN
1070
    73
1070
     1
1070
    44
1040
1.0
1070
    74
1070
     0
1000
MTEXTEND
  0
POINT
  5
18BDC
330
18BD4
100
AcDbEntity
  8
DEFPOINTS
 62
     0
 48
50.0
100
AcDbPoint
 10
4214.896575106998
 20
9636.123139034623
 30
0.0
  0
POINT
  5
18BDD
330
18BD4
100
AcDbEntity
  8
DEFPOINTS
 62
     0
 48
50.0
100
AcDbPoint
 10
7574.896575106999
 20
9636.123139034717
 30
0.0
  0
POINT
  5
18BDE
330
18BD4
100
AcDbEntity
  8
DEFPOINTS
 62
     0
 48
50.0
100
AcDbPoint
 10
7574.896575106999
 20
10151.93135865972
 30
0.0
  0
ENDBLK
  5
18BDF
330
18BD4
100
AcDbEntity
  8
0
 48
50.0
100
AcDbBlockEnd
  0
BLOCK
  5
18BE1
330
18BE0
100
AcDbEntity
  8
0
 48
50.0
100
AcDbBlockBegin
  2
*D5
 70
     1
 10
0.0
 20
0.0
 30
0.0
  3
*D5
  1

  0
LINE
  5
18BE2
330
18BE0
100
AcDbEntity
  8
寸法
 62
     0
 48
50.0
370
    -2
100
AcDbLine
 10
7574.896575106999
 20
9656.123139034718
 30
0.0
 11
7574.896575106999
 21
10211.9313586597
 31
0.0
  0
LINE
  5
18BE3
330
18BE0
100
AcDbEntity
  8
寸法
 62
     0
 48
50.0
370
    -2
100
AcDbLine
 10
7629.896575106998
 20
9656.123139034718
 30
0.0
 11
7629.896575106998
 21
10211.9313586597
 31
0.0
  0
LINE
  5
18BE4
330
18BE0
100
AcDbEntity
  8
寸法
 62
     0
 48
50.0
370
    -2
100
AcDbLine
 10
7574.896575106999
 20
10151.9313586597
 30
0.0
 11
7474.896575106999
 21
10151.9313586597
 31
0.0
  0
LINE
  5
18BE5
330
18BE0
100
AcDbEntity
  8
寸法
 62
     0
 48
50.0
370
    -2
100
AcDbLine
 10
7629.896575106998
 20
10151.9313586597
 30
0.0
 11
8046.867137855477
 21
10151.9313586597
 31
0.0
  0
LINE
  5
18BE6
330
18BE0
100
AcDbEntity
  8
寸法
 62
     0
 48
50.0
370
    -2
100
AcDbLine
 10
7574.896575106999
 20
10151.9313586597
 30
0.0
 11
7629.896575106998
 21
10151.9313586597
 31
0.0
  0
INSERT
  5
18BE7
330
18BE0
100
AcDbEntity
  8
寸法
 62
     0
 48
50.0
370
    -2
100
AcDbBlockReference
  2
_DOTSMALL
 10
7574.896575106999
 20
10151.9313586597
 30
0.0
 41
100.0
 42
100.0
 43
100.0
  0
INSERT
  5
18BE8
330
18BE0
100
AcDbEntity
  8
寸法
 62
     0
 48
50.0
370
    -2
100
AcDbBlockReference
  2
_DOTSMALL
 10
7629.896575106998
 20
10151.9313586597
 30
0.0
 41
100.0
 42
100.0
 43
100.0
 50
180.0
  0
MTEXT
  5
18BE9
330
18BE0
100
AcDbEntity
  8
寸法
 62
     7
 48
50.0
100
AcDbMText
 10
7938.381856481237
 20
10251.9313586597
 30
0.0
 40
120.0
 41
0.0
 71
     5
 72
     1
  1
\A1;55
  7
STYLE1
 73
     1
 44
1.0
1001
ACAD
1000
MTEXTBEGIN
1070
    73
1070
     1
1070
    44
1040
1.0
1070
    74
1070
     0
1000
MTEXTEND
  0
POINT
  5
18BEA
330
18BE0
100
AcDbEntity
  8
DEFPOINTS
 62
     0
 48
50.0
100
AcDbPoint
 10
7574.896575106999
 20
9636.123139034717
 30
0.0
  0
POINT
  5
18BEB
330
18BE0
100
AcDbEntity
  8
DEFPOINTS
 62
     0
 48
50.0
100
AcDbPoint
 10
7629.896575106998
 20
9636.123139034717
 30
0.0
  0
POINT
  5
18BEC
330
18BE0
100
AcDbEntity
  8
DEFPOINTS
 62
     0
 48
50.0
100
AcDbPoint
 10
7629.896575106998
 20
10151.9313586597
 30
0.0
  0
ENDBLK
  5
18BED
330
18BE0
100
AcDbEntity
  8
0
 48
50.0
100
AcDbBlockEnd
  0
BLOCK
  5
18BEF
330
18BEE
100
AcDbEntity
  8
0
 48
50.0
100
AcDbBlockBegin
  2
*D6
 70
     1
 10
0.0
 20
0.0
 30
0.0
  3
*D6
  1

  0
LINE
  5
18BF0
330
18BEE
100
AcDbEntity
  8
寸法
 62
     0
 48
50.0
370
    -2
100
AcDbLine
 10
7649.896575106999
 20
9636.123139034717
 30
0.0
 11
8337.32292084141
 21
9636.123139034717
 31
0.0
  0
LINE
  5
18BF1
330
18BEE
100
AcDbEntity
  8
寸法
 62
     0
 48
50.0
370
    -2
100
AcDbLine
 10
7649.896575106999
 20
9581.123139034721
 30
0.0
 11
8337.32292084141
 21
9581.123139034721
 31
0.0
  0
LINE
  5
18BF2
330
18BEE
100
AcDbEntity
  8
寸法
 62
     0
 48
50.0
370
    -2
100
AcDbLine
 10
8277.322920841411
 20
9581.123139034721
 30
0.0
 11
8277.322920841411
 21
9481.123139034719
 31
0.0
  0
LINE
  5
18BF3
330
18BEE
100
AcDbEntity
  8
寸法
 62
     0
 48
50.0
370
    -2
100
AcDbLine
 10
8277.322920841411
 20
9636.123139034717
 30
0.0
 11
8277.322920841411
 21
10053.09370178319
 31
0.0
  0
LINE
  5
18BF4
330
18BEE
100
AcDbEntity
  8
寸法
 62
     0
 48
50.0
370
    -2
100
AcDbLine
 10
8277.322920841411
 20
9581.123139034721
 30
0.0
 11
8277.322920841411
 21
9636.123139034717
 31
0.0
  0
INSERT
  5
18BF5
330
18BEE
100
AcDbEntity
  8
寸法
 62
     0
 48
50.0
370
    -2
100
AcDbBlockReference
  2
_DOTSMALL
 10
8277.322920841411
 20
9581.123139034721
 30
0.0
 41
100.0
 42
100.0
 43
100.0
 50
90.0
  0
INSERT
  5
18BF6
330
18BEE
100
AcDbEntity
  8
寸法
 62
     0
 48
50.0
370
    -2
100
AcDbBlockReference
  2
_DOTSMALL
 10
8277.322920841411
 20
9636.123139034717
 30
0.0
 41
100.0
 42
100.0
 43
100.0
 50
270.0
  0
MTEXT
  5
18BF7
330
18BEE
100
AcDbEntity
  8
寸法
 62
     7
 48
50.0
100
AcDbMText
 10
8177.32292084141
 20
9944.608420408957
 30
0.0
 40
120.0
 41
0.0
 71
     5
 72
     1
  1
\A1;55
  7
STYLE1
 11
0.0000000000000001
 21
1.0
 31
0.0
 73
     1
 44
1.0
1001
ACAD
1000
MTEXTBEGIN
1070
    73
1070
     1
1070
    44
1040
1.0
1070
    74
1070
     0
1000
MTEXTEND
  0
POINT
  5
18BF8
330
18BEE
100
AcDbEntity
  8
DEFPOINTS
 62
     0
 48
50.0
100
AcDbPoint
 10
7629.896575106998
 20
9636.123139034717
 30
0.0
  0
POINT
  5
18BF9
330
18BEE
100
AcDbEntity
  8
DEFPOINTS
 62
     0
 48
50.0
100
AcDbPoint
 10
7629.896575106998
 20
9581.123139034721
 30
0.0
  0
POINT
  5
18BFA
330
18BEE
100
AcDbEntity
  8
DEFPOINTS
 62
     0
 48
50.0
100
AcDbPoint
 10
8277.322920841411
 20
9581.123139034721
 30
0.0
  0
ENDBLK
  5
18BFB
330
18BEE
100
AcDbEntity
  8
0
 48
50.0
100
AcDbBlockEnd
  0
BLOCK
  5
18BFD
330
18BFC
100
AcDbEntity
  8
0
 48
50.0
100
AcDbBlockBegin
  2
*D7
 70
     1
 10
0.0
 20
0.0
 30
0.0
  3
*D7
  1

  0
LINE
  5
18BFE
330
18BFC
100
AcDbEntity
  8
寸法
 62
     0
 48
50.0
370
    -2
100
AcDbLine
 10
4159.896575106963
 20
9656.123139034622
 30
0.0
 11
4159.896575106963
 21
10211.9313586596
 31
0.0
  0
LINE
  5
18BFF
330
18BFC
100
AcDbEntity
  8
寸法
 62
     0
 48
50.0
370
    -2
100
AcDbLine
 10
4214.896575106998
 20
9656.123139034622
 30
0.0
 11
4214.896575106998
 21
10211.9313586596
 31
0.0
  0
LINE
  5
18C00
330
18BFC
100
AcDbEntity
  8
寸法
 62
     0
 48
50.0
370
    -2
100
AcDbLine
 10
4214.896575106998
 20
10151.9313586596
 30
0.0
 11
4314.896575106998
 21
10151.9313586596
 31
0.0
  0
LINE
  5
18C01
330
18BFC
100
AcDbEntity
  8
寸法
 62
     0
 48
50.0
370
    -2
100
AcDbLine
 10
4159.896575106963
 20
10151.9313586596
 30
0.0
 11
3742.926012358486
 21
10151.9313586596
 31
0.0
  0
LINE
  5
18C02
330
18BFC
100
AcDbEntity
  8
寸法
 62
     0
 48
50.0
370
    -2
100
AcDbLine
 10
4214.896575106998
 20
10151.9313586596
 30
0.0
 11
4159.896575106963
 21
10151.9313586596
 31
0.0
  0
INSERT
  5
18C03
330
18BFC
100
AcDbEntity
  8
寸法
 62
     0
 48
50.0
370
    -2
100
AcDbBlockReference
  2
_DOTSMALL
 10
4214.896575106998
 20
10151.9313586596
 30
0.0
 41
100.0
 42
100.0
 43
100.0
 50
180.0
  0
INSERT
  5
18C04
330
18BFC
100
AcDbEntity
  8
寸法
 62
     0
 48
50.0
370
    -2
100
AcDbBlockReference
  2
_DOTSMALL
 10
4159.896575106963
 20
10151.9313586596
 30
0.0
 41
100.0
 42
100.0
 43
100.0
  0
MTEXT
  5
18C05
330
18BFC
100
AcDbEntity
  8
寸法
 62
     7
 48
50.0
100
AcDbMText
 10
3851.411293732725
 20
10251.9313586596
 30
0.0
 40
120.0
 41
0.0
 71
     5
 72
     1
  1
\A1;55
  7
STYLE1
 73
     1
 44
1.0
1001
ACAD
1000
MTEXTBEGIN
1070
    73
1070
     1
1070
    44
1040
1.0
1070
    74
1070
     0
1000
MTEXTEND
  0
POINT
  5
18C06
330
18BFC
100
AcDbEntity
  8
DEFPOINTS
 62
     0
 48
50.0
100
AcDbPoint
 10
4159.896575106963
 20
9636.123139034623
 30
0.0
  0
POINT
  5
18C07
330
18BFC
100
AcDbEntity
  8
DEFPOINTS
 62
     0
 48
50.0
100
AcDbPoint
 10
4214.896575106998
 20
9636.123139034623
 30
0.0
  0
POINT
  5
18C08
330
18BFC
100
AcDbEntity
  8
DEFPOINTS
 62
     0
 48
50.0
100
AcDbPoint
 10
4214.896575106998
 20
10151.9313586596
 30
0.0
  0
ENDBLK
  5
18C09
330
18BFC
100
AcDbEntity
  8
0
 48
50.0
100
AcDbBlockEnd
  0
BLOCK
  5
18C0B
330
18C0A
100
AcDbEntity
  8
0
 48
50.0
100
AcDbBlockBegin
  2
*D8
 70
     1
 10
0.0
 20
0.0
 30
0.0
  3
*D8
  1

  0
LINE
  5
18C0C
330
18C0A
100
AcDbEntity
  8
寸法
 62
     0
 48
50.0
370
    -2
100
AcDbLine
 10
4159.896575106992
 20
7826.123139034546
 30
0.0
 11
4159.896575106992
 21
6804.372203245664
 31
0.0
  0
LINE
  5
18C0D
330
18C0A
100
AcDbEntity
  8
寸法
 62
     0
 48
50.0
370
    -2
100
AcDbLine
 10
7629.896575106974
 20
7826.123139034674
 30
0.0
 11
7629.896575106974
 21
6804.372203245664
 31
0.0
  0
LINE
  5
18C0E
330
18C0A
100
AcDbEntity
  8
寸法
 62
     0
 48
50.0
370
    -2
100
AcDbLine
 10
4159.896575106992
 20
6864.372203245665
 30
0.0
 11
7629.896575106974
 21
6864.372203245665
 31
0.0
  0
INSERT
  5
18C0F
330
18C0A
100
AcDbEntity
  8
寸法
 62
     0
 48
50.0
370
    -2
100
AcDbBlockReference
  2
_DOTSMALL
 10
4159.896575106992
 20
6864.372203245665
 30
0.0
 41
100.0
 42
100.0
 43
100.0
 50
180.0
  0
INSERT
  5
18C10
330
18C0A
100
AcDbEntity
  8
寸法
 62
     0
 48
50.0
370
    -2
100
AcDbBlockReference
  2
_DOTSMALL
 10
7629.896575106974
 20
6864.372203245665
 30
0.0
 41
100.0
 42
100.0
 43
100.0
  0
MTEXT
  5
18C11
330
18C0A
100
AcDbEntity
  8
寸法
 62
     7
 48
50.0
100
AcDbMText
 10
5911.12376113973
 20
6964.372203245665
 30
0.0
 40
120.0
 41
0.0
 71
     5
 72
     1
  1
\A1;3470
  7
STYLE1
 73
     1
 44
1.0
1001
ACAD
1000
MTEXTBEGIN
1070
    73
1070
     1
1070
    44
1040
1.0
1070
    74
1070
     0
1000
MTEXTEND
  0
POINT
  5
18C12
330
18C0A
100
AcDbEntity
  8
DEFPOINTS
 62
     0
 48
50.0
100
AcDbPoint
 10
4159.896575106992
 20
7846.123139034546
 30
0.0
  0
POINT
  5
18C13
330
18C0A
100
AcDbEntity
  8
DEFPOINTS
 62
     0
 48
50.0
100
AcDbPoint
 10
7629.896575106974
 20
7846.123139034673
 30
0.0
  0
POINT
  5
18C14
330
18C0A
100
AcDbEntity
  8
DEFPOINTS
 62
     0
 48
50.0
100
AcDbPoint
 10
7629.896575106974
 20
6864.372203245665
 30
0.0
  0
ENDBLK
  5
18C15
330
18C0A
100
AcDbEntity
  8
0
 48
50.0
100
AcDbBlockEnd
  0
BLOCK
  5
18C17
330
18C16
100
AcDbEntity
  8
0
 48
50.0
100
AcDbBlockBegin
  2
*D9
 70
     1
 10
0.0
 20
0.0
 30
0.0
  3
*D9
  1

  0
LINE
  5
18C18
330
18C16
100
AcDbEntity
  8
寸法
 62
     0
 48
50.0
370
    -2
100
AcDbLine
 10
7649.896575106973
 20
7901.123139034706
 30
0.0
 11
8337.322920841385
 21
7901.123139034706
 31
0.0
  0
LINE
  5
18C19
330
18C16
100
AcDbEntity
  8
寸法
 62
     0
 48
50.0
370
    -2
100
AcDbLine
 10
7649.896575106973
 20
7846.123139034709
 30
0.0
 11
8337.322920841385
 21
7846.123139034709
 31
0.0
  0
LINE
  5
18C1A
330
18C16
100
AcDbEntity
  8
寸法
 62
     0
 48
50.0
370
    -2
100
AcDbLine
 10
8277.322920841385
 20
7901.123139034706
 30
0.0
 11
8277.322920841385
 21
8001.123139034707
 31
0.0
  0
LINE
  5
18C1B
330
18C16
100
AcDbEntity
  8
寸法
 62
     0
 48
50.0
370
    -2
100
AcDbLine
 10
8277.322920841385
 20
7846.123139034709
 30
0.0
 11
8277.322920841385
 21
7429.152576286229
 31
0.0
  0
LINE
  5
18C1C
330
18C16
100
AcDbEntity
  8
寸法
 62
     0
 48
50.0
370
    -2
100
AcDbLine
 10
8277.322920841385
 20
7901.123139034706
 30
0.0
 11
8277.322920841385
 21
7846.123139034709
 31
0.0
  0
INSERT
  5
18C1D
330
18C16
100
AcDbEntity
  8
寸法
 62
     0
 48
50.0
370
    -2
100
AcDbBlockReference
  2
_DOTSMALL
 10
8277.322920841385
 20
7901.123139034706
 30
0.0
 41
100.0
 42
100.0
 43
100.0
 50
270.0
  0
INSERT
  5
18C1E
330
18C16
100
AcDbEntity
  8
寸法
 62
     0
 48
50.0
370
    -2
100
AcDbBlockReference
  2
_DOTSMALL
 10
8277.322920841385
 20
7846.123139034709
 30
0.0
 41
100.0
 42
100.0
 43
100.0
 50
90.0
  0
MTEXT
  5
18C1F
330
18C16
100
AcDbEntity
  8
寸法
 62
     7
 48
50.0
100
AcDbMText
 10
8177.322920841383
 20
7537.637857660469
 30
0.0
 40
120.0
 41
0.0
 71
     5
 72
     1
  1
\A1;55
  7
STYLE1
 11
0.0000000000000001
 21
1.0
 31
0.0
 73
     1
 44
1.0
1001
ACAD
1000
MTEXTBEGIN
1070
    73
1070
     1
1070
    44
1040
1.0
1070
    74
1070
     0
1000
MTEXTEND
  0
POINT
  5
18C20
330
18C16
100
AcDbEntity
  8
DEFPOINTS
 62
     0
 48
50.0
100
AcDbPoint
 10
7629.896575106974
 20
7901.123139034706
 30
0.0
  0
POINT
  5
18C21
330
18C16
100
AcDbEntity
  8
DEFPOINTS
 62
     0
 48
50.0
100
AcDbPoint
 10
7629.896575106974
 20
7846.123139034709
 30
0.0
  0
POINT
  5
18C22
330
18C16
100
AcDbEntity
  8
DEFPOINTS
 62
     0
 48
50.0
100
AcDbPoint
 10
8277.322920841385
 20
7846.123139034709
 30
0.0
  0
ENDBLK
  5
18C23
330
18C16
100
AcDbEntity
  8
0
 48
50.0
100
AcDbBlockEnd
  0
BLOCK
  5
18C25
330
18C24
100
AcDbEntity
  8
0
 48
50.0
100
AcDbBlockBegin
  2
*D10
 70
     1
 10
0.0
 20
0.0
 30
0.0
  3
*D10
  1

  0
LINE
  5
18C26
330
18C24
100
AcDbEntity
  8
寸法
 62
     0
 48
50.0
370
    -2
100
AcDbLine
 10
6533.037591258376
 20
9136.123139034728
 30
0.0
 11
6465.083950562664
 21
8882.516699399049
 31
0.0
  0
LINE
  5
18C27
330
18C24
100
AcDbEntity
  8
寸法
 62
     0
 48
50.0
370
    -2
100
AcDbLine
 10
7596.037591258388
 20
9136.123139034721
 30
0.0
 11
7528.083950562677
 21
8882.516699399049
 31
0.0
  0
LINE
  5
18C28
330
18C24
100
AcDbEntity
  8
寸法
 62
     0
 48
50.0
370
    -2
100
AcDbLine
 10
6481.160902108531
 20
8942.51669939905
 30
0.0
 11
7544.160902108544
 21
8942.51669939905
 31
0.0
  0
INSERT
  5
18C29
330
18C24
100
AcDbEntity
  8
寸法
 62
     0
 48
50.0
370
    -2
100
AcDbBlockReference
  2
_DOTSMALL
 10
6481.160902108531
 20
8942.51669939905
 30
0.0
 41
100.0
 42
100.0
 43
100.0
 50
180.0
  0
INSERT
  5
18C2A
330
18C24
100
AcDbEntity
  8
寸法
 62
     0
 48
50.0
370
    -2
100
AcDbBlockReference
  2
_DOTSMALL
 10
7544.160902108544
 20
8942.51669939905
 30
0.0
 41
100.0
 42
100.0
 43
100.0
  0
MTEXT
  5
18C2B
330
18C24
100
AcDbEntity
  8
寸法
 62
     7
 48
50.0
100
AcDbMText
 10
7061.28653022935
 20
9042.516699399049
 30
0.0
 40
120.0
 41
0.0
 71
     5
 72
     1
  1
\A1;1063
  7
STYLE1
 73
     1
 44
1.0
1001
ACAD
1000
MTEXTBEGIN
1070
    73
1070
     1
1070
    44
1040
1.0
1070
    74
1070
     0
1000
MTEXTEND
  0
POINT
  5
18C2C
330
18C24
100
AcDbEntity
  8
DEFPOINTS
 62
     0
 48
50.0
100
AcDbPoint
 10
6538.396575106998
 20
9156.123139034727
 30
0.0
  0
POINT
  5
18C2D
330
18C24
100
AcDbEntity
  8
DEFPOINTS
 62
     0
 48
50.0
100
AcDbPoint
 10
7601.39657510701
 20
9156.12313903472
 30
0.0
  0
POINT
  5
18C2E
330
18C24
100
AcDbEntity
  8
DEFPOINTS
 62
     0
 48
50.0
100
AcDbPoint
 10
7544.160902108544
 20
8942.51669939905
 30
0.0
  0
ENDBLK
  5
18C2F
330
18C24
100
AcDbEntity
  8
0
 48
50.0
100
AcDbBlockEnd
  0
BLOCK
  5
18C31
330
18C30
100
AcDbEntity
  8
0
 48
50.0
100
AcDbBlockBegin
  2
*D11
 70
     1
 10
0.0
 20
0.0
 30
0.0
  3
*D11
  1

  0
LINE
  5
18C32
330
18C30
100
AcDbEntity
  8
寸法
 62
     0
 48
50.0
370
    -2
100
AcDbLine
 10
7621.396575106999
 20
9600.764155186094
 30
0.0
 11
8016.754300969024
 21
9494.828371819961
 31
0.0
  0
LINE
  5
18C33
330
18C30
100
AcDbEntity
  8
寸法
 62
     0
 48
50.0
370
    -2
100
AcDbLine
 10
7621.396575106999
 20
9150.764155186099
 30
0.0
 11
8016.754300969024
 21
9044.828371819964
 31
0.0
  0
LINE
  5
18C34
330
18C30
100
AcDbEntity
  8
寸法
 62
     0
 48
50.0
370
    -2
100
AcDbLine
 10
7956.754300969024
 20
9510.905323365827
 30
0.0
 11
7956.754300969024
 21
9060.90532336583
 31
0.0
  0
INSERT
  5
18C35
330
18C30
100
AcDbEntity
  8
寸法
 62
     0
 48
50.0
370
    -2
100
AcDbBlockReference
  2
_DOTSMALL
 10
7956.754300969024
 20
9510.905323365827
 30
0.0
 41
100.0
 42
100.0
 43
100.0
 50
90.0
  0
INSERT
  5
18C36
330
18C30
100
AcDbEntity
  8
寸法
 62
     0
 48
50.0
370
    -2
100
AcDbBlockReference
  2
_DOTSMALL
 10
7956.754300969024
 20
9060.90532336583
 30
0.0
 41
100.0
 42
100.0
 43
100.0
 50
270.0
  0
MTEXT
  5
18C37
330
18C30
100
AcDbEntity
  8
寸法
 62
     7
 48
50.0
100
AcDbMText
 10
7856.754300969022
 20
9285.905323365829
 30
0.0
 40
120.0
 41
0.0
 71
     5
 72
     1
  1
\A1;450
  7
STYLE1
 11
0.0000000000000001
 21
1.0
 31
0.0
 73
     1
 44
1.0
1001
ACAD
1000
MTEXTBEGIN
1070
    73
1070
     1
1070
    44
1040
1.0
1070
    74
1070
     0
1000
MTEXTEND
  0
POINT
  5
18C38
330
18C30
100
AcDbEntity
  8
DEFPOINTS
 62
     0
 48
50.0
100
AcDbPoint
 10
7601.396575106999
 20
9606.123139034718
 30
0.0
  0
POINT
  5
18C39
330
18C30
100
AcDbEntity
  8
DEFPOINTS
 62
     0
 48
50.0
100
AcDbPoint
 10
7601.396575106999
 20
9156.12313903472
 30
0.0
  0
POINT
  5
18C3A
330
18C30
100
AcDbEntity
  8
DEFPOINTS
 62
     0
 48
50.0
100
AcDbPoint
 10
7956.754300969024
 20
9060.90532336583
 30
0.0
  0
ENDBLK
  5
18C3B
330
18C30
100
AcDbEntity
  8
0
 48
50.0
100
AcDbBlockEnd
  0
BLOCK
  5
18C3D
330
18C3C
100
AcDbEntity
  8
0
 48
50.0
100
AcDbBlockBegin
  2
*D12
 70
     1
 10
0.0
 20
0.0
 30
0.0
  3
*D12
  1

  0
LINE
  5
18C3E
330
18C3C
100
AcDbEntity
  8
寸法
 62
     0
 48
50.0
370
    -2
100
AcDbLine
 10
7649.896575106999
 20
9581.123139034721
 30
0.0
 11
8337.32292084141
 21
9581.123139034721
 31
0.0
  0
LINE
  5
18C3F
330
18C3C
100
AcDbEntity
  8
寸法
 62
     0
 48
50.0
370
    -2
100
AcDbLine
 10
7649.896575106973
 20
7901.123139034706
 30
0.0
 11
8337.32292084141
 21
7901.123139034706
 31
0.0
  0
LINE
  5
18C40
330
18C3C
100
AcDbEntity
  8
寸法
 62
     0
 48
50.0
370
    -2
100
AcDbLine
 10
8277.322920841411
 20
9581.123139034721
 30
0.0
 11
8277.322920841411
 21
7901.123139034706
 31
0.0
  0
INSERT
  5
18C41
330
18C3C
100
AcDbEntity
  8
寸法
 62
     0
 48
50.0
370
    -2
100
AcDbBlockReference
  2
_DOTSMALL
 10
8277.322920841411
 20
9581.123139034721
 30
0.0
 41
100.0
 42
100.0
 43
100.0
 50
90.0
  0
INSERT
  5
18C42
330
18C3C
100
AcDbEntity
  8
寸法
 62
     0
 48
50.0
370
    -2
100
AcDbBlockReference
  2
_DOTSMALL
 10
8277.322920841411
 20
7901.123139034706
 30
0.0
 41
100.0
 42
100.0
 43
100.0
 50
270.0
  0
MTEXT
  5
18C43
330
18C3C
100
AcDbEntity
  8
寸法
 62
     7
 48
50.0
100
AcDbMText
 10
8177.311109817788
 20
8741.123139034712
 30
0.0
 40
120.0
 41
0.0
 71
     5
 72
     1
  1
\A1;4X420=1680
  7
STYLE1
 11
0.0000000000000001
 21
1.0
 31
0.0
 73
     1
 44
1.0
1001
ACAD
1000
MTEXTBEGIN
1070
    73
1070
     1
1070
    44
1040
1.0
1070
    74
1070
     0
1000
MTEXTEND
  0
POINT
  5
18C44
330
18C3C
100
AcDbEntity
  8
DEFPOINTS
 62
     0
 48
50.0
100
AcDbPoint
 10
7629.896575106998
 20
9581.123139034721
 30
0.0
  0
POINT
  5
18C45
330
18C3C
100
AcDbEntity
  8
DEFPOINTS
 62
     0
 48
50.0
100
AcDbPoint
 10
7629.896575106974
 20
7901.123139034706
 30
0.0
  0
POINT
  5
18C46
330
18C3C
100
AcDbEntity
  8
DEFPOINTS
 62
     0
 48
50.0
100
AcDbPoint
 10
8277.322920841411
 20
7901.123139034706
 30
0.0
  0
ENDBLK
  5
18C47
330
18C3C
100
AcDbEntity
  8
0
 48
50.0
100
AcDbBlockEnd
  0
BLOCK
  5
18C49
330
18C48
100
AcDbEntity
  8
0
 48
50.0
100
AcDbBlockBegin
  2
*D13
 70
     1
 10
0.0
 20
0.0
 30
0.0
  3
*D13
  1

  0
LINE
  5
18C4A
330
18C48
100
AcDbEntity
  8
寸法
 62
     0
 48
50.0
370
    -2
100
AcDbLine
 10
4183.037591258377
 20
9136.123139034619
 30
0.0
 11
4115.083950562663
 21
8882.516699398941
 31
0.0
  0
LINE
  5
18C4B
330
18C48
100
AcDbEntity
  8
寸法
 62
     0
 48
50.0
370
    -2
100
AcDbLine
 10
5246.037591258307
 20
9136.123139034671
 30
0.0
 11
5178.08395056258
 21
8882.516699398941
 31
0.0
  0
LINE
  5
18C4C
330
18C48
100
AcDbEntity
  8
寸法
 62
     0
 48
50.0
370
    -2
100
AcDbLine
 10
4131.160902108532
 20
8942.516699398941
 30
0.0
 11
5194.160902108448
 21
8942.516699398941
 31
0.0
  0
INSERT
  5
18C4D
330
18C48
100
AcDbEntity
  8
寸法
 62
     0
 48
50.0
370
    -2
100
AcDbBlockReference
  2
_DOTSMALL
 10
4131.160902108532
 20
8942.516699398941
 30
0.0
 41
100.0
 42
100.0
 43
100.0
 50
180.0
  0
INSERT
  5
18C4E
330
18C48
100
AcDbEntity
  8
寸法
 62
     0
 48
50.0
370
    -2
100
AcDbBlockReference
  2
_DOTSMALL
 10
5194.160902108448
 20
8942.516699398941
 30
0.0
 41
100.0
 42
100.0
 43
100.0
  0
MTEXT
  5
18C4F
330
18C48
100
AcDbEntity
  8
寸法
 62
     7
 48
50.0
100
AcDbMText
 10
4658.986452655306
 20
9042.516699398941
 30
0.0
 40
120.0
 41
0.0
 71
     5
 72
     1
  1
\A1;1063
  7
STYLE1
 73
     1
 44
1.0
1001
ACAD
1000
MTEXTBEGIN
1070
    73
1070
     1
1070
    44
1040
1.0
1070
    74
1070
     0
1000
MTEXTEND
  0
POINT
  5
18C50
330
18C48
100
AcDbEntity
  8
DEFPOINTS
 62
     0
 48
50.0
100
AcDbPoint
 10
4188.396575106999
 20
9156.123139034617
 30
0.0
  0
POINT
  5
18C51
330
18C48
100
AcDbEntity
  8
DEFPOINTS
 62
     0
 48
50.0
100
AcDbPoint
 10
5251.396575106929
 20
9156.123139034672
 30
0.0
  0
POINT
  5
18C52
330
18C48
100
AcDbEntity
  8
DEFPOINTS
 62
     0
 48
50.0
100
AcDbPoint
 10
5194.160902108448
 20
8942.516699398941
 30
0.0
  0
ENDBLK
  5
18C53
330
18C48
100
AcDbEntity
  8
0
 48
50.0
100
AcDbBlockEnd
  0
BLOCK
  5
18C55
330
18C54
100
AcDbEntity
  8
0
 48
50.0
100
AcDbBlockBegin
  2
*D14
 70
     1
 10
0.0
 20
0.0
 30
0.0
  3
*D14
  1

  0
LINE
  5
18C56
330
18C54
100
AcDbEntity
  8
寸法
 62
     0
 48
50.0
370
    -2
100
AcDbLine
 10
5274.037591258307
 20
9136.123139034669
 30
0.0
 11
5206.08395056258
 21
8882.516699398941
 31
0.0
  0
LINE
  5
18C57
330
18C54
100
AcDbEntity
  8
寸法
 62
     0
 48
50.0
370
    -2
100
AcDbLine
 10
6505.037591258377
 20
9136.123139034662
 30
0.0
 11
6437.083950562653
 21
8882.516699398941
 31
0.0
  0
LINE
  5
18C58
330
18C54
100
AcDbEntity
  8
寸法
 62
     0
 48
50.0
370
    -2
100
AcDbLine
 10
5222.160902108448
 20
8942.516699398941
 30
0.0
 11
6453.16090210852
 21
8942.516699398941
 31
0.0
  0
INSERT
  5
18C59
330
18C54
100
AcDbEntity
  8
寸法
 62
     0
 48
50.0
370
    -2
100
AcDbBlockReference
  2
_DOTSMALL
 10
5222.160902108448
 20
8942.516699398941
 30
0.0
 41
100.0
 42
100.0
 43
100.0
 50
180.0
  0
INSERT
  5
18C5A
330
18C54
100
AcDbEntity
  8
寸法
 62
     0
 48
50.0
370
    -2
100
AcDbBlockReference
  2
_DOTSMALL
 10
6453.16090210852
 20
8942.516699398941
 30
0.0
 41
100.0
 42
100.0
 43
100.0
  0
MTEXT
  5
18C5B
330
18C54
100
AcDbEntity
  8
寸法
 62
     7
 48
50.0
100
AcDbMText
 10
6081.244808320626
 20
9042.528510422561
 30
0.0
 40
120.0
 41
0.0
 71
     5
 72
     1
  1
\A1;1231
  7
STYLE1
 73
     1
 44
1.0
1001
ACAD
1000
MTEXTBEGIN
1070
    73
1070
     1
1070
    44
1040
1.0
1070
    74
1070
     0
1000
MTEXTEND
  0
POINT
  5
18C5C
330
18C54
100
AcDbEntity
  8
DEFPOINTS
 62
     0
 48
50.0
100
AcDbPoint
 10
5279.396575106929
 20
9156.123139034669
 30
0.0
  0
POINT
  5
18C5D
330
18C54
100
AcDbEntity
  8
DEFPOINTS
 62
     0
 48
50.0
100
AcDbPoint
 10
6510.396575106999
 20
9156.123139034662
 30
0.0
  0
POINT
  5
18C5E
330
18C54
100
AcDbEntity
  8
DEFPOINTS
 62
     0
 48
50.0
100
AcDbPoint
 10
6453.16090210852
 20
8942.516699398941
 30
0.0
  0
ENDBLK
  5
18C5F
330
18C54
100
AcDbEntity
  8
0
 48
50.0
100
AcDbBlockEnd
  0
BLOCK
  5
18C61
330
18C60
100
AcDbEntity
  8
0
 48
50.0
100
AcDbBlockBegin
  2
*D15
 70
     1
 10
0.0
 20
0.0
 30
0.0
  3
*D15
  1

  0
LINE
  5
18C62
330
18C60
100
AcDbEntity
  8
寸法
 62
     0
 48
50.0
370
    -2
100
AcDbLine
 10
5065.896575106966
 20
7749.123139034579
 30
0.0
 11
5065.896575106966
 21
7099.952920982538
 31
0.0
  0
LINE
  5
18C63
330
18C60
100
AcDbEntity
  8
寸法
 62
     0
 48
50.0
370
    -2
100
AcDbLine
 10
6331.896575106966
 20
7749.123139034579
 30
0.0
 11
6331.896575106966
 21
7099.952920982538
 31
0.0
  0
LINE
  5
18C64
330
18C60
100
AcDbEntity
  8
寸法
 62
     0
 48
50.0
370
    -2
100
AcDbLine
 10
5065.896575106966
 20
7159.952920982537
 30
0.0
 11
6331.896575106966
 21
7159.952920982537
 31
0.0
  0
INSERT
  5
18C65
330
18C60
100
AcDbEntity
  8
寸法
 62
     0
 48
50.0
370
    -2
100
AcDbBlockReference
  2
_DOTSMALL
 10
5065.896575106966
 20
7159.952920982537
 30
0.0
 41
100.0
 42
100.0
 43
100.0
 50
180.0
  0
INSERT
  5
18C66
330
18C60
100
AcDbEntity
  8
寸法
 62
     0
 48
50.0
370
    -2
100
AcDbBlockReference
  2
_DOTSMALL
 10
6331.896575106966
 20
7159.952920982537
 30
0.0
 41
100.0
 42
100.0
 43
100.0
  0
MTEXT
  5
18C67
330
18C60
100
AcDbEntity
  8
寸法
 62
     7
 48
50.0
100
AcDbMText
 10
5711.986008735934
 20
7359.964732006159
 30
0.0
 40
120.0
 41
0.0
 71
     5
 72
     1
  1
\A1;有効開口部間口\P1266
  7
STYLE1
 73
     1
 44
1.0
1001
ACAD
1000
MTEXTBEGIN
1070
    73
1070
     1
1070
    44
1040
1.0
1070
    74
1070
     0
1000
MTEXTEND
  0
POINT
  5
18C68
330
18C60
100
AcDbEntity
  8
DEFPOINTS
 62
     0
 48
50.0
100
AcDbPoint
 10
5065.896575106966
 20
7769.123139034579
 30
0.0
  0
POINT
  5
18C69
330
18C60
100
AcDbEntity
  8
DEFPOINTS
 62
     0
 48
50.0
100
AcDbPoint
 10
6331.896575106966
 20
7769.123139034579
 30
0.0
  0
POINT
  5
18C6A
330
18C60
100
AcDbEntity
  8
DEFPOINTS
 62
     0
 48
50.0
100
AcDbPoint
 10
6331.896575106966
 20
7159.952920982537
 30
0.0
  0
ENDBLK
  5
18C6B
330
18C60
100
AcDbEntity
  8
0
 48
50.0
100
AcDbBlockEnd
  0
BLOCK
  5
18C6D
330
18C6C
100
AcDbEntity
  8
0
 48
50.0
100
AcDbBlockBegin
  2
*D16
 70
     1
 10
0.0
 20
0.0
 30
0.0
  3
*D16
  1

  0
LINE
  5
18C6E
330
18C6C
100
AcDbEntity
  8
寸法
 62
     0
 48
50.0
370
    -2
100
AcDbLine
 10
7200.896575106966
 20
7846.123139034578
 30
0.0
 11
7457.192158500191
 21
7846.123139034578
 31
0.0
  0
LINE
  5
18C6F
330
18C6C
100
AcDbEntity
  8
寸法
 62
     0
 48
50.0
370
    -2
100
AcDbLine
 10
7199.896575106966
 20
7769.123139034579
 30
0.0
 11
7457.192158500191
 21
7769.123139034579
 31
0.0
  0
LINE
  5
18C70
330
18C6C
100
AcDbEntity
  8
寸法
 62
     0
 48
50.0
370
    -2
100
AcDbLine
 10
7417.192158500192
 20
7866.123139034579
 30
0.0
 11
7417.192158500192
 21
7886.123139034578
 31
0.0
  0
LINE
  5
18C71
330
18C6C
100
AcDbEntity
  8
寸法
 62
     0
 48
50.0
370
    -2
100
AcDbLine
 10
7417.192158500192
 20
7749.123139034579
 30
0.0
 11
7417.192158500192
 21
7533.123139034573
 31
0.0
  0
LINE
  5
18C72
330
18C6C
100
AcDbEntity
  8
寸法
 62
     0
 48
50.0
370
    -2
100
AcDbLine
 10
7417.192158500192
 20
7846.123139034578
 30
0.0
 11
7417.192158500192
 21
7769.123139034579
 31
0.0
  0
INSERT
  5
18C73
330
18C6C
100
AcDbEntity
  8
寸法
 62
     0
 48
50.0
370
    -2
100
AcDbBlockReference
  2
_DOT
 10
7417.192158500192
 20
7846.123139034578
 30
0.0
 41
20.0
 42
20.0
 43
20.0
 50
270.0
  0
INSERT
  5
18C74
330
18C6C
100
AcDbEntity
  8
寸法
 62
     0
 48
50.0
370
    -2
100
AcDbBlockReference
  2
_DOT
 10
7417.192158500192
 20
7769.123139034579
 30
0.0
 41
20.0
 42
20.0
 43
20.0
 50
90.0
  0
MTEXT
  5
18C75
330
18C6C
100
AcDbEntity
  8
寸法
 62
     7
 48
50.0
100
AcDbMText
 10
7325.192158500191
 20
7631.123139034575
 30
0.0
 40
120.0
 41
0.0
 71
     5
 72
     1
  1
\A1;77
  7
STYLE1
 11
0.0000000000000001
 21
1.0
 31
0.0
 73
     1
 44
1.0
1001
ACAD
1000
MTEXTBEGIN
1070
    73
1070
     1
1070
    44
1040
1.0
1070
    74
1070
     0
1000
MTEXTEND
  0
POINT
  5
18C76
330
18C6C
100
AcDbEntity
  8
DEFPOINTS
 62
     0
 48
50.0
100
AcDbPoint
 10
7180.896575106967
 20
7846.123139034578
 30
0.0
  0
POINT
  5
18C77
330
18C6C
100
AcDbEntity
  8
DEFPOINTS
 62
     0
 48
50.0
100
AcDbPoint
 10
7179.896575106965
 20
7769.123139034579
 30
0.0
  0
POINT
  5
18C78
330
18C6C
100
AcDbEntity
  8
DEFPOINTS
 62
     0
 48
50.0
100
AcDbPoint
 10
7417.192158500192
 20
7769.123139034579
 30
0.0
  0
ENDBLK
  5
18C79
330
18C6C
100
AcDbEntity
  8
0
 48
50.0
100
AcDbBlockEnd
  0
BLOCK
  5
18DA0
330
18C7A
100
AcDbEntity
  8
0
 48
50.0
100
AcDbBlockBegin
  2
A$C3B1A506B
 70
     0
 10
0.0
 20
0.0
 30
0.0
  3
A$C3B1A506B
  1

  0
MTEXT
  5
18C7B
330
18C7A
100
AcDbEntity
  8
寸法
 62
     7
 48
50.0
100
AcDbMText
 10
3342.250386887194
 20
2778.329429134012
 30
0.0
 40
96.0
 41
0.0
 71
     5
 72
     1
  1
棚 2段
  7
STYLE1
 73
     1
 44
1.0
1001
ACAD
1000
MTEXTBEGIN
1070
    73
1070
     1
1070
    44
1040
1.0
1070
    74
1070
     0
1000
MTEXTEND
  0
MTEXT
  5
18C7C
330
18C7A
100
AcDbEntity
  8
寸法
 62
     7
 48
50.0
100
AcDbMText
 10
2167.25038688716
 20
2778.329429133986
 30
0.0
 40
96.0
 41
0.0
 71
     5
 72
     1
  1
棚 2段
  7
STYLE1
 73
     1
 44
1.0
1001
ACAD
1000
MTEXTBEGIN
1070
    73
1070
     1
1070
    44
1040
1.0
1070
    74
1070
     0
1000
MTEXTEND
  0
MTEXT
  5
18C7D
330
18C7A
100
AcDbEntity
  8
寸法
 62
     7
 48
50.0
100
AcDbMText
 10
992.2503868871608
 20
2778.329429133935
 30
0.0
 40
96.0
 41
0.0
 71
     5
 72
     1
  1
棚 2段
  7
STYLE1
 73
     1
 44
1.0
1001
ACAD
1000
MTEXTBEGIN
1070
    73
1070
     1
1070
    44
1040
1.0
1070
    74
1070
     0
1000
MTEXTEND
  0
LINE
  5
18C7E
330
18C7A
100
AcDbEntity
  8
細線
 48
50.0
100
AcDbLine
 10
2771.970589276527
 20
1368.994384123192
 30
0.0
 11
3398.970589276523
 21
1368.994384123192
 31
0.0
  0
LINE
  5
18C7F
330
18C7A
100
AcDbEntity
  8
細線
 48
50.0
100
AcDbLine
 10
2117.970593930113
 20
1335.285615569113
 30
0.0
 11
3398.970589276523
 21
1335.285615569113
 31
0.0
  0
LINE
  5
18C80
330
18C7A
100
AcDbEntity
  8
細線
 48
50.0
100
AcDbLine
 10
2076.970593930115
 20
1364.690523565368
 30
0.0
 11
1322.970589276523
 21
1364.690523565367
 31
0.0
  0
LINE
  5
18C81
330
18C7A
100
AcDbEntity
  8
細線
100
AcDbLine
 10
3170.720579860066
 20
1388.494284088199
 30
0.0
 11
3173.052119381877
 21
1393.494286728162
 31
0.0
  0
LINE
  5
18C82
330
18C7A
100
AcDbEntity
  8
細線
100
AcDbLine
 10
3240.720589276525
 20
1388.494269174465
 30
0.0
 11
3238.389042800336
 21
1393.494286728144
 31
0.0
  0
LINE
  5
18C83
330
18C7A
100
AcDbEntity
  8
細線
100
AcDbLine
 10
3238.389042800336
 20
1393.494286728144
 30
0.0
 11
3173.052119381862
 21
1393.494286728133
 31
0.0
  0
LINE
  5
18C84
330
18C7A
100
AcDbEntity
  8
細線
100
AcDbLine
 10
3098.389042800336
 20
1393.494286728144
 30
0.0
 11
3033.052119381862
 21
1393.494286728133
 31
0.0
  0
LINE
  5
18C85
330
18C7A
100
AcDbEntity
  8
細線
100
AcDbLine
 10
3100.720589276523
 20
1388.494269174465
 30
0.0
 11
3098.389042800336
 21
1393.494286728144
 31
0.0
  0
LINE
  5
18C86
330
18C7A
100
AcDbEntity
  8
細線
100
AcDbLine
 10
3030.720579860066
 20
1388.494284088199
 30
0.0
 11
3033.052119381875
 21
1393.494286728162
 31
0.0
  0
LINE
  5
18C87
330
18C7A
100
AcDbEntity
  8
細線
100
AcDbLine
 10
2890.720589276525
 20
1388.494269174465
 30
0.0
 11
2893.052128798336
 21
1393.494271814428
 31
0.0
  0
LINE
  5
18C88
330
18C7A
100
AcDbEntity
  8
細線
100
AcDbLine
 10
2960.720598692984
 20
1388.494254260731
 30
0.0
 11
2958.389052216793
 21
1393.49427181441
 31
0.0
  0
LINE
  5
18C89
330
18C7A
100
AcDbEntity
  8
細線
100
AcDbLine
 10
2958.389052216795
 20
1393.49427181441
 30
0.0
 11
2893.052128798321
 21
1393.494271814399
 31
0.0
  0
LINE
  5
18C8A
330
18C7A
100
AcDbEntity
  8
細線
100
AcDbLine
 10
2667.139038146739
 20
1359.494298590735
 30
0.0
 11
2601.802114728263
 21
1359.494298590724
 31
0.0
  0
LINE
  5
18C8B
330
18C7A
100
AcDbEntity
  8
細線
100
AcDbLine
 10
2669.470584622926
 20
1354.494281037055
 30
0.0
 11
2667.139038146737
 21
1359.494298590735
 31
0.0
  0
LINE
  5
18C8C
330
18C7A
100
AcDbEntity
  8
細線
100
AcDbLine
 10
2599.470575206469
 20
1354.49429595079
 30
0.0
 11
2601.802114728278
 21
1359.494298590752
 31
0.0
  0
LINE
  5
18C8D
330
18C7A
100
AcDbEntity
  8
細線
 48
50.0
100
AcDbLine
 10
2440.853968524536
 20
1372.765132327548
 30
0.0
 11
2446.609486107205
 21
1354.494281037057
 31
0.0
  0
LINE
  5
18C8E
330
18C7A
100
AcDbEntity
  8
細線
 48
50.0
100
AcDbLine
 10
2429.925520044106
 20
1372.765132327546
 30
0.0
 11
2440.853968524536
 21
1372.765132327548
 31
0.0
  0
ARC
  5
18C8F
330
18C7A
100
AcDbEntity
  8
細線
 48
50.0
100
AcDbCircle
 10
2424.471163986787
 20
1374.265132327546
 30
0.0
 40
5.0
100
AcDbArc
 50
204.6243183520723
 51
335.3756816479278
  0
ARC
  5
18C90
330
18C7A
100
AcDbEntity
  8
細線
 48
50.0
100
AcDbCircle
 10
2429.925520044106
 20
1371.765132327546
 30
0.0
 40
1.0
100
AcDbArc
 50
90.0
 51
155.3756816479277
  0
ARC
  5
18C91
330
18C7A
100
AcDbEntity
  8
細線
 48
50.0
100
AcDbCircle
 10
2419.016807929469
 20
1371.765132327546
 30
0.0
 40
1.0
100
AcDbArc
 50
24.62431835207225
 51
90.0
  0
LINE
  5
18C92
330
18C7A
100
AcDbEntity
  8
細線
 48
50.0
100
AcDbLine
 10
2408.088359449037
 20
1372.765132327548
 30
0.0
 11
2419.016807929469
 21
1372.765132327546
 31
0.0
  0
LINE
  5
18C93
330
18C7A
100
AcDbEntity
  8
細線
 48
50.0
100
AcDbLine
 10
2402.33284186637
 20
1354.494281037054
 30
0.0
 11
2408.088359449037
 21
1372.765132327548
 31
0.0
  0
LINE
  5
18C94
330
18C7A
100
AcDbEntity
  8
細線
100
AcDbLine
 10
2458.070304175992
 20
1354.494278397076
 30
0.0
 11
2460.401843697802
 21
1359.494281037039
 31
0.0
  0
LINE
  5
18C95
330
18C7A
100
AcDbEntity
  8
細線
100
AcDbLine
 10
2528.070313592451
 20
1354.494263483342
 30
0.0
 11
2525.738767116262
 21
1359.494281037021
 31
0.0
  0
LINE
  5
18C96
330
18C7A
100
AcDbEntity
  8
細線
100
AcDbLine
 10
2525.738767116262
 20
1359.494281037021
 30
0.0
 11
2460.40184369779
 21
1359.49428103701
 31
0.0
  0
LINE
  5
18C97
330
18C7A
100
AcDbEntity
  8
細線
100
AcDbLine
 10
2387.139046332155
 20
1359.494281037021
 30
0.0
 11
2321.80212291368
 21
1359.49428103701
 31
0.0
  0
LINE
  5
18C98
330
18C7A
100
AcDbEntity
  8
細線
100
AcDbLine
 10
2389.470592808342
 20
1354.494263483342
 30
0.0
 11
2387.139046332153
 21
1359.494281037021
 31
0.0
  0
LINE
  5
18C99
330
18C7A
100
AcDbEntity
  8
細線
100
AcDbLine
 10
2319.470584622926
 20
1354.494281037054
 30
0.0
 11
2321.802122913694
 21
1359.494281037039
 31
0.0
  0
LINE
  5
18C9A
330
18C7A
100
AcDbEntity
  8
細線
100
AcDbLine
 10
2179.47061994182
 20
1354.494289224422
 30
0.0
 11
2181.802158232587
 21
1359.494289224407
 31
0.0
  0
LINE
  5
18C9B
330
18C7A
100
AcDbEntity
  8
細線
100
AcDbLine
 10
2249.470628127236
 20
1354.49427167071
 30
0.0
 11
2247.139081651047
 21
1359.494289224389
 31
0.0
  0
LINE
  5
18C9C
330
18C7A
100
AcDbEntity
  8
細線
100
AcDbLine
 10
2247.139081651047
 20
1359.494289224389
 30
0.0
 11
2181.802158232573
 21
1359.494289224378
 31
0.0
  0
LINE
  5
18C9D
330
18C7A
100
AcDbEntity
  8
細線
100
AcDbLine
 10
1807.970585744697
 20
1320.494460905133
 30
0.0
 11
1810.302124035464
 21
1325.494460905118
 31
0.0
  0
LINE
  5
18C9E
330
18C7A
100
AcDbEntity
  8
細線
100
AcDbLine
 10
1877.970593930113
 20
1320.494443351421
 30
0.0
 11
1875.639047453926
 21
1325.4944609051
 31
0.0
  0
LINE
  5
18C9F
330
18C7A
100
AcDbEntity
  8
細線
100
AcDbLine
 10
1875.639047453926
 20
1325.4944609051
 30
0.0
 11
1810.302124035452
 21
1325.494460905089
 31
0.0
  0
LINE
  5
18CA0
330
18C7A
100
AcDbEntity
  8
細線
100
AcDbLine
 10
2015.639047453926
 20
1325.4944609051
 30
0.0
 11
1950.302124035452
 21
1325.494460905089
 31
0.0
  0
LINE
  5
18CA1
330
18C7A
100
AcDbEntity
  8
細線
100
AcDbLine
 10
2017.970593930113
 20
1320.494443351421
 30
0.0
 11
2015.639047453924
 21
1325.4944609051
 31
0.0
  0
LINE
  5
18CA2
330
18C7A
100
AcDbEntity
  8
細線
100
AcDbLine
 10
1947.970585744697
 20
1320.494460905133
 30
0.0
 11
1950.302124035465
 21
1325.494460905118
 31
0.0
  0
LINE
  5
18CA3
330
18C7A
100
AcDbEntity
  8
細線
100
AcDbLine
 10
1735.639047453926
 20
1325.494460905098
 30
0.0
 11
1670.302124035454
 21
1325.494460905087
 31
0.0
  0
LINE
  5
18CA4
330
18C7A
100
AcDbEntity
  8
細線
100
AcDbLine
 10
1737.970593930113
 20
1320.494443351419
 30
0.0
 11
1735.639047453926
 21
1325.494460905098
 31
0.0
  0
LINE
  5
18CA5
330
18C7A
100
AcDbEntity
  8
細線
100
AcDbLine
 10
1667.970585744697
 20
1320.494460905131
 30
0.0
 11
1670.302124035465
 21
1325.494460905116
 31
0.0
  0
LINE
  5
18CA6
330
18C7A
100
AcDbEntity
  8
細線
100
AcDbLine
 10
1527.970593930113
 20
1320.494460905133
 30
0.0
 11
1530.302132220881
 21
1325.494460905118
 31
0.0
  0
LINE
  5
18CA7
330
18C7A
100
AcDbEntity
  8
細線
100
AcDbLine
 10
1597.970602115529
 20
1320.494443351421
 30
0.0
 11
1595.639055639342
 21
1325.4944609051
 31
0.0
  0
LINE
  5
18CA8
330
18C7A
100
AcDbEntity
  8
細線
100
AcDbLine
 10
1595.639055639342
 20
1325.4944609051
 30
0.0
 11
1530.302132220869
 21
1325.494460905089
 31
0.0
  0
ARC
  5
18CA9
330
18C7A
100
AcDbEntity
  8
部品1
 48
0.01
100
AcDbCircle
 10
1483.470482677778
 20
1319.493338720063
 30
0.0
 40
0.5
100
AcDbArc
 50
270.0
 51
0.0
  0
LINE
  5
18CAA
330
18C7A
100
AcDbEntity
  8
部品1
 48
0.01
100
AcDbLine
 10
1483.970482677778
 20
1320.493338720063
 30
0.0
 11
1483.970482677778
 21
1319.493338720063
 31
0.0
  0
LINE
  5
18CAB
330
18C7A
100
AcDbEntity
  8
部品1
 48
0.01
100
AcDbLine
 10
1483.970482677778
 20
1320.493338720063
 30
0.0
 11
1483.970482677778
 21
1319.493338720063
 31
0.0
  0
LINE
  5
18CAC
330
18C7A
100
AcDbEntity
  8
部品1
 48
0.01
100
AcDbLine
 10
1483.470482677778
 20
1318.993338720063
 30
0.0
 11
1476.857977247713
 21
1318.993338720062
 31
0.0
  0
ARC
  5
18CAD
330
18C7A
100
AcDbEntity
  8
部品1
100
AcDbCircle
 10
1476.926326800494
 20
1319.993338720062
 30
0.0
 40
1.0
100
AcDbArc
 50
160.5287793655865
 51
270.0
  0
ARC
  5
18CAE
330
18C7A
100
AcDbEntity
  8
部品1
100
AcDbCircle
 10
1451.470482677778
 20
1328.993338720062
 30
0.0
 40
26.0
100
AcDbArc
 50
340.5287793655865
 51
0.0
  0
LINE
  5
18CAF
330
18C7A
100
AcDbEntity
  8
部品1
100
AcDbLine
 10
1477.470482677778
 20
1328.993338720062
 30
0.0
 11
1477.470482677778
 21
1333.993338720061
 31
0.0
  0
ARC
  5
18CB0
330
18C7A
100
AcDbEntity
  8
部品1
 48
0.01
100
AcDbCircle
 10
1475.470482677778
 20
1333.993338720061
 30
0.0
 40
2.0
100
AcDbArc
 50
0.0
 51
90.0
  0
ARC
  5
18CB1
330
18C7A
100
AcDbEntity
  8
部品1
100
AcDbCircle
 10
1473.862091052968
 20
1332.993338720062
 30
0.0
 40
3.0
100
AcDbArc
 50
90.0
 51
141.6069559808035
  0
LINE
  5
18CB2
330
18C7A
100
AcDbEntity
  8
部品1
 48
0.01
100
AcDbLine
 10
1475.470482677778
 20
1335.993338720062
 30
0.0
 11
1473.862091052968
 21
1335.993338720062
 31
0.0
  0
ARC
  5
18CB3
330
18C7A
100
AcDbEntity
  8
部品1
100
AcDbCircle
 10
1455.399768463507
 20
1332.293338720065
 30
0.0
 40
3.0
100
AcDbArc
 50
254.0576313943215
 51
270.0
  0
ARC
  5
18CB4
330
18C7A
100
AcDbEntity
  8
部品1
100
AcDbCircle
 10
1462.541196892049
 20
1332.293338720065
 30
0.0
 40
3.0
100
AcDbArc
 50
270.0
 51
285.9423686056786
  0
LINE
  5
18CB5
330
18C7A
100
AcDbEntity
  8
部品1
100
AcDbLine
 10
1462.541196892049
 20
1329.293338720064
 30
0.0
 11
1455.399768463507
 21
1329.293338720064
 31
0.0
  0
ARC
  5
18CB6
330
18C7A
100
AcDbEntity
  8
部品1
100
AcDbCircle
 10
1458.970482677778
 20
1344.793338720065
 30
0.0
 40
16.0
100
AcDbArc
 50
285.9423686056786
 51
321.6069559808035
  0
LINE
  5
18CB7
330
18C7A
100
AcDbEntity
  8
部品1
 48
0.01
100
AcDbLine
 10
1442.470482677778
 20
1335.993338720062
 30
0.0
 11
1444.078874302588
 21
1335.993338720062
 31
0.0
  0
ARC
  5
18CB8
330
18C7A
100
AcDbEntity
  8
部品1
100
AcDbCircle
 10
1444.078874302588
 20
1332.993338720062
 30
0.0
 40
3.0
100
AcDbArc
 50
38.39304401919648
 51
90.0
  0
ARC
  5
18CB9
330
18C7A
100
AcDbEntity
  8
部品1
100
AcDbCircle
 10
1458.970482677778
 20
1344.793338720065
 30
0.0
 40
16.0
100
AcDbArc
 50
218.3930440191965
 51
254.0576313943215
  0
LINE
  5
18CBA
330
18C7A
100
AcDbEntity
  8
部品1
100
AcDbLine
 10
1440.470482677778
 20
1328.993338720062
 30
0.0
 11
1440.470482677778
 21
1333.993338720061
 31
0.0
  0
ARC
  5
18CBB
330
18C7A
100
AcDbEntity
  8
部品1
 48
0.01
100
AcDbCircle
 10
1442.470482677778
 20
1333.993338720061
 30
0.0
 40
2.0
100
AcDbArc
 50
90.0
 51
180.0
  0
ARC
  5
18CBC
330
18C7A
100
AcDbEntity
  8
部品1
100
AcDbCircle
 10
1466.470482677778
 20
1328.993338720062
 30
0.0
 40
26.0
100
AcDbArc
 50
180.0
 51
199.4712206344134
  0
ARC
  5
18CBD
330
18C7A
100
AcDbEntity
  8
部品1
 48
0.01
100
AcDbCircle
 10
1434.470482677778
 20
1319.493338720063
 30
0.0
 40
0.5
100
AcDbArc
 50
180.0
 51
270.0
  0
LINE
  5
18CBE
330
18C7A
100
AcDbEntity
  8
部品1
 48
0.01
100
AcDbLine
 10
1434.470482677778
 20
1318.993338720063
 30
0.0
 11
1441.014638555061
 21
1318.993338720062
 31
0.0
  0
LINE
  5
18CBF
330
18C7A
100
AcDbEntity
  8
部品1
 48
0.01
100
AcDbLine
 10
1433.970482677778
 20
1320.493338720063
 30
0.0
 11
1433.970482677778
 21
1319.493338720063
 31
0.0
  0
ARC
  5
18CC0
330
18C7A
100
AcDbEntity
  8
部品1
100
AcDbCircle
 10
1441.014638555061
 20
1319.993338720062
 30
0.0
 40
1.0
100
AcDbArc
 50
270.0
 51
19.47122063441346
  0
LINE
  5
18CC1
330
18C7A
100
AcDbEntity
  8
細線
100
AcDbLine
 10
1479.470482677785
 20
1338.493338720065
 30
0.0
 11
1438.470482677785
 21
1338.493338720058
 31
0.0
  0
LINE
  5
18CC2
330
18C7A
100
AcDbEntity
  8
細線
100
AcDbLine
 10
1438.470482677785
 20
1338.493338720058
 30
0.0
 11
1438.470482677785
 21
1320.49333872004
 31
0.0
  0
LINE
  5
18CC3
330
18C7A
100
AcDbEntity
  8
細線
100
AcDbLine
 10
1479.470482677785
 20
1338.493338720065
 30
0.0
 11
1479.470482677785
 21
1320.49333872004
 31
0.0
  0
LINE
  5
18CC4
330
18C7A
100
AcDbEntity
  8
細線
100
AcDbLine
 10
1322.970589276523
 20
1324.494269174465
 30
0.0
 11
1322.970589276523
 21
1320.494269174513
 31
0.0
  0
LINE
  5
18CC5
330
18C7A
100
AcDbEntity
  8
寸法
 48
50.0
100
AcDbLine
 10
1746.17359555837
 20
1170.531020743327
 30
0.0
 11
1694.767587648266
 21
1170.531020743327
 31
0.0
  0
LINE
  5
18CC6
330
18C7A
100
AcDbEntity
  8
寸法
 48
50.0
100
AcDbLine
 10
1694.767587648266
 20
1170.531020743327
 30
0.0
 11
1694.767587648266
 21
1201.841179395494
 31
0.0
  0
LINE
  5
18CC7
330
18C7A
100
AcDbEntity
  8
寸法
 48
50.0
100
AcDbLine
 10
1694.767587648266
 20
1201.841179395494
 30
0.0
 11
1665.006255656843
 21
1201.841179395494
 31
0.0
  0
LINE
  5
18CC8
330
18C7A
100
AcDbEntity
  8
寸法
 48
50.0
100
AcDbLine
 10
1665.006255656843
 20
1201.841179395494
 30
0.0
 11
1720.470591603318
 21
1239.420630324105
 31
0.0
  0
LINE
  5
18CC9
330
18C7A
100
AcDbEntity
  8
寸法
 48
50.0
100
AcDbLine
 10
1775.934927549793
 20
1201.841179395494
 30
0.0
 11
1720.470591603318
 21
1239.420630324105
 31
0.0
  0
LINE
  5
18CCA
330
18C7A
100
AcDbEntity
  8
寸法
 48
50.0
100
AcDbLine
 10
1746.17359555837
 20
1201.841179395494
 30
0.0
 11
1775.934927549793
 21
1201.841179395494
 31
0.0
  0
LINE
  5
18CCB
330
18C7A
100
AcDbEntity
  8
寸法
 48
50.0
100
AcDbLine
 10
1746.17359555837
 20
1170.531020743327
 30
0.0
 11
1746.17359555837
 21
1201.841179395494
 31
0.0
  0
LINE
  5
18CCC
330
18C7A
100
AcDbEntity
  8
寸法
 48
50.0
100
AcDbLine
 10
1694.767587648266
 20
1170.531020743327
 30
0.0
 11
1746.17359555837
 21
1170.531020743327
 31
0.0
  0
LINE
  5
18CCD
330
18C7A
100
AcDbEntity
  8
寸法
 48
50.0
100
AcDbLine
 10
2025.339129835225
 20
1227.676611498152
 30
0.0
 11
2025.339129835225
 21
1174.01297691636
 31
0.0
  0
LINE
  5
18CCE
330
18C7A
100
AcDbEntity
  8
寸法
 48
50.0
100
AcDbLine
 10
2114.623348430647
 20
1203.752977228664
 30
0.0
 11
2025.339129835225
 21
1227.676611498152
 31
0.0
  0
LINE
  5
18CCF
330
18C7A
100
AcDbEntity
  8
寸法
 48
50.0
100
AcDbLine
 10
1895.471408254923
 20
1203.752977228664
 30
0.0
 11
2114.623348430647
 21
1203.752977228664
 31
0.0
  0
DIMENSION
  5
18CD0
330
18C7A
100
AcDbEntity
  8
寸法
 48
50.0
100
AcDbDimension
  2
*D15
 10
2588.970589276523
 20
706.3240511224249
 30
0.0
 11
1969.060022905491
 21
706.3240511224249
 31
0.0
 12
-3742.925985830444
 22
-6453.628869860112
 32
0.0
 70
   128
  1
有効開口部間口\P<>
 71
     5
 42
1266.0
  3
INABA_S40G
100
AcDbAlignedDimension
 13
1322.970589276523
 23
1315.494269174465
 33
0.0
 14
2588.970589276523
 24
1315.494269174465
 34
0.0
100
AcDbRotatedDimension
1001
ACAD
1000
DSTYLE
1002
{
1070
   341
1005
0
1002
}
  0
LINE
  5
18CD1
330
18C7A
100
AcDbEntity
  8
部品1
100
AcDbLine
 10
3409.970589276524
 20
1392.494269174465
 30
0.0
 11
3437.970589276523
 21
1392.494269174465
 31
0.0
  0
DIMENSION
  5
18CD2
330
18C7A
100
AcDbEntity
  8
寸法
100
AcDbDimension
  2
*D16
 10
3674.266172669749
 20
1315.494269174465
 30
0.0
 11
3674.266172669748
 21
1177.494269174462
 31
0.0
 12
-3742.925985830444
 22
-6453.628869860112
 32
0.0
 70
   128
 71
     5
 42
77.0
  3
INABA_S40
100
AcDbAlignedDimension
 13
3437.970589276523
 23
1392.494269174465
 33
0.0
 14
3436.970589276523
 24
1315.494269174465
 34
0.0
 50
90.0
100
AcDbRotatedDimension
1001
ACAD
1000
DSTYLE
1002
{
1070
    41
1040
0.5
1070
    44
1040
1.0
1070
   147
1040
0.8
1070
   271
1070
     2
1070
   272
1070
     2
1070
   289
1070
     3
1070
   340
1005
F706
1070
   343
1005
164B4
1070
   344
1005
164B4
1002
}
  0
LINE
  5
18CD3
330
18C7A
100
AcDbEntity
  8
部品1
100
AcDbLine
 10
3437.970589276523
 20
1315.494269174465
 30
0.0
 11
3437.970589276523
 21
1392.494269174465
 31
0.0
  0
LINE
  5
18CD4
330
18C7A
100
AcDbEntity
  8
部品1
100
AcDbLine
 10
3398.970589276523
 20
1388.494269174465
 30
0.0
 11
3409.970589276524
 21
1388.494269174465
 31
0.0
  0
LINE
  5
18CD5
330
18C7A
100
AcDbEntity
  8
部品1
100
AcDbLine
 10
3407.970589276523
 20
1324.494269174465
 30
0.0
 11
3407.970589276523
 21
1315.494269174465
 31
0.0
  0
LINE
  5
18CD6
330
18C7A
100
AcDbEntity
  8
部品1
100
AcDbLine
 10
3398.970589276523
 20
1324.494269174465
 30
0.0
 11
3407.970589276523
 21
1324.494269174465
 31
0.0
  0
LINE
  5
18CD7
330
18C7A
100
AcDbEntity
  8
部品1
100
AcDbLine
 10
3398.970589276523
 20
1388.494269174465
 30
0.0
 11
3398.970589276523
 21
1324.494269174465
 31
0.0
  0
LINE
  5
18CD8
330
18C7A
100
AcDbEntity
  8
部品1
100
AcDbLine
 10
3409.970589276524
 20
1419.494269174465
 30
0.0
 11
3409.970589276524
 21
1388.494269174465
 31
0.0
  0
LINE
  5
18CD9
330
18C7A
100
AcDbEntity
  8
部品1
100
AcDbLine
 10
1322.970589276523
 20
1388.494269174465
 30
0.0
 11
1311.970589276523
 21
1388.494269174465
 31
0.0
  0
LINE
  5
18CDA
330
18C7A
100
AcDbEntity
  8
部品1
100
AcDbLine
 10
1283.970589276523
 20
1392.494269174465
 30
0.0
 11
1311.970589276523
 21
1392.494269174465
 31
0.0
  0
LINE
  5
18CDB
330
18C7A
100
AcDbEntity
  8
部品1
100
AcDbLine
 10
1313.970589276523
 20
1324.494269174465
 30
0.0
 11
1313.970589276523
 21
1315.494269174465
 31
0.0
  0
LINE
  5
18CDC
330
18C7A
100
AcDbEntity
  8
部品1
100
AcDbLine
 10
1322.970589276523
 20
1324.494269174465
 30
0.0
 11
1313.970589276523
 21
1324.494269174465
 31
0.0
  0
LINE
  5
18CDD
330
18C7A
100
AcDbEntity
  8
部品1
100
AcDbLine
 10
1313.970589276523
 20
1315.494269174465
 30
0.0
 11
1283.970589276523
 21
1315.494269174465
 31
0.0
  0
LINE
  5
18CDE
330
18C7A
100
AcDbEntity
  8
部品1
100
AcDbLine
 10
1283.970589276523
 20
1315.494269174465
 30
0.0
 11
1283.970589276523
 21
1392.494269174465
 31
0.0
  0
LINE
  5
18CDF
330
18C7A
100
AcDbEntity
  8
部品1
100
AcDbLine
 10
1322.970589276523
 20
1388.494269174465
 30
0.0
 11
1322.970589276523
 21
1324.494269174465
 31
0.0
  0
LINE
  5
18CE0
330
18C7A
100
AcDbEntity
  8
部品1
100
AcDbLine
 10
1311.970589276523
 20
1419.494269174462
 30
0.0
 11
1311.970589276523
 21
1388.494269174465
 31
0.0
  0
LINE
  5
18CE1
330
18C7A
100
AcDbEntity
  8
部品1
100
AcDbLine
 10
1311.970589276523
 20
1419.494269174462
 30
0.0
 11
3409.970589276524
 21
1419.494269174465
 31
0.0
  0
LINE
  5
18CE2
330
18C7A
100
AcDbEntity
  8
部品1
100
AcDbLine
 10
3407.970589276523
 20
1315.494269174465
 30
0.0
 11
3437.970589276523
 21
1315.494269174465
 31
0.0
  0
LINE
  5
18CE3
330
18C7A
100
AcDbEntity
  8
部品1
100
AcDbLine
 10
1313.970589276523
 20
1315.494269174465
 30
0.0
 11
3410.970589276523
 21
1315.494269174465
 31
0.0
  0
LINE
  5
18CE4
330
18C7A
100
AcDbEntity
  8
細線
  6
Continuous
 62
     5
100
AcDbLine
 10
2689.970589276527
 20
1354.494269174462
 30
0.0
 11
2689.970589276527
 21
1354.494269174462
 31
0.0
  0
LINE
  5
18CE5
330
18C7A
100
AcDbEntity
  8
細線
  6
Continuous
 62
     5
100
AcDbLine
 10
2682.470589276527
 20
1354.494269174462
 30
0.0
 11
2682.470589276527
 21
1354.494269174462
 31
0.0
  0
LINE
  5
18CE6
330
18C7A
100
AcDbEntity
  8
細線
  6
Continuous
 62
     5
100
AcDbLine
 10
2676.470589276527
 20
1354.494269174462
 30
0.0
 11
2676.470589276527
 21
1354.494269174462
 31
0.0
  0
LINE
  5
18CE7
330
18C7A
100
AcDbEntity
  8
細線
  6
Continuous
 62
     5
100
AcDbLine
 10
2743.970589276527
 20
1373.494269174462
 30
0.0
 11
2743.970589276527
 21
1373.494269174462
 31
0.0
  0
LINE
  5
18CE8
330
18C7A
100
AcDbEntity
  8
細線
 48
50.0
100
AcDbLine
 10
1336.970593930116
 20
1341.094443351418
 30
0.0
 11
1336.970593930113
 21
1349.490593759059
 31
0.0
  0
LINE
  5
18CE9
330
18C7A
100
AcDbEntity
  8
細線
 48
50.0
100
AcDbLine
 10
1336.970593930113
 20
1349.490593759059
 30
0.0
 11
1322.970589276523
 21
1349.490593759057
 31
0.0
  0
LINE
  5
18CEA
330
18C7A
100
AcDbEntity
  8
細線
 48
50.0
100
AcDbLine
 10
2087.970593930113
 20
1337.644443351419
 30
0.0
 11
2087.970593930113
 21
1342.494443351421
 31
0.0
  0
LINE
  5
18CEB
330
18C7A
100
AcDbEntity
  8
細線
 48
50.0
100
AcDbLine
 10
2087.970593930113
 20
1342.494443351421
 30
0.0
 11
2102.970593930113
 21
1342.494443351421
 31
0.0
  0
LINE
  5
18CEC
330
18C7A
100
AcDbEntity
  8
細線
 48
50.0
100
AcDbLine
 10
2102.970593930113
 20
1342.494443351421
 30
0.0
 11
2102.970593930115
 21
1349.494443351419
 31
0.0
  0
LINE
  5
18CED
330
18C7A
100
AcDbEntity
  8
細線
 48
50.0
100
AcDbLine
 10
2102.970593930115
 20
1349.494443351419
 30
0.0
 11
2117.970593930113
 21
1349.494443351419
 31
0.0
  0
LINE
  5
18CEE
330
18C7A
100
AcDbEntity
  8
細線
 48
50.0
100
AcDbLine
 10
2117.970593930113
 20
1349.494443351419
 30
0.0
 11
2117.970593930113
 21
1320.494443351421
 31
0.0
  0
LINE
  5
18CEF
330
18C7A
100
AcDbEntity
  8
細線
 48
50.0
100
AcDbLine
 10
1313.970589276523
 20
1320.491777694889
 30
0.0
 11
1527.970593930113
 21
1320.494460905133
 31
0.0
  0
LINE
  5
18CF0
330
18C7A
100
AcDbEntity
  8
細線
 48
50.0
100
AcDbLine
 10
2017.970593930113
 20
1320.494443351421
 30
0.0
 11
2117.970593930113
 21
1320.494443351421
 31
0.0
  0
LINE
  5
18CF1
330
18C7A
100
AcDbEntity
  8
細線
 48
50.0
100
AcDbLine
 10
1737.970593930113
 20
1320.494443351419
 30
0.0
 11
1807.970593930113
 21
1320.494443351423
 31
0.0
  0
LINE
  5
18CF2
330
18C7A
100
AcDbEntity
  8
細線
 48
50.0
100
AcDbLine
 10
1750.832558942642
 20
1320.494443351419
 30
0.0
 11
1756.588076525309
 21
1338.765294641913
 31
0.0
  0
LINE
  5
18CF3
330
18C7A
100
AcDbEntity
  8
細線
 48
50.0
100
AcDbLine
 10
1756.588076525309
 20
1338.765294641913
 30
0.0
 11
1767.516525005743
 21
1338.765294641911
 31
0.0
  0
ARC
  5
18CF4
330
18C7A
100
AcDbEntity
  8
細線
 48
50.0
100
AcDbCircle
 10
1767.516525005743
 20
1337.765294641911
 30
0.0
 40
1.0
100
AcDbArc
 50
24.62431835207225
 51
90.0
  0
ARC
  5
18CF5
330
18C7A
100
AcDbEntity
  8
細線
 48
50.0
100
AcDbCircle
 10
1778.425237120377
 20
1337.765294641911
 30
0.0
 40
1.0
100
AcDbArc
 50
90.0
 51
155.3756816479277
  0
ARC
  5
18CF6
330
18C7A
100
AcDbEntity
  8
細線
 48
50.0
100
AcDbCircle
 10
1772.970881063058
 20
1340.265294641911
 30
0.0
 40
5.0
100
AcDbArc
 50
204.6243183520723
 51
335.3756816479278
  0
LINE
  5
18CF7
330
18C7A
100
AcDbEntity
  8
細線
 48
50.0
100
AcDbLine
 10
1778.425237120377
 20
1338.765294641911
 30
0.0
 11
1789.35368560081
 21
1338.765294641913
 31
0.0
  0
LINE
  5
18CF8
330
18C7A
100
AcDbEntity
  8
細線
 48
50.0
100
AcDbLine
 10
1789.35368560081
 20
1338.765294641913
 30
0.0
 11
1795.109203183478
 21
1320.494443351423
 31
0.0
  0
LINE
  5
18CF9
330
18C7A
100
AcDbEntity
  8
細線
 48
50.0
100
AcDbLine
 10
2087.970593930113
 20
1341.094443351419
 30
0.0
 11
1336.970593930116
 21
1341.094443351418
 31
0.0
  0
LINE
  5
18CFA
330
18C7A
100
AcDbEntity
  8
細線
 48
50.0
100
AcDbLine
 10
1947.970593930113
 20
1320.494443351421
 30
0.0
 11
1877.970593930113
 21
1320.494443351421
 31
0.0
  0
LINE
  5
18CFB
330
18C7A
100
AcDbEntity
  8
細線
100
AcDbLine
 10
1667.970593930113
 20
1320.494443351421
 30
0.0
 11
1597.970602115529
 21
1320.494443351421
 31
0.0
  0
LINE
  5
18CFC
330
18C7A
100
AcDbEntity
  8
細線
 48
50.0
100
AcDbLine
 10
2741.970584622936
 20
1375.094487209288
 30
0.0
 11
2106.970593930113
 21
1375.094487209284
 31
0.0
  0
LINE
  5
18CFD
330
18C7A
100
AcDbEntity
  8
細線
 48
50.0
100
AcDbLine
 10
2106.970593930113
 20
1371.990637616925
 30
0.0
 11
2106.970593930113
 21
1376.490637616925
 31
0.0
  0
LINE
  5
18CFE
330
18C7A
100
AcDbEntity
  8
細線
 48
50.0
100
AcDbLine
 10
2106.970593930113
 20
1376.490637616925
 30
0.0
 11
2091.970593930113
 21
1376.490637616925
 31
0.0
  0
LINE
  5
18CFF
330
18C7A
100
AcDbEntity
  8
細線
 48
50.0
100
AcDbLine
 10
2091.970593930113
 20
1376.490637616925
 30
0.0
 11
2091.970593930113
 21
1383.490637616927
 31
0.0
  0
LINE
  5
18D00
330
18C7A
100
AcDbEntity
  8
細線
 48
50.0
100
AcDbLine
 10
2091.970593930113
 20
1383.490637616927
 30
0.0
 11
2076.970593930115
 21
1383.490637616924
 31
0.0
  0
LINE
  5
18D01
330
18C7A
100
AcDbEntity
  8
細線
 48
50.0
100
AcDbLine
 10
2076.970593930115
 20
1383.490637616924
 30
0.0
 11
2076.970593930115
 21
1345.890409513813
 31
0.0
  0
LINE
  5
18D02
330
18C7A
100
AcDbEntity
  8
細線
 48
50.0
100
AcDbLine
 10
2076.970593930115
 20
1345.890409513813
 30
0.0
 11
2096.970601231289
 21
1345.890451063353
 31
0.0
  0
LINE
  5
18D03
330
18C7A
100
AcDbEntity
  8
細線
 48
50.0
100
AcDbLine
 10
2096.970556362348
 20
1354.493912699161
 30
0.0
 11
2096.970601231289
 21
1345.890451063353
 31
0.0
  0
LINE
  5
18D04
330
18C7A
100
AcDbEntity
  8
細線
 48
50.0
100
AcDbLine
 10
2741.970584622936
 20
1371.644487209287
 30
0.0
 11
2741.970584622936
 21
1376.494487209284
 31
0.0
  0
LINE
  5
18D05
330
18C7A
100
AcDbEntity
  8
細線
 48
50.0
100
AcDbLine
 10
2741.970584622936
 20
1376.494487209284
 30
0.0
 11
2756.970584622934
 21
1376.494487209285
 31
0.0
  0
LINE
  5
18D06
330
18C7A
100
AcDbEntity
  8
細線
 48
50.0
100
AcDbLine
 10
2756.970584622934
 20
1376.494487209285
 30
0.0
 11
2756.970596256909
 21
1383.494487209331
 31
0.0
  0
LINE
  5
18D07
330
18C7A
100
AcDbEntity
  8
細線
 48
50.0
100
AcDbLine
 10
2756.970596256909
 20
1383.494487209331
 30
0.0
 11
2771.970594427439
 21
1383.494487209329
 31
0.0
  0
LINE
  5
18D08
330
18C7A
100
AcDbEntity
  8
細線
 48
50.0
100
AcDbLine
 10
2771.970594427439
 20
1383.494487209329
 30
0.0
 11
2771.970584125617
 21
1354.494281037055
 31
0.0
  0
LINE
  5
18D09
330
18C7A
100
AcDbEntity
  8
細線
 48
50.0
100
AcDbLine
 10
2458.070304175992
 20
1354.494278397076
 30
0.0
 11
2389.470863838818
 21
1354.494283787084
 31
0.0
  0
LINE
  5
18D0A
330
18C7A
100
AcDbEntity
  8
細線
 48
50.0
100
AcDbLine
 10
2096.970556362348
 20
1354.493912699161
 30
0.0
 11
2108.203245717057
 21
1354.494095652309
 31
0.0
  0
ARC
  5
18D0B
330
18C7A
100
AcDbEntity
  8
細線
 48
50.0
100
AcDbCircle
 10
2114.785538024393
 20
1353.294259565922
 30
0.0
 40
1.8
100
AcDbArc
 50
270.0006665777295
 51
345.000555481349
  0
LINE
  5
18D0C
330
18C7A
100
AcDbEntity
  8
細線
 48
50.0
100
AcDbLine
 10
2116.771971470473
 20
1353.753100023201
 30
0.0
 11
2116.524209028273
 21
1352.828402141094
 31
0.0
  0
LINE
  5
18D0D
330
18C7A
100
AcDbEntity
  8
細線
 48
50.0
100
AcDbLine
 10
2114.785558965548
 20
1351.494259566043
 30
0.0
 11
2111.155631546781
 21
1351.494217335563
 31
0.0
  0
ARC
  5
18D0E
330
18C7A
100
AcDbEntity
  8
細線
 48
50.0
100
AcDbCircle
 10
2111.155610605627
 20
1353.29421733544
 30
0.0
 40
1.8
100
AcDbArc
 50
195.0010443049965
 51
270.0006665777295
  0
LINE
  5
18D0F
330
18C7A
100
AcDbEntity
  8
細線
 48
50.0
100
AcDbLine
 10
2109.169183113368
 20
1353.752932303007
 30
0.0
 11
2109.416952609882
 21
1352.828311364425
 31
0.0
  0
ARC
  5
18D10
330
18C7A
100
AcDbEntity
  8
細線
 48
50.0
100
AcDbCircle
 10
2108.203262004622
 20
1353.494095652444
 30
0.0
 40
1.0
100
AcDbArc
 50
15.00104430499651
 51
90.00093320877969
  0
LINE
  5
18D11
330
18C7A
100
AcDbEntity
  8
細線
 48
50.0
100
AcDbLine
 10
2117.737892825577
 20
1354.494290342714
 30
0.0
 11
2118.679652976481
 21
1354.494296916564
 31
0.0
  0
ARC
  5
18D12
330
18C7A
100
AcDbEntity
  8
細線
 48
50.0
100
AcDbCircle
 10
2117.737899805961
 20
1353.49429034274
 30
0.0
 40
1.0
100
AcDbArc
 50
90.0003999466794
 51
165.000555481349
  0
LINE
  5
18D13
330
18C7A
100
AcDbEntity
  8
細線
 48
50.0
100
AcDbLine
 10
2669.470584622926
 20
1354.494281037055
 30
0.0
 11
2771.970584125617
 21
1354.494281037055
 31
0.0
  0
LINE
  5
18D14
330
18C7A
100
AcDbEntity
  8
細線
 48
50.0
100
AcDbLine
 10
2179.47061994182
 20
1354.494289224422
 30
0.0
 11
2118.370558714898
 21
1354.494296916564
 31
0.0
  0
LINE
  5
18D15
330
18C7A
100
AcDbEntity
  8
細線
 48
50.0
100
AcDbLine
 10
2599.470584622926
 20
1354.494281037057
 30
0.0
 11
2529.470584622926
 21
1354.494281037055
 31
0.0
  0
LINE
  5
18D16
330
18C7A
100
AcDbEntity
  8
細線
 48
50.0
100
AcDbLine
 10
2319.470584622926
 20
1354.494281037054
 30
0.0
 11
2249.470567335051
 21
1354.494281037057
 31
0.0
  0
ARC
  5
18D17
330
18C7A
100
AcDbEntity
  8
細線
 48
50.0
100
AcDbCircle
 10
2756.170589276533
 20
1387.694269174466
 30
0.0
 40
0.8
100
AcDbArc
 50
359.9997333689499
 51
89.99986668437072
  0
ARC
  5
18D18
330
18C7A
100
AcDbEntity
  8
細線
 48
50.0
100
AcDbCircle
 10
2763.770596101631
 20
1387.694280343081
 30
0.0
 40
0.8
100
AcDbArc
 50
90.00014387753465
 51
179.9997333689498
  0
LINE
  5
18D19
330
18C7A
100
AcDbEntity
  8
細線
 48
50.0
100
AcDbLine
 10
2756.170591137969
 20
1388.494269174465
 30
0.0
 11
2750.970589276525
 21
1388.494269174465
 31
0.0
  0
ARC
  5
18D1A
330
18C7A
100
AcDbEntity
  8
細線
 48
50.0
100
AcDbCircle
 10
2757.670589276524
 20
1386.194269174464
 30
0.0
 40
0.7
100
AcDbArc
 50
180.0
 51
270.0
  0
ARC
  5
18D1B
330
18C7A
100
AcDbEntity
  8
細線
 48
50.0
100
AcDbCircle
 10
2762.270589276524
 20
1386.194269174464
 30
0.0
 40
0.7
100
AcDbArc
 50
270.0
 51
0.0
  0
LINE
  5
18D1C
330
18C7A
100
AcDbEntity
  8
細線
 48
50.0
100
AcDbLine
 10
2762.970589276525
 20
1386.194269174464
 30
0.0
 11
2762.970596101639
 21
1387.694284065954
 31
0.0
  0
LINE
  5
18D1D
330
18C7A
100
AcDbEntity
  8
細線
 48
50.0
100
AcDbLine
 10
2757.670589276524
 20
1385.494269174465
 30
0.0
 11
2762.270589276524
 21
1385.494269174465
 31
0.0
  0
LINE
  5
18D1E
330
18C7A
100
AcDbEntity
  8
細線
 48
50.0
100
AcDbLine
 10
2756.970589276525
 20
1387.694269174466
 30
0.0
 11
2756.970589276525
 21
1386.194269174464
 31
0.0
  0
LINE
  5
18D1F
330
18C7A
100
AcDbEntity
  8
細線
 48
50.0
100
AcDbLine
 10
3382.570589276527
 20
1418.494269174465
 30
0.0
 11
2745.970589276525
 21
1418.494269174463
 31
0.0
  0
LINE
  5
18D20
330
18C7A
100
AcDbEntity
  8
細線
 48
50.0
100
AcDbLine
 10
3408.470589276525
 20
1413.494269174467
 30
0.0
 11
3392.570589276527
 21
1413.494269174465
 31
0.0
  0
LINE
  5
18D21
330
18C7A
100
AcDbEntity
  8
細線
 48
50.0
100
AcDbLine
 10
3392.570589276526
 20
1413.494269174465
 30
0.0
 11
3382.570589276527
 21
1418.494269174465
 31
0.0
  0
LINE
  5
18D22
330
18C7A
100
AcDbEntity
  8
細線
100
AcDbLine
 10
2993.470589276525
 20
1388.494269174465
 30
0.0
 11
2993.470589276525
 21
1417.794269174464
 31
0.0
  0
LINE
  5
18D23
330
18C7A
100
AcDbEntity
  8
細線
100
AcDbLine
 10
2993.470589276525
 20
1417.794269174464
 30
0.0
 11
3013.470589276525
 21
1417.794269174464
 31
0.0
  0
LINE
  5
18D24
330
18C7A
100
AcDbEntity
  8
細線
100
AcDbLine
 10
3013.470589276525
 20
1388.494269174465
 30
0.0
 11
3013.470589276525
 21
1417.794269174464
 31
0.0
  0
LINE
  5
18D25
330
18C7A
100
AcDbEntity
  8
細線
100
AcDbLine
 10
3170.720589276524
 20
1388.494269174465
 30
0.0
 11
3100.720589276523
 21
1388.494269174465
 31
0.0
  0
LINE
  5
18D26
330
18C7A
100
AcDbEntity
  8
細線
 48
50.0
100
AcDbLine
 10
2890.720589276525
 20
1388.494269174465
 30
0.0
 11
2763.766368849365
 21
1388.494269174465
 31
0.0
  0
LINE
  5
18D27
330
18C7A
100
AcDbEntity
  8
細線
100
AcDbLine
 10
3030.720589276525
 20
1388.494269174465
 30
0.0
 11
2960.720589276525
 21
1388.494269174465
 31
0.0
  0
LINE
  5
18D28
330
18C7A
100
AcDbEntity
  8
細線
 48
50.0
100
AcDbLine
 10
2750.970589276525
 20
1380.494269174465
 30
0.0
 11
2750.970589276525
 21
1388.494269174465
 31
0.0
  0
LINE
  5
18D29
330
18C7A
100
AcDbEntity
  8
細線
 48
50.0
100
AcDbLine
 10
2730.970589276524
 20
1380.494269174467
 30
0.0
 11
2750.970589276525
 21
1380.494269174465
 31
0.0
  0
LINE
  5
18D2A
330
18C7A
100
AcDbEntity
  8
細線
 48
50.0
100
AcDbLine
 10
2745.970589276525
 20
1418.494269174465
 30
0.0
 11
2745.970589276525
 21
1413.494269174465
 31
0.0
  0
LINE
  5
18D2B
330
18C7A
100
AcDbEntity
  8
細線
 48
50.0
100
AcDbLine
 10
2730.970589276525
 20
1418.494269174463
 30
0.0
 11
2745.970589276525
 21
1418.494269174465
 31
0.0
  0
LINE
  5
18D2C
330
18C7A
100
AcDbEntity
  8
細線
 48
50.0
100
AcDbLine
 10
2730.970589276524
 20
1380.494269174467
 30
0.0
 11
2730.970589276525
 21
1418.494269174463
 31
0.0
  0
LINE
  5
18D2D
330
18C7A
100
AcDbEntity
  8
細線
100
AcDbLine
 10
3398.970589276523
 20
1388.494269174465
 30
0.0
 11
3240.720589276525
 21
1388.494269174465
 31
0.0
  0
LINE
  5
18D2E
330
18C7A
100
AcDbEntity
  8
細線
 48
50.0
100
AcDbLine
 10
3408.470589276525
 20
1413.494269174467
 30
0.0
 11
3408.470589276524
 21
1388.494269174465
 31
0.0
  0
TEXT
  5
18D2F
330
18C7A
100
AcDbEntity
  8
部品1
100
AcDbText
 10
1860.154865991392
 20
46.99880823813145
 30
0.0
 40
135.0
  1
平面図
  7
STYLE2
100
AcDbText
  0
LWPOLYLINE
  5
18D30
330
18C7A
100
AcDbEntity
  8
部品1
100
AcDbPolyline
 90
        4
 70
     1
 43
0.0
 10
1770.23525616235
 20
239.8923374566548
 10
1770.23525616235
 20
0.0000159111223184
 10
2533.705922390791
 20
0.0000159111223184
 10
2533.705922390791
 20
239.8923374566548
  0
LINE
  5
18D31
330
18C7A
100
AcDbEntity
  8
部品1
100
AcDbLine
 10
1534.470589276487
 20
3154.494269174626
 30
0.0
 11
2769.470589276552
 21
3154.494269174626
 31
0.0
  0
LINE
  5
18D32
330
18C7A
100
AcDbEntity
  8
部品1
 48
50.0
100
AcDbLine
 10
1311.970589276523
 20
1420.494269174462
 30
0.0
 11
3411.970589276523
 21
1420.494269174465
 31
0.0
  0
LINE
  5
18D33
330
18C7A
100
AcDbEntity
  8
部品1
 48
50.0
100
AcDbLine
 10
471.9705892765232
 20
1392.494269174465
 30
0.0
 11
1311.970589276523
 21
1392.494269174465
 31
0.0
  0
DIMENSION
  5
18D34
330
18C7A
100
AcDbEntity
  8
寸法
100
AcDbDimension
  2
*D14
 10
2710.234916278077
 20
2488.887829538828
 30
0.0
 11
2338.318822490183
 21
2488.887829538828
 31
0.0
 12
-3742.925985830444
 22
-6453.628869860112
 32
0.0
 70
   128
 71
     5
 42
1231.00000000007
  3
INABA_S40G
100
AcDbAlignedDimension
 13
1536.470589276486
 23
2702.494269174557
 33
0.0
 14
2767.470589276556
 24
2702.494269174549
 34
0.0
100
AcDbRotatedDimension
1001
ACAD
1000
DSTYLE
1002
{
1002
}
  0
LINE
  5
18D35
330
18C7A
100
AcDbEntity
  8
部品1
100
AcDbLine
 10
1536.470589276487
 20
2702.494269174557
 30
0.0
 11
2767.470589276554
 21
2702.494269174615
 31
0.0
  0
LINE
  5
18D36
330
18C7A
100
AcDbEntity
  8
部品1
100
AcDbLine
 10
1536.470589276487
 20
3152.494269174557
 30
0.0
 11
2767.470589276556
 21
3152.494269174615
 31
0.0
  0
LINE
  5
18D37
330
18C7A
100
AcDbEntity
  8
細線
 48
50.0
100
AcDbLine
 10
1508.470589276487
 20
3152.494269174558
 30
0.0
 11
445.4705892765559
 21
2702.494269174509
 31
0.0
  0
LINE
  5
18D38
330
18C7A
100
AcDbEntity
  8
細線
 48
50.0
100
AcDbLine
 10
1508.470589276487
 20
2702.494269174558
 30
0.0
 11
445.4705892765542
 21
3152.494269174509
 31
0.0
  0
LINE
  5
18D39
330
18C7A
100
AcDbEntity
  8
部品1
100
AcDbLine
 10
1556.970589276487
 20
3172.494269174611
 30
0.0
 11
1556.970589276487
 21
3154.494269174611
 31
0.0
  0
LINE
  5
18D3A
330
18C7A
100
AcDbEntity
  8
部品1
100
AcDbLine
 10
1556.970589276487
 20
3172.494269174611
 30
0.0
 11
1550.970589276487
 21
3172.494269174611
 31
0.0
  0
LINE
  5
18D3B
330
18C7A
100
AcDbEntity
  8
部品1
100
AcDbLine
 10
1534.470589276487
 20
3146.494269174608
 30
0.0
 11
1509.470589276487
 21
3146.494269174611
 31
0.0
  0
LINE
  5
18D3C
330
18C7A
100
AcDbEntity
  8
部品1
100
AcDbLine
 10
1486.970589276487
 20
3172.494269174611
 30
0.0
 11
1486.970589276487
 21
3154.494269174611
 31
0.0
  0
LINE
  5
18D3D
330
18C7A
100
AcDbEntity
  8
部品1
100
AcDbLine
 10
1492.970589276487
 20
3172.494269174611
 30
0.0
 11
1486.970589276487
 21
3172.494269174611
 31
0.0
  0
LINE
  5
18D3E
330
18C7A
100
AcDbEntity
  8
部品1
100
AcDbLine
 10
1534.470589276487
 20
2702.494269174615
 30
0.0
 11
1509.470589276487
 21
2702.494269174615
 31
0.0
  0
LINE
  5
18D3F
330
18C7A
100
AcDbEntity
  8
部品1
 48
50.0
100
AcDbLine
 10
1536.470589276487
 20
3152.494269174611
 30
0.0
 11
1536.470589276487
 21
2702.494269174615
 31
0.0
  0
LINE
  5
18D40
330
18C7A
100
AcDbEntity
  8
部品1
 48
50.0
100
AcDbLine
 10
1508.470589276487
 20
3152.494269174607
 30
0.0
 11
1508.470589276487
 21
2702.494269174615
 31
0.0
  0
LINE
  5
18D41
330
18C7A
100
AcDbEntity
  8
部品1
 48
50.0
100
AcDbLine
 10
1534.470589276487
 20
3154.494269174618
 30
0.0
 11
1534.470589276487
 21
2702.494269174615
 31
0.0
  0
LINE
  5
18D42
330
18C7A
100
AcDbEntity
  8
部品1
 48
50.0
100
AcDbLine
 10
1509.470589276487
 20
3154.494269174615
 30
0.0
 11
1509.470589276487
 21
2702.494269174615
 31
0.0
  0
LINE
  5
18D43
330
18C7A
100
AcDbEntity
  8
部品1
100
AcDbLine
 10
3411.970589276556
 20
1392.494269174582
 30
0.0
 11
3411.970589276556
 21
1420.494269174596
 31
0.0
  0
LINE
  5
18D44
330
18C7A
100
AcDbEntity
  8
部品1
100
AcDbLine
 10
1311.970589276523
 20
1392.494269174596
 30
0.0
 11
1311.970589276523
 21
1420.494269174596
 31
0.0
  0
LINE
  5
18D45
330
18C7A
100
AcDbEntity
  8
部品1
100
AcDbLine
 10
891.9705892765232
 20
1392.494269174596
 30
0.0
 11
891.9705892765232
 21
1420.494269174596
 31
0.0
  0
LINE
  5
18D46
330
18C7A
100
AcDbEntity
  8
部品1
100
AcDbLine
 10
3411.97058927652
 20
3182.494269174477
 30
0.0
 11
3411.970589276523
 21
3154.494269174477
 31
0.0
  0
LINE
  5
18D47
330
18C7A
100
AcDbEntity
  8
部品1
100
AcDbLine
 10
2571.97058927652
 20
3182.494269174477
 30
0.0
 11
2571.970589276523
 21
3154.494269174477
 31
0.0
  0
LINE
  5
18D48
330
18C7A
100
AcDbEntity
  8
部品1
100
AcDbLine
 10
2991.97058927652
 20
3182.494269174477
 30
0.0
 11
2991.970589276523
 21
3154.494269174477
 31
0.0
  0
LINE
  5
18D49
330
18C7A
100
AcDbEntity
  8
部品1
100
AcDbLine
 10
2151.970589276519
 20
3182.494269174477
 30
0.0
 11
2151.970589276523
 21
3154.494269174477
 31
0.0
  0
LINE
  5
18D4A
330
18C7A
100
AcDbEntity
  8
部品1
100
AcDbLine
 10
1731.970589276519
 20
3182.494269174477
 30
0.0
 11
1731.970589276523
 21
3154.494269174477
 31
0.0
  0
LINE
  5
18D4B
330
18C7A
100
AcDbEntity
  8
部品1
100
AcDbLine
 10
1311.970589276519
 20
3182.494269174477
 30
0.0
 11
1311.970589276523
 21
3154.494269174477
 31
0.0
  0
LINE
  5
18D4C
330
18C7A
100
AcDbEntity
  8
部品1
100
AcDbLine
 10
891.9705892765195
 20
3182.494269174477
 30
0.0
 11
891.9705892765232
 21
3154.494269174477
 31
0.0
  0
LINE
  5
18D4D
330
18C7A
100
AcDbEntity
  8
部品1
100
AcDbLine
 10
471.9705892765232
 20
1392.494269174596
 30
0.0
 11
471.9705892765232
 21
1420.494269174596
 31
0.0
  0
LINE
  5
18D4E
330
18C7A
100
AcDbEntity
  8
部品1
100
AcDbLine
 10
444.9705892765305
 20
1420.494269174558
 30
0.0
 11
3858.970589276556
 21
1420.494269174596
 31
0.0
  0
LINE
  5
18D4F
330
18C7A
100
AcDbEntity
  8
部品1
100
AcDbLine
 10
3831.970589276556
 20
1392.494269174596
 30
0.0
 11
3831.970589276556
 21
1420.494269174596
 31
0.0
  0
LINE
  5
18D50
330
18C7A
100
AcDbEntity
  8
部品1
100
AcDbLine
 10
3858.970589276556
 20
1447.494269174593
 30
0.0
 11
3886.970589276556
 21
1447.494269174593
 31
0.0
  0
LINE
  5
18D51
330
18C7A
100
AcDbEntity
  8
部品1
100
AcDbLine
 10
3858.970589276556
 20
1867.494269174607
 30
0.0
 11
3886.970589276556
 21
1867.494269174607
 31
0.0
  0
LINE
  5
18D52
330
18C7A
100
AcDbEntity
  8
部品1
100
AcDbLine
 10
444.9705892765305
 20
1867.49426917448
 30
0.0
 11
416.9705892765305
 21
1867.49426917448
 31
0.0
  0
LINE
  5
18D53
330
18C7A
100
AcDbEntity
  8
部品1
100
AcDbLine
 10
3830.470589276541
 20
1867.49426917458
 30
0.0
 11
473.4705892765396
 21
1867.49426917448
 31
0.0
  0
LINE
  5
18D54
330
18C7A
100
AcDbEntity
  8
部品1
100
AcDbLine
 10
3830.470589276541
 20
2287.49426917458
 30
0.0
 11
473.4705892765396
 21
2287.49426917448
 31
0.0
  0
LINE
  5
18D55
330
18C7A
100
AcDbEntity
  8
部品1
100
AcDbLine
 10
444.9705892765305
 20
2287.49426917448
 30
0.0
 11
416.9705892765305
 21
2287.49426917448
 31
0.0
  0
LINE
  5
18D56
330
18C7A
100
AcDbEntity
  8
部品1
100
AcDbLine
 10
3858.970589276556
 20
2287.494269174608
 30
0.0
 11
3886.970589276556
 21
2287.494269174608
 31
0.0
  0
LINE
  5
18D57
330
18C7A
100
AcDbEntity
  8
部品1
 48
50.0
100
AcDbLine
 10
2151.970589276551
 20
2702.494269174586
 30
0.0
 11
2151.970589276581
 21
1448.994269174494
 31
0.0
  0
LINE
  5
18D58
330
18C7A
100
AcDbEntity
  8
破線
 48
10.0
100
AcDbLine
 10
2959.470589276535
 20
1472.494269174522
 30
0.0
 11
2176.970589276532
 21
1472.494269174505
 31
0.0
  0
LINE
  5
18D59
330
18C7A
100
AcDbEntity
  8
破線
 48
10.0
100
AcDbLine
 10
3009.47058927653
 20
1448.994269174509
 30
0.0
 11
3009.47058927653
 21
2702.494269174615
 31
0.0
  0
LINE
  5
18D5A
330
18C7A
100
AcDbEntity
  8
破線
 48
10.0
100
AcDbLine
 10
2959.470589276535
 20
1448.994269174505
 30
0.0
 11
2959.470589276531
 21
2702.494269174615
 31
0.0
  0
LINE
  5
18D5B
330
18C7A
100
AcDbEntity
  8
破線
 48
10.0
100
AcDbLine
 10
1344.47058927653
 20
1448.994269174509
 30
0.0
 11
1344.47058927653
 21
2702.494269174615
 31
0.0
  0
LINE
  5
18D5C
330
18C7A
100
AcDbEntity
  8
破線
 48
10.0
100
AcDbLine
 10
1294.470589276534
 20
1448.994269174505
 30
0.0
 11
1294.47058927653
 21
2702.494269174615
 31
0.0
  0
DIMENSION
  5
18D5D
330
18C7A
100
AcDbEntity
  8
寸法
100
AcDbDimension
  2
*D13
 10
1451.234916278005
 20
2488.887829538828
 30
0.0
 11
916.0604668248634
 21
2488.887829538828
 31
0.0
 12
-3742.925985830444
 22
-6453.628869860112
 32
0.0
 70
   128
 71
     5
 42
1062.99999999993
  3
INABA_S40G
100
AcDbAlignedDimension
 13
445.4705892765559
 23
2702.494269174505
 33
0.0
 14
1508.470589276486
 24
2702.494269174558
 34
0.0
100
AcDbRotatedDimension
1001
ACAD
1000
DSTYLE
1002
{
1002
}
  0
LINE
  5
18D5E
330
18C7A
100
AcDbEntity
  8
破線
 48
10.0
100
AcDbLine
 10
1294.470589276534
 20
1472.494269174469
 30
0.0
 11
496.9705892765414
 21
1472.494269174476
 31
0.0
  0
LINE
  5
18D5F
330
18C7A
100
AcDbEntity
  8
部品1
100
AcDbLine
 10
3831.970589276556
 20
3182.494269174604
 30
0.0
 11
3831.970589276556
 21
3154.494269174604
 31
0.0
  0
LINE
  5
18D60
330
18C7A
100
AcDbEntity
  8
部品1
100
AcDbLine
 10
3831.970589276556
 20
3182.494269174626
 30
0.0
 11
3831.970589276556
 21
3154.494269174626
 31
0.0
  0
LINE
  5
18D61
330
18C7A
100
AcDbEntity
  8
部品1
100
AcDbLine
 10
3858.970589276556
 20
3127.494269174607
 30
0.0
 11
3886.970589276556
 21
3127.494269174607
 31
0.0
  0
LINE
  5
18D62
330
18C7A
100
AcDbEntity
  8
部品1
100
AcDbLine
 10
3858.970589276556
 20
2707.494269174608
 30
0.0
 11
3886.970589276556
 21
2707.494269174608
 31
0.0
  0
LINE
  5
18D63
330
18C7A
100
AcDbEntity
  8
部品1
100
AcDbLine
 10
3858.470589276556
 20
3152.494269174604
 30
0.0
 11
3858.470589276556
 21
2702.494269174608
 31
0.0
  0
LINE
  5
18D64
330
18C7A
100
AcDbEntity
  8
部品1
100
AcDbLine
 10
3886.970589276533
 20
1447.494269174593
 30
0.0
 11
3886.970589276531
 21
1392.494269174596
 31
0.0
  0
LINE
  5
18D65
330
18C7A
100
AcDbEntity
  8
部品1
 48
50.0
100
AcDbLine
 10
3830.470589276556
 20
1448.994269174596
 30
0.0
 11
3858.970589276554
 21
1420.494269174596
 31
0.0
  0
LINE
  5
18D66
330
18C7A
100
AcDbEntity
  8
部品1
100
AcDbLine
 10
3886.970589276531
 20
1392.494269174596
 30
0.0
 11
3835.970589276531
 21
1392.494269174596
 31
0.0
  0
LINE
  5
18D67
330
18C7A
100
AcDbEntity
  8
部品1
100
AcDbLine
 10
3858.970589276533
 20
1447.494269174593
 30
0.0
 11
3886.970589276531
 21
1447.494269174593
 31
0.0
  0
LINE
  5
18D68
330
18C7A
100
AcDbEntity
  8
部品1
100
AcDbLine
 10
3886.970589276556
 20
3182.494269174604
 30
0.0
 11
3886.970589276531
 21
1392.494269174596
 31
0.0
  0
DIMENSION
  5
18D69
330
18C7A
100
AcDbEntity
  8
寸法
100
AcDbDimension
  2
*D12
 10
4534.396935010967
 20
1447.494269174593
 30
0.0
 11
4534.396935010965
 21
2287.4942691746
 31
0.0
 12
-3742.925985830444
 22
-6453.628869860112
 32
0.0
 70
   128
  1
4X420=<>
 71
     5
 42
1680.000000000014
  3
INABA_S40G
100
AcDbAlignedDimension
 13
3886.970589276556
 23
3127.494269174607
 33
0.0
 14
3886.970589276531
 24
1447.494269174593
 34
0.0
 50
90.0
100
AcDbRotatedDimension
1001
ACAD
1000
DSTYLE
1002
{
1002
}
  0
LINE
  5
18D6A
330
18C7A
100
AcDbEntity
  8
部品1
100
AcDbLine
 10
3858.970589276556
 20
3154.494269174604
 30
0.0
 11
3858.970589276534
 21
1420.494269174596
 31
0.0
  0
DIMENSION
  5
18D6B
330
18C7A
100
AcDbEntity
  8
寸法
100
AcDbDimension
  2
*D11
 10
4213.82831513858
 20
2607.276453505718
 30
0.0
 11
4113.828315138579
 21
2832.276453505718
 31
0.0
 12
-3742.925985830444
 22
-6453.628869860112
 32
0.0
 71
     5
 42
449.9999999999963
  3
INABA_S40G
100
AcDbAlignedDimension
 13
3858.470589276556
 23
3152.494269174604
 33
0.0
 14
3858.470589276556
 24
2702.494269174608
 34
0.0
 50
90.0
100
AcDbRotatedDimension
1001
ACAD
1000
DSTYLE
1002
{
1002
}
  0
LINE
  5
18D6C
330
18C7A
100
AcDbEntity
  8
部品1
100
AcDbLine
 10
3830.470589276547
 20
2702.494269174608
 30
0.0
 11
3830.470589276556
 21
1448.994269174596
 31
0.0
  0
LINE
  5
18D6D
330
18C7A
100
AcDbEntity
  8
破線
 48
10.0
100
AcDbLine
 10
3806.970589276549
 20
2702.494269174608
 30
0.0
 11
3806.970589276558
 21
1472.494269174593
 31
0.0
  0
LINE
  5
18D6E
330
18C7A
100
AcDbEntity
  8
部品1
100
AcDbLine
 10
2769.470589276556
 20
3146.494269174608
 30
0.0
 11
2794.470589276556
 21
3146.494269174611
 31
0.0
  0
LINE
  5
18D6F
330
18C7A
100
AcDbEntity
  8
部品1
100
AcDbLine
 10
2810.970589276556
 20
3172.494269174611
 30
0.0
 11
2816.970589276556
 21
3172.494269174611
 31
0.0
  0
LINE
  5
18D70
330
18C7A
100
AcDbEntity
  8
部品1
100
AcDbLine
 10
2816.970589276556
 20
3172.494269174611
 30
0.0
 11
2816.970589276556
 21
3154.494269174611
 31
0.0
  0
LINE
  5
18D71
330
18C7A
100
AcDbEntity
  8
部品1
100
AcDbLine
 10
2746.970589276556
 20
3172.494269174611
 30
0.0
 11
2752.970589276556
 21
3172.494269174611
 31
0.0
  0
LINE
  5
18D72
330
18C7A
100
AcDbEntity
  8
部品1
100
AcDbLine
 10
2746.970589276556
 20
3172.494269174611
 30
0.0
 11
2746.970589276556
 21
3154.494269174611
 31
0.0
  0
LINE
  5
18D73
330
18C7A
100
AcDbEntity
  8
部品1
100
AcDbLine
 10
2769.470589276556
 20
2702.494269174615
 30
0.0
 11
2794.470589276556
 21
2702.494269174615
 31
0.0
  0
LINE
  5
18D74
330
18C7A
100
AcDbEntity
  8
部品1
 48
50.0
100
AcDbLine
 10
2794.470589276556
 20
3154.494269174615
 30
0.0
 11
2794.470589276556
 21
2702.494269174615
 31
0.0
  0
LINE
  5
18D75
330
18C7A
100
AcDbEntity
  8
部品1
 48
50.0
100
AcDbLine
 10
2769.470589276554
 20
3154.494269174618
 30
0.0
 11
2769.470589276556
 21
2702.494269174615
 31
0.0
  0
LINE
  5
18D76
330
18C7A
100
AcDbEntity
  8
部品1
 48
50.0
100
AcDbLine
 10
2795.470589276556
 20
3152.494269174607
 30
0.0
 11
2795.470589276556
 21
2702.494269174615
 31
0.0
  0
LINE
  5
18D77
330
18C7A
100
AcDbEntity
  8
部品1
 48
50.0
100
AcDbLine
 10
2767.470589276556
 20
3152.494269174611
 30
0.0
 11
2767.470589276556
 21
2702.494269174615
 31
0.0
  0
LINE
  5
18D78
330
18C7A
100
AcDbEntity
  8
破線
 48
10.0
100
AcDbLine
 10
2176.97058927653
 20
1448.994269174509
 30
0.0
 11
2176.97058927653
 21
2702.494269174588
 31
0.0
  0
LINE
  5
18D79
330
18C7A
100
AcDbEntity
  8
破線
 48
10.0
100
AcDbLine
 10
2126.970589276534
 20
1448.994269174505
 30
0.0
 11
2126.970589276531
 21
2702.494269174586
 31
0.0
  0
LINE
  5
18D7A
330
18C7A
100
AcDbEntity
  8
部品1
100
AcDbLine
 10
2794.470589276556
 20
3154.494269174622
 30
0.0
 11
3858.970589276556
 21
3154.494269174604
 31
0.0
  0
LINE
  5
18D7B
330
18C7A
100
AcDbEntity
  8
細線
 48
50.0
100
AcDbLine
 10
3858.470589276556
 20
2702.494269174608
 30
0.0
 11
2795.470589276556
 21
3152.494269174607
 31
0.0
  0
LINE
  5
18D7C
330
18C7A
100
AcDbEntity
  8
部品1
100
AcDbLine
 10
2795.470589276555
 20
2702.494269174615
 30
0.0
 11
3858.470589276556
 21
2702.494269174608
 31
0.0
  0
LINE
  5
18D7D
330
18C7A
100
AcDbEntity
  8
部品1
100
AcDbLine
 10
2795.470589276556
 20
3152.494269174611
 30
0.0
 11
3858.470589276556
 21
3152.494269174604
 31
0.0
  0
LINE
  5
18D7E
330
18C7A
100
AcDbEntity
  8
細線
 48
50.0
100
AcDbLine
 10
3858.470589276556
 20
3152.494269174604
 30
0.0
 11
2795.470589276555
 21
2702.494269174615
 31
0.0
  0
DIMENSION
  5
18D7F
330
18C7A
100
AcDbEntity
  8
寸法
100
AcDbDimension
  2
*D10
 10
3801.234916278101
 20
2488.887829538937
 30
0.0
 11
3318.360544398907
 21
2488.887829538937
 31
0.0
 12
-3742.925985830444
 22
-6453.628869860112
 32
0.0
 70
   128
 71
     5
 42
1063.000000000012
  3
INABA_S40G
100
AcDbAlignedDimension
 13
2795.470589276555
 23
2702.494269174615
 33
0.0
 14
3858.470589276567
 24
2702.494269174608
 34
0.0
100
AcDbRotatedDimension
1001
ACAD
1000
DSTYLE
1002
{
1002
}
  0
LINE
  5
18D80
330
18C7A
100
AcDbEntity
  8
破線
 48
10.0
100
AcDbLine
 10
3806.970589276556
 20
1472.494269174594
 30
0.0
 11
3009.47058927653
 21
1472.494269174523
 31
0.0
  0
DIMENSION
  5
18D81
330
18C7A
100
AcDbEntity
  8
寸法
100
AcDbDimension
  2
*D9
 10
4534.396935010941
 20
1392.494269174596
 30
0.0
 11
4534.39693501094
 21
1084.008987800356
 31
0.0
 12
-3742.925985830444
 22
-6453.628869860112
 32
0.0
 70
   128
 71
     5
 42
54.99999999999636
  3
INABA_S40G
100
AcDbAlignedDimension
 13
3886.970589276531
 23
1447.494269174593
 33
0.0
 14
3886.970589276531
 24
1392.494269174596
 34
0.0
 50
90.0
100
AcDbRotatedDimension
1001
ACAD
1000
DSTYLE
1002
{
1002
}
  0
LINE
  5
18D82
330
18C7A
100
AcDbEntity
  8
部品1
100
AcDbLine
 10
471.9705892765196
 20
3182.494269174477
 30
0.0
 11
471.9705892765232
 21
3154.494269174477
 31
0.0
  0
LINE
  5
18D83
330
18C7A
100
AcDbEntity
  8
部品1
100
AcDbLine
 10
471.9705892765559
 20
3182.494269174509
 30
0.0
 11
471.9705892765559
 21
3154.494269174509
 31
0.0
  0
LINE
  5
18D84
330
18C7A
100
AcDbEntity
  8
部品1
100
AcDbLine
 10
444.9705892765232
 20
3127.49426917448
 30
0.0
 11
416.9705892765232
 21
3127.49426917448
 31
0.0
  0
LINE
  5
18D85
330
18C7A
100
AcDbEntity
  8
部品1
100
AcDbLine
 10
444.9705892765305
 20
2707.49426917448
 30
0.0
 11
416.9705892765305
 21
2707.49426917448
 31
0.0
  0
LINE
  5
18D86
330
18C7A
100
AcDbEntity
  8
部品1
 48
50.0
100
AcDbLine
 10
445.4705892765542
 20
3152.494269174506
 30
0.0
 11
445.4705892765559
 21
2702.494269174505
 31
0.0
  0
LINE
  5
18D87
330
18C7A
100
AcDbEntity
  8
部品1
 48
50.0
100
AcDbLine
 10
473.470589276545
 20
1448.994269174573
 30
0.0
 11
444.970589276545
 21
1420.494269174574
 31
0.0
  0
LINE
  5
18D88
330
18C7A
100
AcDbEntity
  8
部品1
100
AcDbLine
 10
471.9705892765232
 20
1392.494269174465
 30
0.0
 11
416.9705892765486
 21
1392.494269174465
 31
0.0
  0
LINE
  5
18D89
330
18C7A
100
AcDbEntity
  8
部品1
100
AcDbLine
 10
444.9705892765305
 20
1447.494269174429
 30
0.0
 11
416.9705892765469
 21
1447.494269174429
 31
0.0
  0
LINE
  5
18D8A
330
18C7A
100
AcDbEntity
  8
部品1
100
AcDbLine
 10
444.9705892765305
 20
1447.494269174465
 30
0.0
 11
416.9705892765469
 21
1447.494269174465
 31
0.0
  0
LINE
  5
18D8B
330
18C7A
100
AcDbEntity
  8
部品1
100
AcDbLine
 10
444.9705892765469
 20
1447.49426917448
 30
0.0
 11
416.9705892765469
 21
1447.49426917448
 31
0.0
  0
LINE
  5
18D8C
330
18C7A
100
AcDbEntity
  8
部品1
100
AcDbLine
 10
416.9705892765469
 20
1447.494269174429
 30
0.0
 11
416.9705892765486
 21
1392.494269174433
 31
0.0
  0
LINE
  5
18D8D
330
18C7A
100
AcDbEntity
  8
部品1
100
AcDbLine
 10
416.9705892765196
 20
3182.494269174477
 30
0.0
 11
416.9705892765486
 21
1392.494269174465
 31
0.0
  0
LINE
  5
18D8E
330
18C7A
100
AcDbEntity
  8
部品1
100
AcDbLine
 10
444.9705892765305
 20
1420.494269174556
 30
0.0
 11
444.9705892765559
 21
3154.494269174509
 31
0.0
  0
LINE
  5
18D8F
330
18C7A
100
AcDbEntity
  8
部品1
100
AcDbLine
 10
473.4705892765323
 20
2702.494269174608
 30
0.0
 11
473.470589276545
 21
1448.994269174571
 31
0.0
  0
LINE
  5
18D90
330
18C7A
100
AcDbEntity
  8
破線
 48
10.0
100
AcDbLine
 10
496.9705892765305
 20
2702.494269174608
 30
0.0
 11
496.9705892765451
 21
1472.494269174476
 31
0.0
  0
DIMENSION
  5
18D91
330
18C7A
100
AcDbEntity
  8
寸法
100
AcDbDimension
  2
*D8
 10
3886.970589276531
 20
410.7433333855515
 30
0.0
 11
2168.197775309287
 21
410.7433333855515
 31
0.0
 12
-3742.925985830444
 22
-6453.628869860112
 32
0.0
 70
   128
 71
     5
 42
3469.999999999982
  3
INABA_S40G
100
AcDbAlignedDimension
 13
416.9705892765486
 23
1392.494269174433
 33
0.0
 14
3886.970589276531
 24
1392.49426917456
 34
0.0
100
AcDbRotatedDimension
1001
ACAD
1000
DSTYLE
1002
{
1070
   341
1005
0
1002
}
  0
LINE
  5
18D92
330
18C7A
100
AcDbEntity
  8
部品1
100
AcDbLine
 10
444.9705892765559
 20
3154.494269174624
 30
0.0
 11
1509.470589276487
 21
3154.494269174626
 31
0.0
  0
LINE
  5
18D93
330
18C7A
100
AcDbEntity
  8
部品1
100
AcDbLine
 10
3886.970589276531
 20
1392.494269174596
 30
0.0
 11
3411.970589276556
 21
1392.494269174582
 31
0.0
  0
LINE
  5
18D94
330
18C7A
100
AcDbEntity
  8
部品1
100
AcDbLine
 10
416.9705892765559
 20
3182.494269174509
 30
0.0
 11
3886.970589276556
 21
3182.494269174604
 31
0.0
  0
LINE
  5
18D95
330
18C7A
100
AcDbEntity
  8
部品1
100
AcDbLine
 10
445.4705892765559
 20
2702.494269174509
 30
0.0
 11
1508.470589276487
 21
2702.494269174558
 31
0.0
  0
LINE
  5
18D96
330
18C7A
100
AcDbEntity
  8
細線
 48
50.0
100
AcDbLine
 10
2767.470589276556
 20
3152.494269174611
 30
0.0
 11
1536.470589276487
 21
2702.494269174558
 31
0.0
  0
LINE
  5
18D97
330
18C7A
100
AcDbEntity
  8
部品1
100
AcDbLine
 10
445.4705892765542
 20
3152.494269174509
 30
0.0
 11
1508.470589276485
 21
3152.494269174558
 31
0.0
  0
LINE
  5
18D98
330
18C7A
100
AcDbEntity
  8
細線
 48
50.0
100
AcDbLine
 10
2767.470589276554
 20
2702.494269174615
 30
0.0
 11
1536.470589276485
 21
3152.494269174558
 31
0.0
  0
LINE
  5
18D99
330
18C7A
100
AcDbEntity
  8
破線
 48
10.0
100
AcDbLine
 10
2126.970589276534
 20
1472.494269174502
 30
0.0
 11
1344.47058927653
 21
1472.494269174473
 31
0.0
  0
LINE
  5
18D9A
330
18C7A
100
AcDbEntity
  8
部品1
100
AcDbLine
 10
3830.470589276556
 20
1448.994269174596
 30
0.0
 11
473.4705892764487
 21
1448.994269174476
 31
0.0
  0
DIMENSION
  5
18D9B
330
18C7A
100
AcDbEntity
  8
寸法
100
AcDbDimension
  2
*D7
 10
471.970589276555
 20
3698.302488799491
 30
0.0
 11
108.4853079022819
 21
3698.302488799491
 31
0.0
 12
-3742.925985830444
 22
-6453.628869860112
 32
0.0
 70
   128
 71
     5
 42
55.00000000003456
  3
INABA_S40G
100
AcDbAlignedDimension
 13
416.9705892765205
 23
3182.494269174509
 33
0.0
 14
471.970589276555
 24
3182.494269174509
 34
0.0
100
AcDbRotatedDimension
1001
ACAD
1000
DSTYLE
1002
{
1002
}
  0
DIMENSION
  5
18D9C
330
18C7A
100
AcDbEntity
  8
寸法
100
AcDbDimension
  2
*D6
 10
4534.396935010967
 20
3127.494269174607
 30
0.0
 11
4534.396935010965
 21
3490.979550548844
 31
0.0
 12
-3742.925985830444
 22
-6453.628869860112
 32
0.0
 70
   128
 71
     5
 42
54.99999999999636
  3
INABA_S40G
100
AcDbAlignedDimension
 13
3886.970589276556
 23
3182.494269174604
 33
0.0
 14
3886.970589276556
 24
3127.494269174607
 34
0.0
 50
90.0
100
AcDbRotatedDimension
1001
ACAD
1000
DSTYLE
1002
{
1002
}
  0
DIMENSION
  5
18D9D
330
18C7A
100
AcDbEntity
  8
寸法
100
AcDbDimension
  2
*D5
 10
3886.970589276556
 20
3698.302488799589
 30
0.0
 11
4195.455870650794
 21
3698.302488799589
 31
0.0
 12
-3742.925985830444
 22
-6453.628869860112
 32
0.0
 70
   128
 71
     5
 42
55.0
  3
INABA_S40G
100
AcDbAlignedDimension
 13
3831.970589276556
 23
3182.494269174604
 33
0.0
 14
3886.970589276556
 24
3182.494269174604
 34
0.0
100
AcDbRotatedDimension
1001
ACAD
1000
DSTYLE
1002
{
1002
}
  0
DIMENSION
  5
18D9E
330
18C7A
100
AcDbEntity
  8
寸法
100
AcDbDimension
  2
*D4
 10
3831.970589276556
 20
3698.302488799607
 30
0.0
 11
2151.970589276555
 21
3698.302488799607
 31
0.0
 12
-3742.925985830444
 22
-6453.628869860112
 32
0.0
 70
   128
  1
8X420=<>
 71
     5
 42
3360.000000000001
  3
INABA_S40G
100
AcDbAlignedDimension
 13
471.970589276555
 23
3182.494269174509
 33
0.0
 14
3831.970589276556
 24
3182.494269174604
 34
0.0
100
AcDbRotatedDimension
1001
ACAD
1000
DSTYLE
1002
{
1002
}
  0
DIMENSION
  5
18D9F
330
18C7A
100
AcDbEntity
  8
寸法
100
AcDbDimension
  2
*D3
 10
4899.503876750603
 20
1392.494269174596
 30
0.0
 11
4899.503876750601
 21
2287.4942691746
 31
0.0
 12
-3742.925985830444
 22
-6453.628869860112
 32
0.0
 70
   128
 71
     5
 42
1790.000000000007
  3
INABA_S40G
100
AcDbAlignedDimension
 13
3886.970589276556
 23
3182.494269174604
 33
0.0
 14
3886.970589276531
 24
1392.494269174596
 34
0.0
 50
90.0
100
AcDbRotatedDimension
1001
ACAD
1000
DSTYLE
1002
{
1002
}
  0
ENDBLK
  5
18DA1
330
18C7A
100
AcDbEntity
  8
0
 48
50.0
100
AcDbBlockEnd
  0
BLOCK
  5
1C4CB
330
1C4CA
100
AcDbEntity
  8
0
 48
50.0
100
AcDbBlockBegin
  2
_NONE
 70
     0
 10
0.0
 20
0.0
 30
0.0
  3
_NONE
  1

  0
CIRCLE
  5
1C4CC
330
1C4CA
100
AcDbEntity
  8
0
  6
ByBlock
 62
     0
 48
50.0
100
AcDbCircle
 10
0.0
 20
0.0
 30
0.0
 40
0.25
  0
ENDBLK
  5
1C4CD
330
1C4CA
100
AcDbEntity
  8
0
 48
50.0
100
AcDbBlockEnd
  0
BLOCK
  5
20DEE
330
20DE2
100
AcDbEntity
  8
0
 48
50.0
100
AcDbBlockBegin
  2
*D19
 70
     1
 10
0.0
 20
0.0
 30
0.0
  3
*D19
  1

  0
LINE
  5
2575C
330
20DE2
100
AcDbEntity
  8
寸法
 62
     0
 48
50.0
370
    -2
100
AcDbLine
 10
10603.6
 20
7478.197195698483
 30
0.0
 11
10603.6
 21
8476.417517757402
 31
0.0
  0
LINE
  5
2575D
330
20DE2
100
AcDbEntity
  8
寸法
 62
     0
 48
50.0
370
    -2
100
AcDbLine
 10
10648.6
 20
8204.463653792394
 30
0.0
 11
10648.6
 21
8476.417517757402
 31
0.0
  0
LINE
  5
2575E
330
20DE2
100
AcDbEntity
  8
寸法
 62
     0
 48
50.0
370
    -2
100
AcDbLine
 10
10603.6
 20
8416.417517757404
 30
0.0
 11
10503.6
 21
8416.417517757404
 31
0.0
  0
LINE
  5
2575F
330
20DE2
100
AcDbEntity
  8
寸法
 62
     0
 48
50.0
370
    -2
100
AcDbLine
 10
10648.6
 20
8416.417517757404
 30
0.0
 11
10985.94924240492
 21
8416.417517757404
 31
0.0
  0
LINE
  5
25760
330
20DE2
100
AcDbEntity
  8
寸法
 62
     0
 48
50.0
370
    -2
100
AcDbLine
 10
10603.6
 20
8416.417517757404
 30
0.0
 11
10648.6
 21
8416.417517757404
 31
0.0
  0
INSERT
  5
25761
330
20DE2
100
AcDbEntity
  8
寸法
 62
     0
 48
50.0
370
    -2
100
AcDbBlockReference
  2
_DOTSMALL
 10
10603.6
 20
8416.417517757404
 30
0.0
 41
100.0
 42
100.0
 43
100.0
  0
INSERT
  5
25762
330
20DE2
100
AcDbEntity
  8
寸法
 62
     0
 48
50.0
370
    -2
100
AcDbBlockReference
  2
_DOTSMALL
 10
10648.6
 20
8416.417517757404
 30
0.0
 41
100.0
 42
100.0
 43
100.0
 50
180.0
  0
MTEXT
  5
25763
330
20DE2
100
AcDbEntity
  8
寸法
 62
     7
 48
50.0
100
AcDbMText
 10
10919.77462120246
 20
8516.417517757403
 30
0.0
 40
120.0
 41
0.0
 71
     5
 72
     1
  1
\A1;a
  7
STYLE1
 73
     1
 44
1.0
1001
ACAD
1000
MTEXTBEGIN
1070
    73
1070
     1
1070
    44
1040
1.0
1070
    74
1070
     0
1000
MTEXTEND
  0
POINT
  5
25764
330
20DE2
100
AcDbEntity
  8
DEFPOINTS
 62
     0
 48
50.0
100
AcDbPoint
 10
10603.6
 20
7458.197195698483
 30
0.0
  0
POINT
  5
25765
330
20DE2
100
AcDbEntity
  8
DEFPOINTS
 62
     0
 48
50.0
100
AcDbPoint
 10
10648.6
 20
8184.463653792395
 30
0.0
  0
POINT
  5
25766
330
20DE2
100
AcDbEntity
  8
DEFPOINTS
 62
     0
 48
50.0
100
AcDbPoint
 10
10648.6
 20
8416.417517757404
 30
0.0
  0
ENDBLK
  5
20DEF
330
20DE2
100
AcDbEntity
  8
0
 48
50.0
100
AcDbBlockEnd
  0
BLOCK
  5
20E08
330
20DFC
100
AcDbEntity
  8
0
 48
50.0
100
AcDbBlockBegin
  2
*D20
 70
     1
 10
0.0
 20
0.0
 30
0.0
  3
*D20
  1

  0
LINE
  5
25785
330
20DFC
100
AcDbEntity
  8
寸法
 62
     0
 48
50.0
370
    -2
100
AcDbLine
 10
5798.600000000003
 20
8204.463653792391
 30
0.0
 11
5798.600000000003
 21
8476.417517757401
 31
0.0
  0
LINE
  5
25786
330
20DFC
100
AcDbEntity
  8
寸法
 62
     0
 48
50.0
370
    -2
100
AcDbLine
 10
5843.600000000004
 20
7478.197195698481
 30
0.0
 11
5843.600000000004
 21
8476.417517757401
 31
0.0
  0
LINE
  5
25787
330
20DFC
100
AcDbEntity
  8
寸法
 62
     0
 48
50.0
370
    -2
100
AcDbLine
 10
5843.600000000004
 20
8416.4175177574
 30
0.0
 11
5943.600000000004
 21
8416.4175177574
 31
0.0
  0
LINE
  5
25788
330
20DFC
100
AcDbEntity
  8
寸法
 62
     0
 48
50.0
370
    -2
100
AcDbLine
 10
5798.600000000003
 20
8416.4175177574
 30
0.0
 11
5461.250757595087
 21
8416.4175177574
 31
0.0
  0
LINE
  5
25789
330
20DFC
100
AcDbEntity
  8
寸法
 62
     0
 48
50.0
370
    -2
100
AcDbLine
 10
5843.600000000004
 20
8416.4175177574
 30
0.0
 11
5798.600000000003
 21
8416.4175177574
 31
0.0
  0
INSERT
  5
2578A
330
20DFC
100
AcDbEntity
  8
寸法
 62
     0
 48
50.0
370
    -2
100
AcDbBlockReference
  2
_DOTSMALL
 10
5843.600000000004
 20
8416.4175177574
 30
0.0
 41
100.0
 42
100.0
 43
100.0
 50
180.0
  0
INSERT
  5
2578B
330
20DFC
100
AcDbEntity
  8
寸法
 62
     0
 48
50.0
370
    -2
100
AcDbBlockReference
  2
_DOTSMALL
 10
5798.600000000003
 20
8416.4175177574
 30
0.0
 41
100.0
 42
100.0
 43
100.0
  0
MTEXT
  5
2578C
330
20DFC
100
AcDbEntity
  8
寸法
 62
     7
 48
50.0
100
AcDbMText
 10
5527.425378797545
 20
8516.4175177574
 30
0.0
 40
120.0
 41
0.0
 71
     5
 72
     1
  1
\A1;a
  7
STYLE1
 73
     1
 44
1.0
1001
ACAD
1000
MTEXTBEGIN
1070
    73
1070
     1
1070
    44
1040
1.0
1070
    74
1070
     0
1000
MTEXTEND
  0
POINT
  5
2578D
330
20DFC
100
AcDbEntity
  8
DEFPOINTS
 62
     0
 48
50.0
100
AcDbPoint
 10
5798.600000000003
 20
8184.46365379239
 30
0.0
  0
POINT
  5
2578E
330
20DFC
100
AcDbEntity
  8
DEFPOINTS
 62
     0
 48
50.0
100
AcDbPoint
 10
5843.600000000004
 20
7458.19719569848
 30
0.0
  0
POINT
  5
2578F
330
20DFC
100
AcDbEntity
  8
DEFPOINTS
 62
     0
 48
50.0
100
AcDbPoint
 10
5843.600000000004
 20
8416.4175177574
 30
0.0
  0
ENDBLK
  5
20E09
330
20DFC
100
AcDbEntity
  8
0
 48
50.0
100
AcDbBlockEnd
  0
BLOCK
  5
2274E
330
22742
100
AcDbEntity
  8
0
 48
50.0
100
AcDbBlockBegin
  2
*D21
 70
     1
 10
0.0
 20
0.0
 30
0.0
  3
*D21
  1

  0
LINE
  5
25790
330
22742
100
AcDbEntity
  8
寸法
 62
     0
 48
50.0
370
    -2
100
AcDbLine
 10
5200.665006330071
 20
7533.197195698486
 30
0.0
 11
4908.721909610676
 21
7533.197195698486
 31
0.0
  0
LINE
  5
25791
330
22742
100
AcDbEntity
  8
寸法
 62
     0
 48
50.0
370
    -2
100
AcDbLine
 10
5823.600000000004
 20
7458.19719569848
 30
0.0
 11
4908.721909610676
 21
7458.19719569848
 31
0.0
  0
LINE
  5
25792
330
22742
100
AcDbEntity
  8
寸法
 62
     0
 48
50.0
370
    -2
100
AcDbLine
 10
4968.721909610676
 20
7533.197195698486
 30
0.0
 11
4968.721909610676
 21
7633.197195698485
 31
0.0
  0
LINE
  5
25793
330
22742
100
AcDbEntity
  8
寸法
 62
     0
 48
50.0
370
    -2
100
AcDbLine
 10
4968.721909610676
 20
7458.19719569848
 30
0.0
 11
4968.721909610676
 21
7358.19719569848
 31
0.0
  0
LINE
  5
25794
330
22742
100
AcDbEntity
  8
寸法
 62
     0
 48
50.0
370
    -2
100
AcDbLine
 10
4968.721909610676
 20
7533.197195698486
 30
0.0
 11
4968.721909610676
 21
7458.19719569848
 31
0.0
  0
INSERT
  5
25795
330
22742
100
AcDbEntity
  8
寸法
 62
     0
 48
50.0
370
    -2
100
AcDbBlockReference
  2
_DOTSMALL
 10
4968.721909610676
 20
7533.197195698486
 30
0.0
 41
100.0
 42
100.0
 43
100.0
 50
270.0
  0
INSERT
  5
25796
330
22742
100
AcDbEntity
  8
寸法
 62
     0
 48
50.0
370
    -2
100
AcDbBlockReference
  2
_DOTSMALL
 10
4968.721909610676
 20
7458.19719569848
 30
0.0
 41
100.0
 42
100.0
 43
100.0
 50
90.0
  0
MTEXT
  5
25797
330
22742
100
AcDbEntity
  8
寸法
 62
     7
 48
50.0
100
AcDbMText
 10
4868.721909610676
 20
7495.697195698483
 30
0.0
 40
120.0
 41
0.0
 71
     5
 72
     1
  1
\A1;c
  7
STYLE1
 11
0.0000000000000001
 21
1.0
 31
0.0
 73
     1
 44
1.0
1001
ACAD
1000
MTEXTBEGIN
1070
    73
1070
     1
1070
    44
1040
1.0
1070
    74
1070
     0
1000
MTEXTEND
  0
POINT
  5
25798
330
22742
100
AcDbEntity
  8
DEFPOINTS
 62
     0
 48
50.0
100
AcDbPoint
 10
5220.665006330071
 20
7533.197195698486
 30
0.0
  0
POINT
  5
25799
330
22742
100
AcDbEntity
  8
DEFPOINTS
 62
     0
 48
50.0
100
AcDbPoint
 10
5843.600000000004
 20
7458.19719569848
 30
0.0
  0
POINT
  5
2579A
330
22742
100
AcDbEntity
  8
DEFPOINTS
 62
     0
 48
50.0
100
AcDbPoint
 10
4968.721909610676
 20
7458.19719569848
 30
0.0
  0
ENDBLK
  5
2274F
330
22742
100
AcDbEntity
  8
0
 48
50.0
100
AcDbBlockEnd
  0
BLOCK
  5
22768
330
2275C
100
AcDbEntity
  8
0
 48
50.0
100
AcDbBlockBegin
  2
*D22
 70
     1
 10
0.0
 20
0.0
 30
0.0
  3
*D22
  1

  0
LINE
  5
2579B
330
2275C
100
AcDbEntity
  8
寸法
 62
     0
 48
50.0
370
    -2
100
AcDbLine
 10
5823.600000000004
 20
6498.197195698479
 30
0.0
 11
4908.721909610676
 21
6498.197195698479
 31
0.0
  0
LINE
  5
2579C
330
2275C
100
AcDbEntity
  8
寸法
 62
     0
 48
50.0
370
    -2
100
AcDbLine
 10
5200.665006330075
 20
6443.197195698505
 30
0.0
 11
4908.721909610676
 21
6443.197195698505
 31
0.0
  0
LINE
  5
2579D
330
2275C
100
AcDbEntity
  8
寸法
 62
     0
 48
50.0
370
    -2
100
AcDbLine
 10
4968.721909610676
 20
6498.197195698479
 30
0.0
 11
4968.721909610676
 21
6598.197195698479
 31
0.0
  0
LINE
  5
2579E
330
2275C
100
AcDbEntity
  8
寸法
 62
     0
 48
50.0
370
    -2
100
AcDbLine
 10
4968.721909610676
 20
6443.197195698505
 30
0.0
 11
4968.721909610676
 21
6343.197195698505
 31
0.0
  0
LINE
  5
2579F
330
2275C
100
AcDbEntity
  8
寸法
 62
     0
 48
50.0
370
    -2
100
AcDbLine
 10
4968.721909610676
 20
6498.197195698479
 30
0.0
 11
4968.721909610676
 21
6443.197195698505
 31
0.0
  0
INSERT
  5
257A0
330
2275C
100
AcDbEntity
  8
寸法
 62
     0
 48
50.0
370
    -2
100
AcDbBlockReference
  2
_DOTSMALL
 10
4968.721909610676
 20
6498.197195698479
 30
0.0
 41
100.0
 42
100.0
 43
100.0
 50
270.0
  0
INSERT
  5
257A1
330
2275C
100
AcDbEntity
  8
寸法
 62
     0
 48
50.0
370
    -2
100
AcDbBlockReference
  2
_DOTSMALL
 10
4968.721909610676
 20
6443.197195698505
 30
0.0
 41
100.0
 42
100.0
 43
100.0
 50
90.0
  0
MTEXT
  5
257A2
330
2275C
100
AcDbEntity
  8
寸法
 62
     7
 48
50.0
100
AcDbMText
 10
4868.721909610674
 20
6470.697195698493
 30
0.0
 40
120.0
 41
0.0
 71
     5
 72
     1
  1
\A1;b
  7
STYLE1
 11
0.0000000000000001
 21
1.0
 31
0.0
 73
     1
 44
1.0
1001
ACAD
1000
MTEXTBEGIN
1070
    73
1070
     1
1070
    44
1040
1.0
1070
    74
1070
     0
1000
MTEXTEND
  0
POINT
  5
257A3
330
2275C
100
AcDbEntity
  8
DEFPOINTS
 62
     0
 48
50.0
100
AcDbPoint
 10
5843.600000000004
 20
6498.197195698479
 30
0.0
  0
POINT
  5
257A4
330
2275C
100
AcDbEntity
  8
DEFPOINTS
 62
     0
 48
50.0
100
AcDbPoint
 10
5220.665006330075
 20
6443.197195698505
 30
0.0
  0
POINT
  5
257A5
330
2275C
100
AcDbEntity
  8
DEFPOINTS
 62
     0
 48
50.0
100
AcDbPoint
 10
4968.721909610676
 20
6443.197195698505
 30
0.0
  0
ENDBLK
  5
22769
330
2275C
100
AcDbEntity
  8
0
 48
50.0
100
AcDbBlockEnd
  0
BLOCK
  5
239FE
330
239F3
100
AcDbEntity
  8
0
 48
50.0
100
AcDbBlockBegin
  2
*D23
 70
     1
 10
0.0
 20
0.0
 30
0.0
  3
*D23
  1

  0
LINE
  5
25771
330
239F3
100
AcDbEntity
  8
寸法
 62
     0
 48
50.0
370
    -2
100
AcDbLine
 10
10128.85468201164
 20
7458.197195698473
 30
0.0
 11
9888.957501082456
 21
7458.197195698473
 31
0.0
  0
LINE
  5
25772
330
239F3
100
AcDbEntity
  8
寸法
 62
     0
 48
50.0
370
    -2
100
AcDbLine
 10
10128.85468201164
 20
7258.197195698473
 30
0.0
 11
9888.957501082456
 21
7258.197195698473
 31
0.0
  0
LINE
  5
25773
330
239F3
100
AcDbEntity
  8
寸法
 62
     0
 48
50.0
370
    -2
100
AcDbLine
 10
9948.957501082455
 20
7258.197195698473
 30
0.0
 11
9948.957501082455
 21
7458.197195698473
 31
0.0
  0
LINE
  5
25774
330
239F3
100
AcDbEntity
  8
寸法
 62
     0
 48
50.0
370
    -2
100
AcDbLine
 10
9948.957501082455
 20
7458.197195698473
 30
0.0
 11
9948.957501082455
 21
7857.338927981941
 31
0.0
  0
INSERT
  5
25775
330
239F3
100
AcDbEntity
  8
寸法
 62
     0
 48
50.0
370
    -2
100
AcDbBlockReference
  2
_DOTSMALL
 10
9948.957501082455
 20
7258.197195698473
 30
0.0
 41
100.0
 42
100.0
 43
100.0
 50
270.0
  0
INSERT
  5
25776
330
239F3
100
AcDbEntity
  8
寸法
 62
     0
 48
50.0
370
    -2
100
AcDbBlockReference
  2
_DOTSMALL
 10
9948.957501082455
 20
7458.197195698473
 30
0.0
 41
100.0
 42
100.0
 43
100.0
 50
90.0
  0
MTEXT
  5
25777
330
239F3
100
AcDbEntity
  8
寸法
 62
     7
 48
50.0
100
AcDbMText
 10
9848.945690058833
 20
7707.768061840209
 30
0.0
 40
120.0
 41
0.0
 71
     5
 72
     1
  1
\A1;200
  7
STYLE1
 11
0.0000000000000001
 21
1.0
 31
0.0
 73
     1
 44
1.0
1001
ACAD
1000
MTEXTBEGIN
1070
    73
1070
     1
1070
    44
1040
1.0
1070
    74
1070
     0
1000
MTEXTEND
  0
POINT
  5
25778
330
239F3
100
AcDbEntity
  8
DEFPOINTS
 62
     0
 48
50.0
100
AcDbPoint
 10
10148.85468201164
 20
7458.197195698473
 30
0.0
  0
POINT
  5
25779
330
239F3
100
AcDbEntity
  8
DEFPOINTS
 62
     0
 48
50.0
100
AcDbPoint
 10
10148.85468201164
 20
7258.197195698473
 30
0.0
  0
POINT
  5
2577A
330
239F3
100
AcDbEntity
  8
DEFPOINTS
 62
     0
 48
50.0
100
AcDbPoint
 10
9948.957501082455
 20
7258.197195698473
 30
0.0
  0
ENDBLK
  5
239FF
330
239F3
100
AcDbEntity
  8
0
 48
50.0
100
AcDbBlockEnd
  0
BLOCK
  5
23A2E
330
23A23
100
AcDbEntity
  8
0
 48
50.0
100
AcDbBlockBegin
  2
*D24
 70
     1
 10
0.0
 20
0.0
 30
0.0
  3
*D24
  1

  0
LINE
  5
25864
330
23A23
100
AcDbEntity
  8
寸法
 62
     0
 48
50.0
370
    -2
100
AcDbLine
 10
10203.59999999999
 20
6778.197195698481
 30
0.0
 11
9888.957501082456
 21
6778.197195698481
 31
0.0
  0
LINE
  5
25865
330
23A23
100
AcDbEntity
  8
寸法
 62
     0
 48
50.0
370
    -2
100
AcDbLine
 10
10203.6
 20
6498.197195698492
 30
0.0
 11
9888.957501082456
 21
6498.197195698492
 31
0.0
  0
LINE
  5
25866
330
23A23
100
AcDbEntity
  8
寸法
 62
     0
 48
50.0
370
    -2
100
AcDbLine
 10
9948.957501082455
 20
6778.197195698481
 30
0.0
 11
9948.957501082455
 21
6498.197195698492
 31
0.0
  0
LINE
  5
25867
330
23A23
100
AcDbEntity
  8
寸法
 62
     0
 48
50.0
370
    -2
100
AcDbLine
 10
9948.957501082455
 20
6498.197195698492
 30
0.0
 11
9948.957501082455
 21
6099.055463415028
 31
0.0
  0
INSERT
  5
25868
330
23A23
100
AcDbEntity
  8
寸法
 62
     0
 48
50.0
370
    -2
100
AcDbBlockReference
  2
_DOTSMALL
 10
9948.957501082455
 20
6778.197195698481
 30
0.0
 41
100.0
 42
100.0
 43
100.0
 50
90.0
  0
INSERT
  5
25869
330
23A23
100
AcDbEntity
  8
寸法
 62
     0
 48
50.0
370
    -2
100
AcDbBlockReference
  2
_DOTSMALL
 10
9948.957501082455
 20
6498.197195698492
 30
0.0
 41
100.0
 42
100.0
 43
100.0
 50
270.0
  0
MTEXT
  5
2586A
330
23A23
100
AcDbEntity
  8
寸法
 62
     7
 48
50.0
100
AcDbMText
 10
9848.945690058833
 20
6248.626329556762
 30
0.0
 40
120.0
 41
0.0
 71
     5
 72
     1
  1
\A1;280
  7
STYLE1
 11
0.0000000000000001
 21
1.0
 31
0.0
 73
     1
 44
1.0
1001
ACAD
1000
MTEXTBEGIN
1070
    73
1070
     1
1070
    44
1040
1.0
1070
    74
1070
     0
1000
MTEXTEND
  0
POINT
  5
2586B
330
23A23
100
AcDbEntity
  8
DEFPOINTS
 62
     0
 48
50.0
100
AcDbPoint
 10
10223.59999999999
 20
6778.197195698481
 30
0.0
  0
POINT
  5
2586C
330
23A23
100
AcDbEntity
  8
DEFPOINTS
 62
     0
 48
50.0
100
AcDbPoint
 10
10223.6
 20
6498.197195698492
 30
0.0
  0
POINT
  5
2586D
330
23A23
100
AcDbEntity
  8
DEFPOINTS
 62
     0
 48
50.0
100
AcDbPoint
 10
9948.957501082455
 20
6498.197195698492
 30
0.0
  0
ENDBLK
  5
23A2F
330
23A23
100
AcDbEntity
  8
0
 48
50.0
100
AcDbBlockEnd
  0
BLOCK
  5
25222
330
25218
100
AcDbEntity
  8
0
 48
50.0
100
AcDbBlockBegin
  2
*D25
 70
     1
 10
0.0
 20
0.0
 30
0.0
  3
*D25
  1

  0
LINE
  5
25724
330
25218
100
AcDbEntity
  8
寸法
 62
     0
 48
50.0
370
    -2
100
AcDbLine
 10
5843.600000000001
 20
7478.197195698483
 30
0.0
 11
5843.600000000001
 21
8476.417517757402
 31
0.0
  0
LINE
  5
25725
330
25218
100
AcDbEntity
  8
寸法
 62
     0
 48
50.0
370
    -2
100
AcDbLine
 10
10603.6
 20
7478.197195698483
 30
0.0
 11
10603.6
 21
8476.417517757402
 31
0.0
  0
LINE
  5
25726
330
25218
100
AcDbEntity
  8
寸法
 62
     0
 48
50.0
370
    -2
100
AcDbLine
 10
5843.600000000001
 20
8416.417517757402
 30
0.0
 11
10603.6
 21
8416.417517757402
 31
0.0
  0
INSERT
  5
25727
330
25218
100
AcDbEntity
  8
寸法
 62
     0
 48
50.0
370
    -2
100
AcDbBlockReference
  2
_DOTSMALL
 10
5843.600000000001
 20
8416.417517757402
 30
0.0
 41
100.0
 42
100.0
 43
100.0
 50
180.0
  0
INSERT
  5
25728
330
25218
100
AcDbEntity
  8
寸法
 62
     0
 48
50.0
370
    -2
100
AcDbBlockReference
  2
_DOTSMALL
 10
10603.6
 20
8416.417517757402
 30
0.0
 41
100.0
 42
100.0
 43
100.0
  0
MTEXT
  5
25729
330
25218
100
AcDbEntity
  8
寸法
 62
     7
 48
50.0
100
AcDbMText
 10
8223.600000000001
 20
8516.417517757401
 30
0.0
 40
120.0
 41
0.0
 71
     5
 72
     1
  1
\A1;4760
  7
STYLE1
 73
     1
 44
1.0
1001
ACAD
1000
MTEXTBEGIN
1070
    73
1070
     1
1070
    44
1040
1.0
1070
    74
1070
     0
1000
MTEXTEND
  0
POINT
  5
2572A
330
25218
100
AcDbEntity
  8
DEFPOINTS
 62
     0
 48
50.0
100
AcDbPoint
 10
5843.600000000001
 20
7458.197195698483
 30
0.0
  0
POINT
  5
2572B
330
25218
100
AcDbEntity
  8
DEFPOINTS
 62
     0
 48
50.0
100
AcDbPoint
 10
10603.6
 20
7458.197195698483
 30
0.0
  0
POINT
  5
2572C
330
25218
100
AcDbEntity
  8
DEFPOINTS
 62
     0
 48
50.0
100
AcDbPoint
 10
10603.6
 20
8416.417517757402
 30
0.0
  0
ENDBLK
  5
25223
330
25218
100
AcDbEntity
  8
0
 48
50.0
100
AcDbBlockEnd
  0
BLOCK
  5
2522E
330
25224
100
AcDbEntity
  8
0
 48
50.0
100
AcDbBlockBegin
  2
*D26
 70
     1
 10
0.0
 20
0.0
 30
0.0
  3
*D26
  1

  0
LINE
  5
2571B
330
25224
100
AcDbEntity
  8
寸法
 62
     0
 48
50.0
370
    -2
100
AcDbLine
 10
10480.6
 20
7405.197195698484
 30
0.0
 11
10480.6
 21
8244.463653792394
 31
0.0
  0
LINE
  5
2571C
330
25224
100
AcDbEntity
  8
寸法
 62
     0
 48
50.0
370
    -2
100
AcDbLine
 10
7630.600000000001
 20
7405.197195698484
 30
0.0
 11
7630.600000000001
 21
8244.463653792394
 31
0.0
  0
LINE
  5
2571D
330
25224
100
AcDbEntity
  8
寸法
 62
     0
 48
50.0
370
    -2
100
AcDbLine
 10
10480.6
 20
8184.463653792395
 30
0.0
 11
7630.600000000001
 21
8184.463653792395
 31
0.0
  0
INSERT
  5
2571E
330
25224
100
AcDbEntity
  8
寸法
 62
     0
 48
50.0
370
    -2
100
AcDbBlockReference
  2
_DOTSMALL
 10
10480.6
 20
8184.463653792395
 30
0.0
 41
100.0
 42
100.0
 43
100.0
  0
INSERT
  5
2571F
330
25224
100
AcDbEntity
  8
寸法
 62
     0
 48
50.0
370
    -2
100
AcDbBlockReference
  2
_DOTSMALL
 10
7630.600000000001
 20
8184.463653792395
 30
0.0
 41
100.0
 42
100.0
 43
100.0
 50
180.0
  0
MTEXT
  5
25720
330
25224
100
AcDbEntity
  8
寸法
 62
     7
 48
50.0
100
AcDbMText
 10
9055.600000000001
 20
8284.475464816017
 30
0.0
 40
120.0
 41
0.0
 71
     5
 72
     1
  1
\A1;2850
  7
STYLE1
 73
     1
 44
1.0
1001
ACAD
1000
MTEXTBEGIN
1070
    73
1070
     1
1070
    44
1040
1.0
1070
    74
1070
     0
1000
MTEXTEND
  0
POINT
  5
25721
330
25224
100
AcDbEntity
  8
DEFPOINTS
 62
     0
 48
50.0
100
AcDbPoint
 10
10480.6
 20
7385.197195698484
 30
0.0
  0
POINT
  5
25722
330
25224
100
AcDbEntity
  8
DEFPOINTS
 62
     0
 48
50.0
100
AcDbPoint
 10
7630.600000000001
 20
7385.197195698484
 30
0.0
  0
POINT
  5
25723
330
25224
100
AcDbEntity
  8
DEFPOINTS
 62
     0
 48
50.0
100
AcDbPoint
 10
7630.600000000001
 20
8184.463653792395
 30
0.0
  0
ENDBLK
  5
2522F
330
25224
100
AcDbEntity
  8
0
 48
50.0
100
AcDbBlockEnd
  0
BLOCK
  5
2523A
330
25230
100
AcDbEntity
  8
0
 48
50.0
100
AcDbBlockBegin
  2
*D27
 70
     1
 10
0.0
 20
0.0
 30
0.0
  3
*D27
  1

  0
LINE
  5
25712
330
25230
100
AcDbEntity
  8
寸法
 62
     0
 48
50.0
370
    -2
100
AcDbLine
 10
8698.600000000007
 20
7048.197195698484
 30
0.0
 11
8698.600000000007
 21
8000.806012368732
 31
0.0
  0
LINE
  5
25713
330
25230
100
AcDbEntity
  8
寸法
 62
     0
 48
50.0
370
    -2
100
AcDbLine
 10
7748.600000000007
 20
7048.197195698484
 30
0.0
 11
7748.600000000007
 21
8000.806012368732
 31
0.0
  0
LINE
  5
25714
330
25230
100
AcDbEntity
  8
寸法
 62
     0
 48
50.0
370
    -2
100
AcDbLine
 10
8698.600000000007
 20
7940.806012368732
 30
0.0
 11
7748.600000000007
 21
7940.806012368732
 31
0.0
  0
INSERT
  5
25715
330
25230
100
AcDbEntity
  8
寸法
 62
     0
 48
50.0
370
    -2
100
AcDbBlockReference
  2
_DOTSMALL
 10
8698.600000000007
 20
7940.806012368732
 30
0.0
 41
100.0
 42
100.0
 43
100.0
  0
INSERT
  5
25716
330
25230
100
AcDbEntity
  8
寸法
 62
     0
 48
50.0
370
    -2
100
AcDbBlockReference
  2
_DOTSMALL
 10
7748.600000000007
 20
7940.806012368732
 30
0.0
 41
100.0
 42
100.0
 43
100.0
 50
180.0
  0
MTEXT
  5
25717
330
25230
100
AcDbEntity
  8
寸法
 62
     7
 48
50.0
100
AcDbMText
 10
8223.600000000008
 20
8040.806012368731
 30
0.0
 40
120.0
 41
0.0
 71
     5
 72
     1
  1
\A1;950
  7
STYLE1
 73
     1
 44
1.0
1001
ACAD
1000
MTEXTBEGIN
1070
    73
1070
     1
1070
    44
1040
1.0
1070
    74
1070
     0
1000
MTEXTEND
  0
POINT
  5
25718
330
25230
100
AcDbEntity
  8
DEFPOINTS
 62
     0
 48
50.0
100
AcDbPoint
 10
8698.600000000007
 20
7028.197195698483
 30
0.0
  0
POINT
  5
25719
330
25230
100
AcDbEntity
  8
DEFPOINTS
 62
     0
 48
50.0
100
AcDbPoint
 10
7748.600000000007
 20
7028.197195698483
 30
0.0
  0
POINT
  5
2571A
330
25230
100
AcDbEntity
  8
DEFPOINTS
 62
     0
 48
50.0
100
AcDbPoint
 10
7748.600000000007
 20
7940.806012368732
 30
0.0
  0
ENDBLK
  5
2523B
330
25230
100
AcDbEntity
  8
0
 48
50.0
100
AcDbBlockEnd
  0
BLOCK
  5
25247
330
2523C
100
AcDbEntity
  8
0
 48
50.0
100
AcDbBlockBegin
  2
*D28
 70
     1
 10
0.0
 20
0.0
 30
0.0
  3
*D28
  1

  0
LINE
  5
25752
330
2523C
100
AcDbEntity
  8
寸法
 62
     0
 48
50.0
370
    -2
100
AcDbLine
 10
6397.765475140901
 20
6498.197195698494
 30
0.0
 11
6266.285990614302
 21
6498.197195698494
 31
0.0
  0
LINE
  5
25753
330
2523C
100
AcDbEntity
  8
寸法
 62
     0
 48
50.0
370
    -2
100
AcDbLine
 10
6728.600000000007
 20
6978.197195698483
 30
0.0
 11
6266.285990614302
 21
6978.197195698483
 31
0.0
  0
LINE
  5
25754
330
2523C
100
AcDbEntity
  8
寸法
 62
     0
 48
50.0
370
    -2
100
AcDbLine
 10
6326.285990614302
 20
6978.197195698483
 30
0.0
 11
6326.285990614302
 21
6498.197195698494
 31
0.0
  0
LINE
  5
25755
330
2523C
100
AcDbEntity
  8
寸法
 62
     0
 48
50.0
370
    -2
100
AcDbLine
 10
6326.285990614302
 20
6498.197195698494
 30
0.0
 11
6326.285990614302
 21
6051.590896485894
 31
0.0
  0
INSERT
  5
25756
330
2523C
100
AcDbEntity
  8
寸法
 62
     0
 48
50.0
370
    -2
100
AcDbBlockReference
  2
_DOTSMALL
 10
6326.285990614302
 20
6978.197195698483
 30
0.0
 41
100.0
 42
100.0
 43
100.0
 50
90.0
  0
INSERT
  5
25757
330
2523C
100
AcDbEntity
  8
寸法
 62
     0
 48
50.0
370
    -2
100
AcDbBlockReference
  2
_DOTSMALL
 10
6326.285990614302
 20
6498.197195698494
 30
0.0
 41
100.0
 42
100.0
 43
100.0
 50
270.0
  0
MTEXT
  5
25758
330
2523C
100
AcDbEntity
  8
寸法
 62
     7
 48
50.0
100
AcDbMText
 10
6226.2859906143
 20
6205.638140580384
 30
0.0
 40
120.0
 41
0.0
 71
     5
 72
     1
  1
\A1;480
  7
STYLE1
 11
0.0000000000000001
 21
1.0
 31
0.0
 73
     1
 44
1.0
1001
ACAD
1000
MTEXTBEGIN
1070
    73
1070
     1
1070
    44
1040
1.0
1070
    74
1070
     0
1000
MTEXTEND
  0
POINT
  5
25759
330
2523C
100
AcDbEntity
  8
DEFPOINTS
 62
     0
 48
50.0
100
AcDbPoint
 10
6417.765475140901
 20
6498.197195698494
 30
0.0
  0
POINT
  5
2575A
330
2523C
100
AcDbEntity
  8
DEFPOINTS
 62
     0
 48
50.0
100
AcDbPoint
 10
6748.600000000007
 20
6978.197195698483
 30
0.0
  0
POINT
  5
2575B
330
2523C
100
AcDbEntity
  8
DEFPOINTS
 62
     0
 48
50.0
100
AcDbPoint
 10
6326.285990614302
 20
6978.197195698483
 30
0.0
  0
ENDBLK
  5
25248
330
2523C
100
AcDbEntity
  8
0
 48
50.0
100
AcDbBlockEnd
  0
BLOCK
  5
25253
330
25249
100
AcDbEntity
  8
0
 48
50.0
100
AcDbBlockBegin
  2
*D29
 70
     1
 10
0.0
 20
0.0
 30
0.0
  3
*D29
  1

  0
LINE
  5
25740
330
25249
100
AcDbEntity
  8
寸法
 62
     0
 48
50.0
370
    -2
100
AcDbLine
 10
5823.6
 20
7458.197195698483
 30
0.0
 11
4908.721909610675
 21
7458.197195698483
 31
0.0
  0
LINE
  5
25741
330
25249
100
AcDbEntity
  8
寸法
 62
     0
 48
50.0
370
    -2
100
AcDbLine
 10
5823.6
 20
6498.197195698484
 30
0.0
 11
4908.721909610675
 21
6498.197195698484
 31
0.0
  0
LINE
  5
25742
330
25249
100
AcDbEntity
  8
寸法
 62
     0
 48
50.0
370
    -2
100
AcDbLine
 10
4968.721909610675
 20
7458.197195698483
 30
0.0
 11
4968.721909610675
 21
6498.197195698484
 31
0.0
  0
INSERT
  5
25743
330
25249
100
AcDbEntity
  8
寸法
 62
     0
 48
50.0
370
    -2
100
AcDbBlockReference
  2
_DOTSMALL
 10
4968.721909610675
 20
7458.197195698483
 30
0.0
 41
100.0
 42
100.0
 43
100.0
 50
90.0
  0
INSERT
  5
25744
330
25249
100
AcDbEntity
  8
寸法
 62
     0
 48
50.0
370
    -2
100
AcDbBlockReference
  2
_DOTSMALL
 10
4968.721909610675
 20
6498.197195698484
 30
0.0
 41
100.0
 42
100.0
 43
100.0
 50
270.0
  0
MTEXT
  5
25745
330
25249
100
AcDbEntity
  8
寸法
 62
     7
 48
50.0
100
AcDbMText
 10
4868.721909610673
 20
7015.697195698483
 30
0.0
 40
120.0
 41
0.0
 71
     5
 72
     1
  1
\A1;960
  7
STYLE1
 11
0.0000000000000001
 21
1.0
 31
0.0
 73
     1
 44
1.0
1001
ACAD
1000
MTEXTBEGIN
1070
    73
1070
     1
1070
    44
1040
1.0
1070
    74
1070
     0
1000
MTEXTEND
  0
POINT
  5
25746
330
25249
100
AcDbEntity
  8
DEFPOINTS
 62
     0
 48
50.0
100
AcDbPoint
 10
5843.600000000001
 20
7458.197195698483
 30
0.0
  0
POINT
  5
25747
330
25249
100
AcDbEntity
  8
DEFPOINTS
 62
     0
 48
50.0
100
AcDbPoint
 10
5843.600000000001
 20
6498.197195698484
 30
0.0
  0
POINT
  5
25748
330
25249
100
AcDbEntity
  8
DEFPOINTS
 62
     0
 48
50.0
100
AcDbPoint
 10
4968.721909610675
 20
6498.197195698484
 30
0.0
  0
ENDBLK
  5
25254
330
25249
100
AcDbEntity
  8
0
 48
50.0
100
AcDbBlockEnd
  0
BLOCK
  5
2525F
330
25255
100
AcDbEntity
  8
0
 48
50.0
100
AcDbBlockBegin
  2
*D30
 70
     1
 10
0.0
 20
0.0
 30
0.0
  3
*D30
  1

  0
LINE
  5
257CA
330
25255
100
AcDbEntity
  8
寸法
 62
     0
 48
50.0
370
    -2
100
AcDbLine
 10
5896.600000000001
 20
7335.197195698484
 30
0.0
 11
5160.665006330074
 21
7335.197195698484
 31
0.0
  0
LINE
  5
257CB
330
25255
100
AcDbEntity
  8
寸法
 62
     0
 48
50.0
370
    -2
100
AcDbLine
 10
5896.600000000008
 20
6696.197195698487
 30
0.0
 11
5160.665006330074
 21
6696.197195698487
 31
0.0
  0
LINE
  5
257CC
330
25255
100
AcDbEntity
  8
寸法
 62
     0
 48
50.0
370
    -2
100
AcDbLine
 10
5220.665006330073
 20
7335.197195698484
 30
0.0
 11
5220.665006330073
 21
6696.197195698487
 31
0.0
  0
INSERT
  5
257CD
330
25255
100
AcDbEntity
  8
寸法
 62
     0
 48
50.0
370
    -2
100
AcDbBlockReference
  2
_DOTSMALL
 10
5220.665006330073
 20
7335.197195698484
 30
0.0
 41
100.0
 42
100.0
 43
100.0
 50
90.0
  0
INSERT
  5
257CE
330
25255
100
AcDbEntity
  8
寸法
 62
     0
 48
50.0
370
    -2
100
AcDbBlockReference
  2
_DOTSMALL
 10
5220.665006330073
 20
6696.197195698487
 30
0.0
 41
100.0
 42
100.0
 43
100.0
 50
270.0
  0
MTEXT
  5
257CF
330
25255
100
AcDbEntity
  8
寸法
 62
     7
 48
50.0
100
AcDbMText
 10
5120.665006330071
 20
7015.697195698483
 30
0.0
 40
120.0
 41
0.0
 71
     5
 72
     1
  1
\A1;639
  7
STYLE1
 11
0.0000000000000001
 21
1.0
 31
0.0
 73
     1
 44
1.0
1001
ACAD
1000
MTEXTBEGIN
1070
    73
1070
     1
1070
    44
1040
1.0
1070
    74
1070
     0
1000
MTEXTEND
  0
POINT
  5
257D0
330
25255
100
AcDbEntity
  8
DEFPOINTS
 62
     0
 48
50.0
100
AcDbPoint
 10
5916.6
 20
7335.197195698484
 30
0.0
  0
POINT
  5
257D1
330
25255
100
AcDbEntity
  8
DEFPOINTS
 62
     0
 48
50.0
100
AcDbPoint
 10
5916.600000000007
 20
6696.197195698487
 30
0.0
  0
POINT
  5
257D2
330
25255
100
AcDbEntity
  8
DEFPOINTS
 62
     0
 48
50.0
100
AcDbPoint
 10
5220.665006330073
 20
6696.197195698487
 30
0.0
  0
ENDBLK
  5
25260
330
25255
100
AcDbEntity
  8
0
 48
50.0
100
AcDbBlockEnd
  0
BLOCK
  5
2526C
330
25261
100
AcDbEntity
  8
0
 48
50.0
100
AcDbBlockBegin
  2
*D31
 70
     1
 10
0.0
 20
0.0
 30
0.0
  3
*D31
  1

  0
LINE
  5
257C0
330
25261
100
AcDbEntity
  8
寸法
 62
     0
 48
50.0
370
    -2
100
AcDbLine
 10
5896.600000000008
 20
6696.197195698487
 30
0.0
 11
5160.665006330074
 21
6696.197195698487
 31
0.0
  0
LINE
  5
257C1
330
25261
100
AcDbEntity
  8
寸法
 62
     0
 48
50.0
370
    -2
100
AcDbLine
 10
5823.6
 20
6498.197195698484
 30
0.0
 11
5160.665006330074
 21
6498.197195698484
 31
0.0
  0
LINE
  5
257C2
330
25261
100
AcDbEntity
  8
寸法
 62
     0
 48
50.0
370
    -2
100
AcDbLine
 10
5220.665006330073
 20
6696.197195698487
 30
0.0
 11
5220.665006330073
 21
6498.197195698484
 31
0.0
  0
LINE
  5
257C3
330
25261
100
AcDbEntity
  8
寸法
 62
     0
 48
50.0
370
    -2
100
AcDbLine
 10
5220.665006330073
 20
6498.197195698484
 30
0.0
 11
5220.665006330072
 21
6026.456587026235
 31
0.0
  0
INSERT
  5
257C4
330
25261
100
AcDbEntity
  8
寸法
 62
     0
 48
50.0
370
    -2
100
AcDbBlockReference
  2
_DOTSMALL
 10
5220.665006330073
 20
6696.197195698487
 30
0.0
 41
100.0
 42
100.0
 43
100.0
 50
90.0
  0
INSERT
  5
257C5
330
25261
100
AcDbEntity
  8
寸法
 62
     0
 48
50.0
370
    -2
100
AcDbBlockReference
  2
_DOTSMALL
 10
5220.665006330073
 20
6498.197195698484
 30
0.0
 41
100.0
 42
100.0
 43
100.0
 50
270.0
  0
MTEXT
  5
257C6
330
25261
100
AcDbEntity
  8
寸法
 62
     7
 48
50.0
100
AcDbMText
 10
5120.665006330071
 20
6162.666246855891
 30
0.0
 40
120.0
 41
0.0
 71
     5
 72
     1
  1
\A1;198
  7
STYLE1
 11
0.0000000000000001
 21
1.0
 31
0.0
 73
     1
 44
1.0
1001
ACAD
1000
MTEXTBEGIN
1070
    73
1070
     1
1070
    44
1040
1.0
1070
    74
1070
     0
1000
MTEXTEND
  0
POINT
  5
257C7
330
25261
100
AcDbEntity
  8
DEFPOINTS
 62
     0
 48
50.0
100
AcDbPoint
 10
5916.600000000007
 20
6696.197195698487
 30
0.0
  0
POINT
  5
257C8
330
25261
100
AcDbEntity
  8
DEFPOINTS
 62
     0
 48
50.0
100
AcDbPoint
 10
5843.600000000001
 20
6498.197195698484
 30
0.0
  0
POINT
  5
257C9
330
25261
100
AcDbEntity
  8
DEFPOINTS
 62
     0
 48
50.0
100
AcDbPoint
 10
5220.665006330073
 20
6498.197195698484
 30
0.0
  0
ENDBLK
  5
2526D
330
25261
100
AcDbEntity
  8
0
 48
50.0
100
AcDbBlockEnd
  0
BLOCK
  5
25284
330
2527A
100
AcDbEntity
  8
0
 48
50.0
100
AcDbBlockBegin
  2
*D32
 70
     1
 10
0.0
 20
0.0
 30
0.0
  3
*D32
  1

  0
LINE
  5
25749
330
2527A
100
AcDbEntity
  8
寸法
 62
     0
 48
50.0
370
    -2
100
AcDbLine
 10
5823.600000000004
 20
6498.197195698479
 30
0.0
 11
5670.512673767882
 21
6498.197195698479
 31
0.0
  0
LINE
  5
2574A
330
2527A
100
AcDbEntity
  8
寸法
 62
     0
 48
50.0
370
    -2
100
AcDbLine
 10
6179.325326928808
 20
5778.19719569848
 30
0.0
 11
5670.512673767881
 21
5778.197195698481
 31
0.0
  0
LINE
  5
2574B
330
2527A
100
AcDbEntity
  8
寸法
 62
     0
 48
50.0
370
    -2
100
AcDbLine
 10
5730.512673767882
 20
6498.197195698479
 30
0.0
 11
5730.512673767881
 21
5778.197195698481
 31
0.0
  0
INSERT
  5
2574C
330
2527A
100
AcDbEntity
  8
寸法
 62
     0
 48
50.0
370
    -2
100
AcDbBlockReference
  2
_DOTSMALL
 10
5730.512673767882
 20
6498.197195698479
 30
0.0
 41
100.0
 42
100.0
 43
100.0
 50
90.0
  0
INSERT
  5
2574D
330
2527A
100
AcDbEntity
  8
寸法
 62
     0
 48
50.0
370
    -2
100
AcDbBlockReference
  2
_DOTSMALL
 10
5730.512673767881
 20
5778.197195698481
 30
0.0
 41
100.0
 42
100.0
 43
100.0
 50
270.0
  0
MTEXT
  5
2574E
330
2527A
100
AcDbEntity
  8
寸法
 62
     7
 48
50.0
100
AcDbMText
 10
5630.500862744259
 20
6138.197195698482
 30
0.0
 40
120.0
 41
0.0
 71
     5
 72
     1
  1
\A1;扉の出720
  7
STYLE1
 11
0.0000000000000001
 21
1.0
 31
0.0
 73
     1
 44
1.0
1001
ACAD
1000
MTEXTBEGIN
1070
    73
1070
     1
1070
    44
1040
1.0
1070
    74
1070
     0
1000
MTEXTEND
  0
POINT
  5
2574F
330
2527A
100
AcDbEntity
  8
DEFPOINTS
 62
     0
 48
50.0
100
AcDbPoint
 10
5843.600000000004
 20
6498.197195698479
 30
0.0
  0
POINT
  5
25750
330
2527A
100
AcDbEntity
  8
DEFPOINTS
 62
     0
 48
50.0
100
AcDbPoint
 10
6199.325326928809
 20
5778.19719569848
 30
0.0
  0
POINT
  5
25751
330
2527A
100
AcDbEntity
  8
DEFPOINTS
 62
     0
 48
50.0
100
AcDbPoint
 10
5730.512673767881
 20
5778.197195698481
 30
0.0
  0
ENDBLK
  5
25285
330
2527A
100
AcDbEntity
  8
0
 48
50.0
100
AcDbBlockEnd
  0
BLOCK
  5
2529E
330
25293
100
AcDbEntity
  8
0
 48
50.0
100
AcDbBlockBegin
  2
*D33
 70
     1
 10
0.0
 20
0.0
 30
0.0
  3
*D33
  1

  0
LINE
  5
25708
330
25293
100
AcDbEntity
  8
寸法
 62
     0
 48
50.0
370
    -2
100
AcDbLine
 10
5823.6
 20
7458.197195698483
 30
0.0
 11
5160.665006330072
 21
7458.197195698483
 31
0.0
  0
LINE
  5
25709
330
25293
100
AcDbEntity
  8
寸法
 62
     0
 48
50.0
370
    -2
100
AcDbLine
 10
5896.600000000001
 20
7335.197195698484
 30
0.0
 11
5160.665006330072
 21
7335.197195698484
 31
0.0
  0
LINE
  5
2570A
330
25293
100
AcDbEntity
  8
寸法
 62
     0
 48
50.0
370
    -2
100
AcDbLine
 10
5220.665006330072
 20
7335.197195698484
 30
0.0
 11
5220.665006330072
 21
7458.197195698483
 31
0.0
  0
LINE
  5
2570B
330
25293
100
AcDbEntity
  8
寸法
 62
     0
 48
50.0
370
    -2
100
AcDbLine
 10
5220.665006330072
 20
7458.197195698483
 30
0.0
 11
5220.665006330072
 21
7869.789078790522
 31
0.0
  0
INSERT
  5
2570C
330
25293
100
AcDbEntity
  8
寸法
 62
     0
 48
50.0
370
    -2
100
AcDbBlockReference
  2
_DOTSMALL
 10
5220.665006330072
 20
7335.197195698484
 30
0.0
 41
100.0
 42
100.0
 43
100.0
 50
270.0
  0
INSERT
  5
2570D
330
25293
100
AcDbEntity
  8
寸法
 62
     0
 48
50.0
370
    -2
100
AcDbBlockReference
  2
_DOTSMALL
 10
5220.665006330072
 20
7458.197195698483
 30
0.0
 41
100.0
 42
100.0
 43
100.0
 50
90.0
  0
MTEXT
  5
2570E
330
25293
100
AcDbEntity
  8
寸法
 62
     7
 48
50.0
100
AcDbMText
 10
5120.65319530645
 20
7731.303797416284
 30
0.0
 40
120.0
 41
0.0
 71
     5
 72
     1
  1
\A1;123
  7
STYLE1
 11
0.0000000000000001
 21
1.0
 31
0.0
 73
     1
 44
1.0
1001
ACAD
1000
MTEXTBEGIN
1070
    73
1070
     1
1070
    44
1040
1.0
1070
    74
1070
     0
1000
MTEXTEND
  0
POINT
  5
2570F
330
25293
100
AcDbEntity
  8
DEFPOINTS
 62
     0
 48
50.0
100
AcDbPoint
 10
5843.600000000001
 20
7458.197195698483
 30
0.0
  0
POINT
  5
25710
330
25293
100
AcDbEntity
  8
DEFPOINTS
 62
     0
 48
50.0
100
AcDbPoint
 10
5916.6
 20
7335.197195698484
 30
0.0
  0
POINT
  5
25711
330
25293
100
AcDbEntity
  8
DEFPOINTS
 62
     0
 48
50.0
100
AcDbPoint
 10
5220.665006330072
 20
7335.197195698484
 30
0.0
  0
ENDBLK
  5
2529F
330
25293
100
AcDbEntity
  8
0
 48
50.0
100
AcDbBlockEnd
  0
BLOCK
  5
252B3
330
252AA
100
AcDbEntity
  8
0
 48
50.0
100
AcDbBlockBegin
  2
*D34
 70
     1
 10
0.0
 20
0.0
 30
0.0
  3
*D34
  1

  0
LINE
  5
256FF
330
252AA
100
AcDbEntity
  8
寸法
 62
     0
 48
50.0
370
    -2
100
AcDbLine
 10
7748.600000000007
 20
7048.197195698484
 30
0.0
 11
7748.600000000007
 21
8000.806012368732
 31
0.0
  0
LINE
  5
25700
330
252AA
100
AcDbEntity
  8
寸法
 62
     0
 48
50.0
370
    -2
100
AcDbLine
 10
6798.600000000007
 20
7048.197195698484
 30
0.0
 11
6798.600000000007
 21
8000.806012368732
 31
0.0
  0
LINE
  5
25701
330
252AA
100
AcDbEntity
  8
寸法
 62
     0
 48
50.0
370
    -2
100
AcDbLine
 10
7748.600000000007
 20
7940.806012368732
 30
0.0
 11
6798.600000000007
 21
7940.806012368732
 31
0.0
  0
INSERT
  5
25702
330
252AA
100
AcDbEntity
  8
寸法
 62
     0
 48
50.0
370
    -2
100
AcDbBlockReference
  2
_DOTSMALL
 10
7748.600000000007
 20
7940.806012368732
 30
0.0
 41
100.0
 42
100.0
 43
100.0
  0
INSERT
  5
25703
330
252AA
100
AcDbEntity
  8
寸法
 62
     0
 48
50.0
370
    -2
100
AcDbBlockReference
  2
_DOTSMALL
 10
6798.600000000007
 20
7940.806012368732
 30
0.0
 41
100.0
 42
100.0
 43
100.0
 50
180.0
  0
MTEXT
  5
25704
330
252AA
100
AcDbEntity
  8
寸法
 62
     7
 48
50.0
100
AcDbMText
 10
7273.600000000008
 20
8040.806012368731
 30
0.0
 40
120.0
 41
0.0
 71
     5
 72
     1
  1
\A1;950
  7
STYLE1
 73
     1
 44
1.0
1001
ACAD
1000
MTEXTBEGIN
1070
    73
1070
     1
1070
    44
1040
1.0
1070
    74
1070
     0
1000
MTEXTEND
  0
POINT
  5
25705
330
252AA
100
AcDbEntity
  8
DEFPOINTS
 62
     0
 48
50.0
100
AcDbPoint
 10
7748.600000000007
 20
7028.197195698483
 30
0.0
  0
POINT
  5
25706
330
252AA
100
AcDbEntity
  8
DEFPOINTS
 62
     0
 48
50.0
100
AcDbPoint
 10
6798.600000000007
 20
7028.197195698483
 30
0.0
  0
POINT
  5
25707
330
252AA
100
AcDbEntity
  8
DEFPOINTS
 62
     0
 48
50.0
100
AcDbPoint
 10
6798.600000000007
 20
7940.806012368732
 30
0.0
  0
ENDBLK
  5
252B4
330
252AA
100
AcDbEntity
  8
0
 48
50.0
100
AcDbBlockEnd
  0
BLOCK
  5
252BE
330
252B5
100
AcDbEntity
  8
0
 48
50.0
100
AcDbBlockBegin
  2
*D35
 70
     1
 10
0.0
 20
0.0
 30
0.0
  3
*D35
  1

  0
LINE
  5
256F6
330
252B5
100
AcDbEntity
  8
寸法
 62
     0
 48
50.0
370
    -2
100
AcDbLine
 10
7630.600000000001
 20
7405.197195698484
 30
0.0
 11
7630.600000000001
 21
8244.463653792394
 31
0.0
  0
LINE
  5
256F7
330
252B5
100
AcDbEntity
  8
寸法
 62
     0
 48
50.0
370
    -2
100
AcDbLine
 10
5966.6
 20
7405.197195698484
 30
0.0
 11
5966.6
 21
8244.463653792394
 31
0.0
  0
LINE
  5
256F8
330
252B5
100
AcDbEntity
  8
寸法
 62
     0
 48
50.0
370
    -2
100
AcDbLine
 10
7630.600000000001
 20
8184.463653792395
 30
0.0
 11
5966.6
 21
8184.463653792395
 31
0.0
  0
INSERT
  5
256F9
330
252B5
100
AcDbEntity
  8
寸法
 62
     0
 48
50.0
370
    -2
100
AcDbBlockReference
  2
_DOTSMALL
 10
7630.600000000001
 20
8184.463653792395
 30
0.0
 41
100.0
 42
100.0
 43
100.0
  0
INSERT
  5
256FA
330
252B5
100
AcDbEntity
  8
寸法
 62
     0
 48
50.0
370
    -2
100
AcDbBlockReference
  2
_DOTSMALL
 10
5966.6
 20
8184.463653792395
 30
0.0
 41
100.0
 42
100.0
 43
100.0
 50
180.0
  0
MTEXT
  5
256FB
330
252B5
100
AcDbEntity
  8
寸法
 62
     7
 48
50.0
100
AcDbMText
 10
6798.6
 20
8284.463653792395
 30
0.0
 40
120.0
 41
0.0
 71
     5
 72
     1
  1
\A1;1664
  7
STYLE1
 73
     1
 44
1.0
1001
ACAD
1000
MTEXTBEGIN
1070
    73
1070
     1
1070
    44
1040
1.0
1070
    74
1070
     0
1000
MTEXTEND
  0
POINT
  5
256FC
330
252B5
100
AcDbEntity
  8
DEFPOINTS
 62
     0
 48
50.0
100
AcDbPoint
 10
7630.600000000001
 20
7385.197195698484
 30
0.0
  0
POINT
  5
256FD
330
252B5
100
AcDbEntity
  8
DEFPOINTS
 62
     0
 48
50.0
100
AcDbPoint
 10
5966.6
 20
7385.197195698484
 30
0.0
  0
POINT
  5
256FE
330
252B5
100
AcDbEntity
  8
DEFPOINTS
 62
     0
 48
50.0
100
AcDbPoint
 10
5966.6
 20
8184.463653792395
 30
0.0
  0
ENDBLK
  5
252BF
330
252B5
100
AcDbEntity
  8
0
 48
50.0
100
AcDbBlockEnd
  0
BLOCK
  5
252CA
330
252C0
100
AcDbEntity
  8
0
 48
50.0
100
AcDbBlockBegin
  2
*D36
 70
     1
 10
0.0
 20
0.0
 30
0.0
  3
*D36
  1

  0
LINE
  5
256ED
330
252C0
100
AcDbEntity
  8
寸法
 62
     0
 48
50.0
370
    -2
100
AcDbLine
 10
6798.600000000007
 20
7048.197195698484
 30
0.0
 11
6798.600000000007
 21
8000.806012368732
 31
0.0
  0
LINE
  5
256EE
330
252C0
100
AcDbEntity
  8
寸法
 62
     0
 48
50.0
370
    -2
100
AcDbLine
 10
5843.600000000001
 20
7478.197195698483
 30
0.0
 11
5843.600000000001
 21
8000.806012368732
 31
0.0
  0
LINE
  5
256EF
330
252C0
100
AcDbEntity
  8
寸法
 62
     0
 48
50.0
370
    -2
100
AcDbLine
 10
6798.600000000007
 20
7940.806012368732
 30
0.0
 11
5843.600000000001
 21
7940.806012368732
 31
0.0
  0
INSERT
  5
256F0
330
252C0
100
AcDbEntity
  8
寸法
 62
     0
 48
50.0
370
    -2
100
AcDbBlockReference
  2
_DOTSMALL
 10
6798.600000000007
 20
7940.806012368732
 30
0.0
 41
100.0
 42
100.0
 43
100.0
  0
INSERT
  5
256F1
330
252C0
100
AcDbEntity
  8
寸法
 62
     0
 48
50.0
370
    -2
100
AcDbBlockReference
  2
_DOTSMALL
 10
5843.600000000001
 20
7940.806012368732
 30
0.0
 41
100.0
 42
100.0
 43
100.0
 50
180.0
  0
MTEXT
  5
256F2
330
252C0
100
AcDbEntity
  8
寸法
 62
     7
 48
50.0
100
AcDbMText
 10
6321.100000000004
 20
8040.806012368731
 30
0.0
 40
120.0
 41
0.0
 71
     5
 72
     1
  1
\A1;955
  7
STYLE1
 73
     1
 44
1.0
1001
ACAD
1000
MTEXTBEGIN
1070
    73
1070
     1
1070
    44
1040
1.0
1070
    74
1070
     0
1000
MTEXTEND
  0
POINT
  5
256F3
330
252C0
100
AcDbEntity
  8
DEFPOINTS
 62
     0
 48
50.0
100
AcDbPoint
 10
6798.600000000007
 20
7028.197195698483
 30
0.0
  0
POINT
  5
256F4
330
252C0
100
AcDbEntity
  8
DEFPOINTS
 62
     0
 48
50.0
100
AcDbPoint
 10
5843.600000000001
 20
7458.197195698483
 30
0.0
  0
POINT
  5
256F5
330
252C0
100
AcDbEntity
  8
DEFPOINTS
 62
     0
 48
50.0
100
AcDbPoint
 10
5843.600000000001
 20
7940.806012368732
 30
0.0
  0
ENDBLK
  5
252CB
330
252C0
100
AcDbEntity
  8
0
 48
50.0
100
AcDbBlockEnd
  0
BLOCK
  5
252D7
330
252CC
100
AcDbEntity
  8
0
 48
50.0
100
AcDbBlockBegin
  2
*D37
 70
     1
 10
0.0
 20
0.0
 30
0.0
  3
*D37
  1

  0
LINE
  5
256E3
330
252CC
100
AcDbEntity
  8
寸法
 62
     0
 48
50.0
370
    -2
100
AcDbLine
 10
5966.6
 20
7405.197195698484
 30
0.0
 11
5966.6
 21
8244.463653792394
 31
0.0
  0
LINE
  5
256E4
330
252CC
100
AcDbEntity
  8
寸法
 62
     0
 48
50.0
370
    -2
100
AcDbLine
 10
5843.600000000001
 20
7478.197195698483
 30
0.0
 11
5843.600000000001
 21
8244.463653792394
 31
0.0
  0
LINE
  5
256E5
330
252CC
100
AcDbEntity
  8
寸法
 62
     0
 48
50.0
370
    -2
100
AcDbLine
 10
5966.6
 20
8184.463653792395
 30
0.0
 11
5843.600000000001
 21
8184.463653792395
 31
0.0
  0
LINE
  5
256E6
330
252CC
100
AcDbEntity
  8
寸法
 62
     0
 48
50.0
370
    -2
100
AcDbLine
 10
5843.600000000001
 20
8184.463653792395
 30
0.0
 11
5432.008116907963
 21
8184.463653792395
 31
0.0
  0
INSERT
  5
256E7
330
252CC
100
AcDbEntity
  8
寸法
 62
     0
 48
50.0
370
    -2
100
AcDbBlockReference
  2
_DOTSMALL
 10
5966.6
 20
8184.463653792395
 30
0.0
 41
100.0
 42
100.0
 43
100.0
  0
INSERT
  5
256E8
330
252CC
100
AcDbEntity
  8
寸法
 62
     0
 48
50.0
370
    -2
100
AcDbBlockReference
  2
_DOTSMALL
 10
5843.600000000001
 20
8184.463653792395
 30
0.0
 41
100.0
 42
100.0
 43
100.0
 50
180.0
  0
MTEXT
  5
256E9
330
252CC
100
AcDbEntity
  8
寸法
 62
     7
 48
50.0
100
AcDbMText
 10
5570.493398282202
 20
8284.475464816017
 30
0.0
 40
120.0
 41
0.0
 71
     5
 72
     1
  1
\A1;123
  7
STYLE1
 73
     1
 44
1.0
1001
ACAD
1000
MTEXTBEGIN
1070
    73
1070
     1
1070
    44
1040
1.0
1070
    74
1070
     0
1000
MTEXTEND
  0
POINT
  5
256EA
330
252CC
100
AcDbEntity
  8
DEFPOINTS
 62
     0
 48
50.0
100
AcDbPoint
 10
5966.6
 20
7385.197195698484
 30
0.0
  0
POINT
  5
256EB
330
252CC
100
AcDbEntity
  8
DEFPOINTS
 62
     0
 48
50.0
100
AcDbPoint
 10
5843.600000000001
 20
7458.197195698483
 30
0.0
  0
POINT
  5
256EC
330
252CC
100
AcDbEntity
  8
DEFPOINTS
 62
     0
 48
50.0
100
AcDbPoint
 10
5843.600000000001
 20
8184.463653792395
 30
0.0
  0
ENDBLK
  5
252D8
330
252CC
100
AcDbEntity
  8
0
 48
50.0
100
AcDbBlockEnd
  0
BLOCK
  5
252F1
330
252E6
100
AcDbEntity
  8
0
 48
50.0
100
AcDbBlockBegin
  2
*D38
 70
     1
 10
0.0
 20
0.0
 30
0.0
  3
*D38
  1

  0
LINE
  5
256D9
330
252E6
100
AcDbEntity
  8
寸法
 62
     0
 48
50.0
370
    -2
100
AcDbLine
 10
6728.600000000007
 20
6978.197195698483
 30
0.0
 11
6266.285990614301
 21
6978.197195698483
 31
0.0
  0
LINE
  5
256DA
330
252E6
100
AcDbEntity
  8
寸法
 62
     0
 48
50.0
370
    -2
100
AcDbLine
 10
6397.765475140901
 20
7458.197195698483
 30
0.0
 11
6266.285990614301
 21
7458.197195698483
 31
0.0
  0
LINE
  5
256DB
330
252E6
100
AcDbEntity
  8
寸法
 62
     0
 48
50.0
370
    -2
100
AcDbLine
 10
6326.285990614302
 20
6978.197195698483
 30
0.0
 11
6326.285990614302
 21
7458.197195698483
 31
0.0
  0
LINE
  5
256DC
330
252E6
100
AcDbEntity
  8
寸法
 62
     0
 48
50.0
370
    -2
100
AcDbLine
 10
6326.285990614302
 20
7458.197195698483
 30
0.0
 11
6326.285990614302
 21
7904.803494911082
 31
0.0
  0
INSERT
  5
256DD
330
252E6
100
AcDbEntity
  8
寸法
 62
     0
 48
50.0
370
    -2
100
AcDbBlockReference
  2
_DOTSMALL
 10
6326.285990614302
 20
6978.197195698483
 30
0.0
 41
100.0
 42
100.0
 43
100.0
 50
270.0
  0
INSERT
  5
256DE
330
252E6
100
AcDbEntity
  8
寸法
 62
     0
 48
50.0
370
    -2
100
AcDbBlockReference
  2
_DOTSMALL
 10
6326.285990614302
 20
7458.197195698483
 30
0.0
 41
100.0
 42
100.0
 43
100.0
 50
90.0
  0
MTEXT
  5
256DF
330
252E6
100
AcDbEntity
  8
寸法
 62
     7
 48
50.0
100
AcDbMText
 10
6226.2859906143
 20
7750.756250816596
 30
0.0
 40
120.0
 41
0.0
 71
     5
 72
     1
  1
\A1;480
  7
STYLE1
 11
0.0000000000000001
 21
1.0
 31
0.0
 73
     1
 44
1.0
1001
ACAD
1000
MTEXTBEGIN
1070
    73
1070
     1
1070
    44
1040
1.0
1070
    74
1070
     0
1000
MTEXTEND
  0
POINT
  5
256E0
330
252E6
100
AcDbEntity
  8
DEFPOINTS
 62
     0
 48
50.0
100
AcDbPoint
 10
6748.600000000007
 20
6978.197195698483
 30
0.0
  0
POINT
  5
256E1
330
252E6
100
AcDbEntity
  8
DEFPOINTS
 62
     0
 48
50.0
100
AcDbPoint
 10
6417.765475140901
 20
7458.197195698483
 30
0.0
  0
POINT
  5
256E2
330
252E6
100
AcDbEntity
  8
DEFPOINTS
 62
     0
 48
50.0
100
AcDbPoint
 10
6326.285990614302
 20
7458.197195698483
 30
0.0
  0
ENDBLK
  5
252F2
330
252E6
100
AcDbEntity
  8
0
 48
50.0
100
AcDbBlockEnd
  0
BLOCK
  5
2530A
330
25300
100
AcDbEntity
  8
0
 48
50.0
100
AcDbBlockBegin
  2
*D39
 70
     1
 10
0.0
 20
0.0
 30
0.0
  3
*D39
  1

  0
LINE
  5
256D0
330
25300
100
AcDbEntity
  8
寸法
 62
     0
 48
50.0
370
    -2
100
AcDbLine
 10
10603.6
 20
7478.197195698483
 30
0.0
 11
10603.6
 21
8000.806012368732
 31
0.0
  0
LINE
  5
256D1
330
25300
100
AcDbEntity
  8
寸法
 62
     0
 48
50.0
370
    -2
100
AcDbLine
 10
9648.600000000008
 20
7048.197195698484
 30
0.0
 11
9648.600000000008
 21
8000.806012368732
 31
0.0
  0
LINE
  5
256D2
330
25300
100
AcDbEntity
  8
寸法
 62
     0
 48
50.0
370
    -2
100
AcDbLine
 10
10603.6
 20
7940.806012368732
 30
0.0
 11
9648.600000000008
 21
7940.806012368732
 31
0.0
  0
INSERT
  5
256D3
330
25300
100
AcDbEntity
  8
寸法
 62
     0
 48
50.0
370
    -2
100
AcDbBlockReference
  2
_DOTSMALL
 10
10603.6
 20
7940.806012368732
 30
0.0
 41
100.0
 42
100.0
 43
100.0
  0
INSERT
  5
256D4
330
25300
100
AcDbEntity
  8
寸法
 62
     0
 48
50.0
370
    -2
100
AcDbBlockReference
  2
_DOTSMALL
 10
9648.600000000008
 20
7940.806012368732
 30
0.0
 41
100.0
 42
100.0
 43
100.0
 50
180.0
  0
MTEXT
  5
256D5
330
25300
100
AcDbEntity
  8
寸法
 62
     7
 48
50.0
100
AcDbMText
 10
10126.1
 20
8040.806012368731
 30
0.0
 40
120.0
 41
0.0
 71
     5
 72
     1
  1
\A1;955
  7
STYLE1
 73
     1
 44
1.0
1001
ACAD
1000
MTEXTBEGIN
1070
    73
1070
     1
1070
    44
1040
1.0
1070
    74
1070
     0
1000
MTEXTEND
  0
POINT
  5
256D6
330
25300
100
AcDbEntity
  8
DEFPOINTS
 62
     0
 48
50.0
100
AcDbPoint
 10
10603.6
 20
7458.197195698483
 30
0.0
  0
POINT
  5
256D7
330
25300
100
AcDbEntity
  8
DEFPOINTS
 62
     0
 48
50.0
100
AcDbPoint
 10
9648.600000000008
 20
7028.197195698483
 30
0.0
  0
POINT
  5
256D8
330
25300
100
AcDbEntity
  8
DEFPOINTS
 62
     0
 48
50.0
100
AcDbPoint
 10
9648.600000000008
 20
7940.806012368732
 30
0.0
  0
ENDBLK
  5
2530B
330
25300
100
AcDbEntity
  8
0
 48
50.0
100
AcDbBlockEnd
  0
BLOCK
  5
25316
330
2530C
100
AcDbEntity
  8
0
 48
50.0
100
AcDbBlockBegin
  2
*D40
 70
     1
 10
0.0
 20
0.0
 30
0.0
  3
*D40
  1

  0
LINE
  5
256C7
330
2530C
100
AcDbEntity
  8
寸法
 62
     0
 48
50.0
370
    -2
100
AcDbLine
 10
9648.600000000008
 20
7048.197195698484
 30
0.0
 11
9648.600000000008
 21
8000.806012368732
 31
0.0
  0
LINE
  5
256C8
330
2530C
100
AcDbEntity
  8
寸法
 62
     0
 48
50.0
370
    -2
100
AcDbLine
 10
8698.600000000007
 20
7048.197195698484
 30
0.0
 11
8698.600000000007
 21
8000.806012368732
 31
0.0
  0
LINE
  5
256C9
330
2530C
100
AcDbEntity
  8
寸法
 62
     0
 48
50.0
370
    -2
100
AcDbLine
 10
9648.600000000008
 20
7940.806012368732
 30
0.0
 11
8698.600000000007
 21
7940.806012368732
 31
0.0
  0
INSERT
  5
256CA
330
2530C
100
AcDbEntity
  8
寸法
 62
     0
 48
50.0
370
    -2
100
AcDbBlockReference
  2
_DOTSMALL
 10
9648.600000000008
 20
7940.806012368732
 30
0.0
 41
100.0
 42
100.0
 43
100.0
  0
INSERT
  5
256CB
330
2530C
100
AcDbEntity
  8
寸法
 62
     0
 48
50.0
370
    -2
100
AcDbBlockReference
  2
_DOTSMALL
 10
8698.600000000007
 20
7940.806012368732
 30
0.0
 41
100.0
 42
100.0
 43
100.0
 50
180.0
  0
MTEXT
  5
256CC
330
2530C
100
AcDbEntity
  8
寸法
 62
     7
 48
50.0
100
AcDbMText
 10
9173.600000000007
 20
8040.806012368731
 30
0.0
 40
120.0
 41
0.0
 71
     5
 72
     1
  1
\A1;950
  7
STYLE1
 73
     1
 44
1.0
1001
ACAD
1000
MTEXTBEGIN
1070
    73
1070
     1
1070
    44
1040
1.0
1070
    74
1070
     0
1000
MTEXTEND
  0
POINT
  5
256CD
330
2530C
100
AcDbEntity
  8
DEFPOINTS
 62
     0
 48
50.0
100
AcDbPoint
 10
9648.600000000008
 20
7028.197195698483
 30
0.0
  0
POINT
  5
256CE
330
2530C
100
AcDbEntity
  8
DEFPOINTS
 62
     0
 48
50.0
100
AcDbPoint
 10
8698.600000000007
 20
7028.197195698483
 30
0.0
  0
POINT
  5
256CF
330
2530C
100
AcDbEntity
  8
DEFPOINTS
 62
     0
 48
50.0
100
AcDbPoint
 10
8698.600000000007
 20
7940.806012368732
 30
0.0
  0
ENDBLK
  5
25317
330
2530C
100
AcDbEntity
  8
0
 48
50.0
100
AcDbBlockEnd
  0
BLOCK
  5
25330
330
25325
100
AcDbEntity
  8
0
 48
50.0
100
AcDbBlockBegin
  2
*D41
 70
     1
 10
0.0
 20
0.0
 30
0.0
  3
*D41
  1

  0
LINE
  5
256BD
330
25325
100
AcDbEntity
  8
寸法
 62
     0
 48
50.0
370
    -2
100
AcDbLine
 10
10603.6
 20
7478.197195698483
 30
0.0
 11
10603.6
 21
8244.463653792394
 31
0.0
  0
LINE
  5
256BE
330
25325
100
AcDbEntity
  8
寸法
 62
     0
 48
50.0
370
    -2
100
AcDbLine
 10
10480.6
 20
7405.197195698484
 30
0.0
 11
10480.6
 21
8244.463653792394
 31
0.0
  0
LINE
  5
256BF
330
25325
100
AcDbEntity
  8
寸法
 62
     0
 48
50.0
370
    -2
100
AcDbLine
 10
10480.6
 20
8184.463653792395
 30
0.0
 11
10603.6
 21
8184.463653792395
 31
0.0
  0
LINE
  5
256C0
330
25325
100
AcDbEntity
  8
寸法
 62
     0
 48
50.0
370
    -2
100
AcDbLine
 10
10603.6
 20
8184.463653792395
 30
0.0
 11
11015.19188309203
 21
8184.463653792395
 31
0.0
  0
INSERT
  5
256C1
330
25325
100
AcDbEntity
  8
寸法
 62
     0
 48
50.0
370
    -2
100
AcDbBlockReference
  2
_DOTSMALL
 10
10480.6
 20
8184.463653792395
 30
0.0
 41
100.0
 42
100.0
 43
100.0
 50
180.0
  0
INSERT
  5
256C2
330
25325
100
AcDbEntity
  8
寸法
 62
     0
 48
50.0
370
    -2
100
AcDbBlockReference
  2
_DOTSMALL
 10
10603.6
 20
8184.463653792395
 30
0.0
 41
100.0
 42
100.0
 43
100.0
  0
MTEXT
  5
256C3
330
25325
100
AcDbEntity
  8
寸法
 62
     7
 48
50.0
100
AcDbMText
 10
10876.7066017178
 20
8284.475464816017
 30
0.0
 40
120.0
 41
0.0
 71
     5
 72
     1
  1
\A1;123
  7
STYLE1
 73
     1
 44
1.0
1001
ACAD
1000
MTEXTBEGIN
1070
    73
1070
     1
1070
    44
1040
1.0
1070
    74
1070
     0
1000
MTEXTEND
  0
POINT
  5
256C4
330
25325
100
AcDbEntity
  8
DEFPOINTS
 62
     0
 48
50.0
100
AcDbPoint
 10
10603.6
 20
7458.197195698483
 30
0.0
  0
POINT
  5
256C5
330
25325
100
AcDbEntity
  8
DEFPOINTS
 62
     0
 48
50.0
100
AcDbPoint
 10
10480.6
 20
7385.197195698484
 30
0.0
  0
POINT
  5
256C6
330
25325
100
AcDbEntity
  8
DEFPOINTS
 62
     0
 48
50.0
100
AcDbPoint
 10
10480.6
 20
8184.463653792395
 30
0.0
  0
ENDBLK
  5
25331
330
25325
100
AcDbEntity
  8
0
 48
50.0
100
AcDbBlockEnd
  0
BLOCK
  5
25B63
330
25B59
100
AcDbEntity
  8
0
 48
50.0
100
AcDbBlockBegin
  2
*D42
 70
     1
 10
0.0
 20
0.0
 30
0.0
  3
*D42
  1

  0
LINE
  5
25BA3
330
25B59
100
AcDbEntity
  8
寸法
 62
     0
 48
50.0
370
    -2
100
AcDbLine
 10
6379.764979861185
 20
1918.747768866329
 30
0.0
 11
6379.764979861185
 21
2378.41557678271
 31
0.0
  0
LINE
  5
25BA4
330
25B59
100
AcDbEntity
  8
寸法
 62
     0
 48
50.0
370
    -2
100
AcDbLine
 10
6187.764979861185
 20
1918.747768866329
 30
0.0
 11
6187.764979861185
 21
2378.41557678271
 31
0.0
  0
LINE
  5
25BA5
330
25B59
100
AcDbEntity
  8
寸法
 62
     0
 48
50.0
370
    -2
100
AcDbLine
 10
6379.764979861185
 20
2318.41557678271
 30
0.0
 11
6187.764979861185
 21
2318.41557678271
 31
0.0
  0
INSERT
  5
25BA6
330
25B59
100
AcDbEntity
  8
寸法
 62
     0
 48
50.0
370
    -2
100
AcDbBlockReference
  2
_DOTSMALL
 10
6379.764979861185
 20
2318.41557678271
 30
0.0
 41
100.0
 42
100.0
 43
100.0
  0
INSERT
  5
25BA7
330
25B59
100
AcDbEntity
  8
寸法
 62
     0
 48
50.0
370
    -2
100
AcDbBlockReference
  2
_DOTSMALL
 10
6187.764979861185
 20
2318.41557678271
 30
0.0
 41
100.0
 42
100.0
 43
100.0
 50
180.0
  0
MTEXT
  5
25BA8
330
25B59
100
AcDbEntity
  8
寸法
 62
     7
 48
50.0
100
AcDbMText
 10
6283.764979861185
 20
2618.451009853576
 30
0.0
 40
120.0
 41
0.0
 71
     5
 72
     1
  1
\A1;120\P200\P280
  7
STYLE1
 73
     1
 44
1.0
1001
ACAD
1000
MTEXTBEGIN
1070
    73
1070
     1
1070
    44
1040
1.0
1070
    74
1070
     0
1000
MTEXTEND
  0
POINT
  5
25BA9
330
25B59
100
AcDbEntity
  8
DEFPOINTS
 62
     0
 48
50.0
100
AcDbPoint
 10
6379.764979861185
 20
1898.747768866329
 30
0.0
  0
POINT
  5
25BAA
330
25B59
100
AcDbEntity
  8
DEFPOINTS
 62
     0
 48
50.0
100
AcDbPoint
 10
6187.764979861185
 20
1898.747768866329
 30
0.0
  0
POINT
  5
25BAB
330
25B59
100
AcDbEntity
  8
DEFPOINTS
 62
     0
 48
50.0
100
AcDbPoint
 10
6187.764979861185
 20
2318.41557678271
 30
0.0
  0
ENDBLK
  5
25B64
330
25B59
100
AcDbEntity
  8
0
 48
50.0
100
AcDbBlockEnd
  0
BLOCK
  5
25B6F
330
25B65
100
AcDbEntity
  8
0
 48
50.0
100
AcDbBlockBegin
  2
*D43
 70
     1
 10
0.0
 20
0.0
 30
0.0
  3
*D43
  1

  0
LINE
  5
25BAC
330
25B65
100
AcDbEntity
  8
寸法
 62
     0
 48
50.0
370
    -2
100
AcDbLine
 10
6059.764979861185
 20
966.7477688663293
 30
0.0
 11
6059.764979861185
 21
516.3181308611692
 31
0.0
  0
LINE
  5
25BAD
330
25B65
100
AcDbEntity
  8
寸法
 62
     0
 48
50.0
370
    -2
100
AcDbLine
 10
6507.764979861184
 20
966.7477688663293
 30
0.0
 11
6507.764979861184
 21
516.3181308611692
 31
0.0
  0
LINE
  5
25BAE
330
25B65
100
AcDbEntity
  8
寸法
 62
     0
 48
50.0
370
    -2
100
AcDbLine
 10
6059.764979861185
 20
576.3181308611692
 30
0.0
 11
6507.764979861184
 21
576.3181308611692
 31
0.0
  0
INSERT
  5
25BAF
330
25B65
100
AcDbEntity
  8
寸法
 62
     0
 48
50.0
370
    -2
100
AcDbBlockReference
  2
_DOTSMALL
 10
6059.764979861185
 20
576.3181308611692
 30
0.0
 41
100.0
 42
100.0
 43
100.0
 50
180.0
  0
INSERT
  5
25BB0
330
25B65
100
AcDbEntity
  8
寸法
 62
     0
 48
50.0
370
    -2
100
AcDbBlockReference
  2
_DOTSMALL
 10
6507.764979861184
 20
576.3181308611692
 30
0.0
 41
100.0
 42
100.0
 43
100.0
  0
MTEXT
  5
25BB1
330
25B65
100
AcDbEntity
  8
寸法
 62
     7
 48
50.0
100
AcDbMText
 10
6263.668221182961
 20
676.3181308611692
 30
0.0
 40
120.0
 41
0.0
 71
     5
 72
     1
  1
\A1;300
  7
STYLE1
 73
     1
 44
1.0
1001
ACAD
1000
MTEXTBEGIN
1070
    73
1070
     1
1070
    44
1040
1.0
1070
    74
1070
     0
1000
MTEXTEND
  0
POINT
  5
25BB2
330
25B65
100
AcDbEntity
  8
DEFPOINTS
 62
     0
 48
50.0
100
AcDbPoint
 10
6059.764979861185
 20
986.7477688663294
 30
0.0
  0
POINT
  5
25BB3
330
25B65
100
AcDbEntity
  8
DEFPOINTS
 62
     0
 48
50.0
100
AcDbPoint
 10
6507.764979861184
 20
986.7477688663294
 30
0.0
  0
POINT
  5
25BB4
330
25B65
100
AcDbEntity
  8
DEFPOINTS
 62
     0
 48
50.0
100
AcDbPoint
 10
6507.764979861184
 20
576.3181308611692
 30
0.0
  0
ENDBLK
  5
25B70
330
25B65
100
AcDbEntity
  8
0
 48
50.0
100
AcDbBlockEnd
  0
BLOCK
  5
25B7B
330
25B71
100
AcDbEntity
  8
0
 48
50.0
100
AcDbBlockBegin
  2
*D44
 70
     1
 10
0.0
 20
0.0
 30
0.0
  3
*D44
  1

  0
LINE
  5
25BB5
330
25B71
100
AcDbEntity
  8
寸法
 62
     0
 48
50.0
370
    -2
100
AcDbLine
 10
6167.764979861185
 20
1898.747768866329
 30
0.0
 11
5392.727741299444
 21
1898.74776886633
 31
0.0
  0
LINE
  5
25BB6
330
25B71
100
AcDbEntity
  8
寸法
 62
     0
 48
50.0
370
    -2
100
AcDbLine
 10
5959.764979861188
 20
1114.747768866329
 30
0.0
 11
5392.727741299444
 21
1114.747768866329
 31
0.0
  0
LINE
  5
25BB7
330
25B71
100
AcDbEntity
  8
寸法
 62
     0
 48
50.0
370
    -2
100
AcDbLine
 10
5452.727741299444
 20
1898.74776886633
 30
0.0
 11
5452.727741299444
 21
1114.747768866329
 31
0.0
  0
INSERT
  5
25BB8
330
25B71
100
AcDbEntity
  8
寸法
 62
     0
 48
50.0
370
    -2
100
AcDbBlockReference
  2
_DOTSMALL
 10
5452.727741299444
 20
1898.74776886633
 30
0.0
 41
100.0
 42
100.0
 43
100.0
 50
90.0
  0
INSERT
  5
25BB9
330
25B71
100
AcDbEntity
  8
寸法
 62
     0
 48
50.0
370
    -2
100
AcDbBlockReference
  2
_DOTSMALL
 10
5452.727741299444
 20
1114.747768866329
 30
0.0
 41
100.0
 42
100.0
 43
100.0
 50
270.0
  0
MTEXT
  5
25BBA
330
25B71
100
AcDbEntity
  8
寸法
 62
     7
 48
50.0
100
AcDbMText
 10
5352.727741299444
 20
1486.28791852233
 30
0.0
 40
120.0
 41
0.0
 71
     5
 72
     1
  1
\A1;540
  7
STYLE1
 11
0.0000000000000001
 21
1.0
 31
0.0
 73
     1
 44
1.0
1001
ACAD
1000
MTEXTBEGIN
1070
    73
1070
     1
1070
    44
1040
1.0
1070
    74
1070
     0
1000
MTEXTEND
  0
POINT
  5
25BBB
330
25B71
100
AcDbEntity
  8
DEFPOINTS
 62
     0
 48
50.0
100
AcDbPoint
 10
6187.764979861185
 20
1898.747768866329
 30
0.0
  0
POINT
  5
25BBC
330
25B71
100
AcDbEntity
  8
DEFPOINTS
 62
     0
 48
50.0
100
AcDbPoint
 10
5979.764979861188
 20
1114.747768866329
 30
0.0
  0
POINT
  5
25BBD
330
25B71
100
AcDbEntity
  8
DEFPOINTS
 62
     0
 48
50.0
100
AcDbPoint
 10
5452.727741299444
 20
1114.747768866329
 30
0.0
  0
ENDBLK
  5
25B7C
330
25B71
100
AcDbEntity
  8
0
 48
50.0
100
AcDbBlockEnd
  0
BLOCK
  5
25B87
330
25B7D
100
AcDbEntity
  8
0
 48
50.0
100
AcDbBlockBegin
  2
*D45
 70
     1
 10
0.0
 20
0.0
 30
0.0
  3
*D45
  1

  0
LINE
  5
25BBE
330
25B7D
100
AcDbEntity
  8
寸法
 62
     0
 48
50.0
370
    -2
100
AcDbLine
 10
6039.764979861184
 20
1354.747768866329
 30
0.0
 11
5857.344666128725
 21
1354.747768866329
 31
0.0
  0
LINE
  5
25BBF
330
25B7D
100
AcDbEntity
  8
寸法
 62
     0
 48
50.0
370
    -2
100
AcDbLine
 10
5959.764979861188
 20
1114.747768866329
 30
0.0
 11
5857.344666128725
 21
1114.747768866329
 31
0.0
  0
LINE
  5
25BC0
330
25B7D
100
AcDbEntity
  8
寸法
 62
     0
 48
50.0
370
    -2
100
AcDbLine
 10
5917.344666128725
 20
1354.747768866329
 30
0.0
 11
5917.344666128725
 21
1114.747768866329
 31
0.0
  0
INSERT
  5
25BC1
330
25B7D
100
AcDbEntity
  8
寸法
 62
     0
 48
50.0
370
    -2
100
AcDbBlockReference
  2
_DOTSMALL
 10
5917.344666128725
 20
1354.747768866329
 30
0.0
 41
100.0
 42
100.0
 43
100.0
 50
90.0
  0
INSERT
  5
25BC2
330
25B7D
100
AcDbEntity
  8
寸法
 62
     0
 48
50.0
370
    -2
100
AcDbBlockReference
  2
_DOTSMALL
 10
5917.344666128725
 20
1114.747768866329
 30
0.0
 41
100.0
 42
100.0
 43
100.0
 50
270.0
  0
MTEXT
  5
25BC3
330
25B7D
100
AcDbEntity
  8
寸法
 62
     7
 48
50.0
100
AcDbMText
 10
5817.344666128725
 20
1234.74776886633
 30
0.0
 40
120.0
 41
0.0
 71
     5
 72
     1
  1
\A1;150
  7
STYLE1
 11
0.0000000000000001
 21
1.0
 31
0.0
 73
     1
 44
1.0
1001
ACAD
1000
MTEXTBEGIN
1070
    73
1070
     1
1070
    44
1040
1.0
1070
    74
1070
     0
1000
MTEXTEND
  0
POINT
  5
25BC4
330
25B7D
100
AcDbEntity
  8
DEFPOINTS
 62
     0
 48
50.0
100
AcDbPoint
 10
6059.764979861185
 20
1354.747768866329
 30
0.0
  0
POINT
  5
25BC5
330
25B7D
100
AcDbEntity
  8
DEFPOINTS
 62
     0
 48
50.0
100
AcDbPoint
 10
5979.764979861188
 20
1114.747768866329
 30
0.0
  0
POINT
  5
25BC6
330
25B7D
100
AcDbEntity
  8
DEFPOINTS
 62
     0
 48
50.0
100
AcDbPoint
 10
5917.344666128725
 20
1114.747768866329
 30
0.0
  0
ENDBLK
  5
25B88
330
25B7D
100
AcDbEntity
  8
0
 48
50.0
100
AcDbBlockEnd
  0
BLOCK
  5
25B95
330
25B89
100
AcDbEntity
  8
0
 48
50.0
100
AcDbBlockBegin
  2
*D46
 70
     1
 10
0.0
 20
0.0
 30
0.0
  3
*D46
  1

  0
LINE
  5
25BC7
330
25B89
100
AcDbEntity
  8
寸法
 62
     0
 48
50.0
370
    -2
100
AcDbLine
 10
8134.604293038378
 20
1951.50776886633
 30
0.0
 11
9139.727558926251
 21
1951.50776886633
 31
0.0
  0
LINE
  5
25BC8
330
25B89
100
AcDbEntity
  8
寸法
 62
     0
 48
50.0
370
    -2
100
AcDbLine
 10
8321.804293038379
 20
1898.747768866329
 30
0.0
 11
9139.727558926251
 21
1898.747768866329
 31
0.0
  0
LINE
  5
25BC9
330
25B89
100
AcDbEntity
  8
寸法
 62
     0
 48
50.0
370
    -2
100
AcDbLine
 10
9079.727558926249
 20
1951.50776886633
 30
0.0
 11
9079.727558926249
 21
2051.507768866331
 31
0.0
  0
LINE
  5
25BCA
330
25B89
100
AcDbEntity
  8
寸法
 62
     0
 48
50.0
370
    -2
100
AcDbLine
 10
9079.727558926249
 20
1898.747768866329
 30
0.0
 11
9079.727558926249
 21
1166.729962023363
 31
0.0
  0
LINE
  5
25BCB
330
25B89
100
AcDbEntity
  8
寸法
 62
     0
 48
50.0
370
    -2
100
AcDbLine
 10
9079.727558926249
 20
1951.50776886633
 30
0.0
 11
9079.727558926249
 21
1898.747768866329
 31
0.0
  0
INSERT
  5
25BCC
330
25B89
100
AcDbEntity
  8
寸法
 62
     0
 48
50.0
370
    -2
100
AcDbBlockReference
  2
_DOTSMALL
 10
9079.727558926249
 20
1951.50776886633
 30
0.0
 41
100.0
 42
100.0
 43
100.0
 50
270.0
  0
INSERT
  5
25BCD
330
25B89
100
AcDbEntity
  8
寸法
 62
     0
 48
50.0
370
    -2
100
AcDbBlockReference
  2
_DOTSMALL
 10
9079.727558926249
 20
1898.747768866329
 30
0.0
 41
100.0
 42
100.0
 43
100.0
 50
90.0
  0
MTEXT
  5
25BCE
330
25B89
100
AcDbEntity
  8
寸法
 62
     7
 48
50.0
100
AcDbMText
 10
8979.715747902629
 20
1432.738865444847
 30
0.0
 40
120.0
 41
0.0
 71
     5
 72
     1
  1
\A1;20～25
  7
STYLE1
 11
0.0000000000000001
 21
1.0
 31
0.0
 73
     1
 44
1.0
1001
ACAD
1000
MTEXTBEGIN
1070
    73
1070
     1
1070
    44
1040
1.0
1070
    74
1070
     0
1000
MTEXTEND
  0
POINT
  5
25BCF
330
25B89
100
AcDbEntity
  8
DEFPOINTS
 62
     0
 48
50.0
100
AcDbPoint
 10
8114.604293038381
 20
1951.50776886633
 30
0.0
  0
POINT
  5
25BD0
330
25B89
100
AcDbEntity
  8
DEFPOINTS
 62
     0
 48
50.0
100
AcDbPoint
 10
8301.804293038378
 20
1898.747768866329
 30
0.0
  0
POINT
  5
25BD1
330
25B89
100
AcDbEntity
  8
DEFPOINTS
 62
     0
 48
50.0
100
AcDbPoint
 10
9079.727558926249
 20
1898.747768866329
 30
0.0
  0
ENDBLK
  5
25B96
330
25B89
100
AcDbEntity
  8
0
 48
50.0
100
AcDbBlockEnd
  0
BLOCK
  5
25BA1
330
25B97
100
AcDbEntity
  8
0
 48
50.0
100
AcDbBlockBegin
  2
*D47
 70
     1
 10
0.0
 20
0.0
 30
0.0
  3
*D47
  1

  0
LINE
  5
25BD2
330
25B97
100
AcDbEntity
  8
寸法
 62
     0
 48
50.0
370
    -2
100
AcDbLine
 10
8321.804293038379
 20
1898.747768866329
 30
0.0
 11
8863.672892807223
 21
1898.747768866329
 31
0.0
  0
LINE
  5
25BD3
330
25B97
100
AcDbEntity
  8
寸法
 62
     0
 48
50.0
370
    -2
100
AcDbLine
 10
8321.804293038379
 20
1574.747768866328
 30
0.0
 11
8863.672892807223
 21
1574.747768866328
 31
0.0
  0
LINE
  5
25BD4
330
25B97
100
AcDbEntity
  8
寸法
 62
     0
 48
50.0
370
    -2
100
AcDbLine
 10
8803.672892807222
 20
1898.747768866329
 30
0.0
 11
8803.672892807222
 21
1574.747768866328
 31
0.0
  0
INSERT
  5
25BD5
330
25B97
100
AcDbEntity
  8
寸法
 62
     0
 48
50.0
370
    -2
100
AcDbBlockReference
  2
_DOTSMALL
 10
8803.672892807222
 20
1898.747768866329
 30
0.0
 41
100.0
 42
100.0
 43
100.0
 50
90.0
  0
INSERT
  5
25BD6
330
25B97
100
AcDbEntity
  8
寸法
 62
     0
 48
50.0
370
    -2
100
AcDbBlockReference
  2
_DOTSMALL
 10
8803.672892807222
 20
1574.747768866328
 30
0.0
 41
100.0
 42
100.0
 43
100.0
 50
270.0
  0
MTEXT
  5
25BD7
330
25B97
100
AcDbEntity
  8
寸法
 62
     7
 48
50.0
100
AcDbMText
 10
8703.672892807222
 20
1736.74776886633
 30
0.0
 40
120.0
 41
0.0
 71
     5
 72
     1
  1
\A1;180
  7
STYLE1
 11
0.0000000000000001
 21
1.0
 31
0.0
 73
     1
 44
1.0
1001
ACAD
1000
MTEXTBEGIN
1070
    73
1070
     1
1070
    44
1040
1.0
1070
    74
1070
     0
1000
MTEXTEND
  0
POINT
  5
25BD8
330
25B97
100
AcDbEntity
  8
DEFPOINTS
 62
     0
 48
50.0
100
AcDbPoint
 10
8301.804293038378
 20
1898.747768866329
 30
0.0
  0
POINT
  5
25BD9
330
25B97
100
AcDbEntity
  8
DEFPOINTS
 62
     0
 48
50.0
100
AcDbPoint
 10
8301.804293038378
 20
1574.747768866328
 30
0.0
  0
POINT
  5
25BDA
330
25B97
100
AcDbEntity
  8
DEFPOINTS
 62
     0
 48
50.0
100
AcDbPoint
 10
8803.672892807222
 20
1574.747768866328
 30
0.0
  0
ENDBLK
  5
25BA2
330
25B97
100
AcDbEntity
  8
0
 48
50.0
100
AcDbBlockEnd
  0
BLOCK
  5
25BF1
330
25BE5
100
AcDbEntity
  8
0
 48
50.0
100
AcDbBlockBegin
  2
*D48
 70
     1
 10
0.0
 20
0.0
 30
0.0
  3
*D48
  1

  0
LINE
  5
25BF3
330
25BE5
100
AcDbEntity
  8
寸法
 62
     0
 48
50.0
370
    -2
100
AcDbLine
 10
10483.6
 20
7238.197195698481
 30
0.0
 11
10483.6
 21
7145.966293995705
 31
0.0
  0
LINE
  5
25BF4
330
25BE5
100
AcDbEntity
  8
寸法
 62
     0
 48
50.0
370
    -2
100
AcDbLine
 10
10603.6
 20
7238.197195698481
 30
0.0
 11
10603.6
 21
7145.966293995705
 31
0.0
  0
LINE
  5
25BF5
330
25BE5
100
AcDbEntity
  8
寸法
 62
     0
 48
50.0
370
    -2
100
AcDbLine
 10
10483.6
 20
7205.966293995705
 30
0.0
 11
10603.6
 21
7205.966293995705
 31
0.0
  0
LINE
  5
25BF6
330
25BE5
100
AcDbEntity
  8
寸法
 62
     0
 48
50.0
370
    -2
100
AcDbLine
 10
10603.6
 20
7205.966293995705
 30
0.0
 11
11034.61768348657
 21
7205.966293995705
 31
0.0
  0
INSERT
  5
25BF7
330
25BE5
100
AcDbEntity
  8
寸法
 62
     0
 48
50.0
370
    -2
100
AcDbBlockReference
  2
_DOTSMALL
 10
10483.6
 20
7205.966293995705
 30
0.0
 41
100.0
 42
100.0
 43
100.0
 50
180.0
  0
INSERT
  5
25BF8
330
25BE5
100
AcDbEntity
  8
寸法
 62
     0
 48
50.0
370
    -2
100
AcDbBlockReference
  2
_DOTSMALL
 10
10603.6
 20
7205.966293995705
 30
0.0
 41
100.0
 42
100.0
 43
100.0
  0
MTEXT
  5
25BF9
330
25BE5
100
AcDbEntity
  8
寸法
 62
     7
 48
50.0
100
AcDbMText
 10
10898.57043939208
 20
7305.978105019327
 30
0.0
 40
120.0
 41
0.0
 71
     5
 72
     1
  1
\A1;120
  7
STYLE1
 73
     1
 44
1.0
1001
ACAD
1000
MTEXTBEGIN
1070
    73
1070
     1
1070
    44
1040
1.0
1070
    74
1070
     0
1000
MTEXTEND
  0
POINT
  5
25BFA
330
25BE5
100
AcDbEntity
  8
DEFPOINTS
 62
     0
 48
50.0
100
AcDbPoint
 10
10483.6
 20
7258.197195698482
 30
0.0
  0
POINT
  5
25BFB
330
25BE5
100
AcDbEntity
  8
DEFPOINTS
 62
     0
 48
50.0
100
AcDbPoint
 10
10603.6
 20
7258.197195698482
 30
0.0
  0
POINT
  5
25BFC
330
25BE5
100
AcDbEntity
  8
DEFPOINTS
 62
     0
 48
50.0
100
AcDbPoint
 10
10603.6
 20
7205.966293995705
 30
0.0
  0
ENDBLK
  5
25BF2
330
25BE5
100
AcDbEntity
  8
0
 48
50.0
100
AcDbBlockEnd
  0
ENDSEC
  0
SECTION
  2
ENTITIES
  0
MTEXT
  5
763F
330
747D
100
AcDbEntity
  8
0
100
AcDbMText
 10
302.846345836809
 20
280.1983726409901
 30
0.0
 40
3.5
 41
5.323721266742722
 71
     1
 72
     5
  1

  7
MSMINCHO
 73
     1
 44
1.0
1001
ACAD
1000
MTEXTBEGIN
1070
    73
1070
     1
1070
    44
1040
1.0
1070
    74
1070
     0
1000
MTEXTEND
  0
LINE
  5
10B57
330
747D
100
AcDbEntity
  8
補助
  6
PHANTOM
 62
   230
 48
50.0
100
AcDbLine
 10
139.9999999999995
 20
11409.6
 30
0.0
 11
16307.2
 21
11409.6
 31
0.0
  0
LINE
  5
10B59
330
747D
100
AcDbEntity
  8
仕様書枠
  6
Continuous
 48
50.0
100
AcDbLine
 10
13107.2
 20
1200.0
 30
0.0
 11
13107.2
 21
-0.0000000000000729
 31
0.0
  0
LINE
  5
10B5D
330
747D
100
AcDbEntity
  8
仕様書枠
 48
50.0
100
AcDbLine
 10
140.0
 20
0.0
 30
0.0
 11
16307.2
 21
-0.0000000000000909
 31
0.0
  0
LINE
  5
10B5E
330
747D
100
AcDbEntity
  8
補助
  6
PHANTOM
 62
   230
 48
50.0
100
AcDbLine
 10
16307.2
 20
11409.6
 30
0.0
 11
16307.2
 21
1200.0
 31
0.0
  0
LINE
  5
10B6C
330
747D
100
AcDbEntity
  8
仕様書枠
 48
50.0
100
AcDbLine
 10
13107.2
 20
1200.0
 30
0.0
 11
16307.2
 21
1200.0
 31
0.0
  0
TEXT
  5
10B73
330
747D
100
AcDbEntity
  8
文字
 62
     7
 48
50.0
100
AcDbText
 10
13162.9790565769
 20
895.0906074299405
 30
0.0
 40
200.0
  1
基 礎 図
  7
STYLE2
100
AcDbText
  0
LINE
  5
10B7B
330
747D
100
AcDbEntity
  8
仕様書枠
 48
50.0
100
AcDbLine
 10
13107.2
 20
800.0
 30
0.0
 11
14251.2
 21
800.0
 31
0.0
  0
LINE
  5
10B88
330
747D
100
AcDbEntity
  8
仕様書枠
  6
Continuous
 48
50.0
100
AcDbLine
 10
14251.2
 20
1200.0
 30
0.0
 11
14251.2
 21
800.0
 31
0.0
  0
LINE
  5
16462
330
747D
100
AcDbEntity
  8
仕様書枠
 48
50.0
100
AcDbLine
 10
16307.2
 20
1200.0
 30
0.0
 11
16307.2
 21
-0.0000000000000909
 31
0.0
  0
LINE
  5
1903B
330
747D
100
AcDbEntity
  8
補助
  6
PHANTOM
 62
   230
 48
50.0
100
AcDbLine
 10
140.0
 20
0.0
 30
0.0
 11
139.9999999999995
 21
11409.6
 31
0.0
  0
LEADER
  5
1AC27
330
747D
100
AcDbEntity
  8
寸法
 48
50.0
100
AcDbLeader
  3
INABA_S50G
 73
     0
 74
     0
 75
     1
 40
120.0
 41
720.0000000000001
 76
     3
 10
10605.05985718447
 20
6988.927965758293
 30
0.0
 10
10761.83343157075
 20
6727.914052190461
 30
0.0
 10
10886.83343157075
 20
6727.914052190461
 30
0.0
340
1AC28
1001
ACAD
1000
DSTYLE
1002
{
1070
   341
1005
0
1070
    40
1040
1.0
1070
   343
1005
0
1070
   344
1005
0
1002
}
  0
MTEXT
  5
1AC28
102
{ACAD_REACTORS
330
1AC27
102
}
330
747D
100
AcDbEntity
  8
部品1
 62
     7
 48
50.0
100
AcDbMText
 10
11631.83343157075
 20
6812.91405219046
 30
0.0
 40
120.0
 41
0.0
 71
     6
 72
     1
  1
\A1;床下換気口
  7
STYLE1
 73
     1
 44
1.0
1001
ACAD
1000
MTEXTBEGIN
1070
    73
1070
     1
1070
    44
1040
1.0
1070
    74
1070
     0
1000
MTEXTEND
  0
TEXT
  5
1AC29
330
747D
100
AcDbEntity
  8
部品1
 48
50.0
100
AcDbText
 10
10952.43013846117
 20
6047.369693411361
 30
0.0
 40
80.0
  1
(a=45,b=55,c=75)
  7
STYLE1
100
AcDbText
  0
TEXT
  5
1AC2A
330
747D
100
AcDbEntity
  8
部品1
 48
50.0
100
AcDbText
 10
10793.85112970688
 20
6154.214914280116
 30
0.0
 40
80.0
  1
※a,b,cは屋根の出幅です。
  7
STYLE1
100
AcDbText
  0
MTEXT
  5
1AC2B
102
{ACAD_REACTORS
330
1AC2C
102
}
330
747D
100
AcDbEntity
  8
部品1
 62
     7
 48
50.0
100
AcDbMText
 10
11591.63832569548
 20
6333.525601213191
 30
0.0
 40
120.0
 41
0.0
 71
     6
 72
     1
  1
\A1;屋根の外寸
  7
STYLE1
 73
     1
 44
1.0
1001
ACAD
1000
MTEXTBEGIN
1070
    73
1070
     1
1070
    44
1040
1.0
1070
    74
1070
     0
1000
MTEXTEND
  0
LEADER
  5
1AC2C
330
747D
100
AcDbEntity
  8
寸法
 48
50.0
100
AcDbLeader
  3
INABA_S50G
 73
     0
 74
     0
 75
     1
 40
120.0
 41
672.0
 76
     3
 10
10653.69831350344
 20
6507.414944676766
 30
0.0
 10
10769.63832569548
 20
6248.525601213191
 30
0.0
 10
10894.63832569548
 20
6248.525601213191
 30
0.0
340
1AC2B
1001
ACAD
1000
DSTYLE
1002
{
1070
   341
1005
0
1070
    40
1040
1.0
1070
   343
1005
0
1070
   344
1005
0
1002
}
  0
TEXT
  5
1C7A1
330
747D
100
AcDbEntity
  8
文字
 62
     7
 48
50.0
100
AcDbText
 10
13188.16259899338
 20
79.80631269190417
 30
0.0
 40
80.0
  1
※布基礎には換気口を設けてください。
  7
STYLE2
100
AcDbText
  0
TEXT
  5
1C7E7
330
747D
100
AcDbEntity
  8
文字
 62
     7
 48
50.0
100
AcDbText
 10
13188.16259899338
 20
246.7109242801889
 30
0.0
 40
80.0
  1
※寒冷地等は地域の実情に合わせた基礎にして下さい。
  7
STYLE2
100
AcDbText
  0
TEXT
  5
1C7E8
330
747D
100
AcDbEntity
  8
文字
 62
     7
 48
50.0
100
AcDbText
 10
14325.79230300687
 20
499.5983841039506
 30
0.0
 40
160.0
  1
ＮＸＮ－０９ＤＬ－５
  7
STYLE2
100
AcDbText
  0
TEXT
  5
1C7EC
330
747D
100
AcDbEntity
  8
文字
 62
     7
 48
50.0
100
AcDbText
 10
14524.131837222
 20
1031.557706291229
 30
0.0
 40
100.0
  1
<縮尺> S=1/40
  7
STYLE2
100
AcDbText
  0
TEXT
  5
1C7ED
330
747D
100
AcDbEntity
  8
文字
 62
     7
 48
50.0
100
AcDbText
 10
13201.43669998441
 20
477.2740661031257
 30
0.0
 40
160.0
  1
機種名
  7
STYLE2
100
AcDbText
  0
LINE
  5
1C7EF
330
747D
100
AcDbEntity
  8
文字
 62
     7
 48
50.0
100
AcDbLine
 10
13187.2
 20
400.0
 30
0.0
 11
16227.2
 21
400.0
 31
0.0
  0
MTEXT
  5
1D2D5
102
{ACAD_REACTORS
330
1D2D6
102
}
330
747D
100
AcDbEntity
  8
部品1
 62
     7
 48
50.0
100
AcDbMText
 10
11798.99523070988
 20
7773.809939940992
 30
0.0
 40
120.0
 41
0.0
 71
     6
 72
     1
  1
アンカーボルト
  7
STYLE1
 73
     1
 44
1.0
1001
ACAD
1000
MTEXTBEGIN
1070
    73
1070
     1
1070
    44
1040
1.0
1070
    74
1070
     0
1000
MTEXTEND
  0
LEADER
  5
1D2D6
330
747D
100
AcDbEntity
  8
寸法
 48
50.0
100
AcDbLeader
  3
INABA_S50G
 73
     0
 74
     0
 75
     1
 40
120.0
 41
994.3492424049171
 76
     3
 10
10480.680085757
 20
7335.405040057195
 30
0.0
 10
10654.64598830496
 20
7688.809939940992
 30
0.0
 10
10779.64598830496
 20
7688.809939940992
 30
0.0
340
1D2D5
1001
ACAD
1000
DSTYLE
1002
{
1070
   341
1005
0
1070
    40
1040
1.0
1070
   343
1005
0
1070
   344
1005
0
1002
}
  0
MTEXT
  5
1D332
102
{ACAD_REACTORS
330
1D333
102
}
330
747D
100
AcDbEntity
  8
部品1
 62
     7
 48
50.0
100
AcDbMText
 10
10163.82869701569
 20
6905.984592733884
 30
0.0
 40
120.0
 41
0.0
 71
     6
 72
     1
  1
CB
  7
STYLE1
 73
     1
 44
1.0
1001
ACAD
1000
MTEXTBEGIN
1070
    73
1070
     1
1070
    44
1040
1.0
1070
    74
1070
     0
1000
MTEXTEND
  0
LEADER
  5
1D333
330
747D
100
AcDbEntity
  8
寸法
 48
50.0
100
AcDbLeader
  3
INABA_S50G
 73
     0
 74
     0
 75
     1
 40
120.0
 41
149.591883092037
 76
     3
 10
9736.954011061015
 20
7043.702906288709
 30
0.0
 10
9864.23681392366
 20
6820.984592733883
 30
0.0
 10
9989.23681392366
 20
6820.984592733883
 30
0.0
340
1D332
1001
ACAD
1000
DSTYLE
1002
{
1070
   341
1005
0
1070
    40
1040
1.0
1070
   343
1005
0
1070
   344
1005
0
1002
}
  0
DIMENSION
  5
20DE1
330
747D
100
AcDbEntity
  8
寸法
 48
50.0
100
AcDbDimension
  2
*D19
 10
10648.6
 20
8416.417517757404
 30
0.0
 11
10919.77462120246
 21
8416.417517757404
 31
0.0
 70
   160
  1
a
 71
     5
 42
45.0
  3
INABA_S40G
100
AcDbAlignedDimension
 13
10603.6
 23
7458.197195698483
 33
0.0
 14
10648.6
 24
8184.463653792395
 34
0.0
100
AcDbRotatedDimension
1001
ACAD
1000
DSTYLE
1002
{
1070
   341
1005
0
1002
}
  0
DIMENSION
  5
20DFB
330
747D
100
AcDbEntity
  8
寸法
 48
50.0
100
AcDbDimension
  2
*D20
 10
5843.600000000004
 20
8416.4175177574
 30
0.0
 11
5527.425378797545
 21
8416.4175177574
 31
0.0
 70
   160
  1
a
 71
     5
 42
45.0
  3
INABA_S40G
100
AcDbAlignedDimension
 13
5798.600000000003
 23
8184.46365379239
 33
0.0
 14
5843.600000000004
 24
7458.19719569848
 34
0.0
100
AcDbRotatedDimension
1001
ACAD
1000
DSTYLE
1002
{
1070
   341
1005
0
1002
}
  0
LINE
  5
22711
330
747D
100
AcDbEntity
  8
想像線
 48
10.0
100
AcDbLine
 10
10648.6
 20
7533.197195698486
 30
0.0
 11
5798.600000000003
 21
7533.197195698495
 31
0.0
  0
LINE
  5
22712
330
747D
100
AcDbEntity
  8
想像線
 48
10.0
100
AcDbLine
 10
5798.6
 20
6443.197195698492
 30
0.0
 11
5798.600000000003
 21
7533.197195698486
 31
0.0
  0
LINE
  5
22713
330
747D
100
AcDbEntity
  8
想像線
 48
10.0
100
AcDbLine
 10
10648.6
 20
6443.197195698499
 30
0.0
 11
10648.6
 21
7533.197195698486
 31
0.0
  0
LINE
  5
22714
330
747D
100
AcDbEntity
  8
想像線
 48
10.0
100
AcDbLine
 10
10648.6
 20
6443.197195698499
 30
0.0
 11
5798.6
 21
6443.197195698489
 31
0.0
  0
DIMENSION
  5
22741
330
747D
100
AcDbEntity
  8
寸法
 48
50.0
100
AcDbDimension
  2
*D21
 10
4968.721909610676
 20
7458.19719569848
 30
0.0
 11
4868.721909610676
 21
7495.697195698483
 31
0.0
 70
    32
  1
c
 71
     5
 42
75.00000000000636
  3
INABA_S40G
100
AcDbAlignedDimension
 13
5220.665006330071
 23
7533.197195698486
 33
0.0
 14
5843.600000000004
 24
7458.19719569848
 34
0.0
 50
90.0
100
AcDbRotatedDimension
1001
ACAD
1000
DSTYLE
1002
{
1070
   341
1005
0
1002
}
  0
DIMENSION
  5
2275B
330
747D
100
AcDbEntity
  8
寸法
 48
50.0
100
AcDbDimension
  2
*D22
 10
4968.721909610676
 20
6443.197195698505
 30
0.0
 11
4868.721909610674
 21
6470.697195698493
 31
0.0
 70
    32
  1
b
 71
     5
 42
54.99999999997453
  3
INABA_S40G
100
AcDbAlignedDimension
 13
5843.600000000004
 23
6498.197195698479
 33
0.0
 14
5220.665006330075
 24
6443.197195698505
 34
0.0
 50
90.0
100
AcDbRotatedDimension
1001
ACAD
1000
DSTYLE
1002
{
1070
   341
1005
0
1002
}
  0
DIMENSION
  5
23978
330
747D
100
AcDbEntity
  8
寸法
 48
50.0
100
AcDbDimension
  2
*D23
 10
9948.957501082455
 20
7258.197195698473
 30
0.0
 11
9948.957501082453
 21
7707.768061840209
 31
0.0
 70
   160
 71
     5
 42
200.0
  3
INABA_S40G
100
AcDbAlignedDimension
 13
10148.85468201164
 23
7458.197195698473
 33
0.0
 14
10148.85468201164
 24
7258.197195698473
 34
0.0
 50
90.0
100
AcDbRotatedDimension
1001
ACAD
1000
DSTYLE
1002
{
1070
   341
1005
0
1002
}
  0
DIMENSION
  5
23980
330
747D
100
AcDbEntity
  8
寸法
 48
50.0
100
AcDbDimension
  2
*D24
 10
9948.957501082455
 20
6498.197195698492
 30
0.0
 11
9948.957501082453
 21
6248.626329556762
 31
0.0
 70
   160
 71
     5
 42
279.9999999999891
  3
INABA_S40G
100
AcDbAlignedDimension
 13
10223.59999999999
 23
6778.197195698481
 33
0.0
 14
10223.6
 24
6498.197195698492
 34
0.0
 50
90.0
100
AcDbRotatedDimension
1001
ACAD
1000
DSTYLE
1002
{
1070
   341
1005
0
1002
}
  0
LINE
  5
2513B
330
747D
100
AcDbEntity
  8
部品1
 48
50.0
100
AcDbLine
 10
10483.6
 20
7258.197195698482
 30
0.0
 11
5963.599999999996
 21
7258.197195698483
 31
0.0
  0
LINE
  5
2513E
330
747D
100
AcDbEntity
  8
部品1
 48
50.0
100
AcDbLine
 10
10603.6
 20
6498.197195698502
 30
0.0
 11
5843.599999999997
 21
6498.197195698479
 31
0.0
  0
DIMENSION
  5
25140
330
747D
100
AcDbEntity
  8
寸法
 48
50.0
100
AcDbDimension
  2
*D25
 10
10603.6
 20
8416.417517757402
 30
0.0
 11
8223.600000000001
 21
8516.417517757401
 31
0.0
 70
    32
 71
     5
 42
4760.0
  3
INABA_S40G
100
AcDbAlignedDimension
 13
5843.600000000001
 23
7458.197195698483
 33
0.0
 14
10603.6
 24
7458.197195698483
 34
0.0
100
AcDbRotatedDimension
1001
ACAD
1000
DSTYLE
1002
{
1070
   341
1005
0
1002
}
  0
LINE
  5
25141
330
747D
100
AcDbEntity
  8
部品1
 48
50.0
100
AcDbLine
 10
10603.6
 20
7458.197195698483
 30
0.0
 11
5843.600000000001
 21
7458.197195698483
 31
0.0
  0
DIMENSION
  5
25143
330
747D
100
AcDbEntity
  8
寸法
 48
50.0
100
AcDbDimension
  2
*D26
 10
7630.600000000001
 20
8184.463653792395
 30
0.0
 11
9055.600000000001
 21
8284.475464816017
 31
0.0
 70
    32
 71
     5
 42
2850.0
  3
INABA_S40G
100
AcDbAlignedDimension
 13
10480.6
 23
7385.197195698484
 33
0.0
 14
7630.600000000001
 24
7385.197195698484
 34
0.0
100
AcDbRotatedDimension
1001
ACAD
1000
DSTYLE
1002
{
1070
   341
1005
0
1002
}
  0
DIMENSION
  5
25144
330
747D
100
AcDbEntity
  8
寸法
 48
50.0
100
AcDbDimension
  2
*D27
 10
7748.600000000007
 20
7940.806012368732
 30
0.0
 11
8223.600000000008
 21
8040.806012368731
 31
0.0
 70
    32
 71
     5
 42
950.0
  3
INABA_S40G
100
AcDbAlignedDimension
 13
8698.600000000007
 23
7028.197195698483
 33
0.0
 14
7748.600000000007
 24
7028.197195698483
 34
0.0
100
AcDbRotatedDimension
1001
ACAD
1000
DSTYLE
1002
{
1070
   341
1005
0
1002
}
  0
TEXT
  5
25145
330
747D
100
AcDbEntity
  8
寸法
 48
50.0
100
AcDbText
 10
8540.55659256096
 20
6516.878486491221
 30
0.0
 40
120.0
  1
扉面
  7
STYLE1
100
AcDbText
  0
LINE
  5
25147
330
747D
100
AcDbEntity
  8
部品1
 48
50.0
100
AcDbLine
 10
5843.600000000001
 20
6498.197195698484
 30
0.0
 11
5843.600000000001
 21
7458.197195698483
 31
0.0
  0
DIMENSION
  5
25148
330
747D
100
AcDbEntity
  8
寸法
 48
50.0
100
AcDbDimension
  2
*D28
 10
6326.285990614302
 20
6978.197195698483
 30
0.0
 11
6326.285990614301
 21
6205.638140580384
 31
0.0
 70
   160
 71
     5
 42
479.999999999989
  3
INABA_S40G
100
AcDbAlignedDimension
 13
6417.765475140901
 23
6498.197195698494
 33
0.0
 14
6748.600000000007
 24
6978.197195698483
 34
0.0
 50
90.0
100
AcDbRotatedDimension
1001
ACAD
1000
DSTYLE
1002
{
1070
   341
1005
0
1002
}
  0
DIMENSION
  5
2514A
330
747D
100
AcDbEntity
  8
寸法
 48
50.0
100
AcDbDimension
  2
*D29
 10
4968.721909610675
 20
6498.197195698484
 30
0.0
 11
4968.721909610673
 21
7015.697195698483
 31
0.0
 70
   160
 71
     5
 42
960.0
  3
INABA_S40G
100
AcDbAlignedDimension
 13
5843.600000000001
 23
7458.197195698483
 33
0.0
 14
5843.600000000001
 24
6498.197195698484
 34
0.0
 50
90.0
100
AcDbRotatedDimension
1001
ACAD
1000
DSTYLE
1002
{
1070
   341
1005
0
1002
}
  0
DIMENSION
  5
2514B
330
747D
100
AcDbEntity
  8
寸法
 48
50.0
100
AcDbDimension
  2
*D30
 10
5220.665006330073
 20
6696.197195698487
 30
0.0
 11
5220.665006330071
 21
7015.697195698483
 31
0.0
 70
   160
 71
     5
 42
638.9999999999964
  3
INABA_S40G
100
AcDbAlignedDimension
 13
5916.6
 23
7335.197195698484
 33
0.0
 14
5916.600000000007
 24
6696.197195698487
 34
0.0
 50
90.0
100
AcDbRotatedDimension
1001
ACAD
1000
DSTYLE
1002
{
1070
   341
1005
0
1002
}
  0
DIMENSION
  5
2514C
330
747D
100
AcDbEntity
  8
寸法
 48
50.0
100
AcDbDimension
  2
*D31
 10
5220.665006330073
 20
6498.197195698484
 30
0.0
 11
5220.665006330071
 21
6162.666246855891
 31
0.0
 70
   160
 71
     5
 42
198.0000000000036
  3
INABA_S40G
100
AcDbAlignedDimension
 13
5916.600000000007
 23
6696.197195698487
 33
0.0
 14
5843.600000000001
 24
6498.197195698484
 34
0.0
 50
90.0
100
AcDbRotatedDimension
1001
ACAD
1000
DSTYLE
1002
{
1070
   341
1005
0
1002
}
  0
ARC
  5
2514E
330
747D
100
AcDbEntity
  8
想像線
 48
5.0
100
AcDbCircle
 10
6613.600000000004
 20
6498.197195698487
 30
0.0
 40
720.0
100
AcDbArc
 50
180.0
 51
270.0
  0
DIMENSION
  5
2514F
330
747D
100
AcDbEntity
  8
寸法
 48
50.0
100
AcDbDimension
  2
*D32
 10
5730.512673767881
 20
5778.197195698481
 30
0.0
 11
5730.51267376788
 21
6138.197195698482
 31
0.0
 70
   160
  1
扉の出<>
 71
     5
 42
719.9999999999991
  3
INABA_S40G
100
AcDbAlignedDimension
 13
5843.600000000004
 23
6498.197195698479
 33
0.0
 14
6199.325326928809
 24
5778.19719569848
 34
0.0
 50
90.0
100
AcDbRotatedDimension
1001
ACAD
1000
DSTYLE
1002
{
1070
   341
1005
0
1002
}
  0
LINE
  5
25150
330
747D
100
AcDbEntity
  8
センター
 48
2.0
100
AcDbLine
 10
5916.600000000007
 20
6696.197195698487
 30
0.0
 11
6016.600000000007
 21
6696.197195698487
 31
0.0
  0
CIRCLE
  5
25151
330
747D
100
AcDbEntity
  8
部品1
 48
50.0
100
AcDbCircle
 10
5966.599999999993
 20
6696.197195698487
 30
0.0
 40
35.0
  0
LINE
  5
25152
330
747D
100
AcDbEntity
  8
センター
 48
2.0
100
AcDbLine
 10
5966.600000000007
 20
6746.197195698487
 30
0.0
 11
5966.600000000007
 21
6646.197195698487
 31
0.0
  0
LINE
  5
25153
330
747D
100
AcDbEntity
  8
想像線
 48
5.0
100
AcDbLine
 10
6613.600000000004
 20
6498.197195698498
 30
0.0
 11
6613.600000000004
 21
5778.197195698488
 31
0.0
  0
LINE
  5
25154
330
747D
100
AcDbEntity
  8
細線
 48
50.0
100
AcDbLine
 10
6359.404364949109
 20
6498.197195698466
 30
0.0
 11
6423.599999999996
 21
6562.392830749356
 31
0.0
  0
LINE
  5
25155
330
747D
100
AcDbEntity
  8
細線
 48
50.0
100
AcDbLine
 10
6314.503084343762
 20
6498.197195698466
 30
0.0
 11
6423.599999999996
 21
6607.294111354701
 31
0.0
  0
LINE
  5
25156
330
747D
100
AcDbEntity
  8
細線
 48
50.0
100
AcDbLine
 10
6269.601803738416
 20
6498.197195698466
 30
0.0
 11
6423.599999999993
 21
6652.195391960046
 31
0.0
  0
LINE
  5
25157
330
747D
100
AcDbEntity
  8
細線
 48
50.0
100
AcDbLine
 10
6224.700523133069
 20
6498.197195698463
 30
0.0
 11
6423.599999999993
 21
6697.09667256539
 31
0.0
  0
LINE
  5
25158
330
747D
100
AcDbEntity
  8
細線
 48
50.0
100
AcDbLine
 10
6223.599999999994
 20
6541.997953170735
 30
0.0
 11
6423.599999999993
 21
6741.997953170734
 31
0.0
  0
LINE
  5
25159
330
747D
100
AcDbEntity
  8
部品1
 48
50.0
100
AcDbLine
 10
6223.599999999994
 20
6778.197195698481
 30
0.0
 11
6223.599999999994
 21
6498.197195698463
 31
0.0
  0
LINE
  5
2515A
330
747D
100
AcDbEntity
  8
細線
 48
50.0
100
AcDbLine
 10
6223.599999999991
 20
6676.7017949869
 30
0.0
 11
6325.095400711571
 21
6778.197195698481
 31
0.0
  0
LINE
  5
2515B
330
747D
100
AcDbEntity
  8
細線
 48
50.0
100
AcDbLine
 10
6223.599999999987
 20
6721.603075592246
 30
0.0
 11
6280.194120106227
 21
6778.197195698481
 31
0.0
  0
LINE
  5
2515C
330
747D
100
AcDbEntity
  8
細線
 48
50.0
100
AcDbLine
 10
6223.599999999994
 20
6586.899233776083
 30
0.0
 11
6414.897961922395
 21
6778.197195698483
 31
0.0
  0
LINE
  5
2515D
330
747D
100
AcDbEntity
  8
細線
 48
50.0
100
AcDbLine
 10
6223.599999999994
 20
6631.800514381426
 30
0.0
 11
6369.99668131705
 21
6778.197195698483
 31
0.0
  0
LINE
  5
2515E
330
747D
100
AcDbEntity
  8
部品1
 48
50.0
100
AcDbLine
 10
6423.599999999992
 20
6778.197195698481
 30
0.0
 11
6423.599999999995
 21
6498.197195698466
 31
0.0
  0
LINE
  5
2515F
330
747D
100
AcDbEntity
  8
細線
 48
50.0
100
AcDbLine
 10
6404.305645554456
 20
6498.19719569847
 30
0.0
 11
6423.599999999996
 21
6517.49155014401
 31
0.0
  0
CIRCLE
  5
25160
330
747D
100
AcDbEntity
  8
部品1
 48
50.0
100
AcDbCircle
 10
7630.600000000008
 20
6696.197195698487
 30
0.0
 40
35.0
  0
LINE
  5
25161
330
747D
100
AcDbEntity
  8
センター
 48
2.0
100
AcDbLine
 10
7580.600000000008
 20
6696.197195698487
 30
0.0
 11
7680.600000000008
 21
6696.197195698487
 31
0.0
  0
LINE
  5
2516F
330
747D
100
AcDbEntity
  8
センター
 48
2.0
100
AcDbLine
 10
7630.600000000008
 20
6746.197195698487
 30
0.0
 11
7630.600000000008
 21
6646.197195698487
 31
0.0
  0
DIMENSION
  5
2517C
330
747D
100
AcDbEntity
  8
寸法
 48
50.0
100
AcDbDimension
  2
*D33
 10
5220.665006330072
 20
7335.197195698484
 30
0.0
 11
5220.665006330071
 21
7731.303797416284
 31
0.0
 70
   160
 71
     5
 42
123.0
  3
INABA_S40G
100
AcDbAlignedDimension
 13
5843.600000000001
 23
7458.197195698483
 33
0.0
 14
5916.6
 24
7335.197195698484
 34
0.0
 50
90.0
100
AcDbRotatedDimension
1001
ACAD
1000
DSTYLE
1002
{
1070
   341
1005
0
1002
}
  0
LINE
  5
2517E
330
747D
100
AcDbEntity
  8
部品1
 48
50.0
100
AcDbLine
 10
6898.600000000008
 20
7078.197195698483
 30
0.0
 11
6698.600000000007
 21
7078.197195698483
 31
0.0
  0
LINE
  5
2517F
330
747D
100
AcDbEntity
  8
部品1
 48
50.0
100
AcDbLine
 10
6898.600000000008
 20
6878.197195698483
 30
0.0
 11
6698.600000000007
 21
6878.197195698483
 31
0.0
  0
LINE
  5
25180
330
747D
100
AcDbEntity
  8
センター
 48
2.0
100
AcDbLine
 10
6748.600000000007
 20
6978.197195698483
 30
0.0
 11
6848.600000000008
 21
6978.197195698483
 31
0.0
  0
DIMENSION
  5
25181
330
747D
100
AcDbEntity
  8
寸法
 48
50.0
100
AcDbDimension
  2
*D34
 10
6798.600000000007
 20
7940.806012368732
 30
0.0
 11
7273.600000000008
 21
8040.806012368731
 31
0.0
 70
    32
 71
     5
 42
950.0
  3
INABA_S40G
100
AcDbAlignedDimension
 13
7748.600000000007
 23
7028.197195698483
 33
0.0
 14
6798.600000000007
 24
7028.197195698483
 34
0.0
100
AcDbRotatedDimension
1001
ACAD
1000
DSTYLE
1002
{
1070
   341
1005
0
1002
}
  0
DIMENSION
  5
25182
330
747D
100
AcDbEntity
  8
寸法
 48
50.0
100
AcDbDimension
  2
*D35
 10
5966.6
 20
8184.463653792395
 30
0.0
 11
6798.6
 21
8284.463653792395
 31
0.0
 70
    32
 71
     5
 42
1664.0
  3
INABA_S40G
100
AcDbAlignedDimension
 13
7630.600000000001
 23
7385.197195698484
 33
0.0
 14
5966.6
 24
7385.197195698484
 34
0.0
100
AcDbRotatedDimension
1001
ACAD
1000
DSTYLE
1002
{
1070
   341
1005
0
1002
}
  0
DIMENSION
  5
25183
330
747D
100
AcDbEntity
  8
寸法
 48
50.0
100
AcDbDimension
  2
*D36
 10
5843.600000000001
 20
7940.806012368732
 30
0.0
 11
6321.100000000004
 21
8040.806012368731
 31
0.0
 70
    32
 71
     5
 42
955.0000000000073
  3
INABA_S40G
100
AcDbAlignedDimension
 13
6798.600000000007
 23
7028.197195698483
 33
0.0
 14
5843.600000000001
 24
7458.197195698483
 34
0.0
100
AcDbRotatedDimension
1001
ACAD
1000
DSTYLE
1002
{
1070
   341
1005
0
1002
}
  0
DIMENSION
  5
25184
330
747D
100
AcDbEntity
  8
寸法
 48
50.0
100
AcDbDimension
  2
*D37
 10
5843.600000000001
 20
8184.463653792395
 30
0.0
 11
5570.493398282202
 21
8184.463653792395
 31
0.0
 70
   160
 71
     5
 42
123.0
  3
INABA_S40G
100
AcDbAlignedDimension
 13
5966.6
 23
7385.197195698484
 33
0.0
 14
5843.600000000001
 24
7458.197195698483
 34
0.0
100
AcDbRotatedDimension
1001
ACAD
1000
DSTYLE
1002
{
1070
   341
1005
0
1002
}
  0
LINE
  5
25186
330
747D
100
AcDbEntity
  8
センター
 48
2.0
100
AcDbLine
 10
5916.6
 20
7335.197195698484
 30
0.0
 11
6016.6
 21
7335.197195698484
 31
0.0
  0
CIRCLE
  5
25187
330
747D
100
AcDbEntity
  8
部品1
 48
50.0
100
AcDbCircle
 10
5966.6
 20
7335.197195698484
 30
0.0
 40
35.0
  0
LINE
  5
25188
330
747D
100
AcDbEntity
  8
細線
 48
50.0
100
AcDbLine
 10
5936.082594658244
 20
6903.197195698467
 30
0.0
 11
5963.6
 21
6930.714601040216
 31
0.0
  0
LINE
  5
25189
330
747D
100
AcDbEntity
  8
細線
 48
50.0
100
AcDbLine
 10
5891.181314052901
 20
6903.197195698469
 30
0.0
 11
5963.6
 21
6975.615881645564
 31
0.0
  0
LINE
  5
2518A
330
747D
100
AcDbEntity
  8
細線
 48
50.0
100
AcDbLine
 10
5846.280033447555
 20
6903.197195698469
 30
0.0
 11
5963.599999999999
 21
7020.517162250913
 31
0.0
  0
LINE
  5
2518B
330
747D
100
AcDbEntity
  8
細線
 48
50.0
100
AcDbLine
 10
5843.599999999997
 20
6945.418442856255
 30
0.0
 11
5963.599999999997
 21
7065.418442856257
 31
0.0
  0
LINE
  5
2518C
330
747D
100
AcDbEntity
  8
細線
 48
50.0
100
AcDbLine
 10
5843.599999999997
 20
6990.319723461602
 30
0.0
 11
5956.477472236866
 21
7103.19719569847
 31
0.0
  0
LINE
  5
2518D
330
747D
100
AcDbEntity
  8
細線
 48
50.0
100
AcDbLine
 10
5843.599999999995
 20
7035.221004066947
 30
0.0
 11
5911.576191631517
 21
7103.197195698467
 31
0.0
  0
LINE
  5
2518E
330
747D
100
AcDbEntity
  8
細線
 48
50.0
100
AcDbLine
 10
5843.599999999997
 20
7080.122284672292
 30
0.0
 11
5866.674911026173
 21
7103.197195698469
 31
0.0
  0
LINE
  5
2518F
330
747D
100
AcDbEntity
  8
部品1
 48
50.0
100
AcDbLine
 10
5963.599999999997
 20
7103.19719569847
 30
0.0
 11
5843.599999999995
 21
7103.197195698469
 31
0.0
  0
LINE
  5
25190
330
747D
100
AcDbEntity
  8
部品1
 48
50.0
100
AcDbLine
 10
5963.6
 20
6903.197195698469
 30
0.0
 11
5843.599999999995
 21
6903.197195698469
 31
0.0
  0
LINE
  5
25191
330
747D
100
AcDbEntity
  8
センター
 48
2.0
100
AcDbLine
 10
5966.6
 20
7385.197195698484
 30
0.0
 11
5966.6
 21
7285.197195698484
 31
0.0
  0
LINE
  5
25192
330
747D
100
AcDbEntity
  8
細線
 48
50.0
100
AcDbLine
 10
6223.599999999997
 20
7260.418442856269
 30
0.0
 11
6421.378752842191
 21
7458.197195698463
 31
0.0
  0
LINE
  5
25193
330
747D
100
AcDbEntity
  8
細線
 48
50.0
100
AcDbLine
 10
6223.599999999997
 20
7305.319723461616
 30
0.0
 11
6376.477472236843
 21
7458.197195698463
 31
0.0
  0
LINE
  5
25194
330
747D
100
AcDbEntity
  8
細線
 48
50.0
100
AcDbLine
 10
6223.599999999997
 20
7350.221004066959
 30
0.0
 11
6331.576191631499
 21
7458.197195698463
 31
0.0
  0
LINE
  5
25195
330
747D
100
AcDbEntity
  8
細線
 48
50.0
100
AcDbLine
 10
6223.599999999994
 20
7395.122284672307
 30
0.0
 11
6286.674911026153
 21
7458.197195698463
 31
0.0
  0
LINE
  5
25196
330
747D
100
AcDbEntity
  8
部品1
 48
50.0
100
AcDbLine
 10
6423.599999999993
 20
7458.197195698463
 30
0.0
 11
6423.599999999996
 21
7258.197195698483
 31
0.0
  0
LINE
  5
25197
330
747D
100
AcDbEntity
  8
部品1
 48
50.0
100
AcDbLine
 10
6223.599999999994
 20
7458.197195698463
 30
0.0
 11
6223.599999999997
 21
7258.197195698483
 31
0.0
  0
DIMENSION
  5
25198
330
747D
100
AcDbEntity
  8
寸法
 48
50.0
100
AcDbDimension
  2
*D38
 10
6326.285990614302
 20
7458.197195698483
 30
0.0
 11
6326.285990614301
 21
7750.756250816596
 31
0.0
 70
   160
 71
     5
 42
480.0
  3
INABA_S40G
100
AcDbAlignedDimension
 13
6748.600000000007
 23
6978.197195698483
 33
0.0
 14
6417.765475140901
 24
7458.197195698483
 34
0.0
 50
90.0
100
AcDbRotatedDimension
1001
ACAD
1000
DSTYLE
1002
{
1070
   341
1005
0
1002
}
  0
LINE
  5
25199
330
747D
100
AcDbEntity
  8
細線
 48
50.0
100
AcDbLine
 10
6356.08259465823
 20
7258.197195698584
 30
0.0
 11
6423.599999999995
 21
7325.714601040345
 31
0.0
  0
LINE
  5
2519A
330
747D
100
AcDbEntity
  8
細線
 48
50.0
100
AcDbLine
 10
6311.181314052902
 20
7258.197195698482
 30
0.0
 11
6423.599999999995
 21
7370.615881645576
 31
0.0
  0
LINE
  5
2519B
330
747D
100
AcDbEntity
  8
細線
 48
50.0
100
AcDbLine
 10
6266.28003344755
 20
7258.197195698482
 30
0.0
 11
6423.599999999993
 21
7415.51716225092
 31
0.0
  0
LINE
  5
2519C
330
747D
100
AcDbEntity
  8
部品1
 48
50.0
100
AcDbLine
 10
6698.600000000007
 20
6878.197195698483
 30
0.0
 11
6698.600000000007
 21
7078.197195698483
 31
0.0
  0
LINE
  5
2519D
330
747D
100
AcDbEntity
  8
センター
 48
2.0
100
AcDbLine
 10
6798.600000000007
 20
7028.197195698483
 30
0.0
 11
6798.600000000007
 21
6928.197195698484
 31
0.0
  0
LINE
  5
2519E
330
747D
100
AcDbEntity
  8
細線
 48
50.0
100
AcDbLine
 10
6400.983875263588
 20
7258.197195698584
 30
0.0
 11
6423.599999999995
 21
7280.813320434996
 31
0.0
  0
LINE
  5
2519F
330
747D
100
AcDbEntity
  8
細線
 48
50.0
100
AcDbLine
 10
6223.599999999994
 20
7440.02356527765
 30
0.0
 11
6241.773630420809
 21
7458.197195698463
 31
0.0
  0
LINE
  5
251A0
330
747D
100
AcDbEntity
  8
センター
 48
2.0
100
AcDbLine
 10
7580.600000000001
 20
7335.197195698484
 30
0.0
 11
7680.600000000001
 21
7335.197195698484
 31
0.0
  0
CIRCLE
  5
251A1
330
747D
100
AcDbEntity
  8
部品1
 48
50.0
100
AcDbCircle
 10
7630.600000000001
 20
7335.197195698484
 30
0.0
 40
35.0
  0
LINE
  5
251A2
330
747D
100
AcDbEntity
  8
細線
 48
50.0
100
AcDbLine
 10
7173.599999999997
 20
7260.418442856269
 30
0.0
 11
7371.37875284219
 21
7458.197195698463
 31
0.0
  0
LINE
  5
251A3
330
747D
100
AcDbEntity
  8
細線
 48
50.0
100
AcDbLine
 10
7173.599999999997
 20
7305.319723461616
 30
0.0
 11
7326.477472236844
 21
7458.197195698463
 31
0.0
  0
LINE
  5
251A4
330
747D
100
AcDbEntity
  8
細線
 48
50.0
100
AcDbLine
 10
7173.599999999997
 20
7350.221004066959
 30
0.0
 11
7281.576191631498
 21
7458.197195698463
 31
0.0
  0
LINE
  5
251A5
330
747D
100
AcDbEntity
  8
細線
 48
50.0
100
AcDbLine
 10
7173.599999999993
 20
7395.122284672307
 30
0.0
 11
7236.674911026153
 21
7458.197195698463
 31
0.0
  0
LINE
  5
251A6
330
747D
100
AcDbEntity
  8
部品1
 48
50.0
100
AcDbLine
 10
7373.599999999993
 20
7458.197195698463
 30
0.0
 11
7373.6
 21
7258.197195698483
 31
0.0
  0
LINE
  5
251A7
330
747D
100
AcDbEntity
  8
部品1
 48
50.0
100
AcDbLine
 10
7173.599999999993
 20
7458.197195698463
 30
0.0
 11
7173.599999999997
 21
7258.197195698483
 31
0.0
  0
LINE
  5
251A9
330
747D
100
AcDbEntity
  8
部品1
 48
50.0
100
AcDbLine
 10
6898.600000000008
 20
6878.197195698483
 30
0.0
 11
6898.600000000008
 21
7078.197195698483
 31
0.0
  0
LINE
  5
251AA
330
747D
100
AcDbEntity
  8
細線
 48
50.0
100
AcDbLine
 10
7306.082594658227
 20
7258.197195698584
 30
0.0
 11
7373.599999999988
 21
7325.714601040345
 31
0.0
  0
LINE
  5
251AB
330
747D
100
AcDbEntity
  8
細線
 48
50.0
100
AcDbLine
 10
7350.98387526358
 20
7258.197195698584
 30
0.0
 11
7373.599999999988
 21
7280.813320434996
 31
0.0
  0
LINE
  5
251AC
330
747D
100
AcDbEntity
  8
細線
 48
50.0
100
AcDbLine
 10
7261.181314052918
 20
7258.197195698483
 30
0.0
 11
7373.599999999997
 21
7370.61588164558
 31
0.0
  0
LINE
  5
251AD
330
747D
100
AcDbEntity
  8
細線
 48
50.0
100
AcDbLine
 10
7216.28003344755
 20
7258.197195698483
 30
0.0
 11
7373.599999999995
 21
7415.517162250923
 31
0.0
  0
LINE
  5
251AE
330
747D
100
AcDbEntity
  8
細線
 48
50.0
100
AcDbLine
 10
7173.599999999993
 20
7440.02356527765
 30
0.0
 11
7191.773630420809
 21
7458.197195698463
 31
0.0
  0
LINE
  5
251AF
330
747D
100
AcDbEntity
  8
細線
 48
50.0
100
AcDbLine
 10
8123.600000000001
 20
7260.418442856279
 30
0.0
 11
8321.378752842191
 21
7458.197195698467
 31
0.0
  0
LINE
  5
251B0
330
747D
100
AcDbEntity
  8
細線
 48
50.0
100
AcDbLine
 10
8123.599999999999
 20
7305.319723461621
 30
0.0
 11
8276.477472236845
 21
7458.197195698467
 31
0.0
  0
LINE
  5
251B1
330
747D
100
AcDbEntity
  8
細線
 48
50.0
100
AcDbLine
 10
8123.599999999997
 20
7350.221004066965
 30
0.0
 11
8231.576191631498
 21
7458.197195698467
 31
0.0
  0
LINE
  5
251B2
330
747D
100
AcDbEntity
  8
細線
 48
50.0
100
AcDbLine
 10
8123.599999999997
 20
7395.12228467231
 30
0.0
 11
8186.674911026154
 21
7458.197195698467
 31
0.0
  0
LINE
  5
251B3
330
747D
100
AcDbEntity
  8
部品1
 48
50.0
100
AcDbLine
 10
8323.599999999993
 20
7458.197195698467
 30
0.0
 11
8323.6
 21
7258.197195698483
 31
0.0
  0
LINE
  5
251B4
330
747D
100
AcDbEntity
  8
部品1
 48
50.0
100
AcDbLine
 10
8123.599999999994
 20
7458.197195698467
 30
0.0
 11
8123.600000000001
 21
7258.197195698483
 31
0.0
  0
LINE
  5
251B5
330
747D
100
AcDbEntity
  8
部品1
 48
50.0
100
AcDbLine
 10
7848.600000000008
 20
7078.197195698483
 30
0.0
 11
7648.600000000008
 21
7078.197195698483
 31
0.0
  0
LINE
  5
251B6
330
747D
100
AcDbEntity
  8
部品1
 48
50.0
100
AcDbLine
 10
7848.600000000008
 20
6878.197195698483
 30
0.0
 11
7648.600000000008
 21
6878.197195698483
 31
0.0
  0
LINE
  5
251B7
330
747D
100
AcDbEntity
  8
部品1
 48
50.0
100
AcDbLine
 10
7648.600000000008
 20
6878.197195698483
 30
0.0
 11
7648.600000000008
 21
7078.197195698483
 31
0.0
  0
LINE
  5
251B8
330
747D
100
AcDbEntity
  8
センター
 48
2.0
100
AcDbLine
 10
7698.600000000007
 20
6978.197195698483
 30
0.0
 11
7798.600000000007
 21
6978.197195698483
 31
0.0
  0
LINE
  5
251B9
330
747D
100
AcDbEntity
  8
センター
 48
2.0
100
AcDbLine
 10
7748.600000000007
 20
7028.197195698483
 30
0.0
 11
7748.600000000007
 21
6928.197195698484
 31
0.0
  0
LINE
  5
251BA
330
747D
100
AcDbEntity
  8
部品1
 48
50.0
100
AcDbLine
 10
7848.600000000008
 20
6878.197195698483
 30
0.0
 11
7848.600000000008
 21
7078.197195698483
 31
0.0
  0
LINE
  5
251BB
330
747D
100
AcDbEntity
  8
センター
 48
2.0
100
AcDbLine
 10
7630.600000000001
 20
7385.197195698484
 30
0.0
 11
7630.600000000001
 21
7285.197195698484
 31
0.0
  0
LINE
  5
251BC
330
747D
100
AcDbEntity
  8
細線
 48
50.0
100
AcDbLine
 10
8211.181314052913
 20
7258.197195698483
 30
0.0
 11
8323.599999999997
 21
7370.615881645583
 31
0.0
  0
LINE
  5
251BD
330
747D
100
AcDbEntity
  8
細線
 48
50.0
100
AcDbLine
 10
8166.280033447549
 20
7258.197195698483
 30
0.0
 11
8323.599999999995
 21
7415.517162250925
 31
0.0
  0
LINE
  5
251BE
330
747D
100
AcDbEntity
  8
細線
 48
50.0
100
AcDbLine
 10
8300.983875263581
 20
7258.197195698592
 30
0.0
 11
8323.599999999988
 21
7280.813320435005
 31
0.0
  0
LINE
  5
251BF
330
747D
100
AcDbEntity
  8
細線
 48
50.0
100
AcDbLine
 10
8256.082594658227
 20
7258.197195698592
 30
0.0
 11
8323.599999999988
 21
7325.714601040354
 31
0.0
  0
LINE
  5
251C0
330
747D
100
AcDbEntity
  8
細線
 48
50.0
100
AcDbLine
 10
8123.599999999994
 20
7440.023565277654
 30
0.0
 11
8141.773630420809
 21
7458.197195698467
 31
0.0
  0
LINE
  5
251C5
330
747D
100
AcDbEntity
  8
部品1
 48
50.0
100
AcDbLine
 10
10603.6
 20
6498.197195698502
 30
0.0
 11
10603.6
 21
7458.197195698483
 31
0.0
  0
LINE
  5
251DE
330
747D
100
AcDbEntity
  8
センター
 48
2.0
100
AcDbLine
 10
10430.6
 20
6696.197195698487
 30
0.0
 11
10530.6
 21
6696.197195698487
 31
0.0
  0
CIRCLE
  5
251DF
330
747D
100
AcDbEntity
  8
部品1
 48
50.0
100
AcDbCircle
 10
10480.60000000001
 20
6696.197195698487
 30
0.0
 40
35.0
  0
LINE
  5
251E4
330
747D
100
AcDbEntity
  8
センター
 48
2.0
100
AcDbLine
 10
10480.60000000001
 20
6746.197195698487
 30
0.0
 11
10480.60000000001
 21
6646.197195698487
 31
0.0
  0
LINE
  5
251E5
330
747D
100
AcDbEntity
  8
細線
 48
50.0
100
AcDbLine
 10
10066.28003344753
 20
7258.197195698483
 30
0.0
 11
10223.59999999999
 21
7415.517162250946
 31
0.0
  0
LINE
  5
251E6
330
747D
100
AcDbEntity
  8
細線
 48
50.0
100
AcDbLine
 10
10023.6
 20
7260.418442856293
 30
0.0
 11
10221.37875284219
 21
7458.197195698488
 31
0.0
  0
LINE
  5
251E7
330
747D
100
AcDbEntity
  8
細線
 48
50.0
100
AcDbLine
 10
10023.59999999999
 20
7305.319723461638
 30
0.0
 11
10176.47747223684
 21
7458.197195698488
 31
0.0
  0
LINE
  5
251E8
330
747D
100
AcDbEntity
  8
細線
 48
50.0
100
AcDbLine
 10
10023.59999999999
 20
7350.221004066985
 30
0.0
 11
10131.5761916315
 21
7458.197195698488
 31
0.0
  0
LINE
  5
251E9
330
747D
100
AcDbEntity
  8
細線
 48
50.0
100
AcDbLine
 10
10023.59999999999
 20
7395.122284672332
 30
0.0
 11
10086.67491102615
 21
7458.197195698488
 31
0.0
  0
DIMENSION
  5
251EA
330
747D
100
AcDbEntity
  8
寸法
 48
50.0
100
AcDbDimension
  2
*D39
 10
9648.600000000008
 20
7940.806012368732
 30
0.0
 11
10126.1
 21
8040.806012368731
 31
0.0
 70
    32
 71
     5
 42
954.9999999999927
  3
INABA_S40G
100
AcDbAlignedDimension
 13
10603.6
 23
7458.197195698483
 33
0.0
 14
9648.600000000008
 24
7028.197195698483
 34
0.0
100
AcDbRotatedDimension
1001
ACAD
1000
DSTYLE
1002
{
1070
   341
1005
0
1002
}
  0
DIMENSION
  5
251EB
330
747D
100
AcDbEntity
  8
寸法
 48
50.0
100
AcDbDimension
  2
*D40
 10
8698.600000000007
 20
7940.806012368732
 30
0.0
 11
9173.600000000007
 21
8040.806012368731
 31
0.0
 70
    32
 71
     5
 42
950.0
  3
INABA_S40G
100
AcDbAlignedDimension
 13
9648.600000000008
 23
7028.197195698483
 33
0.0
 14
8698.600000000007
 24
7028.197195698483
 34
0.0
100
AcDbRotatedDimension
1001
ACAD
1000
DSTYLE
1002
{
1070
   341
1005
0
1002
}
  0
LINE
  5
251EC
330
747D
100
AcDbEntity
  8
細線
 48
50.0
100
AcDbLine
 10
9250.98387526358
 20
7258.197195698592
 30
0.0
 11
9273.599999999985
 21
7280.813320435005
 31
0.0
  0
LINE
  5
251ED
330
747D
100
AcDbEntity
  8
細線
 48
50.0
100
AcDbLine
 10
9206.082594658223
 20
7258.197195698592
 30
0.0
 11
9273.599999999985
 21
7325.714601040354
 31
0.0
  0
LINE
  5
251EE
330
747D
100
AcDbEntity
  8
細線
 48
50.0
100
AcDbLine
 10
9161.181314052878
 20
7258.197195698482
 30
0.0
 11
9273.599999999992
 21
7370.615881645597
 31
0.0
  0
LINE
  5
251EF
330
747D
100
AcDbEntity
  8
細線
 48
50.0
100
AcDbLine
 10
9116.280033447527
 20
7258.197195698482
 30
0.0
 11
9273.599999999992
 21
7415.517162250942
 31
0.0
  0
LINE
  5
251F0
330
747D
100
AcDbEntity
  8
細線
 48
50.0
100
AcDbLine
 10
9073.599999999997
 20
7260.418442856295
 30
0.0
 11
9271.378752842187
 21
7458.197195698483
 31
0.0
  0
LINE
  5
251F1
330
747D
100
AcDbEntity
  8
細線
 48
50.0
100
AcDbLine
 10
9073.599999999993
 20
7305.319723461638
 30
0.0
 11
9226.477472236842
 21
7458.197195698486
 31
0.0
  0
LINE
  5
251F2
330
747D
100
AcDbEntity
  8
細線
 48
50.0
100
AcDbLine
 10
9073.599999999993
 20
7350.221004066982
 30
0.0
 11
9181.576191631497
 21
7458.197195698486
 31
0.0
  0
LINE
  5
251F3
330
747D
100
AcDbEntity
  8
細線
 48
50.0
100
AcDbLine
 10
9073.599999999993
 20
7395.122284672329
 30
0.0
 11
9136.674911026153
 21
7458.197195698487
 31
0.0
  0
LINE
  5
251F4
330
747D
100
AcDbEntity
  8
部品1
 48
50.0
100
AcDbLine
 10
9073.59999999999
 20
7458.197195698486
 30
0.0
 11
9073.599999999997
 21
7258.197195698483
 31
0.0
  0
LINE
  5
251F5
330
747D
100
AcDbEntity
  8
センター
 48
2.0
100
AcDbLine
 10
8648.600000000007
 20
6978.197195698483
 30
0.0
 11
8748.600000000008
 21
6978.197195698483
 31
0.0
  0
LINE
  5
251F6
330
747D
100
AcDbEntity
  8
部品1
 48
50.0
100
AcDbLine
 10
8798.600000000007
 20
6878.197195698483
 30
0.0
 11
8598.600000000008
 21
6878.197195698483
 31
0.0
  0
LINE
  5
251F7
330
747D
100
AcDbEntity
  8
部品1
 48
50.0
100
AcDbLine
 10
8798.600000000007
 20
7078.197195698483
 30
0.0
 11
8598.600000000008
 21
7078.197195698483
 31
0.0
  0
LINE
  5
251F8
330
747D
100
AcDbEntity
  8
部品1
 48
50.0
100
AcDbLine
 10
8598.600000000008
 20
6878.197195698483
 30
0.0
 11
8598.600000000008
 21
7078.197195698483
 31
0.0
  0
LINE
  5
251F9
330
747D
100
AcDbEntity
  8
部品1
 48
50.0
100
AcDbLine
 10
8798.600000000007
 20
6878.197195698483
 30
0.0
 11
8798.600000000007
 21
7078.197195698483
 31
0.0
  0
LINE
  5
251FA
330
747D
100
AcDbEntity
  8
センター
 48
2.0
100
AcDbLine
 10
8698.600000000007
 20
7028.197195698483
 30
0.0
 11
8698.600000000007
 21
6928.197195698484
 31
0.0
  0
LINE
  5
251FB
330
747D
100
AcDbEntity
  8
細線
 48
50.0
100
AcDbLine
 10
9073.599999999991
 20
7440.023565277671
 30
0.0
 11
9091.773630420806
 21
7458.197195698486
 31
0.0
  0
LINE
  5
251FC
330
747D
100
AcDbEntity
  8
部品1
 48
50.0
100
AcDbLine
 10
10023.59999999999
 20
7458.197195698488
 30
0.0
 11
10023.6
 21
7258.197195698482
 31
0.0
  0
LINE
  5
251FD
330
747D
100
AcDbEntity
  8
部品1
 48
50.0
100
AcDbLine
 10
9273.599999999989
 20
7458.197195698486
 30
0.0
 11
9273.599999999998
 21
7258.197195698483
 31
0.0
  0
LINE
  5
251FE
330
747D
100
AcDbEntity
  8
センター
 48
2.0
100
AcDbLine
 10
9598.600000000008
 20
6978.197195698483
 30
0.0
 11
9698.600000000007
 21
6978.197195698483
 31
0.0
  0
LINE
  5
251FF
330
747D
100
AcDbEntity
  8
部品1
 48
50.0
100
AcDbLine
 10
9748.600000000008
 20
6878.197195698483
 30
0.0
 11
9548.600000000007
 21
6878.197195698483
 31
0.0
  0
LINE
  5
25200
330
747D
100
AcDbEntity
  8
部品1
 48
50.0
100
AcDbLine
 10
9748.600000000008
 20
7078.197195698483
 30
0.0
 11
9548.600000000007
 21
7078.197195698483
 31
0.0
  0
LINE
  5
25201
330
747D
100
AcDbEntity
  8
センター
 48
2.0
100
AcDbLine
 10
9648.600000000008
 20
7028.197195698483
 30
0.0
 11
9648.600000000008
 21
6928.197195698484
 31
0.0
  0
LINE
  5
25202
330
747D
100
AcDbEntity
  8
部品1
 48
50.0
100
AcDbLine
 10
9548.600000000007
 20
6878.197195698483
 30
0.0
 11
9548.600000000007
 21
7078.197195698483
 31
0.0
  0
LINE
  5
25203
330
747D
100
AcDbEntity
  8
部品1
 48
50.0
100
AcDbLine
 10
9748.600000000008
 20
6878.197195698483
 30
0.0
 11
9748.600000000008
 21
7078.197195698483
 31
0.0
  0
LINE
  5
25204
330
747D
100
AcDbEntity
  8
細線
 48
50.0
100
AcDbLine
 10
10023.59999999999
 20
7440.023565277676
 30
0.0
 11
10041.77363042081
 21
7458.197195698488
 31
0.0
  0
DIMENSION
  5
25206
330
747D
100
AcDbEntity
  8
寸法
 48
50.0
100
AcDbDimension
  2
*D41
 10
10480.6
 20
8184.463653792395
 30
0.0
 11
10876.7066017178
 21
8184.463653792395
 31
0.0
 70
   160
 71
     5
 42
123.0
  3
INABA_S40G
100
AcDbAlignedDimension
 13
10603.6
 23
7458.197195698483
 33
0.0
 14
10480.6
 24
7385.197195698484
 34
0.0
100
AcDbRotatedDimension
1001
ACAD
1000
DSTYLE
1002
{
1070
   341
1005
0
1002
}
  0
LINE
  5
25208
330
747D
100
AcDbEntity
  8
部品1
 48
50.0
100
AcDbLine
 10
10223.59999999999
 20
7458.197195698488
 30
0.0
 11
10223.6
 21
7258.197195698482
 31
0.0
  0
CIRCLE
  5
25209
330
747D
100
AcDbEntity
  8
部品1
 48
50.0
100
AcDbCircle
 10
10480.6
 20
7335.197195698484
 30
0.0
 40
35.0
  0
LINE
  5
2520A
330
747D
100
AcDbEntity
  8
センター
 48
2.0
100
AcDbLine
 10
10430.6
 20
7335.197195698484
 30
0.0
 11
10530.6
 21
7335.197195698484
 31
0.0
  0
LINE
  5
2520B
330
747D
100
AcDbEntity
  8
細線
 48
50.0
100
AcDbLine
 10
10156.08259465823
 20
7258.197195698592
 30
0.0
 11
10223.59999999999
 21
7325.714601040354
 31
0.0
  0
LINE
  5
2520C
330
747D
100
AcDbEntity
  8
細線
 48
50.0
100
AcDbLine
 10
10200.98387526358
 20
7258.197195698592
 30
0.0
 11
10223.59999999999
 21
7280.813320435005
 31
0.0
  0
LINE
  5
2520D
330
747D
100
AcDbEntity
  8
細線
 48
50.0
100
AcDbLine
 10
10111.18131405287
 20
7258.197195698482
 30
0.0
 11
10223.59999999999
 21
7370.615881645601
 31
0.0
  0
LINE
  5
2520E
330
747D
100
AcDbEntity
  8
センター
 48
2.0
100
AcDbLine
 10
10480.6
 20
7385.197195698484
 30
0.0
 11
10480.6
 21
7285.197195698484
 31
0.0
  0
LINE
  5
2520F
330
747D
100
AcDbEntity
  8
細線
 48
50.0
100
AcDbLine
 10
10596.08259465824
 20
6903.197195698488
 30
0.0
 11
10603.59999999999
 21
6910.714601040239
 31
0.0
  0
LINE
  5
25210
330
747D
100
AcDbEntity
  8
細線
 48
50.0
100
AcDbLine
 10
10551.1813140529
 20
6903.197195698493
 30
0.0
 11
10603.59999999999
 21
6955.615881645586
 31
0.0
  0
LINE
  5
25211
330
747D
100
AcDbEntity
  8
細線
 48
50.0
100
AcDbLine
 10
10506.28003344755
 20
6903.197195698493
 30
0.0
 11
10603.59999999999
 21
7000.517162250933
 31
0.0
  0
LINE
  5
25212
330
747D
100
AcDbEntity
  8
細線
 48
50.0
100
AcDbLine
 10
10483.6
 20
6925.418442856285
 30
0.0
 11
10603.59999999999
 21
7045.418442856277
 31
0.0
  0
LINE
  5
25213
330
747D
100
AcDbEntity
  8
細線
 48
50.0
100
AcDbLine
 10
10483.6
 20
6970.319723461632
 30
0.0
 11
10603.59999999999
 21
7090.319723461624
 31
0.0
  0
LINE
  5
25214
330
747D
100
AcDbEntity
  8
細線
 48
50.0
100
AcDbLine
 10
10483.6
 20
7015.221004066979
 30
0.0
 11
10571.57619163151
 21
7103.19719569849
 31
0.0
  0
LINE
  5
25215
330
747D
100
AcDbEntity
  8
細線
 48
50.0
100
AcDbLine
 10
10483.6
 20
7060.122284672323
 30
0.0
 11
10526.67491102617
 21
7103.197195698493
 31
0.0
  0
LINE
  5
25216
330
747D
100
AcDbEntity
  8
部品1
 48
50.0
100
AcDbLine
 10
10603.59999999999
 20
7103.197195698493
 30
0.0
 11
10483.6
 21
7103.197195698493
 31
0.0
  0
LINE
  5
25217
330
747D
100
AcDbEntity
  8
部品1
 48
50.0
100
AcDbLine
 10
10603.59999999999
 20
6903.197195698493
 30
0.0
 11
10483.6
 21
6903.197195698493
 31
0.0
  0
TEXT
  5
257E3
330
747D
100
AcDbEntity
  8
文字
 62
     7
 48
50.0
100
AcDbText
 10
14251.2
 20
838.2527270729188
 30
0.0
 40
100.0
  1
～一般型・多雪地型・豪雪地型～
  7
STYLE2
100
AcDbText
  0
LINE
  5
25803
330
747D
100
AcDbEntity
  8
部品1
 48
50.0
100
AcDbLine
 10
10483.6
 20
6778.197195698504
 30
0.0
 11
5963.6
 21
6778.197195698479
 31
0.0
  0
LINE
  5
25834
330
747D
100
AcDbEntity
  8
細線
 48
50.0
100
AcDbLine
 10
7354.305645554456
 20
6498.19719569847
 30
0.0
 11
7373.599999999997
 21
6517.49155014401
 31
0.0
  0
LINE
  5
25835
330
747D
100
AcDbEntity
  8
部品1
 48
50.0
100
AcDbLine
 10
7373.599999999992
 20
6778.197195698481
 30
0.0
 11
7373.599999999995
 21
6498.197195698466
 31
0.0
  0
LINE
  5
25836
330
747D
100
AcDbEntity
  8
細線
 48
50.0
100
AcDbLine
 10
7173.599999999993
 20
6631.800514381426
 30
0.0
 11
7319.996681317049
 21
6778.197195698483
 31
0.0
  0
LINE
  5
25837
330
747D
100
AcDbEntity
  8
細線
 48
50.0
100
AcDbLine
 10
7173.599999999993
 20
6586.899233776083
 30
0.0
 11
7364.897961922395
 21
6778.197195698483
 31
0.0
  0
LINE
  5
25838
330
747D
100
AcDbEntity
  8
細線
 48
50.0
100
AcDbLine
 10
7173.599999999987
 20
6721.603075592246
 30
0.0
 11
7230.194120106226
 21
6778.197195698481
 31
0.0
  0
LINE
  5
25839
330
747D
100
AcDbEntity
  8
細線
 48
50.0
100
AcDbLine
 10
7173.599999999992
 20
6676.7017949869
 30
0.0
 11
7275.095400711572
 21
6778.197195698481
 31
0.0
  0
LINE
  5
2583A
330
747D
100
AcDbEntity
  8
部品1
 48
50.0
100
AcDbLine
 10
7173.599999999995
 20
6778.197195698481
 30
0.0
 11
7173.599999999995
 21
6498.197195698463
 31
0.0
  0
LINE
  5
2583B
330
747D
100
AcDbEntity
  8
細線
 48
50.0
100
AcDbLine
 10
7173.599999999993
 20
6541.997953170735
 30
0.0
 11
7373.599999999993
 21
6741.997953170734
 31
0.0
  0
LINE
  5
2583C
330
747D
100
AcDbEntity
  8
細線
 48
50.0
100
AcDbLine
 10
7174.70052313307
 20
6498.197195698463
 30
0.0
 11
7373.599999999993
 21
6697.09667256539
 31
0.0
  0
LINE
  5
2583D
330
747D
100
AcDbEntity
  8
細線
 48
50.0
100
AcDbLine
 10
7219.601803738417
 20
6498.197195698466
 30
0.0
 11
7373.599999999993
 21
6652.195391960046
 31
0.0
  0
LINE
  5
2583E
330
747D
100
AcDbEntity
  8
細線
 48
50.0
100
AcDbLine
 10
7264.503084343762
 20
6498.197195698466
 30
0.0
 11
7373.599999999997
 21
6607.294111354701
 31
0.0
  0
LINE
  5
2583F
330
747D
100
AcDbEntity
  8
細線
 48
50.0
100
AcDbLine
 10
7309.404364949108
 20
6498.197195698466
 30
0.0
 11
7373.599999999997
 21
6562.392830749356
 31
0.0
  0
LINE
  5
25840
330
747D
100
AcDbEntity
  8
細線
 48
50.0
100
AcDbLine
 10
8304.305645554455
 20
6498.19719569847
 30
0.0
 11
8323.599999999997
 21
6517.49155014401
 31
0.0
  0
LINE
  5
25841
330
747D
100
AcDbEntity
  8
部品1
 48
50.0
100
AcDbLine
 10
8323.599999999991
 20
6778.197195698481
 30
0.0
 11
8323.599999999995
 21
6498.197195698466
 31
0.0
  0
LINE
  5
25842
330
747D
100
AcDbEntity
  8
細線
 48
50.0
100
AcDbLine
 10
8123.599999999994
 20
6631.800514381426
 30
0.0
 11
8269.996681317051
 21
6778.197195698483
 31
0.0
  0
LINE
  5
25843
330
747D
100
AcDbEntity
  8
細線
 48
50.0
100
AcDbLine
 10
8123.599999999994
 20
6586.899233776083
 30
0.0
 11
8314.897961922396
 21
6778.197195698483
 31
0.0
  0
LINE
  5
25844
330
747D
100
AcDbEntity
  8
細線
 48
50.0
100
AcDbLine
 10
8123.599999999987
 20
6721.603075592246
 30
0.0
 11
8180.194120106227
 21
6778.197195698481
 31
0.0
  0
LINE
  5
25845
330
747D
100
AcDbEntity
  8
細線
 48
50.0
100
AcDbLine
 10
8123.599999999992
 20
6676.7017949869
 30
0.0
 11
8225.095400711571
 21
6778.197195698481
 31
0.0
  0
LINE
  5
25846
330
747D
100
AcDbEntity
  8
部品1
 48
50.0
100
AcDbLine
 10
8123.599999999994
 20
6778.197195698481
 30
0.0
 11
8123.599999999994
 21
6498.197195698463
 31
0.0
  0
LINE
  5
25847
330
747D
100
AcDbEntity
  8
細線
 48
50.0
100
AcDbLine
 10
8123.599999999994
 20
6541.997953170735
 30
0.0
 11
8323.599999999993
 21
6741.997953170734
 31
0.0
  0
LINE
  5
25848
330
747D
100
AcDbEntity
  8
細線
 48
50.0
100
AcDbLine
 10
8124.70052313307
 20
6498.197195698463
 30
0.0
 11
8323.599999999993
 21
6697.09667256539
 31
0.0
  0
LINE
  5
25849
330
747D
100
AcDbEntity
  8
細線
 48
50.0
100
AcDbLine
 10
8169.601803738416
 20
6498.197195698466
 30
0.0
 11
8323.599999999993
 21
6652.195391960046
 31
0.0
  0
LINE
  5
2584A
330
747D
100
AcDbEntity
  8
細線
 48
50.0
100
AcDbLine
 10
8214.503084343762
 20
6498.197195698466
 30
0.0
 11
8323.599999999997
 21
6607.294111354701
 31
0.0
  0
LINE
  5
2584B
330
747D
100
AcDbEntity
  8
細線
 48
50.0
100
AcDbLine
 10
8259.404364949109
 20
6498.197195698466
 30
0.0
 11
8323.599999999997
 21
6562.392830749356
 31
0.0
  0
LINE
  5
2584C
330
747D
100
AcDbEntity
  8
細線
 48
50.0
100
AcDbLine
 10
9254.305645554456
 20
6498.19719569847
 30
0.0
 11
9273.599999999998
 21
6517.49155014401
 31
0.0
  0
LINE
  5
2584D
330
747D
100
AcDbEntity
  8
部品1
 48
50.0
100
AcDbLine
 10
9273.599999999992
 20
6778.197195698481
 30
0.0
 11
9273.599999999994
 21
6498.197195698466
 31
0.0
  0
LINE
  5
2584E
330
747D
100
AcDbEntity
  8
細線
 48
50.0
100
AcDbLine
 10
9073.599999999993
 20
6631.800514381426
 30
0.0
 11
9219.99668131705
 21
6778.197195698483
 31
0.0
  0
LINE
  5
2584F
330
747D
100
AcDbEntity
  8
細線
 48
50.0
100
AcDbLine
 10
9073.599999999993
 20
6586.899233776083
 30
0.0
 11
9264.897961922395
 21
6778.197195698483
 31
0.0
  0
LINE
  5
25850
330
747D
100
AcDbEntity
  8
細線
 48
50.0
100
AcDbLine
 10
9073.599999999988
 20
6721.603075592246
 30
0.0
 11
9130.194120106226
 21
6778.197195698481
 31
0.0
  0
LINE
  5
25851
330
747D
100
AcDbEntity
  8
細線
 48
50.0
100
AcDbLine
 10
9073.599999999991
 20
6676.7017949869
 30
0.0
 11
9175.095400711573
 21
6778.197195698481
 31
0.0
  0
LINE
  5
25852
330
747D
100
AcDbEntity
  8
部品1
 48
50.0
100
AcDbLine
 10
9073.599999999995
 20
6778.197195698481
 30
0.0
 11
9073.599999999995
 21
6498.197195698463
 31
0.0
  0
LINE
  5
25853
330
747D
100
AcDbEntity
  8
細線
 48
50.0
100
AcDbLine
 10
9073.599999999993
 20
6541.997953170735
 30
0.0
 11
9273.599999999992
 21
6741.997953170734
 31
0.0
  0
LINE
  5
25854
330
747D
100
AcDbEntity
  8
細線
 48
50.0
100
AcDbLine
 10
9074.700523133071
 20
6498.197195698463
 30
0.0
 11
9273.599999999992
 21
6697.09667256539
 31
0.0
  0
LINE
  5
25855
330
747D
100
AcDbEntity
  8
細線
 48
50.0
100
AcDbLine
 10
9119.601803738417
 20
6498.197195698466
 30
0.0
 11
9273.599999999992
 21
6652.195391960046
 31
0.0
  0
LINE
  5
25856
330
747D
100
AcDbEntity
  8
細線
 48
50.0
100
AcDbLine
 10
9164.503084343762
 20
6498.197195698466
 30
0.0
 11
9273.599999999998
 21
6607.294111354701
 31
0.0
  0
LINE
  5
25857
330
747D
100
AcDbEntity
  8
細線
 48
50.0
100
AcDbLine
 10
9209.404364949108
 20
6498.197195698466
 30
0.0
 11
9273.599999999998
 21
6562.392830749356
 31
0.0
  0
LINE
  5
25858
330
747D
100
AcDbEntity
  8
細線
 48
50.0
100
AcDbLine
 10
10204.30564555445
 20
6498.19719569847
 30
0.0
 11
10223.59999999999
 21
6517.49155014401
 31
0.0
  0
LINE
  5
25859
330
747D
100
AcDbEntity
  8
部品1
 48
50.0
100
AcDbLine
 10
10223.59999999999
 20
6778.197195698481
 30
0.0
 11
10223.59999999999
 21
6498.197195698466
 31
0.0
  0
LINE
  5
2585A
330
747D
100
AcDbEntity
  8
細線
 48
50.0
100
AcDbLine
 10
10023.59999999999
 20
6631.800514381426
 30
0.0
 11
10169.99668131705
 21
6778.197195698483
 31
0.0
  0
LINE
  5
2585B
330
747D
100
AcDbEntity
  8
細線
 48
50.0
100
AcDbLine
 10
10023.59999999999
 20
6586.899233776083
 30
0.0
 11
10214.89796192239
 21
6778.197195698483
 31
0.0
  0
LINE
  5
2585C
330
747D
100
AcDbEntity
  8
細線
 48
50.0
100
AcDbLine
 10
10023.59999999999
 20
6721.603075592246
 30
0.0
 11
10080.19412010622
 21
6778.197195698481
 31
0.0
  0
LINE
  5
2585D
330
747D
100
AcDbEntity
  8
細線
 48
50.0
100
AcDbLine
 10
10023.59999999999
 20
6676.7017949869
 30
0.0
 11
10125.09540071157
 21
6778.197195698481
 31
0.0
  0
LINE
  5
2585E
330
747D
100
AcDbEntity
  8
部品1
 48
50.0
100
AcDbLine
 10
10023.59999999999
 20
6778.197195698481
 30
0.0
 11
10023.59999999999
 21
6498.197195698463
 31
0.0
  0
LINE
  5
2585F
330
747D
100
AcDbEntity
  8
細線
 48
50.0
100
AcDbLine
 10
10023.59999999999
 20
6541.997953170735
 30
0.0
 11
10223.59999999999
 21
6741.997953170734
 31
0.0
  0
LINE
  5
25860
330
747D
100
AcDbEntity
  8
細線
 48
50.0
100
AcDbLine
 10
10024.70052313307
 20
6498.197195698463
 30
0.0
 11
10223.59999999999
 21
6697.09667256539
 31
0.0
  0
LINE
  5
25861
330
747D
100
AcDbEntity
  8
細線
 48
50.0
100
AcDbLine
 10
10069.60180373841
 20
6498.197195698466
 30
0.0
 11
10223.59999999999
 21
6652.195391960046
 31
0.0
  0
LINE
  5
25862
330
747D
100
AcDbEntity
  8
細線
 48
50.0
100
AcDbLine
 10
10114.50308434376
 20
6498.197195698466
 30
0.0
 11
10223.59999999999
 21
6607.294111354701
 31
0.0
  0
LINE
  5
25863
330
747D
100
AcDbEntity
  8
細線
 48
50.0
100
AcDbLine
 10
10159.40436494911
 20
6498.197195698466
 30
0.0
 11
10223.59999999999
 21
6562.392830749356
 31
0.0
  0
LINE
  5
2588B
330
747D
100
AcDbEntity
  8
部品1
 48
50.0
100
AcDbLine
 10
10483.6
 20
6778.197195698503
 30
0.0
 11
10483.6
 21
7258.197195698483
 31
0.0
  0
LINE
  5
2588C
330
747D
100
AcDbEntity
  8
部品1
 48
50.0
100
AcDbLine
 10
5963.6
 20
6778.197195698481
 30
0.0
 11
5963.599999999996
 21
7258.197195698482
 31
0.0
  0
MTEXT
  5
25A24
102
{ACAD_REACTORS
330
25A25
102
}
330
747D
100
AcDbEntity
  8
寸法
 62
     7
 48
50.0
100
AcDbMText
 10
10595.2028435907
 20
2155.894089547467
 30
0.0
 40
120.0
 41
0.8
 71
     4
 72
     1
  1
\A1;C.B
  7
STYLE1
 73
     1
 44
1.0
1001
ACAD
1000
MTEXTBEGIN
1070
    73
1070
     1
1070
    44
1040
1.0
1070
    74
1070
     0
1000
MTEXTEND
  0
LEADER
  5
25A25
330
747D
100
AcDbEntity
  8
寸法
 48
50.0
100
AcDbLeader
  3
INABA_S50G
 73
     0
 74
     0
 75
     1
 40
120.0
 41
185.591883092037
 76
     3
 10
10412.06463695706
 20
1898.747768866329
 30
0.0
 10
10445.2028435907
 20
2070.894089547467
 30
0.0
 10
10570.2028435907
 20
2070.894089547467
 30
0.0
340
25A24
1001
ACAD
1000
DSTYLE
1002
{
1070
    40
1040
1.0
1002
}
  0
LINE
  5
25A26
330
747D
100
AcDbEntity
  8
細線
 48
50.0
100
AcDbLine
 10
10557.71805053347
 20
1543.048853212978
 30
0.0
 11
10551.28726991512
 21
1567.048853212978
 31
0.0
  0
LINE
  5
25A27
330
747D
100
AcDbEntity
  8
細線
 48
50.0
100
AcDbLine
 10
10536.28211513898
 20
1463.048853212978
 30
0.0
 11
10542.71289575733
 21
1439.048853212978
 31
0.0
  0
LINE
  5
25A28
330
747D
100
AcDbEntity
  8
部品1
100
AcDbLine
 10
10601.34022534114
 20
1658.747768866329
 30
0.0
 11
10601.34022534114
 21
1439.048853212979
 31
0.0
  0
LINE
  5
25A29
330
747D
100
AcDbEntity
  8
細線
 48
50.0
100
AcDbLine
 10
10529.85133452063
 20
1439.048853212978
 30
0.0
 11
10564.14883115181
 21
1567.048853212976
 31
0.0
  0
LINE
  5
25A2A
330
747D
100
AcDbEntity
  8
細線
 48
50.0
100
AcDbLine
 10
10478.83000558622
 20
1543.048853212978
 30
0.0
 11
10472.39922496787
 21
1567.048853212978
 31
0.0
  0
LINE
  5
25A2B
330
747D
100
AcDbEntity
  8
細線
100
AcDbLine
 10
10354.37661984047
 20
1567.048853212981
 30
0.0
 11
10446.07553549381
 21
1658.747768866329
 31
0.0
  0
LINE
  5
25A2C
330
747D
100
AcDbEntity
  8
細線
 48
50.0
100
AcDbLine
 10
10399.94196063896
 20
1543.048853212979
 30
0.0
 11
10393.51118002062
 21
1567.048853212979
 31
0.0
  0
LINE
  5
25A2D
330
747D
100
AcDbEntity
  8
細線
100
AcDbLine
 10
10388.31774533742
 20
1567.048853212981
 30
0.0
 11
10480.01666099077
 21
1658.747768866329
 31
0.0
  0
LINE
  5
25A2E
330
747D
100
AcDbEntity
  8
細線
 48
50.0
100
AcDbLine
 10
10163.27782579723
 20
1543.048853212979
 30
0.0
 11
10156.84704517889
 21
1567.048853212979
 31
0.0
  0
LINE
  5
25A2F
330
747D
100
AcDbEntity
  8
細線
 48
50.0
100
AcDbLine
 10
10242.16587074448
 20
1543.048853212979
 30
0.0
 11
10235.73509012613
 21
1567.048853212979
 31
0.0
  0
LINE
  5
25A30
330
747D
100
AcDbEntity
  8
細線
 48
50.0
100
AcDbLine
 10
10321.05391569172
 20
1543.048853212979
 30
0.0
 11
10314.62313507338
 21
1567.048853212979
 31
0.0
  0
LINE
  5
25A31
330
747D
100
AcDbEntity
  8
細線
 48
50.0
100
AcDbLine
 10
10457.39407019173
 20
1463.048853212978
 30
0.0
 11
10463.82485081008
 21
1439.048853212978
 31
0.0
  0
LINE
  5
25A32
330
747D
100
AcDbEntity
  8
細線
 48
50.0
100
AcDbLine
 10
10378.50602524448
 20
1463.048853212979
 30
0.0
 11
10384.93680586284
 21
1439.048853212979
 31
0.0
  0
LINE
  5
25A33
330
747D
100
AcDbEntity
  8
細線
 48
50.0
100
AcDbLine
 10
10220.72993534999
 20
1463.048853212979
 30
0.0
 11
10227.16071596834
 21
1439.048853212979
 31
0.0
  0
LINE
  5
25A34
330
747D
100
AcDbEntity
  8
細線
 48
50.0
100
AcDbLine
 10
10299.61798029724
 20
1463.048853212979
 30
0.0
 11
10306.04876091558
 21
1439.048853212979
 31
0.0
  0
LINE
  5
25A35
330
747D
100
AcDbEntity
  8
細線
 48
50.0
100
AcDbLine
 10
10293.18719967889
 20
1439.048853212979
 30
0.0
 11
10327.48469631007
 21
1567.048853212978
 31
0.0
  0
LINE
  5
25A36
330
747D
100
AcDbEntity
  8
細線
 48
50.0
100
AcDbLine
 10
10214.29915473164
 20
1439.048853212978
 30
0.0
 11
10248.59665136282
 21
1567.048853212978
 31
0.0
  0
LINE
  5
25A37
330
747D
100
AcDbEntity
  8
細線
 48
50.0
100
AcDbLine
 10
10372.07524462613
 20
1439.048853212978
 30
0.0
 11
10406.37274125731
 21
1567.048853212979
 31
0.0
  0
LINE
  5
25A38
330
747D
100
AcDbEntity
  8
細線
100
AcDbLine
 10
10422.25887083437
 20
1567.048853212981
 30
0.0
 11
10513.95778648772
 21
1658.747768866329
 31
0.0
  0
LINE
  5
25A39
330
747D
100
AcDbEntity
  8
細線
 48
50.0
100
AcDbLine
 10
10450.96328957338
 20
1439.048853212976
 30
0.0
 11
10485.26078620457
 21
1567.048853212976
 31
0.0
  0
LINE
  5
25A3A
330
747D
100
AcDbEntity
  8
部品1
100
AcDbLine
 10
10481.34022534114
 20
1898.747768866329
 30
0.0
 11
10481.34022534114
 21
1658.747768866329
 31
0.0
  0
LINE
  5
25A3B
330
747D
100
AcDbEntity
  8
細線
100
AcDbLine
 10
10467.50256299355
 20
1658.747768866331
 30
0.0
 11
10227.50256299356
 21
1898.747768866329
 31
0.0
  0
LINE
  5
25A3C
330
747D
100
AcDbEntity
  8
細線
100
AcDbLine
 10
10416.59087474812
 20
1658.747768866329
 30
0.0
 11
10176.59087474812
 21
1898.747768866329
 31
0.0
  0
LINE
  5
25A3D
330
747D
100
AcDbEntity
  8
細線
100
AcDbLine
 10
10028.31774533742
 20
1567.048853212979
 30
0.0
 11
10120.01666099077
 21
1658.747768866329
 31
0.0
  0
LINE
  5
25A3E
330
747D
100
AcDbEntity
  8
細線
100
AcDbLine
 10
9994.376619840465
 20
1567.048853212979
 30
0.0
 11
10086.07553549381
 21
1658.747768866329
 31
0.0
  0
LINE
  5
25A3F
330
747D
100
AcDbEntity
  8
細線
 48
50.0
100
AcDbLine
 10
10005.50173590273
 20
1543.048853212979
 30
0.0
 11
9999.070955284391
 21
1567.048853212979
 31
0.0
  0
LINE
  5
25A40
330
747D
100
AcDbEntity
  8
細線
 48
50.0
100
AcDbLine
 10
10084.38978084999
 20
1543.048853212979
 30
0.0
 11
10077.95900023164
 21
1567.048853212979
 31
0.0
  0
LINE
  5
25A41
330
747D
100
AcDbEntity
  8
細線
 48
50.0
100
AcDbLine
 10
9926.613690955486
 20
1543.048853212979
 30
0.0
 11
9920.182910337139
 21
1567.048853212979
 31
0.0
  0
LINE
  5
25A42
330
747D
100
AcDbEntity
  8
細線
 48
50.0
100
AcDbLine
 10
10141.84189040274
 20
1463.048853212979
 30
0.0
 11
10148.27267102109
 21
1439.048853212979
 31
0.0
  0
LINE
  5
25A43
330
747D
100
AcDbEntity
  8
細線
 48
50.0
100
AcDbLine
 10
10062.9538454555
 20
1463.048853212979
 30
0.0
 11
10069.38462607384
 21
1439.048853212979
 31
0.0
  0
LINE
  5
25A44
330
747D
100
AcDbEntity
  8
細線
 48
50.0
100
AcDbLine
 10
9905.177755560998
 20
1463.048853212979
 30
0.0
 11
9911.608536179345
 21
1439.048853212979
 31
0.0
  0
LINE
  5
25A45
330
747D
100
AcDbEntity
  8
細線
 48
50.0
100
AcDbLine
 10
9984.065800508247
 20
1463.048853212979
 30
0.0
 11
9990.496581126595
 21
1439.048853212979
 31
0.0
  0
LINE
  5
25A46
330
747D
100
AcDbEntity
  8
部品1
100
AcDbLine
 10
9881.340225341137
 20
1439.048853212975
 30
0.0
 11
9881.340225341137
 21
1658.747768866329
 31
0.0
  0
LINE
  5
25A47
330
747D
100
AcDbEntity
  8
細線
 48
50.0
100
AcDbLine
 10
9898.74697494265
 20
1439.048853212979
 30
0.0
 11
9933.044471573834
 21
1567.048853212979
 31
0.0
  0
LINE
  5
25A48
330
747D
100
AcDbEntity
  8
細線
 48
50.0
100
AcDbLine
 10
10056.52306483715
 20
1439.048853212979
 30
0.0
 11
10090.82056146833
 21
1567.048853212979
 31
0.0
  0
LINE
  5
25A49
330
747D
100
AcDbEntity
  8
細線
 48
50.0
100
AcDbLine
 10
9977.635019889897
 20
1439.048853212978
 30
0.0
 11
10011.93251652108
 21
1567.048853212978
 31
0.0
  0
LINE
  5
25A4A
330
747D
100
AcDbEntity
  8
部品1
100
AcDbLine
 10
10001.34022534113
 20
1658.747768866329
 30
0.0
 11
10001.34022534113
 21
1898.747768866329
 31
0.0
  0
TEXT
  5
25A4B
330
747D
100
AcDbEntity
  8
部品1
 48
50.0
100
AcDbText
 10
9237.222138582636
 20
1391.94802822902
 30
0.0
 40
80.0
  1
ボルトの出
 50
90.0
  7
STYLE2
100
AcDbText
  0
LINE
  5
25A4C
330
747D
100
AcDbEntity
  8
細線
100
AcDbLine
 10
10145.06187077249
 20
1658.747768866329
 30
0.0
 11
10001.34022534113
 21
1802.469414297682
 31
0.0
  0
LWPOLYLINE
  5
25A4D
330
747D
100
AcDbEntity
  8
部品1
 48
50.0
100
AcDbPolyline
 90
        2
 70
     0
 43
12.0
 10
9616.728963240749
 20
1658.747768866329
 10
10817.82126637237
 20
1658.747768866329
  0
LINE
  5
25A4E
330
747D
100
AcDbEntity
  8
細線
100
AcDbLine
 10
10062.25887083438
 20
1567.048853212979
 30
0.0
 11
10153.95778648772
 21
1658.747768866329
 31
0.0
  0
LINE
  5
25A4F
330
747D
100
AcDbEntity
  8
部品1
100
AcDbLine
 10
9881.340225341137
 20
1567.048853212979
 30
0.0
 11
10601.34022534114
 21
1567.048853212982
 31
0.0
  0
LINE
  5
25A50
330
747D
100
AcDbEntity
  8
部品1
100
AcDbLine
 10
9881.340225341137
 20
1439.048853212975
 30
0.0
 11
10601.34022534114
 21
1439.048853212979
 31
0.0
  0
LINE
  5
25A51
330
747D
100
AcDbEntity
  8
細線
 48
50.0
100
AcDbLine
 10
10135.41110978439
 20
1439.048853212979
 30
0.0
 11
10169.70860641558
 21
1567.048853212978
 31
0.0
  0
LINE
  5
25A52
330
747D
100
AcDbEntity
  8
部品1
100
AcDbLine
 10
10001.34022534113
 20
1898.747768866329
 30
0.0
 11
10481.34022534114
 21
1898.747768866329
 31
0.0
  0
LINE
  5
25A53
330
747D
100
AcDbEntity
  8
細線
100
AcDbLine
 10
10195.97355901792
 20
1658.747768866329
 30
0.0
 11
10001.34022534113
 21
1853.381102543112
 31
0.0
  0
LINE
  5
25A54
330
747D
100
AcDbEntity
  8
部品1
100
AcDbLine
 10
11188.08172643817
 20
333.7794664822677
 30
0.0
 11
11188.08172643817
 21
3298.086436066915
 31
0.0
  0
TEXT
  5
25A55
330
747D
100
AcDbEntity
  8
部品1
100
AcDbText
 10
7809.976542230309
 20
3118.534504115487
 30
0.0
 40
120.0
  1
基礎詳細
  7
STYLE2
100
AcDbText
  0
LINE
  5
25A56
330
747D
100
AcDbEntity
  8
部品1
 48
50.0
100
AcDbLine
 10
8125.204293038379
 20
2297.623049975472
 30
0.0
 11
8141.204293038379
 21
2289.623049975472
 31
0.0
  0
LINE
  5
25A57
330
747D
100
AcDbEntity
  8
細線
 48
50.0
100
AcDbLine
 10
8093.204293038381
 20
2249.623049975472
 30
0.0
 11
8093.204293038381
 21
2281.623049975472
 31
0.0
  0
LINE
  5
25A58
330
747D
100
AcDbEntity
  8
部品1
 48
50.0
100
AcDbLine
 10
8141.204293038379
 20
2257.623049975472
 30
0.0
 11
8141.204293038379
 21
2289.623049975472
 31
0.0
  0
LINE
  5
25A59
330
747D
100
AcDbEntity
  8
細線
 48
50.0
100
AcDbLine
 10
8125.204293038379
 20
2249.623049975472
 30
0.0
 11
8125.204293038379
 21
2281.623049975472
 31
0.0
  0
LINE
  5
25A5A
330
747D
100
AcDbEntity
  8
部品1
 48
50.0
100
AcDbLine
 10
8125.204293038379
 20
2281.623049975472
 30
0.0
 11
8141.204293038379
 21
2289.623049975472
 31
0.0
  0
LINE
  5
25A5B
330
747D
100
AcDbEntity
  8
部品1
 48
50.0
100
AcDbLine
 10
8093.204293038381
 20
2281.623049975472
 30
0.0
 11
8125.204293038379
 21
2281.623049975472
 31
0.0
  0
LINE
  5
25A5C
330
747D
100
AcDbEntity
  8
部品1
 48
50.0
100
AcDbLine
 10
8125.204293038379
 20
2249.623049975472
 30
0.0
 11
8141.204293038379
 21
2257.623049975472
 31
0.0
  0
LINE
  5
25A5D
330
747D
100
AcDbEntity
  8
部品1
 48
50.0
100
AcDbLine
 10
8093.204293038381
 20
2249.623049975472
 30
0.0
 11
8125.204293038379
 21
2249.623049975472
 31
0.0
  0
ELLIPSE
  5
25A5E
330
747D
100
AcDbEntity
  8
細線
 48
50.0
100
AcDbEllipse
 10
8109.204293038379
 20
2289.623049975472
 30
0.0
 11
14.76670786606846
 21
0.0
 31
0.0
210
0.0
220
0.0
230
1.0
 40
0.2071254069489396
 41
0.0
 42
6.283185307179586
  0
LINE
  5
25A5F
330
747D
100
AcDbEntity
  8
部品1
 48
50.0
100
AcDbLine
 10
8093.204293038381
 20
2297.623049975472
 30
0.0
 11
8125.204293038379
 21
2297.623049975472
 31
0.0
  0
LINE
  5
25A60
330
747D
100
AcDbEntity
  8
部品1
 48
50.0
100
AcDbLine
 10
8077.204293038379
 20
2257.623049975472
 30
0.0
 11
8077.204293038379
 21
2289.623049975472
 31
0.0
  0
LINE
  5
25A61
330
747D
100
AcDbEntity
  8
部品1
 48
50.0
100
AcDbLine
 10
8077.204293038379
 20
2289.623049975472
 30
0.0
 11
8093.204293038381
 21
2297.623049975472
 31
0.0
  0
LINE
  5
25A62
330
747D
100
AcDbEntity
  8
部品1
 48
50.0
100
AcDbLine
 10
8077.204293038379
 20
2257.623049975472
 30
0.0
 11
8093.204293038381
 21
2249.623049975472
 31
0.0
  0
LINE
  5
25A63
330
747D
100
AcDbEntity
  8
部品1
 48
50.0
100
AcDbLine
 10
8077.204293038379
 20
2289.623049975472
 30
0.0
 11
8093.204293038381
 21
2281.623049975472
 31
0.0
  0
LINE
  5
25A64
330
747D
100
AcDbEntity
  8
部品1
 48
50.0
100
AcDbLine
 10
8149.20429303838
 20
2158.271057310602
 30
0.0
 11
8149.20429303838
 21
2167.871057310602
 31
0.0
  0
ELLIPSE
  5
25A65
330
747D
100
AcDbEntity
  8
部品1
 48
50.0
100
AcDbEllipse
 10
8109.204293038379
 20
2167.871057310602
 30
0.0
 11
18.4
 21
0.0
 31
0.0
210
0.0
220
0.0
230
1.0
 40
0.3478260869565217
 41
0.0
 42
6.283185307179586
  0
ARC
  5
25A66
330
747D
100
AcDbEntity
  8
部品1
100
AcDbCircle
 10
7948.10429303838
 20
1996.84776886633
 30
0.0
 40
2.7
100
AcDbArc
 50
90.0
 51
180.0
  0
LINE
  5
25A67
330
747D
100
AcDbEntity
  8
部品1
100
AcDbLine
 10
7950.804293038378
 20
2010.34776886633
 30
0.0
 11
7993.104293038379
 21
2010.347768866326
 31
0.0
  0
LINE
  5
25A68
330
747D
100
AcDbEntity
  8
部品1
100
AcDbLine
 10
7948.10429303838
 20
1999.547768866329
 30
0.0
 11
7948.10429303838
 21
2007.647768866329
 31
0.0
  0
LINE
  5
25A69
330
747D
100
AcDbEntity
  8
部品1
100
AcDbLine
 10
7948.10429303838
 20
1999.547768866329
 30
0.0
 11
7948.10429303838
 21
1999.547768866329
 31
0.0
  0
ARC
  5
25A6A
330
747D
100
AcDbEntity
  8
部品1
100
AcDbCircle
 10
7950.804293038378
 20
2007.647768866329
 30
0.0
 40
2.7
100
AcDbArc
 50
90.0
 51
180.0
  0
ARC
  5
25A6B
330
747D
100
AcDbEntity
  8
部品1
100
AcDbCircle
 10
7993.104293038379
 20
2007.647768866327
 30
0.0
 40
2.7
100
AcDbArc
 50
0.0
 51
90.0
  0
LINE
  5
25A6C
330
747D
100
AcDbEntity
  8
部品1
 48
50.0
100
AcDbLine
 10
8069.20429303838
 20
2167.871057310602
 30
0.0
 11
8069.20429303838
 21
2158.271057310602
 31
0.0
  0
ELLIPSE
  5
25A6D
330
747D
100
AcDbEntity
  8
部品1
 48
50.0
100
AcDbEllipse
 10
8109.204293038379
 20
2158.271057310602
 30
0.0
 11
40.0
 21
0.0
 31
0.0
210
0.0
220
0.0
230
1.0
 40
0.4
 41
3.141592653589793
 42
6.283185307179586
  0
ELLIPSE
  5
25A6E
330
747D
100
AcDbEntity
  8
部品1
 48
50.0
100
AcDbEllipse
 10
8109.204293038379
 20
2167.871057310602
 30
0.0
 11
40.0
 21
0.0
 31
0.0
210
0.0
220
0.0
230
1.0
 40
0.4
 41
0.0
 42
6.283185307179586
  0
LINE
  5
25A6F
330
747D
100
AcDbEntity
  8
部品1
100
AcDbLine
 10
8103.804293038377
 20
1951.50776886633
 30
0.0
 11
8114.604293038381
 21
1951.50776886633
 31
0.0
  0
LINE
  5
25A70
330
747D
100
AcDbEntity
  8
部品1
100
AcDbLine
 10
8100.204293038379
 20
1947.90776886633
 30
0.0
 11
8118.204293038379
 21
1947.90776886633
 31
0.0
  0
LINE
  5
25A71
330
747D
100
AcDbEntity
  8
細線
100
AcDbLine
 10
8103.804293038383
 20
1908.30776886633
 30
0.0
 11
8103.804293038377
 21
1951.50776886633
 31
0.0
  0
LINE
  5
25A72
330
747D
100
AcDbEntity
  8
細線
100
AcDbLine
 10
8114.604293038381
 20
1908.30776886633
 30
0.0
 11
8114.604293038381
 21
1951.50776886633
 31
0.0
  0
LINE
  5
25A73
330
747D
100
AcDbEntity
  8
部品1
100
AcDbLine
 10
8016.504293038378
 20
1965.60776886633
 30
0.0
 11
8016.504293038378
 21
1948.507768866329
 31
0.0
  0
LINE
  5
25A74
330
747D
100
AcDbEntity
  8
部品1
100
AcDbLine
 10
8050.06429303838
 20
1965.60776886633
 30
0.0
 11
8050.064293038376
 21
1911.007768866329
 31
0.0
  0
ARC
  5
25A75
330
747D
100
AcDbEntity
  8
部品1
100
AcDbCircle
 10
8035.40429303838
 20
1953.647768866329
 30
0.0
 40
2.7
100
AcDbArc
 50
0.0
 51
90.0
  0
LINE
  5
25A76
330
747D
100
AcDbEntity
  8
部品1
100
AcDbLine
 10
7995.804293038379
 20
1956.347768866329
 30
0.0
 11
8035.40429303838
 21
1956.347768866329
 31
0.0
  0
ARC
  5
25A77
330
747D
100
AcDbEntity
  8
部品1
100
AcDbCircle
 10
8035.40429303838
 20
1911.007768866329
 30
0.0
 40
2.7
100
AcDbArc
 50
270.0
 51
0.0
  0
ARC
  5
25A78
330
747D
100
AcDbEntity
  8
部品1
100
AcDbCircle
 10
8052.764293038373
 20
1911.007768866329
 30
0.0
 40
2.7
100
AcDbArc
 50
180.0
 51
270.0
  0
LINE
  5
25A79
330
747D
100
AcDbEntity
  8
部品1
100
AcDbLine
 10
8023.704293038379
 20
1908.30776886633
 30
0.0
 11
8035.40429303838
 21
1908.30776886633
 31
0.0
  0
LINE
  5
25A7A
330
747D
100
AcDbEntity
  8
部品1
100
AcDbLine
 10
8038.104293038379
 20
1953.647768866329
 30
0.0
 11
8038.104293038379
 21
1911.007768866329
 31
0.0
  0
ARC
  5
25A7B
330
747D
100
AcDbEntity
  8
部品1
100
AcDbCircle
 10
8047.364293038379
 20
1965.60776886633
 30
0.0
 40
2.7
100
AcDbArc
 50
0.0
 51
90.0
  0
ARC
  5
25A7C
330
747D
100
AcDbEntity
  8
部品1
100
AcDbCircle
 10
8019.204293038379
 20
1965.60776886633
 30
0.0
 40
2.7
100
AcDbArc
 50
90.0
 51
180.0
  0
LINE
  5
25A7D
330
747D
100
AcDbEntity
  8
部品1
100
AcDbLine
 10
8019.204293038379
 20
1968.30776886633
 30
0.0
 11
8047.364293038379
 21
1968.30776886633
 31
0.0
  0
LINE
  5
25A7E
330
747D
100
AcDbEntity
  8
部品1
100
AcDbLine
 10
7995.804293038379
 20
2007.647768866327
 30
0.0
 11
7995.804293038379
 21
1956.347768866329
 31
0.0
  0
LINE
  5
25A7F
330
747D
100
AcDbEntity
  8
部品1
100
AcDbLine
 10
7945.404293038381
 20
1988.747768866329
 30
0.0
 11
7945.404293038381
 21
1996.84776886633
 31
0.0
  0
LINE
  5
25A80
330
747D
100
AcDbEntity
  8
部品1
100
AcDbLine
 10
8052.764293038373
 20
1908.30776886633
 30
0.0
 11
8254.104293038373
 21
1908.30776886633
 31
0.0
  0
LINE
  5
25A81
330
747D
100
AcDbEntity
  8
部品1
100
AcDbLine
 10
7894.104293038378
 20
1911.007768866329
 30
0.0
 11
7894.104293038378
 21
1973.139672569037
 31
0.0
  0
LINE
  5
25A82
330
747D
100
AcDbEntity
  8
部品1
100
AcDbLine
 10
7896.804293038378
 20
1908.30776886633
 30
0.0
 11
7908.504293038373
 21
1908.30776886633
 31
0.0
  0
LINE
  5
25A83
330
747D
100
AcDbEntity
  8
細線
 48
50.0
100
AcDbLine
 10
7887.804293038378
 20
1886.528345166234
 30
0.0
 11
7900.023716738473
 21
1898.747768866329
 31
0.0
  0
ARC
  5
25A84
330
747D
100
AcDbEntity
  8
部品1
100
AcDbCircle
 10
7896.804293038378
 20
1911.007768866329
 30
0.0
 40
2.7
100
AcDbArc
 50
180.0
 51
270.0
  0
LINE
  5
25A85
330
747D
100
AcDbEntity
  8
部品1
100
AcDbLine
 10
7896.149446850781
 20
1975.759057319429
 30
0.0
 11
7904.904293038381
 21
1977.947768866329
 31
0.0
  0
ARC
  5
25A86
330
747D
100
AcDbEntity
  8
部品1
100
AcDbCircle
 10
7896.804293038378
 20
1973.139672569037
 30
0.0
 40
2.7
100
AcDbArc
 50
104.0362434679067
 51
180.0
  0
ARC
  5
25A87
330
747D
100
AcDbEntity
  8
部品1
100
AcDbCircle
 10
7907.604293038379
 20
1986.047768866329
 30
0.0
 40
2.7
100
AcDbArc
 50
90.0
 51
180.0
  0
LINE
  5
25A88
330
747D
100
AcDbEntity
  8
部品1
100
AcDbLine
 10
7904.904293038381
 20
1977.947768866329
 30
0.0
 11
7904.904293038381
 21
1986.047768866329
 31
0.0
  0
LINE
  5
25A89
330
747D
100
AcDbEntity
  8
部品1
 48
50.0
100
AcDbLine
 10
7887.804293038378
 20
1898.747768866329
 30
0.0
 11
8301.804293038381
 21
1898.747768866329
 31
0.0
  0
LINE
  5
25A8A
330
747D
100
AcDbEntity
  8
細線
 48
50.0
100
AcDbLine
 10
7887.804293038378
 20
1832.646808439819
 30
0.0
 11
7953.905253464888
 21
1898.747768866329
 31
0.0
  0
LINE
  5
25A8B
330
747D
100
AcDbEntity
  8
細線
 48
50.0
100
AcDbLine
 10
7887.804293038378
 20
1859.587576803027
 30
0.0
 11
7926.964485101686
 21
1898.747768866329
 31
0.0
  0
LINE
  5
25A8C
330
747D
100
AcDbEntity
  8
部品1
100
AcDbLine
 10
7907.604293038379
 20
1988.747768866329
 30
0.0
 11
7945.404293038381
 21
1988.747768866329
 31
0.0
  0
LINE
  5
25A8D
330
747D
100
AcDbEntity
  8
部品1
 48
50.0
100
AcDbLine
 10
8301.804293038378
 20
1354.747768866329
 30
0.0
 11
8429.804293038378
 21
1354.747768866329
 31
0.0
  0
LINE
  5
25A8E
330
747D
100
AcDbEntity
  8
部品1
100
AcDbLine
 10
8118.204293038379
 20
1673.747768866329
 30
0.0
 11
8154.204293038381
 21
1673.747768866329
 31
0.0
  0
LINE
  5
25A8F
330
747D
100
AcDbEntity
  8
部品1
100
AcDbLine
 10
8118.204293038379
 20
1655.747768866329
 30
0.0
 11
8154.204293038381
 21
1655.747768866329
 31
0.0
  0
ARC
  5
25A90
330
747D
100
AcDbEntity
  8
部品1
100
AcDbCircle
 10
8118.204293038379
 20
1673.747768866329
 30
0.0
 40
18.0
100
AcDbArc
 50
180.0
 51
270.0
  0
LINE
  5
25A91
330
747D
100
AcDbEntity
  8
部品1
100
AcDbLine
 10
8154.204293038381
 20
1655.747768866329
 30
0.0
 11
8154.204293038381
 21
1673.747768866329
 31
0.0
  0
LINE
  5
25A92
330
747D
100
AcDbEntity
  8
部品1
100
AcDbLine
 10
8172.20429303838
 20
1574.747768866327
 30
0.0
 11
8046.204293038373
 21
1574.747768866327
 31
0.0
  0
LINE
  5
25A93
330
747D
100
AcDbEntity
  8
細線
 48
50.0
100
AcDbLine
 10
8466.182118230713
 20
1090.747768866327
 30
0.0
 11
8459.751337612368
 21
1114.747768866327
 31
0.0
  0
LINE
  5
25A94
330
747D
100
AcDbEntity
  8
細線
 48
50.0
100
AcDbLine
 10
8387.294073283468
 20
1090.747768866327
 30
0.0
 11
8380.863292665123
 21
1114.747768866327
 31
0.0
  0
LINE
  5
25A95
330
747D
100
AcDbEntity
  8
細線
 48
50.0
100
AcDbLine
 10
8308.406028336213
 20
1090.747768866329
 30
0.0
 11
8301.975247717864
 21
1114.747768866329
 31
0.0
  0
LINE
  5
25A96
330
747D
100
AcDbEntity
  8
細線
 48
50.0
100
AcDbLine
 10
8444.746182836224
 20
1010.747768866327
 30
0.0
 11
8451.176963454573
 21
986.7477688663274
 31
0.0
  0
LINE
  5
25A97
330
747D
100
AcDbEntity
  8
細線
 48
50.0
100
AcDbLine
 10
8365.858137888979
 20
1010.747768866327
 30
0.0
 11
8372.288918507326
 21
986.7477688663274
 31
0.0
  0
LINE
  5
25A98
330
747D
100
AcDbEntity
  8
細線
 48
50.0
100
AcDbLine
 10
8286.97009294173
 20
1010.747768866329
 30
0.0
 11
8293.400873560086
 21
986.7477688663294
 31
0.0
  0
LINE
  5
25A99
330
747D
100
AcDbEntity
  8
細線
 48
50.0
100
AcDbLine
 10
8359.427357270631
 20
986.7477688663266
 30
0.0
 11
8393.724853901813
 21
1114.747768866326
 31
0.0
  0
LINE
  5
25A9A
330
747D
100
AcDbEntity
  8
細線
 48
50.0
100
AcDbLine
 10
8280.539312323382
 20
986.7477688663274
 30
0.0
 11
8314.836808954554
 21
1114.747768866329
 31
0.0
  0
LINE
  5
25A9B
330
747D
100
AcDbEntity
  8
細線
 48
50.0
100
AcDbLine
 10
8438.315402217872
 20
986.7477688663274
 30
0.0
 11
8472.61289884906
 21
1114.747768866326
 31
0.0
  0
LINE
  5
25A9C
330
747D
100
AcDbEntity
  8
部品1
 48
50.0
100
AcDbLine
 10
8509.804293038381
 20
1114.747768866329
 30
0.0
 11
8509.804293038381
 21
986.7477688663294
 31
0.0
  0
LINE
  5
25A9D
330
747D
100
AcDbEntity
  8
細線
 48
50.0
100
AcDbLine
 10
8229.517983388975
 20
1090.747768866329
 30
0.0
 11
8223.087202770628
 21
1114.747768866329
 31
0.0
  0
LINE
  5
25A9E
330
747D
100
AcDbEntity
  8
細線
 48
50.0
100
AcDbLine
 10
8150.62993844173
 20
1090.747768866329
 30
0.0
 11
8144.199157823381
 21
1114.747768866329
 31
0.0
  0
LINE
  5
25A9F
330
747D
100
AcDbEntity
  8
細線
 48
50.0
100
AcDbLine
 10
7992.853848547234
 20
1090.747768866329
 30
0.0
 11
7986.423067928888
 21
1114.747768866329
 31
0.0
  0
LINE
  5
25AA0
330
747D
100
AcDbEntity
  8
細線
 48
50.0
100
AcDbLine
 10
8071.741893494481
 20
1090.747768866329
 30
0.0
 11
8065.311112876134
 21
1114.747768866329
 31
0.0
  0
LINE
  5
25AA1
330
747D
100
AcDbEntity
  8
細線
 48
50.0
100
AcDbLine
 10
8129.19400304724
 20
1010.747768866329
 30
0.0
 11
8135.624783665585
 21
986.7477688663294
 31
0.0
  0
LINE
  5
25AA2
330
747D
100
AcDbEntity
  8
細線
 48
50.0
100
AcDbLine
 10
8208.082047994485
 20
1010.747768866329
 30
0.0
 11
8214.51282861283
 21
986.7477688663294
 31
0.0
  0
LINE
  5
25AA3
330
747D
100
AcDbEntity
  8
細線
 48
50.0
100
AcDbLine
 10
7971.417913152746
 20
1010.747768866329
 30
0.0
 11
7977.848693771093
 21
986.7477688663294
 31
0.0
  0
LINE
  5
25AA4
330
747D
100
AcDbEntity
  8
細線
 48
50.0
100
AcDbLine
 10
8050.305958099993
 20
1010.747768866329
 30
0.0
 11
8056.73673871834
 21
986.7477688663294
 31
0.0
  0
LINE
  5
25AA5
330
747D
100
AcDbEntity
  8
細線
 48
50.0
100
AcDbLine
 10
8201.651267376131
 20
986.7477688663294
 30
0.0
 11
8235.948764007316
 21
1114.747768866327
 31
0.0
  0
LINE
  5
25AA6
330
747D
100
AcDbEntity
  8
細線
 48
50.0
100
AcDbLine
 10
8043.875177481641
 20
986.7477688663294
 30
0.0
 11
8078.172674112826
 21
1114.747768866327
 31
0.0
  0
LINE
  5
25AA7
330
747D
100
AcDbEntity
  8
細線
 48
50.0
100
AcDbLine
 10
7964.987132534393
 20
986.7477688663294
 30
0.0
 11
7999.284629165576
 21
1114.747768866329
 31
0.0
  0
LINE
  5
25AA8
330
747D
100
AcDbEntity
  8
細線
 48
50.0
100
AcDbLine
 10
8122.76322242889
 20
986.7477688663274
 30
0.0
 11
8157.060719060071
 21
1114.747768866327
 31
0.0
  0
LINE
  5
25AA9
330
747D
100
AcDbEntity
  8
細線
 48
50.0
100
AcDbLine
 10
8247.535987993186
 20
1114.747768866329
 30
0.0
 11
8429.804293038378
 21
1297.016073911525
 31
0.0
  0
LINE
  5
25AAA
330
747D
100
AcDbEntity
  8
部品1
 48
50.0
100
AcDbLine
 10
8429.804293038378
 20
1354.747768866329
 30
0.0
 11
8429.804293038378
 21
1114.747768866329
 31
0.0
  0
LINE
  5
25AAB
330
747D
100
AcDbEntity
  8
細線
 48
50.0
100
AcDbLine
 10
8220.595219629984
 20
1114.747768866329
 30
0.0
 11
8429.804293038378
 21
1323.956842274722
 31
0.0
  0
LINE
  5
25AAC
330
747D
100
AcDbEntity
  8
細線
 48
50.0
100
AcDbLine
 10
8193.654451266771
 20
1114.747768866329
 30
0.0
 11
8429.804293038378
 21
1350.897610637938
 31
0.0
  0
LINE
  5
25AAD
330
747D
100
AcDbEntity
  8
細線
 48
50.0
100
AcDbLine
 10
7978.128304361113
 20
1114.747768866329
 30
0.0
 11
8301.804293038378
 21
1438.423757543595
 31
0.0
  0
LINE
  5
25AAE
330
747D
100
AcDbEntity
  8
細線
 48
50.0
100
AcDbLine
 10
8032.009841087528
 20
1114.747768866329
 30
0.0
 11
8301.804293038378
 21
1384.542220817187
 31
0.0
  0
LINE
  5
25AAF
330
747D
100
AcDbEntity
  8
細線
 48
50.0
100
AcDbLine
 10
8005.069072724323
 20
1114.747768866329
 30
0.0
 11
8301.804293038378
 21
1411.482989180382
 31
0.0
  0
LINE
  5
25AB0
330
747D
100
AcDbEntity
  8
細線
 48
50.0
100
AcDbLine
 10
7759.804293038374
 20
1327.476051354915
 30
0.0
 11
7787.076010549793
 21
1354.747768866329
 31
0.0
  0
LINE
  5
25AB1
330
747D
100
AcDbEntity
  8
部品1
 48
50.0
100
AcDbLine
 10
7759.804293038378
 20
1354.747768866329
 30
0.0
 11
7887.804293038378
 21
1354.747768866329
 31
0.0
  0
LINE
  5
25AB2
330
747D
100
AcDbEntity
  8
細線
 48
50.0
100
AcDbLine
 10
7759.804293038374
 20
1300.535282991704
 30
0.0
 11
7814.016778913003
 21
1354.747768866329
 31
0.0
  0
LWPOLYLINE
  5
25AB3
330
747D
100
AcDbEntity
  8
部品1
 48
50.0
100
AcDbPolyline
 90
        2
 70
     0
 43
8.0
 10
7473.664391205422
 20
1658.74776886633
 10
7887.804293038378
 20
1658.74776886633
  0
LINE
  5
25AB4
330
747D
100
AcDbEntity
  8
細線
 48
50.0
100
AcDbLine
 10
7835.077758652733
 20
1090.747768866329
 30
0.0
 11
7828.646978034385
 21
1114.747768866329
 31
0.0
  0
LINE
  5
25AB5
330
747D
100
AcDbEntity
  8
細線
 48
50.0
100
AcDbLine
 10
7913.965803599984
 20
1090.747768866329
 30
0.0
 11
7907.535022981637
 21
1114.747768866329
 31
0.0
  0
LINE
  5
25AB6
330
747D
100
AcDbEntity
  8
細線
 48
50.0
100
AcDbLine
 10
7756.18971370548
 20
1090.747768866329
 30
0.0
 11
7749.758933087135
 21
1114.747768866329
 31
0.0
  0
LINE
  5
25AB7
330
747D
100
AcDbEntity
  8
細線
 48
50.0
100
AcDbLine
 10
7679.804293038379
 20
1100.087689832109
 30
0.0
 11
7683.732449376574
 21
1114.747768866329
 31
0.0
  0
LINE
  5
25AB8
330
747D
100
AcDbEntity
  8
細線
 48
50.0
100
AcDbLine
 10
7813.641823258244
 20
1010.747768866329
 30
0.0
 11
7820.072603876589
 21
986.7477688663294
 31
0.0
  0
LINE
  5
25AB9
330
747D
100
AcDbEntity
  8
細線
 48
50.0
100
AcDbLine
 10
7892.529868205494
 20
1010.747768866329
 30
0.0
 11
7898.960648823842
 21
986.7477688663294
 31
0.0
  0
LINE
  5
25ABA
330
747D
100
AcDbEntity
  8
細線
 48
50.0
100
AcDbLine
 10
7734.753778310992
 20
1010.747768866329
 30
0.0
 11
7741.184558929337
 21
986.7477688663294
 31
0.0
  0
LINE
  5
25ABB
330
747D
100
AcDbEntity
  8
細線
 48
50.0
100
AcDbLine
 10
7886.099087587144
 20
986.7477688663274
 30
0.0
 11
7920.396584218325
 21
1114.747768866327
 31
0.0
  0
LINE
  5
25ABC
330
747D
100
AcDbEntity
  8
細線
 48
50.0
100
AcDbLine
 10
7728.322997692638
 20
986.7477688663274
 30
0.0
 11
7762.620494323821
 21
1114.747768866327
 31
0.0
  0
LINE
  5
25ABD
330
747D
100
AcDbEntity
  8
部品1
 48
50.0
100
AcDbLine
 10
7679.804293038381
 20
986.7477688663294
 30
0.0
 11
7679.804293038381
 21
1114.747768866329
 31
0.0
  0
LINE
  5
25ABE
330
747D
100
AcDbEntity
  8
細線
 48
50.0
100
AcDbLine
 10
7807.211042639896
 20
986.7477688663294
 30
0.0
 11
7841.508539271079
 21
1114.747768866329
 31
0.0
  0
LINE
  5
25ABF
330
747D
100
AcDbEntity
  8
部品1
 48
50.0
100
AcDbLine
 10
7759.804293038378
 20
1114.747768866329
 30
0.0
 11
7759.804293038378
 21
1354.747768866329
 31
0.0
  0
LINE
  5
25AC0
330
747D
100
AcDbEntity
  8
細線
 48
50.0
100
AcDbLine
 10
7759.804293038374
 20
1273.5945146285
 30
0.0
 11
7840.957547276208
 21
1354.747768866329
 31
0.0
  0
LINE
  5
25AC1
330
747D
100
AcDbEntity
  8
部品1
 48
50.0
100
AcDbLine
 10
8509.804293038381
 20
986.7477688663294
 30
0.0
 11
7679.804293038381
 21
986.7477688663294
 31
0.0
  0
LINE
  5
25AC2
330
747D
100
AcDbEntity
  8
部品1
 48
50.0
100
AcDbLine
 10
8509.804293038381
 20
1114.747768866329
 30
0.0
 11
7679.804293038381
 21
1114.747768866329
 31
0.0
  0
LINE
  5
25AC3
330
747D
100
AcDbEntity
  8
細線
 48
50.0
100
AcDbLine
 10
7762.602157455454
 20
1114.747768866329
 30
0.0
 11
8301.804293038378
 21
1653.949904449255
 31
0.0
  0
LINE
  5
25AC4
330
747D
100
AcDbEntity
  8
細線
 48
50.0
100
AcDbLine
 10
7789.542925818664
 20
1114.747768866329
 30
0.0
 11
8301.804293038381
 21
1627.009136086043
 31
0.0
  0
LINE
  5
25AC5
330
747D
100
AcDbEntity
  8
細線
 48
50.0
100
AcDbLine
 10
7816.483694181869
 20
1114.747768866329
 30
0.0
 11
8301.804293038378
 21
1600.068367722837
 31
0.0
  0
LINE
  5
25AC6
330
747D
100
AcDbEntity
  8
細線
 48
50.0
100
AcDbLine
 10
7887.804293038378
 20
1455.476051354915
 30
0.0
 11
8046.204293038373
 21
1613.87605135491
 31
0.0
  0
LINE
  5
25AC7
330
747D
100
AcDbEntity
  8
細線
 48
50.0
100
AcDbLine
 10
7887.804293038378
 20
1401.5945146285
 30
0.0
 11
8060.957547276215
 21
1574.747768866327
 31
0.0
  0
LINE
  5
25AC8
330
747D
100
AcDbEntity
  8
細線
 48
50.0
100
AcDbLine
 10
7887.804293038378
 20
1428.535282991707
 30
0.0
 11
8046.204293038373
 21
1586.935282991696
 31
0.0
  0
LINE
  5
25AC9
330
747D
100
AcDbEntity
  8
部品1
100
AcDbLine
 10
8046.204293038373
 20
1574.747768866329
 30
0.0
 11
8046.20429303838
 21
1898.747768866329
 31
0.0
  0
LINE
  5
25ACA
330
747D
100
AcDbEntity
  8
部品1
100
AcDbLine
 10
8172.20429303838
 20
1574.747768866329
 30
0.0
 11
8172.20429303838
 21
1898.747768866329
 31
0.0
  0
LINE
  5
25ACB
330
747D
100
AcDbEntity
  8
細線
 48
50.0
100
AcDbLine
 10
8172.20429303838
 20
1712.935282991701
 30
0.0
 11
8301.804293038378
 21
1842.535282991697
 31
0.0
  0
LINE
  5
25ACC
330
747D
100
AcDbEntity
  8
細線
 48
50.0
100
AcDbLine
 10
8172.20429303838
 20
1685.994514628488
 30
0.0
 11
8301.804293038378
 21
1815.594514628479
 31
0.0
  0
LINE
  5
25ACD
330
747D
100
AcDbEntity
  8
部品1
100
AcDbLine
 10
8100.204293038379
 20
1673.747768866329
 30
0.0
 11
8100.204293038377
 21
1947.90776886633
 31
0.0
  0
LINE
  5
25ACE
330
747D
100
AcDbEntity
  8
部品1
100
AcDbLine
 10
8118.204293038379
 20
1673.747768866329
 30
0.0
 11
8118.204293038376
 21
1947.90776886633
 31
0.0
  0
TEXT
  5
25ACF
330
747D
100
AcDbEntity
  8
部品1
 48
50.0
100
AcDbText
 10
7473.664391205422
 20
1669.986761149585
 30
0.0
 40
80.0
  1
▽G.L
  7
STYLE2
100
AcDbText
  0
LINE
  5
25AD0
330
747D
100
AcDbEntity
  8
細線
 48
50.0
100
AcDbLine
 10
7887.804293038378
 20
1617.12066153416
 30
0.0
 11
8046.204293038377
 21
1775.520661534152
 31
0.0
  0
LINE
  5
25AD1
330
747D
100
AcDbEntity
  8
細線
 48
50.0
100
AcDbLine
 10
7887.804293038378
 20
1644.061429897367
 30
0.0
 11
8046.204293038377
 21
1802.461429897365
 31
0.0
  0
LINE
  5
25AD2
330
747D
100
AcDbEntity
  8
細線
 48
50.0
100
AcDbLine
 10
7887.804293038378
 20
1671.002198260575
 30
0.0
 11
8046.204293038377
 21
1829.402198260572
 31
0.0
  0
LINE
  5
25AD3
330
747D
100
AcDbEntity
  8
部品1
 48
50.0
100
AcDbLine
 10
7887.804293038378
 20
1354.747768866329
 30
0.0
 11
7887.804293038378
 21
1898.747768866329
 31
0.0
  0
LINE
  5
25AD4
330
747D
100
AcDbEntity
  8
部品1
100
AcDbLine
 10
8301.804293038378
 20
1354.747768866329
 30
0.0
 11
8301.804293038378
 21
1898.747768866329
 31
0.0
  0
LINE
  5
25AD5
330
747D
100
AcDbEntity
  8
細線
 48
50.0
100
AcDbLine
 10
8172.20429303838
 20
1739.876051354918
 30
0.0
 11
8301.804293038378
 21
1869.476051354916
 31
0.0
  0
LINE
  5
25AD6
330
747D
100
AcDbEntity
  8
細線
 48
50.0
100
AcDbLine
 10
6296.257402363655
 20
1779.494620763045
 30
0.0
 11
6379.764979861185
 21
1863.002198260575
 31
0.0
  0
LINE
  5
25AD7
330
747D
100
AcDbEntity
  8
細線
 48
50.0
100
AcDbLine
 10
6307.317687127172
 20
1763.614137163351
 30
0.0
 11
6379.764979861185
 21
1836.061429897367
 31
0.0
  0
LINE
  5
25AD8
330
747D
100
AcDbEntity
  8
細線
 48
50.0
100
AcDbLine
 10
6187.764979861185
 20
1886.528345166234
 30
0.0
 11
6199.98440356128
 21
1898.747768866329
 31
0.0
  0
LINE
  5
25AD9
330
747D
100
AcDbEntity
  8
細線
 48
50.0
100
AcDbLine
 10
6187.764979861185
 20
1832.646808439819
 30
0.0
 11
6253.865940287695
 21
1898.747768866329
 31
0.0
  0
LINE
  5
25ADA
330
747D
100
AcDbEntity
  8
細線
 48
50.0
100
AcDbLine
 10
6187.764979861185
 20
1859.587576803027
 30
0.0
 11
6226.92517192449
 21
1898.747768866329
 31
0.0
  0
LINE
  5
25ADB
330
747D
100
AcDbEntity
  8
部品1
 48
50.0
100
AcDbLine
 10
6187.764979861185
 20
1898.747768866329
 30
0.0
 11
6379.764979861185
 21
1898.747768866329
 31
0.0
  0
DIMENSION
  5
25ADC
330
747D
100
AcDbEntity
  8
寸法
 48
50.0
100
AcDbDimension
  2
*D42
 10
6187.764979861185
 20
2318.41557678271
 30
0.0
 11
6283.764979861185
 21
2318.41557678271
 31
0.0
 70
   160
  1
120\P200\P280
 71
     5
 42
192.0
  3
INABA_S40G
100
AcDbAlignedDimension
 13
6379.764979861185
 23
1898.747768866329
 33
0.0
 14
6187.764979861185
 24
1898.747768866329
 34
0.0
100
AcDbRotatedDimension
1001
ACAD
1000
DSTYLE
1002
{
1070
   341
1005
0
1002
}
  0
MTEXT
  5
25ADD
102
{ACAD_REACTORS
330
25B32
102
}
330
747D
100
AcDbEntity
  8
寸法
 62
     7
 48
50.0
100
AcDbMText
 10
6621.503435722435
 20
937.3986831341763
 30
0.0
 40
80.0
 41
0.8
 71
     4
 72
     1
  1
\A1;D10@300
  7
STYLE2
 73
     1
 44
1.0
1001
ACAD
1000
MTEXTBEGIN
1070
    73
1070
     1
1070
    44
1040
1.0
1070
    74
1070
     0
1000
MTEXTEND
  0
LINE
  5
25ADE
330
747D
100
AcDbEntity
  8
細線
 48
50.0
100
AcDbLine
 10
6307.764979861191
 20
1548.53528299171
 30
0.0
 11
6379.764979861178
 21
1620.535282991705
 31
0.0
  0
LINE
  5
25ADF
330
747D
100
AcDbEntity
  8
細線
 48
50.0
100
AcDbLine
 10
6307.764979861186
 20
1575.476051354915
 30
0.0
 11
6379.764979861185
 21
1647.476051354915
 31
0.0
  0
LINE
  5
25AE0
330
747D
100
AcDbEntity
  8
細線
 48
50.0
100
AcDbLine
 10
6307.764979861191
 20
1306.068367722841
 30
0.0
 11
6379.764979861178
 21
1378.068367722841
 31
0.0
  0
LINE
  5
25AE1
330
747D
100
AcDbEntity
  8
細線
 48
50.0
100
AcDbLine
 10
6307.764979861191
 20
1359.949904449259
 30
0.0
 11
6379.764979861178
 21
1431.949904449255
 31
0.0
  0
LINE
  5
25AE2
330
747D
100
AcDbEntity
  8
細線
 48
50.0
100
AcDbLine
 10
6307.764979861191
 20
1333.00913608605
 30
0.0
 11
6379.764979861178
 21
1405.009136086045
 31
0.0
  0
LINE
  5
25AE3
330
747D
100
AcDbEntity
  8
部品1
 48
50.0
100
AcDbLine
 10
6379.764979861185
 20
1354.747768866329
 30
0.0
 11
6507.764979861185
 21
1354.747768866329
 31
0.0
  0
LINE
  5
25AE4
330
747D
100
AcDbEntity
  8
細線
 48
50.0
100
AcDbLine
 10
6307.764979861191
 20
1521.5945146285
 30
0.0
 11
6379.764979861178
 21
1593.5945146285
 31
0.0
  0
LINE
  5
25AE5
330
747D
100
AcDbEntity
  8
部品1
 48
50.0
100
AcDbLine
 10
6275.764979861186
 20
1700.874983563451
 30
0.0
 11
6275.764979861186
 21
1759.002198260574
 31
0.0
  0
LINE
  5
25AE6
330
747D
100
AcDbEntity
  8
細線
 48
50.0
100
AcDbLine
 10
6187.764979861185
 20
1671.002198260575
 30
0.0
 11
6259.764979861185
 21
1743.002198260574
 31
0.0
  0
LINE
  5
25AE7
330
747D
100
AcDbEntity
  8
部品1
 48
50.0
100
AcDbLine
 10
6259.764979861185
 20
1700.874983563455
 30
0.0
 11
6259.764979861185
 21
1759.002198260574
 31
0.0
  0
LINE
  5
25AE8
330
747D
100
AcDbEntity
  8
細線
 48
50.0
100
AcDbLine
 10
6187.764979861185
 20
1644.061429897367
 30
0.0
 11
6259.764979861185
 21
1716.061429897367
 31
0.0
  0
LINE
  5
25AE9
330
747D
100
AcDbEntity
  8
細線
 48
50.0
100
AcDbLine
 10
6187.764979861185
 20
1617.12066153416
 30
0.0
 11
6271.519301890479
 21
1700.874983563451
 31
0.0
  0
LINE
  5
25AEA
330
747D
100
AcDbEntity
  8
部品1
 48
50.0
100
AcDbLine
 10
6275.764979861186
 20
1700.874983563451
 30
0.0
 11
6259.764979861185
 21
1700.874983563455
 31
0.0
  0
LINE
  5
25AEB
330
747D
100
AcDbEntity
  8
細線
 48
50.0
100
AcDbLine
 10
6059.764979861178
 20
1327.476051354915
 30
0.0
 11
6087.0366973726
 21
1354.747768866329
 31
0.0
  0
LINE
  5
25AEC
330
747D
100
AcDbEntity
  8
細線
 48
50.0
100
AcDbLine
 10
6059.764979861178
 20
1300.535282991704
 30
0.0
 11
6113.977465735811
 21
1354.747768866329
 31
0.0
  0
LINE
  5
25AED
330
747D
100
AcDbEntity
  8
部品1
 48
50.0
100
AcDbLine
 10
6059.764979861185
 20
1354.747768866329
 30
0.0
 11
6187.764979861185
 21
1354.747768866329
 31
0.0
  0
LINE
  5
25AEE
330
747D
100
AcDbEntity
  8
細線
 48
50.0
100
AcDbLine
 10
6275.764979861186
 20
1732.061429897367
 30
0.0
 11
6291.764979861185
 21
1748.061429897367
 31
0.0
  0
LINE
  5
25AEF
330
747D
100
AcDbEntity
  8
細線
 48
50.0
100
AcDbLine
 10
6275.764979861186
 20
1705.12066153416
 30
0.0
 11
6291.764979861185
 21
1721.12066153416
 31
0.0
  0
LINE
  5
25AF0
330
747D
100
AcDbEntity
  8
細線
 48
50.0
100
AcDbLine
 10
6187.764979861185
 20
1401.5945146285
 30
0.0
 11
6291.764979861191
 21
1505.5945146285
 31
0.0
  0
LINE
  5
25AF1
330
747D
100
AcDbEntity
  8
細線
 48
50.0
100
AcDbLine
 10
6187.764979861185
 20
1455.476051354915
 30
0.0
 11
6291.764979861185
 21
1559.476051354915
 31
0.0
  0
LINE
  5
25AF2
330
747D
100
AcDbEntity
  8
細線
 48
50.0
100
AcDbLine
 10
6187.764979861185
 20
1428.535282991707
 30
0.0
 11
6291.764979861191
 21
1532.53528299171
 31
0.0
  0
LINE
  5
25AF3
330
747D
100
AcDbEntity
  8
細線
 48
50.0
100
AcDbLine
 10
6450.590625264533
 20
1090.747768866329
 30
0.0
 11
6444.159844646186
 21
1114.747768866329
 31
0.0
  0
LINE
  5
25AF4
330
747D
100
AcDbEntity
  8
細線
 48
50.0
100
AcDbLine
 10
6493.615138089579
 20
1114.747768866329
 30
0.0
 11
6507.764979861185
 21
1128.897610637936
 31
0.0
  0
LINE
  5
25AF5
330
747D
100
AcDbEntity
  8
細線
 48
50.0
100
AcDbLine
 10
6529.47867021178
 20
1090.747768866329
 30
0.0
 11
6523.047889593432
 21
1114.747768866329
 31
0.0
  0
LINE
  5
25AF6
330
747D
100
AcDbEntity
  8
部品1
 48
50.0
100
AcDbLine
 10
6451.764979861185
 20
1226.747768866329
 30
0.0
 11
6451.764979861185
 21
1210.747768866329
 31
0.0
  0
LINE
  5
25AF7
330
747D
100
AcDbEntity
  8
細線
 48
50.0
100
AcDbLine
 10
6331.970527910333
 20
1114.747768866329
 30
0.0
 11
6427.971415755471
 21
1210.748656711468
 31
0.0
  0
LINE
  5
25AF8
330
747D
100
AcDbEntity
  8
細線
 48
50.0
100
AcDbLine
 10
6305.029759547129
 20
1114.747768866329
 30
0.0
 11
6401.02975954713
 21
1210.747768866329
 31
0.0
  0
LINE
  5
25AF9
330
747D
100
AcDbEntity
  8
細線
 48
50.0
100
AcDbLine
 10
6371.702580317287
 20
1090.747768866329
 30
0.0
 11
6365.271799698941
 21
1114.747768866329
 31
0.0
  0
LINE
  5
25AFA
330
747D
100
AcDbEntity
  8
細線
 48
50.0
100
AcDbLine
 10
6292.814535370042
 20
1090.747768866329
 30
0.0
 11
6286.383754751694
 21
1114.747768866329
 31
0.0
  0
ARC
  5
25AFB
330
747D
100
AcDbEntity
  8
部品1
 48
50.0
100
AcDbCircle
 10
6283.764979861185
 20
1234.747768866329
 30
0.0
 40
24.0
100
AcDbArc
 50
340.5287793655256
 51
0.0
  0
CIRCLE
  5
25AFC
330
747D
100
AcDbEntity
  8
部品1
 48
50.0
100
AcDbCircle
 10
6411.764979861185
 20
1234.747768866329
 30
0.0
 40
8.0
  0
LINE
  5
25AFD
330
747D
100
AcDbEntity
  8
細線
 48
50.0
100
AcDbLine
 10
6443.970527910332
 20
1226.747768866329
 30
0.0
 11
6507.764979861185
 21
1290.54222081718
 31
0.0
  0
LINE
  5
25AFE
330
747D
100
AcDbEntity
  8
細線
 48
50.0
100
AcDbLine
 10
6580.499999146188
 20
986.7477688663274
 30
0.0
 11
6587.764979861185
 21
1013.861046010717
 31
0.0
  0
LINE
  5
25AFF
330
747D
100
AcDbEntity
  8
細線
 48
50.0
100
AcDbLine
 10
6586.930779764538
 20
1010.747768866329
 30
0.0
 11
6587.764979861185
 21
1007.634491721965
 31
0.0
  0
LINE
  5
25B00
330
747D
100
AcDbEntity
  8
細線
 48
50.0
100
AcDbLine
 10
6508.042734817291
 20
1010.747768866329
 30
0.0
 11
6514.473515435638
 21
986.7477688663294
 31
0.0
  0
LINE
  5
25B01
330
747D
100
AcDbEntity
  8
細線
 48
50.0
100
AcDbLine
 10
6350.266644922798
 20
1010.747768866329
 30
0.0
 11
6356.697425541145
 21
986.7477688663294
 31
0.0
  0
LINE
  5
25B02
330
747D
100
AcDbEntity
  8
細線
 48
50.0
100
AcDbLine
 10
6429.154689870043
 20
1010.747768866329
 30
0.0
 11
6435.585470488391
 21
986.7477688663294
 31
0.0
  0
LINE
  5
25B03
330
747D
100
AcDbEntity
  8
細線
 48
50.0
100
AcDbLine
 10
6422.723909251693
 20
986.7477688663274
 30
0.0
 11
6457.021405882878
 21
1114.747768866327
 31
0.0
  0
LINE
  5
25B04
330
747D
100
AcDbEntity
  8
細線
 48
50.0
100
AcDbLine
 10
6343.835864304445
 20
986.7477688663294
 30
0.0
 11
6378.133360935631
 21
1114.747768866327
 31
0.0
  0
LINE
  5
25B05
330
747D
100
AcDbEntity
  8
細線
 48
50.0
100
AcDbLine
 10
6501.611954198939
 20
986.7477688663294
 30
0.0
 11
6535.909450830124
 21
1114.747768866327
 31
0.0
  0
LINE
  5
25B06
330
747D
100
AcDbEntity
  8
部品1
 48
50.0
100
AcDbLine
 10
6587.76497986119
 20
1114.747768866329
 30
0.0
 11
6587.76497986119
 21
986.7477688663294
 31
0.0
  0
LINE
  5
25B07
330
747D
100
AcDbEntity
  8
部品1
 48
50.0
100
AcDbLine
 10
6275.764979861186
 20
1292.874983563452
 30
0.0
 11
6275.764979861186
 21
1234.747768866329
 31
0.0
  0
LINE
  5
25B08
330
747D
100
AcDbEntity
  8
細線
 48
50.0
100
AcDbLine
 10
6201.503612641469
 20
1226.747768866329
 30
0.0
 11
6259.764979861185
 21
1285.009136086048
 31
0.0
  0
LINE
  5
25B09
330
747D
100
AcDbEntity
  8
部品1
 48
50.0
100
AcDbLine
 10
6259.764979861185
 20
1292.874983563452
 30
0.0
 11
6259.764979861185
 21
1234.747768866329
 31
0.0
  0
LINE
  5
25B0A
330
747D
100
AcDbEntity
  8
細線
 48
50.0
100
AcDbLine
 10
6116.444381004674
 20
1114.747768866329
 30
0.0
 11
6212.444381004674
 21
1210.747768866329
 31
0.0
  0
LINE
  5
25B0B
330
747D
100
AcDbEntity
  8
細線
 48
50.0
100
AcDbLine
 10
6213.926490422789
 20
1090.747768866329
 30
0.0
 11
6207.495709804444
 21
1114.747768866329
 31
0.0
  0
LINE
  5
25B0C
330
747D
100
AcDbEntity
  8
細線
 48
50.0
100
AcDbLine
 10
6135.038445475537
 20
1090.747768866329
 30
0.0
 11
6128.607664857191
 21
1114.747768866329
 31
0.0
  0
ARC
  5
25B0D
330
747D
100
AcDbEntity
  8
部品1
 48
50.0
100
AcDbCircle
 10
6283.764979861185
 20
1234.747768866329
 30
0.0
 40
24.0
100
AcDbArc
 50
180.0
 51
199.4712206344743
  0
LINE
  5
25B0E
330
747D
100
AcDbEntity
  8
細線
 48
50.0
100
AcDbLine
 10
6228.444381004674
 20
1226.747768866329
 30
0.0
 11
6259.764979861185
 21
1258.068367722841
 31
0.0
  0
CIRCLE
  5
25B0F
330
747D
100
AcDbEntity
  8
部品1
 48
50.0
100
AcDbCircle
 10
6155.764979861185
 20
1234.747768866329
 30
0.0
 40
8.0
  0
LINE
  5
25B10
330
747D
100
AcDbEntity
  8
部品1
 48
50.0
100
AcDbLine
 10
6275.764979861186
 20
1292.874983563452
 30
0.0
 11
6259.764979861185
 21
1292.874983563452
 31
0.0
  0
LINE
  5
25B11
330
747D
100
AcDbEntity
  8
細線
 48
50.0
100
AcDbLine
 10
5979.764979861186
 20
1100.087689832109
 30
0.0
 11
5983.693136199381
 21
1114.747768866329
 31
0.0
  0
LINE
  5
25B12
330
747D
100
AcDbEntity
  8
細線
 48
50.0
100
AcDbLine
 10
6056.150400528286
 20
1090.747768866329
 30
0.0
 11
6049.719619909939
 21
1114.747768866329
 31
0.0
  0
LINE
  5
25B13
330
747D
100
AcDbEntity
  8
部品1
 48
50.0
100
AcDbLine
 10
6115.764979861186
 20
1226.747768866329
 30
0.0
 11
6115.764979861186
 21
1210.747768866329
 31
0.0
  0
LINE
  5
25B14
330
747D
100
AcDbEntity
  8
細線
 48
50.0
100
AcDbLine
 10
6062.562844278258
 20
1114.747768866329
 30
0.0
 11
6158.562844278258
 21
1210.747768866329
 31
0.0
  0
LINE
  5
25B15
330
747D
100
AcDbEntity
  8
細線
 48
50.0
100
AcDbLine
 10
6089.503612641468
 20
1114.747768866329
 30
0.0
 11
6185.503612641468
 21
1210.747768866329
 31
0.0
  0
LINE
  5
25B16
330
747D
100
AcDbEntity
  8
細線
 48
50.0
100
AcDbLine
 10
6192.4905550283
 20
1010.747768866329
 30
0.0
 11
6198.921335646646
 21
986.7477688663294
 31
0.0
  0
LINE
  5
25B17
330
747D
100
AcDbEntity
  8
細線
 48
50.0
100
AcDbLine
 10
6271.378599975553
 20
1010.747768866329
 30
0.0
 11
6277.809380593899
 21
986.7477688663294
 31
0.0
  0
LINE
  5
25B18
330
747D
100
AcDbEntity
  8
細線
 48
50.0
100
AcDbLine
 10
6034.714465133797
 20
1010.747768866329
 30
0.0
 11
6041.145245752143
 21
986.7477688663294
 31
0.0
  0
LINE
  5
25B19
330
747D
100
AcDbEntity
  8
細線
 48
50.0
100
AcDbLine
 10
6113.602510081047
 20
1010.747768866329
 30
0.0
 11
6120.033290699396
 21
986.7477688663294
 31
0.0
  0
LINE
  5
25B1A
330
747D
100
AcDbEntity
  8
部品1
 48
50.0
100
AcDbLine
 10
5979.764979861187
 20
986.7477688663294
 30
0.0
 11
5979.764979861187
 21
1114.747768866329
 31
0.0
  0
LINE
  5
25B1B
330
747D
100
AcDbEntity
  8
細線
 48
50.0
100
AcDbLine
 10
6028.283684515443
 20
986.7477688663274
 30
0.0
 11
6062.581181146626
 21
1114.747768866327
 31
0.0
  0
LINE
  5
25B1C
330
747D
100
AcDbEntity
  8
細線
 48
50.0
100
AcDbLine
 10
6186.059774409947
 20
986.7477688663274
 30
0.0
 11
6220.35727104113
 21
1114.747768866327
 31
0.0
  0
LINE
  5
25B1D
330
747D
100
AcDbEntity
  8
細線
 48
50.0
100
AcDbLine
 10
6107.171729462701
 20
986.7477688663294
 30
0.0
 11
6141.469226093885
 21
1114.747768866329
 31
0.0
  0
LINE
  5
25B1E
330
747D
100
AcDbEntity
  8
細線
 48
50.0
100
AcDbLine
 10
6278.088991183919
 20
1114.747768866329
 30
0.0
 11
6374.088991183919
 21
1210.747768866329
 31
0.0
  0
CIRCLE
  5
25B1F
330
747D
100
AcDbEntity
  8
部品1
 48
50.0
100
AcDbCircle
 10
6283.764979861185
 20
1234.747768866329
 30
0.0
 40
8.0
  0
LINE
  5
25B20
330
747D
100
AcDbEntity
  8
部品1
 48
50.0
100
AcDbLine
 10
6587.76497986119
 20
1114.747768866329
 30
0.0
 11
5979.764979861187
 21
1114.747768866329
 31
0.0
  0
LINE
  5
25B21
330
747D
100
AcDbEntity
  8
部品1
 48
50.0
100
AcDbLine
 10
6115.764979861186
 20
1226.747768866329
 30
0.0
 11
6451.764979861185
 21
1226.747768866329
 31
0.0
  0
LINE
  5
25B22
330
747D
100
AcDbEntity
  8
部品1
 48
50.0
100
AcDbLine
 10
6115.764979861186
 20
1210.747768866329
 30
0.0
 11
6451.764979861185
 21
1210.747768866329
 31
0.0
  0
LINE
  5
25B23
330
747D
100
AcDbEntity
  8
部品1
 48
50.0
100
AcDbLine
 10
6587.76497986119
 20
986.7477688663294
 30
0.0
 11
5979.764979861187
 21
986.7477688663294
 31
0.0
  0
LINE
  5
25B24
330
747D
100
AcDbEntity
  8
細線
 48
50.0
100
AcDbLine
 10
6264.9478193572
 20
986.7477688663294
 30
0.0
 11
6299.245315988382
 21
1114.747768866329
 31
0.0
  0
LINE
  5
25B25
330
747D
100
AcDbEntity
  8
細線
 48
50.0
100
AcDbLine
 10
6275.764979861186
 20
1274.068367722841
 30
0.0
 11
6291.764979861191
 21
1290.068367722841
 31
0.0
  0
LINE
  5
25B26
330
747D
100
AcDbEntity
  8
部品1
 48
50.0
100
AcDbLine
 10
6291.764979861191
 20
1234.747768866329
 30
0.0
 11
6291.764979861178
 21
1759.002198260574
 31
0.0
  0
LINE
  5
25B27
330
747D
100
AcDbEntity
  8
部品1
 48
50.0
100
AcDbLine
 10
6307.764979861191
 20
1234.747768866329
 30
0.0
 11
6307.764979861186
 21
1759.002198260574
 31
0.0
  0
LINE
  5
25B28
330
747D
100
AcDbEntity
  8
部品1
 48
50.0
100
AcDbLine
 10
6507.764979861185
 20
1354.747768866329
 30
0.0
 11
6507.764979861185
 21
1114.747768866329
 31
0.0
  0
LINE
  5
25B29
330
747D
100
AcDbEntity
  8
細線
 48
50.0
100
AcDbLine
 10
6390.088991183913
 20
1226.747768866329
 30
0.0
 11
6507.764979861185
 21
1344.423757543595
 31
0.0
  0
LINE
  5
25B2A
330
747D
100
AcDbEntity
  8
細線
 48
50.0
100
AcDbLine
 10
6417.02975954713
 20
1226.747768866329
 30
0.0
 11
6507.764979861185
 21
1317.482989180388
 31
0.0
  0
LINE
  5
25B2B
330
747D
100
AcDbEntity
  8
部品1
 48
50.0
100
AcDbLine
 10
6059.764979861185
 20
1114.747768866329
 30
0.0
 11
6059.764979861185
 21
1354.747768866329
 31
0.0
  0
LINE
  5
25B2C
330
747D
100
AcDbEntity
  8
細線
 48
50.0
100
AcDbLine
 10
6174.562844278258
 20
1226.747768866329
 30
0.0
 11
6291.764979861185
 21
1343.949904449255
 31
0.0
  0
LINE
  5
25B2D
330
747D
100
AcDbEntity
  8
細線
 48
50.0
100
AcDbLine
 10
6267.630827338589
 20
1292.874983563452
 30
0.0
 11
6291.764979861191
 21
1317.00913608605
 31
0.0
  0
LINE
  5
25B2E
330
747D
100
AcDbEntity
  8
細線
 48
50.0
100
AcDbLine
 10
6059.764979861178
 20
1273.5945146285
 30
0.0
 11
6140.918234099014
 21
1354.747768866329
 31
0.0
  0
LEADER
  5
25B2F
330
747D
100
AcDbEntity
  8
寸法
 48
50.0
100
AcDbLeader
  3
INABA_S50G
 71
     0
 73
     0
 74
     0
 75
     1
 40
100.0
 41
222.7272727272727
 76
     3
 10
6283.764979861185
 20
1759.002198260574
 30
0.0
 10
6337.65091688858
 20
1858.237771113749
 30
0.0
 10
6462.650916888581
 20
1858.237771113749
 30
0.0
1001
ACAD
1000
DSTYLE
1002
{
1070
    40
1040
1.0
1070
   272
1070
     1
1070
   279
1070
     1
1070
   341
1005
0
1002
}
  0
LWPOLYLINE
  5
25B30
330
747D
100
AcDbEntity
  8
部品1
 48
50.0
100
AcDbPolyline
 90
        2
 70
     0
 43
8.0
 10
6379.764979861185
 20
1658.74776886633
 10
6793.904881694142
 20
1658.74776886633
  0
MTEXT
  5
25B31
102
{ACAD_REACTORS
330
25B33
102
}
330
747D
100
AcDbEntity
  8
寸法
 62
     7
 48
50.0
100
AcDbMText
 10
6611.092639667869
 20
1199.350699923357
 30
0.0
 40
80.0
 41
0.8
 71
     4
 72
     1
  1
D10
  7
STYLE2
 73
     1
 44
1.0
1001
ACAD
1000
MTEXTBEGIN
1070
    73
1070
     1
1070
    44
1040
1.0
1070
    74
1070
     0
1000
MTEXTEND
  0
LEADER
  5
25B32
330
747D
100
AcDbEntity
  8
寸法
 48
50.0
100
AcDbLeader
  3
INABA_S50G
 71
     0
 73
     0
 74
     0
 75
     1
 40
100.0
 41
540.3409090909091
 76
     3
 10
6357.710148874359
 20
1218.007238452804
 30
0.0
 10
6476.503435722436
 20
876.3764204579064
 30
0.0
 10
6601.503435722436
 20
876.3764204579064
 30
0.0
213
0.0
223
-1.022262676269383
233
0.0
1001
ACAD
1000
DSTYLE
1002
{
1070
    40
1040
1.0
1070
   272
1070
     1
1070
   279
1070
     1
1070
   341
1005
0
1002
}
  0
LEADER
  5
25B33
330
747D
100
AcDbEntity
  8
寸法
 48
50.0
100
AcDbLeader
  3
INABA_S50G
 71
     0
 73
     0
 74
     0
 75
     1
 40
100.0
 41
225.0
 76
     3
 10
6411.667932213328
 20
1234.747768866329
 30
0.0
 10
6466.09263966787
 20
1139.350699923357
 30
0.0
 10
6591.09263966787
 20
1139.350699923357
 30
0.0
1001
ACAD
1000
DSTYLE
1002
{
1070
    40
1040
1.0
1070
   272
1070
     1
1070
   279
1070
     1
1070
   341
1005
0
1002
}
  0
MTEXT
  5
25B34
102
{ACAD_REACTORS
330
25B2F
102
}
330
747D
100
AcDbEntity
  8
寸法
 62
     7
 48
50.0
100
AcDbMText
 10
6462.650916888581
 20
1921.30366815914
 30
0.0
 40
80.0
 41
0.8
 71
     4
 72
     1
  1
D13
  7
STYLE2
 73
     1
 44
1.0
1001
ACAD
1000
MTEXTBEGIN
1070
    73
1070
     1
1070
    44
1040
1.0
1070
    74
1070
     0
1000
MTEXTEND
  0
LINE
  5
25B35
330
747D
100
AcDbEntity
  8
部品1
 48
50.0
100
AcDbLine
 10
6379.764979861185
 20
1898.747768866329
 30
0.0
 11
6379.764979861185
 21
1354.747768866329
 31
0.0
  0
LINE
  5
25B36
330
747D
100
AcDbEntity
  8
部品1
 48
50.0
100
AcDbLine
 10
6187.764979861185
 20
1354.747768866329
 30
0.0
 11
6187.764979861185
 21
1898.747768866329
 31
0.0
  0
CIRCLE
  5
25B37
330
747D
100
AcDbEntity
  8
部品1
 48
50.0
100
AcDbCircle
 10
6283.764979861185
 20
1759.002198260574
 30
0.0
 40
8.0
  0
ARC
  5
25B38
330
747D
100
AcDbEntity
  8
部品1
 48
50.0
100
AcDbCircle
 10
6283.764979861185
 20
1759.002198260574
 30
0.0
 40
24.0
100
AcDbArc
 50
0.0
 51
180.0
  0
LINE
  5
25B39
330
747D
100
AcDbEntity
  8
細線
 48
50.0
100
AcDbLine
 10
6307.764979861186
 20
1737.12066153416
 30
0.0
 11
6379.764979861185
 21
1809.12066153416
 31
0.0
  0
LEADER
  5
25B3A
330
747D
100
AcDbEntity
  8
寸法
 48
50.0
100
AcDbLeader
  3
INABA_S50G
 73
     0
 75
     1
 40
106.3636363636363
 41
893.1818181818181
 76
     3
 10
8019.204293038379
 20
1968.307768866331
 30
0.0
 10
7970.780220693439
 20
2342.367343582663
 30
0.0
 10
7845.780220693439
 20
2342.367343582663
 30
0.0
340
25B3B
1001
ACAD
1000
DSTYLE
1002
{
1070
   341
1005
0
1070
    40
1040
1.0
1070
   343
1005
0
1070
   344
1005
0
1002
}
  0
MTEXT
  5
25B3B
102
{ACAD_REACTORS
330
25B3A
102
}
330
747D
100
AcDbEntity
  8
寸法
 62
     7
 48
50.0
100
AcDbMText
 10
7820.780220693439
 20
2420.549161764481
 30
0.0
 40
80.0
 41
0.8
 71
     6
 72
     1
  1
\A1;アンカープレート L
  7
STYLE2
 73
     1
 44
1.0
1001
ACAD
1000
MTEXTBEGIN
1070
    73
1070
     1
1070
    44
1040
1.0
1070
    74
1070
     0
1000
MTEXTEND
  0
DIMENSION
  5
25B3C
330
747D
100
AcDbEntity
  8
寸法
 48
50.0
100
AcDbDimension
  2
*D43
 10
6507.764979861184
 20
576.3181308611692
 30
0.0
 11
6263.668221182961
 21
576.3181308611692
 31
0.0
 70
   160
  1
300
 71
     5
 42
448.0
  3
INABA_S40G
100
AcDbAlignedDimension
 13
6059.764979861185
 23
986.7477688663294
 33
0.0
 14
6507.764979861184
 24
986.7477688663294
 34
0.0
100
AcDbRotatedDimension
1001
ACAD
1000
DSTYLE
1002
{
1070
   341
1005
0
1002
}
  0
MTEXT
  5
25B3D
102
{ACAD_REACTORS
330
25B45
102
}
330
747D
100
AcDbEntity
  8
寸法
 62
     7
 48
50.0
100
AcDbMText
 10
5888.82995366599
 20
1031.225075247893
 30
0.0
 40
80.0
 41
0.8
 71
     6
 72
     1
  1
D10
  7
STYLE2
 73
     1
 44
1.0
1001
ACAD
1000
MTEXTBEGIN
1070
    73
1070
     1
1070
    44
1040
1.0
1070
    74
1070
     0
1000
MTEXTEND
  0
MTEXT
  5
25B3E
102
{ACAD_REACTORS
330
25B44
102
}
330
747D
100
AcDbEntity
  8
寸法
 62
     7
 48
50.0
100
AcDbMText
 10
5916.952681223425
 20
850.9089227084496
 30
0.0
 40
80.0
 41
0.8
 71
     6
 72
     1
  1
D13
  7
STYLE2
 73
     1
 44
1.0
1001
ACAD
1000
MTEXTBEGIN
1070
    73
1070
     1
1070
    44
1040
1.0
1070
    74
1070
     0
1000
MTEXTEND
  0
DIMENSION
  5
25B3F
330
747D
100
AcDbEntity
  8
寸法
 48
50.0
100
AcDbDimension
  2
*D44
 10
5452.727741299444
 20
1114.747768866329
 30
0.0
 11
5452.727741299444
 21
1486.28791852233
 31
0.0
 70
   160
  1
540
 71
     5
 42
784.0
  3
INABA_S40G
100
AcDbAlignedDimension
 13
6187.764979861185
 23
1898.747768866329
 33
0.0
 14
5979.764979861188
 24
1114.747768866329
 34
0.0
 50
90.0
100
AcDbRotatedDimension
1001
ACAD
1000
DSTYLE
1002
{
1070
   341
1005
0
1002
}
  0
MTEXT
  5
25B40
102
{ACAD_REACTORS
330
25B41
102
}
330
747D
100
AcDbEntity
  8
寸法
 62
     7
 48
50.0
100
AcDbMText
 10
5967.666500377912
 20
2111.263988868372
 30
0.0
 40
80.0
 41
0.8
 71
     6
 72
     1
  1
\A1;金コテ押エ
  7
STYLE2
 73
     1
 44
1.0
1001
ACAD
1000
MTEXTBEGIN
1070
    73
1070
     1
1070
    44
1040
1.0
1070
    74
1070
     0
1000
MTEXTEND
  0
LEADER
  5
25B41
330
747D
100
AcDbEntity
  8
寸法
 48
50.0
100
AcDbLeader
  3
INABA_S50G
 71
     0
 73
     0
 75
     1
 40
130.1136363636363
 41
651.1363636363636
 76
     3
 10
6267.764979861184
 20
1898.747768866329
 30
0.0
 10
6155.340399697168
 20
2039.218534322918
 30
0.0
 10
6030.340399697168
 20
2039.218534322918
 30
0.0
1001
ACAD
1000
DSTYLE
1002
{
1070
    40
1040
1.0
1070
   272
1070
     1
1070
   279
1070
     1
1070
   341
1005
0
1002
}
  0
LEADER
  5
25B42
330
747D
100
AcDbEntity
  8
寸法
 48
50.0
100
AcDbLeader
  3
INABA_S50G
 71
     0
 73
     0
 75
     1
 40
100.0
 41
540.3409090909091
 76
     3
 10
6291.764979861184
 20
1656.874983563453
 30
0.0
 10
6233.782743332486
 20
1435.404655022647
 30
0.0
 10
6108.782743332486
 20
1435.404655022647
 30
0.0
213
-9.732182305893367
223
-4.643716661138569
233
0.0
1001
ACAD
1000
DSTYLE
1002
{
1070
    40
1040
1.0
1070
   272
1070
     1
1070
   279
1070
     1
1070
   341
1005
0
1002
}
  0
MTEXT
  5
25B43
102
{ACAD_REACTORS
330
25B42
102
}
330
747D
100
AcDbEntity
  8
寸法
 62
     7
 48
50.0
100
AcDbMText
 10
6098.51492563838
 20
1500.048371683786
 30
0.0
 40
80.0
 41
0.8
 71
     6
 72
     1
  1
\A1;D10@300
  7
STYLE2
 73
     1
 44
1.0
1001
ACAD
1000
MTEXTBEGIN
1070
    73
1070
     1
1070
    44
1040
1.0
1070
    74
1070
     0
1000
MTEXTEND
  0
LEADER
  5
25B44
330
747D
100
AcDbEntity
  8
寸法
 48
50.0
100
AcDbLeader
  3
INABA_S50G
 71
     0
 73
     0
 75
     1
 40
100.0
 41
222.7272727272727
 76
     3
 10
6283.764979861185
 20
1234.747768866329
 30
0.0
 10
6061.952681223425
 20
790.9089227084495
 30
0.0
 10
5936.952681223425
 20
790.9089227084495
 30
0.0
1001
ACAD
1000
DSTYLE
1002
{
1070
    40
1040
1.0
1070
   272
1070
     1
1070
   279
1070
     1
1070
   341
1005
0
1002
}
  0
LEADER
  5
25B45
330
747D
100
AcDbEntity
  8
寸法
 48
50.0
100
AcDbLeader
  3
INABA_S50G
 71
     0
 73
     0
 75
     1
 40
100.0
 41
225.0
 76
     3
 10
6155.667932213328
 20
1234.747768866329
 30
0.0
 10
6033.829953665991
 20
971.2250752478931
 30
0.0
 10
5908.829953665991
 20
971.2250752478931
 30
0.0
1001
ACAD
1000
DSTYLE
1002
{
1070
    40
1040
1.0
1070
   272
1070
     1
1070
   279
1070
     1
1070
   341
1005
0
1002
}
  0
DIMENSION
  5
25B46
330
747D
100
AcDbEntity
  8
寸法
 48
50.0
100
AcDbDimension
  2
*D45
 10
5917.344666128725
 20
1114.747768866329
 30
0.0
 11
5917.344666128725
 21
1234.74776886633
 31
0.0
 70
   160
  1
150
 71
     5
 42
240.0
  3
INABA_S40G
100
AcDbAlignedDimension
 13
6059.764979861185
 23
1354.747768866329
 33
0.0
 14
5979.764979861188
 24
1114.747768866329
 34
0.0
 50
90.0
100
AcDbRotatedDimension
1001
ACAD
1000
DSTYLE
1002
{
1070
   341
1005
0
1002
}
  0
TEXT
  5
25B47
330
747D
100
AcDbEntity
  8
部品1
 48
50.0
100
AcDbText
 10
5773.625078028228
 20
1669.986761149585
 30
0.0
 40
80.0
  1
▽G.L
  7
STYLE2
100
AcDbText
  0
LWPOLYLINE
  5
25B48
330
747D
100
AcDbEntity
  8
部品1
 48
50.0
100
AcDbPolyline
 90
        2
 70
     0
 43
8.0
 10
5773.625078028228
 20
1658.74776886633
 10
6187.764979861185
 20
1658.74776886633
  0
MTEXT
  5
25B49
102
{ACAD_REACTORS
330
25B4A
102
}
330
747D
100
AcDbEntity
  8
寸法
 62
     7
 48
50.0
100
AcDbMText
 10
7794.137214485082
 20
2781.233433671995
 30
0.0
 40
80.0
 41
0.8
 71
     6
 72
     1
  1
\A1;φ70スリーブ
  7
STYLE2
 73
     1
 44
1.0
1001
ACAD
1000
MTEXTBEGIN
1070
    73
1070
     1
1070
    44
1040
1.0
1070
    74
1070
     0
1000
MTEXTEND
  0
LEADER
  5
25B4A
330
747D
100
AcDbEntity
  8
寸法
 48
50.0
100
AcDbLeader
  3
INABA_S50G
 73
     0
 75
     1
 40
113.1818181818182
 41
608.6363636363635
 76
     3
 10
8077.94104317643
 20
1848.263442224608
 30
0.0
 10
7944.137214485081
 20
2699.642524581086
 30
0.0
 10
7819.137214485081
 20
2699.642524581086
 30
0.0
340
25B49
1001
ACAD
1000
DSTYLE
1002
{
1070
   341
1005
0
1070
    40
1040
1.0
1070
   343
1005
0
1070
   344
1005
0
1002
}
  0
LINE
  5
25B4B
330
747D
100
AcDbEntity
  8
部品1
100
AcDbLine
 10
5117.096541051922
 20
3298.086436066915
 30
0.0
 11
5117.096541051924
 21
333.7794664822677
 31
0.0
  0
LEADER
  5
25B4C
330
747D
100
AcDbEntity
  8
寸法
 48
50.0
100
AcDbLeader
  3
INABA_S50G
 73
     0
 74
     0
 75
     1
 40
80.0
 41
435.0
 76
     3
 10
8118.204293038379
 20
1947.90776886633
 30
0.0
 10
8160.748755457699
 20
2098.131095019559
 30
0.0
 10
8285.748755457699
 20
2098.131095019559
 30
0.0
340
25B4D
1001
ACAD
1000
DSTYLE
1002
{
1070
   341
1005
0
1070
    40
1040
1.0
1070
   343
1005
0
1070
   344
1005
0
1002
}
  0
MTEXT
  5
25B4D
102
{ACAD_REACTORS
330
25B4C
102
}
330
747D
100
AcDbEntity
  8
部品1
 62
     7
 48
50.0
100
AcDbMText
 10
8310.7487554577
 20
2163.13109501956
 30
0.0
 40
80.0
 41
0.8
 71
     4
 72
     1
  1
M10X160
  7
STYLE2
 73
     1
 44
1.0
1001
ACAD
1000
MTEXTBEGIN
1070
    73
1070
     1
1070
    44
1040
1.0
1070
    74
1070
     0
1000
MTEXTEND
  0
DIMENSION
  5
25B4E
330
747D
100
AcDbEntity
  8
寸法
 48
50.0
100
AcDbDimension
  2
*D46
 10
9079.727558926249
 20
1898.747768866329
 30
0.0
 11
9079.727558926249
 21
1432.738865444847
 31
0.0
 70
   160
  1
20～25
 71
     5
 42
52.76000000000113
  3
INABA_S40G
100
AcDbAlignedDimension
 13
8114.604293038381
 23
1951.50776886633
 33
0.0
 14
8301.804293038378
 24
1898.747768866329
 34
0.0
 50
90.0
100
AcDbRotatedDimension
1001
ACAD
1000
DSTYLE
1002
{
1070
   341
1005
0
1002
}
  0
DIMENSION
  5
25B4F
330
747D
100
AcDbEntity
  8
寸法
 48
50.0
100
AcDbDimension
  2
*D47
 10
8803.672892807222
 20
1574.747768866328
 30
0.0
 11
8703.672892807222
 21
1736.74776886633
 31
0.0
 70
    32
  1
180
 71
     5
 42
324.0000000000009
  3
INABA_S40G
100
AcDbAlignedDimension
 13
8301.804293038378
 23
1898.747768866329
 33
0.0
 14
8301.804293038378
 24
1574.747768866328
 34
0.0
 50
90.0
100
AcDbRotatedDimension
1001
ACAD
1000
DSTYLE
1002
{
1070
   341
1005
0
1002
}
  0
TEXT
  5
25B50
330
747D
100
AcDbEntity
  8
部品1
 48
50.0
100
AcDbText
 10
8306.157877322807
 20
2254.626449628529
 30
0.0
 40
80.0
  1
基礎ボルト(市販品)
  7
STYLE2
100
AcDbText
  0
LWPOLYLINE
  5
25B51
330
747D
100
AcDbEntity
  8
部品1
 48
50.0
100
AcDbPolyline
 90
        2
 70
     0
 43
8.0
 10
8301.804293038378
 20
1658.74776886633
 10
8595.506756437762
 20
1658.74776886633
  0
MTEXT
  5
25B52
102
{ACAD_REACTORS
330
25B53
102
}
330
747D
100
AcDbEntity
  8
部品1
 62
     7
 48
50.0
100
AcDbMText
 10
8341.075883407219
 20
2599.24314195359
 30
0.0
 40
80.0
 41
0.8
 71
     4
 72
     1
  1
\A1;ワッシャー(市販品)
  7
STYLE2
 73
     1
 44
1.0
1001
ACAD
1000
MTEXTBEGIN
1070
    73
1070
     1
1070
    44
1040
1.0
1070
    74
1070
     0
1000
MTEXTEND
  0
LEADER
  5
25B53
330
747D
100
AcDbEntity
  8
寸法
 48
50.0
100
AcDbLeader
  3
INABA_S50G
 73
     0
 74
     0
 75
     1
 40
102.2727272727273
 41
906.8181818181818
 76
     3
 10
8149.20429303838
 20
2167.871057310609
 30
0.0
 10
8191.075883407219
 20
2523.106778317226
 30
0.0
 10
8316.075883407219
 20
2523.106778317226
 30
0.0
340
25B52
1001
ACAD
1000
DSTYLE
1002
{
1070
   341
1005
0
1070
    40
1040
1.0
1070
   343
1005
0
1070
   344
1005
0
1002
}
  0
MTEXT
  5
25B54
102
{ACAD_REACTORS
330
25B55
102
}
330
747D
100
AcDbEntity
  8
部品1
 62
     7
 48
50.0
100
AcDbMText
 10
8309.558264151736
 20
2784.212224718377
 30
0.0
 40
80.0
 41
0.8
 71
     4
 72
     1
  1
\A1;ナット(市販品)
  7
STYLE2
 73
     1
 44
1.0
1001
ACAD
1000
MTEXTBEGIN
1070
    73
1070
     1
1070
    44
1040
1.0
1070
    74
1070
     0
1000
MTEXTEND
  0
LEADER
  5
25B55
330
747D
100
AcDbEntity
  8
寸法
 48
50.0
100
AcDbLeader
  3
INABA_S50G
 73
     0
 74
     0
 75
     1
 40
102.2727272727273
 41
680.0000000000001
 76
     3
 10
8125.204293038379
 20
2297.623049975472
 30
0.0
 10
8159.558264151735
 20
2708.075861082013
 30
0.0
 10
8284.558264151735
 20
2708.075861082013
 30
0.0
340
25B54
1001
ACAD
1000
DSTYLE
1002
{
1070
   341
1005
0
1070
    40
1040
1.0
1070
   343
1005
0
1070
   344
1005
0
1002
}
  0
LINE
  5
25B56
330
747D
100
AcDbEntity
  8
部品1
100
AcDbLine
 10
5117.096541051926
 20
333.7794664822677
 30
0.0
 11
11188.08172643817
 21
333.7794664822677
 31
0.0
  0
LINE
  5
25B57
330
747D
100
AcDbEntity
  8
部品1
100
AcDbLine
 10
11188.08172643817
 20
3058.086436066913
 30
0.0
 11
5117.096541051924
 21
3058.086436066913
 31
0.0
  0
LINE
  5
25B58
330
747D
100
AcDbEntity
  8
部品1
100
AcDbLine
 10
11188.08172643817
 20
3298.086436066915
 30
0.0
 11
5117.09654105192
 21
3298.086436066915
 31
0.0
  0
DIMENSION
  5
25BE4
330
747D
100
AcDbEntity
  8
寸法
 48
50.0
100
AcDbDimension
  2
*D48
 10
10603.6
 20
7205.966293995705
 30
0.0
 11
10898.57043939208
 21
7205.966293995705
 31
0.0
 70
   160
 71
     5
 42
120.0000000000018
  3
INABA_S40G
100
AcDbAlignedDimension
 13
10483.6
 23
7258.197195698482
 33
0.0
 14
10603.6
 24
7258.197195698482
 34
0.0
100
AcDbRotatedDimension
1001
ACAD
1000
DSTYLE
1002
{
1070
   341
1005
0
1002
}
  0
ENDSEC
  0
SECTION
  2
OBJECTS
  0
DICTIONARY
  5
7471
330
0
100
AcDbDictionary
281
     1
  3
ACAD_COLOR
350
173D2
  3
ACAD_GROUP
350
7472
  3
ACAD_LAYOUT
350
173D3
  3
ACAD_MATERIAL
350
173D1
  3
ACAD_MLINESTYLE
350
7473
  3
ACAD_PLOTSETTINGS
350
173D4
  3
ACAD_PLOTSTYLENAME
350
173CF
  3
ACDBHEADERROUNDTRIPXREC
350
25C08
  3
AcDbVariableDictionary
350
257B4
  3
CONTENTDICTIONARY
350
E71C
  3
DRAWINGVARIABLESDICT
350
F3B9
  0
DICTIONARY
  5
1758F
330
7467
100
AcDbDictionary
280
     1
281
     1
  3
ACAD_LAYERSTATES
360
17590
  0
DICTIONARY
  5
173D2
102
{ACAD_REACTORS
330
7471
102
}
330
7471
100
AcDbDictionary
281
     1
  0
DICTIONARY
  5
7472
102
{ACAD_REACTORS
330
7471
102
}
330
7471
100
AcDbDictionary
281
     1
  3
*A1
350
1D2A9
  0
DICTIONARY
  5
173D3
102
{ACAD_REACTORS
330
7471
102
}
330
7471
100
AcDbDictionary
281
     1
  3
Model
350
173D5
  3
レイアウト1
350
173D6
  0
DICTIONARY
  5
173D1
102
{ACAD_REACTORS
330
7471
102
}
330
7471
100
AcDbDictionary
281
     1
  0
DICTIONARY
  5
7473
102
{ACAD_REACTORS
330
7471
102
}
330
7471
100
AcDbDictionary
281
     1
  3
STANDARD
350
7480
  0
DICTIONARY
  5
173D4
102
{ACAD_REACTORS
330
7471
102
}
330
7471
100
AcDbDictionary
281
     1
  0
ACDBDICTIONARYWDFLT
  5
173CF
102
{ACAD_REACTORS
330
7471
102
}
330
7471
100
AcDbDictionary
281
     1
  3
Normal
350
173D0
100
AcDbDictionaryWithDefault
340
173D0
  0
DICTIONARY
  5
25C08
102
{ACAD_REACTORS
330
7471
102
}
330
7471
100
AcDbDictionary
281
     1
  3
COLORDICT
350
25C0A
  3
MATERIALDICT
350
25C09
  0
DICTIONARY
  5
257B4
102
{ACAD_REACTORS
330
7471
102
}
330
7471
100
AcDbDictionary
281
     1
  3
DIMASSOC
350
257B5
  3
PROJECTNAME
350
257B6
  0
DICTIONARY
  5
E71C
102
{ACAD_REACTORS
330
7471
102
}
330
7471
100
AcDbDictionary
281
     1
  0
DICTIONARY
  5
F3B9
102
{ACAD_REACTORS
330
7471
102
}
330
7471
100
AcDbDictionary
281
     1
1001
DRAWINGVARIABLESXDATA
1000
POLARMODE
1000
1
  0
DICTIONARY
  5
17590
102
{ACAD_REACTORS
330
1758F
102
}
330
1758F
100
AcDbDictionary
281
     1
  0
GROUP
  5
1D2A9
102
{ACAD_REACTORS
330
7472
102
}
330
7472
100
AcDbGroup
300

 70
     1
 71
     1
  0
LAYOUT
  5
173D5
102
{ACAD_XDICTIONARY
360
25C0B
102
}
102
{ACAD_REACTORS
330
173D3
102
}
330
173D3
100
AcDbPlotSettings
  1

  2
Microsoft Office Document Image Writer
  4

  6

 40
0.0
 41
0.0
 42
0.0
 43
0.0
 44
0.0
 45
0.0
 46
0.0
 47
0.0
 48
0.0
 49
0.0
140
0.0
141
0.0
142
1.0
143
1.0
 70
  1712
 72
     0
 73
     0
 74
     0
  7

 75
     0
147
1.0
148
0.0
149
0.0
100
AcDbLayout
  1
Model
 70
     1
 71
     0
 10
0.0
 20
0.0
 11
12.0
 21
9.0
 12
0.0
 22
0.0
 32
0.0
 14
0.0
 24
0.0
 34
0.0
 15
0.0
 25
0.0
 35
0.0
146
0.0
 13
0.0
 23
0.0
 33
0.0
 16
1.0
 26
0.0
 36
0.0
 17
0.0
 27
1.0
 37
0.0
 76
     0
330
747D
  0
LAYOUT
  5
173D6
102
{ACAD_XDICTIONARY
360
25C0D
102
}
102
{ACAD_REACTORS
330
173D3
102
}
330
173D3
100
AcDbPlotSettings
  1

  2
Microsoft Office Document Image Writer
  4

  6

 40
0.0
 41
0.0
 42
0.0
 43
0.0
 44
0.0
 45
0.0
 46
0.0
 47
0.0
 48
0.0
 49
0.0
140
0.0
141
0.0
142
1.0
143
1.0
 70
   688
 72
     0
 73
     0
 74
     5
  7

 75
    16
147
1.0
148
0.0
149
0.0
100
AcDbLayout
  1
レイアウト1
 70
     0
 71
     1
 10
0.0
 20
0.0
 11
420.0
 21
297.0
 12
0.0
 22
0.0
 32
0.0
 14
1.000000000000000E+20
 24
1.000000000000000E+20
 34
1.000000000000000E+20
 15
-1.000000000000000E+20
 25
-1.000000000000000E+20
 35
-1.000000000000000E+20
146
0.0
 13
0.0
 23
0.0
 33
0.0
 16
1.0
 26
0.0
 36
0.0
 17
0.0
 27
1.0
 37
0.0
 76
     0
330
747A
  0
MLINESTYLE
  5
7480
102
{ACAD_REACTORS
330
7473
102
}
330
7473
100
AcDbMlineStyle
  2
STANDARD
 70
     0
  3

 62
     0
 51
90.0
 52
90.0
 71
     2
 49
0.5
 62
   256
  6
BYLAYER
 49
-0.5
 62
   256
  6
BYLAYER
  0
ACDBPLACEHOLDER
  5
173D0
102
{ACAD_REACTORS
330
173CF
102
}
330
173CF
  0
XRECORD
  5
25C0A
102
{ACAD_REACTORS
330
25C08
102
}
330
25C08
100
AcDbXrecord
280
     1
340
173D2
  0
XRECORD
  5
25C09
102
{ACAD_REACTORS
330
25C08
102
}
330
25C08
100
AcDbXrecord
280
     1
340
173D1
  0
DICTIONARYVAR
  5
257B5
102
{ACAD_REACTORS
330
257B4
102
}
330
257B4
100
DictionaryVariables
280
     0
  1
1
  0
DICTIONARYVAR
  5
257B6
102
{ACAD_REACTORS
330
257B4
102
}
330
257B4
100
DictionaryVariables
280
     0
  1

  0
DICTIONARY
  5
25C0B
330
173D5
100
AcDbDictionary
280
     1
281
     1
  3
ACAD_XREC_ROUNDTRIP
360
25C0C
  0
DICTIONARY
  5
25C0D
330
173D6
100
AcDbDictionary
280
     1
281
     1
  3
ACAD_XREC_ROUNDTRIP
360
25C0E
  0
XRECORD
  5
25C0C
102
{ACAD_REACTORS
330
25C0B
102
}
330
25C0B
100
AcDbXrecord
280
     1
102
SHADEPLOT
 70
     0
102
SHADEPLOTRESLEVEL
 70
     2
102
SHADEPLOTCUSTOMDPI
 70
   300
  0
XRECORD
  5
25C0E
102
{ACAD_REACTORS
330
25C0D
102
}
330
25C0D
100
AcDbXrecord
280
     1
102
SHADEPLOT
 70
     0
102
SHADEPLOTRESLEVEL
 70
     2
102
SHADEPLOTCUSTOMDPI
 70
   300
  0
ENDSEC
  0
EOF
