  0
SECTION
  2
HEADER
  9
$ACADVER
  1
AC1015
  9
$ACADMAINTVER
 70
    20
  9
$DWGCODEPAGE
  3
ANSI_932
  9
$INSBASE
 10
0.0
 20
0.0
 30
0.0
  9
$EXTMIN
 10
139.9999999999995
 20
-0.0000000000000909
 30
0.0
  9
$EXTMAX
 10
16307.2
 20
11409.6
 30
0.0
  9
$LIMMIN
 10
0.0
 20
0.0
  9
$LIMMAX
 10
16800.0
 20
11880.0
  9
$ORTHOMODE
 70
     0
  9
$REGENMODE
 70
     1
  9
$FILLMODE
 70
     1
  9
$QTEXTMODE
 70
     0
  9
$MIRRTEXT
 70
     1
  9
$LTSCALE
 40
20.0
  9
$ATTMODE
 70
     1
  9
$TEXTSIZE
 40
4.0
  9
$TRACEWID
 40
1.0
  9
$TEXTSTYLE
  7
STYLE1
  9
$CLAYER
  8
寸法
  9
$CELTYPE
  6
BYLAYER
  9
$CECOLOR
 62
   256
  9
$CELTSCALE
 40
50.0
  9
$DISPSILH
 70
     0
  9
$DIMSCALE
 40
40.0
  9
$DIMASZ
 40
2.5
  9
$DIMEXO
 40
0.5
  9
$DIMDLI
 40
7.0
  9
$DIMRND
 40
0.0
  9
$DIMDLE
 40
0.0
  9
$DIMEXE
 40
1.5
  9
$DIMTP
 40
0.0
  9
$DIMTM
 40
0.0
  9
$DIMTXT
 40
3.0
  9
$DIMCEN
 40
0.0
  9
$DIMTSZ
 40
0.0
  9
$DIMTOL
 70
     0
  9
$DIMLIM
 70
     0
  9
$DIMTIH
 70
     0
  9
$DIMTOH
 70
     0
  9
$DIMSE1
 70
     0
  9
$DIMSE2
 70
     0
  9
$DIMTAD
 70
     3
  9
$DIMZIN
 70
     8
  9
$DIMBLK
  1

  9
$DIMASO
 70
     1
  9
$DIMSHO
 70
     1
  9
$DIMPOST
  1

  9
$DIMAPOST
  1

  9
$DIMALT
 70
     0
  9
$DIMALTD
 70
     2
  9
$DIMALTF
 40
0.0394
  9
$DIMLFAC
 40
1.0
  9
$DIMTOFL
 70
     1
  9
$DIMTVP
 40
0.0
  9
$DIMTIX
 70
     1
  9
$DIMSOXD
 70
     0
  9
$DIMSAH
 70
     1
  9
$DIMBLK1
  1
DOTSMALL
  9
$DIMBLK2
  1
DOTSMALL
  9
$DIMSTYLE
  2
INABA_S40G
  9
$DIMCLRD
 70
     0
  9
$DIMCLRE
 70
     0
  9
$DIMCLRT
 70
     7
  9
$DIMTFAC
 40
1.0
  9
$DIMGAP
 40
1.0
  9
$DIMJUST
 70
     0
  9
$DIMSD1
 70
     0
  9
$DIMSD2
 70
     0
  9
$DIMTOLJ
 70
     1
  9
$DIMTZIN
 70
     0
  9
$DIMALTZ
 70
     0
  9
$DIMALTTZ
 70
     0
  9
$DIMUPT
 70
     0
  9
$DIMDEC
 70
     1
  9
$DIMTDEC
 70
     4
  9
$DIMALTU
 70
     2
  9
$DIMALTTD
 70
     2
  9
$DIMTXSTY
  7
STYLE1
  9
$DIMAUNIT
 70
     0
  9
$DIMADEC
 70
     0
  9
$DIMALTRND
 40
0.0
  9
$DIMAZIN
 70
     0
  9
$DIMDSEP
 70
    46
  9
$DIMATFIT
 70
     3
  9
$DIMFRAC
 70
     0
  9
$DIMLDRBLK
  1

  9
$DIMLUNIT
 70
     2
  9
$DIMLWD
 70
    -2
  9
$DIMLWE
 70
    -2
  9
$DIMTMOVE
 70
     0
  9
$LUNITS
 70
     2
  9
$LUPREC
 70
     1
  9
$SKETCHINC
 40
1.0
  9
$FILLETRAD
 40
3.0
  9
$AUNITS
 70
     0
  9
$AUPREC
 70
     0
  9
$MENU
  1
acad
  9
$ELEVATION
 40
0.0
  9
$PELEVATION
 40
0.0
  9
$THICKNESS
 40
0.0
  9
$LIMCHECK
 70
     0
  9
$CHAMFERA
 40
0.0
  9
$CHAMFERB
 40
0.0
  9
$CHAMFERC
 40
0.0
  9
$CHAMFERD
 40
0.0
  9
$SKPOLY
 70
     0
  9
$TDCREATE
 40
2451368.612993866
  9
$TDUCREATE
 40
2451368.237993866
  9
$TDUPDATE
 40
2455826.588276366
  9
$TDUUPDATE
 40
2455826.213276366
  9
$TDINDWG
 40
0.7718466667
  9
$TDUSRTIMER
 40
0.7718466667
  9
$USRTIMER
 70
     1
  9
$ANGBASE
 50
0.0
  9
$ANGDIR
 70
     0
  9
$PDMODE
 70
     3
  9
$PDSIZE
 40
2.0
  9
$PLINEWID
 40
0.0
  9
$SPLFRAME
 70
     0
  9
$SPLINETYPE
 70
     6
  9
$SPLINESEGS
 70
     8
  9
$HANDSEED
  5
253A5
  9
$SURFTAB1
 70
     6
  9
$SURFTAB2
 70
     6
  9
$SURFTYPE
 70
     6
  9
$SURFU
 70
     6
  9
$SURFV
 70
     6
  9
$UCSBASE
  2

  9
$UCSNAME
  2

  9
$UCSORG
 10
0.0
 20
0.0
 30
0.0
  9
$UCSXDIR
 10
1.0
 20
0.0
 30
0.0
  9
$UCSYDIR
 10
0.0
 20
1.0
 30
0.0
  9
$UCSORTHOREF
  2

  9
$UCSORTHOVIEW
 70
     0
  9
$UCSORGTOP
 10
0.0
 20
0.0
 30
0.0
  9
$UCSORGBOTTOM
 10
0.0
 20
0.0
 30
0.0
  9
$UCSORGLEFT
 10
0.0
 20
0.0
 30
0.0
  9
$UCSORGRIGHT
 10
0.0
 20
0.0
 30
0.0
  9
$UCSORGFRONT
 10
0.0
 20
0.0
 30
0.0
  9
$UCSORGBACK
 10
0.0
 20
0.0
 30
0.0
  9
$PUCSBASE
  2

  9
$PUCSNAME
  2

  9
$PUCSORG
 10
0.0
 20
0.0
 30
0.0
  9
$PUCSXDIR
 10
1.0
 20
0.0
 30
0.0
  9
$PUCSYDIR
 10
0.0
 20
1.0
 30
0.0
  9
$PUCSORTHOREF
  2

  9
$PUCSORTHOVIEW
 70
     0
  9
$PUCSORGTOP
 10
0.0
 20
0.0
 30
0.0
  9
$PUCSORGBOTTOM
 10
0.0
 20
0.0
 30
0.0
  9
$PUCSORGLEFT
 10
0.0
 20
0.0
 30
0.0
  9
$PUCSORGRIGHT
 10
0.0
 20
0.0
 30
0.0
  9
$PUCSORGFRONT
 10
0.0
 20
0.0
 30
0.0
  9
$PUCSORGBACK
 10
0.0
 20
0.0
 30
0.0
  9
$USERI1
 70
     0
  9
$USERI2
 70
     0
  9
$USERI3
 70
     0
  9
$USERI4
 70
     0
  9
$USERI5
 70
     0
  9
$USERR1
 40
0.0
  9
$USERR2
 40
0.0
  9
$USERR3
 40
0.0
  9
$USERR4
 40
0.0
  9
$USERR5
 40
0.0
  9
$WORLDVIEW
 70
     1
  9
$SHADEDGE
 70
     3
  9
$SHADEDIF
 70
    70
  9
$TILEMODE
 70
     1
  9
$MAXACTVP
 70
    16
  9
$PINSBASE
 10
0.0
 20
0.0
 30
0.0
  9
$PLIMCHECK
 70
     0
  9
$PEXTMIN
 10
1.000000000000000E+20
 20
1.000000000000000E+20
 30
1.000000000000000E+20
  9
$PEXTMAX
 10
-1.000000000000000E+20
 20
-1.000000000000000E+20
 30
-1.000000000000000E+20
  9
$PLIMMIN
 10
0.0
 20
0.0
  9
$PLIMMAX
 10
420.0
 20
297.0
  9
$UNITMODE
 70
     0
  9
$VISRETAIN
 70
     0
  9
$PLINEGEN
 70
     0
  9
$PSLTSCALE
 70
     0
  9
$TREEDEPTH
 70
  3020
  9
$CMLSTYLE
  2
STANDARD
  9
$CMLJUST
 70
     0
  9
$CMLSCALE
 40
1.0
  9
$PROXYGRAPHICS
 70
     1
  9
$MEASUREMENT
 70
     1
  9
$CELWEIGHT
370
    -1
  9
$ENDCAPS
280
     0
  9
$JOINSTYLE
280
     0
  9
$LWDISPLAY
290
     0
  9
$INSUNITS
 70
     0
  9
$HYPERLINKBASE
  1

  9
$STYLESHEET
  1

  9
$XEDIT
290
     1
  9
$CEPSNTYPE
380
     0
  9
$PSTYLEMODE
290
     1
  9
$FINGERPRINTGUID
  2
{5EAC461A-2277-4BF8-9AB0-99C43BB394F0}
  9
$VERSIONGUID
  2
{733E282C-30E5-4EDA-80AA-EF12BADF8EEE}
  9
$EXTNAMES
290
     1
  9
$PSVPSCALE
 40
0.0
  9
$OLESTARTUP
290
     0
  0
ENDSEC
  0
SECTION
  2
CLASSES
  0
CLASS
  1
ACDBDICTIONARYWDFLT
  2
AcDbDictionaryWithDefault
  3
ObjectDBX Classes
 90
        0
280
     0
281
     0
  0
CLASS
  1
DICTIONARYVAR
  2
AcDbDictionaryVar
  3
ObjectDBX Classes
 90
        0
280
     0
281
     0
  0
CLASS
  1
ACDBPLACEHOLDER
  2
AcDbPlaceHolder
  3
ObjectDBX Classes
 90
        0
280
     0
281
     0
  0
CLASS
  1
LAYOUT
  2
AcDbLayout
  3
ObjectDBX Classes
 90
        0
280
     0
281
     0
  0
ENDSEC
  0
SECTION
  2
TABLES
  0
TABLE
  2
VPORT
  5
746D
330
0
100
AcDbSymbolTable
 70
     2
  0
VPORT
  5
2539D
330
746D
100
AcDbSymbolTableRecord
100
AcDbViewportTableRecord
  2
*Active
 70
     0
 10
0.0
 20
0.0
 11
1.0
 21
1.0
 12
8400.0
 22
6549.864803020255
 13
0.0
 23
0.0
 14
10.0
 24
10.0
 15
10.0
 25
10.0
 16
0.0
 26
0.0
 36
1.0
 17
0.0
 27
0.0
 37
0.0
 40
13195.73479055294
 41
1.522222222222221
 42
50.0
 43
0.0
 44
0.0
 50
0.0
 51
0.0
 71
     0
 72
     0
 73
     1
 74
     0
 75
     0
 76
     0
 77
     0
 78
     0
281
     0
 65
     1
110
0.0
120
0.0
130
0.0
111
1.0
121
0.0
131
0.0
112
0.0
122
1.0
132
0.0
 79
     0
146
0.0
  0
ENDTAB
  0
TABLE
  2
LTYPE
  5
746A
330
0
100
AcDbSymbolTable
 70
     5
  0
LTYPE
  5
7477
330
746A
100
AcDbSymbolTableRecord
100
AcDbLinetypeTableRecord
  2
BYBLOCK
 70
     0
  3

 72
    65
 73
     0
 40
0.0
  0
LTYPE
  5
7478
330
746A
100
AcDbSymbolTableRecord
100
AcDbLinetypeTableRecord
  2
BYLAYER
 70
     0
  3

 72
    65
 73
     0
 40
0.0
  0
LTYPE
  5
7479
330
746A
100
AcDbSymbolTableRecord
100
AcDbLinetypeTableRecord
  2
CONTINUOUS
 70
     0
  3
Solid line
 72
    65
 73
     0
 40
0.0
  0
LTYPE
  5
7816
330
746A
100
AcDbSymbolTableRecord
100
AcDbLinetypeTableRecord
  2
CENTER
 70
     0
  3
____ _ ____ _ ____ _ ____ _ ____ _ ____ _ ____ 
 72
    65
 73
     4
 40
2.0
 49
1.25
 74
     0
 49
-0.25
 74
     0
 49
0.25
 74
     0
 49
-0.25
 74
     0
  0
LTYPE
  5
781A
330
746A
100
AcDbSymbolTableRecord
100
AcDbLinetypeTableRecord
  2
HIDDEN
 70
     0
  3
__ __ __ __ __ __ __ __ __ __ __ __ __ __ __ __
 72
    65
 73
     2
 40
0.375
 49
0.25
 74
     0
 49
-0.125
 74
     0
  0
LTYPE
  5
781B
330
746A
100
AcDbSymbolTableRecord
100
AcDbLinetypeTableRecord
  2
PHANTOM
 70
     0
  3
______  __  __  ______  __  __  ______  __  __ 
 72
    65
 73
     6
 40
2.5
 49
1.25
 74
     0
 49
-0.25
 74
     0
 49
0.25
 74
     0
 49
-0.25
 74
     0
 49
0.25
 74
     0
 49
-0.25
 74
     0
  0
LTYPE
  5
12CC3
330
746A
100
AcDbSymbolTableRecord
100
AcDbLinetypeTableRecord
  2
HIDDENX2
 70
     0
  3
Hidden (2x) ____ ____ ____ ____ ____ ____ ____
 72
    65
 73
     2
 40
19.05
 49
12.7
 74
     0
 49
-6.349999999999999
 74
     0
  0
ENDTAB
  0
TABLE
  2
LAYER
  5
7467
102
{ACAD_XDICTIONARY
360
1758F
102
}
330
0
100
AcDbSymbolTable
 70
    12
  0
LAYER
  5
7474
330
7467
100
AcDbSymbolTableRecord
100
AcDbLayerTableRecord
  2
0
 70
     0
 62
     7
  6
CONTINUOUS
370
    -3
390
173D0
  0
LAYER
  5
DEB2
330
7467
100
AcDbSymbolTableRecord
100
AcDbLayerTableRecord
  2
センター
 70
     0
 62
     3
  6
CENTER
370
    -3
390
173D0
  0
LAYER
  5
DEB3
330
7467
100
AcDbSymbolTableRecord
100
AcDbLayerTableRecord
  2
寸法
 70
     0
 62
     4
  6
CONTINUOUS
370
    -3
390
173D0
  0
LAYER
  5
DEB4
330
7467
100
AcDbSymbolTableRecord
100
AcDbLayerTableRecord
  2
部品1
 70
     0
 62
     7
  6
CONTINUOUS
370
    -3
390
173D0
  0
LAYER
  5
DEB5
330
7467
100
AcDbSymbolTableRecord
100
AcDbLayerTableRecord
  2
補助
 70
     0
 62
    -1
  6
CONTINUOUS
370
    -3
390
173D0
  0
LAYER
  5
DEB6
330
7467
100
AcDbSymbolTableRecord
100
AcDbLayerTableRecord
  2
文字
 70
     0
 62
     7
  6
CONTINUOUS
370
    -3
390
173D0
  0
LAYER
  5
F255
330
7467
100
AcDbSymbolTableRecord
100
AcDbLayerTableRecord
  2
DEFPOINTS
 70
     0
 62
     7
  6
CONTINUOUS
290
     0
370
    -3
390
173D0
  0
LAYER
  5
10B54
330
7467
100
AcDbSymbolTableRecord
100
AcDbLayerTableRecord
  2
仕様書枠
 70
     0
 62
   230
  6
CONTINUOUS
370
    -3
390
173D0
  0
LAYER
  5
11729
330
7467
100
AcDbSymbolTableRecord
100
AcDbLayerTableRecord
  2
Ｇ．Ｌ
 70
     0
 62
    30
  6
CONTINUOUS
370
    -3
390
173D0
  0
LAYER
  5
1173F
330
7467
100
AcDbSymbolTableRecord
100
AcDbLayerTableRecord
  2
細線
 70
     0
 62
     5
  6
CONTINUOUS
370
    -3
390
173D0
  0
LAYER
  5
12CC4
330
7467
100
AcDbSymbolTableRecord
100
AcDbLayerTableRecord
  2
想像線
 70
     0
 62
     6
  6
PHANTOM
370
    -3
390
173D0
  0
LAYER
  5
142E2
330
7467
100
AcDbSymbolTableRecord
100
AcDbLayerTableRecord
  2
破線
 70
     0
 62
     2
  6
HIDDEN
370
    -3
390
173D0
  0
ENDTAB
  0
TABLE
  2
STYLE
  5
7468
330
0
100
AcDbSymbolTable
 70
     7
  0
STYLE
  5
7475
330
7468
100
AcDbSymbolTableRecord
100
AcDbTextStyleTableRecord
  2
STANDARD
 70
     0
 40
0.0
 41
1.0
 50
0.0
 71
     0
 42
4.0
  3
txt
  4
C:\AutoCAD LT\bigfont.shx
  0
STYLE
  5
763C
330
7468
100
AcDbSymbolTableRecord
100
AcDbTextStyleTableRecord
  2
MSMINCHO
 70
     0
 40
0.0
 41
1.0
 50
0.0
 71
     0
 42
1.199999999999999
  3
C:\AutoCAD LT\msminch2.TTF
  4

  0
STYLE
  5
F706
330
7468
100
AcDbSymbolTableRecord
100
AcDbTextStyleTableRecord
  2
STYLE1
 70
     0
 40
0.0
 41
1.0
 50
0.0
 71
     0
 42
4.0
  3
isocp.shx
  4
bigfont.shx
  0
STYLE
  5
103BF
330
7468
100
AcDbSymbolTableRecord
100
AcDbTextStyleTableRecord
  2
STYLE2
 70
     0
 40
0.0
 41
1.0
 50
0.0
 71
     0
 42
100.0
  3
MS PGothic.ttf
  4

1001
ACAD
1000
MS PGothic
1071
    32818
  0
STYLE
  5
10BAA
330
7468
100
AcDbSymbolTableRecord
100
AcDbTextStyleTableRecord
  2
STYLE3
 70
     0
 40
0.0
 41
1.0
 50
0.0
 71
     0
 42
100.0
  3

  4

1001
ACAD
1000
DFPGothic-EB
1071
    32818
  0
STYLE
  5
11A15
330
7468
100
AcDbSymbolTableRecord
100
AcDbTextStyleTableRecord
  2
MSGOTHIC
 70
     0
 40
0.0
 41
1.0
 50
0.0
 71
     0
 42
3.5
  3
msgothi2.ttf
  4

  0
STYLE
  5
13E96
330
7468
100
AcDbSymbolTableRecord
100
AcDbTextStyleTableRecord
  2
MSPゴシック
 70
     0
 40
0.0
 41
1.0
 50
0.0
 71
     0
 42
4.0
  3
MS PGothic.ttf
  4

1001
ACAD
1000
MS PGothic
1071
    32818
  0
ENDTAB
  0
TABLE
  2
VIEW
  5
746B
330
0
100
AcDbSymbolTable
 70
     0
  0
ENDTAB
  0
TABLE
  2
UCS
  5
746C
330
0
100
AcDbSymbolTable
 70
     0
  0
ENDTAB
  0
TABLE
  2
APPID
  5
746E
330
0
100
AcDbSymbolTable
 70
     6
  0
APPID
  5
7476
330
746E
100
AcDbSymbolTableRecord
100
AcDbRegAppTableRecord
  2
ACAD
 70
     0
  0
APPID
  5
DEA9
330
746E
100
AcDbSymbolTableRecord
100
AcDbRegAppTableRecord
  2
CONTENTBLOCKICON
 70
     0
  0
APPID
  5
DEAA
330
746E
100
AcDbSymbolTableRecord
100
AcDbRegAppTableRecord
  2
CONTENTBLOCKDESCRIPTION
 70
     0
  0
APPID
  5
E71D
330
746E
100
AcDbSymbolTableRecord
100
AcDbRegAppTableRecord
  2
CONTENTTABDATA
 70
     0
  0
APPID
  5
E71E
330
746E
100
AcDbSymbolTableRecord
100
AcDbRegAppTableRecord
  2
CONTENTCURRENTTAB
 70
     0
  0
APPID
  5
F3BA
330
746E
100
AcDbSymbolTableRecord
100
AcDbRegAppTableRecord
  2
DRAWINGVARIABLESXDATA
 70
     0
  0
ENDTAB
  0
TABLE
  2
DIMSTYLE
  5
746F
330
0
100
AcDbSymbolTable
 70
     6
100
AcDbDimStyleTable
 71
     1
340
F71F
  0
DIMSTYLE
105
7484
330
746F
100
AcDbSymbolTableRecord
100
AcDbDimStyleTableRecord
  2
JIS
 70
     0
 41
2.5
 42
1.0
 43
7.0
 44
1.0
 73
     0
 74
     0
 77
     1
 78
     8
140
2.5
141
0.0
143
0.0394
147
0.0
172
     1
174
     1
175
     1
340
7475
  0
DIMSTYLE
105
F236
330
746F
100
AcDbSymbolTableRecord
100
AcDbDimStyleTableRecord
  2
INABA_S40
 70
     0
 40
40.0
 41
2.5
 42
0.5
 43
7.0
 44
1.5
 73
     0
 74
     0
 77
     3
 78
     8
140
3.0
141
0.0
143
0.0394
147
1.0
172
     1
173
     1
174
     1
175
     1
178
     7
289
     0
340
7475
341
DEAC
343
DEAC
344
DEAC
  0
DIMSTYLE
105
F71F
102
{ACAD_REACTORS
330
20DE1
330
20DFB
330
22741
330
2275B
330
23978
330
23980
330
249A1
330
249A0
330
24956
330
24944
330
24942
330
24941
330
24940
330
2490E
330
2490A
330
24909
330
24946
330
2491F
330
24916
330
24915
330
24920
330
24913
330
25240
330
252A0
330
252A3
330
252AA
330
252B2
330
252B3
330
25348
102
}
330
746F
100
AcDbSymbolTableRecord
100
AcDbDimStyleTableRecord
  2
INABA_S40G
 70
     0
 40
40.0
 41
2.5
 42
0.5
 43
7.0
 44
1.5
 73
     0
 74
     0
 77
     3
 78
     8
140
3.0
141
0.0
143
0.0394
147
1.0
172
     1
173
     1
174
     1
178
     7
271
     1
340
F706
341
F770
343
F770
344
F770
  0
DIMSTYLE
105
142E3
330
746F
100
AcDbSymbolTableRecord
100
AcDbDimStyleTableRecord
  2
INABA_S1
 70
     0
 40
0.0
 41
2.5
 42
0.5
 43
7.0
 44
1.5
 73
     0
 74
     0
 77
     3
 78
     8
140
3.0
141
0.0
143
0.0394
146
0.5
147
0.5
172
     1
173
     1
176
   256
177
   256
178
     7
271
     2
272
     2
284
     8
288
     1
340
7475
341
DEAC
343
DEAC
344
DEAC
  0
DIMSTYLE
105
14463
330
746F
100
AcDbSymbolTableRecord
100
AcDbDimStyleTableRecord
  2
INABA_S30G
 70
     0
 40
30.0
 41
2.5
 42
0.5
 43
7.0
 44
1.5
 73
     0
 74
     0
 77
     3
 78
     8
140
3.0
141
0.0
143
0.0394
147
1.0
172
     1
173
     1
174
     1
175
     1
178
     7
271
     1
340
F706
341
F770
343
F770
344
F770
  0
DIMSTYLE
105
1758E
330
746F
100
AcDbSymbolTableRecord
100
AcDbDimStyleTableRecord
  2
INABA_S50G
 70
     0
 41
125.0
 42
25.0
 43
7.0
 44
75.0
 73
     0
 74
     0
 77
     3
 78
     8
140
150.0
141
0.0
143
0.0394
147
25.0
172
     1
173
     1
174
     1
175
     1
178
     7
271
     1
340
F706
341
F770
343
F770
344
F770
  0
ENDTAB
  0
TABLE
  2
BLOCK_RECORD
  5
7466
330
0
100
AcDbSymbolTable
 70
    48
  0
BLOCK_RECORD
  5
747D
330
7466
100
AcDbSymbolTableRecord
100
AcDbBlockTableRecord
  2
*MODEL_SPACE
340
173D5
  0
BLOCK_RECORD
  5
747A
330
7466
100
AcDbSymbolTableRecord
100
AcDbBlockTableRecord
  2
*PAPER_SPACE
340
173D6
  0
BLOCK_RECORD
  5
DEAC
330
7466
100
AcDbSymbolTableRecord
100
AcDbBlockTableRecord
  2
_OPEN
340
0
  0
BLOCK_RECORD
  5
F770
330
7466
100
AcDbSymbolTableRecord
100
AcDbBlockTableRecord
  2
_DOTSMALL
340
0
102
{BLKREFS
331
18C65
331
18C66
331
18C59
331
18C5A
331
18C4D
331
18C4E
331
18C41
331
18C42
331
18C35
331
18C36
331
18C29
331
18C2A
331
18C1D
331
18C1E
331
18C0F
331
18C10
331
18C03
331
18C04
331
18BF5
331
18BF6
331
18BE7
331
18BE8
331
18BD9
331
18BDA
331
18BCD
331
18BCE
331
24E46
331
24E47
331
24E4F
331
24E50
331
24E58
331
24E59
331
24E62
331
24E63
331
24E6C
331
24E6D
331
24E75
331
24E76
331
24E7E
331
24E7F
331
24E87
331
24E88
331
24E90
331
24E91
331
24E99
331
24E9A
331
24EA3
331
24EA4
331
24EBF
331
24EC0
331
24EC8
331
24EC9
331
24ED2
331
24ED3
331
24EE7
331
24EE8
331
24EFB
331
24EFC
331
24F06
331
24F07
331
24F11
331
24F12
331
24F1C
331
24F1D
331
24F40
331
24F41
331
24F49
331
24F4A
331
24FA8
331
24FA9
331
2530A
331
2530B
331
25313
331
25314
331
2531C
331
2531D
331
25325
331
25326
331
25330
331
25331
331
25339
331
2533A
331
2538D
331
2538E
102
}
  0
BLOCK_RECORD
  5
164B4
330
7466
100
AcDbSymbolTableRecord
100
AcDbBlockTableRecord
  2
_DOT
340
0
102
{BLKREFS
331
18C73
331
18C74
102
}
  0
BLOCK_RECORD
  5
18BC8
330
7466
100
AcDbSymbolTableRecord
100
AcDbBlockTableRecord
  2
*D3
340
0
  0
BLOCK_RECORD
  5
18BD4
330
7466
100
AcDbSymbolTableRecord
100
AcDbBlockTableRecord
  2
*D4
340
0
  0
BLOCK_RECORD
  5
18BE0
330
7466
100
AcDbSymbolTableRecord
100
AcDbBlockTableRecord
  2
*D5
340
0
  0
BLOCK_RECORD
  5
18BEE
330
7466
100
AcDbSymbolTableRecord
100
AcDbBlockTableRecord
  2
*D6
340
0
  0
BLOCK_RECORD
  5
18BFC
330
7466
100
AcDbSymbolTableRecord
100
AcDbBlockTableRecord
  2
*D7
340
0
  0
BLOCK_RECORD
  5
18C0A
330
7466
100
AcDbSymbolTableRecord
100
AcDbBlockTableRecord
  2
*D8
340
0
  0
BLOCK_RECORD
  5
18C16
330
7466
100
AcDbSymbolTableRecord
100
AcDbBlockTableRecord
  2
*D9
340
0
  0
BLOCK_RECORD
  5
18C24
330
7466
100
AcDbSymbolTableRecord
100
AcDbBlockTableRecord
  2
*D10
340
0
  0
BLOCK_RECORD
  5
18C30
330
7466
100
AcDbSymbolTableRecord
100
AcDbBlockTableRecord
  2
*D11
340
0
  0
BLOCK_RECORD
  5
18C3C
330
7466
100
AcDbSymbolTableRecord
100
AcDbBlockTableRecord
  2
*D12
340
0
  0
BLOCK_RECORD
  5
18C48
330
7466
100
AcDbSymbolTableRecord
100
AcDbBlockTableRecord
  2
*D13
340
0
  0
BLOCK_RECORD
  5
18C54
330
7466
100
AcDbSymbolTableRecord
100
AcDbBlockTableRecord
  2
*D14
340
0
  0
BLOCK_RECORD
  5
18C60
330
7466
100
AcDbSymbolTableRecord
100
AcDbBlockTableRecord
  2
*D15
340
0
  0
BLOCK_RECORD
  5
18C6C
330
7466
100
AcDbSymbolTableRecord
100
AcDbBlockTableRecord
  2
*D16
340
0
  0
BLOCK_RECORD
  5
18C7A
330
7466
100
AcDbSymbolTableRecord
100
AcDbBlockTableRecord
  2
A$C3B1A506B
340
0
  0
BLOCK_RECORD
  5
1C4CA
330
7466
100
AcDbSymbolTableRecord
100
AcDbBlockTableRecord
  2
_NONE
340
0
  0
BLOCK_RECORD
  5
20DE2
330
7466
100
AcDbSymbolTableRecord
100
AcDbBlockTableRecord
  2
*D19
340
0
  0
BLOCK_RECORD
  5
20DFC
330
7466
100
AcDbSymbolTableRecord
100
AcDbBlockTableRecord
  2
*D20
340
0
  0
BLOCK_RECORD
  5
22742
330
7466
100
AcDbSymbolTableRecord
100
AcDbBlockTableRecord
  2
*D21
340
0
  0
BLOCK_RECORD
  5
2275C
330
7466
100
AcDbSymbolTableRecord
100
AcDbBlockTableRecord
  2
*D22
340
0
  0
BLOCK_RECORD
  5
239F3
330
7466
100
AcDbSymbolTableRecord
100
AcDbBlockTableRecord
  2
*D23
340
0
  0
BLOCK_RECORD
  5
23A23
330
7466
100
AcDbSymbolTableRecord
100
AcDbBlockTableRecord
  2
*D24
340
0
  0
BLOCK_RECORD
  5
249C7
330
7466
100
AcDbSymbolTableRecord
100
AcDbBlockTableRecord
  2
*D25
340
0
  0
BLOCK_RECORD
  5
249D3
330
7466
100
AcDbSymbolTableRecord
100
AcDbBlockTableRecord
  2
*D26
340
0
  0
BLOCK_RECORD
  5
249DF
330
7466
100
AcDbSymbolTableRecord
100
AcDbBlockTableRecord
  2
*D27
340
0
  0
BLOCK_RECORD
  5
249EB
330
7466
100
AcDbSymbolTableRecord
100
AcDbBlockTableRecord
  2
*D28
340
0
  0
BLOCK_RECORD
  5
249F8
330
7466
100
AcDbSymbolTableRecord
100
AcDbBlockTableRecord
  2
*D29
340
0
  0
BLOCK_RECORD
  5
24A04
330
7466
100
AcDbSymbolTableRecord
100
AcDbBlockTableRecord
  2
*D30
340
0
  0
BLOCK_RECORD
  5
24A1C
330
7466
100
AcDbSymbolTableRecord
100
AcDbBlockTableRecord
  2
*D31
340
0
  0
BLOCK_RECORD
  5
24A29
330
7466
100
AcDbSymbolTableRecord
100
AcDbBlockTableRecord
  2
*D32
340
0
  0
BLOCK_RECORD
  5
24A42
330
7466
100
AcDbSymbolTableRecord
100
AcDbBlockTableRecord
  2
*D33
340
0
  0
BLOCK_RECORD
  5
24A4D
330
7466
100
AcDbSymbolTableRecord
100
AcDbBlockTableRecord
  2
*D34
340
0
  0
BLOCK_RECORD
  5
24A59
330
7466
100
AcDbSymbolTableRecord
100
AcDbBlockTableRecord
  2
*D35
340
0
  0
BLOCK_RECORD
  5
24A73
330
7466
100
AcDbSymbolTableRecord
100
AcDbBlockTableRecord
  2
*D36
340
0
  0
BLOCK_RECORD
  5
24A8A
330
7466
100
AcDbSymbolTableRecord
100
AcDbBlockTableRecord
  2
*D37
340
0
  0
BLOCK_RECORD
  5
24A97
330
7466
100
AcDbSymbolTableRecord
100
AcDbBlockTableRecord
  2
*D38
340
0
  0
BLOCK_RECORD
  5
24AAF
330
7466
100
AcDbSymbolTableRecord
100
AcDbBlockTableRecord
  2
*D39
340
0
  0
BLOCK_RECORD
  5
24ABB
330
7466
100
AcDbSymbolTableRecord
100
AcDbBlockTableRecord
  2
*D40
340
0
  0
BLOCK_RECORD
  5
252BD
330
7466
100
AcDbSymbolTableRecord
100
AcDbBlockTableRecord
  2
*D41
340
0
  0
BLOCK_RECORD
  5
252C9
330
7466
100
AcDbSymbolTableRecord
100
AcDbBlockTableRecord
  2
*D42
340
0
  0
BLOCK_RECORD
  5
252D5
330
7466
100
AcDbSymbolTableRecord
100
AcDbBlockTableRecord
  2
*D43
340
0
  0
BLOCK_RECORD
  5
252E1
330
7466
100
AcDbSymbolTableRecord
100
AcDbBlockTableRecord
  2
*D44
340
0
  0
BLOCK_RECORD
  5
252ED
330
7466
100
AcDbSymbolTableRecord
100
AcDbBlockTableRecord
  2
*D45
340
0
  0
BLOCK_RECORD
  5
252FB
330
7466
100
AcDbSymbolTableRecord
100
AcDbBlockTableRecord
  2
*D46
340
0
  0
BLOCK_RECORD
  5
25349
330
7466
100
AcDbSymbolTableRecord
100
AcDbBlockTableRecord
  2
*D47
340
0
  0
ENDTAB
  0
ENDSEC
  0
SECTION
  2
BLOCKS
  0
BLOCK
  5
7489
330
747D
100
AcDbEntity
  8
0
100
AcDbBlockBegin
  2
*MODEL_SPACE
 70
     0
 10
0.0
 20
0.0
 30
0.0
  3
*MODEL_SPACE
  1

  0
ENDBLK
  5
748A
330
747D
100
AcDbEntity
  8
0
100
AcDbBlockEnd
  0
BLOCK
  5
7487
330
747A
100
AcDbEntity
 67
     1
  8
0
100
AcDbBlockBegin
  2
*PAPER_SPACE
 70
     0
 10
0.0
 20
0.0
 30
0.0
  3
*PAPER_SPACE
  1

  0
ENDBLK
  5
7488
330
747A
100
AcDbEntity
 67
     1
  8
0
100
AcDbBlockEnd
  0
BLOCK
  5
DEAD
330
DEAC
100
AcDbEntity
  8
0
100
AcDbBlockBegin
  2
_OPEN
 70
     0
 10
0.0
 20
0.0
 30
0.0
  3
_OPEN
  1

  0
LINE
  5
DEAE
330
DEAC
100
AcDbEntity
  8
0
  6
ByBlock
 62
     0
100
AcDbLine
 10
-1.0
 20
0.1666666666666666
 30
0.0
 11
0.0
 21
0.0
 31
0.0
  0
LINE
  5
DEAF
330
DEAC
100
AcDbEntity
  8
0
  6
ByBlock
 62
     0
100
AcDbLine
 10
0.0
 20
0.0
 30
0.0
 11
-1.0
 21
-0.1666666666666666
 31
0.0
  0
LINE
  5
DEB0
330
DEAC
100
AcDbEntity
  8
0
  6
ByBlock
 62
     0
100
AcDbLine
 10
0.0
 20
0.0
 30
0.0
 11
-1.0
 21
0.0
 31
0.0
  0
ENDBLK
  5
DEB1
330
DEAC
100
AcDbEntity
  8
0
100
AcDbBlockEnd
  0
BLOCK
  5
F771
330
F770
100
AcDbEntity
  8
0
 48
50.0
100
AcDbBlockBegin
  2
_DOTSMALL
 70
     0
 10
0.0
 20
0.0
 30
0.0
  3
_DOTSMALL
  1

  0
LWPOLYLINE
  5
F772
330
F770
100
AcDbEntity
  8
0
  6
ByBlock
 62
     0
 48
50.0
100
AcDbPolyline
 90
        2
 70
     1
 43
0.5
 10
-0.0625
 20
0.0
 42
1.0
 10
0.0625
 20
0.0
 42
1.0
  0
ENDBLK
  5
F776
330
F770
100
AcDbEntity
  8
0
 48
50.0
100
AcDbBlockEnd
  0
BLOCK
  5
164BA
330
164B4
100
AcDbEntity
  8
0
 48
50.0
100
AcDbBlockBegin
  2
_DOT
 70
     0
 10
0.0
 20
0.0
 30
0.0
  3
_DOT
  1

  0
LWPOLYLINE
  5
164B5
330
164B4
100
AcDbEntity
  8
0
  6
ByBlock
 62
     0
 48
50.0
100
AcDbPolyline
 90
        2
 70
     1
 43
0.5
 10
-0.25
 20
0.0
 42
1.0
 10
0.25
 20
0.0
 42
1.0
  0
LINE
  5
164B9
330
164B4
100
AcDbEntity
  8
0
  6
ByBlock
 62
     0
 48
50.0
100
AcDbLine
 10
-0.5
 20
0.0
 30
0.0
 11
-1.0
 21
0.0
 31
0.0
  0
ENDBLK
  5
164BB
330
164B4
100
AcDbEntity
  8
0
 48
50.0
100
AcDbBlockEnd
  0
BLOCK
  5
18BC9
330
18BC8
100
AcDbEntity
  8
0
 48
50.0
100
AcDbBlockBegin
  2
*D3
 70
     1
 10
0.0
 20
0.0
 30
0.0
  3
*D3
  1

  0
LINE
  5
18BCA
330
18BC8
100
AcDbEntity
  8
寸法
 62
     0
 48
50.0
370
    -2
100
AcDbLine
 10
7649.896575106999
 20
9636.123139034717
 30
0.0
 11
8702.429862581047
 21
9636.123139034717
 31
0.0
  0
LINE
  5
18BCB
330
18BC8
100
AcDbEntity
  8
寸法
 62
     0
 48
50.0
370
    -2
100
AcDbLine
 10
7649.896575106973
 20
7846.123139034709
 30
0.0
 11
8702.429862581047
 21
7846.123139034709
 31
0.0
  0
LINE
  5
18BCC
330
18BC8
100
AcDbEntity
  8
寸法
 62
     0
 48
50.0
370
    -2
100
AcDbLine
 10
8642.429862581046
 20
9636.123139034717
 30
0.0
 11
8642.429862581046
 21
7846.123139034709
 31
0.0
  0
INSERT
  5
18BCD
330
18BC8
100
AcDbEntity
  8
寸法
 62
     0
 48
50.0
370
    -2
100
AcDbBlockReference
  2
_DOTSMALL
 10
8642.429862581046
 20
9636.123139034717
 30
0.0
 41
100.0
 42
100.0
 43
100.0
 50
90.0
  0
INSERT
  5
18BCE
330
18BC8
100
AcDbEntity
  8
寸法
 62
     0
 48
50.0
370
    -2
100
AcDbBlockReference
  2
_DOTSMALL
 10
8642.429862581046
 20
7846.123139034709
 30
0.0
 41
100.0
 42
100.0
 43
100.0
 50
270.0
  0
MTEXT
  5
18BCF
330
18BC8
100
AcDbEntity
  8
寸法
 62
     7
 48
50.0
100
AcDbMText
 10
8542.429862581045
 20
8741.123139034712
 30
0.0
 40
120.0
 41
0.0
 71
     5
 72
     1
  1
\A1;1790
  7
STYLE1
 11
0.0000000000000001
 21
1.0
 31
0.0
 73
     1
 44
1.0
1001
ACAD
1000
MTEXTBEGIN
1070
    73
1070
     1
1070
    44
1040
1.0
1070
    74
1070
     0
1000
MTEXTEND
  0
POINT
  5
18BD0
330
18BC8
100
AcDbEntity
  8
DEFPOINTS
 62
     0
 48
50.0
100
AcDbPoint
 10
7629.896575106998
 20
9636.123139034717
 30
0.0
  0
POINT
  5
18BD1
330
18BC8
100
AcDbEntity
  8
DEFPOINTS
 62
     0
 48
50.0
100
AcDbPoint
 10
7629.896575106974
 20
7846.123139034709
 30
0.0
  0
POINT
  5
18BD2
330
18BC8
100
AcDbEntity
  8
DEFPOINTS
 62
     0
 48
50.0
100
AcDbPoint
 10
8642.429862581046
 20
7846.123139034709
 30
0.0
  0
ENDBLK
  5
18BD3
330
18BC8
100
AcDbEntity
  8
0
 48
50.0
100
AcDbBlockEnd
  0
BLOCK
  5
18BD5
330
18BD4
100
AcDbEntity
  8
0
 48
50.0
100
AcDbBlockBegin
  2
*D4
 70
     1
 10
0.0
 20
0.0
 30
0.0
  3
*D4
  1

  0
LINE
  5
18BD6
330
18BD4
100
AcDbEntity
  8
寸法
 62
     0
 48
50.0
370
    -2
100
AcDbLine
 10
4214.896575106998
 20
9656.123139034622
 30
0.0
 11
4214.896575106998
 21
10211.93135865972
 31
0.0
  0
LINE
  5
18BD7
330
18BD4
100
AcDbEntity
  8
寸法
 62
     0
 48
50.0
370
    -2
100
AcDbLine
 10
7574.896575106999
 20
9656.123139034718
 30
0.0
 11
7574.896575106999
 21
10211.93135865972
 31
0.0
  0
LINE
  5
18BD8
330
18BD4
100
AcDbEntity
  8
寸法
 62
     0
 48
50.0
370
    -2
100
AcDbLine
 10
4214.896575106998
 20
10151.93135865972
 30
0.0
 11
7574.896575106999
 21
10151.93135865972
 31
0.0
  0
INSERT
  5
18BD9
330
18BD4
100
AcDbEntity
  8
寸法
 62
     0
 48
50.0
370
    -2
100
AcDbBlockReference
  2
_DOTSMALL
 10
4214.896575106998
 20
10151.93135865972
 30
0.0
 41
100.0
 42
100.0
 43
100.0
 50
180.0
  0
INSERT
  5
18BDA
330
18BD4
100
AcDbEntity
  8
寸法
 62
     0
 48
50.0
370
    -2
100
AcDbBlockReference
  2
_DOTSMALL
 10
7574.896575106999
 20
10151.93135865972
 30
0.0
 41
100.0
 42
100.0
 43
100.0
  0
MTEXT
  5
18BDB
330
18BD4
100
AcDbEntity
  8
寸法
 62
     7
 48
50.0
100
AcDbMText
 10
5894.896575106997
 20
10251.94316968334
 30
0.0
 40
120.0
 41
0.0
 71
     5
 72
     1
  1
\A1;8X420=3360
  7
STYLE1
 73
     1
 44
1.0
1001
ACAD
1000
MTEXTBEGIN
1070
    73
1070
     1
1070
    44
1040
1.0
1070
    74
1070
     0
1000
MTEXTEND
  0
POINT
  5
18BDC
330
18BD4
100
AcDbEntity
  8
DEFPOINTS
 62
     0
 48
50.0
100
AcDbPoint
 10
4214.896575106998
 20
9636.123139034623
 30
0.0
  0
POINT
  5
18BDD
330
18BD4
100
AcDbEntity
  8
DEFPOINTS
 62
     0
 48
50.0
100
AcDbPoint
 10
7574.896575106999
 20
9636.123139034717
 30
0.0
  0
POINT
  5
18BDE
330
18BD4
100
AcDbEntity
  8
DEFPOINTS
 62
     0
 48
50.0
100
AcDbPoint
 10
7574.896575106999
 20
10151.93135865972
 30
0.0
  0
ENDBLK
  5
18BDF
330
18BD4
100
AcDbEntity
  8
0
 48
50.0
100
AcDbBlockEnd
  0
BLOCK
  5
18BE1
330
18BE0
100
AcDbEntity
  8
0
 48
50.0
100
AcDbBlockBegin
  2
*D5
 70
     1
 10
0.0
 20
0.0
 30
0.0
  3
*D5
  1

  0
LINE
  5
18BE2
330
18BE0
100
AcDbEntity
  8
寸法
 62
     0
 48
50.0
370
    -2
100
AcDbLine
 10
7574.896575106999
 20
9656.123139034718
 30
0.0
 11
7574.896575106999
 21
10211.9313586597
 31
0.0
  0
LINE
  5
18BE3
330
18BE0
100
AcDbEntity
  8
寸法
 62
     0
 48
50.0
370
    -2
100
AcDbLine
 10
7629.896575106998
 20
9656.123139034718
 30
0.0
 11
7629.896575106998
 21
10211.9313586597
 31
0.0
  0
LINE
  5
18BE4
330
18BE0
100
AcDbEntity
  8
寸法
 62
     0
 48
50.0
370
    -2
100
AcDbLine
 10
7574.896575106999
 20
10151.9313586597
 30
0.0
 11
7474.896575106999
 21
10151.9313586597
 31
0.0
  0
LINE
  5
18BE5
330
18BE0
100
AcDbEntity
  8
寸法
 62
     0
 48
50.0
370
    -2
100
AcDbLine
 10
7629.896575106998
 20
10151.9313586597
 30
0.0
 11
8046.867137855477
 21
10151.9313586597
 31
0.0
  0
LINE
  5
18BE6
330
18BE0
100
AcDbEntity
  8
寸法
 62
     0
 48
50.0
370
    -2
100
AcDbLine
 10
7574.896575106999
 20
10151.9313586597
 30
0.0
 11
7629.896575106998
 21
10151.9313586597
 31
0.0
  0
INSERT
  5
18BE7
330
18BE0
100
AcDbEntity
  8
寸法
 62
     0
 48
50.0
370
    -2
100
AcDbBlockReference
  2
_DOTSMALL
 10
7574.896575106999
 20
10151.9313586597
 30
0.0
 41
100.0
 42
100.0
 43
100.0
  0
INSERT
  5
18BE8
330
18BE0
100
AcDbEntity
  8
寸法
 62
     0
 48
50.0
370
    -2
100
AcDbBlockReference
  2
_DOTSMALL
 10
7629.896575106998
 20
10151.9313586597
 30
0.0
 41
100.0
 42
100.0
 43
100.0
 50
180.0
  0
MTEXT
  5
18BE9
330
18BE0
100
AcDbEntity
  8
寸法
 62
     7
 48
50.0
100
AcDbMText
 10
7938.381856481237
 20
10251.9313586597
 30
0.0
 40
120.0
 41
0.0
 71
     5
 72
     1
  1
\A1;55
  7
STYLE1
 73
     1
 44
1.0
1001
ACAD
1000
MTEXTBEGIN
1070
    73
1070
     1
1070
    44
1040
1.0
1070
    74
1070
     0
1000
MTEXTEND
  0
POINT
  5
18BEA
330
18BE0
100
AcDbEntity
  8
DEFPOINTS
 62
     0
 48
50.0
100
AcDbPoint
 10
7574.896575106999
 20
9636.123139034717
 30
0.0
  0
POINT
  5
18BEB
330
18BE0
100
AcDbEntity
  8
DEFPOINTS
 62
     0
 48
50.0
100
AcDbPoint
 10
7629.896575106998
 20
9636.123139034717
 30
0.0
  0
POINT
  5
18BEC
330
18BE0
100
AcDbEntity
  8
DEFPOINTS
 62
     0
 48
50.0
100
AcDbPoint
 10
7629.896575106998
 20
10151.9313586597
 30
0.0
  0
ENDBLK
  5
18BED
330
18BE0
100
AcDbEntity
  8
0
 48
50.0
100
AcDbBlockEnd
  0
BLOCK
  5
18BEF
330
18BEE
100
AcDbEntity
  8
0
 48
50.0
100
AcDbBlockBegin
  2
*D6
 70
     1
 10
0.0
 20
0.0
 30
0.0
  3
*D6
  1

  0
LINE
  5
18BF0
330
18BEE
100
AcDbEntity
  8
寸法
 62
     0
 48
50.0
370
    -2
100
AcDbLine
 10
7649.896575106999
 20
9636.123139034717
 30
0.0
 11
8337.32292084141
 21
9636.123139034717
 31
0.0
  0
LINE
  5
18BF1
330
18BEE
100
AcDbEntity
  8
寸法
 62
     0
 48
50.0
370
    -2
100
AcDbLine
 10
7649.896575106999
 20
9581.123139034721
 30
0.0
 11
8337.32292084141
 21
9581.123139034721
 31
0.0
  0
LINE
  5
18BF2
330
18BEE
100
AcDbEntity
  8
寸法
 62
     0
 48
50.0
370
    -2
100
AcDbLine
 10
8277.322920841411
 20
9581.123139034721
 30
0.0
 11
8277.322920841411
 21
9481.123139034719
 31
0.0
  0
LINE
  5
18BF3
330
18BEE
100
AcDbEntity
  8
寸法
 62
     0
 48
50.0
370
    -2
100
AcDbLine
 10
8277.322920841411
 20
9636.123139034717
 30
0.0
 11
8277.322920841411
 21
10053.09370178319
 31
0.0
  0
LINE
  5
18BF4
330
18BEE
100
AcDbEntity
  8
寸法
 62
     0
 48
50.0
370
    -2
100
AcDbLine
 10
8277.322920841411
 20
9581.123139034721
 30
0.0
 11
8277.322920841411
 21
9636.123139034717
 31
0.0
  0
INSERT
  5
18BF5
330
18BEE
100
AcDbEntity
  8
寸法
 62
     0
 48
50.0
370
    -2
100
AcDbBlockReference
  2
_DOTSMALL
 10
8277.322920841411
 20
9581.123139034721
 30
0.0
 41
100.0
 42
100.0
 43
100.0
 50
90.0
  0
INSERT
  5
18BF6
330
18BEE
100
AcDbEntity
  8
寸法
 62
     0
 48
50.0
370
    -2
100
AcDbBlockReference
  2
_DOTSMALL
 10
8277.322920841411
 20
9636.123139034717
 30
0.0
 41
100.0
 42
100.0
 43
100.0
 50
270.0
  0
MTEXT
  5
18BF7
330
18BEE
100
AcDbEntity
  8
寸法
 62
     7
 48
50.0
100
AcDbMText
 10
8177.32292084141
 20
9944.608420408957
 30
0.0
 40
120.0
 41
0.0
 71
     5
 72
     1
  1
\A1;55
  7
STYLE1
 11
0.0000000000000001
 21
1.0
 31
0.0
 73
     1
 44
1.0
1001
ACAD
1000
MTEXTBEGIN
1070
    73
1070
     1
1070
    44
1040
1.0
1070
    74
1070
     0
1000
MTEXTEND
  0
POINT
  5
18BF8
330
18BEE
100
AcDbEntity
  8
DEFPOINTS
 62
     0
 48
50.0
100
AcDbPoint
 10
7629.896575106998
 20
9636.123139034717
 30
0.0
  0
POINT
  5
18BF9
330
18BEE
100
AcDbEntity
  8
DEFPOINTS
 62
     0
 48
50.0
100
AcDbPoint
 10
7629.896575106998
 20
9581.123139034721
 30
0.0
  0
POINT
  5
18BFA
330
18BEE
100
AcDbEntity
  8
DEFPOINTS
 62
     0
 48
50.0
100
AcDbPoint
 10
8277.322920841411
 20
9581.123139034721
 30
0.0
  0
ENDBLK
  5
18BFB
330
18BEE
100
AcDbEntity
  8
0
 48
50.0
100
AcDbBlockEnd
  0
BLOCK
  5
18BFD
330
18BFC
100
AcDbEntity
  8
0
 48
50.0
100
AcDbBlockBegin
  2
*D7
 70
     1
 10
0.0
 20
0.0
 30
0.0
  3
*D7
  1

  0
LINE
  5
18BFE
330
18BFC
100
AcDbEntity
  8
寸法
 62
     0
 48
50.0
370
    -2
100
AcDbLine
 10
4159.896575106963
 20
9656.123139034622
 30
0.0
 11
4159.896575106963
 21
10211.9313586596
 31
0.0
  0
LINE
  5
18BFF
330
18BFC
100
AcDbEntity
  8
寸法
 62
     0
 48
50.0
370
    -2
100
AcDbLine
 10
4214.896575106998
 20
9656.123139034622
 30
0.0
 11
4214.896575106998
 21
10211.9313586596
 31
0.0
  0
LINE
  5
18C00
330
18BFC
100
AcDbEntity
  8
寸法
 62
     0
 48
50.0
370
    -2
100
AcDbLine
 10
4214.896575106998
 20
10151.9313586596
 30
0.0
 11
4314.896575106998
 21
10151.9313586596
 31
0.0
  0
LINE
  5
18C01
330
18BFC
100
AcDbEntity
  8
寸法
 62
     0
 48
50.0
370
    -2
100
AcDbLine
 10
4159.896575106963
 20
10151.9313586596
 30
0.0
 11
3742.926012358486
 21
10151.9313586596
 31
0.0
  0
LINE
  5
18C02
330
18BFC
100
AcDbEntity
  8
寸法
 62
     0
 48
50.0
370
    -2
100
AcDbLine
 10
4214.896575106998
 20
10151.9313586596
 30
0.0
 11
4159.896575106963
 21
10151.9313586596
 31
0.0
  0
INSERT
  5
18C03
330
18BFC
100
AcDbEntity
  8
寸法
 62
     0
 48
50.0
370
    -2
100
AcDbBlockReference
  2
_DOTSMALL
 10
4214.896575106998
 20
10151.9313586596
 30
0.0
 41
100.0
 42
100.0
 43
100.0
 50
180.0
  0
INSERT
  5
18C04
330
18BFC
100
AcDbEntity
  8
寸法
 62
     0
 48
50.0
370
    -2
100
AcDbBlockReference
  2
_DOTSMALL
 10
4159.896575106963
 20
10151.9313586596
 30
0.0
 41
100.0
 42
100.0
 43
100.0
  0
MTEXT
  5
18C05
330
18BFC
100
AcDbEntity
  8
寸法
 62
     7
 48
50.0
100
AcDbMText
 10
3851.411293732725
 20
10251.9313586596
 30
0.0
 40
120.0
 41
0.0
 71
     5
 72
     1
  1
\A1;55
  7
STYLE1
 73
     1
 44
1.0
1001
ACAD
1000
MTEXTBEGIN
1070
    73
1070
     1
1070
    44
1040
1.0
1070
    74
1070
     0
1000
MTEXTEND
  0
POINT
  5
18C06
330
18BFC
100
AcDbEntity
  8
DEFPOINTS
 62
     0
 48
50.0
100
AcDbPoint
 10
4159.896575106963
 20
9636.123139034623
 30
0.0
  0
POINT
  5
18C07
330
18BFC
100
AcDbEntity
  8
DEFPOINTS
 62
     0
 48
50.0
100
AcDbPoint
 10
4214.896575106998
 20
9636.123139034623
 30
0.0
  0
POINT
  5
18C08
330
18BFC
100
AcDbEntity
  8
DEFPOINTS
 62
     0
 48
50.0
100
AcDbPoint
 10
4214.896575106998
 20
10151.9313586596
 30
0.0
  0
ENDBLK
  5
18C09
330
18BFC
100
AcDbEntity
  8
0
 48
50.0
100
AcDbBlockEnd
  0
BLOCK
  5
18C0B
330
18C0A
100
AcDbEntity
  8
0
 48
50.0
100
AcDbBlockBegin
  2
*D8
 70
     1
 10
0.0
 20
0.0
 30
0.0
  3
*D8
  1

  0
LINE
  5
18C0C
330
18C0A
100
AcDbEntity
  8
寸法
 62
     0
 48
50.0
370
    -2
100
AcDbLine
 10
4159.896575106992
 20
7826.123139034546
 30
0.0
 11
4159.896575106992
 21
6804.372203245664
 31
0.0
  0
LINE
  5
18C0D
330
18C0A
100
AcDbEntity
  8
寸法
 62
     0
 48
50.0
370
    -2
100
AcDbLine
 10
7629.896575106974
 20
7826.123139034674
 30
0.0
 11
7629.896575106974
 21
6804.372203245664
 31
0.0
  0
LINE
  5
18C0E
330
18C0A
100
AcDbEntity
  8
寸法
 62
     0
 48
50.0
370
    -2
100
AcDbLine
 10
4159.896575106992
 20
6864.372203245665
 30
0.0
 11
7629.896575106974
 21
6864.372203245665
 31
0.0
  0
INSERT
  5
18C0F
330
18C0A
100
AcDbEntity
  8
寸法
 62
     0
 48
50.0
370
    -2
100
AcDbBlockReference
  2
_DOTSMALL
 10
4159.896575106992
 20
6864.372203245665
 30
0.0
 41
100.0
 42
100.0
 43
100.0
 50
180.0
  0
INSERT
  5
18C10
330
18C0A
100
AcDbEntity
  8
寸法
 62
     0
 48
50.0
370
    -2
100
AcDbBlockReference
  2
_DOTSMALL
 10
7629.896575106974
 20
6864.372203245665
 30
0.0
 41
100.0
 42
100.0
 43
100.0
  0
MTEXT
  5
18C11
330
18C0A
100
AcDbEntity
  8
寸法
 62
     7
 48
50.0
100
AcDbMText
 10
5911.12376113973
 20
6964.372203245665
 30
0.0
 40
120.0
 41
0.0
 71
     5
 72
     1
  1
\A1;3470
  7
STYLE1
 73
     1
 44
1.0
1001
ACAD
1000
MTEXTBEGIN
1070
    73
1070
     1
1070
    44
1040
1.0
1070
    74
1070
     0
1000
MTEXTEND
  0
POINT
  5
18C12
330
18C0A
100
AcDbEntity
  8
DEFPOINTS
 62
     0
 48
50.0
100
AcDbPoint
 10
4159.896575106992
 20
7846.123139034546
 30
0.0
  0
POINT
  5
18C13
330
18C0A
100
AcDbEntity
  8
DEFPOINTS
 62
     0
 48
50.0
100
AcDbPoint
 10
7629.896575106974
 20
7846.123139034673
 30
0.0
  0
POINT
  5
18C14
330
18C0A
100
AcDbEntity
  8
DEFPOINTS
 62
     0
 48
50.0
100
AcDbPoint
 10
7629.896575106974
 20
6864.372203245665
 30
0.0
  0
ENDBLK
  5
18C15
330
18C0A
100
AcDbEntity
  8
0
 48
50.0
100
AcDbBlockEnd
  0
BLOCK
  5
18C17
330
18C16
100
AcDbEntity
  8
0
 48
50.0
100
AcDbBlockBegin
  2
*D9
 70
     1
 10
0.0
 20
0.0
 30
0.0
  3
*D9
  1

  0
LINE
  5
18C18
330
18C16
100
AcDbEntity
  8
寸法
 62
     0
 48
50.0
370
    -2
100
AcDbLine
 10
7649.896575106973
 20
7901.123139034706
 30
0.0
 11
8337.322920841385
 21
7901.123139034706
 31
0.0
  0
LINE
  5
18C19
330
18C16
100
AcDbEntity
  8
寸法
 62
     0
 48
50.0
370
    -2
100
AcDbLine
 10
7649.896575106973
 20
7846.123139034709
 30
0.0
 11
8337.322920841385
 21
7846.123139034709
 31
0.0
  0
LINE
  5
18C1A
330
18C16
100
AcDbEntity
  8
寸法
 62
     0
 48
50.0
370
    -2
100
AcDbLine
 10
8277.322920841385
 20
7901.123139034706
 30
0.0
 11
8277.322920841385
 21
8001.123139034707
 31
0.0
  0
LINE
  5
18C1B
330
18C16
100
AcDbEntity
  8
寸法
 62
     0
 48
50.0
370
    -2
100
AcDbLine
 10
8277.322920841385
 20
7846.123139034709
 30
0.0
 11
8277.322920841385
 21
7429.152576286229
 31
0.0
  0
LINE
  5
18C1C
330
18C16
100
AcDbEntity
  8
寸法
 62
     0
 48
50.0
370
    -2
100
AcDbLine
 10
8277.322920841385
 20
7901.123139034706
 30
0.0
 11
8277.322920841385
 21
7846.123139034709
 31
0.0
  0
INSERT
  5
18C1D
330
18C16
100
AcDbEntity
  8
寸法
 62
     0
 48
50.0
370
    -2
100
AcDbBlockReference
  2
_DOTSMALL
 10
8277.322920841385
 20
7901.123139034706
 30
0.0
 41
100.0
 42
100.0
 43
100.0
 50
270.0
  0
INSERT
  5
18C1E
330
18C16
100
AcDbEntity
  8
寸法
 62
     0
 48
50.0
370
    -2
100
AcDbBlockReference
  2
_DOTSMALL
 10
8277.322920841385
 20
7846.123139034709
 30
0.0
 41
100.0
 42
100.0
 43
100.0
 50
90.0
  0
MTEXT
  5
18C1F
330
18C16
100
AcDbEntity
  8
寸法
 62
     7
 48
50.0
100
AcDbMText
 10
8177.322920841383
 20
7537.637857660469
 30
0.0
 40
120.0
 41
0.0
 71
     5
 72
     1
  1
\A1;55
  7
STYLE1
 11
0.0000000000000001
 21
1.0
 31
0.0
 73
     1
 44
1.0
1001
ACAD
1000
MTEXTBEGIN
1070
    73
1070
     1
1070
    44
1040
1.0
1070
    74
1070
     0
1000
MTEXTEND
  0
POINT
  5
18C20
330
18C16
100
AcDbEntity
  8
DEFPOINTS
 62
     0
 48
50.0
100
AcDbPoint
 10
7629.896575106974
 20
7901.123139034706
 30
0.0
  0
POINT
  5
18C21
330
18C16
100
AcDbEntity
  8
DEFPOINTS
 62
     0
 48
50.0
100
AcDbPoint
 10
7629.896575106974
 20
7846.123139034709
 30
0.0
  0
POINT
  5
18C22
330
18C16
100
AcDbEntity
  8
DEFPOINTS
 62
     0
 48
50.0
100
AcDbPoint
 10
8277.322920841385
 20
7846.123139034709
 30
0.0
  0
ENDBLK
  5
18C23
330
18C16
100
AcDbEntity
  8
0
 48
50.0
100
AcDbBlockEnd
  0
BLOCK
  5
18C25
330
18C24
100
AcDbEntity
  8
0
 48
50.0
100
AcDbBlockBegin
  2
*D10
 70
     1
 10
0.0
 20
0.0
 30
0.0
  3
*D10
  1

  0
LINE
  5
18C26
330
18C24
100
AcDbEntity
  8
寸法
 62
     0
 48
50.0
370
    -2
100
AcDbLine
 10
6533.037591258376
 20
9136.123139034728
 30
0.0
 11
6465.083950562664
 21
8882.516699399049
 31
0.0
  0
LINE
  5
18C27
330
18C24
100
AcDbEntity
  8
寸法
 62
     0
 48
50.0
370
    -2
100
AcDbLine
 10
7596.037591258388
 20
9136.123139034721
 30
0.0
 11
7528.083950562677
 21
8882.516699399049
 31
0.0
  0
LINE
  5
18C28
330
18C24
100
AcDbEntity
  8
寸法
 62
     0
 48
50.0
370
    -2
100
AcDbLine
 10
6481.160902108531
 20
8942.51669939905
 30
0.0
 11
7544.160902108544
 21
8942.51669939905
 31
0.0
  0
INSERT
  5
18C29
330
18C24
100
AcDbEntity
  8
寸法
 62
     0
 48
50.0
370
    -2
100
AcDbBlockReference
  2
_DOTSMALL
 10
6481.160902108531
 20
8942.51669939905
 30
0.0
 41
100.0
 42
100.0
 43
100.0
 50
180.0
  0
INSERT
  5
18C2A
330
18C24
100
AcDbEntity
  8
寸法
 62
     0
 48
50.0
370
    -2
100
AcDbBlockReference
  2
_DOTSMALL
 10
7544.160902108544
 20
8942.51669939905
 30
0.0
 41
100.0
 42
100.0
 43
100.0
  0
MTEXT
  5
18C2B
330
18C24
100
AcDbEntity
  8
寸法
 62
     7
 48
50.0
100
AcDbMText
 10
7061.28653022935
 20
9042.516699399049
 30
0.0
 40
120.0
 41
0.0
 71
     5
 72
     1
  1
\A1;1063
  7
STYLE1
 73
     1
 44
1.0
1001
ACAD
1000
MTEXTBEGIN
1070
    73
1070
     1
1070
    44
1040
1.0
1070
    74
1070
     0
1000
MTEXTEND
  0
POINT
  5
18C2C
330
18C24
100
AcDbEntity
  8
DEFPOINTS
 62
     0
 48
50.0
100
AcDbPoint
 10
6538.396575106998
 20
9156.123139034727
 30
0.0
  0
POINT
  5
18C2D
330
18C24
100
AcDbEntity
  8
DEFPOINTS
 62
     0
 48
50.0
100
AcDbPoint
 10
7601.39657510701
 20
9156.12313903472
 30
0.0
  0
POINT
  5
18C2E
330
18C24
100
AcDbEntity
  8
DEFPOINTS
 62
     0
 48
50.0
100
AcDbPoint
 10
7544.160902108544
 20
8942.51669939905
 30
0.0
  0
ENDBLK
  5
18C2F
330
18C24
100
AcDbEntity
  8
0
 48
50.0
100
AcDbBlockEnd
  0
BLOCK
  5
18C31
330
18C30
100
AcDbEntity
  8
0
 48
50.0
100
AcDbBlockBegin
  2
*D11
 70
     1
 10
0.0
 20
0.0
 30
0.0
  3
*D11
  1

  0
LINE
  5
18C32
330
18C30
100
AcDbEntity
  8
寸法
 62
     0
 48
50.0
370
    -2
100
AcDbLine
 10
7621.396575106999
 20
9600.764155186094
 30
0.0
 11
8016.754300969024
 21
9494.828371819961
 31
0.0
  0
LINE
  5
18C33
330
18C30
100
AcDbEntity
  8
寸法
 62
     0
 48
50.0
370
    -2
100
AcDbLine
 10
7621.396575106999
 20
9150.764155186099
 30
0.0
 11
8016.754300969024
 21
9044.828371819964
 31
0.0
  0
LINE
  5
18C34
330
18C30
100
AcDbEntity
  8
寸法
 62
     0
 48
50.0
370
    -2
100
AcDbLine
 10
7956.754300969024
 20
9510.905323365827
 30
0.0
 11
7956.754300969024
 21
9060.90532336583
 31
0.0
  0
INSERT
  5
18C35
330
18C30
100
AcDbEntity
  8
寸法
 62
     0
 48
50.0
370
    -2
100
AcDbBlockReference
  2
_DOTSMALL
 10
7956.754300969024
 20
9510.905323365827
 30
0.0
 41
100.0
 42
100.0
 43
100.0
 50
90.0
  0
INSERT
  5
18C36
330
18C30
100
AcDbEntity
  8
寸法
 62
     0
 48
50.0
370
    -2
100
AcDbBlockReference
  2
_DOTSMALL
 10
7956.754300969024
 20
9060.90532336583
 30
0.0
 41
100.0
 42
100.0
 43
100.0
 50
270.0
  0
MTEXT
  5
18C37
330
18C30
100
AcDbEntity
  8
寸法
 62
     7
 48
50.0
100
AcDbMText
 10
7856.754300969022
 20
9285.905323365829
 30
0.0
 40
120.0
 41
0.0
 71
     5
 72
     1
  1
\A1;450
  7
STYLE1
 11
0.0000000000000001
 21
1.0
 31
0.0
 73
     1
 44
1.0
1001
ACAD
1000
MTEXTBEGIN
1070
    73
1070
     1
1070
    44
1040
1.0
1070
    74
1070
     0
1000
MTEXTEND
  0
POINT
  5
18C38
330
18C30
100
AcDbEntity
  8
DEFPOINTS
 62
     0
 48
50.0
100
AcDbPoint
 10
7601.396575106999
 20
9606.123139034718
 30
0.0
  0
POINT
  5
18C39
330
18C30
100
AcDbEntity
  8
DEFPOINTS
 62
     0
 48
50.0
100
AcDbPoint
 10
7601.396575106999
 20
9156.12313903472
 30
0.0
  0
POINT
  5
18C3A
330
18C30
100
AcDbEntity
  8
DEFPOINTS
 62
     0
 48
50.0
100
AcDbPoint
 10
7956.754300969024
 20
9060.90532336583
 30
0.0
  0
ENDBLK
  5
18C3B
330
18C30
100
AcDbEntity
  8
0
 48
50.0
100
AcDbBlockEnd
  0
BLOCK
  5
18C3D
330
18C3C
100
AcDbEntity
  8
0
 48
50.0
100
AcDbBlockBegin
  2
*D12
 70
     1
 10
0.0
 20
0.0
 30
0.0
  3
*D12
  1

  0
LINE
  5
18C3E
330
18C3C
100
AcDbEntity
  8
寸法
 62
     0
 48
50.0
370
    -2
100
AcDbLine
 10
7649.896575106999
 20
9581.123139034721
 30
0.0
 11
8337.32292084141
 21
9581.123139034721
 31
0.0
  0
LINE
  5
18C3F
330
18C3C
100
AcDbEntity
  8
寸法
 62
     0
 48
50.0
370
    -2
100
AcDbLine
 10
7649.896575106973
 20
7901.123139034706
 30
0.0
 11
8337.32292084141
 21
7901.123139034706
 31
0.0
  0
LINE
  5
18C40
330
18C3C
100
AcDbEntity
  8
寸法
 62
     0
 48
50.0
370
    -2
100
AcDbLine
 10
8277.322920841411
 20
9581.123139034721
 30
0.0
 11
8277.322920841411
 21
7901.123139034706
 31
0.0
  0
INSERT
  5
18C41
330
18C3C
100
AcDbEntity
  8
寸法
 62
     0
 48
50.0
370
    -2
100
AcDbBlockReference
  2
_DOTSMALL
 10
8277.322920841411
 20
9581.123139034721
 30
0.0
 41
100.0
 42
100.0
 43
100.0
 50
90.0
  0
INSERT
  5
18C42
330
18C3C
100
AcDbEntity
  8
寸法
 62
     0
 48
50.0
370
    -2
100
AcDbBlockReference
  2
_DOTSMALL
 10
8277.322920841411
 20
7901.123139034706
 30
0.0
 41
100.0
 42
100.0
 43
100.0
 50
270.0
  0
MTEXT
  5
18C43
330
18C3C
100
AcDbEntity
  8
寸法
 62
     7
 48
50.0
100
AcDbMText
 10
8177.311109817788
 20
8741.123139034712
 30
0.0
 40
120.0
 41
0.0
 71
     5
 72
     1
  1
\A1;4X420=1680
  7
STYLE1
 11
0.0000000000000001
 21
1.0
 31
0.0
 73
     1
 44
1.0
1001
ACAD
1000
MTEXTBEGIN
1070
    73
1070
     1
1070
    44
1040
1.0
1070
    74
1070
     0
1000
MTEXTEND
  0
POINT
  5
18C44
330
18C3C
100
AcDbEntity
  8
DEFPOINTS
 62
     0
 48
50.0
100
AcDbPoint
 10
7629.896575106998
 20
9581.123139034721
 30
0.0
  0
POINT
  5
18C45
330
18C3C
100
AcDbEntity
  8
DEFPOINTS
 62
     0
 48
50.0
100
AcDbPoint
 10
7629.896575106974
 20
7901.123139034706
 30
0.0
  0
POINT
  5
18C46
330
18C3C
100
AcDbEntity
  8
DEFPOINTS
 62
     0
 48
50.0
100
AcDbPoint
 10
8277.322920841411
 20
7901.123139034706
 30
0.0
  0
ENDBLK
  5
18C47
330
18C3C
100
AcDbEntity
  8
0
 48
50.0
100
AcDbBlockEnd
  0
BLOCK
  5
18C49
330
18C48
100
AcDbEntity
  8
0
 48
50.0
100
AcDbBlockBegin
  2
*D13
 70
     1
 10
0.0
 20
0.0
 30
0.0
  3
*D13
  1

  0
LINE
  5
18C4A
330
18C48
100
AcDbEntity
  8
寸法
 62
     0
 48
50.0
370
    -2
100
AcDbLine
 10
4183.037591258377
 20
9136.123139034619
 30
0.0
 11
4115.083950562663
 21
8882.516699398941
 31
0.0
  0
LINE
  5
18C4B
330
18C48
100
AcDbEntity
  8
寸法
 62
     0
 48
50.0
370
    -2
100
AcDbLine
 10
5246.037591258307
 20
9136.123139034671
 30
0.0
 11
5178.08395056258
 21
8882.516699398941
 31
0.0
  0
LINE
  5
18C4C
330
18C48
100
AcDbEntity
  8
寸法
 62
     0
 48
50.0
370
    -2
100
AcDbLine
 10
4131.160902108532
 20
8942.516699398941
 30
0.0
 11
5194.160902108448
 21
8942.516699398941
 31
0.0
  0
INSERT
  5
18C4D
330
18C48
100
AcDbEntity
  8
寸法
 62
     0
 48
50.0
370
    -2
100
AcDbBlockReference
  2
_DOTSMALL
 10
4131.160902108532
 20
8942.516699398941
 30
0.0
 41
100.0
 42
100.0
 43
100.0
 50
180.0
  0
INSERT
  5
18C4E
330
18C48
100
AcDbEntity
  8
寸法
 62
     0
 48
50.0
370
    -2
100
AcDbBlockReference
  2
_DOTSMALL
 10
5194.160902108448
 20
8942.516699398941
 30
0.0
 41
100.0
 42
100.0
 43
100.0
  0
MTEXT
  5
18C4F
330
18C48
100
AcDbEntity
  8
寸法
 62
     7
 48
50.0
100
AcDbMText
 10
4658.986452655306
 20
9042.516699398941
 30
0.0
 40
120.0
 41
0.0
 71
     5
 72
     1
  1
\A1;1063
  7
STYLE1
 73
     1
 44
1.0
1001
ACAD
1000
MTEXTBEGIN
1070
    73
1070
     1
1070
    44
1040
1.0
1070
    74
1070
     0
1000
MTEXTEND
  0
POINT
  5
18C50
330
18C48
100
AcDbEntity
  8
DEFPOINTS
 62
     0
 48
50.0
100
AcDbPoint
 10
4188.396575106999
 20
9156.123139034617
 30
0.0
  0
POINT
  5
18C51
330
18C48
100
AcDbEntity
  8
DEFPOINTS
 62
     0
 48
50.0
100
AcDbPoint
 10
5251.396575106929
 20
9156.123139034672
 30
0.0
  0
POINT
  5
18C52
330
18C48
100
AcDbEntity
  8
DEFPOINTS
 62
     0
 48
50.0
100
AcDbPoint
 10
5194.160902108448
 20
8942.516699398941
 30
0.0
  0
ENDBLK
  5
18C53
330
18C48
100
AcDbEntity
  8
0
 48
50.0
100
AcDbBlockEnd
  0
BLOCK
  5
18C55
330
18C54
100
AcDbEntity
  8
0
 48
50.0
100
AcDbBlockBegin
  2
*D14
 70
     1
 10
0.0
 20
0.0
 30
0.0
  3
*D14
  1

  0
LINE
  5
18C56
330
18C54
100
AcDbEntity
  8
寸法
 62
     0
 48
50.0
370
    -2
100
AcDbLine
 10
5274.037591258307
 20
9136.123139034669
 30
0.0
 11
5206.08395056258
 21
8882.516699398941
 31
0.0
  0
LINE
  5
18C57
330
18C54
100
AcDbEntity
  8
寸法
 62
     0
 48
50.0
370
    -2
100
AcDbLine
 10
6505.037591258377
 20
9136.123139034662
 30
0.0
 11
6437.083950562653
 21
8882.516699398941
 31
0.0
  0
LINE
  5
18C58
330
18C54
100
AcDbEntity
  8
寸法
 62
     0
 48
50.0
370
    -2
100
AcDbLine
 10
5222.160902108448
 20
8942.516699398941
 30
0.0
 11
6453.16090210852
 21
8942.516699398941
 31
0.0
  0
INSERT
  5
18C59
330
18C54
100
AcDbEntity
  8
寸法
 62
     0
 48
50.0
370
    -2
100
AcDbBlockReference
  2
_DOTSMALL
 10
5222.160902108448
 20
8942.516699398941
 30
0.0
 41
100.0
 42
100.0
 43
100.0
 50
180.0
  0
INSERT
  5
18C5A
330
18C54
100
AcDbEntity
  8
寸法
 62
     0
 48
50.0
370
    -2
100
AcDbBlockReference
  2
_DOTSMALL
 10
6453.16090210852
 20
8942.516699398941
 30
0.0
 41
100.0
 42
100.0
 43
100.0
  0
MTEXT
  5
18C5B
330
18C54
100
AcDbEntity
  8
寸法
 62
     7
 48
50.0
100
AcDbMText
 10
6081.244808320626
 20
9042.528510422561
 30
0.0
 40
120.0
 41
0.0
 71
     5
 72
     1
  1
\A1;1231
  7
STYLE1
 73
     1
 44
1.0
1001
ACAD
1000
MTEXTBEGIN
1070
    73
1070
     1
1070
    44
1040
1.0
1070
    74
1070
     0
1000
MTEXTEND
  0
POINT
  5
18C5C
330
18C54
100
AcDbEntity
  8
DEFPOINTS
 62
     0
 48
50.0
100
AcDbPoint
 10
5279.396575106929
 20
9156.123139034669
 30
0.0
  0
POINT
  5
18C5D
330
18C54
100
AcDbEntity
  8
DEFPOINTS
 62
     0
 48
50.0
100
AcDbPoint
 10
6510.396575106999
 20
9156.123139034662
 30
0.0
  0
POINT
  5
18C5E
330
18C54
100
AcDbEntity
  8
DEFPOINTS
 62
     0
 48
50.0
100
AcDbPoint
 10
6453.16090210852
 20
8942.516699398941
 30
0.0
  0
ENDBLK
  5
18C5F
330
18C54
100
AcDbEntity
  8
0
 48
50.0
100
AcDbBlockEnd
  0
BLOCK
  5
18C61
330
18C60
100
AcDbEntity
  8
0
 48
50.0
100
AcDbBlockBegin
  2
*D15
 70
     1
 10
0.0
 20
0.0
 30
0.0
  3
*D15
  1

  0
LINE
  5
18C62
330
18C60
100
AcDbEntity
  8
寸法
 62
     0
 48
50.0
370
    -2
100
AcDbLine
 10
5065.896575106966
 20
7749.123139034579
 30
0.0
 11
5065.896575106966
 21
7099.952920982538
 31
0.0
  0
LINE
  5
18C63
330
18C60
100
AcDbEntity
  8
寸法
 62
     0
 48
50.0
370
    -2
100
AcDbLine
 10
6331.896575106966
 20
7749.123139034579
 30
0.0
 11
6331.896575106966
 21
7099.952920982538
 31
0.0
  0
LINE
  5
18C64
330
18C60
100
AcDbEntity
  8
寸法
 62
     0
 48
50.0
370
    -2
100
AcDbLine
 10
5065.896575106966
 20
7159.952920982537
 30
0.0
 11
6331.896575106966
 21
7159.952920982537
 31
0.0
  0
INSERT
  5
18C65
330
18C60
100
AcDbEntity
  8
寸法
 62
     0
 48
50.0
370
    -2
100
AcDbBlockReference
  2
_DOTSMALL
 10
5065.896575106966
 20
7159.952920982537
 30
0.0
 41
100.0
 42
100.0
 43
100.0
 50
180.0
  0
INSERT
  5
18C66
330
18C60
100
AcDbEntity
  8
寸法
 62
     0
 48
50.0
370
    -2
100
AcDbBlockReference
  2
_DOTSMALL
 10
6331.896575106966
 20
7159.952920982537
 30
0.0
 41
100.0
 42
100.0
 43
100.0
  0
MTEXT
  5
18C67
330
18C60
100
AcDbEntity
  8
寸法
 62
     7
 48
50.0
100
AcDbMText
 10
5711.986008735934
 20
7359.964732006159
 30
0.0
 40
120.0
 41
0.0
 71
     5
 72
     1
  1
\A1;有効開口部間口\P1266
  7
STYLE1
 73
     1
 44
1.0
1001
ACAD
1000
MTEXTBEGIN
1070
    73
1070
     1
1070
    44
1040
1.0
1070
    74
1070
     0
1000
MTEXTEND
  0
POINT
  5
18C68
330
18C60
100
AcDbEntity
  8
DEFPOINTS
 62
     0
 48
50.0
100
AcDbPoint
 10
5065.896575106966
 20
7769.123139034579
 30
0.0
  0
POINT
  5
18C69
330
18C60
100
AcDbEntity
  8
DEFPOINTS
 62
     0
 48
50.0
100
AcDbPoint
 10
6331.896575106966
 20
7769.123139034579
 30
0.0
  0
POINT
  5
18C6A
330
18C60
100
AcDbEntity
  8
DEFPOINTS
 62
     0
 48
50.0
100
AcDbPoint
 10
6331.896575106966
 20
7159.952920982537
 30
0.0
  0
ENDBLK
  5
18C6B
330
18C60
100
AcDbEntity
  8
0
 48
50.0
100
AcDbBlockEnd
  0
BLOCK
  5
18C6D
330
18C6C
100
AcDbEntity
  8
0
 48
50.0
100
AcDbBlockBegin
  2
*D16
 70
     1
 10
0.0
 20
0.0
 30
0.0
  3
*D16
  1

  0
LINE
  5
18C6E
330
18C6C
100
AcDbEntity
  8
寸法
 62
     0
 48
50.0
370
    -2
100
AcDbLine
 10
7200.896575106966
 20
7846.123139034578
 30
0.0
 11
7457.192158500191
 21
7846.123139034578
 31
0.0
  0
LINE
  5
18C6F
330
18C6C
100
AcDbEntity
  8
寸法
 62
     0
 48
50.0
370
    -2
100
AcDbLine
 10
7199.896575106966
 20
7769.123139034579
 30
0.0
 11
7457.192158500191
 21
7769.123139034579
 31
0.0
  0
LINE
  5
18C70
330
18C6C
100
AcDbEntity
  8
寸法
 62
     0
 48
50.0
370
    -2
100
AcDbLine
 10
7417.192158500192
 20
7866.123139034579
 30
0.0
 11
7417.192158500192
 21
7886.123139034578
 31
0.0
  0
LINE
  5
18C71
330
18C6C
100
AcDbEntity
  8
寸法
 62
     0
 48
50.0
370
    -2
100
AcDbLine
 10
7417.192158500192
 20
7749.123139034579
 30
0.0
 11
7417.192158500192
 21
7533.123139034573
 31
0.0
  0
LINE
  5
18C72
330
18C6C
100
AcDbEntity
  8
寸法
 62
     0
 48
50.0
370
    -2
100
AcDbLine
 10
7417.192158500192
 20
7846.123139034578
 30
0.0
 11
7417.192158500192
 21
7769.123139034579
 31
0.0
  0
INSERT
  5
18C73
330
18C6C
100
AcDbEntity
  8
寸法
 62
     0
 48
50.0
370
    -2
100
AcDbBlockReference
  2
_DOT
 10
7417.192158500192
 20
7846.123139034578
 30
0.0
 41
20.0
 42
20.0
 43
20.0
 50
270.0
  0
INSERT
  5
18C74
330
18C6C
100
AcDbEntity
  8
寸法
 62
     0
 48
50.0
370
    -2
100
AcDbBlockReference
  2
_DOT
 10
7417.192158500192
 20
7769.123139034579
 30
0.0
 41
20.0
 42
20.0
 43
20.0
 50
90.0
  0
MTEXT
  5
18C75
330
18C6C
100
AcDbEntity
  8
寸法
 62
     7
 48
50.0
100
AcDbMText
 10
7325.192158500191
 20
7631.123139034575
 30
0.0
 40
120.0
 41
0.0
 71
     5
 72
     1
  1
\A1;77
  7
STYLE1
 11
0.0000000000000001
 21
1.0
 31
0.0
 73
     1
 44
1.0
1001
ACAD
1000
MTEXTBEGIN
1070
    73
1070
     1
1070
    44
1040
1.0
1070
    74
1070
     0
1000
MTEXTEND
  0
POINT
  5
18C76
330
18C6C
100
AcDbEntity
  8
DEFPOINTS
 62
     0
 48
50.0
100
AcDbPoint
 10
7180.896575106967
 20
7846.123139034578
 30
0.0
  0
POINT
  5
18C77
330
18C6C
100
AcDbEntity
  8
DEFPOINTS
 62
     0
 48
50.0
100
AcDbPoint
 10
7179.896575106965
 20
7769.123139034579
 30
0.0
  0
POINT
  5
18C78
330
18C6C
100
AcDbEntity
  8
DEFPOINTS
 62
     0
 48
50.0
100
AcDbPoint
 10
7417.192158500192
 20
7769.123139034579
 30
0.0
  0
ENDBLK
  5
18C79
330
18C6C
100
AcDbEntity
  8
0
 48
50.0
100
AcDbBlockEnd
  0
BLOCK
  5
18DA0
330
18C7A
100
AcDbEntity
  8
0
 48
50.0
100
AcDbBlockBegin
  2
A$C3B1A506B
 70
     0
 10
0.0
 20
0.0
 30
0.0
  3
A$C3B1A506B
  1

  0
MTEXT
  5
18C7B
330
18C7A
100
AcDbEntity
  8
寸法
 62
     7
 48
50.0
100
AcDbMText
 10
3342.250386887194
 20
2778.329429134012
 30
0.0
 40
96.0
 41
0.0
 71
     5
 72
     1
  1
棚 2段
  7
STYLE1
 73
     1
 44
1.0
1001
ACAD
1000
MTEXTBEGIN
1070
    73
1070
     1
1070
    44
1040
1.0
1070
    74
1070
     0
1000
MTEXTEND
  0
MTEXT
  5
18C7C
330
18C7A
100
AcDbEntity
  8
寸法
 62
     7
 48
50.0
100
AcDbMText
 10
2167.25038688716
 20
2778.329429133986
 30
0.0
 40
96.0
 41
0.0
 71
     5
 72
     1
  1
棚 2段
  7
STYLE1
 73
     1
 44
1.0
1001
ACAD
1000
MTEXTBEGIN
1070
    73
1070
     1
1070
    44
1040
1.0
1070
    74
1070
     0
1000
MTEXTEND
  0
MTEXT
  5
18C7D
330
18C7A
100
AcDbEntity
  8
寸法
 62
     7
 48
50.0
100
AcDbMText
 10
992.2503868871608
 20
2778.329429133935
 30
0.0
 40
96.0
 41
0.0
 71
     5
 72
     1
  1
棚 2段
  7
STYLE1
 73
     1
 44
1.0
1001
ACAD
1000
MTEXTBEGIN
1070
    73
1070
     1
1070
    44
1040
1.0
1070
    74
1070
     0
1000
MTEXTEND
  0
LINE
  5
18C7E
330
18C7A
100
AcDbEntity
  8
細線
 48
50.0
100
AcDbLine
 10
2771.970589276527
 20
1368.994384123192
 30
0.0
 11
3398.970589276523
 21
1368.994384123192
 31
0.0
  0
LINE
  5
18C7F
330
18C7A
100
AcDbEntity
  8
細線
 48
50.0
100
AcDbLine
 10
2117.970593930113
 20
1335.285615569113
 30
0.0
 11
3398.970589276523
 21
1335.285615569113
 31
0.0
  0
LINE
  5
18C80
330
18C7A
100
AcDbEntity
  8
細線
 48
50.0
100
AcDbLine
 10
2076.970593930115
 20
1364.690523565368
 30
0.0
 11
1322.970589276523
 21
1364.690523565367
 31
0.0
  0
LINE
  5
18C81
330
18C7A
100
AcDbEntity
  8
細線
100
AcDbLine
 10
3170.720579860066
 20
1388.494284088199
 30
0.0
 11
3173.052119381877
 21
1393.494286728162
 31
0.0
  0
LINE
  5
18C82
330
18C7A
100
AcDbEntity
  8
細線
100
AcDbLine
 10
3240.720589276525
 20
1388.494269174465
 30
0.0
 11
3238.389042800336
 21
1393.494286728144
 31
0.0
  0
LINE
  5
18C83
330
18C7A
100
AcDbEntity
  8
細線
100
AcDbLine
 10
3238.389042800336
 20
1393.494286728144
 30
0.0
 11
3173.052119381862
 21
1393.494286728133
 31
0.0
  0
LINE
  5
18C84
330
18C7A
100
AcDbEntity
  8
細線
100
AcDbLine
 10
3098.389042800336
 20
1393.494286728144
 30
0.0
 11
3033.052119381862
 21
1393.494286728133
 31
0.0
  0
LINE
  5
18C85
330
18C7A
100
AcDbEntity
  8
細線
100
AcDbLine
 10
3100.720589276523
 20
1388.494269174465
 30
0.0
 11
3098.389042800336
 21
1393.494286728144
 31
0.0
  0
LINE
  5
18C86
330
18C7A
100
AcDbEntity
  8
細線
100
AcDbLine
 10
3030.720579860066
 20
1388.494284088199
 30
0.0
 11
3033.052119381875
 21
1393.494286728162
 31
0.0
  0
LINE
  5
18C87
330
18C7A
100
AcDbEntity
  8
細線
100
AcDbLine
 10
2890.720589276525
 20
1388.494269174465
 30
0.0
 11
2893.052128798336
 21
1393.494271814428
 31
0.0
  0
LINE
  5
18C88
330
18C7A
100
AcDbEntity
  8
細線
100
AcDbLine
 10
2960.720598692984
 20
1388.494254260731
 30
0.0
 11
2958.389052216793
 21
1393.49427181441
 31
0.0
  0
LINE
  5
18C89
330
18C7A
100
AcDbEntity
  8
細線
100
AcDbLine
 10
2958.389052216795
 20
1393.49427181441
 30
0.0
 11
2893.052128798321
 21
1393.494271814399
 31
0.0
  0
LINE
  5
18C8A
330
18C7A
100
AcDbEntity
  8
細線
100
AcDbLine
 10
2667.139038146739
 20
1359.494298590735
 30
0.0
 11
2601.802114728263
 21
1359.494298590724
 31
0.0
  0
LINE
  5
18C8B
330
18C7A
100
AcDbEntity
  8
細線
100
AcDbLine
 10
2669.470584622926
 20
1354.494281037055
 30
0.0
 11
2667.139038146737
 21
1359.494298590735
 31
0.0
  0
LINE
  5
18C8C
330
18C7A
100
AcDbEntity
  8
細線
100
AcDbLine
 10
2599.470575206469
 20
1354.49429595079
 30
0.0
 11
2601.802114728278
 21
1359.494298590752
 31
0.0
  0
LINE
  5
18C8D
330
18C7A
100
AcDbEntity
  8
細線
 48
50.0
100
AcDbLine
 10
2440.853968524536
 20
1372.765132327548
 30
0.0
 11
2446.609486107205
 21
1354.494281037057
 31
0.0
  0
LINE
  5
18C8E
330
18C7A
100
AcDbEntity
  8
細線
 48
50.0
100
AcDbLine
 10
2429.925520044106
 20
1372.765132327546
 30
0.0
 11
2440.853968524536
 21
1372.765132327548
 31
0.0
  0
ARC
  5
18C8F
330
18C7A
100
AcDbEntity
  8
細線
 48
50.0
100
AcDbCircle
 10
2424.471163986787
 20
1374.265132327546
 30
0.0
 40
5.0
100
AcDbArc
 50
204.6243183520723
 51
335.3756816479278
  0
ARC
  5
18C90
330
18C7A
100
AcDbEntity
  8
細線
 48
50.0
100
AcDbCircle
 10
2429.925520044106
 20
1371.765132327546
 30
0.0
 40
1.0
100
AcDbArc
 50
90.0
 51
155.3756816479277
  0
ARC
  5
18C91
330
18C7A
100
AcDbEntity
  8
細線
 48
50.0
100
AcDbCircle
 10
2419.016807929469
 20
1371.765132327546
 30
0.0
 40
1.0
100
AcDbArc
 50
24.62431835207225
 51
90.0
  0
LINE
  5
18C92
330
18C7A
100
AcDbEntity
  8
細線
 48
50.0
100
AcDbLine
 10
2408.088359449037
 20
1372.765132327548
 30
0.0
 11
2419.016807929469
 21
1372.765132327546
 31
0.0
  0
LINE
  5
18C93
330
18C7A
100
AcDbEntity
  8
細線
 48
50.0
100
AcDbLine
 10
2402.33284186637
 20
1354.494281037054
 30
0.0
 11
2408.088359449037
 21
1372.765132327548
 31
0.0
  0
LINE
  5
18C94
330
18C7A
100
AcDbEntity
  8
細線
100
AcDbLine
 10
2458.070304175992
 20
1354.494278397076
 30
0.0
 11
2460.401843697802
 21
1359.494281037039
 31
0.0
  0
LINE
  5
18C95
330
18C7A
100
AcDbEntity
  8
細線
100
AcDbLine
 10
2528.070313592451
 20
1354.494263483342
 30
0.0
 11
2525.738767116262
 21
1359.494281037021
 31
0.0
  0
LINE
  5
18C96
330
18C7A
100
AcDbEntity
  8
細線
100
AcDbLine
 10
2525.738767116262
 20
1359.494281037021
 30
0.0
 11
2460.40184369779
 21
1359.49428103701
 31
0.0
  0
LINE
  5
18C97
330
18C7A
100
AcDbEntity
  8
細線
100
AcDbLine
 10
2387.139046332155
 20
1359.494281037021
 30
0.0
 11
2321.80212291368
 21
1359.49428103701
 31
0.0
  0
LINE
  5
18C98
330
18C7A
100
AcDbEntity
  8
細線
100
AcDbLine
 10
2389.470592808342
 20
1354.494263483342
 30
0.0
 11
2387.139046332153
 21
1359.494281037021
 31
0.0
  0
LINE
  5
18C99
330
18C7A
100
AcDbEntity
  8
細線
100
AcDbLine
 10
2319.470584622926
 20
1354.494281037054
 30
0.0
 11
2321.802122913694
 21
1359.494281037039
 31
0.0
  0
LINE
  5
18C9A
330
18C7A
100
AcDbEntity
  8
細線
100
AcDbLine
 10
2179.47061994182
 20
1354.494289224422
 30
0.0
 11
2181.802158232587
 21
1359.494289224407
 31
0.0
  0
LINE
  5
18C9B
330
18C7A
100
AcDbEntity
  8
細線
100
AcDbLine
 10
2249.470628127236
 20
1354.49427167071
 30
0.0
 11
2247.139081651047
 21
1359.494289224389
 31
0.0
  0
LINE
  5
18C9C
330
18C7A
100
AcDbEntity
  8
細線
100
AcDbLine
 10
2247.139081651047
 20
1359.494289224389
 30
0.0
 11
2181.802158232573
 21
1359.494289224378
 31
0.0
  0
LINE
  5
18C9D
330
18C7A
100
AcDbEntity
  8
細線
100
AcDbLine
 10
1807.970585744697
 20
1320.494460905133
 30
0.0
 11
1810.302124035464
 21
1325.494460905118
 31
0.0
  0
LINE
  5
18C9E
330
18C7A
100
AcDbEntity
  8
細線
100
AcDbLine
 10
1877.970593930113
 20
1320.494443351421
 30
0.0
 11
1875.639047453926
 21
1325.4944609051
 31
0.0
  0
LINE
  5
18C9F
330
18C7A
100
AcDbEntity
  8
細線
100
AcDbLine
 10
1875.639047453926
 20
1325.4944609051
 30
0.0
 11
1810.302124035452
 21
1325.494460905089
 31
0.0
  0
LINE
  5
18CA0
330
18C7A
100
AcDbEntity
  8
細線
100
AcDbLine
 10
2015.639047453926
 20
1325.4944609051
 30
0.0
 11
1950.302124035452
 21
1325.494460905089
 31
0.0
  0
LINE
  5
18CA1
330
18C7A
100
AcDbEntity
  8
細線
100
AcDbLine
 10
2017.970593930113
 20
1320.494443351421
 30
0.0
 11
2015.639047453924
 21
1325.4944609051
 31
0.0
  0
LINE
  5
18CA2
330
18C7A
100
AcDbEntity
  8
細線
100
AcDbLine
 10
1947.970585744697
 20
1320.494460905133
 30
0.0
 11
1950.302124035465
 21
1325.494460905118
 31
0.0
  0
LINE
  5
18CA3
330
18C7A
100
AcDbEntity
  8
細線
100
AcDbLine
 10
1735.639047453926
 20
1325.494460905098
 30
0.0
 11
1670.302124035454
 21
1325.494460905087
 31
0.0
  0
LINE
  5
18CA4
330
18C7A
100
AcDbEntity
  8
細線
100
AcDbLine
 10
1737.970593930113
 20
1320.494443351419
 30
0.0
 11
1735.639047453926
 21
1325.494460905098
 31
0.0
  0
LINE
  5
18CA5
330
18C7A
100
AcDbEntity
  8
細線
100
AcDbLine
 10
1667.970585744697
 20
1320.494460905131
 30
0.0
 11
1670.302124035465
 21
1325.494460905116
 31
0.0
  0
LINE
  5
18CA6
330
18C7A
100
AcDbEntity
  8
細線
100
AcDbLine
 10
1527.970593930113
 20
1320.494460905133
 30
0.0
 11
1530.302132220881
 21
1325.494460905118
 31
0.0
  0
LINE
  5
18CA7
330
18C7A
100
AcDbEntity
  8
細線
100
AcDbLine
 10
1597.970602115529
 20
1320.494443351421
 30
0.0
 11
1595.639055639342
 21
1325.4944609051
 31
0.0
  0
LINE
  5
18CA8
330
18C7A
100
AcDbEntity
  8
細線
100
AcDbLine
 10
1595.639055639342
 20
1325.4944609051
 30
0.0
 11
1530.302132220869
 21
1325.494460905089
 31
0.0
  0
ARC
  5
18CA9
330
18C7A
100
AcDbEntity
  8
部品1
 48
0.01
100
AcDbCircle
 10
1483.470482677778
 20
1319.493338720063
 30
0.0
 40
0.5
100
AcDbArc
 50
270.0
 51
0.0
  0
LINE
  5
18CAA
330
18C7A
100
AcDbEntity
  8
部品1
 48
0.01
100
AcDbLine
 10
1483.970482677778
 20
1320.493338720063
 30
0.0
 11
1483.970482677778
 21
1319.493338720063
 31
0.0
  0
LINE
  5
18CAB
330
18C7A
100
AcDbEntity
  8
部品1
 48
0.01
100
AcDbLine
 10
1483.970482677778
 20
1320.493338720063
 30
0.0
 11
1483.970482677778
 21
1319.493338720063
 31
0.0
  0
LINE
  5
18CAC
330
18C7A
100
AcDbEntity
  8
部品1
 48
0.01
100
AcDbLine
 10
1483.470482677778
 20
1318.993338720063
 30
0.0
 11
1476.857977247713
 21
1318.993338720062
 31
0.0
  0
ARC
  5
18CAD
330
18C7A
100
AcDbEntity
  8
部品1
100
AcDbCircle
 10
1476.926326800494
 20
1319.993338720062
 30
0.0
 40
1.0
100
AcDbArc
 50
160.5287793655865
 51
270.0
  0
ARC
  5
18CAE
330
18C7A
100
AcDbEntity
  8
部品1
100
AcDbCircle
 10
1451.470482677778
 20
1328.993338720062
 30
0.0
 40
26.0
100
AcDbArc
 50
340.5287793655865
 51
0.0
  0
LINE
  5
18CAF
330
18C7A
100
AcDbEntity
  8
部品1
100
AcDbLine
 10
1477.470482677778
 20
1328.993338720062
 30
0.0
 11
1477.470482677778
 21
1333.993338720061
 31
0.0
  0
ARC
  5
18CB0
330
18C7A
100
AcDbEntity
  8
部品1
 48
0.01
100
AcDbCircle
 10
1475.470482677778
 20
1333.993338720061
 30
0.0
 40
2.0
100
AcDbArc
 50
0.0
 51
90.0
  0
ARC
  5
18CB1
330
18C7A
100
AcDbEntity
  8
部品1
100
AcDbCircle
 10
1473.862091052968
 20
1332.993338720062
 30
0.0
 40
3.0
100
AcDbArc
 50
90.0
 51
141.6069559808035
  0
LINE
  5
18CB2
330
18C7A
100
AcDbEntity
  8
部品1
 48
0.01
100
AcDbLine
 10
1475.470482677778
 20
1335.993338720062
 30
0.0
 11
1473.862091052968
 21
1335.993338720062
 31
0.0
  0
ARC
  5
18CB3
330
18C7A
100
AcDbEntity
  8
部品1
100
AcDbCircle
 10
1455.399768463507
 20
1332.293338720065
 30
0.0
 40
3.0
100
AcDbArc
 50
254.0576313943215
 51
270.0
  0
ARC
  5
18CB4
330
18C7A
100
AcDbEntity
  8
部品1
100
AcDbCircle
 10
1462.541196892049
 20
1332.293338720065
 30
0.0
 40
3.0
100
AcDbArc
 50
270.0
 51
285.9423686056786
  0
LINE
  5
18CB5
330
18C7A
100
AcDbEntity
  8
部品1
100
AcDbLine
 10
1462.541196892049
 20
1329.293338720064
 30
0.0
 11
1455.399768463507
 21
1329.293338720064
 31
0.0
  0
ARC
  5
18CB6
330
18C7A
100
AcDbEntity
  8
部品1
100
AcDbCircle
 10
1458.970482677778
 20
1344.793338720065
 30
0.0
 40
16.0
100
AcDbArc
 50
285.9423686056786
 51
321.6069559808035
  0
LINE
  5
18CB7
330
18C7A
100
AcDbEntity
  8
部品1
 48
0.01
100
AcDbLine
 10
1442.470482677778
 20
1335.993338720062
 30
0.0
 11
1444.078874302588
 21
1335.993338720062
 31
0.0
  0
ARC
  5
18CB8
330
18C7A
100
AcDbEntity
  8
部品1
100
AcDbCircle
 10
1444.078874302588
 20
1332.993338720062
 30
0.0
 40
3.0
100
AcDbArc
 50
38.39304401919648
 51
90.0
  0
ARC
  5
18CB9
330
18C7A
100
AcDbEntity
  8
部品1
100
AcDbCircle
 10
1458.970482677778
 20
1344.793338720065
 30
0.0
 40
16.0
100
AcDbArc
 50
218.3930440191965
 51
254.0576313943215
  0
LINE
  5
18CBA
330
18C7A
100
AcDbEntity
  8
部品1
100
AcDbLine
 10
1440.470482677778
 20
1328.993338720062
 30
0.0
 11
1440.470482677778
 21
1333.993338720061
 31
0.0
  0
ARC
  5
18CBB
330
18C7A
100
AcDbEntity
  8
部品1
 48
0.01
100
AcDbCircle
 10
1442.470482677778
 20
1333.993338720061
 30
0.0
 40
2.0
100
AcDbArc
 50
90.0
 51
180.0
  0
ARC
  5
18CBC
330
18C7A
100
AcDbEntity
  8
部品1
100
AcDbCircle
 10
1466.470482677778
 20
1328.993338720062
 30
0.0
 40
26.0
100
AcDbArc
 50
180.0
 51
199.4712206344134
  0
ARC
  5
18CBD
330
18C7A
100
AcDbEntity
  8
部品1
 48
0.01
100
AcDbCircle
 10
1434.470482677778
 20
1319.493338720063
 30
0.0
 40
0.5
100
AcDbArc
 50
180.0
 51
270.0
  0
LINE
  5
18CBE
330
18C7A
100
AcDbEntity
  8
部品1
 48
0.01
100
AcDbLine
 10
1434.470482677778
 20
1318.993338720063
 30
0.0
 11
1441.014638555061
 21
1318.993338720062
 31
0.0
  0
LINE
  5
18CBF
330
18C7A
100
AcDbEntity
  8
部品1
 48
0.01
100
AcDbLine
 10
1433.970482677778
 20
1320.493338720063
 30
0.0
 11
1433.970482677778
 21
1319.493338720063
 31
0.0
  0
ARC
  5
18CC0
330
18C7A
100
AcDbEntity
  8
部品1
100
AcDbCircle
 10
1441.014638555061
 20
1319.993338720062
 30
0.0
 40
1.0
100
AcDbArc
 50
270.0
 51
19.47122063441346
  0
LINE
  5
18CC1
330
18C7A
100
AcDbEntity
  8
細線
100
AcDbLine
 10
1479.470482677785
 20
1338.493338720065
 30
0.0
 11
1438.470482677785
 21
1338.493338720058
 31
0.0
  0
LINE
  5
18CC2
330
18C7A
100
AcDbEntity
  8
細線
100
AcDbLine
 10
1438.470482677785
 20
1338.493338720058
 30
0.0
 11
1438.470482677785
 21
1320.49333872004
 31
0.0
  0
LINE
  5
18CC3
330
18C7A
100
AcDbEntity
  8
細線
100
AcDbLine
 10
1479.470482677785
 20
1338.493338720065
 30
0.0
 11
1479.470482677785
 21
1320.49333872004
 31
0.0
  0
LINE
  5
18CC4
330
18C7A
100
AcDbEntity
  8
細線
100
AcDbLine
 10
1322.970589276523
 20
1324.494269174465
 30
0.0
 11
1322.970589276523
 21
1320.494269174513
 31
0.0
  0
LINE
  5
18CC5
330
18C7A
100
AcDbEntity
  8
寸法
 48
50.0
100
AcDbLine
 10
1746.17359555837
 20
1170.531020743327
 30
0.0
 11
1694.767587648266
 21
1170.531020743327
 31
0.0
  0
LINE
  5
18CC6
330
18C7A
100
AcDbEntity
  8
寸法
 48
50.0
100
AcDbLine
 10
1694.767587648266
 20
1170.531020743327
 30
0.0
 11
1694.767587648266
 21
1201.841179395494
 31
0.0
  0
LINE
  5
18CC7
330
18C7A
100
AcDbEntity
  8
寸法
 48
50.0
100
AcDbLine
 10
1694.767587648266
 20
1201.841179395494
 30
0.0
 11
1665.006255656843
 21
1201.841179395494
 31
0.0
  0
LINE
  5
18CC8
330
18C7A
100
AcDbEntity
  8
寸法
 48
50.0
100
AcDbLine
 10
1665.006255656843
 20
1201.841179395494
 30
0.0
 11
1720.470591603318
 21
1239.420630324105
 31
0.0
  0
LINE
  5
18CC9
330
18C7A
100
AcDbEntity
  8
寸法
 48
50.0
100
AcDbLine
 10
1775.934927549793
 20
1201.841179395494
 30
0.0
 11
1720.470591603318
 21
1239.420630324105
 31
0.0
  0
LINE
  5
18CCA
330
18C7A
100
AcDbEntity
  8
寸法
 48
50.0
100
AcDbLine
 10
1746.17359555837
 20
1201.841179395494
 30
0.0
 11
1775.934927549793
 21
1201.841179395494
 31
0.0
  0
LINE
  5
18CCB
330
18C7A
100
AcDbEntity
  8
寸法
 48
50.0
100
AcDbLine
 10
1746.17359555837
 20
1170.531020743327
 30
0.0
 11
1746.17359555837
 21
1201.841179395494
 31
0.0
  0
LINE
  5
18CCC
330
18C7A
100
AcDbEntity
  8
寸法
 48
50.0
100
AcDbLine
 10
1694.767587648266
 20
1170.531020743327
 30
0.0
 11
1746.17359555837
 21
1170.531020743327
 31
0.0
  0
LINE
  5
18CCD
330
18C7A
100
AcDbEntity
  8
寸法
 48
50.0
100
AcDbLine
 10
2025.339129835225
 20
1227.676611498152
 30
0.0
 11
2025.339129835225
 21
1174.01297691636
 31
0.0
  0
LINE
  5
18CCE
330
18C7A
100
AcDbEntity
  8
寸法
 48
50.0
100
AcDbLine
 10
2114.623348430647
 20
1203.752977228664
 30
0.0
 11
2025.339129835225
 21
1227.676611498152
 31
0.0
  0
LINE
  5
18CCF
330
18C7A
100
AcDbEntity
  8
寸法
 48
50.0
100
AcDbLine
 10
1895.471408254923
 20
1203.752977228664
 30
0.0
 11
2114.623348430647
 21
1203.752977228664
 31
0.0
  0
DIMENSION
  5
18CD0
330
18C7A
100
AcDbEntity
  8
寸法
 48
50.0
100
AcDbDimension
  2
*D15
 10
2588.970589276523
 20
706.3240511224249
 30
0.0
 11
1969.060022905491
 21
706.3240511224249
 31
0.0
 12
-3742.925985830444
 22
-6453.628869860112
 32
0.0
 70
   128
  1
有効開口部間口\P<>
 71
     5
 42
1266.0
  3
INABA_S40G
100
AcDbAlignedDimension
 13
1322.970589276523
 23
1315.494269174465
 33
0.0
 14
2588.970589276523
 24
1315.494269174465
 34
0.0
100
AcDbRotatedDimension
1001
ACAD
1000
DSTYLE
1002
{
1070
   341
1005
0
1002
}
  0
LINE
  5
18CD1
330
18C7A
100
AcDbEntity
  8
部品1
100
AcDbLine
 10
3409.970589276524
 20
1392.494269174465
 30
0.0
 11
3437.970589276523
 21
1392.494269174465
 31
0.0
  0
DIMENSION
  5
18CD2
330
18C7A
100
AcDbEntity
  8
寸法
100
AcDbDimension
  2
*D16
 10
3674.266172669749
 20
1315.494269174465
 30
0.0
 11
3674.266172669748
 21
1177.494269174462
 31
0.0
 12
-3742.925985830444
 22
-6453.628869860112
 32
0.0
 70
   128
 71
     5
 42
77.0
  3
INABA_S40
100
AcDbAlignedDimension
 13
3437.970589276523
 23
1392.494269174465
 33
0.0
 14
3436.970589276523
 24
1315.494269174465
 34
0.0
 50
90.0
100
AcDbRotatedDimension
1001
ACAD
1000
DSTYLE
1002
{
1070
    41
1040
0.5
1070
    44
1040
1.0
1070
   147
1040
0.8
1070
   271
1070
     2
1070
   272
1070
     2
1070
   289
1070
     3
1070
   340
1005
F706
1070
   343
1005
164B4
1070
   344
1005
164B4
1002
}
  0
LINE
  5
18CD3
330
18C7A
100
AcDbEntity
  8
部品1
100
AcDbLine
 10
3437.970589276523
 20
1315.494269174465
 30
0.0
 11
3437.970589276523
 21
1392.494269174465
 31
0.0
  0
LINE
  5
18CD4
330
18C7A
100
AcDbEntity
  8
部品1
100
AcDbLine
 10
3398.970589276523
 20
1388.494269174465
 30
0.0
 11
3409.970589276524
 21
1388.494269174465
 31
0.0
  0
LINE
  5
18CD5
330
18C7A
100
AcDbEntity
  8
部品1
100
AcDbLine
 10
3407.970589276523
 20
1324.494269174465
 30
0.0
 11
3407.970589276523
 21
1315.494269174465
 31
0.0
  0
LINE
  5
18CD6
330
18C7A
100
AcDbEntity
  8
部品1
100
AcDbLine
 10
3398.970589276523
 20
1324.494269174465
 30
0.0
 11
3407.970589276523
 21
1324.494269174465
 31
0.0
  0
LINE
  5
18CD7
330
18C7A
100
AcDbEntity
  8
部品1
100
AcDbLine
 10
3398.970589276523
 20
1388.494269174465
 30
0.0
 11
3398.970589276523
 21
1324.494269174465
 31
0.0
  0
LINE
  5
18CD8
330
18C7A
100
AcDbEntity
  8
部品1
100
AcDbLine
 10
3409.970589276524
 20
1419.494269174465
 30
0.0
 11
3409.970589276524
 21
1388.494269174465
 31
0.0
  0
LINE
  5
18CD9
330
18C7A
100
AcDbEntity
  8
部品1
100
AcDbLine
 10
1322.970589276523
 20
1388.494269174465
 30
0.0
 11
1311.970589276523
 21
1388.494269174465
 31
0.0
  0
LINE
  5
18CDA
330
18C7A
100
AcDbEntity
  8
部品1
100
AcDbLine
 10
1283.970589276523
 20
1392.494269174465
 30
0.0
 11
1311.970589276523
 21
1392.494269174465
 31
0.0
  0
LINE
  5
18CDB
330
18C7A
100
AcDbEntity
  8
部品1
100
AcDbLine
 10
1313.970589276523
 20
1324.494269174465
 30
0.0
 11
1313.970589276523
 21
1315.494269174465
 31
0.0
  0
LINE
  5
18CDC
330
18C7A
100
AcDbEntity
  8
部品1
100
AcDbLine
 10
1322.970589276523
 20
1324.494269174465
 30
0.0
 11
1313.970589276523
 21
1324.494269174465
 31
0.0
  0
LINE
  5
18CDD
330
18C7A
100
AcDbEntity
  8
部品1
100
AcDbLine
 10
1313.970589276523
 20
1315.494269174465
 30
0.0
 11
1283.970589276523
 21
1315.494269174465
 31
0.0
  0
LINE
  5
18CDE
330
18C7A
100
AcDbEntity
  8
部品1
100
AcDbLine
 10
1283.970589276523
 20
1315.494269174465
 30
0.0
 11
1283.970589276523
 21
1392.494269174465
 31
0.0
  0
LINE
  5
18CDF
330
18C7A
100
AcDbEntity
  8
部品1
100
AcDbLine
 10
1322.970589276523
 20
1388.494269174465
 30
0.0
 11
1322.970589276523
 21
1324.494269174465
 31
0.0
  0
LINE
  5
18CE0
330
18C7A
100
AcDbEntity
  8
部品1
100
AcDbLine
 10
1311.970589276523
 20
1419.494269174462
 30
0.0
 11
1311.970589276523
 21
1388.494269174465
 31
0.0
  0
LINE
  5
18CE1
330
18C7A
100
AcDbEntity
  8
部品1
100
AcDbLine
 10
1311.970589276523
 20
1419.494269174462
 30
0.0
 11
3409.970589276524
 21
1419.494269174465
 31
0.0
  0
LINE
  5
18CE2
330
18C7A
100
AcDbEntity
  8
部品1
100
AcDbLine
 10
3407.970589276523
 20
1315.494269174465
 30
0.0
 11
3437.970589276523
 21
1315.494269174465
 31
0.0
  0
LINE
  5
18CE3
330
18C7A
100
AcDbEntity
  8
部品1
100
AcDbLine
 10
1313.970589276523
 20
1315.494269174465
 30
0.0
 11
3410.970589276523
 21
1315.494269174465
 31
0.0
  0
LINE
  5
18CE4
330
18C7A
100
AcDbEntity
  8
細線
  6
Continuous
 62
     5
100
AcDbLine
 10
2689.970589276527
 20
1354.494269174462
 30
0.0
 11
2689.970589276527
 21
1354.494269174462
 31
0.0
  0
LINE
  5
18CE5
330
18C7A
100
AcDbEntity
  8
細線
  6
Continuous
 62
     5
100
AcDbLine
 10
2682.470589276527
 20
1354.494269174462
 30
0.0
 11
2682.470589276527
 21
1354.494269174462
 31
0.0
  0
LINE
  5
18CE6
330
18C7A
100
AcDbEntity
  8
細線
  6
Continuous
 62
     5
100
AcDbLine
 10
2676.470589276527
 20
1354.494269174462
 30
0.0
 11
2676.470589276527
 21
1354.494269174462
 31
0.0
  0
LINE
  5
18CE7
330
18C7A
100
AcDbEntity
  8
細線
  6
Continuous
 62
     5
100
AcDbLine
 10
2743.970589276527
 20
1373.494269174462
 30
0.0
 11
2743.970589276527
 21
1373.494269174462
 31
0.0
  0
LINE
  5
18CE8
330
18C7A
100
AcDbEntity
  8
細線
 48
50.0
100
AcDbLine
 10
1336.970593930116
 20
1341.094443351418
 30
0.0
 11
1336.970593930113
 21
1349.490593759059
 31
0.0
  0
LINE
  5
18CE9
330
18C7A
100
AcDbEntity
  8
細線
 48
50.0
100
AcDbLine
 10
1336.970593930113
 20
1349.490593759059
 30
0.0
 11
1322.970589276523
 21
1349.490593759057
 31
0.0
  0
LINE
  5
18CEA
330
18C7A
100
AcDbEntity
  8
細線
 48
50.0
100
AcDbLine
 10
2087.970593930113
 20
1337.644443351419
 30
0.0
 11
2087.970593930113
 21
1342.494443351421
 31
0.0
  0
LINE
  5
18CEB
330
18C7A
100
AcDbEntity
  8
細線
 48
50.0
100
AcDbLine
 10
2087.970593930113
 20
1342.494443351421
 30
0.0
 11
2102.970593930113
 21
1342.494443351421
 31
0.0
  0
LINE
  5
18CEC
330
18C7A
100
AcDbEntity
  8
細線
 48
50.0
100
AcDbLine
 10
2102.970593930113
 20
1342.494443351421
 30
0.0
 11
2102.970593930115
 21
1349.494443351419
 31
0.0
  0
LINE
  5
18CED
330
18C7A
100
AcDbEntity
  8
細線
 48
50.0
100
AcDbLine
 10
2102.970593930115
 20
1349.494443351419
 30
0.0
 11
2117.970593930113
 21
1349.494443351419
 31
0.0
  0
LINE
  5
18CEE
330
18C7A
100
AcDbEntity
  8
細線
 48
50.0
100
AcDbLine
 10
2117.970593930113
 20
1349.494443351419
 30
0.0
 11
2117.970593930113
 21
1320.494443351421
 31
0.0
  0
LINE
  5
18CEF
330
18C7A
100
AcDbEntity
  8
細線
 48
50.0
100
AcDbLine
 10
1313.970589276523
 20
1320.491777694889
 30
0.0
 11
1527.970593930113
 21
1320.494460905133
 31
0.0
  0
LINE
  5
18CF0
330
18C7A
100
AcDbEntity
  8
細線
 48
50.0
100
AcDbLine
 10
2017.970593930113
 20
1320.494443351421
 30
0.0
 11
2117.970593930113
 21
1320.494443351421
 31
0.0
  0
LINE
  5
18CF1
330
18C7A
100
AcDbEntity
  8
細線
 48
50.0
100
AcDbLine
 10
1737.970593930113
 20
1320.494443351419
 30
0.0
 11
1807.970593930113
 21
1320.494443351423
 31
0.0
  0
LINE
  5
18CF2
330
18C7A
100
AcDbEntity
  8
細線
 48
50.0
100
AcDbLine
 10
1750.832558942642
 20
1320.494443351419
 30
0.0
 11
1756.588076525309
 21
1338.765294641913
 31
0.0
  0
LINE
  5
18CF3
330
18C7A
100
AcDbEntity
  8
細線
 48
50.0
100
AcDbLine
 10
1756.588076525309
 20
1338.765294641913
 30
0.0
 11
1767.516525005743
 21
1338.765294641911
 31
0.0
  0
ARC
  5
18CF4
330
18C7A
100
AcDbEntity
  8
細線
 48
50.0
100
AcDbCircle
 10
1767.516525005743
 20
1337.765294641911
 30
0.0
 40
1.0
100
AcDbArc
 50
24.62431835207225
 51
90.0
  0
ARC
  5
18CF5
330
18C7A
100
AcDbEntity
  8
細線
 48
50.0
100
AcDbCircle
 10
1778.425237120377
 20
1337.765294641911
 30
0.0
 40
1.0
100
AcDbArc
 50
90.0
 51
155.3756816479277
  0
ARC
  5
18CF6
330
18C7A
100
AcDbEntity
  8
細線
 48
50.0
100
AcDbCircle
 10
1772.970881063058
 20
1340.265294641911
 30
0.0
 40
5.0
100
AcDbArc
 50
204.6243183520723
 51
335.3756816479278
  0
LINE
  5
18CF7
330
18C7A
100
AcDbEntity
  8
細線
 48
50.0
100
AcDbLine
 10
1778.425237120377
 20
1338.765294641911
 30
0.0
 11
1789.35368560081
 21
1338.765294641913
 31
0.0
  0
LINE
  5
18CF8
330
18C7A
100
AcDbEntity
  8
細線
 48
50.0
100
AcDbLine
 10
1789.35368560081
 20
1338.765294641913
 30
0.0
 11
1795.109203183478
 21
1320.494443351423
 31
0.0
  0
LINE
  5
18CF9
330
18C7A
100
AcDbEntity
  8
細線
 48
50.0
100
AcDbLine
 10
2087.970593930113
 20
1341.094443351419
 30
0.0
 11
1336.970593930116
 21
1341.094443351418
 31
0.0
  0
LINE
  5
18CFA
330
18C7A
100
AcDbEntity
  8
細線
 48
50.0
100
AcDbLine
 10
1947.970593930113
 20
1320.494443351421
 30
0.0
 11
1877.970593930113
 21
1320.494443351421
 31
0.0
  0
LINE
  5
18CFB
330
18C7A
100
AcDbEntity
  8
細線
100
AcDbLine
 10
1667.970593930113
 20
1320.494443351421
 30
0.0
 11
1597.970602115529
 21
1320.494443351421
 31
0.0
  0
LINE
  5
18CFC
330
18C7A
100
AcDbEntity
  8
細線
 48
50.0
100
AcDbLine
 10
2741.970584622936
 20
1375.094487209288
 30
0.0
 11
2106.970593930113
 21
1375.094487209284
 31
0.0
  0
LINE
  5
18CFD
330
18C7A
100
AcDbEntity
  8
細線
 48
50.0
100
AcDbLine
 10
2106.970593930113
 20
1371.990637616925
 30
0.0
 11
2106.970593930113
 21
1376.490637616925
 31
0.0
  0
LINE
  5
18CFE
330
18C7A
100
AcDbEntity
  8
細線
 48
50.0
100
AcDbLine
 10
2106.970593930113
 20
1376.490637616925
 30
0.0
 11
2091.970593930113
 21
1376.490637616925
 31
0.0
  0
LINE
  5
18CFF
330
18C7A
100
AcDbEntity
  8
細線
 48
50.0
100
AcDbLine
 10
2091.970593930113
 20
1376.490637616925
 30
0.0
 11
2091.970593930113
 21
1383.490637616927
 31
0.0
  0
LINE
  5
18D00
330
18C7A
100
AcDbEntity
  8
細線
 48
50.0
100
AcDbLine
 10
2091.970593930113
 20
1383.490637616927
 30
0.0
 11
2076.970593930115
 21
1383.490637616924
 31
0.0
  0
LINE
  5
18D01
330
18C7A
100
AcDbEntity
  8
細線
 48
50.0
100
AcDbLine
 10
2076.970593930115
 20
1383.490637616924
 30
0.0
 11
2076.970593930115
 21
1345.890409513813
 31
0.0
  0
LINE
  5
18D02
330
18C7A
100
AcDbEntity
  8
細線
 48
50.0
100
AcDbLine
 10
2076.970593930115
 20
1345.890409513813
 30
0.0
 11
2096.970601231289
 21
1345.890451063353
 31
0.0
  0
LINE
  5
18D03
330
18C7A
100
AcDbEntity
  8
細線
 48
50.0
100
AcDbLine
 10
2096.970556362348
 20
1354.493912699161
 30
0.0
 11
2096.970601231289
 21
1345.890451063353
 31
0.0
  0
LINE
  5
18D04
330
18C7A
100
AcDbEntity
  8
細線
 48
50.0
100
AcDbLine
 10
2741.970584622936
 20
1371.644487209287
 30
0.0
 11
2741.970584622936
 21
1376.494487209284
 31
0.0
  0
LINE
  5
18D05
330
18C7A
100
AcDbEntity
  8
細線
 48
50.0
100
AcDbLine
 10
2741.970584622936
 20
1376.494487209284
 30
0.0
 11
2756.970584622934
 21
1376.494487209285
 31
0.0
  0
LINE
  5
18D06
330
18C7A
100
AcDbEntity
  8
細線
 48
50.0
100
AcDbLine
 10
2756.970584622934
 20
1376.494487209285
 30
0.0
 11
2756.970596256909
 21
1383.494487209331
 31
0.0
  0
LINE
  5
18D07
330
18C7A
100
AcDbEntity
  8
細線
 48
50.0
100
AcDbLine
 10
2756.970596256909
 20
1383.494487209331
 30
0.0
 11
2771.970594427439
 21
1383.494487209329
 31
0.0
  0
LINE
  5
18D08
330
18C7A
100
AcDbEntity
  8
細線
 48
50.0
100
AcDbLine
 10
2771.970594427439
 20
1383.494487209329
 30
0.0
 11
2771.970584125617
 21
1354.494281037055
 31
0.0
  0
LINE
  5
18D09
330
18C7A
100
AcDbEntity
  8
細線
 48
50.0
100
AcDbLine
 10
2458.070304175992
 20
1354.494278397076
 30
0.0
 11
2389.470863838818
 21
1354.494283787084
 31
0.0
  0
LINE
  5
18D0A
330
18C7A
100
AcDbEntity
  8
細線
 48
50.0
100
AcDbLine
 10
2096.970556362348
 20
1354.493912699161
 30
0.0
 11
2108.203245717057
 21
1354.494095652309
 31
0.0
  0
ARC
  5
18D0B
330
18C7A
100
AcDbEntity
  8
細線
 48
50.0
100
AcDbCircle
 10
2114.785538024393
 20
1353.294259565922
 30
0.0
 40
1.8
100
AcDbArc
 50
270.0006665777295
 51
345.000555481349
  0
LINE
  5
18D0C
330
18C7A
100
AcDbEntity
  8
細線
 48
50.0
100
AcDbLine
 10
2116.771971470473
 20
1353.753100023201
 30
0.0
 11
2116.524209028273
 21
1352.828402141094
 31
0.0
  0
LINE
  5
18D0D
330
18C7A
100
AcDbEntity
  8
細線
 48
50.0
100
AcDbLine
 10
2114.785558965548
 20
1351.494259566043
 30
0.0
 11
2111.155631546781
 21
1351.494217335563
 31
0.0
  0
ARC
  5
18D0E
330
18C7A
100
AcDbEntity
  8
細線
 48
50.0
100
AcDbCircle
 10
2111.155610605627
 20
1353.29421733544
 30
0.0
 40
1.8
100
AcDbArc
 50
195.0010443049965
 51
270.0006665777295
  0
LINE
  5
18D0F
330
18C7A
100
AcDbEntity
  8
細線
 48
50.0
100
AcDbLine
 10
2109.169183113368
 20
1353.752932303007
 30
0.0
 11
2109.416952609882
 21
1352.828311364425
 31
0.0
  0
ARC
  5
18D10
330
18C7A
100
AcDbEntity
  8
細線
 48
50.0
100
AcDbCircle
 10
2108.203262004622
 20
1353.494095652444
 30
0.0
 40
1.0
100
AcDbArc
 50
15.00104430499651
 51
90.00093320877969
  0
LINE
  5
18D11
330
18C7A
100
AcDbEntity
  8
細線
 48
50.0
100
AcDbLine
 10
2117.737892825577
 20
1354.494290342714
 30
0.0
 11
2118.679652976481
 21
1354.494296916564
 31
0.0
  0
ARC
  5
18D12
330
18C7A
100
AcDbEntity
  8
細線
 48
50.0
100
AcDbCircle
 10
2117.737899805961
 20
1353.49429034274
 30
0.0
 40
1.0
100
AcDbArc
 50
90.0003999466794
 51
165.000555481349
  0
LINE
  5
18D13
330
18C7A
100
AcDbEntity
  8
細線
 48
50.0
100
AcDbLine
 10
2669.470584622926
 20
1354.494281037055
 30
0.0
 11
2771.970584125617
 21
1354.494281037055
 31
0.0
  0
LINE
  5
18D14
330
18C7A
100
AcDbEntity
  8
細線
 48
50.0
100
AcDbLine
 10
2179.47061994182
 20
1354.494289224422
 30
0.0
 11
2118.370558714898
 21
1354.494296916564
 31
0.0
  0
LINE
  5
18D15
330
18C7A
100
AcDbEntity
  8
細線
 48
50.0
100
AcDbLine
 10
2599.470584622926
 20
1354.494281037057
 30
0.0
 11
2529.470584622926
 21
1354.494281037055
 31
0.0
  0
LINE
  5
18D16
330
18C7A
100
AcDbEntity
  8
細線
 48
50.0
100
AcDbLine
 10
2319.470584622926
 20
1354.494281037054
 30
0.0
 11
2249.470567335051
 21
1354.494281037057
 31
0.0
  0
ARC
  5
18D17
330
18C7A
100
AcDbEntity
  8
細線
 48
50.0
100
AcDbCircle
 10
2756.170589276533
 20
1387.694269174466
 30
0.0
 40
0.8
100
AcDbArc
 50
359.9997333689499
 51
89.99986668437072
  0
ARC
  5
18D18
330
18C7A
100
AcDbEntity
  8
細線
 48
50.0
100
AcDbCircle
 10
2763.770596101631
 20
1387.694280343081
 30
0.0
 40
0.8
100
AcDbArc
 50
90.00014387753465
 51
179.9997333689498
  0
LINE
  5
18D19
330
18C7A
100
AcDbEntity
  8
細線
 48
50.0
100
AcDbLine
 10
2756.170591137969
 20
1388.494269174465
 30
0.0
 11
2750.970589276525
 21
1388.494269174465
 31
0.0
  0
ARC
  5
18D1A
330
18C7A
100
AcDbEntity
  8
細線
 48
50.0
100
AcDbCircle
 10
2757.670589276524
 20
1386.194269174464
 30
0.0
 40
0.7
100
AcDbArc
 50
180.0
 51
270.0
  0
ARC
  5
18D1B
330
18C7A
100
AcDbEntity
  8
細線
 48
50.0
100
AcDbCircle
 10
2762.270589276524
 20
1386.194269174464
 30
0.0
 40
0.7
100
AcDbArc
 50
270.0
 51
0.0
  0
LINE
  5
18D1C
330
18C7A
100
AcDbEntity
  8
細線
 48
50.0
100
AcDbLine
 10
2762.970589276525
 20
1386.194269174464
 30
0.0
 11
2762.970596101639
 21
1387.694284065954
 31
0.0
  0
LINE
  5
18D1D
330
18C7A
100
AcDbEntity
  8
細線
 48
50.0
100
AcDbLine
 10
2757.670589276524
 20
1385.494269174465
 30
0.0
 11
2762.270589276524
 21
1385.494269174465
 31
0.0
  0
LINE
  5
18D1E
330
18C7A
100
AcDbEntity
  8
細線
 48
50.0
100
AcDbLine
 10
2756.970589276525
 20
1387.694269174466
 30
0.0
 11
2756.970589276525
 21
1386.194269174464
 31
0.0
  0
LINE
  5
18D1F
330
18C7A
100
AcDbEntity
  8
細線
 48
50.0
100
AcDbLine
 10
3382.570589276527
 20
1418.494269174465
 30
0.0
 11
2745.970589276525
 21
1418.494269174463
 31
0.0
  0
LINE
  5
18D20
330
18C7A
100
AcDbEntity
  8
細線
 48
50.0
100
AcDbLine
 10
3408.470589276525
 20
1413.494269174467
 30
0.0
 11
3392.570589276527
 21
1413.494269174465
 31
0.0
  0
LINE
  5
18D21
330
18C7A
100
AcDbEntity
  8
細線
 48
50.0
100
AcDbLine
 10
3392.570589276526
 20
1413.494269174465
 30
0.0
 11
3382.570589276527
 21
1418.494269174465
 31
0.0
  0
LINE
  5
18D22
330
18C7A
100
AcDbEntity
  8
細線
100
AcDbLine
 10
2993.470589276525
 20
1388.494269174465
 30
0.0
 11
2993.470589276525
 21
1417.794269174464
 31
0.0
  0
LINE
  5
18D23
330
18C7A
100
AcDbEntity
  8
細線
100
AcDbLine
 10
2993.470589276525
 20
1417.794269174464
 30
0.0
 11
3013.470589276525
 21
1417.794269174464
 31
0.0
  0
LINE
  5
18D24
330
18C7A
100
AcDbEntity
  8
細線
100
AcDbLine
 10
3013.470589276525
 20
1388.494269174465
 30
0.0
 11
3013.470589276525
 21
1417.794269174464
 31
0.0
  0
LINE
  5
18D25
330
18C7A
100
AcDbEntity
  8
細線
100
AcDbLine
 10
3170.720589276524
 20
1388.494269174465
 30
0.0
 11
3100.720589276523
 21
1388.494269174465
 31
0.0
  0
LINE
  5
18D26
330
18C7A
100
AcDbEntity
  8
細線
 48
50.0
100
AcDbLine
 10
2890.720589276525
 20
1388.494269174465
 30
0.0
 11
2763.766368849365
 21
1388.494269174465
 31
0.0
  0
LINE
  5
18D27
330
18C7A
100
AcDbEntity
  8
細線
100
AcDbLine
 10
3030.720589276525
 20
1388.494269174465
 30
0.0
 11
2960.720589276525
 21
1388.494269174465
 31
0.0
  0
LINE
  5
18D28
330
18C7A
100
AcDbEntity
  8
細線
 48
50.0
100
AcDbLine
 10
2750.970589276525
 20
1380.494269174465
 30
0.0
 11
2750.970589276525
 21
1388.494269174465
 31
0.0
  0
LINE
  5
18D29
330
18C7A
100
AcDbEntity
  8
細線
 48
50.0
100
AcDbLine
 10
2730.970589276524
 20
1380.494269174467
 30
0.0
 11
2750.970589276525
 21
1380.494269174465
 31
0.0
  0
LINE
  5
18D2A
330
18C7A
100
AcDbEntity
  8
細線
 48
50.0
100
AcDbLine
 10
2745.970589276525
 20
1418.494269174465
 30
0.0
 11
2745.970589276525
 21
1413.494269174465
 31
0.0
  0
LINE
  5
18D2B
330
18C7A
100
AcDbEntity
  8
細線
 48
50.0
100
AcDbLine
 10
2730.970589276525
 20
1418.494269174463
 30
0.0
 11
2745.970589276525
 21
1418.494269174465
 31
0.0
  0
LINE
  5
18D2C
330
18C7A
100
AcDbEntity
  8
細線
 48
50.0
100
AcDbLine
 10
2730.970589276524
 20
1380.494269174467
 30
0.0
 11
2730.970589276525
 21
1418.494269174463
 31
0.0
  0
LINE
  5
18D2D
330
18C7A
100
AcDbEntity
  8
細線
100
AcDbLine
 10
3398.970589276523
 20
1388.494269174465
 30
0.0
 11
3240.720589276525
 21
1388.494269174465
 31
0.0
  0
LINE
  5
18D2E
330
18C7A
100
AcDbEntity
  8
細線
 48
50.0
100
AcDbLine
 10
3408.470589276525
 20
1413.494269174467
 30
0.0
 11
3408.470589276524
 21
1388.494269174465
 31
0.0
  0
TEXT
  5
18D2F
330
18C7A
100
AcDbEntity
  8
部品1
100
AcDbText
 10
1860.154865991392
 20
46.99880823813145
 30
0.0
 40
135.0
  1
平面図
  7
STYLE2
100
AcDbText
  0
LWPOLYLINE
  5
18D30
330
18C7A
100
AcDbEntity
  8
部品1
100
AcDbPolyline
 90
        4
 70
     1
 43
0.0
 10
1770.23525616235
 20
239.8923374566548
 10
1770.23525616235
 20
0.0000159111223184
 10
2533.705922390791
 20
0.0000159111223184
 10
2533.705922390791
 20
239.8923374566548
  0
LINE
  5
18D31
330
18C7A
100
AcDbEntity
  8
部品1
100
AcDbLine
 10
1534.470589276487
 20
3154.494269174626
 30
0.0
 11
2769.470589276552
 21
3154.494269174626
 31
0.0
  0
LINE
  5
18D32
330
18C7A
100
AcDbEntity
  8
部品1
 48
50.0
100
AcDbLine
 10
1311.970589276523
 20
1420.494269174462
 30
0.0
 11
3411.970589276523
 21
1420.494269174465
 31
0.0
  0
LINE
  5
18D33
330
18C7A
100
AcDbEntity
  8
部品1
 48
50.0
100
AcDbLine
 10
471.9705892765232
 20
1392.494269174465
 30
0.0
 11
1311.970589276523
 21
1392.494269174465
 31
0.0
  0
DIMENSION
  5
18D34
330
18C7A
100
AcDbEntity
  8
寸法
100
AcDbDimension
  2
*D14
 10
2710.234916278077
 20
2488.887829538828
 30
0.0
 11
2338.318822490183
 21
2488.887829538828
 31
0.0
 12
-3742.925985830444
 22
-6453.628869860112
 32
0.0
 70
   128
 71
     5
 42
1231.00000000007
  3
INABA_S40G
100
AcDbAlignedDimension
 13
1536.470589276486
 23
2702.494269174557
 33
0.0
 14
2767.470589276556
 24
2702.494269174549
 34
0.0
100
AcDbRotatedDimension
1001
ACAD
1000
DSTYLE
1002
{
1002
}
  0
LINE
  5
18D35
330
18C7A
100
AcDbEntity
  8
部品1
100
AcDbLine
 10
1536.470589276487
 20
2702.494269174557
 30
0.0
 11
2767.470589276554
 21
2702.494269174615
 31
0.0
  0
LINE
  5
18D36
330
18C7A
100
AcDbEntity
  8
部品1
100
AcDbLine
 10
1536.470589276487
 20
3152.494269174557
 30
0.0
 11
2767.470589276556
 21
3152.494269174615
 31
0.0
  0
LINE
  5
18D37
330
18C7A
100
AcDbEntity
  8
細線
 48
50.0
100
AcDbLine
 10
1508.470589276487
 20
3152.494269174558
 30
0.0
 11
445.4705892765559
 21
2702.494269174509
 31
0.0
  0
LINE
  5
18D38
330
18C7A
100
AcDbEntity
  8
細線
 48
50.0
100
AcDbLine
 10
1508.470589276487
 20
2702.494269174558
 30
0.0
 11
445.4705892765542
 21
3152.494269174509
 31
0.0
  0
LINE
  5
18D39
330
18C7A
100
AcDbEntity
  8
部品1
100
AcDbLine
 10
1556.970589276487
 20
3172.494269174611
 30
0.0
 11
1556.970589276487
 21
3154.494269174611
 31
0.0
  0
LINE
  5
18D3A
330
18C7A
100
AcDbEntity
  8
部品1
100
AcDbLine
 10
1556.970589276487
 20
3172.494269174611
 30
0.0
 11
1550.970589276487
 21
3172.494269174611
 31
0.0
  0
LINE
  5
18D3B
330
18C7A
100
AcDbEntity
  8
部品1
100
AcDbLine
 10
1534.470589276487
 20
3146.494269174608
 30
0.0
 11
1509.470589276487
 21
3146.494269174611
 31
0.0
  0
LINE
  5
18D3C
330
18C7A
100
AcDbEntity
  8
部品1
100
AcDbLine
 10
1486.970589276487
 20
3172.494269174611
 30
0.0
 11
1486.970589276487
 21
3154.494269174611
 31
0.0
  0
LINE
  5
18D3D
330
18C7A
100
AcDbEntity
  8
部品1
100
AcDbLine
 10
1492.970589276487
 20
3172.494269174611
 30
0.0
 11
1486.970589276487
 21
3172.494269174611
 31
0.0
  0
LINE
  5
18D3E
330
18C7A
100
AcDbEntity
  8
部品1
100
AcDbLine
 10
1534.470589276487
 20
2702.494269174615
 30
0.0
 11
1509.470589276487
 21
2702.494269174615
 31
0.0
  0
LINE
  5
18D3F
330
18C7A
100
AcDbEntity
  8
部品1
 48
50.0
100
AcDbLine
 10
1536.470589276487
 20
3152.494269174611
 30
0.0
 11
1536.470589276487
 21
2702.494269174615
 31
0.0
  0
LINE
  5
18D40
330
18C7A
100
AcDbEntity
  8
部品1
 48
50.0
100
AcDbLine
 10
1508.470589276487
 20
3152.494269174607
 30
0.0
 11
1508.470589276487
 21
2702.494269174615
 31
0.0
  0
LINE
  5
18D41
330
18C7A
100
AcDbEntity
  8
部品1
 48
50.0
100
AcDbLine
 10
1534.470589276487
 20
3154.494269174618
 30
0.0
 11
1534.470589276487
 21
2702.494269174615
 31
0.0
  0
LINE
  5
18D42
330
18C7A
100
AcDbEntity
  8
部品1
 48
50.0
100
AcDbLine
 10
1509.470589276487
 20
3154.494269174615
 30
0.0
 11
1509.470589276487
 21
2702.494269174615
 31
0.0
  0
LINE
  5
18D43
330
18C7A
100
AcDbEntity
  8
部品1
100
AcDbLine
 10
3411.970589276556
 20
1392.494269174582
 30
0.0
 11
3411.970589276556
 21
1420.494269174596
 31
0.0
  0
LINE
  5
18D44
330
18C7A
100
AcDbEntity
  8
部品1
100
AcDbLine
 10
1311.970589276523
 20
1392.494269174596
 30
0.0
 11
1311.970589276523
 21
1420.494269174596
 31
0.0
  0
LINE
  5
18D45
330
18C7A
100
AcDbEntity
  8
部品1
100
AcDbLine
 10
891.9705892765232
 20
1392.494269174596
 30
0.0
 11
891.9705892765232
 21
1420.494269174596
 31
0.0
  0
LINE
  5
18D46
330
18C7A
100
AcDbEntity
  8
部品1
100
AcDbLine
 10
3411.97058927652
 20
3182.494269174477
 30
0.0
 11
3411.970589276523
 21
3154.494269174477
 31
0.0
  0
LINE
  5
18D47
330
18C7A
100
AcDbEntity
  8
部品1
100
AcDbLine
 10
2571.97058927652
 20
3182.494269174477
 30
0.0
 11
2571.970589276523
 21
3154.494269174477
 31
0.0
  0
LINE
  5
18D48
330
18C7A
100
AcDbEntity
  8
部品1
100
AcDbLine
 10
2991.97058927652
 20
3182.494269174477
 30
0.0
 11
2991.970589276523
 21
3154.494269174477
 31
0.0
  0
LINE
  5
18D49
330
18C7A
100
AcDbEntity
  8
部品1
100
AcDbLine
 10
2151.970589276519
 20
3182.494269174477
 30
0.0
 11
2151.970589276523
 21
3154.494269174477
 31
0.0
  0
LINE
  5
18D4A
330
18C7A
100
AcDbEntity
  8
部品1
100
AcDbLine
 10
1731.970589276519
 20
3182.494269174477
 30
0.0
 11
1731.970589276523
 21
3154.494269174477
 31
0.0
  0
LINE
  5
18D4B
330
18C7A
100
AcDbEntity
  8
部品1
100
AcDbLine
 10
1311.970589276519
 20
3182.494269174477
 30
0.0
 11
1311.970589276523
 21
3154.494269174477
 31
0.0
  0
LINE
  5
18D4C
330
18C7A
100
AcDbEntity
  8
部品1
100
AcDbLine
 10
891.9705892765195
 20
3182.494269174477
 30
0.0
 11
891.9705892765232
 21
3154.494269174477
 31
0.0
  0
LINE
  5
18D4D
330
18C7A
100
AcDbEntity
  8
部品1
100
AcDbLine
 10
471.9705892765232
 20
1392.494269174596
 30
0.0
 11
471.9705892765232
 21
1420.494269174596
 31
0.0
  0
LINE
  5
18D4E
330
18C7A
100
AcDbEntity
  8
部品1
100
AcDbLine
 10
444.9705892765305
 20
1420.494269174558
 30
0.0
 11
3858.970589276556
 21
1420.494269174596
 31
0.0
  0
LINE
  5
18D4F
330
18C7A
100
AcDbEntity
  8
部品1
100
AcDbLine
 10
3831.970589276556
 20
1392.494269174596
 30
0.0
 11
3831.970589276556
 21
1420.494269174596
 31
0.0
  0
LINE
  5
18D50
330
18C7A
100
AcDbEntity
  8
部品1
100
AcDbLine
 10
3858.970589276556
 20
1447.494269174593
 30
0.0
 11
3886.970589276556
 21
1447.494269174593
 31
0.0
  0
LINE
  5
18D51
330
18C7A
100
AcDbEntity
  8
部品1
100
AcDbLine
 10
3858.970589276556
 20
1867.494269174607
 30
0.0
 11
3886.970589276556
 21
1867.494269174607
 31
0.0
  0
LINE
  5
18D52
330
18C7A
100
AcDbEntity
  8
部品1
100
AcDbLine
 10
444.9705892765305
 20
1867.49426917448
 30
0.0
 11
416.9705892765305
 21
1867.49426917448
 31
0.0
  0
LINE
  5
18D53
330
18C7A
100
AcDbEntity
  8
部品1
100
AcDbLine
 10
3830.470589276541
 20
1867.49426917458
 30
0.0
 11
473.4705892765396
 21
1867.49426917448
 31
0.0
  0
LINE
  5
18D54
330
18C7A
100
AcDbEntity
  8
部品1
100
AcDbLine
 10
3830.470589276541
 20
2287.49426917458
 30
0.0
 11
473.4705892765396
 21
2287.49426917448
 31
0.0
  0
LINE
  5
18D55
330
18C7A
100
AcDbEntity
  8
部品1
100
AcDbLine
 10
444.9705892765305
 20
2287.49426917448
 30
0.0
 11
416.9705892765305
 21
2287.49426917448
 31
0.0
  0
LINE
  5
18D56
330
18C7A
100
AcDbEntity
  8
部品1
100
AcDbLine
 10
3858.970589276556
 20
2287.494269174608
 30
0.0
 11
3886.970589276556
 21
2287.494269174608
 31
0.0
  0
LINE
  5
18D57
330
18C7A
100
AcDbEntity
  8
部品1
 48
50.0
100
AcDbLine
 10
2151.970589276551
 20
2702.494269174586
 30
0.0
 11
2151.970589276581
 21
1448.994269174494
 31
0.0
  0
LINE
  5
18D58
330
18C7A
100
AcDbEntity
  8
破線
 48
10.0
100
AcDbLine
 10
2959.470589276535
 20
1472.494269174522
 30
0.0
 11
2176.970589276532
 21
1472.494269174505
 31
0.0
  0
LINE
  5
18D59
330
18C7A
100
AcDbEntity
  8
破線
 48
10.0
100
AcDbLine
 10
3009.47058927653
 20
1448.994269174509
 30
0.0
 11
3009.47058927653
 21
2702.494269174615
 31
0.0
  0
LINE
  5
18D5A
330
18C7A
100
AcDbEntity
  8
破線
 48
10.0
100
AcDbLine
 10
2959.470589276535
 20
1448.994269174505
 30
0.0
 11
2959.470589276531
 21
2702.494269174615
 31
0.0
  0
LINE
  5
18D5B
330
18C7A
100
AcDbEntity
  8
破線
 48
10.0
100
AcDbLine
 10
1344.47058927653
 20
1448.994269174509
 30
0.0
 11
1344.47058927653
 21
2702.494269174615
 31
0.0
  0
LINE
  5
18D5C
330
18C7A
100
AcDbEntity
  8
破線
 48
10.0
100
AcDbLine
 10
1294.470589276534
 20
1448.994269174505
 30
0.0
 11
1294.47058927653
 21
2702.494269174615
 31
0.0
  0
DIMENSION
  5
18D5D
330
18C7A
100
AcDbEntity
  8
寸法
100
AcDbDimension
  2
*D13
 10
1451.234916278005
 20
2488.887829538828
 30
0.0
 11
916.0604668248634
 21
2488.887829538828
 31
0.0
 12
-3742.925985830444
 22
-6453.628869860112
 32
0.0
 70
   128
 71
     5
 42
1062.99999999993
  3
INABA_S40G
100
AcDbAlignedDimension
 13
445.4705892765559
 23
2702.494269174505
 33
0.0
 14
1508.470589276486
 24
2702.494269174558
 34
0.0
100
AcDbRotatedDimension
1001
ACAD
1000
DSTYLE
1002
{
1002
}
  0
LINE
  5
18D5E
330
18C7A
100
AcDbEntity
  8
破線
 48
10.0
100
AcDbLine
 10
1294.470589276534
 20
1472.494269174469
 30
0.0
 11
496.9705892765414
 21
1472.494269174476
 31
0.0
  0
LINE
  5
18D5F
330
18C7A
100
AcDbEntity
  8
部品1
100
AcDbLine
 10
3831.970589276556
 20
3182.494269174604
 30
0.0
 11
3831.970589276556
 21
3154.494269174604
 31
0.0
  0
LINE
  5
18D60
330
18C7A
100
AcDbEntity
  8
部品1
100
AcDbLine
 10
3831.970589276556
 20
3182.494269174626
 30
0.0
 11
3831.970589276556
 21
3154.494269174626
 31
0.0
  0
LINE
  5
18D61
330
18C7A
100
AcDbEntity
  8
部品1
100
AcDbLine
 10
3858.970589276556
 20
3127.494269174607
 30
0.0
 11
3886.970589276556
 21
3127.494269174607
 31
0.0
  0
LINE
  5
18D62
330
18C7A
100
AcDbEntity
  8
部品1
100
AcDbLine
 10
3858.970589276556
 20
2707.494269174608
 30
0.0
 11
3886.970589276556
 21
2707.494269174608
 31
0.0
  0
LINE
  5
18D63
330
18C7A
100
AcDbEntity
  8
部品1
100
AcDbLine
 10
3858.470589276556
 20
3152.494269174604
 30
0.0
 11
3858.470589276556
 21
2702.494269174608
 31
0.0
  0
LINE
  5
18D64
330
18C7A
100
AcDbEntity
  8
部品1
100
AcDbLine
 10
3886.970589276533
 20
1447.494269174593
 30
0.0
 11
3886.970589276531
 21
1392.494269174596
 31
0.0
  0
LINE
  5
18D65
330
18C7A
100
AcDbEntity
  8
部品1
 48
50.0
100
AcDbLine
 10
3830.470589276556
 20
1448.994269174596
 30
0.0
 11
3858.970589276554
 21
1420.494269174596
 31
0.0
  0
LINE
  5
18D66
330
18C7A
100
AcDbEntity
  8
部品1
100
AcDbLine
 10
3886.970589276531
 20
1392.494269174596
 30
0.0
 11
3835.970589276531
 21
1392.494269174596
 31
0.0
  0
LINE
  5
18D67
330
18C7A
100
AcDbEntity
  8
部品1
100
AcDbLine
 10
3858.970589276533
 20
1447.494269174593
 30
0.0
 11
3886.970589276531
 21
1447.494269174593
 31
0.0
  0
LINE
  5
18D68
330
18C7A
100
AcDbEntity
  8
部品1
100
AcDbLine
 10
3886.970589276556
 20
3182.494269174604
 30
0.0
 11
3886.970589276531
 21
1392.494269174596
 31
0.0
  0
DIMENSION
  5
18D69
330
18C7A
100
AcDbEntity
  8
寸法
100
AcDbDimension
  2
*D12
 10
4534.396935010967
 20
1447.494269174593
 30
0.0
 11
4534.396935010965
 21
2287.4942691746
 31
0.0
 12
-3742.925985830444
 22
-6453.628869860112
 32
0.0
 70
   128
  1
4X420=<>
 71
     5
 42
1680.000000000014
  3
INABA_S40G
100
AcDbAlignedDimension
 13
3886.970589276556
 23
3127.494269174607
 33
0.0
 14
3886.970589276531
 24
1447.494269174593
 34
0.0
 50
90.0
100
AcDbRotatedDimension
1001
ACAD
1000
DSTYLE
1002
{
1002
}
  0
LINE
  5
18D6A
330
18C7A
100
AcDbEntity
  8
部品1
100
AcDbLine
 10
3858.970589276556
 20
3154.494269174604
 30
0.0
 11
3858.970589276534
 21
1420.494269174596
 31
0.0
  0
DIMENSION
  5
18D6B
330
18C7A
100
AcDbEntity
  8
寸法
100
AcDbDimension
  2
*D11
 10
4213.82831513858
 20
2607.276453505718
 30
0.0
 11
4113.828315138579
 21
2832.276453505718
 31
0.0
 12
-3742.925985830444
 22
-6453.628869860112
 32
0.0
 71
     5
 42
449.9999999999963
  3
INABA_S40G
100
AcDbAlignedDimension
 13
3858.470589276556
 23
3152.494269174604
 33
0.0
 14
3858.470589276556
 24
2702.494269174608
 34
0.0
 50
90.0
100
AcDbRotatedDimension
1001
ACAD
1000
DSTYLE
1002
{
1002
}
  0
LINE
  5
18D6C
330
18C7A
100
AcDbEntity
  8
部品1
100
AcDbLine
 10
3830.470589276547
 20
2702.494269174608
 30
0.0
 11
3830.470589276556
 21
1448.994269174596
 31
0.0
  0
LINE
  5
18D6D
330
18C7A
100
AcDbEntity
  8
破線
 48
10.0
100
AcDbLine
 10
3806.970589276549
 20
2702.494269174608
 30
0.0
 11
3806.970589276558
 21
1472.494269174593
 31
0.0
  0
LINE
  5
18D6E
330
18C7A
100
AcDbEntity
  8
部品1
100
AcDbLine
 10
2769.470589276556
 20
3146.494269174608
 30
0.0
 11
2794.470589276556
 21
3146.494269174611
 31
0.0
  0
LINE
  5
18D6F
330
18C7A
100
AcDbEntity
  8
部品1
100
AcDbLine
 10
2810.970589276556
 20
3172.494269174611
 30
0.0
 11
2816.970589276556
 21
3172.494269174611
 31
0.0
  0
LINE
  5
18D70
330
18C7A
100
AcDbEntity
  8
部品1
100
AcDbLine
 10
2816.970589276556
 20
3172.494269174611
 30
0.0
 11
2816.970589276556
 21
3154.494269174611
 31
0.0
  0
LINE
  5
18D71
330
18C7A
100
AcDbEntity
  8
部品1
100
AcDbLine
 10
2746.970589276556
 20
3172.494269174611
 30
0.0
 11
2752.970589276556
 21
3172.494269174611
 31
0.0
  0
LINE
  5
18D72
330
18C7A
100
AcDbEntity
  8
部品1
100
AcDbLine
 10
2746.970589276556
 20
3172.494269174611
 30
0.0
 11
2746.970589276556
 21
3154.494269174611
 31
0.0
  0
LINE
  5
18D73
330
18C7A
100
AcDbEntity
  8
部品1
100
AcDbLine
 10
2769.470589276556
 20
2702.494269174615
 30
0.0
 11
2794.470589276556
 21
2702.494269174615
 31
0.0
  0
LINE
  5
18D74
330
18C7A
100
AcDbEntity
  8
部品1
 48
50.0
100
AcDbLine
 10
2794.470589276556
 20
3154.494269174615
 30
0.0
 11
2794.470589276556
 21
2702.494269174615
 31
0.0
  0
LINE
  5
18D75
330
18C7A
100
AcDbEntity
  8
部品1
 48
50.0
100
AcDbLine
 10
2769.470589276554
 20
3154.494269174618
 30
0.0
 11
2769.470589276556
 21
2702.494269174615
 31
0.0
  0
LINE
  5
18D76
330
18C7A
100
AcDbEntity
  8
部品1
 48
50.0
100
AcDbLine
 10
2795.470589276556
 20
3152.494269174607
 30
0.0
 11
2795.470589276556
 21
2702.494269174615
 31
0.0
  0
LINE
  5
18D77
330
18C7A
100
AcDbEntity
  8
部品1
 48
50.0
100
AcDbLine
 10
2767.470589276556
 20
3152.494269174611
 30
0.0
 11
2767.470589276556
 21
2702.494269174615
 31
0.0
  0
LINE
  5
18D78
330
18C7A
100
AcDbEntity
  8
破線
 48
10.0
100
AcDbLine
 10
2176.97058927653
 20
1448.994269174509
 30
0.0
 11
2176.97058927653
 21
2702.494269174588
 31
0.0
  0
LINE
  5
18D79
330
18C7A
100
AcDbEntity
  8
破線
 48
10.0
100
AcDbLine
 10
2126.970589276534
 20
1448.994269174505
 30
0.0
 11
2126.970589276531
 21
2702.494269174586
 31
0.0
  0
LINE
  5
18D7A
330
18C7A
100
AcDbEntity
  8
部品1
100
AcDbLine
 10
2794.470589276556
 20
3154.494269174622
 30
0.0
 11
3858.970589276556
 21
3154.494269174604
 31
0.0
  0
LINE
  5
18D7B
330
18C7A
100
AcDbEntity
  8
細線
 48
50.0
100
AcDbLine
 10
3858.470589276556
 20
2702.494269174608
 30
0.0
 11
2795.470589276556
 21
3152.494269174607
 31
0.0
  0
LINE
  5
18D7C
330
18C7A
100
AcDbEntity
  8
部品1
100
AcDbLine
 10
2795.470589276555
 20
2702.494269174615
 30
0.0
 11
3858.470589276556
 21
2702.494269174608
 31
0.0
  0
LINE
  5
18D7D
330
18C7A
100
AcDbEntity
  8
部品1
100
AcDbLine
 10
2795.470589276556
 20
3152.494269174611
 30
0.0
 11
3858.470589276556
 21
3152.494269174604
 31
0.0
  0
LINE
  5
18D7E
330
18C7A
100
AcDbEntity
  8
細線
 48
50.0
100
AcDbLine
 10
3858.470589276556
 20
3152.494269174604
 30
0.0
 11
2795.470589276555
 21
2702.494269174615
 31
0.0
  0
DIMENSION
  5
18D7F
330
18C7A
100
AcDbEntity
  8
寸法
100
AcDbDimension
  2
*D10
 10
3801.234916278101
 20
2488.887829538937
 30
0.0
 11
3318.360544398907
 21
2488.887829538937
 31
0.0
 12
-3742.925985830444
 22
-6453.628869860112
 32
0.0
 70
   128
 71
     5
 42
1063.000000000012
  3
INABA_S40G
100
AcDbAlignedDimension
 13
2795.470589276555
 23
2702.494269174615
 33
0.0
 14
3858.470589276567
 24
2702.494269174608
 34
0.0
100
AcDbRotatedDimension
1001
ACAD
1000
DSTYLE
1002
{
1002
}
  0
LINE
  5
18D80
330
18C7A
100
AcDbEntity
  8
破線
 48
10.0
100
AcDbLine
 10
3806.970589276556
 20
1472.494269174594
 30
0.0
 11
3009.47058927653
 21
1472.494269174523
 31
0.0
  0
DIMENSION
  5
18D81
330
18C7A
100
AcDbEntity
  8
寸法
100
AcDbDimension
  2
*D9
 10
4534.396935010941
 20
1392.494269174596
 30
0.0
 11
4534.39693501094
 21
1084.008987800356
 31
0.0
 12
-3742.925985830444
 22
-6453.628869860112
 32
0.0
 70
   128
 71
     5
 42
54.99999999999636
  3
INABA_S40G
100
AcDbAlignedDimension
 13
3886.970589276531
 23
1447.494269174593
 33
0.0
 14
3886.970589276531
 24
1392.494269174596
 34
0.0
 50
90.0
100
AcDbRotatedDimension
1001
ACAD
1000
DSTYLE
1002
{
1002
}
  0
LINE
  5
18D82
330
18C7A
100
AcDbEntity
  8
部品1
100
AcDbLine
 10
471.9705892765196
 20
3182.494269174477
 30
0.0
 11
471.9705892765232
 21
3154.494269174477
 31
0.0
  0
LINE
  5
18D83
330
18C7A
100
AcDbEntity
  8
部品1
100
AcDbLine
 10
471.9705892765559
 20
3182.494269174509
 30
0.0
 11
471.9705892765559
 21
3154.494269174509
 31
0.0
  0
LINE
  5
18D84
330
18C7A
100
AcDbEntity
  8
部品1
100
AcDbLine
 10
444.9705892765232
 20
3127.49426917448
 30
0.0
 11
416.9705892765232
 21
3127.49426917448
 31
0.0
  0
LINE
  5
18D85
330
18C7A
100
AcDbEntity
  8
部品1
100
AcDbLine
 10
444.9705892765305
 20
2707.49426917448
 30
0.0
 11
416.9705892765305
 21
2707.49426917448
 31
0.0
  0
LINE
  5
18D86
330
18C7A
100
AcDbEntity
  8
部品1
 48
50.0
100
AcDbLine
 10
445.4705892765542
 20
3152.494269174506
 30
0.0
 11
445.4705892765559
 21
2702.494269174505
 31
0.0
  0
LINE
  5
18D87
330
18C7A
100
AcDbEntity
  8
部品1
 48
50.0
100
AcDbLine
 10
473.470589276545
 20
1448.994269174573
 30
0.0
 11
444.970589276545
 21
1420.494269174574
 31
0.0
  0
LINE
  5
18D88
330
18C7A
100
AcDbEntity
  8
部品1
100
AcDbLine
 10
471.9705892765232
 20
1392.494269174465
 30
0.0
 11
416.9705892765486
 21
1392.494269174465
 31
0.0
  0
LINE
  5
18D89
330
18C7A
100
AcDbEntity
  8
部品1
100
AcDbLine
 10
444.9705892765305
 20
1447.494269174429
 30
0.0
 11
416.9705892765469
 21
1447.494269174429
 31
0.0
  0
LINE
  5
18D8A
330
18C7A
100
AcDbEntity
  8
部品1
100
AcDbLine
 10
444.9705892765305
 20
1447.494269174465
 30
0.0
 11
416.9705892765469
 21
1447.494269174465
 31
0.0
  0
LINE
  5
18D8B
330
18C7A
100
AcDbEntity
  8
部品1
100
AcDbLine
 10
444.9705892765469
 20
1447.49426917448
 30
0.0
 11
416.9705892765469
 21
1447.49426917448
 31
0.0
  0
LINE
  5
18D8C
330
18C7A
100
AcDbEntity
  8
部品1
100
AcDbLine
 10
416.9705892765469
 20
1447.494269174429
 30
0.0
 11
416.9705892765486
 21
1392.494269174433
 31
0.0
  0
LINE
  5
18D8D
330
18C7A
100
AcDbEntity
  8
部品1
100
AcDbLine
 10
416.9705892765196
 20
3182.494269174477
 30
0.0
 11
416.9705892765486
 21
1392.494269174465
 31
0.0
  0
LINE
  5
18D8E
330
18C7A
100
AcDbEntity
  8
部品1
100
AcDbLine
 10
444.9705892765305
 20
1420.494269174556
 30
0.0
 11
444.9705892765559
 21
3154.494269174509
 31
0.0
  0
LINE
  5
18D8F
330
18C7A
100
AcDbEntity
  8
部品1
100
AcDbLine
 10
473.4705892765323
 20
2702.494269174608
 30
0.0
 11
473.470589276545
 21
1448.994269174571
 31
0.0
  0
LINE
  5
18D90
330
18C7A
100
AcDbEntity
  8
破線
 48
10.0
100
AcDbLine
 10
496.9705892765305
 20
2702.494269174608
 30
0.0
 11
496.9705892765451
 21
1472.494269174476
 31
0.0
  0
DIMENSION
  5
18D91
330
18C7A
100
AcDbEntity
  8
寸法
100
AcDbDimension
  2
*D8
 10
3886.970589276531
 20
410.7433333855515
 30
0.0
 11
2168.197775309287
 21
410.7433333855515
 31
0.0
 12
-3742.925985830444
 22
-6453.628869860112
 32
0.0
 70
   128
 71
     5
 42
3469.999999999982
  3
INABA_S40G
100
AcDbAlignedDimension
 13
416.9705892765486
 23
1392.494269174433
 33
0.0
 14
3886.970589276531
 24
1392.49426917456
 34
0.0
100
AcDbRotatedDimension
1001
ACAD
1000
DSTYLE
1002
{
1070
   341
1005
0
1002
}
  0
LINE
  5
18D92
330
18C7A
100
AcDbEntity
  8
部品1
100
AcDbLine
 10
444.9705892765559
 20
3154.494269174624
 30
0.0
 11
1509.470589276487
 21
3154.494269174626
 31
0.0
  0
LINE
  5
18D93
330
18C7A
100
AcDbEntity
  8
部品1
100
AcDbLine
 10
3886.970589276531
 20
1392.494269174596
 30
0.0
 11
3411.970589276556
 21
1392.494269174582
 31
0.0
  0
LINE
  5
18D94
330
18C7A
100
AcDbEntity
  8
部品1
100
AcDbLine
 10
416.9705892765559
 20
3182.494269174509
 30
0.0
 11
3886.970589276556
 21
3182.494269174604
 31
0.0
  0
LINE
  5
18D95
330
18C7A
100
AcDbEntity
  8
部品1
100
AcDbLine
 10
445.4705892765559
 20
2702.494269174509
 30
0.0
 11
1508.470589276487
 21
2702.494269174558
 31
0.0
  0
LINE
  5
18D96
330
18C7A
100
AcDbEntity
  8
細線
 48
50.0
100
AcDbLine
 10
2767.470589276556
 20
3152.494269174611
 30
0.0
 11
1536.470589276487
 21
2702.494269174558
 31
0.0
  0
LINE
  5
18D97
330
18C7A
100
AcDbEntity
  8
部品1
100
AcDbLine
 10
445.4705892765542
 20
3152.494269174509
 30
0.0
 11
1508.470589276485
 21
3152.494269174558
 31
0.0
  0
LINE
  5
18D98
330
18C7A
100
AcDbEntity
  8
細線
 48
50.0
100
AcDbLine
 10
2767.470589276554
 20
2702.494269174615
 30
0.0
 11
1536.470589276485
 21
3152.494269174558
 31
0.0
  0
LINE
  5
18D99
330
18C7A
100
AcDbEntity
  8
破線
 48
10.0
100
AcDbLine
 10
2126.970589276534
 20
1472.494269174502
 30
0.0
 11
1344.47058927653
 21
1472.494269174473
 31
0.0
  0
LINE
  5
18D9A
330
18C7A
100
AcDbEntity
  8
部品1
100
AcDbLine
 10
3830.470589276556
 20
1448.994269174596
 30
0.0
 11
473.4705892764487
 21
1448.994269174476
 31
0.0
  0
DIMENSION
  5
18D9B
330
18C7A
100
AcDbEntity
  8
寸法
100
AcDbDimension
  2
*D7
 10
471.970589276555
 20
3698.302488799491
 30
0.0
 11
108.4853079022819
 21
3698.302488799491
 31
0.0
 12
-3742.925985830444
 22
-6453.628869860112
 32
0.0
 70
   128
 71
     5
 42
55.00000000003456
  3
INABA_S40G
100
AcDbAlignedDimension
 13
416.9705892765205
 23
3182.494269174509
 33
0.0
 14
471.970589276555
 24
3182.494269174509
 34
0.0
100
AcDbRotatedDimension
1001
ACAD
1000
DSTYLE
1002
{
1002
}
  0
DIMENSION
  5
18D9C
330
18C7A
100
AcDbEntity
  8
寸法
100
AcDbDimension
  2
*D6
 10
4534.396935010967
 20
3127.494269174607
 30
0.0
 11
4534.396935010965
 21
3490.979550548844
 31
0.0
 12
-3742.925985830444
 22
-6453.628869860112
 32
0.0
 70
   128
 71
     5
 42
54.99999999999636
  3
INABA_S40G
100
AcDbAlignedDimension
 13
3886.970589276556
 23
3182.494269174604
 33
0.0
 14
3886.970589276556
 24
3127.494269174607
 34
0.0
 50
90.0
100
AcDbRotatedDimension
1001
ACAD
1000
DSTYLE
1002
{
1002
}
  0
DIMENSION
  5
18D9D
330
18C7A
100
AcDbEntity
  8
寸法
100
AcDbDimension
  2
*D5
 10
3886.970589276556
 20
3698.302488799589
 30
0.0
 11
4195.455870650794
 21
3698.302488799589
 31
0.0
 12
-3742.925985830444
 22
-6453.628869860112
 32
0.0
 70
   128
 71
     5
 42
55.0
  3
INABA_S40G
100
AcDbAlignedDimension
 13
3831.970589276556
 23
3182.494269174604
 33
0.0
 14
3886.970589276556
 24
3182.494269174604
 34
0.0
100
AcDbRotatedDimension
1001
ACAD
1000
DSTYLE
1002
{
1002
}
  0
DIMENSION
  5
18D9E
330
18C7A
100
AcDbEntity
  8
寸法
100
AcDbDimension
  2
*D4
 10
3831.970589276556
 20
3698.302488799607
 30
0.0
 11
2151.970589276555
 21
3698.302488799607
 31
0.0
 12
-3742.925985830444
 22
-6453.628869860112
 32
0.0
 70
   128
  1
8X420=<>
 71
     5
 42
3360.000000000001
  3
INABA_S40G
100
AcDbAlignedDimension
 13
471.970589276555
 23
3182.494269174509
 33
0.0
 14
3831.970589276556
 24
3182.494269174604
 34
0.0
100
AcDbRotatedDimension
1001
ACAD
1000
DSTYLE
1002
{
1002
}
  0
DIMENSION
  5
18D9F
330
18C7A
100
AcDbEntity
  8
寸法
100
AcDbDimension
  2
*D3
 10
4899.503876750603
 20
1392.494269174596
 30
0.0
 11
4899.503876750601
 21
2287.4942691746
 31
0.0
 12
-3742.925985830444
 22
-6453.628869860112
 32
0.0
 70
   128
 71
     5
 42
1790.000000000007
  3
INABA_S40G
100
AcDbAlignedDimension
 13
3886.970589276556
 23
3182.494269174604
 33
0.0
 14
3886.970589276531
 24
1392.494269174596
 34
0.0
 50
90.0
100
AcDbRotatedDimension
1001
ACAD
1000
DSTYLE
1002
{
1002
}
  0
ENDBLK
  5
18DA1
330
18C7A
100
AcDbEntity
  8
0
 48
50.0
100
AcDbBlockEnd
  0
BLOCK
  5
1C4CB
330
1C4CA
100
AcDbEntity
  8
0
 48
50.0
100
AcDbBlockBegin
  2
_NONE
 70
     0
 10
0.0
 20
0.0
 30
0.0
  3
_NONE
  1

  0
CIRCLE
  5
1C4CC
330
1C4CA
100
AcDbEntity
  8
0
  6
ByBlock
 62
     0
 48
50.0
100
AcDbCircle
 10
0.0
 20
0.0
 30
0.0
 40
0.25
  0
ENDBLK
  5
1C4CD
330
1C4CA
100
AcDbEntity
  8
0
 48
50.0
100
AcDbBlockEnd
  0
BLOCK
  5
20DEE
330
20DE2
100
AcDbEntity
  8
0
 48
50.0
100
AcDbBlockBegin
  2
*D19
 70
     1
 10
0.0
 20
0.0
 30
0.0
  3
*D19
  1

  0
LINE
  5
24EE2
330
20DE2
100
AcDbEntity
  8
寸法
 62
     0
 48
50.0
370
    -2
100
AcDbLine
 10
10128.6
 20
7360.534206023832
 30
0.0
 11
10128.6
 21
8358.754528082751
 31
0.0
  0
LINE
  5
24EE3
330
20DE2
100
AcDbEntity
  8
寸法
 62
     0
 48
50.0
370
    -2
100
AcDbLine
 10
10173.6
 20
8086.800664117742
 30
0.0
 11
10173.6
 21
8358.754528082751
 31
0.0
  0
LINE
  5
24EE4
330
20DE2
100
AcDbEntity
  8
寸法
 62
     0
 48
50.0
370
    -2
100
AcDbLine
 10
10128.6
 20
8298.754528082751
 30
0.0
 11
10028.6
 21
8298.754528082751
 31
0.0
  0
LINE
  5
24EE5
330
20DE2
100
AcDbEntity
  8
寸法
 62
     0
 48
50.0
370
    -2
100
AcDbLine
 10
10173.6
 20
8298.754528082751
 30
0.0
 11
10510.94924240492
 21
8298.754528082751
 31
0.0
  0
LINE
  5
24EE6
330
20DE2
100
AcDbEntity
  8
寸法
 62
     0
 48
50.0
370
    -2
100
AcDbLine
 10
10128.6
 20
8298.754528082751
 30
0.0
 11
10173.6
 21
8298.754528082751
 31
0.0
  0
INSERT
  5
24EE7
330
20DE2
100
AcDbEntity
  8
寸法
 62
     0
 48
50.0
370
    -2
100
AcDbBlockReference
  2
_DOTSMALL
 10
10128.6
 20
8298.754528082751
 30
0.0
 41
100.0
 42
100.0
 43
100.0
  0
INSERT
  5
24EE8
330
20DE2
100
AcDbEntity
  8
寸法
 62
     0
 48
50.0
370
    -2
100
AcDbBlockReference
  2
_DOTSMALL
 10
10173.6
 20
8298.754528082751
 30
0.0
 41
100.0
 42
100.0
 43
100.0
 50
180.0
  0
MTEXT
  5
24EE9
330
20DE2
100
AcDbEntity
  8
寸法
 62
     7
 48
50.0
100
AcDbMText
 10
10444.77462120246
 20
8398.754528082751
 30
0.0
 40
120.0
 41
0.0
 71
     5
 72
     1
  1
\A1;a
  7
STYLE1
 73
     1
 44
1.0
1001
ACAD
1000
MTEXTBEGIN
1070
    73
1070
     1
1070
    44
1040
1.0
1070
    74
1070
     0
1000
MTEXTEND
  0
POINT
  5
24EEA
330
20DE2
100
AcDbEntity
  8
DEFPOINTS
 62
     0
 48
50.0
100
AcDbPoint
 10
10128.6
 20
7340.534206023831
 30
0.0
  0
POINT
  5
24EEB
330
20DE2
100
AcDbEntity
  8
DEFPOINTS
 62
     0
 48
50.0
100
AcDbPoint
 10
10173.6
 20
8066.80066411774
 30
0.0
  0
POINT
  5
24EEC
330
20DE2
100
AcDbEntity
  8
DEFPOINTS
 62
     0
 48
50.0
100
AcDbPoint
 10
10173.6
 20
8298.754528082751
 30
0.0
  0
ENDBLK
  5
20DEF
330
20DE2
100
AcDbEntity
  8
0
 48
50.0
100
AcDbBlockEnd
  0
BLOCK
  5
20E08
330
20DFC
100
AcDbEntity
  8
0
 48
50.0
100
AcDbBlockBegin
  2
*D20
 70
     1
 10
0.0
 20
0.0
 30
0.0
  3
*D20
  1

  0
LINE
  5
24F01
330
20DFC
100
AcDbEntity
  8
寸法
 62
     0
 48
50.0
370
    -2
100
AcDbLine
 10
6273.600000000008
 20
8086.800664117738
 30
0.0
 11
6273.600000000008
 21
8358.754528082746
 31
0.0
  0
LINE
  5
24F02
330
20DFC
100
AcDbEntity
  8
寸法
 62
     0
 48
50.0
370
    -2
100
AcDbLine
 10
6318.600000000004
 20
7360.534206023827
 30
0.0
 11
6318.600000000004
 21
8358.754528082746
 31
0.0
  0
LINE
  5
24F03
330
20DFC
100
AcDbEntity
  8
寸法
 62
     0
 48
50.0
370
    -2
100
AcDbLine
 10
6318.600000000004
 20
8298.754528082747
 30
0.0
 11
6418.600000000004
 21
8298.754528082747
 31
0.0
  0
LINE
  5
24F04
330
20DFC
100
AcDbEntity
  8
寸法
 62
     0
 48
50.0
370
    -2
100
AcDbLine
 10
6273.600000000008
 20
8298.754528082747
 30
0.0
 11
5936.250757595087
 21
8298.754528082747
 31
0.0
  0
LINE
  5
24F05
330
20DFC
100
AcDbEntity
  8
寸法
 62
     0
 48
50.0
370
    -2
100
AcDbLine
 10
6318.600000000004
 20
8298.754528082747
 30
0.0
 11
6273.600000000008
 21
8298.754528082747
 31
0.0
  0
INSERT
  5
24F06
330
20DFC
100
AcDbEntity
  8
寸法
 62
     0
 48
50.0
370
    -2
100
AcDbBlockReference
  2
_DOTSMALL
 10
6318.600000000004
 20
8298.754528082747
 30
0.0
 41
100.0
 42
100.0
 43
100.0
 50
180.0
  0
INSERT
  5
24F07
330
20DFC
100
AcDbEntity
  8
寸法
 62
     0
 48
50.0
370
    -2
100
AcDbBlockReference
  2
_DOTSMALL
 10
6273.600000000008
 20
8298.754528082747
 30
0.0
 41
100.0
 42
100.0
 43
100.0
  0
MTEXT
  5
24F08
330
20DFC
100
AcDbEntity
  8
寸法
 62
     7
 48
50.0
100
AcDbMText
 10
6002.425378797545
 20
8398.754528082747
 30
0.0
 40
120.0
 41
0.0
 71
     5
 72
     1
  1
\A1;a
  7
STYLE1
 73
     1
 44
1.0
1001
ACAD
1000
MTEXTBEGIN
1070
    73
1070
     1
1070
    44
1040
1.0
1070
    74
1070
     0
1000
MTEXTEND
  0
POINT
  5
24F09
330
20DFC
100
AcDbEntity
  8
DEFPOINTS
 62
     0
 48
50.0
100
AcDbPoint
 10
6273.600000000008
 20
8066.800664117739
 30
0.0
  0
POINT
  5
24F0A
330
20DFC
100
AcDbEntity
  8
DEFPOINTS
 62
     0
 48
50.0
100
AcDbPoint
 10
6318.600000000004
 20
7340.534206023827
 30
0.0
  0
POINT
  5
24F0B
330
20DFC
100
AcDbEntity
  8
DEFPOINTS
 62
     0
 48
50.0
100
AcDbPoint
 10
6318.600000000004
 20
8298.754528082747
 30
0.0
  0
ENDBLK
  5
20E09
330
20DFC
100
AcDbEntity
  8
0
 48
50.0
100
AcDbBlockEnd
  0
BLOCK
  5
2274E
330
22742
100
AcDbEntity
  8
0
 48
50.0
100
AcDbBlockBegin
  2
*D21
 70
     1
 10
0.0
 20
0.0
 30
0.0
  3
*D21
  1

  0
LINE
  5
24F0C
330
22742
100
AcDbEntity
  8
寸法
 62
     0
 48
50.0
370
    -2
100
AcDbLine
 10
5675.665006330073
 20
7415.534206023834
 30
0.0
 11
5383.721909610678
 21
7415.534206023834
 31
0.0
  0
LINE
  5
24F0D
330
22742
100
AcDbEntity
  8
寸法
 62
     0
 48
50.0
370
    -2
100
AcDbLine
 10
6298.600000000003
 20
7340.534206023827
 30
0.0
 11
5383.721909610678
 21
7340.534206023829
 31
0.0
  0
LINE
  5
24F0E
330
22742
100
AcDbEntity
  8
寸法
 62
     0
 48
50.0
370
    -2
100
AcDbLine
 10
5443.721909610679
 20
7415.534206023834
 30
0.0
 11
5443.721909610679
 21
7515.534206023834
 31
0.0
  0
LINE
  5
24F0F
330
22742
100
AcDbEntity
  8
寸法
 62
     0
 48
50.0
370
    -2
100
AcDbLine
 10
5443.721909610679
 20
7340.534206023829
 30
0.0
 11
5443.721909610679
 21
7240.534206023828
 31
0.0
  0
LINE
  5
24F10
330
22742
100
AcDbEntity
  8
寸法
 62
     0
 48
50.0
370
    -2
100
AcDbLine
 10
5443.721909610679
 20
7415.534206023834
 30
0.0
 11
5443.721909610679
 21
7340.534206023829
 31
0.0
  0
INSERT
  5
24F11
330
22742
100
AcDbEntity
  8
寸法
 62
     0
 48
50.0
370
    -2
100
AcDbBlockReference
  2
_DOTSMALL
 10
5443.721909610679
 20
7415.534206023834
 30
0.0
 41
100.0
 42
100.0
 43
100.0
 50
270.0
  0
INSERT
  5
24F12
330
22742
100
AcDbEntity
  8
寸法
 62
     0
 48
50.0
370
    -2
100
AcDbBlockReference
  2
_DOTSMALL
 10
5443.721909610679
 20
7340.534206023829
 30
0.0
 41
100.0
 42
100.0
 43
100.0
 50
90.0
  0
MTEXT
  5
24F13
330
22742
100
AcDbEntity
  8
寸法
 62
     7
 48
50.0
100
AcDbMText
 10
5343.721909610676
 20
7378.034206023833
 30
0.0
 40
120.0
 41
0.0
 71
     5
 72
     1
  1
\A1;c
  7
STYLE1
 11
0.0000000000000001
 21
1.0
 31
0.0
 73
     1
 44
1.0
1001
ACAD
1000
MTEXTBEGIN
1070
    73
1070
     1
1070
    44
1040
1.0
1070
    74
1070
     0
1000
MTEXTEND
  0
POINT
  5
24F14
330
22742
100
AcDbEntity
  8
DEFPOINTS
 62
     0
 48
50.0
100
AcDbPoint
 10
5695.665006330074
 20
7415.534206023834
 30
0.0
  0
POINT
  5
24F15
330
22742
100
AcDbEntity
  8
DEFPOINTS
 62
     0
 48
50.0
100
AcDbPoint
 10
6318.600000000004
 20
7340.534206023827
 30
0.0
  0
POINT
  5
24F16
330
22742
100
AcDbEntity
  8
DEFPOINTS
 62
     0
 48
50.0
100
AcDbPoint
 10
5443.721909610679
 20
7340.534206023829
 30
0.0
  0
ENDBLK
  5
2274F
330
22742
100
AcDbEntity
  8
0
 48
50.0
100
AcDbBlockEnd
  0
BLOCK
  5
22768
330
2275C
100
AcDbEntity
  8
0
 48
50.0
100
AcDbBlockBegin
  2
*D22
 70
     1
 10
0.0
 20
0.0
 30
0.0
  3
*D22
  1

  0
LINE
  5
24F17
330
2275C
100
AcDbEntity
  8
寸法
 62
     0
 48
50.0
370
    -2
100
AcDbLine
 10
6298.600000000003
 20
6380.534206023828
 30
0.0
 11
5383.721909610678
 21
6380.534206023828
 31
0.0
  0
LINE
  5
24F18
330
2275C
100
AcDbEntity
  8
寸法
 62
     0
 48
50.0
370
    -2
100
AcDbLine
 10
5675.665006330077
 20
6325.534206023853
 30
0.0
 11
5383.721909610678
 21
6325.534206023853
 31
0.0
  0
LINE
  5
24F19
330
2275C
100
AcDbEntity
  8
寸法
 62
     0
 48
50.0
370
    -2
100
AcDbLine
 10
5443.721909610679
 20
6380.534206023828
 30
0.0
 11
5443.721909610679
 21
6480.534206023829
 31
0.0
  0
LINE
  5
24F1A
330
2275C
100
AcDbEntity
  8
寸法
 62
     0
 48
50.0
370
    -2
100
AcDbLine
 10
5443.721909610679
 20
6325.534206023853
 30
0.0
 11
5443.721909610679
 21
6225.534206023852
 31
0.0
  0
LINE
  5
24F1B
330
2275C
100
AcDbEntity
  8
寸法
 62
     0
 48
50.0
370
    -2
100
AcDbLine
 10
5443.721909610679
 20
6380.534206023828
 30
0.0
 11
5443.721909610679
 21
6325.534206023853
 31
0.0
  0
INSERT
  5
24F1C
330
2275C
100
AcDbEntity
  8
寸法
 62
     0
 48
50.0
370
    -2
100
AcDbBlockReference
  2
_DOTSMALL
 10
5443.721909610679
 20
6380.534206023828
 30
0.0
 41
100.0
 42
100.0
 43
100.0
 50
270.0
  0
INSERT
  5
24F1D
330
2275C
100
AcDbEntity
  8
寸法
 62
     0
 48
50.0
370
    -2
100
AcDbBlockReference
  2
_DOTSMALL
 10
5443.721909610679
 20
6325.534206023853
 30
0.0
 41
100.0
 42
100.0
 43
100.0
 50
90.0
  0
MTEXT
  5
24F1E
330
2275C
100
AcDbEntity
  8
寸法
 62
     7
 48
50.0
100
AcDbMText
 10
5343.721909610676
 20
6353.034206023842
 30
0.0
 40
120.0
 41
0.0
 71
     5
 72
     1
  1
\A1;b
  7
STYLE1
 11
0.0000000000000001
 21
1.0
 31
0.0
 73
     1
 44
1.0
1001
ACAD
1000
MTEXTBEGIN
1070
    73
1070
     1
1070
    44
1040
1.0
1070
    74
1070
     0
1000
MTEXTEND
  0
POINT
  5
24F1F
330
2275C
100
AcDbEntity
  8
DEFPOINTS
 62
     0
 48
50.0
100
AcDbPoint
 10
6318.600000000004
 20
6380.534206023828
 30
0.0
  0
POINT
  5
24F20
330
2275C
100
AcDbEntity
  8
DEFPOINTS
 62
     0
 48
50.0
100
AcDbPoint
 10
5695.665006330077
 20
6325.534206023853
 30
0.0
  0
POINT
  5
24F21
330
2275C
100
AcDbEntity
  8
DEFPOINTS
 62
     0
 48
50.0
100
AcDbPoint
 10
5443.721909610679
 20
6325.534206023853
 30
0.0
  0
ENDBLK
  5
22769
330
2275C
100
AcDbEntity
  8
0
 48
50.0
100
AcDbBlockEnd
  0
BLOCK
  5
239FE
330
239F3
100
AcDbEntity
  8
0
 48
50.0
100
AcDbBlockBegin
  2
*D23
 70
     1
 10
0.0
 20
0.0
 30
0.0
  3
*D23
  1

  0
LINE
  5
24EF7
330
239F3
100
AcDbEntity
  8
寸法
 62
     0
 48
50.0
370
    -2
100
AcDbLine
 10
9653.854682011642
 20
7340.53420602382
 30
0.0
 11
9413.957501082455
 21
7340.53420602382
 31
0.0
  0
LINE
  5
24EF8
330
239F3
100
AcDbEntity
  8
寸法
 62
     0
 48
50.0
370
    -2
100
AcDbLine
 10
9653.854682011642
 20
7140.534206023819
 30
0.0
 11
9413.957501082455
 21
7140.534206023819
 31
0.0
  0
LINE
  5
24EF9
330
239F3
100
AcDbEntity
  8
寸法
 62
     0
 48
50.0
370
    -2
100
AcDbLine
 10
9473.957501082454
 20
7140.534206023819
 30
0.0
 11
9473.957501082454
 21
7340.53420602382
 31
0.0
  0
LINE
  5
24EFA
330
239F3
100
AcDbEntity
  8
寸法
 62
     0
 48
50.0
370
    -2
100
AcDbLine
 10
9473.957501082454
 20
7340.53420602382
 30
0.0
 11
9473.957501082454
 21
7739.675938307286
 31
0.0
  0
INSERT
  5
24EFB
330
239F3
100
AcDbEntity
  8
寸法
 62
     0
 48
50.0
370
    -2
100
AcDbBlockReference
  2
_DOTSMALL
 10
9473.957501082454
 20
7140.534206023819
 30
0.0
 41
100.0
 42
100.0
 43
100.0
 50
270.0
  0
INSERT
  5
24EFC
330
239F3
100
AcDbEntity
  8
寸法
 62
     0
 48
50.0
370
    -2
100
AcDbBlockReference
  2
_DOTSMALL
 10
9473.957501082454
 20
7340.53420602382
 30
0.0
 41
100.0
 42
100.0
 43
100.0
 50
90.0
  0
MTEXT
  5
24EFD
330
239F3
100
AcDbEntity
  8
寸法
 62
     7
 48
50.0
100
AcDbMText
 10
9373.94569005883
 20
7590.105072165555
 30
0.0
 40
120.0
 41
0.0
 71
     5
 72
     1
  1
\A1;200
  7
STYLE1
 11
0.0000000000000001
 21
1.0
 31
0.0
 73
     1
 44
1.0
1001
ACAD
1000
MTEXTBEGIN
1070
    73
1070
     1
1070
    44
1040
1.0
1070
    74
1070
     0
1000
MTEXTEND
  0
POINT
  5
24EFE
330
239F3
100
AcDbEntity
  8
DEFPOINTS
 62
     0
 48
50.0
100
AcDbPoint
 10
9673.854682011644
 20
7340.53420602382
 30
0.0
  0
POINT
  5
24EFF
330
239F3
100
AcDbEntity
  8
DEFPOINTS
 62
     0
 48
50.0
100
AcDbPoint
 10
9673.854682011644
 20
7140.534206023819
 30
0.0
  0
POINT
  5
24F00
330
239F3
100
AcDbEntity
  8
DEFPOINTS
 62
     0
 48
50.0
100
AcDbPoint
 10
9473.957501082454
 20
7140.534206023819
 30
0.0
  0
ENDBLK
  5
239FF
330
239F3
100
AcDbEntity
  8
0
 48
50.0
100
AcDbBlockEnd
  0
BLOCK
  5
23A2E
330
23A23
100
AcDbEntity
  8
0
 48
50.0
100
AcDbBlockBegin
  2
*D24
 70
     1
 10
0.0
 20
0.0
 30
0.0
  3
*D24
  1

  0
LINE
  5
24FA4
330
23A23
100
AcDbEntity
  8
寸法
 62
     0
 48
50.0
370
    -2
100
AcDbLine
 10
9728.600000000003
 20
6660.53420602385
 30
0.0
 11
9413.957501082455
 21
6660.53420602385
 31
0.0
  0
LINE
  5
24FA5
330
23A23
100
AcDbEntity
  8
寸法
 62
     0
 48
50.0
370
    -2
100
AcDbLine
 10
9728.600000000003
 20
6380.53420602384
 30
0.0
 11
9413.957501082455
 21
6380.53420602384
 31
0.0
  0
LINE
  5
24FA6
330
23A23
100
AcDbEntity
  8
寸法
 62
     0
 48
50.0
370
    -2
100
AcDbLine
 10
9473.957501082454
 20
6660.53420602385
 30
0.0
 11
9473.957501082454
 21
6380.53420602384
 31
0.0
  0
LINE
  5
24FA7
330
23A23
100
AcDbEntity
  8
寸法
 62
     0
 48
50.0
370
    -2
100
AcDbLine
 10
9473.957501082454
 20
6380.53420602384
 30
0.0
 11
9473.957501082454
 21
5981.392473740376
 31
0.0
  0
INSERT
  5
24FA8
330
23A23
100
AcDbEntity
  8
寸法
 62
     0
 48
50.0
370
    -2
100
AcDbBlockReference
  2
_DOTSMALL
 10
9473.957501082454
 20
6660.53420602385
 30
0.0
 41
100.0
 42
100.0
 43
100.0
 50
90.0
  0
INSERT
  5
24FA9
330
23A23
100
AcDbEntity
  8
寸法
 62
     0
 48
50.0
370
    -2
100
AcDbBlockReference
  2
_DOTSMALL
 10
9473.957501082454
 20
6380.53420602384
 30
0.0
 41
100.0
 42
100.0
 43
100.0
 50
270.0
  0
MTEXT
  5
24FAA
330
23A23
100
AcDbEntity
  8
寸法
 62
     7
 48
50.0
100
AcDbMText
 10
9373.94569005883
 20
6130.963339882109
 30
0.0
 40
120.0
 41
0.0
 71
     5
 72
     1
  1
\A1;280
  7
STYLE1
 11
0.0000000000000001
 21
1.0
 31
0.0
 73
     1
 44
1.0
1001
ACAD
1000
MTEXTBEGIN
1070
    73
1070
     1
1070
    44
1040
1.0
1070
    74
1070
     0
1000
MTEXTEND
  0
POINT
  5
24FAB
330
23A23
100
AcDbEntity
  8
DEFPOINTS
 62
     0
 48
50.0
100
AcDbPoint
 10
9748.600000000003
 20
6660.53420602385
 30
0.0
  0
POINT
  5
24FAC
330
23A23
100
AcDbEntity
  8
DEFPOINTS
 62
     0
 48
50.0
100
AcDbPoint
 10
9748.600000000003
 20
6380.53420602384
 30
0.0
  0
POINT
  5
24FAD
330
23A23
100
AcDbEntity
  8
DEFPOINTS
 62
     0
 48
50.0
100
AcDbPoint
 10
9473.957501082454
 20
6380.53420602384
 30
0.0
  0
ENDBLK
  5
23A2F
330
23A23
100
AcDbEntity
  8
0
 48
50.0
100
AcDbBlockEnd
  0
BLOCK
  5
249D1
330
249C7
100
AcDbEntity
  8
0
 48
50.0
100
AcDbBlockBegin
  2
*D25
 70
     1
 10
0.0
 20
0.0
 30
0.0
  3
*D25
  1

  0
LINE
  5
24E96
330
249C7
100
AcDbEntity
  8
寸法
 62
     0
 48
50.0
370
    -2
100
AcDbLine
 10
9173.600000000007
 20
6930.534206023832
 30
0.0
 11
9173.600000000007
 21
7883.143022694079
 31
0.0
  0
LINE
  5
24E97
330
249C7
100
AcDbEntity
  8
寸法
 62
     0
 48
50.0
370
    -2
100
AcDbLine
 10
8223.600000000008
 20
6930.534206023832
 30
0.0
 11
8223.600000000008
 21
7883.143022694079
 31
0.0
  0
LINE
  5
24E98
330
249C7
100
AcDbEntity
  8
寸法
 62
     0
 48
50.0
370
    -2
100
AcDbLine
 10
9173.600000000007
 20
7823.143022694079
 30
0.0
 11
8223.600000000008
 21
7823.143022694079
 31
0.0
  0
INSERT
  5
24E99
330
249C7
100
AcDbEntity
  8
寸法
 62
     0
 48
50.0
370
    -2
100
AcDbBlockReference
  2
_DOTSMALL
 10
9173.600000000007
 20
7823.143022694079
 30
0.0
 41
100.0
 42
100.0
 43
100.0
  0
INSERT
  5
24E9A
330
249C7
100
AcDbEntity
  8
寸法
 62
     0
 48
50.0
370
    -2
100
AcDbBlockReference
  2
_DOTSMALL
 10
8223.600000000008
 20
7823.143022694079
 30
0.0
 41
100.0
 42
100.0
 43
100.0
 50
180.0
  0
MTEXT
  5
24E9B
330
249C7
100
AcDbEntity
  8
寸法
 62
     7
 48
50.0
100
AcDbMText
 10
8698.600000000007
 20
7923.143022694079
 30
0.0
 40
120.0
 41
0.0
 71
     5
 72
     1
  1
\A1;950
  7
STYLE1
 73
     1
 44
1.0
1001
ACAD
1000
MTEXTBEGIN
1070
    73
1070
     1
1070
    44
1040
1.0
1070
    74
1070
     0
1000
MTEXTEND
  0
POINT
  5
24E9C
330
249C7
100
AcDbEntity
  8
DEFPOINTS
 62
     0
 48
50.0
100
AcDbPoint
 10
9173.600000000007
 20
6910.534206023831
 30
0.0
  0
POINT
  5
24E9D
330
249C7
100
AcDbEntity
  8
DEFPOINTS
 62
     0
 48
50.0
100
AcDbPoint
 10
8223.600000000008
 20
6910.534206023831
 30
0.0
  0
POINT
  5
24E9E
330
249C7
100
AcDbEntity
  8
DEFPOINTS
 62
     0
 48
50.0
100
AcDbPoint
 10
8223.600000000008
 20
7823.143022694079
 30
0.0
  0
ENDBLK
  5
249D2
330
249C7
100
AcDbEntity
  8
0
 48
50.0
100
AcDbBlockEnd
  0
BLOCK
  5
249DD
330
249D3
100
AcDbEntity
  8
0
 48
50.0
100
AcDbBlockBegin
  2
*D26
 70
     1
 10
0.0
 20
0.0
 30
0.0
  3
*D26
  1

  0
LINE
  5
24E8D
330
249D3
100
AcDbEntity
  8
寸法
 62
     0
 48
50.0
370
    -2
100
AcDbLine
 10
10005.6
 20
7287.534206023831
 30
0.0
 11
10005.6
 21
8126.800664117743
 31
0.0
  0
LINE
  5
24E8E
330
249D3
100
AcDbEntity
  8
寸法
 62
     0
 48
50.0
370
    -2
100
AcDbLine
 10
8105.6
 20
7287.534206023831
 30
0.0
 11
8105.6
 21
8126.800664117743
 31
0.0
  0
LINE
  5
24E8F
330
249D3
100
AcDbEntity
  8
寸法
 62
     0
 48
50.0
370
    -2
100
AcDbLine
 10
10005.6
 20
8066.80066411774
 30
0.0
 11
8105.6
 21
8066.80066411774
 31
0.0
  0
INSERT
  5
24E90
330
249D3
100
AcDbEntity
  8
寸法
 62
     0
 48
50.0
370
    -2
100
AcDbBlockReference
  2
_DOTSMALL
 10
10005.6
 20
8066.80066411774
 30
0.0
 41
100.0
 42
100.0
 43
100.0
  0
INSERT
  5
24E91
330
249D3
100
AcDbEntity
  8
寸法
 62
     0
 48
50.0
370
    -2
100
AcDbBlockReference
  2
_DOTSMALL
 10
8105.6
 20
8066.80066411774
 30
0.0
 41
100.0
 42
100.0
 43
100.0
 50
180.0
  0
MTEXT
  5
24E92
330
249D3
100
AcDbEntity
  8
寸法
 62
     7
 48
50.0
100
AcDbMText
 10
9055.600000000001
 20
8166.800664117742
 30
0.0
 40
120.0
 41
0.0
 71
     5
 72
     1
  1
\A1;1900
  7
STYLE1
 73
     1
 44
1.0
1001
ACAD
1000
MTEXTBEGIN
1070
    73
1070
     1
1070
    44
1040
1.0
1070
    74
1070
     0
1000
MTEXTEND
  0
POINT
  5
24E93
330
249D3
100
AcDbEntity
  8
DEFPOINTS
 62
     0
 48
50.0
100
AcDbPoint
 10
10005.6
 20
7267.534206023831
 30
0.0
  0
POINT
  5
24E94
330
249D3
100
AcDbEntity
  8
DEFPOINTS
 62
     0
 48
50.0
100
AcDbPoint
 10
8105.6
 20
7267.534206023831
 30
0.0
  0
POINT
  5
24E95
330
249D3
100
AcDbEntity
  8
DEFPOINTS
 62
     0
 48
50.0
100
AcDbPoint
 10
8105.6
 20
8066.80066411774
 30
0.0
  0
ENDBLK
  5
249DE
330
249D3
100
AcDbEntity
  8
0
 48
50.0
100
AcDbBlockEnd
  0
BLOCK
  5
249E9
330
249DF
100
AcDbEntity
  8
0
 48
50.0
100
AcDbBlockBegin
  2
*D27
 70
     1
 10
0.0
 20
0.0
 30
0.0
  3
*D27
  1

  0
LINE
  5
24E84
330
249DF
100
AcDbEntity
  8
寸法
 62
     0
 48
50.0
370
    -2
100
AcDbLine
 10
6318.6
 20
7360.534206023832
 30
0.0
 11
6318.6
 21
8358.754528082748
 31
0.0
  0
LINE
  5
24E85
330
249DF
100
AcDbEntity
  8
寸法
 62
     0
 48
50.0
370
    -2
100
AcDbLine
 10
10128.6
 20
7360.534206023832
 30
0.0
 11
10128.6
 21
8358.754528082748
 31
0.0
  0
LINE
  5
24E86
330
249DF
100
AcDbEntity
  8
寸法
 62
     0
 48
50.0
370
    -2
100
AcDbLine
 10
6318.6
 20
8298.754528082749
 30
0.0
 11
10128.6
 21
8298.754528082749
 31
0.0
  0
INSERT
  5
24E87
330
249DF
100
AcDbEntity
  8
寸法
 62
     0
 48
50.0
370
    -2
100
AcDbBlockReference
  2
_DOTSMALL
 10
6318.6
 20
8298.754528082749
 30
0.0
 41
100.0
 42
100.0
 43
100.0
 50
180.0
  0
INSERT
  5
24E88
330
249DF
100
AcDbEntity
  8
寸法
 62
     0
 48
50.0
370
    -2
100
AcDbBlockReference
  2
_DOTSMALL
 10
10128.6
 20
8298.754528082749
 30
0.0
 41
100.0
 42
100.0
 43
100.0
  0
MTEXT
  5
24E89
330
249DF
100
AcDbEntity
  8
寸法
 62
     7
 48
50.0
100
AcDbMText
 10
8223.600000000001
 20
8398.754528082749
 30
0.0
 40
120.0
 41
0.0
 71
     5
 72
     1
  1
\A1;3810
  7
STYLE1
 73
     1
 44
1.0
1001
ACAD
1000
MTEXTBEGIN
1070
    73
1070
     1
1070
    44
1040
1.0
1070
    74
1070
     0
1000
MTEXTEND
  0
POINT
  5
24E8A
330
249DF
100
AcDbEntity
  8
DEFPOINTS
 62
     0
 48
50.0
100
AcDbPoint
 10
6318.6
 20
7340.534206023831
 30
0.0
  0
POINT
  5
24E8B
330
249DF
100
AcDbEntity
  8
DEFPOINTS
 62
     0
 48
50.0
100
AcDbPoint
 10
10128.6
 20
7340.534206023831
 30
0.0
  0
POINT
  5
24E8C
330
249DF
100
AcDbEntity
  8
DEFPOINTS
 62
     0
 48
50.0
100
AcDbPoint
 10
10128.6
 20
8298.754528082749
 30
0.0
  0
ENDBLK
  5
249EA
330
249DF
100
AcDbEntity
  8
0
 48
50.0
100
AcDbBlockEnd
  0
BLOCK
  5
249F6
330
249EB
100
AcDbEntity
  8
0
 48
50.0
100
AcDbBlockBegin
  2
*D28
 70
     1
 10
0.0
 20
0.0
 30
0.0
  3
*D28
  1

  0
LINE
  5
24ECE
330
249EB
100
AcDbEntity
  8
寸法
 62
     0
 48
50.0
370
    -2
100
AcDbLine
 10
6872.765475140901
 20
6380.534206023842
 30
0.0
 11
6741.285990614303
 21
6380.534206023842
 31
0.0
  0
LINE
  5
24ECF
330
249EB
100
AcDbEntity
  8
寸法
 62
     0
 48
50.0
370
    -2
100
AcDbLine
 10
7203.600000000007
 20
6860.534206023832
 30
0.0
 11
6741.285990614303
 21
6860.534206023832
 31
0.0
  0
LINE
  5
24ED0
330
249EB
100
AcDbEntity
  8
寸法
 62
     0
 48
50.0
370
    -2
100
AcDbLine
 10
6801.285990614302
 20
6860.534206023832
 30
0.0
 11
6801.285990614302
 21
6380.534206023842
 31
0.0
  0
LINE
  5
24ED1
330
249EB
100
AcDbEntity
  8
寸法
 62
     0
 48
50.0
370
    -2
100
AcDbLine
 10
6801.285990614302
 20
6380.534206023842
 30
0.0
 11
6801.2859906143
 21
5933.927906811241
 31
0.0
  0
INSERT
  5
24ED2
330
249EB
100
AcDbEntity
  8
寸法
 62
     0
 48
50.0
370
    -2
100
AcDbBlockReference
  2
_DOTSMALL
 10
6801.285990614302
 20
6860.534206023832
 30
0.0
 41
100.0
 42
100.0
 43
100.0
 50
90.0
  0
INSERT
  5
24ED3
330
249EB
100
AcDbEntity
  8
寸法
 62
     0
 48
50.0
370
    -2
100
AcDbBlockReference
  2
_DOTSMALL
 10
6801.285990614302
 20
6380.534206023842
 30
0.0
 41
100.0
 42
100.0
 43
100.0
 50
270.0
  0
MTEXT
  5
24ED4
330
249EB
100
AcDbEntity
  8
寸法
 62
     7
 48
50.0
100
AcDbMText
 10
6701.285990614301
 20
6087.975150905731
 30
0.0
 40
120.0
 41
0.0
 71
     5
 72
     1
  1
\A1;480
  7
STYLE1
 11
0.0000000000000001
 21
1.0
 31
0.0
 73
     1
 44
1.0
1001
ACAD
1000
MTEXTBEGIN
1070
    73
1070
     1
1070
    44
1040
1.0
1070
    74
1070
     0
1000
MTEXTEND
  0
POINT
  5
24ED5
330
249EB
100
AcDbEntity
  8
DEFPOINTS
 62
     0
 48
50.0
100
AcDbPoint
 10
6892.765475140901
 20
6380.534206023842
 30
0.0
  0
POINT
  5
24ED6
330
249EB
100
AcDbEntity
  8
DEFPOINTS
 62
     0
 48
50.0
100
AcDbPoint
 10
7223.600000000008
 20
6860.534206023832
 30
0.0
  0
POINT
  5
24ED7
330
249EB
100
AcDbEntity
  8
DEFPOINTS
 62
     0
 48
50.0
100
AcDbPoint
 10
6801.285990614302
 20
6860.534206023832
 30
0.0
  0
ENDBLK
  5
249F7
330
249EB
100
AcDbEntity
  8
0
 48
50.0
100
AcDbBlockEnd
  0
BLOCK
  5
24A02
330
249F8
100
AcDbEntity
  8
0
 48
50.0
100
AcDbBlockBegin
  2
*D29
 70
     1
 10
0.0
 20
0.0
 30
0.0
  3
*D29
  1

  0
LINE
  5
24EBC
330
249F8
100
AcDbEntity
  8
寸法
 62
     0
 48
50.0
370
    -2
100
AcDbLine
 10
6298.6
 20
7340.534206023831
 30
0.0
 11
5383.721909610675
 21
7340.534206023832
 31
0.0
  0
LINE
  5
24EBD
330
249F8
100
AcDbEntity
  8
寸法
 62
     0
 48
50.0
370
    -2
100
AcDbLine
 10
6298.6
 20
6380.534206023831
 30
0.0
 11
5383.721909610675
 21
6380.534206023831
 31
0.0
  0
LINE
  5
24EBE
330
249F8
100
AcDbEntity
  8
寸法
 62
     0
 48
50.0
370
    -2
100
AcDbLine
 10
5443.721909610674
 20
7340.534206023832
 30
0.0
 11
5443.721909610674
 21
6380.534206023831
 31
0.0
  0
INSERT
  5
24EBF
330
249F8
100
AcDbEntity
  8
寸法
 62
     0
 48
50.0
370
    -2
100
AcDbBlockReference
  2
_DOTSMALL
 10
5443.721909610674
 20
7340.534206023832
 30
0.0
 41
100.0
 42
100.0
 43
100.0
 50
90.0
  0
INSERT
  5
24EC0
330
249F8
100
AcDbEntity
  8
寸法
 62
     0
 48
50.0
370
    -2
100
AcDbBlockReference
  2
_DOTSMALL
 10
5443.721909610674
 20
6380.534206023831
 30
0.0
 41
100.0
 42
100.0
 43
100.0
 50
270.0
  0
MTEXT
  5
24EC1
330
249F8
100
AcDbEntity
  8
寸法
 62
     7
 48
50.0
100
AcDbMText
 10
5343.721909610673
 20
6898.034206023831
 30
0.0
 40
120.0
 41
0.0
 71
     5
 72
     1
  1
\A1;960
  7
STYLE1
 11
0.0000000000000001
 21
1.0
 31
0.0
 73
     1
 44
1.0
1001
ACAD
1000
MTEXTBEGIN
1070
    73
1070
     1
1070
    44
1040
1.0
1070
    74
1070
     0
1000
MTEXTEND
  0
POINT
  5
24EC2
330
249F8
100
AcDbEntity
  8
DEFPOINTS
 62
     0
 48
50.0
100
AcDbPoint
 10
6318.6
 20
7340.534206023831
 30
0.0
  0
POINT
  5
24EC3
330
249F8
100
AcDbEntity
  8
DEFPOINTS
 62
     0
 48
50.0
100
AcDbPoint
 10
6318.6
 20
6380.534206023831
 30
0.0
  0
POINT
  5
24EC4
330
249F8
100
AcDbEntity
  8
DEFPOINTS
 62
     0
 48
50.0
100
AcDbPoint
 10
5443.721909610674
 20
6380.534206023831
 30
0.0
  0
ENDBLK
  5
24A03
330
249F8
100
AcDbEntity
  8
0
 48
50.0
100
AcDbBlockEnd
  0
BLOCK
  5
24A0E
330
24A04
100
AcDbEntity
  8
0
 48
50.0
100
AcDbBlockBegin
  2
*D30
 70
     1
 10
0.0
 20
0.0
 30
0.0
  3
*D30
  1

  0
LINE
  5
24F46
330
24A04
100
AcDbEntity
  8
寸法
 62
     0
 48
50.0
370
    -2
100
AcDbLine
 10
6371.6
 20
7217.534206023831
 30
0.0
 11
5635.665006330073
 21
7217.534206023832
 31
0.0
  0
LINE
  5
24F47
330
24A04
100
AcDbEntity
  8
寸法
 62
     0
 48
50.0
370
    -2
100
AcDbLine
 10
6371.600000000007
 20
6578.534206023835
 30
0.0
 11
5635.665006330073
 21
6578.534206023835
 31
0.0
  0
LINE
  5
24F48
330
24A04
100
AcDbEntity
  8
寸法
 62
     0
 48
50.0
370
    -2
100
AcDbLine
 10
5695.665006330074
 20
7217.534206023832
 30
0.0
 11
5695.665006330074
 21
6578.534206023835
 31
0.0
  0
INSERT
  5
24F49
330
24A04
100
AcDbEntity
  8
寸法
 62
     0
 48
50.0
370
    -2
100
AcDbBlockReference
  2
_DOTSMALL
 10
5695.665006330074
 20
7217.534206023832
 30
0.0
 41
100.0
 42
100.0
 43
100.0
 50
90.0
  0
INSERT
  5
24F4A
330
24A04
100
AcDbEntity
  8
寸法
 62
     0
 48
50.0
370
    -2
100
AcDbBlockReference
  2
_DOTSMALL
 10
5695.665006330074
 20
6578.534206023835
 30
0.0
 41
100.0
 42
100.0
 43
100.0
 50
270.0
  0
MTEXT
  5
24F4B
330
24A04
100
AcDbEntity
  8
寸法
 62
     7
 48
50.0
100
AcDbMText
 10
5595.665006330071
 20
6898.034206023831
 30
0.0
 40
120.0
 41
0.0
 71
     5
 72
     1
  1
\A1;639
  7
STYLE1
 11
0.0000000000000001
 21
1.0
 31
0.0
 73
     1
 44
1.0
1001
ACAD
1000
MTEXTBEGIN
1070
    73
1070
     1
1070
    44
1040
1.0
1070
    74
1070
     0
1000
MTEXTEND
  0
POINT
  5
24F4C
330
24A04
100
AcDbEntity
  8
DEFPOINTS
 62
     0
 48
50.0
100
AcDbPoint
 10
6391.6
 20
7217.534206023831
 30
0.0
  0
POINT
  5
24F4D
330
24A04
100
AcDbEntity
  8
DEFPOINTS
 62
     0
 48
50.0
100
AcDbPoint
 10
6391.600000000007
 20
6578.534206023835
 30
0.0
  0
POINT
  5
24F4E
330
24A04
100
AcDbEntity
  8
DEFPOINTS
 62
     0
 48
50.0
100
AcDbPoint
 10
5695.665006330074
 20
6578.534206023835
 30
0.0
  0
ENDBLK
  5
24A0F
330
24A04
100
AcDbEntity
  8
0
 48
50.0
100
AcDbBlockEnd
  0
BLOCK
  5
24A27
330
24A1C
100
AcDbEntity
  8
0
 48
50.0
100
AcDbBlockBegin
  2
*D31
 70
     1
 10
0.0
 20
0.0
 30
0.0
  3
*D31
  1

  0
LINE
  5
24F3C
330
24A1C
100
AcDbEntity
  8
寸法
 62
     0
 48
50.0
370
    -2
100
AcDbLine
 10
6371.600000000007
 20
6578.534206023835
 30
0.0
 11
5635.665006330073
 21
6578.534206023835
 31
0.0
  0
LINE
  5
24F3D
330
24A1C
100
AcDbEntity
  8
寸法
 62
     0
 48
50.0
370
    -2
100
AcDbLine
 10
6298.6
 20
6380.534206023831
 30
0.0
 11
5635.665006330073
 21
6380.534206023831
 31
0.0
  0
LINE
  5
24F3E
330
24A1C
100
AcDbEntity
  8
寸法
 62
     0
 48
50.0
370
    -2
100
AcDbLine
 10
5695.665006330074
 20
6578.534206023835
 30
0.0
 11
5695.665006330074
 21
6380.534206023831
 31
0.0
  0
LINE
  5
24F3F
330
24A1C
100
AcDbEntity
  8
寸法
 62
     0
 48
50.0
370
    -2
100
AcDbLine
 10
5695.665006330074
 20
6380.534206023831
 30
0.0
 11
5695.665006330072
 21
5908.793597351581
 31
0.0
  0
INSERT
  5
24F40
330
24A1C
100
AcDbEntity
  8
寸法
 62
     0
 48
50.0
370
    -2
100
AcDbBlockReference
  2
_DOTSMALL
 10
5695.665006330074
 20
6578.534206023835
 30
0.0
 41
100.0
 42
100.0
 43
100.0
 50
90.0
  0
INSERT
  5
24F41
330
24A1C
100
AcDbEntity
  8
寸法
 62
     0
 48
50.0
370
    -2
100
AcDbBlockReference
  2
_DOTSMALL
 10
5695.665006330074
 20
6380.534206023831
 30
0.0
 41
100.0
 42
100.0
 43
100.0
 50
270.0
  0
MTEXT
  5
24F42
330
24A1C
100
AcDbEntity
  8
寸法
 62
     7
 48
50.0
100
AcDbMText
 10
5595.665006330071
 20
6045.003257181239
 30
0.0
 40
120.0
 41
0.0
 71
     5
 72
     1
  1
\A1;198
  7
STYLE1
 11
0.0000000000000001
 21
1.0
 31
0.0
 73
     1
 44
1.0
1001
ACAD
1000
MTEXTBEGIN
1070
    73
1070
     1
1070
    44
1040
1.0
1070
    74
1070
     0
1000
MTEXTEND
  0
POINT
  5
24F43
330
24A1C
100
AcDbEntity
  8
DEFPOINTS
 62
     0
 48
50.0
100
AcDbPoint
 10
6391.600000000007
 20
6578.534206023835
 30
0.0
  0
POINT
  5
24F44
330
24A1C
100
AcDbEntity
  8
DEFPOINTS
 62
     0
 48
50.0
100
AcDbPoint
 10
6318.6
 20
6380.534206023831
 30
0.0
  0
POINT
  5
24F45
330
24A1C
100
AcDbEntity
  8
DEFPOINTS
 62
     0
 48
50.0
100
AcDbPoint
 10
5695.665006330074
 20
6380.534206023831
 30
0.0
  0
ENDBLK
  5
24A28
330
24A1C
100
AcDbEntity
  8
0
 48
50.0
100
AcDbBlockEnd
  0
BLOCK
  5
24A33
330
24A29
100
AcDbEntity
  8
0
 48
50.0
100
AcDbBlockBegin
  2
*D32
 70
     1
 10
0.0
 20
0.0
 30
0.0
  3
*D32
  1

  0
LINE
  5
24EC5
330
24A29
100
AcDbEntity
  8
寸法
 62
     0
 48
50.0
370
    -2
100
AcDbLine
 10
6298.600000000003
 20
6380.534206023828
 30
0.0
 11
6145.51267376788
 21
6380.534206023828
 31
0.0
  0
LINE
  5
24EC6
330
24A29
100
AcDbEntity
  8
寸法
 62
     0
 48
50.0
370
    -2
100
AcDbLine
 10
6654.325326928809
 20
5660.534206023827
 30
0.0
 11
6145.512673767879
 21
5660.534206023827
 31
0.0
  0
LINE
  5
24EC7
330
24A29
100
AcDbEntity
  8
寸法
 62
     0
 48
50.0
370
    -2
100
AcDbLine
 10
6205.512673767881
 20
6380.534206023828
 30
0.0
 11
6205.51267376788
 21
5660.534206023827
 31
0.0
  0
INSERT
  5
24EC8
330
24A29
100
AcDbEntity
  8
寸法
 62
     0
 48
50.0
370
    -2
100
AcDbBlockReference
  2
_DOTSMALL
 10
6205.512673767881
 20
6380.534206023828
 30
0.0
 41
100.0
 42
100.0
 43
100.0
 50
90.0
  0
INSERT
  5
24EC9
330
24A29
100
AcDbEntity
  8
寸法
 62
     0
 48
50.0
370
    -2
100
AcDbBlockReference
  2
_DOTSMALL
 10
6205.51267376788
 20
5660.534206023827
 30
0.0
 41
100.0
 42
100.0
 43
100.0
 50
270.0
  0
MTEXT
  5
24ECA
330
24A29
100
AcDbEntity
  8
寸法
 62
     7
 48
50.0
100
AcDbMText
 10
6105.500862744257
 20
6020.534206023829
 30
0.0
 40
120.0
 41
0.0
 71
     5
 72
     1
  1
\A1;扉の出720
  7
STYLE1
 11
0.0000000000000001
 21
1.0
 31
0.0
 73
     1
 44
1.0
1001
ACAD
1000
MTEXTBEGIN
1070
    73
1070
     1
1070
    44
1040
1.0
1070
    74
1070
     0
1000
MTEXTEND
  0
POINT
  5
24ECB
330
24A29
100
AcDbEntity
  8
DEFPOINTS
 62
     0
 48
50.0
100
AcDbPoint
 10
6318.600000000004
 20
6380.534206023828
 30
0.0
  0
POINT
  5
24ECC
330
24A29
100
AcDbEntity
  8
DEFPOINTS
 62
     0
 48
50.0
100
AcDbPoint
 10
6674.325326928808
 20
5660.534206023827
 30
0.0
  0
POINT
  5
24ECD
330
24A29
100
AcDbEntity
  8
DEFPOINTS
 62
     0
 48
50.0
100
AcDbPoint
 10
6205.51267376788
 20
5660.534206023827
 30
0.0
  0
ENDBLK
  5
24A34
330
24A29
100
AcDbEntity
  8
0
 48
50.0
100
AcDbBlockEnd
  0
BLOCK
  5
24A4B
330
24A42
100
AcDbEntity
  8
0
 48
50.0
100
AcDbBlockBegin
  2
*D33
 70
     1
 10
0.0
 20
0.0
 30
0.0
  3
*D33
  1

  0
LINE
  5
24E7B
330
24A42
100
AcDbEntity
  8
寸法
 62
     0
 48
50.0
370
    -2
100
AcDbLine
 10
8105.6
 20
7287.534206023831
 30
0.0
 11
8105.6
 21
8126.800664117743
 31
0.0
  0
LINE
  5
24E7C
330
24A42
100
AcDbEntity
  8
寸法
 62
     0
 48
50.0
370
    -2
100
AcDbLine
 10
6441.600000000001
 20
7287.534206023831
 30
0.0
 11
6441.600000000001
 21
8126.800664117743
 31
0.0
  0
LINE
  5
24E7D
330
24A42
100
AcDbEntity
  8
寸法
 62
     0
 48
50.0
370
    -2
100
AcDbLine
 10
8105.6
 20
8066.80066411774
 30
0.0
 11
6441.600000000001
 21
8066.80066411774
 31
0.0
  0
INSERT
  5
24E7E
330
24A42
100
AcDbEntity
  8
寸法
 62
     0
 48
50.0
370
    -2
100
AcDbBlockReference
  2
_DOTSMALL
 10
8105.6
 20
8066.80066411774
 30
0.0
 41
100.0
 42
100.0
 43
100.0
  0
INSERT
  5
24E7F
330
24A42
100
AcDbEntity
  8
寸法
 62
     0
 48
50.0
370
    -2
100
AcDbBlockReference
  2
_DOTSMALL
 10
6441.600000000001
 20
8066.80066411774
 30
0.0
 41
100.0
 42
100.0
 43
100.0
 50
180.0
  0
MTEXT
  5
24E80
330
24A42
100
AcDbEntity
  8
寸法
 62
     7
 48
50.0
100
AcDbMText
 10
7273.6
 20
8166.800664117742
 30
0.0
 40
120.0
 41
0.0
 71
     5
 72
     1
  1
\A1;1664
  7
STYLE1
 73
     1
 44
1.0
1001
ACAD
1000
MTEXTBEGIN
1070
    73
1070
     1
1070
    44
1040
1.0
1070
    74
1070
     0
1000
MTEXTEND
  0
POINT
  5
24E81
330
24A42
100
AcDbEntity
  8
DEFPOINTS
 62
     0
 48
50.0
100
AcDbPoint
 10
8105.6
 20
7267.534206023831
 30
0.0
  0
POINT
  5
24E82
330
24A42
100
AcDbEntity
  8
DEFPOINTS
 62
     0
 48
50.0
100
AcDbPoint
 10
6441.600000000001
 20
7267.534206023831
 30
0.0
  0
POINT
  5
24E83
330
24A42
100
AcDbEntity
  8
DEFPOINTS
 62
     0
 48
50.0
100
AcDbPoint
 10
6441.600000000001
 20
8066.80066411774
 30
0.0
  0
ENDBLK
  5
24A4C
330
24A42
100
AcDbEntity
  8
0
 48
50.0
100
AcDbBlockEnd
  0
BLOCK
  5
24A57
330
24A4D
100
AcDbEntity
  8
0
 48
50.0
100
AcDbBlockBegin
  2
*D34
 70
     1
 10
0.0
 20
0.0
 30
0.0
  3
*D34
  1

  0
LINE
  5
24E72
330
24A4D
100
AcDbEntity
  8
寸法
 62
     0
 48
50.0
370
    -2
100
AcDbLine
 10
7273.600000000008
 20
6930.534206023832
 30
0.0
 11
7273.600000000008
 21
7883.143022694079
 31
0.0
  0
LINE
  5
24E73
330
24A4D
100
AcDbEntity
  8
寸法
 62
     0
 48
50.0
370
    -2
100
AcDbLine
 10
6318.6
 20
7360.534206023832
 30
0.0
 11
6318.6
 21
7883.143022694079
 31
0.0
  0
LINE
  5
24E74
330
24A4D
100
AcDbEntity
  8
寸法
 62
     0
 48
50.0
370
    -2
100
AcDbLine
 10
7273.600000000008
 20
7823.143022694079
 30
0.0
 11
6318.6
 21
7823.143022694079
 31
0.0
  0
INSERT
  5
24E75
330
24A4D
100
AcDbEntity
  8
寸法
 62
     0
 48
50.0
370
    -2
100
AcDbBlockReference
  2
_DOTSMALL
 10
7273.600000000008
 20
7823.143022694079
 30
0.0
 41
100.0
 42
100.0
 43
100.0
  0
INSERT
  5
24E76
330
24A4D
100
AcDbEntity
  8
寸法
 62
     0
 48
50.0
370
    -2
100
AcDbBlockReference
  2
_DOTSMALL
 10
6318.6
 20
7823.143022694079
 30
0.0
 41
100.0
 42
100.0
 43
100.0
 50
180.0
  0
MTEXT
  5
24E77
330
24A4D
100
AcDbEntity
  8
寸法
 62
     7
 48
50.0
100
AcDbMText
 10
6796.100000000004
 20
7923.143022694079
 30
0.0
 40
120.0
 41
0.0
 71
     5
 72
     1
  1
\A1;955
  7
STYLE1
 73
     1
 44
1.0
1001
ACAD
1000
MTEXTBEGIN
1070
    73
1070
     1
1070
    44
1040
1.0
1070
    74
1070
     0
1000
MTEXTEND
  0
POINT
  5
24E78
330
24A4D
100
AcDbEntity
  8
DEFPOINTS
 62
     0
 48
50.0
100
AcDbPoint
 10
7273.600000000008
 20
6910.534206023831
 30
0.0
  0
POINT
  5
24E79
330
24A4D
100
AcDbEntity
  8
DEFPOINTS
 62
     0
 48
50.0
100
AcDbPoint
 10
6318.6
 20
7340.534206023831
 30
0.0
  0
POINT
  5
24E7A
330
24A4D
100
AcDbEntity
  8
DEFPOINTS
 62
     0
 48
50.0
100
AcDbPoint
 10
6318.6
 20
7823.143022694079
 30
0.0
  0
ENDBLK
  5
24A58
330
24A4D
100
AcDbEntity
  8
0
 48
50.0
100
AcDbBlockEnd
  0
BLOCK
  5
24A64
330
24A59
100
AcDbEntity
  8
0
 48
50.0
100
AcDbBlockBegin
  2
*D35
 70
     1
 10
0.0
 20
0.0
 30
0.0
  3
*D35
  1

  0
LINE
  5
24E68
330
24A59
100
AcDbEntity
  8
寸法
 62
     0
 48
50.0
370
    -2
100
AcDbLine
 10
7203.600000000007
 20
6860.534206023832
 30
0.0
 11
6741.285990614301
 21
6860.534206023832
 31
0.0
  0
LINE
  5
24E69
330
24A59
100
AcDbEntity
  8
寸法
 62
     0
 48
50.0
370
    -2
100
AcDbLine
 10
6872.765475140901
 20
7340.534206023831
 30
0.0
 11
6741.285990614301
 21
7340.534206023831
 31
0.0
  0
LINE
  5
24E6A
330
24A59
100
AcDbEntity
  8
寸法
 62
     0
 48
50.0
370
    -2
100
AcDbLine
 10
6801.2859906143
 20
6860.534206023832
 30
0.0
 11
6801.2859906143
 21
7340.534206023831
 31
0.0
  0
LINE
  5
24E6B
330
24A59
100
AcDbEntity
  8
寸法
 62
     0
 48
50.0
370
    -2
100
AcDbLine
 10
6801.2859906143
 20
7340.534206023831
 30
0.0
 11
6801.2859906143
 21
7787.140505236429
 31
0.0
  0
INSERT
  5
24E6C
330
24A59
100
AcDbEntity
  8
寸法
 62
     0
 48
50.0
370
    -2
100
AcDbBlockReference
  2
_DOTSMALL
 10
6801.2859906143
 20
6860.534206023832
 30
0.0
 41
100.0
 42
100.0
 43
100.0
 50
270.0
  0
INSERT
  5
24E6D
330
24A59
100
AcDbEntity
  8
寸法
 62
     0
 48
50.0
370
    -2
100
AcDbBlockReference
  2
_DOTSMALL
 10
6801.2859906143
 20
7340.534206023831
 30
0.0
 41
100.0
 42
100.0
 43
100.0
 50
90.0
  0
MTEXT
  5
24E6E
330
24A59
100
AcDbEntity
  8
寸法
 62
     7
 48
50.0
100
AcDbMText
 10
6701.285990614301
 20
7633.093261141943
 30
0.0
 40
120.0
 41
0.0
 71
     5
 72
     1
  1
\A1;480
  7
STYLE1
 11
0.0000000000000001
 21
1.0
 31
0.0
 73
     1
 44
1.0
1001
ACAD
1000
MTEXTBEGIN
1070
    73
1070
     1
1070
    44
1040
1.0
1070
    74
1070
     0
1000
MTEXTEND
  0
POINT
  5
24E6F
330
24A59
100
AcDbEntity
  8
DEFPOINTS
 62
     0
 48
50.0
100
AcDbPoint
 10
7223.600000000008
 20
6860.534206023832
 30
0.0
  0
POINT
  5
24E70
330
24A59
100
AcDbEntity
  8
DEFPOINTS
 62
     0
 48
50.0
100
AcDbPoint
 10
6892.765475140901
 20
7340.534206023831
 30
0.0
  0
POINT
  5
24E71
330
24A59
100
AcDbEntity
  8
DEFPOINTS
 62
     0
 48
50.0
100
AcDbPoint
 10
6801.2859906143
 20
7340.534206023831
 30
0.0
  0
ENDBLK
  5
24A65
330
24A59
100
AcDbEntity
  8
0
 48
50.0
100
AcDbBlockEnd
  0
BLOCK
  5
24A7E
330
24A73
100
AcDbEntity
  8
0
 48
50.0
100
AcDbBlockBegin
  2
*D36
 70
     1
 10
0.0
 20
0.0
 30
0.0
  3
*D36
  1

  0
LINE
  5
24E5E
330
24A73
100
AcDbEntity
  8
寸法
 62
     0
 48
50.0
370
    -2
100
AcDbLine
 10
6441.600000000001
 20
7287.534206023831
 30
0.0
 11
6441.600000000001
 21
8126.800664117743
 31
0.0
  0
LINE
  5
24E5F
330
24A73
100
AcDbEntity
  8
寸法
 62
     0
 48
50.0
370
    -2
100
AcDbLine
 10
6318.6
 20
7360.534206023832
 30
0.0
 11
6318.6
 21
8126.800664117743
 31
0.0
  0
LINE
  5
24E60
330
24A73
100
AcDbEntity
  8
寸法
 62
     0
 48
50.0
370
    -2
100
AcDbLine
 10
6441.600000000001
 20
8066.80066411774
 30
0.0
 11
6318.6
 21
8066.80066411774
 31
0.0
  0
LINE
  5
24E61
330
24A73
100
AcDbEntity
  8
寸法
 62
     0
 48
50.0
370
    -2
100
AcDbLine
 10
6318.6
 20
8066.80066411774
 30
0.0
 11
5907.008116907963
 21
8066.80066411774
 31
0.0
  0
INSERT
  5
24E62
330
24A73
100
AcDbEntity
  8
寸法
 62
     0
 48
50.0
370
    -2
100
AcDbBlockReference
  2
_DOTSMALL
 10
6441.600000000001
 20
8066.80066411774
 30
0.0
 41
100.0
 42
100.0
 43
100.0
  0
INSERT
  5
24E63
330
24A73
100
AcDbEntity
  8
寸法
 62
     0
 48
50.0
370
    -2
100
AcDbBlockReference
  2
_DOTSMALL
 10
6318.6
 20
8066.80066411774
 30
0.0
 41
100.0
 42
100.0
 43
100.0
 50
180.0
  0
MTEXT
  5
24E64
330
24A73
100
AcDbEntity
  8
寸法
 62
     7
 48
50.0
100
AcDbMText
 10
6045.493398282202
 20
8166.812475141362
 30
0.0
 40
120.0
 41
0.0
 71
     5
 72
     1
  1
\A1;123
  7
STYLE1
 73
     1
 44
1.0
1001
ACAD
1000
MTEXTBEGIN
1070
    73
1070
     1
1070
    44
1040
1.0
1070
    74
1070
     0
1000
MTEXTEND
  0
POINT
  5
24E65
330
24A73
100
AcDbEntity
  8
DEFPOINTS
 62
     0
 48
50.0
100
AcDbPoint
 10
6441.600000000001
 20
7267.534206023831
 30
0.0
  0
POINT
  5
24E66
330
24A73
100
AcDbEntity
  8
DEFPOINTS
 62
     0
 48
50.0
100
AcDbPoint
 10
6318.6
 20
7340.534206023831
 30
0.0
  0
POINT
  5
24E67
330
24A73
100
AcDbEntity
  8
DEFPOINTS
 62
     0
 48
50.0
100
AcDbPoint
 10
6318.6
 20
8066.80066411774
 30
0.0
  0
ENDBLK
  5
24A7F
330
24A73
100
AcDbEntity
  8
0
 48
50.0
100
AcDbBlockEnd
  0
BLOCK
  5
24A95
330
24A8A
100
AcDbEntity
  8
0
 48
50.0
100
AcDbBlockBegin
  2
*D37
 70
     1
 10
0.0
 20
0.0
 30
0.0
  3
*D37
  1

  0
LINE
  5
24E9F
330
24A8A
100
AcDbEntity
  8
寸法
 62
     0
 48
50.0
370
    -2
100
AcDbLine
 10
6298.6
 20
7340.534206023831
 30
0.0
 11
5635.665006330071
 21
7340.534206023832
 31
0.0
  0
LINE
  5
24EA0
330
24A8A
100
AcDbEntity
  8
寸法
 62
     0
 48
50.0
370
    -2
100
AcDbLine
 10
6371.6
 20
7217.534206023831
 30
0.0
 11
5635.665006330071
 21
7217.534206023832
 31
0.0
  0
LINE
  5
24EA1
330
24A8A
100
AcDbEntity
  8
寸法
 62
     0
 48
50.0
370
    -2
100
AcDbLine
 10
5695.665006330072
 20
7217.534206023832
 30
0.0
 11
5695.665006330072
 21
7340.534206023832
 31
0.0
  0
LINE
  5
24EA2
330
24A8A
100
AcDbEntity
  8
寸法
 62
     0
 48
50.0
370
    -2
100
AcDbLine
 10
5695.665006330072
 20
7340.534206023832
 30
0.0
 11
5695.665006330072
 21
7752.126089115868
 31
0.0
  0
INSERT
  5
24EA3
330
24A8A
100
AcDbEntity
  8
寸法
 62
     0
 48
50.0
370
    -2
100
AcDbBlockReference
  2
_DOTSMALL
 10
5695.665006330072
 20
7217.534206023832
 30
0.0
 41
100.0
 42
100.0
 43
100.0
 50
270.0
  0
INSERT
  5
24EA4
330
24A8A
100
AcDbEntity
  8
寸法
 62
     0
 48
50.0
370
    -2
100
AcDbBlockReference
  2
_DOTSMALL
 10
5695.665006330072
 20
7340.534206023832
 30
0.0
 41
100.0
 42
100.0
 43
100.0
 50
90.0
  0
MTEXT
  5
24EA5
330
24A8A
100
AcDbEntity
  8
寸法
 62
     7
 48
50.0
100
AcDbMText
 10
5595.65319530645
 20
7613.640807741631
 30
0.0
 40
120.0
 41
0.0
 71
     5
 72
     1
  1
\A1;123
  7
STYLE1
 11
0.0000000000000001
 21
1.0
 31
0.0
 73
     1
 44
1.0
1001
ACAD
1000
MTEXTBEGIN
1070
    73
1070
     1
1070
    44
1040
1.0
1070
    74
1070
     0
1000
MTEXTEND
  0
POINT
  5
24EA6
330
24A8A
100
AcDbEntity
  8
DEFPOINTS
 62
     0
 48
50.0
100
AcDbPoint
 10
6318.6
 20
7340.534206023831
 30
0.0
  0
POINT
  5
24EA7
330
24A8A
100
AcDbEntity
  8
DEFPOINTS
 62
     0
 48
50.0
100
AcDbPoint
 10
6391.6
 20
7217.534206023831
 30
0.0
  0
POINT
  5
24EA8
330
24A8A
100
AcDbEntity
  8
DEFPOINTS
 62
     0
 48
50.0
100
AcDbPoint
 10
5695.665006330072
 20
7217.534206023832
 30
0.0
  0
ENDBLK
  5
24A96
330
24A8A
100
AcDbEntity
  8
0
 48
50.0
100
AcDbBlockEnd
  0
BLOCK
  5
24AA0
330
24A97
100
AcDbEntity
  8
0
 48
50.0
100
AcDbBlockBegin
  2
*D38
 70
     1
 10
0.0
 20
0.0
 30
0.0
  3
*D38
  1

  0
LINE
  5
24E55
330
24A97
100
AcDbEntity
  8
寸法
 62
     0
 48
50.0
370
    -2
100
AcDbLine
 10
8223.600000000008
 20
6930.534206023832
 30
0.0
 11
8223.600000000008
 21
7883.143022694079
 31
0.0
  0
LINE
  5
24E56
330
24A97
100
AcDbEntity
  8
寸法
 62
     0
 48
50.0
370
    -2
100
AcDbLine
 10
7273.600000000008
 20
6930.534206023832
 30
0.0
 11
7273.600000000008
 21
7883.143022694079
 31
0.0
  0
LINE
  5
24E57
330
24A97
100
AcDbEntity
  8
寸法
 62
     0
 48
50.0
370
    -2
100
AcDbLine
 10
8223.600000000008
 20
7823.143022694079
 30
0.0
 11
7273.600000000008
 21
7823.143022694079
 31
0.0
  0
INSERT
  5
24E58
330
24A97
100
AcDbEntity
  8
寸法
 62
     0
 48
50.0
370
    -2
100
AcDbBlockReference
  2
_DOTSMALL
 10
8223.600000000008
 20
7823.143022694079
 30
0.0
 41
100.0
 42
100.0
 43
100.0
  0
INSERT
  5
24E59
330
24A97
100
AcDbEntity
  8
寸法
 62
     0
 48
50.0
370
    -2
100
AcDbBlockReference
  2
_DOTSMALL
 10
7273.600000000008
 20
7823.143022694079
 30
0.0
 41
100.0
 42
100.0
 43
100.0
 50
180.0
  0
MTEXT
  5
24E5A
330
24A97
100
AcDbEntity
  8
寸法
 62
     7
 48
50.0
100
AcDbMText
 10
7748.600000000007
 20
7923.143022694079
 30
0.0
 40
120.0
 41
0.0
 71
     5
 72
     1
  1
\A1;950
  7
STYLE1
 73
     1
 44
1.0
1001
ACAD
1000
MTEXTBEGIN
1070
    73
1070
     1
1070
    44
1040
1.0
1070
    74
1070
     0
1000
MTEXTEND
  0
POINT
  5
24E5B
330
24A97
100
AcDbEntity
  8
DEFPOINTS
 62
     0
 48
50.0
100
AcDbPoint
 10
8223.600000000008
 20
6910.534206023831
 30
0.0
  0
POINT
  5
24E5C
330
24A97
100
AcDbEntity
  8
DEFPOINTS
 62
     0
 48
50.0
100
AcDbPoint
 10
7273.600000000008
 20
6910.534206023831
 30
0.0
  0
POINT
  5
24E5D
330
24A97
100
AcDbEntity
  8
DEFPOINTS
 62
     0
 48
50.0
100
AcDbPoint
 10
7273.600000000008
 20
7823.143022694079
 30
0.0
  0
ENDBLK
  5
24AA1
330
24A97
100
AcDbEntity
  8
0
 48
50.0
100
AcDbBlockEnd
  0
BLOCK
  5
24AB9
330
24AAF
100
AcDbEntity
  8
0
 48
50.0
100
AcDbBlockBegin
  2
*D39
 70
     1
 10
0.0
 20
0.0
 30
0.0
  3
*D39
  1

  0
LINE
  5
24E4C
330
24AAF
100
AcDbEntity
  8
寸法
 62
     0
 48
50.0
370
    -2
100
AcDbLine
 10
10128.6
 20
7360.534206023832
 30
0.0
 11
10128.6
 21
7883.143022694079
 31
0.0
  0
LINE
  5
24E4D
330
24AAF
100
AcDbEntity
  8
寸法
 62
     0
 48
50.0
370
    -2
100
AcDbLine
 10
9173.600000000007
 20
6930.534206023832
 30
0.0
 11
9173.600000000007
 21
7883.143022694079
 31
0.0
  0
LINE
  5
24E4E
330
24AAF
100
AcDbEntity
  8
寸法
 62
     0
 48
50.0
370
    -2
100
AcDbLine
 10
10128.6
 20
7823.143022694079
 30
0.0
 11
9173.600000000007
 21
7823.143022694079
 31
0.0
  0
INSERT
  5
24E4F
330
24AAF
100
AcDbEntity
  8
寸法
 62
     0
 48
50.0
370
    -2
100
AcDbBlockReference
  2
_DOTSMALL
 10
10128.6
 20
7823.143022694079
 30
0.0
 41
100.0
 42
100.0
 43
100.0
  0
INSERT
  5
24E50
330
24AAF
100
AcDbEntity
  8
寸法
 62
     0
 48
50.0
370
    -2
100
AcDbBlockReference
  2
_DOTSMALL
 10
9173.600000000007
 20
7823.143022694079
 30
0.0
 41
100.0
 42
100.0
 43
100.0
 50
180.0
  0
MTEXT
  5
24E51
330
24AAF
100
AcDbEntity
  8
寸法
 62
     7
 48
50.0
100
AcDbMText
 10
9651.100000000004
 20
7923.143022694079
 30
0.0
 40
120.0
 41
0.0
 71
     5
 72
     1
  1
\A1;955
  7
STYLE1
 73
     1
 44
1.0
1001
ACAD
1000
MTEXTBEGIN
1070
    73
1070
     1
1070
    44
1040
1.0
1070
    74
1070
     0
1000
MTEXTEND
  0
POINT
  5
24E52
330
24AAF
100
AcDbEntity
  8
DEFPOINTS
 62
     0
 48
50.0
100
AcDbPoint
 10
10128.6
 20
7340.534206023831
 30
0.0
  0
POINT
  5
24E53
330
24AAF
100
AcDbEntity
  8
DEFPOINTS
 62
     0
 48
50.0
100
AcDbPoint
 10
9173.600000000007
 20
6910.534206023831
 30
0.0
  0
POINT
  5
24E54
330
24AAF
100
AcDbEntity
  8
DEFPOINTS
 62
     0
 48
50.0
100
AcDbPoint
 10
9173.600000000007
 20
7823.143022694079
 30
0.0
  0
ENDBLK
  5
24ABA
330
24AAF
100
AcDbEntity
  8
0
 48
50.0
100
AcDbBlockEnd
  0
BLOCK
  5
24AC6
330
24ABB
100
AcDbEntity
  8
0
 48
50.0
100
AcDbBlockBegin
  2
*D40
 70
     1
 10
0.0
 20
0.0
 30
0.0
  3
*D40
  1

  0
LINE
  5
24E42
330
24ABB
100
AcDbEntity
  8
寸法
 62
     0
 48
50.0
370
    -2
100
AcDbLine
 10
10128.6
 20
7360.534206023832
 30
0.0
 11
10128.6
 21
8126.800664117743
 31
0.0
  0
LINE
  5
24E43
330
24ABB
100
AcDbEntity
  8
寸法
 62
     0
 48
50.0
370
    -2
100
AcDbLine
 10
10005.6
 20
7287.534206023831
 30
0.0
 11
10005.6
 21
8126.800664117743
 31
0.0
  0
LINE
  5
24E44
330
24ABB
100
AcDbEntity
  8
寸法
 62
     0
 48
50.0
370
    -2
100
AcDbLine
 10
10005.6
 20
8066.80066411774
 30
0.0
 11
10128.6
 21
8066.80066411774
 31
0.0
  0
LINE
  5
24E45
330
24ABB
100
AcDbEntity
  8
寸法
 62
     0
 48
50.0
370
    -2
100
AcDbLine
 10
10128.6
 20
8066.80066411774
 30
0.0
 11
10540.19188309204
 21
8066.80066411774
 31
0.0
  0
INSERT
  5
24E46
330
24ABB
100
AcDbEntity
  8
寸法
 62
     0
 48
50.0
370
    -2
100
AcDbBlockReference
  2
_DOTSMALL
 10
10005.6
 20
8066.80066411774
 30
0.0
 41
100.0
 42
100.0
 43
100.0
 50
180.0
  0
INSERT
  5
24E47
330
24ABB
100
AcDbEntity
  8
寸法
 62
     0
 48
50.0
370
    -2
100
AcDbBlockReference
  2
_DOTSMALL
 10
10128.6
 20
8066.80066411774
 30
0.0
 41
100.0
 42
100.0
 43
100.0
  0
MTEXT
  5
24E48
330
24ABB
100
AcDbEntity
  8
寸法
 62
     7
 48
50.0
100
AcDbMText
 10
10401.7066017178
 20
8166.812475141362
 30
0.0
 40
120.0
 41
0.0
 71
     5
 72
     1
  1
\A1;123
  7
STYLE1
 73
     1
 44
1.0
1001
ACAD
1000
MTEXTBEGIN
1070
    73
1070
     1
1070
    44
1040
1.0
1070
    74
1070
     0
1000
MTEXTEND
  0
POINT
  5
24E49
330
24ABB
100
AcDbEntity
  8
DEFPOINTS
 62
     0
 48
50.0
100
AcDbPoint
 10
10128.6
 20
7340.534206023831
 30
0.0
  0
POINT
  5
24E4A
330
24ABB
100
AcDbEntity
  8
DEFPOINTS
 62
     0
 48
50.0
100
AcDbPoint
 10
10005.6
 20
7267.534206023831
 30
0.0
  0
POINT
  5
24E4B
330
24ABB
100
AcDbEntity
  8
DEFPOINTS
 62
     0
 48
50.0
100
AcDbPoint
 10
10005.6
 20
8066.80066411774
 30
0.0
  0
ENDBLK
  5
24AC7
330
24ABB
100
AcDbEntity
  8
0
 48
50.0
100
AcDbBlockEnd
  0
BLOCK
  5
252C7
330
252BD
100
AcDbEntity
  8
0
 48
50.0
100
AcDbBlockBegin
  2
*D41
 70
     1
 10
0.0
 20
0.0
 30
0.0
  3
*D41
  1

  0
LINE
  5
25307
330
252BD
100
AcDbEntity
  8
寸法
 62
     0
 48
50.0
370
    -2
100
AcDbLine
 10
6437.383535728691
 20
1890.397025937816
 30
0.0
 11
6437.383535728691
 21
2350.064833854197
 31
0.0
  0
LINE
  5
25308
330
252BD
100
AcDbEntity
  8
寸法
 62
     0
 48
50.0
370
    -2
100
AcDbLine
 10
6245.383535728691
 20
1890.397025937816
 30
0.0
 11
6245.383535728691
 21
2350.064833854197
 31
0.0
  0
LINE
  5
25309
330
252BD
100
AcDbEntity
  8
寸法
 62
     0
 48
50.0
370
    -2
100
AcDbLine
 10
6437.383535728691
 20
2290.064833854197
 30
0.0
 11
6245.383535728691
 21
2290.064833854197
 31
0.0
  0
INSERT
  5
2530A
330
252BD
100
AcDbEntity
  8
寸法
 62
     0
 48
50.0
370
    -2
100
AcDbBlockReference
  2
_DOTSMALL
 10
6437.383535728691
 20
2290.064833854197
 30
0.0
 41
100.0
 42
100.0
 43
100.0
  0
INSERT
  5
2530B
330
252BD
100
AcDbEntity
  8
寸法
 62
     0
 48
50.0
370
    -2
100
AcDbBlockReference
  2
_DOTSMALL
 10
6245.383535728691
 20
2290.064833854197
 30
0.0
 41
100.0
 42
100.0
 43
100.0
 50
180.0
  0
MTEXT
  5
2530C
330
252BD
100
AcDbEntity
  8
寸法
 62
     7
 48
50.0
100
AcDbMText
 10
6341.383535728691
 20
2590.100266925063
 30
0.0
 40
120.0
 41
0.0
 71
     5
 72
     1
  1
\A1;120\P200\P280
  7
STYLE1
 73
     1
 44
1.0
1001
ACAD
1000
MTEXTBEGIN
1070
    73
1070
     1
1070
    44
1040
1.0
1070
    74
1070
     0
1000
MTEXTEND
  0
POINT
  5
2530D
330
252BD
100
AcDbEntity
  8
DEFPOINTS
 62
     0
 48
50.0
100
AcDbPoint
 10
6437.383535728691
 20
1870.397025937817
 30
0.0
  0
POINT
  5
2530E
330
252BD
100
AcDbEntity
  8
DEFPOINTS
 62
     0
 48
50.0
100
AcDbPoint
 10
6245.383535728691
 20
1870.397025937817
 30
0.0
  0
POINT
  5
2530F
330
252BD
100
AcDbEntity
  8
DEFPOINTS
 62
     0
 48
50.0
100
AcDbPoint
 10
6245.383535728691
 20
2290.064833854197
 30
0.0
  0
ENDBLK
  5
252C8
330
252BD
100
AcDbEntity
  8
0
 48
50.0
100
AcDbBlockEnd
  0
BLOCK
  5
252D3
330
252C9
100
AcDbEntity
  8
0
 48
50.0
100
AcDbBlockBegin
  2
*D42
 70
     1
 10
0.0
 20
0.0
 30
0.0
  3
*D42
  1

  0
LINE
  5
25310
330
252C9
100
AcDbEntity
  8
寸法
 62
     0
 48
50.0
370
    -2
100
AcDbLine
 10
6117.383535728691
 20
938.3970259378166
 30
0.0
 11
6117.383535728691
 21
487.9673879326564
 31
0.0
  0
LINE
  5
25311
330
252C9
100
AcDbEntity
  8
寸法
 62
     0
 48
50.0
370
    -2
100
AcDbLine
 10
6565.383535728691
 20
938.3970259378166
 30
0.0
 11
6565.383535728691
 21
487.9673879326564
 31
0.0
  0
LINE
  5
25312
330
252C9
100
AcDbEntity
  8
寸法
 62
     0
 48
50.0
370
    -2
100
AcDbLine
 10
6117.383535728691
 20
547.9673879326565
 30
0.0
 11
6565.383535728691
 21
547.9673879326565
 31
0.0
  0
INSERT
  5
25313
330
252C9
100
AcDbEntity
  8
寸法
 62
     0
 48
50.0
370
    -2
100
AcDbBlockReference
  2
_DOTSMALL
 10
6117.383535728691
 20
547.9673879326565
 30
0.0
 41
100.0
 42
100.0
 43
100.0
 50
180.0
  0
INSERT
  5
25314
330
252C9
100
AcDbEntity
  8
寸法
 62
     0
 48
50.0
370
    -2
100
AcDbBlockReference
  2
_DOTSMALL
 10
6565.383535728691
 20
547.9673879326565
 30
0.0
 41
100.0
 42
100.0
 43
100.0
  0
MTEXT
  5
25315
330
252C9
100
AcDbEntity
  8
寸法
 62
     7
 48
50.0
100
AcDbMText
 10
6321.286777050467
 20
647.9673879326565
 30
0.0
 40
120.0
 41
0.0
 71
     5
 72
     1
  1
\A1;300
  7
STYLE1
 73
     1
 44
1.0
1001
ACAD
1000
MTEXTBEGIN
1070
    73
1070
     1
1070
    44
1040
1.0
1070
    74
1070
     0
1000
MTEXTEND
  0
POINT
  5
25316
330
252C9
100
AcDbEntity
  8
DEFPOINTS
 62
     0
 48
50.0
100
AcDbPoint
 10
6117.383535728691
 20
958.3970259378165
 30
0.0
  0
POINT
  5
25317
330
252C9
100
AcDbEntity
  8
DEFPOINTS
 62
     0
 48
50.0
100
AcDbPoint
 10
6565.383535728691
 20
958.3970259378165
 30
0.0
  0
POINT
  5
25318
330
252C9
100
AcDbEntity
  8
DEFPOINTS
 62
     0
 48
50.0
100
AcDbPoint
 10
6565.383535728691
 20
547.9673879326565
 30
0.0
  0
ENDBLK
  5
252D4
330
252C9
100
AcDbEntity
  8
0
 48
50.0
100
AcDbBlockEnd
  0
BLOCK
  5
252DF
330
252D5
100
AcDbEntity
  8
0
 48
50.0
100
AcDbBlockBegin
  2
*D43
 70
     1
 10
0.0
 20
0.0
 30
0.0
  3
*D43
  1

  0
LINE
  5
25319
330
252D5
100
AcDbEntity
  8
寸法
 62
     0
 48
50.0
370
    -2
100
AcDbLine
 10
6225.383535728691
 20
1870.397025937817
 30
0.0
 11
5450.346297166951
 21
1870.397025937817
 31
0.0
  0
LINE
  5
2531A
330
252D5
100
AcDbEntity
  8
寸法
 62
     0
 48
50.0
370
    -2
100
AcDbLine
 10
6017.383535728694
 20
1086.397025937816
 30
0.0
 11
5450.346297166951
 21
1086.397025937817
 31
0.0
  0
LINE
  5
2531B
330
252D5
100
AcDbEntity
  8
寸法
 62
     0
 48
50.0
370
    -2
100
AcDbLine
 10
5510.34629716695
 20
1870.397025937817
 30
0.0
 11
5510.34629716695
 21
1086.397025937817
 31
0.0
  0
INSERT
  5
2531C
330
252D5
100
AcDbEntity
  8
寸法
 62
     0
 48
50.0
370
    -2
100
AcDbBlockReference
  2
_DOTSMALL
 10
5510.34629716695
 20
1870.397025937817
 30
0.0
 41
100.0
 42
100.0
 43
100.0
 50
90.0
  0
INSERT
  5
2531D
330
252D5
100
AcDbEntity
  8
寸法
 62
     0
 48
50.0
370
    -2
100
AcDbBlockReference
  2
_DOTSMALL
 10
5510.34629716695
 20
1086.397025937817
 30
0.0
 41
100.0
 42
100.0
 43
100.0
 50
270.0
  0
MTEXT
  5
2531E
330
252D5
100
AcDbEntity
  8
寸法
 62
     7
 48
50.0
100
AcDbMText
 10
5410.346297166951
 20
1457.937175593817
 30
0.0
 40
120.0
 41
0.0
 71
     5
 72
     1
  1
\A1;540
  7
STYLE1
 11
0.0000000000000001
 21
1.0
 31
0.0
 73
     1
 44
1.0
1001
ACAD
1000
MTEXTBEGIN
1070
    73
1070
     1
1070
    44
1040
1.0
1070
    74
1070
     0
1000
MTEXTEND
  0
POINT
  5
2531F
330
252D5
100
AcDbEntity
  8
DEFPOINTS
 62
     0
 48
50.0
100
AcDbPoint
 10
6245.383535728691
 20
1870.397025937817
 30
0.0
  0
POINT
  5
25320
330
252D5
100
AcDbEntity
  8
DEFPOINTS
 62
     0
 48
50.0
100
AcDbPoint
 10
6037.383535728694
 20
1086.397025937816
 30
0.0
  0
POINT
  5
25321
330
252D5
100
AcDbEntity
  8
DEFPOINTS
 62
     0
 48
50.0
100
AcDbPoint
 10
5510.34629716695
 20
1086.397025937817
 30
0.0
  0
ENDBLK
  5
252E0
330
252D5
100
AcDbEntity
  8
0
 48
50.0
100
AcDbBlockEnd
  0
BLOCK
  5
252EB
330
252E1
100
AcDbEntity
  8
0
 48
50.0
100
AcDbBlockBegin
  2
*D44
 70
     1
 10
0.0
 20
0.0
 30
0.0
  3
*D44
  1

  0
LINE
  5
25322
330
252E1
100
AcDbEntity
  8
寸法
 62
     0
 48
50.0
370
    -2
100
AcDbLine
 10
6097.383535728691
 20
1326.397025937816
 30
0.0
 11
5914.963221996231
 21
1326.397025937816
 31
0.0
  0
LINE
  5
25323
330
252E1
100
AcDbEntity
  8
寸法
 62
     0
 48
50.0
370
    -2
100
AcDbLine
 10
6017.383535728694
 20
1086.397025937816
 30
0.0
 11
5914.963221996231
 21
1086.397025937816
 31
0.0
  0
LINE
  5
25324
330
252E1
100
AcDbEntity
  8
寸法
 62
     0
 48
50.0
370
    -2
100
AcDbLine
 10
5974.963221996231
 20
1326.397025937816
 30
0.0
 11
5974.963221996231
 21
1086.397025937816
 31
0.0
  0
INSERT
  5
25325
330
252E1
100
AcDbEntity
  8
寸法
 62
     0
 48
50.0
370
    -2
100
AcDbBlockReference
  2
_DOTSMALL
 10
5974.963221996231
 20
1326.397025937816
 30
0.0
 41
100.0
 42
100.0
 43
100.0
 50
90.0
  0
INSERT
  5
25326
330
252E1
100
AcDbEntity
  8
寸法
 62
     0
 48
50.0
370
    -2
100
AcDbBlockReference
  2
_DOTSMALL
 10
5974.963221996231
 20
1086.397025937816
 30
0.0
 41
100.0
 42
100.0
 43
100.0
 50
270.0
  0
MTEXT
  5
25327
330
252E1
100
AcDbEntity
  8
寸法
 62
     7
 48
50.0
100
AcDbMText
 10
5874.963221996232
 20
1206.397025937817
 30
0.0
 40
120.0
 41
0.0
 71
     5
 72
     1
  1
\A1;150
  7
STYLE1
 11
0.0000000000000001
 21
1.0
 31
0.0
 73
     1
 44
1.0
1001
ACAD
1000
MTEXTBEGIN
1070
    73
1070
     1
1070
    44
1040
1.0
1070
    74
1070
     0
1000
MTEXTEND
  0
POINT
  5
25328
330
252E1
100
AcDbEntity
  8
DEFPOINTS
 62
     0
 48
50.0
100
AcDbPoint
 10
6117.383535728691
 20
1326.397025937816
 30
0.0
  0
POINT
  5
25329
330
252E1
100
AcDbEntity
  8
DEFPOINTS
 62
     0
 48
50.0
100
AcDbPoint
 10
6037.383535728694
 20
1086.397025937816
 30
0.0
  0
POINT
  5
2532A
330
252E1
100
AcDbEntity
  8
DEFPOINTS
 62
     0
 48
50.0
100
AcDbPoint
 10
5974.963221996231
 20
1086.397025937816
 30
0.0
  0
ENDBLK
  5
252EC
330
252E1
100
AcDbEntity
  8
0
 48
50.0
100
AcDbBlockEnd
  0
BLOCK
  5
252F9
330
252ED
100
AcDbEntity
  8
0
 48
50.0
100
AcDbBlockBegin
  2
*D45
 70
     1
 10
0.0
 20
0.0
 30
0.0
  3
*D45
  1

  0
LINE
  5
2532B
330
252ED
100
AcDbEntity
  8
寸法
 62
     0
 48
50.0
370
    -2
100
AcDbLine
 10
8192.222848905885
 20
1923.157025937818
 30
0.0
 11
9197.346114793756
 21
1923.157025937817
 31
0.0
  0
LINE
  5
2532C
330
252ED
100
AcDbEntity
  8
寸法
 62
     0
 48
50.0
370
    -2
100
AcDbLine
 10
8379.422848905884
 20
1870.397025937817
 30
0.0
 11
9197.346114793756
 21
1870.397025937816
 31
0.0
  0
LINE
  5
2532D
330
252ED
100
AcDbEntity
  8
寸法
 62
     0
 48
50.0
370
    -2
100
AcDbLine
 10
9137.346114793755
 20
1923.157025937817
 30
0.0
 11
9137.346114793755
 21
2023.157025937817
 31
0.0
  0
LINE
  5
2532E
330
252ED
100
AcDbEntity
  8
寸法
 62
     0
 48
50.0
370
    -2
100
AcDbLine
 10
9137.346114793755
 20
1870.397025937816
 30
0.0
 11
9137.346114793755
 21
1138.37921909485
 31
0.0
  0
LINE
  5
2532F
330
252ED
100
AcDbEntity
  8
寸法
 62
     0
 48
50.0
370
    -2
100
AcDbLine
 10
9137.346114793755
 20
1923.157025937817
 30
0.0
 11
9137.346114793755
 21
1870.397025937816
 31
0.0
  0
INSERT
  5
25330
330
252ED
100
AcDbEntity
  8
寸法
 62
     0
 48
50.0
370
    -2
100
AcDbBlockReference
  2
_DOTSMALL
 10
9137.346114793755
 20
1923.157025937817
 30
0.0
 41
100.0
 42
100.0
 43
100.0
 50
270.0
  0
INSERT
  5
25331
330
252ED
100
AcDbEntity
  8
寸法
 62
     0
 48
50.0
370
    -2
100
AcDbBlockReference
  2
_DOTSMALL
 10
9137.346114793755
 20
1870.397025937816
 30
0.0
 41
100.0
 42
100.0
 43
100.0
 50
90.0
  0
MTEXT
  5
25332
330
252ED
100
AcDbEntity
  8
寸法
 62
     7
 48
50.0
100
AcDbMText
 10
9037.334303770135
 20
1404.388122516334
 30
0.0
 40
120.0
 41
0.0
 71
     5
 72
     1
  1
\A1;20～25
  7
STYLE1
 11
0.0000000000000001
 21
1.0
 31
0.0
 73
     1
 44
1.0
1001
ACAD
1000
MTEXTBEGIN
1070
    73
1070
     1
1070
    44
1040
1.0
1070
    74
1070
     0
1000
MTEXTEND
  0
POINT
  5
25333
330
252ED
100
AcDbEntity
  8
DEFPOINTS
 62
     0
 48
50.0
100
AcDbPoint
 10
8172.222848905885
 20
1923.157025937818
 30
0.0
  0
POINT
  5
25334
330
252ED
100
AcDbEntity
  8
DEFPOINTS
 62
     0
 48
50.0
100
AcDbPoint
 10
8359.422848905884
 20
1870.397025937817
 30
0.0
  0
POINT
  5
25335
330
252ED
100
AcDbEntity
  8
DEFPOINTS
 62
     0
 48
50.0
100
AcDbPoint
 10
9137.346114793755
 20
1870.397025937816
 30
0.0
  0
ENDBLK
  5
252FA
330
252ED
100
AcDbEntity
  8
0
 48
50.0
100
AcDbBlockEnd
  0
BLOCK
  5
25305
330
252FB
100
AcDbEntity
  8
0
 48
50.0
100
AcDbBlockBegin
  2
*D46
 70
     1
 10
0.0
 20
0.0
 30
0.0
  3
*D46
  1

  0
LINE
  5
25336
330
252FB
100
AcDbEntity
  8
寸法
 62
     0
 48
50.0
370
    -2
100
AcDbLine
 10
8379.422848905884
 20
1870.397025937817
 30
0.0
 11
8921.291448674729
 21
1870.397025937816
 31
0.0
  0
LINE
  5
25337
330
252FB
100
AcDbEntity
  8
寸法
 62
     0
 48
50.0
370
    -2
100
AcDbLine
 10
8379.422848905884
 20
1546.397025937816
 30
0.0
 11
8921.291448674729
 21
1546.397025937815
 31
0.0
  0
LINE
  5
25338
330
252FB
100
AcDbEntity
  8
寸法
 62
     0
 48
50.0
370
    -2
100
AcDbLine
 10
8861.291448674728
 20
1870.397025937816
 30
0.0
 11
8861.291448674728
 21
1546.397025937815
 31
0.0
  0
INSERT
  5
25339
330
252FB
100
AcDbEntity
  8
寸法
 62
     0
 48
50.0
370
    -2
100
AcDbBlockReference
  2
_DOTSMALL
 10
8861.291448674728
 20
1870.397025937816
 30
0.0
 41
100.0
 42
100.0
 43
100.0
 50
90.0
  0
INSERT
  5
2533A
330
252FB
100
AcDbEntity
  8
寸法
 62
     0
 48
50.0
370
    -2
100
AcDbBlockReference
  2
_DOTSMALL
 10
8861.291448674728
 20
1546.397025937815
 30
0.0
 41
100.0
 42
100.0
 43
100.0
 50
270.0
  0
MTEXT
  5
2533B
330
252FB
100
AcDbEntity
  8
寸法
 62
     7
 48
50.0
100
AcDbMText
 10
8761.291448674729
 20
1708.397025937818
 30
0.0
 40
120.0
 41
0.0
 71
     5
 72
     1
  1
\A1;180
  7
STYLE1
 11
0.0000000000000001
 21
1.0
 31
0.0
 73
     1
 44
1.0
1001
ACAD
1000
MTEXTBEGIN
1070
    73
1070
     1
1070
    44
1040
1.0
1070
    74
1070
     0
1000
MTEXTEND
  0
POINT
  5
2533C
330
252FB
100
AcDbEntity
  8
DEFPOINTS
 62
     0
 48
50.0
100
AcDbPoint
 10
8359.422848905884
 20
1870.397025937817
 30
0.0
  0
POINT
  5
2533D
330
252FB
100
AcDbEntity
  8
DEFPOINTS
 62
     0
 48
50.0
100
AcDbPoint
 10
8359.422848905884
 20
1546.397025937816
 30
0.0
  0
POINT
  5
2533E
330
252FB
100
AcDbEntity
  8
DEFPOINTS
 62
     0
 48
50.0
100
AcDbPoint
 10
8861.291448674728
 20
1546.397025937815
 30
0.0
  0
ENDBLK
  5
25306
330
252FB
100
AcDbEntity
  8
0
 48
50.0
100
AcDbBlockEnd
  0
BLOCK
  5
25355
330
25349
100
AcDbEntity
  8
0
 48
50.0
100
AcDbBlockBegin
  2
*D47
 70
     1
 10
0.0
 20
0.0
 30
0.0
  3
*D47
  1

  0
LINE
  5
25389
330
25349
100
AcDbEntity
  8
寸法
 62
     0
 48
50.0
370
    -2
100
AcDbLine
 10
10008.6
 20
7078.638597007298
 30
0.0
 11
10008.6
 21
7118.638597007299
 31
0.0
  0
LINE
  5
2538A
330
25349
100
AcDbEntity
  8
寸法
 62
     0
 48
50.0
370
    -2
100
AcDbLine
 10
10128.6
 20
7078.638597007298
 30
0.0
 11
10128.6
 21
7118.638597007299
 31
0.0
  0
LINE
  5
2538B
330
25349
100
AcDbEntity
  8
寸法
 62
     0
 48
50.0
370
    -2
100
AcDbLine
 10
10008.6
 20
7058.638597007299
 30
0.0
 11
10128.6
 21
7058.638597007299
 31
0.0
  0
LINE
  5
2538C
330
25349
100
AcDbEntity
  8
寸法
 62
     0
 48
50.0
370
    -2
100
AcDbLine
 10
10128.6
 20
7058.638597007299
 30
0.0
 11
10500.69448818897
 21
7058.638597007299
 31
0.0
  0
INSERT
  5
2538D
330
25349
100
AcDbEntity
  8
寸法
 62
     0
 48
50.0
370
    -2
100
AcDbBlockReference
  2
_DOTSMALL
 10
10008.6
 20
7058.638597007299
 30
0.0
 41
100.0
 42
100.0
 43
100.0
 50
180.0
  0
INSERT
  5
2538E
330
25349
100
AcDbEntity
  8
寸法
 62
     0
 48
50.0
370
    -2
100
AcDbBlockReference
  2
_DOTSMALL
 10
10128.6
 20
7058.638597007299
 30
0.0
 41
100.0
 42
100.0
 43
100.0
  0
MTEXT
  5
2538F
330
25349
100
AcDbEntity
  8
寸法
 62
     7
 48
50.0
100
AcDbMText
 10
10364.64724409449
 20
7158.650408030921
 30
0.0
 40
120.0
 41
0.0
 71
     5
 72
     1
  1
\A1;120
  7
STYLE1
 73
     1
 44
1.0
1001
ACAD
1000
MTEXTBEGIN
1070
    73
1070
     1
1070
    44
1040
1.0
1070
    74
1070
     0
1000
MTEXTEND
  0
POINT
  5
25390
330
25349
100
AcDbEntity
  8
DEFPOINTS
 62
     0
 48
50.0
100
AcDbPoint
 10
10008.6
 20
7058.638597007299
 30
0.0
  0
POINT
  5
25391
330
25349
100
AcDbEntity
  8
DEFPOINTS
 62
     0
 48
50.0
100
AcDbPoint
 10
10128.6
 20
7058.638597007299
 30
0.0
  0
POINT
  5
25392
330
25349
100
AcDbEntity
  8
DEFPOINTS
 62
     0
 48
50.0
100
AcDbPoint
 10
10128.6
 20
7058.638597007299
 30
0.0
  0
ENDBLK
  5
25356
330
25349
100
AcDbEntity
  8
0
 48
50.0
100
AcDbBlockEnd
  0
ENDSEC
  0
SECTION
  2
ENTITIES
  0
MTEXT
  5
763F
330
747D
100
AcDbEntity
  8
0
100
AcDbMText
 10
302.846345836809
 20
280.1983726409901
 30
0.0
 40
3.5
 41
5.323721266742722
 71
     1
 72
     5
  1

  7
MSMINCHO
 73
     1
 44
1.0
1001
ACAD
1000
MTEXTBEGIN
1070
    73
1070
     1
1070
    44
1040
1.0
1070
    74
1070
     0
1000
MTEXTEND
  0
LINE
  5
10B57
330
747D
100
AcDbEntity
  8
補助
  6
PHANTOM
 62
   230
 48
50.0
100
AcDbLine
 10
139.9999999999995
 20
11409.6
 30
0.0
 11
16307.2
 21
11409.6
 31
0.0
  0
LINE
  5
10B59
330
747D
100
AcDbEntity
  8
仕様書枠
  6
Continuous
 48
50.0
100
AcDbLine
 10
13107.2
 20
1200.0
 30
0.0
 11
13107.2
 21
-0.0000000000000729
 31
0.0
  0
LINE
  5
10B5D
330
747D
100
AcDbEntity
  8
仕様書枠
 48
50.0
100
AcDbLine
 10
140.0
 20
0.0
 30
0.0
 11
16307.2
 21
-0.0000000000000909
 31
0.0
  0
LINE
  5
10B5E
330
747D
100
AcDbEntity
  8
補助
  6
PHANTOM
 62
   230
 48
50.0
100
AcDbLine
 10
16307.2
 20
11409.6
 30
0.0
 11
16307.2
 21
1200.0
 31
0.0
  0
LINE
  5
10B6C
330
747D
100
AcDbEntity
  8
仕様書枠
 48
50.0
100
AcDbLine
 10
13107.2
 20
1200.0
 30
0.0
 11
16307.2
 21
1200.0
 31
0.0
  0
TEXT
  5
10B73
330
747D
100
AcDbEntity
  8
文字
 62
     7
 48
50.0
100
AcDbText
 10
13162.9790565769
 20
895.0906074299405
 30
0.0
 40
200.0
  1
基 礎 図
  7
STYLE2
100
AcDbText
  0
LINE
  5
10B7B
330
747D
100
AcDbEntity
  8
仕様書枠
 48
50.0
100
AcDbLine
 10
13107.2
 20
800.0
 30
0.0
 11
14251.2
 21
800.0
 31
0.0
  0
LINE
  5
10B88
330
747D
100
AcDbEntity
  8
仕様書枠
  6
Continuous
 48
50.0
100
AcDbLine
 10
14251.2
 20
1200.0
 30
0.0
 11
14251.2
 21
800.0
 31
0.0
  0
LINE
  5
16462
330
747D
100
AcDbEntity
  8
仕様書枠
 48
50.0
100
AcDbLine
 10
16307.2
 20
1200.0
 30
0.0
 11
16307.2
 21
-0.0000000000000909
 31
0.0
  0
LINE
  5
1903B
330
747D
100
AcDbEntity
  8
補助
  6
PHANTOM
 62
   230
 48
50.0
100
AcDbLine
 10
140.0
 20
0.0
 30
0.0
 11
139.9999999999995
 21
11409.6
 31
0.0
  0
LEADER
  5
1AC27
330
747D
100
AcDbEntity
  8
寸法
 48
50.0
100
AcDbLeader
  3
INABA_S50G
 73
     0
 74
     0
 75
     1
 40
120.0
 41
720.0000000000001
 76
     3
 10
10130.05985718447
 20
6871.26497608364
 30
0.0
 10
10286.83343157075
 20
6610.251062515807
 30
0.0
 10
10411.83343157075
 20
6610.251062515807
 30
0.0
340
1AC28
1001
ACAD
1000
DSTYLE
1002
{
1070
   341
1005
0
1070
    40
1040
1.0
1070
   343
1005
0
1070
   344
1005
0
1002
}
  0
MTEXT
  5
1AC28
102
{ACAD_REACTORS
330
1AC27
102
}
330
747D
100
AcDbEntity
  8
部品1
 62
     7
 48
50.0
100
AcDbMText
 10
11156.83343157075
 20
6695.251062515807
 30
0.0
 40
120.0
 41
0.0
 71
     6
 72
     1
  1
\A1;床下換気口
  7
STYLE1
 73
     1
 44
1.0
1001
ACAD
1000
MTEXTBEGIN
1070
    73
1070
     1
1070
    44
1040
1.0
1070
    74
1070
     0
1000
MTEXTEND
  0
TEXT
  5
1AC29
330
747D
100
AcDbEntity
  8
部品1
 48
50.0
100
AcDbText
 10
10477.43013846117
 20
5929.706703736709
 30
0.0
 40
80.0
  1
(a=45,b=55,c=75)
  7
STYLE1
100
AcDbText
  0
TEXT
  5
1AC2A
330
747D
100
AcDbEntity
  8
部品1
 48
50.0
100
AcDbText
 10
10318.85112970688
 20
6036.551924605463
 30
0.0
 40
80.0
  1
※a,b,cは屋根の出幅です。
  7
STYLE1
100
AcDbText
  0
MTEXT
  5
1AC2B
102
{ACAD_REACTORS
330
1AC2C
102
}
330
747D
100
AcDbEntity
  8
部品1
 62
     7
 48
50.0
100
AcDbMText
 10
11116.63832569548
 20
6215.862611538538
 30
0.0
 40
120.0
 41
0.0
 71
     6
 72
     1
  1
\A1;屋根の外寸
  7
STYLE1
 73
     1
 44
1.0
1001
ACAD
1000
MTEXTBEGIN
1070
    73
1070
     1
1070
    44
1040
1.0
1070
    74
1070
     0
1000
MTEXTEND
  0
LEADER
  5
1AC2C
330
747D
100
AcDbEntity
  8
寸法
 48
50.0
100
AcDbLeader
  3
INABA_S50G
 73
     0
 74
     0
 75
     1
 40
120.0
 41
672.0
 76
     3
 10
10178.69831350344
 20
6389.751955002114
 30
0.0
 10
10294.63832569548
 20
6130.862611538538
 30
0.0
 10
10419.63832569548
 20
6130.862611538538
 30
0.0
340
1AC2B
1001
ACAD
1000
DSTYLE
1002
{
1070
   341
1005
0
1070
    40
1040
1.0
1070
   343
1005
0
1070
   344
1005
0
1002
}
  0
TEXT
  5
1C7A1
330
747D
100
AcDbEntity
  8
文字
 62
     7
 48
50.0
100
AcDbText
 10
13188.16259899338
 20
79.80631269190417
 30
0.0
 40
80.0
  1
※布基礎には換気口を設けてください。
  7
STYLE2
100
AcDbText
  0
TEXT
  5
1C7E7
330
747D
100
AcDbEntity
  8
文字
 62
     7
 48
50.0
100
AcDbText
 10
13188.16259899338
 20
246.7109242801889
 30
0.0
 40
80.0
  1
※寒冷地等は地域の実情に合わせた基礎にして下さい。
  7
STYLE2
100
AcDbText
  0
TEXT
  5
1C7E8
330
747D
100
AcDbEntity
  8
文字
 62
     7
 48
50.0
100
AcDbText
 10
14325.79230300687
 20
499.5983841039506
 30
0.0
 40
160.0
  1
ＮＸＮ－０９ＤＬ－４
  7
STYLE2
100
AcDbText
  0
TEXT
  5
1C7EC
330
747D
100
AcDbEntity
  8
文字
 62
     7
 48
50.0
100
AcDbText
 10
14524.131837222
 20
1031.557706291229
 30
0.0
 40
100.0
  1
<縮尺> S=1/40
  7
STYLE2
100
AcDbText
  0
TEXT
  5
1C7ED
330
747D
100
AcDbEntity
  8
文字
 62
     7
 48
50.0
100
AcDbText
 10
13201.43669998441
 20
477.2740661031257
 30
0.0
 40
160.0
  1
機種名
  7
STYLE2
100
AcDbText
  0
LINE
  5
1C7EF
330
747D
100
AcDbEntity
  8
文字
 62
     7
 48
50.0
100
AcDbLine
 10
13187.2
 20
400.0
 30
0.0
 11
16227.2
 21
400.0
 31
0.0
  0
MTEXT
  5
1D2D5
102
{ACAD_REACTORS
330
1D2D6
102
}
330
747D
100
AcDbEntity
  8
部品1
 62
     7
 48
50.0
100
AcDbMText
 10
11323.99523070988
 20
7656.146950266339
 30
0.0
 40
120.0
 41
0.0
 71
     6
 72
     1
  1
アンカーボルト
  7
STYLE1
 73
     1
 44
1.0
1001
ACAD
1000
MTEXTBEGIN
1070
    73
1070
     1
1070
    44
1040
1.0
1070
    74
1070
     0
1000
MTEXTEND
  0
LEADER
  5
1D2D6
330
747D
100
AcDbEntity
  8
寸法
 48
50.0
100
AcDbLeader
  3
INABA_S50G
 73
     0
 74
     0
 75
     1
 40
120.0
 41
994.3492424049171
 76
     3
 10
10005.680085757
 20
7217.742050382543
 30
0.0
 10
10179.64598830496
 20
7571.146950266339
 30
0.0
 10
10304.64598830496
 20
7571.146950266339
 30
0.0
340
1D2D5
1001
ACAD
1000
DSTYLE
1002
{
1070
   341
1005
0
1070
    40
1040
1.0
1070
   343
1005
0
1070
   344
1005
0
1002
}
  0
MTEXT
  5
1D332
102
{ACAD_REACTORS
330
1D333
102
}
330
747D
100
AcDbEntity
  8
部品1
 62
     7
 48
50.0
100
AcDbMText
 10
9688.828697015695
 20
6788.32160305923
 30
0.0
 40
120.0
 41
0.0
 71
     6
 72
     1
  1
CB
  7
STYLE1
 73
     1
 44
1.0
1001
ACAD
1000
MTEXTBEGIN
1070
    73
1070
     1
1070
    44
1040
1.0
1070
    74
1070
     0
1000
MTEXTEND
  0
LEADER
  5
1D333
330
747D
100
AcDbEntity
  8
寸法
 48
50.0
100
AcDbLeader
  3
INABA_S50G
 73
     0
 74
     0
 75
     1
 40
120.0
 41
149.591883092037
 76
     3
 10
9261.954011061014
 20
6926.039916614057
 30
0.0
 10
9389.236813923659
 20
6703.321603059231
 30
0.0
 10
9514.236813923659
 20
6703.321603059231
 30
0.0
340
1D332
1001
ACAD
1000
DSTYLE
1002
{
1070
   341
1005
0
1070
    40
1040
1.0
1070
   343
1005
0
1070
   344
1005
0
1002
}
  0
DIMENSION
  5
20DE1
330
747D
100
AcDbEntity
  8
寸法
 48
50.0
100
AcDbDimension
  2
*D19
 10
10173.6
 20
8298.754528082751
 30
0.0
 11
10444.77462120246
 21
8298.754528082751
 31
0.0
 70
   160
  1
a
 71
     5
 42
45.0
  3
INABA_S40G
100
AcDbAlignedDimension
 13
10128.6
 23
7340.534206023831
 33
0.0
 14
10173.6
 24
8066.80066411774
 34
0.0
100
AcDbRotatedDimension
1001
ACAD
1000
DSTYLE
1002
{
1070
   341
1005
0
1002
}
  0
DIMENSION
  5
20DFB
330
747D
100
AcDbEntity
  8
寸法
 48
50.0
100
AcDbDimension
  2
*D20
 10
6318.600000000004
 20
8298.754528082747
 30
0.0
 11
6002.425378797545
 21
8298.754528082747
 31
0.0
 70
   160
  1
a
 71
     5
 42
44.99999999999636
  3
INABA_S40G
100
AcDbAlignedDimension
 13
6273.600000000008
 23
8066.800664117739
 33
0.0
 14
6318.600000000004
 24
7340.534206023827
 34
0.0
100
AcDbRotatedDimension
1001
ACAD
1000
DSTYLE
1002
{
1070
   341
1005
0
1002
}
  0
LINE
  5
22711
330
747D
100
AcDbEntity
  8
想像線
 48
10.0
100
AcDbLine
 10
10173.6
 20
7415.534206023834
 30
0.0
 11
6273.600000000003
 21
7415.534206023842
 31
0.0
  0
LINE
  5
22712
330
747D
100
AcDbEntity
  8
想像線
 48
10.0
100
AcDbLine
 10
6273.600000000002
 20
6325.534206023839
 30
0.0
 11
6273.600000000004
 21
7415.534206023834
 31
0.0
  0
LINE
  5
22713
330
747D
100
AcDbEntity
  8
想像線
 48
10.0
100
AcDbLine
 10
10173.6
 20
6325.534206023847
 30
0.0
 11
10173.6
 21
7415.534206023834
 31
0.0
  0
LINE
  5
22714
330
747D
100
AcDbEntity
  8
想像線
 48
10.0
100
AcDbLine
 10
10173.6
 20
6325.534206023847
 30
0.0
 11
6273.600000000003
 21
6325.534206023839
 31
0.0
  0
DIMENSION
  5
22741
330
747D
100
AcDbEntity
  8
寸法
 48
50.0
100
AcDbDimension
  2
*D21
 10
5443.721909610679
 20
7340.534206023829
 30
0.0
 11
5343.721909610676
 21
7378.034206023833
 31
0.0
 70
    32
  1
c
 71
     5
 42
75.00000000000546
  3
INABA_S40G
100
AcDbAlignedDimension
 13
5695.665006330074
 23
7415.534206023834
 33
0.0
 14
6318.600000000004
 24
7340.534206023827
 34
0.0
 50
90.0
100
AcDbRotatedDimension
1001
ACAD
1000
DSTYLE
1002
{
1070
   341
1005
0
1002
}
  0
DIMENSION
  5
2275B
330
747D
100
AcDbEntity
  8
寸法
 48
50.0
100
AcDbDimension
  2
*D22
 10
5443.721909610679
 20
6325.534206023853
 30
0.0
 11
5343.721909610676
 21
6353.034206023842
 31
0.0
 70
    32
  1
b
 71
     5
 42
54.99999999997545
  3
INABA_S40G
100
AcDbAlignedDimension
 13
6318.600000000004
 23
6380.534206023828
 33
0.0
 14
5695.665006330077
 24
6325.534206023853
 34
0.0
 50
90.0
100
AcDbRotatedDimension
1001
ACAD
1000
DSTYLE
1002
{
1070
   341
1005
0
1002
}
  0
DIMENSION
  5
23978
330
747D
100
AcDbEntity
  8
寸法
 48
50.0
100
AcDbDimension
  2
*D23
 10
9473.957501082454
 20
7140.534206023819
 30
0.0
 11
9473.957501082452
 21
7590.105072165555
 31
0.0
 70
   160
 71
     5
 42
200.0
  3
INABA_S40G
100
AcDbAlignedDimension
 13
9673.854682011644
 23
7340.53420602382
 33
0.0
 14
9673.854682011644
 24
7140.534206023819
 34
0.0
 50
90.0
100
AcDbRotatedDimension
1001
ACAD
1000
DSTYLE
1002
{
1070
   341
1005
0
1002
}
  0
DIMENSION
  5
23980
330
747D
100
AcDbEntity
  8
寸法
 48
50.0
100
AcDbDimension
  2
*D24
 10
9473.957501082454
 20
6380.53420602384
 30
0.0
 11
9473.957501082452
 21
6130.963339882109
 31
0.0
 70
   160
 71
     5
 42
280.00000000001
  3
INABA_S40G
100
AcDbAlignedDimension
 13
9748.600000000003
 23
6660.53420602385
 33
0.0
 14
9748.600000000003
 24
6380.53420602384
 34
0.0
 50
90.0
100
AcDbRotatedDimension
1001
ACAD
1000
DSTYLE
1002
{
1070
   341
1005
0
1002
}
  0
LINE
  5
24908
330
747D
100
AcDbEntity
  8
部品1
 48
50.0
100
AcDbLine
 10
10008.6
 20
7140.534206023829
 30
0.0
 11
6438.599999999995
 21
7140.534206023833
 31
0.0
  0
DIMENSION
  5
24909
330
747D
100
AcDbEntity
  8
寸法
 48
50.0
100
AcDbDimension
  2
*D25
 10
8223.600000000008
 20
7823.143022694079
 30
0.0
 11
8698.600000000007
 21
7923.143022694079
 31
0.0
 70
    32
 71
     5
 42
950.0
  3
INABA_S40G
100
AcDbAlignedDimension
 13
9173.600000000007
 23
6910.534206023831
 33
0.0
 14
8223.600000000008
 24
6910.534206023831
 34
0.0
100
AcDbRotatedDimension
1001
ACAD
1000
DSTYLE
1002
{
1070
   341
1005
0
1002
}
  0
DIMENSION
  5
2490A
330
747D
100
AcDbEntity
  8
寸法
 48
50.0
100
AcDbDimension
  2
*D26
 10
8105.6
 20
8066.80066411774
 30
0.0
 11
9055.600000000001
 21
8166.800664117742
 31
0.0
 70
    32
 71
     5
 42
1900.0
  3
INABA_S40G
100
AcDbAlignedDimension
 13
10005.6
 23
7267.534206023831
 33
0.0
 14
8105.6
 24
7267.534206023831
 34
0.0
100
AcDbRotatedDimension
1001
ACAD
1000
DSTYLE
1002
{
1070
   341
1005
0
1002
}
  0
LINE
  5
2490D
330
747D
100
AcDbEntity
  8
部品1
 48
50.0
100
AcDbLine
 10
10128.6
 20
7340.534206023831
 30
0.0
 11
6318.6
 21
7340.534206023831
 31
0.0
  0
DIMENSION
  5
2490E
330
747D
100
AcDbEntity
  8
寸法
 48
50.0
100
AcDbDimension
  2
*D27
 10
10128.6
 20
8298.754528082749
 30
0.0
 11
8223.600000000001
 21
8398.754528082749
 31
0.0
 70
    32
 71
     5
 42
3810.0
  3
INABA_S40G
100
AcDbAlignedDimension
 13
6318.6
 23
7340.534206023831
 33
0.0
 14
10128.6
 24
7340.534206023831
 34
0.0
100
AcDbRotatedDimension
1001
ACAD
1000
DSTYLE
1002
{
1070
   341
1005
0
1002
}
  0
TEXT
  5
2490F
330
747D
100
AcDbEntity
  8
寸法
 48
50.0
100
AcDbText
 10
8284.846432916742
 20
6399.215496816569
 30
0.0
 40
120.0
  1
扉面
  7
STYLE1
100
AcDbText
  0
LINE
  5
24910
330
747D
100
AcDbEntity
  8
部品1
 48
50.0
100
AcDbLine
 10
10128.6
 20
6380.534206023849
 30
0.0
 11
6318.599999999997
 21
6380.534206023828
 31
0.0
  0
LINE
  5
24912
330
747D
100
AcDbEntity
  8
部品1
 48
50.0
100
AcDbLine
 10
6318.6
 20
6380.534206023831
 30
0.0
 11
6318.6
 21
7340.534206023831
 31
0.0
  0
DIMENSION
  5
24913
330
747D
100
AcDbEntity
  8
寸法
 48
50.0
100
AcDbDimension
  2
*D28
 10
6801.285990614302
 20
6860.534206023832
 30
0.0
 11
6801.2859906143
 21
6087.975150905731
 31
0.0
 70
   160
 71
     5
 42
479.999999999989
  3
INABA_S40G
100
AcDbAlignedDimension
 13
6892.765475140901
 23
6380.534206023842
 33
0.0
 14
7223.600000000008
 24
6860.534206023832
 34
0.0
 50
90.0
100
AcDbRotatedDimension
1001
ACAD
1000
DSTYLE
1002
{
1070
   341
1005
0
1002
}
  0
DIMENSION
  5
24915
330
747D
100
AcDbEntity
  8
寸法
 48
50.0
100
AcDbDimension
  2
*D29
 10
5443.721909610674
 20
6380.534206023831
 30
0.0
 11
5443.721909610673
 21
6898.034206023831
 31
0.0
 70
   160
 71
     5
 42
960.0
  3
INABA_S40G
100
AcDbAlignedDimension
 13
6318.6
 23
7340.534206023831
 33
0.0
 14
6318.6
 24
6380.534206023831
 34
0.0
 50
90.0
100
AcDbRotatedDimension
1001
ACAD
1000
DSTYLE
1002
{
1070
   341
1005
0
1002
}
  0
DIMENSION
  5
24916
330
747D
100
AcDbEntity
  8
寸法
 48
50.0
100
AcDbDimension
  2
*D30
 10
5695.665006330074
 20
6578.534206023835
 30
0.0
 11
5695.665006330071
 21
6898.034206023831
 31
0.0
 70
   160
 71
     5
 42
638.9999999999964
  3
INABA_S40G
100
AcDbAlignedDimension
 13
6391.6
 23
7217.534206023831
 33
0.0
 14
6391.600000000007
 24
6578.534206023835
 34
0.0
 50
90.0
100
AcDbRotatedDimension
1001
ACAD
1000
DSTYLE
1002
{
1070
   341
1005
0
1002
}
  0
LINE
  5
24917
330
747D
100
AcDbEntity
  8
細線
 48
50.0
100
AcDbLine
 10
6789.503084343765
 20
6380.534206023817
 30
0.0
 11
6898.6
 21
6489.631121680051
 31
0.0
  0
LINE
  5
24918
330
747D
100
AcDbEntity
  8
細線
 48
50.0
100
AcDbLine
 10
6744.601803738418
 20
6380.534206023817
 30
0.0
 11
6898.599999999994
 21
6534.532402285394
 31
0.0
  0
LINE
  5
24919
330
747D
100
AcDbEntity
  8
細線
 48
50.0
100
AcDbLine
 10
6699.700523133073
 20
6380.534206023817
 30
0.0
 11
6898.599999999994
 21
6579.433682890741
 31
0.0
  0
LINE
  5
2491A
330
747D
100
AcDbEntity
  8
細線
 48
50.0
100
AcDbLine
 10
6698.6
 20
6424.33496349609
 30
0.0
 11
6898.599999999994
 21
6624.334963496083
 31
0.0
  0
LINE
  5
2491B
330
747D
100
AcDbEntity
  8
細線
 48
50.0
100
AcDbLine
 10
6698.599999999996
 20
6469.236244101432
 30
0.0
 11
6889.897961922399
 21
6660.534206023832
 31
0.0
  0
LINE
  5
2491C
330
747D
100
AcDbEntity
  8
細線
 48
50.0
100
AcDbLine
 10
6698.599999999996
 20
6514.137524706777
 30
0.0
 11
6844.996681317052
 21
6660.534206023831
 31
0.0
  0
ARC
  5
2491D
330
747D
100
AcDbEntity
  8
想像線
 48
5.0
100
AcDbCircle
 10
7088.600000000004
 20
6380.534206023835
 30
0.0
 40
720.0
100
AcDbArc
 50
180.0
 51
270.0
  0
DIMENSION
  5
2491F
330
747D
100
AcDbEntity
  8
寸法
 48
50.0
100
AcDbDimension
  2
*D31
 10
5695.665006330074
 20
6380.534206023831
 30
0.0
 11
5695.665006330071
 21
6045.003257181239
 31
0.0
 70
   160
 71
     5
 42
198.0000000000036
  3
INABA_S40G
100
AcDbAlignedDimension
 13
6391.600000000007
 23
6578.534206023835
 33
0.0
 14
6318.6
 24
6380.534206023831
 34
0.0
 50
90.0
100
AcDbRotatedDimension
1001
ACAD
1000
DSTYLE
1002
{
1070
   341
1005
0
1002
}
  0
DIMENSION
  5
24920
330
747D
100
AcDbEntity
  8
寸法
 48
50.0
100
AcDbDimension
  2
*D32
 10
6205.51267376788
 20
5660.534206023827
 30
0.0
 11
6205.512673767878
 21
6020.534206023829
 31
0.0
 70
   160
  1
扉の出<>
 71
     5
 42
720.0
  3
INABA_S40G
100
AcDbAlignedDimension
 13
6318.600000000004
 23
6380.534206023828
 33
0.0
 14
6674.325326928808
 24
5660.534206023827
 34
0.0
 50
90.0
100
AcDbRotatedDimension
1001
ACAD
1000
DSTYLE
1002
{
1070
   341
1005
0
1002
}
  0
LINE
  5
24921
330
747D
100
AcDbEntity
  8
センター
 48
2.0
100
AcDbLine
 10
6391.600000000007
 20
6578.534206023835
 30
0.0
 11
6491.600000000008
 21
6578.534206023835
 31
0.0
  0
LINE
  5
24922
330
747D
100
AcDbEntity
  8
部品1
 48
50.0
100
AcDbLine
 10
6698.599999999996
 20
6660.534206023831
 30
0.0
 11
6698.599999999998
 21
6380.534206023814
 31
0.0
  0
LINE
  5
24923
330
747D
100
AcDbEntity
  8
センター
 48
2.0
100
AcDbLine
 10
6441.600000000008
 20
6628.534206023835
 30
0.0
 11
6441.600000000008
 21
6528.534206023834
 31
0.0
  0
CIRCLE
  5
24924
330
747D
100
AcDbEntity
  8
部品1
 48
50.0
100
AcDbCircle
 10
6441.599999999993
 20
6578.534206023835
 30
0.0
 40
35.0
  0
LINE
  5
24925
330
747D
100
AcDbEntity
  8
細線
 48
50.0
100
AcDbLine
 10
6698.599999999995
 20
6603.940085917597
 30
0.0
 11
6755.194120106231
 21
6660.534206023831
 31
0.0
  0
LINE
  5
24926
330
747D
100
AcDbEntity
  8
細線
 48
50.0
100
AcDbLine
 10
6698.599999999996
 20
6559.038805312251
 30
0.0
 11
6800.095400711575
 21
6660.534206023831
 31
0.0
  0
LINE
  5
24928
330
747D
100
AcDbEntity
  8
想像線
 48
5.0
100
AcDbLine
 10
7088.600000000004
 20
6380.534206023845
 30
0.0
 11
7088.600000000004
 21
5660.534206023834
 31
0.0
  0
LINE
  5
24929
330
747D
100
AcDbEntity
  8
細線
 48
50.0
100
AcDbLine
 10
6834.404364949112
 20
6380.534206023817
 30
0.0
 11
6898.6
 21
6444.729841074708
 31
0.0
  0
LINE
  5
2492A
330
747D
100
AcDbEntity
  8
部品1
 48
50.0
100
AcDbLine
 10
6898.599999999994
 20
6660.534206023831
 30
0.0
 11
6898.599999999999
 21
6380.534206023818
 31
0.0
  0
LINE
  5
2492B
330
747D
100
AcDbEntity
  8
細線
 48
50.0
100
AcDbLine
 10
6879.305645554457
 20
6380.534206023821
 30
0.0
 11
6898.6
 21
6399.828560469361
 31
0.0
  0
LINE
  5
24938
330
747D
100
AcDbEntity
  8
センター
 48
2.0
100
AcDbLine
 10
8105.600000000007
 20
6628.534206023835
 30
0.0
 11
8105.600000000007
 21
6528.534206023834
 31
0.0
  0
CIRCLE
  5
24939
330
747D
100
AcDbEntity
  8
部品1
 48
50.0
100
AcDbCircle
 10
8105.600000000007
 20
6578.534206023835
 30
0.0
 40
35.0
  0
LINE
  5
2493A
330
747D
100
AcDbEntity
  8
センター
 48
2.0
100
AcDbLine
 10
8055.600000000008
 20
6578.534206023835
 30
0.0
 11
8155.600000000008
 21
6578.534206023835
 31
0.0
  0
LINE
  5
2493B
330
747D
100
AcDbEntity
  8
細線
 48
50.0
100
AcDbLine
 10
6786.181314052885
 20
7140.534206023831
 30
0.0
 11
6898.6
 21
7252.952891970927
 31
0.0
  0
LINE
  5
2493C
330
747D
100
AcDbEntity
  8
細線
 48
50.0
100
AcDbLine
 10
6741.280033447556
 20
7140.534206023831
 30
0.0
 11
6898.599999999998
 21
7297.854172576272
 31
0.0
  0
LINE
  5
2493D
330
747D
100
AcDbEntity
  8
細線
 48
50.0
100
AcDbLine
 10
6698.6
 20
7142.755453181623
 30
0.0
 11
6896.378752842195
 21
7340.534206023814
 31
0.0
  0
LINE
  5
2493E
330
747D
100
AcDbEntity
  8
細線
 48
50.0
100
AcDbLine
 10
6698.6
 20
7187.656733786965
 30
0.0
 11
6851.477472236847
 21
7340.534206023817
 31
0.0
  0
LINE
  5
2493F
330
747D
100
AcDbEntity
  8
細線
 48
50.0
100
AcDbLine
 10
6698.599999999996
 20
7232.55801439231
 30
0.0
 11
6806.576191631503
 21
7340.534206023814
 31
0.0
  0
DIMENSION
  5
24940
330
747D
100
AcDbEntity
  8
寸法
 48
50.0
100
AcDbDimension
  2
*D33
 10
6441.600000000001
 20
8066.80066411774
 30
0.0
 11
7273.6
 21
8166.800664117742
 31
0.0
 70
    32
 71
     5
 42
1664.0
  3
INABA_S40G
100
AcDbAlignedDimension
 13
8105.6
 23
7267.534206023831
 33
0.0
 14
6441.600000000001
 24
7267.534206023831
 34
0.0
100
AcDbRotatedDimension
1001
ACAD
1000
DSTYLE
1002
{
1070
   341
1005
0
1002
}
  0
DIMENSION
  5
24941
330
747D
100
AcDbEntity
  8
寸法
 48
50.0
100
AcDbDimension
  2
*D34
 10
6318.6
 20
7823.143022694079
 30
0.0
 11
6796.100000000004
 21
7923.143022694079
 31
0.0
 70
    32
 71
     5
 42
955.0000000000073
  3
INABA_S40G
100
AcDbAlignedDimension
 13
7273.600000000008
 23
6910.534206023831
 33
0.0
 14
6318.6
 24
7340.534206023831
 34
0.0
100
AcDbRotatedDimension
1001
ACAD
1000
DSTYLE
1002
{
1070
   341
1005
0
1002
}
  0
DIMENSION
  5
24942
330
747D
100
AcDbEntity
  8
寸法
 48
50.0
100
AcDbDimension
  2
*D35
 10
6801.2859906143
 20
7340.534206023831
 30
0.0
 11
6801.2859906143
 21
7633.093261141943
 31
0.0
 70
   160
 71
     5
 42
480.0
  3
INABA_S40G
100
AcDbAlignedDimension
 13
7223.600000000008
 23
6860.534206023832
 33
0.0
 14
6892.765475140901
 24
7340.534206023831
 34
0.0
 50
90.0
100
AcDbRotatedDimension
1001
ACAD
1000
DSTYLE
1002
{
1070
   341
1005
0
1002
}
  0
DIMENSION
  5
24944
330
747D
100
AcDbEntity
  8
寸法
 48
50.0
100
AcDbDimension
  2
*D36
 10
6318.6
 20
8066.80066411774
 30
0.0
 11
6045.493398282202
 21
8066.80066411774
 31
0.0
 70
   160
 71
     5
 42
123.0
  3
INABA_S40G
100
AcDbAlignedDimension
 13
6441.600000000001
 23
7267.534206023831
 33
0.0
 14
6318.6
 24
7340.534206023831
 34
0.0
100
AcDbRotatedDimension
1001
ACAD
1000
DSTYLE
1002
{
1070
   341
1005
0
1002
}
  0
DIMENSION
  5
24946
330
747D
100
AcDbEntity
  8
寸法
 48
50.0
100
AcDbDimension
  2
*D37
 10
5695.665006330072
 20
7217.534206023832
 30
0.0
 11
5695.665006330071
 21
7613.640807741631
 31
0.0
 70
   160
 71
     5
 42
123.0
  3
INABA_S40G
100
AcDbAlignedDimension
 13
6318.6
 23
7340.534206023831
 33
0.0
 14
6391.6
 24
7217.534206023831
 34
0.0
 50
90.0
100
AcDbRotatedDimension
1001
ACAD
1000
DSTYLE
1002
{
1070
   341
1005
0
1002
}
  0
LINE
  5
24947
330
747D
100
AcDbEntity
  8
細線
 48
50.0
100
AcDbLine
 10
6698.6
 20
7277.459294997658
 30
0.0
 11
6761.674911026156
 21
7340.534206023817
 31
0.0
  0
LINE
  5
24948
330
747D
100
AcDbEntity
  8
部品1
 48
50.0
100
AcDbLine
 10
6698.599999999996
 20
7340.534206023814
 30
0.0
 11
6698.6
 21
7140.534206023831
 31
0.0
  0
LINE
  5
24949
330
747D
100
AcDbEntity
  8
細線
 48
50.0
100
AcDbLine
 10
6366.181314052905
 20
6785.53420602382
 30
0.0
 11
6438.599999999998
 21
6857.95289197091
 31
0.0
  0
LINE
  5
2494A
330
747D
100
AcDbEntity
  8
細線
 48
50.0
100
AcDbLine
 10
6321.28003344756
 20
6785.53420602382
 30
0.0
 11
6438.599999999998
 21
6902.854172576261
 31
0.0
  0
LINE
  5
2494B
330
747D
100
AcDbEntity
  8
細線
 48
50.0
100
AcDbLine
 10
6318.599999999999
 20
6827.755453181606
 30
0.0
 11
6438.6
 21
6947.755453181606
 31
0.0
  0
LINE
  5
2494C
330
747D
100
AcDbEntity
  8
細線
 48
50.0
100
AcDbLine
 10
6318.6
 20
6872.656733786953
 30
0.0
 11
6431.477472236868
 21
6985.53420602382
 31
0.0
  0
LINE
  5
2494D
330
747D
100
AcDbEntity
  8
部品1
 48
50.0
100
AcDbLine
 10
6438.599999999998
 20
6985.53420602382
 30
0.0
 11
6318.599999999999
 21
6985.53420602382
 31
0.0
  0
LINE
  5
2494E
330
747D
100
AcDbEntity
  8
部品1
 48
50.0
100
AcDbLine
 10
6438.6
 20
6785.534206023822
 30
0.0
 11
6318.599999999999
 21
6785.53420602382
 31
0.0
  0
LINE
  5
2494F
330
747D
100
AcDbEntity
  8
センター
 48
2.0
100
AcDbLine
 10
6391.6
 20
7217.534206023831
 30
0.0
 11
6491.600000000001
 21
7217.534206023831
 31
0.0
  0
LINE
  5
24950
330
747D
100
AcDbEntity
  8
細線
 48
50.0
100
AcDbLine
 10
6318.599999999999
 20
6917.558014392298
 30
0.0
 11
6386.576191631521
 21
6985.534206023818
 31
0.0
  0
LINE
  5
24951
330
747D
100
AcDbEntity
  8
細線
 48
50.0
100
AcDbLine
 10
6318.599999999999
 20
6962.459294997643
 30
0.0
 11
6341.674911026175
 21
6985.53420602382
 31
0.0
  0
LINE
  5
24952
330
747D
100
AcDbEntity
  8
細線
 48
50.0
100
AcDbLine
 10
6411.08259465825
 20
6785.534206023818
 30
0.0
 11
6438.6
 21
6813.051611365574
 31
0.0
  0
LINE
  5
24953
330
747D
100
AcDbEntity
  8
センター
 48
2.0
100
AcDbLine
 10
6441.600000000001
 20
7267.534206023831
 30
0.0
 11
6441.600000000001
 21
7167.53420602383
 31
0.0
  0
CIRCLE
  5
24954
330
747D
100
AcDbEntity
  8
部品1
 48
50.0
100
AcDbCircle
 10
6441.600000000001
 20
7217.534206023831
 30
0.0
 40
35.0
  0
LINE
  5
24955
330
747D
100
AcDbEntity
  8
細線
 48
50.0
100
AcDbLine
 10
6698.599999999996
 20
7322.360575602999
 30
0.0
 11
6716.773630420812
 21
7340.534206023817
 31
0.0
  0
DIMENSION
  5
24956
330
747D
100
AcDbEntity
  8
寸法
 48
50.0
100
AcDbDimension
  2
*D38
 10
7273.600000000008
 20
7823.143022694079
 30
0.0
 11
7748.600000000007
 21
7923.143022694079
 31
0.0
 70
    32
 71
     5
 42
950.0
  3
INABA_S40G
100
AcDbAlignedDimension
 13
8223.600000000008
 23
6910.534206023831
 33
0.0
 14
7273.600000000008
 24
6910.534206023831
 34
0.0
100
AcDbRotatedDimension
1001
ACAD
1000
DSTYLE
1002
{
1070
   341
1005
0
1002
}
  0
LINE
  5
24958
330
747D
100
AcDbEntity
  8
部品1
 48
50.0
100
AcDbLine
 10
6898.599999999998
 20
7340.534206023814
 30
0.0
 11
6898.600000000001
 21
7140.534206023831
 31
0.0
  0
LINE
  5
24959
330
747D
100
AcDbEntity
  8
部品1
 48
50.0
100
AcDbLine
 10
7373.600000000007
 20
6960.534206023831
 30
0.0
 11
7173.600000000007
 21
6960.534206023831
 31
0.0
  0
LINE
  5
2495A
330
747D
100
AcDbEntity
  8
部品1
 48
50.0
100
AcDbLine
 10
7373.600000000007
 20
6760.534206023831
 30
0.0
 11
7173.600000000007
 21
6760.534206023831
 31
0.0
  0
LINE
  5
2495B
330
747D
100
AcDbEntity
  8
部品1
 48
50.0
100
AcDbLine
 10
7173.600000000007
 20
6760.534206023831
 30
0.0
 11
7173.600000000007
 21
6960.534206023831
 31
0.0
  0
LINE
  5
2495C
330
747D
100
AcDbEntity
  8
細線
 48
50.0
100
AcDbLine
 10
6875.983875263592
 20
7140.534206023935
 30
0.0
 11
6898.599999999999
 21
7163.150330760347
 31
0.0
  0
LINE
  5
2495D
330
747D
100
AcDbEntity
  8
細線
 48
50.0
100
AcDbLine
 10
6831.082594658237
 20
7140.534206023935
 30
0.0
 11
6898.599999999999
 21
7208.051611365696
 31
0.0
  0
LINE
  5
2495E
330
747D
100
AcDbEntity
  8
センター
 48
2.0
100
AcDbLine
 10
7223.600000000008
 20
6860.534206023832
 30
0.0
 11
7323.600000000007
 21
6860.534206023832
 31
0.0
  0
LINE
  5
2495F
330
747D
100
AcDbEntity
  8
部品1
 48
50.0
100
AcDbLine
 10
7373.600000000007
 20
6760.534206023831
 30
0.0
 11
7373.600000000007
 21
6960.534206023831
 31
0.0
  0
LINE
  5
24960
330
747D
100
AcDbEntity
  8
センター
 48
2.0
100
AcDbLine
 10
7273.600000000008
 20
6910.534206023831
 30
0.0
 11
7273.600000000008
 21
6810.534206023831
 31
0.0
  0
LINE
  5
24961
330
747D
100
AcDbEntity
  8
細線
 48
50.0
100
AcDbLine
 10
7648.600000000005
 20
7142.755453181624
 30
0.0
 11
7846.378752842195
 21
7340.534206023817
 31
0.0
  0
LINE
  5
24962
330
747D
100
AcDbEntity
  8
細線
 48
50.0
100
AcDbLine
 10
7648.6
 20
7187.656733786967
 30
0.0
 11
7801.477472236847
 21
7340.534206023817
 31
0.0
  0
LINE
  5
24963
330
747D
100
AcDbEntity
  8
細線
 48
50.0
100
AcDbLine
 10
7648.6
 20
7232.558014392314
 30
0.0
 11
7756.576191631502
 21
7340.534206023814
 31
0.0
  0
LINE
  5
24964
330
747D
100
AcDbEntity
  8
細線
 48
50.0
100
AcDbLine
 10
7648.6
 20
7277.459294997658
 30
0.0
 11
7711.674911026157
 21
7340.534206023814
 31
0.0
  0
LINE
  5
24965
330
747D
100
AcDbEntity
  8
部品1
 48
50.0
100
AcDbLine
 10
7848.599999999997
 20
7340.534206023814
 30
0.0
 11
7848.600000000004
 21
7140.534206023831
 31
0.0
  0
LINE
  5
24966
330
747D
100
AcDbEntity
  8
部品1
 48
50.0
100
AcDbLine
 10
7648.599999999998
 20
7340.534206023814
 30
0.0
 11
7648.600000000001
 21
7140.534206023831
 31
0.0
  0
LINE
  5
24967
330
747D
100
AcDbEntity
  8
細線
 48
50.0
100
AcDbLine
 10
7781.082594658231
 20
7140.534206023935
 30
0.0
 11
7848.599999999994
 21
7208.051611365696
 31
0.0
  0
LINE
  5
24968
330
747D
100
AcDbEntity
  8
細線
 48
50.0
100
AcDbLine
 10
7825.983875263588
 20
7140.534206023935
 30
0.0
 11
7848.599999999994
 21
7163.150330760347
 31
0.0
  0
LINE
  5
24969
330
747D
100
AcDbEntity
  8
細線
 48
50.0
100
AcDbLine
 10
7736.181314052917
 20
7140.534206023831
 30
0.0
 11
7848.600000000001
 21
7252.952891970932
 31
0.0
  0
LINE
  5
2496A
330
747D
100
AcDbEntity
  8
細線
 48
50.0
100
AcDbLine
 10
7691.280033447554
 20
7140.534206023831
 30
0.0
 11
7848.599999999997
 21
7297.854172576272
 31
0.0
  0
LINE
  5
2496B
330
747D
100
AcDbEntity
  8
センター
 48
2.0
100
AcDbLine
 10
8173.600000000007
 20
6860.534206023832
 30
0.0
 11
8273.600000000007
 21
6860.534206023832
 31
0.0
  0
LINE
  5
2496C
330
747D
100
AcDbEntity
  8
部品1
 48
50.0
100
AcDbLine
 10
8323.600000000007
 20
6760.534206023831
 30
0.0
 11
8123.600000000008
 21
6760.534206023831
 31
0.0
  0
LINE
  5
2496D
330
747D
100
AcDbEntity
  8
部品1
 48
50.0
100
AcDbLine
 10
8323.600000000007
 20
6960.534206023831
 30
0.0
 11
8123.600000000008
 21
6960.534206023831
 31
0.0
  0
LINE
  5
2496E
330
747D
100
AcDbEntity
  8
センター
 48
2.0
100
AcDbLine
 10
8223.600000000008
 20
6910.534206023831
 30
0.0
 11
8223.600000000008
 21
6810.534206023831
 31
0.0
  0
LINE
  5
2496F
330
747D
100
AcDbEntity
  8
部品1
 48
50.0
100
AcDbLine
 10
8123.600000000008
 20
6760.534206023831
 30
0.0
 11
8123.600000000008
 21
6960.534206023831
 31
0.0
  0
LINE
  5
24970
330
747D
100
AcDbEntity
  8
部品1
 48
50.0
100
AcDbLine
 10
8323.600000000007
 20
6760.534206023831
 30
0.0
 11
8323.600000000007
 21
6960.534206023831
 31
0.0
  0
LINE
  5
24971
330
747D
100
AcDbEntity
  8
センター
 48
2.0
100
AcDbLine
 10
8105.6
 20
7267.534206023831
 30
0.0
 11
8105.6
 21
7167.53420602383
 31
0.0
  0
CIRCLE
  5
24972
330
747D
100
AcDbEntity
  8
部品1
 48
50.0
100
AcDbCircle
 10
8105.6
 20
7217.534206023831
 30
0.0
 40
35.0
  0
LINE
  5
24973
330
747D
100
AcDbEntity
  8
センター
 48
2.0
100
AcDbLine
 10
8055.600000000001
 20
7217.534206023831
 30
0.0
 11
8155.600000000001
 21
7217.534206023831
 31
0.0
  0
LINE
  5
24974
330
747D
100
AcDbEntity
  8
細線
 48
50.0
100
AcDbLine
 10
7648.599999999998
 20
7322.360575602999
 30
0.0
 11
7666.77363042081
 21
7340.534206023817
 31
0.0
  0
LINE
  5
24978
330
747D
100
AcDbEntity
  8
部品1
 48
50.0
100
AcDbLine
 10
10128.6
 20
6380.534206023849
 30
0.0
 11
10128.6
 21
7340.534206023831
 31
0.0
  0
LINE
  5
24995
330
747D
100
AcDbEntity
  8
センター
 48
2.0
100
AcDbLine
 10
10005.60000000001
 20
6628.534206023835
 30
0.0
 11
10005.60000000001
 21
6528.534206023834
 31
0.0
  0
CIRCLE
  5
24996
330
747D
100
AcDbEntity
  8
部品1
 48
50.0
100
AcDbCircle
 10
10005.60000000001
 20
6578.534206023835
 30
0.0
 40
35.0
  0
LINE
  5
24997
330
747D
100
AcDbEntity
  8
センター
 48
2.0
100
AcDbLine
 10
9955.600000000009
 20
6578.534206023835
 30
0.0
 11
10055.60000000001
 21
6578.534206023835
 31
0.0
  0
LINE
  5
24999
330
747D
100
AcDbEntity
  8
細線
 48
50.0
100
AcDbLine
 10
10076.1813140529
 20
6785.534206023839
 30
0.0
 11
10128.59999999999
 21
6837.952891970932
 31
0.0
  0
LINE
  5
2499A
330
747D
100
AcDbEntity
  8
細線
 48
50.0
100
AcDbLine
 10
10031.28003344755
 20
6785.534206023839
 30
0.0
 11
10128.59999999999
 21
6882.854172576279
 31
0.0
  0
LINE
  5
2499B
330
747D
100
AcDbEntity
  8
細線
 48
50.0
100
AcDbLine
 10
10008.6
 20
6807.755453181631
 30
0.0
 11
10128.59999999999
 21
6927.755453181622
 31
0.0
  0
LINE
  5
2499C
330
747D
100
AcDbEntity
  8
細線
 48
50.0
100
AcDbLine
 10
10008.6
 20
6852.656733786976
 30
0.0
 11
10128.59999999999
 21
6972.656733786969
 31
0.0
  0
LINE
  5
2499D
330
747D
100
AcDbEntity
  8
細線
 48
50.0
100
AcDbLine
 10
10008.6
 20
6897.558014392322
 30
0.0
 11
10096.57619163152
 21
6985.53420602384
 31
0.0
  0
LINE
  5
2499E
330
747D
100
AcDbEntity
  8
部品1
 48
50.0
100
AcDbLine
 10
10128.59999999999
 20
6985.53420602384
 30
0.0
 11
10008.6
 21
6985.53420602384
 31
0.0
  0
LINE
  5
2499F
330
747D
100
AcDbEntity
  8
部品1
 48
50.0
100
AcDbLine
 10
10128.59999999999
 20
6785.534206023839
 30
0.0
 11
10008.6
 21
6785.534206023839
 31
0.0
  0
DIMENSION
  5
249A0
330
747D
100
AcDbEntity
  8
寸法
 48
50.0
100
AcDbDimension
  2
*D39
 10
9173.600000000007
 20
7823.143022694079
 30
0.0
 11
9651.100000000004
 21
7923.143022694079
 31
0.0
 70
    32
 71
     5
 42
954.9999999999927
  3
INABA_S40G
100
AcDbAlignedDimension
 13
10128.6
 23
7340.534206023831
 33
0.0
 14
9173.600000000007
 24
6910.534206023831
 34
0.0
100
AcDbRotatedDimension
1001
ACAD
1000
DSTYLE
1002
{
1070
   341
1005
0
1002
}
  0
DIMENSION
  5
249A1
330
747D
100
AcDbEntity
  8
寸法
 48
50.0
100
AcDbDimension
  2
*D40
 10
10005.6
 20
8066.80066411774
 30
0.0
 11
10401.7066017178
 21
8066.80066411774
 31
0.0
 70
   160
 71
     5
 42
123.0
  3
INABA_S40G
100
AcDbAlignedDimension
 13
10128.6
 23
7340.534206023831
 33
0.0
 14
10005.6
 24
7267.534206023831
 34
0.0
100
AcDbRotatedDimension
1001
ACAD
1000
DSTYLE
1002
{
1070
   341
1005
0
1002
}
  0
LINE
  5
249A3
330
747D
100
AcDbEntity
  8
部品1
 48
50.0
100
AcDbLine
 10
9273.600000000007
 20
6760.534206023831
 30
0.0
 11
9073.600000000007
 21
6760.534206023831
 31
0.0
  0
LINE
  5
249A4
330
747D
100
AcDbEntity
  8
部品1
 48
50.0
100
AcDbLine
 10
9273.600000000007
 20
6960.534206023831
 30
0.0
 11
9073.600000000007
 21
6960.534206023831
 31
0.0
  0
LINE
  5
249A5
330
747D
100
AcDbEntity
  8
細線
 48
50.0
100
AcDbLine
 10
8598.600000000008
 20
7142.755453181631
 30
0.0
 11
8796.378752842191
 21
7340.534206023817
 31
0.0
  0
LINE
  5
249A6
330
747D
100
AcDbEntity
  8
細線
 48
50.0
100
AcDbLine
 10
8598.600000000001
 20
7187.656733786979
 30
0.0
 11
8751.477472236848
 21
7340.534206023817
 31
0.0
  0
LINE
  5
249A7
330
747D
100
AcDbEntity
  8
細線
 48
50.0
100
AcDbLine
 10
8598.600000000001
 20
7232.558014392316
 30
0.0
 11
8706.576191631501
 21
7340.534206023817
 31
0.0
  0
LINE
  5
249A8
330
747D
100
AcDbEntity
  8
細線
 48
50.0
100
AcDbLine
 10
8598.600000000001
 20
7277.459294997663
 30
0.0
 11
8661.674911026153
 21
7340.534206023817
 31
0.0
  0
LINE
  5
249A9
330
747D
100
AcDbEntity
  8
部品1
 48
50.0
100
AcDbLine
 10
8798.599999999998
 20
7340.534206023818
 30
0.0
 11
8798.600000000007
 21
7140.534206023831
 31
0.0
  0
LINE
  5
249AA
330
747D
100
AcDbEntity
  8
部品1
 48
50.0
100
AcDbLine
 10
8598.599999999997
 20
7340.534206023818
 30
0.0
 11
8598.600000000004
 21
7140.534206023831
 31
0.0
  0
LINE
  5
249AD
330
747D
100
AcDbEntity
  8
細線
 48
50.0
100
AcDbLine
 10
8641.280033447548
 20
7140.534206023829
 30
0.0
 11
8798.6
 21
7297.854172576279
 31
0.0
  0
LINE
  5
249AE
330
747D
100
AcDbEntity
  8
細線
 48
50.0
100
AcDbLine
 10
8775.983875263586
 20
7140.534206023943
 30
0.0
 11
8798.599999999993
 21
7163.150330760356
 31
0.0
  0
LINE
  5
249AF
330
747D
100
AcDbEntity
  8
細線
 48
50.0
100
AcDbLine
 10
8731.08259465823
 20
7140.534206023943
 30
0.0
 11
8798.599999999993
 21
7208.051611365705
 31
0.0
  0
LINE
  5
249B0
330
747D
100
AcDbEntity
  8
細線
 48
50.0
100
AcDbLine
 10
8686.181314052932
 20
7140.534206023831
 30
0.0
 11
8798.6
 21
7252.952891970936
 31
0.0
  0
LINE
  5
249B1
330
747D
100
AcDbEntity
  8
センター
 48
2.0
100
AcDbLine
 10
9173.600000000007
 20
6910.534206023831
 30
0.0
 11
9173.600000000007
 21
6810.534206023831
 31
0.0
  0
LINE
  5
249B2
330
747D
100
AcDbEntity
  8
部品1
 48
50.0
100
AcDbLine
 10
9073.600000000007
 20
6760.534206023831
 30
0.0
 11
9073.600000000007
 21
6960.534206023831
 31
0.0
  0
LINE
  5
249B3
330
747D
100
AcDbEntity
  8
センター
 48
2.0
100
AcDbLine
 10
9123.600000000008
 20
6860.534206023832
 30
0.0
 11
9223.600000000008
 21
6860.534206023832
 31
0.0
  0
LINE
  5
249B4
330
747D
100
AcDbEntity
  8
細線
 48
50.0
100
AcDbLine
 10
8598.600000000001
 20
7322.360575603006
 30
0.0
 11
8616.77363042081
 21
7340.53420602382
 31
0.0
  0
LINE
  5
249B5
330
747D
100
AcDbEntity
  8
細線
 48
50.0
100
AcDbLine
 10
9548.600000000005
 20
7142.755453181649
 30
0.0
 11
9746.37875284219
 21
7340.534206023836
 31
0.0
  0
LINE
  5
249B6
330
747D
100
AcDbEntity
  8
細線
 48
50.0
100
AcDbLine
 10
9548.600000000005
 20
7187.656733786997
 30
0.0
 11
9701.477472236847
 21
7340.534206023834
 31
0.0
  0
LINE
  5
249B7
330
747D
100
AcDbEntity
  8
細線
 48
50.0
100
AcDbLine
 10
9548.599999999998
 20
7232.558014392336
 30
0.0
 11
9656.576191631497
 21
7340.534206023834
 31
0.0
  0
LINE
  5
249B8
330
747D
100
AcDbEntity
  8
細線
 48
50.0
100
AcDbLine
 10
9548.6
 20
7277.459294997679
 30
0.0
 11
9611.674911026154
 21
7340.534206023836
 31
0.0
  0
LINE
  5
249B9
330
747D
100
AcDbEntity
  8
部品1
 48
50.0
100
AcDbLine
 10
9748.599999999994
 20
7340.534206023836
 30
0.0
 11
9748.600000000001
 21
7140.534206023831
 31
0.0
  0
LINE
  5
249BA
330
747D
100
AcDbEntity
  8
部品1
 48
50.0
100
AcDbLine
 10
9548.599999999993
 20
7340.534206023836
 30
0.0
 11
9548.600000000005
 21
7140.534206023831
 31
0.0
  0
LINE
  5
249BB
330
747D
100
AcDbEntity
  8
細線
 48
50.0
100
AcDbLine
 10
9636.181314052846
 20
7140.534206023829
 30
0.0
 11
9748.600000000001
 21
7252.95289197095
 31
0.0
  0
LINE
  5
249BC
330
747D
100
AcDbEntity
  8
細線
 48
50.0
100
AcDbLine
 10
9591.280033447535
 20
7140.534206023829
 30
0.0
 11
9748.599999999994
 21
7297.854172576293
 31
0.0
  0
LINE
  5
249BD
330
747D
100
AcDbEntity
  8
部品1
 48
50.0
100
AcDbLine
 10
9273.600000000007
 20
6760.534206023831
 30
0.0
 11
9273.600000000007
 21
6960.534206023831
 31
0.0
  0
LINE
  5
249BE
330
747D
100
AcDbEntity
  8
細線
 48
50.0
100
AcDbLine
 10
10008.6
 20
6942.459294997668
 30
0.0
 11
10051.67491102617
 21
6985.534206023841
 31
0.0
  0
LINE
  5
249BF
330
747D
100
AcDbEntity
  8
細線
 48
50.0
100
AcDbLine
 10
9681.082594658228
 20
7140.534206023943
 30
0.0
 11
9748.599999999989
 21
7208.051611365705
 31
0.0
  0
LINE
  5
249C0
330
747D
100
AcDbEntity
  8
細線
 48
50.0
100
AcDbLine
 10
9725.983875263587
 20
7140.534206023943
 30
0.0
 11
9748.599999999989
 21
7163.150330760356
 31
0.0
  0
LINE
  5
249C1
330
747D
100
AcDbEntity
  8
センター
 48
2.0
100
AcDbLine
 10
9955.600000000002
 20
7217.534206023831
 30
0.0
 11
10055.6
 21
7217.534206023831
 31
0.0
  0
LINE
  5
249C2
330
747D
100
AcDbEntity
  8
センター
 48
2.0
100
AcDbLine
 10
10005.6
 20
7267.534206023831
 30
0.0
 11
10005.6
 21
7167.53420602383
 31
0.0
  0
CIRCLE
  5
249C3
330
747D
100
AcDbEntity
  8
部品1
 48
50.0
100
AcDbCircle
 10
10005.6
 20
7217.534206023831
 30
0.0
 40
35.0
  0
LINE
  5
249C4
330
747D
100
AcDbEntity
  8
細線
 48
50.0
100
AcDbLine
 10
9548.599999999993
 20
7322.360575603021
 30
0.0
 11
9566.77363042081
 21
7340.534206023834
 31
0.0
  0
LINE
  5
249C6
330
747D
100
AcDbEntity
  8
細線
 48
50.0
100
AcDbLine
 10
10121.08259465824
 20
6785.534206023839
 30
0.0
 11
10128.59999999999
 21
6793.051611365585
 31
0.0
  0
TEXT
  5
24F5F
330
747D
100
AcDbEntity
  8
文字
 62
     7
 48
50.0
100
AcDbText
 10
14251.2
 20
838.2527270729188
 30
0.0
 40
100.0
  1
～一般型・多雪地型・豪雪地型～
  7
STYLE2
100
AcDbText
  0
LINE
  5
24F7F
330
747D
100
AcDbEntity
  8
部品1
 48
50.0
100
AcDbLine
 10
10008.6
 20
6660.534206023851
 30
0.0
 11
6438.6
 21
6660.534206023829
 31
0.0
  0
LINE
  5
24FC1
330
747D
100
AcDbEntity
  8
細線
 48
50.0
100
AcDbLine
 10
7829.305645554457
 20
6380.534206023821
 30
0.0
 11
7848.600000000001
 21
6399.828560469361
 31
0.0
  0
LINE
  5
24FC2
330
747D
100
AcDbEntity
  8
部品1
 48
50.0
100
AcDbLine
 10
7848.599999999994
 20
6660.534206023831
 30
0.0
 11
7848.599999999999
 21
6380.534206023818
 31
0.0
  0
LINE
  5
24FC3
330
747D
100
AcDbEntity
  8
細線
 48
50.0
100
AcDbLine
 10
7784.404364949113
 20
6380.534206023817
 30
0.0
 11
7848.600000000001
 21
6444.729841074708
 31
0.0
  0
LINE
  5
24FC4
330
747D
100
AcDbEntity
  8
細線
 48
50.0
100
AcDbLine
 10
7648.599999999998
 20
6559.038805312251
 30
0.0
 11
7750.095400711575
 21
6660.534206023831
 31
0.0
  0
LINE
  5
24FC5
330
747D
100
AcDbEntity
  8
細線
 48
50.0
100
AcDbLine
 10
7648.599999999994
 20
6603.940085917597
 30
0.0
 11
7705.194120106231
 21
6660.534206023831
 31
0.0
  0
LINE
  5
24FC6
330
747D
100
AcDbEntity
  8
部品1
 48
50.0
100
AcDbLine
 10
7648.599999999996
 20
6660.534206023831
 30
0.0
 11
7648.599999999999
 21
6380.534206023814
 31
0.0
  0
LINE
  5
24FC7
330
747D
100
AcDbEntity
  8
細線
 48
50.0
100
AcDbLine
 10
7648.599999999998
 20
6514.137524706777
 30
0.0
 11
7794.996681317051
 21
6660.534206023831
 31
0.0
  0
LINE
  5
24FC8
330
747D
100
AcDbEntity
  8
細線
 48
50.0
100
AcDbLine
 10
7648.599999999998
 20
6469.236244101432
 30
0.0
 11
7839.8979619224
 21
6660.534206023832
 31
0.0
  0
LINE
  5
24FC9
330
747D
100
AcDbEntity
  8
細線
 48
50.0
100
AcDbLine
 10
7648.6
 20
6424.33496349609
 30
0.0
 11
7848.599999999994
 21
6624.334963496083
 31
0.0
  0
LINE
  5
24FCA
330
747D
100
AcDbEntity
  8
細線
 48
50.0
100
AcDbLine
 10
7649.700523133073
 20
6380.534206023817
 30
0.0
 11
7848.599999999994
 21
6579.433682890741
 31
0.0
  0
LINE
  5
24FCB
330
747D
100
AcDbEntity
  8
細線
 48
50.0
100
AcDbLine
 10
7694.601803738418
 20
6380.534206023817
 30
0.0
 11
7848.599999999994
 21
6534.532402285394
 31
0.0
  0
LINE
  5
24FCC
330
747D
100
AcDbEntity
  8
細線
 48
50.0
100
AcDbLine
 10
7739.503084343765
 20
6380.534206023817
 30
0.0
 11
7848.600000000001
 21
6489.631121680051
 31
0.0
  0
LINE
  5
24FCD
330
747D
100
AcDbEntity
  8
細線
 48
50.0
100
AcDbLine
 10
8779.305645554456
 20
6380.534206023821
 30
0.0
 11
8798.6
 21
6399.828560469361
 31
0.0
  0
LINE
  5
24FCE
330
747D
100
AcDbEntity
  8
部品1
 48
50.0
100
AcDbLine
 10
8798.599999999995
 20
6660.534206023831
 30
0.0
 11
8798.599999999998
 21
6380.534206023818
 31
0.0
  0
LINE
  5
24FCF
330
747D
100
AcDbEntity
  8
細線
 48
50.0
100
AcDbLine
 10
8734.404364949112
 20
6380.534206023817
 30
0.0
 11
8798.6
 21
6444.729841074708
 31
0.0
  0
LINE
  5
24FD0
330
747D
100
AcDbEntity
  8
細線
 48
50.0
100
AcDbLine
 10
8598.599999999997
 20
6559.038805312251
 30
0.0
 11
8700.095400711576
 21
6660.534206023831
 31
0.0
  0
LINE
  5
24FD1
330
747D
100
AcDbEntity
  8
細線
 48
50.0
100
AcDbLine
 10
8598.599999999995
 20
6603.940085917597
 30
0.0
 11
8655.194120106228
 21
6660.534206023831
 31
0.0
  0
LINE
  5
24FD2
330
747D
100
AcDbEntity
  8
部品1
 48
50.0
100
AcDbLine
 10
8598.599999999995
 20
6660.534206023831
 30
0.0
 11
8598.599999999999
 21
6380.534206023814
 31
0.0
  0
LINE
  5
24FD3
330
747D
100
AcDbEntity
  8
細線
 48
50.0
100
AcDbLine
 10
8598.599999999997
 20
6514.137524706777
 30
0.0
 11
8744.996681317051
 21
6660.534206023831
 31
0.0
  0
LINE
  5
24FD4
330
747D
100
AcDbEntity
  8
細線
 48
50.0
100
AcDbLine
 10
8598.599999999997
 20
6469.236244101432
 30
0.0
 11
8789.897961922399
 21
6660.534206023832
 31
0.0
  0
LINE
  5
24FD5
330
747D
100
AcDbEntity
  8
細線
 48
50.0
100
AcDbLine
 10
8598.600000000001
 20
6424.33496349609
 30
0.0
 11
8798.599999999995
 21
6624.334963496083
 31
0.0
  0
LINE
  5
24FD6
330
747D
100
AcDbEntity
  8
細線
 48
50.0
100
AcDbLine
 10
8599.700523133073
 20
6380.534206023817
 30
0.0
 11
8798.599999999995
 21
6579.433682890741
 31
0.0
  0
LINE
  5
24FD7
330
747D
100
AcDbEntity
  8
細線
 48
50.0
100
AcDbLine
 10
8644.601803738417
 20
6380.534206023817
 30
0.0
 11
8798.599999999995
 21
6534.532402285394
 31
0.0
  0
LINE
  5
24FD8
330
747D
100
AcDbEntity
  8
細線
 48
50.0
100
AcDbLine
 10
8689.503084343765
 20
6380.534206023817
 30
0.0
 11
8798.6
 21
6489.631121680051
 31
0.0
  0
LINE
  5
24FD9
330
747D
100
AcDbEntity
  8
細線
 48
50.0
100
AcDbLine
 10
9729.305645554457
 20
6380.534206023821
 30
0.0
 11
9748.600000000001
 21
6399.828560469361
 31
0.0
  0
LINE
  5
24FDA
330
747D
100
AcDbEntity
  8
部品1
 48
50.0
100
AcDbLine
 10
9748.599999999996
 20
6660.534206023831
 30
0.0
 11
9748.599999999999
 21
6380.534206023818
 31
0.0
  0
LINE
  5
24FDB
330
747D
100
AcDbEntity
  8
細線
 48
50.0
100
AcDbLine
 10
9684.404364949113
 20
6380.534206023817
 30
0.0
 11
9748.600000000001
 21
6444.729841074708
 31
0.0
  0
LINE
  5
24FDC
330
747D
100
AcDbEntity
  8
細線
 48
50.0
100
AcDbLine
 10
9548.599999999998
 20
6559.038805312251
 30
0.0
 11
9650.095400711578
 21
6660.534206023831
 31
0.0
  0
LINE
  5
24FDD
330
747D
100
AcDbEntity
  8
細線
 48
50.0
100
AcDbLine
 10
9548.599999999995
 20
6603.940085917597
 30
0.0
 11
9605.194120106229
 21
6660.534206023831
 31
0.0
  0
LINE
  5
24FDE
330
747D
100
AcDbEntity
  8
部品1
 48
50.0
100
AcDbLine
 10
9548.599999999995
 20
6660.534206023831
 30
0.0
 11
9548.599999999998
 21
6380.534206023814
 31
0.0
  0
LINE
  5
24FDF
330
747D
100
AcDbEntity
  8
細線
 48
50.0
100
AcDbLine
 10
9548.599999999998
 20
6514.137524706777
 30
0.0
 11
9694.99668131705
 21
6660.534206023831
 31
0.0
  0
LINE
  5
24FE0
330
747D
100
AcDbEntity
  8
細線
 48
50.0
100
AcDbLine
 10
9548.599999999998
 20
6469.236244101432
 30
0.0
 11
9739.8979619224
 21
6660.534206023832
 31
0.0
  0
LINE
  5
24FE1
330
747D
100
AcDbEntity
  8
細線
 48
50.0
100
AcDbLine
 10
9548.6
 20
6424.33496349609
 30
0.0
 11
9748.599999999996
 21
6624.334963496083
 31
0.0
  0
LINE
  5
24FE2
330
747D
100
AcDbEntity
  8
細線
 48
50.0
100
AcDbLine
 10
9549.700523133074
 20
6380.534206023817
 30
0.0
 11
9748.599999999996
 21
6579.433682890741
 31
0.0
  0
LINE
  5
24FE3
330
747D
100
AcDbEntity
  8
細線
 48
50.0
100
AcDbLine
 10
9594.601803738418
 20
6380.534206023817
 30
0.0
 11
9748.599999999996
 21
6534.532402285394
 31
0.0
  0
LINE
  5
24FE4
330
747D
100
AcDbEntity
  8
細線
 48
50.0
100
AcDbLine
 10
9639.503084343765
 20
6380.534206023817
 30
0.0
 11
9748.600000000001
 21
6489.631121680051
 31
0.0
  0
LINE
  5
24FEF
330
747D
100
AcDbEntity
  8
部品1
 48
50.0
100
AcDbLine
 10
6438.6
 20
6660.534206023829
 30
0.0
 11
6438.599999999995
 21
7140.534206023829
 31
0.0
  0
LINE
  5
24FF0
330
747D
100
AcDbEntity
  8
部品1
 48
50.0
100
AcDbLine
 10
10008.6
 20
6660.534206023851
 30
0.0
 11
10008.6
 21
7140.534206023829
 31
0.0
  0
MTEXT
  5
25188
102
{ACAD_REACTORS
330
25189
102
}
330
747D
100
AcDbEntity
  8
寸法
 62
     7
 48
50.0
100
AcDbMText
 10
10652.82139945821
 20
2127.543346618955
 30
0.0
 40
120.0
 41
0.8
 71
     4
 72
     1
  1
\A1;C.B
  7
STYLE1
 73
     1
 44
1.0
1001
ACAD
1000
MTEXTBEGIN
1070
    73
1070
     1
1070
    44
1040
1.0
1070
    74
1070
     0
1000
MTEXTEND
  0
LEADER
  5
25189
330
747D
100
AcDbEntity
  8
寸法
 48
50.0
100
AcDbLeader
  3
INABA_S50G
 73
     0
 74
     0
 75
     1
 40
120.0
 41
185.591883092037
 76
     3
 10
10469.68319282456
 20
1870.397025937817
 30
0.0
 10
10502.82139945821
 20
2042.543346618954
 30
0.0
 10
10627.82139945821
 20
2042.543346618954
 30
0.0
340
25188
1001
ACAD
1000
DSTYLE
1002
{
1070
    40
1040
1.0
1002
}
  0
LINE
  5
2518A
330
747D
100
AcDbEntity
  8
細線
 48
50.0
100
AcDbLine
 10
10615.33660640097
 20
1514.698110284466
 30
0.0
 11
10608.90582578263
 21
1538.698110284466
 31
0.0
  0
LINE
  5
2518B
330
747D
100
AcDbEntity
  8
細線
 48
50.0
100
AcDbLine
 10
10593.90067100648
 20
1434.698110284466
 30
0.0
 11
10600.33145162483
 21
1410.698110284466
 31
0.0
  0
LINE
  5
2518C
330
747D
100
AcDbEntity
  8
部品1
100
AcDbLine
 10
10658.95878120864
 20
1630.397025937816
 30
0.0
 11
10658.95878120864
 21
1410.698110284466
 31
0.0
  0
LINE
  5
2518D
330
747D
100
AcDbEntity
  8
細線
 48
50.0
100
AcDbLine
 10
10587.46989038813
 20
1410.698110284466
 30
0.0
 11
10621.76738701932
 21
1538.698110284464
 31
0.0
  0
LINE
  5
2518E
330
747D
100
AcDbEntity
  8
細線
 48
50.0
100
AcDbLine
 10
10536.44856145373
 20
1514.698110284466
 30
0.0
 11
10530.01778083538
 21
1538.698110284466
 31
0.0
  0
LINE
  5
2518F
330
747D
100
AcDbEntity
  8
細線
100
AcDbLine
 10
10411.99517570797
 20
1538.698110284468
 30
0.0
 11
10503.69409136132
 21
1630.397025937816
 31
0.0
  0
LINE
  5
25190
330
747D
100
AcDbEntity
  8
細線
 48
50.0
100
AcDbLine
 10
10457.56051650647
 20
1514.698110284466
 30
0.0
 11
10451.12973588812
 21
1538.698110284467
 31
0.0
  0
LINE
  5
25191
330
747D
100
AcDbEntity
  8
細線
100
AcDbLine
 10
10445.93630120493
 20
1538.698110284468
 30
0.0
 11
10537.63521685827
 21
1630.397025937816
 31
0.0
  0
LINE
  5
25192
330
747D
100
AcDbEntity
  8
細線
 48
50.0
100
AcDbLine
 10
10220.89638166474
 20
1514.698110284466
 30
0.0
 11
10214.46560104639
 21
1538.698110284467
 31
0.0
  0
LINE
  5
25193
330
747D
100
AcDbEntity
  8
細線
 48
50.0
100
AcDbLine
 10
10299.78442661199
 20
1514.698110284466
 30
0.0
 11
10293.35364599364
 21
1538.698110284467
 31
0.0
  0
LINE
  5
25194
330
747D
100
AcDbEntity
  8
細線
 48
50.0
100
AcDbLine
 10
10378.67247155923
 20
1514.698110284466
 30
0.0
 11
10372.24169094089
 21
1538.698110284467
 31
0.0
  0
LINE
  5
25195
330
747D
100
AcDbEntity
  8
細線
 48
50.0
100
AcDbLine
 10
10515.01262605924
 20
1434.698110284466
 30
0.0
 11
10521.44340667758
 21
1410.698110284466
 31
0.0
  0
LINE
  5
25196
330
747D
100
AcDbEntity
  8
細線
 48
50.0
100
AcDbLine
 10
10436.12458111199
 20
1434.698110284466
 30
0.0
 11
10442.55536173035
 21
1410.698110284466
 31
0.0
  0
LINE
  5
25197
330
747D
100
AcDbEntity
  8
細線
 48
50.0
100
AcDbLine
 10
10278.3484912175
 20
1434.698110284466
 30
0.0
 11
10284.77927183584
 21
1410.698110284466
 31
0.0
  0
LINE
  5
25198
330
747D
100
AcDbEntity
  8
細線
 48
50.0
100
AcDbLine
 10
10357.23653616474
 20
1434.698110284466
 30
0.0
 11
10363.66731678309
 21
1410.698110284466
 31
0.0
  0
LINE
  5
25199
330
747D
100
AcDbEntity
  8
細線
 48
50.0
100
AcDbLine
 10
10350.80575554639
 20
1410.698110284466
 30
0.0
 11
10385.10325217758
 21
1538.698110284466
 31
0.0
  0
LINE
  5
2519A
330
747D
100
AcDbEntity
  8
細線
 48
50.0
100
AcDbLine
 10
10271.91771059915
 20
1410.698110284466
 30
0.0
 11
10306.21520723033
 21
1538.698110284466
 31
0.0
  0
LINE
  5
2519B
330
747D
100
AcDbEntity
  8
細線
 48
50.0
100
AcDbLine
 10
10429.69380049364
 20
1410.698110284466
 30
0.0
 11
10463.99129712481
 21
1538.698110284467
 31
0.0
  0
LINE
  5
2519C
330
747D
100
AcDbEntity
  8
細線
100
AcDbLine
 10
10479.87742670188
 20
1538.698110284468
 30
0.0
 11
10571.57634235523
 21
1630.397025937816
 31
0.0
  0
LINE
  5
2519D
330
747D
100
AcDbEntity
  8
細線
 48
50.0
100
AcDbLine
 10
10508.58184544089
 20
1410.698110284464
 30
0.0
 11
10542.87934207207
 21
1538.698110284464
 31
0.0
  0
LINE
  5
2519E
330
747D
100
AcDbEntity
  8
部品1
100
AcDbLine
 10
10538.95878120864
 20
1870.397025937817
 30
0.0
 11
10538.95878120864
 21
1630.397025937816
 31
0.0
  0
LINE
  5
2519F
330
747D
100
AcDbEntity
  8
細線
100
AcDbLine
 10
10525.12111886106
 20
1630.397025937818
 30
0.0
 11
10285.12111886106
 21
1870.397025937817
 31
0.0
  0
LINE
  5
251A0
330
747D
100
AcDbEntity
  8
細線
100
AcDbLine
 10
10474.20943061563
 20
1630.397025937816
 30
0.0
 11
10234.20943061563
 21
1870.397025937817
 31
0.0
  0
LINE
  5
251A1
330
747D
100
AcDbEntity
  8
細線
100
AcDbLine
 10
10085.93630120493
 20
1538.698110284467
 30
0.0
 11
10177.63521685827
 21
1630.397025937816
 31
0.0
  0
LINE
  5
251A2
330
747D
100
AcDbEntity
  8
細線
100
AcDbLine
 10
10051.99517570797
 20
1538.698110284467
 30
0.0
 11
10143.69409136132
 21
1630.397025937816
 31
0.0
  0
LINE
  5
251A3
330
747D
100
AcDbEntity
  8
細線
 48
50.0
100
AcDbLine
 10
10063.12029177024
 20
1514.698110284466
 30
0.0
 11
10056.68951115189
 21
1538.698110284467
 31
0.0
  0
LINE
  5
251A4
330
747D
100
AcDbEntity
  8
細線
 48
50.0
100
AcDbLine
 10
10142.00833671749
 20
1514.698110284466
 30
0.0
 11
10135.57755609915
 21
1538.698110284467
 31
0.0
  0
LINE
  5
251A5
330
747D
100
AcDbEntity
  8
細線
 48
50.0
100
AcDbLine
 10
9984.232246822992
 20
1514.698110284466
 30
0.0
 11
9977.801466204645
 21
1538.698110284467
 31
0.0
  0
LINE
  5
251A6
330
747D
100
AcDbEntity
  8
細線
 48
50.0
100
AcDbLine
 10
10199.46044627025
 20
1434.698110284466
 30
0.0
 11
10205.8912268886
 21
1410.698110284466
 31
0.0
  0
LINE
  5
251A7
330
747D
100
AcDbEntity
  8
細線
 48
50.0
100
AcDbLine
 10
10120.572401323
 20
1434.698110284466
 30
0.0
 11
10127.00318194135
 21
1410.698110284466
 31
0.0
  0
LINE
  5
251A8
330
747D
100
AcDbEntity
  8
細線
 48
50.0
100
AcDbLine
 10
9962.796311428505
 20
1434.698110284466
 30
0.0
 11
9969.227092046851
 21
1410.698110284466
 31
0.0
  0
LINE
  5
251A9
330
747D
100
AcDbEntity
  8
細線
 48
50.0
100
AcDbLine
 10
10041.68435637575
 20
1434.698110284466
 30
0.0
 11
10048.1151369941
 21
1410.698110284466
 31
0.0
  0
LINE
  5
251AA
330
747D
100
AcDbEntity
  8
部品1
100
AcDbLine
 10
9938.958781208643
 20
1410.698110284463
 30
0.0
 11
9938.958781208643
 21
1630.397025937816
 31
0.0
  0
LINE
  5
251AB
330
747D
100
AcDbEntity
  8
細線
 48
50.0
100
AcDbLine
 10
9956.365530810156
 20
1410.698110284466
 30
0.0
 11
9990.663027441341
 21
1538.698110284467
 31
0.0
  0
LINE
  5
251AC
330
747D
100
AcDbEntity
  8
細線
 48
50.0
100
AcDbLine
 10
10114.14162070465
 20
1410.698110284466
 30
0.0
 11
10148.43911733584
 21
1538.698110284467
 31
0.0
  0
LINE
  5
251AD
330
747D
100
AcDbEntity
  8
細線
 48
50.0
100
AcDbLine
 10
10035.2535757574
 20
1410.698110284466
 30
0.0
 11
10069.55107238858
 21
1538.698110284466
 31
0.0
  0
LINE
  5
251AE
330
747D
100
AcDbEntity
  8
部品1
100
AcDbLine
 10
10058.95878120864
 20
1630.397025937816
 30
0.0
 11
10058.95878120864
 21
1870.397025937817
 31
0.0
  0
TEXT
  5
251AF
330
747D
100
AcDbEntity
  8
部品1
 48
50.0
100
AcDbText
 10
9294.84069445014
 20
1363.597285300508
 30
0.0
 40
80.0
  1
ボルトの出
 50
90.0
  7
STYLE2
100
AcDbText
  0
LINE
  5
251B0
330
747D
100
AcDbEntity
  8
細線
100
AcDbLine
 10
10202.68042663999
 20
1630.397025937816
 30
0.0
 11
10058.95878120864
 21
1774.118671369169
 31
0.0
  0
LWPOLYLINE
  5
251B1
330
747D
100
AcDbEntity
  8
部品1
 48
50.0
100
AcDbPolyline
 90
        2
 70
     0
 43
12.0
 10
9674.347519108255
 20
1630.397025937816
 10
10875.43982223988
 20
1630.397025937816
  0
LINE
  5
251B2
330
747D
100
AcDbEntity
  8
細線
100
AcDbLine
 10
10119.87742670188
 20
1538.698110284467
 30
0.0
 11
10211.57634235523
 21
1630.397025937816
 31
0.0
  0
LINE
  5
251B3
330
747D
100
AcDbEntity
  8
部品1
100
AcDbLine
 10
9938.958781208643
 20
1538.698110284467
 30
0.0
 11
10658.95878120864
 21
1538.698110284469
 31
0.0
  0
LINE
  5
251B4
330
747D
100
AcDbEntity
  8
部品1
100
AcDbLine
 10
9938.958781208643
 20
1410.698110284463
 30
0.0
 11
10658.95878120864
 21
1410.698110284466
 31
0.0
  0
LINE
  5
251B5
330
747D
100
AcDbEntity
  8
細線
 48
50.0
100
AcDbLine
 10
10193.0296656519
 20
1410.698110284466
 30
0.0
 11
10227.32716228309
 21
1538.698110284466
 31
0.0
  0
LINE
  5
251B6
330
747D
100
AcDbEntity
  8
部品1
100
AcDbLine
 10
10058.95878120864
 20
1870.397025937817
 30
0.0
 11
10538.95878120864
 21
1870.397025937817
 31
0.0
  0
LINE
  5
251B7
330
747D
100
AcDbEntity
  8
細線
100
AcDbLine
 10
10253.59211488543
 20
1630.397025937816
 30
0.0
 11
10058.95878120864
 21
1825.0303596146
 31
0.0
  0
LINE
  5
251B8
330
747D
100
AcDbEntity
  8
部品1
100
AcDbLine
 10
11245.70028230567
 20
305.4287235537549
 30
0.0
 11
11245.70028230568
 21
3269.735693138402
 31
0.0
  0
TEXT
  5
251B9
330
747D
100
AcDbEntity
  8
部品1
100
AcDbText
 10
7867.595098097815
 20
3090.183761186974
 30
0.0
 40
120.0
  1
基礎詳細
  7
STYLE2
100
AcDbText
  0
LINE
  5
251BA
330
747D
100
AcDbEntity
  8
部品1
 48
50.0
100
AcDbLine
 10
8182.822848905885
 20
2269.272307046959
 30
0.0
 11
8198.822848905885
 21
2261.272307046959
 31
0.0
  0
LINE
  5
251BB
330
747D
100
AcDbEntity
  8
細線
 48
50.0
100
AcDbLine
 10
8150.822848905885
 20
2221.272307046959
 30
0.0
 11
8150.822848905885
 21
2253.272307046959
 31
0.0
  0
LINE
  5
251BC
330
747D
100
AcDbEntity
  8
部品1
 48
50.0
100
AcDbLine
 10
8198.822848905885
 20
2229.272307046959
 30
0.0
 11
8198.822848905885
 21
2261.272307046959
 31
0.0
  0
LINE
  5
251BD
330
747D
100
AcDbEntity
  8
細線
 48
50.0
100
AcDbLine
 10
8182.822848905885
 20
2221.272307046959
 30
0.0
 11
8182.822848905885
 21
2253.272307046959
 31
0.0
  0
LINE
  5
251BE
330
747D
100
AcDbEntity
  8
部品1
 48
50.0
100
AcDbLine
 10
8182.822848905885
 20
2253.272307046959
 30
0.0
 11
8198.822848905885
 21
2261.272307046959
 31
0.0
  0
LINE
  5
251BF
330
747D
100
AcDbEntity
  8
部品1
 48
50.0
100
AcDbLine
 10
8150.822848905885
 20
2253.272307046959
 30
0.0
 11
8182.822848905885
 21
2253.272307046959
 31
0.0
  0
LINE
  5
251C0
330
747D
100
AcDbEntity
  8
部品1
 48
50.0
100
AcDbLine
 10
8182.822848905885
 20
2221.272307046959
 30
0.0
 11
8198.822848905885
 21
2229.272307046959
 31
0.0
  0
LINE
  5
251C1
330
747D
100
AcDbEntity
  8
部品1
 48
50.0
100
AcDbLine
 10
8150.822848905885
 20
2221.272307046959
 30
0.0
 11
8182.822848905885
 21
2221.272307046959
 31
0.0
  0
ELLIPSE
  5
251C2
330
747D
100
AcDbEntity
  8
細線
 48
50.0
100
AcDbEllipse
 10
8166.822848905885
 20
2261.272307046959
 30
0.0
 11
14.76670786606846
 21
0.0
 31
0.0
210
0.0
220
0.0
230
1.0
 40
0.2071254069489396
 41
0.0
 42
6.283185307179586
  0
LINE
  5
251C3
330
747D
100
AcDbEntity
  8
部品1
 48
50.0
100
AcDbLine
 10
8150.822848905885
 20
2269.272307046959
 30
0.0
 11
8182.822848905885
 21
2269.272307046959
 31
0.0
  0
LINE
  5
251C4
330
747D
100
AcDbEntity
  8
部品1
 48
50.0
100
AcDbLine
 10
8134.822848905885
 20
2229.272307046959
 30
0.0
 11
8134.822848905885
 21
2261.272307046959
 31
0.0
  0
LINE
  5
251C5
330
747D
100
AcDbEntity
  8
部品1
 48
50.0
100
AcDbLine
 10
8134.822848905885
 20
2261.272307046959
 30
0.0
 11
8150.822848905885
 21
2269.272307046959
 31
0.0
  0
LINE
  5
251C6
330
747D
100
AcDbEntity
  8
部品1
 48
50.0
100
AcDbLine
 10
8134.822848905885
 20
2229.272307046959
 30
0.0
 11
8150.822848905885
 21
2221.272307046959
 31
0.0
  0
LINE
  5
251C7
330
747D
100
AcDbEntity
  8
部品1
 48
50.0
100
AcDbLine
 10
8134.822848905885
 20
2261.272307046959
 30
0.0
 11
8150.822848905885
 21
2253.272307046959
 31
0.0
  0
LINE
  5
251C8
330
747D
100
AcDbEntity
  8
部品1
 48
50.0
100
AcDbLine
 10
8206.822848905884
 20
2129.920314382089
 30
0.0
 11
8206.822848905884
 21
2139.520314382089
 31
0.0
  0
ELLIPSE
  5
251C9
330
747D
100
AcDbEntity
  8
部品1
 48
50.0
100
AcDbEllipse
 10
8166.822848905885
 20
2139.520314382089
 30
0.0
 11
18.4
 21
0.0
 31
0.0
210
0.0
220
0.0
230
1.0
 40
0.3478260869565217
 41
0.0
 42
6.283185307179586
  0
ARC
  5
251CA
330
747D
100
AcDbEntity
  8
部品1
100
AcDbCircle
 10
8005.722848905886
 20
1968.497025937817
 30
0.0
 40
2.7
100
AcDbArc
 50
90.0
 51
180.0
  0
LINE
  5
251CB
330
747D
100
AcDbEntity
  8
部品1
100
AcDbLine
 10
8008.422848905885
 20
1981.997025937817
 30
0.0
 11
8050.722848905886
 21
1981.997025937813
 31
0.0
  0
LINE
  5
251CC
330
747D
100
AcDbEntity
  8
部品1
100
AcDbLine
 10
8005.722848905886
 20
1971.197025937817
 30
0.0
 11
8005.722848905886
 21
1979.297025937816
 31
0.0
  0
LINE
  5
251CD
330
747D
100
AcDbEntity
  8
部品1
100
AcDbLine
 10
8005.722848905886
 20
1971.197025937817
 30
0.0
 11
8005.722848905886
 21
1971.197025937817
 31
0.0
  0
ARC
  5
251CE
330
747D
100
AcDbEntity
  8
部品1
100
AcDbCircle
 10
8008.422848905885
 20
1979.297025937816
 30
0.0
 40
2.7
100
AcDbArc
 50
90.0
 51
180.0
  0
ARC
  5
251CF
330
747D
100
AcDbEntity
  8
部品1
100
AcDbCircle
 10
8050.722848905886
 20
1979.297025937813
 30
0.0
 40
2.7
100
AcDbArc
 50
0.0
 51
90.0
  0
LINE
  5
251D0
330
747D
100
AcDbEntity
  8
部品1
 48
50.0
100
AcDbLine
 10
8126.822848905886
 20
2139.520314382089
 30
0.0
 11
8126.822848905886
 21
2129.920314382089
 31
0.0
  0
ELLIPSE
  5
251D1
330
747D
100
AcDbEntity
  8
部品1
 48
50.0
100
AcDbEllipse
 10
8166.822848905885
 20
2129.92031438209
 30
0.0
 11
40.0
 21
0.0
 31
0.0
210
0.0
220
0.0
230
1.0
 40
0.4
 41
3.141592653589793
 42
6.283185307179586
  0
ELLIPSE
  5
251D2
330
747D
100
AcDbEntity
  8
部品1
 48
50.0
100
AcDbEllipse
 10
8166.822848905885
 20
2139.520314382089
 30
0.0
 11
40.0
 21
0.0
 31
0.0
210
0.0
220
0.0
230
1.0
 40
0.4
 41
0.0
 42
6.283185307179586
  0
LINE
  5
251D3
330
747D
100
AcDbEntity
  8
部品1
100
AcDbLine
 10
8161.422848905884
 20
1923.157025937817
 30
0.0
 11
8172.222848905885
 21
1923.157025937817
 31
0.0
  0
LINE
  5
251D4
330
747D
100
AcDbEntity
  8
部品1
100
AcDbLine
 10
8157.822848905885
 20
1919.557025937817
 30
0.0
 11
8175.822848905886
 21
1919.557025937817
 31
0.0
  0
LINE
  5
251D5
330
747D
100
AcDbEntity
  8
細線
100
AcDbLine
 10
8161.422848905887
 20
1879.957025937817
 30
0.0
 11
8161.422848905884
 21
1923.157025937817
 31
0.0
  0
LINE
  5
251D6
330
747D
100
AcDbEntity
  8
細線
100
AcDbLine
 10
8172.222848905885
 20
1879.957025937817
 30
0.0
 11
8172.222848905885
 21
1923.157025937817
 31
0.0
  0
LINE
  5
251D7
330
747D
100
AcDbEntity
  8
部品1
100
AcDbLine
 10
8074.122848905885
 20
1937.257025937817
 30
0.0
 11
8074.122848905885
 21
1920.157025937817
 31
0.0
  0
LINE
  5
251D8
330
747D
100
AcDbEntity
  8
部品1
100
AcDbLine
 10
8107.682848905886
 20
1937.257025937817
 30
0.0
 11
8107.682848905882
 21
1882.657025937817
 31
0.0
  0
ARC
  5
251D9
330
747D
100
AcDbEntity
  8
部品1
100
AcDbCircle
 10
8093.022848905887
 20
1925.297025937816
 30
0.0
 40
2.7
100
AcDbArc
 50
0.0
 51
90.0
  0
LINE
  5
251DA
330
747D
100
AcDbEntity
  8
部品1
100
AcDbLine
 10
8053.422848905885
 20
1927.997025937817
 30
0.0
 11
8093.022848905887
 21
1927.997025937817
 31
0.0
  0
ARC
  5
251DB
330
747D
100
AcDbEntity
  8
部品1
100
AcDbCircle
 10
8093.022848905887
 20
1882.657025937817
 30
0.0
 40
2.7
100
AcDbArc
 50
270.0
 51
0.0
  0
ARC
  5
251DC
330
747D
100
AcDbEntity
  8
部品1
100
AcDbCircle
 10
8110.38284890588
 20
1882.657025937817
 30
0.0
 40
2.7
100
AcDbArc
 50
180.0
 51
270.0
  0
LINE
  5
251DD
330
747D
100
AcDbEntity
  8
部品1
100
AcDbLine
 10
8081.322848905886
 20
1879.957025937817
 30
0.0
 11
8093.022848905887
 21
1879.957025937817
 31
0.0
  0
LINE
  5
251DE
330
747D
100
AcDbEntity
  8
部品1
100
AcDbLine
 10
8095.722848905884
 20
1925.297025937816
 30
0.0
 11
8095.722848905884
 21
1882.657025937817
 31
0.0
  0
ARC
  5
251DF
330
747D
100
AcDbEntity
  8
部品1
100
AcDbCircle
 10
8104.982848905885
 20
1937.257025937817
 30
0.0
 40
2.7
100
AcDbArc
 50
0.0
 51
90.0
  0
ARC
  5
251E0
330
747D
100
AcDbEntity
  8
部品1
100
AcDbCircle
 10
8076.822848905885
 20
1937.257025937817
 30
0.0
 40
2.7
100
AcDbArc
 50
90.0
 51
180.0
  0
LINE
  5
251E1
330
747D
100
AcDbEntity
  8
部品1
100
AcDbLine
 10
8076.822848905885
 20
1939.957025937817
 30
0.0
 11
8104.982848905885
 21
1939.957025937817
 31
0.0
  0
LINE
  5
251E2
330
747D
100
AcDbEntity
  8
部品1
100
AcDbLine
 10
8053.422848905885
 20
1979.297025937813
 30
0.0
 11
8053.422848905885
 21
1927.997025937817
 31
0.0
  0
LINE
  5
251E3
330
747D
100
AcDbEntity
  8
部品1
100
AcDbLine
 10
8003.022848905887
 20
1960.397025937816
 30
0.0
 11
8003.022848905887
 21
1968.497025937817
 31
0.0
  0
LINE
  5
251E4
330
747D
100
AcDbEntity
  8
部品1
100
AcDbLine
 10
8110.38284890588
 20
1879.957025937817
 30
0.0
 11
8311.72284890588
 21
1879.957025937817
 31
0.0
  0
LINE
  5
251E5
330
747D
100
AcDbEntity
  8
部品1
100
AcDbLine
 10
7951.722848905885
 20
1882.657025937817
 30
0.0
 11
7951.722848905885
 21
1944.788929640525
 31
0.0
  0
LINE
  5
251E6
330
747D
100
AcDbEntity
  8
部品1
100
AcDbLine
 10
7954.422848905884
 20
1879.957025937817
 30
0.0
 11
7966.12284890588
 21
1879.957025937817
 31
0.0
  0
LINE
  5
251E7
330
747D
100
AcDbEntity
  8
細線
 48
50.0
100
AcDbLine
 10
7945.422848905884
 20
1858.177602237721
 30
0.0
 11
7957.642272605979
 21
1870.397025937817
 31
0.0
  0
ARC
  5
251E8
330
747D
100
AcDbEntity
  8
部品1
100
AcDbCircle
 10
7954.422848905884
 20
1882.657025937817
 30
0.0
 40
2.7
100
AcDbArc
 50
180.0
 51
270.0
  0
LINE
  5
251E9
330
747D
100
AcDbEntity
  8
部品1
100
AcDbLine
 10
7953.768002718287
 20
1947.408314390916
 30
0.0
 11
7962.522848905887
 21
1949.597025937816
 31
0.0
  0
ARC
  5
251EA
330
747D
100
AcDbEntity
  8
部品1
100
AcDbCircle
 10
7954.422848905884
 20
1944.788929640525
 30
0.0
 40
2.7
100
AcDbArc
 50
104.0362434679067
 51
180.0
  0
ARC
  5
251EB
330
747D
100
AcDbEntity
  8
部品1
100
AcDbCircle
 10
7965.222848905885
 20
1957.697025937816
 30
0.0
 40
2.7
100
AcDbArc
 50
90.0
 51
180.0
  0
LINE
  5
251EC
330
747D
100
AcDbEntity
  8
部品1
100
AcDbLine
 10
7962.522848905887
 20
1949.597025937816
 30
0.0
 11
7962.522848905887
 21
1957.697025937816
 31
0.0
  0
LINE
  5
251ED
330
747D
100
AcDbEntity
  8
部品1
 48
50.0
100
AcDbLine
 10
7945.422848905884
 20
1870.397025937817
 30
0.0
 11
8359.422848905888
 21
1870.397025937817
 31
0.0
  0
LINE
  5
251EE
330
747D
100
AcDbEntity
  8
細線
 48
50.0
100
AcDbLine
 10
7945.422848905884
 20
1804.296065511307
 30
0.0
 11
8011.523809332395
 21
1870.397025937817
 31
0.0
  0
LINE
  5
251EF
330
747D
100
AcDbEntity
  8
細線
 48
50.0
100
AcDbLine
 10
7945.422848905884
 20
1831.236833874514
 30
0.0
 11
7984.583040969191
 21
1870.397025937817
 31
0.0
  0
LINE
  5
251F0
330
747D
100
AcDbEntity
  8
部品1
100
AcDbLine
 10
7965.222848905885
 20
1960.397025937816
 30
0.0
 11
8003.022848905887
 21
1960.397025937816
 31
0.0
  0
LINE
  5
251F1
330
747D
100
AcDbEntity
  8
部品1
 48
50.0
100
AcDbLine
 10
8359.422848905884
 20
1326.397025937816
 30
0.0
 11
8487.422848905884
 21
1326.397025937816
 31
0.0
  0
LINE
  5
251F2
330
747D
100
AcDbEntity
  8
部品1
100
AcDbLine
 10
8175.822848905886
 20
1645.397025937817
 30
0.0
 11
8211.822848905887
 21
1645.397025937817
 31
0.0
  0
LINE
  5
251F3
330
747D
100
AcDbEntity
  8
部品1
100
AcDbLine
 10
8175.822848905886
 20
1627.397025937816
 30
0.0
 11
8211.822848905887
 21
1627.397025937816
 31
0.0
  0
ARC
  5
251F4
330
747D
100
AcDbEntity
  8
部品1
100
AcDbCircle
 10
8175.822848905886
 20
1645.397025937817
 30
0.0
 40
18.0
100
AcDbArc
 50
180.0
 51
270.0
  0
LINE
  5
251F5
330
747D
100
AcDbEntity
  8
部品1
100
AcDbLine
 10
8211.822848905887
 20
1627.397025937816
 30
0.0
 11
8211.822848905887
 21
1645.397025937817
 31
0.0
  0
LINE
  5
251F6
330
747D
100
AcDbEntity
  8
部品1
100
AcDbLine
 10
8229.822848905886
 20
1546.397025937815
 30
0.0
 11
8103.822848905878
 21
1546.397025937815
 31
0.0
  0
LINE
  5
251F7
330
747D
100
AcDbEntity
  8
細線
 48
50.0
100
AcDbLine
 10
8523.80067409822
 20
1062.397025937815
 30
0.0
 11
8517.369893479873
 21
1086.397025937815
 31
0.0
  0
LINE
  5
251F8
330
747D
100
AcDbEntity
  8
細線
 48
50.0
100
AcDbLine
 10
8444.912629150975
 20
1062.397025937815
 30
0.0
 11
8438.48184853263
 21
1086.397025937815
 31
0.0
  0
LINE
  5
251F9
330
747D
100
AcDbEntity
  8
細線
 48
50.0
100
AcDbLine
 10
8366.024584203719
 20
1062.397025937817
 30
0.0
 11
8359.59380358537
 21
1086.397025937816
 31
0.0
  0
LINE
  5
251FA
330
747D
100
AcDbEntity
  8
細線
 48
50.0
100
AcDbLine
 10
8502.364738703731
 20
982.3970259378148
 30
0.0
 11
8508.795519322079
 21
958.3970259378148
 31
0.0
  0
LINE
  5
251FB
330
747D
100
AcDbEntity
  8
細線
 48
50.0
100
AcDbLine
 10
8423.476693756486
 20
982.3970259378148
 30
0.0
 11
8429.907474374832
 21
958.3970259378148
 31
0.0
  0
LINE
  5
251FC
330
747D
100
AcDbEntity
  8
細線
 48
50.0
100
AcDbLine
 10
8344.588648809237
 20
982.3970259378166
 30
0.0
 11
8351.019429427593
 21
958.3970259378165
 31
0.0
  0
LINE
  5
251FD
330
747D
100
AcDbEntity
  8
細線
 48
50.0
100
AcDbLine
 10
8417.045913138137
 20
958.3970259378139
 30
0.0
 11
8451.34340976932
 21
1086.397025937814
 31
0.0
  0
LINE
  5
251FE
330
747D
100
AcDbEntity
  8
細線
 48
50.0
100
AcDbLine
 10
8338.157868190887
 20
958.3970259378148
 30
0.0
 11
8372.45536482206
 21
1086.397025937816
 31
0.0
  0
LINE
  5
251FF
330
747D
100
AcDbEntity
  8
細線
 48
50.0
100
AcDbLine
 10
8495.933958085378
 20
958.3970259378148
 30
0.0
 11
8530.231454716567
 21
1086.397025937814
 31
0.0
  0
LINE
  5
25200
330
747D
100
AcDbEntity
  8
部品1
 48
50.0
100
AcDbLine
 10
8567.422848905888
 20
1086.397025937816
 30
0.0
 11
8567.422848905888
 21
958.3970259378165
 31
0.0
  0
LINE
  5
25201
330
747D
100
AcDbEntity
  8
細線
 48
50.0
100
AcDbLine
 10
8287.136539256481
 20
1062.397025937817
 30
0.0
 11
8280.705758638134
 21
1086.397025937816
 31
0.0
  0
LINE
  5
25202
330
747D
100
AcDbEntity
  8
細線
 48
50.0
100
AcDbLine
 10
8208.248494309236
 20
1062.397025937817
 30
0.0
 11
8201.817713690887
 21
1086.397025937816
 31
0.0
  0
LINE
  5
25203
330
747D
100
AcDbEntity
  8
細線
 48
50.0
100
AcDbLine
 10
8050.47240441474
 20
1062.397025937817
 30
0.0
 11
8044.041623796394
 21
1086.397025937816
 31
0.0
  0
LINE
  5
25204
330
747D
100
AcDbEntity
  8
細線
 48
50.0
100
AcDbLine
 10
8129.360449361987
 20
1062.397025937817
 30
0.0
 11
8122.92966874364
 21
1086.397025937816
 31
0.0
  0
LINE
  5
25205
330
747D
100
AcDbEntity
  8
細線
 48
50.0
100
AcDbLine
 10
8186.812558914745
 20
982.3970259378166
 30
0.0
 11
8193.243339533092
 21
958.3970259378165
 31
0.0
  0
LINE
  5
25206
330
747D
100
AcDbEntity
  8
細線
 48
50.0
100
AcDbLine
 10
8265.700603861992
 20
982.3970259378166
 30
0.0
 11
8272.131384480337
 21
958.3970259378165
 31
0.0
  0
LINE
  5
25207
330
747D
100
AcDbEntity
  8
細線
 48
50.0
100
AcDbLine
 10
8029.036469020251
 20
982.3970259378166
 30
0.0
 11
8035.467249638598
 21
958.3970259378165
 31
0.0
  0
LINE
  5
25208
330
747D
100
AcDbEntity
  8
細線
 48
50.0
100
AcDbLine
 10
8107.924513967498
 20
982.3970259378166
 30
0.0
 11
8114.355294585847
 21
958.3970259378165
 31
0.0
  0
LINE
  5
25209
330
747D
100
AcDbEntity
  8
細線
 48
50.0
100
AcDbLine
 10
8259.269823243638
 20
958.3970259378165
 30
0.0
 11
8293.567319874822
 21
1086.397025937815
 31
0.0
  0
LINE
  5
2520A
330
747D
100
AcDbEntity
  8
細線
 48
50.0
100
AcDbLine
 10
8101.493733349148
 20
958.3970259378165
 30
0.0
 11
8135.791229980332
 21
1086.397025937815
 31
0.0
  0
LINE
  5
2520B
330
747D
100
AcDbEntity
  8
細線
 48
50.0
100
AcDbLine
 10
8022.605688401901
 20
958.3970259378165
 30
0.0
 11
8056.903185033084
 21
1086.397025937816
 31
0.0
  0
LINE
  5
2520C
330
747D
100
AcDbEntity
  8
細線
 48
50.0
100
AcDbLine
 10
8180.381778296396
 20
958.3970259378148
 30
0.0
 11
8214.679274927577
 21
1086.397025937815
 31
0.0
  0
LINE
  5
2520D
330
747D
100
AcDbEntity
  8
細線
 48
50.0
100
AcDbLine
 10
8305.154543860693
 20
1086.397025937816
 30
0.0
 11
8487.422848905884
 21
1268.665330983012
 31
0.0
  0
LINE
  5
2520E
330
747D
100
AcDbEntity
  8
部品1
 48
50.0
100
AcDbLine
 10
8487.422848905884
 20
1326.397025937816
 30
0.0
 11
8487.422848905884
 21
1086.397025937816
 31
0.0
  0
LINE
  5
2520F
330
747D
100
AcDbEntity
  8
細線
 48
50.0
100
AcDbLine
 10
8278.213775497489
 20
1086.397025937816
 30
0.0
 11
8487.422848905884
 21
1295.606099346209
 31
0.0
  0
LINE
  5
25210
330
747D
100
AcDbEntity
  8
細線
 48
50.0
100
AcDbLine
 10
8251.273007134278
 20
1086.397025937816
 30
0.0
 11
8487.422848905884
 21
1322.546867709425
 31
0.0
  0
LINE
  5
25211
330
747D
100
AcDbEntity
  8
細線
 48
50.0
100
AcDbLine
 10
8035.746860228618
 20
1086.397025937816
 30
0.0
 11
8359.422848905884
 21
1410.073014615083
 31
0.0
  0
LINE
  5
25212
330
747D
100
AcDbEntity
  8
細線
 48
50.0
100
AcDbLine
 10
8089.628396955035
 20
1086.397025937816
 30
0.0
 11
8359.422848905884
 21
1356.191477888674
 31
0.0
  0
LINE
  5
25213
330
747D
100
AcDbEntity
  8
細線
 48
50.0
100
AcDbLine
 10
8062.687628591829
 20
1086.397025937816
 30
0.0
 11
8359.422848905884
 21
1383.132246251869
 31
0.0
  0
LINE
  5
25214
330
747D
100
AcDbEntity
  8
細線
 48
50.0
100
AcDbLine
 10
7817.422848905881
 20
1299.125308426402
 30
0.0
 11
7844.6945664173
 21
1326.397025937816
 31
0.0
  0
LINE
  5
25215
330
747D
100
AcDbEntity
  8
部品1
 48
50.0
100
AcDbLine
 10
7817.422848905884
 20
1326.397025937816
 30
0.0
 11
7945.422848905884
 21
1326.397025937816
 31
0.0
  0
LINE
  5
25216
330
747D
100
AcDbEntity
  8
細線
 48
50.0
100
AcDbLine
 10
7817.422848905881
 20
1272.184540063192
 30
0.0
 11
7871.63533478051
 21
1326.397025937816
 31
0.0
  0
LWPOLYLINE
  5
25217
330
747D
100
AcDbEntity
  8
部品1
 48
50.0
100
AcDbPolyline
 90
        2
 70
     0
 43
8.0
 10
7531.282947072928
 20
1630.397025937817
 10
7945.422848905884
 20
1630.397025937817
  0
LINE
  5
25218
330
747D
100
AcDbEntity
  8
細線
 48
50.0
100
AcDbLine
 10
7892.69631452024
 20
1062.397025937817
 30
0.0
 11
7886.265533901891
 21
1086.397025937816
 31
0.0
  0
LINE
  5
25219
330
747D
100
AcDbEntity
  8
細線
 48
50.0
100
AcDbLine
 10
7971.584359467489
 20
1062.397025937817
 30
0.0
 11
7965.153578849141
 21
1086.397025937816
 31
0.0
  0
LINE
  5
2521A
330
747D
100
AcDbEntity
  8
細線
 48
50.0
100
AcDbLine
 10
7813.808269572986
 20
1062.397025937817
 30
0.0
 11
7807.37748895464
 21
1086.397025937816
 31
0.0
  0
LINE
  5
2521B
330
747D
100
AcDbEntity
  8
細線
 48
50.0
100
AcDbLine
 10
7737.422848905883
 20
1071.736946903596
 30
0.0
 11
7741.35100524408
 21
1086.397025937816
 31
0.0
  0
LINE
  5
2521C
330
747D
100
AcDbEntity
  8
細線
 48
50.0
100
AcDbLine
 10
7871.260379125749
 20
982.3970259378166
 30
0.0
 11
7877.691159744095
 21
958.3970259378165
 31
0.0
  0
LINE
  5
2521D
330
747D
100
AcDbEntity
  8
細線
 48
50.0
100
AcDbLine
 10
7950.148424073001
 20
982.3970259378166
 30
0.0
 11
7956.579204691348
 21
958.3970259378165
 31
0.0
  0
LINE
  5
2521E
330
747D
100
AcDbEntity
  8
細線
 48
50.0
100
AcDbLine
 10
7792.372334178498
 20
982.3970259378166
 30
0.0
 11
7798.803114796843
 21
958.3970259378165
 31
0.0
  0
LINE
  5
2521F
330
747D
100
AcDbEntity
  8
細線
 48
50.0
100
AcDbLine
 10
7943.717643454649
 20
958.3970259378148
 30
0.0
 11
7978.01514008583
 21
1086.397025937815
 31
0.0
  0
LINE
  5
25220
330
747D
100
AcDbEntity
  8
細線
 48
50.0
100
AcDbLine
 10
7785.941553560144
 20
958.3970259378148
 30
0.0
 11
7820.239050191327
 21
1086.397025937815
 31
0.0
  0
LINE
  5
25221
330
747D
100
AcDbEntity
  8
部品1
 48
50.0
100
AcDbLine
 10
7737.422848905888
 20
958.3970259378165
 30
0.0
 11
7737.422848905888
 21
1086.397025937816
 31
0.0
  0
LINE
  5
25222
330
747D
100
AcDbEntity
  8
細線
 48
50.0
100
AcDbLine
 10
7864.829598507402
 20
958.3970259378165
 30
0.0
 11
7899.127095138585
 21
1086.397025937816
 31
0.0
  0
LINE
  5
25223
330
747D
100
AcDbEntity
  8
部品1
 48
50.0
100
AcDbLine
 10
7817.422848905884
 20
1086.397025937816
 30
0.0
 11
7817.422848905884
 21
1326.397025937816
 31
0.0
  0
LINE
  5
25224
330
747D
100
AcDbEntity
  8
細線
 48
50.0
100
AcDbLine
 10
7817.422848905881
 20
1245.243771699988
 30
0.0
 11
7898.576103143715
 21
1326.397025937816
 31
0.0
  0
LINE
  5
25225
330
747D
100
AcDbEntity
  8
部品1
 48
50.0
100
AcDbLine
 10
8567.422848905888
 20
958.3970259378165
 30
0.0
 11
7737.422848905888
 21
958.3970259378165
 31
0.0
  0
LINE
  5
25226
330
747D
100
AcDbEntity
  8
部品1
 48
50.0
100
AcDbLine
 10
8567.422848905888
 20
1086.397025937816
 30
0.0
 11
7737.422848905888
 21
1086.397025937816
 31
0.0
  0
LINE
  5
25227
330
747D
100
AcDbEntity
  8
細線
 48
50.0
100
AcDbLine
 10
7820.22071332296
 20
1086.397025937816
 30
0.0
 11
8359.422848905884
 21
1625.599161520742
 31
0.0
  0
LINE
  5
25228
330
747D
100
AcDbEntity
  8
細線
 48
50.0
100
AcDbLine
 10
7847.161481686169
 20
1086.397025937816
 30
0.0
 11
8359.422848905888
 21
1598.65839315753
 31
0.0
  0
LINE
  5
25229
330
747D
100
AcDbEntity
  8
細線
 48
50.0
100
AcDbLine
 10
7874.102250049374
 20
1086.397025937816
 30
0.0
 11
8359.422848905884
 21
1571.717624794324
 31
0.0
  0
LINE
  5
2522A
330
747D
100
AcDbEntity
  8
細線
 48
50.0
100
AcDbLine
 10
7945.422848905884
 20
1427.125308426403
 30
0.0
 11
8103.822848905878
 21
1585.525308426398
 31
0.0
  0
LINE
  5
2522B
330
747D
100
AcDbEntity
  8
細線
 48
50.0
100
AcDbLine
 10
7945.422848905884
 20
1373.243771699987
 30
0.0
 11
8118.576103143722
 21
1546.397025937815
 31
0.0
  0
LINE
  5
2522C
330
747D
100
AcDbEntity
  8
細線
 48
50.0
100
AcDbLine
 10
7945.422848905884
 20
1400.184540063194
 30
0.0
 11
8103.822848905878
 21
1558.584540063183
 31
0.0
  0
LINE
  5
2522D
330
747D
100
AcDbEntity
  8
部品1
100
AcDbLine
 10
8103.822848905878
 20
1546.397025937817
 30
0.0
 11
8103.822848905885
 21
1870.397025937817
 31
0.0
  0
LINE
  5
2522E
330
747D
100
AcDbEntity
  8
部品1
100
AcDbLine
 10
8229.822848905886
 20
1546.397025937817
 30
0.0
 11
8229.822848905886
 21
1870.397025937817
 31
0.0
  0
LINE
  5
2522F
330
747D
100
AcDbEntity
  8
細線
 48
50.0
100
AcDbLine
 10
8229.822848905886
 20
1684.584540063188
 30
0.0
 11
8359.422848905884
 21
1814.184540063185
 31
0.0
  0
LINE
  5
25230
330
747D
100
AcDbEntity
  8
細線
 48
50.0
100
AcDbLine
 10
8229.822848905886
 20
1657.643771699975
 30
0.0
 11
8359.422848905884
 21
1787.243771699966
 31
0.0
  0
LINE
  5
25231
330
747D
100
AcDbEntity
  8
部品1
100
AcDbLine
 10
8157.822848905885
 20
1645.397025937817
 30
0.0
 11
8157.822848905881
 21
1919.557025937817
 31
0.0
  0
LINE
  5
25232
330
747D
100
AcDbEntity
  8
部品1
100
AcDbLine
 10
8175.822848905886
 20
1645.397025937817
 30
0.0
 11
8175.822848905882
 21
1919.557025937817
 31
0.0
  0
TEXT
  5
25233
330
747D
100
AcDbEntity
  8
部品1
 48
50.0
100
AcDbText
 10
7531.282947072928
 20
1641.636018221072
 30
0.0
 40
80.0
  1
▽G.L
  7
STYLE2
100
AcDbText
  0
LINE
  5
25234
330
747D
100
AcDbEntity
  8
細線
 48
50.0
100
AcDbLine
 10
7945.422848905884
 20
1588.769918605647
 30
0.0
 11
8103.822848905883
 21
1747.169918605639
 31
0.0
  0
LINE
  5
25235
330
747D
100
AcDbEntity
  8
細線
 48
50.0
100
AcDbLine
 10
7945.422848905884
 20
1615.710686968854
 30
0.0
 11
8103.822848905883
 21
1774.110686968852
 31
0.0
  0
LINE
  5
25236
330
747D
100
AcDbEntity
  8
細線
 48
50.0
100
AcDbLine
 10
7945.422848905884
 20
1642.651455332062
 30
0.0
 11
8103.822848905883
 21
1801.051455332059
 31
0.0
  0
LINE
  5
25237
330
747D
100
AcDbEntity
  8
部品1
 48
50.0
100
AcDbLine
 10
7945.422848905884
 20
1326.397025937816
 30
0.0
 11
7945.422848905884
 21
1870.397025937817
 31
0.0
  0
LINE
  5
25238
330
747D
100
AcDbEntity
  8
部品1
100
AcDbLine
 10
8359.422848905884
 20
1326.397025937816
 30
0.0
 11
8359.422848905884
 21
1870.397025937817
 31
0.0
  0
LINE
  5
25239
330
747D
100
AcDbEntity
  8
細線
 48
50.0
100
AcDbLine
 10
8229.822848905886
 20
1711.525308426405
 30
0.0
 11
8359.422848905884
 21
1841.125308426403
 31
0.0
  0
LINE
  5
2523A
330
747D
100
AcDbEntity
  8
細線
 48
50.0
100
AcDbLine
 10
6353.875958231161
 20
1751.143877834533
 30
0.0
 11
6437.383535728692
 21
1834.651455332062
 31
0.0
  0
LINE
  5
2523B
330
747D
100
AcDbEntity
  8
細線
 48
50.0
100
AcDbLine
 10
6364.936242994677
 20
1735.263394234838
 30
0.0
 11
6437.383535728692
 21
1807.710686968854
 31
0.0
  0
LINE
  5
2523C
330
747D
100
AcDbEntity
  8
細線
 48
50.0
100
AcDbLine
 10
6245.383535728691
 20
1858.177602237721
 30
0.0
 11
6257.602959428787
 21
1870.397025937817
 31
0.0
  0
LINE
  5
2523D
330
747D
100
AcDbEntity
  8
細線
 48
50.0
100
AcDbLine
 10
6245.383535728691
 20
1804.296065511307
 30
0.0
 11
6311.484496155201
 21
1870.397025937817
 31
0.0
  0
LINE
  5
2523E
330
747D
100
AcDbEntity
  8
細線
 48
50.0
100
AcDbLine
 10
6245.383535728691
 20
1831.236833874514
 30
0.0
 11
6284.543727791995
 21
1870.397025937817
 31
0.0
  0
LINE
  5
2523F
330
747D
100
AcDbEntity
  8
部品1
 48
50.0
100
AcDbLine
 10
6245.383535728691
 20
1870.397025937817
 30
0.0
 11
6437.383535728692
 21
1870.397025937817
 31
0.0
  0
DIMENSION
  5
25240
330
747D
100
AcDbEntity
  8
寸法
 48
50.0
100
AcDbDimension
  2
*D41
 10
6245.383535728691
 20
2290.064833854197
 30
0.0
 11
6341.383535728691
 21
2290.064833854197
 31
0.0
 70
   160
  1
120\P200\P280
 71
     5
 42
192.0
  3
INABA_S40G
100
AcDbAlignedDimension
 13
6437.383535728691
 23
1870.397025937817
 33
0.0
 14
6245.383535728691
 24
1870.397025937817
 34
0.0
100
AcDbRotatedDimension
1001
ACAD
1000
DSTYLE
1002
{
1070
   341
1005
0
1002
}
  0
MTEXT
  5
25241
102
{ACAD_REACTORS
330
25296
102
}
330
747D
100
AcDbEntity
  8
寸法
 62
     7
 48
50.0
100
AcDbMText
 10
6679.121991589942
 20
909.0479402056635
 30
0.0
 40
80.0
 41
0.8
 71
     4
 72
     1
  1
\A1;D10@300
  7
STYLE2
 73
     1
 44
1.0
1001
ACAD
1000
MTEXTBEGIN
1070
    73
1070
     1
1070
    44
1040
1.0
1070
    74
1070
     0
1000
MTEXTEND
  0
LINE
  5
25242
330
747D
100
AcDbEntity
  8
細線
 48
50.0
100
AcDbLine
 10
6365.383535728697
 20
1520.184540063197
 30
0.0
 11
6437.383535728685
 21
1592.184540063192
 31
0.0
  0
LINE
  5
25243
330
747D
100
AcDbEntity
  8
細線
 48
50.0
100
AcDbLine
 10
6365.383535728692
 20
1547.125308426402
 30
0.0
 11
6437.383535728692
 21
1619.125308426403
 31
0.0
  0
LINE
  5
25244
330
747D
100
AcDbEntity
  8
細線
 48
50.0
100
AcDbLine
 10
6365.383535728697
 20
1277.717624794328
 30
0.0
 11
6437.383535728685
 21
1349.717624794328
 31
0.0
  0
LINE
  5
25245
330
747D
100
AcDbEntity
  8
細線
 48
50.0
100
AcDbLine
 10
6365.383535728697
 20
1331.599161520746
 30
0.0
 11
6437.383535728685
 21
1403.599161520742
 31
0.0
  0
LINE
  5
25246
330
747D
100
AcDbEntity
  8
細線
 48
50.0
100
AcDbLine
 10
6365.383535728697
 20
1304.658393157538
 30
0.0
 11
6437.383535728685
 21
1376.658393157532
 31
0.0
  0
LINE
  5
25247
330
747D
100
AcDbEntity
  8
部品1
 48
50.0
100
AcDbLine
 10
6437.383535728692
 20
1326.397025937816
 30
0.0
 11
6565.383535728692
 21
1326.397025937816
 31
0.0
  0
LINE
  5
25248
330
747D
100
AcDbEntity
  8
細線
 48
50.0
100
AcDbLine
 10
6365.383535728697
 20
1493.243771699987
 30
0.0
 11
6437.383535728685
 21
1565.243771699987
 31
0.0
  0
LINE
  5
25249
330
747D
100
AcDbEntity
  8
部品1
 48
50.0
100
AcDbLine
 10
6333.383535728692
 20
1672.524240634938
 30
0.0
 11
6333.383535728692
 21
1730.651455332062
 31
0.0
  0
LINE
  5
2524A
330
747D
100
AcDbEntity
  8
細線
 48
50.0
100
AcDbLine
 10
6245.383535728691
 20
1642.651455332062
 30
0.0
 11
6317.383535728692
 21
1714.651455332062
 31
0.0
  0
LINE
  5
2524B
330
747D
100
AcDbEntity
  8
部品1
 48
50.0
100
AcDbLine
 10
6317.383535728692
 20
1672.524240634943
 30
0.0
 11
6317.383535728692
 21
1730.651455332062
 31
0.0
  0
LINE
  5
2524C
330
747D
100
AcDbEntity
  8
細線
 48
50.0
100
AcDbLine
 10
6245.383535728691
 20
1615.710686968854
 30
0.0
 11
6317.383535728692
 21
1687.710686968854
 31
0.0
  0
LINE
  5
2524D
330
747D
100
AcDbEntity
  8
細線
 48
50.0
100
AcDbLine
 10
6245.383535728691
 20
1588.769918605647
 30
0.0
 11
6329.137857757985
 21
1672.524240634938
 31
0.0
  0
LINE
  5
2524E
330
747D
100
AcDbEntity
  8
部品1
 48
50.0
100
AcDbLine
 10
6333.383535728692
 20
1672.524240634938
 30
0.0
 11
6317.383535728692
 21
1672.524240634943
 31
0.0
  0
LINE
  5
2524F
330
747D
100
AcDbEntity
  8
細線
 48
50.0
100
AcDbLine
 10
6117.383535728684
 20
1299.125308426402
 30
0.0
 11
6144.655253240106
 21
1326.397025937816
 31
0.0
  0
LINE
  5
25250
330
747D
100
AcDbEntity
  8
細線
 48
50.0
100
AcDbLine
 10
6117.383535728684
 20
1272.184540063192
 30
0.0
 11
6171.596021603317
 21
1326.397025937816
 31
0.0
  0
LINE
  5
25251
330
747D
100
AcDbEntity
  8
部品1
 48
50.0
100
AcDbLine
 10
6117.383535728691
 20
1326.397025937816
 30
0.0
 11
6245.383535728691
 21
1326.397025937816
 31
0.0
  0
LINE
  5
25252
330
747D
100
AcDbEntity
  8
細線
 48
50.0
100
AcDbLine
 10
6333.383535728692
 20
1703.710686968854
 30
0.0
 11
6349.383535728692
 21
1719.710686968854
 31
0.0
  0
LINE
  5
25253
330
747D
100
AcDbEntity
  8
細線
 48
50.0
100
AcDbLine
 10
6333.383535728692
 20
1676.769918605647
 30
0.0
 11
6349.383535728692
 21
1692.769918605647
 31
0.0
  0
LINE
  5
25254
330
747D
100
AcDbEntity
  8
細線
 48
50.0
100
AcDbLine
 10
6245.383535728691
 20
1373.243771699987
 30
0.0
 11
6349.383535728698
 21
1477.243771699987
 31
0.0
  0
LINE
  5
25255
330
747D
100
AcDbEntity
  8
細線
 48
50.0
100
AcDbLine
 10
6245.383535728691
 20
1427.125308426403
 30
0.0
 11
6349.383535728692
 21
1531.125308426402
 31
0.0
  0
LINE
  5
25256
330
747D
100
AcDbEntity
  8
細線
 48
50.0
100
AcDbLine
 10
6245.383535728691
 20
1400.184540063194
 30
0.0
 11
6349.383535728698
 21
1504.184540063197
 31
0.0
  0
LINE
  5
25257
330
747D
100
AcDbEntity
  8
細線
 48
50.0
100
AcDbLine
 10
6508.209181132039
 20
1062.397025937817
 30
0.0
 11
6501.778400513693
 21
1086.397025937816
 31
0.0
  0
LINE
  5
25258
330
747D
100
AcDbEntity
  8
細線
 48
50.0
100
AcDbLine
 10
6551.233693957086
 20
1086.397025937816
 30
0.0
 11
6565.383535728692
 21
1100.546867709423
 31
0.0
  0
LINE
  5
25259
330
747D
100
AcDbEntity
  8
細線
 48
50.0
100
AcDbLine
 10
6587.097226079285
 20
1062.397025937817
 30
0.0
 11
6580.666445460938
 21
1086.397025937816
 31
0.0
  0
LINE
  5
2525A
330
747D
100
AcDbEntity
  8
部品1
 48
50.0
100
AcDbLine
 10
6509.383535728692
 20
1198.397025937816
 30
0.0
 11
6509.383535728692
 21
1182.397025937816
 31
0.0
  0
LINE
  5
2525B
330
747D
100
AcDbEntity
  8
細線
 48
50.0
100
AcDbLine
 10
6389.589083777838
 20
1086.397025937816
 30
0.0
 11
6485.589971622975
 21
1182.397913782955
 31
0.0
  0
LINE
  5
2525C
330
747D
100
AcDbEntity
  8
細線
 48
50.0
100
AcDbLine
 10
6362.648315414635
 20
1086.397025937816
 30
0.0
 11
6458.648315414635
 21
1182.397025937816
 31
0.0
  0
LINE
  5
2525D
330
747D
100
AcDbEntity
  8
細線
 48
50.0
100
AcDbLine
 10
6429.321136184793
 20
1062.397025937817
 30
0.0
 11
6422.890355566448
 21
1086.397025937816
 31
0.0
  0
LINE
  5
2525E
330
747D
100
AcDbEntity
  8
細線
 48
50.0
100
AcDbLine
 10
6350.433091237547
 20
1062.397025937817
 30
0.0
 11
6344.0023106192
 21
1086.397025937816
 31
0.0
  0
ARC
  5
2525F
330
747D
100
AcDbEntity
  8
部品1
 48
50.0
100
AcDbCircle
 10
6341.383535728692
 20
1206.397025937816
 30
0.0
 40
24.0
100
AcDbArc
 50
340.5287793655256
 51
0.0
  0
CIRCLE
  5
25260
330
747D
100
AcDbEntity
  8
部品1
 48
50.0
100
AcDbCircle
 10
6469.383535728692
 20
1206.397025937816
 30
0.0
 40
8.0
  0
LINE
  5
25261
330
747D
100
AcDbEntity
  8
細線
 48
50.0
100
AcDbLine
 10
6501.589083777838
 20
1198.397025937816
 30
0.0
 11
6565.383535728692
 21
1262.191477888668
 31
0.0
  0
LINE
  5
25262
330
747D
100
AcDbEntity
  8
細線
 48
50.0
100
AcDbLine
 10
6638.118555013694
 20
958.3970259378148
 30
0.0
 11
6645.383535728692
 21
985.5103030822046
 31
0.0
  0
LINE
  5
25263
330
747D
100
AcDbEntity
  8
細線
 48
50.0
100
AcDbLine
 10
6644.549335632044
 20
982.3970259378166
 30
0.0
 11
6645.383535728692
 21
979.2837487934521
 31
0.0
  0
LINE
  5
25264
330
747D
100
AcDbEntity
  8
細線
 48
50.0
100
AcDbLine
 10
6565.661290684797
 20
982.3970259378166
 30
0.0
 11
6572.092071303145
 21
958.3970259378165
 31
0.0
  0
LINE
  5
25265
330
747D
100
AcDbEntity
  8
細線
 48
50.0
100
AcDbLine
 10
6407.885200790303
 20
982.3970259378166
 30
0.0
 11
6414.31598140865
 21
958.3970259378165
 31
0.0
  0
LINE
  5
25266
330
747D
100
AcDbEntity
  8
細線
 48
50.0
100
AcDbLine
 10
6486.773245737549
 20
982.3970259378166
 30
0.0
 11
6493.204026355897
 21
958.3970259378165
 31
0.0
  0
LINE
  5
25267
330
747D
100
AcDbEntity
  8
細線
 48
50.0
100
AcDbLine
 10
6480.3424651192
 20
958.3970259378148
 30
0.0
 11
6514.639961750384
 21
1086.397025937815
 31
0.0
  0
LINE
  5
25268
330
747D
100
AcDbEntity
  8
細線
 48
50.0
100
AcDbLine
 10
6401.454420171951
 20
958.3970259378165
 30
0.0
 11
6435.751916803138
 21
1086.397025937815
 31
0.0
  0
LINE
  5
25269
330
747D
100
AcDbEntity
  8
細線
 48
50.0
100
AcDbLine
 10
6559.230510066445
 20
958.3970259378165
 30
0.0
 11
6593.52800669763
 21
1086.397025937815
 31
0.0
  0
LINE
  5
2526A
330
747D
100
AcDbEntity
  8
部品1
 48
50.0
100
AcDbLine
 10
6645.383535728695
 20
1086.397025937816
 30
0.0
 11
6645.383535728695
 21
958.3970259378165
 31
0.0
  0
LINE
  5
2526B
330
747D
100
AcDbEntity
  8
部品1
 48
50.0
100
AcDbLine
 10
6333.383535728692
 20
1264.524240634939
 30
0.0
 11
6333.383535728692
 21
1206.397025937816
 31
0.0
  0
LINE
  5
2526C
330
747D
100
AcDbEntity
  8
細線
 48
50.0
100
AcDbLine
 10
6259.122168508975
 20
1198.397025937816
 30
0.0
 11
6317.383535728692
 21
1256.658393157535
 31
0.0
  0
LINE
  5
2526D
330
747D
100
AcDbEntity
  8
部品1
 48
50.0
100
AcDbLine
 10
6317.383535728692
 20
1264.524240634939
 30
0.0
 11
6317.383535728692
 21
1206.397025937816
 31
0.0
  0
LINE
  5
2526E
330
747D
100
AcDbEntity
  8
細線
 48
50.0
100
AcDbLine
 10
6174.06293687218
 20
1086.397025937816
 30
0.0
 11
6270.06293687218
 21
1182.397025937816
 31
0.0
  0
LINE
  5
2526F
330
747D
100
AcDbEntity
  8
細線
 48
50.0
100
AcDbLine
 10
6271.545046290295
 20
1062.397025937817
 30
0.0
 11
6265.114265671949
 21
1086.397025937816
 31
0.0
  0
LINE
  5
25270
330
747D
100
AcDbEntity
  8
細線
 48
50.0
100
AcDbLine
 10
6192.657001343043
 20
1062.397025937817
 30
0.0
 11
6186.226220724697
 21
1086.397025937816
 31
0.0
  0
ARC
  5
25271
330
747D
100
AcDbEntity
  8
部品1
 48
50.0
100
AcDbCircle
 10
6341.383535728692
 20
1206.397025937816
 30
0.0
 40
24.0
100
AcDbArc
 50
180.0
 51
199.4712206344743
  0
LINE
  5
25272
330
747D
100
AcDbEntity
  8
細線
 48
50.0
100
AcDbLine
 10
6286.06293687218
 20
1198.397025937816
 30
0.0
 11
6317.383535728692
 21
1229.717624794328
 31
0.0
  0
CIRCLE
  5
25273
330
747D
100
AcDbEntity
  8
部品1
 48
50.0
100
AcDbCircle
 10
6213.383535728691
 20
1206.397025937816
 30
0.0
 40
8.0
  0
LINE
  5
25274
330
747D
100
AcDbEntity
  8
部品1
 48
50.0
100
AcDbLine
 10
6333.383535728692
 20
1264.524240634939
 30
0.0
 11
6317.383535728692
 21
1264.524240634939
 31
0.0
  0
LINE
  5
25275
330
747D
100
AcDbEntity
  8
細線
 48
50.0
100
AcDbLine
 10
6037.383535728691
 20
1071.736946903596
 30
0.0
 11
6041.311692066887
 21
1086.397025937816
 31
0.0
  0
LINE
  5
25276
330
747D
100
AcDbEntity
  8
細線
 48
50.0
100
AcDbLine
 10
6113.768956395792
 20
1062.397025937817
 30
0.0
 11
6107.338175777444
 21
1086.397025937816
 31
0.0
  0
LINE
  5
25277
330
747D
100
AcDbEntity
  8
部品1
 48
50.0
100
AcDbLine
 10
6173.383535728692
 20
1198.397025937816
 30
0.0
 11
6173.383535728692
 21
1182.397025937816
 31
0.0
  0
LINE
  5
25278
330
747D
100
AcDbEntity
  8
細線
 48
50.0
100
AcDbLine
 10
6120.181400145764
 20
1086.397025937816
 30
0.0
 11
6216.181400145764
 21
1182.397025937816
 31
0.0
  0
LINE
  5
25279
330
747D
100
AcDbEntity
  8
細線
 48
50.0
100
AcDbLine
 10
6147.122168508975
 20
1086.397025937816
 30
0.0
 11
6243.122168508975
 21
1182.397025937816
 31
0.0
  0
LINE
  5
2527A
330
747D
100
AcDbEntity
  8
細線
 48
50.0
100
AcDbLine
 10
6250.109110895806
 20
982.3970259378166
 30
0.0
 11
6256.539891514152
 21
958.3970259378165
 31
0.0
  0
LINE
  5
2527B
330
747D
100
AcDbEntity
  8
細線
 48
50.0
100
AcDbLine
 10
6328.997155843058
 20
982.3970259378166
 30
0.0
 11
6335.427936461405
 21
958.3970259378165
 31
0.0
  0
LINE
  5
2527C
330
747D
100
AcDbEntity
  8
細線
 48
50.0
100
AcDbLine
 10
6092.333021001302
 20
982.3970259378166
 30
0.0
 11
6098.763801619649
 21
958.3970259378165
 31
0.0
  0
LINE
  5
2527D
330
747D
100
AcDbEntity
  8
細線
 48
50.0
100
AcDbLine
 10
6171.221065948554
 20
982.3970259378166
 30
0.0
 11
6177.651846566901
 21
958.3970259378165
 31
0.0
  0
LINE
  5
2527E
330
747D
100
AcDbEntity
  8
部品1
 48
50.0
100
AcDbLine
 10
6037.383535728693
 20
958.3970259378165
 30
0.0
 11
6037.383535728693
 21
1086.397025937816
 31
0.0
  0
LINE
  5
2527F
330
747D
100
AcDbEntity
  8
細線
 48
50.0
100
AcDbLine
 10
6085.902240382949
 20
958.3970259378148
 30
0.0
 11
6120.199737014132
 21
1086.397025937815
 31
0.0
  0
LINE
  5
25280
330
747D
100
AcDbEntity
  8
細線
 48
50.0
100
AcDbLine
 10
6243.678330277453
 20
958.3970259378148
 30
0.0
 11
6277.975826908637
 21
1086.397025937815
 31
0.0
  0
LINE
  5
25281
330
747D
100
AcDbEntity
  8
細線
 48
50.0
100
AcDbLine
 10
6164.790285330208
 20
958.3970259378165
 30
0.0
 11
6199.087781961391
 21
1086.397025937816
 31
0.0
  0
LINE
  5
25282
330
747D
100
AcDbEntity
  8
細線
 48
50.0
100
AcDbLine
 10
6335.707547051424
 20
1086.397025937816
 30
0.0
 11
6431.707547051425
 21
1182.397025937816
 31
0.0
  0
CIRCLE
  5
25283
330
747D
100
AcDbEntity
  8
部品1
 48
50.0
100
AcDbCircle
 10
6341.383535728692
 20
1206.397025937816
 30
0.0
 40
8.0
  0
LINE
  5
25284
330
747D
100
AcDbEntity
  8
部品1
 48
50.0
100
AcDbLine
 10
6645.383535728695
 20
1086.397025937816
 30
0.0
 11
6037.383535728693
 21
1086.397025937816
 31
0.0
  0
LINE
  5
25285
330
747D
100
AcDbEntity
  8
部品1
 48
50.0
100
AcDbLine
 10
6173.383535728692
 20
1198.397025937816
 30
0.0
 11
6509.383535728692
 21
1198.397025937816
 31
0.0
  0
LINE
  5
25286
330
747D
100
AcDbEntity
  8
部品1
 48
50.0
100
AcDbLine
 10
6173.383535728692
 20
1182.397025937816
 30
0.0
 11
6509.383535728692
 21
1182.397025937816
 31
0.0
  0
LINE
  5
25287
330
747D
100
AcDbEntity
  8
部品1
 48
50.0
100
AcDbLine
 10
6645.383535728695
 20
958.3970259378165
 30
0.0
 11
6037.383535728693
 21
958.3970259378165
 31
0.0
  0
LINE
  5
25288
330
747D
100
AcDbEntity
  8
細線
 48
50.0
100
AcDbLine
 10
6322.566375224706
 20
958.3970259378165
 30
0.0
 11
6356.863871855889
 21
1086.397025937816
 31
0.0
  0
LINE
  5
25289
330
747D
100
AcDbEntity
  8
細線
 48
50.0
100
AcDbLine
 10
6333.383535728692
 20
1245.717624794328
 30
0.0
 11
6349.383535728698
 21
1261.717624794328
 31
0.0
  0
LINE
  5
2528A
330
747D
100
AcDbEntity
  8
部品1
 48
50.0
100
AcDbLine
 10
6349.383535728698
 20
1206.397025937816
 30
0.0
 11
6349.383535728684
 21
1730.651455332062
 31
0.0
  0
LINE
  5
2528B
330
747D
100
AcDbEntity
  8
部品1
 48
50.0
100
AcDbLine
 10
6365.383535728697
 20
1206.397025937816
 30
0.0
 11
6365.383535728692
 21
1730.651455332062
 31
0.0
  0
LINE
  5
2528C
330
747D
100
AcDbEntity
  8
部品1
 48
50.0
100
AcDbLine
 10
6565.383535728692
 20
1326.397025937816
 30
0.0
 11
6565.383535728692
 21
1086.397025937816
 31
0.0
  0
LINE
  5
2528D
330
747D
100
AcDbEntity
  8
細線
 48
50.0
100
AcDbLine
 10
6447.707547051419
 20
1198.397025937816
 30
0.0
 11
6565.383535728692
 21
1316.073014615082
 31
0.0
  0
LINE
  5
2528E
330
747D
100
AcDbEntity
  8
細線
 48
50.0
100
AcDbLine
 10
6474.648315414636
 20
1198.397025937816
 30
0.0
 11
6565.383535728692
 21
1289.132246251875
 31
0.0
  0
LINE
  5
2528F
330
747D
100
AcDbEntity
  8
部品1
 48
50.0
100
AcDbLine
 10
6117.383535728691
 20
1086.397025937816
 30
0.0
 11
6117.383535728691
 21
1326.397025937816
 31
0.0
  0
LINE
  5
25290
330
747D
100
AcDbEntity
  8
細線
 48
50.0
100
AcDbLine
 10
6232.181400145765
 20
1198.397025937816
 30
0.0
 11
6349.383535728692
 21
1315.599161520742
 31
0.0
  0
LINE
  5
25291
330
747D
100
AcDbEntity
  8
細線
 48
50.0
100
AcDbLine
 10
6325.249383206095
 20
1264.524240634939
 30
0.0
 11
6349.383535728698
 21
1288.658393157538
 31
0.0
  0
LINE
  5
25292
330
747D
100
AcDbEntity
  8
細線
 48
50.0
100
AcDbLine
 10
6117.383535728684
 20
1245.243771699988
 30
0.0
 11
6198.53678996652
 21
1326.397025937816
 31
0.0
  0
LEADER
  5
25293
330
747D
100
AcDbEntity
  8
寸法
 48
50.0
100
AcDbLeader
  3
INABA_S50G
 71
     0
 73
     0
 74
     0
 75
     1
 40
100.0
 41
222.7272727272727
 76
     3
 10
6341.383535728691
 20
1730.651455332062
 30
0.0
 10
6395.269472756086
 20
1829.887028185236
 30
0.0
 10
6520.269472756085
 20
1829.887028185236
 30
0.0
1001
ACAD
1000
DSTYLE
1002
{
1070
    40
1040
1.0
1070
   272
1070
     1
1070
   279
1070
     1
1070
   341
1005
0
1002
}
  0
LWPOLYLINE
  5
25294
330
747D
100
AcDbEntity
  8
部品1
 48
50.0
100
AcDbPolyline
 90
        2
 70
     0
 43
8.0
 10
6437.383535728691
 20
1630.397025937817
 10
6851.523437561649
 20
1630.397025937817
  0
MTEXT
  5
25295
102
{ACAD_REACTORS
330
25297
102
}
330
747D
100
AcDbEntity
  8
寸法
 62
     7
 48
50.0
100
AcDbMText
 10
6668.711195535376
 20
1170.999956994844
 30
0.0
 40
80.0
 41
0.8
 71
     4
 72
     1
  1
D10
  7
STYLE2
 73
     1
 44
1.0
1001
ACAD
1000
MTEXTBEGIN
1070
    73
1070
     1
1070
    44
1040
1.0
1070
    74
1070
     0
1000
MTEXTEND
  0
LEADER
  5
25296
330
747D
100
AcDbEntity
  8
寸法
 48
50.0
100
AcDbLeader
  3
INABA_S50G
 71
     0
 73
     0
 74
     0
 75
     1
 40
100.0
 41
540.3409090909091
 76
     3
 10
6415.328704741866
 20
1189.656495524291
 30
0.0
 10
6534.121991589941
 20
848.0256775293938
 30
0.0
 10
6659.121991589941
 20
848.0256775293938
 30
0.0
213
0.0
223
-1.022262676269383
233
0.0
1001
ACAD
1000
DSTYLE
1002
{
1070
    40
1040
1.0
1070
   272
1070
     1
1070
   279
1070
     1
1070
   341
1005
0
1002
}
  0
LEADER
  5
25297
330
747D
100
AcDbEntity
  8
寸法
 48
50.0
100
AcDbLeader
  3
INABA_S50G
 71
     0
 73
     0
 74
     0
 75
     1
 40
100.0
 41
225.0
 76
     3
 10
6469.286488080834
 20
1206.397025937816
 30
0.0
 10
6523.711195535375
 20
1110.999956994844
 30
0.0
 10
6648.711195535375
 20
1110.999956994844
 30
0.0
1001
ACAD
1000
DSTYLE
1002
{
1070
    40
1040
1.0
1070
   272
1070
     1
1070
   279
1070
     1
1070
   341
1005
0
1002
}
  0
MTEXT
  5
25298
102
{ACAD_REACTORS
330
25293
102
}
330
747D
100
AcDbEntity
  8
寸法
 62
     7
 48
50.0
100
AcDbMText
 10
6520.269472756085
 20
1892.952925230627
 30
0.0
 40
80.0
 41
0.8
 71
     4
 72
     1
  1
D13
  7
STYLE2
 73
     1
 44
1.0
1001
ACAD
1000
MTEXTBEGIN
1070
    73
1070
     1
1070
    44
1040
1.0
1070
    74
1070
     0
1000
MTEXTEND
  0
LINE
  5
25299
330
747D
100
AcDbEntity
  8
部品1
 48
50.0
100
AcDbLine
 10
6437.383535728692
 20
1870.397025937817
 30
0.0
 11
6437.383535728692
 21
1326.397025937816
 31
0.0
  0
LINE
  5
2529A
330
747D
100
AcDbEntity
  8
部品1
 48
50.0
100
AcDbLine
 10
6245.383535728691
 20
1326.397025937816
 30
0.0
 11
6245.383535728691
 21
1870.397025937817
 31
0.0
  0
CIRCLE
  5
2529B
330
747D
100
AcDbEntity
  8
部品1
 48
50.0
100
AcDbCircle
 10
6341.383535728692
 20
1730.651455332062
 30
0.0
 40
8.0
  0
ARC
  5
2529C
330
747D
100
AcDbEntity
  8
部品1
 48
50.0
100
AcDbCircle
 10
6341.383535728692
 20
1730.651455332062
 30
0.0
 40
24.0
100
AcDbArc
 50
0.0
 51
180.0
  0
LINE
  5
2529D
330
747D
100
AcDbEntity
  8
細線
 48
50.0
100
AcDbLine
 10
6365.383535728692
 20
1708.769918605647
 30
0.0
 11
6437.383535728692
 21
1780.769918605647
 31
0.0
  0
LEADER
  5
2529E
330
747D
100
AcDbEntity
  8
寸法
 48
50.0
100
AcDbLeader
  3
INABA_S50G
 73
     0
 75
     1
 40
106.3636363636363
 41
893.1818181818181
 76
     3
 10
8076.822848905885
 20
1939.957025937818
 30
0.0
 10
8028.398776560946
 20
2314.01660065415
 30
0.0
 10
7903.398776560945
 20
2314.01660065415
 30
0.0
340
2529F
1001
ACAD
1000
DSTYLE
1002
{
1070
   341
1005
0
1070
    40
1040
1.0
1070
   343
1005
0
1070
   344
1005
0
1002
}
  0
MTEXT
  5
2529F
102
{ACAD_REACTORS
330
2529E
102
}
330
747D
100
AcDbEntity
  8
寸法
 62
     7
 48
50.0
100
AcDbMText
 10
7878.398776560946
 20
2392.198418835969
 30
0.0
 40
80.0
 41
0.8
 71
     6
 72
     1
  1
\A1;アンカープレート L
  7
STYLE2
 73
     1
 44
1.0
1001
ACAD
1000
MTEXTBEGIN
1070
    73
1070
     1
1070
    44
1040
1.0
1070
    74
1070
     0
1000
MTEXTEND
  0
DIMENSION
  5
252A0
330
747D
100
AcDbEntity
  8
寸法
 48
50.0
100
AcDbDimension
  2
*D42
 10
6565.383535728691
 20
547.9673879326565
 30
0.0
 11
6321.286777050467
 21
547.9673879326565
 31
0.0
 70
   160
  1
300
 71
     5
 42
448.0
  3
INABA_S40G
100
AcDbAlignedDimension
 13
6117.383535728691
 23
958.3970259378165
 33
0.0
 14
6565.383535728691
 24
958.3970259378165
 34
0.0
100
AcDbRotatedDimension
1001
ACAD
1000
DSTYLE
1002
{
1070
   341
1005
0
1002
}
  0
MTEXT
  5
252A1
102
{ACAD_REACTORS
330
252A9
102
}
330
747D
100
AcDbEntity
  8
寸法
 62
     7
 48
50.0
100
AcDbMText
 10
5946.448509533496
 20
1002.87433231938
 30
0.0
 40
80.0
 41
0.8
 71
     6
 72
     1
  1
D10
  7
STYLE2
 73
     1
 44
1.0
1001
ACAD
1000
MTEXTBEGIN
1070
    73
1070
     1
1070
    44
1040
1.0
1070
    74
1070
     0
1000
MTEXTEND
  0
MTEXT
  5
252A2
102
{ACAD_REACTORS
330
252A8
102
}
330
747D
100
AcDbEntity
  8
寸法
 62
     7
 48
50.0
100
AcDbMText
 10
5974.571237090931
 20
822.5581797799367
 30
0.0
 40
80.0
 41
0.8
 71
     6
 72
     1
  1
D13
  7
STYLE2
 73
     1
 44
1.0
1001
ACAD
1000
MTEXTBEGIN
1070
    73
1070
     1
1070
    44
1040
1.0
1070
    74
1070
     0
1000
MTEXTEND
  0
DIMENSION
  5
252A3
330
747D
100
AcDbEntity
  8
寸法
 48
50.0
100
AcDbDimension
  2
*D43
 10
5510.34629716695
 20
1086.397025937817
 30
0.0
 11
5510.34629716695
 21
1457.937175593817
 31
0.0
 70
   160
  1
540
 71
     5
 42
784.0
  3
INABA_S40G
100
AcDbAlignedDimension
 13
6245.383535728691
 23
1870.397025937817
 33
0.0
 14
6037.383535728694
 24
1086.397025937816
 34
0.0
 50
90.0
100
AcDbRotatedDimension
1001
ACAD
1000
DSTYLE
1002
{
1070
   341
1005
0
1002
}
  0
MTEXT
  5
252A4
102
{ACAD_REACTORS
330
252A5
102
}
330
747D
100
AcDbEntity
  8
寸法
 62
     7
 48
50.0
100
AcDbMText
 10
6025.285056245418
 20
2082.913245939859
 30
0.0
 40
80.0
 41
0.8
 71
     6
 72
     1
  1
\A1;金コテ押エ
  7
STYLE2
 73
     1
 44
1.0
1001
ACAD
1000
MTEXTBEGIN
1070
    73
1070
     1
1070
    44
1040
1.0
1070
    74
1070
     0
1000
MTEXTEND
  0
LEADER
  5
252A5
330
747D
100
AcDbEntity
  8
寸法
 48
50.0
100
AcDbLeader
  3
INABA_S50G
 71
     0
 73
     0
 75
     1
 40
130.1136363636363
 41
651.1363636363636
 76
     3
 10
6325.383535728691
 20
1870.397025937817
 30
0.0
 10
6212.958955564674
 20
2010.867791394405
 30
0.0
 10
6087.958955564674
 20
2010.867791394405
 30
0.0
1001
ACAD
1000
DSTYLE
1002
{
1070
    40
1040
1.0
1070
   272
1070
     1
1070
   279
1070
     1
1070
   341
1005
0
1002
}
  0
LEADER
  5
252A6
330
747D
100
AcDbEntity
  8
寸法
 48
50.0
100
AcDbLeader
  3
INABA_S50G
 71
     0
 73
     0
 75
     1
 40
100.0
 41
540.3409090909091
 76
     3
 10
6349.383535728691
 20
1628.52424063494
 30
0.0
 10
6291.401299199993
 20
1407.053912094134
 30
0.0
 10
6166.401299199993
 20
1407.053912094134
 30
0.0
213
-9.732182305893367
223
-4.643716661138569
233
0.0
1001
ACAD
1000
DSTYLE
1002
{
1070
    40
1040
1.0
1070
   272
1070
     1
1070
   279
1070
     1
1070
   341
1005
0
1002
}
  0
MTEXT
  5
252A7
102
{ACAD_REACTORS
330
252A6
102
}
330
747D
100
AcDbEntity
  8
寸法
 62
     7
 48
50.0
100
AcDbMText
 10
6156.133481505886
 20
1471.697628755273
 30
0.0
 40
80.0
 41
0.8
 71
     6
 72
     1
  1
\A1;D10@300
  7
STYLE2
 73
     1
 44
1.0
1001
ACAD
1000
MTEXTBEGIN
1070
    73
1070
     1
1070
    44
1040
1.0
1070
    74
1070
     0
1000
MTEXTEND
  0
LEADER
  5
252A8
330
747D
100
AcDbEntity
  8
寸法
 48
50.0
100
AcDbLeader
  3
INABA_S50G
 71
     0
 73
     0
 75
     1
 40
100.0
 41
222.7272727272727
 76
     3
 10
6341.383535728691
 20
1206.397025937816
 30
0.0
 10
6119.571237090931
 20
762.5581797799368
 30
0.0
 10
5994.571237090931
 20
762.5581797799368
 30
0.0
1001
ACAD
1000
DSTYLE
1002
{
1070
    40
1040
1.0
1070
   272
1070
     1
1070
   279
1070
     1
1070
   341
1005
0
1002
}
  0
LEADER
  5
252A9
330
747D
100
AcDbEntity
  8
寸法
 48
50.0
100
AcDbLeader
  3
INABA_S50G
 71
     0
 73
     0
 75
     1
 40
100.0
 41
225.0
 76
     3
 10
6213.286488080834
 20
1206.397025937816
 30
0.0
 10
6091.448509533496
 20
942.8743323193803
 30
0.0
 10
5966.448509533496
 20
942.8743323193803
 30
0.0
1001
ACAD
1000
DSTYLE
1002
{
1070
    40
1040
1.0
1070
   272
1070
     1
1070
   279
1070
     1
1070
   341
1005
0
1002
}
  0
DIMENSION
  5
252AA
330
747D
100
AcDbEntity
  8
寸法
 48
50.0
100
AcDbDimension
  2
*D44
 10
5974.963221996231
 20
1086.397025937816
 30
0.0
 11
5974.963221996231
 21
1206.397025937817
 31
0.0
 70
   160
  1
150
 71
     5
 42
240.0
  3
INABA_S40G
100
AcDbAlignedDimension
 13
6117.383535728691
 23
1326.397025937816
 33
0.0
 14
6037.383535728694
 24
1086.397025937816
 34
0.0
 50
90.0
100
AcDbRotatedDimension
1001
ACAD
1000
DSTYLE
1002
{
1070
   341
1005
0
1002
}
  0
TEXT
  5
252AB
330
747D
100
AcDbEntity
  8
部品1
 48
50.0
100
AcDbText
 10
5831.243633895734
 20
1641.636018221072
 30
0.0
 40
80.0
  1
▽G.L
  7
STYLE2
100
AcDbText
  0
LWPOLYLINE
  5
252AC
330
747D
100
AcDbEntity
  8
部品1
 48
50.0
100
AcDbPolyline
 90
        2
 70
     0
 43
8.0
 10
5831.243633895734
 20
1630.397025937817
 10
6245.383535728691
 20
1630.397025937817
  0
MTEXT
  5
252AD
102
{ACAD_REACTORS
330
252AE
102
}
330
747D
100
AcDbEntity
  8
寸法
 62
     7
 48
50.0
100
AcDbMText
 10
7851.755770352586
 20
2752.882690743482
 30
0.0
 40
80.0
 41
0.8
 71
     6
 72
     1
  1
\A1;φ70スリーブ
  7
STYLE2
 73
     1
 44
1.0
1001
ACAD
1000
MTEXTBEGIN
1070
    73
1070
     1
1070
    44
1040
1.0
1070
    74
1070
     0
1000
MTEXTEND
  0
LEADER
  5
252AE
330
747D
100
AcDbEntity
  8
寸法
 48
50.0
100
AcDbLeader
  3
INABA_S50G
 73
     0
 75
     1
 40
113.1818181818182
 41
608.6363636363635
 76
     3
 10
8135.559599043936
 20
1819.912699296095
 30
0.0
 10
8001.755770352586
 20
2671.291781652573
 30
0.0
 10
7876.755770352587
 20
2671.291781652573
 30
0.0
340
252AD
1001
ACAD
1000
DSTYLE
1002
{
1070
   341
1005
0
1070
    40
1040
1.0
1070
   343
1005
0
1070
   344
1005
0
1002
}
  0
LINE
  5
252AF
330
747D
100
AcDbEntity
  8
部品1
100
AcDbLine
 10
5174.715096919427
 20
3269.735693138402
 30
0.0
 11
5174.71509691943
 21
305.4287235537549
 31
0.0
  0
LEADER
  5
252B0
330
747D
100
AcDbEntity
  8
寸法
 48
50.0
100
AcDbLeader
  3
INABA_S50G
 73
     0
 74
     0
 75
     1
 40
80.0
 41
435.0
 76
     3
 10
8175.822848905886
 20
1919.557025937817
 30
0.0
 10
8218.367311325204
 20
2069.780352091047
 30
0.0
 10
8343.367311325204
 20
2069.780352091047
 30
0.0
340
252B1
1001
ACAD
1000
DSTYLE
1002
{
1070
   341
1005
0
1070
    40
1040
1.0
1070
   343
1005
0
1070
   344
1005
0
1002
}
  0
MTEXT
  5
252B1
102
{ACAD_REACTORS
330
252B0
102
}
330
747D
100
AcDbEntity
  8
部品1
 62
     7
 48
50.0
100
AcDbMText
 10
8368.367311325204
 20
2134.780352091047
 30
0.0
 40
80.0
 41
0.8
 71
     4
 72
     1
  1
M10X160
  7
STYLE2
 73
     1
 44
1.0
1001
ACAD
1000
MTEXTBEGIN
1070
    73
1070
     1
1070
    44
1040
1.0
1070
    74
1070
     0
1000
MTEXTEND
  0
DIMENSION
  5
252B2
330
747D
100
AcDbEntity
  8
寸法
 48
50.0
100
AcDbDimension
  2
*D45
 10
9137.346114793755
 20
1870.397025937816
 30
0.0
 11
9137.346114793755
 21
1404.388122516334
 31
0.0
 70
   160
  1
20～25
 71
     5
 42
52.76000000000113
  3
INABA_S40G
100
AcDbAlignedDimension
 13
8172.222848905885
 23
1923.157025937818
 33
0.0
 14
8359.422848905884
 24
1870.397025937817
 34
0.0
 50
90.0
100
AcDbRotatedDimension
1001
ACAD
1000
DSTYLE
1002
{
1070
   341
1005
0
1002
}
  0
DIMENSION
  5
252B3
330
747D
100
AcDbEntity
  8
寸法
 48
50.0
100
AcDbDimension
  2
*D46
 10
8861.291448674728
 20
1546.397025937815
 30
0.0
 11
8761.291448674729
 21
1708.397025937818
 31
0.0
 70
    32
  1
180
 71
     5
 42
324.0000000000009
  3
INABA_S40G
100
AcDbAlignedDimension
 13
8359.422848905884
 23
1870.397025937817
 33
0.0
 14
8359.422848905884
 24
1546.397025937816
 34
0.0
 50
90.0
100
AcDbRotatedDimension
1001
ACAD
1000
DSTYLE
1002
{
1070
   341
1005
0
1002
}
  0
TEXT
  5
252B4
330
747D
100
AcDbEntity
  8
部品1
 48
50.0
100
AcDbText
 10
8363.776433190313
 20
2226.275706700016
 30
0.0
 40
80.0
  1
基礎ボルト(市販品)
  7
STYLE2
100
AcDbText
  0
LWPOLYLINE
  5
252B5
330
747D
100
AcDbEntity
  8
部品1
 48
50.0
100
AcDbPolyline
 90
        2
 70
     0
 43
8.0
 10
8359.422848905884
 20
1630.397025937817
 10
8653.125312305268
 20
1630.397025937817
  0
MTEXT
  5
252B6
102
{ACAD_REACTORS
330
252B7
102
}
330
747D
100
AcDbEntity
  8
部品1
 62
     7
 48
50.0
100
AcDbMText
 10
8398.694439274725
 20
2570.892399025077
 30
0.0
 40
80.0
 41
0.8
 71
     4
 72
     1
  1
\A1;ワッシャー(市販品)
  7
STYLE2
 73
     1
 44
1.0
1001
ACAD
1000
MTEXTBEGIN
1070
    73
1070
     1
1070
    44
1040
1.0
1070
    74
1070
     0
1000
MTEXTEND
  0
LEADER
  5
252B7
330
747D
100
AcDbEntity
  8
寸法
 48
50.0
100
AcDbLeader
  3
INABA_S50G
 73
     0
 74
     0
 75
     1
 40
102.2727272727273
 41
906.8181818181818
 76
     3
 10
8206.822848905884
 20
2139.520314382096
 30
0.0
 10
8248.694439274725
 20
2494.756035388713
 30
0.0
 10
8373.694439274725
 20
2494.756035388713
 30
0.0
340
252B6
1001
ACAD
1000
DSTYLE
1002
{
1070
   341
1005
0
1070
    40
1040
1.0
1070
   343
1005
0
1070
   344
1005
0
1002
}
  0
MTEXT
  5
252B8
102
{ACAD_REACTORS
330
252B9
102
}
330
747D
100
AcDbEntity
  8
部品1
 62
     7
 48
50.0
100
AcDbMText
 10
8367.176820019242
 20
2755.861481789864
 30
0.0
 40
80.0
 41
0.8
 71
     4
 72
     1
  1
\A1;ナット(市販品)
  7
STYLE2
 73
     1
 44
1.0
1001
ACAD
1000
MTEXTBEGIN
1070
    73
1070
     1
1070
    44
1040
1.0
1070
    74
1070
     0
1000
MTEXTEND
  0
LEADER
  5
252B9
330
747D
100
AcDbEntity
  8
寸法
 48
50.0
100
AcDbLeader
  3
INABA_S50G
 73
     0
 74
     0
 75
     1
 40
102.2727272727273
 41
680.0000000000001
 76
     3
 10
8182.822848905885
 20
2269.272307046959
 30
0.0
 10
8217.176820019242
 20
2679.725118153501
 30
0.0
 10
8342.176820019242
 20
2679.725118153501
 30
0.0
340
252B8
1001
ACAD
1000
DSTYLE
1002
{
1070
   341
1005
0
1070
    40
1040
1.0
1070
   343
1005
0
1070
   344
1005
0
1002
}
  0
LINE
  5
252BA
330
747D
100
AcDbEntity
  8
部品1
100
AcDbLine
 10
5174.715096919431
 20
305.4287235537549
 30
0.0
 11
11245.70028230567
 21
305.4287235537549
 31
0.0
  0
LINE
  5
252BB
330
747D
100
AcDbEntity
  8
部品1
100
AcDbLine
 10
11245.70028230567
 20
3029.7356931384
 30
0.0
 11
5174.71509691943
 21
3029.7356931384
 31
0.0
  0
LINE
  5
252BC
330
747D
100
AcDbEntity
  8
部品1
100
AcDbLine
 10
11245.70028230568
 20
3269.735693138402
 30
0.0
 11
5174.715096919427
 21
3269.735693138402
 31
0.0
  0
DIMENSION
  5
25348
330
747D
100
AcDbEntity
  8
寸法
 48
50.0
100
AcDbDimension
  2
*D47
 10
10128.6
 20
7058.638597007299
 30
0.0
 11
10364.64724409449
 21
7058.638597007299
 31
0.0
 70
   160
 71
     5
 42
120.0
  3
INABA_S40G
100
AcDbAlignedDimension
 13
10008.6
 23
7058.638597007299
 33
0.0
 14
10128.6
 24
7058.638597007299
 34
0.0
100
AcDbRotatedDimension
1001
ACAD
1000
DSTYLE
1002
{
1070
   341
1005
0
1002
}
  0
ENDSEC
  0
SECTION
  2
OBJECTS
  0
DICTIONARY
  5
7471
330
0
100
AcDbDictionary
281
     1
  3
ACAD_COLOR
350
173D2
  3
ACAD_GROUP
350
7472
  3
ACAD_LAYOUT
350
173D3
  3
ACAD_MATERIAL
350
173D1
  3
ACAD_MLINESTYLE
350
7473
  3
ACAD_PLOTSETTINGS
350
173D4
  3
ACAD_PLOTSTYLENAME
350
173CF
  3
ACDBHEADERROUNDTRIPXREC
350
2539E
  3
AcDbVariableDictionary
350
24F30
  3
CONTENTDICTIONARY
350
E71C
  3
DRAWINGVARIABLESDICT
350
F3B9
  0
DICTIONARY
  5
1758F
330
7467
100
AcDbDictionary
280
     1
281
     1
  3
ACAD_LAYERSTATES
360
17590
  0
DICTIONARY
  5
173D2
102
{ACAD_REACTORS
330
7471
102
}
330
7471
100
AcDbDictionary
281
     1
  0
DICTIONARY
  5
7472
102
{ACAD_REACTORS
330
7471
102
}
330
7471
100
AcDbDictionary
281
     1
  3
*A1
350
1D2A9
  0
DICTIONARY
  5
173D3
102
{ACAD_REACTORS
330
7471
102
}
330
7471
100
AcDbDictionary
281
     1
  3
Model
350
173D5
  3
レイアウト1
350
173D6
  0
DICTIONARY
  5
173D1
102
{ACAD_REACTORS
330
7471
102
}
330
7471
100
AcDbDictionary
281
     1
  0
DICTIONARY
  5
7473
102
{ACAD_REACTORS
330
7471
102
}
330
7471
100
AcDbDictionary
281
     1
  3
STANDARD
350
7480
  0
DICTIONARY
  5
173D4
102
{ACAD_REACTORS
330
7471
102
}
330
7471
100
AcDbDictionary
281
     1
  0
ACDBDICTIONARYWDFLT
  5
173CF
102
{ACAD_REACTORS
330
7471
102
}
330
7471
100
AcDbDictionary
281
     1
  3
Normal
350
173D0
100
AcDbDictionaryWithDefault
340
173D0
  0
DICTIONARY
  5
2539E
102
{ACAD_REACTORS
330
7471
102
}
330
7471
100
AcDbDictionary
281
     1
  3
COLORDICT
350
253A0
  3
MATERIALDICT
350
2539F
  0
DICTIONARY
  5
24F30
102
{ACAD_REACTORS
330
7471
102
}
330
7471
100
AcDbDictionary
281
     1
  3
DIMASSOC
350
24F31
  3
PROJECTNAME
350
24F32
  0
DICTIONARY
  5
E71C
102
{ACAD_REACTORS
330
7471
102
}
330
7471
100
AcDbDictionary
281
     1
  0
DICTIONARY
  5
F3B9
102
{ACAD_REACTORS
330
7471
102
}
330
7471
100
AcDbDictionary
281
     1
1001
DRAWINGVARIABLESXDATA
1000
POLARMODE
1000
1
  0
DICTIONARY
  5
17590
102
{ACAD_REACTORS
330
1758F
102
}
330
1758F
100
AcDbDictionary
281
     1
  0
GROUP
  5
1D2A9
102
{ACAD_REACTORS
330
7472
102
}
330
7472
100
AcDbGroup
300

 70
     1
 71
     1
  0
LAYOUT
  5
173D5
102
{ACAD_XDICTIONARY
360
253A1
102
}
102
{ACAD_REACTORS
330
173D3
102
}
330
173D3
100
AcDbPlotSettings
  1

  2
Microsoft Office Document Image Writer
  4

  6

 40
0.0
 41
0.0
 42
0.0
 43
0.0
 44
0.0
 45
0.0
 46
0.0
 47
0.0
 48
0.0
 49
0.0
140
0.0
141
0.0
142
1.0
143
1.0
 70
  1712
 72
     0
 73
     0
 74
     0
  7

 75
     0
147
1.0
148
0.0
149
0.0
100
AcDbLayout
  1
Model
 70
     1
 71
     0
 10
0.0
 20
0.0
 11
12.0
 21
9.0
 12
0.0
 22
0.0
 32
0.0
 14
0.0
 24
0.0
 34
0.0
 15
0.0
 25
0.0
 35
0.0
146
0.0
 13
0.0
 23
0.0
 33
0.0
 16
1.0
 26
0.0
 36
0.0
 17
0.0
 27
1.0
 37
0.0
 76
     0
330
747D
  0
LAYOUT
  5
173D6
102
{ACAD_XDICTIONARY
360
253A3
102
}
102
{ACAD_REACTORS
330
173D3
102
}
330
173D3
100
AcDbPlotSettings
  1

  2
Microsoft Office Document Image Writer
  4

  6

 40
0.0
 41
0.0
 42
0.0
 43
0.0
 44
0.0
 45
0.0
 46
0.0
 47
0.0
 48
0.0
 49
0.0
140
0.0
141
0.0
142
1.0
143
1.0
 70
   688
 72
     0
 73
     0
 74
     5
  7

 75
    16
147
1.0
148
0.0
149
0.0
100
AcDbLayout
  1
レイアウト1
 70
     0
 71
     1
 10
0.0
 20
0.0
 11
420.0
 21
297.0
 12
0.0
 22
0.0
 32
0.0
 14
1.000000000000000E+20
 24
1.000000000000000E+20
 34
1.000000000000000E+20
 15
-1.000000000000000E+20
 25
-1.000000000000000E+20
 35
-1.000000000000000E+20
146
0.0
 13
0.0
 23
0.0
 33
0.0
 16
1.0
 26
0.0
 36
0.0
 17
0.0
 27
1.0
 37
0.0
 76
     0
330
747A
  0
MLINESTYLE
  5
7480
102
{ACAD_REACTORS
330
7473
102
}
330
7473
100
AcDbMlineStyle
  2
STANDARD
 70
     0
  3

 62
     0
 51
90.0
 52
90.0
 71
     2
 49
0.5
 62
   256
  6
BYLAYER
 49
-0.5
 62
   256
  6
BYLAYER
  0
ACDBPLACEHOLDER
  5
173D0
102
{ACAD_REACTORS
330
173CF
102
}
330
173CF
  0
XRECORD
  5
253A0
102
{ACAD_REACTORS
330
2539E
102
}
330
2539E
100
AcDbXrecord
280
     1
340
173D2
  0
XRECORD
  5
2539F
102
{ACAD_REACTORS
330
2539E
102
}
330
2539E
100
AcDbXrecord
280
     1
340
173D1
  0
DICTIONARYVAR
  5
24F31
102
{ACAD_REACTORS
330
24F30
102
}
330
24F30
100
DictionaryVariables
280
     0
  1
1
  0
DICTIONARYVAR
  5
24F32
102
{ACAD_REACTORS
330
24F30
102
}
330
24F30
100
DictionaryVariables
280
     0
  1

  0
DICTIONARY
  5
253A1
330
173D5
100
AcDbDictionary
280
     1
281
     1
  3
ACAD_XREC_ROUNDTRIP
360
253A2
  0
DICTIONARY
  5
253A3
330
173D6
100
AcDbDictionary
280
     1
281
     1
  3
ACAD_XREC_ROUNDTRIP
360
253A4
  0
XRECORD
  5
253A2
102
{ACAD_REACTORS
330
253A1
102
}
330
253A1
100
AcDbXrecord
280
     1
102
SHADEPLOT
 70
     0
102
SHADEPLOTRESLEVEL
 70
     2
102
SHADEPLOTCUSTOMDPI
 70
   300
  0
XRECORD
  5
253A4
102
{ACAD_REACTORS
330
253A3
102
}
330
253A3
100
AcDbXrecord
280
     1
102
SHADEPLOT
 70
     0
102
SHADEPLOTRESLEVEL
 70
     2
102
SHADEPLOTCUSTOMDPI
 70
   300
  0
ENDSEC
  0
EOF
