  0
SECTION
  2
HEADER
  9
$ACADVER
  1
AC1015
  9
$ACADMAINTVER
 70
    20
  9
$DWGCODEPAGE
  3
ANSI_932
  9
$INSBASE
 10
0.0
 20
0.0
 30
0.0
  9
$EXTMIN
 10
139.9999999999995
 20
-0.0000000000000909
 30
0.0
  9
$EXTMAX
 10
16307.2
 20
11409.6
 30
0.0
  9
$LIMMIN
 10
0.0
 20
0.0
  9
$LIMMAX
 10
16800.0
 20
11880.0
  9
$ORTHOMODE
 70
     0
  9
$REGENMODE
 70
     1
  9
$FILLMODE
 70
     1
  9
$QTEXTMODE
 70
     0
  9
$MIRRTEXT
 70
     1
  9
$LTSCALE
 40
20.0
  9
$ATTMODE
 70
     1
  9
$TEXTSIZE
 40
4.0
  9
$TRACEWID
 40
1.0
  9
$TEXTSTYLE
  7
STYLE1
  9
$CLAYER
  8
寸法
  9
$CELTYPE
  6
BYLAYER
  9
$CECOLOR
 62
   256
  9
$CELTSCALE
 40
50.0
  9
$DISPSILH
 70
     0
  9
$DIMSCALE
 40
40.0
  9
$DIMASZ
 40
2.5
  9
$DIMEXO
 40
0.5
  9
$DIMDLI
 40
7.0
  9
$DIMRND
 40
0.0
  9
$DIMDLE
 40
0.0
  9
$DIMEXE
 40
1.5
  9
$DIMTP
 40
0.0
  9
$DIMTM
 40
0.0
  9
$DIMTXT
 40
3.0
  9
$DIMCEN
 40
0.0
  9
$DIMTSZ
 40
0.0
  9
$DIMTOL
 70
     0
  9
$DIMLIM
 70
     0
  9
$DIMTIH
 70
     0
  9
$DIMTOH
 70
     0
  9
$DIMSE1
 70
     0
  9
$DIMSE2
 70
     0
  9
$DIMTAD
 70
     3
  9
$DIMZIN
 70
     8
  9
$DIMBLK
  1

  9
$DIMASO
 70
     1
  9
$DIMSHO
 70
     1
  9
$DIMPOST
  1

  9
$DIMAPOST
  1

  9
$DIMALT
 70
     0
  9
$DIMALTD
 70
     2
  9
$DIMALTF
 40
0.0394
  9
$DIMLFAC
 40
1.0
  9
$DIMTOFL
 70
     1
  9
$DIMTVP
 40
0.0
  9
$DIMTIX
 70
     1
  9
$DIMSOXD
 70
     0
  9
$DIMSAH
 70
     1
  9
$DIMBLK1
  1
DOTSMALL
  9
$DIMBLK2
  1
DOTSMALL
  9
$DIMSTYLE
  2
INABA_S40G
  9
$DIMCLRD
 70
     0
  9
$DIMCLRE
 70
     0
  9
$DIMCLRT
 70
     7
  9
$DIMTFAC
 40
1.0
  9
$DIMGAP
 40
1.0
  9
$DIMJUST
 70
     0
  9
$DIMSD1
 70
     0
  9
$DIMSD2
 70
     0
  9
$DIMTOLJ
 70
     1
  9
$DIMTZIN
 70
     0
  9
$DIMALTZ
 70
     0
  9
$DIMALTTZ
 70
     0
  9
$DIMUPT
 70
     0
  9
$DIMDEC
 70
     1
  9
$DIMTDEC
 70
     4
  9
$DIMALTU
 70
     2
  9
$DIMALTTD
 70
     2
  9
$DIMTXSTY
  7
STYLE1
  9
$DIMAUNIT
 70
     0
  9
$DIMADEC
 70
     0
  9
$DIMALTRND
 40
0.0
  9
$DIMAZIN
 70
     0
  9
$DIMDSEP
 70
    46
  9
$DIMATFIT
 70
     3
  9
$DIMFRAC
 70
     0
  9
$DIMLDRBLK
  1

  9
$DIMLUNIT
 70
     2
  9
$DIMLWD
 70
    -2
  9
$DIMLWE
 70
    -2
  9
$DIMTMOVE
 70
     0
  9
$LUNITS
 70
     2
  9
$LUPREC
 70
     1
  9
$SKETCHINC
 40
1.0
  9
$FILLETRAD
 40
3.0
  9
$AUNITS
 70
     0
  9
$AUPREC
 70
     0
  9
$MENU
  1
acad
  9
$ELEVATION
 40
0.0
  9
$PELEVATION
 40
0.0
  9
$THICKNESS
 40
0.0
  9
$LIMCHECK
 70
     0
  9
$CHAMFERA
 40
0.0
  9
$CHAMFERB
 40
0.0
  9
$CHAMFERC
 40
0.0
  9
$CHAMFERD
 40
0.0
  9
$SKPOLY
 70
     0
  9
$TDCREATE
 40
2451368.612993866
  9
$TDUCREATE
 40
2451368.237993866
  9
$TDUPDATE
 40
2455826.588245255
  9
$TDUUPDATE
 40
2455826.213245255
  9
$TDINDWG
 40
0.7684526157
  9
$TDUSRTIMER
 40
0.7684526157
  9
$USRTIMER
 70
     1
  9
$ANGBASE
 50
0.0
  9
$ANGDIR
 70
     0
  9
$PDMODE
 70
     3
  9
$PDSIZE
 40
2.0
  9
$PLINEWID
 40
0.0
  9
$SPLFRAME
 70
     0
  9
$SPLINETYPE
 70
     6
  9
$SPLINESEGS
 70
     8
  9
$HANDSEED
  5
24B2F
  9
$SURFTAB1
 70
     6
  9
$SURFTAB2
 70
     6
  9
$SURFTYPE
 70
     6
  9
$SURFU
 70
     6
  9
$SURFV
 70
     6
  9
$UCSBASE
  2

  9
$UCSNAME
  2

  9
$UCSORG
 10
0.0
 20
0.0
 30
0.0
  9
$UCSXDIR
 10
1.0
 20
0.0
 30
0.0
  9
$UCSYDIR
 10
0.0
 20
1.0
 30
0.0
  9
$UCSORTHOREF
  2

  9
$UCSORTHOVIEW
 70
     0
  9
$UCSORGTOP
 10
0.0
 20
0.0
 30
0.0
  9
$UCSORGBOTTOM
 10
0.0
 20
0.0
 30
0.0
  9
$UCSORGLEFT
 10
0.0
 20
0.0
 30
0.0
  9
$UCSORGRIGHT
 10
0.0
 20
0.0
 30
0.0
  9
$UCSORGFRONT
 10
0.0
 20
0.0
 30
0.0
  9
$UCSORGBACK
 10
0.0
 20
0.0
 30
0.0
  9
$PUCSBASE
  2

  9
$PUCSNAME
  2

  9
$PUCSORG
 10
0.0
 20
0.0
 30
0.0
  9
$PUCSXDIR
 10
1.0
 20
0.0
 30
0.0
  9
$PUCSYDIR
 10
0.0
 20
1.0
 30
0.0
  9
$PUCSORTHOREF
  2

  9
$PUCSORTHOVIEW
 70
     0
  9
$PUCSORGTOP
 10
0.0
 20
0.0
 30
0.0
  9
$PUCSORGBOTTOM
 10
0.0
 20
0.0
 30
0.0
  9
$PUCSORGLEFT
 10
0.0
 20
0.0
 30
0.0
  9
$PUCSORGRIGHT
 10
0.0
 20
0.0
 30
0.0
  9
$PUCSORGFRONT
 10
0.0
 20
0.0
 30
0.0
  9
$PUCSORGBACK
 10
0.0
 20
0.0
 30
0.0
  9
$USERI1
 70
     0
  9
$USERI2
 70
     0
  9
$USERI3
 70
     0
  9
$USERI4
 70
     0
  9
$USERI5
 70
     0
  9
$USERR1
 40
0.0
  9
$USERR2
 40
0.0
  9
$USERR3
 40
0.0
  9
$USERR4
 40
0.0
  9
$USERR5
 40
0.0
  9
$WORLDVIEW
 70
     1
  9
$SHADEDGE
 70
     3
  9
$SHADEDIF
 70
    70
  9
$TILEMODE
 70
     1
  9
$MAXACTVP
 70
    16
  9
$PINSBASE
 10
0.0
 20
0.0
 30
0.0
  9
$PLIMCHECK
 70
     0
  9
$PEXTMIN
 10
1.000000000000000E+20
 20
1.000000000000000E+20
 30
1.000000000000000E+20
  9
$PEXTMAX
 10
-1.000000000000000E+20
 20
-1.000000000000000E+20
 30
-1.000000000000000E+20
  9
$PLIMMIN
 10
0.0
 20
0.0
  9
$PLIMMAX
 10
420.0
 20
297.0
  9
$UNITMODE
 70
     0
  9
$VISRETAIN
 70
     0
  9
$PLINEGEN
 70
     0
  9
$PSLTSCALE
 70
     0
  9
$TREEDEPTH
 70
  3020
  9
$CMLSTYLE
  2
STANDARD
  9
$CMLJUST
 70
     0
  9
$CMLSCALE
 40
1.0
  9
$PROXYGRAPHICS
 70
     1
  9
$MEASUREMENT
 70
     1
  9
$CELWEIGHT
370
    -1
  9
$ENDCAPS
280
     0
  9
$JOINSTYLE
280
     0
  9
$LWDISPLAY
290
     0
  9
$INSUNITS
 70
     0
  9
$HYPERLINKBASE
  1

  9
$STYLESHEET
  1

  9
$XEDIT
290
     1
  9
$CEPSNTYPE
380
     0
  9
$PSTYLEMODE
290
     1
  9
$FINGERPRINTGUID
  2
{5EAC461A-2277-4BF8-9AB0-99C43BB394F0}
  9
$VERSIONGUID
  2
{EA84731B-D983-4A82-AFDF-21D2CF7F16BF}
  9
$EXTNAMES
290
     1
  9
$PSVPSCALE
 40
0.0
  9
$OLESTARTUP
290
     0
  0
ENDSEC
  0
SECTION
  2
CLASSES
  0
CLASS
  1
ACDBDICTIONARYWDFLT
  2
AcDbDictionaryWithDefault
  3
ObjectDBX Classes
 90
        0
280
     0
281
     0
  0
CLASS
  1
DICTIONARYVAR
  2
AcDbDictionaryVar
  3
ObjectDBX Classes
 90
        0
280
     0
281
     0
  0
CLASS
  1
ACDBPLACEHOLDER
  2
AcDbPlaceHolder
  3
ObjectDBX Classes
 90
        0
280
     0
281
     0
  0
CLASS
  1
LAYOUT
  2
AcDbLayout
  3
ObjectDBX Classes
 90
        0
280
     0
281
     0
  0
ENDSEC
  0
SECTION
  2
TABLES
  0
TABLE
  2
VPORT
  5
746D
330
0
100
AcDbSymbolTable
 70
     2
  0
VPORT
  5
24B27
330
746D
100
AcDbSymbolTableRecord
100
AcDbViewportTableRecord
  2
*Active
 70
     0
 10
0.0
 20
0.0
 11
1.0
 21
1.0
 12
8400.000000000002
 22
6532.467989526317
 13
0.0
 23
0.0
 14
10.0
 24
10.0
 15
10.0
 25
10.0
 16
0.0
 26
0.0
 36
1.0
 17
0.0
 27
0.0
 37
0.0
 40
13159.96111582214
 41
1.522222222222222
 42
50.0
 43
0.0
 44
0.0
 50
0.0
 51
0.0
 71
     0
 72
     0
 73
     1
 74
     0
 75
     0
 76
     0
 77
     0
 78
     0
281
     0
 65
     1
110
0.0
120
0.0
130
0.0
111
1.0
121
0.0
131
0.0
112
0.0
122
1.0
132
0.0
 79
     0
146
0.0
  0
ENDTAB
  0
TABLE
  2
LTYPE
  5
746A
330
0
100
AcDbSymbolTable
 70
     5
  0
LTYPE
  5
7477
330
746A
100
AcDbSymbolTableRecord
100
AcDbLinetypeTableRecord
  2
BYBLOCK
 70
     0
  3

 72
    65
 73
     0
 40
0.0
  0
LTYPE
  5
7478
330
746A
100
AcDbSymbolTableRecord
100
AcDbLinetypeTableRecord
  2
BYLAYER
 70
     0
  3

 72
    65
 73
     0
 40
0.0
  0
LTYPE
  5
7479
330
746A
100
AcDbSymbolTableRecord
100
AcDbLinetypeTableRecord
  2
CONTINUOUS
 70
     0
  3
Solid line
 72
    65
 73
     0
 40
0.0
  0
LTYPE
  5
7816
330
746A
100
AcDbSymbolTableRecord
100
AcDbLinetypeTableRecord
  2
CENTER
 70
     0
  3
____ _ ____ _ ____ _ ____ _ ____ _ ____ _ ____ 
 72
    65
 73
     4
 40
2.0
 49
1.25
 74
     0
 49
-0.25
 74
     0
 49
0.25
 74
     0
 49
-0.25
 74
     0
  0
LTYPE
  5
781A
330
746A
100
AcDbSymbolTableRecord
100
AcDbLinetypeTableRecord
  2
HIDDEN
 70
     0
  3
__ __ __ __ __ __ __ __ __ __ __ __ __ __ __ __
 72
    65
 73
     2
 40
0.375
 49
0.25
 74
     0
 49
-0.125
 74
     0
  0
LTYPE
  5
781B
330
746A
100
AcDbSymbolTableRecord
100
AcDbLinetypeTableRecord
  2
PHANTOM
 70
     0
  3
______  __  __  ______  __  __  ______  __  __ 
 72
    65
 73
     6
 40
2.5
 49
1.25
 74
     0
 49
-0.25
 74
     0
 49
0.25
 74
     0
 49
-0.25
 74
     0
 49
0.25
 74
     0
 49
-0.25
 74
     0
  0
LTYPE
  5
12CC3
330
746A
100
AcDbSymbolTableRecord
100
AcDbLinetypeTableRecord
  2
HIDDENX2
 70
     0
  3
Hidden (2x) ____ ____ ____ ____ ____ ____ ____
 72
    65
 73
     2
 40
19.05
 49
12.7
 74
     0
 49
-6.349999999999999
 74
     0
  0
ENDTAB
  0
TABLE
  2
LAYER
  5
7467
102
{ACAD_XDICTIONARY
360
1758F
102
}
330
0
100
AcDbSymbolTable
 70
    12
  0
LAYER
  5
7474
330
7467
100
AcDbSymbolTableRecord
100
AcDbLayerTableRecord
  2
0
 70
     0
 62
     7
  6
CONTINUOUS
370
    -3
390
173D0
  0
LAYER
  5
DEB2
330
7467
100
AcDbSymbolTableRecord
100
AcDbLayerTableRecord
  2
センター
 70
     0
 62
     3
  6
CENTER
370
    -3
390
173D0
  0
LAYER
  5
DEB3
330
7467
100
AcDbSymbolTableRecord
100
AcDbLayerTableRecord
  2
寸法
 70
     0
 62
     4
  6
CONTINUOUS
370
    -3
390
173D0
  0
LAYER
  5
DEB4
330
7467
100
AcDbSymbolTableRecord
100
AcDbLayerTableRecord
  2
部品1
 70
     0
 62
     7
  6
CONTINUOUS
370
    -3
390
173D0
  0
LAYER
  5
DEB5
330
7467
100
AcDbSymbolTableRecord
100
AcDbLayerTableRecord
  2
補助
 70
     0
 62
    -1
  6
CONTINUOUS
370
    -3
390
173D0
  0
LAYER
  5
DEB6
330
7467
100
AcDbSymbolTableRecord
100
AcDbLayerTableRecord
  2
文字
 70
     0
 62
     7
  6
CONTINUOUS
370
    -3
390
173D0
  0
LAYER
  5
F255
330
7467
100
AcDbSymbolTableRecord
100
AcDbLayerTableRecord
  2
DEFPOINTS
 70
     0
 62
     7
  6
CONTINUOUS
290
     0
370
    -3
390
173D0
  0
LAYER
  5
10B54
330
7467
100
AcDbSymbolTableRecord
100
AcDbLayerTableRecord
  2
仕様書枠
 70
     0
 62
   230
  6
CONTINUOUS
370
    -3
390
173D0
  0
LAYER
  5
11729
330
7467
100
AcDbSymbolTableRecord
100
AcDbLayerTableRecord
  2
Ｇ．Ｌ
 70
     0
 62
    30
  6
CONTINUOUS
370
    -3
390
173D0
  0
LAYER
  5
1173F
330
7467
100
AcDbSymbolTableRecord
100
AcDbLayerTableRecord
  2
細線
 70
     0
 62
     5
  6
CONTINUOUS
370
    -3
390
173D0
  0
LAYER
  5
12CC4
330
7467
100
AcDbSymbolTableRecord
100
AcDbLayerTableRecord
  2
想像線
 70
     0
 62
     6
  6
PHANTOM
370
    -3
390
173D0
  0
LAYER
  5
142E2
330
7467
100
AcDbSymbolTableRecord
100
AcDbLayerTableRecord
  2
破線
 70
     0
 62
     2
  6
HIDDEN
370
    -3
390
173D0
  0
ENDTAB
  0
TABLE
  2
STYLE
  5
7468
330
0
100
AcDbSymbolTable
 70
     7
  0
STYLE
  5
7475
330
7468
100
AcDbSymbolTableRecord
100
AcDbTextStyleTableRecord
  2
STANDARD
 70
     0
 40
0.0
 41
1.0
 50
0.0
 71
     0
 42
4.0
  3
txt
  4
C:\AutoCAD LT\bigfont.shx
  0
STYLE
  5
763C
330
7468
100
AcDbSymbolTableRecord
100
AcDbTextStyleTableRecord
  2
MSMINCHO
 70
     0
 40
0.0
 41
1.0
 50
0.0
 71
     0
 42
1.199999999999999
  3
C:\AutoCAD LT\msminch2.TTF
  4

  0
STYLE
  5
F706
330
7468
100
AcDbSymbolTableRecord
100
AcDbTextStyleTableRecord
  2
STYLE1
 70
     0
 40
0.0
 41
1.0
 50
0.0
 71
     0
 42
4.0
  3
isocp.shx
  4
bigfont.shx
  0
STYLE
  5
103BF
330
7468
100
AcDbSymbolTableRecord
100
AcDbTextStyleTableRecord
  2
STYLE2
 70
     0
 40
0.0
 41
1.0
 50
0.0
 71
     0
 42
100.0
  3
MS PGothic.ttf
  4

1001
ACAD
1000
MS PGothic
1071
    32818
  0
STYLE
  5
10BAA
330
7468
100
AcDbSymbolTableRecord
100
AcDbTextStyleTableRecord
  2
STYLE3
 70
     0
 40
0.0
 41
1.0
 50
0.0
 71
     0
 42
100.0
  3

  4

1001
ACAD
1000
DFPGothic-EB
1071
    32818
  0
STYLE
  5
11A15
330
7468
100
AcDbSymbolTableRecord
100
AcDbTextStyleTableRecord
  2
MSGOTHIC
 70
     0
 40
0.0
 41
1.0
 50
0.0
 71
     0
 42
3.5
  3
msgothi2.ttf
  4

  0
STYLE
  5
13E96
330
7468
100
AcDbSymbolTableRecord
100
AcDbTextStyleTableRecord
  2
MSPゴシック
 70
     0
 40
0.0
 41
1.0
 50
0.0
 71
     0
 42
4.0
  3
MS PGothic.ttf
  4

1001
ACAD
1000
MS PGothic
1071
    32818
  0
ENDTAB
  0
TABLE
  2
VIEW
  5
746B
330
0
100
AcDbSymbolTable
 70
     0
  0
ENDTAB
  0
TABLE
  2
UCS
  5
746C
330
0
100
AcDbSymbolTable
 70
     0
  0
ENDTAB
  0
TABLE
  2
APPID
  5
746E
330
0
100
AcDbSymbolTable
 70
     6
  0
APPID
  5
7476
330
746E
100
AcDbSymbolTableRecord
100
AcDbRegAppTableRecord
  2
ACAD
 70
     0
  0
APPID
  5
DEA9
330
746E
100
AcDbSymbolTableRecord
100
AcDbRegAppTableRecord
  2
CONTENTBLOCKICON
 70
     0
  0
APPID
  5
DEAA
330
746E
100
AcDbSymbolTableRecord
100
AcDbRegAppTableRecord
  2
CONTENTBLOCKDESCRIPTION
 70
     0
  0
APPID
  5
E71D
330
746E
100
AcDbSymbolTableRecord
100
AcDbRegAppTableRecord
  2
CONTENTTABDATA
 70
     0
  0
APPID
  5
E71E
330
746E
100
AcDbSymbolTableRecord
100
AcDbRegAppTableRecord
  2
CONTENTCURRENTTAB
 70
     0
  0
APPID
  5
F3BA
330
746E
100
AcDbSymbolTableRecord
100
AcDbRegAppTableRecord
  2
DRAWINGVARIABLESXDATA
 70
     0
  0
ENDTAB
  0
TABLE
  2
DIMSTYLE
  5
746F
330
0
100
AcDbSymbolTable
 70
     6
100
AcDbDimStyleTable
 71
     1
340
F71F
  0
DIMSTYLE
105
7484
330
746F
100
AcDbSymbolTableRecord
100
AcDbDimStyleTableRecord
  2
JIS
 70
     0
 41
2.5
 42
1.0
 43
7.0
 44
1.0
 73
     0
 74
     0
 77
     1
 78
     8
140
2.5
141
0.0
143
0.0394
147
0.0
172
     1
174
     1
175
     1
340
7475
  0
DIMSTYLE
105
F236
330
746F
100
AcDbSymbolTableRecord
100
AcDbDimStyleTableRecord
  2
INABA_S40
 70
     0
 40
40.0
 41
2.5
 42
0.5
 43
7.0
 44
1.5
 73
     0
 74
     0
 77
     3
 78
     8
140
3.0
141
0.0
143
0.0394
147
1.0
172
     1
173
     1
174
     1
175
     1
178
     7
289
     0
340
7475
341
DEAC
343
DEAC
344
DEAC
  0
DIMSTYLE
105
F71F
102
{ACAD_REACTORS
330
20DE1
330
20DFB
330
22741
330
2275B
330
23978
330
23980
330
239DB
330
2407E
330
2407C
330
24041
330
2403F
330
2403C
330
2400C
330
2400A
330
24007
330
24015
330
2403E
330
24017
330
24013
330
24012
330
24010
330
24A7E
330
24A81
330
24A88
330
24A90
330
24A91
330
24A1E
102
}
330
746F
100
AcDbSymbolTableRecord
100
AcDbDimStyleTableRecord
  2
INABA_S40G
 70
     0
 40
40.0
 41
2.5
 42
0.5
 43
7.0
 44
1.5
 73
     0
 74
     0
 77
     3
 78
     8
140
3.0
141
0.0
143
0.0394
147
1.0
172
     1
173
     1
174
     1
178
     7
271
     1
340
F706
341
F770
343
F770
344
F770
  0
DIMSTYLE
105
142E3
330
746F
100
AcDbSymbolTableRecord
100
AcDbDimStyleTableRecord
  2
INABA_S1
 70
     0
 40
0.0
 41
2.5
 42
0.5
 43
7.0
 44
1.5
 73
     0
 74
     0
 77
     3
 78
     8
140
3.0
141
0.0
143
0.0394
146
0.5
147
0.5
172
     1
173
     1
176
   256
177
   256
178
     7
271
     2
272
     2
284
     8
288
     1
340
7475
341
DEAC
343
DEAC
344
DEAC
  0
DIMSTYLE
105
14463
330
746F
100
AcDbSymbolTableRecord
100
AcDbDimStyleTableRecord
  2
INABA_S30G
 70
     0
 40
30.0
 41
2.5
 42
0.5
 43
7.0
 44
1.5
 73
     0
 74
     0
 77
     3
 78
     8
140
3.0
141
0.0
143
0.0394
147
1.0
172
     1
173
     1
174
     1
175
     1
178
     7
271
     1
340
F706
341
F770
343
F770
344
F770
  0
DIMSTYLE
105
1758E
330
746F
100
AcDbSymbolTableRecord
100
AcDbDimStyleTableRecord
  2
INABA_S50G
 70
     0
 41
125.0
 42
25.0
 43
7.0
 44
75.0
 73
     0
 74
     0
 77
     3
 78
     8
140
150.0
141
0.0
143
0.0394
147
25.0
172
     1
173
     1
174
     1
175
     1
178
     7
271
     1
340
F706
341
F770
343
F770
344
F770
  0
ENDTAB
  0
TABLE
  2
BLOCK_RECORD
  5
7466
330
0
100
AcDbSymbolTable
 70
    56
  0
BLOCK_RECORD
  5
747D
330
7466
100
AcDbSymbolTableRecord
100
AcDbBlockTableRecord
  2
*MODEL_SPACE
340
173D5
  0
BLOCK_RECORD
  5
747A
330
7466
100
AcDbSymbolTableRecord
100
AcDbBlockTableRecord
  2
*PAPER_SPACE
340
173D6
  0
BLOCK_RECORD
  5
DEAC
330
7466
100
AcDbSymbolTableRecord
100
AcDbBlockTableRecord
  2
_OPEN
340
0
  0
BLOCK_RECORD
  5
F770
330
7466
100
AcDbSymbolTableRecord
100
AcDbBlockTableRecord
  2
_DOTSMALL
340
0
102
{BLKREFS
331
18C65
331
18C66
331
18C59
331
18C5A
331
18C4D
331
18C4E
331
18C41
331
18C42
331
18C35
331
18C36
331
18C29
331
18C2A
331
18C1D
331
18C1E
331
18C0F
331
18C10
331
18C03
331
18C04
331
18BF5
331
18BF6
331
18BE7
331
18BE8
331
18BD9
331
18BDA
331
18BCD
331
18BCE
331
21316
331
21317
331
21321
331
21322
331
2132A
331
2132B
331
2464D
331
2464E
331
24657
331
24658
331
24661
331
24662
331
2466A
331
2466B
331
24674
331
24675
331
2467E
331
2467F
331
24691
331
24692
331
246A3
331
246A4
331
246AD
331
246AE
331
246B6
331
246B7
331
246BF
331
246C0
331
246C8
331
246C9
331
246E6
331
246E7
331
246F1
331
246F2
331
246FC
331
246FD
331
24707
331
24708
331
24712
331
24713
331
24736
331
24737
331
2473F
331
24740
331
24792
331
24793
331
2479C
331
2479D
331
247DD
331
247DE
331
24826
331
24827
331
2481A
331
2481B
331
2480E
331
2480F
331
24802
331
24803
331
247F6
331
247F7
331
247E8
331
247E9
331
24AE8
331
24AE9
331
24AF1
331
24AF2
331
24AFA
331
24AFB
331
24B05
331
24B06
331
24B0E
331
24B0F
331
24B17
331
24B18
102
}
  0
BLOCK_RECORD
  5
164B4
330
7466
100
AcDbSymbolTableRecord
100
AcDbBlockTableRecord
  2
_DOT
340
0
102
{BLKREFS
331
18C73
331
18C74
102
}
  0
BLOCK_RECORD
  5
18BC8
330
7466
100
AcDbSymbolTableRecord
100
AcDbBlockTableRecord
  2
*D3
340
0
  0
BLOCK_RECORD
  5
18BD4
330
7466
100
AcDbSymbolTableRecord
100
AcDbBlockTableRecord
  2
*D4
340
0
  0
BLOCK_RECORD
  5
18BE0
330
7466
100
AcDbSymbolTableRecord
100
AcDbBlockTableRecord
  2
*D5
340
0
  0
BLOCK_RECORD
  5
18BEE
330
7466
100
AcDbSymbolTableRecord
100
AcDbBlockTableRecord
  2
*D6
340
0
  0
BLOCK_RECORD
  5
18BFC
330
7466
100
AcDbSymbolTableRecord
100
AcDbBlockTableRecord
  2
*D7
340
0
  0
BLOCK_RECORD
  5
18C0A
330
7466
100
AcDbSymbolTableRecord
100
AcDbBlockTableRecord
  2
*D8
340
0
  0
BLOCK_RECORD
  5
18C16
330
7466
100
AcDbSymbolTableRecord
100
AcDbBlockTableRecord
  2
*D9
340
0
  0
BLOCK_RECORD
  5
18C24
330
7466
100
AcDbSymbolTableRecord
100
AcDbBlockTableRecord
  2
*D10
340
0
  0
BLOCK_RECORD
  5
18C30
330
7466
100
AcDbSymbolTableRecord
100
AcDbBlockTableRecord
  2
*D11
340
0
  0
BLOCK_RECORD
  5
18C3C
330
7466
100
AcDbSymbolTableRecord
100
AcDbBlockTableRecord
  2
*D12
340
0
  0
BLOCK_RECORD
  5
18C48
330
7466
100
AcDbSymbolTableRecord
100
AcDbBlockTableRecord
  2
*D13
340
0
  0
BLOCK_RECORD
  5
18C54
330
7466
100
AcDbSymbolTableRecord
100
AcDbBlockTableRecord
  2
*D14
340
0
  0
BLOCK_RECORD
  5
18C60
330
7466
100
AcDbSymbolTableRecord
100
AcDbBlockTableRecord
  2
*D15
340
0
  0
BLOCK_RECORD
  5
18C6C
330
7466
100
AcDbSymbolTableRecord
100
AcDbBlockTableRecord
  2
*D16
340
0
  0
BLOCK_RECORD
  5
18C7A
330
7466
100
AcDbSymbolTableRecord
100
AcDbBlockTableRecord
  2
A$C3B1A506B
340
0
  0
BLOCK_RECORD
  5
1C4CA
330
7466
100
AcDbSymbolTableRecord
100
AcDbBlockTableRecord
  2
_NONE
340
0
  0
BLOCK_RECORD
  5
20DE2
330
7466
100
AcDbSymbolTableRecord
100
AcDbBlockTableRecord
  2
*D19
340
0
  0
BLOCK_RECORD
  5
20DFC
330
7466
100
AcDbSymbolTableRecord
100
AcDbBlockTableRecord
  2
*D20
340
0
  0
BLOCK_RECORD
  5
22742
330
7466
100
AcDbSymbolTableRecord
100
AcDbBlockTableRecord
  2
*D25
340
0
  0
BLOCK_RECORD
  5
2275C
330
7466
100
AcDbSymbolTableRecord
100
AcDbBlockTableRecord
  2
*D26
340
0
  0
BLOCK_RECORD
  5
239F3
330
7466
100
AcDbSymbolTableRecord
100
AcDbBlockTableRecord
  2
*D27
340
0
  0
BLOCK_RECORD
  5
23A23
330
7466
100
AcDbSymbolTableRecord
100
AcDbBlockTableRecord
  2
*D28
340
0
  0
BLOCK_RECORD
  5
23ADE
330
7466
100
AcDbSymbolTableRecord
100
AcDbBlockTableRecord
  2
*D29
340
0
  0
BLOCK_RECORD
  5
2409E
330
7466
100
AcDbSymbolTableRecord
100
AcDbBlockTableRecord
  2
*D30
340
0
  0
BLOCK_RECORD
  5
240AB
330
7466
100
AcDbSymbolTableRecord
100
AcDbBlockTableRecord
  2
*D31
340
0
  0
BLOCK_RECORD
  5
240B7
330
7466
100
AcDbSymbolTableRecord
100
AcDbBlockTableRecord
  2
*D32
340
0
  0
BLOCK_RECORD
  5
240C3
330
7466
100
AcDbSymbolTableRecord
100
AcDbBlockTableRecord
  2
*D33
340
0
  0
BLOCK_RECORD
  5
240CF
330
7466
100
AcDbSymbolTableRecord
100
AcDbBlockTableRecord
  2
*D34
340
0
  0
BLOCK_RECORD
  5
240E8
330
7466
100
AcDbSymbolTableRecord
100
AcDbBlockTableRecord
  2
*D35
340
0
  0
BLOCK_RECORD
  5
24102
330
7466
100
AcDbSymbolTableRecord
100
AcDbBlockTableRecord
  2
*D36
340
0
  0
BLOCK_RECORD
  5
2410F
330
7466
100
AcDbSymbolTableRecord
100
AcDbBlockTableRecord
  2
*D37
340
0
  0
BLOCK_RECORD
  5
24125
330
7466
100
AcDbSymbolTableRecord
100
AcDbBlockTableRecord
  2
*D38
340
0
  0
BLOCK_RECORD
  5
2413F
330
7466
100
AcDbSymbolTableRecord
100
AcDbBlockTableRecord
  2
*D39
340
0
  0
BLOCK_RECORD
  5
24159
330
7466
100
AcDbSymbolTableRecord
100
AcDbBlockTableRecord
  2
*D40
340
0
  0
BLOCK_RECORD
  5
2417F
330
7466
100
AcDbSymbolTableRecord
100
AcDbBlockTableRecord
  2
*D41
340
0
  0
BLOCK_RECORD
  5
2418B
330
7466
100
AcDbSymbolTableRecord
100
AcDbBlockTableRecord
  2
*D42
340
0
  0
BLOCK_RECORD
  5
24197
330
7466
100
AcDbSymbolTableRecord
100
AcDbBlockTableRecord
  2
*D43
340
0
  0
BLOCK_RECORD
  5
24A9B
330
7466
100
AcDbSymbolTableRecord
100
AcDbBlockTableRecord
  2
*D50
340
0
  0
BLOCK_RECORD
  5
24AA7
330
7466
100
AcDbSymbolTableRecord
100
AcDbBlockTableRecord
  2
*D51
340
0
  0
BLOCK_RECORD
  5
24AB3
330
7466
100
AcDbSymbolTableRecord
100
AcDbBlockTableRecord
  2
*D52
340
0
  0
BLOCK_RECORD
  5
24ABF
330
7466
100
AcDbSymbolTableRecord
100
AcDbBlockTableRecord
  2
*D53
340
0
  0
BLOCK_RECORD
  5
24ACD
330
7466
100
AcDbSymbolTableRecord
100
AcDbBlockTableRecord
  2
*D54
340
0
  0
BLOCK_RECORD
  5
24AD9
330
7466
100
AcDbSymbolTableRecord
100
AcDbBlockTableRecord
  2
*D55
340
0
  0
ENDTAB
  0
ENDSEC
  0
SECTION
  2
BLOCKS
  0
BLOCK
  5
7489
330
747D
100
AcDbEntity
  8
0
100
AcDbBlockBegin
  2
*MODEL_SPACE
 70
     0
 10
0.0
 20
0.0
 30
0.0
  3
*MODEL_SPACE
  1

  0
ENDBLK
  5
748A
330
747D
100
AcDbEntity
  8
0
100
AcDbBlockEnd
  0
BLOCK
  5
7487
330
747A
100
AcDbEntity
 67
     1
  8
0
100
AcDbBlockBegin
  2
*PAPER_SPACE
 70
     0
 10
0.0
 20
0.0
 30
0.0
  3
*PAPER_SPACE
  1

  0
ENDBLK
  5
7488
330
747A
100
AcDbEntity
 67
     1
  8
0
100
AcDbBlockEnd
  0
BLOCK
  5
DEAD
330
DEAC
100
AcDbEntity
  8
0
100
AcDbBlockBegin
  2
_OPEN
 70
     0
 10
0.0
 20
0.0
 30
0.0
  3
_OPEN
  1

  0
LINE
  5
DEAE
330
DEAC
100
AcDbEntity
  8
0
  6
ByBlock
 62
     0
100
AcDbLine
 10
-1.0
 20
0.1666666666666666
 30
0.0
 11
0.0
 21
0.0
 31
0.0
  0
LINE
  5
DEAF
330
DEAC
100
AcDbEntity
  8
0
  6
ByBlock
 62
     0
100
AcDbLine
 10
0.0
 20
0.0
 30
0.0
 11
-1.0
 21
-0.1666666666666666
 31
0.0
  0
LINE
  5
DEB0
330
DEAC
100
AcDbEntity
  8
0
  6
ByBlock
 62
     0
100
AcDbLine
 10
0.0
 20
0.0
 30
0.0
 11
-1.0
 21
0.0
 31
0.0
  0
ENDBLK
  5
DEB1
330
DEAC
100
AcDbEntity
  8
0
100
AcDbBlockEnd
  0
BLOCK
  5
F771
330
F770
100
AcDbEntity
  8
0
 48
50.0
100
AcDbBlockBegin
  2
_DOTSMALL
 70
     0
 10
0.0
 20
0.0
 30
0.0
  3
_DOTSMALL
  1

  0
LWPOLYLINE
  5
F772
330
F770
100
AcDbEntity
  8
0
  6
ByBlock
 62
     0
 48
50.0
100
AcDbPolyline
 90
        2
 70
     1
 43
0.5
 10
-0.0625
 20
0.0
 42
1.0
 10
0.0625
 20
0.0
 42
1.0
  0
ENDBLK
  5
F776
330
F770
100
AcDbEntity
  8
0
 48
50.0
100
AcDbBlockEnd
  0
BLOCK
  5
164BA
330
164B4
100
AcDbEntity
  8
0
 48
50.0
100
AcDbBlockBegin
  2
_DOT
 70
     0
 10
0.0
 20
0.0
 30
0.0
  3
_DOT
  1

  0
LWPOLYLINE
  5
164B5
330
164B4
100
AcDbEntity
  8
0
  6
ByBlock
 62
     0
 48
50.0
100
AcDbPolyline
 90
        2
 70
     1
 43
0.5
 10
-0.25
 20
0.0
 42
1.0
 10
0.25
 20
0.0
 42
1.0
  0
LINE
  5
164B9
330
164B4
100
AcDbEntity
  8
0
  6
ByBlock
 62
     0
 48
50.0
100
AcDbLine
 10
-0.5
 20
0.0
 30
0.0
 11
-1.0
 21
0.0
 31
0.0
  0
ENDBLK
  5
164BB
330
164B4
100
AcDbEntity
  8
0
 48
50.0
100
AcDbBlockEnd
  0
BLOCK
  5
18BC9
330
18BC8
100
AcDbEntity
  8
0
 48
50.0
100
AcDbBlockBegin
  2
*D3
 70
     1
 10
0.0
 20
0.0
 30
0.0
  3
*D3
  1

  0
LINE
  5
18BCA
330
18BC8
100
AcDbEntity
  8
寸法
 62
     0
 48
50.0
370
    -2
100
AcDbLine
 10
7649.896575106999
 20
9636.123139034717
 30
0.0
 11
8702.429862581047
 21
9636.123139034717
 31
0.0
  0
LINE
  5
18BCB
330
18BC8
100
AcDbEntity
  8
寸法
 62
     0
 48
50.0
370
    -2
100
AcDbLine
 10
7649.896575106973
 20
7846.123139034709
 30
0.0
 11
8702.429862581047
 21
7846.123139034709
 31
0.0
  0
LINE
  5
18BCC
330
18BC8
100
AcDbEntity
  8
寸法
 62
     0
 48
50.0
370
    -2
100
AcDbLine
 10
8642.429862581046
 20
9636.123139034717
 30
0.0
 11
8642.429862581046
 21
7846.123139034709
 31
0.0
  0
INSERT
  5
18BCD
330
18BC8
100
AcDbEntity
  8
寸法
 62
     0
 48
50.0
370
    -2
100
AcDbBlockReference
  2
_DOTSMALL
 10
8642.429862581046
 20
9636.123139034717
 30
0.0
 41
100.0
 42
100.0
 43
100.0
 50
90.0
  0
INSERT
  5
18BCE
330
18BC8
100
AcDbEntity
  8
寸法
 62
     0
 48
50.0
370
    -2
100
AcDbBlockReference
  2
_DOTSMALL
 10
8642.429862581046
 20
7846.123139034709
 30
0.0
 41
100.0
 42
100.0
 43
100.0
 50
270.0
  0
MTEXT
  5
18BCF
330
18BC8
100
AcDbEntity
  8
寸法
 62
     7
 48
50.0
100
AcDbMText
 10
8542.429862581045
 20
8741.123139034712
 30
0.0
 40
120.0
 41
0.0
 71
     5
 72
     1
  1
\A1;1790
  7
STYLE1
 11
0.0000000000000001
 21
1.0
 31
0.0
 73
     1
 44
1.0
1001
ACAD
1000
MTEXTBEGIN
1070
    73
1070
     1
1070
    44
1040
1.0
1070
    74
1070
     0
1000
MTEXTEND
  0
POINT
  5
18BD0
330
18BC8
100
AcDbEntity
  8
DEFPOINTS
 62
     0
 48
50.0
100
AcDbPoint
 10
7629.896575106998
 20
9636.123139034717
 30
0.0
  0
POINT
  5
18BD1
330
18BC8
100
AcDbEntity
  8
DEFPOINTS
 62
     0
 48
50.0
100
AcDbPoint
 10
7629.896575106974
 20
7846.123139034709
 30
0.0
  0
POINT
  5
18BD2
330
18BC8
100
AcDbEntity
  8
DEFPOINTS
 62
     0
 48
50.0
100
AcDbPoint
 10
8642.429862581046
 20
7846.123139034709
 30
0.0
  0
ENDBLK
  5
18BD3
330
18BC8
100
AcDbEntity
  8
0
 48
50.0
100
AcDbBlockEnd
  0
BLOCK
  5
18BD5
330
18BD4
100
AcDbEntity
  8
0
 48
50.0
100
AcDbBlockBegin
  2
*D4
 70
     1
 10
0.0
 20
0.0
 30
0.0
  3
*D4
  1

  0
LINE
  5
18BD6
330
18BD4
100
AcDbEntity
  8
寸法
 62
     0
 48
50.0
370
    -2
100
AcDbLine
 10
4214.896575106998
 20
9656.123139034622
 30
0.0
 11
4214.896575106998
 21
10211.93135865972
 31
0.0
  0
LINE
  5
18BD7
330
18BD4
100
AcDbEntity
  8
寸法
 62
     0
 48
50.0
370
    -2
100
AcDbLine
 10
7574.896575106999
 20
9656.123139034718
 30
0.0
 11
7574.896575106999
 21
10211.93135865972
 31
0.0
  0
LINE
  5
18BD8
330
18BD4
100
AcDbEntity
  8
寸法
 62
     0
 48
50.0
370
    -2
100
AcDbLine
 10
4214.896575106998
 20
10151.93135865972
 30
0.0
 11
7574.896575106999
 21
10151.93135865972
 31
0.0
  0
INSERT
  5
18BD9
330
18BD4
100
AcDbEntity
  8
寸法
 62
     0
 48
50.0
370
    -2
100
AcDbBlockReference
  2
_DOTSMALL
 10
4214.896575106998
 20
10151.93135865972
 30
0.0
 41
100.0
 42
100.0
 43
100.0
 50
180.0
  0
INSERT
  5
18BDA
330
18BD4
100
AcDbEntity
  8
寸法
 62
     0
 48
50.0
370
    -2
100
AcDbBlockReference
  2
_DOTSMALL
 10
7574.896575106999
 20
10151.93135865972
 30
0.0
 41
100.0
 42
100.0
 43
100.0
  0
MTEXT
  5
18BDB
330
18BD4
100
AcDbEntity
  8
寸法
 62
     7
 48
50.0
100
AcDbMText
 10
5894.896575106997
 20
10251.94316968334
 30
0.0
 40
120.0
 41
0.0
 71
     5
 72
     1
  1
\A1;8X420=3360
  7
STYLE1
 73
     1
 44
1.0
1001
ACAD
1000
MTEXTBEGIN
1070
    73
1070
     1
1070
    44
1040
1.0
1070
    74
1070
     0
1000
MTEXTEND
  0
POINT
  5
18BDC
330
18BD4
100
AcDbEntity
  8
DEFPOINTS
 62
     0
 48
50.0
100
AcDbPoint
 10
4214.896575106998
 20
9636.123139034623
 30
0.0
  0
POINT
  5
18BDD
330
18BD4
100
AcDbEntity
  8
DEFPOINTS
 62
     0
 48
50.0
100
AcDbPoint
 10
7574.896575106999
 20
9636.123139034717
 30
0.0
  0
POINT
  5
18BDE
330
18BD4
100
AcDbEntity
  8
DEFPOINTS
 62
     0
 48
50.0
100
AcDbPoint
 10
7574.896575106999
 20
10151.93135865972
 30
0.0
  0
ENDBLK
  5
18BDF
330
18BD4
100
AcDbEntity
  8
0
 48
50.0
100
AcDbBlockEnd
  0
BLOCK
  5
18BE1
330
18BE0
100
AcDbEntity
  8
0
 48
50.0
100
AcDbBlockBegin
  2
*D5
 70
     1
 10
0.0
 20
0.0
 30
0.0
  3
*D5
  1

  0
LINE
  5
18BE2
330
18BE0
100
AcDbEntity
  8
寸法
 62
     0
 48
50.0
370
    -2
100
AcDbLine
 10
7574.896575106999
 20
9656.123139034718
 30
0.0
 11
7574.896575106999
 21
10211.9313586597
 31
0.0
  0
LINE
  5
18BE3
330
18BE0
100
AcDbEntity
  8
寸法
 62
     0
 48
50.0
370
    -2
100
AcDbLine
 10
7629.896575106998
 20
9656.123139034718
 30
0.0
 11
7629.896575106998
 21
10211.9313586597
 31
0.0
  0
LINE
  5
18BE4
330
18BE0
100
AcDbEntity
  8
寸法
 62
     0
 48
50.0
370
    -2
100
AcDbLine
 10
7574.896575106999
 20
10151.9313586597
 30
0.0
 11
7474.896575106999
 21
10151.9313586597
 31
0.0
  0
LINE
  5
18BE5
330
18BE0
100
AcDbEntity
  8
寸法
 62
     0
 48
50.0
370
    -2
100
AcDbLine
 10
7629.896575106998
 20
10151.9313586597
 30
0.0
 11
8046.867137855477
 21
10151.9313586597
 31
0.0
  0
LINE
  5
18BE6
330
18BE0
100
AcDbEntity
  8
寸法
 62
     0
 48
50.0
370
    -2
100
AcDbLine
 10
7574.896575106999
 20
10151.9313586597
 30
0.0
 11
7629.896575106998
 21
10151.9313586597
 31
0.0
  0
INSERT
  5
18BE7
330
18BE0
100
AcDbEntity
  8
寸法
 62
     0
 48
50.0
370
    -2
100
AcDbBlockReference
  2
_DOTSMALL
 10
7574.896575106999
 20
10151.9313586597
 30
0.0
 41
100.0
 42
100.0
 43
100.0
  0
INSERT
  5
18BE8
330
18BE0
100
AcDbEntity
  8
寸法
 62
     0
 48
50.0
370
    -2
100
AcDbBlockReference
  2
_DOTSMALL
 10
7629.896575106998
 20
10151.9313586597
 30
0.0
 41
100.0
 42
100.0
 43
100.0
 50
180.0
  0
MTEXT
  5
18BE9
330
18BE0
100
AcDbEntity
  8
寸法
 62
     7
 48
50.0
100
AcDbMText
 10
7938.381856481237
 20
10251.9313586597
 30
0.0
 40
120.0
 41
0.0
 71
     5
 72
     1
  1
\A1;55
  7
STYLE1
 73
     1
 44
1.0
1001
ACAD
1000
MTEXTBEGIN
1070
    73
1070
     1
1070
    44
1040
1.0
1070
    74
1070
     0
1000
MTEXTEND
  0
POINT
  5
18BEA
330
18BE0
100
AcDbEntity
  8
DEFPOINTS
 62
     0
 48
50.0
100
AcDbPoint
 10
7574.896575106999
 20
9636.123139034717
 30
0.0
  0
POINT
  5
18BEB
330
18BE0
100
AcDbEntity
  8
DEFPOINTS
 62
     0
 48
50.0
100
AcDbPoint
 10
7629.896575106998
 20
9636.123139034717
 30
0.0
  0
POINT
  5
18BEC
330
18BE0
100
AcDbEntity
  8
DEFPOINTS
 62
     0
 48
50.0
100
AcDbPoint
 10
7629.896575106998
 20
10151.9313586597
 30
0.0
  0
ENDBLK
  5
18BED
330
18BE0
100
AcDbEntity
  8
0
 48
50.0
100
AcDbBlockEnd
  0
BLOCK
  5
18BEF
330
18BEE
100
AcDbEntity
  8
0
 48
50.0
100
AcDbBlockBegin
  2
*D6
 70
     1
 10
0.0
 20
0.0
 30
0.0
  3
*D6
  1

  0
LINE
  5
18BF0
330
18BEE
100
AcDbEntity
  8
寸法
 62
     0
 48
50.0
370
    -2
100
AcDbLine
 10
7649.896575106999
 20
9636.123139034717
 30
0.0
 11
8337.32292084141
 21
9636.123139034717
 31
0.0
  0
LINE
  5
18BF1
330
18BEE
100
AcDbEntity
  8
寸法
 62
     0
 48
50.0
370
    -2
100
AcDbLine
 10
7649.896575106999
 20
9581.123139034721
 30
0.0
 11
8337.32292084141
 21
9581.123139034721
 31
0.0
  0
LINE
  5
18BF2
330
18BEE
100
AcDbEntity
  8
寸法
 62
     0
 48
50.0
370
    -2
100
AcDbLine
 10
8277.322920841411
 20
9581.123139034721
 30
0.0
 11
8277.322920841411
 21
9481.123139034719
 31
0.0
  0
LINE
  5
18BF3
330
18BEE
100
AcDbEntity
  8
寸法
 62
     0
 48
50.0
370
    -2
100
AcDbLine
 10
8277.322920841411
 20
9636.123139034717
 30
0.0
 11
8277.322920841411
 21
10053.09370178319
 31
0.0
  0
LINE
  5
18BF4
330
18BEE
100
AcDbEntity
  8
寸法
 62
     0
 48
50.0
370
    -2
100
AcDbLine
 10
8277.322920841411
 20
9581.123139034721
 30
0.0
 11
8277.322920841411
 21
9636.123139034717
 31
0.0
  0
INSERT
  5
18BF5
330
18BEE
100
AcDbEntity
  8
寸法
 62
     0
 48
50.0
370
    -2
100
AcDbBlockReference
  2
_DOTSMALL
 10
8277.322920841411
 20
9581.123139034721
 30
0.0
 41
100.0
 42
100.0
 43
100.0
 50
90.0
  0
INSERT
  5
18BF6
330
18BEE
100
AcDbEntity
  8
寸法
 62
     0
 48
50.0
370
    -2
100
AcDbBlockReference
  2
_DOTSMALL
 10
8277.322920841411
 20
9636.123139034717
 30
0.0
 41
100.0
 42
100.0
 43
100.0
 50
270.0
  0
MTEXT
  5
18BF7
330
18BEE
100
AcDbEntity
  8
寸法
 62
     7
 48
50.0
100
AcDbMText
 10
8177.32292084141
 20
9944.608420408957
 30
0.0
 40
120.0
 41
0.0
 71
     5
 72
     1
  1
\A1;55
  7
STYLE1
 11
0.0000000000000001
 21
1.0
 31
0.0
 73
     1
 44
1.0
1001
ACAD
1000
MTEXTBEGIN
1070
    73
1070
     1
1070
    44
1040
1.0
1070
    74
1070
     0
1000
MTEXTEND
  0
POINT
  5
18BF8
330
18BEE
100
AcDbEntity
  8
DEFPOINTS
 62
     0
 48
50.0
100
AcDbPoint
 10
7629.896575106998
 20
9636.123139034717
 30
0.0
  0
POINT
  5
18BF9
330
18BEE
100
AcDbEntity
  8
DEFPOINTS
 62
     0
 48
50.0
100
AcDbPoint
 10
7629.896575106998
 20
9581.123139034721
 30
0.0
  0
POINT
  5
18BFA
330
18BEE
100
AcDbEntity
  8
DEFPOINTS
 62
     0
 48
50.0
100
AcDbPoint
 10
8277.322920841411
 20
9581.123139034721
 30
0.0
  0
ENDBLK
  5
18BFB
330
18BEE
100
AcDbEntity
  8
0
 48
50.0
100
AcDbBlockEnd
  0
BLOCK
  5
18BFD
330
18BFC
100
AcDbEntity
  8
0
 48
50.0
100
AcDbBlockBegin
  2
*D7
 70
     1
 10
0.0
 20
0.0
 30
0.0
  3
*D7
  1

  0
LINE
  5
18BFE
330
18BFC
100
AcDbEntity
  8
寸法
 62
     0
 48
50.0
370
    -2
100
AcDbLine
 10
4159.896575106963
 20
9656.123139034622
 30
0.0
 11
4159.896575106963
 21
10211.9313586596
 31
0.0
  0
LINE
  5
18BFF
330
18BFC
100
AcDbEntity
  8
寸法
 62
     0
 48
50.0
370
    -2
100
AcDbLine
 10
4214.896575106998
 20
9656.123139034622
 30
0.0
 11
4214.896575106998
 21
10211.9313586596
 31
0.0
  0
LINE
  5
18C00
330
18BFC
100
AcDbEntity
  8
寸法
 62
     0
 48
50.0
370
    -2
100
AcDbLine
 10
4214.896575106998
 20
10151.9313586596
 30
0.0
 11
4314.896575106998
 21
10151.9313586596
 31
0.0
  0
LINE
  5
18C01
330
18BFC
100
AcDbEntity
  8
寸法
 62
     0
 48
50.0
370
    -2
100
AcDbLine
 10
4159.896575106963
 20
10151.9313586596
 30
0.0
 11
3742.926012358486
 21
10151.9313586596
 31
0.0
  0
LINE
  5
18C02
330
18BFC
100
AcDbEntity
  8
寸法
 62
     0
 48
50.0
370
    -2
100
AcDbLine
 10
4214.896575106998
 20
10151.9313586596
 30
0.0
 11
4159.896575106963
 21
10151.9313586596
 31
0.0
  0
INSERT
  5
18C03
330
18BFC
100
AcDbEntity
  8
寸法
 62
     0
 48
50.0
370
    -2
100
AcDbBlockReference
  2
_DOTSMALL
 10
4214.896575106998
 20
10151.9313586596
 30
0.0
 41
100.0
 42
100.0
 43
100.0
 50
180.0
  0
INSERT
  5
18C04
330
18BFC
100
AcDbEntity
  8
寸法
 62
     0
 48
50.0
370
    -2
100
AcDbBlockReference
  2
_DOTSMALL
 10
4159.896575106963
 20
10151.9313586596
 30
0.0
 41
100.0
 42
100.0
 43
100.0
  0
MTEXT
  5
18C05
330
18BFC
100
AcDbEntity
  8
寸法
 62
     7
 48
50.0
100
AcDbMText
 10
3851.411293732725
 20
10251.9313586596
 30
0.0
 40
120.0
 41
0.0
 71
     5
 72
     1
  1
\A1;55
  7
STYLE1
 73
     1
 44
1.0
1001
ACAD
1000
MTEXTBEGIN
1070
    73
1070
     1
1070
    44
1040
1.0
1070
    74
1070
     0
1000
MTEXTEND
  0
POINT
  5
18C06
330
18BFC
100
AcDbEntity
  8
DEFPOINTS
 62
     0
 48
50.0
100
AcDbPoint
 10
4159.896575106963
 20
9636.123139034623
 30
0.0
  0
POINT
  5
18C07
330
18BFC
100
AcDbEntity
  8
DEFPOINTS
 62
     0
 48
50.0
100
AcDbPoint
 10
4214.896575106998
 20
9636.123139034623
 30
0.0
  0
POINT
  5
18C08
330
18BFC
100
AcDbEntity
  8
DEFPOINTS
 62
     0
 48
50.0
100
AcDbPoint
 10
4214.896575106998
 20
10151.9313586596
 30
0.0
  0
ENDBLK
  5
18C09
330
18BFC
100
AcDbEntity
  8
0
 48
50.0
100
AcDbBlockEnd
  0
BLOCK
  5
18C0B
330
18C0A
100
AcDbEntity
  8
0
 48
50.0
100
AcDbBlockBegin
  2
*D8
 70
     1
 10
0.0
 20
0.0
 30
0.0
  3
*D8
  1

  0
LINE
  5
18C0C
330
18C0A
100
AcDbEntity
  8
寸法
 62
     0
 48
50.0
370
    -2
100
AcDbLine
 10
4159.896575106992
 20
7826.123139034546
 30
0.0
 11
4159.896575106992
 21
6804.372203245664
 31
0.0
  0
LINE
  5
18C0D
330
18C0A
100
AcDbEntity
  8
寸法
 62
     0
 48
50.0
370
    -2
100
AcDbLine
 10
7629.896575106974
 20
7826.123139034674
 30
0.0
 11
7629.896575106974
 21
6804.372203245664
 31
0.0
  0
LINE
  5
18C0E
330
18C0A
100
AcDbEntity
  8
寸法
 62
     0
 48
50.0
370
    -2
100
AcDbLine
 10
4159.896575106992
 20
6864.372203245665
 30
0.0
 11
7629.896575106974
 21
6864.372203245665
 31
0.0
  0
INSERT
  5
18C0F
330
18C0A
100
AcDbEntity
  8
寸法
 62
     0
 48
50.0
370
    -2
100
AcDbBlockReference
  2
_DOTSMALL
 10
4159.896575106992
 20
6864.372203245665
 30
0.0
 41
100.0
 42
100.0
 43
100.0
 50
180.0
  0
INSERT
  5
18C10
330
18C0A
100
AcDbEntity
  8
寸法
 62
     0
 48
50.0
370
    -2
100
AcDbBlockReference
  2
_DOTSMALL
 10
7629.896575106974
 20
6864.372203245665
 30
0.0
 41
100.0
 42
100.0
 43
100.0
  0
MTEXT
  5
18C11
330
18C0A
100
AcDbEntity
  8
寸法
 62
     7
 48
50.0
100
AcDbMText
 10
5911.12376113973
 20
6964.372203245665
 30
0.0
 40
120.0
 41
0.0
 71
     5
 72
     1
  1
\A1;3470
  7
STYLE1
 73
     1
 44
1.0
1001
ACAD
1000
MTEXTBEGIN
1070
    73
1070
     1
1070
    44
1040
1.0
1070
    74
1070
     0
1000
MTEXTEND
  0
POINT
  5
18C12
330
18C0A
100
AcDbEntity
  8
DEFPOINTS
 62
     0
 48
50.0
100
AcDbPoint
 10
4159.896575106992
 20
7846.123139034546
 30
0.0
  0
POINT
  5
18C13
330
18C0A
100
AcDbEntity
  8
DEFPOINTS
 62
     0
 48
50.0
100
AcDbPoint
 10
7629.896575106974
 20
7846.123139034673
 30
0.0
  0
POINT
  5
18C14
330
18C0A
100
AcDbEntity
  8
DEFPOINTS
 62
     0
 48
50.0
100
AcDbPoint
 10
7629.896575106974
 20
6864.372203245665
 30
0.0
  0
ENDBLK
  5
18C15
330
18C0A
100
AcDbEntity
  8
0
 48
50.0
100
AcDbBlockEnd
  0
BLOCK
  5
18C17
330
18C16
100
AcDbEntity
  8
0
 48
50.0
100
AcDbBlockBegin
  2
*D9
 70
     1
 10
0.0
 20
0.0
 30
0.0
  3
*D9
  1

  0
LINE
  5
18C18
330
18C16
100
AcDbEntity
  8
寸法
 62
     0
 48
50.0
370
    -2
100
AcDbLine
 10
7649.896575106973
 20
7901.123139034706
 30
0.0
 11
8337.322920841385
 21
7901.123139034706
 31
0.0
  0
LINE
  5
18C19
330
18C16
100
AcDbEntity
  8
寸法
 62
     0
 48
50.0
370
    -2
100
AcDbLine
 10
7649.896575106973
 20
7846.123139034709
 30
0.0
 11
8337.322920841385
 21
7846.123139034709
 31
0.0
  0
LINE
  5
18C1A
330
18C16
100
AcDbEntity
  8
寸法
 62
     0
 48
50.0
370
    -2
100
AcDbLine
 10
8277.322920841385
 20
7901.123139034706
 30
0.0
 11
8277.322920841385
 21
8001.123139034707
 31
0.0
  0
LINE
  5
18C1B
330
18C16
100
AcDbEntity
  8
寸法
 62
     0
 48
50.0
370
    -2
100
AcDbLine
 10
8277.322920841385
 20
7846.123139034709
 30
0.0
 11
8277.322920841385
 21
7429.152576286229
 31
0.0
  0
LINE
  5
18C1C
330
18C16
100
AcDbEntity
  8
寸法
 62
     0
 48
50.0
370
    -2
100
AcDbLine
 10
8277.322920841385
 20
7901.123139034706
 30
0.0
 11
8277.322920841385
 21
7846.123139034709
 31
0.0
  0
INSERT
  5
18C1D
330
18C16
100
AcDbEntity
  8
寸法
 62
     0
 48
50.0
370
    -2
100
AcDbBlockReference
  2
_DOTSMALL
 10
8277.322920841385
 20
7901.123139034706
 30
0.0
 41
100.0
 42
100.0
 43
100.0
 50
270.0
  0
INSERT
  5
18C1E
330
18C16
100
AcDbEntity
  8
寸法
 62
     0
 48
50.0
370
    -2
100
AcDbBlockReference
  2
_DOTSMALL
 10
8277.322920841385
 20
7846.123139034709
 30
0.0
 41
100.0
 42
100.0
 43
100.0
 50
90.0
  0
MTEXT
  5
18C1F
330
18C16
100
AcDbEntity
  8
寸法
 62
     7
 48
50.0
100
AcDbMText
 10
8177.322920841383
 20
7537.637857660469
 30
0.0
 40
120.0
 41
0.0
 71
     5
 72
     1
  1
\A1;55
  7
STYLE1
 11
0.0000000000000001
 21
1.0
 31
0.0
 73
     1
 44
1.0
1001
ACAD
1000
MTEXTBEGIN
1070
    73
1070
     1
1070
    44
1040
1.0
1070
    74
1070
     0
1000
MTEXTEND
  0
POINT
  5
18C20
330
18C16
100
AcDbEntity
  8
DEFPOINTS
 62
     0
 48
50.0
100
AcDbPoint
 10
7629.896575106974
 20
7901.123139034706
 30
0.0
  0
POINT
  5
18C21
330
18C16
100
AcDbEntity
  8
DEFPOINTS
 62
     0
 48
50.0
100
AcDbPoint
 10
7629.896575106974
 20
7846.123139034709
 30
0.0
  0
POINT
  5
18C22
330
18C16
100
AcDbEntity
  8
DEFPOINTS
 62
     0
 48
50.0
100
AcDbPoint
 10
8277.322920841385
 20
7846.123139034709
 30
0.0
  0
ENDBLK
  5
18C23
330
18C16
100
AcDbEntity
  8
0
 48
50.0
100
AcDbBlockEnd
  0
BLOCK
  5
18C25
330
18C24
100
AcDbEntity
  8
0
 48
50.0
100
AcDbBlockBegin
  2
*D10
 70
     1
 10
0.0
 20
0.0
 30
0.0
  3
*D10
  1

  0
LINE
  5
18C26
330
18C24
100
AcDbEntity
  8
寸法
 62
     0
 48
50.0
370
    -2
100
AcDbLine
 10
6533.037591258376
 20
9136.123139034728
 30
0.0
 11
6465.083950562664
 21
8882.516699399049
 31
0.0
  0
LINE
  5
18C27
330
18C24
100
AcDbEntity
  8
寸法
 62
     0
 48
50.0
370
    -2
100
AcDbLine
 10
7596.037591258388
 20
9136.123139034721
 30
0.0
 11
7528.083950562677
 21
8882.516699399049
 31
0.0
  0
LINE
  5
18C28
330
18C24
100
AcDbEntity
  8
寸法
 62
     0
 48
50.0
370
    -2
100
AcDbLine
 10
6481.160902108531
 20
8942.51669939905
 30
0.0
 11
7544.160902108544
 21
8942.51669939905
 31
0.0
  0
INSERT
  5
18C29
330
18C24
100
AcDbEntity
  8
寸法
 62
     0
 48
50.0
370
    -2
100
AcDbBlockReference
  2
_DOTSMALL
 10
6481.160902108531
 20
8942.51669939905
 30
0.0
 41
100.0
 42
100.0
 43
100.0
 50
180.0
  0
INSERT
  5
18C2A
330
18C24
100
AcDbEntity
  8
寸法
 62
     0
 48
50.0
370
    -2
100
AcDbBlockReference
  2
_DOTSMALL
 10
7544.160902108544
 20
8942.51669939905
 30
0.0
 41
100.0
 42
100.0
 43
100.0
  0
MTEXT
  5
18C2B
330
18C24
100
AcDbEntity
  8
寸法
 62
     7
 48
50.0
100
AcDbMText
 10
7061.28653022935
 20
9042.516699399049
 30
0.0
 40
120.0
 41
0.0
 71
     5
 72
     1
  1
\A1;1063
  7
STYLE1
 73
     1
 44
1.0
1001
ACAD
1000
MTEXTBEGIN
1070
    73
1070
     1
1070
    44
1040
1.0
1070
    74
1070
     0
1000
MTEXTEND
  0
POINT
  5
18C2C
330
18C24
100
AcDbEntity
  8
DEFPOINTS
 62
     0
 48
50.0
100
AcDbPoint
 10
6538.396575106998
 20
9156.123139034727
 30
0.0
  0
POINT
  5
18C2D
330
18C24
100
AcDbEntity
  8
DEFPOINTS
 62
     0
 48
50.0
100
AcDbPoint
 10
7601.39657510701
 20
9156.12313903472
 30
0.0
  0
POINT
  5
18C2E
330
18C24
100
AcDbEntity
  8
DEFPOINTS
 62
     0
 48
50.0
100
AcDbPoint
 10
7544.160902108544
 20
8942.51669939905
 30
0.0
  0
ENDBLK
  5
18C2F
330
18C24
100
AcDbEntity
  8
0
 48
50.0
100
AcDbBlockEnd
  0
BLOCK
  5
18C31
330
18C30
100
AcDbEntity
  8
0
 48
50.0
100
AcDbBlockBegin
  2
*D11
 70
     1
 10
0.0
 20
0.0
 30
0.0
  3
*D11
  1

  0
LINE
  5
18C32
330
18C30
100
AcDbEntity
  8
寸法
 62
     0
 48
50.0
370
    -2
100
AcDbLine
 10
7621.396575106999
 20
9600.764155186094
 30
0.0
 11
8016.754300969024
 21
9494.828371819961
 31
0.0
  0
LINE
  5
18C33
330
18C30
100
AcDbEntity
  8
寸法
 62
     0
 48
50.0
370
    -2
100
AcDbLine
 10
7621.396575106999
 20
9150.764155186099
 30
0.0
 11
8016.754300969024
 21
9044.828371819964
 31
0.0
  0
LINE
  5
18C34
330
18C30
100
AcDbEntity
  8
寸法
 62
     0
 48
50.0
370
    -2
100
AcDbLine
 10
7956.754300969024
 20
9510.905323365827
 30
0.0
 11
7956.754300969024
 21
9060.90532336583
 31
0.0
  0
INSERT
  5
18C35
330
18C30
100
AcDbEntity
  8
寸法
 62
     0
 48
50.0
370
    -2
100
AcDbBlockReference
  2
_DOTSMALL
 10
7956.754300969024
 20
9510.905323365827
 30
0.0
 41
100.0
 42
100.0
 43
100.0
 50
90.0
  0
INSERT
  5
18C36
330
18C30
100
AcDbEntity
  8
寸法
 62
     0
 48
50.0
370
    -2
100
AcDbBlockReference
  2
_DOTSMALL
 10
7956.754300969024
 20
9060.90532336583
 30
0.0
 41
100.0
 42
100.0
 43
100.0
 50
270.0
  0
MTEXT
  5
18C37
330
18C30
100
AcDbEntity
  8
寸法
 62
     7
 48
50.0
100
AcDbMText
 10
7856.754300969022
 20
9285.905323365829
 30
0.0
 40
120.0
 41
0.0
 71
     5
 72
     1
  1
\A1;450
  7
STYLE1
 11
0.0000000000000001
 21
1.0
 31
0.0
 73
     1
 44
1.0
1001
ACAD
1000
MTEXTBEGIN
1070
    73
1070
     1
1070
    44
1040
1.0
1070
    74
1070
     0
1000
MTEXTEND
  0
POINT
  5
18C38
330
18C30
100
AcDbEntity
  8
DEFPOINTS
 62
     0
 48
50.0
100
AcDbPoint
 10
7601.396575106999
 20
9606.123139034718
 30
0.0
  0
POINT
  5
18C39
330
18C30
100
AcDbEntity
  8
DEFPOINTS
 62
     0
 48
50.0
100
AcDbPoint
 10
7601.396575106999
 20
9156.12313903472
 30
0.0
  0
POINT
  5
18C3A
330
18C30
100
AcDbEntity
  8
DEFPOINTS
 62
     0
 48
50.0
100
AcDbPoint
 10
7956.754300969024
 20
9060.90532336583
 30
0.0
  0
ENDBLK
  5
18C3B
330
18C30
100
AcDbEntity
  8
0
 48
50.0
100
AcDbBlockEnd
  0
BLOCK
  5
18C3D
330
18C3C
100
AcDbEntity
  8
0
 48
50.0
100
AcDbBlockBegin
  2
*D12
 70
     1
 10
0.0
 20
0.0
 30
0.0
  3
*D12
  1

  0
LINE
  5
18C3E
330
18C3C
100
AcDbEntity
  8
寸法
 62
     0
 48
50.0
370
    -2
100
AcDbLine
 10
7649.896575106999
 20
9581.123139034721
 30
0.0
 11
8337.32292084141
 21
9581.123139034721
 31
0.0
  0
LINE
  5
18C3F
330
18C3C
100
AcDbEntity
  8
寸法
 62
     0
 48
50.0
370
    -2
100
AcDbLine
 10
7649.896575106973
 20
7901.123139034706
 30
0.0
 11
8337.32292084141
 21
7901.123139034706
 31
0.0
  0
LINE
  5
18C40
330
18C3C
100
AcDbEntity
  8
寸法
 62
     0
 48
50.0
370
    -2
100
AcDbLine
 10
8277.322920841411
 20
9581.123139034721
 30
0.0
 11
8277.322920841411
 21
7901.123139034706
 31
0.0
  0
INSERT
  5
18C41
330
18C3C
100
AcDbEntity
  8
寸法
 62
     0
 48
50.0
370
    -2
100
AcDbBlockReference
  2
_DOTSMALL
 10
8277.322920841411
 20
9581.123139034721
 30
0.0
 41
100.0
 42
100.0
 43
100.0
 50
90.0
  0
INSERT
  5
18C42
330
18C3C
100
AcDbEntity
  8
寸法
 62
     0
 48
50.0
370
    -2
100
AcDbBlockReference
  2
_DOTSMALL
 10
8277.322920841411
 20
7901.123139034706
 30
0.0
 41
100.0
 42
100.0
 43
100.0
 50
270.0
  0
MTEXT
  5
18C43
330
18C3C
100
AcDbEntity
  8
寸法
 62
     7
 48
50.0
100
AcDbMText
 10
8177.311109817788
 20
8741.123139034712
 30
0.0
 40
120.0
 41
0.0
 71
     5
 72
     1
  1
\A1;4X420=1680
  7
STYLE1
 11
0.0000000000000001
 21
1.0
 31
0.0
 73
     1
 44
1.0
1001
ACAD
1000
MTEXTBEGIN
1070
    73
1070
     1
1070
    44
1040
1.0
1070
    74
1070
     0
1000
MTEXTEND
  0
POINT
  5
18C44
330
18C3C
100
AcDbEntity
  8
DEFPOINTS
 62
     0
 48
50.0
100
AcDbPoint
 10
7629.896575106998
 20
9581.123139034721
 30
0.0
  0
POINT
  5
18C45
330
18C3C
100
AcDbEntity
  8
DEFPOINTS
 62
     0
 48
50.0
100
AcDbPoint
 10
7629.896575106974
 20
7901.123139034706
 30
0.0
  0
POINT
  5
18C46
330
18C3C
100
AcDbEntity
  8
DEFPOINTS
 62
     0
 48
50.0
100
AcDbPoint
 10
8277.322920841411
 20
7901.123139034706
 30
0.0
  0
ENDBLK
  5
18C47
330
18C3C
100
AcDbEntity
  8
0
 48
50.0
100
AcDbBlockEnd
  0
BLOCK
  5
18C49
330
18C48
100
AcDbEntity
  8
0
 48
50.0
100
AcDbBlockBegin
  2
*D13
 70
     1
 10
0.0
 20
0.0
 30
0.0
  3
*D13
  1

  0
LINE
  5
18C4A
330
18C48
100
AcDbEntity
  8
寸法
 62
     0
 48
50.0
370
    -2
100
AcDbLine
 10
4183.037591258377
 20
9136.123139034619
 30
0.0
 11
4115.083950562663
 21
8882.516699398941
 31
0.0
  0
LINE
  5
18C4B
330
18C48
100
AcDbEntity
  8
寸法
 62
     0
 48
50.0
370
    -2
100
AcDbLine
 10
5246.037591258307
 20
9136.123139034671
 30
0.0
 11
5178.08395056258
 21
8882.516699398941
 31
0.0
  0
LINE
  5
18C4C
330
18C48
100
AcDbEntity
  8
寸法
 62
     0
 48
50.0
370
    -2
100
AcDbLine
 10
4131.160902108532
 20
8942.516699398941
 30
0.0
 11
5194.160902108448
 21
8942.516699398941
 31
0.0
  0
INSERT
  5
18C4D
330
18C48
100
AcDbEntity
  8
寸法
 62
     0
 48
50.0
370
    -2
100
AcDbBlockReference
  2
_DOTSMALL
 10
4131.160902108532
 20
8942.516699398941
 30
0.0
 41
100.0
 42
100.0
 43
100.0
 50
180.0
  0
INSERT
  5
18C4E
330
18C48
100
AcDbEntity
  8
寸法
 62
     0
 48
50.0
370
    -2
100
AcDbBlockReference
  2
_DOTSMALL
 10
5194.160902108448
 20
8942.516699398941
 30
0.0
 41
100.0
 42
100.0
 43
100.0
  0
MTEXT
  5
18C4F
330
18C48
100
AcDbEntity
  8
寸法
 62
     7
 48
50.0
100
AcDbMText
 10
4658.986452655306
 20
9042.516699398941
 30
0.0
 40
120.0
 41
0.0
 71
     5
 72
     1
  1
\A1;1063
  7
STYLE1
 73
     1
 44
1.0
1001
ACAD
1000
MTEXTBEGIN
1070
    73
1070
     1
1070
    44
1040
1.0
1070
    74
1070
     0
1000
MTEXTEND
  0
POINT
  5
18C50
330
18C48
100
AcDbEntity
  8
DEFPOINTS
 62
     0
 48
50.0
100
AcDbPoint
 10
4188.396575106999
 20
9156.123139034617
 30
0.0
  0
POINT
  5
18C51
330
18C48
100
AcDbEntity
  8
DEFPOINTS
 62
     0
 48
50.0
100
AcDbPoint
 10
5251.396575106929
 20
9156.123139034672
 30
0.0
  0
POINT
  5
18C52
330
18C48
100
AcDbEntity
  8
DEFPOINTS
 62
     0
 48
50.0
100
AcDbPoint
 10
5194.160902108448
 20
8942.516699398941
 30
0.0
  0
ENDBLK
  5
18C53
330
18C48
100
AcDbEntity
  8
0
 48
50.0
100
AcDbBlockEnd
  0
BLOCK
  5
18C55
330
18C54
100
AcDbEntity
  8
0
 48
50.0
100
AcDbBlockBegin
  2
*D14
 70
     1
 10
0.0
 20
0.0
 30
0.0
  3
*D14
  1

  0
LINE
  5
18C56
330
18C54
100
AcDbEntity
  8
寸法
 62
     0
 48
50.0
370
    -2
100
AcDbLine
 10
5274.037591258307
 20
9136.123139034669
 30
0.0
 11
5206.08395056258
 21
8882.516699398941
 31
0.0
  0
LINE
  5
18C57
330
18C54
100
AcDbEntity
  8
寸法
 62
     0
 48
50.0
370
    -2
100
AcDbLine
 10
6505.037591258377
 20
9136.123139034662
 30
0.0
 11
6437.083950562653
 21
8882.516699398941
 31
0.0
  0
LINE
  5
18C58
330
18C54
100
AcDbEntity
  8
寸法
 62
     0
 48
50.0
370
    -2
100
AcDbLine
 10
5222.160902108448
 20
8942.516699398941
 30
0.0
 11
6453.16090210852
 21
8942.516699398941
 31
0.0
  0
INSERT
  5
18C59
330
18C54
100
AcDbEntity
  8
寸法
 62
     0
 48
50.0
370
    -2
100
AcDbBlockReference
  2
_DOTSMALL
 10
5222.160902108448
 20
8942.516699398941
 30
0.0
 41
100.0
 42
100.0
 43
100.0
 50
180.0
  0
INSERT
  5
18C5A
330
18C54
100
AcDbEntity
  8
寸法
 62
     0
 48
50.0
370
    -2
100
AcDbBlockReference
  2
_DOTSMALL
 10
6453.16090210852
 20
8942.516699398941
 30
0.0
 41
100.0
 42
100.0
 43
100.0
  0
MTEXT
  5
18C5B
330
18C54
100
AcDbEntity
  8
寸法
 62
     7
 48
50.0
100
AcDbMText
 10
6081.244808320626
 20
9042.528510422561
 30
0.0
 40
120.0
 41
0.0
 71
     5
 72
     1
  1
\A1;1231
  7
STYLE1
 73
     1
 44
1.0
1001
ACAD
1000
MTEXTBEGIN
1070
    73
1070
     1
1070
    44
1040
1.0
1070
    74
1070
     0
1000
MTEXTEND
  0
POINT
  5
18C5C
330
18C54
100
AcDbEntity
  8
DEFPOINTS
 62
     0
 48
50.0
100
AcDbPoint
 10
5279.396575106929
 20
9156.123139034669
 30
0.0
  0
POINT
  5
18C5D
330
18C54
100
AcDbEntity
  8
DEFPOINTS
 62
     0
 48
50.0
100
AcDbPoint
 10
6510.396575106999
 20
9156.123139034662
 30
0.0
  0
POINT
  5
18C5E
330
18C54
100
AcDbEntity
  8
DEFPOINTS
 62
     0
 48
50.0
100
AcDbPoint
 10
6453.16090210852
 20
8942.516699398941
 30
0.0
  0
ENDBLK
  5
18C5F
330
18C54
100
AcDbEntity
  8
0
 48
50.0
100
AcDbBlockEnd
  0
BLOCK
  5
18C61
330
18C60
100
AcDbEntity
  8
0
 48
50.0
100
AcDbBlockBegin
  2
*D15
 70
     1
 10
0.0
 20
0.0
 30
0.0
  3
*D15
  1

  0
LINE
  5
18C62
330
18C60
100
AcDbEntity
  8
寸法
 62
     0
 48
50.0
370
    -2
100
AcDbLine
 10
5065.896575106966
 20
7749.123139034579
 30
0.0
 11
5065.896575106966
 21
7099.952920982538
 31
0.0
  0
LINE
  5
18C63
330
18C60
100
AcDbEntity
  8
寸法
 62
     0
 48
50.0
370
    -2
100
AcDbLine
 10
6331.896575106966
 20
7749.123139034579
 30
0.0
 11
6331.896575106966
 21
7099.952920982538
 31
0.0
  0
LINE
  5
18C64
330
18C60
100
AcDbEntity
  8
寸法
 62
     0
 48
50.0
370
    -2
100
AcDbLine
 10
5065.896575106966
 20
7159.952920982537
 30
0.0
 11
6331.896575106966
 21
7159.952920982537
 31
0.0
  0
INSERT
  5
18C65
330
18C60
100
AcDbEntity
  8
寸法
 62
     0
 48
50.0
370
    -2
100
AcDbBlockReference
  2
_DOTSMALL
 10
5065.896575106966
 20
7159.952920982537
 30
0.0
 41
100.0
 42
100.0
 43
100.0
 50
180.0
  0
INSERT
  5
18C66
330
18C60
100
AcDbEntity
  8
寸法
 62
     0
 48
50.0
370
    -2
100
AcDbBlockReference
  2
_DOTSMALL
 10
6331.896575106966
 20
7159.952920982537
 30
0.0
 41
100.0
 42
100.0
 43
100.0
  0
MTEXT
  5
18C67
330
18C60
100
AcDbEntity
  8
寸法
 62
     7
 48
50.0
100
AcDbMText
 10
5711.986008735934
 20
7359.964732006159
 30
0.0
 40
120.0
 41
0.0
 71
     5
 72
     1
  1
\A1;有効開口部間口\P1266
  7
STYLE1
 73
     1
 44
1.0
1001
ACAD
1000
MTEXTBEGIN
1070
    73
1070
     1
1070
    44
1040
1.0
1070
    74
1070
     0
1000
MTEXTEND
  0
POINT
  5
18C68
330
18C60
100
AcDbEntity
  8
DEFPOINTS
 62
     0
 48
50.0
100
AcDbPoint
 10
5065.896575106966
 20
7769.123139034579
 30
0.0
  0
POINT
  5
18C69
330
18C60
100
AcDbEntity
  8
DEFPOINTS
 62
     0
 48
50.0
100
AcDbPoint
 10
6331.896575106966
 20
7769.123139034579
 30
0.0
  0
POINT
  5
18C6A
330
18C60
100
AcDbEntity
  8
DEFPOINTS
 62
     0
 48
50.0
100
AcDbPoint
 10
6331.896575106966
 20
7159.952920982537
 30
0.0
  0
ENDBLK
  5
18C6B
330
18C60
100
AcDbEntity
  8
0
 48
50.0
100
AcDbBlockEnd
  0
BLOCK
  5
18C6D
330
18C6C
100
AcDbEntity
  8
0
 48
50.0
100
AcDbBlockBegin
  2
*D16
 70
     1
 10
0.0
 20
0.0
 30
0.0
  3
*D16
  1

  0
LINE
  5
18C6E
330
18C6C
100
AcDbEntity
  8
寸法
 62
     0
 48
50.0
370
    -2
100
AcDbLine
 10
7200.896575106966
 20
7846.123139034578
 30
0.0
 11
7457.192158500191
 21
7846.123139034578
 31
0.0
  0
LINE
  5
18C6F
330
18C6C
100
AcDbEntity
  8
寸法
 62
     0
 48
50.0
370
    -2
100
AcDbLine
 10
7199.896575106966
 20
7769.123139034579
 30
0.0
 11
7457.192158500191
 21
7769.123139034579
 31
0.0
  0
LINE
  5
18C70
330
18C6C
100
AcDbEntity
  8
寸法
 62
     0
 48
50.0
370
    -2
100
AcDbLine
 10
7417.192158500192
 20
7866.123139034579
 30
0.0
 11
7417.192158500192
 21
7886.123139034578
 31
0.0
  0
LINE
  5
18C71
330
18C6C
100
AcDbEntity
  8
寸法
 62
     0
 48
50.0
370
    -2
100
AcDbLine
 10
7417.192158500192
 20
7749.123139034579
 30
0.0
 11
7417.192158500192
 21
7533.123139034573
 31
0.0
  0
LINE
  5
18C72
330
18C6C
100
AcDbEntity
  8
寸法
 62
     0
 48
50.0
370
    -2
100
AcDbLine
 10
7417.192158500192
 20
7846.123139034578
 30
0.0
 11
7417.192158500192
 21
7769.123139034579
 31
0.0
  0
INSERT
  5
18C73
330
18C6C
100
AcDbEntity
  8
寸法
 62
     0
 48
50.0
370
    -2
100
AcDbBlockReference
  2
_DOT
 10
7417.192158500192
 20
7846.123139034578
 30
0.0
 41
20.0
 42
20.0
 43
20.0
 50
270.0
  0
INSERT
  5
18C74
330
18C6C
100
AcDbEntity
  8
寸法
 62
     0
 48
50.0
370
    -2
100
AcDbBlockReference
  2
_DOT
 10
7417.192158500192
 20
7769.123139034579
 30
0.0
 41
20.0
 42
20.0
 43
20.0
 50
90.0
  0
MTEXT
  5
18C75
330
18C6C
100
AcDbEntity
  8
寸法
 62
     7
 48
50.0
100
AcDbMText
 10
7325.192158500191
 20
7631.123139034575
 30
0.0
 40
120.0
 41
0.0
 71
     5
 72
     1
  1
\A1;77
  7
STYLE1
 11
0.0000000000000001
 21
1.0
 31
0.0
 73
     1
 44
1.0
1001
ACAD
1000
MTEXTBEGIN
1070
    73
1070
     1
1070
    44
1040
1.0
1070
    74
1070
     0
1000
MTEXTEND
  0
POINT
  5
18C76
330
18C6C
100
AcDbEntity
  8
DEFPOINTS
 62
     0
 48
50.0
100
AcDbPoint
 10
7180.896575106967
 20
7846.123139034578
 30
0.0
  0
POINT
  5
18C77
330
18C6C
100
AcDbEntity
  8
DEFPOINTS
 62
     0
 48
50.0
100
AcDbPoint
 10
7179.896575106965
 20
7769.123139034579
 30
0.0
  0
POINT
  5
18C78
330
18C6C
100
AcDbEntity
  8
DEFPOINTS
 62
     0
 48
50.0
100
AcDbPoint
 10
7417.192158500192
 20
7769.123139034579
 30
0.0
  0
ENDBLK
  5
18C79
330
18C6C
100
AcDbEntity
  8
0
 48
50.0
100
AcDbBlockEnd
  0
BLOCK
  5
18DA0
330
18C7A
100
AcDbEntity
  8
0
 48
50.0
100
AcDbBlockBegin
  2
A$C3B1A506B
 70
     0
 10
0.0
 20
0.0
 30
0.0
  3
A$C3B1A506B
  1

  0
MTEXT
  5
18C7B
330
18C7A
100
AcDbEntity
  8
寸法
 62
     7
 48
50.0
100
AcDbMText
 10
3342.250386887194
 20
2778.329429134012
 30
0.0
 40
96.0
 41
0.0
 71
     5
 72
     1
  1
棚 2段
  7
STYLE1
 73
     1
 44
1.0
1001
ACAD
1000
MTEXTBEGIN
1070
    73
1070
     1
1070
    44
1040
1.0
1070
    74
1070
     0
1000
MTEXTEND
  0
MTEXT
  5
18C7C
330
18C7A
100
AcDbEntity
  8
寸法
 62
     7
 48
50.0
100
AcDbMText
 10
2167.25038688716
 20
2778.329429133986
 30
0.0
 40
96.0
 41
0.0
 71
     5
 72
     1
  1
棚 2段
  7
STYLE1
 73
     1
 44
1.0
1001
ACAD
1000
MTEXTBEGIN
1070
    73
1070
     1
1070
    44
1040
1.0
1070
    74
1070
     0
1000
MTEXTEND
  0
MTEXT
  5
18C7D
330
18C7A
100
AcDbEntity
  8
寸法
 62
     7
 48
50.0
100
AcDbMText
 10
992.2503868871608
 20
2778.329429133935
 30
0.0
 40
96.0
 41
0.0
 71
     5
 72
     1
  1
棚 2段
  7
STYLE1
 73
     1
 44
1.0
1001
ACAD
1000
MTEXTBEGIN
1070
    73
1070
     1
1070
    44
1040
1.0
1070
    74
1070
     0
1000
MTEXTEND
  0
LINE
  5
18C7E
330
18C7A
100
AcDbEntity
  8
細線
 48
50.0
100
AcDbLine
 10
2771.970589276527
 20
1368.994384123192
 30
0.0
 11
3398.970589276523
 21
1368.994384123192
 31
0.0
  0
LINE
  5
18C7F
330
18C7A
100
AcDbEntity
  8
細線
 48
50.0
100
AcDbLine
 10
2117.970593930113
 20
1335.285615569113
 30
0.0
 11
3398.970589276523
 21
1335.285615569113
 31
0.0
  0
LINE
  5
18C80
330
18C7A
100
AcDbEntity
  8
細線
 48
50.0
100
AcDbLine
 10
2076.970593930115
 20
1364.690523565368
 30
0.0
 11
1322.970589276523
 21
1364.690523565367
 31
0.0
  0
LINE
  5
18C81
330
18C7A
100
AcDbEntity
  8
細線
100
AcDbLine
 10
3170.720579860066
 20
1388.494284088199
 30
0.0
 11
3173.052119381877
 21
1393.494286728162
 31
0.0
  0
LINE
  5
18C82
330
18C7A
100
AcDbEntity
  8
細線
100
AcDbLine
 10
3240.720589276525
 20
1388.494269174465
 30
0.0
 11
3238.389042800336
 21
1393.494286728144
 31
0.0
  0
LINE
  5
18C83
330
18C7A
100
AcDbEntity
  8
細線
100
AcDbLine
 10
3238.389042800336
 20
1393.494286728144
 30
0.0
 11
3173.052119381862
 21
1393.494286728133
 31
0.0
  0
LINE
  5
18C84
330
18C7A
100
AcDbEntity
  8
細線
100
AcDbLine
 10
3098.389042800336
 20
1393.494286728144
 30
0.0
 11
3033.052119381862
 21
1393.494286728133
 31
0.0
  0
LINE
  5
18C85
330
18C7A
100
AcDbEntity
  8
細線
100
AcDbLine
 10
3100.720589276523
 20
1388.494269174465
 30
0.0
 11
3098.389042800336
 21
1393.494286728144
 31
0.0
  0
LINE
  5
18C86
330
18C7A
100
AcDbEntity
  8
細線
100
AcDbLine
 10
3030.720579860066
 20
1388.494284088199
 30
0.0
 11
3033.052119381875
 21
1393.494286728162
 31
0.0
  0
LINE
  5
18C87
330
18C7A
100
AcDbEntity
  8
細線
100
AcDbLine
 10
2890.720589276525
 20
1388.494269174465
 30
0.0
 11
2893.052128798336
 21
1393.494271814428
 31
0.0
  0
LINE
  5
18C88
330
18C7A
100
AcDbEntity
  8
細線
100
AcDbLine
 10
2960.720598692984
 20
1388.494254260731
 30
0.0
 11
2958.389052216793
 21
1393.49427181441
 31
0.0
  0
LINE
  5
18C89
330
18C7A
100
AcDbEntity
  8
細線
100
AcDbLine
 10
2958.389052216795
 20
1393.49427181441
 30
0.0
 11
2893.052128798321
 21
1393.494271814399
 31
0.0
  0
LINE
  5
18C8A
330
18C7A
100
AcDbEntity
  8
細線
100
AcDbLine
 10
2667.139038146739
 20
1359.494298590735
 30
0.0
 11
2601.802114728263
 21
1359.494298590724
 31
0.0
  0
LINE
  5
18C8B
330
18C7A
100
AcDbEntity
  8
細線
100
AcDbLine
 10
2669.470584622926
 20
1354.494281037055
 30
0.0
 11
2667.139038146737
 21
1359.494298590735
 31
0.0
  0
LINE
  5
18C8C
330
18C7A
100
AcDbEntity
  8
細線
100
AcDbLine
 10
2599.470575206469
 20
1354.49429595079
 30
0.0
 11
2601.802114728278
 21
1359.494298590752
 31
0.0
  0
LINE
  5
18C8D
330
18C7A
100
AcDbEntity
  8
細線
 48
50.0
100
AcDbLine
 10
2440.853968524536
 20
1372.765132327548
 30
0.0
 11
2446.609486107205
 21
1354.494281037057
 31
0.0
  0
LINE
  5
18C8E
330
18C7A
100
AcDbEntity
  8
細線
 48
50.0
100
AcDbLine
 10
2429.925520044106
 20
1372.765132327546
 30
0.0
 11
2440.853968524536
 21
1372.765132327548
 31
0.0
  0
ARC
  5
18C8F
330
18C7A
100
AcDbEntity
  8
細線
 48
50.0
100
AcDbCircle
 10
2424.471163986787
 20
1374.265132327546
 30
0.0
 40
5.0
100
AcDbArc
 50
204.6243183520723
 51
335.3756816479278
  0
ARC
  5
18C90
330
18C7A
100
AcDbEntity
  8
細線
 48
50.0
100
AcDbCircle
 10
2429.925520044106
 20
1371.765132327546
 30
0.0
 40
1.0
100
AcDbArc
 50
90.0
 51
155.3756816479277
  0
ARC
  5
18C91
330
18C7A
100
AcDbEntity
  8
細線
 48
50.0
100
AcDbCircle
 10
2419.016807929469
 20
1371.765132327546
 30
0.0
 40
1.0
100
AcDbArc
 50
24.62431835207225
 51
90.0
  0
LINE
  5
18C92
330
18C7A
100
AcDbEntity
  8
細線
 48
50.0
100
AcDbLine
 10
2408.088359449037
 20
1372.765132327548
 30
0.0
 11
2419.016807929469
 21
1372.765132327546
 31
0.0
  0
LINE
  5
18C93
330
18C7A
100
AcDbEntity
  8
細線
 48
50.0
100
AcDbLine
 10
2402.33284186637
 20
1354.494281037054
 30
0.0
 11
2408.088359449037
 21
1372.765132327548
 31
0.0
  0
LINE
  5
18C94
330
18C7A
100
AcDbEntity
  8
細線
100
AcDbLine
 10
2458.070304175992
 20
1354.494278397076
 30
0.0
 11
2460.401843697802
 21
1359.494281037039
 31
0.0
  0
LINE
  5
18C95
330
18C7A
100
AcDbEntity
  8
細線
100
AcDbLine
 10
2528.070313592451
 20
1354.494263483342
 30
0.0
 11
2525.738767116262
 21
1359.494281037021
 31
0.0
  0
LINE
  5
18C96
330
18C7A
100
AcDbEntity
  8
細線
100
AcDbLine
 10
2525.738767116262
 20
1359.494281037021
 30
0.0
 11
2460.40184369779
 21
1359.49428103701
 31
0.0
  0
LINE
  5
18C97
330
18C7A
100
AcDbEntity
  8
細線
100
AcDbLine
 10
2387.139046332155
 20
1359.494281037021
 30
0.0
 11
2321.80212291368
 21
1359.49428103701
 31
0.0
  0
LINE
  5
18C98
330
18C7A
100
AcDbEntity
  8
細線
100
AcDbLine
 10
2389.470592808342
 20
1354.494263483342
 30
0.0
 11
2387.139046332153
 21
1359.494281037021
 31
0.0
  0
LINE
  5
18C99
330
18C7A
100
AcDbEntity
  8
細線
100
AcDbLine
 10
2319.470584622926
 20
1354.494281037054
 30
0.0
 11
2321.802122913694
 21
1359.494281037039
 31
0.0
  0
LINE
  5
18C9A
330
18C7A
100
AcDbEntity
  8
細線
100
AcDbLine
 10
2179.47061994182
 20
1354.494289224422
 30
0.0
 11
2181.802158232587
 21
1359.494289224407
 31
0.0
  0
LINE
  5
18C9B
330
18C7A
100
AcDbEntity
  8
細線
100
AcDbLine
 10
2249.470628127236
 20
1354.49427167071
 30
0.0
 11
2247.139081651047
 21
1359.494289224389
 31
0.0
  0
LINE
  5
18C9C
330
18C7A
100
AcDbEntity
  8
細線
100
AcDbLine
 10
2247.139081651047
 20
1359.494289224389
 30
0.0
 11
2181.802158232573
 21
1359.494289224378
 31
0.0
  0
LINE
  5
18C9D
330
18C7A
100
AcDbEntity
  8
細線
100
AcDbLine
 10
1807.970585744697
 20
1320.494460905133
 30
0.0
 11
1810.302124035464
 21
1325.494460905118
 31
0.0
  0
LINE
  5
18C9E
330
18C7A
100
AcDbEntity
  8
細線
100
AcDbLine
 10
1877.970593930113
 20
1320.494443351421
 30
0.0
 11
1875.639047453926
 21
1325.4944609051
 31
0.0
  0
LINE
  5
18C9F
330
18C7A
100
AcDbEntity
  8
細線
100
AcDbLine
 10
1875.639047453926
 20
1325.4944609051
 30
0.0
 11
1810.302124035452
 21
1325.494460905089
 31
0.0
  0
LINE
  5
18CA0
330
18C7A
100
AcDbEntity
  8
細線
100
AcDbLine
 10
2015.639047453926
 20
1325.4944609051
 30
0.0
 11
1950.302124035452
 21
1325.494460905089
 31
0.0
  0
LINE
  5
18CA1
330
18C7A
100
AcDbEntity
  8
細線
100
AcDbLine
 10
2017.970593930113
 20
1320.494443351421
 30
0.0
 11
2015.639047453924
 21
1325.4944609051
 31
0.0
  0
LINE
  5
18CA2
330
18C7A
100
AcDbEntity
  8
細線
100
AcDbLine
 10
1947.970585744697
 20
1320.494460905133
 30
0.0
 11
1950.302124035465
 21
1325.494460905118
 31
0.0
  0
LINE
  5
18CA3
330
18C7A
100
AcDbEntity
  8
細線
100
AcDbLine
 10
1735.639047453926
 20
1325.494460905098
 30
0.0
 11
1670.302124035454
 21
1325.494460905087
 31
0.0
  0
LINE
  5
18CA4
330
18C7A
100
AcDbEntity
  8
細線
100
AcDbLine
 10
1737.970593930113
 20
1320.494443351419
 30
0.0
 11
1735.639047453926
 21
1325.494460905098
 31
0.0
  0
LINE
  5
18CA5
330
18C7A
100
AcDbEntity
  8
細線
100
AcDbLine
 10
1667.970585744697
 20
1320.494460905131
 30
0.0
 11
1670.302124035465
 21
1325.494460905116
 31
0.0
  0
LINE
  5
18CA6
330
18C7A
100
AcDbEntity
  8
細線
100
AcDbLine
 10
1527.970593930113
 20
1320.494460905133
 30
0.0
 11
1530.302132220881
 21
1325.494460905118
 31
0.0
  0
LINE
  5
18CA7
330
18C7A
100
AcDbEntity
  8
細線
100
AcDbLine
 10
1597.970602115529
 20
1320.494443351421
 30
0.0
 11
1595.639055639342
 21
1325.4944609051
 31
0.0
  0
LINE
  5
18CA8
330
18C7A
100
AcDbEntity
  8
細線
100
AcDbLine
 10
1595.639055639342
 20
1325.4944609051
 30
0.0
 11
1530.302132220869
 21
1325.494460905089
 31
0.0
  0
ARC
  5
18CA9
330
18C7A
100
AcDbEntity
  8
部品1
 48
0.01
100
AcDbCircle
 10
1483.470482677778
 20
1319.493338720063
 30
0.0
 40
0.5
100
AcDbArc
 50
270.0
 51
0.0
  0
LINE
  5
18CAA
330
18C7A
100
AcDbEntity
  8
部品1
 48
0.01
100
AcDbLine
 10
1483.970482677778
 20
1320.493338720063
 30
0.0
 11
1483.970482677778
 21
1319.493338720063
 31
0.0
  0
LINE
  5
18CAB
330
18C7A
100
AcDbEntity
  8
部品1
 48
0.01
100
AcDbLine
 10
1483.970482677778
 20
1320.493338720063
 30
0.0
 11
1483.970482677778
 21
1319.493338720063
 31
0.0
  0
LINE
  5
18CAC
330
18C7A
100
AcDbEntity
  8
部品1
 48
0.01
100
AcDbLine
 10
1483.470482677778
 20
1318.993338720063
 30
0.0
 11
1476.857977247713
 21
1318.993338720062
 31
0.0
  0
ARC
  5
18CAD
330
18C7A
100
AcDbEntity
  8
部品1
100
AcDbCircle
 10
1476.926326800494
 20
1319.993338720062
 30
0.0
 40
1.0
100
AcDbArc
 50
160.5287793655865
 51
270.0
  0
ARC
  5
18CAE
330
18C7A
100
AcDbEntity
  8
部品1
100
AcDbCircle
 10
1451.470482677778
 20
1328.993338720062
 30
0.0
 40
26.0
100
AcDbArc
 50
340.5287793655865
 51
0.0
  0
LINE
  5
18CAF
330
18C7A
100
AcDbEntity
  8
部品1
100
AcDbLine
 10
1477.470482677778
 20
1328.993338720062
 30
0.0
 11
1477.470482677778
 21
1333.993338720061
 31
0.0
  0
ARC
  5
18CB0
330
18C7A
100
AcDbEntity
  8
部品1
 48
0.01
100
AcDbCircle
 10
1475.470482677778
 20
1333.993338720061
 30
0.0
 40
2.0
100
AcDbArc
 50
0.0
 51
90.0
  0
ARC
  5
18CB1
330
18C7A
100
AcDbEntity
  8
部品1
100
AcDbCircle
 10
1473.862091052968
 20
1332.993338720062
 30
0.0
 40
3.0
100
AcDbArc
 50
90.0
 51
141.6069559808035
  0
LINE
  5
18CB2
330
18C7A
100
AcDbEntity
  8
部品1
 48
0.01
100
AcDbLine
 10
1475.470482677778
 20
1335.993338720062
 30
0.0
 11
1473.862091052968
 21
1335.993338720062
 31
0.0
  0
ARC
  5
18CB3
330
18C7A
100
AcDbEntity
  8
部品1
100
AcDbCircle
 10
1455.399768463507
 20
1332.293338720065
 30
0.0
 40
3.0
100
AcDbArc
 50
254.0576313943215
 51
270.0
  0
ARC
  5
18CB4
330
18C7A
100
AcDbEntity
  8
部品1
100
AcDbCircle
 10
1462.541196892049
 20
1332.293338720065
 30
0.0
 40
3.0
100
AcDbArc
 50
270.0
 51
285.9423686056786
  0
LINE
  5
18CB5
330
18C7A
100
AcDbEntity
  8
部品1
100
AcDbLine
 10
1462.541196892049
 20
1329.293338720064
 30
0.0
 11
1455.399768463507
 21
1329.293338720064
 31
0.0
  0
ARC
  5
18CB6
330
18C7A
100
AcDbEntity
  8
部品1
100
AcDbCircle
 10
1458.970482677778
 20
1344.793338720065
 30
0.0
 40
16.0
100
AcDbArc
 50
285.9423686056786
 51
321.6069559808035
  0
LINE
  5
18CB7
330
18C7A
100
AcDbEntity
  8
部品1
 48
0.01
100
AcDbLine
 10
1442.470482677778
 20
1335.993338720062
 30
0.0
 11
1444.078874302588
 21
1335.993338720062
 31
0.0
  0
ARC
  5
18CB8
330
18C7A
100
AcDbEntity
  8
部品1
100
AcDbCircle
 10
1444.078874302588
 20
1332.993338720062
 30
0.0
 40
3.0
100
AcDbArc
 50
38.39304401919648
 51
90.0
  0
ARC
  5
18CB9
330
18C7A
100
AcDbEntity
  8
部品1
100
AcDbCircle
 10
1458.970482677778
 20
1344.793338720065
 30
0.0
 40
16.0
100
AcDbArc
 50
218.3930440191965
 51
254.0576313943215
  0
LINE
  5
18CBA
330
18C7A
100
AcDbEntity
  8
部品1
100
AcDbLine
 10
1440.470482677778
 20
1328.993338720062
 30
0.0
 11
1440.470482677778
 21
1333.993338720061
 31
0.0
  0
ARC
  5
18CBB
330
18C7A
100
AcDbEntity
  8
部品1
 48
0.01
100
AcDbCircle
 10
1442.470482677778
 20
1333.993338720061
 30
0.0
 40
2.0
100
AcDbArc
 50
90.0
 51
180.0
  0
ARC
  5
18CBC
330
18C7A
100
AcDbEntity
  8
部品1
100
AcDbCircle
 10
1466.470482677778
 20
1328.993338720062
 30
0.0
 40
26.0
100
AcDbArc
 50
180.0
 51
199.4712206344134
  0
ARC
  5
18CBD
330
18C7A
100
AcDbEntity
  8
部品1
 48
0.01
100
AcDbCircle
 10
1434.470482677778
 20
1319.493338720063
 30
0.0
 40
0.5
100
AcDbArc
 50
180.0
 51
270.0
  0
LINE
  5
18CBE
330
18C7A
100
AcDbEntity
  8
部品1
 48
0.01
100
AcDbLine
 10
1434.470482677778
 20
1318.993338720063
 30
0.0
 11
1441.014638555061
 21
1318.993338720062
 31
0.0
  0
LINE
  5
18CBF
330
18C7A
100
AcDbEntity
  8
部品1
 48
0.01
100
AcDbLine
 10
1433.970482677778
 20
1320.493338720063
 30
0.0
 11
1433.970482677778
 21
1319.493338720063
 31
0.0
  0
ARC
  5
18CC0
330
18C7A
100
AcDbEntity
  8
部品1
100
AcDbCircle
 10
1441.014638555061
 20
1319.993338720062
 30
0.0
 40
1.0
100
AcDbArc
 50
270.0
 51
19.47122063441346
  0
LINE
  5
18CC1
330
18C7A
100
AcDbEntity
  8
細線
100
AcDbLine
 10
1479.470482677785
 20
1338.493338720065
 30
0.0
 11
1438.470482677785
 21
1338.493338720058
 31
0.0
  0
LINE
  5
18CC2
330
18C7A
100
AcDbEntity
  8
細線
100
AcDbLine
 10
1438.470482677785
 20
1338.493338720058
 30
0.0
 11
1438.470482677785
 21
1320.49333872004
 31
0.0
  0
LINE
  5
18CC3
330
18C7A
100
AcDbEntity
  8
細線
100
AcDbLine
 10
1479.470482677785
 20
1338.493338720065
 30
0.0
 11
1479.470482677785
 21
1320.49333872004
 31
0.0
  0
LINE
  5
18CC4
330
18C7A
100
AcDbEntity
  8
細線
100
AcDbLine
 10
1322.970589276523
 20
1324.494269174465
 30
0.0
 11
1322.970589276523
 21
1320.494269174513
 31
0.0
  0
LINE
  5
18CC5
330
18C7A
100
AcDbEntity
  8
寸法
 48
50.0
100
AcDbLine
 10
1746.17359555837
 20
1170.531020743327
 30
0.0
 11
1694.767587648266
 21
1170.531020743327
 31
0.0
  0
LINE
  5
18CC6
330
18C7A
100
AcDbEntity
  8
寸法
 48
50.0
100
AcDbLine
 10
1694.767587648266
 20
1170.531020743327
 30
0.0
 11
1694.767587648266
 21
1201.841179395494
 31
0.0
  0
LINE
  5
18CC7
330
18C7A
100
AcDbEntity
  8
寸法
 48
50.0
100
AcDbLine
 10
1694.767587648266
 20
1201.841179395494
 30
0.0
 11
1665.006255656843
 21
1201.841179395494
 31
0.0
  0
LINE
  5
18CC8
330
18C7A
100
AcDbEntity
  8
寸法
 48
50.0
100
AcDbLine
 10
1665.006255656843
 20
1201.841179395494
 30
0.0
 11
1720.470591603318
 21
1239.420630324105
 31
0.0
  0
LINE
  5
18CC9
330
18C7A
100
AcDbEntity
  8
寸法
 48
50.0
100
AcDbLine
 10
1775.934927549793
 20
1201.841179395494
 30
0.0
 11
1720.470591603318
 21
1239.420630324105
 31
0.0
  0
LINE
  5
18CCA
330
18C7A
100
AcDbEntity
  8
寸法
 48
50.0
100
AcDbLine
 10
1746.17359555837
 20
1201.841179395494
 30
0.0
 11
1775.934927549793
 21
1201.841179395494
 31
0.0
  0
LINE
  5
18CCB
330
18C7A
100
AcDbEntity
  8
寸法
 48
50.0
100
AcDbLine
 10
1746.17359555837
 20
1170.531020743327
 30
0.0
 11
1746.17359555837
 21
1201.841179395494
 31
0.0
  0
LINE
  5
18CCC
330
18C7A
100
AcDbEntity
  8
寸法
 48
50.0
100
AcDbLine
 10
1694.767587648266
 20
1170.531020743327
 30
0.0
 11
1746.17359555837
 21
1170.531020743327
 31
0.0
  0
LINE
  5
18CCD
330
18C7A
100
AcDbEntity
  8
寸法
 48
50.0
100
AcDbLine
 10
2025.339129835225
 20
1227.676611498152
 30
0.0
 11
2025.339129835225
 21
1174.01297691636
 31
0.0
  0
LINE
  5
18CCE
330
18C7A
100
AcDbEntity
  8
寸法
 48
50.0
100
AcDbLine
 10
2114.623348430647
 20
1203.752977228664
 30
0.0
 11
2025.339129835225
 21
1227.676611498152
 31
0.0
  0
LINE
  5
18CCF
330
18C7A
100
AcDbEntity
  8
寸法
 48
50.0
100
AcDbLine
 10
1895.471408254923
 20
1203.752977228664
 30
0.0
 11
2114.623348430647
 21
1203.752977228664
 31
0.0
  0
DIMENSION
  5
18CD0
330
18C7A
100
AcDbEntity
  8
寸法
 48
50.0
100
AcDbDimension
  2
*D15
 10
2588.970589276523
 20
706.3240511224249
 30
0.0
 11
1969.060022905491
 21
706.3240511224249
 31
0.0
 12
-3742.925985830444
 22
-6453.628869860112
 32
0.0
 70
   128
  1
有効開口部間口\P<>
 71
     5
 42
1266.0
  3
INABA_S40G
100
AcDbAlignedDimension
 13
1322.970589276523
 23
1315.494269174465
 33
0.0
 14
2588.970589276523
 24
1315.494269174465
 34
0.0
100
AcDbRotatedDimension
1001
ACAD
1000
DSTYLE
1002
{
1070
   341
1005
0
1002
}
  0
LINE
  5
18CD1
330
18C7A
100
AcDbEntity
  8
部品1
100
AcDbLine
 10
3409.970589276524
 20
1392.494269174465
 30
0.0
 11
3437.970589276523
 21
1392.494269174465
 31
0.0
  0
DIMENSION
  5
18CD2
330
18C7A
100
AcDbEntity
  8
寸法
100
AcDbDimension
  2
*D16
 10
3674.266172669749
 20
1315.494269174465
 30
0.0
 11
3674.266172669748
 21
1177.494269174462
 31
0.0
 12
-3742.925985830444
 22
-6453.628869860112
 32
0.0
 70
   128
 71
     5
 42
77.0
  3
INABA_S40
100
AcDbAlignedDimension
 13
3437.970589276523
 23
1392.494269174465
 33
0.0
 14
3436.970589276523
 24
1315.494269174465
 34
0.0
 50
90.0
100
AcDbRotatedDimension
1001
ACAD
1000
DSTYLE
1002
{
1070
    41
1040
0.5
1070
    44
1040
1.0
1070
   147
1040
0.8
1070
   271
1070
     2
1070
   272
1070
     2
1070
   289
1070
     3
1070
   340
1005
F706
1070
   343
1005
164B4
1070
   344
1005
164B4
1002
}
  0
LINE
  5
18CD3
330
18C7A
100
AcDbEntity
  8
部品1
100
AcDbLine
 10
3437.970589276523
 20
1315.494269174465
 30
0.0
 11
3437.970589276523
 21
1392.494269174465
 31
0.0
  0
LINE
  5
18CD4
330
18C7A
100
AcDbEntity
  8
部品1
100
AcDbLine
 10
3398.970589276523
 20
1388.494269174465
 30
0.0
 11
3409.970589276524
 21
1388.494269174465
 31
0.0
  0
LINE
  5
18CD5
330
18C7A
100
AcDbEntity
  8
部品1
100
AcDbLine
 10
3407.970589276523
 20
1324.494269174465
 30
0.0
 11
3407.970589276523
 21
1315.494269174465
 31
0.0
  0
LINE
  5
18CD6
330
18C7A
100
AcDbEntity
  8
部品1
100
AcDbLine
 10
3398.970589276523
 20
1324.494269174465
 30
0.0
 11
3407.970589276523
 21
1324.494269174465
 31
0.0
  0
LINE
  5
18CD7
330
18C7A
100
AcDbEntity
  8
部品1
100
AcDbLine
 10
3398.970589276523
 20
1388.494269174465
 30
0.0
 11
3398.970589276523
 21
1324.494269174465
 31
0.0
  0
LINE
  5
18CD8
330
18C7A
100
AcDbEntity
  8
部品1
100
AcDbLine
 10
3409.970589276524
 20
1419.494269174465
 30
0.0
 11
3409.970589276524
 21
1388.494269174465
 31
0.0
  0
LINE
  5
18CD9
330
18C7A
100
AcDbEntity
  8
部品1
100
AcDbLine
 10
1322.970589276523
 20
1388.494269174465
 30
0.0
 11
1311.970589276523
 21
1388.494269174465
 31
0.0
  0
LINE
  5
18CDA
330
18C7A
100
AcDbEntity
  8
部品1
100
AcDbLine
 10
1283.970589276523
 20
1392.494269174465
 30
0.0
 11
1311.970589276523
 21
1392.494269174465
 31
0.0
  0
LINE
  5
18CDB
330
18C7A
100
AcDbEntity
  8
部品1
100
AcDbLine
 10
1313.970589276523
 20
1324.494269174465
 30
0.0
 11
1313.970589276523
 21
1315.494269174465
 31
0.0
  0
LINE
  5
18CDC
330
18C7A
100
AcDbEntity
  8
部品1
100
AcDbLine
 10
1322.970589276523
 20
1324.494269174465
 30
0.0
 11
1313.970589276523
 21
1324.494269174465
 31
0.0
  0
LINE
  5
18CDD
330
18C7A
100
AcDbEntity
  8
部品1
100
AcDbLine
 10
1313.970589276523
 20
1315.494269174465
 30
0.0
 11
1283.970589276523
 21
1315.494269174465
 31
0.0
  0
LINE
  5
18CDE
330
18C7A
100
AcDbEntity
  8
部品1
100
AcDbLine
 10
1283.970589276523
 20
1315.494269174465
 30
0.0
 11
1283.970589276523
 21
1392.494269174465
 31
0.0
  0
LINE
  5
18CDF
330
18C7A
100
AcDbEntity
  8
部品1
100
AcDbLine
 10
1322.970589276523
 20
1388.494269174465
 30
0.0
 11
1322.970589276523
 21
1324.494269174465
 31
0.0
  0
LINE
  5
18CE0
330
18C7A
100
AcDbEntity
  8
部品1
100
AcDbLine
 10
1311.970589276523
 20
1419.494269174462
 30
0.0
 11
1311.970589276523
 21
1388.494269174465
 31
0.0
  0
LINE
  5
18CE1
330
18C7A
100
AcDbEntity
  8
部品1
100
AcDbLine
 10
1311.970589276523
 20
1419.494269174462
 30
0.0
 11
3409.970589276524
 21
1419.494269174465
 31
0.0
  0
LINE
  5
18CE2
330
18C7A
100
AcDbEntity
  8
部品1
100
AcDbLine
 10
3407.970589276523
 20
1315.494269174465
 30
0.0
 11
3437.970589276523
 21
1315.494269174465
 31
0.0
  0
LINE
  5
18CE3
330
18C7A
100
AcDbEntity
  8
部品1
100
AcDbLine
 10
1313.970589276523
 20
1315.494269174465
 30
0.0
 11
3410.970589276523
 21
1315.494269174465
 31
0.0
  0
LINE
  5
18CE4
330
18C7A
100
AcDbEntity
  8
細線
  6
Continuous
 62
     5
100
AcDbLine
 10
2689.970589276527
 20
1354.494269174462
 30
0.0
 11
2689.970589276527
 21
1354.494269174462
 31
0.0
  0
LINE
  5
18CE5
330
18C7A
100
AcDbEntity
  8
細線
  6
Continuous
 62
     5
100
AcDbLine
 10
2682.470589276527
 20
1354.494269174462
 30
0.0
 11
2682.470589276527
 21
1354.494269174462
 31
0.0
  0
LINE
  5
18CE6
330
18C7A
100
AcDbEntity
  8
細線
  6
Continuous
 62
     5
100
AcDbLine
 10
2676.470589276527
 20
1354.494269174462
 30
0.0
 11
2676.470589276527
 21
1354.494269174462
 31
0.0
  0
LINE
  5
18CE7
330
18C7A
100
AcDbEntity
  8
細線
  6
Continuous
 62
     5
100
AcDbLine
 10
2743.970589276527
 20
1373.494269174462
 30
0.0
 11
2743.970589276527
 21
1373.494269174462
 31
0.0
  0
LINE
  5
18CE8
330
18C7A
100
AcDbEntity
  8
細線
 48
50.0
100
AcDbLine
 10
1336.970593930116
 20
1341.094443351418
 30
0.0
 11
1336.970593930113
 21
1349.490593759059
 31
0.0
  0
LINE
  5
18CE9
330
18C7A
100
AcDbEntity
  8
細線
 48
50.0
100
AcDbLine
 10
1336.970593930113
 20
1349.490593759059
 30
0.0
 11
1322.970589276523
 21
1349.490593759057
 31
0.0
  0
LINE
  5
18CEA
330
18C7A
100
AcDbEntity
  8
細線
 48
50.0
100
AcDbLine
 10
2087.970593930113
 20
1337.644443351419
 30
0.0
 11
2087.970593930113
 21
1342.494443351421
 31
0.0
  0
LINE
  5
18CEB
330
18C7A
100
AcDbEntity
  8
細線
 48
50.0
100
AcDbLine
 10
2087.970593930113
 20
1342.494443351421
 30
0.0
 11
2102.970593930113
 21
1342.494443351421
 31
0.0
  0
LINE
  5
18CEC
330
18C7A
100
AcDbEntity
  8
細線
 48
50.0
100
AcDbLine
 10
2102.970593930113
 20
1342.494443351421
 30
0.0
 11
2102.970593930115
 21
1349.494443351419
 31
0.0
  0
LINE
  5
18CED
330
18C7A
100
AcDbEntity
  8
細線
 48
50.0
100
AcDbLine
 10
2102.970593930115
 20
1349.494443351419
 30
0.0
 11
2117.970593930113
 21
1349.494443351419
 31
0.0
  0
LINE
  5
18CEE
330
18C7A
100
AcDbEntity
  8
細線
 48
50.0
100
AcDbLine
 10
2117.970593930113
 20
1349.494443351419
 30
0.0
 11
2117.970593930113
 21
1320.494443351421
 31
0.0
  0
LINE
  5
18CEF
330
18C7A
100
AcDbEntity
  8
細線
 48
50.0
100
AcDbLine
 10
1313.970589276523
 20
1320.491777694889
 30
0.0
 11
1527.970593930113
 21
1320.494460905133
 31
0.0
  0
LINE
  5
18CF0
330
18C7A
100
AcDbEntity
  8
細線
 48
50.0
100
AcDbLine
 10
2017.970593930113
 20
1320.494443351421
 30
0.0
 11
2117.970593930113
 21
1320.494443351421
 31
0.0
  0
LINE
  5
18CF1
330
18C7A
100
AcDbEntity
  8
細線
 48
50.0
100
AcDbLine
 10
1737.970593930113
 20
1320.494443351419
 30
0.0
 11
1807.970593930113
 21
1320.494443351423
 31
0.0
  0
LINE
  5
18CF2
330
18C7A
100
AcDbEntity
  8
細線
 48
50.0
100
AcDbLine
 10
1750.832558942642
 20
1320.494443351419
 30
0.0
 11
1756.588076525309
 21
1338.765294641913
 31
0.0
  0
LINE
  5
18CF3
330
18C7A
100
AcDbEntity
  8
細線
 48
50.0
100
AcDbLine
 10
1756.588076525309
 20
1338.765294641913
 30
0.0
 11
1767.516525005743
 21
1338.765294641911
 31
0.0
  0
ARC
  5
18CF4
330
18C7A
100
AcDbEntity
  8
細線
 48
50.0
100
AcDbCircle
 10
1767.516525005743
 20
1337.765294641911
 30
0.0
 40
1.0
100
AcDbArc
 50
24.62431835207225
 51
90.0
  0
ARC
  5
18CF5
330
18C7A
100
AcDbEntity
  8
細線
 48
50.0
100
AcDbCircle
 10
1778.425237120377
 20
1337.765294641911
 30
0.0
 40
1.0
100
AcDbArc
 50
90.0
 51
155.3756816479277
  0
ARC
  5
18CF6
330
18C7A
100
AcDbEntity
  8
細線
 48
50.0
100
AcDbCircle
 10
1772.970881063058
 20
1340.265294641911
 30
0.0
 40
5.0
100
AcDbArc
 50
204.6243183520723
 51
335.3756816479278
  0
LINE
  5
18CF7
330
18C7A
100
AcDbEntity
  8
細線
 48
50.0
100
AcDbLine
 10
1778.425237120377
 20
1338.765294641911
 30
0.0
 11
1789.35368560081
 21
1338.765294641913
 31
0.0
  0
LINE
  5
18CF8
330
18C7A
100
AcDbEntity
  8
細線
 48
50.0
100
AcDbLine
 10
1789.35368560081
 20
1338.765294641913
 30
0.0
 11
1795.109203183478
 21
1320.494443351423
 31
0.0
  0
LINE
  5
18CF9
330
18C7A
100
AcDbEntity
  8
細線
 48
50.0
100
AcDbLine
 10
2087.970593930113
 20
1341.094443351419
 30
0.0
 11
1336.970593930116
 21
1341.094443351418
 31
0.0
  0
LINE
  5
18CFA
330
18C7A
100
AcDbEntity
  8
細線
 48
50.0
100
AcDbLine
 10
1947.970593930113
 20
1320.494443351421
 30
0.0
 11
1877.970593930113
 21
1320.494443351421
 31
0.0
  0
LINE
  5
18CFB
330
18C7A
100
AcDbEntity
  8
細線
100
AcDbLine
 10
1667.970593930113
 20
1320.494443351421
 30
0.0
 11
1597.970602115529
 21
1320.494443351421
 31
0.0
  0
LINE
  5
18CFC
330
18C7A
100
AcDbEntity
  8
細線
 48
50.0
100
AcDbLine
 10
2741.970584622936
 20
1375.094487209288
 30
0.0
 11
2106.970593930113
 21
1375.094487209284
 31
0.0
  0
LINE
  5
18CFD
330
18C7A
100
AcDbEntity
  8
細線
 48
50.0
100
AcDbLine
 10
2106.970593930113
 20
1371.990637616925
 30
0.0
 11
2106.970593930113
 21
1376.490637616925
 31
0.0
  0
LINE
  5
18CFE
330
18C7A
100
AcDbEntity
  8
細線
 48
50.0
100
AcDbLine
 10
2106.970593930113
 20
1376.490637616925
 30
0.0
 11
2091.970593930113
 21
1376.490637616925
 31
0.0
  0
LINE
  5
18CFF
330
18C7A
100
AcDbEntity
  8
細線
 48
50.0
100
AcDbLine
 10
2091.970593930113
 20
1376.490637616925
 30
0.0
 11
2091.970593930113
 21
1383.490637616927
 31
0.0
  0
LINE
  5
18D00
330
18C7A
100
AcDbEntity
  8
細線
 48
50.0
100
AcDbLine
 10
2091.970593930113
 20
1383.490637616927
 30
0.0
 11
2076.970593930115
 21
1383.490637616924
 31
0.0
  0
LINE
  5
18D01
330
18C7A
100
AcDbEntity
  8
細線
 48
50.0
100
AcDbLine
 10
2076.970593930115
 20
1383.490637616924
 30
0.0
 11
2076.970593930115
 21
1345.890409513813
 31
0.0
  0
LINE
  5
18D02
330
18C7A
100
AcDbEntity
  8
細線
 48
50.0
100
AcDbLine
 10
2076.970593930115
 20
1345.890409513813
 30
0.0
 11
2096.970601231289
 21
1345.890451063353
 31
0.0
  0
LINE
  5
18D03
330
18C7A
100
AcDbEntity
  8
細線
 48
50.0
100
AcDbLine
 10
2096.970556362348
 20
1354.493912699161
 30
0.0
 11
2096.970601231289
 21
1345.890451063353
 31
0.0
  0
LINE
  5
18D04
330
18C7A
100
AcDbEntity
  8
細線
 48
50.0
100
AcDbLine
 10
2741.970584622936
 20
1371.644487209287
 30
0.0
 11
2741.970584622936
 21
1376.494487209284
 31
0.0
  0
LINE
  5
18D05
330
18C7A
100
AcDbEntity
  8
細線
 48
50.0
100
AcDbLine
 10
2741.970584622936
 20
1376.494487209284
 30
0.0
 11
2756.970584622934
 21
1376.494487209285
 31
0.0
  0
LINE
  5
18D06
330
18C7A
100
AcDbEntity
  8
細線
 48
50.0
100
AcDbLine
 10
2756.970584622934
 20
1376.494487209285
 30
0.0
 11
2756.970596256909
 21
1383.494487209331
 31
0.0
  0
LINE
  5
18D07
330
18C7A
100
AcDbEntity
  8
細線
 48
50.0
100
AcDbLine
 10
2756.970596256909
 20
1383.494487209331
 30
0.0
 11
2771.970594427439
 21
1383.494487209329
 31
0.0
  0
LINE
  5
18D08
330
18C7A
100
AcDbEntity
  8
細線
 48
50.0
100
AcDbLine
 10
2771.970594427439
 20
1383.494487209329
 30
0.0
 11
2771.970584125617
 21
1354.494281037055
 31
0.0
  0
LINE
  5
18D09
330
18C7A
100
AcDbEntity
  8
細線
 48
50.0
100
AcDbLine
 10
2458.070304175992
 20
1354.494278397076
 30
0.0
 11
2389.470863838818
 21
1354.494283787084
 31
0.0
  0
LINE
  5
18D0A
330
18C7A
100
AcDbEntity
  8
細線
 48
50.0
100
AcDbLine
 10
2096.970556362348
 20
1354.493912699161
 30
0.0
 11
2108.203245717057
 21
1354.494095652309
 31
0.0
  0
ARC
  5
18D0B
330
18C7A
100
AcDbEntity
  8
細線
 48
50.0
100
AcDbCircle
 10
2114.785538024393
 20
1353.294259565922
 30
0.0
 40
1.8
100
AcDbArc
 50
270.0006665777295
 51
345.000555481349
  0
LINE
  5
18D0C
330
18C7A
100
AcDbEntity
  8
細線
 48
50.0
100
AcDbLine
 10
2116.771971470473
 20
1353.753100023201
 30
0.0
 11
2116.524209028273
 21
1352.828402141094
 31
0.0
  0
LINE
  5
18D0D
330
18C7A
100
AcDbEntity
  8
細線
 48
50.0
100
AcDbLine
 10
2114.785558965548
 20
1351.494259566043
 30
0.0
 11
2111.155631546781
 21
1351.494217335563
 31
0.0
  0
ARC
  5
18D0E
330
18C7A
100
AcDbEntity
  8
細線
 48
50.0
100
AcDbCircle
 10
2111.155610605627
 20
1353.29421733544
 30
0.0
 40
1.8
100
AcDbArc
 50
195.0010443049965
 51
270.0006665777295
  0
LINE
  5
18D0F
330
18C7A
100
AcDbEntity
  8
細線
 48
50.0
100
AcDbLine
 10
2109.169183113368
 20
1353.752932303007
 30
0.0
 11
2109.416952609882
 21
1352.828311364425
 31
0.0
  0
ARC
  5
18D10
330
18C7A
100
AcDbEntity
  8
細線
 48
50.0
100
AcDbCircle
 10
2108.203262004622
 20
1353.494095652444
 30
0.0
 40
1.0
100
AcDbArc
 50
15.00104430499651
 51
90.00093320877969
  0
LINE
  5
18D11
330
18C7A
100
AcDbEntity
  8
細線
 48
50.0
100
AcDbLine
 10
2117.737892825577
 20
1354.494290342714
 30
0.0
 11
2118.679652976481
 21
1354.494296916564
 31
0.0
  0
ARC
  5
18D12
330
18C7A
100
AcDbEntity
  8
細線
 48
50.0
100
AcDbCircle
 10
2117.737899805961
 20
1353.49429034274
 30
0.0
 40
1.0
100
AcDbArc
 50
90.0003999466794
 51
165.000555481349
  0
LINE
  5
18D13
330
18C7A
100
AcDbEntity
  8
細線
 48
50.0
100
AcDbLine
 10
2669.470584622926
 20
1354.494281037055
 30
0.0
 11
2771.970584125617
 21
1354.494281037055
 31
0.0
  0
LINE
  5
18D14
330
18C7A
100
AcDbEntity
  8
細線
 48
50.0
100
AcDbLine
 10
2179.47061994182
 20
1354.494289224422
 30
0.0
 11
2118.370558714898
 21
1354.494296916564
 31
0.0
  0
LINE
  5
18D15
330
18C7A
100
AcDbEntity
  8
細線
 48
50.0
100
AcDbLine
 10
2599.470584622926
 20
1354.494281037057
 30
0.0
 11
2529.470584622926
 21
1354.494281037055
 31
0.0
  0
LINE
  5
18D16
330
18C7A
100
AcDbEntity
  8
細線
 48
50.0
100
AcDbLine
 10
2319.470584622926
 20
1354.494281037054
 30
0.0
 11
2249.470567335051
 21
1354.494281037057
 31
0.0
  0
ARC
  5
18D17
330
18C7A
100
AcDbEntity
  8
細線
 48
50.0
100
AcDbCircle
 10
2756.170589276533
 20
1387.694269174466
 30
0.0
 40
0.8
100
AcDbArc
 50
359.9997333689499
 51
89.99986668437072
  0
ARC
  5
18D18
330
18C7A
100
AcDbEntity
  8
細線
 48
50.0
100
AcDbCircle
 10
2763.770596101631
 20
1387.694280343081
 30
0.0
 40
0.8
100
AcDbArc
 50
90.00014387753465
 51
179.9997333689498
  0
LINE
  5
18D19
330
18C7A
100
AcDbEntity
  8
細線
 48
50.0
100
AcDbLine
 10
2756.170591137969
 20
1388.494269174465
 30
0.0
 11
2750.970589276525
 21
1388.494269174465
 31
0.0
  0
ARC
  5
18D1A
330
18C7A
100
AcDbEntity
  8
細線
 48
50.0
100
AcDbCircle
 10
2757.670589276524
 20
1386.194269174464
 30
0.0
 40
0.7
100
AcDbArc
 50
180.0
 51
270.0
  0
ARC
  5
18D1B
330
18C7A
100
AcDbEntity
  8
細線
 48
50.0
100
AcDbCircle
 10
2762.270589276524
 20
1386.194269174464
 30
0.0
 40
0.7
100
AcDbArc
 50
270.0
 51
0.0
  0
LINE
  5
18D1C
330
18C7A
100
AcDbEntity
  8
細線
 48
50.0
100
AcDbLine
 10
2762.970589276525
 20
1386.194269174464
 30
0.0
 11
2762.970596101639
 21
1387.694284065954
 31
0.0
  0
LINE
  5
18D1D
330
18C7A
100
AcDbEntity
  8
細線
 48
50.0
100
AcDbLine
 10
2757.670589276524
 20
1385.494269174465
 30
0.0
 11
2762.270589276524
 21
1385.494269174465
 31
0.0
  0
LINE
  5
18D1E
330
18C7A
100
AcDbEntity
  8
細線
 48
50.0
100
AcDbLine
 10
2756.970589276525
 20
1387.694269174466
 30
0.0
 11
2756.970589276525
 21
1386.194269174464
 31
0.0
  0
LINE
  5
18D1F
330
18C7A
100
AcDbEntity
  8
細線
 48
50.0
100
AcDbLine
 10
3382.570589276527
 20
1418.494269174465
 30
0.0
 11
2745.970589276525
 21
1418.494269174463
 31
0.0
  0
LINE
  5
18D20
330
18C7A
100
AcDbEntity
  8
細線
 48
50.0
100
AcDbLine
 10
3408.470589276525
 20
1413.494269174467
 30
0.0
 11
3392.570589276527
 21
1413.494269174465
 31
0.0
  0
LINE
  5
18D21
330
18C7A
100
AcDbEntity
  8
細線
 48
50.0
100
AcDbLine
 10
3392.570589276526
 20
1413.494269174465
 30
0.0
 11
3382.570589276527
 21
1418.494269174465
 31
0.0
  0
LINE
  5
18D22
330
18C7A
100
AcDbEntity
  8
細線
100
AcDbLine
 10
2993.470589276525
 20
1388.494269174465
 30
0.0
 11
2993.470589276525
 21
1417.794269174464
 31
0.0
  0
LINE
  5
18D23
330
18C7A
100
AcDbEntity
  8
細線
100
AcDbLine
 10
2993.470589276525
 20
1417.794269174464
 30
0.0
 11
3013.470589276525
 21
1417.794269174464
 31
0.0
  0
LINE
  5
18D24
330
18C7A
100
AcDbEntity
  8
細線
100
AcDbLine
 10
3013.470589276525
 20
1388.494269174465
 30
0.0
 11
3013.470589276525
 21
1417.794269174464
 31
0.0
  0
LINE
  5
18D25
330
18C7A
100
AcDbEntity
  8
細線
100
AcDbLine
 10
3170.720589276524
 20
1388.494269174465
 30
0.0
 11
3100.720589276523
 21
1388.494269174465
 31
0.0
  0
LINE
  5
18D26
330
18C7A
100
AcDbEntity
  8
細線
 48
50.0
100
AcDbLine
 10
2890.720589276525
 20
1388.494269174465
 30
0.0
 11
2763.766368849365
 21
1388.494269174465
 31
0.0
  0
LINE
  5
18D27
330
18C7A
100
AcDbEntity
  8
細線
100
AcDbLine
 10
3030.720589276525
 20
1388.494269174465
 30
0.0
 11
2960.720589276525
 21
1388.494269174465
 31
0.0
  0
LINE
  5
18D28
330
18C7A
100
AcDbEntity
  8
細線
 48
50.0
100
AcDbLine
 10
2750.970589276525
 20
1380.494269174465
 30
0.0
 11
2750.970589276525
 21
1388.494269174465
 31
0.0
  0
LINE
  5
18D29
330
18C7A
100
AcDbEntity
  8
細線
 48
50.0
100
AcDbLine
 10
2730.970589276524
 20
1380.494269174467
 30
0.0
 11
2750.970589276525
 21
1380.494269174465
 31
0.0
  0
LINE
  5
18D2A
330
18C7A
100
AcDbEntity
  8
細線
 48
50.0
100
AcDbLine
 10
2745.970589276525
 20
1418.494269174465
 30
0.0
 11
2745.970589276525
 21
1413.494269174465
 31
0.0
  0
LINE
  5
18D2B
330
18C7A
100
AcDbEntity
  8
細線
 48
50.0
100
AcDbLine
 10
2730.970589276525
 20
1418.494269174463
 30
0.0
 11
2745.970589276525
 21
1418.494269174465
 31
0.0
  0
LINE
  5
18D2C
330
18C7A
100
AcDbEntity
  8
細線
 48
50.0
100
AcDbLine
 10
2730.970589276524
 20
1380.494269174467
 30
0.0
 11
2730.970589276525
 21
1418.494269174463
 31
0.0
  0
LINE
  5
18D2D
330
18C7A
100
AcDbEntity
  8
細線
100
AcDbLine
 10
3398.970589276523
 20
1388.494269174465
 30
0.0
 11
3240.720589276525
 21
1388.494269174465
 31
0.0
  0
LINE
  5
18D2E
330
18C7A
100
AcDbEntity
  8
細線
 48
50.0
100
AcDbLine
 10
3408.470589276525
 20
1413.494269174467
 30
0.0
 11
3408.470589276524
 21
1388.494269174465
 31
0.0
  0
TEXT
  5
18D2F
330
18C7A
100
AcDbEntity
  8
部品1
100
AcDbText
 10
1860.154865991392
 20
46.99880823813145
 30
0.0
 40
135.0
  1
平面図
  7
STYLE2
100
AcDbText
  0
LWPOLYLINE
  5
18D30
330
18C7A
100
AcDbEntity
  8
部品1
100
AcDbPolyline
 90
        4
 70
     1
 43
0.0
 10
1770.23525616235
 20
239.8923374566548
 10
1770.23525616235
 20
0.0000159111223184
 10
2533.705922390791
 20
0.0000159111223184
 10
2533.705922390791
 20
239.8923374566548
  0
LINE
  5
18D31
330
18C7A
100
AcDbEntity
  8
部品1
100
AcDbLine
 10
1534.470589276487
 20
3154.494269174626
 30
0.0
 11
2769.470589276552
 21
3154.494269174626
 31
0.0
  0
LINE
  5
18D32
330
18C7A
100
AcDbEntity
  8
部品1
 48
50.0
100
AcDbLine
 10
1311.970589276523
 20
1420.494269174462
 30
0.0
 11
3411.970589276523
 21
1420.494269174465
 31
0.0
  0
LINE
  5
18D33
330
18C7A
100
AcDbEntity
  8
部品1
 48
50.0
100
AcDbLine
 10
471.9705892765232
 20
1392.494269174465
 30
0.0
 11
1311.970589276523
 21
1392.494269174465
 31
0.0
  0
DIMENSION
  5
18D34
330
18C7A
100
AcDbEntity
  8
寸法
100
AcDbDimension
  2
*D14
 10
2710.234916278077
 20
2488.887829538828
 30
0.0
 11
2338.318822490183
 21
2488.887829538828
 31
0.0
 12
-3742.925985830444
 22
-6453.628869860112
 32
0.0
 70
   128
 71
     5
 42
1231.00000000007
  3
INABA_S40G
100
AcDbAlignedDimension
 13
1536.470589276486
 23
2702.494269174557
 33
0.0
 14
2767.470589276556
 24
2702.494269174549
 34
0.0
100
AcDbRotatedDimension
1001
ACAD
1000
DSTYLE
1002
{
1002
}
  0
LINE
  5
18D35
330
18C7A
100
AcDbEntity
  8
部品1
100
AcDbLine
 10
1536.470589276487
 20
2702.494269174557
 30
0.0
 11
2767.470589276554
 21
2702.494269174615
 31
0.0
  0
LINE
  5
18D36
330
18C7A
100
AcDbEntity
  8
部品1
100
AcDbLine
 10
1536.470589276487
 20
3152.494269174557
 30
0.0
 11
2767.470589276556
 21
3152.494269174615
 31
0.0
  0
LINE
  5
18D37
330
18C7A
100
AcDbEntity
  8
細線
 48
50.0
100
AcDbLine
 10
1508.470589276487
 20
3152.494269174558
 30
0.0
 11
445.4705892765559
 21
2702.494269174509
 31
0.0
  0
LINE
  5
18D38
330
18C7A
100
AcDbEntity
  8
細線
 48
50.0
100
AcDbLine
 10
1508.470589276487
 20
2702.494269174558
 30
0.0
 11
445.4705892765542
 21
3152.494269174509
 31
0.0
  0
LINE
  5
18D39
330
18C7A
100
AcDbEntity
  8
部品1
100
AcDbLine
 10
1556.970589276487
 20
3172.494269174611
 30
0.0
 11
1556.970589276487
 21
3154.494269174611
 31
0.0
  0
LINE
  5
18D3A
330
18C7A
100
AcDbEntity
  8
部品1
100
AcDbLine
 10
1556.970589276487
 20
3172.494269174611
 30
0.0
 11
1550.970589276487
 21
3172.494269174611
 31
0.0
  0
LINE
  5
18D3B
330
18C7A
100
AcDbEntity
  8
部品1
100
AcDbLine
 10
1534.470589276487
 20
3146.494269174608
 30
0.0
 11
1509.470589276487
 21
3146.494269174611
 31
0.0
  0
LINE
  5
18D3C
330
18C7A
100
AcDbEntity
  8
部品1
100
AcDbLine
 10
1486.970589276487
 20
3172.494269174611
 30
0.0
 11
1486.970589276487
 21
3154.494269174611
 31
0.0
  0
LINE
  5
18D3D
330
18C7A
100
AcDbEntity
  8
部品1
100
AcDbLine
 10
1492.970589276487
 20
3172.494269174611
 30
0.0
 11
1486.970589276487
 21
3172.494269174611
 31
0.0
  0
LINE
  5
18D3E
330
18C7A
100
AcDbEntity
  8
部品1
100
AcDbLine
 10
1534.470589276487
 20
2702.494269174615
 30
0.0
 11
1509.470589276487
 21
2702.494269174615
 31
0.0
  0
LINE
  5
18D3F
330
18C7A
100
AcDbEntity
  8
部品1
 48
50.0
100
AcDbLine
 10
1536.470589276487
 20
3152.494269174611
 30
0.0
 11
1536.470589276487
 21
2702.494269174615
 31
0.0
  0
LINE
  5
18D40
330
18C7A
100
AcDbEntity
  8
部品1
 48
50.0
100
AcDbLine
 10
1508.470589276487
 20
3152.494269174607
 30
0.0
 11
1508.470589276487
 21
2702.494269174615
 31
0.0
  0
LINE
  5
18D41
330
18C7A
100
AcDbEntity
  8
部品1
 48
50.0
100
AcDbLine
 10
1534.470589276487
 20
3154.494269174618
 30
0.0
 11
1534.470589276487
 21
2702.494269174615
 31
0.0
  0
LINE
  5
18D42
330
18C7A
100
AcDbEntity
  8
部品1
 48
50.0
100
AcDbLine
 10
1509.470589276487
 20
3154.494269174615
 30
0.0
 11
1509.470589276487
 21
2702.494269174615
 31
0.0
  0
LINE
  5
18D43
330
18C7A
100
AcDbEntity
  8
部品1
100
AcDbLine
 10
3411.970589276556
 20
1392.494269174582
 30
0.0
 11
3411.970589276556
 21
1420.494269174596
 31
0.0
  0
LINE
  5
18D44
330
18C7A
100
AcDbEntity
  8
部品1
100
AcDbLine
 10
1311.970589276523
 20
1392.494269174596
 30
0.0
 11
1311.970589276523
 21
1420.494269174596
 31
0.0
  0
LINE
  5
18D45
330
18C7A
100
AcDbEntity
  8
部品1
100
AcDbLine
 10
891.9705892765232
 20
1392.494269174596
 30
0.0
 11
891.9705892765232
 21
1420.494269174596
 31
0.0
  0
LINE
  5
18D46
330
18C7A
100
AcDbEntity
  8
部品1
100
AcDbLine
 10
3411.97058927652
 20
3182.494269174477
 30
0.0
 11
3411.970589276523
 21
3154.494269174477
 31
0.0
  0
LINE
  5
18D47
330
18C7A
100
AcDbEntity
  8
部品1
100
AcDbLine
 10
2571.97058927652
 20
3182.494269174477
 30
0.0
 11
2571.970589276523
 21
3154.494269174477
 31
0.0
  0
LINE
  5
18D48
330
18C7A
100
AcDbEntity
  8
部品1
100
AcDbLine
 10
2991.97058927652
 20
3182.494269174477
 30
0.0
 11
2991.970589276523
 21
3154.494269174477
 31
0.0
  0
LINE
  5
18D49
330
18C7A
100
AcDbEntity
  8
部品1
100
AcDbLine
 10
2151.970589276519
 20
3182.494269174477
 30
0.0
 11
2151.970589276523
 21
3154.494269174477
 31
0.0
  0
LINE
  5
18D4A
330
18C7A
100
AcDbEntity
  8
部品1
100
AcDbLine
 10
1731.970589276519
 20
3182.494269174477
 30
0.0
 11
1731.970589276523
 21
3154.494269174477
 31
0.0
  0
LINE
  5
18D4B
330
18C7A
100
AcDbEntity
  8
部品1
100
AcDbLine
 10
1311.970589276519
 20
3182.494269174477
 30
0.0
 11
1311.970589276523
 21
3154.494269174477
 31
0.0
  0
LINE
  5
18D4C
330
18C7A
100
AcDbEntity
  8
部品1
100
AcDbLine
 10
891.9705892765195
 20
3182.494269174477
 30
0.0
 11
891.9705892765232
 21
3154.494269174477
 31
0.0
  0
LINE
  5
18D4D
330
18C7A
100
AcDbEntity
  8
部品1
100
AcDbLine
 10
471.9705892765232
 20
1392.494269174596
 30
0.0
 11
471.9705892765232
 21
1420.494269174596
 31
0.0
  0
LINE
  5
18D4E
330
18C7A
100
AcDbEntity
  8
部品1
100
AcDbLine
 10
444.9705892765305
 20
1420.494269174558
 30
0.0
 11
3858.970589276556
 21
1420.494269174596
 31
0.0
  0
LINE
  5
18D4F
330
18C7A
100
AcDbEntity
  8
部品1
100
AcDbLine
 10
3831.970589276556
 20
1392.494269174596
 30
0.0
 11
3831.970589276556
 21
1420.494269174596
 31
0.0
  0
LINE
  5
18D50
330
18C7A
100
AcDbEntity
  8
部品1
100
AcDbLine
 10
3858.970589276556
 20
1447.494269174593
 30
0.0
 11
3886.970589276556
 21
1447.494269174593
 31
0.0
  0
LINE
  5
18D51
330
18C7A
100
AcDbEntity
  8
部品1
100
AcDbLine
 10
3858.970589276556
 20
1867.494269174607
 30
0.0
 11
3886.970589276556
 21
1867.494269174607
 31
0.0
  0
LINE
  5
18D52
330
18C7A
100
AcDbEntity
  8
部品1
100
AcDbLine
 10
444.9705892765305
 20
1867.49426917448
 30
0.0
 11
416.9705892765305
 21
1867.49426917448
 31
0.0
  0
LINE
  5
18D53
330
18C7A
100
AcDbEntity
  8
部品1
100
AcDbLine
 10
3830.470589276541
 20
1867.49426917458
 30
0.0
 11
473.4705892765396
 21
1867.49426917448
 31
0.0
  0
LINE
  5
18D54
330
18C7A
100
AcDbEntity
  8
部品1
100
AcDbLine
 10
3830.470589276541
 20
2287.49426917458
 30
0.0
 11
473.4705892765396
 21
2287.49426917448
 31
0.0
  0
LINE
  5
18D55
330
18C7A
100
AcDbEntity
  8
部品1
100
AcDbLine
 10
444.9705892765305
 20
2287.49426917448
 30
0.0
 11
416.9705892765305
 21
2287.49426917448
 31
0.0
  0
LINE
  5
18D56
330
18C7A
100
AcDbEntity
  8
部品1
100
AcDbLine
 10
3858.970589276556
 20
2287.494269174608
 30
0.0
 11
3886.970589276556
 21
2287.494269174608
 31
0.0
  0
LINE
  5
18D57
330
18C7A
100
AcDbEntity
  8
部品1
 48
50.0
100
AcDbLine
 10
2151.970589276551
 20
2702.494269174586
 30
0.0
 11
2151.970589276581
 21
1448.994269174494
 31
0.0
  0
LINE
  5
18D58
330
18C7A
100
AcDbEntity
  8
破線
 48
10.0
100
AcDbLine
 10
2959.470589276535
 20
1472.494269174522
 30
0.0
 11
2176.970589276532
 21
1472.494269174505
 31
0.0
  0
LINE
  5
18D59
330
18C7A
100
AcDbEntity
  8
破線
 48
10.0
100
AcDbLine
 10
3009.47058927653
 20
1448.994269174509
 30
0.0
 11
3009.47058927653
 21
2702.494269174615
 31
0.0
  0
LINE
  5
18D5A
330
18C7A
100
AcDbEntity
  8
破線
 48
10.0
100
AcDbLine
 10
2959.470589276535
 20
1448.994269174505
 30
0.0
 11
2959.470589276531
 21
2702.494269174615
 31
0.0
  0
LINE
  5
18D5B
330
18C7A
100
AcDbEntity
  8
破線
 48
10.0
100
AcDbLine
 10
1344.47058927653
 20
1448.994269174509
 30
0.0
 11
1344.47058927653
 21
2702.494269174615
 31
0.0
  0
LINE
  5
18D5C
330
18C7A
100
AcDbEntity
  8
破線
 48
10.0
100
AcDbLine
 10
1294.470589276534
 20
1448.994269174505
 30
0.0
 11
1294.47058927653
 21
2702.494269174615
 31
0.0
  0
DIMENSION
  5
18D5D
330
18C7A
100
AcDbEntity
  8
寸法
100
AcDbDimension
  2
*D13
 10
1451.234916278005
 20
2488.887829538828
 30
0.0
 11
916.0604668248634
 21
2488.887829538828
 31
0.0
 12
-3742.925985830444
 22
-6453.628869860112
 32
0.0
 70
   128
 71
     5
 42
1062.99999999993
  3
INABA_S40G
100
AcDbAlignedDimension
 13
445.4705892765559
 23
2702.494269174505
 33
0.0
 14
1508.470589276486
 24
2702.494269174558
 34
0.0
100
AcDbRotatedDimension
1001
ACAD
1000
DSTYLE
1002
{
1002
}
  0
LINE
  5
18D5E
330
18C7A
100
AcDbEntity
  8
破線
 48
10.0
100
AcDbLine
 10
1294.470589276534
 20
1472.494269174469
 30
0.0
 11
496.9705892765414
 21
1472.494269174476
 31
0.0
  0
LINE
  5
18D5F
330
18C7A
100
AcDbEntity
  8
部品1
100
AcDbLine
 10
3831.970589276556
 20
3182.494269174604
 30
0.0
 11
3831.970589276556
 21
3154.494269174604
 31
0.0
  0
LINE
  5
18D60
330
18C7A
100
AcDbEntity
  8
部品1
100
AcDbLine
 10
3831.970589276556
 20
3182.494269174626
 30
0.0
 11
3831.970589276556
 21
3154.494269174626
 31
0.0
  0
LINE
  5
18D61
330
18C7A
100
AcDbEntity
  8
部品1
100
AcDbLine
 10
3858.970589276556
 20
3127.494269174607
 30
0.0
 11
3886.970589276556
 21
3127.494269174607
 31
0.0
  0
LINE
  5
18D62
330
18C7A
100
AcDbEntity
  8
部品1
100
AcDbLine
 10
3858.970589276556
 20
2707.494269174608
 30
0.0
 11
3886.970589276556
 21
2707.494269174608
 31
0.0
  0
LINE
  5
18D63
330
18C7A
100
AcDbEntity
  8
部品1
100
AcDbLine
 10
3858.470589276556
 20
3152.494269174604
 30
0.0
 11
3858.470589276556
 21
2702.494269174608
 31
0.0
  0
LINE
  5
18D64
330
18C7A
100
AcDbEntity
  8
部品1
100
AcDbLine
 10
3886.970589276533
 20
1447.494269174593
 30
0.0
 11
3886.970589276531
 21
1392.494269174596
 31
0.0
  0
LINE
  5
18D65
330
18C7A
100
AcDbEntity
  8
部品1
 48
50.0
100
AcDbLine
 10
3830.470589276556
 20
1448.994269174596
 30
0.0
 11
3858.970589276554
 21
1420.494269174596
 31
0.0
  0
LINE
  5
18D66
330
18C7A
100
AcDbEntity
  8
部品1
100
AcDbLine
 10
3886.970589276531
 20
1392.494269174596
 30
0.0
 11
3835.970589276531
 21
1392.494269174596
 31
0.0
  0
LINE
  5
18D67
330
18C7A
100
AcDbEntity
  8
部品1
100
AcDbLine
 10
3858.970589276533
 20
1447.494269174593
 30
0.0
 11
3886.970589276531
 21
1447.494269174593
 31
0.0
  0
LINE
  5
18D68
330
18C7A
100
AcDbEntity
  8
部品1
100
AcDbLine
 10
3886.970589276556
 20
3182.494269174604
 30
0.0
 11
3886.970589276531
 21
1392.494269174596
 31
0.0
  0
DIMENSION
  5
18D69
330
18C7A
100
AcDbEntity
  8
寸法
100
AcDbDimension
  2
*D12
 10
4534.396935010967
 20
1447.494269174593
 30
0.0
 11
4534.396935010965
 21
2287.4942691746
 31
0.0
 12
-3742.925985830444
 22
-6453.628869860112
 32
0.0
 70
   128
  1
4X420=<>
 71
     5
 42
1680.000000000014
  3
INABA_S40G
100
AcDbAlignedDimension
 13
3886.970589276556
 23
3127.494269174607
 33
0.0
 14
3886.970589276531
 24
1447.494269174593
 34
0.0
 50
90.0
100
AcDbRotatedDimension
1001
ACAD
1000
DSTYLE
1002
{
1002
}
  0
LINE
  5
18D6A
330
18C7A
100
AcDbEntity
  8
部品1
100
AcDbLine
 10
3858.970589276556
 20
3154.494269174604
 30
0.0
 11
3858.970589276534
 21
1420.494269174596
 31
0.0
  0
DIMENSION
  5
18D6B
330
18C7A
100
AcDbEntity
  8
寸法
100
AcDbDimension
  2
*D11
 10
4213.82831513858
 20
2607.276453505718
 30
0.0
 11
4113.828315138579
 21
2832.276453505718
 31
0.0
 12
-3742.925985830444
 22
-6453.628869860112
 32
0.0
 71
     5
 42
449.9999999999963
  3
INABA_S40G
100
AcDbAlignedDimension
 13
3858.470589276556
 23
3152.494269174604
 33
0.0
 14
3858.470589276556
 24
2702.494269174608
 34
0.0
 50
90.0
100
AcDbRotatedDimension
1001
ACAD
1000
DSTYLE
1002
{
1002
}
  0
LINE
  5
18D6C
330
18C7A
100
AcDbEntity
  8
部品1
100
AcDbLine
 10
3830.470589276547
 20
2702.494269174608
 30
0.0
 11
3830.470589276556
 21
1448.994269174596
 31
0.0
  0
LINE
  5
18D6D
330
18C7A
100
AcDbEntity
  8
破線
 48
10.0
100
AcDbLine
 10
3806.970589276549
 20
2702.494269174608
 30
0.0
 11
3806.970589276558
 21
1472.494269174593
 31
0.0
  0
LINE
  5
18D6E
330
18C7A
100
AcDbEntity
  8
部品1
100
AcDbLine
 10
2769.470589276556
 20
3146.494269174608
 30
0.0
 11
2794.470589276556
 21
3146.494269174611
 31
0.0
  0
LINE
  5
18D6F
330
18C7A
100
AcDbEntity
  8
部品1
100
AcDbLine
 10
2810.970589276556
 20
3172.494269174611
 30
0.0
 11
2816.970589276556
 21
3172.494269174611
 31
0.0
  0
LINE
  5
18D70
330
18C7A
100
AcDbEntity
  8
部品1
100
AcDbLine
 10
2816.970589276556
 20
3172.494269174611
 30
0.0
 11
2816.970589276556
 21
3154.494269174611
 31
0.0
  0
LINE
  5
18D71
330
18C7A
100
AcDbEntity
  8
部品1
100
AcDbLine
 10
2746.970589276556
 20
3172.494269174611
 30
0.0
 11
2752.970589276556
 21
3172.494269174611
 31
0.0
  0
LINE
  5
18D72
330
18C7A
100
AcDbEntity
  8
部品1
100
AcDbLine
 10
2746.970589276556
 20
3172.494269174611
 30
0.0
 11
2746.970589276556
 21
3154.494269174611
 31
0.0
  0
LINE
  5
18D73
330
18C7A
100
AcDbEntity
  8
部品1
100
AcDbLine
 10
2769.470589276556
 20
2702.494269174615
 30
0.0
 11
2794.470589276556
 21
2702.494269174615
 31
0.0
  0
LINE
  5
18D74
330
18C7A
100
AcDbEntity
  8
部品1
 48
50.0
100
AcDbLine
 10
2794.470589276556
 20
3154.494269174615
 30
0.0
 11
2794.470589276556
 21
2702.494269174615
 31
0.0
  0
LINE
  5
18D75
330
18C7A
100
AcDbEntity
  8
部品1
 48
50.0
100
AcDbLine
 10
2769.470589276554
 20
3154.494269174618
 30
0.0
 11
2769.470589276556
 21
2702.494269174615
 31
0.0
  0
LINE
  5
18D76
330
18C7A
100
AcDbEntity
  8
部品1
 48
50.0
100
AcDbLine
 10
2795.470589276556
 20
3152.494269174607
 30
0.0
 11
2795.470589276556
 21
2702.494269174615
 31
0.0
  0
LINE
  5
18D77
330
18C7A
100
AcDbEntity
  8
部品1
 48
50.0
100
AcDbLine
 10
2767.470589276556
 20
3152.494269174611
 30
0.0
 11
2767.470589276556
 21
2702.494269174615
 31
0.0
  0
LINE
  5
18D78
330
18C7A
100
AcDbEntity
  8
破線
 48
10.0
100
AcDbLine
 10
2176.97058927653
 20
1448.994269174509
 30
0.0
 11
2176.97058927653
 21
2702.494269174588
 31
0.0
  0
LINE
  5
18D79
330
18C7A
100
AcDbEntity
  8
破線
 48
10.0
100
AcDbLine
 10
2126.970589276534
 20
1448.994269174505
 30
0.0
 11
2126.970589276531
 21
2702.494269174586
 31
0.0
  0
LINE
  5
18D7A
330
18C7A
100
AcDbEntity
  8
部品1
100
AcDbLine
 10
2794.470589276556
 20
3154.494269174622
 30
0.0
 11
3858.970589276556
 21
3154.494269174604
 31
0.0
  0
LINE
  5
18D7B
330
18C7A
100
AcDbEntity
  8
細線
 48
50.0
100
AcDbLine
 10
3858.470589276556
 20
2702.494269174608
 30
0.0
 11
2795.470589276556
 21
3152.494269174607
 31
0.0
  0
LINE
  5
18D7C
330
18C7A
100
AcDbEntity
  8
部品1
100
AcDbLine
 10
2795.470589276555
 20
2702.494269174615
 30
0.0
 11
3858.470589276556
 21
2702.494269174608
 31
0.0
  0
LINE
  5
18D7D
330
18C7A
100
AcDbEntity
  8
部品1
100
AcDbLine
 10
2795.470589276556
 20
3152.494269174611
 30
0.0
 11
3858.470589276556
 21
3152.494269174604
 31
0.0
  0
LINE
  5
18D7E
330
18C7A
100
AcDbEntity
  8
細線
 48
50.0
100
AcDbLine
 10
3858.470589276556
 20
3152.494269174604
 30
0.0
 11
2795.470589276555
 21
2702.494269174615
 31
0.0
  0
DIMENSION
  5
18D7F
330
18C7A
100
AcDbEntity
  8
寸法
100
AcDbDimension
  2
*D10
 10
3801.234916278101
 20
2488.887829538937
 30
0.0
 11
3318.360544398907
 21
2488.887829538937
 31
0.0
 12
-3742.925985830444
 22
-6453.628869860112
 32
0.0
 70
   128
 71
     5
 42
1063.000000000012
  3
INABA_S40G
100
AcDbAlignedDimension
 13
2795.470589276555
 23
2702.494269174615
 33
0.0
 14
3858.470589276567
 24
2702.494269174608
 34
0.0
100
AcDbRotatedDimension
1001
ACAD
1000
DSTYLE
1002
{
1002
}
  0
LINE
  5
18D80
330
18C7A
100
AcDbEntity
  8
破線
 48
10.0
100
AcDbLine
 10
3806.970589276556
 20
1472.494269174594
 30
0.0
 11
3009.47058927653
 21
1472.494269174523
 31
0.0
  0
DIMENSION
  5
18D81
330
18C7A
100
AcDbEntity
  8
寸法
100
AcDbDimension
  2
*D9
 10
4534.396935010941
 20
1392.494269174596
 30
0.0
 11
4534.39693501094
 21
1084.008987800356
 31
0.0
 12
-3742.925985830444
 22
-6453.628869860112
 32
0.0
 70
   128
 71
     5
 42
54.99999999999636
  3
INABA_S40G
100
AcDbAlignedDimension
 13
3886.970589276531
 23
1447.494269174593
 33
0.0
 14
3886.970589276531
 24
1392.494269174596
 34
0.0
 50
90.0
100
AcDbRotatedDimension
1001
ACAD
1000
DSTYLE
1002
{
1002
}
  0
LINE
  5
18D82
330
18C7A
100
AcDbEntity
  8
部品1
100
AcDbLine
 10
471.9705892765196
 20
3182.494269174477
 30
0.0
 11
471.9705892765232
 21
3154.494269174477
 31
0.0
  0
LINE
  5
18D83
330
18C7A
100
AcDbEntity
  8
部品1
100
AcDbLine
 10
471.9705892765559
 20
3182.494269174509
 30
0.0
 11
471.9705892765559
 21
3154.494269174509
 31
0.0
  0
LINE
  5
18D84
330
18C7A
100
AcDbEntity
  8
部品1
100
AcDbLine
 10
444.9705892765232
 20
3127.49426917448
 30
0.0
 11
416.9705892765232
 21
3127.49426917448
 31
0.0
  0
LINE
  5
18D85
330
18C7A
100
AcDbEntity
  8
部品1
100
AcDbLine
 10
444.9705892765305
 20
2707.49426917448
 30
0.0
 11
416.9705892765305
 21
2707.49426917448
 31
0.0
  0
LINE
  5
18D86
330
18C7A
100
AcDbEntity
  8
部品1
 48
50.0
100
AcDbLine
 10
445.4705892765542
 20
3152.494269174506
 30
0.0
 11
445.4705892765559
 21
2702.494269174505
 31
0.0
  0
LINE
  5
18D87
330
18C7A
100
AcDbEntity
  8
部品1
 48
50.0
100
AcDbLine
 10
473.470589276545
 20
1448.994269174573
 30
0.0
 11
444.970589276545
 21
1420.494269174574
 31
0.0
  0
LINE
  5
18D88
330
18C7A
100
AcDbEntity
  8
部品1
100
AcDbLine
 10
471.9705892765232
 20
1392.494269174465
 30
0.0
 11
416.9705892765486
 21
1392.494269174465
 31
0.0
  0
LINE
  5
18D89
330
18C7A
100
AcDbEntity
  8
部品1
100
AcDbLine
 10
444.9705892765305
 20
1447.494269174429
 30
0.0
 11
416.9705892765469
 21
1447.494269174429
 31
0.0
  0
LINE
  5
18D8A
330
18C7A
100
AcDbEntity
  8
部品1
100
AcDbLine
 10
444.9705892765305
 20
1447.494269174465
 30
0.0
 11
416.9705892765469
 21
1447.494269174465
 31
0.0
  0
LINE
  5
18D8B
330
18C7A
100
AcDbEntity
  8
部品1
100
AcDbLine
 10
444.9705892765469
 20
1447.49426917448
 30
0.0
 11
416.9705892765469
 21
1447.49426917448
 31
0.0
  0
LINE
  5
18D8C
330
18C7A
100
AcDbEntity
  8
部品1
100
AcDbLine
 10
416.9705892765469
 20
1447.494269174429
 30
0.0
 11
416.9705892765486
 21
1392.494269174433
 31
0.0
  0
LINE
  5
18D8D
330
18C7A
100
AcDbEntity
  8
部品1
100
AcDbLine
 10
416.9705892765196
 20
3182.494269174477
 30
0.0
 11
416.9705892765486
 21
1392.494269174465
 31
0.0
  0
LINE
  5
18D8E
330
18C7A
100
AcDbEntity
  8
部品1
100
AcDbLine
 10
444.9705892765305
 20
1420.494269174556
 30
0.0
 11
444.9705892765559
 21
3154.494269174509
 31
0.0
  0
LINE
  5
18D8F
330
18C7A
100
AcDbEntity
  8
部品1
100
AcDbLine
 10
473.4705892765323
 20
2702.494269174608
 30
0.0
 11
473.470589276545
 21
1448.994269174571
 31
0.0
  0
LINE
  5
18D90
330
18C7A
100
AcDbEntity
  8
破線
 48
10.0
100
AcDbLine
 10
496.9705892765305
 20
2702.494269174608
 30
0.0
 11
496.9705892765451
 21
1472.494269174476
 31
0.0
  0
DIMENSION
  5
18D91
330
18C7A
100
AcDbEntity
  8
寸法
100
AcDbDimension
  2
*D8
 10
3886.970589276531
 20
410.7433333855515
 30
0.0
 11
2168.197775309287
 21
410.7433333855515
 31
0.0
 12
-3742.925985830444
 22
-6453.628869860112
 32
0.0
 70
   128
 71
     5
 42
3469.999999999982
  3
INABA_S40G
100
AcDbAlignedDimension
 13
416.9705892765486
 23
1392.494269174433
 33
0.0
 14
3886.970589276531
 24
1392.49426917456
 34
0.0
100
AcDbRotatedDimension
1001
ACAD
1000
DSTYLE
1002
{
1070
   341
1005
0
1002
}
  0
LINE
  5
18D92
330
18C7A
100
AcDbEntity
  8
部品1
100
AcDbLine
 10
444.9705892765559
 20
3154.494269174624
 30
0.0
 11
1509.470589276487
 21
3154.494269174626
 31
0.0
  0
LINE
  5
18D93
330
18C7A
100
AcDbEntity
  8
部品1
100
AcDbLine
 10
3886.970589276531
 20
1392.494269174596
 30
0.0
 11
3411.970589276556
 21
1392.494269174582
 31
0.0
  0
LINE
  5
18D94
330
18C7A
100
AcDbEntity
  8
部品1
100
AcDbLine
 10
416.9705892765559
 20
3182.494269174509
 30
0.0
 11
3886.970589276556
 21
3182.494269174604
 31
0.0
  0
LINE
  5
18D95
330
18C7A
100
AcDbEntity
  8
部品1
100
AcDbLine
 10
445.4705892765559
 20
2702.494269174509
 30
0.0
 11
1508.470589276487
 21
2702.494269174558
 31
0.0
  0
LINE
  5
18D96
330
18C7A
100
AcDbEntity
  8
細線
 48
50.0
100
AcDbLine
 10
2767.470589276556
 20
3152.494269174611
 30
0.0
 11
1536.470589276487
 21
2702.494269174558
 31
0.0
  0
LINE
  5
18D97
330
18C7A
100
AcDbEntity
  8
部品1
100
AcDbLine
 10
445.4705892765542
 20
3152.494269174509
 30
0.0
 11
1508.470589276485
 21
3152.494269174558
 31
0.0
  0
LINE
  5
18D98
330
18C7A
100
AcDbEntity
  8
細線
 48
50.0
100
AcDbLine
 10
2767.470589276554
 20
2702.494269174615
 30
0.0
 11
1536.470589276485
 21
3152.494269174558
 31
0.0
  0
LINE
  5
18D99
330
18C7A
100
AcDbEntity
  8
破線
 48
10.0
100
AcDbLine
 10
2126.970589276534
 20
1472.494269174502
 30
0.0
 11
1344.47058927653
 21
1472.494269174473
 31
0.0
  0
LINE
  5
18D9A
330
18C7A
100
AcDbEntity
  8
部品1
100
AcDbLine
 10
3830.470589276556
 20
1448.994269174596
 30
0.0
 11
473.4705892764487
 21
1448.994269174476
 31
0.0
  0
DIMENSION
  5
18D9B
330
18C7A
100
AcDbEntity
  8
寸法
100
AcDbDimension
  2
*D7
 10
471.970589276555
 20
3698.302488799491
 30
0.0
 11
108.4853079022819
 21
3698.302488799491
 31
0.0
 12
-3742.925985830444
 22
-6453.628869860112
 32
0.0
 70
   128
 71
     5
 42
55.00000000003456
  3
INABA_S40G
100
AcDbAlignedDimension
 13
416.9705892765205
 23
3182.494269174509
 33
0.0
 14
471.970589276555
 24
3182.494269174509
 34
0.0
100
AcDbRotatedDimension
1001
ACAD
1000
DSTYLE
1002
{
1002
}
  0
DIMENSION
  5
18D9C
330
18C7A
100
AcDbEntity
  8
寸法
100
AcDbDimension
  2
*D6
 10
4534.396935010967
 20
3127.494269174607
 30
0.0
 11
4534.396935010965
 21
3490.979550548844
 31
0.0
 12
-3742.925985830444
 22
-6453.628869860112
 32
0.0
 70
   128
 71
     5
 42
54.99999999999636
  3
INABA_S40G
100
AcDbAlignedDimension
 13
3886.970589276556
 23
3182.494269174604
 33
0.0
 14
3886.970589276556
 24
3127.494269174607
 34
0.0
 50
90.0
100
AcDbRotatedDimension
1001
ACAD
1000
DSTYLE
1002
{
1002
}
  0
DIMENSION
  5
18D9D
330
18C7A
100
AcDbEntity
  8
寸法
100
AcDbDimension
  2
*D5
 10
3886.970589276556
 20
3698.302488799589
 30
0.0
 11
4195.455870650794
 21
3698.302488799589
 31
0.0
 12
-3742.925985830444
 22
-6453.628869860112
 32
0.0
 70
   128
 71
     5
 42
55.0
  3
INABA_S40G
100
AcDbAlignedDimension
 13
3831.970589276556
 23
3182.494269174604
 33
0.0
 14
3886.970589276556
 24
3182.494269174604
 34
0.0
100
AcDbRotatedDimension
1001
ACAD
1000
DSTYLE
1002
{
1002
}
  0
DIMENSION
  5
18D9E
330
18C7A
100
AcDbEntity
  8
寸法
100
AcDbDimension
  2
*D4
 10
3831.970589276556
 20
3698.302488799607
 30
0.0
 11
2151.970589276555
 21
3698.302488799607
 31
0.0
 12
-3742.925985830444
 22
-6453.628869860112
 32
0.0
 70
   128
  1
8X420=<>
 71
     5
 42
3360.000000000001
  3
INABA_S40G
100
AcDbAlignedDimension
 13
471.970589276555
 23
3182.494269174509
 33
0.0
 14
3831.970589276556
 24
3182.494269174604
 34
0.0
100
AcDbRotatedDimension
1001
ACAD
1000
DSTYLE
1002
{
1002
}
  0
DIMENSION
  5
18D9F
330
18C7A
100
AcDbEntity
  8
寸法
100
AcDbDimension
  2
*D3
 10
4899.503876750603
 20
1392.494269174596
 30
0.0
 11
4899.503876750601
 21
2287.4942691746
 31
0.0
 12
-3742.925985830444
 22
-6453.628869860112
 32
0.0
 70
   128
 71
     5
 42
1790.000000000007
  3
INABA_S40G
100
AcDbAlignedDimension
 13
3886.970589276556
 23
3182.494269174604
 33
0.0
 14
3886.970589276531
 24
1392.494269174596
 34
0.0
 50
90.0
100
AcDbRotatedDimension
1001
ACAD
1000
DSTYLE
1002
{
1002
}
  0
ENDBLK
  5
18DA1
330
18C7A
100
AcDbEntity
  8
0
 48
50.0
100
AcDbBlockEnd
  0
BLOCK
  5
1C4CB
330
1C4CA
100
AcDbEntity
  8
0
 48
50.0
100
AcDbBlockBegin
  2
_NONE
 70
     0
 10
0.0
 20
0.0
 30
0.0
  3
_NONE
  1

  0
CIRCLE
  5
1C4CC
330
1C4CA
100
AcDbEntity
  8
0
  6
ByBlock
 62
     0
 48
50.0
100
AcDbCircle
 10
0.0
 20
0.0
 30
0.0
 40
0.25
  0
ENDBLK
  5
1C4CD
330
1C4CA
100
AcDbEntity
  8
0
 48
50.0
100
AcDbBlockEnd
  0
BLOCK
  5
20DEE
330
20DE2
100
AcDbEntity
  8
0
 48
50.0
100
AcDbBlockBegin
  2
*D19
 70
     1
 10
0.0
 20
0.0
 30
0.0
  3
*D19
  1

  0
LINE
  5
2470D
330
20DE2
100
AcDbEntity
  8
寸法
 62
     0
 48
50.0
370
    -2
100
AcDbLine
 10
9653.6
 20
7371.62513955472
 30
0.0
 11
9653.6
 21
8369.845461613641
 31
0.0
  0
LINE
  5
2470E
330
20DE2
100
AcDbEntity
  8
寸法
 62
     0
 48
50.0
370
    -2
100
AcDbLine
 10
9698.6
 20
8097.891597648631
 30
0.0
 11
9698.6
 21
8369.845461613641
 31
0.0
  0
LINE
  5
2470F
330
20DE2
100
AcDbEntity
  8
寸法
 62
     0
 48
50.0
370
    -2
100
AcDbLine
 10
9653.6
 20
8309.84546161364
 30
0.0
 11
9553.600000000001
 21
8309.84546161364
 31
0.0
  0
LINE
  5
24710
330
20DE2
100
AcDbEntity
  8
寸法
 62
     0
 48
50.0
370
    -2
100
AcDbLine
 10
9698.6
 20
8309.84546161364
 30
0.0
 11
10035.94924240492
 21
8309.84546161364
 31
0.0
  0
LINE
  5
24711
330
20DE2
100
AcDbEntity
  8
寸法
 62
     0
 48
50.0
370
    -2
100
AcDbLine
 10
9653.6
 20
8309.84546161364
 30
0.0
 11
9698.6
 21
8309.84546161364
 31
0.0
  0
INSERT
  5
24712
330
20DE2
100
AcDbEntity
  8
寸法
 62
     0
 48
50.0
370
    -2
100
AcDbBlockReference
  2
_DOTSMALL
 10
9653.6
 20
8309.84546161364
 30
0.0
 41
100.0
 42
100.0
 43
100.0
  0
INSERT
  5
24713
330
20DE2
100
AcDbEntity
  8
寸法
 62
     0
 48
50.0
370
    -2
100
AcDbBlockReference
  2
_DOTSMALL
 10
9698.6
 20
8309.84546161364
 30
0.0
 41
100.0
 42
100.0
 43
100.0
 50
180.0
  0
MTEXT
  5
24714
330
20DE2
100
AcDbEntity
  8
寸法
 62
     7
 48
50.0
100
AcDbMText
 10
9969.774621202461
 20
8409.84546161364
 30
0.0
 40
120.0
 41
0.0
 71
     5
 72
     1
  1
\A1;a
  7
STYLE1
 73
     1
 44
1.0
1001
ACAD
1000
MTEXTBEGIN
1070
    73
1070
     1
1070
    44
1040
1.0
1070
    74
1070
     0
1000
MTEXTEND
  0
POINT
  5
24715
330
20DE2
100
AcDbEntity
  8
DEFPOINTS
 62
     0
 48
50.0
100
AcDbPoint
 10
9653.6
 20
7351.62513955472
 30
0.0
  0
POINT
  5
24716
330
20DE2
100
AcDbEntity
  8
DEFPOINTS
 62
     0
 48
50.0
100
AcDbPoint
 10
9698.6
 20
8077.891597648632
 30
0.0
  0
POINT
  5
24717
330
20DE2
100
AcDbEntity
  8
DEFPOINTS
 62
     0
 48
50.0
100
AcDbPoint
 10
9698.6
 20
8309.84546161364
 30
0.0
  0
ENDBLK
  5
20DEF
330
20DE2
100
AcDbEntity
  8
0
 48
50.0
100
AcDbBlockEnd
  0
BLOCK
  5
20E08
330
20DFC
100
AcDbEntity
  8
0
 48
50.0
100
AcDbBlockBegin
  2
*D20
 70
     1
 10
0.0
 20
0.0
 30
0.0
  3
*D20
  1

  0
LINE
  5
24702
330
20DFC
100
AcDbEntity
  8
寸法
 62
     0
 48
50.0
370
    -2
100
AcDbLine
 10
6748.600000000005
 20
8097.891597648674
 30
0.0
 11
6748.600000000005
 21
8369.845461613683
 31
0.0
  0
LINE
  5
24703
330
20DFC
100
AcDbEntity
  8
寸法
 62
     0
 48
50.0
370
    -2
100
AcDbLine
 10
6793.600000000001
 20
7371.625139554764
 30
0.0
 11
6793.600000000001
 21
8369.845461613683
 31
0.0
  0
LINE
  5
24704
330
20DFC
100
AcDbEntity
  8
寸法
 62
     0
 48
50.0
370
    -2
100
AcDbLine
 10
6793.600000000001
 20
8309.845461613685
 30
0.0
 11
6893.600000000001
 21
8309.845461613685
 31
0.0
  0
LINE
  5
24705
330
20DFC
100
AcDbEntity
  8
寸法
 62
     0
 48
50.0
370
    -2
100
AcDbLine
 10
6748.600000000005
 20
8309.845461613685
 30
0.0
 11
6411.250757595083
 21
8309.845461613685
 31
0.0
  0
LINE
  5
24706
330
20DFC
100
AcDbEntity
  8
寸法
 62
     0
 48
50.0
370
    -2
100
AcDbLine
 10
6793.600000000001
 20
8309.845461613685
 30
0.0
 11
6748.600000000005
 21
8309.845461613685
 31
0.0
  0
INSERT
  5
24707
330
20DFC
100
AcDbEntity
  8
寸法
 62
     0
 48
50.0
370
    -2
100
AcDbBlockReference
  2
_DOTSMALL
 10
6793.600000000001
 20
8309.845461613685
 30
0.0
 41
100.0
 42
100.0
 43
100.0
 50
180.0
  0
INSERT
  5
24708
330
20DFC
100
AcDbEntity
  8
寸法
 62
     0
 48
50.0
370
    -2
100
AcDbBlockReference
  2
_DOTSMALL
 10
6748.600000000005
 20
8309.845461613685
 30
0.0
 41
100.0
 42
100.0
 43
100.0
  0
MTEXT
  5
24709
330
20DFC
100
AcDbEntity
  8
寸法
 62
     7
 48
50.0
100
AcDbMText
 10
6477.425378797541
 20
8409.845461613684
 30
0.0
 40
120.0
 41
0.0
 71
     5
 72
     1
  1
\A1;a
  7
STYLE1
 73
     1
 44
1.0
1001
ACAD
1000
MTEXTBEGIN
1070
    73
1070
     1
1070
    44
1040
1.0
1070
    74
1070
     0
1000
MTEXTEND
  0
POINT
  5
2470A
330
20DFC
100
AcDbEntity
  8
DEFPOINTS
 62
     0
 48
50.0
100
AcDbPoint
 10
6748.600000000005
 20
8077.891597648676
 30
0.0
  0
POINT
  5
2470B
330
20DFC
100
AcDbEntity
  8
DEFPOINTS
 62
     0
 48
50.0
100
AcDbPoint
 10
6793.600000000001
 20
7351.625139554764
 30
0.0
  0
POINT
  5
2470C
330
20DFC
100
AcDbEntity
  8
DEFPOINTS
 62
     0
 48
50.0
100
AcDbPoint
 10
6793.600000000001
 20
8309.845461613685
 30
0.0
  0
ENDBLK
  5
20E09
330
20DFC
100
AcDbEntity
  8
0
 48
50.0
100
AcDbBlockEnd
  0
BLOCK
  5
2274E
330
22742
100
AcDbEntity
  8
0
 48
50.0
100
AcDbBlockBegin
  2
*D25
 70
     1
 10
0.0
 20
0.0
 30
0.0
  3
*D25
  1

  0
LINE
  5
246F7
330
22742
100
AcDbEntity
  8
寸法
 62
     0
 48
50.0
370
    -2
100
AcDbLine
 10
6150.665006330069
 20
7426.625139554771
 30
0.0
 11
5858.721909610675
 21
7426.625139554771
 31
0.0
  0
LINE
  5
246F8
330
22742
100
AcDbEntity
  8
寸法
 62
     0
 48
50.0
370
    -2
100
AcDbLine
 10
6773.6
 20
7351.625139554764
 30
0.0
 11
5858.721909610675
 21
7351.625139554766
 31
0.0
  0
LINE
  5
246F9
330
22742
100
AcDbEntity
  8
寸法
 62
     0
 48
50.0
370
    -2
100
AcDbLine
 10
5918.721909610674
 20
7426.625139554771
 30
0.0
 11
5918.721909610674
 21
7526.625139554771
 31
0.0
  0
LINE
  5
246FA
330
22742
100
AcDbEntity
  8
寸法
 62
     0
 48
50.0
370
    -2
100
AcDbLine
 10
5918.721909610674
 20
7351.625139554766
 30
0.0
 11
5918.721909610674
 21
7251.625139554765
 31
0.0
  0
LINE
  5
246FB
330
22742
100
AcDbEntity
  8
寸法
 62
     0
 48
50.0
370
    -2
100
AcDbLine
 10
5918.721909610674
 20
7426.625139554771
 30
0.0
 11
5918.721909610674
 21
7351.625139554766
 31
0.0
  0
INSERT
  5
246FC
330
22742
100
AcDbEntity
  8
寸法
 62
     0
 48
50.0
370
    -2
100
AcDbBlockReference
  2
_DOTSMALL
 10
5918.721909610674
 20
7426.625139554771
 30
0.0
 41
100.0
 42
100.0
 43
100.0
 50
270.0
  0
INSERT
  5
246FD
330
22742
100
AcDbEntity
  8
寸法
 62
     0
 48
50.0
370
    -2
100
AcDbBlockReference
  2
_DOTSMALL
 10
5918.721909610674
 20
7351.625139554766
 30
0.0
 41
100.0
 42
100.0
 43
100.0
 50
90.0
  0
MTEXT
  5
246FE
330
22742
100
AcDbEntity
  8
寸法
 62
     7
 48
50.0
100
AcDbMText
 10
5818.721909610673
 20
7389.12513955477
 30
0.0
 40
120.0
 41
0.0
 71
     5
 72
     1
  1
\A1;c
  7
STYLE1
 11
0.0000000000000001
 21
1.0
 31
0.0
 73
     1
 44
1.0
1001
ACAD
1000
MTEXTBEGIN
1070
    73
1070
     1
1070
    44
1040
1.0
1070
    74
1070
     0
1000
MTEXTEND
  0
POINT
  5
246FF
330
22742
100
AcDbEntity
  8
DEFPOINTS
 62
     0
 48
50.0
100
AcDbPoint
 10
6170.665006330069
 20
7426.625139554771
 30
0.0
  0
POINT
  5
24700
330
22742
100
AcDbEntity
  8
DEFPOINTS
 62
     0
 48
50.0
100
AcDbPoint
 10
6793.600000000001
 20
7351.625139554764
 30
0.0
  0
POINT
  5
24701
330
22742
100
AcDbEntity
  8
DEFPOINTS
 62
     0
 48
50.0
100
AcDbPoint
 10
5918.721909610674
 20
7351.625139554766
 30
0.0
  0
ENDBLK
  5
2274F
330
22742
100
AcDbEntity
  8
0
 48
50.0
100
AcDbBlockEnd
  0
BLOCK
  5
22768
330
2275C
100
AcDbEntity
  8
0
 48
50.0
100
AcDbBlockBegin
  2
*D26
 70
     1
 10
0.0
 20
0.0
 30
0.0
  3
*D26
  1

  0
LINE
  5
246EC
330
2275C
100
AcDbEntity
  8
寸法
 62
     0
 48
50.0
370
    -2
100
AcDbLine
 10
6773.6
 20
6391.625139554765
 30
0.0
 11
5858.721909610675
 21
6391.625139554765
 31
0.0
  0
LINE
  5
246ED
330
2275C
100
AcDbEntity
  8
寸法
 62
     0
 48
50.0
370
    -2
100
AcDbLine
 10
6150.665006330073
 20
6336.62513955479
 30
0.0
 11
5858.721909610675
 21
6336.62513955479
 31
0.0
  0
LINE
  5
246EE
330
2275C
100
AcDbEntity
  8
寸法
 62
     0
 48
50.0
370
    -2
100
AcDbLine
 10
5918.721909610674
 20
6391.625139554765
 30
0.0
 11
5918.721909610674
 21
6491.625139554765
 31
0.0
  0
LINE
  5
246EF
330
2275C
100
AcDbEntity
  8
寸法
 62
     0
 48
50.0
370
    -2
100
AcDbLine
 10
5918.721909610674
 20
6336.62513955479
 30
0.0
 11
5918.721909610674
 21
6236.62513955479
 31
0.0
  0
LINE
  5
246F0
330
2275C
100
AcDbEntity
  8
寸法
 62
     0
 48
50.0
370
    -2
100
AcDbLine
 10
5918.721909610674
 20
6391.625139554765
 30
0.0
 11
5918.721909610674
 21
6336.62513955479
 31
0.0
  0
INSERT
  5
246F1
330
2275C
100
AcDbEntity
  8
寸法
 62
     0
 48
50.0
370
    -2
100
AcDbBlockReference
  2
_DOTSMALL
 10
5918.721909610674
 20
6391.625139554765
 30
0.0
 41
100.0
 42
100.0
 43
100.0
 50
270.0
  0
INSERT
  5
246F2
330
2275C
100
AcDbEntity
  8
寸法
 62
     0
 48
50.0
370
    -2
100
AcDbBlockReference
  2
_DOTSMALL
 10
5918.721909610674
 20
6336.62513955479
 30
0.0
 41
100.0
 42
100.0
 43
100.0
 50
90.0
  0
MTEXT
  5
246F3
330
2275C
100
AcDbEntity
  8
寸法
 62
     7
 48
50.0
100
AcDbMText
 10
5818.721909610673
 20
6364.125139554779
 30
0.0
 40
120.0
 41
0.0
 71
     5
 72
     1
  1
\A1;b
  7
STYLE1
 11
0.0000000000000001
 21
1.0
 31
0.0
 73
     1
 44
1.0
1001
ACAD
1000
MTEXTBEGIN
1070
    73
1070
     1
1070
    44
1040
1.0
1070
    74
1070
     0
1000
MTEXTEND
  0
POINT
  5
246F4
330
2275C
100
AcDbEntity
  8
DEFPOINTS
 62
     0
 48
50.0
100
AcDbPoint
 10
6793.600000000001
 20
6391.625139554765
 30
0.0
  0
POINT
  5
246F5
330
2275C
100
AcDbEntity
  8
DEFPOINTS
 62
     0
 48
50.0
100
AcDbPoint
 10
6170.665006330073
 20
6336.62513955479
 30
0.0
  0
POINT
  5
246F6
330
2275C
100
AcDbEntity
  8
DEFPOINTS
 62
     0
 48
50.0
100
AcDbPoint
 10
5918.721909610674
 20
6336.62513955479
 30
0.0
  0
ENDBLK
  5
22769
330
2275C
100
AcDbEntity
  8
0
 48
50.0
100
AcDbBlockEnd
  0
BLOCK
  5
239FE
330
239F3
100
AcDbEntity
  8
0
 48
50.0
100
AcDbBlockBegin
  2
*D27
 70
     1
 10
0.0
 20
0.0
 30
0.0
  3
*D27
  1

  0
LINE
  5
246E2
330
239F3
100
AcDbEntity
  8
寸法
 62
     0
 48
50.0
370
    -2
100
AcDbLine
 10
9178.854682011641
 20
7351.62513955471
 30
0.0
 11
8938.957501082452
 21
7351.62513955471
 31
0.0
  0
LINE
  5
246E3
330
239F3
100
AcDbEntity
  8
寸法
 62
     0
 48
50.0
370
    -2
100
AcDbLine
 10
9178.854682011641
 20
7151.62513955471
 30
0.0
 11
8938.957501082452
 21
7151.62513955471
 31
0.0
  0
LINE
  5
246E4
330
239F3
100
AcDbEntity
  8
寸法
 62
     0
 48
50.0
370
    -2
100
AcDbLine
 10
8998.957501082452
 20
7151.62513955471
 30
0.0
 11
8998.957501082452
 21
7351.62513955471
 31
0.0
  0
LINE
  5
246E5
330
239F3
100
AcDbEntity
  8
寸法
 62
     0
 48
50.0
370
    -2
100
AcDbLine
 10
8998.957501082452
 20
7351.62513955471
 30
0.0
 11
8998.957501082452
 21
7750.766871838175
 31
0.0
  0
INSERT
  5
246E6
330
239F3
100
AcDbEntity
  8
寸法
 62
     0
 48
50.0
370
    -2
100
AcDbBlockReference
  2
_DOTSMALL
 10
8998.957501082452
 20
7151.62513955471
 30
0.0
 41
100.0
 42
100.0
 43
100.0
 50
270.0
  0
INSERT
  5
246E7
330
239F3
100
AcDbEntity
  8
寸法
 62
     0
 48
50.0
370
    -2
100
AcDbBlockReference
  2
_DOTSMALL
 10
8998.957501082452
 20
7351.62513955471
 30
0.0
 41
100.0
 42
100.0
 43
100.0
 50
90.0
  0
MTEXT
  5
246E8
330
239F3
100
AcDbEntity
  8
寸法
 62
     7
 48
50.0
100
AcDbMText
 10
8898.945690058829
 20
7601.196005696444
 30
0.0
 40
120.0
 41
0.0
 71
     5
 72
     1
  1
\A1;200
  7
STYLE1
 11
0.0000000000000001
 21
1.0
 31
0.0
 73
     1
 44
1.0
1001
ACAD
1000
MTEXTBEGIN
1070
    73
1070
     1
1070
    44
1040
1.0
1070
    74
1070
     0
1000
MTEXTEND
  0
POINT
  5
246E9
330
239F3
100
AcDbEntity
  8
DEFPOINTS
 62
     0
 48
50.0
100
AcDbPoint
 10
9198.85468201164
 20
7351.62513955471
 30
0.0
  0
POINT
  5
246EA
330
239F3
100
AcDbEntity
  8
DEFPOINTS
 62
     0
 48
50.0
100
AcDbPoint
 10
9198.85468201164
 20
7151.62513955471
 30
0.0
  0
POINT
  5
246EB
330
239F3
100
AcDbEntity
  8
DEFPOINTS
 62
     0
 48
50.0
100
AcDbPoint
 10
8998.957501082452
 20
7151.62513955471
 30
0.0
  0
ENDBLK
  5
239FF
330
239F3
100
AcDbEntity
  8
0
 48
50.0
100
AcDbBlockEnd
  0
BLOCK
  5
23A2E
330
23A23
100
AcDbEntity
  8
0
 48
50.0
100
AcDbBlockBegin
  2
*D28
 70
     1
 10
0.0
 20
0.0
 30
0.0
  3
*D28
  1

  0
LINE
  5
2478E
330
23A23
100
AcDbEntity
  8
寸法
 62
     0
 48
50.0
370
    -2
100
AcDbLine
 10
9253.6
 20
6671.625139554736
 30
0.0
 11
8938.957501082452
 21
6671.625139554736
 31
0.0
  0
LINE
  5
2478F
330
23A23
100
AcDbEntity
  8
寸法
 62
     0
 48
50.0
370
    -2
100
AcDbLine
 10
9253.6
 20
6391.625139554729
 30
0.0
 11
8938.957501082452
 21
6391.625139554729
 31
0.0
  0
LINE
  5
24790
330
23A23
100
AcDbEntity
  8
寸法
 62
     0
 48
50.0
370
    -2
100
AcDbLine
 10
8998.957501082452
 20
6671.625139554736
 30
0.0
 11
8998.957501082452
 21
6391.625139554729
 31
0.0
  0
LINE
  5
24791
330
23A23
100
AcDbEntity
  8
寸法
 62
     0
 48
50.0
370
    -2
100
AcDbLine
 10
8998.957501082452
 20
6391.625139554729
 30
0.0
 11
8998.957501082452
 21
5992.483407271265
 31
0.0
  0
INSERT
  5
24792
330
23A23
100
AcDbEntity
  8
寸法
 62
     0
 48
50.0
370
    -2
100
AcDbBlockReference
  2
_DOTSMALL
 10
8998.957501082452
 20
6671.625139554736
 30
0.0
 41
100.0
 42
100.0
 43
100.0
 50
90.0
  0
INSERT
  5
24793
330
23A23
100
AcDbEntity
  8
寸法
 62
     0
 48
50.0
370
    -2
100
AcDbBlockReference
  2
_DOTSMALL
 10
8998.957501082452
 20
6391.625139554729
 30
0.0
 41
100.0
 42
100.0
 43
100.0
 50
270.0
  0
MTEXT
  5
24794
330
23A23
100
AcDbEntity
  8
寸法
 62
     7
 48
50.0
100
AcDbMText
 10
8898.945690058829
 20
6142.054273412998
 30
0.0
 40
120.0
 41
0.0
 71
     5
 72
     1
  1
\A1;280
  7
STYLE1
 11
0.0000000000000001
 21
1.0
 31
0.0
 73
     1
 44
1.0
1001
ACAD
1000
MTEXTBEGIN
1070
    73
1070
     1
1070
    44
1040
1.0
1070
    74
1070
     0
1000
MTEXTEND
  0
POINT
  5
24795
330
23A23
100
AcDbEntity
  8
DEFPOINTS
 62
     0
 48
50.0
100
AcDbPoint
 10
9273.6
 20
6671.625139554736
 30
0.0
  0
POINT
  5
24796
330
23A23
100
AcDbEntity
  8
DEFPOINTS
 62
     0
 48
50.0
100
AcDbPoint
 10
9273.6
 20
6391.625139554729
 30
0.0
  0
POINT
  5
24797
330
23A23
100
AcDbEntity
  8
DEFPOINTS
 62
     0
 48
50.0
100
AcDbPoint
 10
8998.957501082452
 20
6391.625139554729
 30
0.0
  0
ENDBLK
  5
23A2F
330
23A23
100
AcDbEntity
  8
0
 48
50.0
100
AcDbBlockEnd
  0
BLOCK
  5
23AE9
330
23ADE
100
AcDbEntity
  8
0
 48
50.0
100
AcDbBlockBegin
  2
*D29
 70
     1
 10
0.0
 20
0.0
 30
0.0
  3
*D29
  1

  0
LINE
  5
247D9
330
23ADE
100
AcDbEntity
  8
寸法
 62
     0
 48
50.0
370
    -2
100
AcDbLine
 10
9653.6
 20
7068.306245622941
 30
0.0
 11
9653.6
 21
7011.312981584108
 31
0.0
  0
LINE
  5
247DA
330
23ADE
100
AcDbEntity
  8
寸法
 62
     0
 48
50.0
370
    -2
100
AcDbLine
 10
9533.599999999999
 20
7091.312981584107
 30
0.0
 11
9533.599999999999
 21
7131.312981584108
 31
0.0
  0
LINE
  5
247DB
330
23ADE
100
AcDbEntity
  8
寸法
 62
     0
 48
50.0
370
    -2
100
AcDbLine
 10
9533.599999999999
 20
7071.312981584107
 30
0.0
 11
9653.6
 21
7071.312981584107
 31
0.0
  0
LINE
  5
247DC
330
23ADE
100
AcDbEntity
  8
寸法
 62
     0
 48
50.0
370
    -2
100
AcDbLine
 10
9653.6
 20
7071.312981584107
 30
0.0
 11
10059.7062992126
 21
7071.312981584107
 31
0.0
  0
INSERT
  5
247DD
330
23ADE
100
AcDbEntity
  8
寸法
 62
     0
 48
50.0
370
    -2
100
AcDbBlockReference
  2
_DOTSMALL
 10
9533.599999999999
 20
7071.312981584107
 30
0.0
 41
100.0
 42
100.0
 43
100.0
 50
180.0
  0
INSERT
  5
247DE
330
23ADE
100
AcDbEntity
  8
寸法
 62
     0
 48
50.0
370
    -2
100
AcDbBlockReference
  2
_DOTSMALL
 10
9653.6
 20
7071.312981584107
 30
0.0
 41
100.0
 42
100.0
 43
100.0
  0
MTEXT
  5
247DF
330
23ADE
100
AcDbEntity
  8
寸法
 62
     7
 48
50.0
100
AcDbMText
 10
9923.659055118113
 20
7171.32479260773
 30
0.0
 40
120.0
 41
0.0
 71
     5
 72
     1
  1
\A1;120
  7
STYLE1
 73
     1
 44
1.0
1001
ACAD
1000
MTEXTBEGIN
1070
    73
1070
     1
1070
    44
1040
1.0
1070
    74
1070
     0
1000
MTEXTEND
  0
POINT
  5
247E0
330
23ADE
100
AcDbEntity
  8
DEFPOINTS
 62
     0
 48
50.0
100
AcDbPoint
 10
9653.6
 20
7088.306245622939
 30
0.0
  0
POINT
  5
247E1
330
23ADE
100
AcDbEntity
  8
DEFPOINTS
 62
     0
 48
50.0
100
AcDbPoint
 10
9533.599999999999
 20
7071.312981584107
 30
0.0
  0
POINT
  5
247E2
330
23ADE
100
AcDbEntity
  8
DEFPOINTS
 62
     0
 48
50.0
100
AcDbPoint
 10
9533.599999999999
 20
7071.312981584107
 30
0.0
  0
ENDBLK
  5
23AEA
330
23ADE
100
AcDbEntity
  8
0
 48
50.0
100
AcDbBlockEnd
  0
BLOCK
  5
240A9
330
2409E
100
AcDbEntity
  8
0
 48
50.0
100
AcDbBlockBegin
  2
*D30
 70
     1
 10
0.0
 20
0.0
 30
0.0
  3
*D30
  1

  0
LINE
  5
246A9
330
2409E
100
AcDbEntity
  8
寸法
 62
     0
 48
50.0
370
    -2
100
AcDbLine
 10
7347.7654751409
 20
6391.625139554731
 30
0.0
 11
7216.285990614302
 21
6391.625139554731
 31
0.0
  0
LINE
  5
246AA
330
2409E
100
AcDbEntity
  8
寸法
 62
     0
 48
50.0
370
    -2
100
AcDbLine
 10
7678.600000000007
 20
6871.62513955472
 30
0.0
 11
7216.285990614302
 21
6871.62513955472
 31
0.0
  0
LINE
  5
246AB
330
2409E
100
AcDbEntity
  8
寸法
 62
     0
 48
50.0
370
    -2
100
AcDbLine
 10
7276.285990614302
 20
6871.62513955472
 30
0.0
 11
7276.285990614302
 21
6391.625139554731
 31
0.0
  0
LINE
  5
246AC
330
2409E
100
AcDbEntity
  8
寸法
 62
     0
 48
50.0
370
    -2
100
AcDbLine
 10
7276.285990614302
 20
6391.625139554731
 30
0.0
 11
7276.285990614302
 21
5945.018840342132
 31
0.0
  0
INSERT
  5
246AD
330
2409E
100
AcDbEntity
  8
寸法
 62
     0
 48
50.0
370
    -2
100
AcDbBlockReference
  2
_DOTSMALL
 10
7276.285990614302
 20
6871.62513955472
 30
0.0
 41
100.0
 42
100.0
 43
100.0
 50
90.0
  0
INSERT
  5
246AE
330
2409E
100
AcDbEntity
  8
寸法
 62
     0
 48
50.0
370
    -2
100
AcDbBlockReference
  2
_DOTSMALL
 10
7276.285990614302
 20
6391.625139554731
 30
0.0
 41
100.0
 42
100.0
 43
100.0
 50
270.0
  0
MTEXT
  5
246AF
330
2409E
100
AcDbEntity
  8
寸法
 62
     7
 48
50.0
100
AcDbMText
 10
7176.2859906143
 20
6099.066084436621
 30
0.0
 40
120.0
 41
0.0
 71
     5
 72
     1
  1
\A1;480
  7
STYLE1
 11
0.0000000000000001
 21
1.0
 31
0.0
 73
     1
 44
1.0
1001
ACAD
1000
MTEXTBEGIN
1070
    73
1070
     1
1070
    44
1040
1.0
1070
    74
1070
     0
1000
MTEXTEND
  0
POINT
  5
246B0
330
2409E
100
AcDbEntity
  8
DEFPOINTS
 62
     0
 48
50.0
100
AcDbPoint
 10
7367.765475140901
 20
6391.625139554731
 30
0.0
  0
POINT
  5
246B1
330
2409E
100
AcDbEntity
  8
DEFPOINTS
 62
     0
 48
50.0
100
AcDbPoint
 10
7698.600000000007
 20
6871.62513955472
 30
0.0
  0
POINT
  5
246B2
330
2409E
100
AcDbEntity
  8
DEFPOINTS
 62
     0
 48
50.0
100
AcDbPoint
 10
7276.285990614302
 20
6871.62513955472
 30
0.0
  0
ENDBLK
  5
240AA
330
2409E
100
AcDbEntity
  8
0
 48
50.0
100
AcDbBlockEnd
  0
BLOCK
  5
240B5
330
240AB
100
AcDbEntity
  8
0
 48
50.0
100
AcDbBlockBegin
  2
*D31
 70
     1
 10
0.0
 20
0.0
 30
0.0
  3
*D31
  1

  0
LINE
  5
246A0
330
240AB
100
AcDbEntity
  8
寸法
 62
     0
 48
50.0
370
    -2
100
AcDbLine
 10
6773.6
 20
7351.62513955472
 30
0.0
 11
5858.721909610675
 21
7351.625139554721
 31
0.0
  0
LINE
  5
246A1
330
240AB
100
AcDbEntity
  8
寸法
 62
     0
 48
50.0
370
    -2
100
AcDbLine
 10
6773.6
 20
6391.625139554721
 30
0.0
 11
5858.721909610675
 21
6391.625139554721
 31
0.0
  0
LINE
  5
246A2
330
240AB
100
AcDbEntity
  8
寸法
 62
     0
 48
50.0
370
    -2
100
AcDbLine
 10
5918.721909610674
 20
7351.625139554721
 30
0.0
 11
5918.721909610674
 21
6391.625139554721
 31
0.0
  0
INSERT
  5
246A3
330
240AB
100
AcDbEntity
  8
寸法
 62
     0
 48
50.0
370
    -2
100
AcDbBlockReference
  2
_DOTSMALL
 10
5918.721909610674
 20
7351.625139554721
 30
0.0
 41
100.0
 42
100.0
 43
100.0
 50
90.0
  0
INSERT
  5
246A4
330
240AB
100
AcDbEntity
  8
寸法
 62
     0
 48
50.0
370
    -2
100
AcDbBlockReference
  2
_DOTSMALL
 10
5918.721909610674
 20
6391.625139554721
 30
0.0
 41
100.0
 42
100.0
 43
100.0
 50
270.0
  0
MTEXT
  5
246A5
330
240AB
100
AcDbEntity
  8
寸法
 62
     7
 48
50.0
100
AcDbMText
 10
5818.721909610673
 20
6909.125139554721
 30
0.0
 40
120.0
 41
0.0
 71
     5
 72
     1
  1
\A1;960
  7
STYLE1
 11
0.0000000000000001
 21
1.0
 31
0.0
 73
     1
 44
1.0
1001
ACAD
1000
MTEXTBEGIN
1070
    73
1070
     1
1070
    44
1040
1.0
1070
    74
1070
     0
1000
MTEXTEND
  0
POINT
  5
246A6
330
240AB
100
AcDbEntity
  8
DEFPOINTS
 62
     0
 48
50.0
100
AcDbPoint
 10
6793.600000000001
 20
7351.62513955472
 30
0.0
  0
POINT
  5
246A7
330
240AB
100
AcDbEntity
  8
DEFPOINTS
 62
     0
 48
50.0
100
AcDbPoint
 10
6793.600000000001
 20
6391.625139554721
 30
0.0
  0
POINT
  5
246A8
330
240AB
100
AcDbEntity
  8
DEFPOINTS
 62
     0
 48
50.0
100
AcDbPoint
 10
5918.721909610674
 20
6391.625139554721
 30
0.0
  0
ENDBLK
  5
240B6
330
240AB
100
AcDbEntity
  8
0
 48
50.0
100
AcDbBlockEnd
  0
BLOCK
  5
240C1
330
240B7
100
AcDbEntity
  8
0
 48
50.0
100
AcDbBlockBegin
  2
*D32
 70
     1
 10
0.0
 20
0.0
 30
0.0
  3
*D32
  1

  0
LINE
  5
2473C
330
240B7
100
AcDbEntity
  8
寸法
 62
     0
 48
50.0
370
    -2
100
AcDbLine
 10
6846.600000000001
 20
7228.625139554721
 30
0.0
 11
6110.665006330073
 21
7228.625139554721
 31
0.0
  0
LINE
  5
2473D
330
240B7
100
AcDbEntity
  8
寸法
 62
     0
 48
50.0
370
    -2
100
AcDbLine
 10
6846.600000000008
 20
6589.625139554724
 30
0.0
 11
6110.665006330073
 21
6589.625139554725
 31
0.0
  0
LINE
  5
2473E
330
240B7
100
AcDbEntity
  8
寸法
 62
     0
 48
50.0
370
    -2
100
AcDbLine
 10
6170.665006330073
 20
7228.625139554721
 30
0.0
 11
6170.665006330073
 21
6589.625139554724
 31
0.0
  0
INSERT
  5
2473F
330
240B7
100
AcDbEntity
  8
寸法
 62
     0
 48
50.0
370
    -2
100
AcDbBlockReference
  2
_DOTSMALL
 10
6170.665006330073
 20
7228.625139554721
 30
0.0
 41
100.0
 42
100.0
 43
100.0
 50
90.0
  0
INSERT
  5
24740
330
240B7
100
AcDbEntity
  8
寸法
 62
     0
 48
50.0
370
    -2
100
AcDbBlockReference
  2
_DOTSMALL
 10
6170.665006330073
 20
6589.625139554724
 30
0.0
 41
100.0
 42
100.0
 43
100.0
 50
270.0
  0
MTEXT
  5
24741
330
240B7
100
AcDbEntity
  8
寸法
 62
     7
 48
50.0
100
AcDbMText
 10
6070.665006330071
 20
6909.125139554721
 30
0.0
 40
120.0
 41
0.0
 71
     5
 72
     1
  1
\A1;639
  7
STYLE1
 11
0.0000000000000001
 21
1.0
 31
0.0
 73
     1
 44
1.0
1001
ACAD
1000
MTEXTBEGIN
1070
    73
1070
     1
1070
    44
1040
1.0
1070
    74
1070
     0
1000
MTEXTEND
  0
POINT
  5
24742
330
240B7
100
AcDbEntity
  8
DEFPOINTS
 62
     0
 48
50.0
100
AcDbPoint
 10
6866.600000000001
 20
7228.625139554721
 30
0.0
  0
POINT
  5
24743
330
240B7
100
AcDbEntity
  8
DEFPOINTS
 62
     0
 48
50.0
100
AcDbPoint
 10
6866.600000000008
 20
6589.625139554724
 30
0.0
  0
POINT
  5
24744
330
240B7
100
AcDbEntity
  8
DEFPOINTS
 62
     0
 48
50.0
100
AcDbPoint
 10
6170.665006330073
 20
6589.625139554724
 30
0.0
  0
ENDBLK
  5
240C2
330
240B7
100
AcDbEntity
  8
0
 48
50.0
100
AcDbBlockEnd
  0
BLOCK
  5
240CD
330
240C3
100
AcDbEntity
  8
0
 48
50.0
100
AcDbBlockBegin
  2
*D33
 70
     1
 10
0.0
 20
0.0
 30
0.0
  3
*D33
  1

  0
LINE
  5
2468E
330
240C3
100
AcDbEntity
  8
寸法
 62
     0
 48
50.0
370
    -2
100
AcDbLine
 10
6773.6
 20
6391.625139554657
 30
0.0
 11
6620.512673767878
 21
6391.625139554657
 31
0.0
  0
LINE
  5
2468F
330
240C3
100
AcDbEntity
  8
寸法
 62
     0
 48
50.0
370
    -2
100
AcDbLine
 10
7129.325326928806
 20
5671.625139554657
 30
0.0
 11
6620.512673767878
 21
5671.625139554657
 31
0.0
  0
LINE
  5
24690
330
240C3
100
AcDbEntity
  8
寸法
 62
     0
 48
50.0
370
    -2
100
AcDbLine
 10
6680.512673767879
 20
6391.625139554657
 30
0.0
 11
6680.512673767878
 21
5671.625139554657
 31
0.0
  0
INSERT
  5
24691
330
240C3
100
AcDbEntity
  8
寸法
 62
     0
 48
50.0
370
    -2
100
AcDbBlockReference
  2
_DOTSMALL
 10
6680.512673767879
 20
6391.625139554657
 30
0.0
 41
100.0
 42
100.0
 43
100.0
 50
90.0
  0
INSERT
  5
24692
330
240C3
100
AcDbEntity
  8
寸法
 62
     0
 48
50.0
370
    -2
100
AcDbBlockReference
  2
_DOTSMALL
 10
6680.512673767878
 20
5671.625139554657
 30
0.0
 41
100.0
 42
100.0
 43
100.0
 50
270.0
  0
MTEXT
  5
24693
330
240C3
100
AcDbEntity
  8
寸法
 62
     7
 48
50.0
100
AcDbMText
 10
6580.500862744255
 20
6031.625139554659
 30
0.0
 40
120.0
 41
0.0
 71
     5
 72
     1
  1
\A1;扉の出720
  7
STYLE1
 11
0.0000000000000001
 21
1.0
 31
0.0
 73
     1
 44
1.0
1001
ACAD
1000
MTEXTBEGIN
1070
    73
1070
     1
1070
    44
1040
1.0
1070
    74
1070
     0
1000
MTEXTEND
  0
POINT
  5
24694
330
240C3
100
AcDbEntity
  8
DEFPOINTS
 62
     0
 48
50.0
100
AcDbPoint
 10
6793.600000000001
 20
6391.625139554657
 30
0.0
  0
POINT
  5
24695
330
240C3
100
AcDbEntity
  8
DEFPOINTS
 62
     0
 48
50.0
100
AcDbPoint
 10
7149.325326928805
 20
5671.625139554657
 30
0.0
  0
POINT
  5
24696
330
240C3
100
AcDbEntity
  8
DEFPOINTS
 62
     0
 48
50.0
100
AcDbPoint
 10
6680.512673767878
 20
5671.625139554657
 30
0.0
  0
ENDBLK
  5
240CE
330
240C3
100
AcDbEntity
  8
0
 48
50.0
100
AcDbBlockEnd
  0
BLOCK
  5
240DA
330
240CF
100
AcDbEntity
  8
0
 48
50.0
100
AcDbBlockBegin
  2
*D34
 70
     1
 10
0.0
 20
0.0
 30
0.0
  3
*D34
  1

  0
LINE
  5
24732
330
240CF
100
AcDbEntity
  8
寸法
 62
     0
 48
50.0
370
    -2
100
AcDbLine
 10
6846.600000000008
 20
6589.625139554724
 30
0.0
 11
6110.665006330073
 21
6589.625139554725
 31
0.0
  0
LINE
  5
24733
330
240CF
100
AcDbEntity
  8
寸法
 62
     0
 48
50.0
370
    -2
100
AcDbLine
 10
6773.6
 20
6391.625139554721
 30
0.0
 11
6110.665006330073
 21
6391.625139554721
 31
0.0
  0
LINE
  5
24734
330
240CF
100
AcDbEntity
  8
寸法
 62
     0
 48
50.0
370
    -2
100
AcDbLine
 10
6170.665006330073
 20
6589.625139554724
 30
0.0
 11
6170.665006330073
 21
6391.625139554721
 31
0.0
  0
LINE
  5
24735
330
240CF
100
AcDbEntity
  8
寸法
 62
     0
 48
50.0
370
    -2
100
AcDbLine
 10
6170.665006330073
 20
6391.625139554721
 30
0.0
 11
6170.665006330072
 21
5919.88453088247
 31
0.0
  0
INSERT
  5
24736
330
240CF
100
AcDbEntity
  8
寸法
 62
     0
 48
50.0
370
    -2
100
AcDbBlockReference
  2
_DOTSMALL
 10
6170.665006330073
 20
6589.625139554724
 30
0.0
 41
100.0
 42
100.0
 43
100.0
 50
90.0
  0
INSERT
  5
24737
330
240CF
100
AcDbEntity
  8
寸法
 62
     0
 48
50.0
370
    -2
100
AcDbBlockReference
  2
_DOTSMALL
 10
6170.665006330073
 20
6391.625139554721
 30
0.0
 41
100.0
 42
100.0
 43
100.0
 50
270.0
  0
MTEXT
  5
24738
330
240CF
100
AcDbEntity
  8
寸法
 62
     7
 48
50.0
100
AcDbMText
 10
6070.665006330071
 20
6056.094190712129
 30
0.0
 40
120.0
 41
0.0
 71
     5
 72
     1
  1
\A1;198
  7
STYLE1
 11
0.0000000000000001
 21
1.0
 31
0.0
 73
     1
 44
1.0
1001
ACAD
1000
MTEXTBEGIN
1070
    73
1070
     1
1070
    44
1040
1.0
1070
    74
1070
     0
1000
MTEXTEND
  0
POINT
  5
24739
330
240CF
100
AcDbEntity
  8
DEFPOINTS
 62
     0
 48
50.0
100
AcDbPoint
 10
6866.600000000008
 20
6589.625139554724
 30
0.0
  0
POINT
  5
2473A
330
240CF
100
AcDbEntity
  8
DEFPOINTS
 62
     0
 48
50.0
100
AcDbPoint
 10
6793.600000000001
 20
6391.625139554721
 30
0.0
  0
POINT
  5
2473B
330
240CF
100
AcDbEntity
  8
DEFPOINTS
 62
     0
 48
50.0
100
AcDbPoint
 10
6170.665006330073
 20
6391.625139554721
 30
0.0
  0
ENDBLK
  5
240DB
330
240CF
100
AcDbEntity
  8
0
 48
50.0
100
AcDbBlockEnd
  0
BLOCK
  5
240F3
330
240E8
100
AcDbEntity
  8
0
 48
50.0
100
AcDbBlockBegin
  2
*D35
 70
     1
 10
0.0
 20
0.0
 30
0.0
  3
*D35
  1

  0
LINE
  5
2467A
330
240E8
100
AcDbEntity
  8
寸法
 62
     0
 48
50.0
370
    -2
100
AcDbLine
 10
6916.600000000001
 20
7298.625139554721
 30
0.0
 11
6916.600000000001
 21
8137.89159764863
 31
0.0
  0
LINE
  5
2467B
330
240E8
100
AcDbEntity
  8
寸法
 62
     0
 48
50.0
370
    -2
100
AcDbLine
 10
6793.600000000001
 20
7371.62513955472
 30
0.0
 11
6793.600000000001
 21
8137.89159764863
 31
0.0
  0
LINE
  5
2467C
330
240E8
100
AcDbEntity
  8
寸法
 62
     0
 48
50.0
370
    -2
100
AcDbLine
 10
6916.600000000001
 20
8077.891597648632
 30
0.0
 11
6793.600000000001
 21
8077.891597648632
 31
0.0
  0
LINE
  5
2467D
330
240E8
100
AcDbEntity
  8
寸法
 62
     0
 48
50.0
370
    -2
100
AcDbLine
 10
6793.600000000001
 20
8077.891597648632
 30
0.0
 11
6382.008116907964
 21
8077.891597648632
 31
0.0
  0
INSERT
  5
2467E
330
240E8
100
AcDbEntity
  8
寸法
 62
     0
 48
50.0
370
    -2
100
AcDbBlockReference
  2
_DOTSMALL
 10
6916.600000000001
 20
8077.891597648632
 30
0.0
 41
100.0
 42
100.0
 43
100.0
  0
INSERT
  5
2467F
330
240E8
100
AcDbEntity
  8
寸法
 62
     0
 48
50.0
370
    -2
100
AcDbBlockReference
  2
_DOTSMALL
 10
6793.600000000001
 20
8077.891597648632
 30
0.0
 41
100.0
 42
100.0
 43
100.0
 50
180.0
  0
MTEXT
  5
24680
330
240E8
100
AcDbEntity
  8
寸法
 62
     7
 48
50.0
100
AcDbMText
 10
6520.493398282202
 20
8177.903408672253
 30
0.0
 40
120.0
 41
0.0
 71
     5
 72
     1
  1
\A1;123
  7
STYLE1
 73
     1
 44
1.0
1001
ACAD
1000
MTEXTBEGIN
1070
    73
1070
     1
1070
    44
1040
1.0
1070
    74
1070
     0
1000
MTEXTEND
  0
POINT
  5
24681
330
240E8
100
AcDbEntity
  8
DEFPOINTS
 62
     0
 48
50.0
100
AcDbPoint
 10
6916.600000000001
 20
7278.625139554721
 30
0.0
  0
POINT
  5
24682
330
240E8
100
AcDbEntity
  8
DEFPOINTS
 62
     0
 48
50.0
100
AcDbPoint
 10
6793.600000000001
 20
7351.62513955472
 30
0.0
  0
POINT
  5
24683
330
240E8
100
AcDbEntity
  8
DEFPOINTS
 62
     0
 48
50.0
100
AcDbPoint
 10
6793.600000000001
 20
8077.891597648632
 30
0.0
  0
ENDBLK
  5
240F4
330
240E8
100
AcDbEntity
  8
0
 48
50.0
100
AcDbBlockEnd
  0
BLOCK
  5
2410D
330
24102
100
AcDbEntity
  8
0
 48
50.0
100
AcDbBlockBegin
  2
*D36
 70
     1
 10
0.0
 20
0.0
 30
0.0
  3
*D36
  1

  0
LINE
  5
24670
330
24102
100
AcDbEntity
  8
寸法
 62
     0
 48
50.0
370
    -2
100
AcDbLine
 10
6773.6
 20
7351.62513955472
 30
0.0
 11
6110.665006330072
 21
7351.625139554721
 31
0.0
  0
LINE
  5
24671
330
24102
100
AcDbEntity
  8
寸法
 62
     0
 48
50.0
370
    -2
100
AcDbLine
 10
6846.600000000001
 20
7228.625139554721
 30
0.0
 11
6110.665006330072
 21
7228.625139554721
 31
0.0
  0
LINE
  5
24672
330
24102
100
AcDbEntity
  8
寸法
 62
     0
 48
50.0
370
    -2
100
AcDbLine
 10
6170.665006330072
 20
7228.625139554721
 30
0.0
 11
6170.665006330072
 21
7351.62513955472
 31
0.0
  0
LINE
  5
24673
330
24102
100
AcDbEntity
  8
寸法
 62
     0
 48
50.0
370
    -2
100
AcDbLine
 10
6170.665006330072
 20
7351.62513955472
 30
0.0
 11
6170.665006330072
 21
7763.217022646758
 31
0.0
  0
INSERT
  5
24674
330
24102
100
AcDbEntity
  8
寸法
 62
     0
 48
50.0
370
    -2
100
AcDbBlockReference
  2
_DOTSMALL
 10
6170.665006330072
 20
7228.625139554721
 30
0.0
 41
100.0
 42
100.0
 43
100.0
 50
270.0
  0
INSERT
  5
24675
330
24102
100
AcDbEntity
  8
寸法
 62
     0
 48
50.0
370
    -2
100
AcDbBlockReference
  2
_DOTSMALL
 10
6170.665006330072
 20
7351.62513955472
 30
0.0
 41
100.0
 42
100.0
 43
100.0
 50
90.0
  0
MTEXT
  5
24676
330
24102
100
AcDbEntity
  8
寸法
 62
     7
 48
50.0
100
AcDbMText
 10
6070.65319530645
 20
7624.731741272521
 30
0.0
 40
120.0
 41
0.0
 71
     5
 72
     1
  1
\A1;123
  7
STYLE1
 11
0.0000000000000001
 21
1.0
 31
0.0
 73
     1
 44
1.0
1001
ACAD
1000
MTEXTBEGIN
1070
    73
1070
     1
1070
    44
1040
1.0
1070
    74
1070
     0
1000
MTEXTEND
  0
POINT
  5
24677
330
24102
100
AcDbEntity
  8
DEFPOINTS
 62
     0
 48
50.0
100
AcDbPoint
 10
6793.600000000001
 20
7351.62513955472
 30
0.0
  0
POINT
  5
24678
330
24102
100
AcDbEntity
  8
DEFPOINTS
 62
     0
 48
50.0
100
AcDbPoint
 10
6866.600000000001
 20
7228.625139554721
 30
0.0
  0
POINT
  5
24679
330
24102
100
AcDbEntity
  8
DEFPOINTS
 62
     0
 48
50.0
100
AcDbPoint
 10
6170.665006330072
 20
7228.625139554721
 30
0.0
  0
ENDBLK
  5
2410E
330
24102
100
AcDbEntity
  8
0
 48
50.0
100
AcDbBlockEnd
  0
BLOCK
  5
24119
330
2410F
100
AcDbEntity
  8
0
 48
50.0
100
AcDbBlockBegin
  2
*D37
 70
     1
 10
0.0
 20
0.0
 30
0.0
  3
*D37
  1

  0
LINE
  5
24667
330
2410F
100
AcDbEntity
  8
寸法
 62
     0
 48
50.0
370
    -2
100
AcDbLine
 10
7748.600000000007
 20
6941.62513955472
 30
0.0
 11
7748.600000000007
 21
7894.233956224969
 31
0.0
  0
LINE
  5
24668
330
2410F
100
AcDbEntity
  8
寸法
 62
     0
 48
50.0
370
    -2
100
AcDbLine
 10
6793.600000000001
 20
7371.62513955472
 30
0.0
 11
6793.600000000001
 21
7894.233956224969
 31
0.0
  0
LINE
  5
24669
330
2410F
100
AcDbEntity
  8
寸法
 62
     0
 48
50.0
370
    -2
100
AcDbLine
 10
7748.600000000007
 20
7834.233956224969
 30
0.0
 11
6793.600000000001
 21
7834.233956224969
 31
0.0
  0
INSERT
  5
2466A
330
2410F
100
AcDbEntity
  8
寸法
 62
     0
 48
50.0
370
    -2
100
AcDbBlockReference
  2
_DOTSMALL
 10
7748.600000000007
 20
7834.233956224969
 30
0.0
 41
100.0
 42
100.0
 43
100.0
  0
INSERT
  5
2466B
330
2410F
100
AcDbEntity
  8
寸法
 62
     0
 48
50.0
370
    -2
100
AcDbBlockReference
  2
_DOTSMALL
 10
6793.600000000001
 20
7834.233956224969
 30
0.0
 41
100.0
 42
100.0
 43
100.0
 50
180.0
  0
MTEXT
  5
2466C
330
2410F
100
AcDbEntity
  8
寸法
 62
     7
 48
50.0
100
AcDbMText
 10
7271.100000000004
 20
7934.233956224969
 30
0.0
 40
120.0
 41
0.0
 71
     5
 72
     1
  1
\A1;955
  7
STYLE1
 73
     1
 44
1.0
1001
ACAD
1000
MTEXTBEGIN
1070
    73
1070
     1
1070
    44
1040
1.0
1070
    74
1070
     0
1000
MTEXTEND
  0
POINT
  5
2466D
330
2410F
100
AcDbEntity
  8
DEFPOINTS
 62
     0
 48
50.0
100
AcDbPoint
 10
7748.600000000007
 20
6921.62513955472
 30
0.0
  0
POINT
  5
2466E
330
2410F
100
AcDbEntity
  8
DEFPOINTS
 62
     0
 48
50.0
100
AcDbPoint
 10
6793.600000000001
 20
7351.62513955472
 30
0.0
  0
POINT
  5
2466F
330
2410F
100
AcDbEntity
  8
DEFPOINTS
 62
     0
 48
50.0
100
AcDbPoint
 10
6793.600000000001
 20
7834.233956224969
 30
0.0
  0
ENDBLK
  5
2411A
330
2410F
100
AcDbEntity
  8
0
 48
50.0
100
AcDbBlockEnd
  0
BLOCK
  5
24130
330
24125
100
AcDbEntity
  8
0
 48
50.0
100
AcDbBlockBegin
  2
*D38
 70
     1
 10
0.0
 20
0.0
 30
0.0
  3
*D38
  1

  0
LINE
  5
2465D
330
24125
100
AcDbEntity
  8
寸法
 62
     0
 48
50.0
370
    -2
100
AcDbLine
 10
7678.600000000007
 20
6871.62513955472
 30
0.0
 11
7216.285990614301
 21
6871.62513955472
 31
0.0
  0
LINE
  5
2465E
330
24125
100
AcDbEntity
  8
寸法
 62
     0
 48
50.0
370
    -2
100
AcDbLine
 10
7347.7654751409
 20
7351.62513955472
 30
0.0
 11
7216.285990614301
 21
7351.62513955472
 31
0.0
  0
LINE
  5
2465F
330
24125
100
AcDbEntity
  8
寸法
 62
     0
 48
50.0
370
    -2
100
AcDbLine
 10
7276.285990614302
 20
6871.62513955472
 30
0.0
 11
7276.285990614302
 21
7351.62513955472
 31
0.0
  0
LINE
  5
24660
330
24125
100
AcDbEntity
  8
寸法
 62
     0
 48
50.0
370
    -2
100
AcDbLine
 10
7276.285990614302
 20
7351.62513955472
 30
0.0
 11
7276.285990614302
 21
7798.231438767318
 31
0.0
  0
INSERT
  5
24661
330
24125
100
AcDbEntity
  8
寸法
 62
     0
 48
50.0
370
    -2
100
AcDbBlockReference
  2
_DOTSMALL
 10
7276.285990614302
 20
6871.62513955472
 30
0.0
 41
100.0
 42
100.0
 43
100.0
 50
270.0
  0
INSERT
  5
24662
330
24125
100
AcDbEntity
  8
寸法
 62
     0
 48
50.0
370
    -2
100
AcDbBlockReference
  2
_DOTSMALL
 10
7276.285990614302
 20
7351.62513955472
 30
0.0
 41
100.0
 42
100.0
 43
100.0
 50
90.0
  0
MTEXT
  5
24663
330
24125
100
AcDbEntity
  8
寸法
 62
     7
 48
50.0
100
AcDbMText
 10
7176.2859906143
 20
7644.184194672833
 30
0.0
 40
120.0
 41
0.0
 71
     5
 72
     1
  1
\A1;480
  7
STYLE1
 11
0.0000000000000001
 21
1.0
 31
0.0
 73
     1
 44
1.0
1001
ACAD
1000
MTEXTBEGIN
1070
    73
1070
     1
1070
    44
1040
1.0
1070
    74
1070
     0
1000
MTEXTEND
  0
POINT
  5
24664
330
24125
100
AcDbEntity
  8
DEFPOINTS
 62
     0
 48
50.0
100
AcDbPoint
 10
7698.600000000007
 20
6871.62513955472
 30
0.0
  0
POINT
  5
24665
330
24125
100
AcDbEntity
  8
DEFPOINTS
 62
     0
 48
50.0
100
AcDbPoint
 10
7367.765475140901
 20
7351.62513955472
 30
0.0
  0
POINT
  5
24666
330
24125
100
AcDbEntity
  8
DEFPOINTS
 62
     0
 48
50.0
100
AcDbPoint
 10
7276.285990614302
 20
7351.62513955472
 30
0.0
  0
ENDBLK
  5
24131
330
24125
100
AcDbEntity
  8
0
 48
50.0
100
AcDbBlockEnd
  0
BLOCK
  5
2414A
330
2413F
100
AcDbEntity
  8
0
 48
50.0
100
AcDbBlockBegin
  2
*D39
 70
     1
 10
0.0
 20
0.0
 30
0.0
  3
*D39
  1

  0
LINE
  5
24653
330
2413F
100
AcDbEntity
  8
寸法
 62
     0
 48
50.0
370
    -2
100
AcDbLine
 10
9653.6
 20
7371.62513955472
 30
0.0
 11
9653.6
 21
8137.89159764863
 31
0.0
  0
LINE
  5
24654
330
2413F
100
AcDbEntity
  8
寸法
 62
     0
 48
50.0
370
    -2
100
AcDbLine
 10
9530.600000000001
 20
7298.625139554721
 30
0.0
 11
9530.600000000001
 21
8137.89159764863
 31
0.0
  0
LINE
  5
24655
330
2413F
100
AcDbEntity
  8
寸法
 62
     0
 48
50.0
370
    -2
100
AcDbLine
 10
9530.600000000001
 20
8077.891597648632
 30
0.0
 11
9653.6
 21
8077.891597648632
 31
0.0
  0
LINE
  5
24656
330
2413F
100
AcDbEntity
  8
寸法
 62
     0
 48
50.0
370
    -2
100
AcDbLine
 10
9653.6
 20
8077.891597648632
 30
0.0
 11
10065.19188309203
 21
8077.891597648632
 31
0.0
  0
INSERT
  5
24657
330
2413F
100
AcDbEntity
  8
寸法
 62
     0
 48
50.0
370
    -2
100
AcDbBlockReference
  2
_DOTSMALL
 10
9530.600000000001
 20
8077.891597648632
 30
0.0
 41
100.0
 42
100.0
 43
100.0
 50
180.0
  0
INSERT
  5
24658
330
2413F
100
AcDbEntity
  8
寸法
 62
     0
 48
50.0
370
    -2
100
AcDbBlockReference
  2
_DOTSMALL
 10
9653.6
 20
8077.891597648632
 30
0.0
 41
100.0
 42
100.0
 43
100.0
  0
MTEXT
  5
24659
330
2413F
100
AcDbEntity
  8
寸法
 62
     7
 48
50.0
100
AcDbMText
 10
9926.706601717798
 20
8177.903408672253
 30
0.0
 40
120.0
 41
0.0
 71
     5
 72
     1
  1
\A1;123
  7
STYLE1
 73
     1
 44
1.0
1001
ACAD
1000
MTEXTBEGIN
1070
    73
1070
     1
1070
    44
1040
1.0
1070
    74
1070
     0
1000
MTEXTEND
  0
POINT
  5
2465A
330
2413F
100
AcDbEntity
  8
DEFPOINTS
 62
     0
 48
50.0
100
AcDbPoint
 10
9653.6
 20
7351.62513955472
 30
0.0
  0
POINT
  5
2465B
330
2413F
100
AcDbEntity
  8
DEFPOINTS
 62
     0
 48
50.0
100
AcDbPoint
 10
9530.600000000001
 20
7278.625139554721
 30
0.0
  0
POINT
  5
2465C
330
2413F
100
AcDbEntity
  8
DEFPOINTS
 62
     0
 48
50.0
100
AcDbPoint
 10
9530.600000000001
 20
8077.891597648632
 30
0.0
  0
ENDBLK
  5
2414B
330
2413F
100
AcDbEntity
  8
0
 48
50.0
100
AcDbBlockEnd
  0
BLOCK
  5
24163
330
24159
100
AcDbEntity
  8
0
 48
50.0
100
AcDbBlockBegin
  2
*D40
 70
     1
 10
0.0
 20
0.0
 30
0.0
  3
*D40
  1

  0
LINE
  5
2464A
330
24159
100
AcDbEntity
  8
寸法
 62
     0
 48
50.0
370
    -2
100
AcDbLine
 10
9653.6
 20
7371.62513955472
 30
0.0
 11
9653.6
 21
7894.233956224969
 31
0.0
  0
LINE
  5
2464B
330
24159
100
AcDbEntity
  8
寸法
 62
     0
 48
50.0
370
    -2
100
AcDbLine
 10
8698.600000000007
 20
6941.62513955472
 30
0.0
 11
8698.600000000007
 21
7894.233956224969
 31
0.0
  0
LINE
  5
2464C
330
24159
100
AcDbEntity
  8
寸法
 62
     0
 48
50.0
370
    -2
100
AcDbLine
 10
9653.6
 20
7834.233956224969
 30
0.0
 11
8698.600000000007
 21
7834.233956224969
 31
0.0
  0
INSERT
  5
2464D
330
24159
100
AcDbEntity
  8
寸法
 62
     0
 48
50.0
370
    -2
100
AcDbBlockReference
  2
_DOTSMALL
 10
9653.6
 20
7834.233956224969
 30
0.0
 41
100.0
 42
100.0
 43
100.0
  0
INSERT
  5
2464E
330
24159
100
AcDbEntity
  8
寸法
 62
     0
 48
50.0
370
    -2
100
AcDbBlockReference
  2
_DOTSMALL
 10
8698.600000000007
 20
7834.233956224969
 30
0.0
 41
100.0
 42
100.0
 43
100.0
 50
180.0
  0
MTEXT
  5
2464F
330
24159
100
AcDbEntity
  8
寸法
 62
     7
 48
50.0
100
AcDbMText
 10
9176.100000000003
 20
7934.233956224969
 30
0.0
 40
120.0
 41
0.0
 71
     5
 72
     1
  1
\A1;955
  7
STYLE1
 73
     1
 44
1.0
1001
ACAD
1000
MTEXTBEGIN
1070
    73
1070
     1
1070
    44
1040
1.0
1070
    74
1070
     0
1000
MTEXTEND
  0
POINT
  5
24650
330
24159
100
AcDbEntity
  8
DEFPOINTS
 62
     0
 48
50.0
100
AcDbPoint
 10
9653.6
 20
7351.62513955472
 30
0.0
  0
POINT
  5
24651
330
24159
100
AcDbEntity
  8
DEFPOINTS
 62
     0
 48
50.0
100
AcDbPoint
 10
8698.600000000007
 20
6921.62513955472
 30
0.0
  0
POINT
  5
24652
330
24159
100
AcDbEntity
  8
DEFPOINTS
 62
     0
 48
50.0
100
AcDbPoint
 10
8698.600000000007
 20
7834.233956224969
 30
0.0
  0
ENDBLK
  5
24164
330
24159
100
AcDbEntity
  8
0
 48
50.0
100
AcDbBlockEnd
  0
BLOCK
  5
24189
330
2417F
100
AcDbEntity
  8
0
 48
50.0
100
AcDbBlockBegin
  2
*D41
 70
     1
 10
0.0
 20
0.0
 30
0.0
  3
*D41
  1

  0
LINE
  5
246C5
330
2417F
100
AcDbEntity
  8
寸法
 62
     0
 48
50.0
370
    -2
100
AcDbLine
 10
7748.600000000007
 20
6941.62513955472
 30
0.0
 11
7748.600000000007
 21
7894.233956224969
 31
0.0
  0
LINE
  5
246C6
330
2417F
100
AcDbEntity
  8
寸法
 62
     0
 48
50.0
370
    -2
100
AcDbLine
 10
8698.600000000007
 20
6941.62513955472
 30
0.0
 11
8698.600000000007
 21
7894.233956224969
 31
0.0
  0
LINE
  5
246C7
330
2417F
100
AcDbEntity
  8
寸法
 62
     0
 48
50.0
370
    -2
100
AcDbLine
 10
7748.600000000007
 20
7834.233956224969
 30
0.0
 11
8698.600000000007
 21
7834.233956224969
 31
0.0
  0
INSERT
  5
246C8
330
2417F
100
AcDbEntity
  8
寸法
 62
     0
 48
50.0
370
    -2
100
AcDbBlockReference
  2
_DOTSMALL
 10
7748.600000000007
 20
7834.233956224969
 30
0.0
 41
100.0
 42
100.0
 43
100.0
 50
180.0
  0
INSERT
  5
246C9
330
2417F
100
AcDbEntity
  8
寸法
 62
     0
 48
50.0
370
    -2
100
AcDbBlockReference
  2
_DOTSMALL
 10
8698.600000000007
 20
7834.233956224969
 30
0.0
 41
100.0
 42
100.0
 43
100.0
  0
MTEXT
  5
246CA
330
2417F
100
AcDbEntity
  8
寸法
 62
     7
 48
50.0
100
AcDbMText
 10
8223.600000000008
 20
7934.233956224969
 30
0.0
 40
120.0
 41
0.0
 71
     5
 72
     1
  1
\A1;950
  7
STYLE1
 73
     1
 44
1.0
1001
ACAD
1000
MTEXTBEGIN
1070
    73
1070
     1
1070
    44
1040
1.0
1070
    74
1070
     0
1000
MTEXTEND
  0
POINT
  5
246CB
330
2417F
100
AcDbEntity
  8
DEFPOINTS
 62
     0
 48
50.0
100
AcDbPoint
 10
7748.600000000007
 20
6921.62513955472
 30
0.0
  0
POINT
  5
246CC
330
2417F
100
AcDbEntity
  8
DEFPOINTS
 62
     0
 48
50.0
100
AcDbPoint
 10
8698.600000000007
 20
6921.62513955472
 30
0.0
  0
POINT
  5
246CD
330
2417F
100
AcDbEntity
  8
DEFPOINTS
 62
     0
 48
50.0
100
AcDbPoint
 10
8698.600000000007
 20
7834.233956224969
 30
0.0
  0
ENDBLK
  5
2418A
330
2417F
100
AcDbEntity
  8
0
 48
50.0
100
AcDbBlockEnd
  0
BLOCK
  5
24195
330
2418B
100
AcDbEntity
  8
0
 48
50.0
100
AcDbBlockBegin
  2
*D42
 70
     1
 10
0.0
 20
0.0
 30
0.0
  3
*D42
  1

  0
LINE
  5
246BC
330
2418B
100
AcDbEntity
  8
寸法
 62
     0
 48
50.0
370
    -2
100
AcDbLine
 10
6793.600000000001
 20
7371.62513955472
 30
0.0
 11
6793.600000000001
 21
8369.845461613639
 31
0.0
  0
LINE
  5
246BD
330
2418B
100
AcDbEntity
  8
寸法
 62
     0
 48
50.0
370
    -2
100
AcDbLine
 10
9653.6
 20
7371.62513955472
 30
0.0
 11
9653.6
 21
8369.845461613639
 31
0.0
  0
LINE
  5
246BE
330
2418B
100
AcDbEntity
  8
寸法
 62
     0
 48
50.0
370
    -2
100
AcDbLine
 10
6793.600000000001
 20
8309.845461613639
 30
0.0
 11
9653.6
 21
8309.845461613639
 31
0.0
  0
INSERT
  5
246BF
330
2418B
100
AcDbEntity
  8
寸法
 62
     0
 48
50.0
370
    -2
100
AcDbBlockReference
  2
_DOTSMALL
 10
6793.600000000001
 20
8309.845461613639
 30
0.0
 41
100.0
 42
100.0
 43
100.0
 50
180.0
  0
INSERT
  5
246C0
330
2418B
100
AcDbEntity
  8
寸法
 62
     0
 48
50.0
370
    -2
100
AcDbBlockReference
  2
_DOTSMALL
 10
9653.6
 20
8309.845461613639
 30
0.0
 41
100.0
 42
100.0
 43
100.0
  0
MTEXT
  5
246C1
330
2418B
100
AcDbEntity
  8
寸法
 62
     7
 48
50.0
100
AcDbMText
 10
8223.600000000001
 20
8409.85727263726
 30
0.0
 40
120.0
 41
0.0
 71
     5
 72
     1
  1
\A1;2860
  7
STYLE1
 73
     1
 44
1.0
1001
ACAD
1000
MTEXTBEGIN
1070
    73
1070
     1
1070
    44
1040
1.0
1070
    74
1070
     0
1000
MTEXTEND
  0
POINT
  5
246C2
330
2418B
100
AcDbEntity
  8
DEFPOINTS
 62
     0
 48
50.0
100
AcDbPoint
 10
6793.600000000001
 20
7351.62513955472
 30
0.0
  0
POINT
  5
246C3
330
2418B
100
AcDbEntity
  8
DEFPOINTS
 62
     0
 48
50.0
100
AcDbPoint
 10
9653.6
 20
7351.62513955472
 30
0.0
  0
POINT
  5
246C4
330
2418B
100
AcDbEntity
  8
DEFPOINTS
 62
     0
 48
50.0
100
AcDbPoint
 10
9653.6
 20
8309.845461613639
 30
0.0
  0
ENDBLK
  5
24196
330
2418B
100
AcDbEntity
  8
0
 48
50.0
100
AcDbBlockEnd
  0
BLOCK
  5
241A0
330
24197
100
AcDbEntity
  8
0
 48
50.0
100
AcDbBlockBegin
  2
*D43
 70
     1
 10
0.0
 20
0.0
 30
0.0
  3
*D43
  1

  0
LINE
  5
246B3
330
24197
100
AcDbEntity
  8
寸法
 62
     0
 48
50.0
370
    -2
100
AcDbLine
 10
9530.600000000001
 20
7298.625139554721
 30
0.0
 11
9530.600000000001
 21
8137.89159764863
 31
0.0
  0
LINE
  5
246B4
330
24197
100
AcDbEntity
  8
寸法
 62
     0
 48
50.0
370
    -2
100
AcDbLine
 10
6916.600000000001
 20
7298.625139554721
 30
0.0
 11
6916.600000000001
 21
8137.89159764863
 31
0.0
  0
LINE
  5
246B5
330
24197
100
AcDbEntity
  8
寸法
 62
     0
 48
50.0
370
    -2
100
AcDbLine
 10
9530.600000000001
 20
8077.891597648632
 30
0.0
 11
6916.600000000001
 21
8077.891597648632
 31
0.0
  0
INSERT
  5
246B6
330
24197
100
AcDbEntity
  8
寸法
 62
     0
 48
50.0
370
    -2
100
AcDbBlockReference
  2
_DOTSMALL
 10
9530.600000000001
 20
8077.891597648632
 30
0.0
 41
100.0
 42
100.0
 43
100.0
  0
INSERT
  5
246B7
330
24197
100
AcDbEntity
  8
寸法
 62
     0
 48
50.0
370
    -2
100
AcDbBlockReference
  2
_DOTSMALL
 10
6916.600000000001
 20
8077.891597648632
 30
0.0
 41
100.0
 42
100.0
 43
100.0
 50
180.0
  0
MTEXT
  5
246B8
330
24197
100
AcDbEntity
  8
寸法
 62
     7
 48
50.0
100
AcDbMText
 10
8223.600000000001
 20
8177.903408672253
 30
0.0
 40
120.0
 41
0.0
 71
     5
 72
     1
  1
\A1;2614
  7
STYLE1
 73
     1
 44
1.0
1001
ACAD
1000
MTEXTBEGIN
1070
    73
1070
     1
1070
    44
1040
1.0
1070
    74
1070
     0
1000
MTEXTEND
  0
POINT
  5
246B9
330
24197
100
AcDbEntity
  8
DEFPOINTS
 62
     0
 48
50.0
100
AcDbPoint
 10
9530.600000000001
 20
7278.625139554721
 30
0.0
  0
POINT
  5
246BA
330
24197
100
AcDbEntity
  8
DEFPOINTS
 62
     0
 48
50.0
100
AcDbPoint
 10
6916.600000000001
 20
7278.625139554721
 30
0.0
  0
POINT
  5
246BB
330
24197
100
AcDbEntity
  8
DEFPOINTS
 62
     0
 48
50.0
100
AcDbPoint
 10
6916.600000000001
 20
8077.891597648632
 30
0.0
  0
ENDBLK
  5
241A1
330
24197
100
AcDbEntity
  8
0
 48
50.0
100
AcDbBlockEnd
  0
BLOCK
  5
24AA5
330
24A9B
100
AcDbEntity
  8
0
 48
50.0
100
AcDbBlockBegin
  2
*D50
 70
     1
 10
0.0
 20
0.0
 30
0.0
  3
*D50
  1

  0
LINE
  5
24AE5
330
24A9B
100
AcDbEntity
  8
寸法
 62
     0
 48
50.0
370
    -2
100
AcDbLine
 10
6277.514523399414
 20
1289.537475201478
 30
0.0
 11
6277.514523399414
 21
839.1078371963176
 31
0.0
  0
LINE
  5
24AE6
330
24A9B
100
AcDbEntity
  8
寸法
 62
     0
 48
50.0
370
    -2
100
AcDbLine
 10
6725.514523399414
 20
1289.537475201478
 30
0.0
 11
6725.514523399414
 21
839.1078371963176
 31
0.0
  0
LINE
  5
24AE7
330
24A9B
100
AcDbEntity
  8
寸法
 62
     0
 48
50.0
370
    -2
100
AcDbLine
 10
6277.514523399414
 20
899.1078371963176
 30
0.0
 11
6725.514523399414
 21
899.1078371963176
 31
0.0
  0
INSERT
  5
24AE8
330
24A9B
100
AcDbEntity
  8
寸法
 62
     0
 48
50.0
370
    -2
100
AcDbBlockReference
  2
_DOTSMALL
 10
6277.514523399414
 20
899.1078371963176
 30
0.0
 41
100.0
 42
100.0
 43
100.0
 50
180.0
  0
INSERT
  5
24AE9
330
24A9B
100
AcDbEntity
  8
寸法
 62
     0
 48
50.0
370
    -2
100
AcDbBlockReference
  2
_DOTSMALL
 10
6725.514523399414
 20
899.1078371963176
 30
0.0
 41
100.0
 42
100.0
 43
100.0
  0
MTEXT
  5
24AEA
330
24A9B
100
AcDbEntity
  8
寸法
 62
     7
 48
50.0
100
AcDbMText
 10
6481.41776472119
 20
999.1078371963176
 30
0.0
 40
120.0
 41
0.0
 71
     5
 72
     1
  1
\A1;300
  7
STYLE1
 73
     1
 44
1.0
1001
ACAD
1000
MTEXTBEGIN
1070
    73
1070
     1
1070
    44
1040
1.0
1070
    74
1070
     0
1000
MTEXTEND
  0
POINT
  5
24AEB
330
24A9B
100
AcDbEntity
  8
DEFPOINTS
 62
     0
 48
50.0
100
AcDbPoint
 10
6277.514523399414
 20
1309.537475201478
 30
0.0
  0
POINT
  5
24AEC
330
24A9B
100
AcDbEntity
  8
DEFPOINTS
 62
     0
 48
50.0
100
AcDbPoint
 10
6725.514523399414
 20
1309.537475201478
 30
0.0
  0
POINT
  5
24AED
330
24A9B
100
AcDbEntity
  8
DEFPOINTS
 62
     0
 48
50.0
100
AcDbPoint
 10
6725.514523399414
 20
899.1078371963176
 30
0.0
  0
ENDBLK
  5
24AA6
330
24A9B
100
AcDbEntity
  8
0
 48
50.0
100
AcDbBlockEnd
  0
BLOCK
  5
24AB1
330
24AA7
100
AcDbEntity
  8
0
 48
50.0
100
AcDbBlockBegin
  2
*D51
 70
     1
 10
0.0
 20
0.0
 30
0.0
  3
*D51
  1

  0
LINE
  5
24AEE
330
24AA7
100
AcDbEntity
  8
寸法
 62
     0
 48
50.0
370
    -2
100
AcDbLine
 10
6385.514523399415
 20
2221.537475201478
 30
0.0
 11
5610.477284837675
 21
2221.537475201478
 31
0.0
  0
LINE
  5
24AEF
330
24AA7
100
AcDbEntity
  8
寸法
 62
     0
 48
50.0
370
    -2
100
AcDbLine
 10
6177.514523399418
 20
1437.537475201478
 30
0.0
 11
5610.477284837674
 21
1437.537475201478
 31
0.0
  0
LINE
  5
24AF0
330
24AA7
100
AcDbEntity
  8
寸法
 62
     0
 48
50.0
370
    -2
100
AcDbLine
 10
5670.477284837676
 20
2221.537475201478
 30
0.0
 11
5670.477284837674
 21
1437.537475201478
 31
0.0
  0
INSERT
  5
24AF1
330
24AA7
100
AcDbEntity
  8
寸法
 62
     0
 48
50.0
370
    -2
100
AcDbBlockReference
  2
_DOTSMALL
 10
5670.477284837676
 20
2221.537475201478
 30
0.0
 41
100.0
 42
100.0
 43
100.0
 50
90.0
  0
INSERT
  5
24AF2
330
24AA7
100
AcDbEntity
  8
寸法
 62
     0
 48
50.0
370
    -2
100
AcDbBlockReference
  2
_DOTSMALL
 10
5670.477284837674
 20
1437.537475201478
 30
0.0
 41
100.0
 42
100.0
 43
100.0
 50
270.0
  0
MTEXT
  5
24AF3
330
24AA7
100
AcDbEntity
  8
寸法
 62
     7
 48
50.0
100
AcDbMText
 10
5570.477284837674
 20
1809.077624857478
 30
0.0
 40
120.0
 41
0.0
 71
     5
 72
     1
  1
\A1;540
  7
STYLE1
 11
0.0000000000000001
 21
1.0
 31
0.0
 73
     1
 44
1.0
1001
ACAD
1000
MTEXTBEGIN
1070
    73
1070
     1
1070
    44
1040
1.0
1070
    74
1070
     0
1000
MTEXTEND
  0
POINT
  5
24AF4
330
24AA7
100
AcDbEntity
  8
DEFPOINTS
 62
     0
 48
50.0
100
AcDbPoint
 10
6405.514523399414
 20
2221.537475201478
 30
0.0
  0
POINT
  5
24AF5
330
24AA7
100
AcDbEntity
  8
DEFPOINTS
 62
     0
 48
50.0
100
AcDbPoint
 10
6197.514523399418
 20
1437.537475201478
 30
0.0
  0
POINT
  5
24AF6
330
24AA7
100
AcDbEntity
  8
DEFPOINTS
 62
     0
 48
50.0
100
AcDbPoint
 10
5670.477284837674
 20
1437.537475201478
 30
0.0
  0
ENDBLK
  5
24AB2
330
24AA7
100
AcDbEntity
  8
0
 48
50.0
100
AcDbBlockEnd
  0
BLOCK
  5
24ABD
330
24AB3
100
AcDbEntity
  8
0
 48
50.0
100
AcDbBlockBegin
  2
*D52
 70
     1
 10
0.0
 20
0.0
 30
0.0
  3
*D52
  1

  0
LINE
  5
24AF7
330
24AB3
100
AcDbEntity
  8
寸法
 62
     0
 48
50.0
370
    -2
100
AcDbLine
 10
6257.514523399414
 20
1677.537475201478
 30
0.0
 11
6075.094209666955
 21
1677.537475201478
 31
0.0
  0
LINE
  5
24AF8
330
24AB3
100
AcDbEntity
  8
寸法
 62
     0
 48
50.0
370
    -2
100
AcDbLine
 10
6177.514523399418
 20
1437.537475201478
 30
0.0
 11
6075.094209666955
 21
1437.537475201478
 31
0.0
  0
LINE
  5
24AF9
330
24AB3
100
AcDbEntity
  8
寸法
 62
     0
 48
50.0
370
    -2
100
AcDbLine
 10
6135.094209666955
 20
1677.537475201478
 30
0.0
 11
6135.094209666955
 21
1437.537475201478
 31
0.0
  0
INSERT
  5
24AFA
330
24AB3
100
AcDbEntity
  8
寸法
 62
     0
 48
50.0
370
    -2
100
AcDbBlockReference
  2
_DOTSMALL
 10
6135.094209666955
 20
1677.537475201478
 30
0.0
 41
100.0
 42
100.0
 43
100.0
 50
90.0
  0
INSERT
  5
24AFB
330
24AB3
100
AcDbEntity
  8
寸法
 62
     0
 48
50.0
370
    -2
100
AcDbBlockReference
  2
_DOTSMALL
 10
6135.094209666955
 20
1437.537475201478
 30
0.0
 41
100.0
 42
100.0
 43
100.0
 50
270.0
  0
MTEXT
  5
24AFC
330
24AB3
100
AcDbEntity
  8
寸法
 62
     7
 48
50.0
100
AcDbMText
 10
6035.094209666954
 20
1557.537475201479
 30
0.0
 40
120.0
 41
0.0
 71
     5
 72
     1
  1
\A1;150
  7
STYLE1
 11
0.0000000000000001
 21
1.0
 31
0.0
 73
     1
 44
1.0
1001
ACAD
1000
MTEXTBEGIN
1070
    73
1070
     1
1070
    44
1040
1.0
1070
    74
1070
     0
1000
MTEXTEND
  0
POINT
  5
24AFD
330
24AB3
100
AcDbEntity
  8
DEFPOINTS
 62
     0
 48
50.0
100
AcDbPoint
 10
6277.514523399414
 20
1677.537475201478
 30
0.0
  0
POINT
  5
24AFE
330
24AB3
100
AcDbEntity
  8
DEFPOINTS
 62
     0
 48
50.0
100
AcDbPoint
 10
6197.514523399418
 20
1437.537475201478
 30
0.0
  0
POINT
  5
24AFF
330
24AB3
100
AcDbEntity
  8
DEFPOINTS
 62
     0
 48
50.0
100
AcDbPoint
 10
6135.094209666955
 20
1437.537475201478
 30
0.0
  0
ENDBLK
  5
24ABE
330
24AB3
100
AcDbEntity
  8
0
 48
50.0
100
AcDbBlockEnd
  0
BLOCK
  5
24ACB
330
24ABF
100
AcDbEntity
  8
0
 48
50.0
100
AcDbBlockBegin
  2
*D53
 70
     1
 10
0.0
 20
0.0
 30
0.0
  3
*D53
  1

  0
LINE
  5
24B00
330
24ABF
100
AcDbEntity
  8
寸法
 62
     0
 48
50.0
370
    -2
100
AcDbLine
 10
8352.353836576609
 20
2274.297475201479
 30
0.0
 11
9357.47710246448
 21
2274.297475201478
 31
0.0
  0
LINE
  5
24B01
330
24ABF
100
AcDbEntity
  8
寸法
 62
     0
 48
50.0
370
    -2
100
AcDbLine
 10
8539.553836576608
 20
2221.537475201478
 30
0.0
 11
9357.47710246448
 21
2221.537475201477
 31
0.0
  0
LINE
  5
24B02
330
24ABF
100
AcDbEntity
  8
寸法
 62
     0
 48
50.0
370
    -2
100
AcDbLine
 10
9297.47710246448
 20
2274.297475201478
 30
0.0
 11
9297.47710246448
 21
2374.297475201478
 31
0.0
  0
LINE
  5
24B03
330
24ABF
100
AcDbEntity
  8
寸法
 62
     0
 48
50.0
370
    -2
100
AcDbLine
 10
9297.47710246448
 20
2221.537475201477
 30
0.0
 11
9297.47710246448
 21
1489.519668358511
 31
0.0
  0
LINE
  5
24B04
330
24ABF
100
AcDbEntity
  8
寸法
 62
     0
 48
50.0
370
    -2
100
AcDbLine
 10
9297.47710246448
 20
2274.297475201478
 30
0.0
 11
9297.47710246448
 21
2221.537475201477
 31
0.0
  0
INSERT
  5
24B05
330
24ABF
100
AcDbEntity
  8
寸法
 62
     0
 48
50.0
370
    -2
100
AcDbBlockReference
  2
_DOTSMALL
 10
9297.47710246448
 20
2274.297475201478
 30
0.0
 41
100.0
 42
100.0
 43
100.0
 50
270.0
  0
INSERT
  5
24B06
330
24ABF
100
AcDbEntity
  8
寸法
 62
     0
 48
50.0
370
    -2
100
AcDbBlockReference
  2
_DOTSMALL
 10
9297.47710246448
 20
2221.537475201477
 30
0.0
 41
100.0
 42
100.0
 43
100.0
 50
90.0
  0
MTEXT
  5
24B07
330
24ABF
100
AcDbEntity
  8
寸法
 62
     7
 48
50.0
100
AcDbMText
 10
9197.465291440858
 20
1755.528571779995
 30
0.0
 40
120.0
 41
0.0
 71
     5
 72
     1
  1
\A1;20～25
  7
STYLE1
 11
0.0000000000000001
 21
1.0
 31
0.0
 73
     1
 44
1.0
1001
ACAD
1000
MTEXTBEGIN
1070
    73
1070
     1
1070
    44
1040
1.0
1070
    74
1070
     0
1000
MTEXTEND
  0
POINT
  5
24B08
330
24ABF
100
AcDbEntity
  8
DEFPOINTS
 62
     0
 48
50.0
100
AcDbPoint
 10
8332.35383657661
 20
2274.297475201479
 30
0.0
  0
POINT
  5
24B09
330
24ABF
100
AcDbEntity
  8
DEFPOINTS
 62
     0
 48
50.0
100
AcDbPoint
 10
8519.553836576609
 20
2221.537475201478
 30
0.0
  0
POINT
  5
24B0A
330
24ABF
100
AcDbEntity
  8
DEFPOINTS
 62
     0
 48
50.0
100
AcDbPoint
 10
9297.47710246448
 20
2221.537475201477
 30
0.0
  0
ENDBLK
  5
24ACC
330
24ABF
100
AcDbEntity
  8
0
 48
50.0
100
AcDbBlockEnd
  0
BLOCK
  5
24AD7
330
24ACD
100
AcDbEntity
  8
0
 48
50.0
100
AcDbBlockBegin
  2
*D54
 70
     1
 10
0.0
 20
0.0
 30
0.0
  3
*D54
  1

  0
LINE
  5
24B0B
330
24ACD
100
AcDbEntity
  8
寸法
 62
     0
 48
50.0
370
    -2
100
AcDbLine
 10
8539.553836576608
 20
2221.537475201478
 30
0.0
 11
9081.422436345453
 21
2221.537475201478
 31
0.0
  0
LINE
  5
24B0C
330
24ACD
100
AcDbEntity
  8
寸法
 62
     0
 48
50.0
370
    -2
100
AcDbLine
 10
8539.553836576608
 20
1897.537475201477
 30
0.0
 11
9081.422436345453
 21
1897.537475201476
 31
0.0
  0
LINE
  5
24B0D
330
24ACD
100
AcDbEntity
  8
寸法
 62
     0
 48
50.0
370
    -2
100
AcDbLine
 10
9021.422436345451
 20
2221.537475201478
 30
0.0
 11
9021.422436345451
 21
1897.537475201476
 31
0.0
  0
INSERT
  5
24B0E
330
24ACD
100
AcDbEntity
  8
寸法
 62
     0
 48
50.0
370
    -2
100
AcDbBlockReference
  2
_DOTSMALL
 10
9021.422436345451
 20
2221.537475201478
 30
0.0
 41
100.0
 42
100.0
 43
100.0
 50
90.0
  0
INSERT
  5
24B0F
330
24ACD
100
AcDbEntity
  8
寸法
 62
     0
 48
50.0
370
    -2
100
AcDbBlockReference
  2
_DOTSMALL
 10
9021.422436345451
 20
1897.537475201476
 30
0.0
 41
100.0
 42
100.0
 43
100.0
 50
270.0
  0
MTEXT
  5
24B10
330
24ACD
100
AcDbEntity
  8
寸法
 62
     7
 48
50.0
100
AcDbMText
 10
8921.422436345451
 20
2059.537475201479
 30
0.0
 40
120.0
 41
0.0
 71
     5
 72
     1
  1
\A1;180
  7
STYLE1
 11
0.0000000000000001
 21
1.0
 31
0.0
 73
     1
 44
1.0
1001
ACAD
1000
MTEXTBEGIN
1070
    73
1070
     1
1070
    44
1040
1.0
1070
    74
1070
     0
1000
MTEXTEND
  0
POINT
  5
24B11
330
24ACD
100
AcDbEntity
  8
DEFPOINTS
 62
     0
 48
50.0
100
AcDbPoint
 10
8519.553836576609
 20
2221.537475201478
 30
0.0
  0
POINT
  5
24B12
330
24ACD
100
AcDbEntity
  8
DEFPOINTS
 62
     0
 48
50.0
100
AcDbPoint
 10
8519.553836576609
 20
1897.537475201477
 30
0.0
  0
POINT
  5
24B13
330
24ACD
100
AcDbEntity
  8
DEFPOINTS
 62
     0
 48
50.0
100
AcDbPoint
 10
9021.422436345451
 20
1897.537475201476
 30
0.0
  0
ENDBLK
  5
24AD8
330
24ACD
100
AcDbEntity
  8
0
 48
50.0
100
AcDbBlockEnd
  0
BLOCK
  5
24AE3
330
24AD9
100
AcDbEntity
  8
0
 48
50.0
100
AcDbBlockBegin
  2
*D55
 70
     1
 10
0.0
 20
0.0
 30
0.0
  3
*D55
  1

  0
LINE
  5
24B14
330
24AD9
100
AcDbEntity
  8
寸法
 62
     0
 48
50.0
370
    -2
100
AcDbLine
 10
6597.514523399414
 20
2241.537475201478
 30
0.0
 11
6597.514523399414
 21
2701.205283117858
 31
0.0
  0
LINE
  5
24B15
330
24AD9
100
AcDbEntity
  8
寸法
 62
     0
 48
50.0
370
    -2
100
AcDbLine
 10
6405.514523399414
 20
2241.537475201478
 30
0.0
 11
6405.514523399414
 21
2701.205283117858
 31
0.0
  0
LINE
  5
24B16
330
24AD9
100
AcDbEntity
  8
寸法
 62
     0
 48
50.0
370
    -2
100
AcDbLine
 10
6597.514523399414
 20
2641.205283117858
 30
0.0
 11
6405.514523399414
 21
2641.205283117858
 31
0.0
  0
INSERT
  5
24B17
330
24AD9
100
AcDbEntity
  8
寸法
 62
     0
 48
50.0
370
    -2
100
AcDbBlockReference
  2
_DOTSMALL
 10
6597.514523399414
 20
2641.205283117858
 30
0.0
 41
100.0
 42
100.0
 43
100.0
  0
INSERT
  5
24B18
330
24AD9
100
AcDbEntity
  8
寸法
 62
     0
 48
50.0
370
    -2
100
AcDbBlockReference
  2
_DOTSMALL
 10
6405.514523399414
 20
2641.205283117858
 30
0.0
 41
100.0
 42
100.0
 43
100.0
 50
180.0
  0
MTEXT
  5
24B19
330
24AD9
100
AcDbEntity
  8
寸法
 62
     7
 48
50.0
100
AcDbMText
 10
6501.514523399414
 20
2941.240716188724
 30
0.0
 40
120.0
 41
0.0
 71
     5
 72
     1
  1
\A1;120\P200\P280
  7
STYLE1
 73
     1
 44
1.0
1001
ACAD
1000
MTEXTBEGIN
1070
    73
1070
     1
1070
    44
1040
1.0
1070
    74
1070
     0
1000
MTEXTEND
  0
POINT
  5
24B1A
330
24AD9
100
AcDbEntity
  8
DEFPOINTS
 62
     0
 48
50.0
100
AcDbPoint
 10
6597.514523399414
 20
2221.537475201478
 30
0.0
  0
POINT
  5
24B1B
330
24AD9
100
AcDbEntity
  8
DEFPOINTS
 62
     0
 48
50.0
100
AcDbPoint
 10
6405.514523399414
 20
2221.537475201478
 30
0.0
  0
POINT
  5
24B1C
330
24AD9
100
AcDbEntity
  8
DEFPOINTS
 62
     0
 48
50.0
100
AcDbPoint
 10
6405.514523399414
 20
2641.205283117858
 30
0.0
  0
ENDBLK
  5
24AE4
330
24AD9
100
AcDbEntity
  8
0
 48
50.0
100
AcDbBlockEnd
  0
ENDSEC
  0
SECTION
  2
ENTITIES
  0
MTEXT
  5
763F
330
747D
100
AcDbEntity
  8
0
100
AcDbMText
 10
302.846345836809
 20
280.1983726409901
 30
0.0
 40
3.5
 41
5.323721266742722
 71
     1
 72
     5
  1

  7
MSMINCHO
 73
     1
 44
1.0
1001
ACAD
1000
MTEXTBEGIN
1070
    73
1070
     1
1070
    44
1040
1.0
1070
    74
1070
     0
1000
MTEXTEND
  0
LINE
  5
10B57
330
747D
100
AcDbEntity
  8
補助
  6
PHANTOM
 62
   230
 48
50.0
100
AcDbLine
 10
139.9999999999995
 20
11409.6
 30
0.0
 11
16307.2
 21
11409.6
 31
0.0
  0
LINE
  5
10B59
330
747D
100
AcDbEntity
  8
仕様書枠
  6
Continuous
 48
50.0
100
AcDbLine
 10
13107.2
 20
1200.0
 30
0.0
 11
13107.2
 21
-0.0000000000000729
 31
0.0
  0
LINE
  5
10B5D
330
747D
100
AcDbEntity
  8
仕様書枠
 48
50.0
100
AcDbLine
 10
140.0
 20
0.0
 30
0.0
 11
16307.2
 21
-0.0000000000000909
 31
0.0
  0
LINE
  5
10B5E
330
747D
100
AcDbEntity
  8
補助
  6
PHANTOM
 62
   230
 48
50.0
100
AcDbLine
 10
16307.2
 20
11409.6
 30
0.0
 11
16307.2
 21
1200.0
 31
0.0
  0
LINE
  5
10B6C
330
747D
100
AcDbEntity
  8
仕様書枠
 48
50.0
100
AcDbLine
 10
13107.2
 20
1200.0
 30
0.0
 11
16307.2
 21
1200.0
 31
0.0
  0
TEXT
  5
10B73
330
747D
100
AcDbEntity
  8
文字
 62
     7
 48
50.0
100
AcDbText
 10
13162.9790565769
 20
895.0906074299405
 30
0.0
 40
200.0
  1
基 礎 図
  7
STYLE2
100
AcDbText
  0
LINE
  5
10B7B
330
747D
100
AcDbEntity
  8
仕様書枠
 48
50.0
100
AcDbLine
 10
13107.2
 20
800.0
 30
0.0
 11
14251.2
 21
800.0
 31
0.0
  0
LINE
  5
10B88
330
747D
100
AcDbEntity
  8
仕様書枠
  6
Continuous
 48
50.0
100
AcDbLine
 10
14251.2
 20
1200.0
 30
0.0
 11
14251.2
 21
800.0
 31
0.0
  0
LINE
  5
16462
330
747D
100
AcDbEntity
  8
仕様書枠
 48
50.0
100
AcDbLine
 10
16307.2
 20
1200.0
 30
0.0
 11
16307.2
 21
-0.0000000000000909
 31
0.0
  0
LINE
  5
1903B
330
747D
100
AcDbEntity
  8
補助
  6
PHANTOM
 62
   230
 48
50.0
100
AcDbLine
 10
140.0
 20
0.0
 30
0.0
 11
139.9999999999995
 21
11409.6
 31
0.0
  0
LEADER
  5
1AC27
330
747D
100
AcDbEntity
  8
寸法
 48
50.0
100
AcDbLeader
  3
INABA_S50G
 73
     0
 74
     0
 75
     1
 40
120.0
 41
720.0000000000001
 76
     3
 10
9655.05985718447
 20
6882.35590961453
 30
0.0
 10
9811.833431570756
 20
6621.341996046698
 30
0.0
 10
9936.833431570756
 20
6621.341996046698
 30
0.0
340
1AC28
1001
ACAD
1000
DSTYLE
1002
{
1070
   341
1005
0
1070
    40
1040
1.0
1070
   343
1005
0
1070
   344
1005
0
1002
}
  0
MTEXT
  5
1AC28
102
{ACAD_REACTORS
330
1AC27
102
}
330
747D
100
AcDbEntity
  8
部品1
 62
     7
 48
50.0
100
AcDbMText
 10
10681.83343157075
 20
6706.341996046697
 30
0.0
 40
120.0
 41
0.0
 71
     6
 72
     1
  1
\A1;床下換気口
  7
STYLE1
 73
     1
 44
1.0
1001
ACAD
1000
MTEXTBEGIN
1070
    73
1070
     1
1070
    44
1040
1.0
1070
    74
1070
     0
1000
MTEXTEND
  0
TEXT
  5
1AC29
330
747D
100
AcDbEntity
  8
部品1
 48
50.0
100
AcDbText
 10
10002.43013846118
 20
5940.797637267599
 30
0.0
 40
80.0
  1
(a=45,b=55,c=75)
  7
STYLE1
100
AcDbText
  0
TEXT
  5
1AC2A
330
747D
100
AcDbEntity
  8
部品1
 48
50.0
100
AcDbText
 10
9843.851129706878
 20
6047.642858136352
 30
0.0
 40
80.0
  1
※a,b,cは屋根の出幅です。
  7
STYLE1
100
AcDbText
  0
MTEXT
  5
1AC2B
102
{ACAD_REACTORS
330
1AC2C
102
}
330
747D
100
AcDbEntity
  8
部品1
 62
     7
 48
50.0
100
AcDbMText
 10
10641.63832569548
 20
6226.953545069427
 30
0.0
 40
120.0
 41
0.0
 71
     6
 72
     1
  1
\A1;屋根の外寸
  7
STYLE1
 73
     1
 44
1.0
1001
ACAD
1000
MTEXTBEGIN
1070
    73
1070
     1
1070
    44
1040
1.0
1070
    74
1070
     0
1000
MTEXTEND
  0
LEADER
  5
1AC2C
330
747D
100
AcDbEntity
  8
寸法
 48
50.0
100
AcDbLeader
  3
INABA_S50G
 73
     0
 74
     0
 75
     1
 40
120.0
 41
672.0
 76
     3
 10
9703.698313503441
 20
6400.842888533003
 30
0.0
 10
9819.638325695482
 20
6141.953545069427
 30
0.0
 10
9944.638325695482
 20
6141.953545069427
 30
0.0
340
1AC2B
1001
ACAD
1000
DSTYLE
1002
{
1070
   341
1005
0
1070
    40
1040
1.0
1070
   343
1005
0
1070
   344
1005
0
1002
}
  0
TEXT
  5
1C7A1
330
747D
100
AcDbEntity
  8
文字
 62
     7
 48
50.0
100
AcDbText
 10
13188.16259899338
 20
79.80631269190417
 30
0.0
 40
80.0
  1
※布基礎には換気口を設けてください。
  7
STYLE2
100
AcDbText
  0
TEXT
  5
1C7E7
330
747D
100
AcDbEntity
  8
文字
 62
     7
 48
50.0
100
AcDbText
 10
13188.16259899338
 20
246.7109242801889
 30
0.0
 40
80.0
  1
※寒冷地等は地域の実情に合わせた基礎にして下さい。
  7
STYLE2
100
AcDbText
  0
TEXT
  5
1C7E8
330
747D
100
AcDbEntity
  8
文字
 62
     7
 48
50.0
100
AcDbText
 10
14325.79230300687
 20
499.5983841039506
 30
0.0
 40
160.0
  1
ＮＸＮ－０９ＤＬ－３
  7
STYLE2
100
AcDbText
  0
TEXT
  5
1C7EC
330
747D
100
AcDbEntity
  8
文字
 62
     7
 48
50.0
100
AcDbText
 10
14524.131837222
 20
1031.557706291229
 30
0.0
 40
100.0
  1
<縮尺> S=1/40
  7
STYLE2
100
AcDbText
  0
TEXT
  5
1C7ED
330
747D
100
AcDbEntity
  8
文字
 62
     7
 48
50.0
100
AcDbText
 10
13201.43669998441
 20
477.2740661031257
 30
0.0
 40
160.0
  1
機種名
  7
STYLE2
100
AcDbText
  0
LINE
  5
1C7EF
330
747D
100
AcDbEntity
  8
文字
 62
     7
 48
50.0
100
AcDbLine
 10
13187.2
 20
400.0
 30
0.0
 11
16227.2
 21
400.0
 31
0.0
  0
MTEXT
  5
1D2D5
102
{ACAD_REACTORS
330
1D2D6
102
}
330
747D
100
AcDbEntity
  8
部品1
 62
     7
 48
50.0
100
AcDbMText
 10
10848.99523070988
 20
7667.237883797229
 30
0.0
 40
120.0
 41
0.0
 71
     6
 72
     1
  1
アンカーボルト
  7
STYLE1
 73
     1
 44
1.0
1001
ACAD
1000
MTEXTBEGIN
1070
    73
1070
     1
1070
    44
1040
1.0
1070
    74
1070
     0
1000
MTEXTEND
  0
LEADER
  5
1D2D6
330
747D
100
AcDbEntity
  8
寸法
 48
50.0
100
AcDbLeader
  3
INABA_S50G
 73
     0
 74
     0
 75
     1
 40
120.0
 41
994.3492424049171
 76
     3
 10
9530.680085756999
 20
7228.832983913432
 30
0.0
 10
9704.645988304966
 20
7582.23788379723
 30
0.0
 10
9829.645988304966
 20
7582.23788379723
 30
0.0
340
1D2D5
1001
ACAD
1000
DSTYLE
1002
{
1070
   341
1005
0
1070
    40
1040
1.0
1070
   343
1005
0
1070
   344
1005
0
1002
}
  0
MTEXT
  5
1D332
102
{ACAD_REACTORS
330
1D333
102
}
330
747D
100
AcDbEntity
  8
部品1
 62
     7
 48
50.0
100
AcDbMText
 10
9213.828697015694
 20
6799.412536590121
 30
0.0
 40
120.0
 41
0.0
 71
     6
 72
     1
  1
CB
  7
STYLE1
 73
     1
 44
1.0
1001
ACAD
1000
MTEXTBEGIN
1070
    73
1070
     1
1070
    44
1040
1.0
1070
    74
1070
     0
1000
MTEXTEND
  0
LEADER
  5
1D333
330
747D
100
AcDbEntity
  8
寸法
 48
50.0
100
AcDbLeader
  3
INABA_S50G
 73
     0
 74
     0
 75
     1
 40
120.0
 41
149.591883092037
 76
     3
 10
8786.954011061013
 20
6937.130850144946
 30
0.0
 10
8914.236813923656
 20
6714.412536590121
 30
0.0
 10
9039.236813923656
 20
6714.412536590121
 30
0.0
340
1D332
1001
ACAD
1000
DSTYLE
1002
{
1070
   341
1005
0
1070
    40
1040
1.0
1070
   343
1005
0
1070
   344
1005
0
1002
}
  0
DIMENSION
  5
20DE1
330
747D
100
AcDbEntity
  8
寸法
 48
50.0
100
AcDbDimension
  2
*D19
 10
9698.6
 20
8309.84546161364
 30
0.0
 11
9969.774621202461
 21
8309.84546161364
 31
0.0
 70
   160
  1
a
 71
     5
 42
45.0
  3
INABA_S40G
100
AcDbAlignedDimension
 13
9653.6
 23
7351.62513955472
 33
0.0
 14
9698.6
 24
8077.891597648632
 34
0.0
100
AcDbRotatedDimension
1001
ACAD
1000
DSTYLE
1002
{
1070
   341
1005
0
1002
}
  0
DIMENSION
  5
20DFB
330
747D
100
AcDbEntity
  8
寸法
 48
50.0
100
AcDbDimension
  2
*D20
 10
6793.600000000001
 20
8309.845461613685
 30
0.0
 11
6477.425378797541
 21
8309.845461613685
 31
0.0
 70
   160
  1
a
 71
     5
 42
44.99999999999636
  3
INABA_S40G
100
AcDbAlignedDimension
 13
6748.600000000005
 23
8077.891597648676
 33
0.0
 14
6793.600000000001
 24
7351.625139554764
 34
0.0
100
AcDbRotatedDimension
1001
ACAD
1000
DSTYLE
1002
{
1070
   341
1005
0
1002
}
  0
LINE
  5
22711
330
747D
100
AcDbEntity
  8
想像線
 48
10.0
100
AcDbLine
 10
9698.6
 20
7426.625139554722
 30
0.0
 11
6748.600000000002
 21
7426.62513955473
 31
0.0
  0
LINE
  5
22712
330
747D
100
AcDbEntity
  8
想像線
 48
10.0
100
AcDbLine
 10
6748.599999999999
 20
6336.625139554776
 30
0.0
 11
6748.6
 21
7426.625139554771
 31
0.0
  0
LINE
  5
22713
330
747D
100
AcDbEntity
  8
想像線
 48
10.0
100
AcDbLine
 10
9698.6
 20
6336.625139554737
 30
0.0
 11
9698.6
 21
7426.625139554722
 31
0.0
  0
LINE
  5
22714
330
747D
100
AcDbEntity
  8
想像線
 48
10.0
100
AcDbLine
 10
9698.6
 20
6336.625139554737
 30
0.0
 11
6748.599999999997
 21
6336.625139554731
 31
0.0
  0
DIMENSION
  5
22741
330
747D
100
AcDbEntity
  8
寸法
 48
50.0
100
AcDbDimension
  2
*D25
 10
5918.721909610674
 20
7351.625139554766
 30
0.0
 11
5818.721909610673
 21
7389.12513955477
 31
0.0
 70
    32
  1
c
 71
     5
 42
75.00000000000636
  3
INABA_S40G
100
AcDbAlignedDimension
 13
6170.665006330069
 23
7426.625139554771
 33
0.0
 14
6793.600000000001
 24
7351.625139554764
 34
0.0
 50
90.0
100
AcDbRotatedDimension
1001
ACAD
1000
DSTYLE
1002
{
1070
   341
1005
0
1002
}
  0
DIMENSION
  5
2275B
330
747D
100
AcDbEntity
  8
寸法
 48
50.0
100
AcDbDimension
  2
*D26
 10
5918.721909610674
 20
6336.62513955479
 30
0.0
 11
5818.721909610673
 21
6364.125139554779
 31
0.0
 70
    32
  1
b
 71
     5
 42
54.99999999997453
  3
INABA_S40G
100
AcDbAlignedDimension
 13
6793.600000000001
 23
6391.625139554765
 33
0.0
 14
6170.665006330073
 24
6336.62513955479
 34
0.0
 50
90.0
100
AcDbRotatedDimension
1001
ACAD
1000
DSTYLE
1002
{
1070
   341
1005
0
1002
}
  0
DIMENSION
  5
23978
330
747D
100
AcDbEntity
  8
寸法
 48
50.0
100
AcDbDimension
  2
*D27
 10
8998.957501082452
 20
7151.62513955471
 30
0.0
 11
8998.95750108245
 21
7601.196005696444
 31
0.0
 70
   160
 71
     5
 42
200.0
  3
INABA_S40G
100
AcDbAlignedDimension
 13
9198.85468201164
 23
7351.62513955471
 33
0.0
 14
9198.85468201164
 24
7151.62513955471
 34
0.0
 50
90.0
100
AcDbRotatedDimension
1001
ACAD
1000
DSTYLE
1002
{
1070
   341
1005
0
1002
}
  0
DIMENSION
  5
23980
330
747D
100
AcDbEntity
  8
寸法
 48
50.0
100
AcDbDimension
  2
*D28
 10
8998.957501082452
 20
6391.625139554729
 30
0.0
 11
8998.95750108245
 21
6142.054273412998
 31
0.0
 70
   160
 71
     5
 42
280.0000000000064
  3
INABA_S40G
100
AcDbAlignedDimension
 13
9273.6
 23
6671.625139554736
 33
0.0
 14
9273.6
 24
6391.625139554729
 34
0.0
 50
90.0
100
AcDbRotatedDimension
1001
ACAD
1000
DSTYLE
1002
{
1070
   341
1005
0
1002
}
  0
DIMENSION
  5
239DB
330
747D
100
AcDbEntity
  8
寸法
 48
50.0
100
AcDbDimension
  2
*D29
 10
9533.599999999999
 20
7071.312981584107
 30
0.0
 11
9923.659055118113
 21
7071.312981584107
 31
0.0
 70
   160
 71
     5
 42
120.0
  3
INABA_S40G
100
AcDbAlignedDimension
 13
9653.6
 23
7088.306245622939
 33
0.0
 14
9533.599999999999
 24
7071.312981584107
 34
0.0
100
AcDbRotatedDimension
1001
ACAD
1000
DSTYLE
1002
{
1070
   341
1005
0
1002
}
  0
LINE
  5
24004
330
747D
100
AcDbEntity
  8
部品1
 48
50.0
100
AcDbLine
 10
9533.599999999998
 20
7151.62513955472
 30
0.0
 11
6913.599999999997
 21
7151.625139554721
 31
0.0
  0
DIMENSION
  5
24007
330
747D
100
AcDbEntity
  8
寸法
 48
50.0
100
AcDbDimension
  2
*D41
 10
8698.600000000007
 20
7834.233956224969
 30
0.0
 11
8223.600000000008
 21
7934.233956224969
 31
0.0
 70
    32
 71
     5
 42
950.0
  3
INABA_S40G
100
AcDbAlignedDimension
 13
7748.600000000007
 23
6921.62513955472
 33
0.0
 14
8698.600000000007
 24
6921.62513955472
 34
0.0
100
AcDbRotatedDimension
1001
ACAD
1000
DSTYLE
1002
{
1070
   341
1005
0
1002
}
  0
TEXT
  5
24008
330
747D
100
AcDbEntity
  8
寸法
 48
50.0
100
AcDbText
 10
8522.062106982058
 20
6410.306430347458
 30
0.0
 40
120.0
  1
扉面
  7
STYLE1
100
AcDbText
  0
LINE
  5
24009
330
747D
100
AcDbEntity
  8
部品1
 48
50.0
100
AcDbLine
 10
9653.6
 20
6391.625139554739
 30
0.0
 11
6793.599999999996
 21
6391.625139554717
 31
0.0
  0
DIMENSION
  5
2400A
330
747D
100
AcDbEntity
  8
寸法
 48
50.0
100
AcDbDimension
  2
*D42
 10
9653.6
 20
8309.845461613639
 30
0.0
 11
8223.600000000001
 21
8409.85727263726
 31
0.0
 70
    32
 71
     5
 42
2860.0
  3
INABA_S40G
100
AcDbAlignedDimension
 13
6793.600000000001
 23
7351.62513955472
 33
0.0
 14
9653.6
 24
7351.62513955472
 34
0.0
100
AcDbRotatedDimension
1001
ACAD
1000
DSTYLE
1002
{
1070
   341
1005
0
1002
}
  0
LINE
  5
2400B
330
747D
100
AcDbEntity
  8
部品1
 48
50.0
100
AcDbLine
 10
9653.6
 20
7351.62513955472
 30
0.0
 11
6793.600000000001
 21
7351.62513955472
 31
0.0
  0
DIMENSION
  5
2400C
330
747D
100
AcDbEntity
  8
寸法
 48
50.0
100
AcDbDimension
  2
*D43
 10
6916.600000000001
 20
8077.891597648632
 30
0.0
 11
8223.600000000001
 21
8177.903408672253
 31
0.0
 70
    32
 71
     5
 42
2614.0
  3
INABA_S40G
100
AcDbAlignedDimension
 13
9530.600000000001
 23
7278.625139554721
 33
0.0
 14
6916.600000000001
 24
7278.625139554721
 34
0.0
100
AcDbRotatedDimension
1001
ACAD
1000
DSTYLE
1002
{
1070
   341
1005
0
1002
}
  0
LINE
  5
2400F
330
747D
100
AcDbEntity
  8
部品1
 48
50.0
100
AcDbLine
 10
6793.600000000001
 20
6391.625139554721
 30
0.0
 11
6793.600000000001
 21
7351.62513955472
 31
0.0
  0
DIMENSION
  5
24010
330
747D
100
AcDbEntity
  8
寸法
 48
50.0
100
AcDbDimension
  2
*D30
 10
7276.285990614302
 20
6871.62513955472
 30
0.0
 11
7276.285990614301
 21
6099.066084436621
 31
0.0
 70
   160
 71
     5
 42
479.999999999989
  3
INABA_S40G
100
AcDbAlignedDimension
 13
7367.765475140901
 23
6391.625139554731
 33
0.0
 14
7698.600000000007
 24
6871.62513955472
 34
0.0
 50
90.0
100
AcDbRotatedDimension
1001
ACAD
1000
DSTYLE
1002
{
1070
   341
1005
0
1002
}
  0
DIMENSION
  5
24012
330
747D
100
AcDbEntity
  8
寸法
 48
50.0
100
AcDbDimension
  2
*D31
 10
5918.721909610674
 20
6391.625139554721
 30
0.0
 11
5918.721909610673
 21
6909.125139554721
 31
0.0
 70
   160
 71
     5
 42
960.0
  3
INABA_S40G
100
AcDbAlignedDimension
 13
6793.600000000001
 23
7351.62513955472
 33
0.0
 14
6793.600000000001
 24
6391.625139554721
 34
0.0
 50
90.0
100
AcDbRotatedDimension
1001
ACAD
1000
DSTYLE
1002
{
1070
   341
1005
0
1002
}
  0
DIMENSION
  5
24013
330
747D
100
AcDbEntity
  8
寸法
 48
50.0
100
AcDbDimension
  2
*D32
 10
6170.665006330073
 20
6589.625139554724
 30
0.0
 11
6170.665006330072
 21
6909.125139554721
 31
0.0
 70
   160
 71
     5
 42
638.9999999999964
  3
INABA_S40G
100
AcDbAlignedDimension
 13
6866.600000000001
 23
7228.625139554721
 33
0.0
 14
6866.600000000008
 24
6589.625139554724
 34
0.0
 50
90.0
100
AcDbRotatedDimension
1001
ACAD
1000
DSTYLE
1002
{
1070
   341
1005
0
1002
}
  0
DIMENSION
  5
24015
330
747D
100
AcDbEntity
  8
寸法
 48
50.0
100
AcDbDimension
  2
*D33
 10
6680.512673767878
 20
5671.625139554657
 30
0.0
 11
6680.512673767876
 21
6031.625139554659
 31
0.0
 70
   160
  1
扉の出<>
 71
     5
 42
720.0
  3
INABA_S40G
100
AcDbAlignedDimension
 13
6793.600000000001
 23
6391.625139554657
 33
0.0
 14
7149.325326928805
 24
5671.625139554657
 34
0.0
 50
90.0
100
AcDbRotatedDimension
1001
ACAD
1000
DSTYLE
1002
{
1070
   341
1005
0
1002
}
  0
ARC
  5
24016
330
747D
100
AcDbEntity
  8
想像線
 48
5.0
100
AcDbCircle
 10
7563.6
 20
6391.625139554657
 30
0.0
 40
720.0
100
AcDbArc
 50
180.0
 51
270.0
  0
DIMENSION
  5
24017
330
747D
100
AcDbEntity
  8
寸法
 48
50.0
100
AcDbDimension
  2
*D34
 10
6170.665006330073
 20
6391.625139554721
 30
0.0
 11
6170.665006330072
 21
6056.094190712129
 31
0.0
 70
   160
 71
     5
 42
198.0000000000036
  3
INABA_S40G
100
AcDbAlignedDimension
 13
6866.600000000008
 23
6589.625139554724
 33
0.0
 14
6793.600000000001
 24
6391.625139554721
 34
0.0
 50
90.0
100
AcDbRotatedDimension
1001
ACAD
1000
DSTYLE
1002
{
1070
   341
1005
0
1002
}
  0
LINE
  5
24019
330
747D
100
AcDbEntity
  8
想像線
 48
5.0
100
AcDbLine
 10
7563.6
 20
6391.625139554668
 30
0.0
 11
7563.6
 21
5671.625139554657
 31
0.0
  0
LINE
  5
2401A
330
747D
100
AcDbEntity
  8
細線
 48
50.0
100
AcDbLine
 10
7173.599999999993
 20
6570.129738843141
 30
0.0
 11
7275.095400711567
 21
6671.625139554717
 31
0.0
  0
LINE
  5
2401B
330
747D
100
AcDbEntity
  8
細線
 48
50.0
100
AcDbLine
 10
7174.700523133072
 20
6391.625139554724
 30
0.0
 11
7373.599999999995
 21
6590.524616421648
 31
0.0
  0
LINE
  5
2401C
330
747D
100
AcDbEntity
  8
細線
 48
50.0
100
AcDbLine
 10
7173.599999999997
 20
6435.425897026997
 30
0.0
 11
7373.599999999997
 21
6635.425897026991
 31
0.0
  0
LINE
  5
2401D
330
747D
100
AcDbEntity
  8
細線
 48
50.0
100
AcDbLine
 10
7173.599999999995
 20
6480.327177632339
 30
0.0
 11
7364.897961922375
 21
6671.62513955472
 31
0.0
  0
LINE
  5
2401E
330
747D
100
AcDbEntity
  8
細線
 48
50.0
100
AcDbLine
 10
7173.599999999997
 20
6525.228458237688
 30
0.0
 11
7319.996681317028
 21
6671.625139554717
 31
0.0
  0
LINE
  5
2401F
330
747D
100
AcDbEntity
  8
部品1
 48
50.0
100
AcDbLine
 10
7173.599999999995
 20
6671.625139554716
 30
0.0
 11
7173.599999999997
 21
6391.625139554722
 31
0.0
  0
LINE
  5
24020
330
747D
100
AcDbEntity
  8
センター
 48
2.0
100
AcDbLine
 10
6916.600000000008
 20
6639.625139554723
 30
0.0
 11
6916.600000000008
 21
6539.625139554724
 31
0.0
  0
LINE
  5
24021
330
747D
100
AcDbEntity
  8
センター
 48
2.0
100
AcDbLine
 10
6866.600000000008
 20
6589.625139554724
 30
0.0
 11
6966.600000000008
 21
6589.625139554724
 31
0.0
  0
CIRCLE
  5
24022
330
747D
100
AcDbEntity
  8
部品1
 48
50.0
100
AcDbCircle
 10
6916.599999999992
 20
6589.625139554724
 30
0.0
 40
35.0
  0
LINE
  5
24023
330
747D
100
AcDbEntity
  8
細線
 48
50.0
100
AcDbLine
 10
7173.599999999992
 20
6615.031019448486
 30
0.0
 11
7230.194120106222
 21
6671.625139554717
 31
0.0
  0
LINE
  5
24024
330
747D
100
AcDbEntity
  8
細線
 48
50.0
100
AcDbLine
 10
7309.404364949111
 20
6391.625139554726
 30
0.0
 11
7373.599999999999
 21
6455.820774605616
 31
0.0
  0
LINE
  5
24025
330
747D
100
AcDbEntity
  8
細線
 48
50.0
100
AcDbLine
 10
7264.503084343764
 20
6391.625139554724
 30
0.0
 11
7373.599999999997
 21
6500.72205521096
 31
0.0
  0
LINE
  5
24026
330
747D
100
AcDbEntity
  8
細線
 48
50.0
100
AcDbLine
 10
7219.601803738417
 20
6391.625139554724
 30
0.0
 11
7373.599999999997
 21
6545.623335816305
 31
0.0
  0
LINE
  5
24027
330
747D
100
AcDbEntity
  8
部品1
 48
50.0
100
AcDbLine
 10
7373.599999999995
 20
6671.625139554717
 30
0.0
 11
7373.599999999997
 21
6391.625139554726
 31
0.0
  0
LINE
  5
24028
330
747D
100
AcDbEntity
  8
細線
 48
50.0
100
AcDbLine
 10
7354.305645554457
 20
6391.625139554728
 30
0.0
 11
7373.599999999999
 21
6410.919494000269
 31
0.0
  0
LINE
  5
24035
330
747D
100
AcDbEntity
  8
細線
 48
50.0
100
AcDbLine
 10
6796.280033447556
 20
6796.625139554727
 30
0.0
 11
6913.599999999998
 21
6913.945106107168
 31
0.0
  0
LINE
  5
24036
330
747D
100
AcDbEntity
  8
細線
 48
50.0
100
AcDbLine
 10
6793.599999999996
 20
6838.846386712514
 30
0.0
 11
6913.599999999998
 21
6958.846386712512
 31
0.0
  0
LINE
  5
24037
330
747D
100
AcDbEntity
  8
細線
 48
50.0
100
AcDbLine
 10
6793.599999999999
 20
6883.747667317861
 30
0.0
 11
6906.477472236867
 21
6996.625139554727
 31
0.0
  0
LINE
  5
24038
330
747D
100
AcDbEntity
  8
細線
 48
50.0
100
AcDbLine
 10
6793.599999999996
 20
6928.648947923206
 30
0.0
 11
6861.576191631519
 21
6996.625139554726
 31
0.0
  0
LINE
  5
24039
330
747D
100
AcDbEntity
  8
細線
 48
50.0
100
AcDbLine
 10
6793.599999999996
 20
6973.550228528551
 30
0.0
 11
6816.674911026175
 21
6996.625139554727
 31
0.0
  0
LINE
  5
2403A
330
747D
100
AcDbEntity
  8
部品1
 48
50.0
100
AcDbLine
 10
6913.599999999998
 20
6996.625139554727
 30
0.0
 11
6793.599999999996
 21
6996.625139554727
 31
0.0
  0
LINE
  5
2403B
330
747D
100
AcDbEntity
  8
部品1
 48
50.0
100
AcDbLine
 10
6913.599999999998
 20
6796.625139554727
 30
0.0
 11
6793.599999999996
 21
6796.625139554727
 31
0.0
  0
DIMENSION
  5
2403C
330
747D
100
AcDbEntity
  8
寸法
 48
50.0
100
AcDbDimension
  2
*D35
 10
6793.600000000001
 20
8077.891597648632
 30
0.0
 11
6520.493398282202
 21
8077.891597648632
 31
0.0
 70
   160
 71
     5
 42
123.0
  3
INABA_S40G
100
AcDbAlignedDimension
 13
6916.600000000001
 23
7278.625139554721
 33
0.0
 14
6793.600000000001
 24
7351.62513955472
 34
0.0
100
AcDbRotatedDimension
1001
ACAD
1000
DSTYLE
1002
{
1070
   341
1005
0
1002
}
  0
DIMENSION
  5
2403E
330
747D
100
AcDbEntity
  8
寸法
 48
50.0
100
AcDbDimension
  2
*D36
 10
6170.665006330072
 20
7228.625139554721
 30
0.0
 11
6170.665006330072
 21
7624.731741272521
 31
0.0
 70
   160
 71
     5
 42
123.0
  3
INABA_S40G
100
AcDbAlignedDimension
 13
6793.600000000001
 23
7351.62513955472
 33
0.0
 14
6866.600000000001
 24
7228.625139554721
 34
0.0
 50
90.0
100
AcDbRotatedDimension
1001
ACAD
1000
DSTYLE
1002
{
1070
   341
1005
0
1002
}
  0
DIMENSION
  5
2403F
330
747D
100
AcDbEntity
  8
寸法
 48
50.0
100
AcDbDimension
  2
*D37
 10
6793.600000000001
 20
7834.233956224969
 30
0.0
 11
7271.100000000004
 21
7934.233956224969
 31
0.0
 70
    32
 71
     5
 42
955.0000000000073
  3
INABA_S40G
100
AcDbAlignedDimension
 13
7748.600000000007
 23
6921.62513955472
 33
0.0
 14
6793.600000000001
 24
7351.62513955472
 34
0.0
100
AcDbRotatedDimension
1001
ACAD
1000
DSTYLE
1002
{
1070
   341
1005
0
1002
}
  0
DIMENSION
  5
24041
330
747D
100
AcDbEntity
  8
寸法
 48
50.0
100
AcDbDimension
  2
*D38
 10
7276.285990614302
 20
7351.62513955472
 30
0.0
 11
7276.285990614301
 21
7644.184194672833
 31
0.0
 70
   160
 71
     5
 42
480.0
  3
INABA_S40G
100
AcDbAlignedDimension
 13
7698.600000000007
 23
6871.62513955472
 33
0.0
 14
7367.765475140901
 24
7351.62513955472
 34
0.0
 50
90.0
100
AcDbRotatedDimension
1001
ACAD
1000
DSTYLE
1002
{
1070
   341
1005
0
1002
}
  0
LINE
  5
24042
330
747D
100
AcDbEntity
  8
細線
 48
50.0
100
AcDbLine
 10
7173.599999999999
 20
7153.846386712529
 30
0.0
 11
7371.37875284219
 21
7351.62513955472
 31
0.0
  0
LINE
  5
24043
330
747D
100
AcDbEntity
  8
細線
 48
50.0
100
AcDbLine
 10
7173.599999999999
 20
7198.747667317878
 30
0.0
 11
7326.477472236845
 21
7351.62513955472
 31
0.0
  0
LINE
  5
24044
330
747D
100
AcDbEntity
  8
細線
 48
50.0
100
AcDbLine
 10
7173.599999999999
 20
7243.648947923219
 30
0.0
 11
7281.576191631498
 21
7351.62513955472
 31
0.0
  0
LINE
  5
24045
330
747D
100
AcDbEntity
  8
細線
 48
50.0
100
AcDbLine
 10
7173.599999999997
 20
7288.550228528565
 30
0.0
 11
7236.674911026153
 21
7351.625139554723
 31
0.0
  0
LINE
  5
24046
330
747D
100
AcDbEntity
  8
部品1
 48
50.0
100
AcDbLine
 10
7373.599999999995
 20
7351.625139554723
 30
0.0
 11
7373.599999999999
 21
7151.62513955472
 31
0.0
  0
LINE
  5
24047
330
747D
100
AcDbEntity
  8
部品1
 48
50.0
100
AcDbLine
 10
7173.599999999995
 20
7351.625139554723
 30
0.0
 11
7173.599999999999
 21
7151.62513955472
 31
0.0
  0
LINE
  5
24048
330
747D
100
AcDbEntity
  8
細線
 48
50.0
100
AcDbLine
 10
6886.082594658247
 20
6796.625139554724
 30
0.0
 11
6913.599999999998
 21
6824.14254489648
 31
0.0
  0
LINE
  5
24049
330
747D
100
AcDbEntity
  8
細線
 48
50.0
100
AcDbLine
 10
6841.181314052903
 20
6796.625139554727
 30
0.0
 11
6913.599999999998
 21
6869.043825501822
 31
0.0
  0
LINE
  5
2404A
330
747D
100
AcDbEntity
  8
センター
 48
2.0
100
AcDbLine
 10
6916.600000000001
 20
7278.625139554721
 30
0.0
 11
6916.600000000001
 21
7178.625139554721
 31
0.0
  0
LINE
  5
2404B
330
747D
100
AcDbEntity
  8
センター
 48
2.0
100
AcDbLine
 10
6866.600000000001
 20
7228.625139554721
 30
0.0
 11
6966.600000000001
 21
7228.625139554721
 31
0.0
  0
CIRCLE
  5
2404C
330
747D
100
AcDbEntity
  8
部品1
 48
50.0
100
AcDbCircle
 10
6916.600000000001
 20
7228.625139554721
 30
0.0
 40
35.0
  0
LINE
  5
2404D
330
747D
100
AcDbEntity
  8
細線
 48
50.0
100
AcDbLine
 10
7350.98387526359
 20
7151.625139554823
 30
0.0
 11
7373.599999999995
 21
7174.241264291237
 31
0.0
  0
LINE
  5
2404E
330
747D
100
AcDbEntity
  8
細線
 48
50.0
100
AcDbLine
 10
7306.082594658234
 20
7151.625139554823
 30
0.0
 11
7373.599999999995
 21
7219.142544896586
 31
0.0
  0
LINE
  5
2404F
330
747D
100
AcDbEntity
  8
細線
 48
50.0
100
AcDbLine
 10
7261.181314052881
 20
7151.62513955472
 30
0.0
 11
7373.599999999997
 21
7264.043825501836
 31
0.0
  0
LINE
  5
24050
330
747D
100
AcDbEntity
  8
細線
 48
50.0
100
AcDbLine
 10
7216.280033447536
 20
7151.62513955472
 30
0.0
 11
7373.599999999995
 21
7308.94510610718
 31
0.0
  0
LINE
  5
24051
330
747D
100
AcDbEntity
  8
細線
 48
50.0
100
AcDbLine
 10
7173.599999999995
 20
7333.451509133907
 30
0.0
 11
7191.773630420811
 21
7351.625139554724
 31
0.0
  0
LINE
  5
24052
330
747D
100
AcDbEntity
  8
細線
 48
50.0
100
AcDbLine
 10
8123.600000000001
 20
7153.84638671253
 30
0.0
 11
8321.378752842191
 21
7351.625139554723
 31
0.0
  0
LINE
  5
24053
330
747D
100
AcDbEntity
  8
細線
 48
50.0
100
AcDbLine
 10
8123.599999999999
 20
7198.747667317876
 30
0.0
 11
8276.477472236846
 21
7351.625139554724
 31
0.0
  0
LINE
  5
24054
330
747D
100
AcDbEntity
  8
細線
 48
50.0
100
AcDbLine
 10
8123.599999999997
 20
7243.648947923221
 30
0.0
 11
8231.576191631502
 21
7351.625139554723
 31
0.0
  0
LINE
  5
24055
330
747D
100
AcDbEntity
  8
細線
 48
50.0
100
AcDbLine
 10
8123.599999999997
 20
7288.550228528565
 30
0.0
 11
8186.674911026157
 21
7351.625139554724
 31
0.0
  0
LINE
  5
24056
330
747D
100
AcDbEntity
  8
部品1
 48
50.0
100
AcDbLine
 10
8323.599999999995
 20
7351.625139554723
 30
0.0
 11
8323.600000000002
 21
7151.62513955472
 31
0.0
  0
LINE
  5
24057
330
747D
100
AcDbEntity
  8
部品1
 48
50.0
100
AcDbLine
 10
8123.599999999994
 20
7351.625139554723
 30
0.0
 11
8123.600000000001
 21
7151.62513955472
 31
0.0
  0
LINE
  5
24058
330
747D
100
AcDbEntity
  8
部品1
 48
50.0
100
AcDbLine
 10
7848.600000000008
 20
6771.62513955472
 30
0.0
 11
7648.600000000008
 21
6771.62513955472
 31
0.0
  0
LINE
  5
24059
330
747D
100
AcDbEntity
  8
部品1
 48
50.0
100
AcDbLine
 10
7848.600000000008
 20
6971.625139554721
 30
0.0
 11
7648.600000000008
 21
6971.625139554721
 31
0.0
  0
LINE
  5
2405A
330
747D
100
AcDbEntity
  8
センター
 48
2.0
100
AcDbLine
 10
7748.600000000007
 20
6921.62513955472
 30
0.0
 11
7748.600000000007
 21
6821.62513955472
 31
0.0
  0
LINE
  5
2405B
330
747D
100
AcDbEntity
  8
部品1
 48
50.0
100
AcDbLine
 10
7648.600000000008
 20
6771.62513955472
 30
0.0
 11
7648.600000000008
 21
6971.625139554721
 31
0.0
  0
LINE
  5
2405C
330
747D
100
AcDbEntity
  8
センター
 48
2.0
100
AcDbLine
 10
7698.600000000007
 20
6871.62513955472
 30
0.0
 11
7798.600000000007
 21
6871.62513955472
 31
0.0
  0
LINE
  5
2405D
330
747D
100
AcDbEntity
  8
部品1
 48
50.0
100
AcDbLine
 10
7848.600000000008
 20
6771.62513955472
 30
0.0
 11
7848.600000000008
 21
6971.625139554721
 31
0.0
  0
LINE
  5
2405E
330
747D
100
AcDbEntity
  8
細線
 48
50.0
100
AcDbLine
 10
8211.181314052884
 20
7151.62513955472
 30
0.0
 11
8323.599999999997
 21
7264.043825501836
 31
0.0
  0
LINE
  5
2405F
330
747D
100
AcDbEntity
  8
細線
 48
50.0
100
AcDbLine
 10
8166.280033447529
 20
7151.62513955472
 30
0.0
 11
8323.599999999995
 21
7308.94510610718
 31
0.0
  0
LINE
  5
24060
330
747D
100
AcDbEntity
  8
細線
 48
50.0
100
AcDbLine
 10
8256.082594658234
 20
7151.625139554834
 30
0.0
 11
8323.599999999995
 21
7219.142544896595
 31
0.0
  0
LINE
  5
24061
330
747D
100
AcDbEntity
  8
細線
 48
50.0
100
AcDbLine
 10
8300.98387526359
 20
7151.625139554834
 30
0.0
 11
8323.599999999995
 21
7174.241264291246
 31
0.0
  0
LINE
  5
24062
330
747D
100
AcDbEntity
  8
細線
 48
50.0
100
AcDbLine
 10
8123.599999999994
 20
7333.451509133907
 30
0.0
 11
8141.773630420811
 21
7351.625139554724
 31
0.0
  0
LINE
  5
24066
330
747D
100
AcDbEntity
  8
部品1
 48
50.0
100
AcDbLine
 10
9653.6
 20
6391.625139554739
 30
0.0
 11
9653.6
 21
7351.62513955472
 31
0.0
  0
LINE
  5
24079
330
747D
100
AcDbEntity
  8
センター
 48
2.0
100
AcDbLine
 10
9530.600000000008
 20
6639.625139554723
 30
0.0
 11
9530.600000000008
 21
6539.625139554724
 31
0.0
  0
CIRCLE
  5
2407A
330
747D
100
AcDbEntity
  8
部品1
 48
50.0
100
AcDbCircle
 10
9530.600000000008
 20
6589.625139554724
 30
0.0
 40
35.0
  0
LINE
  5
2407B
330
747D
100
AcDbEntity
  8
センター
 48
2.0
100
AcDbLine
 10
9480.600000000007
 20
6589.625139554724
 30
0.0
 11
9580.600000000009
 21
6589.625139554724
 31
0.0
  0
DIMENSION
  5
2407C
330
747D
100
AcDbEntity
  8
寸法
 48
50.0
100
AcDbDimension
  2
*D39
 10
9530.600000000001
 20
8077.891597648632
 30
0.0
 11
9926.706601717798
 21
8077.891597648632
 31
0.0
 70
   160
 71
     5
 42
123.0
  3
INABA_S40G
100
AcDbAlignedDimension
 13
9653.6
 23
7351.62513955472
 33
0.0
 14
9530.600000000001
 24
7278.625139554721
 34
0.0
100
AcDbRotatedDimension
1001
ACAD
1000
DSTYLE
1002
{
1070
   341
1005
0
1002
}
  0
DIMENSION
  5
2407E
330
747D
100
AcDbEntity
  8
寸法
 48
50.0
100
AcDbDimension
  2
*D40
 10
8698.600000000007
 20
7834.233956224969
 30
0.0
 11
9176.100000000003
 21
7934.233956224969
 31
0.0
 70
    32
 71
     5
 42
954.9999999999927
  3
INABA_S40G
100
AcDbAlignedDimension
 13
9653.6
 23
7351.62513955472
 33
0.0
 14
8698.600000000007
 24
6921.62513955472
 34
0.0
100
AcDbRotatedDimension
1001
ACAD
1000
DSTYLE
1002
{
1070
   341
1005
0
1002
}
  0
LINE
  5
2407F
330
747D
100
AcDbEntity
  8
細線
 48
50.0
100
AcDbLine
 10
9250.983875263585
 20
7151.625139554834
 30
0.0
 11
9273.599999999992
 21
7174.241264291246
 31
0.0
  0
LINE
  5
24080
330
747D
100
AcDbEntity
  8
細線
 48
50.0
100
AcDbLine
 10
9206.08259465823
 20
7151.625139554834
 30
0.0
 11
9273.599999999992
 21
7219.142544896595
 31
0.0
  0
LINE
  5
24081
330
747D
100
AcDbEntity
  8
細線
 48
50.0
100
AcDbLine
 10
9161.18131405288
 20
7151.62513955472
 30
0.0
 11
9273.599999999998
 21
7264.04382550184
 31
0.0
  0
LINE
  5
24082
330
747D
100
AcDbEntity
  8
細線
 48
50.0
100
AcDbLine
 10
9116.280033447532
 20
7151.62513955472
 30
0.0
 11
9273.599999999994
 21
7308.945106107183
 31
0.0
  0
LINE
  5
24083
330
747D
100
AcDbEntity
  8
細線
 48
50.0
100
AcDbLine
 10
9073.599999999997
 20
7153.84638671253
 30
0.0
 11
9271.37875284219
 21
7351.625139554724
 31
0.0
  0
LINE
  5
24084
330
747D
100
AcDbEntity
  8
細線
 48
50.0
100
AcDbLine
 10
9073.599999999998
 20
7198.747667317879
 30
0.0
 11
9226.477472236846
 21
7351.625139554724
 31
0.0
  0
LINE
  5
24085
330
747D
100
AcDbEntity
  8
細線
 48
50.0
100
AcDbLine
 10
9073.599999999995
 20
7243.648947923221
 30
0.0
 11
9181.576191631497
 21
7351.625139554724
 31
0.0
  0
LINE
  5
24086
330
747D
100
AcDbEntity
  8
細線
 48
50.0
100
AcDbLine
 10
9073.599999999997
 20
7288.55022852857
 30
0.0
 11
9136.674911026153
 21
7351.625139554726
 31
0.0
  0
LINE
  5
24087
330
747D
100
AcDbEntity
  8
部品1
 48
50.0
100
AcDbLine
 10
9073.599999999995
 20
7351.625139554726
 30
0.0
 11
9073.599999999998
 21
7151.62513955472
 31
0.0
  0
LINE
  5
24089
330
747D
100
AcDbEntity
  8
センター
 48
2.0
100
AcDbLine
 10
8648.600000000007
 20
6871.62513955472
 30
0.0
 11
8748.600000000008
 21
6871.62513955472
 31
0.0
  0
LINE
  5
2408A
330
747D
100
AcDbEntity
  8
部品1
 48
50.0
100
AcDbLine
 10
8798.600000000007
 20
6771.62513955472
 30
0.0
 11
8598.600000000008
 21
6771.62513955472
 31
0.0
  0
LINE
  5
2408B
330
747D
100
AcDbEntity
  8
部品1
 48
50.0
100
AcDbLine
 10
8798.600000000007
 20
6971.625139554721
 30
0.0
 11
8598.600000000008
 21
6971.625139554721
 31
0.0
  0
LINE
  5
2408C
330
747D
100
AcDbEntity
  8
部品1
 48
50.0
100
AcDbLine
 10
8598.600000000008
 20
6771.62513955472
 30
0.0
 11
8598.600000000008
 21
6971.625139554721
 31
0.0
  0
LINE
  5
2408D
330
747D
100
AcDbEntity
  8
部品1
 48
50.0
100
AcDbLine
 10
8798.600000000007
 20
6771.62513955472
 30
0.0
 11
8798.600000000007
 21
6971.625139554721
 31
0.0
  0
LINE
  5
2408E
330
747D
100
AcDbEntity
  8
センター
 48
2.0
100
AcDbLine
 10
8698.600000000007
 20
6921.62513955472
 30
0.0
 11
8698.600000000007
 21
6821.62513955472
 31
0.0
  0
LINE
  5
2408F
330
747D
100
AcDbEntity
  8
細線
 48
50.0
100
AcDbLine
 10
9073.599999999995
 20
7333.451509133912
 30
0.0
 11
9091.773630420808
 21
7351.625139554728
 31
0.0
  0
LINE
  5
24090
330
747D
100
AcDbEntity
  8
部品1
 48
50.0
100
AcDbLine
 10
9273.599999999994
 20
7351.625139554726
 30
0.0
 11
9273.6
 21
7151.62513955472
 31
0.0
  0
LINE
  5
24092
330
747D
100
AcDbEntity
  8
細線
 48
50.0
100
AcDbLine
 10
9646.082594658244
 20
6796.625139554727
 30
0.0
 11
9653.599999999993
 21
6804.142544896475
 31
0.0
  0
LINE
  5
24093
330
747D
100
AcDbEntity
  8
細線
 48
50.0
100
AcDbLine
 10
9601.181314052901
 20
6796.625139554731
 30
0.0
 11
9653.599999999995
 21
6849.043825501822
 31
0.0
  0
LINE
  5
24094
330
747D
100
AcDbEntity
  8
細線
 48
50.0
100
AcDbLine
 10
9556.280033447556
 20
6796.625139554731
 30
0.0
 11
9653.599999999993
 21
6893.945106107169
 31
0.0
  0
LINE
  5
24095
330
747D
100
AcDbEntity
  8
細線
 48
50.0
100
AcDbLine
 10
9533.599999999999
 20
6818.846386712523
 30
0.0
 11
9653.599999999993
 21
6938.846386712512
 31
0.0
  0
LINE
  5
24096
330
747D
100
AcDbEntity
  8
細線
 48
50.0
100
AcDbLine
 10
9533.599999999999
 20
6863.747667317865
 30
0.0
 11
9653.599999999993
 21
6983.747667317858
 31
0.0
  0
LINE
  5
24097
330
747D
100
AcDbEntity
  8
細線
 48
50.0
100
AcDbLine
 10
9533.599999999999
 20
6908.648947923213
 30
0.0
 11
9621.576191631518
 21
6996.62513955473
 31
0.0
  0
LINE
  5
24098
330
747D
100
AcDbEntity
  8
細線
 48
50.0
100
AcDbLine
 10
9533.599999999998
 20
6953.550228528562
 30
0.0
 11
9576.674911026172
 21
6996.62513955473
 31
0.0
  0
LINE
  5
24099
330
747D
100
AcDbEntity
  8
部品1
 48
50.0
100
AcDbLine
 10
9653.599999999993
 20
6996.62513955473
 30
0.0
 11
9533.599999999998
 21
6996.625139554729
 31
0.0
  0
LINE
  5
2409A
330
747D
100
AcDbEntity
  8
部品1
 48
50.0
100
AcDbLine
 10
9653.599999999993
 20
6796.625139554731
 30
0.0
 11
9533.599999999998
 21
6796.625139554731
 31
0.0
  0
LINE
  5
2409B
330
747D
100
AcDbEntity
  8
センター
 48
2.0
100
AcDbLine
 10
9530.600000000001
 20
7278.625139554721
 30
0.0
 11
9530.600000000001
 21
7178.625139554721
 31
0.0
  0
CIRCLE
  5
2409C
330
747D
100
AcDbEntity
  8
部品1
 48
50.0
100
AcDbCircle
 10
9530.600000000001
 20
7228.625139554721
 30
0.0
 40
35.0
  0
LINE
  5
2409D
330
747D
100
AcDbEntity
  8
センター
 48
2.0
100
AcDbLine
 10
9480.6
 20
7228.625139554721
 30
0.0
 11
9580.600000000002
 21
7228.625139554721
 31
0.0
  0
TEXT
  5
24755
330
747D
100
AcDbEntity
  8
文字
 62
     7
 48
50.0
100
AcDbText
 10
14251.2
 20
838.2527270729188
 30
0.0
 40
100.0
  1
～一般型・多雪地型・豪雪地型～
  7
STYLE2
100
AcDbText
  0
LINE
  5
24775
330
747D
100
AcDbEntity
  8
部品1
 48
50.0
100
AcDbLine
 10
9533.599999999999
 20
6671.625139554738
 30
0.0
 11
6913.599999999999
 21
6671.625139554715
 31
0.0
  0
LINE
  5
247AB
330
747D
100
AcDbEntity
  8
細線
 48
50.0
100
AcDbLine
 10
8123.599999999992
 20
6615.031019448486
 30
0.0
 11
8180.194120106222
 21
6671.625139554717
 31
0.0
  0
LINE
  5
247AC
330
747D
100
AcDbEntity
  8
細線
 48
50.0
100
AcDbLine
 10
8123.599999999997
 20
6525.228458237688
 30
0.0
 11
8269.99668131703
 21
6671.625139554717
 31
0.0
  0
LINE
  5
247AD
330
747D
100
AcDbEntity
  8
細線
 48
50.0
100
AcDbLine
 10
8123.599999999994
 20
6480.327177632339
 30
0.0
 11
8314.897961922374
 21
6671.62513955472
 31
0.0
  0
LINE
  5
247AE
330
747D
100
AcDbEntity
  8
細線
 48
50.0
100
AcDbLine
 10
8123.599999999997
 20
6435.425897026997
 30
0.0
 11
8323.599999999997
 21
6635.425897026991
 31
0.0
  0
LINE
  5
247AF
330
747D
100
AcDbEntity
  8
細線
 48
50.0
100
AcDbLine
 10
8123.599999999994
 20
6570.129738843141
 30
0.0
 11
8225.095400711564
 21
6671.625139554717
 31
0.0
  0
LINE
  5
247B0
330
747D
100
AcDbEntity
  8
細線
 48
50.0
100
AcDbLine
 10
8304.305645554457
 20
6391.625139554728
 30
0.0
 11
8323.599999999998
 21
6410.919494000269
 31
0.0
  0
LINE
  5
247B1
330
747D
100
AcDbEntity
  8
部品1
 48
50.0
100
AcDbLine
 10
8323.599999999995
 20
6671.625139554717
 30
0.0
 11
8323.599999999997
 21
6391.625139554726
 31
0.0
  0
LINE
  5
247B2
330
747D
100
AcDbEntity
  8
細線
 48
50.0
100
AcDbLine
 10
8169.601803738416
 20
6391.625139554724
 30
0.0
 11
8323.599999999997
 21
6545.623335816305
 31
0.0
  0
LINE
  5
247B3
330
747D
100
AcDbEntity
  8
細線
 48
50.0
100
AcDbLine
 10
8214.503084343764
 20
6391.625139554724
 30
0.0
 11
8323.599999999997
 21
6500.72205521096
 31
0.0
  0
LINE
  5
247B4
330
747D
100
AcDbEntity
  8
細線
 48
50.0
100
AcDbLine
 10
8259.40436494911
 20
6391.625139554726
 30
0.0
 11
8323.599999999998
 21
6455.820774605616
 31
0.0
  0
LINE
  5
247B5
330
747D
100
AcDbEntity
  8
部品1
 48
50.0
100
AcDbLine
 10
8123.599999999994
 20
6671.625139554716
 30
0.0
 11
8123.599999999997
 21
6391.625139554722
 31
0.0
  0
LINE
  5
247B6
330
747D
100
AcDbEntity
  8
細線
 48
50.0
100
AcDbLine
 10
8124.700523133071
 20
6391.625139554724
 30
0.0
 11
8323.599999999995
 21
6590.524616421648
 31
0.0
  0
LINE
  5
247B7
330
747D
100
AcDbEntity
  8
細線
 48
50.0
100
AcDbLine
 10
9073.599999999991
 20
6615.031019448486
 30
0.0
 11
9130.194120106223
 21
6671.625139554717
 31
0.0
  0
LINE
  5
247B8
330
747D
100
AcDbEntity
  8
細線
 48
50.0
100
AcDbLine
 10
9073.599999999997
 20
6525.228458237688
 30
0.0
 11
9219.996681317029
 21
6671.625139554717
 31
0.0
  0
LINE
  5
247B9
330
747D
100
AcDbEntity
  8
細線
 48
50.0
100
AcDbLine
 10
9073.599999999995
 20
6480.327177632339
 30
0.0
 11
9264.897961922375
 21
6671.62513955472
 31
0.0
  0
LINE
  5
247BA
330
747D
100
AcDbEntity
  8
細線
 48
50.0
100
AcDbLine
 10
9073.599999999997
 20
6435.425897026997
 30
0.0
 11
9273.599999999998
 21
6635.425897026991
 31
0.0
  0
LINE
  5
247BB
330
747D
100
AcDbEntity
  8
細線
 48
50.0
100
AcDbLine
 10
9073.599999999993
 20
6570.129738843141
 30
0.0
 11
9175.095400711565
 21
6671.625139554717
 31
0.0
  0
LINE
  5
247BC
330
747D
100
AcDbEntity
  8
細線
 48
50.0
100
AcDbLine
 10
9254.305645554458
 20
6391.625139554728
 30
0.0
 11
9273.6
 21
6410.919494000269
 31
0.0
  0
LINE
  5
247BD
330
747D
100
AcDbEntity
  8
部品1
 48
50.0
100
AcDbLine
 10
9273.599999999994
 20
6671.625139554717
 30
0.0
 11
9273.599999999998
 21
6391.625139554726
 31
0.0
  0
LINE
  5
247BE
330
747D
100
AcDbEntity
  8
細線
 48
50.0
100
AcDbLine
 10
9119.601803738417
 20
6391.625139554724
 30
0.0
 11
9273.599999999998
 21
6545.623335816305
 31
0.0
  0
LINE
  5
247BF
330
747D
100
AcDbEntity
  8
細線
 48
50.0
100
AcDbLine
 10
9164.503084343763
 20
6391.625139554724
 30
0.0
 11
9273.599999999998
 21
6500.72205521096
 31
0.0
  0
LINE
  5
247C0
330
747D
100
AcDbEntity
  8
細線
 48
50.0
100
AcDbLine
 10
9209.404364949111
 20
6391.625139554726
 30
0.0
 11
9273.6
 21
6455.820774605616
 31
0.0
  0
LINE
  5
247C1
330
747D
100
AcDbEntity
  8
部品1
 48
50.0
100
AcDbLine
 10
9073.599999999995
 20
6671.625139554716
 30
0.0
 11
9073.599999999997
 21
6391.625139554722
 31
0.0
  0
LINE
  5
247C2
330
747D
100
AcDbEntity
  8
細線
 48
50.0
100
AcDbLine
 10
9074.700523133072
 20
6391.625139554724
 30
0.0
 11
9273.599999999994
 21
6590.524616421648
 31
0.0
  0
LINE
  5
247CD
330
747D
100
AcDbEntity
  8
部品1
 48
50.0
100
AcDbLine
 10
9533.599999999999
 20
6671.625139554738
 30
0.0
 11
9533.599999999999
 21
7151.62513955472
 31
0.0
  0
LINE
  5
247CE
330
747D
100
AcDbEntity
  8
部品1
 48
50.0
100
AcDbLine
 10
6913.599999999998
 20
6671.625139554715
 30
0.0
 11
6913.599999999997
 21
7151.625139554719
 31
0.0
  0
MTEXT
  5
24966
102
{ACAD_REACTORS
330
24967
102
}
330
747D
100
AcDbEntity
  8
寸法
 62
     7
 48
50.0
100
AcDbMText
 10
10812.95238712893
 20
2478.683795882616
 30
0.0
 40
120.0
 41
0.8
 71
     4
 72
     1
  1
\A1;C.B
  7
STYLE1
 73
     1
 44
1.0
1001
ACAD
1000
MTEXTBEGIN
1070
    73
1070
     1
1070
    44
1040
1.0
1070
    74
1070
     0
1000
MTEXTEND
  0
LEADER
  5
24967
330
747D
100
AcDbEntity
  8
寸法
 48
50.0
100
AcDbLeader
  3
INABA_S50G
 73
     0
 74
     0
 75
     1
 40
120.0
 41
185.591883092037
 76
     3
 10
10629.81418049529
 20
2221.537475201478
 30
0.0
 10
10662.95238712893
 20
2393.683795882616
 30
0.0
 10
10787.95238712893
 20
2393.683795882616
 30
0.0
340
24966
1001
ACAD
1000
DSTYLE
1002
{
1070
    40
1040
1.0
1002
}
  0
LINE
  5
24968
330
747D
100
AcDbEntity
  8
細線
 48
50.0
100
AcDbLine
 10
10775.4675940717
 20
1865.838559548127
 30
0.0
 11
10769.03681345335
 21
1889.838559548127
 31
0.0
  0
LINE
  5
24969
330
747D
100
AcDbEntity
  8
細線
 48
50.0
100
AcDbLine
 10
10754.03165867721
 20
1785.838559548127
 30
0.0
 11
10760.46243929555
 21
1761.838559548127
 31
0.0
  0
LINE
  5
2496A
330
747D
100
AcDbEntity
  8
部品1
100
AcDbLine
 10
10819.08976887936
 20
1981.537475201477
 30
0.0
 11
10819.08976887937
 21
1761.838559548128
 31
0.0
  0
LINE
  5
2496B
330
747D
100
AcDbEntity
  8
細線
 48
50.0
100
AcDbLine
 10
10747.60087805886
 20
1761.838559548127
 30
0.0
 11
10781.89837469004
 21
1889.838559548125
 31
0.0
  0
LINE
  5
2496C
330
747D
100
AcDbEntity
  8
細線
 48
50.0
100
AcDbLine
 10
10696.57954912445
 20
1865.838559548127
 30
0.0
 11
10690.1487685061
 21
1889.838559548127
 31
0.0
  0
LINE
  5
2496D
330
747D
100
AcDbEntity
  8
細線
100
AcDbLine
 10
10572.1261633787
 20
1889.838559548129
 30
0.0
 11
10663.82507903204
 21
1981.537475201477
 31
0.0
  0
LINE
  5
2496E
330
747D
100
AcDbEntity
  8
細線
 48
50.0
100
AcDbLine
 10
10617.69150417719
 20
1865.838559548128
 30
0.0
 11
10611.26072355885
 21
1889.838559548127
 31
0.0
  0
LINE
  5
2496F
330
747D
100
AcDbEntity
  8
細線
100
AcDbLine
 10
10606.06728887565
 20
1889.838559548129
 30
0.0
 11
10697.766204529
 21
1981.537475201477
 31
0.0
  0
LINE
  5
24970
330
747D
100
AcDbEntity
  8
細線
 48
50.0
100
AcDbLine
 10
10381.02736933546
 20
1865.838559548128
 30
0.0
 11
10374.59658871712
 21
1889.838559548127
 31
0.0
  0
LINE
  5
24971
330
747D
100
AcDbEntity
  8
細線
 48
50.0
100
AcDbLine
 10
10459.91541428271
 20
1865.838559548128
 30
0.0
 11
10453.48463366436
 21
1889.838559548127
 31
0.0
  0
LINE
  5
24972
330
747D
100
AcDbEntity
  8
細線
 48
50.0
100
AcDbLine
 10
10538.80345922995
 20
1865.838559548128
 30
0.0
 11
10532.37267861161
 21
1889.838559548127
 31
0.0
  0
LINE
  5
24973
330
747D
100
AcDbEntity
  8
細線
 48
50.0
100
AcDbLine
 10
10675.14361372996
 20
1785.838559548127
 30
0.0
 11
10681.57439434831
 21
1761.838559548127
 31
0.0
  0
LINE
  5
24974
330
747D
100
AcDbEntity
  8
細線
 48
50.0
100
AcDbLine
 10
10596.25556878271
 20
1785.838559548128
 30
0.0
 11
10602.68634940107
 21
1761.838559548128
 31
0.0
  0
LINE
  5
24975
330
747D
100
AcDbEntity
  8
細線
 48
50.0
100
AcDbLine
 10
10438.47947888822
 20
1785.838559548128
 30
0.0
 11
10444.91025950657
 21
1761.838559548128
 31
0.0
  0
LINE
  5
24976
330
747D
100
AcDbEntity
  8
細線
 48
50.0
100
AcDbLine
 10
10517.36752383547
 20
1785.838559548128
 30
0.0
 11
10523.79830445381
 21
1761.838559548128
 31
0.0
  0
LINE
  5
24977
330
747D
100
AcDbEntity
  8
細線
 48
50.0
100
AcDbLine
 10
10510.93674321711
 20
1761.838559548128
 30
0.0
 11
10545.2342398483
 21
1889.838559548127
 31
0.0
  0
LINE
  5
24978
330
747D
100
AcDbEntity
  8
細線
 48
50.0
100
AcDbLine
 10
10432.04869826987
 20
1761.838559548127
 30
0.0
 11
10466.34619490105
 21
1889.838559548127
 31
0.0
  0
LINE
  5
24979
330
747D
100
AcDbEntity
  8
細線
 48
50.0
100
AcDbLine
 10
10589.82478816436
 20
1761.838559548127
 30
0.0
 11
10624.12228479554
 21
1889.838559548127
 31
0.0
  0
LINE
  5
2497A
330
747D
100
AcDbEntity
  8
細線
100
AcDbLine
 10
10640.00841437261
 20
1889.838559548129
 30
0.0
 11
10731.70733002595
 21
1981.537475201477
 31
0.0
  0
LINE
  5
2497B
330
747D
100
AcDbEntity
  8
細線
 48
50.0
100
AcDbLine
 10
10668.71283311161
 20
1761.838559548125
 30
0.0
 11
10703.0103297428
 21
1889.838559548125
 31
0.0
  0
LINE
  5
2497C
330
747D
100
AcDbEntity
  8
部品1
100
AcDbLine
 10
10699.08976887936
 20
2221.537475201478
 30
0.0
 11
10699.08976887936
 21
1981.537475201477
 31
0.0
  0
LINE
  5
2497D
330
747D
100
AcDbEntity
  8
細線
100
AcDbLine
 10
10685.25210653178
 20
1981.53747520148
 30
0.0
 11
10445.25210653179
 21
2221.537475201478
 31
0.0
  0
LINE
  5
2497E
330
747D
100
AcDbEntity
  8
細線
100
AcDbLine
 10
10634.34041828635
 20
1981.537475201477
 30
0.0
 11
10394.34041828635
 21
2221.537475201478
 31
0.0
  0
LINE
  5
2497F
330
747D
100
AcDbEntity
  8
細線
100
AcDbLine
 10
10246.06728887565
 20
1889.838559548127
 30
0.0
 11
10337.76620452899
 21
1981.537475201477
 31
0.0
  0
LINE
  5
24980
330
747D
100
AcDbEntity
  8
細線
100
AcDbLine
 10
10212.12616337869
 20
1889.838559548127
 30
0.0
 11
10303.82507903204
 21
1981.537475201477
 31
0.0
  0
LINE
  5
24981
330
747D
100
AcDbEntity
  8
細線
 48
50.0
100
AcDbLine
 10
10223.25127944097
 20
1865.838559548128
 30
0.0
 11
10216.82049882262
 21
1889.838559548127
 31
0.0
  0
LINE
  5
24982
330
747D
100
AcDbEntity
  8
細線
 48
50.0
100
AcDbLine
 10
10302.13932438822
 20
1865.838559548128
 30
0.0
 11
10295.70854376987
 21
1889.838559548127
 31
0.0
  0
LINE
  5
24983
330
747D
100
AcDbEntity
  8
細線
 48
50.0
100
AcDbLine
 10
10144.36323449371
 20
1865.838559548128
 30
0.0
 11
10137.93245387537
 21
1889.838559548127
 31
0.0
  0
LINE
  5
24984
330
747D
100
AcDbEntity
  8
細線
 48
50.0
100
AcDbLine
 10
10359.59143394097
 20
1785.838559548128
 30
0.0
 11
10366.02221455932
 21
1761.838559548128
 31
0.0
  0
LINE
  5
24985
330
747D
100
AcDbEntity
  8
細線
 48
50.0
100
AcDbLine
 10
10280.70338899373
 20
1785.838559548128
 30
0.0
 11
10287.13416961207
 21
1761.838559548128
 31
0.0
  0
LINE
  5
24986
330
747D
100
AcDbEntity
  8
細線
 48
50.0
100
AcDbLine
 10
10122.92729909922
 20
1785.838559548128
 30
0.0
 11
10129.35807971757
 21
1761.838559548128
 31
0.0
  0
LINE
  5
24987
330
747D
100
AcDbEntity
  8
細線
 48
50.0
100
AcDbLine
 10
10201.81534404648
 20
1785.838559548128
 30
0.0
 11
10208.24612466482
 21
1761.838559548128
 31
0.0
  0
LINE
  5
24988
330
747D
100
AcDbEntity
  8
部品1
100
AcDbLine
 10
10099.08976887937
 20
1761.838559548124
 30
0.0
 11
10099.08976887937
 21
1981.537475201477
 31
0.0
  0
LINE
  5
24989
330
747D
100
AcDbEntity
  8
細線
 48
50.0
100
AcDbLine
 10
10116.49651848088
 20
1761.838559548128
 30
0.0
 11
10150.79401511206
 21
1889.838559548127
 31
0.0
  0
LINE
  5
2498A
330
747D
100
AcDbEntity
  8
細線
 48
50.0
100
AcDbLine
 10
10274.27260837537
 20
1761.838559548128
 30
0.0
 11
10308.57010500656
 21
1889.838559548127
 31
0.0
  0
LINE
  5
2498B
330
747D
100
AcDbEntity
  8
細線
 48
50.0
100
AcDbLine
 10
10195.38456342812
 20
1761.838559548127
 30
0.0
 11
10229.68206005931
 21
1889.838559548127
 31
0.0
  0
LINE
  5
2498C
330
747D
100
AcDbEntity
  8
部品1
100
AcDbLine
 10
10219.08976887937
 20
1981.537475201477
 30
0.0
 11
10219.08976887937
 21
2221.537475201478
 31
0.0
  0
TEXT
  5
2498D
330
747D
100
AcDbEntity
  8
部品1
 48
50.0
100
AcDbText
 10
9454.971682120865
 20
1714.737734564169
 30
0.0
 40
80.0
  1
ボルトの出
 50
90.0
  7
STYLE2
100
AcDbText
  0
LINE
  5
2498E
330
747D
100
AcDbEntity
  8
細線
100
AcDbLine
 10
10362.81141431072
 20
1981.537475201477
 30
0.0
 11
10219.08976887937
 21
2125.259120632831
 31
0.0
  0
LWPOLYLINE
  5
2498F
330
747D
100
AcDbEntity
  8
部品1
 48
50.0
100
AcDbPolyline
 90
        2
 70
     0
 43
12.0
 10
9834.478506778978
 20
1981.537475201477
 10
11035.5708099106
 20
1981.537475201477
  0
LINE
  5
24990
330
747D
100
AcDbEntity
  8
細線
100
AcDbLine
 10
10280.00841437261
 20
1889.838559548127
 30
0.0
 11
10371.70733002595
 21
1981.537475201477
 31
0.0
  0
LINE
  5
24991
330
747D
100
AcDbEntity
  8
部品1
100
AcDbLine
 10
10099.08976887937
 20
1889.838559548127
 30
0.0
 11
10819.08976887936
 21
1889.83855954813
 31
0.0
  0
LINE
  5
24992
330
747D
100
AcDbEntity
  8
部品1
100
AcDbLine
 10
10099.08976887937
 20
1761.838559548124
 30
0.0
 11
10819.08976887936
 21
1761.838559548128
 31
0.0
  0
LINE
  5
24993
330
747D
100
AcDbEntity
  8
細線
 48
50.0
100
AcDbLine
 10
10353.16065332262
 20
1761.838559548128
 30
0.0
 11
10387.45814995381
 21
1889.838559548127
 31
0.0
  0
LINE
  5
24994
330
747D
100
AcDbEntity
  8
部品1
100
AcDbLine
 10
10219.08976887937
 20
2221.537475201478
 30
0.0
 11
10699.08976887936
 21
2221.537475201478
 31
0.0
  0
LINE
  5
24995
330
747D
100
AcDbEntity
  8
細線
100
AcDbLine
 10
10413.72310255615
 20
1981.537475201477
 30
0.0
 11
10219.08976887937
 21
2176.170808878261
 31
0.0
  0
LINE
  5
24996
330
747D
100
AcDbEntity
  8
部品1
100
AcDbLine
 10
11405.8312699764
 20
656.5691728174161
 30
0.0
 11
11405.8312699764
 21
3620.876142402063
 31
0.0
  0
TEXT
  5
24997
330
747D
100
AcDbEntity
  8
部品1
100
AcDbText
 10
8027.72608576854
 20
3441.324210450635
 30
0.0
 40
120.0
  1
基礎詳細
  7
STYLE2
100
AcDbText
  0
LINE
  5
24998
330
747D
100
AcDbEntity
  8
部品1
 48
50.0
100
AcDbLine
 10
8342.95383657661
 20
2620.412756310621
 30
0.0
 11
8358.953836576608
 21
2612.41275631062
 31
0.0
  0
LINE
  5
24999
330
747D
100
AcDbEntity
  8
細線
 48
50.0
100
AcDbLine
 10
8310.95383657661
 20
2572.412756310621
 30
0.0
 11
8310.95383657661
 21
2604.412756310621
 31
0.0
  0
LINE
  5
2499A
330
747D
100
AcDbEntity
  8
部品1
 48
50.0
100
AcDbLine
 10
8358.953836576608
 20
2580.41275631062
 30
0.0
 11
8358.953836576608
 21
2612.41275631062
 31
0.0
  0
LINE
  5
2499B
330
747D
100
AcDbEntity
  8
細線
 48
50.0
100
AcDbLine
 10
8342.95383657661
 20
2572.412756310621
 30
0.0
 11
8342.95383657661
 21
2604.412756310621
 31
0.0
  0
LINE
  5
2499C
330
747D
100
AcDbEntity
  8
部品1
 48
50.0
100
AcDbLine
 10
8342.95383657661
 20
2604.412756310621
 30
0.0
 11
8358.953836576608
 21
2612.41275631062
 31
0.0
  0
LINE
  5
2499D
330
747D
100
AcDbEntity
  8
部品1
 48
50.0
100
AcDbLine
 10
8310.95383657661
 20
2604.412756310621
 30
0.0
 11
8342.95383657661
 21
2604.412756310621
 31
0.0
  0
LINE
  5
2499E
330
747D
100
AcDbEntity
  8
部品1
 48
50.0
100
AcDbLine
 10
8342.95383657661
 20
2572.412756310621
 30
0.0
 11
8358.953836576608
 21
2580.41275631062
 31
0.0
  0
LINE
  5
2499F
330
747D
100
AcDbEntity
  8
部品1
 48
50.0
100
AcDbLine
 10
8310.95383657661
 20
2572.412756310621
 30
0.0
 11
8342.95383657661
 21
2572.412756310621
 31
0.0
  0
ELLIPSE
  5
249A0
330
747D
100
AcDbEntity
  8
細線
 48
50.0
100
AcDbEllipse
 10
8326.95383657661
 20
2612.41275631062
 30
0.0
 11
14.76670786606846
 21
0.0
 31
0.0
210
0.0
220
0.0
230
1.0
 40
0.2071254069489396
 41
0.0
 42
6.283185307179586
  0
LINE
  5
249A1
330
747D
100
AcDbEntity
  8
部品1
 48
50.0
100
AcDbLine
 10
8310.95383657661
 20
2620.412756310621
 30
0.0
 11
8342.95383657661
 21
2620.412756310621
 31
0.0
  0
LINE
  5
249A2
330
747D
100
AcDbEntity
  8
部品1
 48
50.0
100
AcDbLine
 10
8294.953836576608
 20
2580.41275631062
 30
0.0
 11
8294.953836576608
 21
2612.41275631062
 31
0.0
  0
LINE
  5
249A3
330
747D
100
AcDbEntity
  8
部品1
 48
50.0
100
AcDbLine
 10
8294.953836576608
 20
2612.41275631062
 30
0.0
 11
8310.95383657661
 21
2620.412756310621
 31
0.0
  0
LINE
  5
249A4
330
747D
100
AcDbEntity
  8
部品1
 48
50.0
100
AcDbLine
 10
8294.953836576608
 20
2580.41275631062
 30
0.0
 11
8310.95383657661
 21
2572.412756310621
 31
0.0
  0
LINE
  5
249A5
330
747D
100
AcDbEntity
  8
部品1
 48
50.0
100
AcDbLine
 10
8294.953836576608
 20
2612.41275631062
 30
0.0
 11
8310.95383657661
 21
2604.412756310621
 31
0.0
  0
LINE
  5
249A6
330
747D
100
AcDbEntity
  8
部品1
 48
50.0
100
AcDbLine
 10
8366.953836576611
 20
2481.06076364575
 30
0.0
 11
8366.953836576611
 21
2490.66076364575
 31
0.0
  0
ELLIPSE
  5
249A7
330
747D
100
AcDbEntity
  8
部品1
 48
50.0
100
AcDbEllipse
 10
8326.95383657661
 20
2490.66076364575
 30
0.0
 11
18.4
 21
0.0
 31
0.0
210
0.0
220
0.0
230
1.0
 40
0.3478260869565217
 41
0.0
 42
6.283185307179586
  0
ARC
  5
249A8
330
747D
100
AcDbEntity
  8
部品1
100
AcDbCircle
 10
8165.853836576609
 20
2319.637475201478
 30
0.0
 40
2.7
100
AcDbArc
 50
90.0
 51
180.0
  0
LINE
  5
249A9
330
747D
100
AcDbEntity
  8
部品1
100
AcDbLine
 10
8168.553836576608
 20
2333.137475201478
 30
0.0
 11
8210.853836576609
 21
2333.137475201475
 31
0.0
  0
LINE
  5
249AA
330
747D
100
AcDbEntity
  8
部品1
100
AcDbLine
 10
8165.853836576609
 20
2322.337475201478
 30
0.0
 11
8165.853836576609
 21
2330.437475201478
 31
0.0
  0
LINE
  5
249AB
330
747D
100
AcDbEntity
  8
部品1
100
AcDbLine
 10
8165.853836576609
 20
2322.337475201478
 30
0.0
 11
8165.853836576609
 21
2322.337475201478
 31
0.0
  0
ARC
  5
249AC
330
747D
100
AcDbEntity
  8
部品1
100
AcDbCircle
 10
8168.553836576608
 20
2330.437475201478
 30
0.0
 40
2.7
100
AcDbArc
 50
90.0
 51
180.0
  0
ARC
  5
249AD
330
747D
100
AcDbEntity
  8
部品1
100
AcDbCircle
 10
8210.853836576609
 20
2330.437475201475
 30
0.0
 40
2.7
100
AcDbArc
 50
0.0
 51
90.0
  0
LINE
  5
249AE
330
747D
100
AcDbEntity
  8
部品1
 48
50.0
100
AcDbLine
 10
8286.953836576609
 20
2490.66076364575
 30
0.0
 11
8286.953836576609
 21
2481.06076364575
 31
0.0
  0
ELLIPSE
  5
249AF
330
747D
100
AcDbEntity
  8
部品1
 48
50.0
100
AcDbEllipse
 10
8326.95383657661
 20
2481.060763645751
 30
0.0
 11
40.0
 21
0.0
 31
0.0
210
0.0
220
0.0
230
1.0
 40
0.4
 41
3.141592653589793
 42
6.283185307179586
  0
ELLIPSE
  5
249B0
330
747D
100
AcDbEntity
  8
部品1
 48
50.0
100
AcDbEllipse
 10
8326.95383657661
 20
2490.66076364575
 30
0.0
 11
40.0
 21
0.0
 31
0.0
210
0.0
220
0.0
230
1.0
 40
0.4
 41
0.0
 42
6.283185307179586
  0
LINE
  5
249B1
330
747D
100
AcDbEntity
  8
部品1
100
AcDbLine
 10
8321.553836576608
 20
2274.297475201478
 30
0.0
 11
8332.35383657661
 21
2274.297475201478
 31
0.0
  0
LINE
  5
249B2
330
747D
100
AcDbEntity
  8
部品1
100
AcDbLine
 10
8317.953836576609
 20
2270.697475201478
 30
0.0
 11
8335.95383657661
 21
2270.697475201478
 31
0.0
  0
LINE
  5
249B3
330
747D
100
AcDbEntity
  8
細線
100
AcDbLine
 10
8321.553836576612
 20
2231.097475201478
 30
0.0
 11
8321.553836576608
 21
2274.297475201478
 31
0.0
  0
LINE
  5
249B4
330
747D
100
AcDbEntity
  8
細線
100
AcDbLine
 10
8332.35383657661
 20
2231.097475201478
 30
0.0
 11
8332.35383657661
 21
2274.297475201478
 31
0.0
  0
LINE
  5
249B5
330
747D
100
AcDbEntity
  8
部品1
100
AcDbLine
 10
8234.253836576609
 20
2288.397475201478
 30
0.0
 11
8234.253836576609
 21
2271.297475201478
 31
0.0
  0
LINE
  5
249B6
330
747D
100
AcDbEntity
  8
部品1
100
AcDbLine
 10
8267.81383657661
 20
2288.397475201478
 30
0.0
 11
8267.813836576605
 21
2233.797475201478
 31
0.0
  0
ARC
  5
249B7
330
747D
100
AcDbEntity
  8
部品1
100
AcDbCircle
 10
8253.153836576609
 20
2276.437475201477
 30
0.0
 40
2.7
100
AcDbArc
 50
0.0
 51
90.0
  0
LINE
  5
249B8
330
747D
100
AcDbEntity
  8
部品1
100
AcDbLine
 10
8213.553836576608
 20
2279.137475201478
 30
0.0
 11
8253.153836576609
 21
2279.137475201478
 31
0.0
  0
ARC
  5
249B9
330
747D
100
AcDbEntity
  8
部品1
100
AcDbCircle
 10
8253.153836576609
 20
2233.797475201478
 30
0.0
 40
2.7
100
AcDbArc
 50
270.0
 51
0.0
  0
ARC
  5
249BA
330
747D
100
AcDbEntity
  8
部品1
100
AcDbCircle
 10
8270.513836576602
 20
2233.797475201478
 30
0.0
 40
2.7
100
AcDbArc
 50
180.0
 51
270.0
  0
LINE
  5
249BB
330
747D
100
AcDbEntity
  8
部品1
100
AcDbLine
 10
8241.453836576608
 20
2231.097475201478
 30
0.0
 11
8253.153836576609
 21
2231.097475201478
 31
0.0
  0
LINE
  5
249BC
330
747D
100
AcDbEntity
  8
部品1
100
AcDbLine
 10
8255.85383657661
 20
2276.437475201477
 30
0.0
 11
8255.85383657661
 21
2233.797475201478
 31
0.0
  0
ARC
  5
249BD
330
747D
100
AcDbEntity
  8
部品1
100
AcDbCircle
 10
8265.113836576608
 20
2288.397475201478
 30
0.0
 40
2.7
100
AcDbArc
 50
0.0
 51
90.0
  0
ARC
  5
249BE
330
747D
100
AcDbEntity
  8
部品1
100
AcDbCircle
 10
8236.953836576608
 20
2288.397475201478
 30
0.0
 40
2.7
100
AcDbArc
 50
90.0
 51
180.0
  0
LINE
  5
249BF
330
747D
100
AcDbEntity
  8
部品1
100
AcDbLine
 10
8236.953836576608
 20
2291.097475201478
 30
0.0
 11
8265.113836576608
 21
2291.097475201478
 31
0.0
  0
LINE
  5
249C0
330
747D
100
AcDbEntity
  8
部品1
100
AcDbLine
 10
8213.553836576608
 20
2330.437475201475
 30
0.0
 11
8213.553836576608
 21
2279.137475201478
 31
0.0
  0
LINE
  5
249C1
330
747D
100
AcDbEntity
  8
部品1
100
AcDbLine
 10
8163.15383657661
 20
2311.537475201478
 30
0.0
 11
8163.15383657661
 21
2319.637475201478
 31
0.0
  0
LINE
  5
249C2
330
747D
100
AcDbEntity
  8
部品1
100
AcDbLine
 10
8270.513836576602
 20
2231.097475201478
 30
0.0
 11
8471.853836576604
 21
2231.097475201478
 31
0.0
  0
LINE
  5
249C3
330
747D
100
AcDbEntity
  8
部品1
100
AcDbLine
 10
8111.853836576608
 20
2233.797475201478
 30
0.0
 11
8111.853836576608
 21
2295.929378904186
 31
0.0
  0
LINE
  5
249C4
330
747D
100
AcDbEntity
  8
部品1
100
AcDbLine
 10
8114.553836576609
 20
2231.097475201478
 30
0.0
 11
8126.253836576603
 21
2231.097475201478
 31
0.0
  0
LINE
  5
249C5
330
747D
100
AcDbEntity
  8
細線
 48
50.0
100
AcDbLine
 10
8105.553836576609
 20
2209.318051501383
 30
0.0
 11
8117.773260276702
 21
2221.537475201478
 31
0.0
  0
ARC
  5
249C6
330
747D
100
AcDbEntity
  8
部品1
100
AcDbCircle
 10
8114.553836576609
 20
2233.797475201478
 30
0.0
 40
2.7
100
AcDbArc
 50
180.0
 51
270.0
  0
LINE
  5
249C7
330
747D
100
AcDbEntity
  8
部品1
100
AcDbLine
 10
8113.89899038901
 20
2298.548763654578
 30
0.0
 11
8122.65383657661
 21
2300.737475201477
 31
0.0
  0
ARC
  5
249C8
330
747D
100
AcDbEntity
  8
部品1
100
AcDbCircle
 10
8114.553836576609
 20
2295.929378904186
 30
0.0
 40
2.7
100
AcDbArc
 50
104.0362434679059
 51
180.0
  0
ARC
  5
249C9
330
747D
100
AcDbEntity
  8
部品1
100
AcDbCircle
 10
8125.353836576609
 20
2308.837475201478
 30
0.0
 40
2.7
100
AcDbArc
 50
90.0
 51
180.0
  0
LINE
  5
249CA
330
747D
100
AcDbEntity
  8
部品1
100
AcDbLine
 10
8122.65383657661
 20
2300.737475201477
 30
0.0
 11
8122.65383657661
 21
2308.837475201478
 31
0.0
  0
LINE
  5
249CB
330
747D
100
AcDbEntity
  8
部品1
 48
50.0
100
AcDbLine
 10
8105.553836576609
 20
2221.537475201478
 30
0.0
 11
8519.55383657661
 21
2221.537475201478
 31
0.0
  0
LINE
  5
249CC
330
747D
100
AcDbEntity
  8
細線
 48
50.0
100
AcDbLine
 10
8105.553836576609
 20
2155.436514774968
 30
0.0
 11
8171.654797003119
 21
2221.537475201478
 31
0.0
  0
LINE
  5
249CD
330
747D
100
AcDbEntity
  8
細線
 48
50.0
100
AcDbLine
 10
8105.553836576609
 20
2182.377283138176
 30
0.0
 11
8144.714028639915
 21
2221.537475201478
 31
0.0
  0
LINE
  5
249CE
330
747D
100
AcDbEntity
  8
部品1
100
AcDbLine
 10
8125.353836576609
 20
2311.537475201478
 30
0.0
 11
8163.15383657661
 21
2311.537475201478
 31
0.0
  0
LINE
  5
249CF
330
747D
100
AcDbEntity
  8
部品1
 48
50.0
100
AcDbLine
 10
8519.553836576609
 20
1677.537475201478
 30
0.0
 11
8647.553836576609
 21
1677.537475201478
 31
0.0
  0
LINE
  5
249D0
330
747D
100
AcDbEntity
  8
部品1
100
AcDbLine
 10
8335.95383657661
 20
1996.537475201478
 30
0.0
 11
8371.95383657661
 21
1996.537475201478
 31
0.0
  0
LINE
  5
249D1
330
747D
100
AcDbEntity
  8
部品1
100
AcDbLine
 10
8335.95383657661
 20
1978.537475201478
 30
0.0
 11
8371.95383657661
 21
1978.537475201478
 31
0.0
  0
ARC
  5
249D2
330
747D
100
AcDbEntity
  8
部品1
100
AcDbCircle
 10
8335.95383657661
 20
1996.537475201478
 30
0.0
 40
18.0
100
AcDbArc
 50
180.0
 51
270.0
  0
LINE
  5
249D3
330
747D
100
AcDbEntity
  8
部品1
100
AcDbLine
 10
8371.95383657661
 20
1978.537475201478
 30
0.0
 11
8371.95383657661
 21
1996.537475201478
 31
0.0
  0
LINE
  5
249D4
330
747D
100
AcDbEntity
  8
部品1
100
AcDbLine
 10
8389.953836576609
 20
1897.537475201476
 30
0.0
 11
8263.953836576602
 21
1897.537475201476
 31
0.0
  0
LINE
  5
249D5
330
747D
100
AcDbEntity
  8
細線
 48
50.0
100
AcDbLine
 10
8683.931661768943
 20
1413.537475201476
 30
0.0
 11
8677.500881150598
 21
1437.537475201476
 31
0.0
  0
LINE
  5
249D6
330
747D
100
AcDbEntity
  8
細線
 48
50.0
100
AcDbLine
 10
8605.043616821699
 20
1413.537475201476
 30
0.0
 11
8598.612836203352
 21
1437.537475201476
 31
0.0
  0
LINE
  5
249D7
330
747D
100
AcDbEntity
  8
細線
 48
50.0
100
AcDbLine
 10
8526.155571874442
 20
1413.537475201478
 30
0.0
 11
8519.724791256093
 21
1437.537475201478
 31
0.0
  0
LINE
  5
249D8
330
747D
100
AcDbEntity
  8
細線
 48
50.0
100
AcDbLine
 10
8662.495726374455
 20
1333.537475201476
 30
0.0
 11
8668.926506992802
 21
1309.537475201476
 31
0.0
  0
LINE
  5
249D9
330
747D
100
AcDbEntity
  8
細線
 48
50.0
100
AcDbLine
 10
8583.607681427208
 20
1333.537475201476
 30
0.0
 11
8590.038462045555
 21
1309.537475201476
 31
0.0
  0
LINE
  5
249DA
330
747D
100
AcDbEntity
  8
細線
 48
50.0
100
AcDbLine
 10
8504.719636479959
 20
1333.537475201478
 30
0.0
 11
8511.150417098317
 21
1309.537475201478
 31
0.0
  0
LINE
  5
249DB
330
747D
100
AcDbEntity
  8
細線
 48
50.0
100
AcDbLine
 10
8577.17690080886
 20
1309.537475201475
 30
0.0
 11
8611.474397440042
 21
1437.537475201475
 31
0.0
  0
LINE
  5
249DC
330
747D
100
AcDbEntity
  8
細線
 48
50.0
100
AcDbLine
 10
8498.288855861611
 20
1309.537475201476
 30
0.0
 11
8532.586352492783
 21
1437.537475201478
 31
0.0
  0
LINE
  5
249DD
330
747D
100
AcDbEntity
  8
細線
 48
50.0
100
AcDbLine
 10
8656.064945756103
 20
1309.537475201476
 30
0.0
 11
8690.362442387289
 21
1437.537475201475
 31
0.0
  0
LINE
  5
249DE
330
747D
100
AcDbEntity
  8
部品1
 48
50.0
100
AcDbLine
 10
8727.55383657661
 20
1437.537475201478
 30
0.0
 11
8727.55383657661
 21
1309.537475201478
 31
0.0
  0
LINE
  5
249DF
330
747D
100
AcDbEntity
  8
細線
 48
50.0
100
AcDbLine
 10
8447.267526927204
 20
1413.537475201478
 30
0.0
 11
8440.836746308859
 21
1437.537475201478
 31
0.0
  0
LINE
  5
249E0
330
747D
100
AcDbEntity
  8
細線
 48
50.0
100
AcDbLine
 10
8368.379481979959
 20
1413.537475201478
 30
0.0
 11
8361.94870136161
 21
1437.537475201478
 31
0.0
  0
LINE
  5
249E1
330
747D
100
AcDbEntity
  8
細線
 48
50.0
100
AcDbLine
 10
8210.603392085465
 20
1413.537475201478
 30
0.0
 11
8204.172611467118
 21
1437.537475201478
 31
0.0
  0
LINE
  5
249E2
330
747D
100
AcDbEntity
  8
細線
 48
50.0
100
AcDbLine
 10
8289.491437032712
 20
1413.537475201478
 30
0.0
 11
8283.060656414363
 21
1437.537475201478
 31
0.0
  0
LINE
  5
249E3
330
747D
100
AcDbEntity
  8
細線
 48
50.0
100
AcDbLine
 10
8346.943546585469
 20
1333.537475201478
 30
0.0
 11
8353.374327203814
 21
1309.537475201478
 31
0.0
  0
LINE
  5
249E4
330
747D
100
AcDbEntity
  8
細線
 48
50.0
100
AcDbLine
 10
8425.831591532714
 20
1333.537475201478
 30
0.0
 11
8432.262372151061
 21
1309.537475201478
 31
0.0
  0
LINE
  5
249E5
330
747D
100
AcDbEntity
  8
細線
 48
50.0
100
AcDbLine
 10
8189.167456690976
 20
1333.537475201478
 30
0.0
 11
8195.598237309324
 21
1309.537475201478
 31
0.0
  0
LINE
  5
249E6
330
747D
100
AcDbEntity
  8
細線
 48
50.0
100
AcDbLine
 10
8268.055501638222
 20
1333.537475201478
 30
0.0
 11
8274.486282256571
 21
1309.537475201478
 31
0.0
  0
LINE
  5
249E7
330
747D
100
AcDbEntity
  8
細線
 48
50.0
100
AcDbLine
 10
8419.40081091436
 20
1309.537475201478
 30
0.0
 11
8453.698307545547
 21
1437.537475201476
 31
0.0
  0
LINE
  5
249E8
330
747D
100
AcDbEntity
  8
細線
 48
50.0
100
AcDbLine
 10
8261.62472101987
 20
1309.537475201478
 30
0.0
 11
8295.922217651057
 21
1437.537475201476
 31
0.0
  0
LINE
  5
249E9
330
747D
100
AcDbEntity
  8
細線
 48
50.0
100
AcDbLine
 10
8182.736676072623
 20
1309.537475201478
 30
0.0
 11
8217.034172703806
 21
1437.537475201478
 31
0.0
  0
LINE
  5
249EA
330
747D
100
AcDbEntity
  8
細線
 48
50.0
100
AcDbLine
 10
8340.512765967119
 20
1309.537475201476
 30
0.0
 11
8374.8102625983
 21
1437.537475201476
 31
0.0
  0
LINE
  5
249EB
330
747D
100
AcDbEntity
  8
細線
 48
50.0
100
AcDbLine
 10
8465.285531531417
 20
1437.537475201478
 30
0.0
 11
8647.553836576609
 21
1619.805780246674
 31
0.0
  0
LINE
  5
249EC
330
747D
100
AcDbEntity
  8
部品1
 48
50.0
100
AcDbLine
 10
8647.553836576609
 20
1677.537475201478
 30
0.0
 11
8647.553836576609
 21
1437.537475201478
 31
0.0
  0
LINE
  5
249ED
330
747D
100
AcDbEntity
  8
細線
 48
50.0
100
AcDbLine
 10
8438.344763168215
 20
1437.537475201478
 30
0.0
 11
8647.553836576609
 21
1646.746548609871
 31
0.0
  0
LINE
  5
249EE
330
747D
100
AcDbEntity
  8
細線
 48
50.0
100
AcDbLine
 10
8411.403994805002
 20
1437.537475201478
 30
0.0
 11
8647.553836576609
 21
1673.687316973086
 31
0.0
  0
LINE
  5
249EF
330
747D
100
AcDbEntity
  8
細線
 48
50.0
100
AcDbLine
 10
8195.877847899343
 20
1437.537475201478
 30
0.0
 11
8519.553836576609
 21
1761.213463878744
 31
0.0
  0
LINE
  5
249F0
330
747D
100
AcDbEntity
  8
細線
 48
50.0
100
AcDbLine
 10
8249.759384625759
 20
1437.537475201478
 30
0.0
 11
8519.553836576609
 21
1707.331927152335
 31
0.0
  0
LINE
  5
249F1
330
747D
100
AcDbEntity
  8
細線
 48
50.0
100
AcDbLine
 10
8222.818616262554
 20
1437.537475201478
 30
0.0
 11
8519.553836576609
 21
1734.27269551553
 31
0.0
  0
LINE
  5
249F2
330
747D
100
AcDbEntity
  8
細線
 48
50.0
100
AcDbLine
 10
7977.553836576603
 20
1650.265757690064
 30
0.0
 11
8004.825554088023
 21
1677.537475201478
 31
0.0
  0
LINE
  5
249F3
330
747D
100
AcDbEntity
  8
部品1
 48
50.0
100
AcDbLine
 10
7977.553836576608
 20
1677.537475201478
 30
0.0
 11
8105.553836576609
 21
1677.537475201478
 31
0.0
  0
LINE
  5
249F4
330
747D
100
AcDbEntity
  8
細線
 48
50.0
100
AcDbLine
 10
7977.553836576603
 20
1623.324989326853
 30
0.0
 11
8031.766322451233
 21
1677.537475201478
 31
0.0
  0
LWPOLYLINE
  5
249F5
330
747D
100
AcDbEntity
  8
部品1
 48
50.0
100
AcDbPolyline
 90
        2
 70
     0
 43
8.0
 10
7691.413934743652
 20
1981.537475201479
 10
8105.553836576609
 20
1981.537475201479
  0
LINE
  5
249F6
330
747D
100
AcDbEntity
  8
細線
 48
50.0
100
AcDbLine
 10
8052.827302190962
 20
1413.537475201478
 30
0.0
 11
8046.396521572615
 21
1437.537475201478
 31
0.0
  0
LINE
  5
249F7
330
747D
100
AcDbEntity
  8
細線
 48
50.0
100
AcDbLine
 10
8131.715347138214
 20
1413.537475201478
 30
0.0
 11
8125.284566519866
 21
1437.537475201478
 31
0.0
  0
LINE
  5
249F8
330
747D
100
AcDbEntity
  8
細線
 48
50.0
100
AcDbLine
 10
7973.93925724371
 20
1413.537475201478
 30
0.0
 11
7967.508476625365
 21
1437.537475201478
 31
0.0
  0
LINE
  5
249F9
330
747D
100
AcDbEntity
  8
細線
 48
50.0
100
AcDbLine
 10
7897.553836576609
 20
1422.877396167258
 30
0.0
 11
7901.481992914803
 21
1437.537475201478
 31
0.0
  0
LINE
  5
249FA
330
747D
100
AcDbEntity
  8
細線
 48
50.0
100
AcDbLine
 10
8031.391366796475
 20
1333.537475201478
 30
0.0
 11
8037.82214741482
 21
1309.537475201478
 31
0.0
  0
LINE
  5
249FB
330
747D
100
AcDbEntity
  8
細線
 48
50.0
100
AcDbLine
 10
8110.279411743723
 20
1333.537475201478
 30
0.0
 11
8116.710192362072
 21
1309.537475201478
 31
0.0
  0
LINE
  5
249FC
330
747D
100
AcDbEntity
  8
細線
 48
50.0
100
AcDbLine
 10
7952.503321849221
 20
1333.537475201478
 30
0.0
 11
7958.934102467567
 21
1309.537475201478
 31
0.0
  0
LINE
  5
249FD
330
747D
100
AcDbEntity
  8
細線
 48
50.0
100
AcDbLine
 10
8103.848631125373
 20
1309.537475201476
 30
0.0
 11
8138.146127756554
 21
1437.537475201476
 31
0.0
  0
LINE
  5
249FE
330
747D
100
AcDbEntity
  8
細線
 48
50.0
100
AcDbLine
 10
7946.072541230868
 20
1309.537475201476
 30
0.0
 11
7980.370037862051
 21
1437.537475201476
 31
0.0
  0
LINE
  5
249FF
330
747D
100
AcDbEntity
  8
部品1
 48
50.0
100
AcDbLine
 10
7897.553836576611
 20
1309.537475201478
 30
0.0
 11
7897.553836576611
 21
1437.537475201478
 31
0.0
  0
LINE
  5
24A00
330
747D
100
AcDbEntity
  8
細線
 48
50.0
100
AcDbLine
 10
8024.960586178126
 20
1309.537475201478
 30
0.0
 11
8059.258082809309
 21
1437.537475201478
 31
0.0
  0
LINE
  5
24A01
330
747D
100
AcDbEntity
  8
部品1
 48
50.0
100
AcDbLine
 10
7977.553836576608
 20
1437.537475201478
 30
0.0
 11
7977.553836576608
 21
1677.537475201478
 31
0.0
  0
LINE
  5
24A02
330
747D
100
AcDbEntity
  8
細線
 48
50.0
100
AcDbLine
 10
7977.553836576603
 20
1596.384220963648
 30
0.0
 11
8058.707090814438
 21
1677.537475201478
 31
0.0
  0
LINE
  5
24A03
330
747D
100
AcDbEntity
  8
部品1
 48
50.0
100
AcDbLine
 10
8727.55383657661
 20
1309.537475201478
 30
0.0
 11
7897.553836576611
 21
1309.537475201478
 31
0.0
  0
LINE
  5
24A04
330
747D
100
AcDbEntity
  8
部品1
 48
50.0
100
AcDbLine
 10
8727.55383657661
 20
1437.537475201478
 30
0.0
 11
7897.553836576611
 21
1437.537475201478
 31
0.0
  0
LINE
  5
24A05
330
747D
100
AcDbEntity
  8
細線
 48
50.0
100
AcDbLine
 10
7980.351700993684
 20
1437.537475201478
 30
0.0
 11
8519.553836576609
 21
1976.739610784403
 31
0.0
  0
LINE
  5
24A06
330
747D
100
AcDbEntity
  8
細線
 48
50.0
100
AcDbLine
 10
8007.292469356894
 20
1437.537475201478
 30
0.0
 11
8519.55383657661
 21
1949.798842421192
 31
0.0
  0
LINE
  5
24A07
330
747D
100
AcDbEntity
  8
細線
 48
50.0
100
AcDbLine
 10
8034.2332377201
 20
1437.537475201478
 30
0.0
 11
8519.553836576609
 21
1922.858074057985
 31
0.0
  0
LINE
  5
24A08
330
747D
100
AcDbEntity
  8
細線
 48
50.0
100
AcDbLine
 10
8105.553836576609
 20
1778.265757690064
 30
0.0
 11
8263.953836576602
 21
1936.665757690059
 31
0.0
  0
LINE
  5
24A09
330
747D
100
AcDbEntity
  8
細線
 48
50.0
100
AcDbLine
 10
8105.553836576609
 20
1724.384220963649
 30
0.0
 11
8278.707090814446
 21
1897.537475201476
 31
0.0
  0
LINE
  5
24A0A
330
747D
100
AcDbEntity
  8
細線
 48
50.0
100
AcDbLine
 10
8105.553836576609
 20
1751.324989326856
 30
0.0
 11
8263.953836576602
 21
1909.724989326844
 31
0.0
  0
LINE
  5
24A0B
330
747D
100
AcDbEntity
  8
部品1
100
AcDbLine
 10
8263.953836576602
 20
1897.537475201477
 30
0.0
 11
8263.953836576609
 21
2221.537475201478
 31
0.0
  0
LINE
  5
24A0C
330
747D
100
AcDbEntity
  8
部品1
100
AcDbLine
 10
8389.953836576609
 20
1897.537475201477
 30
0.0
 11
8389.953836576609
 21
2221.537475201478
 31
0.0
  0
LINE
  5
24A0D
330
747D
100
AcDbEntity
  8
細線
 48
50.0
100
AcDbLine
 10
8389.953836576609
 20
2035.724989326849
 30
0.0
 11
8519.553836576609
 21
2165.324989326846
 31
0.0
  0
LINE
  5
24A0E
330
747D
100
AcDbEntity
  8
細線
 48
50.0
100
AcDbLine
 10
8389.953836576609
 20
2008.784220963637
 30
0.0
 11
8519.553836576609
 21
2138.384220963628
 31
0.0
  0
LINE
  5
24A0F
330
747D
100
AcDbEntity
  8
部品1
100
AcDbLine
 10
8317.953836576609
 20
1996.537475201478
 30
0.0
 11
8317.953836576606
 21
2270.697475201478
 31
0.0
  0
LINE
  5
24A10
330
747D
100
AcDbEntity
  8
部品1
100
AcDbLine
 10
8335.95383657661
 20
1996.537475201478
 30
0.0
 11
8335.953836576605
 21
2270.697475201478
 31
0.0
  0
TEXT
  5
24A11
330
747D
100
AcDbEntity
  8
部品1
 48
50.0
100
AcDbText
 10
7691.413934743652
 20
1992.776467484733
 30
0.0
 40
80.0
  1
▽G.L
  7
STYLE2
100
AcDbText
  0
LINE
  5
24A12
330
747D
100
AcDbEntity
  8
細線
 48
50.0
100
AcDbLine
 10
8105.553836576609
 20
1939.910367869308
 30
0.0
 11
8263.953836576606
 21
2098.3103678693
 31
0.0
  0
LINE
  5
24A13
330
747D
100
AcDbEntity
  8
細線
 48
50.0
100
AcDbLine
 10
8105.553836576609
 20
1966.851136232515
 30
0.0
 11
8263.953836576607
 21
2125.251136232513
 31
0.0
  0
LINE
  5
24A14
330
747D
100
AcDbEntity
  8
細線
 48
50.0
100
AcDbLine
 10
8105.553836576609
 20
1993.791904595723
 30
0.0
 11
8263.953836576607
 21
2152.19190459572
 31
0.0
  0
LINE
  5
24A15
330
747D
100
AcDbEntity
  8
部品1
 48
50.0
100
AcDbLine
 10
8105.553836576609
 20
1677.537475201478
 30
0.0
 11
8105.553836576609
 21
2221.537475201478
 31
0.0
  0
LINE
  5
24A16
330
747D
100
AcDbEntity
  8
部品1
100
AcDbLine
 10
8519.553836576609
 20
1677.537475201478
 30
0.0
 11
8519.553836576609
 21
2221.537475201478
 31
0.0
  0
LINE
  5
24A17
330
747D
100
AcDbEntity
  8
細線
 48
50.0
100
AcDbLine
 10
8389.953836576609
 20
2062.665757690066
 30
0.0
 11
8519.553836576609
 21
2192.265757690065
 31
0.0
  0
LINE
  5
24A18
330
747D
100
AcDbEntity
  8
細線
 48
50.0
100
AcDbLine
 10
6514.006945901885
 20
2102.284327098194
 30
0.0
 11
6597.514523399415
 21
2185.791904595723
 31
0.0
  0
LINE
  5
24A19
330
747D
100
AcDbEntity
  8
細線
 48
50.0
100
AcDbLine
 10
6525.067230665401
 20
2086.4038434985
 30
0.0
 11
6597.514523399415
 21
2158.851136232515
 31
0.0
  0
LINE
  5
24A1A
330
747D
100
AcDbEntity
  8
細線
 48
50.0
100
AcDbLine
 10
6405.514523399415
 20
2209.318051501383
 30
0.0
 11
6417.73394709951
 21
2221.537475201478
 31
0.0
  0
LINE
  5
24A1B
330
747D
100
AcDbEntity
  8
細線
 48
50.0
100
AcDbLine
 10
6405.514523399415
 20
2155.436514774968
 30
0.0
 11
6471.615483825924
 21
2221.537475201478
 31
0.0
  0
LINE
  5
24A1C
330
747D
100
AcDbEntity
  8
細線
 48
50.0
100
AcDbLine
 10
6405.514523399415
 20
2182.377283138176
 30
0.0
 11
6444.674715462719
 21
2221.537475201478
 31
0.0
  0
LINE
  5
24A1D
330
747D
100
AcDbEntity
  8
部品1
 48
50.0
100
AcDbLine
 10
6405.514523399415
 20
2221.537475201478
 30
0.0
 11
6597.514523399415
 21
2221.537475201478
 31
0.0
  0
DIMENSION
  5
24A1E
330
747D
100
AcDbEntity
  8
寸法
 48
50.0
100
AcDbDimension
  2
*D55
 10
6405.514523399414
 20
2641.205283117858
 30
0.0
 11
6501.514523399414
 21
2641.205283117858
 31
0.0
 70
   160
  1
120\P200\P280
 71
     5
 42
192.0
  3
INABA_S40G
100
AcDbAlignedDimension
 13
6597.514523399414
 23
2221.537475201478
 33
0.0
 14
6405.514523399414
 24
2221.537475201478
 34
0.0
100
AcDbRotatedDimension
1001
ACAD
1000
DSTYLE
1002
{
1070
   341
1005
0
1002
}
  0
MTEXT
  5
24A1F
102
{ACAD_REACTORS
330
24A74
102
}
330
747D
100
AcDbEntity
  8
寸法
 62
     7
 48
50.0
100
AcDbMText
 10
6839.252979260665
 20
1260.188389469324
 30
0.0
 40
80.0
 41
0.8
 71
     4
 72
     1
  1
\A1;D10@300
  7
STYLE2
 73
     1
 44
1.0
1001
ACAD
1000
MTEXTBEGIN
1070
    73
1070
     1
1070
    44
1040
1.0
1070
    74
1070
     0
1000
MTEXTEND
  0
LINE
  5
24A20
330
747D
100
AcDbEntity
  8
細線
 48
50.0
100
AcDbLine
 10
6525.514523399421
 20
1871.324989326858
 30
0.0
 11
6597.514523399408
 21
1943.324989326853
 31
0.0
  0
LINE
  5
24A21
330
747D
100
AcDbEntity
  8
細線
 48
50.0
100
AcDbLine
 10
6525.514523399415
 20
1898.265757690064
 30
0.0
 11
6597.514523399415
 21
1970.265757690064
 31
0.0
  0
LINE
  5
24A22
330
747D
100
AcDbEntity
  8
細線
 48
50.0
100
AcDbLine
 10
6525.514523399421
 20
1628.858074057989
 30
0.0
 11
6597.514523399408
 21
1700.858074057989
 31
0.0
  0
LINE
  5
24A23
330
747D
100
AcDbEntity
  8
細線
 48
50.0
100
AcDbLine
 10
6525.514523399421
 20
1682.739610784407
 30
0.0
 11
6597.514523399408
 21
1754.739610784403
 31
0.0
  0
LINE
  5
24A24
330
747D
100
AcDbEntity
  8
細線
 48
50.0
100
AcDbLine
 10
6525.514523399421
 20
1655.798842421199
 30
0.0
 11
6597.514523399408
 21
1727.798842421194
 31
0.0
  0
LINE
  5
24A25
330
747D
100
AcDbEntity
  8
部品1
 48
50.0
100
AcDbLine
 10
6597.514523399415
 20
1677.537475201478
 30
0.0
 11
6725.514523399415
 21
1677.537475201478
 31
0.0
  0
LINE
  5
24A26
330
747D
100
AcDbEntity
  8
細線
 48
50.0
100
AcDbLine
 10
6525.514523399421
 20
1844.384220963648
 30
0.0
 11
6597.514523399408
 21
1916.384220963649
 31
0.0
  0
LINE
  5
24A27
330
747D
100
AcDbEntity
  8
部品1
 48
50.0
100
AcDbLine
 10
6493.514523399415
 20
2023.6646898986
 30
0.0
 11
6493.514523399415
 21
2081.791904595723
 31
0.0
  0
LINE
  5
24A28
330
747D
100
AcDbEntity
  8
細線
 48
50.0
100
AcDbLine
 10
6405.514523399415
 20
1993.791904595723
 30
0.0
 11
6477.514523399415
 21
2065.791904595723
 31
0.0
  0
LINE
  5
24A29
330
747D
100
AcDbEntity
  8
部品1
 48
50.0
100
AcDbLine
 10
6477.514523399415
 20
2023.664689898604
 30
0.0
 11
6477.514523399415
 21
2081.791904595723
 31
0.0
  0
LINE
  5
24A2A
330
747D
100
AcDbEntity
  8
細線
 48
50.0
100
AcDbLine
 10
6405.514523399415
 20
1966.851136232515
 30
0.0
 11
6477.514523399415
 21
2038.851136232516
 31
0.0
  0
LINE
  5
24A2B
330
747D
100
AcDbEntity
  8
細線
 48
50.0
100
AcDbLine
 10
6405.514523399415
 20
1939.910367869308
 30
0.0
 11
6489.26884542871
 21
2023.6646898986
 31
0.0
  0
LINE
  5
24A2C
330
747D
100
AcDbEntity
  8
部品1
 48
50.0
100
AcDbLine
 10
6493.514523399415
 20
2023.6646898986
 30
0.0
 11
6477.514523399415
 21
2023.664689898604
 31
0.0
  0
LINE
  5
24A2D
330
747D
100
AcDbEntity
  8
細線
 48
50.0
100
AcDbLine
 10
6277.514523399408
 20
1650.265757690064
 30
0.0
 11
6304.786240910829
 21
1677.537475201478
 31
0.0
  0
LINE
  5
24A2E
330
747D
100
AcDbEntity
  8
細線
 48
50.0
100
AcDbLine
 10
6277.514523399408
 20
1623.324989326853
 30
0.0
 11
6331.72700927404
 21
1677.537475201478
 31
0.0
  0
LINE
  5
24A2F
330
747D
100
AcDbEntity
  8
部品1
 48
50.0
100
AcDbLine
 10
6277.514523399415
 20
1677.537475201478
 30
0.0
 11
6405.514523399415
 21
1677.537475201478
 31
0.0
  0
LINE
  5
24A30
330
747D
100
AcDbEntity
  8
細線
 48
50.0
100
AcDbLine
 10
6493.514523399415
 20
2054.851136232516
 30
0.0
 11
6509.514523399416
 21
2070.851136232516
 31
0.0
  0
LINE
  5
24A31
330
747D
100
AcDbEntity
  8
細線
 48
50.0
100
AcDbLine
 10
6493.514523399415
 20
2027.910367869308
 30
0.0
 11
6509.514523399416
 21
2043.910367869308
 31
0.0
  0
LINE
  5
24A32
330
747D
100
AcDbEntity
  8
細線
 48
50.0
100
AcDbLine
 10
6405.514523399415
 20
1724.384220963649
 30
0.0
 11
6509.51452339942
 21
1828.384220963648
 31
0.0
  0
LINE
  5
24A33
330
747D
100
AcDbEntity
  8
細線
 48
50.0
100
AcDbLine
 10
6405.514523399415
 20
1778.265757690064
 30
0.0
 11
6509.514523399416
 21
1882.265757690064
 31
0.0
  0
LINE
  5
24A34
330
747D
100
AcDbEntity
  8
細線
 48
50.0
100
AcDbLine
 10
6405.514523399415
 20
1751.324989326856
 30
0.0
 11
6509.51452339942
 21
1855.324989326858
 31
0.0
  0
LINE
  5
24A35
330
747D
100
AcDbEntity
  8
細線
 48
50.0
100
AcDbLine
 10
6668.340168802763
 20
1413.537475201478
 30
0.0
 11
6661.909388184416
 21
1437.537475201478
 31
0.0
  0
LINE
  5
24A36
330
747D
100
AcDbEntity
  8
細線
 48
50.0
100
AcDbLine
 10
6711.364681627809
 20
1437.537475201478
 30
0.0
 11
6725.514523399415
 21
1451.687316973084
 31
0.0
  0
LINE
  5
24A37
330
747D
100
AcDbEntity
  8
細線
 48
50.0
100
AcDbLine
 10
6747.22821375001
 20
1413.537475201478
 30
0.0
 11
6740.797433131662
 21
1437.537475201478
 31
0.0
  0
LINE
  5
24A38
330
747D
100
AcDbEntity
  8
部品1
 48
50.0
100
AcDbLine
 10
6669.514523399415
 20
1549.537475201478
 30
0.0
 11
6669.514523399415
 21
1533.537475201478
 31
0.0
  0
LINE
  5
24A39
330
747D
100
AcDbEntity
  8
細線
 48
50.0
100
AcDbLine
 10
6549.720071448563
 20
1437.537475201478
 30
0.0
 11
6645.720959293701
 21
1533.538363046617
 31
0.0
  0
LINE
  5
24A3A
330
747D
100
AcDbEntity
  8
細線
 48
50.0
100
AcDbLine
 10
6522.779303085359
 20
1437.537475201478
 30
0.0
 11
6618.77930308536
 21
1533.537475201478
 31
0.0
  0
LINE
  5
24A3B
330
747D
100
AcDbEntity
  8
細線
 48
50.0
100
AcDbLine
 10
6589.452123855517
 20
1413.537475201478
 30
0.0
 11
6583.02134323717
 21
1437.537475201478
 31
0.0
  0
LINE
  5
24A3C
330
747D
100
AcDbEntity
  8
細線
 48
50.0
100
AcDbLine
 10
6510.564078908271
 20
1413.537475201478
 30
0.0
 11
6504.133298289923
 21
1437.537475201478
 31
0.0
  0
ARC
  5
24A3D
330
747D
100
AcDbEntity
  8
部品1
 48
50.0
100
AcDbCircle
 10
6501.514523399416
 20
1557.537475201478
 30
0.0
 40
24.0
100
AcDbArc
 50
340.5287793655287
 51
0.0
  0
CIRCLE
  5
24A3E
330
747D
100
AcDbEntity
  8
部品1
 48
50.0
100
AcDbCircle
 10
6629.514523399414
 20
1557.537475201478
 30
0.0
 40
8.0
  0
LINE
  5
24A3F
330
747D
100
AcDbEntity
  8
細線
 48
50.0
100
AcDbLine
 10
6661.720071448562
 20
1549.537475201478
 30
0.0
 11
6725.514523399415
 21
1613.331927152328
 31
0.0
  0
LINE
  5
24A40
330
747D
100
AcDbEntity
  8
細線
 48
50.0
100
AcDbLine
 10
6798.249542684418
 20
1309.537475201476
 30
0.0
 11
6805.514523399415
 21
1336.650752345866
 31
0.0
  0
LINE
  5
24A41
330
747D
100
AcDbEntity
  8
細線
 48
50.0
100
AcDbLine
 10
6804.680323302767
 20
1333.537475201478
 30
0.0
 11
6805.514523399415
 21
1330.424198057113
 31
0.0
  0
LINE
  5
24A42
330
747D
100
AcDbEntity
  8
細線
 48
50.0
100
AcDbLine
 10
6725.79227835552
 20
1333.537475201478
 30
0.0
 11
6732.223058973868
 21
1309.537475201478
 31
0.0
  0
LINE
  5
24A43
330
747D
100
AcDbEntity
  8
細線
 48
50.0
100
AcDbLine
 10
6568.016188461029
 20
1333.537475201478
 30
0.0
 11
6574.446969079374
 21
1309.537475201478
 31
0.0
  0
LINE
  5
24A44
330
747D
100
AcDbEntity
  8
細線
 48
50.0
100
AcDbLine
 10
6646.904233408273
 20
1333.537475201478
 30
0.0
 11
6653.33501402662
 21
1309.537475201478
 31
0.0
  0
LINE
  5
24A45
330
747D
100
AcDbEntity
  8
細線
 48
50.0
100
AcDbLine
 10
6640.473452789923
 20
1309.537475201476
 30
0.0
 11
6674.770949421108
 21
1437.537475201476
 31
0.0
  0
LINE
  5
24A46
330
747D
100
AcDbEntity
  8
細線
 48
50.0
100
AcDbLine
 10
6561.585407842675
 20
1309.537475201478
 30
0.0
 11
6595.882904473862
 21
1437.537475201476
 31
0.0
  0
LINE
  5
24A47
330
747D
100
AcDbEntity
  8
細線
 48
50.0
100
AcDbLine
 10
6719.361497737169
 20
1309.537475201478
 30
0.0
 11
6753.658994368354
 21
1437.537475201476
 31
0.0
  0
LINE
  5
24A48
330
747D
100
AcDbEntity
  8
部品1
 48
50.0
100
AcDbLine
 10
6805.51452339942
 20
1437.537475201478
 30
0.0
 11
6805.51452339942
 21
1309.537475201478
 31
0.0
  0
LINE
  5
24A49
330
747D
100
AcDbEntity
  8
部品1
 48
50.0
100
AcDbLine
 10
6493.514523399415
 20
1615.6646898986
 30
0.0
 11
6493.514523399415
 21
1557.537475201478
 31
0.0
  0
LINE
  5
24A4A
330
747D
100
AcDbEntity
  8
細線
 48
50.0
100
AcDbLine
 10
6419.253156179698
 20
1549.537475201478
 30
0.0
 11
6477.514523399415
 21
1607.798842421196
 31
0.0
  0
LINE
  5
24A4B
330
747D
100
AcDbEntity
  8
部品1
 48
50.0
100
AcDbLine
 10
6477.514523399415
 20
1615.6646898986
 30
0.0
 11
6477.514523399415
 21
1557.537475201478
 31
0.0
  0
LINE
  5
24A4C
330
747D
100
AcDbEntity
  8
細線
 48
50.0
100
AcDbLine
 10
6334.193924542904
 20
1437.537475201478
 30
0.0
 11
6430.193924542904
 21
1533.537475201478
 31
0.0
  0
LINE
  5
24A4D
330
747D
100
AcDbEntity
  8
細線
 48
50.0
100
AcDbLine
 10
6431.67603396102
 20
1413.537475201478
 30
0.0
 11
6425.245253342673
 21
1437.537475201478
 31
0.0
  0
LINE
  5
24A4E
330
747D
100
AcDbEntity
  8
細線
 48
50.0
100
AcDbLine
 10
6352.787989013767
 20
1413.537475201478
 30
0.0
 11
6346.357208395421
 21
1437.537475201478
 31
0.0
  0
ARC
  5
24A4F
330
747D
100
AcDbEntity
  8
部品1
 48
50.0
100
AcDbCircle
 10
6501.514523399416
 20
1557.537475201478
 30
0.0
 40
24.0
100
AcDbArc
 50
180.0
 51
199.4712206344713
  0
LINE
  5
24A50
330
747D
100
AcDbEntity
  8
細線
 48
50.0
100
AcDbLine
 10
6446.193924542903
 20
1549.537475201478
 30
0.0
 11
6477.514523399415
 21
1580.858074057989
 31
0.0
  0
CIRCLE
  5
24A51
330
747D
100
AcDbEntity
  8
部品1
 48
50.0
100
AcDbCircle
 10
6373.514523399415
 20
1557.537475201478
 30
0.0
 40
8.0
  0
LINE
  5
24A52
330
747D
100
AcDbEntity
  8
部品1
 48
50.0
100
AcDbLine
 10
6493.514523399415
 20
1615.6646898986
 30
0.0
 11
6477.514523399415
 21
1615.6646898986
 31
0.0
  0
LINE
  5
24A53
330
747D
100
AcDbEntity
  8
細線
 48
50.0
100
AcDbLine
 10
6197.514523399416
 20
1422.877396167258
 30
0.0
 11
6201.442679737611
 21
1437.537475201478
 31
0.0
  0
LINE
  5
24A54
330
747D
100
AcDbEntity
  8
細線
 48
50.0
100
AcDbLine
 10
6273.899944066516
 20
1413.537475201478
 30
0.0
 11
6267.469163448168
 21
1437.537475201478
 31
0.0
  0
LINE
  5
24A55
330
747D
100
AcDbEntity
  8
部品1
 48
50.0
100
AcDbLine
 10
6333.514523399415
 20
1549.537475201478
 30
0.0
 11
6333.514523399415
 21
1533.537475201478
 31
0.0
  0
LINE
  5
24A56
330
747D
100
AcDbEntity
  8
細線
 48
50.0
100
AcDbLine
 10
6280.312387816488
 20
1437.537475201478
 30
0.0
 11
6376.312387816488
 21
1533.537475201478
 31
0.0
  0
LINE
  5
24A57
330
747D
100
AcDbEntity
  8
細線
 48
50.0
100
AcDbLine
 10
6307.253156179698
 20
1437.537475201478
 30
0.0
 11
6403.253156179698
 21
1533.537475201478
 31
0.0
  0
LINE
  5
24A58
330
747D
100
AcDbEntity
  8
細線
 48
50.0
100
AcDbLine
 10
6410.240098566529
 20
1333.537475201478
 30
0.0
 11
6416.670879184876
 21
1309.537475201478
 31
0.0
  0
LINE
  5
24A59
330
747D
100
AcDbEntity
  8
細線
 48
50.0
100
AcDbLine
 10
6489.128143513783
 20
1333.537475201478
 30
0.0
 11
6495.558924132129
 21
1309.537475201478
 31
0.0
  0
LINE
  5
24A5A
330
747D
100
AcDbEntity
  8
細線
 48
50.0
100
AcDbLine
 10
6252.464008672027
 20
1333.537475201478
 30
0.0
 11
6258.894789290373
 21
1309.537475201478
 31
0.0
  0
LINE
  5
24A5B
330
747D
100
AcDbEntity
  8
細線
 48
50.0
100
AcDbLine
 10
6331.352053619277
 20
1333.537475201478
 30
0.0
 11
6337.782834237625
 21
1309.537475201478
 31
0.0
  0
LINE
  5
24A5C
330
747D
100
AcDbEntity
  8
部品1
 48
50.0
100
AcDbLine
 10
6197.514523399417
 20
1309.537475201478
 30
0.0
 11
6197.514523399417
 21
1437.537475201478
 31
0.0
  0
LINE
  5
24A5D
330
747D
100
AcDbEntity
  8
細線
 48
50.0
100
AcDbLine
 10
6246.033228053673
 20
1309.537475201476
 30
0.0
 11
6280.330724684856
 21
1437.537475201476
 31
0.0
  0
LINE
  5
24A5E
330
747D
100
AcDbEntity
  8
細線
 48
50.0
100
AcDbLine
 10
6403.809317948176
 20
1309.537475201476
 30
0.0
 11
6438.106814579359
 21
1437.537475201476
 31
0.0
  0
LINE
  5
24A5F
330
747D
100
AcDbEntity
  8
細線
 48
50.0
100
AcDbLine
 10
6324.921273000931
 20
1309.537475201478
 30
0.0
 11
6359.218769632114
 21
1437.537475201478
 31
0.0
  0
LINE
  5
24A60
330
747D
100
AcDbEntity
  8
細線
 48
50.0
100
AcDbLine
 10
6495.838534722148
 20
1437.537475201478
 30
0.0
 11
6591.838534722149
 21
1533.537475201478
 31
0.0
  0
CIRCLE
  5
24A61
330
747D
100
AcDbEntity
  8
部品1
 48
50.0
100
AcDbCircle
 10
6501.514523399416
 20
1557.537475201478
 30
0.0
 40
8.0
  0
LINE
  5
24A62
330
747D
100
AcDbEntity
  8
部品1
 48
50.0
100
AcDbLine
 10
6805.51452339942
 20
1437.537475201478
 30
0.0
 11
6197.514523399417
 21
1437.537475201478
 31
0.0
  0
LINE
  5
24A63
330
747D
100
AcDbEntity
  8
部品1
 48
50.0
100
AcDbLine
 10
6333.514523399415
 20
1549.537475201478
 30
0.0
 11
6669.514523399415
 21
1549.537475201478
 31
0.0
  0
LINE
  5
24A64
330
747D
100
AcDbEntity
  8
部品1
 48
50.0
100
AcDbLine
 10
6333.514523399415
 20
1533.537475201478
 30
0.0
 11
6669.514523399415
 21
1533.537475201478
 31
0.0
  0
LINE
  5
24A65
330
747D
100
AcDbEntity
  8
部品1
 48
50.0
100
AcDbLine
 10
6805.51452339942
 20
1309.537475201478
 30
0.0
 11
6197.514523399417
 21
1309.537475201478
 31
0.0
  0
LINE
  5
24A66
330
747D
100
AcDbEntity
  8
細線
 48
50.0
100
AcDbLine
 10
6482.697362895429
 20
1309.537475201478
 30
0.0
 11
6516.994859526612
 21
1437.537475201478
 31
0.0
  0
LINE
  5
24A67
330
747D
100
AcDbEntity
  8
細線
 48
50.0
100
AcDbLine
 10
6493.514523399415
 20
1596.858074057989
 30
0.0
 11
6509.51452339942
 21
1612.858074057989
 31
0.0
  0
LINE
  5
24A68
330
747D
100
AcDbEntity
  8
部品1
 48
50.0
100
AcDbLine
 10
6509.51452339942
 20
1557.537475201478
 30
0.0
 11
6509.514523399409
 21
2081.791904595723
 31
0.0
  0
LINE
  5
24A69
330
747D
100
AcDbEntity
  8
部品1
 48
50.0
100
AcDbLine
 10
6525.514523399421
 20
1557.537475201478
 30
0.0
 11
6525.514523399415
 21
2081.791904595723
 31
0.0
  0
LINE
  5
24A6A
330
747D
100
AcDbEntity
  8
部品1
 48
50.0
100
AcDbLine
 10
6725.514523399415
 20
1677.537475201478
 30
0.0
 11
6725.514523399415
 21
1437.537475201478
 31
0.0
  0
LINE
  5
24A6B
330
747D
100
AcDbEntity
  8
細線
 48
50.0
100
AcDbLine
 10
6607.838534722143
 20
1549.537475201478
 30
0.0
 11
6725.514523399415
 21
1667.213463878743
 31
0.0
  0
LINE
  5
24A6C
330
747D
100
AcDbEntity
  8
細線
 48
50.0
100
AcDbLine
 10
6634.779303085359
 20
1549.537475201478
 30
0.0
 11
6725.514523399415
 21
1640.272695515536
 31
0.0
  0
LINE
  5
24A6D
330
747D
100
AcDbEntity
  8
部品1
 48
50.0
100
AcDbLine
 10
6277.514523399415
 20
1437.537475201478
 30
0.0
 11
6277.514523399415
 21
1677.537475201478
 31
0.0
  0
LINE
  5
24A6E
330
747D
100
AcDbEntity
  8
細線
 48
50.0
100
AcDbLine
 10
6392.312387816488
 20
1549.537475201478
 30
0.0
 11
6509.514523399416
 21
1666.739610784403
 31
0.0
  0
LINE
  5
24A6F
330
747D
100
AcDbEntity
  8
細線
 48
50.0
100
AcDbLine
 10
6485.38037087682
 20
1615.6646898986
 30
0.0
 11
6509.51452339942
 21
1639.798842421199
 31
0.0
  0
LINE
  5
24A70
330
747D
100
AcDbEntity
  8
細線
 48
50.0
100
AcDbLine
 10
6277.514523399408
 20
1596.384220963648
 30
0.0
 11
6358.667777637244
 21
1677.537475201478
 31
0.0
  0
LEADER
  5
24A71
330
747D
100
AcDbEntity
  8
寸法
 48
50.0
100
AcDbLeader
  3
INABA_S50G
 71
     0
 73
     0
 74
     0
 75
     1
 40
100.0
 41
222.7272727272727
 76
     3
 10
6501.514523399414
 20
2081.791904595723
 30
0.0
 10
6555.40046042681
 20
2181.027477448897
 30
0.0
 10
6680.40046042681
 20
2181.027477448897
 30
0.0
1001
ACAD
1000
DSTYLE
1002
{
1070
    40
1040
1.0
1070
   272
1070
     1
1070
   279
1070
     1
1070
   341
1005
0
1002
}
  0
LWPOLYLINE
  5
24A72
330
747D
100
AcDbEntity
  8
部品1
 48
50.0
100
AcDbPolyline
 90
        2
 70
     0
 43
8.0
 10
6597.514523399414
 20
1981.537475201479
 10
7011.654425232372
 20
1981.537475201479
  0
MTEXT
  5
24A73
102
{ACAD_REACTORS
330
24A75
102
}
330
747D
100
AcDbEntity
  8
寸法
 62
     7
 48
50.0
100
AcDbMText
 10
6828.842183206099
 20
1522.140406258505
 30
0.0
 40
80.0
 41
0.8
 71
     4
 72
     1
  1
D10
  7
STYLE2
 73
     1
 44
1.0
1001
ACAD
1000
MTEXTBEGIN
1070
    73
1070
     1
1070
    44
1040
1.0
1070
    74
1070
     0
1000
MTEXTEND
  0
LEADER
  5
24A74
330
747D
100
AcDbEntity
  8
寸法
 48
50.0
100
AcDbLeader
  3
INABA_S50G
 71
     0
 73
     0
 74
     0
 75
     1
 40
100.0
 41
540.3409090909091
 76
     3
 10
6575.459692412589
 20
1540.796944787952
 30
0.0
 10
6694.252979260666
 20
1199.166126793055
 30
0.0
 10
6819.252979260666
 20
1199.166126793055
 30
0.0
213
0.0
223
-1.022262676269383
233
0.0
1001
ACAD
1000
DSTYLE
1002
{
1070
    40
1040
1.0
1070
   272
1070
     1
1070
   279
1070
     1
1070
   341
1005
0
1002
}
  0
LEADER
  5
24A75
330
747D
100
AcDbEntity
  8
寸法
 48
50.0
100
AcDbLeader
  3
INABA_S50G
 71
     0
 73
     0
 74
     0
 75
     1
 40
100.0
 41
225.0
 76
     3
 10
6629.417475751558
 20
1557.537475201478
 30
0.0
 10
6683.8421832061
 20
1462.140406258505
 30
0.0
 10
6808.8421832061
 20
1462.140406258505
 30
0.0
1001
ACAD
1000
DSTYLE
1002
{
1070
    40
1040
1.0
1070
   272
1070
     1
1070
   279
1070
     1
1070
   341
1005
0
1002
}
  0
MTEXT
  5
24A76
102
{ACAD_REACTORS
330
24A71
102
}
330
747D
100
AcDbEntity
  8
寸法
 62
     7
 48
50.0
100
AcDbMText
 10
6680.40046042681
 20
2244.093374494289
 30
0.0
 40
80.0
 41
0.8
 71
     4
 72
     1
  1
D13
  7
STYLE2
 73
     1
 44
1.0
1001
ACAD
1000
MTEXTBEGIN
1070
    73
1070
     1
1070
    44
1040
1.0
1070
    74
1070
     0
1000
MTEXTEND
  0
LINE
  5
24A77
330
747D
100
AcDbEntity
  8
部品1
 48
50.0
100
AcDbLine
 10
6597.514523399415
 20
2221.537475201478
 30
0.0
 11
6597.514523399415
 21
1677.537475201478
 31
0.0
  0
LINE
  5
24A78
330
747D
100
AcDbEntity
  8
部品1
 48
50.0
100
AcDbLine
 10
6405.514523399415
 20
1677.537475201478
 30
0.0
 11
6405.514523399415
 21
2221.537475201478
 31
0.0
  0
CIRCLE
  5
24A79
330
747D
100
AcDbEntity
  8
部品1
 48
50.0
100
AcDbCircle
 10
6501.514523399416
 20
2081.791904595723
 30
0.0
 40
8.0
  0
ARC
  5
24A7A
330
747D
100
AcDbEntity
  8
部品1
 48
50.0
100
AcDbCircle
 10
6501.514523399416
 20
2081.791904595723
 30
0.0
 40
24.0
100
AcDbArc
 50
0.0
 51
180.0
  0
LINE
  5
24A7B
330
747D
100
AcDbEntity
  8
細線
 48
50.0
100
AcDbLine
 10
6525.514523399415
 20
2059.910367869308
 30
0.0
 11
6597.514523399415
 21
2131.910367869308
 31
0.0
  0
LEADER
  5
24A7C
330
747D
100
AcDbEntity
  8
寸法
 48
50.0
100
AcDbLeader
  3
INABA_S50G
 73
     0
 75
     1
 40
106.3636363636363
 41
893.1818181818181
 76
     3
 10
8236.953836576608
 20
2291.097475201479
 30
0.0
 10
8188.529764231669
 20
2665.157049917811
 30
0.0
 10
8063.529764231669
 20
2665.157049917811
 30
0.0
340
24A7D
1001
ACAD
1000
DSTYLE
1002
{
1070
   341
1005
0
1070
    40
1040
1.0
1070
   343
1005
0
1070
   344
1005
0
1002
}
  0
MTEXT
  5
24A7D
102
{ACAD_REACTORS
330
24A7C
102
}
330
747D
100
AcDbEntity
  8
寸法
 62
     7
 48
50.0
100
AcDbMText
 10
8038.529764231668
 20
2743.33886809963
 30
0.0
 40
80.0
 41
0.8
 71
     6
 72
     1
  1
\A1;アンカープレート L
  7
STYLE2
 73
     1
 44
1.0
1001
ACAD
1000
MTEXTBEGIN
1070
    73
1070
     1
1070
    44
1040
1.0
1070
    74
1070
     0
1000
MTEXTEND
  0
DIMENSION
  5
24A7E
330
747D
100
AcDbEntity
  8
寸法
 48
50.0
100
AcDbDimension
  2
*D50
 10
6725.514523399414
 20
899.1078371963176
 30
0.0
 11
6481.41776472119
 21
899.1078371963176
 31
0.0
 70
   160
  1
300
 71
     5
 42
448.0
  3
INABA_S40G
100
AcDbAlignedDimension
 13
6277.514523399414
 23
1309.537475201478
 33
0.0
 14
6725.514523399414
 24
1309.537475201478
 34
0.0
100
AcDbRotatedDimension
1001
ACAD
1000
DSTYLE
1002
{
1070
   341
1005
0
1002
}
  0
MTEXT
  5
24A7F
102
{ACAD_REACTORS
330
24A87
102
}
330
747D
100
AcDbEntity
  8
寸法
 62
     7
 48
50.0
100
AcDbMText
 10
6106.57949720422
 20
1354.014781583041
 30
0.0
 40
80.0
 41
0.8
 71
     6
 72
     1
  1
D10
  7
STYLE2
 73
     1
 44
1.0
1001
ACAD
1000
MTEXTBEGIN
1070
    73
1070
     1
1070
    44
1040
1.0
1070
    74
1070
     0
1000
MTEXTEND
  0
MTEXT
  5
24A80
102
{ACAD_REACTORS
330
24A86
102
}
330
747D
100
AcDbEntity
  8
寸法
 62
     7
 48
50.0
100
AcDbMText
 10
6134.702224761655
 20
1173.698629043598
 30
0.0
 40
80.0
 41
0.8
 71
     6
 72
     1
  1
D13
  7
STYLE2
 73
     1
 44
1.0
1001
ACAD
1000
MTEXTBEGIN
1070
    73
1070
     1
1070
    44
1040
1.0
1070
    74
1070
     0
1000
MTEXTEND
  0
DIMENSION
  5
24A81
330
747D
100
AcDbEntity
  8
寸法
 48
50.0
100
AcDbDimension
  2
*D51
 10
5670.477284837674
 20
1437.537475201478
 30
0.0
 11
5670.477284837674
 21
1809.077624857478
 31
0.0
 70
   160
  1
540
 71
     5
 42
784.0
  3
INABA_S40G
100
AcDbAlignedDimension
 13
6405.514523399414
 23
2221.537475201478
 33
0.0
 14
6197.514523399418
 24
1437.537475201478
 34
0.0
 50
90.0
100
AcDbRotatedDimension
1001
ACAD
1000
DSTYLE
1002
{
1070
   341
1005
0
1002
}
  0
MTEXT
  5
24A82
102
{ACAD_REACTORS
330
24A83
102
}
330
747D
100
AcDbEntity
  8
寸法
 62
     7
 48
50.0
100
AcDbMText
 10
6185.416043916141
 20
2434.05369520352
 30
0.0
 40
80.0
 41
0.8
 71
     6
 72
     1
  1
\A1;金コテ押エ
  7
STYLE2
 73
     1
 44
1.0
1001
ACAD
1000
MTEXTBEGIN
1070
    73
1070
     1
1070
    44
1040
1.0
1070
    74
1070
     0
1000
MTEXTEND
  0
LEADER
  5
24A83
330
747D
100
AcDbEntity
  8
寸法
 48
50.0
100
AcDbLeader
  3
INABA_S50G
 71
     0
 73
     0
 75
     1
 40
130.1136363636363
 41
651.1363636363636
 76
     3
 10
6485.514523399415
 20
2221.537475201478
 30
0.0
 10
6373.089943235398
 20
2362.008240658066
 30
0.0
 10
6248.089943235398
 20
2362.008240658066
 30
0.0
1001
ACAD
1000
DSTYLE
1002
{
1070
    40
1040
1.0
1070
   272
1070
     1
1070
   279
1070
     1
1070
   341
1005
0
1002
}
  0
LEADER
  5
24A84
330
747D
100
AcDbEntity
  8
寸法
 48
50.0
100
AcDbLeader
  3
INABA_S50G
 71
     0
 73
     0
 75
     1
 40
100.0
 41
540.3409090909091
 76
     3
 10
6509.514523399414
 20
1979.664689898601
 30
0.0
 10
6451.532286870715
 20
1758.194361357796
 30
0.0
 10
6326.532286870716
 20
1758.194361357796
 30
0.0
213
-9.732182305893367
223
-4.643716661138569
233
0.0
1001
ACAD
1000
DSTYLE
1002
{
1070
    40
1040
1.0
1070
   272
1070
     1
1070
   279
1070
     1
1070
   341
1005
0
1002
}
  0
MTEXT
  5
24A85
102
{ACAD_REACTORS
330
24A84
102
}
330
747D
100
AcDbEntity
  8
寸法
 62
     7
 48
50.0
100
AcDbMText
 10
6316.26446917661
 20
1822.838078018935
 30
0.0
 40
80.0
 41
0.8
 71
     6
 72
     1
  1
\A1;D10@300
  7
STYLE2
 73
     1
 44
1.0
1001
ACAD
1000
MTEXTBEGIN
1070
    73
1070
     1
1070
    44
1040
1.0
1070
    74
1070
     0
1000
MTEXTEND
  0
LEADER
  5
24A86
330
747D
100
AcDbEntity
  8
寸法
 48
50.0
100
AcDbLeader
  3
INABA_S50G
 71
     0
 73
     0
 75
     1
 40
100.0
 41
222.7272727272727
 76
     3
 10
6501.514523399414
 20
1557.537475201478
 30
0.0
 10
6279.702224761655
 20
1113.698629043598
 30
0.0
 10
6154.702224761655
 20
1113.698629043598
 30
0.0
1001
ACAD
1000
DSTYLE
1002
{
1070
    40
1040
1.0
1070
   272
1070
     1
1070
   279
1070
     1
1070
   341
1005
0
1002
}
  0
LEADER
  5
24A87
330
747D
100
AcDbEntity
  8
寸法
 48
50.0
100
AcDbLeader
  3
INABA_S50G
 71
     0
 73
     0
 75
     1
 40
100.0
 41
225.0
 76
     3
 10
6373.417475751558
 20
1557.537475201478
 30
0.0
 10
6251.579497204221
 20
1294.014781583041
 30
0.0
 10
6126.579497204221
 20
1294.014781583041
 30
0.0
1001
ACAD
1000
DSTYLE
1002
{
1070
    40
1040
1.0
1070
   272
1070
     1
1070
   279
1070
     1
1070
   341
1005
0
1002
}
  0
DIMENSION
  5
24A88
330
747D
100
AcDbEntity
  8
寸法
 48
50.0
100
AcDbDimension
  2
*D52
 10
6135.094209666955
 20
1437.537475201478
 30
0.0
 11
6135.094209666955
 21
1557.537475201479
 31
0.0
 70
   160
  1
150
 71
     5
 42
240.0
  3
INABA_S40G
100
AcDbAlignedDimension
 13
6277.514523399414
 23
1677.537475201478
 33
0.0
 14
6197.514523399418
 24
1437.537475201478
 34
0.0
 50
90.0
100
AcDbRotatedDimension
1001
ACAD
1000
DSTYLE
1002
{
1070
   341
1005
0
1002
}
  0
TEXT
  5
24A89
330
747D
100
AcDbEntity
  8
部品1
 48
50.0
100
AcDbText
 10
5991.374621566458
 20
1992.776467484733
 30
0.0
 40
80.0
  1
▽G.L
  7
STYLE2
100
AcDbText
  0
LWPOLYLINE
  5
24A8A
330
747D
100
AcDbEntity
  8
部品1
 48
50.0
100
AcDbPolyline
 90
        2
 70
     0
 43
8.0
 10
5991.374621566458
 20
1981.537475201479
 10
6405.514523399414
 20
1981.537475201479
  0
MTEXT
  5
24A8B
102
{ACAD_REACTORS
330
24A8C
102
}
330
747D
100
AcDbEntity
  8
寸法
 62
     7
 48
50.0
100
AcDbMText
 10
8011.886758023312
 20
3104.023140007143
 30
0.0
 40
80.0
 41
0.8
 71
     6
 72
     1
  1
\A1;φ70スリーブ
  7
STYLE2
 73
     1
 44
1.0
1001
ACAD
1000
MTEXTBEGIN
1070
    73
1070
     1
1070
    44
1040
1.0
1070
    74
1070
     0
1000
MTEXTEND
  0
LEADER
  5
24A8C
330
747D
100
AcDbEntity
  8
寸法
 48
50.0
100
AcDbLeader
  3
INABA_S50G
 73
     0
 75
     1
 40
113.1818181818182
 41
608.6363636363635
 76
     3
 10
8295.690586714661
 20
2171.053148559757
 30
0.0
 10
8161.886758023312
 20
3022.432230916235
 30
0.0
 10
8036.886758023312
 20
3022.432230916235
 30
0.0
340
24A8B
1001
ACAD
1000
DSTYLE
1002
{
1070
   341
1005
0
1070
    40
1040
1.0
1070
   343
1005
0
1070
   344
1005
0
1002
}
  0
LINE
  5
24A8D
330
747D
100
AcDbEntity
  8
部品1
100
AcDbLine
 10
5334.846084590152
 20
3620.876142402063
 30
0.0
 11
5334.846084590154
 21
656.5691728174161
 31
0.0
  0
LEADER
  5
24A8E
330
747D
100
AcDbEntity
  8
寸法
 48
50.0
100
AcDbLeader
  3
INABA_S50G
 73
     0
 74
     0
 75
     1
 40
80.0
 41
435.0
 76
     3
 10
8335.95383657661
 20
2270.697475201478
 30
0.0
 10
8378.498298995928
 20
2420.920801354708
 30
0.0
 10
8503.498298995928
 20
2420.920801354708
 30
0.0
340
24A8F
1001
ACAD
1000
DSTYLE
1002
{
1070
   341
1005
0
1070
    40
1040
1.0
1070
   343
1005
0
1070
   344
1005
0
1002
}
  0
MTEXT
  5
24A8F
102
{ACAD_REACTORS
330
24A8E
102
}
330
747D
100
AcDbEntity
  8
部品1
 62
     7
 48
50.0
100
AcDbMText
 10
8528.498298995929
 20
2485.920801354708
 30
0.0
 40
80.0
 41
0.8
 71
     4
 72
     1
  1
M10X160
  7
STYLE2
 73
     1
 44
1.0
1001
ACAD
1000
MTEXTBEGIN
1070
    73
1070
     1
1070
    44
1040
1.0
1070
    74
1070
     0
1000
MTEXTEND
  0
DIMENSION
  5
24A90
330
747D
100
AcDbEntity
  8
寸法
 48
50.0
100
AcDbDimension
  2
*D53
 10
9297.47710246448
 20
2221.537475201477
 30
0.0
 11
9297.47710246448
 21
1755.528571779995
 31
0.0
 70
   160
  1
20～25
 71
     5
 42
52.76000000000113
  3
INABA_S40G
100
AcDbAlignedDimension
 13
8332.35383657661
 23
2274.297475201479
 33
0.0
 14
8519.553836576609
 24
2221.537475201478
 34
0.0
 50
90.0
100
AcDbRotatedDimension
1001
ACAD
1000
DSTYLE
1002
{
1070
   341
1005
0
1002
}
  0
DIMENSION
  5
24A91
330
747D
100
AcDbEntity
  8
寸法
 48
50.0
100
AcDbDimension
  2
*D54
 10
9021.422436345451
 20
1897.537475201476
 30
0.0
 11
8921.422436345451
 21
2059.537475201479
 31
0.0
 70
    32
  1
180
 71
     5
 42
324.0000000000009
  3
INABA_S40G
100
AcDbAlignedDimension
 13
8519.553836576609
 23
2221.537475201478
 33
0.0
 14
8519.553836576609
 24
1897.537475201477
 34
0.0
 50
90.0
100
AcDbRotatedDimension
1001
ACAD
1000
DSTYLE
1002
{
1070
   341
1005
0
1002
}
  0
TEXT
  5
24A92
330
747D
100
AcDbEntity
  8
部品1
 48
50.0
100
AcDbText
 10
8523.907420861036
 20
2577.416155963678
 30
0.0
 40
80.0
  1
基礎ボルト(市販品)
  7
STYLE2
100
AcDbText
  0
LWPOLYLINE
  5
24A93
330
747D
100
AcDbEntity
  8
部品1
 48
50.0
100
AcDbPolyline
 90
        2
 70
     0
 43
8.0
 10
8519.553836576609
 20
1981.537475201479
 10
8813.256299975993
 20
1981.537475201479
  0
MTEXT
  5
24A94
102
{ACAD_REACTORS
330
24A95
102
}
330
747D
100
AcDbEntity
  8
部品1
 62
     7
 48
50.0
100
AcDbMText
 10
8558.825426945448
 20
2922.032848288738
 30
0.0
 40
80.0
 41
0.8
 71
     4
 72
     1
  1
\A1;ワッシャー(市販品)
  7
STYLE2
 73
     1
 44
1.0
1001
ACAD
1000
MTEXTBEGIN
1070
    73
1070
     1
1070
    44
1040
1.0
1070
    74
1070
     0
1000
MTEXTEND
  0
LEADER
  5
24A95
330
747D
100
AcDbEntity
  8
寸法
 48
50.0
100
AcDbLeader
  3
INABA_S50G
 73
     0
 74
     0
 75
     1
 40
102.2727272727273
 41
906.8181818181818
 76
     3
 10
8366.953836576611
 20
2490.660763645758
 30
0.0
 10
8408.825426945448
 20
2845.896484652374
 30
0.0
 10
8533.825426945448
 20
2845.896484652374
 30
0.0
340
24A94
1001
ACAD
1000
DSTYLE
1002
{
1070
   341
1005
0
1070
    40
1040
1.0
1070
   343
1005
0
1070
   344
1005
0
1002
}
  0
MTEXT
  5
24A96
102
{ACAD_REACTORS
330
24A97
102
}
330
747D
100
AcDbEntity
  8
部品1
 62
     7
 48
50.0
100
AcDbMText
 10
8527.307807689965
 20
3107.001931053526
 30
0.0
 40
80.0
 41
0.8
 71
     4
 72
     1
  1
\A1;ナット(市販品)
  7
STYLE2
 73
     1
 44
1.0
1001
ACAD
1000
MTEXTBEGIN
1070
    73
1070
     1
1070
    44
1040
1.0
1070
    74
1070
     0
1000
MTEXTEND
  0
LEADER
  5
24A97
330
747D
100
AcDbEntity
  8
寸法
 48
50.0
100
AcDbLeader
  3
INABA_S50G
 73
     0
 74
     0
 75
     1
 40
102.2727272727273
 41
680.0000000000001
 76
     3
 10
8342.95383657661
 20
2620.412756310621
 30
0.0
 10
8377.307807689964
 20
3030.865567417162
 30
0.0
 10
8502.307807689964
 20
3030.865567417162
 30
0.0
340
24A96
1001
ACAD
1000
DSTYLE
1002
{
1070
   341
1005
0
1070
    40
1040
1.0
1070
   343
1005
0
1070
   344
1005
0
1002
}
  0
LINE
  5
24A98
330
747D
100
AcDbEntity
  8
部品1
100
AcDbLine
 10
5334.846084590155
 20
656.5691728174161
 30
0.0
 11
11405.8312699764
 21
656.5691728174161
 31
0.0
  0
LINE
  5
24A99
330
747D
100
AcDbEntity
  8
部品1
100
AcDbLine
 10
11405.8312699764
 20
3380.876142402062
 30
0.0
 11
5334.846084590154
 21
3380.876142402062
 31
0.0
  0
LINE
  5
24A9A
330
747D
100
AcDbEntity
  8
部品1
100
AcDbLine
 10
11405.8312699764
 20
3620.876142402063
 30
0.0
 11
5334.84608459015
 21
3620.876142402063
 31
0.0
  0
ENDSEC
  0
SECTION
  2
OBJECTS
  0
DICTIONARY
  5
7471
330
0
100
AcDbDictionary
281
     1
  3
ACAD_COLOR
350
173D2
  3
ACAD_GROUP
350
7472
  3
ACAD_LAYOUT
350
173D3
  3
ACAD_MATERIAL
350
173D1
  3
ACAD_MLINESTYLE
350
7473
  3
ACAD_PLOTSETTINGS
350
173D4
  3
ACAD_PLOTSTYLENAME
350
173CF
  3
ACDBHEADERROUNDTRIPXREC
350
24B28
  3
AcDbVariableDictionary
350
24726
  3
CONTENTDICTIONARY
350
E71C
  3
DRAWINGVARIABLESDICT
350
F3B9
  0
DICTIONARY
  5
1758F
330
7467
100
AcDbDictionary
280
     1
281
     1
  3
ACAD_LAYERSTATES
360
17590
  0
DICTIONARY
  5
173D2
102
{ACAD_REACTORS
330
7471
102
}
330
7471
100
AcDbDictionary
281
     1
  0
DICTIONARY
  5
7472
102
{ACAD_REACTORS
330
7471
102
}
330
7471
100
AcDbDictionary
281
     1
  3
*A1
350
1D2A9
  0
DICTIONARY
  5
173D3
102
{ACAD_REACTORS
330
7471
102
}
330
7471
100
AcDbDictionary
281
     1
  3
Model
350
173D5
  3
レイアウト1
350
173D6
  0
DICTIONARY
  5
173D1
102
{ACAD_REACTORS
330
7471
102
}
330
7471
100
AcDbDictionary
281
     1
  0
DICTIONARY
  5
7473
102
{ACAD_REACTORS
330
7471
102
}
330
7471
100
AcDbDictionary
281
     1
  3
STANDARD
350
7480
  0
DICTIONARY
  5
173D4
102
{ACAD_REACTORS
330
7471
102
}
330
7471
100
AcDbDictionary
281
     1
  0
ACDBDICTIONARYWDFLT
  5
173CF
102
{ACAD_REACTORS
330
7471
102
}
330
7471
100
AcDbDictionary
281
     1
  3
Normal
350
173D0
100
AcDbDictionaryWithDefault
340
173D0
  0
DICTIONARY
  5
24B28
102
{ACAD_REACTORS
330
7471
102
}
330
7471
100
AcDbDictionary
281
     1
  3
COLORDICT
350
24B2A
  3
MATERIALDICT
350
24B29
  0
DICTIONARY
  5
24726
102
{ACAD_REACTORS
330
7471
102
}
330
7471
100
AcDbDictionary
281
     1
  3
DIMASSOC
350
24727
  3
PROJECTNAME
350
24728
  0
DICTIONARY
  5
E71C
102
{ACAD_REACTORS
330
7471
102
}
330
7471
100
AcDbDictionary
281
     1
  0
DICTIONARY
  5
F3B9
102
{ACAD_REACTORS
330
7471
102
}
330
7471
100
AcDbDictionary
281
     1
1001
DRAWINGVARIABLESXDATA
1000
POLARMODE
1000
1
  0
DICTIONARY
  5
17590
102
{ACAD_REACTORS
330
1758F
102
}
330
1758F
100
AcDbDictionary
281
     1
  0
GROUP
  5
1D2A9
102
{ACAD_REACTORS
330
7472
102
}
330
7472
100
AcDbGroup
300

 70
     1
 71
     1
  0
LAYOUT
  5
173D5
102
{ACAD_XDICTIONARY
360
24B2B
102
}
102
{ACAD_REACTORS
330
173D3
102
}
330
173D3
100
AcDbPlotSettings
  1

  2
Microsoft Office Document Image Writer
  4

  6

 40
0.0
 41
0.0
 42
0.0
 43
0.0
 44
0.0
 45
0.0
 46
0.0
 47
0.0
 48
0.0
 49
0.0
140
0.0
141
0.0
142
1.0
143
1.0
 70
  1712
 72
     0
 73
     0
 74
     0
  7

 75
     0
147
1.0
148
0.0
149
0.0
100
AcDbLayout
  1
Model
 70
     1
 71
     0
 10
0.0
 20
0.0
 11
12.0
 21
9.0
 12
0.0
 22
0.0
 32
0.0
 14
0.0
 24
0.0
 34
0.0
 15
0.0
 25
0.0
 35
0.0
146
0.0
 13
0.0
 23
0.0
 33
0.0
 16
1.0
 26
0.0
 36
0.0
 17
0.0
 27
1.0
 37
0.0
 76
     0
330
747D
  0
LAYOUT
  5
173D6
102
{ACAD_XDICTIONARY
360
24B2D
102
}
102
{ACAD_REACTORS
330
173D3
102
}
330
173D3
100
AcDbPlotSettings
  1

  2
Microsoft Office Document Image Writer
  4

  6

 40
0.0
 41
0.0
 42
0.0
 43
0.0
 44
0.0
 45
0.0
 46
0.0
 47
0.0
 48
0.0
 49
0.0
140
0.0
141
0.0
142
1.0
143
1.0
 70
   688
 72
     0
 73
     0
 74
     5
  7

 75
    16
147
1.0
148
0.0
149
0.0
100
AcDbLayout
  1
レイアウト1
 70
     0
 71
     1
 10
0.0
 20
0.0
 11
420.0
 21
297.0
 12
0.0
 22
0.0
 32
0.0
 14
1.000000000000000E+20
 24
1.000000000000000E+20
 34
1.000000000000000E+20
 15
-1.000000000000000E+20
 25
-1.000000000000000E+20
 35
-1.000000000000000E+20
146
0.0
 13
0.0
 23
0.0
 33
0.0
 16
1.0
 26
0.0
 36
0.0
 17
0.0
 27
1.0
 37
0.0
 76
     0
330
747A
  0
MLINESTYLE
  5
7480
102
{ACAD_REACTORS
330
7473
102
}
330
7473
100
AcDbMlineStyle
  2
STANDARD
 70
     0
  3

 62
     0
 51
90.0
 52
90.0
 71
     2
 49
0.5
 62
   256
  6
BYLAYER
 49
-0.5
 62
   256
  6
BYLAYER
  0
ACDBPLACEHOLDER
  5
173D0
102
{ACAD_REACTORS
330
173CF
102
}
330
173CF
  0
XRECORD
  5
24B2A
102
{ACAD_REACTORS
330
24B28
102
}
330
24B28
100
AcDbXrecord
280
     1
340
173D2
  0
XRECORD
  5
24B29
102
{ACAD_REACTORS
330
24B28
102
}
330
24B28
100
AcDbXrecord
280
     1
340
173D1
  0
DICTIONARYVAR
  5
24727
102
{ACAD_REACTORS
330
24726
102
}
330
24726
100
DictionaryVariables
280
     0
  1
1
  0
DICTIONARYVAR
  5
24728
102
{ACAD_REACTORS
330
24726
102
}
330
24726
100
DictionaryVariables
280
     0
  1

  0
DICTIONARY
  5
24B2B
330
173D5
100
AcDbDictionary
280
     1
281
     1
  3
ACAD_XREC_ROUNDTRIP
360
24B2C
  0
DICTIONARY
  5
24B2D
330
173D6
100
AcDbDictionary
280
     1
281
     1
  3
ACAD_XREC_ROUNDTRIP
360
24B2E
  0
XRECORD
  5
24B2C
102
{ACAD_REACTORS
330
24B2B
102
}
330
24B2B
100
AcDbXrecord
280
     1
102
SHADEPLOT
 70
     0
102
SHADEPLOTRESLEVEL
 70
     2
102
SHADEPLOTCUSTOMDPI
 70
   300
  0
XRECORD
  5
24B2E
102
{ACAD_REACTORS
330
24B2D
102
}
330
24B2D
100
AcDbXrecord
280
     1
102
SHADEPLOT
 70
     0
102
SHADEPLOTRESLEVEL
 70
     2
102
SHADEPLOTCUSTOMDPI
 70
   300
  0
ENDSEC
  0
EOF
