  0
SECTION
  2
HEADER
  9
$ACADVER
  1
AC1015
  9
$ACADMAINTVER
 70
    20
  9
$DWGCODEPAGE
  3
ANSI_932
  9
$INSBASE
 10
0.0
 20
0.0
 30
0.0
  9
$EXTMIN
 10
139.9999999999995
 20
-0.0000000000000909
 30
0.0
  9
$EXTMAX
 10
16307.2
 20
11409.6
 30
0.0
  9
$LIMMIN
 10
0.0
 20
0.0
  9
$LIMMAX
 10
16800.0
 20
11880.0
  9
$ORTHOMODE
 70
     0
  9
$REGENMODE
 70
     1
  9
$FILLMODE
 70
     1
  9
$QTEXTMODE
 70
     0
  9
$MIRRTEXT
 70
     1
  9
$LTSCALE
 40
20.0
  9
$ATTMODE
 70
     1
  9
$TEXTSIZE
 40
4.0
  9
$TRACEWID
 40
1.0
  9
$TEXTSTYLE
  7
STYLE1
  9
$CLAYER
  8
寸法
  9
$CELTYPE
  6
BYLAYER
  9
$CECOLOR
 62
   256
  9
$CELTSCALE
 40
50.0
  9
$DISPSILH
 70
     0
  9
$DIMSCALE
 40
40.0
  9
$DIMASZ
 40
2.5
  9
$DIMEXO
 40
0.5
  9
$DIMDLI
 40
7.0
  9
$DIMRND
 40
0.0
  9
$DIMDLE
 40
0.0
  9
$DIMEXE
 40
1.5
  9
$DIMTP
 40
0.0
  9
$DIMTM
 40
0.0
  9
$DIMTXT
 40
3.0
  9
$DIMCEN
 40
0.0
  9
$DIMTSZ
 40
0.0
  9
$DIMTOL
 70
     0
  9
$DIMLIM
 70
     0
  9
$DIMTIH
 70
     0
  9
$DIMTOH
 70
     0
  9
$DIMSE1
 70
     0
  9
$DIMSE2
 70
     0
  9
$DIMTAD
 70
     3
  9
$DIMZIN
 70
     8
  9
$DIMBLK
  1

  9
$DIMASO
 70
     1
  9
$DIMSHO
 70
     1
  9
$DIMPOST
  1

  9
$DIMAPOST
  1

  9
$DIMALT
 70
     0
  9
$DIMALTD
 70
     2
  9
$DIMALTF
 40
0.0394
  9
$DIMLFAC
 40
1.0
  9
$DIMTOFL
 70
     1
  9
$DIMTVP
 40
0.0
  9
$DIMTIX
 70
     1
  9
$DIMSOXD
 70
     0
  9
$DIMSAH
 70
     1
  9
$DIMBLK1
  1
DOTSMALL
  9
$DIMBLK2
  1
DOTSMALL
  9
$DIMSTYLE
  2
INABA_S40G
  9
$DIMCLRD
 70
     0
  9
$DIMCLRE
 70
     0
  9
$DIMCLRT
 70
     7
  9
$DIMTFAC
 40
1.0
  9
$DIMGAP
 40
1.0
  9
$DIMJUST
 70
     0
  9
$DIMSD1
 70
     0
  9
$DIMSD2
 70
     0
  9
$DIMTOLJ
 70
     1
  9
$DIMTZIN
 70
     0
  9
$DIMALTZ
 70
     0
  9
$DIMALTTZ
 70
     0
  9
$DIMUPT
 70
     0
  9
$DIMDEC
 70
     1
  9
$DIMTDEC
 70
     4
  9
$DIMALTU
 70
     2
  9
$DIMALTTD
 70
     2
  9
$DIMTXSTY
  7
STYLE1
  9
$DIMAUNIT
 70
     0
  9
$DIMADEC
 70
     0
  9
$DIMALTRND
 40
0.0
  9
$DIMAZIN
 70
     0
  9
$DIMDSEP
 70
    46
  9
$DIMATFIT
 70
     3
  9
$DIMFRAC
 70
     0
  9
$DIMLDRBLK
  1

  9
$DIMLUNIT
 70
     2
  9
$DIMLWD
 70
    -2
  9
$DIMLWE
 70
    -2
  9
$DIMTMOVE
 70
     0
  9
$LUNITS
 70
     2
  9
$LUPREC
 70
     1
  9
$SKETCHINC
 40
1.0
  9
$FILLETRAD
 40
3.0
  9
$AUNITS
 70
     0
  9
$AUPREC
 70
     0
  9
$MENU
  1
acad
  9
$ELEVATION
 40
0.0
  9
$PELEVATION
 40
0.0
  9
$THICKNESS
 40
0.0
  9
$LIMCHECK
 70
     0
  9
$CHAMFERA
 40
0.0
  9
$CHAMFERB
 40
0.0
  9
$CHAMFERC
 40
0.0
  9
$CHAMFERD
 40
0.0
  9
$SKPOLY
 70
     0
  9
$TDCREATE
 40
2451368.612993866
  9
$TDUCREATE
 40
2451368.237993866
  9
$TDUPDATE
 40
2455826.588214156
  9
$TDUUPDATE
 40
2455826.213214155
  9
$TDINDWG
 40
0.7678687963
  9
$TDUSRTIMER
 40
0.7678687963
  9
$USRTIMER
 70
     1
  9
$ANGBASE
 50
0.0
  9
$ANGDIR
 70
     0
  9
$PDMODE
 70
     3
  9
$PDSIZE
 40
2.0
  9
$PLINEWID
 40
0.0
  9
$SPLFRAME
 70
     0
  9
$SPLINETYPE
 70
     6
  9
$SPLINESEGS
 70
     8
  9
$HANDSEED
  5
2422E
  9
$SURFTAB1
 70
     6
  9
$SURFTAB2
 70
     6
  9
$SURFTYPE
 70
     6
  9
$SURFU
 70
     6
  9
$SURFV
 70
     6
  9
$UCSBASE
  2

  9
$UCSNAME
  2

  9
$UCSORG
 10
0.0
 20
0.0
 30
0.0
  9
$UCSXDIR
 10
1.0
 20
0.0
 30
0.0
  9
$UCSYDIR
 10
0.0
 20
1.0
 30
0.0
  9
$UCSORTHOREF
  2

  9
$UCSORTHOVIEW
 70
     0
  9
$UCSORGTOP
 10
0.0
 20
0.0
 30
0.0
  9
$UCSORGBOTTOM
 10
0.0
 20
0.0
 30
0.0
  9
$UCSORGLEFT
 10
0.0
 20
0.0
 30
0.0
  9
$UCSORGRIGHT
 10
0.0
 20
0.0
 30
0.0
  9
$UCSORGFRONT
 10
0.0
 20
0.0
 30
0.0
  9
$UCSORGBACK
 10
0.0
 20
0.0
 30
0.0
  9
$PUCSBASE
  2

  9
$PUCSNAME
  2

  9
$PUCSORG
 10
0.0
 20
0.0
 30
0.0
  9
$PUCSXDIR
 10
1.0
 20
0.0
 30
0.0
  9
$PUCSYDIR
 10
0.0
 20
1.0
 30
0.0
  9
$PUCSORTHOREF
  2

  9
$PUCSORTHOVIEW
 70
     0
  9
$PUCSORGTOP
 10
0.0
 20
0.0
 30
0.0
  9
$PUCSORGBOTTOM
 10
0.0
 20
0.0
 30
0.0
  9
$PUCSORGLEFT
 10
0.0
 20
0.0
 30
0.0
  9
$PUCSORGRIGHT
 10
0.0
 20
0.0
 30
0.0
  9
$PUCSORGFRONT
 10
0.0
 20
0.0
 30
0.0
  9
$PUCSORGBACK
 10
0.0
 20
0.0
 30
0.0
  9
$USERI1
 70
     0
  9
$USERI2
 70
     0
  9
$USERI3
 70
     0
  9
$USERI4
 70
     0
  9
$USERI5
 70
     0
  9
$USERR1
 40
0.0
  9
$USERR2
 40
0.0
  9
$USERR3
 40
0.0
  9
$USERR4
 40
0.0
  9
$USERR5
 40
0.0
  9
$WORLDVIEW
 70
     1
  9
$SHADEDGE
 70
     3
  9
$SHADEDIF
 70
    70
  9
$TILEMODE
 70
     1
  9
$MAXACTVP
 70
    16
  9
$PINSBASE
 10
0.0
 20
0.0
 30
0.0
  9
$PLIMCHECK
 70
     0
  9
$PEXTMIN
 10
1.000000000000000E+20
 20
1.000000000000000E+20
 30
1.000000000000000E+20
  9
$PEXTMAX
 10
-1.000000000000000E+20
 20
-1.000000000000000E+20
 30
-1.000000000000000E+20
  9
$PLIMMIN
 10
0.0
 20
0.0
  9
$PLIMMAX
 10
420.0
 20
297.0
  9
$UNITMODE
 70
     0
  9
$VISRETAIN
 70
     0
  9
$PLINEGEN
 70
     0
  9
$PSLTSCALE
 70
     0
  9
$TREEDEPTH
 70
  3020
  9
$CMLSTYLE
  2
STANDARD
  9
$CMLJUST
 70
     0
  9
$CMLSCALE
 40
1.0
  9
$PROXYGRAPHICS
 70
     1
  9
$MEASUREMENT
 70
     1
  9
$CELWEIGHT
370
    -1
  9
$ENDCAPS
280
     0
  9
$JOINSTYLE
280
     0
  9
$LWDISPLAY
290
     0
  9
$INSUNITS
 70
     0
  9
$HYPERLINKBASE
  1

  9
$STYLESHEET
  1

  9
$XEDIT
290
     1
  9
$CEPSNTYPE
380
     0
  9
$PSTYLEMODE
290
     1
  9
$FINGERPRINTGUID
  2
{5EAC461A-2277-4BF8-9AB0-99C43BB394F0}
  9
$VERSIONGUID
  2
{5240CD72-77CF-4B39-BC41-02308D99E5A5}
  9
$EXTNAMES
290
     1
  9
$PSVPSCALE
 40
0.0
  9
$OLESTARTUP
290
     0
  0
ENDSEC
  0
SECTION
  2
CLASSES
  0
CLASS
  1
ACDBDICTIONARYWDFLT
  2
AcDbDictionaryWithDefault
  3
ObjectDBX Classes
 90
        0
280
     0
281
     0
  0
CLASS
  1
DICTIONARYVAR
  2
AcDbDictionaryVar
  3
ObjectDBX Classes
 90
        0
280
     0
281
     0
  0
CLASS
  1
ACDBPLACEHOLDER
  2
AcDbPlaceHolder
  3
ObjectDBX Classes
 90
        0
280
     0
281
     0
  0
CLASS
  1
LAYOUT
  2
AcDbLayout
  3
ObjectDBX Classes
 90
        0
280
     0
281
     0
  0
ENDSEC
  0
SECTION
  2
TABLES
  0
TABLE
  2
VPORT
  5
746D
330
0
100
AcDbSymbolTable
 70
     2
  0
VPORT
  5
24226
330
746D
100
AcDbSymbolTableRecord
100
AcDbViewportTableRecord
  2
*Active
 70
     0
 10
0.0
 20
0.0
 11
1.0
 21
1.0
 12
8400.0
 22
6532.223175279203
 13
0.0
 23
0.0
 14
10.0
 24
10.0
 15
10.0
 25
10.0
 16
0.0
 26
0.0
 36
1.0
 17
0.0
 27
0.0
 37
0.0
 40
13160.56358925593
 41
1.522222222222222
 42
50.0
 43
0.0
 44
0.0
 50
0.0
 51
0.0
 71
     0
 72
     0
 73
     1
 74
     0
 75
     0
 76
     0
 77
     0
 78
     0
281
     0
 65
     1
110
0.0
120
0.0
130
0.0
111
1.0
121
0.0
131
0.0
112
0.0
122
1.0
132
0.0
 79
     0
146
0.0
  0
ENDTAB
  0
TABLE
  2
LTYPE
  5
746A
330
0
100
AcDbSymbolTable
 70
     5
  0
LTYPE
  5
7477
330
746A
100
AcDbSymbolTableRecord
100
AcDbLinetypeTableRecord
  2
BYBLOCK
 70
     0
  3

 72
    65
 73
     0
 40
0.0
  0
LTYPE
  5
7478
330
746A
100
AcDbSymbolTableRecord
100
AcDbLinetypeTableRecord
  2
BYLAYER
 70
     0
  3

 72
    65
 73
     0
 40
0.0
  0
LTYPE
  5
7479
330
746A
100
AcDbSymbolTableRecord
100
AcDbLinetypeTableRecord
  2
CONTINUOUS
 70
     0
  3
Solid line
 72
    65
 73
     0
 40
0.0
  0
LTYPE
  5
7816
330
746A
100
AcDbSymbolTableRecord
100
AcDbLinetypeTableRecord
  2
CENTER
 70
     0
  3
____ _ ____ _ ____ _ ____ _ ____ _ ____ _ ____ 
 72
    65
 73
     4
 40
2.0
 49
1.25
 74
     0
 49
-0.25
 74
     0
 49
0.25
 74
     0
 49
-0.25
 74
     0
  0
LTYPE
  5
781A
330
746A
100
AcDbSymbolTableRecord
100
AcDbLinetypeTableRecord
  2
HIDDEN
 70
     0
  3
__ __ __ __ __ __ __ __ __ __ __ __ __ __ __ __
 72
    65
 73
     2
 40
0.375
 49
0.25
 74
     0
 49
-0.125
 74
     0
  0
LTYPE
  5
781B
330
746A
100
AcDbSymbolTableRecord
100
AcDbLinetypeTableRecord
  2
PHANTOM
 70
     0
  3
______  __  __  ______  __  __  ______  __  __ 
 72
    65
 73
     6
 40
2.5
 49
1.25
 74
     0
 49
-0.25
 74
     0
 49
0.25
 74
     0
 49
-0.25
 74
     0
 49
0.25
 74
     0
 49
-0.25
 74
     0
  0
LTYPE
  5
12CC3
330
746A
100
AcDbSymbolTableRecord
100
AcDbLinetypeTableRecord
  2
HIDDENX2
 70
     0
  3
Hidden (2x) ____ ____ ____ ____ ____ ____ ____
 72
    65
 73
     2
 40
19.05
 49
12.7
 74
     0
 49
-6.349999999999999
 74
     0
  0
ENDTAB
  0
TABLE
  2
LAYER
  5
7467
102
{ACAD_XDICTIONARY
360
1758F
102
}
330
0
100
AcDbSymbolTable
 70
    12
  0
LAYER
  5
7474
330
7467
100
AcDbSymbolTableRecord
100
AcDbLayerTableRecord
  2
0
 70
     0
 62
     7
  6
CONTINUOUS
370
    -3
390
173D0
  0
LAYER
  5
DEB2
330
7467
100
AcDbSymbolTableRecord
100
AcDbLayerTableRecord
  2
センター
 70
     0
 62
     3
  6
CENTER
370
    -3
390
173D0
  0
LAYER
  5
DEB3
330
7467
100
AcDbSymbolTableRecord
100
AcDbLayerTableRecord
  2
寸法
 70
     0
 62
     4
  6
CONTINUOUS
370
    -3
390
173D0
  0
LAYER
  5
DEB4
330
7467
100
AcDbSymbolTableRecord
100
AcDbLayerTableRecord
  2
部品1
 70
     0
 62
     7
  6
CONTINUOUS
370
    -3
390
173D0
  0
LAYER
  5
DEB5
330
7467
100
AcDbSymbolTableRecord
100
AcDbLayerTableRecord
  2
補助
 70
     0
 62
    -1
  6
CONTINUOUS
370
    -3
390
173D0
  0
LAYER
  5
DEB6
330
7467
100
AcDbSymbolTableRecord
100
AcDbLayerTableRecord
  2
文字
 70
     0
 62
     7
  6
CONTINUOUS
370
    -3
390
173D0
  0
LAYER
  5
F255
330
7467
100
AcDbSymbolTableRecord
100
AcDbLayerTableRecord
  2
DEFPOINTS
 70
     0
 62
     7
  6
CONTINUOUS
290
     0
370
    -3
390
173D0
  0
LAYER
  5
10B54
330
7467
100
AcDbSymbolTableRecord
100
AcDbLayerTableRecord
  2
仕様書枠
 70
     0
 62
   230
  6
CONTINUOUS
370
    -3
390
173D0
  0
LAYER
  5
11729
330
7467
100
AcDbSymbolTableRecord
100
AcDbLayerTableRecord
  2
Ｇ．Ｌ
 70
     0
 62
    30
  6
CONTINUOUS
370
    -3
390
173D0
  0
LAYER
  5
1173F
330
7467
100
AcDbSymbolTableRecord
100
AcDbLayerTableRecord
  2
細線
 70
     0
 62
     5
  6
CONTINUOUS
370
    -3
390
173D0
  0
LAYER
  5
12CC4
330
7467
100
AcDbSymbolTableRecord
100
AcDbLayerTableRecord
  2
想像線
 70
     0
 62
     6
  6
PHANTOM
370
    -3
390
173D0
  0
LAYER
  5
142E2
330
7467
100
AcDbSymbolTableRecord
100
AcDbLayerTableRecord
  2
破線
 70
     0
 62
     2
  6
HIDDEN
370
    -3
390
173D0
  0
ENDTAB
  0
TABLE
  2
STYLE
  5
7468
330
0
100
AcDbSymbolTable
 70
     7
  0
STYLE
  5
7475
330
7468
100
AcDbSymbolTableRecord
100
AcDbTextStyleTableRecord
  2
STANDARD
 70
     0
 40
0.0
 41
1.0
 50
0.0
 71
     0
 42
4.0
  3
txt
  4
C:\AutoCAD LT\bigfont.shx
  0
STYLE
  5
763C
330
7468
100
AcDbSymbolTableRecord
100
AcDbTextStyleTableRecord
  2
MSMINCHO
 70
     0
 40
0.0
 41
1.0
 50
0.0
 71
     0
 42
1.199999999999999
  3
C:\AutoCAD LT\msminch2.TTF
  4

  0
STYLE
  5
F706
330
7468
100
AcDbSymbolTableRecord
100
AcDbTextStyleTableRecord
  2
STYLE1
 70
     0
 40
0.0
 41
1.0
 50
0.0
 71
     0
 42
4.0
  3
isocp.shx
  4
bigfont.shx
  0
STYLE
  5
103BF
330
7468
100
AcDbSymbolTableRecord
100
AcDbTextStyleTableRecord
  2
STYLE2
 70
     0
 40
0.0
 41
1.0
 50
0.0
 71
     0
 42
100.0
  3
MS PGothic.ttf
  4

1001
ACAD
1000
MS PGothic
1071
    32818
  0
STYLE
  5
10BAA
330
7468
100
AcDbSymbolTableRecord
100
AcDbTextStyleTableRecord
  2
STYLE3
 70
     0
 40
0.0
 41
1.0
 50
0.0
 71
     0
 42
100.0
  3

  4

1001
ACAD
1000
DFPGothic-EB
1071
    32818
  0
STYLE
  5
11A15
330
7468
100
AcDbSymbolTableRecord
100
AcDbTextStyleTableRecord
  2
MSGOTHIC
 70
     0
 40
0.0
 41
1.0
 50
0.0
 71
     0
 42
3.5
  3
msgothi2.ttf
  4

  0
STYLE
  5
13E96
330
7468
100
AcDbSymbolTableRecord
100
AcDbTextStyleTableRecord
  2
MSPゴシック
 70
     0
 40
0.0
 41
1.0
 50
0.0
 71
     0
 42
4.0
  3
MS PGothic.ttf
  4

1001
ACAD
1000
MS PGothic
1071
    32818
  0
ENDTAB
  0
TABLE
  2
VIEW
  5
746B
330
0
100
AcDbSymbolTable
 70
     0
  0
ENDTAB
  0
TABLE
  2
UCS
  5
746C
330
0
100
AcDbSymbolTable
 70
     0
  0
ENDTAB
  0
TABLE
  2
APPID
  5
746E
330
0
100
AcDbSymbolTable
 70
     6
  0
APPID
  5
7476
330
746E
100
AcDbSymbolTableRecord
100
AcDbRegAppTableRecord
  2
ACAD
 70
     0
  0
APPID
  5
DEA9
330
746E
100
AcDbSymbolTableRecord
100
AcDbRegAppTableRecord
  2
CONTENTBLOCKICON
 70
     0
  0
APPID
  5
DEAA
330
746E
100
AcDbSymbolTableRecord
100
AcDbRegAppTableRecord
  2
CONTENTBLOCKDESCRIPTION
 70
     0
  0
APPID
  5
E71D
330
746E
100
AcDbSymbolTableRecord
100
AcDbRegAppTableRecord
  2
CONTENTTABDATA
 70
     0
  0
APPID
  5
E71E
330
746E
100
AcDbSymbolTableRecord
100
AcDbRegAppTableRecord
  2
CONTENTCURRENTTAB
 70
     0
  0
APPID
  5
F3BA
330
746E
100
AcDbSymbolTableRecord
100
AcDbRegAppTableRecord
  2
DRAWINGVARIABLESXDATA
 70
     0
  0
ENDTAB
  0
TABLE
  2
DIMSTYLE
  5
746F
330
0
100
AcDbSymbolTable
 70
     6
100
AcDbDimStyleTable
 71
     1
340
F71F
  0
DIMSTYLE
105
7484
330
746F
100
AcDbSymbolTableRecord
100
AcDbDimStyleTableRecord
  2
JIS
 70
     0
 41
2.5
 42
1.0
 43
7.0
 44
1.0
 73
     0
 74
     0
 77
     1
 78
     8
140
2.5
141
0.0
143
0.0394
147
0.0
172
     1
174
     1
175
     1
340
7475
  0
DIMSTYLE
105
F236
330
746F
100
AcDbSymbolTableRecord
100
AcDbDimStyleTableRecord
  2
INABA_S40
 70
     0
 40
40.0
 41
2.5
 42
0.5
 43
7.0
 44
1.5
 73
     0
 74
     0
 77
     3
 78
     8
140
3.0
141
0.0
143
0.0394
147
1.0
172
     1
173
     1
174
     1
175
     1
178
     7
289
     0
340
7475
341
DEAC
343
DEAC
344
DEAC
  0
DIMSTYLE
105
F71F
102
{ACAD_REACTORS
330
20DE1
330
20DFB
330
22741
330
2275B
330
239D9
330
239A3
330
239A2
330
239A1
330
2397E
330
2397D
330
2397B
330
23978
330
2399F
330
2398A
330
23984
330
23983
330
2398C
330
23986
330
23980
330
239DB
330
2411D
330
2417D
330
24180
330
24187
330
2418F
330
24190
102
}
330
746F
100
AcDbSymbolTableRecord
100
AcDbDimStyleTableRecord
  2
INABA_S40G
 70
     0
 40
40.0
 41
2.5
 42
0.5
 43
7.0
 44
1.5
 73
     0
 74
     0
 77
     3
 78
     8
140
3.0
141
0.0
143
0.0394
147
1.0
172
     1
173
     1
174
     1
178
     7
271
     1
340
F706
341
F770
343
F770
344
F770
  0
DIMSTYLE
105
142E3
330
746F
100
AcDbSymbolTableRecord
100
AcDbDimStyleTableRecord
  2
INABA_S1
 70
     0
 40
0.0
 41
2.5
 42
0.5
 43
7.0
 44
1.5
 73
     0
 74
     0
 77
     3
 78
     8
140
3.0
141
0.0
143
0.0394
146
0.5
147
0.5
172
     1
173
     1
176
   256
177
   256
178
     7
271
     2
272
     2
284
     8
288
     1
340
7475
341
DEAC
343
DEAC
344
DEAC
  0
DIMSTYLE
105
14463
330
746F
100
AcDbSymbolTableRecord
100
AcDbDimStyleTableRecord
  2
INABA_S30G
 70
     0
 40
30.0
 41
2.5
 42
0.5
 43
7.0
 44
1.5
 73
     0
 74
     0
 77
     3
 78
     8
140
3.0
141
0.0
143
0.0394
147
1.0
172
     1
173
     1
174
     1
175
     1
178
     7
271
     1
340
F706
341
F770
343
F770
344
F770
  0
DIMSTYLE
105
1758E
330
746F
100
AcDbSymbolTableRecord
100
AcDbDimStyleTableRecord
  2
INABA_S50G
 70
     0
 41
125.0
 42
25.0
 43
7.0
 44
75.0
 73
     0
 74
     0
 77
     3
 78
     8
140
150.0
141
0.0
143
0.0394
147
25.0
172
     1
173
     1
174
     1
175
     1
178
     7
271
     1
340
F706
341
F770
343
F770
344
F770
  0
ENDTAB
  0
TABLE
  2
BLOCK_RECORD
  5
7466
330
0
100
AcDbSymbolTable
 70
    55
  0
BLOCK_RECORD
  5
747D
330
7466
100
AcDbSymbolTableRecord
100
AcDbBlockTableRecord
  2
*MODEL_SPACE
340
173D5
  0
BLOCK_RECORD
  5
747A
330
7466
100
AcDbSymbolTableRecord
100
AcDbBlockTableRecord
  2
*PAPER_SPACE
340
173D6
  0
BLOCK_RECORD
  5
DEAC
330
7466
100
AcDbSymbolTableRecord
100
AcDbBlockTableRecord
  2
_OPEN
340
0
  0
BLOCK_RECORD
  5
F770
330
7466
100
AcDbSymbolTableRecord
100
AcDbBlockTableRecord
  2
_DOTSMALL
340
0
102
{BLKREFS
331
18C65
331
18C66
331
18C59
331
18C5A
331
18C4D
331
18C4E
331
18C41
331
18C42
331
18C35
331
18C36
331
18C29
331
18C2A
331
18C1D
331
18C1E
331
18C0F
331
18C10
331
18C03
331
18C04
331
18BF5
331
18BF6
331
18BE7
331
18BE8
331
18BD9
331
18BDA
331
18BCD
331
18BCE
331
21316
331
21317
331
21321
331
21322
331
2132A
331
2132B
331
23D9A
331
23D9B
331
23DA4
331
23DA5
331
23DAE
331
23DAF
331
23DB7
331
23DB8
331
23DC1
331
23DC2
331
23DCA
331
23DCB
331
23DDE
331
23DDF
331
23DE7
331
23DE8
331
23E03
331
23E04
331
23E0C
331
23E0D
331
23E15
331
23E16
331
23E1F
331
23E20
331
23E2A
331
23E2B
331
23E35
331
23E36
331
23E40
331
23E41
331
23E4B
331
23E4C
331
23E6F
331
23E70
331
23E78
331
23E79
331
23EB3
331
23EB4
331
23EBD
331
23EBE
331
23EDC
331
23EDD
331
23F25
331
23F26
331
23F19
331
23F1A
331
23F0D
331
23F0E
331
23F01
331
23F02
331
23EF5
331
23EF6
331
23EE7
331
23EE8
331
241E7
331
241E8
331
241F0
331
241F1
331
241F9
331
241FA
331
24202
331
24203
331
2420D
331
2420E
331
24216
331
24217
102
}
  0
BLOCK_RECORD
  5
164B4
330
7466
100
AcDbSymbolTableRecord
100
AcDbBlockTableRecord
  2
_DOT
340
0
102
{BLKREFS
331
18C73
331
18C74
102
}
  0
BLOCK_RECORD
  5
18BC8
330
7466
100
AcDbSymbolTableRecord
100
AcDbBlockTableRecord
  2
*D3
340
0
  0
BLOCK_RECORD
  5
18BD4
330
7466
100
AcDbSymbolTableRecord
100
AcDbBlockTableRecord
  2
*D4
340
0
  0
BLOCK_RECORD
  5
18BE0
330
7466
100
AcDbSymbolTableRecord
100
AcDbBlockTableRecord
  2
*D5
340
0
  0
BLOCK_RECORD
  5
18BEE
330
7466
100
AcDbSymbolTableRecord
100
AcDbBlockTableRecord
  2
*D6
340
0
  0
BLOCK_RECORD
  5
18BFC
330
7466
100
AcDbSymbolTableRecord
100
AcDbBlockTableRecord
  2
*D7
340
0
  0
BLOCK_RECORD
  5
18C0A
330
7466
100
AcDbSymbolTableRecord
100
AcDbBlockTableRecord
  2
*D8
340
0
  0
BLOCK_RECORD
  5
18C16
330
7466
100
AcDbSymbolTableRecord
100
AcDbBlockTableRecord
  2
*D9
340
0
  0
BLOCK_RECORD
  5
18C24
330
7466
100
AcDbSymbolTableRecord
100
AcDbBlockTableRecord
  2
*D10
340
0
  0
BLOCK_RECORD
  5
18C30
330
7466
100
AcDbSymbolTableRecord
100
AcDbBlockTableRecord
  2
*D11
340
0
  0
BLOCK_RECORD
  5
18C3C
330
7466
100
AcDbSymbolTableRecord
100
AcDbBlockTableRecord
  2
*D12
340
0
  0
BLOCK_RECORD
  5
18C48
330
7466
100
AcDbSymbolTableRecord
100
AcDbBlockTableRecord
  2
*D13
340
0
  0
BLOCK_RECORD
  5
18C54
330
7466
100
AcDbSymbolTableRecord
100
AcDbBlockTableRecord
  2
*D14
340
0
  0
BLOCK_RECORD
  5
18C60
330
7466
100
AcDbSymbolTableRecord
100
AcDbBlockTableRecord
  2
*D15
340
0
  0
BLOCK_RECORD
  5
18C6C
330
7466
100
AcDbSymbolTableRecord
100
AcDbBlockTableRecord
  2
*D16
340
0
  0
BLOCK_RECORD
  5
18C7A
330
7466
100
AcDbSymbolTableRecord
100
AcDbBlockTableRecord
  2
A$C3B1A506B
340
0
  0
BLOCK_RECORD
  5
1C4CA
330
7466
100
AcDbSymbolTableRecord
100
AcDbBlockTableRecord
  2
_NONE
340
0
  0
BLOCK_RECORD
  5
20DE2
330
7466
100
AcDbSymbolTableRecord
100
AcDbBlockTableRecord
  2
*D19
340
0
  0
BLOCK_RECORD
  5
20DFC
330
7466
100
AcDbSymbolTableRecord
100
AcDbBlockTableRecord
  2
*D20
340
0
  0
BLOCK_RECORD
  5
22742
330
7466
100
AcDbSymbolTableRecord
100
AcDbBlockTableRecord
  2
*D25
340
0
  0
BLOCK_RECORD
  5
2275C
330
7466
100
AcDbSymbolTableRecord
100
AcDbBlockTableRecord
  2
*D26
340
0
  0
BLOCK_RECORD
  5
239F3
330
7466
100
AcDbSymbolTableRecord
100
AcDbBlockTableRecord
  2
*D27
340
0
  0
BLOCK_RECORD
  5
23A00
330
7466
100
AcDbSymbolTableRecord
100
AcDbBlockTableRecord
  2
*D28
340
0
  0
BLOCK_RECORD
  5
23A0C
330
7466
100
AcDbSymbolTableRecord
100
AcDbBlockTableRecord
  2
*D29
340
0
  0
BLOCK_RECORD
  5
23A17
330
7466
100
AcDbSymbolTableRecord
100
AcDbBlockTableRecord
  2
*D30
340
0
  0
BLOCK_RECORD
  5
23A23
330
7466
100
AcDbSymbolTableRecord
100
AcDbBlockTableRecord
  2
*D31
340
0
  0
BLOCK_RECORD
  5
23A30
330
7466
100
AcDbSymbolTableRecord
100
AcDbBlockTableRecord
  2
*D32
340
0
  0
BLOCK_RECORD
  5
23A3C
330
7466
100
AcDbSymbolTableRecord
100
AcDbBlockTableRecord
  2
*D33
340
0
  0
BLOCK_RECORD
  5
23A48
330
7466
100
AcDbSymbolTableRecord
100
AcDbBlockTableRecord
  2
*D34
340
0
  0
BLOCK_RECORD
  5
23A61
330
7466
100
AcDbSymbolTableRecord
100
AcDbBlockTableRecord
  2
*D35
340
0
  0
BLOCK_RECORD
  5
23A6E
330
7466
100
AcDbSymbolTableRecord
100
AcDbBlockTableRecord
  2
*D36
340
0
  0
BLOCK_RECORD
  5
23A84
330
7466
100
AcDbSymbolTableRecord
100
AcDbBlockTableRecord
  2
*D37
340
0
  0
BLOCK_RECORD
  5
23A9E
330
7466
100
AcDbSymbolTableRecord
100
AcDbBlockTableRecord
  2
*D38
340
0
  0
BLOCK_RECORD
  5
23AAA
330
7466
100
AcDbSymbolTableRecord
100
AcDbBlockTableRecord
  2
*D39
340
0
  0
BLOCK_RECORD
  5
23AB7
330
7466
100
AcDbSymbolTableRecord
100
AcDbBlockTableRecord
  2
*D40
340
0
  0
BLOCK_RECORD
  5
23AC4
330
7466
100
AcDbSymbolTableRecord
100
AcDbBlockTableRecord
  2
*D41
340
0
  0
BLOCK_RECORD
  5
23ADE
330
7466
100
AcDbSymbolTableRecord
100
AcDbBlockTableRecord
  2
*D42
340
0
  0
BLOCK_RECORD
  5
2419A
330
7466
100
AcDbSymbolTableRecord
100
AcDbBlockTableRecord
  2
*D49
340
0
  0
BLOCK_RECORD
  5
241A6
330
7466
100
AcDbSymbolTableRecord
100
AcDbBlockTableRecord
  2
*D50
340
0
  0
BLOCK_RECORD
  5
241B2
330
7466
100
AcDbSymbolTableRecord
100
AcDbBlockTableRecord
  2
*D51
340
0
  0
BLOCK_RECORD
  5
241BE
330
7466
100
AcDbSymbolTableRecord
100
AcDbBlockTableRecord
  2
*D52
340
0
  0
BLOCK_RECORD
  5
241CA
330
7466
100
AcDbSymbolTableRecord
100
AcDbBlockTableRecord
  2
*D53
340
0
  0
BLOCK_RECORD
  5
241D8
330
7466
100
AcDbSymbolTableRecord
100
AcDbBlockTableRecord
  2
*D54
340
0
  0
ENDTAB
  0
ENDSEC
  0
SECTION
  2
BLOCKS
  0
BLOCK
  5
7489
330
747D
100
AcDbEntity
  8
0
100
AcDbBlockBegin
  2
*MODEL_SPACE
 70
     0
 10
0.0
 20
0.0
 30
0.0
  3
*MODEL_SPACE
  1

  0
ENDBLK
  5
748A
330
747D
100
AcDbEntity
  8
0
100
AcDbBlockEnd
  0
BLOCK
  5
7487
330
747A
100
AcDbEntity
 67
     1
  8
0
100
AcDbBlockBegin
  2
*PAPER_SPACE
 70
     0
 10
0.0
 20
0.0
 30
0.0
  3
*PAPER_SPACE
  1

  0
ENDBLK
  5
7488
330
747A
100
AcDbEntity
 67
     1
  8
0
100
AcDbBlockEnd
  0
BLOCK
  5
DEAD
330
DEAC
100
AcDbEntity
  8
0
100
AcDbBlockBegin
  2
_OPEN
 70
     0
 10
0.0
 20
0.0
 30
0.0
  3
_OPEN
  1

  0
LINE
  5
DEAE
330
DEAC
100
AcDbEntity
  8
0
  6
ByBlock
 62
     0
100
AcDbLine
 10
-1.0
 20
0.1666666666666666
 30
0.0
 11
0.0
 21
0.0
 31
0.0
  0
LINE
  5
DEAF
330
DEAC
100
AcDbEntity
  8
0
  6
ByBlock
 62
     0
100
AcDbLine
 10
0.0
 20
0.0
 30
0.0
 11
-1.0
 21
-0.1666666666666666
 31
0.0
  0
LINE
  5
DEB0
330
DEAC
100
AcDbEntity
  8
0
  6
ByBlock
 62
     0
100
AcDbLine
 10
0.0
 20
0.0
 30
0.0
 11
-1.0
 21
0.0
 31
0.0
  0
ENDBLK
  5
DEB1
330
DEAC
100
AcDbEntity
  8
0
100
AcDbBlockEnd
  0
BLOCK
  5
F771
330
F770
100
AcDbEntity
  8
0
 48
50.0
100
AcDbBlockBegin
  2
_DOTSMALL
 70
     0
 10
0.0
 20
0.0
 30
0.0
  3
_DOTSMALL
  1

  0
LWPOLYLINE
  5
F772
330
F770
100
AcDbEntity
  8
0
  6
ByBlock
 62
     0
 48
50.0
100
AcDbPolyline
 90
        2
 70
     1
 43
0.5
 10
-0.0625
 20
0.0
 42
1.0
 10
0.0625
 20
0.0
 42
1.0
  0
ENDBLK
  5
F776
330
F770
100
AcDbEntity
  8
0
 48
50.0
100
AcDbBlockEnd
  0
BLOCK
  5
164BA
330
164B4
100
AcDbEntity
  8
0
 48
50.0
100
AcDbBlockBegin
  2
_DOT
 70
     0
 10
0.0
 20
0.0
 30
0.0
  3
_DOT
  1

  0
LWPOLYLINE
  5
164B5
330
164B4
100
AcDbEntity
  8
0
  6
ByBlock
 62
     0
 48
50.0
100
AcDbPolyline
 90
        2
 70
     1
 43
0.5
 10
-0.25
 20
0.0
 42
1.0
 10
0.25
 20
0.0
 42
1.0
  0
LINE
  5
164B9
330
164B4
100
AcDbEntity
  8
0
  6
ByBlock
 62
     0
 48
50.0
100
AcDbLine
 10
-0.5
 20
0.0
 30
0.0
 11
-1.0
 21
0.0
 31
0.0
  0
ENDBLK
  5
164BB
330
164B4
100
AcDbEntity
  8
0
 48
50.0
100
AcDbBlockEnd
  0
BLOCK
  5
18BC9
330
18BC8
100
AcDbEntity
  8
0
 48
50.0
100
AcDbBlockBegin
  2
*D3
 70
     1
 10
0.0
 20
0.0
 30
0.0
  3
*D3
  1

  0
LINE
  5
18BCA
330
18BC8
100
AcDbEntity
  8
寸法
 62
     0
 48
50.0
370
    -2
100
AcDbLine
 10
7649.896575106999
 20
9636.123139034717
 30
0.0
 11
8702.429862581047
 21
9636.123139034717
 31
0.0
  0
LINE
  5
18BCB
330
18BC8
100
AcDbEntity
  8
寸法
 62
     0
 48
50.0
370
    -2
100
AcDbLine
 10
7649.896575106973
 20
7846.123139034709
 30
0.0
 11
8702.429862581047
 21
7846.123139034709
 31
0.0
  0
LINE
  5
18BCC
330
18BC8
100
AcDbEntity
  8
寸法
 62
     0
 48
50.0
370
    -2
100
AcDbLine
 10
8642.429862581046
 20
9636.123139034717
 30
0.0
 11
8642.429862581046
 21
7846.123139034709
 31
0.0
  0
INSERT
  5
18BCD
330
18BC8
100
AcDbEntity
  8
寸法
 62
     0
 48
50.0
370
    -2
100
AcDbBlockReference
  2
_DOTSMALL
 10
8642.429862581046
 20
9636.123139034717
 30
0.0
 41
100.0
 42
100.0
 43
100.0
 50
90.0
  0
INSERT
  5
18BCE
330
18BC8
100
AcDbEntity
  8
寸法
 62
     0
 48
50.0
370
    -2
100
AcDbBlockReference
  2
_DOTSMALL
 10
8642.429862581046
 20
7846.123139034709
 30
0.0
 41
100.0
 42
100.0
 43
100.0
 50
270.0
  0
MTEXT
  5
18BCF
330
18BC8
100
AcDbEntity
  8
寸法
 62
     7
 48
50.0
100
AcDbMText
 10
8542.429862581045
 20
8741.123139034712
 30
0.0
 40
120.0
 41
0.0
 71
     5
 72
     1
  1
\A1;1790
  7
STYLE1
 11
0.0000000000000001
 21
1.0
 31
0.0
 73
     1
 44
1.0
1001
ACAD
1000
MTEXTBEGIN
1070
    73
1070
     1
1070
    44
1040
1.0
1070
    74
1070
     0
1000
MTEXTEND
  0
POINT
  5
18BD0
330
18BC8
100
AcDbEntity
  8
DEFPOINTS
 62
     0
 48
50.0
100
AcDbPoint
 10
7629.896575106998
 20
9636.123139034717
 30
0.0
  0
POINT
  5
18BD1
330
18BC8
100
AcDbEntity
  8
DEFPOINTS
 62
     0
 48
50.0
100
AcDbPoint
 10
7629.896575106974
 20
7846.123139034709
 30
0.0
  0
POINT
  5
18BD2
330
18BC8
100
AcDbEntity
  8
DEFPOINTS
 62
     0
 48
50.0
100
AcDbPoint
 10
8642.429862581046
 20
7846.123139034709
 30
0.0
  0
ENDBLK
  5
18BD3
330
18BC8
100
AcDbEntity
  8
0
 48
50.0
100
AcDbBlockEnd
  0
BLOCK
  5
18BD5
330
18BD4
100
AcDbEntity
  8
0
 48
50.0
100
AcDbBlockBegin
  2
*D4
 70
     1
 10
0.0
 20
0.0
 30
0.0
  3
*D4
  1

  0
LINE
  5
18BD6
330
18BD4
100
AcDbEntity
  8
寸法
 62
     0
 48
50.0
370
    -2
100
AcDbLine
 10
4214.896575106998
 20
9656.123139034622
 30
0.0
 11
4214.896575106998
 21
10211.93135865972
 31
0.0
  0
LINE
  5
18BD7
330
18BD4
100
AcDbEntity
  8
寸法
 62
     0
 48
50.0
370
    -2
100
AcDbLine
 10
7574.896575106999
 20
9656.123139034718
 30
0.0
 11
7574.896575106999
 21
10211.93135865972
 31
0.0
  0
LINE
  5
18BD8
330
18BD4
100
AcDbEntity
  8
寸法
 62
     0
 48
50.0
370
    -2
100
AcDbLine
 10
4214.896575106998
 20
10151.93135865972
 30
0.0
 11
7574.896575106999
 21
10151.93135865972
 31
0.0
  0
INSERT
  5
18BD9
330
18BD4
100
AcDbEntity
  8
寸法
 62
     0
 48
50.0
370
    -2
100
AcDbBlockReference
  2
_DOTSMALL
 10
4214.896575106998
 20
10151.93135865972
 30
0.0
 41
100.0
 42
100.0
 43
100.0
 50
180.0
  0
INSERT
  5
18BDA
330
18BD4
100
AcDbEntity
  8
寸法
 62
     0
 48
50.0
370
    -2
100
AcDbBlockReference
  2
_DOTSMALL
 10
7574.896575106999
 20
10151.93135865972
 30
0.0
 41
100.0
 42
100.0
 43
100.0
  0
MTEXT
  5
18BDB
330
18BD4
100
AcDbEntity
  8
寸法
 62
     7
 48
50.0
100
AcDbMText
 10
5894.896575106997
 20
10251.94316968334
 30
0.0
 40
120.0
 41
0.0
 71
     5
 72
     1
  1
\A1;8X420=3360
  7
STYLE1
 73
     1
 44
1.0
1001
ACAD
1000
MTEXTBEGIN
1070
    73
1070
     1
1070
    44
1040
1.0
1070
    74
1070
     0
1000
MTEXTEND
  0
POINT
  5
18BDC
330
18BD4
100
AcDbEntity
  8
DEFPOINTS
 62
     0
 48
50.0
100
AcDbPoint
 10
4214.896575106998
 20
9636.123139034623
 30
0.0
  0
POINT
  5
18BDD
330
18BD4
100
AcDbEntity
  8
DEFPOINTS
 62
     0
 48
50.0
100
AcDbPoint
 10
7574.896575106999
 20
9636.123139034717
 30
0.0
  0
POINT
  5
18BDE
330
18BD4
100
AcDbEntity
  8
DEFPOINTS
 62
     0
 48
50.0
100
AcDbPoint
 10
7574.896575106999
 20
10151.93135865972
 30
0.0
  0
ENDBLK
  5
18BDF
330
18BD4
100
AcDbEntity
  8
0
 48
50.0
100
AcDbBlockEnd
  0
BLOCK
  5
18BE1
330
18BE0
100
AcDbEntity
  8
0
 48
50.0
100
AcDbBlockBegin
  2
*D5
 70
     1
 10
0.0
 20
0.0
 30
0.0
  3
*D5
  1

  0
LINE
  5
18BE2
330
18BE0
100
AcDbEntity
  8
寸法
 62
     0
 48
50.0
370
    -2
100
AcDbLine
 10
7574.896575106999
 20
9656.123139034718
 30
0.0
 11
7574.896575106999
 21
10211.9313586597
 31
0.0
  0
LINE
  5
18BE3
330
18BE0
100
AcDbEntity
  8
寸法
 62
     0
 48
50.0
370
    -2
100
AcDbLine
 10
7629.896575106998
 20
9656.123139034718
 30
0.0
 11
7629.896575106998
 21
10211.9313586597
 31
0.0
  0
LINE
  5
18BE4
330
18BE0
100
AcDbEntity
  8
寸法
 62
     0
 48
50.0
370
    -2
100
AcDbLine
 10
7574.896575106999
 20
10151.9313586597
 30
0.0
 11
7474.896575106999
 21
10151.9313586597
 31
0.0
  0
LINE
  5
18BE5
330
18BE0
100
AcDbEntity
  8
寸法
 62
     0
 48
50.0
370
    -2
100
AcDbLine
 10
7629.896575106998
 20
10151.9313586597
 30
0.0
 11
8046.867137855477
 21
10151.9313586597
 31
0.0
  0
LINE
  5
18BE6
330
18BE0
100
AcDbEntity
  8
寸法
 62
     0
 48
50.0
370
    -2
100
AcDbLine
 10
7574.896575106999
 20
10151.9313586597
 30
0.0
 11
7629.896575106998
 21
10151.9313586597
 31
0.0
  0
INSERT
  5
18BE7
330
18BE0
100
AcDbEntity
  8
寸法
 62
     0
 48
50.0
370
    -2
100
AcDbBlockReference
  2
_DOTSMALL
 10
7574.896575106999
 20
10151.9313586597
 30
0.0
 41
100.0
 42
100.0
 43
100.0
  0
INSERT
  5
18BE8
330
18BE0
100
AcDbEntity
  8
寸法
 62
     0
 48
50.0
370
    -2
100
AcDbBlockReference
  2
_DOTSMALL
 10
7629.896575106998
 20
10151.9313586597
 30
0.0
 41
100.0
 42
100.0
 43
100.0
 50
180.0
  0
MTEXT
  5
18BE9
330
18BE0
100
AcDbEntity
  8
寸法
 62
     7
 48
50.0
100
AcDbMText
 10
7938.381856481237
 20
10251.9313586597
 30
0.0
 40
120.0
 41
0.0
 71
     5
 72
     1
  1
\A1;55
  7
STYLE1
 73
     1
 44
1.0
1001
ACAD
1000
MTEXTBEGIN
1070
    73
1070
     1
1070
    44
1040
1.0
1070
    74
1070
     0
1000
MTEXTEND
  0
POINT
  5
18BEA
330
18BE0
100
AcDbEntity
  8
DEFPOINTS
 62
     0
 48
50.0
100
AcDbPoint
 10
7574.896575106999
 20
9636.123139034717
 30
0.0
  0
POINT
  5
18BEB
330
18BE0
100
AcDbEntity
  8
DEFPOINTS
 62
     0
 48
50.0
100
AcDbPoint
 10
7629.896575106998
 20
9636.123139034717
 30
0.0
  0
POINT
  5
18BEC
330
18BE0
100
AcDbEntity
  8
DEFPOINTS
 62
     0
 48
50.0
100
AcDbPoint
 10
7629.896575106998
 20
10151.9313586597
 30
0.0
  0
ENDBLK
  5
18BED
330
18BE0
100
AcDbEntity
  8
0
 48
50.0
100
AcDbBlockEnd
  0
BLOCK
  5
18BEF
330
18BEE
100
AcDbEntity
  8
0
 48
50.0
100
AcDbBlockBegin
  2
*D6
 70
     1
 10
0.0
 20
0.0
 30
0.0
  3
*D6
  1

  0
LINE
  5
18BF0
330
18BEE
100
AcDbEntity
  8
寸法
 62
     0
 48
50.0
370
    -2
100
AcDbLine
 10
7649.896575106999
 20
9636.123139034717
 30
0.0
 11
8337.32292084141
 21
9636.123139034717
 31
0.0
  0
LINE
  5
18BF1
330
18BEE
100
AcDbEntity
  8
寸法
 62
     0
 48
50.0
370
    -2
100
AcDbLine
 10
7649.896575106999
 20
9581.123139034721
 30
0.0
 11
8337.32292084141
 21
9581.123139034721
 31
0.0
  0
LINE
  5
18BF2
330
18BEE
100
AcDbEntity
  8
寸法
 62
     0
 48
50.0
370
    -2
100
AcDbLine
 10
8277.322920841411
 20
9581.123139034721
 30
0.0
 11
8277.322920841411
 21
9481.123139034719
 31
0.0
  0
LINE
  5
18BF3
330
18BEE
100
AcDbEntity
  8
寸法
 62
     0
 48
50.0
370
    -2
100
AcDbLine
 10
8277.322920841411
 20
9636.123139034717
 30
0.0
 11
8277.322920841411
 21
10053.09370178319
 31
0.0
  0
LINE
  5
18BF4
330
18BEE
100
AcDbEntity
  8
寸法
 62
     0
 48
50.0
370
    -2
100
AcDbLine
 10
8277.322920841411
 20
9581.123139034721
 30
0.0
 11
8277.322920841411
 21
9636.123139034717
 31
0.0
  0
INSERT
  5
18BF5
330
18BEE
100
AcDbEntity
  8
寸法
 62
     0
 48
50.0
370
    -2
100
AcDbBlockReference
  2
_DOTSMALL
 10
8277.322920841411
 20
9581.123139034721
 30
0.0
 41
100.0
 42
100.0
 43
100.0
 50
90.0
  0
INSERT
  5
18BF6
330
18BEE
100
AcDbEntity
  8
寸法
 62
     0
 48
50.0
370
    -2
100
AcDbBlockReference
  2
_DOTSMALL
 10
8277.322920841411
 20
9636.123139034717
 30
0.0
 41
100.0
 42
100.0
 43
100.0
 50
270.0
  0
MTEXT
  5
18BF7
330
18BEE
100
AcDbEntity
  8
寸法
 62
     7
 48
50.0
100
AcDbMText
 10
8177.32292084141
 20
9944.608420408957
 30
0.0
 40
120.0
 41
0.0
 71
     5
 72
     1
  1
\A1;55
  7
STYLE1
 11
0.0000000000000001
 21
1.0
 31
0.0
 73
     1
 44
1.0
1001
ACAD
1000
MTEXTBEGIN
1070
    73
1070
     1
1070
    44
1040
1.0
1070
    74
1070
     0
1000
MTEXTEND
  0
POINT
  5
18BF8
330
18BEE
100
AcDbEntity
  8
DEFPOINTS
 62
     0
 48
50.0
100
AcDbPoint
 10
7629.896575106998
 20
9636.123139034717
 30
0.0
  0
POINT
  5
18BF9
330
18BEE
100
AcDbEntity
  8
DEFPOINTS
 62
     0
 48
50.0
100
AcDbPoint
 10
7629.896575106998
 20
9581.123139034721
 30
0.0
  0
POINT
  5
18BFA
330
18BEE
100
AcDbEntity
  8
DEFPOINTS
 62
     0
 48
50.0
100
AcDbPoint
 10
8277.322920841411
 20
9581.123139034721
 30
0.0
  0
ENDBLK
  5
18BFB
330
18BEE
100
AcDbEntity
  8
0
 48
50.0
100
AcDbBlockEnd
  0
BLOCK
  5
18BFD
330
18BFC
100
AcDbEntity
  8
0
 48
50.0
100
AcDbBlockBegin
  2
*D7
 70
     1
 10
0.0
 20
0.0
 30
0.0
  3
*D7
  1

  0
LINE
  5
18BFE
330
18BFC
100
AcDbEntity
  8
寸法
 62
     0
 48
50.0
370
    -2
100
AcDbLine
 10
4159.896575106963
 20
9656.123139034622
 30
0.0
 11
4159.896575106963
 21
10211.9313586596
 31
0.0
  0
LINE
  5
18BFF
330
18BFC
100
AcDbEntity
  8
寸法
 62
     0
 48
50.0
370
    -2
100
AcDbLine
 10
4214.896575106998
 20
9656.123139034622
 30
0.0
 11
4214.896575106998
 21
10211.9313586596
 31
0.0
  0
LINE
  5
18C00
330
18BFC
100
AcDbEntity
  8
寸法
 62
     0
 48
50.0
370
    -2
100
AcDbLine
 10
4214.896575106998
 20
10151.9313586596
 30
0.0
 11
4314.896575106998
 21
10151.9313586596
 31
0.0
  0
LINE
  5
18C01
330
18BFC
100
AcDbEntity
  8
寸法
 62
     0
 48
50.0
370
    -2
100
AcDbLine
 10
4159.896575106963
 20
10151.9313586596
 30
0.0
 11
3742.926012358486
 21
10151.9313586596
 31
0.0
  0
LINE
  5
18C02
330
18BFC
100
AcDbEntity
  8
寸法
 62
     0
 48
50.0
370
    -2
100
AcDbLine
 10
4214.896575106998
 20
10151.9313586596
 30
0.0
 11
4159.896575106963
 21
10151.9313586596
 31
0.0
  0
INSERT
  5
18C03
330
18BFC
100
AcDbEntity
  8
寸法
 62
     0
 48
50.0
370
    -2
100
AcDbBlockReference
  2
_DOTSMALL
 10
4214.896575106998
 20
10151.9313586596
 30
0.0
 41
100.0
 42
100.0
 43
100.0
 50
180.0
  0
INSERT
  5
18C04
330
18BFC
100
AcDbEntity
  8
寸法
 62
     0
 48
50.0
370
    -2
100
AcDbBlockReference
  2
_DOTSMALL
 10
4159.896575106963
 20
10151.9313586596
 30
0.0
 41
100.0
 42
100.0
 43
100.0
  0
MTEXT
  5
18C05
330
18BFC
100
AcDbEntity
  8
寸法
 62
     7
 48
50.0
100
AcDbMText
 10
3851.411293732725
 20
10251.9313586596
 30
0.0
 40
120.0
 41
0.0
 71
     5
 72
     1
  1
\A1;55
  7
STYLE1
 73
     1
 44
1.0
1001
ACAD
1000
MTEXTBEGIN
1070
    73
1070
     1
1070
    44
1040
1.0
1070
    74
1070
     0
1000
MTEXTEND
  0
POINT
  5
18C06
330
18BFC
100
AcDbEntity
  8
DEFPOINTS
 62
     0
 48
50.0
100
AcDbPoint
 10
4159.896575106963
 20
9636.123139034623
 30
0.0
  0
POINT
  5
18C07
330
18BFC
100
AcDbEntity
  8
DEFPOINTS
 62
     0
 48
50.0
100
AcDbPoint
 10
4214.896575106998
 20
9636.123139034623
 30
0.0
  0
POINT
  5
18C08
330
18BFC
100
AcDbEntity
  8
DEFPOINTS
 62
     0
 48
50.0
100
AcDbPoint
 10
4214.896575106998
 20
10151.9313586596
 30
0.0
  0
ENDBLK
  5
18C09
330
18BFC
100
AcDbEntity
  8
0
 48
50.0
100
AcDbBlockEnd
  0
BLOCK
  5
18C0B
330
18C0A
100
AcDbEntity
  8
0
 48
50.0
100
AcDbBlockBegin
  2
*D8
 70
     1
 10
0.0
 20
0.0
 30
0.0
  3
*D8
  1

  0
LINE
  5
18C0C
330
18C0A
100
AcDbEntity
  8
寸法
 62
     0
 48
50.0
370
    -2
100
AcDbLine
 10
4159.896575106992
 20
7826.123139034546
 30
0.0
 11
4159.896575106992
 21
6804.372203245664
 31
0.0
  0
LINE
  5
18C0D
330
18C0A
100
AcDbEntity
  8
寸法
 62
     0
 48
50.0
370
    -2
100
AcDbLine
 10
7629.896575106974
 20
7826.123139034674
 30
0.0
 11
7629.896575106974
 21
6804.372203245664
 31
0.0
  0
LINE
  5
18C0E
330
18C0A
100
AcDbEntity
  8
寸法
 62
     0
 48
50.0
370
    -2
100
AcDbLine
 10
4159.896575106992
 20
6864.372203245665
 30
0.0
 11
7629.896575106974
 21
6864.372203245665
 31
0.0
  0
INSERT
  5
18C0F
330
18C0A
100
AcDbEntity
  8
寸法
 62
     0
 48
50.0
370
    -2
100
AcDbBlockReference
  2
_DOTSMALL
 10
4159.896575106992
 20
6864.372203245665
 30
0.0
 41
100.0
 42
100.0
 43
100.0
 50
180.0
  0
INSERT
  5
18C10
330
18C0A
100
AcDbEntity
  8
寸法
 62
     0
 48
50.0
370
    -2
100
AcDbBlockReference
  2
_DOTSMALL
 10
7629.896575106974
 20
6864.372203245665
 30
0.0
 41
100.0
 42
100.0
 43
100.0
  0
MTEXT
  5
18C11
330
18C0A
100
AcDbEntity
  8
寸法
 62
     7
 48
50.0
100
AcDbMText
 10
5911.12376113973
 20
6964.372203245665
 30
0.0
 40
120.0
 41
0.0
 71
     5
 72
     1
  1
\A1;3470
  7
STYLE1
 73
     1
 44
1.0
1001
ACAD
1000
MTEXTBEGIN
1070
    73
1070
     1
1070
    44
1040
1.0
1070
    74
1070
     0
1000
MTEXTEND
  0
POINT
  5
18C12
330
18C0A
100
AcDbEntity
  8
DEFPOINTS
 62
     0
 48
50.0
100
AcDbPoint
 10
4159.896575106992
 20
7846.123139034546
 30
0.0
  0
POINT
  5
18C13
330
18C0A
100
AcDbEntity
  8
DEFPOINTS
 62
     0
 48
50.0
100
AcDbPoint
 10
7629.896575106974
 20
7846.123139034673
 30
0.0
  0
POINT
  5
18C14
330
18C0A
100
AcDbEntity
  8
DEFPOINTS
 62
     0
 48
50.0
100
AcDbPoint
 10
7629.896575106974
 20
6864.372203245665
 30
0.0
  0
ENDBLK
  5
18C15
330
18C0A
100
AcDbEntity
  8
0
 48
50.0
100
AcDbBlockEnd
  0
BLOCK
  5
18C17
330
18C16
100
AcDbEntity
  8
0
 48
50.0
100
AcDbBlockBegin
  2
*D9
 70
     1
 10
0.0
 20
0.0
 30
0.0
  3
*D9
  1

  0
LINE
  5
18C18
330
18C16
100
AcDbEntity
  8
寸法
 62
     0
 48
50.0
370
    -2
100
AcDbLine
 10
7649.896575106973
 20
7901.123139034706
 30
0.0
 11
8337.322920841385
 21
7901.123139034706
 31
0.0
  0
LINE
  5
18C19
330
18C16
100
AcDbEntity
  8
寸法
 62
     0
 48
50.0
370
    -2
100
AcDbLine
 10
7649.896575106973
 20
7846.123139034709
 30
0.0
 11
8337.322920841385
 21
7846.123139034709
 31
0.0
  0
LINE
  5
18C1A
330
18C16
100
AcDbEntity
  8
寸法
 62
     0
 48
50.0
370
    -2
100
AcDbLine
 10
8277.322920841385
 20
7901.123139034706
 30
0.0
 11
8277.322920841385
 21
8001.123139034707
 31
0.0
  0
LINE
  5
18C1B
330
18C16
100
AcDbEntity
  8
寸法
 62
     0
 48
50.0
370
    -2
100
AcDbLine
 10
8277.322920841385
 20
7846.123139034709
 30
0.0
 11
8277.322920841385
 21
7429.152576286229
 31
0.0
  0
LINE
  5
18C1C
330
18C16
100
AcDbEntity
  8
寸法
 62
     0
 48
50.0
370
    -2
100
AcDbLine
 10
8277.322920841385
 20
7901.123139034706
 30
0.0
 11
8277.322920841385
 21
7846.123139034709
 31
0.0
  0
INSERT
  5
18C1D
330
18C16
100
AcDbEntity
  8
寸法
 62
     0
 48
50.0
370
    -2
100
AcDbBlockReference
  2
_DOTSMALL
 10
8277.322920841385
 20
7901.123139034706
 30
0.0
 41
100.0
 42
100.0
 43
100.0
 50
270.0
  0
INSERT
  5
18C1E
330
18C16
100
AcDbEntity
  8
寸法
 62
     0
 48
50.0
370
    -2
100
AcDbBlockReference
  2
_DOTSMALL
 10
8277.322920841385
 20
7846.123139034709
 30
0.0
 41
100.0
 42
100.0
 43
100.0
 50
90.0
  0
MTEXT
  5
18C1F
330
18C16
100
AcDbEntity
  8
寸法
 62
     7
 48
50.0
100
AcDbMText
 10
8177.322920841383
 20
7537.637857660469
 30
0.0
 40
120.0
 41
0.0
 71
     5
 72
     1
  1
\A1;55
  7
STYLE1
 11
0.0000000000000001
 21
1.0
 31
0.0
 73
     1
 44
1.0
1001
ACAD
1000
MTEXTBEGIN
1070
    73
1070
     1
1070
    44
1040
1.0
1070
    74
1070
     0
1000
MTEXTEND
  0
POINT
  5
18C20
330
18C16
100
AcDbEntity
  8
DEFPOINTS
 62
     0
 48
50.0
100
AcDbPoint
 10
7629.896575106974
 20
7901.123139034706
 30
0.0
  0
POINT
  5
18C21
330
18C16
100
AcDbEntity
  8
DEFPOINTS
 62
     0
 48
50.0
100
AcDbPoint
 10
7629.896575106974
 20
7846.123139034709
 30
0.0
  0
POINT
  5
18C22
330
18C16
100
AcDbEntity
  8
DEFPOINTS
 62
     0
 48
50.0
100
AcDbPoint
 10
8277.322920841385
 20
7846.123139034709
 30
0.0
  0
ENDBLK
  5
18C23
330
18C16
100
AcDbEntity
  8
0
 48
50.0
100
AcDbBlockEnd
  0
BLOCK
  5
18C25
330
18C24
100
AcDbEntity
  8
0
 48
50.0
100
AcDbBlockBegin
  2
*D10
 70
     1
 10
0.0
 20
0.0
 30
0.0
  3
*D10
  1

  0
LINE
  5
18C26
330
18C24
100
AcDbEntity
  8
寸法
 62
     0
 48
50.0
370
    -2
100
AcDbLine
 10
6533.037591258376
 20
9136.123139034728
 30
0.0
 11
6465.083950562664
 21
8882.516699399049
 31
0.0
  0
LINE
  5
18C27
330
18C24
100
AcDbEntity
  8
寸法
 62
     0
 48
50.0
370
    -2
100
AcDbLine
 10
7596.037591258388
 20
9136.123139034721
 30
0.0
 11
7528.083950562677
 21
8882.516699399049
 31
0.0
  0
LINE
  5
18C28
330
18C24
100
AcDbEntity
  8
寸法
 62
     0
 48
50.0
370
    -2
100
AcDbLine
 10
6481.160902108531
 20
8942.51669939905
 30
0.0
 11
7544.160902108544
 21
8942.51669939905
 31
0.0
  0
INSERT
  5
18C29
330
18C24
100
AcDbEntity
  8
寸法
 62
     0
 48
50.0
370
    -2
100
AcDbBlockReference
  2
_DOTSMALL
 10
6481.160902108531
 20
8942.51669939905
 30
0.0
 41
100.0
 42
100.0
 43
100.0
 50
180.0
  0
INSERT
  5
18C2A
330
18C24
100
AcDbEntity
  8
寸法
 62
     0
 48
50.0
370
    -2
100
AcDbBlockReference
  2
_DOTSMALL
 10
7544.160902108544
 20
8942.51669939905
 30
0.0
 41
100.0
 42
100.0
 43
100.0
  0
MTEXT
  5
18C2B
330
18C24
100
AcDbEntity
  8
寸法
 62
     7
 48
50.0
100
AcDbMText
 10
7061.28653022935
 20
9042.516699399049
 30
0.0
 40
120.0
 41
0.0
 71
     5
 72
     1
  1
\A1;1063
  7
STYLE1
 73
     1
 44
1.0
1001
ACAD
1000
MTEXTBEGIN
1070
    73
1070
     1
1070
    44
1040
1.0
1070
    74
1070
     0
1000
MTEXTEND
  0
POINT
  5
18C2C
330
18C24
100
AcDbEntity
  8
DEFPOINTS
 62
     0
 48
50.0
100
AcDbPoint
 10
6538.396575106998
 20
9156.123139034727
 30
0.0
  0
POINT
  5
18C2D
330
18C24
100
AcDbEntity
  8
DEFPOINTS
 62
     0
 48
50.0
100
AcDbPoint
 10
7601.39657510701
 20
9156.12313903472
 30
0.0
  0
POINT
  5
18C2E
330
18C24
100
AcDbEntity
  8
DEFPOINTS
 62
     0
 48
50.0
100
AcDbPoint
 10
7544.160902108544
 20
8942.51669939905
 30
0.0
  0
ENDBLK
  5
18C2F
330
18C24
100
AcDbEntity
  8
0
 48
50.0
100
AcDbBlockEnd
  0
BLOCK
  5
18C31
330
18C30
100
AcDbEntity
  8
0
 48
50.0
100
AcDbBlockBegin
  2
*D11
 70
     1
 10
0.0
 20
0.0
 30
0.0
  3
*D11
  1

  0
LINE
  5
18C32
330
18C30
100
AcDbEntity
  8
寸法
 62
     0
 48
50.0
370
    -2
100
AcDbLine
 10
7621.396575106999
 20
9600.764155186094
 30
0.0
 11
8016.754300969024
 21
9494.828371819961
 31
0.0
  0
LINE
  5
18C33
330
18C30
100
AcDbEntity
  8
寸法
 62
     0
 48
50.0
370
    -2
100
AcDbLine
 10
7621.396575106999
 20
9150.764155186099
 30
0.0
 11
8016.754300969024
 21
9044.828371819964
 31
0.0
  0
LINE
  5
18C34
330
18C30
100
AcDbEntity
  8
寸法
 62
     0
 48
50.0
370
    -2
100
AcDbLine
 10
7956.754300969024
 20
9510.905323365827
 30
0.0
 11
7956.754300969024
 21
9060.90532336583
 31
0.0
  0
INSERT
  5
18C35
330
18C30
100
AcDbEntity
  8
寸法
 62
     0
 48
50.0
370
    -2
100
AcDbBlockReference
  2
_DOTSMALL
 10
7956.754300969024
 20
9510.905323365827
 30
0.0
 41
100.0
 42
100.0
 43
100.0
 50
90.0
  0
INSERT
  5
18C36
330
18C30
100
AcDbEntity
  8
寸法
 62
     0
 48
50.0
370
    -2
100
AcDbBlockReference
  2
_DOTSMALL
 10
7956.754300969024
 20
9060.90532336583
 30
0.0
 41
100.0
 42
100.0
 43
100.0
 50
270.0
  0
MTEXT
  5
18C37
330
18C30
100
AcDbEntity
  8
寸法
 62
     7
 48
50.0
100
AcDbMText
 10
7856.754300969022
 20
9285.905323365829
 30
0.0
 40
120.0
 41
0.0
 71
     5
 72
     1
  1
\A1;450
  7
STYLE1
 11
0.0000000000000001
 21
1.0
 31
0.0
 73
     1
 44
1.0
1001
ACAD
1000
MTEXTBEGIN
1070
    73
1070
     1
1070
    44
1040
1.0
1070
    74
1070
     0
1000
MTEXTEND
  0
POINT
  5
18C38
330
18C30
100
AcDbEntity
  8
DEFPOINTS
 62
     0
 48
50.0
100
AcDbPoint
 10
7601.396575106999
 20
9606.123139034718
 30
0.0
  0
POINT
  5
18C39
330
18C30
100
AcDbEntity
  8
DEFPOINTS
 62
     0
 48
50.0
100
AcDbPoint
 10
7601.396575106999
 20
9156.12313903472
 30
0.0
  0
POINT
  5
18C3A
330
18C30
100
AcDbEntity
  8
DEFPOINTS
 62
     0
 48
50.0
100
AcDbPoint
 10
7956.754300969024
 20
9060.90532336583
 30
0.0
  0
ENDBLK
  5
18C3B
330
18C30
100
AcDbEntity
  8
0
 48
50.0
100
AcDbBlockEnd
  0
BLOCK
  5
18C3D
330
18C3C
100
AcDbEntity
  8
0
 48
50.0
100
AcDbBlockBegin
  2
*D12
 70
     1
 10
0.0
 20
0.0
 30
0.0
  3
*D12
  1

  0
LINE
  5
18C3E
330
18C3C
100
AcDbEntity
  8
寸法
 62
     0
 48
50.0
370
    -2
100
AcDbLine
 10
7649.896575106999
 20
9581.123139034721
 30
0.0
 11
8337.32292084141
 21
9581.123139034721
 31
0.0
  0
LINE
  5
18C3F
330
18C3C
100
AcDbEntity
  8
寸法
 62
     0
 48
50.0
370
    -2
100
AcDbLine
 10
7649.896575106973
 20
7901.123139034706
 30
0.0
 11
8337.32292084141
 21
7901.123139034706
 31
0.0
  0
LINE
  5
18C40
330
18C3C
100
AcDbEntity
  8
寸法
 62
     0
 48
50.0
370
    -2
100
AcDbLine
 10
8277.322920841411
 20
9581.123139034721
 30
0.0
 11
8277.322920841411
 21
7901.123139034706
 31
0.0
  0
INSERT
  5
18C41
330
18C3C
100
AcDbEntity
  8
寸法
 62
     0
 48
50.0
370
    -2
100
AcDbBlockReference
  2
_DOTSMALL
 10
8277.322920841411
 20
9581.123139034721
 30
0.0
 41
100.0
 42
100.0
 43
100.0
 50
90.0
  0
INSERT
  5
18C42
330
18C3C
100
AcDbEntity
  8
寸法
 62
     0
 48
50.0
370
    -2
100
AcDbBlockReference
  2
_DOTSMALL
 10
8277.322920841411
 20
7901.123139034706
 30
0.0
 41
100.0
 42
100.0
 43
100.0
 50
270.0
  0
MTEXT
  5
18C43
330
18C3C
100
AcDbEntity
  8
寸法
 62
     7
 48
50.0
100
AcDbMText
 10
8177.311109817788
 20
8741.123139034712
 30
0.0
 40
120.0
 41
0.0
 71
     5
 72
     1
  1
\A1;4X420=1680
  7
STYLE1
 11
0.0000000000000001
 21
1.0
 31
0.0
 73
     1
 44
1.0
1001
ACAD
1000
MTEXTBEGIN
1070
    73
1070
     1
1070
    44
1040
1.0
1070
    74
1070
     0
1000
MTEXTEND
  0
POINT
  5
18C44
330
18C3C
100
AcDbEntity
  8
DEFPOINTS
 62
     0
 48
50.0
100
AcDbPoint
 10
7629.896575106998
 20
9581.123139034721
 30
0.0
  0
POINT
  5
18C45
330
18C3C
100
AcDbEntity
  8
DEFPOINTS
 62
     0
 48
50.0
100
AcDbPoint
 10
7629.896575106974
 20
7901.123139034706
 30
0.0
  0
POINT
  5
18C46
330
18C3C
100
AcDbEntity
  8
DEFPOINTS
 62
     0
 48
50.0
100
AcDbPoint
 10
8277.322920841411
 20
7901.123139034706
 30
0.0
  0
ENDBLK
  5
18C47
330
18C3C
100
AcDbEntity
  8
0
 48
50.0
100
AcDbBlockEnd
  0
BLOCK
  5
18C49
330
18C48
100
AcDbEntity
  8
0
 48
50.0
100
AcDbBlockBegin
  2
*D13
 70
     1
 10
0.0
 20
0.0
 30
0.0
  3
*D13
  1

  0
LINE
  5
18C4A
330
18C48
100
AcDbEntity
  8
寸法
 62
     0
 48
50.0
370
    -2
100
AcDbLine
 10
4183.037591258377
 20
9136.123139034619
 30
0.0
 11
4115.083950562663
 21
8882.516699398941
 31
0.0
  0
LINE
  5
18C4B
330
18C48
100
AcDbEntity
  8
寸法
 62
     0
 48
50.0
370
    -2
100
AcDbLine
 10
5246.037591258307
 20
9136.123139034671
 30
0.0
 11
5178.08395056258
 21
8882.516699398941
 31
0.0
  0
LINE
  5
18C4C
330
18C48
100
AcDbEntity
  8
寸法
 62
     0
 48
50.0
370
    -2
100
AcDbLine
 10
4131.160902108532
 20
8942.516699398941
 30
0.0
 11
5194.160902108448
 21
8942.516699398941
 31
0.0
  0
INSERT
  5
18C4D
330
18C48
100
AcDbEntity
  8
寸法
 62
     0
 48
50.0
370
    -2
100
AcDbBlockReference
  2
_DOTSMALL
 10
4131.160902108532
 20
8942.516699398941
 30
0.0
 41
100.0
 42
100.0
 43
100.0
 50
180.0
  0
INSERT
  5
18C4E
330
18C48
100
AcDbEntity
  8
寸法
 62
     0
 48
50.0
370
    -2
100
AcDbBlockReference
  2
_DOTSMALL
 10
5194.160902108448
 20
8942.516699398941
 30
0.0
 41
100.0
 42
100.0
 43
100.0
  0
MTEXT
  5
18C4F
330
18C48
100
AcDbEntity
  8
寸法
 62
     7
 48
50.0
100
AcDbMText
 10
4658.986452655306
 20
9042.516699398941
 30
0.0
 40
120.0
 41
0.0
 71
     5
 72
     1
  1
\A1;1063
  7
STYLE1
 73
     1
 44
1.0
1001
ACAD
1000
MTEXTBEGIN
1070
    73
1070
     1
1070
    44
1040
1.0
1070
    74
1070
     0
1000
MTEXTEND
  0
POINT
  5
18C50
330
18C48
100
AcDbEntity
  8
DEFPOINTS
 62
     0
 48
50.0
100
AcDbPoint
 10
4188.396575106999
 20
9156.123139034617
 30
0.0
  0
POINT
  5
18C51
330
18C48
100
AcDbEntity
  8
DEFPOINTS
 62
     0
 48
50.0
100
AcDbPoint
 10
5251.396575106929
 20
9156.123139034672
 30
0.0
  0
POINT
  5
18C52
330
18C48
100
AcDbEntity
  8
DEFPOINTS
 62
     0
 48
50.0
100
AcDbPoint
 10
5194.160902108448
 20
8942.516699398941
 30
0.0
  0
ENDBLK
  5
18C53
330
18C48
100
AcDbEntity
  8
0
 48
50.0
100
AcDbBlockEnd
  0
BLOCK
  5
18C55
330
18C54
100
AcDbEntity
  8
0
 48
50.0
100
AcDbBlockBegin
  2
*D14
 70
     1
 10
0.0
 20
0.0
 30
0.0
  3
*D14
  1

  0
LINE
  5
18C56
330
18C54
100
AcDbEntity
  8
寸法
 62
     0
 48
50.0
370
    -2
100
AcDbLine
 10
5274.037591258307
 20
9136.123139034669
 30
0.0
 11
5206.08395056258
 21
8882.516699398941
 31
0.0
  0
LINE
  5
18C57
330
18C54
100
AcDbEntity
  8
寸法
 62
     0
 48
50.0
370
    -2
100
AcDbLine
 10
6505.037591258377
 20
9136.123139034662
 30
0.0
 11
6437.083950562653
 21
8882.516699398941
 31
0.0
  0
LINE
  5
18C58
330
18C54
100
AcDbEntity
  8
寸法
 62
     0
 48
50.0
370
    -2
100
AcDbLine
 10
5222.160902108448
 20
8942.516699398941
 30
0.0
 11
6453.16090210852
 21
8942.516699398941
 31
0.0
  0
INSERT
  5
18C59
330
18C54
100
AcDbEntity
  8
寸法
 62
     0
 48
50.0
370
    -2
100
AcDbBlockReference
  2
_DOTSMALL
 10
5222.160902108448
 20
8942.516699398941
 30
0.0
 41
100.0
 42
100.0
 43
100.0
 50
180.0
  0
INSERT
  5
18C5A
330
18C54
100
AcDbEntity
  8
寸法
 62
     0
 48
50.0
370
    -2
100
AcDbBlockReference
  2
_DOTSMALL
 10
6453.16090210852
 20
8942.516699398941
 30
0.0
 41
100.0
 42
100.0
 43
100.0
  0
MTEXT
  5
18C5B
330
18C54
100
AcDbEntity
  8
寸法
 62
     7
 48
50.0
100
AcDbMText
 10
6081.244808320626
 20
9042.528510422561
 30
0.0
 40
120.0
 41
0.0
 71
     5
 72
     1
  1
\A1;1231
  7
STYLE1
 73
     1
 44
1.0
1001
ACAD
1000
MTEXTBEGIN
1070
    73
1070
     1
1070
    44
1040
1.0
1070
    74
1070
     0
1000
MTEXTEND
  0
POINT
  5
18C5C
330
18C54
100
AcDbEntity
  8
DEFPOINTS
 62
     0
 48
50.0
100
AcDbPoint
 10
5279.396575106929
 20
9156.123139034669
 30
0.0
  0
POINT
  5
18C5D
330
18C54
100
AcDbEntity
  8
DEFPOINTS
 62
     0
 48
50.0
100
AcDbPoint
 10
6510.396575106999
 20
9156.123139034662
 30
0.0
  0
POINT
  5
18C5E
330
18C54
100
AcDbEntity
  8
DEFPOINTS
 62
     0
 48
50.0
100
AcDbPoint
 10
6453.16090210852
 20
8942.516699398941
 30
0.0
  0
ENDBLK
  5
18C5F
330
18C54
100
AcDbEntity
  8
0
 48
50.0
100
AcDbBlockEnd
  0
BLOCK
  5
18C61
330
18C60
100
AcDbEntity
  8
0
 48
50.0
100
AcDbBlockBegin
  2
*D15
 70
     1
 10
0.0
 20
0.0
 30
0.0
  3
*D15
  1

  0
LINE
  5
18C62
330
18C60
100
AcDbEntity
  8
寸法
 62
     0
 48
50.0
370
    -2
100
AcDbLine
 10
5065.896575106966
 20
7749.123139034579
 30
0.0
 11
5065.896575106966
 21
7099.952920982538
 31
0.0
  0
LINE
  5
18C63
330
18C60
100
AcDbEntity
  8
寸法
 62
     0
 48
50.0
370
    -2
100
AcDbLine
 10
6331.896575106966
 20
7749.123139034579
 30
0.0
 11
6331.896575106966
 21
7099.952920982538
 31
0.0
  0
LINE
  5
18C64
330
18C60
100
AcDbEntity
  8
寸法
 62
     0
 48
50.0
370
    -2
100
AcDbLine
 10
5065.896575106966
 20
7159.952920982537
 30
0.0
 11
6331.896575106966
 21
7159.952920982537
 31
0.0
  0
INSERT
  5
18C65
330
18C60
100
AcDbEntity
  8
寸法
 62
     0
 48
50.0
370
    -2
100
AcDbBlockReference
  2
_DOTSMALL
 10
5065.896575106966
 20
7159.952920982537
 30
0.0
 41
100.0
 42
100.0
 43
100.0
 50
180.0
  0
INSERT
  5
18C66
330
18C60
100
AcDbEntity
  8
寸法
 62
     0
 48
50.0
370
    -2
100
AcDbBlockReference
  2
_DOTSMALL
 10
6331.896575106966
 20
7159.952920982537
 30
0.0
 41
100.0
 42
100.0
 43
100.0
  0
MTEXT
  5
18C67
330
18C60
100
AcDbEntity
  8
寸法
 62
     7
 48
50.0
100
AcDbMText
 10
5711.986008735934
 20
7359.964732006159
 30
0.0
 40
120.0
 41
0.0
 71
     5
 72
     1
  1
\A1;有効開口部間口\P1266
  7
STYLE1
 73
     1
 44
1.0
1001
ACAD
1000
MTEXTBEGIN
1070
    73
1070
     1
1070
    44
1040
1.0
1070
    74
1070
     0
1000
MTEXTEND
  0
POINT
  5
18C68
330
18C60
100
AcDbEntity
  8
DEFPOINTS
 62
     0
 48
50.0
100
AcDbPoint
 10
5065.896575106966
 20
7769.123139034579
 30
0.0
  0
POINT
  5
18C69
330
18C60
100
AcDbEntity
  8
DEFPOINTS
 62
     0
 48
50.0
100
AcDbPoint
 10
6331.896575106966
 20
7769.123139034579
 30
0.0
  0
POINT
  5
18C6A
330
18C60
100
AcDbEntity
  8
DEFPOINTS
 62
     0
 48
50.0
100
AcDbPoint
 10
6331.896575106966
 20
7159.952920982537
 30
0.0
  0
ENDBLK
  5
18C6B
330
18C60
100
AcDbEntity
  8
0
 48
50.0
100
AcDbBlockEnd
  0
BLOCK
  5
18C6D
330
18C6C
100
AcDbEntity
  8
0
 48
50.0
100
AcDbBlockBegin
  2
*D16
 70
     1
 10
0.0
 20
0.0
 30
0.0
  3
*D16
  1

  0
LINE
  5
18C6E
330
18C6C
100
AcDbEntity
  8
寸法
 62
     0
 48
50.0
370
    -2
100
AcDbLine
 10
7200.896575106966
 20
7846.123139034578
 30
0.0
 11
7457.192158500191
 21
7846.123139034578
 31
0.0
  0
LINE
  5
18C6F
330
18C6C
100
AcDbEntity
  8
寸法
 62
     0
 48
50.0
370
    -2
100
AcDbLine
 10
7199.896575106966
 20
7769.123139034579
 30
0.0
 11
7457.192158500191
 21
7769.123139034579
 31
0.0
  0
LINE
  5
18C70
330
18C6C
100
AcDbEntity
  8
寸法
 62
     0
 48
50.0
370
    -2
100
AcDbLine
 10
7417.192158500192
 20
7866.123139034579
 30
0.0
 11
7417.192158500192
 21
7886.123139034578
 31
0.0
  0
LINE
  5
18C71
330
18C6C
100
AcDbEntity
  8
寸法
 62
     0
 48
50.0
370
    -2
100
AcDbLine
 10
7417.192158500192
 20
7749.123139034579
 30
0.0
 11
7417.192158500192
 21
7533.123139034573
 31
0.0
  0
LINE
  5
18C72
330
18C6C
100
AcDbEntity
  8
寸法
 62
     0
 48
50.0
370
    -2
100
AcDbLine
 10
7417.192158500192
 20
7846.123139034578
 30
0.0
 11
7417.192158500192
 21
7769.123139034579
 31
0.0
  0
INSERT
  5
18C73
330
18C6C
100
AcDbEntity
  8
寸法
 62
     0
 48
50.0
370
    -2
100
AcDbBlockReference
  2
_DOT
 10
7417.192158500192
 20
7846.123139034578
 30
0.0
 41
20.0
 42
20.0
 43
20.0
 50
270.0
  0
INSERT
  5
18C74
330
18C6C
100
AcDbEntity
  8
寸法
 62
     0
 48
50.0
370
    -2
100
AcDbBlockReference
  2
_DOT
 10
7417.192158500192
 20
7769.123139034579
 30
0.0
 41
20.0
 42
20.0
 43
20.0
 50
90.0
  0
MTEXT
  5
18C75
330
18C6C
100
AcDbEntity
  8
寸法
 62
     7
 48
50.0
100
AcDbMText
 10
7325.192158500191
 20
7631.123139034575
 30
0.0
 40
120.0
 41
0.0
 71
     5
 72
     1
  1
\A1;77
  7
STYLE1
 11
0.0000000000000001
 21
1.0
 31
0.0
 73
     1
 44
1.0
1001
ACAD
1000
MTEXTBEGIN
1070
    73
1070
     1
1070
    44
1040
1.0
1070
    74
1070
     0
1000
MTEXTEND
  0
POINT
  5
18C76
330
18C6C
100
AcDbEntity
  8
DEFPOINTS
 62
     0
 48
50.0
100
AcDbPoint
 10
7180.896575106967
 20
7846.123139034578
 30
0.0
  0
POINT
  5
18C77
330
18C6C
100
AcDbEntity
  8
DEFPOINTS
 62
     0
 48
50.0
100
AcDbPoint
 10
7179.896575106965
 20
7769.123139034579
 30
0.0
  0
POINT
  5
18C78
330
18C6C
100
AcDbEntity
  8
DEFPOINTS
 62
     0
 48
50.0
100
AcDbPoint
 10
7417.192158500192
 20
7769.123139034579
 30
0.0
  0
ENDBLK
  5
18C79
330
18C6C
100
AcDbEntity
  8
0
 48
50.0
100
AcDbBlockEnd
  0
BLOCK
  5
18DA0
330
18C7A
100
AcDbEntity
  8
0
 48
50.0
100
AcDbBlockBegin
  2
A$C3B1A506B
 70
     0
 10
0.0
 20
0.0
 30
0.0
  3
A$C3B1A506B
  1

  0
MTEXT
  5
18C7B
330
18C7A
100
AcDbEntity
  8
寸法
 62
     7
 48
50.0
100
AcDbMText
 10
3342.250386887194
 20
2778.329429134012
 30
0.0
 40
96.0
 41
0.0
 71
     5
 72
     1
  1
棚 2段
  7
STYLE1
 73
     1
 44
1.0
1001
ACAD
1000
MTEXTBEGIN
1070
    73
1070
     1
1070
    44
1040
1.0
1070
    74
1070
     0
1000
MTEXTEND
  0
MTEXT
  5
18C7C
330
18C7A
100
AcDbEntity
  8
寸法
 62
     7
 48
50.0
100
AcDbMText
 10
2167.25038688716
 20
2778.329429133986
 30
0.0
 40
96.0
 41
0.0
 71
     5
 72
     1
  1
棚 2段
  7
STYLE1
 73
     1
 44
1.0
1001
ACAD
1000
MTEXTBEGIN
1070
    73
1070
     1
1070
    44
1040
1.0
1070
    74
1070
     0
1000
MTEXTEND
  0
MTEXT
  5
18C7D
330
18C7A
100
AcDbEntity
  8
寸法
 62
     7
 48
50.0
100
AcDbMText
 10
992.2503868871608
 20
2778.329429133935
 30
0.0
 40
96.0
 41
0.0
 71
     5
 72
     1
  1
棚 2段
  7
STYLE1
 73
     1
 44
1.0
1001
ACAD
1000
MTEXTBEGIN
1070
    73
1070
     1
1070
    44
1040
1.0
1070
    74
1070
     0
1000
MTEXTEND
  0
LINE
  5
18C7E
330
18C7A
100
AcDbEntity
  8
細線
 48
50.0
100
AcDbLine
 10
2771.970589276527
 20
1368.994384123192
 30
0.0
 11
3398.970589276523
 21
1368.994384123192
 31
0.0
  0
LINE
  5
18C7F
330
18C7A
100
AcDbEntity
  8
細線
 48
50.0
100
AcDbLine
 10
2117.970593930113
 20
1335.285615569113
 30
0.0
 11
3398.970589276523
 21
1335.285615569113
 31
0.0
  0
LINE
  5
18C80
330
18C7A
100
AcDbEntity
  8
細線
 48
50.0
100
AcDbLine
 10
2076.970593930115
 20
1364.690523565368
 30
0.0
 11
1322.970589276523
 21
1364.690523565367
 31
0.0
  0
LINE
  5
18C81
330
18C7A
100
AcDbEntity
  8
細線
100
AcDbLine
 10
3170.720579860066
 20
1388.494284088199
 30
0.0
 11
3173.052119381877
 21
1393.494286728162
 31
0.0
  0
LINE
  5
18C82
330
18C7A
100
AcDbEntity
  8
細線
100
AcDbLine
 10
3240.720589276525
 20
1388.494269174465
 30
0.0
 11
3238.389042800336
 21
1393.494286728144
 31
0.0
  0
LINE
  5
18C83
330
18C7A
100
AcDbEntity
  8
細線
100
AcDbLine
 10
3238.389042800336
 20
1393.494286728144
 30
0.0
 11
3173.052119381862
 21
1393.494286728133
 31
0.0
  0
LINE
  5
18C84
330
18C7A
100
AcDbEntity
  8
細線
100
AcDbLine
 10
3098.389042800336
 20
1393.494286728144
 30
0.0
 11
3033.052119381862
 21
1393.494286728133
 31
0.0
  0
LINE
  5
18C85
330
18C7A
100
AcDbEntity
  8
細線
100
AcDbLine
 10
3100.720589276523
 20
1388.494269174465
 30
0.0
 11
3098.389042800336
 21
1393.494286728144
 31
0.0
  0
LINE
  5
18C86
330
18C7A
100
AcDbEntity
  8
細線
100
AcDbLine
 10
3030.720579860066
 20
1388.494284088199
 30
0.0
 11
3033.052119381875
 21
1393.494286728162
 31
0.0
  0
LINE
  5
18C87
330
18C7A
100
AcDbEntity
  8
細線
100
AcDbLine
 10
2890.720589276525
 20
1388.494269174465
 30
0.0
 11
2893.052128798336
 21
1393.494271814428
 31
0.0
  0
LINE
  5
18C88
330
18C7A
100
AcDbEntity
  8
細線
100
AcDbLine
 10
2960.720598692984
 20
1388.494254260731
 30
0.0
 11
2958.389052216793
 21
1393.49427181441
 31
0.0
  0
LINE
  5
18C89
330
18C7A
100
AcDbEntity
  8
細線
100
AcDbLine
 10
2958.389052216795
 20
1393.49427181441
 30
0.0
 11
2893.052128798321
 21
1393.494271814399
 31
0.0
  0
LINE
  5
18C8A
330
18C7A
100
AcDbEntity
  8
細線
100
AcDbLine
 10
2667.139038146739
 20
1359.494298590735
 30
0.0
 11
2601.802114728263
 21
1359.494298590724
 31
0.0
  0
LINE
  5
18C8B
330
18C7A
100
AcDbEntity
  8
細線
100
AcDbLine
 10
2669.470584622926
 20
1354.494281037055
 30
0.0
 11
2667.139038146737
 21
1359.494298590735
 31
0.0
  0
LINE
  5
18C8C
330
18C7A
100
AcDbEntity
  8
細線
100
AcDbLine
 10
2599.470575206469
 20
1354.49429595079
 30
0.0
 11
2601.802114728278
 21
1359.494298590752
 31
0.0
  0
LINE
  5
18C8D
330
18C7A
100
AcDbEntity
  8
細線
 48
50.0
100
AcDbLine
 10
2440.853968524536
 20
1372.765132327548
 30
0.0
 11
2446.609486107205
 21
1354.494281037057
 31
0.0
  0
LINE
  5
18C8E
330
18C7A
100
AcDbEntity
  8
細線
 48
50.0
100
AcDbLine
 10
2429.925520044106
 20
1372.765132327546
 30
0.0
 11
2440.853968524536
 21
1372.765132327548
 31
0.0
  0
ARC
  5
18C8F
330
18C7A
100
AcDbEntity
  8
細線
 48
50.0
100
AcDbCircle
 10
2424.471163986787
 20
1374.265132327546
 30
0.0
 40
5.0
100
AcDbArc
 50
204.6243183520723
 51
335.3756816479278
  0
ARC
  5
18C90
330
18C7A
100
AcDbEntity
  8
細線
 48
50.0
100
AcDbCircle
 10
2429.925520044106
 20
1371.765132327546
 30
0.0
 40
1.0
100
AcDbArc
 50
90.0
 51
155.3756816479277
  0
ARC
  5
18C91
330
18C7A
100
AcDbEntity
  8
細線
 48
50.0
100
AcDbCircle
 10
2419.016807929469
 20
1371.765132327546
 30
0.0
 40
1.0
100
AcDbArc
 50
24.62431835207225
 51
90.0
  0
LINE
  5
18C92
330
18C7A
100
AcDbEntity
  8
細線
 48
50.0
100
AcDbLine
 10
2408.088359449037
 20
1372.765132327548
 30
0.0
 11
2419.016807929469
 21
1372.765132327546
 31
0.0
  0
LINE
  5
18C93
330
18C7A
100
AcDbEntity
  8
細線
 48
50.0
100
AcDbLine
 10
2402.33284186637
 20
1354.494281037054
 30
0.0
 11
2408.088359449037
 21
1372.765132327548
 31
0.0
  0
LINE
  5
18C94
330
18C7A
100
AcDbEntity
  8
細線
100
AcDbLine
 10
2458.070304175992
 20
1354.494278397076
 30
0.0
 11
2460.401843697802
 21
1359.494281037039
 31
0.0
  0
LINE
  5
18C95
330
18C7A
100
AcDbEntity
  8
細線
100
AcDbLine
 10
2528.070313592451
 20
1354.494263483342
 30
0.0
 11
2525.738767116262
 21
1359.494281037021
 31
0.0
  0
LINE
  5
18C96
330
18C7A
100
AcDbEntity
  8
細線
100
AcDbLine
 10
2525.738767116262
 20
1359.494281037021
 30
0.0
 11
2460.40184369779
 21
1359.49428103701
 31
0.0
  0
LINE
  5
18C97
330
18C7A
100
AcDbEntity
  8
細線
100
AcDbLine
 10
2387.139046332155
 20
1359.494281037021
 30
0.0
 11
2321.80212291368
 21
1359.49428103701
 31
0.0
  0
LINE
  5
18C98
330
18C7A
100
AcDbEntity
  8
細線
100
AcDbLine
 10
2389.470592808342
 20
1354.494263483342
 30
0.0
 11
2387.139046332153
 21
1359.494281037021
 31
0.0
  0
LINE
  5
18C99
330
18C7A
100
AcDbEntity
  8
細線
100
AcDbLine
 10
2319.470584622926
 20
1354.494281037054
 30
0.0
 11
2321.802122913694
 21
1359.494281037039
 31
0.0
  0
LINE
  5
18C9A
330
18C7A
100
AcDbEntity
  8
細線
100
AcDbLine
 10
2179.47061994182
 20
1354.494289224422
 30
0.0
 11
2181.802158232587
 21
1359.494289224407
 31
0.0
  0
LINE
  5
18C9B
330
18C7A
100
AcDbEntity
  8
細線
100
AcDbLine
 10
2249.470628127236
 20
1354.49427167071
 30
0.0
 11
2247.139081651047
 21
1359.494289224389
 31
0.0
  0
LINE
  5
18C9C
330
18C7A
100
AcDbEntity
  8
細線
100
AcDbLine
 10
2247.139081651047
 20
1359.494289224389
 30
0.0
 11
2181.802158232573
 21
1359.494289224378
 31
0.0
  0
LINE
  5
18C9D
330
18C7A
100
AcDbEntity
  8
細線
100
AcDbLine
 10
1807.970585744697
 20
1320.494460905133
 30
0.0
 11
1810.302124035464
 21
1325.494460905118
 31
0.0
  0
LINE
  5
18C9E
330
18C7A
100
AcDbEntity
  8
細線
100
AcDbLine
 10
1877.970593930113
 20
1320.494443351421
 30
0.0
 11
1875.639047453926
 21
1325.4944609051
 31
0.0
  0
LINE
  5
18C9F
330
18C7A
100
AcDbEntity
  8
細線
100
AcDbLine
 10
1875.639047453926
 20
1325.4944609051
 30
0.0
 11
1810.302124035452
 21
1325.494460905089
 31
0.0
  0
LINE
  5
18CA0
330
18C7A
100
AcDbEntity
  8
細線
100
AcDbLine
 10
2015.639047453926
 20
1325.4944609051
 30
0.0
 11
1950.302124035452
 21
1325.494460905089
 31
0.0
  0
LINE
  5
18CA1
330
18C7A
100
AcDbEntity
  8
細線
100
AcDbLine
 10
2017.970593930113
 20
1320.494443351421
 30
0.0
 11
2015.639047453924
 21
1325.4944609051
 31
0.0
  0
LINE
  5
18CA2
330
18C7A
100
AcDbEntity
  8
細線
100
AcDbLine
 10
1947.970585744697
 20
1320.494460905133
 30
0.0
 11
1950.302124035465
 21
1325.494460905118
 31
0.0
  0
LINE
  5
18CA3
330
18C7A
100
AcDbEntity
  8
細線
100
AcDbLine
 10
1735.639047453926
 20
1325.494460905098
 30
0.0
 11
1670.302124035454
 21
1325.494460905087
 31
0.0
  0
LINE
  5
18CA4
330
18C7A
100
AcDbEntity
  8
細線
100
AcDbLine
 10
1737.970593930113
 20
1320.494443351419
 30
0.0
 11
1735.639047453926
 21
1325.494460905098
 31
0.0
  0
LINE
  5
18CA5
330
18C7A
100
AcDbEntity
  8
細線
100
AcDbLine
 10
1667.970585744697
 20
1320.494460905131
 30
0.0
 11
1670.302124035465
 21
1325.494460905116
 31
0.0
  0
LINE
  5
18CA6
330
18C7A
100
AcDbEntity
  8
細線
100
AcDbLine
 10
1527.970593930113
 20
1320.494460905133
 30
0.0
 11
1530.302132220881
 21
1325.494460905118
 31
0.0
  0
LINE
  5
18CA7
330
18C7A
100
AcDbEntity
  8
細線
100
AcDbLine
 10
1597.970602115529
 20
1320.494443351421
 30
0.0
 11
1595.639055639342
 21
1325.4944609051
 31
0.0
  0
LINE
  5
18CA8
330
18C7A
100
AcDbEntity
  8
細線
100
AcDbLine
 10
1595.639055639342
 20
1325.4944609051
 30
0.0
 11
1530.302132220869
 21
1325.494460905089
 31
0.0
  0
ARC
  5
18CA9
330
18C7A
100
AcDbEntity
  8
部品1
 48
0.01
100
AcDbCircle
 10
1483.470482677778
 20
1319.493338720063
 30
0.0
 40
0.5
100
AcDbArc
 50
270.0
 51
0.0
  0
LINE
  5
18CAA
330
18C7A
100
AcDbEntity
  8
部品1
 48
0.01
100
AcDbLine
 10
1483.970482677778
 20
1320.493338720063
 30
0.0
 11
1483.970482677778
 21
1319.493338720063
 31
0.0
  0
LINE
  5
18CAB
330
18C7A
100
AcDbEntity
  8
部品1
 48
0.01
100
AcDbLine
 10
1483.970482677778
 20
1320.493338720063
 30
0.0
 11
1483.970482677778
 21
1319.493338720063
 31
0.0
  0
LINE
  5
18CAC
330
18C7A
100
AcDbEntity
  8
部品1
 48
0.01
100
AcDbLine
 10
1483.470482677778
 20
1318.993338720063
 30
0.0
 11
1476.857977247713
 21
1318.993338720062
 31
0.0
  0
ARC
  5
18CAD
330
18C7A
100
AcDbEntity
  8
部品1
100
AcDbCircle
 10
1476.926326800494
 20
1319.993338720062
 30
0.0
 40
1.0
100
AcDbArc
 50
160.5287793655865
 51
270.0
  0
ARC
  5
18CAE
330
18C7A
100
AcDbEntity
  8
部品1
100
AcDbCircle
 10
1451.470482677778
 20
1328.993338720062
 30
0.0
 40
26.0
100
AcDbArc
 50
340.5287793655865
 51
0.0
  0
LINE
  5
18CAF
330
18C7A
100
AcDbEntity
  8
部品1
100
AcDbLine
 10
1477.470482677778
 20
1328.993338720062
 30
0.0
 11
1477.470482677778
 21
1333.993338720061
 31
0.0
  0
ARC
  5
18CB0
330
18C7A
100
AcDbEntity
  8
部品1
 48
0.01
100
AcDbCircle
 10
1475.470482677778
 20
1333.993338720061
 30
0.0
 40
2.0
100
AcDbArc
 50
0.0
 51
90.0
  0
ARC
  5
18CB1
330
18C7A
100
AcDbEntity
  8
部品1
100
AcDbCircle
 10
1473.862091052968
 20
1332.993338720062
 30
0.0
 40
3.0
100
AcDbArc
 50
90.0
 51
141.6069559808035
  0
LINE
  5
18CB2
330
18C7A
100
AcDbEntity
  8
部品1
 48
0.01
100
AcDbLine
 10
1475.470482677778
 20
1335.993338720062
 30
0.0
 11
1473.862091052968
 21
1335.993338720062
 31
0.0
  0
ARC
  5
18CB3
330
18C7A
100
AcDbEntity
  8
部品1
100
AcDbCircle
 10
1455.399768463507
 20
1332.293338720065
 30
0.0
 40
3.0
100
AcDbArc
 50
254.0576313943215
 51
270.0
  0
ARC
  5
18CB4
330
18C7A
100
AcDbEntity
  8
部品1
100
AcDbCircle
 10
1462.541196892049
 20
1332.293338720065
 30
0.0
 40
3.0
100
AcDbArc
 50
270.0
 51
285.9423686056786
  0
LINE
  5
18CB5
330
18C7A
100
AcDbEntity
  8
部品1
100
AcDbLine
 10
1462.541196892049
 20
1329.293338720064
 30
0.0
 11
1455.399768463507
 21
1329.293338720064
 31
0.0
  0
ARC
  5
18CB6
330
18C7A
100
AcDbEntity
  8
部品1
100
AcDbCircle
 10
1458.970482677778
 20
1344.793338720065
 30
0.0
 40
16.0
100
AcDbArc
 50
285.9423686056786
 51
321.6069559808035
  0
LINE
  5
18CB7
330
18C7A
100
AcDbEntity
  8
部品1
 48
0.01
100
AcDbLine
 10
1442.470482677778
 20
1335.993338720062
 30
0.0
 11
1444.078874302588
 21
1335.993338720062
 31
0.0
  0
ARC
  5
18CB8
330
18C7A
100
AcDbEntity
  8
部品1
100
AcDbCircle
 10
1444.078874302588
 20
1332.993338720062
 30
0.0
 40
3.0
100
AcDbArc
 50
38.39304401919648
 51
90.0
  0
ARC
  5
18CB9
330
18C7A
100
AcDbEntity
  8
部品1
100
AcDbCircle
 10
1458.970482677778
 20
1344.793338720065
 30
0.0
 40
16.0
100
AcDbArc
 50
218.3930440191965
 51
254.0576313943215
  0
LINE
  5
18CBA
330
18C7A
100
AcDbEntity
  8
部品1
100
AcDbLine
 10
1440.470482677778
 20
1328.993338720062
 30
0.0
 11
1440.470482677778
 21
1333.993338720061
 31
0.0
  0
ARC
  5
18CBB
330
18C7A
100
AcDbEntity
  8
部品1
 48
0.01
100
AcDbCircle
 10
1442.470482677778
 20
1333.993338720061
 30
0.0
 40
2.0
100
AcDbArc
 50
90.0
 51
180.0
  0
ARC
  5
18CBC
330
18C7A
100
AcDbEntity
  8
部品1
100
AcDbCircle
 10
1466.470482677778
 20
1328.993338720062
 30
0.0
 40
26.0
100
AcDbArc
 50
180.0
 51
199.4712206344134
  0
ARC
  5
18CBD
330
18C7A
100
AcDbEntity
  8
部品1
 48
0.01
100
AcDbCircle
 10
1434.470482677778
 20
1319.493338720063
 30
0.0
 40
0.5
100
AcDbArc
 50
180.0
 51
270.0
  0
LINE
  5
18CBE
330
18C7A
100
AcDbEntity
  8
部品1
 48
0.01
100
AcDbLine
 10
1434.470482677778
 20
1318.993338720063
 30
0.0
 11
1441.014638555061
 21
1318.993338720062
 31
0.0
  0
LINE
  5
18CBF
330
18C7A
100
AcDbEntity
  8
部品1
 48
0.01
100
AcDbLine
 10
1433.970482677778
 20
1320.493338720063
 30
0.0
 11
1433.970482677778
 21
1319.493338720063
 31
0.0
  0
ARC
  5
18CC0
330
18C7A
100
AcDbEntity
  8
部品1
100
AcDbCircle
 10
1441.014638555061
 20
1319.993338720062
 30
0.0
 40
1.0
100
AcDbArc
 50
270.0
 51
19.47122063441346
  0
LINE
  5
18CC1
330
18C7A
100
AcDbEntity
  8
細線
100
AcDbLine
 10
1479.470482677785
 20
1338.493338720065
 30
0.0
 11
1438.470482677785
 21
1338.493338720058
 31
0.0
  0
LINE
  5
18CC2
330
18C7A
100
AcDbEntity
  8
細線
100
AcDbLine
 10
1438.470482677785
 20
1338.493338720058
 30
0.0
 11
1438.470482677785
 21
1320.49333872004
 31
0.0
  0
LINE
  5
18CC3
330
18C7A
100
AcDbEntity
  8
細線
100
AcDbLine
 10
1479.470482677785
 20
1338.493338720065
 30
0.0
 11
1479.470482677785
 21
1320.49333872004
 31
0.0
  0
LINE
  5
18CC4
330
18C7A
100
AcDbEntity
  8
細線
100
AcDbLine
 10
1322.970589276523
 20
1324.494269174465
 30
0.0
 11
1322.970589276523
 21
1320.494269174513
 31
0.0
  0
LINE
  5
18CC5
330
18C7A
100
AcDbEntity
  8
寸法
 48
50.0
100
AcDbLine
 10
1746.17359555837
 20
1170.531020743327
 30
0.0
 11
1694.767587648266
 21
1170.531020743327
 31
0.0
  0
LINE
  5
18CC6
330
18C7A
100
AcDbEntity
  8
寸法
 48
50.0
100
AcDbLine
 10
1694.767587648266
 20
1170.531020743327
 30
0.0
 11
1694.767587648266
 21
1201.841179395494
 31
0.0
  0
LINE
  5
18CC7
330
18C7A
100
AcDbEntity
  8
寸法
 48
50.0
100
AcDbLine
 10
1694.767587648266
 20
1201.841179395494
 30
0.0
 11
1665.006255656843
 21
1201.841179395494
 31
0.0
  0
LINE
  5
18CC8
330
18C7A
100
AcDbEntity
  8
寸法
 48
50.0
100
AcDbLine
 10
1665.006255656843
 20
1201.841179395494
 30
0.0
 11
1720.470591603318
 21
1239.420630324105
 31
0.0
  0
LINE
  5
18CC9
330
18C7A
100
AcDbEntity
  8
寸法
 48
50.0
100
AcDbLine
 10
1775.934927549793
 20
1201.841179395494
 30
0.0
 11
1720.470591603318
 21
1239.420630324105
 31
0.0
  0
LINE
  5
18CCA
330
18C7A
100
AcDbEntity
  8
寸法
 48
50.0
100
AcDbLine
 10
1746.17359555837
 20
1201.841179395494
 30
0.0
 11
1775.934927549793
 21
1201.841179395494
 31
0.0
  0
LINE
  5
18CCB
330
18C7A
100
AcDbEntity
  8
寸法
 48
50.0
100
AcDbLine
 10
1746.17359555837
 20
1170.531020743327
 30
0.0
 11
1746.17359555837
 21
1201.841179395494
 31
0.0
  0
LINE
  5
18CCC
330
18C7A
100
AcDbEntity
  8
寸法
 48
50.0
100
AcDbLine
 10
1694.767587648266
 20
1170.531020743327
 30
0.0
 11
1746.17359555837
 21
1170.531020743327
 31
0.0
  0
LINE
  5
18CCD
330
18C7A
100
AcDbEntity
  8
寸法
 48
50.0
100
AcDbLine
 10
2025.339129835225
 20
1227.676611498152
 30
0.0
 11
2025.339129835225
 21
1174.01297691636
 31
0.0
  0
LINE
  5
18CCE
330
18C7A
100
AcDbEntity
  8
寸法
 48
50.0
100
AcDbLine
 10
2114.623348430647
 20
1203.752977228664
 30
0.0
 11
2025.339129835225
 21
1227.676611498152
 31
0.0
  0
LINE
  5
18CCF
330
18C7A
100
AcDbEntity
  8
寸法
 48
50.0
100
AcDbLine
 10
1895.471408254923
 20
1203.752977228664
 30
0.0
 11
2114.623348430647
 21
1203.752977228664
 31
0.0
  0
DIMENSION
  5
18CD0
330
18C7A
100
AcDbEntity
  8
寸法
 48
50.0
100
AcDbDimension
  2
*D15
 10
2588.970589276523
 20
706.3240511224249
 30
0.0
 11
1969.060022905491
 21
706.3240511224249
 31
0.0
 12
-3742.925985830444
 22
-6453.628869860112
 32
0.0
 70
   128
  1
有効開口部間口\P<>
 71
     5
 42
1266.0
  3
INABA_S40G
100
AcDbAlignedDimension
 13
1322.970589276523
 23
1315.494269174465
 33
0.0
 14
2588.970589276523
 24
1315.494269174465
 34
0.0
100
AcDbRotatedDimension
1001
ACAD
1000
DSTYLE
1002
{
1070
   341
1005
0
1002
}
  0
LINE
  5
18CD1
330
18C7A
100
AcDbEntity
  8
部品1
100
AcDbLine
 10
3409.970589276524
 20
1392.494269174465
 30
0.0
 11
3437.970589276523
 21
1392.494269174465
 31
0.0
  0
DIMENSION
  5
18CD2
330
18C7A
100
AcDbEntity
  8
寸法
100
AcDbDimension
  2
*D16
 10
3674.266172669749
 20
1315.494269174465
 30
0.0
 11
3674.266172669748
 21
1177.494269174462
 31
0.0
 12
-3742.925985830444
 22
-6453.628869860112
 32
0.0
 70
   128
 71
     5
 42
77.0
  3
INABA_S40
100
AcDbAlignedDimension
 13
3437.970589276523
 23
1392.494269174465
 33
0.0
 14
3436.970589276523
 24
1315.494269174465
 34
0.0
 50
90.0
100
AcDbRotatedDimension
1001
ACAD
1000
DSTYLE
1002
{
1070
    41
1040
0.5
1070
    44
1040
1.0
1070
   147
1040
0.8
1070
   271
1070
     2
1070
   272
1070
     2
1070
   289
1070
     3
1070
   340
1005
F706
1070
   343
1005
164B4
1070
   344
1005
164B4
1002
}
  0
LINE
  5
18CD3
330
18C7A
100
AcDbEntity
  8
部品1
100
AcDbLine
 10
3437.970589276523
 20
1315.494269174465
 30
0.0
 11
3437.970589276523
 21
1392.494269174465
 31
0.0
  0
LINE
  5
18CD4
330
18C7A
100
AcDbEntity
  8
部品1
100
AcDbLine
 10
3398.970589276523
 20
1388.494269174465
 30
0.0
 11
3409.970589276524
 21
1388.494269174465
 31
0.0
  0
LINE
  5
18CD5
330
18C7A
100
AcDbEntity
  8
部品1
100
AcDbLine
 10
3407.970589276523
 20
1324.494269174465
 30
0.0
 11
3407.970589276523
 21
1315.494269174465
 31
0.0
  0
LINE
  5
18CD6
330
18C7A
100
AcDbEntity
  8
部品1
100
AcDbLine
 10
3398.970589276523
 20
1324.494269174465
 30
0.0
 11
3407.970589276523
 21
1324.494269174465
 31
0.0
  0
LINE
  5
18CD7
330
18C7A
100
AcDbEntity
  8
部品1
100
AcDbLine
 10
3398.970589276523
 20
1388.494269174465
 30
0.0
 11
3398.970589276523
 21
1324.494269174465
 31
0.0
  0
LINE
  5
18CD8
330
18C7A
100
AcDbEntity
  8
部品1
100
AcDbLine
 10
3409.970589276524
 20
1419.494269174465
 30
0.0
 11
3409.970589276524
 21
1388.494269174465
 31
0.0
  0
LINE
  5
18CD9
330
18C7A
100
AcDbEntity
  8
部品1
100
AcDbLine
 10
1322.970589276523
 20
1388.494269174465
 30
0.0
 11
1311.970589276523
 21
1388.494269174465
 31
0.0
  0
LINE
  5
18CDA
330
18C7A
100
AcDbEntity
  8
部品1
100
AcDbLine
 10
1283.970589276523
 20
1392.494269174465
 30
0.0
 11
1311.970589276523
 21
1392.494269174465
 31
0.0
  0
LINE
  5
18CDB
330
18C7A
100
AcDbEntity
  8
部品1
100
AcDbLine
 10
1313.970589276523
 20
1324.494269174465
 30
0.0
 11
1313.970589276523
 21
1315.494269174465
 31
0.0
  0
LINE
  5
18CDC
330
18C7A
100
AcDbEntity
  8
部品1
100
AcDbLine
 10
1322.970589276523
 20
1324.494269174465
 30
0.0
 11
1313.970589276523
 21
1324.494269174465
 31
0.0
  0
LINE
  5
18CDD
330
18C7A
100
AcDbEntity
  8
部品1
100
AcDbLine
 10
1313.970589276523
 20
1315.494269174465
 30
0.0
 11
1283.970589276523
 21
1315.494269174465
 31
0.0
  0
LINE
  5
18CDE
330
18C7A
100
AcDbEntity
  8
部品1
100
AcDbLine
 10
1283.970589276523
 20
1315.494269174465
 30
0.0
 11
1283.970589276523
 21
1392.494269174465
 31
0.0
  0
LINE
  5
18CDF
330
18C7A
100
AcDbEntity
  8
部品1
100
AcDbLine
 10
1322.970589276523
 20
1388.494269174465
 30
0.0
 11
1322.970589276523
 21
1324.494269174465
 31
0.0
  0
LINE
  5
18CE0
330
18C7A
100
AcDbEntity
  8
部品1
100
AcDbLine
 10
1311.970589276523
 20
1419.494269174462
 30
0.0
 11
1311.970589276523
 21
1388.494269174465
 31
0.0
  0
LINE
  5
18CE1
330
18C7A
100
AcDbEntity
  8
部品1
100
AcDbLine
 10
1311.970589276523
 20
1419.494269174462
 30
0.0
 11
3409.970589276524
 21
1419.494269174465
 31
0.0
  0
LINE
  5
18CE2
330
18C7A
100
AcDbEntity
  8
部品1
100
AcDbLine
 10
3407.970589276523
 20
1315.494269174465
 30
0.0
 11
3437.970589276523
 21
1315.494269174465
 31
0.0
  0
LINE
  5
18CE3
330
18C7A
100
AcDbEntity
  8
部品1
100
AcDbLine
 10
1313.970589276523
 20
1315.494269174465
 30
0.0
 11
3410.970589276523
 21
1315.494269174465
 31
0.0
  0
LINE
  5
18CE4
330
18C7A
100
AcDbEntity
  8
細線
  6
Continuous
 62
     5
100
AcDbLine
 10
2689.970589276527
 20
1354.494269174462
 30
0.0
 11
2689.970589276527
 21
1354.494269174462
 31
0.0
  0
LINE
  5
18CE5
330
18C7A
100
AcDbEntity
  8
細線
  6
Continuous
 62
     5
100
AcDbLine
 10
2682.470589276527
 20
1354.494269174462
 30
0.0
 11
2682.470589276527
 21
1354.494269174462
 31
0.0
  0
LINE
  5
18CE6
330
18C7A
100
AcDbEntity
  8
細線
  6
Continuous
 62
     5
100
AcDbLine
 10
2676.470589276527
 20
1354.494269174462
 30
0.0
 11
2676.470589276527
 21
1354.494269174462
 31
0.0
  0
LINE
  5
18CE7
330
18C7A
100
AcDbEntity
  8
細線
  6
Continuous
 62
     5
100
AcDbLine
 10
2743.970589276527
 20
1373.494269174462
 30
0.0
 11
2743.970589276527
 21
1373.494269174462
 31
0.0
  0
LINE
  5
18CE8
330
18C7A
100
AcDbEntity
  8
細線
 48
50.0
100
AcDbLine
 10
1336.970593930116
 20
1341.094443351418
 30
0.0
 11
1336.970593930113
 21
1349.490593759059
 31
0.0
  0
LINE
  5
18CE9
330
18C7A
100
AcDbEntity
  8
細線
 48
50.0
100
AcDbLine
 10
1336.970593930113
 20
1349.490593759059
 30
0.0
 11
1322.970589276523
 21
1349.490593759057
 31
0.0
  0
LINE
  5
18CEA
330
18C7A
100
AcDbEntity
  8
細線
 48
50.0
100
AcDbLine
 10
2087.970593930113
 20
1337.644443351419
 30
0.0
 11
2087.970593930113
 21
1342.494443351421
 31
0.0
  0
LINE
  5
18CEB
330
18C7A
100
AcDbEntity
  8
細線
 48
50.0
100
AcDbLine
 10
2087.970593930113
 20
1342.494443351421
 30
0.0
 11
2102.970593930113
 21
1342.494443351421
 31
0.0
  0
LINE
  5
18CEC
330
18C7A
100
AcDbEntity
  8
細線
 48
50.0
100
AcDbLine
 10
2102.970593930113
 20
1342.494443351421
 30
0.0
 11
2102.970593930115
 21
1349.494443351419
 31
0.0
  0
LINE
  5
18CED
330
18C7A
100
AcDbEntity
  8
細線
 48
50.0
100
AcDbLine
 10
2102.970593930115
 20
1349.494443351419
 30
0.0
 11
2117.970593930113
 21
1349.494443351419
 31
0.0
  0
LINE
  5
18CEE
330
18C7A
100
AcDbEntity
  8
細線
 48
50.0
100
AcDbLine
 10
2117.970593930113
 20
1349.494443351419
 30
0.0
 11
2117.970593930113
 21
1320.494443351421
 31
0.0
  0
LINE
  5
18CEF
330
18C7A
100
AcDbEntity
  8
細線
 48
50.0
100
AcDbLine
 10
1313.970589276523
 20
1320.491777694889
 30
0.0
 11
1527.970593930113
 21
1320.494460905133
 31
0.0
  0
LINE
  5
18CF0
330
18C7A
100
AcDbEntity
  8
細線
 48
50.0
100
AcDbLine
 10
2017.970593930113
 20
1320.494443351421
 30
0.0
 11
2117.970593930113
 21
1320.494443351421
 31
0.0
  0
LINE
  5
18CF1
330
18C7A
100
AcDbEntity
  8
細線
 48
50.0
100
AcDbLine
 10
1737.970593930113
 20
1320.494443351419
 30
0.0
 11
1807.970593930113
 21
1320.494443351423
 31
0.0
  0
LINE
  5
18CF2
330
18C7A
100
AcDbEntity
  8
細線
 48
50.0
100
AcDbLine
 10
1750.832558942642
 20
1320.494443351419
 30
0.0
 11
1756.588076525309
 21
1338.765294641913
 31
0.0
  0
LINE
  5
18CF3
330
18C7A
100
AcDbEntity
  8
細線
 48
50.0
100
AcDbLine
 10
1756.588076525309
 20
1338.765294641913
 30
0.0
 11
1767.516525005743
 21
1338.765294641911
 31
0.0
  0
ARC
  5
18CF4
330
18C7A
100
AcDbEntity
  8
細線
 48
50.0
100
AcDbCircle
 10
1767.516525005743
 20
1337.765294641911
 30
0.0
 40
1.0
100
AcDbArc
 50
24.62431835207225
 51
90.0
  0
ARC
  5
18CF5
330
18C7A
100
AcDbEntity
  8
細線
 48
50.0
100
AcDbCircle
 10
1778.425237120377
 20
1337.765294641911
 30
0.0
 40
1.0
100
AcDbArc
 50
90.0
 51
155.3756816479277
  0
ARC
  5
18CF6
330
18C7A
100
AcDbEntity
  8
細線
 48
50.0
100
AcDbCircle
 10
1772.970881063058
 20
1340.265294641911
 30
0.0
 40
5.0
100
AcDbArc
 50
204.6243183520723
 51
335.3756816479278
  0
LINE
  5
18CF7
330
18C7A
100
AcDbEntity
  8
細線
 48
50.0
100
AcDbLine
 10
1778.425237120377
 20
1338.765294641911
 30
0.0
 11
1789.35368560081
 21
1338.765294641913
 31
0.0
  0
LINE
  5
18CF8
330
18C7A
100
AcDbEntity
  8
細線
 48
50.0
100
AcDbLine
 10
1789.35368560081
 20
1338.765294641913
 30
0.0
 11
1795.109203183478
 21
1320.494443351423
 31
0.0
  0
LINE
  5
18CF9
330
18C7A
100
AcDbEntity
  8
細線
 48
50.0
100
AcDbLine
 10
2087.970593930113
 20
1341.094443351419
 30
0.0
 11
1336.970593930116
 21
1341.094443351418
 31
0.0
  0
LINE
  5
18CFA
330
18C7A
100
AcDbEntity
  8
細線
 48
50.0
100
AcDbLine
 10
1947.970593930113
 20
1320.494443351421
 30
0.0
 11
1877.970593930113
 21
1320.494443351421
 31
0.0
  0
LINE
  5
18CFB
330
18C7A
100
AcDbEntity
  8
細線
100
AcDbLine
 10
1667.970593930113
 20
1320.494443351421
 30
0.0
 11
1597.970602115529
 21
1320.494443351421
 31
0.0
  0
LINE
  5
18CFC
330
18C7A
100
AcDbEntity
  8
細線
 48
50.0
100
AcDbLine
 10
2741.970584622936
 20
1375.094487209288
 30
0.0
 11
2106.970593930113
 21
1375.094487209284
 31
0.0
  0
LINE
  5
18CFD
330
18C7A
100
AcDbEntity
  8
細線
 48
50.0
100
AcDbLine
 10
2106.970593930113
 20
1371.990637616925
 30
0.0
 11
2106.970593930113
 21
1376.490637616925
 31
0.0
  0
LINE
  5
18CFE
330
18C7A
100
AcDbEntity
  8
細線
 48
50.0
100
AcDbLine
 10
2106.970593930113
 20
1376.490637616925
 30
0.0
 11
2091.970593930113
 21
1376.490637616925
 31
0.0
  0
LINE
  5
18CFF
330
18C7A
100
AcDbEntity
  8
細線
 48
50.0
100
AcDbLine
 10
2091.970593930113
 20
1376.490637616925
 30
0.0
 11
2091.970593930113
 21
1383.490637616927
 31
0.0
  0
LINE
  5
18D00
330
18C7A
100
AcDbEntity
  8
細線
 48
50.0
100
AcDbLine
 10
2091.970593930113
 20
1383.490637616927
 30
0.0
 11
2076.970593930115
 21
1383.490637616924
 31
0.0
  0
LINE
  5
18D01
330
18C7A
100
AcDbEntity
  8
細線
 48
50.0
100
AcDbLine
 10
2076.970593930115
 20
1383.490637616924
 30
0.0
 11
2076.970593930115
 21
1345.890409513813
 31
0.0
  0
LINE
  5
18D02
330
18C7A
100
AcDbEntity
  8
細線
 48
50.0
100
AcDbLine
 10
2076.970593930115
 20
1345.890409513813
 30
0.0
 11
2096.970601231289
 21
1345.890451063353
 31
0.0
  0
LINE
  5
18D03
330
18C7A
100
AcDbEntity
  8
細線
 48
50.0
100
AcDbLine
 10
2096.970556362348
 20
1354.493912699161
 30
0.0
 11
2096.970601231289
 21
1345.890451063353
 31
0.0
  0
LINE
  5
18D04
330
18C7A
100
AcDbEntity
  8
細線
 48
50.0
100
AcDbLine
 10
2741.970584622936
 20
1371.644487209287
 30
0.0
 11
2741.970584622936
 21
1376.494487209284
 31
0.0
  0
LINE
  5
18D05
330
18C7A
100
AcDbEntity
  8
細線
 48
50.0
100
AcDbLine
 10
2741.970584622936
 20
1376.494487209284
 30
0.0
 11
2756.970584622934
 21
1376.494487209285
 31
0.0
  0
LINE
  5
18D06
330
18C7A
100
AcDbEntity
  8
細線
 48
50.0
100
AcDbLine
 10
2756.970584622934
 20
1376.494487209285
 30
0.0
 11
2756.970596256909
 21
1383.494487209331
 31
0.0
  0
LINE
  5
18D07
330
18C7A
100
AcDbEntity
  8
細線
 48
50.0
100
AcDbLine
 10
2756.970596256909
 20
1383.494487209331
 30
0.0
 11
2771.970594427439
 21
1383.494487209329
 31
0.0
  0
LINE
  5
18D08
330
18C7A
100
AcDbEntity
  8
細線
 48
50.0
100
AcDbLine
 10
2771.970594427439
 20
1383.494487209329
 30
0.0
 11
2771.970584125617
 21
1354.494281037055
 31
0.0
  0
LINE
  5
18D09
330
18C7A
100
AcDbEntity
  8
細線
 48
50.0
100
AcDbLine
 10
2458.070304175992
 20
1354.494278397076
 30
0.0
 11
2389.470863838818
 21
1354.494283787084
 31
0.0
  0
LINE
  5
18D0A
330
18C7A
100
AcDbEntity
  8
細線
 48
50.0
100
AcDbLine
 10
2096.970556362348
 20
1354.493912699161
 30
0.0
 11
2108.203245717057
 21
1354.494095652309
 31
0.0
  0
ARC
  5
18D0B
330
18C7A
100
AcDbEntity
  8
細線
 48
50.0
100
AcDbCircle
 10
2114.785538024393
 20
1353.294259565922
 30
0.0
 40
1.8
100
AcDbArc
 50
270.0006665777295
 51
345.000555481349
  0
LINE
  5
18D0C
330
18C7A
100
AcDbEntity
  8
細線
 48
50.0
100
AcDbLine
 10
2116.771971470473
 20
1353.753100023201
 30
0.0
 11
2116.524209028273
 21
1352.828402141094
 31
0.0
  0
LINE
  5
18D0D
330
18C7A
100
AcDbEntity
  8
細線
 48
50.0
100
AcDbLine
 10
2114.785558965548
 20
1351.494259566043
 30
0.0
 11
2111.155631546781
 21
1351.494217335563
 31
0.0
  0
ARC
  5
18D0E
330
18C7A
100
AcDbEntity
  8
細線
 48
50.0
100
AcDbCircle
 10
2111.155610605627
 20
1353.29421733544
 30
0.0
 40
1.8
100
AcDbArc
 50
195.0010443049965
 51
270.0006665777295
  0
LINE
  5
18D0F
330
18C7A
100
AcDbEntity
  8
細線
 48
50.0
100
AcDbLine
 10
2109.169183113368
 20
1353.752932303007
 30
0.0
 11
2109.416952609882
 21
1352.828311364425
 31
0.0
  0
ARC
  5
18D10
330
18C7A
100
AcDbEntity
  8
細線
 48
50.0
100
AcDbCircle
 10
2108.203262004622
 20
1353.494095652444
 30
0.0
 40
1.0
100
AcDbArc
 50
15.00104430499651
 51
90.00093320877969
  0
LINE
  5
18D11
330
18C7A
100
AcDbEntity
  8
細線
 48
50.0
100
AcDbLine
 10
2117.737892825577
 20
1354.494290342714
 30
0.0
 11
2118.679652976481
 21
1354.494296916564
 31
0.0
  0
ARC
  5
18D12
330
18C7A
100
AcDbEntity
  8
細線
 48
50.0
100
AcDbCircle
 10
2117.737899805961
 20
1353.49429034274
 30
0.0
 40
1.0
100
AcDbArc
 50
90.0003999466794
 51
165.000555481349
  0
LINE
  5
18D13
330
18C7A
100
AcDbEntity
  8
細線
 48
50.0
100
AcDbLine
 10
2669.470584622926
 20
1354.494281037055
 30
0.0
 11
2771.970584125617
 21
1354.494281037055
 31
0.0
  0
LINE
  5
18D14
330
18C7A
100
AcDbEntity
  8
細線
 48
50.0
100
AcDbLine
 10
2179.47061994182
 20
1354.494289224422
 30
0.0
 11
2118.370558714898
 21
1354.494296916564
 31
0.0
  0
LINE
  5
18D15
330
18C7A
100
AcDbEntity
  8
細線
 48
50.0
100
AcDbLine
 10
2599.470584622926
 20
1354.494281037057
 30
0.0
 11
2529.470584622926
 21
1354.494281037055
 31
0.0
  0
LINE
  5
18D16
330
18C7A
100
AcDbEntity
  8
細線
 48
50.0
100
AcDbLine
 10
2319.470584622926
 20
1354.494281037054
 30
0.0
 11
2249.470567335051
 21
1354.494281037057
 31
0.0
  0
ARC
  5
18D17
330
18C7A
100
AcDbEntity
  8
細線
 48
50.0
100
AcDbCircle
 10
2756.170589276533
 20
1387.694269174466
 30
0.0
 40
0.8
100
AcDbArc
 50
359.9997333689499
 51
89.99986668437072
  0
ARC
  5
18D18
330
18C7A
100
AcDbEntity
  8
細線
 48
50.0
100
AcDbCircle
 10
2763.770596101631
 20
1387.694280343081
 30
0.0
 40
0.8
100
AcDbArc
 50
90.00014387753465
 51
179.9997333689498
  0
LINE
  5
18D19
330
18C7A
100
AcDbEntity
  8
細線
 48
50.0
100
AcDbLine
 10
2756.170591137969
 20
1388.494269174465
 30
0.0
 11
2750.970589276525
 21
1388.494269174465
 31
0.0
  0
ARC
  5
18D1A
330
18C7A
100
AcDbEntity
  8
細線
 48
50.0
100
AcDbCircle
 10
2757.670589276524
 20
1386.194269174464
 30
0.0
 40
0.7
100
AcDbArc
 50
180.0
 51
270.0
  0
ARC
  5
18D1B
330
18C7A
100
AcDbEntity
  8
細線
 48
50.0
100
AcDbCircle
 10
2762.270589276524
 20
1386.194269174464
 30
0.0
 40
0.7
100
AcDbArc
 50
270.0
 51
0.0
  0
LINE
  5
18D1C
330
18C7A
100
AcDbEntity
  8
細線
 48
50.0
100
AcDbLine
 10
2762.970589276525
 20
1386.194269174464
 30
0.0
 11
2762.970596101639
 21
1387.694284065954
 31
0.0
  0
LINE
  5
18D1D
330
18C7A
100
AcDbEntity
  8
細線
 48
50.0
100
AcDbLine
 10
2757.670589276524
 20
1385.494269174465
 30
0.0
 11
2762.270589276524
 21
1385.494269174465
 31
0.0
  0
LINE
  5
18D1E
330
18C7A
100
AcDbEntity
  8
細線
 48
50.0
100
AcDbLine
 10
2756.970589276525
 20
1387.694269174466
 30
0.0
 11
2756.970589276525
 21
1386.194269174464
 31
0.0
  0
LINE
  5
18D1F
330
18C7A
100
AcDbEntity
  8
細線
 48
50.0
100
AcDbLine
 10
3382.570589276527
 20
1418.494269174465
 30
0.0
 11
2745.970589276525
 21
1418.494269174463
 31
0.0
  0
LINE
  5
18D20
330
18C7A
100
AcDbEntity
  8
細線
 48
50.0
100
AcDbLine
 10
3408.470589276525
 20
1413.494269174467
 30
0.0
 11
3392.570589276527
 21
1413.494269174465
 31
0.0
  0
LINE
  5
18D21
330
18C7A
100
AcDbEntity
  8
細線
 48
50.0
100
AcDbLine
 10
3392.570589276526
 20
1413.494269174465
 30
0.0
 11
3382.570589276527
 21
1418.494269174465
 31
0.0
  0
LINE
  5
18D22
330
18C7A
100
AcDbEntity
  8
細線
100
AcDbLine
 10
2993.470589276525
 20
1388.494269174465
 30
0.0
 11
2993.470589276525
 21
1417.794269174464
 31
0.0
  0
LINE
  5
18D23
330
18C7A
100
AcDbEntity
  8
細線
100
AcDbLine
 10
2993.470589276525
 20
1417.794269174464
 30
0.0
 11
3013.470589276525
 21
1417.794269174464
 31
0.0
  0
LINE
  5
18D24
330
18C7A
100
AcDbEntity
  8
細線
100
AcDbLine
 10
3013.470589276525
 20
1388.494269174465
 30
0.0
 11
3013.470589276525
 21
1417.794269174464
 31
0.0
  0
LINE
  5
18D25
330
18C7A
100
AcDbEntity
  8
細線
100
AcDbLine
 10
3170.720589276524
 20
1388.494269174465
 30
0.0
 11
3100.720589276523
 21
1388.494269174465
 31
0.0
  0
LINE
  5
18D26
330
18C7A
100
AcDbEntity
  8
細線
 48
50.0
100
AcDbLine
 10
2890.720589276525
 20
1388.494269174465
 30
0.0
 11
2763.766368849365
 21
1388.494269174465
 31
0.0
  0
LINE
  5
18D27
330
18C7A
100
AcDbEntity
  8
細線
100
AcDbLine
 10
3030.720589276525
 20
1388.494269174465
 30
0.0
 11
2960.720589276525
 21
1388.494269174465
 31
0.0
  0
LINE
  5
18D28
330
18C7A
100
AcDbEntity
  8
細線
 48
50.0
100
AcDbLine
 10
2750.970589276525
 20
1380.494269174465
 30
0.0
 11
2750.970589276525
 21
1388.494269174465
 31
0.0
  0
LINE
  5
18D29
330
18C7A
100
AcDbEntity
  8
細線
 48
50.0
100
AcDbLine
 10
2730.970589276524
 20
1380.494269174467
 30
0.0
 11
2750.970589276525
 21
1380.494269174465
 31
0.0
  0
LINE
  5
18D2A
330
18C7A
100
AcDbEntity
  8
細線
 48
50.0
100
AcDbLine
 10
2745.970589276525
 20
1418.494269174465
 30
0.0
 11
2745.970589276525
 21
1413.494269174465
 31
0.0
  0
LINE
  5
18D2B
330
18C7A
100
AcDbEntity
  8
細線
 48
50.0
100
AcDbLine
 10
2730.970589276525
 20
1418.494269174463
 30
0.0
 11
2745.970589276525
 21
1418.494269174465
 31
0.0
  0
LINE
  5
18D2C
330
18C7A
100
AcDbEntity
  8
細線
 48
50.0
100
AcDbLine
 10
2730.970589276524
 20
1380.494269174467
 30
0.0
 11
2730.970589276525
 21
1418.494269174463
 31
0.0
  0
LINE
  5
18D2D
330
18C7A
100
AcDbEntity
  8
細線
100
AcDbLine
 10
3398.970589276523
 20
1388.494269174465
 30
0.0
 11
3240.720589276525
 21
1388.494269174465
 31
0.0
  0
LINE
  5
18D2E
330
18C7A
100
AcDbEntity
  8
細線
 48
50.0
100
AcDbLine
 10
3408.470589276525
 20
1413.494269174467
 30
0.0
 11
3408.470589276524
 21
1388.494269174465
 31
0.0
  0
TEXT
  5
18D2F
330
18C7A
100
AcDbEntity
  8
部品1
100
AcDbText
 10
1860.154865991392
 20
46.99880823813145
 30
0.0
 40
135.0
  1
平面図
  7
STYLE2
100
AcDbText
  0
LWPOLYLINE
  5
18D30
330
18C7A
100
AcDbEntity
  8
部品1
100
AcDbPolyline
 90
        4
 70
     1
 43
0.0
 10
1770.23525616235
 20
239.8923374566548
 10
1770.23525616235
 20
0.0000159111223184
 10
2533.705922390791
 20
0.0000159111223184
 10
2533.705922390791
 20
239.8923374566548
  0
LINE
  5
18D31
330
18C7A
100
AcDbEntity
  8
部品1
100
AcDbLine
 10
1534.470589276487
 20
3154.494269174626
 30
0.0
 11
2769.470589276552
 21
3154.494269174626
 31
0.0
  0
LINE
  5
18D32
330
18C7A
100
AcDbEntity
  8
部品1
 48
50.0
100
AcDbLine
 10
1311.970589276523
 20
1420.494269174462
 30
0.0
 11
3411.970589276523
 21
1420.494269174465
 31
0.0
  0
LINE
  5
18D33
330
18C7A
100
AcDbEntity
  8
部品1
 48
50.0
100
AcDbLine
 10
471.9705892765232
 20
1392.494269174465
 30
0.0
 11
1311.970589276523
 21
1392.494269174465
 31
0.0
  0
DIMENSION
  5
18D34
330
18C7A
100
AcDbEntity
  8
寸法
100
AcDbDimension
  2
*D14
 10
2710.234916278077
 20
2488.887829538828
 30
0.0
 11
2338.318822490183
 21
2488.887829538828
 31
0.0
 12
-3742.925985830444
 22
-6453.628869860112
 32
0.0
 70
   128
 71
     5
 42
1231.00000000007
  3
INABA_S40G
100
AcDbAlignedDimension
 13
1536.470589276486
 23
2702.494269174557
 33
0.0
 14
2767.470589276556
 24
2702.494269174549
 34
0.0
100
AcDbRotatedDimension
1001
ACAD
1000
DSTYLE
1002
{
1002
}
  0
LINE
  5
18D35
330
18C7A
100
AcDbEntity
  8
部品1
100
AcDbLine
 10
1536.470589276487
 20
2702.494269174557
 30
0.0
 11
2767.470589276554
 21
2702.494269174615
 31
0.0
  0
LINE
  5
18D36
330
18C7A
100
AcDbEntity
  8
部品1
100
AcDbLine
 10
1536.470589276487
 20
3152.494269174557
 30
0.0
 11
2767.470589276556
 21
3152.494269174615
 31
0.0
  0
LINE
  5
18D37
330
18C7A
100
AcDbEntity
  8
細線
 48
50.0
100
AcDbLine
 10
1508.470589276487
 20
3152.494269174558
 30
0.0
 11
445.4705892765559
 21
2702.494269174509
 31
0.0
  0
LINE
  5
18D38
330
18C7A
100
AcDbEntity
  8
細線
 48
50.0
100
AcDbLine
 10
1508.470589276487
 20
2702.494269174558
 30
0.0
 11
445.4705892765542
 21
3152.494269174509
 31
0.0
  0
LINE
  5
18D39
330
18C7A
100
AcDbEntity
  8
部品1
100
AcDbLine
 10
1556.970589276487
 20
3172.494269174611
 30
0.0
 11
1556.970589276487
 21
3154.494269174611
 31
0.0
  0
LINE
  5
18D3A
330
18C7A
100
AcDbEntity
  8
部品1
100
AcDbLine
 10
1556.970589276487
 20
3172.494269174611
 30
0.0
 11
1550.970589276487
 21
3172.494269174611
 31
0.0
  0
LINE
  5
18D3B
330
18C7A
100
AcDbEntity
  8
部品1
100
AcDbLine
 10
1534.470589276487
 20
3146.494269174608
 30
0.0
 11
1509.470589276487
 21
3146.494269174611
 31
0.0
  0
LINE
  5
18D3C
330
18C7A
100
AcDbEntity
  8
部品1
100
AcDbLine
 10
1486.970589276487
 20
3172.494269174611
 30
0.0
 11
1486.970589276487
 21
3154.494269174611
 31
0.0
  0
LINE
  5
18D3D
330
18C7A
100
AcDbEntity
  8
部品1
100
AcDbLine
 10
1492.970589276487
 20
3172.494269174611
 30
0.0
 11
1486.970589276487
 21
3172.494269174611
 31
0.0
  0
LINE
  5
18D3E
330
18C7A
100
AcDbEntity
  8
部品1
100
AcDbLine
 10
1534.470589276487
 20
2702.494269174615
 30
0.0
 11
1509.470589276487
 21
2702.494269174615
 31
0.0
  0
LINE
  5
18D3F
330
18C7A
100
AcDbEntity
  8
部品1
 48
50.0
100
AcDbLine
 10
1536.470589276487
 20
3152.494269174611
 30
0.0
 11
1536.470589276487
 21
2702.494269174615
 31
0.0
  0
LINE
  5
18D40
330
18C7A
100
AcDbEntity
  8
部品1
 48
50.0
100
AcDbLine
 10
1508.470589276487
 20
3152.494269174607
 30
0.0
 11
1508.470589276487
 21
2702.494269174615
 31
0.0
  0
LINE
  5
18D41
330
18C7A
100
AcDbEntity
  8
部品1
 48
50.0
100
AcDbLine
 10
1534.470589276487
 20
3154.494269174618
 30
0.0
 11
1534.470589276487
 21
2702.494269174615
 31
0.0
  0
LINE
  5
18D42
330
18C7A
100
AcDbEntity
  8
部品1
 48
50.0
100
AcDbLine
 10
1509.470589276487
 20
3154.494269174615
 30
0.0
 11
1509.470589276487
 21
2702.494269174615
 31
0.0
  0
LINE
  5
18D43
330
18C7A
100
AcDbEntity
  8
部品1
100
AcDbLine
 10
3411.970589276556
 20
1392.494269174582
 30
0.0
 11
3411.970589276556
 21
1420.494269174596
 31
0.0
  0
LINE
  5
18D44
330
18C7A
100
AcDbEntity
  8
部品1
100
AcDbLine
 10
1311.970589276523
 20
1392.494269174596
 30
0.0
 11
1311.970589276523
 21
1420.494269174596
 31
0.0
  0
LINE
  5
18D45
330
18C7A
100
AcDbEntity
  8
部品1
100
AcDbLine
 10
891.9705892765232
 20
1392.494269174596
 30
0.0
 11
891.9705892765232
 21
1420.494269174596
 31
0.0
  0
LINE
  5
18D46
330
18C7A
100
AcDbEntity
  8
部品1
100
AcDbLine
 10
3411.97058927652
 20
3182.494269174477
 30
0.0
 11
3411.970589276523
 21
3154.494269174477
 31
0.0
  0
LINE
  5
18D47
330
18C7A
100
AcDbEntity
  8
部品1
100
AcDbLine
 10
2571.97058927652
 20
3182.494269174477
 30
0.0
 11
2571.970589276523
 21
3154.494269174477
 31
0.0
  0
LINE
  5
18D48
330
18C7A
100
AcDbEntity
  8
部品1
100
AcDbLine
 10
2991.97058927652
 20
3182.494269174477
 30
0.0
 11
2991.970589276523
 21
3154.494269174477
 31
0.0
  0
LINE
  5
18D49
330
18C7A
100
AcDbEntity
  8
部品1
100
AcDbLine
 10
2151.970589276519
 20
3182.494269174477
 30
0.0
 11
2151.970589276523
 21
3154.494269174477
 31
0.0
  0
LINE
  5
18D4A
330
18C7A
100
AcDbEntity
  8
部品1
100
AcDbLine
 10
1731.970589276519
 20
3182.494269174477
 30
0.0
 11
1731.970589276523
 21
3154.494269174477
 31
0.0
  0
LINE
  5
18D4B
330
18C7A
100
AcDbEntity
  8
部品1
100
AcDbLine
 10
1311.970589276519
 20
3182.494269174477
 30
0.0
 11
1311.970589276523
 21
3154.494269174477
 31
0.0
  0
LINE
  5
18D4C
330
18C7A
100
AcDbEntity
  8
部品1
100
AcDbLine
 10
891.9705892765195
 20
3182.494269174477
 30
0.0
 11
891.9705892765232
 21
3154.494269174477
 31
0.0
  0
LINE
  5
18D4D
330
18C7A
100
AcDbEntity
  8
部品1
100
AcDbLine
 10
471.9705892765232
 20
1392.494269174596
 30
0.0
 11
471.9705892765232
 21
1420.494269174596
 31
0.0
  0
LINE
  5
18D4E
330
18C7A
100
AcDbEntity
  8
部品1
100
AcDbLine
 10
444.9705892765305
 20
1420.494269174558
 30
0.0
 11
3858.970589276556
 21
1420.494269174596
 31
0.0
  0
LINE
  5
18D4F
330
18C7A
100
AcDbEntity
  8
部品1
100
AcDbLine
 10
3831.970589276556
 20
1392.494269174596
 30
0.0
 11
3831.970589276556
 21
1420.494269174596
 31
0.0
  0
LINE
  5
18D50
330
18C7A
100
AcDbEntity
  8
部品1
100
AcDbLine
 10
3858.970589276556
 20
1447.494269174593
 30
0.0
 11
3886.970589276556
 21
1447.494269174593
 31
0.0
  0
LINE
  5
18D51
330
18C7A
100
AcDbEntity
  8
部品1
100
AcDbLine
 10
3858.970589276556
 20
1867.494269174607
 30
0.0
 11
3886.970589276556
 21
1867.494269174607
 31
0.0
  0
LINE
  5
18D52
330
18C7A
100
AcDbEntity
  8
部品1
100
AcDbLine
 10
444.9705892765305
 20
1867.49426917448
 30
0.0
 11
416.9705892765305
 21
1867.49426917448
 31
0.0
  0
LINE
  5
18D53
330
18C7A
100
AcDbEntity
  8
部品1
100
AcDbLine
 10
3830.470589276541
 20
1867.49426917458
 30
0.0
 11
473.4705892765396
 21
1867.49426917448
 31
0.0
  0
LINE
  5
18D54
330
18C7A
100
AcDbEntity
  8
部品1
100
AcDbLine
 10
3830.470589276541
 20
2287.49426917458
 30
0.0
 11
473.4705892765396
 21
2287.49426917448
 31
0.0
  0
LINE
  5
18D55
330
18C7A
100
AcDbEntity
  8
部品1
100
AcDbLine
 10
444.9705892765305
 20
2287.49426917448
 30
0.0
 11
416.9705892765305
 21
2287.49426917448
 31
0.0
  0
LINE
  5
18D56
330
18C7A
100
AcDbEntity
  8
部品1
100
AcDbLine
 10
3858.970589276556
 20
2287.494269174608
 30
0.0
 11
3886.970589276556
 21
2287.494269174608
 31
0.0
  0
LINE
  5
18D57
330
18C7A
100
AcDbEntity
  8
部品1
 48
50.0
100
AcDbLine
 10
2151.970589276551
 20
2702.494269174586
 30
0.0
 11
2151.970589276581
 21
1448.994269174494
 31
0.0
  0
LINE
  5
18D58
330
18C7A
100
AcDbEntity
  8
破線
 48
10.0
100
AcDbLine
 10
2959.470589276535
 20
1472.494269174522
 30
0.0
 11
2176.970589276532
 21
1472.494269174505
 31
0.0
  0
LINE
  5
18D59
330
18C7A
100
AcDbEntity
  8
破線
 48
10.0
100
AcDbLine
 10
3009.47058927653
 20
1448.994269174509
 30
0.0
 11
3009.47058927653
 21
2702.494269174615
 31
0.0
  0
LINE
  5
18D5A
330
18C7A
100
AcDbEntity
  8
破線
 48
10.0
100
AcDbLine
 10
2959.470589276535
 20
1448.994269174505
 30
0.0
 11
2959.470589276531
 21
2702.494269174615
 31
0.0
  0
LINE
  5
18D5B
330
18C7A
100
AcDbEntity
  8
破線
 48
10.0
100
AcDbLine
 10
1344.47058927653
 20
1448.994269174509
 30
0.0
 11
1344.47058927653
 21
2702.494269174615
 31
0.0
  0
LINE
  5
18D5C
330
18C7A
100
AcDbEntity
  8
破線
 48
10.0
100
AcDbLine
 10
1294.470589276534
 20
1448.994269174505
 30
0.0
 11
1294.47058927653
 21
2702.494269174615
 31
0.0
  0
DIMENSION
  5
18D5D
330
18C7A
100
AcDbEntity
  8
寸法
100
AcDbDimension
  2
*D13
 10
1451.234916278005
 20
2488.887829538828
 30
0.0
 11
916.0604668248634
 21
2488.887829538828
 31
0.0
 12
-3742.925985830444
 22
-6453.628869860112
 32
0.0
 70
   128
 71
     5
 42
1062.99999999993
  3
INABA_S40G
100
AcDbAlignedDimension
 13
445.4705892765559
 23
2702.494269174505
 33
0.0
 14
1508.470589276486
 24
2702.494269174558
 34
0.0
100
AcDbRotatedDimension
1001
ACAD
1000
DSTYLE
1002
{
1002
}
  0
LINE
  5
18D5E
330
18C7A
100
AcDbEntity
  8
破線
 48
10.0
100
AcDbLine
 10
1294.470589276534
 20
1472.494269174469
 30
0.0
 11
496.9705892765414
 21
1472.494269174476
 31
0.0
  0
LINE
  5
18D5F
330
18C7A
100
AcDbEntity
  8
部品1
100
AcDbLine
 10
3831.970589276556
 20
3182.494269174604
 30
0.0
 11
3831.970589276556
 21
3154.494269174604
 31
0.0
  0
LINE
  5
18D60
330
18C7A
100
AcDbEntity
  8
部品1
100
AcDbLine
 10
3831.970589276556
 20
3182.494269174626
 30
0.0
 11
3831.970589276556
 21
3154.494269174626
 31
0.0
  0
LINE
  5
18D61
330
18C7A
100
AcDbEntity
  8
部品1
100
AcDbLine
 10
3858.970589276556
 20
3127.494269174607
 30
0.0
 11
3886.970589276556
 21
3127.494269174607
 31
0.0
  0
LINE
  5
18D62
330
18C7A
100
AcDbEntity
  8
部品1
100
AcDbLine
 10
3858.970589276556
 20
2707.494269174608
 30
0.0
 11
3886.970589276556
 21
2707.494269174608
 31
0.0
  0
LINE
  5
18D63
330
18C7A
100
AcDbEntity
  8
部品1
100
AcDbLine
 10
3858.470589276556
 20
3152.494269174604
 30
0.0
 11
3858.470589276556
 21
2702.494269174608
 31
0.0
  0
LINE
  5
18D64
330
18C7A
100
AcDbEntity
  8
部品1
100
AcDbLine
 10
3886.970589276533
 20
1447.494269174593
 30
0.0
 11
3886.970589276531
 21
1392.494269174596
 31
0.0
  0
LINE
  5
18D65
330
18C7A
100
AcDbEntity
  8
部品1
 48
50.0
100
AcDbLine
 10
3830.470589276556
 20
1448.994269174596
 30
0.0
 11
3858.970589276554
 21
1420.494269174596
 31
0.0
  0
LINE
  5
18D66
330
18C7A
100
AcDbEntity
  8
部品1
100
AcDbLine
 10
3886.970589276531
 20
1392.494269174596
 30
0.0
 11
3835.970589276531
 21
1392.494269174596
 31
0.0
  0
LINE
  5
18D67
330
18C7A
100
AcDbEntity
  8
部品1
100
AcDbLine
 10
3858.970589276533
 20
1447.494269174593
 30
0.0
 11
3886.970589276531
 21
1447.494269174593
 31
0.0
  0
LINE
  5
18D68
330
18C7A
100
AcDbEntity
  8
部品1
100
AcDbLine
 10
3886.970589276556
 20
3182.494269174604
 30
0.0
 11
3886.970589276531
 21
1392.494269174596
 31
0.0
  0
DIMENSION
  5
18D69
330
18C7A
100
AcDbEntity
  8
寸法
100
AcDbDimension
  2
*D12
 10
4534.396935010967
 20
1447.494269174593
 30
0.0
 11
4534.396935010965
 21
2287.4942691746
 31
0.0
 12
-3742.925985830444
 22
-6453.628869860112
 32
0.0
 70
   128
  1
4X420=<>
 71
     5
 42
1680.000000000014
  3
INABA_S40G
100
AcDbAlignedDimension
 13
3886.970589276556
 23
3127.494269174607
 33
0.0
 14
3886.970589276531
 24
1447.494269174593
 34
0.0
 50
90.0
100
AcDbRotatedDimension
1001
ACAD
1000
DSTYLE
1002
{
1002
}
  0
LINE
  5
18D6A
330
18C7A
100
AcDbEntity
  8
部品1
100
AcDbLine
 10
3858.970589276556
 20
3154.494269174604
 30
0.0
 11
3858.970589276534
 21
1420.494269174596
 31
0.0
  0
DIMENSION
  5
18D6B
330
18C7A
100
AcDbEntity
  8
寸法
100
AcDbDimension
  2
*D11
 10
4213.82831513858
 20
2607.276453505718
 30
0.0
 11
4113.828315138579
 21
2832.276453505718
 31
0.0
 12
-3742.925985830444
 22
-6453.628869860112
 32
0.0
 71
     5
 42
449.9999999999963
  3
INABA_S40G
100
AcDbAlignedDimension
 13
3858.470589276556
 23
3152.494269174604
 33
0.0
 14
3858.470589276556
 24
2702.494269174608
 34
0.0
 50
90.0
100
AcDbRotatedDimension
1001
ACAD
1000
DSTYLE
1002
{
1002
}
  0
LINE
  5
18D6C
330
18C7A
100
AcDbEntity
  8
部品1
100
AcDbLine
 10
3830.470589276547
 20
2702.494269174608
 30
0.0
 11
3830.470589276556
 21
1448.994269174596
 31
0.0
  0
LINE
  5
18D6D
330
18C7A
100
AcDbEntity
  8
破線
 48
10.0
100
AcDbLine
 10
3806.970589276549
 20
2702.494269174608
 30
0.0
 11
3806.970589276558
 21
1472.494269174593
 31
0.0
  0
LINE
  5
18D6E
330
18C7A
100
AcDbEntity
  8
部品1
100
AcDbLine
 10
2769.470589276556
 20
3146.494269174608
 30
0.0
 11
2794.470589276556
 21
3146.494269174611
 31
0.0
  0
LINE
  5
18D6F
330
18C7A
100
AcDbEntity
  8
部品1
100
AcDbLine
 10
2810.970589276556
 20
3172.494269174611
 30
0.0
 11
2816.970589276556
 21
3172.494269174611
 31
0.0
  0
LINE
  5
18D70
330
18C7A
100
AcDbEntity
  8
部品1
100
AcDbLine
 10
2816.970589276556
 20
3172.494269174611
 30
0.0
 11
2816.970589276556
 21
3154.494269174611
 31
0.0
  0
LINE
  5
18D71
330
18C7A
100
AcDbEntity
  8
部品1
100
AcDbLine
 10
2746.970589276556
 20
3172.494269174611
 30
0.0
 11
2752.970589276556
 21
3172.494269174611
 31
0.0
  0
LINE
  5
18D72
330
18C7A
100
AcDbEntity
  8
部品1
100
AcDbLine
 10
2746.970589276556
 20
3172.494269174611
 30
0.0
 11
2746.970589276556
 21
3154.494269174611
 31
0.0
  0
LINE
  5
18D73
330
18C7A
100
AcDbEntity
  8
部品1
100
AcDbLine
 10
2769.470589276556
 20
2702.494269174615
 30
0.0
 11
2794.470589276556
 21
2702.494269174615
 31
0.0
  0
LINE
  5
18D74
330
18C7A
100
AcDbEntity
  8
部品1
 48
50.0
100
AcDbLine
 10
2794.470589276556
 20
3154.494269174615
 30
0.0
 11
2794.470589276556
 21
2702.494269174615
 31
0.0
  0
LINE
  5
18D75
330
18C7A
100
AcDbEntity
  8
部品1
 48
50.0
100
AcDbLine
 10
2769.470589276554
 20
3154.494269174618
 30
0.0
 11
2769.470589276556
 21
2702.494269174615
 31
0.0
  0
LINE
  5
18D76
330
18C7A
100
AcDbEntity
  8
部品1
 48
50.0
100
AcDbLine
 10
2795.470589276556
 20
3152.494269174607
 30
0.0
 11
2795.470589276556
 21
2702.494269174615
 31
0.0
  0
LINE
  5
18D77
330
18C7A
100
AcDbEntity
  8
部品1
 48
50.0
100
AcDbLine
 10
2767.470589276556
 20
3152.494269174611
 30
0.0
 11
2767.470589276556
 21
2702.494269174615
 31
0.0
  0
LINE
  5
18D78
330
18C7A
100
AcDbEntity
  8
破線
 48
10.0
100
AcDbLine
 10
2176.97058927653
 20
1448.994269174509
 30
0.0
 11
2176.97058927653
 21
2702.494269174588
 31
0.0
  0
LINE
  5
18D79
330
18C7A
100
AcDbEntity
  8
破線
 48
10.0
100
AcDbLine
 10
2126.970589276534
 20
1448.994269174505
 30
0.0
 11
2126.970589276531
 21
2702.494269174586
 31
0.0
  0
LINE
  5
18D7A
330
18C7A
100
AcDbEntity
  8
部品1
100
AcDbLine
 10
2794.470589276556
 20
3154.494269174622
 30
0.0
 11
3858.970589276556
 21
3154.494269174604
 31
0.0
  0
LINE
  5
18D7B
330
18C7A
100
AcDbEntity
  8
細線
 48
50.0
100
AcDbLine
 10
3858.470589276556
 20
2702.494269174608
 30
0.0
 11
2795.470589276556
 21
3152.494269174607
 31
0.0
  0
LINE
  5
18D7C
330
18C7A
100
AcDbEntity
  8
部品1
100
AcDbLine
 10
2795.470589276555
 20
2702.494269174615
 30
0.0
 11
3858.470589276556
 21
2702.494269174608
 31
0.0
  0
LINE
  5
18D7D
330
18C7A
100
AcDbEntity
  8
部品1
100
AcDbLine
 10
2795.470589276556
 20
3152.494269174611
 30
0.0
 11
3858.470589276556
 21
3152.494269174604
 31
0.0
  0
LINE
  5
18D7E
330
18C7A
100
AcDbEntity
  8
細線
 48
50.0
100
AcDbLine
 10
3858.470589276556
 20
3152.494269174604
 30
0.0
 11
2795.470589276555
 21
2702.494269174615
 31
0.0
  0
DIMENSION
  5
18D7F
330
18C7A
100
AcDbEntity
  8
寸法
100
AcDbDimension
  2
*D10
 10
3801.234916278101
 20
2488.887829538937
 30
0.0
 11
3318.360544398907
 21
2488.887829538937
 31
0.0
 12
-3742.925985830444
 22
-6453.628869860112
 32
0.0
 70
   128
 71
     5
 42
1063.000000000012
  3
INABA_S40G
100
AcDbAlignedDimension
 13
2795.470589276555
 23
2702.494269174615
 33
0.0
 14
3858.470589276567
 24
2702.494269174608
 34
0.0
100
AcDbRotatedDimension
1001
ACAD
1000
DSTYLE
1002
{
1002
}
  0
LINE
  5
18D80
330
18C7A
100
AcDbEntity
  8
破線
 48
10.0
100
AcDbLine
 10
3806.970589276556
 20
1472.494269174594
 30
0.0
 11
3009.47058927653
 21
1472.494269174523
 31
0.0
  0
DIMENSION
  5
18D81
330
18C7A
100
AcDbEntity
  8
寸法
100
AcDbDimension
  2
*D9
 10
4534.396935010941
 20
1392.494269174596
 30
0.0
 11
4534.39693501094
 21
1084.008987800356
 31
0.0
 12
-3742.925985830444
 22
-6453.628869860112
 32
0.0
 70
   128
 71
     5
 42
54.99999999999636
  3
INABA_S40G
100
AcDbAlignedDimension
 13
3886.970589276531
 23
1447.494269174593
 33
0.0
 14
3886.970589276531
 24
1392.494269174596
 34
0.0
 50
90.0
100
AcDbRotatedDimension
1001
ACAD
1000
DSTYLE
1002
{
1002
}
  0
LINE
  5
18D82
330
18C7A
100
AcDbEntity
  8
部品1
100
AcDbLine
 10
471.9705892765196
 20
3182.494269174477
 30
0.0
 11
471.9705892765232
 21
3154.494269174477
 31
0.0
  0
LINE
  5
18D83
330
18C7A
100
AcDbEntity
  8
部品1
100
AcDbLine
 10
471.9705892765559
 20
3182.494269174509
 30
0.0
 11
471.9705892765559
 21
3154.494269174509
 31
0.0
  0
LINE
  5
18D84
330
18C7A
100
AcDbEntity
  8
部品1
100
AcDbLine
 10
444.9705892765232
 20
3127.49426917448
 30
0.0
 11
416.9705892765232
 21
3127.49426917448
 31
0.0
  0
LINE
  5
18D85
330
18C7A
100
AcDbEntity
  8
部品1
100
AcDbLine
 10
444.9705892765305
 20
2707.49426917448
 30
0.0
 11
416.9705892765305
 21
2707.49426917448
 31
0.0
  0
LINE
  5
18D86
330
18C7A
100
AcDbEntity
  8
部品1
 48
50.0
100
AcDbLine
 10
445.4705892765542
 20
3152.494269174506
 30
0.0
 11
445.4705892765559
 21
2702.494269174505
 31
0.0
  0
LINE
  5
18D87
330
18C7A
100
AcDbEntity
  8
部品1
 48
50.0
100
AcDbLine
 10
473.470589276545
 20
1448.994269174573
 30
0.0
 11
444.970589276545
 21
1420.494269174574
 31
0.0
  0
LINE
  5
18D88
330
18C7A
100
AcDbEntity
  8
部品1
100
AcDbLine
 10
471.9705892765232
 20
1392.494269174465
 30
0.0
 11
416.9705892765486
 21
1392.494269174465
 31
0.0
  0
LINE
  5
18D89
330
18C7A
100
AcDbEntity
  8
部品1
100
AcDbLine
 10
444.9705892765305
 20
1447.494269174429
 30
0.0
 11
416.9705892765469
 21
1447.494269174429
 31
0.0
  0
LINE
  5
18D8A
330
18C7A
100
AcDbEntity
  8
部品1
100
AcDbLine
 10
444.9705892765305
 20
1447.494269174465
 30
0.0
 11
416.9705892765469
 21
1447.494269174465
 31
0.0
  0
LINE
  5
18D8B
330
18C7A
100
AcDbEntity
  8
部品1
100
AcDbLine
 10
444.9705892765469
 20
1447.49426917448
 30
0.0
 11
416.9705892765469
 21
1447.49426917448
 31
0.0
  0
LINE
  5
18D8C
330
18C7A
100
AcDbEntity
  8
部品1
100
AcDbLine
 10
416.9705892765469
 20
1447.494269174429
 30
0.0
 11
416.9705892765486
 21
1392.494269174433
 31
0.0
  0
LINE
  5
18D8D
330
18C7A
100
AcDbEntity
  8
部品1
100
AcDbLine
 10
416.9705892765196
 20
3182.494269174477
 30
0.0
 11
416.9705892765486
 21
1392.494269174465
 31
0.0
  0
LINE
  5
18D8E
330
18C7A
100
AcDbEntity
  8
部品1
100
AcDbLine
 10
444.9705892765305
 20
1420.494269174556
 30
0.0
 11
444.9705892765559
 21
3154.494269174509
 31
0.0
  0
LINE
  5
18D8F
330
18C7A
100
AcDbEntity
  8
部品1
100
AcDbLine
 10
473.4705892765323
 20
2702.494269174608
 30
0.0
 11
473.470589276545
 21
1448.994269174571
 31
0.0
  0
LINE
  5
18D90
330
18C7A
100
AcDbEntity
  8
破線
 48
10.0
100
AcDbLine
 10
496.9705892765305
 20
2702.494269174608
 30
0.0
 11
496.9705892765451
 21
1472.494269174476
 31
0.0
  0
DIMENSION
  5
18D91
330
18C7A
100
AcDbEntity
  8
寸法
100
AcDbDimension
  2
*D8
 10
3886.970589276531
 20
410.7433333855515
 30
0.0
 11
2168.197775309287
 21
410.7433333855515
 31
0.0
 12
-3742.925985830444
 22
-6453.628869860112
 32
0.0
 70
   128
 71
     5
 42
3469.999999999982
  3
INABA_S40G
100
AcDbAlignedDimension
 13
416.9705892765486
 23
1392.494269174433
 33
0.0
 14
3886.970589276531
 24
1392.49426917456
 34
0.0
100
AcDbRotatedDimension
1001
ACAD
1000
DSTYLE
1002
{
1070
   341
1005
0
1002
}
  0
LINE
  5
18D92
330
18C7A
100
AcDbEntity
  8
部品1
100
AcDbLine
 10
444.9705892765559
 20
3154.494269174624
 30
0.0
 11
1509.470589276487
 21
3154.494269174626
 31
0.0
  0
LINE
  5
18D93
330
18C7A
100
AcDbEntity
  8
部品1
100
AcDbLine
 10
3886.970589276531
 20
1392.494269174596
 30
0.0
 11
3411.970589276556
 21
1392.494269174582
 31
0.0
  0
LINE
  5
18D94
330
18C7A
100
AcDbEntity
  8
部品1
100
AcDbLine
 10
416.9705892765559
 20
3182.494269174509
 30
0.0
 11
3886.970589276556
 21
3182.494269174604
 31
0.0
  0
LINE
  5
18D95
330
18C7A
100
AcDbEntity
  8
部品1
100
AcDbLine
 10
445.4705892765559
 20
2702.494269174509
 30
0.0
 11
1508.470589276487
 21
2702.494269174558
 31
0.0
  0
LINE
  5
18D96
330
18C7A
100
AcDbEntity
  8
細線
 48
50.0
100
AcDbLine
 10
2767.470589276556
 20
3152.494269174611
 30
0.0
 11
1536.470589276487
 21
2702.494269174558
 31
0.0
  0
LINE
  5
18D97
330
18C7A
100
AcDbEntity
  8
部品1
100
AcDbLine
 10
445.4705892765542
 20
3152.494269174509
 30
0.0
 11
1508.470589276485
 21
3152.494269174558
 31
0.0
  0
LINE
  5
18D98
330
18C7A
100
AcDbEntity
  8
細線
 48
50.0
100
AcDbLine
 10
2767.470589276554
 20
2702.494269174615
 30
0.0
 11
1536.470589276485
 21
3152.494269174558
 31
0.0
  0
LINE
  5
18D99
330
18C7A
100
AcDbEntity
  8
破線
 48
10.0
100
AcDbLine
 10
2126.970589276534
 20
1472.494269174502
 30
0.0
 11
1344.47058927653
 21
1472.494269174473
 31
0.0
  0
LINE
  5
18D9A
330
18C7A
100
AcDbEntity
  8
部品1
100
AcDbLine
 10
3830.470589276556
 20
1448.994269174596
 30
0.0
 11
473.4705892764487
 21
1448.994269174476
 31
0.0
  0
DIMENSION
  5
18D9B
330
18C7A
100
AcDbEntity
  8
寸法
100
AcDbDimension
  2
*D7
 10
471.970589276555
 20
3698.302488799491
 30
0.0
 11
108.4853079022819
 21
3698.302488799491
 31
0.0
 12
-3742.925985830444
 22
-6453.628869860112
 32
0.0
 70
   128
 71
     5
 42
55.00000000003456
  3
INABA_S40G
100
AcDbAlignedDimension
 13
416.9705892765205
 23
3182.494269174509
 33
0.0
 14
471.970589276555
 24
3182.494269174509
 34
0.0
100
AcDbRotatedDimension
1001
ACAD
1000
DSTYLE
1002
{
1002
}
  0
DIMENSION
  5
18D9C
330
18C7A
100
AcDbEntity
  8
寸法
100
AcDbDimension
  2
*D6
 10
4534.396935010967
 20
3127.494269174607
 30
0.0
 11
4534.396935010965
 21
3490.979550548844
 31
0.0
 12
-3742.925985830444
 22
-6453.628869860112
 32
0.0
 70
   128
 71
     5
 42
54.99999999999636
  3
INABA_S40G
100
AcDbAlignedDimension
 13
3886.970589276556
 23
3182.494269174604
 33
0.0
 14
3886.970589276556
 24
3127.494269174607
 34
0.0
 50
90.0
100
AcDbRotatedDimension
1001
ACAD
1000
DSTYLE
1002
{
1002
}
  0
DIMENSION
  5
18D9D
330
18C7A
100
AcDbEntity
  8
寸法
100
AcDbDimension
  2
*D5
 10
3886.970589276556
 20
3698.302488799589
 30
0.0
 11
4195.455870650794
 21
3698.302488799589
 31
0.0
 12
-3742.925985830444
 22
-6453.628869860112
 32
0.0
 70
   128
 71
     5
 42
55.0
  3
INABA_S40G
100
AcDbAlignedDimension
 13
3831.970589276556
 23
3182.494269174604
 33
0.0
 14
3886.970589276556
 24
3182.494269174604
 34
0.0
100
AcDbRotatedDimension
1001
ACAD
1000
DSTYLE
1002
{
1002
}
  0
DIMENSION
  5
18D9E
330
18C7A
100
AcDbEntity
  8
寸法
100
AcDbDimension
  2
*D4
 10
3831.970589276556
 20
3698.302488799607
 30
0.0
 11
2151.970589276555
 21
3698.302488799607
 31
0.0
 12
-3742.925985830444
 22
-6453.628869860112
 32
0.0
 70
   128
  1
8X420=<>
 71
     5
 42
3360.000000000001
  3
INABA_S40G
100
AcDbAlignedDimension
 13
471.970589276555
 23
3182.494269174509
 33
0.0
 14
3831.970589276556
 24
3182.494269174604
 34
0.0
100
AcDbRotatedDimension
1001
ACAD
1000
DSTYLE
1002
{
1002
}
  0
DIMENSION
  5
18D9F
330
18C7A
100
AcDbEntity
  8
寸法
100
AcDbDimension
  2
*D3
 10
4899.503876750603
 20
1392.494269174596
 30
0.0
 11
4899.503876750601
 21
2287.4942691746
 31
0.0
 12
-3742.925985830444
 22
-6453.628869860112
 32
0.0
 70
   128
 71
     5
 42
1790.000000000007
  3
INABA_S40G
100
AcDbAlignedDimension
 13
3886.970589276556
 23
3182.494269174604
 33
0.0
 14
3886.970589276531
 24
1392.494269174596
 34
0.0
 50
90.0
100
AcDbRotatedDimension
1001
ACAD
1000
DSTYLE
1002
{
1002
}
  0
ENDBLK
  5
18DA1
330
18C7A
100
AcDbEntity
  8
0
 48
50.0
100
AcDbBlockEnd
  0
BLOCK
  5
1C4CB
330
1C4CA
100
AcDbEntity
  8
0
 48
50.0
100
AcDbBlockBegin
  2
_NONE
 70
     0
 10
0.0
 20
0.0
 30
0.0
  3
_NONE
  1

  0
CIRCLE
  5
1C4CC
330
1C4CA
100
AcDbEntity
  8
0
  6
ByBlock
 62
     0
 48
50.0
100
AcDbCircle
 10
0.0
 20
0.0
 30
0.0
 40
0.25
  0
ENDBLK
  5
1C4CD
330
1C4CA
100
AcDbEntity
  8
0
 48
50.0
100
AcDbBlockEnd
  0
BLOCK
  5
20DEE
330
20DE2
100
AcDbEntity
  8
0
 48
50.0
100
AcDbBlockBegin
  2
*D19
 70
     1
 10
0.0
 20
0.0
 30
0.0
  3
*D19
  1

  0
LINE
  5
23E46
330
20DE2
100
AcDbEntity
  8
寸法
 62
     0
 48
50.0
370
    -2
100
AcDbLine
 10
9178.600000000001
 20
7358.279869275121
 30
0.0
 11
9178.600000000001
 21
8356.500191334042
 31
0.0
  0
LINE
  5
23E47
330
20DE2
100
AcDbEntity
  8
寸法
 62
     0
 48
50.0
370
    -2
100
AcDbLine
 10
9223.600000000001
 20
8084.546327369031
 30
0.0
 11
9223.600000000001
 21
8356.500191334042
 31
0.0
  0
LINE
  5
23E48
330
20DE2
100
AcDbEntity
  8
寸法
 62
     0
 48
50.0
370
    -2
100
AcDbLine
 10
9178.600000000001
 20
8296.500191334041
 30
0.0
 11
9078.599999999999
 21
8296.500191334041
 31
0.0
  0
LINE
  5
23E49
330
20DE2
100
AcDbEntity
  8
寸法
 62
     0
 48
50.0
370
    -2
100
AcDbLine
 10
9223.600000000001
 20
8296.500191334041
 30
0.0
 11
9560.94924240492
 21
8296.500191334041
 31
0.0
  0
LINE
  5
23E4A
330
20DE2
100
AcDbEntity
  8
寸法
 62
     0
 48
50.0
370
    -2
100
AcDbLine
 10
9178.600000000001
 20
8296.500191334041
 30
0.0
 11
9223.600000000001
 21
8296.500191334041
 31
0.0
  0
INSERT
  5
23E4B
330
20DE2
100
AcDbEntity
  8
寸法
 62
     0
 48
50.0
370
    -2
100
AcDbBlockReference
  2
_DOTSMALL
 10
9178.600000000001
 20
8296.500191334041
 30
0.0
 41
100.0
 42
100.0
 43
100.0
  0
INSERT
  5
23E4C
330
20DE2
100
AcDbEntity
  8
寸法
 62
     0
 48
50.0
370
    -2
100
AcDbBlockReference
  2
_DOTSMALL
 10
9223.600000000001
 20
8296.500191334041
 30
0.0
 41
100.0
 42
100.0
 43
100.0
 50
180.0
  0
MTEXT
  5
23E4D
330
20DE2
100
AcDbEntity
  8
寸法
 62
     7
 48
50.0
100
AcDbMText
 10
9494.774621202459
 20
8396.500191334041
 30
0.0
 40
120.0
 41
0.0
 71
     5
 72
     1
  1
\A1;a
  7
STYLE1
 73
     1
 44
1.0
1001
ACAD
1000
MTEXTBEGIN
1070
    73
1070
     1
1070
    44
1040
1.0
1070
    74
1070
     0
1000
MTEXTEND
  0
POINT
  5
23E4E
330
20DE2
100
AcDbEntity
  8
DEFPOINTS
 62
     0
 48
50.0
100
AcDbPoint
 10
9178.600000000001
 20
7338.279869275121
 30
0.0
  0
POINT
  5
23E4F
330
20DE2
100
AcDbEntity
  8
DEFPOINTS
 62
     0
 48
50.0
100
AcDbPoint
 10
9223.600000000001
 20
8064.546327369031
 30
0.0
  0
POINT
  5
23E50
330
20DE2
100
AcDbEntity
  8
DEFPOINTS
 62
     0
 48
50.0
100
AcDbPoint
 10
9223.600000000001
 20
8296.500191334041
 30
0.0
  0
ENDBLK
  5
20DEF
330
20DE2
100
AcDbEntity
  8
0
 48
50.0
100
AcDbBlockEnd
  0
BLOCK
  5
20E08
330
20DFC
100
AcDbEntity
  8
0
 48
50.0
100
AcDbBlockBegin
  2
*D20
 70
     1
 10
0.0
 20
0.0
 30
0.0
  3
*D20
  1

  0
LINE
  5
23E3B
330
20DFC
100
AcDbEntity
  8
寸法
 62
     0
 48
50.0
370
    -2
100
AcDbLine
 10
7223.600000000004
 20
8084.546327369032
 30
0.0
 11
7223.600000000004
 21
8356.500191334042
 31
0.0
  0
LINE
  5
23E3C
330
20DFC
100
AcDbEntity
  8
寸法
 62
     0
 48
50.0
370
    -2
100
AcDbLine
 10
7268.600000000001
 20
7358.279869275121
 30
0.0
 11
7268.600000000001
 21
8356.500191334042
 31
0.0
  0
LINE
  5
23E3D
330
20DFC
100
AcDbEntity
  8
寸法
 62
     0
 48
50.0
370
    -2
100
AcDbLine
 10
7268.600000000001
 20
8296.500191334041
 30
0.0
 11
7368.6
 21
8296.500191334041
 31
0.0
  0
LINE
  5
23E3E
330
20DFC
100
AcDbEntity
  8
寸法
 62
     0
 48
50.0
370
    -2
100
AcDbLine
 10
7223.600000000004
 20
8296.500191334041
 30
0.0
 11
6886.250757595083
 21
8296.500191334041
 31
0.0
  0
LINE
  5
23E3F
330
20DFC
100
AcDbEntity
  8
寸法
 62
     0
 48
50.0
370
    -2
100
AcDbLine
 10
7268.600000000001
 20
8296.500191334041
 30
0.0
 11
7223.600000000004
 21
8296.500191334041
 31
0.0
  0
INSERT
  5
23E40
330
20DFC
100
AcDbEntity
  8
寸法
 62
     0
 48
50.0
370
    -2
100
AcDbBlockReference
  2
_DOTSMALL
 10
7268.600000000001
 20
8296.500191334041
 30
0.0
 41
100.0
 42
100.0
 43
100.0
 50
180.0
  0
INSERT
  5
23E41
330
20DFC
100
AcDbEntity
  8
寸法
 62
     0
 48
50.0
370
    -2
100
AcDbBlockReference
  2
_DOTSMALL
 10
7223.600000000004
 20
8296.500191334041
 30
0.0
 41
100.0
 42
100.0
 43
100.0
  0
MTEXT
  5
23E42
330
20DFC
100
AcDbEntity
  8
寸法
 62
     7
 48
50.0
100
AcDbMText
 10
6952.425378797541
 20
8396.500191334041
 30
0.0
 40
120.0
 41
0.0
 71
     5
 72
     1
  1
\A1;a
  7
STYLE1
 73
     1
 44
1.0
1001
ACAD
1000
MTEXTBEGIN
1070
    73
1070
     1
1070
    44
1040
1.0
1070
    74
1070
     0
1000
MTEXTEND
  0
POINT
  5
23E43
330
20DFC
100
AcDbEntity
  8
DEFPOINTS
 62
     0
 48
50.0
100
AcDbPoint
 10
7223.600000000004
 20
8064.546327369033
 30
0.0
  0
POINT
  5
23E44
330
20DFC
100
AcDbEntity
  8
DEFPOINTS
 62
     0
 48
50.0
100
AcDbPoint
 10
7268.600000000001
 20
7338.279869275121
 30
0.0
  0
POINT
  5
23E45
330
20DFC
100
AcDbEntity
  8
DEFPOINTS
 62
     0
 48
50.0
100
AcDbPoint
 10
7268.600000000001
 20
8296.500191334041
 30
0.0
  0
ENDBLK
  5
20E09
330
20DFC
100
AcDbEntity
  8
0
 48
50.0
100
AcDbBlockEnd
  0
BLOCK
  5
2274E
330
22742
100
AcDbEntity
  8
0
 48
50.0
100
AcDbBlockBegin
  2
*D25
 70
     1
 10
0.0
 20
0.0
 30
0.0
  3
*D25
  1

  0
LINE
  5
23E30
330
22742
100
AcDbEntity
  8
寸法
 62
     0
 48
50.0
370
    -2
100
AcDbLine
 10
6625.665006330071
 20
7413.279869275126
 30
0.0
 11
6333.721909610673
 21
7413.279869275126
 31
0.0
  0
LINE
  5
23E31
330
22742
100
AcDbEntity
  8
寸法
 62
     0
 48
50.0
370
    -2
100
AcDbLine
 10
7248.6
 20
7338.279869275121
 30
0.0
 11
6333.721909610673
 21
7338.279869275121
 31
0.0
  0
LINE
  5
23E32
330
22742
100
AcDbEntity
  8
寸法
 62
     0
 48
50.0
370
    -2
100
AcDbLine
 10
6393.721909610674
 20
7413.279869275126
 30
0.0
 11
6393.721909610674
 21
7513.279869275127
 31
0.0
  0
LINE
  5
23E33
330
22742
100
AcDbEntity
  8
寸法
 62
     0
 48
50.0
370
    -2
100
AcDbLine
 10
6393.721909610674
 20
7338.279869275121
 30
0.0
 11
6393.721909610674
 21
7238.279869275121
 31
0.0
  0
LINE
  5
23E34
330
22742
100
AcDbEntity
  8
寸法
 62
     0
 48
50.0
370
    -2
100
AcDbLine
 10
6393.721909610674
 20
7413.279869275126
 30
0.0
 11
6393.721909610674
 21
7338.279869275121
 31
0.0
  0
INSERT
  5
23E35
330
22742
100
AcDbEntity
  8
寸法
 62
     0
 48
50.0
370
    -2
100
AcDbBlockReference
  2
_DOTSMALL
 10
6393.721909610674
 20
7413.279869275126
 30
0.0
 41
100.0
 42
100.0
 43
100.0
 50
270.0
  0
INSERT
  5
23E36
330
22742
100
AcDbEntity
  8
寸法
 62
     0
 48
50.0
370
    -2
100
AcDbBlockReference
  2
_DOTSMALL
 10
6393.721909610674
 20
7338.279869275121
 30
0.0
 41
100.0
 42
100.0
 43
100.0
 50
90.0
  0
MTEXT
  5
23E37
330
22742
100
AcDbEntity
  8
寸法
 62
     7
 48
50.0
100
AcDbMText
 10
6293.721909610672
 20
7375.779869275127
 30
0.0
 40
120.0
 41
0.0
 71
     5
 72
     1
  1
\A1;c
  7
STYLE1
 11
0.0000000000000001
 21
1.0
 31
0.0
 73
     1
 44
1.0
1001
ACAD
1000
MTEXTBEGIN
1070
    73
1070
     1
1070
    44
1040
1.0
1070
    74
1070
     0
1000
MTEXTEND
  0
POINT
  5
23E38
330
22742
100
AcDbEntity
  8
DEFPOINTS
 62
     0
 48
50.0
100
AcDbPoint
 10
6645.665006330069
 20
7413.279869275126
 30
0.0
  0
POINT
  5
23E39
330
22742
100
AcDbEntity
  8
DEFPOINTS
 62
     0
 48
50.0
100
AcDbPoint
 10
7268.600000000001
 20
7338.279869275121
 30
0.0
  0
POINT
  5
23E3A
330
22742
100
AcDbEntity
  8
DEFPOINTS
 62
     0
 48
50.0
100
AcDbPoint
 10
6393.721909610674
 20
7338.279869275121
 30
0.0
  0
ENDBLK
  5
2274F
330
22742
100
AcDbEntity
  8
0
 48
50.0
100
AcDbBlockEnd
  0
BLOCK
  5
22768
330
2275C
100
AcDbEntity
  8
0
 48
50.0
100
AcDbBlockBegin
  2
*D26
 70
     1
 10
0.0
 20
0.0
 30
0.0
  3
*D26
  1

  0
LINE
  5
23E25
330
2275C
100
AcDbEntity
  8
寸法
 62
     0
 48
50.0
370
    -2
100
AcDbLine
 10
7248.6
 20
6378.279869275121
 30
0.0
 11
6333.721909610673
 21
6378.279869275121
 31
0.0
  0
LINE
  5
23E26
330
2275C
100
AcDbEntity
  8
寸法
 62
     0
 48
50.0
370
    -2
100
AcDbLine
 10
6625.665006330073
 20
6323.279869275146
 30
0.0
 11
6333.721909610673
 21
6323.279869275146
 31
0.0
  0
LINE
  5
23E27
330
2275C
100
AcDbEntity
  8
寸法
 62
     0
 48
50.0
370
    -2
100
AcDbLine
 10
6393.721909610674
 20
6378.279869275121
 30
0.0
 11
6393.721909610674
 21
6478.27986927512
 31
0.0
  0
LINE
  5
23E28
330
2275C
100
AcDbEntity
  8
寸法
 62
     0
 48
50.0
370
    -2
100
AcDbLine
 10
6393.721909610674
 20
6323.279869275146
 30
0.0
 11
6393.721909610674
 21
6223.279869275145
 31
0.0
  0
LINE
  5
23E29
330
2275C
100
AcDbEntity
  8
寸法
 62
     0
 48
50.0
370
    -2
100
AcDbLine
 10
6393.721909610674
 20
6378.279869275121
 30
0.0
 11
6393.721909610674
 21
6323.279869275146
 31
0.0
  0
INSERT
  5
23E2A
330
2275C
100
AcDbEntity
  8
寸法
 62
     0
 48
50.0
370
    -2
100
AcDbBlockReference
  2
_DOTSMALL
 10
6393.721909610674
 20
6378.279869275121
 30
0.0
 41
100.0
 42
100.0
 43
100.0
 50
270.0
  0
INSERT
  5
23E2B
330
2275C
100
AcDbEntity
  8
寸法
 62
     0
 48
50.0
370
    -2
100
AcDbBlockReference
  2
_DOTSMALL
 10
6393.721909610674
 20
6323.279869275146
 30
0.0
 41
100.0
 42
100.0
 43
100.0
 50
90.0
  0
MTEXT
  5
23E2C
330
2275C
100
AcDbEntity
  8
寸法
 62
     7
 48
50.0
100
AcDbMText
 10
6293.721909610672
 20
6350.779869275135
 30
0.0
 40
120.0
 41
0.0
 71
     5
 72
     1
  1
\A1;b
  7
STYLE1
 11
0.0000000000000001
 21
1.0
 31
0.0
 73
     1
 44
1.0
1001
ACAD
1000
MTEXTBEGIN
1070
    73
1070
     1
1070
    44
1040
1.0
1070
    74
1070
     0
1000
MTEXTEND
  0
POINT
  5
23E2D
330
2275C
100
AcDbEntity
  8
DEFPOINTS
 62
     0
 48
50.0
100
AcDbPoint
 10
7268.600000000001
 20
6378.279869275121
 30
0.0
  0
POINT
  5
23E2E
330
2275C
100
AcDbEntity
  8
DEFPOINTS
 62
     0
 48
50.0
100
AcDbPoint
 10
6645.665006330073
 20
6323.279869275146
 30
0.0
  0
POINT
  5
23E2F
330
2275C
100
AcDbEntity
  8
DEFPOINTS
 62
     0
 48
50.0
100
AcDbPoint
 10
6393.721909610674
 20
6323.279869275146
 30
0.0
  0
ENDBLK
  5
22769
330
2275C
100
AcDbEntity
  8
0
 48
50.0
100
AcDbBlockEnd
  0
BLOCK
  5
239FE
330
239F3
100
AcDbEntity
  8
0
 48
50.0
100
AcDbBlockBegin
  2
*D27
 70
     1
 10
0.0
 20
0.0
 30
0.0
  3
*D27
  1

  0
LINE
  5
23E1B
330
239F3
100
AcDbEntity
  8
寸法
 62
     0
 48
50.0
370
    -2
100
AcDbLine
 10
8703.854682011641
 20
7338.279869275109
 30
0.0
 11
8463.957501082452
 21
7338.279869275109
 31
0.0
  0
LINE
  5
23E1C
330
239F3
100
AcDbEntity
  8
寸法
 62
     0
 48
50.0
370
    -2
100
AcDbLine
 10
8703.854682011641
 20
7138.279869275109
 30
0.0
 11
8463.957501082452
 21
7138.279869275109
 31
0.0
  0
LINE
  5
23E1D
330
239F3
100
AcDbEntity
  8
寸法
 62
     0
 48
50.0
370
    -2
100
AcDbLine
 10
8523.957501082453
 20
7138.279869275109
 30
0.0
 11
8523.957501082453
 21
7338.279869275109
 31
0.0
  0
LINE
  5
23E1E
330
239F3
100
AcDbEntity
  8
寸法
 62
     0
 48
50.0
370
    -2
100
AcDbLine
 10
8523.957501082453
 20
7338.279869275109
 30
0.0
 11
8523.957501082453
 21
7737.421601558573
 31
0.0
  0
INSERT
  5
23E1F
330
239F3
100
AcDbEntity
  8
寸法
 62
     0
 48
50.0
370
    -2
100
AcDbBlockReference
  2
_DOTSMALL
 10
8523.957501082453
 20
7138.279869275109
 30
0.0
 41
100.0
 42
100.0
 43
100.0
 50
270.0
  0
INSERT
  5
23E20
330
239F3
100
AcDbEntity
  8
寸法
 62
     0
 48
50.0
370
    -2
100
AcDbBlockReference
  2
_DOTSMALL
 10
8523.957501082453
 20
7338.279869275109
 30
0.0
 41
100.0
 42
100.0
 43
100.0
 50
90.0
  0
MTEXT
  5
23E21
330
239F3
100
AcDbEntity
  8
寸法
 62
     7
 48
50.0
100
AcDbMText
 10
8423.945690058827
 20
7587.850735416842
 30
0.0
 40
120.0
 41
0.0
 71
     5
 72
     1
  1
\A1;200
  7
STYLE1
 11
0.0000000000000001
 21
1.0
 31
0.0
 73
     1
 44
1.0
1001
ACAD
1000
MTEXTBEGIN
1070
    73
1070
     1
1070
    44
1040
1.0
1070
    74
1070
     0
1000
MTEXTEND
  0
POINT
  5
23E22
330
239F3
100
AcDbEntity
  8
DEFPOINTS
 62
     0
 48
50.0
100
AcDbPoint
 10
8723.854682011641
 20
7338.279869275109
 30
0.0
  0
POINT
  5
23E23
330
239F3
100
AcDbEntity
  8
DEFPOINTS
 62
     0
 48
50.0
100
AcDbPoint
 10
8723.854682011641
 20
7138.279869275109
 30
0.0
  0
POINT
  5
23E24
330
239F3
100
AcDbEntity
  8
DEFPOINTS
 62
     0
 48
50.0
100
AcDbPoint
 10
8523.957501082453
 20
7138.279869275109
 30
0.0
  0
ENDBLK
  5
239FF
330
239F3
100
AcDbEntity
  8
0
 48
50.0
100
AcDbBlockEnd
  0
BLOCK
  5
23A0A
330
23A00
100
AcDbEntity
  8
0
 48
50.0
100
AcDbBlockBegin
  2
*D28
 70
     1
 10
0.0
 20
0.0
 30
0.0
  3
*D28
  1

  0
LINE
  5
23E12
330
23A00
100
AcDbEntity
  8
寸法
 62
     0
 48
50.0
370
    -2
100
AcDbLine
 10
7268.600000000001
 20
7358.279869275121
 30
0.0
 11
7268.600000000001
 21
8356.500191334038
 31
0.0
  0
LINE
  5
23E13
330
23A00
100
AcDbEntity
  8
寸法
 62
     0
 48
50.0
370
    -2
100
AcDbLine
 10
9178.600000000001
 20
7358.279869275121
 30
0.0
 11
9178.600000000001
 21
8356.500191334038
 31
0.0
  0
LINE
  5
23E14
330
23A00
100
AcDbEntity
  8
寸法
 62
     0
 48
50.0
370
    -2
100
AcDbLine
 10
7268.600000000001
 20
8296.500191334038
 30
0.0
 11
9178.600000000001
 21
8296.500191334038
 31
0.0
  0
INSERT
  5
23E15
330
23A00
100
AcDbEntity
  8
寸法
 62
     0
 48
50.0
370
    -2
100
AcDbBlockReference
  2
_DOTSMALL
 10
7268.600000000001
 20
8296.500191334038
 30
0.0
 41
100.0
 42
100.0
 43
100.0
 50
180.0
  0
INSERT
  5
23E16
330
23A00
100
AcDbEntity
  8
寸法
 62
     0
 48
50.0
370
    -2
100
AcDbBlockReference
  2
_DOTSMALL
 10
9178.600000000001
 20
8296.500191334038
 30
0.0
 41
100.0
 42
100.0
 43
100.0
  0
MTEXT
  5
23E17
330
23A00
100
AcDbEntity
  8
寸法
 62
     7
 48
50.0
100
AcDbMText
 10
8223.600000000001
 20
8396.500191334039
 30
0.0
 40
120.0
 41
0.0
 71
     5
 72
     1
  1
\A1;1910
  7
STYLE1
 73
     1
 44
1.0
1001
ACAD
1000
MTEXTBEGIN
1070
    73
1070
     1
1070
    44
1040
1.0
1070
    74
1070
     0
1000
MTEXTEND
  0
POINT
  5
23E18
330
23A00
100
AcDbEntity
  8
DEFPOINTS
 62
     0
 48
50.0
100
AcDbPoint
 10
7268.600000000001
 20
7338.279869275121
 30
0.0
  0
POINT
  5
23E19
330
23A00
100
AcDbEntity
  8
DEFPOINTS
 62
     0
 48
50.0
100
AcDbPoint
 10
9178.600000000001
 20
7338.279869275121
 30
0.0
  0
POINT
  5
23E1A
330
23A00
100
AcDbEntity
  8
DEFPOINTS
 62
     0
 48
50.0
100
AcDbPoint
 10
9178.600000000001
 20
8296.500191334038
 30
0.0
  0
ENDBLK
  5
23A0B
330
23A00
100
AcDbEntity
  8
0
 48
50.0
100
AcDbBlockEnd
  0
BLOCK
  5
23A15
330
23A0C
100
AcDbEntity
  8
0
 48
50.0
100
AcDbBlockBegin
  2
*D29
 70
     1
 10
0.0
 20
0.0
 30
0.0
  3
*D29
  1

  0
LINE
  5
23E09
330
23A0C
100
AcDbEntity
  8
寸法
 62
     0
 48
50.0
370
    -2
100
AcDbLine
 10
9055.600000000001
 20
7285.279869275121
 30
0.0
 11
9055.600000000001
 21
8124.546327369031
 31
0.0
  0
LINE
  5
23E0A
330
23A0C
100
AcDbEntity
  8
寸法
 62
     0
 48
50.0
370
    -2
100
AcDbLine
 10
7391.600000000001
 20
7285.279869275121
 30
0.0
 11
7391.600000000001
 21
8124.546327369031
 31
0.0
  0
LINE
  5
23E0B
330
23A0C
100
AcDbEntity
  8
寸法
 62
     0
 48
50.0
370
    -2
100
AcDbLine
 10
9055.600000000001
 20
8064.546327369031
 30
0.0
 11
7391.600000000001
 21
8064.546327369031
 31
0.0
  0
INSERT
  5
23E0C
330
23A0C
100
AcDbEntity
  8
寸法
 62
     0
 48
50.0
370
    -2
100
AcDbBlockReference
  2
_DOTSMALL
 10
9055.600000000001
 20
8064.546327369031
 30
0.0
 41
100.0
 42
100.0
 43
100.0
  0
INSERT
  5
23E0D
330
23A0C
100
AcDbEntity
  8
寸法
 62
     0
 48
50.0
370
    -2
100
AcDbBlockReference
  2
_DOTSMALL
 10
7391.600000000001
 20
8064.546327369031
 30
0.0
 41
100.0
 42
100.0
 43
100.0
 50
180.0
  0
MTEXT
  5
23E0E
330
23A0C
100
AcDbEntity
  8
寸法
 62
     7
 48
50.0
100
AcDbMText
 10
8223.600000000001
 20
8164.546327369031
 30
0.0
 40
120.0
 41
0.0
 71
     5
 72
     1
  1
\A1;1664
  7
STYLE1
 73
     1
 44
1.0
1001
ACAD
1000
MTEXTBEGIN
1070
    73
1070
     1
1070
    44
1040
1.0
1070
    74
1070
     0
1000
MTEXTEND
  0
POINT
  5
23E0F
330
23A0C
100
AcDbEntity
  8
DEFPOINTS
 62
     0
 48
50.0
100
AcDbPoint
 10
9055.600000000001
 20
7265.27986927512
 30
0.0
  0
POINT
  5
23E10
330
23A0C
100
AcDbEntity
  8
DEFPOINTS
 62
     0
 48
50.0
100
AcDbPoint
 10
7391.600000000001
 20
7265.27986927512
 30
0.0
  0
POINT
  5
23E11
330
23A0C
100
AcDbEntity
  8
DEFPOINTS
 62
     0
 48
50.0
100
AcDbPoint
 10
7391.600000000001
 20
8064.546327369031
 30
0.0
  0
ENDBLK
  5
23A16
330
23A0C
100
AcDbEntity
  8
0
 48
50.0
100
AcDbBlockEnd
  0
BLOCK
  5
23A21
330
23A17
100
AcDbEntity
  8
0
 48
50.0
100
AcDbBlockBegin
  2
*D30
 70
     1
 10
0.0
 20
0.0
 30
0.0
  3
*D30
  1

  0
LINE
  5
23E00
330
23A17
100
AcDbEntity
  8
寸法
 62
     0
 48
50.0
370
    -2
100
AcDbLine
 10
9178.600000000001
 20
7358.279869275121
 30
0.0
 11
9178.600000000001
 21
7880.888685945369
 31
0.0
  0
LINE
  5
23E01
330
23A17
100
AcDbEntity
  8
寸法
 62
     0
 48
50.0
370
    -2
100
AcDbLine
 10
8223.600000000008
 20
6928.27986927512
 30
0.0
 11
8223.600000000008
 21
7880.888685945369
 31
0.0
  0
LINE
  5
23E02
330
23A17
100
AcDbEntity
  8
寸法
 62
     0
 48
50.0
370
    -2
100
AcDbLine
 10
9178.600000000001
 20
7820.888685945369
 30
0.0
 11
8223.600000000008
 21
7820.888685945369
 31
0.0
  0
INSERT
  5
23E03
330
23A17
100
AcDbEntity
  8
寸法
 62
     0
 48
50.0
370
    -2
100
AcDbBlockReference
  2
_DOTSMALL
 10
9178.600000000001
 20
7820.888685945369
 30
0.0
 41
100.0
 42
100.0
 43
100.0
  0
INSERT
  5
23E04
330
23A17
100
AcDbEntity
  8
寸法
 62
     0
 48
50.0
370
    -2
100
AcDbBlockReference
  2
_DOTSMALL
 10
8223.600000000008
 20
7820.888685945369
 30
0.0
 41
100.0
 42
100.0
 43
100.0
 50
180.0
  0
MTEXT
  5
23E05
330
23A17
100
AcDbEntity
  8
寸法
 62
     7
 48
50.0
100
AcDbMText
 10
8701.100000000003
 20
7920.888685945368
 30
0.0
 40
120.0
 41
0.0
 71
     5
 72
     1
  1
\A1;955
  7
STYLE1
 73
     1
 44
1.0
1001
ACAD
1000
MTEXTBEGIN
1070
    73
1070
     1
1070
    44
1040
1.0
1070
    74
1070
     0
1000
MTEXTEND
  0
POINT
  5
23E06
330
23A17
100
AcDbEntity
  8
DEFPOINTS
 62
     0
 48
50.0
100
AcDbPoint
 10
9178.600000000001
 20
7338.279869275121
 30
0.0
  0
POINT
  5
23E07
330
23A17
100
AcDbEntity
  8
DEFPOINTS
 62
     0
 48
50.0
100
AcDbPoint
 10
8223.600000000008
 20
6908.279869275121
 30
0.0
  0
POINT
  5
23E08
330
23A17
100
AcDbEntity
  8
DEFPOINTS
 62
     0
 48
50.0
100
AcDbPoint
 10
8223.600000000008
 20
7820.888685945369
 30
0.0
  0
ENDBLK
  5
23A22
330
23A17
100
AcDbEntity
  8
0
 48
50.0
100
AcDbBlockEnd
  0
BLOCK
  5
23A2E
330
23A23
100
AcDbEntity
  8
0
 48
50.0
100
AcDbBlockBegin
  2
*D31
 70
     1
 10
0.0
 20
0.0
 30
0.0
  3
*D31
  1

  0
LINE
  5
23EAF
330
23A23
100
AcDbEntity
  8
寸法
 62
     0
 48
50.0
370
    -2
100
AcDbLine
 10
8778.599999999997
 20
6658.279869275133
 30
0.0
 11
8463.957501082452
 21
6658.279869275133
 31
0.0
  0
LINE
  5
23EB0
330
23A23
100
AcDbEntity
  8
寸法
 62
     0
 48
50.0
370
    -2
100
AcDbLine
 10
8778.6
 20
6378.279869275129
 30
0.0
 11
8463.957501082452
 21
6378.279869275129
 31
0.0
  0
LINE
  5
23EB1
330
23A23
100
AcDbEntity
  8
寸法
 62
     0
 48
50.0
370
    -2
100
AcDbLine
 10
8523.957501082453
 20
6658.279869275133
 30
0.0
 11
8523.957501082453
 21
6378.279869275129
 31
0.0
  0
LINE
  5
23EB2
330
23A23
100
AcDbEntity
  8
寸法
 62
     0
 48
50.0
370
    -2
100
AcDbLine
 10
8523.957501082453
 20
6378.279869275129
 30
0.0
 11
8523.957501082453
 21
5979.138136991665
 31
0.0
  0
INSERT
  5
23EB3
330
23A23
100
AcDbEntity
  8
寸法
 62
     0
 48
50.0
370
    -2
100
AcDbBlockReference
  2
_DOTSMALL
 10
8523.957501082453
 20
6658.279869275133
 30
0.0
 41
100.0
 42
100.0
 43
100.0
 50
90.0
  0
INSERT
  5
23EB4
330
23A23
100
AcDbEntity
  8
寸法
 62
     0
 48
50.0
370
    -2
100
AcDbBlockReference
  2
_DOTSMALL
 10
8523.957501082453
 20
6378.279869275129
 30
0.0
 41
100.0
 42
100.0
 43
100.0
 50
270.0
  0
MTEXT
  5
23EB5
330
23A23
100
AcDbEntity
  8
寸法
 62
     7
 48
50.0
100
AcDbMText
 10
8423.945690058827
 20
6128.709003133398
 30
0.0
 40
120.0
 41
0.0
 71
     5
 72
     1
  1
\A1;280
  7
STYLE1
 11
0.0000000000000001
 21
1.0
 31
0.0
 73
     1
 44
1.0
1001
ACAD
1000
MTEXTBEGIN
1070
    73
1070
     1
1070
    44
1040
1.0
1070
    74
1070
     0
1000
MTEXTEND
  0
POINT
  5
23EB6
330
23A23
100
AcDbEntity
  8
DEFPOINTS
 62
     0
 48
50.0
100
AcDbPoint
 10
8798.599999999998
 20
6658.279869275133
 30
0.0
  0
POINT
  5
23EB7
330
23A23
100
AcDbEntity
  8
DEFPOINTS
 62
     0
 48
50.0
100
AcDbPoint
 10
8798.6
 20
6378.279869275129
 30
0.0
  0
POINT
  5
23EB8
330
23A23
100
AcDbEntity
  8
DEFPOINTS
 62
     0
 48
50.0
100
AcDbPoint
 10
8523.957501082453
 20
6378.279869275129
 30
0.0
  0
ENDBLK
  5
23A2F
330
23A23
100
AcDbEntity
  8
0
 48
50.0
100
AcDbBlockEnd
  0
BLOCK
  5
23A3A
330
23A30
100
AcDbEntity
  8
0
 48
50.0
100
AcDbBlockBegin
  2
*D32
 70
     1
 10
0.0
 20
0.0
 30
0.0
  3
*D32
  1

  0
LINE
  5
23E75
330
23A30
100
AcDbEntity
  8
寸法
 62
     0
 48
50.0
370
    -2
100
AcDbLine
 10
7321.6
 20
7215.27986927512
 30
0.0
 11
6585.665006330073
 21
7215.27986927512
 31
0.0
  0
LINE
  5
23E76
330
23A30
100
AcDbEntity
  8
寸法
 62
     0
 48
50.0
370
    -2
100
AcDbLine
 10
7321.600000000008
 20
6576.279869275125
 30
0.0
 11
6585.665006330073
 21
6576.279869275125
 31
0.0
  0
LINE
  5
23E77
330
23A30
100
AcDbEntity
  8
寸法
 62
     0
 48
50.0
370
    -2
100
AcDbLine
 10
6645.665006330073
 20
7215.27986927512
 30
0.0
 11
6645.665006330073
 21
6576.279869275125
 31
0.0
  0
INSERT
  5
23E78
330
23A30
100
AcDbEntity
  8
寸法
 62
     0
 48
50.0
370
    -2
100
AcDbBlockReference
  2
_DOTSMALL
 10
6645.665006330073
 20
7215.27986927512
 30
0.0
 41
100.0
 42
100.0
 43
100.0
 50
90.0
  0
INSERT
  5
23E79
330
23A30
100
AcDbEntity
  8
寸法
 62
     0
 48
50.0
370
    -2
100
AcDbBlockReference
  2
_DOTSMALL
 10
6645.665006330073
 20
6576.279869275125
 30
0.0
 41
100.0
 42
100.0
 43
100.0
 50
270.0
  0
MTEXT
  5
23E7A
330
23A30
100
AcDbEntity
  8
寸法
 62
     7
 48
50.0
100
AcDbMText
 10
6545.665006330072
 20
6895.779869275121
 30
0.0
 40
120.0
 41
0.0
 71
     5
 72
     1
  1
\A1;639
  7
STYLE1
 11
0.0000000000000001
 21
1.0
 31
0.0
 73
     1
 44
1.0
1001
ACAD
1000
MTEXTBEGIN
1070
    73
1070
     1
1070
    44
1040
1.0
1070
    74
1070
     0
1000
MTEXTEND
  0
POINT
  5
23E7B
330
23A30
100
AcDbEntity
  8
DEFPOINTS
 62
     0
 48
50.0
100
AcDbPoint
 10
7341.600000000001
 20
7215.27986927512
 30
0.0
  0
POINT
  5
23E7C
330
23A30
100
AcDbEntity
  8
DEFPOINTS
 62
     0
 48
50.0
100
AcDbPoint
 10
7341.600000000008
 20
6576.279869275125
 30
0.0
  0
POINT
  5
23E7D
330
23A30
100
AcDbEntity
  8
DEFPOINTS
 62
     0
 48
50.0
100
AcDbPoint
 10
6645.665006330073
 20
6576.279869275125
 30
0.0
  0
ENDBLK
  5
23A3B
330
23A30
100
AcDbEntity
  8
0
 48
50.0
100
AcDbBlockEnd
  0
BLOCK
  5
23A46
330
23A3C
100
AcDbEntity
  8
0
 48
50.0
100
AcDbBlockBegin
  2
*D33
 70
     1
 10
0.0
 20
0.0
 30
0.0
  3
*D33
  1

  0
LINE
  5
23DE4
330
23A3C
100
AcDbEntity
  8
寸法
 62
     0
 48
50.0
370
    -2
100
AcDbLine
 10
7248.6
 20
7338.279869275121
 30
0.0
 11
6333.721909610675
 21
7338.279869275121
 31
0.0
  0
LINE
  5
23DE5
330
23A3C
100
AcDbEntity
  8
寸法
 62
     0
 48
50.0
370
    -2
100
AcDbLine
 10
7248.6
 20
6378.279869275121
 30
0.0
 11
6333.721909610675
 21
6378.279869275121
 31
0.0
  0
LINE
  5
23DE6
330
23A3C
100
AcDbEntity
  8
寸法
 62
     0
 48
50.0
370
    -2
100
AcDbLine
 10
6393.721909610674
 20
7338.279869275121
 30
0.0
 11
6393.721909610674
 21
6378.279869275121
 31
0.0
  0
INSERT
  5
23DE7
330
23A3C
100
AcDbEntity
  8
寸法
 62
     0
 48
50.0
370
    -2
100
AcDbBlockReference
  2
_DOTSMALL
 10
6393.721909610674
 20
7338.279869275121
 30
0.0
 41
100.0
 42
100.0
 43
100.0
 50
90.0
  0
INSERT
  5
23DE8
330
23A3C
100
AcDbEntity
  8
寸法
 62
     0
 48
50.0
370
    -2
100
AcDbBlockReference
  2
_DOTSMALL
 10
6393.721909610674
 20
6378.279869275121
 30
0.0
 41
100.0
 42
100.0
 43
100.0
 50
270.0
  0
MTEXT
  5
23DE9
330
23A3C
100
AcDbEntity
  8
寸法
 62
     7
 48
50.0
100
AcDbMText
 10
6293.721909610673
 20
6895.779869275121
 30
0.0
 40
120.0
 41
0.0
 71
     5
 72
     1
  1
\A1;960
  7
STYLE1
 11
0.0000000000000001
 21
1.0
 31
0.0
 73
     1
 44
1.0
1001
ACAD
1000
MTEXTBEGIN
1070
    73
1070
     1
1070
    44
1040
1.0
1070
    74
1070
     0
1000
MTEXTEND
  0
POINT
  5
23DEA
330
23A3C
100
AcDbEntity
  8
DEFPOINTS
 62
     0
 48
50.0
100
AcDbPoint
 10
7268.600000000001
 20
7338.279869275121
 30
0.0
  0
POINT
  5
23DEB
330
23A3C
100
AcDbEntity
  8
DEFPOINTS
 62
     0
 48
50.0
100
AcDbPoint
 10
7268.600000000001
 20
6378.279869275121
 30
0.0
  0
POINT
  5
23DEC
330
23A3C
100
AcDbEntity
  8
DEFPOINTS
 62
     0
 48
50.0
100
AcDbPoint
 10
6393.721909610674
 20
6378.279869275121
 30
0.0
  0
ENDBLK
  5
23A47
330
23A3C
100
AcDbEntity
  8
0
 48
50.0
100
AcDbBlockEnd
  0
BLOCK
  5
23A53
330
23A48
100
AcDbEntity
  8
0
 48
50.0
100
AcDbBlockBegin
  2
*D34
 70
     1
 10
0.0
 20
0.0
 30
0.0
  3
*D34
  1

  0
LINE
  5
23DDA
330
23A48
100
AcDbEntity
  8
寸法
 62
     0
 48
50.0
370
    -2
100
AcDbLine
 10
7822.765475140901
 20
6378.279869275131
 30
0.0
 11
7691.285990614303
 21
6378.279869275131
 31
0.0
  0
LINE
  5
23DDB
330
23A48
100
AcDbEntity
  8
寸法
 62
     0
 48
50.0
370
    -2
100
AcDbLine
 10
8153.600000000007
 20
6858.279869275121
 30
0.0
 11
7691.285990614303
 21
6858.279869275121
 31
0.0
  0
LINE
  5
23DDC
330
23A48
100
AcDbEntity
  8
寸法
 62
     0
 48
50.0
370
    -2
100
AcDbLine
 10
7751.285990614302
 20
6858.279869275121
 30
0.0
 11
7751.285990614302
 21
6378.279869275131
 31
0.0
  0
LINE
  5
23DDD
330
23A48
100
AcDbEntity
  8
寸法
 62
     0
 48
50.0
370
    -2
100
AcDbLine
 10
7751.285990614302
 20
6378.279869275131
 30
0.0
 11
7751.285990614302
 21
5931.673570062532
 31
0.0
  0
INSERT
  5
23DDE
330
23A48
100
AcDbEntity
  8
寸法
 62
     0
 48
50.0
370
    -2
100
AcDbBlockReference
  2
_DOTSMALL
 10
7751.285990614302
 20
6858.279869275121
 30
0.0
 41
100.0
 42
100.0
 43
100.0
 50
90.0
  0
INSERT
  5
23DDF
330
23A48
100
AcDbEntity
  8
寸法
 62
     0
 48
50.0
370
    -2
100
AcDbBlockReference
  2
_DOTSMALL
 10
7751.285990614302
 20
6378.279869275131
 30
0.0
 41
100.0
 42
100.0
 43
100.0
 50
270.0
  0
MTEXT
  5
23DE0
330
23A48
100
AcDbEntity
  8
寸法
 62
     7
 48
50.0
100
AcDbMText
 10
7651.285990614301
 20
6085.720814157021
 30
0.0
 40
120.0
 41
0.0
 71
     5
 72
     1
  1
\A1;480
  7
STYLE1
 11
0.0000000000000001
 21
1.0
 31
0.0
 73
     1
 44
1.0
1001
ACAD
1000
MTEXTBEGIN
1070
    73
1070
     1
1070
    44
1040
1.0
1070
    74
1070
     0
1000
MTEXTEND
  0
POINT
  5
23DE1
330
23A48
100
AcDbEntity
  8
DEFPOINTS
 62
     0
 48
50.0
100
AcDbPoint
 10
7842.7654751409
 20
6378.279869275131
 30
0.0
  0
POINT
  5
23DE2
330
23A48
100
AcDbEntity
  8
DEFPOINTS
 62
     0
 48
50.0
100
AcDbPoint
 10
8173.600000000007
 20
6858.279869275121
 30
0.0
  0
POINT
  5
23DE3
330
23A48
100
AcDbEntity
  8
DEFPOINTS
 62
     0
 48
50.0
100
AcDbPoint
 10
7751.285990614302
 20
6858.279869275121
 30
0.0
  0
ENDBLK
  5
23A54
330
23A48
100
AcDbEntity
  8
0
 48
50.0
100
AcDbBlockEnd
  0
BLOCK
  5
23A6C
330
23A61
100
AcDbEntity
  8
0
 48
50.0
100
AcDbBlockBegin
  2
*D35
 70
     1
 10
0.0
 20
0.0
 30
0.0
  3
*D35
  1

  0
LINE
  5
23E6B
330
23A61
100
AcDbEntity
  8
寸法
 62
     0
 48
50.0
370
    -2
100
AcDbLine
 10
7321.600000000008
 20
6576.279869275125
 30
0.0
 11
6585.665006330073
 21
6576.279869275125
 31
0.0
  0
LINE
  5
23E6C
330
23A61
100
AcDbEntity
  8
寸法
 62
     0
 48
50.0
370
    -2
100
AcDbLine
 10
7248.6
 20
6378.279869275121
 30
0.0
 11
6585.665006330073
 21
6378.279869275121
 31
0.0
  0
LINE
  5
23E6D
330
23A61
100
AcDbEntity
  8
寸法
 62
     0
 48
50.0
370
    -2
100
AcDbLine
 10
6645.665006330073
 20
6576.279869275125
 30
0.0
 11
6645.665006330073
 21
6378.279869275121
 31
0.0
  0
LINE
  5
23E6E
330
23A61
100
AcDbEntity
  8
寸法
 62
     0
 48
50.0
370
    -2
100
AcDbLine
 10
6645.665006330073
 20
6378.279869275121
 30
0.0
 11
6645.665006330073
 21
5906.53926060287
 31
0.0
  0
INSERT
  5
23E6F
330
23A61
100
AcDbEntity
  8
寸法
 62
     0
 48
50.0
370
    -2
100
AcDbBlockReference
  2
_DOTSMALL
 10
6645.665006330073
 20
6576.279869275125
 30
0.0
 41
100.0
 42
100.0
 43
100.0
 50
90.0
  0
INSERT
  5
23E70
330
23A61
100
AcDbEntity
  8
寸法
 62
     0
 48
50.0
370
    -2
100
AcDbBlockReference
  2
_DOTSMALL
 10
6645.665006330073
 20
6378.279869275121
 30
0.0
 41
100.0
 42
100.0
 43
100.0
 50
270.0
  0
MTEXT
  5
23E71
330
23A61
100
AcDbEntity
  8
寸法
 62
     7
 48
50.0
100
AcDbMText
 10
6545.665006330072
 20
6042.748920432528
 30
0.0
 40
120.0
 41
0.0
 71
     5
 72
     1
  1
\A1;198
  7
STYLE1
 11
0.0000000000000001
 21
1.0
 31
0.0
 73
     1
 44
1.0
1001
ACAD
1000
MTEXTBEGIN
1070
    73
1070
     1
1070
    44
1040
1.0
1070
    74
1070
     0
1000
MTEXTEND
  0
POINT
  5
23E72
330
23A61
100
AcDbEntity
  8
DEFPOINTS
 62
     0
 48
50.0
100
AcDbPoint
 10
7341.600000000008
 20
6576.279869275125
 30
0.0
  0
POINT
  5
23E73
330
23A61
100
AcDbEntity
  8
DEFPOINTS
 62
     0
 48
50.0
100
AcDbPoint
 10
7268.600000000001
 20
6378.279869275121
 30
0.0
  0
POINT
  5
23E74
330
23A61
100
AcDbEntity
  8
DEFPOINTS
 62
     0
 48
50.0
100
AcDbPoint
 10
6645.665006330073
 20
6378.279869275121
 30
0.0
  0
ENDBLK
  5
23A6D
330
23A61
100
AcDbEntity
  8
0
 48
50.0
100
AcDbBlockEnd
  0
BLOCK
  5
23A78
330
23A6E
100
AcDbEntity
  8
0
 48
50.0
100
AcDbBlockBegin
  2
*D36
 70
     1
 10
0.0
 20
0.0
 30
0.0
  3
*D36
  1

  0
LINE
  5
23DC7
330
23A6E
100
AcDbEntity
  8
寸法
 62
     0
 48
50.0
370
    -2
100
AcDbLine
 10
7248.6
 20
6378.279869275076
 30
0.0
 11
7095.512673767878
 21
6378.279869275076
 31
0.0
  0
LINE
  5
23DC8
330
23A6E
100
AcDbEntity
  8
寸法
 62
     0
 48
50.0
370
    -2
100
AcDbLine
 10
7604.325326928806
 20
5658.279869275077
 30
0.0
 11
7095.512673767878
 21
5658.279869275077
 31
0.0
  0
LINE
  5
23DC9
330
23A6E
100
AcDbEntity
  8
寸法
 62
     0
 48
50.0
370
    -2
100
AcDbLine
 10
7155.512673767879
 20
6378.279869275076
 30
0.0
 11
7155.512673767877
 21
5658.279869275077
 31
0.0
  0
INSERT
  5
23DCA
330
23A6E
100
AcDbEntity
  8
寸法
 62
     0
 48
50.0
370
    -2
100
AcDbBlockReference
  2
_DOTSMALL
 10
7155.512673767879
 20
6378.279869275076
 30
0.0
 41
100.0
 42
100.0
 43
100.0
 50
90.0
  0
INSERT
  5
23DCB
330
23A6E
100
AcDbEntity
  8
寸法
 62
     0
 48
50.0
370
    -2
100
AcDbBlockReference
  2
_DOTSMALL
 10
7155.512673767877
 20
5658.279869275077
 30
0.0
 41
100.0
 42
100.0
 43
100.0
 50
270.0
  0
MTEXT
  5
23DCC
330
23A6E
100
AcDbEntity
  8
寸法
 62
     7
 48
50.0
100
AcDbMText
 10
7055.500862744255
 20
6018.279869275079
 30
0.0
 40
120.0
 41
0.0
 71
     5
 72
     1
  1
\A1;扉の出720
  7
STYLE1
 11
0.0000000000000001
 21
1.0
 31
0.0
 73
     1
 44
1.0
1001
ACAD
1000
MTEXTBEGIN
1070
    73
1070
     1
1070
    44
1040
1.0
1070
    74
1070
     0
1000
MTEXTEND
  0
POINT
  5
23DCD
330
23A6E
100
AcDbEntity
  8
DEFPOINTS
 62
     0
 48
50.0
100
AcDbPoint
 10
7268.600000000001
 20
6378.279869275076
 30
0.0
  0
POINT
  5
23DCE
330
23A6E
100
AcDbEntity
  8
DEFPOINTS
 62
     0
 48
50.0
100
AcDbPoint
 10
7624.325326928804
 20
5658.279869275077
 30
0.0
  0
POINT
  5
23DCF
330
23A6E
100
AcDbEntity
  8
DEFPOINTS
 62
     0
 48
50.0
100
AcDbPoint
 10
7155.512673767877
 20
5658.279869275077
 30
0.0
  0
ENDBLK
  5
23A79
330
23A6E
100
AcDbEntity
  8
0
 48
50.0
100
AcDbBlockEnd
  0
BLOCK
  5
23A8F
330
23A84
100
AcDbEntity
  8
0
 48
50.0
100
AcDbBlockBegin
  2
*D37
 70
     1
 10
0.0
 20
0.0
 30
0.0
  3
*D37
  1

  0
LINE
  5
23DBD
330
23A84
100
AcDbEntity
  8
寸法
 62
     0
 48
50.0
370
    -2
100
AcDbLine
 10
7248.6
 20
7338.279869275121
 30
0.0
 11
6585.665006330072
 21
7338.279869275121
 31
0.0
  0
LINE
  5
23DBE
330
23A84
100
AcDbEntity
  8
寸法
 62
     0
 48
50.0
370
    -2
100
AcDbLine
 10
7321.6
 20
7215.27986927512
 30
0.0
 11
6585.665006330072
 21
7215.27986927512
 31
0.0
  0
LINE
  5
23DBF
330
23A84
100
AcDbEntity
  8
寸法
 62
     0
 48
50.0
370
    -2
100
AcDbLine
 10
6645.665006330073
 20
7215.27986927512
 30
0.0
 11
6645.665006330073
 21
7338.279869275121
 31
0.0
  0
LINE
  5
23DC0
330
23A84
100
AcDbEntity
  8
寸法
 62
     0
 48
50.0
370
    -2
100
AcDbLine
 10
6645.665006330073
 20
7338.279869275121
 30
0.0
 11
6645.665006330073
 21
7749.871752367157
 31
0.0
  0
INSERT
  5
23DC1
330
23A84
100
AcDbEntity
  8
寸法
 62
     0
 48
50.0
370
    -2
100
AcDbBlockReference
  2
_DOTSMALL
 10
6645.665006330073
 20
7215.27986927512
 30
0.0
 41
100.0
 42
100.0
 43
100.0
 50
270.0
  0
INSERT
  5
23DC2
330
23A84
100
AcDbEntity
  8
寸法
 62
     0
 48
50.0
370
    -2
100
AcDbBlockReference
  2
_DOTSMALL
 10
6645.665006330073
 20
7338.279869275121
 30
0.0
 41
100.0
 42
100.0
 43
100.0
 50
90.0
  0
MTEXT
  5
23DC3
330
23A84
100
AcDbEntity
  8
寸法
 62
     7
 48
50.0
100
AcDbMText
 10
6545.653195306449
 20
7611.38647099292
 30
0.0
 40
120.0
 41
0.0
 71
     5
 72
     1
  1
\A1;123
  7
STYLE1
 11
0.0000000000000001
 21
1.0
 31
0.0
 73
     1
 44
1.0
1001
ACAD
1000
MTEXTBEGIN
1070
    73
1070
     1
1070
    44
1040
1.0
1070
    74
1070
     0
1000
MTEXTEND
  0
POINT
  5
23DC4
330
23A84
100
AcDbEntity
  8
DEFPOINTS
 62
     0
 48
50.0
100
AcDbPoint
 10
7268.600000000001
 20
7338.279869275121
 30
0.0
  0
POINT
  5
23DC5
330
23A84
100
AcDbEntity
  8
DEFPOINTS
 62
     0
 48
50.0
100
AcDbPoint
 10
7341.600000000001
 20
7215.27986927512
 30
0.0
  0
POINT
  5
23DC6
330
23A84
100
AcDbEntity
  8
DEFPOINTS
 62
     0
 48
50.0
100
AcDbPoint
 10
6645.665006330073
 20
7215.27986927512
 30
0.0
  0
ENDBLK
  5
23A90
330
23A84
100
AcDbEntity
  8
0
 48
50.0
100
AcDbBlockEnd
  0
BLOCK
  5
23AA8
330
23A9E
100
AcDbEntity
  8
0
 48
50.0
100
AcDbBlockBegin
  2
*D38
 70
     1
 10
0.0
 20
0.0
 30
0.0
  3
*D38
  1

  0
LINE
  5
23DB4
330
23A9E
100
AcDbEntity
  8
寸法
 62
     0
 48
50.0
370
    -2
100
AcDbLine
 10
8223.600000000008
 20
6928.27986927512
 30
0.0
 11
8223.600000000008
 21
7880.888685945369
 31
0.0
  0
LINE
  5
23DB5
330
23A9E
100
AcDbEntity
  8
寸法
 62
     0
 48
50.0
370
    -2
100
AcDbLine
 10
7268.600000000001
 20
7358.279869275121
 30
0.0
 11
7268.600000000001
 21
7880.888685945369
 31
0.0
  0
LINE
  5
23DB6
330
23A9E
100
AcDbEntity
  8
寸法
 62
     0
 48
50.0
370
    -2
100
AcDbLine
 10
8223.600000000008
 20
7820.888685945369
 30
0.0
 11
7268.600000000001
 21
7820.888685945369
 31
0.0
  0
INSERT
  5
23DB7
330
23A9E
100
AcDbEntity
  8
寸法
 62
     0
 48
50.0
370
    -2
100
AcDbBlockReference
  2
_DOTSMALL
 10
8223.600000000008
 20
7820.888685945369
 30
0.0
 41
100.0
 42
100.0
 43
100.0
  0
INSERT
  5
23DB8
330
23A9E
100
AcDbEntity
  8
寸法
 62
     0
 48
50.0
370
    -2
100
AcDbBlockReference
  2
_DOTSMALL
 10
7268.600000000001
 20
7820.888685945369
 30
0.0
 41
100.0
 42
100.0
 43
100.0
 50
180.0
  0
MTEXT
  5
23DB9
330
23A9E
100
AcDbEntity
  8
寸法
 62
     7
 48
50.0
100
AcDbMText
 10
7746.100000000004
 20
7920.888685945368
 30
0.0
 40
120.0
 41
0.0
 71
     5
 72
     1
  1
\A1;955
  7
STYLE1
 73
     1
 44
1.0
1001
ACAD
1000
MTEXTBEGIN
1070
    73
1070
     1
1070
    44
1040
1.0
1070
    74
1070
     0
1000
MTEXTEND
  0
POINT
  5
23DBA
330
23A9E
100
AcDbEntity
  8
DEFPOINTS
 62
     0
 48
50.0
100
AcDbPoint
 10
8223.600000000008
 20
6908.279869275121
 30
0.0
  0
POINT
  5
23DBB
330
23A9E
100
AcDbEntity
  8
DEFPOINTS
 62
     0
 48
50.0
100
AcDbPoint
 10
7268.600000000001
 20
7338.279869275121
 30
0.0
  0
POINT
  5
23DBC
330
23A9E
100
AcDbEntity
  8
DEFPOINTS
 62
     0
 48
50.0
100
AcDbPoint
 10
7268.600000000001
 20
7820.888685945369
 30
0.0
  0
ENDBLK
  5
23AA9
330
23A9E
100
AcDbEntity
  8
0
 48
50.0
100
AcDbBlockEnd
  0
BLOCK
  5
23AB5
330
23AAA
100
AcDbEntity
  8
0
 48
50.0
100
AcDbBlockBegin
  2
*D39
 70
     1
 10
0.0
 20
0.0
 30
0.0
  3
*D39
  1

  0
LINE
  5
23DAA
330
23AAA
100
AcDbEntity
  8
寸法
 62
     0
 48
50.0
370
    -2
100
AcDbLine
 10
7391.600000000001
 20
7285.279869275121
 30
0.0
 11
7391.600000000001
 21
8124.546327369031
 31
0.0
  0
LINE
  5
23DAB
330
23AAA
100
AcDbEntity
  8
寸法
 62
     0
 48
50.0
370
    -2
100
AcDbLine
 10
7268.600000000001
 20
7358.279869275121
 30
0.0
 11
7268.600000000001
 21
8124.546327369031
 31
0.0
  0
LINE
  5
23DAC
330
23AAA
100
AcDbEntity
  8
寸法
 62
     0
 48
50.0
370
    -2
100
AcDbLine
 10
7391.600000000001
 20
8064.546327369031
 30
0.0
 11
7268.600000000001
 21
8064.546327369031
 31
0.0
  0
LINE
  5
23DAD
330
23AAA
100
AcDbEntity
  8
寸法
 62
     0
 48
50.0
370
    -2
100
AcDbLine
 10
7268.600000000001
 20
8064.546327369031
 30
0.0
 11
6857.008116907962
 21
8064.546327369031
 31
0.0
  0
INSERT
  5
23DAE
330
23AAA
100
AcDbEntity
  8
寸法
 62
     0
 48
50.0
370
    -2
100
AcDbBlockReference
  2
_DOTSMALL
 10
7391.600000000001
 20
8064.546327369031
 30
0.0
 41
100.0
 42
100.0
 43
100.0
  0
INSERT
  5
23DAF
330
23AAA
100
AcDbEntity
  8
寸法
 62
     0
 48
50.0
370
    -2
100
AcDbBlockReference
  2
_DOTSMALL
 10
7268.600000000001
 20
8064.546327369031
 30
0.0
 41
100.0
 42
100.0
 43
100.0
 50
180.0
  0
MTEXT
  5
23DB0
330
23AAA
100
AcDbEntity
  8
寸法
 62
     7
 48
50.0
100
AcDbMText
 10
6995.493398282203
 20
8164.558138392653
 30
0.0
 40
120.0
 41
0.0
 71
     5
 72
     1
  1
\A1;123
  7
STYLE1
 73
     1
 44
1.0
1001
ACAD
1000
MTEXTBEGIN
1070
    73
1070
     1
1070
    44
1040
1.0
1070
    74
1070
     0
1000
MTEXTEND
  0
POINT
  5
23DB1
330
23AAA
100
AcDbEntity
  8
DEFPOINTS
 62
     0
 48
50.0
100
AcDbPoint
 10
7391.600000000001
 20
7265.27986927512
 30
0.0
  0
POINT
  5
23DB2
330
23AAA
100
AcDbEntity
  8
DEFPOINTS
 62
     0
 48
50.0
100
AcDbPoint
 10
7268.600000000001
 20
7338.279869275121
 30
0.0
  0
POINT
  5
23DB3
330
23AAA
100
AcDbEntity
  8
DEFPOINTS
 62
     0
 48
50.0
100
AcDbPoint
 10
7268.600000000001
 20
8064.546327369031
 30
0.0
  0
ENDBLK
  5
23AB6
330
23AAA
100
AcDbEntity
  8
0
 48
50.0
100
AcDbBlockEnd
  0
BLOCK
  5
23AC2
330
23AB7
100
AcDbEntity
  8
0
 48
50.0
100
AcDbBlockBegin
  2
*D40
 70
     1
 10
0.0
 20
0.0
 30
0.0
  3
*D40
  1

  0
LINE
  5
23DA0
330
23AB7
100
AcDbEntity
  8
寸法
 62
     0
 48
50.0
370
    -2
100
AcDbLine
 10
8153.600000000007
 20
6858.279869275121
 30
0.0
 11
7691.285990614301
 21
6858.279869275121
 31
0.0
  0
LINE
  5
23DA1
330
23AB7
100
AcDbEntity
  8
寸法
 62
     0
 48
50.0
370
    -2
100
AcDbLine
 10
7822.765475140901
 20
7338.279869275121
 30
0.0
 11
7691.285990614301
 21
7338.279869275121
 31
0.0
  0
LINE
  5
23DA2
330
23AB7
100
AcDbEntity
  8
寸法
 62
     0
 48
50.0
370
    -2
100
AcDbLine
 10
7751.285990614302
 20
6858.279869275121
 30
0.0
 11
7751.285990614302
 21
7338.279869275121
 31
0.0
  0
LINE
  5
23DA3
330
23AB7
100
AcDbEntity
  8
寸法
 62
     0
 48
50.0
370
    -2
100
AcDbLine
 10
7751.285990614302
 20
7338.279869275121
 30
0.0
 11
7751.285990614302
 21
7784.88616848772
 31
0.0
  0
INSERT
  5
23DA4
330
23AB7
100
AcDbEntity
  8
寸法
 62
     0
 48
50.0
370
    -2
100
AcDbBlockReference
  2
_DOTSMALL
 10
7751.285990614302
 20
6858.279869275121
 30
0.0
 41
100.0
 42
100.0
 43
100.0
 50
270.0
  0
INSERT
  5
23DA5
330
23AB7
100
AcDbEntity
  8
寸法
 62
     0
 48
50.0
370
    -2
100
AcDbBlockReference
  2
_DOTSMALL
 10
7751.285990614302
 20
7338.279869275121
 30
0.0
 41
100.0
 42
100.0
 43
100.0
 50
90.0
  0
MTEXT
  5
23DA6
330
23AB7
100
AcDbEntity
  8
寸法
 62
     7
 48
50.0
100
AcDbMText
 10
7651.285990614301
 20
7630.838924393232
 30
0.0
 40
120.0
 41
0.0
 71
     5
 72
     1
  1
\A1;480
  7
STYLE1
 11
0.0000000000000001
 21
1.0
 31
0.0
 73
     1
 44
1.0
1001
ACAD
1000
MTEXTBEGIN
1070
    73
1070
     1
1070
    44
1040
1.0
1070
    74
1070
     0
1000
MTEXTEND
  0
POINT
  5
23DA7
330
23AB7
100
AcDbEntity
  8
DEFPOINTS
 62
     0
 48
50.0
100
AcDbPoint
 10
8173.600000000007
 20
6858.279869275121
 30
0.0
  0
POINT
  5
23DA8
330
23AB7
100
AcDbEntity
  8
DEFPOINTS
 62
     0
 48
50.0
100
AcDbPoint
 10
7842.7654751409
 20
7338.279869275121
 30
0.0
  0
POINT
  5
23DA9
330
23AB7
100
AcDbEntity
  8
DEFPOINTS
 62
     0
 48
50.0
100
AcDbPoint
 10
7751.285990614302
 20
7338.279869275121
 30
0.0
  0
ENDBLK
  5
23AC3
330
23AB7
100
AcDbEntity
  8
0
 48
50.0
100
AcDbBlockEnd
  0
BLOCK
  5
23ACF
330
23AC4
100
AcDbEntity
  8
0
 48
50.0
100
AcDbBlockBegin
  2
*D41
 70
     1
 10
0.0
 20
0.0
 30
0.0
  3
*D41
  1

  0
LINE
  5
23D96
330
23AC4
100
AcDbEntity
  8
寸法
 62
     0
 48
50.0
370
    -2
100
AcDbLine
 10
9178.600000000001
 20
7358.279869275121
 30
0.0
 11
9178.600000000001
 21
8124.546327369031
 31
0.0
  0
LINE
  5
23D97
330
23AC4
100
AcDbEntity
  8
寸法
 62
     0
 48
50.0
370
    -2
100
AcDbLine
 10
9055.600000000001
 20
7285.279869275121
 30
0.0
 11
9055.600000000001
 21
8124.546327369031
 31
0.0
  0
LINE
  5
23D98
330
23AC4
100
AcDbEntity
  8
寸法
 62
     0
 48
50.0
370
    -2
100
AcDbLine
 10
9055.600000000001
 20
8064.546327369031
 30
0.0
 11
9178.600000000001
 21
8064.546327369031
 31
0.0
  0
LINE
  5
23D99
330
23AC4
100
AcDbEntity
  8
寸法
 62
     0
 48
50.0
370
    -2
100
AcDbLine
 10
9178.600000000001
 20
8064.546327369031
 30
0.0
 11
9590.191883092037
 21
8064.546327369031
 31
0.0
  0
INSERT
  5
23D9A
330
23AC4
100
AcDbEntity
  8
寸法
 62
     0
 48
50.0
370
    -2
100
AcDbBlockReference
  2
_DOTSMALL
 10
9055.600000000001
 20
8064.546327369031
 30
0.0
 41
100.0
 42
100.0
 43
100.0
 50
180.0
  0
INSERT
  5
23D9B
330
23AC4
100
AcDbEntity
  8
寸法
 62
     0
 48
50.0
370
    -2
100
AcDbBlockReference
  2
_DOTSMALL
 10
9178.600000000001
 20
8064.546327369031
 30
0.0
 41
100.0
 42
100.0
 43
100.0
  0
MTEXT
  5
23D9C
330
23AC4
100
AcDbEntity
  8
寸法
 62
     7
 48
50.0
100
AcDbMText
 10
9451.706601717798
 20
8164.558138392653
 30
0.0
 40
120.0
 41
0.0
 71
     5
 72
     1
  1
\A1;123
  7
STYLE1
 73
     1
 44
1.0
1001
ACAD
1000
MTEXTBEGIN
1070
    73
1070
     1
1070
    44
1040
1.0
1070
    74
1070
     0
1000
MTEXTEND
  0
POINT
  5
23D9D
330
23AC4
100
AcDbEntity
  8
DEFPOINTS
 62
     0
 48
50.0
100
AcDbPoint
 10
9178.600000000001
 20
7338.279869275121
 30
0.0
  0
POINT
  5
23D9E
330
23AC4
100
AcDbEntity
  8
DEFPOINTS
 62
     0
 48
50.0
100
AcDbPoint
 10
9055.600000000001
 20
7265.27986927512
 30
0.0
  0
POINT
  5
23D9F
330
23AC4
100
AcDbEntity
  8
DEFPOINTS
 62
     0
 48
50.0
100
AcDbPoint
 10
9055.600000000001
 20
8064.546327369031
 30
0.0
  0
ENDBLK
  5
23AD0
330
23AC4
100
AcDbEntity
  8
0
 48
50.0
100
AcDbBlockEnd
  0
BLOCK
  5
23AE9
330
23ADE
100
AcDbEntity
  8
0
 48
50.0
100
AcDbBlockBegin
  2
*D42
 70
     1
 10
0.0
 20
0.0
 30
0.0
  3
*D42
  1

  0
LINE
  5
23ED8
330
23ADE
100
AcDbEntity
  8
寸法
 62
     0
 48
50.0
370
    -2
100
AcDbLine
 10
9178.600000000001
 20
7054.96097534334
 30
0.0
 11
9178.600000000001
 21
6997.967711304507
 31
0.0
  0
LINE
  5
23ED9
330
23ADE
100
AcDbEntity
  8
寸法
 62
     0
 48
50.0
370
    -2
100
AcDbLine
 10
9058.6
 20
7077.967711304506
 30
0.0
 11
9058.6
 21
7117.967711304507
 31
0.0
  0
LINE
  5
23EDA
330
23ADE
100
AcDbEntity
  8
寸法
 62
     0
 48
50.0
370
    -2
100
AcDbLine
 10
9058.6
 20
7057.967711304508
 30
0.0
 11
9178.600000000001
 21
7057.967711304508
 31
0.0
  0
LINE
  5
23EDB
330
23ADE
100
AcDbEntity
  8
寸法
 62
     0
 48
50.0
370
    -2
100
AcDbLine
 10
9178.600000000001
 20
7057.967711304508
 30
0.0
 11
9584.7062992126
 21
7057.967711304508
 31
0.0
  0
INSERT
  5
23EDC
330
23ADE
100
AcDbEntity
  8
寸法
 62
     0
 48
50.0
370
    -2
100
AcDbBlockReference
  2
_DOTSMALL
 10
9058.6
 20
7057.967711304508
 30
0.0
 41
100.0
 42
100.0
 43
100.0
 50
180.0
  0
INSERT
  5
23EDD
330
23ADE
100
AcDbEntity
  8
寸法
 62
     0
 48
50.0
370
    -2
100
AcDbBlockReference
  2
_DOTSMALL
 10
9178.600000000001
 20
7057.967711304508
 30
0.0
 41
100.0
 42
100.0
 43
100.0
  0
MTEXT
  5
23EDE
330
23ADE
100
AcDbEntity
  8
寸法
 62
     7
 48
50.0
100
AcDbMText
 10
9448.659055118111
 20
7157.97952232813
 30
0.0
 40
120.0
 41
0.0
 71
     5
 72
     1
  1
\A1;120
  7
STYLE1
 73
     1
 44
1.0
1001
ACAD
1000
MTEXTBEGIN
1070
    73
1070
     1
1070
    44
1040
1.0
1070
    74
1070
     0
1000
MTEXTEND
  0
POINT
  5
23EDF
330
23ADE
100
AcDbEntity
  8
DEFPOINTS
 62
     0
 48
50.0
100
AcDbPoint
 10
9178.600000000001
 20
7074.960975343341
 30
0.0
  0
POINT
  5
23EE0
330
23ADE
100
AcDbEntity
  8
DEFPOINTS
 62
     0
 48
50.0
100
AcDbPoint
 10
9058.6
 20
7057.967711304508
 30
0.0
  0
POINT
  5
23EE1
330
23ADE
100
AcDbEntity
  8
DEFPOINTS
 62
     0
 48
50.0
100
AcDbPoint
 10
9058.6
 20
7057.967711304508
 30
0.0
  0
ENDBLK
  5
23AEA
330
23ADE
100
AcDbEntity
  8
0
 48
50.0
100
AcDbBlockEnd
  0
BLOCK
  5
241A4
330
2419A
100
AcDbEntity
  8
0
 48
50.0
100
AcDbBlockBegin
  2
*D49
 70
     1
 10
0.0
 20
0.0
 30
0.0
  3
*D49
  1

  0
LINE
  5
241E4
330
2419A
100
AcDbEntity
  8
寸法
 62
     0
 48
50.0
370
    -2
100
AcDbLine
 10
6493.556061207836
 20
2085.458200884643
 30
0.0
 11
6493.556061207836
 21
2545.126008801023
 31
0.0
  0
LINE
  5
241E5
330
2419A
100
AcDbEntity
  8
寸法
 62
     0
 48
50.0
370
    -2
100
AcDbLine
 10
6301.556061207836
 20
2085.458200884643
 30
0.0
 11
6301.556061207836
 21
2545.126008801023
 31
0.0
  0
LINE
  5
241E6
330
2419A
100
AcDbEntity
  8
寸法
 62
     0
 48
50.0
370
    -2
100
AcDbLine
 10
6493.556061207836
 20
2485.126008801023
 30
0.0
 11
6301.556061207836
 21
2485.126008801023
 31
0.0
  0
INSERT
  5
241E7
330
2419A
100
AcDbEntity
  8
寸法
 62
     0
 48
50.0
370
    -2
100
AcDbBlockReference
  2
_DOTSMALL
 10
6493.556061207836
 20
2485.126008801023
 30
0.0
 41
100.0
 42
100.0
 43
100.0
  0
INSERT
  5
241E8
330
2419A
100
AcDbEntity
  8
寸法
 62
     0
 48
50.0
370
    -2
100
AcDbBlockReference
  2
_DOTSMALL
 10
6301.556061207836
 20
2485.126008801023
 30
0.0
 41
100.0
 42
100.0
 43
100.0
 50
180.0
  0
MTEXT
  5
241E9
330
2419A
100
AcDbEntity
  8
寸法
 62
     7
 48
50.0
100
AcDbMText
 10
6397.556061207836
 20
2785.161441871889
 30
0.0
 40
120.0
 41
0.0
 71
     5
 72
     1
  1
\A1;120\P200\P280
  7
STYLE1
 73
     1
 44
1.0
1001
ACAD
1000
MTEXTBEGIN
1070
    73
1070
     1
1070
    44
1040
1.0
1070
    74
1070
     0
1000
MTEXTEND
  0
POINT
  5
241EA
330
2419A
100
AcDbEntity
  8
DEFPOINTS
 62
     0
 48
50.0
100
AcDbPoint
 10
6493.556061207836
 20
2065.458200884643
 30
0.0
  0
POINT
  5
241EB
330
2419A
100
AcDbEntity
  8
DEFPOINTS
 62
     0
 48
50.0
100
AcDbPoint
 10
6301.556061207836
 20
2065.458200884643
 30
0.0
  0
POINT
  5
241EC
330
2419A
100
AcDbEntity
  8
DEFPOINTS
 62
     0
 48
50.0
100
AcDbPoint
 10
6301.556061207836
 20
2485.126008801023
 30
0.0
  0
ENDBLK
  5
241A5
330
2419A
100
AcDbEntity
  8
0
 48
50.0
100
AcDbBlockEnd
  0
BLOCK
  5
241B0
330
241A6
100
AcDbEntity
  8
0
 48
50.0
100
AcDbBlockBegin
  2
*D50
 70
     1
 10
0.0
 20
0.0
 30
0.0
  3
*D50
  1

  0
LINE
  5
241ED
330
241A6
100
AcDbEntity
  8
寸法
 62
     0
 48
50.0
370
    -2
100
AcDbLine
 10
6173.556061207836
 20
1133.458200884643
 30
0.0
 11
6173.556061207836
 21
683.0285628794826
 31
0.0
  0
LINE
  5
241EE
330
241A6
100
AcDbEntity
  8
寸法
 62
     0
 48
50.0
370
    -2
100
AcDbLine
 10
6621.556061207837
 20
1133.458200884643
 30
0.0
 11
6621.556061207837
 21
683.0285628794826
 31
0.0
  0
LINE
  5
241EF
330
241A6
100
AcDbEntity
  8
寸法
 62
     0
 48
50.0
370
    -2
100
AcDbLine
 10
6173.556061207836
 20
743.0285628794827
 30
0.0
 11
6621.556061207837
 21
743.0285628794827
 31
0.0
  0
INSERT
  5
241F0
330
241A6
100
AcDbEntity
  8
寸法
 62
     0
 48
50.0
370
    -2
100
AcDbBlockReference
  2
_DOTSMALL
 10
6173.556061207836
 20
743.0285628794827
 30
0.0
 41
100.0
 42
100.0
 43
100.0
 50
180.0
  0
INSERT
  5
241F1
330
241A6
100
AcDbEntity
  8
寸法
 62
     0
 48
50.0
370
    -2
100
AcDbBlockReference
  2
_DOTSMALL
 10
6621.556061207837
 20
743.0285628794827
 30
0.0
 41
100.0
 42
100.0
 43
100.0
  0
MTEXT
  5
241F2
330
241A6
100
AcDbEntity
  8
寸法
 62
     7
 48
50.0
100
AcDbMText
 10
6377.459302529612
 20
843.0285628794827
 30
0.0
 40
120.0
 41
0.0
 71
     5
 72
     1
  1
\A1;300
  7
STYLE1
 73
     1
 44
1.0
1001
ACAD
1000
MTEXTBEGIN
1070
    73
1070
     1
1070
    44
1040
1.0
1070
    74
1070
     0
1000
MTEXTEND
  0
POINT
  5
241F3
330
241A6
100
AcDbEntity
  8
DEFPOINTS
 62
     0
 48
50.0
100
AcDbPoint
 10
6173.556061207836
 20
1153.458200884643
 30
0.0
  0
POINT
  5
241F4
330
241A6
100
AcDbEntity
  8
DEFPOINTS
 62
     0
 48
50.0
100
AcDbPoint
 10
6621.556061207837
 20
1153.458200884643
 30
0.0
  0
POINT
  5
241F5
330
241A6
100
AcDbEntity
  8
DEFPOINTS
 62
     0
 48
50.0
100
AcDbPoint
 10
6621.556061207837
 20
743.0285628794827
 30
0.0
  0
ENDBLK
  5
241B1
330
241A6
100
AcDbEntity
  8
0
 48
50.0
100
AcDbBlockEnd
  0
BLOCK
  5
241BC
330
241B2
100
AcDbEntity
  8
0
 48
50.0
100
AcDbBlockBegin
  2
*D51
 70
     1
 10
0.0
 20
0.0
 30
0.0
  3
*D51
  1

  0
LINE
  5
241F6
330
241B2
100
AcDbEntity
  8
寸法
 62
     0
 48
50.0
370
    -2
100
AcDbLine
 10
6281.556061207837
 20
2065.458200884643
 30
0.0
 11
5506.518822646096
 21
2065.458200884643
 31
0.0
  0
LINE
  5
241F7
330
241B2
100
AcDbEntity
  8
寸法
 62
     0
 48
50.0
370
    -2
100
AcDbLine
 10
6073.55606120784
 20
1281.458200884643
 30
0.0
 11
5506.518822646096
 21
1281.458200884643
 31
0.0
  0
LINE
  5
241F8
330
241B2
100
AcDbEntity
  8
寸法
 62
     0
 48
50.0
370
    -2
100
AcDbLine
 10
5566.518822646097
 20
2065.458200884643
 30
0.0
 11
5566.518822646096
 21
1281.458200884643
 31
0.0
  0
INSERT
  5
241F9
330
241B2
100
AcDbEntity
  8
寸法
 62
     0
 48
50.0
370
    -2
100
AcDbBlockReference
  2
_DOTSMALL
 10
5566.518822646097
 20
2065.458200884643
 30
0.0
 41
100.0
 42
100.0
 43
100.0
 50
90.0
  0
INSERT
  5
241FA
330
241B2
100
AcDbEntity
  8
寸法
 62
     0
 48
50.0
370
    -2
100
AcDbBlockReference
  2
_DOTSMALL
 10
5566.518822646096
 20
1281.458200884643
 30
0.0
 41
100.0
 42
100.0
 43
100.0
 50
270.0
  0
MTEXT
  5
241FB
330
241B2
100
AcDbEntity
  8
寸法
 62
     7
 48
50.0
100
AcDbMText
 10
5466.518822646096
 20
1652.998350540643
 30
0.0
 40
120.0
 41
0.0
 71
     5
 72
     1
  1
\A1;540
  7
STYLE1
 11
0.0000000000000001
 21
1.0
 31
0.0
 73
     1
 44
1.0
1001
ACAD
1000
MTEXTBEGIN
1070
    73
1070
     1
1070
    44
1040
1.0
1070
    74
1070
     0
1000
MTEXTEND
  0
POINT
  5
241FC
330
241B2
100
AcDbEntity
  8
DEFPOINTS
 62
     0
 48
50.0
100
AcDbPoint
 10
6301.556061207836
 20
2065.458200884643
 30
0.0
  0
POINT
  5
241FD
330
241B2
100
AcDbEntity
  8
DEFPOINTS
 62
     0
 48
50.0
100
AcDbPoint
 10
6093.55606120784
 20
1281.458200884643
 30
0.0
  0
POINT
  5
241FE
330
241B2
100
AcDbEntity
  8
DEFPOINTS
 62
     0
 48
50.0
100
AcDbPoint
 10
5566.518822646096
 20
1281.458200884643
 30
0.0
  0
ENDBLK
  5
241BD
330
241B2
100
AcDbEntity
  8
0
 48
50.0
100
AcDbBlockEnd
  0
BLOCK
  5
241C8
330
241BE
100
AcDbEntity
  8
0
 48
50.0
100
AcDbBlockBegin
  2
*D52
 70
     1
 10
0.0
 20
0.0
 30
0.0
  3
*D52
  1

  0
LINE
  5
241FF
330
241BE
100
AcDbEntity
  8
寸法
 62
     0
 48
50.0
370
    -2
100
AcDbLine
 10
6153.556061207837
 20
1521.458200884643
 30
0.0
 11
5971.135747475377
 21
1521.458200884643
 31
0.0
  0
LINE
  5
24200
330
241BE
100
AcDbEntity
  8
寸法
 62
     0
 48
50.0
370
    -2
100
AcDbLine
 10
6073.55606120784
 20
1281.458200884643
 30
0.0
 11
5971.135747475377
 21
1281.458200884643
 31
0.0
  0
LINE
  5
24201
330
241BE
100
AcDbEntity
  8
寸法
 62
     0
 48
50.0
370
    -2
100
AcDbLine
 10
6031.135747475377
 20
1521.458200884643
 30
0.0
 11
6031.135747475377
 21
1281.458200884643
 31
0.0
  0
INSERT
  5
24202
330
241BE
100
AcDbEntity
  8
寸法
 62
     0
 48
50.0
370
    -2
100
AcDbBlockReference
  2
_DOTSMALL
 10
6031.135747475377
 20
1521.458200884643
 30
0.0
 41
100.0
 42
100.0
 43
100.0
 50
90.0
  0
INSERT
  5
24203
330
241BE
100
AcDbEntity
  8
寸法
 62
     0
 48
50.0
370
    -2
100
AcDbBlockReference
  2
_DOTSMALL
 10
6031.135747475377
 20
1281.458200884643
 30
0.0
 41
100.0
 42
100.0
 43
100.0
 50
270.0
  0
MTEXT
  5
24204
330
241BE
100
AcDbEntity
  8
寸法
 62
     7
 48
50.0
100
AcDbMText
 10
5931.135747475376
 20
1401.458200884644
 30
0.0
 40
120.0
 41
0.0
 71
     5
 72
     1
  1
\A1;150
  7
STYLE1
 11
0.0000000000000001
 21
1.0
 31
0.0
 73
     1
 44
1.0
1001
ACAD
1000
MTEXTBEGIN
1070
    73
1070
     1
1070
    44
1040
1.0
1070
    74
1070
     0
1000
MTEXTEND
  0
POINT
  5
24205
330
241BE
100
AcDbEntity
  8
DEFPOINTS
 62
     0
 48
50.0
100
AcDbPoint
 10
6173.556061207836
 20
1521.458200884643
 30
0.0
  0
POINT
  5
24206
330
241BE
100
AcDbEntity
  8
DEFPOINTS
 62
     0
 48
50.0
100
AcDbPoint
 10
6093.55606120784
 20
1281.458200884643
 30
0.0
  0
POINT
  5
24207
330
241BE
100
AcDbEntity
  8
DEFPOINTS
 62
     0
 48
50.0
100
AcDbPoint
 10
6031.135747475377
 20
1281.458200884643
 30
0.0
  0
ENDBLK
  5
241C9
330
241BE
100
AcDbEntity
  8
0
 48
50.0
100
AcDbBlockEnd
  0
BLOCK
  5
241D6
330
241CA
100
AcDbEntity
  8
0
 48
50.0
100
AcDbBlockBegin
  2
*D53
 70
     1
 10
0.0
 20
0.0
 30
0.0
  3
*D53
  1

  0
LINE
  5
24208
330
241CA
100
AcDbEntity
  8
寸法
 62
     0
 48
50.0
370
    -2
100
AcDbLine
 10
8248.395374385031
 20
2118.218200884644
 30
0.0
 11
9253.518640272901
 21
2118.218200884644
 31
0.0
  0
LINE
  5
24209
330
241CA
100
AcDbEntity
  8
寸法
 62
     0
 48
50.0
370
    -2
100
AcDbLine
 10
8435.595374385028
 20
2065.458200884643
 30
0.0
 11
9253.518640272901
 21
2065.458200884643
 31
0.0
  0
LINE
  5
2420A
330
241CA
100
AcDbEntity
  8
寸法
 62
     0
 48
50.0
370
    -2
100
AcDbLine
 10
9193.518640272902
 20
2118.218200884644
 30
0.0
 11
9193.518640272902
 21
2218.218200884644
 31
0.0
  0
LINE
  5
2420B
330
241CA
100
AcDbEntity
  8
寸法
 62
     0
 48
50.0
370
    -2
100
AcDbLine
 10
9193.518640272902
 20
2065.458200884643
 30
0.0
 11
9193.518640272902
 21
1333.440394041676
 31
0.0
  0
LINE
  5
2420C
330
241CA
100
AcDbEntity
  8
寸法
 62
     0
 48
50.0
370
    -2
100
AcDbLine
 10
9193.518640272902
 20
2118.218200884644
 30
0.0
 11
9193.518640272902
 21
2065.458200884643
 31
0.0
  0
INSERT
  5
2420D
330
241CA
100
AcDbEntity
  8
寸法
 62
     0
 48
50.0
370
    -2
100
AcDbBlockReference
  2
_DOTSMALL
 10
9193.518640272902
 20
2118.218200884644
 30
0.0
 41
100.0
 42
100.0
 43
100.0
 50
270.0
  0
INSERT
  5
2420E
330
241CA
100
AcDbEntity
  8
寸法
 62
     0
 48
50.0
370
    -2
100
AcDbBlockReference
  2
_DOTSMALL
 10
9193.518640272902
 20
2065.458200884643
 30
0.0
 41
100.0
 42
100.0
 43
100.0
 50
90.0
  0
MTEXT
  5
2420F
330
241CA
100
AcDbEntity
  8
寸法
 62
     7
 48
50.0
100
AcDbMText
 10
9093.50682924928
 20
1599.44929746316
 30
0.0
 40
120.0
 41
0.0
 71
     5
 72
     1
  1
\A1;20～25
  7
STYLE1
 11
0.0000000000000001
 21
1.0
 31
0.0
 73
     1
 44
1.0
1001
ACAD
1000
MTEXTBEGIN
1070
    73
1070
     1
1070
    44
1040
1.0
1070
    74
1070
     0
1000
MTEXTEND
  0
POINT
  5
24210
330
241CA
100
AcDbEntity
  8
DEFPOINTS
 62
     0
 48
50.0
100
AcDbPoint
 10
8228.39537438503
 20
2118.218200884644
 30
0.0
  0
POINT
  5
24211
330
241CA
100
AcDbEntity
  8
DEFPOINTS
 62
     0
 48
50.0
100
AcDbPoint
 10
8415.595374385031
 20
2065.458200884643
 30
0.0
  0
POINT
  5
24212
330
241CA
100
AcDbEntity
  8
DEFPOINTS
 62
     0
 48
50.0
100
AcDbPoint
 10
9193.518640272902
 20
2065.458200884643
 30
0.0
  0
ENDBLK
  5
241D7
330
241CA
100
AcDbEntity
  8
0
 48
50.0
100
AcDbBlockEnd
  0
BLOCK
  5
241E2
330
241D8
100
AcDbEntity
  8
0
 48
50.0
100
AcDbBlockBegin
  2
*D54
 70
     1
 10
0.0
 20
0.0
 30
0.0
  3
*D54
  1

  0
LINE
  5
24213
330
241D8
100
AcDbEntity
  8
寸法
 62
     0
 48
50.0
370
    -2
100
AcDbLine
 10
8435.595374385028
 20
2065.458200884643
 30
0.0
 11
8977.463974153874
 21
2065.458200884643
 31
0.0
  0
LINE
  5
24214
330
241D8
100
AcDbEntity
  8
寸法
 62
     0
 48
50.0
370
    -2
100
AcDbLine
 10
8435.595374385028
 20
1741.458200884642
 30
0.0
 11
8977.463974153874
 21
1741.458200884641
 31
0.0
  0
LINE
  5
24215
330
241D8
100
AcDbEntity
  8
寸法
 62
     0
 48
50.0
370
    -2
100
AcDbLine
 10
8917.463974153873
 20
2065.458200884643
 30
0.0
 11
8917.463974153873
 21
1741.458200884641
 31
0.0
  0
INSERT
  5
24216
330
241D8
100
AcDbEntity
  8
寸法
 62
     0
 48
50.0
370
    -2
100
AcDbBlockReference
  2
_DOTSMALL
 10
8917.463974153873
 20
2065.458200884643
 30
0.0
 41
100.0
 42
100.0
 43
100.0
 50
90.0
  0
INSERT
  5
24217
330
241D8
100
AcDbEntity
  8
寸法
 62
     0
 48
50.0
370
    -2
100
AcDbBlockReference
  2
_DOTSMALL
 10
8917.463974153873
 20
1741.458200884641
 30
0.0
 41
100.0
 42
100.0
 43
100.0
 50
270.0
  0
MTEXT
  5
24218
330
241D8
100
AcDbEntity
  8
寸法
 62
     7
 48
50.0
100
AcDbMText
 10
8817.463974153874
 20
1903.458200884644
 30
0.0
 40
120.0
 41
0.0
 71
     5
 72
     1
  1
\A1;180
  7
STYLE1
 11
0.0000000000000001
 21
1.0
 31
0.0
 73
     1
 44
1.0
1001
ACAD
1000
MTEXTBEGIN
1070
    73
1070
     1
1070
    44
1040
1.0
1070
    74
1070
     0
1000
MTEXTEND
  0
POINT
  5
24219
330
241D8
100
AcDbEntity
  8
DEFPOINTS
 62
     0
 48
50.0
100
AcDbPoint
 10
8415.595374385031
 20
2065.458200884643
 30
0.0
  0
POINT
  5
2421A
330
241D8
100
AcDbEntity
  8
DEFPOINTS
 62
     0
 48
50.0
100
AcDbPoint
 10
8415.595374385031
 20
1741.458200884642
 30
0.0
  0
POINT
  5
2421B
330
241D8
100
AcDbEntity
  8
DEFPOINTS
 62
     0
 48
50.0
100
AcDbPoint
 10
8917.463974153873
 20
1741.458200884641
 30
0.0
  0
ENDBLK
  5
241E3
330
241D8
100
AcDbEntity
  8
0
 48
50.0
100
AcDbBlockEnd
  0
ENDSEC
  0
SECTION
  2
ENTITIES
  0
MTEXT
  5
763F
330
747D
100
AcDbEntity
  8
0
100
AcDbMText
 10
302.846345836809
 20
280.1983726409901
 30
0.0
 40
3.5
 41
5.323721266742722
 71
     1
 72
     5
  1

  7
MSMINCHO
 73
     1
 44
1.0
1001
ACAD
1000
MTEXTBEGIN
1070
    73
1070
     1
1070
    44
1040
1.0
1070
    74
1070
     0
1000
MTEXTEND
  0
LINE
  5
10B57
330
747D
100
AcDbEntity
  8
補助
  6
PHANTOM
 62
   230
 48
50.0
100
AcDbLine
 10
139.9999999999995
 20
11409.6
 30
0.0
 11
16307.2
 21
11409.6
 31
0.0
  0
LINE
  5
10B59
330
747D
100
AcDbEntity
  8
仕様書枠
  6
Continuous
 48
50.0
100
AcDbLine
 10
13107.2
 20
1200.0
 30
0.0
 11
13107.2
 21
-0.0000000000000729
 31
0.0
  0
LINE
  5
10B5D
330
747D
100
AcDbEntity
  8
仕様書枠
 48
50.0
100
AcDbLine
 10
140.0
 20
0.0
 30
0.0
 11
16307.2
 21
-0.0000000000000909
 31
0.0
  0
LINE
  5
10B5E
330
747D
100
AcDbEntity
  8
補助
  6
PHANTOM
 62
   230
 48
50.0
100
AcDbLine
 10
16307.2
 20
11409.6
 30
0.0
 11
16307.2
 21
1200.0
 31
0.0
  0
LINE
  5
10B6C
330
747D
100
AcDbEntity
  8
仕様書枠
 48
50.0
100
AcDbLine
 10
13107.2
 20
1200.0
 30
0.0
 11
16307.2
 21
1200.0
 31
0.0
  0
TEXT
  5
10B73
330
747D
100
AcDbEntity
  8
文字
 62
     7
 48
50.0
100
AcDbText
 10
13162.9790565769
 20
895.0906074299405
 30
0.0
 40
200.0
  1
基 礎 図
  7
STYLE2
100
AcDbText
  0
LINE
  5
10B7B
330
747D
100
AcDbEntity
  8
仕様書枠
 48
50.0
100
AcDbLine
 10
13107.2
 20
800.0
 30
0.0
 11
14251.2
 21
800.0
 31
0.0
  0
LINE
  5
10B88
330
747D
100
AcDbEntity
  8
仕様書枠
  6
Continuous
 48
50.0
100
AcDbLine
 10
14251.2
 20
1200.0
 30
0.0
 11
14251.2
 21
800.0
 31
0.0
  0
LINE
  5
16462
330
747D
100
AcDbEntity
  8
仕様書枠
 48
50.0
100
AcDbLine
 10
16307.2
 20
1200.0
 30
0.0
 11
16307.2
 21
-0.0000000000000909
 31
0.0
  0
LINE
  5
1903B
330
747D
100
AcDbEntity
  8
補助
  6
PHANTOM
 62
   230
 48
50.0
100
AcDbLine
 10
140.0
 20
0.0
 30
0.0
 11
139.9999999999995
 21
11409.6
 31
0.0
  0
LEADER
  5
1AC27
330
747D
100
AcDbEntity
  8
寸法
 48
50.0
100
AcDbLeader
  3
INABA_S50G
 73
     0
 74
     0
 75
     1
 40
120.0
 41
720.0000000000001
 76
     3
 10
9180.05985718447
 20
6869.01063933493
 30
0.0
 10
9336.833431570756
 20
6607.996725767097
 30
0.0
 10
9461.833431570756
 20
6607.996725767097
 30
0.0
340
1AC28
1001
ACAD
1000
DSTYLE
1002
{
1070
   341
1005
0
1070
    40
1040
1.0
1070
   343
1005
0
1070
   344
1005
0
1002
}
  0
MTEXT
  5
1AC28
102
{ACAD_REACTORS
330
1AC27
102
}
330
747D
100
AcDbEntity
  8
部品1
 62
     7
 48
50.0
100
AcDbMText
 10
10206.83343157075
 20
6692.996725767097
 30
0.0
 40
120.0
 41
0.0
 71
     6
 72
     1
  1
\A1;床下換気口
  7
STYLE1
 73
     1
 44
1.0
1001
ACAD
1000
MTEXTBEGIN
1070
    73
1070
     1
1070
    44
1040
1.0
1070
    74
1070
     0
1000
MTEXTEND
  0
TEXT
  5
1AC29
330
747D
100
AcDbEntity
  8
部品1
 48
50.0
100
AcDbText
 10
9527.430138461177
 20
5927.452366987998
 30
0.0
 40
80.0
  1
(a=45,b=55,c=75)
  7
STYLE1
100
AcDbText
  0
TEXT
  5
1AC2A
330
747D
100
AcDbEntity
  8
部品1
 48
50.0
100
AcDbText
 10
9368.851129706879
 20
6034.297587856752
 30
0.0
 40
80.0
  1
※a,b,cは屋根の出幅です。
  7
STYLE1
100
AcDbText
  0
MTEXT
  5
1AC2B
102
{ACAD_REACTORS
330
1AC2C
102
}
330
747D
100
AcDbEntity
  8
部品1
 62
     7
 48
50.0
100
AcDbMText
 10
10166.63832569548
 20
6213.608274789827
 30
0.0
 40
120.0
 41
0.0
 71
     6
 72
     1
  1
\A1;屋根の外寸
  7
STYLE1
 73
     1
 44
1.0
1001
ACAD
1000
MTEXTBEGIN
1070
    73
1070
     1
1070
    44
1040
1.0
1070
    74
1070
     0
1000
MTEXTEND
  0
LEADER
  5
1AC2C
330
747D
100
AcDbEntity
  8
寸法
 48
50.0
100
AcDbLeader
  3
INABA_S50G
 73
     0
 74
     0
 75
     1
 40
120.0
 41
672.0
 76
     3
 10
9228.698313503441
 20
6387.497618253402
 30
0.0
 10
9344.638325695482
 20
6128.608274789827
 30
0.0
 10
9469.638325695482
 20
6128.608274789827
 30
0.0
340
1AC2B
1001
ACAD
1000
DSTYLE
1002
{
1070
   341
1005
0
1070
    40
1040
1.0
1070
   343
1005
0
1070
   344
1005
0
1002
}
  0
TEXT
  5
1C7A1
330
747D
100
AcDbEntity
  8
文字
 62
     7
 48
50.0
100
AcDbText
 10
13188.16259899338
 20
79.80631269190417
 30
0.0
 40
80.0
  1
※布基礎には換気口を設けてください。
  7
STYLE2
100
AcDbText
  0
TEXT
  5
1C7E7
330
747D
100
AcDbEntity
  8
文字
 62
     7
 48
50.0
100
AcDbText
 10
13188.16259899338
 20
246.7109242801889
 30
0.0
 40
80.0
  1
※寒冷地等は地域の実情に合わせた基礎にして下さい。
  7
STYLE2
100
AcDbText
  0
TEXT
  5
1C7E8
330
747D
100
AcDbEntity
  8
文字
 62
     7
 48
50.0
100
AcDbText
 10
14325.79230300687
 20
499.5983841039506
 30
0.0
 40
160.0
  1
ＮＸＮ－０９ＤＬ－２
  7
STYLE2
100
AcDbText
  0
TEXT
  5
1C7EC
330
747D
100
AcDbEntity
  8
文字
 62
     7
 48
50.0
100
AcDbText
 10
14524.131837222
 20
1031.557706291229
 30
0.0
 40
100.0
  1
<縮尺> S=1/40
  7
STYLE2
100
AcDbText
  0
TEXT
  5
1C7ED
330
747D
100
AcDbEntity
  8
文字
 62
     7
 48
50.0
100
AcDbText
 10
13201.43669998441
 20
477.2740661031257
 30
0.0
 40
160.0
  1
機種名
  7
STYLE2
100
AcDbText
  0
LINE
  5
1C7EF
330
747D
100
AcDbEntity
  8
文字
 62
     7
 48
50.0
100
AcDbLine
 10
13187.2
 20
400.0
 30
0.0
 11
16227.2
 21
400.0
 31
0.0
  0
MTEXT
  5
1D2D5
102
{ACAD_REACTORS
330
1D2D6
102
}
330
747D
100
AcDbEntity
  8
部品1
 62
     7
 48
50.0
100
AcDbMText
 10
10373.99523070988
 20
7653.89261351763
 30
0.0
 40
120.0
 41
0.0
 71
     6
 72
     1
  1
アンカーボルト
  7
STYLE1
 73
     1
 44
1.0
1001
ACAD
1000
MTEXTBEGIN
1070
    73
1070
     1
1070
    44
1040
1.0
1070
    74
1070
     0
1000
MTEXTEND
  0
LEADER
  5
1D2D6
330
747D
100
AcDbEntity
  8
寸法
 48
50.0
100
AcDbLeader
  3
INABA_S50G
 73
     0
 74
     0
 75
     1
 40
120.0
 41
994.3492424049171
 76
     3
 10
9055.680085757
 20
7215.487713633831
 30
0.0
 10
9229.645988304964
 20
7568.892613517629
 30
0.0
 10
9354.645988304964
 20
7568.892613517629
 30
0.0
340
1D2D5
1001
ACAD
1000
DSTYLE
1002
{
1070
   341
1005
0
1070
    40
1040
1.0
1070
   343
1005
0
1070
   344
1005
0
1002
}
  0
MTEXT
  5
1D332
102
{ACAD_REACTORS
330
1D333
102
}
330
747D
100
AcDbEntity
  8
部品1
 62
     7
 48
50.0
100
AcDbMText
 10
8738.828697015694
 20
6786.067266310521
 30
0.0
 40
120.0
 41
0.0
 71
     6
 72
     1
  1
CB
  7
STYLE1
 73
     1
 44
1.0
1001
ACAD
1000
MTEXTBEGIN
1070
    73
1070
     1
1070
    44
1040
1.0
1070
    74
1070
     0
1000
MTEXTEND
  0
LEADER
  5
1D333
330
747D
100
AcDbEntity
  8
寸法
 48
50.0
100
AcDbLeader
  3
INABA_S50G
 73
     0
 74
     0
 75
     1
 40
120.0
 41
149.591883092037
 76
     3
 10
8311.954011061013
 20
6923.785579865347
 30
0.0
 10
8439.236813923656
 20
6701.067266310521
 30
0.0
 10
8564.236813923656
 20
6701.067266310521
 30
0.0
340
1D332
1001
ACAD
1000
DSTYLE
1002
{
1070
   341
1005
0
1070
    40
1040
1.0
1070
   343
1005
0
1070
   344
1005
0
1002
}
  0
DIMENSION
  5
20DE1
330
747D
100
AcDbEntity
  8
寸法
 48
50.0
100
AcDbDimension
  2
*D19
 10
9223.600000000001
 20
8296.500191334041
 30
0.0
 11
9494.774621202459
 21
8296.500191334041
 31
0.0
 70
   160
  1
a
 71
     5
 42
45.0
  3
INABA_S40G
100
AcDbAlignedDimension
 13
9178.600000000001
 23
7338.279869275121
 33
0.0
 14
9223.600000000001
 24
8064.546327369031
 34
0.0
100
AcDbRotatedDimension
1001
ACAD
1000
DSTYLE
1002
{
1070
   341
1005
0
1002
}
  0
DIMENSION
  5
20DFB
330
747D
100
AcDbEntity
  8
寸法
 48
50.0
100
AcDbDimension
  2
*D20
 10
7268.600000000001
 20
8296.500191334041
 30
0.0
 11
6952.425378797541
 21
8296.500191334041
 31
0.0
 70
   160
  1
a
 71
     5
 42
44.99999999999636
  3
INABA_S40G
100
AcDbAlignedDimension
 13
7223.600000000004
 23
8064.546327369033
 33
0.0
 14
7268.600000000001
 24
7338.279869275121
 34
0.0
100
AcDbRotatedDimension
1001
ACAD
1000
DSTYLE
1002
{
1070
   341
1005
0
1002
}
  0
LINE
  5
22711
330
747D
100
AcDbEntity
  8
想像線
 48
10.0
100
AcDbLine
 10
9223.600000000001
 20
7413.279869275124
 30
0.0
 11
7223.600000000001
 21
7413.279869275126
 31
0.0
  0
LINE
  5
22712
330
747D
100
AcDbEntity
  8
想像線
 48
10.0
100
AcDbLine
 10
7223.599999999999
 20
6323.279869275133
 30
0.0
 11
7223.600000000001
 21
7413.279869275126
 31
0.0
  0
LINE
  5
22713
330
747D
100
AcDbEntity
  8
想像線
 48
10.0
100
AcDbLine
 10
9223.600000000001
 20
6323.279869275136
 30
0.0
 11
9223.600000000001
 21
7413.279869275124
 31
0.0
  0
LINE
  5
22714
330
747D
100
AcDbEntity
  8
想像線
 48
10.0
100
AcDbLine
 10
9223.600000000001
 20
6323.279869275136
 30
0.0
 11
7223.599999999999
 21
6323.279869275133
 31
0.0
  0
DIMENSION
  5
22741
330
747D
100
AcDbEntity
  8
寸法
 48
50.0
100
AcDbDimension
  2
*D25
 10
6393.721909610674
 20
7338.279869275121
 30
0.0
 11
6293.721909610672
 21
7375.779869275127
 31
0.0
 70
    32
  1
c
 71
     5
 42
75.00000000000636
  3
INABA_S40G
100
AcDbAlignedDimension
 13
6645.665006330069
 23
7413.279869275126
 33
0.0
 14
7268.600000000001
 24
7338.279869275121
 34
0.0
 50
90.0
100
AcDbRotatedDimension
1001
ACAD
1000
DSTYLE
1002
{
1070
   341
1005
0
1002
}
  0
DIMENSION
  5
2275B
330
747D
100
AcDbEntity
  8
寸法
 48
50.0
100
AcDbDimension
  2
*D26
 10
6393.721909610674
 20
6323.279869275146
 30
0.0
 11
6293.721909610672
 21
6350.779869275135
 31
0.0
 70
    32
  1
b
 71
     5
 42
54.99999999997453
  3
INABA_S40G
100
AcDbAlignedDimension
 13
7268.600000000001
 23
6378.279869275121
 33
0.0
 14
6645.665006330073
 24
6323.279869275146
 34
0.0
 50
90.0
100
AcDbRotatedDimension
1001
ACAD
1000
DSTYLE
1002
{
1070
   341
1005
0
1002
}
  0
LINE
  5
23977
330
747D
100
AcDbEntity
  8
部品1
 48
50.0
100
AcDbLine
 10
9058.599999999998
 20
7138.279869275122
 30
0.0
 11
7388.599999999996
 21
7138.27986927512
 31
0.0
  0
DIMENSION
  5
23978
330
747D
100
AcDbEntity
  8
寸法
 48
50.0
100
AcDbDimension
  2
*D27
 10
8523.957501082453
 20
7138.279869275109
 30
0.0
 11
8523.957501082451
 21
7587.850735416842
 31
0.0
 70
   160
 71
     5
 42
200.0
  3
INABA_S40G
100
AcDbAlignedDimension
 13
8723.854682011641
 23
7338.279869275109
 33
0.0
 14
8723.854682011641
 24
7138.279869275109
 34
0.0
 50
90.0
100
AcDbRotatedDimension
1001
ACAD
1000
DSTYLE
1002
{
1070
   341
1005
0
1002
}
  0
DIMENSION
  5
2397B
330
747D
100
AcDbEntity
  8
寸法
 48
50.0
100
AcDbDimension
  2
*D28
 10
9178.600000000001
 20
8296.500191334038
 30
0.0
 11
8223.600000000001
 21
8396.500191334039
 31
0.0
 70
    32
 71
     5
 42
1910.0
  3
INABA_S40G
100
AcDbAlignedDimension
 13
7268.600000000001
 23
7338.279869275121
 33
0.0
 14
9178.600000000001
 24
7338.279869275121
 34
0.0
100
AcDbRotatedDimension
1001
ACAD
1000
DSTYLE
1002
{
1070
   341
1005
0
1002
}
  0
LINE
  5
2397C
330
747D
100
AcDbEntity
  8
部品1
 48
50.0
100
AcDbLine
 10
9178.600000000001
 20
7338.279869275121
 30
0.0
 11
7268.600000000001
 21
7338.279869275121
 31
0.0
  0
DIMENSION
  5
2397D
330
747D
100
AcDbEntity
  8
寸法
 48
50.0
100
AcDbDimension
  2
*D29
 10
7391.600000000001
 20
8064.546327369031
 30
0.0
 11
8223.600000000001
 21
8164.546327369031
 31
0.0
 70
    32
 71
     5
 42
1664.0
  3
INABA_S40G
100
AcDbAlignedDimension
 13
9055.600000000001
 23
7265.27986927512
 33
0.0
 14
7391.600000000001
 24
7265.27986927512
 34
0.0
100
AcDbRotatedDimension
1001
ACAD
1000
DSTYLE
1002
{
1070
   341
1005
0
1002
}
  0
DIMENSION
  5
2397E
330
747D
100
AcDbEntity
  8
寸法
 48
50.0
100
AcDbDimension
  2
*D30
 10
8223.600000000008
 20
7820.888685945369
 30
0.0
 11
8701.100000000003
 21
7920.888685945368
 31
0.0
 70
    32
 71
     5
 42
954.9999999999927
  3
INABA_S40G
100
AcDbAlignedDimension
 13
9178.600000000001
 23
7338.279869275121
 33
0.0
 14
8223.600000000008
 24
6908.279869275121
 34
0.0
100
AcDbRotatedDimension
1001
ACAD
1000
DSTYLE
1002
{
1070
   341
1005
0
1002
}
  0
DIMENSION
  5
23980
330
747D
100
AcDbEntity
  8
寸法
 48
50.0
100
AcDbDimension
  2
*D31
 10
8523.957501082453
 20
6378.279869275129
 30
0.0
 11
8523.957501082451
 21
6128.709003133398
 31
0.0
 70
   160
 71
     5
 42
280.0000000000046
  3
INABA_S40G
100
AcDbAlignedDimension
 13
8798.599999999998
 23
6658.279869275133
 33
0.0
 14
8798.6
 24
6378.279869275129
 34
0.0
 50
90.0
100
AcDbRotatedDimension
1001
ACAD
1000
DSTYLE
1002
{
1070
   341
1005
0
1002
}
  0
LINE
  5
23981
330
747D
100
AcDbEntity
  8
部品1
 48
50.0
100
AcDbLine
 10
9178.600000000001
 20
6378.279869275139
 30
0.0
 11
7268.599999999996
 21
6378.279869275116
 31
0.0
  0
DIMENSION
  5
23983
330
747D
100
AcDbEntity
  8
寸法
 48
50.0
100
AcDbDimension
  2
*D32
 10
6645.665006330073
 20
6576.279869275125
 30
0.0
 11
6645.665006330071
 21
6895.779869275121
 31
0.0
 70
   160
 71
     5
 42
638.9999999999964
  3
INABA_S40G
100
AcDbAlignedDimension
 13
7341.600000000001
 23
7215.27986927512
 33
0.0
 14
7341.600000000008
 24
6576.279869275125
 34
0.0
 50
90.0
100
AcDbRotatedDimension
1001
ACAD
1000
DSTYLE
1002
{
1070
   341
1005
0
1002
}
  0
DIMENSION
  5
23984
330
747D
100
AcDbEntity
  8
寸法
 48
50.0
100
AcDbDimension
  2
*D33
 10
6393.721909610674
 20
6378.279869275121
 30
0.0
 11
6393.721909610673
 21
6895.779869275121
 31
0.0
 70
   160
 71
     5
 42
960.0
  3
INABA_S40G
100
AcDbAlignedDimension
 13
7268.600000000001
 23
7338.279869275121
 33
0.0
 14
7268.600000000001
 24
6378.279869275121
 34
0.0
 50
90.0
100
AcDbRotatedDimension
1001
ACAD
1000
DSTYLE
1002
{
1070
   341
1005
0
1002
}
  0
DIMENSION
  5
23986
330
747D
100
AcDbEntity
  8
寸法
 48
50.0
100
AcDbDimension
  2
*D34
 10
7751.285990614302
 20
6858.279869275121
 30
0.0
 11
7751.285990614301
 21
6085.720814157021
 31
0.0
 70
   160
 71
     5
 42
479.999999999989
  3
INABA_S40G
100
AcDbAlignedDimension
 13
7842.7654751409
 23
6378.279869275131
 33
0.0
 14
8173.600000000007
 24
6858.279869275121
 34
0.0
 50
90.0
100
AcDbRotatedDimension
1001
ACAD
1000
DSTYLE
1002
{
1070
   341
1005
0
1002
}
  0
LINE
  5
23987
330
747D
100
AcDbEntity
  8
部品1
 48
50.0
100
AcDbLine
 10
7268.600000000001
 20
6378.279869275121
 30
0.0
 11
7268.600000000001
 21
7338.279869275121
 31
0.0
  0
DIMENSION
  5
2398A
330
747D
100
AcDbEntity
  8
寸法
 48
50.0
100
AcDbDimension
  2
*D35
 10
6645.665006330073
 20
6378.279869275121
 30
0.0
 11
6645.665006330071
 21
6042.748920432528
 31
0.0
 70
   160
 71
     5
 42
198.0000000000036
  3
INABA_S40G
100
AcDbAlignedDimension
 13
7341.600000000008
 23
6576.279869275125
 33
0.0
 14
7268.600000000001
 24
6378.279869275121
 34
0.0
 50
90.0
100
AcDbRotatedDimension
1001
ACAD
1000
DSTYLE
1002
{
1070
   341
1005
0
1002
}
  0
ARC
  5
2398B
330
747D
100
AcDbEntity
  8
想像線
 48
5.0
100
AcDbCircle
 10
8038.6
 20
6378.279869275076
 30
0.0
 40
720.0
100
AcDbArc
 50
180.0
 51
270.0
  0
DIMENSION
  5
2398C
330
747D
100
AcDbEntity
  8
寸法
 48
50.0
100
AcDbDimension
  2
*D36
 10
7155.512673767877
 20
5658.279869275077
 30
0.0
 11
7155.512673767876
 21
6018.279869275079
 31
0.0
 70
   160
  1
扉の出<>
 71
     5
 42
720.0
  3
INABA_S40G
100
AcDbAlignedDimension
 13
7268.600000000001
 23
6378.279869275076
 33
0.0
 14
7624.325326928804
 24
5658.279869275077
 34
0.0
 50
90.0
100
AcDbRotatedDimension
1001
ACAD
1000
DSTYLE
1002
{
1070
   341
1005
0
1002
}
  0
CIRCLE
  5
2398D
330
747D
100
AcDbEntity
  8
部品1
 48
50.0
100
AcDbCircle
 10
7391.599999999993
 20
6576.279869275125
 30
0.0
 40
35.0
  0
LINE
  5
2398E
330
747D
100
AcDbEntity
  8
センター
 48
2.0
100
AcDbLine
 10
7341.600000000008
 20
6576.279869275125
 30
0.0
 11
7441.600000000008
 21
6576.279869275125
 31
0.0
  0
LINE
  5
2398F
330
747D
100
AcDbEntity
  8
センター
 48
2.0
100
AcDbLine
 10
7391.600000000008
 20
6626.279869275125
 30
0.0
 11
7391.600000000008
 21
6526.279869275125
 31
0.0
  0
LINE
  5
23990
330
747D
100
AcDbEntity
  8
想像線
 48
5.0
100
AcDbLine
 10
8038.6
 20
6378.279869275088
 30
0.0
 11
8038.6
 21
5658.279869275077
 31
0.0
  0
LINE
  5
23991
330
747D
100
AcDbEntity
  8
細線
 48
50.0
100
AcDbLine
 10
7784.404364949113
 20
6378.279869275128
 30
0.0
 11
7848.600000000002
 21
6442.475504326016
 31
0.0
  0
LINE
  5
23992
330
747D
100
AcDbEntity
  8
細線
 48
50.0
100
AcDbLine
 10
7739.503084343766
 20
6378.279869275128
 30
0.0
 11
7848.600000000001
 21
6487.376784931362
 31
0.0
  0
LINE
  5
23993
330
747D
100
AcDbEntity
  8
細線
 48
50.0
100
AcDbLine
 10
7694.601803738421
 20
6378.279869275128
 30
0.0
 11
7848.599999999997
 21
6532.278065536702
 31
0.0
  0
LINE
  5
23994
330
747D
100
AcDbEntity
  8
細線
 48
50.0
100
AcDbLine
 10
7649.700523133074
 20
6378.279869275128
 30
0.0
 11
7848.599999999997
 21
6577.179346142047
 31
0.0
  0
LINE
  5
23995
330
747D
100
AcDbEntity
  8
細線
 48
50.0
100
AcDbLine
 10
7648.6
 20
6422.0806267474
 30
0.0
 11
7848.599999999997
 21
6622.080626747394
 31
0.0
  0
LINE
  5
23996
330
747D
100
AcDbEntity
  8
部品1
 48
50.0
100
AcDbLine
 10
7848.599999999997
 20
6658.279869275124
 30
0.0
 11
7848.600000000001
 21
6378.279869275129
 31
0.0
  0
LINE
  5
23997
330
747D
100
AcDbEntity
  8
部品1
 48
50.0
100
AcDbLine
 10
7648.599999999998
 20
6658.279869275123
 30
0.0
 11
7648.6
 21
6378.279869275125
 31
0.0
  0
LINE
  5
23998
330
747D
100
AcDbEntity
  8
細線
 48
50.0
100
AcDbLine
 10
7829.305645554462
 20
6378.279869275131
 30
0.0
 11
7848.600000000002
 21
6397.574223720672
 31
0.0
  0
LINE
  5
23999
330
747D
100
AcDbEntity
  8
細線
 48
50.0
100
AcDbLine
 10
7648.599999999998
 20
6601.685749168783
 30
0.0
 11
7705.19412010634
 21
6658.279869275121
 31
0.0
  0
LINE
  5
2399A
330
747D
100
AcDbEntity
  8
細線
 48
50.0
100
AcDbLine
 10
7648.599999999999
 20
6556.784468563437
 30
0.0
 11
7750.095400711685
 21
6658.279869275123
 31
0.0
  0
LINE
  5
2399B
330
747D
100
AcDbEntity
  8
細線
 48
50.0
100
AcDbLine
 10
7648.599999999999
 20
6466.981907352743
 30
0.0
 11
7839.897961922379
 21
6658.279869275123
 31
0.0
  0
LINE
  5
2399C
330
747D
100
AcDbEntity
  8
細線
 48
50.0
100
AcDbLine
 10
7648.6
 20
6511.88318795809
 30
0.0
 11
7794.996681317029
 21
6658.279869275123
 31
0.0
  0
TEXT
  5
2399D
330
747D
100
AcDbEntity
  8
寸法
 48
50.0
100
AcDbText
 10
8092.708034017926
 20
6396.961160067858
 30
0.0
 40
120.0
  1
扉面
  7
STYLE1
100
AcDbText
  0
DIMENSION
  5
2399F
330
747D
100
AcDbEntity
  8
寸法
 48
50.0
100
AcDbDimension
  2
*D37
 10
6645.665006330073
 20
7215.27986927512
 30
0.0
 11
6645.665006330071
 21
7611.38647099292
 31
0.0
 70
   160
 71
     5
 42
123.0
  3
INABA_S40G
100
AcDbAlignedDimension
 13
7268.600000000001
 23
7338.279869275121
 33
0.0
 14
7341.600000000001
 24
7215.27986927512
 34
0.0
 50
90.0
100
AcDbRotatedDimension
1001
ACAD
1000
DSTYLE
1002
{
1070
   341
1005
0
1002
}
  0
DIMENSION
  5
239A1
330
747D
100
AcDbEntity
  8
寸法
 48
50.0
100
AcDbDimension
  2
*D38
 10
7268.600000000001
 20
7820.888685945369
 30
0.0
 11
7746.100000000004
 21
7920.888685945368
 31
0.0
 70
    32
 71
     5
 42
955.0000000000073
  3
INABA_S40G
100
AcDbAlignedDimension
 13
8223.600000000008
 23
6908.279869275121
 33
0.0
 14
7268.600000000001
 24
7338.279869275121
 34
0.0
100
AcDbRotatedDimension
1001
ACAD
1000
DSTYLE
1002
{
1070
   341
1005
0
1002
}
  0
DIMENSION
  5
239A2
330
747D
100
AcDbEntity
  8
寸法
 48
50.0
100
AcDbDimension
  2
*D39
 10
7268.600000000001
 20
8064.546327369031
 30
0.0
 11
6995.493398282203
 21
8064.546327369031
 31
0.0
 70
   160
 71
     5
 42
123.0
  3
INABA_S40G
100
AcDbAlignedDimension
 13
7391.600000000001
 23
7265.27986927512
 33
0.0
 14
7268.600000000001
 24
7338.279869275121
 34
0.0
100
AcDbRotatedDimension
1001
ACAD
1000
DSTYLE
1002
{
1070
   341
1005
0
1002
}
  0
DIMENSION
  5
239A3
330
747D
100
AcDbEntity
  8
寸法
 48
50.0
100
AcDbDimension
  2
*D40
 10
7751.285990614302
 20
7338.279869275121
 30
0.0
 11
7751.285990614301
 21
7630.838924393232
 31
0.0
 70
   160
 71
     5
 42
480.0
  3
INABA_S40G
100
AcDbAlignedDimension
 13
8173.600000000007
 23
6858.279869275121
 33
0.0
 14
7842.7654751409
 24
7338.279869275121
 34
0.0
 50
90.0
100
AcDbRotatedDimension
1001
ACAD
1000
DSTYLE
1002
{
1070
   341
1005
0
1002
}
  0
LINE
  5
239A4
330
747D
100
AcDbEntity
  8
細線
 48
50.0
100
AcDbLine
 10
7361.082594658249
 20
6783.279869275128
 30
0.0
 11
7388.600000000001
 21
6810.797274616884
 31
0.0
  0
LINE
  5
239A5
330
747D
100
AcDbEntity
  8
細線
 48
50.0
100
AcDbLine
 10
7316.181314052906
 20
6783.279869275131
 30
0.0
 11
7388.599999999998
 21
6855.698555222223
 31
0.0
  0
LINE
  5
239A6
330
747D
100
AcDbEntity
  8
細線
 48
50.0
100
AcDbLine
 10
7271.28003344756
 20
6783.279869275131
 30
0.0
 11
7388.600000000001
 21
6900.599835827569
 31
0.0
  0
LINE
  5
239A7
330
747D
100
AcDbEntity
  8
細線
 48
50.0
100
AcDbLine
 10
7268.600000000001
 20
6825.501116432914
 30
0.0
 11
7388.599999999998
 21
6945.501116432916
 31
0.0
  0
LINE
  5
239A8
330
747D
100
AcDbEntity
  8
細線
 48
50.0
100
AcDbLine
 10
7268.599999999999
 20
6870.402397038262
 30
0.0
 11
7368.599999999999
 21
6970.40239703826
 31
0.0
  0
LINE
  5
239A9
330
747D
100
AcDbEntity
  8
細線
 48
50.0
100
AcDbLine
 10
7268.600000000001
 20
6915.303677643608
 30
0.0
 11
7336.576191631522
 21
6983.279869275131
 31
0.0
  0
LINE
  5
239AA
330
747D
100
AcDbEntity
  8
細線
 48
50.0
100
AcDbLine
 10
7268.600000000001
 20
6960.204958248953
 30
0.0
 11
7291.674911026179
 21
6983.279869275133
 31
0.0
  0
LINE
  5
239AB
330
747D
100
AcDbEntity
  8
部品1
 48
50.0
100
AcDbLine
 10
7388.600000000001
 20
6983.279869275133
 30
0.0
 11
7268.600000000001
 21
6983.279869275131
 31
0.0
  0
LINE
  5
239AC
330
747D
100
AcDbEntity
  8
部品1
 48
50.0
100
AcDbLine
 10
7388.600000000001
 20
6783.279869275133
 30
0.0
 11
7268.600000000001
 21
6783.279869275131
 31
0.0
  0
CIRCLE
  5
239AD
330
747D
100
AcDbEntity
  8
部品1
 48
50.0
100
AcDbCircle
 10
7391.600000000001
 20
7215.27986927512
 30
0.0
 40
35.0
  0
LINE
  5
239AE
330
747D
100
AcDbEntity
  8
センター
 48
2.0
100
AcDbLine
 10
7341.600000000001
 20
7215.27986927512
 30
0.0
 11
7441.600000000001
 21
7215.27986927512
 31
0.0
  0
LINE
  5
239AF
330
747D
100
AcDbEntity
  8
センター
 48
2.0
100
AcDbLine
 10
7391.600000000001
 20
7265.27986927512
 30
0.0
 11
7391.600000000001
 21
7165.279869275121
 31
0.0
  0
LINE
  5
239B0
330
747D
100
AcDbEntity
  8
細線
 48
50.0
100
AcDbLine
 10
7648.6
 20
7140.501116432933
 30
0.0
 11
7846.378752842195
 21
7338.279869275126
 31
0.0
  0
LINE
  5
239B1
330
747D
100
AcDbEntity
  8
細線
 48
50.0
100
AcDbLine
 10
7648.6
 20
7185.402397038275
 30
0.0
 11
7801.47747223685
 21
7338.279869275128
 31
0.0
  0
LINE
  5
239B2
330
747D
100
AcDbEntity
  8
細線
 48
50.0
100
AcDbLine
 10
7648.6
 20
7230.303677643622
 30
0.0
 11
7756.576191631504
 21
7338.279869275126
 31
0.0
  0
LINE
  5
239B3
330
747D
100
AcDbEntity
  8
細線
 48
50.0
100
AcDbLine
 10
7648.6
 20
7275.204958248969
 30
0.0
 11
7711.674911026157
 21
7338.279869275126
 31
0.0
  0
LINE
  5
239B4
330
747D
100
AcDbEntity
  8
部品1
 48
50.0
100
AcDbLine
 10
7848.599999999999
 20
7338.279869275126
 30
0.0
 11
7848.600000000001
 21
7138.279869275121
 31
0.0
  0
LINE
  5
239B5
330
747D
100
AcDbEntity
  8
部品1
 48
50.0
100
AcDbLine
 10
7648.599999999999
 20
7338.279869275126
 30
0.0
 11
7648.6
 21
7138.279869275121
 31
0.0
  0
LINE
  5
239B6
330
747D
100
AcDbEntity
  8
細線
 48
50.0
100
AcDbLine
 10
7825.983875263595
 20
7138.279869275121
 30
0.0
 11
7848.600000000001
 21
7160.895994011532
 31
0.0
  0
LINE
  5
239B7
330
747D
100
AcDbEntity
  8
細線
 48
50.0
100
AcDbLine
 10
7781.08259465824
 20
7138.279869275121
 30
0.0
 11
7848.600000000001
 21
7205.797274616881
 31
0.0
  0
LINE
  5
239B8
330
747D
100
AcDbEntity
  8
細線
 48
50.0
100
AcDbLine
 10
7736.181314052898
 20
7138.279869275118
 30
0.0
 11
7848.599999999999
 21
7250.69855522224
 31
0.0
  0
LINE
  5
239B9
330
747D
100
AcDbEntity
  8
細線
 48
50.0
100
AcDbLine
 10
7691.280033447537
 20
7138.279869275121
 30
0.0
 11
7848.599999999999
 21
7295.599835827584
 31
0.0
  0
LINE
  5
239BA
330
747D
100
AcDbEntity
  8
センター
 48
2.0
100
AcDbLine
 10
8173.600000000007
 20
6858.279869275121
 30
0.0
 11
8273.600000000007
 21
6858.279869275121
 31
0.0
  0
LINE
  5
239BB
330
747D
100
AcDbEntity
  8
部品1
 48
50.0
100
AcDbLine
 10
8323.600000000007
 20
6758.27986927512
 30
0.0
 11
8123.600000000008
 21
6758.27986927512
 31
0.0
  0
LINE
  5
239BC
330
747D
100
AcDbEntity
  8
部品1
 48
50.0
100
AcDbLine
 10
8323.600000000007
 20
6958.279869275121
 30
0.0
 11
8123.600000000008
 21
6958.279869275121
 31
0.0
  0
LINE
  5
239BD
330
747D
100
AcDbEntity
  8
センター
 48
2.0
100
AcDbLine
 10
8223.600000000008
 20
6908.279869275121
 30
0.0
 11
8223.600000000008
 21
6808.27986927512
 31
0.0
  0
LINE
  5
239BE
330
747D
100
AcDbEntity
  8
部品1
 48
50.0
100
AcDbLine
 10
8123.600000000008
 20
6758.27986927512
 30
0.0
 11
8123.600000000008
 21
6958.279869275121
 31
0.0
  0
LINE
  5
239BF
330
747D
100
AcDbEntity
  8
部品1
 48
50.0
100
AcDbLine
 10
8323.600000000007
 20
6758.27986927512
 30
0.0
 11
8323.600000000007
 21
6958.279869275121
 31
0.0
  0
LINE
  5
239C0
330
747D
100
AcDbEntity
  8
細線
 48
50.0
100
AcDbLine
 10
7648.599999999999
 20
7320.106238854311
 30
0.0
 11
7666.773630420813
 21
7338.279869275128
 31
0.0
  0
LINE
  5
239C4
330
747D
100
AcDbEntity
  8
部品1
 48
50.0
100
AcDbLine
 10
9178.600000000001
 20
6378.279869275139
 30
0.0
 11
9178.600000000001
 21
7338.279869275121
 31
0.0
  0
LINE
  5
239CA
330
747D
100
AcDbEntity
  8
細線
 48
50.0
100
AcDbLine
 10
8734.404364949112
 20
6378.279869275128
 30
0.0
 11
8798.600000000002
 21
6442.475504326016
 31
0.0
  0
LINE
  5
239CB
330
747D
100
AcDbEntity
  8
細線
 48
50.0
100
AcDbLine
 10
8689.503084343767
 20
6378.279869275128
 30
0.0
 11
8798.6
 21
6487.376784931362
 31
0.0
  0
LINE
  5
239CC
330
747D
100
AcDbEntity
  8
細線
 48
50.0
100
AcDbLine
 10
8644.601803738421
 20
6378.279869275128
 30
0.0
 11
8798.6
 21
6532.278065536705
 31
0.0
  0
LINE
  5
239CD
330
747D
100
AcDbEntity
  8
細線
 48
50.0
100
AcDbLine
 10
8599.700523133074
 20
6378.279869275128
 30
0.0
 11
8798.599999999998
 21
6577.179346142052
 31
0.0
  0
LINE
  5
239CE
330
747D
100
AcDbEntity
  8
細線
 48
50.0
100
AcDbLine
 10
8598.600000000001
 20
6422.0806267474
 30
0.0
 11
8798.599999999998
 21
6622.080626747396
 31
0.0
  0
LINE
  5
239CF
330
747D
100
AcDbEntity
  8
部品1
 48
50.0
100
AcDbLine
 10
8798.599999999998
 20
6658.279869275135
 30
0.0
 11
8798.6
 21
6378.279869275129
 31
0.0
  0
LINE
  5
239D0
330
747D
100
AcDbEntity
  8
部品1
 48
50.0
100
AcDbLine
 10
8598.599999999997
 20
6658.279869275133
 30
0.0
 11
8598.600000000001
 21
6378.279869275125
 31
0.0
  0
LINE
  5
239D1
330
747D
100
AcDbEntity
  8
細線
 48
50.0
100
AcDbLine
 10
8779.30564555446
 20
6378.279869275131
 30
0.0
 11
8798.600000000002
 21
6397.574223720672
 31
0.0
  0
LINE
  5
239D2
330
747D
100
AcDbEntity
  8
細線
 48
50.0
100
AcDbLine
 10
8598.600000000001
 20
6556.784468563437
 30
0.0
 11
8700.095400711695
 21
6658.279869275135
 31
0.0
  0
LINE
  5
239D3
330
747D
100
AcDbEntity
  8
細線
 48
50.0
100
AcDbLine
 10
8598.599999999999
 20
6466.981907352743
 30
0.0
 11
8789.897961922388
 21
6658.279869275133
 31
0.0
  0
LINE
  5
239D4
330
747D
100
AcDbEntity
  8
細線
 48
50.0
100
AcDbLine
 10
8598.600000000001
 20
6511.88318795809
 30
0.0
 11
8744.996681317044
 21
6658.279869275135
 31
0.0
  0
LINE
  5
239D5
330
747D
100
AcDbEntity
  8
細線
 48
50.0
100
AcDbLine
 10
8598.599999999997
 20
6601.685749168783
 30
0.0
 11
8655.194120106351
 21
6658.279869275133
 31
0.0
  0
LINE
  5
239D6
330
747D
100
AcDbEntity
  8
センター
 48
2.0
100
AcDbLine
 10
9005.600000000008
 20
6576.279869275125
 30
0.0
 11
9105.600000000007
 21
6576.279869275125
 31
0.0
  0
CIRCLE
  5
239D7
330
747D
100
AcDbEntity
  8
部品1
 48
50.0
100
AcDbCircle
 10
9055.600000000008
 20
6576.279869275125
 30
0.0
 40
35.0
  0
LINE
  5
239D8
330
747D
100
AcDbEntity
  8
センター
 48
2.0
100
AcDbLine
 10
9055.600000000008
 20
6626.279869275125
 30
0.0
 11
9055.600000000008
 21
6526.279869275125
 31
0.0
  0
DIMENSION
  5
239D9
330
747D
100
AcDbEntity
  8
寸法
 48
50.0
100
AcDbDimension
  2
*D41
 10
9055.600000000001
 20
8064.546327369031
 30
0.0
 11
9451.706601717798
 21
8064.546327369031
 31
0.0
 70
   160
 71
     5
 42
123.0
  3
INABA_S40G
100
AcDbAlignedDimension
 13
9178.600000000001
 23
7338.279869275121
 33
0.0
 14
9055.600000000001
 24
7265.27986927512
 34
0.0
100
AcDbRotatedDimension
1001
ACAD
1000
DSTYLE
1002
{
1070
   341
1005
0
1002
}
  0
DIMENSION
  5
239DB
330
747D
100
AcDbEntity
  8
寸法
 48
50.0
100
AcDbDimension
  2
*D42
 10
9058.6
 20
7057.967711304508
 30
0.0
 11
9448.659055118111
 21
7057.967711304508
 31
0.0
 70
   160
 71
     5
 42
120.0
  3
INABA_S40G
100
AcDbAlignedDimension
 13
9178.600000000001
 23
7074.960975343341
 33
0.0
 14
9058.6
 24
7057.967711304508
 34
0.0
100
AcDbRotatedDimension
1001
ACAD
1000
DSTYLE
1002
{
1070
   341
1005
0
1002
}
  0
LINE
  5
239DC
330
747D
100
AcDbEntity
  8
細線
 48
50.0
100
AcDbLine
 10
8598.600000000004
 20
7140.501116432933
 30
0.0
 11
8796.378752842194
 21
7338.279869275123
 31
0.0
  0
LINE
  5
239DD
330
747D
100
AcDbEntity
  8
細線
 48
50.0
100
AcDbLine
 10
8598.600000000002
 20
7185.402397038281
 30
0.0
 11
8751.47747223685
 21
7338.279869275123
 31
0.0
  0
LINE
  5
239DE
330
747D
100
AcDbEntity
  8
細線
 48
50.0
100
AcDbLine
 10
8598.600000000001
 20
7230.303677643625
 30
0.0
 11
8706.576191631503
 21
7338.279869275123
 31
0.0
  0
LINE
  5
239DF
330
747D
100
AcDbEntity
  8
細線
 48
50.0
100
AcDbLine
 10
8598.600000000001
 20
7275.204958248969
 30
0.0
 11
8661.674911026159
 21
7338.279869275126
 31
0.0
  0
LINE
  5
239E0
330
747D
100
AcDbEntity
  8
部品1
 48
50.0
100
AcDbLine
 10
8798.599999999998
 20
7338.279869275126
 30
0.0
 11
8798.600000000002
 21
7138.279869275121
 31
0.0
  0
LINE
  5
239E1
330
747D
100
AcDbEntity
  8
部品1
 48
50.0
100
AcDbLine
 10
8598.599999999999
 20
7338.279869275126
 30
0.0
 11
8598.600000000002
 21
7138.279869275121
 31
0.0
  0
LINE
  5
239E2
330
747D
100
AcDbEntity
  8
細線
 48
50.0
100
AcDbLine
 10
8641.280033447538
 20
7138.279869275123
 30
0.0
 11
8798.599999999998
 21
7295.599835827584
 31
0.0
  0
LINE
  5
239E3
330
747D
100
AcDbEntity
  8
細線
 48
50.0
100
AcDbLine
 10
8775.983875263596
 20
7138.279869275121
 30
0.0
 11
8798.6
 21
7160.895994011532
 31
0.0
  0
LINE
  5
239E4
330
747D
100
AcDbEntity
  8
細線
 48
50.0
100
AcDbLine
 10
8731.082594658239
 20
7138.279869275121
 30
0.0
 11
8798.6
 21
7205.797274616881
 31
0.0
  0
LINE
  5
239E5
330
747D
100
AcDbEntity
  8
細線
 48
50.0
100
AcDbLine
 10
8686.181314052898
 20
7138.279869275121
 30
0.0
 11
8798.599999999998
 21
7250.69855522224
 31
0.0
  0
LINE
  5
239E6
330
747D
100
AcDbEntity
  8
細線
 48
50.0
100
AcDbLine
 10
9171.082594658246
 20
6783.279869275128
 30
0.0
 11
9178.600000000001
 21
6790.797274616878
 31
0.0
  0
LINE
  5
239E7
330
747D
100
AcDbEntity
  8
細線
 48
50.0
100
AcDbLine
 10
9126.181314052905
 20
6783.27986927513
 30
0.0
 11
9178.599999999999
 21
6835.698555222221
 31
0.0
  0
LINE
  5
239E8
330
747D
100
AcDbEntity
  8
細線
 48
50.0
100
AcDbLine
 10
9081.28003344756
 20
6783.27986927513
 30
0.0
 11
9178.599999999997
 21
6880.599835827569
 31
0.0
  0
LINE
  5
239E9
330
747D
100
AcDbEntity
  8
細線
 48
50.0
100
AcDbLine
 10
9058.599999999998
 20
6805.50111643292
 30
0.0
 11
9178.599999999997
 21
6925.501116432911
 31
0.0
  0
LINE
  5
239EA
330
747D
100
AcDbEntity
  8
細線
 48
50.0
100
AcDbLine
 10
9058.599999999998
 20
6850.402397038262
 30
0.0
 11
9178.599999999997
 21
6970.40239703826
 31
0.0
  0
LINE
  5
239EB
330
747D
100
AcDbEntity
  8
細線
 48
50.0
100
AcDbLine
 10
9058.6
 20
6895.303677643612
 30
0.0
 11
9146.576191631522
 21
6983.279869275129
 31
0.0
  0
LINE
  5
239EC
330
747D
100
AcDbEntity
  8
細線
 48
50.0
100
AcDbLine
 10
9058.6
 20
6940.204958248958
 30
0.0
 11
9101.674911026178
 21
6983.279869275131
 31
0.0
  0
LINE
  5
239ED
330
747D
100
AcDbEntity
  8
部品1
 48
50.0
100
AcDbLine
 10
9178.599999999997
 20
6983.279869275129
 30
0.0
 11
9058.6
 21
6983.279869275129
 31
0.0
  0
LINE
  5
239EE
330
747D
100
AcDbEntity
  8
部品1
 48
50.0
100
AcDbLine
 10
9178.599999999997
 20
6783.27986927513
 30
0.0
 11
9058.6
 21
6783.27986927513
 31
0.0
  0
CIRCLE
  5
239EF
330
747D
100
AcDbEntity
  8
部品1
 48
50.0
100
AcDbCircle
 10
9055.600000000001
 20
7215.27986927512
 30
0.0
 40
35.0
  0
LINE
  5
239F0
330
747D
100
AcDbEntity
  8
センター
 48
2.0
100
AcDbLine
 10
9005.600000000001
 20
7215.27986927512
 30
0.0
 11
9105.6
 21
7215.27986927512
 31
0.0
  0
LINE
  5
239F1
330
747D
100
AcDbEntity
  8
センター
 48
2.0
100
AcDbLine
 10
9055.600000000001
 20
7265.27986927512
 30
0.0
 11
9055.600000000001
 21
7165.279869275121
 31
0.0
  0
LINE
  5
239F2
330
747D
100
AcDbEntity
  8
細線
 48
50.0
100
AcDbLine
 10
8598.599999999999
 20
7320.106238854311
 30
0.0
 11
8616.773630420812
 21
7338.279869275128
 31
0.0
  0
TEXT
  5
23E8E
330
747D
100
AcDbEntity
  8
文字
 62
     7
 48
50.0
100
AcDbText
 10
14251.2
 20
838.2527270729188
 30
0.0
 40
100.0
  1
～一般型・多雪地型・豪雪地型～
  7
STYLE2
100
AcDbText
  0
LINE
  5
23EAE
330
747D
100
AcDbEntity
  8
部品1
 48
50.0
100
AcDbLine
 10
9058.599999999998
 20
6658.27986927514
 30
0.0
 11
7388.600000000001
 21
6658.279869275117
 31
0.0
  0
LINE
  5
23ECC
330
747D
100
AcDbEntity
  8
部品1
 48
50.0
100
AcDbLine
 10
9058.6
 20
6658.279869275138
 30
0.0
 11
9058.6
 21
7138.279869275121
 31
0.0
  0
LINE
  5
23ECD
330
747D
100
AcDbEntity
  8
部品1
 48
50.0
100
AcDbLine
 10
7388.600000000001
 20
6658.279869275118
 30
0.0
 11
7388.599999999996
 21
7138.279869275121
 31
0.0
  0
MTEXT
  5
24065
102
{ACAD_REACTORS
330
24066
102
}
330
747D
100
AcDbEntity
  8
寸法
 62
     7
 48
50.0
100
AcDbMText
 10
10708.99392493735
 20
2322.60452156578
 30
0.0
 40
120.0
 41
0.8
 71
     4
 72
     1
  1
\A1;C.B
  7
STYLE1
 73
     1
 44
1.0
1001
ACAD
1000
MTEXTBEGIN
1070
    73
1070
     1
1070
    44
1040
1.0
1070
    74
1070
     0
1000
MTEXTEND
  0
LEADER
  5
24066
330
747D
100
AcDbEntity
  8
寸法
 48
50.0
100
AcDbLeader
  3
INABA_S50G
 73
     0
 74
     0
 75
     1
 40
120.0
 41
185.591883092037
 76
     3
 10
10525.85571830371
 20
2065.458200884643
 30
0.0
 10
10558.99392493735
 20
2237.60452156578
 30
0.0
 10
10683.99392493735
 20
2237.60452156578
 30
0.0
340
24065
1001
ACAD
1000
DSTYLE
1002
{
1070
    40
1040
1.0
1002
}
  0
LINE
  5
24067
330
747D
100
AcDbEntity
  8
細線
 48
50.0
100
AcDbLine
 10
10671.50913188012
 20
1709.759285231292
 30
0.0
 11
10665.07835126177
 21
1733.759285231292
 31
0.0
  0
LINE
  5
24068
330
747D
100
AcDbEntity
  8
細線
 48
50.0
100
AcDbLine
 10
10650.07319648563
 20
1629.759285231292
 30
0.0
 11
10656.50397710398
 21
1605.759285231292
 31
0.0
  0
LINE
  5
24069
330
747D
100
AcDbEntity
  8
部品1
100
AcDbLine
 10
10715.13130668779
 20
1825.458200884643
 30
0.0
 11
10715.13130668779
 21
1605.759285231293
 31
0.0
  0
LINE
  5
2406A
330
747D
100
AcDbEntity
  8
細線
 48
50.0
100
AcDbLine
 10
10643.64241586728
 20
1605.759285231292
 30
0.0
 11
10677.93991249846
 21
1733.75928523129
 31
0.0
  0
LINE
  5
2406B
330
747D
100
AcDbEntity
  8
細線
 48
50.0
100
AcDbLine
 10
10592.62108693287
 20
1709.759285231292
 30
0.0
 11
10586.19030631452
 21
1733.759285231292
 31
0.0
  0
LINE
  5
2406C
330
747D
100
AcDbEntity
  8
細線
100
AcDbLine
 10
10468.16770118712
 20
1733.759285231295
 30
0.0
 11
10559.86661684046
 21
1825.458200884643
 31
0.0
  0
LINE
  5
2406D
330
747D
100
AcDbEntity
  8
細線
 48
50.0
100
AcDbLine
 10
10513.73304198562
 20
1709.759285231293
 30
0.0
 11
10507.30226136727
 21
1733.759285231293
 31
0.0
  0
LINE
  5
2406E
330
747D
100
AcDbEntity
  8
細線
100
AcDbLine
 10
10502.10882668408
 20
1733.759285231295
 30
0.0
 11
10593.80774233742
 21
1825.458200884643
 31
0.0
  0
LINE
  5
2406F
330
747D
100
AcDbEntity
  8
細線
 48
50.0
100
AcDbLine
 10
10277.06890714388
 20
1709.759285231293
 30
0.0
 11
10270.63812652554
 21
1733.759285231293
 31
0.0
  0
LINE
  5
24070
330
747D
100
AcDbEntity
  8
細線
 48
50.0
100
AcDbLine
 10
10355.95695209113
 20
1709.759285231293
 30
0.0
 11
10349.52617147278
 21
1733.759285231293
 31
0.0
  0
LINE
  5
24071
330
747D
100
AcDbEntity
  8
細線
 48
50.0
100
AcDbLine
 10
10434.84499703838
 20
1709.759285231293
 30
0.0
 11
10428.41421642003
 21
1733.759285231293
 31
0.0
  0
LINE
  5
24072
330
747D
100
AcDbEntity
  8
細線
 48
50.0
100
AcDbLine
 10
10571.18515153838
 20
1629.759285231292
 30
0.0
 11
10577.61593215673
 21
1605.759285231292
 31
0.0
  0
LINE
  5
24073
330
747D
100
AcDbEntity
  8
細線
 48
50.0
100
AcDbLine
 10
10492.29710659113
 20
1629.759285231292
 30
0.0
 11
10498.72788720949
 21
1605.759285231293
 31
0.0
  0
LINE
  5
24074
330
747D
100
AcDbEntity
  8
細線
 48
50.0
100
AcDbLine
 10
10334.52101669664
 20
1629.759285231292
 30
0.0
 11
10340.95179731499
 21
1605.759285231293
 31
0.0
  0
LINE
  5
24075
330
747D
100
AcDbEntity
  8
細線
 48
50.0
100
AcDbLine
 10
10413.40906164389
 20
1629.759285231292
 30
0.0
 11
10419.83984226223
 21
1605.759285231293
 31
0.0
  0
LINE
  5
24076
330
747D
100
AcDbEntity
  8
細線
 48
50.0
100
AcDbLine
 10
10406.97828102554
 20
1605.759285231293
 30
0.0
 11
10441.27577765672
 21
1733.759285231292
 31
0.0
  0
LINE
  5
24077
330
747D
100
AcDbEntity
  8
細線
 48
50.0
100
AcDbLine
 10
10328.09023607829
 20
1605.759285231292
 30
0.0
 11
10362.38773270948
 21
1733.759285231292
 31
0.0
  0
LINE
  5
24078
330
747D
100
AcDbEntity
  8
細線
 48
50.0
100
AcDbLine
 10
10485.86632597279
 20
1605.759285231292
 30
0.0
 11
10520.16382260396
 21
1733.759285231293
 31
0.0
  0
LINE
  5
24079
330
747D
100
AcDbEntity
  8
細線
100
AcDbLine
 10
10536.04995218103
 20
1733.759285231295
 30
0.0
 11
10627.74886783437
 21
1825.458200884643
 31
0.0
  0
LINE
  5
2407A
330
747D
100
AcDbEntity
  8
細線
 48
50.0
100
AcDbLine
 10
10564.75437092003
 20
1605.75928523129
 30
0.0
 11
10599.05186755122
 21
1733.75928523129
 31
0.0
  0
LINE
  5
2407B
330
747D
100
AcDbEntity
  8
部品1
100
AcDbLine
 10
10595.13130668779
 20
2065.458200884643
 30
0.0
 11
10595.13130668779
 21
1825.458200884643
 31
0.0
  0
LINE
  5
2407C
330
747D
100
AcDbEntity
  8
細線
100
AcDbLine
 10
10581.29364434021
 20
1825.458200884645
 30
0.0
 11
10341.29364434021
 21
2065.458200884643
 31
0.0
  0
LINE
  5
2407D
330
747D
100
AcDbEntity
  8
細線
100
AcDbLine
 10
10530.38195609477
 20
1825.458200884643
 30
0.0
 11
10290.38195609478
 21
2065.458200884643
 31
0.0
  0
LINE
  5
2407E
330
747D
100
AcDbEntity
  8
細線
100
AcDbLine
 10
10142.10882668407
 20
1733.759285231293
 30
0.0
 11
10233.80774233742
 21
1825.458200884643
 31
0.0
  0
LINE
  5
2407F
330
747D
100
AcDbEntity
  8
細線
100
AcDbLine
 10
10108.16770118711
 20
1733.759285231293
 30
0.0
 11
10199.86661684046
 21
1825.458200884643
 31
0.0
  0
LINE
  5
24080
330
747D
100
AcDbEntity
  8
細線
 48
50.0
100
AcDbLine
 10
10119.29281724939
 20
1709.759285231293
 30
0.0
 11
10112.86203663104
 21
1733.759285231293
 31
0.0
  0
LINE
  5
24081
330
747D
100
AcDbEntity
  8
細線
 48
50.0
100
AcDbLine
 10
10198.18086219664
 20
1709.759285231293
 30
0.0
 11
10191.75008157829
 21
1733.759285231293
 31
0.0
  0
LINE
  5
24082
330
747D
100
AcDbEntity
  8
細線
 48
50.0
100
AcDbLine
 10
10040.40477230214
 20
1709.759285231293
 30
0.0
 11
10033.97399168379
 21
1733.759285231293
 31
0.0
  0
LINE
  5
24083
330
747D
100
AcDbEntity
  8
細線
 48
50.0
100
AcDbLine
 10
10255.63297174939
 20
1629.759285231292
 30
0.0
 11
10262.06375236774
 21
1605.759285231293
 31
0.0
  0
LINE
  5
24084
330
747D
100
AcDbEntity
  8
細線
 48
50.0
100
AcDbLine
 10
10176.74492680215
 20
1629.759285231292
 30
0.0
 11
10183.17570742049
 21
1605.759285231293
 31
0.0
  0
LINE
  5
24085
330
747D
100
AcDbEntity
  8
細線
 48
50.0
100
AcDbLine
 10
10018.96883690765
 20
1629.759285231292
 30
0.0
 11
10025.39961752599
 21
1605.759285231293
 31
0.0
  0
LINE
  5
24086
330
747D
100
AcDbEntity
  8
細線
 48
50.0
100
AcDbLine
 10
10097.8568818549
 20
1629.759285231292
 30
0.0
 11
10104.28766247325
 21
1605.759285231293
 31
0.0
  0
LINE
  5
24087
330
747D
100
AcDbEntity
  8
部品1
100
AcDbLine
 10
9995.131306687788
 20
1605.759285231289
 30
0.0
 11
9995.131306687788
 21
1825.458200884643
 31
0.0
  0
LINE
  5
24088
330
747D
100
AcDbEntity
  8
細線
 48
50.0
100
AcDbLine
 10
10012.5380562893
 20
1605.759285231293
 30
0.0
 11
10046.83555292048
 21
1733.759285231293
 31
0.0
  0
LINE
  5
24089
330
747D
100
AcDbEntity
  8
細線
 48
50.0
100
AcDbLine
 10
10170.3141461838
 20
1605.759285231293
 30
0.0
 11
10204.61164281498
 21
1733.759285231293
 31
0.0
  0
LINE
  5
2408A
330
747D
100
AcDbEntity
  8
細線
 48
50.0
100
AcDbLine
 10
10091.42610123655
 20
1605.759285231292
 30
0.0
 11
10125.72359786773
 21
1733.759285231292
 31
0.0
  0
LINE
  5
2408B
330
747D
100
AcDbEntity
  8
部品1
100
AcDbLine
 10
10115.13130668779
 20
1825.458200884643
 30
0.0
 11
10115.13130668779
 21
2065.458200884643
 31
0.0
  0
TEXT
  5
2408C
330
747D
100
AcDbEntity
  8
部品1
 48
50.0
100
AcDbText
 10
9351.013219929285
 20
1558.658460247334
 30
0.0
 40
80.0
  1
ボルトの出
 50
90.0
  7
STYLE2
100
AcDbText
  0
LINE
  5
2408D
330
747D
100
AcDbEntity
  8
細線
100
AcDbLine
 10
10258.85295211914
 20
1825.458200884643
 30
0.0
 11
10115.13130668779
 21
1969.179846315996
 31
0.0
  0
LWPOLYLINE
  5
2408E
330
747D
100
AcDbEntity
  8
部品1
 48
50.0
100
AcDbPolyline
 90
        2
 70
     0
 43
12.0
 10
9730.5200445874
 20
1825.458200884643
 10
10931.61234771902
 20
1825.458200884643
  0
LINE
  5
2408F
330
747D
100
AcDbEntity
  8
細線
100
AcDbLine
 10
10176.04995218103
 20
1733.759285231293
 30
0.0
 11
10267.74886783437
 21
1825.458200884643
 31
0.0
  0
LINE
  5
24090
330
747D
100
AcDbEntity
  8
部品1
100
AcDbLine
 10
9995.131306687788
 20
1733.759285231293
 30
0.0
 11
10715.13130668779
 21
1733.759285231295
 31
0.0
  0
LINE
  5
24091
330
747D
100
AcDbEntity
  8
部品1
100
AcDbLine
 10
9995.131306687788
 20
1605.759285231289
 30
0.0
 11
10715.13130668779
 21
1605.759285231293
 31
0.0
  0
LINE
  5
24092
330
747D
100
AcDbEntity
  8
細線
 48
50.0
100
AcDbLine
 10
10249.20219113104
 20
1605.759285231293
 30
0.0
 11
10283.49968776223
 21
1733.759285231292
 31
0.0
  0
LINE
  5
24093
330
747D
100
AcDbEntity
  8
部品1
100
AcDbLine
 10
10115.13130668779
 20
2065.458200884643
 30
0.0
 11
10595.13130668779
 21
2065.458200884643
 31
0.0
  0
LINE
  5
24094
330
747D
100
AcDbEntity
  8
細線
100
AcDbLine
 10
10309.76464036457
 20
1825.458200884643
 30
0.0
 11
10115.13130668779
 21
2020.091534561426
 31
0.0
  0
LINE
  5
24095
330
747D
100
AcDbEntity
  8
部品1
100
AcDbLine
 10
11301.87280778482
 20
500.4898985005811
 30
0.0
 11
11301.87280778482
 21
3464.796868085228
 31
0.0
  0
TEXT
  5
24096
330
747D
100
AcDbEntity
  8
部品1
100
AcDbText
 10
7923.767623576961
 20
3285.2449361338
 30
0.0
 40
120.0
  1
基礎詳細
  7
STYLE2
100
AcDbText
  0
LINE
  5
24097
330
747D
100
AcDbEntity
  8
部品1
 48
50.0
100
AcDbLine
 10
8238.995374385032
 20
2464.333481993786
 30
0.0
 11
8254.99537438503
 21
2456.333481993786
 31
0.0
  0
LINE
  5
24098
330
747D
100
AcDbEntity
  8
細線
 48
50.0
100
AcDbLine
 10
8206.99537438503
 20
2416.333481993786
 30
0.0
 11
8206.99537438503
 21
2448.333481993786
 31
0.0
  0
LINE
  5
24099
330
747D
100
AcDbEntity
  8
部品1
 48
50.0
100
AcDbLine
 10
8254.99537438503
 20
2424.333481993786
 30
0.0
 11
8254.99537438503
 21
2456.333481993786
 31
0.0
  0
LINE
  5
2409A
330
747D
100
AcDbEntity
  8
細線
 48
50.0
100
AcDbLine
 10
8238.995374385032
 20
2416.333481993786
 30
0.0
 11
8238.995374385032
 21
2448.333481993786
 31
0.0
  0
LINE
  5
2409B
330
747D
100
AcDbEntity
  8
部品1
 48
50.0
100
AcDbLine
 10
8238.995374385032
 20
2448.333481993786
 30
0.0
 11
8254.99537438503
 21
2456.333481993786
 31
0.0
  0
LINE
  5
2409C
330
747D
100
AcDbEntity
  8
部品1
 48
50.0
100
AcDbLine
 10
8206.99537438503
 20
2448.333481993786
 30
0.0
 11
8238.995374385032
 21
2448.333481993786
 31
0.0
  0
LINE
  5
2409D
330
747D
100
AcDbEntity
  8
部品1
 48
50.0
100
AcDbLine
 10
8238.995374385032
 20
2416.333481993786
 30
0.0
 11
8254.99537438503
 21
2424.333481993786
 31
0.0
  0
LINE
  5
2409E
330
747D
100
AcDbEntity
  8
部品1
 48
50.0
100
AcDbLine
 10
8206.99537438503
 20
2416.333481993786
 30
0.0
 11
8238.995374385032
 21
2416.333481993786
 31
0.0
  0
ELLIPSE
  5
2409F
330
747D
100
AcDbEntity
  8
細線
 48
50.0
100
AcDbEllipse
 10
8222.995374385032
 20
2456.333481993786
 30
0.0
 11
14.76670786606846
 21
0.0
 31
0.0
210
0.0
220
0.0
230
1.0
 40
0.2071254069489396
 41
0.0
 42
6.283185307179586
  0
LINE
  5
240A0
330
747D
100
AcDbEntity
  8
部品1
 48
50.0
100
AcDbLine
 10
8206.99537438503
 20
2464.333481993786
 30
0.0
 11
8238.995374385032
 21
2464.333481993786
 31
0.0
  0
LINE
  5
240A1
330
747D
100
AcDbEntity
  8
部品1
 48
50.0
100
AcDbLine
 10
8190.99537438503
 20
2424.333481993786
 30
0.0
 11
8190.99537438503
 21
2456.333481993786
 31
0.0
  0
LINE
  5
240A2
330
747D
100
AcDbEntity
  8
部品1
 48
50.0
100
AcDbLine
 10
8190.99537438503
 20
2456.333481993786
 30
0.0
 11
8206.99537438503
 21
2464.333481993786
 31
0.0
  0
LINE
  5
240A3
330
747D
100
AcDbEntity
  8
部品1
 48
50.0
100
AcDbLine
 10
8190.99537438503
 20
2424.333481993786
 30
0.0
 11
8206.99537438503
 21
2416.333481993786
 31
0.0
  0
LINE
  5
240A4
330
747D
100
AcDbEntity
  8
部品1
 48
50.0
100
AcDbLine
 10
8190.99537438503
 20
2456.333481993786
 30
0.0
 11
8206.99537438503
 21
2448.333481993786
 31
0.0
  0
LINE
  5
240A5
330
747D
100
AcDbEntity
  8
部品1
 48
50.0
100
AcDbLine
 10
8262.995374385031
 20
2324.981489328915
 30
0.0
 11
8262.995374385031
 21
2334.581489328915
 31
0.0
  0
ELLIPSE
  5
240A6
330
747D
100
AcDbEntity
  8
部品1
 48
50.0
100
AcDbEllipse
 10
8222.995374385032
 20
2334.581489328915
 30
0.0
 11
18.4
 21
0.0
 31
0.0
210
0.0
220
0.0
230
1.0
 40
0.3478260869565217
 41
0.0
 42
6.283185307179586
  0
ARC
  5
240A7
330
747D
100
AcDbEntity
  8
部品1
100
AcDbCircle
 10
8061.895374385031
 20
2163.558200884643
 30
0.0
 40
2.7
100
AcDbArc
 50
90.0
 51
180.0
  0
LINE
  5
240A8
330
747D
100
AcDbEntity
  8
部品1
100
AcDbLine
 10
8064.59537438503
 20
2177.058200884643
 30
0.0
 11
8106.895374385031
 21
2177.05820088464
 31
0.0
  0
LINE
  5
240A9
330
747D
100
AcDbEntity
  8
部品1
100
AcDbLine
 10
8061.895374385031
 20
2166.258200884643
 30
0.0
 11
8061.895374385031
 21
2174.358200884642
 31
0.0
  0
LINE
  5
240AA
330
747D
100
AcDbEntity
  8
部品1
100
AcDbLine
 10
8061.895374385031
 20
2166.258200884643
 30
0.0
 11
8061.895374385031
 21
2166.258200884643
 31
0.0
  0
ARC
  5
240AB
330
747D
100
AcDbEntity
  8
部品1
100
AcDbCircle
 10
8064.59537438503
 20
2174.358200884642
 30
0.0
 40
2.7
100
AcDbArc
 50
90.0
 51
180.0
  0
ARC
  5
240AC
330
747D
100
AcDbEntity
  8
部品1
100
AcDbCircle
 10
8106.895374385031
 20
2174.35820088464
 30
0.0
 40
2.7
100
AcDbArc
 50
0.0
 51
90.0
  0
LINE
  5
240AD
330
747D
100
AcDbEntity
  8
部品1
 48
50.0
100
AcDbLine
 10
8182.995374385031
 20
2334.581489328915
 30
0.0
 11
8182.995374385031
 21
2324.981489328915
 31
0.0
  0
ELLIPSE
  5
240AE
330
747D
100
AcDbEntity
  8
部品1
 48
50.0
100
AcDbEllipse
 10
8222.995374385032
 20
2324.981489328916
 30
0.0
 11
40.0
 21
0.0
 31
0.0
210
0.0
220
0.0
230
1.0
 40
0.4
 41
3.141592653589793
 42
6.283185307179586
  0
ELLIPSE
  5
240AF
330
747D
100
AcDbEntity
  8
部品1
 48
50.0
100
AcDbEllipse
 10
8222.995374385032
 20
2334.581489328915
 30
0.0
 11
40.0
 21
0.0
 31
0.0
210
0.0
220
0.0
230
1.0
 40
0.4
 41
0.0
 42
6.283185307179586
  0
LINE
  5
240B0
330
747D
100
AcDbEntity
  8
部品1
100
AcDbLine
 10
8217.59537438503
 20
2118.218200884643
 30
0.0
 11
8228.39537438503
 21
2118.218200884643
 31
0.0
  0
LINE
  5
240B1
330
747D
100
AcDbEntity
  8
部品1
100
AcDbLine
 10
8213.995374385032
 20
2114.618200884644
 30
0.0
 11
8231.99537438503
 21
2114.618200884644
 31
0.0
  0
LINE
  5
240B2
330
747D
100
AcDbEntity
  8
細線
100
AcDbLine
 10
8217.595374385032
 20
2075.018200884644
 30
0.0
 11
8217.59537438503
 21
2118.218200884643
 31
0.0
  0
LINE
  5
240B3
330
747D
100
AcDbEntity
  8
細線
100
AcDbLine
 10
8228.39537438503
 20
2075.018200884644
 30
0.0
 11
8228.39537438503
 21
2118.218200884643
 31
0.0
  0
LINE
  5
240B4
330
747D
100
AcDbEntity
  8
部品1
100
AcDbLine
 10
8130.295374385031
 20
2132.318200884643
 30
0.0
 11
8130.295374385031
 21
2115.218200884643
 31
0.0
  0
LINE
  5
240B5
330
747D
100
AcDbEntity
  8
部品1
100
AcDbLine
 10
8163.855374385033
 20
2132.318200884643
 30
0.0
 11
8163.855374385027
 21
2077.718200884643
 31
0.0
  0
ARC
  5
240B6
330
747D
100
AcDbEntity
  8
部品1
100
AcDbCircle
 10
8149.195374385032
 20
2120.358200884643
 30
0.0
 40
2.7
100
AcDbArc
 50
0.0
 51
90.0
  0
LINE
  5
240B7
330
747D
100
AcDbEntity
  8
部品1
100
AcDbLine
 10
8109.59537438503
 20
2123.058200884643
 30
0.0
 11
8149.195374385032
 21
2123.058200884643
 31
0.0
  0
ARC
  5
240B8
330
747D
100
AcDbEntity
  8
部品1
100
AcDbCircle
 10
8149.195374385032
 20
2077.718200884643
 30
0.0
 40
2.7
100
AcDbArc
 50
270.0
 51
0.0
  0
ARC
  5
240B9
330
747D
100
AcDbEntity
  8
部品1
100
AcDbCircle
 10
8166.555374385024
 20
2077.718200884643
 30
0.0
 40
2.7
100
AcDbArc
 50
180.0
 51
270.0
  0
LINE
  5
240BA
330
747D
100
AcDbEntity
  8
部品1
100
AcDbLine
 10
8137.49537438503
 20
2075.018200884644
 30
0.0
 11
8149.195374385032
 21
2075.018200884644
 31
0.0
  0
LINE
  5
240BB
330
747D
100
AcDbEntity
  8
部品1
100
AcDbLine
 10
8151.895374385031
 20
2120.358200884643
 30
0.0
 11
8151.895374385031
 21
2077.718200884643
 31
0.0
  0
ARC
  5
240BC
330
747D
100
AcDbEntity
  8
部品1
100
AcDbCircle
 10
8161.15537438503
 20
2132.318200884643
 30
0.0
 40
2.7
100
AcDbArc
 50
0.0
 51
90.0
  0
ARC
  5
240BD
330
747D
100
AcDbEntity
  8
部品1
100
AcDbCircle
 10
8132.99537438503
 20
2132.318200884643
 30
0.0
 40
2.7
100
AcDbArc
 50
90.0
 51
180.0
  0
LINE
  5
240BE
330
747D
100
AcDbEntity
  8
部品1
100
AcDbLine
 10
8132.99537438503
 20
2135.018200884643
 30
0.0
 11
8161.15537438503
 21
2135.018200884643
 31
0.0
  0
LINE
  5
240BF
330
747D
100
AcDbEntity
  8
部品1
100
AcDbLine
 10
8109.59537438503
 20
2174.35820088464
 30
0.0
 11
8109.59537438503
 21
2123.058200884643
 31
0.0
  0
LINE
  5
240C0
330
747D
100
AcDbEntity
  8
部品1
100
AcDbLine
 10
8059.195374385032
 20
2155.458200884643
 30
0.0
 11
8059.195374385032
 21
2163.558200884643
 31
0.0
  0
LINE
  5
240C1
330
747D
100
AcDbEntity
  8
部品1
100
AcDbLine
 10
8166.555374385024
 20
2075.018200884644
 30
0.0
 11
8367.895374385026
 21
2075.018200884644
 31
0.0
  0
LINE
  5
240C2
330
747D
100
AcDbEntity
  8
部品1
100
AcDbLine
 10
8007.89537438503
 20
2077.718200884643
 30
0.0
 11
8007.89537438503
 21
2139.850104587351
 31
0.0
  0
LINE
  5
240C3
330
747D
100
AcDbEntity
  8
部品1
100
AcDbLine
 10
8010.595374385029
 20
2075.018200884644
 30
0.0
 11
8022.295374385025
 21
2075.018200884644
 31
0.0
  0
LINE
  5
240C4
330
747D
100
AcDbEntity
  8
細線
 48
50.0
100
AcDbLine
 10
8001.595374385031
 20
2053.238777184548
 30
0.0
 11
8013.814798085125
 21
2065.458200884643
 31
0.0
  0
ARC
  5
240C5
330
747D
100
AcDbEntity
  8
部品1
100
AcDbCircle
 10
8010.595374385029
 20
2077.718200884643
 30
0.0
 40
2.7
100
AcDbArc
 50
180.0
 51
270.0
  0
LINE
  5
240C6
330
747D
100
AcDbEntity
  8
部品1
100
AcDbLine
 10
8009.940528197432
 20
2142.469489337743
 30
0.0
 11
8018.695374385032
 21
2144.658200884643
 31
0.0
  0
ARC
  5
240C7
330
747D
100
AcDbEntity
  8
部品1
100
AcDbCircle
 10
8010.595374385029
 20
2139.850104587351
 30
0.0
 40
2.7
100
AcDbArc
 50
104.0362434679067
 51
180.0
  0
ARC
  5
240C8
330
747D
100
AcDbEntity
  8
部品1
100
AcDbCircle
 10
8021.395374385031
 20
2152.758200884643
 30
0.0
 40
2.7
100
AcDbArc
 50
90.0
 51
180.0
  0
LINE
  5
240C9
330
747D
100
AcDbEntity
  8
部品1
100
AcDbLine
 10
8018.695374385032
 20
2144.658200884643
 30
0.0
 11
8018.695374385032
 21
2152.758200884643
 31
0.0
  0
LINE
  5
240CA
330
747D
100
AcDbEntity
  8
部品1
 48
50.0
100
AcDbLine
 10
8001.595374385031
 20
2065.458200884643
 30
0.0
 11
8415.595374385032
 21
2065.458200884643
 31
0.0
  0
LINE
  5
240CB
330
747D
100
AcDbEntity
  8
細線
 48
50.0
100
AcDbLine
 10
8001.595374385031
 20
1999.357240458133
 30
0.0
 11
8067.696334811541
 21
2065.458200884643
 31
0.0
  0
LINE
  5
240CC
330
747D
100
AcDbEntity
  8
細線
 48
50.0
100
AcDbLine
 10
8001.595374385031
 20
2026.298008821341
 30
0.0
 11
8040.755566448337
 21
2065.458200884643
 31
0.0
  0
LINE
  5
240CD
330
747D
100
AcDbEntity
  8
部品1
100
AcDbLine
 10
8021.395374385031
 20
2155.458200884643
 30
0.0
 11
8059.195374385032
 21
2155.458200884643
 31
0.0
  0
LINE
  5
240CE
330
747D
100
AcDbEntity
  8
部品1
 48
50.0
100
AcDbLine
 10
8415.595374385031
 20
1521.458200884643
 30
0.0
 11
8543.595374385029
 21
1521.458200884643
 31
0.0
  0
LINE
  5
240CF
330
747D
100
AcDbEntity
  8
部品1
100
AcDbLine
 10
8231.99537438503
 20
1840.458200884643
 30
0.0
 11
8267.99537438503
 21
1840.458200884643
 31
0.0
  0
LINE
  5
240D0
330
747D
100
AcDbEntity
  8
部品1
100
AcDbLine
 10
8231.99537438503
 20
1822.458200884643
 30
0.0
 11
8267.99537438503
 21
1822.458200884643
 31
0.0
  0
ARC
  5
240D1
330
747D
100
AcDbEntity
  8
部品1
100
AcDbCircle
 10
8231.99537438503
 20
1840.458200884643
 30
0.0
 40
18.0
100
AcDbArc
 50
180.0
 51
270.0
  0
LINE
  5
240D2
330
747D
100
AcDbEntity
  8
部品1
100
AcDbLine
 10
8267.99537438503
 20
1822.458200884643
 30
0.0
 11
8267.99537438503
 21
1840.458200884643
 31
0.0
  0
LINE
  5
240D3
330
747D
100
AcDbEntity
  8
部品1
100
AcDbLine
 10
8285.995374385031
 20
1741.458200884641
 30
0.0
 11
8159.995374385024
 21
1741.458200884641
 31
0.0
  0
LINE
  5
240D4
330
747D
100
AcDbEntity
  8
細線
 48
50.0
100
AcDbLine
 10
8579.973199577365
 20
1257.458200884641
 30
0.0
 11
8573.54241895902
 21
1281.458200884641
 31
0.0
  0
LINE
  5
240D5
330
747D
100
AcDbEntity
  8
細線
 48
50.0
100
AcDbLine
 10
8501.08515463012
 20
1257.458200884641
 30
0.0
 11
8494.654374011775
 21
1281.458200884641
 31
0.0
  0
LINE
  5
240D6
330
747D
100
AcDbEntity
  8
細線
 48
50.0
100
AcDbLine
 10
8422.197109682864
 20
1257.458200884643
 30
0.0
 11
8415.766329064515
 21
1281.458200884643
 31
0.0
  0
LINE
  5
240D7
330
747D
100
AcDbEntity
  8
細線
 48
50.0
100
AcDbLine
 10
8558.537264182877
 20
1177.458200884641
 30
0.0
 11
8564.968044801224
 21
1153.458200884641
 31
0.0
  0
LINE
  5
240D8
330
747D
100
AcDbEntity
  8
細線
 48
50.0
100
AcDbLine
 10
8479.64921923563
 20
1177.458200884641
 30
0.0
 11
8486.079999853977
 21
1153.458200884641
 31
0.0
  0
LINE
  5
240D9
330
747D
100
AcDbEntity
  8
細線
 48
50.0
100
AcDbLine
 10
8400.761174288382
 20
1177.458200884643
 30
0.0
 11
8407.191954906739
 21
1153.458200884643
 31
0.0
  0
LINE
  5
240DA
330
747D
100
AcDbEntity
  8
細線
 48
50.0
100
AcDbLine
 10
8473.218438617282
 20
1153.45820088464
 30
0.0
 11
8507.515935248465
 21
1281.45820088464
 31
0.0
  0
LINE
  5
240DB
330
747D
100
AcDbEntity
  8
細線
 48
50.0
100
AcDbLine
 10
8394.330393670031
 20
1153.458200884641
 30
0.0
 11
8428.627890301205
 21
1281.458200884643
 31
0.0
  0
LINE
  5
240DC
330
747D
100
AcDbEntity
  8
細線
 48
50.0
100
AcDbLine
 10
8552.106483564525
 20
1153.458200884641
 30
0.0
 11
8586.403980195711
 21
1281.45820088464
 31
0.0
  0
LINE
  5
240DD
330
747D
100
AcDbEntity
  8
部品1
 48
50.0
100
AcDbLine
 10
8623.595374385033
 20
1281.458200884643
 30
0.0
 11
8623.595374385033
 21
1153.458200884643
 31
0.0
  0
LINE
  5
240DE
330
747D
100
AcDbEntity
  8
細線
 48
50.0
100
AcDbLine
 10
8343.309064735626
 20
1257.458200884643
 30
0.0
 11
8336.878284117281
 21
1281.458200884643
 31
0.0
  0
LINE
  5
240DF
330
747D
100
AcDbEntity
  8
細線
 48
50.0
100
AcDbLine
 10
8264.421019788381
 20
1257.458200884643
 30
0.0
 11
8257.990239170032
 21
1281.458200884643
 31
0.0
  0
LINE
  5
240E0
330
747D
100
AcDbEntity
  8
細線
 48
50.0
100
AcDbLine
 10
8106.644929893887
 20
1257.458200884643
 30
0.0
 11
8100.21414927554
 21
1281.458200884643
 31
0.0
  0
LINE
  5
240E1
330
747D
100
AcDbEntity
  8
細線
 48
50.0
100
AcDbLine
 10
8185.532974841134
 20
1257.458200884643
 30
0.0
 11
8179.102194222785
 21
1281.458200884643
 31
0.0
  0
LINE
  5
240E2
330
747D
100
AcDbEntity
  8
細線
 48
50.0
100
AcDbLine
 10
8242.985084393891
 20
1177.458200884643
 30
0.0
 11
8249.415865012236
 21
1153.458200884643
 31
0.0
  0
LINE
  5
240E3
330
747D
100
AcDbEntity
  8
細線
 48
50.0
100
AcDbLine
 10
8321.873129341136
 20
1177.458200884643
 30
0.0
 11
8328.303909959483
 21
1153.458200884643
 31
0.0
  0
LINE
  5
240E4
330
747D
100
AcDbEntity
  8
細線
 48
50.0
100
AcDbLine
 10
8085.208994499396
 20
1177.458200884643
 30
0.0
 11
8091.639775117744
 21
1153.458200884643
 31
0.0
  0
LINE
  5
240E5
330
747D
100
AcDbEntity
  8
細線
 48
50.0
100
AcDbLine
 10
8164.097039446643
 20
1177.458200884643
 30
0.0
 11
8170.527820064991
 21
1153.458200884643
 31
0.0
  0
LINE
  5
240E6
330
747D
100
AcDbEntity
  8
細線
 48
50.0
100
AcDbLine
 10
8315.442348722783
 20
1153.458200884643
 30
0.0
 11
8349.739845353969
 21
1281.458200884641
 31
0.0
  0
LINE
  5
240E7
330
747D
100
AcDbEntity
  8
細線
 48
50.0
100
AcDbLine
 10
8157.666258828292
 20
1153.458200884643
 30
0.0
 11
8191.963755459477
 21
1281.458200884641
 31
0.0
  0
LINE
  5
240E8
330
747D
100
AcDbEntity
  8
細線
 48
50.0
100
AcDbLine
 10
8078.778213881045
 20
1153.458200884643
 30
0.0
 11
8113.075710512228
 21
1281.458200884643
 31
0.0
  0
LINE
  5
240E9
330
747D
100
AcDbEntity
  8
細線
 48
50.0
100
AcDbLine
 10
8236.554303775541
 20
1153.458200884641
 30
0.0
 11
8270.851800406722
 21
1281.458200884641
 31
0.0
  0
LINE
  5
240EA
330
747D
100
AcDbEntity
  8
細線
 48
50.0
100
AcDbLine
 10
8361.327069339839
 20
1281.458200884643
 30
0.0
 11
8543.595374385029
 21
1463.726505929838
 31
0.0
  0
LINE
  5
240EB
330
747D
100
AcDbEntity
  8
部品1
 48
50.0
100
AcDbLine
 10
8543.595374385029
 20
1521.458200884643
 30
0.0
 11
8543.595374385029
 21
1281.458200884643
 31
0.0
  0
LINE
  5
240EC
330
747D
100
AcDbEntity
  8
細線
 48
50.0
100
AcDbLine
 10
8334.386300976635
 20
1281.458200884643
 30
0.0
 11
8543.595374385029
 21
1490.667274293036
 31
0.0
  0
LINE
  5
240ED
330
747D
100
AcDbEntity
  8
細線
 48
50.0
100
AcDbLine
 10
8307.445532613423
 20
1281.458200884643
 30
0.0
 11
8543.595374385029
 21
1517.608042656251
 31
0.0
  0
LINE
  5
240EE
330
747D
100
AcDbEntity
  8
細線
 48
50.0
100
AcDbLine
 10
8091.919385707765
 20
1281.458200884643
 30
0.0
 11
8415.595374385031
 21
1605.134189561909
 31
0.0
  0
LINE
  5
240EF
330
747D
100
AcDbEntity
  8
細線
 48
50.0
100
AcDbLine
 10
8145.800922434181
 20
1281.458200884643
 30
0.0
 11
8415.595374385031
 21
1551.2526528355
 31
0.0
  0
LINE
  5
240F0
330
747D
100
AcDbEntity
  8
細線
 48
50.0
100
AcDbLine
 10
8118.860154070976
 20
1281.458200884643
 30
0.0
 11
8415.595374385031
 21
1578.193421198695
 31
0.0
  0
LINE
  5
240F1
330
747D
100
AcDbEntity
  8
細線
 48
50.0
100
AcDbLine
 10
7873.595374385025
 20
1494.186483373229
 30
0.0
 11
7900.867091896445
 21
1521.458200884643
 31
0.0
  0
LINE
  5
240F2
330
747D
100
AcDbEntity
  8
部品1
 48
50.0
100
AcDbLine
 10
7873.59537438503
 20
1521.458200884643
 30
0.0
 11
8001.595374385031
 21
1521.458200884643
 31
0.0
  0
LINE
  5
240F3
330
747D
100
AcDbEntity
  8
細線
 48
50.0
100
AcDbLine
 10
7873.595374385025
 20
1467.245715010018
 30
0.0
 11
7927.807860259655
 21
1521.458200884643
 31
0.0
  0
LWPOLYLINE
  5
240F4
330
747D
100
AcDbEntity
  8
部品1
 48
50.0
100
AcDbPolyline
 90
        2
 70
     0
 43
8.0
 10
7587.455472552074
 20
1825.458200884644
 10
8001.595374385031
 20
1825.458200884644
  0
LINE
  5
240F5
330
747D
100
AcDbEntity
  8
細線
 48
50.0
100
AcDbLine
 10
7948.868839999384
 20
1257.458200884643
 30
0.0
 11
7942.438059381037
 21
1281.458200884643
 31
0.0
  0
LINE
  5
240F6
330
747D
100
AcDbEntity
  8
細線
 48
50.0
100
AcDbLine
 10
8027.756884946635
 20
1257.458200884643
 30
0.0
 11
8021.326104328286
 21
1281.458200884643
 31
0.0
  0
LINE
  5
240F7
330
747D
100
AcDbEntity
  8
細線
 48
50.0
100
AcDbLine
 10
7869.980795052132
 20
1257.458200884643
 30
0.0
 11
7863.550014433785
 21
1281.458200884643
 31
0.0
  0
LINE
  5
240F8
330
747D
100
AcDbEntity
  8
細線
 48
50.0
100
AcDbLine
 10
7793.595374385029
 20
1266.798121850423
 30
0.0
 11
7797.523530723225
 21
1281.458200884643
 31
0.0
  0
LINE
  5
240F9
330
747D
100
AcDbEntity
  8
細線
 48
50.0
100
AcDbLine
 10
7927.432904604895
 20
1177.458200884643
 30
0.0
 11
7933.863685223241
 21
1153.458200884643
 31
0.0
  0
LINE
  5
240FA
330
747D
100
AcDbEntity
  8
細線
 48
50.0
100
AcDbLine
 10
8006.320949552145
 20
1177.458200884643
 30
0.0
 11
8012.751730170494
 21
1153.458200884643
 31
0.0
  0
LINE
  5
240FB
330
747D
100
AcDbEntity
  8
細線
 48
50.0
100
AcDbLine
 10
7848.544859657643
 20
1177.458200884643
 30
0.0
 11
7854.975640275988
 21
1153.458200884643
 31
0.0
  0
LINE
  5
240FC
330
747D
100
AcDbEntity
  8
細線
 48
50.0
100
AcDbLine
 10
7999.890168933794
 20
1153.458200884641
 30
0.0
 11
8034.187665564976
 21
1281.458200884641
 31
0.0
  0
LINE
  5
240FD
330
747D
100
AcDbEntity
  8
細線
 48
50.0
100
AcDbLine
 10
7842.11407903929
 20
1153.458200884641
 30
0.0
 11
7876.411575670473
 21
1281.458200884641
 31
0.0
  0
LINE
  5
240FE
330
747D
100
AcDbEntity
  8
部品1
 48
50.0
100
AcDbLine
 10
7793.595374385033
 20
1153.458200884643
 30
0.0
 11
7793.595374385033
 21
1281.458200884643
 31
0.0
  0
LINE
  5
240FF
330
747D
100
AcDbEntity
  8
細線
 48
50.0
100
AcDbLine
 10
7921.002123986546
 20
1153.458200884643
 30
0.0
 11
7955.299620617731
 21
1281.458200884643
 31
0.0
  0
LINE
  5
24100
330
747D
100
AcDbEntity
  8
部品1
 48
50.0
100
AcDbLine
 10
7873.59537438503
 20
1281.458200884643
 30
0.0
 11
7873.59537438503
 21
1521.458200884643
 31
0.0
  0
LINE
  5
24101
330
747D
100
AcDbEntity
  8
細線
 48
50.0
100
AcDbLine
 10
7873.595374385025
 20
1440.304946646814
 30
0.0
 11
7954.748628622859
 21
1521.458200884643
 31
0.0
  0
LINE
  5
24102
330
747D
100
AcDbEntity
  8
部品1
 48
50.0
100
AcDbLine
 10
8623.595374385033
 20
1153.458200884643
 30
0.0
 11
7793.595374385033
 21
1153.458200884643
 31
0.0
  0
LINE
  5
24103
330
747D
100
AcDbEntity
  8
部品1
 48
50.0
100
AcDbLine
 10
8623.595374385033
 20
1281.458200884643
 30
0.0
 11
7793.595374385033
 21
1281.458200884643
 31
0.0
  0
LINE
  5
24104
330
747D
100
AcDbEntity
  8
細線
 48
50.0
100
AcDbLine
 10
7876.393238802106
 20
1281.458200884643
 30
0.0
 11
8415.595374385031
 21
1820.660336467568
 31
0.0
  0
LINE
  5
24105
330
747D
100
AcDbEntity
  8
細線
 48
50.0
100
AcDbLine
 10
7903.334007165314
 20
1281.458200884643
 30
0.0
 11
8415.595374385032
 21
1793.719568104357
 31
0.0
  0
LINE
  5
24106
330
747D
100
AcDbEntity
  8
細線
 48
50.0
100
AcDbLine
 10
7930.27477552852
 20
1281.458200884643
 30
0.0
 11
8415.595374385031
 21
1766.77879974115
 31
0.0
  0
LINE
  5
24107
330
747D
100
AcDbEntity
  8
細線
 48
50.0
100
AcDbLine
 10
8001.595374385031
 20
1622.186483373229
 30
0.0
 11
8159.995374385024
 21
1780.586483373224
 31
0.0
  0
LINE
  5
24108
330
747D
100
AcDbEntity
  8
細線
 48
50.0
100
AcDbLine
 10
8001.595374385031
 20
1568.304946646813
 30
0.0
 11
8174.748628622866
 21
1741.458200884641
 31
0.0
  0
LINE
  5
24109
330
747D
100
AcDbEntity
  8
細線
 48
50.0
100
AcDbLine
 10
8001.595374385031
 20
1595.245715010021
 30
0.0
 11
8159.995374385024
 21
1753.645715010009
 31
0.0
  0
LINE
  5
2410A
330
747D
100
AcDbEntity
  8
部品1
100
AcDbLine
 10
8159.995374385024
 20
1741.458200884643
 30
0.0
 11
8159.995374385031
 21
2065.458200884643
 31
0.0
  0
LINE
  5
2410B
330
747D
100
AcDbEntity
  8
部品1
100
AcDbLine
 10
8285.995374385031
 20
1741.458200884643
 30
0.0
 11
8285.995374385031
 21
2065.458200884643
 31
0.0
  0
LINE
  5
2410C
330
747D
100
AcDbEntity
  8
細線
 48
50.0
100
AcDbLine
 10
8285.995374385031
 20
1879.645715010014
 30
0.0
 11
8415.595374385031
 21
2009.245715010011
 31
0.0
  0
LINE
  5
2410D
330
747D
100
AcDbEntity
  8
細線
 48
50.0
100
AcDbLine
 10
8285.995374385031
 20
1852.704946646801
 30
0.0
 11
8415.595374385031
 21
1982.304946646793
 31
0.0
  0
LINE
  5
2410E
330
747D
100
AcDbEntity
  8
部品1
100
AcDbLine
 10
8213.995374385032
 20
1840.458200884643
 30
0.0
 11
8213.995374385026
 21
2114.618200884644
 31
0.0
  0
LINE
  5
2410F
330
747D
100
AcDbEntity
  8
部品1
100
AcDbLine
 10
8231.99537438503
 20
1840.458200884643
 30
0.0
 11
8231.995374385027
 21
2114.618200884644
 31
0.0
  0
TEXT
  5
24110
330
747D
100
AcDbEntity
  8
部品1
 48
50.0
100
AcDbText
 10
7587.455472552074
 20
1836.697193167898
 30
0.0
 40
80.0
  1
▽G.L
  7
STYLE2
100
AcDbText
  0
LINE
  5
24111
330
747D
100
AcDbEntity
  8
細線
 48
50.0
100
AcDbLine
 10
8001.595374385031
 20
1783.831093552473
 30
0.0
 11
8159.995374385028
 21
1942.231093552465
 31
0.0
  0
LINE
  5
24112
330
747D
100
AcDbEntity
  8
細線
 48
50.0
100
AcDbLine
 10
8001.595374385031
 20
1810.77186191568
 30
0.0
 11
8159.995374385029
 21
1969.171861915678
 31
0.0
  0
LINE
  5
24113
330
747D
100
AcDbEntity
  8
細線
 48
50.0
100
AcDbLine
 10
8001.595374385031
 20
1837.712630278888
 30
0.0
 11
8159.995374385029
 21
1996.112630278885
 31
0.0
  0
LINE
  5
24114
330
747D
100
AcDbEntity
  8
部品1
 48
50.0
100
AcDbLine
 10
8001.595374385031
 20
1521.458200884643
 30
0.0
 11
8001.595374385031
 21
2065.458200884643
 31
0.0
  0
LINE
  5
24115
330
747D
100
AcDbEntity
  8
部品1
100
AcDbLine
 10
8415.595374385031
 20
1521.458200884643
 30
0.0
 11
8415.595374385031
 21
2065.458200884643
 31
0.0
  0
LINE
  5
24116
330
747D
100
AcDbEntity
  8
細線
 48
50.0
100
AcDbLine
 10
8285.995374385031
 20
1906.586483373231
 30
0.0
 11
8415.595374385031
 21
2036.18648337323
 31
0.0
  0
LINE
  5
24117
330
747D
100
AcDbEntity
  8
細線
 48
50.0
100
AcDbLine
 10
6410.048483710307
 20
1946.205052781359
 30
0.0
 11
6493.556061207837
 21
2029.712630278888
 31
0.0
  0
LINE
  5
24118
330
747D
100
AcDbEntity
  8
細線
 48
50.0
100
AcDbLine
 10
6421.108768473823
 20
1930.324569181664
 30
0.0
 11
6493.556061207837
 21
2002.771861915681
 31
0.0
  0
LINE
  5
24119
330
747D
100
AcDbEntity
  8
細線
 48
50.0
100
AcDbLine
 10
6301.556061207837
 20
2053.238777184548
 30
0.0
 11
6313.775484907932
 21
2065.458200884643
 31
0.0
  0
LINE
  5
2411A
330
747D
100
AcDbEntity
  8
細線
 48
50.0
100
AcDbLine
 10
6301.556061207837
 20
1999.357240458133
 30
0.0
 11
6367.657021634347
 21
2065.458200884643
 31
0.0
  0
LINE
  5
2411B
330
747D
100
AcDbEntity
  8
細線
 48
50.0
100
AcDbLine
 10
6301.556061207837
 20
2026.298008821341
 30
0.0
 11
6340.716253271141
 21
2065.458200884643
 31
0.0
  0
LINE
  5
2411C
330
747D
100
AcDbEntity
  8
部品1
 48
50.0
100
AcDbLine
 10
6301.556061207837
 20
2065.458200884643
 30
0.0
 11
6493.556061207837
 21
2065.458200884643
 31
0.0
  0
DIMENSION
  5
2411D
330
747D
100
AcDbEntity
  8
寸法
 48
50.0
100
AcDbDimension
  2
*D49
 10
6301.556061207836
 20
2485.126008801023
 30
0.0
 11
6397.556061207836
 21
2485.126008801023
 31
0.0
 70
   160
  1
120\P200\P280
 71
     5
 42
192.0
  3
INABA_S40G
100
AcDbAlignedDimension
 13
6493.556061207836
 23
2065.458200884643
 33
0.0
 14
6301.556061207836
 24
2065.458200884643
 34
0.0
100
AcDbRotatedDimension
1001
ACAD
1000
DSTYLE
1002
{
1070
   341
1005
0
1002
}
  0
MTEXT
  5
2411E
102
{ACAD_REACTORS
330
24173
102
}
330
747D
100
AcDbEntity
  8
寸法
 62
     7
 48
50.0
100
AcDbMText
 10
6735.294517069087
 20
1104.109115152489
 30
0.0
 40
80.0
 41
0.8
 71
     4
 72
     1
  1
\A1;D10@300
  7
STYLE2
 73
     1
 44
1.0
1001
ACAD
1000
MTEXTBEGIN
1070
    73
1070
     1
1070
    44
1040
1.0
1070
    74
1070
     0
1000
MTEXTEND
  0
LINE
  5
2411F
330
747D
100
AcDbEntity
  8
細線
 48
50.0
100
AcDbLine
 10
6421.556061207842
 20
1715.245715010023
 30
0.0
 11
6493.55606120783
 21
1787.245715010018
 31
0.0
  0
LINE
  5
24120
330
747D
100
AcDbEntity
  8
細線
 48
50.0
100
AcDbLine
 10
6421.556061207837
 20
1742.186483373229
 30
0.0
 11
6493.556061207837
 21
1814.186483373229
 31
0.0
  0
LINE
  5
24121
330
747D
100
AcDbEntity
  8
細線
 48
50.0
100
AcDbLine
 10
6421.556061207842
 20
1472.778799741154
 30
0.0
 11
6493.55606120783
 21
1544.778799741154
 31
0.0
  0
LINE
  5
24122
330
747D
100
AcDbEntity
  8
細線
 48
50.0
100
AcDbLine
 10
6421.556061207842
 20
1526.660336467572
 30
0.0
 11
6493.55606120783
 21
1598.660336467568
 31
0.0
  0
LINE
  5
24123
330
747D
100
AcDbEntity
  8
細線
 48
50.0
100
AcDbLine
 10
6421.556061207842
 20
1499.719568104364
 30
0.0
 11
6493.55606120783
 21
1571.719568104358
 31
0.0
  0
LINE
  5
24124
330
747D
100
AcDbEntity
  8
部品1
 48
50.0
100
AcDbLine
 10
6493.556061207837
 20
1521.458200884643
 30
0.0
 11
6621.556061207837
 21
1521.458200884643
 31
0.0
  0
LINE
  5
24125
330
747D
100
AcDbEntity
  8
細線
 48
50.0
100
AcDbLine
 10
6421.556061207842
 20
1688.304946646814
 30
0.0
 11
6493.55606120783
 21
1760.304946646814
 31
0.0
  0
LINE
  5
24126
330
747D
100
AcDbEntity
  8
部品1
 48
50.0
100
AcDbLine
 10
6389.556061207837
 20
1867.585415581765
 30
0.0
 11
6389.556061207837
 21
1925.712630278888
 31
0.0
  0
LINE
  5
24127
330
747D
100
AcDbEntity
  8
細線
 48
50.0
100
AcDbLine
 10
6301.556061207837
 20
1837.712630278888
 30
0.0
 11
6373.556061207837
 21
1909.712630278888
 31
0.0
  0
LINE
  5
24128
330
747D
100
AcDbEntity
  8
部品1
 48
50.0
100
AcDbLine
 10
6373.556061207837
 20
1867.585415581769
 30
0.0
 11
6373.556061207837
 21
1925.712630278888
 31
0.0
  0
LINE
  5
24129
330
747D
100
AcDbEntity
  8
細線
 48
50.0
100
AcDbLine
 10
6301.556061207837
 20
1810.77186191568
 30
0.0
 11
6373.556061207837
 21
1882.77186191568
 31
0.0
  0
LINE
  5
2412A
330
747D
100
AcDbEntity
  8
細線
 48
50.0
100
AcDbLine
 10
6301.556061207837
 20
1783.831093552473
 30
0.0
 11
6385.310383237131
 21
1867.585415581765
 31
0.0
  0
LINE
  5
2412B
330
747D
100
AcDbEntity
  8
部品1
 48
50.0
100
AcDbLine
 10
6389.556061207837
 20
1867.585415581765
 30
0.0
 11
6373.556061207837
 21
1867.585415581769
 31
0.0
  0
LINE
  5
2412C
330
747D
100
AcDbEntity
  8
細線
 48
50.0
100
AcDbLine
 10
6173.55606120783
 20
1494.186483373229
 30
0.0
 11
6200.827778719251
 21
1521.458200884643
 31
0.0
  0
LINE
  5
2412D
330
747D
100
AcDbEntity
  8
細線
 48
50.0
100
AcDbLine
 10
6173.55606120783
 20
1467.245715010018
 30
0.0
 11
6227.768547082462
 21
1521.458200884643
 31
0.0
  0
LINE
  5
2412E
330
747D
100
AcDbEntity
  8
部品1
 48
50.0
100
AcDbLine
 10
6173.556061207837
 20
1521.458200884643
 30
0.0
 11
6301.556061207837
 21
1521.458200884643
 31
0.0
  0
LINE
  5
2412F
330
747D
100
AcDbEntity
  8
細線
 48
50.0
100
AcDbLine
 10
6389.556061207837
 20
1898.77186191568
 30
0.0
 11
6405.556061207836
 21
1914.77186191568
 31
0.0
  0
LINE
  5
24130
330
747D
100
AcDbEntity
  8
細線
 48
50.0
100
AcDbLine
 10
6389.556061207837
 20
1871.831093552473
 30
0.0
 11
6405.556061207836
 21
1887.831093552473
 31
0.0
  0
LINE
  5
24131
330
747D
100
AcDbEntity
  8
細線
 48
50.0
100
AcDbLine
 10
6301.556061207837
 20
1568.304946646813
 30
0.0
 11
6405.556061207843
 21
1672.304946646814
 31
0.0
  0
LINE
  5
24132
330
747D
100
AcDbEntity
  8
細線
 48
50.0
100
AcDbLine
 10
6301.556061207837
 20
1622.186483373229
 30
0.0
 11
6405.556061207836
 21
1726.186483373229
 31
0.0
  0
LINE
  5
24133
330
747D
100
AcDbEntity
  8
細線
 48
50.0
100
AcDbLine
 10
6301.556061207837
 20
1595.245715010021
 30
0.0
 11
6405.556061207843
 21
1699.245715010023
 31
0.0
  0
LINE
  5
24134
330
747D
100
AcDbEntity
  8
細線
 48
50.0
100
AcDbLine
 10
6564.381706611183
 20
1257.458200884643
 30
0.0
 11
6557.950925992838
 21
1281.458200884643
 31
0.0
  0
LINE
  5
24135
330
747D
100
AcDbEntity
  8
細線
 48
50.0
100
AcDbLine
 10
6607.406219436231
 20
1281.458200884643
 30
0.0
 11
6621.556061207837
 21
1295.608042656249
 31
0.0
  0
LINE
  5
24136
330
747D
100
AcDbEntity
  8
細線
 48
50.0
100
AcDbLine
 10
6643.269751558431
 20
1257.458200884643
 30
0.0
 11
6636.838970940083
 21
1281.458200884643
 31
0.0
  0
LINE
  5
24137
330
747D
100
AcDbEntity
  8
部品1
 48
50.0
100
AcDbLine
 10
6565.556061207837
 20
1393.458200884643
 30
0.0
 11
6565.556061207837
 21
1377.458200884643
 31
0.0
  0
LINE
  5
24138
330
747D
100
AcDbEntity
  8
細線
 48
50.0
100
AcDbLine
 10
6445.761609256985
 20
1281.458200884643
 30
0.0
 11
6541.762497102121
 21
1377.459088729782
 31
0.0
  0
LINE
  5
24139
330
747D
100
AcDbEntity
  8
細線
 48
50.0
100
AcDbLine
 10
6418.820840893781
 20
1281.458200884643
 30
0.0
 11
6514.82084089378
 21
1377.458200884643
 31
0.0
  0
LINE
  5
2413A
330
747D
100
AcDbEntity
  8
細線
 48
50.0
100
AcDbLine
 10
6485.493661663939
 20
1257.458200884643
 30
0.0
 11
6479.062881045592
 21
1281.458200884643
 31
0.0
  0
LINE
  5
2413B
330
747D
100
AcDbEntity
  8
細線
 48
50.0
100
AcDbLine
 10
6406.605616716693
 20
1257.458200884643
 30
0.0
 11
6400.174836098345
 21
1281.458200884643
 31
0.0
  0
ARC
  5
2413C
330
747D
100
AcDbEntity
  8
部品1
 48
50.0
100
AcDbCircle
 10
6397.556061207837
 20
1401.458200884643
 30
0.0
 40
24.0
100
AcDbArc
 50
340.5287793655256
 51
0.0
  0
CIRCLE
  5
2413D
330
747D
100
AcDbEntity
  8
部品1
 48
50.0
100
AcDbCircle
 10
6525.556061207836
 20
1401.458200884643
 30
0.0
 40
8.0
  0
LINE
  5
2413E
330
747D
100
AcDbEntity
  8
細線
 48
50.0
100
AcDbLine
 10
6557.761609256984
 20
1393.458200884643
 30
0.0
 11
6621.556061207837
 21
1457.252652835494
 31
0.0
  0
LINE
  5
2413F
330
747D
100
AcDbEntity
  8
細線
 48
50.0
100
AcDbLine
 10
6694.29108049284
 20
1153.458200884641
 30
0.0
 11
6701.556061207837
 21
1180.571478029031
 31
0.0
  0
LINE
  5
24140
330
747D
100
AcDbEntity
  8
細線
 48
50.0
100
AcDbLine
 10
6700.72186111119
 20
1177.458200884643
 30
0.0
 11
6701.556061207837
 21
1174.344923740278
 31
0.0
  0
LINE
  5
24141
330
747D
100
AcDbEntity
  8
細線
 48
50.0
100
AcDbLine
 10
6621.833816163942
 20
1177.458200884643
 30
0.0
 11
6628.26459678229
 21
1153.458200884643
 31
0.0
  0
LINE
  5
24142
330
747D
100
AcDbEntity
  8
細線
 48
50.0
100
AcDbLine
 10
6464.057726269449
 20
1177.458200884643
 30
0.0
 11
6470.488506887796
 21
1153.458200884643
 31
0.0
  0
LINE
  5
24143
330
747D
100
AcDbEntity
  8
細線
 48
50.0
100
AcDbLine
 10
6542.945771216695
 20
1177.458200884643
 30
0.0
 11
6549.376551835043
 21
1153.458200884643
 31
0.0
  0
LINE
  5
24144
330
747D
100
AcDbEntity
  8
細線
 48
50.0
100
AcDbLine
 10
6536.514990598345
 20
1153.458200884641
 30
0.0
 11
6570.81248722953
 21
1281.458200884641
 31
0.0
  0
LINE
  5
24145
330
747D
100
AcDbEntity
  8
細線
 48
50.0
100
AcDbLine
 10
6457.626945651097
 20
1153.458200884643
 30
0.0
 11
6491.924442282282
 21
1281.458200884641
 31
0.0
  0
LINE
  5
24146
330
747D
100
AcDbEntity
  8
細線
 48
50.0
100
AcDbLine
 10
6615.40303554559
 20
1153.458200884643
 30
0.0
 11
6649.700532176776
 21
1281.458200884641
 31
0.0
  0
LINE
  5
24147
330
747D
100
AcDbEntity
  8
部品1
 48
50.0
100
AcDbLine
 10
6701.55606120784
 20
1281.458200884643
 30
0.0
 11
6701.55606120784
 21
1153.458200884643
 31
0.0
  0
LINE
  5
24148
330
747D
100
AcDbEntity
  8
部品1
 48
50.0
100
AcDbLine
 10
6389.556061207837
 20
1459.585415581765
 30
0.0
 11
6389.556061207837
 21
1401.458200884643
 31
0.0
  0
LINE
  5
24149
330
747D
100
AcDbEntity
  8
細線
 48
50.0
100
AcDbLine
 10
6315.29469398812
 20
1393.458200884643
 30
0.0
 11
6373.556061207837
 21
1451.719568104361
 31
0.0
  0
LINE
  5
2414A
330
747D
100
AcDbEntity
  8
部品1
 48
50.0
100
AcDbLine
 10
6373.556061207837
 20
1459.585415581765
 30
0.0
 11
6373.556061207837
 21
1401.458200884643
 31
0.0
  0
LINE
  5
2414B
330
747D
100
AcDbEntity
  8
細線
 48
50.0
100
AcDbLine
 10
6230.235462351326
 20
1281.458200884643
 30
0.0
 11
6326.235462351326
 21
1377.458200884643
 31
0.0
  0
LINE
  5
2414C
330
747D
100
AcDbEntity
  8
細線
 48
50.0
100
AcDbLine
 10
6327.717571769441
 20
1257.458200884643
 30
0.0
 11
6321.286791151095
 21
1281.458200884643
 31
0.0
  0
LINE
  5
2414D
330
747D
100
AcDbEntity
  8
細線
 48
50.0
100
AcDbLine
 10
6248.829526822188
 20
1257.458200884643
 30
0.0
 11
6242.398746203843
 21
1281.458200884643
 31
0.0
  0
ARC
  5
2414E
330
747D
100
AcDbEntity
  8
部品1
 48
50.0
100
AcDbCircle
 10
6397.556061207837
 20
1401.458200884643
 30
0.0
 40
24.0
100
AcDbArc
 50
180.0
 51
199.4712206344743
  0
LINE
  5
2414F
330
747D
100
AcDbEntity
  8
細線
 48
50.0
100
AcDbLine
 10
6342.235462351325
 20
1393.458200884643
 30
0.0
 11
6373.556061207837
 21
1424.778799741154
 31
0.0
  0
CIRCLE
  5
24150
330
747D
100
AcDbEntity
  8
部品1
 48
50.0
100
AcDbCircle
 10
6269.556061207837
 20
1401.458200884643
 30
0.0
 40
8.0
  0
LINE
  5
24151
330
747D
100
AcDbEntity
  8
部品1
 48
50.0
100
AcDbLine
 10
6389.556061207837
 20
1459.585415581765
 30
0.0
 11
6373.556061207837
 21
1459.585415581765
 31
0.0
  0
LINE
  5
24152
330
747D
100
AcDbEntity
  8
細線
 48
50.0
100
AcDbLine
 10
6093.556061207837
 20
1266.798121850423
 30
0.0
 11
6097.484217546032
 21
1281.458200884643
 31
0.0
  0
LINE
  5
24153
330
747D
100
AcDbEntity
  8
細線
 48
50.0
100
AcDbLine
 10
6169.941481874937
 20
1257.458200884643
 30
0.0
 11
6163.51070125659
 21
1281.458200884643
 31
0.0
  0
LINE
  5
24154
330
747D
100
AcDbEntity
  8
部品1
 48
50.0
100
AcDbLine
 10
6229.556061207837
 20
1393.458200884643
 30
0.0
 11
6229.556061207837
 21
1377.458200884643
 31
0.0
  0
LINE
  5
24155
330
747D
100
AcDbEntity
  8
細線
 48
50.0
100
AcDbLine
 10
6176.353925624909
 20
1281.458200884643
 30
0.0
 11
6272.353925624909
 21
1377.458200884643
 31
0.0
  0
LINE
  5
24156
330
747D
100
AcDbEntity
  8
細線
 48
50.0
100
AcDbLine
 10
6203.29469398812
 20
1281.458200884643
 30
0.0
 11
6299.29469398812
 21
1377.458200884643
 31
0.0
  0
LINE
  5
24157
330
747D
100
AcDbEntity
  8
細線
 48
50.0
100
AcDbLine
 10
6306.281636374952
 20
1177.458200884643
 30
0.0
 11
6312.712416993297
 21
1153.458200884643
 31
0.0
  0
LINE
  5
24158
330
747D
100
AcDbEntity
  8
細線
 48
50.0
100
AcDbLine
 10
6385.169681322204
 20
1177.458200884643
 30
0.0
 11
6391.600461940551
 21
1153.458200884643
 31
0.0
  0
LINE
  5
24159
330
747D
100
AcDbEntity
  8
細線
 48
50.0
100
AcDbLine
 10
6148.505546480448
 20
1177.458200884643
 30
0.0
 11
6154.936327098795
 21
1153.458200884643
 31
0.0
  0
LINE
  5
2415A
330
747D
100
AcDbEntity
  8
細線
 48
50.0
100
AcDbLine
 10
6227.393591427698
 20
1177.458200884643
 30
0.0
 11
6233.824372046047
 21
1153.458200884643
 31
0.0
  0
LINE
  5
2415B
330
747D
100
AcDbEntity
  8
部品1
 48
50.0
100
AcDbLine
 10
6093.556061207839
 20
1153.458200884643
 30
0.0
 11
6093.556061207839
 21
1281.458200884643
 31
0.0
  0
LINE
  5
2415C
330
747D
100
AcDbEntity
  8
細線
 48
50.0
100
AcDbLine
 10
6142.074765862094
 20
1153.458200884641
 30
0.0
 11
6176.372262493278
 21
1281.458200884641
 31
0.0
  0
LINE
  5
2415D
330
747D
100
AcDbEntity
  8
細線
 48
50.0
100
AcDbLine
 10
6299.850855756599
 20
1153.458200884641
 30
0.0
 11
6334.148352387781
 21
1281.458200884641
 31
0.0
  0
LINE
  5
2415E
330
747D
100
AcDbEntity
  8
細線
 48
50.0
100
AcDbLine
 10
6220.962810809353
 20
1153.458200884643
 30
0.0
 11
6255.260307440536
 21
1281.458200884643
 31
0.0
  0
LINE
  5
2415F
330
747D
100
AcDbEntity
  8
細線
 48
50.0
100
AcDbLine
 10
6391.88007253057
 20
1281.458200884643
 30
0.0
 11
6487.880072530569
 21
1377.458200884643
 31
0.0
  0
CIRCLE
  5
24160
330
747D
100
AcDbEntity
  8
部品1
 48
50.0
100
AcDbCircle
 10
6397.556061207837
 20
1401.458200884643
 30
0.0
 40
8.0
  0
LINE
  5
24161
330
747D
100
AcDbEntity
  8
部品1
 48
50.0
100
AcDbLine
 10
6701.55606120784
 20
1281.458200884643
 30
0.0
 11
6093.556061207839
 21
1281.458200884643
 31
0.0
  0
LINE
  5
24162
330
747D
100
AcDbEntity
  8
部品1
 48
50.0
100
AcDbLine
 10
6229.556061207837
 20
1393.458200884643
 30
0.0
 11
6565.556061207837
 21
1393.458200884643
 31
0.0
  0
LINE
  5
24163
330
747D
100
AcDbEntity
  8
部品1
 48
50.0
100
AcDbLine
 10
6229.556061207837
 20
1377.458200884643
 30
0.0
 11
6565.556061207837
 21
1377.458200884643
 31
0.0
  0
LINE
  5
24164
330
747D
100
AcDbEntity
  8
部品1
 48
50.0
100
AcDbLine
 10
6701.55606120784
 20
1153.458200884643
 30
0.0
 11
6093.556061207839
 21
1153.458200884643
 31
0.0
  0
LINE
  5
24165
330
747D
100
AcDbEntity
  8
細線
 48
50.0
100
AcDbLine
 10
6378.738900703851
 20
1153.458200884643
 30
0.0
 11
6413.036397335034
 21
1281.458200884643
 31
0.0
  0
LINE
  5
24166
330
747D
100
AcDbEntity
  8
細線
 48
50.0
100
AcDbLine
 10
6389.556061207837
 20
1440.778799741154
 30
0.0
 11
6405.556061207843
 21
1456.778799741154
 31
0.0
  0
LINE
  5
24167
330
747D
100
AcDbEntity
  8
部品1
 48
50.0
100
AcDbLine
 10
6405.556061207843
 20
1401.458200884643
 30
0.0
 11
6405.556061207829
 21
1925.712630278888
 31
0.0
  0
LINE
  5
24168
330
747D
100
AcDbEntity
  8
部品1
 48
50.0
100
AcDbLine
 10
6421.556061207842
 20
1401.458200884643
 30
0.0
 11
6421.556061207837
 21
1925.712630278888
 31
0.0
  0
LINE
  5
24169
330
747D
100
AcDbEntity
  8
部品1
 48
50.0
100
AcDbLine
 10
6621.556061207837
 20
1521.458200884643
 30
0.0
 11
6621.556061207837
 21
1281.458200884643
 31
0.0
  0
LINE
  5
2416A
330
747D
100
AcDbEntity
  8
細線
 48
50.0
100
AcDbLine
 10
6503.880072530565
 20
1393.458200884643
 30
0.0
 11
6621.556061207837
 21
1511.134189561909
 31
0.0
  0
LINE
  5
2416B
330
747D
100
AcDbEntity
  8
細線
 48
50.0
100
AcDbLine
 10
6530.820840893781
 20
1393.458200884643
 30
0.0
 11
6621.556061207837
 21
1484.193421198702
 31
0.0
  0
LINE
  5
2416C
330
747D
100
AcDbEntity
  8
部品1
 48
50.0
100
AcDbLine
 10
6173.556061207837
 20
1281.458200884643
 30
0.0
 11
6173.556061207837
 21
1521.458200884643
 31
0.0
  0
LINE
  5
2416D
330
747D
100
AcDbEntity
  8
細線
 48
50.0
100
AcDbLine
 10
6288.35392562491
 20
1393.458200884643
 30
0.0
 11
6405.556061207836
 21
1510.660336467568
 31
0.0
  0
LINE
  5
2416E
330
747D
100
AcDbEntity
  8
細線
 48
50.0
100
AcDbLine
 10
6381.421908685241
 20
1459.585415581765
 30
0.0
 11
6405.556061207843
 21
1483.719568104364
 31
0.0
  0
LINE
  5
2416F
330
747D
100
AcDbEntity
  8
細線
 48
50.0
100
AcDbLine
 10
6173.55606120783
 20
1440.304946646814
 30
0.0
 11
6254.709315445666
 21
1521.458200884643
 31
0.0
  0
LEADER
  5
24170
330
747D
100
AcDbEntity
  8
寸法
 48
50.0
100
AcDbLeader
  3
INABA_S50G
 71
     0
 73
     0
 74
     0
 75
     1
 40
100.0
 41
222.7272727272727
 76
     3
 10
6397.556061207836
 20
1925.712630278888
 30
0.0
 10
6451.441998235231
 20
2024.948203132062
 30
0.0
 10
6576.441998235231
 20
2024.948203132062
 30
0.0
1001
ACAD
1000
DSTYLE
1002
{
1070
    40
1040
1.0
1070
   272
1070
     1
1070
   279
1070
     1
1070
   341
1005
0
1002
}
  0
LWPOLYLINE
  5
24171
330
747D
100
AcDbEntity
  8
部品1
 48
50.0
100
AcDbPolyline
 90
        2
 70
     0
 43
8.0
 10
6493.556061207836
 20
1825.458200884644
 10
6907.695963040794
 20
1825.458200884644
  0
MTEXT
  5
24172
102
{ACAD_REACTORS
330
24174
102
}
330
747D
100
AcDbEntity
  8
寸法
 62
     7
 48
50.0
100
AcDbMText
 10
6724.883721014521
 20
1366.06113194167
 30
0.0
 40
80.0
 41
0.8
 71
     4
 72
     1
  1
D10
  7
STYLE2
 73
     1
 44
1.0
1001
ACAD
1000
MTEXTBEGIN
1070
    73
1070
     1
1070
    44
1040
1.0
1070
    74
1070
     0
1000
MTEXTEND
  0
LEADER
  5
24173
330
747D
100
AcDbEntity
  8
寸法
 48
50.0
100
AcDbLeader
  3
INABA_S50G
 71
     0
 73
     0
 74
     0
 75
     1
 40
100.0
 41
540.3409090909091
 76
     3
 10
6471.501230221011
 20
1384.717670471117
 30
0.0
 10
6590.294517069087
 20
1043.08685247622
 30
0.0
 10
6715.294517069087
 20
1043.08685247622
 30
0.0
213
0.0
223
-1.022262676269383
233
0.0
1001
ACAD
1000
DSTYLE
1002
{
1070
    40
1040
1.0
1070
   272
1070
     1
1070
   279
1070
     1
1070
   341
1005
0
1002
}
  0
LEADER
  5
24174
330
747D
100
AcDbEntity
  8
寸法
 48
50.0
100
AcDbLeader
  3
INABA_S50G
 71
     0
 73
     0
 74
     0
 75
     1
 40
100.0
 41
225.0
 76
     3
 10
6525.45901355998
 20
1401.458200884643
 30
0.0
 10
6579.883721014521
 20
1306.06113194167
 30
0.0
 10
6704.883721014521
 20
1306.06113194167
 30
0.0
1001
ACAD
1000
DSTYLE
1002
{
1070
    40
1040
1.0
1070
   272
1070
     1
1070
   279
1070
     1
1070
   341
1005
0
1002
}
  0
MTEXT
  5
24175
102
{ACAD_REACTORS
330
24170
102
}
330
747D
100
AcDbEntity
  8
寸法
 62
     7
 48
50.0
100
AcDbMText
 10
6576.441998235231
 20
2088.014100177454
 30
0.0
 40
80.0
 41
0.8
 71
     4
 72
     1
  1
D13
  7
STYLE2
 73
     1
 44
1.0
1001
ACAD
1000
MTEXTBEGIN
1070
    73
1070
     1
1070
    44
1040
1.0
1070
    74
1070
     0
1000
MTEXTEND
  0
LINE
  5
24176
330
747D
100
AcDbEntity
  8
部品1
 48
50.0
100
AcDbLine
 10
6493.556061207837
 20
2065.458200884643
 30
0.0
 11
6493.556061207837
 21
1521.458200884643
 31
0.0
  0
LINE
  5
24177
330
747D
100
AcDbEntity
  8
部品1
 48
50.0
100
AcDbLine
 10
6301.556061207837
 20
1521.458200884643
 30
0.0
 11
6301.556061207837
 21
2065.458200884643
 31
0.0
  0
CIRCLE
  5
24178
330
747D
100
AcDbEntity
  8
部品1
 48
50.0
100
AcDbCircle
 10
6397.556061207837
 20
1925.712630278888
 30
0.0
 40
8.0
  0
ARC
  5
24179
330
747D
100
AcDbEntity
  8
部品1
 48
50.0
100
AcDbCircle
 10
6397.556061207837
 20
1925.712630278888
 30
0.0
 40
24.0
100
AcDbArc
 50
0.0
 51
180.0
  0
LINE
  5
2417A
330
747D
100
AcDbEntity
  8
細線
 48
50.0
100
AcDbLine
 10
6421.556061207837
 20
1903.831093552473
 30
0.0
 11
6493.556061207837
 21
1975.831093552473
 31
0.0
  0
LEADER
  5
2417B
330
747D
100
AcDbEntity
  8
寸法
 48
50.0
100
AcDbLeader
  3
INABA_S50G
 73
     0
 75
     1
 40
106.3636363636363
 41
893.1818181818181
 76
     3
 10
8132.99537438503
 20
2135.018200884644
 30
0.0
 10
8084.571302040091
 20
2509.077775600976
 30
0.0
 10
7959.571302040091
 20
2509.077775600976
 30
0.0
340
2417C
1001
ACAD
1000
DSTYLE
1002
{
1070
   341
1005
0
1070
    40
1040
1.0
1070
   343
1005
0
1070
   344
1005
0
1002
}
  0
MTEXT
  5
2417C
102
{ACAD_REACTORS
330
2417B
102
}
330
747D
100
AcDbEntity
  8
寸法
 62
     7
 48
50.0
100
AcDbMText
 10
7934.57130204009
 20
2587.259593782795
 30
0.0
 40
80.0
 41
0.8
 71
     6
 72
     1
  1
\A1;アンカープレート L
  7
STYLE2
 73
     1
 44
1.0
1001
ACAD
1000
MTEXTBEGIN
1070
    73
1070
     1
1070
    44
1040
1.0
1070
    74
1070
     0
1000
MTEXTEND
  0
DIMENSION
  5
2417D
330
747D
100
AcDbEntity
  8
寸法
 48
50.0
100
AcDbDimension
  2
*D50
 10
6621.556061207837
 20
743.0285628794827
 30
0.0
 11
6377.459302529612
 21
743.0285628794827
 31
0.0
 70
   160
  1
300
 71
     5
 42
448.0
  3
INABA_S40G
100
AcDbAlignedDimension
 13
6173.556061207836
 23
1153.458200884643
 33
0.0
 14
6621.556061207837
 24
1153.458200884643
 34
0.0
100
AcDbRotatedDimension
1001
ACAD
1000
DSTYLE
1002
{
1070
   341
1005
0
1002
}
  0
MTEXT
  5
2417E
102
{ACAD_REACTORS
330
24186
102
}
330
747D
100
AcDbEntity
  8
寸法
 62
     7
 48
50.0
100
AcDbMText
 10
6002.621035012642
 20
1197.935507266206
 30
0.0
 40
80.0
 41
0.8
 71
     6
 72
     1
  1
D10
  7
STYLE2
 73
     1
 44
1.0
1001
ACAD
1000
MTEXTBEGIN
1070
    73
1070
     1
1070
    44
1040
1.0
1070
    74
1070
     0
1000
MTEXTEND
  0
MTEXT
  5
2417F
102
{ACAD_REACTORS
330
24185
102
}
330
747D
100
AcDbEntity
  8
寸法
 62
     7
 48
50.0
100
AcDbMText
 10
6030.743762570077
 20
1017.619354726763
 30
0.0
 40
80.0
 41
0.8
 71
     6
 72
     1
  1
D13
  7
STYLE2
 73
     1
 44
1.0
1001
ACAD
1000
MTEXTBEGIN
1070
    73
1070
     1
1070
    44
1040
1.0
1070
    74
1070
     0
1000
MTEXTEND
  0
DIMENSION
  5
24180
330
747D
100
AcDbEntity
  8
寸法
 48
50.0
100
AcDbDimension
  2
*D51
 10
5566.518822646096
 20
1281.458200884643
 30
0.0
 11
5566.518822646096
 21
1652.998350540643
 31
0.0
 70
   160
  1
540
 71
     5
 42
784.0
  3
INABA_S40G
100
AcDbAlignedDimension
 13
6301.556061207836
 23
2065.458200884643
 33
0.0
 14
6093.55606120784
 24
1281.458200884643
 34
0.0
 50
90.0
100
AcDbRotatedDimension
1001
ACAD
1000
DSTYLE
1002
{
1070
   341
1005
0
1002
}
  0
MTEXT
  5
24181
102
{ACAD_REACTORS
330
24182
102
}
330
747D
100
AcDbEntity
  8
寸法
 62
     7
 48
50.0
100
AcDbMText
 10
6081.457581724563
 20
2277.974420886685
 30
0.0
 40
80.0
 41
0.8
 71
     6
 72
     1
  1
\A1;金コテ押エ
  7
STYLE2
 73
     1
 44
1.0
1001
ACAD
1000
MTEXTBEGIN
1070
    73
1070
     1
1070
    44
1040
1.0
1070
    74
1070
     0
1000
MTEXTEND
  0
LEADER
  5
24182
330
747D
100
AcDbEntity
  8
寸法
 48
50.0
100
AcDbLeader
  3
INABA_S50G
 71
     0
 73
     0
 75
     1
 40
130.1136363636363
 41
651.1363636363636
 76
     3
 10
6381.556061207836
 20
2065.458200884643
 30
0.0
 10
6269.13148104382
 20
2205.928966341231
 30
0.0
 10
6144.13148104382
 20
2205.928966341231
 30
0.0
1001
ACAD
1000
DSTYLE
1002
{
1070
    40
1040
1.0
1070
   272
1070
     1
1070
   279
1070
     1
1070
   341
1005
0
1002
}
  0
LEADER
  5
24183
330
747D
100
AcDbEntity
  8
寸法
 48
50.0
100
AcDbLeader
  3
INABA_S50G
 71
     0
 73
     0
 75
     1
 40
100.0
 41
540.3409090909091
 76
     3
 10
6405.556061207836
 20
1823.585415581766
 30
0.0
 10
6347.573824679137
 20
1602.115087040961
 30
0.0
 10
6222.573824679137
 20
1602.115087040961
 30
0.0
213
-9.732182305893367
223
-4.643716661138569
233
0.0
1001
ACAD
1000
DSTYLE
1002
{
1070
    40
1040
1.0
1070
   272
1070
     1
1070
   279
1070
     1
1070
   341
1005
0
1002
}
  0
MTEXT
  5
24184
102
{ACAD_REACTORS
330
24183
102
}
330
747D
100
AcDbEntity
  8
寸法
 62
     7
 48
50.0
100
AcDbMText
 10
6212.306006985031
 20
1666.7588037021
 30
0.0
 40
80.0
 41
0.8
 71
     6
 72
     1
  1
\A1;D10@300
  7
STYLE2
 73
     1
 44
1.0
1001
ACAD
1000
MTEXTBEGIN
1070
    73
1070
     1
1070
    44
1040
1.0
1070
    74
1070
     0
1000
MTEXTEND
  0
LEADER
  5
24185
330
747D
100
AcDbEntity
  8
寸法
 48
50.0
100
AcDbLeader
  3
INABA_S50G
 71
     0
 73
     0
 75
     1
 40
100.0
 41
222.7272727272727
 76
     3
 10
6397.556061207836
 20
1401.458200884643
 30
0.0
 10
6175.743762570077
 20
957.619354726763
 30
0.0
 10
6050.743762570077
 20
957.619354726763
 30
0.0
1001
ACAD
1000
DSTYLE
1002
{
1070
    40
1040
1.0
1070
   272
1070
     1
1070
   279
1070
     1
1070
   341
1005
0
1002
}
  0
LEADER
  5
24186
330
747D
100
AcDbEntity
  8
寸法
 48
50.0
100
AcDbLeader
  3
INABA_S50G
 71
     0
 73
     0
 75
     1
 40
100.0
 41
225.0
 76
     3
 10
6269.45901355998
 20
1401.458200884643
 30
0.0
 10
6147.621035012642
 20
1137.935507266206
 30
0.0
 10
6022.621035012642
 20
1137.935507266206
 30
0.0
1001
ACAD
1000
DSTYLE
1002
{
1070
    40
1040
1.0
1070
   272
1070
     1
1070
   279
1070
     1
1070
   341
1005
0
1002
}
  0
DIMENSION
  5
24187
330
747D
100
AcDbEntity
  8
寸法
 48
50.0
100
AcDbDimension
  2
*D52
 10
6031.135747475377
 20
1281.458200884643
 30
0.0
 11
6031.135747475377
 21
1401.458200884644
 31
0.0
 70
   160
  1
150
 71
     5
 42
240.0
  3
INABA_S40G
100
AcDbAlignedDimension
 13
6173.556061207836
 23
1521.458200884643
 33
0.0
 14
6093.55606120784
 24
1281.458200884643
 34
0.0
 50
90.0
100
AcDbRotatedDimension
1001
ACAD
1000
DSTYLE
1002
{
1070
   341
1005
0
1002
}
  0
TEXT
  5
24188
330
747D
100
AcDbEntity
  8
部品1
 48
50.0
100
AcDbText
 10
5887.416159374879
 20
1836.697193167898
 30
0.0
 40
80.0
  1
▽G.L
  7
STYLE2
100
AcDbText
  0
LWPOLYLINE
  5
24189
330
747D
100
AcDbEntity
  8
部品1
 48
50.0
100
AcDbPolyline
 90
        2
 70
     0
 43
8.0
 10
5887.416159374879
 20
1825.458200884644
 10
6301.556061207836
 20
1825.458200884644
  0
MTEXT
  5
2418A
102
{ACAD_REACTORS
330
2418B
102
}
330
747D
100
AcDbEntity
  8
寸法
 62
     7
 48
50.0
100
AcDbMText
 10
7907.928295831732
 20
2947.943865690309
 30
0.0
 40
80.0
 41
0.8
 71
     6
 72
     1
  1
\A1;φ70スリーブ
  7
STYLE2
 73
     1
 44
1.0
1001
ACAD
1000
MTEXTBEGIN
1070
    73
1070
     1
1070
    44
1040
1.0
1070
    74
1070
     0
1000
MTEXTEND
  0
LEADER
  5
2418B
330
747D
100
AcDbEntity
  8
寸法
 48
50.0
100
AcDbLeader
  3
INABA_S50G
 73
     0
 75
     1
 40
113.1818181818182
 41
608.6363636363635
 76
     3
 10
8191.732124523081
 20
2014.973874242922
 30
0.0
 10
8057.928295831732
 20
2866.3529565994
 30
0.0
 10
7932.928295831732
 20
2866.3529565994
 30
0.0
340
2418A
1001
ACAD
1000
DSTYLE
1002
{
1070
   341
1005
0
1070
    40
1040
1.0
1070
   343
1005
0
1070
   344
1005
0
1002
}
  0
LINE
  5
2418C
330
747D
100
AcDbEntity
  8
部品1
100
AcDbLine
 10
5230.887622398573
 20
3464.796868085228
 30
0.0
 11
5230.887622398576
 21
500.4898985005811
 31
0.0
  0
LEADER
  5
2418D
330
747D
100
AcDbEntity
  8
寸法
 48
50.0
100
AcDbLeader
  3
INABA_S50G
 73
     0
 74
     0
 75
     1
 40
80.0
 41
435.0
 76
     3
 10
8231.99537438503
 20
2114.618200884644
 30
0.0
 10
8274.539836804349
 20
2264.841527037873
 30
0.0
 10
8399.539836804349
 20
2264.841527037873
 30
0.0
340
2418E
1001
ACAD
1000
DSTYLE
1002
{
1070
   341
1005
0
1070
    40
1040
1.0
1070
   343
1005
0
1070
   344
1005
0
1002
}
  0
MTEXT
  5
2418E
102
{ACAD_REACTORS
330
2418D
102
}
330
747D
100
AcDbEntity
  8
部品1
 62
     7
 48
50.0
100
AcDbMText
 10
8424.539836804349
 20
2329.841527037873
 30
0.0
 40
80.0
 41
0.8
 71
     4
 72
     1
  1
M10X160
  7
STYLE2
 73
     1
 44
1.0
1001
ACAD
1000
MTEXTBEGIN
1070
    73
1070
     1
1070
    44
1040
1.0
1070
    74
1070
     0
1000
MTEXTEND
  0
DIMENSION
  5
2418F
330
747D
100
AcDbEntity
  8
寸法
 48
50.0
100
AcDbDimension
  2
*D53
 10
9193.518640272902
 20
2065.458200884643
 30
0.0
 11
9193.518640272902
 21
1599.44929746316
 31
0.0
 70
   160
  1
20～25
 71
     5
 42
52.76000000000113
  3
INABA_S40G
100
AcDbAlignedDimension
 13
8228.39537438503
 23
2118.218200884644
 33
0.0
 14
8415.595374385031
 24
2065.458200884643
 34
0.0
 50
90.0
100
AcDbRotatedDimension
1001
ACAD
1000
DSTYLE
1002
{
1070
   341
1005
0
1002
}
  0
DIMENSION
  5
24190
330
747D
100
AcDbEntity
  8
寸法
 48
50.0
100
AcDbDimension
  2
*D54
 10
8917.463974153873
 20
1741.458200884641
 30
0.0
 11
8817.463974153874
 21
1903.458200884644
 31
0.0
 70
    32
  1
180
 71
     5
 42
324.0000000000009
  3
INABA_S40G
100
AcDbAlignedDimension
 13
8415.595374385031
 23
2065.458200884643
 33
0.0
 14
8415.595374385031
 24
1741.458200884642
 34
0.0
 50
90.0
100
AcDbRotatedDimension
1001
ACAD
1000
DSTYLE
1002
{
1070
   341
1005
0
1002
}
  0
TEXT
  5
24191
330
747D
100
AcDbEntity
  8
部品1
 48
50.0
100
AcDbText
 10
8419.948958669458
 20
2421.336881646843
 30
0.0
 40
80.0
  1
基礎ボルト(市販品)
  7
STYLE2
100
AcDbText
  0
LWPOLYLINE
  5
24192
330
747D
100
AcDbEntity
  8
部品1
 48
50.0
100
AcDbPolyline
 90
        2
 70
     0
 43
8.0
 10
8415.595374385031
 20
1825.458200884644
 10
8709.297837784413
 20
1825.458200884644
  0
MTEXT
  5
24193
102
{ACAD_REACTORS
330
24194
102
}
330
747D
100
AcDbEntity
  8
部品1
 62
     7
 48
50.0
100
AcDbMText
 10
8454.86696475387
 20
2765.953573971903
 30
0.0
 40
80.0
 41
0.8
 71
     4
 72
     1
  1
\A1;ワッシャー(市販品)
  7
STYLE2
 73
     1
 44
1.0
1001
ACAD
1000
MTEXTBEGIN
1070
    73
1070
     1
1070
    44
1040
1.0
1070
    74
1070
     0
1000
MTEXTEND
  0
LEADER
  5
24194
330
747D
100
AcDbEntity
  8
寸法
 48
50.0
100
AcDbLeader
  3
INABA_S50G
 73
     0
 74
     0
 75
     1
 40
102.2727272727273
 41
906.8181818181818
 76
     3
 10
8262.995374385031
 20
2334.581489328923
 30
0.0
 10
8304.86696475387
 20
2689.817210335539
 30
0.0
 10
8429.86696475387
 20
2689.817210335539
 30
0.0
340
24193
1001
ACAD
1000
DSTYLE
1002
{
1070
   341
1005
0
1070
    40
1040
1.0
1070
   343
1005
0
1070
   344
1005
0
1002
}
  0
MTEXT
  5
24195
102
{ACAD_REACTORS
330
24196
102
}
330
747D
100
AcDbEntity
  8
部品1
 62
     7
 48
50.0
100
AcDbMText
 10
8423.349345498387
 20
2950.922656736691
 30
0.0
 40
80.0
 41
0.8
 71
     4
 72
     1
  1
\A1;ナット(市販品)
  7
STYLE2
 73
     1
 44
1.0
1001
ACAD
1000
MTEXTBEGIN
1070
    73
1070
     1
1070
    44
1040
1.0
1070
    74
1070
     0
1000
MTEXTEND
  0
LEADER
  5
24196
330
747D
100
AcDbEntity
  8
寸法
 48
50.0
100
AcDbLeader
  3
INABA_S50G
 73
     0
 74
     0
 75
     1
 40
102.2727272727273
 41
680.0000000000001
 76
     3
 10
8238.995374385032
 20
2464.333481993786
 30
0.0
 10
8273.349345498386
 20
2874.786293100326
 30
0.0
 10
8398.349345498386
 20
2874.786293100326
 30
0.0
340
24195
1001
ACAD
1000
DSTYLE
1002
{
1070
   341
1005
0
1070
    40
1040
1.0
1070
   343
1005
0
1070
   344
1005
0
1002
}
  0
LINE
  5
24197
330
747D
100
AcDbEntity
  8
部品1
100
AcDbLine
 10
5230.887622398577
 20
500.4898985005811
 30
0.0
 11
11301.87280778482
 21
500.4898985005811
 31
0.0
  0
LINE
  5
24198
330
747D
100
AcDbEntity
  8
部品1
100
AcDbLine
 10
11301.87280778482
 20
3224.796868085227
 30
0.0
 11
5230.887622398576
 21
3224.796868085227
 31
0.0
  0
LINE
  5
24199
330
747D
100
AcDbEntity
  8
部品1
100
AcDbLine
 10
11301.87280778482
 20
3464.796868085228
 30
0.0
 11
5230.887622398572
 21
3464.796868085228
 31
0.0
  0
ENDSEC
  0
SECTION
  2
OBJECTS
  0
DICTIONARY
  5
7471
330
0
100
AcDbDictionary
281
     1
  3
ACAD_COLOR
350
173D2
  3
ACAD_GROUP
350
7472
  3
ACAD_LAYOUT
350
173D3
  3
ACAD_MATERIAL
350
173D1
  3
ACAD_MLINESTYLE
350
7473
  3
ACAD_PLOTSETTINGS
350
173D4
  3
ACAD_PLOTSTYLENAME
350
173CF
  3
ACDBHEADERROUNDTRIPXREC
350
24227
  3
AcDbVariableDictionary
350
23E5F
  3
CONTENTDICTIONARY
350
E71C
  3
DRAWINGVARIABLESDICT
350
F3B9
  0
DICTIONARY
  5
1758F
330
7467
100
AcDbDictionary
280
     1
281
     1
  3
ACAD_LAYERSTATES
360
17590
  0
DICTIONARY
  5
173D2
102
{ACAD_REACTORS
330
7471
102
}
330
7471
100
AcDbDictionary
281
     1
  0
DICTIONARY
  5
7472
102
{ACAD_REACTORS
330
7471
102
}
330
7471
100
AcDbDictionary
281
     1
  3
*A1
350
1D2A9
  0
DICTIONARY
  5
173D3
102
{ACAD_REACTORS
330
7471
102
}
330
7471
100
AcDbDictionary
281
     1
  3
Model
350
173D5
  3
レイアウト1
350
173D6
  0
DICTIONARY
  5
173D1
102
{ACAD_REACTORS
330
7471
102
}
330
7471
100
AcDbDictionary
281
     1
  0
DICTIONARY
  5
7473
102
{ACAD_REACTORS
330
7471
102
}
330
7471
100
AcDbDictionary
281
     1
  3
STANDARD
350
7480
  0
DICTIONARY
  5
173D4
102
{ACAD_REACTORS
330
7471
102
}
330
7471
100
AcDbDictionary
281
     1
  0
ACDBDICTIONARYWDFLT
  5
173CF
102
{ACAD_REACTORS
330
7471
102
}
330
7471
100
AcDbDictionary
281
     1
  3
Normal
350
173D0
100
AcDbDictionaryWithDefault
340
173D0
  0
DICTIONARY
  5
24227
102
{ACAD_REACTORS
330
7471
102
}
330
7471
100
AcDbDictionary
281
     1
  3
COLORDICT
350
24229
  3
MATERIALDICT
350
24228
  0
DICTIONARY
  5
23E5F
102
{ACAD_REACTORS
330
7471
102
}
330
7471
100
AcDbDictionary
281
     1
  3
DIMASSOC
350
23E60
  3
PROJECTNAME
350
23E61
  0
DICTIONARY
  5
E71C
102
{ACAD_REACTORS
330
7471
102
}
330
7471
100
AcDbDictionary
281
     1
  0
DICTIONARY
  5
F3B9
102
{ACAD_REACTORS
330
7471
102
}
330
7471
100
AcDbDictionary
281
     1
1001
DRAWINGVARIABLESXDATA
1000
POLARMODE
1000
1
  0
DICTIONARY
  5
17590
102
{ACAD_REACTORS
330
1758F
102
}
330
1758F
100
AcDbDictionary
281
     1
  0
GROUP
  5
1D2A9
102
{ACAD_REACTORS
330
7472
102
}
330
7472
100
AcDbGroup
300

 70
     1
 71
     1
  0
LAYOUT
  5
173D5
102
{ACAD_XDICTIONARY
360
2422A
102
}
102
{ACAD_REACTORS
330
173D3
102
}
330
173D3
100
AcDbPlotSettings
  1

  2
Microsoft Office Document Image Writer
  4

  6

 40
0.0
 41
0.0
 42
0.0
 43
0.0
 44
0.0
 45
0.0
 46
0.0
 47
0.0
 48
0.0
 49
0.0
140
0.0
141
0.0
142
1.0
143
1.0
 70
  1712
 72
     0
 73
     0
 74
     0
  7

 75
     0
147
1.0
148
0.0
149
0.0
100
AcDbLayout
  1
Model
 70
     1
 71
     0
 10
0.0
 20
0.0
 11
12.0
 21
9.0
 12
0.0
 22
0.0
 32
0.0
 14
0.0
 24
0.0
 34
0.0
 15
0.0
 25
0.0
 35
0.0
146
0.0
 13
0.0
 23
0.0
 33
0.0
 16
1.0
 26
0.0
 36
0.0
 17
0.0
 27
1.0
 37
0.0
 76
     0
330
747D
  0
LAYOUT
  5
173D6
102
{ACAD_XDICTIONARY
360
2422C
102
}
102
{ACAD_REACTORS
330
173D3
102
}
330
173D3
100
AcDbPlotSettings
  1

  2
Microsoft Office Document Image Writer
  4

  6

 40
0.0
 41
0.0
 42
0.0
 43
0.0
 44
0.0
 45
0.0
 46
0.0
 47
0.0
 48
0.0
 49
0.0
140
0.0
141
0.0
142
1.0
143
1.0
 70
   688
 72
     0
 73
     0
 74
     5
  7

 75
    16
147
1.0
148
0.0
149
0.0
100
AcDbLayout
  1
レイアウト1
 70
     0
 71
     1
 10
0.0
 20
0.0
 11
420.0
 21
297.0
 12
0.0
 22
0.0
 32
0.0
 14
1.000000000000000E+20
 24
1.000000000000000E+20
 34
1.000000000000000E+20
 15
-1.000000000000000E+20
 25
-1.000000000000000E+20
 35
-1.000000000000000E+20
146
0.0
 13
0.0
 23
0.0
 33
0.0
 16
1.0
 26
0.0
 36
0.0
 17
0.0
 27
1.0
 37
0.0
 76
     0
330
747A
  0
MLINESTYLE
  5
7480
102
{ACAD_REACTORS
330
7473
102
}
330
7473
100
AcDbMlineStyle
  2
STANDARD
 70
     0
  3

 62
     0
 51
90.0
 52
90.0
 71
     2
 49
0.5
 62
   256
  6
BYLAYER
 49
-0.5
 62
   256
  6
BYLAYER
  0
ACDBPLACEHOLDER
  5
173D0
102
{ACAD_REACTORS
330
173CF
102
}
330
173CF
  0
XRECORD
  5
24229
102
{ACAD_REACTORS
330
24227
102
}
330
24227
100
AcDbXrecord
280
     1
340
173D2
  0
XRECORD
  5
24228
102
{ACAD_REACTORS
330
24227
102
}
330
24227
100
AcDbXrecord
280
     1
340
173D1
  0
DICTIONARYVAR
  5
23E60
102
{ACAD_REACTORS
330
23E5F
102
}
330
23E5F
100
DictionaryVariables
280
     0
  1
1
  0
DICTIONARYVAR
  5
23E61
102
{ACAD_REACTORS
330
23E5F
102
}
330
23E5F
100
DictionaryVariables
280
     0
  1

  0
DICTIONARY
  5
2422A
330
173D5
100
AcDbDictionary
280
     1
281
     1
  3
ACAD_XREC_ROUNDTRIP
360
2422B
  0
DICTIONARY
  5
2422C
330
173D6
100
AcDbDictionary
280
     1
281
     1
  3
ACAD_XREC_ROUNDTRIP
360
2422D
  0
XRECORD
  5
2422B
102
{ACAD_REACTORS
330
2422A
102
}
330
2422A
100
AcDbXrecord
280
     1
102
SHADEPLOT
 70
     0
102
SHADEPLOTRESLEVEL
 70
     2
102
SHADEPLOTCUSTOMDPI
 70
   300
  0
XRECORD
  5
2422D
102
{ACAD_REACTORS
330
2422C
102
}
330
2422C
100
AcDbXrecord
280
     1
102
SHADEPLOT
 70
     0
102
SHADEPLOTRESLEVEL
 70
     2
102
SHADEPLOTCUSTOMDPI
 70
   300
  0
ENDSEC
  0
EOF
