  0
SECTION
  2
HEADER
  9
$ACADVER
  1
AC1015
  9
$ACADMAINTVER
 70
    20
  9
$DWGCODEPAGE
  3
ANSI_932
  9
$INSBASE
 10
0.0
 20
0.0
 30
0.0
  9
$EXTMIN
 10
139.9999999999995
 20
-0.0000000000000909
 30
0.0
  9
$EXTMAX
 10
16307.2
 20
11409.6
 30
0.0
  9
$LIMMIN
 10
0.0
 20
0.0
  9
$LIMMAX
 10
16800.0
 20
11880.0
  9
$ORTHOMODE
 70
     0
  9
$REGENMODE
 70
     1
  9
$FILLMODE
 70
     1
  9
$QTEXTMODE
 70
     0
  9
$MIRRTEXT
 70
     1
  9
$LTSCALE
 40
20.0
  9
$ATTMODE
 70
     1
  9
$TEXTSIZE
 40
4.0
  9
$TRACEWID
 40
1.0
  9
$TEXTSTYLE
  7
STYLE1
  9
$CLAYER
  8
細線
  9
$CELTYPE
  6
BYLAYER
  9
$CECOLOR
 62
   256
  9
$CELTSCALE
 40
50.0
  9
$DISPSILH
 70
     0
  9
$DIMSCALE
 40
40.0
  9
$DIMASZ
 40
2.5
  9
$DIMEXO
 40
0.5
  9
$DIMDLI
 40
7.0
  9
$DIMRND
 40
0.0
  9
$DIMDLE
 40
0.0
  9
$DIMEXE
 40
1.5
  9
$DIMTP
 40
0.0
  9
$DIMTM
 40
0.0
  9
$DIMTXT
 40
3.0
  9
$DIMCEN
 40
0.0
  9
$DIMTSZ
 40
0.0
  9
$DIMTOL
 70
     0
  9
$DIMLIM
 70
     0
  9
$DIMTIH
 70
     0
  9
$DIMTOH
 70
     0
  9
$DIMSE1
 70
     0
  9
$DIMSE2
 70
     0
  9
$DIMTAD
 70
     3
  9
$DIMZIN
 70
     8
  9
$DIMBLK
  1

  9
$DIMASO
 70
     1
  9
$DIMSHO
 70
     1
  9
$DIMPOST
  1

  9
$DIMAPOST
  1

  9
$DIMALT
 70
     0
  9
$DIMALTD
 70
     2
  9
$DIMALTF
 40
0.0394
  9
$DIMLFAC
 40
1.0
  9
$DIMTOFL
 70
     1
  9
$DIMTVP
 40
0.0
  9
$DIMTIX
 70
     1
  9
$DIMSOXD
 70
     0
  9
$DIMSAH
 70
     1
  9
$DIMBLK1
  1
DOTSMALL
  9
$DIMBLK2
  1
DOTSMALL
  9
$DIMSTYLE
  2
INABA_S40G
  9
$DIMCLRD
 70
     0
  9
$DIMCLRE
 70
     0
  9
$DIMCLRT
 70
     7
  9
$DIMTFAC
 40
1.0
  9
$DIMGAP
 40
1.0
  9
$DIMJUST
 70
     0
  9
$DIMSD1
 70
     0
  9
$DIMSD2
 70
     0
  9
$DIMTOLJ
 70
     1
  9
$DIMTZIN
 70
     0
  9
$DIMALTZ
 70
     0
  9
$DIMALTTZ
 70
     0
  9
$DIMUPT
 70
     0
  9
$DIMDEC
 70
     1
  9
$DIMTDEC
 70
     4
  9
$DIMALTU
 70
     2
  9
$DIMALTTD
 70
     2
  9
$DIMTXSTY
  7
STYLE1
  9
$DIMAUNIT
 70
     0
  9
$DIMADEC
 70
     0
  9
$DIMALTRND
 40
0.0
  9
$DIMAZIN
 70
     0
  9
$DIMDSEP
 70
    46
  9
$DIMATFIT
 70
     3
  9
$DIMFRAC
 70
     0
  9
$DIMLDRBLK
  1

  9
$DIMLUNIT
 70
     2
  9
$DIMLWD
 70
    -2
  9
$DIMLWE
 70
    -2
  9
$DIMTMOVE
 70
     0
  9
$LUNITS
 70
     2
  9
$LUPREC
 70
     1
  9
$SKETCHINC
 40
1.0
  9
$FILLETRAD
 40
3.0
  9
$AUNITS
 70
     0
  9
$AUPREC
 70
     0
  9
$MENU
  1
acad
  9
$ELEVATION
 40
0.0
  9
$PELEVATION
 40
0.0
  9
$THICKNESS
 40
0.0
  9
$LIMCHECK
 70
     0
  9
$CHAMFERA
 40
0.0
  9
$CHAMFERB
 40
0.0
  9
$CHAMFERC
 40
0.0
  9
$CHAMFERD
 40
0.0
  9
$SKPOLY
 70
     0
  9
$TDCREATE
 40
2451368.612993866
  9
$TDUCREATE
 40
2451368.237993866
  9
$TDUPDATE
 40
2455826.588151574
  9
$TDUUPDATE
 40
2455826.213151574
  9
$TDINDWG
 40
0.8085423727
  9
$TDUSRTIMER
 40
0.8085423727
  9
$USRTIMER
 70
     1
  9
$ANGBASE
 50
0.0
  9
$ANGDIR
 70
     0
  9
$PDMODE
 70
     3
  9
$PDSIZE
 40
2.0
  9
$PLINEWID
 40
0.0
  9
$SPLFRAME
 70
     0
  9
$SPLINETYPE
 70
     6
  9
$SPLINESEGS
 70
     8
  9
$HANDSEED
  5
2CB6A
  9
$SURFTAB1
 70
     6
  9
$SURFTAB2
 70
     6
  9
$SURFTYPE
 70
     6
  9
$SURFU
 70
     6
  9
$SURFV
 70
     6
  9
$UCSBASE
  2

  9
$UCSNAME
  2

  9
$UCSORG
 10
0.0
 20
0.0
 30
0.0
  9
$UCSXDIR
 10
1.0
 20
0.0
 30
0.0
  9
$UCSYDIR
 10
0.0
 20
1.0
 30
0.0
  9
$UCSORTHOREF
  2

  9
$UCSORTHOVIEW
 70
     0
  9
$UCSORGTOP
 10
0.0
 20
0.0
 30
0.0
  9
$UCSORGBOTTOM
 10
0.0
 20
0.0
 30
0.0
  9
$UCSORGLEFT
 10
0.0
 20
0.0
 30
0.0
  9
$UCSORGRIGHT
 10
0.0
 20
0.0
 30
0.0
  9
$UCSORGFRONT
 10
0.0
 20
0.0
 30
0.0
  9
$UCSORGBACK
 10
0.0
 20
0.0
 30
0.0
  9
$PUCSBASE
  2

  9
$PUCSNAME
  2

  9
$PUCSORG
 10
0.0
 20
0.0
 30
0.0
  9
$PUCSXDIR
 10
1.0
 20
0.0
 30
0.0
  9
$PUCSYDIR
 10
0.0
 20
1.0
 30
0.0
  9
$PUCSORTHOREF
  2

  9
$PUCSORTHOVIEW
 70
     0
  9
$PUCSORGTOP
 10
0.0
 20
0.0
 30
0.0
  9
$PUCSORGBOTTOM
 10
0.0
 20
0.0
 30
0.0
  9
$PUCSORGLEFT
 10
0.0
 20
0.0
 30
0.0
  9
$PUCSORGRIGHT
 10
0.0
 20
0.0
 30
0.0
  9
$PUCSORGFRONT
 10
0.0
 20
0.0
 30
0.0
  9
$PUCSORGBACK
 10
0.0
 20
0.0
 30
0.0
  9
$USERI1
 70
     0
  9
$USERI2
 70
     0
  9
$USERI3
 70
     0
  9
$USERI4
 70
     0
  9
$USERI5
 70
     0
  9
$USERR1
 40
0.0
  9
$USERR2
 40
0.0
  9
$USERR3
 40
0.0
  9
$USERR4
 40
0.0
  9
$USERR5
 40
0.0
  9
$WORLDVIEW
 70
     1
  9
$SHADEDGE
 70
     3
  9
$SHADEDIF
 70
    70
  9
$TILEMODE
 70
     1
  9
$MAXACTVP
 70
    16
  9
$PINSBASE
 10
0.0
 20
0.0
 30
0.0
  9
$PLIMCHECK
 70
     0
  9
$PEXTMIN
 10
1.000000000000000E+20
 20
1.000000000000000E+20
 30
1.000000000000000E+20
  9
$PEXTMAX
 10
-1.000000000000000E+20
 20
-1.000000000000000E+20
 30
-1.000000000000000E+20
  9
$PLIMMIN
 10
0.0
 20
0.0
  9
$PLIMMAX
 10
420.0
 20
297.0
  9
$UNITMODE
 70
     0
  9
$VISRETAIN
 70
     0
  9
$PLINEGEN
 70
     0
  9
$PSLTSCALE
 70
     0
  9
$TREEDEPTH
 70
  3020
  9
$CMLSTYLE
  2
STANDARD
  9
$CMLJUST
 70
     0
  9
$CMLSCALE
 40
1.0
  9
$PROXYGRAPHICS
 70
     1
  9
$MEASUREMENT
 70
     1
  9
$CELWEIGHT
370
    -1
  9
$ENDCAPS
280
     0
  9
$JOINSTYLE
280
     0
  9
$LWDISPLAY
290
     0
  9
$INSUNITS
 70
     0
  9
$HYPERLINKBASE
  1

  9
$STYLESHEET
  1

  9
$XEDIT
290
     1
  9
$CEPSNTYPE
380
     0
  9
$PSTYLEMODE
290
     1
  9
$FINGERPRINTGUID
  2
{5EAC461A-2277-4BF8-9AB0-99C43BB394F0}
  9
$VERSIONGUID
  2
{95ACE7A1-51F4-42D0-AF3F-03CA987D399F}
  9
$EXTNAMES
290
     1
  9
$PSVPSCALE
 40
0.0
  9
$OLESTARTUP
290
     0
  0
ENDSEC
  0
SECTION
  2
CLASSES
  0
CLASS
  1
ACDBDICTIONARYWDFLT
  2
AcDbDictionaryWithDefault
  3
ObjectDBX Classes
 90
        0
280
     0
281
     0
  0
CLASS
  1
DICTIONARYVAR
  2
AcDbDictionaryVar
  3
ObjectDBX Classes
 90
        0
280
     0
281
     0
  0
CLASS
  1
ACDBPLACEHOLDER
  2
AcDbPlaceHolder
  3
ObjectDBX Classes
 90
        0
280
     0
281
     0
  0
CLASS
  1
LAYOUT
  2
AcDbLayout
  3
ObjectDBX Classes
 90
        0
280
     0
281
     0
  0
ENDSEC
  0
SECTION
  2
TABLES
  0
TABLE
  2
VPORT
  5
746D
330
0
100
AcDbSymbolTable
 70
     2
  0
VPORT
  5
2CB62
330
746D
100
AcDbSymbolTableRecord
100
AcDbViewportTableRecord
  2
*Active
 70
     0
 10
0.0
 20
0.0
 11
1.0
 21
1.0
 12
8400.0
 22
6532.304808250916
 13
0.0
 23
0.0
 14
10.0
 24
10.0
 15
10.0
 25
10.0
 16
0.0
 26
0.0
 36
1.0
 17
0.0
 27
0.0
 37
0.0
 40
13160.36269532366
 41
1.522222222222222
 42
50.0
 43
0.0
 44
0.0
 50
0.0
 51
0.0
 71
     0
 72
     0
 73
     1
 74
     0
 75
     0
 76
     0
 77
     0
 78
     0
281
     0
 65
     1
110
0.0
120
0.0
130
0.0
111
1.0
121
0.0
131
0.0
112
0.0
122
1.0
132
0.0
 79
     0
146
0.0
  0
ENDTAB
  0
TABLE
  2
LTYPE
  5
746A
330
0
100
AcDbSymbolTable
 70
     5
  0
LTYPE
  5
7477
330
746A
100
AcDbSymbolTableRecord
100
AcDbLinetypeTableRecord
  2
BYBLOCK
 70
     0
  3

 72
    65
 73
     0
 40
0.0
  0
LTYPE
  5
7478
330
746A
100
AcDbSymbolTableRecord
100
AcDbLinetypeTableRecord
  2
BYLAYER
 70
     0
  3

 72
    65
 73
     0
 40
0.0
  0
LTYPE
  5
7479
330
746A
100
AcDbSymbolTableRecord
100
AcDbLinetypeTableRecord
  2
CONTINUOUS
 70
     0
  3
Solid line
 72
    65
 73
     0
 40
0.0
  0
LTYPE
  5
7816
330
746A
100
AcDbSymbolTableRecord
100
AcDbLinetypeTableRecord
  2
CENTER
 70
     0
  3
____ _ ____ _ ____ _ ____ _ ____ _ ____ _ ____ 
 72
    65
 73
     4
 40
2.0
 49
1.25
 74
     0
 49
-0.25
 74
     0
 49
0.25
 74
     0
 49
-0.25
 74
     0
  0
LTYPE
  5
781A
330
746A
100
AcDbSymbolTableRecord
100
AcDbLinetypeTableRecord
  2
HIDDEN
 70
     0
  3
__ __ __ __ __ __ __ __ __ __ __ __ __ __ __ __
 72
    65
 73
     2
 40
0.375
 49
0.25
 74
     0
 49
-0.125
 74
     0
  0
LTYPE
  5
781B
330
746A
100
AcDbSymbolTableRecord
100
AcDbLinetypeTableRecord
  2
PHANTOM
 70
     0
  3
______  __  __  ______  __  __  ______  __  __ 
 72
    65
 73
     6
 40
2.5
 49
1.25
 74
     0
 49
-0.25
 74
     0
 49
0.25
 74
     0
 49
-0.25
 74
     0
 49
0.25
 74
     0
 49
-0.25
 74
     0
  0
LTYPE
  5
12CC3
330
746A
100
AcDbSymbolTableRecord
100
AcDbLinetypeTableRecord
  2
HIDDENX2
 70
     0
  3
Hidden (2x) ____ ____ ____ ____ ____ ____ ____
 72
    65
 73
     2
 40
19.05
 49
12.7
 74
     0
 49
-6.349999999999999
 74
     0
  0
ENDTAB
  0
TABLE
  2
LAYER
  5
7467
102
{ACAD_XDICTIONARY
360
1758F
102
}
330
0
100
AcDbSymbolTable
 70
    12
  0
LAYER
  5
7474
330
7467
100
AcDbSymbolTableRecord
100
AcDbLayerTableRecord
  2
0
 70
     0
 62
     7
  6
CONTINUOUS
370
    -3
390
173D0
  0
LAYER
  5
DEB2
330
7467
100
AcDbSymbolTableRecord
100
AcDbLayerTableRecord
  2
センター
 70
     0
 62
     3
  6
CENTER
370
    -3
390
173D0
  0
LAYER
  5
DEB3
330
7467
100
AcDbSymbolTableRecord
100
AcDbLayerTableRecord
  2
寸法
 70
     0
 62
     4
  6
CONTINUOUS
370
    -3
390
173D0
  0
LAYER
  5
DEB4
330
7467
100
AcDbSymbolTableRecord
100
AcDbLayerTableRecord
  2
部品1
 70
     0
 62
     7
  6
CONTINUOUS
370
    -3
390
173D0
  0
LAYER
  5
DEB5
330
7467
100
AcDbSymbolTableRecord
100
AcDbLayerTableRecord
  2
補助
 70
     0
 62
    -1
  6
CONTINUOUS
370
    -3
390
173D0
  0
LAYER
  5
DEB6
330
7467
100
AcDbSymbolTableRecord
100
AcDbLayerTableRecord
  2
文字
 70
     0
 62
     7
  6
CONTINUOUS
370
    -3
390
173D0
  0
LAYER
  5
F255
330
7467
100
AcDbSymbolTableRecord
100
AcDbLayerTableRecord
  2
DEFPOINTS
 70
     0
 62
     7
  6
CONTINUOUS
290
     0
370
    -3
390
173D0
  0
LAYER
  5
10B54
330
7467
100
AcDbSymbolTableRecord
100
AcDbLayerTableRecord
  2
仕様書枠
 70
     0
 62
   230
  6
CONTINUOUS
370
    -3
390
173D0
  0
LAYER
  5
11729
330
7467
100
AcDbSymbolTableRecord
100
AcDbLayerTableRecord
  2
Ｇ．Ｌ
 70
     0
 62
    30
  6
CONTINUOUS
370
    -3
390
173D0
  0
LAYER
  5
1173F
330
7467
100
AcDbSymbolTableRecord
100
AcDbLayerTableRecord
  2
細線
 70
     0
 62
     5
  6
CONTINUOUS
370
    -3
390
173D0
  0
LAYER
  5
12CC4
330
7467
100
AcDbSymbolTableRecord
100
AcDbLayerTableRecord
  2
想像線
 70
     0
 62
     6
  6
PHANTOM
370
    -3
390
173D0
  0
LAYER
  5
142E2
330
7467
100
AcDbSymbolTableRecord
100
AcDbLayerTableRecord
  2
破線
 70
     0
 62
     2
  6
HIDDEN
370
    -3
390
173D0
  0
ENDTAB
  0
TABLE
  2
STYLE
  5
7468
330
0
100
AcDbSymbolTable
 70
     7
  0
STYLE
  5
7475
330
7468
100
AcDbSymbolTableRecord
100
AcDbTextStyleTableRecord
  2
STANDARD
 70
     0
 40
0.0
 41
1.0
 50
0.0
 71
     0
 42
4.0
  3
txt
  4
C:\AutoCAD LT\bigfont.shx
  0
STYLE
  5
763C
330
7468
100
AcDbSymbolTableRecord
100
AcDbTextStyleTableRecord
  2
MSMINCHO
 70
     0
 40
0.0
 41
1.0
 50
0.0
 71
     0
 42
1.199999999999999
  3
C:\AutoCAD LT\msminch2.TTF
  4

  0
STYLE
  5
F706
330
7468
100
AcDbSymbolTableRecord
100
AcDbTextStyleTableRecord
  2
STYLE1
 70
     0
 40
0.0
 41
1.0
 50
0.0
 71
     0
 42
4.0
  3
isocp.shx
  4
bigfont.shx
  0
STYLE
  5
103BF
330
7468
100
AcDbSymbolTableRecord
100
AcDbTextStyleTableRecord
  2
STYLE2
 70
     0
 40
0.0
 41
1.0
 50
0.0
 71
     0
 42
100.0
  3
MS PGothic.ttf
  4

1001
ACAD
1000
MS PGothic
1071
    32818
  0
STYLE
  5
10BAA
330
7468
100
AcDbSymbolTableRecord
100
AcDbTextStyleTableRecord
  2
STYLE3
 70
     0
 40
0.0
 41
1.0
 50
0.0
 71
     0
 42
100.0
  3

  4

1001
ACAD
1000
DFPGothic-EB
1071
    32818
  0
STYLE
  5
11A15
330
7468
100
AcDbSymbolTableRecord
100
AcDbTextStyleTableRecord
  2
MSGOTHIC
 70
     0
 40
0.0
 41
1.0
 50
0.0
 71
     0
 42
3.5
  3
msgothi2.ttf
  4

  0
STYLE
  5
13E96
330
7468
100
AcDbSymbolTableRecord
100
AcDbTextStyleTableRecord
  2
MSPゴシック
 70
     0
 40
0.0
 41
1.0
 50
0.0
 71
     0
 42
4.0
  3
MS PGothic.ttf
  4

1001
ACAD
1000
MS PGothic
1071
    32818
  0
ENDTAB
  0
TABLE
  2
VIEW
  5
746B
330
0
100
AcDbSymbolTable
 70
     0
  0
ENDTAB
  0
TABLE
  2
UCS
  5
746C
330
0
100
AcDbSymbolTable
 70
     0
  0
ENDTAB
  0
TABLE
  2
APPID
  5
746E
330
0
100
AcDbSymbolTable
 70
     6
  0
APPID
  5
7476
330
746E
100
AcDbSymbolTableRecord
100
AcDbRegAppTableRecord
  2
ACAD
 70
     0
  0
APPID
  5
DEA9
330
746E
100
AcDbSymbolTableRecord
100
AcDbRegAppTableRecord
  2
CONTENTBLOCKICON
 70
     0
  0
APPID
  5
DEAA
330
746E
100
AcDbSymbolTableRecord
100
AcDbRegAppTableRecord
  2
CONTENTBLOCKDESCRIPTION
 70
     0
  0
APPID
  5
E71D
330
746E
100
AcDbSymbolTableRecord
100
AcDbRegAppTableRecord
  2
CONTENTTABDATA
 70
     0
  0
APPID
  5
E71E
330
746E
100
AcDbSymbolTableRecord
100
AcDbRegAppTableRecord
  2
CONTENTCURRENTTAB
 70
     0
  0
APPID
  5
F3BA
330
746E
100
AcDbSymbolTableRecord
100
AcDbRegAppTableRecord
  2
DRAWINGVARIABLESXDATA
 70
     0
  0
ENDTAB
  0
TABLE
  2
DIMSTYLE
  5
746F
330
0
100
AcDbSymbolTable
 70
     6
100
AcDbDimStyleTable
 71
     1
340
F71F
  0
DIMSTYLE
105
7484
330
746F
100
AcDbSymbolTableRecord
100
AcDbDimStyleTableRecord
  2
JIS
 70
     0
 41
2.5
 42
1.0
 43
7.0
 44
1.0
 73
     0
 74
     0
 77
     1
 78
     8
140
2.5
141
0.0
143
0.0394
147
0.0
172
     1
174
     1
175
     1
340
7475
  0
DIMSTYLE
105
F236
330
746F
100
AcDbSymbolTableRecord
100
AcDbDimStyleTableRecord
  2
INABA_S40
 70
     0
 40
40.0
 41
2.5
 42
0.5
 43
7.0
 44
1.5
 73
     0
 74
     0
 77
     3
 78
     8
140
3.0
141
0.0
143
0.0394
147
1.0
172
     1
173
     1
174
     1
175
     1
178
     7
289
     0
340
7475
341
DEAC
343
DEAC
344
DEAC
  0
DIMSTYLE
105
F71F
102
{ACAD_REACTORS
330
2BEB6
330
2BEB7
330
2BEBC
330
2BEBD
330
2BEBE
330
2BEBF
330
2BEC0
330
2B92B
330
2B92A
330
2B900
330
2B8D6
330
2B8CD
330
2B8CC
330
2B829
330
2B828
330
2B827
330
2B80A
330
2B7F7
330
2B7F5
330
2B7F4
330
2B7EE
330
2B7ED
330
2B78B
330
2B789
330
2B7F8
330
2B79A
330
2B790
330
2B78F
330
2B79B
330
2B78C
330
2CA8F
330
2CA92
330
2CA99
330
2CAA1
330
2CAA2
330
2CA2F
102
}
330
746F
100
AcDbSymbolTableRecord
100
AcDbDimStyleTableRecord
  2
INABA_S40G
 70
     0
 40
40.0
 41
2.5
 42
0.5
 43
7.0
 44
1.5
 73
     0
 74
     0
 77
     3
 78
     8
140
3.0
141
0.0
143
0.0394
147
1.0
172
     1
173
     1
174
     1
178
     7
271
     1
340
F706
341
F770
343
F770
344
F770
  0
DIMSTYLE
105
142E3
330
746F
100
AcDbSymbolTableRecord
100
AcDbDimStyleTableRecord
  2
INABA_S1
 70
     0
 40
0.0
 41
2.5
 42
0.5
 43
7.0
 44
1.5
 73
     0
 74
     0
 77
     3
 78
     8
140
3.0
141
0.0
143
0.0394
146
0.5
147
0.5
172
     1
173
     1
176
   256
177
   256
178
     7
271
     2
272
     2
284
     8
288
     1
340
7475
341
DEAC
343
DEAC
344
DEAC
  0
DIMSTYLE
105
14463
330
746F
100
AcDbSymbolTableRecord
100
AcDbDimStyleTableRecord
  2
INABA_S30G
 70
     0
 40
30.0
 41
2.5
 42
0.5
 43
7.0
 44
1.5
 73
     0
 74
     0
 77
     3
 78
     8
140
3.0
141
0.0
143
0.0394
147
1.0
172
     1
173
     1
174
     1
175
     1
178
     7
271
     1
340
F706
341
F770
343
F770
344
F770
  0
DIMSTYLE
105
1758E
330
746F
100
AcDbSymbolTableRecord
100
AcDbDimStyleTableRecord
  2
INABA_S50G
 70
     0
 41
125.0
 42
25.0
 43
7.0
 44
75.0
 73
     0
 74
     0
 77
     3
 78
     8
140
150.0
141
0.0
143
0.0394
147
25.0
172
     1
173
     1
174
     1
175
     1
178
     7
271
     1
340
F706
341
F770
343
F770
344
F770
  0
ENDTAB
  0
TABLE
  2
BLOCK_RECORD
  5
7466
330
0
100
AcDbSymbolTable
 70
    56
  0
BLOCK_RECORD
  5
747D
330
7466
100
AcDbSymbolTableRecord
100
AcDbBlockTableRecord
  2
*MODEL_SPACE
340
173D5
  0
BLOCK_RECORD
  5
747A
330
7466
100
AcDbSymbolTableRecord
100
AcDbBlockTableRecord
  2
*PAPER_SPACE
340
173D6
  0
BLOCK_RECORD
  5
DEAC
330
7466
100
AcDbSymbolTableRecord
100
AcDbBlockTableRecord
  2
_OPEN
340
0
  0
BLOCK_RECORD
  5
F770
330
7466
100
AcDbSymbolTableRecord
100
AcDbBlockTableRecord
  2
_DOTSMALL
340
0
102
{BLKREFS
331
18C65
331
18C66
331
18C59
331
18C5A
331
18C4D
331
18C4E
331
18C41
331
18C42
331
18C35
331
18C36
331
18C29
331
18C2A
331
18C1D
331
18C1E
331
18C0F
331
18C10
331
18C03
331
18C04
331
18BF5
331
18BF6
331
18BE7
331
18BE8
331
18BD9
331
18BDA
331
18BCD
331
18BCE
331
2C5E4
331
2C5E5
331
2C5EF
331
2C5F0
331
2C5FA
331
2C5FB
331
2C605
331
2C606
331
2C610
331
2C611
331
2C61A
331
2C61B
331
2C623
331
2C624
331
2C62C
331
2C62D
331
2C635
331
2C636
331
2C63E
331
2C63F
331
2C647
331
2C648
331
2C650
331
2C651
331
2C659
331
2C65A
331
2C662
331
2C663
331
2C66B
331
2C66C
331
2C675
331
2C676
331
2C67F
331
2C680
331
2C688
331
2C689
331
2C692
331
2C693
331
2C69B
331
2C69C
331
2C6A4
331
2C6A5
331
2C6AD
331
2C6AE
331
2C6C0
331
2C6C1
331
2C6D3
331
2C6D4
331
2C6DC
331
2C6DD
331
2C6E5
331
2C6E6
331
2C709
331
2C70A
331
2C712
331
2C713
331
2C7C5
331
2C7C6
331
2C7EE
331
2C7EF
331
2CAF9
331
2CAFA
331
2CB02
331
2CB03
331
2CB0B
331
2CB0C
331
2CB16
331
2CB17
331
2CB1F
331
2CB20
331
2CB28
331
2CB29
102
}
  0
BLOCK_RECORD
  5
164B4
330
7466
100
AcDbSymbolTableRecord
100
AcDbBlockTableRecord
  2
_DOT
340
0
102
{BLKREFS
331
18C73
331
18C74
102
}
  0
BLOCK_RECORD
  5
18BC8
330
7466
100
AcDbSymbolTableRecord
100
AcDbBlockTableRecord
  2
*D3
340
0
  0
BLOCK_RECORD
  5
18BD4
330
7466
100
AcDbSymbolTableRecord
100
AcDbBlockTableRecord
  2
*D4
340
0
  0
BLOCK_RECORD
  5
18BE0
330
7466
100
AcDbSymbolTableRecord
100
AcDbBlockTableRecord
  2
*D5
340
0
  0
BLOCK_RECORD
  5
18BEE
330
7466
100
AcDbSymbolTableRecord
100
AcDbBlockTableRecord
  2
*D6
340
0
  0
BLOCK_RECORD
  5
18BFC
330
7466
100
AcDbSymbolTableRecord
100
AcDbBlockTableRecord
  2
*D7
340
0
  0
BLOCK_RECORD
  5
18C0A
330
7466
100
AcDbSymbolTableRecord
100
AcDbBlockTableRecord
  2
*D8
340
0
  0
BLOCK_RECORD
  5
18C16
330
7466
100
AcDbSymbolTableRecord
100
AcDbBlockTableRecord
  2
*D9
340
0
  0
BLOCK_RECORD
  5
18C24
330
7466
100
AcDbSymbolTableRecord
100
AcDbBlockTableRecord
  2
*D10
340
0
  0
BLOCK_RECORD
  5
18C30
330
7466
100
AcDbSymbolTableRecord
100
AcDbBlockTableRecord
  2
*D11
340
0
  0
BLOCK_RECORD
  5
18C3C
330
7466
100
AcDbSymbolTableRecord
100
AcDbBlockTableRecord
  2
*D12
340
0
  0
BLOCK_RECORD
  5
18C48
330
7466
100
AcDbSymbolTableRecord
100
AcDbBlockTableRecord
  2
*D13
340
0
  0
BLOCK_RECORD
  5
18C54
330
7466
100
AcDbSymbolTableRecord
100
AcDbBlockTableRecord
  2
*D14
340
0
  0
BLOCK_RECORD
  5
18C60
330
7466
100
AcDbSymbolTableRecord
100
AcDbBlockTableRecord
  2
*D15
340
0
  0
BLOCK_RECORD
  5
18C6C
330
7466
100
AcDbSymbolTableRecord
100
AcDbBlockTableRecord
  2
*D16
340
0
  0
BLOCK_RECORD
  5
18C7A
330
7466
100
AcDbSymbolTableRecord
100
AcDbBlockTableRecord
  2
A$C3B1A506B
340
0
  0
BLOCK_RECORD
  5
1C4CA
330
7466
100
AcDbSymbolTableRecord
100
AcDbBlockTableRecord
  2
_NONE
340
0
  0
BLOCK_RECORD
  5
2B94E
330
7466
100
AcDbSymbolTableRecord
100
AcDbBlockTableRecord
  2
*D19
340
0
  0
BLOCK_RECORD
  5
2B95A
330
7466
100
AcDbSymbolTableRecord
100
AcDbBlockTableRecord
  2
*D20
340
0
  0
BLOCK_RECORD
  5
2B966
330
7466
100
AcDbSymbolTableRecord
100
AcDbBlockTableRecord
  2
*D21
340
0
  0
BLOCK_RECORD
  5
2B973
330
7466
100
AcDbSymbolTableRecord
100
AcDbBlockTableRecord
  2
*D22
340
0
  0
BLOCK_RECORD
  5
2B97F
330
7466
100
AcDbSymbolTableRecord
100
AcDbBlockTableRecord
  2
*D23
340
0
  0
BLOCK_RECORD
  5
2B997
330
7466
100
AcDbSymbolTableRecord
100
AcDbBlockTableRecord
  2
*D24
340
0
  0
BLOCK_RECORD
  5
2B9A4
330
7466
100
AcDbSymbolTableRecord
100
AcDbBlockTableRecord
  2
*D25
340
0
  0
BLOCK_RECORD
  5
2B9BD
330
7466
100
AcDbSymbolTableRecord
100
AcDbBlockTableRecord
  2
*D26
340
0
  0
BLOCK_RECORD
  5
2B9C8
330
7466
100
AcDbSymbolTableRecord
100
AcDbBlockTableRecord
  2
*D27
340
0
  0
BLOCK_RECORD
  5
2B9D3
330
7466
100
AcDbSymbolTableRecord
100
AcDbBlockTableRecord
  2
*D28
340
0
  0
BLOCK_RECORD
  5
2B9E0
330
7466
100
AcDbSymbolTableRecord
100
AcDbBlockTableRecord
  2
*D29
340
0
  0
BLOCK_RECORD
  5
2B9F9
330
7466
100
AcDbSymbolTableRecord
100
AcDbBlockTableRecord
  2
*D30
340
0
  0
BLOCK_RECORD
  5
2BA06
330
7466
100
AcDbSymbolTableRecord
100
AcDbBlockTableRecord
  2
*D31
340
0
  0
BLOCK_RECORD
  5
2BA1D
330
7466
100
AcDbSymbolTableRecord
100
AcDbBlockTableRecord
  2
*D32
340
0
  0
BLOCK_RECORD
  5
2BA28
330
7466
100
AcDbSymbolTableRecord
100
AcDbBlockTableRecord
  2
*D33
340
0
  0
BLOCK_RECORD
  5
2BA34
330
7466
100
AcDbSymbolTableRecord
100
AcDbBlockTableRecord
  2
*D34
340
0
  0
BLOCK_RECORD
  5
2BA40
330
7466
100
AcDbSymbolTableRecord
100
AcDbBlockTableRecord
  2
*D35
340
0
  0
BLOCK_RECORD
  5
2BA59
330
7466
100
AcDbSymbolTableRecord
100
AcDbBlockTableRecord
  2
*D36
340
0
  0
BLOCK_RECORD
  5
2BA65
330
7466
100
AcDbSymbolTableRecord
100
AcDbBlockTableRecord
  2
*D37
340
0
  0
BLOCK_RECORD
  5
2BA71
330
7466
100
AcDbSymbolTableRecord
100
AcDbBlockTableRecord
  2
*D38
340
0
  0
BLOCK_RECORD
  5
2BA7D
330
7466
100
AcDbSymbolTableRecord
100
AcDbBlockTableRecord
  2
*D39
340
0
  0
BLOCK_RECORD
  5
2BA88
330
7466
100
AcDbSymbolTableRecord
100
AcDbBlockTableRecord
  2
*D40
340
0
  0
BLOCK_RECORD
  5
2BA94
330
7466
100
AcDbSymbolTableRecord
100
AcDbBlockTableRecord
  2
*D41
340
0
  0
BLOCK_RECORD
  5
2C02D
330
7466
100
AcDbSymbolTableRecord
100
AcDbBlockTableRecord
  2
*D42
340
0
  0
BLOCK_RECORD
  5
2C03B
330
7466
100
AcDbSymbolTableRecord
100
AcDbBlockTableRecord
  2
*D43
340
0
  0
BLOCK_RECORD
  5
2C049
330
7466
100
AcDbSymbolTableRecord
100
AcDbBlockTableRecord
  2
*D44
340
0
  0
BLOCK_RECORD
  5
2C057
330
7466
100
AcDbSymbolTableRecord
100
AcDbBlockTableRecord
  2
*D45
340
0
  0
BLOCK_RECORD
  5
2C065
330
7466
100
AcDbSymbolTableRecord
100
AcDbBlockTableRecord
  2
*D46
340
0
  0
BLOCK_RECORD
  5
2C072
330
7466
100
AcDbSymbolTableRecord
100
AcDbBlockTableRecord
  2
*D47
340
0
  0
BLOCK_RECORD
  5
2C07F
330
7466
100
AcDbSymbolTableRecord
100
AcDbBlockTableRecord
  2
*D48
340
0
  0
BLOCK_RECORD
  5
2CAAC
330
7466
100
AcDbSymbolTableRecord
100
AcDbBlockTableRecord
  2
*D49
340
0
  0
BLOCK_RECORD
  5
2CAB8
330
7466
100
AcDbSymbolTableRecord
100
AcDbBlockTableRecord
  2
*D50
340
0
  0
BLOCK_RECORD
  5
2CAC4
330
7466
100
AcDbSymbolTableRecord
100
AcDbBlockTableRecord
  2
*D51
340
0
  0
BLOCK_RECORD
  5
2CAD0
330
7466
100
AcDbSymbolTableRecord
100
AcDbBlockTableRecord
  2
*D52
340
0
  0
BLOCK_RECORD
  5
2CADE
330
7466
100
AcDbSymbolTableRecord
100
AcDbBlockTableRecord
  2
*D53
340
0
  0
BLOCK_RECORD
  5
2CAEA
330
7466
100
AcDbSymbolTableRecord
100
AcDbBlockTableRecord
  2
*D54
340
0
  0
BLOCK_RECORD
  5
2CB37
330
7466
100
AcDbSymbolTableRecord
100
AcDbBlockTableRecord
  2
A$C6D9E4C85
340
0
  0
ENDTAB
  0
ENDSEC
  0
SECTION
  2
BLOCKS
  0
BLOCK
  5
7489
330
747D
100
AcDbEntity
  8
0
100
AcDbBlockBegin
  2
*MODEL_SPACE
 70
     0
 10
0.0
 20
0.0
 30
0.0
  3
*MODEL_SPACE
  1

  0
ENDBLK
  5
748A
330
747D
100
AcDbEntity
  8
0
100
AcDbBlockEnd
  0
BLOCK
  5
7487
330
747A
100
AcDbEntity
 67
     1
  8
0
100
AcDbBlockBegin
  2
*PAPER_SPACE
 70
     0
 10
0.0
 20
0.0
 30
0.0
  3
*PAPER_SPACE
  1

  0
ENDBLK
  5
7488
330
747A
100
AcDbEntity
 67
     1
  8
0
100
AcDbBlockEnd
  0
BLOCK
  5
DEAD
330
DEAC
100
AcDbEntity
  8
0
100
AcDbBlockBegin
  2
_OPEN
 70
     0
 10
0.0
 20
0.0
 30
0.0
  3
_OPEN
  1

  0
LINE
  5
DEAE
330
DEAC
100
AcDbEntity
  8
0
  6
ByBlock
 62
     0
100
AcDbLine
 10
-1.0
 20
0.1666666666666666
 30
0.0
 11
0.0
 21
0.0
 31
0.0
  0
LINE
  5
DEAF
330
DEAC
100
AcDbEntity
  8
0
  6
ByBlock
 62
     0
100
AcDbLine
 10
0.0
 20
0.0
 30
0.0
 11
-1.0
 21
-0.1666666666666666
 31
0.0
  0
LINE
  5
DEB0
330
DEAC
100
AcDbEntity
  8
0
  6
ByBlock
 62
     0
100
AcDbLine
 10
0.0
 20
0.0
 30
0.0
 11
-1.0
 21
0.0
 31
0.0
  0
ENDBLK
  5
DEB1
330
DEAC
100
AcDbEntity
  8
0
100
AcDbBlockEnd
  0
BLOCK
  5
F771
330
F770
100
AcDbEntity
  8
0
 48
50.0
100
AcDbBlockBegin
  2
_DOTSMALL
 70
     0
 10
0.0
 20
0.0
 30
0.0
  3
_DOTSMALL
  1

  0
LWPOLYLINE
  5
F772
330
F770
100
AcDbEntity
  8
0
  6
ByBlock
 62
     0
 48
50.0
100
AcDbPolyline
 90
        2
 70
     1
 43
0.5
 10
-0.0625
 20
0.0
 42
1.0
 10
0.0625
 20
0.0
 42
1.0
  0
ENDBLK
  5
F776
330
F770
100
AcDbEntity
  8
0
 48
50.0
100
AcDbBlockEnd
  0
BLOCK
  5
164BA
330
164B4
100
AcDbEntity
  8
0
 48
50.0
100
AcDbBlockBegin
  2
_DOT
 70
     0
 10
0.0
 20
0.0
 30
0.0
  3
_DOT
  1

  0
LWPOLYLINE
  5
164B5
330
164B4
100
AcDbEntity
  8
0
  6
ByBlock
 62
     0
 48
50.0
100
AcDbPolyline
 90
        2
 70
     1
 43
0.5
 10
-0.25
 20
0.0
 42
1.0
 10
0.25
 20
0.0
 42
1.0
  0
LINE
  5
164B9
330
164B4
100
AcDbEntity
  8
0
  6
ByBlock
 62
     0
 48
50.0
100
AcDbLine
 10
-0.5
 20
0.0
 30
0.0
 11
-1.0
 21
0.0
 31
0.0
  0
ENDBLK
  5
164BB
330
164B4
100
AcDbEntity
  8
0
 48
50.0
100
AcDbBlockEnd
  0
BLOCK
  5
18BC9
330
18BC8
100
AcDbEntity
  8
0
 48
50.0
100
AcDbBlockBegin
  2
*D3
 70
     1
 10
0.0
 20
0.0
 30
0.0
  3
*D3
  1

  0
LINE
  5
18BCA
330
18BC8
100
AcDbEntity
  8
寸法
 62
     0
 48
50.0
370
    -2
100
AcDbLine
 10
7649.896575106999
 20
9636.123139034717
 30
0.0
 11
8702.429862581047
 21
9636.123139034717
 31
0.0
  0
LINE
  5
18BCB
330
18BC8
100
AcDbEntity
  8
寸法
 62
     0
 48
50.0
370
    -2
100
AcDbLine
 10
7649.896575106973
 20
7846.123139034709
 30
0.0
 11
8702.429862581047
 21
7846.123139034709
 31
0.0
  0
LINE
  5
18BCC
330
18BC8
100
AcDbEntity
  8
寸法
 62
     0
 48
50.0
370
    -2
100
AcDbLine
 10
8642.429862581046
 20
9636.123139034717
 30
0.0
 11
8642.429862581046
 21
7846.123139034709
 31
0.0
  0
INSERT
  5
18BCD
330
18BC8
100
AcDbEntity
  8
寸法
 62
     0
 48
50.0
370
    -2
100
AcDbBlockReference
  2
_DOTSMALL
 10
8642.429862581046
 20
9636.123139034717
 30
0.0
 41
100.0
 42
100.0
 43
100.0
 50
90.0
  0
INSERT
  5
18BCE
330
18BC8
100
AcDbEntity
  8
寸法
 62
     0
 48
50.0
370
    -2
100
AcDbBlockReference
  2
_DOTSMALL
 10
8642.429862581046
 20
7846.123139034709
 30
0.0
 41
100.0
 42
100.0
 43
100.0
 50
270.0
  0
MTEXT
  5
18BCF
330
18BC8
100
AcDbEntity
  8
寸法
 62
     7
 48
50.0
100
AcDbMText
 10
8542.429862581045
 20
8741.123139034712
 30
0.0
 40
120.0
 41
0.0
 71
     5
 72
     1
  1
\A1;1790
  7
STYLE1
 11
0.0000000000000001
 21
1.0
 31
0.0
 73
     1
 44
1.0
1001
ACAD
1000
MTEXTBEGIN
1070
    73
1070
     1
1070
    44
1040
1.0
1070
    74
1070
     0
1000
MTEXTEND
  0
POINT
  5
18BD0
330
18BC8
100
AcDbEntity
  8
DEFPOINTS
 62
     0
 48
50.0
100
AcDbPoint
 10
7629.896575106998
 20
9636.123139034717
 30
0.0
  0
POINT
  5
18BD1
330
18BC8
100
AcDbEntity
  8
DEFPOINTS
 62
     0
 48
50.0
100
AcDbPoint
 10
7629.896575106974
 20
7846.123139034709
 30
0.0
  0
POINT
  5
18BD2
330
18BC8
100
AcDbEntity
  8
DEFPOINTS
 62
     0
 48
50.0
100
AcDbPoint
 10
8642.429862581046
 20
7846.123139034709
 30
0.0
  0
ENDBLK
  5
18BD3
330
18BC8
100
AcDbEntity
  8
0
 48
50.0
100
AcDbBlockEnd
  0
BLOCK
  5
18BD5
330
18BD4
100
AcDbEntity
  8
0
 48
50.0
100
AcDbBlockBegin
  2
*D4
 70
     1
 10
0.0
 20
0.0
 30
0.0
  3
*D4
  1

  0
LINE
  5
18BD6
330
18BD4
100
AcDbEntity
  8
寸法
 62
     0
 48
50.0
370
    -2
100
AcDbLine
 10
4214.896575106998
 20
9656.123139034622
 30
0.0
 11
4214.896575106998
 21
10211.93135865972
 31
0.0
  0
LINE
  5
18BD7
330
18BD4
100
AcDbEntity
  8
寸法
 62
     0
 48
50.0
370
    -2
100
AcDbLine
 10
7574.896575106999
 20
9656.123139034718
 30
0.0
 11
7574.896575106999
 21
10211.93135865972
 31
0.0
  0
LINE
  5
18BD8
330
18BD4
100
AcDbEntity
  8
寸法
 62
     0
 48
50.0
370
    -2
100
AcDbLine
 10
4214.896575106998
 20
10151.93135865972
 30
0.0
 11
7574.896575106999
 21
10151.93135865972
 31
0.0
  0
INSERT
  5
18BD9
330
18BD4
100
AcDbEntity
  8
寸法
 62
     0
 48
50.0
370
    -2
100
AcDbBlockReference
  2
_DOTSMALL
 10
4214.896575106998
 20
10151.93135865972
 30
0.0
 41
100.0
 42
100.0
 43
100.0
 50
180.0
  0
INSERT
  5
18BDA
330
18BD4
100
AcDbEntity
  8
寸法
 62
     0
 48
50.0
370
    -2
100
AcDbBlockReference
  2
_DOTSMALL
 10
7574.896575106999
 20
10151.93135865972
 30
0.0
 41
100.0
 42
100.0
 43
100.0
  0
MTEXT
  5
18BDB
330
18BD4
100
AcDbEntity
  8
寸法
 62
     7
 48
50.0
100
AcDbMText
 10
5894.896575106997
 20
10251.94316968334
 30
0.0
 40
120.0
 41
0.0
 71
     5
 72
     1
  1
\A1;8X420=3360
  7
STYLE1
 73
     1
 44
1.0
1001
ACAD
1000
MTEXTBEGIN
1070
    73
1070
     1
1070
    44
1040
1.0
1070
    74
1070
     0
1000
MTEXTEND
  0
POINT
  5
18BDC
330
18BD4
100
AcDbEntity
  8
DEFPOINTS
 62
     0
 48
50.0
100
AcDbPoint
 10
4214.896575106998
 20
9636.123139034623
 30
0.0
  0
POINT
  5
18BDD
330
18BD4
100
AcDbEntity
  8
DEFPOINTS
 62
     0
 48
50.0
100
AcDbPoint
 10
7574.896575106999
 20
9636.123139034717
 30
0.0
  0
POINT
  5
18BDE
330
18BD4
100
AcDbEntity
  8
DEFPOINTS
 62
     0
 48
50.0
100
AcDbPoint
 10
7574.896575106999
 20
10151.93135865972
 30
0.0
  0
ENDBLK
  5
18BDF
330
18BD4
100
AcDbEntity
  8
0
 48
50.0
100
AcDbBlockEnd
  0
BLOCK
  5
18BE1
330
18BE0
100
AcDbEntity
  8
0
 48
50.0
100
AcDbBlockBegin
  2
*D5
 70
     1
 10
0.0
 20
0.0
 30
0.0
  3
*D5
  1

  0
LINE
  5
18BE2
330
18BE0
100
AcDbEntity
  8
寸法
 62
     0
 48
50.0
370
    -2
100
AcDbLine
 10
7574.896575106999
 20
9656.123139034718
 30
0.0
 11
7574.896575106999
 21
10211.9313586597
 31
0.0
  0
LINE
  5
18BE3
330
18BE0
100
AcDbEntity
  8
寸法
 62
     0
 48
50.0
370
    -2
100
AcDbLine
 10
7629.896575106998
 20
9656.123139034718
 30
0.0
 11
7629.896575106998
 21
10211.9313586597
 31
0.0
  0
LINE
  5
18BE4
330
18BE0
100
AcDbEntity
  8
寸法
 62
     0
 48
50.0
370
    -2
100
AcDbLine
 10
7574.896575106999
 20
10151.9313586597
 30
0.0
 11
7474.896575106999
 21
10151.9313586597
 31
0.0
  0
LINE
  5
18BE5
330
18BE0
100
AcDbEntity
  8
寸法
 62
     0
 48
50.0
370
    -2
100
AcDbLine
 10
7629.896575106998
 20
10151.9313586597
 30
0.0
 11
8046.867137855477
 21
10151.9313586597
 31
0.0
  0
LINE
  5
18BE6
330
18BE0
100
AcDbEntity
  8
寸法
 62
     0
 48
50.0
370
    -2
100
AcDbLine
 10
7574.896575106999
 20
10151.9313586597
 30
0.0
 11
7629.896575106998
 21
10151.9313586597
 31
0.0
  0
INSERT
  5
18BE7
330
18BE0
100
AcDbEntity
  8
寸法
 62
     0
 48
50.0
370
    -2
100
AcDbBlockReference
  2
_DOTSMALL
 10
7574.896575106999
 20
10151.9313586597
 30
0.0
 41
100.0
 42
100.0
 43
100.0
  0
INSERT
  5
18BE8
330
18BE0
100
AcDbEntity
  8
寸法
 62
     0
 48
50.0
370
    -2
100
AcDbBlockReference
  2
_DOTSMALL
 10
7629.896575106998
 20
10151.9313586597
 30
0.0
 41
100.0
 42
100.0
 43
100.0
 50
180.0
  0
MTEXT
  5
18BE9
330
18BE0
100
AcDbEntity
  8
寸法
 62
     7
 48
50.0
100
AcDbMText
 10
7938.381856481237
 20
10251.9313586597
 30
0.0
 40
120.0
 41
0.0
 71
     5
 72
     1
  1
\A1;55
  7
STYLE1
 73
     1
 44
1.0
1001
ACAD
1000
MTEXTBEGIN
1070
    73
1070
     1
1070
    44
1040
1.0
1070
    74
1070
     0
1000
MTEXTEND
  0
POINT
  5
18BEA
330
18BE0
100
AcDbEntity
  8
DEFPOINTS
 62
     0
 48
50.0
100
AcDbPoint
 10
7574.896575106999
 20
9636.123139034717
 30
0.0
  0
POINT
  5
18BEB
330
18BE0
100
AcDbEntity
  8
DEFPOINTS
 62
     0
 48
50.0
100
AcDbPoint
 10
7629.896575106998
 20
9636.123139034717
 30
0.0
  0
POINT
  5
18BEC
330
18BE0
100
AcDbEntity
  8
DEFPOINTS
 62
     0
 48
50.0
100
AcDbPoint
 10
7629.896575106998
 20
10151.9313586597
 30
0.0
  0
ENDBLK
  5
18BED
330
18BE0
100
AcDbEntity
  8
0
 48
50.0
100
AcDbBlockEnd
  0
BLOCK
  5
18BEF
330
18BEE
100
AcDbEntity
  8
0
 48
50.0
100
AcDbBlockBegin
  2
*D6
 70
     1
 10
0.0
 20
0.0
 30
0.0
  3
*D6
  1

  0
LINE
  5
18BF0
330
18BEE
100
AcDbEntity
  8
寸法
 62
     0
 48
50.0
370
    -2
100
AcDbLine
 10
7649.896575106999
 20
9636.123139034717
 30
0.0
 11
8337.32292084141
 21
9636.123139034717
 31
0.0
  0
LINE
  5
18BF1
330
18BEE
100
AcDbEntity
  8
寸法
 62
     0
 48
50.0
370
    -2
100
AcDbLine
 10
7649.896575106999
 20
9581.123139034721
 30
0.0
 11
8337.32292084141
 21
9581.123139034721
 31
0.0
  0
LINE
  5
18BF2
330
18BEE
100
AcDbEntity
  8
寸法
 62
     0
 48
50.0
370
    -2
100
AcDbLine
 10
8277.322920841411
 20
9581.123139034721
 30
0.0
 11
8277.322920841411
 21
9481.123139034719
 31
0.0
  0
LINE
  5
18BF3
330
18BEE
100
AcDbEntity
  8
寸法
 62
     0
 48
50.0
370
    -2
100
AcDbLine
 10
8277.322920841411
 20
9636.123139034717
 30
0.0
 11
8277.322920841411
 21
10053.09370178319
 31
0.0
  0
LINE
  5
18BF4
330
18BEE
100
AcDbEntity
  8
寸法
 62
     0
 48
50.0
370
    -2
100
AcDbLine
 10
8277.322920841411
 20
9581.123139034721
 30
0.0
 11
8277.322920841411
 21
9636.123139034717
 31
0.0
  0
INSERT
  5
18BF5
330
18BEE
100
AcDbEntity
  8
寸法
 62
     0
 48
50.0
370
    -2
100
AcDbBlockReference
  2
_DOTSMALL
 10
8277.322920841411
 20
9581.123139034721
 30
0.0
 41
100.0
 42
100.0
 43
100.0
 50
90.0
  0
INSERT
  5
18BF6
330
18BEE
100
AcDbEntity
  8
寸法
 62
     0
 48
50.0
370
    -2
100
AcDbBlockReference
  2
_DOTSMALL
 10
8277.322920841411
 20
9636.123139034717
 30
0.0
 41
100.0
 42
100.0
 43
100.0
 50
270.0
  0
MTEXT
  5
18BF7
330
18BEE
100
AcDbEntity
  8
寸法
 62
     7
 48
50.0
100
AcDbMText
 10
8177.32292084141
 20
9944.608420408957
 30
0.0
 40
120.0
 41
0.0
 71
     5
 72
     1
  1
\A1;55
  7
STYLE1
 11
0.0000000000000001
 21
1.0
 31
0.0
 73
     1
 44
1.0
1001
ACAD
1000
MTEXTBEGIN
1070
    73
1070
     1
1070
    44
1040
1.0
1070
    74
1070
     0
1000
MTEXTEND
  0
POINT
  5
18BF8
330
18BEE
100
AcDbEntity
  8
DEFPOINTS
 62
     0
 48
50.0
100
AcDbPoint
 10
7629.896575106998
 20
9636.123139034717
 30
0.0
  0
POINT
  5
18BF9
330
18BEE
100
AcDbEntity
  8
DEFPOINTS
 62
     0
 48
50.0
100
AcDbPoint
 10
7629.896575106998
 20
9581.123139034721
 30
0.0
  0
POINT
  5
18BFA
330
18BEE
100
AcDbEntity
  8
DEFPOINTS
 62
     0
 48
50.0
100
AcDbPoint
 10
8277.322920841411
 20
9581.123139034721
 30
0.0
  0
ENDBLK
  5
18BFB
330
18BEE
100
AcDbEntity
  8
0
 48
50.0
100
AcDbBlockEnd
  0
BLOCK
  5
18BFD
330
18BFC
100
AcDbEntity
  8
0
 48
50.0
100
AcDbBlockBegin
  2
*D7
 70
     1
 10
0.0
 20
0.0
 30
0.0
  3
*D7
  1

  0
LINE
  5
18BFE
330
18BFC
100
AcDbEntity
  8
寸法
 62
     0
 48
50.0
370
    -2
100
AcDbLine
 10
4159.896575106963
 20
9656.123139034622
 30
0.0
 11
4159.896575106963
 21
10211.9313586596
 31
0.0
  0
LINE
  5
18BFF
330
18BFC
100
AcDbEntity
  8
寸法
 62
     0
 48
50.0
370
    -2
100
AcDbLine
 10
4214.896575106998
 20
9656.123139034622
 30
0.0
 11
4214.896575106998
 21
10211.9313586596
 31
0.0
  0
LINE
  5
18C00
330
18BFC
100
AcDbEntity
  8
寸法
 62
     0
 48
50.0
370
    -2
100
AcDbLine
 10
4214.896575106998
 20
10151.9313586596
 30
0.0
 11
4314.896575106998
 21
10151.9313586596
 31
0.0
  0
LINE
  5
18C01
330
18BFC
100
AcDbEntity
  8
寸法
 62
     0
 48
50.0
370
    -2
100
AcDbLine
 10
4159.896575106963
 20
10151.9313586596
 30
0.0
 11
3742.926012358486
 21
10151.9313586596
 31
0.0
  0
LINE
  5
18C02
330
18BFC
100
AcDbEntity
  8
寸法
 62
     0
 48
50.0
370
    -2
100
AcDbLine
 10
4214.896575106998
 20
10151.9313586596
 30
0.0
 11
4159.896575106963
 21
10151.9313586596
 31
0.0
  0
INSERT
  5
18C03
330
18BFC
100
AcDbEntity
  8
寸法
 62
     0
 48
50.0
370
    -2
100
AcDbBlockReference
  2
_DOTSMALL
 10
4214.896575106998
 20
10151.9313586596
 30
0.0
 41
100.0
 42
100.0
 43
100.0
 50
180.0
  0
INSERT
  5
18C04
330
18BFC
100
AcDbEntity
  8
寸法
 62
     0
 48
50.0
370
    -2
100
AcDbBlockReference
  2
_DOTSMALL
 10
4159.896575106963
 20
10151.9313586596
 30
0.0
 41
100.0
 42
100.0
 43
100.0
  0
MTEXT
  5
18C05
330
18BFC
100
AcDbEntity
  8
寸法
 62
     7
 48
50.0
100
AcDbMText
 10
3851.411293732725
 20
10251.9313586596
 30
0.0
 40
120.0
 41
0.0
 71
     5
 72
     1
  1
\A1;55
  7
STYLE1
 73
     1
 44
1.0
1001
ACAD
1000
MTEXTBEGIN
1070
    73
1070
     1
1070
    44
1040
1.0
1070
    74
1070
     0
1000
MTEXTEND
  0
POINT
  5
18C06
330
18BFC
100
AcDbEntity
  8
DEFPOINTS
 62
     0
 48
50.0
100
AcDbPoint
 10
4159.896575106963
 20
9636.123139034623
 30
0.0
  0
POINT
  5
18C07
330
18BFC
100
AcDbEntity
  8
DEFPOINTS
 62
     0
 48
50.0
100
AcDbPoint
 10
4214.896575106998
 20
9636.123139034623
 30
0.0
  0
POINT
  5
18C08
330
18BFC
100
AcDbEntity
  8
DEFPOINTS
 62
     0
 48
50.0
100
AcDbPoint
 10
4214.896575106998
 20
10151.9313586596
 30
0.0
  0
ENDBLK
  5
18C09
330
18BFC
100
AcDbEntity
  8
0
 48
50.0
100
AcDbBlockEnd
  0
BLOCK
  5
18C0B
330
18C0A
100
AcDbEntity
  8
0
 48
50.0
100
AcDbBlockBegin
  2
*D8
 70
     1
 10
0.0
 20
0.0
 30
0.0
  3
*D8
  1

  0
LINE
  5
18C0C
330
18C0A
100
AcDbEntity
  8
寸法
 62
     0
 48
50.0
370
    -2
100
AcDbLine
 10
4159.896575106992
 20
7826.123139034546
 30
0.0
 11
4159.896575106992
 21
6804.372203245664
 31
0.0
  0
LINE
  5
18C0D
330
18C0A
100
AcDbEntity
  8
寸法
 62
     0
 48
50.0
370
    -2
100
AcDbLine
 10
7629.896575106974
 20
7826.123139034674
 30
0.0
 11
7629.896575106974
 21
6804.372203245664
 31
0.0
  0
LINE
  5
18C0E
330
18C0A
100
AcDbEntity
  8
寸法
 62
     0
 48
50.0
370
    -2
100
AcDbLine
 10
4159.896575106992
 20
6864.372203245665
 30
0.0
 11
7629.896575106974
 21
6864.372203245665
 31
0.0
  0
INSERT
  5
18C0F
330
18C0A
100
AcDbEntity
  8
寸法
 62
     0
 48
50.0
370
    -2
100
AcDbBlockReference
  2
_DOTSMALL
 10
4159.896575106992
 20
6864.372203245665
 30
0.0
 41
100.0
 42
100.0
 43
100.0
 50
180.0
  0
INSERT
  5
18C10
330
18C0A
100
AcDbEntity
  8
寸法
 62
     0
 48
50.0
370
    -2
100
AcDbBlockReference
  2
_DOTSMALL
 10
7629.896575106974
 20
6864.372203245665
 30
0.0
 41
100.0
 42
100.0
 43
100.0
  0
MTEXT
  5
18C11
330
18C0A
100
AcDbEntity
  8
寸法
 62
     7
 48
50.0
100
AcDbMText
 10
5911.12376113973
 20
6964.372203245665
 30
0.0
 40
120.0
 41
0.0
 71
     5
 72
     1
  1
\A1;3470
  7
STYLE1
 73
     1
 44
1.0
1001
ACAD
1000
MTEXTBEGIN
1070
    73
1070
     1
1070
    44
1040
1.0
1070
    74
1070
     0
1000
MTEXTEND
  0
POINT
  5
18C12
330
18C0A
100
AcDbEntity
  8
DEFPOINTS
 62
     0
 48
50.0
100
AcDbPoint
 10
4159.896575106992
 20
7846.123139034546
 30
0.0
  0
POINT
  5
18C13
330
18C0A
100
AcDbEntity
  8
DEFPOINTS
 62
     0
 48
50.0
100
AcDbPoint
 10
7629.896575106974
 20
7846.123139034673
 30
0.0
  0
POINT
  5
18C14
330
18C0A
100
AcDbEntity
  8
DEFPOINTS
 62
     0
 48
50.0
100
AcDbPoint
 10
7629.896575106974
 20
6864.372203245665
 30
0.0
  0
ENDBLK
  5
18C15
330
18C0A
100
AcDbEntity
  8
0
 48
50.0
100
AcDbBlockEnd
  0
BLOCK
  5
18C17
330
18C16
100
AcDbEntity
  8
0
 48
50.0
100
AcDbBlockBegin
  2
*D9
 70
     1
 10
0.0
 20
0.0
 30
0.0
  3
*D9
  1

  0
LINE
  5
18C18
330
18C16
100
AcDbEntity
  8
寸法
 62
     0
 48
50.0
370
    -2
100
AcDbLine
 10
7649.896575106973
 20
7901.123139034706
 30
0.0
 11
8337.322920841385
 21
7901.123139034706
 31
0.0
  0
LINE
  5
18C19
330
18C16
100
AcDbEntity
  8
寸法
 62
     0
 48
50.0
370
    -2
100
AcDbLine
 10
7649.896575106973
 20
7846.123139034709
 30
0.0
 11
8337.322920841385
 21
7846.123139034709
 31
0.0
  0
LINE
  5
18C1A
330
18C16
100
AcDbEntity
  8
寸法
 62
     0
 48
50.0
370
    -2
100
AcDbLine
 10
8277.322920841385
 20
7901.123139034706
 30
0.0
 11
8277.322920841385
 21
8001.123139034707
 31
0.0
  0
LINE
  5
18C1B
330
18C16
100
AcDbEntity
  8
寸法
 62
     0
 48
50.0
370
    -2
100
AcDbLine
 10
8277.322920841385
 20
7846.123139034709
 30
0.0
 11
8277.322920841385
 21
7429.152576286229
 31
0.0
  0
LINE
  5
18C1C
330
18C16
100
AcDbEntity
  8
寸法
 62
     0
 48
50.0
370
    -2
100
AcDbLine
 10
8277.322920841385
 20
7901.123139034706
 30
0.0
 11
8277.322920841385
 21
7846.123139034709
 31
0.0
  0
INSERT
  5
18C1D
330
18C16
100
AcDbEntity
  8
寸法
 62
     0
 48
50.0
370
    -2
100
AcDbBlockReference
  2
_DOTSMALL
 10
8277.322920841385
 20
7901.123139034706
 30
0.0
 41
100.0
 42
100.0
 43
100.0
 50
270.0
  0
INSERT
  5
18C1E
330
18C16
100
AcDbEntity
  8
寸法
 62
     0
 48
50.0
370
    -2
100
AcDbBlockReference
  2
_DOTSMALL
 10
8277.322920841385
 20
7846.123139034709
 30
0.0
 41
100.0
 42
100.0
 43
100.0
 50
90.0
  0
MTEXT
  5
18C1F
330
18C16
100
AcDbEntity
  8
寸法
 62
     7
 48
50.0
100
AcDbMText
 10
8177.322920841383
 20
7537.637857660469
 30
0.0
 40
120.0
 41
0.0
 71
     5
 72
     1
  1
\A1;55
  7
STYLE1
 11
0.0000000000000001
 21
1.0
 31
0.0
 73
     1
 44
1.0
1001
ACAD
1000
MTEXTBEGIN
1070
    73
1070
     1
1070
    44
1040
1.0
1070
    74
1070
     0
1000
MTEXTEND
  0
POINT
  5
18C20
330
18C16
100
AcDbEntity
  8
DEFPOINTS
 62
     0
 48
50.0
100
AcDbPoint
 10
7629.896575106974
 20
7901.123139034706
 30
0.0
  0
POINT
  5
18C21
330
18C16
100
AcDbEntity
  8
DEFPOINTS
 62
     0
 48
50.0
100
AcDbPoint
 10
7629.896575106974
 20
7846.123139034709
 30
0.0
  0
POINT
  5
18C22
330
18C16
100
AcDbEntity
  8
DEFPOINTS
 62
     0
 48
50.0
100
AcDbPoint
 10
8277.322920841385
 20
7846.123139034709
 30
0.0
  0
ENDBLK
  5
18C23
330
18C16
100
AcDbEntity
  8
0
 48
50.0
100
AcDbBlockEnd
  0
BLOCK
  5
18C25
330
18C24
100
AcDbEntity
  8
0
 48
50.0
100
AcDbBlockBegin
  2
*D10
 70
     1
 10
0.0
 20
0.0
 30
0.0
  3
*D10
  1

  0
LINE
  5
18C26
330
18C24
100
AcDbEntity
  8
寸法
 62
     0
 48
50.0
370
    -2
100
AcDbLine
 10
6533.037591258376
 20
9136.123139034728
 30
0.0
 11
6465.083950562664
 21
8882.516699399049
 31
0.0
  0
LINE
  5
18C27
330
18C24
100
AcDbEntity
  8
寸法
 62
     0
 48
50.0
370
    -2
100
AcDbLine
 10
7596.037591258388
 20
9136.123139034721
 30
0.0
 11
7528.083950562677
 21
8882.516699399049
 31
0.0
  0
LINE
  5
18C28
330
18C24
100
AcDbEntity
  8
寸法
 62
     0
 48
50.0
370
    -2
100
AcDbLine
 10
6481.160902108531
 20
8942.51669939905
 30
0.0
 11
7544.160902108544
 21
8942.51669939905
 31
0.0
  0
INSERT
  5
18C29
330
18C24
100
AcDbEntity
  8
寸法
 62
     0
 48
50.0
370
    -2
100
AcDbBlockReference
  2
_DOTSMALL
 10
6481.160902108531
 20
8942.51669939905
 30
0.0
 41
100.0
 42
100.0
 43
100.0
 50
180.0
  0
INSERT
  5
18C2A
330
18C24
100
AcDbEntity
  8
寸法
 62
     0
 48
50.0
370
    -2
100
AcDbBlockReference
  2
_DOTSMALL
 10
7544.160902108544
 20
8942.51669939905
 30
0.0
 41
100.0
 42
100.0
 43
100.0
  0
MTEXT
  5
18C2B
330
18C24
100
AcDbEntity
  8
寸法
 62
     7
 48
50.0
100
AcDbMText
 10
7061.28653022935
 20
9042.516699399049
 30
0.0
 40
120.0
 41
0.0
 71
     5
 72
     1
  1
\A1;1063
  7
STYLE1
 73
     1
 44
1.0
1001
ACAD
1000
MTEXTBEGIN
1070
    73
1070
     1
1070
    44
1040
1.0
1070
    74
1070
     0
1000
MTEXTEND
  0
POINT
  5
18C2C
330
18C24
100
AcDbEntity
  8
DEFPOINTS
 62
     0
 48
50.0
100
AcDbPoint
 10
6538.396575106998
 20
9156.123139034727
 30
0.0
  0
POINT
  5
18C2D
330
18C24
100
AcDbEntity
  8
DEFPOINTS
 62
     0
 48
50.0
100
AcDbPoint
 10
7601.39657510701
 20
9156.12313903472
 30
0.0
  0
POINT
  5
18C2E
330
18C24
100
AcDbEntity
  8
DEFPOINTS
 62
     0
 48
50.0
100
AcDbPoint
 10
7544.160902108544
 20
8942.51669939905
 30
0.0
  0
ENDBLK
  5
18C2F
330
18C24
100
AcDbEntity
  8
0
 48
50.0
100
AcDbBlockEnd
  0
BLOCK
  5
18C31
330
18C30
100
AcDbEntity
  8
0
 48
50.0
100
AcDbBlockBegin
  2
*D11
 70
     1
 10
0.0
 20
0.0
 30
0.0
  3
*D11
  1

  0
LINE
  5
18C32
330
18C30
100
AcDbEntity
  8
寸法
 62
     0
 48
50.0
370
    -2
100
AcDbLine
 10
7621.396575106999
 20
9600.764155186094
 30
0.0
 11
8016.754300969024
 21
9494.828371819961
 31
0.0
  0
LINE
  5
18C33
330
18C30
100
AcDbEntity
  8
寸法
 62
     0
 48
50.0
370
    -2
100
AcDbLine
 10
7621.396575106999
 20
9150.764155186099
 30
0.0
 11
8016.754300969024
 21
9044.828371819964
 31
0.0
  0
LINE
  5
18C34
330
18C30
100
AcDbEntity
  8
寸法
 62
     0
 48
50.0
370
    -2
100
AcDbLine
 10
7956.754300969024
 20
9510.905323365827
 30
0.0
 11
7956.754300969024
 21
9060.90532336583
 31
0.0
  0
INSERT
  5
18C35
330
18C30
100
AcDbEntity
  8
寸法
 62
     0
 48
50.0
370
    -2
100
AcDbBlockReference
  2
_DOTSMALL
 10
7956.754300969024
 20
9510.905323365827
 30
0.0
 41
100.0
 42
100.0
 43
100.0
 50
90.0
  0
INSERT
  5
18C36
330
18C30
100
AcDbEntity
  8
寸法
 62
     0
 48
50.0
370
    -2
100
AcDbBlockReference
  2
_DOTSMALL
 10
7956.754300969024
 20
9060.90532336583
 30
0.0
 41
100.0
 42
100.0
 43
100.0
 50
270.0
  0
MTEXT
  5
18C37
330
18C30
100
AcDbEntity
  8
寸法
 62
     7
 48
50.0
100
AcDbMText
 10
7856.754300969022
 20
9285.905323365829
 30
0.0
 40
120.0
 41
0.0
 71
     5
 72
     1
  1
\A1;450
  7
STYLE1
 11
0.0000000000000001
 21
1.0
 31
0.0
 73
     1
 44
1.0
1001
ACAD
1000
MTEXTBEGIN
1070
    73
1070
     1
1070
    44
1040
1.0
1070
    74
1070
     0
1000
MTEXTEND
  0
POINT
  5
18C38
330
18C30
100
AcDbEntity
  8
DEFPOINTS
 62
     0
 48
50.0
100
AcDbPoint
 10
7601.396575106999
 20
9606.123139034718
 30
0.0
  0
POINT
  5
18C39
330
18C30
100
AcDbEntity
  8
DEFPOINTS
 62
     0
 48
50.0
100
AcDbPoint
 10
7601.396575106999
 20
9156.12313903472
 30
0.0
  0
POINT
  5
18C3A
330
18C30
100
AcDbEntity
  8
DEFPOINTS
 62
     0
 48
50.0
100
AcDbPoint
 10
7956.754300969024
 20
9060.90532336583
 30
0.0
  0
ENDBLK
  5
18C3B
330
18C30
100
AcDbEntity
  8
0
 48
50.0
100
AcDbBlockEnd
  0
BLOCK
  5
18C3D
330
18C3C
100
AcDbEntity
  8
0
 48
50.0
100
AcDbBlockBegin
  2
*D12
 70
     1
 10
0.0
 20
0.0
 30
0.0
  3
*D12
  1

  0
LINE
  5
18C3E
330
18C3C
100
AcDbEntity
  8
寸法
 62
     0
 48
50.0
370
    -2
100
AcDbLine
 10
7649.896575106999
 20
9581.123139034721
 30
0.0
 11
8337.32292084141
 21
9581.123139034721
 31
0.0
  0
LINE
  5
18C3F
330
18C3C
100
AcDbEntity
  8
寸法
 62
     0
 48
50.0
370
    -2
100
AcDbLine
 10
7649.896575106973
 20
7901.123139034706
 30
0.0
 11
8337.32292084141
 21
7901.123139034706
 31
0.0
  0
LINE
  5
18C40
330
18C3C
100
AcDbEntity
  8
寸法
 62
     0
 48
50.0
370
    -2
100
AcDbLine
 10
8277.322920841411
 20
9581.123139034721
 30
0.0
 11
8277.322920841411
 21
7901.123139034706
 31
0.0
  0
INSERT
  5
18C41
330
18C3C
100
AcDbEntity
  8
寸法
 62
     0
 48
50.0
370
    -2
100
AcDbBlockReference
  2
_DOTSMALL
 10
8277.322920841411
 20
9581.123139034721
 30
0.0
 41
100.0
 42
100.0
 43
100.0
 50
90.0
  0
INSERT
  5
18C42
330
18C3C
100
AcDbEntity
  8
寸法
 62
     0
 48
50.0
370
    -2
100
AcDbBlockReference
  2
_DOTSMALL
 10
8277.322920841411
 20
7901.123139034706
 30
0.0
 41
100.0
 42
100.0
 43
100.0
 50
270.0
  0
MTEXT
  5
18C43
330
18C3C
100
AcDbEntity
  8
寸法
 62
     7
 48
50.0
100
AcDbMText
 10
8177.311109817788
 20
8741.123139034712
 30
0.0
 40
120.0
 41
0.0
 71
     5
 72
     1
  1
\A1;4X420=1680
  7
STYLE1
 11
0.0000000000000001
 21
1.0
 31
0.0
 73
     1
 44
1.0
1001
ACAD
1000
MTEXTBEGIN
1070
    73
1070
     1
1070
    44
1040
1.0
1070
    74
1070
     0
1000
MTEXTEND
  0
POINT
  5
18C44
330
18C3C
100
AcDbEntity
  8
DEFPOINTS
 62
     0
 48
50.0
100
AcDbPoint
 10
7629.896575106998
 20
9581.123139034721
 30
0.0
  0
POINT
  5
18C45
330
18C3C
100
AcDbEntity
  8
DEFPOINTS
 62
     0
 48
50.0
100
AcDbPoint
 10
7629.896575106974
 20
7901.123139034706
 30
0.0
  0
POINT
  5
18C46
330
18C3C
100
AcDbEntity
  8
DEFPOINTS
 62
     0
 48
50.0
100
AcDbPoint
 10
8277.322920841411
 20
7901.123139034706
 30
0.0
  0
ENDBLK
  5
18C47
330
18C3C
100
AcDbEntity
  8
0
 48
50.0
100
AcDbBlockEnd
  0
BLOCK
  5
18C49
330
18C48
100
AcDbEntity
  8
0
 48
50.0
100
AcDbBlockBegin
  2
*D13
 70
     1
 10
0.0
 20
0.0
 30
0.0
  3
*D13
  1

  0
LINE
  5
18C4A
330
18C48
100
AcDbEntity
  8
寸法
 62
     0
 48
50.0
370
    -2
100
AcDbLine
 10
4183.037591258377
 20
9136.123139034619
 30
0.0
 11
4115.083950562663
 21
8882.516699398941
 31
0.0
  0
LINE
  5
18C4B
330
18C48
100
AcDbEntity
  8
寸法
 62
     0
 48
50.0
370
    -2
100
AcDbLine
 10
5246.037591258307
 20
9136.123139034671
 30
0.0
 11
5178.08395056258
 21
8882.516699398941
 31
0.0
  0
LINE
  5
18C4C
330
18C48
100
AcDbEntity
  8
寸法
 62
     0
 48
50.0
370
    -2
100
AcDbLine
 10
4131.160902108532
 20
8942.516699398941
 30
0.0
 11
5194.160902108448
 21
8942.516699398941
 31
0.0
  0
INSERT
  5
18C4D
330
18C48
100
AcDbEntity
  8
寸法
 62
     0
 48
50.0
370
    -2
100
AcDbBlockReference
  2
_DOTSMALL
 10
4131.160902108532
 20
8942.516699398941
 30
0.0
 41
100.0
 42
100.0
 43
100.0
 50
180.0
  0
INSERT
  5
18C4E
330
18C48
100
AcDbEntity
  8
寸法
 62
     0
 48
50.0
370
    -2
100
AcDbBlockReference
  2
_DOTSMALL
 10
5194.160902108448
 20
8942.516699398941
 30
0.0
 41
100.0
 42
100.0
 43
100.0
  0
MTEXT
  5
18C4F
330
18C48
100
AcDbEntity
  8
寸法
 62
     7
 48
50.0
100
AcDbMText
 10
4658.986452655306
 20
9042.516699398941
 30
0.0
 40
120.0
 41
0.0
 71
     5
 72
     1
  1
\A1;1063
  7
STYLE1
 73
     1
 44
1.0
1001
ACAD
1000
MTEXTBEGIN
1070
    73
1070
     1
1070
    44
1040
1.0
1070
    74
1070
     0
1000
MTEXTEND
  0
POINT
  5
18C50
330
18C48
100
AcDbEntity
  8
DEFPOINTS
 62
     0
 48
50.0
100
AcDbPoint
 10
4188.396575106999
 20
9156.123139034617
 30
0.0
  0
POINT
  5
18C51
330
18C48
100
AcDbEntity
  8
DEFPOINTS
 62
     0
 48
50.0
100
AcDbPoint
 10
5251.396575106929
 20
9156.123139034672
 30
0.0
  0
POINT
  5
18C52
330
18C48
100
AcDbEntity
  8
DEFPOINTS
 62
     0
 48
50.0
100
AcDbPoint
 10
5194.160902108448
 20
8942.516699398941
 30
0.0
  0
ENDBLK
  5
18C53
330
18C48
100
AcDbEntity
  8
0
 48
50.0
100
AcDbBlockEnd
  0
BLOCK
  5
18C55
330
18C54
100
AcDbEntity
  8
0
 48
50.0
100
AcDbBlockBegin
  2
*D14
 70
     1
 10
0.0
 20
0.0
 30
0.0
  3
*D14
  1

  0
LINE
  5
18C56
330
18C54
100
AcDbEntity
  8
寸法
 62
     0
 48
50.0
370
    -2
100
AcDbLine
 10
5274.037591258307
 20
9136.123139034669
 30
0.0
 11
5206.08395056258
 21
8882.516699398941
 31
0.0
  0
LINE
  5
18C57
330
18C54
100
AcDbEntity
  8
寸法
 62
     0
 48
50.0
370
    -2
100
AcDbLine
 10
6505.037591258377
 20
9136.123139034662
 30
0.0
 11
6437.083950562653
 21
8882.516699398941
 31
0.0
  0
LINE
  5
18C58
330
18C54
100
AcDbEntity
  8
寸法
 62
     0
 48
50.0
370
    -2
100
AcDbLine
 10
5222.160902108448
 20
8942.516699398941
 30
0.0
 11
6453.16090210852
 21
8942.516699398941
 31
0.0
  0
INSERT
  5
18C59
330
18C54
100
AcDbEntity
  8
寸法
 62
     0
 48
50.0
370
    -2
100
AcDbBlockReference
  2
_DOTSMALL
 10
5222.160902108448
 20
8942.516699398941
 30
0.0
 41
100.0
 42
100.0
 43
100.0
 50
180.0
  0
INSERT
  5
18C5A
330
18C54
100
AcDbEntity
  8
寸法
 62
     0
 48
50.0
370
    -2
100
AcDbBlockReference
  2
_DOTSMALL
 10
6453.16090210852
 20
8942.516699398941
 30
0.0
 41
100.0
 42
100.0
 43
100.0
  0
MTEXT
  5
18C5B
330
18C54
100
AcDbEntity
  8
寸法
 62
     7
 48
50.0
100
AcDbMText
 10
6081.244808320626
 20
9042.528510422561
 30
0.0
 40
120.0
 41
0.0
 71
     5
 72
     1
  1
\A1;1231
  7
STYLE1
 73
     1
 44
1.0
1001
ACAD
1000
MTEXTBEGIN
1070
    73
1070
     1
1070
    44
1040
1.0
1070
    74
1070
     0
1000
MTEXTEND
  0
POINT
  5
18C5C
330
18C54
100
AcDbEntity
  8
DEFPOINTS
 62
     0
 48
50.0
100
AcDbPoint
 10
5279.396575106929
 20
9156.123139034669
 30
0.0
  0
POINT
  5
18C5D
330
18C54
100
AcDbEntity
  8
DEFPOINTS
 62
     0
 48
50.0
100
AcDbPoint
 10
6510.396575106999
 20
9156.123139034662
 30
0.0
  0
POINT
  5
18C5E
330
18C54
100
AcDbEntity
  8
DEFPOINTS
 62
     0
 48
50.0
100
AcDbPoint
 10
6453.16090210852
 20
8942.516699398941
 30
0.0
  0
ENDBLK
  5
18C5F
330
18C54
100
AcDbEntity
  8
0
 48
50.0
100
AcDbBlockEnd
  0
BLOCK
  5
18C61
330
18C60
100
AcDbEntity
  8
0
 48
50.0
100
AcDbBlockBegin
  2
*D15
 70
     1
 10
0.0
 20
0.0
 30
0.0
  3
*D15
  1

  0
LINE
  5
18C62
330
18C60
100
AcDbEntity
  8
寸法
 62
     0
 48
50.0
370
    -2
100
AcDbLine
 10
5065.896575106966
 20
7749.123139034579
 30
0.0
 11
5065.896575106966
 21
7099.952920982538
 31
0.0
  0
LINE
  5
18C63
330
18C60
100
AcDbEntity
  8
寸法
 62
     0
 48
50.0
370
    -2
100
AcDbLine
 10
6331.896575106966
 20
7749.123139034579
 30
0.0
 11
6331.896575106966
 21
7099.952920982538
 31
0.0
  0
LINE
  5
18C64
330
18C60
100
AcDbEntity
  8
寸法
 62
     0
 48
50.0
370
    -2
100
AcDbLine
 10
5065.896575106966
 20
7159.952920982537
 30
0.0
 11
6331.896575106966
 21
7159.952920982537
 31
0.0
  0
INSERT
  5
18C65
330
18C60
100
AcDbEntity
  8
寸法
 62
     0
 48
50.0
370
    -2
100
AcDbBlockReference
  2
_DOTSMALL
 10
5065.896575106966
 20
7159.952920982537
 30
0.0
 41
100.0
 42
100.0
 43
100.0
 50
180.0
  0
INSERT
  5
18C66
330
18C60
100
AcDbEntity
  8
寸法
 62
     0
 48
50.0
370
    -2
100
AcDbBlockReference
  2
_DOTSMALL
 10
6331.896575106966
 20
7159.952920982537
 30
0.0
 41
100.0
 42
100.0
 43
100.0
  0
MTEXT
  5
18C67
330
18C60
100
AcDbEntity
  8
寸法
 62
     7
 48
50.0
100
AcDbMText
 10
5711.986008735934
 20
7359.964732006159
 30
0.0
 40
120.0
 41
0.0
 71
     5
 72
     1
  1
\A1;有効開口部間口\P1266
  7
STYLE1
 73
     1
 44
1.0
1001
ACAD
1000
MTEXTBEGIN
1070
    73
1070
     1
1070
    44
1040
1.0
1070
    74
1070
     0
1000
MTEXTEND
  0
POINT
  5
18C68
330
18C60
100
AcDbEntity
  8
DEFPOINTS
 62
     0
 48
50.0
100
AcDbPoint
 10
5065.896575106966
 20
7769.123139034579
 30
0.0
  0
POINT
  5
18C69
330
18C60
100
AcDbEntity
  8
DEFPOINTS
 62
     0
 48
50.0
100
AcDbPoint
 10
6331.896575106966
 20
7769.123139034579
 30
0.0
  0
POINT
  5
18C6A
330
18C60
100
AcDbEntity
  8
DEFPOINTS
 62
     0
 48
50.0
100
AcDbPoint
 10
6331.896575106966
 20
7159.952920982537
 30
0.0
  0
ENDBLK
  5
18C6B
330
18C60
100
AcDbEntity
  8
0
 48
50.0
100
AcDbBlockEnd
  0
BLOCK
  5
18C6D
330
18C6C
100
AcDbEntity
  8
0
 48
50.0
100
AcDbBlockBegin
  2
*D16
 70
     1
 10
0.0
 20
0.0
 30
0.0
  3
*D16
  1

  0
LINE
  5
18C6E
330
18C6C
100
AcDbEntity
  8
寸法
 62
     0
 48
50.0
370
    -2
100
AcDbLine
 10
7200.896575106966
 20
7846.123139034578
 30
0.0
 11
7457.192158500191
 21
7846.123139034578
 31
0.0
  0
LINE
  5
18C6F
330
18C6C
100
AcDbEntity
  8
寸法
 62
     0
 48
50.0
370
    -2
100
AcDbLine
 10
7199.896575106966
 20
7769.123139034579
 30
0.0
 11
7457.192158500191
 21
7769.123139034579
 31
0.0
  0
LINE
  5
18C70
330
18C6C
100
AcDbEntity
  8
寸法
 62
     0
 48
50.0
370
    -2
100
AcDbLine
 10
7417.192158500192
 20
7866.123139034579
 30
0.0
 11
7417.192158500192
 21
7886.123139034578
 31
0.0
  0
LINE
  5
18C71
330
18C6C
100
AcDbEntity
  8
寸法
 62
     0
 48
50.0
370
    -2
100
AcDbLine
 10
7417.192158500192
 20
7749.123139034579
 30
0.0
 11
7417.192158500192
 21
7533.123139034573
 31
0.0
  0
LINE
  5
18C72
330
18C6C
100
AcDbEntity
  8
寸法
 62
     0
 48
50.0
370
    -2
100
AcDbLine
 10
7417.192158500192
 20
7846.123139034578
 30
0.0
 11
7417.192158500192
 21
7769.123139034579
 31
0.0
  0
INSERT
  5
18C73
330
18C6C
100
AcDbEntity
  8
寸法
 62
     0
 48
50.0
370
    -2
100
AcDbBlockReference
  2
_DOT
 10
7417.192158500192
 20
7846.123139034578
 30
0.0
 41
20.0
 42
20.0
 43
20.0
 50
270.0
  0
INSERT
  5
18C74
330
18C6C
100
AcDbEntity
  8
寸法
 62
     0
 48
50.0
370
    -2
100
AcDbBlockReference
  2
_DOT
 10
7417.192158500192
 20
7769.123139034579
 30
0.0
 41
20.0
 42
20.0
 43
20.0
 50
90.0
  0
MTEXT
  5
18C75
330
18C6C
100
AcDbEntity
  8
寸法
 62
     7
 48
50.0
100
AcDbMText
 10
7325.192158500191
 20
7631.123139034575
 30
0.0
 40
120.0
 41
0.0
 71
     5
 72
     1
  1
\A1;77
  7
STYLE1
 11
0.0000000000000001
 21
1.0
 31
0.0
 73
     1
 44
1.0
1001
ACAD
1000
MTEXTBEGIN
1070
    73
1070
     1
1070
    44
1040
1.0
1070
    74
1070
     0
1000
MTEXTEND
  0
POINT
  5
18C76
330
18C6C
100
AcDbEntity
  8
DEFPOINTS
 62
     0
 48
50.0
100
AcDbPoint
 10
7180.896575106967
 20
7846.123139034578
 30
0.0
  0
POINT
  5
18C77
330
18C6C
100
AcDbEntity
  8
DEFPOINTS
 62
     0
 48
50.0
100
AcDbPoint
 10
7179.896575106965
 20
7769.123139034579
 30
0.0
  0
POINT
  5
18C78
330
18C6C
100
AcDbEntity
  8
DEFPOINTS
 62
     0
 48
50.0
100
AcDbPoint
 10
7417.192158500192
 20
7769.123139034579
 30
0.0
  0
ENDBLK
  5
18C79
330
18C6C
100
AcDbEntity
  8
0
 48
50.0
100
AcDbBlockEnd
  0
BLOCK
  5
18DA0
330
18C7A
100
AcDbEntity
  8
0
 48
50.0
100
AcDbBlockBegin
  2
A$C3B1A506B
 70
     0
 10
0.0
 20
0.0
 30
0.0
  3
A$C3B1A506B
  1

  0
MTEXT
  5
18C7B
330
18C7A
100
AcDbEntity
  8
寸法
 62
     7
 48
50.0
100
AcDbMText
 10
3342.250386887194
 20
2778.329429134012
 30
0.0
 40
96.0
 41
0.0
 71
     5
 72
     1
  1
棚 2段
  7
STYLE1
 73
     1
 44
1.0
1001
ACAD
1000
MTEXTBEGIN
1070
    73
1070
     1
1070
    44
1040
1.0
1070
    74
1070
     0
1000
MTEXTEND
  0
MTEXT
  5
18C7C
330
18C7A
100
AcDbEntity
  8
寸法
 62
     7
 48
50.0
100
AcDbMText
 10
2167.25038688716
 20
2778.329429133986
 30
0.0
 40
96.0
 41
0.0
 71
     5
 72
     1
  1
棚 2段
  7
STYLE1
 73
     1
 44
1.0
1001
ACAD
1000
MTEXTBEGIN
1070
    73
1070
     1
1070
    44
1040
1.0
1070
    74
1070
     0
1000
MTEXTEND
  0
MTEXT
  5
18C7D
330
18C7A
100
AcDbEntity
  8
寸法
 62
     7
 48
50.0
100
AcDbMText
 10
992.2503868871608
 20
2778.329429133935
 30
0.0
 40
96.0
 41
0.0
 71
     5
 72
     1
  1
棚 2段
  7
STYLE1
 73
     1
 44
1.0
1001
ACAD
1000
MTEXTBEGIN
1070
    73
1070
     1
1070
    44
1040
1.0
1070
    74
1070
     0
1000
MTEXTEND
  0
LINE
  5
18C7E
330
18C7A
100
AcDbEntity
  8
細線
 48
50.0
100
AcDbLine
 10
2771.970589276527
 20
1368.994384123192
 30
0.0
 11
3398.970589276523
 21
1368.994384123192
 31
0.0
  0
LINE
  5
18C7F
330
18C7A
100
AcDbEntity
  8
細線
 48
50.0
100
AcDbLine
 10
2117.970593930113
 20
1335.285615569113
 30
0.0
 11
3398.970589276523
 21
1335.285615569113
 31
0.0
  0
LINE
  5
18C80
330
18C7A
100
AcDbEntity
  8
細線
 48
50.0
100
AcDbLine
 10
2076.970593930115
 20
1364.690523565368
 30
0.0
 11
1322.970589276523
 21
1364.690523565367
 31
0.0
  0
LINE
  5
18C81
330
18C7A
100
AcDbEntity
  8
細線
100
AcDbLine
 10
3170.720579860066
 20
1388.494284088199
 30
0.0
 11
3173.052119381877
 21
1393.494286728162
 31
0.0
  0
LINE
  5
18C82
330
18C7A
100
AcDbEntity
  8
細線
100
AcDbLine
 10
3240.720589276525
 20
1388.494269174465
 30
0.0
 11
3238.389042800336
 21
1393.494286728144
 31
0.0
  0
LINE
  5
18C83
330
18C7A
100
AcDbEntity
  8
細線
100
AcDbLine
 10
3238.389042800336
 20
1393.494286728144
 30
0.0
 11
3173.052119381862
 21
1393.494286728133
 31
0.0
  0
LINE
  5
18C84
330
18C7A
100
AcDbEntity
  8
細線
100
AcDbLine
 10
3098.389042800336
 20
1393.494286728144
 30
0.0
 11
3033.052119381862
 21
1393.494286728133
 31
0.0
  0
LINE
  5
18C85
330
18C7A
100
AcDbEntity
  8
細線
100
AcDbLine
 10
3100.720589276523
 20
1388.494269174465
 30
0.0
 11
3098.389042800336
 21
1393.494286728144
 31
0.0
  0
LINE
  5
18C86
330
18C7A
100
AcDbEntity
  8
細線
100
AcDbLine
 10
3030.720579860066
 20
1388.494284088199
 30
0.0
 11
3033.052119381875
 21
1393.494286728162
 31
0.0
  0
LINE
  5
18C87
330
18C7A
100
AcDbEntity
  8
細線
100
AcDbLine
 10
2890.720589276525
 20
1388.494269174465
 30
0.0
 11
2893.052128798336
 21
1393.494271814428
 31
0.0
  0
LINE
  5
18C88
330
18C7A
100
AcDbEntity
  8
細線
100
AcDbLine
 10
2960.720598692984
 20
1388.494254260731
 30
0.0
 11
2958.389052216793
 21
1393.49427181441
 31
0.0
  0
LINE
  5
18C89
330
18C7A
100
AcDbEntity
  8
細線
100
AcDbLine
 10
2958.389052216795
 20
1393.49427181441
 30
0.0
 11
2893.052128798321
 21
1393.494271814399
 31
0.0
  0
LINE
  5
18C8A
330
18C7A
100
AcDbEntity
  8
細線
100
AcDbLine
 10
2667.139038146739
 20
1359.494298590735
 30
0.0
 11
2601.802114728263
 21
1359.494298590724
 31
0.0
  0
LINE
  5
18C8B
330
18C7A
100
AcDbEntity
  8
細線
100
AcDbLine
 10
2669.470584622926
 20
1354.494281037055
 30
0.0
 11
2667.139038146737
 21
1359.494298590735
 31
0.0
  0
LINE
  5
18C8C
330
18C7A
100
AcDbEntity
  8
細線
100
AcDbLine
 10
2599.470575206469
 20
1354.49429595079
 30
0.0
 11
2601.802114728278
 21
1359.494298590752
 31
0.0
  0
LINE
  5
18C8D
330
18C7A
100
AcDbEntity
  8
細線
 48
50.0
100
AcDbLine
 10
2440.853968524536
 20
1372.765132327548
 30
0.0
 11
2446.609486107205
 21
1354.494281037057
 31
0.0
  0
LINE
  5
18C8E
330
18C7A
100
AcDbEntity
  8
細線
 48
50.0
100
AcDbLine
 10
2429.925520044106
 20
1372.765132327546
 30
0.0
 11
2440.853968524536
 21
1372.765132327548
 31
0.0
  0
ARC
  5
18C8F
330
18C7A
100
AcDbEntity
  8
細線
 48
50.0
100
AcDbCircle
 10
2424.471163986787
 20
1374.265132327546
 30
0.0
 40
5.0
100
AcDbArc
 50
204.6243183520723
 51
335.3756816479278
  0
ARC
  5
18C90
330
18C7A
100
AcDbEntity
  8
細線
 48
50.0
100
AcDbCircle
 10
2429.925520044106
 20
1371.765132327546
 30
0.0
 40
1.0
100
AcDbArc
 50
90.0
 51
155.3756816479277
  0
ARC
  5
18C91
330
18C7A
100
AcDbEntity
  8
細線
 48
50.0
100
AcDbCircle
 10
2419.016807929469
 20
1371.765132327546
 30
0.0
 40
1.0
100
AcDbArc
 50
24.62431835207225
 51
90.0
  0
LINE
  5
18C92
330
18C7A
100
AcDbEntity
  8
細線
 48
50.0
100
AcDbLine
 10
2408.088359449037
 20
1372.765132327548
 30
0.0
 11
2419.016807929469
 21
1372.765132327546
 31
0.0
  0
LINE
  5
18C93
330
18C7A
100
AcDbEntity
  8
細線
 48
50.0
100
AcDbLine
 10
2402.33284186637
 20
1354.494281037054
 30
0.0
 11
2408.088359449037
 21
1372.765132327548
 31
0.0
  0
LINE
  5
18C94
330
18C7A
100
AcDbEntity
  8
細線
100
AcDbLine
 10
2458.070304175992
 20
1354.494278397076
 30
0.0
 11
2460.401843697802
 21
1359.494281037039
 31
0.0
  0
LINE
  5
18C95
330
18C7A
100
AcDbEntity
  8
細線
100
AcDbLine
 10
2528.070313592451
 20
1354.494263483342
 30
0.0
 11
2525.738767116262
 21
1359.494281037021
 31
0.0
  0
LINE
  5
18C96
330
18C7A
100
AcDbEntity
  8
細線
100
AcDbLine
 10
2525.738767116262
 20
1359.494281037021
 30
0.0
 11
2460.40184369779
 21
1359.49428103701
 31
0.0
  0
LINE
  5
18C97
330
18C7A
100
AcDbEntity
  8
細線
100
AcDbLine
 10
2387.139046332155
 20
1359.494281037021
 30
0.0
 11
2321.80212291368
 21
1359.49428103701
 31
0.0
  0
LINE
  5
18C98
330
18C7A
100
AcDbEntity
  8
細線
100
AcDbLine
 10
2389.470592808342
 20
1354.494263483342
 30
0.0
 11
2387.139046332153
 21
1359.494281037021
 31
0.0
  0
LINE
  5
18C99
330
18C7A
100
AcDbEntity
  8
細線
100
AcDbLine
 10
2319.470584622926
 20
1354.494281037054
 30
0.0
 11
2321.802122913694
 21
1359.494281037039
 31
0.0
  0
LINE
  5
18C9A
330
18C7A
100
AcDbEntity
  8
細線
100
AcDbLine
 10
2179.47061994182
 20
1354.494289224422
 30
0.0
 11
2181.802158232587
 21
1359.494289224407
 31
0.0
  0
LINE
  5
18C9B
330
18C7A
100
AcDbEntity
  8
細線
100
AcDbLine
 10
2249.470628127236
 20
1354.49427167071
 30
0.0
 11
2247.139081651047
 21
1359.494289224389
 31
0.0
  0
LINE
  5
18C9C
330
18C7A
100
AcDbEntity
  8
細線
100
AcDbLine
 10
2247.139081651047
 20
1359.494289224389
 30
0.0
 11
2181.802158232573
 21
1359.494289224378
 31
0.0
  0
LINE
  5
18C9D
330
18C7A
100
AcDbEntity
  8
細線
100
AcDbLine
 10
1807.970585744697
 20
1320.494460905133
 30
0.0
 11
1810.302124035464
 21
1325.494460905118
 31
0.0
  0
LINE
  5
18C9E
330
18C7A
100
AcDbEntity
  8
細線
100
AcDbLine
 10
1877.970593930113
 20
1320.494443351421
 30
0.0
 11
1875.639047453926
 21
1325.4944609051
 31
0.0
  0
LINE
  5
18C9F
330
18C7A
100
AcDbEntity
  8
細線
100
AcDbLine
 10
1875.639047453926
 20
1325.4944609051
 30
0.0
 11
1810.302124035452
 21
1325.494460905089
 31
0.0
  0
LINE
  5
18CA0
330
18C7A
100
AcDbEntity
  8
細線
100
AcDbLine
 10
2015.639047453926
 20
1325.4944609051
 30
0.0
 11
1950.302124035452
 21
1325.494460905089
 31
0.0
  0
LINE
  5
18CA1
330
18C7A
100
AcDbEntity
  8
細線
100
AcDbLine
 10
2017.970593930113
 20
1320.494443351421
 30
0.0
 11
2015.639047453924
 21
1325.4944609051
 31
0.0
  0
LINE
  5
18CA2
330
18C7A
100
AcDbEntity
  8
細線
100
AcDbLine
 10
1947.970585744697
 20
1320.494460905133
 30
0.0
 11
1950.302124035465
 21
1325.494460905118
 31
0.0
  0
LINE
  5
18CA3
330
18C7A
100
AcDbEntity
  8
細線
100
AcDbLine
 10
1735.639047453926
 20
1325.494460905098
 30
0.0
 11
1670.302124035454
 21
1325.494460905087
 31
0.0
  0
LINE
  5
18CA4
330
18C7A
100
AcDbEntity
  8
細線
100
AcDbLine
 10
1737.970593930113
 20
1320.494443351419
 30
0.0
 11
1735.639047453926
 21
1325.494460905098
 31
0.0
  0
LINE
  5
18CA5
330
18C7A
100
AcDbEntity
  8
細線
100
AcDbLine
 10
1667.970585744697
 20
1320.494460905131
 30
0.0
 11
1670.302124035465
 21
1325.494460905116
 31
0.0
  0
LINE
  5
18CA6
330
18C7A
100
AcDbEntity
  8
細線
100
AcDbLine
 10
1527.970593930113
 20
1320.494460905133
 30
0.0
 11
1530.302132220881
 21
1325.494460905118
 31
0.0
  0
LINE
  5
18CA7
330
18C7A
100
AcDbEntity
  8
細線
100
AcDbLine
 10
1597.970602115529
 20
1320.494443351421
 30
0.0
 11
1595.639055639342
 21
1325.4944609051
 31
0.0
  0
LINE
  5
18CA8
330
18C7A
100
AcDbEntity
  8
細線
100
AcDbLine
 10
1595.639055639342
 20
1325.4944609051
 30
0.0
 11
1530.302132220869
 21
1325.494460905089
 31
0.0
  0
ARC
  5
18CA9
330
18C7A
100
AcDbEntity
  8
部品1
 48
0.01
100
AcDbCircle
 10
1483.470482677778
 20
1319.493338720063
 30
0.0
 40
0.5
100
AcDbArc
 50
270.0
 51
0.0
  0
LINE
  5
18CAA
330
18C7A
100
AcDbEntity
  8
部品1
 48
0.01
100
AcDbLine
 10
1483.970482677778
 20
1320.493338720063
 30
0.0
 11
1483.970482677778
 21
1319.493338720063
 31
0.0
  0
LINE
  5
18CAB
330
18C7A
100
AcDbEntity
  8
部品1
 48
0.01
100
AcDbLine
 10
1483.970482677778
 20
1320.493338720063
 30
0.0
 11
1483.970482677778
 21
1319.493338720063
 31
0.0
  0
LINE
  5
18CAC
330
18C7A
100
AcDbEntity
  8
部品1
 48
0.01
100
AcDbLine
 10
1483.470482677778
 20
1318.993338720063
 30
0.0
 11
1476.857977247713
 21
1318.993338720062
 31
0.0
  0
ARC
  5
18CAD
330
18C7A
100
AcDbEntity
  8
部品1
100
AcDbCircle
 10
1476.926326800494
 20
1319.993338720062
 30
0.0
 40
1.0
100
AcDbArc
 50
160.5287793655865
 51
270.0
  0
ARC
  5
18CAE
330
18C7A
100
AcDbEntity
  8
部品1
100
AcDbCircle
 10
1451.470482677778
 20
1328.993338720062
 30
0.0
 40
26.0
100
AcDbArc
 50
340.5287793655865
 51
0.0
  0
LINE
  5
18CAF
330
18C7A
100
AcDbEntity
  8
部品1
100
AcDbLine
 10
1477.470482677778
 20
1328.993338720062
 30
0.0
 11
1477.470482677778
 21
1333.993338720061
 31
0.0
  0
ARC
  5
18CB0
330
18C7A
100
AcDbEntity
  8
部品1
 48
0.01
100
AcDbCircle
 10
1475.470482677778
 20
1333.993338720061
 30
0.0
 40
2.0
100
AcDbArc
 50
0.0
 51
90.0
  0
ARC
  5
18CB1
330
18C7A
100
AcDbEntity
  8
部品1
100
AcDbCircle
 10
1473.862091052968
 20
1332.993338720062
 30
0.0
 40
3.0
100
AcDbArc
 50
90.0
 51
141.6069559808035
  0
LINE
  5
18CB2
330
18C7A
100
AcDbEntity
  8
部品1
 48
0.01
100
AcDbLine
 10
1475.470482677778
 20
1335.993338720062
 30
0.0
 11
1473.862091052968
 21
1335.993338720062
 31
0.0
  0
ARC
  5
18CB3
330
18C7A
100
AcDbEntity
  8
部品1
100
AcDbCircle
 10
1455.399768463507
 20
1332.293338720065
 30
0.0
 40
3.0
100
AcDbArc
 50
254.0576313943215
 51
270.0
  0
ARC
  5
18CB4
330
18C7A
100
AcDbEntity
  8
部品1
100
AcDbCircle
 10
1462.541196892049
 20
1332.293338720065
 30
0.0
 40
3.0
100
AcDbArc
 50
270.0
 51
285.9423686056786
  0
LINE
  5
18CB5
330
18C7A
100
AcDbEntity
  8
部品1
100
AcDbLine
 10
1462.541196892049
 20
1329.293338720064
 30
0.0
 11
1455.399768463507
 21
1329.293338720064
 31
0.0
  0
ARC
  5
18CB6
330
18C7A
100
AcDbEntity
  8
部品1
100
AcDbCircle
 10
1458.970482677778
 20
1344.793338720065
 30
0.0
 40
16.0
100
AcDbArc
 50
285.9423686056786
 51
321.6069559808035
  0
LINE
  5
18CB7
330
18C7A
100
AcDbEntity
  8
部品1
 48
0.01
100
AcDbLine
 10
1442.470482677778
 20
1335.993338720062
 30
0.0
 11
1444.078874302588
 21
1335.993338720062
 31
0.0
  0
ARC
  5
18CB8
330
18C7A
100
AcDbEntity
  8
部品1
100
AcDbCircle
 10
1444.078874302588
 20
1332.993338720062
 30
0.0
 40
3.0
100
AcDbArc
 50
38.39304401919648
 51
90.0
  0
ARC
  5
18CB9
330
18C7A
100
AcDbEntity
  8
部品1
100
AcDbCircle
 10
1458.970482677778
 20
1344.793338720065
 30
0.0
 40
16.0
100
AcDbArc
 50
218.3930440191965
 51
254.0576313943215
  0
LINE
  5
18CBA
330
18C7A
100
AcDbEntity
  8
部品1
100
AcDbLine
 10
1440.470482677778
 20
1328.993338720062
 30
0.0
 11
1440.470482677778
 21
1333.993338720061
 31
0.0
  0
ARC
  5
18CBB
330
18C7A
100
AcDbEntity
  8
部品1
 48
0.01
100
AcDbCircle
 10
1442.470482677778
 20
1333.993338720061
 30
0.0
 40
2.0
100
AcDbArc
 50
90.0
 51
180.0
  0
ARC
  5
18CBC
330
18C7A
100
AcDbEntity
  8
部品1
100
AcDbCircle
 10
1466.470482677778
 20
1328.993338720062
 30
0.0
 40
26.0
100
AcDbArc
 50
180.0
 51
199.4712206344134
  0
ARC
  5
18CBD
330
18C7A
100
AcDbEntity
  8
部品1
 48
0.01
100
AcDbCircle
 10
1434.470482677778
 20
1319.493338720063
 30
0.0
 40
0.5
100
AcDbArc
 50
180.0
 51
270.0
  0
LINE
  5
18CBE
330
18C7A
100
AcDbEntity
  8
部品1
 48
0.01
100
AcDbLine
 10
1434.470482677778
 20
1318.993338720063
 30
0.0
 11
1441.014638555061
 21
1318.993338720062
 31
0.0
  0
LINE
  5
18CBF
330
18C7A
100
AcDbEntity
  8
部品1
 48
0.01
100
AcDbLine
 10
1433.970482677778
 20
1320.493338720063
 30
0.0
 11
1433.970482677778
 21
1319.493338720063
 31
0.0
  0
ARC
  5
18CC0
330
18C7A
100
AcDbEntity
  8
部品1
100
AcDbCircle
 10
1441.014638555061
 20
1319.993338720062
 30
0.0
 40
1.0
100
AcDbArc
 50
270.0
 51
19.47122063441346
  0
LINE
  5
18CC1
330
18C7A
100
AcDbEntity
  8
細線
100
AcDbLine
 10
1479.470482677785
 20
1338.493338720065
 30
0.0
 11
1438.470482677785
 21
1338.493338720058
 31
0.0
  0
LINE
  5
18CC2
330
18C7A
100
AcDbEntity
  8
細線
100
AcDbLine
 10
1438.470482677785
 20
1338.493338720058
 30
0.0
 11
1438.470482677785
 21
1320.49333872004
 31
0.0
  0
LINE
  5
18CC3
330
18C7A
100
AcDbEntity
  8
細線
100
AcDbLine
 10
1479.470482677785
 20
1338.493338720065
 30
0.0
 11
1479.470482677785
 21
1320.49333872004
 31
0.0
  0
LINE
  5
18CC4
330
18C7A
100
AcDbEntity
  8
細線
100
AcDbLine
 10
1322.970589276523
 20
1324.494269174465
 30
0.0
 11
1322.970589276523
 21
1320.494269174513
 31
0.0
  0
LINE
  5
18CC5
330
18C7A
100
AcDbEntity
  8
寸法
 48
50.0
100
AcDbLine
 10
1746.17359555837
 20
1170.531020743327
 30
0.0
 11
1694.767587648266
 21
1170.531020743327
 31
0.0
  0
LINE
  5
18CC6
330
18C7A
100
AcDbEntity
  8
寸法
 48
50.0
100
AcDbLine
 10
1694.767587648266
 20
1170.531020743327
 30
0.0
 11
1694.767587648266
 21
1201.841179395494
 31
0.0
  0
LINE
  5
18CC7
330
18C7A
100
AcDbEntity
  8
寸法
 48
50.0
100
AcDbLine
 10
1694.767587648266
 20
1201.841179395494
 30
0.0
 11
1665.006255656843
 21
1201.841179395494
 31
0.0
  0
LINE
  5
18CC8
330
18C7A
100
AcDbEntity
  8
寸法
 48
50.0
100
AcDbLine
 10
1665.006255656843
 20
1201.841179395494
 30
0.0
 11
1720.470591603318
 21
1239.420630324105
 31
0.0
  0
LINE
  5
18CC9
330
18C7A
100
AcDbEntity
  8
寸法
 48
50.0
100
AcDbLine
 10
1775.934927549793
 20
1201.841179395494
 30
0.0
 11
1720.470591603318
 21
1239.420630324105
 31
0.0
  0
LINE
  5
18CCA
330
18C7A
100
AcDbEntity
  8
寸法
 48
50.0
100
AcDbLine
 10
1746.17359555837
 20
1201.841179395494
 30
0.0
 11
1775.934927549793
 21
1201.841179395494
 31
0.0
  0
LINE
  5
18CCB
330
18C7A
100
AcDbEntity
  8
寸法
 48
50.0
100
AcDbLine
 10
1746.17359555837
 20
1170.531020743327
 30
0.0
 11
1746.17359555837
 21
1201.841179395494
 31
0.0
  0
LINE
  5
18CCC
330
18C7A
100
AcDbEntity
  8
寸法
 48
50.0
100
AcDbLine
 10
1694.767587648266
 20
1170.531020743327
 30
0.0
 11
1746.17359555837
 21
1170.531020743327
 31
0.0
  0
LINE
  5
18CCD
330
18C7A
100
AcDbEntity
  8
寸法
 48
50.0
100
AcDbLine
 10
2025.339129835225
 20
1227.676611498152
 30
0.0
 11
2025.339129835225
 21
1174.01297691636
 31
0.0
  0
LINE
  5
18CCE
330
18C7A
100
AcDbEntity
  8
寸法
 48
50.0
100
AcDbLine
 10
2114.623348430647
 20
1203.752977228664
 30
0.0
 11
2025.339129835225
 21
1227.676611498152
 31
0.0
  0
LINE
  5
18CCF
330
18C7A
100
AcDbEntity
  8
寸法
 48
50.0
100
AcDbLine
 10
1895.471408254923
 20
1203.752977228664
 30
0.0
 11
2114.623348430647
 21
1203.752977228664
 31
0.0
  0
DIMENSION
  5
18CD0
330
18C7A
100
AcDbEntity
  8
寸法
 48
50.0
100
AcDbDimension
  2
*D15
 10
2588.970589276523
 20
706.3240511224249
 30
0.0
 11
1969.060022905491
 21
706.3240511224249
 31
0.0
 12
-3742.925985830444
 22
-6453.628869860112
 32
0.0
 70
   128
  1
有効開口部間口\P<>
 71
     5
 42
1266.0
  3
INABA_S40G
100
AcDbAlignedDimension
 13
1322.970589276523
 23
1315.494269174465
 33
0.0
 14
2588.970589276523
 24
1315.494269174465
 34
0.0
100
AcDbRotatedDimension
1001
ACAD
1000
DSTYLE
1002
{
1070
   341
1005
0
1002
}
  0
LINE
  5
18CD1
330
18C7A
100
AcDbEntity
  8
部品1
100
AcDbLine
 10
3409.970589276524
 20
1392.494269174465
 30
0.0
 11
3437.970589276523
 21
1392.494269174465
 31
0.0
  0
DIMENSION
  5
18CD2
330
18C7A
100
AcDbEntity
  8
寸法
100
AcDbDimension
  2
*D16
 10
3674.266172669749
 20
1315.494269174465
 30
0.0
 11
3674.266172669748
 21
1177.494269174462
 31
0.0
 12
-3742.925985830444
 22
-6453.628869860112
 32
0.0
 70
   128
 71
     5
 42
77.0
  3
INABA_S40
100
AcDbAlignedDimension
 13
3437.970589276523
 23
1392.494269174465
 33
0.0
 14
3436.970589276523
 24
1315.494269174465
 34
0.0
 50
90.0
100
AcDbRotatedDimension
1001
ACAD
1000
DSTYLE
1002
{
1070
    41
1040
0.5
1070
    44
1040
1.0
1070
   147
1040
0.8
1070
   271
1070
     2
1070
   272
1070
     2
1070
   289
1070
     3
1070
   340
1005
F706
1070
   343
1005
164B4
1070
   344
1005
164B4
1002
}
  0
LINE
  5
18CD3
330
18C7A
100
AcDbEntity
  8
部品1
100
AcDbLine
 10
3437.970589276523
 20
1315.494269174465
 30
0.0
 11
3437.970589276523
 21
1392.494269174465
 31
0.0
  0
LINE
  5
18CD4
330
18C7A
100
AcDbEntity
  8
部品1
100
AcDbLine
 10
3398.970589276523
 20
1388.494269174465
 30
0.0
 11
3409.970589276524
 21
1388.494269174465
 31
0.0
  0
LINE
  5
18CD5
330
18C7A
100
AcDbEntity
  8
部品1
100
AcDbLine
 10
3407.970589276523
 20
1324.494269174465
 30
0.0
 11
3407.970589276523
 21
1315.494269174465
 31
0.0
  0
LINE
  5
18CD6
330
18C7A
100
AcDbEntity
  8
部品1
100
AcDbLine
 10
3398.970589276523
 20
1324.494269174465
 30
0.0
 11
3407.970589276523
 21
1324.494269174465
 31
0.0
  0
LINE
  5
18CD7
330
18C7A
100
AcDbEntity
  8
部品1
100
AcDbLine
 10
3398.970589276523
 20
1388.494269174465
 30
0.0
 11
3398.970589276523
 21
1324.494269174465
 31
0.0
  0
LINE
  5
18CD8
330
18C7A
100
AcDbEntity
  8
部品1
100
AcDbLine
 10
3409.970589276524
 20
1419.494269174465
 30
0.0
 11
3409.970589276524
 21
1388.494269174465
 31
0.0
  0
LINE
  5
18CD9
330
18C7A
100
AcDbEntity
  8
部品1
100
AcDbLine
 10
1322.970589276523
 20
1388.494269174465
 30
0.0
 11
1311.970589276523
 21
1388.494269174465
 31
0.0
  0
LINE
  5
18CDA
330
18C7A
100
AcDbEntity
  8
部品1
100
AcDbLine
 10
1283.970589276523
 20
1392.494269174465
 30
0.0
 11
1311.970589276523
 21
1392.494269174465
 31
0.0
  0
LINE
  5
18CDB
330
18C7A
100
AcDbEntity
  8
部品1
100
AcDbLine
 10
1313.970589276523
 20
1324.494269174465
 30
0.0
 11
1313.970589276523
 21
1315.494269174465
 31
0.0
  0
LINE
  5
18CDC
330
18C7A
100
AcDbEntity
  8
部品1
100
AcDbLine
 10
1322.970589276523
 20
1324.494269174465
 30
0.0
 11
1313.970589276523
 21
1324.494269174465
 31
0.0
  0
LINE
  5
18CDD
330
18C7A
100
AcDbEntity
  8
部品1
100
AcDbLine
 10
1313.970589276523
 20
1315.494269174465
 30
0.0
 11
1283.970589276523
 21
1315.494269174465
 31
0.0
  0
LINE
  5
18CDE
330
18C7A
100
AcDbEntity
  8
部品1
100
AcDbLine
 10
1283.970589276523
 20
1315.494269174465
 30
0.0
 11
1283.970589276523
 21
1392.494269174465
 31
0.0
  0
LINE
  5
18CDF
330
18C7A
100
AcDbEntity
  8
部品1
100
AcDbLine
 10
1322.970589276523
 20
1388.494269174465
 30
0.0
 11
1322.970589276523
 21
1324.494269174465
 31
0.0
  0
LINE
  5
18CE0
330
18C7A
100
AcDbEntity
  8
部品1
100
AcDbLine
 10
1311.970589276523
 20
1419.494269174462
 30
0.0
 11
1311.970589276523
 21
1388.494269174465
 31
0.0
  0
LINE
  5
18CE1
330
18C7A
100
AcDbEntity
  8
部品1
100
AcDbLine
 10
1311.970589276523
 20
1419.494269174462
 30
0.0
 11
3409.970589276524
 21
1419.494269174465
 31
0.0
  0
LINE
  5
18CE2
330
18C7A
100
AcDbEntity
  8
部品1
100
AcDbLine
 10
3407.970589276523
 20
1315.494269174465
 30
0.0
 11
3437.970589276523
 21
1315.494269174465
 31
0.0
  0
LINE
  5
18CE3
330
18C7A
100
AcDbEntity
  8
部品1
100
AcDbLine
 10
1313.970589276523
 20
1315.494269174465
 30
0.0
 11
3410.970589276523
 21
1315.494269174465
 31
0.0
  0
LINE
  5
18CE4
330
18C7A
100
AcDbEntity
  8
細線
  6
Continuous
 62
     5
100
AcDbLine
 10
2689.970589276527
 20
1354.494269174462
 30
0.0
 11
2689.970589276527
 21
1354.494269174462
 31
0.0
  0
LINE
  5
18CE5
330
18C7A
100
AcDbEntity
  8
細線
  6
Continuous
 62
     5
100
AcDbLine
 10
2682.470589276527
 20
1354.494269174462
 30
0.0
 11
2682.470589276527
 21
1354.494269174462
 31
0.0
  0
LINE
  5
18CE6
330
18C7A
100
AcDbEntity
  8
細線
  6
Continuous
 62
     5
100
AcDbLine
 10
2676.470589276527
 20
1354.494269174462
 30
0.0
 11
2676.470589276527
 21
1354.494269174462
 31
0.0
  0
LINE
  5
18CE7
330
18C7A
100
AcDbEntity
  8
細線
  6
Continuous
 62
     5
100
AcDbLine
 10
2743.970589276527
 20
1373.494269174462
 30
0.0
 11
2743.970589276527
 21
1373.494269174462
 31
0.0
  0
LINE
  5
18CE8
330
18C7A
100
AcDbEntity
  8
細線
 48
50.0
100
AcDbLine
 10
1336.970593930116
 20
1341.094443351418
 30
0.0
 11
1336.970593930113
 21
1349.490593759059
 31
0.0
  0
LINE
  5
18CE9
330
18C7A
100
AcDbEntity
  8
細線
 48
50.0
100
AcDbLine
 10
1336.970593930113
 20
1349.490593759059
 30
0.0
 11
1322.970589276523
 21
1349.490593759057
 31
0.0
  0
LINE
  5
18CEA
330
18C7A
100
AcDbEntity
  8
細線
 48
50.0
100
AcDbLine
 10
2087.970593930113
 20
1337.644443351419
 30
0.0
 11
2087.970593930113
 21
1342.494443351421
 31
0.0
  0
LINE
  5
18CEB
330
18C7A
100
AcDbEntity
  8
細線
 48
50.0
100
AcDbLine
 10
2087.970593930113
 20
1342.494443351421
 30
0.0
 11
2102.970593930113
 21
1342.494443351421
 31
0.0
  0
LINE
  5
18CEC
330
18C7A
100
AcDbEntity
  8
細線
 48
50.0
100
AcDbLine
 10
2102.970593930113
 20
1342.494443351421
 30
0.0
 11
2102.970593930115
 21
1349.494443351419
 31
0.0
  0
LINE
  5
18CED
330
18C7A
100
AcDbEntity
  8
細線
 48
50.0
100
AcDbLine
 10
2102.970593930115
 20
1349.494443351419
 30
0.0
 11
2117.970593930113
 21
1349.494443351419
 31
0.0
  0
LINE
  5
18CEE
330
18C7A
100
AcDbEntity
  8
細線
 48
50.0
100
AcDbLine
 10
2117.970593930113
 20
1349.494443351419
 30
0.0
 11
2117.970593930113
 21
1320.494443351421
 31
0.0
  0
LINE
  5
18CEF
330
18C7A
100
AcDbEntity
  8
細線
 48
50.0
100
AcDbLine
 10
1313.970589276523
 20
1320.491777694889
 30
0.0
 11
1527.970593930113
 21
1320.494460905133
 31
0.0
  0
LINE
  5
18CF0
330
18C7A
100
AcDbEntity
  8
細線
 48
50.0
100
AcDbLine
 10
2017.970593930113
 20
1320.494443351421
 30
0.0
 11
2117.970593930113
 21
1320.494443351421
 31
0.0
  0
LINE
  5
18CF1
330
18C7A
100
AcDbEntity
  8
細線
 48
50.0
100
AcDbLine
 10
1737.970593930113
 20
1320.494443351419
 30
0.0
 11
1807.970593930113
 21
1320.494443351423
 31
0.0
  0
LINE
  5
18CF2
330
18C7A
100
AcDbEntity
  8
細線
 48
50.0
100
AcDbLine
 10
1750.832558942642
 20
1320.494443351419
 30
0.0
 11
1756.588076525309
 21
1338.765294641913
 31
0.0
  0
LINE
  5
18CF3
330
18C7A
100
AcDbEntity
  8
細線
 48
50.0
100
AcDbLine
 10
1756.588076525309
 20
1338.765294641913
 30
0.0
 11
1767.516525005743
 21
1338.765294641911
 31
0.0
  0
ARC
  5
18CF4
330
18C7A
100
AcDbEntity
  8
細線
 48
50.0
100
AcDbCircle
 10
1767.516525005743
 20
1337.765294641911
 30
0.0
 40
1.0
100
AcDbArc
 50
24.62431835207225
 51
90.0
  0
ARC
  5
18CF5
330
18C7A
100
AcDbEntity
  8
細線
 48
50.0
100
AcDbCircle
 10
1778.425237120377
 20
1337.765294641911
 30
0.0
 40
1.0
100
AcDbArc
 50
90.0
 51
155.3756816479277
  0
ARC
  5
18CF6
330
18C7A
100
AcDbEntity
  8
細線
 48
50.0
100
AcDbCircle
 10
1772.970881063058
 20
1340.265294641911
 30
0.0
 40
5.0
100
AcDbArc
 50
204.6243183520723
 51
335.3756816479278
  0
LINE
  5
18CF7
330
18C7A
100
AcDbEntity
  8
細線
 48
50.0
100
AcDbLine
 10
1778.425237120377
 20
1338.765294641911
 30
0.0
 11
1789.35368560081
 21
1338.765294641913
 31
0.0
  0
LINE
  5
18CF8
330
18C7A
100
AcDbEntity
  8
細線
 48
50.0
100
AcDbLine
 10
1789.35368560081
 20
1338.765294641913
 30
0.0
 11
1795.109203183478
 21
1320.494443351423
 31
0.0
  0
LINE
  5
18CF9
330
18C7A
100
AcDbEntity
  8
細線
 48
50.0
100
AcDbLine
 10
2087.970593930113
 20
1341.094443351419
 30
0.0
 11
1336.970593930116
 21
1341.094443351418
 31
0.0
  0
LINE
  5
18CFA
330
18C7A
100
AcDbEntity
  8
細線
 48
50.0
100
AcDbLine
 10
1947.970593930113
 20
1320.494443351421
 30
0.0
 11
1877.970593930113
 21
1320.494443351421
 31
0.0
  0
LINE
  5
18CFB
330
18C7A
100
AcDbEntity
  8
細線
100
AcDbLine
 10
1667.970593930113
 20
1320.494443351421
 30
0.0
 11
1597.970602115529
 21
1320.494443351421
 31
0.0
  0
LINE
  5
18CFC
330
18C7A
100
AcDbEntity
  8
細線
 48
50.0
100
AcDbLine
 10
2741.970584622936
 20
1375.094487209288
 30
0.0
 11
2106.970593930113
 21
1375.094487209284
 31
0.0
  0
LINE
  5
18CFD
330
18C7A
100
AcDbEntity
  8
細線
 48
50.0
100
AcDbLine
 10
2106.970593930113
 20
1371.990637616925
 30
0.0
 11
2106.970593930113
 21
1376.490637616925
 31
0.0
  0
LINE
  5
18CFE
330
18C7A
100
AcDbEntity
  8
細線
 48
50.0
100
AcDbLine
 10
2106.970593930113
 20
1376.490637616925
 30
0.0
 11
2091.970593930113
 21
1376.490637616925
 31
0.0
  0
LINE
  5
18CFF
330
18C7A
100
AcDbEntity
  8
細線
 48
50.0
100
AcDbLine
 10
2091.970593930113
 20
1376.490637616925
 30
0.0
 11
2091.970593930113
 21
1383.490637616927
 31
0.0
  0
LINE
  5
18D00
330
18C7A
100
AcDbEntity
  8
細線
 48
50.0
100
AcDbLine
 10
2091.970593930113
 20
1383.490637616927
 30
0.0
 11
2076.970593930115
 21
1383.490637616924
 31
0.0
  0
LINE
  5
18D01
330
18C7A
100
AcDbEntity
  8
細線
 48
50.0
100
AcDbLine
 10
2076.970593930115
 20
1383.490637616924
 30
0.0
 11
2076.970593930115
 21
1345.890409513813
 31
0.0
  0
LINE
  5
18D02
330
18C7A
100
AcDbEntity
  8
細線
 48
50.0
100
AcDbLine
 10
2076.970593930115
 20
1345.890409513813
 30
0.0
 11
2096.970601231289
 21
1345.890451063353
 31
0.0
  0
LINE
  5
18D03
330
18C7A
100
AcDbEntity
  8
細線
 48
50.0
100
AcDbLine
 10
2096.970556362348
 20
1354.493912699161
 30
0.0
 11
2096.970601231289
 21
1345.890451063353
 31
0.0
  0
LINE
  5
18D04
330
18C7A
100
AcDbEntity
  8
細線
 48
50.0
100
AcDbLine
 10
2741.970584622936
 20
1371.644487209287
 30
0.0
 11
2741.970584622936
 21
1376.494487209284
 31
0.0
  0
LINE
  5
18D05
330
18C7A
100
AcDbEntity
  8
細線
 48
50.0
100
AcDbLine
 10
2741.970584622936
 20
1376.494487209284
 30
0.0
 11
2756.970584622934
 21
1376.494487209285
 31
0.0
  0
LINE
  5
18D06
330
18C7A
100
AcDbEntity
  8
細線
 48
50.0
100
AcDbLine
 10
2756.970584622934
 20
1376.494487209285
 30
0.0
 11
2756.970596256909
 21
1383.494487209331
 31
0.0
  0
LINE
  5
18D07
330
18C7A
100
AcDbEntity
  8
細線
 48
50.0
100
AcDbLine
 10
2756.970596256909
 20
1383.494487209331
 30
0.0
 11
2771.970594427439
 21
1383.494487209329
 31
0.0
  0
LINE
  5
18D08
330
18C7A
100
AcDbEntity
  8
細線
 48
50.0
100
AcDbLine
 10
2771.970594427439
 20
1383.494487209329
 30
0.0
 11
2771.970584125617
 21
1354.494281037055
 31
0.0
  0
LINE
  5
18D09
330
18C7A
100
AcDbEntity
  8
細線
 48
50.0
100
AcDbLine
 10
2458.070304175992
 20
1354.494278397076
 30
0.0
 11
2389.470863838818
 21
1354.494283787084
 31
0.0
  0
LINE
  5
18D0A
330
18C7A
100
AcDbEntity
  8
細線
 48
50.0
100
AcDbLine
 10
2096.970556362348
 20
1354.493912699161
 30
0.0
 11
2108.203245717057
 21
1354.494095652309
 31
0.0
  0
ARC
  5
18D0B
330
18C7A
100
AcDbEntity
  8
細線
 48
50.0
100
AcDbCircle
 10
2114.785538024393
 20
1353.294259565922
 30
0.0
 40
1.8
100
AcDbArc
 50
270.0006665777295
 51
345.000555481349
  0
LINE
  5
18D0C
330
18C7A
100
AcDbEntity
  8
細線
 48
50.0
100
AcDbLine
 10
2116.771971470473
 20
1353.753100023201
 30
0.0
 11
2116.524209028273
 21
1352.828402141094
 31
0.0
  0
LINE
  5
18D0D
330
18C7A
100
AcDbEntity
  8
細線
 48
50.0
100
AcDbLine
 10
2114.785558965548
 20
1351.494259566043
 30
0.0
 11
2111.155631546781
 21
1351.494217335563
 31
0.0
  0
ARC
  5
18D0E
330
18C7A
100
AcDbEntity
  8
細線
 48
50.0
100
AcDbCircle
 10
2111.155610605627
 20
1353.29421733544
 30
0.0
 40
1.8
100
AcDbArc
 50
195.0010443049965
 51
270.0006665777295
  0
LINE
  5
18D0F
330
18C7A
100
AcDbEntity
  8
細線
 48
50.0
100
AcDbLine
 10
2109.169183113368
 20
1353.752932303007
 30
0.0
 11
2109.416952609882
 21
1352.828311364425
 31
0.0
  0
ARC
  5
18D10
330
18C7A
100
AcDbEntity
  8
細線
 48
50.0
100
AcDbCircle
 10
2108.203262004622
 20
1353.494095652444
 30
0.0
 40
1.0
100
AcDbArc
 50
15.00104430499651
 51
90.00093320877969
  0
LINE
  5
18D11
330
18C7A
100
AcDbEntity
  8
細線
 48
50.0
100
AcDbLine
 10
2117.737892825577
 20
1354.494290342714
 30
0.0
 11
2118.679652976481
 21
1354.494296916564
 31
0.0
  0
ARC
  5
18D12
330
18C7A
100
AcDbEntity
  8
細線
 48
50.0
100
AcDbCircle
 10
2117.737899805961
 20
1353.49429034274
 30
0.0
 40
1.0
100
AcDbArc
 50
90.0003999466794
 51
165.000555481349
  0
LINE
  5
18D13
330
18C7A
100
AcDbEntity
  8
細線
 48
50.0
100
AcDbLine
 10
2669.470584622926
 20
1354.494281037055
 30
0.0
 11
2771.970584125617
 21
1354.494281037055
 31
0.0
  0
LINE
  5
18D14
330
18C7A
100
AcDbEntity
  8
細線
 48
50.0
100
AcDbLine
 10
2179.47061994182
 20
1354.494289224422
 30
0.0
 11
2118.370558714898
 21
1354.494296916564
 31
0.0
  0
LINE
  5
18D15
330
18C7A
100
AcDbEntity
  8
細線
 48
50.0
100
AcDbLine
 10
2599.470584622926
 20
1354.494281037057
 30
0.0
 11
2529.470584622926
 21
1354.494281037055
 31
0.0
  0
LINE
  5
18D16
330
18C7A
100
AcDbEntity
  8
細線
 48
50.0
100
AcDbLine
 10
2319.470584622926
 20
1354.494281037054
 30
0.0
 11
2249.470567335051
 21
1354.494281037057
 31
0.0
  0
ARC
  5
18D17
330
18C7A
100
AcDbEntity
  8
細線
 48
50.0
100
AcDbCircle
 10
2756.170589276533
 20
1387.694269174466
 30
0.0
 40
0.8
100
AcDbArc
 50
359.9997333689499
 51
89.99986668437072
  0
ARC
  5
18D18
330
18C7A
100
AcDbEntity
  8
細線
 48
50.0
100
AcDbCircle
 10
2763.770596101631
 20
1387.694280343081
 30
0.0
 40
0.8
100
AcDbArc
 50
90.00014387753465
 51
179.9997333689498
  0
LINE
  5
18D19
330
18C7A
100
AcDbEntity
  8
細線
 48
50.0
100
AcDbLine
 10
2756.170591137969
 20
1388.494269174465
 30
0.0
 11
2750.970589276525
 21
1388.494269174465
 31
0.0
  0
ARC
  5
18D1A
330
18C7A
100
AcDbEntity
  8
細線
 48
50.0
100
AcDbCircle
 10
2757.670589276524
 20
1386.194269174464
 30
0.0
 40
0.7
100
AcDbArc
 50
180.0
 51
270.0
  0
ARC
  5
18D1B
330
18C7A
100
AcDbEntity
  8
細線
 48
50.0
100
AcDbCircle
 10
2762.270589276524
 20
1386.194269174464
 30
0.0
 40
0.7
100
AcDbArc
 50
270.0
 51
0.0
  0
LINE
  5
18D1C
330
18C7A
100
AcDbEntity
  8
細線
 48
50.0
100
AcDbLine
 10
2762.970589276525
 20
1386.194269174464
 30
0.0
 11
2762.970596101639
 21
1387.694284065954
 31
0.0
  0
LINE
  5
18D1D
330
18C7A
100
AcDbEntity
  8
細線
 48
50.0
100
AcDbLine
 10
2757.670589276524
 20
1385.494269174465
 30
0.0
 11
2762.270589276524
 21
1385.494269174465
 31
0.0
  0
LINE
  5
18D1E
330
18C7A
100
AcDbEntity
  8
細線
 48
50.0
100
AcDbLine
 10
2756.970589276525
 20
1387.694269174466
 30
0.0
 11
2756.970589276525
 21
1386.194269174464
 31
0.0
  0
LINE
  5
18D1F
330
18C7A
100
AcDbEntity
  8
細線
 48
50.0
100
AcDbLine
 10
3382.570589276527
 20
1418.494269174465
 30
0.0
 11
2745.970589276525
 21
1418.494269174463
 31
0.0
  0
LINE
  5
18D20
330
18C7A
100
AcDbEntity
  8
細線
 48
50.0
100
AcDbLine
 10
3408.470589276525
 20
1413.494269174467
 30
0.0
 11
3392.570589276527
 21
1413.494269174465
 31
0.0
  0
LINE
  5
18D21
330
18C7A
100
AcDbEntity
  8
細線
 48
50.0
100
AcDbLine
 10
3392.570589276526
 20
1413.494269174465
 30
0.0
 11
3382.570589276527
 21
1418.494269174465
 31
0.0
  0
LINE
  5
18D22
330
18C7A
100
AcDbEntity
  8
細線
100
AcDbLine
 10
2993.470589276525
 20
1388.494269174465
 30
0.0
 11
2993.470589276525
 21
1417.794269174464
 31
0.0
  0
LINE
  5
18D23
330
18C7A
100
AcDbEntity
  8
細線
100
AcDbLine
 10
2993.470589276525
 20
1417.794269174464
 30
0.0
 11
3013.470589276525
 21
1417.794269174464
 31
0.0
  0
LINE
  5
18D24
330
18C7A
100
AcDbEntity
  8
細線
100
AcDbLine
 10
3013.470589276525
 20
1388.494269174465
 30
0.0
 11
3013.470589276525
 21
1417.794269174464
 31
0.0
  0
LINE
  5
18D25
330
18C7A
100
AcDbEntity
  8
細線
100
AcDbLine
 10
3170.720589276524
 20
1388.494269174465
 30
0.0
 11
3100.720589276523
 21
1388.494269174465
 31
0.0
  0
LINE
  5
18D26
330
18C7A
100
AcDbEntity
  8
細線
 48
50.0
100
AcDbLine
 10
2890.720589276525
 20
1388.494269174465
 30
0.0
 11
2763.766368849365
 21
1388.494269174465
 31
0.0
  0
LINE
  5
18D27
330
18C7A
100
AcDbEntity
  8
細線
100
AcDbLine
 10
3030.720589276525
 20
1388.494269174465
 30
0.0
 11
2960.720589276525
 21
1388.494269174465
 31
0.0
  0
LINE
  5
18D28
330
18C7A
100
AcDbEntity
  8
細線
 48
50.0
100
AcDbLine
 10
2750.970589276525
 20
1380.494269174465
 30
0.0
 11
2750.970589276525
 21
1388.494269174465
 31
0.0
  0
LINE
  5
18D29
330
18C7A
100
AcDbEntity
  8
細線
 48
50.0
100
AcDbLine
 10
2730.970589276524
 20
1380.494269174467
 30
0.0
 11
2750.970589276525
 21
1380.494269174465
 31
0.0
  0
LINE
  5
18D2A
330
18C7A
100
AcDbEntity
  8
細線
 48
50.0
100
AcDbLine
 10
2745.970589276525
 20
1418.494269174465
 30
0.0
 11
2745.970589276525
 21
1413.494269174465
 31
0.0
  0
LINE
  5
18D2B
330
18C7A
100
AcDbEntity
  8
細線
 48
50.0
100
AcDbLine
 10
2730.970589276525
 20
1418.494269174463
 30
0.0
 11
2745.970589276525
 21
1418.494269174465
 31
0.0
  0
LINE
  5
18D2C
330
18C7A
100
AcDbEntity
  8
細線
 48
50.0
100
AcDbLine
 10
2730.970589276524
 20
1380.494269174467
 30
0.0
 11
2730.970589276525
 21
1418.494269174463
 31
0.0
  0
LINE
  5
18D2D
330
18C7A
100
AcDbEntity
  8
細線
100
AcDbLine
 10
3398.970589276523
 20
1388.494269174465
 30
0.0
 11
3240.720589276525
 21
1388.494269174465
 31
0.0
  0
LINE
  5
18D2E
330
18C7A
100
AcDbEntity
  8
細線
 48
50.0
100
AcDbLine
 10
3408.470589276525
 20
1413.494269174467
 30
0.0
 11
3408.470589276524
 21
1388.494269174465
 31
0.0
  0
TEXT
  5
18D2F
330
18C7A
100
AcDbEntity
  8
部品1
100
AcDbText
 10
1860.154865991392
 20
46.99880823813145
 30
0.0
 40
135.0
  1
平面図
  7
STYLE2
100
AcDbText
  0
LWPOLYLINE
  5
18D30
330
18C7A
100
AcDbEntity
  8
部品1
100
AcDbPolyline
 90
        4
 70
     1
 43
0.0
 10
1770.23525616235
 20
239.8923374566548
 10
1770.23525616235
 20
0.0000159111223184
 10
2533.705922390791
 20
0.0000159111223184
 10
2533.705922390791
 20
239.8923374566548
  0
LINE
  5
18D31
330
18C7A
100
AcDbEntity
  8
部品1
100
AcDbLine
 10
1534.470589276487
 20
3154.494269174626
 30
0.0
 11
2769.470589276552
 21
3154.494269174626
 31
0.0
  0
LINE
  5
18D32
330
18C7A
100
AcDbEntity
  8
部品1
 48
50.0
100
AcDbLine
 10
1311.970589276523
 20
1420.494269174462
 30
0.0
 11
3411.970589276523
 21
1420.494269174465
 31
0.0
  0
LINE
  5
18D33
330
18C7A
100
AcDbEntity
  8
部品1
 48
50.0
100
AcDbLine
 10
471.9705892765232
 20
1392.494269174465
 30
0.0
 11
1311.970589276523
 21
1392.494269174465
 31
0.0
  0
DIMENSION
  5
18D34
330
18C7A
100
AcDbEntity
  8
寸法
100
AcDbDimension
  2
*D14
 10
2710.234916278077
 20
2488.887829538828
 30
0.0
 11
2338.318822490183
 21
2488.887829538828
 31
0.0
 12
-3742.925985830444
 22
-6453.628869860112
 32
0.0
 70
   128
 71
     5
 42
1231.00000000007
  3
INABA_S40G
100
AcDbAlignedDimension
 13
1536.470589276486
 23
2702.494269174557
 33
0.0
 14
2767.470589276556
 24
2702.494269174549
 34
0.0
100
AcDbRotatedDimension
1001
ACAD
1000
DSTYLE
1002
{
1002
}
  0
LINE
  5
18D35
330
18C7A
100
AcDbEntity
  8
部品1
100
AcDbLine
 10
1536.470589276487
 20
2702.494269174557
 30
0.0
 11
2767.470589276554
 21
2702.494269174615
 31
0.0
  0
LINE
  5
18D36
330
18C7A
100
AcDbEntity
  8
部品1
100
AcDbLine
 10
1536.470589276487
 20
3152.494269174557
 30
0.0
 11
2767.470589276556
 21
3152.494269174615
 31
0.0
  0
LINE
  5
18D37
330
18C7A
100
AcDbEntity
  8
細線
 48
50.0
100
AcDbLine
 10
1508.470589276487
 20
3152.494269174558
 30
0.0
 11
445.4705892765559
 21
2702.494269174509
 31
0.0
  0
LINE
  5
18D38
330
18C7A
100
AcDbEntity
  8
細線
 48
50.0
100
AcDbLine
 10
1508.470589276487
 20
2702.494269174558
 30
0.0
 11
445.4705892765542
 21
3152.494269174509
 31
0.0
  0
LINE
  5
18D39
330
18C7A
100
AcDbEntity
  8
部品1
100
AcDbLine
 10
1556.970589276487
 20
3172.494269174611
 30
0.0
 11
1556.970589276487
 21
3154.494269174611
 31
0.0
  0
LINE
  5
18D3A
330
18C7A
100
AcDbEntity
  8
部品1
100
AcDbLine
 10
1556.970589276487
 20
3172.494269174611
 30
0.0
 11
1550.970589276487
 21
3172.494269174611
 31
0.0
  0
LINE
  5
18D3B
330
18C7A
100
AcDbEntity
  8
部品1
100
AcDbLine
 10
1534.470589276487
 20
3146.494269174608
 30
0.0
 11
1509.470589276487
 21
3146.494269174611
 31
0.0
  0
LINE
  5
18D3C
330
18C7A
100
AcDbEntity
  8
部品1
100
AcDbLine
 10
1486.970589276487
 20
3172.494269174611
 30
0.0
 11
1486.970589276487
 21
3154.494269174611
 31
0.0
  0
LINE
  5
18D3D
330
18C7A
100
AcDbEntity
  8
部品1
100
AcDbLine
 10
1492.970589276487
 20
3172.494269174611
 30
0.0
 11
1486.970589276487
 21
3172.494269174611
 31
0.0
  0
LINE
  5
18D3E
330
18C7A
100
AcDbEntity
  8
部品1
100
AcDbLine
 10
1534.470589276487
 20
2702.494269174615
 30
0.0
 11
1509.470589276487
 21
2702.494269174615
 31
0.0
  0
LINE
  5
18D3F
330
18C7A
100
AcDbEntity
  8
部品1
 48
50.0
100
AcDbLine
 10
1536.470589276487
 20
3152.494269174611
 30
0.0
 11
1536.470589276487
 21
2702.494269174615
 31
0.0
  0
LINE
  5
18D40
330
18C7A
100
AcDbEntity
  8
部品1
 48
50.0
100
AcDbLine
 10
1508.470589276487
 20
3152.494269174607
 30
0.0
 11
1508.470589276487
 21
2702.494269174615
 31
0.0
  0
LINE
  5
18D41
330
18C7A
100
AcDbEntity
  8
部品1
 48
50.0
100
AcDbLine
 10
1534.470589276487
 20
3154.494269174618
 30
0.0
 11
1534.470589276487
 21
2702.494269174615
 31
0.0
  0
LINE
  5
18D42
330
18C7A
100
AcDbEntity
  8
部品1
 48
50.0
100
AcDbLine
 10
1509.470589276487
 20
3154.494269174615
 30
0.0
 11
1509.470589276487
 21
2702.494269174615
 31
0.0
  0
LINE
  5
18D43
330
18C7A
100
AcDbEntity
  8
部品1
100
AcDbLine
 10
3411.970589276556
 20
1392.494269174582
 30
0.0
 11
3411.970589276556
 21
1420.494269174596
 31
0.0
  0
LINE
  5
18D44
330
18C7A
100
AcDbEntity
  8
部品1
100
AcDbLine
 10
1311.970589276523
 20
1392.494269174596
 30
0.0
 11
1311.970589276523
 21
1420.494269174596
 31
0.0
  0
LINE
  5
18D45
330
18C7A
100
AcDbEntity
  8
部品1
100
AcDbLine
 10
891.9705892765232
 20
1392.494269174596
 30
0.0
 11
891.9705892765232
 21
1420.494269174596
 31
0.0
  0
LINE
  5
18D46
330
18C7A
100
AcDbEntity
  8
部品1
100
AcDbLine
 10
3411.97058927652
 20
3182.494269174477
 30
0.0
 11
3411.970589276523
 21
3154.494269174477
 31
0.0
  0
LINE
  5
18D47
330
18C7A
100
AcDbEntity
  8
部品1
100
AcDbLine
 10
2571.97058927652
 20
3182.494269174477
 30
0.0
 11
2571.970589276523
 21
3154.494269174477
 31
0.0
  0
LINE
  5
18D48
330
18C7A
100
AcDbEntity
  8
部品1
100
AcDbLine
 10
2991.97058927652
 20
3182.494269174477
 30
0.0
 11
2991.970589276523
 21
3154.494269174477
 31
0.0
  0
LINE
  5
18D49
330
18C7A
100
AcDbEntity
  8
部品1
100
AcDbLine
 10
2151.970589276519
 20
3182.494269174477
 30
0.0
 11
2151.970589276523
 21
3154.494269174477
 31
0.0
  0
LINE
  5
18D4A
330
18C7A
100
AcDbEntity
  8
部品1
100
AcDbLine
 10
1731.970589276519
 20
3182.494269174477
 30
0.0
 11
1731.970589276523
 21
3154.494269174477
 31
0.0
  0
LINE
  5
18D4B
330
18C7A
100
AcDbEntity
  8
部品1
100
AcDbLine
 10
1311.970589276519
 20
3182.494269174477
 30
0.0
 11
1311.970589276523
 21
3154.494269174477
 31
0.0
  0
LINE
  5
18D4C
330
18C7A
100
AcDbEntity
  8
部品1
100
AcDbLine
 10
891.9705892765195
 20
3182.494269174477
 30
0.0
 11
891.9705892765232
 21
3154.494269174477
 31
0.0
  0
LINE
  5
18D4D
330
18C7A
100
AcDbEntity
  8
部品1
100
AcDbLine
 10
471.9705892765232
 20
1392.494269174596
 30
0.0
 11
471.9705892765232
 21
1420.494269174596
 31
0.0
  0
LINE
  5
18D4E
330
18C7A
100
AcDbEntity
  8
部品1
100
AcDbLine
 10
444.9705892765305
 20
1420.494269174558
 30
0.0
 11
3858.970589276556
 21
1420.494269174596
 31
0.0
  0
LINE
  5
18D4F
330
18C7A
100
AcDbEntity
  8
部品1
100
AcDbLine
 10
3831.970589276556
 20
1392.494269174596
 30
0.0
 11
3831.970589276556
 21
1420.494269174596
 31
0.0
  0
LINE
  5
18D50
330
18C7A
100
AcDbEntity
  8
部品1
100
AcDbLine
 10
3858.970589276556
 20
1447.494269174593
 30
0.0
 11
3886.970589276556
 21
1447.494269174593
 31
0.0
  0
LINE
  5
18D51
330
18C7A
100
AcDbEntity
  8
部品1
100
AcDbLine
 10
3858.970589276556
 20
1867.494269174607
 30
0.0
 11
3886.970589276556
 21
1867.494269174607
 31
0.0
  0
LINE
  5
18D52
330
18C7A
100
AcDbEntity
  8
部品1
100
AcDbLine
 10
444.9705892765305
 20
1867.49426917448
 30
0.0
 11
416.9705892765305
 21
1867.49426917448
 31
0.0
  0
LINE
  5
18D53
330
18C7A
100
AcDbEntity
  8
部品1
100
AcDbLine
 10
3830.470589276541
 20
1867.49426917458
 30
0.0
 11
473.4705892765396
 21
1867.49426917448
 31
0.0
  0
LINE
  5
18D54
330
18C7A
100
AcDbEntity
  8
部品1
100
AcDbLine
 10
3830.470589276541
 20
2287.49426917458
 30
0.0
 11
473.4705892765396
 21
2287.49426917448
 31
0.0
  0
LINE
  5
18D55
330
18C7A
100
AcDbEntity
  8
部品1
100
AcDbLine
 10
444.9705892765305
 20
2287.49426917448
 30
0.0
 11
416.9705892765305
 21
2287.49426917448
 31
0.0
  0
LINE
  5
18D56
330
18C7A
100
AcDbEntity
  8
部品1
100
AcDbLine
 10
3858.970589276556
 20
2287.494269174608
 30
0.0
 11
3886.970589276556
 21
2287.494269174608
 31
0.0
  0
LINE
  5
18D57
330
18C7A
100
AcDbEntity
  8
部品1
 48
50.0
100
AcDbLine
 10
2151.970589276551
 20
2702.494269174586
 30
0.0
 11
2151.970589276581
 21
1448.994269174494
 31
0.0
  0
LINE
  5
18D58
330
18C7A
100
AcDbEntity
  8
破線
 48
10.0
100
AcDbLine
 10
2959.470589276535
 20
1472.494269174522
 30
0.0
 11
2176.970589276532
 21
1472.494269174505
 31
0.0
  0
LINE
  5
18D59
330
18C7A
100
AcDbEntity
  8
破線
 48
10.0
100
AcDbLine
 10
3009.47058927653
 20
1448.994269174509
 30
0.0
 11
3009.47058927653
 21
2702.494269174615
 31
0.0
  0
LINE
  5
18D5A
330
18C7A
100
AcDbEntity
  8
破線
 48
10.0
100
AcDbLine
 10
2959.470589276535
 20
1448.994269174505
 30
0.0
 11
2959.470589276531
 21
2702.494269174615
 31
0.0
  0
LINE
  5
18D5B
330
18C7A
100
AcDbEntity
  8
破線
 48
10.0
100
AcDbLine
 10
1344.47058927653
 20
1448.994269174509
 30
0.0
 11
1344.47058927653
 21
2702.494269174615
 31
0.0
  0
LINE
  5
18D5C
330
18C7A
100
AcDbEntity
  8
破線
 48
10.0
100
AcDbLine
 10
1294.470589276534
 20
1448.994269174505
 30
0.0
 11
1294.47058927653
 21
2702.494269174615
 31
0.0
  0
DIMENSION
  5
18D5D
330
18C7A
100
AcDbEntity
  8
寸法
100
AcDbDimension
  2
*D13
 10
1451.234916278005
 20
2488.887829538828
 30
0.0
 11
916.0604668248634
 21
2488.887829538828
 31
0.0
 12
-3742.925985830444
 22
-6453.628869860112
 32
0.0
 70
   128
 71
     5
 42
1062.99999999993
  3
INABA_S40G
100
AcDbAlignedDimension
 13
445.4705892765559
 23
2702.494269174505
 33
0.0
 14
1508.470589276486
 24
2702.494269174558
 34
0.0
100
AcDbRotatedDimension
1001
ACAD
1000
DSTYLE
1002
{
1002
}
  0
LINE
  5
18D5E
330
18C7A
100
AcDbEntity
  8
破線
 48
10.0
100
AcDbLine
 10
1294.470589276534
 20
1472.494269174469
 30
0.0
 11
496.9705892765414
 21
1472.494269174476
 31
0.0
  0
LINE
  5
18D5F
330
18C7A
100
AcDbEntity
  8
部品1
100
AcDbLine
 10
3831.970589276556
 20
3182.494269174604
 30
0.0
 11
3831.970589276556
 21
3154.494269174604
 31
0.0
  0
LINE
  5
18D60
330
18C7A
100
AcDbEntity
  8
部品1
100
AcDbLine
 10
3831.970589276556
 20
3182.494269174626
 30
0.0
 11
3831.970589276556
 21
3154.494269174626
 31
0.0
  0
LINE
  5
18D61
330
18C7A
100
AcDbEntity
  8
部品1
100
AcDbLine
 10
3858.970589276556
 20
3127.494269174607
 30
0.0
 11
3886.970589276556
 21
3127.494269174607
 31
0.0
  0
LINE
  5
18D62
330
18C7A
100
AcDbEntity
  8
部品1
100
AcDbLine
 10
3858.970589276556
 20
2707.494269174608
 30
0.0
 11
3886.970589276556
 21
2707.494269174608
 31
0.0
  0
LINE
  5
18D63
330
18C7A
100
AcDbEntity
  8
部品1
100
AcDbLine
 10
3858.470589276556
 20
3152.494269174604
 30
0.0
 11
3858.470589276556
 21
2702.494269174608
 31
0.0
  0
LINE
  5
18D64
330
18C7A
100
AcDbEntity
  8
部品1
100
AcDbLine
 10
3886.970589276533
 20
1447.494269174593
 30
0.0
 11
3886.970589276531
 21
1392.494269174596
 31
0.0
  0
LINE
  5
18D65
330
18C7A
100
AcDbEntity
  8
部品1
 48
50.0
100
AcDbLine
 10
3830.470589276556
 20
1448.994269174596
 30
0.0
 11
3858.970589276554
 21
1420.494269174596
 31
0.0
  0
LINE
  5
18D66
330
18C7A
100
AcDbEntity
  8
部品1
100
AcDbLine
 10
3886.970589276531
 20
1392.494269174596
 30
0.0
 11
3835.970589276531
 21
1392.494269174596
 31
0.0
  0
LINE
  5
18D67
330
18C7A
100
AcDbEntity
  8
部品1
100
AcDbLine
 10
3858.970589276533
 20
1447.494269174593
 30
0.0
 11
3886.970589276531
 21
1447.494269174593
 31
0.0
  0
LINE
  5
18D68
330
18C7A
100
AcDbEntity
  8
部品1
100
AcDbLine
 10
3886.970589276556
 20
3182.494269174604
 30
0.0
 11
3886.970589276531
 21
1392.494269174596
 31
0.0
  0
DIMENSION
  5
18D69
330
18C7A
100
AcDbEntity
  8
寸法
100
AcDbDimension
  2
*D12
 10
4534.396935010967
 20
1447.494269174593
 30
0.0
 11
4534.396935010965
 21
2287.4942691746
 31
0.0
 12
-3742.925985830444
 22
-6453.628869860112
 32
0.0
 70
   128
  1
4X420=<>
 71
     5
 42
1680.000000000014
  3
INABA_S40G
100
AcDbAlignedDimension
 13
3886.970589276556
 23
3127.494269174607
 33
0.0
 14
3886.970589276531
 24
1447.494269174593
 34
0.0
 50
90.0
100
AcDbRotatedDimension
1001
ACAD
1000
DSTYLE
1002
{
1002
}
  0
LINE
  5
18D6A
330
18C7A
100
AcDbEntity
  8
部品1
100
AcDbLine
 10
3858.970589276556
 20
3154.494269174604
 30
0.0
 11
3858.970589276534
 21
1420.494269174596
 31
0.0
  0
DIMENSION
  5
18D6B
330
18C7A
100
AcDbEntity
  8
寸法
100
AcDbDimension
  2
*D11
 10
4213.82831513858
 20
2607.276453505718
 30
0.0
 11
4113.828315138579
 21
2832.276453505718
 31
0.0
 12
-3742.925985830444
 22
-6453.628869860112
 32
0.0
 71
     5
 42
449.9999999999963
  3
INABA_S40G
100
AcDbAlignedDimension
 13
3858.470589276556
 23
3152.494269174604
 33
0.0
 14
3858.470589276556
 24
2702.494269174608
 34
0.0
 50
90.0
100
AcDbRotatedDimension
1001
ACAD
1000
DSTYLE
1002
{
1002
}
  0
LINE
  5
18D6C
330
18C7A
100
AcDbEntity
  8
部品1
100
AcDbLine
 10
3830.470589276547
 20
2702.494269174608
 30
0.0
 11
3830.470589276556
 21
1448.994269174596
 31
0.0
  0
LINE
  5
18D6D
330
18C7A
100
AcDbEntity
  8
破線
 48
10.0
100
AcDbLine
 10
3806.970589276549
 20
2702.494269174608
 30
0.0
 11
3806.970589276558
 21
1472.494269174593
 31
0.0
  0
LINE
  5
18D6E
330
18C7A
100
AcDbEntity
  8
部品1
100
AcDbLine
 10
2769.470589276556
 20
3146.494269174608
 30
0.0
 11
2794.470589276556
 21
3146.494269174611
 31
0.0
  0
LINE
  5
18D6F
330
18C7A
100
AcDbEntity
  8
部品1
100
AcDbLine
 10
2810.970589276556
 20
3172.494269174611
 30
0.0
 11
2816.970589276556
 21
3172.494269174611
 31
0.0
  0
LINE
  5
18D70
330
18C7A
100
AcDbEntity
  8
部品1
100
AcDbLine
 10
2816.970589276556
 20
3172.494269174611
 30
0.0
 11
2816.970589276556
 21
3154.494269174611
 31
0.0
  0
LINE
  5
18D71
330
18C7A
100
AcDbEntity
  8
部品1
100
AcDbLine
 10
2746.970589276556
 20
3172.494269174611
 30
0.0
 11
2752.970589276556
 21
3172.494269174611
 31
0.0
  0
LINE
  5
18D72
330
18C7A
100
AcDbEntity
  8
部品1
100
AcDbLine
 10
2746.970589276556
 20
3172.494269174611
 30
0.0
 11
2746.970589276556
 21
3154.494269174611
 31
0.0
  0
LINE
  5
18D73
330
18C7A
100
AcDbEntity
  8
部品1
100
AcDbLine
 10
2769.470589276556
 20
2702.494269174615
 30
0.0
 11
2794.470589276556
 21
2702.494269174615
 31
0.0
  0
LINE
  5
18D74
330
18C7A
100
AcDbEntity
  8
部品1
 48
50.0
100
AcDbLine
 10
2794.470589276556
 20
3154.494269174615
 30
0.0
 11
2794.470589276556
 21
2702.494269174615
 31
0.0
  0
LINE
  5
18D75
330
18C7A
100
AcDbEntity
  8
部品1
 48
50.0
100
AcDbLine
 10
2769.470589276554
 20
3154.494269174618
 30
0.0
 11
2769.470589276556
 21
2702.494269174615
 31
0.0
  0
LINE
  5
18D76
330
18C7A
100
AcDbEntity
  8
部品1
 48
50.0
100
AcDbLine
 10
2795.470589276556
 20
3152.494269174607
 30
0.0
 11
2795.470589276556
 21
2702.494269174615
 31
0.0
  0
LINE
  5
18D77
330
18C7A
100
AcDbEntity
  8
部品1
 48
50.0
100
AcDbLine
 10
2767.470589276556
 20
3152.494269174611
 30
0.0
 11
2767.470589276556
 21
2702.494269174615
 31
0.0
  0
LINE
  5
18D78
330
18C7A
100
AcDbEntity
  8
破線
 48
10.0
100
AcDbLine
 10
2176.97058927653
 20
1448.994269174509
 30
0.0
 11
2176.97058927653
 21
2702.494269174588
 31
0.0
  0
LINE
  5
18D79
330
18C7A
100
AcDbEntity
  8
破線
 48
10.0
100
AcDbLine
 10
2126.970589276534
 20
1448.994269174505
 30
0.0
 11
2126.970589276531
 21
2702.494269174586
 31
0.0
  0
LINE
  5
18D7A
330
18C7A
100
AcDbEntity
  8
部品1
100
AcDbLine
 10
2794.470589276556
 20
3154.494269174622
 30
0.0
 11
3858.970589276556
 21
3154.494269174604
 31
0.0
  0
LINE
  5
18D7B
330
18C7A
100
AcDbEntity
  8
細線
 48
50.0
100
AcDbLine
 10
3858.470589276556
 20
2702.494269174608
 30
0.0
 11
2795.470589276556
 21
3152.494269174607
 31
0.0
  0
LINE
  5
18D7C
330
18C7A
100
AcDbEntity
  8
部品1
100
AcDbLine
 10
2795.470589276555
 20
2702.494269174615
 30
0.0
 11
3858.470589276556
 21
2702.494269174608
 31
0.0
  0
LINE
  5
18D7D
330
18C7A
100
AcDbEntity
  8
部品1
100
AcDbLine
 10
2795.470589276556
 20
3152.494269174611
 30
0.0
 11
3858.470589276556
 21
3152.494269174604
 31
0.0
  0
LINE
  5
18D7E
330
18C7A
100
AcDbEntity
  8
細線
 48
50.0
100
AcDbLine
 10
3858.470589276556
 20
3152.494269174604
 30
0.0
 11
2795.470589276555
 21
2702.494269174615
 31
0.0
  0
DIMENSION
  5
18D7F
330
18C7A
100
AcDbEntity
  8
寸法
100
AcDbDimension
  2
*D10
 10
3801.234916278101
 20
2488.887829538937
 30
0.0
 11
3318.360544398907
 21
2488.887829538937
 31
0.0
 12
-3742.925985830444
 22
-6453.628869860112
 32
0.0
 70
   128
 71
     5
 42
1063.000000000012
  3
INABA_S40G
100
AcDbAlignedDimension
 13
2795.470589276555
 23
2702.494269174615
 33
0.0
 14
3858.470589276567
 24
2702.494269174608
 34
0.0
100
AcDbRotatedDimension
1001
ACAD
1000
DSTYLE
1002
{
1002
}
  0
LINE
  5
18D80
330
18C7A
100
AcDbEntity
  8
破線
 48
10.0
100
AcDbLine
 10
3806.970589276556
 20
1472.494269174594
 30
0.0
 11
3009.47058927653
 21
1472.494269174523
 31
0.0
  0
DIMENSION
  5
18D81
330
18C7A
100
AcDbEntity
  8
寸法
100
AcDbDimension
  2
*D9
 10
4534.396935010941
 20
1392.494269174596
 30
0.0
 11
4534.39693501094
 21
1084.008987800356
 31
0.0
 12
-3742.925985830444
 22
-6453.628869860112
 32
0.0
 70
   128
 71
     5
 42
54.99999999999636
  3
INABA_S40G
100
AcDbAlignedDimension
 13
3886.970589276531
 23
1447.494269174593
 33
0.0
 14
3886.970589276531
 24
1392.494269174596
 34
0.0
 50
90.0
100
AcDbRotatedDimension
1001
ACAD
1000
DSTYLE
1002
{
1002
}
  0
LINE
  5
18D82
330
18C7A
100
AcDbEntity
  8
部品1
100
AcDbLine
 10
471.9705892765196
 20
3182.494269174477
 30
0.0
 11
471.9705892765232
 21
3154.494269174477
 31
0.0
  0
LINE
  5
18D83
330
18C7A
100
AcDbEntity
  8
部品1
100
AcDbLine
 10
471.9705892765559
 20
3182.494269174509
 30
0.0
 11
471.9705892765559
 21
3154.494269174509
 31
0.0
  0
LINE
  5
18D84
330
18C7A
100
AcDbEntity
  8
部品1
100
AcDbLine
 10
444.9705892765232
 20
3127.49426917448
 30
0.0
 11
416.9705892765232
 21
3127.49426917448
 31
0.0
  0
LINE
  5
18D85
330
18C7A
100
AcDbEntity
  8
部品1
100
AcDbLine
 10
444.9705892765305
 20
2707.49426917448
 30
0.0
 11
416.9705892765305
 21
2707.49426917448
 31
0.0
  0
LINE
  5
18D86
330
18C7A
100
AcDbEntity
  8
部品1
 48
50.0
100
AcDbLine
 10
445.4705892765542
 20
3152.494269174506
 30
0.0
 11
445.4705892765559
 21
2702.494269174505
 31
0.0
  0
LINE
  5
18D87
330
18C7A
100
AcDbEntity
  8
部品1
 48
50.0
100
AcDbLine
 10
473.470589276545
 20
1448.994269174573
 30
0.0
 11
444.970589276545
 21
1420.494269174574
 31
0.0
  0
LINE
  5
18D88
330
18C7A
100
AcDbEntity
  8
部品1
100
AcDbLine
 10
471.9705892765232
 20
1392.494269174465
 30
0.0
 11
416.9705892765486
 21
1392.494269174465
 31
0.0
  0
LINE
  5
18D89
330
18C7A
100
AcDbEntity
  8
部品1
100
AcDbLine
 10
444.9705892765305
 20
1447.494269174429
 30
0.0
 11
416.9705892765469
 21
1447.494269174429
 31
0.0
  0
LINE
  5
18D8A
330
18C7A
100
AcDbEntity
  8
部品1
100
AcDbLine
 10
444.9705892765305
 20
1447.494269174465
 30
0.0
 11
416.9705892765469
 21
1447.494269174465
 31
0.0
  0
LINE
  5
18D8B
330
18C7A
100
AcDbEntity
  8
部品1
100
AcDbLine
 10
444.9705892765469
 20
1447.49426917448
 30
0.0
 11
416.9705892765469
 21
1447.49426917448
 31
0.0
  0
LINE
  5
18D8C
330
18C7A
100
AcDbEntity
  8
部品1
100
AcDbLine
 10
416.9705892765469
 20
1447.494269174429
 30
0.0
 11
416.9705892765486
 21
1392.494269174433
 31
0.0
  0
LINE
  5
18D8D
330
18C7A
100
AcDbEntity
  8
部品1
100
AcDbLine
 10
416.9705892765196
 20
3182.494269174477
 30
0.0
 11
416.9705892765486
 21
1392.494269174465
 31
0.0
  0
LINE
  5
18D8E
330
18C7A
100
AcDbEntity
  8
部品1
100
AcDbLine
 10
444.9705892765305
 20
1420.494269174556
 30
0.0
 11
444.9705892765559
 21
3154.494269174509
 31
0.0
  0
LINE
  5
18D8F
330
18C7A
100
AcDbEntity
  8
部品1
100
AcDbLine
 10
473.4705892765323
 20
2702.494269174608
 30
0.0
 11
473.470589276545
 21
1448.994269174571
 31
0.0
  0
LINE
  5
18D90
330
18C7A
100
AcDbEntity
  8
破線
 48
10.0
100
AcDbLine
 10
496.9705892765305
 20
2702.494269174608
 30
0.0
 11
496.9705892765451
 21
1472.494269174476
 31
0.0
  0
DIMENSION
  5
18D91
330
18C7A
100
AcDbEntity
  8
寸法
100
AcDbDimension
  2
*D8
 10
3886.970589276531
 20
410.7433333855515
 30
0.0
 11
2168.197775309287
 21
410.7433333855515
 31
0.0
 12
-3742.925985830444
 22
-6453.628869860112
 32
0.0
 70
   128
 71
     5
 42
3469.999999999982
  3
INABA_S40G
100
AcDbAlignedDimension
 13
416.9705892765486
 23
1392.494269174433
 33
0.0
 14
3886.970589276531
 24
1392.49426917456
 34
0.0
100
AcDbRotatedDimension
1001
ACAD
1000
DSTYLE
1002
{
1070
   341
1005
0
1002
}
  0
LINE
  5
18D92
330
18C7A
100
AcDbEntity
  8
部品1
100
AcDbLine
 10
444.9705892765559
 20
3154.494269174624
 30
0.0
 11
1509.470589276487
 21
3154.494269174626
 31
0.0
  0
LINE
  5
18D93
330
18C7A
100
AcDbEntity
  8
部品1
100
AcDbLine
 10
3886.970589276531
 20
1392.494269174596
 30
0.0
 11
3411.970589276556
 21
1392.494269174582
 31
0.0
  0
LINE
  5
18D94
330
18C7A
100
AcDbEntity
  8
部品1
100
AcDbLine
 10
416.9705892765559
 20
3182.494269174509
 30
0.0
 11
3886.970589276556
 21
3182.494269174604
 31
0.0
  0
LINE
  5
18D95
330
18C7A
100
AcDbEntity
  8
部品1
100
AcDbLine
 10
445.4705892765559
 20
2702.494269174509
 30
0.0
 11
1508.470589276487
 21
2702.494269174558
 31
0.0
  0
LINE
  5
18D96
330
18C7A
100
AcDbEntity
  8
細線
 48
50.0
100
AcDbLine
 10
2767.470589276556
 20
3152.494269174611
 30
0.0
 11
1536.470589276487
 21
2702.494269174558
 31
0.0
  0
LINE
  5
18D97
330
18C7A
100
AcDbEntity
  8
部品1
100
AcDbLine
 10
445.4705892765542
 20
3152.494269174509
 30
0.0
 11
1508.470589276485
 21
3152.494269174558
 31
0.0
  0
LINE
  5
18D98
330
18C7A
100
AcDbEntity
  8
細線
 48
50.0
100
AcDbLine
 10
2767.470589276554
 20
2702.494269174615
 30
0.0
 11
1536.470589276485
 21
3152.494269174558
 31
0.0
  0
LINE
  5
18D99
330
18C7A
100
AcDbEntity
  8
破線
 48
10.0
100
AcDbLine
 10
2126.970589276534
 20
1472.494269174502
 30
0.0
 11
1344.47058927653
 21
1472.494269174473
 31
0.0
  0
LINE
  5
18D9A
330
18C7A
100
AcDbEntity
  8
部品1
100
AcDbLine
 10
3830.470589276556
 20
1448.994269174596
 30
0.0
 11
473.4705892764487
 21
1448.994269174476
 31
0.0
  0
DIMENSION
  5
18D9B
330
18C7A
100
AcDbEntity
  8
寸法
100
AcDbDimension
  2
*D7
 10
471.970589276555
 20
3698.302488799491
 30
0.0
 11
108.4853079022819
 21
3698.302488799491
 31
0.0
 12
-3742.925985830444
 22
-6453.628869860112
 32
0.0
 70
   128
 71
     5
 42
55.00000000003456
  3
INABA_S40G
100
AcDbAlignedDimension
 13
416.9705892765205
 23
3182.494269174509
 33
0.0
 14
471.970589276555
 24
3182.494269174509
 34
0.0
100
AcDbRotatedDimension
1001
ACAD
1000
DSTYLE
1002
{
1002
}
  0
DIMENSION
  5
18D9C
330
18C7A
100
AcDbEntity
  8
寸法
100
AcDbDimension
  2
*D6
 10
4534.396935010967
 20
3127.494269174607
 30
0.0
 11
4534.396935010965
 21
3490.979550548844
 31
0.0
 12
-3742.925985830444
 22
-6453.628869860112
 32
0.0
 70
   128
 71
     5
 42
54.99999999999636
  3
INABA_S40G
100
AcDbAlignedDimension
 13
3886.970589276556
 23
3182.494269174604
 33
0.0
 14
3886.970589276556
 24
3127.494269174607
 34
0.0
 50
90.0
100
AcDbRotatedDimension
1001
ACAD
1000
DSTYLE
1002
{
1002
}
  0
DIMENSION
  5
18D9D
330
18C7A
100
AcDbEntity
  8
寸法
100
AcDbDimension
  2
*D5
 10
3886.970589276556
 20
3698.302488799589
 30
0.0
 11
4195.455870650794
 21
3698.302488799589
 31
0.0
 12
-3742.925985830444
 22
-6453.628869860112
 32
0.0
 70
   128
 71
     5
 42
55.0
  3
INABA_S40G
100
AcDbAlignedDimension
 13
3831.970589276556
 23
3182.494269174604
 33
0.0
 14
3886.970589276556
 24
3182.494269174604
 34
0.0
100
AcDbRotatedDimension
1001
ACAD
1000
DSTYLE
1002
{
1002
}
  0
DIMENSION
  5
18D9E
330
18C7A
100
AcDbEntity
  8
寸法
100
AcDbDimension
  2
*D4
 10
3831.970589276556
 20
3698.302488799607
 30
0.0
 11
2151.970589276555
 21
3698.302488799607
 31
0.0
 12
-3742.925985830444
 22
-6453.628869860112
 32
0.0
 70
   128
  1
8X420=<>
 71
     5
 42
3360.000000000001
  3
INABA_S40G
100
AcDbAlignedDimension
 13
471.970589276555
 23
3182.494269174509
 33
0.0
 14
3831.970589276556
 24
3182.494269174604
 34
0.0
100
AcDbRotatedDimension
1001
ACAD
1000
DSTYLE
1002
{
1002
}
  0
DIMENSION
  5
18D9F
330
18C7A
100
AcDbEntity
  8
寸法
100
AcDbDimension
  2
*D3
 10
4899.503876750603
 20
1392.494269174596
 30
0.0
 11
4899.503876750601
 21
2287.4942691746
 31
0.0
 12
-3742.925985830444
 22
-6453.628869860112
 32
0.0
 70
   128
 71
     5
 42
1790.000000000007
  3
INABA_S40G
100
AcDbAlignedDimension
 13
3886.970589276556
 23
3182.494269174604
 33
0.0
 14
3886.970589276531
 24
1392.494269174596
 34
0.0
 50
90.0
100
AcDbRotatedDimension
1001
ACAD
1000
DSTYLE
1002
{
1002
}
  0
ENDBLK
  5
18DA1
330
18C7A
100
AcDbEntity
  8
0
 48
50.0
100
AcDbBlockEnd
  0
BLOCK
  5
1C4CB
330
1C4CA
100
AcDbEntity
  8
0
 48
50.0
100
AcDbBlockBegin
  2
_NONE
 70
     0
 10
0.0
 20
0.0
 30
0.0
  3
_NONE
  1

  0
CIRCLE
  5
1C4CC
330
1C4CA
100
AcDbEntity
  8
0
  6
ByBlock
 62
     0
 48
50.0
100
AcDbCircle
 10
0.0
 20
0.0
 30
0.0
 40
0.25
  0
ENDBLK
  5
1C4CD
330
1C4CA
100
AcDbEntity
  8
0
 48
50.0
100
AcDbBlockEnd
  0
BLOCK
  5
2B958
330
2B94E
100
AcDbEntity
  8
0
 48
50.0
100
AcDbBlockBegin
  2
*D19
 70
     1
 10
0.0
 20
0.0
 30
0.0
  3
*D19
  1

  0
LINE
  5
2C6E2
330
2B94E
100
AcDbEntity
  8
寸法
 62
     0
 48
50.0
370
    -2
100
AcDbLine
 10
8698.600000000007
 20
6839.958730512873
 30
0.0
 11
8698.600000000007
 21
7792.567547183122
 31
0.0
  0
LINE
  5
2C6E3
330
2B94E
100
AcDbEntity
  8
寸法
 62
     0
 48
50.0
370
    -2
100
AcDbLine
 10
7748.600000000007
 20
6839.958730512873
 30
0.0
 11
7748.600000000007
 21
7792.567547183122
 31
0.0
  0
LINE
  5
2C6E4
330
2B94E
100
AcDbEntity
  8
寸法
 62
     0
 48
50.0
370
    -2
100
AcDbLine
 10
8698.600000000007
 20
7732.567547183122
 30
0.0
 11
7748.600000000007
 21
7732.567547183122
 31
0.0
  0
INSERT
  5
2C6E5
330
2B94E
100
AcDbEntity
  8
寸法
 62
     0
 48
50.0
370
    -2
100
AcDbBlockReference
  2
_DOTSMALL
 10
8698.600000000007
 20
7732.567547183122
 30
0.0
 41
100.0
 42
100.0
 43
100.0
  0
INSERT
  5
2C6E6
330
2B94E
100
AcDbEntity
  8
寸法
 62
     0
 48
50.0
370
    -2
100
AcDbBlockReference
  2
_DOTSMALL
 10
7748.600000000007
 20
7732.567547183122
 30
0.0
 41
100.0
 42
100.0
 43
100.0
 50
180.0
  0
MTEXT
  5
2C6E7
330
2B94E
100
AcDbEntity
  8
寸法
 62
     7
 48
50.0
100
AcDbMText
 10
8223.600000000008
 20
7832.567547183121
 30
0.0
 40
120.0
 41
0.0
 71
     5
 72
     1
  1
\A1;950
  7
STYLE1
 73
     1
 44
1.0
1001
ACAD
1000
MTEXTBEGIN
1070
    73
1070
     1
1070
    44
1040
1.0
1070
    74
1070
     0
1000
MTEXTEND
  0
POINT
  5
2C6E8
330
2B94E
100
AcDbEntity
  8
DEFPOINTS
 62
     0
 48
50.0
100
AcDbPoint
 10
8698.600000000007
 20
6819.958730512873
 30
0.0
  0
POINT
  5
2C6E9
330
2B94E
100
AcDbEntity
  8
DEFPOINTS
 62
     0
 48
50.0
100
AcDbPoint
 10
7748.600000000007
 20
6819.958730512873
 30
0.0
  0
POINT
  5
2C6EA
330
2B94E
100
AcDbEntity
  8
DEFPOINTS
 62
     0
 48
50.0
100
AcDbPoint
 10
7748.600000000007
 20
7732.567547183122
 30
0.0
  0
ENDBLK
  5
2B959
330
2B94E
100
AcDbEntity
  8
0
 48
50.0
100
AcDbBlockEnd
  0
BLOCK
  5
2B964
330
2B95A
100
AcDbEntity
  8
0
 48
50.0
100
AcDbBlockBegin
  2
*D20
 70
     1
 10
0.0
 20
0.0
 30
0.0
  3
*D20
  1

  0
LINE
  5
2C6D9
330
2B95A
100
AcDbEntity
  8
寸法
 62
     0
 48
50.0
370
    -2
100
AcDbLine
 10
2993.600000000001
 20
7269.958730512873
 30
0.0
 11
2993.600000000001
 21
8268.17905257179
 31
0.0
  0
LINE
  5
2C6DA
330
2B95A
100
AcDbEntity
  8
寸法
 62
     0
 48
50.0
370
    -2
100
AcDbLine
 10
13453.6
 20
7269.958730512873
 30
0.0
 11
13453.6
 21
8268.17905257179
 31
0.0
  0
LINE
  5
2C6DB
330
2B95A
100
AcDbEntity
  8
寸法
 62
     0
 48
50.0
370
    -2
100
AcDbLine
 10
2993.600000000001
 20
8208.179052571789
 30
0.0
 11
13453.6
 21
8208.179052571789
 31
0.0
  0
INSERT
  5
2C6DC
330
2B95A
100
AcDbEntity
  8
寸法
 62
     0
 48
50.0
370
    -2
100
AcDbBlockReference
  2
_DOTSMALL
 10
2993.600000000001
 20
8208.179052571789
 30
0.0
 41
100.0
 42
100.0
 43
100.0
 50
180.0
  0
INSERT
  5
2C6DD
330
2B95A
100
AcDbEntity
  8
寸法
 62
     0
 48
50.0
370
    -2
100
AcDbBlockReference
  2
_DOTSMALL
 10
13453.6
 20
8208.179052571789
 30
0.0
 41
100.0
 42
100.0
 43
100.0
  0
MTEXT
  5
2C6DE
330
2B95A
100
AcDbEntity
  8
寸法
 62
     7
 48
50.0
100
AcDbMText
 10
8223.600000000001
 20
8308.179052571789
 30
0.0
 40
120.0
 41
0.0
 71
     5
 72
     1
  1
\A1;N X 950+10
  7
STYLE1
 73
     1
 44
1.0
1001
ACAD
1000
MTEXTBEGIN
1070
    73
1070
     1
1070
    44
1040
1.0
1070
    74
1070
     0
1000
MTEXTEND
  0
POINT
  5
2C6DF
330
2B95A
100
AcDbEntity
  8
DEFPOINTS
 62
     0
 48
50.0
100
AcDbPoint
 10
2993.600000000001
 20
7249.958730512874
 30
0.0
  0
POINT
  5
2C6E0
330
2B95A
100
AcDbEntity
  8
DEFPOINTS
 62
     0
 48
50.0
100
AcDbPoint
 10
13453.6
 20
7249.958730512874
 30
0.0
  0
POINT
  5
2C6E1
330
2B95A
100
AcDbEntity
  8
DEFPOINTS
 62
     0
 48
50.0
100
AcDbPoint
 10
13453.6
 20
8208.179052571789
 30
0.0
  0
ENDBLK
  5
2B965
330
2B95A
100
AcDbEntity
  8
0
 48
50.0
100
AcDbBlockEnd
  0
BLOCK
  5
2B971
330
2B966
100
AcDbEntity
  8
0
 48
50.0
100
AcDbBlockBegin
  2
*D21
 70
     1
 10
0.0
 20
0.0
 30
0.0
  3
*D21
  1

  0
LINE
  5
2C6CF
330
2B966
100
AcDbEntity
  8
寸法
 62
     0
 48
50.0
370
    -2
100
AcDbLine
 10
3547.765475140901
 20
6289.958730512885
 30
0.0
 11
3416.285990614301
 21
6289.958730512885
 31
0.0
  0
LINE
  5
2C6D0
330
2B966
100
AcDbEntity
  8
寸法
 62
     0
 48
50.0
370
    -2
100
AcDbLine
 10
3878.600000000008
 20
6769.958730512873
 30
0.0
 11
3416.285990614301
 21
6769.958730512873
 31
0.0
  0
LINE
  5
2C6D1
330
2B966
100
AcDbEntity
  8
寸法
 62
     0
 48
50.0
370
    -2
100
AcDbLine
 10
3476.285990614301
 20
6769.958730512873
 30
0.0
 11
3476.285990614301
 21
6289.958730512885
 31
0.0
  0
LINE
  5
2C6D2
330
2B966
100
AcDbEntity
  8
寸法
 62
     0
 48
50.0
370
    -2
100
AcDbLine
 10
3476.285990614301
 20
6289.958730512885
 30
0.0
 11
3476.285990614301
 21
5843.352431300283
 31
0.0
  0
INSERT
  5
2C6D3
330
2B966
100
AcDbEntity
  8
寸法
 62
     0
 48
50.0
370
    -2
100
AcDbBlockReference
  2
_DOTSMALL
 10
3476.285990614301
 20
6769.958730512873
 30
0.0
 41
100.0
 42
100.0
 43
100.0
 50
90.0
  0
INSERT
  5
2C6D4
330
2B966
100
AcDbEntity
  8
寸法
 62
     0
 48
50.0
370
    -2
100
AcDbBlockReference
  2
_DOTSMALL
 10
3476.285990614301
 20
6289.958730512885
 30
0.0
 41
100.0
 42
100.0
 43
100.0
 50
270.0
  0
MTEXT
  5
2C6D5
330
2B966
100
AcDbEntity
  8
寸法
 62
     7
 48
50.0
100
AcDbMText
 10
3376.285990614301
 20
5997.399675394772
 30
0.0
 40
120.0
 41
0.0
 71
     5
 72
     1
  1
\A1;480
  7
STYLE1
 11
0.0000000000000001
 21
1.0
 31
0.0
 73
     1
 44
1.0
1001
ACAD
1000
MTEXTBEGIN
1070
    73
1070
     1
1070
    44
1040
1.0
1070
    74
1070
     0
1000
MTEXTEND
  0
POINT
  5
2C6D6
330
2B966
100
AcDbEntity
  8
DEFPOINTS
 62
     0
 48
50.0
100
AcDbPoint
 10
3567.765475140901
 20
6289.958730512885
 30
0.0
  0
POINT
  5
2C6D7
330
2B966
100
AcDbEntity
  8
DEFPOINTS
 62
     0
 48
50.0
100
AcDbPoint
 10
3898.600000000008
 20
6769.958730512873
 30
0.0
  0
POINT
  5
2C6D8
330
2B966
100
AcDbEntity
  8
DEFPOINTS
 62
     0
 48
50.0
100
AcDbPoint
 10
3476.285990614301
 20
6769.958730512873
 30
0.0
  0
ENDBLK
  5
2B972
330
2B966
100
AcDbEntity
  8
0
 48
50.0
100
AcDbBlockEnd
  0
BLOCK
  5
2B97D
330
2B973
100
AcDbEntity
  8
0
 48
50.0
100
AcDbBlockBegin
  2
*D22
 70
     1
 10
0.0
 20
0.0
 30
0.0
  3
*D22
  1

  0
LINE
  5
2C70F
330
2B973
100
AcDbEntity
  8
寸法
 62
     0
 48
50.0
370
    -2
100
AcDbLine
 10
3046.600000000001
 20
7126.958730512874
 30
0.0
 11
2310.665006330072
 21
7126.958730512874
 31
0.0
  0
LINE
  5
2C710
330
2B973
100
AcDbEntity
  8
寸法
 62
     0
 48
50.0
370
    -2
100
AcDbLine
 10
3046.600000000008
 20
6487.958730512876
 30
0.0
 11
2310.665006330072
 21
6487.958730512876
 31
0.0
  0
LINE
  5
2C711
330
2B973
100
AcDbEntity
  8
寸法
 62
     0
 48
50.0
370
    -2
100
AcDbLine
 10
2370.665006330072
 20
7126.958730512874
 30
0.0
 11
2370.665006330072
 21
6487.958730512876
 31
0.0
  0
INSERT
  5
2C712
330
2B973
100
AcDbEntity
  8
寸法
 62
     0
 48
50.0
370
    -2
100
AcDbBlockReference
  2
_DOTSMALL
 10
2370.665006330072
 20
7126.958730512874
 30
0.0
 41
100.0
 42
100.0
 43
100.0
 50
90.0
  0
INSERT
  5
2C713
330
2B973
100
AcDbEntity
  8
寸法
 62
     0
 48
50.0
370
    -2
100
AcDbBlockReference
  2
_DOTSMALL
 10
2370.665006330072
 20
6487.958730512876
 30
0.0
 41
100.0
 42
100.0
 43
100.0
 50
270.0
  0
MTEXT
  5
2C714
330
2B973
100
AcDbEntity
  8
寸法
 62
     7
 48
50.0
100
AcDbMText
 10
2270.665006330071
 20
6807.458730512873
 30
0.0
 40
120.0
 41
0.0
 71
     5
 72
     1
  1
\A1;639
  7
STYLE1
 11
0.0000000000000001
 21
1.0
 31
0.0
 73
     1
 44
1.0
1001
ACAD
1000
MTEXTBEGIN
1070
    73
1070
     1
1070
    44
1040
1.0
1070
    74
1070
     0
1000
MTEXTEND
  0
POINT
  5
2C715
330
2B973
100
AcDbEntity
  8
DEFPOINTS
 62
     0
 48
50.0
100
AcDbPoint
 10
3066.600000000001
 20
7126.958730512874
 30
0.0
  0
POINT
  5
2C716
330
2B973
100
AcDbEntity
  8
DEFPOINTS
 62
     0
 48
50.0
100
AcDbPoint
 10
3066.600000000008
 20
6487.958730512876
 30
0.0
  0
POINT
  5
2C717
330
2B973
100
AcDbEntity
  8
DEFPOINTS
 62
     0
 48
50.0
100
AcDbPoint
 10
2370.665006330072
 20
6487.958730512876
 30
0.0
  0
ENDBLK
  5
2B97E
330
2B973
100
AcDbEntity
  8
0
 48
50.0
100
AcDbBlockEnd
  0
BLOCK
  5
2B989
330
2B97F
100
AcDbEntity
  8
0
 48
50.0
100
AcDbBlockBegin
  2
*D23
 70
     1
 10
0.0
 20
0.0
 30
0.0
  3
*D23
  1

  0
LINE
  5
2C6BD
330
2B97F
100
AcDbEntity
  8
寸法
 62
     0
 48
50.0
370
    -2
100
AcDbLine
 10
2973.600000000001
 20
7249.958730512874
 30
0.0
 11
2058.721909610675
 21
7249.958730512874
 31
0.0
  0
LINE
  5
2C6BE
330
2B97F
100
AcDbEntity
  8
寸法
 62
     0
 48
50.0
370
    -2
100
AcDbLine
 10
2973.600000000001
 20
6289.958730512873
 30
0.0
 11
2058.721909610674
 21
6289.958730512873
 31
0.0
  0
LINE
  5
2C6BF
330
2B97F
100
AcDbEntity
  8
寸法
 62
     0
 48
50.0
370
    -2
100
AcDbLine
 10
2118.721909610674
 20
7249.958730512874
 30
0.0
 11
2118.721909610674
 21
6289.958730512873
 31
0.0
  0
INSERT
  5
2C6C0
330
2B97F
100
AcDbEntity
  8
寸法
 62
     0
 48
50.0
370
    -2
100
AcDbBlockReference
  2
_DOTSMALL
 10
2118.721909610674
 20
7249.958730512874
 30
0.0
 41
100.0
 42
100.0
 43
100.0
 50
90.0
  0
INSERT
  5
2C6C1
330
2B97F
100
AcDbEntity
  8
寸法
 62
     0
 48
50.0
370
    -2
100
AcDbBlockReference
  2
_DOTSMALL
 10
2118.721909610674
 20
6289.958730512873
 30
0.0
 41
100.0
 42
100.0
 43
100.0
 50
270.0
  0
MTEXT
  5
2C6C2
330
2B97F
100
AcDbEntity
  8
寸法
 62
     7
 48
50.0
100
AcDbMText
 10
2018.721909610673
 20
6807.458730512873
 30
0.0
 40
120.0
 41
0.0
 71
     5
 72
     1
  1
\A1;960
  7
STYLE1
 11
0.0000000000000001
 21
1.0
 31
0.0
 73
     1
 44
1.0
1001
ACAD
1000
MTEXTBEGIN
1070
    73
1070
     1
1070
    44
1040
1.0
1070
    74
1070
     0
1000
MTEXTEND
  0
POINT
  5
2C6C3
330
2B97F
100
AcDbEntity
  8
DEFPOINTS
 62
     0
 48
50.0
100
AcDbPoint
 10
2993.600000000001
 20
7249.958730512874
 30
0.0
  0
POINT
  5
2C6C4
330
2B97F
100
AcDbEntity
  8
DEFPOINTS
 62
     0
 48
50.0
100
AcDbPoint
 10
2993.600000000001
 20
6289.958730512873
 30
0.0
  0
POINT
  5
2C6C5
330
2B97F
100
AcDbEntity
  8
DEFPOINTS
 62
     0
 48
50.0
100
AcDbPoint
 10
2118.721909610674
 20
6289.958730512873
 30
0.0
  0
ENDBLK
  5
2B98A
330
2B97F
100
AcDbEntity
  8
0
 48
50.0
100
AcDbBlockEnd
  0
BLOCK
  5
2B9A2
330
2B997
100
AcDbEntity
  8
0
 48
50.0
100
AcDbBlockBegin
  2
*D24
 70
     1
 10
0.0
 20
0.0
 30
0.0
  3
*D24
  1

  0
LINE
  5
2C705
330
2B997
100
AcDbEntity
  8
寸法
 62
     0
 48
50.0
370
    -2
100
AcDbLine
 10
3046.600000000008
 20
6487.958730512876
 30
0.0
 11
2310.665006330072
 21
6487.958730512876
 31
0.0
  0
LINE
  5
2C706
330
2B997
100
AcDbEntity
  8
寸法
 62
     0
 48
50.0
370
    -2
100
AcDbLine
 10
2973.600000000001
 20
6289.958730512873
 30
0.0
 11
2310.665006330072
 21
6289.958730512873
 31
0.0
  0
LINE
  5
2C707
330
2B997
100
AcDbEntity
  8
寸法
 62
     0
 48
50.0
370
    -2
100
AcDbLine
 10
2370.665006330072
 20
6487.958730512876
 30
0.0
 11
2370.665006330072
 21
6289.958730512873
 31
0.0
  0
LINE
  5
2C708
330
2B997
100
AcDbEntity
  8
寸法
 62
     0
 48
50.0
370
    -2
100
AcDbLine
 10
2370.665006330072
 20
6289.958730512873
 30
0.0
 11
2370.665006330072
 21
5818.218121840624
 31
0.0
  0
INSERT
  5
2C709
330
2B997
100
AcDbEntity
  8
寸法
 62
     0
 48
50.0
370
    -2
100
AcDbBlockReference
  2
_DOTSMALL
 10
2370.665006330072
 20
6487.958730512876
 30
0.0
 41
100.0
 42
100.0
 43
100.0
 50
90.0
  0
INSERT
  5
2C70A
330
2B997
100
AcDbEntity
  8
寸法
 62
     0
 48
50.0
370
    -2
100
AcDbBlockReference
  2
_DOTSMALL
 10
2370.665006330072
 20
6289.958730512873
 30
0.0
 41
100.0
 42
100.0
 43
100.0
 50
270.0
  0
MTEXT
  5
2C70B
330
2B997
100
AcDbEntity
  8
寸法
 62
     7
 48
50.0
100
AcDbMText
 10
2270.665006330071
 20
5954.427781670282
 30
0.0
 40
120.0
 41
0.0
 71
     5
 72
     1
  1
\A1;198
  7
STYLE1
 11
0.0000000000000001
 21
1.0
 31
0.0
 73
     1
 44
1.0
1001
ACAD
1000
MTEXTBEGIN
1070
    73
1070
     1
1070
    44
1040
1.0
1070
    74
1070
     0
1000
MTEXTEND
  0
POINT
  5
2C70C
330
2B997
100
AcDbEntity
  8
DEFPOINTS
 62
     0
 48
50.0
100
AcDbPoint
 10
3066.600000000008
 20
6487.958730512876
 30
0.0
  0
POINT
  5
2C70D
330
2B997
100
AcDbEntity
  8
DEFPOINTS
 62
     0
 48
50.0
100
AcDbPoint
 10
2993.600000000001
 20
6289.958730512873
 30
0.0
  0
POINT
  5
2C70E
330
2B997
100
AcDbEntity
  8
DEFPOINTS
 62
     0
 48
50.0
100
AcDbPoint
 10
2370.665006330072
 20
6289.958730512873
 30
0.0
  0
ENDBLK
  5
2B9A3
330
2B997
100
AcDbEntity
  8
0
 48
50.0
100
AcDbBlockEnd
  0
BLOCK
  5
2B9AE
330
2B9A4
100
AcDbEntity
  8
0
 48
50.0
100
AcDbBlockBegin
  2
*D25
 70
     1
 10
0.0
 20
0.0
 30
0.0
  3
*D25
  1

  0
LINE
  5
2C6AA
330
2B9A4
100
AcDbEntity
  8
寸法
 62
     0
 48
50.0
370
    -2
100
AcDbLine
 10
2973.600000000004
 20
6289.95873051287
 30
0.0
 11
2820.512673767883
 21
6289.95873051287
 31
0.0
  0
LINE
  5
2C6AB
330
2B9A4
100
AcDbEntity
  8
寸法
 62
     0
 48
50.0
370
    -2
100
AcDbLine
 10
3329.325326928809
 20
5569.95873051287
 30
0.0
 11
2820.512673767883
 21
5569.95873051287
 31
0.0
  0
LINE
  5
2C6AC
330
2B9A4
100
AcDbEntity
  8
寸法
 62
     0
 48
50.0
370
    -2
100
AcDbLine
 10
2880.512673767883
 20
6289.95873051287
 30
0.0
 11
2880.512673767883
 21
5569.95873051287
 31
0.0
  0
INSERT
  5
2C6AD
330
2B9A4
100
AcDbEntity
  8
寸法
 62
     0
 48
50.0
370
    -2
100
AcDbBlockReference
  2
_DOTSMALL
 10
2880.512673767883
 20
6289.95873051287
 30
0.0
 41
100.0
 42
100.0
 43
100.0
 50
90.0
  0
INSERT
  5
2C6AE
330
2B9A4
100
AcDbEntity
  8
寸法
 62
     0
 48
50.0
370
    -2
100
AcDbBlockReference
  2
_DOTSMALL
 10
2880.512673767883
 20
5569.95873051287
 30
0.0
 41
100.0
 42
100.0
 43
100.0
 50
270.0
  0
MTEXT
  5
2C6AF
330
2B9A4
100
AcDbEntity
  8
寸法
 62
     7
 48
50.0
100
AcDbMText
 10
2780.50086274426
 20
5929.958730512871
 30
0.0
 40
120.0
 41
0.0
 71
     5
 72
     1
  1
\A1;扉の出720
  7
STYLE1
 11
0.0000000000000001
 21
1.0
 31
0.0
 73
     1
 44
1.0
1001
ACAD
1000
MTEXTBEGIN
1070
    73
1070
     1
1070
    44
1040
1.0
1070
    74
1070
     0
1000
MTEXTEND
  0
POINT
  5
2C6B0
330
2B9A4
100
AcDbEntity
  8
DEFPOINTS
 62
     0
 48
50.0
100
AcDbPoint
 10
2993.600000000004
 20
6289.95873051287
 30
0.0
  0
POINT
  5
2C6B1
330
2B9A4
100
AcDbEntity
  8
DEFPOINTS
 62
     0
 48
50.0
100
AcDbPoint
 10
3349.325326928809
 20
5569.95873051287
 30
0.0
  0
POINT
  5
2C6B2
330
2B9A4
100
AcDbEntity
  8
DEFPOINTS
 62
     0
 48
50.0
100
AcDbPoint
 10
2880.512673767883
 20
5569.95873051287
 30
0.0
  0
ENDBLK
  5
2B9AF
330
2B9A4
100
AcDbEntity
  8
0
 48
50.0
100
AcDbBlockEnd
  0
BLOCK
  5
2B9C6
330
2B9BD
100
AcDbEntity
  8
0
 48
50.0
100
AcDbBlockBegin
  2
*D26
 70
     1
 10
0.0
 20
0.0
 30
0.0
  3
*D26
  1

  0
LINE
  5
2C6A1
330
2B9BD
100
AcDbEntity
  8
寸法
 62
     0
 48
50.0
370
    -2
100
AcDbLine
 10
5848.600000000008
 20
6839.958730512873
 30
0.0
 11
5848.600000000008
 21
7792.567547183122
 31
0.0
  0
LINE
  5
2C6A2
330
2B9BD
100
AcDbEntity
  8
寸法
 62
     0
 48
50.0
370
    -2
100
AcDbLine
 10
4898.600000000008
 20
6839.958730512873
 30
0.0
 11
4898.600000000008
 21
7792.567547183122
 31
0.0
  0
LINE
  5
2C6A3
330
2B9BD
100
AcDbEntity
  8
寸法
 62
     0
 48
50.0
370
    -2
100
AcDbLine
 10
5848.600000000008
 20
7732.567547183122
 30
0.0
 11
4898.600000000008
 21
7732.567547183122
 31
0.0
  0
INSERT
  5
2C6A4
330
2B9BD
100
AcDbEntity
  8
寸法
 62
     0
 48
50.0
370
    -2
100
AcDbBlockReference
  2
_DOTSMALL
 10
5848.600000000008
 20
7732.567547183122
 30
0.0
 41
100.0
 42
100.0
 43
100.0
  0
INSERT
  5
2C6A5
330
2B9BD
100
AcDbEntity
  8
寸法
 62
     0
 48
50.0
370
    -2
100
AcDbBlockReference
  2
_DOTSMALL
 10
4898.600000000008
 20
7732.567547183122
 30
0.0
 41
100.0
 42
100.0
 43
100.0
 50
180.0
  0
MTEXT
  5
2C6A6
330
2B9BD
100
AcDbEntity
  8
寸法
 62
     7
 48
50.0
100
AcDbMText
 10
5373.600000000007
 20
7832.567547183121
 30
0.0
 40
120.0
 41
0.0
 71
     5
 72
     1
  1
\A1;950
  7
STYLE1
 73
     1
 44
1.0
1001
ACAD
1000
MTEXTBEGIN
1070
    73
1070
     1
1070
    44
1040
1.0
1070
    74
1070
     0
1000
MTEXTEND
  0
POINT
  5
2C6A7
330
2B9BD
100
AcDbEntity
  8
DEFPOINTS
 62
     0
 48
50.0
100
AcDbPoint
 10
5848.600000000008
 20
6819.958730512873
 30
0.0
  0
POINT
  5
2C6A8
330
2B9BD
100
AcDbEntity
  8
DEFPOINTS
 62
     0
 48
50.0
100
AcDbPoint
 10
4898.600000000008
 20
6819.958730512873
 30
0.0
  0
POINT
  5
2C6A9
330
2B9BD
100
AcDbEntity
  8
DEFPOINTS
 62
     0
 48
50.0
100
AcDbPoint
 10
4898.600000000008
 20
7732.567547183122
 30
0.0
  0
ENDBLK
  5
2B9C7
330
2B9BD
100
AcDbEntity
  8
0
 48
50.0
100
AcDbBlockEnd
  0
BLOCK
  5
2B9D1
330
2B9C8
100
AcDbEntity
  8
0
 48
50.0
100
AcDbBlockBegin
  2
*D27
 70
     1
 10
0.0
 20
0.0
 30
0.0
  3
*D27
  1

  0
LINE
  5
2C698
330
2B9C8
100
AcDbEntity
  8
寸法
 62
     0
 48
50.0
370
    -2
100
AcDbLine
 10
5730.6
 20
7196.958730512874
 30
0.0
 11
5730.6
 21
8036.225188606783
 31
0.0
  0
LINE
  5
2C699
330
2B9C8
100
AcDbEntity
  8
寸法
 62
     0
 48
50.0
370
    -2
100
AcDbLine
 10
3116.6
 20
7196.958730512874
 30
0.0
 11
3116.6
 21
8036.225188606783
 31
0.0
  0
LINE
  5
2C69A
330
2B9C8
100
AcDbEntity
  8
寸法
 62
     0
 48
50.0
370
    -2
100
AcDbLine
 10
5730.6
 20
7976.225188606784
 30
0.0
 11
3116.6
 21
7976.225188606784
 31
0.0
  0
INSERT
  5
2C69B
330
2B9C8
100
AcDbEntity
  8
寸法
 62
     0
 48
50.0
370
    -2
100
AcDbBlockReference
  2
_DOTSMALL
 10
5730.6
 20
7976.225188606784
 30
0.0
 41
100.0
 42
100.0
 43
100.0
  0
INSERT
  5
2C69C
330
2B9C8
100
AcDbEntity
  8
寸法
 62
     0
 48
50.0
370
    -2
100
AcDbBlockReference
  2
_DOTSMALL
 10
3116.6
 20
7976.225188606784
 30
0.0
 41
100.0
 42
100.0
 43
100.0
 50
180.0
  0
MTEXT
  5
2C69D
330
2B9C8
100
AcDbEntity
  8
寸法
 62
     7
 48
50.0
100
AcDbMText
 10
4423.6
 20
8076.236999630406
 30
0.0
 40
120.0
 41
0.0
 71
     5
 72
     1
  1
\A1;2614
  7
STYLE1
 73
     1
 44
1.0
1001
ACAD
1000
MTEXTBEGIN
1070
    73
1070
     1
1070
    44
1040
1.0
1070
    74
1070
     0
1000
MTEXTEND
  0
POINT
  5
2C69E
330
2B9C8
100
AcDbEntity
  8
DEFPOINTS
 62
     0
 48
50.0
100
AcDbPoint
 10
5730.6
 20
7176.958730512874
 30
0.0
  0
POINT
  5
2C69F
330
2B9C8
100
AcDbEntity
  8
DEFPOINTS
 62
     0
 48
50.0
100
AcDbPoint
 10
3116.6
 20
7176.958730512874
 30
0.0
  0
POINT
  5
2C6A0
330
2B9C8
100
AcDbEntity
  8
DEFPOINTS
 62
     0
 48
50.0
100
AcDbPoint
 10
3116.6
 20
7976.225188606784
 30
0.0
  0
ENDBLK
  5
2B9D2
330
2B9C8
100
AcDbEntity
  8
0
 48
50.0
100
AcDbBlockEnd
  0
BLOCK
  5
2B9DE
330
2B9D3
100
AcDbEntity
  8
0
 48
50.0
100
AcDbBlockBegin
  2
*D28
 70
     1
 10
0.0
 20
0.0
 30
0.0
  3
*D28
  1

  0
LINE
  5
2C68E
330
2B9D3
100
AcDbEntity
  8
寸法
 62
     0
 48
50.0
370
    -2
100
AcDbLine
 10
3878.600000000008
 20
6769.958730512873
 30
0.0
 11
3416.285990614301
 21
6769.958730512873
 31
0.0
  0
LINE
  5
2C68F
330
2B9D3
100
AcDbEntity
  8
寸法
 62
     0
 48
50.0
370
    -2
100
AcDbLine
 10
3547.765475140901
 20
7249.958730512874
 30
0.0
 11
3416.285990614302
 21
7249.958730512874
 31
0.0
  0
LINE
  5
2C690
330
2B9D3
100
AcDbEntity
  8
寸法
 62
     0
 48
50.0
370
    -2
100
AcDbLine
 10
3476.285990614301
 20
6769.958730512873
 30
0.0
 11
3476.285990614302
 21
7249.958730512874
 31
0.0
  0
LINE
  5
2C691
330
2B9D3
100
AcDbEntity
  8
寸法
 62
     0
 48
50.0
370
    -2
100
AcDbLine
 10
3476.285990614302
 20
7249.958730512874
 30
0.0
 11
3476.285990614302
 21
7696.565029725473
 31
0.0
  0
INSERT
  5
2C692
330
2B9D3
100
AcDbEntity
  8
寸法
 62
     0
 48
50.0
370
    -2
100
AcDbBlockReference
  2
_DOTSMALL
 10
3476.285990614301
 20
6769.958730512873
 30
0.0
 41
100.0
 42
100.0
 43
100.0
 50
270.0
  0
INSERT
  5
2C693
330
2B9D3
100
AcDbEntity
  8
寸法
 62
     0
 48
50.0
370
    -2
100
AcDbBlockReference
  2
_DOTSMALL
 10
3476.285990614302
 20
7249.958730512874
 30
0.0
 41
100.0
 42
100.0
 43
100.0
 50
90.0
  0
MTEXT
  5
2C694
330
2B9D3
100
AcDbEntity
  8
寸法
 62
     7
 48
50.0
100
AcDbMText
 10
3376.285990614301
 20
7542.517785630984
 30
0.0
 40
120.0
 41
0.0
 71
     5
 72
     1
  1
\A1;480
  7
STYLE1
 11
0.0000000000000001
 21
1.0
 31
0.0
 73
     1
 44
1.0
1001
ACAD
1000
MTEXTBEGIN
1070
    73
1070
     1
1070
    44
1040
1.0
1070
    74
1070
     0
1000
MTEXTEND
  0
POINT
  5
2C695
330
2B9D3
100
AcDbEntity
  8
DEFPOINTS
 62
     0
 48
50.0
100
AcDbPoint
 10
3898.600000000008
 20
6769.958730512873
 30
0.0
  0
POINT
  5
2C696
330
2B9D3
100
AcDbEntity
  8
DEFPOINTS
 62
     0
 48
50.0
100
AcDbPoint
 10
3567.765475140901
 20
7249.958730512874
 30
0.0
  0
POINT
  5
2C697
330
2B9D3
100
AcDbEntity
  8
DEFPOINTS
 62
     0
 48
50.0
100
AcDbPoint
 10
3476.285990614302
 20
7249.958730512874
 30
0.0
  0
ENDBLK
  5
2B9DF
330
2B9D3
100
AcDbEntity
  8
0
 48
50.0
100
AcDbBlockEnd
  0
BLOCK
  5
2B9EA
330
2B9E0
100
AcDbEntity
  8
0
 48
50.0
100
AcDbBlockBegin
  2
*D29
 70
     1
 10
0.0
 20
0.0
 30
0.0
  3
*D29
  1

  0
LINE
  5
2C685
330
2B9E0
100
AcDbEntity
  8
寸法
 62
     0
 48
50.0
370
    -2
100
AcDbLine
 10
3948.600000000008
 20
6839.958730512873
 30
0.0
 11
3948.600000000008
 21
7792.567547183122
 31
0.0
  0
LINE
  5
2C686
330
2B9E0
100
AcDbEntity
  8
寸法
 62
     0
 48
50.0
370
    -2
100
AcDbLine
 10
2993.600000000001
 20
7269.958730512873
 30
0.0
 11
2993.600000000001
 21
7792.567547183122
 31
0.0
  0
LINE
  5
2C687
330
2B9E0
100
AcDbEntity
  8
寸法
 62
     0
 48
50.0
370
    -2
100
AcDbLine
 10
3948.600000000008
 20
7732.567547183122
 30
0.0
 11
2993.600000000001
 21
7732.567547183122
 31
0.0
  0
INSERT
  5
2C688
330
2B9E0
100
AcDbEntity
  8
寸法
 62
     0
 48
50.0
370
    -2
100
AcDbBlockReference
  2
_DOTSMALL
 10
3948.600000000008
 20
7732.567547183122
 30
0.0
 41
100.0
 42
100.0
 43
100.0
  0
INSERT
  5
2C689
330
2B9E0
100
AcDbEntity
  8
寸法
 62
     0
 48
50.0
370
    -2
100
AcDbBlockReference
  2
_DOTSMALL
 10
2993.600000000001
 20
7732.567547183122
 30
0.0
 41
100.0
 42
100.0
 43
100.0
 50
180.0
  0
MTEXT
  5
2C68A
330
2B9E0
100
AcDbEntity
  8
寸法
 62
     7
 48
50.0
100
AcDbMText
 10
3471.100000000004
 20
7832.567547183121
 30
0.0
 40
120.0
 41
0.0
 71
     5
 72
     1
  1
\A1;955
  7
STYLE1
 73
     1
 44
1.0
1001
ACAD
1000
MTEXTBEGIN
1070
    73
1070
     1
1070
    44
1040
1.0
1070
    74
1070
     0
1000
MTEXTEND
  0
POINT
  5
2C68B
330
2B9E0
100
AcDbEntity
  8
DEFPOINTS
 62
     0
 48
50.0
100
AcDbPoint
 10
3948.600000000008
 20
6819.958730512873
 30
0.0
  0
POINT
  5
2C68C
330
2B9E0
100
AcDbEntity
  8
DEFPOINTS
 62
     0
 48
50.0
100
AcDbPoint
 10
2993.600000000001
 20
7249.958730512874
 30
0.0
  0
POINT
  5
2C68D
330
2B9E0
100
AcDbEntity
  8
DEFPOINTS
 62
     0
 48
50.0
100
AcDbPoint
 10
2993.600000000001
 20
7732.567547183122
 30
0.0
  0
ENDBLK
  5
2B9EB
330
2B9E0
100
AcDbEntity
  8
0
 48
50.0
100
AcDbBlockEnd
  0
BLOCK
  5
2BA04
330
2B9F9
100
AcDbEntity
  8
0
 48
50.0
100
AcDbBlockBegin
  2
*D30
 70
     1
 10
0.0
 20
0.0
 30
0.0
  3
*D30
  1

  0
LINE
  5
2C67B
330
2B9F9
100
AcDbEntity
  8
寸法
 62
     0
 48
50.0
370
    -2
100
AcDbLine
 10
3116.6
 20
7196.958730512874
 30
0.0
 11
3116.6
 21
8036.225188606783
 31
0.0
  0
LINE
  5
2C67C
330
2B9F9
100
AcDbEntity
  8
寸法
 62
     0
 48
50.0
370
    -2
100
AcDbLine
 10
2993.600000000001
 20
7269.958730512873
 30
0.0
 11
2993.600000000001
 21
8036.225188606783
 31
0.0
  0
LINE
  5
2C67D
330
2B9F9
100
AcDbEntity
  8
寸法
 62
     0
 48
50.0
370
    -2
100
AcDbLine
 10
3116.6
 20
7976.225188606784
 30
0.0
 11
2993.600000000001
 21
7976.225188606784
 31
0.0
  0
LINE
  5
2C67E
330
2B9F9
100
AcDbEntity
  8
寸法
 62
     0
 48
50.0
370
    -2
100
AcDbLine
 10
2993.600000000001
 20
7976.225188606784
 30
0.0
 11
2582.008116907964
 21
7976.225188606784
 31
0.0
  0
INSERT
  5
2C67F
330
2B9F9
100
AcDbEntity
  8
寸法
 62
     0
 48
50.0
370
    -2
100
AcDbBlockReference
  2
_DOTSMALL
 10
3116.6
 20
7976.225188606784
 30
0.0
 41
100.0
 42
100.0
 43
100.0
  0
INSERT
  5
2C680
330
2B9F9
100
AcDbEntity
  8
寸法
 62
     0
 48
50.0
370
    -2
100
AcDbBlockReference
  2
_DOTSMALL
 10
2993.600000000001
 20
7976.225188606784
 30
0.0
 41
100.0
 42
100.0
 43
100.0
 50
180.0
  0
MTEXT
  5
2C681
330
2B9F9
100
AcDbEntity
  8
寸法
 62
     7
 48
50.0
100
AcDbMText
 10
2720.493398282203
 20
8076.236999630406
 30
0.0
 40
120.0
 41
0.0
 71
     5
 72
     1
  1
\A1;123
  7
STYLE1
 73
     1
 44
1.0
1001
ACAD
1000
MTEXTBEGIN
1070
    73
1070
     1
1070
    44
1040
1.0
1070
    74
1070
     0
1000
MTEXTEND
  0
POINT
  5
2C682
330
2B9F9
100
AcDbEntity
  8
DEFPOINTS
 62
     0
 48
50.0
100
AcDbPoint
 10
3116.6
 20
7176.958730512874
 30
0.0
  0
POINT
  5
2C683
330
2B9F9
100
AcDbEntity
  8
DEFPOINTS
 62
     0
 48
50.0
100
AcDbPoint
 10
2993.600000000001
 20
7249.958730512874
 30
0.0
  0
POINT
  5
2C684
330
2B9F9
100
AcDbEntity
  8
DEFPOINTS
 62
     0
 48
50.0
100
AcDbPoint
 10
2993.600000000001
 20
7976.225188606784
 30
0.0
  0
ENDBLK
  5
2BA05
330
2B9F9
100
AcDbEntity
  8
0
 48
50.0
100
AcDbBlockEnd
  0
BLOCK
  5
2BA11
330
2BA06
100
AcDbEntity
  8
0
 48
50.0
100
AcDbBlockBegin
  2
*D31
 70
     1
 10
0.0
 20
0.0
 30
0.0
  3
*D31
  1

  0
LINE
  5
2C671
330
2BA06
100
AcDbEntity
  8
寸法
 62
     0
 48
50.0
370
    -2
100
AcDbLine
 10
2973.600000000001
 20
7249.958730512874
 30
0.0
 11
2310.665006330073
 21
7249.958730512874
 31
0.0
  0
LINE
  5
2C672
330
2BA06
100
AcDbEntity
  8
寸法
 62
     0
 48
50.0
370
    -2
100
AcDbLine
 10
3046.600000000001
 20
7126.958730512874
 30
0.0
 11
2310.665006330072
 21
7126.958730512874
 31
0.0
  0
LINE
  5
2C673
330
2BA06
100
AcDbEntity
  8
寸法
 62
     0
 48
50.0
370
    -2
100
AcDbLine
 10
2370.665006330072
 20
7126.958730512874
 30
0.0
 11
2370.665006330073
 21
7249.958730512874
 31
0.0
  0
LINE
  5
2C674
330
2BA06
100
AcDbEntity
  8
寸法
 62
     0
 48
50.0
370
    -2
100
AcDbLine
 10
2370.665006330073
 20
7249.958730512874
 30
0.0
 11
2370.665006330073
 21
7661.550613604912
 31
0.0
  0
INSERT
  5
2C675
330
2BA06
100
AcDbEntity
  8
寸法
 62
     0
 48
50.0
370
    -2
100
AcDbBlockReference
  2
_DOTSMALL
 10
2370.665006330072
 20
7126.958730512874
 30
0.0
 41
100.0
 42
100.0
 43
100.0
 50
270.0
  0
INSERT
  5
2C676
330
2BA06
100
AcDbEntity
  8
寸法
 62
     0
 48
50.0
370
    -2
100
AcDbBlockReference
  2
_DOTSMALL
 10
2370.665006330073
 20
7249.958730512874
 30
0.0
 41
100.0
 42
100.0
 43
100.0
 50
90.0
  0
MTEXT
  5
2C677
330
2BA06
100
AcDbEntity
  8
寸法
 62
     7
 48
50.0
100
AcDbMText
 10
2270.653195306449
 20
7523.065332230673
 30
0.0
 40
120.0
 41
0.0
 71
     5
 72
     1
  1
\A1;123
  7
STYLE1
 11
0.0000000000000001
 21
1.0
 31
0.0
 73
     1
 44
1.0
1001
ACAD
1000
MTEXTBEGIN
1070
    73
1070
     1
1070
    44
1040
1.0
1070
    74
1070
     0
1000
MTEXTEND
  0
POINT
  5
2C678
330
2BA06
100
AcDbEntity
  8
DEFPOINTS
 62
     0
 48
50.0
100
AcDbPoint
 10
2993.600000000001
 20
7249.958730512874
 30
0.0
  0
POINT
  5
2C679
330
2BA06
100
AcDbEntity
  8
DEFPOINTS
 62
     0
 48
50.0
100
AcDbPoint
 10
3066.600000000001
 20
7126.958730512874
 30
0.0
  0
POINT
  5
2C67A
330
2BA06
100
AcDbEntity
  8
DEFPOINTS
 62
     0
 48
50.0
100
AcDbPoint
 10
2370.665006330072
 20
7126.958730512874
 30
0.0
  0
ENDBLK
  5
2BA12
330
2BA06
100
AcDbEntity
  8
0
 48
50.0
100
AcDbBlockEnd
  0
BLOCK
  5
2BA26
330
2BA1D
100
AcDbEntity
  8
0
 48
50.0
100
AcDbBlockBegin
  2
*D32
 70
     1
 10
0.0
 20
0.0
 30
0.0
  3
*D32
  1

  0
LINE
  5
2C668
330
2BA1D
100
AcDbEntity
  8
寸法
 62
     0
 48
50.0
370
    -2
100
AcDbLine
 10
4898.600000000008
 20
6839.958730512873
 30
0.0
 11
4898.600000000008
 21
7792.567547183122
 31
0.0
  0
LINE
  5
2C669
330
2BA1D
100
AcDbEntity
  8
寸法
 62
     0
 48
50.0
370
    -2
100
AcDbLine
 10
3948.600000000008
 20
6839.958730512873
 30
0.0
 11
3948.600000000008
 21
7792.567547183122
 31
0.0
  0
LINE
  5
2C66A
330
2BA1D
100
AcDbEntity
  8
寸法
 62
     0
 48
50.0
370
    -2
100
AcDbLine
 10
4898.600000000008
 20
7732.567547183122
 30
0.0
 11
3948.600000000008
 21
7732.567547183122
 31
0.0
  0
INSERT
  5
2C66B
330
2BA1D
100
AcDbEntity
  8
寸法
 62
     0
 48
50.0
370
    -2
100
AcDbBlockReference
  2
_DOTSMALL
 10
4898.600000000008
 20
7732.567547183122
 30
0.0
 41
100.0
 42
100.0
 43
100.0
  0
INSERT
  5
2C66C
330
2BA1D
100
AcDbEntity
  8
寸法
 62
     0
 48
50.0
370
    -2
100
AcDbBlockReference
  2
_DOTSMALL
 10
3948.600000000008
 20
7732.567547183122
 30
0.0
 41
100.0
 42
100.0
 43
100.0
 50
180.0
  0
MTEXT
  5
2C66D
330
2BA1D
100
AcDbEntity
  8
寸法
 62
     7
 48
50.0
100
AcDbMText
 10
4423.600000000007
 20
7832.567547183121
 30
0.0
 40
120.0
 41
0.0
 71
     5
 72
     1
  1
\A1;950
  7
STYLE1
 73
     1
 44
1.0
1001
ACAD
1000
MTEXTBEGIN
1070
    73
1070
     1
1070
    44
1040
1.0
1070
    74
1070
     0
1000
MTEXTEND
  0
POINT
  5
2C66E
330
2BA1D
100
AcDbEntity
  8
DEFPOINTS
 62
     0
 48
50.0
100
AcDbPoint
 10
4898.600000000008
 20
6819.958730512873
 30
0.0
  0
POINT
  5
2C66F
330
2BA1D
100
AcDbEntity
  8
DEFPOINTS
 62
     0
 48
50.0
100
AcDbPoint
 10
3948.600000000008
 20
6819.958730512873
 30
0.0
  0
POINT
  5
2C670
330
2BA1D
100
AcDbEntity
  8
DEFPOINTS
 62
     0
 48
50.0
100
AcDbPoint
 10
3948.600000000008
 20
7732.567547183122
 30
0.0
  0
ENDBLK
  5
2BA27
330
2BA1D
100
AcDbEntity
  8
0
 48
50.0
100
AcDbBlockEnd
  0
BLOCK
  5
2BA32
330
2BA28
100
AcDbEntity
  8
0
 48
50.0
100
AcDbBlockBegin
  2
*D33
 70
     1
 10
0.0
 20
0.0
 30
0.0
  3
*D33
  1

  0
LINE
  5
2C65F
330
2BA28
100
AcDbEntity
  8
寸法
 62
     0
 48
50.0
370
    -2
100
AcDbLine
 10
7748.600000000007
 20
6839.958730512873
 30
0.0
 11
7748.600000000007
 21
7792.567547183122
 31
0.0
  0
LINE
  5
2C660
330
2BA28
100
AcDbEntity
  8
寸法
 62
     0
 48
50.0
370
    -2
100
AcDbLine
 10
6798.600000000007
 20
6839.958730512873
 30
0.0
 11
6798.600000000007
 21
7792.567547183122
 31
0.0
  0
LINE
  5
2C661
330
2BA28
100
AcDbEntity
  8
寸法
 62
     0
 48
50.0
370
    -2
100
AcDbLine
 10
7748.600000000007
 20
7732.567547183122
 30
0.0
 11
6798.600000000007
 21
7732.567547183122
 31
0.0
  0
INSERT
  5
2C662
330
2BA28
100
AcDbEntity
  8
寸法
 62
     0
 48
50.0
370
    -2
100
AcDbBlockReference
  2
_DOTSMALL
 10
7748.600000000007
 20
7732.567547183122
 30
0.0
 41
100.0
 42
100.0
 43
100.0
  0
INSERT
  5
2C663
330
2BA28
100
AcDbEntity
  8
寸法
 62
     0
 48
50.0
370
    -2
100
AcDbBlockReference
  2
_DOTSMALL
 10
6798.600000000007
 20
7732.567547183122
 30
0.0
 41
100.0
 42
100.0
 43
100.0
 50
180.0
  0
MTEXT
  5
2C664
330
2BA28
100
AcDbEntity
  8
寸法
 62
     7
 48
50.0
100
AcDbMText
 10
7273.600000000008
 20
7832.567547183121
 30
0.0
 40
120.0
 41
0.0
 71
     5
 72
     1
  1
\A1;950
  7
STYLE1
 73
     1
 44
1.0
1001
ACAD
1000
MTEXTBEGIN
1070
    73
1070
     1
1070
    44
1040
1.0
1070
    74
1070
     0
1000
MTEXTEND
  0
POINT
  5
2C665
330
2BA28
100
AcDbEntity
  8
DEFPOINTS
 62
     0
 48
50.0
100
AcDbPoint
 10
7748.600000000007
 20
6819.958730512873
 30
0.0
  0
POINT
  5
2C666
330
2BA28
100
AcDbEntity
  8
DEFPOINTS
 62
     0
 48
50.0
100
AcDbPoint
 10
6798.600000000007
 20
6819.958730512873
 30
0.0
  0
POINT
  5
2C667
330
2BA28
100
AcDbEntity
  8
DEFPOINTS
 62
     0
 48
50.0
100
AcDbPoint
 10
6798.600000000007
 20
7732.567547183122
 30
0.0
  0
ENDBLK
  5
2BA33
330
2BA28
100
AcDbEntity
  8
0
 48
50.0
100
AcDbBlockEnd
  0
BLOCK
  5
2BA3E
330
2BA34
100
AcDbEntity
  8
0
 48
50.0
100
AcDbBlockBegin
  2
*D34
 70
     1
 10
0.0
 20
0.0
 30
0.0
  3
*D34
  1

  0
LINE
  5
2C656
330
2BA34
100
AcDbEntity
  8
寸法
 62
     0
 48
50.0
370
    -2
100
AcDbLine
 10
7630.600000000001
 20
7196.958730512874
 30
0.0
 11
7630.600000000001
 21
8036.225188606783
 31
0.0
  0
LINE
  5
2C657
330
2BA34
100
AcDbEntity
  8
寸法
 62
     0
 48
50.0
370
    -2
100
AcDbLine
 10
5730.6
 20
7196.958730512874
 30
0.0
 11
5730.6
 21
8036.225188606783
 31
0.0
  0
LINE
  5
2C658
330
2BA34
100
AcDbEntity
  8
寸法
 62
     0
 48
50.0
370
    -2
100
AcDbLine
 10
7630.600000000001
 20
7976.225188606784
 30
0.0
 11
5730.6
 21
7976.225188606784
 31
0.0
  0
INSERT
  5
2C659
330
2BA34
100
AcDbEntity
  8
寸法
 62
     0
 48
50.0
370
    -2
100
AcDbBlockReference
  2
_DOTSMALL
 10
7630.600000000001
 20
7976.225188606784
 30
0.0
 41
100.0
 42
100.0
 43
100.0
  0
INSERT
  5
2C65A
330
2BA34
100
AcDbEntity
  8
寸法
 62
     0
 48
50.0
370
    -2
100
AcDbBlockReference
  2
_DOTSMALL
 10
5730.6
 20
7976.225188606784
 30
0.0
 41
100.0
 42
100.0
 43
100.0
 50
180.0
  0
MTEXT
  5
2C65B
330
2BA34
100
AcDbEntity
  8
寸法
 62
     7
 48
50.0
100
AcDbMText
 10
6680.600000000001
 20
8076.225188606784
 30
0.0
 40
120.0
 41
0.0
 71
     5
 72
     1
  1
\A1;1900
  7
STYLE1
 73
     1
 44
1.0
1001
ACAD
1000
MTEXTBEGIN
1070
    73
1070
     1
1070
    44
1040
1.0
1070
    74
1070
     0
1000
MTEXTEND
  0
POINT
  5
2C65C
330
2BA34
100
AcDbEntity
  8
DEFPOINTS
 62
     0
 48
50.0
100
AcDbPoint
 10
7630.600000000001
 20
7176.958730512874
 30
0.0
  0
POINT
  5
2C65D
330
2BA34
100
AcDbEntity
  8
DEFPOINTS
 62
     0
 48
50.0
100
AcDbPoint
 10
5730.6
 20
7176.958730512874
 30
0.0
  0
POINT
  5
2C65E
330
2BA34
100
AcDbEntity
  8
DEFPOINTS
 62
     0
 48
50.0
100
AcDbPoint
 10
5730.6
 20
7976.225188606784
 30
0.0
  0
ENDBLK
  5
2BA3F
330
2BA34
100
AcDbEntity
  8
0
 48
50.0
100
AcDbBlockEnd
  0
BLOCK
  5
2BA4A
330
2BA40
100
AcDbEntity
  8
0
 48
50.0
100
AcDbBlockBegin
  2
*D35
 70
     1
 10
0.0
 20
0.0
 30
0.0
  3
*D35
  1

  0
LINE
  5
2C64D
330
2BA40
100
AcDbEntity
  8
寸法
 62
     0
 48
50.0
370
    -2
100
AcDbLine
 10
6798.600000000007
 20
6839.958730512873
 30
0.0
 11
6798.600000000007
 21
7792.567547183122
 31
0.0
  0
LINE
  5
2C64E
330
2BA40
100
AcDbEntity
  8
寸法
 62
     0
 48
50.0
370
    -2
100
AcDbLine
 10
5848.600000000008
 20
6839.958730512873
 30
0.0
 11
5848.600000000008
 21
7792.567547183122
 31
0.0
  0
LINE
  5
2C64F
330
2BA40
100
AcDbEntity
  8
寸法
 62
     0
 48
50.0
370
    -2
100
AcDbLine
 10
6798.600000000007
 20
7732.567547183122
 30
0.0
 11
5848.600000000008
 21
7732.567547183122
 31
0.0
  0
INSERT
  5
2C650
330
2BA40
100
AcDbEntity
  8
寸法
 62
     0
 48
50.0
370
    -2
100
AcDbBlockReference
  2
_DOTSMALL
 10
6798.600000000007
 20
7732.567547183122
 30
0.0
 41
100.0
 42
100.0
 43
100.0
  0
INSERT
  5
2C651
330
2BA40
100
AcDbEntity
  8
寸法
 62
     0
 48
50.0
370
    -2
100
AcDbBlockReference
  2
_DOTSMALL
 10
5848.600000000008
 20
7732.567547183122
 30
0.0
 41
100.0
 42
100.0
 43
100.0
 50
180.0
  0
MTEXT
  5
2C652
330
2BA40
100
AcDbEntity
  8
寸法
 62
     7
 48
50.0
100
AcDbMText
 10
6323.600000000007
 20
7832.567547183121
 30
0.0
 40
120.0
 41
0.0
 71
     5
 72
     1
  1
\A1;950
  7
STYLE1
 73
     1
 44
1.0
1001
ACAD
1000
MTEXTBEGIN
1070
    73
1070
     1
1070
    44
1040
1.0
1070
    74
1070
     0
1000
MTEXTEND
  0
POINT
  5
2C653
330
2BA40
100
AcDbEntity
  8
DEFPOINTS
 62
     0
 48
50.0
100
AcDbPoint
 10
6798.600000000007
 20
6819.958730512873
 30
0.0
  0
POINT
  5
2C654
330
2BA40
100
AcDbEntity
  8
DEFPOINTS
 62
     0
 48
50.0
100
AcDbPoint
 10
5848.600000000008
 20
6819.958730512873
 30
0.0
  0
POINT
  5
2C655
330
2BA40
100
AcDbEntity
  8
DEFPOINTS
 62
     0
 48
50.0
100
AcDbPoint
 10
5848.600000000008
 20
7732.567547183122
 30
0.0
  0
ENDBLK
  5
2BA4B
330
2BA40
100
AcDbEntity
  8
0
 48
50.0
100
AcDbBlockEnd
  0
BLOCK
  5
2BA63
330
2BA59
100
AcDbEntity
  8
0
 48
50.0
100
AcDbBlockBegin
  2
*D36
 70
     1
 10
0.0
 20
0.0
 30
0.0
  3
*D36
  1

  0
LINE
  5
2C644
330
2BA59
100
AcDbEntity
  8
寸法
 62
     0
 48
50.0
370
    -2
100
AcDbLine
 10
13330.6
 20
7196.958730512874
 30
0.0
 11
13330.6
 21
8036.225188606783
 31
0.0
  0
LINE
  5
2C645
330
2BA59
100
AcDbEntity
  8
寸法
 62
     0
 48
50.0
370
    -2
100
AcDbLine
 10
10480.6
 20
7196.958730512874
 30
0.0
 11
10480.6
 21
8036.225188606783
 31
0.0
  0
LINE
  5
2C646
330
2BA59
100
AcDbEntity
  8
寸法
 62
     0
 48
50.0
370
    -2
100
AcDbLine
 10
13330.6
 20
7976.225188606784
 30
0.0
 11
10480.6
 21
7976.225188606784
 31
0.0
  0
INSERT
  5
2C647
330
2BA59
100
AcDbEntity
  8
寸法
 62
     0
 48
50.0
370
    -2
100
AcDbBlockReference
  2
_DOTSMALL
 10
13330.6
 20
7976.225188606784
 30
0.0
 41
100.0
 42
100.0
 43
100.0
  0
INSERT
  5
2C648
330
2BA59
100
AcDbEntity
  8
寸法
 62
     0
 48
50.0
370
    -2
100
AcDbBlockReference
  2
_DOTSMALL
 10
10480.6
 20
7976.225188606784
 30
0.0
 41
100.0
 42
100.0
 43
100.0
 50
180.0
  0
MTEXT
  5
2C649
330
2BA59
100
AcDbEntity
  8
寸法
 62
     7
 48
50.0
100
AcDbMText
 10
11905.6
 20
8076.236999630406
 30
0.0
 40
120.0
 41
0.0
 71
     5
 72
     1
  1
\A1;2850
  7
STYLE1
 73
     1
 44
1.0
1001
ACAD
1000
MTEXTBEGIN
1070
    73
1070
     1
1070
    44
1040
1.0
1070
    74
1070
     0
1000
MTEXTEND
  0
POINT
  5
2C64A
330
2BA59
100
AcDbEntity
  8
DEFPOINTS
 62
     0
 48
50.0
100
AcDbPoint
 10
13330.6
 20
7176.958730512874
 30
0.0
  0
POINT
  5
2C64B
330
2BA59
100
AcDbEntity
  8
DEFPOINTS
 62
     0
 48
50.0
100
AcDbPoint
 10
10480.6
 20
7176.958730512874
 30
0.0
  0
POINT
  5
2C64C
330
2BA59
100
AcDbEntity
  8
DEFPOINTS
 62
     0
 48
50.0
100
AcDbPoint
 10
10480.6
 20
7976.225188606784
 30
0.0
  0
ENDBLK
  5
2BA64
330
2BA59
100
AcDbEntity
  8
0
 48
50.0
100
AcDbBlockEnd
  0
BLOCK
  5
2BA6F
330
2BA65
100
AcDbEntity
  8
0
 48
50.0
100
AcDbBlockBegin
  2
*D37
 70
     1
 10
0.0
 20
0.0
 30
0.0
  3
*D37
  1

  0
LINE
  5
2C63B
330
2BA65
100
AcDbEntity
  8
寸法
 62
     0
 48
50.0
370
    -2
100
AcDbLine
 10
12498.60000000001
 20
6839.958730512873
 30
0.0
 11
12498.60000000001
 21
7792.567547183122
 31
0.0
  0
LINE
  5
2C63C
330
2BA65
100
AcDbEntity
  8
寸法
 62
     0
 48
50.0
370
    -2
100
AcDbLine
 10
11548.60000000001
 20
6839.958730512873
 30
0.0
 11
11548.60000000001
 21
7792.567547183122
 31
0.0
  0
LINE
  5
2C63D
330
2BA65
100
AcDbEntity
  8
寸法
 62
     0
 48
50.0
370
    -2
100
AcDbLine
 10
12498.60000000001
 20
7732.567547183122
 30
0.0
 11
11548.60000000001
 21
7732.567547183122
 31
0.0
  0
INSERT
  5
2C63E
330
2BA65
100
AcDbEntity
  8
寸法
 62
     0
 48
50.0
370
    -2
100
AcDbBlockReference
  2
_DOTSMALL
 10
12498.60000000001
 20
7732.567547183122
 30
0.0
 41
100.0
 42
100.0
 43
100.0
  0
INSERT
  5
2C63F
330
2BA65
100
AcDbEntity
  8
寸法
 62
     0
 48
50.0
370
    -2
100
AcDbBlockReference
  2
_DOTSMALL
 10
11548.60000000001
 20
7732.567547183122
 30
0.0
 41
100.0
 42
100.0
 43
100.0
 50
180.0
  0
MTEXT
  5
2C640
330
2BA65
100
AcDbEntity
  8
寸法
 62
     7
 48
50.0
100
AcDbMText
 10
12023.6
 20
7832.567547183121
 30
0.0
 40
120.0
 41
0.0
 71
     5
 72
     1
  1
\A1;950
  7
STYLE1
 73
     1
 44
1.0
1001
ACAD
1000
MTEXTBEGIN
1070
    73
1070
     1
1070
    44
1040
1.0
1070
    74
1070
     0
1000
MTEXTEND
  0
POINT
  5
2C641
330
2BA65
100
AcDbEntity
  8
DEFPOINTS
 62
     0
 48
50.0
100
AcDbPoint
 10
12498.60000000001
 20
6819.958730512873
 30
0.0
  0
POINT
  5
2C642
330
2BA65
100
AcDbEntity
  8
DEFPOINTS
 62
     0
 48
50.0
100
AcDbPoint
 10
11548.60000000001
 20
6819.958730512873
 30
0.0
  0
POINT
  5
2C643
330
2BA65
100
AcDbEntity
  8
DEFPOINTS
 62
     0
 48
50.0
100
AcDbPoint
 10
11548.60000000001
 20
7732.567547183122
 30
0.0
  0
ENDBLK
  5
2BA70
330
2BA65
100
AcDbEntity
  8
0
 48
50.0
100
AcDbBlockEnd
  0
BLOCK
  5
2BA7B
330
2BA71
100
AcDbEntity
  8
0
 48
50.0
100
AcDbBlockBegin
  2
*D38
 70
     1
 10
0.0
 20
0.0
 30
0.0
  3
*D38
  1

  0
LINE
  5
2C632
330
2BA71
100
AcDbEntity
  8
寸法
 62
     0
 48
50.0
370
    -2
100
AcDbLine
 10
10598.60000000001
 20
6839.958730512873
 30
0.0
 11
10598.60000000001
 21
7792.567547183122
 31
0.0
  0
LINE
  5
2C633
330
2BA71
100
AcDbEntity
  8
寸法
 62
     0
 48
50.0
370
    -2
100
AcDbLine
 10
9648.600000000008
 20
6839.958730512873
 30
0.0
 11
9648.600000000008
 21
7792.567547183122
 31
0.0
  0
LINE
  5
2C634
330
2BA71
100
AcDbEntity
  8
寸法
 62
     0
 48
50.0
370
    -2
100
AcDbLine
 10
10598.60000000001
 20
7732.567547183122
 30
0.0
 11
9648.600000000008
 21
7732.567547183122
 31
0.0
  0
INSERT
  5
2C635
330
2BA71
100
AcDbEntity
  8
寸法
 62
     0
 48
50.0
370
    -2
100
AcDbBlockReference
  2
_DOTSMALL
 10
10598.60000000001
 20
7732.567547183122
 30
0.0
 41
100.0
 42
100.0
 43
100.0
  0
INSERT
  5
2C636
330
2BA71
100
AcDbEntity
  8
寸法
 62
     0
 48
50.0
370
    -2
100
AcDbBlockReference
  2
_DOTSMALL
 10
9648.600000000008
 20
7732.567547183122
 30
0.0
 41
100.0
 42
100.0
 43
100.0
 50
180.0
  0
MTEXT
  5
2C637
330
2BA71
100
AcDbEntity
  8
寸法
 62
     7
 48
50.0
100
AcDbMText
 10
10123.60000000001
 20
7832.567547183121
 30
0.0
 40
120.0
 41
0.0
 71
     5
 72
     1
  1
\A1;950
  7
STYLE1
 73
     1
 44
1.0
1001
ACAD
1000
MTEXTBEGIN
1070
    73
1070
     1
1070
    44
1040
1.0
1070
    74
1070
     0
1000
MTEXTEND
  0
POINT
  5
2C638
330
2BA71
100
AcDbEntity
  8
DEFPOINTS
 62
     0
 48
50.0
100
AcDbPoint
 10
10598.60000000001
 20
6819.958730512873
 30
0.0
  0
POINT
  5
2C639
330
2BA71
100
AcDbEntity
  8
DEFPOINTS
 62
     0
 48
50.0
100
AcDbPoint
 10
9648.600000000008
 20
6819.958730512873
 30
0.0
  0
POINT
  5
2C63A
330
2BA71
100
AcDbEntity
  8
DEFPOINTS
 62
     0
 48
50.0
100
AcDbPoint
 10
9648.600000000008
 20
7732.567547183122
 30
0.0
  0
ENDBLK
  5
2BA7C
330
2BA71
100
AcDbEntity
  8
0
 48
50.0
100
AcDbBlockEnd
  0
BLOCK
  5
2BA86
330
2BA7D
100
AcDbEntity
  8
0
 48
50.0
100
AcDbBlockBegin
  2
*D39
 70
     1
 10
0.0
 20
0.0
 30
0.0
  3
*D39
  1

  0
LINE
  5
2C629
330
2BA7D
100
AcDbEntity
  8
寸法
 62
     0
 48
50.0
370
    -2
100
AcDbLine
 10
11548.60000000001
 20
6839.958730512873
 30
0.0
 11
11548.60000000001
 21
7792.567547183122
 31
0.0
  0
LINE
  5
2C62A
330
2BA7D
100
AcDbEntity
  8
寸法
 62
     0
 48
50.0
370
    -2
100
AcDbLine
 10
10598.60000000001
 20
6839.958730512873
 30
0.0
 11
10598.60000000001
 21
7792.567547183122
 31
0.0
  0
LINE
  5
2C62B
330
2BA7D
100
AcDbEntity
  8
寸法
 62
     0
 48
50.0
370
    -2
100
AcDbLine
 10
11548.60000000001
 20
7732.567547183122
 30
0.0
 11
10598.60000000001
 21
7732.567547183122
 31
0.0
  0
INSERT
  5
2C62C
330
2BA7D
100
AcDbEntity
  8
寸法
 62
     0
 48
50.0
370
    -2
100
AcDbBlockReference
  2
_DOTSMALL
 10
11548.60000000001
 20
7732.567547183122
 30
0.0
 41
100.0
 42
100.0
 43
100.0
  0
INSERT
  5
2C62D
330
2BA7D
100
AcDbEntity
  8
寸法
 62
     0
 48
50.0
370
    -2
100
AcDbBlockReference
  2
_DOTSMALL
 10
10598.60000000001
 20
7732.567547183122
 30
0.0
 41
100.0
 42
100.0
 43
100.0
 50
180.0
  0
MTEXT
  5
2C62E
330
2BA7D
100
AcDbEntity
  8
寸法
 62
     7
 48
50.0
100
AcDbMText
 10
11073.60000000001
 20
7832.567547183121
 30
0.0
 40
120.0
 41
0.0
 71
     5
 72
     1
  1
\A1;950
  7
STYLE1
 73
     1
 44
1.0
1001
ACAD
1000
MTEXTBEGIN
1070
    73
1070
     1
1070
    44
1040
1.0
1070
    74
1070
     0
1000
MTEXTEND
  0
POINT
  5
2C62F
330
2BA7D
100
AcDbEntity
  8
DEFPOINTS
 62
     0
 48
50.0
100
AcDbPoint
 10
11548.60000000001
 20
6819.958730512873
 30
0.0
  0
POINT
  5
2C630
330
2BA7D
100
AcDbEntity
  8
DEFPOINTS
 62
     0
 48
50.0
100
AcDbPoint
 10
10598.60000000001
 20
6819.958730512873
 30
0.0
  0
POINT
  5
2C631
330
2BA7D
100
AcDbEntity
  8
DEFPOINTS
 62
     0
 48
50.0
100
AcDbPoint
 10
10598.60000000001
 20
7732.567547183122
 30
0.0
  0
ENDBLK
  5
2BA87
330
2BA7D
100
AcDbEntity
  8
0
 48
50.0
100
AcDbBlockEnd
  0
BLOCK
  5
2BA92
330
2BA88
100
AcDbEntity
  8
0
 48
50.0
100
AcDbBlockBegin
  2
*D40
 70
     1
 10
0.0
 20
0.0
 30
0.0
  3
*D40
  1

  0
LINE
  5
2C620
330
2BA88
100
AcDbEntity
  8
寸法
 62
     0
 48
50.0
370
    -2
100
AcDbLine
 10
13453.6
 20
7269.958730512873
 30
0.0
 11
13453.6
 21
7792.567547183122
 31
0.0
  0
LINE
  5
2C621
330
2BA88
100
AcDbEntity
  8
寸法
 62
     0
 48
50.0
370
    -2
100
AcDbLine
 10
12498.60000000001
 20
6839.958730512873
 30
0.0
 11
12498.60000000001
 21
7792.567547183122
 31
0.0
  0
LINE
  5
2C622
330
2BA88
100
AcDbEntity
  8
寸法
 62
     0
 48
50.0
370
    -2
100
AcDbLine
 10
13453.6
 20
7732.567547183122
 30
0.0
 11
12498.60000000001
 21
7732.567547183122
 31
0.0
  0
INSERT
  5
2C623
330
2BA88
100
AcDbEntity
  8
寸法
 62
     0
 48
50.0
370
    -2
100
AcDbBlockReference
  2
_DOTSMALL
 10
13453.6
 20
7732.567547183122
 30
0.0
 41
100.0
 42
100.0
 43
100.0
  0
INSERT
  5
2C624
330
2BA88
100
AcDbEntity
  8
寸法
 62
     0
 48
50.0
370
    -2
100
AcDbBlockReference
  2
_DOTSMALL
 10
12498.60000000001
 20
7732.567547183122
 30
0.0
 41
100.0
 42
100.0
 43
100.0
 50
180.0
  0
MTEXT
  5
2C625
330
2BA88
100
AcDbEntity
  8
寸法
 62
     7
 48
50.0
100
AcDbMText
 10
12976.1
 20
7832.567547183121
 30
0.0
 40
120.0
 41
0.0
 71
     5
 72
     1
  1
\A1;955
  7
STYLE1
 73
     1
 44
1.0
1001
ACAD
1000
MTEXTBEGIN
1070
    73
1070
     1
1070
    44
1040
1.0
1070
    74
1070
     0
1000
MTEXTEND
  0
POINT
  5
2C626
330
2BA88
100
AcDbEntity
  8
DEFPOINTS
 62
     0
 48
50.0
100
AcDbPoint
 10
13453.6
 20
7249.958730512874
 30
0.0
  0
POINT
  5
2C627
330
2BA88
100
AcDbEntity
  8
DEFPOINTS
 62
     0
 48
50.0
100
AcDbPoint
 10
12498.60000000001
 20
6819.958730512873
 30
0.0
  0
POINT
  5
2C628
330
2BA88
100
AcDbEntity
  8
DEFPOINTS
 62
     0
 48
50.0
100
AcDbPoint
 10
12498.60000000001
 20
7732.567547183122
 30
0.0
  0
ENDBLK
  5
2BA93
330
2BA88
100
AcDbEntity
  8
0
 48
50.0
100
AcDbBlockEnd
  0
BLOCK
  5
2BA9F
330
2BA94
100
AcDbEntity
  8
0
 48
50.0
100
AcDbBlockBegin
  2
*D41
 70
     1
 10
0.0
 20
0.0
 30
0.0
  3
*D41
  1

  0
LINE
  5
2C616
330
2BA94
100
AcDbEntity
  8
寸法
 62
     0
 48
50.0
370
    -2
100
AcDbLine
 10
13453.6
 20
7269.958730512873
 30
0.0
 11
13453.6
 21
8036.225188606783
 31
0.0
  0
LINE
  5
2C617
330
2BA94
100
AcDbEntity
  8
寸法
 62
     0
 48
50.0
370
    -2
100
AcDbLine
 10
13330.6
 20
7196.958730512874
 30
0.0
 11
13330.6
 21
8036.225188606783
 31
0.0
  0
LINE
  5
2C618
330
2BA94
100
AcDbEntity
  8
寸法
 62
     0
 48
50.0
370
    -2
100
AcDbLine
 10
13330.6
 20
7976.225188606784
 30
0.0
 11
13453.6
 21
7976.225188606784
 31
0.0
  0
LINE
  5
2C619
330
2BA94
100
AcDbEntity
  8
寸法
 62
     0
 48
50.0
370
    -2
100
AcDbLine
 10
13453.6
 20
7976.225188606784
 30
0.0
 11
13865.19188309204
 21
7976.225188606784
 31
0.0
  0
INSERT
  5
2C61A
330
2BA94
100
AcDbEntity
  8
寸法
 62
     0
 48
50.0
370
    -2
100
AcDbBlockReference
  2
_DOTSMALL
 10
13330.6
 20
7976.225188606784
 30
0.0
 41
100.0
 42
100.0
 43
100.0
 50
180.0
  0
INSERT
  5
2C61B
330
2BA94
100
AcDbEntity
  8
寸法
 62
     0
 48
50.0
370
    -2
100
AcDbBlockReference
  2
_DOTSMALL
 10
13453.6
 20
7976.225188606784
 30
0.0
 41
100.0
 42
100.0
 43
100.0
  0
MTEXT
  5
2C61C
330
2BA94
100
AcDbEntity
  8
寸法
 62
     7
 48
50.0
100
AcDbMText
 10
13726.7066017178
 20
8076.236999630406
 30
0.0
 40
120.0
 41
0.0
 71
     5
 72
     1
  1
\A1;123
  7
STYLE1
 73
     1
 44
1.0
1001
ACAD
1000
MTEXTBEGIN
1070
    73
1070
     1
1070
    44
1040
1.0
1070
    74
1070
     0
1000
MTEXTEND
  0
POINT
  5
2C61D
330
2BA94
100
AcDbEntity
  8
DEFPOINTS
 62
     0
 48
50.0
100
AcDbPoint
 10
13453.6
 20
7249.958730512874
 30
0.0
  0
POINT
  5
2C61E
330
2BA94
100
AcDbEntity
  8
DEFPOINTS
 62
     0
 48
50.0
100
AcDbPoint
 10
13330.6
 20
7176.958730512874
 30
0.0
  0
POINT
  5
2C61F
330
2BA94
100
AcDbEntity
  8
DEFPOINTS
 62
     0
 48
50.0
100
AcDbPoint
 10
13330.6
 20
7976.225188606784
 30
0.0
  0
ENDBLK
  5
2BAA0
330
2BA94
100
AcDbEntity
  8
0
 48
50.0
100
AcDbBlockEnd
  0
BLOCK
  5
2C039
330
2C02D
100
AcDbEntity
  8
0
 48
50.0
100
AcDbBlockBegin
  2
*D42
 70
     1
 10
0.0
 20
0.0
 30
0.0
  3
*D42
  1

  0
LINE
  5
2C60B
330
2C02D
100
AcDbEntity
  8
寸法
 62
     0
 48
50.0
370
    -2
100
AcDbLine
 10
13453.6
 20
7269.958730512858
 30
0.0
 11
13453.6
 21
8268.179052571777
 31
0.0
  0
LINE
  5
2C60C
330
2C02D
100
AcDbEntity
  8
寸法
 62
     0
 48
50.0
370
    -2
100
AcDbLine
 10
13498.6
 20
7996.225188606768
 30
0.0
 11
13498.6
 21
8268.179052571777
 31
0.0
  0
LINE
  5
2C60D
330
2C02D
100
AcDbEntity
  8
寸法
 62
     0
 48
50.0
370
    -2
100
AcDbLine
 10
13453.6
 20
8208.179052571777
 30
0.0
 11
13353.6
 21
8208.179052571777
 31
0.0
  0
LINE
  5
2C60E
330
2C02D
100
AcDbEntity
  8
寸法
 62
     0
 48
50.0
370
    -2
100
AcDbLine
 10
13498.6
 20
8208.179052571777
 30
0.0
 11
13835.94924240491
 21
8208.179052571777
 31
0.0
  0
LINE
  5
2C60F
330
2C02D
100
AcDbEntity
  8
寸法
 62
     0
 48
50.0
370
    -2
100
AcDbLine
 10
13453.6
 20
8208.179052571777
 30
0.0
 11
13498.6
 21
8208.179052571777
 31
0.0
  0
INSERT
  5
2C610
330
2C02D
100
AcDbEntity
  8
寸法
 62
     0
 48
50.0
370
    -2
100
AcDbBlockReference
  2
_DOTSMALL
 10
13453.6
 20
8208.179052571777
 30
0.0
 41
100.0
 42
100.0
 43
100.0
  0
INSERT
  5
2C611
330
2C02D
100
AcDbEntity
  8
寸法
 62
     0
 48
50.0
370
    -2
100
AcDbBlockReference
  2
_DOTSMALL
 10
13498.6
 20
8208.179052571777
 30
0.0
 41
100.0
 42
100.0
 43
100.0
 50
180.0
  0
MTEXT
  5
2C612
330
2C02D
100
AcDbEntity
  8
寸法
 62
     7
 48
50.0
100
AcDbMText
 10
13769.77462120245
 20
8308.179052571778
 30
0.0
 40
120.0
 41
0.0
 71
     5
 72
     1
  1
\A1;a
  7
STYLE1
 73
     1
 44
1.0
1001
ACAD
1000
MTEXTBEGIN
1070
    73
1070
     1
1070
    44
1040
1.0
1070
    74
1070
     0
1000
MTEXTEND
  0
POINT
  5
2C613
330
2C02D
100
AcDbEntity
  8
DEFPOINTS
 62
     0
 48
50.0
100
AcDbPoint
 10
13453.6
 20
7249.958730512857
 30
0.0
  0
POINT
  5
2C614
330
2C02D
100
AcDbEntity
  8
DEFPOINTS
 62
     0
 48
50.0
100
AcDbPoint
 10
13498.6
 20
7976.225188606768
 30
0.0
  0
POINT
  5
2C615
330
2C02D
100
AcDbEntity
  8
DEFPOINTS
 62
     0
 48
50.0
100
AcDbPoint
 10
13498.6
 20
8208.179052571777
 30
0.0
  0
ENDBLK
  5
2C03A
330
2C02D
100
AcDbEntity
  8
0
 48
50.0
100
AcDbBlockEnd
  0
BLOCK
  5
2C047
330
2C03B
100
AcDbEntity
  8
0
 48
50.0
100
AcDbBlockBegin
  2
*D43
 70
     1
 10
0.0
 20
0.0
 30
0.0
  3
*D43
  1

  0
LINE
  5
2C600
330
2C03B
100
AcDbEntity
  8
寸法
 62
     0
 48
50.0
370
    -2
100
AcDbLine
 10
2948.600000000002
 20
7996.225188606785
 30
0.0
 11
2948.600000000002
 21
8268.179052571793
 31
0.0
  0
LINE
  5
2C601
330
2C03B
100
AcDbEntity
  8
寸法
 62
     0
 48
50.0
370
    -2
100
AcDbLine
 10
2993.600000000002
 20
7269.958730512873
 30
0.0
 11
2993.600000000002
 21
8268.179052571793
 31
0.0
  0
LINE
  5
2C602
330
2C03B
100
AcDbEntity
  8
寸法
 62
     0
 48
50.0
370
    -2
100
AcDbLine
 10
2993.600000000002
 20
8208.179052571793
 30
0.0
 11
3093.600000000002
 21
8208.179052571793
 31
0.0
  0
LINE
  5
2C603
330
2C03B
100
AcDbEntity
  8
寸法
 62
     0
 48
50.0
370
    -2
100
AcDbLine
 10
2948.600000000002
 20
8208.179052571793
 30
0.0
 11
2611.250757595084
 21
8208.179052571793
 31
0.0
  0
LINE
  5
2C604
330
2C03B
100
AcDbEntity
  8
寸法
 62
     0
 48
50.0
370
    -2
100
AcDbLine
 10
2993.600000000002
 20
8208.179052571793
 30
0.0
 11
2948.600000000002
 21
8208.179052571793
 31
0.0
  0
INSERT
  5
2C605
330
2C03B
100
AcDbEntity
  8
寸法
 62
     0
 48
50.0
370
    -2
100
AcDbBlockReference
  2
_DOTSMALL
 10
2993.600000000002
 20
8208.179052571793
 30
0.0
 41
100.0
 42
100.0
 43
100.0
 50
180.0
  0
INSERT
  5
2C606
330
2C03B
100
AcDbEntity
  8
寸法
 62
     0
 48
50.0
370
    -2
100
AcDbBlockReference
  2
_DOTSMALL
 10
2948.600000000002
 20
8208.179052571793
 30
0.0
 41
100.0
 42
100.0
 43
100.0
  0
MTEXT
  5
2C607
330
2C03B
100
AcDbEntity
  8
寸法
 62
     7
 48
50.0
100
AcDbMText
 10
2677.425378797543
 20
8308.179052571793
 30
0.0
 40
120.0
 41
0.0
 71
     5
 72
     1
  1
\A1;a
  7
STYLE1
 73
     1
 44
1.0
1001
ACAD
1000
MTEXTBEGIN
1070
    73
1070
     1
1070
    44
1040
1.0
1070
    74
1070
     0
1000
MTEXTEND
  0
POINT
  5
2C608
330
2C03B
100
AcDbEntity
  8
DEFPOINTS
 62
     0
 48
50.0
100
AcDbPoint
 10
2948.600000000002
 20
7976.225188606784
 30
0.0
  0
POINT
  5
2C609
330
2C03B
100
AcDbEntity
  8
DEFPOINTS
 62
     0
 48
50.0
100
AcDbPoint
 10
2993.600000000002
 20
7249.958730512874
 30
0.0
  0
POINT
  5
2C60A
330
2C03B
100
AcDbEntity
  8
DEFPOINTS
 62
     0
 48
50.0
100
AcDbPoint
 10
2993.600000000002
 20
8208.179052571793
 30
0.0
  0
ENDBLK
  5
2C048
330
2C03B
100
AcDbEntity
  8
0
 48
50.0
100
AcDbBlockEnd
  0
BLOCK
  5
2C055
330
2C049
100
AcDbEntity
  8
0
 48
50.0
100
AcDbBlockBegin
  2
*D44
 70
     1
 10
0.0
 20
0.0
 30
0.0
  3
*D44
  1

  0
LINE
  5
2C5F5
330
2C049
100
AcDbEntity
  8
寸法
 62
     0
 48
50.0
370
    -2
100
AcDbLine
 10
2350.665006330062
 20
7324.95873051288
 30
0.0
 11
2058.721909610671
 21
7324.95873051288
 31
0.0
  0
LINE
  5
2C5F6
330
2C049
100
AcDbEntity
  8
寸法
 62
     0
 48
50.0
370
    -2
100
AcDbLine
 10
2973.600000000002
 20
7249.958730512874
 30
0.0
 11
2058.721909610671
 21
7249.958730512874
 31
0.0
  0
LINE
  5
2C5F7
330
2C049
100
AcDbEntity
  8
寸法
 62
     0
 48
50.0
370
    -2
100
AcDbLine
 10
2118.721909610671
 20
7324.95873051288
 30
0.0
 11
2118.721909610671
 21
7424.95873051288
 31
0.0
  0
LINE
  5
2C5F8
330
2C049
100
AcDbEntity
  8
寸法
 62
     0
 48
50.0
370
    -2
100
AcDbLine
 10
2118.721909610671
 20
7249.958730512874
 30
0.0
 11
2118.721909610671
 21
7149.958730512874
 31
0.0
  0
LINE
  5
2C5F9
330
2C049
100
AcDbEntity
  8
寸法
 62
     0
 48
50.0
370
    -2
100
AcDbLine
 10
2118.721909610671
 20
7324.95873051288
 30
0.0
 11
2118.721909610671
 21
7249.958730512874
 31
0.0
  0
INSERT
  5
2C5FA
330
2C049
100
AcDbEntity
  8
寸法
 62
     0
 48
50.0
370
    -2
100
AcDbBlockReference
  2
_DOTSMALL
 10
2118.721909610671
 20
7324.95873051288
 30
0.0
 41
100.0
 42
100.0
 43
100.0
 50
270.0
  0
INSERT
  5
2C5FB
330
2C049
100
AcDbEntity
  8
寸法
 62
     0
 48
50.0
370
    -2
100
AcDbBlockReference
  2
_DOTSMALL
 10
2118.721909610671
 20
7249.958730512874
 30
0.0
 41
100.0
 42
100.0
 43
100.0
 50
90.0
  0
MTEXT
  5
2C5FC
330
2C049
100
AcDbEntity
  8
寸法
 62
     7
 48
50.0
100
AcDbMText
 10
2018.72190961067
 20
7287.458730512877
 30
0.0
 40
120.0
 41
0.0
 71
     5
 72
     1
  1
\A1;c
  7
STYLE1
 11
0.0000000000000001
 21
1.0
 31
0.0
 73
     1
 44
1.0
1001
ACAD
1000
MTEXTBEGIN
1070
    73
1070
     1
1070
    44
1040
1.0
1070
    74
1070
     0
1000
MTEXTEND
  0
POINT
  5
2C5FD
330
2C049
100
AcDbEntity
  8
DEFPOINTS
 62
     0
 48
50.0
100
AcDbPoint
 10
2370.665006330062
 20
7324.95873051288
 30
0.0
  0
POINT
  5
2C5FE
330
2C049
100
AcDbEntity
  8
DEFPOINTS
 62
     0
 48
50.0
100
AcDbPoint
 10
2993.600000000002
 20
7249.958730512874
 30
0.0
  0
POINT
  5
2C5FF
330
2C049
100
AcDbEntity
  8
DEFPOINTS
 62
     0
 48
50.0
100
AcDbPoint
 10
2118.721909610671
 20
7249.958730512874
 30
0.0
  0
ENDBLK
  5
2C056
330
2C049
100
AcDbEntity
  8
0
 48
50.0
100
AcDbBlockEnd
  0
BLOCK
  5
2C063
330
2C057
100
AcDbEntity
  8
0
 48
50.0
100
AcDbBlockBegin
  2
*D45
 70
     1
 10
0.0
 20
0.0
 30
0.0
  3
*D45
  1

  0
LINE
  5
2C5EA
330
2C057
100
AcDbEntity
  8
寸法
 62
     0
 48
50.0
370
    -2
100
AcDbLine
 10
2973.600000000002
 20
6289.958730512873
 30
0.0
 11
2058.721909610671
 21
6289.958730512873
 31
0.0
  0
LINE
  5
2C5EB
330
2C057
100
AcDbEntity
  8
寸法
 62
     0
 48
50.0
370
    -2
100
AcDbLine
 10
2350.66500633007
 20
6234.958730512899
 30
0.0
 11
2058.721909610671
 21
6234.958730512899
 31
0.0
  0
LINE
  5
2C5EC
330
2C057
100
AcDbEntity
  8
寸法
 62
     0
 48
50.0
370
    -2
100
AcDbLine
 10
2118.721909610671
 20
6289.958730512873
 30
0.0
 11
2118.721909610671
 21
6389.958730512873
 31
0.0
  0
LINE
  5
2C5ED
330
2C057
100
AcDbEntity
  8
寸法
 62
     0
 48
50.0
370
    -2
100
AcDbLine
 10
2118.721909610671
 20
6234.958730512899
 30
0.0
 11
2118.721909610671
 21
6134.958730512899
 31
0.0
  0
LINE
  5
2C5EE
330
2C057
100
AcDbEntity
  8
寸法
 62
     0
 48
50.0
370
    -2
100
AcDbLine
 10
2118.721909610671
 20
6289.958730512873
 30
0.0
 11
2118.721909610671
 21
6234.958730512899
 31
0.0
  0
INSERT
  5
2C5EF
330
2C057
100
AcDbEntity
  8
寸法
 62
     0
 48
50.0
370
    -2
100
AcDbBlockReference
  2
_DOTSMALL
 10
2118.721909610671
 20
6289.958730512873
 30
0.0
 41
100.0
 42
100.0
 43
100.0
 50
270.0
  0
INSERT
  5
2C5F0
330
2C057
100
AcDbEntity
  8
寸法
 62
     0
 48
50.0
370
    -2
100
AcDbBlockReference
  2
_DOTSMALL
 10
2118.721909610671
 20
6234.958730512899
 30
0.0
 41
100.0
 42
100.0
 43
100.0
 50
90.0
  0
MTEXT
  5
2C5F1
330
2C057
100
AcDbEntity
  8
寸法
 62
     7
 48
50.0
100
AcDbMText
 10
2018.72190961067
 20
6262.458730512887
 30
0.0
 40
120.0
 41
0.0
 71
     5
 72
     1
  1
\A1;b
  7
STYLE1
 11
0.0000000000000001
 21
1.0
 31
0.0
 73
     1
 44
1.0
1001
ACAD
1000
MTEXTBEGIN
1070
    73
1070
     1
1070
    44
1040
1.0
1070
    74
1070
     0
1000
MTEXTEND
  0
POINT
  5
2C5F2
330
2C057
100
AcDbEntity
  8
DEFPOINTS
 62
     0
 48
50.0
100
AcDbPoint
 10
2993.600000000002
 20
6289.958730512873
 30
0.0
  0
POINT
  5
2C5F3
330
2C057
100
AcDbEntity
  8
DEFPOINTS
 62
     0
 48
50.0
100
AcDbPoint
 10
2370.66500633007
 20
6234.958730512899
 30
0.0
  0
POINT
  5
2C5F4
330
2C057
100
AcDbEntity
  8
DEFPOINTS
 62
     0
 48
50.0
100
AcDbPoint
 10
2118.721909610671
 20
6234.958730512899
 30
0.0
  0
ENDBLK
  5
2C064
330
2C057
100
AcDbEntity
  8
0
 48
50.0
100
AcDbBlockEnd
  0
BLOCK
  5
2C070
330
2C065
100
AcDbEntity
  8
0
 48
50.0
100
AcDbBlockBegin
  2
*D46
 70
     1
 10
0.0
 20
0.0
 30
0.0
  3
*D46
  1

  0
LINE
  5
2C5E0
330
2C065
100
AcDbEntity
  8
寸法
 62
     0
 48
50.0
370
    -2
100
AcDbLine
 10
12978.85468201164
 20
7249.958730512846
 30
0.0
 11
12738.95750108245
 21
7249.958730512846
 31
0.0
  0
LINE
  5
2C5E1
330
2C065
100
AcDbEntity
  8
寸法
 62
     0
 48
50.0
370
    -2
100
AcDbLine
 10
12978.85468201164
 20
7049.958730512845
 30
0.0
 11
12738.95750108245
 21
7049.958730512845
 31
0.0
  0
LINE
  5
2C5E2
330
2C065
100
AcDbEntity
  8
寸法
 62
     0
 48
50.0
370
    -2
100
AcDbLine
 10
12798.95750108245
 20
7049.958730512845
 30
0.0
 11
12798.95750108245
 21
7249.958730512846
 31
0.0
  0
LINE
  5
2C5E3
330
2C065
100
AcDbEntity
  8
寸法
 62
     0
 48
50.0
370
    -2
100
AcDbLine
 10
12798.95750108245
 20
7249.958730512846
 30
0.0
 11
12798.95750108245
 21
7649.100462796313
 31
0.0
  0
INSERT
  5
2C5E4
330
2C065
100
AcDbEntity
  8
寸法
 62
     0
 48
50.0
370
    -2
100
AcDbBlockReference
  2
_DOTSMALL
 10
12798.95750108245
 20
7049.958730512845
 30
0.0
 41
100.0
 42
100.0
 43
100.0
 50
270.0
  0
INSERT
  5
2C5E5
330
2C065
100
AcDbEntity
  8
寸法
 62
     0
 48
50.0
370
    -2
100
AcDbBlockReference
  2
_DOTSMALL
 10
12798.95750108245
 20
7249.958730512846
 30
0.0
 41
100.0
 42
100.0
 43
100.0
 50
90.0
  0
MTEXT
  5
2C5E6
330
2C065
100
AcDbEntity
  8
寸法
 62
     7
 48
50.0
100
AcDbMText
 10
12698.94569005883
 20
7499.529596654582
 30
0.0
 40
120.0
 41
0.0
 71
     5
 72
     1
  1
\A1;200
  7
STYLE1
 11
0.0000000000000001
 21
1.0
 31
0.0
 73
     1
 44
1.0
1001
ACAD
1000
MTEXTBEGIN
1070
    73
1070
     1
1070
    44
1040
1.0
1070
    74
1070
     0
1000
MTEXTEND
  0
POINT
  5
2C5E7
330
2C065
100
AcDbEntity
  8
DEFPOINTS
 62
     0
 48
50.0
100
AcDbPoint
 10
12998.85468201164
 20
7249.958730512846
 30
0.0
  0
POINT
  5
2C5E8
330
2C065
100
AcDbEntity
  8
DEFPOINTS
 62
     0
 48
50.0
100
AcDbPoint
 10
12998.85468201164
 20
7049.958730512845
 30
0.0
  0
POINT
  5
2C5E9
330
2C065
100
AcDbEntity
  8
DEFPOINTS
 62
     0
 48
50.0
100
AcDbPoint
 10
12798.95750108245
 20
7049.958730512845
 30
0.0
  0
ENDBLK
  5
2C071
330
2C065
100
AcDbEntity
  8
0
 48
50.0
100
AcDbBlockEnd
  0
BLOCK
  5
2C07D
330
2C072
100
AcDbEntity
  8
0
 48
50.0
100
AcDbBlockBegin
  2
*D47
 70
     1
 10
0.0
 20
0.0
 30
0.0
  3
*D47
  1

  0
LINE
  5
2C7C1
330
2C072
100
AcDbEntity
  8
寸法
 62
     0
 48
50.0
370
    -2
100
AcDbLine
 10
13053.6
 20
6569.958730512896
 30
0.0
 11
12738.95750108245
 21
6569.958730512896
 31
0.0
  0
LINE
  5
2C7C2
330
2C072
100
AcDbEntity
  8
寸法
 62
     0
 48
50.0
370
    -2
100
AcDbLine
 10
13053.6
 20
6289.958730512866
 30
0.0
 11
12738.95750108245
 21
6289.958730512866
 31
0.0
  0
LINE
  5
2C7C3
330
2C072
100
AcDbEntity
  8
寸法
 62
     0
 48
50.0
370
    -2
100
AcDbLine
 10
12798.95750108245
 20
6569.958730512896
 30
0.0
 11
12798.95750108245
 21
6289.958730512866
 31
0.0
  0
LINE
  5
2C7C4
330
2C072
100
AcDbEntity
  8
寸法
 62
     0
 48
50.0
370
    -2
100
AcDbLine
 10
12798.95750108245
 20
6289.958730512866
 30
0.0
 11
12798.95750108245
 21
5890.816998229401
 31
0.0
  0
INSERT
  5
2C7C5
330
2C072
100
AcDbEntity
  8
寸法
 62
     0
 48
50.0
370
    -2
100
AcDbBlockReference
  2
_DOTSMALL
 10
12798.95750108245
 20
6569.958730512896
 30
0.0
 41
100.0
 42
100.0
 43
100.0
 50
90.0
  0
INSERT
  5
2C7C6
330
2C072
100
AcDbEntity
  8
寸法
 62
     0
 48
50.0
370
    -2
100
AcDbBlockReference
  2
_DOTSMALL
 10
12798.95750108245
 20
6289.958730512866
 30
0.0
 41
100.0
 42
100.0
 43
100.0
 50
270.0
  0
MTEXT
  5
2C7C7
330
2C072
100
AcDbEntity
  8
寸法
 62
     7
 48
50.0
100
AcDbMText
 10
12698.94569005883
 20
6040.387864371135
 30
0.0
 40
120.0
 41
0.0
 71
     5
 72
     1
  1
\A1;280
  7
STYLE1
 11
0.0000000000000001
 21
1.0
 31
0.0
 73
     1
 44
1.0
1001
ACAD
1000
MTEXTBEGIN
1070
    73
1070
     1
1070
    44
1040
1.0
1070
    74
1070
     0
1000
MTEXTEND
  0
POINT
  5
2C7C8
330
2C072
100
AcDbEntity
  8
DEFPOINTS
 62
     0
 48
50.0
100
AcDbPoint
 10
13073.6
 20
6569.958730512896
 30
0.0
  0
POINT
  5
2C7C9
330
2C072
100
AcDbEntity
  8
DEFPOINTS
 62
     0
 48
50.0
100
AcDbPoint
 10
13073.6
 20
6289.958730512866
 30
0.0
  0
POINT
  5
2C7CA
330
2C072
100
AcDbEntity
  8
DEFPOINTS
 62
     0
 48
50.0
100
AcDbPoint
 10
12798.95750108245
 20
6289.958730512866
 30
0.0
  0
ENDBLK
  5
2C07E
330
2C072
100
AcDbEntity
  8
0
 48
50.0
100
AcDbBlockEnd
  0
BLOCK
  5
2C08A
330
2C07F
100
AcDbEntity
  8
0
 48
50.0
100
AcDbBlockBegin
  2
*D48
 70
     1
 10
0.0
 20
0.0
 30
0.0
  3
*D48
  1

  0
LINE
  5
2C7EA
330
2C07F
100
AcDbEntity
  8
寸法
 62
     0
 48
50.0
370
    -2
100
AcDbLine
 10
13453.6
 20
6966.639836581077
 30
0.0
 11
13453.6
 21
6909.646572542245
 31
0.0
  0
LINE
  5
2C7EB
330
2C07F
100
AcDbEntity
  8
寸法
 62
     0
 48
50.0
370
    -2
100
AcDbLine
 10
13333.6
 20
6989.646572542245
 30
0.0
 11
13333.6
 21
7029.646572542244
 31
0.0
  0
LINE
  5
2C7EC
330
2C07F
100
AcDbEntity
  8
寸法
 62
     0
 48
50.0
370
    -2
100
AcDbLine
 10
13333.6
 20
6969.646572542244
 30
0.0
 11
13453.6
 21
6969.646572542244
 31
0.0
  0
LINE
  5
2C7ED
330
2C07F
100
AcDbEntity
  8
寸法
 62
     0
 48
50.0
370
    -2
100
AcDbLine
 10
13453.6
 20
6969.646572542244
 30
0.0
 11
13859.7062992126
 21
6969.646572542244
 31
0.0
  0
INSERT
  5
2C7EE
330
2C07F
100
AcDbEntity
  8
寸法
 62
     0
 48
50.0
370
    -2
100
AcDbBlockReference
  2
_DOTSMALL
 10
13333.6
 20
6969.646572542244
 30
0.0
 41
100.0
 42
100.0
 43
100.0
 50
180.0
  0
INSERT
  5
2C7EF
330
2C07F
100
AcDbEntity
  8
寸法
 62
     0
 48
50.0
370
    -2
100
AcDbBlockReference
  2
_DOTSMALL
 10
13453.6
 20
6969.646572542244
 30
0.0
 41
100.0
 42
100.0
 43
100.0
  0
MTEXT
  5
2C7F0
330
2C07F
100
AcDbEntity
  8
寸法
 62
     7
 48
50.0
100
AcDbMText
 10
13723.65905511811
 20
7069.658383565865
 30
0.0
 40
120.0
 41
0.0
 71
     5
 72
     1
  1
\A1;120
  7
STYLE1
 73
     1
 44
1.0
1001
ACAD
1000
MTEXTBEGIN
1070
    73
1070
     1
1070
    44
1040
1.0
1070
    74
1070
     0
1000
MTEXTEND
  0
POINT
  5
2C7F1
330
2C07F
100
AcDbEntity
  8
DEFPOINTS
 62
     0
 48
50.0
100
AcDbPoint
 10
13453.6
 20
6986.639836581076
 30
0.0
  0
POINT
  5
2C7F2
330
2C07F
100
AcDbEntity
  8
DEFPOINTS
 62
     0
 48
50.0
100
AcDbPoint
 10
13333.6
 20
6969.646572542244
 30
0.0
  0
POINT
  5
2C7F3
330
2C07F
100
AcDbEntity
  8
DEFPOINTS
 62
     0
 48
50.0
100
AcDbPoint
 10
13333.6
 20
6969.646572542244
 30
0.0
  0
ENDBLK
  5
2C08B
330
2C07F
100
AcDbEntity
  8
0
 48
50.0
100
AcDbBlockEnd
  0
BLOCK
  5
2CAB6
330
2CAAC
100
AcDbEntity
  8
0
 48
50.0
100
AcDbBlockBegin
  2
*D49
 70
     1
 10
0.0
 20
0.0
 30
0.0
  3
*D49
  1

  0
LINE
  5
2CAF6
330
2CAAC
100
AcDbEntity
  8
寸法
 62
     0
 48
50.0
370
    -2
100
AcDbLine
 10
6100.492137062104
 20
830.1434085165583
 30
0.0
 11
6100.492137062104
 21
379.7137705113982
 31
0.0
  0
LINE
  5
2CAF7
330
2CAAC
100
AcDbEntity
  8
寸法
 62
     0
 48
50.0
370
    -2
100
AcDbLine
 10
6548.492137062104
 20
830.1434085165583
 30
0.0
 11
6548.492137062104
 21
379.7137705113982
 31
0.0
  0
LINE
  5
2CAF8
330
2CAAC
100
AcDbEntity
  8
寸法
 62
     0
 48
50.0
370
    -2
100
AcDbLine
 10
6100.492137062104
 20
439.7137705113983
 30
0.0
 11
6548.492137062104
 21
439.7137705113983
 31
0.0
  0
INSERT
  5
2CAF9
330
2CAAC
100
AcDbEntity
  8
寸法
 62
     0
 48
50.0
370
    -2
100
AcDbBlockReference
  2
_DOTSMALL
 10
6100.492137062104
 20
439.7137705113983
 30
0.0
 41
100.0
 42
100.0
 43
100.0
 50
180.0
  0
INSERT
  5
2CAFA
330
2CAAC
100
AcDbEntity
  8
寸法
 62
     0
 48
50.0
370
    -2
100
AcDbBlockReference
  2
_DOTSMALL
 10
6548.492137062104
 20
439.7137705113983
 30
0.0
 41
100.0
 42
100.0
 43
100.0
  0
MTEXT
  5
2CAFB
330
2CAAC
100
AcDbEntity
  8
寸法
 62
     7
 48
50.0
100
AcDbMText
 10
6304.395378383881
 20
539.7137705113983
 30
0.0
 40
120.0
 41
0.0
 71
     5
 72
     1
  1
\A1;300
  7
STYLE1
 73
     1
 44
1.0
1001
ACAD
1000
MTEXTBEGIN
1070
    73
1070
     1
1070
    44
1040
1.0
1070
    74
1070
     0
1000
MTEXTEND
  0
POINT
  5
2CAFC
330
2CAAC
100
AcDbEntity
  8
DEFPOINTS
 62
     0
 48
50.0
100
AcDbPoint
 10
6100.492137062104
 20
850.1434085165582
 30
0.0
  0
POINT
  5
2CAFD
330
2CAAC
100
AcDbEntity
  8
DEFPOINTS
 62
     0
 48
50.0
100
AcDbPoint
 10
6548.492137062104
 20
850.1434085165582
 30
0.0
  0
POINT
  5
2CAFE
330
2CAAC
100
AcDbEntity
  8
DEFPOINTS
 62
     0
 48
50.0
100
AcDbPoint
 10
6548.492137062104
 20
439.7137705113983
 30
0.0
  0
ENDBLK
  5
2CAB7
330
2CAAC
100
AcDbEntity
  8
0
 48
50.0
100
AcDbBlockEnd
  0
BLOCK
  5
2CAC2
330
2CAB8
100
AcDbEntity
  8
0
 48
50.0
100
AcDbBlockBegin
  2
*D50
 70
     1
 10
0.0
 20
0.0
 30
0.0
  3
*D50
  1

  0
LINE
  5
2CAFF
330
2CAB8
100
AcDbEntity
  8
寸法
 62
     0
 48
50.0
370
    -2
100
AcDbLine
 10
6208.492137062104
 20
1762.143408516558
 30
0.0
 11
5433.454898500365
 21
1762.143408516558
 31
0.0
  0
LINE
  5
2CB00
330
2CAB8
100
AcDbEntity
  8
寸法
 62
     0
 48
50.0
370
    -2
100
AcDbLine
 10
6000.492137062107
 20
978.1434085165583
 30
0.0
 11
5433.454898500365
 21
978.1434085165583
 31
0.0
  0
LINE
  5
2CB01
330
2CAB8
100
AcDbEntity
  8
寸法
 62
     0
 48
50.0
370
    -2
100
AcDbLine
 10
5493.454898500363
 20
1762.143408516558
 30
0.0
 11
5493.454898500363
 21
978.1434085165583
 31
0.0
  0
INSERT
  5
2CB02
330
2CAB8
100
AcDbEntity
  8
寸法
 62
     0
 48
50.0
370
    -2
100
AcDbBlockReference
  2
_DOTSMALL
 10
5493.454898500363
 20
1762.143408516558
 30
0.0
 41
100.0
 42
100.0
 43
100.0
 50
90.0
  0
INSERT
  5
2CB03
330
2CAB8
100
AcDbEntity
  8
寸法
 62
     0
 48
50.0
370
    -2
100
AcDbBlockReference
  2
_DOTSMALL
 10
5493.454898500363
 20
978.1434085165583
 30
0.0
 41
100.0
 42
100.0
 43
100.0
 50
270.0
  0
MTEXT
  5
2CB04
330
2CAB8
100
AcDbEntity
  8
寸法
 62
     7
 48
50.0
100
AcDbMText
 10
5393.454898500364
 20
1349.683558172559
 30
0.0
 40
120.0
 41
0.0
 71
     5
 72
     1
  1
\A1;540
  7
STYLE1
 11
0.0000000000000001
 21
1.0
 31
0.0
 73
     1
 44
1.0
1001
ACAD
1000
MTEXTBEGIN
1070
    73
1070
     1
1070
    44
1040
1.0
1070
    74
1070
     0
1000
MTEXTEND
  0
POINT
  5
2CB05
330
2CAB8
100
AcDbEntity
  8
DEFPOINTS
 62
     0
 48
50.0
100
AcDbPoint
 10
6228.492137062104
 20
1762.143408516558
 30
0.0
  0
POINT
  5
2CB06
330
2CAB8
100
AcDbEntity
  8
DEFPOINTS
 62
     0
 48
50.0
100
AcDbPoint
 10
6020.492137062108
 20
978.1434085165583
 30
0.0
  0
POINT
  5
2CB07
330
2CAB8
100
AcDbEntity
  8
DEFPOINTS
 62
     0
 48
50.0
100
AcDbPoint
 10
5493.454898500363
 20
978.1434085165583
 30
0.0
  0
ENDBLK
  5
2CAC3
330
2CAB8
100
AcDbEntity
  8
0
 48
50.0
100
AcDbBlockEnd
  0
BLOCK
  5
2CACE
330
2CAC4
100
AcDbEntity
  8
0
 48
50.0
100
AcDbBlockBegin
  2
*D51
 70
     1
 10
0.0
 20
0.0
 30
0.0
  3
*D51
  1

  0
LINE
  5
2CB08
330
2CAC4
100
AcDbEntity
  8
寸法
 62
     0
 48
50.0
370
    -2
100
AcDbLine
 10
6080.492137062105
 20
1218.143408516558
 30
0.0
 11
5898.071823329645
 21
1218.143408516558
 31
0.0
  0
LINE
  5
2CB09
330
2CAC4
100
AcDbEntity
  8
寸法
 62
     0
 48
50.0
370
    -2
100
AcDbLine
 10
6000.492137062107
 20
978.1434085165583
 30
0.0
 11
5898.071823329645
 21
978.1434085165583
 31
0.0
  0
LINE
  5
2CB0A
330
2CAC4
100
AcDbEntity
  8
寸法
 62
     0
 48
50.0
370
    -2
100
AcDbLine
 10
5958.071823329645
 20
1218.143408516558
 30
0.0
 11
5958.071823329645
 21
978.1434085165583
 31
0.0
  0
INSERT
  5
2CB0B
330
2CAC4
100
AcDbEntity
  8
寸法
 62
     0
 48
50.0
370
    -2
100
AcDbBlockReference
  2
_DOTSMALL
 10
5958.071823329645
 20
1218.143408516558
 30
0.0
 41
100.0
 42
100.0
 43
100.0
 50
90.0
  0
INSERT
  5
2CB0C
330
2CAC4
100
AcDbEntity
  8
寸法
 62
     0
 48
50.0
370
    -2
100
AcDbBlockReference
  2
_DOTSMALL
 10
5958.071823329645
 20
978.1434085165583
 30
0.0
 41
100.0
 42
100.0
 43
100.0
 50
270.0
  0
MTEXT
  5
2CB0D
330
2CAC4
100
AcDbEntity
  8
寸法
 62
     7
 48
50.0
100
AcDbMText
 10
5858.071823329645
 20
1098.143408516559
 30
0.0
 40
120.0
 41
0.0
 71
     5
 72
     1
  1
\A1;150
  7
STYLE1
 11
0.0000000000000001
 21
1.0
 31
0.0
 73
     1
 44
1.0
1001
ACAD
1000
MTEXTBEGIN
1070
    73
1070
     1
1070
    44
1040
1.0
1070
    74
1070
     0
1000
MTEXTEND
  0
POINT
  5
2CB0E
330
2CAC4
100
AcDbEntity
  8
DEFPOINTS
 62
     0
 48
50.0
100
AcDbPoint
 10
6100.492137062104
 20
1218.143408516558
 30
0.0
  0
POINT
  5
2CB0F
330
2CAC4
100
AcDbEntity
  8
DEFPOINTS
 62
     0
 48
50.0
100
AcDbPoint
 10
6020.492137062108
 20
978.1434085165583
 30
0.0
  0
POINT
  5
2CB10
330
2CAC4
100
AcDbEntity
  8
DEFPOINTS
 62
     0
 48
50.0
100
AcDbPoint
 10
5958.071823329645
 20
978.1434085165583
 30
0.0
  0
ENDBLK
  5
2CACF
330
2CAC4
100
AcDbEntity
  8
0
 48
50.0
100
AcDbBlockEnd
  0
BLOCK
  5
2CADC
330
2CAD0
100
AcDbEntity
  8
0
 48
50.0
100
AcDbBlockBegin
  2
*D52
 70
     1
 10
0.0
 20
0.0
 30
0.0
  3
*D52
  1

  0
LINE
  5
2CB11
330
2CAD0
100
AcDbEntity
  8
寸法
 62
     0
 48
50.0
370
    -2
100
AcDbLine
 10
8175.331450239298
 20
1814.903408516559
 30
0.0
 11
9180.454716127171
 21
1814.903408516559
 31
0.0
  0
LINE
  5
2CB12
330
2CAD0
100
AcDbEntity
  8
寸法
 62
     0
 48
50.0
370
    -2
100
AcDbLine
 10
8362.531450239298
 20
1762.143408516558
 30
0.0
 11
9180.454716127171
 21
1762.143408516558
 31
0.0
  0
LINE
  5
2CB13
330
2CAD0
100
AcDbEntity
  8
寸法
 62
     0
 48
50.0
370
    -2
100
AcDbLine
 10
9120.454716127168
 20
1814.903408516559
 30
0.0
 11
9120.454716127168
 21
1914.903408516559
 31
0.0
  0
LINE
  5
2CB14
330
2CAD0
100
AcDbEntity
  8
寸法
 62
     0
 48
50.0
370
    -2
100
AcDbLine
 10
9120.454716127168
 20
1762.143408516558
 30
0.0
 11
9120.454716127168
 21
1030.125601673592
 31
0.0
  0
LINE
  5
2CB15
330
2CAD0
100
AcDbEntity
  8
寸法
 62
     0
 48
50.0
370
    -2
100
AcDbLine
 10
9120.454716127168
 20
1814.903408516559
 30
0.0
 11
9120.454716127168
 21
1762.143408516558
 31
0.0
  0
INSERT
  5
2CB16
330
2CAD0
100
AcDbEntity
  8
寸法
 62
     0
 48
50.0
370
    -2
100
AcDbBlockReference
  2
_DOTSMALL
 10
9120.454716127168
 20
1814.903408516559
 30
0.0
 41
100.0
 42
100.0
 43
100.0
 50
270.0
  0
INSERT
  5
2CB17
330
2CAD0
100
AcDbEntity
  8
寸法
 62
     0
 48
50.0
370
    -2
100
AcDbBlockReference
  2
_DOTSMALL
 10
9120.454716127168
 20
1762.143408516558
 30
0.0
 41
100.0
 42
100.0
 43
100.0
 50
90.0
  0
MTEXT
  5
2CB18
330
2CAD0
100
AcDbEntity
  8
寸法
 62
     7
 48
50.0
100
AcDbMText
 10
9020.442905103548
 20
1296.134505095076
 30
0.0
 40
120.0
 41
0.0
 71
     5
 72
     1
  1
\A1;20～25
  7
STYLE1
 11
0.0000000000000001
 21
1.0
 31
0.0
 73
     1
 44
1.0
1001
ACAD
1000
MTEXTBEGIN
1070
    73
1070
     1
1070
    44
1040
1.0
1070
    74
1070
     0
1000
MTEXTEND
  0
POINT
  5
2CB19
330
2CAD0
100
AcDbEntity
  8
DEFPOINTS
 62
     0
 48
50.0
100
AcDbPoint
 10
8155.3314502393
 20
1814.903408516559
 30
0.0
  0
POINT
  5
2CB1A
330
2CAD0
100
AcDbEntity
  8
DEFPOINTS
 62
     0
 48
50.0
100
AcDbPoint
 10
8342.531450239297
 20
1762.143408516558
 30
0.0
  0
POINT
  5
2CB1B
330
2CAD0
100
AcDbEntity
  8
DEFPOINTS
 62
     0
 48
50.0
100
AcDbPoint
 10
9120.454716127168
 20
1762.143408516558
 30
0.0
  0
ENDBLK
  5
2CADD
330
2CAD0
100
AcDbEntity
  8
0
 48
50.0
100
AcDbBlockEnd
  0
BLOCK
  5
2CAE8
330
2CADE
100
AcDbEntity
  8
0
 48
50.0
100
AcDbBlockBegin
  2
*D53
 70
     1
 10
0.0
 20
0.0
 30
0.0
  3
*D53
  1

  0
LINE
  5
2CB1C
330
2CADE
100
AcDbEntity
  8
寸法
 62
     0
 48
50.0
370
    -2
100
AcDbLine
 10
8362.531450239298
 20
1762.143408516558
 30
0.0
 11
8904.400050008142
 21
1762.143408516558
 31
0.0
  0
LINE
  5
2CB1D
330
2CADE
100
AcDbEntity
  8
寸法
 62
     0
 48
50.0
370
    -2
100
AcDbLine
 10
8362.531450239298
 20
1438.143408516557
 30
0.0
 11
8904.400050008142
 21
1438.143408516557
 31
0.0
  0
LINE
  5
2CB1E
330
2CADE
100
AcDbEntity
  8
寸法
 62
     0
 48
50.0
370
    -2
100
AcDbLine
 10
8844.400050008141
 20
1762.143408516558
 30
0.0
 11
8844.400050008141
 21
1438.143408516557
 31
0.0
  0
INSERT
  5
2CB1F
330
2CADE
100
AcDbEntity
  8
寸法
 62
     0
 48
50.0
370
    -2
100
AcDbBlockReference
  2
_DOTSMALL
 10
8844.400050008141
 20
1762.143408516558
 30
0.0
 41
100.0
 42
100.0
 43
100.0
 50
90.0
  0
INSERT
  5
2CB20
330
2CADE
100
AcDbEntity
  8
寸法
 62
     0
 48
50.0
370
    -2
100
AcDbBlockReference
  2
_DOTSMALL
 10
8844.400050008141
 20
1438.143408516557
 30
0.0
 41
100.0
 42
100.0
 43
100.0
 50
270.0
  0
MTEXT
  5
2CB21
330
2CADE
100
AcDbEntity
  8
寸法
 62
     7
 48
50.0
100
AcDbMText
 10
8744.400050008142
 20
1600.143408516559
 30
0.0
 40
120.0
 41
0.0
 71
     5
 72
     1
  1
\A1;180
  7
STYLE1
 11
0.0000000000000001
 21
1.0
 31
0.0
 73
     1
 44
1.0
1001
ACAD
1000
MTEXTBEGIN
1070
    73
1070
     1
1070
    44
1040
1.0
1070
    74
1070
     0
1000
MTEXTEND
  0
POINT
  5
2CB22
330
2CADE
100
AcDbEntity
  8
DEFPOINTS
 62
     0
 48
50.0
100
AcDbPoint
 10
8342.531450239297
 20
1762.143408516558
 30
0.0
  0
POINT
  5
2CB23
330
2CADE
100
AcDbEntity
  8
DEFPOINTS
 62
     0
 48
50.0
100
AcDbPoint
 10
8342.531450239297
 20
1438.143408516557
 30
0.0
  0
POINT
  5
2CB24
330
2CADE
100
AcDbEntity
  8
DEFPOINTS
 62
     0
 48
50.0
100
AcDbPoint
 10
8844.400050008141
 20
1438.143408516557
 30
0.0
  0
ENDBLK
  5
2CAE9
330
2CADE
100
AcDbEntity
  8
0
 48
50.0
100
AcDbBlockEnd
  0
BLOCK
  5
2CAF4
330
2CAEA
100
AcDbEntity
  8
0
 48
50.0
100
AcDbBlockBegin
  2
*D54
 70
     1
 10
0.0
 20
0.0
 30
0.0
  3
*D54
  1

  0
LINE
  5
2CB25
330
2CAEA
100
AcDbEntity
  8
寸法
 62
     0
 48
50.0
370
    -2
100
AcDbLine
 10
6420.492137062104
 20
1782.143408516558
 30
0.0
 11
6420.492137062104
 21
2241.811216432939
 31
0.0
  0
LINE
  5
2CB26
330
2CAEA
100
AcDbEntity
  8
寸法
 62
     0
 48
50.0
370
    -2
100
AcDbLine
 10
6228.492137062104
 20
1782.143408516558
 30
0.0
 11
6228.492137062104
 21
2241.811216432939
 31
0.0
  0
LINE
  5
2CB27
330
2CAEA
100
AcDbEntity
  8
寸法
 62
     0
 48
50.0
370
    -2
100
AcDbLine
 10
6420.492137062104
 20
2181.811216432939
 30
0.0
 11
6228.492137062104
 21
2181.811216432939
 31
0.0
  0
INSERT
  5
2CB28
330
2CAEA
100
AcDbEntity
  8
寸法
 62
     0
 48
50.0
370
    -2
100
AcDbBlockReference
  2
_DOTSMALL
 10
6420.492137062104
 20
2181.811216432939
 30
0.0
 41
100.0
 42
100.0
 43
100.0
  0
INSERT
  5
2CB29
330
2CAEA
100
AcDbEntity
  8
寸法
 62
     0
 48
50.0
370
    -2
100
AcDbBlockReference
  2
_DOTSMALL
 10
6228.492137062104
 20
2181.811216432939
 30
0.0
 41
100.0
 42
100.0
 43
100.0
 50
180.0
  0
MTEXT
  5
2CB2A
330
2CAEA
100
AcDbEntity
  8
寸法
 62
     7
 48
50.0
100
AcDbMText
 10
6324.492137062105
 20
2481.846649503805
 30
0.0
 40
120.0
 41
0.0
 71
     5
 72
     1
  1
\A1;120\P200\P280
  7
STYLE1
 73
     1
 44
1.0
1001
ACAD
1000
MTEXTBEGIN
1070
    73
1070
     1
1070
    44
1040
1.0
1070
    74
1070
     0
1000
MTEXTEND
  0
POINT
  5
2CB2B
330
2CAEA
100
AcDbEntity
  8
DEFPOINTS
 62
     0
 48
50.0
100
AcDbPoint
 10
6420.492137062104
 20
1762.143408516558
 30
0.0
  0
POINT
  5
2CB2C
330
2CAEA
100
AcDbEntity
  8
DEFPOINTS
 62
     0
 48
50.0
100
AcDbPoint
 10
6228.492137062104
 20
1762.143408516558
 30
0.0
  0
POINT
  5
2CB2D
330
2CAEA
100
AcDbEntity
  8
DEFPOINTS
 62
     0
 48
50.0
100
AcDbPoint
 10
6228.492137062104
 20
2181.811216432939
 30
0.0
  0
ENDBLK
  5
2CAF5
330
2CAEA
100
AcDbEntity
  8
0
 48
50.0
100
AcDbBlockEnd
  0
BLOCK
  5
2CB3A
330
2CB37
100
AcDbEntity
  8
0
 48
50.0
100
AcDbBlockBegin
  2
A$C6D9E4C85
 70
     0
 10
0.0
 20
0.0
 30
0.0
  3
A$C6D9E4C85
  1

  0
SPLINE
  5
2CB38
330
2CB37
100
AcDbEntity
  8
細線
 48
50.0
100
AcDbSpline
210
0.0
220
0.0
230
1.0
 70
     8
 71
     3
 72
    10
 73
     6
 74
     4
 42
0.0000000001
 43
0.0000000001
 44
0.0000000001
 40
0.0
 40
0.0
 40
0.0
 40
0.0
 40
192.2397835813012
 40
392.3518421163208
 40
606.4563990014053
 40
606.4563990014053
 40
606.4563990014053
 40
606.4563990014053
 10
259.5483460998657
 20
1267.711548470279
 30
0.0
 10
159.6021588565806
 20
1256.135784715089
 30
0.0
 10
-44.38304101658398
 20
1232.510226317957
 30
0.0
 10
375.2743919110603
 20
1099.233466286811
 30
0.0
 10
154.4789863408743
 20
1075.007850960949
 30
0.0
 10
40.35197957191122
 20
1062.485865020448
 30
0.0
 11
259.5483460998657
 21
1267.711548470279
 31
0.0
 11
73.85897429846591
 21
1217.95623125305
 31
0.0
 11
247.1611005933919
 21
1117.900201985541
 31
0.0
 11
40.35197957191122
 21
1062.485865020448
 31
0.0
  0
LINE
  5
2CB39
330
2CB37
100
AcDbEntity
  8
細線
 48
50.0
100
AcDbLine
 10
329.2829360995747
 20
2321.787109795809
 30
0.0
 11
0.0000176144912984
 21
-0.0000030674104892
 31
0.0
  0
ENDBLK
  5
2CB3B
330
2CB37
100
AcDbEntity
  8
0
 48
50.0
100
AcDbBlockEnd
  0
ENDSEC
  0
SECTION
  2
ENTITIES
  0
MTEXT
  5
763F
330
747D
100
AcDbEntity
  8
0
100
AcDbMText
 10
302.846345836809
 20
280.1983726409901
 30
0.0
 40
3.5
 41
5.323721266742722
 71
     1
 72
     5
  1

  7
MSMINCHO
 73
     1
 44
1.0
1001
ACAD
1000
MTEXTBEGIN
1070
    73
1070
     1
1070
    44
1040
1.0
1070
    74
1070
     0
1000
MTEXTEND
  0
LINE
  5
10B57
330
747D
100
AcDbEntity
  8
補助
  6
PHANTOM
 62
   230
 48
50.0
100
AcDbLine
 10
139.9999999999995
 20
11409.6
 30
0.0
 11
16307.2
 21
11409.6
 31
0.0
  0
LINE
  5
10B59
330
747D
100
AcDbEntity
  8
仕様書枠
  6
Continuous
 48
50.0
100
AcDbLine
 10
13107.2
 20
1200.0
 30
0.0
 11
13107.2
 21
-0.0000000000000729
 31
0.0
  0
LINE
  5
10B5D
330
747D
100
AcDbEntity
  8
仕様書枠
 48
50.0
100
AcDbLine
 10
140.0
 20
0.0
 30
0.0
 11
16307.2
 21
-0.0000000000000909
 31
0.0
  0
LINE
  5
10B5E
330
747D
100
AcDbEntity
  8
補助
  6
PHANTOM
 62
   230
 48
50.0
100
AcDbLine
 10
16307.2
 20
11409.6
 30
0.0
 11
16307.2
 21
1200.0
 31
0.0
  0
LINE
  5
10B6C
330
747D
100
AcDbEntity
  8
仕様書枠
 48
50.0
100
AcDbLine
 10
13107.2
 20
1200.0
 30
0.0
 11
16307.2
 21
1200.0
 31
0.0
  0
TEXT
  5
10B73
330
747D
100
AcDbEntity
  8
文字
 62
     7
 48
50.0
100
AcDbText
 10
13162.9790565769
 20
895.0906074299405
 30
0.0
 40
200.0
  1
基 礎 図
  7
STYLE2
100
AcDbText
  0
LINE
  5
10B7B
330
747D
100
AcDbEntity
  8
仕様書枠
 48
50.0
100
AcDbLine
 10
13107.2
 20
800.0
 30
0.0
 11
14251.2
 21
800.0
 31
0.0
  0
LINE
  5
10B88
330
747D
100
AcDbEntity
  8
仕様書枠
  6
Continuous
 48
50.0
100
AcDbLine
 10
14251.2
 20
1200.0
 30
0.0
 11
14251.2
 21
800.0
 31
0.0
  0
LINE
  5
16462
330
747D
100
AcDbEntity
  8
仕様書枠
 48
50.0
100
AcDbLine
 10
16307.2
 20
1200.0
 30
0.0
 11
16307.2
 21
-0.0000000000000909
 31
0.0
  0
LINE
  5
1903B
330
747D
100
AcDbEntity
  8
補助
  6
PHANTOM
 62
   230
 48
50.0
100
AcDbLine
 10
140.0
 20
0.0
 30
0.0
 11
139.9999999999995
 21
11409.6
 31
0.0
  0
TEXT
  5
1C7A1
330
747D
100
AcDbEntity
  8
文字
 62
     7
 48
50.0
100
AcDbText
 10
13188.16259899338
 20
79.80631269190417
 30
0.0
 40
80.0
  1
※布基礎には換気口を設けてください。
  7
STYLE2
100
AcDbText
  0
TEXT
  5
1C7E7
330
747D
100
AcDbEntity
  8
文字
 62
     7
 48
50.0
100
AcDbText
 10
13188.16259899338
 20
246.7109242801889
 30
0.0
 40
80.0
  1
※寒冷地等は地域の実情に合わせた基礎にして下さい。
  7
STYLE2
100
AcDbText
  0
TEXT
  5
1C7EC
330
747D
100
AcDbEntity
  8
文字
 62
     7
 48
50.0
100
AcDbText
 10
14524.131837222
 20
1031.557706291229
 30
0.0
 40
100.0
  1
<縮尺> S=1/40
  7
STYLE2
100
AcDbText
  0
TEXT
  5
1C7ED
330
747D
100
AcDbEntity
  8
文字
 62
     7
 48
50.0
100
AcDbText
 10
13201.43669998441
 20
477.2740661031257
 30
0.0
 40
160.0
  1
機種名
  7
STYLE2
100
AcDbText
  0
LINE
  5
1C7EF
330
747D
100
AcDbEntity
  8
文字
 62
     7
 48
50.0
100
AcDbLine
 10
13187.2
 20
400.0
 30
0.0
 11
16227.2
 21
400.0
 31
0.0
  0
TEXT
  5
271E7
330
747D
100
AcDbEntity
  8
部品1
100
AcDbText
 10
6896.551502705768
 20
5467.722888713582
 30
0.0
 40
135.0
  1
11連棟・14連棟・17連棟・20連棟
  7
STYLE2
100
AcDbText
  0
TEXT
  5
27754
330
747D
100
AcDbEntity
  8
文字
 62
     7
 48
50.0
100
AcDbText
 10
14271.39351435261
 20
483.8967129911416
 30
0.0
 40
160.0
  1
ＮＸＮ－０９ＤＬ-Ｎ
  7
STYLE2
100
AcDbText
  0
LINE
  5
2B784
102
{ACAD_REACTORS
330
2CB41
102
}
330
747D
100
AcDbEntity
  8
部品1
 48
50.0
100
AcDbLine
 10
13333.6
 20
7049.958730512877
 30
0.0
 11
3113.599999999997
 21
7049.958730512874
 31
0.0
  0
LINE
  5
2B786
102
{ACAD_REACTORS
330
2CB41
102
}
330
747D
100
AcDbEntity
  8
部品1
 48
50.0
100
AcDbLine
 10
13453.6
 20
7249.958730512874
 30
0.0
 11
2993.600000000001
 21
7249.958730512874
 31
0.0
  0
LINE
  5
2B787
102
{ACAD_REACTORS
330
2CB46
102
}
330
747D
100
AcDbEntity
  8
部品1
 48
50.0
100
AcDbLine
 10
13453.6
 20
6289.958730512906
 30
0.0
 11
2993.599999999997
 21
6289.95873051287
 31
0.0
  0
DIMENSION
  5
2B789
330
747D
100
AcDbEntity
  8
寸法
 48
50.0
100
AcDbDimension
  2
*D19
 10
7748.600000000007
 20
7732.567547183122
 30
0.0
 11
8223.600000000008
 21
7832.567547183121
 31
0.0
 70
    32
 71
     5
 42
950.0
  3
INABA_S40G
100
AcDbAlignedDimension
 13
8698.600000000007
 23
6819.958730512873
 33
0.0
 14
7748.600000000007
 24
6819.958730512873
 34
0.0
100
AcDbRotatedDimension
1001
ACAD
1000
DSTYLE
1002
{
1070
   341
1005
0
1002
}
  0
DIMENSION
  5
2B78B
330
747D
100
AcDbEntity
  8
寸法
 48
50.0
100
AcDbDimension
  2
*D20
 10
13453.6
 20
8208.179052571789
 30
0.0
 11
8223.600000000001
 21
8308.179052571789
 31
0.0
 70
    32
  1
N X 950+10
 71
     5
 42
10460.0
  3
INABA_S40G
100
AcDbAlignedDimension
 13
2993.600000000001
 23
7249.958730512874
 33
0.0
 14
13453.6
 24
7249.958730512874
 34
0.0
100
AcDbRotatedDimension
1001
ACAD
1000
DSTYLE
1002
{
1070
   341
1005
0
1002
}
  0
DIMENSION
  5
2B78C
330
747D
100
AcDbEntity
  8
寸法
 48
50.0
100
AcDbDimension
  2
*D21
 10
3476.285990614301
 20
6769.958730512873
 30
0.0
 11
3476.285990614301
 21
5997.399675394772
 31
0.0
 70
   160
 71
     5
 42
479.999999999989
  3
INABA_S40G
100
AcDbAlignedDimension
 13
3567.765475140901
 23
6289.958730512885
 33
0.0
 14
3898.600000000008
 24
6769.958730512873
 34
0.0
 50
90.0
100
AcDbRotatedDimension
1001
ACAD
1000
DSTYLE
1002
{
1070
   341
1005
0
1002
}
  0
LINE
  5
2B78E
330
747D
100
AcDbEntity
  8
部品1
 48
50.0
100
AcDbLine
 10
2993.600000000001
 20
6289.958730512873
 30
0.0
 11
2993.600000000001
 21
7249.958730512874
 31
0.0
  0
DIMENSION
  5
2B78F
330
747D
100
AcDbEntity
  8
寸法
 48
50.0
100
AcDbDimension
  2
*D22
 10
2370.665006330072
 20
6487.958730512876
 30
0.0
 11
2370.665006330071
 21
6807.458730512873
 31
0.0
 70
   160
 71
     5
 42
638.9999999999964
  3
INABA_S40G
100
AcDbAlignedDimension
 13
3066.600000000001
 23
7126.958730512874
 33
0.0
 14
3066.600000000008
 24
6487.958730512876
 34
0.0
 50
90.0
100
AcDbRotatedDimension
1001
ACAD
1000
DSTYLE
1002
{
1070
   341
1005
0
1002
}
  0
DIMENSION
  5
2B790
330
747D
100
AcDbEntity
  8
寸法
 48
50.0
100
AcDbDimension
  2
*D23
 10
2118.721909610674
 20
6289.958730512873
 30
0.0
 11
2118.721909610673
 21
6807.458730512873
 31
0.0
 70
   160
 71
     5
 42
960.0
  3
INABA_S40G
100
AcDbAlignedDimension
 13
2993.600000000001
 23
7249.958730512874
 33
0.0
 14
2993.600000000001
 24
6289.958730512873
 34
0.0
 50
90.0
100
AcDbRotatedDimension
1001
ACAD
1000
DSTYLE
1002
{
1070
   341
1005
0
1002
}
  0
LINE
  5
2B792
330
747D
100
AcDbEntity
  8
細線
 48
50.0
100
AcDbLine
 10
3464.503084343777
 20
6289.95872401797
 30
0.0
 11
3573.600000000008
 21
6399.055639674203
 31
0.0
  0
LINE
  5
2B793
330
747D
100
AcDbEntity
  8
細線
 48
50.0
100
AcDbLine
 10
3509.404364949122
 20
6289.95872401797
 30
0.0
 11
3573.600000000011
 21
6354.154359068858
 31
0.0
  0
LINE
  5
2B794
330
747D
100
AcDbEntity
  8
細線
 48
50.0
100
AcDbLine
 10
3419.601803738429
 20
6289.95872401797
 30
0.0
 11
3573.600000000004
 21
6443.956920279545
 31
0.0
  0
LINE
  5
2B795
330
747D
100
AcDbEntity
  8
細線
 48
50.0
100
AcDbLine
 10
3374.700523133084
 20
6289.95872401797
 30
0.0
 11
3573.600000000002
 21
6488.858200884888
 31
0.0
  0
LINE
  5
2B796
330
747D
100
AcDbEntity
  8
細線
 48
50.0
100
AcDbLine
 10
3373.600000000011
 20
6333.759481490244
 30
0.0
 11
3573.600000000004
 21
6533.759481490235
 31
0.0
  0
LINE
  5
2B797
330
747D
100
AcDbEntity
  8
細線
 48
50.0
100
AcDbLine
 10
3373.600000000008
 20
6378.660762095585
 30
0.0
 11
3564.897968417292
 21
6569.958730512872
 31
0.0
  0
ARC
  5
2B798
330
747D
100
AcDbEntity
  8
想像線
 48
5.0
100
AcDbCircle
 10
3763.600000000004
 20
6289.958730512877
 30
0.0
 40
720.0
100
AcDbArc
 50
180.0
 51
270.0
  0
DIMENSION
  5
2B79A
330
747D
100
AcDbEntity
  8
寸法
 48
50.0
100
AcDbDimension
  2
*D24
 10
2370.665006330072
 20
6289.958730512873
 30
0.0
 11
2370.665006330071
 21
5954.427781670282
 31
0.0
 70
   160
 71
     5
 42
198.0000000000036
  3
INABA_S40G
100
AcDbAlignedDimension
 13
3066.600000000008
 23
6487.958730512876
 33
0.0
 14
2993.600000000001
 24
6289.958730512873
 34
0.0
 50
90.0
100
AcDbRotatedDimension
1001
ACAD
1000
DSTYLE
1002
{
1070
   341
1005
0
1002
}
  0
DIMENSION
  5
2B79B
330
747D
100
AcDbEntity
  8
寸法
 48
50.0
100
AcDbDimension
  2
*D25
 10
2880.512673767883
 20
5569.95873051287
 30
0.0
 11
2880.512673767882
 21
5929.958730512871
 31
0.0
 70
   160
  1
扉の出<>
 71
     5
 42
720.0
  3
INABA_S40G
100
AcDbAlignedDimension
 13
2993.600000000004
 23
6289.95873051287
 33
0.0
 14
3349.325326928809
 24
5569.95873051287
 34
0.0
 50
90.0
100
AcDbRotatedDimension
1001
ACAD
1000
DSTYLE
1002
{
1070
   341
1005
0
1002
}
  0
LINE
  5
2B79C
330
747D
100
AcDbEntity
  8
センター
 48
2.0
100
AcDbLine
 10
3066.600000000008
 20
6487.958730512876
 30
0.0
 11
3166.600000000008
 21
6487.958730512876
 31
0.0
  0
CIRCLE
  5
2B79D
330
747D
100
AcDbEntity
  8
部品1
 48
50.0
100
AcDbCircle
 10
3116.599999999993
 20
6487.958730512876
 30
0.0
 40
35.0
  0
LINE
  5
2B79E
330
747D
100
AcDbEntity
  8
部品1
 48
50.0
100
AcDbLine
 10
3373.599999999999
 20
6569.958730512872
 30
0.0
 11
3373.600000000013
 21
6289.958724017968
 31
0.0
  0
LINE
  5
2B79F
330
747D
100
AcDbEntity
  8
センター
 48
2.0
100
AcDbLine
 10
3116.600000000008
 20
6537.958730512876
 30
0.0
 11
3116.600000000008
 21
6437.958730512876
 31
0.0
  0
LINE
  5
2B7A0
330
747D
100
AcDbEntity
  8
細線
 48
50.0
100
AcDbLine
 10
3373.600000000006
 20
6513.364603911611
 30
0.0
 11
3430.194126601269
 21
6569.958730512872
 31
0.0
  0
LINE
  5
2B7A1
330
747D
100
AcDbEntity
  8
細線
 48
50.0
100
AcDbLine
 10
3373.60000000001
 20
6468.463323306273
 30
0.0
 11
3475.095407206609
 21
6569.958730512872
 31
0.0
  0
LINE
  5
2B7A2
330
747D
100
AcDbEntity
  8
細線
 48
50.0
100
AcDbLine
 10
3373.600000000008
 20
6423.562042700931
 30
0.0
 11
3519.99668781195
 21
6569.958730512873
 31
0.0
  0
LINE
  5
2B7A9
330
747D
100
AcDbEntity
  8
想像線
 48
5.0
100
AcDbLine
 10
3763.600000000004
 20
6289.958730512888
 30
0.0
 11
3763.600000000004
 21
5569.958730512877
 31
0.0
  0
LINE
  5
2B7AA
330
747D
100
AcDbEntity
  8
部品1
 48
50.0
100
AcDbLine
 10
3573.599999999999
 20
6569.958730512872
 30
0.0
 11
3573.600000000013
 21
6289.958724017972
 31
0.0
  0
LINE
  5
2B7AB
330
747D
100
AcDbEntity
  8
細線
 48
50.0
100
AcDbLine
 10
3554.305645554469
 20
6289.958724017973
 30
0.0
 11
3573.600000000013
 21
6309.253078463516
 31
0.0
  0
LINE
  5
2B7BF
330
747D
100
AcDbEntity
  8
センター
 48
2.0
100
AcDbLine
 10
5680.600000000008
 20
6487.958730512876
 30
0.0
 11
5780.600000000007
 21
6487.958730512876
 31
0.0
  0
LINE
  5
2B7C0
330
747D
100
AcDbEntity
  8
センター
 48
2.0
100
AcDbLine
 10
5730.600000000007
 20
6537.958730512876
 30
0.0
 11
5730.600000000007
 21
6437.958730512876
 31
0.0
  0
CIRCLE
  5
2B7C1
330
747D
100
AcDbEntity
  8
部品1
 48
50.0
100
AcDbCircle
 10
5730.600000000007
 20
6487.958730512876
 30
0.0
 40
35.0
  0
CIRCLE
  5
2B7CE
330
747D
100
AcDbEntity
  8
部品1
 48
50.0
100
AcDbCircle
 10
7630.600000000008
 20
6487.958730512876
 30
0.0
 40
35.0
  0
CIRCLE
  5
2B7CF
330
747D
100
AcDbEntity
  8
部品1
 48
50.0
100
AcDbCircle
 10
7630.600000000008
 20
6487.958730512876
 30
0.0
 40
35.0
  0
LINE
  5
2B7D0
330
747D
100
AcDbEntity
  8
センター
 48
2.0
100
AcDbLine
 10
7580.600000000008
 20
6487.958730512876
 30
0.0
 11
7680.600000000008
 21
6487.958730512876
 31
0.0
  0
LINE
  5
2B7D1
330
747D
100
AcDbEntity
  8
センター
 48
2.0
100
AcDbLine
 10
7580.600000000008
 20
6487.958730512876
 30
0.0
 11
7680.600000000008
 21
6487.958730512876
 31
0.0
  0
TEXT
  5
2B7DE
330
747D
100
AcDbEntity
  8
寸法
 48
50.0
100
AcDbText
 10
7770.883599148651
 20
6308.640021305611
 30
0.0
 40
120.0
  1
扉面
  7
STYLE1
100
AcDbText
  0
LINE
  5
2B7DF
330
747D
100
AcDbEntity
  8
センター
 48
2.0
100
AcDbLine
 10
7630.600000000008
 20
6537.958730512876
 30
0.0
 11
7630.600000000008
 21
6437.958730512876
 31
0.0
  0
LINE
  5
2B7E0
330
747D
100
AcDbEntity
  8
センター
 48
2.0
100
AcDbLine
 10
7630.600000000008
 20
6537.958730512876
 30
0.0
 11
7630.600000000008
 21
6437.958730512876
 31
0.0
  0
DIMENSION
  5
2B7ED
330
747D
100
AcDbEntity
  8
寸法
 48
50.0
100
AcDbDimension
  2
*D26
 10
4898.600000000008
 20
7732.567547183122
 30
0.0
 11
5373.600000000007
 21
7832.567547183121
 31
0.0
 70
    32
 71
     5
 42
950.0
  3
INABA_S40G
100
AcDbAlignedDimension
 13
5848.600000000008
 23
6819.958730512873
 33
0.0
 14
4898.600000000008
 24
6819.958730512873
 34
0.0
100
AcDbRotatedDimension
1001
ACAD
1000
DSTYLE
1002
{
1070
   341
1005
0
1002
}
  0
DIMENSION
  5
2B7EE
330
747D
100
AcDbEntity
  8
寸法
 48
50.0
100
AcDbDimension
  2
*D27
 10
3116.6
 20
7976.225188606784
 30
0.0
 11
4423.6
 21
8076.236999630406
 31
0.0
 70
    32
 71
     5
 42
2614.0
  3
INABA_S40G
100
AcDbAlignedDimension
 13
5730.6
 23
7176.958730512874
 33
0.0
 14
3116.6
 24
7176.958730512874
 34
0.0
100
AcDbRotatedDimension
1001
ACAD
1000
DSTYLE
1002
{
1070
   341
1005
0
1002
}
  0
LINE
  5
2B7EF
330
747D
100
AcDbEntity
  8
細線
 48
50.0
100
AcDbLine
 10
3461.181320547805
 20
7049.958730512877
 30
0.0
 11
3573.600000000006
 21
7162.377409965078
 31
0.0
  0
LINE
  5
2B7F0
330
747D
100
AcDbEntity
  8
細線
 48
50.0
100
AcDbLine
 10
3506.082601153138
 20
7049.958730512874
 30
0.0
 11
3573.600000000011
 21
7117.476129359744
 31
0.0
  0
LINE
  5
2B7F1
330
747D
100
AcDbEntity
  8
細線
 48
50.0
100
AcDbLine
 10
3416.280039942453
 20
7049.958730512874
 30
0.0
 11
3573.600000000006
 21
7207.278690570423
 31
0.0
  0
LINE
  5
2B7F2
330
747D
100
AcDbEntity
  8
細線
 48
50.0
100
AcDbLine
 10
3373.600000000013
 20
7052.179971175778
 30
0.0
 11
3571.378752842202
 21
7249.958724017966
 31
0.0
  0
LINE
  5
2B7F3
330
747D
100
AcDbEntity
  8
細線
 48
50.0
100
AcDbLine
 10
3373.600000000011
 20
7097.081251781119
 30
0.0
 11
3526.477472236859
 21
7249.958724017971
 31
0.0
  0
DIMENSION
  5
2B7F4
330
747D
100
AcDbEntity
  8
寸法
 48
50.0
100
AcDbDimension
  2
*D28
 10
3476.285990614302
 20
7249.958730512874
 30
0.0
 11
3476.285990614301
 21
7542.517785630984
 31
0.0
 70
   160
 71
     5
 42
480.0
  3
INABA_S40G
100
AcDbAlignedDimension
 13
3898.600000000008
 23
6769.958730512873
 33
0.0
 14
3567.765475140901
 24
7249.958730512874
 34
0.0
 50
90.0
100
AcDbRotatedDimension
1001
ACAD
1000
DSTYLE
1002
{
1070
   341
1005
0
1002
}
  0
DIMENSION
  5
2B7F5
330
747D
100
AcDbEntity
  8
寸法
 48
50.0
100
AcDbDimension
  2
*D29
 10
2993.600000000001
 20
7732.567547183122
 30
0.0
 11
3471.100000000004
 21
7832.567547183121
 31
0.0
 70
    32
 71
     5
 42
955.0000000000073
  3
INABA_S40G
100
AcDbAlignedDimension
 13
3948.600000000008
 23
6819.958730512873
 33
0.0
 14
2993.600000000001
 24
7249.958730512874
 34
0.0
100
AcDbRotatedDimension
1001
ACAD
1000
DSTYLE
1002
{
1070
   341
1005
0
1002
}
  0
DIMENSION
  5
2B7F7
330
747D
100
AcDbEntity
  8
寸法
 48
50.0
100
AcDbDimension
  2
*D30
 10
2993.600000000001
 20
7976.225188606784
 30
0.0
 11
2720.493398282203
 21
7976.225188606784
 31
0.0
 70
   160
 71
     5
 42
123.0
  3
INABA_S40G
100
AcDbAlignedDimension
 13
3116.6
 23
7176.958730512874
 33
0.0
 14
2993.600000000001
 24
7249.958730512874
 34
0.0
100
AcDbRotatedDimension
1001
ACAD
1000
DSTYLE
1002
{
1070
   341
1005
0
1002
}
  0
DIMENSION
  5
2B7F8
330
747D
100
AcDbEntity
  8
寸法
 48
50.0
100
AcDbDimension
  2
*D31
 10
2370.665006330072
 20
7126.958730512874
 30
0.0
 11
2370.665006330071
 21
7523.065332230673
 31
0.0
 70
   160
 71
     5
 42
123.0
  3
INABA_S40G
100
AcDbAlignedDimension
 13
2993.600000000001
 23
7249.958730512874
 33
0.0
 14
3066.600000000001
 24
7126.958730512874
 34
0.0
 50
90.0
100
AcDbRotatedDimension
1001
ACAD
1000
DSTYLE
1002
{
1070
   341
1005
0
1002
}
  0
LINE
  5
2B7FA
330
747D
100
AcDbEntity
  8
部品1
 48
50.0
100
AcDbLine
 10
3373.600000000006
 20
7249.958724017968
 30
0.0
 11
3373.600000000015
 21
7049.958730512876
 31
0.0
  0
LINE
  5
2B7FB
330
747D
100
AcDbEntity
  8
細線
 48
50.0
100
AcDbLine
 10
3373.600000000008
 20
7186.883812991808
 30
0.0
 11
3436.674911026168
 21
7249.958724017971
 31
0.0
  0
LINE
  5
2B7FC
330
747D
100
AcDbEntity
  8
細線
 48
50.0
100
AcDbLine
 10
3373.60000000001
 20
7141.982532386464
 30
0.0
 11
3481.576191631513
 21
7249.958724017968
 31
0.0
  0
LINE
  5
2B7FD
330
747D
100
AcDbEntity
  8
センター
 48
2.0
100
AcDbLine
 10
3066.600000000001
 20
7126.958730512874
 30
0.0
 11
3166.600000000001
 21
7126.958730512874
 31
0.0
  0
CIRCLE
  5
2B7FE
330
747D
100
AcDbEntity
  8
部品1
 48
50.0
100
AcDbCircle
 10
3116.6
 20
7126.958730512874
 30
0.0
 40
35.0
  0
LINE
  5
2B7FF
330
747D
100
AcDbEntity
  8
細線
 48
50.0
100
AcDbLine
 10
3086.082594658254
 20
6694.958724017884
 30
0.0
 11
3113.6
 21
6722.476129359638
 31
0.0
  0
LINE
  5
2B800
330
747D
100
AcDbEntity
  8
細線
 48
50.0
100
AcDbLine
 10
3041.181314052908
 20
6694.958724017886
 30
0.0
 11
3113.599999999999
 21
6767.377409964978
 31
0.0
  0
LINE
  5
2B801
330
747D
100
AcDbEntity
  8
細線
 48
50.0
100
AcDbLine
 10
2996.280033447563
 20
6694.958724017888
 30
0.0
 11
3113.599999999999
 21
6812.27869057032
 31
0.0
  0
LINE
  5
2B802
330
747D
100
AcDbEntity
  8
細線
 48
50.0
100
AcDbLine
 10
2993.600000000006
 20
6737.179971175677
 30
0.0
 11
3113.599999999998
 21
6857.179971175665
 31
0.0
  0
LINE
  5
2B803
330
747D
100
AcDbEntity
  8
細線
 48
50.0
100
AcDbLine
 10
2993.600000000008
 20
6782.081251781022
 30
0.0
 11
3106.477472236869
 21
6894.958724017886
 31
0.0
  0
LINE
  5
2B804
330
747D
100
AcDbEntity
  8
細線
 48
50.0
100
AcDbLine
 10
2993.600000000008
 20
6826.982532386368
 30
0.0
 11
3061.576191631526
 21
6894.958724017886
 31
0.0
  0
LINE
  5
2B805
330
747D
100
AcDbEntity
  8
細線
 48
50.0
100
AcDbLine
 10
2993.600000000006
 20
6871.883812991713
 30
0.0
 11
3016.674911026183
 21
6894.958724017889
 31
0.0
  0
LINE
  5
2B806
330
747D
100
AcDbEntity
  8
部品1
 48
50.0
100
AcDbLine
 10
3113.599999999998
 20
6894.958724017887
 30
0.0
 11
2993.600000000006
 21
6894.958724017889
 31
0.0
  0
LINE
  5
2B807
330
747D
100
AcDbEntity
  8
部品1
 48
50.0
100
AcDbLine
 10
3113.599999999999
 20
6694.958724017887
 30
0.0
 11
2993.600000000006
 21
6694.958724017888
 31
0.0
  0
LINE
  5
2B808
330
747D
100
AcDbEntity
  8
センター
 48
2.0
100
AcDbLine
 10
3116.6
 20
7176.958730512874
 30
0.0
 11
3116.6
 21
7076.958730512874
 31
0.0
  0
LINE
  5
2B809
330
747D
100
AcDbEntity
  8
細線
 48
50.0
100
AcDbLine
 10
3373.600000000006
 20
7231.785093597153
 30
0.0
 11
3391.773630420823
 21
7249.958724017971
 31
0.0
  0
DIMENSION
  5
2B80A
330
747D
100
AcDbEntity
  8
寸法
 48
50.0
100
AcDbDimension
  2
*D32
 10
3948.600000000008
 20
7732.567547183122
 30
0.0
 11
4423.600000000007
 21
7832.567547183121
 31
0.0
 70
    32
 71
     5
 42
950.0
  3
INABA_S40G
100
AcDbAlignedDimension
 13
4898.600000000008
 23
6819.958730512873
 33
0.0
 14
3948.600000000008
 24
6819.958730512873
 34
0.0
100
AcDbRotatedDimension
1001
ACAD
1000
DSTYLE
1002
{
1070
   341
1005
0
1002
}
  0
LINE
  5
2B80B
330
747D
100
AcDbEntity
  8
細線
 48
50.0
100
AcDbLine
 10
4323.600000000007
 20
7186.883812991806
 30
0.0
 11
4386.674911026168
 21
7249.958724017966
 31
0.0
  0
LINE
  5
2B80C
330
747D
100
AcDbEntity
  8
細線
 48
50.0
100
AcDbLine
 10
4323.600000000011
 20
7141.982532386464
 30
0.0
 11
4431.576191631513
 21
7249.958724017966
 31
0.0
  0
LINE
  5
2B80D
330
747D
100
AcDbEntity
  8
細線
 48
50.0
100
AcDbLine
 10
4323.600000000013
 20
7052.179971175774
 30
0.0
 11
4521.378752842202
 21
7249.958724017965
 31
0.0
  0
LINE
  5
2B80E
330
747D
100
AcDbEntity
  8
細線
 48
50.0
100
AcDbLine
 10
4323.600000000011
 20
7097.081251781117
 30
0.0
 11
4476.477472236858
 21
7249.958724017966
 31
0.0
  0
LINE
  5
2B80F
330
747D
100
AcDbEntity
  8
部品1
 48
50.0
100
AcDbLine
 10
4323.600000000006
 20
7249.958724017966
 30
0.0
 11
4323.600000000015
 21
7049.958730512876
 31
0.0
  0
LINE
  5
2B810
330
747D
100
AcDbEntity
  8
部品1
 48
50.0
100
AcDbLine
 10
3573.600000000006
 20
7249.958724017968
 30
0.0
 11
3573.600000000013
 21
7049.958730512876
 31
0.0
  0
LINE
  5
2B811
330
747D
100
AcDbEntity
  8
センター
 48
2.0
100
AcDbLine
 10
3898.600000000008
 20
6769.958730512873
 30
0.0
 11
3998.600000000008
 21
6769.958730512873
 31
0.0
  0
LINE
  5
2B812
330
747D
100
AcDbEntity
  8
部品1
 48
50.0
100
AcDbLine
 10
4048.600000000007
 20
6669.958730512873
 30
0.0
 11
3848.600000000008
 21
6669.958730512873
 31
0.0
  0
LINE
  5
2B813
330
747D
100
AcDbEntity
  8
部品1
 48
50.0
100
AcDbLine
 10
4048.600000000007
 20
6869.958730512873
 30
0.0
 11
3848.600000000008
 21
6869.958730512873
 31
0.0
  0
LINE
  5
2B814
330
747D
100
AcDbEntity
  8
部品1
 48
50.0
100
AcDbLine
 10
3848.600000000008
 20
6669.958730512873
 30
0.0
 11
3848.600000000008
 21
6869.958730512873
 31
0.0
  0
LINE
  5
2B815
330
747D
100
AcDbEntity
  8
細線
 48
50.0
100
AcDbLine
 10
3550.983881758481
 20
7049.958730512874
 30
0.0
 11
3573.600000000011
 21
7072.574848754403
 31
0.0
  0
LINE
  5
2B816
330
747D
100
AcDbEntity
  8
部品1
 48
50.0
100
AcDbLine
 10
4048.600000000007
 20
6669.958730512873
 30
0.0
 11
4048.600000000007
 21
6869.958730512873
 31
0.0
  0
LINE
  5
2B817
330
747D
100
AcDbEntity
  8
センター
 48
2.0
100
AcDbLine
 10
3948.600000000008
 20
6819.958730512873
 30
0.0
 11
3948.600000000008
 21
6719.958730512873
 31
0.0
  0
LINE
  5
2B818
330
747D
100
AcDbEntity
  8
細線
 48
50.0
100
AcDbLine
 10
4323.600000000006
 20
7231.785093597153
 30
0.0
 11
4341.773630420822
 21
7249.958724017966
 31
0.0
  0
LINE
  5
2B819
330
747D
100
AcDbEntity
  8
部品1
 48
50.0
100
AcDbLine
 10
4523.600000000006
 20
7249.958724017966
 30
0.0
 11
4523.600000000015
 21
7049.958730512874
 31
0.0
  0
LINE
  5
2B81A
330
747D
100
AcDbEntity
  8
細線
 48
50.0
100
AcDbLine
 10
4500.983881758498
 20
7049.958730512874
 30
0.0
 11
4523.600000000013
 21
7072.574848754394
 31
0.0
  0
LINE
  5
2B81B
330
747D
100
AcDbEntity
  8
細線
 48
50.0
100
AcDbLine
 10
4456.08260115314
 20
7049.958730512874
 30
0.0
 11
4523.600000000011
 21
7117.476129359744
 31
0.0
  0
LINE
  5
2B81C
330
747D
100
AcDbEntity
  8
細線
 48
50.0
100
AcDbLine
 10
4411.181320547821
 20
7049.958730512876
 30
0.0
 11
4523.600000000008
 21
7162.377409965078
 31
0.0
  0
LINE
  5
2B81D
330
747D
100
AcDbEntity
  8
細線
 48
50.0
100
AcDbLine
 10
4366.280039942457
 20
7049.958730512874
 30
0.0
 11
4523.600000000006
 21
7207.278690570422
 31
0.0
  0
LINE
  5
2B81E
330
747D
100
AcDbEntity
  8
部品1
 48
50.0
100
AcDbLine
 10
4998.600000000007
 20
6869.958730512873
 30
0.0
 11
4798.600000000007
 21
6869.958730512873
 31
0.0
  0
LINE
  5
2B81F
330
747D
100
AcDbEntity
  8
部品1
 48
50.0
100
AcDbLine
 10
4998.600000000007
 20
6669.958730512873
 30
0.0
 11
4798.600000000007
 21
6669.958730512873
 31
0.0
  0
LINE
  5
2B820
330
747D
100
AcDbEntity
  8
センター
 48
2.0
100
AcDbLine
 10
4898.600000000008
 20
6819.958730512873
 30
0.0
 11
4898.600000000008
 21
6719.958730512873
 31
0.0
  0
LINE
  5
2B821
330
747D
100
AcDbEntity
  8
センター
 48
2.0
100
AcDbLine
 10
4848.600000000008
 20
6769.958730512873
 30
0.0
 11
4948.600000000007
 21
6769.958730512873
 31
0.0
  0
LINE
  5
2B822
330
747D
100
AcDbEntity
  8
部品1
 48
50.0
100
AcDbLine
 10
4798.600000000007
 20
6669.958730512873
 30
0.0
 11
4798.600000000007
 21
6869.958730512873
 31
0.0
  0
LINE
  5
2B823
330
747D
100
AcDbEntity
  8
部品1
 48
50.0
100
AcDbLine
 10
4998.600000000007
 20
6669.958730512873
 30
0.0
 11
4998.600000000007
 21
6869.958730512873
 31
0.0
  0
LINE
  5
2B824
330
747D
100
AcDbEntity
  8
部品1
 48
50.0
100
AcDbLine
 10
6898.600000000008
 20
6869.958730512873
 30
0.0
 11
6698.600000000007
 21
6869.958730512873
 31
0.0
  0
LINE
  5
2B825
330
747D
100
AcDbEntity
  8
センター
 48
2.0
100
AcDbLine
 10
6748.600000000007
 20
6769.958730512873
 30
0.0
 11
6848.600000000008
 21
6769.958730512873
 31
0.0
  0
LINE
  5
2B826
330
747D
100
AcDbEntity
  8
部品1
 48
50.0
100
AcDbLine
 10
6898.600000000008
 20
6669.958730512873
 30
0.0
 11
6698.600000000007
 21
6669.958730512873
 31
0.0
  0
DIMENSION
  5
2B827
330
747D
100
AcDbEntity
  8
寸法
 48
50.0
100
AcDbDimension
  2
*D33
 10
6798.600000000007
 20
7732.567547183122
 30
0.0
 11
7273.600000000008
 21
7832.567547183121
 31
0.0
 70
    32
 71
     5
 42
950.0
  3
INABA_S40G
100
AcDbAlignedDimension
 13
7748.600000000007
 23
6819.958730512873
 33
0.0
 14
6798.600000000007
 24
6819.958730512873
 34
0.0
100
AcDbRotatedDimension
1001
ACAD
1000
DSTYLE
1002
{
1070
   341
1005
0
1002
}
  0
DIMENSION
  5
2B828
330
747D
100
AcDbEntity
  8
寸法
 48
50.0
100
AcDbDimension
  2
*D34
 10
5730.6
 20
7976.225188606784
 30
0.0
 11
6680.600000000001
 21
8076.225188606784
 31
0.0
 70
    32
 71
     5
 42
1900.0
  3
INABA_S40G
100
AcDbAlignedDimension
 13
7630.600000000001
 23
7176.958730512874
 33
0.0
 14
5730.6
 24
7176.958730512874
 34
0.0
100
AcDbRotatedDimension
1001
ACAD
1000
DSTYLE
1002
{
1070
   341
1005
0
1002
}
  0
DIMENSION
  5
2B829
330
747D
100
AcDbEntity
  8
寸法
 48
50.0
100
AcDbDimension
  2
*D35
 10
5848.600000000008
 20
7732.567547183122
 30
0.0
 11
6323.600000000007
 21
7832.567547183121
 31
0.0
 70
    32
 71
     5
 42
950.0
  3
INABA_S40G
100
AcDbAlignedDimension
 13
6798.600000000007
 23
6819.958730512873
 33
0.0
 14
5848.600000000008
 24
6819.958730512873
 34
0.0
100
AcDbRotatedDimension
1001
ACAD
1000
DSTYLE
1002
{
1070
   341
1005
0
1002
}
  0
LINE
  5
2B82A
330
747D
100
AcDbEntity
  8
部品1
 48
50.0
100
AcDbLine
 10
5473.600000000006
 20
7249.958724017965
 30
0.0
 11
5473.600000000013
 21
7049.958730512874
 31
0.0
  0
LINE
  5
2B82B
330
747D
100
AcDbEntity
  8
部品1
 48
50.0
100
AcDbLine
 10
5273.600000000006
 20
7249.958724017965
 30
0.0
 11
5273.600000000013
 21
7049.958730512874
 31
0.0
  0
LINE
  5
2B82C
330
747D
100
AcDbEntity
  8
細線
 48
50.0
100
AcDbLine
 10
5273.600000000008
 20
7186.883812991805
 30
0.0
 11
5336.674911026168
 21
7249.958724017966
 31
0.0
  0
LINE
  5
2B82D
330
747D
100
AcDbEntity
  8
細線
 48
50.0
100
AcDbLine
 10
5273.600000000016
 20
7052.179971175772
 30
0.0
 11
5471.378752842205
 21
7249.958724017965
 31
0.0
  0
LINE
  5
2B82E
330
747D
100
AcDbEntity
  8
細線
 48
50.0
100
AcDbLine
 10
5273.600000000011
 20
7097.081251781117
 30
0.0
 11
5426.477472236858
 21
7249.958724017966
 31
0.0
  0
LINE
  5
2B82F
330
747D
100
AcDbEntity
  8
細線
 48
50.0
100
AcDbLine
 10
5273.600000000009
 20
7141.982532386461
 30
0.0
 11
5381.576191631513
 21
7249.958724017965
 31
0.0
  0
LINE
  5
2B831
330
747D
100
AcDbEntity
  8
細線
 48
50.0
100
AcDbLine
 10
5361.181320547807
 20
7049.958730512876
 30
0.0
 11
5473.600000000006
 21
7162.377409965074
 31
0.0
  0
LINE
  5
2B832
330
747D
100
AcDbEntity
  8
細線
 48
50.0
100
AcDbLine
 10
5316.280039942454
 20
7049.958730512871
 30
0.0
 11
5473.600000000006
 21
7207.27869057042
 31
0.0
  0
LINE
  5
2B833
330
747D
100
AcDbEntity
  8
細線
 48
50.0
100
AcDbLine
 10
5450.98388175849
 20
7049.958730512874
 30
0.0
 11
5473.600000000011
 21
7072.574848754396
 31
0.0
  0
LINE
  5
2B834
330
747D
100
AcDbEntity
  8
細線
 48
50.0
100
AcDbLine
 10
5406.082601153141
 20
7049.958730512877
 30
0.0
 11
5473.60000000001
 21
7117.47612935974
 31
0.0
  0
LINE
  5
2B835
330
747D
100
AcDbEntity
  8
部品1
 48
50.0
100
AcDbLine
 10
5948.600000000007
 20
6869.958730512873
 30
0.0
 11
5748.600000000007
 21
6869.958730512873
 31
0.0
  0
LINE
  5
2B836
330
747D
100
AcDbEntity
  8
部品1
 48
50.0
100
AcDbLine
 10
5948.600000000007
 20
6669.958730512873
 30
0.0
 11
5748.600000000007
 21
6669.958730512873
 31
0.0
  0
LINE
  5
2B837
330
747D
100
AcDbEntity
  8
部品1
 48
50.0
100
AcDbLine
 10
5748.600000000007
 20
6669.958730512873
 30
0.0
 11
5748.600000000007
 21
6869.958730512873
 31
0.0
  0
LINE
  5
2B838
330
747D
100
AcDbEntity
  8
センター
 48
2.0
100
AcDbLine
 10
5848.600000000008
 20
6819.958730512873
 30
0.0
 11
5848.600000000008
 21
6719.958730512873
 31
0.0
  0
LINE
  5
2B839
330
747D
100
AcDbEntity
  8
センター
 48
2.0
100
AcDbLine
 10
5798.600000000007
 20
6769.958730512873
 30
0.0
 11
5898.600000000008
 21
6769.958730512873
 31
0.0
  0
LINE
  5
2B83A
330
747D
100
AcDbEntity
  8
部品1
 48
50.0
100
AcDbLine
 10
5948.600000000007
 20
6669.958730512873
 30
0.0
 11
5948.600000000007
 21
6869.958730512873
 31
0.0
  0
LINE
  5
2B83B
330
747D
100
AcDbEntity
  8
センター
 48
2.0
100
AcDbLine
 10
5680.6
 20
7126.958730512874
 30
0.0
 11
5780.6
 21
7126.958730512874
 31
0.0
  0
LINE
  5
2B83C
330
747D
100
AcDbEntity
  8
センター
 48
2.0
100
AcDbLine
 10
5730.6
 20
7176.958730512874
 30
0.0
 11
5730.6
 21
7076.958730512874
 31
0.0
  0
CIRCLE
  5
2B83D
330
747D
100
AcDbEntity
  8
部品1
 48
50.0
100
AcDbCircle
 10
5730.6
 20
7126.958730512874
 30
0.0
 40
35.0
  0
LINE
  5
2B83E
330
747D
100
AcDbEntity
  8
細線
 48
50.0
100
AcDbLine
 10
5273.600000000006
 20
7231.785093597149
 30
0.0
 11
5291.773630420824
 21
7249.958724017966
 31
0.0
  0
LINE
  5
2B83F
330
747D
100
AcDbEntity
  8
部品1
 48
50.0
100
AcDbLine
 10
6423.600000000007
 20
7249.958724017965
 30
0.0
 11
6423.600000000014
 21
7049.958730512874
 31
0.0
  0
LINE
  5
2B840
330
747D
100
AcDbEntity
  8
部品1
 48
50.0
100
AcDbLine
 10
6223.600000000008
 20
7249.958724017965
 30
0.0
 11
6223.600000000015
 21
7049.958730512874
 31
0.0
  0
LINE
  5
2B841
330
747D
100
AcDbEntity
  8
細線
 48
50.0
100
AcDbLine
 10
6223.600000000008
 20
7186.883812991805
 30
0.0
 11
6286.674911026171
 21
7249.958724017966
 31
0.0
  0
LINE
  5
2B842
330
747D
100
AcDbEntity
  8
細線
 48
50.0
100
AcDbLine
 10
6223.600000000015
 20
7052.179971175772
 30
0.0
 11
6421.378752842206
 21
7249.958724017965
 31
0.0
  0
LINE
  5
2B843
330
747D
100
AcDbEntity
  8
細線
 48
50.0
100
AcDbLine
 10
6223.600000000013
 20
7097.081251781117
 30
0.0
 11
6376.47747223686
 21
7249.958724017966
 31
0.0
  0
LINE
  5
2B844
330
747D
100
AcDbEntity
  8
細線
 48
50.0
100
AcDbLine
 10
6223.600000000013
 20
7141.982532386461
 30
0.0
 11
6331.576191631516
 21
7249.958724017965
 31
0.0
  0
LINE
  5
2B845
330
747D
100
AcDbEntity
  8
細線
 48
50.0
100
AcDbLine
 10
6311.18132054781
 20
7049.958730512876
 30
0.0
 11
6423.600000000007
 21
7162.377409965074
 31
0.0
  0
LINE
  5
2B846
330
747D
100
AcDbEntity
  8
細線
 48
50.0
100
AcDbLine
 10
6356.082601153143
 20
7049.958730512877
 30
0.0
 11
6423.600000000011
 21
7117.47612935974
 31
0.0
  0
LINE
  5
2B847
330
747D
100
AcDbEntity
  8
細線
 48
50.0
100
AcDbLine
 10
6266.280039942456
 20
7049.958730512871
 30
0.0
 11
6423.600000000007
 21
7207.27869057042
 31
0.0
  0
LINE
  5
2B84A
330
747D
100
AcDbEntity
  8
センター
 48
2.0
100
AcDbLine
 10
6798.600000000007
 20
6819.958730512873
 30
0.0
 11
6798.600000000007
 21
6719.958730512873
 31
0.0
  0
LINE
  5
2B84B
330
747D
100
AcDbEntity
  8
部品1
 48
50.0
100
AcDbLine
 10
6698.600000000007
 20
6669.958730512873
 30
0.0
 11
6698.600000000007
 21
6869.958730512873
 31
0.0
  0
LINE
  5
2B84C
330
747D
100
AcDbEntity
  8
細線
 48
50.0
100
AcDbLine
 10
6400.983881758493
 20
7049.958730512874
 30
0.0
 11
6423.600000000013
 21
7072.574848754396
 31
0.0
  0
LINE
  5
2B84D
330
747D
100
AcDbEntity
  8
細線
 48
50.0
100
AcDbLine
 10
6223.600000000008
 20
7231.785093597149
 30
0.0
 11
6241.773630420825
 21
7249.958724017966
 31
0.0
  0
LINE
  5
2B84E
330
747D
100
AcDbEntity
  8
センター
 48
2.0
100
AcDbLine
 10
7580.600000000001
 20
7126.958730512874
 30
0.0
 11
7680.600000000001
 21
7126.958730512874
 31
0.0
  0
LINE
  5
2B84F
330
747D
100
AcDbEntity
  8
センター
 48
2.0
100
AcDbLine
 10
7580.600000000001
 20
7126.958730512874
 30
0.0
 11
7680.600000000001
 21
7126.958730512874
 31
0.0
  0
CIRCLE
  5
2B850
330
747D
100
AcDbEntity
  8
部品1
 48
50.0
100
AcDbCircle
 10
7630.600000000001
 20
7126.958730512874
 30
0.0
 40
35.0
  0
CIRCLE
  5
2B851
330
747D
100
AcDbEntity
  8
部品1
 48
50.0
100
AcDbCircle
 10
7630.600000000001
 20
7126.958730512874
 30
0.0
 40
35.0
  0
LINE
  5
2B852
330
747D
100
AcDbEntity
  8
部品1
 48
50.0
100
AcDbLine
 10
7373.600000000007
 20
7249.958724017965
 30
0.0
 11
7373.600000000014
 21
7049.958730512874
 31
0.0
  0
LINE
  5
2B853
330
747D
100
AcDbEntity
  8
細線
 48
50.0
100
AcDbLine
 10
7173.600000000007
 20
7186.883812991805
 30
0.0
 11
7236.674911026172
 21
7249.958724017966
 31
0.0
  0
LINE
  5
2B854
330
747D
100
AcDbEntity
  8
細線
 48
50.0
100
AcDbLine
 10
7173.600000000013
 20
7141.982532386461
 30
0.0
 11
7281.576191631515
 21
7249.958724017965
 31
0.0
  0
LINE
  5
2B855
330
747D
100
AcDbEntity
  8
細線
 48
50.0
100
AcDbLine
 10
7173.600000000013
 20
7097.081251781117
 30
0.0
 11
7326.477472236859
 21
7249.958724017966
 31
0.0
  0
LINE
  5
2B856
330
747D
100
AcDbEntity
  8
細線
 48
50.0
100
AcDbLine
 10
7173.600000000014
 20
7052.179971175772
 30
0.0
 11
7371.378752842206
 21
7249.958724017965
 31
0.0
  0
LINE
  5
2B857
330
747D
100
AcDbEntity
  8
部品1
 48
50.0
100
AcDbLine
 10
7173.600000000007
 20
7249.958724017965
 30
0.0
 11
7173.600000000014
 21
7049.958730512874
 31
0.0
  0
LINE
  5
2B858
330
747D
100
AcDbEntity
  8
部品1
 48
50.0
100
AcDbLine
 10
6898.600000000008
 20
6669.958730512873
 30
0.0
 11
6898.600000000008
 21
6869.958730512873
 31
0.0
  0
LINE
  5
2B859
330
747D
100
AcDbEntity
  8
細線
 48
50.0
100
AcDbLine
 10
7216.280039942455
 20
7049.958730512871
 30
0.0
 11
7373.600000000007
 21
7207.27869057042
 31
0.0
  0
LINE
  5
2B85A
330
747D
100
AcDbEntity
  8
細線
 48
50.0
100
AcDbLine
 10
7306.082601153143
 20
7049.958730512877
 30
0.0
 11
7373.600000000012
 21
7117.47612935974
 31
0.0
  0
LINE
  5
2B85B
330
747D
100
AcDbEntity
  8
細線
 48
50.0
100
AcDbLine
 10
7350.983881758494
 20
7049.958730512874
 30
0.0
 11
7373.600000000013
 21
7072.574848754396
 31
0.0
  0
LINE
  5
2B85C
330
747D
100
AcDbEntity
  8
細線
 48
50.0
100
AcDbLine
 10
7261.18132054781
 20
7049.958730512876
 30
0.0
 11
7373.600000000007
 21
7162.377409965074
 31
0.0
  0
LINE
  5
2B85D
330
747D
100
AcDbEntity
  8
細線
 48
50.0
100
AcDbLine
 10
7173.600000000007
 20
7231.785093597149
 30
0.0
 11
7191.773630420825
 21
7249.958724017966
 31
0.0
  0
LINE
  5
2B85E
330
747D
100
AcDbEntity
  8
部品1
 48
50.0
100
AcDbLine
 10
8323.600000000006
 20
7249.958724017965
 30
0.0
 11
8323.600000000014
 21
7049.958730512869
 31
0.0
  0
LINE
  5
2B85F
330
747D
100
AcDbEntity
  8
部品1
 48
50.0
100
AcDbLine
 10
8123.600000000006
 20
7249.958724017965
 30
0.0
 11
8123.600000000015
 21
7049.958730512869
 31
0.0
  0
LINE
  5
2B860
330
747D
100
AcDbEntity
  8
細線
 48
50.0
100
AcDbLine
 10
8123.600000000008
 20
7186.883812991805
 30
0.0
 11
8186.674911026168
 21
7249.958724017965
 31
0.0
  0
LINE
  5
2B861
330
747D
100
AcDbEntity
  8
細線
 48
50.0
100
AcDbLine
 10
8123.600000000015
 20
7052.179971175774
 30
0.0
 11
8321.378752842202
 21
7249.958724017962
 31
0.0
  0
LINE
  5
2B862
330
747D
100
AcDbEntity
  8
細線
 48
50.0
100
AcDbLine
 10
8123.600000000008
 20
7097.081251781119
 30
0.0
 11
8276.477472236859
 21
7249.958724017962
 31
0.0
  0
LINE
  5
2B863
330
747D
100
AcDbEntity
  8
細線
 48
50.0
100
AcDbLine
 10
8123.600000000008
 20
7141.982532386461
 30
0.0
 11
8231.576191631511
 21
7249.958724017962
 31
0.0
  0
LINE
  5
2B864
330
747D
100
AcDbEntity
  8
部品1
 48
50.0
100
AcDbLine
 10
7848.600000000008
 20
6869.958730512873
 30
0.0
 11
7648.600000000008
 21
6869.958730512873
 31
0.0
  0
LINE
  5
2B865
330
747D
100
AcDbEntity
  8
部品1
 48
50.0
100
AcDbLine
 10
7848.600000000008
 20
6669.958730512873
 30
0.0
 11
7648.600000000008
 21
6669.958730512873
 31
0.0
  0
LINE
  5
2B866
330
747D
100
AcDbEntity
  8
センター
 48
2.0
100
AcDbLine
 10
7748.600000000007
 20
6819.958730512873
 30
0.0
 11
7748.600000000007
 21
6719.958730512873
 31
0.0
  0
LINE
  5
2B867
330
747D
100
AcDbEntity
  8
センター
 48
2.0
100
AcDbLine
 10
7698.600000000007
 20
6769.958730512873
 30
0.0
 11
7798.600000000007
 21
6769.958730512873
 31
0.0
  0
LINE
  5
2B868
330
747D
100
AcDbEntity
  8
部品1
 48
50.0
100
AcDbLine
 10
7648.600000000008
 20
6669.958730512873
 30
0.0
 11
7648.600000000008
 21
6869.958730512873
 31
0.0
  0
LINE
  5
2B869
330
747D
100
AcDbEntity
  8
部品1
 48
50.0
100
AcDbLine
 10
7848.600000000008
 20
6669.958730512873
 30
0.0
 11
7848.600000000008
 21
6869.958730512873
 31
0.0
  0
LINE
  5
2B86A
330
747D
100
AcDbEntity
  8
センター
 48
2.0
100
AcDbLine
 10
7630.600000000001
 20
7176.958730512874
 30
0.0
 11
7630.600000000001
 21
7076.958730512874
 31
0.0
  0
LINE
  5
2B86B
330
747D
100
AcDbEntity
  8
センター
 48
2.0
100
AcDbLine
 10
7630.600000000001
 20
7176.958730512874
 30
0.0
 11
7630.600000000001
 21
7076.958730512874
 31
0.0
  0
LINE
  5
2B86C
330
747D
100
AcDbEntity
  8
細線
 48
50.0
100
AcDbLine
 10
8211.181320547789
 20
7049.958730512869
 30
0.0
 11
8323.600000000007
 21
7162.377409965074
 31
0.0
  0
LINE
  5
2B86D
330
747D
100
AcDbEntity
  8
細線
 48
50.0
100
AcDbLine
 10
8166.280039942455
 20
7049.958730512869
 30
0.0
 11
8323.600000000006
 21
7207.27869057042
 31
0.0
  0
LINE
  5
2B86E
330
747D
100
AcDbEntity
  8
細線
 48
50.0
100
AcDbLine
 10
8300.983881758476
 20
7049.958730512871
 30
0.0
 11
8323.600000000011
 21
7072.574848754401
 31
0.0
  0
LINE
  5
2B86F
330
747D
100
AcDbEntity
  8
細線
 48
50.0
100
AcDbLine
 10
8256.082601153137
 20
7049.958730512869
 30
0.0
 11
8323.600000000011
 21
7117.476129359743
 31
0.0
  0
LINE
  5
2B870
330
747D
100
AcDbEntity
  8
細線
 48
50.0
100
AcDbLine
 10
8123.600000000006
 20
7231.785093597149
 30
0.0
 11
8141.773630420821
 21
7249.958724017966
 31
0.0
  0
LINE
  5
2B872
330
747D
100
AcDbEntity
  8
寸法
 48
50.0
100
AcDbLine
 10
7630.599999999998
 20
7976.225188606669
 30
0.0
 11
8330.64455482207
 21
7976.225188606669
 31
0.0
  0
LINE
  5
2B878
330
747D
100
AcDbEntity
  8
部品1
 48
50.0
100
AcDbLine
 10
13453.6
 20
6289.958730512892
 30
0.0
 11
13453.6
 21
7249.958730512874
 31
0.0
  0
LINE
  5
2B87D
330
747D
100
AcDbEntity
  8
細線
 48
50.0
100
AcDbLine
 10
10023.60000000001
 20
6468.463323306273
 30
0.0
 11
10125.09540720663
 21
6569.958730512896
 31
0.0
  0
LINE
  5
2B87E
330
747D
100
AcDbEntity
  8
細線
 48
50.0
100
AcDbLine
 10
10069.60180373843
 20
6289.958724017965
 30
0.0
 11
10223.6
 21
6443.956920279537
 31
0.0
  0
LINE
  5
2B87F
330
747D
100
AcDbEntity
  8
細線
 48
50.0
100
AcDbLine
 10
10024.70052313308
 20
6289.958724017963
 30
0.0
 11
10223.6
 21
6488.858200884886
 31
0.0
  0
LINE
  5
2B880
330
747D
100
AcDbEntity
  8
細線
 48
50.0
100
AcDbLine
 10
10023.60000000001
 20
6333.759481490239
 30
0.0
 11
10223.6
 21
6533.759481490225
 31
0.0
  0
LINE
  5
2B881
330
747D
100
AcDbEntity
  8
細線
 48
50.0
100
AcDbLine
 10
10023.60000000001
 20
6378.660762095582
 30
0.0
 11
10214.89796841733
 21
6569.958730512896
 31
0.0
  0
LINE
  5
2B882
330
747D
100
AcDbEntity
  8
細線
 48
50.0
100
AcDbLine
 10
10023.60000000001
 20
6423.562042700925
 30
0.0
 11
10169.99668781199
 21
6569.958730512896
 31
0.0
  0
LINE
  5
2B889
102
{ACAD_REACTORS
330
2CB46
102
}
330
747D
100
AcDbEntity
  8
部品1
 48
50.0
100
AcDbLine
 10
9073.6
 20
6569.958730512891
 30
0.0
 11
9073.600000000013
 21
6289.958724017963
 31
0.0
  0
LINE
  5
2B88B
330
747D
100
AcDbEntity
  8
細線
 48
50.0
100
AcDbLine
 10
9074.700523133085
 20
6289.958724017963
 30
0.0
 11
9082.294110167559
 21
6297.552311052437
 31
0.0
  0
LINE
  5
2B892
102
{ACAD_REACTORS
330
2CB46
102
}
330
747D
100
AcDbEntity
  8
部品1
 48
50.0
100
AcDbLine
 10
9273.6
 20
6569.958730512893
 30
0.0
 11
9273.600000000014
 21
6289.958724017966
 31
0.0
  0
LINE
  5
2B893
330
747D
100
AcDbEntity
  8
部品1
 48
50.0
100
AcDbLine
 10
10023.6
 20
6569.958730512896
 30
0.0
 11
10023.60000000001
 21
6289.958724017963
 31
0.0
  0
LINE
  5
2B894
330
747D
100
AcDbEntity
  8
細線
 48
50.0
100
AcDbLine
 10
10023.6
 20
6513.364603911611
 30
0.0
 11
10080.19412660129
 21
6569.958730512896
 31
0.0
  0
CIRCLE
  5
2B895
330
747D
100
AcDbEntity
  8
部品1
 48
50.0
100
AcDbCircle
 10
10480.60000000001
 20
6487.958730512876
 30
0.0
 40
35.0
  0
CIRCLE
  5
2B896
330
747D
100
AcDbEntity
  8
部品1
 48
50.0
100
AcDbCircle
 10
10480.60000000001
 20
6487.958730512876
 30
0.0
 40
35.0
  0
LINE
  5
2B897
330
747D
100
AcDbEntity
  8
センター
 48
2.0
100
AcDbLine
 10
10430.6
 20
6487.958730512876
 30
0.0
 11
10530.6
 21
6487.958730512876
 31
0.0
  0
LINE
  5
2B898
330
747D
100
AcDbEntity
  8
センター
 48
2.0
100
AcDbLine
 10
10430.6
 20
6487.958730512876
 30
0.0
 11
10530.6
 21
6487.958730512876
 31
0.0
  0
LINE
  5
2B899
330
747D
100
AcDbEntity
  8
細線
 48
50.0
100
AcDbLine
 10
10114.50308434377
 20
6289.958724017965
 30
0.0
 11
10223.60000000001
 21
6399.055639674198
 31
0.0
  0
LINE
  5
2B89A
330
747D
100
AcDbEntity
  8
細線
 48
50.0
100
AcDbLine
 10
10159.40436494912
 20
6289.958724017966
 30
0.0
 11
10223.60000000001
 21
6354.154359068854
 31
0.0
  0
LINE
  5
2B89B
330
747D
100
AcDbEntity
  8
部品1
 48
50.0
100
AcDbLine
 10
10223.6
 20
6569.958730512896
 30
0.0
 11
10223.60000000001
 21
6289.958724017966
 31
0.0
  0
LINE
  5
2B89C
330
747D
100
AcDbEntity
  8
細線
 48
50.0
100
AcDbLine
 10
10204.30564555447
 20
6289.958724017966
 30
0.0
 11
10223.60000000001
 21
6309.253078463509
 31
0.0
  0
LINE
  5
2B89D
330
747D
100
AcDbEntity
  8
センター
 48
2.0
100
AcDbLine
 10
10480.60000000001
 20
6537.958730512876
 30
0.0
 11
10480.60000000001
 21
6437.958730512876
 31
0.0
  0
LINE
  5
2B89E
330
747D
100
AcDbEntity
  8
センター
 48
2.0
100
AcDbLine
 10
10480.60000000001
 20
6537.958730512876
 30
0.0
 11
10480.60000000001
 21
6437.958730512876
 31
0.0
  0
LINE
  5
2B8AF
330
747D
100
AcDbEntity
  8
センター
 48
2.0
100
AcDbLine
 10
13280.60000000001
 20
6487.958730512876
 30
0.0
 11
13380.60000000001
 21
6487.958730512876
 31
0.0
  0
LINE
  5
2B8C8
330
747D
100
AcDbEntity
  8
センター
 48
2.0
100
AcDbLine
 10
13330.60000000001
 20
6537.958730512876
 30
0.0
 11
13330.60000000001
 21
6437.958730512876
 31
0.0
  0
CIRCLE
  5
2B8C9
330
747D
100
AcDbEntity
  8
部品1
 48
50.0
100
AcDbCircle
 10
13330.60000000001
 20
6487.958730512876
 30
0.0
 40
35.0
  0
DIMENSION
  5
2B8CC
330
747D
100
AcDbEntity
  8
寸法
 48
50.0
100
AcDbDimension
  2
*D36
 10
10480.6
 20
7976.225188606784
 30
0.0
 11
11905.6
 21
8076.236999630406
 31
0.0
 70
    32
 71
     5
 42
2850.0
  3
INABA_S40G
100
AcDbAlignedDimension
 13
13330.6
 23
7176.958730512874
 33
0.0
 14
10480.6
 24
7176.958730512874
 34
0.0
100
AcDbRotatedDimension
1001
ACAD
1000
DSTYLE
1002
{
1070
   341
1005
0
1002
}
  0
DIMENSION
  5
2B8CD
330
747D
100
AcDbEntity
  8
寸法
 48
50.0
100
AcDbDimension
  2
*D37
 10
11548.60000000001
 20
7732.567547183122
 30
0.0
 11
12023.6
 21
7832.567547183121
 31
0.0
 70
    32
 71
     5
 42
950.0
  3
INABA_S40G
100
AcDbAlignedDimension
 13
12498.60000000001
 23
6819.958730512873
 33
0.0
 14
11548.60000000001
 24
6819.958730512873
 34
0.0
100
AcDbRotatedDimension
1001
ACAD
1000
DSTYLE
1002
{
1070
   341
1005
0
1002
}
  0
LINE
  5
2B8CF
330
747D
100
AcDbEntity
  8
細線
 48
50.0
100
AcDbLine
 10
10023.60000000001
 20
7186.883812991801
 30
0.0
 11
10086.67491102616
 21
7249.958724017962
 31
0.0
  0
LINE
  5
2B8D0
330
747D
100
AcDbEntity
  8
細線
 48
50.0
100
AcDbLine
 10
10023.60000000001
 20
7097.081251781114
 30
0.0
 11
10176.47747223686
 21
7249.958724017962
 31
0.0
  0
LINE
  5
2B8D1
330
747D
100
AcDbEntity
  8
細線
 48
50.0
100
AcDbLine
 10
10023.60000000001
 20
7141.982532386458
 30
0.0
 11
10131.57619163151
 21
7249.958724017962
 31
0.0
  0
LINE
  5
2B8D2
330
747D
100
AcDbEntity
  8
細線
 48
50.0
100
AcDbLine
 10
10066.28003994246
 20
7049.958730512874
 30
0.0
 11
10223.60000000001
 21
7207.278690570418
 31
0.0
  0
LINE
  5
2B8D3
330
747D
100
AcDbEntity
  8
細線
 48
50.0
100
AcDbLine
 10
10023.60000000001
 20
7052.179971175771
 30
0.0
 11
10221.3787528422
 21
7249.958724017962
 31
0.0
  0
LINE
  5
2B8D4
330
747D
100
AcDbEntity
  8
寸法
 48
50.0
100
AcDbLine
 10
9780.555445177929
 20
7976.225188606784
 30
0.0
 11
10480.6
 21
7976.225188606784
 31
0.0
  0
DIMENSION
  5
2B8D6
330
747D
100
AcDbEntity
  8
寸法
 48
50.0
100
AcDbDimension
  2
*D38
 10
9648.600000000008
 20
7732.567547183122
 30
0.0
 11
10123.60000000001
 21
7832.567547183121
 31
0.0
 70
    32
 71
     5
 42
950.0
  3
INABA_S40G
100
AcDbAlignedDimension
 13
10598.60000000001
 23
6819.958730512873
 33
0.0
 14
9648.600000000008
 24
6819.958730512873
 34
0.0
100
AcDbRotatedDimension
1001
ACAD
1000
DSTYLE
1002
{
1070
   341
1005
0
1002
}
  0
LINE
  5
2B8E1
102
{ACAD_REACTORS
330
2CB41
102
}
330
747D
100
AcDbEntity
  8
部品1
 48
50.0
100
AcDbLine
 10
9073.600000000006
 20
7249.958724017962
 30
0.0
 11
9073.600000000014
 21
7049.958730512871
 31
0.0
  0
LINE
  5
2B8E6
330
747D
100
AcDbEntity
  8
部品1
 48
50.0
100
AcDbLine
 10
8798.600000000007
 20
6869.958730512873
 30
0.0
 11
8598.600000000008
 21
6869.958730512873
 31
0.0
  0
LINE
  5
2B8E7
330
747D
100
AcDbEntity
  8
センター
 48
2.0
100
AcDbLine
 10
8648.600000000007
 20
6769.958730512873
 30
0.0
 11
8748.600000000008
 21
6769.958730512873
 31
0.0
  0
LINE
  5
2B8E8
330
747D
100
AcDbEntity
  8
部品1
 48
50.0
100
AcDbLine
 10
8798.600000000007
 20
6669.958730512873
 30
0.0
 11
8598.600000000008
 21
6669.958730512873
 31
0.0
  0
LINE
  5
2B8E9
330
747D
100
AcDbEntity
  8
部品1
 48
50.0
100
AcDbLine
 10
8598.600000000008
 20
6669.958730512873
 30
0.0
 11
8598.600000000008
 21
6869.958730512873
 31
0.0
  0
LINE
  5
2B8EA
330
747D
100
AcDbEntity
  8
部品1
 48
50.0
100
AcDbLine
 10
8798.600000000007
 20
6669.958730512873
 30
0.0
 11
8798.600000000007
 21
6869.958730512873
 31
0.0
  0
LINE
  5
2B8EB
330
747D
100
AcDbEntity
  8
センター
 48
2.0
100
AcDbLine
 10
8698.600000000007
 20
6819.958730512873
 30
0.0
 11
8698.600000000007
 21
6719.958730512873
 31
0.0
  0
LINE
  5
2B8F4
330
747D
100
AcDbEntity
  8
寸法
 48
50.0
100
AcDbLine
 10
8698.600000000006
 20
7732.567547183005
 30
0.0
 11
8978.600000000005
 21
7732.567547183005
 31
0.0
  0
LINE
  5
2B8F6
330
747D
100
AcDbEntity
  8
部品1
 48
50.0
100
AcDbLine
 10
10023.60000000001
 20
7249.958724017962
 30
0.0
 11
10023.60000000001
 21
7049.958730512871
 31
0.0
  0
LINE
  5
2B8F7
102
{ACAD_REACTORS
330
2CB41
102
}
330
747D
100
AcDbEntity
  8
部品1
 48
50.0
100
AcDbLine
 10
9273.600000000007
 20
7249.958724017962
 30
0.0
 11
9273.600000000014
 21
7049.958730512871
 31
0.0
  0
LINE
  5
2B8F8
330
747D
100
AcDbEntity
  8
部品1
 48
50.0
100
AcDbLine
 10
9748.600000000008
 20
6869.958730512873
 30
0.0
 11
9548.600000000007
 21
6869.958730512873
 31
0.0
  0
LINE
  5
2B8F9
330
747D
100
AcDbEntity
  8
部品1
 48
50.0
100
AcDbLine
 10
9748.600000000008
 20
6669.958730512873
 30
0.0
 11
9548.600000000007
 21
6669.958730512873
 31
0.0
  0
LINE
  5
2B8FA
330
747D
100
AcDbEntity
  8
センター
 48
2.0
100
AcDbLine
 10
9598.600000000008
 20
6769.958730512873
 30
0.0
 11
9698.600000000007
 21
6769.958730512873
 31
0.0
  0
LINE
  5
2B8FB
330
747D
100
AcDbEntity
  8
部品1
 48
50.0
100
AcDbLine
 10
9548.600000000007
 20
6669.958730512873
 30
0.0
 11
9548.600000000007
 21
6869.958730512873
 31
0.0
  0
LINE
  5
2B8FC
330
747D
100
AcDbEntity
  8
センター
 48
2.0
100
AcDbLine
 10
9648.600000000008
 20
6819.958730512873
 30
0.0
 11
9648.600000000008
 21
6719.958730512873
 31
0.0
  0
LINE
  5
2B8FD
330
747D
100
AcDbEntity
  8
部品1
 48
50.0
100
AcDbLine
 10
9748.600000000008
 20
6669.958730512873
 30
0.0
 11
9748.600000000008
 21
6869.958730512873
 31
0.0
  0
LINE
  5
2B8FE
330
747D
100
AcDbEntity
  8
寸法
 48
50.0
100
AcDbLine
 10
9368.600000000006
 20
7732.56754718312
 30
0.0
 11
9648.600000000007
 21
7732.56754718312
 31
0.0
  0
LINE
  5
2B8FF
330
747D
100
AcDbEntity
  8
細線
 48
50.0
100
AcDbLine
 10
10023.60000000001
 20
7231.785093597149
 30
0.0
 11
10041.77363042082
 21
7249.958724017962
 31
0.0
  0
DIMENSION
  5
2B900
330
747D
100
AcDbEntity
  8
寸法
 48
50.0
100
AcDbDimension
  2
*D39
 10
10598.60000000001
 20
7732.567547183122
 30
0.0
 11
11073.60000000001
 21
7732.567547183122
 31
0.0
 70
   160
 71
     5
 42
950.0
  3
INABA_S40G
100
AcDbAlignedDimension
 13
11548.60000000001
 23
6819.958730512873
 33
0.0
 14
10598.60000000001
 24
6819.958730512873
 34
0.0
100
AcDbRotatedDimension
1001
ACAD
1000
DSTYLE
1002
{
1070
   341
1005
0
1002
}
  0
LINE
  5
2B901
330
747D
100
AcDbEntity
  8
部品1
 48
50.0
100
AcDbLine
 10
10223.60000000001
 20
7249.958724017962
 30
0.0
 11
10223.60000000001
 21
7049.958730512871
 31
0.0
  0
CIRCLE
  5
2B902
330
747D
100
AcDbEntity
  8
部品1
 48
50.0
100
AcDbCircle
 10
10480.6
 20
7126.958730512874
 30
0.0
 40
35.0
  0
CIRCLE
  5
2B903
330
747D
100
AcDbEntity
  8
部品1
 48
50.0
100
AcDbCircle
 10
10480.6
 20
7126.958730512874
 30
0.0
 40
35.0
  0
LINE
  5
2B904
330
747D
100
AcDbEntity
  8
センター
 48
2.0
100
AcDbLine
 10
10430.6
 20
7126.958730512874
 30
0.0
 11
10530.6
 21
7126.958730512874
 31
0.0
  0
LINE
  5
2B905
330
747D
100
AcDbEntity
  8
センター
 48
2.0
100
AcDbLine
 10
10430.6
 20
7126.958730512874
 30
0.0
 11
10530.6
 21
7126.958730512874
 31
0.0
  0
LINE
  5
2B906
330
747D
100
AcDbEntity
  8
細線
 48
50.0
100
AcDbLine
 10
10200.9838817585
 20
7049.958730512871
 30
0.0
 11
10223.60000000001
 21
7072.574848754388
 31
0.0
  0
LINE
  5
2B907
330
747D
100
AcDbEntity
  8
細線
 48
50.0
100
AcDbLine
 10
10111.18132054782
 20
7049.958730512869
 30
0.0
 11
10223.60000000001
 21
7162.377409965074
 31
0.0
  0
LINE
  5
2B908
330
747D
100
AcDbEntity
  8
細線
 48
50.0
100
AcDbLine
 10
10156.08260115314
 20
7049.958730512876
 30
0.0
 11
10223.60000000001
 21
7117.47612935974
 31
0.0
  0
LINE
  5
2B909
330
747D
100
AcDbEntity
  8
センター
 48
2.0
100
AcDbLine
 10
10480.6
 20
7176.958730512874
 30
0.0
 11
10480.6
 21
7076.958730512874
 31
0.0
  0
LINE
  5
2B90A
330
747D
100
AcDbEntity
  8
センター
 48
2.0
100
AcDbLine
 10
10480.6
 20
7176.958730512874
 30
0.0
 11
10480.6
 21
7076.958730512874
 31
0.0
  0
LINE
  5
2B90B
330
747D
100
AcDbEntity
  8
部品1
 48
50.0
100
AcDbLine
 10
10698.60000000001
 20
6869.958730512873
 30
0.0
 11
10498.60000000001
 21
6869.958730512873
 31
0.0
  0
LINE
  5
2B90C
330
747D
100
AcDbEntity
  8
センター
 48
2.0
100
AcDbLine
 10
10598.60000000001
 20
6819.958730512873
 30
0.0
 11
10598.60000000001
 21
6719.958730512873
 31
0.0
  0
LINE
  5
2B90D
330
747D
100
AcDbEntity
  8
部品1
 48
50.0
100
AcDbLine
 10
10698.60000000001
 20
6669.958730512873
 30
0.0
 11
10498.60000000001
 21
6669.958730512873
 31
0.0
  0
LINE
  5
2B90E
330
747D
100
AcDbEntity
  8
センター
 48
2.0
100
AcDbLine
 10
10548.60000000001
 20
6769.958730512873
 30
0.0
 11
10648.60000000001
 21
6769.958730512873
 31
0.0
  0
LINE
  5
2B90F
330
747D
100
AcDbEntity
  8
部品1
 48
50.0
100
AcDbLine
 10
10698.60000000001
 20
6669.958730512873
 30
0.0
 11
10698.60000000001
 21
6869.958730512873
 31
0.0
  0
LINE
  5
2B910
330
747D
100
AcDbEntity
  8
部品1
 48
50.0
100
AcDbLine
 10
10498.60000000001
 20
6669.958730512873
 30
0.0
 11
10498.60000000001
 21
6869.958730512873
 31
0.0
  0
LINE
  5
2B911
330
747D
100
AcDbEntity
  8
部品1
 48
50.0
100
AcDbLine
 10
11173.60000000001
 20
7249.958724017961
 30
0.0
 11
11173.60000000001
 21
7049.958730512874
 31
0.0
  0
LINE
  5
2B912
330
747D
100
AcDbEntity
  8
部品1
 48
50.0
100
AcDbLine
 10
10973.60000000001
 20
7249.958724017961
 30
0.0
 11
10973.60000000001
 21
7049.958730512871
 31
0.0
  0
LINE
  5
2B913
330
747D
100
AcDbEntity
  8
細線
 48
50.0
100
AcDbLine
 10
10973.60000000001
 20
7186.8838129918
 30
0.0
 11
11036.67491102616
 21
7249.958724017961
 31
0.0
  0
LINE
  5
2B914
330
747D
100
AcDbEntity
  8
細線
 48
50.0
100
AcDbLine
 10
10973.60000000001
 20
7052.179971175771
 30
0.0
 11
11171.3787528422
 21
7249.958724017961
 31
0.0
  0
LINE
  5
2B915
330
747D
100
AcDbEntity
  8
細線
 48
50.0
100
AcDbLine
 10
10973.60000000001
 20
7097.081251781116
 30
0.0
 11
11126.47747223686
 21
7249.958724017962
 31
0.0
  0
LINE
  5
2B916
330
747D
100
AcDbEntity
  8
細線
 48
50.0
100
AcDbLine
 10
10973.60000000001
 20
7141.982532386458
 30
0.0
 11
11081.57619163151
 21
7249.958724017961
 31
0.0
  0
LINE
  5
2B917
330
747D
100
AcDbEntity
  8
細線
 48
50.0
100
AcDbLine
 10
11061.18132054779
 20
7049.958730512876
 30
0.0
 11
11173.60000000001
 21
7162.377409965071
 31
0.0
  0
LINE
  5
2B918
330
747D
100
AcDbEntity
  8
細線
 48
50.0
100
AcDbLine
 10
11016.28003994246
 20
7049.958730512874
 30
0.0
 11
11173.60000000001
 21
7207.278690570416
 31
0.0
  0
LINE
  5
2B919
330
747D
100
AcDbEntity
  8
細線
 48
50.0
100
AcDbLine
 10
11106.08260115315
 20
7049.958730512876
 30
0.0
 11
11173.60000000001
 21
7117.476129359738
 31
0.0
  0
LINE
  5
2B91A
330
747D
100
AcDbEntity
  8
細線
 48
50.0
100
AcDbLine
 10
11150.98388175848
 20
7049.958730512876
 30
0.0
 11
11173.60000000001
 21
7072.574848754399
 31
0.0
  0
LINE
  5
2B91B
330
747D
100
AcDbEntity
  8
部品1
 48
50.0
100
AcDbLine
 10
11648.60000000001
 20
6869.958730512873
 30
0.0
 11
11448.60000000001
 21
6869.958730512873
 31
0.0
  0
LINE
  5
2B91C
330
747D
100
AcDbEntity
  8
センター
 48
2.0
100
AcDbLine
 10
11498.6
 20
6769.958730512873
 30
0.0
 11
11598.60000000001
 21
6769.958730512873
 31
0.0
  0
LINE
  5
2B91D
330
747D
100
AcDbEntity
  8
部品1
 48
50.0
100
AcDbLine
 10
11648.60000000001
 20
6669.958730512873
 30
0.0
 11
11448.60000000001
 21
6669.958730512873
 31
0.0
  0
LINE
  5
2B91E
330
747D
100
AcDbEntity
  8
部品1
 48
50.0
100
AcDbLine
 10
11448.60000000001
 20
6669.958730512873
 30
0.0
 11
11448.60000000001
 21
6869.958730512873
 31
0.0
  0
LINE
  5
2B91F
330
747D
100
AcDbEntity
  8
センター
 48
2.0
100
AcDbLine
 10
11548.60000000001
 20
6819.958730512873
 30
0.0
 11
11548.60000000001
 21
6719.958730512873
 31
0.0
  0
LINE
  5
2B920
330
747D
100
AcDbEntity
  8
部品1
 48
50.0
100
AcDbLine
 10
11648.60000000001
 20
6669.958730512873
 30
0.0
 11
11648.60000000001
 21
6869.958730512873
 31
0.0
  0
LINE
  5
2B921
330
747D
100
AcDbEntity
  8
細線
 48
50.0
100
AcDbLine
 10
10973.60000000001
 20
7231.785093597146
 30
0.0
 11
10991.77363042082
 21
7249.958724017962
 31
0.0
  0
LINE
  5
2B922
330
747D
100
AcDbEntity
  8
細線
 48
50.0
100
AcDbLine
 10
13356.28003344757
 20
6694.958724017959
 30
0.0
 11
13453.6
 21
6792.278690570396
 31
0.0
  0
LINE
  5
2B923
330
747D
100
AcDbEntity
  8
細線
 48
50.0
100
AcDbLine
 10
13333.6
 20
6717.179971175735
 30
0.0
 11
13453.6
 21
6837.179971175742
 31
0.0
  0
LINE
  5
2B924
330
747D
100
AcDbEntity
  8
細線
 48
50.0
100
AcDbLine
 10
13333.6
 20
6762.081251781077
 30
0.0
 11
13453.6
 21
6882.081251781085
 31
0.0
  0
LINE
  5
2B925
330
747D
100
AcDbEntity
  8
細線
 48
50.0
100
AcDbLine
 10
13333.6
 20
6806.982532386425
 30
0.0
 11
13421.57619163153
 21
6894.95872401796
 31
0.0
  0
LINE
  5
2B926
330
747D
100
AcDbEntity
  8
細線
 48
50.0
100
AcDbLine
 10
13333.6
 20
6851.883812991768
 30
0.0
 11
13376.67491102618
 21
6894.95872401796
 31
0.0
  0
LINE
  5
2B927
330
747D
100
AcDbEntity
  8
部品1
 48
50.0
100
AcDbLine
 10
13453.6
 20
6894.95872401796
 30
0.0
 11
13333.6
 21
6894.95872401796
 31
0.0
  0
LINE
  5
2B928
330
747D
100
AcDbEntity
  8
部品1
 48
50.0
100
AcDbLine
 10
13453.6
 20
6694.958724017959
 30
0.0
 11
13333.6
 21
6694.958724017959
 31
0.0
  0
LINE
  5
2B929
330
747D
100
AcDbEntity
  8
センター
 48
2.0
100
AcDbLine
 10
13280.6
 20
7126.958730512874
 30
0.0
 11
13380.6
 21
7126.958730512874
 31
0.0
  0
DIMENSION
  5
2B92A
330
747D
100
AcDbEntity
  8
寸法
 48
50.0
100
AcDbDimension
  2
*D40
 10
12498.60000000001
 20
7732.567547183122
 30
0.0
 11
12976.1
 21
7832.567547183121
 31
0.0
 70
    32
 71
     5
 42
954.9999999999927
  3
INABA_S40G
100
AcDbAlignedDimension
 13
13453.6
 23
7249.958730512874
 33
0.0
 14
12498.60000000001
 24
6819.958730512873
 34
0.0
100
AcDbRotatedDimension
1001
ACAD
1000
DSTYLE
1002
{
1070
   341
1005
0
1002
}
  0
DIMENSION
  5
2B92B
330
747D
100
AcDbEntity
  8
寸法
 48
50.0
100
AcDbDimension
  2
*D41
 10
13330.6
 20
7976.225188606784
 30
0.0
 11
13726.7066017178
 21
7976.225188606784
 31
0.0
 70
   160
 71
     5
 42
123.0
  3
INABA_S40G
100
AcDbAlignedDimension
 13
13453.6
 23
7249.958730512874
 33
0.0
 14
13330.6
 24
7176.958730512874
 34
0.0
100
AcDbRotatedDimension
1001
ACAD
1000
DSTYLE
1002
{
1070
   341
1005
0
1002
}
  0
LINE
  5
2B92D
330
747D
100
AcDbEntity
  8
部品1
 48
50.0
100
AcDbLine
 10
12598.60000000001
 20
6869.958730512873
 30
0.0
 11
12398.60000000001
 21
6869.958730512873
 31
0.0
  0
LINE
  5
2B92E
330
747D
100
AcDbEntity
  8
センター
 48
2.0
100
AcDbLine
 10
12448.6
 20
6769.958730512873
 30
0.0
 11
12548.6
 21
6769.958730512873
 31
0.0
  0
LINE
  5
2B92F
330
747D
100
AcDbEntity
  8
部品1
 48
50.0
100
AcDbLine
 10
12598.60000000001
 20
6669.958730512873
 30
0.0
 11
12398.60000000001
 21
6669.958730512873
 31
0.0
  0
LINE
  5
2B930
330
747D
100
AcDbEntity
  8
細線
 48
50.0
100
AcDbLine
 10
11923.6
 20
7186.8838129918
 30
0.0
 11
11986.67491102617
 21
7249.958724017961
 31
0.0
  0
LINE
  5
2B931
330
747D
100
AcDbEntity
  8
細線
 48
50.0
100
AcDbLine
 10
11923.60000000001
 20
7141.982532386458
 30
0.0
 11
12031.57619163151
 21
7249.958724017961
 31
0.0
  0
LINE
  5
2B932
330
747D
100
AcDbEntity
  8
細線
 48
50.0
100
AcDbLine
 10
11923.60000000001
 20
7097.081251781116
 30
0.0
 11
12076.47747223686
 21
7249.958724017962
 31
0.0
  0
LINE
  5
2B933
330
747D
100
AcDbEntity
  8
細線
 48
50.0
100
AcDbLine
 10
11923.60000000001
 20
7052.179971175771
 30
0.0
 11
12121.3787528422
 21
7249.958724017961
 31
0.0
  0
LINE
  5
2B934
330
747D
100
AcDbEntity
  8
部品1
 48
50.0
100
AcDbLine
 10
11923.6
 20
7249.958724017961
 30
0.0
 11
11923.60000000001
 21
7049.958730512871
 31
0.0
  0
LINE
  5
2B935
330
747D
100
AcDbEntity
  8
部品1
 48
50.0
100
AcDbLine
 10
12123.6
 20
7249.958724017961
 30
0.0
 11
12123.60000000001
 21
7049.958730512874
 31
0.0
  0
LINE
  5
2B936
330
747D
100
AcDbEntity
  8
細線
 48
50.0
100
AcDbLine
 10
12100.98388175848
 20
7049.958730512876
 30
0.0
 11
12123.60000000001
 21
7072.574848754399
 31
0.0
  0
LINE
  5
2B937
330
747D
100
AcDbEntity
  8
細線
 48
50.0
100
AcDbLine
 10
12056.08260115315
 20
7049.958730512876
 30
0.0
 11
12123.60000000001
 21
7117.476129359738
 31
0.0
  0
LINE
  5
2B938
330
747D
100
AcDbEntity
  8
細線
 48
50.0
100
AcDbLine
 10
12011.18132054779
 20
7049.958730512876
 30
0.0
 11
12123.60000000001
 21
7162.377409965071
 31
0.0
  0
LINE
  5
2B939
330
747D
100
AcDbEntity
  8
細線
 48
50.0
100
AcDbLine
 10
11966.28003994246
 20
7049.958730512874
 30
0.0
 11
12123.6
 21
7207.278690570416
 31
0.0
  0
LINE
  5
2B93A
330
747D
100
AcDbEntity
  8
センター
 48
2.0
100
AcDbLine
 10
12498.60000000001
 20
6819.958730512873
 30
0.0
 11
12498.60000000001
 21
6719.958730512873
 31
0.0
  0
LINE
  5
2B93B
330
747D
100
AcDbEntity
  8
部品1
 48
50.0
100
AcDbLine
 10
12398.60000000001
 20
6669.958730512873
 30
0.0
 11
12398.60000000001
 21
6869.958730512873
 31
0.0
  0
LINE
  5
2B93C
330
747D
100
AcDbEntity
  8
細線
 48
50.0
100
AcDbLine
 10
11923.6
 20
7231.785093597146
 30
0.0
 11
11941.77363042082
 21
7249.958724017962
 31
0.0
  0
LINE
  5
2B93D
330
747D
100
AcDbEntity
  8
細線
 48
50.0
100
AcDbLine
 10
12873.6
 20
7186.8838129918
 30
0.0
 11
12936.67491102617
 21
7249.958724017961
 31
0.0
  0
LINE
  5
2B93E
330
747D
100
AcDbEntity
  8
部品1
 48
50.0
100
AcDbLine
 10
13073.6
 20
7249.958724017961
 30
0.0
 11
13073.60000000001
 21
7049.958730512874
 31
0.0
  0
LINE
  5
2B93F
330
747D
100
AcDbEntity
  8
部品1
 48
50.0
100
AcDbLine
 10
12873.6
 20
7249.958724017961
 30
0.0
 11
12873.60000000002
 21
7049.958730512871
 31
0.0
  0
LINE
  5
2B940
330
747D
100
AcDbEntity
  8
細線
 48
50.0
100
AcDbLine
 10
12873.60000000002
 20
7052.179971175771
 30
0.0
 11
13071.3787528422
 21
7249.958724017961
 31
0.0
  0
LINE
  5
2B941
330
747D
100
AcDbEntity
  8
細線
 48
50.0
100
AcDbLine
 10
12873.60000000001
 20
7097.081251781116
 30
0.0
 11
13026.47747223686
 21
7249.958724017962
 31
0.0
  0
LINE
  5
2B942
330
747D
100
AcDbEntity
  8
細線
 48
50.0
100
AcDbLine
 10
12873.60000000001
 20
7141.982532386458
 30
0.0
 11
12981.57619163151
 21
7249.958724017961
 31
0.0
  0
LINE
  5
2B943
330
747D
100
AcDbEntity
  8
細線
 48
50.0
100
AcDbLine
 10
12916.28003994246
 20
7049.958730512874
 30
0.0
 11
13073.6
 21
7207.278690570416
 31
0.0
  0
LINE
  5
2B944
330
747D
100
AcDbEntity
  8
部品1
 48
50.0
100
AcDbLine
 10
12598.60000000001
 20
6669.958730512873
 30
0.0
 11
12598.60000000001
 21
6869.958730512873
 31
0.0
  0
LINE
  5
2B945
330
747D
100
AcDbEntity
  8
細線
 48
50.0
100
AcDbLine
 10
12961.18132054779
 20
7049.958730512876
 30
0.0
 11
13073.60000000001
 21
7162.377409965071
 31
0.0
  0
LINE
  5
2B946
330
747D
100
AcDbEntity
  8
細線
 48
50.0
100
AcDbLine
 10
13006.08260115315
 20
7049.958730512876
 30
0.0
 11
13073.60000000001
 21
7117.476129359738
 31
0.0
  0
LINE
  5
2B947
330
747D
100
AcDbEntity
  8
細線
 48
50.0
100
AcDbLine
 10
13050.98388175848
 20
7049.958730512876
 30
0.0
 11
13073.60000000001
 21
7072.574848754399
 31
0.0
  0
CIRCLE
  5
2B948
330
747D
100
AcDbEntity
  8
部品1
 48
50.0
100
AcDbCircle
 10
13330.6
 20
7126.958730512874
 30
0.0
 40
35.0
  0
LINE
  5
2B949
330
747D
100
AcDbEntity
  8
センター
 48
2.0
100
AcDbLine
 10
13330.6
 20
7176.958730512874
 30
0.0
 11
13330.6
 21
7076.958730512874
 31
0.0
  0
LINE
  5
2B94A
330
747D
100
AcDbEntity
  8
細線
 48
50.0
100
AcDbLine
 10
12873.6
 20
7231.785093597146
 30
0.0
 11
12891.77363042082
 21
7249.958724017962
 31
0.0
  0
LINE
  5
2B94C
330
747D
100
AcDbEntity
  8
細線
 48
50.0
100
AcDbLine
 10
13446.08259465825
 20
6694.958724017957
 30
0.0
 11
13453.60000000001
 21
6702.476129359709
 31
0.0
  0
LINE
  5
2B94D
330
747D
100
AcDbEntity
  8
細線
 48
50.0
100
AcDbLine
 10
13401.18131405291
 20
6694.958724017959
 30
0.0
 11
13453.60000000001
 21
6747.377409965054
 31
0.0
  0
LINE
  5
2BEAA
330
747D
100
AcDbEntity
  8
想像線
 48
10.0
100
AcDbLine
 10
13498.6
 20
6234.958730512897
 30
0.0
 11
2948.599999999995
 21
6234.958730512876
 31
0.0
  0
LINE
  5
2BEAB
330
747D
100
AcDbEntity
  8
想像線
 48
10.0
100
AcDbLine
 10
13498.6
 20
7324.958730512872
 30
0.0
 11
2948.600000000002
 21
7324.958730512894
 31
0.0
  0
LEADER
  5
2BEAC
330
747D
100
AcDbEntity
  8
寸法
 48
50.0
100
AcDbLeader
  3
INABA_S50G
 73
     0
 74
     0
 75
     1
 40
120.0
 41
720.0000000000001
 76
     3
 10
13455.05985718447
 20
6780.689500572666
 30
0.0
 10
13611.83343157075
 20
6519.675587004833
 30
0.0
 10
13736.83343157075
 20
6519.675587004833
 30
0.0
340
2BEAD
1001
ACAD
1000
DSTYLE
1002
{
1070
   341
1005
0
1070
    40
1040
1.0
1070
   343
1005
0
1070
   344
1005
0
1002
}
  0
MTEXT
  5
2BEAD
102
{ACAD_REACTORS
330
2BEAC
102
}
330
747D
100
AcDbEntity
  8
部品1
 62
     7
 48
50.0
100
AcDbMText
 10
14481.83343157075
 20
6604.675587004834
 30
0.0
 40
120.0
 41
0.0
 71
     6
 72
     1
  1
\A1;床下換気口
  7
STYLE1
 73
     1
 44
1.0
1001
ACAD
1000
MTEXTBEGIN
1070
    73
1070
     1
1070
    44
1040
1.0
1070
    74
1070
     0
1000
MTEXTEND
  0
TEXT
  5
2BEAE
330
747D
100
AcDbEntity
  8
部品1
 48
50.0
100
AcDbText
 10
13802.43013846117
 20
5839.131228225735
 30
0.0
 40
80.0
  1
(a=45,b=55,c=75)
  7
STYLE1
100
AcDbText
  0
TEXT
  5
2BEAF
330
747D
100
AcDbEntity
  8
部品1
 48
50.0
100
AcDbText
 10
13643.85112970687
 20
5945.976449094489
 30
0.0
 40
80.0
  1
※a,b,cは屋根の出幅です。
  7
STYLE1
100
AcDbText
  0
MTEXT
  5
2BEB0
102
{ACAD_REACTORS
330
2BEB1
102
}
330
747D
100
AcDbEntity
  8
部品1
 62
     7
 48
50.0
100
AcDbMText
 10
14441.63832569548
 20
6125.287136027564
 30
0.0
 40
120.0
 41
0.0
 71
     6
 72
     1
  1
\A1;屋根の外寸
  7
STYLE1
 73
     1
 44
1.0
1001
ACAD
1000
MTEXTBEGIN
1070
    73
1070
     1
1070
    44
1040
1.0
1070
    74
1070
     0
1000
MTEXTEND
  0
LEADER
  5
2BEB1
330
747D
100
AcDbEntity
  8
寸法
 48
50.0
100
AcDbLeader
  3
INABA_S50G
 73
     0
 74
     0
 75
     1
 40
120.0
 41
672.0
 76
     3
 10
13503.69831350344
 20
6299.17647949114
 30
0.0
 10
13619.63832569548
 20
6040.287136027564
 30
0.0
 10
13744.63832569548
 20
6040.287136027564
 30
0.0
340
2BEB0
1001
ACAD
1000
DSTYLE
1002
{
1070
   341
1005
0
1070
    40
1040
1.0
1070
   343
1005
0
1070
   344
1005
0
1002
}
  0
MTEXT
  5
2BEB2
102
{ACAD_REACTORS
330
2BEB3
102
}
330
747D
100
AcDbEntity
  8
部品1
 62
     7
 48
50.0
100
AcDbMText
 10
14648.99523070988
 20
7565.571474755367
 30
0.0
 40
120.0
 41
0.0
 71
     6
 72
     1
  1
アンカーボルト
  7
STYLE1
 73
     1
 44
1.0
1001
ACAD
1000
MTEXTBEGIN
1070
    73
1070
     1
1070
    44
1040
1.0
1070
    74
1070
     0
1000
MTEXTEND
  0
LEADER
  5
2BEB3
330
747D
100
AcDbEntity
  8
寸法
 48
50.0
100
AcDbLeader
  3
INABA_S50G
 73
     0
 74
     0
 75
     1
 40
120.0
 41
994.3492424049171
 76
     3
 10
13330.680085757
 20
7127.166574871569
 30
0.0
 10
13504.64598830496
 20
7480.571474755366
 30
0.0
 10
13629.64598830496
 20
7480.571474755366
 30
0.0
340
2BEB2
1001
ACAD
1000
DSTYLE
1002
{
1070
   341
1005
0
1070
    40
1040
1.0
1070
   343
1005
0
1070
   344
1005
0
1002
}
  0
MTEXT
  5
2BEB4
102
{ACAD_REACTORS
330
2BEB5
102
}
330
747D
100
AcDbEntity
  8
部品1
 62
     7
 48
50.0
100
AcDbMText
 10
13013.8286970157
 20
6697.746127548256
 30
0.0
 40
120.0
 41
0.0
 71
     6
 72
     1
  1
CB
  7
STYLE1
 73
     1
 44
1.0
1001
ACAD
1000
MTEXTBEGIN
1070
    73
1070
     1
1070
    44
1040
1.0
1070
    74
1070
     0
1000
MTEXTEND
  0
LEADER
  5
2BEB5
330
747D
100
AcDbEntity
  8
寸法
 48
50.0
100
AcDbLeader
  3
INABA_S50G
 73
     0
 74
     0
 75
     1
 40
120.0
 41
149.591883092037
 76
     3
 10
12586.95401106102
 20
6835.464441103083
 30
0.0
 10
12714.23681392366
 20
6612.746127548257
 30
0.0
 10
12839.23681392366
 20
6612.746127548257
 30
0.0
340
2BEB4
1001
ACAD
1000
DSTYLE
1002
{
1070
   341
1005
0
1070
    40
1040
1.0
1070
   343
1005
0
1070
   344
1005
0
1002
}
  0
DIMENSION
  5
2BEB6
330
747D
100
AcDbEntity
  8
寸法
 48
50.0
100
AcDbDimension
  2
*D42
 10
13498.6
 20
8208.179052571777
 30
0.0
 11
13769.77462120245
 21
8208.179052571777
 31
0.0
 70
   160
  1
a
 71
     5
 42
45.0
  3
INABA_S40G
100
AcDbAlignedDimension
 13
13453.6
 23
7249.958730512857
 33
0.0
 14
13498.6
 24
7976.225188606768
 34
0.0
100
AcDbRotatedDimension
1001
ACAD
1000
DSTYLE
1002
{
1070
   341
1005
0
1002
}
  0
DIMENSION
  5
2BEB7
330
747D
100
AcDbEntity
  8
寸法
 48
50.0
100
AcDbDimension
  2
*D43
 10
2993.600000000002
 20
8208.179052571793
 30
0.0
 11
2677.425378797543
 21
8208.179052571793
 31
0.0
 70
   160
  1
a
 71
     5
 42
45.0
  3
INABA_S40G
100
AcDbAlignedDimension
 13
2948.600000000002
 23
7976.225188606784
 33
0.0
 14
2993.600000000002
 24
7249.958730512874
 34
0.0
100
AcDbRotatedDimension
1001
ACAD
1000
DSTYLE
1002
{
1070
   341
1005
0
1002
}
  0
LINE
  5
2BEB9
330
747D
100
AcDbEntity
  8
想像線
 48
10.0
100
AcDbLine
 10
2948.599999999995
 20
6234.958730512886
 30
0.0
 11
2948.600000000002
 21
7324.95873051288
 31
0.0
  0
LINE
  5
2BEBA
330
747D
100
AcDbEntity
  8
想像線
 48
10.0
100
AcDbLine
 10
13498.6
 20
6234.958730512873
 30
0.0
 11
13498.6
 21
7324.95873051286
 31
0.0
  0
DIMENSION
  5
2BEBC
330
747D
100
AcDbEntity
  8
寸法
 48
50.0
100
AcDbDimension
  2
*D44
 10
2118.721909610671
 20
7249.958730512874
 30
0.0
 11
2018.72190961067
 21
7287.458730512877
 31
0.0
 70
    32
  1
c
 71
     5
 42
75.00000000000636
  3
INABA_S40G
100
AcDbAlignedDimension
 13
2370.665006330062
 23
7324.95873051288
 33
0.0
 14
2993.600000000002
 24
7249.958730512874
 34
0.0
 50
90.0
100
AcDbRotatedDimension
1001
ACAD
1000
DSTYLE
1002
{
1070
   341
1005
0
1002
}
  0
DIMENSION
  5
2BEBD
330
747D
100
AcDbEntity
  8
寸法
 48
50.0
100
AcDbDimension
  2
*D45
 10
2118.721909610671
 20
6234.958730512899
 30
0.0
 11
2018.72190961067
 21
6262.458730512887
 31
0.0
 70
    32
  1
b
 71
     5
 42
54.99999999997453
  3
INABA_S40G
100
AcDbAlignedDimension
 13
2993.600000000002
 23
6289.958730512873
 33
0.0
 14
2370.66500633007
 24
6234.958730512899
 34
0.0
 50
90.0
100
AcDbRotatedDimension
1001
ACAD
1000
DSTYLE
1002
{
1070
   341
1005
0
1002
}
  0
DIMENSION
  5
2BEBE
330
747D
100
AcDbEntity
  8
寸法
 48
50.0
100
AcDbDimension
  2
*D46
 10
12798.95750108245
 20
7049.958730512845
 30
0.0
 11
12798.95750108245
 21
7499.529596654582
 31
0.0
 70
   160
 71
     5
 42
200.0
  3
INABA_S40G
100
AcDbAlignedDimension
 13
12998.85468201164
 23
7249.958730512846
 33
0.0
 14
12998.85468201164
 24
7049.958730512845
 34
0.0
 50
90.0
100
AcDbRotatedDimension
1001
ACAD
1000
DSTYLE
1002
{
1070
   341
1005
0
1002
}
  0
DIMENSION
  5
2BEBF
330
747D
100
AcDbEntity
  8
寸法
 48
50.0
100
AcDbDimension
  2
*D47
 10
12798.95750108245
 20
6289.958730512866
 30
0.0
 11
12798.95750108245
 21
6040.387864371135
 31
0.0
 70
   160
 71
     5
 42
280.00000000003
  3
INABA_S40G
100
AcDbAlignedDimension
 13
13073.6
 23
6569.958730512896
 33
0.0
 14
13073.6
 24
6289.958730512866
 34
0.0
 50
90.0
100
AcDbRotatedDimension
1001
ACAD
1000
DSTYLE
1002
{
1070
   341
1005
0
1002
}
  0
DIMENSION
  5
2BEC0
330
747D
100
AcDbEntity
  8
寸法
 48
50.0
100
AcDbDimension
  2
*D48
 10
13333.6
 20
6969.646572542244
 30
0.0
 11
13723.65905511811
 21
6969.646572542244
 31
0.0
 70
   160
 71
     5
 42
120.0
  3
INABA_S40G
100
AcDbAlignedDimension
 13
13453.6
 23
6986.639836581076
 33
0.0
 14
13333.6
 24
6969.646572542244
 34
0.0
100
AcDbRotatedDimension
1001
ACAD
1000
DSTYLE
1002
{
1070
   341
1005
0
1002
}
  0
MTEXT
  5
2BEC1
330
747D
100
AcDbEntity
  8
寸法
 62
     7
 48
50.0
100
AcDbMText
 10
8858.088810926339
 20
7829.396018789856
 30
0.0
 40
120.0
 41
0.0
 71
     5
 72
     1
  1
950
  7
STYLE1
 73
     1
 44
1.0
1001
ACAD
1000
MTEXTBEGIN
1070
    73
1070
     1
1070
    44
1040
1.0
1070
    74
1070
     0
1000
MTEXTEND
  0
MTEXT
  5
2BEC2
330
747D
100
AcDbEntity
  8
寸法
 62
     7
 48
50.0
100
AcDbMText
 10
8023.89816245974
 20
8063.702577736142
 30
0.0
 40
120.0
 41
0.0
 71
     5
 72
     1
  1
2850
  7
STYLE1
 73
     1
 44
1.0
1001
ACAD
1000
MTEXTBEGIN
1070
    73
1070
     1
1070
    44
1040
1.0
1070
    74
1070
     0
1000
MTEXTEND
  0
MTEXT
  5
2BEC3
330
747D
100
AcDbEntity
  8
寸法
 62
     7
 48
50.0
100
AcDbMText
 10
9495.386216567458
 20
7829.396018789856
 30
0.0
 40
120.0
 41
0.0
 71
     5
 72
     1
  1
950
  7
STYLE1
 73
     1
 44
1.0
1001
ACAD
1000
MTEXTBEGIN
1070
    73
1070
     1
1070
    44
1040
1.0
1070
    74
1070
     0
1000
MTEXTEND
  0
MTEXT
  5
2BEC4
330
747D
100
AcDbEntity
  8
寸法
 62
     7
 48
50.0
100
AcDbMText
 10
10092.03089184337
 20
8063.702577736142
 30
0.0
 40
120.0
 41
0.0
 71
     5
 72
     1
  1
2850
  7
STYLE1
 73
     1
 44
1.0
1001
ACAD
1000
MTEXTBEGIN
1070
    73
1070
     1
1070
    44
1040
1.0
1070
    74
1070
     0
1000
MTEXTEND
  0
TEXT
  5
2C728
330
747D
100
AcDbEntity
  8
文字
 62
     7
 48
50.0
100
AcDbText
 10
7553.684815958198
 20
4712.94279608873
 30
0.0
 40
200.0
  1
〈参 考 図〉
  7
STYLE2
100
AcDbText
  0
TEXT
  5
2C73F
330
747D
100
AcDbEntity
  8
文字
 62
     7
 48
50.0
100
AcDbText
 10
14251.2
 20
838.2527270729188
 30
0.0
 40
100.0
  1
～一般型・多雪地型・豪雪地型～
  7
STYLE2
100
AcDbText
  0
LINE
  5
2C75F
102
{ACAD_REACTORS
330
2CB46
102
}
330
747D
100
AcDbEntity
  8
部品1
 48
50.0
100
AcDbLine
 10
13333.6
 20
6569.958730512908
 30
0.0
 11
3113.6
 21
6569.95873051287
 31
0.0
  0
LINE
  5
2C761
330
747D
100
AcDbEntity
  8
細線
 48
50.0
100
AcDbLine
 10
4504.305645554468
 20
6289.958724017973
 30
0.0
 11
4523.600000000013
 21
6309.253078463516
 31
0.0
  0
LINE
  5
2C762
330
747D
100
AcDbEntity
  8
部品1
 48
50.0
100
AcDbLine
 10
4523.599999999998
 20
6569.958730512872
 30
0.0
 11
4523.600000000013
 21
6289.958724017972
 31
0.0
  0
LINE
  5
2C763
330
747D
100
AcDbEntity
  8
細線
 48
50.0
100
AcDbLine
 10
4323.600000000007
 20
6423.562042700931
 30
0.0
 11
4469.996687811949
 21
6569.958730512873
 31
0.0
  0
LINE
  5
2C764
330
747D
100
AcDbEntity
  8
細線
 48
50.0
100
AcDbLine
 10
4323.600000000009
 20
6468.463323306273
 30
0.0
 11
4425.095407206608
 21
6569.958730512872
 31
0.0
  0
LINE
  5
2C765
330
747D
100
AcDbEntity
  8
細線
 48
50.0
100
AcDbLine
 10
4323.600000000006
 20
6513.364603911611
 30
0.0
 11
4380.194126601269
 21
6569.958730512872
 31
0.0
  0
LINE
  5
2C766
330
747D
100
AcDbEntity
  8
部品1
 48
50.0
100
AcDbLine
 10
4323.599999999998
 20
6569.958730512872
 30
0.0
 11
4323.600000000013
 21
6289.958724017968
 31
0.0
  0
LINE
  5
2C767
330
747D
100
AcDbEntity
  8
細線
 48
50.0
100
AcDbLine
 10
4323.600000000007
 20
6378.660762095585
 30
0.0
 11
4514.897968417292
 21
6569.958730512872
 31
0.0
  0
LINE
  5
2C768
330
747D
100
AcDbEntity
  8
細線
 48
50.0
100
AcDbLine
 10
4323.600000000011
 20
6333.759481490244
 30
0.0
 11
4523.600000000004
 21
6533.759481490235
 31
0.0
  0
LINE
  5
2C769
330
747D
100
AcDbEntity
  8
細線
 48
50.0
100
AcDbLine
 10
4324.700523133084
 20
6289.95872401797
 30
0.0
 11
4523.600000000002
 21
6488.858200884888
 31
0.0
  0
LINE
  5
2C76A
330
747D
100
AcDbEntity
  8
細線
 48
50.0
100
AcDbLine
 10
4369.601803738428
 20
6289.95872401797
 30
0.0
 11
4523.600000000004
 21
6443.956920279545
 31
0.0
  0
LINE
  5
2C76B
330
747D
100
AcDbEntity
  8
細線
 48
50.0
100
AcDbLine
 10
4459.404364949121
 20
6289.95872401797
 30
0.0
 11
4523.600000000011
 21
6354.154359068858
 31
0.0
  0
LINE
  5
2C76C
330
747D
100
AcDbEntity
  8
細線
 48
50.0
100
AcDbLine
 10
4414.503084343777
 20
6289.95872401797
 30
0.0
 11
4523.600000000008
 21
6399.055639674203
 31
0.0
  0
LINE
  5
2C76D
330
747D
100
AcDbEntity
  8
細線
 48
50.0
100
AcDbLine
 10
5454.305645554469
 20
6289.958724017973
 30
0.0
 11
5473.600000000013
 21
6309.253078463516
 31
0.0
  0
LINE
  5
2C76E
330
747D
100
AcDbEntity
  8
部品1
 48
50.0
100
AcDbLine
 10
5473.599999999999
 20
6569.958730512872
 30
0.0
 11
5473.600000000013
 21
6289.958724017972
 31
0.0
  0
LINE
  5
2C76F
330
747D
100
AcDbEntity
  8
細線
 48
50.0
100
AcDbLine
 10
5273.600000000008
 20
6423.562042700931
 30
0.0
 11
5419.996687811949
 21
6569.958730512873
 31
0.0
  0
LINE
  5
2C770
330
747D
100
AcDbEntity
  8
細線
 48
50.0
100
AcDbLine
 10
5273.600000000009
 20
6468.463323306273
 30
0.0
 11
5375.095407206608
 21
6569.958730512872
 31
0.0
  0
LINE
  5
2C771
330
747D
100
AcDbEntity
  8
細線
 48
50.0
100
AcDbLine
 10
5273.600000000006
 20
6513.364603911611
 30
0.0
 11
5330.194126601269
 21
6569.958730512872
 31
0.0
  0
LINE
  5
2C772
330
747D
100
AcDbEntity
  8
部品1
 48
50.0
100
AcDbLine
 10
5273.599999999999
 20
6569.958730512872
 30
0.0
 11
5273.600000000013
 21
6289.958724017968
 31
0.0
  0
LINE
  5
2C773
330
747D
100
AcDbEntity
  8
細線
 48
50.0
100
AcDbLine
 10
5273.600000000008
 20
6378.660762095585
 30
0.0
 11
5464.897968417292
 21
6569.958730512872
 31
0.0
  0
LINE
  5
2C774
330
747D
100
AcDbEntity
  8
細線
 48
50.0
100
AcDbLine
 10
5273.600000000011
 20
6333.759481490244
 30
0.0
 11
5473.600000000004
 21
6533.759481490235
 31
0.0
  0
LINE
  5
2C775
330
747D
100
AcDbEntity
  8
細線
 48
50.0
100
AcDbLine
 10
5274.700523133084
 20
6289.95872401797
 30
0.0
 11
5473.600000000002
 21
6488.858200884888
 31
0.0
  0
LINE
  5
2C776
330
747D
100
AcDbEntity
  8
細線
 48
50.0
100
AcDbLine
 10
5319.601803738429
 20
6289.95872401797
 30
0.0
 11
5473.600000000004
 21
6443.956920279545
 31
0.0
  0
LINE
  5
2C777
330
747D
100
AcDbEntity
  8
細線
 48
50.0
100
AcDbLine
 10
5409.404364949121
 20
6289.95872401797
 30
0.0
 11
5473.600000000011
 21
6354.154359068858
 31
0.0
  0
LINE
  5
2C778
330
747D
100
AcDbEntity
  8
細線
 48
50.0
100
AcDbLine
 10
5364.503084343777
 20
6289.95872401797
 30
0.0
 11
5473.600000000008
 21
6399.055639674203
 31
0.0
  0
LINE
  5
2C779
330
747D
100
AcDbEntity
  8
細線
 48
50.0
100
AcDbLine
 10
6404.305645554469
 20
6289.958724017973
 30
0.0
 11
6423.600000000013
 21
6309.253078463516
 31
0.0
  0
LINE
  5
2C77A
330
747D
100
AcDbEntity
  8
部品1
 48
50.0
100
AcDbLine
 10
6423.599999999999
 20
6569.958730512872
 30
0.0
 11
6423.600000000013
 21
6289.958724017972
 31
0.0
  0
LINE
  5
2C77B
330
747D
100
AcDbEntity
  8
細線
 48
50.0
100
AcDbLine
 10
6223.600000000008
 20
6423.562042700931
 30
0.0
 11
6369.99668781195
 21
6569.958730512873
 31
0.0
  0
LINE
  5
2C77C
330
747D
100
AcDbEntity
  8
細線
 48
50.0
100
AcDbLine
 10
6223.60000000001
 20
6468.463323306273
 30
0.0
 11
6325.095407206609
 21
6569.958730512872
 31
0.0
  0
LINE
  5
2C77D
330
747D
100
AcDbEntity
  8
細線
 48
50.0
100
AcDbLine
 10
6223.600000000006
 20
6513.364603911611
 30
0.0
 11
6280.194126601269
 21
6569.958730512872
 31
0.0
  0
LINE
  5
2C77E
330
747D
100
AcDbEntity
  8
部品1
 48
50.0
100
AcDbLine
 10
6223.599999999999
 20
6569.958730512872
 30
0.0
 11
6223.600000000013
 21
6289.958724017968
 31
0.0
  0
LINE
  5
2C77F
330
747D
100
AcDbEntity
  8
細線
 48
50.0
100
AcDbLine
 10
6223.600000000008
 20
6378.660762095585
 30
0.0
 11
6414.897968417291
 21
6569.958730512872
 31
0.0
  0
LINE
  5
2C780
330
747D
100
AcDbEntity
  8
細線
 48
50.0
100
AcDbLine
 10
6223.600000000011
 20
6333.759481490244
 30
0.0
 11
6423.600000000004
 21
6533.759481490235
 31
0.0
  0
LINE
  5
2C781
330
747D
100
AcDbEntity
  8
細線
 48
50.0
100
AcDbLine
 10
6224.700523133083
 20
6289.95872401797
 30
0.0
 11
6423.600000000002
 21
6488.858200884888
 31
0.0
  0
LINE
  5
2C782
330
747D
100
AcDbEntity
  8
細線
 48
50.0
100
AcDbLine
 10
6269.601803738429
 20
6289.95872401797
 30
0.0
 11
6423.600000000004
 21
6443.956920279545
 31
0.0
  0
LINE
  5
2C783
330
747D
100
AcDbEntity
  8
細線
 48
50.0
100
AcDbLine
 10
6359.404364949121
 20
6289.95872401797
 30
0.0
 11
6423.600000000011
 21
6354.154359068858
 31
0.0
  0
LINE
  5
2C784
330
747D
100
AcDbEntity
  8
細線
 48
50.0
100
AcDbLine
 10
6314.503084343776
 20
6289.95872401797
 30
0.0
 11
6423.600000000007
 21
6399.055639674203
 31
0.0
  0
LINE
  5
2C785
330
747D
100
AcDbEntity
  8
細線
 48
50.0
100
AcDbLine
 10
7354.305645554468
 20
6289.958724017973
 30
0.0
 11
7373.600000000013
 21
6309.253078463516
 31
0.0
  0
LINE
  5
2C786
330
747D
100
AcDbEntity
  8
部品1
 48
50.0
100
AcDbLine
 10
7373.599999999999
 20
6569.958730512872
 30
0.0
 11
7373.600000000013
 21
6289.958724017972
 31
0.0
  0
LINE
  5
2C787
330
747D
100
AcDbEntity
  8
細線
 48
50.0
100
AcDbLine
 10
7173.600000000007
 20
6423.562042700931
 30
0.0
 11
7319.99668781195
 21
6569.958730512873
 31
0.0
  0
LINE
  5
2C788
330
747D
100
AcDbEntity
  8
細線
 48
50.0
100
AcDbLine
 10
7173.600000000009
 20
6468.463323306273
 30
0.0
 11
7275.09540720661
 21
6569.958730512872
 31
0.0
  0
LINE
  5
2C789
330
747D
100
AcDbEntity
  8
細線
 48
50.0
100
AcDbLine
 10
7173.600000000006
 20
6513.364603911611
 30
0.0
 11
7230.194126601269
 21
6569.958730512872
 31
0.0
  0
LINE
  5
2C78A
330
747D
100
AcDbEntity
  8
部品1
 48
50.0
100
AcDbLine
 10
7173.599999999999
 20
6569.958730512872
 30
0.0
 11
7173.600000000013
 21
6289.958724017968
 31
0.0
  0
LINE
  5
2C78B
330
747D
100
AcDbEntity
  8
細線
 48
50.0
100
AcDbLine
 10
7173.600000000007
 20
6378.660762095585
 30
0.0
 11
7364.897968417292
 21
6569.958730512872
 31
0.0
  0
LINE
  5
2C78C
330
747D
100
AcDbEntity
  8
細線
 48
50.0
100
AcDbLine
 10
7173.600000000011
 20
6333.759481490244
 30
0.0
 11
7373.600000000005
 21
6533.759481490235
 31
0.0
  0
LINE
  5
2C78D
330
747D
100
AcDbEntity
  8
細線
 48
50.0
100
AcDbLine
 10
7174.700523133084
 20
6289.95872401797
 30
0.0
 11
7373.600000000002
 21
6488.858200884888
 31
0.0
  0
LINE
  5
2C78E
330
747D
100
AcDbEntity
  8
細線
 48
50.0
100
AcDbLine
 10
7219.601803738429
 20
6289.95872401797
 30
0.0
 11
7373.600000000005
 21
6443.956920279545
 31
0.0
  0
LINE
  5
2C78F
330
747D
100
AcDbEntity
  8
細線
 48
50.0
100
AcDbLine
 10
7309.404364949121
 20
6289.95872401797
 30
0.0
 11
7373.600000000012
 21
6354.154359068858
 31
0.0
  0
LINE
  5
2C790
330
747D
100
AcDbEntity
  8
細線
 48
50.0
100
AcDbLine
 10
7264.503084343776
 20
6289.95872401797
 30
0.0
 11
7373.600000000007
 21
6399.055639674203
 31
0.0
  0
LINE
  5
2C791
330
747D
100
AcDbEntity
  8
細線
 48
50.0
100
AcDbLine
 10
8304.305645554469
 20
6289.958724017973
 30
0.0
 11
8323.600000000013
 21
6309.253078463516
 31
0.0
  0
LINE
  5
2C792
330
747D
100
AcDbEntity
  8
部品1
 48
50.0
100
AcDbLine
 10
8323.599999999998
 20
6569.958730512872
 30
0.0
 11
8323.600000000013
 21
6289.958724017972
 31
0.0
  0
LINE
  5
2C793
330
747D
100
AcDbEntity
  8
細線
 48
50.0
100
AcDbLine
 10
8123.600000000008
 20
6423.562042700931
 30
0.0
 11
8269.996687811948
 21
6569.958730512873
 31
0.0
  0
LINE
  5
2C794
330
747D
100
AcDbEntity
  8
細線
 48
50.0
100
AcDbLine
 10
8123.600000000008
 20
6468.463323306273
 30
0.0
 11
8225.095407206609
 21
6569.958730512872
 31
0.0
  0
LINE
  5
2C795
330
747D
100
AcDbEntity
  8
細線
 48
50.0
100
AcDbLine
 10
8123.600000000006
 20
6513.364603911611
 30
0.0
 11
8180.19412660127
 21
6569.958730512872
 31
0.0
  0
LINE
  5
2C796
330
747D
100
AcDbEntity
  8
部品1
 48
50.0
100
AcDbLine
 10
8123.599999999999
 20
6569.958730512872
 30
0.0
 11
8123.600000000013
 21
6289.958724017968
 31
0.0
  0
LINE
  5
2C797
330
747D
100
AcDbEntity
  8
細線
 48
50.0
100
AcDbLine
 10
8123.600000000008
 20
6378.660762095585
 30
0.0
 11
8314.897968417291
 21
6569.958730512872
 31
0.0
  0
LINE
  5
2C798
330
747D
100
AcDbEntity
  8
細線
 48
50.0
100
AcDbLine
 10
8123.600000000012
 20
6333.759481490244
 30
0.0
 11
8323.600000000004
 21
6533.759481490235
 31
0.0
  0
LINE
  5
2C799
330
747D
100
AcDbEntity
  8
細線
 48
50.0
100
AcDbLine
 10
8124.700523133084
 20
6289.95872401797
 30
0.0
 11
8323.600000000002
 21
6488.858200884888
 31
0.0
  0
LINE
  5
2C79A
330
747D
100
AcDbEntity
  8
細線
 48
50.0
100
AcDbLine
 10
8169.601803738428
 20
6289.95872401797
 30
0.0
 11
8323.600000000004
 21
6443.956920279545
 31
0.0
  0
LINE
  5
2C79B
330
747D
100
AcDbEntity
  8
細線
 48
50.0
100
AcDbLine
 10
8259.404364949121
 20
6289.95872401797
 30
0.0
 11
8323.600000000011
 21
6354.154359068858
 31
0.0
  0
LINE
  5
2C79C
330
747D
100
AcDbEntity
  8
細線
 48
50.0
100
AcDbLine
 10
8214.503084343776
 20
6289.95872401797
 30
0.0
 11
8323.600000000007
 21
6399.055639674203
 31
0.0
  0
LINE
  5
2C79D
330
747D
100
AcDbEntity
  8
細線
 48
50.0
100
AcDbLine
 10
11154.30564555447
 20
6289.958724017966
 30
0.0
 11
11173.60000000001
 21
6309.253078463509
 31
0.0
  0
LINE
  5
2C79E
330
747D
100
AcDbEntity
  8
部品1
 48
50.0
100
AcDbLine
 10
11173.6
 20
6569.958730512896
 30
0.0
 11
11173.60000000001
 21
6289.958724017966
 31
0.0
  0
LINE
  5
2C79F
330
747D
100
AcDbEntity
  8
細線
 48
50.0
100
AcDbLine
 10
11109.40436494912
 20
6289.958724017966
 30
0.0
 11
11173.60000000001
 21
6354.154359068854
 31
0.0
  0
LINE
  5
2C7A0
330
747D
100
AcDbEntity
  8
細線
 48
50.0
100
AcDbLine
 10
11064.50308434377
 20
6289.958724017965
 30
0.0
 11
11173.60000000001
 21
6399.055639674198
 31
0.0
  0
LINE
  5
2C7A1
330
747D
100
AcDbEntity
  8
細線
 48
50.0
100
AcDbLine
 10
10973.6
 20
6513.364603911611
 30
0.0
 11
11030.19412660129
 21
6569.958730512896
 31
0.0
  0
LINE
  5
2C7A2
330
747D
100
AcDbEntity
  8
部品1
 48
50.0
100
AcDbLine
 10
10973.6
 20
6569.958730512896
 30
0.0
 11
10973.60000000001
 21
6289.958724017963
 31
0.0
  0
LINE
  5
2C7A3
330
747D
100
AcDbEntity
  8
細線
 48
50.0
100
AcDbLine
 10
10973.60000000001
 20
6423.562042700925
 30
0.0
 11
11119.99668781199
 21
6569.958730512896
 31
0.0
  0
LINE
  5
2C7A4
330
747D
100
AcDbEntity
  8
細線
 48
50.0
100
AcDbLine
 10
10973.60000000001
 20
6378.660762095582
 30
0.0
 11
11164.89796841733
 21
6569.958730512896
 31
0.0
  0
LINE
  5
2C7A5
330
747D
100
AcDbEntity
  8
細線
 48
50.0
100
AcDbLine
 10
10973.60000000001
 20
6333.759481490239
 30
0.0
 11
11173.6
 21
6533.759481490225
 31
0.0
  0
LINE
  5
2C7A6
330
747D
100
AcDbEntity
  8
細線
 48
50.0
100
AcDbLine
 10
10974.70052313308
 20
6289.958724017963
 30
0.0
 11
11173.6
 21
6488.858200884886
 31
0.0
  0
LINE
  5
2C7A7
330
747D
100
AcDbEntity
  8
細線
 48
50.0
100
AcDbLine
 10
11019.60180373843
 20
6289.958724017965
 30
0.0
 11
11173.6
 21
6443.956920279537
 31
0.0
  0
LINE
  5
2C7A8
330
747D
100
AcDbEntity
  8
細線
 48
50.0
100
AcDbLine
 10
10973.60000000001
 20
6468.463323306273
 30
0.0
 11
11075.09540720663
 21
6569.958730512896
 31
0.0
  0
LINE
  5
2C7A9
330
747D
100
AcDbEntity
  8
細線
 48
50.0
100
AcDbLine
 10
12104.30564555447
 20
6289.958724017966
 30
0.0
 11
12123.60000000001
 21
6309.253078463509
 31
0.0
  0
LINE
  5
2C7AA
330
747D
100
AcDbEntity
  8
部品1
 48
50.0
100
AcDbLine
 10
12123.6
 20
6569.958730512896
 30
0.0
 11
12123.60000000001
 21
6289.958724017966
 31
0.0
  0
LINE
  5
2C7AB
330
747D
100
AcDbEntity
  8
細線
 48
50.0
100
AcDbLine
 10
12059.40436494912
 20
6289.958724017966
 30
0.0
 11
12123.60000000001
 21
6354.154359068854
 31
0.0
  0
LINE
  5
2C7AC
330
747D
100
AcDbEntity
  8
細線
 48
50.0
100
AcDbLine
 10
12014.50308434378
 20
6289.958724017965
 30
0.0
 11
12123.60000000001
 21
6399.055639674198
 31
0.0
  0
LINE
  5
2C7AD
330
747D
100
AcDbEntity
  8
細線
 48
50.0
100
AcDbLine
 10
11923.6
 20
6513.364603911611
 30
0.0
 11
11980.19412660129
 21
6569.958730512896
 31
0.0
  0
LINE
  5
2C7AE
330
747D
100
AcDbEntity
  8
部品1
 48
50.0
100
AcDbLine
 10
11923.6
 20
6569.958730512896
 30
0.0
 11
11923.60000000001
 21
6289.958724017963
 31
0.0
  0
LINE
  5
2C7AF
330
747D
100
AcDbEntity
  8
細線
 48
50.0
100
AcDbLine
 10
11923.6
 20
6423.562042700925
 30
0.0
 11
12069.99668781199
 21
6569.958730512896
 31
0.0
  0
LINE
  5
2C7B0
330
747D
100
AcDbEntity
  8
細線
 48
50.0
100
AcDbLine
 10
11923.60000000001
 20
6378.660762095582
 30
0.0
 11
12114.89796841733
 21
6569.958730512896
 31
0.0
  0
LINE
  5
2C7B1
330
747D
100
AcDbEntity
  8
細線
 48
50.0
100
AcDbLine
 10
11923.60000000001
 20
6333.759481490239
 30
0.0
 11
12123.6
 21
6533.759481490225
 31
0.0
  0
LINE
  5
2C7B2
330
747D
100
AcDbEntity
  8
細線
 48
50.0
100
AcDbLine
 10
11924.70052313308
 20
6289.958724017963
 30
0.0
 11
12123.6
 21
6488.858200884886
 31
0.0
  0
LINE
  5
2C7B3
330
747D
100
AcDbEntity
  8
細線
 48
50.0
100
AcDbLine
 10
11969.60180373843
 20
6289.958724017965
 30
0.0
 11
12123.6
 21
6443.956920279537
 31
0.0
  0
LINE
  5
2C7B4
330
747D
100
AcDbEntity
  8
細線
 48
50.0
100
AcDbLine
 10
11923.60000000001
 20
6468.463323306273
 30
0.0
 11
12025.09540720663
 21
6569.958730512896
 31
0.0
  0
LINE
  5
2C7B5
330
747D
100
AcDbEntity
  8
細線
 48
50.0
100
AcDbLine
 10
13054.30564555447
 20
6289.958724017966
 30
0.0
 11
13073.60000000001
 21
6309.253078463509
 31
0.0
  0
LINE
  5
2C7B6
330
747D
100
AcDbEntity
  8
部品1
 48
50.0
100
AcDbLine
 10
13073.6
 20
6569.958730512896
 30
0.0
 11
13073.60000000001
 21
6289.958724017966
 31
0.0
  0
LINE
  5
2C7B7
330
747D
100
AcDbEntity
  8
細線
 48
50.0
100
AcDbLine
 10
13009.40436494912
 20
6289.958724017966
 30
0.0
 11
13073.60000000001
 21
6354.154359068854
 31
0.0
  0
LINE
  5
2C7B8
330
747D
100
AcDbEntity
  8
細線
 48
50.0
100
AcDbLine
 10
12964.50308434378
 20
6289.958724017965
 30
0.0
 11
13073.60000000001
 21
6399.055639674198
 31
0.0
  0
LINE
  5
2C7B9
330
747D
100
AcDbEntity
  8
細線
 48
50.0
100
AcDbLine
 10
12873.6
 20
6513.364603911611
 30
0.0
 11
12930.19412660129
 21
6569.958730512896
 31
0.0
  0
LINE
  5
2C7BA
330
747D
100
AcDbEntity
  8
部品1
 48
50.0
100
AcDbLine
 10
12873.6
 20
6569.958730512896
 30
0.0
 11
12873.60000000001
 21
6289.958724017963
 31
0.0
  0
LINE
  5
2C7BB
330
747D
100
AcDbEntity
  8
細線
 48
50.0
100
AcDbLine
 10
12873.6
 20
6423.562042700925
 30
0.0
 11
13019.99668781199
 21
6569.958730512896
 31
0.0
  0
LINE
  5
2C7BC
330
747D
100
AcDbEntity
  8
細線
 48
50.0
100
AcDbLine
 10
12873.60000000001
 20
6378.660762095582
 30
0.0
 11
13064.89796841733
 21
6569.958730512896
 31
0.0
  0
LINE
  5
2C7BD
330
747D
100
AcDbEntity
  8
細線
 48
50.0
100
AcDbLine
 10
12873.60000000001
 20
6333.759481490239
 30
0.0
 11
13073.6
 21
6533.759481490225
 31
0.0
  0
LINE
  5
2C7BE
330
747D
100
AcDbEntity
  8
細線
 48
50.0
100
AcDbLine
 10
12874.70052313308
 20
6289.958724017963
 30
0.0
 11
13073.6
 21
6488.858200884886
 31
0.0
  0
LINE
  5
2C7BF
330
747D
100
AcDbEntity
  8
細線
 48
50.0
100
AcDbLine
 10
12919.60180373843
 20
6289.958724017965
 30
0.0
 11
13073.6
 21
6443.956920279537
 31
0.0
  0
LINE
  5
2C7C0
330
747D
100
AcDbEntity
  8
細線
 48
50.0
100
AcDbLine
 10
12873.60000000001
 20
6468.463323306273
 30
0.0
 11
12975.09540720663
 21
6569.958730512896
 31
0.0
  0
LINE
  5
2C7DE
330
747D
100
AcDbEntity
  8
部品1
 48
50.0
100
AcDbLine
 10
13333.6
 20
6569.958730512905
 30
0.0
 11
13333.6
 21
7049.958730512874
 31
0.0
  0
LINE
  5
2C7DF
330
747D
100
AcDbEntity
  8
部品1
 48
50.0
100
AcDbLine
 10
3113.6
 20
6569.958730512874
 30
0.0
 11
3113.599999999997
 21
7049.958730512874
 31
0.0
  0
MTEXT
  5
2C977
102
{ACAD_REACTORS
330
2C978
102
}
330
747D
100
AcDbEntity
  8
寸法
 62
     7
 48
50.0
100
AcDbMText
 10
10635.93000079162
 20
2019.289729197696
 30
0.0
 40
120.0
 41
0.8
 71
     4
 72
     1
  1
\A1;C.B
  7
STYLE1
 73
     1
 44
1.0
1001
ACAD
1000
MTEXTBEGIN
1070
    73
1070
     1
1070
    44
1040
1.0
1070
    74
1070
     0
1000
MTEXTEND
  0
LEADER
  5
2C978
330
747D
100
AcDbEntity
  8
寸法
 48
50.0
100
AcDbLeader
  3
INABA_S50G
 73
     0
 74
     0
 75
     1
 40
120.0
 41
185.591883092037
 76
     3
 10
10452.79179415798
 20
1762.143408516558
 30
0.0
 10
10485.93000079162
 20
1934.289729197696
 30
0.0
 10
10610.93000079162
 20
1934.289729197696
 30
0.0
340
2C977
1001
ACAD
1000
DSTYLE
1002
{
1070
    40
1040
1.0
1002
}
  0
LINE
  5
2C979
330
747D
100
AcDbEntity
  8
細線
 48
50.0
100
AcDbLine
 10
10598.44520773439
 20
1406.444492863207
 30
0.0
 11
10592.01442711604
 21
1430.444492863207
 31
0.0
  0
LINE
  5
2C97A
330
747D
100
AcDbEntity
  8
細線
 48
50.0
100
AcDbLine
 10
10577.0092723399
 20
1326.444492863207
 30
0.0
 11
10583.44005295825
 21
1302.444492863207
 31
0.0
  0
LINE
  5
2C97B
330
747D
100
AcDbEntity
  8
部品1
100
AcDbLine
 10
10642.06738254205
 20
1522.143408516558
 30
0.0
 11
10642.06738254205
 21
1302.444492863208
 31
0.0
  0
LINE
  5
2C97C
330
747D
100
AcDbEntity
  8
細線
 48
50.0
100
AcDbLine
 10
10570.57849172154
 20
1302.444492863207
 30
0.0
 11
10604.87598835273
 21
1430.444492863206
 31
0.0
  0
LINE
  5
2C97D
330
747D
100
AcDbEntity
  8
細線
 48
50.0
100
AcDbLine
 10
10519.55716278714
 20
1406.444492863207
 30
0.0
 11
10513.12638216879
 21
1430.444492863207
 31
0.0
  0
LINE
  5
2C97E
330
747D
100
AcDbEntity
  8
細線
100
AcDbLine
 10
10395.10377704139
 20
1430.44449286321
 30
0.0
 11
10486.80269269473
 21
1522.143408516558
 31
0.0
  0
LINE
  5
2C97F
330
747D
100
AcDbEntity
  8
細線
 48
50.0
100
AcDbLine
 10
10440.66911783988
 20
1406.444492863208
 30
0.0
 11
10434.23833722154
 21
1430.444492863208
 31
0.0
  0
LINE
  5
2C980
330
747D
100
AcDbEntity
  8
細線
100
AcDbLine
 10
10429.04490253834
 20
1430.44449286321
 30
0.0
 11
10520.74381819169
 21
1522.143408516558
 31
0.0
  0
LINE
  5
2C981
330
747D
100
AcDbEntity
  8
細線
 48
50.0
100
AcDbLine
 10
10204.00498299815
 20
1406.444492863208
 30
0.0
 11
10197.57420237981
 21
1430.444492863208
 31
0.0
  0
LINE
  5
2C982
330
747D
100
AcDbEntity
  8
細線
 48
50.0
100
AcDbLine
 10
10282.8930279454
 20
1406.444492863208
 30
0.0
 11
10276.46224732705
 21
1430.444492863208
 31
0.0
  0
LINE
  5
2C983
330
747D
100
AcDbEntity
  8
細線
 48
50.0
100
AcDbLine
 10
10361.78107289265
 20
1406.444492863208
 30
0.0
 11
10355.3502922743
 21
1430.444492863208
 31
0.0
  0
LINE
  5
2C984
330
747D
100
AcDbEntity
  8
細線
 48
50.0
100
AcDbLine
 10
10498.12122739265
 20
1326.444492863207
 30
0.0
 11
10504.552008011
 21
1302.444492863207
 31
0.0
  0
LINE
  5
2C985
330
747D
100
AcDbEntity
  8
細線
 48
50.0
100
AcDbLine
 10
10419.2331824454
 20
1326.444492863208
 30
0.0
 11
10425.66396306376
 21
1302.444492863208
 31
0.0
  0
LINE
  5
2C986
330
747D
100
AcDbEntity
  8
細線
 48
50.0
100
AcDbLine
 10
10261.45709255091
 20
1326.444492863208
 30
0.0
 11
10267.88787316926
 21
1302.444492863208
 31
0.0
  0
LINE
  5
2C987
330
747D
100
AcDbEntity
  8
細線
 48
50.0
100
AcDbLine
 10
10340.34513749816
 20
1326.444492863208
 30
0.0
 11
10346.7759181165
 21
1302.444492863208
 31
0.0
  0
LINE
  5
2C988
330
747D
100
AcDbEntity
  8
細線
 48
50.0
100
AcDbLine
 10
10333.9143568798
 20
1302.444492863208
 30
0.0
 11
10368.21185351099
 21
1430.444492863207
 31
0.0
  0
LINE
  5
2C989
330
747D
100
AcDbEntity
  8
細線
 48
50.0
100
AcDbLine
 10
10255.02631193256
 20
1302.444492863207
 30
0.0
 11
10289.32380856374
 21
1430.444492863207
 31
0.0
  0
LINE
  5
2C98A
330
747D
100
AcDbEntity
  8
細線
 48
50.0
100
AcDbLine
 10
10412.80240182705
 20
1302.444492863207
 30
0.0
 11
10447.09989845823
 21
1430.444492863208
 31
0.0
  0
LINE
  5
2C98B
330
747D
100
AcDbEntity
  8
細線
100
AcDbLine
 10
10462.98602803529
 20
1430.44449286321
 30
0.0
 11
10554.68494368864
 21
1522.143408516558
 31
0.0
  0
LINE
  5
2C98C
330
747D
100
AcDbEntity
  8
細線
 48
50.0
100
AcDbLine
 10
10491.6904467743
 20
1302.444492863205
 30
0.0
 11
10525.98794340549
 21
1430.444492863206
 31
0.0
  0
LINE
  5
2C98D
330
747D
100
AcDbEntity
  8
部品1
100
AcDbLine
 10
10522.06738254205
 20
1762.143408516558
 30
0.0
 11
10522.06738254205
 21
1522.143408516558
 31
0.0
  0
LINE
  5
2C98E
330
747D
100
AcDbEntity
  8
細線
100
AcDbLine
 10
10508.22972019447
 20
1522.14340851656
 30
0.0
 11
10268.22972019447
 21
1762.143408516558
 31
0.0
  0
LINE
  5
2C98F
330
747D
100
AcDbEntity
  8
細線
100
AcDbLine
 10
10457.31803194904
 20
1522.143408516558
 30
0.0
 11
10217.31803194904
 21
1762.143408516558
 31
0.0
  0
LINE
  5
2C990
330
747D
100
AcDbEntity
  8
細線
100
AcDbLine
 10
10069.04490253834
 20
1430.444492863208
 30
0.0
 11
10160.74381819169
 21
1522.143408516558
 31
0.0
  0
LINE
  5
2C991
330
747D
100
AcDbEntity
  8
細線
100
AcDbLine
 10
10035.10377704138
 20
1430.444492863208
 30
0.0
 11
10126.80269269473
 21
1522.143408516558
 31
0.0
  0
LINE
  5
2C992
330
747D
100
AcDbEntity
  8
細線
 48
50.0
100
AcDbLine
 10
10046.22889310365
 20
1406.444492863208
 30
0.0
 11
10039.79811248531
 21
1430.444492863208
 31
0.0
  0
LINE
  5
2C993
330
747D
100
AcDbEntity
  8
細線
 48
50.0
100
AcDbLine
 10
10125.11693805091
 20
1406.444492863208
 30
0.0
 11
10118.68615743256
 21
1430.444492863208
 31
0.0
  0
LINE
  5
2C994
330
747D
100
AcDbEntity
  8
細線
 48
50.0
100
AcDbLine
 10
9967.340848156405
 20
1406.444492863208
 30
0.0
 11
9960.910067538058
 21
1430.444492863208
 31
0.0
  0
LINE
  5
2C995
330
747D
100
AcDbEntity
  8
細線
 48
50.0
100
AcDbLine
 10
10182.56904760366
 20
1326.444492863208
 30
0.0
 11
10188.99982822201
 21
1302.444492863208
 31
0.0
  0
LINE
  5
2C996
330
747D
100
AcDbEntity
  8
細線
 48
50.0
100
AcDbLine
 10
10103.68100265642
 20
1326.444492863208
 30
0.0
 11
10110.11178327476
 21
1302.444492863208
 31
0.0
  0
LINE
  5
2C997
330
747D
100
AcDbEntity
  8
細線
 48
50.0
100
AcDbLine
 10
9945.904912761918
 20
1326.444492863208
 30
0.0
 11
9952.335693380264
 21
1302.444492863208
 31
0.0
  0
LINE
  5
2C998
330
747D
100
AcDbEntity
  8
細線
 48
50.0
100
AcDbLine
 10
10024.79295770916
 20
1326.444492863208
 30
0.0
 11
10031.22373832751
 21
1302.444492863208
 31
0.0
  0
LINE
  5
2C999
330
747D
100
AcDbEntity
  8
部品1
100
AcDbLine
 10
9922.067382542056
 20
1302.444492863205
 30
0.0
 11
9922.067382542056
 21
1522.143408516558
 31
0.0
  0
LINE
  5
2C99A
330
747D
100
AcDbEntity
  8
細線
 48
50.0
100
AcDbLine
 10
9939.474132143569
 20
1302.444492863208
 30
0.0
 11
9973.771628774754
 21
1430.444492863208
 31
0.0
  0
LINE
  5
2C99B
330
747D
100
AcDbEntity
  8
細線
 48
50.0
100
AcDbLine
 10
10097.25022203806
 20
1302.444492863208
 30
0.0
 11
10131.54771866925
 21
1430.444492863208
 31
0.0
  0
LINE
  5
2C99C
330
747D
100
AcDbEntity
  8
細線
 48
50.0
100
AcDbLine
 10
10018.36217709081
 20
1302.444492863207
 30
0.0
 11
10052.659673722
 21
1430.444492863207
 31
0.0
  0
LINE
  5
2C99D
330
747D
100
AcDbEntity
  8
部品1
100
AcDbLine
 10
10042.06738254205
 20
1522.143408516558
 30
0.0
 11
10042.06738254205
 21
1762.143408516558
 31
0.0
  0
TEXT
  5
2C99E
330
747D
100
AcDbEntity
  8
部品1
 48
50.0
100
AcDbText
 10
9277.949295783555
 20
1255.343667879249
 30
0.0
 40
80.0
  1
ボルトの出
 50
90.0
  7
STYLE2
100
AcDbText
  0
LINE
  5
2C99F
330
747D
100
AcDbEntity
  8
細線
100
AcDbLine
 10
10185.78902797341
 20
1522.143408516558
 30
0.0
 11
10042.06738254205
 21
1665.865053947911
 31
0.0
  0
LWPOLYLINE
  5
2C9A0
330
747D
100
AcDbEntity
  8
部品1
 48
50.0
100
AcDbPolyline
 90
        2
 70
     0
 43
12.0
 10
9657.456120441668
 20
1522.143408516558
 10
10858.54842357329
 20
1522.143408516558
  0
LINE
  5
2C9A1
330
747D
100
AcDbEntity
  8
細線
100
AcDbLine
 10
10102.9860280353
 20
1430.444492863208
 30
0.0
 11
10194.68494368864
 21
1522.143408516558
 31
0.0
  0
LINE
  5
2C9A2
330
747D
100
AcDbEntity
  8
部品1
100
AcDbLine
 10
9922.067382542056
 20
1430.444492863208
 30
0.0
 11
10642.06738254205
 21
1430.444492863211
 31
0.0
  0
LINE
  5
2C9A3
330
747D
100
AcDbEntity
  8
部品1
100
AcDbLine
 10
9922.067382542056
 20
1302.444492863205
 30
0.0
 11
10642.06738254205
 21
1302.444492863208
 31
0.0
  0
LINE
  5
2C9A4
330
747D
100
AcDbEntity
  8
細線
 48
50.0
100
AcDbLine
 10
10176.13826698531
 20
1302.444492863208
 30
0.0
 11
10210.4357636165
 21
1430.444492863207
 31
0.0
  0
LINE
  5
2C9A5
330
747D
100
AcDbEntity
  8
部品1
100
AcDbLine
 10
10042.06738254205
 20
1762.143408516558
 30
0.0
 11
10522.06738254205
 21
1762.143408516558
 31
0.0
  0
LINE
  5
2C9A6
330
747D
100
AcDbEntity
  8
細線
100
AcDbLine
 10
10236.70071621884
 20
1522.143408516558
 30
0.0
 11
10042.06738254205
 21
1716.776742193341
 31
0.0
  0
LINE
  5
2C9A7
330
747D
100
AcDbEntity
  8
部品1
100
AcDbLine
 10
11228.80888363909
 20
197.1751061324967
 30
0.0
 11
11228.80888363909
 21
3161.482075717144
 31
0.0
  0
TEXT
  5
2C9A8
330
747D
100
AcDbEntity
  8
部品1
100
AcDbText
 10
7850.70369943123
 20
2981.930143765716
 30
0.0
 40
120.0
  1
基礎詳細
  7
STYLE2
100
AcDbText
  0
LINE
  5
2C9A9
330
747D
100
AcDbEntity
  8
部品1
 48
50.0
100
AcDbLine
 10
8165.931450239298
 20
2161.018689625701
 30
0.0
 11
8181.9314502393
 21
2153.018689625701
 31
0.0
  0
LINE
  5
2C9AA
330
747D
100
AcDbEntity
  8
細線
 48
50.0
100
AcDbLine
 10
8133.9314502393
 20
2113.018689625701
 30
0.0
 11
8133.9314502393
 21
2145.018689625701
 31
0.0
  0
LINE
  5
2C9AB
330
747D
100
AcDbEntity
  8
部品1
 48
50.0
100
AcDbLine
 10
8181.9314502393
 20
2121.018689625701
 30
0.0
 11
8181.9314502393
 21
2153.018689625701
 31
0.0
  0
LINE
  5
2C9AC
330
747D
100
AcDbEntity
  8
細線
 48
50.0
100
AcDbLine
 10
8165.931450239298
 20
2113.018689625701
 30
0.0
 11
8165.931450239298
 21
2145.018689625701
 31
0.0
  0
LINE
  5
2C9AD
330
747D
100
AcDbEntity
  8
部品1
 48
50.0
100
AcDbLine
 10
8165.931450239298
 20
2145.018689625701
 30
0.0
 11
8181.9314502393
 21
2153.018689625701
 31
0.0
  0
LINE
  5
2C9AE
330
747D
100
AcDbEntity
  8
部品1
 48
50.0
100
AcDbLine
 10
8133.9314502393
 20
2145.018689625701
 30
0.0
 11
8165.931450239298
 21
2145.018689625701
 31
0.0
  0
LINE
  5
2C9AF
330
747D
100
AcDbEntity
  8
部品1
 48
50.0
100
AcDbLine
 10
8165.931450239298
 20
2113.018689625701
 30
0.0
 11
8181.9314502393
 21
2121.018689625701
 31
0.0
  0
LINE
  5
2C9B0
330
747D
100
AcDbEntity
  8
部品1
 48
50.0
100
AcDbLine
 10
8133.9314502393
 20
2113.018689625701
 30
0.0
 11
8165.931450239298
 21
2113.018689625701
 31
0.0
  0
ELLIPSE
  5
2C9B1
330
747D
100
AcDbEntity
  8
細線
 48
50.0
100
AcDbEllipse
 10
8149.931450239298
 20
2153.018689625701
 30
0.0
 11
14.76670786606846
 21
0.0
 31
0.0
210
0.0
220
0.0
230
1.0
 40
0.2071254069489396
 41
0.0
 42
6.283185307179586
  0
LINE
  5
2C9B2
330
747D
100
AcDbEntity
  8
部品1
 48
50.0
100
AcDbLine
 10
8133.9314502393
 20
2161.018689625701
 30
0.0
 11
8165.931450239298
 21
2161.018689625701
 31
0.0
  0
LINE
  5
2C9B3
330
747D
100
AcDbEntity
  8
部品1
 48
50.0
100
AcDbLine
 10
8117.9314502393
 20
2121.018689625701
 30
0.0
 11
8117.9314502393
 21
2153.018689625701
 31
0.0
  0
LINE
  5
2C9B4
330
747D
100
AcDbEntity
  8
部品1
 48
50.0
100
AcDbLine
 10
8117.9314502393
 20
2153.018689625701
 30
0.0
 11
8133.9314502393
 21
2161.018689625701
 31
0.0
  0
LINE
  5
2C9B5
330
747D
100
AcDbEntity
  8
部品1
 48
50.0
100
AcDbLine
 10
8117.9314502393
 20
2121.018689625701
 30
0.0
 11
8133.9314502393
 21
2113.018689625701
 31
0.0
  0
LINE
  5
2C9B6
330
747D
100
AcDbEntity
  8
部品1
 48
50.0
100
AcDbLine
 10
8117.9314502393
 20
2153.018689625701
 30
0.0
 11
8133.9314502393
 21
2145.018689625701
 31
0.0
  0
LINE
  5
2C9B7
330
747D
100
AcDbEntity
  8
部品1
 48
50.0
100
AcDbLine
 10
8189.931450239299
 20
2021.666696960831
 30
0.0
 11
8189.931450239299
 21
2031.266696960831
 31
0.0
  0
ELLIPSE
  5
2C9B8
330
747D
100
AcDbEntity
  8
部品1
 48
50.0
100
AcDbEllipse
 10
8149.931450239298
 20
2031.266696960831
 30
0.0
 11
18.4
 21
0.0
 31
0.0
210
0.0
220
0.0
230
1.0
 40
0.3478260869565217
 41
0.0
 42
6.283185307179586
  0
ARC
  5
2C9B9
330
747D
100
AcDbEntity
  8
部品1
100
AcDbCircle
 10
7988.831450239299
 20
1860.243408516559
 30
0.0
 40
2.7
100
AcDbArc
 50
90.0
 51
180.0
  0
LINE
  5
2C9BA
330
747D
100
AcDbEntity
  8
部品1
100
AcDbLine
 10
7991.531450239297
 20
1873.743408516559
 30
0.0
 11
8033.831450239299
 21
1873.743408516555
 31
0.0
  0
LINE
  5
2C9BB
330
747D
100
AcDbEntity
  8
部品1
100
AcDbLine
 10
7988.831450239299
 20
1862.943408516558
 30
0.0
 11
7988.831450239299
 21
1871.043408516558
 31
0.0
  0
LINE
  5
2C9BC
330
747D
100
AcDbEntity
  8
部品1
100
AcDbLine
 10
7988.831450239299
 20
1862.943408516558
 30
0.0
 11
7988.831450239299
 21
1862.943408516558
 31
0.0
  0
ARC
  5
2C9BD
330
747D
100
AcDbEntity
  8
部品1
100
AcDbCircle
 10
7991.531450239297
 20
1871.043408516558
 30
0.0
 40
2.7
100
AcDbArc
 50
90.0
 51
180.0
  0
ARC
  5
2C9BE
330
747D
100
AcDbEntity
  8
部品1
100
AcDbCircle
 10
8033.831450239299
 20
1871.043408516555
 30
0.0
 40
2.7
100
AcDbArc
 50
0.0
 51
90.0
  0
LINE
  5
2C9BF
330
747D
100
AcDbEntity
  8
部品1
 48
50.0
100
AcDbLine
 10
8109.931450239299
 20
2031.266696960831
 30
0.0
 11
8109.931450239299
 21
2021.666696960831
 31
0.0
  0
ELLIPSE
  5
2C9C0
330
747D
100
AcDbEntity
  8
部品1
 48
50.0
100
AcDbEllipse
 10
8149.931450239298
 20
2021.666696960831
 30
0.0
 11
40.0
 21
0.0
 31
0.0
210
0.0
220
0.0
230
1.0
 40
0.4
 41
3.141592653589793
 42
6.283185307179586
  0
ELLIPSE
  5
2C9C1
330
747D
100
AcDbEntity
  8
部品1
 48
50.0
100
AcDbEllipse
 10
8149.931450239298
 20
2031.266696960831
 30
0.0
 11
40.0
 21
0.0
 31
0.0
210
0.0
220
0.0
230
1.0
 40
0.4
 41
0.0
 42
6.283185307179586
  0
LINE
  5
2C9C2
330
747D
100
AcDbEntity
  8
部品1
100
AcDbLine
 10
8144.531450239297
 20
1814.903408516558
 30
0.0
 11
8155.3314502393
 21
1814.903408516558
 31
0.0
  0
LINE
  5
2C9C3
330
747D
100
AcDbEntity
  8
部品1
100
AcDbLine
 10
8140.931450239298
 20
1811.303408516559
 30
0.0
 11
8158.931450239299
 21
1811.303408516559
 31
0.0
  0
LINE
  5
2C9C4
330
747D
100
AcDbEntity
  8
細線
100
AcDbLine
 10
8144.531450239302
 20
1771.703408516559
 30
0.0
 11
8144.531450239297
 21
1814.903408516558
 31
0.0
  0
LINE
  5
2C9C5
330
747D
100
AcDbEntity
  8
細線
100
AcDbLine
 10
8155.3314502393
 20
1771.703408516559
 30
0.0
 11
8155.3314502393
 21
1814.903408516558
 31
0.0
  0
LINE
  5
2C9C6
330
747D
100
AcDbEntity
  8
部品1
100
AcDbLine
 10
8057.231450239298
 20
1829.003408516559
 30
0.0
 11
8057.231450239298
 21
1811.903408516559
 31
0.0
  0
LINE
  5
2C9C7
330
747D
100
AcDbEntity
  8
部品1
100
AcDbLine
 10
8090.791450239299
 20
1829.003408516559
 30
0.0
 11
8090.791450239295
 21
1774.403408516558
 31
0.0
  0
ARC
  5
2C9C8
330
747D
100
AcDbEntity
  8
部品1
100
AcDbCircle
 10
8076.1314502393
 20
1817.043408516558
 30
0.0
 40
2.7
100
AcDbArc
 50
0.0
 51
90.0
  0
LINE
  5
2C9C9
330
747D
100
AcDbEntity
  8
部品1
100
AcDbLine
 10
8036.531450239298
 20
1819.743408516558
 30
0.0
 11
8076.1314502393
 21
1819.743408516558
 31
0.0
  0
ARC
  5
2C9CA
330
747D
100
AcDbEntity
  8
部品1
100
AcDbCircle
 10
8076.1314502393
 20
1774.403408516558
 30
0.0
 40
2.7
100
AcDbArc
 50
270.0
 51
0.0
  0
ARC
  5
2C9CB
330
747D
100
AcDbEntity
  8
部品1
100
AcDbCircle
 10
8093.491450239293
 20
1774.403408516558
 30
0.0
 40
2.7
100
AcDbArc
 50
180.0
 51
270.0
  0
LINE
  5
2C9CC
330
747D
100
AcDbEntity
  8
部品1
100
AcDbLine
 10
8064.431450239299
 20
1771.703408516559
 30
0.0
 11
8076.1314502393
 21
1771.703408516559
 31
0.0
  0
LINE
  5
2C9CD
330
747D
100
AcDbEntity
  8
部品1
100
AcDbLine
 10
8078.831450239299
 20
1817.043408516558
 30
0.0
 11
8078.831450239299
 21
1774.403408516558
 31
0.0
  0
ARC
  5
2C9CE
330
747D
100
AcDbEntity
  8
部品1
100
AcDbCircle
 10
8088.0914502393
 20
1829.003408516559
 30
0.0
 40
2.7
100
AcDbArc
 50
0.0
 51
90.0
  0
ARC
  5
2C9CF
330
747D
100
AcDbEntity
  8
部品1
100
AcDbCircle
 10
8059.931450239298
 20
1829.003408516559
 30
0.0
 40
2.7
100
AcDbArc
 50
90.0
 51
180.0
  0
LINE
  5
2C9D0
330
747D
100
AcDbEntity
  8
部品1
100
AcDbLine
 10
8059.931450239298
 20
1831.703408516559
 30
0.0
 11
8088.0914502393
 21
1831.703408516559
 31
0.0
  0
LINE
  5
2C9D1
330
747D
100
AcDbEntity
  8
部品1
100
AcDbLine
 10
8036.531450239298
 20
1871.043408516555
 30
0.0
 11
8036.531450239298
 21
1819.743408516558
 31
0.0
  0
LINE
  5
2C9D2
330
747D
100
AcDbEntity
  8
部品1
100
AcDbLine
 10
7986.1314502393
 20
1852.143408516558
 30
0.0
 11
7986.1314502393
 21
1860.243408516559
 31
0.0
  0
LINE
  5
2C9D3
330
747D
100
AcDbEntity
  8
部品1
100
AcDbLine
 10
8093.491450239293
 20
1771.703408516559
 30
0.0
 11
8294.831450239293
 21
1771.703408516559
 31
0.0
  0
LINE
  5
2C9D4
330
747D
100
AcDbEntity
  8
部品1
100
AcDbLine
 10
7934.8314502393
 20
1774.403408516558
 30
0.0
 11
7934.8314502393
 21
1836.535312219266
 31
0.0
  0
LINE
  5
2C9D5
330
747D
100
AcDbEntity
  8
部品1
100
AcDbLine
 10
7937.531450239298
 20
1771.703408516559
 30
0.0
 11
7949.231450239293
 21
1771.703408516559
 31
0.0
  0
LINE
  5
2C9D6
330
747D
100
AcDbEntity
  8
細線
 48
50.0
100
AcDbLine
 10
7928.531450239297
 20
1749.923984816463
 30
0.0
 11
7940.750873939393
 21
1762.143408516558
 31
0.0
  0
ARC
  5
2C9D7
330
747D
100
AcDbEntity
  8
部品1
100
AcDbCircle
 10
7937.531450239298
 20
1774.403408516558
 30
0.0
 40
2.7
100
AcDbArc
 50
180.0
 51
270.0
  0
LINE
  5
2C9D8
330
747D
100
AcDbEntity
  8
部品1
100
AcDbLine
 10
7936.8766040517
 20
1839.154696969658
 30
0.0
 11
7945.6314502393
 21
1841.343408516558
 31
0.0
  0
ARC
  5
2C9D9
330
747D
100
AcDbEntity
  8
部品1
100
AcDbCircle
 10
7937.531450239298
 20
1836.535312219266
 30
0.0
 40
2.7
100
AcDbArc
 50
104.0362434679067
 51
180.0
  0
ARC
  5
2C9DA
330
747D
100
AcDbEntity
  8
部品1
100
AcDbCircle
 10
7948.331450239298
 20
1849.443408516559
 30
0.0
 40
2.7
100
AcDbArc
 50
90.0
 51
180.0
  0
LINE
  5
2C9DB
330
747D
100
AcDbEntity
  8
部品1
100
AcDbLine
 10
7945.6314502393
 20
1841.343408516558
 30
0.0
 11
7945.6314502393
 21
1849.443408516559
 31
0.0
  0
LINE
  5
2C9DC
330
747D
100
AcDbEntity
  8
部品1
 48
50.0
100
AcDbLine
 10
7928.531450239297
 20
1762.143408516558
 30
0.0
 11
8342.531450239301
 21
1762.143408516558
 31
0.0
  0
LINE
  5
2C9DD
330
747D
100
AcDbEntity
  8
細線
 48
50.0
100
AcDbLine
 10
7928.531450239297
 20
1696.042448090048
 30
0.0
 11
7994.632410665808
 21
1762.143408516558
 31
0.0
  0
LINE
  5
2C9DE
330
747D
100
AcDbEntity
  8
細線
 48
50.0
100
AcDbLine
 10
7928.531450239297
 20
1722.983216453256
 30
0.0
 11
7967.691642302606
 21
1762.143408516558
 31
0.0
  0
LINE
  5
2C9DF
330
747D
100
AcDbEntity
  8
部品1
100
AcDbLine
 10
7948.331450239298
 20
1852.143408516558
 30
0.0
 11
7986.1314502393
 21
1852.143408516558
 31
0.0
  0
LINE
  5
2C9E0
330
747D
100
AcDbEntity
  8
部品1
 48
50.0
100
AcDbLine
 10
8342.531450239297
 20
1218.143408516558
 30
0.0
 11
8470.531450239297
 21
1218.143408516558
 31
0.0
  0
LINE
  5
2C9E1
330
747D
100
AcDbEntity
  8
部品1
100
AcDbLine
 10
8158.931450239299
 20
1537.143408516558
 30
0.0
 11
8194.9314502393
 21
1537.143408516558
 31
0.0
  0
LINE
  5
2C9E2
330
747D
100
AcDbEntity
  8
部品1
100
AcDbLine
 10
8158.931450239299
 20
1519.143408516558
 30
0.0
 11
8194.9314502393
 21
1519.143408516558
 31
0.0
  0
ARC
  5
2C9E3
330
747D
100
AcDbEntity
  8
部品1
100
AcDbCircle
 10
8158.931450239299
 20
1537.143408516558
 30
0.0
 40
18.0
100
AcDbArc
 50
180.0
 51
270.0
  0
LINE
  5
2C9E4
330
747D
100
AcDbEntity
  8
部品1
100
AcDbLine
 10
8194.9314502393
 20
1519.143408516558
 30
0.0
 11
8194.9314502393
 21
1537.143408516558
 31
0.0
  0
LINE
  5
2C9E5
330
747D
100
AcDbEntity
  8
部品1
100
AcDbLine
 10
8212.931450239299
 20
1438.143408516556
 30
0.0
 11
8086.931450239292
 21
1438.143408516556
 31
0.0
  0
LINE
  5
2C9E6
330
747D
100
AcDbEntity
  8
細線
 48
50.0
100
AcDbLine
 10
8506.909275431633
 20
954.1434085165565
 30
0.0
 11
8500.478494813288
 21
978.1434085165566
 31
0.0
  0
LINE
  5
2C9E7
330
747D
100
AcDbEntity
  8
細線
 48
50.0
100
AcDbLine
 10
8428.021230484388
 20
954.1434085165565
 30
0.0
 11
8421.590449866043
 21
978.1434085165566
 31
0.0
  0
LINE
  5
2C9E8
330
747D
100
AcDbEntity
  8
細線
 48
50.0
100
AcDbLine
 10
8349.133185537132
 20
954.1434085165583
 30
0.0
 11
8342.702404918783
 21
978.1434085165583
 31
0.0
  0
LINE
  5
2C9E9
330
747D
100
AcDbEntity
  8
細線
 48
50.0
100
AcDbLine
 10
8485.473340037144
 20
874.1434085165565
 30
0.0
 11
8491.904120655492
 21
850.1434085165564
 31
0.0
  0
LINE
  5
2C9EA
330
747D
100
AcDbEntity
  8
細線
 48
50.0
100
AcDbLine
 10
8406.585295089898
 20
874.1434085165565
 30
0.0
 11
8413.016075708245
 21
850.1434085165564
 31
0.0
  0
LINE
  5
2C9EB
330
747D
100
AcDbEntity
  8
細線
 48
50.0
100
AcDbLine
 10
8327.69725014265
 20
874.1434085165582
 30
0.0
 11
8334.128030761005
 21
850.1434085165582
 31
0.0
  0
LINE
  5
2C9EC
330
747D
100
AcDbEntity
  8
細線
 48
50.0
100
AcDbLine
 10
8400.15451447155
 20
850.1434085165556
 30
0.0
 11
8434.452011102733
 21
978.1434085165555
 31
0.0
  0
LINE
  5
2C9ED
330
747D
100
AcDbEntity
  8
細線
 48
50.0
100
AcDbLine
 10
8321.266469524301
 20
850.1434085165564
 30
0.0
 11
8355.563966155475
 21
978.1434085165583
 31
0.0
  0
LINE
  5
2C9EE
330
747D
100
AcDbEntity
  8
細線
 48
50.0
100
AcDbLine
 10
8479.042559418791
 20
850.1434085165564
 30
0.0
 11
8513.34005604998
 21
978.1434085165555
 31
0.0
  0
LINE
  5
2C9EF
330
747D
100
AcDbEntity
  8
部品1
 48
50.0
100
AcDbLine
 10
8550.531450239303
 20
978.1434085165583
 30
0.0
 11
8550.531450239303
 21
850.1434085165582
 31
0.0
  0
LINE
  5
2C9F0
330
747D
100
AcDbEntity
  8
細線
 48
50.0
100
AcDbLine
 10
8270.245140589894
 20
954.1434085165583
 30
0.0
 11
8263.814359971547
 21
978.1434085165583
 31
0.0
  0
LINE
  5
2C9F1
330
747D
100
AcDbEntity
  8
細線
 48
50.0
100
AcDbLine
 10
8191.357095642649
 20
954.1434085165583
 30
0.0
 11
8184.9263150243
 21
978.1434085165583
 31
0.0
  0
LINE
  5
2C9F2
330
747D
100
AcDbEntity
  8
細線
 48
50.0
100
AcDbLine
 10
8033.581005748153
 20
954.1434085165583
 30
0.0
 11
8027.150225129808
 21
978.1434085165583
 31
0.0
  0
LINE
  5
2C9F3
330
747D
100
AcDbEntity
  8
細線
 48
50.0
100
AcDbLine
 10
8112.4690506954
 20
954.1434085165583
 30
0.0
 11
8106.038270077053
 21
978.1434085165583
 31
0.0
  0
LINE
  5
2C9F4
330
747D
100
AcDbEntity
  8
細線
 48
50.0
100
AcDbLine
 10
8169.92116024816
 20
874.1434085165582
 30
0.0
 11
8176.351940866505
 21
850.1434085165582
 31
0.0
  0
LINE
  5
2C9F5
330
747D
100
AcDbEntity
  8
細線
 48
50.0
100
AcDbLine
 10
8248.809205195405
 20
874.1434085165582
 30
0.0
 11
8255.23998581375
 21
850.1434085165582
 31
0.0
  0
LINE
  5
2C9F6
330
747D
100
AcDbEntity
  8
細線
 48
50.0
100
AcDbLine
 10
8012.145070353666
 20
874.1434085165582
 30
0.0
 11
8018.575850972013
 21
850.1434085165582
 31
0.0
  0
LINE
  5
2C9F7
330
747D
100
AcDbEntity
  8
細線
 48
50.0
100
AcDbLine
 10
8091.033115300913
 20
874.1434085165582
 30
0.0
 11
8097.463895919259
 21
850.1434085165582
 31
0.0
  0
LINE
  5
2C9F8
330
747D
100
AcDbEntity
  8
細線
 48
50.0
100
AcDbLine
 10
8242.378424577053
 20
850.1434085165582
 30
0.0
 11
8276.675921208235
 21
978.1434085165566
 31
0.0
  0
LINE
  5
2C9F9
330
747D
100
AcDbEntity
  8
細線
 48
50.0
100
AcDbLine
 10
8084.602334682561
 20
850.1434085165582
 30
0.0
 11
8118.899831313745
 21
978.1434085165566
 31
0.0
  0
LINE
  5
2C9FA
330
747D
100
AcDbEntity
  8
細線
 48
50.0
100
AcDbLine
 10
8005.714289735314
 20
850.1434085165582
 30
0.0
 11
8040.011786366497
 21
978.1434085165583
 31
0.0
  0
LINE
  5
2C9FB
330
747D
100
AcDbEntity
  8
細線
 48
50.0
100
AcDbLine
 10
8163.490379629809
 20
850.1434085165564
 30
0.0
 11
8197.78787626099
 21
978.1434085165566
 31
0.0
  0
LINE
  5
2C9FC
330
747D
100
AcDbEntity
  8
細線
 48
50.0
100
AcDbLine
 10
8288.263145194106
 20
978.1434085165583
 30
0.0
 11
8470.531450239297
 21
1160.411713561754
 31
0.0
  0
LINE
  5
2C9FD
330
747D
100
AcDbEntity
  8
部品1
 48
50.0
100
AcDbLine
 10
8470.531450239297
 20
1218.143408516558
 30
0.0
 11
8470.531450239297
 21
978.1434085165583
 31
0.0
  0
LINE
  5
2C9FE
330
747D
100
AcDbEntity
  8
細線
 48
50.0
100
AcDbLine
 10
8261.322376830904
 20
978.1434085165583
 30
0.0
 11
8470.531450239297
 21
1187.352481924951
 31
0.0
  0
LINE
  5
2C9FF
330
747D
100
AcDbEntity
  8
細線
 48
50.0
100
AcDbLine
 10
8234.381608467691
 20
978.1434085165583
 30
0.0
 11
8470.531450239297
 21
1214.293250288166
 31
0.0
  0
LINE
  5
2CA00
330
747D
100
AcDbEntity
  8
細線
 48
50.0
100
AcDbLine
 10
8018.855461562031
 20
978.1434085165583
 30
0.0
 11
8342.531450239297
 21
1301.819397193824
 31
0.0
  0
LINE
  5
2CA01
330
747D
100
AcDbEntity
  8
細線
 48
50.0
100
AcDbLine
 10
8072.736998288448
 20
978.1434085165583
 30
0.0
 11
8342.531450239297
 21
1247.937860467416
 31
0.0
  0
LINE
  5
2CA02
330
747D
100
AcDbEntity
  8
細線
 48
50.0
100
AcDbLine
 10
8045.796229925242
 20
978.1434085165583
 30
0.0
 11
8342.531450239297
 21
1274.878628830611
 31
0.0
  0
LINE
  5
2CA03
330
747D
100
AcDbEntity
  8
細線
 48
50.0
100
AcDbLine
 10
7800.531450239294
 20
1190.871691005144
 30
0.0
 11
7827.803167750713
 21
1218.143408516558
 31
0.0
  0
LINE
  5
2CA04
330
747D
100
AcDbEntity
  8
部品1
 48
50.0
100
AcDbLine
 10
7800.531450239297
 20
1218.143408516558
 30
0.0
 11
7928.531450239297
 21
1218.143408516558
 31
0.0
  0
LINE
  5
2CA05
330
747D
100
AcDbEntity
  8
細線
 48
50.0
100
AcDbLine
 10
7800.531450239294
 20
1163.930922641934
 30
0.0
 11
7854.743936113923
 21
1218.143408516558
 31
0.0
  0
LWPOLYLINE
  5
2CA06
330
747D
100
AcDbEntity
  8
部品1
 48
50.0
100
AcDbPolyline
 90
        2
 70
     0
 43
8.0
 10
7514.391548406341
 20
1522.143408516559
 10
7928.531450239297
 20
1522.143408516559
  0
LINE
  5
2CA07
330
747D
100
AcDbEntity
  8
細線
 48
50.0
100
AcDbLine
 10
7875.804915853652
 20
954.1434085165583
 30
0.0
 11
7869.374135235304
 21
978.1434085165583
 31
0.0
  0
LINE
  5
2CA08
330
747D
100
AcDbEntity
  8
細線
 48
50.0
100
AcDbLine
 10
7954.692960800904
 20
954.1434085165583
 30
0.0
 11
7948.262180182556
 21
978.1434085165583
 31
0.0
  0
LINE
  5
2CA09
330
747D
100
AcDbEntity
  8
細線
 48
50.0
100
AcDbLine
 10
7796.916870906399
 20
954.1434085165583
 30
0.0
 11
7790.486090288054
 21
978.1434085165583
 31
0.0
  0
LINE
  5
2CA0A
330
747D
100
AcDbEntity
  8
細線
 48
50.0
100
AcDbLine
 10
7720.531450239298
 20
963.4833294823383
 30
0.0
 11
7724.459606577493
 21
978.1434085165583
 31
0.0
  0
LINE
  5
2CA0B
330
747D
100
AcDbEntity
  8
細線
 48
50.0
100
AcDbLine
 10
7854.368980459163
 20
874.1434085165582
 30
0.0
 11
7860.799761077508
 21
850.1434085165582
 31
0.0
  0
LINE
  5
2CA0C
330
747D
100
AcDbEntity
  8
細線
 48
50.0
100
AcDbLine
 10
7933.257025406414
 20
874.1434085165582
 30
0.0
 11
7939.687806024761
 21
850.1434085165582
 31
0.0
  0
LINE
  5
2CA0D
330
747D
100
AcDbEntity
  8
細線
 48
50.0
100
AcDbLine
 10
7775.480935511911
 20
874.1434085165582
 30
0.0
 11
7781.911716130257
 21
850.1434085165582
 31
0.0
  0
LINE
  5
2CA0E
330
747D
100
AcDbEntity
  8
細線
 48
50.0
100
AcDbLine
 10
7926.826244788063
 20
850.1434085165564
 30
0.0
 11
7961.123741419244
 21
978.1434085165566
 31
0.0
  0
LINE
  5
2CA0F
330
747D
100
AcDbEntity
  8
細線
 48
50.0
100
AcDbLine
 10
7769.050154893557
 20
850.1434085165564
 30
0.0
 11
7803.34765152474
 21
978.1434085165566
 31
0.0
  0
LINE
  5
2CA10
330
747D
100
AcDbEntity
  8
部品1
 48
50.0
100
AcDbLine
 10
7720.531450239301
 20
850.1434085165582
 30
0.0
 11
7720.531450239301
 21
978.1434085165583
 31
0.0
  0
LINE
  5
2CA11
330
747D
100
AcDbEntity
  8
細線
 48
50.0
100
AcDbLine
 10
7847.938199840815
 20
850.1434085165582
 30
0.0
 11
7882.235696471998
 21
978.1434085165583
 31
0.0
  0
LINE
  5
2CA12
330
747D
100
AcDbEntity
  8
部品1
 48
50.0
100
AcDbLine
 10
7800.531450239297
 20
978.1434085165583
 30
0.0
 11
7800.531450239297
 21
1218.143408516558
 31
0.0
  0
LINE
  5
2CA13
330
747D
100
AcDbEntity
  8
細線
 48
50.0
100
AcDbLine
 10
7800.531450239294
 20
1136.990154278729
 30
0.0
 11
7881.684704477128
 21
1218.143408516558
 31
0.0
  0
LINE
  5
2CA14
330
747D
100
AcDbEntity
  8
部品1
 48
50.0
100
AcDbLine
 10
8550.531450239303
 20
850.1434085165582
 30
0.0
 11
7720.531450239301
 21
850.1434085165582
 31
0.0
  0
LINE
  5
2CA15
330
747D
100
AcDbEntity
  8
部品1
 48
50.0
100
AcDbLine
 10
8550.531450239303
 20
978.1434085165583
 30
0.0
 11
7720.531450239301
 21
978.1434085165583
 31
0.0
  0
LINE
  5
2CA16
330
747D
100
AcDbEntity
  8
細線
 48
50.0
100
AcDbLine
 10
7803.329314656373
 20
978.1434085165583
 30
0.0
 11
8342.531450239297
 21
1517.345544099484
 31
0.0
  0
LINE
  5
2CA17
330
747D
100
AcDbEntity
  8
細線
 48
50.0
100
AcDbLine
 10
7830.270083019583
 20
978.1434085165583
 30
0.0
 11
8342.531450239301
 21
1490.404775736272
 31
0.0
  0
LINE
  5
2CA18
330
747D
100
AcDbEntity
  8
細線
 48
50.0
100
AcDbLine
 10
7857.210851382788
 20
978.1434085165583
 30
0.0
 11
8342.531450239297
 21
1463.464007373066
 31
0.0
  0
LINE
  5
2CA19
330
747D
100
AcDbEntity
  8
細線
 48
50.0
100
AcDbLine
 10
7928.531450239297
 20
1318.871691005144
 30
0.0
 11
8086.931450239292
 21
1477.271691005139
 31
0.0
  0
LINE
  5
2CA1A
330
747D
100
AcDbEntity
  8
細線
 48
50.0
100
AcDbLine
 10
7928.531450239297
 20
1264.990154278729
 30
0.0
 11
8101.684704477134
 21
1438.143408516556
 31
0.0
  0
LINE
  5
2CA1B
330
747D
100
AcDbEntity
  8
細線
 48
50.0
100
AcDbLine
 10
7928.531450239297
 20
1291.930922641936
 30
0.0
 11
8086.931450239292
 21
1450.330922641925
 31
0.0
  0
LINE
  5
2CA1C
330
747D
100
AcDbEntity
  8
部品1
100
AcDbLine
 10
8086.931450239292
 20
1438.143408516558
 30
0.0
 11
8086.931450239299
 21
1762.143408516558
 31
0.0
  0
LINE
  5
2CA1D
330
747D
100
AcDbEntity
  8
部品1
100
AcDbLine
 10
8212.931450239299
 20
1438.143408516558
 30
0.0
 11
8212.931450239299
 21
1762.143408516558
 31
0.0
  0
LINE
  5
2CA1E
330
747D
100
AcDbEntity
  8
細線
 48
50.0
100
AcDbLine
 10
8212.931450239299
 20
1576.330922641929
 30
0.0
 11
8342.531450239297
 21
1705.930922641926
 31
0.0
  0
LINE
  5
2CA1F
330
747D
100
AcDbEntity
  8
細線
 48
50.0
100
AcDbLine
 10
8212.931450239299
 20
1549.390154278717
 30
0.0
 11
8342.531450239297
 21
1678.990154278708
 31
0.0
  0
LINE
  5
2CA20
330
747D
100
AcDbEntity
  8
部品1
100
AcDbLine
 10
8140.931450239298
 20
1537.143408516558
 30
0.0
 11
8140.931450239296
 21
1811.303408516559
 31
0.0
  0
LINE
  5
2CA21
330
747D
100
AcDbEntity
  8
部品1
100
AcDbLine
 10
8158.931450239299
 20
1537.143408516558
 30
0.0
 11
8158.931450239295
 21
1811.303408516559
 31
0.0
  0
TEXT
  5
2CA22
330
747D
100
AcDbEntity
  8
部品1
 48
50.0
100
AcDbText
 10
7514.391548406341
 20
1533.382400799814
 30
0.0
 40
80.0
  1
▽G.L
  7
STYLE2
100
AcDbText
  0
LINE
  5
2CA23
330
747D
100
AcDbEntity
  8
細線
 48
50.0
100
AcDbLine
 10
7928.531450239297
 20
1480.516301184389
 30
0.0
 11
8086.931450239296
 21
1638.916301184381
 31
0.0
  0
LINE
  5
2CA24
330
747D
100
AcDbEntity
  8
細線
 48
50.0
100
AcDbLine
 10
7928.531450239297
 20
1507.457069547596
 30
0.0
 11
8086.931450239296
 21
1665.857069547594
 31
0.0
  0
LINE
  5
2CA25
330
747D
100
AcDbEntity
  8
細線
 48
50.0
100
AcDbLine
 10
7928.531450239297
 20
1534.397837910804
 30
0.0
 11
8086.931450239296
 21
1692.797837910801
 31
0.0
  0
LINE
  5
2CA26
330
747D
100
AcDbEntity
  8
部品1
 48
50.0
100
AcDbLine
 10
7928.531450239297
 20
1218.143408516558
 30
0.0
 11
7928.531450239297
 21
1762.143408516558
 31
0.0
  0
LINE
  5
2CA27
330
747D
100
AcDbEntity
  8
部品1
100
AcDbLine
 10
8342.531450239297
 20
1218.143408516558
 30
0.0
 11
8342.531450239297
 21
1762.143408516558
 31
0.0
  0
LINE
  5
2CA28
330
747D
100
AcDbEntity
  8
細線
 48
50.0
100
AcDbLine
 10
8212.931450239299
 20
1603.271691005147
 30
0.0
 11
8342.531450239297
 21
1732.871691005145
 31
0.0
  0
LINE
  5
2CA29
330
747D
100
AcDbEntity
  8
細線
 48
50.0
100
AcDbLine
 10
6336.984559564575
 20
1642.890260413274
 30
0.0
 11
6420.492137062105
 21
1726.397837910804
 31
0.0
  0
LINE
  5
2CA2A
330
747D
100
AcDbEntity
  8
細線
 48
50.0
100
AcDbLine
 10
6348.044844328091
 20
1627.00977681358
 30
0.0
 11
6420.492137062105
 21
1699.457069547596
 31
0.0
  0
LINE
  5
2CA2B
330
747D
100
AcDbEntity
  8
細線
 48
50.0
100
AcDbLine
 10
6228.492137062104
 20
1749.923984816463
 30
0.0
 11
6240.7115607622
 21
1762.143408516558
 31
0.0
  0
LINE
  5
2CA2C
330
747D
100
AcDbEntity
  8
細線
 48
50.0
100
AcDbLine
 10
6228.492137062104
 20
1696.042448090048
 30
0.0
 11
6294.593097488615
 21
1762.143408516558
 31
0.0
  0
LINE
  5
2CA2D
330
747D
100
AcDbEntity
  8
細線
 48
50.0
100
AcDbLine
 10
6228.492137062104
 20
1722.983216453256
 30
0.0
 11
6267.652329125409
 21
1762.143408516558
 31
0.0
  0
LINE
  5
2CA2E
330
747D
100
AcDbEntity
  8
部品1
 48
50.0
100
AcDbLine
 10
6228.492137062104
 20
1762.143408516558
 30
0.0
 11
6420.492137062105
 21
1762.143408516558
 31
0.0
  0
DIMENSION
  5
2CA2F
330
747D
100
AcDbEntity
  8
寸法
 48
50.0
100
AcDbDimension
  2
*D54
 10
6228.492137062104
 20
2181.811216432939
 30
0.0
 11
6324.492137062105
 21
2181.811216432939
 31
0.0
 70
   160
  1
120\P200\P280
 71
     5
 42
192.0
  3
INABA_S40G
100
AcDbAlignedDimension
 13
6420.492137062104
 23
1762.143408516558
 33
0.0
 14
6228.492137062104
 24
1762.143408516558
 34
0.0
100
AcDbRotatedDimension
1001
ACAD
1000
DSTYLE
1002
{
1070
   341
1005
0
1002
}
  0
MTEXT
  5
2CA30
102
{ACAD_REACTORS
330
2CA85
102
}
330
747D
100
AcDbEntity
  8
寸法
 62
     7
 48
50.0
100
AcDbMText
 10
6662.230592923354
 20
800.7943227844052
 30
0.0
 40
80.0
 41
0.8
 71
     4
 72
     1
  1
\A1;D10@300
  7
STYLE2
 73
     1
 44
1.0
1001
ACAD
1000
MTEXTBEGIN
1070
    73
1070
     1
1070
    44
1040
1.0
1070
    74
1070
     0
1000
MTEXTEND
  0
LINE
  5
2CA31
330
747D
100
AcDbEntity
  8
細線
 48
50.0
100
AcDbLine
 10
6348.492137062111
 20
1411.930922641939
 30
0.0
 11
6420.492137062097
 21
1483.930922641933
 31
0.0
  0
LINE
  5
2CA32
330
747D
100
AcDbEntity
  8
細線
 48
50.0
100
AcDbLine
 10
6348.492137062105
 20
1438.871691005144
 30
0.0
 11
6420.492137062105
 21
1510.871691005144
 31
0.0
  0
LINE
  5
2CA33
330
747D
100
AcDbEntity
  8
細線
 48
50.0
100
AcDbLine
 10
6348.492137062111
 20
1169.464007373069
 30
0.0
 11
6420.492137062097
 21
1241.46400737307
 31
0.0
  0
LINE
  5
2CA34
330
747D
100
AcDbEntity
  8
細線
 48
50.0
100
AcDbLine
 10
6348.492137062111
 20
1223.345544099487
 30
0.0
 11
6420.492137062097
 21
1295.345544099484
 31
0.0
  0
LINE
  5
2CA35
330
747D
100
AcDbEntity
  8
細線
 48
50.0
100
AcDbLine
 10
6348.492137062111
 20
1196.404775736279
 30
0.0
 11
6420.492137062097
 21
1268.404775736274
 31
0.0
  0
LINE
  5
2CA36
330
747D
100
AcDbEntity
  8
部品1
 48
50.0
100
AcDbLine
 10
6420.492137062105
 20
1218.143408516558
 30
0.0
 11
6548.492137062105
 21
1218.143408516558
 31
0.0
  0
LINE
  5
2CA37
330
747D
100
AcDbEntity
  8
細線
 48
50.0
100
AcDbLine
 10
6348.492137062111
 20
1384.990154278729
 30
0.0
 11
6420.492137062097
 21
1456.990154278729
 31
0.0
  0
LINE
  5
2CA38
330
747D
100
AcDbEntity
  8
部品1
 48
50.0
100
AcDbLine
 10
6316.492137062105
 20
1564.27062321368
 30
0.0
 11
6316.492137062105
 21
1622.397837910804
 31
0.0
  0
LINE
  5
2CA39
330
747D
100
AcDbEntity
  8
細線
 48
50.0
100
AcDbLine
 10
6228.492137062104
 20
1534.397837910804
 30
0.0
 11
6300.492137062105
 21
1606.397837910804
 31
0.0
  0
LINE
  5
2CA3A
330
747D
100
AcDbEntity
  8
部品1
 48
50.0
100
AcDbLine
 10
6300.492137062105
 20
1564.270623213684
 30
0.0
 11
6300.492137062105
 21
1622.397837910804
 31
0.0
  0
LINE
  5
2CA3B
330
747D
100
AcDbEntity
  8
細線
 48
50.0
100
AcDbLine
 10
6228.492137062104
 20
1507.457069547596
 30
0.0
 11
6300.492137062105
 21
1579.457069547596
 31
0.0
  0
LINE
  5
2CA3C
330
747D
100
AcDbEntity
  8
細線
 48
50.0
100
AcDbLine
 10
6228.492137062104
 20
1480.516301184389
 30
0.0
 11
6312.246459091398
 21
1564.27062321368
 31
0.0
  0
LINE
  5
2CA3D
330
747D
100
AcDbEntity
  8
部品1
 48
50.0
100
AcDbLine
 10
6316.492137062105
 20
1564.27062321368
 30
0.0
 11
6300.492137062105
 21
1564.270623213684
 31
0.0
  0
LINE
  5
2CA3E
330
747D
100
AcDbEntity
  8
細線
 48
50.0
100
AcDbLine
 10
6100.492137062097
 20
1190.871691005144
 30
0.0
 11
6127.763854573519
 21
1218.143408516558
 31
0.0
  0
LINE
  5
2CA3F
330
747D
100
AcDbEntity
  8
細線
 48
50.0
100
AcDbLine
 10
6100.492137062097
 20
1163.930922641934
 30
0.0
 11
6154.70462293673
 21
1218.143408516558
 31
0.0
  0
LINE
  5
2CA40
330
747D
100
AcDbEntity
  8
部品1
 48
50.0
100
AcDbLine
 10
6100.492137062104
 20
1218.143408516558
 30
0.0
 11
6228.492137062104
 21
1218.143408516558
 31
0.0
  0
LINE
  5
2CA41
330
747D
100
AcDbEntity
  8
細線
 48
50.0
100
AcDbLine
 10
6316.492137062105
 20
1595.457069547596
 30
0.0
 11
6332.492137062105
 21
1611.457069547595
 31
0.0
  0
LINE
  5
2CA42
330
747D
100
AcDbEntity
  8
細線
 48
50.0
100
AcDbLine
 10
6316.492137062105
 20
1568.516301184389
 30
0.0
 11
6332.492137062105
 21
1584.516301184389
 31
0.0
  0
LINE
  5
2CA43
330
747D
100
AcDbEntity
  8
細線
 48
50.0
100
AcDbLine
 10
6228.492137062104
 20
1264.990154278729
 30
0.0
 11
6332.492137062111
 21
1368.990154278729
 31
0.0
  0
LINE
  5
2CA44
330
747D
100
AcDbEntity
  8
細線
 48
50.0
100
AcDbLine
 10
6228.492137062104
 20
1318.871691005144
 30
0.0
 11
6332.492137062105
 21
1422.871691005144
 31
0.0
  0
LINE
  5
2CA45
330
747D
100
AcDbEntity
  8
細線
 48
50.0
100
AcDbLine
 10
6228.492137062104
 20
1291.930922641936
 30
0.0
 11
6332.492137062111
 21
1395.930922641939
 31
0.0
  0
LINE
  5
2CA46
330
747D
100
AcDbEntity
  8
細線
 48
50.0
100
AcDbLine
 10
6491.317782465452
 20
954.1434085165583
 30
0.0
 11
6484.887001847106
 21
978.1434085165583
 31
0.0
  0
LINE
  5
2CA47
330
747D
100
AcDbEntity
  8
細線
 48
50.0
100
AcDbLine
 10
6534.342295290499
 20
978.1434085165583
 30
0.0
 11
6548.492137062105
 21
992.2932502881648
 31
0.0
  0
LINE
  5
2CA48
330
747D
100
AcDbEntity
  8
細線
 48
50.0
100
AcDbLine
 10
6570.205827412699
 20
954.1434085165583
 30
0.0
 11
6563.775046794352
 21
978.1434085165583
 31
0.0
  0
LINE
  5
2CA49
330
747D
100
AcDbEntity
  8
部品1
 48
50.0
100
AcDbLine
 10
6492.492137062105
 20
1090.143408516558
 30
0.0
 11
6492.492137062105
 21
1074.143408516558
 31
0.0
  0
LINE
  5
2CA4A
330
747D
100
AcDbEntity
  8
細線
 48
50.0
100
AcDbLine
 10
6372.697685111252
 20
978.1434085165583
 30
0.0
 11
6468.69857295639
 21
1074.144296361697
 31
0.0
  0
LINE
  5
2CA4B
330
747D
100
AcDbEntity
  8
細線
 48
50.0
100
AcDbLine
 10
6345.756916748048
 20
978.1434085165583
 30
0.0
 11
6441.756916748049
 21
1074.143408516558
 31
0.0
  0
LINE
  5
2CA4C
330
747D
100
AcDbEntity
  8
細線
 48
50.0
100
AcDbLine
 10
6412.429737518206
 20
954.1434085165583
 30
0.0
 11
6405.99895689986
 21
978.1434085165583
 31
0.0
  0
LINE
  5
2CA4D
330
747D
100
AcDbEntity
  8
細線
 48
50.0
100
AcDbLine
 10
6333.541692570961
 20
954.1434085165583
 30
0.0
 11
6327.110911952614
 21
978.1434085165583
 31
0.0
  0
ARC
  5
2CA4E
330
747D
100
AcDbEntity
  8
部品1
 48
50.0
100
AcDbCircle
 10
6324.492137062105
 20
1098.143408516558
 30
0.0
 40
24.0
100
AcDbArc
 50
340.5287793655272
 51
0.0
  0
CIRCLE
  5
2CA4F
330
747D
100
AcDbEntity
  8
部品1
 48
50.0
100
AcDbCircle
 10
6452.492137062106
 20
1098.143408516558
 30
0.0
 40
8.0
  0
LINE
  5
2CA50
330
747D
100
AcDbEntity
  8
細線
 48
50.0
100
AcDbLine
 10
6484.697685111253
 20
1090.143408516558
 30
0.0
 11
6548.492137062105
 21
1153.937860467409
 31
0.0
  0
LINE
  5
2CA51
330
747D
100
AcDbEntity
  8
細線
 48
50.0
100
AcDbLine
 10
6621.227156347107
 20
850.1434085165564
 30
0.0
 11
6628.492137062105
 21
877.2566856609465
 31
0.0
  0
LINE
  5
2CA52
330
747D
100
AcDbEntity
  8
細線
 48
50.0
100
AcDbLine
 10
6627.657936965457
 20
874.1434085165582
 30
0.0
 11
6628.492137062105
 21
871.0301313721938
 31
0.0
  0
LINE
  5
2CA53
330
747D
100
AcDbEntity
  8
細線
 48
50.0
100
AcDbLine
 10
6548.76989201821
 20
874.1434085165582
 30
0.0
 11
6555.200672636558
 21
850.1434085165582
 31
0.0
  0
LINE
  5
2CA54
330
747D
100
AcDbEntity
  8
細線
 48
50.0
100
AcDbLine
 10
6390.993802123717
 20
874.1434085165582
 30
0.0
 11
6397.424582742064
 21
850.1434085165582
 31
0.0
  0
LINE
  5
2CA55
330
747D
100
AcDbEntity
  8
細線
 48
50.0
100
AcDbLine
 10
6469.881847070962
 20
874.1434085165582
 30
0.0
 11
6476.31262768931
 21
850.1434085165582
 31
0.0
  0
LINE
  5
2CA56
330
747D
100
AcDbEntity
  8
細線
 48
50.0
100
AcDbLine
 10
6463.451066452613
 20
850.1434085165564
 30
0.0
 11
6497.748563083799
 21
978.1434085165566
 31
0.0
  0
LINE
  5
2CA57
330
747D
100
AcDbEntity
  8
細線
 48
50.0
100
AcDbLine
 10
6384.563021505364
 20
850.1434085165582
 30
0.0
 11
6418.860518136551
 21
978.1434085165566
 31
0.0
  0
LINE
  5
2CA58
330
747D
100
AcDbEntity
  8
細線
 48
50.0
100
AcDbLine
 10
6542.339111399859
 20
850.1434085165582
 30
0.0
 11
6576.636608031043
 21
978.1434085165566
 31
0.0
  0
LINE
  5
2CA59
330
747D
100
AcDbEntity
  8
部品1
 48
50.0
100
AcDbLine
 10
6628.492137062109
 20
978.1434085165583
 30
0.0
 11
6628.492137062109
 21
850.1434085165582
 31
0.0
  0
LINE
  5
2CA5A
330
747D
100
AcDbEntity
  8
部品1
 48
50.0
100
AcDbLine
 10
6316.492137062105
 20
1156.27062321368
 30
0.0
 11
6316.492137062105
 21
1098.143408516558
 31
0.0
  0
LINE
  5
2CA5B
330
747D
100
AcDbEntity
  8
細線
 48
50.0
100
AcDbLine
 10
6242.230769842389
 20
1090.143408516558
 30
0.0
 11
6300.492137062105
 21
1148.404775736277
 31
0.0
  0
LINE
  5
2CA5C
330
747D
100
AcDbEntity
  8
部品1
 48
50.0
100
AcDbLine
 10
6300.492137062105
 20
1156.27062321368
 30
0.0
 11
6300.492137062105
 21
1098.143408516558
 31
0.0
  0
LINE
  5
2CA5D
330
747D
100
AcDbEntity
  8
細線
 48
50.0
100
AcDbLine
 10
6157.171538205593
 20
978.1434085165583
 30
0.0
 11
6253.171538205593
 21
1074.143408516558
 31
0.0
  0
LINE
  5
2CA5E
330
747D
100
AcDbEntity
  8
細線
 48
50.0
100
AcDbLine
 10
6254.653647623708
 20
954.1434085165583
 30
0.0
 11
6248.222867005363
 21
978.1434085165583
 31
0.0
  0
LINE
  5
2CA5F
330
747D
100
AcDbEntity
  8
細線
 48
50.0
100
AcDbLine
 10
6175.765602676456
 20
954.1434085165583
 30
0.0
 11
6169.33482205811
 21
978.1434085165583
 31
0.0
  0
ARC
  5
2CA60
330
747D
100
AcDbEntity
  8
部品1
 48
50.0
100
AcDbCircle
 10
6324.492137062105
 20
1098.143408516558
 30
0.0
 40
24.0
100
AcDbArc
 50
180.0
 51
199.4712206344728
  0
LINE
  5
2CA61
330
747D
100
AcDbEntity
  8
細線
 48
50.0
100
AcDbLine
 10
6269.171538205593
 20
1090.143408516558
 30
0.0
 11
6300.492137062105
 21
1121.464007373069
 31
0.0
  0
CIRCLE
  5
2CA62
330
747D
100
AcDbEntity
  8
部品1
 48
50.0
100
AcDbCircle
 10
6196.492137062104
 20
1098.143408516558
 30
0.0
 40
8.0
  0
LINE
  5
2CA63
330
747D
100
AcDbEntity
  8
部品1
 48
50.0
100
AcDbLine
 10
6316.492137062105
 20
1156.27062321368
 30
0.0
 11
6300.492137062105
 21
1156.27062321368
 31
0.0
  0
LINE
  5
2CA64
330
747D
100
AcDbEntity
  8
細線
 48
50.0
100
AcDbLine
 10
6020.492137062105
 20
963.4833294823383
 30
0.0
 11
6024.4202934003
 21
978.1434085165583
 31
0.0
  0
LINE
  5
2CA65
330
747D
100
AcDbEntity
  8
細線
 48
50.0
100
AcDbLine
 10
6096.877557729206
 20
954.1434085165583
 30
0.0
 11
6090.446777110858
 21
978.1434085165583
 31
0.0
  0
LINE
  5
2CA66
330
747D
100
AcDbEntity
  8
部品1
 48
50.0
100
AcDbLine
 10
6156.492137062105
 20
1090.143408516558
 30
0.0
 11
6156.492137062105
 21
1074.143408516558
 31
0.0
  0
LINE
  5
2CA67
330
747D
100
AcDbEntity
  8
細線
 48
50.0
100
AcDbLine
 10
6103.290001479177
 20
978.1434085165583
 30
0.0
 11
6199.290001479178
 21
1074.143408516558
 31
0.0
  0
LINE
  5
2CA68
330
747D
100
AcDbEntity
  8
細線
 48
50.0
100
AcDbLine
 10
6130.230769842388
 20
978.1434085165583
 30
0.0
 11
6226.230769842388
 21
1074.143408516558
 31
0.0
  0
LINE
  5
2CA69
330
747D
100
AcDbEntity
  8
細線
 48
50.0
100
AcDbLine
 10
6233.21771222922
 20
874.1434085165582
 30
0.0
 11
6239.648492847566
 21
850.1434085165582
 31
0.0
  0
LINE
  5
2CA6A
330
747D
100
AcDbEntity
  8
細線
 48
50.0
100
AcDbLine
 10
6312.105757176472
 20
874.1434085165582
 30
0.0
 11
6318.536537794819
 21
850.1434085165582
 31
0.0
  0
LINE
  5
2CA6B
330
747D
100
AcDbEntity
  8
細線
 48
50.0
100
AcDbLine
 10
6075.441622334716
 20
874.1434085165582
 30
0.0
 11
6081.872402953062
 21
850.1434085165582
 31
0.0
  0
LINE
  5
2CA6C
330
747D
100
AcDbEntity
  8
細線
 48
50.0
100
AcDbLine
 10
6154.329667281967
 20
874.1434085165582
 30
0.0
 11
6160.760447900315
 21
850.1434085165582
 31
0.0
  0
LINE
  5
2CA6D
330
747D
100
AcDbEntity
  8
部品1
 48
50.0
100
AcDbLine
 10
6020.492137062107
 20
850.1434085165582
 30
0.0
 11
6020.492137062107
 21
978.1434085165583
 31
0.0
  0
LINE
  5
2CA6E
330
747D
100
AcDbEntity
  8
細線
 48
50.0
100
AcDbLine
 10
6069.010841716362
 20
850.1434085165564
 30
0.0
 11
6103.308338347545
 21
978.1434085165566
 31
0.0
  0
LINE
  5
2CA6F
330
747D
100
AcDbEntity
  8
細線
 48
50.0
100
AcDbLine
 10
6226.786931610867
 20
850.1434085165564
 30
0.0
 11
6261.08442824205
 21
978.1434085165566
 31
0.0
  0
LINE
  5
2CA70
330
747D
100
AcDbEntity
  8
細線
 48
50.0
100
AcDbLine
 10
6147.898886663621
 20
850.1434085165582
 30
0.0
 11
6182.196383294805
 21
978.1434085165583
 31
0.0
  0
LINE
  5
2CA71
330
747D
100
AcDbEntity
  8
細線
 48
50.0
100
AcDbLine
 10
6318.816148384838
 20
978.1434085165583
 30
0.0
 11
6414.816148384838
 21
1074.143408516558
 31
0.0
  0
CIRCLE
  5
2CA72
330
747D
100
AcDbEntity
  8
部品1
 48
50.0
100
AcDbCircle
 10
6324.492137062105
 20
1098.143408516558
 30
0.0
 40
8.0
  0
LINE
  5
2CA73
330
747D
100
AcDbEntity
  8
部品1
 48
50.0
100
AcDbLine
 10
6628.492137062109
 20
978.1434085165583
 30
0.0
 11
6020.492137062107
 21
978.1434085165583
 31
0.0
  0
LINE
  5
2CA74
330
747D
100
AcDbEntity
  8
部品1
 48
50.0
100
AcDbLine
 10
6156.492137062105
 20
1090.143408516558
 30
0.0
 11
6492.492137062105
 21
1090.143408516558
 31
0.0
  0
LINE
  5
2CA75
330
747D
100
AcDbEntity
  8
部品1
 48
50.0
100
AcDbLine
 10
6156.492137062105
 20
1074.143408516558
 30
0.0
 11
6492.492137062105
 21
1074.143408516558
 31
0.0
  0
LINE
  5
2CA76
330
747D
100
AcDbEntity
  8
部品1
 48
50.0
100
AcDbLine
 10
6628.492137062109
 20
850.1434085165582
 30
0.0
 11
6020.492137062107
 21
850.1434085165582
 31
0.0
  0
LINE
  5
2CA77
330
747D
100
AcDbEntity
  8
細線
 48
50.0
100
AcDbLine
 10
6305.674976558119
 20
850.1434085165582
 30
0.0
 11
6339.972473189302
 21
978.1434085165583
 31
0.0
  0
LINE
  5
2CA78
330
747D
100
AcDbEntity
  8
細線
 48
50.0
100
AcDbLine
 10
6316.492137062105
 20
1137.464007373069
 30
0.0
 11
6332.492137062111
 21
1153.464007373069
 31
0.0
  0
LINE
  5
2CA79
330
747D
100
AcDbEntity
  8
部品1
 48
50.0
100
AcDbLine
 10
6332.492137062111
 20
1098.143408516558
 30
0.0
 11
6332.492137062097
 21
1622.397837910804
 31
0.0
  0
LINE
  5
2CA7A
330
747D
100
AcDbEntity
  8
部品1
 48
50.0
100
AcDbLine
 10
6348.492137062111
 20
1098.143408516558
 30
0.0
 11
6348.492137062105
 21
1622.397837910804
 31
0.0
  0
LINE
  5
2CA7B
330
747D
100
AcDbEntity
  8
部品1
 48
50.0
100
AcDbLine
 10
6548.492137062105
 20
1218.143408516558
 30
0.0
 11
6548.492137062105
 21
978.1434085165583
 31
0.0
  0
LINE
  5
2CA7C
330
747D
100
AcDbEntity
  8
細線
 48
50.0
100
AcDbLine
 10
6430.816148384832
 20
1090.143408516558
 30
0.0
 11
6548.492137062105
 21
1207.819397193824
 31
0.0
  0
LINE
  5
2CA7D
330
747D
100
AcDbEntity
  8
細線
 48
50.0
100
AcDbLine
 10
6457.756916748049
 20
1090.143408516558
 30
0.0
 11
6548.492137062105
 21
1180.878628830617
 31
0.0
  0
LINE
  5
2CA7E
330
747D
100
AcDbEntity
  8
部品1
 48
50.0
100
AcDbLine
 10
6100.492137062104
 20
978.1434085165583
 30
0.0
 11
6100.492137062104
 21
1218.143408516558
 31
0.0
  0
LINE
  5
2CA7F
330
747D
100
AcDbEntity
  8
細線
 48
50.0
100
AcDbLine
 10
6215.290001479178
 20
1090.143408516558
 30
0.0
 11
6332.492137062105
 21
1207.345544099484
 31
0.0
  0
LINE
  5
2CA80
330
747D
100
AcDbEntity
  8
細線
 48
50.0
100
AcDbLine
 10
6308.357984539509
 20
1156.27062321368
 30
0.0
 11
6332.492137062111
 21
1180.404775736279
 31
0.0
  0
LINE
  5
2CA81
330
747D
100
AcDbEntity
  8
細線
 48
50.0
100
AcDbLine
 10
6100.492137062097
 20
1136.990154278729
 30
0.0
 11
6181.645391299934
 21
1218.143408516558
 31
0.0
  0
LEADER
  5
2CA82
330
747D
100
AcDbEntity
  8
寸法
 48
50.0
100
AcDbLeader
  3
INABA_S50G
 71
     0
 73
     0
 74
     0
 75
     1
 40
100.0
 41
222.7272727272727
 76
     3
 10
6324.492137062105
 20
1622.397837910804
 30
0.0
 10
6378.378074089499
 20
1721.633410763978
 30
0.0
 10
6503.3780740895
 20
1721.633410763978
 30
0.0
1001
ACAD
1000
DSTYLE
1002
{
1070
    40
1040
1.0
1070
   272
1070
     1
1070
   279
1070
     1
1070
   341
1005
0
1002
}
  0
LWPOLYLINE
  5
2CA83
330
747D
100
AcDbEntity
  8
部品1
 48
50.0
100
AcDbPolyline
 90
        2
 70
     0
 43
8.0
 10
6420.492137062104
 20
1522.143408516559
 10
6834.632038895062
 20
1522.143408516559
  0
MTEXT
  5
2CA84
102
{ACAD_REACTORS
330
2CA86
102
}
330
747D
100
AcDbEntity
  8
寸法
 62
     7
 48
50.0
100
AcDbMText
 10
6651.819796868789
 20
1062.746339573586
 30
0.0
 40
80.0
 41
0.8
 71
     4
 72
     1
  1
D10
  7
STYLE2
 73
     1
 44
1.0
1001
ACAD
1000
MTEXTBEGIN
1070
    73
1070
     1
1070
    44
1040
1.0
1070
    74
1070
     0
1000
MTEXTEND
  0
LEADER
  5
2CA85
330
747D
100
AcDbEntity
  8
寸法
 48
50.0
100
AcDbLeader
  3
INABA_S50G
 71
     0
 73
     0
 74
     0
 75
     1
 40
100.0
 41
540.3409090909091
 76
     3
 10
6398.437306075279
 20
1081.402878103033
 30
0.0
 10
6517.230592923356
 20
739.7720601081354
 30
0.0
 10
6642.230592923356
 20
739.7720601081354
 30
0.0
213
0.0
223
-1.022262676269383
233
0.0
1001
ACAD
1000
DSTYLE
1002
{
1070
    40
1040
1.0
1070
   272
1070
     1
1070
   279
1070
     1
1070
   341
1005
0
1002
}
  0
LEADER
  5
2CA86
330
747D
100
AcDbEntity
  8
寸法
 48
50.0
100
AcDbLeader
  3
INABA_S50G
 71
     0
 73
     0
 74
     0
 75
     1
 40
100.0
 41
225.0
 76
     3
 10
6452.395089414247
 20
1098.143408516558
 30
0.0
 10
6506.819796868789
 20
1002.746339573586
 30
0.0
 10
6631.819796868789
 20
1002.746339573586
 30
0.0
1001
ACAD
1000
DSTYLE
1002
{
1070
    40
1040
1.0
1070
   272
1070
     1
1070
   279
1070
     1
1070
   341
1005
0
1002
}
  0
MTEXT
  5
2CA87
102
{ACAD_REACTORS
330
2CA82
102
}
330
747D
100
AcDbEntity
  8
寸法
 62
     7
 48
50.0
100
AcDbMText
 10
6503.3780740895
 20
1784.699307809369
 30
0.0
 40
80.0
 41
0.8
 71
     4
 72
     1
  1
D13
  7
STYLE2
 73
     1
 44
1.0
1001
ACAD
1000
MTEXTBEGIN
1070
    73
1070
     1
1070
    44
1040
1.0
1070
    74
1070
     0
1000
MTEXTEND
  0
LINE
  5
2CA88
330
747D
100
AcDbEntity
  8
部品1
 48
50.0
100
AcDbLine
 10
6420.492137062105
 20
1762.143408516558
 30
0.0
 11
6420.492137062105
 21
1218.143408516558
 31
0.0
  0
LINE
  5
2CA89
330
747D
100
AcDbEntity
  8
部品1
 48
50.0
100
AcDbLine
 10
6228.492137062104
 20
1218.143408516558
 30
0.0
 11
6228.492137062104
 21
1762.143408516558
 31
0.0
  0
CIRCLE
  5
2CA8A
330
747D
100
AcDbEntity
  8
部品1
 48
50.0
100
AcDbCircle
 10
6324.492137062105
 20
1622.397837910804
 30
0.0
 40
8.0
  0
ARC
  5
2CA8B
330
747D
100
AcDbEntity
  8
部品1
 48
50.0
100
AcDbCircle
 10
6324.492137062105
 20
1622.397837910804
 30
0.0
 40
24.0
100
AcDbArc
 50
0.0
 51
180.0
  0
LINE
  5
2CA8C
330
747D
100
AcDbEntity
  8
細線
 48
50.0
100
AcDbLine
 10
6348.492137062105
 20
1600.516301184389
 30
0.0
 11
6420.492137062105
 21
1672.516301184389
 31
0.0
  0
LEADER
  5
2CA8D
330
747D
100
AcDbEntity
  8
寸法
 48
50.0
100
AcDbLeader
  3
INABA_S50G
 73
     0
 75
     1
 40
106.3636363636363
 41
893.1818181818181
 76
     3
 10
8059.931450239298
 20
1831.70340851656
 30
0.0
 10
8011.507377894359
 20
2205.762983232892
 30
0.0
 10
7886.50737789436
 20
2205.762983232892
 30
0.0
340
2CA8E
1001
ACAD
1000
DSTYLE
1002
{
1070
   341
1005
0
1070
    40
1040
1.0
1070
   343
1005
0
1070
   344
1005
0
1002
}
  0
MTEXT
  5
2CA8E
102
{ACAD_REACTORS
330
2CA8D
102
}
330
747D
100
AcDbEntity
  8
寸法
 62
     7
 48
50.0
100
AcDbMText
 10
7861.507377894359
 20
2283.94480141471
 30
0.0
 40
80.0
 41
0.8
 71
     6
 72
     1
  1
\A1;アンカープレート L
  7
STYLE2
 73
     1
 44
1.0
1001
ACAD
1000
MTEXTBEGIN
1070
    73
1070
     1
1070
    44
1040
1.0
1070
    74
1070
     0
1000
MTEXTEND
  0
DIMENSION
  5
2CA8F
330
747D
100
AcDbEntity
  8
寸法
 48
50.0
100
AcDbDimension
  2
*D49
 10
6548.492137062104
 20
439.7137705113983
 30
0.0
 11
6304.395378383881
 21
439.7137705113983
 31
0.0
 70
   160
  1
300
 71
     5
 42
448.0
  3
INABA_S40G
100
AcDbAlignedDimension
 13
6100.492137062104
 23
850.1434085165582
 33
0.0
 14
6548.492137062104
 24
850.1434085165582
 34
0.0
100
AcDbRotatedDimension
1001
ACAD
1000
DSTYLE
1002
{
1070
   341
1005
0
1002
}
  0
MTEXT
  5
2CA90
102
{ACAD_REACTORS
330
2CA98
102
}
330
747D
100
AcDbEntity
  8
寸法
 62
     7
 48
50.0
100
AcDbMText
 10
5929.55711086691
 20
894.6207148981221
 30
0.0
 40
80.0
 41
0.8
 71
     6
 72
     1
  1
D10
  7
STYLE2
 73
     1
 44
1.0
1001
ACAD
1000
MTEXTBEGIN
1070
    73
1070
     1
1070
    44
1040
1.0
1070
    74
1070
     0
1000
MTEXTEND
  0
MTEXT
  5
2CA91
102
{ACAD_REACTORS
330
2CA97
102
}
330
747D
100
AcDbEntity
  8
寸法
 62
     7
 48
50.0
100
AcDbMText
 10
5957.679838424344
 20
714.3045623586786
 30
0.0
 40
80.0
 41
0.8
 71
     6
 72
     1
  1
D13
  7
STYLE2
 73
     1
 44
1.0
1001
ACAD
1000
MTEXTBEGIN
1070
    73
1070
     1
1070
    44
1040
1.0
1070
    74
1070
     0
1000
MTEXTEND
  0
DIMENSION
  5
2CA92
330
747D
100
AcDbEntity
  8
寸法
 48
50.0
100
AcDbDimension
  2
*D50
 10
5493.454898500363
 20
978.1434085165583
 30
0.0
 11
5493.454898500363
 21
1349.683558172559
 31
0.0
 70
   160
  1
540
 71
     5
 42
784.0
  3
INABA_S40G
100
AcDbAlignedDimension
 13
6228.492137062104
 23
1762.143408516558
 33
0.0
 14
6020.492137062108
 24
978.1434085165583
 34
0.0
 50
90.0
100
AcDbRotatedDimension
1001
ACAD
1000
DSTYLE
1002
{
1070
   341
1005
0
1002
}
  0
MTEXT
  5
2CA93
102
{ACAD_REACTORS
330
2CA94
102
}
330
747D
100
AcDbEntity
  8
寸法
 62
     7
 48
50.0
100
AcDbMText
 10
6008.393657578832
 20
1974.6596285186
 30
0.0
 40
80.0
 41
0.8
 71
     6
 72
     1
  1
\A1;金コテ押エ
  7
STYLE2
 73
     1
 44
1.0
1001
ACAD
1000
MTEXTBEGIN
1070
    73
1070
     1
1070
    44
1040
1.0
1070
    74
1070
     0
1000
MTEXTEND
  0
LEADER
  5
2CA94
330
747D
100
AcDbEntity
  8
寸法
 48
50.0
100
AcDbLeader
  3
INABA_S50G
 71
     0
 73
     0
 75
     1
 40
130.1136363636363
 41
651.1363636363636
 76
     3
 10
6308.492137062104
 20
1762.143408516558
 30
0.0
 10
6196.067556898088
 20
1902.614173973146
 30
0.0
 10
6071.067556898088
 20
1902.614173973146
 30
0.0
1001
ACAD
1000
DSTYLE
1002
{
1070
    40
1040
1.0
1070
   272
1070
     1
1070
   279
1070
     1
1070
   341
1005
0
1002
}
  0
LEADER
  5
2CA95
330
747D
100
AcDbEntity
  8
寸法
 48
50.0
100
AcDbLeader
  3
INABA_S50G
 71
     0
 73
     0
 75
     1
 40
100.0
 41
540.3409090909091
 76
     3
 10
6332.492137062104
 20
1520.270623213681
 30
0.0
 10
6274.509900533406
 20
1298.800294672876
 30
0.0
 10
6149.509900533406
 20
1298.800294672876
 30
0.0
213
-9.732182305893367
223
-4.643716661138569
233
0.0
1001
ACAD
1000
DSTYLE
1002
{
1070
    40
1040
1.0
1070
   272
1070
     1
1070
   279
1070
     1
1070
   341
1005
0
1002
}
  0
MTEXT
  5
2CA96
102
{ACAD_REACTORS
330
2CA95
102
}
330
747D
100
AcDbEntity
  8
寸法
 62
     7
 48
50.0
100
AcDbMText
 10
6139.2420828393
 20
1363.444011334015
 30
0.0
 40
80.0
 41
0.8
 71
     6
 72
     1
  1
\A1;D10@300
  7
STYLE2
 73
     1
 44
1.0
1001
ACAD
1000
MTEXTBEGIN
1070
    73
1070
     1
1070
    44
1040
1.0
1070
    74
1070
     0
1000
MTEXTEND
  0
LEADER
  5
2CA97
330
747D
100
AcDbEntity
  8
寸法
 48
50.0
100
AcDbLeader
  3
INABA_S50G
 71
     0
 73
     0
 75
     1
 40
100.0
 41
222.7272727272727
 76
     3
 10
6324.492137062105
 20
1098.143408516558
 30
0.0
 10
6102.679838424345
 20
654.3045623586785
 30
0.0
 10
5977.679838424345
 20
654.3045623586785
 30
0.0
1001
ACAD
1000
DSTYLE
1002
{
1070
    40
1040
1.0
1070
   272
1070
     1
1070
   279
1070
     1
1070
   341
1005
0
1002
}
  0
LEADER
  5
2CA98
330
747D
100
AcDbEntity
  8
寸法
 48
50.0
100
AcDbLeader
  3
INABA_S50G
 71
     0
 73
     0
 75
     1
 40
100.0
 41
225.0
 76
     3
 10
6196.395089414247
 20
1098.143408516558
 30
0.0
 10
6074.55711086691
 20
834.6207148981219
 30
0.0
 10
5949.55711086691
 20
834.6207148981219
 30
0.0
1001
ACAD
1000
DSTYLE
1002
{
1070
    40
1040
1.0
1070
   272
1070
     1
1070
   279
1070
     1
1070
   341
1005
0
1002
}
  0
DIMENSION
  5
2CA99
330
747D
100
AcDbEntity
  8
寸法
 48
50.0
100
AcDbDimension
  2
*D51
 10
5958.071823329645
 20
978.1434085165583
 30
0.0
 11
5958.071823329645
 21
1098.143408516559
 31
0.0
 70
   160
  1
150
 71
     5
 42
240.0
  3
INABA_S40G
100
AcDbAlignedDimension
 13
6100.492137062104
 23
1218.143408516558
 33
0.0
 14
6020.492137062108
 24
978.1434085165583
 34
0.0
 50
90.0
100
AcDbRotatedDimension
1001
ACAD
1000
DSTYLE
1002
{
1070
   341
1005
0
1002
}
  0
TEXT
  5
2CA9A
330
747D
100
AcDbEntity
  8
部品1
 48
50.0
100
AcDbText
 10
5814.352235229147
 20
1533.382400799814
 30
0.0
 40
80.0
  1
▽G.L
  7
STYLE2
100
AcDbText
  0
LWPOLYLINE
  5
2CA9B
330
747D
100
AcDbEntity
  8
部品1
 48
50.0
100
AcDbPolyline
 90
        2
 70
     0
 43
8.0
 10
5814.352235229147
 20
1522.143408516559
 10
6228.492137062104
 20
1522.143408516559
  0
MTEXT
  5
2CA9C
102
{ACAD_REACTORS
330
2CA9D
102
}
330
747D
100
AcDbEntity
  8
寸法
 62
     7
 48
50.0
100
AcDbMText
 10
7834.864371686001
 20
2644.629073322224
 30
0.0
 40
80.0
 41
0.8
 71
     6
 72
     1
  1
\A1;φ70スリーブ
  7
STYLE2
 73
     1
 44
1.0
1001
ACAD
1000
MTEXTBEGIN
1070
    73
1070
     1
1070
    44
1040
1.0
1070
    74
1070
     0
1000
MTEXTEND
  0
LEADER
  5
2CA9D
330
747D
100
AcDbEntity
  8
寸法
 48
50.0
100
AcDbLeader
  3
INABA_S50G
 73
     0
 75
     1
 40
113.1818181818182
 41
608.6363636363635
 76
     3
 10
8118.668200377349
 20
1711.659081874837
 30
0.0
 10
7984.864371686001
 20
2563.038164231315
 30
0.0
 10
7859.864371686001
 20
2563.038164231315
 30
0.0
340
2CA9C
1001
ACAD
1000
DSTYLE
1002
{
1070
   341
1005
0
1070
    40
1040
1.0
1070
   343
1005
0
1070
   344
1005
0
1002
}
  0
LINE
  5
2CA9E
330
747D
100
AcDbEntity
  8
部品1
100
AcDbLine
 10
5157.823698252841
 20
3161.482075717144
 30
0.0
 11
5157.823698252844
 21
197.1751061324967
 31
0.0
  0
LEADER
  5
2CA9F
330
747D
100
AcDbEntity
  8
寸法
 48
50.0
100
AcDbLeader
  3
INABA_S50G
 73
     0
 74
     0
 75
     1
 40
80.0
 41
435.0
 76
     3
 10
8158.931450239299
 20
1811.303408516559
 30
0.0
 10
8201.475912658619
 20
1961.526734669788
 30
0.0
 10
8326.475912658619
 20
1961.526734669788
 30
0.0
340
2CAA0
1001
ACAD
1000
DSTYLE
1002
{
1070
   341
1005
0
1070
    40
1040
1.0
1070
   343
1005
0
1070
   344
1005
0
1002
}
  0
MTEXT
  5
2CAA0
102
{ACAD_REACTORS
330
2CA9F
102
}
330
747D
100
AcDbEntity
  8
部品1
 62
     7
 48
50.0
100
AcDbMText
 10
8351.475912658619
 20
2026.526734669788
 30
0.0
 40
80.0
 41
0.8
 71
     4
 72
     1
  1
M10X160
  7
STYLE2
 73
     1
 44
1.0
1001
ACAD
1000
MTEXTBEGIN
1070
    73
1070
     1
1070
    44
1040
1.0
1070
    74
1070
     0
1000
MTEXTEND
  0
DIMENSION
  5
2CAA1
330
747D
100
AcDbEntity
  8
寸法
 48
50.0
100
AcDbDimension
  2
*D52
 10
9120.454716127168
 20
1762.143408516558
 30
0.0
 11
9120.454716127168
 21
1296.134505095076
 31
0.0
 70
   160
  1
20～25
 71
     5
 42
52.76000000000113
  3
INABA_S40G
100
AcDbAlignedDimension
 13
8155.3314502393
 23
1814.903408516559
 33
0.0
 14
8342.531450239297
 24
1762.143408516558
 34
0.0
 50
90.0
100
AcDbRotatedDimension
1001
ACAD
1000
DSTYLE
1002
{
1070
   341
1005
0
1002
}
  0
DIMENSION
  5
2CAA2
330
747D
100
AcDbEntity
  8
寸法
 48
50.0
100
AcDbDimension
  2
*D53
 10
8844.400050008141
 20
1438.143408516557
 30
0.0
 11
8744.400050008142
 21
1600.143408516559
 31
0.0
 70
    32
  1
180
 71
     5
 42
324.0000000000009
  3
INABA_S40G
100
AcDbAlignedDimension
 13
8342.531450239297
 23
1762.143408516558
 33
0.0
 14
8342.531450239297
 24
1438.143408516557
 34
0.0
 50
90.0
100
AcDbRotatedDimension
1001
ACAD
1000
DSTYLE
1002
{
1070
   341
1005
0
1002
}
  0
TEXT
  5
2CAA3
330
747D
100
AcDbEntity
  8
部品1
 48
50.0
100
AcDbText
 10
8346.885034523726
 20
2118.022089278758
 30
0.0
 40
80.0
  1
基礎ボルト(市販品)
  7
STYLE2
100
AcDbText
  0
LWPOLYLINE
  5
2CAA4
330
747D
100
AcDbEntity
  8
部品1
 48
50.0
100
AcDbPolyline
 90
        2
 70
     0
 43
8.0
 10
8342.531450239297
 20
1522.143408516559
 10
8636.233913638681
 20
1522.143408516559
  0
MTEXT
  5
2CAA5
102
{ACAD_REACTORS
330
2CAA6
102
}
330
747D
100
AcDbEntity
  8
部品1
 62
     7
 48
50.0
100
AcDbMText
 10
8381.803040608138
 20
2462.638781603819
 30
0.0
 40
80.0
 41
0.8
 71
     4
 72
     1
  1
\A1;ワッシャー(市販品)
  7
STYLE2
 73
     1
 44
1.0
1001
ACAD
1000
MTEXTBEGIN
1070
    73
1070
     1
1070
    44
1040
1.0
1070
    74
1070
     0
1000
MTEXTEND
  0
LEADER
  5
2CAA6
330
747D
100
AcDbEntity
  8
寸法
 48
50.0
100
AcDbLeader
  3
INABA_S50G
 73
     0
 74
     0
 75
     1
 40
102.2727272727273
 41
906.8181818181818
 76
     3
 10
8189.931450239299
 20
2031.266696960838
 30
0.0
 10
8231.803040608138
 20
2386.502417967454
 30
0.0
 10
8356.803040608138
 20
2386.502417967454
 30
0.0
340
2CAA5
1001
ACAD
1000
DSTYLE
1002
{
1070
   341
1005
0
1070
    40
1040
1.0
1070
   343
1005
0
1070
   344
1005
0
1002
}
  0
MTEXT
  5
2CAA7
102
{ACAD_REACTORS
330
2CAA8
102
}
330
747D
100
AcDbEntity
  8
部品1
 62
     7
 48
50.0
100
AcDbMText
 10
8350.285421352657
 20
2647.607864368606
 30
0.0
 40
80.0
 41
0.8
 71
     4
 72
     1
  1
\A1;ナット(市販品)
  7
STYLE2
 73
     1
 44
1.0
1001
ACAD
1000
MTEXTBEGIN
1070
    73
1070
     1
1070
    44
1040
1.0
1070
    74
1070
     0
1000
MTEXTEND
  0
LEADER
  5
2CAA8
330
747D
100
AcDbEntity
  8
寸法
 48
50.0
100
AcDbLeader
  3
INABA_S50G
 73
     0
 74
     0
 75
     1
 40
102.2727272727273
 41
680.0000000000001
 76
     3
 10
8165.931450239298
 20
2161.018689625701
 30
0.0
 10
8200.285421352656
 20
2571.471500732242
 30
0.0
 10
8325.285421352656
 20
2571.471500732242
 30
0.0
340
2CAA7
1001
ACAD
1000
DSTYLE
1002
{
1070
   341
1005
0
1070
    40
1040
1.0
1070
   343
1005
0
1070
   344
1005
0
1002
}
  0
LINE
  5
2CAA9
330
747D
100
AcDbEntity
  8
部品1
100
AcDbLine
 10
5157.823698252845
 20
197.1751061324967
 30
0.0
 11
11228.80888363909
 21
197.1751061324967
 31
0.0
  0
LINE
  5
2CAAA
330
747D
100
AcDbEntity
  8
部品1
100
AcDbLine
 10
11228.80888363909
 20
2921.482075717142
 30
0.0
 11
5157.823698252844
 21
2921.482075717142
 31
0.0
  0
LINE
  5
2CAAB
330
747D
100
AcDbEntity
  8
部品1
100
AcDbLine
 10
11228.80888363909
 20
3161.482075717144
 30
0.0
 11
5157.82369825284
 21
3161.482075717144
 31
0.0
  0
HATCH
  5
2CB41
330
747D
100
AcDbEntity
  8
細線
 48
50.0
100
AcDbHatch
 10
0.0
 20
0.0
 30
0.0
210
0.0
220
0.0
230
1.0
  2
LINE
 70
     0
 71
     1
 91
        1
 92
        7
 72
     0
 73
     1
 93
        4
 10
9073.600000000013
 20
7049.958730512874
 10
9273.600000000014
 20
7049.958730512877
 10
9273.600000000005
 20
7249.958730512872
 10
9073.600000000004
 20
7249.958730512871
 97
        4
330
2B786
330
2B8E1
330
2B784
330
2B8F7
 75
     0
 76
     1
 52
45.0
 41
10.0
 77
     0
 78
     1
 53
45.0
 43
0.0
 44
0.0
 45
-22.45064030267288
 46
22.45064030267288
 79
     0
 47
0.8316993362195631
 98
        1
 10
9118.939803579342
 20
7179.329322097379
  0
HATCH
  5
2CB46
330
747D
100
AcDbEntity
  8
細線
 48
50.0
100
AcDbHatch
 10
0.0
 20
0.0
 30
0.0
210
0.0
220
0.0
230
1.0
  2
LINE
 70
     0
 71
     1
 91
        1
 92
        7
 72
     0
 73
     1
 93
        4
 10
9073.600000000013
 20
6289.958730512892
 10
9273.600000000014
 20
6289.958730512894
 10
9273.6
 20
6569.958730512893
 10
9073.6
 20
6569.958730512893
 97
        4
330
2C75F
330
2B889
330
2B787
330
2B892
 75
     0
 76
     1
 52
45.0
 41
10.0
 77
     0
 78
     1
 53
45.0
 43
0.0
 44
0.0
 45
-22.45064030267288
 46
22.45064030267288
 79
     0
 47
0.7363923532112008
 98
        1
 10
9127.230901937656
 20
6483.772196014008
  0
SPLINE
  5
2CB4D
330
747D
100
AcDbEntity
  8
細線
 48
50.0
100
AcDbSpline
210
0.0
220
0.0
230
1.0
 70
     8
 71
     3
 72
    10
 73
     6
 74
     4
 42
0.0000000001
 43
0.0000000001
 44
0.0000000001
 40
0.0
 40
0.0
 40
0.0
 40
0.0
 40
192.2397835813012
 40
392.3518421163208
 40
606.4563990014053
 40
606.4563990014053
 40
606.4563990014053
 40
606.4563990014053
 10
9118.61313164514
 20
6864.591921860832
 30
0.0
 10
9018.666944401855
 20
6853.016158105642
 30
0.0
 10
8814.681744528694
 20
6829.390599708512
 30
0.0
 10
9234.339177456336
 20
6696.113839677363
 30
0.0
 10
9013.543771886148
 20
6671.888224351502
 30
0.0
 10
8899.416765117186
 20
6659.366238411002
 30
0.0
 11
9118.61313164514
 21
6864.591921860832
 31
0.0
 11
8932.923759843742
 21
6814.836604643604
 31
0.0
 11
9106.225886138666
 21
6714.780575376095
 31
0.0
 11
8899.416765117186
 21
6659.366238411002
 31
0.0
  0
LINE
  5
2CB4E
330
747D
100
AcDbEntity
  8
細線
 48
50.0
100
AcDbLine
 10
9188.34772164485
 20
7797.076030694156
 30
0.0
 11
8886.823099423287
 21
5913.387729549071
 31
0.0
  0
ENDSEC
  0
SECTION
  2
OBJECTS
  0
DICTIONARY
  5
7471
330
0
100
AcDbDictionary
281
     1
  3
ACAD_COLOR
350
173D2
  3
ACAD_GROUP
350
7472
  3
ACAD_LAYOUT
350
173D3
  3
ACAD_MATERIAL
350
173D1
  3
ACAD_MLINESTYLE
350
7473
  3
ACAD_PLOTSETTINGS
350
173D4
  3
ACAD_PLOTSTYLENAME
350
173CF
  3
ACDBHEADERROUNDTRIPXREC
350
2CB63
  3
AcDbVariableDictionary
350
2C6F9
  3
CONTENTDICTIONARY
350
E71C
  3
DRAWINGVARIABLESDICT
350
F3B9
  0
DICTIONARY
  5
1758F
330
7467
100
AcDbDictionary
280
     1
281
     1
  3
ACAD_LAYERSTATES
360
17590
  0
DICTIONARY
  5
173D2
102
{ACAD_REACTORS
330
7471
102
}
330
7471
100
AcDbDictionary
281
     1
  0
DICTIONARY
  5
7472
102
{ACAD_REACTORS
330
7471
102
}
330
7471
100
AcDbDictionary
281
     1
  3
*A1
350
1D2A9
  0
DICTIONARY
  5
173D3
102
{ACAD_REACTORS
330
7471
102
}
330
7471
100
AcDbDictionary
281
     1
  3
Model
350
173D5
  3
レイアウト1
350
173D6
  0
DICTIONARY
  5
173D1
102
{ACAD_REACTORS
330
7471
102
}
330
7471
100
AcDbDictionary
281
     1
  0
DICTIONARY
  5
7473
102
{ACAD_REACTORS
330
7471
102
}
330
7471
100
AcDbDictionary
281
     1
  3
STANDARD
350
7480
  0
DICTIONARY
  5
173D4
102
{ACAD_REACTORS
330
7471
102
}
330
7471
100
AcDbDictionary
281
     1
  0
ACDBDICTIONARYWDFLT
  5
173CF
102
{ACAD_REACTORS
330
7471
102
}
330
7471
100
AcDbDictionary
281
     1
  3
Normal
350
173D0
100
AcDbDictionaryWithDefault
340
173D0
  0
DICTIONARY
  5
2CB63
102
{ACAD_REACTORS
330
7471
102
}
330
7471
100
AcDbDictionary
281
     1
  3
COLORDICT
350
2CB65
  3
MATERIALDICT
350
2CB64
  0
DICTIONARY
  5
2C6F9
102
{ACAD_REACTORS
330
7471
102
}
330
7471
100
AcDbDictionary
281
     1
  3
DIMASSOC
350
2C6FA
  3
PROJECTNAME
350
2C6FB
  0
DICTIONARY
  5
E71C
102
{ACAD_REACTORS
330
7471
102
}
330
7471
100
AcDbDictionary
281
     1
  0
DICTIONARY
  5
F3B9
102
{ACAD_REACTORS
330
7471
102
}
330
7471
100
AcDbDictionary
281
     1
1001
DRAWINGVARIABLESXDATA
1000
POLARMODE
1000
1
  0
DICTIONARY
  5
17590
102
{ACAD_REACTORS
330
1758F
102
}
330
1758F
100
AcDbDictionary
281
     1
  0
GROUP
  5
1D2A9
102
{ACAD_REACTORS
330
7472
102
}
330
7472
100
AcDbGroup
300

 70
     1
 71
     1
  0
LAYOUT
  5
173D5
102
{ACAD_XDICTIONARY
360
2CB66
102
}
102
{ACAD_REACTORS
330
173D3
102
}
330
173D3
100
AcDbPlotSettings
  1

  2
Microsoft Office Document Image Writer
  4

  6

 40
0.0
 41
0.0
 42
0.0
 43
0.0
 44
0.0
 45
0.0
 46
0.0
 47
0.0
 48
0.0
 49
0.0
140
0.0
141
0.0
142
1.0
143
1.0
 70
  1712
 72
     0
 73
     0
 74
     0
  7

 75
     0
147
1.0
148
0.0
149
0.0
100
AcDbLayout
  1
Model
 70
     1
 71
     0
 10
0.0
 20
0.0
 11
12.0
 21
9.0
 12
0.0
 22
0.0
 32
0.0
 14
0.0
 24
0.0
 34
0.0
 15
0.0
 25
0.0
 35
0.0
146
0.0
 13
0.0
 23
0.0
 33
0.0
 16
1.0
 26
0.0
 36
0.0
 17
0.0
 27
1.0
 37
0.0
 76
     0
330
747D
  0
LAYOUT
  5
173D6
102
{ACAD_XDICTIONARY
360
2CB68
102
}
102
{ACAD_REACTORS
330
173D3
102
}
330
173D3
100
AcDbPlotSettings
  1

  2
Microsoft Office Document Image Writer
  4

  6

 40
0.0
 41
0.0
 42
0.0
 43
0.0
 44
0.0
 45
0.0
 46
0.0
 47
0.0
 48
0.0
 49
0.0
140
0.0
141
0.0
142
1.0
143
1.0
 70
   688
 72
     0
 73
     0
 74
     5
  7

 75
    16
147
1.0
148
0.0
149
0.0
100
AcDbLayout
  1
レイアウト1
 70
     0
 71
     1
 10
0.0
 20
0.0
 11
420.0
 21
297.0
 12
0.0
 22
0.0
 32
0.0
 14
1.000000000000000E+20
 24
1.000000000000000E+20
 34
1.000000000000000E+20
 15
-1.000000000000000E+20
 25
-1.000000000000000E+20
 35
-1.000000000000000E+20
146
0.0
 13
0.0
 23
0.0
 33
0.0
 16
1.0
 26
0.0
 36
0.0
 17
0.0
 27
1.0
 37
0.0
 76
     0
330
747A
  0
MLINESTYLE
  5
7480
102
{ACAD_REACTORS
330
7473
102
}
330
7473
100
AcDbMlineStyle
  2
STANDARD
 70
     0
  3

 62
     0
 51
90.0
 52
90.0
 71
     2
 49
0.5
 62
   256
  6
BYLAYER
 49
-0.5
 62
   256
  6
BYLAYER
  0
ACDBPLACEHOLDER
  5
173D0
102
{ACAD_REACTORS
330
173CF
102
}
330
173CF
  0
XRECORD
  5
2CB65
102
{ACAD_REACTORS
330
2CB63
102
}
330
2CB63
100
AcDbXrecord
280
     1
340
173D2
  0
XRECORD
  5
2CB64
102
{ACAD_REACTORS
330
2CB63
102
}
330
2CB63
100
AcDbXrecord
280
     1
340
173D1
  0
DICTIONARYVAR
  5
2C6FA
102
{ACAD_REACTORS
330
2C6F9
102
}
330
2C6F9
100
DictionaryVariables
280
     0
  1
1
  0
DICTIONARYVAR
  5
2C6FB
102
{ACAD_REACTORS
330
2C6F9
102
}
330
2C6F9
100
DictionaryVariables
280
     0
  1

  0
DICTIONARY
  5
2CB66
330
173D5
100
AcDbDictionary
280
     1
281
     1
  3
ACAD_XREC_ROUNDTRIP
360
2CB67
  0
DICTIONARY
  5
2CB68
330
173D6
100
AcDbDictionary
280
     1
281
     1
  3
ACAD_XREC_ROUNDTRIP
360
2CB69
  0
XRECORD
  5
2CB67
102
{ACAD_REACTORS
330
2CB66
102
}
330
2CB66
100
AcDbXrecord
280
     1
102
SHADEPLOT
 70
     0
102
SHADEPLOTRESLEVEL
 70
     2
102
SHADEPLOTCUSTOMDPI
 70
   300
  0
XRECORD
  5
2CB69
102
{ACAD_REACTORS
330
2CB68
102
}
330
2CB68
100
AcDbXrecord
280
     1
102
SHADEPLOT
 70
     0
102
SHADEPLOTRESLEVEL
 70
     2
102
SHADEPLOTCUSTOMDPI
 70
   300
  0
ENDSEC
  0
EOF
