  0
SECTION
  2
HEADER
  9
$ACADVER
  1
AC1015
  9
$ACADMAINTVER
 70
    20
  9
$DWGCODEPAGE
  3
ANSI_932
  9
$INSBASE
 10
0.0
 20
0.0
 30
0.0
  9
$EXTMIN
 10
139.9999999999995
 20
-0.0000000000000909
 30
0.0
  9
$EXTMAX
 10
16307.2
 20
11409.6
 30
0.0
  9
$LIMMIN
 10
0.0
 20
0.0
  9
$LIMMAX
 10
16800.0
 20
11880.0
  9
$ORTHOMODE
 70
     0
  9
$REGENMODE
 70
     1
  9
$FILLMODE
 70
     1
  9
$QTEXTMODE
 70
     0
  9
$MIRRTEXT
 70
     1
  9
$LTSCALE
 40
20.0
  9
$ATTMODE
 70
     1
  9
$TEXTSIZE
 40
4.0
  9
$TRACEWID
 40
1.0
  9
$TEXTSTYLE
  7
STYLE1
  9
$CLAYER
  8
寸法
  9
$CELTYPE
  6
BYLAYER
  9
$CECOLOR
 62
   256
  9
$CELTSCALE
 40
50.0
  9
$DISPSILH
 70
     0
  9
$DIMSCALE
 40
40.0
  9
$DIMASZ
 40
2.5
  9
$DIMEXO
 40
0.5
  9
$DIMDLI
 40
7.0
  9
$DIMRND
 40
0.0
  9
$DIMDLE
 40
0.0
  9
$DIMEXE
 40
1.5
  9
$DIMTP
 40
0.0
  9
$DIMTM
 40
0.0
  9
$DIMTXT
 40
3.0
  9
$DIMCEN
 40
0.0
  9
$DIMTSZ
 40
0.0
  9
$DIMTOL
 70
     0
  9
$DIMLIM
 70
     0
  9
$DIMTIH
 70
     0
  9
$DIMTOH
 70
     0
  9
$DIMSE1
 70
     0
  9
$DIMSE2
 70
     0
  9
$DIMTAD
 70
     3
  9
$DIMZIN
 70
     8
  9
$DIMBLK
  1

  9
$DIMASO
 70
     1
  9
$DIMSHO
 70
     1
  9
$DIMPOST
  1

  9
$DIMAPOST
  1

  9
$DIMALT
 70
     0
  9
$DIMALTD
 70
     2
  9
$DIMALTF
 40
0.0394
  9
$DIMLFAC
 40
1.0
  9
$DIMTOFL
 70
     1
  9
$DIMTVP
 40
0.0
  9
$DIMTIX
 70
     1
  9
$DIMSOXD
 70
     0
  9
$DIMSAH
 70
     1
  9
$DIMBLK1
  1
DOTSMALL
  9
$DIMBLK2
  1
DOTSMALL
  9
$DIMSTYLE
  2
INABA_S40G
  9
$DIMCLRD
 70
     0
  9
$DIMCLRE
 70
     0
  9
$DIMCLRT
 70
     7
  9
$DIMTFAC
 40
1.0
  9
$DIMGAP
 40
1.0
  9
$DIMJUST
 70
     0
  9
$DIMSD1
 70
     0
  9
$DIMSD2
 70
     0
  9
$DIMTOLJ
 70
     1
  9
$DIMTZIN
 70
     0
  9
$DIMALTZ
 70
     0
  9
$DIMALTTZ
 70
     0
  9
$DIMUPT
 70
     0
  9
$DIMDEC
 70
     1
  9
$DIMTDEC
 70
     4
  9
$DIMALTU
 70
     2
  9
$DIMALTTD
 70
     2
  9
$DIMTXSTY
  7
STYLE1
  9
$DIMAUNIT
 70
     0
  9
$DIMADEC
 70
     0
  9
$DIMALTRND
 40
0.0
  9
$DIMAZIN
 70
     0
  9
$DIMDSEP
 70
    46
  9
$DIMATFIT
 70
     3
  9
$DIMFRAC
 70
     0
  9
$DIMLDRBLK
  1

  9
$DIMLUNIT
 70
     2
  9
$DIMLWD
 70
    -2
  9
$DIMLWE
 70
    -2
  9
$DIMTMOVE
 70
     0
  9
$LUNITS
 70
     2
  9
$LUPREC
 70
     1
  9
$SKETCHINC
 40
1.0
  9
$FILLETRAD
 40
3.0
  9
$AUNITS
 70
     0
  9
$AUPREC
 70
     0
  9
$MENU
  1
acad
  9
$ELEVATION
 40
0.0
  9
$PELEVATION
 40
0.0
  9
$THICKNESS
 40
0.0
  9
$LIMCHECK
 70
     0
  9
$CHAMFERA
 40
0.0
  9
$CHAMFERB
 40
0.0
  9
$CHAMFERC
 40
0.0
  9
$CHAMFERD
 40
0.0
  9
$SKPOLY
 70
     0
  9
$TDCREATE
 40
2451368.612993866
  9
$TDUCREATE
 40
2451368.237993866
  9
$TDUPDATE
 40
2455826.588120475
  9
$TDUUPDATE
 40
2455826.213120475
  9
$TDINDWG
 40
0.7823187963
  9
$TDUSRTIMER
 40
0.7823187963
  9
$USRTIMER
 70
     1
  9
$ANGBASE
 50
0.0
  9
$ANGDIR
 70
     0
  9
$PDMODE
 70
     3
  9
$PDSIZE
 40
2.0
  9
$PLINEWID
 40
0.0
  9
$SPLFRAME
 70
     0
  9
$SPLINETYPE
 70
     6
  9
$SPLINESEGS
 70
     8
  9
$HANDSEED
  5
282F0
  9
$SURFTAB1
 70
     6
  9
$SURFTAB2
 70
     6
  9
$SURFTYPE
 70
     6
  9
$SURFU
 70
     6
  9
$SURFV
 70
     6
  9
$UCSBASE
  2

  9
$UCSNAME
  2

  9
$UCSORG
 10
0.0
 20
0.0
 30
0.0
  9
$UCSXDIR
 10
1.0
 20
0.0
 30
0.0
  9
$UCSYDIR
 10
0.0
 20
1.0
 30
0.0
  9
$UCSORTHOREF
  2

  9
$UCSORTHOVIEW
 70
     0
  9
$UCSORGTOP
 10
0.0
 20
0.0
 30
0.0
  9
$UCSORGBOTTOM
 10
0.0
 20
0.0
 30
0.0
  9
$UCSORGLEFT
 10
0.0
 20
0.0
 30
0.0
  9
$UCSORGRIGHT
 10
0.0
 20
0.0
 30
0.0
  9
$UCSORGFRONT
 10
0.0
 20
0.0
 30
0.0
  9
$UCSORGBACK
 10
0.0
 20
0.0
 30
0.0
  9
$PUCSBASE
  2

  9
$PUCSNAME
  2

  9
$PUCSORG
 10
0.0
 20
0.0
 30
0.0
  9
$PUCSXDIR
 10
1.0
 20
0.0
 30
0.0
  9
$PUCSYDIR
 10
0.0
 20
1.0
 30
0.0
  9
$PUCSORTHOREF
  2

  9
$PUCSORTHOVIEW
 70
     0
  9
$PUCSORGTOP
 10
0.0
 20
0.0
 30
0.0
  9
$PUCSORGBOTTOM
 10
0.0
 20
0.0
 30
0.0
  9
$PUCSORGLEFT
 10
0.0
 20
0.0
 30
0.0
  9
$PUCSORGRIGHT
 10
0.0
 20
0.0
 30
0.0
  9
$PUCSORGFRONT
 10
0.0
 20
0.0
 30
0.0
  9
$PUCSORGBACK
 10
0.0
 20
0.0
 30
0.0
  9
$USERI1
 70
     0
  9
$USERI2
 70
     0
  9
$USERI3
 70
     0
  9
$USERI4
 70
     0
  9
$USERI5
 70
     0
  9
$USERR1
 40
0.0
  9
$USERR2
 40
0.0
  9
$USERR3
 40
0.0
  9
$USERR4
 40
0.0
  9
$USERR5
 40
0.0
  9
$WORLDVIEW
 70
     1
  9
$SHADEDGE
 70
     3
  9
$SHADEDIF
 70
    70
  9
$TILEMODE
 70
     1
  9
$MAXACTVP
 70
    16
  9
$PINSBASE
 10
0.0
 20
0.0
 30
0.0
  9
$PLIMCHECK
 70
     0
  9
$PEXTMIN
 10
1.000000000000000E+20
 20
1.000000000000000E+20
 30
1.000000000000000E+20
  9
$PEXTMAX
 10
-1.000000000000000E+20
 20
-1.000000000000000E+20
 30
-1.000000000000000E+20
  9
$PLIMMIN
 10
0.0
 20
0.0
  9
$PLIMMAX
 10
420.0
 20
297.0
  9
$UNITMODE
 70
     0
  9
$VISRETAIN
 70
     0
  9
$PLINEGEN
 70
     0
  9
$PSLTSCALE
 70
     0
  9
$TREEDEPTH
 70
  3020
  9
$CMLSTYLE
  2
STANDARD
  9
$CMLJUST
 70
     0
  9
$CMLSCALE
 40
1.0
  9
$PROXYGRAPHICS
 70
     1
  9
$MEASUREMENT
 70
     1
  9
$CELWEIGHT
370
    -1
  9
$ENDCAPS
280
     0
  9
$JOINSTYLE
280
     0
  9
$LWDISPLAY
290
     0
  9
$INSUNITS
 70
     0
  9
$HYPERLINKBASE
  1

  9
$STYLESHEET
  1

  9
$XEDIT
290
     1
  9
$CEPSNTYPE
380
     0
  9
$PSTYLEMODE
290
     1
  9
$FINGERPRINTGUID
  2
{5EAC461A-2277-4BF8-9AB0-99C43BB394F0}
  9
$VERSIONGUID
  2
{00AC1268-518F-4F59-BAA3-7883E5B1A631}
  9
$EXTNAMES
290
     1
  9
$PSVPSCALE
 40
0.0
  9
$OLESTARTUP
290
     0
  0
ENDSEC
  0
SECTION
  2
CLASSES
  0
CLASS
  1
ACDBDICTIONARYWDFLT
  2
AcDbDictionaryWithDefault
  3
ObjectDBX Classes
 90
        0
280
     0
281
     0
  0
CLASS
  1
DICTIONARYVAR
  2
AcDbDictionaryVar
  3
ObjectDBX Classes
 90
        0
280
     0
281
     0
  0
CLASS
  1
ACDBPLACEHOLDER
  2
AcDbPlaceHolder
  3
ObjectDBX Classes
 90
        0
280
     0
281
     0
  0
CLASS
  1
LAYOUT
  2
AcDbLayout
  3
ObjectDBX Classes
 90
        0
280
     0
281
     0
  0
ENDSEC
  0
SECTION
  2
TABLES
  0
TABLE
  2
VPORT
  5
746D
330
0
100
AcDbSymbolTable
 70
     2
  0
VPORT
  5
282E8
330
746D
100
AcDbSymbolTableRecord
100
AcDbViewportTableRecord
  2
*Active
 70
     0
 10
0.0
 20
0.0
 11
1.0
 21
1.0
 12
8400.0
 22
6532.223175279203
 13
0.0
 23
0.0
 14
10.0
 24
10.0
 15
10.0
 25
10.0
 16
0.0
 26
0.0
 36
1.0
 17
0.0
 27
0.0
 37
0.0
 40
13160.56358925593
 41
1.522222222222222
 42
50.0
 43
0.0
 44
0.0
 50
0.0
 51
0.0
 71
     0
 72
     0
 73
     1
 74
     0
 75
     0
 76
     0
 77
     0
 78
     0
281
     0
 65
     1
110
0.0
120
0.0
130
0.0
111
1.0
121
0.0
131
0.0
112
0.0
122
1.0
132
0.0
 79
     0
146
0.0
  0
ENDTAB
  0
TABLE
  2
LTYPE
  5
746A
330
0
100
AcDbSymbolTable
 70
     5
  0
LTYPE
  5
7477
330
746A
100
AcDbSymbolTableRecord
100
AcDbLinetypeTableRecord
  2
BYBLOCK
 70
     0
  3

 72
    65
 73
     0
 40
0.0
  0
LTYPE
  5
7478
330
746A
100
AcDbSymbolTableRecord
100
AcDbLinetypeTableRecord
  2
BYLAYER
 70
     0
  3

 72
    65
 73
     0
 40
0.0
  0
LTYPE
  5
7479
330
746A
100
AcDbSymbolTableRecord
100
AcDbLinetypeTableRecord
  2
CONTINUOUS
 70
     0
  3
Solid line
 72
    65
 73
     0
 40
0.0
  0
LTYPE
  5
7816
330
746A
100
AcDbSymbolTableRecord
100
AcDbLinetypeTableRecord
  2
CENTER
 70
     0
  3
____ _ ____ _ ____ _ ____ _ ____ _ ____ _ ____ 
 72
    65
 73
     4
 40
2.0
 49
1.25
 74
     0
 49
-0.25
 74
     0
 49
0.25
 74
     0
 49
-0.25
 74
     0
  0
LTYPE
  5
781A
330
746A
100
AcDbSymbolTableRecord
100
AcDbLinetypeTableRecord
  2
HIDDEN
 70
     0
  3
__ __ __ __ __ __ __ __ __ __ __ __ __ __ __ __
 72
    65
 73
     2
 40
0.375
 49
0.25
 74
     0
 49
-0.125
 74
     0
  0
LTYPE
  5
781B
330
746A
100
AcDbSymbolTableRecord
100
AcDbLinetypeTableRecord
  2
PHANTOM
 70
     0
  3
______  __  __  ______  __  __  ______  __  __ 
 72
    65
 73
     6
 40
2.5
 49
1.25
 74
     0
 49
-0.25
 74
     0
 49
0.25
 74
     0
 49
-0.25
 74
     0
 49
0.25
 74
     0
 49
-0.25
 74
     0
  0
LTYPE
  5
12CC3
330
746A
100
AcDbSymbolTableRecord
100
AcDbLinetypeTableRecord
  2
HIDDENX2
 70
     0
  3
Hidden (2x) ____ ____ ____ ____ ____ ____ ____
 72
    65
 73
     2
 40
19.05
 49
12.7
 74
     0
 49
-6.349999999999999
 74
     0
  0
ENDTAB
  0
TABLE
  2
LAYER
  5
7467
102
{ACAD_XDICTIONARY
360
1758F
102
}
330
0
100
AcDbSymbolTable
 70
    12
  0
LAYER
  5
7474
330
7467
100
AcDbSymbolTableRecord
100
AcDbLayerTableRecord
  2
0
 70
     0
 62
     7
  6
CONTINUOUS
370
    -3
390
173D0
  0
LAYER
  5
DEB2
330
7467
100
AcDbSymbolTableRecord
100
AcDbLayerTableRecord
  2
センター
 70
     0
 62
     3
  6
CENTER
370
    -3
390
173D0
  0
LAYER
  5
DEB3
330
7467
100
AcDbSymbolTableRecord
100
AcDbLayerTableRecord
  2
寸法
 70
     0
 62
     4
  6
CONTINUOUS
370
    -3
390
173D0
  0
LAYER
  5
DEB4
330
7467
100
AcDbSymbolTableRecord
100
AcDbLayerTableRecord
  2
部品1
 70
     0
 62
     7
  6
CONTINUOUS
370
    -3
390
173D0
  0
LAYER
  5
DEB5
330
7467
100
AcDbSymbolTableRecord
100
AcDbLayerTableRecord
  2
補助
 70
     0
 62
    -1
  6
CONTINUOUS
370
    -3
390
173D0
  0
LAYER
  5
DEB6
330
7467
100
AcDbSymbolTableRecord
100
AcDbLayerTableRecord
  2
文字
 70
     0
 62
     7
  6
CONTINUOUS
370
    -3
390
173D0
  0
LAYER
  5
F255
330
7467
100
AcDbSymbolTableRecord
100
AcDbLayerTableRecord
  2
DEFPOINTS
 70
     0
 62
     7
  6
CONTINUOUS
290
     0
370
    -3
390
173D0
  0
LAYER
  5
10B54
330
7467
100
AcDbSymbolTableRecord
100
AcDbLayerTableRecord
  2
仕様書枠
 70
     0
 62
   230
  6
CONTINUOUS
370
    -3
390
173D0
  0
LAYER
  5
11729
330
7467
100
AcDbSymbolTableRecord
100
AcDbLayerTableRecord
  2
Ｇ．Ｌ
 70
     0
 62
    30
  6
CONTINUOUS
370
    -3
390
173D0
  0
LAYER
  5
1173F
330
7467
100
AcDbSymbolTableRecord
100
AcDbLayerTableRecord
  2
細線
 70
     0
 62
     5
  6
CONTINUOUS
370
    -3
390
173D0
  0
LAYER
  5
12CC4
330
7467
100
AcDbSymbolTableRecord
100
AcDbLayerTableRecord
  2
想像線
 70
     0
 62
     6
  6
PHANTOM
370
    -3
390
173D0
  0
LAYER
  5
142E2
330
7467
100
AcDbSymbolTableRecord
100
AcDbLayerTableRecord
  2
破線
 70
     0
 62
     2
  6
HIDDEN
370
    -3
390
173D0
  0
ENDTAB
  0
TABLE
  2
STYLE
  5
7468
330
0
100
AcDbSymbolTable
 70
     7
  0
STYLE
  5
7475
330
7468
100
AcDbSymbolTableRecord
100
AcDbTextStyleTableRecord
  2
STANDARD
 70
     0
 40
0.0
 41
1.0
 50
0.0
 71
     0
 42
4.0
  3
txt
  4
C:\AutoCAD LT\bigfont.shx
  0
STYLE
  5
763C
330
7468
100
AcDbSymbolTableRecord
100
AcDbTextStyleTableRecord
  2
MSMINCHO
 70
     0
 40
0.0
 41
1.0
 50
0.0
 71
     0
 42
1.199999999999999
  3
C:\AutoCAD LT\msminch2.TTF
  4

  0
STYLE
  5
F706
330
7468
100
AcDbSymbolTableRecord
100
AcDbTextStyleTableRecord
  2
STYLE1
 70
     0
 40
0.0
 41
1.0
 50
0.0
 71
     0
 42
4.0
  3
isocp.shx
  4
bigfont.shx
  0
STYLE
  5
103BF
330
7468
100
AcDbSymbolTableRecord
100
AcDbTextStyleTableRecord
  2
STYLE2
 70
     0
 40
0.0
 41
1.0
 50
0.0
 71
     0
 42
100.0
  3
MS PGothic.ttf
  4

1001
ACAD
1000
MS PGothic
1071
    32818
  0
STYLE
  5
10BAA
330
7468
100
AcDbSymbolTableRecord
100
AcDbTextStyleTableRecord
  2
STYLE3
 70
     0
 40
0.0
 41
1.0
 50
0.0
 71
     0
 42
100.0
  3

  4

1001
ACAD
1000
DFPGothic-EB
1071
    32818
  0
STYLE
  5
11A15
330
7468
100
AcDbSymbolTableRecord
100
AcDbTextStyleTableRecord
  2
MSGOTHIC
 70
     0
 40
0.0
 41
1.0
 50
0.0
 71
     0
 42
3.5
  3
msgothi2.ttf
  4

  0
STYLE
  5
13E96
330
7468
100
AcDbSymbolTableRecord
100
AcDbTextStyleTableRecord
  2
MSPゴシック
 70
     0
 40
0.0
 41
1.0
 50
0.0
 71
     0
 42
4.0
  3
MS PGothic.ttf
  4

1001
ACAD
1000
MS PGothic
1071
    32818
  0
ENDTAB
  0
TABLE
  2
VIEW
  5
746B
330
0
100
AcDbSymbolTable
 70
     0
  0
ENDTAB
  0
TABLE
  2
UCS
  5
746C
330
0
100
AcDbSymbolTable
 70
     0
  0
ENDTAB
  0
TABLE
  2
APPID
  5
746E
330
0
100
AcDbSymbolTable
 70
     6
  0
APPID
  5
7476
330
746E
100
AcDbSymbolTableRecord
100
AcDbRegAppTableRecord
  2
ACAD
 70
     0
  0
APPID
  5
DEA9
330
746E
100
AcDbSymbolTableRecord
100
AcDbRegAppTableRecord
  2
CONTENTBLOCKICON
 70
     0
  0
APPID
  5
DEAA
330
746E
100
AcDbSymbolTableRecord
100
AcDbRegAppTableRecord
  2
CONTENTBLOCKDESCRIPTION
 70
     0
  0
APPID
  5
E71D
330
746E
100
AcDbSymbolTableRecord
100
AcDbRegAppTableRecord
  2
CONTENTTABDATA
 70
     0
  0
APPID
  5
E71E
330
746E
100
AcDbSymbolTableRecord
100
AcDbRegAppTableRecord
  2
CONTENTCURRENTTAB
 70
     0
  0
APPID
  5
F3BA
330
746E
100
AcDbSymbolTableRecord
100
AcDbRegAppTableRecord
  2
DRAWINGVARIABLESXDATA
 70
     0
  0
ENDTAB
  0
TABLE
  2
DIMSTYLE
  5
746F
330
0
100
AcDbSymbolTable
 70
     6
100
AcDbDimStyleTable
 71
     1
340
F71F
  0
DIMSTYLE
105
7484
330
746F
100
AcDbSymbolTableRecord
100
AcDbDimStyleTableRecord
  2
JIS
 70
     0
 41
2.5
 42
1.0
 43
7.0
 44
1.0
 73
     0
 74
     0
 77
     1
 78
     8
140
2.5
141
0.0
143
0.0394
147
0.0
172
     1
174
     1
175
     1
340
7475
  0
DIMSTYLE
105
F236
330
746F
100
AcDbSymbolTableRecord
100
AcDbDimStyleTableRecord
  2
INABA_S40
 70
     0
 40
40.0
 41
2.5
 42
0.5
 43
7.0
 44
1.5
 73
     0
 74
     0
 77
     3
 78
     8
140
3.0
141
0.0
143
0.0394
147
1.0
172
     1
173
     1
174
     1
175
     1
178
     7
289
     0
340
7475
341
DEAC
343
DEAC
344
DEAC
  0
DIMSTYLE
105
F71F
102
{ACAD_REACTORS
330
20DE1
330
20DFB
330
22741
330
2275B
330
23978
330
23980
330
239DB
330
27784
330
27782
330
27763
330
2773C
330
2773B
330
2773A
330
276CB
330
276AC
330
276AB
330
276A9
330
27684
330
2767E
330
2767C
330
27674
330
27673
330
27619
330
27618
330
27617
330
2767D
330
27626
330
27623
330
27622
330
27625
330
2761E
330
2823F
330
28242
330
28249
330
28251
330
28252
330
281DF
102
}
330
746F
100
AcDbSymbolTableRecord
100
AcDbDimStyleTableRecord
  2
INABA_S40G
 70
     0
 40
40.0
 41
2.5
 42
0.5
 43
7.0
 44
1.5
 73
     0
 74
     0
 77
     3
 78
     8
140
3.0
141
0.0
143
0.0394
147
1.0
172
     1
173
     1
174
     1
178
     7
271
     1
340
F706
341
F770
343
F770
344
F770
  0
DIMSTYLE
105
142E3
330
746F
100
AcDbSymbolTableRecord
100
AcDbDimStyleTableRecord
  2
INABA_S1
 70
     0
 40
0.0
 41
2.5
 42
0.5
 43
7.0
 44
1.5
 73
     0
 74
     0
 77
     3
 78
     8
140
3.0
141
0.0
143
0.0394
146
0.5
147
0.5
172
     1
173
     1
176
   256
177
   256
178
     7
271
     2
272
     2
284
     8
288
     1
340
7475
341
DEAC
343
DEAC
344
DEAC
  0
DIMSTYLE
105
14463
330
746F
100
AcDbSymbolTableRecord
100
AcDbDimStyleTableRecord
  2
INABA_S30G
 70
     0
 40
30.0
 41
2.5
 42
0.5
 43
7.0
 44
1.5
 73
     0
 74
     0
 77
     3
 78
     8
140
3.0
141
0.0
143
0.0394
147
1.0
172
     1
173
     1
174
     1
175
     1
178
     7
271
     1
340
F706
341
F770
343
F770
344
F770
  0
DIMSTYLE
105
1758E
330
746F
100
AcDbSymbolTableRecord
100
AcDbDimStyleTableRecord
  2
INABA_S50G
 70
     0
 41
125.0
 42
25.0
 43
7.0
 44
75.0
 73
     0
 74
     0
 77
     3
 78
     8
140
150.0
141
0.0
143
0.0394
147
25.0
172
     1
173
     1
174
     1
175
     1
178
     7
271
     1
340
F706
341
F770
343
F770
344
F770
  0
ENDTAB
  0
TABLE
  2
BLOCK_RECORD
  5
7466
330
0
100
AcDbSymbolTable
 70
    66
  0
BLOCK_RECORD
  5
747D
330
7466
100
AcDbSymbolTableRecord
100
AcDbBlockTableRecord
  2
*MODEL_SPACE
340
173D5
  0
BLOCK_RECORD
  5
747A
330
7466
100
AcDbSymbolTableRecord
100
AcDbBlockTableRecord
  2
*PAPER_SPACE
340
173D6
  0
BLOCK_RECORD
  5
DEAC
330
7466
100
AcDbSymbolTableRecord
100
AcDbBlockTableRecord
  2
_OPEN
340
0
  0
BLOCK_RECORD
  5
F770
330
7466
100
AcDbSymbolTableRecord
100
AcDbBlockTableRecord
  2
_DOTSMALL
340
0
102
{BLKREFS
331
18C65
331
18C66
331
18C59
331
18C5A
331
18C4D
331
18C4E
331
18C41
331
18C42
331
18C35
331
18C36
331
18C29
331
18C2A
331
18C1D
331
18C1E
331
18C0F
331
18C10
331
18C03
331
18C04
331
18BF5
331
18BF6
331
18BE7
331
18BE8
331
18BD9
331
18BDA
331
18BCD
331
18BCE
331
21316
331
21317
331
21321
331
21322
331
2132A
331
2132B
331
27D81
331
27D82
331
27D8B
331
27D8C
331
27D94
331
27D95
331
27D9D
331
27D9E
331
27DA6
331
27DA7
331
27DAF
331
27DB0
331
27DB8
331
27DB9
331
27DC1
331
27DC2
331
27DCA
331
27DCB
331
27DD3
331
27DD4
331
27DDD
331
27DDE
331
27DE6
331
27DE7
331
27DF0
331
27DF1
331
27DF9
331
27DFA
331
27E02
331
27E03
331
27E0B
331
27E0C
331
27E14
331
27E15
331
27E1D
331
27E1E
331
27E27
331
27E28
331
27E3A
331
27E3B
331
27E4C
331
27E4D
331
27E56
331
27E57
331
27E6B
331
27E6C
331
27E75
331
27E76
331
27E8A
331
27E8B
331
27E95
331
27E96
331
27EA0
331
27EA1
331
27EC4
331
27EC5
331
27ECD
331
27ECE
331
27F74
331
27F75
331
27F7E
331
27F7F
331
27F9E
331
27F9F
331
27FE7
331
27FE8
331
27FDB
331
27FDC
331
27FCF
331
27FD0
331
27FC3
331
27FC4
331
27FB7
331
27FB8
331
27FA9
331
27FAA
331
282A9
331
282AA
331
282B2
331
282B3
331
282BB
331
282BC
331
282C6
331
282C7
331
282CF
331
282D0
331
282D8
331
282D9
102
}
  0
BLOCK_RECORD
  5
164B4
330
7466
100
AcDbSymbolTableRecord
100
AcDbBlockTableRecord
  2
_DOT
340
0
102
{BLKREFS
331
18C73
331
18C74
102
}
  0
BLOCK_RECORD
  5
18BC8
330
7466
100
AcDbSymbolTableRecord
100
AcDbBlockTableRecord
  2
*D3
340
0
  0
BLOCK_RECORD
  5
18BD4
330
7466
100
AcDbSymbolTableRecord
100
AcDbBlockTableRecord
  2
*D4
340
0
  0
BLOCK_RECORD
  5
18BE0
330
7466
100
AcDbSymbolTableRecord
100
AcDbBlockTableRecord
  2
*D5
340
0
  0
BLOCK_RECORD
  5
18BEE
330
7466
100
AcDbSymbolTableRecord
100
AcDbBlockTableRecord
  2
*D6
340
0
  0
BLOCK_RECORD
  5
18BFC
330
7466
100
AcDbSymbolTableRecord
100
AcDbBlockTableRecord
  2
*D7
340
0
  0
BLOCK_RECORD
  5
18C0A
330
7466
100
AcDbSymbolTableRecord
100
AcDbBlockTableRecord
  2
*D8
340
0
  0
BLOCK_RECORD
  5
18C16
330
7466
100
AcDbSymbolTableRecord
100
AcDbBlockTableRecord
  2
*D9
340
0
  0
BLOCK_RECORD
  5
18C24
330
7466
100
AcDbSymbolTableRecord
100
AcDbBlockTableRecord
  2
*D10
340
0
  0
BLOCK_RECORD
  5
18C30
330
7466
100
AcDbSymbolTableRecord
100
AcDbBlockTableRecord
  2
*D11
340
0
  0
BLOCK_RECORD
  5
18C3C
330
7466
100
AcDbSymbolTableRecord
100
AcDbBlockTableRecord
  2
*D12
340
0
  0
BLOCK_RECORD
  5
18C48
330
7466
100
AcDbSymbolTableRecord
100
AcDbBlockTableRecord
  2
*D13
340
0
  0
BLOCK_RECORD
  5
18C54
330
7466
100
AcDbSymbolTableRecord
100
AcDbBlockTableRecord
  2
*D14
340
0
  0
BLOCK_RECORD
  5
18C60
330
7466
100
AcDbSymbolTableRecord
100
AcDbBlockTableRecord
  2
*D15
340
0
  0
BLOCK_RECORD
  5
18C6C
330
7466
100
AcDbSymbolTableRecord
100
AcDbBlockTableRecord
  2
*D16
340
0
  0
BLOCK_RECORD
  5
18C7A
330
7466
100
AcDbSymbolTableRecord
100
AcDbBlockTableRecord
  2
A$C3B1A506B
340
0
  0
BLOCK_RECORD
  5
1C4CA
330
7466
100
AcDbSymbolTableRecord
100
AcDbBlockTableRecord
  2
_NONE
340
0
  0
BLOCK_RECORD
  5
20DE2
330
7466
100
AcDbSymbolTableRecord
100
AcDbBlockTableRecord
  2
*D19
340
0
  0
BLOCK_RECORD
  5
20DFC
330
7466
100
AcDbSymbolTableRecord
100
AcDbBlockTableRecord
  2
*D20
340
0
  0
BLOCK_RECORD
  5
22742
330
7466
100
AcDbSymbolTableRecord
100
AcDbBlockTableRecord
  2
*D25
340
0
  0
BLOCK_RECORD
  5
2275C
330
7466
100
AcDbSymbolTableRecord
100
AcDbBlockTableRecord
  2
*D26
340
0
  0
BLOCK_RECORD
  5
239F3
330
7466
100
AcDbSymbolTableRecord
100
AcDbBlockTableRecord
  2
*D27
340
0
  0
BLOCK_RECORD
  5
23A23
330
7466
100
AcDbSymbolTableRecord
100
AcDbBlockTableRecord
  2
*D28
340
0
  0
BLOCK_RECORD
  5
23ADE
330
7466
100
AcDbSymbolTableRecord
100
AcDbBlockTableRecord
  2
*D29
340
0
  0
BLOCK_RECORD
  5
277A3
330
7466
100
AcDbSymbolTableRecord
100
AcDbBlockTableRecord
  2
*D30
340
0
  0
BLOCK_RECORD
  5
277AF
330
7466
100
AcDbSymbolTableRecord
100
AcDbBlockTableRecord
  2
*D31
340
0
  0
BLOCK_RECORD
  5
277BB
330
7466
100
AcDbSymbolTableRecord
100
AcDbBlockTableRecord
  2
*D32
340
0
  0
BLOCK_RECORD
  5
277C7
330
7466
100
AcDbSymbolTableRecord
100
AcDbBlockTableRecord
  2
*D33
340
0
  0
BLOCK_RECORD
  5
277D4
330
7466
100
AcDbSymbolTableRecord
100
AcDbBlockTableRecord
  2
*D34
340
0
  0
BLOCK_RECORD
  5
277E0
330
7466
100
AcDbSymbolTableRecord
100
AcDbBlockTableRecord
  2
*D35
340
0
  0
BLOCK_RECORD
  5
277EC
330
7466
100
AcDbSymbolTableRecord
100
AcDbBlockTableRecord
  2
*D36
340
0
  0
BLOCK_RECORD
  5
277F8
330
7466
100
AcDbSymbolTableRecord
100
AcDbBlockTableRecord
  2
*D37
340
0
  0
BLOCK_RECORD
  5
2781E
330
7466
100
AcDbSymbolTableRecord
100
AcDbBlockTableRecord
  2
*D38
340
0
  0
BLOCK_RECORD
  5
27829
330
7466
100
AcDbSymbolTableRecord
100
AcDbBlockTableRecord
  2
*D39
340
0
  0
BLOCK_RECORD
  5
27834
330
7466
100
AcDbSymbolTableRecord
100
AcDbBlockTableRecord
  2
*D40
340
0
  0
BLOCK_RECORD
  5
27841
330
7466
100
AcDbSymbolTableRecord
100
AcDbBlockTableRecord
  2
*D41
340
0
  0
BLOCK_RECORD
  5
2784E
330
7466
100
AcDbSymbolTableRecord
100
AcDbBlockTableRecord
  2
*D42
340
0
  0
BLOCK_RECORD
  5
27871
330
7466
100
AcDbSymbolTableRecord
100
AcDbBlockTableRecord
  2
*D43
340
0
  0
BLOCK_RECORD
  5
2787E
330
7466
100
AcDbSymbolTableRecord
100
AcDbBlockTableRecord
  2
*D44
340
0
  0
BLOCK_RECORD
  5
2788A
330
7466
100
AcDbSymbolTableRecord
100
AcDbBlockTableRecord
  2
*D45
340
0
  0
BLOCK_RECORD
  5
27896
330
7466
100
AcDbSymbolTableRecord
100
AcDbBlockTableRecord
  2
*D46
340
0
  0
BLOCK_RECORD
  5
278AE
330
7466
100
AcDbSymbolTableRecord
100
AcDbBlockTableRecord
  2
*D47
340
0
  0
BLOCK_RECORD
  5
278BA
330
7466
100
AcDbSymbolTableRecord
100
AcDbBlockTableRecord
  2
*D48
340
0
  0
BLOCK_RECORD
  5
278C6
330
7466
100
AcDbSymbolTableRecord
100
AcDbBlockTableRecord
  2
*D49
340
0
  0
BLOCK_RECORD
  5
278D2
330
7466
100
AcDbSymbolTableRecord
100
AcDbBlockTableRecord
  2
*D50
340
0
  0
BLOCK_RECORD
  5
278DE
330
7466
100
AcDbSymbolTableRecord
100
AcDbBlockTableRecord
  2
*D51
340
0
  0
BLOCK_RECORD
  5
278E9
330
7466
100
AcDbSymbolTableRecord
100
AcDbBlockTableRecord
  2
*D52
340
0
  0
BLOCK_RECORD
  5
27903
330
7466
100
AcDbSymbolTableRecord
100
AcDbBlockTableRecord
  2
*D53
340
0
  0
BLOCK_RECORD
  5
2825C
330
7466
100
AcDbSymbolTableRecord
100
AcDbBlockTableRecord
  2
*D60
340
0
  0
BLOCK_RECORD
  5
28268
330
7466
100
AcDbSymbolTableRecord
100
AcDbBlockTableRecord
  2
*D61
340
0
  0
BLOCK_RECORD
  5
28274
330
7466
100
AcDbSymbolTableRecord
100
AcDbBlockTableRecord
  2
*D62
340
0
  0
BLOCK_RECORD
  5
28280
330
7466
100
AcDbSymbolTableRecord
100
AcDbBlockTableRecord
  2
*D63
340
0
  0
BLOCK_RECORD
  5
2828E
330
7466
100
AcDbSymbolTableRecord
100
AcDbBlockTableRecord
  2
*D64
340
0
  0
BLOCK_RECORD
  5
2829A
330
7466
100
AcDbSymbolTableRecord
100
AcDbBlockTableRecord
  2
*D65
340
0
  0
ENDTAB
  0
ENDSEC
  0
SECTION
  2
BLOCKS
  0
BLOCK
  5
7489
330
747D
100
AcDbEntity
  8
0
100
AcDbBlockBegin
  2
*MODEL_SPACE
 70
     0
 10
0.0
 20
0.0
 30
0.0
  3
*MODEL_SPACE
  1

  0
ENDBLK
  5
748A
330
747D
100
AcDbEntity
  8
0
100
AcDbBlockEnd
  0
BLOCK
  5
7487
330
747A
100
AcDbEntity
 67
     1
  8
0
100
AcDbBlockBegin
  2
*PAPER_SPACE
 70
     0
 10
0.0
 20
0.0
 30
0.0
  3
*PAPER_SPACE
  1

  0
ENDBLK
  5
7488
330
747A
100
AcDbEntity
 67
     1
  8
0
100
AcDbBlockEnd
  0
BLOCK
  5
DEAD
330
DEAC
100
AcDbEntity
  8
0
100
AcDbBlockBegin
  2
_OPEN
 70
     0
 10
0.0
 20
0.0
 30
0.0
  3
_OPEN
  1

  0
LINE
  5
DEAE
330
DEAC
100
AcDbEntity
  8
0
  6
ByBlock
 62
     0
100
AcDbLine
 10
-1.0
 20
0.1666666666666666
 30
0.0
 11
0.0
 21
0.0
 31
0.0
  0
LINE
  5
DEAF
330
DEAC
100
AcDbEntity
  8
0
  6
ByBlock
 62
     0
100
AcDbLine
 10
0.0
 20
0.0
 30
0.0
 11
-1.0
 21
-0.1666666666666666
 31
0.0
  0
LINE
  5
DEB0
330
DEAC
100
AcDbEntity
  8
0
  6
ByBlock
 62
     0
100
AcDbLine
 10
0.0
 20
0.0
 30
0.0
 11
-1.0
 21
0.0
 31
0.0
  0
ENDBLK
  5
DEB1
330
DEAC
100
AcDbEntity
  8
0
100
AcDbBlockEnd
  0
BLOCK
  5
F771
330
F770
100
AcDbEntity
  8
0
 48
50.0
100
AcDbBlockBegin
  2
_DOTSMALL
 70
     0
 10
0.0
 20
0.0
 30
0.0
  3
_DOTSMALL
  1

  0
LWPOLYLINE
  5
F772
330
F770
100
AcDbEntity
  8
0
  6
ByBlock
 62
     0
 48
50.0
100
AcDbPolyline
 90
        2
 70
     1
 43
0.5
 10
-0.0625
 20
0.0
 42
1.0
 10
0.0625
 20
0.0
 42
1.0
  0
ENDBLK
  5
F776
330
F770
100
AcDbEntity
  8
0
 48
50.0
100
AcDbBlockEnd
  0
BLOCK
  5
164BA
330
164B4
100
AcDbEntity
  8
0
 48
50.0
100
AcDbBlockBegin
  2
_DOT
 70
     0
 10
0.0
 20
0.0
 30
0.0
  3
_DOT
  1

  0
LWPOLYLINE
  5
164B5
330
164B4
100
AcDbEntity
  8
0
  6
ByBlock
 62
     0
 48
50.0
100
AcDbPolyline
 90
        2
 70
     1
 43
0.5
 10
-0.25
 20
0.0
 42
1.0
 10
0.25
 20
0.0
 42
1.0
  0
LINE
  5
164B9
330
164B4
100
AcDbEntity
  8
0
  6
ByBlock
 62
     0
 48
50.0
100
AcDbLine
 10
-0.5
 20
0.0
 30
0.0
 11
-1.0
 21
0.0
 31
0.0
  0
ENDBLK
  5
164BB
330
164B4
100
AcDbEntity
  8
0
 48
50.0
100
AcDbBlockEnd
  0
BLOCK
  5
18BC9
330
18BC8
100
AcDbEntity
  8
0
 48
50.0
100
AcDbBlockBegin
  2
*D3
 70
     1
 10
0.0
 20
0.0
 30
0.0
  3
*D3
  1

  0
LINE
  5
18BCA
330
18BC8
100
AcDbEntity
  8
寸法
 62
     0
 48
50.0
370
    -2
100
AcDbLine
 10
7649.896575106999
 20
9636.123139034717
 30
0.0
 11
8702.429862581047
 21
9636.123139034717
 31
0.0
  0
LINE
  5
18BCB
330
18BC8
100
AcDbEntity
  8
寸法
 62
     0
 48
50.0
370
    -2
100
AcDbLine
 10
7649.896575106973
 20
7846.123139034709
 30
0.0
 11
8702.429862581047
 21
7846.123139034709
 31
0.0
  0
LINE
  5
18BCC
330
18BC8
100
AcDbEntity
  8
寸法
 62
     0
 48
50.0
370
    -2
100
AcDbLine
 10
8642.429862581046
 20
9636.123139034717
 30
0.0
 11
8642.429862581046
 21
7846.123139034709
 31
0.0
  0
INSERT
  5
18BCD
330
18BC8
100
AcDbEntity
  8
寸法
 62
     0
 48
50.0
370
    -2
100
AcDbBlockReference
  2
_DOTSMALL
 10
8642.429862581046
 20
9636.123139034717
 30
0.0
 41
100.0
 42
100.0
 43
100.0
 50
90.0
  0
INSERT
  5
18BCE
330
18BC8
100
AcDbEntity
  8
寸法
 62
     0
 48
50.0
370
    -2
100
AcDbBlockReference
  2
_DOTSMALL
 10
8642.429862581046
 20
7846.123139034709
 30
0.0
 41
100.0
 42
100.0
 43
100.0
 50
270.0
  0
MTEXT
  5
18BCF
330
18BC8
100
AcDbEntity
  8
寸法
 62
     7
 48
50.0
100
AcDbMText
 10
8542.429862581045
 20
8741.123139034712
 30
0.0
 40
120.0
 41
0.0
 71
     5
 72
     1
  1
\A1;1790
  7
STYLE1
 11
0.0000000000000001
 21
1.0
 31
0.0
 73
     1
 44
1.0
1001
ACAD
1000
MTEXTBEGIN
1070
    73
1070
     1
1070
    44
1040
1.0
1070
    74
1070
     0
1000
MTEXTEND
  0
POINT
  5
18BD0
330
18BC8
100
AcDbEntity
  8
DEFPOINTS
 62
     0
 48
50.0
100
AcDbPoint
 10
7629.896575106998
 20
9636.123139034717
 30
0.0
  0
POINT
  5
18BD1
330
18BC8
100
AcDbEntity
  8
DEFPOINTS
 62
     0
 48
50.0
100
AcDbPoint
 10
7629.896575106974
 20
7846.123139034709
 30
0.0
  0
POINT
  5
18BD2
330
18BC8
100
AcDbEntity
  8
DEFPOINTS
 62
     0
 48
50.0
100
AcDbPoint
 10
8642.429862581046
 20
7846.123139034709
 30
0.0
  0
ENDBLK
  5
18BD3
330
18BC8
100
AcDbEntity
  8
0
 48
50.0
100
AcDbBlockEnd
  0
BLOCK
  5
18BD5
330
18BD4
100
AcDbEntity
  8
0
 48
50.0
100
AcDbBlockBegin
  2
*D4
 70
     1
 10
0.0
 20
0.0
 30
0.0
  3
*D4
  1

  0
LINE
  5
18BD6
330
18BD4
100
AcDbEntity
  8
寸法
 62
     0
 48
50.0
370
    -2
100
AcDbLine
 10
4214.896575106998
 20
9656.123139034622
 30
0.0
 11
4214.896575106998
 21
10211.93135865972
 31
0.0
  0
LINE
  5
18BD7
330
18BD4
100
AcDbEntity
  8
寸法
 62
     0
 48
50.0
370
    -2
100
AcDbLine
 10
7574.896575106999
 20
9656.123139034718
 30
0.0
 11
7574.896575106999
 21
10211.93135865972
 31
0.0
  0
LINE
  5
18BD8
330
18BD4
100
AcDbEntity
  8
寸法
 62
     0
 48
50.0
370
    -2
100
AcDbLine
 10
4214.896575106998
 20
10151.93135865972
 30
0.0
 11
7574.896575106999
 21
10151.93135865972
 31
0.0
  0
INSERT
  5
18BD9
330
18BD4
100
AcDbEntity
  8
寸法
 62
     0
 48
50.0
370
    -2
100
AcDbBlockReference
  2
_DOTSMALL
 10
4214.896575106998
 20
10151.93135865972
 30
0.0
 41
100.0
 42
100.0
 43
100.0
 50
180.0
  0
INSERT
  5
18BDA
330
18BD4
100
AcDbEntity
  8
寸法
 62
     0
 48
50.0
370
    -2
100
AcDbBlockReference
  2
_DOTSMALL
 10
7574.896575106999
 20
10151.93135865972
 30
0.0
 41
100.0
 42
100.0
 43
100.0
  0
MTEXT
  5
18BDB
330
18BD4
100
AcDbEntity
  8
寸法
 62
     7
 48
50.0
100
AcDbMText
 10
5894.896575106997
 20
10251.94316968334
 30
0.0
 40
120.0
 41
0.0
 71
     5
 72
     1
  1
\A1;8X420=3360
  7
STYLE1
 73
     1
 44
1.0
1001
ACAD
1000
MTEXTBEGIN
1070
    73
1070
     1
1070
    44
1040
1.0
1070
    74
1070
     0
1000
MTEXTEND
  0
POINT
  5
18BDC
330
18BD4
100
AcDbEntity
  8
DEFPOINTS
 62
     0
 48
50.0
100
AcDbPoint
 10
4214.896575106998
 20
9636.123139034623
 30
0.0
  0
POINT
  5
18BDD
330
18BD4
100
AcDbEntity
  8
DEFPOINTS
 62
     0
 48
50.0
100
AcDbPoint
 10
7574.896575106999
 20
9636.123139034717
 30
0.0
  0
POINT
  5
18BDE
330
18BD4
100
AcDbEntity
  8
DEFPOINTS
 62
     0
 48
50.0
100
AcDbPoint
 10
7574.896575106999
 20
10151.93135865972
 30
0.0
  0
ENDBLK
  5
18BDF
330
18BD4
100
AcDbEntity
  8
0
 48
50.0
100
AcDbBlockEnd
  0
BLOCK
  5
18BE1
330
18BE0
100
AcDbEntity
  8
0
 48
50.0
100
AcDbBlockBegin
  2
*D5
 70
     1
 10
0.0
 20
0.0
 30
0.0
  3
*D5
  1

  0
LINE
  5
18BE2
330
18BE0
100
AcDbEntity
  8
寸法
 62
     0
 48
50.0
370
    -2
100
AcDbLine
 10
7574.896575106999
 20
9656.123139034718
 30
0.0
 11
7574.896575106999
 21
10211.9313586597
 31
0.0
  0
LINE
  5
18BE3
330
18BE0
100
AcDbEntity
  8
寸法
 62
     0
 48
50.0
370
    -2
100
AcDbLine
 10
7629.896575106998
 20
9656.123139034718
 30
0.0
 11
7629.896575106998
 21
10211.9313586597
 31
0.0
  0
LINE
  5
18BE4
330
18BE0
100
AcDbEntity
  8
寸法
 62
     0
 48
50.0
370
    -2
100
AcDbLine
 10
7574.896575106999
 20
10151.9313586597
 30
0.0
 11
7474.896575106999
 21
10151.9313586597
 31
0.0
  0
LINE
  5
18BE5
330
18BE0
100
AcDbEntity
  8
寸法
 62
     0
 48
50.0
370
    -2
100
AcDbLine
 10
7629.896575106998
 20
10151.9313586597
 30
0.0
 11
8046.867137855477
 21
10151.9313586597
 31
0.0
  0
LINE
  5
18BE6
330
18BE0
100
AcDbEntity
  8
寸法
 62
     0
 48
50.0
370
    -2
100
AcDbLine
 10
7574.896575106999
 20
10151.9313586597
 30
0.0
 11
7629.896575106998
 21
10151.9313586597
 31
0.0
  0
INSERT
  5
18BE7
330
18BE0
100
AcDbEntity
  8
寸法
 62
     0
 48
50.0
370
    -2
100
AcDbBlockReference
  2
_DOTSMALL
 10
7574.896575106999
 20
10151.9313586597
 30
0.0
 41
100.0
 42
100.0
 43
100.0
  0
INSERT
  5
18BE8
330
18BE0
100
AcDbEntity
  8
寸法
 62
     0
 48
50.0
370
    -2
100
AcDbBlockReference
  2
_DOTSMALL
 10
7629.896575106998
 20
10151.9313586597
 30
0.0
 41
100.0
 42
100.0
 43
100.0
 50
180.0
  0
MTEXT
  5
18BE9
330
18BE0
100
AcDbEntity
  8
寸法
 62
     7
 48
50.0
100
AcDbMText
 10
7938.381856481237
 20
10251.9313586597
 30
0.0
 40
120.0
 41
0.0
 71
     5
 72
     1
  1
\A1;55
  7
STYLE1
 73
     1
 44
1.0
1001
ACAD
1000
MTEXTBEGIN
1070
    73
1070
     1
1070
    44
1040
1.0
1070
    74
1070
     0
1000
MTEXTEND
  0
POINT
  5
18BEA
330
18BE0
100
AcDbEntity
  8
DEFPOINTS
 62
     0
 48
50.0
100
AcDbPoint
 10
7574.896575106999
 20
9636.123139034717
 30
0.0
  0
POINT
  5
18BEB
330
18BE0
100
AcDbEntity
  8
DEFPOINTS
 62
     0
 48
50.0
100
AcDbPoint
 10
7629.896575106998
 20
9636.123139034717
 30
0.0
  0
POINT
  5
18BEC
330
18BE0
100
AcDbEntity
  8
DEFPOINTS
 62
     0
 48
50.0
100
AcDbPoint
 10
7629.896575106998
 20
10151.9313586597
 30
0.0
  0
ENDBLK
  5
18BED
330
18BE0
100
AcDbEntity
  8
0
 48
50.0
100
AcDbBlockEnd
  0
BLOCK
  5
18BEF
330
18BEE
100
AcDbEntity
  8
0
 48
50.0
100
AcDbBlockBegin
  2
*D6
 70
     1
 10
0.0
 20
0.0
 30
0.0
  3
*D6
  1

  0
LINE
  5
18BF0
330
18BEE
100
AcDbEntity
  8
寸法
 62
     0
 48
50.0
370
    -2
100
AcDbLine
 10
7649.896575106999
 20
9636.123139034717
 30
0.0
 11
8337.32292084141
 21
9636.123139034717
 31
0.0
  0
LINE
  5
18BF1
330
18BEE
100
AcDbEntity
  8
寸法
 62
     0
 48
50.0
370
    -2
100
AcDbLine
 10
7649.896575106999
 20
9581.123139034721
 30
0.0
 11
8337.32292084141
 21
9581.123139034721
 31
0.0
  0
LINE
  5
18BF2
330
18BEE
100
AcDbEntity
  8
寸法
 62
     0
 48
50.0
370
    -2
100
AcDbLine
 10
8277.322920841411
 20
9581.123139034721
 30
0.0
 11
8277.322920841411
 21
9481.123139034719
 31
0.0
  0
LINE
  5
18BF3
330
18BEE
100
AcDbEntity
  8
寸法
 62
     0
 48
50.0
370
    -2
100
AcDbLine
 10
8277.322920841411
 20
9636.123139034717
 30
0.0
 11
8277.322920841411
 21
10053.09370178319
 31
0.0
  0
LINE
  5
18BF4
330
18BEE
100
AcDbEntity
  8
寸法
 62
     0
 48
50.0
370
    -2
100
AcDbLine
 10
8277.322920841411
 20
9581.123139034721
 30
0.0
 11
8277.322920841411
 21
9636.123139034717
 31
0.0
  0
INSERT
  5
18BF5
330
18BEE
100
AcDbEntity
  8
寸法
 62
     0
 48
50.0
370
    -2
100
AcDbBlockReference
  2
_DOTSMALL
 10
8277.322920841411
 20
9581.123139034721
 30
0.0
 41
100.0
 42
100.0
 43
100.0
 50
90.0
  0
INSERT
  5
18BF6
330
18BEE
100
AcDbEntity
  8
寸法
 62
     0
 48
50.0
370
    -2
100
AcDbBlockReference
  2
_DOTSMALL
 10
8277.322920841411
 20
9636.123139034717
 30
0.0
 41
100.0
 42
100.0
 43
100.0
 50
270.0
  0
MTEXT
  5
18BF7
330
18BEE
100
AcDbEntity
  8
寸法
 62
     7
 48
50.0
100
AcDbMText
 10
8177.32292084141
 20
9944.608420408957
 30
0.0
 40
120.0
 41
0.0
 71
     5
 72
     1
  1
\A1;55
  7
STYLE1
 11
0.0000000000000001
 21
1.0
 31
0.0
 73
     1
 44
1.0
1001
ACAD
1000
MTEXTBEGIN
1070
    73
1070
     1
1070
    44
1040
1.0
1070
    74
1070
     0
1000
MTEXTEND
  0
POINT
  5
18BF8
330
18BEE
100
AcDbEntity
  8
DEFPOINTS
 62
     0
 48
50.0
100
AcDbPoint
 10
7629.896575106998
 20
9636.123139034717
 30
0.0
  0
POINT
  5
18BF9
330
18BEE
100
AcDbEntity
  8
DEFPOINTS
 62
     0
 48
50.0
100
AcDbPoint
 10
7629.896575106998
 20
9581.123139034721
 30
0.0
  0
POINT
  5
18BFA
330
18BEE
100
AcDbEntity
  8
DEFPOINTS
 62
     0
 48
50.0
100
AcDbPoint
 10
8277.322920841411
 20
9581.123139034721
 30
0.0
  0
ENDBLK
  5
18BFB
330
18BEE
100
AcDbEntity
  8
0
 48
50.0
100
AcDbBlockEnd
  0
BLOCK
  5
18BFD
330
18BFC
100
AcDbEntity
  8
0
 48
50.0
100
AcDbBlockBegin
  2
*D7
 70
     1
 10
0.0
 20
0.0
 30
0.0
  3
*D7
  1

  0
LINE
  5
18BFE
330
18BFC
100
AcDbEntity
  8
寸法
 62
     0
 48
50.0
370
    -2
100
AcDbLine
 10
4159.896575106963
 20
9656.123139034622
 30
0.0
 11
4159.896575106963
 21
10211.9313586596
 31
0.0
  0
LINE
  5
18BFF
330
18BFC
100
AcDbEntity
  8
寸法
 62
     0
 48
50.0
370
    -2
100
AcDbLine
 10
4214.896575106998
 20
9656.123139034622
 30
0.0
 11
4214.896575106998
 21
10211.9313586596
 31
0.0
  0
LINE
  5
18C00
330
18BFC
100
AcDbEntity
  8
寸法
 62
     0
 48
50.0
370
    -2
100
AcDbLine
 10
4214.896575106998
 20
10151.9313586596
 30
0.0
 11
4314.896575106998
 21
10151.9313586596
 31
0.0
  0
LINE
  5
18C01
330
18BFC
100
AcDbEntity
  8
寸法
 62
     0
 48
50.0
370
    -2
100
AcDbLine
 10
4159.896575106963
 20
10151.9313586596
 30
0.0
 11
3742.926012358486
 21
10151.9313586596
 31
0.0
  0
LINE
  5
18C02
330
18BFC
100
AcDbEntity
  8
寸法
 62
     0
 48
50.0
370
    -2
100
AcDbLine
 10
4214.896575106998
 20
10151.9313586596
 30
0.0
 11
4159.896575106963
 21
10151.9313586596
 31
0.0
  0
INSERT
  5
18C03
330
18BFC
100
AcDbEntity
  8
寸法
 62
     0
 48
50.0
370
    -2
100
AcDbBlockReference
  2
_DOTSMALL
 10
4214.896575106998
 20
10151.9313586596
 30
0.0
 41
100.0
 42
100.0
 43
100.0
 50
180.0
  0
INSERT
  5
18C04
330
18BFC
100
AcDbEntity
  8
寸法
 62
     0
 48
50.0
370
    -2
100
AcDbBlockReference
  2
_DOTSMALL
 10
4159.896575106963
 20
10151.9313586596
 30
0.0
 41
100.0
 42
100.0
 43
100.0
  0
MTEXT
  5
18C05
330
18BFC
100
AcDbEntity
  8
寸法
 62
     7
 48
50.0
100
AcDbMText
 10
3851.411293732725
 20
10251.9313586596
 30
0.0
 40
120.0
 41
0.0
 71
     5
 72
     1
  1
\A1;55
  7
STYLE1
 73
     1
 44
1.0
1001
ACAD
1000
MTEXTBEGIN
1070
    73
1070
     1
1070
    44
1040
1.0
1070
    74
1070
     0
1000
MTEXTEND
  0
POINT
  5
18C06
330
18BFC
100
AcDbEntity
  8
DEFPOINTS
 62
     0
 48
50.0
100
AcDbPoint
 10
4159.896575106963
 20
9636.123139034623
 30
0.0
  0
POINT
  5
18C07
330
18BFC
100
AcDbEntity
  8
DEFPOINTS
 62
     0
 48
50.0
100
AcDbPoint
 10
4214.896575106998
 20
9636.123139034623
 30
0.0
  0
POINT
  5
18C08
330
18BFC
100
AcDbEntity
  8
DEFPOINTS
 62
     0
 48
50.0
100
AcDbPoint
 10
4214.896575106998
 20
10151.9313586596
 30
0.0
  0
ENDBLK
  5
18C09
330
18BFC
100
AcDbEntity
  8
0
 48
50.0
100
AcDbBlockEnd
  0
BLOCK
  5
18C0B
330
18C0A
100
AcDbEntity
  8
0
 48
50.0
100
AcDbBlockBegin
  2
*D8
 70
     1
 10
0.0
 20
0.0
 30
0.0
  3
*D8
  1

  0
LINE
  5
18C0C
330
18C0A
100
AcDbEntity
  8
寸法
 62
     0
 48
50.0
370
    -2
100
AcDbLine
 10
4159.896575106992
 20
7826.123139034546
 30
0.0
 11
4159.896575106992
 21
6804.372203245664
 31
0.0
  0
LINE
  5
18C0D
330
18C0A
100
AcDbEntity
  8
寸法
 62
     0
 48
50.0
370
    -2
100
AcDbLine
 10
7629.896575106974
 20
7826.123139034674
 30
0.0
 11
7629.896575106974
 21
6804.372203245664
 31
0.0
  0
LINE
  5
18C0E
330
18C0A
100
AcDbEntity
  8
寸法
 62
     0
 48
50.0
370
    -2
100
AcDbLine
 10
4159.896575106992
 20
6864.372203245665
 30
0.0
 11
7629.896575106974
 21
6864.372203245665
 31
0.0
  0
INSERT
  5
18C0F
330
18C0A
100
AcDbEntity
  8
寸法
 62
     0
 48
50.0
370
    -2
100
AcDbBlockReference
  2
_DOTSMALL
 10
4159.896575106992
 20
6864.372203245665
 30
0.0
 41
100.0
 42
100.0
 43
100.0
 50
180.0
  0
INSERT
  5
18C10
330
18C0A
100
AcDbEntity
  8
寸法
 62
     0
 48
50.0
370
    -2
100
AcDbBlockReference
  2
_DOTSMALL
 10
7629.896575106974
 20
6864.372203245665
 30
0.0
 41
100.0
 42
100.0
 43
100.0
  0
MTEXT
  5
18C11
330
18C0A
100
AcDbEntity
  8
寸法
 62
     7
 48
50.0
100
AcDbMText
 10
5911.12376113973
 20
6964.372203245665
 30
0.0
 40
120.0
 41
0.0
 71
     5
 72
     1
  1
\A1;3470
  7
STYLE1
 73
     1
 44
1.0
1001
ACAD
1000
MTEXTBEGIN
1070
    73
1070
     1
1070
    44
1040
1.0
1070
    74
1070
     0
1000
MTEXTEND
  0
POINT
  5
18C12
330
18C0A
100
AcDbEntity
  8
DEFPOINTS
 62
     0
 48
50.0
100
AcDbPoint
 10
4159.896575106992
 20
7846.123139034546
 30
0.0
  0
POINT
  5
18C13
330
18C0A
100
AcDbEntity
  8
DEFPOINTS
 62
     0
 48
50.0
100
AcDbPoint
 10
7629.896575106974
 20
7846.123139034673
 30
0.0
  0
POINT
  5
18C14
330
18C0A
100
AcDbEntity
  8
DEFPOINTS
 62
     0
 48
50.0
100
AcDbPoint
 10
7629.896575106974
 20
6864.372203245665
 30
0.0
  0
ENDBLK
  5
18C15
330
18C0A
100
AcDbEntity
  8
0
 48
50.0
100
AcDbBlockEnd
  0
BLOCK
  5
18C17
330
18C16
100
AcDbEntity
  8
0
 48
50.0
100
AcDbBlockBegin
  2
*D9
 70
     1
 10
0.0
 20
0.0
 30
0.0
  3
*D9
  1

  0
LINE
  5
18C18
330
18C16
100
AcDbEntity
  8
寸法
 62
     0
 48
50.0
370
    -2
100
AcDbLine
 10
7649.896575106973
 20
7901.123139034706
 30
0.0
 11
8337.322920841385
 21
7901.123139034706
 31
0.0
  0
LINE
  5
18C19
330
18C16
100
AcDbEntity
  8
寸法
 62
     0
 48
50.0
370
    -2
100
AcDbLine
 10
7649.896575106973
 20
7846.123139034709
 30
0.0
 11
8337.322920841385
 21
7846.123139034709
 31
0.0
  0
LINE
  5
18C1A
330
18C16
100
AcDbEntity
  8
寸法
 62
     0
 48
50.0
370
    -2
100
AcDbLine
 10
8277.322920841385
 20
7901.123139034706
 30
0.0
 11
8277.322920841385
 21
8001.123139034707
 31
0.0
  0
LINE
  5
18C1B
330
18C16
100
AcDbEntity
  8
寸法
 62
     0
 48
50.0
370
    -2
100
AcDbLine
 10
8277.322920841385
 20
7846.123139034709
 30
0.0
 11
8277.322920841385
 21
7429.152576286229
 31
0.0
  0
LINE
  5
18C1C
330
18C16
100
AcDbEntity
  8
寸法
 62
     0
 48
50.0
370
    -2
100
AcDbLine
 10
8277.322920841385
 20
7901.123139034706
 30
0.0
 11
8277.322920841385
 21
7846.123139034709
 31
0.0
  0
INSERT
  5
18C1D
330
18C16
100
AcDbEntity
  8
寸法
 62
     0
 48
50.0
370
    -2
100
AcDbBlockReference
  2
_DOTSMALL
 10
8277.322920841385
 20
7901.123139034706
 30
0.0
 41
100.0
 42
100.0
 43
100.0
 50
270.0
  0
INSERT
  5
18C1E
330
18C16
100
AcDbEntity
  8
寸法
 62
     0
 48
50.0
370
    -2
100
AcDbBlockReference
  2
_DOTSMALL
 10
8277.322920841385
 20
7846.123139034709
 30
0.0
 41
100.0
 42
100.0
 43
100.0
 50
90.0
  0
MTEXT
  5
18C1F
330
18C16
100
AcDbEntity
  8
寸法
 62
     7
 48
50.0
100
AcDbMText
 10
8177.322920841383
 20
7537.637857660469
 30
0.0
 40
120.0
 41
0.0
 71
     5
 72
     1
  1
\A1;55
  7
STYLE1
 11
0.0000000000000001
 21
1.0
 31
0.0
 73
     1
 44
1.0
1001
ACAD
1000
MTEXTBEGIN
1070
    73
1070
     1
1070
    44
1040
1.0
1070
    74
1070
     0
1000
MTEXTEND
  0
POINT
  5
18C20
330
18C16
100
AcDbEntity
  8
DEFPOINTS
 62
     0
 48
50.0
100
AcDbPoint
 10
7629.896575106974
 20
7901.123139034706
 30
0.0
  0
POINT
  5
18C21
330
18C16
100
AcDbEntity
  8
DEFPOINTS
 62
     0
 48
50.0
100
AcDbPoint
 10
7629.896575106974
 20
7846.123139034709
 30
0.0
  0
POINT
  5
18C22
330
18C16
100
AcDbEntity
  8
DEFPOINTS
 62
     0
 48
50.0
100
AcDbPoint
 10
8277.322920841385
 20
7846.123139034709
 30
0.0
  0
ENDBLK
  5
18C23
330
18C16
100
AcDbEntity
  8
0
 48
50.0
100
AcDbBlockEnd
  0
BLOCK
  5
18C25
330
18C24
100
AcDbEntity
  8
0
 48
50.0
100
AcDbBlockBegin
  2
*D10
 70
     1
 10
0.0
 20
0.0
 30
0.0
  3
*D10
  1

  0
LINE
  5
18C26
330
18C24
100
AcDbEntity
  8
寸法
 62
     0
 48
50.0
370
    -2
100
AcDbLine
 10
6533.037591258376
 20
9136.123139034728
 30
0.0
 11
6465.083950562664
 21
8882.516699399049
 31
0.0
  0
LINE
  5
18C27
330
18C24
100
AcDbEntity
  8
寸法
 62
     0
 48
50.0
370
    -2
100
AcDbLine
 10
7596.037591258388
 20
9136.123139034721
 30
0.0
 11
7528.083950562677
 21
8882.516699399049
 31
0.0
  0
LINE
  5
18C28
330
18C24
100
AcDbEntity
  8
寸法
 62
     0
 48
50.0
370
    -2
100
AcDbLine
 10
6481.160902108531
 20
8942.51669939905
 30
0.0
 11
7544.160902108544
 21
8942.51669939905
 31
0.0
  0
INSERT
  5
18C29
330
18C24
100
AcDbEntity
  8
寸法
 62
     0
 48
50.0
370
    -2
100
AcDbBlockReference
  2
_DOTSMALL
 10
6481.160902108531
 20
8942.51669939905
 30
0.0
 41
100.0
 42
100.0
 43
100.0
 50
180.0
  0
INSERT
  5
18C2A
330
18C24
100
AcDbEntity
  8
寸法
 62
     0
 48
50.0
370
    -2
100
AcDbBlockReference
  2
_DOTSMALL
 10
7544.160902108544
 20
8942.51669939905
 30
0.0
 41
100.0
 42
100.0
 43
100.0
  0
MTEXT
  5
18C2B
330
18C24
100
AcDbEntity
  8
寸法
 62
     7
 48
50.0
100
AcDbMText
 10
7061.28653022935
 20
9042.516699399049
 30
0.0
 40
120.0
 41
0.0
 71
     5
 72
     1
  1
\A1;1063
  7
STYLE1
 73
     1
 44
1.0
1001
ACAD
1000
MTEXTBEGIN
1070
    73
1070
     1
1070
    44
1040
1.0
1070
    74
1070
     0
1000
MTEXTEND
  0
POINT
  5
18C2C
330
18C24
100
AcDbEntity
  8
DEFPOINTS
 62
     0
 48
50.0
100
AcDbPoint
 10
6538.396575106998
 20
9156.123139034727
 30
0.0
  0
POINT
  5
18C2D
330
18C24
100
AcDbEntity
  8
DEFPOINTS
 62
     0
 48
50.0
100
AcDbPoint
 10
7601.39657510701
 20
9156.12313903472
 30
0.0
  0
POINT
  5
18C2E
330
18C24
100
AcDbEntity
  8
DEFPOINTS
 62
     0
 48
50.0
100
AcDbPoint
 10
7544.160902108544
 20
8942.51669939905
 30
0.0
  0
ENDBLK
  5
18C2F
330
18C24
100
AcDbEntity
  8
0
 48
50.0
100
AcDbBlockEnd
  0
BLOCK
  5
18C31
330
18C30
100
AcDbEntity
  8
0
 48
50.0
100
AcDbBlockBegin
  2
*D11
 70
     1
 10
0.0
 20
0.0
 30
0.0
  3
*D11
  1

  0
LINE
  5
18C32
330
18C30
100
AcDbEntity
  8
寸法
 62
     0
 48
50.0
370
    -2
100
AcDbLine
 10
7621.396575106999
 20
9600.764155186094
 30
0.0
 11
8016.754300969024
 21
9494.828371819961
 31
0.0
  0
LINE
  5
18C33
330
18C30
100
AcDbEntity
  8
寸法
 62
     0
 48
50.0
370
    -2
100
AcDbLine
 10
7621.396575106999
 20
9150.764155186099
 30
0.0
 11
8016.754300969024
 21
9044.828371819964
 31
0.0
  0
LINE
  5
18C34
330
18C30
100
AcDbEntity
  8
寸法
 62
     0
 48
50.0
370
    -2
100
AcDbLine
 10
7956.754300969024
 20
9510.905323365827
 30
0.0
 11
7956.754300969024
 21
9060.90532336583
 31
0.0
  0
INSERT
  5
18C35
330
18C30
100
AcDbEntity
  8
寸法
 62
     0
 48
50.0
370
    -2
100
AcDbBlockReference
  2
_DOTSMALL
 10
7956.754300969024
 20
9510.905323365827
 30
0.0
 41
100.0
 42
100.0
 43
100.0
 50
90.0
  0
INSERT
  5
18C36
330
18C30
100
AcDbEntity
  8
寸法
 62
     0
 48
50.0
370
    -2
100
AcDbBlockReference
  2
_DOTSMALL
 10
7956.754300969024
 20
9060.90532336583
 30
0.0
 41
100.0
 42
100.0
 43
100.0
 50
270.0
  0
MTEXT
  5
18C37
330
18C30
100
AcDbEntity
  8
寸法
 62
     7
 48
50.0
100
AcDbMText
 10
7856.754300969022
 20
9285.905323365829
 30
0.0
 40
120.0
 41
0.0
 71
     5
 72
     1
  1
\A1;450
  7
STYLE1
 11
0.0000000000000001
 21
1.0
 31
0.0
 73
     1
 44
1.0
1001
ACAD
1000
MTEXTBEGIN
1070
    73
1070
     1
1070
    44
1040
1.0
1070
    74
1070
     0
1000
MTEXTEND
  0
POINT
  5
18C38
330
18C30
100
AcDbEntity
  8
DEFPOINTS
 62
     0
 48
50.0
100
AcDbPoint
 10
7601.396575106999
 20
9606.123139034718
 30
0.0
  0
POINT
  5
18C39
330
18C30
100
AcDbEntity
  8
DEFPOINTS
 62
     0
 48
50.0
100
AcDbPoint
 10
7601.396575106999
 20
9156.12313903472
 30
0.0
  0
POINT
  5
18C3A
330
18C30
100
AcDbEntity
  8
DEFPOINTS
 62
     0
 48
50.0
100
AcDbPoint
 10
7956.754300969024
 20
9060.90532336583
 30
0.0
  0
ENDBLK
  5
18C3B
330
18C30
100
AcDbEntity
  8
0
 48
50.0
100
AcDbBlockEnd
  0
BLOCK
  5
18C3D
330
18C3C
100
AcDbEntity
  8
0
 48
50.0
100
AcDbBlockBegin
  2
*D12
 70
     1
 10
0.0
 20
0.0
 30
0.0
  3
*D12
  1

  0
LINE
  5
18C3E
330
18C3C
100
AcDbEntity
  8
寸法
 62
     0
 48
50.0
370
    -2
100
AcDbLine
 10
7649.896575106999
 20
9581.123139034721
 30
0.0
 11
8337.32292084141
 21
9581.123139034721
 31
0.0
  0
LINE
  5
18C3F
330
18C3C
100
AcDbEntity
  8
寸法
 62
     0
 48
50.0
370
    -2
100
AcDbLine
 10
7649.896575106973
 20
7901.123139034706
 30
0.0
 11
8337.32292084141
 21
7901.123139034706
 31
0.0
  0
LINE
  5
18C40
330
18C3C
100
AcDbEntity
  8
寸法
 62
     0
 48
50.0
370
    -2
100
AcDbLine
 10
8277.322920841411
 20
9581.123139034721
 30
0.0
 11
8277.322920841411
 21
7901.123139034706
 31
0.0
  0
INSERT
  5
18C41
330
18C3C
100
AcDbEntity
  8
寸法
 62
     0
 48
50.0
370
    -2
100
AcDbBlockReference
  2
_DOTSMALL
 10
8277.322920841411
 20
9581.123139034721
 30
0.0
 41
100.0
 42
100.0
 43
100.0
 50
90.0
  0
INSERT
  5
18C42
330
18C3C
100
AcDbEntity
  8
寸法
 62
     0
 48
50.0
370
    -2
100
AcDbBlockReference
  2
_DOTSMALL
 10
8277.322920841411
 20
7901.123139034706
 30
0.0
 41
100.0
 42
100.0
 43
100.0
 50
270.0
  0
MTEXT
  5
18C43
330
18C3C
100
AcDbEntity
  8
寸法
 62
     7
 48
50.0
100
AcDbMText
 10
8177.311109817788
 20
8741.123139034712
 30
0.0
 40
120.0
 41
0.0
 71
     5
 72
     1
  1
\A1;4X420=1680
  7
STYLE1
 11
0.0000000000000001
 21
1.0
 31
0.0
 73
     1
 44
1.0
1001
ACAD
1000
MTEXTBEGIN
1070
    73
1070
     1
1070
    44
1040
1.0
1070
    74
1070
     0
1000
MTEXTEND
  0
POINT
  5
18C44
330
18C3C
100
AcDbEntity
  8
DEFPOINTS
 62
     0
 48
50.0
100
AcDbPoint
 10
7629.896575106998
 20
9581.123139034721
 30
0.0
  0
POINT
  5
18C45
330
18C3C
100
AcDbEntity
  8
DEFPOINTS
 62
     0
 48
50.0
100
AcDbPoint
 10
7629.896575106974
 20
7901.123139034706
 30
0.0
  0
POINT
  5
18C46
330
18C3C
100
AcDbEntity
  8
DEFPOINTS
 62
     0
 48
50.0
100
AcDbPoint
 10
8277.322920841411
 20
7901.123139034706
 30
0.0
  0
ENDBLK
  5
18C47
330
18C3C
100
AcDbEntity
  8
0
 48
50.0
100
AcDbBlockEnd
  0
BLOCK
  5
18C49
330
18C48
100
AcDbEntity
  8
0
 48
50.0
100
AcDbBlockBegin
  2
*D13
 70
     1
 10
0.0
 20
0.0
 30
0.0
  3
*D13
  1

  0
LINE
  5
18C4A
330
18C48
100
AcDbEntity
  8
寸法
 62
     0
 48
50.0
370
    -2
100
AcDbLine
 10
4183.037591258377
 20
9136.123139034619
 30
0.0
 11
4115.083950562663
 21
8882.516699398941
 31
0.0
  0
LINE
  5
18C4B
330
18C48
100
AcDbEntity
  8
寸法
 62
     0
 48
50.0
370
    -2
100
AcDbLine
 10
5246.037591258307
 20
9136.123139034671
 30
0.0
 11
5178.08395056258
 21
8882.516699398941
 31
0.0
  0
LINE
  5
18C4C
330
18C48
100
AcDbEntity
  8
寸法
 62
     0
 48
50.0
370
    -2
100
AcDbLine
 10
4131.160902108532
 20
8942.516699398941
 30
0.0
 11
5194.160902108448
 21
8942.516699398941
 31
0.0
  0
INSERT
  5
18C4D
330
18C48
100
AcDbEntity
  8
寸法
 62
     0
 48
50.0
370
    -2
100
AcDbBlockReference
  2
_DOTSMALL
 10
4131.160902108532
 20
8942.516699398941
 30
0.0
 41
100.0
 42
100.0
 43
100.0
 50
180.0
  0
INSERT
  5
18C4E
330
18C48
100
AcDbEntity
  8
寸法
 62
     0
 48
50.0
370
    -2
100
AcDbBlockReference
  2
_DOTSMALL
 10
5194.160902108448
 20
8942.516699398941
 30
0.0
 41
100.0
 42
100.0
 43
100.0
  0
MTEXT
  5
18C4F
330
18C48
100
AcDbEntity
  8
寸法
 62
     7
 48
50.0
100
AcDbMText
 10
4658.986452655306
 20
9042.516699398941
 30
0.0
 40
120.0
 41
0.0
 71
     5
 72
     1
  1
\A1;1063
  7
STYLE1
 73
     1
 44
1.0
1001
ACAD
1000
MTEXTBEGIN
1070
    73
1070
     1
1070
    44
1040
1.0
1070
    74
1070
     0
1000
MTEXTEND
  0
POINT
  5
18C50
330
18C48
100
AcDbEntity
  8
DEFPOINTS
 62
     0
 48
50.0
100
AcDbPoint
 10
4188.396575106999
 20
9156.123139034617
 30
0.0
  0
POINT
  5
18C51
330
18C48
100
AcDbEntity
  8
DEFPOINTS
 62
     0
 48
50.0
100
AcDbPoint
 10
5251.396575106929
 20
9156.123139034672
 30
0.0
  0
POINT
  5
18C52
330
18C48
100
AcDbEntity
  8
DEFPOINTS
 62
     0
 48
50.0
100
AcDbPoint
 10
5194.160902108448
 20
8942.516699398941
 30
0.0
  0
ENDBLK
  5
18C53
330
18C48
100
AcDbEntity
  8
0
 48
50.0
100
AcDbBlockEnd
  0
BLOCK
  5
18C55
330
18C54
100
AcDbEntity
  8
0
 48
50.0
100
AcDbBlockBegin
  2
*D14
 70
     1
 10
0.0
 20
0.0
 30
0.0
  3
*D14
  1

  0
LINE
  5
18C56
330
18C54
100
AcDbEntity
  8
寸法
 62
     0
 48
50.0
370
    -2
100
AcDbLine
 10
5274.037591258307
 20
9136.123139034669
 30
0.0
 11
5206.08395056258
 21
8882.516699398941
 31
0.0
  0
LINE
  5
18C57
330
18C54
100
AcDbEntity
  8
寸法
 62
     0
 48
50.0
370
    -2
100
AcDbLine
 10
6505.037591258377
 20
9136.123139034662
 30
0.0
 11
6437.083950562653
 21
8882.516699398941
 31
0.0
  0
LINE
  5
18C58
330
18C54
100
AcDbEntity
  8
寸法
 62
     0
 48
50.0
370
    -2
100
AcDbLine
 10
5222.160902108448
 20
8942.516699398941
 30
0.0
 11
6453.16090210852
 21
8942.516699398941
 31
0.0
  0
INSERT
  5
18C59
330
18C54
100
AcDbEntity
  8
寸法
 62
     0
 48
50.0
370
    -2
100
AcDbBlockReference
  2
_DOTSMALL
 10
5222.160902108448
 20
8942.516699398941
 30
0.0
 41
100.0
 42
100.0
 43
100.0
 50
180.0
  0
INSERT
  5
18C5A
330
18C54
100
AcDbEntity
  8
寸法
 62
     0
 48
50.0
370
    -2
100
AcDbBlockReference
  2
_DOTSMALL
 10
6453.16090210852
 20
8942.516699398941
 30
0.0
 41
100.0
 42
100.0
 43
100.0
  0
MTEXT
  5
18C5B
330
18C54
100
AcDbEntity
  8
寸法
 62
     7
 48
50.0
100
AcDbMText
 10
6081.244808320626
 20
9042.528510422561
 30
0.0
 40
120.0
 41
0.0
 71
     5
 72
     1
  1
\A1;1231
  7
STYLE1
 73
     1
 44
1.0
1001
ACAD
1000
MTEXTBEGIN
1070
    73
1070
     1
1070
    44
1040
1.0
1070
    74
1070
     0
1000
MTEXTEND
  0
POINT
  5
18C5C
330
18C54
100
AcDbEntity
  8
DEFPOINTS
 62
     0
 48
50.0
100
AcDbPoint
 10
5279.396575106929
 20
9156.123139034669
 30
0.0
  0
POINT
  5
18C5D
330
18C54
100
AcDbEntity
  8
DEFPOINTS
 62
     0
 48
50.0
100
AcDbPoint
 10
6510.396575106999
 20
9156.123139034662
 30
0.0
  0
POINT
  5
18C5E
330
18C54
100
AcDbEntity
  8
DEFPOINTS
 62
     0
 48
50.0
100
AcDbPoint
 10
6453.16090210852
 20
8942.516699398941
 30
0.0
  0
ENDBLK
  5
18C5F
330
18C54
100
AcDbEntity
  8
0
 48
50.0
100
AcDbBlockEnd
  0
BLOCK
  5
18C61
330
18C60
100
AcDbEntity
  8
0
 48
50.0
100
AcDbBlockBegin
  2
*D15
 70
     1
 10
0.0
 20
0.0
 30
0.0
  3
*D15
  1

  0
LINE
  5
18C62
330
18C60
100
AcDbEntity
  8
寸法
 62
     0
 48
50.0
370
    -2
100
AcDbLine
 10
5065.896575106966
 20
7749.123139034579
 30
0.0
 11
5065.896575106966
 21
7099.952920982538
 31
0.0
  0
LINE
  5
18C63
330
18C60
100
AcDbEntity
  8
寸法
 62
     0
 48
50.0
370
    -2
100
AcDbLine
 10
6331.896575106966
 20
7749.123139034579
 30
0.0
 11
6331.896575106966
 21
7099.952920982538
 31
0.0
  0
LINE
  5
18C64
330
18C60
100
AcDbEntity
  8
寸法
 62
     0
 48
50.0
370
    -2
100
AcDbLine
 10
5065.896575106966
 20
7159.952920982537
 30
0.0
 11
6331.896575106966
 21
7159.952920982537
 31
0.0
  0
INSERT
  5
18C65
330
18C60
100
AcDbEntity
  8
寸法
 62
     0
 48
50.0
370
    -2
100
AcDbBlockReference
  2
_DOTSMALL
 10
5065.896575106966
 20
7159.952920982537
 30
0.0
 41
100.0
 42
100.0
 43
100.0
 50
180.0
  0
INSERT
  5
18C66
330
18C60
100
AcDbEntity
  8
寸法
 62
     0
 48
50.0
370
    -2
100
AcDbBlockReference
  2
_DOTSMALL
 10
6331.896575106966
 20
7159.952920982537
 30
0.0
 41
100.0
 42
100.0
 43
100.0
  0
MTEXT
  5
18C67
330
18C60
100
AcDbEntity
  8
寸法
 62
     7
 48
50.0
100
AcDbMText
 10
5711.986008735934
 20
7359.964732006159
 30
0.0
 40
120.0
 41
0.0
 71
     5
 72
     1
  1
\A1;有効開口部間口\P1266
  7
STYLE1
 73
     1
 44
1.0
1001
ACAD
1000
MTEXTBEGIN
1070
    73
1070
     1
1070
    44
1040
1.0
1070
    74
1070
     0
1000
MTEXTEND
  0
POINT
  5
18C68
330
18C60
100
AcDbEntity
  8
DEFPOINTS
 62
     0
 48
50.0
100
AcDbPoint
 10
5065.896575106966
 20
7769.123139034579
 30
0.0
  0
POINT
  5
18C69
330
18C60
100
AcDbEntity
  8
DEFPOINTS
 62
     0
 48
50.0
100
AcDbPoint
 10
6331.896575106966
 20
7769.123139034579
 30
0.0
  0
POINT
  5
18C6A
330
18C60
100
AcDbEntity
  8
DEFPOINTS
 62
     0
 48
50.0
100
AcDbPoint
 10
6331.896575106966
 20
7159.952920982537
 30
0.0
  0
ENDBLK
  5
18C6B
330
18C60
100
AcDbEntity
  8
0
 48
50.0
100
AcDbBlockEnd
  0
BLOCK
  5
18C6D
330
18C6C
100
AcDbEntity
  8
0
 48
50.0
100
AcDbBlockBegin
  2
*D16
 70
     1
 10
0.0
 20
0.0
 30
0.0
  3
*D16
  1

  0
LINE
  5
18C6E
330
18C6C
100
AcDbEntity
  8
寸法
 62
     0
 48
50.0
370
    -2
100
AcDbLine
 10
7200.896575106966
 20
7846.123139034578
 30
0.0
 11
7457.192158500191
 21
7846.123139034578
 31
0.0
  0
LINE
  5
18C6F
330
18C6C
100
AcDbEntity
  8
寸法
 62
     0
 48
50.0
370
    -2
100
AcDbLine
 10
7199.896575106966
 20
7769.123139034579
 30
0.0
 11
7457.192158500191
 21
7769.123139034579
 31
0.0
  0
LINE
  5
18C70
330
18C6C
100
AcDbEntity
  8
寸法
 62
     0
 48
50.0
370
    -2
100
AcDbLine
 10
7417.192158500192
 20
7866.123139034579
 30
0.0
 11
7417.192158500192
 21
7886.123139034578
 31
0.0
  0
LINE
  5
18C71
330
18C6C
100
AcDbEntity
  8
寸法
 62
     0
 48
50.0
370
    -2
100
AcDbLine
 10
7417.192158500192
 20
7749.123139034579
 30
0.0
 11
7417.192158500192
 21
7533.123139034573
 31
0.0
  0
LINE
  5
18C72
330
18C6C
100
AcDbEntity
  8
寸法
 62
     0
 48
50.0
370
    -2
100
AcDbLine
 10
7417.192158500192
 20
7846.123139034578
 30
0.0
 11
7417.192158500192
 21
7769.123139034579
 31
0.0
  0
INSERT
  5
18C73
330
18C6C
100
AcDbEntity
  8
寸法
 62
     0
 48
50.0
370
    -2
100
AcDbBlockReference
  2
_DOT
 10
7417.192158500192
 20
7846.123139034578
 30
0.0
 41
20.0
 42
20.0
 43
20.0
 50
270.0
  0
INSERT
  5
18C74
330
18C6C
100
AcDbEntity
  8
寸法
 62
     0
 48
50.0
370
    -2
100
AcDbBlockReference
  2
_DOT
 10
7417.192158500192
 20
7769.123139034579
 30
0.0
 41
20.0
 42
20.0
 43
20.0
 50
90.0
  0
MTEXT
  5
18C75
330
18C6C
100
AcDbEntity
  8
寸法
 62
     7
 48
50.0
100
AcDbMText
 10
7325.192158500191
 20
7631.123139034575
 30
0.0
 40
120.0
 41
0.0
 71
     5
 72
     1
  1
\A1;77
  7
STYLE1
 11
0.0000000000000001
 21
1.0
 31
0.0
 73
     1
 44
1.0
1001
ACAD
1000
MTEXTBEGIN
1070
    73
1070
     1
1070
    44
1040
1.0
1070
    74
1070
     0
1000
MTEXTEND
  0
POINT
  5
18C76
330
18C6C
100
AcDbEntity
  8
DEFPOINTS
 62
     0
 48
50.0
100
AcDbPoint
 10
7180.896575106967
 20
7846.123139034578
 30
0.0
  0
POINT
  5
18C77
330
18C6C
100
AcDbEntity
  8
DEFPOINTS
 62
     0
 48
50.0
100
AcDbPoint
 10
7179.896575106965
 20
7769.123139034579
 30
0.0
  0
POINT
  5
18C78
330
18C6C
100
AcDbEntity
  8
DEFPOINTS
 62
     0
 48
50.0
100
AcDbPoint
 10
7417.192158500192
 20
7769.123139034579
 30
0.0
  0
ENDBLK
  5
18C79
330
18C6C
100
AcDbEntity
  8
0
 48
50.0
100
AcDbBlockEnd
  0
BLOCK
  5
18DA0
330
18C7A
100
AcDbEntity
  8
0
 48
50.0
100
AcDbBlockBegin
  2
A$C3B1A506B
 70
     0
 10
0.0
 20
0.0
 30
0.0
  3
A$C3B1A506B
  1

  0
MTEXT
  5
18C7B
330
18C7A
100
AcDbEntity
  8
寸法
 62
     7
 48
50.0
100
AcDbMText
 10
3342.250386887194
 20
2778.329429134012
 30
0.0
 40
96.0
 41
0.0
 71
     5
 72
     1
  1
棚 2段
  7
STYLE1
 73
     1
 44
1.0
1001
ACAD
1000
MTEXTBEGIN
1070
    73
1070
     1
1070
    44
1040
1.0
1070
    74
1070
     0
1000
MTEXTEND
  0
MTEXT
  5
18C7C
330
18C7A
100
AcDbEntity
  8
寸法
 62
     7
 48
50.0
100
AcDbMText
 10
2167.25038688716
 20
2778.329429133986
 30
0.0
 40
96.0
 41
0.0
 71
     5
 72
     1
  1
棚 2段
  7
STYLE1
 73
     1
 44
1.0
1001
ACAD
1000
MTEXTBEGIN
1070
    73
1070
     1
1070
    44
1040
1.0
1070
    74
1070
     0
1000
MTEXTEND
  0
MTEXT
  5
18C7D
330
18C7A
100
AcDbEntity
  8
寸法
 62
     7
 48
50.0
100
AcDbMText
 10
992.2503868871608
 20
2778.329429133935
 30
0.0
 40
96.0
 41
0.0
 71
     5
 72
     1
  1
棚 2段
  7
STYLE1
 73
     1
 44
1.0
1001
ACAD
1000
MTEXTBEGIN
1070
    73
1070
     1
1070
    44
1040
1.0
1070
    74
1070
     0
1000
MTEXTEND
  0
LINE
  5
18C7E
330
18C7A
100
AcDbEntity
  8
細線
 48
50.0
100
AcDbLine
 10
2771.970589276527
 20
1368.994384123192
 30
0.0
 11
3398.970589276523
 21
1368.994384123192
 31
0.0
  0
LINE
  5
18C7F
330
18C7A
100
AcDbEntity
  8
細線
 48
50.0
100
AcDbLine
 10
2117.970593930113
 20
1335.285615569113
 30
0.0
 11
3398.970589276523
 21
1335.285615569113
 31
0.0
  0
LINE
  5
18C80
330
18C7A
100
AcDbEntity
  8
細線
 48
50.0
100
AcDbLine
 10
2076.970593930115
 20
1364.690523565368
 30
0.0
 11
1322.970589276523
 21
1364.690523565367
 31
0.0
  0
LINE
  5
18C81
330
18C7A
100
AcDbEntity
  8
細線
100
AcDbLine
 10
3170.720579860066
 20
1388.494284088199
 30
0.0
 11
3173.052119381877
 21
1393.494286728162
 31
0.0
  0
LINE
  5
18C82
330
18C7A
100
AcDbEntity
  8
細線
100
AcDbLine
 10
3240.720589276525
 20
1388.494269174465
 30
0.0
 11
3238.389042800336
 21
1393.494286728144
 31
0.0
  0
LINE
  5
18C83
330
18C7A
100
AcDbEntity
  8
細線
100
AcDbLine
 10
3238.389042800336
 20
1393.494286728144
 30
0.0
 11
3173.052119381862
 21
1393.494286728133
 31
0.0
  0
LINE
  5
18C84
330
18C7A
100
AcDbEntity
  8
細線
100
AcDbLine
 10
3098.389042800336
 20
1393.494286728144
 30
0.0
 11
3033.052119381862
 21
1393.494286728133
 31
0.0
  0
LINE
  5
18C85
330
18C7A
100
AcDbEntity
  8
細線
100
AcDbLine
 10
3100.720589276523
 20
1388.494269174465
 30
0.0
 11
3098.389042800336
 21
1393.494286728144
 31
0.0
  0
LINE
  5
18C86
330
18C7A
100
AcDbEntity
  8
細線
100
AcDbLine
 10
3030.720579860066
 20
1388.494284088199
 30
0.0
 11
3033.052119381875
 21
1393.494286728162
 31
0.0
  0
LINE
  5
18C87
330
18C7A
100
AcDbEntity
  8
細線
100
AcDbLine
 10
2890.720589276525
 20
1388.494269174465
 30
0.0
 11
2893.052128798336
 21
1393.494271814428
 31
0.0
  0
LINE
  5
18C88
330
18C7A
100
AcDbEntity
  8
細線
100
AcDbLine
 10
2960.720598692984
 20
1388.494254260731
 30
0.0
 11
2958.389052216793
 21
1393.49427181441
 31
0.0
  0
LINE
  5
18C89
330
18C7A
100
AcDbEntity
  8
細線
100
AcDbLine
 10
2958.389052216795
 20
1393.49427181441
 30
0.0
 11
2893.052128798321
 21
1393.494271814399
 31
0.0
  0
LINE
  5
18C8A
330
18C7A
100
AcDbEntity
  8
細線
100
AcDbLine
 10
2667.139038146739
 20
1359.494298590735
 30
0.0
 11
2601.802114728263
 21
1359.494298590724
 31
0.0
  0
LINE
  5
18C8B
330
18C7A
100
AcDbEntity
  8
細線
100
AcDbLine
 10
2669.470584622926
 20
1354.494281037055
 30
0.0
 11
2667.139038146737
 21
1359.494298590735
 31
0.0
  0
LINE
  5
18C8C
330
18C7A
100
AcDbEntity
  8
細線
100
AcDbLine
 10
2599.470575206469
 20
1354.49429595079
 30
0.0
 11
2601.802114728278
 21
1359.494298590752
 31
0.0
  0
LINE
  5
18C8D
330
18C7A
100
AcDbEntity
  8
細線
 48
50.0
100
AcDbLine
 10
2440.853968524536
 20
1372.765132327548
 30
0.0
 11
2446.609486107205
 21
1354.494281037057
 31
0.0
  0
LINE
  5
18C8E
330
18C7A
100
AcDbEntity
  8
細線
 48
50.0
100
AcDbLine
 10
2429.925520044106
 20
1372.765132327546
 30
0.0
 11
2440.853968524536
 21
1372.765132327548
 31
0.0
  0
ARC
  5
18C8F
330
18C7A
100
AcDbEntity
  8
細線
 48
50.0
100
AcDbCircle
 10
2424.471163986787
 20
1374.265132327546
 30
0.0
 40
5.0
100
AcDbArc
 50
204.6243183520723
 51
335.3756816479278
  0
ARC
  5
18C90
330
18C7A
100
AcDbEntity
  8
細線
 48
50.0
100
AcDbCircle
 10
2429.925520044106
 20
1371.765132327546
 30
0.0
 40
1.0
100
AcDbArc
 50
90.0
 51
155.3756816479277
  0
ARC
  5
18C91
330
18C7A
100
AcDbEntity
  8
細線
 48
50.0
100
AcDbCircle
 10
2419.016807929469
 20
1371.765132327546
 30
0.0
 40
1.0
100
AcDbArc
 50
24.62431835207225
 51
90.0
  0
LINE
  5
18C92
330
18C7A
100
AcDbEntity
  8
細線
 48
50.0
100
AcDbLine
 10
2408.088359449037
 20
1372.765132327548
 30
0.0
 11
2419.016807929469
 21
1372.765132327546
 31
0.0
  0
LINE
  5
18C93
330
18C7A
100
AcDbEntity
  8
細線
 48
50.0
100
AcDbLine
 10
2402.33284186637
 20
1354.494281037054
 30
0.0
 11
2408.088359449037
 21
1372.765132327548
 31
0.0
  0
LINE
  5
18C94
330
18C7A
100
AcDbEntity
  8
細線
100
AcDbLine
 10
2458.070304175992
 20
1354.494278397076
 30
0.0
 11
2460.401843697802
 21
1359.494281037039
 31
0.0
  0
LINE
  5
18C95
330
18C7A
100
AcDbEntity
  8
細線
100
AcDbLine
 10
2528.070313592451
 20
1354.494263483342
 30
0.0
 11
2525.738767116262
 21
1359.494281037021
 31
0.0
  0
LINE
  5
18C96
330
18C7A
100
AcDbEntity
  8
細線
100
AcDbLine
 10
2525.738767116262
 20
1359.494281037021
 30
0.0
 11
2460.40184369779
 21
1359.49428103701
 31
0.0
  0
LINE
  5
18C97
330
18C7A
100
AcDbEntity
  8
細線
100
AcDbLine
 10
2387.139046332155
 20
1359.494281037021
 30
0.0
 11
2321.80212291368
 21
1359.49428103701
 31
0.0
  0
LINE
  5
18C98
330
18C7A
100
AcDbEntity
  8
細線
100
AcDbLine
 10
2389.470592808342
 20
1354.494263483342
 30
0.0
 11
2387.139046332153
 21
1359.494281037021
 31
0.0
  0
LINE
  5
18C99
330
18C7A
100
AcDbEntity
  8
細線
100
AcDbLine
 10
2319.470584622926
 20
1354.494281037054
 30
0.0
 11
2321.802122913694
 21
1359.494281037039
 31
0.0
  0
LINE
  5
18C9A
330
18C7A
100
AcDbEntity
  8
細線
100
AcDbLine
 10
2179.47061994182
 20
1354.494289224422
 30
0.0
 11
2181.802158232587
 21
1359.494289224407
 31
0.0
  0
LINE
  5
18C9B
330
18C7A
100
AcDbEntity
  8
細線
100
AcDbLine
 10
2249.470628127236
 20
1354.49427167071
 30
0.0
 11
2247.139081651047
 21
1359.494289224389
 31
0.0
  0
LINE
  5
18C9C
330
18C7A
100
AcDbEntity
  8
細線
100
AcDbLine
 10
2247.139081651047
 20
1359.494289224389
 30
0.0
 11
2181.802158232573
 21
1359.494289224378
 31
0.0
  0
LINE
  5
18C9D
330
18C7A
100
AcDbEntity
  8
細線
100
AcDbLine
 10
1807.970585744697
 20
1320.494460905133
 30
0.0
 11
1810.302124035464
 21
1325.494460905118
 31
0.0
  0
LINE
  5
18C9E
330
18C7A
100
AcDbEntity
  8
細線
100
AcDbLine
 10
1877.970593930113
 20
1320.494443351421
 30
0.0
 11
1875.639047453926
 21
1325.4944609051
 31
0.0
  0
LINE
  5
18C9F
330
18C7A
100
AcDbEntity
  8
細線
100
AcDbLine
 10
1875.639047453926
 20
1325.4944609051
 30
0.0
 11
1810.302124035452
 21
1325.494460905089
 31
0.0
  0
LINE
  5
18CA0
330
18C7A
100
AcDbEntity
  8
細線
100
AcDbLine
 10
2015.639047453926
 20
1325.4944609051
 30
0.0
 11
1950.302124035452
 21
1325.494460905089
 31
0.0
  0
LINE
  5
18CA1
330
18C7A
100
AcDbEntity
  8
細線
100
AcDbLine
 10
2017.970593930113
 20
1320.494443351421
 30
0.0
 11
2015.639047453924
 21
1325.4944609051
 31
0.0
  0
LINE
  5
18CA2
330
18C7A
100
AcDbEntity
  8
細線
100
AcDbLine
 10
1947.970585744697
 20
1320.494460905133
 30
0.0
 11
1950.302124035465
 21
1325.494460905118
 31
0.0
  0
LINE
  5
18CA3
330
18C7A
100
AcDbEntity
  8
細線
100
AcDbLine
 10
1735.639047453926
 20
1325.494460905098
 30
0.0
 11
1670.302124035454
 21
1325.494460905087
 31
0.0
  0
LINE
  5
18CA4
330
18C7A
100
AcDbEntity
  8
細線
100
AcDbLine
 10
1737.970593930113
 20
1320.494443351419
 30
0.0
 11
1735.639047453926
 21
1325.494460905098
 31
0.0
  0
LINE
  5
18CA5
330
18C7A
100
AcDbEntity
  8
細線
100
AcDbLine
 10
1667.970585744697
 20
1320.494460905131
 30
0.0
 11
1670.302124035465
 21
1325.494460905116
 31
0.0
  0
LINE
  5
18CA6
330
18C7A
100
AcDbEntity
  8
細線
100
AcDbLine
 10
1527.970593930113
 20
1320.494460905133
 30
0.0
 11
1530.302132220881
 21
1325.494460905118
 31
0.0
  0
LINE
  5
18CA7
330
18C7A
100
AcDbEntity
  8
細線
100
AcDbLine
 10
1597.970602115529
 20
1320.494443351421
 30
0.0
 11
1595.639055639342
 21
1325.4944609051
 31
0.0
  0
LINE
  5
18CA8
330
18C7A
100
AcDbEntity
  8
細線
100
AcDbLine
 10
1595.639055639342
 20
1325.4944609051
 30
0.0
 11
1530.302132220869
 21
1325.494460905089
 31
0.0
  0
ARC
  5
18CA9
330
18C7A
100
AcDbEntity
  8
部品1
 48
0.01
100
AcDbCircle
 10
1483.470482677778
 20
1319.493338720063
 30
0.0
 40
0.5
100
AcDbArc
 50
270.0
 51
0.0
  0
LINE
  5
18CAA
330
18C7A
100
AcDbEntity
  8
部品1
 48
0.01
100
AcDbLine
 10
1483.970482677778
 20
1320.493338720063
 30
0.0
 11
1483.970482677778
 21
1319.493338720063
 31
0.0
  0
LINE
  5
18CAB
330
18C7A
100
AcDbEntity
  8
部品1
 48
0.01
100
AcDbLine
 10
1483.970482677778
 20
1320.493338720063
 30
0.0
 11
1483.970482677778
 21
1319.493338720063
 31
0.0
  0
LINE
  5
18CAC
330
18C7A
100
AcDbEntity
  8
部品1
 48
0.01
100
AcDbLine
 10
1483.470482677778
 20
1318.993338720063
 30
0.0
 11
1476.857977247713
 21
1318.993338720062
 31
0.0
  0
ARC
  5
18CAD
330
18C7A
100
AcDbEntity
  8
部品1
100
AcDbCircle
 10
1476.926326800494
 20
1319.993338720062
 30
0.0
 40
1.0
100
AcDbArc
 50
160.5287793655865
 51
270.0
  0
ARC
  5
18CAE
330
18C7A
100
AcDbEntity
  8
部品1
100
AcDbCircle
 10
1451.470482677778
 20
1328.993338720062
 30
0.0
 40
26.0
100
AcDbArc
 50
340.5287793655865
 51
0.0
  0
LINE
  5
18CAF
330
18C7A
100
AcDbEntity
  8
部品1
100
AcDbLine
 10
1477.470482677778
 20
1328.993338720062
 30
0.0
 11
1477.470482677778
 21
1333.993338720061
 31
0.0
  0
ARC
  5
18CB0
330
18C7A
100
AcDbEntity
  8
部品1
 48
0.01
100
AcDbCircle
 10
1475.470482677778
 20
1333.993338720061
 30
0.0
 40
2.0
100
AcDbArc
 50
0.0
 51
90.0
  0
ARC
  5
18CB1
330
18C7A
100
AcDbEntity
  8
部品1
100
AcDbCircle
 10
1473.862091052968
 20
1332.993338720062
 30
0.0
 40
3.0
100
AcDbArc
 50
90.0
 51
141.6069559808035
  0
LINE
  5
18CB2
330
18C7A
100
AcDbEntity
  8
部品1
 48
0.01
100
AcDbLine
 10
1475.470482677778
 20
1335.993338720062
 30
0.0
 11
1473.862091052968
 21
1335.993338720062
 31
0.0
  0
ARC
  5
18CB3
330
18C7A
100
AcDbEntity
  8
部品1
100
AcDbCircle
 10
1455.399768463507
 20
1332.293338720065
 30
0.0
 40
3.0
100
AcDbArc
 50
254.0576313943215
 51
270.0
  0
ARC
  5
18CB4
330
18C7A
100
AcDbEntity
  8
部品1
100
AcDbCircle
 10
1462.541196892049
 20
1332.293338720065
 30
0.0
 40
3.0
100
AcDbArc
 50
270.0
 51
285.9423686056786
  0
LINE
  5
18CB5
330
18C7A
100
AcDbEntity
  8
部品1
100
AcDbLine
 10
1462.541196892049
 20
1329.293338720064
 30
0.0
 11
1455.399768463507
 21
1329.293338720064
 31
0.0
  0
ARC
  5
18CB6
330
18C7A
100
AcDbEntity
  8
部品1
100
AcDbCircle
 10
1458.970482677778
 20
1344.793338720065
 30
0.0
 40
16.0
100
AcDbArc
 50
285.9423686056786
 51
321.6069559808035
  0
LINE
  5
18CB7
330
18C7A
100
AcDbEntity
  8
部品1
 48
0.01
100
AcDbLine
 10
1442.470482677778
 20
1335.993338720062
 30
0.0
 11
1444.078874302588
 21
1335.993338720062
 31
0.0
  0
ARC
  5
18CB8
330
18C7A
100
AcDbEntity
  8
部品1
100
AcDbCircle
 10
1444.078874302588
 20
1332.993338720062
 30
0.0
 40
3.0
100
AcDbArc
 50
38.39304401919648
 51
90.0
  0
ARC
  5
18CB9
330
18C7A
100
AcDbEntity
  8
部品1
100
AcDbCircle
 10
1458.970482677778
 20
1344.793338720065
 30
0.0
 40
16.0
100
AcDbArc
 50
218.3930440191965
 51
254.0576313943215
  0
LINE
  5
18CBA
330
18C7A
100
AcDbEntity
  8
部品1
100
AcDbLine
 10
1440.470482677778
 20
1328.993338720062
 30
0.0
 11
1440.470482677778
 21
1333.993338720061
 31
0.0
  0
ARC
  5
18CBB
330
18C7A
100
AcDbEntity
  8
部品1
 48
0.01
100
AcDbCircle
 10
1442.470482677778
 20
1333.993338720061
 30
0.0
 40
2.0
100
AcDbArc
 50
90.0
 51
180.0
  0
ARC
  5
18CBC
330
18C7A
100
AcDbEntity
  8
部品1
100
AcDbCircle
 10
1466.470482677778
 20
1328.993338720062
 30
0.0
 40
26.0
100
AcDbArc
 50
180.0
 51
199.4712206344134
  0
ARC
  5
18CBD
330
18C7A
100
AcDbEntity
  8
部品1
 48
0.01
100
AcDbCircle
 10
1434.470482677778
 20
1319.493338720063
 30
0.0
 40
0.5
100
AcDbArc
 50
180.0
 51
270.0
  0
LINE
  5
18CBE
330
18C7A
100
AcDbEntity
  8
部品1
 48
0.01
100
AcDbLine
 10
1434.470482677778
 20
1318.993338720063
 30
0.0
 11
1441.014638555061
 21
1318.993338720062
 31
0.0
  0
LINE
  5
18CBF
330
18C7A
100
AcDbEntity
  8
部品1
 48
0.01
100
AcDbLine
 10
1433.970482677778
 20
1320.493338720063
 30
0.0
 11
1433.970482677778
 21
1319.493338720063
 31
0.0
  0
ARC
  5
18CC0
330
18C7A
100
AcDbEntity
  8
部品1
100
AcDbCircle
 10
1441.014638555061
 20
1319.993338720062
 30
0.0
 40
1.0
100
AcDbArc
 50
270.0
 51
19.47122063441346
  0
LINE
  5
18CC1
330
18C7A
100
AcDbEntity
  8
細線
100
AcDbLine
 10
1479.470482677785
 20
1338.493338720065
 30
0.0
 11
1438.470482677785
 21
1338.493338720058
 31
0.0
  0
LINE
  5
18CC2
330
18C7A
100
AcDbEntity
  8
細線
100
AcDbLine
 10
1438.470482677785
 20
1338.493338720058
 30
0.0
 11
1438.470482677785
 21
1320.49333872004
 31
0.0
  0
LINE
  5
18CC3
330
18C7A
100
AcDbEntity
  8
細線
100
AcDbLine
 10
1479.470482677785
 20
1338.493338720065
 30
0.0
 11
1479.470482677785
 21
1320.49333872004
 31
0.0
  0
LINE
  5
18CC4
330
18C7A
100
AcDbEntity
  8
細線
100
AcDbLine
 10
1322.970589276523
 20
1324.494269174465
 30
0.0
 11
1322.970589276523
 21
1320.494269174513
 31
0.0
  0
LINE
  5
18CC5
330
18C7A
100
AcDbEntity
  8
寸法
 48
50.0
100
AcDbLine
 10
1746.17359555837
 20
1170.531020743327
 30
0.0
 11
1694.767587648266
 21
1170.531020743327
 31
0.0
  0
LINE
  5
18CC6
330
18C7A
100
AcDbEntity
  8
寸法
 48
50.0
100
AcDbLine
 10
1694.767587648266
 20
1170.531020743327
 30
0.0
 11
1694.767587648266
 21
1201.841179395494
 31
0.0
  0
LINE
  5
18CC7
330
18C7A
100
AcDbEntity
  8
寸法
 48
50.0
100
AcDbLine
 10
1694.767587648266
 20
1201.841179395494
 30
0.0
 11
1665.006255656843
 21
1201.841179395494
 31
0.0
  0
LINE
  5
18CC8
330
18C7A
100
AcDbEntity
  8
寸法
 48
50.0
100
AcDbLine
 10
1665.006255656843
 20
1201.841179395494
 30
0.0
 11
1720.470591603318
 21
1239.420630324105
 31
0.0
  0
LINE
  5
18CC9
330
18C7A
100
AcDbEntity
  8
寸法
 48
50.0
100
AcDbLine
 10
1775.934927549793
 20
1201.841179395494
 30
0.0
 11
1720.470591603318
 21
1239.420630324105
 31
0.0
  0
LINE
  5
18CCA
330
18C7A
100
AcDbEntity
  8
寸法
 48
50.0
100
AcDbLine
 10
1746.17359555837
 20
1201.841179395494
 30
0.0
 11
1775.934927549793
 21
1201.841179395494
 31
0.0
  0
LINE
  5
18CCB
330
18C7A
100
AcDbEntity
  8
寸法
 48
50.0
100
AcDbLine
 10
1746.17359555837
 20
1170.531020743327
 30
0.0
 11
1746.17359555837
 21
1201.841179395494
 31
0.0
  0
LINE
  5
18CCC
330
18C7A
100
AcDbEntity
  8
寸法
 48
50.0
100
AcDbLine
 10
1694.767587648266
 20
1170.531020743327
 30
0.0
 11
1746.17359555837
 21
1170.531020743327
 31
0.0
  0
LINE
  5
18CCD
330
18C7A
100
AcDbEntity
  8
寸法
 48
50.0
100
AcDbLine
 10
2025.339129835225
 20
1227.676611498152
 30
0.0
 11
2025.339129835225
 21
1174.01297691636
 31
0.0
  0
LINE
  5
18CCE
330
18C7A
100
AcDbEntity
  8
寸法
 48
50.0
100
AcDbLine
 10
2114.623348430647
 20
1203.752977228664
 30
0.0
 11
2025.339129835225
 21
1227.676611498152
 31
0.0
  0
LINE
  5
18CCF
330
18C7A
100
AcDbEntity
  8
寸法
 48
50.0
100
AcDbLine
 10
1895.471408254923
 20
1203.752977228664
 30
0.0
 11
2114.623348430647
 21
1203.752977228664
 31
0.0
  0
DIMENSION
  5
18CD0
330
18C7A
100
AcDbEntity
  8
寸法
 48
50.0
100
AcDbDimension
  2
*D15
 10
2588.970589276523
 20
706.3240511224249
 30
0.0
 11
1969.060022905491
 21
706.3240511224249
 31
0.0
 12
-3742.925985830444
 22
-6453.628869860112
 32
0.0
 70
   128
  1
有効開口部間口\P<>
 71
     5
 42
1266.0
  3
INABA_S40G
100
AcDbAlignedDimension
 13
1322.970589276523
 23
1315.494269174465
 33
0.0
 14
2588.970589276523
 24
1315.494269174465
 34
0.0
100
AcDbRotatedDimension
1001
ACAD
1000
DSTYLE
1002
{
1070
   341
1005
0
1002
}
  0
LINE
  5
18CD1
330
18C7A
100
AcDbEntity
  8
部品1
100
AcDbLine
 10
3409.970589276524
 20
1392.494269174465
 30
0.0
 11
3437.970589276523
 21
1392.494269174465
 31
0.0
  0
DIMENSION
  5
18CD2
330
18C7A
100
AcDbEntity
  8
寸法
100
AcDbDimension
  2
*D16
 10
3674.266172669749
 20
1315.494269174465
 30
0.0
 11
3674.266172669748
 21
1177.494269174462
 31
0.0
 12
-3742.925985830444
 22
-6453.628869860112
 32
0.0
 70
   128
 71
     5
 42
77.0
  3
INABA_S40
100
AcDbAlignedDimension
 13
3437.970589276523
 23
1392.494269174465
 33
0.0
 14
3436.970589276523
 24
1315.494269174465
 34
0.0
 50
90.0
100
AcDbRotatedDimension
1001
ACAD
1000
DSTYLE
1002
{
1070
    41
1040
0.5
1070
    44
1040
1.0
1070
   147
1040
0.8
1070
   271
1070
     2
1070
   272
1070
     2
1070
   289
1070
     3
1070
   340
1005
F706
1070
   343
1005
164B4
1070
   344
1005
164B4
1002
}
  0
LINE
  5
18CD3
330
18C7A
100
AcDbEntity
  8
部品1
100
AcDbLine
 10
3437.970589276523
 20
1315.494269174465
 30
0.0
 11
3437.970589276523
 21
1392.494269174465
 31
0.0
  0
LINE
  5
18CD4
330
18C7A
100
AcDbEntity
  8
部品1
100
AcDbLine
 10
3398.970589276523
 20
1388.494269174465
 30
0.0
 11
3409.970589276524
 21
1388.494269174465
 31
0.0
  0
LINE
  5
18CD5
330
18C7A
100
AcDbEntity
  8
部品1
100
AcDbLine
 10
3407.970589276523
 20
1324.494269174465
 30
0.0
 11
3407.970589276523
 21
1315.494269174465
 31
0.0
  0
LINE
  5
18CD6
330
18C7A
100
AcDbEntity
  8
部品1
100
AcDbLine
 10
3398.970589276523
 20
1324.494269174465
 30
0.0
 11
3407.970589276523
 21
1324.494269174465
 31
0.0
  0
LINE
  5
18CD7
330
18C7A
100
AcDbEntity
  8
部品1
100
AcDbLine
 10
3398.970589276523
 20
1388.494269174465
 30
0.0
 11
3398.970589276523
 21
1324.494269174465
 31
0.0
  0
LINE
  5
18CD8
330
18C7A
100
AcDbEntity
  8
部品1
100
AcDbLine
 10
3409.970589276524
 20
1419.494269174465
 30
0.0
 11
3409.970589276524
 21
1388.494269174465
 31
0.0
  0
LINE
  5
18CD9
330
18C7A
100
AcDbEntity
  8
部品1
100
AcDbLine
 10
1322.970589276523
 20
1388.494269174465
 30
0.0
 11
1311.970589276523
 21
1388.494269174465
 31
0.0
  0
LINE
  5
18CDA
330
18C7A
100
AcDbEntity
  8
部品1
100
AcDbLine
 10
1283.970589276523
 20
1392.494269174465
 30
0.0
 11
1311.970589276523
 21
1392.494269174465
 31
0.0
  0
LINE
  5
18CDB
330
18C7A
100
AcDbEntity
  8
部品1
100
AcDbLine
 10
1313.970589276523
 20
1324.494269174465
 30
0.0
 11
1313.970589276523
 21
1315.494269174465
 31
0.0
  0
LINE
  5
18CDC
330
18C7A
100
AcDbEntity
  8
部品1
100
AcDbLine
 10
1322.970589276523
 20
1324.494269174465
 30
0.0
 11
1313.970589276523
 21
1324.494269174465
 31
0.0
  0
LINE
  5
18CDD
330
18C7A
100
AcDbEntity
  8
部品1
100
AcDbLine
 10
1313.970589276523
 20
1315.494269174465
 30
0.0
 11
1283.970589276523
 21
1315.494269174465
 31
0.0
  0
LINE
  5
18CDE
330
18C7A
100
AcDbEntity
  8
部品1
100
AcDbLine
 10
1283.970589276523
 20
1315.494269174465
 30
0.0
 11
1283.970589276523
 21
1392.494269174465
 31
0.0
  0
LINE
  5
18CDF
330
18C7A
100
AcDbEntity
  8
部品1
100
AcDbLine
 10
1322.970589276523
 20
1388.494269174465
 30
0.0
 11
1322.970589276523
 21
1324.494269174465
 31
0.0
  0
LINE
  5
18CE0
330
18C7A
100
AcDbEntity
  8
部品1
100
AcDbLine
 10
1311.970589276523
 20
1419.494269174462
 30
0.0
 11
1311.970589276523
 21
1388.494269174465
 31
0.0
  0
LINE
  5
18CE1
330
18C7A
100
AcDbEntity
  8
部品1
100
AcDbLine
 10
1311.970589276523
 20
1419.494269174462
 30
0.0
 11
3409.970589276524
 21
1419.494269174465
 31
0.0
  0
LINE
  5
18CE2
330
18C7A
100
AcDbEntity
  8
部品1
100
AcDbLine
 10
3407.970589276523
 20
1315.494269174465
 30
0.0
 11
3437.970589276523
 21
1315.494269174465
 31
0.0
  0
LINE
  5
18CE3
330
18C7A
100
AcDbEntity
  8
部品1
100
AcDbLine
 10
1313.970589276523
 20
1315.494269174465
 30
0.0
 11
3410.970589276523
 21
1315.494269174465
 31
0.0
  0
LINE
  5
18CE4
330
18C7A
100
AcDbEntity
  8
細線
  6
Continuous
 62
     5
100
AcDbLine
 10
2689.970589276527
 20
1354.494269174462
 30
0.0
 11
2689.970589276527
 21
1354.494269174462
 31
0.0
  0
LINE
  5
18CE5
330
18C7A
100
AcDbEntity
  8
細線
  6
Continuous
 62
     5
100
AcDbLine
 10
2682.470589276527
 20
1354.494269174462
 30
0.0
 11
2682.470589276527
 21
1354.494269174462
 31
0.0
  0
LINE
  5
18CE6
330
18C7A
100
AcDbEntity
  8
細線
  6
Continuous
 62
     5
100
AcDbLine
 10
2676.470589276527
 20
1354.494269174462
 30
0.0
 11
2676.470589276527
 21
1354.494269174462
 31
0.0
  0
LINE
  5
18CE7
330
18C7A
100
AcDbEntity
  8
細線
  6
Continuous
 62
     5
100
AcDbLine
 10
2743.970589276527
 20
1373.494269174462
 30
0.0
 11
2743.970589276527
 21
1373.494269174462
 31
0.0
  0
LINE
  5
18CE8
330
18C7A
100
AcDbEntity
  8
細線
 48
50.0
100
AcDbLine
 10
1336.970593930116
 20
1341.094443351418
 30
0.0
 11
1336.970593930113
 21
1349.490593759059
 31
0.0
  0
LINE
  5
18CE9
330
18C7A
100
AcDbEntity
  8
細線
 48
50.0
100
AcDbLine
 10
1336.970593930113
 20
1349.490593759059
 30
0.0
 11
1322.970589276523
 21
1349.490593759057
 31
0.0
  0
LINE
  5
18CEA
330
18C7A
100
AcDbEntity
  8
細線
 48
50.0
100
AcDbLine
 10
2087.970593930113
 20
1337.644443351419
 30
0.0
 11
2087.970593930113
 21
1342.494443351421
 31
0.0
  0
LINE
  5
18CEB
330
18C7A
100
AcDbEntity
  8
細線
 48
50.0
100
AcDbLine
 10
2087.970593930113
 20
1342.494443351421
 30
0.0
 11
2102.970593930113
 21
1342.494443351421
 31
0.0
  0
LINE
  5
18CEC
330
18C7A
100
AcDbEntity
  8
細線
 48
50.0
100
AcDbLine
 10
2102.970593930113
 20
1342.494443351421
 30
0.0
 11
2102.970593930115
 21
1349.494443351419
 31
0.0
  0
LINE
  5
18CED
330
18C7A
100
AcDbEntity
  8
細線
 48
50.0
100
AcDbLine
 10
2102.970593930115
 20
1349.494443351419
 30
0.0
 11
2117.970593930113
 21
1349.494443351419
 31
0.0
  0
LINE
  5
18CEE
330
18C7A
100
AcDbEntity
  8
細線
 48
50.0
100
AcDbLine
 10
2117.970593930113
 20
1349.494443351419
 30
0.0
 11
2117.970593930113
 21
1320.494443351421
 31
0.0
  0
LINE
  5
18CEF
330
18C7A
100
AcDbEntity
  8
細線
 48
50.0
100
AcDbLine
 10
1313.970589276523
 20
1320.491777694889
 30
0.0
 11
1527.970593930113
 21
1320.494460905133
 31
0.0
  0
LINE
  5
18CF0
330
18C7A
100
AcDbEntity
  8
細線
 48
50.0
100
AcDbLine
 10
2017.970593930113
 20
1320.494443351421
 30
0.0
 11
2117.970593930113
 21
1320.494443351421
 31
0.0
  0
LINE
  5
18CF1
330
18C7A
100
AcDbEntity
  8
細線
 48
50.0
100
AcDbLine
 10
1737.970593930113
 20
1320.494443351419
 30
0.0
 11
1807.970593930113
 21
1320.494443351423
 31
0.0
  0
LINE
  5
18CF2
330
18C7A
100
AcDbEntity
  8
細線
 48
50.0
100
AcDbLine
 10
1750.832558942642
 20
1320.494443351419
 30
0.0
 11
1756.588076525309
 21
1338.765294641913
 31
0.0
  0
LINE
  5
18CF3
330
18C7A
100
AcDbEntity
  8
細線
 48
50.0
100
AcDbLine
 10
1756.588076525309
 20
1338.765294641913
 30
0.0
 11
1767.516525005743
 21
1338.765294641911
 31
0.0
  0
ARC
  5
18CF4
330
18C7A
100
AcDbEntity
  8
細線
 48
50.0
100
AcDbCircle
 10
1767.516525005743
 20
1337.765294641911
 30
0.0
 40
1.0
100
AcDbArc
 50
24.62431835207225
 51
90.0
  0
ARC
  5
18CF5
330
18C7A
100
AcDbEntity
  8
細線
 48
50.0
100
AcDbCircle
 10
1778.425237120377
 20
1337.765294641911
 30
0.0
 40
1.0
100
AcDbArc
 50
90.0
 51
155.3756816479277
  0
ARC
  5
18CF6
330
18C7A
100
AcDbEntity
  8
細線
 48
50.0
100
AcDbCircle
 10
1772.970881063058
 20
1340.265294641911
 30
0.0
 40
5.0
100
AcDbArc
 50
204.6243183520723
 51
335.3756816479278
  0
LINE
  5
18CF7
330
18C7A
100
AcDbEntity
  8
細線
 48
50.0
100
AcDbLine
 10
1778.425237120377
 20
1338.765294641911
 30
0.0
 11
1789.35368560081
 21
1338.765294641913
 31
0.0
  0
LINE
  5
18CF8
330
18C7A
100
AcDbEntity
  8
細線
 48
50.0
100
AcDbLine
 10
1789.35368560081
 20
1338.765294641913
 30
0.0
 11
1795.109203183478
 21
1320.494443351423
 31
0.0
  0
LINE
  5
18CF9
330
18C7A
100
AcDbEntity
  8
細線
 48
50.0
100
AcDbLine
 10
2087.970593930113
 20
1341.094443351419
 30
0.0
 11
1336.970593930116
 21
1341.094443351418
 31
0.0
  0
LINE
  5
18CFA
330
18C7A
100
AcDbEntity
  8
細線
 48
50.0
100
AcDbLine
 10
1947.970593930113
 20
1320.494443351421
 30
0.0
 11
1877.970593930113
 21
1320.494443351421
 31
0.0
  0
LINE
  5
18CFB
330
18C7A
100
AcDbEntity
  8
細線
100
AcDbLine
 10
1667.970593930113
 20
1320.494443351421
 30
0.0
 11
1597.970602115529
 21
1320.494443351421
 31
0.0
  0
LINE
  5
18CFC
330
18C7A
100
AcDbEntity
  8
細線
 48
50.0
100
AcDbLine
 10
2741.970584622936
 20
1375.094487209288
 30
0.0
 11
2106.970593930113
 21
1375.094487209284
 31
0.0
  0
LINE
  5
18CFD
330
18C7A
100
AcDbEntity
  8
細線
 48
50.0
100
AcDbLine
 10
2106.970593930113
 20
1371.990637616925
 30
0.0
 11
2106.970593930113
 21
1376.490637616925
 31
0.0
  0
LINE
  5
18CFE
330
18C7A
100
AcDbEntity
  8
細線
 48
50.0
100
AcDbLine
 10
2106.970593930113
 20
1376.490637616925
 30
0.0
 11
2091.970593930113
 21
1376.490637616925
 31
0.0
  0
LINE
  5
18CFF
330
18C7A
100
AcDbEntity
  8
細線
 48
50.0
100
AcDbLine
 10
2091.970593930113
 20
1376.490637616925
 30
0.0
 11
2091.970593930113
 21
1383.490637616927
 31
0.0
  0
LINE
  5
18D00
330
18C7A
100
AcDbEntity
  8
細線
 48
50.0
100
AcDbLine
 10
2091.970593930113
 20
1383.490637616927
 30
0.0
 11
2076.970593930115
 21
1383.490637616924
 31
0.0
  0
LINE
  5
18D01
330
18C7A
100
AcDbEntity
  8
細線
 48
50.0
100
AcDbLine
 10
2076.970593930115
 20
1383.490637616924
 30
0.0
 11
2076.970593930115
 21
1345.890409513813
 31
0.0
  0
LINE
  5
18D02
330
18C7A
100
AcDbEntity
  8
細線
 48
50.0
100
AcDbLine
 10
2076.970593930115
 20
1345.890409513813
 30
0.0
 11
2096.970601231289
 21
1345.890451063353
 31
0.0
  0
LINE
  5
18D03
330
18C7A
100
AcDbEntity
  8
細線
 48
50.0
100
AcDbLine
 10
2096.970556362348
 20
1354.493912699161
 30
0.0
 11
2096.970601231289
 21
1345.890451063353
 31
0.0
  0
LINE
  5
18D04
330
18C7A
100
AcDbEntity
  8
細線
 48
50.0
100
AcDbLine
 10
2741.970584622936
 20
1371.644487209287
 30
0.0
 11
2741.970584622936
 21
1376.494487209284
 31
0.0
  0
LINE
  5
18D05
330
18C7A
100
AcDbEntity
  8
細線
 48
50.0
100
AcDbLine
 10
2741.970584622936
 20
1376.494487209284
 30
0.0
 11
2756.970584622934
 21
1376.494487209285
 31
0.0
  0
LINE
  5
18D06
330
18C7A
100
AcDbEntity
  8
細線
 48
50.0
100
AcDbLine
 10
2756.970584622934
 20
1376.494487209285
 30
0.0
 11
2756.970596256909
 21
1383.494487209331
 31
0.0
  0
LINE
  5
18D07
330
18C7A
100
AcDbEntity
  8
細線
 48
50.0
100
AcDbLine
 10
2756.970596256909
 20
1383.494487209331
 30
0.0
 11
2771.970594427439
 21
1383.494487209329
 31
0.0
  0
LINE
  5
18D08
330
18C7A
100
AcDbEntity
  8
細線
 48
50.0
100
AcDbLine
 10
2771.970594427439
 20
1383.494487209329
 30
0.0
 11
2771.970584125617
 21
1354.494281037055
 31
0.0
  0
LINE
  5
18D09
330
18C7A
100
AcDbEntity
  8
細線
 48
50.0
100
AcDbLine
 10
2458.070304175992
 20
1354.494278397076
 30
0.0
 11
2389.470863838818
 21
1354.494283787084
 31
0.0
  0
LINE
  5
18D0A
330
18C7A
100
AcDbEntity
  8
細線
 48
50.0
100
AcDbLine
 10
2096.970556362348
 20
1354.493912699161
 30
0.0
 11
2108.203245717057
 21
1354.494095652309
 31
0.0
  0
ARC
  5
18D0B
330
18C7A
100
AcDbEntity
  8
細線
 48
50.0
100
AcDbCircle
 10
2114.785538024393
 20
1353.294259565922
 30
0.0
 40
1.8
100
AcDbArc
 50
270.0006665777295
 51
345.000555481349
  0
LINE
  5
18D0C
330
18C7A
100
AcDbEntity
  8
細線
 48
50.0
100
AcDbLine
 10
2116.771971470473
 20
1353.753100023201
 30
0.0
 11
2116.524209028273
 21
1352.828402141094
 31
0.0
  0
LINE
  5
18D0D
330
18C7A
100
AcDbEntity
  8
細線
 48
50.0
100
AcDbLine
 10
2114.785558965548
 20
1351.494259566043
 30
0.0
 11
2111.155631546781
 21
1351.494217335563
 31
0.0
  0
ARC
  5
18D0E
330
18C7A
100
AcDbEntity
  8
細線
 48
50.0
100
AcDbCircle
 10
2111.155610605627
 20
1353.29421733544
 30
0.0
 40
1.8
100
AcDbArc
 50
195.0010443049965
 51
270.0006665777295
  0
LINE
  5
18D0F
330
18C7A
100
AcDbEntity
  8
細線
 48
50.0
100
AcDbLine
 10
2109.169183113368
 20
1353.752932303007
 30
0.0
 11
2109.416952609882
 21
1352.828311364425
 31
0.0
  0
ARC
  5
18D10
330
18C7A
100
AcDbEntity
  8
細線
 48
50.0
100
AcDbCircle
 10
2108.203262004622
 20
1353.494095652444
 30
0.0
 40
1.0
100
AcDbArc
 50
15.00104430499651
 51
90.00093320877969
  0
LINE
  5
18D11
330
18C7A
100
AcDbEntity
  8
細線
 48
50.0
100
AcDbLine
 10
2117.737892825577
 20
1354.494290342714
 30
0.0
 11
2118.679652976481
 21
1354.494296916564
 31
0.0
  0
ARC
  5
18D12
330
18C7A
100
AcDbEntity
  8
細線
 48
50.0
100
AcDbCircle
 10
2117.737899805961
 20
1353.49429034274
 30
0.0
 40
1.0
100
AcDbArc
 50
90.0003999466794
 51
165.000555481349
  0
LINE
  5
18D13
330
18C7A
100
AcDbEntity
  8
細線
 48
50.0
100
AcDbLine
 10
2669.470584622926
 20
1354.494281037055
 30
0.0
 11
2771.970584125617
 21
1354.494281037055
 31
0.0
  0
LINE
  5
18D14
330
18C7A
100
AcDbEntity
  8
細線
 48
50.0
100
AcDbLine
 10
2179.47061994182
 20
1354.494289224422
 30
0.0
 11
2118.370558714898
 21
1354.494296916564
 31
0.0
  0
LINE
  5
18D15
330
18C7A
100
AcDbEntity
  8
細線
 48
50.0
100
AcDbLine
 10
2599.470584622926
 20
1354.494281037057
 30
0.0
 11
2529.470584622926
 21
1354.494281037055
 31
0.0
  0
LINE
  5
18D16
330
18C7A
100
AcDbEntity
  8
細線
 48
50.0
100
AcDbLine
 10
2319.470584622926
 20
1354.494281037054
 30
0.0
 11
2249.470567335051
 21
1354.494281037057
 31
0.0
  0
ARC
  5
18D17
330
18C7A
100
AcDbEntity
  8
細線
 48
50.0
100
AcDbCircle
 10
2756.170589276533
 20
1387.694269174466
 30
0.0
 40
0.8
100
AcDbArc
 50
359.9997333689499
 51
89.99986668437072
  0
ARC
  5
18D18
330
18C7A
100
AcDbEntity
  8
細線
 48
50.0
100
AcDbCircle
 10
2763.770596101631
 20
1387.694280343081
 30
0.0
 40
0.8
100
AcDbArc
 50
90.00014387753465
 51
179.9997333689498
  0
LINE
  5
18D19
330
18C7A
100
AcDbEntity
  8
細線
 48
50.0
100
AcDbLine
 10
2756.170591137969
 20
1388.494269174465
 30
0.0
 11
2750.970589276525
 21
1388.494269174465
 31
0.0
  0
ARC
  5
18D1A
330
18C7A
100
AcDbEntity
  8
細線
 48
50.0
100
AcDbCircle
 10
2757.670589276524
 20
1386.194269174464
 30
0.0
 40
0.7
100
AcDbArc
 50
180.0
 51
270.0
  0
ARC
  5
18D1B
330
18C7A
100
AcDbEntity
  8
細線
 48
50.0
100
AcDbCircle
 10
2762.270589276524
 20
1386.194269174464
 30
0.0
 40
0.7
100
AcDbArc
 50
270.0
 51
0.0
  0
LINE
  5
18D1C
330
18C7A
100
AcDbEntity
  8
細線
 48
50.0
100
AcDbLine
 10
2762.970589276525
 20
1386.194269174464
 30
0.0
 11
2762.970596101639
 21
1387.694284065954
 31
0.0
  0
LINE
  5
18D1D
330
18C7A
100
AcDbEntity
  8
細線
 48
50.0
100
AcDbLine
 10
2757.670589276524
 20
1385.494269174465
 30
0.0
 11
2762.270589276524
 21
1385.494269174465
 31
0.0
  0
LINE
  5
18D1E
330
18C7A
100
AcDbEntity
  8
細線
 48
50.0
100
AcDbLine
 10
2756.970589276525
 20
1387.694269174466
 30
0.0
 11
2756.970589276525
 21
1386.194269174464
 31
0.0
  0
LINE
  5
18D1F
330
18C7A
100
AcDbEntity
  8
細線
 48
50.0
100
AcDbLine
 10
3382.570589276527
 20
1418.494269174465
 30
0.0
 11
2745.970589276525
 21
1418.494269174463
 31
0.0
  0
LINE
  5
18D20
330
18C7A
100
AcDbEntity
  8
細線
 48
50.0
100
AcDbLine
 10
3408.470589276525
 20
1413.494269174467
 30
0.0
 11
3392.570589276527
 21
1413.494269174465
 31
0.0
  0
LINE
  5
18D21
330
18C7A
100
AcDbEntity
  8
細線
 48
50.0
100
AcDbLine
 10
3392.570589276526
 20
1413.494269174465
 30
0.0
 11
3382.570589276527
 21
1418.494269174465
 31
0.0
  0
LINE
  5
18D22
330
18C7A
100
AcDbEntity
  8
細線
100
AcDbLine
 10
2993.470589276525
 20
1388.494269174465
 30
0.0
 11
2993.470589276525
 21
1417.794269174464
 31
0.0
  0
LINE
  5
18D23
330
18C7A
100
AcDbEntity
  8
細線
100
AcDbLine
 10
2993.470589276525
 20
1417.794269174464
 30
0.0
 11
3013.470589276525
 21
1417.794269174464
 31
0.0
  0
LINE
  5
18D24
330
18C7A
100
AcDbEntity
  8
細線
100
AcDbLine
 10
3013.470589276525
 20
1388.494269174465
 30
0.0
 11
3013.470589276525
 21
1417.794269174464
 31
0.0
  0
LINE
  5
18D25
330
18C7A
100
AcDbEntity
  8
細線
100
AcDbLine
 10
3170.720589276524
 20
1388.494269174465
 30
0.0
 11
3100.720589276523
 21
1388.494269174465
 31
0.0
  0
LINE
  5
18D26
330
18C7A
100
AcDbEntity
  8
細線
 48
50.0
100
AcDbLine
 10
2890.720589276525
 20
1388.494269174465
 30
0.0
 11
2763.766368849365
 21
1388.494269174465
 31
0.0
  0
LINE
  5
18D27
330
18C7A
100
AcDbEntity
  8
細線
100
AcDbLine
 10
3030.720589276525
 20
1388.494269174465
 30
0.0
 11
2960.720589276525
 21
1388.494269174465
 31
0.0
  0
LINE
  5
18D28
330
18C7A
100
AcDbEntity
  8
細線
 48
50.0
100
AcDbLine
 10
2750.970589276525
 20
1380.494269174465
 30
0.0
 11
2750.970589276525
 21
1388.494269174465
 31
0.0
  0
LINE
  5
18D29
330
18C7A
100
AcDbEntity
  8
細線
 48
50.0
100
AcDbLine
 10
2730.970589276524
 20
1380.494269174467
 30
0.0
 11
2750.970589276525
 21
1380.494269174465
 31
0.0
  0
LINE
  5
18D2A
330
18C7A
100
AcDbEntity
  8
細線
 48
50.0
100
AcDbLine
 10
2745.970589276525
 20
1418.494269174465
 30
0.0
 11
2745.970589276525
 21
1413.494269174465
 31
0.0
  0
LINE
  5
18D2B
330
18C7A
100
AcDbEntity
  8
細線
 48
50.0
100
AcDbLine
 10
2730.970589276525
 20
1418.494269174463
 30
0.0
 11
2745.970589276525
 21
1418.494269174465
 31
0.0
  0
LINE
  5
18D2C
330
18C7A
100
AcDbEntity
  8
細線
 48
50.0
100
AcDbLine
 10
2730.970589276524
 20
1380.494269174467
 30
0.0
 11
2730.970589276525
 21
1418.494269174463
 31
0.0
  0
LINE
  5
18D2D
330
18C7A
100
AcDbEntity
  8
細線
100
AcDbLine
 10
3398.970589276523
 20
1388.494269174465
 30
0.0
 11
3240.720589276525
 21
1388.494269174465
 31
0.0
  0
LINE
  5
18D2E
330
18C7A
100
AcDbEntity
  8
細線
 48
50.0
100
AcDbLine
 10
3408.470589276525
 20
1413.494269174467
 30
0.0
 11
3408.470589276524
 21
1388.494269174465
 31
0.0
  0
TEXT
  5
18D2F
330
18C7A
100
AcDbEntity
  8
部品1
100
AcDbText
 10
1860.154865991392
 20
46.99880823813145
 30
0.0
 40
135.0
  1
平面図
  7
STYLE2
100
AcDbText
  0
LWPOLYLINE
  5
18D30
330
18C7A
100
AcDbEntity
  8
部品1
100
AcDbPolyline
 90
        4
 70
     1
 43
0.0
 10
1770.23525616235
 20
239.8923374566548
 10
1770.23525616235
 20
0.0000159111223184
 10
2533.705922390791
 20
0.0000159111223184
 10
2533.705922390791
 20
239.8923374566548
  0
LINE
  5
18D31
330
18C7A
100
AcDbEntity
  8
部品1
100
AcDbLine
 10
1534.470589276487
 20
3154.494269174626
 30
0.0
 11
2769.470589276552
 21
3154.494269174626
 31
0.0
  0
LINE
  5
18D32
330
18C7A
100
AcDbEntity
  8
部品1
 48
50.0
100
AcDbLine
 10
1311.970589276523
 20
1420.494269174462
 30
0.0
 11
3411.970589276523
 21
1420.494269174465
 31
0.0
  0
LINE
  5
18D33
330
18C7A
100
AcDbEntity
  8
部品1
 48
50.0
100
AcDbLine
 10
471.9705892765232
 20
1392.494269174465
 30
0.0
 11
1311.970589276523
 21
1392.494269174465
 31
0.0
  0
DIMENSION
  5
18D34
330
18C7A
100
AcDbEntity
  8
寸法
100
AcDbDimension
  2
*D14
 10
2710.234916278077
 20
2488.887829538828
 30
0.0
 11
2338.318822490183
 21
2488.887829538828
 31
0.0
 12
-3742.925985830444
 22
-6453.628869860112
 32
0.0
 70
   128
 71
     5
 42
1231.00000000007
  3
INABA_S40G
100
AcDbAlignedDimension
 13
1536.470589276486
 23
2702.494269174557
 33
0.0
 14
2767.470589276556
 24
2702.494269174549
 34
0.0
100
AcDbRotatedDimension
1001
ACAD
1000
DSTYLE
1002
{
1002
}
  0
LINE
  5
18D35
330
18C7A
100
AcDbEntity
  8
部品1
100
AcDbLine
 10
1536.470589276487
 20
2702.494269174557
 30
0.0
 11
2767.470589276554
 21
2702.494269174615
 31
0.0
  0
LINE
  5
18D36
330
18C7A
100
AcDbEntity
  8
部品1
100
AcDbLine
 10
1536.470589276487
 20
3152.494269174557
 30
0.0
 11
2767.470589276556
 21
3152.494269174615
 31
0.0
  0
LINE
  5
18D37
330
18C7A
100
AcDbEntity
  8
細線
 48
50.0
100
AcDbLine
 10
1508.470589276487
 20
3152.494269174558
 30
0.0
 11
445.4705892765559
 21
2702.494269174509
 31
0.0
  0
LINE
  5
18D38
330
18C7A
100
AcDbEntity
  8
細線
 48
50.0
100
AcDbLine
 10
1508.470589276487
 20
2702.494269174558
 30
0.0
 11
445.4705892765542
 21
3152.494269174509
 31
0.0
  0
LINE
  5
18D39
330
18C7A
100
AcDbEntity
  8
部品1
100
AcDbLine
 10
1556.970589276487
 20
3172.494269174611
 30
0.0
 11
1556.970589276487
 21
3154.494269174611
 31
0.0
  0
LINE
  5
18D3A
330
18C7A
100
AcDbEntity
  8
部品1
100
AcDbLine
 10
1556.970589276487
 20
3172.494269174611
 30
0.0
 11
1550.970589276487
 21
3172.494269174611
 31
0.0
  0
LINE
  5
18D3B
330
18C7A
100
AcDbEntity
  8
部品1
100
AcDbLine
 10
1534.470589276487
 20
3146.494269174608
 30
0.0
 11
1509.470589276487
 21
3146.494269174611
 31
0.0
  0
LINE
  5
18D3C
330
18C7A
100
AcDbEntity
  8
部品1
100
AcDbLine
 10
1486.970589276487
 20
3172.494269174611
 30
0.0
 11
1486.970589276487
 21
3154.494269174611
 31
0.0
  0
LINE
  5
18D3D
330
18C7A
100
AcDbEntity
  8
部品1
100
AcDbLine
 10
1492.970589276487
 20
3172.494269174611
 30
0.0
 11
1486.970589276487
 21
3172.494269174611
 31
0.0
  0
LINE
  5
18D3E
330
18C7A
100
AcDbEntity
  8
部品1
100
AcDbLine
 10
1534.470589276487
 20
2702.494269174615
 30
0.0
 11
1509.470589276487
 21
2702.494269174615
 31
0.0
  0
LINE
  5
18D3F
330
18C7A
100
AcDbEntity
  8
部品1
 48
50.0
100
AcDbLine
 10
1536.470589276487
 20
3152.494269174611
 30
0.0
 11
1536.470589276487
 21
2702.494269174615
 31
0.0
  0
LINE
  5
18D40
330
18C7A
100
AcDbEntity
  8
部品1
 48
50.0
100
AcDbLine
 10
1508.470589276487
 20
3152.494269174607
 30
0.0
 11
1508.470589276487
 21
2702.494269174615
 31
0.0
  0
LINE
  5
18D41
330
18C7A
100
AcDbEntity
  8
部品1
 48
50.0
100
AcDbLine
 10
1534.470589276487
 20
3154.494269174618
 30
0.0
 11
1534.470589276487
 21
2702.494269174615
 31
0.0
  0
LINE
  5
18D42
330
18C7A
100
AcDbEntity
  8
部品1
 48
50.0
100
AcDbLine
 10
1509.470589276487
 20
3154.494269174615
 30
0.0
 11
1509.470589276487
 21
2702.494269174615
 31
0.0
  0
LINE
  5
18D43
330
18C7A
100
AcDbEntity
  8
部品1
100
AcDbLine
 10
3411.970589276556
 20
1392.494269174582
 30
0.0
 11
3411.970589276556
 21
1420.494269174596
 31
0.0
  0
LINE
  5
18D44
330
18C7A
100
AcDbEntity
  8
部品1
100
AcDbLine
 10
1311.970589276523
 20
1392.494269174596
 30
0.0
 11
1311.970589276523
 21
1420.494269174596
 31
0.0
  0
LINE
  5
18D45
330
18C7A
100
AcDbEntity
  8
部品1
100
AcDbLine
 10
891.9705892765232
 20
1392.494269174596
 30
0.0
 11
891.9705892765232
 21
1420.494269174596
 31
0.0
  0
LINE
  5
18D46
330
18C7A
100
AcDbEntity
  8
部品1
100
AcDbLine
 10
3411.97058927652
 20
3182.494269174477
 30
0.0
 11
3411.970589276523
 21
3154.494269174477
 31
0.0
  0
LINE
  5
18D47
330
18C7A
100
AcDbEntity
  8
部品1
100
AcDbLine
 10
2571.97058927652
 20
3182.494269174477
 30
0.0
 11
2571.970589276523
 21
3154.494269174477
 31
0.0
  0
LINE
  5
18D48
330
18C7A
100
AcDbEntity
  8
部品1
100
AcDbLine
 10
2991.97058927652
 20
3182.494269174477
 30
0.0
 11
2991.970589276523
 21
3154.494269174477
 31
0.0
  0
LINE
  5
18D49
330
18C7A
100
AcDbEntity
  8
部品1
100
AcDbLine
 10
2151.970589276519
 20
3182.494269174477
 30
0.0
 11
2151.970589276523
 21
3154.494269174477
 31
0.0
  0
LINE
  5
18D4A
330
18C7A
100
AcDbEntity
  8
部品1
100
AcDbLine
 10
1731.970589276519
 20
3182.494269174477
 30
0.0
 11
1731.970589276523
 21
3154.494269174477
 31
0.0
  0
LINE
  5
18D4B
330
18C7A
100
AcDbEntity
  8
部品1
100
AcDbLine
 10
1311.970589276519
 20
3182.494269174477
 30
0.0
 11
1311.970589276523
 21
3154.494269174477
 31
0.0
  0
LINE
  5
18D4C
330
18C7A
100
AcDbEntity
  8
部品1
100
AcDbLine
 10
891.9705892765195
 20
3182.494269174477
 30
0.0
 11
891.9705892765232
 21
3154.494269174477
 31
0.0
  0
LINE
  5
18D4D
330
18C7A
100
AcDbEntity
  8
部品1
100
AcDbLine
 10
471.9705892765232
 20
1392.494269174596
 30
0.0
 11
471.9705892765232
 21
1420.494269174596
 31
0.0
  0
LINE
  5
18D4E
330
18C7A
100
AcDbEntity
  8
部品1
100
AcDbLine
 10
444.9705892765305
 20
1420.494269174558
 30
0.0
 11
3858.970589276556
 21
1420.494269174596
 31
0.0
  0
LINE
  5
18D4F
330
18C7A
100
AcDbEntity
  8
部品1
100
AcDbLine
 10
3831.970589276556
 20
1392.494269174596
 30
0.0
 11
3831.970589276556
 21
1420.494269174596
 31
0.0
  0
LINE
  5
18D50
330
18C7A
100
AcDbEntity
  8
部品1
100
AcDbLine
 10
3858.970589276556
 20
1447.494269174593
 30
0.0
 11
3886.970589276556
 21
1447.494269174593
 31
0.0
  0
LINE
  5
18D51
330
18C7A
100
AcDbEntity
  8
部品1
100
AcDbLine
 10
3858.970589276556
 20
1867.494269174607
 30
0.0
 11
3886.970589276556
 21
1867.494269174607
 31
0.0
  0
LINE
  5
18D52
330
18C7A
100
AcDbEntity
  8
部品1
100
AcDbLine
 10
444.9705892765305
 20
1867.49426917448
 30
0.0
 11
416.9705892765305
 21
1867.49426917448
 31
0.0
  0
LINE
  5
18D53
330
18C7A
100
AcDbEntity
  8
部品1
100
AcDbLine
 10
3830.470589276541
 20
1867.49426917458
 30
0.0
 11
473.4705892765396
 21
1867.49426917448
 31
0.0
  0
LINE
  5
18D54
330
18C7A
100
AcDbEntity
  8
部品1
100
AcDbLine
 10
3830.470589276541
 20
2287.49426917458
 30
0.0
 11
473.4705892765396
 21
2287.49426917448
 31
0.0
  0
LINE
  5
18D55
330
18C7A
100
AcDbEntity
  8
部品1
100
AcDbLine
 10
444.9705892765305
 20
2287.49426917448
 30
0.0
 11
416.9705892765305
 21
2287.49426917448
 31
0.0
  0
LINE
  5
18D56
330
18C7A
100
AcDbEntity
  8
部品1
100
AcDbLine
 10
3858.970589276556
 20
2287.494269174608
 30
0.0
 11
3886.970589276556
 21
2287.494269174608
 31
0.0
  0
LINE
  5
18D57
330
18C7A
100
AcDbEntity
  8
部品1
 48
50.0
100
AcDbLine
 10
2151.970589276551
 20
2702.494269174586
 30
0.0
 11
2151.970589276581
 21
1448.994269174494
 31
0.0
  0
LINE
  5
18D58
330
18C7A
100
AcDbEntity
  8
破線
 48
10.0
100
AcDbLine
 10
2959.470589276535
 20
1472.494269174522
 30
0.0
 11
2176.970589276532
 21
1472.494269174505
 31
0.0
  0
LINE
  5
18D59
330
18C7A
100
AcDbEntity
  8
破線
 48
10.0
100
AcDbLine
 10
3009.47058927653
 20
1448.994269174509
 30
0.0
 11
3009.47058927653
 21
2702.494269174615
 31
0.0
  0
LINE
  5
18D5A
330
18C7A
100
AcDbEntity
  8
破線
 48
10.0
100
AcDbLine
 10
2959.470589276535
 20
1448.994269174505
 30
0.0
 11
2959.470589276531
 21
2702.494269174615
 31
0.0
  0
LINE
  5
18D5B
330
18C7A
100
AcDbEntity
  8
破線
 48
10.0
100
AcDbLine
 10
1344.47058927653
 20
1448.994269174509
 30
0.0
 11
1344.47058927653
 21
2702.494269174615
 31
0.0
  0
LINE
  5
18D5C
330
18C7A
100
AcDbEntity
  8
破線
 48
10.0
100
AcDbLine
 10
1294.470589276534
 20
1448.994269174505
 30
0.0
 11
1294.47058927653
 21
2702.494269174615
 31
0.0
  0
DIMENSION
  5
18D5D
330
18C7A
100
AcDbEntity
  8
寸法
100
AcDbDimension
  2
*D13
 10
1451.234916278005
 20
2488.887829538828
 30
0.0
 11
916.0604668248634
 21
2488.887829538828
 31
0.0
 12
-3742.925985830444
 22
-6453.628869860112
 32
0.0
 70
   128
 71
     5
 42
1062.99999999993
  3
INABA_S40G
100
AcDbAlignedDimension
 13
445.4705892765559
 23
2702.494269174505
 33
0.0
 14
1508.470589276486
 24
2702.494269174558
 34
0.0
100
AcDbRotatedDimension
1001
ACAD
1000
DSTYLE
1002
{
1002
}
  0
LINE
  5
18D5E
330
18C7A
100
AcDbEntity
  8
破線
 48
10.0
100
AcDbLine
 10
1294.470589276534
 20
1472.494269174469
 30
0.0
 11
496.9705892765414
 21
1472.494269174476
 31
0.0
  0
LINE
  5
18D5F
330
18C7A
100
AcDbEntity
  8
部品1
100
AcDbLine
 10
3831.970589276556
 20
3182.494269174604
 30
0.0
 11
3831.970589276556
 21
3154.494269174604
 31
0.0
  0
LINE
  5
18D60
330
18C7A
100
AcDbEntity
  8
部品1
100
AcDbLine
 10
3831.970589276556
 20
3182.494269174626
 30
0.0
 11
3831.970589276556
 21
3154.494269174626
 31
0.0
  0
LINE
  5
18D61
330
18C7A
100
AcDbEntity
  8
部品1
100
AcDbLine
 10
3858.970589276556
 20
3127.494269174607
 30
0.0
 11
3886.970589276556
 21
3127.494269174607
 31
0.0
  0
LINE
  5
18D62
330
18C7A
100
AcDbEntity
  8
部品1
100
AcDbLine
 10
3858.970589276556
 20
2707.494269174608
 30
0.0
 11
3886.970589276556
 21
2707.494269174608
 31
0.0
  0
LINE
  5
18D63
330
18C7A
100
AcDbEntity
  8
部品1
100
AcDbLine
 10
3858.470589276556
 20
3152.494269174604
 30
0.0
 11
3858.470589276556
 21
2702.494269174608
 31
0.0
  0
LINE
  5
18D64
330
18C7A
100
AcDbEntity
  8
部品1
100
AcDbLine
 10
3886.970589276533
 20
1447.494269174593
 30
0.0
 11
3886.970589276531
 21
1392.494269174596
 31
0.0
  0
LINE
  5
18D65
330
18C7A
100
AcDbEntity
  8
部品1
 48
50.0
100
AcDbLine
 10
3830.470589276556
 20
1448.994269174596
 30
0.0
 11
3858.970589276554
 21
1420.494269174596
 31
0.0
  0
LINE
  5
18D66
330
18C7A
100
AcDbEntity
  8
部品1
100
AcDbLine
 10
3886.970589276531
 20
1392.494269174596
 30
0.0
 11
3835.970589276531
 21
1392.494269174596
 31
0.0
  0
LINE
  5
18D67
330
18C7A
100
AcDbEntity
  8
部品1
100
AcDbLine
 10
3858.970589276533
 20
1447.494269174593
 30
0.0
 11
3886.970589276531
 21
1447.494269174593
 31
0.0
  0
LINE
  5
18D68
330
18C7A
100
AcDbEntity
  8
部品1
100
AcDbLine
 10
3886.970589276556
 20
3182.494269174604
 30
0.0
 11
3886.970589276531
 21
1392.494269174596
 31
0.0
  0
DIMENSION
  5
18D69
330
18C7A
100
AcDbEntity
  8
寸法
100
AcDbDimension
  2
*D12
 10
4534.396935010967
 20
1447.494269174593
 30
0.0
 11
4534.396935010965
 21
2287.4942691746
 31
0.0
 12
-3742.925985830444
 22
-6453.628869860112
 32
0.0
 70
   128
  1
4X420=<>
 71
     5
 42
1680.000000000014
  3
INABA_S40G
100
AcDbAlignedDimension
 13
3886.970589276556
 23
3127.494269174607
 33
0.0
 14
3886.970589276531
 24
1447.494269174593
 34
0.0
 50
90.0
100
AcDbRotatedDimension
1001
ACAD
1000
DSTYLE
1002
{
1002
}
  0
LINE
  5
18D6A
330
18C7A
100
AcDbEntity
  8
部品1
100
AcDbLine
 10
3858.970589276556
 20
3154.494269174604
 30
0.0
 11
3858.970589276534
 21
1420.494269174596
 31
0.0
  0
DIMENSION
  5
18D6B
330
18C7A
100
AcDbEntity
  8
寸法
100
AcDbDimension
  2
*D11
 10
4213.82831513858
 20
2607.276453505718
 30
0.0
 11
4113.828315138579
 21
2832.276453505718
 31
0.0
 12
-3742.925985830444
 22
-6453.628869860112
 32
0.0
 71
     5
 42
449.9999999999963
  3
INABA_S40G
100
AcDbAlignedDimension
 13
3858.470589276556
 23
3152.494269174604
 33
0.0
 14
3858.470589276556
 24
2702.494269174608
 34
0.0
 50
90.0
100
AcDbRotatedDimension
1001
ACAD
1000
DSTYLE
1002
{
1002
}
  0
LINE
  5
18D6C
330
18C7A
100
AcDbEntity
  8
部品1
100
AcDbLine
 10
3830.470589276547
 20
2702.494269174608
 30
0.0
 11
3830.470589276556
 21
1448.994269174596
 31
0.0
  0
LINE
  5
18D6D
330
18C7A
100
AcDbEntity
  8
破線
 48
10.0
100
AcDbLine
 10
3806.970589276549
 20
2702.494269174608
 30
0.0
 11
3806.970589276558
 21
1472.494269174593
 31
0.0
  0
LINE
  5
18D6E
330
18C7A
100
AcDbEntity
  8
部品1
100
AcDbLine
 10
2769.470589276556
 20
3146.494269174608
 30
0.0
 11
2794.470589276556
 21
3146.494269174611
 31
0.0
  0
LINE
  5
18D6F
330
18C7A
100
AcDbEntity
  8
部品1
100
AcDbLine
 10
2810.970589276556
 20
3172.494269174611
 30
0.0
 11
2816.970589276556
 21
3172.494269174611
 31
0.0
  0
LINE
  5
18D70
330
18C7A
100
AcDbEntity
  8
部品1
100
AcDbLine
 10
2816.970589276556
 20
3172.494269174611
 30
0.0
 11
2816.970589276556
 21
3154.494269174611
 31
0.0
  0
LINE
  5
18D71
330
18C7A
100
AcDbEntity
  8
部品1
100
AcDbLine
 10
2746.970589276556
 20
3172.494269174611
 30
0.0
 11
2752.970589276556
 21
3172.494269174611
 31
0.0
  0
LINE
  5
18D72
330
18C7A
100
AcDbEntity
  8
部品1
100
AcDbLine
 10
2746.970589276556
 20
3172.494269174611
 30
0.0
 11
2746.970589276556
 21
3154.494269174611
 31
0.0
  0
LINE
  5
18D73
330
18C7A
100
AcDbEntity
  8
部品1
100
AcDbLine
 10
2769.470589276556
 20
2702.494269174615
 30
0.0
 11
2794.470589276556
 21
2702.494269174615
 31
0.0
  0
LINE
  5
18D74
330
18C7A
100
AcDbEntity
  8
部品1
 48
50.0
100
AcDbLine
 10
2794.470589276556
 20
3154.494269174615
 30
0.0
 11
2794.470589276556
 21
2702.494269174615
 31
0.0
  0
LINE
  5
18D75
330
18C7A
100
AcDbEntity
  8
部品1
 48
50.0
100
AcDbLine
 10
2769.470589276554
 20
3154.494269174618
 30
0.0
 11
2769.470589276556
 21
2702.494269174615
 31
0.0
  0
LINE
  5
18D76
330
18C7A
100
AcDbEntity
  8
部品1
 48
50.0
100
AcDbLine
 10
2795.470589276556
 20
3152.494269174607
 30
0.0
 11
2795.470589276556
 21
2702.494269174615
 31
0.0
  0
LINE
  5
18D77
330
18C7A
100
AcDbEntity
  8
部品1
 48
50.0
100
AcDbLine
 10
2767.470589276556
 20
3152.494269174611
 30
0.0
 11
2767.470589276556
 21
2702.494269174615
 31
0.0
  0
LINE
  5
18D78
330
18C7A
100
AcDbEntity
  8
破線
 48
10.0
100
AcDbLine
 10
2176.97058927653
 20
1448.994269174509
 30
0.0
 11
2176.97058927653
 21
2702.494269174588
 31
0.0
  0
LINE
  5
18D79
330
18C7A
100
AcDbEntity
  8
破線
 48
10.0
100
AcDbLine
 10
2126.970589276534
 20
1448.994269174505
 30
0.0
 11
2126.970589276531
 21
2702.494269174586
 31
0.0
  0
LINE
  5
18D7A
330
18C7A
100
AcDbEntity
  8
部品1
100
AcDbLine
 10
2794.470589276556
 20
3154.494269174622
 30
0.0
 11
3858.970589276556
 21
3154.494269174604
 31
0.0
  0
LINE
  5
18D7B
330
18C7A
100
AcDbEntity
  8
細線
 48
50.0
100
AcDbLine
 10
3858.470589276556
 20
2702.494269174608
 30
0.0
 11
2795.470589276556
 21
3152.494269174607
 31
0.0
  0
LINE
  5
18D7C
330
18C7A
100
AcDbEntity
  8
部品1
100
AcDbLine
 10
2795.470589276555
 20
2702.494269174615
 30
0.0
 11
3858.470589276556
 21
2702.494269174608
 31
0.0
  0
LINE
  5
18D7D
330
18C7A
100
AcDbEntity
  8
部品1
100
AcDbLine
 10
2795.470589276556
 20
3152.494269174611
 30
0.0
 11
3858.470589276556
 21
3152.494269174604
 31
0.0
  0
LINE
  5
18D7E
330
18C7A
100
AcDbEntity
  8
細線
 48
50.0
100
AcDbLine
 10
3858.470589276556
 20
3152.494269174604
 30
0.0
 11
2795.470589276555
 21
2702.494269174615
 31
0.0
  0
DIMENSION
  5
18D7F
330
18C7A
100
AcDbEntity
  8
寸法
100
AcDbDimension
  2
*D10
 10
3801.234916278101
 20
2488.887829538937
 30
0.0
 11
3318.360544398907
 21
2488.887829538937
 31
0.0
 12
-3742.925985830444
 22
-6453.628869860112
 32
0.0
 70
   128
 71
     5
 42
1063.000000000012
  3
INABA_S40G
100
AcDbAlignedDimension
 13
2795.470589276555
 23
2702.494269174615
 33
0.0
 14
3858.470589276567
 24
2702.494269174608
 34
0.0
100
AcDbRotatedDimension
1001
ACAD
1000
DSTYLE
1002
{
1002
}
  0
LINE
  5
18D80
330
18C7A
100
AcDbEntity
  8
破線
 48
10.0
100
AcDbLine
 10
3806.970589276556
 20
1472.494269174594
 30
0.0
 11
3009.47058927653
 21
1472.494269174523
 31
0.0
  0
DIMENSION
  5
18D81
330
18C7A
100
AcDbEntity
  8
寸法
100
AcDbDimension
  2
*D9
 10
4534.396935010941
 20
1392.494269174596
 30
0.0
 11
4534.39693501094
 21
1084.008987800356
 31
0.0
 12
-3742.925985830444
 22
-6453.628869860112
 32
0.0
 70
   128
 71
     5
 42
54.99999999999636
  3
INABA_S40G
100
AcDbAlignedDimension
 13
3886.970589276531
 23
1447.494269174593
 33
0.0
 14
3886.970589276531
 24
1392.494269174596
 34
0.0
 50
90.0
100
AcDbRotatedDimension
1001
ACAD
1000
DSTYLE
1002
{
1002
}
  0
LINE
  5
18D82
330
18C7A
100
AcDbEntity
  8
部品1
100
AcDbLine
 10
471.9705892765196
 20
3182.494269174477
 30
0.0
 11
471.9705892765232
 21
3154.494269174477
 31
0.0
  0
LINE
  5
18D83
330
18C7A
100
AcDbEntity
  8
部品1
100
AcDbLine
 10
471.9705892765559
 20
3182.494269174509
 30
0.0
 11
471.9705892765559
 21
3154.494269174509
 31
0.0
  0
LINE
  5
18D84
330
18C7A
100
AcDbEntity
  8
部品1
100
AcDbLine
 10
444.9705892765232
 20
3127.49426917448
 30
0.0
 11
416.9705892765232
 21
3127.49426917448
 31
0.0
  0
LINE
  5
18D85
330
18C7A
100
AcDbEntity
  8
部品1
100
AcDbLine
 10
444.9705892765305
 20
2707.49426917448
 30
0.0
 11
416.9705892765305
 21
2707.49426917448
 31
0.0
  0
LINE
  5
18D86
330
18C7A
100
AcDbEntity
  8
部品1
 48
50.0
100
AcDbLine
 10
445.4705892765542
 20
3152.494269174506
 30
0.0
 11
445.4705892765559
 21
2702.494269174505
 31
0.0
  0
LINE
  5
18D87
330
18C7A
100
AcDbEntity
  8
部品1
 48
50.0
100
AcDbLine
 10
473.470589276545
 20
1448.994269174573
 30
0.0
 11
444.970589276545
 21
1420.494269174574
 31
0.0
  0
LINE
  5
18D88
330
18C7A
100
AcDbEntity
  8
部品1
100
AcDbLine
 10
471.9705892765232
 20
1392.494269174465
 30
0.0
 11
416.9705892765486
 21
1392.494269174465
 31
0.0
  0
LINE
  5
18D89
330
18C7A
100
AcDbEntity
  8
部品1
100
AcDbLine
 10
444.9705892765305
 20
1447.494269174429
 30
0.0
 11
416.9705892765469
 21
1447.494269174429
 31
0.0
  0
LINE
  5
18D8A
330
18C7A
100
AcDbEntity
  8
部品1
100
AcDbLine
 10
444.9705892765305
 20
1447.494269174465
 30
0.0
 11
416.9705892765469
 21
1447.494269174465
 31
0.0
  0
LINE
  5
18D8B
330
18C7A
100
AcDbEntity
  8
部品1
100
AcDbLine
 10
444.9705892765469
 20
1447.49426917448
 30
0.0
 11
416.9705892765469
 21
1447.49426917448
 31
0.0
  0
LINE
  5
18D8C
330
18C7A
100
AcDbEntity
  8
部品1
100
AcDbLine
 10
416.9705892765469
 20
1447.494269174429
 30
0.0
 11
416.9705892765486
 21
1392.494269174433
 31
0.0
  0
LINE
  5
18D8D
330
18C7A
100
AcDbEntity
  8
部品1
100
AcDbLine
 10
416.9705892765196
 20
3182.494269174477
 30
0.0
 11
416.9705892765486
 21
1392.494269174465
 31
0.0
  0
LINE
  5
18D8E
330
18C7A
100
AcDbEntity
  8
部品1
100
AcDbLine
 10
444.9705892765305
 20
1420.494269174556
 30
0.0
 11
444.9705892765559
 21
3154.494269174509
 31
0.0
  0
LINE
  5
18D8F
330
18C7A
100
AcDbEntity
  8
部品1
100
AcDbLine
 10
473.4705892765323
 20
2702.494269174608
 30
0.0
 11
473.470589276545
 21
1448.994269174571
 31
0.0
  0
LINE
  5
18D90
330
18C7A
100
AcDbEntity
  8
破線
 48
10.0
100
AcDbLine
 10
496.9705892765305
 20
2702.494269174608
 30
0.0
 11
496.9705892765451
 21
1472.494269174476
 31
0.0
  0
DIMENSION
  5
18D91
330
18C7A
100
AcDbEntity
  8
寸法
100
AcDbDimension
  2
*D8
 10
3886.970589276531
 20
410.7433333855515
 30
0.0
 11
2168.197775309287
 21
410.7433333855515
 31
0.0
 12
-3742.925985830444
 22
-6453.628869860112
 32
0.0
 70
   128
 71
     5
 42
3469.999999999982
  3
INABA_S40G
100
AcDbAlignedDimension
 13
416.9705892765486
 23
1392.494269174433
 33
0.0
 14
3886.970589276531
 24
1392.49426917456
 34
0.0
100
AcDbRotatedDimension
1001
ACAD
1000
DSTYLE
1002
{
1070
   341
1005
0
1002
}
  0
LINE
  5
18D92
330
18C7A
100
AcDbEntity
  8
部品1
100
AcDbLine
 10
444.9705892765559
 20
3154.494269174624
 30
0.0
 11
1509.470589276487
 21
3154.494269174626
 31
0.0
  0
LINE
  5
18D93
330
18C7A
100
AcDbEntity
  8
部品1
100
AcDbLine
 10
3886.970589276531
 20
1392.494269174596
 30
0.0
 11
3411.970589276556
 21
1392.494269174582
 31
0.0
  0
LINE
  5
18D94
330
18C7A
100
AcDbEntity
  8
部品1
100
AcDbLine
 10
416.9705892765559
 20
3182.494269174509
 30
0.0
 11
3886.970589276556
 21
3182.494269174604
 31
0.0
  0
LINE
  5
18D95
330
18C7A
100
AcDbEntity
  8
部品1
100
AcDbLine
 10
445.4705892765559
 20
2702.494269174509
 30
0.0
 11
1508.470589276487
 21
2702.494269174558
 31
0.0
  0
LINE
  5
18D96
330
18C7A
100
AcDbEntity
  8
細線
 48
50.0
100
AcDbLine
 10
2767.470589276556
 20
3152.494269174611
 30
0.0
 11
1536.470589276487
 21
2702.494269174558
 31
0.0
  0
LINE
  5
18D97
330
18C7A
100
AcDbEntity
  8
部品1
100
AcDbLine
 10
445.4705892765542
 20
3152.494269174509
 30
0.0
 11
1508.470589276485
 21
3152.494269174558
 31
0.0
  0
LINE
  5
18D98
330
18C7A
100
AcDbEntity
  8
細線
 48
50.0
100
AcDbLine
 10
2767.470589276554
 20
2702.494269174615
 30
0.0
 11
1536.470589276485
 21
3152.494269174558
 31
0.0
  0
LINE
  5
18D99
330
18C7A
100
AcDbEntity
  8
破線
 48
10.0
100
AcDbLine
 10
2126.970589276534
 20
1472.494269174502
 30
0.0
 11
1344.47058927653
 21
1472.494269174473
 31
0.0
  0
LINE
  5
18D9A
330
18C7A
100
AcDbEntity
  8
部品1
100
AcDbLine
 10
3830.470589276556
 20
1448.994269174596
 30
0.0
 11
473.4705892764487
 21
1448.994269174476
 31
0.0
  0
DIMENSION
  5
18D9B
330
18C7A
100
AcDbEntity
  8
寸法
100
AcDbDimension
  2
*D7
 10
471.970589276555
 20
3698.302488799491
 30
0.0
 11
108.4853079022819
 21
3698.302488799491
 31
0.0
 12
-3742.925985830444
 22
-6453.628869860112
 32
0.0
 70
   128
 71
     5
 42
55.00000000003456
  3
INABA_S40G
100
AcDbAlignedDimension
 13
416.9705892765205
 23
3182.494269174509
 33
0.0
 14
471.970589276555
 24
3182.494269174509
 34
0.0
100
AcDbRotatedDimension
1001
ACAD
1000
DSTYLE
1002
{
1002
}
  0
DIMENSION
  5
18D9C
330
18C7A
100
AcDbEntity
  8
寸法
100
AcDbDimension
  2
*D6
 10
4534.396935010967
 20
3127.494269174607
 30
0.0
 11
4534.396935010965
 21
3490.979550548844
 31
0.0
 12
-3742.925985830444
 22
-6453.628869860112
 32
0.0
 70
   128
 71
     5
 42
54.99999999999636
  3
INABA_S40G
100
AcDbAlignedDimension
 13
3886.970589276556
 23
3182.494269174604
 33
0.0
 14
3886.970589276556
 24
3127.494269174607
 34
0.0
 50
90.0
100
AcDbRotatedDimension
1001
ACAD
1000
DSTYLE
1002
{
1002
}
  0
DIMENSION
  5
18D9D
330
18C7A
100
AcDbEntity
  8
寸法
100
AcDbDimension
  2
*D5
 10
3886.970589276556
 20
3698.302488799589
 30
0.0
 11
4195.455870650794
 21
3698.302488799589
 31
0.0
 12
-3742.925985830444
 22
-6453.628869860112
 32
0.0
 70
   128
 71
     5
 42
55.0
  3
INABA_S40G
100
AcDbAlignedDimension
 13
3831.970589276556
 23
3182.494269174604
 33
0.0
 14
3886.970589276556
 24
3182.494269174604
 34
0.0
100
AcDbRotatedDimension
1001
ACAD
1000
DSTYLE
1002
{
1002
}
  0
DIMENSION
  5
18D9E
330
18C7A
100
AcDbEntity
  8
寸法
100
AcDbDimension
  2
*D4
 10
3831.970589276556
 20
3698.302488799607
 30
0.0
 11
2151.970589276555
 21
3698.302488799607
 31
0.0
 12
-3742.925985830444
 22
-6453.628869860112
 32
0.0
 70
   128
  1
8X420=<>
 71
     5
 42
3360.000000000001
  3
INABA_S40G
100
AcDbAlignedDimension
 13
471.970589276555
 23
3182.494269174509
 33
0.0
 14
3831.970589276556
 24
3182.494269174604
 34
0.0
100
AcDbRotatedDimension
1001
ACAD
1000
DSTYLE
1002
{
1002
}
  0
DIMENSION
  5
18D9F
330
18C7A
100
AcDbEntity
  8
寸法
100
AcDbDimension
  2
*D3
 10
4899.503876750603
 20
1392.494269174596
 30
0.0
 11
4899.503876750601
 21
2287.4942691746
 31
0.0
 12
-3742.925985830444
 22
-6453.628869860112
 32
0.0
 70
   128
 71
     5
 42
1790.000000000007
  3
INABA_S40G
100
AcDbAlignedDimension
 13
3886.970589276556
 23
3182.494269174604
 33
0.0
 14
3886.970589276531
 24
1392.494269174596
 34
0.0
 50
90.0
100
AcDbRotatedDimension
1001
ACAD
1000
DSTYLE
1002
{
1002
}
  0
ENDBLK
  5
18DA1
330
18C7A
100
AcDbEntity
  8
0
 48
50.0
100
AcDbBlockEnd
  0
BLOCK
  5
1C4CB
330
1C4CA
100
AcDbEntity
  8
0
 48
50.0
100
AcDbBlockBegin
  2
_NONE
 70
     0
 10
0.0
 20
0.0
 30
0.0
  3
_NONE
  1

  0
CIRCLE
  5
1C4CC
330
1C4CA
100
AcDbEntity
  8
0
  6
ByBlock
 62
     0
 48
50.0
100
AcDbCircle
 10
0.0
 20
0.0
 30
0.0
 40
0.25
  0
ENDBLK
  5
1C4CD
330
1C4CA
100
AcDbEntity
  8
0
 48
50.0
100
AcDbBlockEnd
  0
BLOCK
  5
20DEE
330
20DE2
100
AcDbEntity
  8
0
 48
50.0
100
AcDbBlockBegin
  2
*D19
 70
     1
 10
0.0
 20
0.0
 30
0.0
  3
*D19
  1

  0
LINE
  5
27E66
330
20DE2
100
AcDbEntity
  8
寸法
 62
     0
 48
50.0
370
    -2
100
AcDbLine
 10
12978.6
 20
7164.932665440736
 30
0.0
 11
12978.6
 21
8163.152987499655
 31
0.0
  0
LINE
  5
27E67
330
20DE2
100
AcDbEntity
  8
寸法
 62
     0
 48
50.0
370
    -2
100
AcDbLine
 10
13023.6
 20
7891.199123534646
 30
0.0
 11
13023.6
 21
8163.152987499655
 31
0.0
  0
LINE
  5
27E68
330
20DE2
100
AcDbEntity
  8
寸法
 62
     0
 48
50.0
370
    -2
100
AcDbLine
 10
12978.6
 20
8103.152987499656
 30
0.0
 11
12878.6
 21
8103.152987499656
 31
0.0
  0
LINE
  5
27E69
330
20DE2
100
AcDbEntity
  8
寸法
 62
     0
 48
50.0
370
    -2
100
AcDbLine
 10
13023.6
 20
8103.152987499656
 30
0.0
 11
13360.94924240492
 21
8103.152987499656
 31
0.0
  0
LINE
  5
27E6A
330
20DE2
100
AcDbEntity
  8
寸法
 62
     0
 48
50.0
370
    -2
100
AcDbLine
 10
12978.6
 20
8103.152987499656
 30
0.0
 11
13023.6
 21
8103.152987499656
 31
0.0
  0
INSERT
  5
27E6B
330
20DE2
100
AcDbEntity
  8
寸法
 62
     0
 48
50.0
370
    -2
100
AcDbBlockReference
  2
_DOTSMALL
 10
12978.6
 20
8103.152987499656
 30
0.0
 41
100.0
 42
100.0
 43
100.0
  0
INSERT
  5
27E6C
330
20DE2
100
AcDbEntity
  8
寸法
 62
     0
 48
50.0
370
    -2
100
AcDbBlockReference
  2
_DOTSMALL
 10
13023.6
 20
8103.152987499656
 30
0.0
 41
100.0
 42
100.0
 43
100.0
 50
180.0
  0
MTEXT
  5
27E6D
330
20DE2
100
AcDbEntity
  8
寸法
 62
     7
 48
50.0
100
AcDbMText
 10
13294.77462120246
 20
8203.152987499656
 30
0.0
 40
120.0
 41
0.0
 71
     5
 72
     1
  1
\A1;a
  7
STYLE1
 73
     1
 44
1.0
1001
ACAD
1000
MTEXTBEGIN
1070
    73
1070
     1
1070
    44
1040
1.0
1070
    74
1070
     0
1000
MTEXTEND
  0
POINT
  5
27E6E
330
20DE2
100
AcDbEntity
  8
DEFPOINTS
 62
     0
 48
50.0
100
AcDbPoint
 10
12978.6
 20
7144.932665440736
 30
0.0
  0
POINT
  5
27E6F
330
20DE2
100
AcDbEntity
  8
DEFPOINTS
 62
     0
 48
50.0
100
AcDbPoint
 10
13023.6
 20
7871.199123534648
 30
0.0
  0
POINT
  5
27E70
330
20DE2
100
AcDbEntity
  8
DEFPOINTS
 62
     0
 48
50.0
100
AcDbPoint
 10
13023.6
 20
8103.152987499656
 30
0.0
  0
ENDBLK
  5
20DEF
330
20DE2
100
AcDbEntity
  8
0
 48
50.0
100
AcDbBlockEnd
  0
BLOCK
  5
20E08
330
20DFC
100
AcDbEntity
  8
0
 48
50.0
100
AcDbBlockBegin
  2
*D20
 70
     1
 10
0.0
 20
0.0
 30
0.0
  3
*D20
  1

  0
LINE
  5
27E85
330
20DFC
100
AcDbEntity
  8
寸法
 62
     0
 48
50.0
370
    -2
100
AcDbLine
 10
3423.600000000004
 20
7891.199123534626
 30
0.0
 11
3423.600000000004
 21
8163.152987499636
 31
0.0
  0
LINE
  5
27E86
330
20DFC
100
AcDbEntity
  8
寸法
 62
     0
 48
50.0
370
    -2
100
AcDbLine
 10
3468.600000000004
 20
7164.932665440716
 30
0.0
 11
3468.600000000004
 21
8163.152987499636
 31
0.0
  0
LINE
  5
27E87
330
20DFC
100
AcDbEntity
  8
寸法
 62
     0
 48
50.0
370
    -2
100
AcDbLine
 10
3468.600000000004
 20
8103.152987499637
 30
0.0
 11
3568.600000000004
 21
8103.152987499637
 31
0.0
  0
LINE
  5
27E88
330
20DFC
100
AcDbEntity
  8
寸法
 62
     0
 48
50.0
370
    -2
100
AcDbLine
 10
3423.600000000004
 20
8103.152987499637
 30
0.0
 11
3086.250757595086
 21
8103.152987499637
 31
0.0
  0
LINE
  5
27E89
330
20DFC
100
AcDbEntity
  8
寸法
 62
     0
 48
50.0
370
    -2
100
AcDbLine
 10
3468.600000000004
 20
8103.152987499637
 30
0.0
 11
3423.600000000004
 21
8103.152987499637
 31
0.0
  0
INSERT
  5
27E8A
330
20DFC
100
AcDbEntity
  8
寸法
 62
     0
 48
50.0
370
    -2
100
AcDbBlockReference
  2
_DOTSMALL
 10
3468.600000000004
 20
8103.152987499637
 30
0.0
 41
100.0
 42
100.0
 43
100.0
 50
180.0
  0
INSERT
  5
27E8B
330
20DFC
100
AcDbEntity
  8
寸法
 62
     0
 48
50.0
370
    -2
100
AcDbBlockReference
  2
_DOTSMALL
 10
3423.600000000004
 20
8103.152987499637
 30
0.0
 41
100.0
 42
100.0
 43
100.0
  0
MTEXT
  5
27E8C
330
20DFC
100
AcDbEntity
  8
寸法
 62
     7
 48
50.0
100
AcDbMText
 10
3152.425378797545
 20
8203.152987499636
 30
0.0
 40
120.0
 41
0.0
 71
     5
 72
     1
  1
\A1;a
  7
STYLE1
 73
     1
 44
1.0
1001
ACAD
1000
MTEXTBEGIN
1070
    73
1070
     1
1070
    44
1040
1.0
1070
    74
1070
     0
1000
MTEXTEND
  0
POINT
  5
27E8D
330
20DFC
100
AcDbEntity
  8
DEFPOINTS
 62
     0
 48
50.0
100
AcDbPoint
 10
3423.600000000004
 20
7871.199123534627
 30
0.0
  0
POINT
  5
27E8E
330
20DFC
100
AcDbEntity
  8
DEFPOINTS
 62
     0
 48
50.0
100
AcDbPoint
 10
3468.600000000004
 20
7144.932665440716
 30
0.0
  0
POINT
  5
27E8F
330
20DFC
100
AcDbEntity
  8
DEFPOINTS
 62
     0
 48
50.0
100
AcDbPoint
 10
3468.600000000004
 20
8103.152987499637
 30
0.0
  0
ENDBLK
  5
20E09
330
20DFC
100
AcDbEntity
  8
0
 48
50.0
100
AcDbBlockEnd
  0
BLOCK
  5
2274E
330
22742
100
AcDbEntity
  8
0
 48
50.0
100
AcDbBlockBegin
  2
*D25
 70
     1
 10
0.0
 20
0.0
 30
0.0
  3
*D25
  1

  0
LINE
  5
27E90
330
22742
100
AcDbEntity
  8
寸法
 62
     0
 48
50.0
370
    -2
100
AcDbLine
 10
2825.665006330064
 20
7219.932665440722
 30
0.0
 11
2533.721909610673
 21
7219.932665440722
 31
0.0
  0
LINE
  5
27E91
330
22742
100
AcDbEntity
  8
寸法
 62
     0
 48
50.0
370
    -2
100
AcDbLine
 10
3448.600000000004
 20
7144.932665440716
 30
0.0
 11
2533.721909610673
 21
7144.932665440716
 31
0.0
  0
LINE
  5
27E92
330
22742
100
AcDbEntity
  8
寸法
 62
     0
 48
50.0
370
    -2
100
AcDbLine
 10
2593.721909610673
 20
7219.932665440722
 30
0.0
 11
2593.721909610673
 21
7319.932665440723
 31
0.0
  0
LINE
  5
27E93
330
22742
100
AcDbEntity
  8
寸法
 62
     0
 48
50.0
370
    -2
100
AcDbLine
 10
2593.721909610673
 20
7144.932665440716
 30
0.0
 11
2593.721909610673
 21
7044.932665440716
 31
0.0
  0
LINE
  5
27E94
330
22742
100
AcDbEntity
  8
寸法
 62
     0
 48
50.0
370
    -2
100
AcDbLine
 10
2593.721909610673
 20
7219.932665440722
 30
0.0
 11
2593.721909610673
 21
7144.932665440716
 31
0.0
  0
INSERT
  5
27E95
330
22742
100
AcDbEntity
  8
寸法
 62
     0
 48
50.0
370
    -2
100
AcDbBlockReference
  2
_DOTSMALL
 10
2593.721909610673
 20
7219.932665440722
 30
0.0
 41
100.0
 42
100.0
 43
100.0
 50
270.0
  0
INSERT
  5
27E96
330
22742
100
AcDbEntity
  8
寸法
 62
     0
 48
50.0
370
    -2
100
AcDbBlockReference
  2
_DOTSMALL
 10
2593.721909610673
 20
7144.932665440716
 30
0.0
 41
100.0
 42
100.0
 43
100.0
 50
90.0
  0
MTEXT
  5
27E97
330
22742
100
AcDbEntity
  8
寸法
 62
     7
 48
50.0
100
AcDbMText
 10
2493.721909610672
 20
7182.43266544072
 30
0.0
 40
120.0
 41
0.0
 71
     5
 72
     1
  1
\A1;c
  7
STYLE1
 11
0.0000000000000001
 21
1.0
 31
0.0
 73
     1
 44
1.0
1001
ACAD
1000
MTEXTBEGIN
1070
    73
1070
     1
1070
    44
1040
1.0
1070
    74
1070
     0
1000
MTEXTEND
  0
POINT
  5
27E98
330
22742
100
AcDbEntity
  8
DEFPOINTS
 62
     0
 48
50.0
100
AcDbPoint
 10
2845.665006330064
 20
7219.932665440722
 30
0.0
  0
POINT
  5
27E99
330
22742
100
AcDbEntity
  8
DEFPOINTS
 62
     0
 48
50.0
100
AcDbPoint
 10
3468.600000000004
 20
7144.932665440716
 30
0.0
  0
POINT
  5
27E9A
330
22742
100
AcDbEntity
  8
DEFPOINTS
 62
     0
 48
50.0
100
AcDbPoint
 10
2593.721909610673
 20
7144.932665440716
 30
0.0
  0
ENDBLK
  5
2274F
330
22742
100
AcDbEntity
  8
0
 48
50.0
100
AcDbBlockEnd
  0
BLOCK
  5
22768
330
2275C
100
AcDbEntity
  8
0
 48
50.0
100
AcDbBlockBegin
  2
*D26
 70
     1
 10
0.0
 20
0.0
 30
0.0
  3
*D26
  1

  0
LINE
  5
27E9B
330
2275C
100
AcDbEntity
  8
寸法
 62
     0
 48
50.0
370
    -2
100
AcDbLine
 10
3448.600000000004
 20
6184.932665440715
 30
0.0
 11
2533.721909610673
 21
6184.932665440715
 31
0.0
  0
LINE
  5
27E9C
330
2275C
100
AcDbEntity
  8
寸法
 62
     0
 48
50.0
370
    -2
100
AcDbLine
 10
2825.665006330071
 20
6129.932665440741
 30
0.0
 11
2533.721909610673
 21
6129.932665440741
 31
0.0
  0
LINE
  5
27E9D
330
2275C
100
AcDbEntity
  8
寸法
 62
     0
 48
50.0
370
    -2
100
AcDbLine
 10
2593.721909610673
 20
6184.932665440715
 30
0.0
 11
2593.721909610673
 21
6284.932665440716
 31
0.0
  0
LINE
  5
27E9E
330
2275C
100
AcDbEntity
  8
寸法
 62
     0
 48
50.0
370
    -2
100
AcDbLine
 10
2593.721909610673
 20
6129.932665440741
 30
0.0
 11
2593.721909610673
 21
6029.932665440742
 31
0.0
  0
LINE
  5
27E9F
330
2275C
100
AcDbEntity
  8
寸法
 62
     0
 48
50.0
370
    -2
100
AcDbLine
 10
2593.721909610673
 20
6184.932665440715
 30
0.0
 11
2593.721909610673
 21
6129.932665440741
 31
0.0
  0
INSERT
  5
27EA0
330
2275C
100
AcDbEntity
  8
寸法
 62
     0
 48
50.0
370
    -2
100
AcDbBlockReference
  2
_DOTSMALL
 10
2593.721909610673
 20
6184.932665440715
 30
0.0
 41
100.0
 42
100.0
 43
100.0
 50
270.0
  0
INSERT
  5
27EA1
330
2275C
100
AcDbEntity
  8
寸法
 62
     0
 48
50.0
370
    -2
100
AcDbBlockReference
  2
_DOTSMALL
 10
2593.721909610673
 20
6129.932665440741
 30
0.0
 41
100.0
 42
100.0
 43
100.0
 50
90.0
  0
MTEXT
  5
27EA2
330
2275C
100
AcDbEntity
  8
寸法
 62
     7
 48
50.0
100
AcDbMText
 10
2493.721909610672
 20
6157.43266544073
 30
0.0
 40
120.0
 41
0.0
 71
     5
 72
     1
  1
\A1;b
  7
STYLE1
 11
0.0000000000000001
 21
1.0
 31
0.0
 73
     1
 44
1.0
1001
ACAD
1000
MTEXTBEGIN
1070
    73
1070
     1
1070
    44
1040
1.0
1070
    74
1070
     0
1000
MTEXTEND
  0
POINT
  5
27EA3
330
2275C
100
AcDbEntity
  8
DEFPOINTS
 62
     0
 48
50.0
100
AcDbPoint
 10
3468.600000000004
 20
6184.932665440715
 30
0.0
  0
POINT
  5
27EA4
330
2275C
100
AcDbEntity
  8
DEFPOINTS
 62
     0
 48
50.0
100
AcDbPoint
 10
2845.665006330071
 20
6129.932665440741
 30
0.0
  0
POINT
  5
27EA5
330
2275C
100
AcDbEntity
  8
DEFPOINTS
 62
     0
 48
50.0
100
AcDbPoint
 10
2593.721909610673
 20
6129.932665440741
 30
0.0
  0
ENDBLK
  5
22769
330
2275C
100
AcDbEntity
  8
0
 48
50.0
100
AcDbBlockEnd
  0
BLOCK
  5
239FE
330
239F3
100
AcDbEntity
  8
0
 48
50.0
100
AcDbBlockBegin
  2
*D27
 70
     1
 10
0.0
 20
0.0
 30
0.0
  3
*D27
  1

  0
LINE
  5
27E71
330
239F3
100
AcDbEntity
  8
寸法
 62
     0
 48
50.0
370
    -2
100
AcDbLine
 10
12503.85468201165
 20
7144.932665440726
 30
0.0
 11
12263.95750108246
 21
7144.932665440726
 31
0.0
  0
LINE
  5
27E72
330
239F3
100
AcDbEntity
  8
寸法
 62
     0
 48
50.0
370
    -2
100
AcDbLine
 10
12503.85468201165
 20
6944.932665440726
 30
0.0
 11
12263.95750108246
 21
6944.932665440726
 31
0.0
  0
LINE
  5
27E73
330
239F3
100
AcDbEntity
  8
寸法
 62
     0
 48
50.0
370
    -2
100
AcDbLine
 10
12323.95750108246
 20
6944.932665440726
 30
0.0
 11
12323.95750108246
 21
7144.932665440726
 31
0.0
  0
LINE
  5
27E74
330
239F3
100
AcDbEntity
  8
寸法
 62
     0
 48
50.0
370
    -2
100
AcDbLine
 10
12323.95750108246
 20
7144.932665440726
 30
0.0
 11
12323.95750108246
 21
7544.074397724192
 31
0.0
  0
INSERT
  5
27E75
330
239F3
100
AcDbEntity
  8
寸法
 62
     0
 48
50.0
370
    -2
100
AcDbBlockReference
  2
_DOTSMALL
 10
12323.95750108246
 20
6944.932665440726
 30
0.0
 41
100.0
 42
100.0
 43
100.0
 50
270.0
  0
INSERT
  5
27E76
330
239F3
100
AcDbEntity
  8
寸法
 62
     0
 48
50.0
370
    -2
100
AcDbBlockReference
  2
_DOTSMALL
 10
12323.95750108246
 20
7144.932665440726
 30
0.0
 41
100.0
 42
100.0
 43
100.0
 50
90.0
  0
MTEXT
  5
27E77
330
239F3
100
AcDbEntity
  8
寸法
 62
     7
 48
50.0
100
AcDbMText
 10
12223.94569005883
 20
7394.503531582461
 30
0.0
 40
120.0
 41
0.0
 71
     5
 72
     1
  1
\A1;200
  7
STYLE1
 11
0.0000000000000001
 21
1.0
 31
0.0
 73
     1
 44
1.0
1001
ACAD
1000
MTEXTBEGIN
1070
    73
1070
     1
1070
    44
1040
1.0
1070
    74
1070
     0
1000
MTEXTEND
  0
POINT
  5
27E78
330
239F3
100
AcDbEntity
  8
DEFPOINTS
 62
     0
 48
50.0
100
AcDbPoint
 10
12523.85468201165
 20
7144.932665440726
 30
0.0
  0
POINT
  5
27E79
330
239F3
100
AcDbEntity
  8
DEFPOINTS
 62
     0
 48
50.0
100
AcDbPoint
 10
12523.85468201165
 20
6944.932665440726
 30
0.0
  0
POINT
  5
27E7A
330
239F3
100
AcDbEntity
  8
DEFPOINTS
 62
     0
 48
50.0
100
AcDbPoint
 10
12323.95750108246
 20
6944.932665440726
 30
0.0
  0
ENDBLK
  5
239FF
330
239F3
100
AcDbEntity
  8
0
 48
50.0
100
AcDbBlockEnd
  0
BLOCK
  5
23A2E
330
23A23
100
AcDbEntity
  8
0
 48
50.0
100
AcDbBlockBegin
  2
*D28
 70
     1
 10
0.0
 20
0.0
 30
0.0
  3
*D28
  1

  0
LINE
  5
27F70
330
23A23
100
AcDbEntity
  8
寸法
 62
     0
 48
50.0
370
    -2
100
AcDbLine
 10
12586.63847577294
 20
6464.932665440753
 30
0.0
 11
12263.95750108246
 21
6464.932665440753
 31
0.0
  0
LINE
  5
27F71
330
23A23
100
AcDbEntity
  8
寸法
 62
     0
 48
50.0
370
    -2
100
AcDbLine
 10
12578.60000000001
 20
6184.932665440745
 30
0.0
 11
12263.95750108246
 21
6184.932665440745
 31
0.0
  0
LINE
  5
27F72
330
23A23
100
AcDbEntity
  8
寸法
 62
     0
 48
50.0
370
    -2
100
AcDbLine
 10
12323.95750108246
 20
6464.932665440753
 30
0.0
 11
12323.95750108246
 21
6184.932665440745
 31
0.0
  0
LINE
  5
27F73
330
23A23
100
AcDbEntity
  8
寸法
 62
     0
 48
50.0
370
    -2
100
AcDbLine
 10
12323.95750108246
 20
6184.932665440745
 30
0.0
 11
12323.95750108246
 21
5785.790933157279
 31
0.0
  0
INSERT
  5
27F74
330
23A23
100
AcDbEntity
  8
寸法
 62
     0
 48
50.0
370
    -2
100
AcDbBlockReference
  2
_DOTSMALL
 10
12323.95750108246
 20
6464.932665440753
 30
0.0
 41
100.0
 42
100.0
 43
100.0
 50
90.0
  0
INSERT
  5
27F75
330
23A23
100
AcDbEntity
  8
寸法
 62
     0
 48
50.0
370
    -2
100
AcDbBlockReference
  2
_DOTSMALL
 10
12323.95750108246
 20
6184.932665440745
 30
0.0
 41
100.0
 42
100.0
 43
100.0
 50
270.0
  0
MTEXT
  5
27F76
330
23A23
100
AcDbEntity
  8
寸法
 62
     7
 48
50.0
100
AcDbMText
 10
12223.94569005883
 20
5935.361799299013
 30
0.0
 40
120.0
 41
0.0
 71
     5
 72
     1
  1
\A1;280
  7
STYLE1
 11
0.0000000000000001
 21
1.0
 31
0.0
 73
     1
 44
1.0
1001
ACAD
1000
MTEXTBEGIN
1070
    73
1070
     1
1070
    44
1040
1.0
1070
    74
1070
     0
1000
MTEXTEND
  0
POINT
  5
27F77
330
23A23
100
AcDbEntity
  8
DEFPOINTS
 62
     0
 48
50.0
100
AcDbPoint
 10
12606.63847577294
 20
6464.932665440753
 30
0.0
  0
POINT
  5
27F78
330
23A23
100
AcDbEntity
  8
DEFPOINTS
 62
     0
 48
50.0
100
AcDbPoint
 10
12598.60000000001
 20
6184.932665440745
 30
0.0
  0
POINT
  5
27F79
330
23A23
100
AcDbEntity
  8
DEFPOINTS
 62
     0
 48
50.0
100
AcDbPoint
 10
12323.95750108246
 20
6184.932665440745
 30
0.0
  0
ENDBLK
  5
23A2F
330
23A23
100
AcDbEntity
  8
0
 48
50.0
100
AcDbBlockEnd
  0
BLOCK
  5
23AE9
330
23ADE
100
AcDbEntity
  8
0
 48
50.0
100
AcDbBlockBegin
  2
*D29
 70
     1
 10
0.0
 20
0.0
 30
0.0
  3
*D29
  1

  0
LINE
  5
27F9A
330
23ADE
100
AcDbEntity
  8
寸法
 62
     0
 48
50.0
370
    -2
100
AcDbLine
 10
12978.6
 20
6861.613771508955
 30
0.0
 11
12978.6
 21
6804.620507470123
 31
0.0
  0
LINE
  5
27F9B
330
23ADE
100
AcDbEntity
  8
寸法
 62
     0
 48
50.0
370
    -2
100
AcDbLine
 10
12858.6
 20
6884.620507470123
 30
0.0
 11
12858.6
 21
6924.620507470123
 31
0.0
  0
LINE
  5
27F9C
330
23ADE
100
AcDbEntity
  8
寸法
 62
     0
 48
50.0
370
    -2
100
AcDbLine
 10
12858.6
 20
6864.620507470123
 30
0.0
 11
12978.6
 21
6864.620507470123
 31
0.0
  0
LINE
  5
27F9D
330
23ADE
100
AcDbEntity
  8
寸法
 62
     0
 48
50.0
370
    -2
100
AcDbLine
 10
12978.6
 20
6864.620507470123
 30
0.0
 11
13384.7062992126
 21
6864.620507470123
 31
0.0
  0
INSERT
  5
27F9E
330
23ADE
100
AcDbEntity
  8
寸法
 62
     0
 48
50.0
370
    -2
100
AcDbBlockReference
  2
_DOTSMALL
 10
12858.6
 20
6864.620507470123
 30
0.0
 41
100.0
 42
100.0
 43
100.0
 50
180.0
  0
INSERT
  5
27F9F
330
23ADE
100
AcDbEntity
  8
寸法
 62
     0
 48
50.0
370
    -2
100
AcDbBlockReference
  2
_DOTSMALL
 10
12978.6
 20
6864.620507470123
 30
0.0
 41
100.0
 42
100.0
 43
100.0
  0
MTEXT
  5
27FA0
330
23ADE
100
AcDbEntity
  8
寸法
 62
     7
 48
50.0
100
AcDbMText
 10
13248.65905511811
 20
6964.632318493745
 30
0.0
 40
120.0
 41
0.0
 71
     5
 72
     1
  1
\A1;120
  7
STYLE1
 73
     1
 44
1.0
1001
ACAD
1000
MTEXTBEGIN
1070
    73
1070
     1
1070
    44
1040
1.0
1070
    74
1070
     0
1000
MTEXTEND
  0
POINT
  5
27FA1
330
23ADE
100
AcDbEntity
  8
DEFPOINTS
 62
     0
 48
50.0
100
AcDbPoint
 10
12978.6
 20
6881.613771508956
 30
0.0
  0
POINT
  5
27FA2
330
23ADE
100
AcDbEntity
  8
DEFPOINTS
 62
     0
 48
50.0
100
AcDbPoint
 10
12858.6
 20
6864.620507470123
 30
0.0
  0
POINT
  5
27FA3
330
23ADE
100
AcDbEntity
  8
DEFPOINTS
 62
     0
 48
50.0
100
AcDbPoint
 10
12858.6
 20
6864.620507470123
 30
0.0
  0
ENDBLK
  5
23AEA
330
23ADE
100
AcDbEntity
  8
0
 48
50.0
100
AcDbBlockEnd
  0
BLOCK
  5
277AD
330
277A3
100
AcDbEntity
  8
0
 48
50.0
100
AcDbBlockBegin
  2
*D30
 70
     1
 10
0.0
 20
0.0
 30
0.0
  3
*D30
  1

  0
LINE
  5
27E1A
330
277A3
100
AcDbEntity
  8
寸法
 62
     0
 48
50.0
370
    -2
100
AcDbLine
 10
10005.6
 20
7091.93266544072
 30
0.0
 11
10005.6
 21
7931.199123534631
 31
0.0
  0
LINE
  5
27E1B
330
277A3
100
AcDbEntity
  8
寸法
 62
     0
 48
50.0
370
    -2
100
AcDbLine
 10
8105.6
 20
7091.93266544072
 30
0.0
 11
8105.6
 21
7931.199123534631
 31
0.0
  0
LINE
  5
27E1C
330
277A3
100
AcDbEntity
  8
寸法
 62
     0
 48
50.0
370
    -2
100
AcDbLine
 10
10005.6
 20
7871.19912353463
 30
0.0
 11
8105.6
 21
7871.19912353463
 31
0.0
  0
INSERT
  5
27E1D
330
277A3
100
AcDbEntity
  8
寸法
 62
     0
 48
50.0
370
    -2
100
AcDbBlockReference
  2
_DOTSMALL
 10
10005.6
 20
7871.19912353463
 30
0.0
 41
100.0
 42
100.0
 43
100.0
  0
INSERT
  5
27E1E
330
277A3
100
AcDbEntity
  8
寸法
 62
     0
 48
50.0
370
    -2
100
AcDbBlockReference
  2
_DOTSMALL
 10
8105.6
 20
7871.19912353463
 30
0.0
 41
100.0
 42
100.0
 43
100.0
 50
180.0
  0
MTEXT
  5
27E1F
330
277A3
100
AcDbEntity
  8
寸法
 62
     7
 48
50.0
100
AcDbMText
 10
9055.600000000001
 20
7971.19912353463
 30
0.0
 40
120.0
 41
0.0
 71
     5
 72
     1
  1
\A1;1900
  7
STYLE1
 73
     1
 44
1.0
1001
ACAD
1000
MTEXTBEGIN
1070
    73
1070
     1
1070
    44
1040
1.0
1070
    74
1070
     0
1000
MTEXTEND
  0
POINT
  5
27E20
330
277A3
100
AcDbEntity
  8
DEFPOINTS
 62
     0
 48
50.0
100
AcDbPoint
 10
10005.6
 20
7071.932665440719
 30
0.0
  0
POINT
  5
27E21
330
277A3
100
AcDbEntity
  8
DEFPOINTS
 62
     0
 48
50.0
100
AcDbPoint
 10
8105.6
 20
7071.932665440719
 30
0.0
  0
POINT
  5
27E22
330
277A3
100
AcDbEntity
  8
DEFPOINTS
 62
     0
 48
50.0
100
AcDbPoint
 10
8105.6
 20
7871.19912353463
 30
0.0
  0
ENDBLK
  5
277AE
330
277A3
100
AcDbEntity
  8
0
 48
50.0
100
AcDbBlockEnd
  0
BLOCK
  5
277B9
330
277AF
100
AcDbEntity
  8
0
 48
50.0
100
AcDbBlockBegin
  2
*D31
 70
     1
 10
0.0
 20
0.0
 30
0.0
  3
*D31
  1

  0
LINE
  5
27E11
330
277AF
100
AcDbEntity
  8
寸法
 62
     0
 48
50.0
370
    -2
100
AcDbLine
 10
9173.600000000007
 20
6734.93266544072
 30
0.0
 11
9173.600000000007
 21
7687.541482110969
 31
0.0
  0
LINE
  5
27E12
330
277AF
100
AcDbEntity
  8
寸法
 62
     0
 48
50.0
370
    -2
100
AcDbLine
 10
8223.600000000008
 20
6734.93266544072
 30
0.0
 11
8223.600000000008
 21
7687.541482110969
 31
0.0
  0
LINE
  5
27E13
330
277AF
100
AcDbEntity
  8
寸法
 62
     0
 48
50.0
370
    -2
100
AcDbLine
 10
9173.600000000007
 20
7627.541482110967
 30
0.0
 11
8223.600000000008
 21
7627.541482110967
 31
0.0
  0
INSERT
  5
27E14
330
277AF
100
AcDbEntity
  8
寸法
 62
     0
 48
50.0
370
    -2
100
AcDbBlockReference
  2
_DOTSMALL
 10
9173.600000000007
 20
7627.541482110967
 30
0.0
 41
100.0
 42
100.0
 43
100.0
  0
INSERT
  5
27E15
330
277AF
100
AcDbEntity
  8
寸法
 62
     0
 48
50.0
370
    -2
100
AcDbBlockReference
  2
_DOTSMALL
 10
8223.600000000008
 20
7627.541482110967
 30
0.0
 41
100.0
 42
100.0
 43
100.0
 50
180.0
  0
MTEXT
  5
27E16
330
277AF
100
AcDbEntity
  8
寸法
 62
     7
 48
50.0
100
AcDbMText
 10
8698.600000000007
 20
7727.541482110968
 30
0.0
 40
120.0
 41
0.0
 71
     5
 72
     1
  1
\A1;950
  7
STYLE1
 73
     1
 44
1.0
1001
ACAD
1000
MTEXTBEGIN
1070
    73
1070
     1
1070
    44
1040
1.0
1070
    74
1070
     0
1000
MTEXTEND
  0
POINT
  5
27E17
330
277AF
100
AcDbEntity
  8
DEFPOINTS
 62
     0
 48
50.0
100
AcDbPoint
 10
9173.600000000007
 20
6714.932665440719
 30
0.0
  0
POINT
  5
27E18
330
277AF
100
AcDbEntity
  8
DEFPOINTS
 62
     0
 48
50.0
100
AcDbPoint
 10
8223.600000000008
 20
6714.932665440719
 30
0.0
  0
POINT
  5
27E19
330
277AF
100
AcDbEntity
  8
DEFPOINTS
 62
     0
 48
50.0
100
AcDbPoint
 10
8223.600000000008
 20
7627.541482110967
 30
0.0
  0
ENDBLK
  5
277BA
330
277AF
100
AcDbEntity
  8
0
 48
50.0
100
AcDbBlockEnd
  0
BLOCK
  5
277C5
330
277BB
100
AcDbEntity
  8
0
 48
50.0
100
AcDbBlockBegin
  2
*D32
 70
     1
 10
0.0
 20
0.0
 30
0.0
  3
*D32
  1

  0
LINE
  5
27E08
330
277BB
100
AcDbEntity
  8
寸法
 62
     0
 48
50.0
370
    -2
100
AcDbLine
 10
3468.600000000001
 20
7164.93266544072
 30
0.0
 11
3468.600000000001
 21
8163.152987499637
 31
0.0
  0
LINE
  5
27E09
330
277BB
100
AcDbEntity
  8
寸法
 62
     0
 48
50.0
370
    -2
100
AcDbLine
 10
12978.6
 20
7164.93266544072
 30
0.0
 11
12978.6
 21
8163.152987499637
 31
0.0
  0
LINE
  5
27E0A
330
277BB
100
AcDbEntity
  8
寸法
 62
     0
 48
50.0
370
    -2
100
AcDbLine
 10
3468.600000000001
 20
8103.152987499639
 30
0.0
 11
12978.6
 21
8103.152987499639
 31
0.0
  0
INSERT
  5
27E0B
330
277BB
100
AcDbEntity
  8
寸法
 62
     0
 48
50.0
370
    -2
100
AcDbBlockReference
  2
_DOTSMALL
 10
3468.600000000001
 20
8103.152987499639
 30
0.0
 41
100.0
 42
100.0
 43
100.0
 50
180.0
  0
INSERT
  5
27E0C
330
277BB
100
AcDbEntity
  8
寸法
 62
     0
 48
50.0
370
    -2
100
AcDbBlockReference
  2
_DOTSMALL
 10
12978.6
 20
8103.152987499639
 30
0.0
 41
100.0
 42
100.0
 43
100.0
  0
MTEXT
  5
27E0D
330
277BB
100
AcDbEntity
  8
寸法
 62
     7
 48
50.0
100
AcDbMText
 10
8223.600000000001
 20
8203.152987499638
 30
0.0
 40
120.0
 41
0.0
 71
     5
 72
     1
  1
\A1;9510
  7
STYLE1
 73
     1
 44
1.0
1001
ACAD
1000
MTEXTBEGIN
1070
    73
1070
     1
1070
    44
1040
1.0
1070
    74
1070
     0
1000
MTEXTEND
  0
POINT
  5
27E0E
330
277BB
100
AcDbEntity
  8
DEFPOINTS
 62
     0
 48
50.0
100
AcDbPoint
 10
3468.600000000001
 20
7144.93266544072
 30
0.0
  0
POINT
  5
27E0F
330
277BB
100
AcDbEntity
  8
DEFPOINTS
 62
     0
 48
50.0
100
AcDbPoint
 10
12978.6
 20
7144.93266544072
 30
0.0
  0
POINT
  5
27E10
330
277BB
100
AcDbEntity
  8
DEFPOINTS
 62
     0
 48
50.0
100
AcDbPoint
 10
12978.6
 20
8103.152987499639
 30
0.0
  0
ENDBLK
  5
277C6
330
277BB
100
AcDbEntity
  8
0
 48
50.0
100
AcDbBlockEnd
  0
BLOCK
  5
277D2
330
277C7
100
AcDbEntity
  8
0
 48
50.0
100
AcDbBlockBegin
  2
*D33
 70
     1
 10
0.0
 20
0.0
 30
0.0
  3
*D33
  1

  0
LINE
  5
27E52
330
277C7
100
AcDbEntity
  8
寸法
 62
     0
 48
50.0
370
    -2
100
AcDbLine
 10
4022.765475140901
 20
6184.93266544073
 30
0.0
 11
3891.285990614301
 21
6184.93266544073
 31
0.0
  0
LINE
  5
27E53
330
277C7
100
AcDbEntity
  8
寸法
 62
     0
 48
50.0
370
    -2
100
AcDbLine
 10
4353.600000000008
 20
6664.932665440719
 30
0.0
 11
3891.285990614301
 21
6664.932665440719
 31
0.0
  0
LINE
  5
27E54
330
277C7
100
AcDbEntity
  8
寸法
 62
     0
 48
50.0
370
    -2
100
AcDbLine
 10
3951.285990614302
 20
6664.932665440719
 30
0.0
 11
3951.285990614302
 21
6184.93266544073
 31
0.0
  0
LINE
  5
27E55
330
277C7
100
AcDbEntity
  8
寸法
 62
     0
 48
50.0
370
    -2
100
AcDbLine
 10
3951.285990614302
 20
6184.93266544073
 30
0.0
 11
3951.285990614302
 21
5738.32636622813
 31
0.0
  0
INSERT
  5
27E56
330
277C7
100
AcDbEntity
  8
寸法
 62
     0
 48
50.0
370
    -2
100
AcDbBlockReference
  2
_DOTSMALL
 10
3951.285990614302
 20
6664.932665440719
 30
0.0
 41
100.0
 42
100.0
 43
100.0
 50
90.0
  0
INSERT
  5
27E57
330
277C7
100
AcDbEntity
  8
寸法
 62
     0
 48
50.0
370
    -2
100
AcDbBlockReference
  2
_DOTSMALL
 10
3951.285990614302
 20
6184.93266544073
 30
0.0
 41
100.0
 42
100.0
 43
100.0
 50
270.0
  0
MTEXT
  5
27E58
330
277C7
100
AcDbEntity
  8
寸法
 62
     7
 48
50.0
100
AcDbMText
 10
3851.285990614301
 20
5892.373610322619
 30
0.0
 40
120.0
 41
0.0
 71
     5
 72
     1
  1
\A1;480
  7
STYLE1
 11
0.0000000000000001
 21
1.0
 31
0.0
 73
     1
 44
1.0
1001
ACAD
1000
MTEXTBEGIN
1070
    73
1070
     1
1070
    44
1040
1.0
1070
    74
1070
     0
1000
MTEXTEND
  0
POINT
  5
27E59
330
277C7
100
AcDbEntity
  8
DEFPOINTS
 62
     0
 48
50.0
100
AcDbPoint
 10
4042.765475140901
 20
6184.93266544073
 30
0.0
  0
POINT
  5
27E5A
330
277C7
100
AcDbEntity
  8
DEFPOINTS
 62
     0
 48
50.0
100
AcDbPoint
 10
4373.600000000007
 20
6664.932665440719
 30
0.0
  0
POINT
  5
27E5B
330
277C7
100
AcDbEntity
  8
DEFPOINTS
 62
     0
 48
50.0
100
AcDbPoint
 10
3951.285990614302
 20
6664.932665440719
 30
0.0
  0
ENDBLK
  5
277D3
330
277C7
100
AcDbEntity
  8
0
 48
50.0
100
AcDbBlockEnd
  0
BLOCK
  5
277DE
330
277D4
100
AcDbEntity
  8
0
 48
50.0
100
AcDbBlockBegin
  2
*D34
 70
     1
 10
0.0
 20
0.0
 30
0.0
  3
*D34
  1

  0
LINE
  5
27ECA
330
277D4
100
AcDbEntity
  8
寸法
 62
     0
 48
50.0
370
    -2
100
AcDbLine
 10
3521.6
 20
7021.932665440719
 30
0.0
 11
2785.665006330072
 21
7021.932665440719
 31
0.0
  0
LINE
  5
27ECB
330
277D4
100
AcDbEntity
  8
寸法
 62
     0
 48
50.0
370
    -2
100
AcDbLine
 10
3521.600000000008
 20
6382.932665440723
 30
0.0
 11
2785.665006330072
 21
6382.932665440723
 31
0.0
  0
LINE
  5
27ECC
330
277D4
100
AcDbEntity
  8
寸法
 62
     0
 48
50.0
370
    -2
100
AcDbLine
 10
2845.665006330072
 20
7021.932665440719
 30
0.0
 11
2845.665006330072
 21
6382.932665440723
 31
0.0
  0
INSERT
  5
27ECD
330
277D4
100
AcDbEntity
  8
寸法
 62
     0
 48
50.0
370
    -2
100
AcDbBlockReference
  2
_DOTSMALL
 10
2845.665006330072
 20
7021.932665440719
 30
0.0
 41
100.0
 42
100.0
 43
100.0
 50
90.0
  0
INSERT
  5
27ECE
330
277D4
100
AcDbEntity
  8
寸法
 62
     0
 48
50.0
370
    -2
100
AcDbBlockReference
  2
_DOTSMALL
 10
2845.665006330072
 20
6382.932665440723
 30
0.0
 41
100.0
 42
100.0
 43
100.0
 50
270.0
  0
MTEXT
  5
27ECF
330
277D4
100
AcDbEntity
  8
寸法
 62
     7
 48
50.0
100
AcDbMText
 10
2745.665006330071
 20
6702.432665440719
 30
0.0
 40
120.0
 41
0.0
 71
     5
 72
     1
  1
\A1;639
  7
STYLE1
 11
0.0000000000000001
 21
1.0
 31
0.0
 73
     1
 44
1.0
1001
ACAD
1000
MTEXTBEGIN
1070
    73
1070
     1
1070
    44
1040
1.0
1070
    74
1070
     0
1000
MTEXTEND
  0
POINT
  5
27ED0
330
277D4
100
AcDbEntity
  8
DEFPOINTS
 62
     0
 48
50.0
100
AcDbPoint
 10
3541.600000000001
 20
7021.932665440719
 30
0.0
  0
POINT
  5
27ED1
330
277D4
100
AcDbEntity
  8
DEFPOINTS
 62
     0
 48
50.0
100
AcDbPoint
 10
3541.600000000008
 20
6382.932665440723
 30
0.0
  0
POINT
  5
27ED2
330
277D4
100
AcDbEntity
  8
DEFPOINTS
 62
     0
 48
50.0
100
AcDbPoint
 10
2845.665006330072
 20
6382.932665440723
 30
0.0
  0
ENDBLK
  5
277DF
330
277D4
100
AcDbEntity
  8
0
 48
50.0
100
AcDbBlockEnd
  0
BLOCK
  5
277EA
330
277E0
100
AcDbEntity
  8
0
 48
50.0
100
AcDbBlockBegin
  2
*D35
 70
     1
 10
0.0
 20
0.0
 30
0.0
  3
*D35
  1

  0
LINE
  5
27E37
330
277E0
100
AcDbEntity
  8
寸法
 62
     0
 48
50.0
370
    -2
100
AcDbLine
 10
3448.600000000001
 20
7144.93266544072
 30
0.0
 11
2533.721909610674
 21
7144.93266544072
 31
0.0
  0
LINE
  5
27E38
330
277E0
100
AcDbEntity
  8
寸法
 62
     0
 48
50.0
370
    -2
100
AcDbLine
 10
3448.600000000001
 20
6184.93266544072
 30
0.0
 11
2533.721909610674
 21
6184.93266544072
 31
0.0
  0
LINE
  5
27E39
330
277E0
100
AcDbEntity
  8
寸法
 62
     0
 48
50.0
370
    -2
100
AcDbLine
 10
2593.721909610674
 20
7144.93266544072
 30
0.0
 11
2593.721909610674
 21
6184.93266544072
 31
0.0
  0
INSERT
  5
27E3A
330
277E0
100
AcDbEntity
  8
寸法
 62
     0
 48
50.0
370
    -2
100
AcDbBlockReference
  2
_DOTSMALL
 10
2593.721909610674
 20
7144.93266544072
 30
0.0
 41
100.0
 42
100.0
 43
100.0
 50
90.0
  0
INSERT
  5
27E3B
330
277E0
100
AcDbEntity
  8
寸法
 62
     0
 48
50.0
370
    -2
100
AcDbBlockReference
  2
_DOTSMALL
 10
2593.721909610674
 20
6184.93266544072
 30
0.0
 41
100.0
 42
100.0
 43
100.0
 50
270.0
  0
MTEXT
  5
27E3C
330
277E0
100
AcDbEntity
  8
寸法
 62
     7
 48
50.0
100
AcDbMText
 10
2493.721909610673
 20
6702.432665440719
 30
0.0
 40
120.0
 41
0.0
 71
     5
 72
     1
  1
\A1;960
  7
STYLE1
 11
0.0000000000000001
 21
1.0
 31
0.0
 73
     1
 44
1.0
1001
ACAD
1000
MTEXTBEGIN
1070
    73
1070
     1
1070
    44
1040
1.0
1070
    74
1070
     0
1000
MTEXTEND
  0
POINT
  5
27E3D
330
277E0
100
AcDbEntity
  8
DEFPOINTS
 62
     0
 48
50.0
100
AcDbPoint
 10
3468.600000000001
 20
7144.93266544072
 30
0.0
  0
POINT
  5
27E3E
330
277E0
100
AcDbEntity
  8
DEFPOINTS
 62
     0
 48
50.0
100
AcDbPoint
 10
3468.600000000001
 20
6184.93266544072
 30
0.0
  0
POINT
  5
27E3F
330
277E0
100
AcDbEntity
  8
DEFPOINTS
 62
     0
 48
50.0
100
AcDbPoint
 10
2593.721909610674
 20
6184.93266544072
 30
0.0
  0
ENDBLK
  5
277EB
330
277E0
100
AcDbEntity
  8
0
 48
50.0
100
AcDbBlockEnd
  0
BLOCK
  5
277F6
330
277EC
100
AcDbEntity
  8
0
 48
50.0
100
AcDbBlockBegin
  2
*D36
 70
     1
 10
0.0
 20
0.0
 30
0.0
  3
*D36
  1

  0
LINE
  5
27E49
330
277EC
100
AcDbEntity
  8
寸法
 62
     0
 48
50.0
370
    -2
100
AcDbLine
 10
3448.600000000004
 20
6184.932665440715
 30
0.0
 11
3295.512673767883
 21
6184.932665440715
 31
0.0
  0
LINE
  5
27E4A
330
277EC
100
AcDbEntity
  8
寸法
 62
     0
 48
50.0
370
    -2
100
AcDbLine
 10
3804.325326928809
 20
5464.932665440716
 30
0.0
 11
3295.512673767883
 21
5464.932665440716
 31
0.0
  0
LINE
  5
27E4B
330
277EC
100
AcDbEntity
  8
寸法
 62
     0
 48
50.0
370
    -2
100
AcDbLine
 10
3355.512673767883
 20
6184.932665440715
 30
0.0
 11
3355.512673767883
 21
5464.932665440716
 31
0.0
  0
INSERT
  5
27E4C
330
277EC
100
AcDbEntity
  8
寸法
 62
     0
 48
50.0
370
    -2
100
AcDbBlockReference
  2
_DOTSMALL
 10
3355.512673767883
 20
6184.932665440715
 30
0.0
 41
100.0
 42
100.0
 43
100.0
 50
90.0
  0
INSERT
  5
27E4D
330
277EC
100
AcDbEntity
  8
寸法
 62
     0
 48
50.0
370
    -2
100
AcDbBlockReference
  2
_DOTSMALL
 10
3355.512673767883
 20
5464.932665440716
 30
0.0
 41
100.0
 42
100.0
 43
100.0
 50
270.0
  0
MTEXT
  5
27E4E
330
277EC
100
AcDbEntity
  8
寸法
 62
     7
 48
50.0
100
AcDbMText
 10
3255.50086274426
 20
5824.932665440717
 30
0.0
 40
120.0
 41
0.0
 71
     5
 72
     1
  1
\A1;扉の出720
  7
STYLE1
 11
0.0000000000000001
 21
1.0
 31
0.0
 73
     1
 44
1.0
1001
ACAD
1000
MTEXTBEGIN
1070
    73
1070
     1
1070
    44
1040
1.0
1070
    74
1070
     0
1000
MTEXTEND
  0
POINT
  5
27E4F
330
277EC
100
AcDbEntity
  8
DEFPOINTS
 62
     0
 48
50.0
100
AcDbPoint
 10
3468.600000000004
 20
6184.932665440715
 30
0.0
  0
POINT
  5
27E50
330
277EC
100
AcDbEntity
  8
DEFPOINTS
 62
     0
 48
50.0
100
AcDbPoint
 10
3824.325326928809
 20
5464.932665440716
 30
0.0
  0
POINT
  5
27E51
330
277EC
100
AcDbEntity
  8
DEFPOINTS
 62
     0
 48
50.0
100
AcDbPoint
 10
3355.512673767883
 20
5464.932665440716
 30
0.0
  0
ENDBLK
  5
277F7
330
277EC
100
AcDbEntity
  8
0
 48
50.0
100
AcDbBlockEnd
  0
BLOCK
  5
27803
330
277F8
100
AcDbEntity
  8
0
 48
50.0
100
AcDbBlockBegin
  2
*D37
 70
     1
 10
0.0
 20
0.0
 30
0.0
  3
*D37
  1

  0
LINE
  5
27EC0
330
277F8
100
AcDbEntity
  8
寸法
 62
     0
 48
50.0
370
    -2
100
AcDbLine
 10
3521.600000000008
 20
6382.932665440723
 30
0.0
 11
2785.665006330072
 21
6382.932665440723
 31
0.0
  0
LINE
  5
27EC1
330
277F8
100
AcDbEntity
  8
寸法
 62
     0
 48
50.0
370
    -2
100
AcDbLine
 10
3448.600000000001
 20
6184.93266544072
 30
0.0
 11
2785.665006330072
 21
6184.93266544072
 31
0.0
  0
LINE
  5
27EC2
330
277F8
100
AcDbEntity
  8
寸法
 62
     0
 48
50.0
370
    -2
100
AcDbLine
 10
2845.665006330072
 20
6382.932665440723
 30
0.0
 11
2845.665006330072
 21
6184.93266544072
 31
0.0
  0
LINE
  5
27EC3
330
277F8
100
AcDbEntity
  8
寸法
 62
     0
 48
50.0
370
    -2
100
AcDbLine
 10
2845.665006330072
 20
6184.93266544072
 30
0.0
 11
2845.665006330072
 21
5713.19205676847
 31
0.0
  0
INSERT
  5
27EC4
330
277F8
100
AcDbEntity
  8
寸法
 62
     0
 48
50.0
370
    -2
100
AcDbBlockReference
  2
_DOTSMALL
 10
2845.665006330072
 20
6382.932665440723
 30
0.0
 41
100.0
 42
100.0
 43
100.0
 50
90.0
  0
INSERT
  5
27EC5
330
277F8
100
AcDbEntity
  8
寸法
 62
     0
 48
50.0
370
    -2
100
AcDbBlockReference
  2
_DOTSMALL
 10
2845.665006330072
 20
6184.93266544072
 30
0.0
 41
100.0
 42
100.0
 43
100.0
 50
270.0
  0
MTEXT
  5
27EC6
330
277F8
100
AcDbEntity
  8
寸法
 62
     7
 48
50.0
100
AcDbMText
 10
2745.665006330071
 20
5849.401716598127
 30
0.0
 40
120.0
 41
0.0
 71
     5
 72
     1
  1
\A1;198
  7
STYLE1
 11
0.0000000000000001
 21
1.0
 31
0.0
 73
     1
 44
1.0
1001
ACAD
1000
MTEXTBEGIN
1070
    73
1070
     1
1070
    44
1040
1.0
1070
    74
1070
     0
1000
MTEXTEND
  0
POINT
  5
27EC7
330
277F8
100
AcDbEntity
  8
DEFPOINTS
 62
     0
 48
50.0
100
AcDbPoint
 10
3541.600000000008
 20
6382.932665440723
 30
0.0
  0
POINT
  5
27EC8
330
277F8
100
AcDbEntity
  8
DEFPOINTS
 62
     0
 48
50.0
100
AcDbPoint
 10
3468.600000000001
 20
6184.93266544072
 30
0.0
  0
POINT
  5
27EC9
330
277F8
100
AcDbEntity
  8
DEFPOINTS
 62
     0
 48
50.0
100
AcDbPoint
 10
2845.665006330072
 20
6184.93266544072
 30
0.0
  0
ENDBLK
  5
27804
330
277F8
100
AcDbEntity
  8
0
 48
50.0
100
AcDbBlockEnd
  0
BLOCK
  5
27827
330
2781E
100
AcDbEntity
  8
0
 48
50.0
100
AcDbBlockBegin
  2
*D38
 70
     1
 10
0.0
 20
0.0
 30
0.0
  3
*D38
  1

  0
LINE
  5
27DFF
330
2781E
100
AcDbEntity
  8
寸法
 62
     0
 48
50.0
370
    -2
100
AcDbLine
 10
5373.600000000007
 20
6734.93266544072
 30
0.0
 11
5373.600000000007
 21
7687.541482110969
 31
0.0
  0
LINE
  5
27E00
330
2781E
100
AcDbEntity
  8
寸法
 62
     0
 48
50.0
370
    -2
100
AcDbLine
 10
4423.600000000007
 20
6734.93266544072
 30
0.0
 11
4423.600000000007
 21
7687.541482110969
 31
0.0
  0
LINE
  5
27E01
330
2781E
100
AcDbEntity
  8
寸法
 62
     0
 48
50.0
370
    -2
100
AcDbLine
 10
5373.600000000007
 20
7627.541482110967
 30
0.0
 11
4423.600000000007
 21
7627.541482110967
 31
0.0
  0
INSERT
  5
27E02
330
2781E
100
AcDbEntity
  8
寸法
 62
     0
 48
50.0
370
    -2
100
AcDbBlockReference
  2
_DOTSMALL
 10
5373.600000000007
 20
7627.541482110967
 30
0.0
 41
100.0
 42
100.0
 43
100.0
  0
INSERT
  5
27E03
330
2781E
100
AcDbEntity
  8
寸法
 62
     0
 48
50.0
370
    -2
100
AcDbBlockReference
  2
_DOTSMALL
 10
4423.600000000007
 20
7627.541482110967
 30
0.0
 41
100.0
 42
100.0
 43
100.0
 50
180.0
  0
MTEXT
  5
27E04
330
2781E
100
AcDbEntity
  8
寸法
 62
     7
 48
50.0
100
AcDbMText
 10
4898.600000000008
 20
7727.541482110968
 30
0.0
 40
120.0
 41
0.0
 71
     5
 72
     1
  1
\A1;950
  7
STYLE1
 73
     1
 44
1.0
1001
ACAD
1000
MTEXTBEGIN
1070
    73
1070
     1
1070
    44
1040
1.0
1070
    74
1070
     0
1000
MTEXTEND
  0
POINT
  5
27E05
330
2781E
100
AcDbEntity
  8
DEFPOINTS
 62
     0
 48
50.0
100
AcDbPoint
 10
5373.600000000007
 20
6714.932665440719
 30
0.0
  0
POINT
  5
27E06
330
2781E
100
AcDbEntity
  8
DEFPOINTS
 62
     0
 48
50.0
100
AcDbPoint
 10
4423.600000000007
 20
6714.932665440719
 30
0.0
  0
POINT
  5
27E07
330
2781E
100
AcDbEntity
  8
DEFPOINTS
 62
     0
 48
50.0
100
AcDbPoint
 10
4423.600000000007
 20
7627.541482110967
 30
0.0
  0
ENDBLK
  5
27828
330
2781E
100
AcDbEntity
  8
0
 48
50.0
100
AcDbBlockEnd
  0
BLOCK
  5
27832
330
27829
100
AcDbEntity
  8
0
 48
50.0
100
AcDbBlockBegin
  2
*D39
 70
     1
 10
0.0
 20
0.0
 30
0.0
  3
*D39
  1

  0
LINE
  5
27DF6
330
27829
100
AcDbEntity
  8
寸法
 62
     0
 48
50.0
370
    -2
100
AcDbLine
 10
6205.6
 20
7091.93266544072
 30
0.0
 11
6205.6
 21
7931.199123534631
 31
0.0
  0
LINE
  5
27DF7
330
27829
100
AcDbEntity
  8
寸法
 62
     0
 48
50.0
370
    -2
100
AcDbLine
 10
3591.600000000001
 20
7091.93266544072
 30
0.0
 11
3591.600000000001
 21
7931.199123534631
 31
0.0
  0
LINE
  5
27DF8
330
27829
100
AcDbEntity
  8
寸法
 62
     0
 48
50.0
370
    -2
100
AcDbLine
 10
6205.6
 20
7871.19912353463
 30
0.0
 11
3591.600000000001
 21
7871.19912353463
 31
0.0
  0
INSERT
  5
27DF9
330
27829
100
AcDbEntity
  8
寸法
 62
     0
 48
50.0
370
    -2
100
AcDbBlockReference
  2
_DOTSMALL
 10
6205.6
 20
7871.19912353463
 30
0.0
 41
100.0
 42
100.0
 43
100.0
  0
INSERT
  5
27DFA
330
27829
100
AcDbEntity
  8
寸法
 62
     0
 48
50.0
370
    -2
100
AcDbBlockReference
  2
_DOTSMALL
 10
3591.600000000001
 20
7871.19912353463
 30
0.0
 41
100.0
 42
100.0
 43
100.0
 50
180.0
  0
MTEXT
  5
27DFB
330
27829
100
AcDbEntity
  8
寸法
 62
     7
 48
50.0
100
AcDbMText
 10
4898.6
 20
7971.210934558252
 30
0.0
 40
120.0
 41
0.0
 71
     5
 72
     1
  1
\A1;2614
  7
STYLE1
 73
     1
 44
1.0
1001
ACAD
1000
MTEXTBEGIN
1070
    73
1070
     1
1070
    44
1040
1.0
1070
    74
1070
     0
1000
MTEXTEND
  0
POINT
  5
27DFC
330
27829
100
AcDbEntity
  8
DEFPOINTS
 62
     0
 48
50.0
100
AcDbPoint
 10
6205.6
 20
7071.932665440719
 30
0.0
  0
POINT
  5
27DFD
330
27829
100
AcDbEntity
  8
DEFPOINTS
 62
     0
 48
50.0
100
AcDbPoint
 10
3591.600000000001
 20
7071.932665440719
 30
0.0
  0
POINT
  5
27DFE
330
27829
100
AcDbEntity
  8
DEFPOINTS
 62
     0
 48
50.0
100
AcDbPoint
 10
3591.600000000001
 20
7871.19912353463
 30
0.0
  0
ENDBLK
  5
27833
330
27829
100
AcDbEntity
  8
0
 48
50.0
100
AcDbBlockEnd
  0
BLOCK
  5
2783F
330
27834
100
AcDbEntity
  8
0
 48
50.0
100
AcDbBlockBegin
  2
*D40
 70
     1
 10
0.0
 20
0.0
 30
0.0
  3
*D40
  1

  0
LINE
  5
27DEC
330
27834
100
AcDbEntity
  8
寸法
 62
     0
 48
50.0
370
    -2
100
AcDbLine
 10
3591.600000000001
 20
7091.93266544072
 30
0.0
 11
3591.600000000001
 21
7931.199123534631
 31
0.0
  0
LINE
  5
27DED
330
27834
100
AcDbEntity
  8
寸法
 62
     0
 48
50.0
370
    -2
100
AcDbLine
 10
3468.600000000001
 20
7164.93266544072
 30
0.0
 11
3468.600000000001
 21
7931.199123534631
 31
0.0
  0
LINE
  5
27DEE
330
27834
100
AcDbEntity
  8
寸法
 62
     0
 48
50.0
370
    -2
100
AcDbLine
 10
3591.600000000001
 20
7871.19912353463
 30
0.0
 11
3468.600000000001
 21
7871.19912353463
 31
0.0
  0
LINE
  5
27DEF
330
27834
100
AcDbEntity
  8
寸法
 62
     0
 48
50.0
370
    -2
100
AcDbLine
 10
3468.600000000001
 20
7871.19912353463
 30
0.0
 11
3057.008116907964
 21
7871.19912353463
 31
0.0
  0
INSERT
  5
27DF0
330
27834
100
AcDbEntity
  8
寸法
 62
     0
 48
50.0
370
    -2
100
AcDbBlockReference
  2
_DOTSMALL
 10
3591.600000000001
 20
7871.19912353463
 30
0.0
 41
100.0
 42
100.0
 43
100.0
  0
INSERT
  5
27DF1
330
27834
100
AcDbEntity
  8
寸法
 62
     0
 48
50.0
370
    -2
100
AcDbBlockReference
  2
_DOTSMALL
 10
3468.600000000001
 20
7871.19912353463
 30
0.0
 41
100.0
 42
100.0
 43
100.0
 50
180.0
  0
MTEXT
  5
27DF2
330
27834
100
AcDbEntity
  8
寸法
 62
     7
 48
50.0
100
AcDbMText
 10
3195.493398282203
 20
7971.210934558252
 30
0.0
 40
120.0
 41
0.0
 71
     5
 72
     1
  1
\A1;123
  7
STYLE1
 73
     1
 44
1.0
1001
ACAD
1000
MTEXTBEGIN
1070
    73
1070
     1
1070
    44
1040
1.0
1070
    74
1070
     0
1000
MTEXTEND
  0
POINT
  5
27DF3
330
27834
100
AcDbEntity
  8
DEFPOINTS
 62
     0
 48
50.0
100
AcDbPoint
 10
3591.600000000001
 20
7071.932665440719
 30
0.0
  0
POINT
  5
27DF4
330
27834
100
AcDbEntity
  8
DEFPOINTS
 62
     0
 48
50.0
100
AcDbPoint
 10
3468.600000000001
 20
7144.93266544072
 30
0.0
  0
POINT
  5
27DF5
330
27834
100
AcDbEntity
  8
DEFPOINTS
 62
     0
 48
50.0
100
AcDbPoint
 10
3468.600000000001
 20
7871.19912353463
 30
0.0
  0
ENDBLK
  5
27840
330
27834
100
AcDbEntity
  8
0
 48
50.0
100
AcDbBlockEnd
  0
BLOCK
  5
2784C
330
27841
100
AcDbEntity
  8
0
 48
50.0
100
AcDbBlockBegin
  2
*D41
 70
     1
 10
0.0
 20
0.0
 30
0.0
  3
*D41
  1

  0
LINE
  5
27E23
330
27841
100
AcDbEntity
  8
寸法
 62
     0
 48
50.0
370
    -2
100
AcDbLine
 10
3448.600000000001
 20
7144.93266544072
 30
0.0
 11
2785.665006330072
 21
7144.93266544072
 31
0.0
  0
LINE
  5
27E24
330
27841
100
AcDbEntity
  8
寸法
 62
     0
 48
50.0
370
    -2
100
AcDbLine
 10
3521.6
 20
7021.932665440719
 30
0.0
 11
2785.665006330072
 21
7021.932665440719
 31
0.0
  0
LINE
  5
27E25
330
27841
100
AcDbEntity
  8
寸法
 62
     0
 48
50.0
370
    -2
100
AcDbLine
 10
2845.665006330072
 20
7021.932665440719
 30
0.0
 11
2845.665006330072
 21
7144.93266544072
 31
0.0
  0
LINE
  5
27E26
330
27841
100
AcDbEntity
  8
寸法
 62
     0
 48
50.0
370
    -2
100
AcDbLine
 10
2845.665006330072
 20
7144.93266544072
 30
0.0
 11
2845.665006330073
 21
7556.524548532756
 31
0.0
  0
INSERT
  5
27E27
330
27841
100
AcDbEntity
  8
寸法
 62
     0
 48
50.0
370
    -2
100
AcDbBlockReference
  2
_DOTSMALL
 10
2845.665006330072
 20
7021.932665440719
 30
0.0
 41
100.0
 42
100.0
 43
100.0
 50
270.0
  0
INSERT
  5
27E28
330
27841
100
AcDbEntity
  8
寸法
 62
     0
 48
50.0
370
    -2
100
AcDbBlockReference
  2
_DOTSMALL
 10
2845.665006330072
 20
7144.93266544072
 30
0.0
 41
100.0
 42
100.0
 43
100.0
 50
90.0
  0
MTEXT
  5
27E29
330
27841
100
AcDbEntity
  8
寸法
 62
     7
 48
50.0
100
AcDbMText
 10
2745.653195306449
 20
7418.039267158518
 30
0.0
 40
120.0
 41
0.0
 71
     5
 72
     1
  1
\A1;123
  7
STYLE1
 11
0.0000000000000001
 21
1.0
 31
0.0
 73
     1
 44
1.0
1001
ACAD
1000
MTEXTBEGIN
1070
    73
1070
     1
1070
    44
1040
1.0
1070
    74
1070
     0
1000
MTEXTEND
  0
POINT
  5
27E2A
330
27841
100
AcDbEntity
  8
DEFPOINTS
 62
     0
 48
50.0
100
AcDbPoint
 10
3468.600000000001
 20
7144.93266544072
 30
0.0
  0
POINT
  5
27E2B
330
27841
100
AcDbEntity
  8
DEFPOINTS
 62
     0
 48
50.0
100
AcDbPoint
 10
3541.600000000001
 20
7021.932665440719
 30
0.0
  0
POINT
  5
27E2C
330
27841
100
AcDbEntity
  8
DEFPOINTS
 62
     0
 48
50.0
100
AcDbPoint
 10
2845.665006330072
 20
7021.932665440719
 30
0.0
  0
ENDBLK
  5
2784D
330
27841
100
AcDbEntity
  8
0
 48
50.0
100
AcDbBlockEnd
  0
BLOCK
  5
27858
330
2784E
100
AcDbEntity
  8
0
 48
50.0
100
AcDbBlockBegin
  2
*D42
 70
     1
 10
0.0
 20
0.0
 30
0.0
  3
*D42
  1

  0
LINE
  5
27DE3
330
2784E
100
AcDbEntity
  8
寸法
 62
     0
 48
50.0
370
    -2
100
AcDbLine
 10
4423.600000000007
 20
6734.93266544072
 30
0.0
 11
4423.600000000007
 21
7687.541482110969
 31
0.0
  0
LINE
  5
27DE4
330
2784E
100
AcDbEntity
  8
寸法
 62
     0
 48
50.0
370
    -2
100
AcDbLine
 10
3468.600000000001
 20
7164.93266544072
 30
0.0
 11
3468.600000000001
 21
7687.541482110969
 31
0.0
  0
LINE
  5
27DE5
330
2784E
100
AcDbEntity
  8
寸法
 62
     0
 48
50.0
370
    -2
100
AcDbLine
 10
4423.600000000007
 20
7627.541482110967
 30
0.0
 11
3468.600000000001
 21
7627.541482110967
 31
0.0
  0
INSERT
  5
27DE6
330
2784E
100
AcDbEntity
  8
寸法
 62
     0
 48
50.0
370
    -2
100
AcDbBlockReference
  2
_DOTSMALL
 10
4423.600000000007
 20
7627.541482110967
 30
0.0
 41
100.0
 42
100.0
 43
100.0
  0
INSERT
  5
27DE7
330
2784E
100
AcDbEntity
  8
寸法
 62
     0
 48
50.0
370
    -2
100
AcDbBlockReference
  2
_DOTSMALL
 10
3468.600000000001
 20
7627.541482110967
 30
0.0
 41
100.0
 42
100.0
 43
100.0
 50
180.0
  0
MTEXT
  5
27DE8
330
2784E
100
AcDbEntity
  8
寸法
 62
     7
 48
50.0
100
AcDbMText
 10
3946.100000000004
 20
7727.541482110968
 30
0.0
 40
120.0
 41
0.0
 71
     5
 72
     1
  1
\A1;955
  7
STYLE1
 73
     1
 44
1.0
1001
ACAD
1000
MTEXTBEGIN
1070
    73
1070
     1
1070
    44
1040
1.0
1070
    74
1070
     0
1000
MTEXTEND
  0
POINT
  5
27DE9
330
2784E
100
AcDbEntity
  8
DEFPOINTS
 62
     0
 48
50.0
100
AcDbPoint
 10
4423.600000000007
 20
6714.932665440719
 30
0.0
  0
POINT
  5
27DEA
330
2784E
100
AcDbEntity
  8
DEFPOINTS
 62
     0
 48
50.0
100
AcDbPoint
 10
3468.600000000001
 20
7144.93266544072
 30
0.0
  0
POINT
  5
27DEB
330
2784E
100
AcDbEntity
  8
DEFPOINTS
 62
     0
 48
50.0
100
AcDbPoint
 10
3468.600000000001
 20
7627.541482110967
 30
0.0
  0
ENDBLK
  5
27859
330
2784E
100
AcDbEntity
  8
0
 48
50.0
100
AcDbBlockEnd
  0
BLOCK
  5
2787C
330
27871
100
AcDbEntity
  8
0
 48
50.0
100
AcDbBlockBegin
  2
*D43
 70
     1
 10
0.0
 20
0.0
 30
0.0
  3
*D43
  1

  0
LINE
  5
27DD9
330
27871
100
AcDbEntity
  8
寸法
 62
     0
 48
50.0
370
    -2
100
AcDbLine
 10
4353.600000000008
 20
6664.932665440719
 30
0.0
 11
3891.285990614301
 21
6664.932665440719
 31
0.0
  0
LINE
  5
27DDA
330
27871
100
AcDbEntity
  8
寸法
 62
     0
 48
50.0
370
    -2
100
AcDbLine
 10
4022.765475140901
 20
7144.93266544072
 30
0.0
 11
3891.285990614301
 21
7144.93266544072
 31
0.0
  0
LINE
  5
27DDB
330
27871
100
AcDbEntity
  8
寸法
 62
     0
 48
50.0
370
    -2
100
AcDbLine
 10
3951.285990614302
 20
6664.932665440719
 30
0.0
 11
3951.285990614302
 21
7144.93266544072
 31
0.0
  0
LINE
  5
27DDC
330
27871
100
AcDbEntity
  8
寸法
 62
     0
 48
50.0
370
    -2
100
AcDbLine
 10
3951.285990614302
 20
7144.93266544072
 30
0.0
 11
3951.285990614302
 21
7591.538964653318
 31
0.0
  0
INSERT
  5
27DDD
330
27871
100
AcDbEntity
  8
寸法
 62
     0
 48
50.0
370
    -2
100
AcDbBlockReference
  2
_DOTSMALL
 10
3951.285990614302
 20
6664.932665440719
 30
0.0
 41
100.0
 42
100.0
 43
100.0
 50
270.0
  0
INSERT
  5
27DDE
330
27871
100
AcDbEntity
  8
寸法
 62
     0
 48
50.0
370
    -2
100
AcDbBlockReference
  2
_DOTSMALL
 10
3951.285990614302
 20
7144.93266544072
 30
0.0
 41
100.0
 42
100.0
 43
100.0
 50
90.0
  0
MTEXT
  5
27DDF
330
27871
100
AcDbEntity
  8
寸法
 62
     7
 48
50.0
100
AcDbMText
 10
3851.285990614301
 20
7437.49172055883
 30
0.0
 40
120.0
 41
0.0
 71
     5
 72
     1
  1
\A1;480
  7
STYLE1
 11
0.0000000000000001
 21
1.0
 31
0.0
 73
     1
 44
1.0
1001
ACAD
1000
MTEXTBEGIN
1070
    73
1070
     1
1070
    44
1040
1.0
1070
    74
1070
     0
1000
MTEXTEND
  0
POINT
  5
27DE0
330
27871
100
AcDbEntity
  8
DEFPOINTS
 62
     0
 48
50.0
100
AcDbPoint
 10
4373.600000000007
 20
6664.932665440719
 30
0.0
  0
POINT
  5
27DE1
330
27871
100
AcDbEntity
  8
DEFPOINTS
 62
     0
 48
50.0
100
AcDbPoint
 10
4042.765475140901
 20
7144.93266544072
 30
0.0
  0
POINT
  5
27DE2
330
27871
100
AcDbEntity
  8
DEFPOINTS
 62
     0
 48
50.0
100
AcDbPoint
 10
3951.285990614302
 20
7144.93266544072
 30
0.0
  0
ENDBLK
  5
2787D
330
27871
100
AcDbEntity
  8
0
 48
50.0
100
AcDbBlockEnd
  0
BLOCK
  5
27888
330
2787E
100
AcDbEntity
  8
0
 48
50.0
100
AcDbBlockBegin
  2
*D44
 70
     1
 10
0.0
 20
0.0
 30
0.0
  3
*D44
  1

  0
LINE
  5
27DD0
330
2787E
100
AcDbEntity
  8
寸法
 62
     0
 48
50.0
370
    -2
100
AcDbLine
 10
8105.6
 20
7091.93266544072
 30
0.0
 11
8105.6
 21
7931.199123534631
 31
0.0
  0
LINE
  5
27DD1
330
2787E
100
AcDbEntity
  8
寸法
 62
     0
 48
50.0
370
    -2
100
AcDbLine
 10
6205.6
 20
7091.93266544072
 30
0.0
 11
6205.6
 21
7931.199123534631
 31
0.0
  0
LINE
  5
27DD2
330
2787E
100
AcDbEntity
  8
寸法
 62
     0
 48
50.0
370
    -2
100
AcDbLine
 10
8105.6
 20
7871.19912353463
 30
0.0
 11
6205.6
 21
7871.19912353463
 31
0.0
  0
INSERT
  5
27DD3
330
2787E
100
AcDbEntity
  8
寸法
 62
     0
 48
50.0
370
    -2
100
AcDbBlockReference
  2
_DOTSMALL
 10
8105.6
 20
7871.19912353463
 30
0.0
 41
100.0
 42
100.0
 43
100.0
  0
INSERT
  5
27DD4
330
2787E
100
AcDbEntity
  8
寸法
 62
     0
 48
50.0
370
    -2
100
AcDbBlockReference
  2
_DOTSMALL
 10
6205.6
 20
7871.19912353463
 30
0.0
 41
100.0
 42
100.0
 43
100.0
 50
180.0
  0
MTEXT
  5
27DD5
330
2787E
100
AcDbEntity
  8
寸法
 62
     7
 48
50.0
100
AcDbMText
 10
7155.600000000001
 20
7971.19912353463
 30
0.0
 40
120.0
 41
0.0
 71
     5
 72
     1
  1
\A1;1900
  7
STYLE1
 73
     1
 44
1.0
1001
ACAD
1000
MTEXTBEGIN
1070
    73
1070
     1
1070
    44
1040
1.0
1070
    74
1070
     0
1000
MTEXTEND
  0
POINT
  5
27DD6
330
2787E
100
AcDbEntity
  8
DEFPOINTS
 62
     0
 48
50.0
100
AcDbPoint
 10
8105.6
 20
7071.932665440719
 30
0.0
  0
POINT
  5
27DD7
330
2787E
100
AcDbEntity
  8
DEFPOINTS
 62
     0
 48
50.0
100
AcDbPoint
 10
6205.6
 20
7071.932665440719
 30
0.0
  0
POINT
  5
27DD8
330
2787E
100
AcDbEntity
  8
DEFPOINTS
 62
     0
 48
50.0
100
AcDbPoint
 10
6205.6
 20
7871.19912353463
 30
0.0
  0
ENDBLK
  5
27889
330
2787E
100
AcDbEntity
  8
0
 48
50.0
100
AcDbBlockEnd
  0
BLOCK
  5
27894
330
2788A
100
AcDbEntity
  8
0
 48
50.0
100
AcDbBlockBegin
  2
*D45
 70
     1
 10
0.0
 20
0.0
 30
0.0
  3
*D45
  1

  0
LINE
  5
27DC7
330
2788A
100
AcDbEntity
  8
寸法
 62
     0
 48
50.0
370
    -2
100
AcDbLine
 10
7273.600000000008
 20
6734.93266544072
 30
0.0
 11
7273.600000000008
 21
7687.541482110969
 31
0.0
  0
LINE
  5
27DC8
330
2788A
100
AcDbEntity
  8
寸法
 62
     0
 48
50.0
370
    -2
100
AcDbLine
 10
6323.600000000007
 20
6734.93266544072
 30
0.0
 11
6323.600000000007
 21
7687.541482110969
 31
0.0
  0
LINE
  5
27DC9
330
2788A
100
AcDbEntity
  8
寸法
 62
     0
 48
50.0
370
    -2
100
AcDbLine
 10
7273.600000000008
 20
7627.541482110967
 30
0.0
 11
6323.600000000007
 21
7627.541482110967
 31
0.0
  0
INSERT
  5
27DCA
330
2788A
100
AcDbEntity
  8
寸法
 62
     0
 48
50.0
370
    -2
100
AcDbBlockReference
  2
_DOTSMALL
 10
7273.600000000008
 20
7627.541482110967
 30
0.0
 41
100.0
 42
100.0
 43
100.0
  0
INSERT
  5
27DCB
330
2788A
100
AcDbEntity
  8
寸法
 62
     0
 48
50.0
370
    -2
100
AcDbBlockReference
  2
_DOTSMALL
 10
6323.600000000007
 20
7627.541482110967
 30
0.0
 41
100.0
 42
100.0
 43
100.0
 50
180.0
  0
MTEXT
  5
27DCC
330
2788A
100
AcDbEntity
  8
寸法
 62
     7
 48
50.0
100
AcDbMText
 10
6798.600000000007
 20
7727.541482110968
 30
0.0
 40
120.0
 41
0.0
 71
     5
 72
     1
  1
\A1;950
  7
STYLE1
 73
     1
 44
1.0
1001
ACAD
1000
MTEXTBEGIN
1070
    73
1070
     1
1070
    44
1040
1.0
1070
    74
1070
     0
1000
MTEXTEND
  0
POINT
  5
27DCD
330
2788A
100
AcDbEntity
  8
DEFPOINTS
 62
     0
 48
50.0
100
AcDbPoint
 10
7273.600000000008
 20
6714.932665440719
 30
0.0
  0
POINT
  5
27DCE
330
2788A
100
AcDbEntity
  8
DEFPOINTS
 62
     0
 48
50.0
100
AcDbPoint
 10
6323.600000000007
 20
6714.932665440719
 30
0.0
  0
POINT
  5
27DCF
330
2788A
100
AcDbEntity
  8
DEFPOINTS
 62
     0
 48
50.0
100
AcDbPoint
 10
6323.600000000007
 20
7627.541482110967
 30
0.0
  0
ENDBLK
  5
27895
330
2788A
100
AcDbEntity
  8
0
 48
50.0
100
AcDbBlockEnd
  0
BLOCK
  5
2789F
330
27896
100
AcDbEntity
  8
0
 48
50.0
100
AcDbBlockBegin
  2
*D46
 70
     1
 10
0.0
 20
0.0
 30
0.0
  3
*D46
  1

  0
LINE
  5
27DBE
330
27896
100
AcDbEntity
  8
寸法
 62
     0
 48
50.0
370
    -2
100
AcDbLine
 10
6323.600000000007
 20
6734.93266544072
 30
0.0
 11
6323.600000000007
 21
7687.541482110969
 31
0.0
  0
LINE
  5
27DBF
330
27896
100
AcDbEntity
  8
寸法
 62
     0
 48
50.0
370
    -2
100
AcDbLine
 10
5373.600000000007
 20
6734.93266544072
 30
0.0
 11
5373.600000000007
 21
7687.541482110969
 31
0.0
  0
LINE
  5
27DC0
330
27896
100
AcDbEntity
  8
寸法
 62
     0
 48
50.0
370
    -2
100
AcDbLine
 10
6323.600000000007
 20
7627.541482110967
 30
0.0
 11
5373.600000000007
 21
7627.541482110967
 31
0.0
  0
INSERT
  5
27DC1
330
27896
100
AcDbEntity
  8
寸法
 62
     0
 48
50.0
370
    -2
100
AcDbBlockReference
  2
_DOTSMALL
 10
6323.600000000007
 20
7627.541482110967
 30
0.0
 41
100.0
 42
100.0
 43
100.0
  0
INSERT
  5
27DC2
330
27896
100
AcDbEntity
  8
寸法
 62
     0
 48
50.0
370
    -2
100
AcDbBlockReference
  2
_DOTSMALL
 10
5373.600000000007
 20
7627.541482110967
 30
0.0
 41
100.0
 42
100.0
 43
100.0
 50
180.0
  0
MTEXT
  5
27DC3
330
27896
100
AcDbEntity
  8
寸法
 62
     7
 48
50.0
100
AcDbMText
 10
5848.600000000008
 20
7727.541482110968
 30
0.0
 40
120.0
 41
0.0
 71
     5
 72
     1
  1
\A1;950
  7
STYLE1
 73
     1
 44
1.0
1001
ACAD
1000
MTEXTBEGIN
1070
    73
1070
     1
1070
    44
1040
1.0
1070
    74
1070
     0
1000
MTEXTEND
  0
POINT
  5
27DC4
330
27896
100
AcDbEntity
  8
DEFPOINTS
 62
     0
 48
50.0
100
AcDbPoint
 10
6323.600000000007
 20
6714.932665440719
 30
0.0
  0
POINT
  5
27DC5
330
27896
100
AcDbEntity
  8
DEFPOINTS
 62
     0
 48
50.0
100
AcDbPoint
 10
5373.600000000007
 20
6714.932665440719
 30
0.0
  0
POINT
  5
27DC6
330
27896
100
AcDbEntity
  8
DEFPOINTS
 62
     0
 48
50.0
100
AcDbPoint
 10
5373.600000000007
 20
7627.541482110967
 30
0.0
  0
ENDBLK
  5
278A0
330
27896
100
AcDbEntity
  8
0
 48
50.0
100
AcDbBlockEnd
  0
BLOCK
  5
278B8
330
278AE
100
AcDbEntity
  8
0
 48
50.0
100
AcDbBlockBegin
  2
*D47
 70
     1
 10
0.0
 20
0.0
 30
0.0
  3
*D47
  1

  0
LINE
  5
27DB5
330
278AE
100
AcDbEntity
  8
寸法
 62
     0
 48
50.0
370
    -2
100
AcDbLine
 10
8223.600000000008
 20
6734.93266544072
 30
0.0
 11
8223.600000000008
 21
7687.541482110969
 31
0.0
  0
LINE
  5
27DB6
330
278AE
100
AcDbEntity
  8
寸法
 62
     0
 48
50.0
370
    -2
100
AcDbLine
 10
7273.600000000008
 20
6734.93266544072
 30
0.0
 11
7273.600000000008
 21
7687.541482110969
 31
0.0
  0
LINE
  5
27DB7
330
278AE
100
AcDbEntity
  8
寸法
 62
     0
 48
50.0
370
    -2
100
AcDbLine
 10
8223.600000000008
 20
7627.541482110967
 30
0.0
 11
7273.600000000008
 21
7627.541482110967
 31
0.0
  0
INSERT
  5
27DB8
330
278AE
100
AcDbEntity
  8
寸法
 62
     0
 48
50.0
370
    -2
100
AcDbBlockReference
  2
_DOTSMALL
 10
8223.600000000008
 20
7627.541482110967
 30
0.0
 41
100.0
 42
100.0
 43
100.0
  0
INSERT
  5
27DB9
330
278AE
100
AcDbEntity
  8
寸法
 62
     0
 48
50.0
370
    -2
100
AcDbBlockReference
  2
_DOTSMALL
 10
7273.600000000008
 20
7627.541482110967
 30
0.0
 41
100.0
 42
100.0
 43
100.0
 50
180.0
  0
MTEXT
  5
27DBA
330
278AE
100
AcDbEntity
  8
寸法
 62
     7
 48
50.0
100
AcDbMText
 10
7748.600000000007
 20
7727.541482110968
 30
0.0
 40
120.0
 41
0.0
 71
     5
 72
     1
  1
\A1;950
  7
STYLE1
 73
     1
 44
1.0
1001
ACAD
1000
MTEXTBEGIN
1070
    73
1070
     1
1070
    44
1040
1.0
1070
    74
1070
     0
1000
MTEXTEND
  0
POINT
  5
27DBB
330
278AE
100
AcDbEntity
  8
DEFPOINTS
 62
     0
 48
50.0
100
AcDbPoint
 10
8223.600000000008
 20
6714.932665440719
 30
0.0
  0
POINT
  5
27DBC
330
278AE
100
AcDbEntity
  8
DEFPOINTS
 62
     0
 48
50.0
100
AcDbPoint
 10
7273.600000000008
 20
6714.932665440719
 30
0.0
  0
POINT
  5
27DBD
330
278AE
100
AcDbEntity
  8
DEFPOINTS
 62
     0
 48
50.0
100
AcDbPoint
 10
7273.600000000008
 20
7627.541482110967
 30
0.0
  0
ENDBLK
  5
278B9
330
278AE
100
AcDbEntity
  8
0
 48
50.0
100
AcDbBlockEnd
  0
BLOCK
  5
278C4
330
278BA
100
AcDbEntity
  8
0
 48
50.0
100
AcDbBlockBegin
  2
*D48
 70
     1
 10
0.0
 20
0.0
 30
0.0
  3
*D48
  1

  0
LINE
  5
27DAC
330
278BA
100
AcDbEntity
  8
寸法
 62
     0
 48
50.0
370
    -2
100
AcDbLine
 10
12855.6
 20
7091.93266544072
 30
0.0
 11
12855.6
 21
7931.199123534631
 31
0.0
  0
LINE
  5
27DAD
330
278BA
100
AcDbEntity
  8
寸法
 62
     0
 48
50.0
370
    -2
100
AcDbLine
 10
10005.6
 20
7091.93266544072
 30
0.0
 11
10005.6
 21
7931.199123534631
 31
0.0
  0
LINE
  5
27DAE
330
278BA
100
AcDbEntity
  8
寸法
 62
     0
 48
50.0
370
    -2
100
AcDbLine
 10
12855.6
 20
7871.19912353463
 30
0.0
 11
10005.6
 21
7871.19912353463
 31
0.0
  0
INSERT
  5
27DAF
330
278BA
100
AcDbEntity
  8
寸法
 62
     0
 48
50.0
370
    -2
100
AcDbBlockReference
  2
_DOTSMALL
 10
12855.6
 20
7871.19912353463
 30
0.0
 41
100.0
 42
100.0
 43
100.0
  0
INSERT
  5
27DB0
330
278BA
100
AcDbEntity
  8
寸法
 62
     0
 48
50.0
370
    -2
100
AcDbBlockReference
  2
_DOTSMALL
 10
10005.6
 20
7871.19912353463
 30
0.0
 41
100.0
 42
100.0
 43
100.0
 50
180.0
  0
MTEXT
  5
27DB1
330
278BA
100
AcDbEntity
  8
寸法
 62
     7
 48
50.0
100
AcDbMText
 10
11430.6
 20
7971.210934558252
 30
0.0
 40
120.0
 41
0.0
 71
     5
 72
     1
  1
\A1;2850
  7
STYLE1
 73
     1
 44
1.0
1001
ACAD
1000
MTEXTBEGIN
1070
    73
1070
     1
1070
    44
1040
1.0
1070
    74
1070
     0
1000
MTEXTEND
  0
POINT
  5
27DB2
330
278BA
100
AcDbEntity
  8
DEFPOINTS
 62
     0
 48
50.0
100
AcDbPoint
 10
12855.6
 20
7071.932665440719
 30
0.0
  0
POINT
  5
27DB3
330
278BA
100
AcDbEntity
  8
DEFPOINTS
 62
     0
 48
50.0
100
AcDbPoint
 10
10005.6
 20
7071.932665440719
 30
0.0
  0
POINT
  5
27DB4
330
278BA
100
AcDbEntity
  8
DEFPOINTS
 62
     0
 48
50.0
100
AcDbPoint
 10
10005.6
 20
7871.19912353463
 30
0.0
  0
ENDBLK
  5
278C5
330
278BA
100
AcDbEntity
  8
0
 48
50.0
100
AcDbBlockEnd
  0
BLOCK
  5
278D0
330
278C6
100
AcDbEntity
  8
0
 48
50.0
100
AcDbBlockBegin
  2
*D49
 70
     1
 10
0.0
 20
0.0
 30
0.0
  3
*D49
  1

  0
LINE
  5
27DA3
330
278C6
100
AcDbEntity
  8
寸法
 62
     0
 48
50.0
370
    -2
100
AcDbLine
 10
12023.6
 20
6734.93266544072
 30
0.0
 11
12023.6
 21
7687.541482110969
 31
0.0
  0
LINE
  5
27DA4
330
278C6
100
AcDbEntity
  8
寸法
 62
     0
 48
50.0
370
    -2
100
AcDbLine
 10
11073.60000000001
 20
6734.93266544072
 30
0.0
 11
11073.60000000001
 21
7687.541482110969
 31
0.0
  0
LINE
  5
27DA5
330
278C6
100
AcDbEntity
  8
寸法
 62
     0
 48
50.0
370
    -2
100
AcDbLine
 10
12023.6
 20
7627.541482110967
 30
0.0
 11
11073.60000000001
 21
7627.541482110967
 31
0.0
  0
INSERT
  5
27DA6
330
278C6
100
AcDbEntity
  8
寸法
 62
     0
 48
50.0
370
    -2
100
AcDbBlockReference
  2
_DOTSMALL
 10
12023.6
 20
7627.541482110967
 30
0.0
 41
100.0
 42
100.0
 43
100.0
  0
INSERT
  5
27DA7
330
278C6
100
AcDbEntity
  8
寸法
 62
     0
 48
50.0
370
    -2
100
AcDbBlockReference
  2
_DOTSMALL
 10
11073.60000000001
 20
7627.541482110967
 30
0.0
 41
100.0
 42
100.0
 43
100.0
 50
180.0
  0
MTEXT
  5
27DA8
330
278C6
100
AcDbEntity
  8
寸法
 62
     7
 48
50.0
100
AcDbMText
 10
11548.60000000001
 20
7727.541482110968
 30
0.0
 40
120.0
 41
0.0
 71
     5
 72
     1
  1
\A1;950
  7
STYLE1
 73
     1
 44
1.0
1001
ACAD
1000
MTEXTBEGIN
1070
    73
1070
     1
1070
    44
1040
1.0
1070
    74
1070
     0
1000
MTEXTEND
  0
POINT
  5
27DA9
330
278C6
100
AcDbEntity
  8
DEFPOINTS
 62
     0
 48
50.0
100
AcDbPoint
 10
12023.6
 20
6714.932665440719
 30
0.0
  0
POINT
  5
27DAA
330
278C6
100
AcDbEntity
  8
DEFPOINTS
 62
     0
 48
50.0
100
AcDbPoint
 10
11073.60000000001
 20
6714.932665440719
 30
0.0
  0
POINT
  5
27DAB
330
278C6
100
AcDbEntity
  8
DEFPOINTS
 62
     0
 48
50.0
100
AcDbPoint
 10
11073.60000000001
 20
7627.541482110967
 30
0.0
  0
ENDBLK
  5
278D1
330
278C6
100
AcDbEntity
  8
0
 48
50.0
100
AcDbBlockEnd
  0
BLOCK
  5
278DC
330
278D2
100
AcDbEntity
  8
0
 48
50.0
100
AcDbBlockBegin
  2
*D50
 70
     1
 10
0.0
 20
0.0
 30
0.0
  3
*D50
  1

  0
LINE
  5
27D9A
330
278D2
100
AcDbEntity
  8
寸法
 62
     0
 48
50.0
370
    -2
100
AcDbLine
 10
10123.60000000001
 20
6734.93266544072
 30
0.0
 11
10123.60000000001
 21
7687.541482110969
 31
0.0
  0
LINE
  5
27D9B
330
278D2
100
AcDbEntity
  8
寸法
 62
     0
 48
50.0
370
    -2
100
AcDbLine
 10
9173.600000000007
 20
6734.93266544072
 30
0.0
 11
9173.600000000007
 21
7687.541482110969
 31
0.0
  0
LINE
  5
27D9C
330
278D2
100
AcDbEntity
  8
寸法
 62
     0
 48
50.0
370
    -2
100
AcDbLine
 10
10123.60000000001
 20
7627.541482110967
 30
0.0
 11
9173.600000000007
 21
7627.541482110967
 31
0.0
  0
INSERT
  5
27D9D
330
278D2
100
AcDbEntity
  8
寸法
 62
     0
 48
50.0
370
    -2
100
AcDbBlockReference
  2
_DOTSMALL
 10
10123.60000000001
 20
7627.541482110967
 30
0.0
 41
100.0
 42
100.0
 43
100.0
  0
INSERT
  5
27D9E
330
278D2
100
AcDbEntity
  8
寸法
 62
     0
 48
50.0
370
    -2
100
AcDbBlockReference
  2
_DOTSMALL
 10
9173.600000000007
 20
7627.541482110967
 30
0.0
 41
100.0
 42
100.0
 43
100.0
 50
180.0
  0
MTEXT
  5
27D9F
330
278D2
100
AcDbEntity
  8
寸法
 62
     7
 48
50.0
100
AcDbMText
 10
9648.600000000008
 20
7727.541482110968
 30
0.0
 40
120.0
 41
0.0
 71
     5
 72
     1
  1
\A1;950
  7
STYLE1
 73
     1
 44
1.0
1001
ACAD
1000
MTEXTBEGIN
1070
    73
1070
     1
1070
    44
1040
1.0
1070
    74
1070
     0
1000
MTEXTEND
  0
POINT
  5
27DA0
330
278D2
100
AcDbEntity
  8
DEFPOINTS
 62
     0
 48
50.0
100
AcDbPoint
 10
10123.60000000001
 20
6714.932665440719
 30
0.0
  0
POINT
  5
27DA1
330
278D2
100
AcDbEntity
  8
DEFPOINTS
 62
     0
 48
50.0
100
AcDbPoint
 10
9173.600000000007
 20
6714.932665440719
 30
0.0
  0
POINT
  5
27DA2
330
278D2
100
AcDbEntity
  8
DEFPOINTS
 62
     0
 48
50.0
100
AcDbPoint
 10
9173.600000000007
 20
7627.541482110967
 30
0.0
  0
ENDBLK
  5
278DD
330
278D2
100
AcDbEntity
  8
0
 48
50.0
100
AcDbBlockEnd
  0
BLOCK
  5
278E7
330
278DE
100
AcDbEntity
  8
0
 48
50.0
100
AcDbBlockBegin
  2
*D51
 70
     1
 10
0.0
 20
0.0
 30
0.0
  3
*D51
  1

  0
LINE
  5
27D91
330
278DE
100
AcDbEntity
  8
寸法
 62
     0
 48
50.0
370
    -2
100
AcDbLine
 10
11073.60000000001
 20
6734.93266544072
 30
0.0
 11
11073.60000000001
 21
7687.541482110969
 31
0.0
  0
LINE
  5
27D92
330
278DE
100
AcDbEntity
  8
寸法
 62
     0
 48
50.0
370
    -2
100
AcDbLine
 10
10123.60000000001
 20
6734.93266544072
 30
0.0
 11
10123.60000000001
 21
7687.541482110969
 31
0.0
  0
LINE
  5
27D93
330
278DE
100
AcDbEntity
  8
寸法
 62
     0
 48
50.0
370
    -2
100
AcDbLine
 10
11073.60000000001
 20
7627.541482110967
 30
0.0
 11
10123.60000000001
 21
7627.541482110967
 31
0.0
  0
INSERT
  5
27D94
330
278DE
100
AcDbEntity
  8
寸法
 62
     0
 48
50.0
370
    -2
100
AcDbBlockReference
  2
_DOTSMALL
 10
11073.60000000001
 20
7627.541482110967
 30
0.0
 41
100.0
 42
100.0
 43
100.0
  0
INSERT
  5
27D95
330
278DE
100
AcDbEntity
  8
寸法
 62
     0
 48
50.0
370
    -2
100
AcDbBlockReference
  2
_DOTSMALL
 10
10123.60000000001
 20
7627.541482110967
 30
0.0
 41
100.0
 42
100.0
 43
100.0
 50
180.0
  0
MTEXT
  5
27D96
330
278DE
100
AcDbEntity
  8
寸法
 62
     7
 48
50.0
100
AcDbMText
 10
10598.60000000001
 20
7727.541482110968
 30
0.0
 40
120.0
 41
0.0
 71
     5
 72
     1
  1
\A1;950
  7
STYLE1
 73
     1
 44
1.0
1001
ACAD
1000
MTEXTBEGIN
1070
    73
1070
     1
1070
    44
1040
1.0
1070
    74
1070
     0
1000
MTEXTEND
  0
POINT
  5
27D97
330
278DE
100
AcDbEntity
  8
DEFPOINTS
 62
     0
 48
50.0
100
AcDbPoint
 10
11073.60000000001
 20
6714.932665440719
 30
0.0
  0
POINT
  5
27D98
330
278DE
100
AcDbEntity
  8
DEFPOINTS
 62
     0
 48
50.0
100
AcDbPoint
 10
10123.60000000001
 20
6714.932665440719
 30
0.0
  0
POINT
  5
27D99
330
278DE
100
AcDbEntity
  8
DEFPOINTS
 62
     0
 48
50.0
100
AcDbPoint
 10
10123.60000000001
 20
7627.541482110967
 30
0.0
  0
ENDBLK
  5
278E8
330
278DE
100
AcDbEntity
  8
0
 48
50.0
100
AcDbBlockEnd
  0
BLOCK
  5
278F4
330
278E9
100
AcDbEntity
  8
0
 48
50.0
100
AcDbBlockBegin
  2
*D52
 70
     1
 10
0.0
 20
0.0
 30
0.0
  3
*D52
  1

  0
LINE
  5
27D87
330
278E9
100
AcDbEntity
  8
寸法
 62
     0
 48
50.0
370
    -2
100
AcDbLine
 10
12978.6
 20
7164.93266544072
 30
0.0
 11
12978.6
 21
7931.199123534631
 31
0.0
  0
LINE
  5
27D88
330
278E9
100
AcDbEntity
  8
寸法
 62
     0
 48
50.0
370
    -2
100
AcDbLine
 10
12855.6
 20
7091.93266544072
 30
0.0
 11
12855.6
 21
7931.199123534631
 31
0.0
  0
LINE
  5
27D89
330
278E9
100
AcDbEntity
  8
寸法
 62
     0
 48
50.0
370
    -2
100
AcDbLine
 10
12855.6
 20
7871.19912353463
 30
0.0
 11
12978.6
 21
7871.19912353463
 31
0.0
  0
LINE
  5
27D8A
330
278E9
100
AcDbEntity
  8
寸法
 62
     0
 48
50.0
370
    -2
100
AcDbLine
 10
12978.6
 20
7871.19912353463
 30
0.0
 11
13390.19188309203
 21
7871.19912353463
 31
0.0
  0
INSERT
  5
27D8B
330
278E9
100
AcDbEntity
  8
寸法
 62
     0
 48
50.0
370
    -2
100
AcDbBlockReference
  2
_DOTSMALL
 10
12855.6
 20
7871.19912353463
 30
0.0
 41
100.0
 42
100.0
 43
100.0
 50
180.0
  0
INSERT
  5
27D8C
330
278E9
100
AcDbEntity
  8
寸法
 62
     0
 48
50.0
370
    -2
100
AcDbBlockReference
  2
_DOTSMALL
 10
12978.6
 20
7871.19912353463
 30
0.0
 41
100.0
 42
100.0
 43
100.0
  0
MTEXT
  5
27D8D
330
278E9
100
AcDbEntity
  8
寸法
 62
     7
 48
50.0
100
AcDbMText
 10
13251.7066017178
 20
7971.210934558252
 30
0.0
 40
120.0
 41
0.0
 71
     5
 72
     1
  1
\A1;123
  7
STYLE1
 73
     1
 44
1.0
1001
ACAD
1000
MTEXTBEGIN
1070
    73
1070
     1
1070
    44
1040
1.0
1070
    74
1070
     0
1000
MTEXTEND
  0
POINT
  5
27D8E
330
278E9
100
AcDbEntity
  8
DEFPOINTS
 62
     0
 48
50.0
100
AcDbPoint
 10
12978.6
 20
7144.93266544072
 30
0.0
  0
POINT
  5
27D8F
330
278E9
100
AcDbEntity
  8
DEFPOINTS
 62
     0
 48
50.0
100
AcDbPoint
 10
12855.6
 20
7071.932665440719
 30
0.0
  0
POINT
  5
27D90
330
278E9
100
AcDbEntity
  8
DEFPOINTS
 62
     0
 48
50.0
100
AcDbPoint
 10
12855.6
 20
7871.19912353463
 30
0.0
  0
ENDBLK
  5
278F5
330
278E9
100
AcDbEntity
  8
0
 48
50.0
100
AcDbBlockEnd
  0
BLOCK
  5
2790D
330
27903
100
AcDbEntity
  8
0
 48
50.0
100
AcDbBlockBegin
  2
*D53
 70
     1
 10
0.0
 20
0.0
 30
0.0
  3
*D53
  1

  0
LINE
  5
27D7E
330
27903
100
AcDbEntity
  8
寸法
 62
     0
 48
50.0
370
    -2
100
AcDbLine
 10
12978.6
 20
7164.93266544072
 30
0.0
 11
12978.6
 21
7687.541482110969
 31
0.0
  0
LINE
  5
27D7F
330
27903
100
AcDbEntity
  8
寸法
 62
     0
 48
50.0
370
    -2
100
AcDbLine
 10
12023.6
 20
6734.93266544072
 30
0.0
 11
12023.6
 21
7687.541482110969
 31
0.0
  0
LINE
  5
27D80
330
27903
100
AcDbEntity
  8
寸法
 62
     0
 48
50.0
370
    -2
100
AcDbLine
 10
12978.6
 20
7627.541482110967
 30
0.0
 11
12023.6
 21
7627.541482110967
 31
0.0
  0
INSERT
  5
27D81
330
27903
100
AcDbEntity
  8
寸法
 62
     0
 48
50.0
370
    -2
100
AcDbBlockReference
  2
_DOTSMALL
 10
12978.6
 20
7627.541482110967
 30
0.0
 41
100.0
 42
100.0
 43
100.0
  0
INSERT
  5
27D82
330
27903
100
AcDbEntity
  8
寸法
 62
     0
 48
50.0
370
    -2
100
AcDbBlockReference
  2
_DOTSMALL
 10
12023.6
 20
7627.541482110967
 30
0.0
 41
100.0
 42
100.0
 43
100.0
 50
180.0
  0
MTEXT
  5
27D83
330
27903
100
AcDbEntity
  8
寸法
 62
     7
 48
50.0
100
AcDbMText
 10
12501.1
 20
7727.541482110968
 30
0.0
 40
120.0
 41
0.0
 71
     5
 72
     1
  1
\A1;955
  7
STYLE1
 73
     1
 44
1.0
1001
ACAD
1000
MTEXTBEGIN
1070
    73
1070
     1
1070
    44
1040
1.0
1070
    74
1070
     0
1000
MTEXTEND
  0
POINT
  5
27D84
330
27903
100
AcDbEntity
  8
DEFPOINTS
 62
     0
 48
50.0
100
AcDbPoint
 10
12978.6
 20
7144.93266544072
 30
0.0
  0
POINT
  5
27D85
330
27903
100
AcDbEntity
  8
DEFPOINTS
 62
     0
 48
50.0
100
AcDbPoint
 10
12023.6
 20
6714.932665440719
 30
0.0
  0
POINT
  5
27D86
330
27903
100
AcDbEntity
  8
DEFPOINTS
 62
     0
 48
50.0
100
AcDbPoint
 10
12023.6
 20
7627.541482110967
 30
0.0
  0
ENDBLK
  5
2790E
330
27903
100
AcDbEntity
  8
0
 48
50.0
100
AcDbBlockEnd
  0
BLOCK
  5
28266
330
2825C
100
AcDbEntity
  8
0
 48
50.0
100
AcDbBlockBegin
  2
*D60
 70
     1
 10
0.0
 20
0.0
 30
0.0
  3
*D60
  1

  0
LINE
  5
282A6
330
2825C
100
AcDbEntity
  8
寸法
 62
     0
 48
50.0
370
    -2
100
AcDbLine
 10
6193.591127388844
 20
926.6979771859679
 30
0.0
 11
6193.591127388844
 21
476.2683391808077
 31
0.0
  0
LINE
  5
282A7
330
2825C
100
AcDbEntity
  8
寸法
 62
     0
 48
50.0
370
    -2
100
AcDbLine
 10
6641.591127388844
 20
926.6979771859679
 30
0.0
 11
6641.591127388844
 21
476.2683391808077
 31
0.0
  0
LINE
  5
282A8
330
2825C
100
AcDbEntity
  8
寸法
 62
     0
 48
50.0
370
    -2
100
AcDbLine
 10
6193.591127388844
 20
536.2683391808077
 30
0.0
 11
6641.591127388844
 21
536.2683391808077
 31
0.0
  0
INSERT
  5
282A9
330
2825C
100
AcDbEntity
  8
寸法
 62
     0
 48
50.0
370
    -2
100
AcDbBlockReference
  2
_DOTSMALL
 10
6193.591127388844
 20
536.2683391808077
 30
0.0
 41
100.0
 42
100.0
 43
100.0
 50
180.0
  0
INSERT
  5
282AA
330
2825C
100
AcDbEntity
  8
寸法
 62
     0
 48
50.0
370
    -2
100
AcDbBlockReference
  2
_DOTSMALL
 10
6641.591127388844
 20
536.2683391808077
 30
0.0
 41
100.0
 42
100.0
 43
100.0
  0
MTEXT
  5
282AB
330
2825C
100
AcDbEntity
  8
寸法
 62
     7
 48
50.0
100
AcDbMText
 10
6397.494368710621
 20
636.2683391808077
 30
0.0
 40
120.0
 41
0.0
 71
     5
 72
     1
  1
\A1;300
  7
STYLE1
 73
     1
 44
1.0
1001
ACAD
1000
MTEXTBEGIN
1070
    73
1070
     1
1070
    44
1040
1.0
1070
    74
1070
     0
1000
MTEXTEND
  0
POINT
  5
282AC
330
2825C
100
AcDbEntity
  8
DEFPOINTS
 62
     0
 48
50.0
100
AcDbPoint
 10
6193.591127388844
 20
946.6979771859678
 30
0.0
  0
POINT
  5
282AD
330
2825C
100
AcDbEntity
  8
DEFPOINTS
 62
     0
 48
50.0
100
AcDbPoint
 10
6641.591127388844
 20
946.6979771859678
 30
0.0
  0
POINT
  5
282AE
330
2825C
100
AcDbEntity
  8
DEFPOINTS
 62
     0
 48
50.0
100
AcDbPoint
 10
6641.591127388844
 20
536.2683391808077
 30
0.0
  0
ENDBLK
  5
28267
330
2825C
100
AcDbEntity
  8
0
 48
50.0
100
AcDbBlockEnd
  0
BLOCK
  5
28272
330
28268
100
AcDbEntity
  8
0
 48
50.0
100
AcDbBlockBegin
  2
*D61
 70
     1
 10
0.0
 20
0.0
 30
0.0
  3
*D61
  1

  0
LINE
  5
282AF
330
28268
100
AcDbEntity
  8
寸法
 62
     0
 48
50.0
370
    -2
100
AcDbLine
 10
6301.591127388844
 20
1858.697977185968
 30
0.0
 11
5526.553888827104
 21
1858.697977185968
 31
0.0
  0
LINE
  5
282B0
330
28268
100
AcDbEntity
  8
寸法
 62
     0
 48
50.0
370
    -2
100
AcDbLine
 10
6093.591127388847
 20
1074.697977185968
 30
0.0
 11
5526.553888827104
 21
1074.697977185968
 31
0.0
  0
LINE
  5
282B1
330
28268
100
AcDbEntity
  8
寸法
 62
     0
 48
50.0
370
    -2
100
AcDbLine
 10
5586.553888827104
 20
1858.697977185968
 30
0.0
 11
5586.553888827104
 21
1074.697977185968
 31
0.0
  0
INSERT
  5
282B2
330
28268
100
AcDbEntity
  8
寸法
 62
     0
 48
50.0
370
    -2
100
AcDbBlockReference
  2
_DOTSMALL
 10
5586.553888827104
 20
1858.697977185968
 30
0.0
 41
100.0
 42
100.0
 43
100.0
 50
90.0
  0
INSERT
  5
282B3
330
28268
100
AcDbEntity
  8
寸法
 62
     0
 48
50.0
370
    -2
100
AcDbBlockReference
  2
_DOTSMALL
 10
5586.553888827104
 20
1074.697977185968
 30
0.0
 41
100.0
 42
100.0
 43
100.0
 50
270.0
  0
MTEXT
  5
282B4
330
28268
100
AcDbEntity
  8
寸法
 62
     7
 48
50.0
100
AcDbMText
 10
5486.553888827104
 20
1446.238126841969
 30
0.0
 40
120.0
 41
0.0
 71
     5
 72
     1
  1
\A1;540
  7
STYLE1
 11
0.0000000000000001
 21
1.0
 31
0.0
 73
     1
 44
1.0
1001
ACAD
1000
MTEXTBEGIN
1070
    73
1070
     1
1070
    44
1040
1.0
1070
    74
1070
     0
1000
MTEXTEND
  0
POINT
  5
282B5
330
28268
100
AcDbEntity
  8
DEFPOINTS
 62
     0
 48
50.0
100
AcDbPoint
 10
6321.591127388844
 20
1858.697977185968
 30
0.0
  0
POINT
  5
282B6
330
28268
100
AcDbEntity
  8
DEFPOINTS
 62
     0
 48
50.0
100
AcDbPoint
 10
6113.591127388848
 20
1074.697977185968
 30
0.0
  0
POINT
  5
282B7
330
28268
100
AcDbEntity
  8
DEFPOINTS
 62
     0
 48
50.0
100
AcDbPoint
 10
5586.553888827104
 20
1074.697977185968
 30
0.0
  0
ENDBLK
  5
28273
330
28268
100
AcDbEntity
  8
0
 48
50.0
100
AcDbBlockEnd
  0
BLOCK
  5
2827E
330
28274
100
AcDbEntity
  8
0
 48
50.0
100
AcDbBlockBegin
  2
*D62
 70
     1
 10
0.0
 20
0.0
 30
0.0
  3
*D62
  1

  0
LINE
  5
282B8
330
28274
100
AcDbEntity
  8
寸法
 62
     0
 48
50.0
370
    -2
100
AcDbLine
 10
6173.591127388844
 20
1314.697977185968
 30
0.0
 11
5991.170813656385
 21
1314.697977185968
 31
0.0
  0
LINE
  5
282B9
330
28274
100
AcDbEntity
  8
寸法
 62
     0
 48
50.0
370
    -2
100
AcDbLine
 10
6093.591127388847
 20
1074.697977185968
 30
0.0
 11
5991.170813656385
 21
1074.697977185968
 31
0.0
  0
LINE
  5
282BA
330
28274
100
AcDbEntity
  8
寸法
 62
     0
 48
50.0
370
    -2
100
AcDbLine
 10
6051.170813656384
 20
1314.697977185968
 30
0.0
 11
6051.170813656384
 21
1074.697977185968
 31
0.0
  0
INSERT
  5
282BB
330
28274
100
AcDbEntity
  8
寸法
 62
     0
 48
50.0
370
    -2
100
AcDbBlockReference
  2
_DOTSMALL
 10
6051.170813656384
 20
1314.697977185968
 30
0.0
 41
100.0
 42
100.0
 43
100.0
 50
90.0
  0
INSERT
  5
282BC
330
28274
100
AcDbEntity
  8
寸法
 62
     0
 48
50.0
370
    -2
100
AcDbBlockReference
  2
_DOTSMALL
 10
6051.170813656384
 20
1074.697977185968
 30
0.0
 41
100.0
 42
100.0
 43
100.0
 50
270.0
  0
MTEXT
  5
282BD
330
28274
100
AcDbEntity
  8
寸法
 62
     7
 48
50.0
100
AcDbMText
 10
5951.170813656385
 20
1194.697977185969
 30
0.0
 40
120.0
 41
0.0
 71
     5
 72
     1
  1
\A1;150
  7
STYLE1
 11
0.0000000000000001
 21
1.0
 31
0.0
 73
     1
 44
1.0
1001
ACAD
1000
MTEXTBEGIN
1070
    73
1070
     1
1070
    44
1040
1.0
1070
    74
1070
     0
1000
MTEXTEND
  0
POINT
  5
282BE
330
28274
100
AcDbEntity
  8
DEFPOINTS
 62
     0
 48
50.0
100
AcDbPoint
 10
6193.591127388844
 20
1314.697977185968
 30
0.0
  0
POINT
  5
282BF
330
28274
100
AcDbEntity
  8
DEFPOINTS
 62
     0
 48
50.0
100
AcDbPoint
 10
6113.591127388848
 20
1074.697977185968
 30
0.0
  0
POINT
  5
282C0
330
28274
100
AcDbEntity
  8
DEFPOINTS
 62
     0
 48
50.0
100
AcDbPoint
 10
6051.170813656384
 20
1074.697977185968
 30
0.0
  0
ENDBLK
  5
2827F
330
28274
100
AcDbEntity
  8
0
 48
50.0
100
AcDbBlockEnd
  0
BLOCK
  5
2828C
330
28280
100
AcDbEntity
  8
0
 48
50.0
100
AcDbBlockBegin
  2
*D63
 70
     1
 10
0.0
 20
0.0
 30
0.0
  3
*D63
  1

  0
LINE
  5
282C1
330
28280
100
AcDbEntity
  8
寸法
 62
     0
 48
50.0
370
    -2
100
AcDbLine
 10
8268.430440566039
 20
1911.457977185969
 30
0.0
 11
9273.55370645391
 21
1911.457977185969
 31
0.0
  0
LINE
  5
282C2
330
28280
100
AcDbEntity
  8
寸法
 62
     0
 48
50.0
370
    -2
100
AcDbLine
 10
8455.630440566038
 20
1858.697977185968
 30
0.0
 11
9273.55370645391
 21
1858.697977185968
 31
0.0
  0
LINE
  5
282C3
330
28280
100
AcDbEntity
  8
寸法
 62
     0
 48
50.0
370
    -2
100
AcDbLine
 10
9213.553706453909
 20
1911.457977185969
 30
0.0
 11
9213.553706453909
 21
2011.457977185969
 31
0.0
  0
LINE
  5
282C4
330
28280
100
AcDbEntity
  8
寸法
 62
     0
 48
50.0
370
    -2
100
AcDbLine
 10
9213.553706453909
 20
1858.697977185968
 30
0.0
 11
9213.553706453909
 21
1126.680170343001
 31
0.0
  0
LINE
  5
282C5
330
28280
100
AcDbEntity
  8
寸法
 62
     0
 48
50.0
370
    -2
100
AcDbLine
 10
9213.553706453909
 20
1911.457977185969
 30
0.0
 11
9213.553706453909
 21
1858.697977185968
 31
0.0
  0
INSERT
  5
282C6
330
28280
100
AcDbEntity
  8
寸法
 62
     0
 48
50.0
370
    -2
100
AcDbBlockReference
  2
_DOTSMALL
 10
9213.553706453909
 20
1911.457977185969
 30
0.0
 41
100.0
 42
100.0
 43
100.0
 50
270.0
  0
INSERT
  5
282C7
330
28280
100
AcDbEntity
  8
寸法
 62
     0
 48
50.0
370
    -2
100
AcDbBlockReference
  2
_DOTSMALL
 10
9213.553706453909
 20
1858.697977185968
 30
0.0
 41
100.0
 42
100.0
 43
100.0
 50
90.0
  0
MTEXT
  5
282C8
330
28280
100
AcDbEntity
  8
寸法
 62
     7
 48
50.0
100
AcDbMText
 10
9113.541895430287
 20
1392.689073764485
 30
0.0
 40
120.0
 41
0.0
 71
     5
 72
     1
  1
\A1;20～25
  7
STYLE1
 11
0.0000000000000001
 21
1.0
 31
0.0
 73
     1
 44
1.0
1001
ACAD
1000
MTEXTBEGIN
1070
    73
1070
     1
1070
    44
1040
1.0
1070
    74
1070
     0
1000
MTEXTEND
  0
POINT
  5
282C9
330
28280
100
AcDbEntity
  8
DEFPOINTS
 62
     0
 48
50.0
100
AcDbPoint
 10
8248.430440566037
 20
1911.457977185969
 30
0.0
  0
POINT
  5
282CA
330
28280
100
AcDbEntity
  8
DEFPOINTS
 62
     0
 48
50.0
100
AcDbPoint
 10
8435.630440566038
 20
1858.697977185968
 30
0.0
  0
POINT
  5
282CB
330
28280
100
AcDbEntity
  8
DEFPOINTS
 62
     0
 48
50.0
100
AcDbPoint
 10
9213.553706453909
 20
1858.697977185968
 30
0.0
  0
ENDBLK
  5
2828D
330
28280
100
AcDbEntity
  8
0
 48
50.0
100
AcDbBlockEnd
  0
BLOCK
  5
28298
330
2828E
100
AcDbEntity
  8
0
 48
50.0
100
AcDbBlockBegin
  2
*D64
 70
     1
 10
0.0
 20
0.0
 30
0.0
  3
*D64
  1

  0
LINE
  5
282CC
330
2828E
100
AcDbEntity
  8
寸法
 62
     0
 48
50.0
370
    -2
100
AcDbLine
 10
8455.630440566038
 20
1858.697977185968
 30
0.0
 11
8997.499040334883
 21
1858.697977185968
 31
0.0
  0
LINE
  5
282CD
330
2828E
100
AcDbEntity
  8
寸法
 62
     0
 48
50.0
370
    -2
100
AcDbLine
 10
8455.630440566038
 20
1534.697977185967
 30
0.0
 11
8997.499040334883
 21
1534.697977185967
 31
0.0
  0
LINE
  5
282CE
330
2828E
100
AcDbEntity
  8
寸法
 62
     0
 48
50.0
370
    -2
100
AcDbLine
 10
8937.499040334882
 20
1858.697977185968
 30
0.0
 11
8937.499040334882
 21
1534.697977185967
 31
0.0
  0
INSERT
  5
282CF
330
2828E
100
AcDbEntity
  8
寸法
 62
     0
 48
50.0
370
    -2
100
AcDbBlockReference
  2
_DOTSMALL
 10
8937.499040334882
 20
1858.697977185968
 30
0.0
 41
100.0
 42
100.0
 43
100.0
 50
90.0
  0
INSERT
  5
282D0
330
2828E
100
AcDbEntity
  8
寸法
 62
     0
 48
50.0
370
    -2
100
AcDbBlockReference
  2
_DOTSMALL
 10
8937.499040334882
 20
1534.697977185967
 30
0.0
 41
100.0
 42
100.0
 43
100.0
 50
270.0
  0
MTEXT
  5
282D1
330
2828E
100
AcDbEntity
  8
寸法
 62
     7
 48
50.0
100
AcDbMText
 10
8837.499040334881
 20
1696.697977185969
 30
0.0
 40
120.0
 41
0.0
 71
     5
 72
     1
  1
\A1;180
  7
STYLE1
 11
0.0000000000000001
 21
1.0
 31
0.0
 73
     1
 44
1.0
1001
ACAD
1000
MTEXTBEGIN
1070
    73
1070
     1
1070
    44
1040
1.0
1070
    74
1070
     0
1000
MTEXTEND
  0
POINT
  5
282D2
330
2828E
100
AcDbEntity
  8
DEFPOINTS
 62
     0
 48
50.0
100
AcDbPoint
 10
8435.630440566038
 20
1858.697977185968
 30
0.0
  0
POINT
  5
282D3
330
2828E
100
AcDbEntity
  8
DEFPOINTS
 62
     0
 48
50.0
100
AcDbPoint
 10
8435.630440566038
 20
1534.697977185967
 30
0.0
  0
POINT
  5
282D4
330
2828E
100
AcDbEntity
  8
DEFPOINTS
 62
     0
 48
50.0
100
AcDbPoint
 10
8937.499040334882
 20
1534.697977185967
 30
0.0
  0
ENDBLK
  5
28299
330
2828E
100
AcDbEntity
  8
0
 48
50.0
100
AcDbBlockEnd
  0
BLOCK
  5
282A4
330
2829A
100
AcDbEntity
  8
0
 48
50.0
100
AcDbBlockBegin
  2
*D65
 70
     1
 10
0.0
 20
0.0
 30
0.0
  3
*D65
  1

  0
LINE
  5
282D5
330
2829A
100
AcDbEntity
  8
寸法
 62
     0
 48
50.0
370
    -2
100
AcDbLine
 10
6513.591127388844
 20
1878.697977185968
 30
0.0
 11
6513.591127388844
 21
2338.365785102348
 31
0.0
  0
LINE
  5
282D6
330
2829A
100
AcDbEntity
  8
寸法
 62
     0
 48
50.0
370
    -2
100
AcDbLine
 10
6321.591127388844
 20
1878.697977185968
 30
0.0
 11
6321.591127388844
 21
2338.365785102348
 31
0.0
  0
LINE
  5
282D7
330
2829A
100
AcDbEntity
  8
寸法
 62
     0
 48
50.0
370
    -2
100
AcDbLine
 10
6513.591127388844
 20
2278.365785102348
 30
0.0
 11
6321.591127388844
 21
2278.365785102348
 31
0.0
  0
INSERT
  5
282D8
330
2829A
100
AcDbEntity
  8
寸法
 62
     0
 48
50.0
370
    -2
100
AcDbBlockReference
  2
_DOTSMALL
 10
6513.591127388844
 20
2278.365785102348
 30
0.0
 41
100.0
 42
100.0
 43
100.0
  0
INSERT
  5
282D9
330
2829A
100
AcDbEntity
  8
寸法
 62
     0
 48
50.0
370
    -2
100
AcDbBlockReference
  2
_DOTSMALL
 10
6321.591127388844
 20
2278.365785102348
 30
0.0
 41
100.0
 42
100.0
 43
100.0
 50
180.0
  0
MTEXT
  5
282DA
330
2829A
100
AcDbEntity
  8
寸法
 62
     7
 48
50.0
100
AcDbMText
 10
6417.591127388845
 20
2578.401218173214
 30
0.0
 40
120.0
 41
0.0
 71
     5
 72
     1
  1
\A1;120\P200\P280
  7
STYLE1
 73
     1
 44
1.0
1001
ACAD
1000
MTEXTBEGIN
1070
    73
1070
     1
1070
    44
1040
1.0
1070
    74
1070
     0
1000
MTEXTEND
  0
POINT
  5
282DB
330
2829A
100
AcDbEntity
  8
DEFPOINTS
 62
     0
 48
50.0
100
AcDbPoint
 10
6513.591127388844
 20
1858.697977185968
 30
0.0
  0
POINT
  5
282DC
330
2829A
100
AcDbEntity
  8
DEFPOINTS
 62
     0
 48
50.0
100
AcDbPoint
 10
6321.591127388844
 20
1858.697977185968
 30
0.0
  0
POINT
  5
282DD
330
2829A
100
AcDbEntity
  8
DEFPOINTS
 62
     0
 48
50.0
100
AcDbPoint
 10
6321.591127388844
 20
2278.365785102348
 30
0.0
  0
ENDBLK
  5
282A5
330
2829A
100
AcDbEntity
  8
0
 48
50.0
100
AcDbBlockEnd
  0
ENDSEC
  0
SECTION
  2
ENTITIES
  0
MTEXT
  5
763F
330
747D
100
AcDbEntity
  8
0
100
AcDbMText
 10
302.846345836809
 20
280.1983726409901
 30
0.0
 40
3.5
 41
5.323721266742722
 71
     1
 72
     5
  1

  7
MSMINCHO
 73
     1
 44
1.0
1001
ACAD
1000
MTEXTBEGIN
1070
    73
1070
     1
1070
    44
1040
1.0
1070
    74
1070
     0
1000
MTEXTEND
  0
LINE
  5
10B57
330
747D
100
AcDbEntity
  8
補助
  6
PHANTOM
 62
   230
 48
50.0
100
AcDbLine
 10
139.9999999999995
 20
11409.6
 30
0.0
 11
16307.2
 21
11409.6
 31
0.0
  0
LINE
  5
10B59
330
747D
100
AcDbEntity
  8
仕様書枠
  6
Continuous
 48
50.0
100
AcDbLine
 10
13107.2
 20
1200.0
 30
0.0
 11
13107.2
 21
-0.0000000000000729
 31
0.0
  0
LINE
  5
10B5D
330
747D
100
AcDbEntity
  8
仕様書枠
 48
50.0
100
AcDbLine
 10
140.0
 20
0.0
 30
0.0
 11
16307.2
 21
-0.0000000000000909
 31
0.0
  0
LINE
  5
10B5E
330
747D
100
AcDbEntity
  8
補助
  6
PHANTOM
 62
   230
 48
50.0
100
AcDbLine
 10
16307.2
 20
11409.6
 30
0.0
 11
16307.2
 21
1200.0
 31
0.0
  0
LINE
  5
10B6C
330
747D
100
AcDbEntity
  8
仕様書枠
 48
50.0
100
AcDbLine
 10
13107.2
 20
1200.0
 30
0.0
 11
16307.2
 21
1200.0
 31
0.0
  0
TEXT
  5
10B73
330
747D
100
AcDbEntity
  8
文字
 62
     7
 48
50.0
100
AcDbText
 10
13162.9790565769
 20
895.0906074299405
 30
0.0
 40
200.0
  1
基 礎 図
  7
STYLE2
100
AcDbText
  0
LINE
  5
10B7B
330
747D
100
AcDbEntity
  8
仕様書枠
 48
50.0
100
AcDbLine
 10
13107.2
 20
800.0
 30
0.0
 11
14251.2
 21
800.0
 31
0.0
  0
LINE
  5
10B88
330
747D
100
AcDbEntity
  8
仕様書枠
  6
Continuous
 48
50.0
100
AcDbLine
 10
14251.2
 20
1200.0
 30
0.0
 11
14251.2
 21
800.0
 31
0.0
  0
LINE
  5
16462
330
747D
100
AcDbEntity
  8
仕様書枠
 48
50.0
100
AcDbLine
 10
16307.2
 20
1200.0
 30
0.0
 11
16307.2
 21
-0.0000000000000909
 31
0.0
  0
LINE
  5
1903B
330
747D
100
AcDbEntity
  8
補助
  6
PHANTOM
 62
   230
 48
50.0
100
AcDbLine
 10
140.0
 20
0.0
 30
0.0
 11
139.9999999999995
 21
11409.6
 31
0.0
  0
LEADER
  5
1AC27
330
747D
100
AcDbEntity
  8
寸法
 48
50.0
100
AcDbLeader
  3
INABA_S50G
 73
     0
 74
     0
 75
     1
 40
120.0
 41
720.0000000000001
 76
     3
 10
12980.05985718447
 20
6675.663435500545
 30
0.0
 10
13136.83343157075
 20
6414.649521932712
 30
0.0
 10
13261.83343157075
 20
6414.649521932712
 30
0.0
340
1AC28
1001
ACAD
1000
DSTYLE
1002
{
1070
   341
1005
0
1070
    40
1040
1.0
1070
   343
1005
0
1070
   344
1005
0
1002
}
  0
MTEXT
  5
1AC28
102
{ACAD_REACTORS
330
1AC27
102
}
330
747D
100
AcDbEntity
  8
部品1
 62
     7
 48
50.0
100
AcDbMText
 10
14006.83343157075
 20
6499.649521932713
 30
0.0
 40
120.0
 41
0.0
 71
     6
 72
     1
  1
\A1;床下換気口
  7
STYLE1
 73
     1
 44
1.0
1001
ACAD
1000
MTEXTBEGIN
1070
    73
1070
     1
1070
    44
1040
1.0
1070
    74
1070
     0
1000
MTEXTEND
  0
TEXT
  5
1AC29
330
747D
100
AcDbEntity
  8
部品1
 48
50.0
100
AcDbText
 10
13327.43013846118
 20
5734.105163153614
 30
0.0
 40
80.0
  1
(a=45,b=55,c=75)
  7
STYLE1
100
AcDbText
  0
TEXT
  5
1AC2A
330
747D
100
AcDbEntity
  8
部品1
 48
50.0
100
AcDbText
 10
13168.85112970687
 20
5840.950384022367
 30
0.0
 40
80.0
  1
※a,b,cは屋根の出幅です。
  7
STYLE1
100
AcDbText
  0
MTEXT
  5
1AC2B
102
{ACAD_REACTORS
330
1AC2C
102
}
330
747D
100
AcDbEntity
  8
部品1
 62
     7
 48
50.0
100
AcDbMText
 10
13966.63832569548
 20
6020.261070955442
 30
0.0
 40
120.0
 41
0.0
 71
     6
 72
     1
  1
\A1;屋根の外寸
  7
STYLE1
 73
     1
 44
1.0
1001
ACAD
1000
MTEXTBEGIN
1070
    73
1070
     1
1070
    44
1040
1.0
1070
    74
1070
     0
1000
MTEXTEND
  0
LEADER
  5
1AC2C
330
747D
100
AcDbEntity
  8
寸法
 48
50.0
100
AcDbLeader
  3
INABA_S50G
 73
     0
 74
     0
 75
     1
 40
120.0
 41
672.0
 76
     3
 10
13028.69831350344
 20
6194.150414419018
 30
0.0
 10
13144.63832569548
 20
5935.261070955442
 30
0.0
 10
13269.63832569548
 20
5935.261070955442
 30
0.0
340
1AC2B
1001
ACAD
1000
DSTYLE
1002
{
1070
   341
1005
0
1070
    40
1040
1.0
1070
   343
1005
0
1070
   344
1005
0
1002
}
  0
TEXT
  5
1C7A1
330
747D
100
AcDbEntity
  8
文字
 62
     7
 48
50.0
100
AcDbText
 10
13188.16259899338
 20
79.80631269190417
 30
0.0
 40
80.0
  1
※布基礎には換気口を設けてください。
  7
STYLE2
100
AcDbText
  0
TEXT
  5
1C7E7
330
747D
100
AcDbEntity
  8
文字
 62
     7
 48
50.0
100
AcDbText
 10
13188.16259899338
 20
246.7109242801889
 30
0.0
 40
80.0
  1
※寒冷地等は地域の実情に合わせた基礎にして下さい。
  7
STYLE2
100
AcDbText
  0
TEXT
  5
1C7E8
330
747D
100
AcDbEntity
  8
文字
 62
     7
 48
50.0
100
AcDbText
 10
14167.86436006761
 20
499.5983841039506
 30
0.0
 40
160.0
  1
ＮＸＮ－０９ＤＬ－１０
  7
STYLE2
100
AcDbText
  0
TEXT
  5
1C7EC
330
747D
100
AcDbEntity
  8
文字
 62
     7
 48
50.0
100
AcDbText
 10
14524.131837222
 20
1031.557706291229
 30
0.0
 40
100.0
  1
<縮尺> S=1/40
  7
STYLE2
100
AcDbText
  0
TEXT
  5
1C7ED
330
747D
100
AcDbEntity
  8
文字
 62
     7
 48
50.0
100
AcDbText
 10
13201.43669998441
 20
477.2740661031257
 30
0.0
 40
160.0
  1
機種名
  7
STYLE2
100
AcDbText
  0
LINE
  5
1C7EF
330
747D
100
AcDbEntity
  8
文字
 62
     7
 48
50.0
100
AcDbLine
 10
13187.2
 20
400.0
 30
0.0
 11
16227.2
 21
400.0
 31
0.0
  0
MTEXT
  5
1D2D5
102
{ACAD_REACTORS
330
1D2D6
102
}
330
747D
100
AcDbEntity
  8
部品1
 62
     7
 48
50.0
100
AcDbMText
 10
14173.99523070988
 20
7460.545409683245
 30
0.0
 40
120.0
 41
0.0
 71
     6
 72
     1
  1
アンカーボルト
  7
STYLE1
 73
     1
 44
1.0
1001
ACAD
1000
MTEXTBEGIN
1070
    73
1070
     1
1070
    44
1040
1.0
1070
    74
1070
     0
1000
MTEXTEND
  0
LEADER
  5
1D2D6
330
747D
100
AcDbEntity
  8
寸法
 48
50.0
100
AcDbLeader
  3
INABA_S50G
 73
     0
 74
     0
 75
     1
 40
120.0
 41
994.3492424049171
 76
     3
 10
12855.68008575701
 20
7022.140509799448
 30
0.0
 10
13029.64598830496
 20
7375.545409683245
 30
0.0
 10
13154.64598830496
 20
7375.545409683245
 30
0.0
340
1D2D5
1001
ACAD
1000
DSTYLE
1002
{
1070
   341
1005
0
1070
    40
1040
1.0
1070
   343
1005
0
1070
   344
1005
0
1002
}
  0
MTEXT
  5
1D332
102
{ACAD_REACTORS
330
1D333
102
}
330
747D
100
AcDbEntity
  8
部品1
 62
     7
 48
50.0
100
AcDbMText
 10
12538.8286970157
 20
6592.720062476137
 30
0.0
 40
120.0
 41
0.0
 71
     6
 72
     1
  1
CB
  7
STYLE1
 73
     1
 44
1.0
1001
ACAD
1000
MTEXTBEGIN
1070
    73
1070
     1
1070
    44
1040
1.0
1070
    74
1070
     0
1000
MTEXTEND
  0
LEADER
  5
1D333
330
747D
100
AcDbEntity
  8
寸法
 48
50.0
100
AcDbLeader
  3
INABA_S50G
 73
     0
 74
     0
 75
     1
 40
120.0
 41
149.591883092037
 76
     3
 10
12111.95401106102
 20
6730.438376030962
 30
0.0
 10
12239.23681392366
 20
6507.720062476136
 30
0.0
 10
12364.23681392366
 20
6507.720062476136
 30
0.0
340
1D332
1001
ACAD
1000
DSTYLE
1002
{
1070
   341
1005
0
1070
    40
1040
1.0
1070
   343
1005
0
1070
   344
1005
0
1002
}
  0
DIMENSION
  5
20DE1
330
747D
100
AcDbEntity
  8
寸法
 48
50.0
100
AcDbDimension
  2
*D19
 10
13023.6
 20
8103.152987499656
 30
0.0
 11
13294.77462120246
 21
8103.152987499656
 31
0.0
 70
   160
  1
a
 71
     5
 42
45.0
  3
INABA_S40G
100
AcDbAlignedDimension
 13
12978.6
 23
7144.932665440736
 33
0.0
 14
13023.6
 24
7871.199123534648
 34
0.0
100
AcDbRotatedDimension
1001
ACAD
1000
DSTYLE
1002
{
1070
   341
1005
0
1002
}
  0
DIMENSION
  5
20DFB
330
747D
100
AcDbEntity
  8
寸法
 48
50.0
100
AcDbDimension
  2
*D20
 10
3468.600000000004
 20
8103.152987499637
 30
0.0
 11
3152.425378797545
 21
8103.152987499637
 31
0.0
 70
   160
  1
a
 71
     5
 42
45.0
  3
INABA_S40G
100
AcDbAlignedDimension
 13
3423.600000000004
 23
7871.199123534627
 33
0.0
 14
3468.600000000004
 24
7144.932665440716
 34
0.0
100
AcDbRotatedDimension
1001
ACAD
1000
DSTYLE
1002
{
1070
   341
1005
0
1002
}
  0
LINE
  5
22711
330
747D
100
AcDbEntity
  8
想像線
 48
10.0
100
AcDbLine
 10
13023.6
 20
7219.932665440738
 30
0.0
 11
3423.600000000004
 21
7219.932665440755
 31
0.0
  0
LINE
  5
22712
330
747D
100
AcDbEntity
  8
想像線
 48
10.0
100
AcDbLine
 10
3423.599999999997
 20
6129.932665440728
 30
0.0
 11
3423.600000000004
 21
7219.932665440722
 31
0.0
  0
LINE
  5
22713
330
747D
100
AcDbEntity
  8
想像線
 48
10.0
100
AcDbLine
 10
13023.6
 20
6129.932665440752
 30
0.0
 11
13023.6
 21
7219.932665440738
 31
0.0
  0
LINE
  5
22714
330
747D
100
AcDbEntity
  8
想像線
 48
10.0
100
AcDbLine
 10
13023.6
 20
6129.932665440752
 30
0.0
 11
3423.599999999997
 21
6129.932665440734
 31
0.0
  0
DIMENSION
  5
22741
330
747D
100
AcDbEntity
  8
寸法
 48
50.0
100
AcDbDimension
  2
*D25
 10
2593.721909610673
 20
7144.932665440716
 30
0.0
 11
2493.721909610672
 21
7182.43266544072
 31
0.0
 70
    32
  1
c
 71
     5
 42
75.00000000000636
  3
INABA_S40G
100
AcDbAlignedDimension
 13
2845.665006330064
 23
7219.932665440722
 33
0.0
 14
3468.600000000004
 24
7144.932665440716
 34
0.0
 50
90.0
100
AcDbRotatedDimension
1001
ACAD
1000
DSTYLE
1002
{
1070
   341
1005
0
1002
}
  0
DIMENSION
  5
2275B
330
747D
100
AcDbEntity
  8
寸法
 48
50.0
100
AcDbDimension
  2
*D26
 10
2593.721909610673
 20
6129.932665440741
 30
0.0
 11
2493.721909610672
 21
6157.43266544073
 31
0.0
 70
    32
  1
b
 71
     5
 42
54.99999999997453
  3
INABA_S40G
100
AcDbAlignedDimension
 13
3468.600000000004
 23
6184.932665440715
 33
0.0
 14
2845.665006330071
 24
6129.932665440741
 34
0.0
 50
90.0
100
AcDbRotatedDimension
1001
ACAD
1000
DSTYLE
1002
{
1070
   341
1005
0
1002
}
  0
DIMENSION
  5
23978
330
747D
100
AcDbEntity
  8
寸法
 48
50.0
100
AcDbDimension
  2
*D27
 10
12323.95750108246
 20
6944.932665440726
 30
0.0
 11
12323.95750108246
 21
7394.503531582461
 31
0.0
 70
   160
 71
     5
 42
200.0
  3
INABA_S40G
100
AcDbAlignedDimension
 13
12523.85468201165
 23
7144.932665440726
 33
0.0
 14
12523.85468201165
 24
6944.932665440726
 34
0.0
 50
90.0
100
AcDbRotatedDimension
1001
ACAD
1000
DSTYLE
1002
{
1070
   341
1005
0
1002
}
  0
DIMENSION
  5
23980
330
747D
100
AcDbEntity
  8
寸法
 48
50.0
100
AcDbDimension
  2
*D28
 10
12323.95750108246
 20
6184.932665440745
 30
0.0
 11
12323.95750108246
 21
5935.361799299013
 31
0.0
 70
   160
 71
     5
 42
280.0000000000073
  3
INABA_S40G
100
AcDbAlignedDimension
 13
12606.63847577294
 23
6464.932665440753
 33
0.0
 14
12598.60000000001
 24
6184.932665440745
 34
0.0
 50
90.0
100
AcDbRotatedDimension
1001
ACAD
1000
DSTYLE
1002
{
1070
   341
1005
0
1002
}
  0
DIMENSION
  5
239DB
330
747D
100
AcDbEntity
  8
寸法
 48
50.0
100
AcDbDimension
  2
*D29
 10
12858.6
 20
6864.620507470123
 30
0.0
 11
13248.65905511811
 21
6864.620507470123
 31
0.0
 70
   160
 71
     5
 42
119.9999999999981
  3
INABA_S40G
100
AcDbAlignedDimension
 13
12978.6
 23
6881.613771508956
 33
0.0
 14
12858.6
 24
6864.620507470123
 34
0.0
100
AcDbRotatedDimension
1001
ACAD
1000
DSTYLE
1002
{
1070
   341
1005
0
1002
}
  0
LINE
  5
27616
330
747D
100
AcDbEntity
  8
部品1
 48
50.0
100
AcDbLine
 10
12858.6
 20
6944.93266544072
 30
0.0
 11
3588.599999999998
 21
6944.932665440717
 31
0.0
  0
DIMENSION
  5
27617
330
747D
100
AcDbEntity
  8
寸法
 48
50.0
100
AcDbDimension
  2
*D30
 10
8105.6
 20
7871.19912353463
 30
0.0
 11
9055.600000000001
 21
7971.19912353463
 31
0.0
 70
    32
 71
     5
 42
1900.0
  3
INABA_S40G
100
AcDbAlignedDimension
 13
10005.6
 23
7071.932665440719
 33
0.0
 14
8105.6
 24
7071.932665440719
 34
0.0
100
AcDbRotatedDimension
1001
ACAD
1000
DSTYLE
1002
{
1070
   341
1005
0
1002
}
  0
DIMENSION
  5
27618
330
747D
100
AcDbEntity
  8
寸法
 48
50.0
100
AcDbDimension
  2
*D31
 10
8223.600000000008
 20
7627.541482110967
 30
0.0
 11
8698.600000000007
 21
7727.541482110968
 31
0.0
 70
    32
 71
     5
 42
950.0
  3
INABA_S40G
100
AcDbAlignedDimension
 13
9173.600000000007
 23
6714.932665440719
 33
0.0
 14
8223.600000000008
 24
6714.932665440719
 34
0.0
100
AcDbRotatedDimension
1001
ACAD
1000
DSTYLE
1002
{
1070
   341
1005
0
1002
}
  0
DIMENSION
  5
27619
330
747D
100
AcDbEntity
  8
寸法
 48
50.0
100
AcDbDimension
  2
*D32
 10
12978.6
 20
8103.152987499639
 30
0.0
 11
8223.600000000001
 21
8203.152987499638
 31
0.0
 70
    32
 71
     5
 42
9510.0
  3
INABA_S40G
100
AcDbAlignedDimension
 13
3468.600000000001
 23
7144.93266544072
 33
0.0
 14
12978.6
 24
7144.93266544072
 34
0.0
100
AcDbRotatedDimension
1001
ACAD
1000
DSTYLE
1002
{
1070
   341
1005
0
1002
}
  0
LINE
  5
2761B
330
747D
100
AcDbEntity
  8
部品1
 48
50.0
100
AcDbLine
 10
12978.6
 20
7144.93266544072
 30
0.0
 11
3468.600000000001
 21
7144.93266544072
 31
0.0
  0
LINE
  5
2761D
330
747D
100
AcDbEntity
  8
部品1
 48
50.0
100
AcDbLine
 10
12978.6
 20
6184.932665440754
 30
0.0
 11
3468.599999999997
 21
6184.932665440715
 31
0.0
  0
DIMENSION
  5
2761E
330
747D
100
AcDbEntity
  8
寸法
 48
50.0
100
AcDbDimension
  2
*D33
 10
3951.285990614302
 20
6664.932665440719
 30
0.0
 11
3951.285990614301
 21
5892.373610322619
 31
0.0
 70
   160
 71
     5
 42
479.999999999989
  3
INABA_S40G
100
AcDbAlignedDimension
 13
4042.765475140901
 23
6184.93266544073
 33
0.0
 14
4373.600000000007
 24
6664.932665440719
 34
0.0
 50
90.0
100
AcDbRotatedDimension
1001
ACAD
1000
DSTYLE
1002
{
1070
   341
1005
0
1002
}
  0
LINE
  5
27620
330
747D
100
AcDbEntity
  8
部品1
 48
50.0
100
AcDbLine
 10
3468.600000000001
 20
6184.93266544072
 30
0.0
 11
3468.600000000001
 21
7144.93266544072
 31
0.0
  0
DIMENSION
  5
27622
330
747D
100
AcDbEntity
  8
寸法
 48
50.0
100
AcDbDimension
  2
*D34
 10
2845.665006330072
 20
6382.932665440723
 30
0.0
 11
2845.665006330071
 21
6702.432665440719
 31
0.0
 70
   160
 71
     5
 42
638.9999999999964
  3
INABA_S40G
100
AcDbAlignedDimension
 13
3541.600000000001
 23
7021.932665440719
 33
0.0
 14
3541.600000000008
 24
6382.932665440723
 34
0.0
 50
90.0
100
AcDbRotatedDimension
1001
ACAD
1000
DSTYLE
1002
{
1070
   341
1005
0
1002
}
  0
DIMENSION
  5
27623
330
747D
100
AcDbEntity
  8
寸法
 48
50.0
100
AcDbDimension
  2
*D35
 10
2593.721909610674
 20
6184.93266544072
 30
0.0
 11
2593.721909610673
 21
6702.432665440719
 31
0.0
 70
   160
 71
     5
 42
960.0
  3
INABA_S40G
100
AcDbAlignedDimension
 13
3468.600000000001
 23
7144.93266544072
 33
0.0
 14
3468.600000000001
 24
6184.93266544072
 34
0.0
 50
90.0
100
AcDbRotatedDimension
1001
ACAD
1000
DSTYLE
1002
{
1070
   341
1005
0
1002
}
  0
ARC
  5
27624
330
747D
100
AcDbEntity
  8
想像線
 48
5.0
100
AcDbCircle
 10
4238.600000000004
 20
6184.932665440723
 30
0.0
 40
720.0
100
AcDbArc
 50
180.0
 51
270.0
  0
DIMENSION
  5
27625
330
747D
100
AcDbEntity
  8
寸法
 48
50.0
100
AcDbDimension
  2
*D36
 10
3355.512673767883
 20
5464.932665440716
 30
0.0
 11
3355.512673767882
 21
5824.932665440717
 31
0.0
 70
   160
  1
扉の出<>
 71
     5
 42
720.0
  3
INABA_S40G
100
AcDbAlignedDimension
 13
3468.600000000004
 23
6184.932665440715
 33
0.0
 14
3824.325326928809
 24
5464.932665440716
 34
0.0
 50
90.0
100
AcDbRotatedDimension
1001
ACAD
1000
DSTYLE
1002
{
1070
   341
1005
0
1002
}
  0
DIMENSION
  5
27626
330
747D
100
AcDbEntity
  8
寸法
 48
50.0
100
AcDbDimension
  2
*D37
 10
2845.665006330072
 20
6184.93266544072
 30
0.0
 11
2845.665006330071
 21
5849.401716598127
 31
0.0
 70
   160
 71
     5
 42
198.0000000000036
  3
INABA_S40G
100
AcDbAlignedDimension
 13
3541.600000000008
 23
6382.932665440723
 33
0.0
 14
3468.600000000001
 24
6184.93266544072
 34
0.0
 50
90.0
100
AcDbRotatedDimension
1001
ACAD
1000
DSTYLE
1002
{
1070
   341
1005
0
1002
}
  0
LINE
  5
27628
330
747D
100
AcDbEntity
  8
想像線
 48
5.0
100
AcDbLine
 10
4238.600000000004
 20
6184.932665440734
 30
0.0
 11
4238.600000000004
 21
5464.932665440723
 31
0.0
  0
LINE
  5
27629
330
747D
100
AcDbEntity
  8
細線
 48
50.0
100
AcDbLine
 10
3848.599999999998
 20
6318.535984123672
 30
0.0
 11
3994.996681317031
 21
6464.932665440719
 31
0.0
  0
LINE
  5
2762A
330
747D
100
AcDbEntity
  8
細線
 48
50.0
100
AcDbLine
 10
3848.599999999997
 20
6273.634703518328
 30
0.0
 11
4039.897961922389
 21
6464.932665440717
 31
0.0
  0
LINE
  5
2762B
330
747D
100
AcDbEntity
  8
細線
 48
50.0
100
AcDbLine
 10
3848.599999999998
 20
6228.733422912983
 30
0.0
 11
4048.599999999995
 21
6428.733422912976
 31
0.0
  0
LINE
  5
2762C
330
747D
100
AcDbEntity
  8
細線
 48
50.0
100
AcDbLine
 10
3849.700523133073
 20
6184.932665440708
 30
0.0
 11
4048.599999999996
 21
6383.832142307634
 31
0.0
  0
LINE
  5
2762D
330
747D
100
AcDbEntity
  8
細線
 48
50.0
100
AcDbLine
 10
3894.601803738416
 20
6184.932665440711
 30
0.0
 11
4048.599999999996
 21
6338.930861702289
 31
0.0
  0
LINE
  5
2762E
330
747D
100
AcDbEntity
  8
部品1
 48
50.0
100
AcDbLine
 10
3848.599999999994
 20
6464.932665440717
 30
0.0
 11
3848.599999999998
 21
6184.932665440708
 31
0.0
  0
LINE
  5
2762F
330
747D
100
AcDbEntity
  8
センター
 48
2.0
100
AcDbLine
 10
3591.600000000008
 20
6432.932665440723
 30
0.0
 11
3591.600000000008
 21
6332.932665440723
 31
0.0
  0
LINE
  5
27630
330
747D
100
AcDbEntity
  8
センター
 48
2.0
100
AcDbLine
 10
3541.600000000008
 20
6382.932665440723
 30
0.0
 11
3641.600000000007
 21
6382.932665440723
 31
0.0
  0
CIRCLE
  5
27631
330
747D
100
AcDbEntity
  8
部品1
 48
50.0
100
AcDbCircle
 10
3591.599999999993
 20
6382.932665440723
 30
0.0
 40
35.0
  0
LINE
  5
27632
330
747D
100
AcDbEntity
  8
細線
 48
50.0
100
AcDbLine
 10
3848.599999999997
 20
6363.437264729022
 30
0.0
 11
3950.09540071169
 21
6464.932665440719
 31
0.0
  0
LINE
  5
27633
330
747D
100
AcDbEntity
  8
細線
 48
50.0
100
AcDbLine
 10
3848.599999999995
 20
6408.338545334363
 30
0.0
 11
3905.194120106338
 21
6464.932665440717
 31
0.0
  0
LINE
  5
27634
330
747D
100
AcDbEntity
  8
部品1
 48
50.0
100
AcDbLine
 10
4048.599999999993
 20
6464.932665440719
 30
0.0
 11
4048.599999999998
 21
6184.932665440712
 31
0.0
  0
LINE
  5
27635
330
747D
100
AcDbEntity
  8
細線
 48
50.0
100
AcDbLine
 10
3939.503084343765
 20
6184.932665440711
 30
0.0
 11
4048.599999999998
 21
6294.029581096946
 31
0.0
  0
LINE
  5
27636
330
747D
100
AcDbEntity
  8
細線
 48
50.0
100
AcDbLine
 10
3984.404364949114
 20
6184.932665440712
 30
0.0
 11
4048.6
 21
6249.128300491601
 31
0.0
  0
LINE
  5
27637
330
747D
100
AcDbEntity
  8
細線
 48
50.0
100
AcDbLine
 10
4029.305645554457
 20
6184.932665440714
 30
0.0
 11
4048.6
 21
6204.227019886255
 31
0.0
  0
CIRCLE
  5
27657
330
747D
100
AcDbEntity
  8
部品1
 48
50.0
100
AcDbCircle
 10
6205.600000000007
 20
6382.932665440723
 30
0.0
 40
35.0
  0
LINE
  5
27658
330
747D
100
AcDbEntity
  8
センター
 48
2.0
100
AcDbLine
 10
6155.600000000007
 20
6382.932665440723
 30
0.0
 11
6255.600000000008
 21
6382.932665440723
 31
0.0
  0
LINE
  5
27659
330
747D
100
AcDbEntity
  8
センター
 48
2.0
100
AcDbLine
 10
6205.600000000007
 20
6432.932665440723
 30
0.0
 11
6205.600000000007
 21
6332.932665440723
 31
0.0
  0
TEXT
  5
2766C
330
747D
100
AcDbEntity
  8
寸法
 48
50.0
100
AcDbText
 10
8228.709632063816
 20
6203.613956233457
 30
0.0
 40
120.0
  1
扉面
  7
STYLE1
100
AcDbText
  0
CIRCLE
  5
2766D
330
747D
100
AcDbEntity
  8
部品1
 48
50.0
100
AcDbCircle
 10
8105.600000000007
 20
6382.932665440723
 30
0.0
 40
35.0
  0
CIRCLE
  5
2766E
330
747D
100
AcDbEntity
  8
部品1
 48
50.0
100
AcDbCircle
 10
8105.600000000007
 20
6382.932665440723
 30
0.0
 40
35.0
  0
LINE
  5
2766F
330
747D
100
AcDbEntity
  8
センター
 48
2.0
100
AcDbLine
 10
8055.600000000008
 20
6382.932665440723
 30
0.0
 11
8155.600000000008
 21
6382.932665440723
 31
0.0
  0
LINE
  5
27670
330
747D
100
AcDbEntity
  8
センター
 48
2.0
100
AcDbLine
 10
8055.600000000008
 20
6382.932665440723
 30
0.0
 11
8155.600000000008
 21
6382.932665440723
 31
0.0
  0
LINE
  5
27671
330
747D
100
AcDbEntity
  8
センター
 48
2.0
100
AcDbLine
 10
8105.600000000007
 20
6432.932665440723
 30
0.0
 11
8105.600000000007
 21
6332.932665440723
 31
0.0
  0
LINE
  5
27672
330
747D
100
AcDbEntity
  8
センター
 48
2.0
100
AcDbLine
 10
8105.600000000007
 20
6432.932665440723
 30
0.0
 11
8105.600000000007
 21
6332.932665440723
 31
0.0
  0
DIMENSION
  5
27673
330
747D
100
AcDbEntity
  8
寸法
 48
50.0
100
AcDbDimension
  2
*D38
 10
4423.600000000007
 20
7627.541482110967
 30
0.0
 11
4898.600000000008
 21
7727.541482110968
 31
0.0
 70
    32
 71
     5
 42
950.0
  3
INABA_S40G
100
AcDbAlignedDimension
 13
5373.600000000007
 23
6714.932665440719
 33
0.0
 14
4423.600000000007
 24
6714.932665440719
 34
0.0
100
AcDbRotatedDimension
1001
ACAD
1000
DSTYLE
1002
{
1070
   341
1005
0
1002
}
  0
DIMENSION
  5
27674
330
747D
100
AcDbEntity
  8
寸法
 48
50.0
100
AcDbDimension
  2
*D39
 10
3591.600000000001
 20
7871.19912353463
 30
0.0
 11
4898.6
 21
7971.210934558252
 31
0.0
 70
    32
 71
     5
 42
2614.0
  3
INABA_S40G
100
AcDbAlignedDimension
 13
6205.6
 23
7071.932665440719
 33
0.0
 14
3591.600000000001
 24
7071.932665440719
 34
0.0
100
AcDbRotatedDimension
1001
ACAD
1000
DSTYLE
1002
{
1070
   341
1005
0
1002
}
  0
LINE
  5
27675
330
747D
100
AcDbEntity
  8
細線
 48
50.0
100
AcDbLine
 10
3516.181314052892
 20
6589.932665440699
 30
0.0
 11
3588.599999999999
 21
6662.351351387806
 31
0.0
  0
LINE
  5
27676
330
747D
100
AcDbEntity
  8
細線
 48
50.0
100
AcDbLine
 10
3471.280033447547
 20
6589.932665440699
 30
0.0
 11
3588.599999999999
 21
6707.252631993153
 31
0.0
  0
LINE
  5
27677
330
747D
100
AcDbEntity
  8
細線
 48
50.0
100
AcDbLine
 10
3468.599999999986
 20
6632.153912598482
 30
0.0
 11
3588.599999999998
 21
6752.153912598496
 31
0.0
  0
LINE
  5
27678
330
747D
100
AcDbEntity
  8
細線
 48
50.0
100
AcDbLine
 10
3468.599999999984
 20
6677.055193203829
 30
0.0
 11
3581.477472236855
 21
6789.932665440699
 31
0.0
  0
LINE
  5
27679
330
747D
100
AcDbEntity
  8
細線
 48
50.0
100
AcDbLine
 10
3468.599999999983
 20
6721.956473809171
 30
0.0
 11
3536.576191631509
 21
6789.932665440699
 31
0.0
  0
LINE
  5
2767A
330
747D
100
AcDbEntity
  8
部品1
 48
50.0
100
AcDbLine
 10
3588.599999999998
 20
6789.932665440701
 30
0.0
 11
3468.599999999984
 21
6789.932665440699
 31
0.0
  0
LINE
  5
2767B
330
747D
100
AcDbEntity
  8
部品1
 48
50.0
100
AcDbLine
 10
3588.6
 20
6589.932665440699
 30
0.0
 11
3468.599999999984
 21
6589.932665440699
 31
0.0
  0
DIMENSION
  5
2767C
330
747D
100
AcDbEntity
  8
寸法
 48
50.0
100
AcDbDimension
  2
*D40
 10
3468.600000000001
 20
7871.19912353463
 30
0.0
 11
3195.493398282203
 21
7871.19912353463
 31
0.0
 70
   160
 71
     5
 42
123.0
  3
INABA_S40G
100
AcDbAlignedDimension
 13
3591.600000000001
 23
7071.932665440719
 33
0.0
 14
3468.600000000001
 24
7144.93266544072
 34
0.0
100
AcDbRotatedDimension
1001
ACAD
1000
DSTYLE
1002
{
1070
   341
1005
0
1002
}
  0
DIMENSION
  5
2767D
330
747D
100
AcDbEntity
  8
寸法
 48
50.0
100
AcDbDimension
  2
*D41
 10
2845.665006330072
 20
7021.932665440719
 30
0.0
 11
2845.665006330071
 21
7418.039267158518
 31
0.0
 70
   160
 71
     5
 42
123.0
  3
INABA_S40G
100
AcDbAlignedDimension
 13
3468.600000000001
 23
7144.93266544072
 33
0.0
 14
3541.600000000001
 24
7021.932665440719
 34
0.0
 50
90.0
100
AcDbRotatedDimension
1001
ACAD
1000
DSTYLE
1002
{
1070
   341
1005
0
1002
}
  0
DIMENSION
  5
2767E
330
747D
100
AcDbEntity
  8
寸法
 48
50.0
100
AcDbDimension
  2
*D42
 10
3468.600000000001
 20
7627.541482110967
 30
0.0
 11
3946.100000000004
 21
7727.541482110968
 31
0.0
 70
    32
 71
     5
 42
955.0000000000073
  3
INABA_S40G
100
AcDbAlignedDimension
 13
4423.600000000007
 23
6714.932665440719
 33
0.0
 14
3468.600000000001
 24
7144.93266544072
 34
0.0
100
AcDbRotatedDimension
1001
ACAD
1000
DSTYLE
1002
{
1070
   341
1005
0
1002
}
  0
LINE
  5
27681
330
747D
100
AcDbEntity
  8
細線
 48
50.0
100
AcDbLine
 10
3468.599999999986
 20
6766.85775441452
 30
0.0
 11
3491.674911026165
 21
6789.932665440699
 31
0.0
  0
LINE
  5
27682
330
747D
100
AcDbEntity
  8
部品1
 48
50.0
100
AcDbLine
 10
4523.600000000008
 20
6564.932665440719
 30
0.0
 11
4323.600000000007
 21
6564.932665440719
 31
0.0
  0
LINE
  5
27683
330
747D
100
AcDbEntity
  8
部品1
 48
50.0
100
AcDbLine
 10
4523.600000000008
 20
6764.932665440719
 30
0.0
 11
4323.600000000007
 21
6764.932665440719
 31
0.0
  0
DIMENSION
  5
27684
330
747D
100
AcDbEntity
  8
寸法
 48
50.0
100
AcDbDimension
  2
*D43
 10
3951.285990614302
 20
7144.93266544072
 30
0.0
 11
3951.285990614301
 21
7437.49172055883
 31
0.0
 70
   160
 71
     5
 42
480.0
  3
INABA_S40G
100
AcDbAlignedDimension
 13
4373.600000000007
 23
6664.932665440719
 33
0.0
 14
4042.765475140901
 24
7144.93266544072
 34
0.0
 50
90.0
100
AcDbRotatedDimension
1001
ACAD
1000
DSTYLE
1002
{
1070
   341
1005
0
1002
}
  0
LINE
  5
27685
330
747D
100
AcDbEntity
  8
部品1
 48
50.0
100
AcDbLine
 10
4048.599999999996
 20
7144.932665440709
 30
0.0
 11
4048.6
 21
6944.932665440723
 31
0.0
  0
LINE
  5
27686
330
747D
100
AcDbEntity
  8
細線
 48
50.0
100
AcDbLine
 10
3848.599999999998
 20
7081.857754414553
 30
0.0
 11
3911.674911026155
 21
7144.932665440709
 31
0.0
  0
LINE
  5
27687
330
747D
100
AcDbEntity
  8
細線
 48
50.0
100
AcDbLine
 10
3848.599999999998
 20
7036.956473809204
 30
0.0
 11
3956.576191631503
 21
7144.932665440709
 31
0.0
  0
LINE
  5
27688
330
747D
100
AcDbEntity
  8
細線
 48
50.0
100
AcDbLine
 10
3848.599999999998
 20
6992.055193203857
 30
0.0
 11
4001.477472236848
 21
7144.932665440709
 31
0.0
  0
LINE
  5
27689
330
747D
100
AcDbEntity
  8
部品1
 48
50.0
100
AcDbLine
 10
3848.599999999997
 20
7144.932665440709
 30
0.0
 11
3848.600000000001
 21
6944.932665440723
 31
0.0
  0
LINE
  5
2768A
330
747D
100
AcDbEntity
  8
細線
 48
50.0
100
AcDbLine
 10
3848.600000000001
 20
6947.153912598515
 30
0.0
 11
4046.378752842192
 21
7144.932665440709
 31
0.0
  0
LINE
  5
2768B
330
747D
100
AcDbEntity
  8
細線
 48
50.0
100
AcDbLine
 10
3891.280033447554
 20
6944.932665440721
 30
0.0
 11
4048.599999999996
 21
7102.252631993166
 31
0.0
  0
LINE
  5
2768C
330
747D
100
AcDbEntity
  8
細線
 48
50.0
100
AcDbLine
 10
3561.082594658235
 20
6589.932665440696
 30
0.0
 11
3588.6
 21
6617.450070782455
 31
0.0
  0
LINE
  5
2768D
330
747D
100
AcDbEntity
  8
センター
 48
2.0
100
AcDbLine
 10
3591.600000000001
 20
7071.932665440719
 30
0.0
 11
3591.600000000001
 21
6971.93266544072
 31
0.0
  0
LINE
  5
2768E
330
747D
100
AcDbEntity
  8
センター
 48
2.0
100
AcDbLine
 10
3541.600000000001
 20
7021.932665440719
 30
0.0
 11
3641.6
 21
7021.932665440719
 31
0.0
  0
CIRCLE
  5
2768F
330
747D
100
AcDbEntity
  8
部品1
 48
50.0
100
AcDbCircle
 10
3591.600000000001
 20
7021.932665440719
 30
0.0
 40
35.0
  0
LINE
  5
27690
330
747D
100
AcDbEntity
  8
部品1
 48
50.0
100
AcDbLine
 10
4323.600000000007
 20
6564.932665440719
 30
0.0
 11
4323.600000000007
 21
6764.932665440719
 31
0.0
  0
LINE
  5
27691
330
747D
100
AcDbEntity
  8
細線
 48
50.0
100
AcDbLine
 10
3936.181314052916
 20
6944.932665440726
 30
0.0
 11
4048.6
 21
7057.351351387824
 31
0.0
  0
LINE
  5
27692
330
747D
100
AcDbEntity
  8
細線
 48
50.0
100
AcDbLine
 10
3981.082594658254
 20
6944.932665440726
 30
0.0
 11
4048.599999999998
 21
7012.45007078247
 31
0.0
  0
LINE
  5
27693
330
747D
100
AcDbEntity
  8
細線
 48
50.0
100
AcDbLine
 10
4025.983875263608
 20
6944.932665440723
 30
0.0
 11
4048.6
 21
6967.548790177122
 31
0.0
  0
LINE
  5
27694
330
747D
100
AcDbEntity
  8
細線
 48
50.0
100
AcDbLine
 10
3848.599999999997
 20
7126.759035019896
 30
0.0
 11
3866.773630420811
 21
7144.932665440709
 31
0.0
  0
LINE
  5
27695
330
747D
100
AcDbEntity
  8
部品1
 48
50.0
100
AcDbLine
 10
4998.599999999997
 20
7144.932665440709
 30
0.0
 11
4998.6
 21
6944.932665440723
 31
0.0
  0
LINE
  5
27696
330
747D
100
AcDbEntity
  8
部品1
 48
50.0
100
AcDbLine
 10
4798.599999999996
 20
7144.932665440709
 30
0.0
 11
4798.6
 21
6944.932665440723
 31
0.0
  0
LINE
  5
27697
330
747D
100
AcDbEntity
  8
細線
 48
50.0
100
AcDbLine
 10
4798.6
 20
6947.153912598515
 30
0.0
 11
4996.378752842193
 21
7144.932665440709
 31
0.0
  0
LINE
  5
27698
330
747D
100
AcDbEntity
  8
細線
 48
50.0
100
AcDbLine
 10
4798.599999999999
 20
6992.055193203857
 30
0.0
 11
4951.477472236848
 21
7144.932665440709
 31
0.0
  0
LINE
  5
27699
330
747D
100
AcDbEntity
  8
細線
 48
50.0
100
AcDbLine
 10
4798.599999999999
 20
7036.956473809204
 30
0.0
 11
4906.576191631502
 21
7144.932665440709
 31
0.0
  0
LINE
  5
2769A
330
747D
100
AcDbEntity
  8
細線
 48
50.0
100
AcDbLine
 10
4798.599999999999
 20
7081.857754414553
 30
0.0
 11
4861.674911026155
 21
7144.932665440709
 31
0.0
  0
LINE
  5
2769B
330
747D
100
AcDbEntity
  8
センター
 48
2.0
100
AcDbLine
 10
4423.600000000007
 20
6714.932665440719
 30
0.0
 11
4423.600000000007
 21
6614.932665440719
 31
0.0
  0
LINE
  5
2769C
330
747D
100
AcDbEntity
  8
センター
 48
2.0
100
AcDbLine
 10
4373.600000000007
 20
6664.932665440719
 30
0.0
 11
4473.600000000007
 21
6664.932665440719
 31
0.0
  0
LINE
  5
2769D
330
747D
100
AcDbEntity
  8
部品1
 48
50.0
100
AcDbLine
 10
4523.600000000008
 20
6564.932665440719
 30
0.0
 11
4523.600000000008
 21
6764.932665440719
 31
0.0
  0
LINE
  5
2769E
330
747D
100
AcDbEntity
  8
細線
 48
50.0
100
AcDbLine
 10
4931.082594658254
 20
6944.932665440726
 30
0.0
 11
4998.599999999999
 21
7012.45007078247
 31
0.0
  0
LINE
  5
2769F
330
747D
100
AcDbEntity
  8
細線
 48
50.0
100
AcDbLine
 10
4886.181314052915
 20
6944.932665440726
 30
0.0
 11
4998.6
 21
7057.351351387824
 31
0.0
  0
LINE
  5
276A0
330
747D
100
AcDbEntity
  8
細線
 48
50.0
100
AcDbLine
 10
4841.280033447554
 20
6944.932665440721
 30
0.0
 11
4998.599999999997
 21
7102.252631993166
 31
0.0
  0
LINE
  5
276A1
330
747D
100
AcDbEntity
  8
細線
 48
50.0
100
AcDbLine
 10
4975.983875263608
 20
6944.932665440723
 30
0.0
 11
4998.6
 21
6967.548790177122
 31
0.0
  0
LINE
  5
276A2
330
747D
100
AcDbEntity
  8
細線
 48
50.0
100
AcDbLine
 10
4798.599999999996
 20
7126.759035019896
 30
0.0
 11
4816.773630420811
 21
7144.932665440709
 31
0.0
  0
LINE
  5
276A3
330
747D
100
AcDbEntity
  8
細線
 48
50.0
100
AcDbLine
 10
6698.599999999998
 20
6992.055193203857
 30
0.0
 11
6851.477472236847
 21
7144.932665440709
 31
0.0
  0
LINE
  5
276A4
330
747D
100
AcDbEntity
  8
細線
 48
50.0
100
AcDbLine
 10
6698.6
 20
6947.153912598515
 30
0.0
 11
6896.378752842193
 21
7144.932665440709
 31
0.0
  0
LINE
  5
276A5
330
747D
100
AcDbEntity
  8
細線
 48
50.0
100
AcDbLine
 10
6741.280033447555
 20
6944.932665440721
 30
0.0
 11
6898.599999999998
 21
7102.252631993166
 31
0.0
  0
LINE
  5
276A6
330
747D
100
AcDbEntity
  8
細線
 48
50.0
100
AcDbLine
 10
6786.181314052917
 20
6944.932665440726
 30
0.0
 11
6898.6
 21
7057.351351387824
 31
0.0
  0
LINE
  5
276A7
330
747D
100
AcDbEntity
  8
細線
 48
50.0
100
AcDbLine
 10
6698.599999999998
 20
7036.956473809204
 30
0.0
 11
6806.576191631503
 21
7144.932665440709
 31
0.0
  0
DIMENSION
  5
276A9
330
747D
100
AcDbEntity
  8
寸法
 48
50.0
100
AcDbDimension
  2
*D44
 10
6205.6
 20
7871.19912353463
 30
0.0
 11
7155.600000000001
 21
7971.19912353463
 31
0.0
 70
    32
 71
     5
 42
1900.0
  3
INABA_S40G
100
AcDbAlignedDimension
 13
8105.6
 23
7071.932665440719
 33
0.0
 14
6205.6
 24
7071.932665440719
 34
0.0
100
AcDbRotatedDimension
1001
ACAD
1000
DSTYLE
1002
{
1070
   341
1005
0
1002
}
  0
DIMENSION
  5
276AB
330
747D
100
AcDbEntity
  8
寸法
 48
50.0
100
AcDbDimension
  2
*D45
 10
6323.600000000007
 20
7627.541482110967
 30
0.0
 11
6798.600000000007
 21
7727.541482110968
 31
0.0
 70
    32
 71
     5
 42
950.0
  3
INABA_S40G
100
AcDbAlignedDimension
 13
7273.600000000008
 23
6714.932665440719
 33
0.0
 14
6323.600000000007
 24
6714.932665440719
 34
0.0
100
AcDbRotatedDimension
1001
ACAD
1000
DSTYLE
1002
{
1070
   341
1005
0
1002
}
  0
DIMENSION
  5
276AC
330
747D
100
AcDbEntity
  8
寸法
 48
50.0
100
AcDbDimension
  2
*D46
 10
5373.600000000007
 20
7627.541482110967
 30
0.0
 11
5848.600000000008
 21
7727.541482110968
 31
0.0
 70
    32
 71
     5
 42
950.0
  3
INABA_S40G
100
AcDbAlignedDimension
 13
6323.600000000007
 23
6714.932665440719
 33
0.0
 14
5373.600000000007
 24
6714.932665440719
 34
0.0
100
AcDbRotatedDimension
1001
ACAD
1000
DSTYLE
1002
{
1070
   341
1005
0
1002
}
  0
LINE
  5
276AD
330
747D
100
AcDbEntity
  8
細線
 48
50.0
100
AcDbLine
 10
5748.599999999999
 20
7081.857754414553
 30
0.0
 11
5811.674911026155
 21
7144.932665440709
 31
0.0
  0
LINE
  5
276AE
330
747D
100
AcDbEntity
  8
細線
 48
50.0
100
AcDbLine
 10
5748.599999999999
 20
7036.956473809204
 30
0.0
 11
5856.576191631503
 21
7144.932665440709
 31
0.0
  0
LINE
  5
276AF
330
747D
100
AcDbEntity
  8
細線
 48
50.0
100
AcDbLine
 10
5748.599999999999
 20
6992.055193203857
 30
0.0
 11
5901.477472236848
 21
7144.932665440709
 31
0.0
  0
LINE
  5
276B0
330
747D
100
AcDbEntity
  8
細線
 48
50.0
100
AcDbLine
 10
5748.6
 20
6947.153912598515
 30
0.0
 11
5946.378752842193
 21
7144.932665440709
 31
0.0
  0
LINE
  5
276B1
330
747D
100
AcDbEntity
  8
部品1
 48
50.0
100
AcDbLine
 10
5948.599999999997
 20
7144.932665440709
 30
0.0
 11
5948.6
 21
6944.932665440723
 31
0.0
  0
LINE
  5
276B2
330
747D
100
AcDbEntity
  8
部品1
 48
50.0
100
AcDbLine
 10
5748.599999999997
 20
7144.932665440709
 30
0.0
 11
5748.6
 21
6944.932665440723
 31
0.0
  0
LINE
  5
276B4
330
747D
100
AcDbEntity
  8
部品1
 48
50.0
100
AcDbLine
 10
5473.600000000008
 20
6764.932665440719
 30
0.0
 11
5273.600000000008
 21
6764.932665440719
 31
0.0
  0
LINE
  5
276B5
330
747D
100
AcDbEntity
  8
センター
 48
2.0
100
AcDbLine
 10
5323.600000000007
 20
6664.932665440719
 30
0.0
 11
5423.600000000007
 21
6664.932665440719
 31
0.0
  0
LINE
  5
276B6
330
747D
100
AcDbEntity
  8
部品1
 48
50.0
100
AcDbLine
 10
5473.600000000008
 20
6564.932665440719
 30
0.0
 11
5273.600000000008
 21
6564.932665440719
 31
0.0
  0
LINE
  5
276B7
330
747D
100
AcDbEntity
  8
部品1
 48
50.0
100
AcDbLine
 10
5273.600000000008
 20
6564.932665440719
 30
0.0
 11
5273.600000000008
 21
6764.932665440719
 31
0.0
  0
LINE
  5
276B8
330
747D
100
AcDbEntity
  8
センター
 48
2.0
100
AcDbLine
 10
5373.600000000007
 20
6714.932665440719
 30
0.0
 11
5373.600000000007
 21
6614.932665440719
 31
0.0
  0
LINE
  5
276B9
330
747D
100
AcDbEntity
  8
部品1
 48
50.0
100
AcDbLine
 10
5473.600000000008
 20
6564.932665440719
 30
0.0
 11
5473.600000000008
 21
6764.932665440719
 31
0.0
  0
LINE
  5
276BA
330
747D
100
AcDbEntity
  8
細線
 48
50.0
100
AcDbLine
 10
5881.082594658254
 20
6944.932665440726
 30
0.0
 11
5948.599999999998
 21
7012.45007078247
 31
0.0
  0
LINE
  5
276BB
330
747D
100
AcDbEntity
  8
細線
 48
50.0
100
AcDbLine
 10
5925.983875263607
 20
6944.932665440723
 30
0.0
 11
5948.6
 21
6967.548790177122
 31
0.0
  0
LINE
  5
276BC
330
747D
100
AcDbEntity
  8
細線
 48
50.0
100
AcDbLine
 10
5791.280033447554
 20
6944.932665440721
 30
0.0
 11
5948.599999999997
 21
7102.252631993166
 31
0.0
  0
LINE
  5
276BD
330
747D
100
AcDbEntity
  8
細線
 48
50.0
100
AcDbLine
 10
5836.181314052915
 20
6944.932665440726
 30
0.0
 11
5948.6
 21
7057.351351387824
 31
0.0
  0
LINE
  5
276BE
330
747D
100
AcDbEntity
  8
細線
 48
50.0
100
AcDbLine
 10
5748.599999999997
 20
7126.759035019896
 30
0.0
 11
5766.773630420811
 21
7144.932665440709
 31
0.0
  0
LINE
  5
276BF
330
747D
100
AcDbEntity
  8
細線
 48
50.0
100
AcDbLine
 10
6698.599999999998
 20
7081.857754414553
 30
0.0
 11
6761.674911026155
 21
7144.932665440709
 31
0.0
  0
LINE
  5
276C0
330
747D
100
AcDbEntity
  8
部品1
 48
50.0
100
AcDbLine
 10
6698.599999999996
 20
7144.932665440709
 30
0.0
 11
6698.6
 21
6944.932665440723
 31
0.0
  0
LINE
  5
276C1
330
747D
100
AcDbEntity
  8
部品1
 48
50.0
100
AcDbLine
 10
6423.600000000007
 20
6764.932665440719
 30
0.0
 11
6223.600000000008
 21
6764.932665440719
 31
0.0
  0
LINE
  5
276C2
330
747D
100
AcDbEntity
  8
部品1
 48
50.0
100
AcDbLine
 10
6423.600000000007
 20
6564.932665440719
 30
0.0
 11
6223.600000000008
 21
6564.932665440719
 31
0.0
  0
LINE
  5
276C3
330
747D
100
AcDbEntity
  8
センター
 48
2.0
100
AcDbLine
 10
6323.600000000007
 20
6714.932665440719
 30
0.0
 11
6323.600000000007
 21
6614.932665440719
 31
0.0
  0
LINE
  5
276C4
330
747D
100
AcDbEntity
  8
センター
 48
2.0
100
AcDbLine
 10
6273.600000000008
 20
6664.932665440719
 30
0.0
 11
6373.600000000007
 21
6664.932665440719
 31
0.0
  0
LINE
  5
276C5
330
747D
100
AcDbEntity
  8
部品1
 48
50.0
100
AcDbLine
 10
6223.600000000008
 20
6564.932665440719
 30
0.0
 11
6223.600000000008
 21
6764.932665440719
 31
0.0
  0
LINE
  5
276C6
330
747D
100
AcDbEntity
  8
センター
 48
2.0
100
AcDbLine
 10
6155.6
 20
7021.932665440719
 30
0.0
 11
6255.600000000001
 21
7021.932665440719
 31
0.0
  0
CIRCLE
  5
276C7
330
747D
100
AcDbEntity
  8
部品1
 48
50.0
100
AcDbCircle
 10
6205.6
 20
7021.932665440719
 30
0.0
 40
35.0
  0
LINE
  5
276C8
330
747D
100
AcDbEntity
  8
センター
 48
2.0
100
AcDbLine
 10
6205.6
 20
7071.932665440719
 30
0.0
 11
6205.6
 21
6971.93266544072
 31
0.0
  0
LINE
  5
276C9
330
747D
100
AcDbEntity
  8
部品1
 48
50.0
100
AcDbLine
 10
6423.600000000007
 20
6564.932665440719
 30
0.0
 11
6423.600000000007
 21
6764.932665440719
 31
0.0
  0
LINE
  5
276CA
330
747D
100
AcDbEntity
  8
細線
 48
50.0
100
AcDbLine
 10
6698.599999999996
 20
7126.759035019896
 30
0.0
 11
6716.77363042081
 21
7144.932665440709
 31
0.0
  0
DIMENSION
  5
276CB
330
747D
100
AcDbEntity
  8
寸法
 48
50.0
100
AcDbDimension
  2
*D47
 10
7273.600000000008
 20
7627.541482110967
 30
0.0
 11
7748.600000000007
 21
7727.541482110968
 31
0.0
 70
    32
 71
     5
 42
950.0
  3
INABA_S40G
100
AcDbAlignedDimension
 13
8223.600000000008
 23
6714.932665440719
 33
0.0
 14
7273.600000000008
 24
6714.932665440719
 34
0.0
100
AcDbRotatedDimension
1001
ACAD
1000
DSTYLE
1002
{
1070
   341
1005
0
1002
}
  0
LINE
  5
276CC
330
747D
100
AcDbEntity
  8
部品1
 48
50.0
100
AcDbLine
 10
6898.599999999998
 20
7144.932665440709
 30
0.0
 11
6898.6
 21
6944.932665440723
 31
0.0
  0
LINE
  5
276CD
330
747D
100
AcDbEntity
  8
部品1
 48
50.0
100
AcDbLine
 10
7373.600000000007
 20
6764.932665440719
 30
0.0
 11
7173.600000000007
 21
6764.932665440719
 31
0.0
  0
LINE
  5
276CE
330
747D
100
AcDbEntity
  8
部品1
 48
50.0
100
AcDbLine
 10
7373.600000000007
 20
6564.932665440719
 30
0.0
 11
7173.600000000007
 21
6564.932665440719
 31
0.0
  0
LINE
  5
276CF
330
747D
100
AcDbEntity
  8
部品1
 48
50.0
100
AcDbLine
 10
7173.600000000007
 20
6564.932665440719
 30
0.0
 11
7173.600000000007
 21
6764.932665440719
 31
0.0
  0
LINE
  5
276D0
330
747D
100
AcDbEntity
  8
細線
 48
50.0
100
AcDbLine
 10
6831.082594658254
 20
6944.932665440726
 30
0.0
 11
6898.599999999999
 21
7012.45007078247
 31
0.0
  0
LINE
  5
276D1
330
747D
100
AcDbEntity
  8
細線
 48
50.0
100
AcDbLine
 10
6875.983875263608
 20
6944.932665440723
 30
0.0
 11
6898.6
 21
6967.548790177122
 31
0.0
  0
LINE
  5
276D2
330
747D
100
AcDbEntity
  8
センター
 48
2.0
100
AcDbLine
 10
7273.600000000008
 20
6714.932665440719
 30
0.0
 11
7273.600000000008
 21
6614.932665440719
 31
0.0
  0
LINE
  5
276D3
330
747D
100
AcDbEntity
  8
センター
 48
2.0
100
AcDbLine
 10
7223.600000000008
 20
6664.932665440719
 30
0.0
 11
7323.600000000007
 21
6664.932665440719
 31
0.0
  0
LINE
  5
276D4
330
747D
100
AcDbEntity
  8
部品1
 48
50.0
100
AcDbLine
 10
7373.600000000007
 20
6564.932665440719
 30
0.0
 11
7373.600000000007
 21
6764.932665440719
 31
0.0
  0
LINE
  5
276D5
330
747D
100
AcDbEntity
  8
細線
 48
50.0
100
AcDbLine
 10
7648.599999999999
 20
7081.857754414553
 30
0.0
 11
7711.674911026155
 21
7144.932665440709
 31
0.0
  0
LINE
  5
276D6
330
747D
100
AcDbEntity
  8
部品1
 48
50.0
100
AcDbLine
 10
7648.599999999998
 20
7144.932665440709
 30
0.0
 11
7648.6
 21
6944.932665440723
 31
0.0
  0
LINE
  5
276D7
330
747D
100
AcDbEntity
  8
部品1
 48
50.0
100
AcDbLine
 10
7848.599999999997
 20
7144.932665440709
 30
0.0
 11
7848.600000000001
 21
6944.932665440723
 31
0.0
  0
LINE
  5
276D8
330
747D
100
AcDbEntity
  8
細線
 48
50.0
100
AcDbLine
 10
7648.6
 20
6947.153912598515
 30
0.0
 11
7846.378752842193
 21
7144.932665440709
 31
0.0
  0
LINE
  5
276D9
330
747D
100
AcDbEntity
  8
細線
 48
50.0
100
AcDbLine
 10
7648.599999999999
 20
6992.055193203857
 30
0.0
 11
7801.477472236847
 21
7144.932665440709
 31
0.0
  0
LINE
  5
276DA
330
747D
100
AcDbEntity
  8
細線
 48
50.0
100
AcDbLine
 10
7648.599999999999
 20
7036.956473809204
 30
0.0
 11
7756.576191631502
 21
7144.932665440709
 31
0.0
  0
LINE
  5
276DB
330
747D
100
AcDbEntity
  8
細線
 48
50.0
100
AcDbLine
 10
7825.983875263609
 20
6944.932665440723
 30
0.0
 11
7848.600000000001
 21
6967.548790177122
 31
0.0
  0
LINE
  5
276DC
330
747D
100
AcDbEntity
  8
細線
 48
50.0
100
AcDbLine
 10
7781.082594658254
 20
6944.932665440726
 30
0.0
 11
7848.599999999999
 21
7012.45007078247
 31
0.0
  0
LINE
  5
276DD
330
747D
100
AcDbEntity
  8
細線
 48
50.0
100
AcDbLine
 10
7736.181314052917
 20
6944.932665440726
 30
0.0
 11
7848.600000000001
 21
7057.351351387824
 31
0.0
  0
LINE
  5
276DE
330
747D
100
AcDbEntity
  8
細線
 48
50.0
100
AcDbLine
 10
7691.280033447554
 20
6944.932665440721
 30
0.0
 11
7848.599999999997
 21
7102.252631993166
 31
0.0
  0
LINE
  5
276DF
330
747D
100
AcDbEntity
  8
センター
 48
2.0
100
AcDbLine
 10
8173.600000000007
 20
6664.932665440719
 30
0.0
 11
8273.600000000007
 21
6664.932665440719
 31
0.0
  0
LINE
  5
276E0
330
747D
100
AcDbEntity
  8
部品1
 48
50.0
100
AcDbLine
 10
8323.600000000007
 20
6564.932665440719
 30
0.0
 11
8123.600000000008
 21
6564.932665440719
 31
0.0
  0
LINE
  5
276E1
330
747D
100
AcDbEntity
  8
部品1
 48
50.0
100
AcDbLine
 10
8323.600000000007
 20
6764.932665440719
 30
0.0
 11
8123.600000000008
 21
6764.932665440719
 31
0.0
  0
LINE
  5
276E2
330
747D
100
AcDbEntity
  8
センター
 48
2.0
100
AcDbLine
 10
8223.600000000008
 20
6714.932665440719
 30
0.0
 11
8223.600000000008
 21
6614.932665440719
 31
0.0
  0
LINE
  5
276E3
330
747D
100
AcDbEntity
  8
部品1
 48
50.0
100
AcDbLine
 10
8123.600000000008
 20
6564.932665440719
 30
0.0
 11
8123.600000000008
 21
6764.932665440719
 31
0.0
  0
LINE
  5
276E4
330
747D
100
AcDbEntity
  8
部品1
 48
50.0
100
AcDbLine
 10
8323.600000000007
 20
6564.932665440719
 30
0.0
 11
8323.600000000007
 21
6764.932665440719
 31
0.0
  0
LINE
  5
276E5
330
747D
100
AcDbEntity
  8
センター
 48
2.0
100
AcDbLine
 10
8055.600000000001
 20
7021.932665440719
 30
0.0
 11
8155.600000000001
 21
7021.932665440719
 31
0.0
  0
LINE
  5
276E6
330
747D
100
AcDbEntity
  8
センター
 48
2.0
100
AcDbLine
 10
8055.600000000001
 20
7021.932665440719
 30
0.0
 11
8155.600000000001
 21
7021.932665440719
 31
0.0
  0
CIRCLE
  5
276E7
330
747D
100
AcDbEntity
  8
部品1
 48
50.0
100
AcDbCircle
 10
8105.6
 20
7021.932665440719
 30
0.0
 40
35.0
  0
CIRCLE
  5
276E8
330
747D
100
AcDbEntity
  8
部品1
 48
50.0
100
AcDbCircle
 10
8105.6
 20
7021.932665440719
 30
0.0
 40
35.0
  0
LINE
  5
276E9
330
747D
100
AcDbEntity
  8
センター
 48
2.0
100
AcDbLine
 10
8105.6
 20
7071.932665440719
 30
0.0
 11
8105.6
 21
6971.93266544072
 31
0.0
  0
LINE
  5
276EA
330
747D
100
AcDbEntity
  8
センター
 48
2.0
100
AcDbLine
 10
8105.6
 20
7071.932665440719
 30
0.0
 11
8105.6
 21
6971.93266544072
 31
0.0
  0
LINE
  5
276EB
330
747D
100
AcDbEntity
  8
細線
 48
50.0
100
AcDbLine
 10
7648.599999999998
 20
7126.759035019896
 30
0.0
 11
7666.77363042081
 21
7144.932665440709
 31
0.0
  0
LINE
  5
276EE
330
747D
100
AcDbEntity
  8
部品1
 48
50.0
100
AcDbLine
 10
12978.6
 20
6184.932665440737
 30
0.0
 11
12978.6
 21
7144.93266544072
 31
0.0
  0
LINE
  5
27709
330
747D
100
AcDbEntity
  8
センター
 48
2.0
100
AcDbLine
 10
10005.60000000001
 20
6432.932665440723
 30
0.0
 11
10005.60000000001
 21
6332.932665440723
 31
0.0
  0
LINE
  5
2770A
330
747D
100
AcDbEntity
  8
センター
 48
2.0
100
AcDbLine
 10
10005.60000000001
 20
6432.932665440723
 30
0.0
 11
10005.60000000001
 21
6332.932665440723
 31
0.0
  0
LINE
  5
2770B
330
747D
100
AcDbEntity
  8
センター
 48
2.0
100
AcDbLine
 10
9955.600000000009
 20
6382.932665440723
 30
0.0
 11
10055.60000000001
 21
6382.932665440723
 31
0.0
  0
LINE
  5
2770C
330
747D
100
AcDbEntity
  8
センター
 48
2.0
100
AcDbLine
 10
9955.600000000009
 20
6382.932665440723
 30
0.0
 11
10055.60000000001
 21
6382.932665440723
 31
0.0
  0
CIRCLE
  5
2770D
330
747D
100
AcDbEntity
  8
部品1
 48
50.0
100
AcDbCircle
 10
10005.60000000001
 20
6382.932665440723
 30
0.0
 40
35.0
  0
CIRCLE
  5
2770E
330
747D
100
AcDbEntity
  8
部品1
 48
50.0
100
AcDbCircle
 10
10005.60000000001
 20
6382.932665440723
 30
0.0
 40
35.0
  0
LINE
  5
27737
330
747D
100
AcDbEntity
  8
センター
 48
2.0
100
AcDbLine
 10
12855.60000000001
 20
6432.932665440723
 30
0.0
 11
12855.60000000001
 21
6332.932665440723
 31
0.0
  0
CIRCLE
  5
27738
330
747D
100
AcDbEntity
  8
部品1
 48
50.0
100
AcDbCircle
 10
12855.60000000001
 20
6382.932665440723
 30
0.0
 40
35.0
  0
LINE
  5
27739
330
747D
100
AcDbEntity
  8
センター
 48
2.0
100
AcDbLine
 10
12805.60000000001
 20
6382.932665440723
 30
0.0
 11
12905.60000000001
 21
6382.932665440723
 31
0.0
  0
DIMENSION
  5
2773A
330
747D
100
AcDbEntity
  8
寸法
 48
50.0
100
AcDbDimension
  2
*D48
 10
10005.6
 20
7871.19912353463
 30
0.0
 11
11430.6
 21
7971.210934558252
 31
0.0
 70
    32
 71
     5
 42
2850.0
  3
INABA_S40G
100
AcDbAlignedDimension
 13
12855.6
 23
7071.932665440719
 33
0.0
 14
10005.6
 24
7071.932665440719
 34
0.0
100
AcDbRotatedDimension
1001
ACAD
1000
DSTYLE
1002
{
1070
   341
1005
0
1002
}
  0
DIMENSION
  5
2773B
330
747D
100
AcDbEntity
  8
寸法
 48
50.0
100
AcDbDimension
  2
*D49
 10
11073.60000000001
 20
7627.541482110967
 30
0.0
 11
11548.60000000001
 21
7727.541482110968
 31
0.0
 70
    32
 71
     5
 42
950.0
  3
INABA_S40G
100
AcDbAlignedDimension
 13
12023.6
 23
6714.932665440719
 33
0.0
 14
11073.60000000001
 24
6714.932665440719
 34
0.0
100
AcDbRotatedDimension
1001
ACAD
1000
DSTYLE
1002
{
1070
   341
1005
0
1002
}
  0
DIMENSION
  5
2773C
330
747D
100
AcDbEntity
  8
寸法
 48
50.0
100
AcDbDimension
  2
*D50
 10
9173.600000000007
 20
7627.541482110967
 30
0.0
 11
9648.600000000008
 21
7727.541482110968
 31
0.0
 70
    32
 71
     5
 42
950.0
  3
INABA_S40G
100
AcDbAlignedDimension
 13
10123.60000000001
 23
6714.932665440719
 33
0.0
 14
9173.600000000007
 24
6714.932665440719
 34
0.0
100
AcDbRotatedDimension
1001
ACAD
1000
DSTYLE
1002
{
1070
   341
1005
0
1002
}
  0
LINE
  5
2773D
330
747D
100
AcDbEntity
  8
センター
 48
2.0
100
AcDbLine
 10
10073.60000000001
 20
6664.932665440719
 30
0.0
 11
10173.6
 21
6664.932665440719
 31
0.0
  0
LINE
  5
2773E
330
747D
100
AcDbEntity
  8
部品1
 48
50.0
100
AcDbLine
 10
10223.60000000001
 20
6564.932665440719
 30
0.0
 11
10023.60000000001
 21
6564.932665440719
 31
0.0
  0
LINE
  5
2773F
330
747D
100
AcDbEntity
  8
部品1
 48
50.0
100
AcDbLine
 10
10223.60000000001
 20
6764.932665440719
 30
0.0
 11
10023.60000000001
 21
6764.932665440719
 31
0.0
  0
LINE
  5
27740
330
747D
100
AcDbEntity
  8
部品1
 48
50.0
100
AcDbLine
 10
9273.600000000007
 20
6764.932665440719
 30
0.0
 11
9073.600000000007
 21
6764.932665440719
 31
0.0
  0
LINE
  5
27741
330
747D
100
AcDbEntity
  8
部品1
 48
50.0
100
AcDbLine
 10
9273.600000000007
 20
6564.932665440719
 30
0.0
 11
9073.600000000007
 21
6564.932665440719
 31
0.0
  0
LINE
  5
27742
330
747D
100
AcDbEntity
  8
細線
 48
50.0
100
AcDbLine
 10
8598.599999999999
 20
7081.85775441453
 30
0.0
 11
8661.674911026155
 21
7144.932665440688
 31
0.0
  0
LINE
  5
27743
330
747D
100
AcDbEntity
  8
部品1
 48
50.0
100
AcDbLine
 10
8798.599999999995
 20
7144.932665440688
 30
0.0
 11
8798.600000000002
 21
6944.932665440702
 31
0.0
  0
LINE
  5
27744
330
747D
100
AcDbEntity
  8
部品1
 48
50.0
100
AcDbLine
 10
8598.599999999995
 20
7144.932665440688
 30
0.0
 11
8598.600000000002
 21
6944.932665440702
 31
0.0
  0
LINE
  5
27745
330
747D
100
AcDbEntity
  8
細線
 48
50.0
100
AcDbLine
 10
8598.599999999999
 20
7036.956473809181
 30
0.0
 11
8706.576191631503
 21
7144.932665440688
 31
0.0
  0
LINE
  5
27746
330
747D
100
AcDbEntity
  8
細線
 48
50.0
100
AcDbLine
 10
8598.600000000002
 20
6947.153912598493
 30
0.0
 11
8796.378752842192
 21
7144.932665440688
 31
0.0
  0
LINE
  5
27747
330
747D
100
AcDbEntity
  8
細線
 48
50.0
100
AcDbLine
 10
8598.599999999999
 20
6992.055193203835
 30
0.0
 11
8751.47747223685
 21
7144.932665440688
 31
0.0
  0
LINE
  5
27748
330
747D
100
AcDbEntity
  8
細線
 48
50.0
100
AcDbLine
 10
8641.280033447555
 20
6944.9326654407
 30
0.0
 11
8798.599999999995
 21
7102.252631993144
 31
0.0
  0
LINE
  5
27749
330
747D
100
AcDbEntity
  8
細線
 48
50.0
100
AcDbLine
 10
8775.983875263611
 20
6944.932665440702
 30
0.0
 11
8798.600000000002
 21
6967.548790177099
 31
0.0
  0
LINE
  5
2774A
330
747D
100
AcDbEntity
  8
細線
 48
50.0
100
AcDbLine
 10
8731.082594658252
 20
6944.932665440703
 30
0.0
 11
8798.599999999998
 21
7012.450070782448
 31
0.0
  0
LINE
  5
2774B
330
747D
100
AcDbEntity
  8
細線
 48
50.0
100
AcDbLine
 10
8686.181314052916
 20
6944.932665440703
 30
0.0
 11
8798.600000000002
 21
7057.351351387803
 31
0.0
  0
LINE
  5
2774C
330
747D
100
AcDbEntity
  8
センター
 48
2.0
100
AcDbLine
 10
9123.600000000008
 20
6664.932665440719
 30
0.0
 11
9223.600000000008
 21
6664.932665440719
 31
0.0
  0
LINE
  5
2774D
330
747D
100
AcDbEntity
  8
センター
 48
2.0
100
AcDbLine
 10
9173.600000000007
 20
6714.932665440719
 30
0.0
 11
9173.600000000007
 21
6614.932665440719
 31
0.0
  0
LINE
  5
2774E
330
747D
100
AcDbEntity
  8
部品1
 48
50.0
100
AcDbLine
 10
9073.600000000007
 20
6564.932665440719
 30
0.0
 11
9073.600000000007
 21
6764.932665440719
 31
0.0
  0
LINE
  5
2774F
330
747D
100
AcDbEntity
  8
細線
 48
50.0
100
AcDbLine
 10
8598.599999999995
 20
7126.759035019873
 30
0.0
 11
8616.773630420812
 21
7144.932665440688
 31
0.0
  0
LINE
  5
27750
330
747D
100
AcDbEntity
  8
細線
 48
50.0
100
AcDbLine
 10
9548.599999999998
 20
7081.85775441453
 30
0.0
 11
9611.674911026156
 21
7144.932665440688
 31
0.0
  0
LINE
  5
27751
330
747D
100
AcDbEntity
  8
細線
 48
50.0
100
AcDbLine
 10
9548.599999999998
 20
7036.956473809181
 30
0.0
 11
9656.576191631502
 21
7144.932665440688
 31
0.0
  0
LINE
  5
27752
330
747D
100
AcDbEntity
  8
細線
 48
50.0
100
AcDbLine
 10
9548.599999999998
 20
6992.055193203835
 30
0.0
 11
9701.477472236851
 21
7144.932665440688
 31
0.0
  0
LINE
  5
27753
330
747D
100
AcDbEntity
  8
細線
 48
50.0
100
AcDbLine
 10
9548.600000000002
 20
6947.153912598493
 30
0.0
 11
9746.378752842193
 21
7144.932665440688
 31
0.0
  0
LINE
  5
27754
330
747D
100
AcDbEntity
  8
部品1
 48
50.0
100
AcDbLine
 10
9748.599999999996
 20
7144.932665440688
 30
0.0
 11
9748.600000000003
 21
6944.932665440702
 31
0.0
  0
LINE
  5
27755
330
747D
100
AcDbEntity
  8
部品1
 48
50.0
100
AcDbLine
 10
9548.599999999995
 20
7144.932665440688
 30
0.0
 11
9548.600000000002
 21
6944.932665440702
 31
0.0
  0
LINE
  5
27756
330
747D
100
AcDbEntity
  8
細線
 48
50.0
100
AcDbLine
 10
9591.280033447555
 20
6944.9326654407
 30
0.0
 11
9748.599999999996
 21
7102.252631993144
 31
0.0
  0
LINE
  5
27757
330
747D
100
AcDbEntity
  8
細線
 48
50.0
100
AcDbLine
 10
9636.181314052917
 20
6944.932665440703
 30
0.0
 11
9748.600000000003
 21
7057.351351387803
 31
0.0
  0
LINE
  5
27758
330
747D
100
AcDbEntity
  8
部品1
 48
50.0
100
AcDbLine
 10
9273.600000000007
 20
6564.932665440719
 30
0.0
 11
9273.600000000007
 21
6764.932665440719
 31
0.0
  0
LINE
  5
27759
330
747D
100
AcDbEntity
  8
部品1
 48
50.0
100
AcDbLine
 10
10023.60000000001
 20
6564.932665440719
 30
0.0
 11
10023.60000000001
 21
6764.932665440719
 31
0.0
  0
LINE
  5
2775A
330
747D
100
AcDbEntity
  8
細線
 48
50.0
100
AcDbLine
 10
9681.082594658253
 20
6944.932665440703
 30
0.0
 11
9748.599999999999
 21
7012.450070782448
 31
0.0
  0
LINE
  5
2775B
330
747D
100
AcDbEntity
  8
細線
 48
50.0
100
AcDbLine
 10
9725.98387526361
 20
6944.932665440702
 30
0.0
 11
9748.600000000003
 21
6967.548790177099
 31
0.0
  0
LINE
  5
2775C
330
747D
100
AcDbEntity
  8
センター
 48
2.0
100
AcDbLine
 10
10005.6
 20
7071.932665440719
 30
0.0
 11
10005.6
 21
6971.93266544072
 31
0.0
  0
LINE
  5
2775D
330
747D
100
AcDbEntity
  8
センター
 48
2.0
100
AcDbLine
 10
10005.6
 20
7071.932665440719
 30
0.0
 11
10005.6
 21
6971.93266544072
 31
0.0
  0
LINE
  5
2775E
330
747D
100
AcDbEntity
  8
センター
 48
2.0
100
AcDbLine
 10
9955.600000000002
 20
7021.932665440719
 30
0.0
 11
10055.6
 21
7021.932665440719
 31
0.0
  0
LINE
  5
2775F
330
747D
100
AcDbEntity
  8
センター
 48
2.0
100
AcDbLine
 10
9955.600000000002
 20
7021.932665440719
 30
0.0
 11
10055.6
 21
7021.932665440719
 31
0.0
  0
CIRCLE
  5
27760
330
747D
100
AcDbEntity
  8
部品1
 48
50.0
100
AcDbCircle
 10
10005.6
 20
7021.932665440719
 30
0.0
 40
35.0
  0
CIRCLE
  5
27761
330
747D
100
AcDbEntity
  8
部品1
 48
50.0
100
AcDbCircle
 10
10005.6
 20
7021.932665440719
 30
0.0
 40
35.0
  0
LINE
  5
27762
330
747D
100
AcDbEntity
  8
細線
 48
50.0
100
AcDbLine
 10
9548.599999999995
 20
7126.759035019873
 30
0.0
 11
9566.773630420811
 21
7144.932665440688
 31
0.0
  0
DIMENSION
  5
27763
330
747D
100
AcDbEntity
  8
寸法
 48
50.0
100
AcDbDimension
  2
*D51
 10
10123.60000000001
 20
7627.541482110967
 30
0.0
 11
10598.60000000001
 21
7627.541482110967
 31
0.0
 70
   160
 71
     5
 42
950.0
  3
INABA_S40G
100
AcDbAlignedDimension
 13
11073.60000000001
 23
6714.932665440719
 33
0.0
 14
10123.60000000001
 24
6714.932665440719
 34
0.0
100
AcDbRotatedDimension
1001
ACAD
1000
DSTYLE
1002
{
1070
   341
1005
0
1002
}
  0
LINE
  5
27764
330
747D
100
AcDbEntity
  8
部品1
 48
50.0
100
AcDbLine
 10
10698.59999999999
 20
7144.932665440688
 30
0.0
 11
10698.6
 21
6944.932665440702
 31
0.0
  0
LINE
  5
27765
330
747D
100
AcDbEntity
  8
細線
 48
50.0
100
AcDbLine
 10
10498.6
 20
7081.85775441453
 30
0.0
 11
10561.67491102615
 21
7144.932665440688
 31
0.0
  0
LINE
  5
27766
330
747D
100
AcDbEntity
  8
部品1
 48
50.0
100
AcDbLine
 10
10498.59999999999
 20
7144.932665440688
 30
0.0
 11
10498.6
 21
6944.932665440702
 31
0.0
  0
LINE
  5
27767
330
747D
100
AcDbEntity
  8
細線
 48
50.0
100
AcDbLine
 10
10498.6
 20
6947.153912598493
 30
0.0
 11
10696.37875284219
 21
7144.932665440688
 31
0.0
  0
LINE
  5
27768
330
747D
100
AcDbEntity
  8
細線
 48
50.0
100
AcDbLine
 10
10498.6
 20
6992.055193203835
 30
0.0
 11
10651.47747223685
 21
7144.932665440688
 31
0.0
  0
LINE
  5
27769
330
747D
100
AcDbEntity
  8
細線
 48
50.0
100
AcDbLine
 10
10498.6
 20
7036.956473809181
 30
0.0
 11
10606.5761916315
 21
7144.932665440688
 31
0.0
  0
LINE
  5
2776A
330
747D
100
AcDbEntity
  8
センター
 48
2.0
100
AcDbLine
 10
10123.60000000001
 20
6714.932665440719
 30
0.0
 11
10123.60000000001
 21
6614.932665440719
 31
0.0
  0
LINE
  5
2776B
330
747D
100
AcDbEntity
  8
部品1
 48
50.0
100
AcDbLine
 10
10223.60000000001
 20
6564.932665440719
 30
0.0
 11
10223.60000000001
 21
6764.932665440719
 31
0.0
  0
LINE
  5
2776C
330
747D
100
AcDbEntity
  8
細線
 48
50.0
100
AcDbLine
 10
10675.98387526361
 20
6944.932665440702
 30
0.0
 11
10698.6
 21
6967.548790177099
 31
0.0
  0
LINE
  5
2776D
330
747D
100
AcDbEntity
  8
細線
 48
50.0
100
AcDbLine
 10
10631.08259465825
 20
6944.932665440703
 30
0.0
 11
10698.6
 21
7012.450070782448
 31
0.0
  0
LINE
  5
2776E
330
747D
100
AcDbEntity
  8
細線
 48
50.0
100
AcDbLine
 10
10586.18131405291
 20
6944.932665440703
 30
0.0
 11
10698.6
 21
7057.351351387803
 31
0.0
  0
LINE
  5
2776F
330
747D
100
AcDbEntity
  8
細線
 48
50.0
100
AcDbLine
 10
10541.28003344755
 20
6944.9326654407
 30
0.0
 11
10698.59999999999
 21
7102.252631993144
 31
0.0
  0
LINE
  5
27770
330
747D
100
AcDbEntity
  8
細線
 48
50.0
100
AcDbLine
 10
10498.59999999999
 20
7126.759035019873
 30
0.0
 11
10516.77363042081
 21
7144.932665440688
 31
0.0
  0
LINE
  5
27771
330
747D
100
AcDbEntity
  8
部品1
 48
50.0
100
AcDbLine
 10
11648.59999999999
 20
7144.932665440688
 30
0.0
 11
11648.6
 21
6944.932665440702
 31
0.0
  0
LINE
  5
27772
330
747D
100
AcDbEntity
  8
部品1
 48
50.0
100
AcDbLine
 10
11448.59999999999
 20
7144.932665440688
 30
0.0
 11
11448.6
 21
6944.932665440702
 31
0.0
  0
LINE
  5
27773
330
747D
100
AcDbEntity
  8
細線
 48
50.0
100
AcDbLine
 10
11448.6
 20
7036.956473809181
 30
0.0
 11
11556.5761916315
 21
7144.932665440688
 31
0.0
  0
LINE
  5
27774
330
747D
100
AcDbEntity
  8
細線
 48
50.0
100
AcDbLine
 10
11448.6
 20
7081.85775441453
 30
0.0
 11
11511.67491102615
 21
7144.932665440688
 31
0.0
  0
LINE
  5
27775
330
747D
100
AcDbEntity
  8
細線
 48
50.0
100
AcDbLine
 10
11448.6
 20
6947.153912598493
 30
0.0
 11
11646.37875284219
 21
7144.932665440688
 31
0.0
  0
LINE
  5
27776
330
747D
100
AcDbEntity
  8
細線
 48
50.0
100
AcDbLine
 10
11448.6
 20
6992.055193203835
 30
0.0
 11
11601.47747223685
 21
7144.932665440688
 31
0.0
  0
LINE
  5
27777
330
747D
100
AcDbEntity
  8
センター
 48
2.0
100
AcDbLine
 10
11023.60000000001
 20
6664.932665440719
 30
0.0
 11
11123.60000000001
 21
6664.932665440719
 31
0.0
  0
LINE
  5
27778
330
747D
100
AcDbEntity
  8
部品1
 48
50.0
100
AcDbLine
 10
11173.60000000001
 20
6764.932665440719
 30
0.0
 11
10973.60000000001
 21
6764.932665440719
 31
0.0
  0
LINE
  5
27779
330
747D
100
AcDbEntity
  8
部品1
 48
50.0
100
AcDbLine
 10
11173.60000000001
 20
6564.932665440719
 30
0.0
 11
10973.60000000001
 21
6564.932665440719
 31
0.0
  0
LINE
  5
2777A
330
747D
100
AcDbEntity
  8
センター
 48
2.0
100
AcDbLine
 10
11073.60000000001
 20
6714.932665440719
 30
0.0
 11
11073.60000000001
 21
6614.932665440719
 31
0.0
  0
LINE
  5
2777B
330
747D
100
AcDbEntity
  8
部品1
 48
50.0
100
AcDbLine
 10
10973.60000000001
 20
6564.932665440719
 30
0.0
 11
10973.60000000001
 21
6764.932665440719
 31
0.0
  0
LINE
  5
2777C
330
747D
100
AcDbEntity
  8
部品1
 48
50.0
100
AcDbLine
 10
11173.60000000001
 20
6564.932665440719
 30
0.0
 11
11173.60000000001
 21
6764.932665440719
 31
0.0
  0
LINE
  5
2777D
330
747D
100
AcDbEntity
  8
細線
 48
50.0
100
AcDbLine
 10
11491.28003344755
 20
6944.9326654407
 30
0.0
 11
11648.59999999999
 21
7102.252631993144
 31
0.0
  0
LINE
  5
2777E
330
747D
100
AcDbEntity
  8
細線
 48
50.0
100
AcDbLine
 10
11625.98387526361
 20
6944.932665440702
 30
0.0
 11
11648.6
 21
6967.548790177099
 31
0.0
  0
LINE
  5
2777F
330
747D
100
AcDbEntity
  8
細線
 48
50.0
100
AcDbLine
 10
11581.08259465825
 20
6944.932665440703
 30
0.0
 11
11648.6
 21
7012.450070782448
 31
0.0
  0
LINE
  5
27780
330
747D
100
AcDbEntity
  8
細線
 48
50.0
100
AcDbLine
 10
11536.18131405291
 20
6944.932665440703
 30
0.0
 11
11648.6
 21
7057.351351387803
 31
0.0
  0
LINE
  5
27781
330
747D
100
AcDbEntity
  8
細線
 48
50.0
100
AcDbLine
 10
11448.59999999999
 20
7126.759035019873
 30
0.0
 11
11466.77363042081
 21
7144.932665440688
 31
0.0
  0
DIMENSION
  5
27782
330
747D
100
AcDbEntity
  8
寸法
 48
50.0
100
AcDbDimension
  2
*D52
 10
12855.6
 20
7871.19912353463
 30
0.0
 11
13251.7066017178
 21
7871.19912353463
 31
0.0
 70
   160
 71
     5
 42
123.0
  3
INABA_S40G
100
AcDbAlignedDimension
 13
12978.6
 23
7144.93266544072
 33
0.0
 14
12855.6
 24
7071.932665440719
 34
0.0
100
AcDbRotatedDimension
1001
ACAD
1000
DSTYLE
1002
{
1070
   341
1005
0
1002
}
  0
DIMENSION
  5
27784
330
747D
100
AcDbEntity
  8
寸法
 48
50.0
100
AcDbDimension
  2
*D53
 10
12023.6
 20
7627.541482110967
 30
0.0
 11
12501.1
 21
7727.541482110968
 31
0.0
 70
    32
 71
     5
 42
954.9999999999927
  3
INABA_S40G
100
AcDbAlignedDimension
 13
12978.6
 23
7144.93266544072
 33
0.0
 14
12023.6
 24
6714.932665440719
 34
0.0
100
AcDbRotatedDimension
1001
ACAD
1000
DSTYLE
1002
{
1070
   341
1005
0
1002
}
  0
LINE
  5
27786
330
747D
100
AcDbEntity
  8
細線
 48
50.0
100
AcDbLine
 10
12398.6
 20
6992.055193203835
 30
0.0
 11
12551.47747223685
 21
7144.932665440688
 31
0.0
  0
LINE
  5
27787
330
747D
100
AcDbEntity
  8
細線
 48
50.0
100
AcDbLine
 10
12398.6
 20
6947.153912598493
 30
0.0
 11
12596.37875284219
 21
7144.932665440688
 31
0.0
  0
LINE
  5
27788
330
747D
100
AcDbEntity
  8
細線
 48
50.0
100
AcDbLine
 10
12441.28003344755
 20
6944.9326654407
 30
0.0
 11
12598.59999999999
 21
7102.252631993144
 31
0.0
  0
LINE
  5
27789
330
747D
100
AcDbEntity
  8
細線
 48
50.0
100
AcDbLine
 10
12486.18131405291
 20
6944.932665440703
 30
0.0
 11
12598.6
 21
7057.351351387803
 31
0.0
  0
LINE
  5
2778A
330
747D
100
AcDbEntity
  8
細線
 48
50.0
100
AcDbLine
 10
12531.08259465825
 20
6944.932665440703
 30
0.0
 11
12598.6
 21
7012.450070782448
 31
0.0
  0
LINE
  5
2778B
330
747D
100
AcDbEntity
  8
細線
 48
50.0
100
AcDbLine
 10
12398.6
 20
7036.956473809181
 30
0.0
 11
12506.5761916315
 21
7144.932665440688
 31
0.0
  0
LINE
  5
2778C
330
747D
100
AcDbEntity
  8
部品1
 48
50.0
100
AcDbLine
 10
12398.59999999999
 20
7144.932665440688
 30
0.0
 11
12398.6
 21
6944.932665440702
 31
0.0
  0
LINE
  5
2778D
330
747D
100
AcDbEntity
  8
細線
 48
50.0
100
AcDbLine
 10
12398.6
 20
7081.85775441453
 30
0.0
 11
12461.67491102615
 21
7144.932665440688
 31
0.0
  0
LINE
  5
2778E
330
747D
100
AcDbEntity
  8
部品1
 48
50.0
100
AcDbLine
 10
12123.6
 20
6764.932665440719
 30
0.0
 11
11923.6
 21
6764.932665440719
 31
0.0
  0
LINE
  5
2778F
330
747D
100
AcDbEntity
  8
部品1
 48
50.0
100
AcDbLine
 10
12123.6
 20
6564.932665440719
 30
0.0
 11
11923.6
 21
6564.932665440719
 31
0.0
  0
LINE
  5
27790
330
747D
100
AcDbEntity
  8
部品1
 48
50.0
100
AcDbLine
 10
11923.6
 20
6564.932665440719
 30
0.0
 11
11923.6
 21
6764.932665440719
 31
0.0
  0
LINE
  5
27791
330
747D
100
AcDbEntity
  8
センター
 48
2.0
100
AcDbLine
 10
12023.6
 20
6714.932665440719
 30
0.0
 11
12023.6
 21
6614.932665440719
 31
0.0
  0
LINE
  5
27792
330
747D
100
AcDbEntity
  8
センター
 48
2.0
100
AcDbLine
 10
11973.60000000001
 20
6664.932665440719
 30
0.0
 11
12073.60000000001
 21
6664.932665440719
 31
0.0
  0
LINE
  5
27793
330
747D
100
AcDbEntity
  8
部品1
 48
50.0
100
AcDbLine
 10
12123.6
 20
6564.932665440719
 30
0.0
 11
12123.6
 21
6764.932665440719
 31
0.0
  0
LINE
  5
27794
330
747D
100
AcDbEntity
  8
細線
 48
50.0
100
AcDbLine
 10
12398.59999999999
 20
7126.759035019873
 30
0.0
 11
12416.77363042081
 21
7144.932665440688
 31
0.0
  0
LINE
  5
27795
330
747D
100
AcDbEntity
  8
部品1
 48
50.0
100
AcDbLine
 10
12598.59999999999
 20
7144.932665440688
 30
0.0
 11
12598.6
 21
6944.932665440702
 31
0.0
  0
LINE
  5
27796
330
747D
100
AcDbEntity
  8
細線
 48
50.0
100
AcDbLine
 10
12926.18131405289
 20
6589.932665440753
 30
0.0
 11
12978.59999999999
 21
6642.351351387848
 31
0.0
  0
LINE
  5
27797
330
747D
100
AcDbEntity
  8
細線
 48
50.0
100
AcDbLine
 10
12881.28003344755
 20
6589.932665440753
 30
0.0
 11
12978.59999999999
 21
6687.252631993193
 31
0.0
  0
LINE
  5
27798
330
747D
100
AcDbEntity
  8
細線
 48
50.0
100
AcDbLine
 10
12858.6
 20
6612.15391259855
 30
0.0
 11
12978.59999999999
 21
6732.153912598537
 31
0.0
  0
LINE
  5
27799
330
747D
100
AcDbEntity
  8
細線
 48
50.0
100
AcDbLine
 10
12858.6
 20
6657.055193203897
 30
0.0
 11
12978.59999999999
 21
6777.055193203884
 31
0.0
  0
LINE
  5
2779A
330
747D
100
AcDbEntity
  8
部品1
 48
50.0
100
AcDbLine
 10
12978.59999999999
 20
6789.932665440755
 30
0.0
 11
12858.6
 21
6789.932665440755
 31
0.0
  0
LINE
  5
2779B
330
747D
100
AcDbEntity
  8
部品1
 48
50.0
100
AcDbLine
 10
12978.59999999999
 20
6589.932665440755
 30
0.0
 11
12858.6
 21
6589.932665440755
 31
0.0
  0
LINE
  5
2779C
330
747D
100
AcDbEntity
  8
細線
 48
50.0
100
AcDbLine
 10
12858.6
 20
6701.956473809243
 30
0.0
 11
12946.57619163151
 21
6789.932665440753
 31
0.0
  0
LINE
  5
2779D
330
747D
100
AcDbEntity
  8
細線
 48
50.0
100
AcDbLine
 10
12858.6
 20
6746.857754414588
 30
0.0
 11
12901.67491102617
 21
6789.932665440755
 31
0.0
  0
LINE
  5
2779E
330
747D
100
AcDbEntity
  8
細線
 48
50.0
100
AcDbLine
 10
12575.98387526361
 20
6944.932665440702
 30
0.0
 11
12598.6
 21
6967.548790177099
 31
0.0
  0
LINE
  5
2779F
330
747D
100
AcDbEntity
  8
センター
 48
2.0
100
AcDbLine
 10
12855.6
 20
7071.932665440719
 30
0.0
 11
12855.6
 21
6971.93266544072
 31
0.0
  0
LINE
  5
277A0
330
747D
100
AcDbEntity
  8
センター
 48
2.0
100
AcDbLine
 10
12805.6
 20
7021.932665440719
 30
0.0
 11
12905.6
 21
7021.932665440719
 31
0.0
  0
CIRCLE
  5
277A1
330
747D
100
AcDbEntity
  8
部品1
 48
50.0
100
AcDbCircle
 10
12855.6
 20
7021.932665440719
 30
0.0
 40
35.0
  0
LINE
  5
277A2
330
747D
100
AcDbEntity
  8
細線
 48
50.0
100
AcDbLine
 10
12971.08259465824
 20
6589.932665440752
 30
0.0
 11
12978.59999999999
 21
6597.4500707825
 31
0.0
  0
TEXT
  5
27EE3
330
747D
100
AcDbEntity
  8
文字
 62
     7
 48
50.0
100
AcDbText
 10
14251.2
 20
838.2527270729188
 30
0.0
 40
100.0
  1
～一般型・多雪地型・豪雪地型～
  7
STYLE2
100
AcDbText
  0
LINE
  5
27F03
330
747D
100
AcDbEntity
  8
部品1
 48
50.0
100
AcDbLine
 10
12858.6
 20
6464.932665440753
 30
0.0
 11
3588.600000000001
 21
6464.932665440716
 31
0.0
  0
LINE
  5
27F04
330
747D
100
AcDbEntity
  8
細線
 48
50.0
100
AcDbLine
 10
4979.305645554457
 20
6184.932665440714
 30
0.0
 11
4998.6
 21
6204.227019886255
 31
0.0
  0
LINE
  5
27F05
330
747D
100
AcDbEntity
  8
細線
 48
50.0
100
AcDbLine
 10
4934.404364949114
 20
6184.932665440712
 30
0.0
 11
4998.6
 21
6249.128300491601
 31
0.0
  0
LINE
  5
27F06
330
747D
100
AcDbEntity
  8
細線
 48
50.0
100
AcDbLine
 10
4889.503084343765
 20
6184.932665440711
 30
0.0
 11
4998.599999999999
 21
6294.029581096946
 31
0.0
  0
LINE
  5
27F07
330
747D
100
AcDbEntity
  8
部品1
 48
50.0
100
AcDbLine
 10
4998.599999999993
 20
6464.932665440719
 30
0.0
 11
4998.599999999999
 21
6184.932665440712
 31
0.0
  0
LINE
  5
27F08
330
747D
100
AcDbEntity
  8
細線
 48
50.0
100
AcDbLine
 10
4798.599999999995
 20
6408.338545334363
 30
0.0
 11
4855.194120106339
 21
6464.932665440717
 31
0.0
  0
LINE
  5
27F09
330
747D
100
AcDbEntity
  8
細線
 48
50.0
100
AcDbLine
 10
4798.599999999996
 20
6363.437264729022
 30
0.0
 11
4900.095400711689
 21
6464.932665440719
 31
0.0
  0
LINE
  5
27F0A
330
747D
100
AcDbEntity
  8
部品1
 48
50.0
100
AcDbLine
 10
4798.599999999994
 20
6464.932665440717
 30
0.0
 11
4798.599999999999
 21
6184.932665440708
 31
0.0
  0
LINE
  5
27F0B
330
747D
100
AcDbEntity
  8
細線
 48
50.0
100
AcDbLine
 10
4844.601803738417
 20
6184.932665440711
 30
0.0
 11
4998.599999999997
 21
6338.930861702289
 31
0.0
  0
LINE
  5
27F0C
330
747D
100
AcDbEntity
  8
細線
 48
50.0
100
AcDbLine
 10
4799.700523133073
 20
6184.932665440708
 30
0.0
 11
4998.599999999997
 21
6383.832142307634
 31
0.0
  0
LINE
  5
27F0D
330
747D
100
AcDbEntity
  8
細線
 48
50.0
100
AcDbLine
 10
4798.599999999999
 20
6228.733422912983
 30
0.0
 11
4998.599999999995
 21
6428.733422912976
 31
0.0
  0
LINE
  5
27F0E
330
747D
100
AcDbEntity
  8
細線
 48
50.0
100
AcDbLine
 10
4798.599999999996
 20
6273.634703518328
 30
0.0
 11
4989.897961922389
 21
6464.932665440717
 31
0.0
  0
LINE
  5
27F0F
330
747D
100
AcDbEntity
  8
細線
 48
50.0
100
AcDbLine
 10
4798.599999999999
 20
6318.535984123672
 30
0.0
 11
4944.99668131703
 21
6464.932665440719
 31
0.0
  0
LINE
  5
27F10
330
747D
100
AcDbEntity
  8
細線
 48
50.0
100
AcDbLine
 10
5929.305645554457
 20
6184.932665440714
 30
0.0
 11
5948.6
 21
6204.227019886255
 31
0.0
  0
LINE
  5
27F11
330
747D
100
AcDbEntity
  8
細線
 48
50.0
100
AcDbLine
 10
5884.404364949114
 20
6184.932665440712
 30
0.0
 11
5948.6
 21
6249.128300491601
 31
0.0
  0
LINE
  5
27F12
330
747D
100
AcDbEntity
  8
細線
 48
50.0
100
AcDbLine
 10
5839.503084343765
 20
6184.932665440711
 30
0.0
 11
5948.599999999998
 21
6294.029581096946
 31
0.0
  0
LINE
  5
27F13
330
747D
100
AcDbEntity
  8
部品1
 48
50.0
100
AcDbLine
 10
5948.599999999993
 20
6464.932665440719
 30
0.0
 11
5948.599999999998
 21
6184.932665440712
 31
0.0
  0
LINE
  5
27F14
330
747D
100
AcDbEntity
  8
細線
 48
50.0
100
AcDbLine
 10
5748.599999999995
 20
6408.338545334363
 30
0.0
 11
5805.194120106339
 21
6464.932665440717
 31
0.0
  0
LINE
  5
27F15
330
747D
100
AcDbEntity
  8
細線
 48
50.0
100
AcDbLine
 10
5748.599999999997
 20
6363.437264729022
 30
0.0
 11
5850.09540071169
 21
6464.932665440719
 31
0.0
  0
LINE
  5
27F16
330
747D
100
AcDbEntity
  8
部品1
 48
50.0
100
AcDbLine
 10
5748.599999999994
 20
6464.932665440717
 30
0.0
 11
5748.599999999999
 21
6184.932665440708
 31
0.0
  0
LINE
  5
27F17
330
747D
100
AcDbEntity
  8
細線
 48
50.0
100
AcDbLine
 10
5794.601803738416
 20
6184.932665440711
 30
0.0
 11
5948.599999999997
 21
6338.930861702289
 31
0.0
  0
LINE
  5
27F18
330
747D
100
AcDbEntity
  8
細線
 48
50.0
100
AcDbLine
 10
5749.700523133073
 20
6184.932665440708
 30
0.0
 11
5948.599999999997
 21
6383.832142307634
 31
0.0
  0
LINE
  5
27F19
330
747D
100
AcDbEntity
  8
細線
 48
50.0
100
AcDbLine
 10
5748.599999999999
 20
6228.733422912983
 30
0.0
 11
5948.599999999995
 21
6428.733422912976
 31
0.0
  0
LINE
  5
27F1A
330
747D
100
AcDbEntity
  8
細線
 48
50.0
100
AcDbLine
 10
5748.599999999997
 20
6273.634703518328
 30
0.0
 11
5939.897961922389
 21
6464.932665440717
 31
0.0
  0
LINE
  5
27F1B
330
747D
100
AcDbEntity
  8
細線
 48
50.0
100
AcDbLine
 10
5748.599999999999
 20
6318.535984123672
 30
0.0
 11
5894.996681317031
 21
6464.932665440719
 31
0.0
  0
LINE
  5
27F1C
330
747D
100
AcDbEntity
  8
細線
 48
50.0
100
AcDbLine
 10
6879.305645554457
 20
6184.932665440714
 30
0.0
 11
6898.6
 21
6204.227019886255
 31
0.0
  0
LINE
  5
27F1D
330
747D
100
AcDbEntity
  8
細線
 48
50.0
100
AcDbLine
 10
6834.404364949114
 20
6184.932665440712
 30
0.0
 11
6898.6
 21
6249.128300491601
 31
0.0
  0
LINE
  5
27F1E
330
747D
100
AcDbEntity
  8
細線
 48
50.0
100
AcDbLine
 10
6789.503084343765
 20
6184.932665440711
 30
0.0
 11
6898.599999999999
 21
6294.029581096946
 31
0.0
  0
LINE
  5
27F1F
330
747D
100
AcDbEntity
  8
部品1
 48
50.0
100
AcDbLine
 10
6898.599999999993
 20
6464.932665440719
 30
0.0
 11
6898.599999999999
 21
6184.932665440712
 31
0.0
  0
LINE
  5
27F20
330
747D
100
AcDbEntity
  8
細線
 48
50.0
100
AcDbLine
 10
6698.599999999995
 20
6408.338545334363
 30
0.0
 11
6755.194120106338
 21
6464.932665440717
 31
0.0
  0
LINE
  5
27F21
330
747D
100
AcDbEntity
  8
細線
 48
50.0
100
AcDbLine
 10
6698.599999999996
 20
6363.437264729022
 30
0.0
 11
6800.09540071169
 21
6464.932665440719
 31
0.0
  0
LINE
  5
27F22
330
747D
100
AcDbEntity
  8
部品1
 48
50.0
100
AcDbLine
 10
6698.599999999995
 20
6464.932665440717
 30
0.0
 11
6698.599999999998
 21
6184.932665440708
 31
0.0
  0
LINE
  5
27F23
330
747D
100
AcDbEntity
  8
細線
 48
50.0
100
AcDbLine
 10
6744.601803738416
 20
6184.932665440711
 30
0.0
 11
6898.599999999998
 21
6338.930861702289
 31
0.0
  0
LINE
  5
27F24
330
747D
100
AcDbEntity
  8
細線
 48
50.0
100
AcDbLine
 10
6699.700523133073
 20
6184.932665440708
 30
0.0
 11
6898.599999999998
 21
6383.832142307634
 31
0.0
  0
LINE
  5
27F25
330
747D
100
AcDbEntity
  8
細線
 48
50.0
100
AcDbLine
 10
6698.599999999998
 20
6228.733422912983
 30
0.0
 11
6898.599999999994
 21
6428.733422912976
 31
0.0
  0
LINE
  5
27F26
330
747D
100
AcDbEntity
  8
細線
 48
50.0
100
AcDbLine
 10
6698.599999999996
 20
6273.634703518328
 30
0.0
 11
6889.89796192239
 21
6464.932665440717
 31
0.0
  0
LINE
  5
27F27
330
747D
100
AcDbEntity
  8
細線
 48
50.0
100
AcDbLine
 10
6698.599999999998
 20
6318.535984123672
 30
0.0
 11
6844.996681317031
 21
6464.932665440719
 31
0.0
  0
LINE
  5
27F28
330
747D
100
AcDbEntity
  8
細線
 48
50.0
100
AcDbLine
 10
7829.305645554457
 20
6184.932665440714
 30
0.0
 11
7848.600000000001
 21
6204.227019886255
 31
0.0
  0
LINE
  5
27F29
330
747D
100
AcDbEntity
  8
細線
 48
50.0
100
AcDbLine
 10
7784.404364949114
 20
6184.932665440712
 30
0.0
 11
7848.600000000001
 21
6249.128300491601
 31
0.0
  0
LINE
  5
27F2A
330
747D
100
AcDbEntity
  8
細線
 48
50.0
100
AcDbLine
 10
7739.503084343765
 20
6184.932665440711
 30
0.0
 11
7848.599999999999
 21
6294.029581096946
 31
0.0
  0
LINE
  5
27F2B
330
747D
100
AcDbEntity
  8
部品1
 48
50.0
100
AcDbLine
 10
7848.599999999994
 20
6464.932665440719
 30
0.0
 11
7848.599999999999
 21
6184.932665440712
 31
0.0
  0
LINE
  5
27F2C
330
747D
100
AcDbEntity
  8
細線
 48
50.0
100
AcDbLine
 10
7648.599999999994
 20
6408.338545334363
 30
0.0
 11
7705.194120106338
 21
6464.932665440717
 31
0.0
  0
LINE
  5
27F2D
330
747D
100
AcDbEntity
  8
細線
 48
50.0
100
AcDbLine
 10
7648.599999999998
 20
6363.437264729022
 30
0.0
 11
7750.09540071169
 21
6464.932665440719
 31
0.0
  0
LINE
  5
27F2E
330
747D
100
AcDbEntity
  8
部品1
 48
50.0
100
AcDbLine
 10
7648.599999999994
 20
6464.932665440717
 30
0.0
 11
7648.599999999999
 21
6184.932665440708
 31
0.0
  0
LINE
  5
27F2F
330
747D
100
AcDbEntity
  8
細線
 48
50.0
100
AcDbLine
 10
7694.601803738416
 20
6184.932665440711
 30
0.0
 11
7848.599999999997
 21
6338.930861702289
 31
0.0
  0
LINE
  5
27F30
330
747D
100
AcDbEntity
  8
細線
 48
50.0
100
AcDbLine
 10
7649.700523133073
 20
6184.932665440708
 30
0.0
 11
7848.599999999997
 21
6383.832142307634
 31
0.0
  0
LINE
  5
27F31
330
747D
100
AcDbEntity
  8
細線
 48
50.0
100
AcDbLine
 10
7648.599999999999
 20
6228.733422912983
 30
0.0
 11
7848.599999999994
 21
6428.733422912976
 31
0.0
  0
LINE
  5
27F32
330
747D
100
AcDbEntity
  8
細線
 48
50.0
100
AcDbLine
 10
7648.599999999998
 20
6273.634703518328
 30
0.0
 11
7839.897961922389
 21
6464.932665440717
 31
0.0
  0
LINE
  5
27F33
330
747D
100
AcDbEntity
  8
細線
 48
50.0
100
AcDbLine
 10
7648.599999999999
 20
6318.535984123672
 30
0.0
 11
7794.99668131703
 21
6464.932665440719
 31
0.0
  0
LINE
  5
27F34
330
747D
100
AcDbEntity
  8
細線
 48
50.0
100
AcDbLine
 10
8779.305645554456
 20
6184.932665440714
 30
0.0
 11
8798.6
 21
6204.227019886255
 31
0.0
  0
LINE
  5
27F35
330
747D
100
AcDbEntity
  8
細線
 48
50.0
100
AcDbLine
 10
8734.404364949114
 20
6184.932665440712
 30
0.0
 11
8798.6
 21
6249.128300491601
 31
0.0
  0
LINE
  5
27F36
330
747D
100
AcDbEntity
  8
細線
 48
50.0
100
AcDbLine
 10
8689.503084343765
 20
6184.932665440711
 30
0.0
 11
8798.599999999998
 21
6294.029581096946
 31
0.0
  0
LINE
  5
27F37
330
747D
100
AcDbEntity
  8
部品1
 48
50.0
100
AcDbLine
 10
8798.599999999993
 20
6464.932665440719
 30
0.0
 11
8798.599999999998
 21
6184.932665440712
 31
0.0
  0
LINE
  5
27F38
330
747D
100
AcDbEntity
  8
細線
 48
50.0
100
AcDbLine
 10
8598.599999999995
 20
6408.338545334363
 30
0.0
 11
8655.194120106338
 21
6464.932665440717
 31
0.0
  0
LINE
  5
27F39
330
747D
100
AcDbEntity
  8
細線
 48
50.0
100
AcDbLine
 10
8598.599999999997
 20
6363.437264729022
 30
0.0
 11
8700.095400711688
 21
6464.932665440719
 31
0.0
  0
LINE
  5
27F3A
330
747D
100
AcDbEntity
  8
部品1
 48
50.0
100
AcDbLine
 10
8598.599999999995
 20
6464.932665440717
 30
0.0
 11
8598.599999999999
 21
6184.932665440708
 31
0.0
  0
LINE
  5
27F3B
330
747D
100
AcDbEntity
  8
細線
 48
50.0
100
AcDbLine
 10
8644.601803738416
 20
6184.932665440711
 30
0.0
 11
8798.599999999998
 21
6338.930861702289
 31
0.0
  0
LINE
  5
27F3C
330
747D
100
AcDbEntity
  8
細線
 48
50.0
100
AcDbLine
 10
8599.700523133073
 20
6184.932665440708
 30
0.0
 11
8798.599999999998
 21
6383.832142307634
 31
0.0
  0
LINE
  5
27F3D
330
747D
100
AcDbEntity
  8
細線
 48
50.0
100
AcDbLine
 10
8598.599999999999
 20
6228.733422912983
 30
0.0
 11
8798.599999999995
 21
6428.733422912976
 31
0.0
  0
LINE
  5
27F3E
330
747D
100
AcDbEntity
  8
細線
 48
50.0
100
AcDbLine
 10
8598.599999999997
 20
6273.634703518328
 30
0.0
 11
8789.89796192239
 21
6464.932665440717
 31
0.0
  0
LINE
  5
27F3F
330
747D
100
AcDbEntity
  8
細線
 48
50.0
100
AcDbLine
 10
8598.599999999999
 20
6318.535984123672
 30
0.0
 11
8744.996681317031
 21
6464.932665440719
 31
0.0
  0
LINE
  5
27F40
330
747D
100
AcDbEntity
  8
細線
 48
50.0
100
AcDbLine
 10
9548.599999999998
 20
6318.535984123672
 30
0.0
 11
9694.99668131703
 21
6464.932665440719
 31
0.0
  0
LINE
  5
27F41
330
747D
100
AcDbEntity
  8
細線
 48
50.0
100
AcDbLine
 10
9548.599999999998
 20
6273.634703518328
 30
0.0
 11
9739.897961922391
 21
6464.932665440717
 31
0.0
  0
LINE
  5
27F42
330
747D
100
AcDbEntity
  8
細線
 48
50.0
100
AcDbLine
 10
9548.599999999998
 20
6228.733422912983
 30
0.0
 11
9748.599999999996
 21
6428.733422912976
 31
0.0
  0
LINE
  5
27F43
330
747D
100
AcDbEntity
  8
細線
 48
50.0
100
AcDbLine
 10
9549.700523133074
 20
6184.932665440708
 30
0.0
 11
9748.599999999997
 21
6383.832142307634
 31
0.0
  0
LINE
  5
27F44
330
747D
100
AcDbEntity
  8
細線
 48
50.0
100
AcDbLine
 10
9594.601803738417
 20
6184.932665440711
 30
0.0
 11
9748.599999999997
 21
6338.930861702289
 31
0.0
  0
LINE
  5
27F45
330
747D
100
AcDbEntity
  8
部品1
 48
50.0
100
AcDbLine
 10
9548.599999999995
 20
6464.932665440717
 30
0.0
 11
9548.599999999998
 21
6184.932665440708
 31
0.0
  0
LINE
  5
27F46
330
747D
100
AcDbEntity
  8
細線
 48
50.0
100
AcDbLine
 10
9548.599999999998
 20
6363.437264729022
 30
0.0
 11
9650.095400711689
 21
6464.932665440719
 31
0.0
  0
LINE
  5
27F47
330
747D
100
AcDbEntity
  8
細線
 48
50.0
100
AcDbLine
 10
9548.599999999995
 20
6408.338545334363
 30
0.0
 11
9605.194120106339
 21
6464.932665440717
 31
0.0
  0
LINE
  5
27F48
330
747D
100
AcDbEntity
  8
部品1
 48
50.0
100
AcDbLine
 10
9748.599999999994
 20
6464.932665440719
 30
0.0
 11
9748.599999999999
 21
6184.932665440712
 31
0.0
  0
LINE
  5
27F49
330
747D
100
AcDbEntity
  8
細線
 48
50.0
100
AcDbLine
 10
9639.503084343765
 20
6184.932665440711
 30
0.0
 11
9748.599999999999
 21
6294.029581096946
 31
0.0
  0
LINE
  5
27F4A
330
747D
100
AcDbEntity
  8
細線
 48
50.0
100
AcDbLine
 10
9684.404364949115
 20
6184.932665440712
 30
0.0
 11
9748.600000000001
 21
6249.128300491601
 31
0.0
  0
LINE
  5
27F4B
330
747D
100
AcDbEntity
  8
細線
 48
50.0
100
AcDbLine
 10
9729.305645554457
 20
6184.932665440714
 30
0.0
 11
9748.600000000001
 21
6204.227019886255
 31
0.0
  0
LINE
  5
27F4C
330
747D
100
AcDbEntity
  8
細線
 48
50.0
100
AcDbLine
 10
10498.6
 20
6318.535984123672
 30
0.0
 11
10644.99668131703
 21
6464.932665440719
 31
0.0
  0
LINE
  5
27F4D
330
747D
100
AcDbEntity
  8
細線
 48
50.0
100
AcDbLine
 10
10498.6
 20
6273.634703518328
 30
0.0
 11
10689.89796192239
 21
6464.932665440717
 31
0.0
  0
LINE
  5
27F4E
330
747D
100
AcDbEntity
  8
細線
 48
50.0
100
AcDbLine
 10
10498.6
 20
6228.733422912983
 30
0.0
 11
10698.59999999999
 21
6428.733422912976
 31
0.0
  0
LINE
  5
27F4F
330
747D
100
AcDbEntity
  8
細線
 48
50.0
100
AcDbLine
 10
10499.70052313307
 20
6184.932665440708
 30
0.0
 11
10698.6
 21
6383.832142307634
 31
0.0
  0
LINE
  5
27F50
330
747D
100
AcDbEntity
  8
細線
 48
50.0
100
AcDbLine
 10
10544.60180373841
 20
6184.932665440711
 30
0.0
 11
10698.6
 21
6338.930861702289
 31
0.0
  0
LINE
  5
27F51
330
747D
100
AcDbEntity
  8
部品1
 48
50.0
100
AcDbLine
 10
10498.59999999999
 20
6464.932665440717
 30
0.0
 11
10498.6
 21
6184.932665440708
 31
0.0
  0
LINE
  5
27F52
330
747D
100
AcDbEntity
  8
細線
 48
50.0
100
AcDbLine
 10
10498.6
 20
6363.437264729022
 30
0.0
 11
10600.09540071169
 21
6464.932665440719
 31
0.0
  0
LINE
  5
27F53
330
747D
100
AcDbEntity
  8
細線
 48
50.0
100
AcDbLine
 10
10498.59999999999
 20
6408.338545334363
 30
0.0
 11
10555.19412010634
 21
6464.932665440717
 31
0.0
  0
LINE
  5
27F54
330
747D
100
AcDbEntity
  8
部品1
 48
50.0
100
AcDbLine
 10
10698.59999999999
 20
6464.932665440719
 30
0.0
 11
10698.6
 21
6184.932665440712
 31
0.0
  0
LINE
  5
27F55
330
747D
100
AcDbEntity
  8
細線
 48
50.0
100
AcDbLine
 10
10589.50308434376
 20
6184.932665440711
 30
0.0
 11
10698.6
 21
6294.029581096946
 31
0.0
  0
LINE
  5
27F56
330
747D
100
AcDbEntity
  8
細線
 48
50.0
100
AcDbLine
 10
10634.40436494911
 20
6184.932665440712
 30
0.0
 11
10698.6
 21
6249.128300491601
 31
0.0
  0
LINE
  5
27F57
330
747D
100
AcDbEntity
  8
細線
 48
50.0
100
AcDbLine
 10
10679.30564555445
 20
6184.932665440714
 30
0.0
 11
10698.6
 21
6204.227019886255
 31
0.0
  0
LINE
  5
27F58
330
747D
100
AcDbEntity
  8
細線
 48
50.0
100
AcDbLine
 10
11448.6
 20
6318.535984123672
 30
0.0
 11
11594.99668131703
 21
6464.932665440719
 31
0.0
  0
LINE
  5
27F59
330
747D
100
AcDbEntity
  8
細線
 48
50.0
100
AcDbLine
 10
11448.59999999999
 20
6273.634703518328
 30
0.0
 11
11639.89796192239
 21
6464.932665440717
 31
0.0
  0
LINE
  5
27F5A
330
747D
100
AcDbEntity
  8
細線
 48
50.0
100
AcDbLine
 10
11448.6
 20
6228.733422912983
 30
0.0
 11
11648.59999999999
 21
6428.733422912976
 31
0.0
  0
LINE
  5
27F5B
330
747D
100
AcDbEntity
  8
細線
 48
50.0
100
AcDbLine
 10
11449.70052313307
 20
6184.932665440708
 30
0.0
 11
11648.6
 21
6383.832142307634
 31
0.0
  0
LINE
  5
27F5C
330
747D
100
AcDbEntity
  8
細線
 48
50.0
100
AcDbLine
 10
11494.60180373842
 20
6184.932665440711
 30
0.0
 11
11648.6
 21
6338.930861702289
 31
0.0
  0
LINE
  5
27F5D
330
747D
100
AcDbEntity
  8
部品1
 48
50.0
100
AcDbLine
 10
11448.59999999999
 20
6464.932665440717
 30
0.0
 11
11448.6
 21
6184.932665440708
 31
0.0
  0
LINE
  5
27F5E
330
747D
100
AcDbEntity
  8
細線
 48
50.0
100
AcDbLine
 10
11448.59999999999
 20
6363.437264729022
 30
0.0
 11
11550.09540071169
 21
6464.932665440719
 31
0.0
  0
LINE
  5
27F5F
330
747D
100
AcDbEntity
  8
細線
 48
50.0
100
AcDbLine
 10
11448.59999999999
 20
6408.338545334363
 30
0.0
 11
11505.19412010634
 21
6464.932665440717
 31
0.0
  0
LINE
  5
27F60
330
747D
100
AcDbEntity
  8
部品1
 48
50.0
100
AcDbLine
 10
11648.59999999999
 20
6464.932665440719
 30
0.0
 11
11648.6
 21
6184.932665440712
 31
0.0
  0
LINE
  5
27F61
330
747D
100
AcDbEntity
  8
細線
 48
50.0
100
AcDbLine
 10
11539.50308434376
 20
6184.932665440711
 30
0.0
 11
11648.6
 21
6294.029581096946
 31
0.0
  0
LINE
  5
27F62
330
747D
100
AcDbEntity
  8
細線
 48
50.0
100
AcDbLine
 10
11584.40436494911
 20
6184.932665440712
 30
0.0
 11
11648.6
 21
6249.128300491601
 31
0.0
  0
LINE
  5
27F63
330
747D
100
AcDbEntity
  8
細線
 48
50.0
100
AcDbLine
 10
11629.30564555445
 20
6184.932665440714
 30
0.0
 11
11648.6
 21
6204.227019886255
 31
0.0
  0
LINE
  5
27F64
330
747D
100
AcDbEntity
  8
細線
 48
50.0
100
AcDbLine
 10
12398.6
 20
6318.535984123672
 30
0.0
 11
12544.99668131703
 21
6464.932665440719
 31
0.0
  0
LINE
  5
27F65
330
747D
100
AcDbEntity
  8
細線
 48
50.0
100
AcDbLine
 10
12398.59999999999
 20
6273.634703518328
 30
0.0
 11
12589.89796192239
 21
6464.932665440717
 31
0.0
  0
LINE
  5
27F66
330
747D
100
AcDbEntity
  8
細線
 48
50.0
100
AcDbLine
 10
12398.6
 20
6228.733422912983
 30
0.0
 11
12598.59999999999
 21
6428.733422912976
 31
0.0
  0
LINE
  5
27F67
330
747D
100
AcDbEntity
  8
細線
 48
50.0
100
AcDbLine
 10
12399.70052313307
 20
6184.932665440708
 30
0.0
 11
12598.59999999999
 21
6383.832142307634
 31
0.0
  0
LINE
  5
27F68
330
747D
100
AcDbEntity
  8
細線
 48
50.0
100
AcDbLine
 10
12444.60180373841
 20
6184.932665440711
 30
0.0
 11
12598.59999999999
 21
6338.930861702289
 31
0.0
  0
LINE
  5
27F69
330
747D
100
AcDbEntity
  8
部品1
 48
50.0
100
AcDbLine
 10
12398.59999999999
 20
6464.932665440717
 30
0.0
 11
12398.6
 21
6184.932665440708
 31
0.0
  0
LINE
  5
27F6A
330
747D
100
AcDbEntity
  8
細線
 48
50.0
100
AcDbLine
 10
12398.59999999999
 20
6363.437264729022
 30
0.0
 11
12500.09540071169
 21
6464.932665440719
 31
0.0
  0
LINE
  5
27F6B
330
747D
100
AcDbEntity
  8
細線
 48
50.0
100
AcDbLine
 10
12398.59999999999
 20
6408.338545334363
 30
0.0
 11
12455.19412010634
 21
6464.932665440717
 31
0.0
  0
LINE
  5
27F6C
330
747D
100
AcDbEntity
  8
部品1
 48
50.0
100
AcDbLine
 10
12598.59999999999
 20
6464.932665440719
 30
0.0
 11
12598.6
 21
6184.932665440712
 31
0.0
  0
LINE
  5
27F6D
330
747D
100
AcDbEntity
  8
細線
 48
50.0
100
AcDbLine
 10
12489.50308434376
 20
6184.932665440711
 30
0.0
 11
12598.6
 21
6294.029581096946
 31
0.0
  0
LINE
  5
27F6E
330
747D
100
AcDbEntity
  8
細線
 48
50.0
100
AcDbLine
 10
12534.40436494911
 20
6184.932665440712
 30
0.0
 11
12598.6
 21
6249.128300491601
 31
0.0
  0
LINE
  5
27F6F
330
747D
100
AcDbEntity
  8
細線
 48
50.0
100
AcDbLine
 10
12579.30564555445
 20
6184.932665440714
 30
0.0
 11
12598.6
 21
6204.227019886255
 31
0.0
  0
LINE
  5
27F8E
330
747D
100
AcDbEntity
  8
部品1
 48
50.0
100
AcDbLine
 10
3588.6
 20
6464.932665440716
 30
0.0
 11
3588.599999999997
 21
6944.93266544072
 31
0.0
  0
LINE
  5
27F8F
330
747D
100
AcDbEntity
  8
部品1
 48
50.0
100
AcDbLine
 10
12858.6
 20
6464.932665440753
 30
0.0
 11
12858.6
 21
6944.93266544072
 31
0.0
  0
MTEXT
  5
28127
102
{ACAD_REACTORS
330
28128
102
}
330
747D
100
AcDbEntity
  8
寸法
 62
     7
 48
50.0
100
AcDbMText
 10
10729.02899111836
 20
2115.844297867106
 30
0.0
 40
120.0
 41
0.8
 71
     4
 72
     1
  1
\A1;C.B
  7
STYLE1
 73
     1
 44
1.0
1001
ACAD
1000
MTEXTBEGIN
1070
    73
1070
     1
1070
    44
1040
1.0
1070
    74
1070
     0
1000
MTEXTEND
  0
LEADER
  5
28128
330
747D
100
AcDbEntity
  8
寸法
 48
50.0
100
AcDbLeader
  3
INABA_S50G
 73
     0
 74
     0
 75
     1
 40
120.0
 41
185.591883092037
 76
     3
 10
10545.89078448472
 20
1858.697977185968
 30
0.0
 10
10579.02899111836
 20
2030.844297867106
 30
0.0
 10
10704.02899111836
 20
2030.844297867106
 30
0.0
340
28127
1001
ACAD
1000
DSTYLE
1002
{
1070
    40
1040
1.0
1002
}
  0
LINE
  5
28129
330
747D
100
AcDbEntity
  8
細線
 48
50.0
100
AcDbLine
 10
10691.54419806113
 20
1502.999061532617
 30
0.0
 11
10685.11341744278
 21
1526.999061532617
 31
0.0
  0
LINE
  5
2812A
330
747D
100
AcDbEntity
  8
細線
 48
50.0
100
AcDbLine
 10
10670.10826266664
 20
1422.999061532617
 30
0.0
 11
10676.53904328498
 21
1398.999061532617
 31
0.0
  0
LINE
  5
2812B
330
747D
100
AcDbEntity
  8
部品1
100
AcDbLine
 10
10735.16637286879
 20
1618.697977185968
 30
0.0
 11
10735.1663728688
 21
1398.999061532618
 31
0.0
  0
LINE
  5
2812C
330
747D
100
AcDbEntity
  8
細線
 48
50.0
100
AcDbLine
 10
10663.67748204829
 20
1398.999061532617
 30
0.0
 11
10697.97497867947
 21
1526.999061532615
 31
0.0
  0
LINE
  5
2812D
330
747D
100
AcDbEntity
  8
細線
 48
50.0
100
AcDbLine
 10
10612.65615311388
 20
1502.999061532617
 30
0.0
 11
10606.22537249553
 21
1526.999061532617
 31
0.0
  0
LINE
  5
2812E
330
747D
100
AcDbEntity
  8
細線
100
AcDbLine
 10
10488.20276736813
 20
1526.99906153262
 30
0.0
 11
10579.90168302147
 21
1618.697977185968
 31
0.0
  0
LINE
  5
2812F
330
747D
100
AcDbEntity
  8
細線
 48
50.0
100
AcDbLine
 10
10533.76810816662
 20
1502.999061532618
 30
0.0
 11
10527.33732754828
 21
1526.999061532618
 31
0.0
  0
LINE
  5
28130
330
747D
100
AcDbEntity
  8
細線
100
AcDbLine
 10
10522.14389286508
 20
1526.99906153262
 30
0.0
 11
10613.84280851842
 21
1618.697977185968
 31
0.0
  0
LINE
  5
28131
330
747D
100
AcDbEntity
  8
細線
 48
50.0
100
AcDbLine
 10
10297.10397332489
 20
1502.999061532618
 30
0.0
 11
10290.67319270655
 21
1526.999061532618
 31
0.0
  0
LINE
  5
28132
330
747D
100
AcDbEntity
  8
細線
 48
50.0
100
AcDbLine
 10
10375.99201827214
 20
1502.999061532618
 30
0.0
 11
10369.56123765379
 21
1526.999061532618
 31
0.0
  0
LINE
  5
28133
330
747D
100
AcDbEntity
  8
細線
 48
50.0
100
AcDbLine
 10
10454.88006321938
 20
1502.999061532618
 30
0.0
 11
10448.44928260104
 21
1526.999061532618
 31
0.0
  0
LINE
  5
28134
330
747D
100
AcDbEntity
  8
細線
 48
50.0
100
AcDbLine
 10
10591.22021771939
 20
1422.999061532617
 30
0.0
 11
10597.65099833774
 21
1398.999061532617
 31
0.0
  0
LINE
  5
28135
330
747D
100
AcDbEntity
  8
細線
 48
50.0
100
AcDbLine
 10
10512.33217277214
 20
1422.999061532618
 30
0.0
 11
10518.7629533905
 21
1398.999061532618
 31
0.0
  0
LINE
  5
28136
330
747D
100
AcDbEntity
  8
細線
 48
50.0
100
AcDbLine
 10
10354.55608287765
 20
1422.999061532618
 30
0.0
 11
10360.986863496
 21
1398.999061532618
 31
0.0
  0
LINE
  5
28137
330
747D
100
AcDbEntity
  8
細線
 48
50.0
100
AcDbLine
 10
10433.4441278249
 20
1422.999061532618
 30
0.0
 11
10439.87490844324
 21
1398.999061532618
 31
0.0
  0
LINE
  5
28138
330
747D
100
AcDbEntity
  8
細線
 48
50.0
100
AcDbLine
 10
10427.01334720654
 20
1398.999061532618
 30
0.0
 11
10461.31084383773
 21
1526.999061532617
 31
0.0
  0
LINE
  5
28139
330
747D
100
AcDbEntity
  8
細線
 48
50.0
100
AcDbLine
 10
10348.1253022593
 20
1398.999061532617
 30
0.0
 11
10382.42279889048
 21
1526.999061532617
 31
0.0
  0
LINE
  5
2813A
330
747D
100
AcDbEntity
  8
細線
 48
50.0
100
AcDbLine
 10
10505.90139215379
 20
1398.999061532617
 30
0.0
 11
10540.19888878497
 21
1526.999061532618
 31
0.0
  0
LINE
  5
2813B
330
747D
100
AcDbEntity
  8
細線
100
AcDbLine
 10
10556.08501836204
 20
1526.99906153262
 30
0.0
 11
10647.78393401538
 21
1618.697977185968
 31
0.0
  0
LINE
  5
2813C
330
747D
100
AcDbEntity
  8
細線
 48
50.0
100
AcDbLine
 10
10584.78943710104
 20
1398.999061532615
 30
0.0
 11
10619.08693373222
 21
1526.999061532615
 31
0.0
  0
LINE
  5
2813D
330
747D
100
AcDbEntity
  8
部品1
100
AcDbLine
 10
10615.16637286879
 20
1858.697977185968
 30
0.0
 11
10615.16637286879
 21
1618.697977185968
 31
0.0
  0
LINE
  5
2813E
330
747D
100
AcDbEntity
  8
細線
100
AcDbLine
 10
10601.32871052121
 20
1618.697977185969
 30
0.0
 11
10361.32871052122
 21
1858.697977185968
 31
0.0
  0
LINE
  5
2813F
330
747D
100
AcDbEntity
  8
細線
100
AcDbLine
 10
10550.41702227578
 20
1618.697977185968
 30
0.0
 11
10310.41702227578
 21
1858.697977185968
 31
0.0
  0
LINE
  5
28140
330
747D
100
AcDbEntity
  8
細線
100
AcDbLine
 10
10162.14389286508
 20
1526.999061532618
 30
0.0
 11
10253.84280851842
 21
1618.697977185968
 31
0.0
  0
LINE
  5
28141
330
747D
100
AcDbEntity
  8
細線
100
AcDbLine
 10
10128.20276736812
 20
1526.999061532618
 30
0.0
 11
10219.90168302147
 21
1618.697977185968
 31
0.0
  0
LINE
  5
28142
330
747D
100
AcDbEntity
  8
細線
 48
50.0
100
AcDbLine
 10
10139.3278834304
 20
1502.999061532618
 30
0.0
 11
10132.89710281205
 21
1526.999061532618
 31
0.0
  0
LINE
  5
28143
330
747D
100
AcDbEntity
  8
細線
 48
50.0
100
AcDbLine
 10
10218.21592837765
 20
1502.999061532618
 30
0.0
 11
10211.7851477593
 21
1526.999061532618
 31
0.0
  0
LINE
  5
28144
330
747D
100
AcDbEntity
  8
細線
 48
50.0
100
AcDbLine
 10
10060.43983848314
 20
1502.999061532618
 30
0.0
 11
10054.0090578648
 21
1526.999061532618
 31
0.0
  0
LINE
  5
28145
330
747D
100
AcDbEntity
  8
細線
 48
50.0
100
AcDbLine
 10
10275.6680379304
 20
1422.999061532618
 30
0.0
 11
10282.09881854875
 21
1398.999061532618
 31
0.0
  0
LINE
  5
28146
330
747D
100
AcDbEntity
  8
細線
 48
50.0
100
AcDbLine
 10
10196.77999298316
 20
1422.999061532618
 30
0.0
 11
10203.2107736015
 21
1398.999061532618
 31
0.0
  0
LINE
  5
28147
330
747D
100
AcDbEntity
  8
細線
 48
50.0
100
AcDbLine
 10
10039.00390308865
 20
1422.999061532618
 30
0.0
 11
10045.434683707
 21
1398.999061532618
 31
0.0
  0
LINE
  5
28148
330
747D
100
AcDbEntity
  8
細線
 48
50.0
100
AcDbLine
 10
10117.89194803591
 20
1422.999061532618
 30
0.0
 11
10124.32272865425
 21
1398.999061532618
 31
0.0
  0
LINE
  5
28149
330
747D
100
AcDbEntity
  8
部品1
100
AcDbLine
 10
10015.1663728688
 20
1398.999061532614
 30
0.0
 11
10015.1663728688
 21
1618.697977185968
 31
0.0
  0
LINE
  5
2814A
330
747D
100
AcDbEntity
  8
細線
 48
50.0
100
AcDbLine
 10
10032.57312247031
 20
1398.999061532618
 30
0.0
 11
10066.87061910149
 21
1526.999061532618
 31
0.0
  0
LINE
  5
2814B
330
747D
100
AcDbEntity
  8
細線
 48
50.0
100
AcDbLine
 10
10190.3492123648
 20
1398.999061532618
 30
0.0
 11
10224.64670899599
 21
1526.999061532618
 31
0.0
  0
LINE
  5
2814C
330
747D
100
AcDbEntity
  8
細線
 48
50.0
100
AcDbLine
 10
10111.46116741755
 20
1398.999061532617
 30
0.0
 11
10145.75866404874
 21
1526.999061532617
 31
0.0
  0
LINE
  5
2814D
330
747D
100
AcDbEntity
  8
部品1
100
AcDbLine
 10
10135.16637286879
 20
1618.697977185968
 30
0.0
 11
10135.16637286879
 21
1858.697977185968
 31
0.0
  0
TEXT
  5
2814E
330
747D
100
AcDbEntity
  8
部品1
 48
50.0
100
AcDbText
 10
9371.048286110292
 20
1351.898236548659
 30
0.0
 40
80.0
  1
ボルトの出
 50
90.0
  7
STYLE2
100
AcDbText
  0
LINE
  5
2814F
330
747D
100
AcDbEntity
  8
細線
100
AcDbLine
 10
10278.88801830015
 20
1618.697977185968
 30
0.0
 11
10135.16637286879
 21
1762.41962261732
 31
0.0
  0
LWPOLYLINE
  5
28150
330
747D
100
AcDbEntity
  8
部品1
 48
50.0
100
AcDbPolyline
 90
        2
 70
     0
 43
12.0
 10
9750.555110768409
 20
1618.697977185968
 10
10951.64741390003
 20
1618.697977185968
  0
LINE
  5
28151
330
747D
100
AcDbEntity
  8
細線
100
AcDbLine
 10
10196.08501836204
 20
1526.999061532618
 30
0.0
 11
10287.78393401538
 21
1618.697977185968
 31
0.0
  0
LINE
  5
28152
330
747D
100
AcDbEntity
  8
部品1
100
AcDbLine
 10
10015.1663728688
 20
1526.999061532618
 30
0.0
 11
10735.16637286879
 21
1526.99906153262
 31
0.0
  0
LINE
  5
28153
330
747D
100
AcDbEntity
  8
部品1
100
AcDbLine
 10
10015.1663728688
 20
1398.999061532614
 30
0.0
 11
10735.16637286879
 21
1398.999061532618
 31
0.0
  0
LINE
  5
28154
330
747D
100
AcDbEntity
  8
細線
 48
50.0
100
AcDbLine
 10
10269.23725731205
 20
1398.999061532618
 30
0.0
 11
10303.53475394324
 21
1526.999061532617
 31
0.0
  0
LINE
  5
28155
330
747D
100
AcDbEntity
  8
部品1
100
AcDbLine
 10
10135.16637286879
 20
1858.697977185968
 30
0.0
 11
10615.16637286879
 21
1858.697977185968
 31
0.0
  0
LINE
  5
28156
330
747D
100
AcDbEntity
  8
細線
100
AcDbLine
 10
10329.79970654558
 20
1618.697977185968
 30
0.0
 11
10135.16637286879
 21
1813.331310862751
 31
0.0
  0
LINE
  5
28157
330
747D
100
AcDbEntity
  8
部品1
100
AcDbLine
 10
11321.90787396583
 20
293.7296748019062
 30
0.0
 11
11321.90787396583
 21
3258.036644386554
 31
0.0
  0
TEXT
  5
28158
330
747D
100
AcDbEntity
  8
部品1
100
AcDbText
 10
7943.802689757969
 20
3078.484712435126
 30
0.0
 40
120.0
  1
基礎詳細
  7
STYLE2
100
AcDbText
  0
LINE
  5
28159
330
747D
100
AcDbEntity
  8
部品1
 48
50.0
100
AcDbLine
 10
8259.030440566039
 20
2257.57325829511
 30
0.0
 11
8275.030440566039
 21
2249.573258295111
 31
0.0
  0
LINE
  5
2815A
330
747D
100
AcDbEntity
  8
細線
 48
50.0
100
AcDbLine
 10
8227.030440566039
 20
2209.57325829511
 30
0.0
 11
8227.030440566039
 21
2241.57325829511
 31
0.0
  0
LINE
  5
2815B
330
747D
100
AcDbEntity
  8
部品1
 48
50.0
100
AcDbLine
 10
8275.030440566039
 20
2217.573258295111
 30
0.0
 11
8275.030440566039
 21
2249.573258295111
 31
0.0
  0
LINE
  5
2815C
330
747D
100
AcDbEntity
  8
細線
 48
50.0
100
AcDbLine
 10
8259.030440566039
 20
2209.57325829511
 30
0.0
 11
8259.030440566039
 21
2241.57325829511
 31
0.0
  0
LINE
  5
2815D
330
747D
100
AcDbEntity
  8
部品1
 48
50.0
100
AcDbLine
 10
8259.030440566039
 20
2241.57325829511
 30
0.0
 11
8275.030440566039
 21
2249.573258295111
 31
0.0
  0
LINE
  5
2815E
330
747D
100
AcDbEntity
  8
部品1
 48
50.0
100
AcDbLine
 10
8227.030440566039
 20
2241.57325829511
 30
0.0
 11
8259.030440566039
 21
2241.57325829511
 31
0.0
  0
LINE
  5
2815F
330
747D
100
AcDbEntity
  8
部品1
 48
50.0
100
AcDbLine
 10
8259.030440566039
 20
2209.57325829511
 30
0.0
 11
8275.030440566039
 21
2217.573258295111
 31
0.0
  0
LINE
  5
28160
330
747D
100
AcDbEntity
  8
部品1
 48
50.0
100
AcDbLine
 10
8227.030440566039
 20
2209.57325829511
 30
0.0
 11
8259.030440566039
 21
2209.57325829511
 31
0.0
  0
ELLIPSE
  5
28161
330
747D
100
AcDbEntity
  8
細線
 48
50.0
100
AcDbEllipse
 10
8243.030440566039
 20
2249.573258295111
 30
0.0
 11
14.76670786606846
 21
0.0
 31
0.0
210
0.0
220
0.0
230
1.0
 40
0.2071254069489396
 41
0.0
 42
6.283185307179586
  0
LINE
  5
28162
330
747D
100
AcDbEntity
  8
部品1
 48
50.0
100
AcDbLine
 10
8227.030440566039
 20
2257.57325829511
 30
0.0
 11
8259.030440566039
 21
2257.57325829511
 31
0.0
  0
LINE
  5
28163
330
747D
100
AcDbEntity
  8
部品1
 48
50.0
100
AcDbLine
 10
8211.030440566039
 20
2217.573258295111
 30
0.0
 11
8211.030440566039
 21
2249.573258295111
 31
0.0
  0
LINE
  5
28164
330
747D
100
AcDbEntity
  8
部品1
 48
50.0
100
AcDbLine
 10
8211.030440566039
 20
2249.573258295111
 30
0.0
 11
8227.030440566039
 21
2257.57325829511
 31
0.0
  0
LINE
  5
28165
330
747D
100
AcDbEntity
  8
部品1
 48
50.0
100
AcDbLine
 10
8211.030440566039
 20
2217.573258295111
 30
0.0
 11
8227.030440566039
 21
2209.57325829511
 31
0.0
  0
LINE
  5
28166
330
747D
100
AcDbEntity
  8
部品1
 48
50.0
100
AcDbLine
 10
8211.030440566039
 20
2249.573258295111
 30
0.0
 11
8227.030440566039
 21
2241.57325829511
 31
0.0
  0
LINE
  5
28167
330
747D
100
AcDbEntity
  8
部品1
 48
50.0
100
AcDbLine
 10
8283.030440566038
 20
2118.22126563024
 30
0.0
 11
8283.030440566038
 21
2127.82126563024
 31
0.0
  0
ELLIPSE
  5
28168
330
747D
100
AcDbEntity
  8
部品1
 48
50.0
100
AcDbEllipse
 10
8243.030440566039
 20
2127.82126563024
 30
0.0
 11
18.4
 21
0.0
 31
0.0
210
0.0
220
0.0
230
1.0
 40
0.3478260869565217
 41
0.0
 42
6.283185307179586
  0
ARC
  5
28169
330
747D
100
AcDbEntity
  8
部品1
100
AcDbCircle
 10
8081.930440566038
 20
1956.797977185968
 30
0.0
 40
2.7
100
AcDbArc
 50
90.0
 51
180.0
  0
LINE
  5
2816A
330
747D
100
AcDbEntity
  8
部品1
100
AcDbLine
 10
8084.630440566037
 20
1970.297977185968
 30
0.0
 11
8126.93044056604
 21
1970.297977185964
 31
0.0
  0
LINE
  5
2816B
330
747D
100
AcDbEntity
  8
部品1
100
AcDbLine
 10
8081.930440566038
 20
1959.497977185968
 30
0.0
 11
8081.930440566038
 21
1967.597977185968
 31
0.0
  0
LINE
  5
2816C
330
747D
100
AcDbEntity
  8
部品1
100
AcDbLine
 10
8081.930440566038
 20
1959.497977185968
 30
0.0
 11
8081.930440566038
 21
1959.497977185968
 31
0.0
  0
ARC
  5
2816D
330
747D
100
AcDbEntity
  8
部品1
100
AcDbCircle
 10
8084.630440566037
 20
1967.597977185968
 30
0.0
 40
2.7
100
AcDbArc
 50
90.0
 51
180.0
  0
ARC
  5
2816E
330
747D
100
AcDbEntity
  8
部品1
100
AcDbCircle
 10
8126.93044056604
 20
1967.597977185965
 30
0.0
 40
2.7
100
AcDbArc
 50
0.0
 51
90.0
  0
LINE
  5
2816F
330
747D
100
AcDbEntity
  8
部品1
 48
50.0
100
AcDbLine
 10
8203.030440566038
 20
2127.82126563024
 30
0.0
 11
8203.030440566038
 21
2118.22126563024
 31
0.0
  0
ELLIPSE
  5
28170
330
747D
100
AcDbEntity
  8
部品1
 48
50.0
100
AcDbEllipse
 10
8243.030440566039
 20
2118.221265630241
 30
0.0
 11
40.0
 21
0.0
 31
0.0
210
0.0
220
0.0
230
1.0
 40
0.4
 41
3.141592653589793
 42
6.283185307179586
  0
ELLIPSE
  5
28171
330
747D
100
AcDbEntity
  8
部品1
 48
50.0
100
AcDbEllipse
 10
8243.030440566039
 20
2127.82126563024
 30
0.0
 11
40.0
 21
0.0
 31
0.0
210
0.0
220
0.0
230
1.0
 40
0.4
 41
0.0
 42
6.283185307179586
  0
LINE
  5
28172
330
747D
100
AcDbEntity
  8
部品1
100
AcDbLine
 10
8237.630440566038
 20
1911.457977185968
 30
0.0
 11
8248.430440566037
 21
1911.457977185968
 31
0.0
  0
LINE
  5
28173
330
747D
100
AcDbEntity
  8
部品1
100
AcDbLine
 10
8234.030440566039
 20
1907.857977185969
 30
0.0
 11
8252.03044056604
 21
1907.857977185969
 31
0.0
  0
LINE
  5
28174
330
747D
100
AcDbEntity
  8
細線
100
AcDbLine
 10
8237.630440566041
 20
1868.257977185968
 30
0.0
 11
8237.630440566038
 21
1911.457977185968
 31
0.0
  0
LINE
  5
28175
330
747D
100
AcDbEntity
  8
細線
100
AcDbLine
 10
8248.430440566037
 20
1868.257977185968
 30
0.0
 11
8248.430440566037
 21
1911.457977185968
 31
0.0
  0
LINE
  5
28176
330
747D
100
AcDbEntity
  8
部品1
100
AcDbLine
 10
8150.330440566039
 20
1925.557977185968
 30
0.0
 11
8150.330440566039
 21
1908.457977185968
 31
0.0
  0
LINE
  5
28177
330
747D
100
AcDbEntity
  8
部品1
100
AcDbLine
 10
8183.89044056604
 20
1925.557977185968
 30
0.0
 11
8183.890440566036
 21
1870.957977185968
 31
0.0
  0
ARC
  5
28178
330
747D
100
AcDbEntity
  8
部品1
100
AcDbCircle
 10
8169.230440566039
 20
1913.597977185967
 30
0.0
 40
2.7
100
AcDbArc
 50
0.0
 51
90.0
  0
LINE
  5
28179
330
747D
100
AcDbEntity
  8
部品1
100
AcDbLine
 10
8129.630440566037
 20
1916.297977185968
 30
0.0
 11
8169.230440566039
 21
1916.297977185968
 31
0.0
  0
ARC
  5
2817A
330
747D
100
AcDbEntity
  8
部品1
100
AcDbCircle
 10
8169.230440566039
 20
1870.957977185968
 30
0.0
 40
2.7
100
AcDbArc
 50
270.0
 51
0.0
  0
ARC
  5
2817B
330
747D
100
AcDbEntity
  8
部品1
100
AcDbCircle
 10
8186.590440566034
 20
1870.957977185968
 30
0.0
 40
2.7
100
AcDbArc
 50
180.0
 51
270.0
  0
LINE
  5
2817C
330
747D
100
AcDbEntity
  8
部品1
100
AcDbLine
 10
8157.53044056604
 20
1868.257977185968
 30
0.0
 11
8169.230440566039
 21
1868.257977185968
 31
0.0
  0
LINE
  5
2817D
330
747D
100
AcDbEntity
  8
部品1
100
AcDbLine
 10
8171.93044056604
 20
1913.597977185967
 30
0.0
 11
8171.93044056604
 21
1870.957977185968
 31
0.0
  0
ARC
  5
2817E
330
747D
100
AcDbEntity
  8
部品1
100
AcDbCircle
 10
8181.190440566039
 20
1925.557977185968
 30
0.0
 40
2.7
100
AcDbArc
 50
0.0
 51
90.0
  0
ARC
  5
2817F
330
747D
100
AcDbEntity
  8
部品1
100
AcDbCircle
 10
8153.030440566039
 20
1925.557977185968
 30
0.0
 40
2.7
100
AcDbArc
 50
90.0
 51
180.0
  0
LINE
  5
28180
330
747D
100
AcDbEntity
  8
部品1
100
AcDbLine
 10
8153.030440566039
 20
1928.257977185968
 30
0.0
 11
8181.190440566039
 21
1928.257977185968
 31
0.0
  0
LINE
  5
28181
330
747D
100
AcDbEntity
  8
部品1
100
AcDbLine
 10
8129.630440566037
 20
1967.597977185965
 30
0.0
 11
8129.630440566037
 21
1916.297977185968
 31
0.0
  0
LINE
  5
28182
330
747D
100
AcDbEntity
  8
部品1
100
AcDbLine
 10
8079.230440566041
 20
1948.697977185968
 30
0.0
 11
8079.230440566041
 21
1956.797977185968
 31
0.0
  0
LINE
  5
28183
330
747D
100
AcDbEntity
  8
部品1
100
AcDbLine
 10
8186.590440566034
 20
1868.257977185968
 30
0.0
 11
8387.930440566034
 21
1868.257977185968
 31
0.0
  0
LINE
  5
28184
330
747D
100
AcDbEntity
  8
部品1
100
AcDbLine
 10
8027.930440566038
 20
1870.957977185968
 30
0.0
 11
8027.930440566038
 21
1933.089880888676
 31
0.0
  0
LINE
  5
28185
330
747D
100
AcDbEntity
  8
部品1
100
AcDbLine
 10
8030.630440566039
 20
1868.257977185968
 30
0.0
 11
8042.330440566033
 21
1868.257977185968
 31
0.0
  0
LINE
  5
28186
330
747D
100
AcDbEntity
  8
細線
 48
50.0
100
AcDbLine
 10
8021.630440566038
 20
1846.478553485873
 30
0.0
 11
8033.849864266132
 21
1858.697977185968
 31
0.0
  0
ARC
  5
28187
330
747D
100
AcDbEntity
  8
部品1
100
AcDbCircle
 10
8030.630440566039
 20
1870.957977185968
 30
0.0
 40
2.7
100
AcDbArc
 50
180.0
 51
270.0
  0
LINE
  5
28188
330
747D
100
AcDbEntity
  8
部品1
100
AcDbLine
 10
8029.97559437844
 20
1935.709265639068
 30
0.0
 11
8038.730440566039
 21
1937.897977185967
 31
0.0
  0
ARC
  5
28189
330
747D
100
AcDbEntity
  8
部品1
100
AcDbCircle
 10
8030.630440566039
 20
1933.089880888676
 30
0.0
 40
2.7
100
AcDbArc
 50
104.0362434679067
 51
180.0
  0
ARC
  5
2818A
330
747D
100
AcDbEntity
  8
部品1
100
AcDbCircle
 10
8041.430440566038
 20
1945.997977185968
 30
0.0
 40
2.7
100
AcDbArc
 50
90.0
 51
180.0
  0
LINE
  5
2818B
330
747D
100
AcDbEntity
  8
部品1
100
AcDbLine
 10
8038.730440566039
 20
1937.897977185967
 30
0.0
 11
8038.730440566039
 21
1945.997977185968
 31
0.0
  0
LINE
  5
2818C
330
747D
100
AcDbEntity
  8
部品1
 48
50.0
100
AcDbLine
 10
8021.630440566038
 20
1858.697977185968
 30
0.0
 11
8435.630440566042
 21
1858.697977185968
 31
0.0
  0
LINE
  5
2818D
330
747D
100
AcDbEntity
  8
細線
 48
50.0
100
AcDbLine
 10
8021.630440566038
 20
1792.597016759458
 30
0.0
 11
8087.731400992549
 21
1858.697977185968
 31
0.0
  0
LINE
  5
2818E
330
747D
100
AcDbEntity
  8
細線
 48
50.0
100
AcDbLine
 10
8021.630440566038
 20
1819.537785122666
 30
0.0
 11
8060.790632629345
 21
1858.697977185968
 31
0.0
  0
LINE
  5
2818F
330
747D
100
AcDbEntity
  8
部品1
100
AcDbLine
 10
8041.430440566038
 20
1948.697977185968
 30
0.0
 11
8079.230440566041
 21
1948.697977185968
 31
0.0
  0
LINE
  5
28190
330
747D
100
AcDbEntity
  8
部品1
 48
50.0
100
AcDbLine
 10
8435.630440566038
 20
1314.697977185968
 30
0.0
 11
8563.630440566038
 21
1314.697977185968
 31
0.0
  0
LINE
  5
28191
330
747D
100
AcDbEntity
  8
部品1
100
AcDbLine
 10
8252.03044056604
 20
1633.697977185968
 30
0.0
 11
8288.030440566039
 21
1633.697977185968
 31
0.0
  0
LINE
  5
28192
330
747D
100
AcDbEntity
  8
部品1
100
AcDbLine
 10
8252.03044056604
 20
1615.697977185968
 30
0.0
 11
8288.030440566039
 21
1615.697977185968
 31
0.0
  0
ARC
  5
28193
330
747D
100
AcDbEntity
  8
部品1
100
AcDbCircle
 10
8252.03044056604
 20
1633.697977185968
 30
0.0
 40
18.0
100
AcDbArc
 50
180.0
 51
270.0
  0
LINE
  5
28194
330
747D
100
AcDbEntity
  8
部品1
100
AcDbLine
 10
8288.030440566039
 20
1615.697977185968
 30
0.0
 11
8288.030440566039
 21
1633.697977185968
 31
0.0
  0
LINE
  5
28195
330
747D
100
AcDbEntity
  8
部品1
100
AcDbLine
 10
8306.030440566038
 20
1534.697977185966
 30
0.0
 11
8180.030440566032
 21
1534.697977185966
 31
0.0
  0
LINE
  5
28196
330
747D
100
AcDbEntity
  8
細線
 48
50.0
100
AcDbLine
 10
8600.008265758374
 20
1050.697977185966
 30
0.0
 11
8593.577485140029
 21
1074.697977185966
 31
0.0
  0
LINE
  5
28197
330
747D
100
AcDbEntity
  8
細線
 48
50.0
100
AcDbLine
 10
8521.120220811129
 20
1050.697977185966
 30
0.0
 11
8514.689440192782
 21
1074.697977185966
 31
0.0
  0
LINE
  5
28198
330
747D
100
AcDbEntity
  8
細線
 48
50.0
100
AcDbLine
 10
8442.232175863871
 20
1050.697977185968
 30
0.0
 11
8435.801395245524
 21
1074.697977185968
 31
0.0
  0
LINE
  5
28199
330
747D
100
AcDbEntity
  8
細線
 48
50.0
100
AcDbLine
 10
8578.572330363885
 20
970.6979771859661
 30
0.0
 11
8585.003110982233
 21
946.697977185966
 31
0.0
  0
LINE
  5
2819A
330
747D
100
AcDbEntity
  8
細線
 48
50.0
100
AcDbLine
 10
8499.684285416639
 20
970.6979771859661
 30
0.0
 11
8506.115066034984
 21
946.697977185966
 31
0.0
  0
LINE
  5
2819B
330
747D
100
AcDbEntity
  8
細線
 48
50.0
100
AcDbLine
 10
8420.796240469391
 20
970.6979771859678
 30
0.0
 11
8427.227021087746
 21
946.6979771859678
 31
0.0
  0
LINE
  5
2819C
330
747D
100
AcDbEntity
  8
細線
 48
50.0
100
AcDbLine
 10
8493.253504798289
 20
946.6979771859652
 30
0.0
 11
8527.551001429472
 21
1074.697977185965
 31
0.0
  0
LINE
  5
2819D
330
747D
100
AcDbEntity
  8
細線
 48
50.0
100
AcDbLine
 10
8414.36545985104
 20
946.697977185966
 30
0.0
 11
8448.662956482214
 21
1074.697977185968
 31
0.0
  0
LINE
  5
2819E
330
747D
100
AcDbEntity
  8
細線
 48
50.0
100
AcDbLine
 10
8572.141549745532
 20
946.697977185966
 30
0.0
 11
8606.439046376719
 21
1074.697977185965
 31
0.0
  0
LINE
  5
2819F
330
747D
100
AcDbEntity
  8
部品1
 48
50.0
100
AcDbLine
 10
8643.63044056604
 20
1074.697977185968
 30
0.0
 11
8643.63044056604
 21
946.6979771859678
 31
0.0
  0
LINE
  5
281A0
330
747D
100
AcDbEntity
  8
細線
 48
50.0
100
AcDbLine
 10
8363.344130916635
 20
1050.697977185968
 30
0.0
 11
8356.913350298288
 21
1074.697977185968
 31
0.0
  0
LINE
  5
281A1
330
747D
100
AcDbEntity
  8
細線
 48
50.0
100
AcDbLine
 10
8284.456085969388
 20
1050.697977185968
 30
0.0
 11
8278.025305351041
 21
1074.697977185968
 31
0.0
  0
LINE
  5
281A2
330
747D
100
AcDbEntity
  8
細線
 48
50.0
100
AcDbLine
 10
8126.679996074894
 20
1050.697977185968
 30
0.0
 11
8120.249215456547
 21
1074.697977185968
 31
0.0
  0
LINE
  5
281A3
330
747D
100
AcDbEntity
  8
細線
 48
50.0
100
AcDbLine
 10
8205.568041022141
 20
1050.697977185968
 30
0.0
 11
8199.137260403793
 21
1074.697977185968
 31
0.0
  0
LINE
  5
281A4
330
747D
100
AcDbEntity
  8
細線
 48
50.0
100
AcDbLine
 10
8263.020150574901
 20
970.6979771859678
 30
0.0
 11
8269.450931193246
 21
946.6979771859678
 31
0.0
  0
LINE
  5
281A5
330
747D
100
AcDbEntity
  8
細線
 48
50.0
100
AcDbLine
 10
8341.908195522144
 20
970.6979771859678
 30
0.0
 11
8348.338976140491
 21
946.6979771859678
 31
0.0
  0
LINE
  5
281A6
330
747D
100
AcDbEntity
  8
細線
 48
50.0
100
AcDbLine
 10
8105.244060680405
 20
970.6979771859678
 30
0.0
 11
8111.674841298754
 21
946.6979771859678
 31
0.0
  0
LINE
  5
281A7
330
747D
100
AcDbEntity
  8
細線
 48
50.0
100
AcDbLine
 10
8184.132105627652
 20
970.6979771859678
 30
0.0
 11
8190.562886246
 21
946.6979771859678
 31
0.0
  0
LINE
  5
281A8
330
747D
100
AcDbEntity
  8
細線
 48
50.0
100
AcDbLine
 10
8335.47741490379
 20
946.6979771859678
 30
0.0
 11
8369.774911534976
 21
1074.697977185966
 31
0.0
  0
LINE
  5
281A9
330
747D
100
AcDbEntity
  8
細線
 48
50.0
100
AcDbLine
 10
8177.7013250093
 20
946.6979771859678
 30
0.0
 11
8211.998821640484
 21
1074.697977185966
 31
0.0
  0
LINE
  5
281AA
330
747D
100
AcDbEntity
  8
細線
 48
50.0
100
AcDbLine
 10
8098.813280062053
 20
946.6979771859678
 30
0.0
 11
8133.110776693236
 21
1074.697977185968
 31
0.0
  0
LINE
  5
281AB
330
747D
100
AcDbEntity
  8
細線
 48
50.0
100
AcDbLine
 10
8256.589369956548
 20
946.697977185966
 30
0.0
 11
8290.886866587731
 21
1074.697977185966
 31
0.0
  0
LINE
  5
281AC
330
747D
100
AcDbEntity
  8
細線
 48
50.0
100
AcDbLine
 10
8381.362135520847
 20
1074.697977185968
 30
0.0
 11
8563.630440566038
 21
1256.966282231164
 31
0.0
  0
LINE
  5
281AD
330
747D
100
AcDbEntity
  8
部品1
 48
50.0
100
AcDbLine
 10
8563.630440566038
 20
1314.697977185968
 30
0.0
 11
8563.630440566038
 21
1074.697977185968
 31
0.0
  0
LINE
  5
281AE
330
747D
100
AcDbEntity
  8
細線
 48
50.0
100
AcDbLine
 10
8354.421367157645
 20
1074.697977185968
 30
0.0
 11
8563.630440566038
 21
1283.907050594361
 31
0.0
  0
LINE
  5
281AF
330
747D
100
AcDbEntity
  8
細線
 48
50.0
100
AcDbLine
 10
8327.48059879443
 20
1074.697977185968
 30
0.0
 11
8563.630440566038
 21
1310.847818957576
 31
0.0
  0
LINE
  5
281B0
330
747D
100
AcDbEntity
  8
細線
 48
50.0
100
AcDbLine
 10
8111.954451888772
 20
1074.697977185968
 30
0.0
 11
8435.630440566038
 21
1398.373965863234
 31
0.0
  0
LINE
  5
281B1
330
747D
100
AcDbEntity
  8
細線
 48
50.0
100
AcDbLine
 10
8165.835988615189
 20
1074.697977185968
 30
0.0
 11
8435.630440566038
 21
1344.492429136825
 31
0.0
  0
LINE
  5
281B2
330
747D
100
AcDbEntity
  8
細線
 48
50.0
100
AcDbLine
 10
8138.895220251983
 20
1074.697977185968
 30
0.0
 11
8435.630440566038
 21
1371.43319750002
 31
0.0
  0
LINE
  5
281B3
330
747D
100
AcDbEntity
  8
細線
 48
50.0
100
AcDbLine
 10
7893.630440566034
 20
1287.426259674554
 30
0.0
 11
7920.902158077453
 21
1314.697977185968
 31
0.0
  0
LINE
  5
281B4
330
747D
100
AcDbEntity
  8
部品1
 48
50.0
100
AcDbLine
 10
7893.630440566038
 20
1314.697977185968
 30
0.0
 11
8021.630440566038
 21
1314.697977185968
 31
0.0
  0
LINE
  5
281B5
330
747D
100
AcDbEntity
  8
細線
 48
50.0
100
AcDbLine
 10
7893.630440566034
 20
1260.485491311343
 30
0.0
 11
7947.842926440663
 21
1314.697977185968
 31
0.0
  0
LWPOLYLINE
  5
281B6
330
747D
100
AcDbEntity
  8
部品1
 48
50.0
100
AcDbPolyline
 90
        2
 70
     0
 43
8.0
 10
7607.490538733081
 20
1618.697977185968
 10
8021.630440566038
 20
1618.697977185968
  0
LINE
  5
281B7
330
747D
100
AcDbEntity
  8
細線
 48
50.0
100
AcDbLine
 10
7968.903906180393
 20
1050.697977185968
 30
0.0
 11
7962.473125562045
 21
1074.697977185968
 31
0.0
  0
LINE
  5
281B8
330
747D
100
AcDbEntity
  8
細線
 48
50.0
100
AcDbLine
 10
8047.791951127644
 20
1050.697977185968
 30
0.0
 11
8041.361170509295
 21
1074.697977185968
 31
0.0
  0
LINE
  5
281B9
330
747D
100
AcDbEntity
  8
細線
 48
50.0
100
AcDbLine
 10
7890.015861233139
 20
1050.697977185968
 30
0.0
 11
7883.585080614794
 21
1074.697977185968
 31
0.0
  0
LINE
  5
281BA
330
747D
100
AcDbEntity
  8
細線
 48
50.0
100
AcDbLine
 10
7813.630440566038
 20
1060.037898151747
 30
0.0
 11
7817.558596904233
 21
1074.697977185968
 31
0.0
  0
LINE
  5
281BB
330
747D
100
AcDbEntity
  8
細線
 48
50.0
100
AcDbLine
 10
7947.467970785904
 20
970.6979771859678
 30
0.0
 11
7953.898751404249
 21
946.6979771859678
 31
0.0
  0
LINE
  5
281BC
330
747D
100
AcDbEntity
  8
細線
 48
50.0
100
AcDbLine
 10
8026.356015733155
 20
970.6979771859678
 30
0.0
 11
8032.786796351501
 21
946.6979771859678
 31
0.0
  0
LINE
  5
281BD
330
747D
100
AcDbEntity
  8
細線
 48
50.0
100
AcDbLine
 10
7868.579925838651
 20
970.6979771859678
 30
0.0
 11
7875.010706456997
 21
946.6979771859678
 31
0.0
  0
LINE
  5
281BE
330
747D
100
AcDbEntity
  8
細線
 48
50.0
100
AcDbLine
 10
8019.925235114802
 20
946.697977185966
 30
0.0
 11
8054.222731745984
 21
1074.697977185966
 31
0.0
  0
LINE
  5
281BF
330
747D
100
AcDbEntity
  8
細線
 48
50.0
100
AcDbLine
 10
7862.149145220297
 20
946.697977185966
 30
0.0
 11
7896.44664185148
 21
1074.697977185966
 31
0.0
  0
LINE
  5
281C0
330
747D
100
AcDbEntity
  8
部品1
 48
50.0
100
AcDbLine
 10
7813.630440566041
 20
946.6979771859678
 30
0.0
 11
7813.630440566041
 21
1074.697977185968
 31
0.0
  0
LINE
  5
281C1
330
747D
100
AcDbEntity
  8
細線
 48
50.0
100
AcDbLine
 10
7941.037190167556
 20
946.6979771859678
 30
0.0
 11
7975.334686798738
 21
1074.697977185968
 31
0.0
  0
LINE
  5
281C2
330
747D
100
AcDbEntity
  8
部品1
 48
50.0
100
AcDbLine
 10
7893.630440566038
 20
1074.697977185968
 30
0.0
 11
7893.630440566038
 21
1314.697977185968
 31
0.0
  0
LINE
  5
281C3
330
747D
100
AcDbEntity
  8
細線
 48
50.0
100
AcDbLine
 10
7893.630440566034
 20
1233.544722948139
 30
0.0
 11
7974.783694803868
 21
1314.697977185968
 31
0.0
  0
LINE
  5
281C4
330
747D
100
AcDbEntity
  8
部品1
 48
50.0
100
AcDbLine
 10
8643.63044056604
 20
946.6979771859678
 30
0.0
 11
7813.630440566041
 21
946.6979771859678
 31
0.0
  0
LINE
  5
281C5
330
747D
100
AcDbEntity
  8
部品1
 48
50.0
100
AcDbLine
 10
8643.63044056604
 20
1074.697977185968
 30
0.0
 11
7813.630440566041
 21
1074.697977185968
 31
0.0
  0
LINE
  5
281C6
330
747D
100
AcDbEntity
  8
細線
 48
50.0
100
AcDbLine
 10
7896.428304983114
 20
1074.697977185968
 30
0.0
 11
8435.630440566038
 21
1613.900112768893
 31
0.0
  0
LINE
  5
281C7
330
747D
100
AcDbEntity
  8
細線
 48
50.0
100
AcDbLine
 10
7923.369073346323
 20
1074.697977185968
 30
0.0
 11
8435.630440566042
 21
1586.959344405682
 31
0.0
  0
LINE
  5
281C8
330
747D
100
AcDbEntity
  8
細線
 48
50.0
100
AcDbLine
 10
7950.309841709529
 20
1074.697977185968
 30
0.0
 11
8435.630440566038
 21
1560.018576042475
 31
0.0
  0
LINE
  5
281C9
330
747D
100
AcDbEntity
  8
細線
 48
50.0
100
AcDbLine
 10
8021.630440566038
 20
1415.426259674554
 30
0.0
 11
8180.030440566032
 21
1573.826259674549
 31
0.0
  0
LINE
  5
281CA
330
747D
100
AcDbEntity
  8
細線
 48
50.0
100
AcDbLine
 10
8021.630440566038
 20
1361.544722948139
 30
0.0
 11
8194.783694803875
 21
1534.697977185966
 31
0.0
  0
LINE
  5
281CB
330
747D
100
AcDbEntity
  8
細線
 48
50.0
100
AcDbLine
 10
8021.630440566038
 20
1388.485491311346
 30
0.0
 11
8180.030440566032
 21
1546.885491311335
 31
0.0
  0
LINE
  5
281CC
330
747D
100
AcDbEntity
  8
部品1
100
AcDbLine
 10
8180.030440566032
 20
1534.697977185968
 30
0.0
 11
8180.03044056604
 21
1858.697977185968
 31
0.0
  0
LINE
  5
281CD
330
747D
100
AcDbEntity
  8
部品1
100
AcDbLine
 10
8306.030440566038
 20
1534.697977185968
 30
0.0
 11
8306.030440566038
 21
1858.697977185968
 31
0.0
  0
LINE
  5
281CE
330
747D
100
AcDbEntity
  8
細線
 48
50.0
100
AcDbLine
 10
8306.030440566038
 20
1672.885491311339
 30
0.0
 11
8435.630440566038
 21
1802.485491311336
 31
0.0
  0
LINE
  5
281CF
330
747D
100
AcDbEntity
  8
細線
 48
50.0
100
AcDbLine
 10
8306.030440566038
 20
1645.944722948127
 30
0.0
 11
8435.630440566038
 21
1775.544722948118
 31
0.0
  0
LINE
  5
281D0
330
747D
100
AcDbEntity
  8
部品1
100
AcDbLine
 10
8234.030440566039
 20
1633.697977185968
 30
0.0
 11
8234.030440566035
 21
1907.857977185969
 31
0.0
  0
LINE
  5
281D1
330
747D
100
AcDbEntity
  8
部品1
100
AcDbLine
 10
8252.03044056604
 20
1633.697977185968
 30
0.0
 11
8252.030440566036
 21
1907.857977185969
 31
0.0
  0
TEXT
  5
281D2
330
747D
100
AcDbEntity
  8
部品1
 48
50.0
100
AcDbText
 10
7607.490538733081
 20
1629.936969469223
 30
0.0
 40
80.0
  1
▽G.L
  7
STYLE2
100
AcDbText
  0
LINE
  5
281D3
330
747D
100
AcDbEntity
  8
細線
 48
50.0
100
AcDbLine
 10
8021.630440566038
 20
1577.070869853798
 30
0.0
 11
8180.030440566035
 21
1735.47086985379
 31
0.0
  0
LINE
  5
281D4
330
747D
100
AcDbEntity
  8
細線
 48
50.0
100
AcDbLine
 10
8021.630440566038
 20
1604.011638217005
 30
0.0
 11
8180.030440566037
 21
1762.411638217003
 31
0.0
  0
LINE
  5
281D5
330
747D
100
AcDbEntity
  8
細線
 48
50.0
100
AcDbLine
 10
8021.630440566038
 20
1630.952406580213
 30
0.0
 11
8180.030440566037
 21
1789.35240658021
 31
0.0
  0
LINE
  5
281D6
330
747D
100
AcDbEntity
  8
部品1
 48
50.0
100
AcDbLine
 10
8021.630440566038
 20
1314.697977185968
 30
0.0
 11
8021.630440566038
 21
1858.697977185968
 31
0.0
  0
LINE
  5
281D7
330
747D
100
AcDbEntity
  8
部品1
100
AcDbLine
 10
8435.630440566038
 20
1314.697977185968
 30
0.0
 11
8435.630440566038
 21
1858.697977185968
 31
0.0
  0
LINE
  5
281D8
330
747D
100
AcDbEntity
  8
細線
 48
50.0
100
AcDbLine
 10
8306.030440566038
 20
1699.826259674556
 30
0.0
 11
8435.630440566038
 21
1829.426259674555
 31
0.0
  0
LINE
  5
281D9
330
747D
100
AcDbEntity
  8
細線
 48
50.0
100
AcDbLine
 10
6430.083549891314
 20
1739.444829082684
 30
0.0
 11
6513.591127388846
 21
1822.952406580213
 31
0.0
  0
LINE
  5
281DA
330
747D
100
AcDbEntity
  8
細線
 48
50.0
100
AcDbLine
 10
6441.14383465483
 20
1723.56434548299
 30
0.0
 11
6513.591127388846
 21
1796.011638217005
 31
0.0
  0
LINE
  5
281DB
330
747D
100
AcDbEntity
  8
細線
 48
50.0
100
AcDbLine
 10
6321.591127388845
 20
1846.478553485873
 30
0.0
 11
6333.81055108894
 21
1858.697977185968
 31
0.0
  0
LINE
  5
281DC
330
747D
100
AcDbEntity
  8
細線
 48
50.0
100
AcDbLine
 10
6321.591127388845
 20
1792.597016759458
 30
0.0
 11
6387.692087815354
 21
1858.697977185968
 31
0.0
  0
LINE
  5
281DD
330
747D
100
AcDbEntity
  8
細線
 48
50.0
100
AcDbLine
 10
6321.591127388845
 20
1819.537785122666
 30
0.0
 11
6360.751319452148
 21
1858.697977185968
 31
0.0
  0
LINE
  5
281DE
330
747D
100
AcDbEntity
  8
部品1
 48
50.0
100
AcDbLine
 10
6321.591127388845
 20
1858.697977185968
 30
0.0
 11
6513.591127388846
 21
1858.697977185968
 31
0.0
  0
DIMENSION
  5
281DF
330
747D
100
AcDbEntity
  8
寸法
 48
50.0
100
AcDbDimension
  2
*D65
 10
6321.591127388844
 20
2278.365785102348
 30
0.0
 11
6417.591127388845
 21
2278.365785102348
 31
0.0
 70
   160
  1
120\P200\P280
 71
     5
 42
192.0
  3
INABA_S40G
100
AcDbAlignedDimension
 13
6513.591127388844
 23
1858.697977185968
 33
0.0
 14
6321.591127388844
 24
1858.697977185968
 34
0.0
100
AcDbRotatedDimension
1001
ACAD
1000
DSTYLE
1002
{
1070
   341
1005
0
1002
}
  0
MTEXT
  5
281E0
102
{ACAD_REACTORS
330
28235
102
}
330
747D
100
AcDbEntity
  8
寸法
 62
     7
 48
50.0
100
AcDbMText
 10
6755.329583250095
 20
897.3488914538148
 30
0.0
 40
80.0
 41
0.8
 71
     4
 72
     1
  1
\A1;D10@300
  7
STYLE2
 73
     1
 44
1.0
1001
ACAD
1000
MTEXTBEGIN
1070
    73
1070
     1
1070
    44
1040
1.0
1070
    74
1070
     0
1000
MTEXTEND
  0
LINE
  5
281E1
330
747D
100
AcDbEntity
  8
細線
 48
50.0
100
AcDbLine
 10
6441.591127388851
 20
1508.485491311349
 30
0.0
 11
6513.591127388838
 21
1580.485491311343
 31
0.0
  0
LINE
  5
281E2
330
747D
100
AcDbEntity
  8
細線
 48
50.0
100
AcDbLine
 10
6441.591127388845
 20
1535.426259674554
 30
0.0
 11
6513.591127388846
 21
1607.426259674554
 31
0.0
  0
LINE
  5
281E3
330
747D
100
AcDbEntity
  8
細線
 48
50.0
100
AcDbLine
 10
6441.591127388851
 20
1266.018576042479
 30
0.0
 11
6513.591127388838
 21
1338.018576042479
 31
0.0
  0
LINE
  5
281E4
330
747D
100
AcDbEntity
  8
細線
 48
50.0
100
AcDbLine
 10
6441.591127388851
 20
1319.900112768897
 30
0.0
 11
6513.591127388838
 21
1391.900112768893
 31
0.0
  0
LINE
  5
281E5
330
747D
100
AcDbEntity
  8
細線
 48
50.0
100
AcDbLine
 10
6441.591127388851
 20
1292.959344405689
 30
0.0
 11
6513.591127388838
 21
1364.959344405684
 31
0.0
  0
LINE
  5
281E6
330
747D
100
AcDbEntity
  8
部品1
 48
50.0
100
AcDbLine
 10
6513.591127388846
 20
1314.697977185968
 30
0.0
 11
6641.591127388846
 21
1314.697977185968
 31
0.0
  0
LINE
  5
281E7
330
747D
100
AcDbEntity
  8
細線
 48
50.0
100
AcDbLine
 10
6441.591127388851
 20
1481.544722948139
 30
0.0
 11
6513.591127388838
 21
1553.544722948139
 31
0.0
  0
LINE
  5
281E8
330
747D
100
AcDbEntity
  8
部品1
 48
50.0
100
AcDbLine
 10
6409.591127388845
 20
1660.82519188309
 30
0.0
 11
6409.591127388845
 21
1718.952406580213
 31
0.0
  0
LINE
  5
281E9
330
747D
100
AcDbEntity
  8
細線
 48
50.0
100
AcDbLine
 10
6321.591127388845
 20
1630.952406580213
 30
0.0
 11
6393.591127388845
 21
1702.952406580213
 31
0.0
  0
LINE
  5
281EA
330
747D
100
AcDbEntity
  8
部品1
 48
50.0
100
AcDbLine
 10
6393.591127388845
 20
1660.825191883094
 30
0.0
 11
6393.591127388845
 21
1718.952406580213
 31
0.0
  0
LINE
  5
281EB
330
747D
100
AcDbEntity
  8
細線
 48
50.0
100
AcDbLine
 10
6321.591127388845
 20
1604.011638217005
 30
0.0
 11
6393.591127388845
 21
1676.011638217005
 31
0.0
  0
LINE
  5
281EC
330
747D
100
AcDbEntity
  8
細線
 48
50.0
100
AcDbLine
 10
6321.591127388845
 20
1577.070869853798
 30
0.0
 11
6405.345449418139
 21
1660.82519188309
 31
0.0
  0
LINE
  5
281ED
330
747D
100
AcDbEntity
  8
部品1
 48
50.0
100
AcDbLine
 10
6409.591127388845
 20
1660.82519188309
 30
0.0
 11
6393.591127388845
 21
1660.825191883094
 31
0.0
  0
LINE
  5
281EE
330
747D
100
AcDbEntity
  8
細線
 48
50.0
100
AcDbLine
 10
6193.591127388838
 20
1287.426259674554
 30
0.0
 11
6220.862844900259
 21
1314.697977185968
 31
0.0
  0
LINE
  5
281EF
330
747D
100
AcDbEntity
  8
細線
 48
50.0
100
AcDbLine
 10
6193.591127388838
 20
1260.485491311343
 30
0.0
 11
6247.80361326347
 21
1314.697977185968
 31
0.0
  0
LINE
  5
281F0
330
747D
100
AcDbEntity
  8
部品1
 48
50.0
100
AcDbLine
 10
6193.591127388845
 20
1314.697977185968
 30
0.0
 11
6321.591127388845
 21
1314.697977185968
 31
0.0
  0
LINE
  5
281F1
330
747D
100
AcDbEntity
  8
細線
 48
50.0
100
AcDbLine
 10
6409.591127388845
 20
1692.011638217005
 30
0.0
 11
6425.591127388845
 21
1708.011638217005
 31
0.0
  0
LINE
  5
281F2
330
747D
100
AcDbEntity
  8
細線
 48
50.0
100
AcDbLine
 10
6409.591127388845
 20
1665.070869853798
 30
0.0
 11
6425.591127388845
 21
1681.070869853798
 31
0.0
  0
LINE
  5
281F3
330
747D
100
AcDbEntity
  8
細線
 48
50.0
100
AcDbLine
 10
6321.591127388845
 20
1361.544722948139
 30
0.0
 11
6425.59112738885
 21
1465.544722948139
 31
0.0
  0
LINE
  5
281F4
330
747D
100
AcDbEntity
  8
細線
 48
50.0
100
AcDbLine
 10
6321.591127388845
 20
1415.426259674554
 30
0.0
 11
6425.591127388845
 21
1519.426259674554
 31
0.0
  0
LINE
  5
281F5
330
747D
100
AcDbEntity
  8
細線
 48
50.0
100
AcDbLine
 10
6321.591127388845
 20
1388.485491311346
 30
0.0
 11
6425.59112738885
 21
1492.485491311349
 31
0.0
  0
LINE
  5
281F6
330
747D
100
AcDbEntity
  8
細線
 48
50.0
100
AcDbLine
 10
6584.416772792192
 20
1050.697977185968
 30
0.0
 11
6577.985992173847
 21
1074.697977185968
 31
0.0
  0
LINE
  5
281F7
330
747D
100
AcDbEntity
  8
細線
 48
50.0
100
AcDbLine
 10
6627.441285617239
 20
1074.697977185968
 30
0.0
 11
6641.591127388846
 21
1088.847818957574
 31
0.0
  0
LINE
  5
281F8
330
747D
100
AcDbEntity
  8
細線
 48
50.0
100
AcDbLine
 10
6663.30481773944
 20
1050.697977185968
 30
0.0
 11
6656.874037121092
 21
1074.697977185968
 31
0.0
  0
LINE
  5
281F9
330
747D
100
AcDbEntity
  8
部品1
 48
50.0
100
AcDbLine
 10
6585.591127388845
 20
1186.697977185968
 30
0.0
 11
6585.591127388845
 21
1170.697977185968
 31
0.0
  0
LINE
  5
281FA
330
747D
100
AcDbEntity
  8
細線
 48
50.0
100
AcDbLine
 10
6465.796675437992
 20
1074.697977185968
 30
0.0
 11
6561.797563283128
 21
1170.698865031106
 31
0.0
  0
LINE
  5
281FB
330
747D
100
AcDbEntity
  8
細線
 48
50.0
100
AcDbLine
 10
6438.855907074788
 20
1074.697977185968
 30
0.0
 11
6534.855907074788
 21
1170.697977185968
 31
0.0
  0
LINE
  5
281FC
330
747D
100
AcDbEntity
  8
細線
 48
50.0
100
AcDbLine
 10
6505.528727844946
 20
1050.697977185968
 30
0.0
 11
6499.097947226601
 21
1074.697977185968
 31
0.0
  0
LINE
  5
281FD
330
747D
100
AcDbEntity
  8
細線
 48
50.0
100
AcDbLine
 10
6426.640682897701
 20
1050.697977185968
 30
0.0
 11
6420.209902279353
 21
1074.697977185968
 31
0.0
  0
ARC
  5
281FE
330
747D
100
AcDbEntity
  8
部品1
 48
50.0
100
AcDbCircle
 10
6417.591127388845
 20
1194.697977185968
 30
0.0
 40
24.0
100
AcDbArc
 50
340.5287793655256
 51
0.0
  0
CIRCLE
  5
281FF
330
747D
100
AcDbEntity
  8
部品1
 48
50.0
100
AcDbCircle
 10
6545.591127388845
 20
1194.697977185968
 30
0.0
 40
8.0
  0
LINE
  5
28200
330
747D
100
AcDbEntity
  8
細線
 48
50.0
100
AcDbLine
 10
6577.796675437991
 20
1186.697977185968
 30
0.0
 11
6641.591127388846
 21
1250.492429136819
 31
0.0
  0
LINE
  5
28201
330
747D
100
AcDbEntity
  8
細線
 48
50.0
100
AcDbLine
 10
6714.326146673847
 20
946.697977185966
 30
0.0
 11
6721.591127388845
 21
973.8112543303559
 31
0.0
  0
LINE
  5
28202
330
747D
100
AcDbEntity
  8
細線
 48
50.0
100
AcDbLine
 10
6720.756927292197
 20
970.6979771859678
 30
0.0
 11
6721.591127388845
 21
967.5847000416034
 31
0.0
  0
LINE
  5
28203
330
747D
100
AcDbEntity
  8
細線
 48
50.0
100
AcDbLine
 10
6641.86888234495
 20
970.6979771859678
 30
0.0
 11
6648.299662963298
 21
946.6979771859678
 31
0.0
  0
LINE
  5
28204
330
747D
100
AcDbEntity
  8
細線
 48
50.0
100
AcDbLine
 10
6484.092792450458
 20
970.6979771859678
 30
0.0
 11
6490.523573068803
 21
946.6979771859678
 31
0.0
  0
LINE
  5
28205
330
747D
100
AcDbEntity
  8
細線
 48
50.0
100
AcDbLine
 10
6562.980837397702
 20
970.6979771859678
 30
0.0
 11
6569.411618016051
 21
946.6979771859678
 31
0.0
  0
LINE
  5
28206
330
747D
100
AcDbEntity
  8
細線
 48
50.0
100
AcDbLine
 10
6556.550056779354
 20
946.697977185966
 30
0.0
 11
6590.847553410537
 21
1074.697977185966
 31
0.0
  0
LINE
  5
28207
330
747D
100
AcDbEntity
  8
細線
 48
50.0
100
AcDbLine
 10
6477.662011832105
 20
946.6979771859678
 30
0.0
 11
6511.959508463291
 21
1074.697977185966
 31
0.0
  0
LINE
  5
28208
330
747D
100
AcDbEntity
  8
細線
 48
50.0
100
AcDbLine
 10
6635.438101726599
 20
946.6979771859678
 30
0.0
 11
6669.735598357783
 21
1074.697977185966
 31
0.0
  0
LINE
  5
28209
330
747D
100
AcDbEntity
  8
部品1
 48
50.0
100
AcDbLine
 10
6721.591127388849
 20
1074.697977185968
 30
0.0
 11
6721.591127388849
 21
946.6979771859678
 31
0.0
  0
LINE
  5
2820A
330
747D
100
AcDbEntity
  8
部品1
 48
50.0
100
AcDbLine
 10
6409.591127388845
 20
1252.82519188309
 30
0.0
 11
6409.591127388845
 21
1194.697977185968
 31
0.0
  0
LINE
  5
2820B
330
747D
100
AcDbEntity
  8
細線
 48
50.0
100
AcDbLine
 10
6335.329760169129
 20
1186.697977185968
 30
0.0
 11
6393.591127388845
 21
1244.959344405686
 31
0.0
  0
LINE
  5
2820C
330
747D
100
AcDbEntity
  8
部品1
 48
50.0
100
AcDbLine
 10
6393.591127388845
 20
1252.82519188309
 30
0.0
 11
6393.591127388845
 21
1194.697977185968
 31
0.0
  0
LINE
  5
2820D
330
747D
100
AcDbEntity
  8
細線
 48
50.0
100
AcDbLine
 10
6250.270528532333
 20
1074.697977185968
 30
0.0
 11
6346.270528532333
 21
1170.697977185968
 31
0.0
  0
LINE
  5
2820E
330
747D
100
AcDbEntity
  8
細線
 48
50.0
100
AcDbLine
 10
6347.752637950449
 20
1050.697977185968
 30
0.0
 11
6341.321857332103
 21
1074.697977185968
 31
0.0
  0
LINE
  5
2820F
330
747D
100
AcDbEntity
  8
細線
 48
50.0
100
AcDbLine
 10
6268.864593003196
 20
1050.697977185968
 30
0.0
 11
6262.43381238485
 21
1074.697977185968
 31
0.0
  0
ARC
  5
28210
330
747D
100
AcDbEntity
  8
部品1
 48
50.0
100
AcDbCircle
 10
6417.591127388845
 20
1194.697977185968
 30
0.0
 40
24.0
100
AcDbArc
 50
180.0
 51
199.4712206344743
  0
LINE
  5
28211
330
747D
100
AcDbEntity
  8
細線
 48
50.0
100
AcDbLine
 10
6362.270528532333
 20
1186.697977185968
 30
0.0
 11
6393.591127388845
 21
1218.018576042479
 31
0.0
  0
CIRCLE
  5
28212
330
747D
100
AcDbEntity
  8
部品1
 48
50.0
100
AcDbCircle
 10
6289.591127388845
 20
1194.697977185968
 30
0.0
 40
8.0
  0
LINE
  5
28213
330
747D
100
AcDbEntity
  8
部品1
 48
50.0
100
AcDbLine
 10
6409.591127388845
 20
1252.82519188309
 30
0.0
 11
6393.591127388845
 21
1252.82519188309
 31
0.0
  0
LINE
  5
28214
330
747D
100
AcDbEntity
  8
細線
 48
50.0
100
AcDbLine
 10
6113.591127388845
 20
1060.037898151747
 30
0.0
 11
6117.519283727041
 21
1074.697977185968
 31
0.0
  0
LINE
  5
28215
330
747D
100
AcDbEntity
  8
細線
 48
50.0
100
AcDbLine
 10
6189.976548055945
 20
1050.697977185968
 30
0.0
 11
6183.545767437597
 21
1074.697977185968
 31
0.0
  0
LINE
  5
28216
330
747D
100
AcDbEntity
  8
部品1
 48
50.0
100
AcDbLine
 10
6249.591127388845
 20
1186.697977185968
 30
0.0
 11
6249.591127388845
 21
1170.697977185968
 31
0.0
  0
LINE
  5
28217
330
747D
100
AcDbEntity
  8
細線
 48
50.0
100
AcDbLine
 10
6196.388991805918
 20
1074.697977185968
 30
0.0
 11
6292.388991805918
 21
1170.697977185968
 31
0.0
  0
LINE
  5
28218
330
747D
100
AcDbEntity
  8
細線
 48
50.0
100
AcDbLine
 10
6223.329760169129
 20
1074.697977185968
 30
0.0
 11
6319.329760169129
 21
1170.697977185968
 31
0.0
  0
LINE
  5
28219
330
747D
100
AcDbEntity
  8
細線
 48
50.0
100
AcDbLine
 10
6326.31670255596
 20
970.6979771859678
 30
0.0
 11
6332.747483174306
 21
946.6979771859678
 31
0.0
  0
LINE
  5
2821A
330
747D
100
AcDbEntity
  8
細線
 48
50.0
100
AcDbLine
 10
6405.204747503212
 20
970.6979771859678
 30
0.0
 11
6411.635528121559
 21
946.6979771859678
 31
0.0
  0
LINE
  5
2821B
330
747D
100
AcDbEntity
  8
細線
 48
50.0
100
AcDbLine
 10
6168.540612661456
 20
970.6979771859678
 30
0.0
 11
6174.971393279802
 21
946.6979771859678
 31
0.0
  0
LINE
  5
2821C
330
747D
100
AcDbEntity
  8
細線
 48
50.0
100
AcDbLine
 10
6247.428657608708
 20
970.6979771859678
 30
0.0
 11
6253.859438227055
 21
946.6979771859678
 31
0.0
  0
LINE
  5
2821D
330
747D
100
AcDbEntity
  8
部品1
 48
50.0
100
AcDbLine
 10
6113.591127388847
 20
946.6979771859678
 30
0.0
 11
6113.591127388847
 21
1074.697977185968
 31
0.0
  0
LINE
  5
2821E
330
747D
100
AcDbEntity
  8
細線
 48
50.0
100
AcDbLine
 10
6162.109832043103
 20
946.697977185966
 30
0.0
 11
6196.407328674286
 21
1074.697977185966
 31
0.0
  0
LINE
  5
2821F
330
747D
100
AcDbEntity
  8
細線
 48
50.0
100
AcDbLine
 10
6319.885921937607
 20
946.697977185966
 30
0.0
 11
6354.18341856879
 21
1074.697977185966
 31
0.0
  0
LINE
  5
28220
330
747D
100
AcDbEntity
  8
細線
 48
50.0
100
AcDbLine
 10
6240.997876990361
 20
946.6979771859678
 30
0.0
 11
6275.295373621544
 21
1074.697977185968
 31
0.0
  0
LINE
  5
28221
330
747D
100
AcDbEntity
  8
細線
 48
50.0
100
AcDbLine
 10
6411.915138711577
 20
1074.697977185968
 30
0.0
 11
6507.915138711578
 21
1170.697977185968
 31
0.0
  0
CIRCLE
  5
28222
330
747D
100
AcDbEntity
  8
部品1
 48
50.0
100
AcDbCircle
 10
6417.591127388845
 20
1194.697977185968
 30
0.0
 40
8.0
  0
LINE
  5
28223
330
747D
100
AcDbEntity
  8
部品1
 48
50.0
100
AcDbLine
 10
6721.591127388849
 20
1074.697977185968
 30
0.0
 11
6113.591127388847
 21
1074.697977185968
 31
0.0
  0
LINE
  5
28224
330
747D
100
AcDbEntity
  8
部品1
 48
50.0
100
AcDbLine
 10
6249.591127388845
 20
1186.697977185968
 30
0.0
 11
6585.591127388845
 21
1186.697977185968
 31
0.0
  0
LINE
  5
28225
330
747D
100
AcDbEntity
  8
部品1
 48
50.0
100
AcDbLine
 10
6249.591127388845
 20
1170.697977185968
 30
0.0
 11
6585.591127388845
 21
1170.697977185968
 31
0.0
  0
LINE
  5
28226
330
747D
100
AcDbEntity
  8
部品1
 48
50.0
100
AcDbLine
 10
6721.591127388849
 20
946.6979771859678
 30
0.0
 11
6113.591127388847
 21
946.6979771859678
 31
0.0
  0
LINE
  5
28227
330
747D
100
AcDbEntity
  8
細線
 48
50.0
100
AcDbLine
 10
6398.773966884859
 20
946.6979771859678
 30
0.0
 11
6433.071463516042
 21
1074.697977185968
 31
0.0
  0
LINE
  5
28228
330
747D
100
AcDbEntity
  8
細線
 48
50.0
100
AcDbLine
 10
6409.591127388845
 20
1234.018576042479
 30
0.0
 11
6425.59112738885
 21
1250.018576042479
 31
0.0
  0
LINE
  5
28229
330
747D
100
AcDbEntity
  8
部品1
 48
50.0
100
AcDbLine
 10
6425.59112738885
 20
1194.697977185968
 30
0.0
 11
6425.591127388837
 21
1718.952406580213
 31
0.0
  0
LINE
  5
2822A
330
747D
100
AcDbEntity
  8
部品1
 48
50.0
100
AcDbLine
 10
6441.591127388851
 20
1194.697977185968
 30
0.0
 11
6441.591127388845
 21
1718.952406580213
 31
0.0
  0
LINE
  5
2822B
330
747D
100
AcDbEntity
  8
部品1
 48
50.0
100
AcDbLine
 10
6641.591127388846
 20
1314.697977185968
 30
0.0
 11
6641.591127388846
 21
1074.697977185968
 31
0.0
  0
LINE
  5
2822C
330
747D
100
AcDbEntity
  8
細線
 48
50.0
100
AcDbLine
 10
6523.915138711572
 20
1186.697977185968
 30
0.0
 11
6641.591127388846
 21
1304.373965863234
 31
0.0
  0
LINE
  5
2822D
330
747D
100
AcDbEntity
  8
細線
 48
50.0
100
AcDbLine
 10
6550.855907074789
 20
1186.697977185968
 30
0.0
 11
6641.591127388846
 21
1277.433197500027
 31
0.0
  0
LINE
  5
2822E
330
747D
100
AcDbEntity
  8
部品1
 48
50.0
100
AcDbLine
 10
6193.591127388845
 20
1074.697977185968
 30
0.0
 11
6193.591127388845
 21
1314.697977185968
 31
0.0
  0
LINE
  5
2822F
330
747D
100
AcDbEntity
  8
細線
 48
50.0
100
AcDbLine
 10
6308.388991805918
 20
1186.697977185968
 30
0.0
 11
6425.591127388845
 21
1303.900112768893
 31
0.0
  0
LINE
  5
28230
330
747D
100
AcDbEntity
  8
細線
 48
50.0
100
AcDbLine
 10
6401.456974866249
 20
1252.82519188309
 30
0.0
 11
6425.59112738885
 21
1276.959344405689
 31
0.0
  0
LINE
  5
28231
330
747D
100
AcDbEntity
  8
細線
 48
50.0
100
AcDbLine
 10
6193.591127388838
 20
1233.544722948139
 30
0.0
 11
6274.744381626673
 21
1314.697977185968
 31
0.0
  0
LEADER
  5
28232
330
747D
100
AcDbEntity
  8
寸法
 48
50.0
100
AcDbLeader
  3
INABA_S50G
 71
     0
 73
     0
 74
     0
 75
     1
 40
100.0
 41
222.7272727272727
 76
     3
 10
6417.591127388845
 20
1718.952406580213
 30
0.0
 10
6471.477064416238
 20
1818.187979433387
 30
0.0
 10
6596.477064416238
 20
1818.187979433387
 30
0.0
1001
ACAD
1000
DSTYLE
1002
{
1070
    40
1040
1.0
1070
   272
1070
     1
1070
   279
1070
     1
1070
   341
1005
0
1002
}
  0
LWPOLYLINE
  5
28233
330
747D
100
AcDbEntity
  8
部品1
 48
50.0
100
AcDbPolyline
 90
        2
 70
     0
 43
8.0
 10
6513.591127388844
 20
1618.697977185968
 10
6927.731029221802
 20
1618.697977185968
  0
MTEXT
  5
28234
102
{ACAD_REACTORS
330
28236
102
}
330
747D
100
AcDbEntity
  8
寸法
 62
     7
 48
50.0
100
AcDbMText
 10
6744.918787195529
 20
1159.300908242995
 30
0.0
 40
80.0
 41
0.8
 71
     4
 72
     1
  1
D10
  7
STYLE2
 73
     1
 44
1.0
1001
ACAD
1000
MTEXTBEGIN
1070
    73
1070
     1
1070
    44
1040
1.0
1070
    74
1070
     0
1000
MTEXTEND
  0
LEADER
  5
28235
330
747D
100
AcDbEntity
  8
寸法
 48
50.0
100
AcDbLeader
  3
INABA_S50G
 71
     0
 73
     0
 74
     0
 75
     1
 40
100.0
 41
540.3409090909091
 76
     3
 10
6491.536296402019
 20
1177.957446772442
 30
0.0
 10
6610.329583250095
 20
836.326628777545
 30
0.0
 10
6735.329583250095
 20
836.326628777545
 30
0.0
213
0.0
223
-1.022262676269383
233
0.0
1001
ACAD
1000
DSTYLE
1002
{
1070
    40
1040
1.0
1070
   272
1070
     1
1070
   279
1070
     1
1070
   341
1005
0
1002
}
  0
LEADER
  5
28236
330
747D
100
AcDbEntity
  8
寸法
 48
50.0
100
AcDbLeader
  3
INABA_S50G
 71
     0
 73
     0
 74
     0
 75
     1
 40
100.0
 41
225.0
 76
     3
 10
6545.494079740987
 20
1194.697977185968
 30
0.0
 10
6599.918787195528
 20
1099.300908242995
 30
0.0
 10
6724.918787195528
 20
1099.300908242995
 30
0.0
1001
ACAD
1000
DSTYLE
1002
{
1070
    40
1040
1.0
1070
   272
1070
     1
1070
   279
1070
     1
1070
   341
1005
0
1002
}
  0
MTEXT
  5
28237
102
{ACAD_REACTORS
330
28232
102
}
330
747D
100
AcDbEntity
  8
寸法
 62
     7
 48
50.0
100
AcDbMText
 10
6596.477064416238
 20
1881.253876478779
 30
0.0
 40
80.0
 41
0.8
 71
     4
 72
     1
  1
D13
  7
STYLE2
 73
     1
 44
1.0
1001
ACAD
1000
MTEXTBEGIN
1070
    73
1070
     1
1070
    44
1040
1.0
1070
    74
1070
     0
1000
MTEXTEND
  0
LINE
  5
28238
330
747D
100
AcDbEntity
  8
部品1
 48
50.0
100
AcDbLine
 10
6513.591127388846
 20
1858.697977185968
 30
0.0
 11
6513.591127388846
 21
1314.697977185968
 31
0.0
  0
LINE
  5
28239
330
747D
100
AcDbEntity
  8
部品1
 48
50.0
100
AcDbLine
 10
6321.591127388845
 20
1314.697977185968
 30
0.0
 11
6321.591127388845
 21
1858.697977185968
 31
0.0
  0
CIRCLE
  5
2823A
330
747D
100
AcDbEntity
  8
部品1
 48
50.0
100
AcDbCircle
 10
6417.591127388845
 20
1718.952406580213
 30
0.0
 40
8.0
  0
ARC
  5
2823B
330
747D
100
AcDbEntity
  8
部品1
 48
50.0
100
AcDbCircle
 10
6417.591127388845
 20
1718.952406580213
 30
0.0
 40
24.0
100
AcDbArc
 50
0.0
 51
180.0
  0
LINE
  5
2823C
330
747D
100
AcDbEntity
  8
細線
 48
50.0
100
AcDbLine
 10
6441.591127388845
 20
1697.070869853798
 30
0.0
 11
6513.591127388846
 21
1769.070869853798
 31
0.0
  0
LEADER
  5
2823D
330
747D
100
AcDbEntity
  8
寸法
 48
50.0
100
AcDbLeader
  3
INABA_S50G
 73
     0
 75
     1
 40
106.3636363636363
 41
893.1818181818181
 76
     3
 10
8153.030440566039
 20
1928.257977185969
 30
0.0
 10
8104.606368221098
 20
2302.317551902302
 30
0.0
 10
7979.606368221098
 20
2302.317551902302
 30
0.0
340
2823E
1001
ACAD
1000
DSTYLE
1002
{
1070
   341
1005
0
1070
    40
1040
1.0
1070
   343
1005
0
1070
   344
1005
0
1002
}
  0
MTEXT
  5
2823E
102
{ACAD_REACTORS
330
2823D
102
}
330
747D
100
AcDbEntity
  8
寸法
 62
     7
 48
50.0
100
AcDbMText
 10
7954.606368221099
 20
2380.49937008412
 30
0.0
 40
80.0
 41
0.8
 71
     6
 72
     1
  1
\A1;アンカープレート L
  7
STYLE2
 73
     1
 44
1.0
1001
ACAD
1000
MTEXTBEGIN
1070
    73
1070
     1
1070
    44
1040
1.0
1070
    74
1070
     0
1000
MTEXTEND
  0
DIMENSION
  5
2823F
330
747D
100
AcDbEntity
  8
寸法
 48
50.0
100
AcDbDimension
  2
*D60
 10
6641.591127388844
 20
536.2683391808077
 30
0.0
 11
6397.494368710621
 21
536.2683391808077
 31
0.0
 70
   160
  1
300
 71
     5
 42
448.0
  3
INABA_S40G
100
AcDbAlignedDimension
 13
6193.591127388844
 23
946.6979771859678
 33
0.0
 14
6641.591127388844
 24
946.6979771859678
 34
0.0
100
AcDbRotatedDimension
1001
ACAD
1000
DSTYLE
1002
{
1070
   341
1005
0
1002
}
  0
MTEXT
  5
28240
102
{ACAD_REACTORS
330
28248
102
}
330
747D
100
AcDbEntity
  8
寸法
 62
     7
 48
50.0
100
AcDbMText
 10
6022.65610119365
 20
991.1752835675315
 30
0.0
 40
80.0
 41
0.8
 71
     6
 72
     1
  1
D10
  7
STYLE2
 73
     1
 44
1.0
1001
ACAD
1000
MTEXTBEGIN
1070
    73
1070
     1
1070
    44
1040
1.0
1070
    74
1070
     0
1000
MTEXTEND
  0
MTEXT
  5
28241
102
{ACAD_REACTORS
330
28247
102
}
330
747D
100
AcDbEntity
  8
寸法
 62
     7
 48
50.0
100
AcDbMText
 10
6050.778828751084
 20
810.859131028088
 30
0.0
 40
80.0
 41
0.8
 71
     6
 72
     1
  1
D13
  7
STYLE2
 73
     1
 44
1.0
1001
ACAD
1000
MTEXTBEGIN
1070
    73
1070
     1
1070
    44
1040
1.0
1070
    74
1070
     0
1000
MTEXTEND
  0
DIMENSION
  5
28242
330
747D
100
AcDbEntity
  8
寸法
 48
50.0
100
AcDbDimension
  2
*D61
 10
5586.553888827104
 20
1074.697977185968
 30
0.0
 11
5586.553888827104
 21
1446.238126841968
 31
0.0
 70
   160
  1
540
 71
     5
 42
784.0
  3
INABA_S40G
100
AcDbAlignedDimension
 13
6321.591127388844
 23
1858.697977185968
 33
0.0
 14
6113.591127388848
 24
1074.697977185968
 34
0.0
 50
90.0
100
AcDbRotatedDimension
1001
ACAD
1000
DSTYLE
1002
{
1070
   341
1005
0
1002
}
  0
MTEXT
  5
28243
102
{ACAD_REACTORS
330
28244
102
}
330
747D
100
AcDbEntity
  8
寸法
 62
     7
 48
50.0
100
AcDbMText
 10
6101.492647905571
 20
2071.21419718801
 30
0.0
 40
80.0
 41
0.8
 71
     6
 72
     1
  1
\A1;金コテ押エ
  7
STYLE2
 73
     1
 44
1.0
1001
ACAD
1000
MTEXTBEGIN
1070
    73
1070
     1
1070
    44
1040
1.0
1070
    74
1070
     0
1000
MTEXTEND
  0
LEADER
  5
28244
330
747D
100
AcDbEntity
  8
寸法
 48
50.0
100
AcDbLeader
  3
INABA_S50G
 71
     0
 73
     0
 75
     1
 40
130.1136363636363
 41
651.1363636363636
 76
     3
 10
6401.591127388845
 20
1858.697977185968
 30
0.0
 10
6289.166547224827
 20
1999.168742642556
 30
0.0
 10
6164.166547224827
 20
1999.168742642556
 30
0.0
1001
ACAD
1000
DSTYLE
1002
{
1070
    40
1040
1.0
1070
   272
1070
     1
1070
   279
1070
     1
1070
   341
1005
0
1002
}
  0
LEADER
  5
28245
330
747D
100
AcDbEntity
  8
寸法
 48
50.0
100
AcDbLeader
  3
INABA_S50G
 71
     0
 73
     0
 75
     1
 40
100.0
 41
540.3409090909091
 76
     3
 10
6425.591127388845
 20
1616.825191883091
 30
0.0
 10
6367.608890860147
 20
1395.354863342286
 30
0.0
 10
6242.608890860147
 20
1395.354863342286
 30
0.0
213
-9.732182305893367
223
-4.643716661138569
233
0.0
1001
ACAD
1000
DSTYLE
1002
{
1070
    40
1040
1.0
1070
   272
1070
     1
1070
   279
1070
     1
1070
   341
1005
0
1002
}
  0
MTEXT
  5
28246
102
{ACAD_REACTORS
330
28245
102
}
330
747D
100
AcDbEntity
  8
寸法
 62
     7
 48
50.0
100
AcDbMText
 10
6232.34107316604
 20
1459.998580003424
 30
0.0
 40
80.0
 41
0.8
 71
     6
 72
     1
  1
\A1;D10@300
  7
STYLE2
 73
     1
 44
1.0
1001
ACAD
1000
MTEXTBEGIN
1070
    73
1070
     1
1070
    44
1040
1.0
1070
    74
1070
     0
1000
MTEXTEND
  0
LEADER
  5
28247
330
747D
100
AcDbEntity
  8
寸法
 48
50.0
100
AcDbLeader
  3
INABA_S50G
 71
     0
 73
     0
 75
     1
 40
100.0
 41
222.7272727272727
 76
     3
 10
6417.591127388845
 20
1194.697977185968
 30
0.0
 10
6195.778828751085
 20
750.8591310280881
 30
0.0
 10
6070.778828751085
 20
750.8591310280881
 30
0.0
1001
ACAD
1000
DSTYLE
1002
{
1070
    40
1040
1.0
1070
   272
1070
     1
1070
   279
1070
     1
1070
   341
1005
0
1002
}
  0
LEADER
  5
28248
330
747D
100
AcDbEntity
  8
寸法
 48
50.0
100
AcDbLeader
  3
INABA_S50G
 71
     0
 73
     0
 75
     1
 40
100.0
 41
225.0
 76
     3
 10
6289.494079740987
 20
1194.697977185968
 30
0.0
 10
6167.656101193649
 20
931.1752835675315
 30
0.0
 10
6042.656101193649
 20
931.1752835675315
 30
0.0
1001
ACAD
1000
DSTYLE
1002
{
1070
    40
1040
1.0
1070
   272
1070
     1
1070
   279
1070
     1
1070
   341
1005
0
1002
}
  0
DIMENSION
  5
28249
330
747D
100
AcDbEntity
  8
寸法
 48
50.0
100
AcDbDimension
  2
*D62
 10
6051.170813656384
 20
1074.697977185968
 30
0.0
 11
6051.170813656384
 21
1194.697977185969
 31
0.0
 70
   160
  1
150
 71
     5
 42
240.0
  3
INABA_S40G
100
AcDbAlignedDimension
 13
6193.591127388844
 23
1314.697977185968
 33
0.0
 14
6113.591127388848
 24
1074.697977185968
 34
0.0
 50
90.0
100
AcDbRotatedDimension
1001
ACAD
1000
DSTYLE
1002
{
1070
   341
1005
0
1002
}
  0
TEXT
  5
2824A
330
747D
100
AcDbEntity
  8
部品1
 48
50.0
100
AcDbText
 10
5907.451225555888
 20
1629.936969469223
 30
0.0
 40
80.0
  1
▽G.L
  7
STYLE2
100
AcDbText
  0
LWPOLYLINE
  5
2824B
330
747D
100
AcDbEntity
  8
部品1
 48
50.0
100
AcDbPolyline
 90
        2
 70
     0
 43
8.0
 10
5907.451225555888
 20
1618.697977185968
 10
6321.591127388844
 20
1618.697977185968
  0
MTEXT
  5
2824C
102
{ACAD_REACTORS
330
2824D
102
}
330
747D
100
AcDbEntity
  8
寸法
 62
     7
 48
50.0
100
AcDbMText
 10
7927.963362012741
 20
2741.183641991634
 30
0.0
 40
80.0
 41
0.8
 71
     6
 72
     1
  1
\A1;φ70スリーブ
  7
STYLE2
 73
     1
 44
1.0
1001
ACAD
1000
MTEXTBEGIN
1070
    73
1070
     1
1070
    44
1040
1.0
1070
    74
1070
     0
1000
MTEXTEND
  0
LEADER
  5
2824D
330
747D
100
AcDbEntity
  8
寸法
 48
50.0
100
AcDbLeader
  3
INABA_S50G
 73
     0
 75
     1
 40
113.1818181818182
 41
608.6363636363635
 76
     3
 10
8211.76719070409
 20
1808.213650544247
 30
0.0
 10
8077.963362012742
 20
2659.592732900725
 30
0.0
 10
7952.963362012742
 20
2659.592732900725
 30
0.0
340
2824C
1001
ACAD
1000
DSTYLE
1002
{
1070
   341
1005
0
1070
    40
1040
1.0
1070
   343
1005
0
1070
   344
1005
0
1002
}
  0
LINE
  5
2824E
330
747D
100
AcDbEntity
  8
部品1
100
AcDbLine
 10
5250.922688579581
 20
3258.036644386554
 30
0.0
 11
5250.922688579583
 21
293.7296748019062
 31
0.0
  0
LEADER
  5
2824F
330
747D
100
AcDbEntity
  8
寸法
 48
50.0
100
AcDbLeader
  3
INABA_S50G
 73
     0
 74
     0
 75
     1
 40
80.0
 41
435.0
 76
     3
 10
8252.03044056604
 20
1907.857977185969
 30
0.0
 10
8294.574902985358
 20
2058.081303339198
 30
0.0
 10
8419.574902985358
 20
2058.081303339198
 30
0.0
340
28250
1001
ACAD
1000
DSTYLE
1002
{
1070
   341
1005
0
1070
    40
1040
1.0
1070
   343
1005
0
1070
   344
1005
0
1002
}
  0
MTEXT
  5
28250
102
{ACAD_REACTORS
330
2824F
102
}
330
747D
100
AcDbEntity
  8
部品1
 62
     7
 48
50.0
100
AcDbMText
 10
8444.574902985356
 20
2123.081303339198
 30
0.0
 40
80.0
 41
0.8
 71
     4
 72
     1
  1
M10X160
  7
STYLE2
 73
     1
 44
1.0
1001
ACAD
1000
MTEXTBEGIN
1070
    73
1070
     1
1070
    44
1040
1.0
1070
    74
1070
     0
1000
MTEXTEND
  0
DIMENSION
  5
28251
330
747D
100
AcDbEntity
  8
寸法
 48
50.0
100
AcDbDimension
  2
*D63
 10
9213.553706453909
 20
1858.697977185968
 30
0.0
 11
9213.553706453909
 21
1392.689073764485
 31
0.0
 70
   160
  1
20～25
 71
     5
 42
52.76000000000113
  3
INABA_S40G
100
AcDbAlignedDimension
 13
8248.430440566037
 23
1911.457977185969
 33
0.0
 14
8435.630440566038
 24
1858.697977185968
 34
0.0
 50
90.0
100
AcDbRotatedDimension
1001
ACAD
1000
DSTYLE
1002
{
1070
   341
1005
0
1002
}
  0
DIMENSION
  5
28252
330
747D
100
AcDbEntity
  8
寸法
 48
50.0
100
AcDbDimension
  2
*D64
 10
8937.499040334882
 20
1534.697977185967
 30
0.0
 11
8837.499040334881
 21
1696.697977185969
 31
0.0
 70
    32
  1
180
 71
     5
 42
324.0000000000009
  3
INABA_S40G
100
AcDbAlignedDimension
 13
8435.630440566038
 23
1858.697977185968
 33
0.0
 14
8435.630440566038
 24
1534.697977185967
 34
0.0
 50
90.0
100
AcDbRotatedDimension
1001
ACAD
1000
DSTYLE
1002
{
1070
   341
1005
0
1002
}
  0
TEXT
  5
28253
330
747D
100
AcDbEntity
  8
部品1
 48
50.0
100
AcDbText
 10
8439.984024850465
 20
2214.576657948168
 30
0.0
 40
80.0
  1
基礎ボルト(市販品)
  7
STYLE2
100
AcDbText
  0
LWPOLYLINE
  5
28254
330
747D
100
AcDbEntity
  8
部品1
 48
50.0
100
AcDbPolyline
 90
        2
 70
     0
 43
8.0
 10
8435.630440566038
 20
1618.697977185968
 10
8729.332903965422
 20
1618.697977185968
  0
MTEXT
  5
28255
102
{ACAD_REACTORS
330
28256
102
}
330
747D
100
AcDbEntity
  8
部品1
 62
     7
 48
50.0
100
AcDbMText
 10
8474.902030934877
 20
2559.193350273228
 30
0.0
 40
80.0
 41
0.8
 71
     4
 72
     1
  1
\A1;ワッシャー(市販品)
  7
STYLE2
 73
     1
 44
1.0
1001
ACAD
1000
MTEXTBEGIN
1070
    73
1070
     1
1070
    44
1040
1.0
1070
    74
1070
     0
1000
MTEXTEND
  0
LEADER
  5
28256
330
747D
100
AcDbEntity
  8
寸法
 48
50.0
100
AcDbLeader
  3
INABA_S50G
 73
     0
 74
     0
 75
     1
 40
102.2727272727273
 41
906.8181818181818
 76
     3
 10
8283.030440566038
 20
2127.821265630247
 30
0.0
 10
8324.902030934877
 20
2483.056986636864
 30
0.0
 10
8449.902030934877
 20
2483.056986636864
 30
0.0
340
28255
1001
ACAD
1000
DSTYLE
1002
{
1070
   341
1005
0
1070
    40
1040
1.0
1070
   343
1005
0
1070
   344
1005
0
1002
}
  0
MTEXT
  5
28257
102
{ACAD_REACTORS
330
28258
102
}
330
747D
100
AcDbEntity
  8
部品1
 62
     7
 48
50.0
100
AcDbMText
 10
8443.384411679394
 20
2744.162433038015
 30
0.0
 40
80.0
 41
0.8
 71
     4
 72
     1
  1
\A1;ナット(市販品)
  7
STYLE2
 73
     1
 44
1.0
1001
ACAD
1000
MTEXTBEGIN
1070
    73
1070
     1
1070
    44
1040
1.0
1070
    74
1070
     0
1000
MTEXTEND
  0
LEADER
  5
28258
330
747D
100
AcDbEntity
  8
寸法
 48
50.0
100
AcDbLeader
  3
INABA_S50G
 73
     0
 74
     0
 75
     1
 40
102.2727272727273
 41
680.0000000000001
 76
     3
 10
8259.030440566039
 20
2257.57325829511
 30
0.0
 10
8293.384411679395
 20
2668.026069401652
 30
0.0
 10
8418.384411679395
 20
2668.026069401652
 30
0.0
340
28257
1001
ACAD
1000
DSTYLE
1002
{
1070
   341
1005
0
1070
    40
1040
1.0
1070
   343
1005
0
1070
   344
1005
0
1002
}
  0
LINE
  5
28259
330
747D
100
AcDbEntity
  8
部品1
100
AcDbLine
 10
5250.922688579585
 20
293.7296748019062
 30
0.0
 11
11321.90787396583
 21
293.7296748019062
 31
0.0
  0
LINE
  5
2825A
330
747D
100
AcDbEntity
  8
部品1
100
AcDbLine
 10
11321.90787396583
 20
3018.036644386552
 30
0.0
 11
5250.922688579583
 21
3018.036644386552
 31
0.0
  0
LINE
  5
2825B
330
747D
100
AcDbEntity
  8
部品1
100
AcDbLine
 10
11321.90787396583
 20
3258.036644386554
 30
0.0
 11
5250.92268857958
 21
3258.036644386554
 31
0.0
  0
ENDSEC
  0
SECTION
  2
OBJECTS
  0
DICTIONARY
  5
7471
330
0
100
AcDbDictionary
281
     1
  3
ACAD_COLOR
350
173D2
  3
ACAD_GROUP
350
7472
  3
ACAD_LAYOUT
350
173D3
  3
ACAD_MATERIAL
350
173D1
  3
ACAD_MLINESTYLE
350
7473
  3
ACAD_PLOTSETTINGS
350
173D4
  3
ACAD_PLOTSTYLENAME
350
173CF
  3
ACDBHEADERROUNDTRIPXREC
350
282E9
  3
AcDbVariableDictionary
350
27EB4
  3
CONTENTDICTIONARY
350
E71C
  3
DRAWINGVARIABLESDICT
350
F3B9
  0
DICTIONARY
  5
1758F
330
7467
100
AcDbDictionary
280
     1
281
     1
  3
ACAD_LAYERSTATES
360
17590
  0
DICTIONARY
  5
173D2
102
{ACAD_REACTORS
330
7471
102
}
330
7471
100
AcDbDictionary
281
     1
  0
DICTIONARY
  5
7472
102
{ACAD_REACTORS
330
7471
102
}
330
7471
100
AcDbDictionary
281
     1
  3
*A1
350
1D2A9
  0
DICTIONARY
  5
173D3
102
{ACAD_REACTORS
330
7471
102
}
330
7471
100
AcDbDictionary
281
     1
  3
Model
350
173D5
  3
レイアウト1
350
173D6
  0
DICTIONARY
  5
173D1
102
{ACAD_REACTORS
330
7471
102
}
330
7471
100
AcDbDictionary
281
     1
  0
DICTIONARY
  5
7473
102
{ACAD_REACTORS
330
7471
102
}
330
7471
100
AcDbDictionary
281
     1
  3
STANDARD
350
7480
  0
DICTIONARY
  5
173D4
102
{ACAD_REACTORS
330
7471
102
}
330
7471
100
AcDbDictionary
281
     1
  0
ACDBDICTIONARYWDFLT
  5
173CF
102
{ACAD_REACTORS
330
7471
102
}
330
7471
100
AcDbDictionary
281
     1
  3
Normal
350
173D0
100
AcDbDictionaryWithDefault
340
173D0
  0
DICTIONARY
  5
282E9
102
{ACAD_REACTORS
330
7471
102
}
330
7471
100
AcDbDictionary
281
     1
  3
COLORDICT
350
282EB
  3
MATERIALDICT
350
282EA
  0
DICTIONARY
  5
27EB4
102
{ACAD_REACTORS
330
7471
102
}
330
7471
100
AcDbDictionary
281
     1
  3
DIMASSOC
350
27EB5
  3
PROJECTNAME
350
27EB6
  0
DICTIONARY
  5
E71C
102
{ACAD_REACTORS
330
7471
102
}
330
7471
100
AcDbDictionary
281
     1
  0
DICTIONARY
  5
F3B9
102
{ACAD_REACTORS
330
7471
102
}
330
7471
100
AcDbDictionary
281
     1
1001
DRAWINGVARIABLESXDATA
1000
POLARMODE
1000
1
  0
DICTIONARY
  5
17590
102
{ACAD_REACTORS
330
1758F
102
}
330
1758F
100
AcDbDictionary
281
     1
  0
GROUP
  5
1D2A9
102
{ACAD_REACTORS
330
7472
102
}
330
7472
100
AcDbGroup
300

 70
     1
 71
     1
  0
LAYOUT
  5
173D5
102
{ACAD_XDICTIONARY
360
282EC
102
}
102
{ACAD_REACTORS
330
173D3
102
}
330
173D3
100
AcDbPlotSettings
  1

  2
Microsoft Office Document Image Writer
  4

  6

 40
0.0
 41
0.0
 42
0.0
 43
0.0
 44
0.0
 45
0.0
 46
0.0
 47
0.0
 48
0.0
 49
0.0
140
0.0
141
0.0
142
1.0
143
1.0
 70
  1712
 72
     0
 73
     0
 74
     0
  7

 75
     0
147
1.0
148
0.0
149
0.0
100
AcDbLayout
  1
Model
 70
     1
 71
     0
 10
0.0
 20
0.0
 11
12.0
 21
9.0
 12
0.0
 22
0.0
 32
0.0
 14
0.0
 24
0.0
 34
0.0
 15
0.0
 25
0.0
 35
0.0
146
0.0
 13
0.0
 23
0.0
 33
0.0
 16
1.0
 26
0.0
 36
0.0
 17
0.0
 27
1.0
 37
0.0
 76
     0
330
747D
  0
LAYOUT
  5
173D6
102
{ACAD_XDICTIONARY
360
282EE
102
}
102
{ACAD_REACTORS
330
173D3
102
}
330
173D3
100
AcDbPlotSettings
  1

  2
Microsoft Office Document Image Writer
  4

  6

 40
0.0
 41
0.0
 42
0.0
 43
0.0
 44
0.0
 45
0.0
 46
0.0
 47
0.0
 48
0.0
 49
0.0
140
0.0
141
0.0
142
1.0
143
1.0
 70
   688
 72
     0
 73
     0
 74
     5
  7

 75
    16
147
1.0
148
0.0
149
0.0
100
AcDbLayout
  1
レイアウト1
 70
     0
 71
     1
 10
0.0
 20
0.0
 11
420.0
 21
297.0
 12
0.0
 22
0.0
 32
0.0
 14
1.000000000000000E+20
 24
1.000000000000000E+20
 34
1.000000000000000E+20
 15
-1.000000000000000E+20
 25
-1.000000000000000E+20
 35
-1.000000000000000E+20
146
0.0
 13
0.0
 23
0.0
 33
0.0
 16
1.0
 26
0.0
 36
0.0
 17
0.0
 27
1.0
 37
0.0
 76
     0
330
747A
  0
MLINESTYLE
  5
7480
102
{ACAD_REACTORS
330
7473
102
}
330
7473
100
AcDbMlineStyle
  2
STANDARD
 70
     0
  3

 62
     0
 51
90.0
 52
90.0
 71
     2
 49
0.5
 62
   256
  6
BYLAYER
 49
-0.5
 62
   256
  6
BYLAYER
  0
ACDBPLACEHOLDER
  5
173D0
102
{ACAD_REACTORS
330
173CF
102
}
330
173CF
  0
XRECORD
  5
282EB
102
{ACAD_REACTORS
330
282E9
102
}
330
282E9
100
AcDbXrecord
280
     1
340
173D2
  0
XRECORD
  5
282EA
102
{ACAD_REACTORS
330
282E9
102
}
330
282E9
100
AcDbXrecord
280
     1
340
173D1
  0
DICTIONARYVAR
  5
27EB5
102
{ACAD_REACTORS
330
27EB4
102
}
330
27EB4
100
DictionaryVariables
280
     0
  1
1
  0
DICTIONARYVAR
  5
27EB6
102
{ACAD_REACTORS
330
27EB4
102
}
330
27EB4
100
DictionaryVariables
280
     0
  1

  0
DICTIONARY
  5
282EC
330
173D5
100
AcDbDictionary
280
     1
281
     1
  3
ACAD_XREC_ROUNDTRIP
360
282ED
  0
DICTIONARY
  5
282EE
330
173D6
100
AcDbDictionary
280
     1
281
     1
  3
ACAD_XREC_ROUNDTRIP
360
282EF
  0
XRECORD
  5
282ED
102
{ACAD_REACTORS
330
282EC
102
}
330
282EC
100
AcDbXrecord
280
     1
102
SHADEPLOT
 70
     0
102
SHADEPLOTRESLEVEL
 70
     2
102
SHADEPLOTCUSTOMDPI
 70
   300
  0
XRECORD
  5
282EF
102
{ACAD_REACTORS
330
282EE
102
}
330
282EE
100
AcDbXrecord
280
     1
102
SHADEPLOT
 70
     0
102
SHADEPLOTRESLEVEL
 70
     2
102
SHADEPLOTCUSTOMDPI
 70
   300
  0
ENDSEC
  0
EOF
