  0
SECTION
  2
HEADER
  9
$ACADVER
  1
AC1015
  9
$ACADMAINTVER
 70
    20
  9
$DWGCODEPAGE
  3
ANSI_932
  9
$INSBASE
 10
0.0
 20
0.0
 30
0.0
  9
$EXTMIN
 10
139.9999999999995
 20
-0.0000000000000909
 30
0.0
  9
$EXTMAX
 10
16307.2
 20
11409.6
 30
0.0
  9
$LIMMIN
 10
0.0
 20
0.0
  9
$LIMMAX
 10
16800.0
 20
11880.0
  9
$ORTHOMODE
 70
     0
  9
$REGENMODE
 70
     1
  9
$FILLMODE
 70
     1
  9
$QTEXTMODE
 70
     0
  9
$MIRRTEXT
 70
     1
  9
$LTSCALE
 40
20.0
  9
$ATTMODE
 70
     1
  9
$TEXTSIZE
 40
4.0
  9
$TRACEWID
 40
1.0
  9
$TEXTSTYLE
  7
STYLE1
  9
$CLAYER
  8
細線
  9
$CELTYPE
  6
BYLAYER
  9
$CECOLOR
 62
   256
  9
$CELTSCALE
 40
50.0
  9
$DISPSILH
 70
     0
  9
$DIMSCALE
 40
40.0
  9
$DIMASZ
 40
2.5
  9
$DIMEXO
 40
0.5
  9
$DIMDLI
 40
7.0
  9
$DIMRND
 40
0.0
  9
$DIMDLE
 40
0.0
  9
$DIMEXE
 40
1.5
  9
$DIMTP
 40
0.0
  9
$DIMTM
 40
0.0
  9
$DIMTXT
 40
3.0
  9
$DIMCEN
 40
0.0
  9
$DIMTSZ
 40
0.0
  9
$DIMTOL
 70
     0
  9
$DIMLIM
 70
     0
  9
$DIMTIH
 70
     0
  9
$DIMTOH
 70
     0
  9
$DIMSE1
 70
     0
  9
$DIMSE2
 70
     0
  9
$DIMTAD
 70
     3
  9
$DIMZIN
 70
     8
  9
$DIMBLK
  1

  9
$DIMASO
 70
     1
  9
$DIMSHO
 70
     1
  9
$DIMPOST
  1

  9
$DIMAPOST
  1

  9
$DIMALT
 70
     0
  9
$DIMALTD
 70
     2
  9
$DIMALTF
 40
0.0394
  9
$DIMLFAC
 40
1.0
  9
$DIMTOFL
 70
     1
  9
$DIMTVP
 40
0.0
  9
$DIMTIX
 70
     1
  9
$DIMSOXD
 70
     0
  9
$DIMSAH
 70
     1
  9
$DIMBLK1
  1
DOTSMALL
  9
$DIMBLK2
  1
DOTSMALL
  9
$DIMSTYLE
  2
INABA_S40G
  9
$DIMCLRD
 70
     0
  9
$DIMCLRE
 70
     0
  9
$DIMCLRT
 70
     7
  9
$DIMTFAC
 40
1.0
  9
$DIMGAP
 40
1.0
  9
$DIMJUST
 70
     0
  9
$DIMSD1
 70
     0
  9
$DIMSD2
 70
     0
  9
$DIMTOLJ
 70
     1
  9
$DIMTZIN
 70
     0
  9
$DIMALTZ
 70
     0
  9
$DIMALTTZ
 70
     0
  9
$DIMUPT
 70
     0
  9
$DIMDEC
 70
     1
  9
$DIMTDEC
 70
     4
  9
$DIMALTU
 70
     2
  9
$DIMALTTD
 70
     2
  9
$DIMTXSTY
  7
STYLE1
  9
$DIMAUNIT
 70
     0
  9
$DIMADEC
 70
     0
  9
$DIMALTRND
 40
0.0
  9
$DIMAZIN
 70
     0
  9
$DIMDSEP
 70
    46
  9
$DIMATFIT
 70
     3
  9
$DIMFRAC
 70
     0
  9
$DIMLDRBLK
  1

  9
$DIMLUNIT
 70
     2
  9
$DIMLWD
 70
    -2
  9
$DIMLWE
 70
    -2
  9
$DIMTMOVE
 70
     0
  9
$LUNITS
 70
     2
  9
$LUPREC
 70
     1
  9
$SKETCHINC
 40
1.0
  9
$FILLETRAD
 40
3.0
  9
$AUNITS
 70
     0
  9
$AUPREC
 70
     0
  9
$MENU
  1
acad
  9
$ELEVATION
 40
0.0
  9
$PELEVATION
 40
0.0
  9
$THICKNESS
 40
0.0
  9
$LIMCHECK
 70
     0
  9
$CHAMFERA
 40
0.0
  9
$CHAMFERB
 40
0.0
  9
$CHAMFERC
 40
0.0
  9
$CHAMFERD
 40
0.0
  9
$SKPOLY
 70
     0
  9
$TDCREATE
 40
2451368.612993866
  9
$TDUCREATE
 40
2451368.237993866
  9
$TDUPDATE
 40
2455826.584573379
  9
$TDUUPDATE
 40
2455826.209573380
  9
$TDINDWG
 40
0.7847407986
  9
$TDUSRTIMER
 40
0.7847407986
  9
$USRTIMER
 70
     1
  9
$ANGBASE
 50
0.0
  9
$ANGDIR
 70
     0
  9
$PDMODE
 70
     3
  9
$PDSIZE
 40
2.0
  9
$PLINEWID
 40
0.0
  9
$SPLFRAME
 70
     0
  9
$SPLINETYPE
 70
     6
  9
$SPLINESEGS
 70
     8
  9
$HANDSEED
  5
26359
  9
$SURFTAB1
 70
     6
  9
$SURFTAB2
 70
     6
  9
$SURFTYPE
 70
     6
  9
$SURFU
 70
     6
  9
$SURFV
 70
     6
  9
$UCSBASE
  2

  9
$UCSNAME
  2

  9
$UCSORG
 10
0.0
 20
0.0
 30
0.0
  9
$UCSXDIR
 10
1.0
 20
0.0
 30
0.0
  9
$UCSYDIR
 10
0.0
 20
1.0
 30
0.0
  9
$UCSORTHOREF
  2

  9
$UCSORTHOVIEW
 70
     0
  9
$UCSORGTOP
 10
0.0
 20
0.0
 30
0.0
  9
$UCSORGBOTTOM
 10
0.0
 20
0.0
 30
0.0
  9
$UCSORGLEFT
 10
0.0
 20
0.0
 30
0.0
  9
$UCSORGRIGHT
 10
0.0
 20
0.0
 30
0.0
  9
$UCSORGFRONT
 10
0.0
 20
0.0
 30
0.0
  9
$UCSORGBACK
 10
0.0
 20
0.0
 30
0.0
  9
$PUCSBASE
  2

  9
$PUCSNAME
  2

  9
$PUCSORG
 10
0.0
 20
0.0
 30
0.0
  9
$PUCSXDIR
 10
1.0
 20
0.0
 30
0.0
  9
$PUCSYDIR
 10
0.0
 20
1.0
 30
0.0
  9
$PUCSORTHOREF
  2

  9
$PUCSORTHOVIEW
 70
     0
  9
$PUCSORGTOP
 10
0.0
 20
0.0
 30
0.0
  9
$PUCSORGBOTTOM
 10
0.0
 20
0.0
 30
0.0
  9
$PUCSORGLEFT
 10
0.0
 20
0.0
 30
0.0
  9
$PUCSORGRIGHT
 10
0.0
 20
0.0
 30
0.0
  9
$PUCSORGFRONT
 10
0.0
 20
0.0
 30
0.0
  9
$PUCSORGBACK
 10
0.0
 20
0.0
 30
0.0
  9
$USERI1
 70
     0
  9
$USERI2
 70
     0
  9
$USERI3
 70
     0
  9
$USERI4
 70
     0
  9
$USERI5
 70
     0
  9
$USERR1
 40
0.0
  9
$USERR2
 40
0.0
  9
$USERR3
 40
0.0
  9
$USERR4
 40
0.0
  9
$USERR5
 40
0.0
  9
$WORLDVIEW
 70
     1
  9
$SHADEDGE
 70
     3
  9
$SHADEDIF
 70
    70
  9
$TILEMODE
 70
     1
  9
$MAXACTVP
 70
    16
  9
$PINSBASE
 10
0.0
 20
0.0
 30
0.0
  9
$PLIMCHECK
 70
     0
  9
$PEXTMIN
 10
1.000000000000000E+20
 20
1.000000000000000E+20
 30
1.000000000000000E+20
  9
$PEXTMAX
 10
-1.000000000000000E+20
 20
-1.000000000000000E+20
 30
-1.000000000000000E+20
  9
$PLIMMIN
 10
0.0
 20
0.0
  9
$PLIMMAX
 10
420.0
 20
297.0
  9
$UNITMODE
 70
     0
  9
$VISRETAIN
 70
     0
  9
$PLINEGEN
 70
     0
  9
$PSLTSCALE
 70
     0
  9
$TREEDEPTH
 70
  3020
  9
$CMLSTYLE
  2
STANDARD
  9
$CMLJUST
 70
     0
  9
$CMLSCALE
 40
1.0
  9
$PROXYGRAPHICS
 70
     1
  9
$MEASUREMENT
 70
     1
  9
$CELWEIGHT
370
    -1
  9
$ENDCAPS
280
     0
  9
$JOINSTYLE
280
     0
  9
$LWDISPLAY
290
     0
  9
$INSUNITS
 70
     0
  9
$HYPERLINKBASE
  1

  9
$STYLESHEET
  1

  9
$XEDIT
290
     1
  9
$CEPSNTYPE
380
     0
  9
$PSTYLEMODE
290
     1
  9
$FINGERPRINTGUID
  2
{5EAC461A-2277-4BF8-9AB0-99C43BB394F0}
  9
$VERSIONGUID
  2
{41E772FF-B795-4A50-9D5B-BACCE808D670}
  9
$EXTNAMES
290
     1
  9
$PSVPSCALE
 40
0.0
  9
$OLESTARTUP
290
     0
  0
ENDSEC
  0
SECTION
  2
CLASSES
  0
CLASS
  1
ACDBDICTIONARYWDFLT
  2
AcDbDictionaryWithDefault
  3
ObjectDBX Classes
 90
        0
280
     0
281
     0
  0
CLASS
  1
DICTIONARYVAR
  2
AcDbDictionaryVar
  3
ObjectDBX Classes
 90
        0
280
     0
281
     0
  0
CLASS
  1
ACDBPLACEHOLDER
  2
AcDbPlaceHolder
  3
ObjectDBX Classes
 90
        0
280
     0
281
     0
  0
CLASS
  1
LAYOUT
  2
AcDbLayout
  3
ObjectDBX Classes
 90
        0
280
     0
281
     0
  0
ENDSEC
  0
SECTION
  2
TABLES
  0
TABLE
  2
VPORT
  5
746D
330
0
100
AcDbSymbolTable
 70
     2
  0
VPORT
  5
26351
330
746D
100
AcDbSymbolTableRecord
100
AcDbViewportTableRecord
  2
*Active
 70
     0
 10
0.0
 20
0.0
 11
1.0
 21
1.0
 12
8400.000000000002
 22
6532.467989526317
 13
0.0
 23
0.0
 14
10.0
 24
10.0
 15
10.0
 25
10.0
 16
0.0
 26
0.0
 36
1.0
 17
0.0
 27
0.0
 37
0.0
 40
13159.96111582214
 41
1.522222222222222
 42
50.0
 43
0.0
 44
0.0
 50
0.0
 51
0.0
 71
     0
 72
     0
 73
     1
 74
     0
 75
     0
 76
     0
 77
     0
 78
     0
281
     0
 65
     1
110
0.0
120
0.0
130
0.0
111
1.0
121
0.0
131
0.0
112
0.0
122
1.0
132
0.0
 79
     0
146
0.0
  0
ENDTAB
  0
TABLE
  2
LTYPE
  5
746A
330
0
100
AcDbSymbolTable
 70
     5
  0
LTYPE
  5
7477
330
746A
100
AcDbSymbolTableRecord
100
AcDbLinetypeTableRecord
  2
BYBLOCK
 70
     0
  3

 72
    65
 73
     0
 40
0.0
  0
LTYPE
  5
7478
330
746A
100
AcDbSymbolTableRecord
100
AcDbLinetypeTableRecord
  2
BYLAYER
 70
     0
  3

 72
    65
 73
     0
 40
0.0
  0
LTYPE
  5
7479
330
746A
100
AcDbSymbolTableRecord
100
AcDbLinetypeTableRecord
  2
CONTINUOUS
 70
     0
  3
Solid line
 72
    65
 73
     0
 40
0.0
  0
LTYPE
  5
7816
330
746A
100
AcDbSymbolTableRecord
100
AcDbLinetypeTableRecord
  2
CENTER
 70
     0
  3
____ _ ____ _ ____ _ ____ _ ____ _ ____ _ ____ 
 72
    65
 73
     4
 40
2.0
 49
1.25
 74
     0
 49
-0.25
 74
     0
 49
0.25
 74
     0
 49
-0.25
 74
     0
  0
LTYPE
  5
781A
330
746A
100
AcDbSymbolTableRecord
100
AcDbLinetypeTableRecord
  2
HIDDEN
 70
     0
  3
__ __ __ __ __ __ __ __ __ __ __ __ __ __ __ __
 72
    65
 73
     2
 40
0.375
 49
0.25
 74
     0
 49
-0.125
 74
     0
  0
LTYPE
  5
781B
330
746A
100
AcDbSymbolTableRecord
100
AcDbLinetypeTableRecord
  2
PHANTOM
 70
     0
  3
______  __  __  ______  __  __  ______  __  __ 
 72
    65
 73
     6
 40
2.5
 49
1.25
 74
     0
 49
-0.25
 74
     0
 49
0.25
 74
     0
 49
-0.25
 74
     0
 49
0.25
 74
     0
 49
-0.25
 74
     0
  0
LTYPE
  5
12CC3
330
746A
100
AcDbSymbolTableRecord
100
AcDbLinetypeTableRecord
  2
HIDDENX2
 70
     0
  3
Hidden (2x) ____ ____ ____ ____ ____ ____ ____
 72
    65
 73
     2
 40
19.05
 49
12.7
 74
     0
 49
-6.349999999999999
 74
     0
  0
ENDTAB
  0
TABLE
  2
LAYER
  5
7467
102
{ACAD_XDICTIONARY
360
1758F
102
}
330
0
100
AcDbSymbolTable
 70
    12
  0
LAYER
  5
7474
330
7467
100
AcDbSymbolTableRecord
100
AcDbLayerTableRecord
  2
0
 70
     0
 62
     7
  6
CONTINUOUS
370
    -3
390
173D0
  0
LAYER
  5
DEB2
330
7467
100
AcDbSymbolTableRecord
100
AcDbLayerTableRecord
  2
センター
 70
     0
 62
     3
  6
CENTER
370
    -3
390
173D0
  0
LAYER
  5
DEB3
330
7467
100
AcDbSymbolTableRecord
100
AcDbLayerTableRecord
  2
寸法
 70
     0
 62
     4
  6
CONTINUOUS
370
    -3
390
173D0
  0
LAYER
  5
DEB4
330
7467
100
AcDbSymbolTableRecord
100
AcDbLayerTableRecord
  2
部品1
 70
     0
 62
     7
  6
CONTINUOUS
370
    -3
390
173D0
  0
LAYER
  5
DEB5
330
7467
100
AcDbSymbolTableRecord
100
AcDbLayerTableRecord
  2
補助
 70
     0
 62
    -1
  6
CONTINUOUS
370
    -3
390
173D0
  0
LAYER
  5
DEB6
330
7467
100
AcDbSymbolTableRecord
100
AcDbLayerTableRecord
  2
文字
 70
     0
 62
     7
  6
CONTINUOUS
370
    -3
390
173D0
  0
LAYER
  5
F255
330
7467
100
AcDbSymbolTableRecord
100
AcDbLayerTableRecord
  2
DEFPOINTS
 70
     0
 62
     7
  6
CONTINUOUS
290
     0
370
    -3
390
173D0
  0
LAYER
  5
10B54
330
7467
100
AcDbSymbolTableRecord
100
AcDbLayerTableRecord
  2
仕様書枠
 70
     0
 62
   230
  6
CONTINUOUS
370
    -3
390
173D0
  0
LAYER
  5
11729
330
7467
100
AcDbSymbolTableRecord
100
AcDbLayerTableRecord
  2
Ｇ．Ｌ
 70
     0
 62
    30
  6
CONTINUOUS
370
    -3
390
173D0
  0
LAYER
  5
1173F
330
7467
100
AcDbSymbolTableRecord
100
AcDbLayerTableRecord
  2
細線
 70
     0
 62
     5
  6
CONTINUOUS
370
    -3
390
173D0
  0
LAYER
  5
12CC4
330
7467
100
AcDbSymbolTableRecord
100
AcDbLayerTableRecord
  2
想像線
 70
     0
 62
     6
  6
PHANTOM
370
    -3
390
173D0
  0
LAYER
  5
142E2
330
7467
100
AcDbSymbolTableRecord
100
AcDbLayerTableRecord
  2
破線
 70
     0
 62
     2
  6
HIDDEN
370
    -3
390
173D0
  0
ENDTAB
  0
TABLE
  2
STYLE
  5
7468
330
0
100
AcDbSymbolTable
 70
     7
  0
STYLE
  5
7475
330
7468
100
AcDbSymbolTableRecord
100
AcDbTextStyleTableRecord
  2
STANDARD
 70
     0
 40
0.0
 41
1.0
 50
0.0
 71
     0
 42
4.0
  3
txt
  4
C:\AutoCAD LT\bigfont.shx
  0
STYLE
  5
763C
330
7468
100
AcDbSymbolTableRecord
100
AcDbTextStyleTableRecord
  2
MSMINCHO
 70
     0
 40
0.0
 41
1.0
 50
0.0
 71
     0
 42
1.199999999999999
  3
C:\AutoCAD LT\msminch2.TTF
  4

  0
STYLE
  5
F706
330
7468
100
AcDbSymbolTableRecord
100
AcDbTextStyleTableRecord
  2
STYLE1
 70
     0
 40
0.0
 41
1.0
 50
0.0
 71
     0
 42
4.0
  3
isocp.shx
  4
bigfont.shx
  0
STYLE
  5
103BF
330
7468
100
AcDbSymbolTableRecord
100
AcDbTextStyleTableRecord
  2
STYLE2
 70
     0
 40
0.0
 41
1.0
 50
0.0
 71
     0
 42
100.0
  3
MS PGothic.ttf
  4

1001
ACAD
1000
MS PGothic
1071
    32818
  0
STYLE
  5
10BAA
330
7468
100
AcDbSymbolTableRecord
100
AcDbTextStyleTableRecord
  2
STYLE3
 70
     0
 40
0.0
 41
1.0
 50
0.0
 71
     0
 42
100.0
  3

  4

1001
ACAD
1000
DFPGothic-EB
1071
    32818
  0
STYLE
  5
11A15
330
7468
100
AcDbSymbolTableRecord
100
AcDbTextStyleTableRecord
  2
MSGOTHIC
 70
     0
 40
0.0
 41
1.0
 50
0.0
 71
     0
 42
3.5
  3
msgothi2.ttf
  4

  0
STYLE
  5
13E96
330
7468
100
AcDbSymbolTableRecord
100
AcDbTextStyleTableRecord
  2
MSPゴシック
 70
     0
 40
0.0
 41
1.0
 50
0.0
 71
     0
 42
4.0
  3
MS PGothic.ttf
  4

1001
ACAD
1000
MS PGothic
1071
    32818
  0
ENDTAB
  0
TABLE
  2
VIEW
  5
746B
330
0
100
AcDbSymbolTable
 70
     0
  0
ENDTAB
  0
TABLE
  2
UCS
  5
746C
330
0
100
AcDbSymbolTable
 70
     0
  0
ENDTAB
  0
TABLE
  2
APPID
  5
746E
330
0
100
AcDbSymbolTable
 70
     6
  0
APPID
  5
7476
330
746E
100
AcDbSymbolTableRecord
100
AcDbRegAppTableRecord
  2
ACAD
 70
     0
  0
APPID
  5
DEA9
330
746E
100
AcDbSymbolTableRecord
100
AcDbRegAppTableRecord
  2
CONTENTBLOCKICON
 70
     0
  0
APPID
  5
DEAA
330
746E
100
AcDbSymbolTableRecord
100
AcDbRegAppTableRecord
  2
CONTENTBLOCKDESCRIPTION
 70
     0
  0
APPID
  5
E71D
330
746E
100
AcDbSymbolTableRecord
100
AcDbRegAppTableRecord
  2
CONTENTTABDATA
 70
     0
  0
APPID
  5
E71E
330
746E
100
AcDbSymbolTableRecord
100
AcDbRegAppTableRecord
  2
CONTENTCURRENTTAB
 70
     0
  0
APPID
  5
F3BA
330
746E
100
AcDbSymbolTableRecord
100
AcDbRegAppTableRecord
  2
DRAWINGVARIABLESXDATA
 70
     0
  0
ENDTAB
  0
TABLE
  2
DIMSTYLE
  5
746F
330
0
100
AcDbSymbolTable
 70
     6
100
AcDbDimStyleTable
 71
     1
340
F71F
  0
DIMSTYLE
105
7484
330
746F
100
AcDbSymbolTableRecord
100
AcDbDimStyleTableRecord
  2
JIS
 70
     0
 41
2.5
 42
1.0
 43
7.0
 44
1.0
 73
     0
 74
     0
 77
     1
 78
     8
140
2.5
141
0.0
143
0.0394
147
0.0
172
     1
174
     1
175
     1
340
7475
  0
DIMSTYLE
105
F236
330
746F
100
AcDbSymbolTableRecord
100
AcDbDimStyleTableRecord
  2
INABA_S40
 70
     0
 40
40.0
 41
2.5
 42
0.5
 43
7.0
 44
1.5
 73
     0
 74
     0
 77
     3
 78
     8
140
3.0
141
0.0
143
0.0394
147
1.0
172
     1
173
     1
174
     1
175
     1
178
     7
289
     0
340
7475
341
DEAC
343
DEAC
344
DEAC
  0
DIMSTYLE
105
F71F
102
{ACAD_REACTORS
330
20DE1
330
20DFB
330
22741
330
2275B
330
22A81
330
22A76
330
22A98
330
258B4
330
2588C
330
2588B
330
2588A
330
25888
330
25822
330
25805
330
257FE
330
257FD
330
257F3
330
257F1
330
257F0
330
257A8
330
257A7
330
257A6
330
257F4
330
257B5
330
257B2
330
257B1
330
257B4
330
257AE
330
26190
330
26191
330
26199
330
261A0
330
261A3
330
26203
102
}
330
746F
100
AcDbSymbolTableRecord
100
AcDbDimStyleTableRecord
  2
INABA_S40G
 70
     0
 40
40.0
 41
2.5
 42
0.5
 43
7.0
 44
1.5
 73
     0
 74
     0
 77
     3
 78
     8
140
3.0
141
0.0
143
0.0394
147
1.0
172
     1
173
     1
174
     1
178
     7
271
     1
340
F706
341
F770
343
F770
344
F770
  0
DIMSTYLE
105
142E3
330
746F
100
AcDbSymbolTableRecord
100
AcDbDimStyleTableRecord
  2
INABA_S1
 70
     0
 40
0.0
 41
2.5
 42
0.5
 43
7.0
 44
1.5
 73
     0
 74
     0
 77
     3
 78
     8
140
3.0
141
0.0
143
0.0394
146
0.5
147
0.5
172
     1
173
     1
176
   256
177
   256
178
     7
271
     2
272
     2
284
     8
288
     1
340
7475
341
DEAC
343
DEAC
344
DEAC
  0
DIMSTYLE
105
14463
330
746F
100
AcDbSymbolTableRecord
100
AcDbDimStyleTableRecord
  2
INABA_S30G
 70
     0
 40
30.0
 41
2.5
 42
0.5
 43
7.0
 44
1.5
 73
     0
 74
     0
 77
     3
 78
     8
140
3.0
141
0.0
143
0.0394
147
1.0
172
     1
173
     1
174
     1
175
     1
178
     7
271
     1
340
F706
341
F770
343
F770
344
F770
  0
DIMSTYLE
105
1758E
330
746F
100
AcDbSymbolTableRecord
100
AcDbDimStyleTableRecord
  2
INABA_S50G
 70
     0
 41
125.0
 42
25.0
 43
7.0
 44
75.0
 73
     0
 74
     0
 77
     3
 78
     8
140
150.0
141
0.0
143
0.0394
147
25.0
172
     1
173
     1
174
     1
175
     1
178
     7
271
     1
340
F706
341
F770
343
F770
344
F770
  0
ENDTAB
  0
TABLE
  2
BLOCK_RECORD
  5
7466
330
0
100
AcDbSymbolTable
 70
    53
  0
BLOCK_RECORD
  5
747D
330
7466
100
AcDbSymbolTableRecord
100
AcDbBlockTableRecord
  2
*MODEL_SPACE
340
173D5
  0
BLOCK_RECORD
  5
747A
330
7466
100
AcDbSymbolTableRecord
100
AcDbBlockTableRecord
  2
*PAPER_SPACE
340
173D6
  0
BLOCK_RECORD
  5
DEAC
330
7466
100
AcDbSymbolTableRecord
100
AcDbBlockTableRecord
  2
_OPEN
340
0
  0
BLOCK_RECORD
  5
F770
330
7466
100
AcDbSymbolTableRecord
100
AcDbBlockTableRecord
  2
_DOTSMALL
340
0
102
{BLKREFS
331
18C65
331
18C66
331
18C59
331
18C5A
331
18C4D
331
18C4E
331
18C41
331
18C42
331
18C35
331
18C36
331
18C29
331
18C2A
331
18C1D
331
18C1E
331
18C0F
331
18C10
331
18C03
331
18C04
331
18BF5
331
18BF6
331
18BE7
331
18BE8
331
18BD9
331
18BDA
331
18BCD
331
18BCE
331
25E4E
331
25E4F
331
25E57
331
25E58
331
25E60
331
25E61
331
25E69
331
25E6A
331
25E73
331
25E74
331
25E7C
331
25E7D
331
25E86
331
25E87
331
25E8F
331
25E90
331
25E98
331
25E99
331
25EA2
331
25EA3
331
25EAC
331
25EAD
331
25EB5
331
25EB6
331
25EBE
331
25EBF
331
25ED1
331
25ED2
331
25EDA
331
25EDB
331
25EED
331
25EEE
331
25EF6
331
25EF7
331
25EFF
331
25F00
331
25F08
331
25F09
331
25F1C
331
25F1D
331
25F31
331
25F32
331
25F3C
331
25F3D
331
25F47
331
25F48
331
25F52
331
25F53
331
25F77
331
25F78
331
25F80
331
25F81
331
25FBB
331
25FBC
331
25FFE
331
25FFF
331
26309
331
2630A
331
26314
331
26315
331
2631D
331
2631E
331
26326
331
26327
331
2632F
331
26330
331
26338
331
26339
102
}
  0
BLOCK_RECORD
  5
164B4
330
7466
100
AcDbSymbolTableRecord
100
AcDbBlockTableRecord
  2
_DOT
340
0
102
{BLKREFS
331
18C73
331
18C74
102
}
  0
BLOCK_RECORD
  5
18BC8
330
7466
100
AcDbSymbolTableRecord
100
AcDbBlockTableRecord
  2
*D3
340
0
  0
BLOCK_RECORD
  5
18BD4
330
7466
100
AcDbSymbolTableRecord
100
AcDbBlockTableRecord
  2
*D4
340
0
  0
BLOCK_RECORD
  5
18BE0
330
7466
100
AcDbSymbolTableRecord
100
AcDbBlockTableRecord
  2
*D5
340
0
  0
BLOCK_RECORD
  5
18BEE
330
7466
100
AcDbSymbolTableRecord
100
AcDbBlockTableRecord
  2
*D6
340
0
  0
BLOCK_RECORD
  5
18BFC
330
7466
100
AcDbSymbolTableRecord
100
AcDbBlockTableRecord
  2
*D7
340
0
  0
BLOCK_RECORD
  5
18C0A
330
7466
100
AcDbSymbolTableRecord
100
AcDbBlockTableRecord
  2
*D8
340
0
  0
BLOCK_RECORD
  5
18C16
330
7466
100
AcDbSymbolTableRecord
100
AcDbBlockTableRecord
  2
*D9
340
0
  0
BLOCK_RECORD
  5
18C24
330
7466
100
AcDbSymbolTableRecord
100
AcDbBlockTableRecord
  2
*D10
340
0
  0
BLOCK_RECORD
  5
18C30
330
7466
100
AcDbSymbolTableRecord
100
AcDbBlockTableRecord
  2
*D11
340
0
  0
BLOCK_RECORD
  5
18C3C
330
7466
100
AcDbSymbolTableRecord
100
AcDbBlockTableRecord
  2
*D12
340
0
  0
BLOCK_RECORD
  5
18C48
330
7466
100
AcDbSymbolTableRecord
100
AcDbBlockTableRecord
  2
*D13
340
0
  0
BLOCK_RECORD
  5
18C54
330
7466
100
AcDbSymbolTableRecord
100
AcDbBlockTableRecord
  2
*D14
340
0
  0
BLOCK_RECORD
  5
18C60
330
7466
100
AcDbSymbolTableRecord
100
AcDbBlockTableRecord
  2
*D15
340
0
  0
BLOCK_RECORD
  5
18C6C
330
7466
100
AcDbSymbolTableRecord
100
AcDbBlockTableRecord
  2
*D16
340
0
  0
BLOCK_RECORD
  5
18C7A
330
7466
100
AcDbSymbolTableRecord
100
AcDbBlockTableRecord
  2
A$C3B1A506B
340
0
  0
BLOCK_RECORD
  5
1C4CA
330
7466
100
AcDbSymbolTableRecord
100
AcDbBlockTableRecord
  2
_NONE
340
0
  0
BLOCK_RECORD
  5
20DE2
330
7466
100
AcDbSymbolTableRecord
100
AcDbBlockTableRecord
  2
*D19
340
0
  0
BLOCK_RECORD
  5
20DFC
330
7466
100
AcDbSymbolTableRecord
100
AcDbBlockTableRecord
  2
*D20
340
0
  0
BLOCK_RECORD
  5
22742
330
7466
100
AcDbSymbolTableRecord
100
AcDbBlockTableRecord
  2
*D21
340
0
  0
BLOCK_RECORD
  5
2275C
330
7466
100
AcDbSymbolTableRecord
100
AcDbBlockTableRecord
  2
*D22
340
0
  0
BLOCK_RECORD
  5
22B5A
330
7466
100
AcDbSymbolTableRecord
100
AcDbBlockTableRecord
  2
*D23
340
0
  0
BLOCK_RECORD
  5
22B74
330
7466
100
AcDbSymbolTableRecord
100
AcDbBlockTableRecord
  2
*D24
340
0
  0
BLOCK_RECORD
  5
22B9A
330
7466
100
AcDbSymbolTableRecord
100
AcDbBlockTableRecord
  2
*D25
340
0
  0
BLOCK_RECORD
  5
258D7
330
7466
100
AcDbSymbolTableRecord
100
AcDbBlockTableRecord
  2
*D26
340
0
  0
BLOCK_RECORD
  5
258E2
330
7466
100
AcDbSymbolTableRecord
100
AcDbBlockTableRecord
  2
*D27
340
0
  0
BLOCK_RECORD
  5
258EE
330
7466
100
AcDbSymbolTableRecord
100
AcDbBlockTableRecord
  2
*D28
340
0
  0
BLOCK_RECORD
  5
258FA
330
7466
100
AcDbSymbolTableRecord
100
AcDbBlockTableRecord
  2
*D29
340
0
  0
BLOCK_RECORD
  5
25907
330
7466
100
AcDbSymbolTableRecord
100
AcDbBlockTableRecord
  2
*D30
340
0
  0
BLOCK_RECORD
  5
25913
330
7466
100
AcDbSymbolTableRecord
100
AcDbBlockTableRecord
  2
*D31
340
0
  0
BLOCK_RECORD
  5
2591F
330
7466
100
AcDbSymbolTableRecord
100
AcDbBlockTableRecord
  2
*D32
340
0
  0
BLOCK_RECORD
  5
2592B
330
7466
100
AcDbSymbolTableRecord
100
AcDbBlockTableRecord
  2
*D33
340
0
  0
BLOCK_RECORD
  5
25951
330
7466
100
AcDbSymbolTableRecord
100
AcDbBlockTableRecord
  2
*D34
340
0
  0
BLOCK_RECORD
  5
2595D
330
7466
100
AcDbSymbolTableRecord
100
AcDbBlockTableRecord
  2
*D35
340
0
  0
BLOCK_RECORD
  5
25975
330
7466
100
AcDbSymbolTableRecord
100
AcDbBlockTableRecord
  2
*D36
340
0
  0
BLOCK_RECORD
  5
25982
330
7466
100
AcDbSymbolTableRecord
100
AcDbBlockTableRecord
  2
*D37
340
0
  0
BLOCK_RECORD
  5
259A6
330
7466
100
AcDbSymbolTableRecord
100
AcDbBlockTableRecord
  2
*D38
340
0
  0
BLOCK_RECORD
  5
259B1
330
7466
100
AcDbSymbolTableRecord
100
AcDbBlockTableRecord
  2
*D39
340
0
  0
BLOCK_RECORD
  5
259BC
330
7466
100
AcDbSymbolTableRecord
100
AcDbBlockTableRecord
  2
*D40
340
0
  0
BLOCK_RECORD
  5
259C9
330
7466
100
AcDbSymbolTableRecord
100
AcDbBlockTableRecord
  2
*D41
340
0
  0
BLOCK_RECORD
  5
259E2
330
7466
100
AcDbSymbolTableRecord
100
AcDbBlockTableRecord
  2
*D42
340
0
  0
BLOCK_RECORD
  5
259FC
330
7466
100
AcDbSymbolTableRecord
100
AcDbBlockTableRecord
  2
*D43
340
0
  0
BLOCK_RECORD
  5
25A08
330
7466
100
AcDbSymbolTableRecord
100
AcDbBlockTableRecord
  2
*D44
340
0
  0
BLOCK_RECORD
  5
25A14
330
7466
100
AcDbSymbolTableRecord
100
AcDbBlockTableRecord
  2
*D45
340
0
  0
BLOCK_RECORD
  5
25A20
330
7466
100
AcDbSymbolTableRecord
100
AcDbBlockTableRecord
  2
*D46
340
0
  0
BLOCK_RECORD
  5
262BC
330
7466
100
AcDbSymbolTableRecord
100
AcDbBlockTableRecord
  2
*D47
340
0
  0
BLOCK_RECORD
  5
262C8
330
7466
100
AcDbSymbolTableRecord
100
AcDbBlockTableRecord
  2
*D48
340
0
  0
BLOCK_RECORD
  5
262D6
330
7466
100
AcDbSymbolTableRecord
100
AcDbBlockTableRecord
  2
*D49
340
0
  0
BLOCK_RECORD
  5
262E2
330
7466
100
AcDbSymbolTableRecord
100
AcDbBlockTableRecord
  2
*D50
340
0
  0
BLOCK_RECORD
  5
262EE
330
7466
100
AcDbSymbolTableRecord
100
AcDbBlockTableRecord
  2
*D51
340
0
  0
BLOCK_RECORD
  5
262FA
330
7466
100
AcDbSymbolTableRecord
100
AcDbBlockTableRecord
  2
*D52
340
0
  0
ENDTAB
  0
ENDSEC
  0
SECTION
  2
BLOCKS
  0
BLOCK
  5
7489
330
747D
100
AcDbEntity
  8
0
100
AcDbBlockBegin
  2
*MODEL_SPACE
 70
     0
 10
0.0
 20
0.0
 30
0.0
  3
*MODEL_SPACE
  1

  0
ENDBLK
  5
748A
330
747D
100
AcDbEntity
  8
0
100
AcDbBlockEnd
  0
BLOCK
  5
7487
330
747A
100
AcDbEntity
 67
     1
  8
0
100
AcDbBlockBegin
  2
*PAPER_SPACE
 70
     0
 10
0.0
 20
0.0
 30
0.0
  3
*PAPER_SPACE
  1

  0
ENDBLK
  5
7488
330
747A
100
AcDbEntity
 67
     1
  8
0
100
AcDbBlockEnd
  0
BLOCK
  5
DEAD
330
DEAC
100
AcDbEntity
  8
0
100
AcDbBlockBegin
  2
_OPEN
 70
     0
 10
0.0
 20
0.0
 30
0.0
  3
_OPEN
  1

  0
LINE
  5
DEAE
330
DEAC
100
AcDbEntity
  8
0
  6
ByBlock
 62
     0
100
AcDbLine
 10
-1.0
 20
0.1666666666666666
 30
0.0
 11
0.0
 21
0.0
 31
0.0
  0
LINE
  5
DEAF
330
DEAC
100
AcDbEntity
  8
0
  6
ByBlock
 62
     0
100
AcDbLine
 10
0.0
 20
0.0
 30
0.0
 11
-1.0
 21
-0.1666666666666666
 31
0.0
  0
LINE
  5
DEB0
330
DEAC
100
AcDbEntity
  8
0
  6
ByBlock
 62
     0
100
AcDbLine
 10
0.0
 20
0.0
 30
0.0
 11
-1.0
 21
0.0
 31
0.0
  0
ENDBLK
  5
DEB1
330
DEAC
100
AcDbEntity
  8
0
100
AcDbBlockEnd
  0
BLOCK
  5
F771
330
F770
100
AcDbEntity
  8
0
 48
50.0
100
AcDbBlockBegin
  2
_DOTSMALL
 70
     0
 10
0.0
 20
0.0
 30
0.0
  3
_DOTSMALL
  1

  0
LWPOLYLINE
  5
F772
330
F770
100
AcDbEntity
  8
0
  6
ByBlock
 62
     0
 48
50.0
100
AcDbPolyline
 90
        2
 70
     1
 43
0.5
 10
-0.0625
 20
0.0
 42
1.0
 10
0.0625
 20
0.0
 42
1.0
  0
ENDBLK
  5
F776
330
F770
100
AcDbEntity
  8
0
 48
50.0
100
AcDbBlockEnd
  0
BLOCK
  5
164BA
330
164B4
100
AcDbEntity
  8
0
 48
50.0
100
AcDbBlockBegin
  2
_DOT
 70
     0
 10
0.0
 20
0.0
 30
0.0
  3
_DOT
  1

  0
LWPOLYLINE
  5
164B5
330
164B4
100
AcDbEntity
  8
0
  6
ByBlock
 62
     0
 48
50.0
100
AcDbPolyline
 90
        2
 70
     1
 43
0.5
 10
-0.25
 20
0.0
 42
1.0
 10
0.25
 20
0.0
 42
1.0
  0
LINE
  5
164B9
330
164B4
100
AcDbEntity
  8
0
  6
ByBlock
 62
     0
 48
50.0
100
AcDbLine
 10
-0.5
 20
0.0
 30
0.0
 11
-1.0
 21
0.0
 31
0.0
  0
ENDBLK
  5
164BB
330
164B4
100
AcDbEntity
  8
0
 48
50.0
100
AcDbBlockEnd
  0
BLOCK
  5
18BC9
330
18BC8
100
AcDbEntity
  8
0
 48
50.0
100
AcDbBlockBegin
  2
*D3
 70
     1
 10
0.0
 20
0.0
 30
0.0
  3
*D3
  1

  0
LINE
  5
18BCA
330
18BC8
100
AcDbEntity
  8
寸法
 62
     0
 48
50.0
370
    -2
100
AcDbLine
 10
7649.896575106999
 20
9636.123139034717
 30
0.0
 11
8702.429862581047
 21
9636.123139034717
 31
0.0
  0
LINE
  5
18BCB
330
18BC8
100
AcDbEntity
  8
寸法
 62
     0
 48
50.0
370
    -2
100
AcDbLine
 10
7649.896575106973
 20
7846.123139034709
 30
0.0
 11
8702.429862581047
 21
7846.123139034709
 31
0.0
  0
LINE
  5
18BCC
330
18BC8
100
AcDbEntity
  8
寸法
 62
     0
 48
50.0
370
    -2
100
AcDbLine
 10
8642.429862581046
 20
9636.123139034717
 30
0.0
 11
8642.429862581046
 21
7846.123139034709
 31
0.0
  0
INSERT
  5
18BCD
330
18BC8
100
AcDbEntity
  8
寸法
 62
     0
 48
50.0
370
    -2
100
AcDbBlockReference
  2
_DOTSMALL
 10
8642.429862581046
 20
9636.123139034717
 30
0.0
 41
100.0
 42
100.0
 43
100.0
 50
90.0
  0
INSERT
  5
18BCE
330
18BC8
100
AcDbEntity
  8
寸法
 62
     0
 48
50.0
370
    -2
100
AcDbBlockReference
  2
_DOTSMALL
 10
8642.429862581046
 20
7846.123139034709
 30
0.0
 41
100.0
 42
100.0
 43
100.0
 50
270.0
  0
MTEXT
  5
18BCF
330
18BC8
100
AcDbEntity
  8
寸法
 62
     7
 48
50.0
100
AcDbMText
 10
8542.429862581045
 20
8741.123139034712
 30
0.0
 40
120.0
 41
0.0
 71
     5
 72
     1
  1
\A1;1790
  7
STYLE1
 11
0.0000000000000001
 21
1.0
 31
0.0
 73
     1
 44
1.0
1001
ACAD
1000
MTEXTBEGIN
1070
    73
1070
     1
1070
    44
1040
1.0
1070
    74
1070
     0
1000
MTEXTEND
  0
POINT
  5
18BD0
330
18BC8
100
AcDbEntity
  8
DEFPOINTS
 62
     0
 48
50.0
100
AcDbPoint
 10
7629.896575106998
 20
9636.123139034717
 30
0.0
  0
POINT
  5
18BD1
330
18BC8
100
AcDbEntity
  8
DEFPOINTS
 62
     0
 48
50.0
100
AcDbPoint
 10
7629.896575106974
 20
7846.123139034709
 30
0.0
  0
POINT
  5
18BD2
330
18BC8
100
AcDbEntity
  8
DEFPOINTS
 62
     0
 48
50.0
100
AcDbPoint
 10
8642.429862581046
 20
7846.123139034709
 30
0.0
  0
ENDBLK
  5
18BD3
330
18BC8
100
AcDbEntity
  8
0
 48
50.0
100
AcDbBlockEnd
  0
BLOCK
  5
18BD5
330
18BD4
100
AcDbEntity
  8
0
 48
50.0
100
AcDbBlockBegin
  2
*D4
 70
     1
 10
0.0
 20
0.0
 30
0.0
  3
*D4
  1

  0
LINE
  5
18BD6
330
18BD4
100
AcDbEntity
  8
寸法
 62
     0
 48
50.0
370
    -2
100
AcDbLine
 10
4214.896575106998
 20
9656.123139034622
 30
0.0
 11
4214.896575106998
 21
10211.93135865972
 31
0.0
  0
LINE
  5
18BD7
330
18BD4
100
AcDbEntity
  8
寸法
 62
     0
 48
50.0
370
    -2
100
AcDbLine
 10
7574.896575106999
 20
9656.123139034718
 30
0.0
 11
7574.896575106999
 21
10211.93135865972
 31
0.0
  0
LINE
  5
18BD8
330
18BD4
100
AcDbEntity
  8
寸法
 62
     0
 48
50.0
370
    -2
100
AcDbLine
 10
4214.896575106998
 20
10151.93135865972
 30
0.0
 11
7574.896575106999
 21
10151.93135865972
 31
0.0
  0
INSERT
  5
18BD9
330
18BD4
100
AcDbEntity
  8
寸法
 62
     0
 48
50.0
370
    -2
100
AcDbBlockReference
  2
_DOTSMALL
 10
4214.896575106998
 20
10151.93135865972
 30
0.0
 41
100.0
 42
100.0
 43
100.0
 50
180.0
  0
INSERT
  5
18BDA
330
18BD4
100
AcDbEntity
  8
寸法
 62
     0
 48
50.0
370
    -2
100
AcDbBlockReference
  2
_DOTSMALL
 10
7574.896575106999
 20
10151.93135865972
 30
0.0
 41
100.0
 42
100.0
 43
100.0
  0
MTEXT
  5
18BDB
330
18BD4
100
AcDbEntity
  8
寸法
 62
     7
 48
50.0
100
AcDbMText
 10
5894.896575106997
 20
10251.94316968334
 30
0.0
 40
120.0
 41
0.0
 71
     5
 72
     1
  1
\A1;8X420=3360
  7
STYLE1
 73
     1
 44
1.0
1001
ACAD
1000
MTEXTBEGIN
1070
    73
1070
     1
1070
    44
1040
1.0
1070
    74
1070
     0
1000
MTEXTEND
  0
POINT
  5
18BDC
330
18BD4
100
AcDbEntity
  8
DEFPOINTS
 62
     0
 48
50.0
100
AcDbPoint
 10
4214.896575106998
 20
9636.123139034623
 30
0.0
  0
POINT
  5
18BDD
330
18BD4
100
AcDbEntity
  8
DEFPOINTS
 62
     0
 48
50.0
100
AcDbPoint
 10
7574.896575106999
 20
9636.123139034717
 30
0.0
  0
POINT
  5
18BDE
330
18BD4
100
AcDbEntity
  8
DEFPOINTS
 62
     0
 48
50.0
100
AcDbPoint
 10
7574.896575106999
 20
10151.93135865972
 30
0.0
  0
ENDBLK
  5
18BDF
330
18BD4
100
AcDbEntity
  8
0
 48
50.0
100
AcDbBlockEnd
  0
BLOCK
  5
18BE1
330
18BE0
100
AcDbEntity
  8
0
 48
50.0
100
AcDbBlockBegin
  2
*D5
 70
     1
 10
0.0
 20
0.0
 30
0.0
  3
*D5
  1

  0
LINE
  5
18BE2
330
18BE0
100
AcDbEntity
  8
寸法
 62
     0
 48
50.0
370
    -2
100
AcDbLine
 10
7574.896575106999
 20
9656.123139034718
 30
0.0
 11
7574.896575106999
 21
10211.9313586597
 31
0.0
  0
LINE
  5
18BE3
330
18BE0
100
AcDbEntity
  8
寸法
 62
     0
 48
50.0
370
    -2
100
AcDbLine
 10
7629.896575106998
 20
9656.123139034718
 30
0.0
 11
7629.896575106998
 21
10211.9313586597
 31
0.0
  0
LINE
  5
18BE4
330
18BE0
100
AcDbEntity
  8
寸法
 62
     0
 48
50.0
370
    -2
100
AcDbLine
 10
7574.896575106999
 20
10151.9313586597
 30
0.0
 11
7474.896575106999
 21
10151.9313586597
 31
0.0
  0
LINE
  5
18BE5
330
18BE0
100
AcDbEntity
  8
寸法
 62
     0
 48
50.0
370
    -2
100
AcDbLine
 10
7629.896575106998
 20
10151.9313586597
 30
0.0
 11
8046.867137855477
 21
10151.9313586597
 31
0.0
  0
LINE
  5
18BE6
330
18BE0
100
AcDbEntity
  8
寸法
 62
     0
 48
50.0
370
    -2
100
AcDbLine
 10
7574.896575106999
 20
10151.9313586597
 30
0.0
 11
7629.896575106998
 21
10151.9313586597
 31
0.0
  0
INSERT
  5
18BE7
330
18BE0
100
AcDbEntity
  8
寸法
 62
     0
 48
50.0
370
    -2
100
AcDbBlockReference
  2
_DOTSMALL
 10
7574.896575106999
 20
10151.9313586597
 30
0.0
 41
100.0
 42
100.0
 43
100.0
  0
INSERT
  5
18BE8
330
18BE0
100
AcDbEntity
  8
寸法
 62
     0
 48
50.0
370
    -2
100
AcDbBlockReference
  2
_DOTSMALL
 10
7629.896575106998
 20
10151.9313586597
 30
0.0
 41
100.0
 42
100.0
 43
100.0
 50
180.0
  0
MTEXT
  5
18BE9
330
18BE0
100
AcDbEntity
  8
寸法
 62
     7
 48
50.0
100
AcDbMText
 10
7938.381856481237
 20
10251.9313586597
 30
0.0
 40
120.0
 41
0.0
 71
     5
 72
     1
  1
\A1;55
  7
STYLE1
 73
     1
 44
1.0
1001
ACAD
1000
MTEXTBEGIN
1070
    73
1070
     1
1070
    44
1040
1.0
1070
    74
1070
     0
1000
MTEXTEND
  0
POINT
  5
18BEA
330
18BE0
100
AcDbEntity
  8
DEFPOINTS
 62
     0
 48
50.0
100
AcDbPoint
 10
7574.896575106999
 20
9636.123139034717
 30
0.0
  0
POINT
  5
18BEB
330
18BE0
100
AcDbEntity
  8
DEFPOINTS
 62
     0
 48
50.0
100
AcDbPoint
 10
7629.896575106998
 20
9636.123139034717
 30
0.0
  0
POINT
  5
18BEC
330
18BE0
100
AcDbEntity
  8
DEFPOINTS
 62
     0
 48
50.0
100
AcDbPoint
 10
7629.896575106998
 20
10151.9313586597
 30
0.0
  0
ENDBLK
  5
18BED
330
18BE0
100
AcDbEntity
  8
0
 48
50.0
100
AcDbBlockEnd
  0
BLOCK
  5
18BEF
330
18BEE
100
AcDbEntity
  8
0
 48
50.0
100
AcDbBlockBegin
  2
*D6
 70
     1
 10
0.0
 20
0.0
 30
0.0
  3
*D6
  1

  0
LINE
  5
18BF0
330
18BEE
100
AcDbEntity
  8
寸法
 62
     0
 48
50.0
370
    -2
100
AcDbLine
 10
7649.896575106999
 20
9636.123139034717
 30
0.0
 11
8337.32292084141
 21
9636.123139034717
 31
0.0
  0
LINE
  5
18BF1
330
18BEE
100
AcDbEntity
  8
寸法
 62
     0
 48
50.0
370
    -2
100
AcDbLine
 10
7649.896575106999
 20
9581.123139034721
 30
0.0
 11
8337.32292084141
 21
9581.123139034721
 31
0.0
  0
LINE
  5
18BF2
330
18BEE
100
AcDbEntity
  8
寸法
 62
     0
 48
50.0
370
    -2
100
AcDbLine
 10
8277.322920841411
 20
9581.123139034721
 30
0.0
 11
8277.322920841411
 21
9481.123139034719
 31
0.0
  0
LINE
  5
18BF3
330
18BEE
100
AcDbEntity
  8
寸法
 62
     0
 48
50.0
370
    -2
100
AcDbLine
 10
8277.322920841411
 20
9636.123139034717
 30
0.0
 11
8277.322920841411
 21
10053.09370178319
 31
0.0
  0
LINE
  5
18BF4
330
18BEE
100
AcDbEntity
  8
寸法
 62
     0
 48
50.0
370
    -2
100
AcDbLine
 10
8277.322920841411
 20
9581.123139034721
 30
0.0
 11
8277.322920841411
 21
9636.123139034717
 31
0.0
  0
INSERT
  5
18BF5
330
18BEE
100
AcDbEntity
  8
寸法
 62
     0
 48
50.0
370
    -2
100
AcDbBlockReference
  2
_DOTSMALL
 10
8277.322920841411
 20
9581.123139034721
 30
0.0
 41
100.0
 42
100.0
 43
100.0
 50
90.0
  0
INSERT
  5
18BF6
330
18BEE
100
AcDbEntity
  8
寸法
 62
     0
 48
50.0
370
    -2
100
AcDbBlockReference
  2
_DOTSMALL
 10
8277.322920841411
 20
9636.123139034717
 30
0.0
 41
100.0
 42
100.0
 43
100.0
 50
270.0
  0
MTEXT
  5
18BF7
330
18BEE
100
AcDbEntity
  8
寸法
 62
     7
 48
50.0
100
AcDbMText
 10
8177.32292084141
 20
9944.608420408957
 30
0.0
 40
120.0
 41
0.0
 71
     5
 72
     1
  1
\A1;55
  7
STYLE1
 11
0.0000000000000001
 21
1.0
 31
0.0
 73
     1
 44
1.0
1001
ACAD
1000
MTEXTBEGIN
1070
    73
1070
     1
1070
    44
1040
1.0
1070
    74
1070
     0
1000
MTEXTEND
  0
POINT
  5
18BF8
330
18BEE
100
AcDbEntity
  8
DEFPOINTS
 62
     0
 48
50.0
100
AcDbPoint
 10
7629.896575106998
 20
9636.123139034717
 30
0.0
  0
POINT
  5
18BF9
330
18BEE
100
AcDbEntity
  8
DEFPOINTS
 62
     0
 48
50.0
100
AcDbPoint
 10
7629.896575106998
 20
9581.123139034721
 30
0.0
  0
POINT
  5
18BFA
330
18BEE
100
AcDbEntity
  8
DEFPOINTS
 62
     0
 48
50.0
100
AcDbPoint
 10
8277.322920841411
 20
9581.123139034721
 30
0.0
  0
ENDBLK
  5
18BFB
330
18BEE
100
AcDbEntity
  8
0
 48
50.0
100
AcDbBlockEnd
  0
BLOCK
  5
18BFD
330
18BFC
100
AcDbEntity
  8
0
 48
50.0
100
AcDbBlockBegin
  2
*D7
 70
     1
 10
0.0
 20
0.0
 30
0.0
  3
*D7
  1

  0
LINE
  5
18BFE
330
18BFC
100
AcDbEntity
  8
寸法
 62
     0
 48
50.0
370
    -2
100
AcDbLine
 10
4159.896575106963
 20
9656.123139034622
 30
0.0
 11
4159.896575106963
 21
10211.9313586596
 31
0.0
  0
LINE
  5
18BFF
330
18BFC
100
AcDbEntity
  8
寸法
 62
     0
 48
50.0
370
    -2
100
AcDbLine
 10
4214.896575106998
 20
9656.123139034622
 30
0.0
 11
4214.896575106998
 21
10211.9313586596
 31
0.0
  0
LINE
  5
18C00
330
18BFC
100
AcDbEntity
  8
寸法
 62
     0
 48
50.0
370
    -2
100
AcDbLine
 10
4214.896575106998
 20
10151.9313586596
 30
0.0
 11
4314.896575106998
 21
10151.9313586596
 31
0.0
  0
LINE
  5
18C01
330
18BFC
100
AcDbEntity
  8
寸法
 62
     0
 48
50.0
370
    -2
100
AcDbLine
 10
4159.896575106963
 20
10151.9313586596
 30
0.0
 11
3742.926012358486
 21
10151.9313586596
 31
0.0
  0
LINE
  5
18C02
330
18BFC
100
AcDbEntity
  8
寸法
 62
     0
 48
50.0
370
    -2
100
AcDbLine
 10
4214.896575106998
 20
10151.9313586596
 30
0.0
 11
4159.896575106963
 21
10151.9313586596
 31
0.0
  0
INSERT
  5
18C03
330
18BFC
100
AcDbEntity
  8
寸法
 62
     0
 48
50.0
370
    -2
100
AcDbBlockReference
  2
_DOTSMALL
 10
4214.896575106998
 20
10151.9313586596
 30
0.0
 41
100.0
 42
100.0
 43
100.0
 50
180.0
  0
INSERT
  5
18C04
330
18BFC
100
AcDbEntity
  8
寸法
 62
     0
 48
50.0
370
    -2
100
AcDbBlockReference
  2
_DOTSMALL
 10
4159.896575106963
 20
10151.9313586596
 30
0.0
 41
100.0
 42
100.0
 43
100.0
  0
MTEXT
  5
18C05
330
18BFC
100
AcDbEntity
  8
寸法
 62
     7
 48
50.0
100
AcDbMText
 10
3851.411293732725
 20
10251.9313586596
 30
0.0
 40
120.0
 41
0.0
 71
     5
 72
     1
  1
\A1;55
  7
STYLE1
 73
     1
 44
1.0
1001
ACAD
1000
MTEXTBEGIN
1070
    73
1070
     1
1070
    44
1040
1.0
1070
    74
1070
     0
1000
MTEXTEND
  0
POINT
  5
18C06
330
18BFC
100
AcDbEntity
  8
DEFPOINTS
 62
     0
 48
50.0
100
AcDbPoint
 10
4159.896575106963
 20
9636.123139034623
 30
0.0
  0
POINT
  5
18C07
330
18BFC
100
AcDbEntity
  8
DEFPOINTS
 62
     0
 48
50.0
100
AcDbPoint
 10
4214.896575106998
 20
9636.123139034623
 30
0.0
  0
POINT
  5
18C08
330
18BFC
100
AcDbEntity
  8
DEFPOINTS
 62
     0
 48
50.0
100
AcDbPoint
 10
4214.896575106998
 20
10151.9313586596
 30
0.0
  0
ENDBLK
  5
18C09
330
18BFC
100
AcDbEntity
  8
0
 48
50.0
100
AcDbBlockEnd
  0
BLOCK
  5
18C0B
330
18C0A
100
AcDbEntity
  8
0
 48
50.0
100
AcDbBlockBegin
  2
*D8
 70
     1
 10
0.0
 20
0.0
 30
0.0
  3
*D8
  1

  0
LINE
  5
18C0C
330
18C0A
100
AcDbEntity
  8
寸法
 62
     0
 48
50.0
370
    -2
100
AcDbLine
 10
4159.896575106992
 20
7826.123139034546
 30
0.0
 11
4159.896575106992
 21
6804.372203245664
 31
0.0
  0
LINE
  5
18C0D
330
18C0A
100
AcDbEntity
  8
寸法
 62
     0
 48
50.0
370
    -2
100
AcDbLine
 10
7629.896575106974
 20
7826.123139034674
 30
0.0
 11
7629.896575106974
 21
6804.372203245664
 31
0.0
  0
LINE
  5
18C0E
330
18C0A
100
AcDbEntity
  8
寸法
 62
     0
 48
50.0
370
    -2
100
AcDbLine
 10
4159.896575106992
 20
6864.372203245665
 30
0.0
 11
7629.896575106974
 21
6864.372203245665
 31
0.0
  0
INSERT
  5
18C0F
330
18C0A
100
AcDbEntity
  8
寸法
 62
     0
 48
50.0
370
    -2
100
AcDbBlockReference
  2
_DOTSMALL
 10
4159.896575106992
 20
6864.372203245665
 30
0.0
 41
100.0
 42
100.0
 43
100.0
 50
180.0
  0
INSERT
  5
18C10
330
18C0A
100
AcDbEntity
  8
寸法
 62
     0
 48
50.0
370
    -2
100
AcDbBlockReference
  2
_DOTSMALL
 10
7629.896575106974
 20
6864.372203245665
 30
0.0
 41
100.0
 42
100.0
 43
100.0
  0
MTEXT
  5
18C11
330
18C0A
100
AcDbEntity
  8
寸法
 62
     7
 48
50.0
100
AcDbMText
 10
5911.12376113973
 20
6964.372203245665
 30
0.0
 40
120.0
 41
0.0
 71
     5
 72
     1
  1
\A1;3470
  7
STYLE1
 73
     1
 44
1.0
1001
ACAD
1000
MTEXTBEGIN
1070
    73
1070
     1
1070
    44
1040
1.0
1070
    74
1070
     0
1000
MTEXTEND
  0
POINT
  5
18C12
330
18C0A
100
AcDbEntity
  8
DEFPOINTS
 62
     0
 48
50.0
100
AcDbPoint
 10
4159.896575106992
 20
7846.123139034546
 30
0.0
  0
POINT
  5
18C13
330
18C0A
100
AcDbEntity
  8
DEFPOINTS
 62
     0
 48
50.0
100
AcDbPoint
 10
7629.896575106974
 20
7846.123139034673
 30
0.0
  0
POINT
  5
18C14
330
18C0A
100
AcDbEntity
  8
DEFPOINTS
 62
     0
 48
50.0
100
AcDbPoint
 10
7629.896575106974
 20
6864.372203245665
 30
0.0
  0
ENDBLK
  5
18C15
330
18C0A
100
AcDbEntity
  8
0
 48
50.0
100
AcDbBlockEnd
  0
BLOCK
  5
18C17
330
18C16
100
AcDbEntity
  8
0
 48
50.0
100
AcDbBlockBegin
  2
*D9
 70
     1
 10
0.0
 20
0.0
 30
0.0
  3
*D9
  1

  0
LINE
  5
18C18
330
18C16
100
AcDbEntity
  8
寸法
 62
     0
 48
50.0
370
    -2
100
AcDbLine
 10
7649.896575106973
 20
7901.123139034706
 30
0.0
 11
8337.322920841385
 21
7901.123139034706
 31
0.0
  0
LINE
  5
18C19
330
18C16
100
AcDbEntity
  8
寸法
 62
     0
 48
50.0
370
    -2
100
AcDbLine
 10
7649.896575106973
 20
7846.123139034709
 30
0.0
 11
8337.322920841385
 21
7846.123139034709
 31
0.0
  0
LINE
  5
18C1A
330
18C16
100
AcDbEntity
  8
寸法
 62
     0
 48
50.0
370
    -2
100
AcDbLine
 10
8277.322920841385
 20
7901.123139034706
 30
0.0
 11
8277.322920841385
 21
8001.123139034707
 31
0.0
  0
LINE
  5
18C1B
330
18C16
100
AcDbEntity
  8
寸法
 62
     0
 48
50.0
370
    -2
100
AcDbLine
 10
8277.322920841385
 20
7846.123139034709
 30
0.0
 11
8277.322920841385
 21
7429.152576286229
 31
0.0
  0
LINE
  5
18C1C
330
18C16
100
AcDbEntity
  8
寸法
 62
     0
 48
50.0
370
    -2
100
AcDbLine
 10
8277.322920841385
 20
7901.123139034706
 30
0.0
 11
8277.322920841385
 21
7846.123139034709
 31
0.0
  0
INSERT
  5
18C1D
330
18C16
100
AcDbEntity
  8
寸法
 62
     0
 48
50.0
370
    -2
100
AcDbBlockReference
  2
_DOTSMALL
 10
8277.322920841385
 20
7901.123139034706
 30
0.0
 41
100.0
 42
100.0
 43
100.0
 50
270.0
  0
INSERT
  5
18C1E
330
18C16
100
AcDbEntity
  8
寸法
 62
     0
 48
50.0
370
    -2
100
AcDbBlockReference
  2
_DOTSMALL
 10
8277.322920841385
 20
7846.123139034709
 30
0.0
 41
100.0
 42
100.0
 43
100.0
 50
90.0
  0
MTEXT
  5
18C1F
330
18C16
100
AcDbEntity
  8
寸法
 62
     7
 48
50.0
100
AcDbMText
 10
8177.322920841383
 20
7537.637857660469
 30
0.0
 40
120.0
 41
0.0
 71
     5
 72
     1
  1
\A1;55
  7
STYLE1
 11
0.0000000000000001
 21
1.0
 31
0.0
 73
     1
 44
1.0
1001
ACAD
1000
MTEXTBEGIN
1070
    73
1070
     1
1070
    44
1040
1.0
1070
    74
1070
     0
1000
MTEXTEND
  0
POINT
  5
18C20
330
18C16
100
AcDbEntity
  8
DEFPOINTS
 62
     0
 48
50.0
100
AcDbPoint
 10
7629.896575106974
 20
7901.123139034706
 30
0.0
  0
POINT
  5
18C21
330
18C16
100
AcDbEntity
  8
DEFPOINTS
 62
     0
 48
50.0
100
AcDbPoint
 10
7629.896575106974
 20
7846.123139034709
 30
0.0
  0
POINT
  5
18C22
330
18C16
100
AcDbEntity
  8
DEFPOINTS
 62
     0
 48
50.0
100
AcDbPoint
 10
8277.322920841385
 20
7846.123139034709
 30
0.0
  0
ENDBLK
  5
18C23
330
18C16
100
AcDbEntity
  8
0
 48
50.0
100
AcDbBlockEnd
  0
BLOCK
  5
18C25
330
18C24
100
AcDbEntity
  8
0
 48
50.0
100
AcDbBlockBegin
  2
*D10
 70
     1
 10
0.0
 20
0.0
 30
0.0
  3
*D10
  1

  0
LINE
  5
18C26
330
18C24
100
AcDbEntity
  8
寸法
 62
     0
 48
50.0
370
    -2
100
AcDbLine
 10
6533.037591258376
 20
9136.123139034728
 30
0.0
 11
6465.083950562664
 21
8882.516699399049
 31
0.0
  0
LINE
  5
18C27
330
18C24
100
AcDbEntity
  8
寸法
 62
     0
 48
50.0
370
    -2
100
AcDbLine
 10
7596.037591258388
 20
9136.123139034721
 30
0.0
 11
7528.083950562677
 21
8882.516699399049
 31
0.0
  0
LINE
  5
18C28
330
18C24
100
AcDbEntity
  8
寸法
 62
     0
 48
50.0
370
    -2
100
AcDbLine
 10
6481.160902108531
 20
8942.51669939905
 30
0.0
 11
7544.160902108544
 21
8942.51669939905
 31
0.0
  0
INSERT
  5
18C29
330
18C24
100
AcDbEntity
  8
寸法
 62
     0
 48
50.0
370
    -2
100
AcDbBlockReference
  2
_DOTSMALL
 10
6481.160902108531
 20
8942.51669939905
 30
0.0
 41
100.0
 42
100.0
 43
100.0
 50
180.0
  0
INSERT
  5
18C2A
330
18C24
100
AcDbEntity
  8
寸法
 62
     0
 48
50.0
370
    -2
100
AcDbBlockReference
  2
_DOTSMALL
 10
7544.160902108544
 20
8942.51669939905
 30
0.0
 41
100.0
 42
100.0
 43
100.0
  0
MTEXT
  5
18C2B
330
18C24
100
AcDbEntity
  8
寸法
 62
     7
 48
50.0
100
AcDbMText
 10
7061.28653022935
 20
9042.516699399049
 30
0.0
 40
120.0
 41
0.0
 71
     5
 72
     1
  1
\A1;1063
  7
STYLE1
 73
     1
 44
1.0
1001
ACAD
1000
MTEXTBEGIN
1070
    73
1070
     1
1070
    44
1040
1.0
1070
    74
1070
     0
1000
MTEXTEND
  0
POINT
  5
18C2C
330
18C24
100
AcDbEntity
  8
DEFPOINTS
 62
     0
 48
50.0
100
AcDbPoint
 10
6538.396575106998
 20
9156.123139034727
 30
0.0
  0
POINT
  5
18C2D
330
18C24
100
AcDbEntity
  8
DEFPOINTS
 62
     0
 48
50.0
100
AcDbPoint
 10
7601.39657510701
 20
9156.12313903472
 30
0.0
  0
POINT
  5
18C2E
330
18C24
100
AcDbEntity
  8
DEFPOINTS
 62
     0
 48
50.0
100
AcDbPoint
 10
7544.160902108544
 20
8942.51669939905
 30
0.0
  0
ENDBLK
  5
18C2F
330
18C24
100
AcDbEntity
  8
0
 48
50.0
100
AcDbBlockEnd
  0
BLOCK
  5
18C31
330
18C30
100
AcDbEntity
  8
0
 48
50.0
100
AcDbBlockBegin
  2
*D11
 70
     1
 10
0.0
 20
0.0
 30
0.0
  3
*D11
  1

  0
LINE
  5
18C32
330
18C30
100
AcDbEntity
  8
寸法
 62
     0
 48
50.0
370
    -2
100
AcDbLine
 10
7621.396575106999
 20
9600.764155186094
 30
0.0
 11
8016.754300969024
 21
9494.828371819961
 31
0.0
  0
LINE
  5
18C33
330
18C30
100
AcDbEntity
  8
寸法
 62
     0
 48
50.0
370
    -2
100
AcDbLine
 10
7621.396575106999
 20
9150.764155186099
 30
0.0
 11
8016.754300969024
 21
9044.828371819964
 31
0.0
  0
LINE
  5
18C34
330
18C30
100
AcDbEntity
  8
寸法
 62
     0
 48
50.0
370
    -2
100
AcDbLine
 10
7956.754300969024
 20
9510.905323365827
 30
0.0
 11
7956.754300969024
 21
9060.90532336583
 31
0.0
  0
INSERT
  5
18C35
330
18C30
100
AcDbEntity
  8
寸法
 62
     0
 48
50.0
370
    -2
100
AcDbBlockReference
  2
_DOTSMALL
 10
7956.754300969024
 20
9510.905323365827
 30
0.0
 41
100.0
 42
100.0
 43
100.0
 50
90.0
  0
INSERT
  5
18C36
330
18C30
100
AcDbEntity
  8
寸法
 62
     0
 48
50.0
370
    -2
100
AcDbBlockReference
  2
_DOTSMALL
 10
7956.754300969024
 20
9060.90532336583
 30
0.0
 41
100.0
 42
100.0
 43
100.0
 50
270.0
  0
MTEXT
  5
18C37
330
18C30
100
AcDbEntity
  8
寸法
 62
     7
 48
50.0
100
AcDbMText
 10
7856.754300969022
 20
9285.905323365829
 30
0.0
 40
120.0
 41
0.0
 71
     5
 72
     1
  1
\A1;450
  7
STYLE1
 11
0.0000000000000001
 21
1.0
 31
0.0
 73
     1
 44
1.0
1001
ACAD
1000
MTEXTBEGIN
1070
    73
1070
     1
1070
    44
1040
1.0
1070
    74
1070
     0
1000
MTEXTEND
  0
POINT
  5
18C38
330
18C30
100
AcDbEntity
  8
DEFPOINTS
 62
     0
 48
50.0
100
AcDbPoint
 10
7601.396575106999
 20
9606.123139034718
 30
0.0
  0
POINT
  5
18C39
330
18C30
100
AcDbEntity
  8
DEFPOINTS
 62
     0
 48
50.0
100
AcDbPoint
 10
7601.396575106999
 20
9156.12313903472
 30
0.0
  0
POINT
  5
18C3A
330
18C30
100
AcDbEntity
  8
DEFPOINTS
 62
     0
 48
50.0
100
AcDbPoint
 10
7956.754300969024
 20
9060.90532336583
 30
0.0
  0
ENDBLK
  5
18C3B
330
18C30
100
AcDbEntity
  8
0
 48
50.0
100
AcDbBlockEnd
  0
BLOCK
  5
18C3D
330
18C3C
100
AcDbEntity
  8
0
 48
50.0
100
AcDbBlockBegin
  2
*D12
 70
     1
 10
0.0
 20
0.0
 30
0.0
  3
*D12
  1

  0
LINE
  5
18C3E
330
18C3C
100
AcDbEntity
  8
寸法
 62
     0
 48
50.0
370
    -2
100
AcDbLine
 10
7649.896575106999
 20
9581.123139034721
 30
0.0
 11
8337.32292084141
 21
9581.123139034721
 31
0.0
  0
LINE
  5
18C3F
330
18C3C
100
AcDbEntity
  8
寸法
 62
     0
 48
50.0
370
    -2
100
AcDbLine
 10
7649.896575106973
 20
7901.123139034706
 30
0.0
 11
8337.32292084141
 21
7901.123139034706
 31
0.0
  0
LINE
  5
18C40
330
18C3C
100
AcDbEntity
  8
寸法
 62
     0
 48
50.0
370
    -2
100
AcDbLine
 10
8277.322920841411
 20
9581.123139034721
 30
0.0
 11
8277.322920841411
 21
7901.123139034706
 31
0.0
  0
INSERT
  5
18C41
330
18C3C
100
AcDbEntity
  8
寸法
 62
     0
 48
50.0
370
    -2
100
AcDbBlockReference
  2
_DOTSMALL
 10
8277.322920841411
 20
9581.123139034721
 30
0.0
 41
100.0
 42
100.0
 43
100.0
 50
90.0
  0
INSERT
  5
18C42
330
18C3C
100
AcDbEntity
  8
寸法
 62
     0
 48
50.0
370
    -2
100
AcDbBlockReference
  2
_DOTSMALL
 10
8277.322920841411
 20
7901.123139034706
 30
0.0
 41
100.0
 42
100.0
 43
100.0
 50
270.0
  0
MTEXT
  5
18C43
330
18C3C
100
AcDbEntity
  8
寸法
 62
     7
 48
50.0
100
AcDbMText
 10
8177.311109817788
 20
8741.123139034712
 30
0.0
 40
120.0
 41
0.0
 71
     5
 72
     1
  1
\A1;4X420=1680
  7
STYLE1
 11
0.0000000000000001
 21
1.0
 31
0.0
 73
     1
 44
1.0
1001
ACAD
1000
MTEXTBEGIN
1070
    73
1070
     1
1070
    44
1040
1.0
1070
    74
1070
     0
1000
MTEXTEND
  0
POINT
  5
18C44
330
18C3C
100
AcDbEntity
  8
DEFPOINTS
 62
     0
 48
50.0
100
AcDbPoint
 10
7629.896575106998
 20
9581.123139034721
 30
0.0
  0
POINT
  5
18C45
330
18C3C
100
AcDbEntity
  8
DEFPOINTS
 62
     0
 48
50.0
100
AcDbPoint
 10
7629.896575106974
 20
7901.123139034706
 30
0.0
  0
POINT
  5
18C46
330
18C3C
100
AcDbEntity
  8
DEFPOINTS
 62
     0
 48
50.0
100
AcDbPoint
 10
8277.322920841411
 20
7901.123139034706
 30
0.0
  0
ENDBLK
  5
18C47
330
18C3C
100
AcDbEntity
  8
0
 48
50.0
100
AcDbBlockEnd
  0
BLOCK
  5
18C49
330
18C48
100
AcDbEntity
  8
0
 48
50.0
100
AcDbBlockBegin
  2
*D13
 70
     1
 10
0.0
 20
0.0
 30
0.0
  3
*D13
  1

  0
LINE
  5
18C4A
330
18C48
100
AcDbEntity
  8
寸法
 62
     0
 48
50.0
370
    -2
100
AcDbLine
 10
4183.037591258377
 20
9136.123139034619
 30
0.0
 11
4115.083950562663
 21
8882.516699398941
 31
0.0
  0
LINE
  5
18C4B
330
18C48
100
AcDbEntity
  8
寸法
 62
     0
 48
50.0
370
    -2
100
AcDbLine
 10
5246.037591258307
 20
9136.123139034671
 30
0.0
 11
5178.08395056258
 21
8882.516699398941
 31
0.0
  0
LINE
  5
18C4C
330
18C48
100
AcDbEntity
  8
寸法
 62
     0
 48
50.0
370
    -2
100
AcDbLine
 10
4131.160902108532
 20
8942.516699398941
 30
0.0
 11
5194.160902108448
 21
8942.516699398941
 31
0.0
  0
INSERT
  5
18C4D
330
18C48
100
AcDbEntity
  8
寸法
 62
     0
 48
50.0
370
    -2
100
AcDbBlockReference
  2
_DOTSMALL
 10
4131.160902108532
 20
8942.516699398941
 30
0.0
 41
100.0
 42
100.0
 43
100.0
 50
180.0
  0
INSERT
  5
18C4E
330
18C48
100
AcDbEntity
  8
寸法
 62
     0
 48
50.0
370
    -2
100
AcDbBlockReference
  2
_DOTSMALL
 10
5194.160902108448
 20
8942.516699398941
 30
0.0
 41
100.0
 42
100.0
 43
100.0
  0
MTEXT
  5
18C4F
330
18C48
100
AcDbEntity
  8
寸法
 62
     7
 48
50.0
100
AcDbMText
 10
4658.986452655306
 20
9042.516699398941
 30
0.0
 40
120.0
 41
0.0
 71
     5
 72
     1
  1
\A1;1063
  7
STYLE1
 73
     1
 44
1.0
1001
ACAD
1000
MTEXTBEGIN
1070
    73
1070
     1
1070
    44
1040
1.0
1070
    74
1070
     0
1000
MTEXTEND
  0
POINT
  5
18C50
330
18C48
100
AcDbEntity
  8
DEFPOINTS
 62
     0
 48
50.0
100
AcDbPoint
 10
4188.396575106999
 20
9156.123139034617
 30
0.0
  0
POINT
  5
18C51
330
18C48
100
AcDbEntity
  8
DEFPOINTS
 62
     0
 48
50.0
100
AcDbPoint
 10
5251.396575106929
 20
9156.123139034672
 30
0.0
  0
POINT
  5
18C52
330
18C48
100
AcDbEntity
  8
DEFPOINTS
 62
     0
 48
50.0
100
AcDbPoint
 10
5194.160902108448
 20
8942.516699398941
 30
0.0
  0
ENDBLK
  5
18C53
330
18C48
100
AcDbEntity
  8
0
 48
50.0
100
AcDbBlockEnd
  0
BLOCK
  5
18C55
330
18C54
100
AcDbEntity
  8
0
 48
50.0
100
AcDbBlockBegin
  2
*D14
 70
     1
 10
0.0
 20
0.0
 30
0.0
  3
*D14
  1

  0
LINE
  5
18C56
330
18C54
100
AcDbEntity
  8
寸法
 62
     0
 48
50.0
370
    -2
100
AcDbLine
 10
5274.037591258307
 20
9136.123139034669
 30
0.0
 11
5206.08395056258
 21
8882.516699398941
 31
0.0
  0
LINE
  5
18C57
330
18C54
100
AcDbEntity
  8
寸法
 62
     0
 48
50.0
370
    -2
100
AcDbLine
 10
6505.037591258377
 20
9136.123139034662
 30
0.0
 11
6437.083950562653
 21
8882.516699398941
 31
0.0
  0
LINE
  5
18C58
330
18C54
100
AcDbEntity
  8
寸法
 62
     0
 48
50.0
370
    -2
100
AcDbLine
 10
5222.160902108448
 20
8942.516699398941
 30
0.0
 11
6453.16090210852
 21
8942.516699398941
 31
0.0
  0
INSERT
  5
18C59
330
18C54
100
AcDbEntity
  8
寸法
 62
     0
 48
50.0
370
    -2
100
AcDbBlockReference
  2
_DOTSMALL
 10
5222.160902108448
 20
8942.516699398941
 30
0.0
 41
100.0
 42
100.0
 43
100.0
 50
180.0
  0
INSERT
  5
18C5A
330
18C54
100
AcDbEntity
  8
寸法
 62
     0
 48
50.0
370
    -2
100
AcDbBlockReference
  2
_DOTSMALL
 10
6453.16090210852
 20
8942.516699398941
 30
0.0
 41
100.0
 42
100.0
 43
100.0
  0
MTEXT
  5
18C5B
330
18C54
100
AcDbEntity
  8
寸法
 62
     7
 48
50.0
100
AcDbMText
 10
6081.244808320626
 20
9042.528510422561
 30
0.0
 40
120.0
 41
0.0
 71
     5
 72
     1
  1
\A1;1231
  7
STYLE1
 73
     1
 44
1.0
1001
ACAD
1000
MTEXTBEGIN
1070
    73
1070
     1
1070
    44
1040
1.0
1070
    74
1070
     0
1000
MTEXTEND
  0
POINT
  5
18C5C
330
18C54
100
AcDbEntity
  8
DEFPOINTS
 62
     0
 48
50.0
100
AcDbPoint
 10
5279.396575106929
 20
9156.123139034669
 30
0.0
  0
POINT
  5
18C5D
330
18C54
100
AcDbEntity
  8
DEFPOINTS
 62
     0
 48
50.0
100
AcDbPoint
 10
6510.396575106999
 20
9156.123139034662
 30
0.0
  0
POINT
  5
18C5E
330
18C54
100
AcDbEntity
  8
DEFPOINTS
 62
     0
 48
50.0
100
AcDbPoint
 10
6453.16090210852
 20
8942.516699398941
 30
0.0
  0
ENDBLK
  5
18C5F
330
18C54
100
AcDbEntity
  8
0
 48
50.0
100
AcDbBlockEnd
  0
BLOCK
  5
18C61
330
18C60
100
AcDbEntity
  8
0
 48
50.0
100
AcDbBlockBegin
  2
*D15
 70
     1
 10
0.0
 20
0.0
 30
0.0
  3
*D15
  1

  0
LINE
  5
18C62
330
18C60
100
AcDbEntity
  8
寸法
 62
     0
 48
50.0
370
    -2
100
AcDbLine
 10
5065.896575106966
 20
7749.123139034579
 30
0.0
 11
5065.896575106966
 21
7099.952920982538
 31
0.0
  0
LINE
  5
18C63
330
18C60
100
AcDbEntity
  8
寸法
 62
     0
 48
50.0
370
    -2
100
AcDbLine
 10
6331.896575106966
 20
7749.123139034579
 30
0.0
 11
6331.896575106966
 21
7099.952920982538
 31
0.0
  0
LINE
  5
18C64
330
18C60
100
AcDbEntity
  8
寸法
 62
     0
 48
50.0
370
    -2
100
AcDbLine
 10
5065.896575106966
 20
7159.952920982537
 30
0.0
 11
6331.896575106966
 21
7159.952920982537
 31
0.0
  0
INSERT
  5
18C65
330
18C60
100
AcDbEntity
  8
寸法
 62
     0
 48
50.0
370
    -2
100
AcDbBlockReference
  2
_DOTSMALL
 10
5065.896575106966
 20
7159.952920982537
 30
0.0
 41
100.0
 42
100.0
 43
100.0
 50
180.0
  0
INSERT
  5
18C66
330
18C60
100
AcDbEntity
  8
寸法
 62
     0
 48
50.0
370
    -2
100
AcDbBlockReference
  2
_DOTSMALL
 10
6331.896575106966
 20
7159.952920982537
 30
0.0
 41
100.0
 42
100.0
 43
100.0
  0
MTEXT
  5
18C67
330
18C60
100
AcDbEntity
  8
寸法
 62
     7
 48
50.0
100
AcDbMText
 10
5711.986008735934
 20
7359.964732006159
 30
0.0
 40
120.0
 41
0.0
 71
     5
 72
     1
  1
\A1;有効開口部間口\P1266
  7
STYLE1
 73
     1
 44
1.0
1001
ACAD
1000
MTEXTBEGIN
1070
    73
1070
     1
1070
    44
1040
1.0
1070
    74
1070
     0
1000
MTEXTEND
  0
POINT
  5
18C68
330
18C60
100
AcDbEntity
  8
DEFPOINTS
 62
     0
 48
50.0
100
AcDbPoint
 10
5065.896575106966
 20
7769.123139034579
 30
0.0
  0
POINT
  5
18C69
330
18C60
100
AcDbEntity
  8
DEFPOINTS
 62
     0
 48
50.0
100
AcDbPoint
 10
6331.896575106966
 20
7769.123139034579
 30
0.0
  0
POINT
  5
18C6A
330
18C60
100
AcDbEntity
  8
DEFPOINTS
 62
     0
 48
50.0
100
AcDbPoint
 10
6331.896575106966
 20
7159.952920982537
 30
0.0
  0
ENDBLK
  5
18C6B
330
18C60
100
AcDbEntity
  8
0
 48
50.0
100
AcDbBlockEnd
  0
BLOCK
  5
18C6D
330
18C6C
100
AcDbEntity
  8
0
 48
50.0
100
AcDbBlockBegin
  2
*D16
 70
     1
 10
0.0
 20
0.0
 30
0.0
  3
*D16
  1

  0
LINE
  5
18C6E
330
18C6C
100
AcDbEntity
  8
寸法
 62
     0
 48
50.0
370
    -2
100
AcDbLine
 10
7200.896575106966
 20
7846.123139034578
 30
0.0
 11
7457.192158500191
 21
7846.123139034578
 31
0.0
  0
LINE
  5
18C6F
330
18C6C
100
AcDbEntity
  8
寸法
 62
     0
 48
50.0
370
    -2
100
AcDbLine
 10
7199.896575106966
 20
7769.123139034579
 30
0.0
 11
7457.192158500191
 21
7769.123139034579
 31
0.0
  0
LINE
  5
18C70
330
18C6C
100
AcDbEntity
  8
寸法
 62
     0
 48
50.0
370
    -2
100
AcDbLine
 10
7417.192158500192
 20
7866.123139034579
 30
0.0
 11
7417.192158500192
 21
7886.123139034578
 31
0.0
  0
LINE
  5
18C71
330
18C6C
100
AcDbEntity
  8
寸法
 62
     0
 48
50.0
370
    -2
100
AcDbLine
 10
7417.192158500192
 20
7749.123139034579
 30
0.0
 11
7417.192158500192
 21
7533.123139034573
 31
0.0
  0
LINE
  5
18C72
330
18C6C
100
AcDbEntity
  8
寸法
 62
     0
 48
50.0
370
    -2
100
AcDbLine
 10
7417.192158500192
 20
7846.123139034578
 30
0.0
 11
7417.192158500192
 21
7769.123139034579
 31
0.0
  0
INSERT
  5
18C73
330
18C6C
100
AcDbEntity
  8
寸法
 62
     0
 48
50.0
370
    -2
100
AcDbBlockReference
  2
_DOT
 10
7417.192158500192
 20
7846.123139034578
 30
0.0
 41
20.0
 42
20.0
 43
20.0
 50
270.0
  0
INSERT
  5
18C74
330
18C6C
100
AcDbEntity
  8
寸法
 62
     0
 48
50.0
370
    -2
100
AcDbBlockReference
  2
_DOT
 10
7417.192158500192
 20
7769.123139034579
 30
0.0
 41
20.0
 42
20.0
 43
20.0
 50
90.0
  0
MTEXT
  5
18C75
330
18C6C
100
AcDbEntity
  8
寸法
 62
     7
 48
50.0
100
AcDbMText
 10
7325.192158500191
 20
7631.123139034575
 30
0.0
 40
120.0
 41
0.0
 71
     5
 72
     1
  1
\A1;77
  7
STYLE1
 11
0.0000000000000001
 21
1.0
 31
0.0
 73
     1
 44
1.0
1001
ACAD
1000
MTEXTBEGIN
1070
    73
1070
     1
1070
    44
1040
1.0
1070
    74
1070
     0
1000
MTEXTEND
  0
POINT
  5
18C76
330
18C6C
100
AcDbEntity
  8
DEFPOINTS
 62
     0
 48
50.0
100
AcDbPoint
 10
7180.896575106967
 20
7846.123139034578
 30
0.0
  0
POINT
  5
18C77
330
18C6C
100
AcDbEntity
  8
DEFPOINTS
 62
     0
 48
50.0
100
AcDbPoint
 10
7179.896575106965
 20
7769.123139034579
 30
0.0
  0
POINT
  5
18C78
330
18C6C
100
AcDbEntity
  8
DEFPOINTS
 62
     0
 48
50.0
100
AcDbPoint
 10
7417.192158500192
 20
7769.123139034579
 30
0.0
  0
ENDBLK
  5
18C79
330
18C6C
100
AcDbEntity
  8
0
 48
50.0
100
AcDbBlockEnd
  0
BLOCK
  5
18DA0
330
18C7A
100
AcDbEntity
  8
0
 48
50.0
100
AcDbBlockBegin
  2
A$C3B1A506B
 70
     0
 10
0.0
 20
0.0
 30
0.0
  3
A$C3B1A506B
  1

  0
MTEXT
  5
18C7B
330
18C7A
100
AcDbEntity
  8
寸法
 62
     7
 48
50.0
100
AcDbMText
 10
3342.250386887194
 20
2778.329429134012
 30
0.0
 40
96.0
 41
0.0
 71
     5
 72
     1
  1
棚 2段
  7
STYLE1
 73
     1
 44
1.0
1001
ACAD
1000
MTEXTBEGIN
1070
    73
1070
     1
1070
    44
1040
1.0
1070
    74
1070
     0
1000
MTEXTEND
  0
MTEXT
  5
18C7C
330
18C7A
100
AcDbEntity
  8
寸法
 62
     7
 48
50.0
100
AcDbMText
 10
2167.25038688716
 20
2778.329429133986
 30
0.0
 40
96.0
 41
0.0
 71
     5
 72
     1
  1
棚 2段
  7
STYLE1
 73
     1
 44
1.0
1001
ACAD
1000
MTEXTBEGIN
1070
    73
1070
     1
1070
    44
1040
1.0
1070
    74
1070
     0
1000
MTEXTEND
  0
MTEXT
  5
18C7D
330
18C7A
100
AcDbEntity
  8
寸法
 62
     7
 48
50.0
100
AcDbMText
 10
992.2503868871608
 20
2778.329429133935
 30
0.0
 40
96.0
 41
0.0
 71
     5
 72
     1
  1
棚 2段
  7
STYLE1
 73
     1
 44
1.0
1001
ACAD
1000
MTEXTBEGIN
1070
    73
1070
     1
1070
    44
1040
1.0
1070
    74
1070
     0
1000
MTEXTEND
  0
LINE
  5
18C7E
330
18C7A
100
AcDbEntity
  8
細線
 48
50.0
100
AcDbLine
 10
2771.970589276527
 20
1368.994384123192
 30
0.0
 11
3398.970589276523
 21
1368.994384123192
 31
0.0
  0
LINE
  5
18C7F
330
18C7A
100
AcDbEntity
  8
細線
 48
50.0
100
AcDbLine
 10
2117.970593930113
 20
1335.285615569113
 30
0.0
 11
3398.970589276523
 21
1335.285615569113
 31
0.0
  0
LINE
  5
18C80
330
18C7A
100
AcDbEntity
  8
細線
 48
50.0
100
AcDbLine
 10
2076.970593930115
 20
1364.690523565368
 30
0.0
 11
1322.970589276523
 21
1364.690523565367
 31
0.0
  0
LINE
  5
18C81
330
18C7A
100
AcDbEntity
  8
細線
100
AcDbLine
 10
3170.720579860066
 20
1388.494284088199
 30
0.0
 11
3173.052119381877
 21
1393.494286728162
 31
0.0
  0
LINE
  5
18C82
330
18C7A
100
AcDbEntity
  8
細線
100
AcDbLine
 10
3240.720589276525
 20
1388.494269174465
 30
0.0
 11
3238.389042800336
 21
1393.494286728144
 31
0.0
  0
LINE
  5
18C83
330
18C7A
100
AcDbEntity
  8
細線
100
AcDbLine
 10
3238.389042800336
 20
1393.494286728144
 30
0.0
 11
3173.052119381862
 21
1393.494286728133
 31
0.0
  0
LINE
  5
18C84
330
18C7A
100
AcDbEntity
  8
細線
100
AcDbLine
 10
3098.389042800336
 20
1393.494286728144
 30
0.0
 11
3033.052119381862
 21
1393.494286728133
 31
0.0
  0
LINE
  5
18C85
330
18C7A
100
AcDbEntity
  8
細線
100
AcDbLine
 10
3100.720589276523
 20
1388.494269174465
 30
0.0
 11
3098.389042800336
 21
1393.494286728144
 31
0.0
  0
LINE
  5
18C86
330
18C7A
100
AcDbEntity
  8
細線
100
AcDbLine
 10
3030.720579860066
 20
1388.494284088199
 30
0.0
 11
3033.052119381875
 21
1393.494286728162
 31
0.0
  0
LINE
  5
18C87
330
18C7A
100
AcDbEntity
  8
細線
100
AcDbLine
 10
2890.720589276525
 20
1388.494269174465
 30
0.0
 11
2893.052128798336
 21
1393.494271814428
 31
0.0
  0
LINE
  5
18C88
330
18C7A
100
AcDbEntity
  8
細線
100
AcDbLine
 10
2960.720598692984
 20
1388.494254260731
 30
0.0
 11
2958.389052216793
 21
1393.49427181441
 31
0.0
  0
LINE
  5
18C89
330
18C7A
100
AcDbEntity
  8
細線
100
AcDbLine
 10
2958.389052216795
 20
1393.49427181441
 30
0.0
 11
2893.052128798321
 21
1393.494271814399
 31
0.0
  0
LINE
  5
18C8A
330
18C7A
100
AcDbEntity
  8
細線
100
AcDbLine
 10
2667.139038146739
 20
1359.494298590735
 30
0.0
 11
2601.802114728263
 21
1359.494298590724
 31
0.0
  0
LINE
  5
18C8B
330
18C7A
100
AcDbEntity
  8
細線
100
AcDbLine
 10
2669.470584622926
 20
1354.494281037055
 30
0.0
 11
2667.139038146737
 21
1359.494298590735
 31
0.0
  0
LINE
  5
18C8C
330
18C7A
100
AcDbEntity
  8
細線
100
AcDbLine
 10
2599.470575206469
 20
1354.49429595079
 30
0.0
 11
2601.802114728278
 21
1359.494298590752
 31
0.0
  0
LINE
  5
18C8D
330
18C7A
100
AcDbEntity
  8
細線
 48
50.0
100
AcDbLine
 10
2440.853968524536
 20
1372.765132327548
 30
0.0
 11
2446.609486107205
 21
1354.494281037057
 31
0.0
  0
LINE
  5
18C8E
330
18C7A
100
AcDbEntity
  8
細線
 48
50.0
100
AcDbLine
 10
2429.925520044106
 20
1372.765132327546
 30
0.0
 11
2440.853968524536
 21
1372.765132327548
 31
0.0
  0
ARC
  5
18C8F
330
18C7A
100
AcDbEntity
  8
細線
 48
50.0
100
AcDbCircle
 10
2424.471163986787
 20
1374.265132327546
 30
0.0
 40
5.0
100
AcDbArc
 50
204.6243183520723
 51
335.3756816479278
  0
ARC
  5
18C90
330
18C7A
100
AcDbEntity
  8
細線
 48
50.0
100
AcDbCircle
 10
2429.925520044106
 20
1371.765132327546
 30
0.0
 40
1.0
100
AcDbArc
 50
90.0
 51
155.3756816479277
  0
ARC
  5
18C91
330
18C7A
100
AcDbEntity
  8
細線
 48
50.0
100
AcDbCircle
 10
2419.016807929469
 20
1371.765132327546
 30
0.0
 40
1.0
100
AcDbArc
 50
24.62431835207225
 51
90.0
  0
LINE
  5
18C92
330
18C7A
100
AcDbEntity
  8
細線
 48
50.0
100
AcDbLine
 10
2408.088359449037
 20
1372.765132327548
 30
0.0
 11
2419.016807929469
 21
1372.765132327546
 31
0.0
  0
LINE
  5
18C93
330
18C7A
100
AcDbEntity
  8
細線
 48
50.0
100
AcDbLine
 10
2402.33284186637
 20
1354.494281037054
 30
0.0
 11
2408.088359449037
 21
1372.765132327548
 31
0.0
  0
LINE
  5
18C94
330
18C7A
100
AcDbEntity
  8
細線
100
AcDbLine
 10
2458.070304175992
 20
1354.494278397076
 30
0.0
 11
2460.401843697802
 21
1359.494281037039
 31
0.0
  0
LINE
  5
18C95
330
18C7A
100
AcDbEntity
  8
細線
100
AcDbLine
 10
2528.070313592451
 20
1354.494263483342
 30
0.0
 11
2525.738767116262
 21
1359.494281037021
 31
0.0
  0
LINE
  5
18C96
330
18C7A
100
AcDbEntity
  8
細線
100
AcDbLine
 10
2525.738767116262
 20
1359.494281037021
 30
0.0
 11
2460.40184369779
 21
1359.49428103701
 31
0.0
  0
LINE
  5
18C97
330
18C7A
100
AcDbEntity
  8
細線
100
AcDbLine
 10
2387.139046332155
 20
1359.494281037021
 30
0.0
 11
2321.80212291368
 21
1359.49428103701
 31
0.0
  0
LINE
  5
18C98
330
18C7A
100
AcDbEntity
  8
細線
100
AcDbLine
 10
2389.470592808342
 20
1354.494263483342
 30
0.0
 11
2387.139046332153
 21
1359.494281037021
 31
0.0
  0
LINE
  5
18C99
330
18C7A
100
AcDbEntity
  8
細線
100
AcDbLine
 10
2319.470584622926
 20
1354.494281037054
 30
0.0
 11
2321.802122913694
 21
1359.494281037039
 31
0.0
  0
LINE
  5
18C9A
330
18C7A
100
AcDbEntity
  8
細線
100
AcDbLine
 10
2179.47061994182
 20
1354.494289224422
 30
0.0
 11
2181.802158232587
 21
1359.494289224407
 31
0.0
  0
LINE
  5
18C9B
330
18C7A
100
AcDbEntity
  8
細線
100
AcDbLine
 10
2249.470628127236
 20
1354.49427167071
 30
0.0
 11
2247.139081651047
 21
1359.494289224389
 31
0.0
  0
LINE
  5
18C9C
330
18C7A
100
AcDbEntity
  8
細線
100
AcDbLine
 10
2247.139081651047
 20
1359.494289224389
 30
0.0
 11
2181.802158232573
 21
1359.494289224378
 31
0.0
  0
LINE
  5
18C9D
330
18C7A
100
AcDbEntity
  8
細線
100
AcDbLine
 10
1807.970585744697
 20
1320.494460905133
 30
0.0
 11
1810.302124035464
 21
1325.494460905118
 31
0.0
  0
LINE
  5
18C9E
330
18C7A
100
AcDbEntity
  8
細線
100
AcDbLine
 10
1877.970593930113
 20
1320.494443351421
 30
0.0
 11
1875.639047453926
 21
1325.4944609051
 31
0.0
  0
LINE
  5
18C9F
330
18C7A
100
AcDbEntity
  8
細線
100
AcDbLine
 10
1875.639047453926
 20
1325.4944609051
 30
0.0
 11
1810.302124035452
 21
1325.494460905089
 31
0.0
  0
LINE
  5
18CA0
330
18C7A
100
AcDbEntity
  8
細線
100
AcDbLine
 10
2015.639047453926
 20
1325.4944609051
 30
0.0
 11
1950.302124035452
 21
1325.494460905089
 31
0.0
  0
LINE
  5
18CA1
330
18C7A
100
AcDbEntity
  8
細線
100
AcDbLine
 10
2017.970593930113
 20
1320.494443351421
 30
0.0
 11
2015.639047453924
 21
1325.4944609051
 31
0.0
  0
LINE
  5
18CA2
330
18C7A
100
AcDbEntity
  8
細線
100
AcDbLine
 10
1947.970585744697
 20
1320.494460905133
 30
0.0
 11
1950.302124035465
 21
1325.494460905118
 31
0.0
  0
LINE
  5
18CA3
330
18C7A
100
AcDbEntity
  8
細線
100
AcDbLine
 10
1735.639047453926
 20
1325.494460905098
 30
0.0
 11
1670.302124035454
 21
1325.494460905087
 31
0.0
  0
LINE
  5
18CA4
330
18C7A
100
AcDbEntity
  8
細線
100
AcDbLine
 10
1737.970593930113
 20
1320.494443351419
 30
0.0
 11
1735.639047453926
 21
1325.494460905098
 31
0.0
  0
LINE
  5
18CA5
330
18C7A
100
AcDbEntity
  8
細線
100
AcDbLine
 10
1667.970585744697
 20
1320.494460905131
 30
0.0
 11
1670.302124035465
 21
1325.494460905116
 31
0.0
  0
LINE
  5
18CA6
330
18C7A
100
AcDbEntity
  8
細線
100
AcDbLine
 10
1527.970593930113
 20
1320.494460905133
 30
0.0
 11
1530.302132220881
 21
1325.494460905118
 31
0.0
  0
LINE
  5
18CA7
330
18C7A
100
AcDbEntity
  8
細線
100
AcDbLine
 10
1597.970602115529
 20
1320.494443351421
 30
0.0
 11
1595.639055639342
 21
1325.4944609051
 31
0.0
  0
LINE
  5
18CA8
330
18C7A
100
AcDbEntity
  8
細線
100
AcDbLine
 10
1595.639055639342
 20
1325.4944609051
 30
0.0
 11
1530.302132220869
 21
1325.494460905089
 31
0.0
  0
ARC
  5
18CA9
330
18C7A
100
AcDbEntity
  8
部品1
 48
0.01
100
AcDbCircle
 10
1483.470482677778
 20
1319.493338720063
 30
0.0
 40
0.5
100
AcDbArc
 50
270.0
 51
0.0
  0
LINE
  5
18CAA
330
18C7A
100
AcDbEntity
  8
部品1
 48
0.01
100
AcDbLine
 10
1483.970482677778
 20
1320.493338720063
 30
0.0
 11
1483.970482677778
 21
1319.493338720063
 31
0.0
  0
LINE
  5
18CAB
330
18C7A
100
AcDbEntity
  8
部品1
 48
0.01
100
AcDbLine
 10
1483.970482677778
 20
1320.493338720063
 30
0.0
 11
1483.970482677778
 21
1319.493338720063
 31
0.0
  0
LINE
  5
18CAC
330
18C7A
100
AcDbEntity
  8
部品1
 48
0.01
100
AcDbLine
 10
1483.470482677778
 20
1318.993338720063
 30
0.0
 11
1476.857977247713
 21
1318.993338720062
 31
0.0
  0
ARC
  5
18CAD
330
18C7A
100
AcDbEntity
  8
部品1
100
AcDbCircle
 10
1476.926326800494
 20
1319.993338720062
 30
0.0
 40
1.0
100
AcDbArc
 50
160.5287793655865
 51
270.0
  0
ARC
  5
18CAE
330
18C7A
100
AcDbEntity
  8
部品1
100
AcDbCircle
 10
1451.470482677778
 20
1328.993338720062
 30
0.0
 40
26.0
100
AcDbArc
 50
340.5287793655865
 51
0.0
  0
LINE
  5
18CAF
330
18C7A
100
AcDbEntity
  8
部品1
100
AcDbLine
 10
1477.470482677778
 20
1328.993338720062
 30
0.0
 11
1477.470482677778
 21
1333.993338720061
 31
0.0
  0
ARC
  5
18CB0
330
18C7A
100
AcDbEntity
  8
部品1
 48
0.01
100
AcDbCircle
 10
1475.470482677778
 20
1333.993338720061
 30
0.0
 40
2.0
100
AcDbArc
 50
0.0
 51
90.0
  0
ARC
  5
18CB1
330
18C7A
100
AcDbEntity
  8
部品1
100
AcDbCircle
 10
1473.862091052968
 20
1332.993338720062
 30
0.0
 40
3.0
100
AcDbArc
 50
90.0
 51
141.6069559808035
  0
LINE
  5
18CB2
330
18C7A
100
AcDbEntity
  8
部品1
 48
0.01
100
AcDbLine
 10
1475.470482677778
 20
1335.993338720062
 30
0.0
 11
1473.862091052968
 21
1335.993338720062
 31
0.0
  0
ARC
  5
18CB3
330
18C7A
100
AcDbEntity
  8
部品1
100
AcDbCircle
 10
1455.399768463507
 20
1332.293338720065
 30
0.0
 40
3.0
100
AcDbArc
 50
254.0576313943215
 51
270.0
  0
ARC
  5
18CB4
330
18C7A
100
AcDbEntity
  8
部品1
100
AcDbCircle
 10
1462.541196892049
 20
1332.293338720065
 30
0.0
 40
3.0
100
AcDbArc
 50
270.0
 51
285.9423686056786
  0
LINE
  5
18CB5
330
18C7A
100
AcDbEntity
  8
部品1
100
AcDbLine
 10
1462.541196892049
 20
1329.293338720064
 30
0.0
 11
1455.399768463507
 21
1329.293338720064
 31
0.0
  0
ARC
  5
18CB6
330
18C7A
100
AcDbEntity
  8
部品1
100
AcDbCircle
 10
1458.970482677778
 20
1344.793338720065
 30
0.0
 40
16.0
100
AcDbArc
 50
285.9423686056786
 51
321.6069559808035
  0
LINE
  5
18CB7
330
18C7A
100
AcDbEntity
  8
部品1
 48
0.01
100
AcDbLine
 10
1442.470482677778
 20
1335.993338720062
 30
0.0
 11
1444.078874302588
 21
1335.993338720062
 31
0.0
  0
ARC
  5
18CB8
330
18C7A
100
AcDbEntity
  8
部品1
100
AcDbCircle
 10
1444.078874302588
 20
1332.993338720062
 30
0.0
 40
3.0
100
AcDbArc
 50
38.39304401919648
 51
90.0
  0
ARC
  5
18CB9
330
18C7A
100
AcDbEntity
  8
部品1
100
AcDbCircle
 10
1458.970482677778
 20
1344.793338720065
 30
0.0
 40
16.0
100
AcDbArc
 50
218.3930440191965
 51
254.0576313943215
  0
LINE
  5
18CBA
330
18C7A
100
AcDbEntity
  8
部品1
100
AcDbLine
 10
1440.470482677778
 20
1328.993338720062
 30
0.0
 11
1440.470482677778
 21
1333.993338720061
 31
0.0
  0
ARC
  5
18CBB
330
18C7A
100
AcDbEntity
  8
部品1
 48
0.01
100
AcDbCircle
 10
1442.470482677778
 20
1333.993338720061
 30
0.0
 40
2.0
100
AcDbArc
 50
90.0
 51
180.0
  0
ARC
  5
18CBC
330
18C7A
100
AcDbEntity
  8
部品1
100
AcDbCircle
 10
1466.470482677778
 20
1328.993338720062
 30
0.0
 40
26.0
100
AcDbArc
 50
180.0
 51
199.4712206344134
  0
ARC
  5
18CBD
330
18C7A
100
AcDbEntity
  8
部品1
 48
0.01
100
AcDbCircle
 10
1434.470482677778
 20
1319.493338720063
 30
0.0
 40
0.5
100
AcDbArc
 50
180.0
 51
270.0
  0
LINE
  5
18CBE
330
18C7A
100
AcDbEntity
  8
部品1
 48
0.01
100
AcDbLine
 10
1434.470482677778
 20
1318.993338720063
 30
0.0
 11
1441.014638555061
 21
1318.993338720062
 31
0.0
  0
LINE
  5
18CBF
330
18C7A
100
AcDbEntity
  8
部品1
 48
0.01
100
AcDbLine
 10
1433.970482677778
 20
1320.493338720063
 30
0.0
 11
1433.970482677778
 21
1319.493338720063
 31
0.0
  0
ARC
  5
18CC0
330
18C7A
100
AcDbEntity
  8
部品1
100
AcDbCircle
 10
1441.014638555061
 20
1319.993338720062
 30
0.0
 40
1.0
100
AcDbArc
 50
270.0
 51
19.47122063441346
  0
LINE
  5
18CC1
330
18C7A
100
AcDbEntity
  8
細線
100
AcDbLine
 10
1479.470482677785
 20
1338.493338720065
 30
0.0
 11
1438.470482677785
 21
1338.493338720058
 31
0.0
  0
LINE
  5
18CC2
330
18C7A
100
AcDbEntity
  8
細線
100
AcDbLine
 10
1438.470482677785
 20
1338.493338720058
 30
0.0
 11
1438.470482677785
 21
1320.49333872004
 31
0.0
  0
LINE
  5
18CC3
330
18C7A
100
AcDbEntity
  8
細線
100
AcDbLine
 10
1479.470482677785
 20
1338.493338720065
 30
0.0
 11
1479.470482677785
 21
1320.49333872004
 31
0.0
  0
LINE
  5
18CC4
330
18C7A
100
AcDbEntity
  8
細線
100
AcDbLine
 10
1322.970589276523
 20
1324.494269174465
 30
0.0
 11
1322.970589276523
 21
1320.494269174513
 31
0.0
  0
LINE
  5
18CC5
330
18C7A
100
AcDbEntity
  8
寸法
 48
50.0
100
AcDbLine
 10
1746.17359555837
 20
1170.531020743327
 30
0.0
 11
1694.767587648266
 21
1170.531020743327
 31
0.0
  0
LINE
  5
18CC6
330
18C7A
100
AcDbEntity
  8
寸法
 48
50.0
100
AcDbLine
 10
1694.767587648266
 20
1170.531020743327
 30
0.0
 11
1694.767587648266
 21
1201.841179395494
 31
0.0
  0
LINE
  5
18CC7
330
18C7A
100
AcDbEntity
  8
寸法
 48
50.0
100
AcDbLine
 10
1694.767587648266
 20
1201.841179395494
 30
0.0
 11
1665.006255656843
 21
1201.841179395494
 31
0.0
  0
LINE
  5
18CC8
330
18C7A
100
AcDbEntity
  8
寸法
 48
50.0
100
AcDbLine
 10
1665.006255656843
 20
1201.841179395494
 30
0.0
 11
1720.470591603318
 21
1239.420630324105
 31
0.0
  0
LINE
  5
18CC9
330
18C7A
100
AcDbEntity
  8
寸法
 48
50.0
100
AcDbLine
 10
1775.934927549793
 20
1201.841179395494
 30
0.0
 11
1720.470591603318
 21
1239.420630324105
 31
0.0
  0
LINE
  5
18CCA
330
18C7A
100
AcDbEntity
  8
寸法
 48
50.0
100
AcDbLine
 10
1746.17359555837
 20
1201.841179395494
 30
0.0
 11
1775.934927549793
 21
1201.841179395494
 31
0.0
  0
LINE
  5
18CCB
330
18C7A
100
AcDbEntity
  8
寸法
 48
50.0
100
AcDbLine
 10
1746.17359555837
 20
1170.531020743327
 30
0.0
 11
1746.17359555837
 21
1201.841179395494
 31
0.0
  0
LINE
  5
18CCC
330
18C7A
100
AcDbEntity
  8
寸法
 48
50.0
100
AcDbLine
 10
1694.767587648266
 20
1170.531020743327
 30
0.0
 11
1746.17359555837
 21
1170.531020743327
 31
0.0
  0
LINE
  5
18CCD
330
18C7A
100
AcDbEntity
  8
寸法
 48
50.0
100
AcDbLine
 10
2025.339129835225
 20
1227.676611498152
 30
0.0
 11
2025.339129835225
 21
1174.01297691636
 31
0.0
  0
LINE
  5
18CCE
330
18C7A
100
AcDbEntity
  8
寸法
 48
50.0
100
AcDbLine
 10
2114.623348430647
 20
1203.752977228664
 30
0.0
 11
2025.339129835225
 21
1227.676611498152
 31
0.0
  0
LINE
  5
18CCF
330
18C7A
100
AcDbEntity
  8
寸法
 48
50.0
100
AcDbLine
 10
1895.471408254923
 20
1203.752977228664
 30
0.0
 11
2114.623348430647
 21
1203.752977228664
 31
0.0
  0
DIMENSION
  5
18CD0
330
18C7A
100
AcDbEntity
  8
寸法
 48
50.0
100
AcDbDimension
  2
*D15
 10
2588.970589276523
 20
706.3240511224249
 30
0.0
 11
1969.060022905491
 21
706.3240511224249
 31
0.0
 12
-3742.925985830444
 22
-6453.628869860112
 32
0.0
 70
   128
  1
有効開口部間口\P<>
 71
     5
 42
1266.0
  3
INABA_S40G
100
AcDbAlignedDimension
 13
1322.970589276523
 23
1315.494269174465
 33
0.0
 14
2588.970589276523
 24
1315.494269174465
 34
0.0
100
AcDbRotatedDimension
1001
ACAD
1000
DSTYLE
1002
{
1070
   341
1005
0
1002
}
  0
LINE
  5
18CD1
330
18C7A
100
AcDbEntity
  8
部品1
100
AcDbLine
 10
3409.970589276524
 20
1392.494269174465
 30
0.0
 11
3437.970589276523
 21
1392.494269174465
 31
0.0
  0
DIMENSION
  5
18CD2
330
18C7A
100
AcDbEntity
  8
寸法
100
AcDbDimension
  2
*D16
 10
3674.266172669749
 20
1315.494269174465
 30
0.0
 11
3674.266172669748
 21
1177.494269174462
 31
0.0
 12
-3742.925985830444
 22
-6453.628869860112
 32
0.0
 70
   128
 71
     5
 42
77.0
  3
INABA_S40
100
AcDbAlignedDimension
 13
3437.970589276523
 23
1392.494269174465
 33
0.0
 14
3436.970589276523
 24
1315.494269174465
 34
0.0
 50
90.0
100
AcDbRotatedDimension
1001
ACAD
1000
DSTYLE
1002
{
1070
    41
1040
0.5
1070
    44
1040
1.0
1070
   147
1040
0.8
1070
   271
1070
     2
1070
   272
1070
     2
1070
   289
1070
     3
1070
   340
1005
F706
1070
   343
1005
164B4
1070
   344
1005
164B4
1002
}
  0
LINE
  5
18CD3
330
18C7A
100
AcDbEntity
  8
部品1
100
AcDbLine
 10
3437.970589276523
 20
1315.494269174465
 30
0.0
 11
3437.970589276523
 21
1392.494269174465
 31
0.0
  0
LINE
  5
18CD4
330
18C7A
100
AcDbEntity
  8
部品1
100
AcDbLine
 10
3398.970589276523
 20
1388.494269174465
 30
0.0
 11
3409.970589276524
 21
1388.494269174465
 31
0.0
  0
LINE
  5
18CD5
330
18C7A
100
AcDbEntity
  8
部品1
100
AcDbLine
 10
3407.970589276523
 20
1324.494269174465
 30
0.0
 11
3407.970589276523
 21
1315.494269174465
 31
0.0
  0
LINE
  5
18CD6
330
18C7A
100
AcDbEntity
  8
部品1
100
AcDbLine
 10
3398.970589276523
 20
1324.494269174465
 30
0.0
 11
3407.970589276523
 21
1324.494269174465
 31
0.0
  0
LINE
  5
18CD7
330
18C7A
100
AcDbEntity
  8
部品1
100
AcDbLine
 10
3398.970589276523
 20
1388.494269174465
 30
0.0
 11
3398.970589276523
 21
1324.494269174465
 31
0.0
  0
LINE
  5
18CD8
330
18C7A
100
AcDbEntity
  8
部品1
100
AcDbLine
 10
3409.970589276524
 20
1419.494269174465
 30
0.0
 11
3409.970589276524
 21
1388.494269174465
 31
0.0
  0
LINE
  5
18CD9
330
18C7A
100
AcDbEntity
  8
部品1
100
AcDbLine
 10
1322.970589276523
 20
1388.494269174465
 30
0.0
 11
1311.970589276523
 21
1388.494269174465
 31
0.0
  0
LINE
  5
18CDA
330
18C7A
100
AcDbEntity
  8
部品1
100
AcDbLine
 10
1283.970589276523
 20
1392.494269174465
 30
0.0
 11
1311.970589276523
 21
1392.494269174465
 31
0.0
  0
LINE
  5
18CDB
330
18C7A
100
AcDbEntity
  8
部品1
100
AcDbLine
 10
1313.970589276523
 20
1324.494269174465
 30
0.0
 11
1313.970589276523
 21
1315.494269174465
 31
0.0
  0
LINE
  5
18CDC
330
18C7A
100
AcDbEntity
  8
部品1
100
AcDbLine
 10
1322.970589276523
 20
1324.494269174465
 30
0.0
 11
1313.970589276523
 21
1324.494269174465
 31
0.0
  0
LINE
  5
18CDD
330
18C7A
100
AcDbEntity
  8
部品1
100
AcDbLine
 10
1313.970589276523
 20
1315.494269174465
 30
0.0
 11
1283.970589276523
 21
1315.494269174465
 31
0.0
  0
LINE
  5
18CDE
330
18C7A
100
AcDbEntity
  8
部品1
100
AcDbLine
 10
1283.970589276523
 20
1315.494269174465
 30
0.0
 11
1283.970589276523
 21
1392.494269174465
 31
0.0
  0
LINE
  5
18CDF
330
18C7A
100
AcDbEntity
  8
部品1
100
AcDbLine
 10
1322.970589276523
 20
1388.494269174465
 30
0.0
 11
1322.970589276523
 21
1324.494269174465
 31
0.0
  0
LINE
  5
18CE0
330
18C7A
100
AcDbEntity
  8
部品1
100
AcDbLine
 10
1311.970589276523
 20
1419.494269174462
 30
0.0
 11
1311.970589276523
 21
1388.494269174465
 31
0.0
  0
LINE
  5
18CE1
330
18C7A
100
AcDbEntity
  8
部品1
100
AcDbLine
 10
1311.970589276523
 20
1419.494269174462
 30
0.0
 11
3409.970589276524
 21
1419.494269174465
 31
0.0
  0
LINE
  5
18CE2
330
18C7A
100
AcDbEntity
  8
部品1
100
AcDbLine
 10
3407.970589276523
 20
1315.494269174465
 30
0.0
 11
3437.970589276523
 21
1315.494269174465
 31
0.0
  0
LINE
  5
18CE3
330
18C7A
100
AcDbEntity
  8
部品1
100
AcDbLine
 10
1313.970589276523
 20
1315.494269174465
 30
0.0
 11
3410.970589276523
 21
1315.494269174465
 31
0.0
  0
LINE
  5
18CE4
330
18C7A
100
AcDbEntity
  8
細線
  6
Continuous
 62
     5
100
AcDbLine
 10
2689.970589276527
 20
1354.494269174462
 30
0.0
 11
2689.970589276527
 21
1354.494269174462
 31
0.0
  0
LINE
  5
18CE5
330
18C7A
100
AcDbEntity
  8
細線
  6
Continuous
 62
     5
100
AcDbLine
 10
2682.470589276527
 20
1354.494269174462
 30
0.0
 11
2682.470589276527
 21
1354.494269174462
 31
0.0
  0
LINE
  5
18CE6
330
18C7A
100
AcDbEntity
  8
細線
  6
Continuous
 62
     5
100
AcDbLine
 10
2676.470589276527
 20
1354.494269174462
 30
0.0
 11
2676.470589276527
 21
1354.494269174462
 31
0.0
  0
LINE
  5
18CE7
330
18C7A
100
AcDbEntity
  8
細線
  6
Continuous
 62
     5
100
AcDbLine
 10
2743.970589276527
 20
1373.494269174462
 30
0.0
 11
2743.970589276527
 21
1373.494269174462
 31
0.0
  0
LINE
  5
18CE8
330
18C7A
100
AcDbEntity
  8
細線
 48
50.0
100
AcDbLine
 10
1336.970593930116
 20
1341.094443351418
 30
0.0
 11
1336.970593930113
 21
1349.490593759059
 31
0.0
  0
LINE
  5
18CE9
330
18C7A
100
AcDbEntity
  8
細線
 48
50.0
100
AcDbLine
 10
1336.970593930113
 20
1349.490593759059
 30
0.0
 11
1322.970589276523
 21
1349.490593759057
 31
0.0
  0
LINE
  5
18CEA
330
18C7A
100
AcDbEntity
  8
細線
 48
50.0
100
AcDbLine
 10
2087.970593930113
 20
1337.644443351419
 30
0.0
 11
2087.970593930113
 21
1342.494443351421
 31
0.0
  0
LINE
  5
18CEB
330
18C7A
100
AcDbEntity
  8
細線
 48
50.0
100
AcDbLine
 10
2087.970593930113
 20
1342.494443351421
 30
0.0
 11
2102.970593930113
 21
1342.494443351421
 31
0.0
  0
LINE
  5
18CEC
330
18C7A
100
AcDbEntity
  8
細線
 48
50.0
100
AcDbLine
 10
2102.970593930113
 20
1342.494443351421
 30
0.0
 11
2102.970593930115
 21
1349.494443351419
 31
0.0
  0
LINE
  5
18CED
330
18C7A
100
AcDbEntity
  8
細線
 48
50.0
100
AcDbLine
 10
2102.970593930115
 20
1349.494443351419
 30
0.0
 11
2117.970593930113
 21
1349.494443351419
 31
0.0
  0
LINE
  5
18CEE
330
18C7A
100
AcDbEntity
  8
細線
 48
50.0
100
AcDbLine
 10
2117.970593930113
 20
1349.494443351419
 30
0.0
 11
2117.970593930113
 21
1320.494443351421
 31
0.0
  0
LINE
  5
18CEF
330
18C7A
100
AcDbEntity
  8
細線
 48
50.0
100
AcDbLine
 10
1313.970589276523
 20
1320.491777694889
 30
0.0
 11
1527.970593930113
 21
1320.494460905133
 31
0.0
  0
LINE
  5
18CF0
330
18C7A
100
AcDbEntity
  8
細線
 48
50.0
100
AcDbLine
 10
2017.970593930113
 20
1320.494443351421
 30
0.0
 11
2117.970593930113
 21
1320.494443351421
 31
0.0
  0
LINE
  5
18CF1
330
18C7A
100
AcDbEntity
  8
細線
 48
50.0
100
AcDbLine
 10
1737.970593930113
 20
1320.494443351419
 30
0.0
 11
1807.970593930113
 21
1320.494443351423
 31
0.0
  0
LINE
  5
18CF2
330
18C7A
100
AcDbEntity
  8
細線
 48
50.0
100
AcDbLine
 10
1750.832558942642
 20
1320.494443351419
 30
0.0
 11
1756.588076525309
 21
1338.765294641913
 31
0.0
  0
LINE
  5
18CF3
330
18C7A
100
AcDbEntity
  8
細線
 48
50.0
100
AcDbLine
 10
1756.588076525309
 20
1338.765294641913
 30
0.0
 11
1767.516525005743
 21
1338.765294641911
 31
0.0
  0
ARC
  5
18CF4
330
18C7A
100
AcDbEntity
  8
細線
 48
50.0
100
AcDbCircle
 10
1767.516525005743
 20
1337.765294641911
 30
0.0
 40
1.0
100
AcDbArc
 50
24.62431835207225
 51
90.0
  0
ARC
  5
18CF5
330
18C7A
100
AcDbEntity
  8
細線
 48
50.0
100
AcDbCircle
 10
1778.425237120377
 20
1337.765294641911
 30
0.0
 40
1.0
100
AcDbArc
 50
90.0
 51
155.3756816479277
  0
ARC
  5
18CF6
330
18C7A
100
AcDbEntity
  8
細線
 48
50.0
100
AcDbCircle
 10
1772.970881063058
 20
1340.265294641911
 30
0.0
 40
5.0
100
AcDbArc
 50
204.6243183520723
 51
335.3756816479278
  0
LINE
  5
18CF7
330
18C7A
100
AcDbEntity
  8
細線
 48
50.0
100
AcDbLine
 10
1778.425237120377
 20
1338.765294641911
 30
0.0
 11
1789.35368560081
 21
1338.765294641913
 31
0.0
  0
LINE
  5
18CF8
330
18C7A
100
AcDbEntity
  8
細線
 48
50.0
100
AcDbLine
 10
1789.35368560081
 20
1338.765294641913
 30
0.0
 11
1795.109203183478
 21
1320.494443351423
 31
0.0
  0
LINE
  5
18CF9
330
18C7A
100
AcDbEntity
  8
細線
 48
50.0
100
AcDbLine
 10
2087.970593930113
 20
1341.094443351419
 30
0.0
 11
1336.970593930116
 21
1341.094443351418
 31
0.0
  0
LINE
  5
18CFA
330
18C7A
100
AcDbEntity
  8
細線
 48
50.0
100
AcDbLine
 10
1947.970593930113
 20
1320.494443351421
 30
0.0
 11
1877.970593930113
 21
1320.494443351421
 31
0.0
  0
LINE
  5
18CFB
330
18C7A
100
AcDbEntity
  8
細線
100
AcDbLine
 10
1667.970593930113
 20
1320.494443351421
 30
0.0
 11
1597.970602115529
 21
1320.494443351421
 31
0.0
  0
LINE
  5
18CFC
330
18C7A
100
AcDbEntity
  8
細線
 48
50.0
100
AcDbLine
 10
2741.970584622936
 20
1375.094487209288
 30
0.0
 11
2106.970593930113
 21
1375.094487209284
 31
0.0
  0
LINE
  5
18CFD
330
18C7A
100
AcDbEntity
  8
細線
 48
50.0
100
AcDbLine
 10
2106.970593930113
 20
1371.990637616925
 30
0.0
 11
2106.970593930113
 21
1376.490637616925
 31
0.0
  0
LINE
  5
18CFE
330
18C7A
100
AcDbEntity
  8
細線
 48
50.0
100
AcDbLine
 10
2106.970593930113
 20
1376.490637616925
 30
0.0
 11
2091.970593930113
 21
1376.490637616925
 31
0.0
  0
LINE
  5
18CFF
330
18C7A
100
AcDbEntity
  8
細線
 48
50.0
100
AcDbLine
 10
2091.970593930113
 20
1376.490637616925
 30
0.0
 11
2091.970593930113
 21
1383.490637616927
 31
0.0
  0
LINE
  5
18D00
330
18C7A
100
AcDbEntity
  8
細線
 48
50.0
100
AcDbLine
 10
2091.970593930113
 20
1383.490637616927
 30
0.0
 11
2076.970593930115
 21
1383.490637616924
 31
0.0
  0
LINE
  5
18D01
330
18C7A
100
AcDbEntity
  8
細線
 48
50.0
100
AcDbLine
 10
2076.970593930115
 20
1383.490637616924
 30
0.0
 11
2076.970593930115
 21
1345.890409513813
 31
0.0
  0
LINE
  5
18D02
330
18C7A
100
AcDbEntity
  8
細線
 48
50.0
100
AcDbLine
 10
2076.970593930115
 20
1345.890409513813
 30
0.0
 11
2096.970601231289
 21
1345.890451063353
 31
0.0
  0
LINE
  5
18D03
330
18C7A
100
AcDbEntity
  8
細線
 48
50.0
100
AcDbLine
 10
2096.970556362348
 20
1354.493912699161
 30
0.0
 11
2096.970601231289
 21
1345.890451063353
 31
0.0
  0
LINE
  5
18D04
330
18C7A
100
AcDbEntity
  8
細線
 48
50.0
100
AcDbLine
 10
2741.970584622936
 20
1371.644487209287
 30
0.0
 11
2741.970584622936
 21
1376.494487209284
 31
0.0
  0
LINE
  5
18D05
330
18C7A
100
AcDbEntity
  8
細線
 48
50.0
100
AcDbLine
 10
2741.970584622936
 20
1376.494487209284
 30
0.0
 11
2756.970584622934
 21
1376.494487209285
 31
0.0
  0
LINE
  5
18D06
330
18C7A
100
AcDbEntity
  8
細線
 48
50.0
100
AcDbLine
 10
2756.970584622934
 20
1376.494487209285
 30
0.0
 11
2756.970596256909
 21
1383.494487209331
 31
0.0
  0
LINE
  5
18D07
330
18C7A
100
AcDbEntity
  8
細線
 48
50.0
100
AcDbLine
 10
2756.970596256909
 20
1383.494487209331
 30
0.0
 11
2771.970594427439
 21
1383.494487209329
 31
0.0
  0
LINE
  5
18D08
330
18C7A
100
AcDbEntity
  8
細線
 48
50.0
100
AcDbLine
 10
2771.970594427439
 20
1383.494487209329
 30
0.0
 11
2771.970584125617
 21
1354.494281037055
 31
0.0
  0
LINE
  5
18D09
330
18C7A
100
AcDbEntity
  8
細線
 48
50.0
100
AcDbLine
 10
2458.070304175992
 20
1354.494278397076
 30
0.0
 11
2389.470863838818
 21
1354.494283787084
 31
0.0
  0
LINE
  5
18D0A
330
18C7A
100
AcDbEntity
  8
細線
 48
50.0
100
AcDbLine
 10
2096.970556362348
 20
1354.493912699161
 30
0.0
 11
2108.203245717057
 21
1354.494095652309
 31
0.0
  0
ARC
  5
18D0B
330
18C7A
100
AcDbEntity
  8
細線
 48
50.0
100
AcDbCircle
 10
2114.785538024393
 20
1353.294259565922
 30
0.0
 40
1.8
100
AcDbArc
 50
270.0006665777295
 51
345.000555481349
  0
LINE
  5
18D0C
330
18C7A
100
AcDbEntity
  8
細線
 48
50.0
100
AcDbLine
 10
2116.771971470473
 20
1353.753100023201
 30
0.0
 11
2116.524209028273
 21
1352.828402141094
 31
0.0
  0
LINE
  5
18D0D
330
18C7A
100
AcDbEntity
  8
細線
 48
50.0
100
AcDbLine
 10
2114.785558965548
 20
1351.494259566043
 30
0.0
 11
2111.155631546781
 21
1351.494217335563
 31
0.0
  0
ARC
  5
18D0E
330
18C7A
100
AcDbEntity
  8
細線
 48
50.0
100
AcDbCircle
 10
2111.155610605627
 20
1353.29421733544
 30
0.0
 40
1.8
100
AcDbArc
 50
195.0010443049965
 51
270.0006665777295
  0
LINE
  5
18D0F
330
18C7A
100
AcDbEntity
  8
細線
 48
50.0
100
AcDbLine
 10
2109.169183113368
 20
1353.752932303007
 30
0.0
 11
2109.416952609882
 21
1352.828311364425
 31
0.0
  0
ARC
  5
18D10
330
18C7A
100
AcDbEntity
  8
細線
 48
50.0
100
AcDbCircle
 10
2108.203262004622
 20
1353.494095652444
 30
0.0
 40
1.0
100
AcDbArc
 50
15.00104430499651
 51
90.00093320877969
  0
LINE
  5
18D11
330
18C7A
100
AcDbEntity
  8
細線
 48
50.0
100
AcDbLine
 10
2117.737892825577
 20
1354.494290342714
 30
0.0
 11
2118.679652976481
 21
1354.494296916564
 31
0.0
  0
ARC
  5
18D12
330
18C7A
100
AcDbEntity
  8
細線
 48
50.0
100
AcDbCircle
 10
2117.737899805961
 20
1353.49429034274
 30
0.0
 40
1.0
100
AcDbArc
 50
90.0003999466794
 51
165.000555481349
  0
LINE
  5
18D13
330
18C7A
100
AcDbEntity
  8
細線
 48
50.0
100
AcDbLine
 10
2669.470584622926
 20
1354.494281037055
 30
0.0
 11
2771.970584125617
 21
1354.494281037055
 31
0.0
  0
LINE
  5
18D14
330
18C7A
100
AcDbEntity
  8
細線
 48
50.0
100
AcDbLine
 10
2179.47061994182
 20
1354.494289224422
 30
0.0
 11
2118.370558714898
 21
1354.494296916564
 31
0.0
  0
LINE
  5
18D15
330
18C7A
100
AcDbEntity
  8
細線
 48
50.0
100
AcDbLine
 10
2599.470584622926
 20
1354.494281037057
 30
0.0
 11
2529.470584622926
 21
1354.494281037055
 31
0.0
  0
LINE
  5
18D16
330
18C7A
100
AcDbEntity
  8
細線
 48
50.0
100
AcDbLine
 10
2319.470584622926
 20
1354.494281037054
 30
0.0
 11
2249.470567335051
 21
1354.494281037057
 31
0.0
  0
ARC
  5
18D17
330
18C7A
100
AcDbEntity
  8
細線
 48
50.0
100
AcDbCircle
 10
2756.170589276533
 20
1387.694269174466
 30
0.0
 40
0.8
100
AcDbArc
 50
359.9997333689499
 51
89.99986668437072
  0
ARC
  5
18D18
330
18C7A
100
AcDbEntity
  8
細線
 48
50.0
100
AcDbCircle
 10
2763.770596101631
 20
1387.694280343081
 30
0.0
 40
0.8
100
AcDbArc
 50
90.00014387753465
 51
179.9997333689498
  0
LINE
  5
18D19
330
18C7A
100
AcDbEntity
  8
細線
 48
50.0
100
AcDbLine
 10
2756.170591137969
 20
1388.494269174465
 30
0.0
 11
2750.970589276525
 21
1388.494269174465
 31
0.0
  0
ARC
  5
18D1A
330
18C7A
100
AcDbEntity
  8
細線
 48
50.0
100
AcDbCircle
 10
2757.670589276524
 20
1386.194269174464
 30
0.0
 40
0.7
100
AcDbArc
 50
180.0
 51
270.0
  0
ARC
  5
18D1B
330
18C7A
100
AcDbEntity
  8
細線
 48
50.0
100
AcDbCircle
 10
2762.270589276524
 20
1386.194269174464
 30
0.0
 40
0.7
100
AcDbArc
 50
270.0
 51
0.0
  0
LINE
  5
18D1C
330
18C7A
100
AcDbEntity
  8
細線
 48
50.0
100
AcDbLine
 10
2762.970589276525
 20
1386.194269174464
 30
0.0
 11
2762.970596101639
 21
1387.694284065954
 31
0.0
  0
LINE
  5
18D1D
330
18C7A
100
AcDbEntity
  8
細線
 48
50.0
100
AcDbLine
 10
2757.670589276524
 20
1385.494269174465
 30
0.0
 11
2762.270589276524
 21
1385.494269174465
 31
0.0
  0
LINE
  5
18D1E
330
18C7A
100
AcDbEntity
  8
細線
 48
50.0
100
AcDbLine
 10
2756.970589276525
 20
1387.694269174466
 30
0.0
 11
2756.970589276525
 21
1386.194269174464
 31
0.0
  0
LINE
  5
18D1F
330
18C7A
100
AcDbEntity
  8
細線
 48
50.0
100
AcDbLine
 10
3382.570589276527
 20
1418.494269174465
 30
0.0
 11
2745.970589276525
 21
1418.494269174463
 31
0.0
  0
LINE
  5
18D20
330
18C7A
100
AcDbEntity
  8
細線
 48
50.0
100
AcDbLine
 10
3408.470589276525
 20
1413.494269174467
 30
0.0
 11
3392.570589276527
 21
1413.494269174465
 31
0.0
  0
LINE
  5
18D21
330
18C7A
100
AcDbEntity
  8
細線
 48
50.0
100
AcDbLine
 10
3392.570589276526
 20
1413.494269174465
 30
0.0
 11
3382.570589276527
 21
1418.494269174465
 31
0.0
  0
LINE
  5
18D22
330
18C7A
100
AcDbEntity
  8
細線
100
AcDbLine
 10
2993.470589276525
 20
1388.494269174465
 30
0.0
 11
2993.470589276525
 21
1417.794269174464
 31
0.0
  0
LINE
  5
18D23
330
18C7A
100
AcDbEntity
  8
細線
100
AcDbLine
 10
2993.470589276525
 20
1417.794269174464
 30
0.0
 11
3013.470589276525
 21
1417.794269174464
 31
0.0
  0
LINE
  5
18D24
330
18C7A
100
AcDbEntity
  8
細線
100
AcDbLine
 10
3013.470589276525
 20
1388.494269174465
 30
0.0
 11
3013.470589276525
 21
1417.794269174464
 31
0.0
  0
LINE
  5
18D25
330
18C7A
100
AcDbEntity
  8
細線
100
AcDbLine
 10
3170.720589276524
 20
1388.494269174465
 30
0.0
 11
3100.720589276523
 21
1388.494269174465
 31
0.0
  0
LINE
  5
18D26
330
18C7A
100
AcDbEntity
  8
細線
 48
50.0
100
AcDbLine
 10
2890.720589276525
 20
1388.494269174465
 30
0.0
 11
2763.766368849365
 21
1388.494269174465
 31
0.0
  0
LINE
  5
18D27
330
18C7A
100
AcDbEntity
  8
細線
100
AcDbLine
 10
3030.720589276525
 20
1388.494269174465
 30
0.0
 11
2960.720589276525
 21
1388.494269174465
 31
0.0
  0
LINE
  5
18D28
330
18C7A
100
AcDbEntity
  8
細線
 48
50.0
100
AcDbLine
 10
2750.970589276525
 20
1380.494269174465
 30
0.0
 11
2750.970589276525
 21
1388.494269174465
 31
0.0
  0
LINE
  5
18D29
330
18C7A
100
AcDbEntity
  8
細線
 48
50.0
100
AcDbLine
 10
2730.970589276524
 20
1380.494269174467
 30
0.0
 11
2750.970589276525
 21
1380.494269174465
 31
0.0
  0
LINE
  5
18D2A
330
18C7A
100
AcDbEntity
  8
細線
 48
50.0
100
AcDbLine
 10
2745.970589276525
 20
1418.494269174465
 30
0.0
 11
2745.970589276525
 21
1413.494269174465
 31
0.0
  0
LINE
  5
18D2B
330
18C7A
100
AcDbEntity
  8
細線
 48
50.0
100
AcDbLine
 10
2730.970589276525
 20
1418.494269174463
 30
0.0
 11
2745.970589276525
 21
1418.494269174465
 31
0.0
  0
LINE
  5
18D2C
330
18C7A
100
AcDbEntity
  8
細線
 48
50.0
100
AcDbLine
 10
2730.970589276524
 20
1380.494269174467
 30
0.0
 11
2730.970589276525
 21
1418.494269174463
 31
0.0
  0
LINE
  5
18D2D
330
18C7A
100
AcDbEntity
  8
細線
100
AcDbLine
 10
3398.970589276523
 20
1388.494269174465
 30
0.0
 11
3240.720589276525
 21
1388.494269174465
 31
0.0
  0
LINE
  5
18D2E
330
18C7A
100
AcDbEntity
  8
細線
 48
50.0
100
AcDbLine
 10
3408.470589276525
 20
1413.494269174467
 30
0.0
 11
3408.470589276524
 21
1388.494269174465
 31
0.0
  0
TEXT
  5
18D2F
330
18C7A
100
AcDbEntity
  8
部品1
100
AcDbText
 10
1860.154865991392
 20
46.99880823813145
 30
0.0
 40
135.0
  1
平面図
  7
STYLE2
100
AcDbText
  0
LWPOLYLINE
  5
18D30
330
18C7A
100
AcDbEntity
  8
部品1
100
AcDbPolyline
 90
        4
 70
     1
 43
0.0
 10
1770.23525616235
 20
239.8923374566548
 10
1770.23525616235
 20
0.0000159111223184
 10
2533.705922390791
 20
0.0000159111223184
 10
2533.705922390791
 20
239.8923374566548
  0
LINE
  5
18D31
330
18C7A
100
AcDbEntity
  8
部品1
100
AcDbLine
 10
1534.470589276487
 20
3154.494269174626
 30
0.0
 11
2769.470589276552
 21
3154.494269174626
 31
0.0
  0
LINE
  5
18D32
330
18C7A
100
AcDbEntity
  8
部品1
 48
50.0
100
AcDbLine
 10
1311.970589276523
 20
1420.494269174462
 30
0.0
 11
3411.970589276523
 21
1420.494269174465
 31
0.0
  0
LINE
  5
18D33
330
18C7A
100
AcDbEntity
  8
部品1
 48
50.0
100
AcDbLine
 10
471.9705892765232
 20
1392.494269174465
 30
0.0
 11
1311.970589276523
 21
1392.494269174465
 31
0.0
  0
DIMENSION
  5
18D34
330
18C7A
100
AcDbEntity
  8
寸法
100
AcDbDimension
  2
*D14
 10
2710.234916278077
 20
2488.887829538828
 30
0.0
 11
2338.318822490183
 21
2488.887829538828
 31
0.0
 12
-3742.925985830444
 22
-6453.628869860112
 32
0.0
 70
   128
 71
     5
 42
1231.00000000007
  3
INABA_S40G
100
AcDbAlignedDimension
 13
1536.470589276486
 23
2702.494269174557
 33
0.0
 14
2767.470589276556
 24
2702.494269174549
 34
0.0
100
AcDbRotatedDimension
1001
ACAD
1000
DSTYLE
1002
{
1002
}
  0
LINE
  5
18D35
330
18C7A
100
AcDbEntity
  8
部品1
100
AcDbLine
 10
1536.470589276487
 20
2702.494269174557
 30
0.0
 11
2767.470589276554
 21
2702.494269174615
 31
0.0
  0
LINE
  5
18D36
330
18C7A
100
AcDbEntity
  8
部品1
100
AcDbLine
 10
1536.470589276487
 20
3152.494269174557
 30
0.0
 11
2767.470589276556
 21
3152.494269174615
 31
0.0
  0
LINE
  5
18D37
330
18C7A
100
AcDbEntity
  8
細線
 48
50.0
100
AcDbLine
 10
1508.470589276487
 20
3152.494269174558
 30
0.0
 11
445.4705892765559
 21
2702.494269174509
 31
0.0
  0
LINE
  5
18D38
330
18C7A
100
AcDbEntity
  8
細線
 48
50.0
100
AcDbLine
 10
1508.470589276487
 20
2702.494269174558
 30
0.0
 11
445.4705892765542
 21
3152.494269174509
 31
0.0
  0
LINE
  5
18D39
330
18C7A
100
AcDbEntity
  8
部品1
100
AcDbLine
 10
1556.970589276487
 20
3172.494269174611
 30
0.0
 11
1556.970589276487
 21
3154.494269174611
 31
0.0
  0
LINE
  5
18D3A
330
18C7A
100
AcDbEntity
  8
部品1
100
AcDbLine
 10
1556.970589276487
 20
3172.494269174611
 30
0.0
 11
1550.970589276487
 21
3172.494269174611
 31
0.0
  0
LINE
  5
18D3B
330
18C7A
100
AcDbEntity
  8
部品1
100
AcDbLine
 10
1534.470589276487
 20
3146.494269174608
 30
0.0
 11
1509.470589276487
 21
3146.494269174611
 31
0.0
  0
LINE
  5
18D3C
330
18C7A
100
AcDbEntity
  8
部品1
100
AcDbLine
 10
1486.970589276487
 20
3172.494269174611
 30
0.0
 11
1486.970589276487
 21
3154.494269174611
 31
0.0
  0
LINE
  5
18D3D
330
18C7A
100
AcDbEntity
  8
部品1
100
AcDbLine
 10
1492.970589276487
 20
3172.494269174611
 30
0.0
 11
1486.970589276487
 21
3172.494269174611
 31
0.0
  0
LINE
  5
18D3E
330
18C7A
100
AcDbEntity
  8
部品1
100
AcDbLine
 10
1534.470589276487
 20
2702.494269174615
 30
0.0
 11
1509.470589276487
 21
2702.494269174615
 31
0.0
  0
LINE
  5
18D3F
330
18C7A
100
AcDbEntity
  8
部品1
 48
50.0
100
AcDbLine
 10
1536.470589276487
 20
3152.494269174611
 30
0.0
 11
1536.470589276487
 21
2702.494269174615
 31
0.0
  0
LINE
  5
18D40
330
18C7A
100
AcDbEntity
  8
部品1
 48
50.0
100
AcDbLine
 10
1508.470589276487
 20
3152.494269174607
 30
0.0
 11
1508.470589276487
 21
2702.494269174615
 31
0.0
  0
LINE
  5
18D41
330
18C7A
100
AcDbEntity
  8
部品1
 48
50.0
100
AcDbLine
 10
1534.470589276487
 20
3154.494269174618
 30
0.0
 11
1534.470589276487
 21
2702.494269174615
 31
0.0
  0
LINE
  5
18D42
330
18C7A
100
AcDbEntity
  8
部品1
 48
50.0
100
AcDbLine
 10
1509.470589276487
 20
3154.494269174615
 30
0.0
 11
1509.470589276487
 21
2702.494269174615
 31
0.0
  0
LINE
  5
18D43
330
18C7A
100
AcDbEntity
  8
部品1
100
AcDbLine
 10
3411.970589276556
 20
1392.494269174582
 30
0.0
 11
3411.970589276556
 21
1420.494269174596
 31
0.0
  0
LINE
  5
18D44
330
18C7A
100
AcDbEntity
  8
部品1
100
AcDbLine
 10
1311.970589276523
 20
1392.494269174596
 30
0.0
 11
1311.970589276523
 21
1420.494269174596
 31
0.0
  0
LINE
  5
18D45
330
18C7A
100
AcDbEntity
  8
部品1
100
AcDbLine
 10
891.9705892765232
 20
1392.494269174596
 30
0.0
 11
891.9705892765232
 21
1420.494269174596
 31
0.0
  0
LINE
  5
18D46
330
18C7A
100
AcDbEntity
  8
部品1
100
AcDbLine
 10
3411.97058927652
 20
3182.494269174477
 30
0.0
 11
3411.970589276523
 21
3154.494269174477
 31
0.0
  0
LINE
  5
18D47
330
18C7A
100
AcDbEntity
  8
部品1
100
AcDbLine
 10
2571.97058927652
 20
3182.494269174477
 30
0.0
 11
2571.970589276523
 21
3154.494269174477
 31
0.0
  0
LINE
  5
18D48
330
18C7A
100
AcDbEntity
  8
部品1
100
AcDbLine
 10
2991.97058927652
 20
3182.494269174477
 30
0.0
 11
2991.970589276523
 21
3154.494269174477
 31
0.0
  0
LINE
  5
18D49
330
18C7A
100
AcDbEntity
  8
部品1
100
AcDbLine
 10
2151.970589276519
 20
3182.494269174477
 30
0.0
 11
2151.970589276523
 21
3154.494269174477
 31
0.0
  0
LINE
  5
18D4A
330
18C7A
100
AcDbEntity
  8
部品1
100
AcDbLine
 10
1731.970589276519
 20
3182.494269174477
 30
0.0
 11
1731.970589276523
 21
3154.494269174477
 31
0.0
  0
LINE
  5
18D4B
330
18C7A
100
AcDbEntity
  8
部品1
100
AcDbLine
 10
1311.970589276519
 20
3182.494269174477
 30
0.0
 11
1311.970589276523
 21
3154.494269174477
 31
0.0
  0
LINE
  5
18D4C
330
18C7A
100
AcDbEntity
  8
部品1
100
AcDbLine
 10
891.9705892765195
 20
3182.494269174477
 30
0.0
 11
891.9705892765232
 21
3154.494269174477
 31
0.0
  0
LINE
  5
18D4D
330
18C7A
100
AcDbEntity
  8
部品1
100
AcDbLine
 10
471.9705892765232
 20
1392.494269174596
 30
0.0
 11
471.9705892765232
 21
1420.494269174596
 31
0.0
  0
LINE
  5
18D4E
330
18C7A
100
AcDbEntity
  8
部品1
100
AcDbLine
 10
444.9705892765305
 20
1420.494269174558
 30
0.0
 11
3858.970589276556
 21
1420.494269174596
 31
0.0
  0
LINE
  5
18D4F
330
18C7A
100
AcDbEntity
  8
部品1
100
AcDbLine
 10
3831.970589276556
 20
1392.494269174596
 30
0.0
 11
3831.970589276556
 21
1420.494269174596
 31
0.0
  0
LINE
  5
18D50
330
18C7A
100
AcDbEntity
  8
部品1
100
AcDbLine
 10
3858.970589276556
 20
1447.494269174593
 30
0.0
 11
3886.970589276556
 21
1447.494269174593
 31
0.0
  0
LINE
  5
18D51
330
18C7A
100
AcDbEntity
  8
部品1
100
AcDbLine
 10
3858.970589276556
 20
1867.494269174607
 30
0.0
 11
3886.970589276556
 21
1867.494269174607
 31
0.0
  0
LINE
  5
18D52
330
18C7A
100
AcDbEntity
  8
部品1
100
AcDbLine
 10
444.9705892765305
 20
1867.49426917448
 30
0.0
 11
416.9705892765305
 21
1867.49426917448
 31
0.0
  0
LINE
  5
18D53
330
18C7A
100
AcDbEntity
  8
部品1
100
AcDbLine
 10
3830.470589276541
 20
1867.49426917458
 30
0.0
 11
473.4705892765396
 21
1867.49426917448
 31
0.0
  0
LINE
  5
18D54
330
18C7A
100
AcDbEntity
  8
部品1
100
AcDbLine
 10
3830.470589276541
 20
2287.49426917458
 30
0.0
 11
473.4705892765396
 21
2287.49426917448
 31
0.0
  0
LINE
  5
18D55
330
18C7A
100
AcDbEntity
  8
部品1
100
AcDbLine
 10
444.9705892765305
 20
2287.49426917448
 30
0.0
 11
416.9705892765305
 21
2287.49426917448
 31
0.0
  0
LINE
  5
18D56
330
18C7A
100
AcDbEntity
  8
部品1
100
AcDbLine
 10
3858.970589276556
 20
2287.494269174608
 30
0.0
 11
3886.970589276556
 21
2287.494269174608
 31
0.0
  0
LINE
  5
18D57
330
18C7A
100
AcDbEntity
  8
部品1
 48
50.0
100
AcDbLine
 10
2151.970589276551
 20
2702.494269174586
 30
0.0
 11
2151.970589276581
 21
1448.994269174494
 31
0.0
  0
LINE
  5
18D58
330
18C7A
100
AcDbEntity
  8
破線
 48
10.0
100
AcDbLine
 10
2959.470589276535
 20
1472.494269174522
 30
0.0
 11
2176.970589276532
 21
1472.494269174505
 31
0.0
  0
LINE
  5
18D59
330
18C7A
100
AcDbEntity
  8
破線
 48
10.0
100
AcDbLine
 10
3009.47058927653
 20
1448.994269174509
 30
0.0
 11
3009.47058927653
 21
2702.494269174615
 31
0.0
  0
LINE
  5
18D5A
330
18C7A
100
AcDbEntity
  8
破線
 48
10.0
100
AcDbLine
 10
2959.470589276535
 20
1448.994269174505
 30
0.0
 11
2959.470589276531
 21
2702.494269174615
 31
0.0
  0
LINE
  5
18D5B
330
18C7A
100
AcDbEntity
  8
破線
 48
10.0
100
AcDbLine
 10
1344.47058927653
 20
1448.994269174509
 30
0.0
 11
1344.47058927653
 21
2702.494269174615
 31
0.0
  0
LINE
  5
18D5C
330
18C7A
100
AcDbEntity
  8
破線
 48
10.0
100
AcDbLine
 10
1294.470589276534
 20
1448.994269174505
 30
0.0
 11
1294.47058927653
 21
2702.494269174615
 31
0.0
  0
DIMENSION
  5
18D5D
330
18C7A
100
AcDbEntity
  8
寸法
100
AcDbDimension
  2
*D13
 10
1451.234916278005
 20
2488.887829538828
 30
0.0
 11
916.0604668248634
 21
2488.887829538828
 31
0.0
 12
-3742.925985830444
 22
-6453.628869860112
 32
0.0
 70
   128
 71
     5
 42
1062.99999999993
  3
INABA_S40G
100
AcDbAlignedDimension
 13
445.4705892765559
 23
2702.494269174505
 33
0.0
 14
1508.470589276486
 24
2702.494269174558
 34
0.0
100
AcDbRotatedDimension
1001
ACAD
1000
DSTYLE
1002
{
1002
}
  0
LINE
  5
18D5E
330
18C7A
100
AcDbEntity
  8
破線
 48
10.0
100
AcDbLine
 10
1294.470589276534
 20
1472.494269174469
 30
0.0
 11
496.9705892765414
 21
1472.494269174476
 31
0.0
  0
LINE
  5
18D5F
330
18C7A
100
AcDbEntity
  8
部品1
100
AcDbLine
 10
3831.970589276556
 20
3182.494269174604
 30
0.0
 11
3831.970589276556
 21
3154.494269174604
 31
0.0
  0
LINE
  5
18D60
330
18C7A
100
AcDbEntity
  8
部品1
100
AcDbLine
 10
3831.970589276556
 20
3182.494269174626
 30
0.0
 11
3831.970589276556
 21
3154.494269174626
 31
0.0
  0
LINE
  5
18D61
330
18C7A
100
AcDbEntity
  8
部品1
100
AcDbLine
 10
3858.970589276556
 20
3127.494269174607
 30
0.0
 11
3886.970589276556
 21
3127.494269174607
 31
0.0
  0
LINE
  5
18D62
330
18C7A
100
AcDbEntity
  8
部品1
100
AcDbLine
 10
3858.970589276556
 20
2707.494269174608
 30
0.0
 11
3886.970589276556
 21
2707.494269174608
 31
0.0
  0
LINE
  5
18D63
330
18C7A
100
AcDbEntity
  8
部品1
100
AcDbLine
 10
3858.470589276556
 20
3152.494269174604
 30
0.0
 11
3858.470589276556
 21
2702.494269174608
 31
0.0
  0
LINE
  5
18D64
330
18C7A
100
AcDbEntity
  8
部品1
100
AcDbLine
 10
3886.970589276533
 20
1447.494269174593
 30
0.0
 11
3886.970589276531
 21
1392.494269174596
 31
0.0
  0
LINE
  5
18D65
330
18C7A
100
AcDbEntity
  8
部品1
 48
50.0
100
AcDbLine
 10
3830.470589276556
 20
1448.994269174596
 30
0.0
 11
3858.970589276554
 21
1420.494269174596
 31
0.0
  0
LINE
  5
18D66
330
18C7A
100
AcDbEntity
  8
部品1
100
AcDbLine
 10
3886.970589276531
 20
1392.494269174596
 30
0.0
 11
3835.970589276531
 21
1392.494269174596
 31
0.0
  0
LINE
  5
18D67
330
18C7A
100
AcDbEntity
  8
部品1
100
AcDbLine
 10
3858.970589276533
 20
1447.494269174593
 30
0.0
 11
3886.970589276531
 21
1447.494269174593
 31
0.0
  0
LINE
  5
18D68
330
18C7A
100
AcDbEntity
  8
部品1
100
AcDbLine
 10
3886.970589276556
 20
3182.494269174604
 30
0.0
 11
3886.970589276531
 21
1392.494269174596
 31
0.0
  0
DIMENSION
  5
18D69
330
18C7A
100
AcDbEntity
  8
寸法
100
AcDbDimension
  2
*D12
 10
4534.396935010967
 20
1447.494269174593
 30
0.0
 11
4534.396935010965
 21
2287.4942691746
 31
0.0
 12
-3742.925985830444
 22
-6453.628869860112
 32
0.0
 70
   128
  1
4X420=<>
 71
     5
 42
1680.000000000014
  3
INABA_S40G
100
AcDbAlignedDimension
 13
3886.970589276556
 23
3127.494269174607
 33
0.0
 14
3886.970589276531
 24
1447.494269174593
 34
0.0
 50
90.0
100
AcDbRotatedDimension
1001
ACAD
1000
DSTYLE
1002
{
1002
}
  0
LINE
  5
18D6A
330
18C7A
100
AcDbEntity
  8
部品1
100
AcDbLine
 10
3858.970589276556
 20
3154.494269174604
 30
0.0
 11
3858.970589276534
 21
1420.494269174596
 31
0.0
  0
DIMENSION
  5
18D6B
330
18C7A
100
AcDbEntity
  8
寸法
100
AcDbDimension
  2
*D11
 10
4213.82831513858
 20
2607.276453505718
 30
0.0
 11
4113.828315138579
 21
2832.276453505718
 31
0.0
 12
-3742.925985830444
 22
-6453.628869860112
 32
0.0
 71
     5
 42
449.9999999999963
  3
INABA_S40G
100
AcDbAlignedDimension
 13
3858.470589276556
 23
3152.494269174604
 33
0.0
 14
3858.470589276556
 24
2702.494269174608
 34
0.0
 50
90.0
100
AcDbRotatedDimension
1001
ACAD
1000
DSTYLE
1002
{
1002
}
  0
LINE
  5
18D6C
330
18C7A
100
AcDbEntity
  8
部品1
100
AcDbLine
 10
3830.470589276547
 20
2702.494269174608
 30
0.0
 11
3830.470589276556
 21
1448.994269174596
 31
0.0
  0
LINE
  5
18D6D
330
18C7A
100
AcDbEntity
  8
破線
 48
10.0
100
AcDbLine
 10
3806.970589276549
 20
2702.494269174608
 30
0.0
 11
3806.970589276558
 21
1472.494269174593
 31
0.0
  0
LINE
  5
18D6E
330
18C7A
100
AcDbEntity
  8
部品1
100
AcDbLine
 10
2769.470589276556
 20
3146.494269174608
 30
0.0
 11
2794.470589276556
 21
3146.494269174611
 31
0.0
  0
LINE
  5
18D6F
330
18C7A
100
AcDbEntity
  8
部品1
100
AcDbLine
 10
2810.970589276556
 20
3172.494269174611
 30
0.0
 11
2816.970589276556
 21
3172.494269174611
 31
0.0
  0
LINE
  5
18D70
330
18C7A
100
AcDbEntity
  8
部品1
100
AcDbLine
 10
2816.970589276556
 20
3172.494269174611
 30
0.0
 11
2816.970589276556
 21
3154.494269174611
 31
0.0
  0
LINE
  5
18D71
330
18C7A
100
AcDbEntity
  8
部品1
100
AcDbLine
 10
2746.970589276556
 20
3172.494269174611
 30
0.0
 11
2752.970589276556
 21
3172.494269174611
 31
0.0
  0
LINE
  5
18D72
330
18C7A
100
AcDbEntity
  8
部品1
100
AcDbLine
 10
2746.970589276556
 20
3172.494269174611
 30
0.0
 11
2746.970589276556
 21
3154.494269174611
 31
0.0
  0
LINE
  5
18D73
330
18C7A
100
AcDbEntity
  8
部品1
100
AcDbLine
 10
2769.470589276556
 20
2702.494269174615
 30
0.0
 11
2794.470589276556
 21
2702.494269174615
 31
0.0
  0
LINE
  5
18D74
330
18C7A
100
AcDbEntity
  8
部品1
 48
50.0
100
AcDbLine
 10
2794.470589276556
 20
3154.494269174615
 30
0.0
 11
2794.470589276556
 21
2702.494269174615
 31
0.0
  0
LINE
  5
18D75
330
18C7A
100
AcDbEntity
  8
部品1
 48
50.0
100
AcDbLine
 10
2769.470589276554
 20
3154.494269174618
 30
0.0
 11
2769.470589276556
 21
2702.494269174615
 31
0.0
  0
LINE
  5
18D76
330
18C7A
100
AcDbEntity
  8
部品1
 48
50.0
100
AcDbLine
 10
2795.470589276556
 20
3152.494269174607
 30
0.0
 11
2795.470589276556
 21
2702.494269174615
 31
0.0
  0
LINE
  5
18D77
330
18C7A
100
AcDbEntity
  8
部品1
 48
50.0
100
AcDbLine
 10
2767.470589276556
 20
3152.494269174611
 30
0.0
 11
2767.470589276556
 21
2702.494269174615
 31
0.0
  0
LINE
  5
18D78
330
18C7A
100
AcDbEntity
  8
破線
 48
10.0
100
AcDbLine
 10
2176.97058927653
 20
1448.994269174509
 30
0.0
 11
2176.97058927653
 21
2702.494269174588
 31
0.0
  0
LINE
  5
18D79
330
18C7A
100
AcDbEntity
  8
破線
 48
10.0
100
AcDbLine
 10
2126.970589276534
 20
1448.994269174505
 30
0.0
 11
2126.970589276531
 21
2702.494269174586
 31
0.0
  0
LINE
  5
18D7A
330
18C7A
100
AcDbEntity
  8
部品1
100
AcDbLine
 10
2794.470589276556
 20
3154.494269174622
 30
0.0
 11
3858.970589276556
 21
3154.494269174604
 31
0.0
  0
LINE
  5
18D7B
330
18C7A
100
AcDbEntity
  8
細線
 48
50.0
100
AcDbLine
 10
3858.470589276556
 20
2702.494269174608
 30
0.0
 11
2795.470589276556
 21
3152.494269174607
 31
0.0
  0
LINE
  5
18D7C
330
18C7A
100
AcDbEntity
  8
部品1
100
AcDbLine
 10
2795.470589276555
 20
2702.494269174615
 30
0.0
 11
3858.470589276556
 21
2702.494269174608
 31
0.0
  0
LINE
  5
18D7D
330
18C7A
100
AcDbEntity
  8
部品1
100
AcDbLine
 10
2795.470589276556
 20
3152.494269174611
 30
0.0
 11
3858.470589276556
 21
3152.494269174604
 31
0.0
  0
LINE
  5
18D7E
330
18C7A
100
AcDbEntity
  8
細線
 48
50.0
100
AcDbLine
 10
3858.470589276556
 20
3152.494269174604
 30
0.0
 11
2795.470589276555
 21
2702.494269174615
 31
0.0
  0
DIMENSION
  5
18D7F
330
18C7A
100
AcDbEntity
  8
寸法
100
AcDbDimension
  2
*D10
 10
3801.234916278101
 20
2488.887829538937
 30
0.0
 11
3318.360544398907
 21
2488.887829538937
 31
0.0
 12
-3742.925985830444
 22
-6453.628869860112
 32
0.0
 70
   128
 71
     5
 42
1063.000000000012
  3
INABA_S40G
100
AcDbAlignedDimension
 13
2795.470589276555
 23
2702.494269174615
 33
0.0
 14
3858.470589276567
 24
2702.494269174608
 34
0.0
100
AcDbRotatedDimension
1001
ACAD
1000
DSTYLE
1002
{
1002
}
  0
LINE
  5
18D80
330
18C7A
100
AcDbEntity
  8
破線
 48
10.0
100
AcDbLine
 10
3806.970589276556
 20
1472.494269174594
 30
0.0
 11
3009.47058927653
 21
1472.494269174523
 31
0.0
  0
DIMENSION
  5
18D81
330
18C7A
100
AcDbEntity
  8
寸法
100
AcDbDimension
  2
*D9
 10
4534.396935010941
 20
1392.494269174596
 30
0.0
 11
4534.39693501094
 21
1084.008987800356
 31
0.0
 12
-3742.925985830444
 22
-6453.628869860112
 32
0.0
 70
   128
 71
     5
 42
54.99999999999636
  3
INABA_S40G
100
AcDbAlignedDimension
 13
3886.970589276531
 23
1447.494269174593
 33
0.0
 14
3886.970589276531
 24
1392.494269174596
 34
0.0
 50
90.0
100
AcDbRotatedDimension
1001
ACAD
1000
DSTYLE
1002
{
1002
}
  0
LINE
  5
18D82
330
18C7A
100
AcDbEntity
  8
部品1
100
AcDbLine
 10
471.9705892765196
 20
3182.494269174477
 30
0.0
 11
471.9705892765232
 21
3154.494269174477
 31
0.0
  0
LINE
  5
18D83
330
18C7A
100
AcDbEntity
  8
部品1
100
AcDbLine
 10
471.9705892765559
 20
3182.494269174509
 30
0.0
 11
471.9705892765559
 21
3154.494269174509
 31
0.0
  0
LINE
  5
18D84
330
18C7A
100
AcDbEntity
  8
部品1
100
AcDbLine
 10
444.9705892765232
 20
3127.49426917448
 30
0.0
 11
416.9705892765232
 21
3127.49426917448
 31
0.0
  0
LINE
  5
18D85
330
18C7A
100
AcDbEntity
  8
部品1
100
AcDbLine
 10
444.9705892765305
 20
2707.49426917448
 30
0.0
 11
416.9705892765305
 21
2707.49426917448
 31
0.0
  0
LINE
  5
18D86
330
18C7A
100
AcDbEntity
  8
部品1
 48
50.0
100
AcDbLine
 10
445.4705892765542
 20
3152.494269174506
 30
0.0
 11
445.4705892765559
 21
2702.494269174505
 31
0.0
  0
LINE
  5
18D87
330
18C7A
100
AcDbEntity
  8
部品1
 48
50.0
100
AcDbLine
 10
473.470589276545
 20
1448.994269174573
 30
0.0
 11
444.970589276545
 21
1420.494269174574
 31
0.0
  0
LINE
  5
18D88
330
18C7A
100
AcDbEntity
  8
部品1
100
AcDbLine
 10
471.9705892765232
 20
1392.494269174465
 30
0.0
 11
416.9705892765486
 21
1392.494269174465
 31
0.0
  0
LINE
  5
18D89
330
18C7A
100
AcDbEntity
  8
部品1
100
AcDbLine
 10
444.9705892765305
 20
1447.494269174429
 30
0.0
 11
416.9705892765469
 21
1447.494269174429
 31
0.0
  0
LINE
  5
18D8A
330
18C7A
100
AcDbEntity
  8
部品1
100
AcDbLine
 10
444.9705892765305
 20
1447.494269174465
 30
0.0
 11
416.9705892765469
 21
1447.494269174465
 31
0.0
  0
LINE
  5
18D8B
330
18C7A
100
AcDbEntity
  8
部品1
100
AcDbLine
 10
444.9705892765469
 20
1447.49426917448
 30
0.0
 11
416.9705892765469
 21
1447.49426917448
 31
0.0
  0
LINE
  5
18D8C
330
18C7A
100
AcDbEntity
  8
部品1
100
AcDbLine
 10
416.9705892765469
 20
1447.494269174429
 30
0.0
 11
416.9705892765486
 21
1392.494269174433
 31
0.0
  0
LINE
  5
18D8D
330
18C7A
100
AcDbEntity
  8
部品1
100
AcDbLine
 10
416.9705892765196
 20
3182.494269174477
 30
0.0
 11
416.9705892765486
 21
1392.494269174465
 31
0.0
  0
LINE
  5
18D8E
330
18C7A
100
AcDbEntity
  8
部品1
100
AcDbLine
 10
444.9705892765305
 20
1420.494269174556
 30
0.0
 11
444.9705892765559
 21
3154.494269174509
 31
0.0
  0
LINE
  5
18D8F
330
18C7A
100
AcDbEntity
  8
部品1
100
AcDbLine
 10
473.4705892765323
 20
2702.494269174608
 30
0.0
 11
473.470589276545
 21
1448.994269174571
 31
0.0
  0
LINE
  5
18D90
330
18C7A
100
AcDbEntity
  8
破線
 48
10.0
100
AcDbLine
 10
496.9705892765305
 20
2702.494269174608
 30
0.0
 11
496.9705892765451
 21
1472.494269174476
 31
0.0
  0
DIMENSION
  5
18D91
330
18C7A
100
AcDbEntity
  8
寸法
100
AcDbDimension
  2
*D8
 10
3886.970589276531
 20
410.7433333855515
 30
0.0
 11
2168.197775309287
 21
410.7433333855515
 31
0.0
 12
-3742.925985830444
 22
-6453.628869860112
 32
0.0
 70
   128
 71
     5
 42
3469.999999999982
  3
INABA_S40G
100
AcDbAlignedDimension
 13
416.9705892765486
 23
1392.494269174433
 33
0.0
 14
3886.970589276531
 24
1392.49426917456
 34
0.0
100
AcDbRotatedDimension
1001
ACAD
1000
DSTYLE
1002
{
1070
   341
1005
0
1002
}
  0
LINE
  5
18D92
330
18C7A
100
AcDbEntity
  8
部品1
100
AcDbLine
 10
444.9705892765559
 20
3154.494269174624
 30
0.0
 11
1509.470589276487
 21
3154.494269174626
 31
0.0
  0
LINE
  5
18D93
330
18C7A
100
AcDbEntity
  8
部品1
100
AcDbLine
 10
3886.970589276531
 20
1392.494269174596
 30
0.0
 11
3411.970589276556
 21
1392.494269174582
 31
0.0
  0
LINE
  5
18D94
330
18C7A
100
AcDbEntity
  8
部品1
100
AcDbLine
 10
416.9705892765559
 20
3182.494269174509
 30
0.0
 11
3886.970589276556
 21
3182.494269174604
 31
0.0
  0
LINE
  5
18D95
330
18C7A
100
AcDbEntity
  8
部品1
100
AcDbLine
 10
445.4705892765559
 20
2702.494269174509
 30
0.0
 11
1508.470589276487
 21
2702.494269174558
 31
0.0
  0
LINE
  5
18D96
330
18C7A
100
AcDbEntity
  8
細線
 48
50.0
100
AcDbLine
 10
2767.470589276556
 20
3152.494269174611
 30
0.0
 11
1536.470589276487
 21
2702.494269174558
 31
0.0
  0
LINE
  5
18D97
330
18C7A
100
AcDbEntity
  8
部品1
100
AcDbLine
 10
445.4705892765542
 20
3152.494269174509
 30
0.0
 11
1508.470589276485
 21
3152.494269174558
 31
0.0
  0
LINE
  5
18D98
330
18C7A
100
AcDbEntity
  8
細線
 48
50.0
100
AcDbLine
 10
2767.470589276554
 20
2702.494269174615
 30
0.0
 11
1536.470589276485
 21
3152.494269174558
 31
0.0
  0
LINE
  5
18D99
330
18C7A
100
AcDbEntity
  8
破線
 48
10.0
100
AcDbLine
 10
2126.970589276534
 20
1472.494269174502
 30
0.0
 11
1344.47058927653
 21
1472.494269174473
 31
0.0
  0
LINE
  5
18D9A
330
18C7A
100
AcDbEntity
  8
部品1
100
AcDbLine
 10
3830.470589276556
 20
1448.994269174596
 30
0.0
 11
473.4705892764487
 21
1448.994269174476
 31
0.0
  0
DIMENSION
  5
18D9B
330
18C7A
100
AcDbEntity
  8
寸法
100
AcDbDimension
  2
*D7
 10
471.970589276555
 20
3698.302488799491
 30
0.0
 11
108.4853079022819
 21
3698.302488799491
 31
0.0
 12
-3742.925985830444
 22
-6453.628869860112
 32
0.0
 70
   128
 71
     5
 42
55.00000000003456
  3
INABA_S40G
100
AcDbAlignedDimension
 13
416.9705892765205
 23
3182.494269174509
 33
0.0
 14
471.970589276555
 24
3182.494269174509
 34
0.0
100
AcDbRotatedDimension
1001
ACAD
1000
DSTYLE
1002
{
1002
}
  0
DIMENSION
  5
18D9C
330
18C7A
100
AcDbEntity
  8
寸法
100
AcDbDimension
  2
*D6
 10
4534.396935010967
 20
3127.494269174607
 30
0.0
 11
4534.396935010965
 21
3490.979550548844
 31
0.0
 12
-3742.925985830444
 22
-6453.628869860112
 32
0.0
 70
   128
 71
     5
 42
54.99999999999636
  3
INABA_S40G
100
AcDbAlignedDimension
 13
3886.970589276556
 23
3182.494269174604
 33
0.0
 14
3886.970589276556
 24
3127.494269174607
 34
0.0
 50
90.0
100
AcDbRotatedDimension
1001
ACAD
1000
DSTYLE
1002
{
1002
}
  0
DIMENSION
  5
18D9D
330
18C7A
100
AcDbEntity
  8
寸法
100
AcDbDimension
  2
*D5
 10
3886.970589276556
 20
3698.302488799589
 30
0.0
 11
4195.455870650794
 21
3698.302488799589
 31
0.0
 12
-3742.925985830444
 22
-6453.628869860112
 32
0.0
 70
   128
 71
     5
 42
55.0
  3
INABA_S40G
100
AcDbAlignedDimension
 13
3831.970589276556
 23
3182.494269174604
 33
0.0
 14
3886.970589276556
 24
3182.494269174604
 34
0.0
100
AcDbRotatedDimension
1001
ACAD
1000
DSTYLE
1002
{
1002
}
  0
DIMENSION
  5
18D9E
330
18C7A
100
AcDbEntity
  8
寸法
100
AcDbDimension
  2
*D4
 10
3831.970589276556
 20
3698.302488799607
 30
0.0
 11
2151.970589276555
 21
3698.302488799607
 31
0.0
 12
-3742.925985830444
 22
-6453.628869860112
 32
0.0
 70
   128
  1
8X420=<>
 71
     5
 42
3360.000000000001
  3
INABA_S40G
100
AcDbAlignedDimension
 13
471.970589276555
 23
3182.494269174509
 33
0.0
 14
3831.970589276556
 24
3182.494269174604
 34
0.0
100
AcDbRotatedDimension
1001
ACAD
1000
DSTYLE
1002
{
1002
}
  0
DIMENSION
  5
18D9F
330
18C7A
100
AcDbEntity
  8
寸法
100
AcDbDimension
  2
*D3
 10
4899.503876750603
 20
1392.494269174596
 30
0.0
 11
4899.503876750601
 21
2287.4942691746
 31
0.0
 12
-3742.925985830444
 22
-6453.628869860112
 32
0.0
 70
   128
 71
     5
 42
1790.000000000007
  3
INABA_S40G
100
AcDbAlignedDimension
 13
3886.970589276556
 23
3182.494269174604
 33
0.0
 14
3886.970589276531
 24
1392.494269174596
 34
0.0
 50
90.0
100
AcDbRotatedDimension
1001
ACAD
1000
DSTYLE
1002
{
1002
}
  0
ENDBLK
  5
18DA1
330
18C7A
100
AcDbEntity
  8
0
 48
50.0
100
AcDbBlockEnd
  0
BLOCK
  5
1C4CB
330
1C4CA
100
AcDbEntity
  8
0
 48
50.0
100
AcDbBlockBegin
  2
_NONE
 70
     0
 10
0.0
 20
0.0
 30
0.0
  3
_NONE
  1

  0
CIRCLE
  5
1C4CC
330
1C4CA
100
AcDbEntity
  8
0
  6
ByBlock
 62
     0
 48
50.0
100
AcDbCircle
 10
0.0
 20
0.0
 30
0.0
 40
0.25
  0
ENDBLK
  5
1C4CD
330
1C4CA
100
AcDbEntity
  8
0
 48
50.0
100
AcDbBlockEnd
  0
BLOCK
  5
20DEE
330
20DE2
100
AcDbEntity
  8
0
 48
50.0
100
AcDbBlockBegin
  2
*D19
 70
     1
 10
0.0
 20
0.0
 30
0.0
  3
*D19
  1

  0
LINE
  5
25F4D
330
20DE2
100
AcDbEntity
  8
寸法
 62
     0
 48
50.0
370
    -2
100
AcDbLine
 10
11508.6
 20
7091.138774895419
 30
0.0
 11
11508.6
 21
8089.359096954341
 31
0.0
  0
LINE
  5
25F4E
330
20DE2
100
AcDbEntity
  8
寸法
 62
     0
 48
50.0
370
    -2
100
AcDbLine
 10
11553.6
 20
7817.405232989329
 30
0.0
 11
11553.6
 21
8089.359096954341
 31
0.0
  0
LINE
  5
25F4F
330
20DE2
100
AcDbEntity
  8
寸法
 62
     0
 48
50.0
370
    -2
100
AcDbLine
 10
11508.6
 20
8029.359096954342
 30
0.0
 11
11408.6
 21
8029.359096954342
 31
0.0
  0
LINE
  5
25F50
330
20DE2
100
AcDbEntity
  8
寸法
 62
     0
 48
50.0
370
    -2
100
AcDbLine
 10
11553.6
 20
8029.359096954342
 30
0.0
 11
11890.94924240491
 21
8029.359096954342
 31
0.0
  0
LINE
  5
25F51
330
20DE2
100
AcDbEntity
  8
寸法
 62
     0
 48
50.0
370
    -2
100
AcDbLine
 10
11508.6
 20
8029.359096954342
 30
0.0
 11
11553.6
 21
8029.359096954342
 31
0.0
  0
INSERT
  5
25F52
330
20DE2
100
AcDbEntity
  8
寸法
 62
     0
 48
50.0
370
    -2
100
AcDbBlockReference
  2
_DOTSMALL
 10
11508.6
 20
8029.359096954342
 30
0.0
 41
100.0
 42
100.0
 43
100.0
  0
INSERT
  5
25F53
330
20DE2
100
AcDbEntity
  8
寸法
 62
     0
 48
50.0
370
    -2
100
AcDbBlockReference
  2
_DOTSMALL
 10
11553.6
 20
8029.359096954342
 30
0.0
 41
100.0
 42
100.0
 43
100.0
 50
180.0
  0
MTEXT
  5
25F54
330
20DE2
100
AcDbEntity
  8
寸法
 62
     7
 48
50.0
100
AcDbMText
 10
11824.77462120245
 20
8129.359096954342
 30
0.0
 40
120.0
 41
0.0
 71
     5
 72
     1
  1
\A1;a
  7
STYLE1
 73
     1
 44
1.0
1001
ACAD
1000
MTEXTBEGIN
1070
    73
1070
     1
1070
    44
1040
1.0
1070
    74
1070
     0
1000
MTEXTEND
  0
POINT
  5
25F55
330
20DE2
100
AcDbEntity
  8
DEFPOINTS
 62
     0
 48
50.0
100
AcDbPoint
 10
11508.6
 20
7071.13877489542
 30
0.0
  0
POINT
  5
25F56
330
20DE2
100
AcDbEntity
  8
DEFPOINTS
 62
     0
 48
50.0
100
AcDbPoint
 10
11553.6
 20
7797.40523298933
 30
0.0
  0
POINT
  5
25F57
330
20DE2
100
AcDbEntity
  8
DEFPOINTS
 62
     0
 48
50.0
100
AcDbPoint
 10
11553.6
 20
8029.359096954342
 30
0.0
  0
ENDBLK
  5
20DEF
330
20DE2
100
AcDbEntity
  8
0
 48
50.0
100
AcDbBlockEnd
  0
BLOCK
  5
20E08
330
20DFC
100
AcDbEntity
  8
0
 48
50.0
100
AcDbBlockBegin
  2
*D20
 70
     1
 10
0.0
 20
0.0
 30
0.0
  3
*D20
  1

  0
LINE
  5
25F42
330
20DFC
100
AcDbEntity
  8
寸法
 62
     0
 48
50.0
370
    -2
100
AcDbLine
 10
4893.600000000004
 20
7817.405232989333
 30
0.0
 11
4893.600000000004
 21
8089.359096954341
 31
0.0
  0
LINE
  5
25F43
330
20DFC
100
AcDbEntity
  8
寸法
 62
     0
 48
50.0
370
    -2
100
AcDbLine
 10
4938.6
 20
7091.138774895419
 30
0.0
 11
4938.6
 21
8089.359096954341
 31
0.0
  0
LINE
  5
25F44
330
20DFC
100
AcDbEntity
  8
寸法
 62
     0
 48
50.0
370
    -2
100
AcDbLine
 10
4938.6
 20
8029.359096954342
 30
0.0
 11
5038.6
 21
8029.359096954342
 31
0.0
  0
LINE
  5
25F45
330
20DFC
100
AcDbEntity
  8
寸法
 62
     0
 48
50.0
370
    -2
100
AcDbLine
 10
4893.600000000004
 20
8029.359096954342
 30
0.0
 11
4556.250757595083
 21
8029.359096954342
 31
0.0
  0
LINE
  5
25F46
330
20DFC
100
AcDbEntity
  8
寸法
 62
     0
 48
50.0
370
    -2
100
AcDbLine
 10
4938.6
 20
8029.359096954342
 30
0.0
 11
4893.600000000004
 21
8029.359096954342
 31
0.0
  0
INSERT
  5
25F47
330
20DFC
100
AcDbEntity
  8
寸法
 62
     0
 48
50.0
370
    -2
100
AcDbBlockReference
  2
_DOTSMALL
 10
4938.6
 20
8029.359096954342
 30
0.0
 41
100.0
 42
100.0
 43
100.0
 50
180.0
  0
INSERT
  5
25F48
330
20DFC
100
AcDbEntity
  8
寸法
 62
     0
 48
50.0
370
    -2
100
AcDbBlockReference
  2
_DOTSMALL
 10
4893.600000000004
 20
8029.359096954342
 30
0.0
 41
100.0
 42
100.0
 43
100.0
  0
MTEXT
  5
25F49
330
20DFC
100
AcDbEntity
  8
寸法
 62
     7
 48
50.0
100
AcDbMText
 10
4622.425378797541
 20
8129.359096954342
 30
0.0
 40
120.0
 41
0.0
 71
     5
 72
     1
  1
\A1;a
  7
STYLE1
 73
     1
 44
1.0
1001
ACAD
1000
MTEXTBEGIN
1070
    73
1070
     1
1070
    44
1040
1.0
1070
    74
1070
     0
1000
MTEXTEND
  0
POINT
  5
25F4A
330
20DFC
100
AcDbEntity
  8
DEFPOINTS
 62
     0
 48
50.0
100
AcDbPoint
 10
4893.600000000004
 20
7797.405232989333
 30
0.0
  0
POINT
  5
25F4B
330
20DFC
100
AcDbEntity
  8
DEFPOINTS
 62
     0
 48
50.0
100
AcDbPoint
 10
4938.6
 20
7071.13877489542
 30
0.0
  0
POINT
  5
25F4C
330
20DFC
100
AcDbEntity
  8
DEFPOINTS
 62
     0
 48
50.0
100
AcDbPoint
 10
4938.6
 20
8029.359096954342
 30
0.0
  0
ENDBLK
  5
20E09
330
20DFC
100
AcDbEntity
  8
0
 48
50.0
100
AcDbBlockEnd
  0
BLOCK
  5
2274E
330
22742
100
AcDbEntity
  8
0
 48
50.0
100
AcDbBlockBegin
  2
*D21
 70
     1
 10
0.0
 20
0.0
 30
0.0
  3
*D21
  1

  0
LINE
  5
25F37
330
22742
100
AcDbEntity
  8
寸法
 62
     0
 48
50.0
370
    -2
100
AcDbLine
 10
4295.665006330071
 20
7146.138774895437
 30
0.0
 11
4003.721909610673
 21
7146.138774895437
 31
0.0
  0
LINE
  5
25F38
330
22742
100
AcDbEntity
  8
寸法
 62
     0
 48
50.0
370
    -2
100
AcDbLine
 10
4785.156977762462
 20
7071.138774895432
 30
0.0
 11
4003.721909610673
 21
7071.138774895432
 31
0.0
  0
LINE
  5
25F39
330
22742
100
AcDbEntity
  8
寸法
 62
     0
 48
50.0
370
    -2
100
AcDbLine
 10
4063.721909610673
 20
7146.138774895437
 30
0.0
 11
4063.721909610673
 21
7246.138774895436
 31
0.0
  0
LINE
  5
25F3A
330
22742
100
AcDbEntity
  8
寸法
 62
     0
 48
50.0
370
    -2
100
AcDbLine
 10
4063.721909610673
 20
7071.138774895432
 30
0.0
 11
4063.721909610673
 21
6971.138774895432
 31
0.0
  0
LINE
  5
25F3B
330
22742
100
AcDbEntity
  8
寸法
 62
     0
 48
50.0
370
    -2
100
AcDbLine
 10
4063.721909610673
 20
7146.138774895437
 30
0.0
 11
4063.721909610673
 21
7071.138774895432
 31
0.0
  0
INSERT
  5
25F3C
330
22742
100
AcDbEntity
  8
寸法
 62
     0
 48
50.0
370
    -2
100
AcDbBlockReference
  2
_DOTSMALL
 10
4063.721909610673
 20
7146.138774895437
 30
0.0
 41
100.0
 42
100.0
 43
100.0
 50
270.0
  0
INSERT
  5
25F3D
330
22742
100
AcDbEntity
  8
寸法
 62
     0
 48
50.0
370
    -2
100
AcDbBlockReference
  2
_DOTSMALL
 10
4063.721909610673
 20
7071.138774895432
 30
0.0
 41
100.0
 42
100.0
 43
100.0
 50
90.0
  0
MTEXT
  5
25F3E
330
22742
100
AcDbEntity
  8
寸法
 62
     7
 48
50.0
100
AcDbMText
 10
3963.721909610672
 20
7108.638774895435
 30
0.0
 40
120.0
 41
0.0
 71
     5
 72
     1
  1
\A1;c
  7
STYLE1
 11
0.0000000000000001
 21
1.0
 31
0.0
 73
     1
 44
1.0
1001
ACAD
1000
MTEXTBEGIN
1070
    73
1070
     1
1070
    44
1040
1.0
1070
    74
1070
     0
1000
MTEXTEND
  0
POINT
  5
25F3F
330
22742
100
AcDbEntity
  8
DEFPOINTS
 62
     0
 48
50.0
100
AcDbPoint
 10
4315.665006330071
 20
7146.138774895437
 30
0.0
  0
POINT
  5
25F40
330
22742
100
AcDbEntity
  8
DEFPOINTS
 62
     0
 48
50.0
100
AcDbPoint
 10
4805.156977762463
 20
7071.138774895432
 30
0.0
  0
POINT
  5
25F41
330
22742
100
AcDbEntity
  8
DEFPOINTS
 62
     0
 48
50.0
100
AcDbPoint
 10
4063.721909610673
 20
7071.138774895432
 30
0.0
  0
ENDBLK
  5
2274F
330
22742
100
AcDbEntity
  8
0
 48
50.0
100
AcDbBlockEnd
  0
BLOCK
  5
22768
330
2275C
100
AcDbEntity
  8
0
 48
50.0
100
AcDbBlockBegin
  2
*D22
 70
     1
 10
0.0
 20
0.0
 30
0.0
  3
*D22
  1

  0
LINE
  5
25F2C
330
2275C
100
AcDbEntity
  8
寸法
 62
     0
 48
50.0
370
    -2
100
AcDbLine
 10
4791.607272343894
 20
6111.138774895422
 30
0.0
 11
4003.721909610673
 21
6111.138774895422
 31
0.0
  0
LINE
  5
25F2D
330
2275C
100
AcDbEntity
  8
寸法
 62
     0
 48
50.0
370
    -2
100
AcDbLine
 10
4295.665006330071
 20
6056.138774895443
 30
0.0
 11
4003.721909610673
 21
6056.138774895443
 31
0.0
  0
LINE
  5
25F2E
330
2275C
100
AcDbEntity
  8
寸法
 62
     0
 48
50.0
370
    -2
100
AcDbLine
 10
4063.721909610673
 20
6111.138774895422
 30
0.0
 11
4063.721909610673
 21
6211.138774895421
 31
0.0
  0
LINE
  5
25F2F
330
2275C
100
AcDbEntity
  8
寸法
 62
     0
 48
50.0
370
    -2
100
AcDbLine
 10
4063.721909610673
 20
6056.138774895443
 30
0.0
 11
4063.721909610673
 21
5956.138774895443
 31
0.0
  0
LINE
  5
25F30
330
2275C
100
AcDbEntity
  8
寸法
 62
     0
 48
50.0
370
    -2
100
AcDbLine
 10
4063.721909610673
 20
6111.138774895422
 30
0.0
 11
4063.721909610673
 21
6056.138774895443
 31
0.0
  0
INSERT
  5
25F31
330
2275C
100
AcDbEntity
  8
寸法
 62
     0
 48
50.0
370
    -2
100
AcDbBlockReference
  2
_DOTSMALL
 10
4063.721909610673
 20
6111.138774895422
 30
0.0
 41
100.0
 42
100.0
 43
100.0
 50
270.0
  0
INSERT
  5
25F32
330
2275C
100
AcDbEntity
  8
寸法
 62
     0
 48
50.0
370
    -2
100
AcDbBlockReference
  2
_DOTSMALL
 10
4063.721909610673
 20
6056.138774895443
 30
0.0
 41
100.0
 42
100.0
 43
100.0
 50
90.0
  0
MTEXT
  5
25F33
330
2275C
100
AcDbEntity
  8
寸法
 62
     7
 48
50.0
100
AcDbMText
 10
3963.721909610672
 20
6083.638774895433
 30
0.0
 40
120.0
 41
0.0
 71
     5
 72
     1
  1
\A1;b
  7
STYLE1
 11
0.0000000000000001
 21
1.0
 31
0.0
 73
     1
 44
1.0
1001
ACAD
1000
MTEXTBEGIN
1070
    73
1070
     1
1070
    44
1040
1.0
1070
    74
1070
     0
1000
MTEXTEND
  0
POINT
  5
25F34
330
2275C
100
AcDbEntity
  8
DEFPOINTS
 62
     0
 48
50.0
100
AcDbPoint
 10
4811.607272343894
 20
6111.138774895422
 30
0.0
  0
POINT
  5
25F35
330
2275C
100
AcDbEntity
  8
DEFPOINTS
 62
     0
 48
50.0
100
AcDbPoint
 10
4315.665006330071
 20
6056.138774895443
 30
0.0
  0
POINT
  5
25F36
330
2275C
100
AcDbEntity
  8
DEFPOINTS
 62
     0
 48
50.0
100
AcDbPoint
 10
4063.721909610673
 20
6056.138774895443
 30
0.0
  0
ENDBLK
  5
22769
330
2275C
100
AcDbEntity
  8
0
 48
50.0
100
AcDbBlockEnd
  0
BLOCK
  5
22B65
330
22B5A
100
AcDbEntity
  8
0
 48
50.0
100
AcDbBlockBegin
  2
*D23
 70
     1
 10
0.0
 20
0.0
 30
0.0
  3
*D23
  1

  0
LINE
  5
25FB7
330
22B5A
100
AcDbEntity
  8
寸法
 62
     0
 48
50.0
370
    -2
100
AcDbLine
 10
11045.09540071171
 20
6391.138774895453
 30
0.0
 11
10851.82138901162
 21
6391.138774895453
 31
0.0
  0
LINE
  5
25FB8
330
22B5A
100
AcDbEntity
  8
寸法
 62
     0
 48
50.0
370
    -2
100
AcDbLine
 10
10901.41910651595
 20
6111.138774895452
 30
0.0
 11
10971.82138901162
 21
6111.138774895452
 31
0.0
  0
LINE
  5
25FB9
330
22B5A
100
AcDbEntity
  8
寸法
 62
     0
 48
50.0
370
    -2
100
AcDbLine
 10
10911.82138901162
 20
6391.138774895453
 30
0.0
 11
10911.82138901162
 21
6111.138774895452
 31
0.0
  0
LINE
  5
25FBA
330
22B5A
100
AcDbEntity
  8
寸法
 62
     0
 48
50.0
370
    -2
100
AcDbLine
 10
10911.82138901162
 20
6111.138774895452
 30
0.0
 11
10911.82138901162
 21
5674.604326076554
 31
0.0
  0
INSERT
  5
25FBB
330
22B5A
100
AcDbEntity
  8
寸法
 62
     0
 48
50.0
370
    -2
100
AcDbBlockReference
  2
_DOTSMALL
 10
10911.82138901162
 20
6391.138774895453
 30
0.0
 41
100.0
 42
100.0
 43
100.0
 50
90.0
  0
INSERT
  5
25FBC
330
22B5A
100
AcDbEntity
  8
寸法
 62
     0
 48
50.0
370
    -2
100
AcDbBlockReference
  2
_DOTSMALL
 10
10911.82138901162
 20
6111.138774895452
 30
0.0
 41
100.0
 42
100.0
 43
100.0
 50
270.0
  0
MTEXT
  5
25FBD
330
22B5A
100
AcDbEntity
  8
寸法
 62
     7
 48
50.0
100
AcDbMText
 10
10811.809577988
 20
5824.175192218287
 30
0.0
 40
120.0
 41
0.0
 71
     5
 72
     1
  1
\A1;280
  7
STYLE1
 11
0.0000000000000001
 21
1.0
 31
0.0
 73
     1
 44
1.0
1001
ACAD
1000
MTEXTBEGIN
1070
    73
1070
     1
1070
    44
1040
1.0
1070
    74
1070
     0
1000
MTEXTEND
  0
POINT
  5
25FBE
330
22B5A
100
AcDbEntity
  8
DEFPOINTS
 62
     0
 48
50.0
100
AcDbPoint
 10
11065.09540071171
 20
6391.138774895453
 30
0.0
  0
POINT
  5
25FBF
330
22B5A
100
AcDbEntity
  8
DEFPOINTS
 62
     0
 48
50.0
100
AcDbPoint
 10
10881.41910651595
 20
6111.138774895452
 30
0.0
  0
POINT
  5
25FC0
330
22B5A
100
AcDbEntity
  8
DEFPOINTS
 62
     0
 48
50.0
100
AcDbPoint
 10
10911.82138901162
 20
6111.138774895452
 30
0.0
  0
ENDBLK
  5
22B66
330
22B5A
100
AcDbEntity
  8
0
 48
50.0
100
AcDbBlockEnd
  0
BLOCK
  5
22B7F
330
22B74
100
AcDbEntity
  8
0
 48
50.0
100
AcDbBlockBegin
  2
*D24
 70
     1
 10
0.0
 20
0.0
 30
0.0
  3
*D24
  1

  0
LINE
  5
25F18
330
22B74
100
AcDbEntity
  8
寸法
 62
     0
 48
50.0
370
    -2
100
AcDbLine
 10
10925.85634570468
 20
7071.138774895423
 30
0.0
 11
10971.82138901162
 21
7071.138774895423
 31
0.0
  0
LINE
  5
25F19
330
22B74
100
AcDbEntity
  8
寸法
 62
     0
 48
50.0
370
    -2
100
AcDbLine
 10
10865.60166369304
 20
6871.138774895337
 30
0.0
 11
10971.82138901162
 21
6871.138774895337
 31
0.0
  0
LINE
  5
25F1A
330
22B74
100
AcDbEntity
  8
寸法
 62
     0
 48
50.0
370
    -2
100
AcDbLine
 10
10911.82138901162
 20
6871.138774895337
 30
0.0
 11
10911.82138901162
 21
7071.138774895423
 31
0.0
  0
LINE
  5
25F1B
330
22B74
100
AcDbEntity
  8
寸法
 62
     0
 48
50.0
370
    -2
100
AcDbLine
 10
10911.82138901162
 20
7071.138774895423
 30
0.0
 11
10911.82138901162
 21
7507.67322371432
 31
0.0
  0
INSERT
  5
25F1C
330
22B74
100
AcDbEntity
  8
寸法
 62
     0
 48
50.0
370
    -2
100
AcDbBlockReference
  2
_DOTSMALL
 10
10911.82138901162
 20
6871.138774895337
 30
0.0
 41
100.0
 42
100.0
 43
100.0
 50
270.0
  0
INSERT
  5
25F1D
330
22B74
100
AcDbEntity
  8
寸法
 62
     0
 48
50.0
370
    -2
100
AcDbBlockReference
  2
_DOTSMALL
 10
10911.82138901162
 20
7071.138774895423
 30
0.0
 41
100.0
 42
100.0
 43
100.0
 50
90.0
  0
MTEXT
  5
25F1E
330
22B74
100
AcDbEntity
  8
寸法
 62
     7
 48
50.0
100
AcDbMText
 10
10811.809577988
 20
7358.102357572589
 30
0.0
 40
120.0
 41
0.0
 71
     5
 72
     1
  1
\A1;200
  7
STYLE1
 11
0.0000000000000001
 21
1.0
 31
0.0
 73
     1
 44
1.0
1001
ACAD
1000
MTEXTBEGIN
1070
    73
1070
     1
1070
    44
1040
1.0
1070
    74
1070
     0
1000
MTEXTEND
  0
POINT
  5
25F1F
330
22B74
100
AcDbEntity
  8
DEFPOINTS
 62
     0
 48
50.0
100
AcDbPoint
 10
10905.85634570468
 20
7071.138774895423
 30
0.0
  0
POINT
  5
25F20
330
22B74
100
AcDbEntity
  8
DEFPOINTS
 62
     0
 48
50.0
100
AcDbPoint
 10
10845.60166369304
 20
6871.138774895337
 30
0.0
  0
POINT
  5
25F21
330
22B74
100
AcDbEntity
  8
DEFPOINTS
 62
     0
 48
50.0
100
AcDbPoint
 10
10911.82138901162
 20
6871.138774895337
 30
0.0
  0
ENDBLK
  5
22B80
330
22B74
100
AcDbEntity
  8
0
 48
50.0
100
AcDbBlockEnd
  0
BLOCK
  5
22BA5
330
22B9A
100
AcDbEntity
  8
0
 48
50.0
100
AcDbBlockBegin
  2
*D25
 70
     1
 10
0.0
 20
0.0
 30
0.0
  3
*D25
  1

  0
LINE
  5
25FFA
330
22B9A
100
AcDbEntity
  8
寸法
 62
     0
 48
50.0
370
    -2
100
AcDbLine
 10
11508.6
 20
6736.138774895453
 30
0.0
 11
11508.6
 21
6855.53044345066
 31
0.0
  0
LINE
  5
25FFB
330
22B9A
100
AcDbEntity
  8
寸法
 62
     0
 48
50.0
370
    -2
100
AcDbLine
 10
11388.6
 20
6736.138774895469
 30
0.0
 11
11388.6
 21
6855.53044345066
 31
0.0
  0
LINE
  5
25FFC
330
22B9A
100
AcDbEntity
  8
寸法
 62
     0
 48
50.0
370
    -2
100
AcDbLine
 10
11388.6
 20
6795.530443450658
 30
0.0
 11
11508.6
 21
6795.530443450658
 31
0.0
  0
LINE
  5
25FFD
330
22B9A
100
AcDbEntity
  8
寸法
 62
     0
 48
50.0
370
    -2
100
AcDbLine
 10
11508.6
 20
6795.530443450658
 30
0.0
 11
11914.7062992126
 21
6795.530443450658
 31
0.0
  0
INSERT
  5
25FFE
330
22B9A
100
AcDbEntity
  8
寸法
 62
     0
 48
50.0
370
    -2
100
AcDbBlockReference
  2
_DOTSMALL
 10
11388.6
 20
6795.530443450658
 30
0.0
 41
100.0
 42
100.0
 43
100.0
 50
180.0
  0
INSERT
  5
25FFF
330
22B9A
100
AcDbEntity
  8
寸法
 62
     0
 48
50.0
370
    -2
100
AcDbBlockReference
  2
_DOTSMALL
 10
11508.6
 20
6795.530443450658
 30
0.0
 41
100.0
 42
100.0
 43
100.0
  0
MTEXT
  5
26000
330
22B9A
100
AcDbEntity
  8
寸法
 62
     7
 48
50.0
100
AcDbMText
 10
11778.65905511811
 20
6895.54225447428
 30
0.0
 40
120.0
 41
0.0
 71
     5
 72
     1
  1
\A1;120
  7
STYLE1
 73
     1
 44
1.0
1001
ACAD
1000
MTEXTBEGIN
1070
    73
1070
     1
1070
    44
1040
1.0
1070
    74
1070
     0
1000
MTEXTEND
  0
POINT
  5
26001
330
22B9A
100
AcDbEntity
  8
DEFPOINTS
 62
     0
 48
50.0
100
AcDbPoint
 10
11508.6
 20
6716.138774895452
 30
0.0
  0
POINT
  5
26002
330
22B9A
100
AcDbEntity
  8
DEFPOINTS
 62
     0
 48
50.0
100
AcDbPoint
 10
11388.6
 20
6716.138774895468
 30
0.0
  0
POINT
  5
26003
330
22B9A
100
AcDbEntity
  8
DEFPOINTS
 62
     0
 48
50.0
100
AcDbPoint
 10
11388.6
 20
6795.530443450658
 30
0.0
  0
ENDBLK
  5
22BA6
330
22B9A
100
AcDbEntity
  8
0
 48
50.0
100
AcDbBlockEnd
  0
BLOCK
  5
258E0
330
258D7
100
AcDbEntity
  8
0
 48
50.0
100
AcDbBlockBegin
  2
*D26
 70
     1
 10
0.0
 20
0.0
 30
0.0
  3
*D26
  1

  0
LINE
  5
25F05
330
258D7
100
AcDbEntity
  8
寸法
 62
     0
 48
50.0
370
    -2
100
AcDbLine
 10
9043.600000000008
 20
6661.138774895423
 30
0.0
 11
9043.600000000008
 21
7613.747591565672
 31
0.0
  0
LINE
  5
25F06
330
258D7
100
AcDbEntity
  8
寸法
 62
     0
 48
50.0
370
    -2
100
AcDbLine
 10
8223.600000000008
 20
6661.138774895423
 30
0.0
 11
8223.600000000008
 21
7613.747591565672
 31
0.0
  0
LINE
  5
25F07
330
258D7
100
AcDbEntity
  8
寸法
 62
     0
 48
50.0
370
    -2
100
AcDbLine
 10
9043.600000000008
 20
7553.747591565671
 30
0.0
 11
8223.600000000008
 21
7553.747591565671
 31
0.0
  0
INSERT
  5
25F08
330
258D7
100
AcDbEntity
  8
寸法
 62
     0
 48
50.0
370
    -2
100
AcDbBlockReference
  2
_DOTSMALL
 10
9043.600000000008
 20
7553.747591565671
 30
0.0
 41
100.0
 42
100.0
 43
100.0
  0
INSERT
  5
25F09
330
258D7
100
AcDbEntity
  8
寸法
 62
     0
 48
50.0
370
    -2
100
AcDbBlockReference
  2
_DOTSMALL
 10
8223.600000000008
 20
7553.747591565671
 30
0.0
 41
100.0
 42
100.0
 43
100.0
 50
180.0
  0
MTEXT
  5
25F0A
330
258D7
100
AcDbEntity
  8
寸法
 62
     7
 48
50.0
100
AcDbMText
 10
8633.600000000008
 20
7653.759402589293
 30
0.0
 40
120.0
 41
0.0
 71
     5
 72
     1
  1
\A1;820
  7
STYLE1
 73
     1
 44
1.0
1001
ACAD
1000
MTEXTBEGIN
1070
    73
1070
     1
1070
    44
1040
1.0
1070
    74
1070
     0
1000
MTEXTEND
  0
POINT
  5
25F0B
330
258D7
100
AcDbEntity
  8
DEFPOINTS
 62
     0
 48
50.0
100
AcDbPoint
 10
9043.600000000008
 20
6641.138774895423
 30
0.0
  0
POINT
  5
25F0C
330
258D7
100
AcDbEntity
  8
DEFPOINTS
 62
     0
 48
50.0
100
AcDbPoint
 10
8223.600000000008
 20
6641.138774895423
 30
0.0
  0
POINT
  5
25F0D
330
258D7
100
AcDbEntity
  8
DEFPOINTS
 62
     0
 48
50.0
100
AcDbPoint
 10
8223.600000000008
 20
7553.747591565671
 30
0.0
  0
ENDBLK
  5
258E1
330
258D7
100
AcDbEntity
  8
0
 48
50.0
100
AcDbBlockEnd
  0
BLOCK
  5
258EC
330
258E2
100
AcDbEntity
  8
0
 48
50.0
100
AcDbBlockBegin
  2
*D27
 70
     1
 10
0.0
 20
0.0
 30
0.0
  3
*D27
  1

  0
LINE
  5
25EFC
330
258E2
100
AcDbEntity
  8
寸法
 62
     0
 48
50.0
370
    -2
100
AcDbLine
 10
8925.600000000001
 20
7018.138774895423
 30
0.0
 11
8925.600000000001
 21
7857.405232989333
 31
0.0
  0
LINE
  5
25EFD
330
258E2
100
AcDbEntity
  8
寸法
 62
     0
 48
50.0
370
    -2
100
AcDbLine
 10
7285.600000000001
 20
7018.138774895423
 30
0.0
 11
7285.600000000001
 21
7857.405232989333
 31
0.0
  0
LINE
  5
25EFE
330
258E2
100
AcDbEntity
  8
寸法
 62
     0
 48
50.0
370
    -2
100
AcDbLine
 10
8925.600000000001
 20
7797.405232989333
 30
0.0
 11
7285.600000000001
 21
7797.405232989333
 31
0.0
  0
INSERT
  5
25EFF
330
258E2
100
AcDbEntity
  8
寸法
 62
     0
 48
50.0
370
    -2
100
AcDbBlockReference
  2
_DOTSMALL
 10
8925.600000000001
 20
7797.405232989333
 30
0.0
 41
100.0
 42
100.0
 43
100.0
  0
INSERT
  5
25F00
330
258E2
100
AcDbEntity
  8
寸法
 62
     0
 48
50.0
370
    -2
100
AcDbBlockReference
  2
_DOTSMALL
 10
7285.600000000001
 20
7797.405232989333
 30
0.0
 41
100.0
 42
100.0
 43
100.0
 50
180.0
  0
MTEXT
  5
25F01
330
258E2
100
AcDbEntity
  8
寸法
 62
     7
 48
50.0
100
AcDbMText
 10
8105.6
 20
7897.405232989334
 30
0.0
 40
120.0
 41
0.0
 71
     5
 72
     1
  1
\A1;1640
  7
STYLE1
 73
     1
 44
1.0
1001
ACAD
1000
MTEXTBEGIN
1070
    73
1070
     1
1070
    44
1040
1.0
1070
    74
1070
     0
1000
MTEXTEND
  0
POINT
  5
25F02
330
258E2
100
AcDbEntity
  8
DEFPOINTS
 62
     0
 48
50.0
100
AcDbPoint
 10
8925.600000000001
 20
6998.138774895423
 30
0.0
  0
POINT
  5
25F03
330
258E2
100
AcDbEntity
  8
DEFPOINTS
 62
     0
 48
50.0
100
AcDbPoint
 10
7285.600000000001
 20
6998.138774895423
 30
0.0
  0
POINT
  5
25F04
330
258E2
100
AcDbEntity
  8
DEFPOINTS
 62
     0
 48
50.0
100
AcDbPoint
 10
7285.600000000001
 20
7797.405232989333
 30
0.0
  0
ENDBLK
  5
258ED
330
258E2
100
AcDbEntity
  8
0
 48
50.0
100
AcDbBlockEnd
  0
BLOCK
  5
258F8
330
258EE
100
AcDbEntity
  8
0
 48
50.0
100
AcDbBlockBegin
  2
*D28
 70
     1
 10
0.0
 20
0.0
 30
0.0
  3
*D28
  1

  0
LINE
  5
25EF3
330
258EE
100
AcDbEntity
  8
寸法
 62
     0
 48
50.0
370
    -2
100
AcDbLine
 10
4938.6
 20
7091.138774895423
 30
0.0
 11
4938.6
 21
8089.359096954341
 31
0.0
  0
LINE
  5
25EF4
330
258EE
100
AcDbEntity
  8
寸法
 62
     0
 48
50.0
370
    -2
100
AcDbLine
 10
11508.6
 20
7091.138774895423
 30
0.0
 11
11508.6
 21
8089.359096954341
 31
0.0
  0
LINE
  5
25EF5
330
258EE
100
AcDbEntity
  8
寸法
 62
     0
 48
50.0
370
    -2
100
AcDbLine
 10
4938.6
 20
8029.359096954342
 30
0.0
 11
11508.6
 21
8029.359096954342
 31
0.0
  0
INSERT
  5
25EF6
330
258EE
100
AcDbEntity
  8
寸法
 62
     0
 48
50.0
370
    -2
100
AcDbBlockReference
  2
_DOTSMALL
 10
4938.6
 20
8029.359096954342
 30
0.0
 41
100.0
 42
100.0
 43
100.0
 50
180.0
  0
INSERT
  5
25EF7
330
258EE
100
AcDbEntity
  8
寸法
 62
     0
 48
50.0
370
    -2
100
AcDbBlockReference
  2
_DOTSMALL
 10
11508.6
 20
8029.359096954342
 30
0.0
 41
100.0
 42
100.0
 43
100.0
  0
MTEXT
  5
25EF8
330
258EE
100
AcDbEntity
  8
寸法
 62
     7
 48
50.0
100
AcDbMText
 10
8223.600000000001
 20
8129.359096954342
 30
0.0
 40
120.0
 41
0.0
 71
     5
 72
     1
  1
\A1;6570
  7
STYLE1
 73
     1
 44
1.0
1001
ACAD
1000
MTEXTBEGIN
1070
    73
1070
     1
1070
    44
1040
1.0
1070
    74
1070
     0
1000
MTEXTEND
  0
POINT
  5
25EF9
330
258EE
100
AcDbEntity
  8
DEFPOINTS
 62
     0
 48
50.0
100
AcDbPoint
 10
4938.6
 20
7071.138774895423
 30
0.0
  0
POINT
  5
25EFA
330
258EE
100
AcDbEntity
  8
DEFPOINTS
 62
     0
 48
50.0
100
AcDbPoint
 10
11508.6
 20
7071.138774895423
 30
0.0
  0
POINT
  5
25EFB
330
258EE
100
AcDbEntity
  8
DEFPOINTS
 62
     0
 48
50.0
100
AcDbPoint
 10
11508.6
 20
8029.359096954342
 30
0.0
  0
ENDBLK
  5
258F9
330
258EE
100
AcDbEntity
  8
0
 48
50.0
100
AcDbBlockEnd
  0
BLOCK
  5
25905
330
258FA
100
AcDbEntity
  8
0
 48
50.0
100
AcDbBlockBegin
  2
*D29
 70
     1
 10
0.0
 20
0.0
 30
0.0
  3
*D29
  1

  0
LINE
  5
25EE9
330
258FA
100
AcDbEntity
  8
寸法
 62
     0
 48
50.0
370
    -2
100
AcDbLine
 10
5492.765475140901
 20
6111.138774895434
 30
0.0
 11
5361.285990614302
 21
6111.138774895434
 31
0.0
  0
LINE
  5
25EEA
330
258FA
100
AcDbEntity
  8
寸法
 62
     0
 48
50.0
370
    -2
100
AcDbLine
 10
5693.600000000007
 20
6591.138774895423
 30
0.0
 11
5361.285990614302
 21
6591.138774895423
 31
0.0
  0
LINE
  5
25EEB
330
258FA
100
AcDbEntity
  8
寸法
 62
     0
 48
50.0
370
    -2
100
AcDbLine
 10
5421.285990614302
 20
6591.138774895423
 30
0.0
 11
5421.285990614301
 21
6111.138774895434
 31
0.0
  0
LINE
  5
25EEC
330
258FA
100
AcDbEntity
  8
寸法
 62
     0
 48
50.0
370
    -2
100
AcDbLine
 10
5421.285990614301
 20
6111.138774895434
 30
0.0
 11
5421.285990614301
 21
5664.532475682834
 31
0.0
  0
INSERT
  5
25EED
330
258FA
100
AcDbEntity
  8
寸法
 62
     0
 48
50.0
370
    -2
100
AcDbBlockReference
  2
_DOTSMALL
 10
5421.285990614302
 20
6591.138774895423
 30
0.0
 41
100.0
 42
100.0
 43
100.0
 50
90.0
  0
INSERT
  5
25EEE
330
258FA
100
AcDbEntity
  8
寸法
 62
     0
 48
50.0
370
    -2
100
AcDbBlockReference
  2
_DOTSMALL
 10
5421.285990614301
 20
6111.138774895434
 30
0.0
 41
100.0
 42
100.0
 43
100.0
 50
270.0
  0
MTEXT
  5
25EEF
330
258FA
100
AcDbEntity
  8
寸法
 62
     7
 48
50.0
100
AcDbMText
 10
5321.2859906143
 20
5818.579719777322
 30
0.0
 40
120.0
 41
0.0
 71
     5
 72
     1
  1
\A1;480
  7
STYLE1
 11
0.0000000000000001
 21
1.0
 31
0.0
 73
     1
 44
1.0
1001
ACAD
1000
MTEXTBEGIN
1070
    73
1070
     1
1070
    44
1040
1.0
1070
    74
1070
     0
1000
MTEXTEND
  0
POINT
  5
25EF0
330
258FA
100
AcDbEntity
  8
DEFPOINTS
 62
     0
 48
50.0
100
AcDbPoint
 10
5512.765475140901
 20
6111.138774895434
 30
0.0
  0
POINT
  5
25EF1
330
258FA
100
AcDbEntity
  8
DEFPOINTS
 62
     0
 48
50.0
100
AcDbPoint
 10
5713.600000000008
 20
6591.138774895423
 30
0.0
  0
POINT
  5
25EF2
330
258FA
100
AcDbEntity
  8
DEFPOINTS
 62
     0
 48
50.0
100
AcDbPoint
 10
5421.285990614302
 20
6591.138774895423
 30
0.0
  0
ENDBLK
  5
25906
330
258FA
100
AcDbEntity
  8
0
 48
50.0
100
AcDbBlockEnd
  0
BLOCK
  5
25911
330
25907
100
AcDbEntity
  8
0
 48
50.0
100
AcDbBlockBegin
  2
*D30
 70
     1
 10
0.0
 20
0.0
 30
0.0
  3
*D30
  1

  0
LINE
  5
25F7D
330
25907
100
AcDbEntity
  8
寸法
 62
     0
 48
50.0
370
    -2
100
AcDbLine
 10
4991.6
 20
6948.138774895423
 30
0.0
 11
4255.665006330072
 21
6948.138774895423
 31
0.0
  0
LINE
  5
25F7E
330
25907
100
AcDbEntity
  8
寸法
 62
     0
 48
50.0
370
    -2
100
AcDbLine
 10
4991.600000000008
 20
6309.138774895426
 30
0.0
 11
4255.665006330072
 21
6309.138774895426
 31
0.0
  0
LINE
  5
25F7F
330
25907
100
AcDbEntity
  8
寸法
 62
     0
 48
50.0
370
    -2
100
AcDbLine
 10
4315.665006330073
 20
6948.138774895423
 30
0.0
 11
4315.665006330073
 21
6309.138774895426
 31
0.0
  0
INSERT
  5
25F80
330
25907
100
AcDbEntity
  8
寸法
 62
     0
 48
50.0
370
    -2
100
AcDbBlockReference
  2
_DOTSMALL
 10
4315.665006330073
 20
6948.138774895423
 30
0.0
 41
100.0
 42
100.0
 43
100.0
 50
90.0
  0
INSERT
  5
25F81
330
25907
100
AcDbEntity
  8
寸法
 62
     0
 48
50.0
370
    -2
100
AcDbBlockReference
  2
_DOTSMALL
 10
4315.665006330073
 20
6309.138774895426
 30
0.0
 41
100.0
 42
100.0
 43
100.0
 50
270.0
  0
MTEXT
  5
25F82
330
25907
100
AcDbEntity
  8
寸法
 62
     7
 48
50.0
100
AcDbMText
 10
4215.665006330072
 20
6628.638774895422
 30
0.0
 40
120.0
 41
0.0
 71
     5
 72
     1
  1
\A1;639
  7
STYLE1
 11
0.0000000000000001
 21
1.0
 31
0.0
 73
     1
 44
1.0
1001
ACAD
1000
MTEXTBEGIN
1070
    73
1070
     1
1070
    44
1040
1.0
1070
    74
1070
     0
1000
MTEXTEND
  0
POINT
  5
25F83
330
25907
100
AcDbEntity
  8
DEFPOINTS
 62
     0
 48
50.0
100
AcDbPoint
 10
5011.600000000001
 20
6948.138774895423
 30
0.0
  0
POINT
  5
25F84
330
25907
100
AcDbEntity
  8
DEFPOINTS
 62
     0
 48
50.0
100
AcDbPoint
 10
5011.600000000008
 20
6309.138774895426
 30
0.0
  0
POINT
  5
25F85
330
25907
100
AcDbEntity
  8
DEFPOINTS
 62
     0
 48
50.0
100
AcDbPoint
 10
4315.665006330073
 20
6309.138774895426
 30
0.0
  0
ENDBLK
  5
25912
330
25907
100
AcDbEntity
  8
0
 48
50.0
100
AcDbBlockEnd
  0
BLOCK
  5
2591D
330
25913
100
AcDbEntity
  8
0
 48
50.0
100
AcDbBlockBegin
  2
*D31
 70
     1
 10
0.0
 20
0.0
 30
0.0
  3
*D31
  1

  0
LINE
  5
25ED7
330
25913
100
AcDbEntity
  8
寸法
 62
     0
 48
50.0
370
    -2
100
AcDbLine
 10
4918.600000000001
 20
7071.138774895423
 30
0.0
 11
4003.721909610674
 21
7071.138774895423
 31
0.0
  0
LINE
  5
25ED8
330
25913
100
AcDbEntity
  8
寸法
 62
     0
 48
50.0
370
    -2
100
AcDbLine
 10
4918.600000000001
 20
6111.138774895422
 30
0.0
 11
4003.721909610674
 21
6111.138774895422
 31
0.0
  0
LINE
  5
25ED9
330
25913
100
AcDbEntity
  8
寸法
 62
     0
 48
50.0
370
    -2
100
AcDbLine
 10
4063.721909610674
 20
7071.138774895423
 30
0.0
 11
4063.721909610674
 21
6111.138774895422
 31
0.0
  0
INSERT
  5
25EDA
330
25913
100
AcDbEntity
  8
寸法
 62
     0
 48
50.0
370
    -2
100
AcDbBlockReference
  2
_DOTSMALL
 10
4063.721909610674
 20
7071.138774895423
 30
0.0
 41
100.0
 42
100.0
 43
100.0
 50
90.0
  0
INSERT
  5
25EDB
330
25913
100
AcDbEntity
  8
寸法
 62
     0
 48
50.0
370
    -2
100
AcDbBlockReference
  2
_DOTSMALL
 10
4063.721909610674
 20
6111.138774895422
 30
0.0
 41
100.0
 42
100.0
 43
100.0
 50
270.0
  0
MTEXT
  5
25EDC
330
25913
100
AcDbEntity
  8
寸法
 62
     7
 48
50.0
100
AcDbMText
 10
3963.721909610672
 20
6628.638774895422
 30
0.0
 40
120.0
 41
0.0
 71
     5
 72
     1
  1
\A1;960
  7
STYLE1
 11
0.0000000000000001
 21
1.0
 31
0.0
 73
     1
 44
1.0
1001
ACAD
1000
MTEXTBEGIN
1070
    73
1070
     1
1070
    44
1040
1.0
1070
    74
1070
     0
1000
MTEXTEND
  0
POINT
  5
25EDD
330
25913
100
AcDbEntity
  8
DEFPOINTS
 62
     0
 48
50.0
100
AcDbPoint
 10
4938.6
 20
7071.138774895423
 30
0.0
  0
POINT
  5
25EDE
330
25913
100
AcDbEntity
  8
DEFPOINTS
 62
     0
 48
50.0
100
AcDbPoint
 10
4938.6
 20
6111.138774895422
 30
0.0
  0
POINT
  5
25EDF
330
25913
100
AcDbEntity
  8
DEFPOINTS
 62
     0
 48
50.0
100
AcDbPoint
 10
4063.721909610674
 20
6111.138774895422
 30
0.0
  0
ENDBLK
  5
2591E
330
25913
100
AcDbEntity
  8
0
 48
50.0
100
AcDbBlockEnd
  0
BLOCK
  5
25929
330
2591F
100
AcDbEntity
  8
0
 48
50.0
100
AcDbBlockBegin
  2
*D32
 70
     1
 10
0.0
 20
0.0
 30
0.0
  3
*D32
  1

  0
LINE
  5
25ECE
330
2591F
100
AcDbEntity
  8
寸法
 62
     0
 48
50.0
370
    -2
100
AcDbLine
 10
4918.600000000004
 20
6111.138774895419
 30
0.0
 11
4765.512673767882
 21
6111.138774895419
 31
0.0
  0
LINE
  5
25ECF
330
2591F
100
AcDbEntity
  8
寸法
 62
     0
 48
50.0
370
    -2
100
AcDbLine
 10
5274.325326928809
 20
5391.13877489542
 30
0.0
 11
4765.512673767882
 21
5391.13877489542
 31
0.0
  0
LINE
  5
25ED0
330
2591F
100
AcDbEntity
  8
寸法
 62
     0
 48
50.0
370
    -2
100
AcDbLine
 10
4825.512673767883
 20
6111.138774895419
 30
0.0
 11
4825.512673767883
 21
5391.13877489542
 31
0.0
  0
INSERT
  5
25ED1
330
2591F
100
AcDbEntity
  8
寸法
 62
     0
 48
50.0
370
    -2
100
AcDbBlockReference
  2
_DOTSMALL
 10
4825.512673767883
 20
6111.138774895419
 30
0.0
 41
100.0
 42
100.0
 43
100.0
 50
90.0
  0
INSERT
  5
25ED2
330
2591F
100
AcDbEntity
  8
寸法
 62
     0
 48
50.0
370
    -2
100
AcDbBlockReference
  2
_DOTSMALL
 10
4825.512673767883
 20
5391.13877489542
 30
0.0
 41
100.0
 42
100.0
 43
100.0
 50
270.0
  0
MTEXT
  5
25ED3
330
2591F
100
AcDbEntity
  8
寸法
 62
     7
 48
50.0
100
AcDbMText
 10
4725.500862744261
 20
5751.13877489542
 30
0.0
 40
120.0
 41
0.0
 71
     5
 72
     1
  1
\A1;扉の出720
  7
STYLE1
 11
0.0000000000000001
 21
1.0
 31
0.0
 73
     1
 44
1.0
1001
ACAD
1000
MTEXTBEGIN
1070
    73
1070
     1
1070
    44
1040
1.0
1070
    74
1070
     0
1000
MTEXTEND
  0
POINT
  5
25ED4
330
2591F
100
AcDbEntity
  8
DEFPOINTS
 62
     0
 48
50.0
100
AcDbPoint
 10
4938.600000000004
 20
6111.138774895419
 30
0.0
  0
POINT
  5
25ED5
330
2591F
100
AcDbEntity
  8
DEFPOINTS
 62
     0
 48
50.0
100
AcDbPoint
 10
5294.325326928809
 20
5391.13877489542
 30
0.0
  0
POINT
  5
25ED6
330
2591F
100
AcDbEntity
  8
DEFPOINTS
 62
     0
 48
50.0
100
AcDbPoint
 10
4825.512673767883
 20
5391.13877489542
 30
0.0
  0
ENDBLK
  5
2592A
330
2591F
100
AcDbEntity
  8
0
 48
50.0
100
AcDbBlockEnd
  0
BLOCK
  5
25936
330
2592B
100
AcDbEntity
  8
0
 48
50.0
100
AcDbBlockBegin
  2
*D33
 70
     1
 10
0.0
 20
0.0
 30
0.0
  3
*D33
  1

  0
LINE
  5
25F73
330
2592B
100
AcDbEntity
  8
寸法
 62
     0
 48
50.0
370
    -2
100
AcDbLine
 10
4991.600000000008
 20
6309.138774895426
 30
0.0
 11
4255.665006330072
 21
6309.138774895426
 31
0.0
  0
LINE
  5
25F74
330
2592B
100
AcDbEntity
  8
寸法
 62
     0
 48
50.0
370
    -2
100
AcDbLine
 10
4918.600000000001
 20
6111.138774895422
 30
0.0
 11
4255.665006330072
 21
6111.138774895422
 31
0.0
  0
LINE
  5
25F75
330
2592B
100
AcDbEntity
  8
寸法
 62
     0
 48
50.0
370
    -2
100
AcDbLine
 10
4315.665006330073
 20
6309.138774895426
 30
0.0
 11
4315.665006330072
 21
6111.138774895422
 31
0.0
  0
LINE
  5
25F76
330
2592B
100
AcDbEntity
  8
寸法
 62
     0
 48
50.0
370
    -2
100
AcDbLine
 10
4315.665006330072
 20
6111.138774895422
 30
0.0
 11
4315.665006330072
 21
5639.398166223173
 31
0.0
  0
INSERT
  5
25F77
330
2592B
100
AcDbEntity
  8
寸法
 62
     0
 48
50.0
370
    -2
100
AcDbBlockReference
  2
_DOTSMALL
 10
4315.665006330073
 20
6309.138774895426
 30
0.0
 41
100.0
 42
100.0
 43
100.0
 50
90.0
  0
INSERT
  5
25F78
330
2592B
100
AcDbEntity
  8
寸法
 62
     0
 48
50.0
370
    -2
100
AcDbBlockReference
  2
_DOTSMALL
 10
4315.665006330072
 20
6111.138774895422
 30
0.0
 41
100.0
 42
100.0
 43
100.0
 50
270.0
  0
MTEXT
  5
25F79
330
2592B
100
AcDbEntity
  8
寸法
 62
     7
 48
50.0
100
AcDbMText
 10
4215.665006330072
 20
5775.607826052831
 30
0.0
 40
120.0
 41
0.0
 71
     5
 72
     1
  1
\A1;198
  7
STYLE1
 11
0.0000000000000001
 21
1.0
 31
0.0
 73
     1
 44
1.0
1001
ACAD
1000
MTEXTBEGIN
1070
    73
1070
     1
1070
    44
1040
1.0
1070
    74
1070
     0
1000
MTEXTEND
  0
POINT
  5
25F7A
330
2592B
100
AcDbEntity
  8
DEFPOINTS
 62
     0
 48
50.0
100
AcDbPoint
 10
5011.600000000008
 20
6309.138774895426
 30
0.0
  0
POINT
  5
25F7B
330
2592B
100
AcDbEntity
  8
DEFPOINTS
 62
     0
 48
50.0
100
AcDbPoint
 10
4938.6
 20
6111.138774895422
 30
0.0
  0
POINT
  5
25F7C
330
2592B
100
AcDbEntity
  8
DEFPOINTS
 62
     0
 48
50.0
100
AcDbPoint
 10
4315.665006330072
 20
6111.138774895422
 30
0.0
  0
ENDBLK
  5
25937
330
2592B
100
AcDbEntity
  8
0
 48
50.0
100
AcDbBlockEnd
  0
BLOCK
  5
2595B
330
25951
100
AcDbEntity
  8
0
 48
50.0
100
AcDbBlockBegin
  2
*D34
 70
     1
 10
0.0
 20
0.0
 30
0.0
  3
*D34
  1

  0
LINE
  5
25EBB
330
25951
100
AcDbEntity
  8
寸法
 62
     0
 48
50.0
370
    -2
100
AcDbLine
 10
5763.600000000008
 20
6661.138774895423
 30
0.0
 11
5763.600000000008
 21
7613.747591565672
 31
0.0
  0
LINE
  5
25EBC
330
25951
100
AcDbEntity
  8
寸法
 62
     0
 48
50.0
370
    -2
100
AcDbLine
 10
4938.6
 20
7091.138774895423
 30
0.0
 11
4938.6
 21
7613.747591565672
 31
0.0
  0
LINE
  5
25EBD
330
25951
100
AcDbEntity
  8
寸法
 62
     0
 48
50.0
370
    -2
100
AcDbLine
 10
5763.600000000008
 20
7553.747591565671
 30
0.0
 11
4938.6
 21
7553.747591565671
 31
0.0
  0
INSERT
  5
25EBE
330
25951
100
AcDbEntity
  8
寸法
 62
     0
 48
50.0
370
    -2
100
AcDbBlockReference
  2
_DOTSMALL
 10
5763.600000000008
 20
7553.747591565671
 30
0.0
 41
100.0
 42
100.0
 43
100.0
  0
INSERT
  5
25EBF
330
25951
100
AcDbEntity
  8
寸法
 62
     0
 48
50.0
370
    -2
100
AcDbBlockReference
  2
_DOTSMALL
 10
4938.6
 20
7553.747591565671
 30
0.0
 41
100.0
 42
100.0
 43
100.0
 50
180.0
  0
MTEXT
  5
25EC0
330
25951
100
AcDbEntity
  8
寸法
 62
     7
 48
50.0
100
AcDbMText
 10
5351.100000000004
 20
7653.759402589293
 30
0.0
 40
120.0
 41
0.0
 71
     5
 72
     1
  1
\A1;825
  7
STYLE1
 73
     1
 44
1.0
1001
ACAD
1000
MTEXTBEGIN
1070
    73
1070
     1
1070
    44
1040
1.0
1070
    74
1070
     0
1000
MTEXTEND
  0
POINT
  5
25EC1
330
25951
100
AcDbEntity
  8
DEFPOINTS
 62
     0
 48
50.0
100
AcDbPoint
 10
5763.600000000008
 20
6641.138774895423
 30
0.0
  0
POINT
  5
25EC2
330
25951
100
AcDbEntity
  8
DEFPOINTS
 62
     0
 48
50.0
100
AcDbPoint
 10
4938.6
 20
7071.138774895423
 30
0.0
  0
POINT
  5
25EC3
330
25951
100
AcDbEntity
  8
DEFPOINTS
 62
     0
 48
50.0
100
AcDbPoint
 10
4938.6
 20
7553.747591565671
 30
0.0
  0
ENDBLK
  5
2595C
330
25951
100
AcDbEntity
  8
0
 48
50.0
100
AcDbBlockEnd
  0
BLOCK
  5
25966
330
2595D
100
AcDbEntity
  8
0
 48
50.0
100
AcDbBlockBegin
  2
*D35
 70
     1
 10
0.0
 20
0.0
 30
0.0
  3
*D35
  1

  0
LINE
  5
25EB2
330
2595D
100
AcDbEntity
  8
寸法
 62
     0
 48
50.0
370
    -2
100
AcDbLine
 10
7285.600000000001
 20
7018.138774895423
 30
0.0
 11
7285.600000000001
 21
7857.405232989333
 31
0.0
  0
LINE
  5
25EB3
330
2595D
100
AcDbEntity
  8
寸法
 62
     0
 48
50.0
370
    -2
100
AcDbLine
 10
5061.600000000001
 20
7018.138774895423
 30
0.0
 11
5061.600000000001
 21
7857.405232989333
 31
0.0
  0
LINE
  5
25EB4
330
2595D
100
AcDbEntity
  8
寸法
 62
     0
 48
50.0
370
    -2
100
AcDbLine
 10
7285.600000000001
 20
7797.405232989333
 30
0.0
 11
5061.600000000001
 21
7797.405232989333
 31
0.0
  0
INSERT
  5
25EB5
330
2595D
100
AcDbEntity
  8
寸法
 62
     0
 48
50.0
370
    -2
100
AcDbBlockReference
  2
_DOTSMALL
 10
7285.600000000001
 20
7797.405232989333
 30
0.0
 41
100.0
 42
100.0
 43
100.0
  0
INSERT
  5
25EB6
330
2595D
100
AcDbEntity
  8
寸法
 62
     0
 48
50.0
370
    -2
100
AcDbBlockReference
  2
_DOTSMALL
 10
5061.600000000001
 20
7797.405232989333
 30
0.0
 41
100.0
 42
100.0
 43
100.0
 50
180.0
  0
MTEXT
  5
25EB7
330
2595D
100
AcDbEntity
  8
寸法
 62
     7
 48
50.0
100
AcDbMText
 10
6173.6
 20
7897.417044012955
 30
0.0
 40
120.0
 41
0.0
 71
     5
 72
     1
  1
\A1;2224
  7
STYLE1
 73
     1
 44
1.0
1001
ACAD
1000
MTEXTBEGIN
1070
    73
1070
     1
1070
    44
1040
1.0
1070
    74
1070
     0
1000
MTEXTEND
  0
POINT
  5
25EB8
330
2595D
100
AcDbEntity
  8
DEFPOINTS
 62
     0
 48
50.0
100
AcDbPoint
 10
7285.600000000001
 20
6998.138774895423
 30
0.0
  0
POINT
  5
25EB9
330
2595D
100
AcDbEntity
  8
DEFPOINTS
 62
     0
 48
50.0
100
AcDbPoint
 10
5061.600000000001
 20
6998.138774895423
 30
0.0
  0
POINT
  5
25EBA
330
2595D
100
AcDbEntity
  8
DEFPOINTS
 62
     0
 48
50.0
100
AcDbPoint
 10
5061.600000000001
 20
7797.405232989333
 30
0.0
  0
ENDBLK
  5
25967
330
2595D
100
AcDbEntity
  8
0
 48
50.0
100
AcDbBlockEnd
  0
BLOCK
  5
25980
330
25975
100
AcDbEntity
  8
0
 48
50.0
100
AcDbBlockBegin
  2
*D36
 70
     1
 10
0.0
 20
0.0
 30
0.0
  3
*D36
  1

  0
LINE
  5
25EA8
330
25975
100
AcDbEntity
  8
寸法
 62
     0
 48
50.0
370
    -2
100
AcDbLine
 10
5061.600000000001
 20
7018.138774895423
 30
0.0
 11
5061.600000000001
 21
7857.405232989333
 31
0.0
  0
LINE
  5
25EA9
330
25975
100
AcDbEntity
  8
寸法
 62
     0
 48
50.0
370
    -2
100
AcDbLine
 10
4938.6
 20
7091.138774895423
 30
0.0
 11
4938.6
 21
7857.405232989333
 31
0.0
  0
LINE
  5
25EAA
330
25975
100
AcDbEntity
  8
寸法
 62
     0
 48
50.0
370
    -2
100
AcDbLine
 10
5061.600000000001
 20
7797.405232989333
 30
0.0
 11
4938.6
 21
7797.405232989333
 31
0.0
  0
LINE
  5
25EAB
330
25975
100
AcDbEntity
  8
寸法
 62
     0
 48
50.0
370
    -2
100
AcDbLine
 10
4938.6
 20
7797.405232989333
 30
0.0
 11
4527.008116907963
 21
7797.405232989333
 31
0.0
  0
INSERT
  5
25EAC
330
25975
100
AcDbEntity
  8
寸法
 62
     0
 48
50.0
370
    -2
100
AcDbBlockReference
  2
_DOTSMALL
 10
5061.600000000001
 20
7797.405232989333
 30
0.0
 41
100.0
 42
100.0
 43
100.0
  0
INSERT
  5
25EAD
330
25975
100
AcDbEntity
  8
寸法
 62
     0
 48
50.0
370
    -2
100
AcDbBlockReference
  2
_DOTSMALL
 10
4938.6
 20
7797.405232989333
 30
0.0
 41
100.0
 42
100.0
 43
100.0
 50
180.0
  0
MTEXT
  5
25EAE
330
25975
100
AcDbEntity
  8
寸法
 62
     7
 48
50.0
100
AcDbMText
 10
4665.493398282202
 20
7897.417044012955
 30
0.0
 40
120.0
 41
0.0
 71
     5
 72
     1
  1
\A1;123
  7
STYLE1
 73
     1
 44
1.0
1001
ACAD
1000
MTEXTBEGIN
1070
    73
1070
     1
1070
    44
1040
1.0
1070
    74
1070
     0
1000
MTEXTEND
  0
POINT
  5
25EAF
330
25975
100
AcDbEntity
  8
DEFPOINTS
 62
     0
 48
50.0
100
AcDbPoint
 10
5061.600000000001
 20
6998.138774895423
 30
0.0
  0
POINT
  5
25EB0
330
25975
100
AcDbEntity
  8
DEFPOINTS
 62
     0
 48
50.0
100
AcDbPoint
 10
4938.6
 20
7071.138774895423
 30
0.0
  0
POINT
  5
25EB1
330
25975
100
AcDbEntity
  8
DEFPOINTS
 62
     0
 48
50.0
100
AcDbPoint
 10
4938.6
 20
7797.405232989333
 30
0.0
  0
ENDBLK
  5
25981
330
25975
100
AcDbEntity
  8
0
 48
50.0
100
AcDbBlockEnd
  0
BLOCK
  5
2598D
330
25982
100
AcDbEntity
  8
0
 48
50.0
100
AcDbBlockBegin
  2
*D37
 70
     1
 10
0.0
 20
0.0
 30
0.0
  3
*D37
  1

  0
LINE
  5
25E9E
330
25982
100
AcDbEntity
  8
寸法
 62
     0
 48
50.0
370
    -2
100
AcDbLine
 10
4918.600000000001
 20
7071.138774895423
 30
0.0
 11
4255.665006330072
 21
7071.138774895423
 31
0.0
  0
LINE
  5
25E9F
330
25982
100
AcDbEntity
  8
寸法
 62
     0
 48
50.0
370
    -2
100
AcDbLine
 10
4991.6
 20
6948.138774895423
 30
0.0
 11
4255.665006330072
 21
6948.138774895423
 31
0.0
  0
LINE
  5
25EA0
330
25982
100
AcDbEntity
  8
寸法
 62
     0
 48
50.0
370
    -2
100
AcDbLine
 10
4315.665006330073
 20
6948.138774895423
 30
0.0
 11
4315.665006330073
 21
7071.138774895423
 31
0.0
  0
LINE
  5
25EA1
330
25982
100
AcDbEntity
  8
寸法
 62
     0
 48
50.0
370
    -2
100
AcDbLine
 10
4315.665006330073
 20
7071.138774895423
 30
0.0
 11
4315.665006330073
 21
7482.730657987461
 31
0.0
  0
INSERT
  5
25EA2
330
25982
100
AcDbEntity
  8
寸法
 62
     0
 48
50.0
370
    -2
100
AcDbBlockReference
  2
_DOTSMALL
 10
4315.665006330073
 20
6948.138774895423
 30
0.0
 41
100.0
 42
100.0
 43
100.0
 50
270.0
  0
INSERT
  5
25EA3
330
25982
100
AcDbEntity
  8
寸法
 62
     0
 48
50.0
370
    -2
100
AcDbBlockReference
  2
_DOTSMALL
 10
4315.665006330073
 20
7071.138774895423
 30
0.0
 41
100.0
 42
100.0
 43
100.0
 50
90.0
  0
MTEXT
  5
25EA4
330
25982
100
AcDbEntity
  8
寸法
 62
     7
 48
50.0
100
AcDbMText
 10
4215.653195306449
 20
7344.245376613223
 30
0.0
 40
120.0
 41
0.0
 71
     5
 72
     1
  1
\A1;123
  7
STYLE1
 11
0.0000000000000001
 21
1.0
 31
0.0
 73
     1
 44
1.0
1001
ACAD
1000
MTEXTBEGIN
1070
    73
1070
     1
1070
    44
1040
1.0
1070
    74
1070
     0
1000
MTEXTEND
  0
POINT
  5
25EA5
330
25982
100
AcDbEntity
  8
DEFPOINTS
 62
     0
 48
50.0
100
AcDbPoint
 10
4938.6
 20
7071.138774895423
 30
0.0
  0
POINT
  5
25EA6
330
25982
100
AcDbEntity
  8
DEFPOINTS
 62
     0
 48
50.0
100
AcDbPoint
 10
5011.600000000001
 20
6948.138774895423
 30
0.0
  0
POINT
  5
25EA7
330
25982
100
AcDbEntity
  8
DEFPOINTS
 62
     0
 48
50.0
100
AcDbPoint
 10
4315.665006330073
 20
6948.138774895423
 30
0.0
  0
ENDBLK
  5
2598E
330
25982
100
AcDbEntity
  8
0
 48
50.0
100
AcDbBlockEnd
  0
BLOCK
  5
259AF
330
259A6
100
AcDbEntity
  8
0
 48
50.0
100
AcDbBlockBegin
  2
*D38
 70
     1
 10
0.0
 20
0.0
 30
0.0
  3
*D38
  1

  0
LINE
  5
25E95
330
259A6
100
AcDbEntity
  8
寸法
 62
     0
 48
50.0
370
    -2
100
AcDbLine
 10
7403.600000000007
 20
6661.138774895423
 30
0.0
 11
7403.600000000007
 21
7613.747591565672
 31
0.0
  0
LINE
  5
25E96
330
259A6
100
AcDbEntity
  8
寸法
 62
     0
 48
50.0
370
    -2
100
AcDbLine
 10
6583.600000000008
 20
6661.138774895423
 30
0.0
 11
6583.600000000008
 21
7613.747591565672
 31
0.0
  0
LINE
  5
25E97
330
259A6
100
AcDbEntity
  8
寸法
 62
     0
 48
50.0
370
    -2
100
AcDbLine
 10
7403.600000000007
 20
7553.747591565671
 30
0.0
 11
6583.600000000008
 21
7553.747591565671
 31
0.0
  0
INSERT
  5
25E98
330
259A6
100
AcDbEntity
  8
寸法
 62
     0
 48
50.0
370
    -2
100
AcDbBlockReference
  2
_DOTSMALL
 10
7403.600000000007
 20
7553.747591565671
 30
0.0
 41
100.0
 42
100.0
 43
100.0
  0
INSERT
  5
25E99
330
259A6
100
AcDbEntity
  8
寸法
 62
     0
 48
50.0
370
    -2
100
AcDbBlockReference
  2
_DOTSMALL
 10
6583.600000000008
 20
7553.747591565671
 30
0.0
 41
100.0
 42
100.0
 43
100.0
 50
180.0
  0
MTEXT
  5
25E9A
330
259A6
100
AcDbEntity
  8
寸法
 62
     7
 48
50.0
100
AcDbMText
 10
6993.600000000007
 20
7653.759402589293
 30
0.0
 40
120.0
 41
0.0
 71
     5
 72
     1
  1
\A1;820
  7
STYLE1
 73
     1
 44
1.0
1001
ACAD
1000
MTEXTBEGIN
1070
    73
1070
     1
1070
    44
1040
1.0
1070
    74
1070
     0
1000
MTEXTEND
  0
POINT
  5
25E9B
330
259A6
100
AcDbEntity
  8
DEFPOINTS
 62
     0
 48
50.0
100
AcDbPoint
 10
7403.600000000007
 20
6641.138774895423
 30
0.0
  0
POINT
  5
25E9C
330
259A6
100
AcDbEntity
  8
DEFPOINTS
 62
     0
 48
50.0
100
AcDbPoint
 10
6583.600000000008
 20
6641.138774895423
 30
0.0
  0
POINT
  5
25E9D
330
259A6
100
AcDbEntity
  8
DEFPOINTS
 62
     0
 48
50.0
100
AcDbPoint
 10
6583.600000000008
 20
7553.747591565671
 30
0.0
  0
ENDBLK
  5
259B0
330
259A6
100
AcDbEntity
  8
0
 48
50.0
100
AcDbBlockEnd
  0
BLOCK
  5
259BA
330
259B1
100
AcDbEntity
  8
0
 48
50.0
100
AcDbBlockBegin
  2
*D39
 70
     1
 10
0.0
 20
0.0
 30
0.0
  3
*D39
  1

  0
LINE
  5
25E8C
330
259B1
100
AcDbEntity
  8
寸法
 62
     0
 48
50.0
370
    -2
100
AcDbLine
 10
6583.600000000008
 20
6661.138774895423
 30
0.0
 11
6583.600000000008
 21
7613.747591565672
 31
0.0
  0
LINE
  5
25E8D
330
259B1
100
AcDbEntity
  8
寸法
 62
     0
 48
50.0
370
    -2
100
AcDbLine
 10
5763.600000000008
 20
6661.138774895423
 30
0.0
 11
5763.600000000008
 21
7613.747591565672
 31
0.0
  0
LINE
  5
25E8E
330
259B1
100
AcDbEntity
  8
寸法
 62
     0
 48
50.0
370
    -2
100
AcDbLine
 10
6583.600000000008
 20
7553.747591565671
 30
0.0
 11
5763.600000000008
 21
7553.747591565671
 31
0.0
  0
INSERT
  5
25E8F
330
259B1
100
AcDbEntity
  8
寸法
 62
     0
 48
50.0
370
    -2
100
AcDbBlockReference
  2
_DOTSMALL
 10
6583.600000000008
 20
7553.747591565671
 30
0.0
 41
100.0
 42
100.0
 43
100.0
  0
INSERT
  5
25E90
330
259B1
100
AcDbEntity
  8
寸法
 62
     0
 48
50.0
370
    -2
100
AcDbBlockReference
  2
_DOTSMALL
 10
5763.600000000008
 20
7553.747591565671
 30
0.0
 41
100.0
 42
100.0
 43
100.0
 50
180.0
  0
MTEXT
  5
25E91
330
259B1
100
AcDbEntity
  8
寸法
 62
     7
 48
50.0
100
AcDbMText
 10
6173.600000000007
 20
7653.759402589293
 30
0.0
 40
120.0
 41
0.0
 71
     5
 72
     1
  1
\A1;820
  7
STYLE1
 73
     1
 44
1.0
1001
ACAD
1000
MTEXTBEGIN
1070
    73
1070
     1
1070
    44
1040
1.0
1070
    74
1070
     0
1000
MTEXTEND
  0
POINT
  5
25E92
330
259B1
100
AcDbEntity
  8
DEFPOINTS
 62
     0
 48
50.0
100
AcDbPoint
 10
6583.600000000008
 20
6641.138774895423
 30
0.0
  0
POINT
  5
25E93
330
259B1
100
AcDbEntity
  8
DEFPOINTS
 62
     0
 48
50.0
100
AcDbPoint
 10
5763.600000000008
 20
6641.138774895423
 30
0.0
  0
POINT
  5
25E94
330
259B1
100
AcDbEntity
  8
DEFPOINTS
 62
     0
 48
50.0
100
AcDbPoint
 10
5763.600000000008
 20
7553.747591565671
 30
0.0
  0
ENDBLK
  5
259BB
330
259B1
100
AcDbEntity
  8
0
 48
50.0
100
AcDbBlockEnd
  0
BLOCK
  5
259C7
330
259BC
100
AcDbEntity
  8
0
 48
50.0
100
AcDbBlockBegin
  2
*D40
 70
     1
 10
0.0
 20
0.0
 30
0.0
  3
*D40
  1

  0
LINE
  5
25E82
330
259BC
100
AcDbEntity
  8
寸法
 62
     0
 48
50.0
370
    -2
100
AcDbLine
 10
5693.600000000007
 20
6591.138774895423
 30
0.0
 11
5361.285990614302
 21
6591.138774895423
 31
0.0
  0
LINE
  5
25E83
330
259BC
100
AcDbEntity
  8
寸法
 62
     0
 48
50.0
370
    -2
100
AcDbLine
 10
5492.765475140901
 20
7071.138774895423
 30
0.0
 11
5361.285990614302
 21
7071.138774895423
 31
0.0
  0
LINE
  5
25E84
330
259BC
100
AcDbEntity
  8
寸法
 62
     0
 48
50.0
370
    -2
100
AcDbLine
 10
5421.285990614302
 20
6591.138774895423
 30
0.0
 11
5421.285990614302
 21
7071.138774895423
 31
0.0
  0
LINE
  5
25E85
330
259BC
100
AcDbEntity
  8
寸法
 62
     0
 48
50.0
370
    -2
100
AcDbLine
 10
5421.285990614302
 20
7071.138774895423
 30
0.0
 11
5421.285990614302
 21
7517.745074108024
 31
0.0
  0
INSERT
  5
25E86
330
259BC
100
AcDbEntity
  8
寸法
 62
     0
 48
50.0
370
    -2
100
AcDbBlockReference
  2
_DOTSMALL
 10
5421.285990614302
 20
6591.138774895423
 30
0.0
 41
100.0
 42
100.0
 43
100.0
 50
270.0
  0
INSERT
  5
25E87
330
259BC
100
AcDbEntity
  8
寸法
 62
     0
 48
50.0
370
    -2
100
AcDbBlockReference
  2
_DOTSMALL
 10
5421.285990614302
 20
7071.138774895423
 30
0.0
 41
100.0
 42
100.0
 43
100.0
 50
90.0
  0
MTEXT
  5
25E88
330
259BC
100
AcDbEntity
  8
寸法
 62
     7
 48
50.0
100
AcDbMText
 10
5321.2859906143
 20
7363.697830013535
 30
0.0
 40
120.0
 41
0.0
 71
     5
 72
     1
  1
\A1;480
  7
STYLE1
 11
0.0000000000000001
 21
1.0
 31
0.0
 73
     1
 44
1.0
1001
ACAD
1000
MTEXTBEGIN
1070
    73
1070
     1
1070
    44
1040
1.0
1070
    74
1070
     0
1000
MTEXTEND
  0
POINT
  5
25E89
330
259BC
100
AcDbEntity
  8
DEFPOINTS
 62
     0
 48
50.0
100
AcDbPoint
 10
5713.600000000008
 20
6591.138774895423
 30
0.0
  0
POINT
  5
25E8A
330
259BC
100
AcDbEntity
  8
DEFPOINTS
 62
     0
 48
50.0
100
AcDbPoint
 10
5512.765475140901
 20
7071.138774895423
 30
0.0
  0
POINT
  5
25E8B
330
259BC
100
AcDbEntity
  8
DEFPOINTS
 62
     0
 48
50.0
100
AcDbPoint
 10
5421.285990614302
 20
7071.138774895423
 30
0.0
  0
ENDBLK
  5
259C8
330
259BC
100
AcDbEntity
  8
0
 48
50.0
100
AcDbBlockEnd
  0
BLOCK
  5
259D3
330
259C9
100
AcDbEntity
  8
0
 48
50.0
100
AcDbBlockBegin
  2
*D41
 70
     1
 10
0.0
 20
0.0
 30
0.0
  3
*D41
  1

  0
LINE
  5
25E79
330
259C9
100
AcDbEntity
  8
寸法
 62
     0
 48
50.0
370
    -2
100
AcDbLine
 10
8223.600000000008
 20
6661.138774895423
 30
0.0
 11
8223.600000000008
 21
7613.747591565672
 31
0.0
  0
LINE
  5
25E7A
330
259C9
100
AcDbEntity
  8
寸法
 62
     0
 48
50.0
370
    -2
100
AcDbLine
 10
7403.600000000007
 20
6661.138774895423
 30
0.0
 11
7403.600000000007
 21
7613.747591565672
 31
0.0
  0
LINE
  5
25E7B
330
259C9
100
AcDbEntity
  8
寸法
 62
     0
 48
50.0
370
    -2
100
AcDbLine
 10
8223.600000000008
 20
7553.747591565671
 30
0.0
 11
7403.600000000007
 21
7553.747591565671
 31
0.0
  0
INSERT
  5
25E7C
330
259C9
100
AcDbEntity
  8
寸法
 62
     0
 48
50.0
370
    -2
100
AcDbBlockReference
  2
_DOTSMALL
 10
8223.600000000008
 20
7553.747591565671
 30
0.0
 41
100.0
 42
100.0
 43
100.0
  0
INSERT
  5
25E7D
330
259C9
100
AcDbEntity
  8
寸法
 62
     0
 48
50.0
370
    -2
100
AcDbBlockReference
  2
_DOTSMALL
 10
7403.600000000007
 20
7553.747591565671
 30
0.0
 41
100.0
 42
100.0
 43
100.0
 50
180.0
  0
MTEXT
  5
25E7E
330
259C9
100
AcDbEntity
  8
寸法
 62
     7
 48
50.0
100
AcDbMText
 10
7813.600000000008
 20
7653.759402589293
 30
0.0
 40
120.0
 41
0.0
 71
     5
 72
     1
  1
\A1;820
  7
STYLE1
 73
     1
 44
1.0
1001
ACAD
1000
MTEXTBEGIN
1070
    73
1070
     1
1070
    44
1040
1.0
1070
    74
1070
     0
1000
MTEXTEND
  0
POINT
  5
25E7F
330
259C9
100
AcDbEntity
  8
DEFPOINTS
 62
     0
 48
50.0
100
AcDbPoint
 10
8223.600000000008
 20
6641.138774895423
 30
0.0
  0
POINT
  5
25E80
330
259C9
100
AcDbEntity
  8
DEFPOINTS
 62
     0
 48
50.0
100
AcDbPoint
 10
7403.600000000007
 20
6641.138774895423
 30
0.0
  0
POINT
  5
25E81
330
259C9
100
AcDbEntity
  8
DEFPOINTS
 62
     0
 48
50.0
100
AcDbPoint
 10
7403.600000000007
 20
7553.747591565671
 30
0.0
  0
ENDBLK
  5
259D4
330
259C9
100
AcDbEntity
  8
0
 48
50.0
100
AcDbBlockEnd
  0
BLOCK
  5
259ED
330
259E2
100
AcDbEntity
  8
0
 48
50.0
100
AcDbBlockBegin
  2
*D42
 70
     1
 10
0.0
 20
0.0
 30
0.0
  3
*D42
  1

  0
LINE
  5
25E6F
330
259E2
100
AcDbEntity
  8
寸法
 62
     0
 48
50.0
370
    -2
100
AcDbLine
 10
11508.6
 20
7091.138774895423
 30
0.0
 11
11508.6
 21
7857.405232989333
 31
0.0
  0
LINE
  5
25E70
330
259E2
100
AcDbEntity
  8
寸法
 62
     0
 48
50.0
370
    -2
100
AcDbLine
 10
11385.6
 20
7018.138774895423
 30
0.0
 11
11385.6
 21
7857.405232989333
 31
0.0
  0
LINE
  5
25E71
330
259E2
100
AcDbEntity
  8
寸法
 62
     0
 48
50.0
370
    -2
100
AcDbLine
 10
11385.6
 20
7797.405232989333
 30
0.0
 11
11508.6
 21
7797.405232989333
 31
0.0
  0
LINE
  5
25E72
330
259E2
100
AcDbEntity
  8
寸法
 62
     0
 48
50.0
370
    -2
100
AcDbLine
 10
11508.6
 20
7797.405232989333
 30
0.0
 11
11920.19188309203
 21
7797.405232989333
 31
0.0
  0
INSERT
  5
25E73
330
259E2
100
AcDbEntity
  8
寸法
 62
     0
 48
50.0
370
    -2
100
AcDbBlockReference
  2
_DOTSMALL
 10
11385.6
 20
7797.405232989333
 30
0.0
 41
100.0
 42
100.0
 43
100.0
 50
180.0
  0
INSERT
  5
25E74
330
259E2
100
AcDbEntity
  8
寸法
 62
     0
 48
50.0
370
    -2
100
AcDbBlockReference
  2
_DOTSMALL
 10
11508.6
 20
7797.405232989333
 30
0.0
 41
100.0
 42
100.0
 43
100.0
  0
MTEXT
  5
25E75
330
259E2
100
AcDbEntity
  8
寸法
 62
     7
 48
50.0
100
AcDbMText
 10
11781.7066017178
 20
7897.417044012955
 30
0.0
 40
120.0
 41
0.0
 71
     5
 72
     1
  1
\A1;123
  7
STYLE1
 73
     1
 44
1.0
1001
ACAD
1000
MTEXTBEGIN
1070
    73
1070
     1
1070
    44
1040
1.0
1070
    74
1070
     0
1000
MTEXTEND
  0
POINT
  5
25E76
330
259E2
100
AcDbEntity
  8
DEFPOINTS
 62
     0
 48
50.0
100
AcDbPoint
 10
11508.6
 20
7071.138774895423
 30
0.0
  0
POINT
  5
25E77
330
259E2
100
AcDbEntity
  8
DEFPOINTS
 62
     0
 48
50.0
100
AcDbPoint
 10
11385.6
 20
6998.138774895423
 30
0.0
  0
POINT
  5
25E78
330
259E2
100
AcDbEntity
  8
DEFPOINTS
 62
     0
 48
50.0
100
AcDbPoint
 10
11385.6
 20
7797.405232989333
 30
0.0
  0
ENDBLK
  5
259EE
330
259E2
100
AcDbEntity
  8
0
 48
50.0
100
AcDbBlockEnd
  0
BLOCK
  5
25A06
330
259FC
100
AcDbEntity
  8
0
 48
50.0
100
AcDbBlockBegin
  2
*D43
 70
     1
 10
0.0
 20
0.0
 30
0.0
  3
*D43
  1

  0
LINE
  5
25E66
330
259FC
100
AcDbEntity
  8
寸法
 62
     0
 48
50.0
370
    -2
100
AcDbLine
 10
11385.6
 20
7018.138774895423
 30
0.0
 11
11385.6
 21
7857.405232989333
 31
0.0
  0
LINE
  5
25E67
330
259FC
100
AcDbEntity
  8
寸法
 62
     0
 48
50.0
370
    -2
100
AcDbLine
 10
8925.600000000001
 20
7018.138774895423
 30
0.0
 11
8925.600000000001
 21
7857.405232989333
 31
0.0
  0
LINE
  5
25E68
330
259FC
100
AcDbEntity
  8
寸法
 62
     0
 48
50.0
370
    -2
100
AcDbLine
 10
11385.6
 20
7797.405232989333
 30
0.0
 11
8925.600000000001
 21
7797.405232989333
 31
0.0
  0
INSERT
  5
25E69
330
259FC
100
AcDbEntity
  8
寸法
 62
     0
 48
50.0
370
    -2
100
AcDbBlockReference
  2
_DOTSMALL
 10
11385.6
 20
7797.405232989333
 30
0.0
 41
100.0
 42
100.0
 43
100.0
  0
INSERT
  5
25E6A
330
259FC
100
AcDbEntity
  8
寸法
 62
     0
 48
50.0
370
    -2
100
AcDbBlockReference
  2
_DOTSMALL
 10
8925.600000000001
 20
7797.405232989333
 30
0.0
 41
100.0
 42
100.0
 43
100.0
 50
180.0
  0
MTEXT
  5
25E6B
330
259FC
100
AcDbEntity
  8
寸法
 62
     7
 48
50.0
100
AcDbMText
 10
10155.6
 20
7897.417044012955
 30
0.0
 40
120.0
 41
0.0
 71
     5
 72
     1
  1
\A1;2460
  7
STYLE1
 73
     1
 44
1.0
1001
ACAD
1000
MTEXTBEGIN
1070
    73
1070
     1
1070
    44
1040
1.0
1070
    74
1070
     0
1000
MTEXTEND
  0
POINT
  5
25E6C
330
259FC
100
AcDbEntity
  8
DEFPOINTS
 62
     0
 48
50.0
100
AcDbPoint
 10
11385.6
 20
6998.138774895423
 30
0.0
  0
POINT
  5
25E6D
330
259FC
100
AcDbEntity
  8
DEFPOINTS
 62
     0
 48
50.0
100
AcDbPoint
 10
8925.600000000001
 20
6998.138774895423
 30
0.0
  0
POINT
  5
25E6E
330
259FC
100
AcDbEntity
  8
DEFPOINTS
 62
     0
 48
50.0
100
AcDbPoint
 10
8925.600000000001
 20
7797.405232989333
 30
0.0
  0
ENDBLK
  5
25A07
330
259FC
100
AcDbEntity
  8
0
 48
50.0
100
AcDbBlockEnd
  0
BLOCK
  5
25A12
330
25A08
100
AcDbEntity
  8
0
 48
50.0
100
AcDbBlockBegin
  2
*D44
 70
     1
 10
0.0
 20
0.0
 30
0.0
  3
*D44
  1

  0
LINE
  5
25E5D
330
25A08
100
AcDbEntity
  8
寸法
 62
     0
 48
50.0
370
    -2
100
AcDbLine
 10
10683.60000000001
 20
6661.138774895423
 30
0.0
 11
10683.60000000001
 21
7613.747591565672
 31
0.0
  0
LINE
  5
25E5E
330
25A08
100
AcDbEntity
  8
寸法
 62
     0
 48
50.0
370
    -2
100
AcDbLine
 10
9863.600000000008
 20
6661.138774895423
 30
0.0
 11
9863.600000000008
 21
7613.747591565672
 31
0.0
  0
LINE
  5
25E5F
330
25A08
100
AcDbEntity
  8
寸法
 62
     0
 48
50.0
370
    -2
100
AcDbLine
 10
10683.60000000001
 20
7553.747591565671
 30
0.0
 11
9863.600000000008
 21
7553.747591565671
 31
0.0
  0
INSERT
  5
25E60
330
25A08
100
AcDbEntity
  8
寸法
 62
     0
 48
50.0
370
    -2
100
AcDbBlockReference
  2
_DOTSMALL
 10
10683.60000000001
 20
7553.747591565671
 30
0.0
 41
100.0
 42
100.0
 43
100.0
  0
INSERT
  5
25E61
330
25A08
100
AcDbEntity
  8
寸法
 62
     0
 48
50.0
370
    -2
100
AcDbBlockReference
  2
_DOTSMALL
 10
9863.600000000008
 20
7553.747591565671
 30
0.0
 41
100.0
 42
100.0
 43
100.0
 50
180.0
  0
MTEXT
  5
25E62
330
25A08
100
AcDbEntity
  8
寸法
 62
     7
 48
50.0
100
AcDbMText
 10
10273.6
 20
7653.759402589293
 30
0.0
 40
120.0
 41
0.0
 71
     5
 72
     1
  1
\A1;820
  7
STYLE1
 73
     1
 44
1.0
1001
ACAD
1000
MTEXTBEGIN
1070
    73
1070
     1
1070
    44
1040
1.0
1070
    74
1070
     0
1000
MTEXTEND
  0
POINT
  5
25E63
330
25A08
100
AcDbEntity
  8
DEFPOINTS
 62
     0
 48
50.0
100
AcDbPoint
 10
10683.60000000001
 20
6641.138774895423
 30
0.0
  0
POINT
  5
25E64
330
25A08
100
AcDbEntity
  8
DEFPOINTS
 62
     0
 48
50.0
100
AcDbPoint
 10
9863.600000000008
 20
6641.138774895423
 30
0.0
  0
POINT
  5
25E65
330
25A08
100
AcDbEntity
  8
DEFPOINTS
 62
     0
 48
50.0
100
AcDbPoint
 10
9863.600000000008
 20
7553.747591565671
 30
0.0
  0
ENDBLK
  5
25A13
330
25A08
100
AcDbEntity
  8
0
 48
50.0
100
AcDbBlockEnd
  0
BLOCK
  5
25A1E
330
25A14
100
AcDbEntity
  8
0
 48
50.0
100
AcDbBlockBegin
  2
*D45
 70
     1
 10
0.0
 20
0.0
 30
0.0
  3
*D45
  1

  0
LINE
  5
25E54
330
25A14
100
AcDbEntity
  8
寸法
 62
     0
 48
50.0
370
    -2
100
AcDbLine
 10
9863.600000000008
 20
6661.138774895423
 30
0.0
 11
9863.600000000008
 21
7613.747591565672
 31
0.0
  0
LINE
  5
25E55
330
25A14
100
AcDbEntity
  8
寸法
 62
     0
 48
50.0
370
    -2
100
AcDbLine
 10
9043.600000000008
 20
6661.138774895423
 30
0.0
 11
9043.600000000008
 21
7613.747591565672
 31
0.0
  0
LINE
  5
25E56
330
25A14
100
AcDbEntity
  8
寸法
 62
     0
 48
50.0
370
    -2
100
AcDbLine
 10
9863.600000000008
 20
7553.747591565671
 30
0.0
 11
9043.600000000008
 21
7553.747591565671
 31
0.0
  0
INSERT
  5
25E57
330
25A14
100
AcDbEntity
  8
寸法
 62
     0
 48
50.0
370
    -2
100
AcDbBlockReference
  2
_DOTSMALL
 10
9863.600000000008
 20
7553.747591565671
 30
0.0
 41
100.0
 42
100.0
 43
100.0
  0
INSERT
  5
25E58
330
25A14
100
AcDbEntity
  8
寸法
 62
     0
 48
50.0
370
    -2
100
AcDbBlockReference
  2
_DOTSMALL
 10
9043.600000000008
 20
7553.747591565671
 30
0.0
 41
100.0
 42
100.0
 43
100.0
 50
180.0
  0
MTEXT
  5
25E59
330
25A14
100
AcDbEntity
  8
寸法
 62
     7
 48
50.0
100
AcDbMText
 10
9453.600000000006
 20
7653.759402589293
 30
0.0
 40
120.0
 41
0.0
 71
     5
 72
     1
  1
\A1;820
  7
STYLE1
 73
     1
 44
1.0
1001
ACAD
1000
MTEXTBEGIN
1070
    73
1070
     1
1070
    44
1040
1.0
1070
    74
1070
     0
1000
MTEXTEND
  0
POINT
  5
25E5A
330
25A14
100
AcDbEntity
  8
DEFPOINTS
 62
     0
 48
50.0
100
AcDbPoint
 10
9863.600000000008
 20
6641.138774895423
 30
0.0
  0
POINT
  5
25E5B
330
25A14
100
AcDbEntity
  8
DEFPOINTS
 62
     0
 48
50.0
100
AcDbPoint
 10
9043.600000000008
 20
6641.138774895423
 30
0.0
  0
POINT
  5
25E5C
330
25A14
100
AcDbEntity
  8
DEFPOINTS
 62
     0
 48
50.0
100
AcDbPoint
 10
9043.600000000008
 20
7553.747591565671
 30
0.0
  0
ENDBLK
  5
25A1F
330
25A14
100
AcDbEntity
  8
0
 48
50.0
100
AcDbBlockEnd
  0
BLOCK
  5
25A2A
330
25A20
100
AcDbEntity
  8
0
 48
50.0
100
AcDbBlockBegin
  2
*D46
 70
     1
 10
0.0
 20
0.0
 30
0.0
  3
*D46
  1

  0
LINE
  5
25E4B
330
25A20
100
AcDbEntity
  8
寸法
 62
     0
 48
50.0
370
    -2
100
AcDbLine
 10
11508.6
 20
7091.138774895423
 30
0.0
 11
11508.6
 21
7613.747591565672
 31
0.0
  0
LINE
  5
25E4C
330
25A20
100
AcDbEntity
  8
寸法
 62
     0
 48
50.0
370
    -2
100
AcDbLine
 10
10683.60000000001
 20
6661.138774895423
 30
0.0
 11
10683.60000000001
 21
7613.747591565672
 31
0.0
  0
LINE
  5
25E4D
330
25A20
100
AcDbEntity
  8
寸法
 62
     0
 48
50.0
370
    -2
100
AcDbLine
 10
11508.6
 20
7553.747591565671
 30
0.0
 11
10683.60000000001
 21
7553.747591565671
 31
0.0
  0
INSERT
  5
25E4E
330
25A20
100
AcDbEntity
  8
寸法
 62
     0
 48
50.0
370
    -2
100
AcDbBlockReference
  2
_DOTSMALL
 10
11508.6
 20
7553.747591565671
 30
0.0
 41
100.0
 42
100.0
 43
100.0
  0
INSERT
  5
25E4F
330
25A20
100
AcDbEntity
  8
寸法
 62
     0
 48
50.0
370
    -2
100
AcDbBlockReference
  2
_DOTSMALL
 10
10683.60000000001
 20
7553.747591565671
 30
0.0
 41
100.0
 42
100.0
 43
100.0
 50
180.0
  0
MTEXT
  5
25E50
330
25A20
100
AcDbEntity
  8
寸法
 62
     7
 48
50.0
100
AcDbMText
 10
11096.1
 20
7653.759402589293
 30
0.0
 40
120.0
 41
0.0
 71
     5
 72
     1
  1
\A1;825
  7
STYLE1
 73
     1
 44
1.0
1001
ACAD
1000
MTEXTBEGIN
1070
    73
1070
     1
1070
    44
1040
1.0
1070
    74
1070
     0
1000
MTEXTEND
  0
POINT
  5
25E51
330
25A20
100
AcDbEntity
  8
DEFPOINTS
 62
     0
 48
50.0
100
AcDbPoint
 10
11508.6
 20
7071.138774895423
 30
0.0
  0
POINT
  5
25E52
330
25A20
100
AcDbEntity
  8
DEFPOINTS
 62
     0
 48
50.0
100
AcDbPoint
 10
10683.60000000001
 20
6641.138774895423
 30
0.0
  0
POINT
  5
25E53
330
25A20
100
AcDbEntity
  8
DEFPOINTS
 62
     0
 48
50.0
100
AcDbPoint
 10
10683.60000000001
 20
7553.747591565671
 30
0.0
  0
ENDBLK
  5
25A2B
330
25A20
100
AcDbEntity
  8
0
 48
50.0
100
AcDbBlockEnd
  0
BLOCK
  5
262C6
330
262BC
100
AcDbEntity
  8
0
 48
50.0
100
AcDbBlockBegin
  2
*D47
 70
     1
 10
0.0
 20
0.0
 30
0.0
  3
*D47
  1

  0
LINE
  5
26306
330
262BC
100
AcDbEntity
  8
寸法
 62
     0
 48
50.0
370
    -2
100
AcDbLine
 10
8369.869057050182
 20
2017.477985361964
 30
0.0
 11
8911.737656819026
 21
2017.477985361963
 31
0.0
  0
LINE
  5
26307
330
262BC
100
AcDbEntity
  8
寸法
 62
     0
 48
50.0
370
    -2
100
AcDbLine
 10
8369.869057050182
 20
1693.477985361963
 30
0.0
 11
8911.737656819026
 21
1693.477985361963
 31
0.0
  0
LINE
  5
26308
330
262BC
100
AcDbEntity
  8
寸法
 62
     0
 48
50.0
370
    -2
100
AcDbLine
 10
8851.737656819027
 20
2017.477985361963
 30
0.0
 11
8851.737656819027
 21
1693.477985361963
 31
0.0
  0
INSERT
  5
26309
330
262BC
100
AcDbEntity
  8
寸法
 62
     0
 48
50.0
370
    -2
100
AcDbBlockReference
  2
_DOTSMALL
 10
8851.737656819027
 20
2017.477985361963
 30
0.0
 41
100.0
 42
100.0
 43
100.0
 50
90.0
  0
INSERT
  5
2630A
330
262BC
100
AcDbEntity
  8
寸法
 62
     0
 48
50.0
370
    -2
100
AcDbBlockReference
  2
_DOTSMALL
 10
8851.737656819027
 20
1693.477985361963
 30
0.0
 41
100.0
 42
100.0
 43
100.0
 50
270.0
  0
MTEXT
  5
2630B
330
262BC
100
AcDbEntity
  8
寸法
 62
     7
 48
50.0
100
AcDbMText
 10
8751.737656819027
 20
1855.477985361965
 30
0.0
 40
120.0
 41
0.0
 71
     5
 72
     1
  1
\A1;180
  7
STYLE1
 11
0.0000000000000001
 21
1.0
 31
0.0
 73
     1
 44
1.0
1001
ACAD
1000
MTEXTBEGIN
1070
    73
1070
     1
1070
    44
1040
1.0
1070
    74
1070
     0
1000
MTEXTEND
  0
POINT
  5
2630C
330
262BC
100
AcDbEntity
  8
DEFPOINTS
 62
     0
 48
50.0
100
AcDbPoint
 10
8349.869057050183
 20
2017.477985361964
 30
0.0
  0
POINT
  5
2630D
330
262BC
100
AcDbEntity
  8
DEFPOINTS
 62
     0
 48
50.0
100
AcDbPoint
 10
8349.869057050183
 20
1693.477985361963
 30
0.0
  0
POINT
  5
2630E
330
262BC
100
AcDbEntity
  8
DEFPOINTS
 62
     0
 48
50.0
100
AcDbPoint
 10
8851.737656819027
 20
1693.477985361963
 30
0.0
  0
ENDBLK
  5
262C7
330
262BC
100
AcDbEntity
  8
0
 48
50.0
100
AcDbBlockEnd
  0
BLOCK
  5
262D4
330
262C8
100
AcDbEntity
  8
0
 48
50.0
100
AcDbBlockBegin
  2
*D48
 70
     1
 10
0.0
 20
0.0
 30
0.0
  3
*D48
  1

  0
LINE
  5
2630F
330
262C8
100
AcDbEntity
  8
寸法
 62
     0
 48
50.0
370
    -2
100
AcDbLine
 10
8182.669057050183
 20
2070.237985361965
 30
0.0
 11
9187.792322938054
 21
2070.237985361965
 31
0.0
  0
LINE
  5
26310
330
262C8
100
AcDbEntity
  8
寸法
 62
     0
 48
50.0
370
    -2
100
AcDbLine
 10
8369.869057050182
 20
2017.477985361964
 30
0.0
 11
9187.792322938054
 21
2017.477985361963
 31
0.0
  0
LINE
  5
26311
330
262C8
100
AcDbEntity
  8
寸法
 62
     0
 48
50.0
370
    -2
100
AcDbLine
 10
9127.792322938054
 20
2070.237985361965
 30
0.0
 11
9127.792322938054
 21
2170.237985361965
 31
0.0
  0
LINE
  5
26312
330
262C8
100
AcDbEntity
  8
寸法
 62
     0
 48
50.0
370
    -2
100
AcDbLine
 10
9127.792322938054
 20
2017.477985361963
 30
0.0
 11
9127.792322938054
 21
1285.460178518997
 31
0.0
  0
LINE
  5
26313
330
262C8
100
AcDbEntity
  8
寸法
 62
     0
 48
50.0
370
    -2
100
AcDbLine
 10
9127.792322938054
 20
2070.237985361965
 30
0.0
 11
9127.792322938054
 21
2017.477985361963
 31
0.0
  0
INSERT
  5
26314
330
262C8
100
AcDbEntity
  8
寸法
 62
     0
 48
50.0
370
    -2
100
AcDbBlockReference
  2
_DOTSMALL
 10
9127.792322938054
 20
2070.237985361965
 30
0.0
 41
100.0
 42
100.0
 43
100.0
 50
270.0
  0
INSERT
  5
26315
330
262C8
100
AcDbEntity
  8
寸法
 62
     0
 48
50.0
370
    -2
100
AcDbBlockReference
  2
_DOTSMALL
 10
9127.792322938054
 20
2017.477985361963
 30
0.0
 41
100.0
 42
100.0
 43
100.0
 50
90.0
  0
MTEXT
  5
26316
330
262C8
100
AcDbEntity
  8
寸法
 62
     7
 48
50.0
100
AcDbMText
 10
9027.780511914432
 20
1551.469081940481
 30
0.0
 40
120.0
 41
0.0
 71
     5
 72
     1
  1
\A1;20～25
  7
STYLE1
 11
0.0000000000000001
 21
1.0
 31
0.0
 73
     1
 44
1.0
1001
ACAD
1000
MTEXTBEGIN
1070
    73
1070
     1
1070
    44
1040
1.0
1070
    74
1070
     0
1000
MTEXTEND
  0
POINT
  5
26317
330
262C8
100
AcDbEntity
  8
DEFPOINTS
 62
     0
 48
50.0
100
AcDbPoint
 10
8162.669057050184
 20
2070.237985361965
 30
0.0
  0
POINT
  5
26318
330
262C8
100
AcDbEntity
  8
DEFPOINTS
 62
     0
 48
50.0
100
AcDbPoint
 10
8349.869057050183
 20
2017.477985361964
 30
0.0
  0
POINT
  5
26319
330
262C8
100
AcDbEntity
  8
DEFPOINTS
 62
     0
 48
50.0
100
AcDbPoint
 10
9127.792322938054
 20
2017.477985361963
 30
0.0
  0
ENDBLK
  5
262D5
330
262C8
100
AcDbEntity
  8
0
 48
50.0
100
AcDbBlockEnd
  0
BLOCK
  5
262E0
330
262D6
100
AcDbEntity
  8
0
 48
50.0
100
AcDbBlockBegin
  2
*D49
 70
     1
 10
0.0
 20
0.0
 30
0.0
  3
*D49
  1

  0
LINE
  5
2631A
330
262D6
100
AcDbEntity
  8
寸法
 62
     0
 48
50.0
370
    -2
100
AcDbLine
 10
6087.829743872989
 20
1473.477985361964
 30
0.0
 11
5905.409430140529
 21
1473.477985361964
 31
0.0
  0
LINE
  5
2631B
330
262D6
100
AcDbEntity
  8
寸法
 62
     0
 48
50.0
370
    -2
100
AcDbLine
 10
6007.829743872992
 20
1233.477985361964
 30
0.0
 11
5905.409430140529
 21
1233.477985361964
 31
0.0
  0
LINE
  5
2631C
330
262D6
100
AcDbEntity
  8
寸法
 62
     0
 48
50.0
370
    -2
100
AcDbLine
 10
5965.409430140529
 20
1473.477985361964
 30
0.0
 11
5965.409430140529
 21
1233.477985361964
 31
0.0
  0
INSERT
  5
2631D
330
262D6
100
AcDbEntity
  8
寸法
 62
     0
 48
50.0
370
    -2
100
AcDbBlockReference
  2
_DOTSMALL
 10
5965.409430140529
 20
1473.477985361964
 30
0.0
 41
100.0
 42
100.0
 43
100.0
 50
90.0
  0
INSERT
  5
2631E
330
262D6
100
AcDbEntity
  8
寸法
 62
     0
 48
50.0
370
    -2
100
AcDbBlockReference
  2
_DOTSMALL
 10
5965.409430140529
 20
1233.477985361964
 30
0.0
 41
100.0
 42
100.0
 43
100.0
 50
270.0
  0
MTEXT
  5
2631F
330
262D6
100
AcDbEntity
  8
寸法
 62
     7
 48
50.0
100
AcDbMText
 10
5865.409430140529
 20
1353.477985361965
 30
0.0
 40
120.0
 41
0.0
 71
     5
 72
     1
  1
\A1;150
  7
STYLE1
 11
0.0000000000000001
 21
1.0
 31
0.0
 73
     1
 44
1.0
1001
ACAD
1000
MTEXTBEGIN
1070
    73
1070
     1
1070
    44
1040
1.0
1070
    74
1070
     0
1000
MTEXTEND
  0
POINT
  5
26320
330
262D6
100
AcDbEntity
  8
DEFPOINTS
 62
     0
 48
50.0
100
AcDbPoint
 10
6107.829743872989
 20
1473.477985361964
 30
0.0
  0
POINT
  5
26321
330
262D6
100
AcDbEntity
  8
DEFPOINTS
 62
     0
 48
50.0
100
AcDbPoint
 10
6027.829743872992
 20
1233.477985361964
 30
0.0
  0
POINT
  5
26322
330
262D6
100
AcDbEntity
  8
DEFPOINTS
 62
     0
 48
50.0
100
AcDbPoint
 10
5965.409430140529
 20
1233.477985361964
 30
0.0
  0
ENDBLK
  5
262E1
330
262D6
100
AcDbEntity
  8
0
 48
50.0
100
AcDbBlockEnd
  0
BLOCK
  5
262EC
330
262E2
100
AcDbEntity
  8
0
 48
50.0
100
AcDbBlockBegin
  2
*D50
 70
     1
 10
0.0
 20
0.0
 30
0.0
  3
*D50
  1

  0
LINE
  5
26323
330
262E2
100
AcDbEntity
  8
寸法
 62
     0
 48
50.0
370
    -2
100
AcDbLine
 10
6215.829743872989
 20
2017.477985361964
 30
0.0
 11
5440.792505311248
 21
2017.477985361964
 31
0.0
  0
LINE
  5
26324
330
262E2
100
AcDbEntity
  8
寸法
 62
     0
 48
50.0
370
    -2
100
AcDbLine
 10
6007.829743872992
 20
1233.477985361964
 30
0.0
 11
5440.792505311248
 21
1233.477985361964
 31
0.0
  0
LINE
  5
26325
330
262E2
100
AcDbEntity
  8
寸法
 62
     0
 48
50.0
370
    -2
100
AcDbLine
 10
5500.792505311249
 20
2017.477985361964
 30
0.0
 11
5500.792505311249
 21
1233.477985361964
 31
0.0
  0
INSERT
  5
26326
330
262E2
100
AcDbEntity
  8
寸法
 62
     0
 48
50.0
370
    -2
100
AcDbBlockReference
  2
_DOTSMALL
 10
5500.792505311249
 20
2017.477985361964
 30
0.0
 41
100.0
 42
100.0
 43
100.0
 50
90.0
  0
INSERT
  5
26327
330
262E2
100
AcDbEntity
  8
寸法
 62
     0
 48
50.0
370
    -2
100
AcDbBlockReference
  2
_DOTSMALL
 10
5500.792505311249
 20
1233.477985361964
 30
0.0
 41
100.0
 42
100.0
 43
100.0
 50
270.0
  0
MTEXT
  5
26328
330
262E2
100
AcDbEntity
  8
寸法
 62
     7
 48
50.0
100
AcDbMText
 10
5400.792505311248
 20
1605.018135017964
 30
0.0
 40
120.0
 41
0.0
 71
     5
 72
     1
  1
\A1;540
  7
STYLE1
 11
0.0000000000000001
 21
1.0
 31
0.0
 73
     1
 44
1.0
1001
ACAD
1000
MTEXTBEGIN
1070
    73
1070
     1
1070
    44
1040
1.0
1070
    74
1070
     0
1000
MTEXTEND
  0
POINT
  5
26329
330
262E2
100
AcDbEntity
  8
DEFPOINTS
 62
     0
 48
50.0
100
AcDbPoint
 10
6235.829743872989
 20
2017.477985361964
 30
0.0
  0
POINT
  5
2632A
330
262E2
100
AcDbEntity
  8
DEFPOINTS
 62
     0
 48
50.0
100
AcDbPoint
 10
6027.829743872992
 20
1233.477985361964
 30
0.0
  0
POINT
  5
2632B
330
262E2
100
AcDbEntity
  8
DEFPOINTS
 62
     0
 48
50.0
100
AcDbPoint
 10
5500.792505311249
 20
1233.477985361964
 30
0.0
  0
ENDBLK
  5
262ED
330
262E2
100
AcDbEntity
  8
0
 48
50.0
100
AcDbBlockEnd
  0
BLOCK
  5
262F8
330
262EE
100
AcDbEntity
  8
0
 48
50.0
100
AcDbBlockBegin
  2
*D51
 70
     1
 10
0.0
 20
0.0
 30
0.0
  3
*D51
  1

  0
LINE
  5
2632C
330
262EE
100
AcDbEntity
  8
寸法
 62
     0
 48
50.0
370
    -2
100
AcDbLine
 10
6107.829743872989
 20
1085.477985361964
 30
0.0
 11
6107.829743872989
 21
635.0483473568037
 31
0.0
  0
LINE
  5
2632D
330
262EE
100
AcDbEntity
  8
寸法
 62
     0
 48
50.0
370
    -2
100
AcDbLine
 10
6555.82974387299
 20
1085.477985361964
 30
0.0
 11
6555.82974387299
 21
635.0483473568037
 31
0.0
  0
LINE
  5
2632E
330
262EE
100
AcDbEntity
  8
寸法
 62
     0
 48
50.0
370
    -2
100
AcDbLine
 10
6107.829743872989
 20
695.0483473568038
 30
0.0
 11
6555.82974387299
 21
695.0483473568038
 31
0.0
  0
INSERT
  5
2632F
330
262EE
100
AcDbEntity
  8
寸法
 62
     0
 48
50.0
370
    -2
100
AcDbBlockReference
  2
_DOTSMALL
 10
6107.829743872989
 20
695.0483473568038
 30
0.0
 41
100.0
 42
100.0
 43
100.0
 50
180.0
  0
INSERT
  5
26330
330
262EE
100
AcDbEntity
  8
寸法
 62
     0
 48
50.0
370
    -2
100
AcDbBlockReference
  2
_DOTSMALL
 10
6555.82974387299
 20
695.0483473568038
 30
0.0
 41
100.0
 42
100.0
 43
100.0
  0
MTEXT
  5
26331
330
262EE
100
AcDbEntity
  8
寸法
 62
     7
 48
50.0
100
AcDbMText
 10
6311.732985194765
 20
795.0483473568038
 30
0.0
 40
120.0
 41
0.0
 71
     5
 72
     1
  1
\A1;300
  7
STYLE1
 73
     1
 44
1.0
1001
ACAD
1000
MTEXTBEGIN
1070
    73
1070
     1
1070
    44
1040
1.0
1070
    74
1070
     0
1000
MTEXTEND
  0
POINT
  5
26332
330
262EE
100
AcDbEntity
  8
DEFPOINTS
 62
     0
 48
50.0
100
AcDbPoint
 10
6107.829743872989
 20
1105.477985361964
 30
0.0
  0
POINT
  5
26333
330
262EE
100
AcDbEntity
  8
DEFPOINTS
 62
     0
 48
50.0
100
AcDbPoint
 10
6555.82974387299
 20
1105.477985361964
 30
0.0
  0
POINT
  5
26334
330
262EE
100
AcDbEntity
  8
DEFPOINTS
 62
     0
 48
50.0
100
AcDbPoint
 10
6555.82974387299
 20
695.0483473568038
 30
0.0
  0
ENDBLK
  5
262F9
330
262EE
100
AcDbEntity
  8
0
 48
50.0
100
AcDbBlockEnd
  0
BLOCK
  5
26304
330
262FA
100
AcDbEntity
  8
0
 48
50.0
100
AcDbBlockBegin
  2
*D52
 70
     1
 10
0.0
 20
0.0
 30
0.0
  3
*D52
  1

  0
LINE
  5
26335
330
262FA
100
AcDbEntity
  8
寸法
 62
     0
 48
50.0
370
    -2
100
AcDbLine
 10
6427.829743872989
 20
2037.477985361964
 30
0.0
 11
6427.829743872989
 21
2497.145793278344
 31
0.0
  0
LINE
  5
26336
330
262FA
100
AcDbEntity
  8
寸法
 62
     0
 48
50.0
370
    -2
100
AcDbLine
 10
6235.829743872989
 20
2037.477985361964
 30
0.0
 11
6235.829743872989
 21
2497.145793278344
 31
0.0
  0
LINE
  5
26337
330
262FA
100
AcDbEntity
  8
寸法
 62
     0
 48
50.0
370
    -2
100
AcDbLine
 10
6427.829743872989
 20
2437.145793278344
 30
0.0
 11
6235.829743872989
 21
2437.145793278344
 31
0.0
  0
INSERT
  5
26338
330
262FA
100
AcDbEntity
  8
寸法
 62
     0
 48
50.0
370
    -2
100
AcDbBlockReference
  2
_DOTSMALL
 10
6427.829743872989
 20
2437.145793278344
 30
0.0
 41
100.0
 42
100.0
 43
100.0
  0
INSERT
  5
26339
330
262FA
100
AcDbEntity
  8
寸法
 62
     0
 48
50.0
370
    -2
100
AcDbBlockReference
  2
_DOTSMALL
 10
6235.829743872989
 20
2437.145793278344
 30
0.0
 41
100.0
 42
100.0
 43
100.0
 50
180.0
  0
MTEXT
  5
2633A
330
262FA
100
AcDbEntity
  8
寸法
 62
     7
 48
50.0
100
AcDbMText
 10
6331.829743872988
 20
2737.181226349211
 30
0.0
 40
120.0
 41
0.0
 71
     5
 72
     1
  1
\A1;120\P200\P280
  7
STYLE1
 73
     1
 44
1.0
1001
ACAD
1000
MTEXTBEGIN
1070
    73
1070
     1
1070
    44
1040
1.0
1070
    74
1070
     0
1000
MTEXTEND
  0
POINT
  5
2633B
330
262FA
100
AcDbEntity
  8
DEFPOINTS
 62
     0
 48
50.0
100
AcDbPoint
 10
6427.829743872989
 20
2017.477985361964
 30
0.0
  0
POINT
  5
2633C
330
262FA
100
AcDbEntity
  8
DEFPOINTS
 62
     0
 48
50.0
100
AcDbPoint
 10
6235.829743872989
 20
2017.477985361964
 30
0.0
  0
POINT
  5
2633D
330
262FA
100
AcDbEntity
  8
DEFPOINTS
 62
     0
 48
50.0
100
AcDbPoint
 10
6235.829743872989
 20
2437.145793278344
 30
0.0
  0
ENDBLK
  5
26305
330
262FA
100
AcDbEntity
  8
0
 48
50.0
100
AcDbBlockEnd
  0
ENDSEC
  0
SECTION
  2
ENTITIES
  0
MTEXT
  5
763F
330
747D
100
AcDbEntity
  8
0
100
AcDbMText
 10
302.846345836809
 20
280.1983726409901
 30
0.0
 40
3.5
 41
5.323721266742722
 71
     1
 72
     5
  1

  7
MSMINCHO
 73
     1
 44
1.0
1001
ACAD
1000
MTEXTBEGIN
1070
    73
1070
     1
1070
    44
1040
1.0
1070
    74
1070
     0
1000
MTEXTEND
  0
LINE
  5
10B57
330
747D
100
AcDbEntity
  8
補助
  6
PHANTOM
 62
   230
 48
50.0
100
AcDbLine
 10
139.9999999999995
 20
11409.6
 30
0.0
 11
16307.2
 21
11409.6
 31
0.0
  0
LINE
  5
10B59
330
747D
100
AcDbEntity
  8
仕様書枠
  6
Continuous
 48
50.0
100
AcDbLine
 10
13107.2
 20
1200.0
 30
0.0
 11
13107.2
 21
-0.0000000000000729
 31
0.0
  0
LINE
  5
10B5D
330
747D
100
AcDbEntity
  8
仕様書枠
 48
50.0
100
AcDbLine
 10
140.0
 20
0.0
 30
0.0
 11
16307.2
 21
-0.0000000000000909
 31
0.0
  0
LINE
  5
10B5E
330
747D
100
AcDbEntity
  8
補助
  6
PHANTOM
 62
   230
 48
50.0
100
AcDbLine
 10
16307.2
 20
11409.6
 30
0.0
 11
16307.2
 21
1200.0
 31
0.0
  0
LINE
  5
10B6C
330
747D
100
AcDbEntity
  8
仕様書枠
 48
50.0
100
AcDbLine
 10
13107.2
 20
1200.0
 30
0.0
 11
16307.2
 21
1200.0
 31
0.0
  0
TEXT
  5
10B73
330
747D
100
AcDbEntity
  8
文字
 62
     7
 48
50.0
100
AcDbText
 10
13162.9790565769
 20
895.0906074299405
 30
0.0
 40
200.0
  1
基 礎 図
  7
STYLE2
100
AcDbText
  0
LINE
  5
10B7B
330
747D
100
AcDbEntity
  8
仕様書枠
 48
50.0
100
AcDbLine
 10
13107.2
 20
800.0
 30
0.0
 11
14251.2
 21
800.0
 31
0.0
  0
LINE
  5
10B88
330
747D
100
AcDbEntity
  8
仕様書枠
  6
Continuous
 48
50.0
100
AcDbLine
 10
14251.2
 20
1200.0
 30
0.0
 11
14251.2
 21
800.0
 31
0.0
  0
LINE
  5
16462
330
747D
100
AcDbEntity
  8
仕様書枠
 48
50.0
100
AcDbLine
 10
16307.2
 20
1200.0
 30
0.0
 11
16307.2
 21
-0.0000000000000909
 31
0.0
  0
LINE
  5
1903B
330
747D
100
AcDbEntity
  8
補助
  6
PHANTOM
 62
   230
 48
50.0
100
AcDbLine
 10
140.0
 20
0.0
 30
0.0
 11
139.9999999999995
 21
11409.6
 31
0.0
  0
LEADER
  5
1AC27
330
747D
100
AcDbEntity
  8
寸法
 48
50.0
100
AcDbLeader
  3
INABA_S50G
 73
     0
 74
     0
 75
     1
 40
120.0
 41
720.0000000000001
 76
     3
 10
11508.69549961499
 20
6675.242226082612
 30
0.0
 10
11665.46907400128
 20
6414.228312514778
 30
0.0
 10
11790.46907400128
 20
6414.228312514778
 30
0.0
340
1AC28
1001
ACAD
1000
DSTYLE
1002
{
1070
   341
1005
0
1070
    40
1040
1.0
1070
   343
1005
0
1070
   344
1005
0
1002
}
  0
MTEXT
  5
1AC28
102
{ACAD_REACTORS
330
1AC27
102
}
330
747D
100
AcDbEntity
  8
部品1
 62
     7
 48
50.0
100
AcDbMText
 10
12535.46907400128
 20
6499.228312514779
 30
0.0
 40
120.0
 41
0.0
 71
     6
 72
     1
  1
\A1;床下換気口
  7
STYLE1
 73
     1
 44
1.0
1001
ACAD
1000
MTEXTBEGIN
1070
    73
1070
     1
1070
    44
1040
1.0
1070
    74
1070
     0
1000
MTEXTEND
  0
TEXT
  5
1AC29
330
747D
100
AcDbEntity
  8
部品1
 48
50.0
100
AcDbText
 10
11857.43013846117
 20
5836.047873558652
 30
0.0
 40
80.0
  1
(a=45,b=55,c=75)
  7
STYLE1
100
AcDbText
  0
TEXT
  5
1AC2A
330
747D
100
AcDbEntity
  8
部品1
 48
50.0
100
AcDbText
 10
11698.85112970687
 20
5942.893094427406
 30
0.0
 40
80.0
  1
※a,b,cは屋根の出幅です。
  7
STYLE1
100
AcDbText
  0
MTEXT
  5
1AC2B
102
{ACAD_REACTORS
330
1AC2C
102
}
330
747D
100
AcDbEntity
  8
部品1
 62
     7
 48
50.0
100
AcDbMText
 10
12496.63832569548
 20
6122.203781360481
 30
0.0
 40
120.0
 41
0.0
 71
     6
 72
     1
  1
\A1;屋根の外寸
  7
STYLE1
 73
     1
 44
1.0
1001
ACAD
1000
MTEXTBEGIN
1070
    73
1070
     1
1070
    44
1040
1.0
1070
    74
1070
     0
1000
MTEXTEND
  0
LEADER
  5
1AC2C
330
747D
100
AcDbEntity
  8
寸法
 48
50.0
100
AcDbLeader
  3
INABA_S50G
 73
     0
 74
     0
 75
     1
 40
120.0
 41
672.0
 76
     3
 10
11558.69831350344
 20
6296.093124824057
 30
0.0
 10
11674.63832569548
 20
6037.203781360481
 30
0.0
 10
11799.63832569548
 20
6037.203781360481
 30
0.0
340
1AC2B
1001
ACAD
1000
DSTYLE
1002
{
1070
   341
1005
0
1070
    40
1040
1.0
1070
   343
1005
0
1070
   344
1005
0
1002
}
  0
TEXT
  5
1C7A1
330
747D
100
AcDbEntity
  8
文字
 62
     7
 48
50.0
100
AcDbText
 10
13188.16259899338
 20
79.80631269190417
 30
0.0
 40
80.0
  1
※布基礎には換気口を設けてください。
  7
STYLE2
100
AcDbText
  0
TEXT
  5
1C7E7
330
747D
100
AcDbEntity
  8
文字
 62
     7
 48
50.0
100
AcDbText
 10
13188.16259899338
 20
246.7109242801889
 30
0.0
 40
80.0
  1
※寒冷地等は地域の実情に合わせた基礎にして下さい。
  7
STYLE2
100
AcDbText
  0
TEXT
  5
1C7E8
330
747D
100
AcDbEntity
  8
文字
 62
     7
 48
50.0
100
AcDbText
 10
14325.79230300687
 20
499.5983841039506
 30
0.0
 40
160.0
  1
ＮＸＮ－０８ＤＬ－８
  7
STYLE2
100
AcDbText
  0
TEXT
  5
1C7EC
330
747D
100
AcDbEntity
  8
文字
 62
     7
 48
50.0
100
AcDbText
 10
14524.131837222
 20
1031.557706291229
 30
0.0
 40
100.0
  1
<縮尺> S=1/40
  7
STYLE2
100
AcDbText
  0
TEXT
  5
1C7ED
330
747D
100
AcDbEntity
  8
文字
 62
     7
 48
50.0
100
AcDbText
 10
13201.43669998441
 20
477.2740661031257
 30
0.0
 40
160.0
  1
機種名
  7
STYLE2
100
AcDbText
  0
LINE
  5
1C7EF
330
747D
100
AcDbEntity
  8
文字
 62
     7
 48
50.0
100
AcDbLine
 10
13187.2
 20
400.0
 30
0.0
 11
16227.2
 21
400.0
 31
0.0
  0
MTEXT
  5
1D2D5
102
{ACAD_REACTORS
330
1D2D6
102
}
330
747D
100
AcDbEntity
  8
部品1
 62
     7
 48
50.0
100
AcDbMText
 10
12703.99523070988
 20
7386.751519137949
 30
0.0
 40
120.0
 41
0.0
 71
     6
 72
     1
  1
アンカーボルト
  7
STYLE1
 73
     1
 44
1.0
1001
ACAD
1000
MTEXTBEGIN
1070
    73
1070
     1
1070
    44
1040
1.0
1070
    74
1070
     0
1000
MTEXTEND
  0
LEADER
  5
1D2D6
330
747D
100
AcDbEntity
  8
寸法
 48
50.0
100
AcDbLeader
  3
INABA_S50G
 73
     0
 74
     0
 75
     1
 40
120.0
 41
994.3492424049171
 76
     3
 10
11385.680085757
 20
6948.346619254151
 30
0.0
 10
11559.64598830496
 20
7301.751519137948
 30
0.0
 10
11684.64598830496
 20
7301.751519137948
 30
0.0
340
1D2D5
1001
ACAD
1000
DSTYLE
1002
{
1070
   341
1005
0
1070
    40
1040
1.0
1070
   343
1005
0
1070
   344
1005
0
1002
}
  0
MTEXT
  5
1D332
102
{ACAD_REACTORS
330
1D333
102
}
330
747D
100
AcDbEntity
  8
部品1
 62
     7
 48
50.0
100
AcDbMText
 10
11198.82869701569
 20
6512.644134576125
 30
0.0
 40
120.0
 41
0.0
 71
     6
 72
     1
  1
CB
  7
STYLE1
 73
     1
 44
1.0
1001
ACAD
1000
MTEXTBEGIN
1070
    73
1070
     1
1070
    44
1040
1.0
1070
    74
1070
     0
1000
MTEXTEND
  0
LEADER
  5
1D333
330
747D
100
AcDbEntity
  8
寸法
 48
50.0
100
AcDbLeader
  3
INABA_S50G
 73
     0
 74
     0
 75
     1
 40
120.0
 41
149.591883092037
 76
     3
 10
10771.95401106101
 20
6650.362448130952
 30
0.0
 10
10899.23681392366
 20
6427.644134576126
 30
0.0
 10
11024.23681392366
 20
6427.644134576126
 30
0.0
340
1D332
1001
ACAD
1000
DSTYLE
1002
{
1070
   341
1005
0
1070
    40
1040
1.0
1070
   343
1005
0
1070
   344
1005
0
1002
}
  0
DIMENSION
  5
20DE1
330
747D
100
AcDbEntity
  8
寸法
 48
50.0
100
AcDbDimension
  2
*D19
 10
11553.6
 20
8029.359096954342
 30
0.0
 11
11824.77462120245
 21
8029.359096954342
 31
0.0
 70
   160
  1
a
 71
     5
 42
45.0
  3
INABA_S40G
100
AcDbAlignedDimension
 13
11508.6
 23
7071.13877489542
 33
0.0
 14
11553.6
 24
7797.40523298933
 34
0.0
100
AcDbRotatedDimension
1001
ACAD
1000
DSTYLE
1002
{
1070
   341
1005
0
1002
}
  0
DIMENSION
  5
20DFB
330
747D
100
AcDbEntity
  8
寸法
 48
50.0
100
AcDbDimension
  2
*D20
 10
4938.6
 20
8029.359096954342
 30
0.0
 11
4622.425378797541
 21
8029.359096954342
 31
0.0
 70
   160
  1
a
 71
     5
 42
44.99999999999636
  3
INABA_S40G
100
AcDbAlignedDimension
 13
4893.600000000004
 23
7797.405232989333
 33
0.0
 14
4938.6
 24
7071.13877489542
 34
0.0
100
AcDbRotatedDimension
1001
ACAD
1000
DSTYLE
1002
{
1070
   341
1005
0
1002
}
  0
LINE
  5
22711
330
747D
100
AcDbEntity
  8
想像線
 48
10.0
100
AcDbLine
 10
11553.6
 20
7146.138774895444
 30
0.0
 11
4893.60000000003
 21
7146.138774895465
 31
0.0
  0
LINE
  5
22712
330
747D
100
AcDbEntity
  8
想像線
 48
10.0
100
AcDbLine
 10
4893.60000000003
 20
6056.138774895406
 30
0.0
 11
4893.60000000003
 21
7146.138774895465
 31
0.0
  0
LINE
  5
22713
330
747D
100
AcDbEntity
  8
想像線
 48
10.0
100
AcDbLine
 10
11553.6
 20
6056.138774895417
 30
0.0
 11
11553.6
 21
7146.138774895444
 31
0.0
  0
LINE
  5
22714
330
747D
100
AcDbEntity
  8
想像線
 48
10.0
100
AcDbLine
 10
11553.6
 20
6056.138774895417
 30
0.0
 11
4893.60000000003
 21
6056.138774895406
 31
0.0
  0
DIMENSION
  5
22741
330
747D
100
AcDbEntity
  8
寸法
 48
50.0
100
AcDbDimension
  2
*D21
 10
4063.721909610673
 20
7071.138774895432
 30
0.0
 11
3963.721909610672
 21
7108.638774895435
 31
0.0
 70
    32
  1
c
 71
     5
 42
75.00000000000364
  3
INABA_S40G
100
AcDbAlignedDimension
 13
4315.665006330071
 23
7146.138774895437
 33
0.0
 14
4805.156977762463
 24
7071.138774895432
 34
0.0
 50
90.0
100
AcDbRotatedDimension
1001
ACAD
1000
DSTYLE
1002
{
1070
   341
1005
0
1002
}
  0
DIMENSION
  5
2275B
330
747D
100
AcDbEntity
  8
寸法
 48
50.0
100
AcDbDimension
  2
*D22
 10
4063.721909610673
 20
6056.138774895443
 30
0.0
 11
3963.721909610672
 21
6083.638774895433
 31
0.0
 70
    32
  1
b
 71
     5
 42
54.99999999997817
  3
INABA_S40G
100
AcDbAlignedDimension
 13
4811.607272343894
 23
6111.138774895422
 33
0.0
 14
4315.665006330071
 24
6056.138774895443
 34
0.0
 50
90.0
100
AcDbRotatedDimension
1001
ACAD
1000
DSTYLE
1002
{
1070
   341
1005
0
1002
}
  0
DIMENSION
  5
22A76
330
747D
100
AcDbEntity
  8
寸法
 48
50.0
100
AcDbDimension
  2
*D23
 10
10911.82138901162
 20
6111.138774895452
 30
0.0
 11
10911.82138901162
 21
5824.175192218287
 31
0.0
 70
   160
 71
     5
 42
280.0000000000009
  3
INABA_S40G
100
AcDbAlignedDimension
 13
11065.09540071171
 23
6391.138774895453
 33
0.0
 14
10881.41910651595
 24
6111.138774895452
 34
0.0
 50
90.0
100
AcDbRotatedDimension
1001
ACAD
1000
DSTYLE
1002
{
1070
   341
1005
0
1002
}
  0
DIMENSION
  5
22A81
330
747D
100
AcDbEntity
  8
寸法
 48
50.0
100
AcDbDimension
  2
*D24
 10
10911.82138901162
 20
6871.138774895337
 30
0.0
 11
10911.82138901162
 21
7358.102357572589
 31
0.0
 70
   160
 71
     5
 42
200.0000000000855
  3
INABA_S40G
100
AcDbAlignedDimension
 13
10905.85634570468
 23
7071.138774895423
 33
0.0
 14
10845.60166369304
 24
6871.138774895337
 34
0.0
 50
90.0
100
AcDbRotatedDimension
1001
ACAD
1000
DSTYLE
1002
{
1070
   341
1005
0
1002
}
  0
DIMENSION
  5
22A98
330
747D
100
AcDbEntity
  8
寸法
 48
50.0
100
AcDbDimension
  2
*D25
 10
11388.6
 20
6795.530443450658
 30
0.0
 11
11778.65905511811
 21
6795.530443450658
 31
0.0
 70
   160
 71
     5
 42
120.0
  3
INABA_S40G
100
AcDbAlignedDimension
 13
11508.6
 23
6716.138774895452
 33
0.0
 14
11388.6
 24
6716.138774895468
 34
0.0
100
AcDbRotatedDimension
1001
ACAD
1000
DSTYLE
1002
{
1070
   341
1005
0
1002
}
  0
LINE
  5
257A4
330
747D
100
AcDbEntity
  8
部品1
 48
50.0
100
AcDbLine
 10
11388.6
 20
6871.138774895427
 30
0.0
 11
5058.599999999997
 21
6871.138774895427
 31
0.0
  0
DIMENSION
  5
257A6
330
747D
100
AcDbEntity
  8
寸法
 48
50.0
100
AcDbDimension
  2
*D26
 10
8223.600000000008
 20
7553.747591565671
 30
0.0
 11
8633.600000000008
 21
7653.759402589293
 31
0.0
 70
    32
 71
     5
 42
820.0
  3
INABA_S40G
100
AcDbAlignedDimension
 13
9043.600000000008
 23
6641.138774895423
 33
0.0
 14
8223.600000000008
 24
6641.138774895423
 34
0.0
100
AcDbRotatedDimension
1001
ACAD
1000
DSTYLE
1002
{
1070
   341
1005
0
1002
}
  0
DIMENSION
  5
257A7
330
747D
100
AcDbEntity
  8
寸法
 48
50.0
100
AcDbDimension
  2
*D27
 10
7285.600000000001
 20
7797.405232989333
 30
0.0
 11
8105.6
 21
7897.405232989334
 31
0.0
 70
    32
 71
     5
 42
1640.0
  3
INABA_S40G
100
AcDbAlignedDimension
 13
8925.600000000001
 23
6998.138774895423
 33
0.0
 14
7285.600000000001
 24
6998.138774895423
 34
0.0
100
AcDbRotatedDimension
1001
ACAD
1000
DSTYLE
1002
{
1070
   341
1005
0
1002
}
  0
DIMENSION
  5
257A8
330
747D
100
AcDbEntity
  8
寸法
 48
50.0
100
AcDbDimension
  2
*D28
 10
11508.6
 20
8029.359096954342
 30
0.0
 11
8223.600000000001
 21
8129.359096954342
 31
0.0
 70
    32
 71
     5
 42
6570.0
  3
INABA_S40G
100
AcDbAlignedDimension
 13
4938.6
 23
7071.138774895423
 33
0.0
 14
11508.6
 24
7071.138774895423
 34
0.0
100
AcDbRotatedDimension
1001
ACAD
1000
DSTYLE
1002
{
1070
   341
1005
0
1002
}
  0
LINE
  5
257A9
330
747D
100
AcDbEntity
  8
部品1
 48
50.0
100
AcDbLine
 10
11508.6
 20
7071.138774895423
 30
0.0
 11
4938.6
 21
7071.138774895423
 31
0.0
  0
LINE
  5
257AB
330
747D
100
AcDbEntity
  8
部品1
 48
50.0
100
AcDbLine
 10
11508.6
 20
6111.138774895455
 30
0.0
 11
4938.6
 21
6111.138774895414
 31
0.0
  0
DIMENSION
  5
257AE
330
747D
100
AcDbEntity
  8
寸法
 48
50.0
100
AcDbDimension
  2
*D29
 10
5421.285990614302
 20
6591.138774895423
 30
0.0
 11
5421.2859906143
 21
5818.579719777322
 31
0.0
 70
   160
 71
     5
 42
479.999999999989
  3
INABA_S40G
100
AcDbAlignedDimension
 13
5512.765475140901
 23
6111.138774895434
 33
0.0
 14
5713.600000000008
 24
6591.138774895423
 34
0.0
 50
90.0
100
AcDbRotatedDimension
1001
ACAD
1000
DSTYLE
1002
{
1070
   341
1005
0
1002
}
  0
LINE
  5
257AF
102
{ACAD_REACTORS
330
25FEA
102
}
330
747D
100
AcDbEntity
  8
部品1
 48
50.0
100
AcDbLine
 10
4938.6
 20
6111.138774895422
 30
0.0
 11
4938.6
 21
7071.138774895423
 31
0.0
  0
DIMENSION
  5
257B1
330
747D
100
AcDbEntity
  8
寸法
 48
50.0
100
AcDbDimension
  2
*D30
 10
4315.665006330073
 20
6309.138774895426
 30
0.0
 11
4315.665006330071
 21
6628.638774895422
 31
0.0
 70
   160
 71
     5
 42
638.9999999999964
  3
INABA_S40G
100
AcDbAlignedDimension
 13
5011.600000000001
 23
6948.138774895423
 33
0.0
 14
5011.600000000008
 24
6309.138774895426
 34
0.0
 50
90.0
100
AcDbRotatedDimension
1001
ACAD
1000
DSTYLE
1002
{
1070
   341
1005
0
1002
}
  0
DIMENSION
  5
257B2
330
747D
100
AcDbEntity
  8
寸法
 48
50.0
100
AcDbDimension
  2
*D31
 10
4063.721909610674
 20
6111.138774895422
 30
0.0
 11
4063.721909610673
 21
6628.638774895422
 31
0.0
 70
   160
 71
     5
 42
960.0
  3
INABA_S40G
100
AcDbAlignedDimension
 13
4938.6
 23
7071.138774895423
 33
0.0
 14
4938.6
 24
6111.138774895422
 34
0.0
 50
90.0
100
AcDbRotatedDimension
1001
ACAD
1000
DSTYLE
1002
{
1070
   341
1005
0
1002
}
  0
ARC
  5
257B3
330
747D
100
AcDbEntity
  8
想像線
 48
5.0
100
AcDbCircle
 10
5708.600000000004
 20
6111.138774895426
 30
0.0
 40
720.0
100
AcDbArc
 50
180.0
 51
270.0
  0
DIMENSION
  5
257B4
330
747D
100
AcDbEntity
  8
寸法
 48
50.0
100
AcDbDimension
  2
*D32
 10
4825.512673767883
 20
5391.13877489542
 30
0.0
 11
4825.512673767882
 21
5751.13877489542
 31
0.0
 70
   160
  1
扉の出<>
 71
     5
 42
720.0
  3
INABA_S40G
100
AcDbAlignedDimension
 13
4938.600000000004
 23
6111.138774895419
 33
0.0
 14
5294.325326928809
 24
5391.13877489542
 34
0.0
 50
90.0
100
AcDbRotatedDimension
1001
ACAD
1000
DSTYLE
1002
{
1070
   341
1005
0
1002
}
  0
DIMENSION
  5
257B5
330
747D
100
AcDbEntity
  8
寸法
 48
50.0
100
AcDbDimension
  2
*D33
 10
4315.665006330072
 20
6111.138774895422
 30
0.0
 11
4315.665006330071
 21
5775.607826052831
 31
0.0
 70
   160
 71
     5
 42
198.0000000000036
  3
INABA_S40G
100
AcDbAlignedDimension
 13
5011.600000000008
 23
6309.138774895426
 33
0.0
 14
4938.6
 24
6111.138774895422
 34
0.0
 50
90.0
100
AcDbRotatedDimension
1001
ACAD
1000
DSTYLE
1002
{
1070
   341
1005
0
1002
}
  0
LINE
  5
257B7
330
747D
100
AcDbEntity
  8
センター
 48
2.0
100
AcDbLine
 10
5011.600000000008
 20
6309.138774895426
 30
0.0
 11
5111.600000000008
 21
6309.138774895426
 31
0.0
  0
CIRCLE
  5
257B8
330
747D
100
AcDbEntity
  8
部品1
 48
50.0
100
AcDbCircle
 10
5061.599999999993
 20
6309.138774895426
 30
0.0
 40
35.0
  0
LINE
  5
257B9
330
747D
100
AcDbEntity
  8
センター
 48
2.0
100
AcDbLine
 10
5061.600000000008
 20
6359.138774895427
 30
0.0
 11
5061.600000000008
 21
6259.138774895427
 31
0.0
  0
LINE
  5
257BB
330
747D
100
AcDbEntity
  8
想像線
 48
5.0
100
AcDbLine
 10
5708.600000000004
 20
6111.138774895437
 30
0.0
 11
5708.600000000004
 21
5391.138774895427
 31
0.0
  0
LINE
  5
257BC
330
747D
100
AcDbEntity
  8
細線
 48
50.0
100
AcDbLine
 10
5389.404364949123
 20
6111.138774895448
 30
0.0
 11
5453.600000000009
 21
6175.334409946337
 31
0.0
  0
LINE
  5
257BD
330
747D
100
AcDbEntity
  8
細線
 48
50.0
100
AcDbLine
 10
5344.503084343774
 20
6111.138774895447
 30
0.0
 11
5453.600000000008
 21
6220.235690551682
 31
0.0
  0
LINE
  5
257BE
330
747D
100
AcDbEntity
  8
細線
 48
50.0
100
AcDbLine
 10
5299.601803738429
 20
6111.138774895448
 30
0.0
 11
5453.600000000008
 21
6265.136971157029
 31
0.0
  0
LINE
  5
257BF
330
747D
100
AcDbEntity
  8
細線
 48
50.0
100
AcDbLine
 10
5254.700523133082
 20
6111.138774895445
 30
0.0
 11
5453.600000000005
 21
6310.038251762374
 31
0.0
  0
LINE
  5
257C0
330
747D
100
AcDbEntity
  8
細線
 48
50.0
100
AcDbLine
 10
5253.600000000008
 20
6154.939532367719
 30
0.0
 11
5453.600000000002
 21
6354.939532367712
 31
0.0
  0
LINE
  5
257C1
330
747D
100
AcDbEntity
  8
部品1
 48
50.0
100
AcDbLine
 10
5453.6
 20
6391.138774895416
 30
0.0
 11
5453.600000000009
 21
6111.138774895448
 31
0.0
  0
LINE
  5
257C2
330
747D
100
AcDbEntity
  8
部品1
 48
50.0
100
AcDbLine
 10
5253.600000000002
 20
6391.138774895416
 30
0.0
 11
5253.600000000009
 21
6111.138774895445
 31
0.0
  0
LINE
  5
257C3
330
747D
100
AcDbEntity
  8
細線
 48
50.0
100
AcDbLine
 10
5434.305645554466
 20
6111.138774895451
 30
0.0
 11
5453.600000000009
 21
6130.433129340992
 31
0.0
  0
LINE
  5
257C4
330
747D
100
AcDbEntity
  8
細線
 48
50.0
100
AcDbLine
 10
5253.600000000005
 20
6199.840812973064
 30
0.0
 11
5444.897961922364
 21
6391.138774895416
 31
0.0
  0
LINE
  5
257C5
330
747D
100
AcDbEntity
  8
細線
 48
50.0
100
AcDbLine
 10
5253.600000000008
 20
6244.742093578407
 30
0.0
 11
5399.996681316984
 21
6391.138774895416
 31
0.0
  0
LINE
  5
257C6
330
747D
100
AcDbEntity
  8
細線
 48
50.0
100
AcDbLine
 10
5253.599999999918
 20
6334.544654789062
 30
0.0
 11
5310.194120106266
 21
6391.138774895416
 31
0.0
  0
LINE
  5
257C7
330
747D
100
AcDbEntity
  8
細線
 48
50.0
100
AcDbLine
 10
5253.59999999992
 20
6289.643374183718
 30
0.0
 11
5355.095400711622
 21
6391.138774895417
 31
0.0
  0
LINE
  5
257C8
330
747D
100
AcDbEntity
  8
細線
 48
50.0
100
AcDbLine
 10
6209.404364949119
 20
6111.13877489546
 30
0.0
 11
6273.600000000009
 21
6175.334409946348
 31
0.0
  0
LINE
  5
257C9
330
747D
100
AcDbEntity
  8
細線
 48
50.0
100
AcDbLine
 10
6164.503084343774
 20
6111.13877489546
 30
0.0
 11
6273.600000000008
 21
6220.235690551692
 31
0.0
  0
LINE
  5
257CA
330
747D
100
AcDbEntity
  8
細線
 48
50.0
100
AcDbLine
 10
6119.601803738426
 20
6111.13877489546
 30
0.0
 11
6273.600000000006
 21
6265.136971157038
 31
0.0
  0
LINE
  5
257CB
330
747D
100
AcDbEntity
  8
細線
 48
50.0
100
AcDbLine
 10
6074.700523133082
 20
6111.13877489546
 30
0.0
 11
6273.600000000006
 21
6310.038251762382
 31
0.0
  0
LINE
  5
257CC
330
747D
100
AcDbEntity
  8
細線
 48
50.0
100
AcDbLine
 10
6073.600000000007
 20
6154.939532367731
 30
0.0
 11
6273.600000000004
 21
6354.939532367723
 31
0.0
  0
LINE
  5
257CD
330
747D
100
AcDbEntity
  8
部品1
 48
50.0
100
AcDbLine
 10
6073.600000000002
 20
6391.138774895421
 30
0.0
 11
6073.600000000009
 21
6111.138774895458
 31
0.0
  0
LINE
  5
257CE
330
747D
100
AcDbEntity
  8
部品1
 48
50.0
100
AcDbLine
 10
6273.600000000004
 20
6391.138774895422
 30
0.0
 11
6273.600000000009
 21
6111.138774895461
 31
0.0
  0
LINE
  5
257CF
330
747D
100
AcDbEntity
  8
細線
 48
50.0
100
AcDbLine
 10
6254.305645554467
 20
6111.138774895463
 30
0.0
 11
6273.600000000009
 21
6130.433129341004
 31
0.0
  0
LINE
  5
257D0
330
747D
100
AcDbEntity
  8
細線
 48
50.0
100
AcDbLine
 10
6073.600000000006
 20
6199.840812973075
 30
0.0
 11
6264.897961922353
 21
6391.138774895422
 31
0.0
  0
LINE
  5
257D1
330
747D
100
AcDbEntity
  8
細線
 48
50.0
100
AcDbLine
 10
6073.600000000007
 20
6244.742093578422
 30
0.0
 11
6219.996681317008
 21
6391.138774895422
 31
0.0
  0
LINE
  5
257D2
330
747D
100
AcDbEntity
  8
細線
 48
50.0
100
AcDbLine
 10
6073.599999999935
 20
6334.544654789067
 30
0.0
 11
6130.194120106281
 21
6391.138774895421
 31
0.0
  0
LINE
  5
257D3
330
747D
100
AcDbEntity
  8
細線
 48
50.0
100
AcDbLine
 10
6073.599999999936
 20
6289.643374183723
 30
0.0
 11
6175.095400711639
 21
6391.138774895422
 31
0.0
  0
LINE
  5
257D4
330
747D
100
AcDbEntity
  8
細線
 48
50.0
100
AcDbLine
 10
7029.404364949122
 20
6111.138774895461
 30
0.0
 11
7093.600000000009
 21
6175.334409946348
 31
0.0
  0
LINE
  5
257D5
330
747D
100
AcDbEntity
  8
細線
 48
50.0
100
AcDbLine
 10
6984.503084343774
 20
6111.13877489546
 30
0.0
 11
7093.600000000008
 21
6220.235690551694
 31
0.0
  0
LINE
  5
257D6
330
747D
100
AcDbEntity
  8
細線
 48
50.0
100
AcDbLine
 10
6939.601803738425
 20
6111.13877489546
 30
0.0
 11
7093.600000000006
 21
6265.136971157041
 31
0.0
  0
LINE
  5
257D7
330
747D
100
AcDbEntity
  8
細線
 48
50.0
100
AcDbLine
 10
6894.700523133082
 20
6111.13877489546
 30
0.0
 11
7093.600000000003
 21
6310.038251762382
 31
0.0
  0
LINE
  5
257D8
330
747D
100
AcDbEntity
  8
細線
 48
50.0
100
AcDbLine
 10
6893.600000000008
 20
6154.939532367731
 30
0.0
 11
7093.600000000006
 21
6354.939532367724
 31
0.0
  0
LINE
  5
257D9
330
747D
100
AcDbEntity
  8
部品1
 48
50.0
100
AcDbLine
 10
7093.600000000003
 20
6391.138774895427
 30
0.0
 11
7093.600000000009
 21
6111.138774895461
 31
0.0
  0
LINE
  5
257DA
330
747D
100
AcDbEntity
  8
部品1
 48
50.0
100
AcDbLine
 10
6893.600000000003
 20
6391.138774895427
 30
0.0
 11
6893.600000000009
 21
6111.138774895458
 31
0.0
  0
LINE
  5
257DB
330
747D
100
AcDbEntity
  8
細線
 48
50.0
100
AcDbLine
 10
7074.305645554466
 20
6111.138774895463
 30
0.0
 11
7093.600000000009
 21
6130.433129341004
 31
0.0
  0
LINE
  5
257DC
330
747D
100
AcDbEntity
  8
細線
 48
50.0
100
AcDbLine
 10
6893.600000000006
 20
6199.840812973075
 30
0.0
 11
7084.897961922357
 21
6391.138774895428
 31
0.0
  0
LINE
  5
257DD
330
747D
100
AcDbEntity
  8
細線
 48
50.0
100
AcDbLine
 10
6893.600000000008
 20
6244.742093578422
 30
0.0
 11
7039.996681317013
 21
6391.138774895427
 31
0.0
  0
LINE
  5
257DE
330
747D
100
AcDbEntity
  8
細線
 48
50.0
100
AcDbLine
 10
6893.599999999937
 20
6289.643374183723
 30
0.0
 11
6995.095400711644
 21
6391.138774895427
 31
0.0
  0
LINE
  5
257DF
330
747D
100
AcDbEntity
  8
細線
 48
50.0
100
AcDbLine
 10
6893.599999999935
 20
6334.544654789067
 30
0.0
 11
6950.194120106286
 21
6391.138774895427
 31
0.0
  0
LINE
  5
257E0
330
747D
100
AcDbEntity
  8
センター
 48
2.0
100
AcDbLine
 10
7285.600000000008
 20
6359.138774895427
 30
0.0
 11
7285.600000000008
 21
6259.138774895427
 31
0.0
  0
CIRCLE
  5
257E1
330
747D
100
AcDbEntity
  8
部品1
 48
50.0
100
AcDbCircle
 10
7285.600000000008
 20
6309.138774895426
 30
0.0
 40
35.0
  0
LINE
  5
257E2
330
747D
100
AcDbEntity
  8
センター
 48
2.0
100
AcDbLine
 10
7235.600000000008
 20
6309.138774895426
 30
0.0
 11
7335.600000000008
 21
6309.138774895426
 31
0.0
  0
LINE
  5
257E3
330
747D
100
AcDbEntity
  8
細線
 48
50.0
100
AcDbLine
 10
7849.404364949123
 20
6111.138774895461
 30
0.0
 11
7913.600000000009
 21
6175.334409946348
 31
0.0
  0
LINE
  5
257E4
330
747D
100
AcDbEntity
  8
細線
 48
50.0
100
AcDbLine
 10
7804.503084343775
 20
6111.13877489546
 30
0.0
 11
7913.600000000008
 21
6220.235690551694
 31
0.0
  0
LINE
  5
257E5
330
747D
100
AcDbEntity
  8
細線
 48
50.0
100
AcDbLine
 10
7759.60180373843
 20
6111.13877489546
 30
0.0
 11
7913.600000000006
 21
6265.13697115704
 31
0.0
  0
LINE
  5
257E6
330
747D
100
AcDbEntity
  8
細線
 48
50.0
100
AcDbLine
 10
7714.700523133082
 20
6111.13877489546
 30
0.0
 11
7913.600000000008
 21
6310.038251762382
 31
0.0
  0
LINE
  5
257E7
330
747D
100
AcDbEntity
  8
細線
 48
50.0
100
AcDbLine
 10
7713.600000000008
 20
6154.939532367731
 30
0.0
 11
7913.600000000006
 21
6354.939532367726
 31
0.0
  0
LINE
  5
257E8
330
747D
100
AcDbEntity
  8
部品1
 48
50.0
100
AcDbLine
 10
7913.600000000004
 20
6391.138774895433
 30
0.0
 11
7913.600000000009
 21
6111.138774895461
 31
0.0
  0
LINE
  5
257E9
330
747D
100
AcDbEntity
  8
部品1
 48
50.0
100
AcDbLine
 10
7713.600000000004
 20
6391.138774895431
 30
0.0
 11
7713.60000000001
 21
6111.138774895458
 31
0.0
  0
LINE
  5
257EA
330
747D
100
AcDbEntity
  8
細線
 48
50.0
100
AcDbLine
 10
7894.305645554466
 20
6111.138774895463
 30
0.0
 11
7913.600000000009
 21
6130.433129341004
 31
0.0
  0
LINE
  5
257EB
330
747D
100
AcDbEntity
  8
細線
 48
50.0
100
AcDbLine
 10
7713.600000000006
 20
6199.840812973075
 30
0.0
 11
7904.897961922364
 21
6391.138774895433
 31
0.0
  0
LINE
  5
257EC
330
747D
100
AcDbEntity
  8
細線
 48
50.0
100
AcDbLine
 10
7713.600000000008
 20
6244.742093578422
 30
0.0
 11
7859.99668131702
 21
6391.138774895434
 31
0.0
  0
LINE
  5
257ED
330
747D
100
AcDbEntity
  8
細線
 48
50.0
100
AcDbLine
 10
7713.59999999994
 20
6334.544654789072
 30
0.0
 11
7770.194120106292
 21
6391.138774895431
 31
0.0
  0
LINE
  5
257EE
330
747D
100
AcDbEntity
  8
細線
 48
50.0
100
AcDbLine
 10
7713.599999999942
 20
6289.643374183729
 30
0.0
 11
7815.095400711651
 21
6391.138774895433
 31
0.0
  0
TEXT
  5
257EF
330
747D
100
AcDbEntity
  8
寸法
 48
50.0
100
AcDbText
 10
8101.338556508601
 20
6129.820065688161
 30
0.0
 40
120.0
  1
扉面
  7
STYLE1
100
AcDbText
  0
DIMENSION
  5
257F0
330
747D
100
AcDbEntity
  8
寸法
 48
50.0
100
AcDbDimension
  2
*D34
 10
4938.6
 20
7553.747591565671
 30
0.0
 11
5351.100000000004
 21
7653.759402589293
 31
0.0
 70
    32
 71
     5
 42
825.0000000000072
  3
INABA_S40G
100
AcDbAlignedDimension
 13
5763.600000000008
 23
6641.138774895423
 33
0.0
 14
4938.6
 24
7071.138774895423
 34
0.0
100
AcDbRotatedDimension
1001
ACAD
1000
DSTYLE
1002
{
1070
   341
1005
0
1002
}
  0
DIMENSION
  5
257F1
330
747D
100
AcDbEntity
  8
寸法
 48
50.0
100
AcDbDimension
  2
*D35
 10
5061.600000000001
 20
7797.405232989333
 30
0.0
 11
6173.6
 21
7897.417044012955
 31
0.0
 70
    32
 71
     5
 42
2224.0
  3
INABA_S40G
100
AcDbAlignedDimension
 13
7285.600000000001
 23
6998.138774895423
 33
0.0
 14
5061.600000000001
 24
6998.138774895423
 34
0.0
100
AcDbRotatedDimension
1001
ACAD
1000
DSTYLE
1002
{
1070
   341
1005
0
1002
}
  0
DIMENSION
  5
257F3
330
747D
100
AcDbEntity
  8
寸法
 48
50.0
100
AcDbDimension
  2
*D36
 10
4938.6
 20
7797.405232989333
 30
0.0
 11
4665.493398282202
 21
7797.405232989333
 31
0.0
 70
   160
 71
     5
 42
123.0
  3
INABA_S40G
100
AcDbAlignedDimension
 13
5061.600000000001
 23
6998.138774895423
 33
0.0
 14
4938.6
 24
7071.138774895423
 34
0.0
100
AcDbRotatedDimension
1001
ACAD
1000
DSTYLE
1002
{
1070
   341
1005
0
1002
}
  0
DIMENSION
  5
257F4
330
747D
100
AcDbEntity
  8
寸法
 48
50.0
100
AcDbDimension
  2
*D37
 10
4315.665006330073
 20
6948.138774895423
 30
0.0
 11
4315.665006330071
 21
7344.245376613223
 31
0.0
 70
   160
 71
     5
 42
123.0
  3
INABA_S40G
100
AcDbAlignedDimension
 13
4938.6
 23
7071.138774895423
 33
0.0
 14
5011.600000000001
 24
6948.138774895423
 34
0.0
 50
90.0
100
AcDbRotatedDimension
1001
ACAD
1000
DSTYLE
1002
{
1070
   341
1005
0
1002
}
  0
LINE
  5
257F6
102
{ACAD_REACTORS
330
25FEA
102
}
330
747D
100
AcDbEntity
  8
部品1
 48
50.0
100
AcDbLine
 10
5058.599999999998
 20
6716.138774895468
 30
0.0
 11
4938.6
 21
6716.138774895468
 31
0.0
  0
LINE
  5
257F7
102
{ACAD_REACTORS
330
25FEA
102
}
330
747D
100
AcDbEntity
  8
部品1
 48
50.0
100
AcDbLine
 10
5058.599999999998
 20
6516.138774895468
 30
0.0
 11
4938.6
 21
6516.138774895468
 31
0.0
  0
LINE
  5
257F9
330
747D
100
AcDbEntity
  8
センター
 48
2.0
100
AcDbLine
 10
5011.600000000001
 20
6948.138774895423
 30
0.0
 11
5111.600000000001
 21
6948.138774895423
 31
0.0
  0
CIRCLE
  5
257FA
330
747D
100
AcDbEntity
  8
部品1
 48
50.0
100
AcDbCircle
 10
5061.600000000001
 20
6948.138774895423
 30
0.0
 40
35.0
  0
LINE
  5
257FB
330
747D
100
AcDbEntity
  8
センター
 48
2.0
100
AcDbLine
 10
5061.600000000001
 20
6998.138774895423
 30
0.0
 11
5061.600000000001
 21
6898.138774895423
 31
0.0
  0
DIMENSION
  5
257FD
330
747D
100
AcDbEntity
  8
寸法
 48
50.0
100
AcDbDimension
  2
*D38
 10
6583.600000000008
 20
7553.747591565671
 30
0.0
 11
6993.600000000007
 21
7653.759402589293
 31
0.0
 70
    32
 71
     5
 42
820.0
  3
INABA_S40G
100
AcDbAlignedDimension
 13
7403.600000000007
 23
6641.138774895423
 33
0.0
 14
6583.600000000008
 24
6641.138774895423
 34
0.0
100
AcDbRotatedDimension
1001
ACAD
1000
DSTYLE
1002
{
1070
   341
1005
0
1002
}
  0
DIMENSION
  5
257FE
330
747D
100
AcDbEntity
  8
寸法
 48
50.0
100
AcDbDimension
  2
*D39
 10
5763.600000000008
 20
7553.747591565671
 30
0.0
 11
6173.600000000007
 21
7653.759402589293
 31
0.0
 70
    32
 71
     5
 42
820.0
  3
INABA_S40G
100
AcDbAlignedDimension
 13
6583.600000000008
 23
6641.138774895423
 33
0.0
 14
5763.600000000008
 24
6641.138774895423
 34
0.0
100
AcDbRotatedDimension
1001
ACAD
1000
DSTYLE
1002
{
1070
   341
1005
0
1002
}
  0
LINE
  5
257FF
330
747D
100
AcDbEntity
  8
細線
 48
50.0
100
AcDbLine
 10
5253.600000000009
 20
6873.360022053249
 30
0.0
 11
5451.378752842202
 21
7071.138774895444
 31
0.0
  0
LINE
  5
25800
330
747D
100
AcDbEntity
  8
細線
 48
50.0
100
AcDbLine
 10
5253.600000000009
 20
6918.261302658596
 30
0.0
 11
5406.477472236857
 21
7071.138774895445
 31
0.0
  0
LINE
  5
25801
330
747D
100
AcDbEntity
  8
細線
 48
50.0
100
AcDbLine
 10
5253.600000000009
 20
6963.162583263941
 30
0.0
 11
5361.57619163151
 21
7071.138774895444
 31
0.0
  0
LINE
  5
25802
330
747D
100
AcDbEntity
  8
細線
 48
50.0
100
AcDbLine
 10
5253.600000000008
 20
7008.063863869286
 30
0.0
 11
5316.674911026165
 21
7071.138774895445
 31
0.0
  0
LINE
  5
25803
330
747D
100
AcDbEntity
  8
部品1
 48
50.0
100
AcDbLine
 10
5453.600000000005
 20
7071.138774895445
 30
0.0
 11
5453.600000000009
 21
6871.138774895425
 31
0.0
  0
LINE
  5
25804
330
747D
100
AcDbEntity
  8
部品1
 48
50.0
100
AcDbLine
 10
5253.600000000005
 20
7071.138774895445
 30
0.0
 11
5253.600000000009
 21
6871.138774895425
 31
0.0
  0
DIMENSION
  5
25805
330
747D
100
AcDbEntity
  8
寸法
 48
50.0
100
AcDbDimension
  2
*D40
 10
5421.285990614302
 20
7071.138774895423
 30
0.0
 11
5421.2859906143
 21
7363.697830013535
 31
0.0
 70
   160
 71
     5
 42
480.0
  3
INABA_S40G
100
AcDbAlignedDimension
 13
5713.600000000008
 23
6591.138774895423
 33
0.0
 14
5512.765475140901
 24
7071.138774895423
 34
0.0
 50
90.0
100
AcDbRotatedDimension
1001
ACAD
1000
DSTYLE
1002
{
1070
   341
1005
0
1002
}
  0
LINE
  5
25806
330
747D
100
AcDbEntity
  8
細線
 48
50.0
100
AcDbLine
 10
5341.18131405289
 20
6871.138774895427
 30
0.0
 11
5453.600000000005
 21
6983.557460842558
 31
0.0
  0
LINE
  5
25807
330
747D
100
AcDbEntity
  8
細線
 48
50.0
100
AcDbLine
 10
5296.280033447526
 20
6871.138774895425
 30
0.0
 11
5453.600000000005
 21
7028.458741447902
 31
0.0
  0
LINE
  5
25808
330
747D
100
AcDbEntity
  8
細線
 48
50.0
100
AcDbLine
 10
5430.98387526357
 20
6871.138774895445
 30
0.0
 11
5453.600000000008
 21
6893.754899631881
 31
0.0
  0
LINE
  5
25809
330
747D
100
AcDbEntity
  8
細線
 48
50.0
100
AcDbLine
 10
5386.082594658232
 20
6871.138774895445
 30
0.0
 11
5453.600000000008
 21
6938.656180237221
 31
0.0
  0
LINE
  5
2580A
330
747D
100
AcDbEntity
  8
センター
 48
2.0
100
AcDbLine
 10
5713.600000000008
 20
6591.138774895423
 30
0.0
 11
5813.600000000008
 21
6591.138774895423
 31
0.0
  0
LINE
  5
2580B
330
747D
100
AcDbEntity
  8
部品1
 48
50.0
100
AcDbLine
 10
5863.600000000008
 20
6691.138774895422
 30
0.0
 11
5663.600000000008
 21
6691.138774895422
 31
0.0
  0
LINE
  5
2580C
330
747D
100
AcDbEntity
  8
部品1
 48
50.0
100
AcDbLine
 10
5863.600000000008
 20
6491.138774895422
 30
0.0
 11
5663.600000000008
 21
6491.138774895422
 31
0.0
  0
LINE
  5
2580D
330
747D
100
AcDbEntity
  8
部品1
 48
50.0
100
AcDbLine
 10
5663.600000000008
 20
6491.138774895422
 30
0.0
 11
5663.600000000008
 21
6691.138774895422
 31
0.0
  0
LINE
  5
2580E
330
747D
100
AcDbEntity
  8
センター
 48
2.0
100
AcDbLine
 10
5763.600000000008
 20
6641.138774895423
 30
0.0
 11
5763.600000000008
 21
6541.138774895422
 31
0.0
  0
LINE
  5
2580F
330
747D
100
AcDbEntity
  8
部品1
 48
50.0
100
AcDbLine
 10
5863.600000000008
 20
6491.138774895422
 30
0.0
 11
5863.600000000008
 21
6691.138774895422
 31
0.0
  0
LINE
  5
25810
330
747D
100
AcDbEntity
  8
細線
 48
50.0
100
AcDbLine
 10
5253.600000000005
 20
7052.965144474632
 30
0.0
 11
5271.77363042082
 21
7071.138774895445
 31
0.0
  0
LINE
  5
25811
330
747D
100
AcDbEntity
  8
細線
 48
50.0
100
AcDbLine
 10
6073.600000000009
 20
6873.360022053259
 30
0.0
 11
6271.378752842202
 21
7071.138774895458
 31
0.0
  0
LINE
  5
25812
330
747D
100
AcDbEntity
  8
細線
 48
50.0
100
AcDbLine
 10
6073.600000000007
 20
6918.261302658608
 30
0.0
 11
6226.477472236856
 21
7071.138774895459
 31
0.0
  0
LINE
  5
25813
330
747D
100
AcDbEntity
  8
細線
 48
50.0
100
AcDbLine
 10
6073.600000000009
 20
6963.162583263957
 30
0.0
 11
6181.57619163151
 21
7071.138774895456
 31
0.0
  0
LINE
  5
25814
330
747D
100
AcDbEntity
  8
細線
 48
50.0
100
AcDbLine
 10
6073.600000000007
 20
7008.0638638693
 30
0.0
 11
6136.674911026164
 21
7071.138774895458
 31
0.0
  0
LINE
  5
25815
330
747D
100
AcDbEntity
  8
部品1
 48
50.0
100
AcDbLine
 10
6073.600000000006
 20
7071.138774895458
 30
0.0
 11
6073.600000000009
 21
6871.138774895425
 31
0.0
  0
LINE
  5
25816
330
747D
100
AcDbEntity
  8
部品1
 48
50.0
100
AcDbLine
 10
6273.600000000006
 20
7071.138774895458
 30
0.0
 11
6273.600000000009
 21
6871.138774895425
 31
0.0
  0
LINE
  5
25817
330
747D
100
AcDbEntity
  8
細線
 48
50.0
100
AcDbLine
 10
6161.181314052877
 20
6871.138774895427
 30
0.0
 11
6273.600000000006
 21
6983.557460842572
 31
0.0
  0
LINE
  5
25818
330
747D
100
AcDbEntity
  8
細線
 48
50.0
100
AcDbLine
 10
6116.280033447518
 20
6871.138774895425
 30
0.0
 11
6273.600000000004
 21
7028.458741447915
 31
0.0
  0
LINE
  5
25819
330
747D
100
AcDbEntity
  8
細線
 48
50.0
100
AcDbLine
 10
6250.983875263569
 20
6871.138774895459
 30
0.0
 11
6273.600000000008
 21
6893.754899631895
 31
0.0
  0
LINE
  5
2581A
330
747D
100
AcDbEntity
  8
細線
 48
50.0
100
AcDbLine
 10
6206.082594658232
 20
6871.138774895459
 30
0.0
 11
6273.600000000008
 21
6938.656180237235
 31
0.0
  0
LINE
  5
2581B
330
747D
100
AcDbEntity
  8
センター
 48
2.0
100
AcDbLine
 10
6533.600000000008
 20
6591.138774895423
 30
0.0
 11
6633.600000000008
 21
6591.138774895423
 31
0.0
  0
LINE
  5
2581C
330
747D
100
AcDbEntity
  8
部品1
 48
50.0
100
AcDbLine
 10
6683.600000000009
 20
6691.138774895422
 30
0.0
 11
6483.600000000008
 21
6691.138774895422
 31
0.0
  0
LINE
  5
2581D
330
747D
100
AcDbEntity
  8
部品1
 48
50.0
100
AcDbLine
 10
6683.600000000009
 20
6491.138774895422
 30
0.0
 11
6483.600000000008
 21
6491.138774895422
 31
0.0
  0
LINE
  5
2581E
330
747D
100
AcDbEntity
  8
センター
 48
2.0
100
AcDbLine
 10
6583.600000000008
 20
6641.138774895423
 30
0.0
 11
6583.600000000008
 21
6541.138774895422
 31
0.0
  0
LINE
  5
2581F
330
747D
100
AcDbEntity
  8
部品1
 48
50.0
100
AcDbLine
 10
6483.600000000008
 20
6491.138774895422
 30
0.0
 11
6483.600000000008
 21
6691.138774895422
 31
0.0
  0
LINE
  5
25820
330
747D
100
AcDbEntity
  8
部品1
 48
50.0
100
AcDbLine
 10
6683.600000000009
 20
6491.138774895422
 30
0.0
 11
6683.600000000009
 21
6691.138774895422
 31
0.0
  0
LINE
  5
25821
330
747D
100
AcDbEntity
  8
細線
 48
50.0
100
AcDbLine
 10
6073.600000000006
 20
7052.965144474642
 30
0.0
 11
6091.773630420819
 21
7071.138774895459
 31
0.0
  0
DIMENSION
  5
25822
330
747D
100
AcDbEntity
  8
寸法
 48
50.0
100
AcDbDimension
  2
*D41
 10
7403.600000000007
 20
7553.747591565671
 30
0.0
 11
7813.600000000008
 21
7653.759402589293
 31
0.0
 70
    32
 71
     5
 42
820.0
  3
INABA_S40G
100
AcDbAlignedDimension
 13
8223.600000000008
 23
6641.138774895423
 33
0.0
 14
7403.600000000007
 24
6641.138774895423
 34
0.0
100
AcDbRotatedDimension
1001
ACAD
1000
DSTYLE
1002
{
1070
   341
1005
0
1002
}
  0
LINE
  5
25823
330
747D
100
AcDbEntity
  8
細線
 48
50.0
100
AcDbLine
 10
6893.600000000008
 20
6873.360022053264
 30
0.0
 11
7091.378752842202
 21
7071.138774895456
 31
0.0
  0
LINE
  5
25824
330
747D
100
AcDbEntity
  8
細線
 48
50.0
100
AcDbLine
 10
6893.600000000008
 20
6918.261302658611
 30
0.0
 11
7046.477472236857
 21
7071.138774895456
 31
0.0
  0
LINE
  5
25825
330
747D
100
AcDbEntity
  8
細線
 48
50.0
100
AcDbLine
 10
6893.600000000009
 20
6963.162583263955
 30
0.0
 11
7001.57619163151
 21
7071.138774895456
 31
0.0
  0
LINE
  5
25826
330
747D
100
AcDbEntity
  8
細線
 48
50.0
100
AcDbLine
 10
6893.600000000008
 20
7008.063863869299
 30
0.0
 11
6956.674911026164
 21
7071.138774895458
 31
0.0
  0
LINE
  5
25827
330
747D
100
AcDbEntity
  8
部品1
 48
50.0
100
AcDbLine
 10
7093.600000000006
 20
7071.138774895458
 30
0.0
 11
7093.600000000009
 21
6871.138774895425
 31
0.0
  0
LINE
  5
25828
330
747D
100
AcDbEntity
  8
部品1
 48
50.0
100
AcDbLine
 10
6893.600000000006
 20
7071.138774895458
 30
0.0
 11
6893.600000000008
 21
6871.138774895425
 31
0.0
  0
LINE
  5
25829
330
747D
100
AcDbEntity
  8
細線
 48
50.0
100
AcDbLine
 10
6981.181314052877
 20
6871.138774895427
 30
0.0
 11
7093.600000000006
 21
6983.557460842572
 31
0.0
  0
LINE
  5
2582A
330
747D
100
AcDbEntity
  8
細線
 48
50.0
100
AcDbLine
 10
6936.280033447518
 20
6871.138774895425
 30
0.0
 11
7093.600000000006
 21
7028.458741447915
 31
0.0
  0
LINE
  5
2582B
330
747D
100
AcDbEntity
  8
細線
 48
50.0
100
AcDbLine
 10
7070.98387526357
 20
6871.138774895459
 30
0.0
 11
7093.600000000008
 21
6893.754899631895
 31
0.0
  0
LINE
  5
2582C
330
747D
100
AcDbEntity
  8
細線
 48
50.0
100
AcDbLine
 10
7026.082594658231
 20
6871.138774895459
 30
0.0
 11
7093.600000000008
 21
6938.656180237235
 31
0.0
  0
LINE
  5
2582D
330
747D
100
AcDbEntity
  8
センター
 48
2.0
100
AcDbLine
 10
7353.600000000007
 20
6591.138774895423
 30
0.0
 11
7453.600000000007
 21
6591.138774895423
 31
0.0
  0
LINE
  5
2582E
330
747D
100
AcDbEntity
  8
部品1
 48
50.0
100
AcDbLine
 10
7503.600000000007
 20
6691.138774895422
 30
0.0
 11
7303.600000000007
 21
6691.138774895422
 31
0.0
  0
LINE
  5
2582F
330
747D
100
AcDbEntity
  8
部品1
 48
50.0
100
AcDbLine
 10
7503.600000000007
 20
6491.138774895422
 30
0.0
 11
7303.600000000007
 21
6491.138774895422
 31
0.0
  0
LINE
  5
25830
330
747D
100
AcDbEntity
  8
センター
 48
2.0
100
AcDbLine
 10
7403.600000000007
 20
6641.138774895423
 30
0.0
 11
7403.600000000007
 21
6541.138774895422
 31
0.0
  0
LINE
  5
25831
330
747D
100
AcDbEntity
  8
部品1
 48
50.0
100
AcDbLine
 10
7303.600000000007
 20
6491.138774895422
 30
0.0
 11
7303.600000000007
 21
6691.138774895422
 31
0.0
  0
LINE
  5
25832
330
747D
100
AcDbEntity
  8
部品1
 48
50.0
100
AcDbLine
 10
7503.600000000007
 20
6491.138774895422
 30
0.0
 11
7503.600000000007
 21
6691.138774895422
 31
0.0
  0
LINE
  5
25833
330
747D
100
AcDbEntity
  8
センター
 48
2.0
100
AcDbLine
 10
7285.600000000001
 20
6998.138774895423
 30
0.0
 11
7285.600000000001
 21
6898.138774895423
 31
0.0
  0
CIRCLE
  5
25834
330
747D
100
AcDbEntity
  8
部品1
 48
50.0
100
AcDbCircle
 10
7285.600000000001
 20
6948.138774895423
 30
0.0
 40
35.0
  0
LINE
  5
25835
330
747D
100
AcDbEntity
  8
センター
 48
2.0
100
AcDbLine
 10
7235.600000000001
 20
6948.138774895423
 30
0.0
 11
7335.600000000001
 21
6948.138774895423
 31
0.0
  0
LINE
  5
25836
330
747D
100
AcDbEntity
  8
細線
 48
50.0
100
AcDbLine
 10
6893.600000000006
 20
7052.965144474642
 30
0.0
 11
6911.773630420821
 21
7071.138774895459
 31
0.0
  0
LINE
  5
25837
330
747D
100
AcDbEntity
  8
細線
 48
50.0
100
AcDbLine
 10
7713.60000000001
 20
6873.360022053264
 30
0.0
 11
7911.378752842202
 21
7071.138774895456
 31
0.0
  0
LINE
  5
25838
330
747D
100
AcDbEntity
  8
細線
 48
50.0
100
AcDbLine
 10
7713.600000000006
 20
6918.261302658608
 30
0.0
 11
7866.477472236856
 21
7071.138774895456
 31
0.0
  0
LINE
  5
25839
330
747D
100
AcDbEntity
  8
細線
 48
50.0
100
AcDbLine
 10
7713.600000000008
 20
6963.162583263953
 30
0.0
 11
7821.57619163151
 21
7071.138774895456
 31
0.0
  0
LINE
  5
2583A
330
747D
100
AcDbEntity
  8
細線
 48
50.0
100
AcDbLine
 10
7713.600000000008
 20
7008.063863869299
 30
0.0
 11
7776.674911026164
 21
7071.138774895458
 31
0.0
  0
LINE
  5
2583B
330
747D
100
AcDbEntity
  8
部品1
 48
50.0
100
AcDbLine
 10
7913.600000000006
 20
7071.138774895458
 30
0.0
 11
7913.600000000008
 21
6871.138774895425
 31
0.0
  0
LINE
  5
2583C
330
747D
100
AcDbEntity
  8
部品1
 48
50.0
100
AcDbLine
 10
7713.600000000006
 20
7071.138774895458
 30
0.0
 11
7713.60000000001
 21
6871.138774895425
 31
0.0
  0
LINE
  5
2583D
330
747D
100
AcDbEntity
  8
細線
 48
50.0
100
AcDbLine
 10
7801.181314052877
 20
6871.138774895427
 30
0.0
 11
7913.600000000006
 21
6983.557460842572
 31
0.0
  0
LINE
  5
2583E
330
747D
100
AcDbEntity
  8
細線
 48
50.0
100
AcDbLine
 10
7756.280033447516
 20
6871.138774895425
 30
0.0
 11
7913.600000000006
 21
7028.458741447915
 31
0.0
  0
LINE
  5
2583F
330
747D
100
AcDbEntity
  8
細線
 48
50.0
100
AcDbLine
 10
7890.983875263581
 20
6871.138774895465
 30
0.0
 11
7913.600000000021
 21
6893.7548996319
 31
0.0
  0
LINE
  5
25840
330
747D
100
AcDbEntity
  8
細線
 48
50.0
100
AcDbLine
 10
7846.082594658243
 20
6871.138774895465
 30
0.0
 11
7913.600000000021
 21
6938.656180237241
 31
0.0
  0
LINE
  5
25841
330
747D
100
AcDbEntity
  8
センター
 48
2.0
100
AcDbLine
 10
8173.600000000007
 20
6591.138774895423
 30
0.0
 11
8273.600000000007
 21
6591.138774895423
 31
0.0
  0
LINE
  5
25842
330
747D
100
AcDbEntity
  8
部品1
 48
50.0
100
AcDbLine
 10
8323.600000000007
 20
6691.138774895422
 30
0.0
 11
8123.600000000008
 21
6691.138774895422
 31
0.0
  0
LINE
  5
25843
330
747D
100
AcDbEntity
  8
部品1
 48
50.0
100
AcDbLine
 10
8323.600000000007
 20
6491.138774895422
 30
0.0
 11
8123.600000000008
 21
6491.138774895422
 31
0.0
  0
LINE
  5
25844
330
747D
100
AcDbEntity
  8
センター
 48
2.0
100
AcDbLine
 10
8223.600000000008
 20
6641.138774895423
 30
0.0
 11
8223.600000000008
 21
6541.138774895422
 31
0.0
  0
LINE
  5
25845
330
747D
100
AcDbEntity
  8
部品1
 48
50.0
100
AcDbLine
 10
8123.600000000008
 20
6491.138774895422
 30
0.0
 11
8123.600000000008
 21
6691.138774895422
 31
0.0
  0
LINE
  5
25846
330
747D
100
AcDbEntity
  8
部品1
 48
50.0
100
AcDbLine
 10
8323.600000000007
 20
6491.138774895422
 30
0.0
 11
8323.600000000007
 21
6691.138774895422
 31
0.0
  0
LINE
  5
25847
330
747D
100
AcDbEntity
  8
細線
 48
50.0
100
AcDbLine
 10
7713.600000000006
 20
7052.965144474642
 30
0.0
 11
7731.773630420821
 21
7071.138774895459
 31
0.0
  0
LINE
  5
2584A
102
{ACAD_REACTORS
330
25FF9
102
}
330
747D
100
AcDbEntity
  8
部品1
 48
50.0
100
AcDbLine
 10
11508.6
 20
6111.138774895441
 30
0.0
 11
11508.6
 21
7071.138774895423
 31
0.0
  0
LINE
  5
25851
330
747D
100
AcDbEntity
  8
細線
 48
50.0
100
AcDbLine
 10
8669.404364949119
 20
6111.13877489546
 30
0.0
 11
8733.600000000011
 21
6175.334409946351
 31
0.0
  0
LINE
  5
25852
330
747D
100
AcDbEntity
  8
細線
 48
50.0
100
AcDbLine
 10
8624.503084343775
 20
6111.13877489546
 30
0.0
 11
8733.600000000008
 21
6220.235690551694
 31
0.0
  0
LINE
  5
25853
330
747D
100
AcDbEntity
  8
細線
 48
50.0
100
AcDbLine
 10
8579.601803738425
 20
6111.13877489546
 30
0.0
 11
8733.600000000004
 21
6265.136971157033
 31
0.0
  0
LINE
  5
25854
330
747D
100
AcDbEntity
  8
細線
 48
50.0
100
AcDbLine
 10
8534.700523133082
 20
6111.13877489546
 30
0.0
 11
8733.6
 21
6310.038251762375
 31
0.0
  0
LINE
  5
25855
330
747D
100
AcDbEntity
  8
細線
 48
50.0
100
AcDbLine
 10
8533.600000000008
 20
6154.939532367731
 30
0.0
 11
8733.6
 21
6354.939532367716
 31
0.0
  0
LINE
  5
25856
330
747D
100
AcDbEntity
  8
部品1
 48
50.0
100
AcDbLine
 10
8733.599999999995
 20
6391.138774895439
 30
0.0
 11
8733.600000000011
 21
6111.138774895461
 31
0.0
  0
LINE
  5
25857
330
747D
100
AcDbEntity
  8
部品1
 48
50.0
100
AcDbLine
 10
8533.599999999999
 20
6391.138774895438
 30
0.0
 11
8533.60000000001
 21
6111.138774895458
 31
0.0
  0
LINE
  5
25858
330
747D
100
AcDbEntity
  8
細線
 48
50.0
100
AcDbLine
 10
8714.305645554466
 20
6111.138774895463
 30
0.0
 11
8733.600000000011
 21
6130.433129341006
 31
0.0
  0
LINE
  5
25859
330
747D
100
AcDbEntity
  8
細線
 48
50.0
100
AcDbLine
 10
8533.600000000005
 20
6199.840812973075
 30
0.0
 11
8724.897961922366
 21
6391.138774895439
 31
0.0
  0
LINE
  5
2585A
330
747D
100
AcDbEntity
  8
細線
 48
50.0
100
AcDbLine
 10
8533.600000000008
 20
6244.742093578422
 30
0.0
 11
8679.996681317026
 21
6391.13877489544
 31
0.0
  0
LINE
  5
2585B
330
747D
100
AcDbEntity
  8
細線
 48
50.0
100
AcDbLine
 10
8533.59999999995
 20
6289.643374183735
 30
0.0
 11
8635.095400711655
 21
6391.138774895439
 31
0.0
  0
LINE
  5
2585C
330
747D
100
AcDbEntity
  8
細線
 48
50.0
100
AcDbLine
 10
8533.599999999948
 20
6334.544654789078
 30
0.0
 11
8590.194120106298
 21
6391.138774895437
 31
0.0
  0
LINE
  5
2585D
330
747D
100
AcDbEntity
  8
センター
 48
2.0
100
AcDbLine
 10
8875.600000000007
 20
6309.138774895426
 30
0.0
 11
8975.600000000007
 21
6309.138774895426
 31
0.0
  0
CIRCLE
  5
2585E
330
747D
100
AcDbEntity
  8
部品1
 48
50.0
100
AcDbCircle
 10
8925.600000000008
 20
6309.138774895426
 30
0.0
 40
35.0
  0
LINE
  5
2585F
330
747D
100
AcDbEntity
  8
センター
 48
2.0
100
AcDbLine
 10
8925.600000000008
 20
6359.138774895427
 30
0.0
 11
8925.600000000008
 21
6259.138774895427
 31
0.0
  0
LINE
  5
25860
330
747D
100
AcDbEntity
  8
細線
 48
50.0
100
AcDbLine
 10
9489.40436494912
 20
6111.13877489546
 30
0.0
 11
9553.600000000011
 21
6175.334409946348
 31
0.0
  0
LINE
  5
25861
330
747D
100
AcDbEntity
  8
細線
 48
50.0
100
AcDbLine
 10
9444.503084343777
 20
6111.138774895461
 30
0.0
 11
9553.600000000008
 21
6220.235690551692
 31
0.0
  0
LINE
  5
25862
330
747D
100
AcDbEntity
  8
細線
 48
50.0
100
AcDbLine
 10
9399.601803738429
 20
6111.13877489546
 30
0.0
 11
9553.600000000008
 21
6265.136971157036
 31
0.0
  0
LINE
  5
25863
330
747D
100
AcDbEntity
  8
細線
 48
50.0
100
AcDbLine
 10
9354.700523133082
 20
6111.13877489546
 30
0.0
 11
9553.600000000004
 21
6310.038251762379
 31
0.0
  0
LINE
  5
25864
330
747D
100
AcDbEntity
  8
細線
 48
50.0
100
AcDbLine
 10
9353.600000000007
 20
6154.939532367731
 30
0.0
 11
9553.599999999997
 21
6354.939532367719
 31
0.0
  0
LINE
  5
25865
330
747D
100
AcDbEntity
  8
部品1
 48
50.0
100
AcDbLine
 10
9553.599999999994
 20
6391.138774895444
 30
0.0
 11
9553.600000000011
 21
6111.138774895461
 31
0.0
  0
LINE
  5
25866
330
747D
100
AcDbEntity
  8
部品1
 48
50.0
100
AcDbLine
 10
9353.599999999994
 20
6391.138774895442
 30
0.0
 11
9353.600000000012
 21
6111.138774895458
 31
0.0
  0
LINE
  5
25867
330
747D
100
AcDbEntity
  8
細線
 48
50.0
100
AcDbLine
 10
9534.305645554466
 20
6111.138774895463
 30
0.0
 11
9553.600000000011
 21
6130.433129341006
 31
0.0
  0
LINE
  5
25868
330
747D
100
AcDbEntity
  8
細線
 48
50.0
100
AcDbLine
 10
9353.600000000005
 20
6199.840812973075
 30
0.0
 11
9544.89796192238
 21
6391.138774895444
 31
0.0
  0
LINE
  5
25869
330
747D
100
AcDbEntity
  8
細線
 48
50.0
100
AcDbLine
 10
9353.600000000005
 20
6244.742093578419
 30
0.0
 11
9499.996681317028
 21
6391.138774895445
 31
0.0
  0
LINE
  5
2586A
330
747D
100
AcDbEntity
  8
細線
 48
50.0
100
AcDbLine
 10
9353.599999999946
 20
6334.544654789078
 30
0.0
 11
9410.194120106302
 21
6391.138774895442
 31
0.0
  0
LINE
  5
2586B
330
747D
100
AcDbEntity
  8
細線
 48
50.0
100
AcDbLine
 10
9353.599999999946
 20
6289.643374183735
 30
0.0
 11
9455.095400711661
 21
6391.138774895444
 31
0.0
  0
LINE
  5
2586C
330
747D
100
AcDbEntity
  8
細線
 48
50.0
100
AcDbLine
 10
10309.40436494912
 20
6111.13877489546
 30
0.0
 11
10373.60000000001
 21
6175.334409946351
 31
0.0
  0
LINE
  5
2586D
330
747D
100
AcDbEntity
  8
細線
 48
50.0
100
AcDbLine
 10
10264.50308434377
 20
6111.13877489546
 30
0.0
 11
10373.6
 21
6220.235690551694
 31
0.0
  0
LINE
  5
2586E
330
747D
100
AcDbEntity
  8
細線
 48
50.0
100
AcDbLine
 10
10219.60180373842
 20
6111.13877489546
 30
0.0
 11
10373.6
 21
6265.136971157034
 31
0.0
  0
LINE
  5
2586F
330
747D
100
AcDbEntity
  8
細線
 48
50.0
100
AcDbLine
 10
10174.70052313308
 20
6111.138774895458
 30
0.0
 11
10373.6
 21
6310.038251762382
 31
0.0
  0
LINE
  5
25870
330
747D
100
AcDbEntity
  8
細線
 48
50.0
100
AcDbLine
 10
10173.60000000001
 20
6154.939532367734
 30
0.0
 11
10373.59999999999
 21
6354.939532367724
 31
0.0
  0
LINE
  5
25871
330
747D
100
AcDbEntity
  8
部品1
 48
50.0
100
AcDbLine
 10
10373.59999999999
 20
6391.138774895448
 30
0.0
 11
10373.60000000001
 21
6111.138774895461
 31
0.0
  0
LINE
  5
25872
330
747D
100
AcDbEntity
  8
部品1
 48
50.0
100
AcDbLine
 10
10173.6
 20
6391.138774895449
 30
0.0
 11
10173.60000000001
 21
6111.138774895458
 31
0.0
  0
LINE
  5
25873
330
747D
100
AcDbEntity
  8
細線
 48
50.0
100
AcDbLine
 10
10354.30564555446
 20
6111.13877489546
 30
0.0
 11
10373.60000000001
 21
6130.433129341008
 31
0.0
  0
LINE
  5
25874
330
747D
100
AcDbEntity
  8
細線
 48
50.0
100
AcDbLine
 10
10173.6
 20
6199.840812973077
 30
0.0
 11
10364.89796192238
 21
6391.138774895449
 31
0.0
  0
LINE
  5
25875
330
747D
100
AcDbEntity
  8
細線
 48
50.0
100
AcDbLine
 10
10173.6
 20
6244.74209357842
 30
0.0
 11
10319.99668131705
 21
6391.138774895449
 31
0.0
  0
LINE
  5
25876
330
747D
100
AcDbEntity
  8
細線
 48
50.0
100
AcDbLine
 10
10173.59999999996
 20
6289.643374183735
 30
0.0
 11
10275.09540071167
 21
6391.138774895448
 31
0.0
  0
LINE
  5
25877
330
747D
100
AcDbEntity
  8
細線
 48
50.0
100
AcDbLine
 10
10173.59999999996
 20
6334.544654789078
 30
0.0
 11
10230.19412010632
 21
6391.138774895448
 31
0.0
  0
LINE
  5
25878
330
747D
100
AcDbEntity
  8
細線
 48
50.0
100
AcDbLine
 10
11129.40436494912
 20
6111.13877489546
 30
0.0
 11
11193.60000000001
 21
6175.334409946348
 31
0.0
  0
LINE
  5
25879
330
747D
100
AcDbEntity
  8
細線
 48
50.0
100
AcDbLine
 10
11084.50308434377
 20
6111.13877489546
 30
0.0
 11
11193.60000000001
 21
6220.235690551692
 31
0.0
  0
LINE
  5
2587A
330
747D
100
AcDbEntity
  8
細線
 48
50.0
100
AcDbLine
 10
11039.60180373842
 20
6111.13877489546
 30
0.0
 11
11193.60000000001
 21
6265.136971157036
 31
0.0
  0
LINE
  5
2587B
330
747D
100
AcDbEntity
  8
細線
 48
50.0
100
AcDbLine
 10
10994.70052313308
 20
6111.138774895458
 30
0.0
 11
11193.6
 21
6310.038251762382
 31
0.0
  0
LINE
  5
2587C
330
747D
100
AcDbEntity
  8
細線
 48
50.0
100
AcDbLine
 10
10993.60000000001
 20
6154.939532367734
 30
0.0
 11
11193.6
 21
6354.939532367728
 31
0.0
  0
LINE
  5
2587D
330
747D
100
AcDbEntity
  8
部品1
 48
50.0
100
AcDbLine
 10
11193.6
 20
6391.138774895456
 30
0.0
 11
11193.60000000001
 21
6111.138774895461
 31
0.0
  0
LINE
  5
2587E
330
747D
100
AcDbEntity
  8
部品1
 48
50.0
100
AcDbLine
 10
10993.59999999999
 20
6391.138774895453
 30
0.0
 11
10993.60000000001
 21
6111.138774895458
 31
0.0
  0
LINE
  5
2587F
330
747D
100
AcDbEntity
  8
細線
 48
50.0
100
AcDbLine
 10
11174.30564555446
 20
6111.138774895463
 30
0.0
 11
11193.60000000001
 21
6130.433129341006
 31
0.0
  0
LINE
  5
25880
330
747D
100
AcDbEntity
  8
細線
 48
50.0
100
AcDbLine
 10
10993.6
 20
6199.840812973077
 30
0.0
 11
11184.89796192238
 21
6391.138774895456
 31
0.0
  0
LINE
  5
25881
330
747D
100
AcDbEntity
  8
細線
 48
50.0
100
AcDbLine
 10
10993.59999999996
 20
6334.544654789084
 30
0.0
 11
11050.19412010632
 21
6391.138774895454
 31
0.0
  0
LINE
  5
25882
330
747D
100
AcDbEntity
  8
細線
 48
50.0
100
AcDbLine
 10
10993.59999999996
 20
6289.643374183739
 30
0.0
 11
11095.09540071168
 21
6391.138774895456
 31
0.0
  0
LINE
  5
25883
330
747D
100
AcDbEntity
  8
細線
 48
50.0
100
AcDbLine
 10
10993.6
 20
6244.74209357842
 30
0.0
 11
11139.99668131705
 21
6391.138774895454
 31
0.0
  0
LINE
  5
25884
330
747D
100
AcDbEntity
  8
センター
 48
2.0
100
AcDbLine
 10
11335.60000000001
 20
6309.138774895426
 30
0.0
 11
11435.60000000001
 21
6309.138774895426
 31
0.0
  0
LINE
  5
25885
330
747D
100
AcDbEntity
  8
センター
 48
2.0
100
AcDbLine
 10
11385.60000000001
 20
6359.138774895427
 30
0.0
 11
11385.60000000001
 21
6259.138774895427
 31
0.0
  0
CIRCLE
  5
25886
330
747D
100
AcDbEntity
  8
部品1
 48
50.0
100
AcDbCircle
 10
11385.60000000001
 20
6309.138774895426
 30
0.0
 40
35.0
  0
DIMENSION
  5
25888
330
747D
100
AcDbEntity
  8
寸法
 48
50.0
100
AcDbDimension
  2
*D42
 10
11385.6
 20
7797.405232989333
 30
0.0
 11
11781.7066017178
 21
7797.405232989333
 31
0.0
 70
   160
 71
     5
 42
123.0
  3
INABA_S40G
100
AcDbAlignedDimension
 13
11508.6
 23
7071.138774895423
 33
0.0
 14
11385.6
 24
6998.138774895423
 34
0.0
100
AcDbRotatedDimension
1001
ACAD
1000
DSTYLE
1002
{
1070
   341
1005
0
1002
}
  0
DIMENSION
  5
2588A
330
747D
100
AcDbEntity
  8
寸法
 48
50.0
100
AcDbDimension
  2
*D43
 10
8925.600000000001
 20
7797.405232989333
 30
0.0
 11
10155.6
 21
7897.417044012955
 31
0.0
 70
    32
 71
     5
 42
2460.0
  3
INABA_S40G
100
AcDbAlignedDimension
 13
11385.6
 23
6998.138774895423
 33
0.0
 14
8925.600000000001
 24
6998.138774895423
 34
0.0
100
AcDbRotatedDimension
1001
ACAD
1000
DSTYLE
1002
{
1070
   341
1005
0
1002
}
  0
DIMENSION
  5
2588B
330
747D
100
AcDbEntity
  8
寸法
 48
50.0
100
AcDbDimension
  2
*D44
 10
9863.600000000008
 20
7553.747591565671
 30
0.0
 11
10273.6
 21
7653.759402589293
 31
0.0
 70
    32
 71
     5
 42
820.0
  3
INABA_S40G
100
AcDbAlignedDimension
 13
10683.60000000001
 23
6641.138774895423
 33
0.0
 14
9863.600000000008
 24
6641.138774895423
 34
0.0
100
AcDbRotatedDimension
1001
ACAD
1000
DSTYLE
1002
{
1070
   341
1005
0
1002
}
  0
DIMENSION
  5
2588C
330
747D
100
AcDbEntity
  8
寸法
 48
50.0
100
AcDbDimension
  2
*D45
 10
9043.600000000008
 20
7553.747591565671
 30
0.0
 11
9453.600000000006
 21
7653.759402589293
 31
0.0
 70
    32
 71
     5
 42
820.0
  3
INABA_S40G
100
AcDbAlignedDimension
 13
9863.600000000008
 23
6641.138774895423
 33
0.0
 14
9043.600000000008
 24
6641.138774895423
 34
0.0
100
AcDbRotatedDimension
1001
ACAD
1000
DSTYLE
1002
{
1070
   341
1005
0
1002
}
  0
LINE
  5
2588D
330
747D
100
AcDbEntity
  8
細線
 48
50.0
100
AcDbLine
 10
8533.600000000012
 20
6873.360022053264
 30
0.0
 11
8731.378752842202
 21
7071.138774895456
 31
0.0
  0
LINE
  5
2588E
330
747D
100
AcDbEntity
  8
細線
 48
50.0
100
AcDbLine
 10
8533.60000000001
 20
6918.261302658611
 30
0.0
 11
8686.477472236857
 21
7071.138774895456
 31
0.0
  0
LINE
  5
2588F
330
747D
100
AcDbEntity
  8
細線
 48
50.0
100
AcDbLine
 10
8533.60000000001
 20
6963.162583263954
 30
0.0
 11
8641.576191631509
 21
7071.138774895456
 31
0.0
  0
LINE
  5
25890
330
747D
100
AcDbEntity
  8
細線
 48
50.0
100
AcDbLine
 10
8533.600000000008
 20
7008.063863869299
 30
0.0
 11
8596.674911026164
 21
7071.138774895458
 31
0.0
  0
LINE
  5
25891
330
747D
100
AcDbEntity
  8
部品1
 48
50.0
100
AcDbLine
 10
8733.600000000004
 20
7071.138774895458
 30
0.0
 11
8733.600000000011
 21
6871.138774895425
 31
0.0
  0
LINE
  5
25892
330
747D
100
AcDbEntity
  8
部品1
 48
50.0
100
AcDbLine
 10
8533.600000000005
 20
7071.138774895458
 30
0.0
 11
8533.60000000001
 21
6871.138774895425
 31
0.0
  0
LINE
  5
25893
330
747D
100
AcDbEntity
  8
細線
 48
50.0
100
AcDbLine
 10
8621.181314052863
 20
6871.138774895427
 30
0.0
 11
8733.600000000004
 21
6983.557460842567
 31
0.0
  0
LINE
  5
25894
330
747D
100
AcDbEntity
  8
細線
 48
50.0
100
AcDbLine
 10
8576.280033447517
 20
6871.138774895425
 30
0.0
 11
8733.600000000004
 21
7028.458741447915
 31
0.0
  0
LINE
  5
25895
330
747D
100
AcDbEntity
  8
細線
 48
50.0
100
AcDbLine
 10
8710.983875263583
 20
6871.138774895465
 30
0.0
 11
8733.600000000018
 21
6893.7548996319
 31
0.0
  0
LINE
  5
25896
330
747D
100
AcDbEntity
  8
細線
 48
50.0
100
AcDbLine
 10
8666.082594658243
 20
6871.138774895465
 30
0.0
 11
8733.600000000018
 21
6938.656180237241
 31
0.0
  0
LINE
  5
25897
330
747D
100
AcDbEntity
  8
センター
 48
2.0
100
AcDbLine
 10
8993.600000000007
 20
6591.138774895423
 30
0.0
 11
9093.600000000007
 21
6591.138774895423
 31
0.0
  0
LINE
  5
25898
330
747D
100
AcDbEntity
  8
部品1
 48
50.0
100
AcDbLine
 10
9143.600000000008
 20
6691.138774895422
 30
0.0
 11
8943.600000000008
 21
6691.138774895422
 31
0.0
  0
LINE
  5
25899
330
747D
100
AcDbEntity
  8
部品1
 48
50.0
100
AcDbLine
 10
9143.600000000008
 20
6491.138774895422
 30
0.0
 11
8943.600000000008
 21
6491.138774895422
 31
0.0
  0
LINE
  5
2589A
330
747D
100
AcDbEntity
  8
センター
 48
2.0
100
AcDbLine
 10
9043.600000000008
 20
6641.138774895423
 30
0.0
 11
9043.600000000008
 21
6541.138774895422
 31
0.0
  0
LINE
  5
2589B
330
747D
100
AcDbEntity
  8
部品1
 48
50.0
100
AcDbLine
 10
8943.600000000008
 20
6491.138774895422
 30
0.0
 11
8943.600000000008
 21
6691.138774895422
 31
0.0
  0
LINE
  5
2589C
330
747D
100
AcDbEntity
  8
部品1
 48
50.0
100
AcDbLine
 10
9143.600000000008
 20
6491.138774895422
 30
0.0
 11
9143.600000000008
 21
6691.138774895422
 31
0.0
  0
LINE
  5
2589D
330
747D
100
AcDbEntity
  8
センター
 48
2.0
100
AcDbLine
 10
8875.6
 20
6948.138774895423
 30
0.0
 11
8975.6
 21
6948.138774895423
 31
0.0
  0
LINE
  5
2589E
330
747D
100
AcDbEntity
  8
センター
 48
2.0
100
AcDbLine
 10
8925.600000000001
 20
6998.138774895423
 30
0.0
 11
8925.600000000001
 21
6898.138774895423
 31
0.0
  0
CIRCLE
  5
2589F
330
747D
100
AcDbEntity
  8
部品1
 48
50.0
100
AcDbCircle
 10
8925.600000000001
 20
6948.138774895423
 30
0.0
 40
35.0
  0
LINE
  5
258A0
330
747D
100
AcDbEntity
  8
細線
 48
50.0
100
AcDbLine
 10
8533.600000000005
 20
7052.965144474642
 30
0.0
 11
8551.77363042082
 21
7071.138774895459
 31
0.0
  0
LINE
  5
258A1
330
747D
100
AcDbEntity
  8
細線
 48
50.0
100
AcDbLine
 10
9353.600000000016
 20
6873.360022053264
 30
0.0
 11
9551.378752842202
 21
7071.138774895458
 31
0.0
  0
LINE
  5
258A2
330
747D
100
AcDbEntity
  8
細線
 48
50.0
100
AcDbLine
 10
9353.600000000016
 20
6918.261302658617
 30
0.0
 11
9506.477472236857
 21
7071.138774895456
 31
0.0
  0
LINE
  5
258A3
330
747D
100
AcDbEntity
  8
細線
 48
50.0
100
AcDbLine
 10
9353.600000000012
 20
6963.162583263957
 30
0.0
 11
9461.576191631513
 21
7071.138774895458
 31
0.0
  0
LINE
  5
258A4
330
747D
100
AcDbEntity
  8
細線
 48
50.0
100
AcDbLine
 10
9353.600000000005
 20
7008.063863869297
 30
0.0
 11
9416.674911026165
 21
7071.138774895458
 31
0.0
  0
LINE
  5
258A5
330
747D
100
AcDbEntity
  8
部品1
 48
50.0
100
AcDbLine
 10
9553.600000000004
 20
7071.138774895458
 30
0.0
 11
9553.600000000011
 21
6871.138774895425
 31
0.0
  0
LINE
  5
258A6
330
747D
100
AcDbEntity
  8
部品1
 48
50.0
100
AcDbLine
 10
9353.600000000005
 20
7071.138774895458
 30
0.0
 11
9353.600000000016
 21
6871.138774895425
 31
0.0
  0
LINE
  5
258A9
330
747D
100
AcDbEntity
  8
細線
 48
50.0
100
AcDbLine
 10
9441.18131405286
 20
6871.138774895425
 30
0.0
 11
9553.600000000004
 21
6983.557460842567
 31
0.0
  0
LINE
  5
258AA
330
747D
100
AcDbEntity
  8
細線
 48
50.0
100
AcDbLine
 10
9396.280033447515
 20
6871.138774895425
 30
0.0
 11
9553.600000000004
 21
7028.458741447913
 31
0.0
  0
LINE
  5
258AB
330
747D
100
AcDbEntity
  8
細線
 48
50.0
100
AcDbLine
 10
9530.983875263546
 20
6871.138774895467
 30
0.0
 11
9553.599999999981
 21
6893.754899631902
 31
0.0
  0
LINE
  5
258AC
330
747D
100
AcDbEntity
  8
細線
 48
50.0
100
AcDbLine
 10
9486.082594658206
 20
6871.138774895467
 30
0.0
 11
9553.599999999981
 21
6938.656180237242
 31
0.0
  0
LINE
  5
258AD
330
747D
100
AcDbEntity
  8
センター
 48
2.0
100
AcDbLine
 10
9813.600000000008
 20
6591.138774895423
 30
0.0
 11
9913.600000000009
 21
6591.138774895423
 31
0.0
  0
LINE
  5
258AE
330
747D
100
AcDbEntity
  8
部品1
 48
50.0
100
AcDbLine
 10
9963.600000000008
 20
6691.138774895422
 30
0.0
 11
9763.600000000009
 21
6691.138774895422
 31
0.0
  0
LINE
  5
258AF
330
747D
100
AcDbEntity
  8
部品1
 48
50.0
100
AcDbLine
 10
9963.600000000008
 20
6491.138774895422
 30
0.0
 11
9763.600000000009
 21
6491.138774895422
 31
0.0
  0
LINE
  5
258B0
330
747D
100
AcDbEntity
  8
センター
 48
2.0
100
AcDbLine
 10
9863.600000000008
 20
6641.138774895423
 30
0.0
 11
9863.600000000008
 21
6541.138774895422
 31
0.0
  0
LINE
  5
258B1
330
747D
100
AcDbEntity
  8
部品1
 48
50.0
100
AcDbLine
 10
9763.600000000009
 20
6491.138774895422
 30
0.0
 11
9763.600000000009
 21
6691.138774895422
 31
0.0
  0
LINE
  5
258B2
330
747D
100
AcDbEntity
  8
部品1
 48
50.0
100
AcDbLine
 10
9963.600000000008
 20
6491.138774895422
 30
0.0
 11
9963.600000000008
 21
6691.138774895422
 31
0.0
  0
LINE
  5
258B3
330
747D
100
AcDbEntity
  8
細線
 48
50.0
100
AcDbLine
 10
9353.600000000005
 20
7052.965144474642
 30
0.0
 11
9371.773630420822
 21
7071.138774895459
 31
0.0
  0
DIMENSION
  5
258B4
330
747D
100
AcDbEntity
  8
寸法
 48
50.0
100
AcDbDimension
  2
*D46
 10
10683.60000000001
 20
7553.747591565671
 30
0.0
 11
11096.1
 21
7653.759402589293
 31
0.0
 70
    32
 71
     5
 42
824.9999999999927
  3
INABA_S40G
100
AcDbAlignedDimension
 13
11508.6
 23
7071.138774895423
 33
0.0
 14
10683.60000000001
 24
6641.138774895423
 34
0.0
100
AcDbRotatedDimension
1001
ACAD
1000
DSTYLE
1002
{
1070
   341
1005
0
1002
}
  0
LINE
  5
258B5
330
747D
100
AcDbEntity
  8
細線
 48
50.0
100
AcDbLine
 10
10173.60000000001
 20
6873.360022053275
 30
0.0
 11
10371.3787528422
 21
7071.138774895456
 31
0.0
  0
LINE
  5
258B6
330
747D
100
AcDbEntity
  8
細線
 48
50.0
100
AcDbLine
 10
10173.60000000001
 20
6918.261302658613
 30
0.0
 11
10326.47747223686
 21
7071.138774895456
 31
0.0
  0
LINE
  5
258B7
330
747D
100
AcDbEntity
  8
細線
 48
50.0
100
AcDbLine
 10
10173.60000000001
 20
6963.162583263957
 30
0.0
 11
10281.5761916315
 21
7071.138774895456
 31
0.0
  0
LINE
  5
258B8
330
747D
100
AcDbEntity
  8
細線
 48
50.0
100
AcDbLine
 10
10173.6
 20
7008.063863869297
 30
0.0
 11
10236.67491102616
 21
7071.138774895458
 31
0.0
  0
LINE
  5
258B9
330
747D
100
AcDbEntity
  8
部品1
 48
50.0
100
AcDbLine
 10
10373.6
 20
7071.138774895458
 30
0.0
 11
10373.60000000001
 21
6871.138774895425
 31
0.0
  0
LINE
  5
258BA
330
747D
100
AcDbEntity
  8
部品1
 48
50.0
100
AcDbLine
 10
10173.6
 20
7071.138774895458
 30
0.0
 11
10173.60000000001
 21
6871.138774895425
 31
0.0
  0
LINE
  5
258BB
330
747D
100
AcDbEntity
  8
細線
 48
50.0
100
AcDbLine
 10
10261.18131405286
 20
6871.138774895427
 30
0.0
 11
10373.6
 21
6983.557460842567
 31
0.0
  0
LINE
  5
258BC
330
747D
100
AcDbEntity
  8
細線
 48
50.0
100
AcDbLine
 10
10216.28003344751
 20
6871.138774895425
 30
0.0
 11
10373.6
 21
7028.458741447915
 31
0.0
  0
LINE
  5
258BD
330
747D
100
AcDbEntity
  8
細線
 48
50.0
100
AcDbLine
 10
10350.98387526355
 20
6871.13877489547
 30
0.0
 11
10373.59999999999
 21
6893.754899631907
 31
0.0
  0
LINE
  5
258BE
330
747D
100
AcDbEntity
  8
細線
 48
50.0
100
AcDbLine
 10
10306.08259465821
 20
6871.13877489547
 30
0.0
 11
10373.59999999999
 21
6938.656180237247
 31
0.0
  0
LINE
  5
258BF
330
747D
100
AcDbEntity
  8
センター
 48
2.0
100
AcDbLine
 10
10633.6
 20
6591.138774895423
 30
0.0
 11
10733.6
 21
6591.138774895423
 31
0.0
  0
LINE
  5
258C0
330
747D
100
AcDbEntity
  8
部品1
 48
50.0
100
AcDbLine
 10
10783.60000000001
 20
6691.138774895422
 30
0.0
 11
10583.60000000001
 21
6691.138774895422
 31
0.0
  0
LINE
  5
258C1
330
747D
100
AcDbEntity
  8
部品1
 48
50.0
100
AcDbLine
 10
10783.60000000001
 20
6491.138774895422
 30
0.0
 11
10583.60000000001
 21
6491.138774895422
 31
0.0
  0
LINE
  5
258C2
330
747D
100
AcDbEntity
  8
センター
 48
2.0
100
AcDbLine
 10
10683.60000000001
 20
6641.138774895423
 30
0.0
 11
10683.60000000001
 21
6541.138774895422
 31
0.0
  0
LINE
  5
258C3
330
747D
100
AcDbEntity
  8
部品1
 48
50.0
100
AcDbLine
 10
10583.60000000001
 20
6491.138774895422
 30
0.0
 11
10583.60000000001
 21
6691.138774895422
 31
0.0
  0
LINE
  5
258C4
330
747D
100
AcDbEntity
  8
部品1
 48
50.0
100
AcDbLine
 10
10783.60000000001
 20
6491.138774895422
 30
0.0
 11
10783.60000000001
 21
6691.138774895422
 31
0.0
  0
LINE
  5
258C5
330
747D
100
AcDbEntity
  8
細線
 48
50.0
100
AcDbLine
 10
10173.6
 20
7052.965144474642
 30
0.0
 11
10191.77363042082
 21
7071.138774895456
 31
0.0
  0
LINE
  5
258C6
330
747D
100
AcDbEntity
  8
細線
 48
50.0
100
AcDbLine
 10
10993.60000000001
 20
6873.360022053268
 30
0.0
 11
11191.3787528422
 21
7071.138774895458
 31
0.0
  0
LINE
  5
258C7
330
747D
100
AcDbEntity
  8
細線
 48
50.0
100
AcDbLine
 10
10993.60000000001
 20
6918.261302658613
 30
0.0
 11
11146.47747223686
 21
7071.138774895456
 31
0.0
  0
LINE
  5
258C8
330
747D
100
AcDbEntity
  8
細線
 48
50.0
100
AcDbLine
 10
10993.6
 20
6963.162583263954
 30
0.0
 11
11101.57619163151
 21
7071.138774895458
 31
0.0
  0
LINE
  5
258C9
330
747D
100
AcDbEntity
  8
細線
 48
50.0
100
AcDbLine
 10
10993.6
 20
7008.063863869297
 30
0.0
 11
11056.67491102616
 21
7071.138774895458
 31
0.0
  0
LINE
  5
258CA
330
747D
100
AcDbEntity
  8
部品1
 48
50.0
100
AcDbLine
 10
11193.6
 20
7071.138774895458
 30
0.0
 11
11193.60000000001
 21
6871.138774895425
 31
0.0
  0
LINE
  5
258CB
330
747D
100
AcDbEntity
  8
部品1
 48
50.0
100
AcDbLine
 10
10993.6
 20
7071.138774895458
 30
0.0
 11
10993.60000000001
 21
6871.138774895425
 31
0.0
  0
LINE
  5
258CC
330
747D
100
AcDbEntity
  8
細線
 48
50.0
100
AcDbLine
 10
11081.18131405286
 20
6871.138774895425
 30
0.0
 11
11193.6
 21
6983.557460842567
 31
0.0
  0
LINE
  5
258CD
330
747D
100
AcDbEntity
  8
細線
 48
50.0
100
AcDbLine
 10
11036.28003344751
 20
6871.138774895425
 30
0.0
 11
11193.6
 21
7028.458741447913
 31
0.0
  0
LINE
  5
258CE
330
747D
100
AcDbEntity
  8
細線
 48
50.0
100
AcDbLine
 10
11170.98387526355
 20
6871.13877489547
 30
0.0
 11
11193.59999999999
 21
6893.754899631907
 31
0.0
  0
LINE
  5
258CF
330
747D
100
AcDbEntity
  8
細線
 48
50.0
100
AcDbLine
 10
11126.08259465821
 20
6871.13877489547
 30
0.0
 11
11193.59999999999
 21
6938.656180237247
 31
0.0
  0
LINE
  5
258D0
102
{ACAD_REACTORS
330
25FF9
102
}
330
747D
100
AcDbEntity
  8
部品1
 48
50.0
100
AcDbLine
 10
11508.59999999999
 20
6716.138774895468
 30
0.0
 11
11388.6
 21
6716.138774895468
 31
0.0
  0
LINE
  5
258D1
102
{ACAD_REACTORS
330
25FF9
102
}
330
747D
100
AcDbEntity
  8
部品1
 48
50.0
100
AcDbLine
 10
11508.59999999999
 20
6516.138774895468
 30
0.0
 11
11388.6
 21
6516.138774895468
 31
0.0
  0
LINE
  5
258D3
330
747D
100
AcDbEntity
  8
センター
 48
2.0
100
AcDbLine
 10
11385.6
 20
6998.138774895423
 30
0.0
 11
11385.6
 21
6898.138774895423
 31
0.0
  0
LINE
  5
258D4
330
747D
100
AcDbEntity
  8
センター
 48
2.0
100
AcDbLine
 10
11335.6
 20
6948.138774895423
 30
0.0
 11
11435.6
 21
6948.138774895423
 31
0.0
  0
CIRCLE
  5
258D5
330
747D
100
AcDbEntity
  8
部品1
 48
50.0
100
AcDbCircle
 10
11385.6
 20
6948.138774895423
 30
0.0
 40
35.0
  0
LINE
  5
258D6
330
747D
100
AcDbEntity
  8
細線
 48
50.0
100
AcDbLine
 10
10993.6
 20
7052.965144474642
 30
0.0
 11
11011.77363042082
 21
7071.138774895456
 31
0.0
  0
TEXT
  5
25F96
330
747D
100
AcDbEntity
  8
文字
 62
     7
 48
50.0
100
AcDbText
 10
14251.2
 20
838.2527270729188
 30
0.0
 40
100.0
  1
～一般型・多雪地型・豪雪地型～
  7
STYLE2
100
AcDbText
  0
LINE
  5
25FB6
330
747D
100
AcDbEntity
  8
部品1
 48
50.0
100
AcDbLine
 10
11388.6
 20
6391.138774895456
 30
0.0
 11
5058.599999999998
 21
6391.138774895414
 31
0.0
  0
LINE
  5
25FD4
102
{ACAD_REACTORS
330
25FF9
102
}
330
747D
100
AcDbEntity
  8
部品1
 48
50.0
100
AcDbLine
 10
11388.6
 20
6391.138774895456
 30
0.0
 11
11388.6
 21
6871.138774895425
 31
0.0
  0
LINE
  5
25FD5
102
{ACAD_REACTORS
330
25FEA
102
}
330
747D
100
AcDbEntity
  8
部品1
 48
50.0
100
AcDbLine
 10
5058.6
 20
6391.138774895414
 30
0.0
 11
5058.599999999997
 21
6871.138774895425
 31
0.0
  0
HATCH
  5
25FEA
330
747D
100
AcDbEntity
  8
細線
 48
50.0
100
AcDbHatch
 10
0.0
 20
0.0
 30
0.0
210
0.0
220
0.0
230
1.0
  2
LINE
 70
     0
 71
     1
 91
        1
 92
        7
 72
     0
 73
     1
 93
        4
 10
5058.599999999998
 20
6716.138774895468
 10
4938.6
 20
6716.138774895469
 10
4938.6
 20
6516.13877489547
 10
5058.599999999998
 20
6516.138774895468
 97
        4
330
257F6
330
257AF
330
257F7
330
25FD5
 75
     0
 76
     1
 52
45.0
 41
10.0
 77
     0
 78
     1
 53
45.0
 43
0.0
 44
0.0
 45
-22.45064030267288
 46
22.45064030267288
 79
     0
 47
2.904992281489852
 98
        1
 10
5045.58059357354
 20
6658.251454109453
  0
HATCH
  5
25FF9
330
747D
100
AcDbEntity
  8
細線
 48
50.0
100
AcDbHatch
 10
0.0
 20
0.0
 30
0.0
210
0.0
220
0.0
230
1.0
  2
LINE
 70
     0
 71
     1
 91
        1
 92
        7
 72
     0
 73
     1
 93
        4
 10
11508.6
 20
6716.138774895468
 10
11388.6
 20
6716.138774895468
 10
11388.6
 20
6516.138774895468
 10
11508.6
 20
6516.138774895468
 97
        4
330
258D0
330
25FD4
330
258D1
330
2584A
 75
     0
 76
     1
 52
45.0
 41
10.0
 77
     0
 78
     1
 53
45.0
 43
0.0
 44
0.0
 45
-22.45064030267288
 46
22.45064030267288
 79
     0
 47
2.888359948963543
 98
        1
 10
11478.4517205257
 20
6596.002632520608
  0
LINE
  5
26187
330
747D
100
AcDbEntity
  8
部品1
100
AcDbLine
 10
11236.14649044998
 20
3416.81665256255
 30
0.0
 11
5165.161305063724
 21
3416.81665256255
 31
0.0
  0
LINE
  5
26188
330
747D
100
AcDbEntity
  8
部品1
100
AcDbLine
 10
11236.14649044997
 20
3176.816652562548
 30
0.0
 11
5165.161305063728
 21
3176.816652562548
 31
0.0
  0
LINE
  5
26189
330
747D
100
AcDbEntity
  8
部品1
100
AcDbLine
 10
5165.16130506373
 20
452.5096829779022
 30
0.0
 11
11236.14649044997
 21
452.5096829779022
 31
0.0
  0
LEADER
  5
2618A
330
747D
100
AcDbEntity
  8
寸法
 48
50.0
100
AcDbLeader
  3
INABA_S50G
 73
     0
 74
     0
 75
     1
 40
102.2727272727273
 41
680.0000000000001
 76
     3
 10
8173.269057050184
 20
2416.353266471107
 30
0.0
 10
8207.62302816354
 20
2826.806077577648
 30
0.0
 10
8332.62302816354
 20
2826.806077577648
 30
0.0
340
2618B
1001
ACAD
1000
DSTYLE
1002
{
1070
   341
1005
0
1070
    40
1040
1.0
1070
   343
1005
0
1070
   344
1005
0
1002
}
  0
MTEXT
  5
2618B
102
{ACAD_REACTORS
330
2618A
102
}
330
747D
100
AcDbEntity
  8
部品1
 62
     7
 48
50.0
100
AcDbMText
 10
8357.623028163541
 20
2902.942441214012
 30
0.0
 40
80.0
 41
0.8
 71
     4
 72
     1
  1
\A1;ナット(市販品)
  7
STYLE2
 73
     1
 44
1.0
1001
ACAD
1000
MTEXTBEGIN
1070
    73
1070
     1
1070
    44
1040
1.0
1070
    74
1070
     0
1000
MTEXTEND
  0
LEADER
  5
2618C
330
747D
100
AcDbEntity
  8
寸法
 48
50.0
100
AcDbLeader
  3
INABA_S50G
 73
     0
 74
     0
 75
     1
 40
102.2727272727273
 41
906.8181818181818
 76
     3
 10
8197.269057050183
 20
2286.601273806244
 30
0.0
 10
8239.140647419024
 20
2641.836994812861
 30
0.0
 10
8364.140647419024
 20
2641.836994812861
 30
0.0
340
2618D
1001
ACAD
1000
DSTYLE
1002
{
1070
   341
1005
0
1070
    40
1040
1.0
1070
   343
1005
0
1070
   344
1005
0
1002
}
  0
MTEXT
  5
2618D
102
{ACAD_REACTORS
330
2618C
102
}
330
747D
100
AcDbEntity
  8
部品1
 62
     7
 48
50.0
100
AcDbMText
 10
8389.140647419024
 20
2717.973358449225
 30
0.0
 40
80.0
 41
0.8
 71
     4
 72
     1
  1
\A1;ワッシャー(市販品)
  7
STYLE2
 73
     1
 44
1.0
1001
ACAD
1000
MTEXTBEGIN
1070
    73
1070
     1
1070
    44
1040
1.0
1070
    74
1070
     0
1000
MTEXTEND
  0
LWPOLYLINE
  5
2618E
330
747D
100
AcDbEntity
  8
部品1
 48
50.0
100
AcDbPolyline
 90
        2
 70
     0
 43
8.0
 10
8349.869057050183
 20
1777.477985361965
 10
8643.571520449567
 20
1777.477985361965
  0
TEXT
  5
2618F
330
747D
100
AcDbEntity
  8
部品1
 48
50.0
100
AcDbText
 10
8354.222641334612
 20
2373.356666124164
 30
0.0
 40
80.0
  1
基礎ボルト(市販品)
  7
STYLE2
100
AcDbText
  0
DIMENSION
  5
26190
330
747D
100
AcDbEntity
  8
寸法
 48
50.0
100
AcDbDimension
  2
*D47
 10
8851.737656819027
 20
1693.477985361963
 30
0.0
 11
8751.737656819027
 21
1855.477985361965
 31
0.0
 70
    32
  1
180
 71
     5
 42
324.0000000000009
  3
INABA_S40G
100
AcDbAlignedDimension
 13
8349.869057050183
 23
2017.477985361964
 33
0.0
 14
8349.869057050183
 24
1693.477985361963
 34
0.0
 50
90.0
100
AcDbRotatedDimension
1001
ACAD
1000
DSTYLE
1002
{
1070
   341
1005
0
1002
}
  0
DIMENSION
  5
26191
330
747D
100
AcDbEntity
  8
寸法
 48
50.0
100
AcDbDimension
  2
*D48
 10
9127.792322938054
 20
2017.477985361963
 30
0.0
 11
9127.792322938054
 21
1551.469081940481
 31
0.0
 70
   160
  1
20～25
 71
     5
 42
52.76000000000113
  3
INABA_S40G
100
AcDbAlignedDimension
 13
8162.669057050184
 23
2070.237985361965
 33
0.0
 14
8349.869057050183
 24
2017.477985361964
 34
0.0
 50
90.0
100
AcDbRotatedDimension
1001
ACAD
1000
DSTYLE
1002
{
1070
   341
1005
0
1002
}
  0
MTEXT
  5
26192
102
{ACAD_REACTORS
330
26193
102
}
330
747D
100
AcDbEntity
  8
部品1
 62
     7
 48
50.0
100
AcDbMText
 10
8358.813519469503
 20
2281.861311515194
 30
0.0
 40
80.0
 41
0.8
 71
     4
 72
     1
  1
M10X160
  7
STYLE2
 73
     1
 44
1.0
1001
ACAD
1000
MTEXTBEGIN
1070
    73
1070
     1
1070
    44
1040
1.0
1070
    74
1070
     0
1000
MTEXTEND
  0
LEADER
  5
26193
330
747D
100
AcDbEntity
  8
寸法
 48
50.0
100
AcDbLeader
  3
INABA_S50G
 73
     0
 74
     0
 75
     1
 40
80.0
 41
435.0
 76
     3
 10
8166.269057050184
 20
2066.637985361964
 30
0.0
 10
8208.813519469503
 20
2216.861311515194
 30
0.0
 10
8333.813519469503
 20
2216.861311515194
 30
0.0
340
26192
1001
ACAD
1000
DSTYLE
1002
{
1070
   341
1005
0
1070
    40
1040
1.0
1070
   343
1005
0
1070
   344
1005
0
1002
}
  0
LINE
  5
26194
330
747D
100
AcDbEntity
  8
部品1
100
AcDbLine
 10
5165.161305063726
 20
3416.81665256255
 30
0.0
 11
5165.161305063728
 21
452.5096829779022
 31
0.0
  0
LEADER
  5
26195
330
747D
100
AcDbEntity
  8
寸法
 48
50.0
100
AcDbLeader
  3
INABA_S50G
 73
     0
 75
     1
 40
113.1818181818182
 41
608.6363636363635
 76
     3
 10
8126.005807188233
 20
1966.993658720243
 30
0.0
 10
7992.201978496885
 20
2818.37274107672
 30
0.0
 10
7867.201978496885
 20
2818.37274107672
 30
0.0
340
26196
1001
ACAD
1000
DSTYLE
1002
{
1070
   341
1005
0
1070
    40
1040
1.0
1070
   343
1005
0
1070
   344
1005
0
1002
}
  0
MTEXT
  5
26196
102
{ACAD_REACTORS
330
26195
102
}
330
747D
100
AcDbEntity
  8
寸法
 62
     7
 48
50.0
100
AcDbMText
 10
7842.201978496885
 20
2899.963650167629
 30
0.0
 40
80.0
 41
0.8
 71
     6
 72
     1
  1
\A1;φ70スリーブ
  7
STYLE2
 73
     1
 44
1.0
1001
ACAD
1000
MTEXTBEGIN
1070
    73
1070
     1
1070
    44
1040
1.0
1070
    74
1070
     0
1000
MTEXTEND
  0
LWPOLYLINE
  5
26197
330
747D
100
AcDbEntity
  8
部品1
 48
50.0
100
AcDbPolyline
 90
        2
 70
     0
 43
8.0
 10
5821.689842040032
 20
1777.477985361965
 10
6235.829743872989
 20
1777.477985361965
  0
TEXT
  5
26198
330
747D
100
AcDbEntity
  8
部品1
 48
50.0
100
AcDbText
 10
5821.689842040032
 20
1788.716977645219
 30
0.0
 40
80.0
  1
▽G.L
  7
STYLE2
100
AcDbText
  0
DIMENSION
  5
26199
330
747D
100
AcDbEntity
  8
寸法
 48
50.0
100
AcDbDimension
  2
*D49
 10
5965.409430140529
 20
1233.477985361964
 30
0.0
 11
5965.409430140529
 21
1353.477985361965
 31
0.0
 70
   160
  1
150
 71
     5
 42
240.0
  3
INABA_S40G
100
AcDbAlignedDimension
 13
6107.829743872989
 23
1473.477985361964
 33
0.0
 14
6027.829743872992
 24
1233.477985361964
 34
0.0
 50
90.0
100
AcDbRotatedDimension
1001
ACAD
1000
DSTYLE
1002
{
1070
   341
1005
0
1002
}
  0
LEADER
  5
2619A
330
747D
100
AcDbEntity
  8
寸法
 48
50.0
100
AcDbLeader
  3
INABA_S50G
 71
     0
 73
     0
 75
     1
 40
100.0
 41
225.0
 76
     3
 10
6203.732696225132
 20
1353.477985361964
 30
0.0
 10
6081.894717677794
 20
1089.955291743527
 30
0.0
 10
5956.894717677794
 20
1089.955291743527
 30
0.0
1001
ACAD
1000
DSTYLE
1002
{
1070
    40
1040
1.0
1070
   272
1070
     1
1070
   279
1070
     1
1070
   341
1005
0
1002
}
  0
LEADER
  5
2619B
330
747D
100
AcDbEntity
  8
寸法
 48
50.0
100
AcDbLeader
  3
INABA_S50G
 71
     0
 73
     0
 75
     1
 40
100.0
 41
222.7272727272727
 76
     3
 10
6331.829743872988
 20
1353.477985361964
 30
0.0
 10
6110.017445235229
 20
909.6391392040841
 30
0.0
 10
5985.017445235229
 20
909.6391392040841
 30
0.0
1001
ACAD
1000
DSTYLE
1002
{
1070
    40
1040
1.0
1070
   272
1070
     1
1070
   279
1070
     1
1070
   341
1005
0
1002
}
  0
MTEXT
  5
2619C
102
{ACAD_REACTORS
330
2619D
102
}
330
747D
100
AcDbEntity
  8
寸法
 62
     7
 48
50.0
100
AcDbMText
 10
6146.579689650184
 20
1618.77858817942
 30
0.0
 40
80.0
 41
0.8
 71
     6
 72
     1
  1
\A1;D10@300
  7
STYLE2
 73
     1
 44
1.0
1001
ACAD
1000
MTEXTBEGIN
1070
    73
1070
     1
1070
    44
1040
1.0
1070
    74
1070
     0
1000
MTEXTEND
  0
LEADER
  5
2619D
330
747D
100
AcDbEntity
  8
寸法
 48
50.0
100
AcDbLeader
  3
INABA_S50G
 71
     0
 73
     0
 75
     1
 40
100.0
 41
540.3409090909091
 76
     3
 10
6339.829743872989
 20
1775.605200059087
 30
0.0
 10
6281.84750734429
 20
1554.134871518282
 30
0.0
 10
6156.84750734429
 20
1554.134871518282
 30
0.0
213
-9.732182305893367
223
-4.643716661138569
233
0.0
1001
ACAD
1000
DSTYLE
1002
{
1070
    40
1040
1.0
1070
   272
1070
     1
1070
   279
1070
     1
1070
   341
1005
0
1002
}
  0
LEADER
  5
2619E
330
747D
100
AcDbEntity
  8
寸法
 48
50.0
100
AcDbLeader
  3
INABA_S50G
 71
     0
 73
     0
 75
     1
 40
130.1136363636363
 41
651.1363636363636
 76
     3
 10
6315.829743872988
 20
2017.477985361964
 30
0.0
 10
6203.405163708972
 20
2157.948750818552
 30
0.0
 10
6078.405163708972
 20
2157.948750818552
 30
0.0
1001
ACAD
1000
DSTYLE
1002
{
1070
    40
1040
1.0
1070
   272
1070
     1
1070
   279
1070
     1
1070
   341
1005
0
1002
}
  0
MTEXT
  5
2619F
102
{ACAD_REACTORS
330
2619E
102
}
330
747D
100
AcDbEntity
  8
寸法
 62
     7
 48
50.0
100
AcDbMText
 10
6015.731264389716
 20
2229.994205364006
 30
0.0
 40
80.0
 41
0.8
 71
     6
 72
     1
  1
\A1;金コテ押エ
  7
STYLE2
 73
     1
 44
1.0
1001
ACAD
1000
MTEXTBEGIN
1070
    73
1070
     1
1070
    44
1040
1.0
1070
    74
1070
     0
1000
MTEXTEND
  0
DIMENSION
  5
261A0
330
747D
100
AcDbEntity
  8
寸法
 48
50.0
100
AcDbDimension
  2
*D50
 10
5500.792505311249
 20
1233.477985361964
 30
0.0
 11
5500.792505311249
 21
1605.018135017964
 31
0.0
 70
   160
  1
540
 71
     5
 42
784.0
  3
INABA_S40G
100
AcDbAlignedDimension
 13
6235.829743872989
 23
2017.477985361964
 33
0.0
 14
6027.829743872992
 24
1233.477985361964
 34
0.0
 50
90.0
100
AcDbRotatedDimension
1001
ACAD
1000
DSTYLE
1002
{
1070
   341
1005
0
1002
}
  0
MTEXT
  5
261A1
102
{ACAD_REACTORS
330
2619B
102
}
330
747D
100
AcDbEntity
  8
寸法
 62
     7
 48
50.0
100
AcDbMText
 10
5965.017445235229
 20
969.639139204084
 30
0.0
 40
80.0
 41
0.8
 71
     6
 72
     1
  1
D13
  7
STYLE2
 73
     1
 44
1.0
1001
ACAD
1000
MTEXTBEGIN
1070
    73
1070
     1
1070
    44
1040
1.0
1070
    74
1070
     0
1000
MTEXTEND
  0
MTEXT
  5
261A2
102
{ACAD_REACTORS
330
2619A
102
}
330
747D
100
AcDbEntity
  8
寸法
 62
     7
 48
50.0
100
AcDbMText
 10
5936.894717677795
 20
1149.955291743527
 30
0.0
 40
80.0
 41
0.8
 71
     6
 72
     1
  1
D10
  7
STYLE2
 73
     1
 44
1.0
1001
ACAD
1000
MTEXTBEGIN
1070
    73
1070
     1
1070
    44
1040
1.0
1070
    74
1070
     0
1000
MTEXTEND
  0
DIMENSION
  5
261A3
330
747D
100
AcDbEntity
  8
寸法
 48
50.0
100
AcDbDimension
  2
*D51
 10
6555.82974387299
 20
695.0483473568038
 30
0.0
 11
6311.732985194765
 21
695.0483473568038
 31
0.0
 70
   160
  1
300
 71
     5
 42
448.0
  3
INABA_S40G
100
AcDbAlignedDimension
 13
6107.829743872989
 23
1105.477985361964
 33
0.0
 14
6555.82974387299
 24
1105.477985361964
 34
0.0
100
AcDbRotatedDimension
1001
ACAD
1000
DSTYLE
1002
{
1070
   341
1005
0
1002
}
  0
MTEXT
  5
261A4
102
{ACAD_REACTORS
330
261A5
102
}
330
747D
100
AcDbEntity
  8
寸法
 62
     7
 48
50.0
100
AcDbMText
 10
7868.844984705244
 20
2539.279378260116
 30
0.0
 40
80.0
 41
0.8
 71
     6
 72
     1
  1
\A1;アンカープレート L
  7
STYLE2
 73
     1
 44
1.0
1001
ACAD
1000
MTEXTBEGIN
1070
    73
1070
     1
1070
    44
1040
1.0
1070
    74
1070
     0
1000
MTEXTEND
  0
LEADER
  5
261A5
330
747D
100
AcDbEntity
  8
寸法
 48
50.0
100
AcDbLeader
  3
INABA_S50G
 73
     0
 75
     1
 40
106.3636363636363
 41
893.1818181818181
 76
     3
 10
8067.269057050184
 20
2087.037985361965
 30
0.0
 10
8018.844984705244
 20
2461.097560078297
 30
0.0
 10
7893.844984705244
 20
2461.097560078297
 30
0.0
340
261A4
1001
ACAD
1000
DSTYLE
1002
{
1070
   341
1005
0
1070
    40
1040
1.0
1070
   343
1005
0
1070
   344
1005
0
1002
}
  0
LINE
  5
261A6
330
747D
100
AcDbEntity
  8
細線
 48
50.0
100
AcDbLine
 10
6355.829743872989
 20
1855.850878029794
 30
0.0
 11
6427.829743872989
 21
1927.850878029794
 31
0.0
  0
ARC
  5
261A7
330
747D
100
AcDbEntity
  8
部品1
 48
50.0
100
AcDbCircle
 10
6331.82974387299
 20
1877.732414756209
 30
0.0
 40
24.0
100
AcDbArc
 50
0.0
 51
180.0
  0
CIRCLE
  5
261A8
330
747D
100
AcDbEntity
  8
部品1
 48
50.0
100
AcDbCircle
 10
6331.82974387299
 20
1877.732414756209
 30
0.0
 40
8.0
  0
LINE
  5
261A9
330
747D
100
AcDbEntity
  8
部品1
 48
50.0
100
AcDbLine
 10
6235.82974387299
 20
1473.477985361964
 30
0.0
 11
6235.82974387299
 21
2017.477985361964
 31
0.0
  0
LINE
  5
261AA
330
747D
100
AcDbEntity
  8
部品1
 48
50.0
100
AcDbLine
 10
6427.829743872989
 20
2017.477985361964
 30
0.0
 11
6427.829743872989
 21
1473.477985361964
 31
0.0
  0
MTEXT
  5
261AB
102
{ACAD_REACTORS
330
261B0
102
}
330
747D
100
AcDbEntity
  8
寸法
 62
     7
 48
50.0
100
AcDbMText
 10
6510.715680900384
 20
2040.033884654775
 30
0.0
 40
80.0
 41
0.8
 71
     4
 72
     1
  1
D13
  7
STYLE2
 73
     1
 44
1.0
1001
ACAD
1000
MTEXTBEGIN
1070
    73
1070
     1
1070
    44
1040
1.0
1070
    74
1070
     0
1000
MTEXTEND
  0
LEADER
  5
261AC
330
747D
100
AcDbEntity
  8
寸法
 48
50.0
100
AcDbLeader
  3
INABA_S50G
 71
     0
 73
     0
 74
     0
 75
     1
 40
100.0
 41
225.0
 76
     3
 10
6459.732696225131
 20
1353.477985361964
 30
0.0
 10
6514.157403679674
 20
1258.080916418991
 30
0.0
 10
6639.157403679674
 20
1258.080916418991
 30
0.0
1001
ACAD
1000
DSTYLE
1002
{
1070
    40
1040
1.0
1070
   272
1070
     1
1070
   279
1070
     1
1070
   341
1005
0
1002
}
  0
LEADER
  5
261AD
330
747D
100
AcDbEntity
  8
寸法
 48
50.0
100
AcDbLeader
  3
INABA_S50G
 71
     0
 73
     0
 74
     0
 75
     1
 40
100.0
 41
540.3409090909091
 76
     3
 10
6405.774912886163
 20
1336.737454948438
 30
0.0
 10
6524.56819973424
 20
995.1066369535411
 30
0.0
 10
6649.56819973424
 20
995.1066369535411
 30
0.0
213
0.0
223
-1.022262676269383
233
0.0
1001
ACAD
1000
DSTYLE
1002
{
1070
    40
1040
1.0
1070
   272
1070
     1
1070
   279
1070
     1
1070
   341
1005
0
1002
}
  0
MTEXT
  5
261AE
102
{ACAD_REACTORS
330
261AC
102
}
330
747D
100
AcDbEntity
  8
寸法
 62
     7
 48
50.0
100
AcDbMText
 10
6659.157403679675
 20
1318.080916418991
 30
0.0
 40
80.0
 41
0.8
 71
     4
 72
     1
  1
D10
  7
STYLE2
 73
     1
 44
1.0
1001
ACAD
1000
MTEXTBEGIN
1070
    73
1070
     1
1070
    44
1040
1.0
1070
    74
1070
     0
1000
MTEXTEND
  0
LWPOLYLINE
  5
261AF
330
747D
100
AcDbEntity
  8
部品1
 48
50.0
100
AcDbPolyline
 90
        2
 70
     0
 43
8.0
 10
6427.829743872989
 20
1777.477985361965
 10
6841.969645705946
 20
1777.477985361965
  0
LEADER
  5
261B0
330
747D
100
AcDbEntity
  8
寸法
 48
50.0
100
AcDbLeader
  3
INABA_S50G
 71
     0
 73
     0
 74
     0
 75
     1
 40
100.0
 41
222.7272727272727
 76
     3
 10
6331.829743872988
 20
1877.732414756209
 30
0.0
 10
6385.715680900384
 20
1976.967987609383
 30
0.0
 10
6510.715680900384
 20
1976.967987609383
 30
0.0
1001
ACAD
1000
DSTYLE
1002
{
1070
    40
1040
1.0
1070
   272
1070
     1
1070
   279
1070
     1
1070
   341
1005
0
1002
}
  0
LINE
  5
261B1
330
747D
100
AcDbEntity
  8
細線
 48
50.0
100
AcDbLine
 10
6107.829743872983
 20
1392.324731124135
 30
0.0
 11
6188.982998110818
 21
1473.477985361964
 31
0.0
  0
LINE
  5
261B2
330
747D
100
AcDbEntity
  8
細線
 48
50.0
100
AcDbLine
 10
6315.695591350394
 20
1411.605200059086
 30
0.0
 11
6339.829743872996
 21
1435.739352581685
 31
0.0
  0
LINE
  5
261B3
330
747D
100
AcDbEntity
  8
細線
 48
50.0
100
AcDbLine
 10
6222.627608290062
 20
1345.477985361964
 30
0.0
 11
6339.829743872989
 21
1462.680120944889
 31
0.0
  0
LINE
  5
261B4
330
747D
100
AcDbEntity
  8
部品1
 48
50.0
100
AcDbLine
 10
6107.82974387299
 20
1233.477985361964
 30
0.0
 11
6107.82974387299
 21
1473.477985361964
 31
0.0
  0
LINE
  5
261B5
330
747D
100
AcDbEntity
  8
細線
 48
50.0
100
AcDbLine
 10
6465.094523558933
 20
1345.477985361964
 30
0.0
 11
6555.82974387299
 21
1436.213205676023
 31
0.0
  0
LINE
  5
261B6
330
747D
100
AcDbEntity
  8
細線
 48
50.0
100
AcDbLine
 10
6438.153755195717
 20
1345.477985361964
 30
0.0
 11
6555.82974387299
 21
1463.15397403923
 31
0.0
  0
LINE
  5
261B7
330
747D
100
AcDbEntity
  8
部品1
 48
50.0
100
AcDbLine
 10
6555.82974387299
 20
1473.477985361964
 30
0.0
 11
6555.82974387299
 21
1233.477985361964
 31
0.0
  0
LINE
  5
261B8
330
747D
100
AcDbEntity
  8
部品1
 48
50.0
100
AcDbLine
 10
6355.829743872995
 20
1353.477985361964
 30
0.0
 11
6355.829743872989
 21
1877.732414756209
 31
0.0
  0
LINE
  5
261B9
330
747D
100
AcDbEntity
  8
部品1
 48
50.0
100
AcDbLine
 10
6339.829743872996
 20
1353.477985361964
 30
0.0
 11
6339.829743872982
 21
1877.732414756209
 31
0.0
  0
LINE
  5
261BA
330
747D
100
AcDbEntity
  8
細線
 48
50.0
100
AcDbLine
 10
6323.829743872989
 20
1392.798584218475
 30
0.0
 11
6339.829743872996
 21
1408.798584218475
 31
0.0
  0
LINE
  5
261BB
330
747D
100
AcDbEntity
  8
細線
 48
50.0
100
AcDbLine
 10
6313.012583369004
 20
1105.477985361964
 30
0.0
 11
6347.310080000187
 21
1233.477985361964
 31
0.0
  0
LINE
  5
261BC
330
747D
100
AcDbEntity
  8
部品1
 48
50.0
100
AcDbLine
 10
6635.829743872993
 20
1105.477985361964
 30
0.0
 11
6027.829743872992
 21
1105.477985361964
 31
0.0
  0
LINE
  5
261BD
330
747D
100
AcDbEntity
  8
部品1
 48
50.0
100
AcDbLine
 10
6163.82974387299
 20
1329.477985361964
 30
0.0
 11
6499.829743872989
 21
1329.477985361964
 31
0.0
  0
LINE
  5
261BE
330
747D
100
AcDbEntity
  8
部品1
 48
50.0
100
AcDbLine
 10
6163.82974387299
 20
1345.477985361964
 30
0.0
 11
6499.829743872989
 21
1345.477985361964
 31
0.0
  0
LINE
  5
261BF
330
747D
100
AcDbEntity
  8
部品1
 48
50.0
100
AcDbLine
 10
6635.829743872993
 20
1233.477985361964
 30
0.0
 11
6027.829743872992
 21
1233.477985361964
 31
0.0
  0
CIRCLE
  5
261C0
330
747D
100
AcDbEntity
  8
部品1
 48
50.0
100
AcDbCircle
 10
6331.82974387299
 20
1353.477985361964
 30
0.0
 40
8.0
  0
LINE
  5
261C1
330
747D
100
AcDbEntity
  8
細線
 48
50.0
100
AcDbLine
 10
6326.153755195722
 20
1233.477985361964
 30
0.0
 11
6422.153755195722
 21
1329.477985361964
 31
0.0
  0
LINE
  5
261C2
330
747D
100
AcDbEntity
  8
細線
 48
50.0
100
AcDbLine
 10
6155.236493474506
 20
1105.477985361964
 30
0.0
 11
6189.533990105688
 21
1233.477985361964
 31
0.0
  0
LINE
  5
261C3
330
747D
100
AcDbEntity
  8
細線
 48
50.0
100
AcDbLine
 10
6234.124538421751
 20
1105.477985361962
 30
0.0
 11
6268.422035052934
 21
1233.477985361962
 31
0.0
  0
LINE
  5
261C4
330
747D
100
AcDbEntity
  8
細線
 48
50.0
100
AcDbLine
 10
6076.348448527248
 20
1105.477985361962
 30
0.0
 11
6110.645945158431
 21
1233.477985361962
 31
0.0
  0
LINE
  5
261C5
330
747D
100
AcDbEntity
  8
部品1
 48
50.0
100
AcDbLine
 10
6027.829743872992
 20
1105.477985361964
 30
0.0
 11
6027.829743872992
 21
1233.477985361964
 31
0.0
  0
LINE
  5
261C6
330
747D
100
AcDbEntity
  8
細線
 48
50.0
100
AcDbLine
 10
6161.667274092851
 20
1129.477985361964
 30
0.0
 11
6168.098054711199
 21
1105.477985361964
 31
0.0
  0
LINE
  5
261C7
330
747D
100
AcDbEntity
  8
細線
 48
50.0
100
AcDbLine
 10
6082.7792291456
 20
1129.477985361964
 30
0.0
 11
6089.210009763947
 21
1105.477985361964
 31
0.0
  0
LINE
  5
261C8
330
747D
100
AcDbEntity
  8
細線
 48
50.0
100
AcDbLine
 10
6319.443363987357
 20
1129.477985361964
 30
0.0
 11
6325.874144605703
 21
1105.477985361964
 31
0.0
  0
LINE
  5
261C9
330
747D
100
AcDbEntity
  8
細線
 48
50.0
100
AcDbLine
 10
6240.555319040105
 20
1129.477985361964
 30
0.0
 11
6246.98609965845
 21
1105.477985361964
 31
0.0
  0
LINE
  5
261CA
330
747D
100
AcDbEntity
  8
細線
 48
50.0
100
AcDbLine
 10
6137.568376653273
 20
1233.477985361964
 30
0.0
 11
6233.568376653273
 21
1329.477985361964
 31
0.0
  0
LINE
  5
261CB
330
747D
100
AcDbEntity
  8
細線
 48
50.0
100
AcDbLine
 10
6110.627608290062
 20
1233.477985361964
 30
0.0
 11
6206.627608290062
 21
1329.477985361964
 31
0.0
  0
LINE
  5
261CC
330
747D
100
AcDbEntity
  8
部品1
 48
50.0
100
AcDbLine
 10
6163.82974387299
 20
1345.477985361964
 30
0.0
 11
6163.82974387299
 21
1329.477985361964
 31
0.0
  0
LINE
  5
261CD
330
747D
100
AcDbEntity
  8
細線
 48
50.0
100
AcDbLine
 10
6104.215164540089
 20
1209.477985361964
 30
0.0
 11
6097.784383921742
 21
1233.477985361964
 31
0.0
  0
LINE
  5
261CE
330
747D
100
AcDbEntity
  8
細線
 48
50.0
100
AcDbLine
 10
6027.82974387299
 20
1218.817906327744
 30
0.0
 11
6031.757900211186
 21
1233.477985361964
 31
0.0
  0
LINE
  5
261CF
330
747D
100
AcDbEntity
  8
部品1
 48
50.0
100
AcDbLine
 10
6323.829743872989
 20
1411.605200059086
 30
0.0
 11
6307.829743872989
 21
1411.605200059086
 31
0.0
  0
CIRCLE
  5
261D0
330
747D
100
AcDbEntity
  8
部品1
 48
50.0
100
AcDbCircle
 10
6203.82974387299
 20
1353.477985361964
 30
0.0
 40
8.0
  0
LINE
  5
261D1
330
747D
100
AcDbEntity
  8
細線
 48
50.0
100
AcDbLine
 10
6276.509145016478
 20
1345.477985361964
 30
0.0
 11
6307.829743872989
 21
1376.798584218475
 31
0.0
  0
ARC
  5
261D2
330
747D
100
AcDbEntity
  8
部品1
 48
50.0
100
AcDbCircle
 10
6331.82974387299
 20
1353.477985361964
 30
0.0
 40
24.0
100
AcDbArc
 50
180.0
 51
199.4712206344866
  0
LINE
  5
261D3
330
747D
100
AcDbEntity
  8
細線
 48
50.0
100
AcDbLine
 10
6183.103209487341
 20
1209.477985361964
 30
0.0
 11
6176.672428868995
 21
1233.477985361964
 31
0.0
  0
LINE
  5
261D4
330
747D
100
AcDbEntity
  8
細線
 48
50.0
100
AcDbLine
 10
6261.991254434594
 20
1209.477985361964
 30
0.0
 11
6255.560473816247
 21
1233.477985361964
 31
0.0
  0
LINE
  5
261D5
330
747D
100
AcDbEntity
  8
細線
 48
50.0
100
AcDbLine
 10
6164.509145016478
 20
1233.477985361964
 30
0.0
 11
6260.509145016478
 21
1329.477985361964
 31
0.0
  0
LINE
  5
261D6
330
747D
100
AcDbEntity
  8
部品1
 48
50.0
100
AcDbLine
 10
6307.829743872989
 20
1411.605200059086
 30
0.0
 11
6307.829743872989
 21
1353.477985361964
 31
0.0
  0
LINE
  5
261D7
330
747D
100
AcDbEntity
  8
細線
 48
50.0
100
AcDbLine
 10
6249.568376653273
 20
1345.477985361964
 30
0.0
 11
6307.829743872989
 21
1403.739352581682
 31
0.0
  0
LINE
  5
261D8
330
747D
100
AcDbEntity
  8
部品1
 48
50.0
100
AcDbLine
 10
6323.829743872989
 20
1411.605200059086
 30
0.0
 11
6323.829743872989
 21
1353.477985361964
 31
0.0
  0
LINE
  5
261D9
330
747D
100
AcDbEntity
  8
部品1
 48
50.0
100
AcDbLine
 10
6635.829743872993
 20
1233.477985361964
 30
0.0
 11
6635.829743872993
 21
1105.477985361964
 31
0.0
  0
LINE
  5
261DA
330
747D
100
AcDbEntity
  8
細線
 48
50.0
100
AcDbLine
 10
6549.676718210744
 20
1105.477985361964
 30
0.0
 11
6583.974214841927
 21
1233.477985361962
 31
0.0
  0
LINE
  5
261DB
330
747D
100
AcDbEntity
  8
細線
 48
50.0
100
AcDbLine
 10
6391.900628316249
 20
1105.477985361964
 30
0.0
 11
6426.198124947436
 21
1233.477985361962
 31
0.0
  0
LINE
  5
261DC
330
747D
100
AcDbEntity
  8
細線
 48
50.0
100
AcDbLine
 10
6470.788673263498
 20
1105.477985361962
 30
0.0
 11
6505.086169894683
 21
1233.477985361962
 31
0.0
  0
LINE
  5
261DD
330
747D
100
AcDbEntity
  8
細線
 48
50.0
100
AcDbLine
 10
6477.219453881848
 20
1129.477985361964
 30
0.0
 11
6483.650234500196
 21
1105.477985361964
 31
0.0
  0
LINE
  5
261DE
330
747D
100
AcDbEntity
  8
細線
 48
50.0
100
AcDbLine
 10
6398.331408934602
 20
1129.477985361964
 30
0.0
 11
6404.762189552949
 21
1105.477985361964
 31
0.0
  0
LINE
  5
261DF
330
747D
100
AcDbEntity
  8
細線
 48
50.0
100
AcDbLine
 10
6556.107498829096
 20
1129.477985361964
 30
0.0
 11
6562.538279447443
 21
1105.477985361964
 31
0.0
  0
LINE
  5
261E0
330
747D
100
AcDbEntity
  8
細線
 48
50.0
100
AcDbLine
 10
6634.995543776343
 20
1129.477985361964
 30
0.0
 11
6635.829743872989
 21
1126.364708217599
 31
0.0
  0
LINE
  5
261E1
330
747D
100
AcDbEntity
  8
細線
 48
50.0
100
AcDbLine
 10
6628.564763157992
 20
1105.477985361962
 30
0.0
 11
6635.829743872989
 21
1132.591262506352
 31
0.0
  0
LINE
  5
261E2
330
747D
100
AcDbEntity
  8
細線
 48
50.0
100
AcDbLine
 10
6492.035291922137
 20
1345.477985361964
 30
0.0
 11
6555.82974387299
 21
1409.272437312815
 31
0.0
  0
CIRCLE
  5
261E3
330
747D
100
AcDbEntity
  8
部品1
 48
50.0
100
AcDbCircle
 10
6459.82974387299
 20
1353.477985361964
 30
0.0
 40
8.0
  0
ARC
  5
261E4
330
747D
100
AcDbEntity
  8
部品1
 48
50.0
100
AcDbCircle
 10
6331.82974387299
 20
1353.477985361964
 30
0.0
 40
24.0
100
AcDbArc
 50
340.5287793655134
 51
0.0
  0
LINE
  5
261E5
330
747D
100
AcDbEntity
  8
細線
 48
50.0
100
AcDbLine
 10
6340.879299381846
 20
1209.477985361964
 30
0.0
 11
6334.448518763498
 21
1233.477985361964
 31
0.0
  0
LINE
  5
261E6
330
747D
100
AcDbEntity
  8
細線
 48
50.0
100
AcDbLine
 10
6419.767344329091
 20
1209.477985361964
 30
0.0
 11
6413.336563710746
 21
1233.477985361964
 31
0.0
  0
LINE
  5
261E7
330
747D
100
AcDbEntity
  8
細線
 48
50.0
100
AcDbLine
 10
6353.094523558933
 20
1233.477985361964
 30
0.0
 11
6449.094523558933
 21
1329.477985361964
 31
0.0
  0
LINE
  5
261E8
330
747D
100
AcDbEntity
  8
細線
 48
50.0
100
AcDbLine
 10
6380.035291922137
 20
1233.477985361964
 30
0.0
 11
6476.036179767274
 21
1329.478873207103
 31
0.0
  0
LINE
  5
261E9
330
747D
100
AcDbEntity
  8
部品1
 48
50.0
100
AcDbLine
 10
6499.829743872989
 20
1345.477985361964
 30
0.0
 11
6499.829743872989
 21
1329.477985361964
 31
0.0
  0
LINE
  5
261EA
330
747D
100
AcDbEntity
  8
細線
 48
50.0
100
AcDbLine
 10
6577.543434223584
 20
1209.477985361964
 30
0.0
 11
6571.112653605236
 21
1233.477985361964
 31
0.0
  0
LINE
  5
261EB
330
747D
100
AcDbEntity
  8
細線
 48
50.0
100
AcDbLine
 10
6541.679902101383
 20
1233.477985361964
 30
0.0
 11
6555.82974387299
 21
1247.62782713357
 31
0.0
  0
LINE
  5
261EC
330
747D
100
AcDbEntity
  8
細線
 48
50.0
100
AcDbLine
 10
6498.655389276336
 20
1209.477985361964
 30
0.0
 11
6492.22460865799
 21
1233.477985361964
 31
0.0
  0
LINE
  5
261ED
330
747D
100
AcDbEntity
  8
細線
 48
50.0
100
AcDbLine
 10
6235.82974387299
 20
1547.265499487342
 30
0.0
 11
6339.829743872996
 21
1651.265499487345
 31
0.0
  0
LINE
  5
261EE
330
747D
100
AcDbEntity
  8
細線
 48
50.0
100
AcDbLine
 10
6235.82974387299
 20
1574.20626785055
 30
0.0
 11
6339.829743872989
 21
1678.20626785055
 31
0.0
  0
LINE
  5
261EF
330
747D
100
AcDbEntity
  8
細線
 48
50.0
100
AcDbLine
 10
6235.82974387299
 20
1520.324731124135
 30
0.0
 11
6339.829743872996
 21
1624.324731124135
 31
0.0
  0
LINE
  5
261F0
330
747D
100
AcDbEntity
  8
細線
 48
50.0
100
AcDbLine
 10
6323.829743872989
 20
1823.850878029794
 30
0.0
 11
6339.829743872989
 21
1839.850878029794
 31
0.0
  0
LINE
  5
261F1
330
747D
100
AcDbEntity
  8
細線
 48
50.0
100
AcDbLine
 10
6323.829743872989
 20
1850.791646393001
 30
0.0
 11
6339.829743872989
 21
1866.791646393001
 31
0.0
  0
LINE
  5
261F2
330
747D
100
AcDbEntity
  8
部品1
 48
50.0
100
AcDbLine
 10
6107.82974387299
 20
1473.477985361964
 30
0.0
 11
6235.82974387299
 21
1473.477985361964
 31
0.0
  0
LINE
  5
261F3
330
747D
100
AcDbEntity
  8
細線
 48
50.0
100
AcDbLine
 10
6107.829743872983
 20
1419.265499487339
 30
0.0
 11
6162.042229747615
 21
1473.477985361964
 31
0.0
  0
LINE
  5
261F4
330
747D
100
AcDbEntity
  8
細線
 48
50.0
100
AcDbLine
 10
6107.829743872983
 20
1446.20626785055
 30
0.0
 11
6135.101461384404
 21
1473.477985361964
 31
0.0
  0
LINE
  5
261F5
330
747D
100
AcDbEntity
  8
部品1
 48
50.0
100
AcDbLine
 10
6323.829743872989
 20
1819.605200059086
 30
0.0
 11
6307.829743872989
 21
1819.60520005909
 31
0.0
  0
LINE
  5
261F6
330
747D
100
AcDbEntity
  8
細線
 48
50.0
100
AcDbLine
 10
6235.82974387299
 20
1735.850878029794
 30
0.0
 11
6319.584065902283
 21
1819.605200059086
 31
0.0
  0
LINE
  5
261F7
330
747D
100
AcDbEntity
  8
細線
 48
50.0
100
AcDbLine
 10
6235.82974387299
 20
1762.791646393001
 30
0.0
 11
6307.829743872989
 21
1834.791646393001
 31
0.0
  0
LINE
  5
261F8
330
747D
100
AcDbEntity
  8
部品1
 48
50.0
100
AcDbLine
 10
6307.829743872989
 20
1819.60520005909
 30
0.0
 11
6307.829743872989
 21
1877.732414756209
 31
0.0
  0
LINE
  5
261F9
330
747D
100
AcDbEntity
  8
細線
 48
50.0
100
AcDbLine
 10
6235.82974387299
 20
1789.732414756209
 30
0.0
 11
6307.829743872989
 21
1861.732414756209
 31
0.0
  0
LINE
  5
261FA
330
747D
100
AcDbEntity
  8
部品1
 48
50.0
100
AcDbLine
 10
6323.829743872989
 20
1819.605200059086
 30
0.0
 11
6323.829743872989
 21
1877.732414756209
 31
0.0
  0
LINE
  5
261FB
330
747D
100
AcDbEntity
  8
細線
 48
50.0
100
AcDbLine
 10
6355.829743872995
 20
1640.324731124135
 30
0.0
 11
6427.829743872982
 21
1712.324731124135
 31
0.0
  0
LINE
  5
261FC
330
747D
100
AcDbEntity
  8
部品1
 48
50.0
100
AcDbLine
 10
6427.829743872989
 20
1473.477985361964
 30
0.0
 11
6555.82974387299
 21
1473.477985361964
 31
0.0
  0
LINE
  5
261FD
330
747D
100
AcDbEntity
  8
細線
 48
50.0
100
AcDbLine
 10
6355.829743872995
 20
1451.739352581685
 30
0.0
 11
6427.829743872982
 21
1523.73935258168
 31
0.0
  0
LINE
  5
261FE
330
747D
100
AcDbEntity
  8
細線
 48
50.0
100
AcDbLine
 10
6355.829743872995
 20
1478.680120944893
 30
0.0
 11
6427.829743872982
 21
1550.680120944889
 31
0.0
  0
LINE
  5
261FF
330
747D
100
AcDbEntity
  8
細線
 48
50.0
100
AcDbLine
 10
6355.829743872995
 20
1424.798584218475
 30
0.0
 11
6427.829743872982
 21
1496.798584218475
 31
0.0
  0
LINE
  5
26200
330
747D
100
AcDbEntity
  8
細線
 48
50.0
100
AcDbLine
 10
6355.829743872989
 20
1694.20626785055
 30
0.0
 11
6427.829743872989
 21
1766.20626785055
 31
0.0
  0
LINE
  5
26201
330
747D
100
AcDbEntity
  8
細線
 48
50.0
100
AcDbLine
 10
6355.829743872995
 20
1667.265499487345
 30
0.0
 11
6427.829743872982
 21
1739.265499487339
 31
0.0
  0
MTEXT
  5
26202
102
{ACAD_REACTORS
330
261AD
102
}
330
747D
100
AcDbEntity
  8
寸法
 62
     7
 48
50.0
100
AcDbMText
 10
6669.56819973424
 20
1056.128899629811
 30
0.0
 40
80.0
 41
0.8
 71
     4
 72
     1
  1
\A1;D10@300
  7
STYLE2
 73
     1
 44
1.0
1001
ACAD
1000
MTEXTBEGIN
1070
    73
1070
     1
1070
    44
1040
1.0
1070
    74
1070
     0
1000
MTEXTEND
  0
DIMENSION
  5
26203
330
747D
100
AcDbEntity
  8
寸法
 48
50.0
100
AcDbDimension
  2
*D52
 10
6235.829743872989
 20
2437.145793278344
 30
0.0
 11
6331.829743872988
 21
2437.145793278344
 31
0.0
 70
   160
  1
120\P200\P280
 71
     5
 42
192.0
  3
INABA_S40G
100
AcDbAlignedDimension
 13
6427.829743872989
 23
2017.477985361964
 33
0.0
 14
6235.829743872989
 24
2017.477985361964
 34
0.0
100
AcDbRotatedDimension
1001
ACAD
1000
DSTYLE
1002
{
1070
   341
1005
0
1002
}
  0
LINE
  5
26204
330
747D
100
AcDbEntity
  8
部品1
 48
50.0
100
AcDbLine
 10
6235.82974387299
 20
2017.477985361964
 30
0.0
 11
6427.829743872989
 21
2017.477985361964
 31
0.0
  0
LINE
  5
26205
330
747D
100
AcDbEntity
  8
細線
 48
50.0
100
AcDbLine
 10
6235.82974387299
 20
1978.317793298662
 30
0.0
 11
6274.989935936293
 21
2017.477985361964
 31
0.0
  0
LINE
  5
26206
330
747D
100
AcDbEntity
  8
細線
 48
50.0
100
AcDbLine
 10
6235.82974387299
 20
1951.377024935454
 30
0.0
 11
6301.930704299499
 21
2017.477985361964
 31
0.0
  0
LINE
  5
26207
330
747D
100
AcDbEntity
  8
細線
 48
50.0
100
AcDbLine
 10
6235.82974387299
 20
2005.258561661869
 30
0.0
 11
6248.049167573085
 21
2017.477985361964
 31
0.0
  0
LINE
  5
26208
330
747D
100
AcDbEntity
  8
細線
 48
50.0
100
AcDbLine
 10
6355.382451138975
 20
1882.344353658985
 30
0.0
 11
6427.829743872989
 21
1954.791646393001
 31
0.0
  0
LINE
  5
26209
330
747D
100
AcDbEntity
  8
細線
 48
50.0
100
AcDbLine
 10
6344.322166375459
 20
1898.22483725868
 30
0.0
 11
6427.829743872989
 21
1981.732414756209
 31
0.0
  0
LINE
  5
2620A
330
747D
100
AcDbEntity
  8
細線
 48
50.0
100
AcDbLine
 10
8220.269057050185
 20
1858.606267850552
 30
0.0
 11
8349.869057050183
 21
1988.206267850551
 31
0.0
  0
LINE
  5
2620B
330
747D
100
AcDbEntity
  8
部品1
100
AcDbLine
 10
8349.869057050183
 20
1473.477985361964
 30
0.0
 11
8349.869057050183
 21
2017.477985361964
 31
0.0
  0
LINE
  5
2620C
330
747D
100
AcDbEntity
  8
部品1
 48
50.0
100
AcDbLine
 10
7935.869057050182
 20
1473.477985361964
 30
0.0
 11
7935.869057050182
 21
2017.477985361964
 31
0.0
  0
LINE
  5
2620D
330
747D
100
AcDbEntity
  8
細線
 48
50.0
100
AcDbLine
 10
7935.869057050182
 20
1789.732414756209
 30
0.0
 11
8094.269057050182
 21
1948.132414756206
 31
0.0
  0
LINE
  5
2620E
330
747D
100
AcDbEntity
  8
細線
 48
50.0
100
AcDbLine
 10
7935.869057050182
 20
1762.791646393001
 30
0.0
 11
8094.269057050182
 21
1921.191646392999
 31
0.0
  0
LINE
  5
2620F
330
747D
100
AcDbEntity
  8
細線
 48
50.0
100
AcDbLine
 10
7935.869057050182
 20
1735.850878029794
 30
0.0
 11
8094.26905705018
 21
1894.250878029787
 31
0.0
  0
TEXT
  5
26210
330
747D
100
AcDbEntity
  8
部品1
 48
50.0
100
AcDbText
 10
7521.729155217227
 20
1788.716977645219
 30
0.0
 40
80.0
  1
▽G.L
  7
STYLE2
100
AcDbText
  0
LINE
  5
26211
330
747D
100
AcDbEntity
  8
部品1
100
AcDbLine
 10
8166.269057050184
 20
1792.477985361964
 30
0.0
 11
8166.269057050179
 21
2066.637985361964
 31
0.0
  0
LINE
  5
26212
330
747D
100
AcDbEntity
  8
部品1
100
AcDbLine
 10
8148.269057050184
 20
1792.477985361964
 30
0.0
 11
8148.26905705018
 21
2066.637985361964
 31
0.0
  0
LINE
  5
26213
330
747D
100
AcDbEntity
  8
細線
 48
50.0
100
AcDbLine
 10
8220.269057050185
 20
1804.724731124122
 30
0.0
 11
8349.869057050183
 21
1934.324731124114
 31
0.0
  0
LINE
  5
26214
330
747D
100
AcDbEntity
  8
細線
 48
50.0
100
AcDbLine
 10
8220.269057050185
 20
1831.665499487335
 30
0.0
 11
8349.869057050183
 21
1961.265499487332
 31
0.0
  0
LINE
  5
26215
330
747D
100
AcDbEntity
  8
部品1
100
AcDbLine
 10
8220.269057050185
 20
1693.477985361964
 30
0.0
 11
8220.269057050185
 21
2017.477985361964
 31
0.0
  0
LINE
  5
26216
330
747D
100
AcDbEntity
  8
部品1
100
AcDbLine
 10
8094.269057050176
 20
1693.477985361964
 30
0.0
 11
8094.269057050183
 21
2017.477985361964
 31
0.0
  0
LINE
  5
26217
330
747D
100
AcDbEntity
  8
細線
 48
50.0
100
AcDbLine
 10
7935.869057050182
 20
1547.265499487342
 30
0.0
 11
8094.269057050176
 21
1705.66549948733
 31
0.0
  0
LINE
  5
26218
330
747D
100
AcDbEntity
  8
細線
 48
50.0
100
AcDbLine
 10
7935.869057050182
 20
1520.324731124135
 30
0.0
 11
8109.02231128802
 21
1693.477985361962
 31
0.0
  0
LINE
  5
26219
330
747D
100
AcDbEntity
  8
細線
 48
50.0
100
AcDbLine
 10
7935.869057050182
 20
1574.20626785055
 30
0.0
 11
8094.269057050176
 21
1732.606267850545
 31
0.0
  0
LINE
  5
2621A
330
747D
100
AcDbEntity
  8
細線
 48
50.0
100
AcDbLine
 10
7864.548458193673
 20
1233.477985361964
 30
0.0
 11
8349.869057050183
 21
1718.798584218471
 31
0.0
  0
LINE
  5
2621B
330
747D
100
AcDbEntity
  8
細線
 48
50.0
100
AcDbLine
 10
7837.607689830467
 20
1233.477985361964
 30
0.0
 11
8349.869057050186
 21
1745.739352581678
 31
0.0
  0
LINE
  5
2621C
330
747D
100
AcDbEntity
  8
細線
 48
50.0
100
AcDbLine
 10
7810.666921467258
 20
1233.477985361964
 30
0.0
 11
8349.869057050183
 21
1772.680120944889
 31
0.0
  0
LINE
  5
2621D
330
747D
100
AcDbEntity
  8
部品1
 48
50.0
100
AcDbLine
 10
8557.869057050186
 20
1233.477985361964
 30
0.0
 11
7727.869057050186
 21
1233.477985361964
 31
0.0
  0
LINE
  5
2621E
330
747D
100
AcDbEntity
  8
部品1
 48
50.0
100
AcDbLine
 10
8557.869057050186
 20
1105.477985361964
 30
0.0
 11
7727.869057050186
 21
1105.477985361964
 31
0.0
  0
LINE
  5
2621F
330
747D
100
AcDbEntity
  8
細線
 48
50.0
100
AcDbLine
 10
7807.869057050179
 20
1392.324731124135
 30
0.0
 11
7889.022311288012
 21
1473.477985361964
 31
0.0
  0
LINE
  5
26220
330
747D
100
AcDbEntity
  8
部品1
 48
50.0
100
AcDbLine
 10
7807.869057050182
 20
1233.477985361964
 30
0.0
 11
7807.869057050182
 21
1473.477985361964
 31
0.0
  0
LINE
  5
26221
330
747D
100
AcDbEntity
  8
細線
 48
50.0
100
AcDbLine
 10
7855.2758066517
 20
1105.477985361964
 30
0.0
 11
7889.573303282883
 21
1233.477985361964
 31
0.0
  0
LINE
  5
26222
330
747D
100
AcDbEntity
  8
部品1
 48
50.0
100
AcDbLine
 10
7727.869057050186
 20
1105.477985361964
 30
0.0
 11
7727.869057050186
 21
1233.477985361964
 31
0.0
  0
LINE
  5
26223
330
747D
100
AcDbEntity
  8
細線
 48
50.0
100
AcDbLine
 10
7776.387761704441
 20
1105.477985361962
 30
0.0
 11
7810.685258335626
 21
1233.477985361962
 31
0.0
  0
LINE
  5
26224
330
747D
100
AcDbEntity
  8
細線
 48
50.0
100
AcDbLine
 10
7934.163851598947
 20
1105.477985361962
 30
0.0
 11
7968.461348230128
 21
1233.477985361962
 31
0.0
  0
LINE
  5
26225
330
747D
100
AcDbEntity
  8
細線
 48
50.0
100
AcDbLine
 10
7782.818542322795
 20
1129.477985361964
 30
0.0
 11
7789.249322941142
 21
1105.477985361964
 31
0.0
  0
LINE
  5
26226
330
747D
100
AcDbEntity
  8
細線
 48
50.0
100
AcDbLine
 10
7940.594632217299
 20
1129.477985361964
 30
0.0
 11
7947.025412835647
 21
1105.477985361964
 31
0.0
  0
LINE
  5
26227
330
747D
100
AcDbEntity
  8
細線
 48
50.0
100
AcDbLine
 10
7861.706587270048
 20
1129.477985361964
 30
0.0
 11
7868.137367888394
 21
1105.477985361964
 31
0.0
  0
LINE
  5
26228
330
747D
100
AcDbEntity
  8
細線
 48
50.0
100
AcDbLine
 10
7727.869057050182
 20
1218.817906327744
 30
0.0
 11
7731.797213388379
 21
1233.477985361964
 31
0.0
  0
LINE
  5
26229
330
747D
100
AcDbEntity
  8
細線
 48
50.0
100
AcDbLine
 10
7804.254477717285
 20
1209.477985361964
 30
0.0
 11
7797.823697098938
 21
1233.477985361964
 31
0.0
  0
LINE
  5
2622A
330
747D
100
AcDbEntity
  8
細線
 48
50.0
100
AcDbLine
 10
7962.030567611788
 20
1209.477985361964
 30
0.0
 11
7955.59978699344
 21
1233.477985361964
 31
0.0
  0
LINE
  5
2622B
330
747D
100
AcDbEntity
  8
細線
 48
50.0
100
AcDbLine
 10
7883.142522664536
 20
1209.477985361964
 30
0.0
 11
7876.711742046189
 21
1233.477985361964
 31
0.0
  0
LWPOLYLINE
  5
2622C
330
747D
100
AcDbEntity
  8
部品1
 48
50.0
100
AcDbPolyline
 90
        2
 70
     0
 43
8.0
 10
7521.729155217227
 20
1777.477985361965
 10
7935.869057050182
 20
1777.477985361965
  0
LINE
  5
2622D
330
747D
100
AcDbEntity
  8
細線
 48
50.0
100
AcDbLine
 10
7807.869057050179
 20
1419.265499487339
 30
0.0
 11
7862.081542924807
 21
1473.477985361964
 31
0.0
  0
LINE
  5
2622E
330
747D
100
AcDbEntity
  8
部品1
 48
50.0
100
AcDbLine
 10
7807.869057050182
 20
1473.477985361964
 30
0.0
 11
7935.869057050182
 21
1473.477985361964
 31
0.0
  0
LINE
  5
2622F
330
747D
100
AcDbEntity
  8
細線
 48
50.0
100
AcDbLine
 10
7807.869057050179
 20
1446.20626785055
 30
0.0
 11
7835.140774561598
 21
1473.477985361964
 31
0.0
  0
LINE
  5
26230
330
747D
100
AcDbEntity
  8
細線
 48
50.0
100
AcDbLine
 10
8053.133836736128
 20
1233.477985361964
 30
0.0
 11
8349.869057050183
 21
1530.213205676016
 31
0.0
  0
LINE
  5
26231
330
747D
100
AcDbEntity
  8
細線
 48
50.0
100
AcDbLine
 10
8080.074605099332
 20
1233.477985361964
 30
0.0
 11
8349.869057050183
 21
1503.272437312821
 31
0.0
  0
LINE
  5
26232
330
747D
100
AcDbEntity
  8
細線
 48
50.0
100
AcDbLine
 10
8026.193068372917
 20
1233.477985361964
 30
0.0
 11
8349.869057050183
 21
1557.15397403923
 31
0.0
  0
LINE
  5
26233
330
747D
100
AcDbEntity
  8
細線
 48
50.0
100
AcDbLine
 10
8241.719215278576
 20
1233.477985361964
 30
0.0
 11
8477.869057050183
 21
1469.627827133572
 31
0.0
  0
LINE
  5
26234
330
747D
100
AcDbEntity
  8
細線
 48
50.0
100
AcDbLine
 10
8268.659983641788
 20
1233.477985361964
 30
0.0
 11
8477.869057050183
 21
1442.687058770357
 31
0.0
  0
LINE
  5
26235
330
747D
100
AcDbEntity
  8
部品1
 48
50.0
100
AcDbLine
 10
8477.869057050183
 20
1473.477985361964
 30
0.0
 11
8477.869057050183
 21
1233.477985361964
 31
0.0
  0
LINE
  5
26236
330
747D
100
AcDbEntity
  8
細線
 48
50.0
100
AcDbLine
 10
8295.600752004991
 20
1233.477985361964
 30
0.0
 11
8477.869057050183
 21
1415.74629040716
 31
0.0
  0
LINE
  5
26237
330
747D
100
AcDbEntity
  8
細線
 48
50.0
100
AcDbLine
 10
8170.827986440695
 20
1105.477985361962
 30
0.0
 11
8205.125483071876
 21
1233.477985361962
 31
0.0
  0
LINE
  5
26238
330
747D
100
AcDbEntity
  8
細線
 48
50.0
100
AcDbLine
 10
8013.051896546198
 20
1105.477985361964
 30
0.0
 11
8047.349393177382
 21
1233.477985361964
 31
0.0
  0
LINE
  5
26239
330
747D
100
AcDbEntity
  8
細線
 48
50.0
100
AcDbLine
 10
8091.939941493444
 20
1105.477985361964
 30
0.0
 11
8126.237438124631
 21
1233.477985361962
 31
0.0
  0
LINE
  5
2623A
330
747D
100
AcDbEntity
  8
細線
 48
50.0
100
AcDbLine
 10
8249.716031387936
 20
1105.477985361964
 30
0.0
 11
8284.013528019121
 21
1233.477985361962
 31
0.0
  0
LINE
  5
2623B
330
747D
100
AcDbEntity
  8
細線
 48
50.0
100
AcDbLine
 10
8098.370722111797
 20
1129.477985361964
 30
0.0
 11
8104.801502730145
 21
1105.477985361964
 31
0.0
  0
LINE
  5
2623C
330
747D
100
AcDbEntity
  8
細線
 48
50.0
100
AcDbLine
 10
8019.48267716455
 20
1129.477985361964
 30
0.0
 11
8025.913457782896
 21
1105.477985361964
 31
0.0
  0
LINE
  5
2623D
330
747D
100
AcDbEntity
  8
細線
 48
50.0
100
AcDbLine
 10
8256.14681200629
 20
1129.477985361964
 30
0.0
 11
8262.577592624635
 21
1105.477985361964
 31
0.0
  0
LINE
  5
2623E
330
747D
100
AcDbEntity
  8
細線
 48
50.0
100
AcDbLine
 10
8177.258767059043
 20
1129.477985361964
 30
0.0
 11
8183.68954767739
 21
1105.477985361964
 31
0.0
  0
LINE
  5
2623F
330
747D
100
AcDbEntity
  8
細線
 48
50.0
100
AcDbLine
 10
8119.806657506286
 20
1209.477985361964
 30
0.0
 11
8113.375876887937
 21
1233.477985361964
 31
0.0
  0
LINE
  5
26240
330
747D
100
AcDbEntity
  8
細線
 48
50.0
100
AcDbLine
 10
8040.918612559037
 20
1209.477985361964
 30
0.0
 11
8034.487831940692
 21
1233.477985361964
 31
0.0
  0
LINE
  5
26241
330
747D
100
AcDbEntity
  8
細線
 48
50.0
100
AcDbLine
 10
8198.694702453533
 20
1209.477985361964
 30
0.0
 11
8192.263921835184
 21
1233.477985361964
 31
0.0
  0
LINE
  5
26242
330
747D
100
AcDbEntity
  8
細線
 48
50.0
100
AcDbLine
 10
8277.582747400778
 20
1209.477985361964
 30
0.0
 11
8271.151966782431
 21
1233.477985361964
 31
0.0
  0
LINE
  5
26243
330
747D
100
AcDbEntity
  8
部品1
 48
50.0
100
AcDbLine
 10
8557.869057050186
 20
1233.477985361964
 30
0.0
 11
8557.869057050186
 21
1105.477985361964
 31
0.0
  0
LINE
  5
26244
330
747D
100
AcDbEntity
  8
細線
 48
50.0
100
AcDbLine
 10
8486.380166229677
 20
1105.477985361962
 30
0.0
 11
8520.677662860864
 21
1233.477985361961
 31
0.0
  0
LINE
  5
26245
330
747D
100
AcDbEntity
  8
細線
 48
50.0
100
AcDbLine
 10
8328.604076335185
 20
1105.477985361962
 30
0.0
 11
8362.901572966359
 21
1233.477985361964
 31
0.0
  0
LINE
  5
26246
330
747D
100
AcDbEntity
  8
細線
 48
50.0
100
AcDbLine
 10
8407.492121282434
 20
1105.477985361961
 30
0.0
 11
8441.789617913617
 21
1233.477985361961
 31
0.0
  0
LINE
  5
26247
330
747D
100
AcDbEntity
  8
細線
 48
50.0
100
AcDbLine
 10
8335.034856953534
 20
1129.477985361964
 30
0.0
 11
8341.465637571891
 21
1105.477985361964
 31
0.0
  0
LINE
  5
26248
330
747D
100
AcDbEntity
  8
細線
 48
50.0
100
AcDbLine
 10
8413.922901900784
 20
1129.477985361962
 30
0.0
 11
8420.353682519129
 21
1105.477985361962
 31
0.0
  0
LINE
  5
26249
330
747D
100
AcDbEntity
  8
細線
 48
50.0
100
AcDbLine
 10
8492.810946848029
 20
1129.477985361962
 30
0.0
 11
8499.241727466376
 21
1105.477985361962
 31
0.0
  0
LINE
  5
2624A
330
747D
100
AcDbEntity
  8
細線
 48
50.0
100
AcDbLine
 10
8356.470792348018
 20
1209.477985361964
 30
0.0
 11
8350.040011729669
 21
1233.477985361964
 31
0.0
  0
LINE
  5
2624B
330
747D
100
AcDbEntity
  8
細線
 48
50.0
100
AcDbLine
 10
8435.358837295273
 20
1209.477985361962
 30
0.0
 11
8428.928056676927
 21
1233.477985361962
 31
0.0
  0
LINE
  5
2624C
330
747D
100
AcDbEntity
  8
細線
 48
50.0
100
AcDbLine
 10
8514.246882242519
 20
1209.477985361962
 30
0.0
 11
8507.816101624172
 21
1233.477985361962
 31
0.0
  0
LINE
  5
2624D
330
747D
100
AcDbEntity
  8
部品1
100
AcDbLine
 10
8220.269057050185
 20
1693.477985361962
 30
0.0
 11
8094.269057050176
 21
1693.477985361962
 31
0.0
  0
LINE
  5
2624E
330
747D
100
AcDbEntity
  8
部品1
100
AcDbLine
 10
8202.269057050184
 20
1774.477985361964
 30
0.0
 11
8202.269057050184
 21
1792.477985361964
 31
0.0
  0
ARC
  5
2624F
330
747D
100
AcDbEntity
  8
部品1
100
AcDbCircle
 10
8166.269057050184
 20
1792.477985361964
 30
0.0
 40
18.0
100
AcDbArc
 50
180.0
 51
270.0
  0
LINE
  5
26250
330
747D
100
AcDbEntity
  8
部品1
100
AcDbLine
 10
8166.269057050184
 20
1774.477985361964
 30
0.0
 11
8202.269057050184
 21
1774.477985361964
 31
0.0
  0
LINE
  5
26251
330
747D
100
AcDbEntity
  8
部品1
100
AcDbLine
 10
8166.269057050184
 20
1792.477985361964
 30
0.0
 11
8202.269057050184
 21
1792.477985361964
 31
0.0
  0
LINE
  5
26252
330
747D
100
AcDbEntity
  8
部品1
 48
50.0
100
AcDbLine
 10
8349.869057050183
 20
1473.477985361964
 30
0.0
 11
8477.869057050183
 21
1473.477985361964
 31
0.0
  0
LINE
  5
26253
330
747D
100
AcDbEntity
  8
部品1
100
AcDbLine
 10
7955.669057050183
 20
2107.477985361964
 30
0.0
 11
7993.469057050184
 21
2107.477985361964
 31
0.0
  0
LINE
  5
26254
330
747D
100
AcDbEntity
  8
細線
 48
50.0
100
AcDbLine
 10
7935.869057050182
 20
1978.317793298662
 30
0.0
 11
7975.029249113489
 21
2017.477985361964
 31
0.0
  0
LINE
  5
26255
330
747D
100
AcDbEntity
  8
細線
 48
50.0
100
AcDbLine
 10
7935.869057050182
 20
1951.377024935454
 30
0.0
 11
8001.970017476693
 21
2017.477985361964
 31
0.0
  0
LINE
  5
26256
330
747D
100
AcDbEntity
  8
部品1
 48
50.0
100
AcDbLine
 10
7935.869057050182
 20
2017.477985361964
 30
0.0
 11
8349.869057050186
 21
2017.477985361964
 31
0.0
  0
LINE
  5
26257
330
747D
100
AcDbEntity
  8
部品1
100
AcDbLine
 10
7952.969057050184
 20
2096.677985361964
 30
0.0
 11
7952.969057050184
 21
2104.777985361964
 31
0.0
  0
ARC
  5
26258
330
747D
100
AcDbEntity
  8
部品1
100
AcDbCircle
 10
7955.669057050183
 20
2104.777985361964
 30
0.0
 40
2.7
100
AcDbArc
 50
90.0
 51
180.0
  0
ARC
  5
26259
330
747D
100
AcDbEntity
  8
部品1
100
AcDbCircle
 10
7944.869057050182
 20
2091.869889064672
 30
0.0
 40
2.7
100
AcDbArc
 50
104.0362434679067
 51
180.0
  0
LINE
  5
2625A
330
747D
100
AcDbEntity
  8
部品1
100
AcDbLine
 10
7944.214210862584
 20
2094.489273815064
 30
0.0
 11
7952.969057050184
 21
2096.677985361964
 31
0.0
  0
ARC
  5
2625B
330
747D
100
AcDbEntity
  8
部品1
100
AcDbCircle
 10
7944.869057050182
 20
2029.737985361964
 30
0.0
 40
2.7
100
AcDbArc
 50
180.0
 51
270.0
  0
LINE
  5
2625C
330
747D
100
AcDbEntity
  8
細線
 48
50.0
100
AcDbLine
 10
7935.869057050182
 20
2005.258561661869
 30
0.0
 11
7948.088480750278
 21
2017.477985361964
 31
0.0
  0
LINE
  5
2625D
330
747D
100
AcDbEntity
  8
部品1
100
AcDbLine
 10
7944.869057050182
 20
2027.037985361964
 30
0.0
 11
7956.569057050177
 21
2027.037985361964
 31
0.0
  0
LINE
  5
2625E
330
747D
100
AcDbEntity
  8
部品1
100
AcDbLine
 10
7942.169057050183
 20
2029.737985361964
 30
0.0
 11
7942.169057050183
 21
2091.869889064672
 31
0.0
  0
LINE
  5
2625F
330
747D
100
AcDbEntity
  8
部品1
100
AcDbLine
 10
8100.829057050178
 20
2027.037985361964
 30
0.0
 11
8302.169057050177
 21
2027.037985361964
 31
0.0
  0
LINE
  5
26260
330
747D
100
AcDbEntity
  8
部品1
100
AcDbLine
 10
7993.469057050184
 20
2107.477985361964
 30
0.0
 11
7993.469057050184
 21
2115.577985361964
 31
0.0
  0
LINE
  5
26261
330
747D
100
AcDbEntity
  8
部品1
100
AcDbLine
 10
8043.869057050182
 20
2126.377985361961
 30
0.0
 11
8043.869057050182
 21
2075.077985361964
 31
0.0
  0
LINE
  5
26262
330
747D
100
AcDbEntity
  8
部品1
100
AcDbLine
 10
8067.269057050184
 20
2087.037985361964
 30
0.0
 11
8095.429057050184
 21
2087.037985361964
 31
0.0
  0
ARC
  5
26263
330
747D
100
AcDbEntity
  8
部品1
100
AcDbCircle
 10
8067.269057050184
 20
2084.337985361965
 30
0.0
 40
2.7
100
AcDbArc
 50
90.0
 51
180.0
  0
ARC
  5
26264
330
747D
100
AcDbEntity
  8
部品1
100
AcDbCircle
 10
8095.429057050184
 20
2084.337985361965
 30
0.0
 40
2.7
100
AcDbArc
 50
0.0
 51
90.0
  0
LINE
  5
26265
330
747D
100
AcDbEntity
  8
部品1
100
AcDbLine
 10
8086.169057050183
 20
2072.377985361963
 30
0.0
 11
8086.169057050183
 21
2029.737985361964
 31
0.0
  0
LINE
  5
26266
330
747D
100
AcDbEntity
  8
部品1
100
AcDbLine
 10
8071.769057050184
 20
2027.037985361964
 30
0.0
 11
8083.469057050185
 21
2027.037985361964
 31
0.0
  0
ARC
  5
26267
330
747D
100
AcDbEntity
  8
部品1
100
AcDbCircle
 10
8100.829057050178
 20
2029.737985361964
 30
0.0
 40
2.7
100
AcDbArc
 50
180.0
 51
270.0
  0
ARC
  5
26268
330
747D
100
AcDbEntity
  8
部品1
100
AcDbCircle
 10
8083.469057050185
 20
2029.737985361964
 30
0.0
 40
2.7
100
AcDbArc
 50
270.0
 51
0.0
  0
LINE
  5
26269
330
747D
100
AcDbEntity
  8
部品1
100
AcDbLine
 10
8043.869057050182
 20
2075.077985361964
 30
0.0
 11
8083.469057050185
 21
2075.077985361964
 31
0.0
  0
ARC
  5
2626A
330
747D
100
AcDbEntity
  8
部品1
100
AcDbCircle
 10
8083.469057050185
 20
2072.377985361963
 30
0.0
 40
2.7
100
AcDbArc
 50
0.0
 51
90.0
  0
LINE
  5
2626B
330
747D
100
AcDbEntity
  8
部品1
100
AcDbLine
 10
8098.129057050185
 20
2084.337985361965
 30
0.0
 11
8098.129057050181
 21
2029.737985361964
 31
0.0
  0
LINE
  5
2626C
330
747D
100
AcDbEntity
  8
部品1
100
AcDbLine
 10
8064.569057050183
 20
2084.337985361965
 30
0.0
 11
8064.569057050183
 21
2067.237985361964
 31
0.0
  0
LINE
  5
2626D
330
747D
100
AcDbEntity
  8
細線
100
AcDbLine
 10
8162.669057050184
 20
2027.037985361964
 30
0.0
 11
8162.669057050184
 21
2070.237985361965
 31
0.0
  0
LINE
  5
2626E
330
747D
100
AcDbEntity
  8
細線
100
AcDbLine
 10
8151.869057050186
 20
2027.037985361964
 30
0.0
 11
8151.869057050182
 21
2070.237985361965
 31
0.0
  0
LINE
  5
2626F
330
747D
100
AcDbEntity
  8
部品1
100
AcDbLine
 10
8148.269057050184
 20
2066.637985361964
 30
0.0
 11
8166.269057050184
 21
2066.637985361964
 31
0.0
  0
LINE
  5
26270
330
747D
100
AcDbEntity
  8
部品1
100
AcDbLine
 10
8151.869057050182
 20
2070.237985361965
 30
0.0
 11
8162.669057050184
 21
2070.237985361965
 31
0.0
  0
ELLIPSE
  5
26271
330
747D
100
AcDbEntity
  8
部品1
 48
50.0
100
AcDbEllipse
 10
8157.269057050184
 20
2286.601273806236
 30
0.0
 11
40.0
 21
0.0
 31
0.0
210
0.0
220
0.0
230
1.0
 40
0.4
 41
0.0
 42
6.283185307179586
  0
ELLIPSE
  5
26272
330
747D
100
AcDbEntity
  8
部品1
 48
50.0
100
AcDbEllipse
 10
8157.269057050184
 20
2277.001273806237
 30
0.0
 11
40.0
 21
0.0
 31
0.0
210
0.0
220
0.0
230
1.0
 40
0.4
 41
3.141592653589793
 42
6.283185307179586
  0
LINE
  5
26273
330
747D
100
AcDbEntity
  8
部品1
 48
50.0
100
AcDbLine
 10
8117.269057050185
 20
2286.601273806236
 30
0.0
 11
8117.269057050185
 21
2277.001273806236
 31
0.0
  0
ARC
  5
26274
330
747D
100
AcDbEntity
  8
部品1
100
AcDbCircle
 10
8041.169057050183
 20
2126.377985361961
 30
0.0
 40
2.7
100
AcDbArc
 50
0.0
 51
90.0
  0
ARC
  5
26275
330
747D
100
AcDbEntity
  8
部品1
100
AcDbCircle
 10
7998.869057050182
 20
2126.377985361964
 30
0.0
 40
2.7
100
AcDbArc
 50
90.0
 51
180.0
  0
LINE
  5
26276
330
747D
100
AcDbEntity
  8
部品1
100
AcDbLine
 10
7996.169057050183
 20
2118.277985361964
 30
0.0
 11
7996.169057050183
 21
2118.277985361964
 31
0.0
  0
LINE
  5
26277
330
747D
100
AcDbEntity
  8
部品1
100
AcDbLine
 10
7996.169057050183
 20
2118.277985361964
 30
0.0
 11
7996.169057050183
 21
2126.377985361964
 31
0.0
  0
LINE
  5
26278
330
747D
100
AcDbEntity
  8
部品1
100
AcDbLine
 10
7998.869057050182
 20
2129.077985361965
 30
0.0
 11
8041.169057050183
 21
2129.077985361961
 31
0.0
  0
ARC
  5
26279
330
747D
100
AcDbEntity
  8
部品1
100
AcDbCircle
 10
7996.169057050183
 20
2115.577985361964
 30
0.0
 40
2.7
100
AcDbArc
 50
90.0
 51
180.0
  0
ELLIPSE
  5
2627A
330
747D
100
AcDbEntity
  8
部品1
 48
50.0
100
AcDbEllipse
 10
8157.269057050184
 20
2286.601273806236
 30
0.0
 11
18.4
 21
0.0
 31
0.0
210
0.0
220
0.0
230
1.0
 40
0.3478260869565217
 41
0.0
 42
6.283185307179586
  0
LINE
  5
2627B
330
747D
100
AcDbEntity
  8
部品1
 48
50.0
100
AcDbLine
 10
8197.269057050183
 20
2277.001273806236
 30
0.0
 11
8197.269057050183
 21
2286.601273806236
 31
0.0
  0
LINE
  5
2627C
330
747D
100
AcDbEntity
  8
部品1
 48
50.0
100
AcDbLine
 10
8125.269057050184
 20
2408.353266471106
 30
0.0
 11
8141.269057050184
 21
2400.353266471107
 31
0.0
  0
LINE
  5
2627D
330
747D
100
AcDbEntity
  8
部品1
 48
50.0
100
AcDbLine
 10
8125.269057050184
 20
2376.353266471106
 30
0.0
 11
8141.269057050184
 21
2368.353266471107
 31
0.0
  0
LINE
  5
2627E
330
747D
100
AcDbEntity
  8
部品1
 48
50.0
100
AcDbLine
 10
8125.269057050184
 20
2408.353266471106
 30
0.0
 11
8141.269057050184
 21
2416.353266471107
 31
0.0
  0
LINE
  5
2627F
330
747D
100
AcDbEntity
  8
部品1
 48
50.0
100
AcDbLine
 10
8125.269057050184
 20
2376.353266471106
 30
0.0
 11
8125.269057050184
 21
2408.353266471106
 31
0.0
  0
LINE
  5
26280
330
747D
100
AcDbEntity
  8
部品1
 48
50.0
100
AcDbLine
 10
8141.269057050184
 20
2416.353266471107
 30
0.0
 11
8173.269057050184
 21
2416.353266471107
 31
0.0
  0
ELLIPSE
  5
26281
330
747D
100
AcDbEntity
  8
細線
 48
50.0
100
AcDbEllipse
 10
8157.269057050184
 20
2408.353266471106
 30
0.0
 11
14.76670786606846
 21
0.0
 31
0.0
210
0.0
220
0.0
230
1.0
 40
0.2071254069489396
 41
0.0
 42
6.283185307179586
  0
LINE
  5
26282
330
747D
100
AcDbEntity
  8
部品1
 48
50.0
100
AcDbLine
 10
8141.269057050184
 20
2368.353266471107
 30
0.0
 11
8173.269057050184
 21
2368.353266471107
 31
0.0
  0
LINE
  5
26283
330
747D
100
AcDbEntity
  8
部品1
 48
50.0
100
AcDbLine
 10
8173.269057050184
 20
2368.353266471107
 30
0.0
 11
8189.269057050184
 21
2376.353266471106
 31
0.0
  0
LINE
  5
26284
330
747D
100
AcDbEntity
  8
部品1
 48
50.0
100
AcDbLine
 10
8141.269057050184
 20
2400.353266471107
 30
0.0
 11
8173.269057050184
 21
2400.353266471107
 31
0.0
  0
LINE
  5
26285
330
747D
100
AcDbEntity
  8
部品1
 48
50.0
100
AcDbLine
 10
8173.269057050184
 20
2400.353266471107
 30
0.0
 11
8189.269057050184
 21
2408.353266471106
 31
0.0
  0
LINE
  5
26286
330
747D
100
AcDbEntity
  8
細線
 48
50.0
100
AcDbLine
 10
8173.269057050184
 20
2368.353266471107
 30
0.0
 11
8173.269057050184
 21
2400.353266471107
 31
0.0
  0
LINE
  5
26287
330
747D
100
AcDbEntity
  8
部品1
 48
50.0
100
AcDbLine
 10
8189.269057050184
 20
2376.353266471106
 30
0.0
 11
8189.269057050184
 21
2408.353266471106
 31
0.0
  0
LINE
  5
26288
330
747D
100
AcDbEntity
  8
細線
 48
50.0
100
AcDbLine
 10
8141.269057050184
 20
2368.353266471107
 30
0.0
 11
8141.269057050184
 21
2400.353266471107
 31
0.0
  0
LINE
  5
26289
330
747D
100
AcDbEntity
  8
部品1
 48
50.0
100
AcDbLine
 10
8173.269057050184
 20
2416.353266471107
 30
0.0
 11
8189.269057050184
 21
2408.353266471106
 31
0.0
  0
TEXT
  5
2628A
330
747D
100
AcDbEntity
  8
部品1
100
AcDbText
 10
7858.041306242114
 20
3237.264720611122
 30
0.0
 40
120.0
  1
基礎詳細
  7
STYLE2
100
AcDbText
  0
LINE
  5
2628B
330
747D
100
AcDbEntity
  8
部品1
100
AcDbLine
 10
11236.14649044997
 20
452.5096829779022
 30
0.0
 11
11236.14649044998
 21
3416.81665256255
 31
0.0
  0
LINE
  5
2628C
330
747D
100
AcDbEntity
  8
細線
100
AcDbLine
 10
10244.03832302972
 20
1777.477985361963
 30
0.0
 11
10049.40498935294
 21
1972.111319038747
 31
0.0
  0
LINE
  5
2628D
330
747D
100
AcDbEntity
  8
部品1
100
AcDbLine
 10
10049.40498935294
 20
2017.477985361964
 30
0.0
 11
10529.40498935294
 21
2017.477985361964
 31
0.0
  0
LINE
  5
2628E
330
747D
100
AcDbEntity
  8
細線
 48
50.0
100
AcDbLine
 10
10183.4758737962
 20
1557.779069708614
 30
0.0
 11
10217.77337042738
 21
1685.779069708613
 31
0.0
  0
LINE
  5
2628F
330
747D
100
AcDbEntity
  8
部品1
100
AcDbLine
 10
9929.40498935294
 20
1557.77906970861
 30
0.0
 11
10649.40498935294
 21
1557.779069708614
 31
0.0
  0
LINE
  5
26290
330
747D
100
AcDbEntity
  8
部品1
100
AcDbLine
 10
9929.40498935294
 20
1685.779069708614
 30
0.0
 11
10649.40498935294
 21
1685.779069708616
 31
0.0
  0
LINE
  5
26291
330
747D
100
AcDbEntity
  8
細線
100
AcDbLine
 10
10110.32363484618
 20
1685.779069708614
 30
0.0
 11
10202.02255049953
 21
1777.477985361963
 31
0.0
  0
LWPOLYLINE
  5
26292
330
747D
100
AcDbEntity
  8
部品1
 48
50.0
100
AcDbPolyline
 90
        2
 70
     0
 43
12.0
 10
9664.793727252552
 20
1777.477985361963
 10
10865.88603038417
 20
1777.477985361963
  0
LINE
  5
26293
330
747D
100
AcDbEntity
  8
細線
100
AcDbLine
 10
10193.12663478429
 20
1777.477985361963
 30
0.0
 11
10049.40498935294
 21
1921.199630793317
 31
0.0
  0
TEXT
  5
26294
330
747D
100
AcDbEntity
  8
部品1
 48
50.0
100
AcDbText
 10
9285.286902594439
 20
1510.678244724655
 30
0.0
 40
80.0
  1
ボルトの出
 50
90.0
  7
STYLE2
100
AcDbText
  0
LINE
  5
26295
330
747D
100
AcDbEntity
  8
部品1
100
AcDbLine
 10
10049.40498935294
 20
1777.477985361963
 30
0.0
 11
10049.40498935294
 21
2017.477985361964
 31
0.0
  0
LINE
  5
26296
330
747D
100
AcDbEntity
  8
細線
 48
50.0
100
AcDbLine
 10
10025.6997839017
 20
1557.779069708613
 30
0.0
 11
10059.99728053288
 21
1685.779069708613
 31
0.0
  0
LINE
  5
26297
330
747D
100
AcDbEntity
  8
細線
 48
50.0
100
AcDbLine
 10
10104.58782884895
 20
1557.779069708614
 30
0.0
 11
10138.88532548013
 21
1685.779069708614
 31
0.0
  0
LINE
  5
26298
330
747D
100
AcDbEntity
  8
細線
 48
50.0
100
AcDbLine
 10
9946.811738954453
 20
1557.779069708614
 30
0.0
 11
9981.109235585639
 21
1685.779069708614
 31
0.0
  0
LINE
  5
26299
330
747D
100
AcDbEntity
  8
部品1
100
AcDbLine
 10
9929.40498935294
 20
1557.77906970861
 30
0.0
 11
9929.40498935294
 21
1777.477985361963
 31
0.0
  0
LINE
  5
2629A
330
747D
100
AcDbEntity
  8
細線
 48
50.0
100
AcDbLine
 10
10032.13056452005
 20
1581.779069708614
 30
0.0
 11
10038.5613451384
 21
1557.779069708614
 31
0.0
  0
LINE
  5
2629B
330
747D
100
AcDbEntity
  8
細線
 48
50.0
100
AcDbLine
 10
9953.242519572802
 20
1581.779069708614
 30
0.0
 11
9959.673300191148
 21
1557.779069708614
 31
0.0
  0
LINE
  5
2629C
330
747D
100
AcDbEntity
  8
細線
 48
50.0
100
AcDbLine
 10
10111.0186094673
 20
1581.779069708614
 30
0.0
 11
10117.44939008565
 21
1557.779069708614
 31
0.0
  0
LINE
  5
2629D
330
747D
100
AcDbEntity
  8
細線
 48
50.0
100
AcDbLine
 10
10189.90665441455
 20
1581.779069708614
 30
0.0
 11
10196.3374350329
 21
1557.779069708614
 31
0.0
  0
LINE
  5
2629E
330
747D
100
AcDbEntity
  8
細線
 48
50.0
100
AcDbLine
 10
9974.678454967291
 20
1661.779069708614
 30
0.0
 11
9968.247674348944
 21
1685.779069708614
 31
0.0
  0
LINE
  5
2629F
330
747D
100
AcDbEntity
  8
細線
 48
50.0
100
AcDbLine
 10
10132.45454486179
 20
1661.779069708614
 30
0.0
 11
10126.02376424345
 21
1685.779069708614
 31
0.0
  0
LINE
  5
262A0
330
747D
100
AcDbEntity
  8
細線
 48
50.0
100
AcDbLine
 10
10053.56649991454
 20
1661.779069708614
 30
0.0
 11
10047.13571929619
 21
1685.779069708614
 31
0.0
  0
LINE
  5
262A1
330
747D
100
AcDbEntity
  8
細線
100
AcDbLine
 10
10042.44138385227
 20
1685.779069708614
 30
0.0
 11
10134.14029950562
 21
1777.477985361963
 31
0.0
  0
LINE
  5
262A2
330
747D
100
AcDbEntity
  8
細線
100
AcDbLine
 10
10076.38250934922
 20
1685.779069708614
 30
0.0
 11
10168.08142500257
 21
1777.477985361963
 31
0.0
  0
LINE
  5
262A3
330
747D
100
AcDbEntity
  8
細線
100
AcDbLine
 10
10464.65563875993
 20
1777.477985361963
 30
0.0
 11
10224.65563875993
 21
2017.477985361964
 31
0.0
  0
LINE
  5
262A4
330
747D
100
AcDbEntity
  8
細線
100
AcDbLine
 10
10515.56732700536
 20
1777.477985361966
 30
0.0
 11
10275.56732700536
 21
2017.477985361964
 31
0.0
  0
LINE
  5
262A5
330
747D
100
AcDbEntity
  8
部品1
100
AcDbLine
 10
10529.40498935294
 20
2017.477985361964
 30
0.0
 11
10529.40498935294
 21
1777.477985361963
 31
0.0
  0
LINE
  5
262A6
330
747D
100
AcDbEntity
  8
細線
 48
50.0
100
AcDbLine
 10
10499.02805358519
 20
1557.779069708611
 30
0.0
 11
10533.32555021637
 21
1685.779069708611
 31
0.0
  0
LINE
  5
262A7
330
747D
100
AcDbEntity
  8
細線
100
AcDbLine
 10
10470.32363484618
 20
1685.779069708615
 30
0.0
 11
10562.02255049953
 21
1777.477985361963
 31
0.0
  0
LINE
  5
262A8
330
747D
100
AcDbEntity
  8
細線
 48
50.0
100
AcDbLine
 10
10420.14000863794
 20
1557.779069708613
 30
0.0
 11
10454.43750526911
 21
1685.779069708614
 31
0.0
  0
LINE
  5
262A9
330
747D
100
AcDbEntity
  8
細線
 48
50.0
100
AcDbLine
 10
10262.36391874344
 20
1557.779069708613
 30
0.0
 11
10296.66141537463
 21
1685.779069708613
 31
0.0
  0
LINE
  5
262AA
330
747D
100
AcDbEntity
  8
細線
 48
50.0
100
AcDbLine
 10
10341.25196369069
 20
1557.779069708614
 30
0.0
 11
10375.54946032187
 21
1685.779069708613
 31
0.0
  0
LINE
  5
262AB
330
747D
100
AcDbEntity
  8
細線
 48
50.0
100
AcDbLine
 10
10347.68274430904
 20
1581.779069708614
 30
0.0
 11
10354.11352492739
 21
1557.779069708614
 31
0.0
  0
LINE
  5
262AC
330
747D
100
AcDbEntity
  8
細線
 48
50.0
100
AcDbLine
 10
10268.7946993618
 20
1581.779069708614
 30
0.0
 11
10275.22547998014
 21
1557.779069708614
 31
0.0
  0
LINE
  5
262AD
330
747D
100
AcDbEntity
  8
細線
 48
50.0
100
AcDbLine
 10
10426.57078925629
 20
1581.779069708614
 30
0.0
 11
10433.00156987464
 21
1557.779069708614
 31
0.0
  0
LINE
  5
262AE
330
747D
100
AcDbEntity
  8
細線
 48
50.0
100
AcDbLine
 10
10505.45883420354
 20
1581.779069708613
 30
0.0
 11
10511.88961482188
 21
1557.779069708613
 31
0.0
  0
LINE
  5
262AF
330
747D
100
AcDbEntity
  8
細線
 48
50.0
100
AcDbLine
 10
10369.11867970353
 20
1661.779069708614
 30
0.0
 11
10362.68789908518
 21
1685.779069708614
 31
0.0
  0
LINE
  5
262B0
330
747D
100
AcDbEntity
  8
細線
 48
50.0
100
AcDbLine
 10
10290.23063475628
 20
1661.779069708614
 30
0.0
 11
10283.79985413794
 21
1685.779069708614
 31
0.0
  0
LINE
  5
262B1
330
747D
100
AcDbEntity
  8
細線
 48
50.0
100
AcDbLine
 10
10211.34258980904
 20
1661.779069708614
 30
0.0
 11
10204.91180919069
 21
1685.779069708614
 31
0.0
  0
LINE
  5
262B2
330
747D
100
AcDbEntity
  8
細線
100
AcDbLine
 10
10436.38250934923
 20
1685.779069708615
 30
0.0
 11
10528.08142500257
 21
1777.477985361963
 31
0.0
  0
LINE
  5
262B3
330
747D
100
AcDbEntity
  8
細線
 48
50.0
100
AcDbLine
 10
10448.00672465077
 20
1661.779069708614
 30
0.0
 11
10441.57594403242
 21
1685.779069708614
 31
0.0
  0
LINE
  5
262B4
330
747D
100
AcDbEntity
  8
細線
100
AcDbLine
 10
10402.44138385227
 20
1685.779069708615
 30
0.0
 11
10494.14029950562
 21
1777.477985361963
 31
0.0
  0
LINE
  5
262B5
330
747D
100
AcDbEntity
  8
細線
 48
50.0
100
AcDbLine
 10
10526.89476959802
 20
1661.779069708613
 30
0.0
 11
10520.46398897968
 21
1685.779069708613
 31
0.0
  0
LINE
  5
262B6
330
747D
100
AcDbEntity
  8
細線
 48
50.0
100
AcDbLine
 10
10577.91609853243
 20
1557.779069708613
 30
0.0
 11
10612.21359516361
 21
1685.779069708611
 31
0.0
  0
LINE
  5
262B7
330
747D
100
AcDbEntity
  8
部品1
100
AcDbLine
 10
10649.40498935294
 20
1777.477985361963
 30
0.0
 11
10649.40498935294
 21
1557.779069708614
 31
0.0
  0
LINE
  5
262B8
330
747D
100
AcDbEntity
  8
細線
 48
50.0
100
AcDbLine
 10
10584.34687915078
 20
1581.779069708613
 30
0.0
 11
10590.77765976913
 21
1557.779069708613
 31
0.0
  0
LINE
  5
262B9
330
747D
100
AcDbEntity
  8
細線
 48
50.0
100
AcDbLine
 10
10605.78281454527
 20
1661.779069708613
 30
0.0
 11
10599.35203392692
 21
1685.779069708613
 31
0.0
  0
LEADER
  5
262BA
330
747D
100
AcDbEntity
  8
寸法
 48
50.0
100
AcDbLeader
  3
INABA_S50G
 73
     0
 74
     0
 75
     1
 40
120.0
 41
185.591883092037
 76
     3
 10
10460.12940096886
 20
2017.477985361964
 30
0.0
 10
10493.2676076025
 20
2189.624306043102
 30
0.0
 10
10618.2676076025
 20
2189.624306043102
 30
0.0
340
262BB
1001
ACAD
1000
DSTYLE
1002
{
1070
    40
1040
1.0
1002
}
  0
MTEXT
  5
262BB
102
{ACAD_REACTORS
330
262BA
102
}
330
747D
100
AcDbEntity
  8
寸法
 62
     7
 48
50.0
100
AcDbMText
 10
10643.2676076025
 20
2274.624306043102
 30
0.0
 40
120.0
 41
0.8
 71
     4
 72
     1
  1
\A1;C.B
  7
STYLE1
 73
     1
 44
1.0
1001
ACAD
1000
MTEXTBEGIN
1070
    73
1070
     1
1070
    44
1040
1.0
1070
    74
1070
     0
1000
MTEXTEND
  0
ENDSEC
  0
SECTION
  2
OBJECTS
  0
DICTIONARY
  5
7471
330
0
100
AcDbDictionary
281
     1
  3
ACAD_COLOR
350
173D2
  3
ACAD_GROUP
350
7472
  3
ACAD_LAYOUT
350
173D3
  3
ACAD_MATERIAL
350
173D1
  3
ACAD_MLINESTYLE
350
7473
  3
ACAD_PLOTSETTINGS
350
173D4
  3
ACAD_PLOTSTYLENAME
350
173CF
  3
ACDBHEADERROUNDTRIPXREC
350
26352
  3
AcDbVariableDictionary
350
25F67
  3
CONTENTDICTIONARY
350
E71C
  3
DRAWINGVARIABLESDICT
350
F3B9
  0
DICTIONARY
  5
1758F
330
7467
100
AcDbDictionary
280
     1
281
     1
  3
ACAD_LAYERSTATES
360
17590
  0
DICTIONARY
  5
173D2
102
{ACAD_REACTORS
330
7471
102
}
330
7471
100
AcDbDictionary
281
     1
  0
DICTIONARY
  5
7472
102
{ACAD_REACTORS
330
7471
102
}
330
7471
100
AcDbDictionary
281
     1
  3
*A1
350
1D2A9
  0
DICTIONARY
  5
173D3
102
{ACAD_REACTORS
330
7471
102
}
330
7471
100
AcDbDictionary
281
     1
  3
Model
350
173D5
  3
レイアウト1
350
173D6
  0
DICTIONARY
  5
173D1
102
{ACAD_REACTORS
330
7471
102
}
330
7471
100
AcDbDictionary
281
     1
  0
DICTIONARY
  5
7473
102
{ACAD_REACTORS
330
7471
102
}
330
7471
100
AcDbDictionary
281
     1
  3
STANDARD
350
7480
  0
DICTIONARY
  5
173D4
102
{ACAD_REACTORS
330
7471
102
}
330
7471
100
AcDbDictionary
281
     1
  0
ACDBDICTIONARYWDFLT
  5
173CF
102
{ACAD_REACTORS
330
7471
102
}
330
7471
100
AcDbDictionary
281
     1
  3
Normal
350
173D0
100
AcDbDictionaryWithDefault
340
173D0
  0
DICTIONARY
  5
26352
102
{ACAD_REACTORS
330
7471
102
}
330
7471
100
AcDbDictionary
281
     1
  3
COLORDICT
350
26354
  3
MATERIALDICT
350
26353
  0
DICTIONARY
  5
25F67
102
{ACAD_REACTORS
330
7471
102
}
330
7471
100
AcDbDictionary
281
     1
  3
DIMASSOC
350
25F68
  3
PROJECTNAME
350
25F69
  0
DICTIONARY
  5
E71C
102
{ACAD_REACTORS
330
7471
102
}
330
7471
100
AcDbDictionary
281
     1
  0
DICTIONARY
  5
F3B9
102
{ACAD_REACTORS
330
7471
102
}
330
7471
100
AcDbDictionary
281
     1
1001
DRAWINGVARIABLESXDATA
1000
POLARMODE
1000
1
  0
DICTIONARY
  5
17590
102
{ACAD_REACTORS
330
1758F
102
}
330
1758F
100
AcDbDictionary
281
     1
  0
GROUP
  5
1D2A9
102
{ACAD_REACTORS
330
7472
102
}
330
7472
100
AcDbGroup
300

 70
     1
 71
     1
  0
LAYOUT
  5
173D5
102
{ACAD_XDICTIONARY
360
26355
102
}
102
{ACAD_REACTORS
330
173D3
102
}
330
173D3
100
AcDbPlotSettings
  1

  2
Microsoft Office Document Image Writer
  4

  6

 40
0.0
 41
0.0
 42
0.0
 43
0.0
 44
0.0
 45
0.0
 46
0.0
 47
0.0
 48
0.0
 49
0.0
140
0.0
141
0.0
142
1.0
143
1.0
 70
  1712
 72
     0
 73
     0
 74
     0
  7

 75
     0
147
1.0
148
0.0
149
0.0
100
AcDbLayout
  1
Model
 70
     1
 71
     0
 10
0.0
 20
0.0
 11
12.0
 21
9.0
 12
0.0
 22
0.0
 32
0.0
 14
0.0
 24
0.0
 34
0.0
 15
0.0
 25
0.0
 35
0.0
146
0.0
 13
0.0
 23
0.0
 33
0.0
 16
1.0
 26
0.0
 36
0.0
 17
0.0
 27
1.0
 37
0.0
 76
     0
330
747D
  0
LAYOUT
  5
173D6
102
{ACAD_XDICTIONARY
360
26357
102
}
102
{ACAD_REACTORS
330
173D3
102
}
330
173D3
100
AcDbPlotSettings
  1

  2
Microsoft Office Document Image Writer
  4

  6

 40
0.0
 41
0.0
 42
0.0
 43
0.0
 44
0.0
 45
0.0
 46
0.0
 47
0.0
 48
0.0
 49
0.0
140
0.0
141
0.0
142
1.0
143
1.0
 70
   688
 72
     0
 73
     0
 74
     5
  7

 75
    16
147
1.0
148
0.0
149
0.0
100
AcDbLayout
  1
レイアウト1
 70
     0
 71
     1
 10
0.0
 20
0.0
 11
420.0
 21
297.0
 12
0.0
 22
0.0
 32
0.0
 14
1.000000000000000E+20
 24
1.000000000000000E+20
 34
1.000000000000000E+20
 15
-1.000000000000000E+20
 25
-1.000000000000000E+20
 35
-1.000000000000000E+20
146
0.0
 13
0.0
 23
0.0
 33
0.0
 16
1.0
 26
0.0
 36
0.0
 17
0.0
 27
1.0
 37
0.0
 76
     0
330
747A
  0
MLINESTYLE
  5
7480
102
{ACAD_REACTORS
330
7473
102
}
330
7473
100
AcDbMlineStyle
  2
STANDARD
 70
     0
  3

 62
     0
 51
90.0
 52
90.0
 71
     2
 49
0.5
 62
   256
  6
BYLAYER
 49
-0.5
 62
   256
  6
BYLAYER
  0
ACDBPLACEHOLDER
  5
173D0
102
{ACAD_REACTORS
330
173CF
102
}
330
173CF
  0
XRECORD
  5
26354
102
{ACAD_REACTORS
330
26352
102
}
330
26352
100
AcDbXrecord
280
     1
340
173D2
  0
XRECORD
  5
26353
102
{ACAD_REACTORS
330
26352
102
}
330
26352
100
AcDbXrecord
280
     1
340
173D1
  0
DICTIONARYVAR
  5
25F68
102
{ACAD_REACTORS
330
25F67
102
}
330
25F67
100
DictionaryVariables
280
     0
  1
1
  0
DICTIONARYVAR
  5
25F69
102
{ACAD_REACTORS
330
25F67
102
}
330
25F67
100
DictionaryVariables
280
     0
  1

  0
DICTIONARY
  5
26355
330
173D5
100
AcDbDictionary
280
     1
281
     1
  3
ACAD_XREC_ROUNDTRIP
360
26356
  0
DICTIONARY
  5
26357
330
173D6
100
AcDbDictionary
280
     1
281
     1
  3
ACAD_XREC_ROUNDTRIP
360
26358
  0
XRECORD
  5
26356
102
{ACAD_REACTORS
330
26355
102
}
330
26355
100
AcDbXrecord
280
     1
102
SHADEPLOT
 70
     0
102
SHADEPLOTRESLEVEL
 70
     2
102
SHADEPLOTCUSTOMDPI
 70
   300
  0
XRECORD
  5
26358
102
{ACAD_REACTORS
330
26357
102
}
330
26357
100
AcDbXrecord
280
     1
102
SHADEPLOT
 70
     0
102
SHADEPLOTRESLEVEL
 70
     2
102
SHADEPLOTCUSTOMDPI
 70
   300
  0
ENDSEC
  0
EOF
