  0
SECTION
  2
HEADER
  9
$ACADVER
  1
AC1015
  9
$ACADMAINTVER
 70
    20
  9
$DWGCODEPAGE
  3
ANSI_932
  9
$INSBASE
 10
0.0
 20
0.0
 30
0.0
  9
$EXTMIN
 10
139.9999999999995
 20
-0.0000000000000909
 30
0.0
  9
$EXTMAX
 10
16307.2
 20
11409.6
 30
0.0
  9
$LIMMIN
 10
0.0
 20
0.0
  9
$LIMMAX
 10
16800.0
 20
11880.0
  9
$ORTHOMODE
 70
     0
  9
$REGENMODE
 70
     1
  9
$FILLMODE
 70
     1
  9
$QTEXTMODE
 70
     0
  9
$MIRRTEXT
 70
     1
  9
$LTSCALE
 40
20.0
  9
$ATTMODE
 70
     1
  9
$TEXTSIZE
 40
4.0
  9
$TRACEWID
 40
1.0
  9
$TEXTSTYLE
  7
STYLE1
  9
$CLAYER
  8
細線
  9
$CELTYPE
  6
BYLAYER
  9
$CECOLOR
 62
   256
  9
$CELTSCALE
 40
50.0
  9
$DISPSILH
 70
     0
  9
$DIMSCALE
 40
40.0
  9
$DIMASZ
 40
2.5
  9
$DIMEXO
 40
0.5
  9
$DIMDLI
 40
7.0
  9
$DIMRND
 40
0.0
  9
$DIMDLE
 40
0.0
  9
$DIMEXE
 40
1.5
  9
$DIMTP
 40
0.0
  9
$DIMTM
 40
0.0
  9
$DIMTXT
 40
3.0
  9
$DIMCEN
 40
0.0
  9
$DIMTSZ
 40
0.0
  9
$DIMTOL
 70
     0
  9
$DIMLIM
 70
     0
  9
$DIMTIH
 70
     0
  9
$DIMTOH
 70
     0
  9
$DIMSE1
 70
     0
  9
$DIMSE2
 70
     0
  9
$DIMTAD
 70
     3
  9
$DIMZIN
 70
     8
  9
$DIMBLK
  1

  9
$DIMASO
 70
     1
  9
$DIMSHO
 70
     1
  9
$DIMPOST
  1

  9
$DIMAPOST
  1

  9
$DIMALT
 70
     0
  9
$DIMALTD
 70
     2
  9
$DIMALTF
 40
0.0394
  9
$DIMLFAC
 40
1.0
  9
$DIMTOFL
 70
     1
  9
$DIMTVP
 40
0.0
  9
$DIMTIX
 70
     1
  9
$DIMSOXD
 70
     0
  9
$DIMSAH
 70
     1
  9
$DIMBLK1
  1
DOTSMALL
  9
$DIMBLK2
  1
DOTSMALL
  9
$DIMSTYLE
  2
INABA_S40G
  9
$DIMCLRD
 70
     0
  9
$DIMCLRE
 70
     0
  9
$DIMCLRT
 70
     7
  9
$DIMTFAC
 40
1.0
  9
$DIMGAP
 40
1.0
  9
$DIMJUST
 70
     0
  9
$DIMSD1
 70
     0
  9
$DIMSD2
 70
     0
  9
$DIMTOLJ
 70
     1
  9
$DIMTZIN
 70
     0
  9
$DIMALTZ
 70
     0
  9
$DIMALTTZ
 70
     0
  9
$DIMUPT
 70
     0
  9
$DIMDEC
 70
     1
  9
$DIMTDEC
 70
     4
  9
$DIMALTU
 70
     2
  9
$DIMALTTD
 70
     2
  9
$DIMTXSTY
  7
STYLE1
  9
$DIMAUNIT
 70
     0
  9
$DIMADEC
 70
     0
  9
$DIMALTRND
 40
0.0
  9
$DIMAZIN
 70
     0
  9
$DIMDSEP
 70
    46
  9
$DIMATFIT
 70
     3
  9
$DIMFRAC
 70
     0
  9
$DIMLDRBLK
  1

  9
$DIMLUNIT
 70
     2
  9
$DIMLWD
 70
    -2
  9
$DIMLWE
 70
    -2
  9
$DIMTMOVE
 70
     0
  9
$LUNITS
 70
     2
  9
$LUPREC
 70
     1
  9
$SKETCHINC
 40
1.0
  9
$FILLETRAD
 40
3.0
  9
$AUNITS
 70
     0
  9
$AUPREC
 70
     0
  9
$MENU
  1
acad
  9
$ELEVATION
 40
0.0
  9
$PELEVATION
 40
0.0
  9
$THICKNESS
 40
0.0
  9
$LIMCHECK
 70
     0
  9
$CHAMFERA
 40
0.0
  9
$CHAMFERB
 40
0.0
  9
$CHAMFERC
 40
0.0
  9
$CHAMFERD
 40
0.0
  9
$SKPOLY
 70
     0
  9
$TDCREATE
 40
2451368.612993866
  9
$TDUCREATE
 40
2451368.237993866
  9
$TDUPDATE
 40
2455826.584480070
  9
$TDUUPDATE
 40
2455826.209480070
  9
$TDINDWG
 40
0.7699896412
  9
$TDUSRTIMER
 40
0.7699896412
  9
$USRTIMER
 70
     1
  9
$ANGBASE
 50
0.0
  9
$ANGDIR
 70
     0
  9
$PDMODE
 70
     3
  9
$PDSIZE
 40
2.0
  9
$PLINEWID
 40
0.0
  9
$SPLFRAME
 70
     0
  9
$SPLINETYPE
 70
     6
  9
$SPLINESEGS
 70
     8
  9
$HANDSEED
  5
246A0
  9
$SURFTAB1
 70
     6
  9
$SURFTAB2
 70
     6
  9
$SURFTYPE
 70
     6
  9
$SURFU
 70
     6
  9
$SURFV
 70
     6
  9
$UCSBASE
  2

  9
$UCSNAME
  2

  9
$UCSORG
 10
0.0
 20
0.0
 30
0.0
  9
$UCSXDIR
 10
1.0
 20
0.0
 30
0.0
  9
$UCSYDIR
 10
0.0
 20
1.0
 30
0.0
  9
$UCSORTHOREF
  2

  9
$UCSORTHOVIEW
 70
     0
  9
$UCSORGTOP
 10
0.0
 20
0.0
 30
0.0
  9
$UCSORGBOTTOM
 10
0.0
 20
0.0
 30
0.0
  9
$UCSORGLEFT
 10
0.0
 20
0.0
 30
0.0
  9
$UCSORGRIGHT
 10
0.0
 20
0.0
 30
0.0
  9
$UCSORGFRONT
 10
0.0
 20
0.0
 30
0.0
  9
$UCSORGBACK
 10
0.0
 20
0.0
 30
0.0
  9
$PUCSBASE
  2

  9
$PUCSNAME
  2

  9
$PUCSORG
 10
0.0
 20
0.0
 30
0.0
  9
$PUCSXDIR
 10
1.0
 20
0.0
 30
0.0
  9
$PUCSYDIR
 10
0.0
 20
1.0
 30
0.0
  9
$PUCSORTHOREF
  2

  9
$PUCSORTHOVIEW
 70
     0
  9
$PUCSORGTOP
 10
0.0
 20
0.0
 30
0.0
  9
$PUCSORGBOTTOM
 10
0.0
 20
0.0
 30
0.0
  9
$PUCSORGLEFT
 10
0.0
 20
0.0
 30
0.0
  9
$PUCSORGRIGHT
 10
0.0
 20
0.0
 30
0.0
  9
$PUCSORGFRONT
 10
0.0
 20
0.0
 30
0.0
  9
$PUCSORGBACK
 10
0.0
 20
0.0
 30
0.0
  9
$USERI1
 70
     0
  9
$USERI2
 70
     0
  9
$USERI3
 70
     0
  9
$USERI4
 70
     0
  9
$USERI5
 70
     0
  9
$USERR1
 40
0.0
  9
$USERR2
 40
0.0
  9
$USERR3
 40
0.0
  9
$USERR4
 40
0.0
  9
$USERR5
 40
0.0
  9
$WORLDVIEW
 70
     1
  9
$SHADEDGE
 70
     3
  9
$SHADEDIF
 70
    70
  9
$TILEMODE
 70
     1
  9
$MAXACTVP
 70
    16
  9
$PINSBASE
 10
0.0
 20
0.0
 30
0.0
  9
$PLIMCHECK
 70
     0
  9
$PEXTMIN
 10
1.000000000000000E+20
 20
1.000000000000000E+20
 30
1.000000000000000E+20
  9
$PEXTMAX
 10
-1.000000000000000E+20
 20
-1.000000000000000E+20
 30
-1.000000000000000E+20
  9
$PLIMMIN
 10
0.0
 20
0.0
  9
$PLIMMAX
 10
420.0
 20
297.0
  9
$UNITMODE
 70
     0
  9
$VISRETAIN
 70
     0
  9
$PLINEGEN
 70
     0
  9
$PSLTSCALE
 70
     0
  9
$TREEDEPTH
 70
  3020
  9
$CMLSTYLE
  2
STANDARD
  9
$CMLJUST
 70
     0
  9
$CMLSCALE
 40
1.0
  9
$PROXYGRAPHICS
 70
     1
  9
$MEASUREMENT
 70
     1
  9
$CELWEIGHT
370
    -1
  9
$ENDCAPS
280
     0
  9
$JOINSTYLE
280
     0
  9
$LWDISPLAY
290
     0
  9
$INSUNITS
 70
     0
  9
$HYPERLINKBASE
  1

  9
$STYLESHEET
  1

  9
$XEDIT
290
     1
  9
$CEPSNTYPE
380
     0
  9
$PSTYLEMODE
290
     1
  9
$FINGERPRINTGUID
  2
{5EAC461A-2277-4BF8-9AB0-99C43BB394F0}
  9
$VERSIONGUID
  2
{C28C5CA7-D5F0-4B44-9ACE-6C7560450814}
  9
$EXTNAMES
290
     1
  9
$PSVPSCALE
 40
0.0
  9
$OLESTARTUP
290
     0
  0
ENDSEC
  0
SECTION
  2
CLASSES
  0
CLASS
  1
ACDBDICTIONARYWDFLT
  2
AcDbDictionaryWithDefault
  3
ObjectDBX Classes
 90
        0
280
     0
281
     0
  0
CLASS
  1
DICTIONARYVAR
  2
AcDbDictionaryVar
  3
ObjectDBX Classes
 90
        0
280
     0
281
     0
  0
CLASS
  1
ACDBPLACEHOLDER
  2
AcDbPlaceHolder
  3
ObjectDBX Classes
 90
        0
280
     0
281
     0
  0
CLASS
  1
LAYOUT
  2
AcDbLayout
  3
ObjectDBX Classes
 90
        0
280
     0
281
     0
  0
ENDSEC
  0
SECTION
  2
TABLES
  0
TABLE
  2
VPORT
  5
746D
330
0
100
AcDbSymbolTable
 70
     2
  0
VPORT
  5
24698
330
746D
100
AcDbSymbolTableRecord
100
AcDbViewportTableRecord
  2
*Active
 70
     0
 10
0.0
 20
0.0
 11
1.0
 21
1.0
 12
8400.000000000002
 22
6532.467989526317
 13
0.0
 23
0.0
 14
10.0
 24
10.0
 15
10.0
 25
10.0
 16
0.0
 26
0.0
 36
1.0
 17
0.0
 27
0.0
 37
0.0
 40
13159.96111582214
 41
1.522222222222222
 42
50.0
 43
0.0
 44
0.0
 50
0.0
 51
0.0
 71
     0
 72
     0
 73
     1
 74
     0
 75
     0
 76
     0
 77
     0
 78
     0
281
     0
 65
     1
110
0.0
120
0.0
130
0.0
111
1.0
121
0.0
131
0.0
112
0.0
122
1.0
132
0.0
 79
     0
146
0.0
  0
ENDTAB
  0
TABLE
  2
LTYPE
  5
746A
330
0
100
AcDbSymbolTable
 70
     5
  0
LTYPE
  5
7477
330
746A
100
AcDbSymbolTableRecord
100
AcDbLinetypeTableRecord
  2
BYBLOCK
 70
     0
  3

 72
    65
 73
     0
 40
0.0
  0
LTYPE
  5
7478
330
746A
100
AcDbSymbolTableRecord
100
AcDbLinetypeTableRecord
  2
BYLAYER
 70
     0
  3

 72
    65
 73
     0
 40
0.0
  0
LTYPE
  5
7479
330
746A
100
AcDbSymbolTableRecord
100
AcDbLinetypeTableRecord
  2
CONTINUOUS
 70
     0
  3
Solid line
 72
    65
 73
     0
 40
0.0
  0
LTYPE
  5
7816
330
746A
100
AcDbSymbolTableRecord
100
AcDbLinetypeTableRecord
  2
CENTER
 70
     0
  3
____ _ ____ _ ____ _ ____ _ ____ _ ____ _ ____ 
 72
    65
 73
     4
 40
2.0
 49
1.25
 74
     0
 49
-0.25
 74
     0
 49
0.25
 74
     0
 49
-0.25
 74
     0
  0
LTYPE
  5
781A
330
746A
100
AcDbSymbolTableRecord
100
AcDbLinetypeTableRecord
  2
HIDDEN
 70
     0
  3
__ __ __ __ __ __ __ __ __ __ __ __ __ __ __ __
 72
    65
 73
     2
 40
0.375
 49
0.25
 74
     0
 49
-0.125
 74
     0
  0
LTYPE
  5
781B
330
746A
100
AcDbSymbolTableRecord
100
AcDbLinetypeTableRecord
  2
PHANTOM
 70
     0
  3
______  __  __  ______  __  __  ______  __  __ 
 72
    65
 73
     6
 40
2.5
 49
1.25
 74
     0
 49
-0.25
 74
     0
 49
0.25
 74
     0
 49
-0.25
 74
     0
 49
0.25
 74
     0
 49
-0.25
 74
     0
  0
LTYPE
  5
12CC3
330
746A
100
AcDbSymbolTableRecord
100
AcDbLinetypeTableRecord
  2
HIDDENX2
 70
     0
  3
Hidden (2x) ____ ____ ____ ____ ____ ____ ____
 72
    65
 73
     2
 40
19.05
 49
12.7
 74
     0
 49
-6.349999999999999
 74
     0
  0
ENDTAB
  0
TABLE
  2
LAYER
  5
7467
102
{ACAD_XDICTIONARY
360
1758F
102
}
330
0
100
AcDbSymbolTable
 70
    12
  0
LAYER
  5
7474
330
7467
100
AcDbSymbolTableRecord
100
AcDbLayerTableRecord
  2
0
 70
     0
 62
     7
  6
CONTINUOUS
370
    -3
390
173D0
  0
LAYER
  5
DEB2
330
7467
100
AcDbSymbolTableRecord
100
AcDbLayerTableRecord
  2
センター
 70
     0
 62
     3
  6
CENTER
370
    -3
390
173D0
  0
LAYER
  5
DEB3
330
7467
100
AcDbSymbolTableRecord
100
AcDbLayerTableRecord
  2
寸法
 70
     0
 62
     4
  6
CONTINUOUS
370
    -3
390
173D0
  0
LAYER
  5
DEB4
330
7467
100
AcDbSymbolTableRecord
100
AcDbLayerTableRecord
  2
部品1
 70
     0
 62
     7
  6
CONTINUOUS
370
    -3
390
173D0
  0
LAYER
  5
DEB5
330
7467
100
AcDbSymbolTableRecord
100
AcDbLayerTableRecord
  2
補助
 70
     0
 62
    -1
  6
CONTINUOUS
370
    -3
390
173D0
  0
LAYER
  5
DEB6
330
7467
100
AcDbSymbolTableRecord
100
AcDbLayerTableRecord
  2
文字
 70
     0
 62
     7
  6
CONTINUOUS
370
    -3
390
173D0
  0
LAYER
  5
F255
330
7467
100
AcDbSymbolTableRecord
100
AcDbLayerTableRecord
  2
DEFPOINTS
 70
     0
 62
     7
  6
CONTINUOUS
290
     0
370
    -3
390
173D0
  0
LAYER
  5
10B54
330
7467
100
AcDbSymbolTableRecord
100
AcDbLayerTableRecord
  2
仕様書枠
 70
     0
 62
   230
  6
CONTINUOUS
370
    -3
390
173D0
  0
LAYER
  5
11729
330
7467
100
AcDbSymbolTableRecord
100
AcDbLayerTableRecord
  2
Ｇ．Ｌ
 70
     0
 62
    30
  6
CONTINUOUS
370
    -3
390
173D0
  0
LAYER
  5
1173F
330
7467
100
AcDbSymbolTableRecord
100
AcDbLayerTableRecord
  2
細線
 70
     0
 62
     5
  6
CONTINUOUS
370
    -3
390
173D0
  0
LAYER
  5
12CC4
330
7467
100
AcDbSymbolTableRecord
100
AcDbLayerTableRecord
  2
想像線
 70
     0
 62
     6
  6
PHANTOM
370
    -3
390
173D0
  0
LAYER
  5
142E2
330
7467
100
AcDbSymbolTableRecord
100
AcDbLayerTableRecord
  2
破線
 70
     0
 62
     2
  6
HIDDEN
370
    -3
390
173D0
  0
ENDTAB
  0
TABLE
  2
STYLE
  5
7468
330
0
100
AcDbSymbolTable
 70
     7
  0
STYLE
  5
7475
330
7468
100
AcDbSymbolTableRecord
100
AcDbTextStyleTableRecord
  2
STANDARD
 70
     0
 40
0.0
 41
1.0
 50
0.0
 71
     0
 42
4.0
  3
txt
  4
C:\AutoCAD LT\bigfont.shx
  0
STYLE
  5
763C
330
7468
100
AcDbSymbolTableRecord
100
AcDbTextStyleTableRecord
  2
MSMINCHO
 70
     0
 40
0.0
 41
1.0
 50
0.0
 71
     0
 42
1.199999999999999
  3
C:\AutoCAD LT\msminch2.TTF
  4

  0
STYLE
  5
F706
330
7468
100
AcDbSymbolTableRecord
100
AcDbTextStyleTableRecord
  2
STYLE1
 70
     0
 40
0.0
 41
1.0
 50
0.0
 71
     0
 42
4.0
  3
isocp.shx
  4
bigfont.shx
  0
STYLE
  5
103BF
330
7468
100
AcDbSymbolTableRecord
100
AcDbTextStyleTableRecord
  2
STYLE2
 70
     0
 40
0.0
 41
1.0
 50
0.0
 71
     0
 42
100.0
  3
MS PGothic.ttf
  4

1001
ACAD
1000
MS PGothic
1071
    32818
  0
STYLE
  5
10BAA
330
7468
100
AcDbSymbolTableRecord
100
AcDbTextStyleTableRecord
  2
STYLE3
 70
     0
 40
0.0
 41
1.0
 50
0.0
 71
     0
 42
100.0
  3

  4

1001
ACAD
1000
DFPGothic-EB
1071
    32818
  0
STYLE
  5
11A15
330
7468
100
AcDbSymbolTableRecord
100
AcDbTextStyleTableRecord
  2
MSGOTHIC
 70
     0
 40
0.0
 41
1.0
 50
0.0
 71
     0
 42
3.5
  3
msgothi2.ttf
  4

  0
STYLE
  5
13E96
330
7468
100
AcDbSymbolTableRecord
100
AcDbTextStyleTableRecord
  2
MSPゴシック
 70
     0
 40
0.0
 41
1.0
 50
0.0
 71
     0
 42
4.0
  3
MS PGothic.ttf
  4

1001
ACAD
1000
MS PGothic
1071
    32818
  0
ENDTAB
  0
TABLE
  2
VIEW
  5
746B
330
0
100
AcDbSymbolTable
 70
     0
  0
ENDTAB
  0
TABLE
  2
UCS
  5
746C
330
0
100
AcDbSymbolTable
 70
     0
  0
ENDTAB
  0
TABLE
  2
APPID
  5
746E
330
0
100
AcDbSymbolTable
 70
     6
  0
APPID
  5
7476
330
746E
100
AcDbSymbolTableRecord
100
AcDbRegAppTableRecord
  2
ACAD
 70
     0
  0
APPID
  5
DEA9
330
746E
100
AcDbSymbolTableRecord
100
AcDbRegAppTableRecord
  2
CONTENTBLOCKICON
 70
     0
  0
APPID
  5
DEAA
330
746E
100
AcDbSymbolTableRecord
100
AcDbRegAppTableRecord
  2
CONTENTBLOCKDESCRIPTION
 70
     0
  0
APPID
  5
E71D
330
746E
100
AcDbSymbolTableRecord
100
AcDbRegAppTableRecord
  2
CONTENTTABDATA
 70
     0
  0
APPID
  5
E71E
330
746E
100
AcDbSymbolTableRecord
100
AcDbRegAppTableRecord
  2
CONTENTCURRENTTAB
 70
     0
  0
APPID
  5
F3BA
330
746E
100
AcDbSymbolTableRecord
100
AcDbRegAppTableRecord
  2
DRAWINGVARIABLESXDATA
 70
     0
  0
ENDTAB
  0
TABLE
  2
DIMSTYLE
  5
746F
330
0
100
AcDbSymbolTable
 70
     6
100
AcDbDimStyleTable
 71
     1
340
F71F
  0
DIMSTYLE
105
7484
330
746F
100
AcDbSymbolTableRecord
100
AcDbDimStyleTableRecord
  2
JIS
 70
     0
 41
2.5
 42
1.0
 43
7.0
 44
1.0
 73
     0
 74
     0
 77
     1
 78
     8
140
2.5
141
0.0
143
0.0394
147
0.0
172
     1
174
     1
175
     1
340
7475
  0
DIMSTYLE
105
F236
330
746F
100
AcDbSymbolTableRecord
100
AcDbDimStyleTableRecord
  2
INABA_S40
 70
     0
 40
40.0
 41
2.5
 42
0.5
 43
7.0
 44
1.5
 73
     0
 74
     0
 77
     3
 78
     8
140
3.0
141
0.0
143
0.0394
147
1.0
172
     1
173
     1
174
     1
175
     1
178
     7
289
     0
340
7475
341
DEAC
343
DEAC
344
DEAC
  0
DIMSTYLE
105
F71F
102
{ACAD_REACTORS
330
20DE1
330
20DFB
330
22741
330
2275B
330
22A81
330
22A76
330
22A98
330
238C0
330
23879
330
23874
330
23849
330
23847
330
23800
330
237FF
330
237FE
330
237FB
330
237F8
330
237F5
330
23809
330
2384B
330
2380A
330
23802
330
23801
330
23808
330
245D2
330
245D5
330
245DC
330
245E4
330
245E5
330
24572
102
}
330
746F
100
AcDbSymbolTableRecord
100
AcDbDimStyleTableRecord
  2
INABA_S40G
 70
     0
 40
40.0
 41
2.5
 42
0.5
 43
7.0
 44
1.5
 73
     0
 74
     0
 77
     3
 78
     8
140
3.0
141
0.0
143
0.0394
147
1.0
172
     1
173
     1
174
     1
178
     7
271
     1
340
F706
341
F770
343
F770
344
F770
  0
DIMSTYLE
105
142E3
330
746F
100
AcDbSymbolTableRecord
100
AcDbDimStyleTableRecord
  2
INABA_S1
 70
     0
 40
0.0
 41
2.5
 42
0.5
 43
7.0
 44
1.5
 73
     0
 74
     0
 77
     3
 78
     8
140
3.0
141
0.0
143
0.0394
146
0.5
147
0.5
172
     1
173
     1
176
   256
177
   256
178
     7
271
     2
272
     2
284
     8
288
     1
340
7475
341
DEAC
343
DEAC
344
DEAC
  0
DIMSTYLE
105
14463
330
746F
100
AcDbSymbolTableRecord
100
AcDbDimStyleTableRecord
  2
INABA_S30G
 70
     0
 40
30.0
 41
2.5
 42
0.5
 43
7.0
 44
1.5
 73
     0
 74
     0
 77
     3
 78
     8
140
3.0
141
0.0
143
0.0394
147
1.0
172
     1
173
     1
174
     1
175
     1
178
     7
271
     1
340
F706
341
F770
343
F770
344
F770
  0
DIMSTYLE
105
1758E
330
746F
100
AcDbSymbolTableRecord
100
AcDbDimStyleTableRecord
  2
INABA_S50G
 70
     0
 41
125.0
 42
25.0
 43
7.0
 44
75.0
 73
     0
 74
     0
 77
     3
 78
     8
140
150.0
141
0.0
143
0.0394
147
25.0
172
     1
173
     1
174
     1
175
     1
178
     7
271
     1
340
F706
341
F770
343
F770
344
F770
  0
ENDTAB
  0
TABLE
  2
BLOCK_RECORD
  5
7466
330
0
100
AcDbSymbolTable
 70
    49
  0
BLOCK_RECORD
  5
747D
330
7466
100
AcDbSymbolTableRecord
100
AcDbBlockTableRecord
  2
*MODEL_SPACE
340
173D5
  0
BLOCK_RECORD
  5
747A
330
7466
100
AcDbSymbolTableRecord
100
AcDbBlockTableRecord
  2
*PAPER_SPACE
340
173D6
  0
BLOCK_RECORD
  5
DEAC
330
7466
100
AcDbSymbolTableRecord
100
AcDbBlockTableRecord
  2
_OPEN
340
0
  0
BLOCK_RECORD
  5
F770
330
7466
100
AcDbSymbolTableRecord
100
AcDbBlockTableRecord
  2
_DOTSMALL
340
0
102
{BLKREFS
331
18C65
331
18C66
331
18C59
331
18C5A
331
18C4D
331
18C4E
331
18C41
331
18C42
331
18C35
331
18C36
331
18C29
331
18C2A
331
18C1D
331
18C1E
331
18C0F
331
18C10
331
18C03
331
18C04
331
18BF5
331
18BF6
331
18BE7
331
18BE8
331
18BD9
331
18BDA
331
18BCD
331
18BCE
331
23E76
331
23E77
331
23E7F
331
23E80
331
23E88
331
23E89
331
23E92
331
23E93
331
23E9C
331
23E9D
331
23EA5
331
23EA6
331
23EB8
331
23EB9
331
23EC2
331
23EC3
331
23ECB
331
23ECC
331
23EDD
331
23EDE
331
23EE6
331
23EE7
331
23EF0
331
23EF1
331
23EF9
331
23EFA
331
23F02
331
23F03
331
23F0B
331
23F0C
331
23F1F
331
23F20
331
23F34
331
23F35
331
23F3F
331
23F40
331
23F4A
331
23F4B
331
23F55
331
23F56
331
23F79
331
23F7A
331
23F82
331
23F83
331
23FBD
331
23FBE
331
2463C
331
2463D
331
24645
331
24646
331
2464E
331
2464F
331
24659
331
2465A
331
24662
331
24663
331
2466B
331
2466C
331
24688
331
24689
102
}
  0
BLOCK_RECORD
  5
164B4
330
7466
100
AcDbSymbolTableRecord
100
AcDbBlockTableRecord
  2
_DOT
340
0
102
{BLKREFS
331
18C73
331
18C74
102
}
  0
BLOCK_RECORD
  5
18BC8
330
7466
100
AcDbSymbolTableRecord
100
AcDbBlockTableRecord
  2
*D3
340
0
  0
BLOCK_RECORD
  5
18BD4
330
7466
100
AcDbSymbolTableRecord
100
AcDbBlockTableRecord
  2
*D4
340
0
  0
BLOCK_RECORD
  5
18BE0
330
7466
100
AcDbSymbolTableRecord
100
AcDbBlockTableRecord
  2
*D5
340
0
  0
BLOCK_RECORD
  5
18BEE
330
7466
100
AcDbSymbolTableRecord
100
AcDbBlockTableRecord
  2
*D6
340
0
  0
BLOCK_RECORD
  5
18BFC
330
7466
100
AcDbSymbolTableRecord
100
AcDbBlockTableRecord
  2
*D7
340
0
  0
BLOCK_RECORD
  5
18C0A
330
7466
100
AcDbSymbolTableRecord
100
AcDbBlockTableRecord
  2
*D8
340
0
  0
BLOCK_RECORD
  5
18C16
330
7466
100
AcDbSymbolTableRecord
100
AcDbBlockTableRecord
  2
*D9
340
0
  0
BLOCK_RECORD
  5
18C24
330
7466
100
AcDbSymbolTableRecord
100
AcDbBlockTableRecord
  2
*D10
340
0
  0
BLOCK_RECORD
  5
18C30
330
7466
100
AcDbSymbolTableRecord
100
AcDbBlockTableRecord
  2
*D11
340
0
  0
BLOCK_RECORD
  5
18C3C
330
7466
100
AcDbSymbolTableRecord
100
AcDbBlockTableRecord
  2
*D12
340
0
  0
BLOCK_RECORD
  5
18C48
330
7466
100
AcDbSymbolTableRecord
100
AcDbBlockTableRecord
  2
*D13
340
0
  0
BLOCK_RECORD
  5
18C54
330
7466
100
AcDbSymbolTableRecord
100
AcDbBlockTableRecord
  2
*D14
340
0
  0
BLOCK_RECORD
  5
18C60
330
7466
100
AcDbSymbolTableRecord
100
AcDbBlockTableRecord
  2
*D15
340
0
  0
BLOCK_RECORD
  5
18C6C
330
7466
100
AcDbSymbolTableRecord
100
AcDbBlockTableRecord
  2
*D16
340
0
  0
BLOCK_RECORD
  5
18C7A
330
7466
100
AcDbSymbolTableRecord
100
AcDbBlockTableRecord
  2
A$C3B1A506B
340
0
  0
BLOCK_RECORD
  5
1C4CA
330
7466
100
AcDbSymbolTableRecord
100
AcDbBlockTableRecord
  2
_NONE
340
0
  0
BLOCK_RECORD
  5
20DE2
330
7466
100
AcDbSymbolTableRecord
100
AcDbBlockTableRecord
  2
*D19
340
0
  0
BLOCK_RECORD
  5
20DFC
330
7466
100
AcDbSymbolTableRecord
100
AcDbBlockTableRecord
  2
*D20
340
0
  0
BLOCK_RECORD
  5
22742
330
7466
100
AcDbSymbolTableRecord
100
AcDbBlockTableRecord
  2
*D21
340
0
  0
BLOCK_RECORD
  5
2275C
330
7466
100
AcDbSymbolTableRecord
100
AcDbBlockTableRecord
  2
*D22
340
0
  0
BLOCK_RECORD
  5
22B5A
330
7466
100
AcDbSymbolTableRecord
100
AcDbBlockTableRecord
  2
*D23
340
0
  0
BLOCK_RECORD
  5
22B74
330
7466
100
AcDbSymbolTableRecord
100
AcDbBlockTableRecord
  2
*D24
340
0
  0
BLOCK_RECORD
  5
22B9A
330
7466
100
AcDbSymbolTableRecord
100
AcDbBlockTableRecord
  2
*D25
340
0
  0
BLOCK_RECORD
  5
238C5
330
7466
100
AcDbSymbolTableRecord
100
AcDbBlockTableRecord
  2
*D26
340
0
  0
BLOCK_RECORD
  5
238D1
330
7466
100
AcDbSymbolTableRecord
100
AcDbBlockTableRecord
  2
*D27
340
0
  0
BLOCK_RECORD
  5
238DD
330
7466
100
AcDbSymbolTableRecord
100
AcDbBlockTableRecord
  2
*D28
340
0
  0
BLOCK_RECORD
  5
238E9
330
7466
100
AcDbSymbolTableRecord
100
AcDbBlockTableRecord
  2
*D29
340
0
  0
BLOCK_RECORD
  5
238F6
330
7466
100
AcDbSymbolTableRecord
100
AcDbBlockTableRecord
  2
*D30
340
0
  0
BLOCK_RECORD
  5
23902
330
7466
100
AcDbSymbolTableRecord
100
AcDbBlockTableRecord
  2
*D31
340
0
  0
BLOCK_RECORD
  5
2390D
330
7466
100
AcDbSymbolTableRecord
100
AcDbBlockTableRecord
  2
*D32
340
0
  0
BLOCK_RECORD
  5
23919
330
7466
100
AcDbSymbolTableRecord
100
AcDbBlockTableRecord
  2
*D33
340
0
  0
BLOCK_RECORD
  5
23931
330
7466
100
AcDbSymbolTableRecord
100
AcDbBlockTableRecord
  2
*D34
340
0
  0
BLOCK_RECORD
  5
2393E
330
7466
100
AcDbSymbolTableRecord
100
AcDbBlockTableRecord
  2
*D35
340
0
  0
BLOCK_RECORD
  5
2394A
330
7466
100
AcDbSymbolTableRecord
100
AcDbBlockTableRecord
  2
*D36
340
0
  0
BLOCK_RECORD
  5
23964
330
7466
100
AcDbSymbolTableRecord
100
AcDbBlockTableRecord
  2
*D37
340
0
  0
BLOCK_RECORD
  5
2397C
330
7466
100
AcDbSymbolTableRecord
100
AcDbBlockTableRecord
  2
*D38
340
0
  0
BLOCK_RECORD
  5
23993
330
7466
100
AcDbSymbolTableRecord
100
AcDbBlockTableRecord
  2
*D39
340
0
  0
BLOCK_RECORD
  5
239AD
330
7466
100
AcDbSymbolTableRecord
100
AcDbBlockTableRecord
  2
*D40
340
0
  0
BLOCK_RECORD
  5
239C6
330
7466
100
AcDbSymbolTableRecord
100
AcDbBlockTableRecord
  2
*D41
340
0
  0
BLOCK_RECORD
  5
239D2
330
7466
100
AcDbSymbolTableRecord
100
AcDbBlockTableRecord
  2
*D42
340
0
  0
BLOCK_RECORD
  5
245EF
330
7466
100
AcDbSymbolTableRecord
100
AcDbBlockTableRecord
  2
*D43
340
0
  0
BLOCK_RECORD
  5
245FB
330
7466
100
AcDbSymbolTableRecord
100
AcDbBlockTableRecord
  2
*D44
340
0
  0
BLOCK_RECORD
  5
24607
330
7466
100
AcDbSymbolTableRecord
100
AcDbBlockTableRecord
  2
*D45
340
0
  0
BLOCK_RECORD
  5
24613
330
7466
100
AcDbSymbolTableRecord
100
AcDbBlockTableRecord
  2
*D46
340
0
  0
BLOCK_RECORD
  5
24621
330
7466
100
AcDbSymbolTableRecord
100
AcDbBlockTableRecord
  2
*D47
340
0
  0
BLOCK_RECORD
  5
2462D
330
7466
100
AcDbSymbolTableRecord
100
AcDbBlockTableRecord
  2
*D48
340
0
  0
ENDTAB
  0
ENDSEC
  0
SECTION
  2
BLOCKS
  0
BLOCK
  5
7489
330
747D
100
AcDbEntity
  8
0
100
AcDbBlockBegin
  2
*MODEL_SPACE
 70
     0
 10
0.0
 20
0.0
 30
0.0
  3
*MODEL_SPACE
  1

  0
ENDBLK
  5
748A
330
747D
100
AcDbEntity
  8
0
100
AcDbBlockEnd
  0
BLOCK
  5
7487
330
747A
100
AcDbEntity
 67
     1
  8
0
100
AcDbBlockBegin
  2
*PAPER_SPACE
 70
     0
 10
0.0
 20
0.0
 30
0.0
  3
*PAPER_SPACE
  1

  0
ENDBLK
  5
7488
330
747A
100
AcDbEntity
 67
     1
  8
0
100
AcDbBlockEnd
  0
BLOCK
  5
DEAD
330
DEAC
100
AcDbEntity
  8
0
100
AcDbBlockBegin
  2
_OPEN
 70
     0
 10
0.0
 20
0.0
 30
0.0
  3
_OPEN
  1

  0
LINE
  5
DEAE
330
DEAC
100
AcDbEntity
  8
0
  6
ByBlock
 62
     0
100
AcDbLine
 10
-1.0
 20
0.1666666666666666
 30
0.0
 11
0.0
 21
0.0
 31
0.0
  0
LINE
  5
DEAF
330
DEAC
100
AcDbEntity
  8
0
  6
ByBlock
 62
     0
100
AcDbLine
 10
0.0
 20
0.0
 30
0.0
 11
-1.0
 21
-0.1666666666666666
 31
0.0
  0
LINE
  5
DEB0
330
DEAC
100
AcDbEntity
  8
0
  6
ByBlock
 62
     0
100
AcDbLine
 10
0.0
 20
0.0
 30
0.0
 11
-1.0
 21
0.0
 31
0.0
  0
ENDBLK
  5
DEB1
330
DEAC
100
AcDbEntity
  8
0
100
AcDbBlockEnd
  0
BLOCK
  5
F771
330
F770
100
AcDbEntity
  8
0
 48
50.0
100
AcDbBlockBegin
  2
_DOTSMALL
 70
     0
 10
0.0
 20
0.0
 30
0.0
  3
_DOTSMALL
  1

  0
LWPOLYLINE
  5
F772
330
F770
100
AcDbEntity
  8
0
  6
ByBlock
 62
     0
 48
50.0
100
AcDbPolyline
 90
        2
 70
     1
 43
0.5
 10
-0.0625
 20
0.0
 42
1.0
 10
0.0625
 20
0.0
 42
1.0
  0
ENDBLK
  5
F776
330
F770
100
AcDbEntity
  8
0
 48
50.0
100
AcDbBlockEnd
  0
BLOCK
  5
164BA
330
164B4
100
AcDbEntity
  8
0
 48
50.0
100
AcDbBlockBegin
  2
_DOT
 70
     0
 10
0.0
 20
0.0
 30
0.0
  3
_DOT
  1

  0
LWPOLYLINE
  5
164B5
330
164B4
100
AcDbEntity
  8
0
  6
ByBlock
 62
     0
 48
50.0
100
AcDbPolyline
 90
        2
 70
     1
 43
0.5
 10
-0.25
 20
0.0
 42
1.0
 10
0.25
 20
0.0
 42
1.0
  0
LINE
  5
164B9
330
164B4
100
AcDbEntity
  8
0
  6
ByBlock
 62
     0
 48
50.0
100
AcDbLine
 10
-0.5
 20
0.0
 30
0.0
 11
-1.0
 21
0.0
 31
0.0
  0
ENDBLK
  5
164BB
330
164B4
100
AcDbEntity
  8
0
 48
50.0
100
AcDbBlockEnd
  0
BLOCK
  5
18BC9
330
18BC8
100
AcDbEntity
  8
0
 48
50.0
100
AcDbBlockBegin
  2
*D3
 70
     1
 10
0.0
 20
0.0
 30
0.0
  3
*D3
  1

  0
LINE
  5
18BCA
330
18BC8
100
AcDbEntity
  8
寸法
 62
     0
 48
50.0
370
    -2
100
AcDbLine
 10
7649.896575106999
 20
9636.123139034717
 30
0.0
 11
8702.429862581047
 21
9636.123139034717
 31
0.0
  0
LINE
  5
18BCB
330
18BC8
100
AcDbEntity
  8
寸法
 62
     0
 48
50.0
370
    -2
100
AcDbLine
 10
7649.896575106973
 20
7846.123139034709
 30
0.0
 11
8702.429862581047
 21
7846.123139034709
 31
0.0
  0
LINE
  5
18BCC
330
18BC8
100
AcDbEntity
  8
寸法
 62
     0
 48
50.0
370
    -2
100
AcDbLine
 10
8642.429862581046
 20
9636.123139034717
 30
0.0
 11
8642.429862581046
 21
7846.123139034709
 31
0.0
  0
INSERT
  5
18BCD
330
18BC8
100
AcDbEntity
  8
寸法
 62
     0
 48
50.0
370
    -2
100
AcDbBlockReference
  2
_DOTSMALL
 10
8642.429862581046
 20
9636.123139034717
 30
0.0
 41
100.0
 42
100.0
 43
100.0
 50
90.0
  0
INSERT
  5
18BCE
330
18BC8
100
AcDbEntity
  8
寸法
 62
     0
 48
50.0
370
    -2
100
AcDbBlockReference
  2
_DOTSMALL
 10
8642.429862581046
 20
7846.123139034709
 30
0.0
 41
100.0
 42
100.0
 43
100.0
 50
270.0
  0
MTEXT
  5
18BCF
330
18BC8
100
AcDbEntity
  8
寸法
 62
     7
 48
50.0
100
AcDbMText
 10
8542.429862581045
 20
8741.123139034712
 30
0.0
 40
120.0
 41
0.0
 71
     5
 72
     1
  1
\A1;1790
  7
STYLE1
 11
0.0000000000000001
 21
1.0
 31
0.0
 73
     1
 44
1.0
1001
ACAD
1000
MTEXTBEGIN
1070
    73
1070
     1
1070
    44
1040
1.0
1070
    74
1070
     0
1000
MTEXTEND
  0
POINT
  5
18BD0
330
18BC8
100
AcDbEntity
  8
DEFPOINTS
 62
     0
 48
50.0
100
AcDbPoint
 10
7629.896575106998
 20
9636.123139034717
 30
0.0
  0
POINT
  5
18BD1
330
18BC8
100
AcDbEntity
  8
DEFPOINTS
 62
     0
 48
50.0
100
AcDbPoint
 10
7629.896575106974
 20
7846.123139034709
 30
0.0
  0
POINT
  5
18BD2
330
18BC8
100
AcDbEntity
  8
DEFPOINTS
 62
     0
 48
50.0
100
AcDbPoint
 10
8642.429862581046
 20
7846.123139034709
 30
0.0
  0
ENDBLK
  5
18BD3
330
18BC8
100
AcDbEntity
  8
0
 48
50.0
100
AcDbBlockEnd
  0
BLOCK
  5
18BD5
330
18BD4
100
AcDbEntity
  8
0
 48
50.0
100
AcDbBlockBegin
  2
*D4
 70
     1
 10
0.0
 20
0.0
 30
0.0
  3
*D4
  1

  0
LINE
  5
18BD6
330
18BD4
100
AcDbEntity
  8
寸法
 62
     0
 48
50.0
370
    -2
100
AcDbLine
 10
4214.896575106998
 20
9656.123139034622
 30
0.0
 11
4214.896575106998
 21
10211.93135865972
 31
0.0
  0
LINE
  5
18BD7
330
18BD4
100
AcDbEntity
  8
寸法
 62
     0
 48
50.0
370
    -2
100
AcDbLine
 10
7574.896575106999
 20
9656.123139034718
 30
0.0
 11
7574.896575106999
 21
10211.93135865972
 31
0.0
  0
LINE
  5
18BD8
330
18BD4
100
AcDbEntity
  8
寸法
 62
     0
 48
50.0
370
    -2
100
AcDbLine
 10
4214.896575106998
 20
10151.93135865972
 30
0.0
 11
7574.896575106999
 21
10151.93135865972
 31
0.0
  0
INSERT
  5
18BD9
330
18BD4
100
AcDbEntity
  8
寸法
 62
     0
 48
50.0
370
    -2
100
AcDbBlockReference
  2
_DOTSMALL
 10
4214.896575106998
 20
10151.93135865972
 30
0.0
 41
100.0
 42
100.0
 43
100.0
 50
180.0
  0
INSERT
  5
18BDA
330
18BD4
100
AcDbEntity
  8
寸法
 62
     0
 48
50.0
370
    -2
100
AcDbBlockReference
  2
_DOTSMALL
 10
7574.896575106999
 20
10151.93135865972
 30
0.0
 41
100.0
 42
100.0
 43
100.0
  0
MTEXT
  5
18BDB
330
18BD4
100
AcDbEntity
  8
寸法
 62
     7
 48
50.0
100
AcDbMText
 10
5894.896575106997
 20
10251.94316968334
 30
0.0
 40
120.0
 41
0.0
 71
     5
 72
     1
  1
\A1;8X420=3360
  7
STYLE1
 73
     1
 44
1.0
1001
ACAD
1000
MTEXTBEGIN
1070
    73
1070
     1
1070
    44
1040
1.0
1070
    74
1070
     0
1000
MTEXTEND
  0
POINT
  5
18BDC
330
18BD4
100
AcDbEntity
  8
DEFPOINTS
 62
     0
 48
50.0
100
AcDbPoint
 10
4214.896575106998
 20
9636.123139034623
 30
0.0
  0
POINT
  5
18BDD
330
18BD4
100
AcDbEntity
  8
DEFPOINTS
 62
     0
 48
50.0
100
AcDbPoint
 10
7574.896575106999
 20
9636.123139034717
 30
0.0
  0
POINT
  5
18BDE
330
18BD4
100
AcDbEntity
  8
DEFPOINTS
 62
     0
 48
50.0
100
AcDbPoint
 10
7574.896575106999
 20
10151.93135865972
 30
0.0
  0
ENDBLK
  5
18BDF
330
18BD4
100
AcDbEntity
  8
0
 48
50.0
100
AcDbBlockEnd
  0
BLOCK
  5
18BE1
330
18BE0
100
AcDbEntity
  8
0
 48
50.0
100
AcDbBlockBegin
  2
*D5
 70
     1
 10
0.0
 20
0.0
 30
0.0
  3
*D5
  1

  0
LINE
  5
18BE2
330
18BE0
100
AcDbEntity
  8
寸法
 62
     0
 48
50.0
370
    -2
100
AcDbLine
 10
7574.896575106999
 20
9656.123139034718
 30
0.0
 11
7574.896575106999
 21
10211.9313586597
 31
0.0
  0
LINE
  5
18BE3
330
18BE0
100
AcDbEntity
  8
寸法
 62
     0
 48
50.0
370
    -2
100
AcDbLine
 10
7629.896575106998
 20
9656.123139034718
 30
0.0
 11
7629.896575106998
 21
10211.9313586597
 31
0.0
  0
LINE
  5
18BE4
330
18BE0
100
AcDbEntity
  8
寸法
 62
     0
 48
50.0
370
    -2
100
AcDbLine
 10
7574.896575106999
 20
10151.9313586597
 30
0.0
 11
7474.896575106999
 21
10151.9313586597
 31
0.0
  0
LINE
  5
18BE5
330
18BE0
100
AcDbEntity
  8
寸法
 62
     0
 48
50.0
370
    -2
100
AcDbLine
 10
7629.896575106998
 20
10151.9313586597
 30
0.0
 11
8046.867137855477
 21
10151.9313586597
 31
0.0
  0
LINE
  5
18BE6
330
18BE0
100
AcDbEntity
  8
寸法
 62
     0
 48
50.0
370
    -2
100
AcDbLine
 10
7574.896575106999
 20
10151.9313586597
 30
0.0
 11
7629.896575106998
 21
10151.9313586597
 31
0.0
  0
INSERT
  5
18BE7
330
18BE0
100
AcDbEntity
  8
寸法
 62
     0
 48
50.0
370
    -2
100
AcDbBlockReference
  2
_DOTSMALL
 10
7574.896575106999
 20
10151.9313586597
 30
0.0
 41
100.0
 42
100.0
 43
100.0
  0
INSERT
  5
18BE8
330
18BE0
100
AcDbEntity
  8
寸法
 62
     0
 48
50.0
370
    -2
100
AcDbBlockReference
  2
_DOTSMALL
 10
7629.896575106998
 20
10151.9313586597
 30
0.0
 41
100.0
 42
100.0
 43
100.0
 50
180.0
  0
MTEXT
  5
18BE9
330
18BE0
100
AcDbEntity
  8
寸法
 62
     7
 48
50.0
100
AcDbMText
 10
7938.381856481237
 20
10251.9313586597
 30
0.0
 40
120.0
 41
0.0
 71
     5
 72
     1
  1
\A1;55
  7
STYLE1
 73
     1
 44
1.0
1001
ACAD
1000
MTEXTBEGIN
1070
    73
1070
     1
1070
    44
1040
1.0
1070
    74
1070
     0
1000
MTEXTEND
  0
POINT
  5
18BEA
330
18BE0
100
AcDbEntity
  8
DEFPOINTS
 62
     0
 48
50.0
100
AcDbPoint
 10
7574.896575106999
 20
9636.123139034717
 30
0.0
  0
POINT
  5
18BEB
330
18BE0
100
AcDbEntity
  8
DEFPOINTS
 62
     0
 48
50.0
100
AcDbPoint
 10
7629.896575106998
 20
9636.123139034717
 30
0.0
  0
POINT
  5
18BEC
330
18BE0
100
AcDbEntity
  8
DEFPOINTS
 62
     0
 48
50.0
100
AcDbPoint
 10
7629.896575106998
 20
10151.9313586597
 30
0.0
  0
ENDBLK
  5
18BED
330
18BE0
100
AcDbEntity
  8
0
 48
50.0
100
AcDbBlockEnd
  0
BLOCK
  5
18BEF
330
18BEE
100
AcDbEntity
  8
0
 48
50.0
100
AcDbBlockBegin
  2
*D6
 70
     1
 10
0.0
 20
0.0
 30
0.0
  3
*D6
  1

  0
LINE
  5
18BF0
330
18BEE
100
AcDbEntity
  8
寸法
 62
     0
 48
50.0
370
    -2
100
AcDbLine
 10
7649.896575106999
 20
9636.123139034717
 30
0.0
 11
8337.32292084141
 21
9636.123139034717
 31
0.0
  0
LINE
  5
18BF1
330
18BEE
100
AcDbEntity
  8
寸法
 62
     0
 48
50.0
370
    -2
100
AcDbLine
 10
7649.896575106999
 20
9581.123139034721
 30
0.0
 11
8337.32292084141
 21
9581.123139034721
 31
0.0
  0
LINE
  5
18BF2
330
18BEE
100
AcDbEntity
  8
寸法
 62
     0
 48
50.0
370
    -2
100
AcDbLine
 10
8277.322920841411
 20
9581.123139034721
 30
0.0
 11
8277.322920841411
 21
9481.123139034719
 31
0.0
  0
LINE
  5
18BF3
330
18BEE
100
AcDbEntity
  8
寸法
 62
     0
 48
50.0
370
    -2
100
AcDbLine
 10
8277.322920841411
 20
9636.123139034717
 30
0.0
 11
8277.322920841411
 21
10053.09370178319
 31
0.0
  0
LINE
  5
18BF4
330
18BEE
100
AcDbEntity
  8
寸法
 62
     0
 48
50.0
370
    -2
100
AcDbLine
 10
8277.322920841411
 20
9581.123139034721
 30
0.0
 11
8277.322920841411
 21
9636.123139034717
 31
0.0
  0
INSERT
  5
18BF5
330
18BEE
100
AcDbEntity
  8
寸法
 62
     0
 48
50.0
370
    -2
100
AcDbBlockReference
  2
_DOTSMALL
 10
8277.322920841411
 20
9581.123139034721
 30
0.0
 41
100.0
 42
100.0
 43
100.0
 50
90.0
  0
INSERT
  5
18BF6
330
18BEE
100
AcDbEntity
  8
寸法
 62
     0
 48
50.0
370
    -2
100
AcDbBlockReference
  2
_DOTSMALL
 10
8277.322920841411
 20
9636.123139034717
 30
0.0
 41
100.0
 42
100.0
 43
100.0
 50
270.0
  0
MTEXT
  5
18BF7
330
18BEE
100
AcDbEntity
  8
寸法
 62
     7
 48
50.0
100
AcDbMText
 10
8177.32292084141
 20
9944.608420408957
 30
0.0
 40
120.0
 41
0.0
 71
     5
 72
     1
  1
\A1;55
  7
STYLE1
 11
0.0000000000000001
 21
1.0
 31
0.0
 73
     1
 44
1.0
1001
ACAD
1000
MTEXTBEGIN
1070
    73
1070
     1
1070
    44
1040
1.0
1070
    74
1070
     0
1000
MTEXTEND
  0
POINT
  5
18BF8
330
18BEE
100
AcDbEntity
  8
DEFPOINTS
 62
     0
 48
50.0
100
AcDbPoint
 10
7629.896575106998
 20
9636.123139034717
 30
0.0
  0
POINT
  5
18BF9
330
18BEE
100
AcDbEntity
  8
DEFPOINTS
 62
     0
 48
50.0
100
AcDbPoint
 10
7629.896575106998
 20
9581.123139034721
 30
0.0
  0
POINT
  5
18BFA
330
18BEE
100
AcDbEntity
  8
DEFPOINTS
 62
     0
 48
50.0
100
AcDbPoint
 10
8277.322920841411
 20
9581.123139034721
 30
0.0
  0
ENDBLK
  5
18BFB
330
18BEE
100
AcDbEntity
  8
0
 48
50.0
100
AcDbBlockEnd
  0
BLOCK
  5
18BFD
330
18BFC
100
AcDbEntity
  8
0
 48
50.0
100
AcDbBlockBegin
  2
*D7
 70
     1
 10
0.0
 20
0.0
 30
0.0
  3
*D7
  1

  0
LINE
  5
18BFE
330
18BFC
100
AcDbEntity
  8
寸法
 62
     0
 48
50.0
370
    -2
100
AcDbLine
 10
4159.896575106963
 20
9656.123139034622
 30
0.0
 11
4159.896575106963
 21
10211.9313586596
 31
0.0
  0
LINE
  5
18BFF
330
18BFC
100
AcDbEntity
  8
寸法
 62
     0
 48
50.0
370
    -2
100
AcDbLine
 10
4214.896575106998
 20
9656.123139034622
 30
0.0
 11
4214.896575106998
 21
10211.9313586596
 31
0.0
  0
LINE
  5
18C00
330
18BFC
100
AcDbEntity
  8
寸法
 62
     0
 48
50.0
370
    -2
100
AcDbLine
 10
4214.896575106998
 20
10151.9313586596
 30
0.0
 11
4314.896575106998
 21
10151.9313586596
 31
0.0
  0
LINE
  5
18C01
330
18BFC
100
AcDbEntity
  8
寸法
 62
     0
 48
50.0
370
    -2
100
AcDbLine
 10
4159.896575106963
 20
10151.9313586596
 30
0.0
 11
3742.926012358486
 21
10151.9313586596
 31
0.0
  0
LINE
  5
18C02
330
18BFC
100
AcDbEntity
  8
寸法
 62
     0
 48
50.0
370
    -2
100
AcDbLine
 10
4214.896575106998
 20
10151.9313586596
 30
0.0
 11
4159.896575106963
 21
10151.9313586596
 31
0.0
  0
INSERT
  5
18C03
330
18BFC
100
AcDbEntity
  8
寸法
 62
     0
 48
50.0
370
    -2
100
AcDbBlockReference
  2
_DOTSMALL
 10
4214.896575106998
 20
10151.9313586596
 30
0.0
 41
100.0
 42
100.0
 43
100.0
 50
180.0
  0
INSERT
  5
18C04
330
18BFC
100
AcDbEntity
  8
寸法
 62
     0
 48
50.0
370
    -2
100
AcDbBlockReference
  2
_DOTSMALL
 10
4159.896575106963
 20
10151.9313586596
 30
0.0
 41
100.0
 42
100.0
 43
100.0
  0
MTEXT
  5
18C05
330
18BFC
100
AcDbEntity
  8
寸法
 62
     7
 48
50.0
100
AcDbMText
 10
3851.411293732725
 20
10251.9313586596
 30
0.0
 40
120.0
 41
0.0
 71
     5
 72
     1
  1
\A1;55
  7
STYLE1
 73
     1
 44
1.0
1001
ACAD
1000
MTEXTBEGIN
1070
    73
1070
     1
1070
    44
1040
1.0
1070
    74
1070
     0
1000
MTEXTEND
  0
POINT
  5
18C06
330
18BFC
100
AcDbEntity
  8
DEFPOINTS
 62
     0
 48
50.0
100
AcDbPoint
 10
4159.896575106963
 20
9636.123139034623
 30
0.0
  0
POINT
  5
18C07
330
18BFC
100
AcDbEntity
  8
DEFPOINTS
 62
     0
 48
50.0
100
AcDbPoint
 10
4214.896575106998
 20
9636.123139034623
 30
0.0
  0
POINT
  5
18C08
330
18BFC
100
AcDbEntity
  8
DEFPOINTS
 62
     0
 48
50.0
100
AcDbPoint
 10
4214.896575106998
 20
10151.9313586596
 30
0.0
  0
ENDBLK
  5
18C09
330
18BFC
100
AcDbEntity
  8
0
 48
50.0
100
AcDbBlockEnd
  0
BLOCK
  5
18C0B
330
18C0A
100
AcDbEntity
  8
0
 48
50.0
100
AcDbBlockBegin
  2
*D8
 70
     1
 10
0.0
 20
0.0
 30
0.0
  3
*D8
  1

  0
LINE
  5
18C0C
330
18C0A
100
AcDbEntity
  8
寸法
 62
     0
 48
50.0
370
    -2
100
AcDbLine
 10
4159.896575106992
 20
7826.123139034546
 30
0.0
 11
4159.896575106992
 21
6804.372203245664
 31
0.0
  0
LINE
  5
18C0D
330
18C0A
100
AcDbEntity
  8
寸法
 62
     0
 48
50.0
370
    -2
100
AcDbLine
 10
7629.896575106974
 20
7826.123139034674
 30
0.0
 11
7629.896575106974
 21
6804.372203245664
 31
0.0
  0
LINE
  5
18C0E
330
18C0A
100
AcDbEntity
  8
寸法
 62
     0
 48
50.0
370
    -2
100
AcDbLine
 10
4159.896575106992
 20
6864.372203245665
 30
0.0
 11
7629.896575106974
 21
6864.372203245665
 31
0.0
  0
INSERT
  5
18C0F
330
18C0A
100
AcDbEntity
  8
寸法
 62
     0
 48
50.0
370
    -2
100
AcDbBlockReference
  2
_DOTSMALL
 10
4159.896575106992
 20
6864.372203245665
 30
0.0
 41
100.0
 42
100.0
 43
100.0
 50
180.0
  0
INSERT
  5
18C10
330
18C0A
100
AcDbEntity
  8
寸法
 62
     0
 48
50.0
370
    -2
100
AcDbBlockReference
  2
_DOTSMALL
 10
7629.896575106974
 20
6864.372203245665
 30
0.0
 41
100.0
 42
100.0
 43
100.0
  0
MTEXT
  5
18C11
330
18C0A
100
AcDbEntity
  8
寸法
 62
     7
 48
50.0
100
AcDbMText
 10
5911.12376113973
 20
6964.372203245665
 30
0.0
 40
120.0
 41
0.0
 71
     5
 72
     1
  1
\A1;3470
  7
STYLE1
 73
     1
 44
1.0
1001
ACAD
1000
MTEXTBEGIN
1070
    73
1070
     1
1070
    44
1040
1.0
1070
    74
1070
     0
1000
MTEXTEND
  0
POINT
  5
18C12
330
18C0A
100
AcDbEntity
  8
DEFPOINTS
 62
     0
 48
50.0
100
AcDbPoint
 10
4159.896575106992
 20
7846.123139034546
 30
0.0
  0
POINT
  5
18C13
330
18C0A
100
AcDbEntity
  8
DEFPOINTS
 62
     0
 48
50.0
100
AcDbPoint
 10
7629.896575106974
 20
7846.123139034673
 30
0.0
  0
POINT
  5
18C14
330
18C0A
100
AcDbEntity
  8
DEFPOINTS
 62
     0
 48
50.0
100
AcDbPoint
 10
7629.896575106974
 20
6864.372203245665
 30
0.0
  0
ENDBLK
  5
18C15
330
18C0A
100
AcDbEntity
  8
0
 48
50.0
100
AcDbBlockEnd
  0
BLOCK
  5
18C17
330
18C16
100
AcDbEntity
  8
0
 48
50.0
100
AcDbBlockBegin
  2
*D9
 70
     1
 10
0.0
 20
0.0
 30
0.0
  3
*D9
  1

  0
LINE
  5
18C18
330
18C16
100
AcDbEntity
  8
寸法
 62
     0
 48
50.0
370
    -2
100
AcDbLine
 10
7649.896575106973
 20
7901.123139034706
 30
0.0
 11
8337.322920841385
 21
7901.123139034706
 31
0.0
  0
LINE
  5
18C19
330
18C16
100
AcDbEntity
  8
寸法
 62
     0
 48
50.0
370
    -2
100
AcDbLine
 10
7649.896575106973
 20
7846.123139034709
 30
0.0
 11
8337.322920841385
 21
7846.123139034709
 31
0.0
  0
LINE
  5
18C1A
330
18C16
100
AcDbEntity
  8
寸法
 62
     0
 48
50.0
370
    -2
100
AcDbLine
 10
8277.322920841385
 20
7901.123139034706
 30
0.0
 11
8277.322920841385
 21
8001.123139034707
 31
0.0
  0
LINE
  5
18C1B
330
18C16
100
AcDbEntity
  8
寸法
 62
     0
 48
50.0
370
    -2
100
AcDbLine
 10
8277.322920841385
 20
7846.123139034709
 30
0.0
 11
8277.322920841385
 21
7429.152576286229
 31
0.0
  0
LINE
  5
18C1C
330
18C16
100
AcDbEntity
  8
寸法
 62
     0
 48
50.0
370
    -2
100
AcDbLine
 10
8277.322920841385
 20
7901.123139034706
 30
0.0
 11
8277.322920841385
 21
7846.123139034709
 31
0.0
  0
INSERT
  5
18C1D
330
18C16
100
AcDbEntity
  8
寸法
 62
     0
 48
50.0
370
    -2
100
AcDbBlockReference
  2
_DOTSMALL
 10
8277.322920841385
 20
7901.123139034706
 30
0.0
 41
100.0
 42
100.0
 43
100.0
 50
270.0
  0
INSERT
  5
18C1E
330
18C16
100
AcDbEntity
  8
寸法
 62
     0
 48
50.0
370
    -2
100
AcDbBlockReference
  2
_DOTSMALL
 10
8277.322920841385
 20
7846.123139034709
 30
0.0
 41
100.0
 42
100.0
 43
100.0
 50
90.0
  0
MTEXT
  5
18C1F
330
18C16
100
AcDbEntity
  8
寸法
 62
     7
 48
50.0
100
AcDbMText
 10
8177.322920841383
 20
7537.637857660469
 30
0.0
 40
120.0
 41
0.0
 71
     5
 72
     1
  1
\A1;55
  7
STYLE1
 11
0.0000000000000001
 21
1.0
 31
0.0
 73
     1
 44
1.0
1001
ACAD
1000
MTEXTBEGIN
1070
    73
1070
     1
1070
    44
1040
1.0
1070
    74
1070
     0
1000
MTEXTEND
  0
POINT
  5
18C20
330
18C16
100
AcDbEntity
  8
DEFPOINTS
 62
     0
 48
50.0
100
AcDbPoint
 10
7629.896575106974
 20
7901.123139034706
 30
0.0
  0
POINT
  5
18C21
330
18C16
100
AcDbEntity
  8
DEFPOINTS
 62
     0
 48
50.0
100
AcDbPoint
 10
7629.896575106974
 20
7846.123139034709
 30
0.0
  0
POINT
  5
18C22
330
18C16
100
AcDbEntity
  8
DEFPOINTS
 62
     0
 48
50.0
100
AcDbPoint
 10
8277.322920841385
 20
7846.123139034709
 30
0.0
  0
ENDBLK
  5
18C23
330
18C16
100
AcDbEntity
  8
0
 48
50.0
100
AcDbBlockEnd
  0
BLOCK
  5
18C25
330
18C24
100
AcDbEntity
  8
0
 48
50.0
100
AcDbBlockBegin
  2
*D10
 70
     1
 10
0.0
 20
0.0
 30
0.0
  3
*D10
  1

  0
LINE
  5
18C26
330
18C24
100
AcDbEntity
  8
寸法
 62
     0
 48
50.0
370
    -2
100
AcDbLine
 10
6533.037591258376
 20
9136.123139034728
 30
0.0
 11
6465.083950562664
 21
8882.516699399049
 31
0.0
  0
LINE
  5
18C27
330
18C24
100
AcDbEntity
  8
寸法
 62
     0
 48
50.0
370
    -2
100
AcDbLine
 10
7596.037591258388
 20
9136.123139034721
 30
0.0
 11
7528.083950562677
 21
8882.516699399049
 31
0.0
  0
LINE
  5
18C28
330
18C24
100
AcDbEntity
  8
寸法
 62
     0
 48
50.0
370
    -2
100
AcDbLine
 10
6481.160902108531
 20
8942.51669939905
 30
0.0
 11
7544.160902108544
 21
8942.51669939905
 31
0.0
  0
INSERT
  5
18C29
330
18C24
100
AcDbEntity
  8
寸法
 62
     0
 48
50.0
370
    -2
100
AcDbBlockReference
  2
_DOTSMALL
 10
6481.160902108531
 20
8942.51669939905
 30
0.0
 41
100.0
 42
100.0
 43
100.0
 50
180.0
  0
INSERT
  5
18C2A
330
18C24
100
AcDbEntity
  8
寸法
 62
     0
 48
50.0
370
    -2
100
AcDbBlockReference
  2
_DOTSMALL
 10
7544.160902108544
 20
8942.51669939905
 30
0.0
 41
100.0
 42
100.0
 43
100.0
  0
MTEXT
  5
18C2B
330
18C24
100
AcDbEntity
  8
寸法
 62
     7
 48
50.0
100
AcDbMText
 10
7061.28653022935
 20
9042.516699399049
 30
0.0
 40
120.0
 41
0.0
 71
     5
 72
     1
  1
\A1;1063
  7
STYLE1
 73
     1
 44
1.0
1001
ACAD
1000
MTEXTBEGIN
1070
    73
1070
     1
1070
    44
1040
1.0
1070
    74
1070
     0
1000
MTEXTEND
  0
POINT
  5
18C2C
330
18C24
100
AcDbEntity
  8
DEFPOINTS
 62
     0
 48
50.0
100
AcDbPoint
 10
6538.396575106998
 20
9156.123139034727
 30
0.0
  0
POINT
  5
18C2D
330
18C24
100
AcDbEntity
  8
DEFPOINTS
 62
     0
 48
50.0
100
AcDbPoint
 10
7601.39657510701
 20
9156.12313903472
 30
0.0
  0
POINT
  5
18C2E
330
18C24
100
AcDbEntity
  8
DEFPOINTS
 62
     0
 48
50.0
100
AcDbPoint
 10
7544.160902108544
 20
8942.51669939905
 30
0.0
  0
ENDBLK
  5
18C2F
330
18C24
100
AcDbEntity
  8
0
 48
50.0
100
AcDbBlockEnd
  0
BLOCK
  5
18C31
330
18C30
100
AcDbEntity
  8
0
 48
50.0
100
AcDbBlockBegin
  2
*D11
 70
     1
 10
0.0
 20
0.0
 30
0.0
  3
*D11
  1

  0
LINE
  5
18C32
330
18C30
100
AcDbEntity
  8
寸法
 62
     0
 48
50.0
370
    -2
100
AcDbLine
 10
7621.396575106999
 20
9600.764155186094
 30
0.0
 11
8016.754300969024
 21
9494.828371819961
 31
0.0
  0
LINE
  5
18C33
330
18C30
100
AcDbEntity
  8
寸法
 62
     0
 48
50.0
370
    -2
100
AcDbLine
 10
7621.396575106999
 20
9150.764155186099
 30
0.0
 11
8016.754300969024
 21
9044.828371819964
 31
0.0
  0
LINE
  5
18C34
330
18C30
100
AcDbEntity
  8
寸法
 62
     0
 48
50.0
370
    -2
100
AcDbLine
 10
7956.754300969024
 20
9510.905323365827
 30
0.0
 11
7956.754300969024
 21
9060.90532336583
 31
0.0
  0
INSERT
  5
18C35
330
18C30
100
AcDbEntity
  8
寸法
 62
     0
 48
50.0
370
    -2
100
AcDbBlockReference
  2
_DOTSMALL
 10
7956.754300969024
 20
9510.905323365827
 30
0.0
 41
100.0
 42
100.0
 43
100.0
 50
90.0
  0
INSERT
  5
18C36
330
18C30
100
AcDbEntity
  8
寸法
 62
     0
 48
50.0
370
    -2
100
AcDbBlockReference
  2
_DOTSMALL
 10
7956.754300969024
 20
9060.90532336583
 30
0.0
 41
100.0
 42
100.0
 43
100.0
 50
270.0
  0
MTEXT
  5
18C37
330
18C30
100
AcDbEntity
  8
寸法
 62
     7
 48
50.0
100
AcDbMText
 10
7856.754300969022
 20
9285.905323365829
 30
0.0
 40
120.0
 41
0.0
 71
     5
 72
     1
  1
\A1;450
  7
STYLE1
 11
0.0000000000000001
 21
1.0
 31
0.0
 73
     1
 44
1.0
1001
ACAD
1000
MTEXTBEGIN
1070
    73
1070
     1
1070
    44
1040
1.0
1070
    74
1070
     0
1000
MTEXTEND
  0
POINT
  5
18C38
330
18C30
100
AcDbEntity
  8
DEFPOINTS
 62
     0
 48
50.0
100
AcDbPoint
 10
7601.396575106999
 20
9606.123139034718
 30
0.0
  0
POINT
  5
18C39
330
18C30
100
AcDbEntity
  8
DEFPOINTS
 62
     0
 48
50.0
100
AcDbPoint
 10
7601.396575106999
 20
9156.12313903472
 30
0.0
  0
POINT
  5
18C3A
330
18C30
100
AcDbEntity
  8
DEFPOINTS
 62
     0
 48
50.0
100
AcDbPoint
 10
7956.754300969024
 20
9060.90532336583
 30
0.0
  0
ENDBLK
  5
18C3B
330
18C30
100
AcDbEntity
  8
0
 48
50.0
100
AcDbBlockEnd
  0
BLOCK
  5
18C3D
330
18C3C
100
AcDbEntity
  8
0
 48
50.0
100
AcDbBlockBegin
  2
*D12
 70
     1
 10
0.0
 20
0.0
 30
0.0
  3
*D12
  1

  0
LINE
  5
18C3E
330
18C3C
100
AcDbEntity
  8
寸法
 62
     0
 48
50.0
370
    -2
100
AcDbLine
 10
7649.896575106999
 20
9581.123139034721
 30
0.0
 11
8337.32292084141
 21
9581.123139034721
 31
0.0
  0
LINE
  5
18C3F
330
18C3C
100
AcDbEntity
  8
寸法
 62
     0
 48
50.0
370
    -2
100
AcDbLine
 10
7649.896575106973
 20
7901.123139034706
 30
0.0
 11
8337.32292084141
 21
7901.123139034706
 31
0.0
  0
LINE
  5
18C40
330
18C3C
100
AcDbEntity
  8
寸法
 62
     0
 48
50.0
370
    -2
100
AcDbLine
 10
8277.322920841411
 20
9581.123139034721
 30
0.0
 11
8277.322920841411
 21
7901.123139034706
 31
0.0
  0
INSERT
  5
18C41
330
18C3C
100
AcDbEntity
  8
寸法
 62
     0
 48
50.0
370
    -2
100
AcDbBlockReference
  2
_DOTSMALL
 10
8277.322920841411
 20
9581.123139034721
 30
0.0
 41
100.0
 42
100.0
 43
100.0
 50
90.0
  0
INSERT
  5
18C42
330
18C3C
100
AcDbEntity
  8
寸法
 62
     0
 48
50.0
370
    -2
100
AcDbBlockReference
  2
_DOTSMALL
 10
8277.322920841411
 20
7901.123139034706
 30
0.0
 41
100.0
 42
100.0
 43
100.0
 50
270.0
  0
MTEXT
  5
18C43
330
18C3C
100
AcDbEntity
  8
寸法
 62
     7
 48
50.0
100
AcDbMText
 10
8177.311109817788
 20
8741.123139034712
 30
0.0
 40
120.0
 41
0.0
 71
     5
 72
     1
  1
\A1;4X420=1680
  7
STYLE1
 11
0.0000000000000001
 21
1.0
 31
0.0
 73
     1
 44
1.0
1001
ACAD
1000
MTEXTBEGIN
1070
    73
1070
     1
1070
    44
1040
1.0
1070
    74
1070
     0
1000
MTEXTEND
  0
POINT
  5
18C44
330
18C3C
100
AcDbEntity
  8
DEFPOINTS
 62
     0
 48
50.0
100
AcDbPoint
 10
7629.896575106998
 20
9581.123139034721
 30
0.0
  0
POINT
  5
18C45
330
18C3C
100
AcDbEntity
  8
DEFPOINTS
 62
     0
 48
50.0
100
AcDbPoint
 10
7629.896575106974
 20
7901.123139034706
 30
0.0
  0
POINT
  5
18C46
330
18C3C
100
AcDbEntity
  8
DEFPOINTS
 62
     0
 48
50.0
100
AcDbPoint
 10
8277.322920841411
 20
7901.123139034706
 30
0.0
  0
ENDBLK
  5
18C47
330
18C3C
100
AcDbEntity
  8
0
 48
50.0
100
AcDbBlockEnd
  0
BLOCK
  5
18C49
330
18C48
100
AcDbEntity
  8
0
 48
50.0
100
AcDbBlockBegin
  2
*D13
 70
     1
 10
0.0
 20
0.0
 30
0.0
  3
*D13
  1

  0
LINE
  5
18C4A
330
18C48
100
AcDbEntity
  8
寸法
 62
     0
 48
50.0
370
    -2
100
AcDbLine
 10
4183.037591258377
 20
9136.123139034619
 30
0.0
 11
4115.083950562663
 21
8882.516699398941
 31
0.0
  0
LINE
  5
18C4B
330
18C48
100
AcDbEntity
  8
寸法
 62
     0
 48
50.0
370
    -2
100
AcDbLine
 10
5246.037591258307
 20
9136.123139034671
 30
0.0
 11
5178.08395056258
 21
8882.516699398941
 31
0.0
  0
LINE
  5
18C4C
330
18C48
100
AcDbEntity
  8
寸法
 62
     0
 48
50.0
370
    -2
100
AcDbLine
 10
4131.160902108532
 20
8942.516699398941
 30
0.0
 11
5194.160902108448
 21
8942.516699398941
 31
0.0
  0
INSERT
  5
18C4D
330
18C48
100
AcDbEntity
  8
寸法
 62
     0
 48
50.0
370
    -2
100
AcDbBlockReference
  2
_DOTSMALL
 10
4131.160902108532
 20
8942.516699398941
 30
0.0
 41
100.0
 42
100.0
 43
100.0
 50
180.0
  0
INSERT
  5
18C4E
330
18C48
100
AcDbEntity
  8
寸法
 62
     0
 48
50.0
370
    -2
100
AcDbBlockReference
  2
_DOTSMALL
 10
5194.160902108448
 20
8942.516699398941
 30
0.0
 41
100.0
 42
100.0
 43
100.0
  0
MTEXT
  5
18C4F
330
18C48
100
AcDbEntity
  8
寸法
 62
     7
 48
50.0
100
AcDbMText
 10
4658.986452655306
 20
9042.516699398941
 30
0.0
 40
120.0
 41
0.0
 71
     5
 72
     1
  1
\A1;1063
  7
STYLE1
 73
     1
 44
1.0
1001
ACAD
1000
MTEXTBEGIN
1070
    73
1070
     1
1070
    44
1040
1.0
1070
    74
1070
     0
1000
MTEXTEND
  0
POINT
  5
18C50
330
18C48
100
AcDbEntity
  8
DEFPOINTS
 62
     0
 48
50.0
100
AcDbPoint
 10
4188.396575106999
 20
9156.123139034617
 30
0.0
  0
POINT
  5
18C51
330
18C48
100
AcDbEntity
  8
DEFPOINTS
 62
     0
 48
50.0
100
AcDbPoint
 10
5251.396575106929
 20
9156.123139034672
 30
0.0
  0
POINT
  5
18C52
330
18C48
100
AcDbEntity
  8
DEFPOINTS
 62
     0
 48
50.0
100
AcDbPoint
 10
5194.160902108448
 20
8942.516699398941
 30
0.0
  0
ENDBLK
  5
18C53
330
18C48
100
AcDbEntity
  8
0
 48
50.0
100
AcDbBlockEnd
  0
BLOCK
  5
18C55
330
18C54
100
AcDbEntity
  8
0
 48
50.0
100
AcDbBlockBegin
  2
*D14
 70
     1
 10
0.0
 20
0.0
 30
0.0
  3
*D14
  1

  0
LINE
  5
18C56
330
18C54
100
AcDbEntity
  8
寸法
 62
     0
 48
50.0
370
    -2
100
AcDbLine
 10
5274.037591258307
 20
9136.123139034669
 30
0.0
 11
5206.08395056258
 21
8882.516699398941
 31
0.0
  0
LINE
  5
18C57
330
18C54
100
AcDbEntity
  8
寸法
 62
     0
 48
50.0
370
    -2
100
AcDbLine
 10
6505.037591258377
 20
9136.123139034662
 30
0.0
 11
6437.083950562653
 21
8882.516699398941
 31
0.0
  0
LINE
  5
18C58
330
18C54
100
AcDbEntity
  8
寸法
 62
     0
 48
50.0
370
    -2
100
AcDbLine
 10
5222.160902108448
 20
8942.516699398941
 30
0.0
 11
6453.16090210852
 21
8942.516699398941
 31
0.0
  0
INSERT
  5
18C59
330
18C54
100
AcDbEntity
  8
寸法
 62
     0
 48
50.0
370
    -2
100
AcDbBlockReference
  2
_DOTSMALL
 10
5222.160902108448
 20
8942.516699398941
 30
0.0
 41
100.0
 42
100.0
 43
100.0
 50
180.0
  0
INSERT
  5
18C5A
330
18C54
100
AcDbEntity
  8
寸法
 62
     0
 48
50.0
370
    -2
100
AcDbBlockReference
  2
_DOTSMALL
 10
6453.16090210852
 20
8942.516699398941
 30
0.0
 41
100.0
 42
100.0
 43
100.0
  0
MTEXT
  5
18C5B
330
18C54
100
AcDbEntity
  8
寸法
 62
     7
 48
50.0
100
AcDbMText
 10
6081.244808320626
 20
9042.528510422561
 30
0.0
 40
120.0
 41
0.0
 71
     5
 72
     1
  1
\A1;1231
  7
STYLE1
 73
     1
 44
1.0
1001
ACAD
1000
MTEXTBEGIN
1070
    73
1070
     1
1070
    44
1040
1.0
1070
    74
1070
     0
1000
MTEXTEND
  0
POINT
  5
18C5C
330
18C54
100
AcDbEntity
  8
DEFPOINTS
 62
     0
 48
50.0
100
AcDbPoint
 10
5279.396575106929
 20
9156.123139034669
 30
0.0
  0
POINT
  5
18C5D
330
18C54
100
AcDbEntity
  8
DEFPOINTS
 62
     0
 48
50.0
100
AcDbPoint
 10
6510.396575106999
 20
9156.123139034662
 30
0.0
  0
POINT
  5
18C5E
330
18C54
100
AcDbEntity
  8
DEFPOINTS
 62
     0
 48
50.0
100
AcDbPoint
 10
6453.16090210852
 20
8942.516699398941
 30
0.0
  0
ENDBLK
  5
18C5F
330
18C54
100
AcDbEntity
  8
0
 48
50.0
100
AcDbBlockEnd
  0
BLOCK
  5
18C61
330
18C60
100
AcDbEntity
  8
0
 48
50.0
100
AcDbBlockBegin
  2
*D15
 70
     1
 10
0.0
 20
0.0
 30
0.0
  3
*D15
  1

  0
LINE
  5
18C62
330
18C60
100
AcDbEntity
  8
寸法
 62
     0
 48
50.0
370
    -2
100
AcDbLine
 10
5065.896575106966
 20
7749.123139034579
 30
0.0
 11
5065.896575106966
 21
7099.952920982538
 31
0.0
  0
LINE
  5
18C63
330
18C60
100
AcDbEntity
  8
寸法
 62
     0
 48
50.0
370
    -2
100
AcDbLine
 10
6331.896575106966
 20
7749.123139034579
 30
0.0
 11
6331.896575106966
 21
7099.952920982538
 31
0.0
  0
LINE
  5
18C64
330
18C60
100
AcDbEntity
  8
寸法
 62
     0
 48
50.0
370
    -2
100
AcDbLine
 10
5065.896575106966
 20
7159.952920982537
 30
0.0
 11
6331.896575106966
 21
7159.952920982537
 31
0.0
  0
INSERT
  5
18C65
330
18C60
100
AcDbEntity
  8
寸法
 62
     0
 48
50.0
370
    -2
100
AcDbBlockReference
  2
_DOTSMALL
 10
5065.896575106966
 20
7159.952920982537
 30
0.0
 41
100.0
 42
100.0
 43
100.0
 50
180.0
  0
INSERT
  5
18C66
330
18C60
100
AcDbEntity
  8
寸法
 62
     0
 48
50.0
370
    -2
100
AcDbBlockReference
  2
_DOTSMALL
 10
6331.896575106966
 20
7159.952920982537
 30
0.0
 41
100.0
 42
100.0
 43
100.0
  0
MTEXT
  5
18C67
330
18C60
100
AcDbEntity
  8
寸法
 62
     7
 48
50.0
100
AcDbMText
 10
5711.986008735934
 20
7359.964732006159
 30
0.0
 40
120.0
 41
0.0
 71
     5
 72
     1
  1
\A1;有効開口部間口\P1266
  7
STYLE1
 73
     1
 44
1.0
1001
ACAD
1000
MTEXTBEGIN
1070
    73
1070
     1
1070
    44
1040
1.0
1070
    74
1070
     0
1000
MTEXTEND
  0
POINT
  5
18C68
330
18C60
100
AcDbEntity
  8
DEFPOINTS
 62
     0
 48
50.0
100
AcDbPoint
 10
5065.896575106966
 20
7769.123139034579
 30
0.0
  0
POINT
  5
18C69
330
18C60
100
AcDbEntity
  8
DEFPOINTS
 62
     0
 48
50.0
100
AcDbPoint
 10
6331.896575106966
 20
7769.123139034579
 30
0.0
  0
POINT
  5
18C6A
330
18C60
100
AcDbEntity
  8
DEFPOINTS
 62
     0
 48
50.0
100
AcDbPoint
 10
6331.896575106966
 20
7159.952920982537
 30
0.0
  0
ENDBLK
  5
18C6B
330
18C60
100
AcDbEntity
  8
0
 48
50.0
100
AcDbBlockEnd
  0
BLOCK
  5
18C6D
330
18C6C
100
AcDbEntity
  8
0
 48
50.0
100
AcDbBlockBegin
  2
*D16
 70
     1
 10
0.0
 20
0.0
 30
0.0
  3
*D16
  1

  0
LINE
  5
18C6E
330
18C6C
100
AcDbEntity
  8
寸法
 62
     0
 48
50.0
370
    -2
100
AcDbLine
 10
7200.896575106966
 20
7846.123139034578
 30
0.0
 11
7457.192158500191
 21
7846.123139034578
 31
0.0
  0
LINE
  5
18C6F
330
18C6C
100
AcDbEntity
  8
寸法
 62
     0
 48
50.0
370
    -2
100
AcDbLine
 10
7199.896575106966
 20
7769.123139034579
 30
0.0
 11
7457.192158500191
 21
7769.123139034579
 31
0.0
  0
LINE
  5
18C70
330
18C6C
100
AcDbEntity
  8
寸法
 62
     0
 48
50.0
370
    -2
100
AcDbLine
 10
7417.192158500192
 20
7866.123139034579
 30
0.0
 11
7417.192158500192
 21
7886.123139034578
 31
0.0
  0
LINE
  5
18C71
330
18C6C
100
AcDbEntity
  8
寸法
 62
     0
 48
50.0
370
    -2
100
AcDbLine
 10
7417.192158500192
 20
7749.123139034579
 30
0.0
 11
7417.192158500192
 21
7533.123139034573
 31
0.0
  0
LINE
  5
18C72
330
18C6C
100
AcDbEntity
  8
寸法
 62
     0
 48
50.0
370
    -2
100
AcDbLine
 10
7417.192158500192
 20
7846.123139034578
 30
0.0
 11
7417.192158500192
 21
7769.123139034579
 31
0.0
  0
INSERT
  5
18C73
330
18C6C
100
AcDbEntity
  8
寸法
 62
     0
 48
50.0
370
    -2
100
AcDbBlockReference
  2
_DOT
 10
7417.192158500192
 20
7846.123139034578
 30
0.0
 41
20.0
 42
20.0
 43
20.0
 50
270.0
  0
INSERT
  5
18C74
330
18C6C
100
AcDbEntity
  8
寸法
 62
     0
 48
50.0
370
    -2
100
AcDbBlockReference
  2
_DOT
 10
7417.192158500192
 20
7769.123139034579
 30
0.0
 41
20.0
 42
20.0
 43
20.0
 50
90.0
  0
MTEXT
  5
18C75
330
18C6C
100
AcDbEntity
  8
寸法
 62
     7
 48
50.0
100
AcDbMText
 10
7325.192158500191
 20
7631.123139034575
 30
0.0
 40
120.0
 41
0.0
 71
     5
 72
     1
  1
\A1;77
  7
STYLE1
 11
0.0000000000000001
 21
1.0
 31
0.0
 73
     1
 44
1.0
1001
ACAD
1000
MTEXTBEGIN
1070
    73
1070
     1
1070
    44
1040
1.0
1070
    74
1070
     0
1000
MTEXTEND
  0
POINT
  5
18C76
330
18C6C
100
AcDbEntity
  8
DEFPOINTS
 62
     0
 48
50.0
100
AcDbPoint
 10
7180.896575106967
 20
7846.123139034578
 30
0.0
  0
POINT
  5
18C77
330
18C6C
100
AcDbEntity
  8
DEFPOINTS
 62
     0
 48
50.0
100
AcDbPoint
 10
7179.896575106965
 20
7769.123139034579
 30
0.0
  0
POINT
  5
18C78
330
18C6C
100
AcDbEntity
  8
DEFPOINTS
 62
     0
 48
50.0
100
AcDbPoint
 10
7417.192158500192
 20
7769.123139034579
 30
0.0
  0
ENDBLK
  5
18C79
330
18C6C
100
AcDbEntity
  8
0
 48
50.0
100
AcDbBlockEnd
  0
BLOCK
  5
18DA0
330
18C7A
100
AcDbEntity
  8
0
 48
50.0
100
AcDbBlockBegin
  2
A$C3B1A506B
 70
     0
 10
0.0
 20
0.0
 30
0.0
  3
A$C3B1A506B
  1

  0
MTEXT
  5
18C7B
330
18C7A
100
AcDbEntity
  8
寸法
 62
     7
 48
50.0
100
AcDbMText
 10
3342.250386887194
 20
2778.329429134012
 30
0.0
 40
96.0
 41
0.0
 71
     5
 72
     1
  1
棚 2段
  7
STYLE1
 73
     1
 44
1.0
1001
ACAD
1000
MTEXTBEGIN
1070
    73
1070
     1
1070
    44
1040
1.0
1070
    74
1070
     0
1000
MTEXTEND
  0
MTEXT
  5
18C7C
330
18C7A
100
AcDbEntity
  8
寸法
 62
     7
 48
50.0
100
AcDbMText
 10
2167.25038688716
 20
2778.329429133986
 30
0.0
 40
96.0
 41
0.0
 71
     5
 72
     1
  1
棚 2段
  7
STYLE1
 73
     1
 44
1.0
1001
ACAD
1000
MTEXTBEGIN
1070
    73
1070
     1
1070
    44
1040
1.0
1070
    74
1070
     0
1000
MTEXTEND
  0
MTEXT
  5
18C7D
330
18C7A
100
AcDbEntity
  8
寸法
 62
     7
 48
50.0
100
AcDbMText
 10
992.2503868871608
 20
2778.329429133935
 30
0.0
 40
96.0
 41
0.0
 71
     5
 72
     1
  1
棚 2段
  7
STYLE1
 73
     1
 44
1.0
1001
ACAD
1000
MTEXTBEGIN
1070
    73
1070
     1
1070
    44
1040
1.0
1070
    74
1070
     0
1000
MTEXTEND
  0
LINE
  5
18C7E
330
18C7A
100
AcDbEntity
  8
細線
 48
50.0
100
AcDbLine
 10
2771.970589276527
 20
1368.994384123192
 30
0.0
 11
3398.970589276523
 21
1368.994384123192
 31
0.0
  0
LINE
  5
18C7F
330
18C7A
100
AcDbEntity
  8
細線
 48
50.0
100
AcDbLine
 10
2117.970593930113
 20
1335.285615569113
 30
0.0
 11
3398.970589276523
 21
1335.285615569113
 31
0.0
  0
LINE
  5
18C80
330
18C7A
100
AcDbEntity
  8
細線
 48
50.0
100
AcDbLine
 10
2076.970593930115
 20
1364.690523565368
 30
0.0
 11
1322.970589276523
 21
1364.690523565367
 31
0.0
  0
LINE
  5
18C81
330
18C7A
100
AcDbEntity
  8
細線
100
AcDbLine
 10
3170.720579860066
 20
1388.494284088199
 30
0.0
 11
3173.052119381877
 21
1393.494286728162
 31
0.0
  0
LINE
  5
18C82
330
18C7A
100
AcDbEntity
  8
細線
100
AcDbLine
 10
3240.720589276525
 20
1388.494269174465
 30
0.0
 11
3238.389042800336
 21
1393.494286728144
 31
0.0
  0
LINE
  5
18C83
330
18C7A
100
AcDbEntity
  8
細線
100
AcDbLine
 10
3238.389042800336
 20
1393.494286728144
 30
0.0
 11
3173.052119381862
 21
1393.494286728133
 31
0.0
  0
LINE
  5
18C84
330
18C7A
100
AcDbEntity
  8
細線
100
AcDbLine
 10
3098.389042800336
 20
1393.494286728144
 30
0.0
 11
3033.052119381862
 21
1393.494286728133
 31
0.0
  0
LINE
  5
18C85
330
18C7A
100
AcDbEntity
  8
細線
100
AcDbLine
 10
3100.720589276523
 20
1388.494269174465
 30
0.0
 11
3098.389042800336
 21
1393.494286728144
 31
0.0
  0
LINE
  5
18C86
330
18C7A
100
AcDbEntity
  8
細線
100
AcDbLine
 10
3030.720579860066
 20
1388.494284088199
 30
0.0
 11
3033.052119381875
 21
1393.494286728162
 31
0.0
  0
LINE
  5
18C87
330
18C7A
100
AcDbEntity
  8
細線
100
AcDbLine
 10
2890.720589276525
 20
1388.494269174465
 30
0.0
 11
2893.052128798336
 21
1393.494271814428
 31
0.0
  0
LINE
  5
18C88
330
18C7A
100
AcDbEntity
  8
細線
100
AcDbLine
 10
2960.720598692984
 20
1388.494254260731
 30
0.0
 11
2958.389052216793
 21
1393.49427181441
 31
0.0
  0
LINE
  5
18C89
330
18C7A
100
AcDbEntity
  8
細線
100
AcDbLine
 10
2958.389052216795
 20
1393.49427181441
 30
0.0
 11
2893.052128798321
 21
1393.494271814399
 31
0.0
  0
LINE
  5
18C8A
330
18C7A
100
AcDbEntity
  8
細線
100
AcDbLine
 10
2667.139038146739
 20
1359.494298590735
 30
0.0
 11
2601.802114728263
 21
1359.494298590724
 31
0.0
  0
LINE
  5
18C8B
330
18C7A
100
AcDbEntity
  8
細線
100
AcDbLine
 10
2669.470584622926
 20
1354.494281037055
 30
0.0
 11
2667.139038146737
 21
1359.494298590735
 31
0.0
  0
LINE
  5
18C8C
330
18C7A
100
AcDbEntity
  8
細線
100
AcDbLine
 10
2599.470575206469
 20
1354.49429595079
 30
0.0
 11
2601.802114728278
 21
1359.494298590752
 31
0.0
  0
LINE
  5
18C8D
330
18C7A
100
AcDbEntity
  8
細線
 48
50.0
100
AcDbLine
 10
2440.853968524536
 20
1372.765132327548
 30
0.0
 11
2446.609486107205
 21
1354.494281037057
 31
0.0
  0
LINE
  5
18C8E
330
18C7A
100
AcDbEntity
  8
細線
 48
50.0
100
AcDbLine
 10
2429.925520044106
 20
1372.765132327546
 30
0.0
 11
2440.853968524536
 21
1372.765132327548
 31
0.0
  0
ARC
  5
18C8F
330
18C7A
100
AcDbEntity
  8
細線
 48
50.0
100
AcDbCircle
 10
2424.471163986787
 20
1374.265132327546
 30
0.0
 40
5.0
100
AcDbArc
 50
204.6243183520723
 51
335.3756816479278
  0
ARC
  5
18C90
330
18C7A
100
AcDbEntity
  8
細線
 48
50.0
100
AcDbCircle
 10
2429.925520044106
 20
1371.765132327546
 30
0.0
 40
1.0
100
AcDbArc
 50
90.0
 51
155.3756816479277
  0
ARC
  5
18C91
330
18C7A
100
AcDbEntity
  8
細線
 48
50.0
100
AcDbCircle
 10
2419.016807929469
 20
1371.765132327546
 30
0.0
 40
1.0
100
AcDbArc
 50
24.62431835207225
 51
90.0
  0
LINE
  5
18C92
330
18C7A
100
AcDbEntity
  8
細線
 48
50.0
100
AcDbLine
 10
2408.088359449037
 20
1372.765132327548
 30
0.0
 11
2419.016807929469
 21
1372.765132327546
 31
0.0
  0
LINE
  5
18C93
330
18C7A
100
AcDbEntity
  8
細線
 48
50.0
100
AcDbLine
 10
2402.33284186637
 20
1354.494281037054
 30
0.0
 11
2408.088359449037
 21
1372.765132327548
 31
0.0
  0
LINE
  5
18C94
330
18C7A
100
AcDbEntity
  8
細線
100
AcDbLine
 10
2458.070304175992
 20
1354.494278397076
 30
0.0
 11
2460.401843697802
 21
1359.494281037039
 31
0.0
  0
LINE
  5
18C95
330
18C7A
100
AcDbEntity
  8
細線
100
AcDbLine
 10
2528.070313592451
 20
1354.494263483342
 30
0.0
 11
2525.738767116262
 21
1359.494281037021
 31
0.0
  0
LINE
  5
18C96
330
18C7A
100
AcDbEntity
  8
細線
100
AcDbLine
 10
2525.738767116262
 20
1359.494281037021
 30
0.0
 11
2460.40184369779
 21
1359.49428103701
 31
0.0
  0
LINE
  5
18C97
330
18C7A
100
AcDbEntity
  8
細線
100
AcDbLine
 10
2387.139046332155
 20
1359.494281037021
 30
0.0
 11
2321.80212291368
 21
1359.49428103701
 31
0.0
  0
LINE
  5
18C98
330
18C7A
100
AcDbEntity
  8
細線
100
AcDbLine
 10
2389.470592808342
 20
1354.494263483342
 30
0.0
 11
2387.139046332153
 21
1359.494281037021
 31
0.0
  0
LINE
  5
18C99
330
18C7A
100
AcDbEntity
  8
細線
100
AcDbLine
 10
2319.470584622926
 20
1354.494281037054
 30
0.0
 11
2321.802122913694
 21
1359.494281037039
 31
0.0
  0
LINE
  5
18C9A
330
18C7A
100
AcDbEntity
  8
細線
100
AcDbLine
 10
2179.47061994182
 20
1354.494289224422
 30
0.0
 11
2181.802158232587
 21
1359.494289224407
 31
0.0
  0
LINE
  5
18C9B
330
18C7A
100
AcDbEntity
  8
細線
100
AcDbLine
 10
2249.470628127236
 20
1354.49427167071
 30
0.0
 11
2247.139081651047
 21
1359.494289224389
 31
0.0
  0
LINE
  5
18C9C
330
18C7A
100
AcDbEntity
  8
細線
100
AcDbLine
 10
2247.139081651047
 20
1359.494289224389
 30
0.0
 11
2181.802158232573
 21
1359.494289224378
 31
0.0
  0
LINE
  5
18C9D
330
18C7A
100
AcDbEntity
  8
細線
100
AcDbLine
 10
1807.970585744697
 20
1320.494460905133
 30
0.0
 11
1810.302124035464
 21
1325.494460905118
 31
0.0
  0
LINE
  5
18C9E
330
18C7A
100
AcDbEntity
  8
細線
100
AcDbLine
 10
1877.970593930113
 20
1320.494443351421
 30
0.0
 11
1875.639047453926
 21
1325.4944609051
 31
0.0
  0
LINE
  5
18C9F
330
18C7A
100
AcDbEntity
  8
細線
100
AcDbLine
 10
1875.639047453926
 20
1325.4944609051
 30
0.0
 11
1810.302124035452
 21
1325.494460905089
 31
0.0
  0
LINE
  5
18CA0
330
18C7A
100
AcDbEntity
  8
細線
100
AcDbLine
 10
2015.639047453926
 20
1325.4944609051
 30
0.0
 11
1950.302124035452
 21
1325.494460905089
 31
0.0
  0
LINE
  5
18CA1
330
18C7A
100
AcDbEntity
  8
細線
100
AcDbLine
 10
2017.970593930113
 20
1320.494443351421
 30
0.0
 11
2015.639047453924
 21
1325.4944609051
 31
0.0
  0
LINE
  5
18CA2
330
18C7A
100
AcDbEntity
  8
細線
100
AcDbLine
 10
1947.970585744697
 20
1320.494460905133
 30
0.0
 11
1950.302124035465
 21
1325.494460905118
 31
0.0
  0
LINE
  5
18CA3
330
18C7A
100
AcDbEntity
  8
細線
100
AcDbLine
 10
1735.639047453926
 20
1325.494460905098
 30
0.0
 11
1670.302124035454
 21
1325.494460905087
 31
0.0
  0
LINE
  5
18CA4
330
18C7A
100
AcDbEntity
  8
細線
100
AcDbLine
 10
1737.970593930113
 20
1320.494443351419
 30
0.0
 11
1735.639047453926
 21
1325.494460905098
 31
0.0
  0
LINE
  5
18CA5
330
18C7A
100
AcDbEntity
  8
細線
100
AcDbLine
 10
1667.970585744697
 20
1320.494460905131
 30
0.0
 11
1670.302124035465
 21
1325.494460905116
 31
0.0
  0
LINE
  5
18CA6
330
18C7A
100
AcDbEntity
  8
細線
100
AcDbLine
 10
1527.970593930113
 20
1320.494460905133
 30
0.0
 11
1530.302132220881
 21
1325.494460905118
 31
0.0
  0
LINE
  5
18CA7
330
18C7A
100
AcDbEntity
  8
細線
100
AcDbLine
 10
1597.970602115529
 20
1320.494443351421
 30
0.0
 11
1595.639055639342
 21
1325.4944609051
 31
0.0
  0
LINE
  5
18CA8
330
18C7A
100
AcDbEntity
  8
細線
100
AcDbLine
 10
1595.639055639342
 20
1325.4944609051
 30
0.0
 11
1530.302132220869
 21
1325.494460905089
 31
0.0
  0
ARC
  5
18CA9
330
18C7A
100
AcDbEntity
  8
部品1
 48
0.01
100
AcDbCircle
 10
1483.470482677778
 20
1319.493338720063
 30
0.0
 40
0.5
100
AcDbArc
 50
270.0
 51
0.0
  0
LINE
  5
18CAA
330
18C7A
100
AcDbEntity
  8
部品1
 48
0.01
100
AcDbLine
 10
1483.970482677778
 20
1320.493338720063
 30
0.0
 11
1483.970482677778
 21
1319.493338720063
 31
0.0
  0
LINE
  5
18CAB
330
18C7A
100
AcDbEntity
  8
部品1
 48
0.01
100
AcDbLine
 10
1483.970482677778
 20
1320.493338720063
 30
0.0
 11
1483.970482677778
 21
1319.493338720063
 31
0.0
  0
LINE
  5
18CAC
330
18C7A
100
AcDbEntity
  8
部品1
 48
0.01
100
AcDbLine
 10
1483.470482677778
 20
1318.993338720063
 30
0.0
 11
1476.857977247713
 21
1318.993338720062
 31
0.0
  0
ARC
  5
18CAD
330
18C7A
100
AcDbEntity
  8
部品1
100
AcDbCircle
 10
1476.926326800494
 20
1319.993338720062
 30
0.0
 40
1.0
100
AcDbArc
 50
160.5287793655865
 51
270.0
  0
ARC
  5
18CAE
330
18C7A
100
AcDbEntity
  8
部品1
100
AcDbCircle
 10
1451.470482677778
 20
1328.993338720062
 30
0.0
 40
26.0
100
AcDbArc
 50
340.5287793655865
 51
0.0
  0
LINE
  5
18CAF
330
18C7A
100
AcDbEntity
  8
部品1
100
AcDbLine
 10
1477.470482677778
 20
1328.993338720062
 30
0.0
 11
1477.470482677778
 21
1333.993338720061
 31
0.0
  0
ARC
  5
18CB0
330
18C7A
100
AcDbEntity
  8
部品1
 48
0.01
100
AcDbCircle
 10
1475.470482677778
 20
1333.993338720061
 30
0.0
 40
2.0
100
AcDbArc
 50
0.0
 51
90.0
  0
ARC
  5
18CB1
330
18C7A
100
AcDbEntity
  8
部品1
100
AcDbCircle
 10
1473.862091052968
 20
1332.993338720062
 30
0.0
 40
3.0
100
AcDbArc
 50
90.0
 51
141.6069559808035
  0
LINE
  5
18CB2
330
18C7A
100
AcDbEntity
  8
部品1
 48
0.01
100
AcDbLine
 10
1475.470482677778
 20
1335.993338720062
 30
0.0
 11
1473.862091052968
 21
1335.993338720062
 31
0.0
  0
ARC
  5
18CB3
330
18C7A
100
AcDbEntity
  8
部品1
100
AcDbCircle
 10
1455.399768463507
 20
1332.293338720065
 30
0.0
 40
3.0
100
AcDbArc
 50
254.0576313943215
 51
270.0
  0
ARC
  5
18CB4
330
18C7A
100
AcDbEntity
  8
部品1
100
AcDbCircle
 10
1462.541196892049
 20
1332.293338720065
 30
0.0
 40
3.0
100
AcDbArc
 50
270.0
 51
285.9423686056786
  0
LINE
  5
18CB5
330
18C7A
100
AcDbEntity
  8
部品1
100
AcDbLine
 10
1462.541196892049
 20
1329.293338720064
 30
0.0
 11
1455.399768463507
 21
1329.293338720064
 31
0.0
  0
ARC
  5
18CB6
330
18C7A
100
AcDbEntity
  8
部品1
100
AcDbCircle
 10
1458.970482677778
 20
1344.793338720065
 30
0.0
 40
16.0
100
AcDbArc
 50
285.9423686056786
 51
321.6069559808035
  0
LINE
  5
18CB7
330
18C7A
100
AcDbEntity
  8
部品1
 48
0.01
100
AcDbLine
 10
1442.470482677778
 20
1335.993338720062
 30
0.0
 11
1444.078874302588
 21
1335.993338720062
 31
0.0
  0
ARC
  5
18CB8
330
18C7A
100
AcDbEntity
  8
部品1
100
AcDbCircle
 10
1444.078874302588
 20
1332.993338720062
 30
0.0
 40
3.0
100
AcDbArc
 50
38.39304401919648
 51
90.0
  0
ARC
  5
18CB9
330
18C7A
100
AcDbEntity
  8
部品1
100
AcDbCircle
 10
1458.970482677778
 20
1344.793338720065
 30
0.0
 40
16.0
100
AcDbArc
 50
218.3930440191965
 51
254.0576313943215
  0
LINE
  5
18CBA
330
18C7A
100
AcDbEntity
  8
部品1
100
AcDbLine
 10
1440.470482677778
 20
1328.993338720062
 30
0.0
 11
1440.470482677778
 21
1333.993338720061
 31
0.0
  0
ARC
  5
18CBB
330
18C7A
100
AcDbEntity
  8
部品1
 48
0.01
100
AcDbCircle
 10
1442.470482677778
 20
1333.993338720061
 30
0.0
 40
2.0
100
AcDbArc
 50
90.0
 51
180.0
  0
ARC
  5
18CBC
330
18C7A
100
AcDbEntity
  8
部品1
100
AcDbCircle
 10
1466.470482677778
 20
1328.993338720062
 30
0.0
 40
26.0
100
AcDbArc
 50
180.0
 51
199.4712206344134
  0
ARC
  5
18CBD
330
18C7A
100
AcDbEntity
  8
部品1
 48
0.01
100
AcDbCircle
 10
1434.470482677778
 20
1319.493338720063
 30
0.0
 40
0.5
100
AcDbArc
 50
180.0
 51
270.0
  0
LINE
  5
18CBE
330
18C7A
100
AcDbEntity
  8
部品1
 48
0.01
100
AcDbLine
 10
1434.470482677778
 20
1318.993338720063
 30
0.0
 11
1441.014638555061
 21
1318.993338720062
 31
0.0
  0
LINE
  5
18CBF
330
18C7A
100
AcDbEntity
  8
部品1
 48
0.01
100
AcDbLine
 10
1433.970482677778
 20
1320.493338720063
 30
0.0
 11
1433.970482677778
 21
1319.493338720063
 31
0.0
  0
ARC
  5
18CC0
330
18C7A
100
AcDbEntity
  8
部品1
100
AcDbCircle
 10
1441.014638555061
 20
1319.993338720062
 30
0.0
 40
1.0
100
AcDbArc
 50
270.0
 51
19.47122063441346
  0
LINE
  5
18CC1
330
18C7A
100
AcDbEntity
  8
細線
100
AcDbLine
 10
1479.470482677785
 20
1338.493338720065
 30
0.0
 11
1438.470482677785
 21
1338.493338720058
 31
0.0
  0
LINE
  5
18CC2
330
18C7A
100
AcDbEntity
  8
細線
100
AcDbLine
 10
1438.470482677785
 20
1338.493338720058
 30
0.0
 11
1438.470482677785
 21
1320.49333872004
 31
0.0
  0
LINE
  5
18CC3
330
18C7A
100
AcDbEntity
  8
細線
100
AcDbLine
 10
1479.470482677785
 20
1338.493338720065
 30
0.0
 11
1479.470482677785
 21
1320.49333872004
 31
0.0
  0
LINE
  5
18CC4
330
18C7A
100
AcDbEntity
  8
細線
100
AcDbLine
 10
1322.970589276523
 20
1324.494269174465
 30
0.0
 11
1322.970589276523
 21
1320.494269174513
 31
0.0
  0
LINE
  5
18CC5
330
18C7A
100
AcDbEntity
  8
寸法
 48
50.0
100
AcDbLine
 10
1746.17359555837
 20
1170.531020743327
 30
0.0
 11
1694.767587648266
 21
1170.531020743327
 31
0.0
  0
LINE
  5
18CC6
330
18C7A
100
AcDbEntity
  8
寸法
 48
50.0
100
AcDbLine
 10
1694.767587648266
 20
1170.531020743327
 30
0.0
 11
1694.767587648266
 21
1201.841179395494
 31
0.0
  0
LINE
  5
18CC7
330
18C7A
100
AcDbEntity
  8
寸法
 48
50.0
100
AcDbLine
 10
1694.767587648266
 20
1201.841179395494
 30
0.0
 11
1665.006255656843
 21
1201.841179395494
 31
0.0
  0
LINE
  5
18CC8
330
18C7A
100
AcDbEntity
  8
寸法
 48
50.0
100
AcDbLine
 10
1665.006255656843
 20
1201.841179395494
 30
0.0
 11
1720.470591603318
 21
1239.420630324105
 31
0.0
  0
LINE
  5
18CC9
330
18C7A
100
AcDbEntity
  8
寸法
 48
50.0
100
AcDbLine
 10
1775.934927549793
 20
1201.841179395494
 30
0.0
 11
1720.470591603318
 21
1239.420630324105
 31
0.0
  0
LINE
  5
18CCA
330
18C7A
100
AcDbEntity
  8
寸法
 48
50.0
100
AcDbLine
 10
1746.17359555837
 20
1201.841179395494
 30
0.0
 11
1775.934927549793
 21
1201.841179395494
 31
0.0
  0
LINE
  5
18CCB
330
18C7A
100
AcDbEntity
  8
寸法
 48
50.0
100
AcDbLine
 10
1746.17359555837
 20
1170.531020743327
 30
0.0
 11
1746.17359555837
 21
1201.841179395494
 31
0.0
  0
LINE
  5
18CCC
330
18C7A
100
AcDbEntity
  8
寸法
 48
50.0
100
AcDbLine
 10
1694.767587648266
 20
1170.531020743327
 30
0.0
 11
1746.17359555837
 21
1170.531020743327
 31
0.0
  0
LINE
  5
18CCD
330
18C7A
100
AcDbEntity
  8
寸法
 48
50.0
100
AcDbLine
 10
2025.339129835225
 20
1227.676611498152
 30
0.0
 11
2025.339129835225
 21
1174.01297691636
 31
0.0
  0
LINE
  5
18CCE
330
18C7A
100
AcDbEntity
  8
寸法
 48
50.0
100
AcDbLine
 10
2114.623348430647
 20
1203.752977228664
 30
0.0
 11
2025.339129835225
 21
1227.676611498152
 31
0.0
  0
LINE
  5
18CCF
330
18C7A
100
AcDbEntity
  8
寸法
 48
50.0
100
AcDbLine
 10
1895.471408254923
 20
1203.752977228664
 30
0.0
 11
2114.623348430647
 21
1203.752977228664
 31
0.0
  0
DIMENSION
  5
18CD0
330
18C7A
100
AcDbEntity
  8
寸法
 48
50.0
100
AcDbDimension
  2
*D15
 10
2588.970589276523
 20
706.3240511224249
 30
0.0
 11
1969.060022905491
 21
706.3240511224249
 31
0.0
 12
-3742.925985830444
 22
-6453.628869860112
 32
0.0
 70
   128
  1
有効開口部間口\P<>
 71
     5
 42
1266.0
  3
INABA_S40G
100
AcDbAlignedDimension
 13
1322.970589276523
 23
1315.494269174465
 33
0.0
 14
2588.970589276523
 24
1315.494269174465
 34
0.0
100
AcDbRotatedDimension
1001
ACAD
1000
DSTYLE
1002
{
1070
   341
1005
0
1002
}
  0
LINE
  5
18CD1
330
18C7A
100
AcDbEntity
  8
部品1
100
AcDbLine
 10
3409.970589276524
 20
1392.494269174465
 30
0.0
 11
3437.970589276523
 21
1392.494269174465
 31
0.0
  0
DIMENSION
  5
18CD2
330
18C7A
100
AcDbEntity
  8
寸法
100
AcDbDimension
  2
*D16
 10
3674.266172669749
 20
1315.494269174465
 30
0.0
 11
3674.266172669748
 21
1177.494269174462
 31
0.0
 12
-3742.925985830444
 22
-6453.628869860112
 32
0.0
 70
   128
 71
     5
 42
77.0
  3
INABA_S40
100
AcDbAlignedDimension
 13
3437.970589276523
 23
1392.494269174465
 33
0.0
 14
3436.970589276523
 24
1315.494269174465
 34
0.0
 50
90.0
100
AcDbRotatedDimension
1001
ACAD
1000
DSTYLE
1002
{
1070
    41
1040
0.5
1070
    44
1040
1.0
1070
   147
1040
0.8
1070
   271
1070
     2
1070
   272
1070
     2
1070
   289
1070
     3
1070
   340
1005
F706
1070
   343
1005
164B4
1070
   344
1005
164B4
1002
}
  0
LINE
  5
18CD3
330
18C7A
100
AcDbEntity
  8
部品1
100
AcDbLine
 10
3437.970589276523
 20
1315.494269174465
 30
0.0
 11
3437.970589276523
 21
1392.494269174465
 31
0.0
  0
LINE
  5
18CD4
330
18C7A
100
AcDbEntity
  8
部品1
100
AcDbLine
 10
3398.970589276523
 20
1388.494269174465
 30
0.0
 11
3409.970589276524
 21
1388.494269174465
 31
0.0
  0
LINE
  5
18CD5
330
18C7A
100
AcDbEntity
  8
部品1
100
AcDbLine
 10
3407.970589276523
 20
1324.494269174465
 30
0.0
 11
3407.970589276523
 21
1315.494269174465
 31
0.0
  0
LINE
  5
18CD6
330
18C7A
100
AcDbEntity
  8
部品1
100
AcDbLine
 10
3398.970589276523
 20
1324.494269174465
 30
0.0
 11
3407.970589276523
 21
1324.494269174465
 31
0.0
  0
LINE
  5
18CD7
330
18C7A
100
AcDbEntity
  8
部品1
100
AcDbLine
 10
3398.970589276523
 20
1388.494269174465
 30
0.0
 11
3398.970589276523
 21
1324.494269174465
 31
0.0
  0
LINE
  5
18CD8
330
18C7A
100
AcDbEntity
  8
部品1
100
AcDbLine
 10
3409.970589276524
 20
1419.494269174465
 30
0.0
 11
3409.970589276524
 21
1388.494269174465
 31
0.0
  0
LINE
  5
18CD9
330
18C7A
100
AcDbEntity
  8
部品1
100
AcDbLine
 10
1322.970589276523
 20
1388.494269174465
 30
0.0
 11
1311.970589276523
 21
1388.494269174465
 31
0.0
  0
LINE
  5
18CDA
330
18C7A
100
AcDbEntity
  8
部品1
100
AcDbLine
 10
1283.970589276523
 20
1392.494269174465
 30
0.0
 11
1311.970589276523
 21
1392.494269174465
 31
0.0
  0
LINE
  5
18CDB
330
18C7A
100
AcDbEntity
  8
部品1
100
AcDbLine
 10
1313.970589276523
 20
1324.494269174465
 30
0.0
 11
1313.970589276523
 21
1315.494269174465
 31
0.0
  0
LINE
  5
18CDC
330
18C7A
100
AcDbEntity
  8
部品1
100
AcDbLine
 10
1322.970589276523
 20
1324.494269174465
 30
0.0
 11
1313.970589276523
 21
1324.494269174465
 31
0.0
  0
LINE
  5
18CDD
330
18C7A
100
AcDbEntity
  8
部品1
100
AcDbLine
 10
1313.970589276523
 20
1315.494269174465
 30
0.0
 11
1283.970589276523
 21
1315.494269174465
 31
0.0
  0
LINE
  5
18CDE
330
18C7A
100
AcDbEntity
  8
部品1
100
AcDbLine
 10
1283.970589276523
 20
1315.494269174465
 30
0.0
 11
1283.970589276523
 21
1392.494269174465
 31
0.0
  0
LINE
  5
18CDF
330
18C7A
100
AcDbEntity
  8
部品1
100
AcDbLine
 10
1322.970589276523
 20
1388.494269174465
 30
0.0
 11
1322.970589276523
 21
1324.494269174465
 31
0.0
  0
LINE
  5
18CE0
330
18C7A
100
AcDbEntity
  8
部品1
100
AcDbLine
 10
1311.970589276523
 20
1419.494269174462
 30
0.0
 11
1311.970589276523
 21
1388.494269174465
 31
0.0
  0
LINE
  5
18CE1
330
18C7A
100
AcDbEntity
  8
部品1
100
AcDbLine
 10
1311.970589276523
 20
1419.494269174462
 30
0.0
 11
3409.970589276524
 21
1419.494269174465
 31
0.0
  0
LINE
  5
18CE2
330
18C7A
100
AcDbEntity
  8
部品1
100
AcDbLine
 10
3407.970589276523
 20
1315.494269174465
 30
0.0
 11
3437.970589276523
 21
1315.494269174465
 31
0.0
  0
LINE
  5
18CE3
330
18C7A
100
AcDbEntity
  8
部品1
100
AcDbLine
 10
1313.970589276523
 20
1315.494269174465
 30
0.0
 11
3410.970589276523
 21
1315.494269174465
 31
0.0
  0
LINE
  5
18CE4
330
18C7A
100
AcDbEntity
  8
細線
  6
Continuous
 62
     5
100
AcDbLine
 10
2689.970589276527
 20
1354.494269174462
 30
0.0
 11
2689.970589276527
 21
1354.494269174462
 31
0.0
  0
LINE
  5
18CE5
330
18C7A
100
AcDbEntity
  8
細線
  6
Continuous
 62
     5
100
AcDbLine
 10
2682.470589276527
 20
1354.494269174462
 30
0.0
 11
2682.470589276527
 21
1354.494269174462
 31
0.0
  0
LINE
  5
18CE6
330
18C7A
100
AcDbEntity
  8
細線
  6
Continuous
 62
     5
100
AcDbLine
 10
2676.470589276527
 20
1354.494269174462
 30
0.0
 11
2676.470589276527
 21
1354.494269174462
 31
0.0
  0
LINE
  5
18CE7
330
18C7A
100
AcDbEntity
  8
細線
  6
Continuous
 62
     5
100
AcDbLine
 10
2743.970589276527
 20
1373.494269174462
 30
0.0
 11
2743.970589276527
 21
1373.494269174462
 31
0.0
  0
LINE
  5
18CE8
330
18C7A
100
AcDbEntity
  8
細線
 48
50.0
100
AcDbLine
 10
1336.970593930116
 20
1341.094443351418
 30
0.0
 11
1336.970593930113
 21
1349.490593759059
 31
0.0
  0
LINE
  5
18CE9
330
18C7A
100
AcDbEntity
  8
細線
 48
50.0
100
AcDbLine
 10
1336.970593930113
 20
1349.490593759059
 30
0.0
 11
1322.970589276523
 21
1349.490593759057
 31
0.0
  0
LINE
  5
18CEA
330
18C7A
100
AcDbEntity
  8
細線
 48
50.0
100
AcDbLine
 10
2087.970593930113
 20
1337.644443351419
 30
0.0
 11
2087.970593930113
 21
1342.494443351421
 31
0.0
  0
LINE
  5
18CEB
330
18C7A
100
AcDbEntity
  8
細線
 48
50.0
100
AcDbLine
 10
2087.970593930113
 20
1342.494443351421
 30
0.0
 11
2102.970593930113
 21
1342.494443351421
 31
0.0
  0
LINE
  5
18CEC
330
18C7A
100
AcDbEntity
  8
細線
 48
50.0
100
AcDbLine
 10
2102.970593930113
 20
1342.494443351421
 30
0.0
 11
2102.970593930115
 21
1349.494443351419
 31
0.0
  0
LINE
  5
18CED
330
18C7A
100
AcDbEntity
  8
細線
 48
50.0
100
AcDbLine
 10
2102.970593930115
 20
1349.494443351419
 30
0.0
 11
2117.970593930113
 21
1349.494443351419
 31
0.0
  0
LINE
  5
18CEE
330
18C7A
100
AcDbEntity
  8
細線
 48
50.0
100
AcDbLine
 10
2117.970593930113
 20
1349.494443351419
 30
0.0
 11
2117.970593930113
 21
1320.494443351421
 31
0.0
  0
LINE
  5
18CEF
330
18C7A
100
AcDbEntity
  8
細線
 48
50.0
100
AcDbLine
 10
1313.970589276523
 20
1320.491777694889
 30
0.0
 11
1527.970593930113
 21
1320.494460905133
 31
0.0
  0
LINE
  5
18CF0
330
18C7A
100
AcDbEntity
  8
細線
 48
50.0
100
AcDbLine
 10
2017.970593930113
 20
1320.494443351421
 30
0.0
 11
2117.970593930113
 21
1320.494443351421
 31
0.0
  0
LINE
  5
18CF1
330
18C7A
100
AcDbEntity
  8
細線
 48
50.0
100
AcDbLine
 10
1737.970593930113
 20
1320.494443351419
 30
0.0
 11
1807.970593930113
 21
1320.494443351423
 31
0.0
  0
LINE
  5
18CF2
330
18C7A
100
AcDbEntity
  8
細線
 48
50.0
100
AcDbLine
 10
1750.832558942642
 20
1320.494443351419
 30
0.0
 11
1756.588076525309
 21
1338.765294641913
 31
0.0
  0
LINE
  5
18CF3
330
18C7A
100
AcDbEntity
  8
細線
 48
50.0
100
AcDbLine
 10
1756.588076525309
 20
1338.765294641913
 30
0.0
 11
1767.516525005743
 21
1338.765294641911
 31
0.0
  0
ARC
  5
18CF4
330
18C7A
100
AcDbEntity
  8
細線
 48
50.0
100
AcDbCircle
 10
1767.516525005743
 20
1337.765294641911
 30
0.0
 40
1.0
100
AcDbArc
 50
24.62431835207225
 51
90.0
  0
ARC
  5
18CF5
330
18C7A
100
AcDbEntity
  8
細線
 48
50.0
100
AcDbCircle
 10
1778.425237120377
 20
1337.765294641911
 30
0.0
 40
1.0
100
AcDbArc
 50
90.0
 51
155.3756816479277
  0
ARC
  5
18CF6
330
18C7A
100
AcDbEntity
  8
細線
 48
50.0
100
AcDbCircle
 10
1772.970881063058
 20
1340.265294641911
 30
0.0
 40
5.0
100
AcDbArc
 50
204.6243183520723
 51
335.3756816479278
  0
LINE
  5
18CF7
330
18C7A
100
AcDbEntity
  8
細線
 48
50.0
100
AcDbLine
 10
1778.425237120377
 20
1338.765294641911
 30
0.0
 11
1789.35368560081
 21
1338.765294641913
 31
0.0
  0
LINE
  5
18CF8
330
18C7A
100
AcDbEntity
  8
細線
 48
50.0
100
AcDbLine
 10
1789.35368560081
 20
1338.765294641913
 30
0.0
 11
1795.109203183478
 21
1320.494443351423
 31
0.0
  0
LINE
  5
18CF9
330
18C7A
100
AcDbEntity
  8
細線
 48
50.0
100
AcDbLine
 10
2087.970593930113
 20
1341.094443351419
 30
0.0
 11
1336.970593930116
 21
1341.094443351418
 31
0.0
  0
LINE
  5
18CFA
330
18C7A
100
AcDbEntity
  8
細線
 48
50.0
100
AcDbLine
 10
1947.970593930113
 20
1320.494443351421
 30
0.0
 11
1877.970593930113
 21
1320.494443351421
 31
0.0
  0
LINE
  5
18CFB
330
18C7A
100
AcDbEntity
  8
細線
100
AcDbLine
 10
1667.970593930113
 20
1320.494443351421
 30
0.0
 11
1597.970602115529
 21
1320.494443351421
 31
0.0
  0
LINE
  5
18CFC
330
18C7A
100
AcDbEntity
  8
細線
 48
50.0
100
AcDbLine
 10
2741.970584622936
 20
1375.094487209288
 30
0.0
 11
2106.970593930113
 21
1375.094487209284
 31
0.0
  0
LINE
  5
18CFD
330
18C7A
100
AcDbEntity
  8
細線
 48
50.0
100
AcDbLine
 10
2106.970593930113
 20
1371.990637616925
 30
0.0
 11
2106.970593930113
 21
1376.490637616925
 31
0.0
  0
LINE
  5
18CFE
330
18C7A
100
AcDbEntity
  8
細線
 48
50.0
100
AcDbLine
 10
2106.970593930113
 20
1376.490637616925
 30
0.0
 11
2091.970593930113
 21
1376.490637616925
 31
0.0
  0
LINE
  5
18CFF
330
18C7A
100
AcDbEntity
  8
細線
 48
50.0
100
AcDbLine
 10
2091.970593930113
 20
1376.490637616925
 30
0.0
 11
2091.970593930113
 21
1383.490637616927
 31
0.0
  0
LINE
  5
18D00
330
18C7A
100
AcDbEntity
  8
細線
 48
50.0
100
AcDbLine
 10
2091.970593930113
 20
1383.490637616927
 30
0.0
 11
2076.970593930115
 21
1383.490637616924
 31
0.0
  0
LINE
  5
18D01
330
18C7A
100
AcDbEntity
  8
細線
 48
50.0
100
AcDbLine
 10
2076.970593930115
 20
1383.490637616924
 30
0.0
 11
2076.970593930115
 21
1345.890409513813
 31
0.0
  0
LINE
  5
18D02
330
18C7A
100
AcDbEntity
  8
細線
 48
50.0
100
AcDbLine
 10
2076.970593930115
 20
1345.890409513813
 30
0.0
 11
2096.970601231289
 21
1345.890451063353
 31
0.0
  0
LINE
  5
18D03
330
18C7A
100
AcDbEntity
  8
細線
 48
50.0
100
AcDbLine
 10
2096.970556362348
 20
1354.493912699161
 30
0.0
 11
2096.970601231289
 21
1345.890451063353
 31
0.0
  0
LINE
  5
18D04
330
18C7A
100
AcDbEntity
  8
細線
 48
50.0
100
AcDbLine
 10
2741.970584622936
 20
1371.644487209287
 30
0.0
 11
2741.970584622936
 21
1376.494487209284
 31
0.0
  0
LINE
  5
18D05
330
18C7A
100
AcDbEntity
  8
細線
 48
50.0
100
AcDbLine
 10
2741.970584622936
 20
1376.494487209284
 30
0.0
 11
2756.970584622934
 21
1376.494487209285
 31
0.0
  0
LINE
  5
18D06
330
18C7A
100
AcDbEntity
  8
細線
 48
50.0
100
AcDbLine
 10
2756.970584622934
 20
1376.494487209285
 30
0.0
 11
2756.970596256909
 21
1383.494487209331
 31
0.0
  0
LINE
  5
18D07
330
18C7A
100
AcDbEntity
  8
細線
 48
50.0
100
AcDbLine
 10
2756.970596256909
 20
1383.494487209331
 30
0.0
 11
2771.970594427439
 21
1383.494487209329
 31
0.0
  0
LINE
  5
18D08
330
18C7A
100
AcDbEntity
  8
細線
 48
50.0
100
AcDbLine
 10
2771.970594427439
 20
1383.494487209329
 30
0.0
 11
2771.970584125617
 21
1354.494281037055
 31
0.0
  0
LINE
  5
18D09
330
18C7A
100
AcDbEntity
  8
細線
 48
50.0
100
AcDbLine
 10
2458.070304175992
 20
1354.494278397076
 30
0.0
 11
2389.470863838818
 21
1354.494283787084
 31
0.0
  0
LINE
  5
18D0A
330
18C7A
100
AcDbEntity
  8
細線
 48
50.0
100
AcDbLine
 10
2096.970556362348
 20
1354.493912699161
 30
0.0
 11
2108.203245717057
 21
1354.494095652309
 31
0.0
  0
ARC
  5
18D0B
330
18C7A
100
AcDbEntity
  8
細線
 48
50.0
100
AcDbCircle
 10
2114.785538024393
 20
1353.294259565922
 30
0.0
 40
1.8
100
AcDbArc
 50
270.0006665777295
 51
345.000555481349
  0
LINE
  5
18D0C
330
18C7A
100
AcDbEntity
  8
細線
 48
50.0
100
AcDbLine
 10
2116.771971470473
 20
1353.753100023201
 30
0.0
 11
2116.524209028273
 21
1352.828402141094
 31
0.0
  0
LINE
  5
18D0D
330
18C7A
100
AcDbEntity
  8
細線
 48
50.0
100
AcDbLine
 10
2114.785558965548
 20
1351.494259566043
 30
0.0
 11
2111.155631546781
 21
1351.494217335563
 31
0.0
  0
ARC
  5
18D0E
330
18C7A
100
AcDbEntity
  8
細線
 48
50.0
100
AcDbCircle
 10
2111.155610605627
 20
1353.29421733544
 30
0.0
 40
1.8
100
AcDbArc
 50
195.0010443049965
 51
270.0006665777295
  0
LINE
  5
18D0F
330
18C7A
100
AcDbEntity
  8
細線
 48
50.0
100
AcDbLine
 10
2109.169183113368
 20
1353.752932303007
 30
0.0
 11
2109.416952609882
 21
1352.828311364425
 31
0.0
  0
ARC
  5
18D10
330
18C7A
100
AcDbEntity
  8
細線
 48
50.0
100
AcDbCircle
 10
2108.203262004622
 20
1353.494095652444
 30
0.0
 40
1.0
100
AcDbArc
 50
15.00104430499651
 51
90.00093320877969
  0
LINE
  5
18D11
330
18C7A
100
AcDbEntity
  8
細線
 48
50.0
100
AcDbLine
 10
2117.737892825577
 20
1354.494290342714
 30
0.0
 11
2118.679652976481
 21
1354.494296916564
 31
0.0
  0
ARC
  5
18D12
330
18C7A
100
AcDbEntity
  8
細線
 48
50.0
100
AcDbCircle
 10
2117.737899805961
 20
1353.49429034274
 30
0.0
 40
1.0
100
AcDbArc
 50
90.0003999466794
 51
165.000555481349
  0
LINE
  5
18D13
330
18C7A
100
AcDbEntity
  8
細線
 48
50.0
100
AcDbLine
 10
2669.470584622926
 20
1354.494281037055
 30
0.0
 11
2771.970584125617
 21
1354.494281037055
 31
0.0
  0
LINE
  5
18D14
330
18C7A
100
AcDbEntity
  8
細線
 48
50.0
100
AcDbLine
 10
2179.47061994182
 20
1354.494289224422
 30
0.0
 11
2118.370558714898
 21
1354.494296916564
 31
0.0
  0
LINE
  5
18D15
330
18C7A
100
AcDbEntity
  8
細線
 48
50.0
100
AcDbLine
 10
2599.470584622926
 20
1354.494281037057
 30
0.0
 11
2529.470584622926
 21
1354.494281037055
 31
0.0
  0
LINE
  5
18D16
330
18C7A
100
AcDbEntity
  8
細線
 48
50.0
100
AcDbLine
 10
2319.470584622926
 20
1354.494281037054
 30
0.0
 11
2249.470567335051
 21
1354.494281037057
 31
0.0
  0
ARC
  5
18D17
330
18C7A
100
AcDbEntity
  8
細線
 48
50.0
100
AcDbCircle
 10
2756.170589276533
 20
1387.694269174466
 30
0.0
 40
0.8
100
AcDbArc
 50
359.9997333689499
 51
89.99986668437072
  0
ARC
  5
18D18
330
18C7A
100
AcDbEntity
  8
細線
 48
50.0
100
AcDbCircle
 10
2763.770596101631
 20
1387.694280343081
 30
0.0
 40
0.8
100
AcDbArc
 50
90.00014387753465
 51
179.9997333689498
  0
LINE
  5
18D19
330
18C7A
100
AcDbEntity
  8
細線
 48
50.0
100
AcDbLine
 10
2756.170591137969
 20
1388.494269174465
 30
0.0
 11
2750.970589276525
 21
1388.494269174465
 31
0.0
  0
ARC
  5
18D1A
330
18C7A
100
AcDbEntity
  8
細線
 48
50.0
100
AcDbCircle
 10
2757.670589276524
 20
1386.194269174464
 30
0.0
 40
0.7
100
AcDbArc
 50
180.0
 51
270.0
  0
ARC
  5
18D1B
330
18C7A
100
AcDbEntity
  8
細線
 48
50.0
100
AcDbCircle
 10
2762.270589276524
 20
1386.194269174464
 30
0.0
 40
0.7
100
AcDbArc
 50
270.0
 51
0.0
  0
LINE
  5
18D1C
330
18C7A
100
AcDbEntity
  8
細線
 48
50.0
100
AcDbLine
 10
2762.970589276525
 20
1386.194269174464
 30
0.0
 11
2762.970596101639
 21
1387.694284065954
 31
0.0
  0
LINE
  5
18D1D
330
18C7A
100
AcDbEntity
  8
細線
 48
50.0
100
AcDbLine
 10
2757.670589276524
 20
1385.494269174465
 30
0.0
 11
2762.270589276524
 21
1385.494269174465
 31
0.0
  0
LINE
  5
18D1E
330
18C7A
100
AcDbEntity
  8
細線
 48
50.0
100
AcDbLine
 10
2756.970589276525
 20
1387.694269174466
 30
0.0
 11
2756.970589276525
 21
1386.194269174464
 31
0.0
  0
LINE
  5
18D1F
330
18C7A
100
AcDbEntity
  8
細線
 48
50.0
100
AcDbLine
 10
3382.570589276527
 20
1418.494269174465
 30
0.0
 11
2745.970589276525
 21
1418.494269174463
 31
0.0
  0
LINE
  5
18D20
330
18C7A
100
AcDbEntity
  8
細線
 48
50.0
100
AcDbLine
 10
3408.470589276525
 20
1413.494269174467
 30
0.0
 11
3392.570589276527
 21
1413.494269174465
 31
0.0
  0
LINE
  5
18D21
330
18C7A
100
AcDbEntity
  8
細線
 48
50.0
100
AcDbLine
 10
3392.570589276526
 20
1413.494269174465
 30
0.0
 11
3382.570589276527
 21
1418.494269174465
 31
0.0
  0
LINE
  5
18D22
330
18C7A
100
AcDbEntity
  8
細線
100
AcDbLine
 10
2993.470589276525
 20
1388.494269174465
 30
0.0
 11
2993.470589276525
 21
1417.794269174464
 31
0.0
  0
LINE
  5
18D23
330
18C7A
100
AcDbEntity
  8
細線
100
AcDbLine
 10
2993.470589276525
 20
1417.794269174464
 30
0.0
 11
3013.470589276525
 21
1417.794269174464
 31
0.0
  0
LINE
  5
18D24
330
18C7A
100
AcDbEntity
  8
細線
100
AcDbLine
 10
3013.470589276525
 20
1388.494269174465
 30
0.0
 11
3013.470589276525
 21
1417.794269174464
 31
0.0
  0
LINE
  5
18D25
330
18C7A
100
AcDbEntity
  8
細線
100
AcDbLine
 10
3170.720589276524
 20
1388.494269174465
 30
0.0
 11
3100.720589276523
 21
1388.494269174465
 31
0.0
  0
LINE
  5
18D26
330
18C7A
100
AcDbEntity
  8
細線
 48
50.0
100
AcDbLine
 10
2890.720589276525
 20
1388.494269174465
 30
0.0
 11
2763.766368849365
 21
1388.494269174465
 31
0.0
  0
LINE
  5
18D27
330
18C7A
100
AcDbEntity
  8
細線
100
AcDbLine
 10
3030.720589276525
 20
1388.494269174465
 30
0.0
 11
2960.720589276525
 21
1388.494269174465
 31
0.0
  0
LINE
  5
18D28
330
18C7A
100
AcDbEntity
  8
細線
 48
50.0
100
AcDbLine
 10
2750.970589276525
 20
1380.494269174465
 30
0.0
 11
2750.970589276525
 21
1388.494269174465
 31
0.0
  0
LINE
  5
18D29
330
18C7A
100
AcDbEntity
  8
細線
 48
50.0
100
AcDbLine
 10
2730.970589276524
 20
1380.494269174467
 30
0.0
 11
2750.970589276525
 21
1380.494269174465
 31
0.0
  0
LINE
  5
18D2A
330
18C7A
100
AcDbEntity
  8
細線
 48
50.0
100
AcDbLine
 10
2745.970589276525
 20
1418.494269174465
 30
0.0
 11
2745.970589276525
 21
1413.494269174465
 31
0.0
  0
LINE
  5
18D2B
330
18C7A
100
AcDbEntity
  8
細線
 48
50.0
100
AcDbLine
 10
2730.970589276525
 20
1418.494269174463
 30
0.0
 11
2745.970589276525
 21
1418.494269174465
 31
0.0
  0
LINE
  5
18D2C
330
18C7A
100
AcDbEntity
  8
細線
 48
50.0
100
AcDbLine
 10
2730.970589276524
 20
1380.494269174467
 30
0.0
 11
2730.970589276525
 21
1418.494269174463
 31
0.0
  0
LINE
  5
18D2D
330
18C7A
100
AcDbEntity
  8
細線
100
AcDbLine
 10
3398.970589276523
 20
1388.494269174465
 30
0.0
 11
3240.720589276525
 21
1388.494269174465
 31
0.0
  0
LINE
  5
18D2E
330
18C7A
100
AcDbEntity
  8
細線
 48
50.0
100
AcDbLine
 10
3408.470589276525
 20
1413.494269174467
 30
0.0
 11
3408.470589276524
 21
1388.494269174465
 31
0.0
  0
TEXT
  5
18D2F
330
18C7A
100
AcDbEntity
  8
部品1
100
AcDbText
 10
1860.154865991392
 20
46.99880823813145
 30
0.0
 40
135.0
  1
平面図
  7
STYLE2
100
AcDbText
  0
LWPOLYLINE
  5
18D30
330
18C7A
100
AcDbEntity
  8
部品1
100
AcDbPolyline
 90
        4
 70
     1
 43
0.0
 10
1770.23525616235
 20
239.8923374566548
 10
1770.23525616235
 20
0.0000159111223184
 10
2533.705922390791
 20
0.0000159111223184
 10
2533.705922390791
 20
239.8923374566548
  0
LINE
  5
18D31
330
18C7A
100
AcDbEntity
  8
部品1
100
AcDbLine
 10
1534.470589276487
 20
3154.494269174626
 30
0.0
 11
2769.470589276552
 21
3154.494269174626
 31
0.0
  0
LINE
  5
18D32
330
18C7A
100
AcDbEntity
  8
部品1
 48
50.0
100
AcDbLine
 10
1311.970589276523
 20
1420.494269174462
 30
0.0
 11
3411.970589276523
 21
1420.494269174465
 31
0.0
  0
LINE
  5
18D33
330
18C7A
100
AcDbEntity
  8
部品1
 48
50.0
100
AcDbLine
 10
471.9705892765232
 20
1392.494269174465
 30
0.0
 11
1311.970589276523
 21
1392.494269174465
 31
0.0
  0
DIMENSION
  5
18D34
330
18C7A
100
AcDbEntity
  8
寸法
100
AcDbDimension
  2
*D14
 10
2710.234916278077
 20
2488.887829538828
 30
0.0
 11
2338.318822490183
 21
2488.887829538828
 31
0.0
 12
-3742.925985830444
 22
-6453.628869860112
 32
0.0
 70
   128
 71
     5
 42
1231.00000000007
  3
INABA_S40G
100
AcDbAlignedDimension
 13
1536.470589276486
 23
2702.494269174557
 33
0.0
 14
2767.470589276556
 24
2702.494269174549
 34
0.0
100
AcDbRotatedDimension
1001
ACAD
1000
DSTYLE
1002
{
1002
}
  0
LINE
  5
18D35
330
18C7A
100
AcDbEntity
  8
部品1
100
AcDbLine
 10
1536.470589276487
 20
2702.494269174557
 30
0.0
 11
2767.470589276554
 21
2702.494269174615
 31
0.0
  0
LINE
  5
18D36
330
18C7A
100
AcDbEntity
  8
部品1
100
AcDbLine
 10
1536.470589276487
 20
3152.494269174557
 30
0.0
 11
2767.470589276556
 21
3152.494269174615
 31
0.0
  0
LINE
  5
18D37
330
18C7A
100
AcDbEntity
  8
細線
 48
50.0
100
AcDbLine
 10
1508.470589276487
 20
3152.494269174558
 30
0.0
 11
445.4705892765559
 21
2702.494269174509
 31
0.0
  0
LINE
  5
18D38
330
18C7A
100
AcDbEntity
  8
細線
 48
50.0
100
AcDbLine
 10
1508.470589276487
 20
2702.494269174558
 30
0.0
 11
445.4705892765542
 21
3152.494269174509
 31
0.0
  0
LINE
  5
18D39
330
18C7A
100
AcDbEntity
  8
部品1
100
AcDbLine
 10
1556.970589276487
 20
3172.494269174611
 30
0.0
 11
1556.970589276487
 21
3154.494269174611
 31
0.0
  0
LINE
  5
18D3A
330
18C7A
100
AcDbEntity
  8
部品1
100
AcDbLine
 10
1556.970589276487
 20
3172.494269174611
 30
0.0
 11
1550.970589276487
 21
3172.494269174611
 31
0.0
  0
LINE
  5
18D3B
330
18C7A
100
AcDbEntity
  8
部品1
100
AcDbLine
 10
1534.470589276487
 20
3146.494269174608
 30
0.0
 11
1509.470589276487
 21
3146.494269174611
 31
0.0
  0
LINE
  5
18D3C
330
18C7A
100
AcDbEntity
  8
部品1
100
AcDbLine
 10
1486.970589276487
 20
3172.494269174611
 30
0.0
 11
1486.970589276487
 21
3154.494269174611
 31
0.0
  0
LINE
  5
18D3D
330
18C7A
100
AcDbEntity
  8
部品1
100
AcDbLine
 10
1492.970589276487
 20
3172.494269174611
 30
0.0
 11
1486.970589276487
 21
3172.494269174611
 31
0.0
  0
LINE
  5
18D3E
330
18C7A
100
AcDbEntity
  8
部品1
100
AcDbLine
 10
1534.470589276487
 20
2702.494269174615
 30
0.0
 11
1509.470589276487
 21
2702.494269174615
 31
0.0
  0
LINE
  5
18D3F
330
18C7A
100
AcDbEntity
  8
部品1
 48
50.0
100
AcDbLine
 10
1536.470589276487
 20
3152.494269174611
 30
0.0
 11
1536.470589276487
 21
2702.494269174615
 31
0.0
  0
LINE
  5
18D40
330
18C7A
100
AcDbEntity
  8
部品1
 48
50.0
100
AcDbLine
 10
1508.470589276487
 20
3152.494269174607
 30
0.0
 11
1508.470589276487
 21
2702.494269174615
 31
0.0
  0
LINE
  5
18D41
330
18C7A
100
AcDbEntity
  8
部品1
 48
50.0
100
AcDbLine
 10
1534.470589276487
 20
3154.494269174618
 30
0.0
 11
1534.470589276487
 21
2702.494269174615
 31
0.0
  0
LINE
  5
18D42
330
18C7A
100
AcDbEntity
  8
部品1
 48
50.0
100
AcDbLine
 10
1509.470589276487
 20
3154.494269174615
 30
0.0
 11
1509.470589276487
 21
2702.494269174615
 31
0.0
  0
LINE
  5
18D43
330
18C7A
100
AcDbEntity
  8
部品1
100
AcDbLine
 10
3411.970589276556
 20
1392.494269174582
 30
0.0
 11
3411.970589276556
 21
1420.494269174596
 31
0.0
  0
LINE
  5
18D44
330
18C7A
100
AcDbEntity
  8
部品1
100
AcDbLine
 10
1311.970589276523
 20
1392.494269174596
 30
0.0
 11
1311.970589276523
 21
1420.494269174596
 31
0.0
  0
LINE
  5
18D45
330
18C7A
100
AcDbEntity
  8
部品1
100
AcDbLine
 10
891.9705892765232
 20
1392.494269174596
 30
0.0
 11
891.9705892765232
 21
1420.494269174596
 31
0.0
  0
LINE
  5
18D46
330
18C7A
100
AcDbEntity
  8
部品1
100
AcDbLine
 10
3411.97058927652
 20
3182.494269174477
 30
0.0
 11
3411.970589276523
 21
3154.494269174477
 31
0.0
  0
LINE
  5
18D47
330
18C7A
100
AcDbEntity
  8
部品1
100
AcDbLine
 10
2571.97058927652
 20
3182.494269174477
 30
0.0
 11
2571.970589276523
 21
3154.494269174477
 31
0.0
  0
LINE
  5
18D48
330
18C7A
100
AcDbEntity
  8
部品1
100
AcDbLine
 10
2991.97058927652
 20
3182.494269174477
 30
0.0
 11
2991.970589276523
 21
3154.494269174477
 31
0.0
  0
LINE
  5
18D49
330
18C7A
100
AcDbEntity
  8
部品1
100
AcDbLine
 10
2151.970589276519
 20
3182.494269174477
 30
0.0
 11
2151.970589276523
 21
3154.494269174477
 31
0.0
  0
LINE
  5
18D4A
330
18C7A
100
AcDbEntity
  8
部品1
100
AcDbLine
 10
1731.970589276519
 20
3182.494269174477
 30
0.0
 11
1731.970589276523
 21
3154.494269174477
 31
0.0
  0
LINE
  5
18D4B
330
18C7A
100
AcDbEntity
  8
部品1
100
AcDbLine
 10
1311.970589276519
 20
3182.494269174477
 30
0.0
 11
1311.970589276523
 21
3154.494269174477
 31
0.0
  0
LINE
  5
18D4C
330
18C7A
100
AcDbEntity
  8
部品1
100
AcDbLine
 10
891.9705892765195
 20
3182.494269174477
 30
0.0
 11
891.9705892765232
 21
3154.494269174477
 31
0.0
  0
LINE
  5
18D4D
330
18C7A
100
AcDbEntity
  8
部品1
100
AcDbLine
 10
471.9705892765232
 20
1392.494269174596
 30
0.0
 11
471.9705892765232
 21
1420.494269174596
 31
0.0
  0
LINE
  5
18D4E
330
18C7A
100
AcDbEntity
  8
部品1
100
AcDbLine
 10
444.9705892765305
 20
1420.494269174558
 30
0.0
 11
3858.970589276556
 21
1420.494269174596
 31
0.0
  0
LINE
  5
18D4F
330
18C7A
100
AcDbEntity
  8
部品1
100
AcDbLine
 10
3831.970589276556
 20
1392.494269174596
 30
0.0
 11
3831.970589276556
 21
1420.494269174596
 31
0.0
  0
LINE
  5
18D50
330
18C7A
100
AcDbEntity
  8
部品1
100
AcDbLine
 10
3858.970589276556
 20
1447.494269174593
 30
0.0
 11
3886.970589276556
 21
1447.494269174593
 31
0.0
  0
LINE
  5
18D51
330
18C7A
100
AcDbEntity
  8
部品1
100
AcDbLine
 10
3858.970589276556
 20
1867.494269174607
 30
0.0
 11
3886.970589276556
 21
1867.494269174607
 31
0.0
  0
LINE
  5
18D52
330
18C7A
100
AcDbEntity
  8
部品1
100
AcDbLine
 10
444.9705892765305
 20
1867.49426917448
 30
0.0
 11
416.9705892765305
 21
1867.49426917448
 31
0.0
  0
LINE
  5
18D53
330
18C7A
100
AcDbEntity
  8
部品1
100
AcDbLine
 10
3830.470589276541
 20
1867.49426917458
 30
0.0
 11
473.4705892765396
 21
1867.49426917448
 31
0.0
  0
LINE
  5
18D54
330
18C7A
100
AcDbEntity
  8
部品1
100
AcDbLine
 10
3830.470589276541
 20
2287.49426917458
 30
0.0
 11
473.4705892765396
 21
2287.49426917448
 31
0.0
  0
LINE
  5
18D55
330
18C7A
100
AcDbEntity
  8
部品1
100
AcDbLine
 10
444.9705892765305
 20
2287.49426917448
 30
0.0
 11
416.9705892765305
 21
2287.49426917448
 31
0.0
  0
LINE
  5
18D56
330
18C7A
100
AcDbEntity
  8
部品1
100
AcDbLine
 10
3858.970589276556
 20
2287.494269174608
 30
0.0
 11
3886.970589276556
 21
2287.494269174608
 31
0.0
  0
LINE
  5
18D57
330
18C7A
100
AcDbEntity
  8
部品1
 48
50.0
100
AcDbLine
 10
2151.970589276551
 20
2702.494269174586
 30
0.0
 11
2151.970589276581
 21
1448.994269174494
 31
0.0
  0
LINE
  5
18D58
330
18C7A
100
AcDbEntity
  8
破線
 48
10.0
100
AcDbLine
 10
2959.470589276535
 20
1472.494269174522
 30
0.0
 11
2176.970589276532
 21
1472.494269174505
 31
0.0
  0
LINE
  5
18D59
330
18C7A
100
AcDbEntity
  8
破線
 48
10.0
100
AcDbLine
 10
3009.47058927653
 20
1448.994269174509
 30
0.0
 11
3009.47058927653
 21
2702.494269174615
 31
0.0
  0
LINE
  5
18D5A
330
18C7A
100
AcDbEntity
  8
破線
 48
10.0
100
AcDbLine
 10
2959.470589276535
 20
1448.994269174505
 30
0.0
 11
2959.470589276531
 21
2702.494269174615
 31
0.0
  0
LINE
  5
18D5B
330
18C7A
100
AcDbEntity
  8
破線
 48
10.0
100
AcDbLine
 10
1344.47058927653
 20
1448.994269174509
 30
0.0
 11
1344.47058927653
 21
2702.494269174615
 31
0.0
  0
LINE
  5
18D5C
330
18C7A
100
AcDbEntity
  8
破線
 48
10.0
100
AcDbLine
 10
1294.470589276534
 20
1448.994269174505
 30
0.0
 11
1294.47058927653
 21
2702.494269174615
 31
0.0
  0
DIMENSION
  5
18D5D
330
18C7A
100
AcDbEntity
  8
寸法
100
AcDbDimension
  2
*D13
 10
1451.234916278005
 20
2488.887829538828
 30
0.0
 11
916.0604668248634
 21
2488.887829538828
 31
0.0
 12
-3742.925985830444
 22
-6453.628869860112
 32
0.0
 70
   128
 71
     5
 42
1062.99999999993
  3
INABA_S40G
100
AcDbAlignedDimension
 13
445.4705892765559
 23
2702.494269174505
 33
0.0
 14
1508.470589276486
 24
2702.494269174558
 34
0.0
100
AcDbRotatedDimension
1001
ACAD
1000
DSTYLE
1002
{
1002
}
  0
LINE
  5
18D5E
330
18C7A
100
AcDbEntity
  8
破線
 48
10.0
100
AcDbLine
 10
1294.470589276534
 20
1472.494269174469
 30
0.0
 11
496.9705892765414
 21
1472.494269174476
 31
0.0
  0
LINE
  5
18D5F
330
18C7A
100
AcDbEntity
  8
部品1
100
AcDbLine
 10
3831.970589276556
 20
3182.494269174604
 30
0.0
 11
3831.970589276556
 21
3154.494269174604
 31
0.0
  0
LINE
  5
18D60
330
18C7A
100
AcDbEntity
  8
部品1
100
AcDbLine
 10
3831.970589276556
 20
3182.494269174626
 30
0.0
 11
3831.970589276556
 21
3154.494269174626
 31
0.0
  0
LINE
  5
18D61
330
18C7A
100
AcDbEntity
  8
部品1
100
AcDbLine
 10
3858.970589276556
 20
3127.494269174607
 30
0.0
 11
3886.970589276556
 21
3127.494269174607
 31
0.0
  0
LINE
  5
18D62
330
18C7A
100
AcDbEntity
  8
部品1
100
AcDbLine
 10
3858.970589276556
 20
2707.494269174608
 30
0.0
 11
3886.970589276556
 21
2707.494269174608
 31
0.0
  0
LINE
  5
18D63
330
18C7A
100
AcDbEntity
  8
部品1
100
AcDbLine
 10
3858.470589276556
 20
3152.494269174604
 30
0.0
 11
3858.470589276556
 21
2702.494269174608
 31
0.0
  0
LINE
  5
18D64
330
18C7A
100
AcDbEntity
  8
部品1
100
AcDbLine
 10
3886.970589276533
 20
1447.494269174593
 30
0.0
 11
3886.970589276531
 21
1392.494269174596
 31
0.0
  0
LINE
  5
18D65
330
18C7A
100
AcDbEntity
  8
部品1
 48
50.0
100
AcDbLine
 10
3830.470589276556
 20
1448.994269174596
 30
0.0
 11
3858.970589276554
 21
1420.494269174596
 31
0.0
  0
LINE
  5
18D66
330
18C7A
100
AcDbEntity
  8
部品1
100
AcDbLine
 10
3886.970589276531
 20
1392.494269174596
 30
0.0
 11
3835.970589276531
 21
1392.494269174596
 31
0.0
  0
LINE
  5
18D67
330
18C7A
100
AcDbEntity
  8
部品1
100
AcDbLine
 10
3858.970589276533
 20
1447.494269174593
 30
0.0
 11
3886.970589276531
 21
1447.494269174593
 31
0.0
  0
LINE
  5
18D68
330
18C7A
100
AcDbEntity
  8
部品1
100
AcDbLine
 10
3886.970589276556
 20
3182.494269174604
 30
0.0
 11
3886.970589276531
 21
1392.494269174596
 31
0.0
  0
DIMENSION
  5
18D69
330
18C7A
100
AcDbEntity
  8
寸法
100
AcDbDimension
  2
*D12
 10
4534.396935010967
 20
1447.494269174593
 30
0.0
 11
4534.396935010965
 21
2287.4942691746
 31
0.0
 12
-3742.925985830444
 22
-6453.628869860112
 32
0.0
 70
   128
  1
4X420=<>
 71
     5
 42
1680.000000000014
  3
INABA_S40G
100
AcDbAlignedDimension
 13
3886.970589276556
 23
3127.494269174607
 33
0.0
 14
3886.970589276531
 24
1447.494269174593
 34
0.0
 50
90.0
100
AcDbRotatedDimension
1001
ACAD
1000
DSTYLE
1002
{
1002
}
  0
LINE
  5
18D6A
330
18C7A
100
AcDbEntity
  8
部品1
100
AcDbLine
 10
3858.970589276556
 20
3154.494269174604
 30
0.0
 11
3858.970589276534
 21
1420.494269174596
 31
0.0
  0
DIMENSION
  5
18D6B
330
18C7A
100
AcDbEntity
  8
寸法
100
AcDbDimension
  2
*D11
 10
4213.82831513858
 20
2607.276453505718
 30
0.0
 11
4113.828315138579
 21
2832.276453505718
 31
0.0
 12
-3742.925985830444
 22
-6453.628869860112
 32
0.0
 71
     5
 42
449.9999999999963
  3
INABA_S40G
100
AcDbAlignedDimension
 13
3858.470589276556
 23
3152.494269174604
 33
0.0
 14
3858.470589276556
 24
2702.494269174608
 34
0.0
 50
90.0
100
AcDbRotatedDimension
1001
ACAD
1000
DSTYLE
1002
{
1002
}
  0
LINE
  5
18D6C
330
18C7A
100
AcDbEntity
  8
部品1
100
AcDbLine
 10
3830.470589276547
 20
2702.494269174608
 30
0.0
 11
3830.470589276556
 21
1448.994269174596
 31
0.0
  0
LINE
  5
18D6D
330
18C7A
100
AcDbEntity
  8
破線
 48
10.0
100
AcDbLine
 10
3806.970589276549
 20
2702.494269174608
 30
0.0
 11
3806.970589276558
 21
1472.494269174593
 31
0.0
  0
LINE
  5
18D6E
330
18C7A
100
AcDbEntity
  8
部品1
100
AcDbLine
 10
2769.470589276556
 20
3146.494269174608
 30
0.0
 11
2794.470589276556
 21
3146.494269174611
 31
0.0
  0
LINE
  5
18D6F
330
18C7A
100
AcDbEntity
  8
部品1
100
AcDbLine
 10
2810.970589276556
 20
3172.494269174611
 30
0.0
 11
2816.970589276556
 21
3172.494269174611
 31
0.0
  0
LINE
  5
18D70
330
18C7A
100
AcDbEntity
  8
部品1
100
AcDbLine
 10
2816.970589276556
 20
3172.494269174611
 30
0.0
 11
2816.970589276556
 21
3154.494269174611
 31
0.0
  0
LINE
  5
18D71
330
18C7A
100
AcDbEntity
  8
部品1
100
AcDbLine
 10
2746.970589276556
 20
3172.494269174611
 30
0.0
 11
2752.970589276556
 21
3172.494269174611
 31
0.0
  0
LINE
  5
18D72
330
18C7A
100
AcDbEntity
  8
部品1
100
AcDbLine
 10
2746.970589276556
 20
3172.494269174611
 30
0.0
 11
2746.970589276556
 21
3154.494269174611
 31
0.0
  0
LINE
  5
18D73
330
18C7A
100
AcDbEntity
  8
部品1
100
AcDbLine
 10
2769.470589276556
 20
2702.494269174615
 30
0.0
 11
2794.470589276556
 21
2702.494269174615
 31
0.0
  0
LINE
  5
18D74
330
18C7A
100
AcDbEntity
  8
部品1
 48
50.0
100
AcDbLine
 10
2794.470589276556
 20
3154.494269174615
 30
0.0
 11
2794.470589276556
 21
2702.494269174615
 31
0.0
  0
LINE
  5
18D75
330
18C7A
100
AcDbEntity
  8
部品1
 48
50.0
100
AcDbLine
 10
2769.470589276554
 20
3154.494269174618
 30
0.0
 11
2769.470589276556
 21
2702.494269174615
 31
0.0
  0
LINE
  5
18D76
330
18C7A
100
AcDbEntity
  8
部品1
 48
50.0
100
AcDbLine
 10
2795.470589276556
 20
3152.494269174607
 30
0.0
 11
2795.470589276556
 21
2702.494269174615
 31
0.0
  0
LINE
  5
18D77
330
18C7A
100
AcDbEntity
  8
部品1
 48
50.0
100
AcDbLine
 10
2767.470589276556
 20
3152.494269174611
 30
0.0
 11
2767.470589276556
 21
2702.494269174615
 31
0.0
  0
LINE
  5
18D78
330
18C7A
100
AcDbEntity
  8
破線
 48
10.0
100
AcDbLine
 10
2176.97058927653
 20
1448.994269174509
 30
0.0
 11
2176.97058927653
 21
2702.494269174588
 31
0.0
  0
LINE
  5
18D79
330
18C7A
100
AcDbEntity
  8
破線
 48
10.0
100
AcDbLine
 10
2126.970589276534
 20
1448.994269174505
 30
0.0
 11
2126.970589276531
 21
2702.494269174586
 31
0.0
  0
LINE
  5
18D7A
330
18C7A
100
AcDbEntity
  8
部品1
100
AcDbLine
 10
2794.470589276556
 20
3154.494269174622
 30
0.0
 11
3858.970589276556
 21
3154.494269174604
 31
0.0
  0
LINE
  5
18D7B
330
18C7A
100
AcDbEntity
  8
細線
 48
50.0
100
AcDbLine
 10
3858.470589276556
 20
2702.494269174608
 30
0.0
 11
2795.470589276556
 21
3152.494269174607
 31
0.0
  0
LINE
  5
18D7C
330
18C7A
100
AcDbEntity
  8
部品1
100
AcDbLine
 10
2795.470589276555
 20
2702.494269174615
 30
0.0
 11
3858.470589276556
 21
2702.494269174608
 31
0.0
  0
LINE
  5
18D7D
330
18C7A
100
AcDbEntity
  8
部品1
100
AcDbLine
 10
2795.470589276556
 20
3152.494269174611
 30
0.0
 11
3858.470589276556
 21
3152.494269174604
 31
0.0
  0
LINE
  5
18D7E
330
18C7A
100
AcDbEntity
  8
細線
 48
50.0
100
AcDbLine
 10
3858.470589276556
 20
3152.494269174604
 30
0.0
 11
2795.470589276555
 21
2702.494269174615
 31
0.0
  0
DIMENSION
  5
18D7F
330
18C7A
100
AcDbEntity
  8
寸法
100
AcDbDimension
  2
*D10
 10
3801.234916278101
 20
2488.887829538937
 30
0.0
 11
3318.360544398907
 21
2488.887829538937
 31
0.0
 12
-3742.925985830444
 22
-6453.628869860112
 32
0.0
 70
   128
 71
     5
 42
1063.000000000012
  3
INABA_S40G
100
AcDbAlignedDimension
 13
2795.470589276555
 23
2702.494269174615
 33
0.0
 14
3858.470589276567
 24
2702.494269174608
 34
0.0
100
AcDbRotatedDimension
1001
ACAD
1000
DSTYLE
1002
{
1002
}
  0
LINE
  5
18D80
330
18C7A
100
AcDbEntity
  8
破線
 48
10.0
100
AcDbLine
 10
3806.970589276556
 20
1472.494269174594
 30
0.0
 11
3009.47058927653
 21
1472.494269174523
 31
0.0
  0
DIMENSION
  5
18D81
330
18C7A
100
AcDbEntity
  8
寸法
100
AcDbDimension
  2
*D9
 10
4534.396935010941
 20
1392.494269174596
 30
0.0
 11
4534.39693501094
 21
1084.008987800356
 31
0.0
 12
-3742.925985830444
 22
-6453.628869860112
 32
0.0
 70
   128
 71
     5
 42
54.99999999999636
  3
INABA_S40G
100
AcDbAlignedDimension
 13
3886.970589276531
 23
1447.494269174593
 33
0.0
 14
3886.970589276531
 24
1392.494269174596
 34
0.0
 50
90.0
100
AcDbRotatedDimension
1001
ACAD
1000
DSTYLE
1002
{
1002
}
  0
LINE
  5
18D82
330
18C7A
100
AcDbEntity
  8
部品1
100
AcDbLine
 10
471.9705892765196
 20
3182.494269174477
 30
0.0
 11
471.9705892765232
 21
3154.494269174477
 31
0.0
  0
LINE
  5
18D83
330
18C7A
100
AcDbEntity
  8
部品1
100
AcDbLine
 10
471.9705892765559
 20
3182.494269174509
 30
0.0
 11
471.9705892765559
 21
3154.494269174509
 31
0.0
  0
LINE
  5
18D84
330
18C7A
100
AcDbEntity
  8
部品1
100
AcDbLine
 10
444.9705892765232
 20
3127.49426917448
 30
0.0
 11
416.9705892765232
 21
3127.49426917448
 31
0.0
  0
LINE
  5
18D85
330
18C7A
100
AcDbEntity
  8
部品1
100
AcDbLine
 10
444.9705892765305
 20
2707.49426917448
 30
0.0
 11
416.9705892765305
 21
2707.49426917448
 31
0.0
  0
LINE
  5
18D86
330
18C7A
100
AcDbEntity
  8
部品1
 48
50.0
100
AcDbLine
 10
445.4705892765542
 20
3152.494269174506
 30
0.0
 11
445.4705892765559
 21
2702.494269174505
 31
0.0
  0
LINE
  5
18D87
330
18C7A
100
AcDbEntity
  8
部品1
 48
50.0
100
AcDbLine
 10
473.470589276545
 20
1448.994269174573
 30
0.0
 11
444.970589276545
 21
1420.494269174574
 31
0.0
  0
LINE
  5
18D88
330
18C7A
100
AcDbEntity
  8
部品1
100
AcDbLine
 10
471.9705892765232
 20
1392.494269174465
 30
0.0
 11
416.9705892765486
 21
1392.494269174465
 31
0.0
  0
LINE
  5
18D89
330
18C7A
100
AcDbEntity
  8
部品1
100
AcDbLine
 10
444.9705892765305
 20
1447.494269174429
 30
0.0
 11
416.9705892765469
 21
1447.494269174429
 31
0.0
  0
LINE
  5
18D8A
330
18C7A
100
AcDbEntity
  8
部品1
100
AcDbLine
 10
444.9705892765305
 20
1447.494269174465
 30
0.0
 11
416.9705892765469
 21
1447.494269174465
 31
0.0
  0
LINE
  5
18D8B
330
18C7A
100
AcDbEntity
  8
部品1
100
AcDbLine
 10
444.9705892765469
 20
1447.49426917448
 30
0.0
 11
416.9705892765469
 21
1447.49426917448
 31
0.0
  0
LINE
  5
18D8C
330
18C7A
100
AcDbEntity
  8
部品1
100
AcDbLine
 10
416.9705892765469
 20
1447.494269174429
 30
0.0
 11
416.9705892765486
 21
1392.494269174433
 31
0.0
  0
LINE
  5
18D8D
330
18C7A
100
AcDbEntity
  8
部品1
100
AcDbLine
 10
416.9705892765196
 20
3182.494269174477
 30
0.0
 11
416.9705892765486
 21
1392.494269174465
 31
0.0
  0
LINE
  5
18D8E
330
18C7A
100
AcDbEntity
  8
部品1
100
AcDbLine
 10
444.9705892765305
 20
1420.494269174556
 30
0.0
 11
444.9705892765559
 21
3154.494269174509
 31
0.0
  0
LINE
  5
18D8F
330
18C7A
100
AcDbEntity
  8
部品1
100
AcDbLine
 10
473.4705892765323
 20
2702.494269174608
 30
0.0
 11
473.470589276545
 21
1448.994269174571
 31
0.0
  0
LINE
  5
18D90
330
18C7A
100
AcDbEntity
  8
破線
 48
10.0
100
AcDbLine
 10
496.9705892765305
 20
2702.494269174608
 30
0.0
 11
496.9705892765451
 21
1472.494269174476
 31
0.0
  0
DIMENSION
  5
18D91
330
18C7A
100
AcDbEntity
  8
寸法
100
AcDbDimension
  2
*D8
 10
3886.970589276531
 20
410.7433333855515
 30
0.0
 11
2168.197775309287
 21
410.7433333855515
 31
0.0
 12
-3742.925985830444
 22
-6453.628869860112
 32
0.0
 70
   128
 71
     5
 42
3469.999999999982
  3
INABA_S40G
100
AcDbAlignedDimension
 13
416.9705892765486
 23
1392.494269174433
 33
0.0
 14
3886.970589276531
 24
1392.49426917456
 34
0.0
100
AcDbRotatedDimension
1001
ACAD
1000
DSTYLE
1002
{
1070
   341
1005
0
1002
}
  0
LINE
  5
18D92
330
18C7A
100
AcDbEntity
  8
部品1
100
AcDbLine
 10
444.9705892765559
 20
3154.494269174624
 30
0.0
 11
1509.470589276487
 21
3154.494269174626
 31
0.0
  0
LINE
  5
18D93
330
18C7A
100
AcDbEntity
  8
部品1
100
AcDbLine
 10
3886.970589276531
 20
1392.494269174596
 30
0.0
 11
3411.970589276556
 21
1392.494269174582
 31
0.0
  0
LINE
  5
18D94
330
18C7A
100
AcDbEntity
  8
部品1
100
AcDbLine
 10
416.9705892765559
 20
3182.494269174509
 30
0.0
 11
3886.970589276556
 21
3182.494269174604
 31
0.0
  0
LINE
  5
18D95
330
18C7A
100
AcDbEntity
  8
部品1
100
AcDbLine
 10
445.4705892765559
 20
2702.494269174509
 30
0.0
 11
1508.470589276487
 21
2702.494269174558
 31
0.0
  0
LINE
  5
18D96
330
18C7A
100
AcDbEntity
  8
細線
 48
50.0
100
AcDbLine
 10
2767.470589276556
 20
3152.494269174611
 30
0.0
 11
1536.470589276487
 21
2702.494269174558
 31
0.0
  0
LINE
  5
18D97
330
18C7A
100
AcDbEntity
  8
部品1
100
AcDbLine
 10
445.4705892765542
 20
3152.494269174509
 30
0.0
 11
1508.470589276485
 21
3152.494269174558
 31
0.0
  0
LINE
  5
18D98
330
18C7A
100
AcDbEntity
  8
細線
 48
50.0
100
AcDbLine
 10
2767.470589276554
 20
2702.494269174615
 30
0.0
 11
1536.470589276485
 21
3152.494269174558
 31
0.0
  0
LINE
  5
18D99
330
18C7A
100
AcDbEntity
  8
破線
 48
10.0
100
AcDbLine
 10
2126.970589276534
 20
1472.494269174502
 30
0.0
 11
1344.47058927653
 21
1472.494269174473
 31
0.0
  0
LINE
  5
18D9A
330
18C7A
100
AcDbEntity
  8
部品1
100
AcDbLine
 10
3830.470589276556
 20
1448.994269174596
 30
0.0
 11
473.4705892764487
 21
1448.994269174476
 31
0.0
  0
DIMENSION
  5
18D9B
330
18C7A
100
AcDbEntity
  8
寸法
100
AcDbDimension
  2
*D7
 10
471.970589276555
 20
3698.302488799491
 30
0.0
 11
108.4853079022819
 21
3698.302488799491
 31
0.0
 12
-3742.925985830444
 22
-6453.628869860112
 32
0.0
 70
   128
 71
     5
 42
55.00000000003456
  3
INABA_S40G
100
AcDbAlignedDimension
 13
416.9705892765205
 23
3182.494269174509
 33
0.0
 14
471.970589276555
 24
3182.494269174509
 34
0.0
100
AcDbRotatedDimension
1001
ACAD
1000
DSTYLE
1002
{
1002
}
  0
DIMENSION
  5
18D9C
330
18C7A
100
AcDbEntity
  8
寸法
100
AcDbDimension
  2
*D6
 10
4534.396935010967
 20
3127.494269174607
 30
0.0
 11
4534.396935010965
 21
3490.979550548844
 31
0.0
 12
-3742.925985830444
 22
-6453.628869860112
 32
0.0
 70
   128
 71
     5
 42
54.99999999999636
  3
INABA_S40G
100
AcDbAlignedDimension
 13
3886.970589276556
 23
3182.494269174604
 33
0.0
 14
3886.970589276556
 24
3127.494269174607
 34
0.0
 50
90.0
100
AcDbRotatedDimension
1001
ACAD
1000
DSTYLE
1002
{
1002
}
  0
DIMENSION
  5
18D9D
330
18C7A
100
AcDbEntity
  8
寸法
100
AcDbDimension
  2
*D5
 10
3886.970589276556
 20
3698.302488799589
 30
0.0
 11
4195.455870650794
 21
3698.302488799589
 31
0.0
 12
-3742.925985830444
 22
-6453.628869860112
 32
0.0
 70
   128
 71
     5
 42
55.0
  3
INABA_S40G
100
AcDbAlignedDimension
 13
3831.970589276556
 23
3182.494269174604
 33
0.0
 14
3886.970589276556
 24
3182.494269174604
 34
0.0
100
AcDbRotatedDimension
1001
ACAD
1000
DSTYLE
1002
{
1002
}
  0
DIMENSION
  5
18D9E
330
18C7A
100
AcDbEntity
  8
寸法
100
AcDbDimension
  2
*D4
 10
3831.970589276556
 20
3698.302488799607
 30
0.0
 11
2151.970589276555
 21
3698.302488799607
 31
0.0
 12
-3742.925985830444
 22
-6453.628869860112
 32
0.0
 70
   128
  1
8X420=<>
 71
     5
 42
3360.000000000001
  3
INABA_S40G
100
AcDbAlignedDimension
 13
471.970589276555
 23
3182.494269174509
 33
0.0
 14
3831.970589276556
 24
3182.494269174604
 34
0.0
100
AcDbRotatedDimension
1001
ACAD
1000
DSTYLE
1002
{
1002
}
  0
DIMENSION
  5
18D9F
330
18C7A
100
AcDbEntity
  8
寸法
100
AcDbDimension
  2
*D3
 10
4899.503876750603
 20
1392.494269174596
 30
0.0
 11
4899.503876750601
 21
2287.4942691746
 31
0.0
 12
-3742.925985830444
 22
-6453.628869860112
 32
0.0
 70
   128
 71
     5
 42
1790.000000000007
  3
INABA_S40G
100
AcDbAlignedDimension
 13
3886.970589276556
 23
3182.494269174604
 33
0.0
 14
3886.970589276531
 24
1392.494269174596
 34
0.0
 50
90.0
100
AcDbRotatedDimension
1001
ACAD
1000
DSTYLE
1002
{
1002
}
  0
ENDBLK
  5
18DA1
330
18C7A
100
AcDbEntity
  8
0
 48
50.0
100
AcDbBlockEnd
  0
BLOCK
  5
1C4CB
330
1C4CA
100
AcDbEntity
  8
0
 48
50.0
100
AcDbBlockBegin
  2
_NONE
 70
     0
 10
0.0
 20
0.0
 30
0.0
  3
_NONE
  1

  0
CIRCLE
  5
1C4CC
330
1C4CA
100
AcDbEntity
  8
0
  6
ByBlock
 62
     0
 48
50.0
100
AcDbCircle
 10
0.0
 20
0.0
 30
0.0
 40
0.25
  0
ENDBLK
  5
1C4CD
330
1C4CA
100
AcDbEntity
  8
0
 48
50.0
100
AcDbBlockEnd
  0
BLOCK
  5
20DEE
330
20DE2
100
AcDbEntity
  8
0
 48
50.0
100
AcDbBlockBegin
  2
*D19
 70
     1
 10
0.0
 20
0.0
 30
0.0
  3
*D19
  1

  0
LINE
  5
23F50
330
20DE2
100
AcDbEntity
  8
寸法
 62
     0
 48
50.0
370
    -2
100
AcDbLine
 10
10278.6
 20
7121.344574254327
 30
0.0
 11
10278.6
 21
8119.564896313248
 31
0.0
  0
LINE
  5
23F51
330
20DE2
100
AcDbEntity
  8
寸法
 62
     0
 48
50.0
370
    -2
100
AcDbLine
 10
10323.6
 20
7847.611032348239
 30
0.0
 11
10323.6
 21
8119.564896313248
 31
0.0
  0
LINE
  5
23F52
330
20DE2
100
AcDbEntity
  8
寸法
 62
     0
 48
50.0
370
    -2
100
AcDbLine
 10
10278.6
 20
8059.564896313249
 30
0.0
 11
10178.6
 21
8059.564896313249
 31
0.0
  0
LINE
  5
23F53
330
20DE2
100
AcDbEntity
  8
寸法
 62
     0
 48
50.0
370
    -2
100
AcDbLine
 10
10323.6
 20
8059.564896313249
 30
0.0
 11
10660.94924240492
 21
8059.564896313249
 31
0.0
  0
LINE
  5
23F54
330
20DE2
100
AcDbEntity
  8
寸法
 62
     0
 48
50.0
370
    -2
100
AcDbLine
 10
10278.6
 20
8059.564896313249
 30
0.0
 11
10323.6
 21
8059.564896313249
 31
0.0
  0
INSERT
  5
23F55
330
20DE2
100
AcDbEntity
  8
寸法
 62
     0
 48
50.0
370
    -2
100
AcDbBlockReference
  2
_DOTSMALL
 10
10278.6
 20
8059.564896313249
 30
0.0
 41
100.0
 42
100.0
 43
100.0
  0
INSERT
  5
23F56
330
20DE2
100
AcDbEntity
  8
寸法
 62
     0
 48
50.0
370
    -2
100
AcDbBlockReference
  2
_DOTSMALL
 10
10323.6
 20
8059.564896313249
 30
0.0
 41
100.0
 42
100.0
 43
100.0
 50
180.0
  0
MTEXT
  5
23F57
330
20DE2
100
AcDbEntity
  8
寸法
 62
     7
 48
50.0
100
AcDbMText
 10
10594.77462120246
 20
8159.564896313248
 30
0.0
 40
120.0
 41
0.0
 71
     5
 72
     1
  1
\A1;a
  7
STYLE1
 73
     1
 44
1.0
1001
ACAD
1000
MTEXTBEGIN
1070
    73
1070
     1
1070
    44
1040
1.0
1070
    74
1070
     0
1000
MTEXTEND
  0
POINT
  5
23F58
330
20DE2
100
AcDbEntity
  8
DEFPOINTS
 62
     0
 48
50.0
100
AcDbPoint
 10
10278.6
 20
7101.344574254326
 30
0.0
  0
POINT
  5
23F59
330
20DE2
100
AcDbEntity
  8
DEFPOINTS
 62
     0
 48
50.0
100
AcDbPoint
 10
10323.6
 20
7827.611032348238
 30
0.0
  0
POINT
  5
23F5A
330
20DE2
100
AcDbEntity
  8
DEFPOINTS
 62
     0
 48
50.0
100
AcDbPoint
 10
10323.6
 20
8059.564896313249
 30
0.0
  0
ENDBLK
  5
20DEF
330
20DE2
100
AcDbEntity
  8
0
 48
50.0
100
AcDbBlockEnd
  0
BLOCK
  5
20E08
330
20DFC
100
AcDbEntity
  8
0
 48
50.0
100
AcDbBlockBegin
  2
*D20
 70
     1
 10
0.0
 20
0.0
 30
0.0
  3
*D20
  1

  0
LINE
  5
23F45
330
20DFC
100
AcDbEntity
  8
寸法
 62
     0
 48
50.0
370
    -2
100
AcDbLine
 10
6123.600000000004
 20
7847.61103234824
 30
0.0
 11
6123.600000000004
 21
8119.564896313248
 31
0.0
  0
LINE
  5
23F46
330
20DFC
100
AcDbEntity
  8
寸法
 62
     0
 48
50.0
370
    -2
100
AcDbLine
 10
6168.600000000001
 20
7121.344574254327
 30
0.0
 11
6168.600000000001
 21
8119.564896313248
 31
0.0
  0
LINE
  5
23F47
330
20DFC
100
AcDbEntity
  8
寸法
 62
     0
 48
50.0
370
    -2
100
AcDbLine
 10
6168.600000000001
 20
8059.564896313249
 30
0.0
 11
6268.600000000001
 21
8059.564896313249
 31
0.0
  0
LINE
  5
23F48
330
20DFC
100
AcDbEntity
  8
寸法
 62
     0
 48
50.0
370
    -2
100
AcDbLine
 10
6123.600000000004
 20
8059.564896313249
 30
0.0
 11
5786.250757595083
 21
8059.564896313249
 31
0.0
  0
LINE
  5
23F49
330
20DFC
100
AcDbEntity
  8
寸法
 62
     0
 48
50.0
370
    -2
100
AcDbLine
 10
6168.600000000001
 20
8059.564896313249
 30
0.0
 11
6123.600000000004
 21
8059.564896313249
 31
0.0
  0
INSERT
  5
23F4A
330
20DFC
100
AcDbEntity
  8
寸法
 62
     0
 48
50.0
370
    -2
100
AcDbBlockReference
  2
_DOTSMALL
 10
6168.600000000001
 20
8059.564896313249
 30
0.0
 41
100.0
 42
100.0
 43
100.0
 50
180.0
  0
INSERT
  5
23F4B
330
20DFC
100
AcDbEntity
  8
寸法
 62
     0
 48
50.0
370
    -2
100
AcDbBlockReference
  2
_DOTSMALL
 10
6123.600000000004
 20
8059.564896313249
 30
0.0
 41
100.0
 42
100.0
 43
100.0
  0
MTEXT
  5
23F4C
330
20DFC
100
AcDbEntity
  8
寸法
 62
     7
 48
50.0
100
AcDbMText
 10
5852.425378797541
 20
8159.564896313248
 30
0.0
 40
120.0
 41
0.0
 71
     5
 72
     1
  1
\A1;a
  7
STYLE1
 73
     1
 44
1.0
1001
ACAD
1000
MTEXTBEGIN
1070
    73
1070
     1
1070
    44
1040
1.0
1070
    74
1070
     0
1000
MTEXTEND
  0
POINT
  5
23F4D
330
20DFC
100
AcDbEntity
  8
DEFPOINTS
 62
     0
 48
50.0
100
AcDbPoint
 10
6123.600000000004
 20
7827.61103234824
 30
0.0
  0
POINT
  5
23F4E
330
20DFC
100
AcDbEntity
  8
DEFPOINTS
 62
     0
 48
50.0
100
AcDbPoint
 10
6168.600000000001
 20
7101.344574254326
 30
0.0
  0
POINT
  5
23F4F
330
20DFC
100
AcDbEntity
  8
DEFPOINTS
 62
     0
 48
50.0
100
AcDbPoint
 10
6168.600000000001
 20
8059.564896313249
 30
0.0
  0
ENDBLK
  5
20E09
330
20DFC
100
AcDbEntity
  8
0
 48
50.0
100
AcDbBlockEnd
  0
BLOCK
  5
2274E
330
22742
100
AcDbEntity
  8
0
 48
50.0
100
AcDbBlockBegin
  2
*D21
 70
     1
 10
0.0
 20
0.0
 30
0.0
  3
*D21
  1

  0
LINE
  5
23F3A
330
22742
100
AcDbEntity
  8
寸法
 62
     0
 48
50.0
370
    -2
100
AcDbLine
 10
5525.665006330069
 20
7176.344574254343
 30
0.0
 11
5233.721909610673
 21
7176.344574254343
 31
0.0
  0
LINE
  5
23F3B
330
22742
100
AcDbEntity
  8
寸法
 62
     0
 48
50.0
370
    -2
100
AcDbLine
 10
6015.156977762463
 20
7101.34457425434
 30
0.0
 11
5233.721909610673
 21
7101.34457425434
 31
0.0
  0
LINE
  5
23F3C
330
22742
100
AcDbEntity
  8
寸法
 62
     0
 48
50.0
370
    -2
100
AcDbLine
 10
5293.721909610673
 20
7176.344574254343
 30
0.0
 11
5293.721909610673
 21
7276.344574254344
 31
0.0
  0
LINE
  5
23F3D
330
22742
100
AcDbEntity
  8
寸法
 62
     0
 48
50.0
370
    -2
100
AcDbLine
 10
5293.721909610673
 20
7101.34457425434
 30
0.0
 11
5293.721909610673
 21
7001.344574254339
 31
0.0
  0
LINE
  5
23F3E
330
22742
100
AcDbEntity
  8
寸法
 62
     0
 48
50.0
370
    -2
100
AcDbLine
 10
5293.721909610673
 20
7176.344574254343
 30
0.0
 11
5293.721909610673
 21
7101.34457425434
 31
0.0
  0
INSERT
  5
23F3F
330
22742
100
AcDbEntity
  8
寸法
 62
     0
 48
50.0
370
    -2
100
AcDbBlockReference
  2
_DOTSMALL
 10
5293.721909610673
 20
7176.344574254343
 30
0.0
 41
100.0
 42
100.0
 43
100.0
 50
270.0
  0
INSERT
  5
23F40
330
22742
100
AcDbEntity
  8
寸法
 62
     0
 48
50.0
370
    -2
100
AcDbBlockReference
  2
_DOTSMALL
 10
5293.721909610673
 20
7101.34457425434
 30
0.0
 41
100.0
 42
100.0
 43
100.0
 50
90.0
  0
MTEXT
  5
23F41
330
22742
100
AcDbEntity
  8
寸法
 62
     7
 48
50.0
100
AcDbMText
 10
5193.721909610671
 20
7138.844574254342
 30
0.0
 40
120.0
 41
0.0
 71
     5
 72
     1
  1
\A1;c
  7
STYLE1
 11
0.0000000000000001
 21
1.0
 31
0.0
 73
     1
 44
1.0
1001
ACAD
1000
MTEXTBEGIN
1070
    73
1070
     1
1070
    44
1040
1.0
1070
    74
1070
     0
1000
MTEXTEND
  0
POINT
  5
23F42
330
22742
100
AcDbEntity
  8
DEFPOINTS
 62
     0
 48
50.0
100
AcDbPoint
 10
5545.665006330069
 20
7176.344574254343
 30
0.0
  0
POINT
  5
23F43
330
22742
100
AcDbEntity
  8
DEFPOINTS
 62
     0
 48
50.0
100
AcDbPoint
 10
6035.156977762462
 20
7101.34457425434
 30
0.0
  0
POINT
  5
23F44
330
22742
100
AcDbEntity
  8
DEFPOINTS
 62
     0
 48
50.0
100
AcDbPoint
 10
5293.721909610673
 20
7101.34457425434
 30
0.0
  0
ENDBLK
  5
2274F
330
22742
100
AcDbEntity
  8
0
 48
50.0
100
AcDbBlockEnd
  0
BLOCK
  5
22768
330
2275C
100
AcDbEntity
  8
0
 48
50.0
100
AcDbBlockBegin
  2
*D22
 70
     1
 10
0.0
 20
0.0
 30
0.0
  3
*D22
  1

  0
LINE
  5
23F2F
330
2275C
100
AcDbEntity
  8
寸法
 62
     0
 48
50.0
370
    -2
100
AcDbLine
 10
6021.607272343892
 20
6141.344574254329
 30
0.0
 11
5233.721909610673
 21
6141.344574254329
 31
0.0
  0
LINE
  5
23F30
330
2275C
100
AcDbEntity
  8
寸法
 62
     0
 48
50.0
370
    -2
100
AcDbLine
 10
5525.665006330071
 20
6086.344574254351
 30
0.0
 11
5233.721909610673
 21
6086.344574254351
 31
0.0
  0
LINE
  5
23F31
330
2275C
100
AcDbEntity
  8
寸法
 62
     0
 48
50.0
370
    -2
100
AcDbLine
 10
5293.721909610673
 20
6141.344574254329
 30
0.0
 11
5293.721909610674
 21
6241.344574254329
 31
0.0
  0
LINE
  5
23F32
330
2275C
100
AcDbEntity
  8
寸法
 62
     0
 48
50.0
370
    -2
100
AcDbLine
 10
5293.721909610673
 20
6086.344574254351
 30
0.0
 11
5293.721909610673
 21
5986.344574254351
 31
0.0
  0
LINE
  5
23F33
330
2275C
100
AcDbEntity
  8
寸法
 62
     0
 48
50.0
370
    -2
100
AcDbLine
 10
5293.721909610673
 20
6141.344574254329
 30
0.0
 11
5293.721909610673
 21
6086.344574254351
 31
0.0
  0
INSERT
  5
23F34
330
2275C
100
AcDbEntity
  8
寸法
 62
     0
 48
50.0
370
    -2
100
AcDbBlockReference
  2
_DOTSMALL
 10
5293.721909610673
 20
6141.344574254329
 30
0.0
 41
100.0
 42
100.0
 43
100.0
 50
270.0
  0
INSERT
  5
23F35
330
2275C
100
AcDbEntity
  8
寸法
 62
     0
 48
50.0
370
    -2
100
AcDbBlockReference
  2
_DOTSMALL
 10
5293.721909610673
 20
6086.344574254351
 30
0.0
 41
100.0
 42
100.0
 43
100.0
 50
90.0
  0
MTEXT
  5
23F36
330
2275C
100
AcDbEntity
  8
寸法
 62
     7
 48
50.0
100
AcDbMText
 10
5193.721909610673
 20
6113.844574254341
 30
0.0
 40
120.0
 41
0.0
 71
     5
 72
     1
  1
\A1;b
  7
STYLE1
 11
0.0000000000000001
 21
1.0
 31
0.0
 73
     1
 44
1.0
1001
ACAD
1000
MTEXTBEGIN
1070
    73
1070
     1
1070
    44
1040
1.0
1070
    74
1070
     0
1000
MTEXTEND
  0
POINT
  5
23F37
330
2275C
100
AcDbEntity
  8
DEFPOINTS
 62
     0
 48
50.0
100
AcDbPoint
 10
6041.607272343892
 20
6141.344574254329
 30
0.0
  0
POINT
  5
23F38
330
2275C
100
AcDbEntity
  8
DEFPOINTS
 62
     0
 48
50.0
100
AcDbPoint
 10
5545.665006330072
 20
6086.344574254351
 30
0.0
  0
POINT
  5
23F39
330
2275C
100
AcDbEntity
  8
DEFPOINTS
 62
     0
 48
50.0
100
AcDbPoint
 10
5293.721909610673
 20
6086.344574254351
 30
0.0
  0
ENDBLK
  5
22769
330
2275C
100
AcDbEntity
  8
0
 48
50.0
100
AcDbBlockEnd
  0
BLOCK
  5
22B65
330
22B5A
100
AcDbEntity
  8
0
 48
50.0
100
AcDbBlockBegin
  2
*D23
 70
     1
 10
0.0
 20
0.0
 30
0.0
  3
*D23
  1

  0
LINE
  5
23FB9
330
22B5A
100
AcDbEntity
  8
寸法
 62
     0
 48
50.0
370
    -2
100
AcDbLine
 10
9815.095400711712
 20
6421.34457425436
 30
0.0
 11
9621.821389011625
 21
6421.34457425436
 31
0.0
  0
LINE
  5
23FBA
330
22B5A
100
AcDbEntity
  8
寸法
 62
     0
 48
50.0
370
    -2
100
AcDbLine
 10
9671.419106515955
 20
6141.344574254349
 30
0.0
 11
9741.821389011626
 21
6141.344574254349
 31
0.0
  0
LINE
  5
23FBB
330
22B5A
100
AcDbEntity
  8
寸法
 62
     0
 48
50.0
370
    -2
100
AcDbLine
 10
9681.821389011624
 20
6421.34457425436
 30
0.0
 11
9681.821389011624
 21
6141.344574254349
 31
0.0
  0
LINE
  5
23FBC
330
22B5A
100
AcDbEntity
  8
寸法
 62
     0
 48
50.0
370
    -2
100
AcDbLine
 10
9681.821389011624
 20
6141.344574254349
 30
0.0
 11
9681.821389011624
 21
5704.810125435451
 31
0.0
  0
INSERT
  5
23FBD
330
22B5A
100
AcDbEntity
  8
寸法
 62
     0
 48
50.0
370
    -2
100
AcDbBlockReference
  2
_DOTSMALL
 10
9681.821389011624
 20
6421.34457425436
 30
0.0
 41
100.0
 42
100.0
 43
100.0
 50
90.0
  0
INSERT
  5
23FBE
330
22B5A
100
AcDbEntity
  8
寸法
 62
     0
 48
50.0
370
    -2
100
AcDbBlockReference
  2
_DOTSMALL
 10
9681.821389011624
 20
6141.344574254349
 30
0.0
 41
100.0
 42
100.0
 43
100.0
 50
270.0
  0
MTEXT
  5
23FBF
330
22B5A
100
AcDbEntity
  8
寸法
 62
     7
 48
50.0
100
AcDbMText
 10
9581.809577988002
 20
5854.380991577184
 30
0.0
 40
120.0
 41
0.0
 71
     5
 72
     1
  1
\A1;280
  7
STYLE1
 11
0.0000000000000001
 21
1.0
 31
0.0
 73
     1
 44
1.0
1001
ACAD
1000
MTEXTBEGIN
1070
    73
1070
     1
1070
    44
1040
1.0
1070
    74
1070
     0
1000
MTEXTEND
  0
POINT
  5
23FC0
330
22B5A
100
AcDbEntity
  8
DEFPOINTS
 62
     0
 48
50.0
100
AcDbPoint
 10
9835.095400711711
 20
6421.34457425436
 30
0.0
  0
POINT
  5
23FC1
330
22B5A
100
AcDbEntity
  8
DEFPOINTS
 62
     0
 48
50.0
100
AcDbPoint
 10
9651.419106515957
 20
6141.344574254349
 30
0.0
  0
POINT
  5
23FC2
330
22B5A
100
AcDbEntity
  8
DEFPOINTS
 62
     0
 48
50.0
100
AcDbPoint
 10
9681.821389011624
 20
6141.344574254349
 30
0.0
  0
ENDBLK
  5
22B66
330
22B5A
100
AcDbEntity
  8
0
 48
50.0
100
AcDbBlockEnd
  0
BLOCK
  5
22B7F
330
22B74
100
AcDbEntity
  8
0
 48
50.0
100
AcDbBlockBegin
  2
*D24
 70
     1
 10
0.0
 20
0.0
 30
0.0
  3
*D24
  1

  0
LINE
  5
23F1B
330
22B74
100
AcDbEntity
  8
寸法
 62
     0
 48
50.0
370
    -2
100
AcDbLine
 10
9695.856345704681
 20
7101.344574254326
 30
0.0
 11
9741.821389011626
 21
7101.344574254326
 31
0.0
  0
LINE
  5
23F1C
330
22B74
100
AcDbEntity
  8
寸法
 62
     0
 48
50.0
370
    -2
100
AcDbLine
 10
9635.601663693048
 20
6901.344574254242
 30
0.0
 11
9741.821389011626
 21
6901.344574254242
 31
0.0
  0
LINE
  5
23F1D
330
22B74
100
AcDbEntity
  8
寸法
 62
     0
 48
50.0
370
    -2
100
AcDbLine
 10
9681.821389011625
 20
6901.344574254242
 30
0.0
 11
9681.821389011625
 21
7101.344574254326
 31
0.0
  0
LINE
  5
23F1E
330
22B74
100
AcDbEntity
  8
寸法
 62
     0
 48
50.0
370
    -2
100
AcDbLine
 10
9681.821389011625
 20
7101.344574254326
 30
0.0
 11
9681.821389011625
 21
7537.879023073225
 31
0.0
  0
INSERT
  5
23F1F
330
22B74
100
AcDbEntity
  8
寸法
 62
     0
 48
50.0
370
    -2
100
AcDbBlockReference
  2
_DOTSMALL
 10
9681.821389011625
 20
6901.344574254242
 30
0.0
 41
100.0
 42
100.0
 43
100.0
 50
270.0
  0
INSERT
  5
23F20
330
22B74
100
AcDbEntity
  8
寸法
 62
     0
 48
50.0
370
    -2
100
AcDbBlockReference
  2
_DOTSMALL
 10
9681.821389011625
 20
7101.344574254326
 30
0.0
 41
100.0
 42
100.0
 43
100.0
 50
90.0
  0
MTEXT
  5
23F21
330
22B74
100
AcDbEntity
  8
寸法
 62
     7
 48
50.0
100
AcDbMText
 10
9581.809577988002
 20
7388.308156931493
 30
0.0
 40
120.0
 41
0.0
 71
     5
 72
     1
  1
\A1;200
  7
STYLE1
 11
0.0000000000000001
 21
1.0
 31
0.0
 73
     1
 44
1.0
1001
ACAD
1000
MTEXTBEGIN
1070
    73
1070
     1
1070
    44
1040
1.0
1070
    74
1070
     0
1000
MTEXTEND
  0
POINT
  5
23F22
330
22B74
100
AcDbEntity
  8
DEFPOINTS
 62
     0
 48
50.0
100
AcDbPoint
 10
9675.85634570468
 20
7101.344574254326
 30
0.0
  0
POINT
  5
23F23
330
22B74
100
AcDbEntity
  8
DEFPOINTS
 62
     0
 48
50.0
100
AcDbPoint
 10
9615.601663693048
 20
6901.344574254242
 30
0.0
  0
POINT
  5
23F24
330
22B74
100
AcDbEntity
  8
DEFPOINTS
 62
     0
 48
50.0
100
AcDbPoint
 10
9681.821389011625
 20
6901.344574254242
 30
0.0
  0
ENDBLK
  5
22B80
330
22B74
100
AcDbEntity
  8
0
 48
50.0
100
AcDbBlockEnd
  0
BLOCK
  5
22BA5
330
22B9A
100
AcDbEntity
  8
0
 48
50.0
100
AcDbBlockBegin
  2
*D25
 70
     1
 10
0.0
 20
0.0
 30
0.0
  3
*D25
  1

  0
LINE
  5
24684
330
22B9A
100
AcDbEntity
  8
寸法
 62
     0
 48
50.0
370
    -2
100
AcDbLine
 10
10278.6
 20
6766.344574254349
 30
0.0
 11
10278.6
 21
6885.736242809556
 31
0.0
  0
LINE
  5
24685
330
22B9A
100
AcDbEntity
  8
寸法
 62
     0
 48
50.0
370
    -2
100
AcDbLine
 10
10158.6
 20
6766.344574254365
 30
0.0
 11
10158.6
 21
6885.736242809556
 31
0.0
  0
LINE
  5
24686
330
22B9A
100
AcDbEntity
  8
寸法
 62
     0
 48
50.0
370
    -2
100
AcDbLine
 10
10158.6
 20
6825.736242809556
 30
0.0
 11
10278.6
 21
6825.736242809556
 31
0.0
  0
LINE
  5
24687
330
22B9A
100
AcDbEntity
  8
寸法
 62
     0
 48
50.0
370
    -2
100
AcDbLine
 10
10278.6
 20
6825.736242809556
 30
0.0
 11
10698.85690392414
 21
6825.736242809556
 31
0.0
  0
INSERT
  5
24688
330
22B9A
100
AcDbEntity
  8
寸法
 62
     0
 48
50.0
370
    -2
100
AcDbBlockReference
  2
_DOTSMALL
 10
10158.6
 20
6825.736242809556
 30
0.0
 41
100.0
 42
100.0
 43
100.0
 50
180.0
  0
INSERT
  5
24689
330
22B9A
100
AcDbEntity
  8
寸法
 62
     0
 48
50.0
370
    -2
100
AcDbBlockReference
  2
_DOTSMALL
 10
10278.6
 20
6825.736242809556
 30
0.0
 41
100.0
 42
100.0
 43
100.0
  0
MTEXT
  5
2468A
330
22B9A
100
AcDbEntity
  8
寸法
 62
     7
 48
50.0
100
AcDbMText
 10
10562.80965982965
 20
6925.748053833178
 30
0.0
 40
120.0
 41
0.0
 71
     5
 72
     1
  1
\A1;120
  7
STYLE1
 73
     1
 44
1.0
1001
ACAD
1000
MTEXTBEGIN
1070
    73
1070
     1
1070
    44
1040
1.0
1070
    74
1070
     0
1000
MTEXTEND
  0
POINT
  5
2468B
330
22B9A
100
AcDbEntity
  8
DEFPOINTS
 62
     0
 48
50.0
100
AcDbPoint
 10
10278.6
 20
6746.344574254348
 30
0.0
  0
POINT
  5
2468C
330
22B9A
100
AcDbEntity
  8
DEFPOINTS
 62
     0
 48
50.0
100
AcDbPoint
 10
10158.6
 20
6746.344574254367
 30
0.0
  0
POINT
  5
2468D
330
22B9A
100
AcDbEntity
  8
DEFPOINTS
 62
     0
 48
50.0
100
AcDbPoint
 10
10158.6
 20
6825.736242809556
 30
0.0
  0
ENDBLK
  5
22BA6
330
22B9A
100
AcDbEntity
  8
0
 48
50.0
100
AcDbBlockEnd
  0
BLOCK
  5
238CF
330
238C5
100
AcDbEntity
  8
0
 48
50.0
100
AcDbBlockBegin
  2
*D26
 70
     1
 10
0.0
 20
0.0
 30
0.0
  3
*D26
  1

  0
LINE
  5
23F08
330
238C5
100
AcDbEntity
  8
寸法
 62
     0
 48
50.0
370
    -2
100
AcDbLine
 10
8633.600000000008
 20
6691.34457425433
 30
0.0
 11
8633.600000000008
 21
7643.953390924579
 31
0.0
  0
LINE
  5
23F09
330
238C5
100
AcDbEntity
  8
寸法
 62
     0
 48
50.0
370
    -2
100
AcDbLine
 10
7813.600000000008
 20
6691.34457425433
 30
0.0
 11
7813.600000000008
 21
7643.953390924579
 31
0.0
  0
LINE
  5
23F0A
330
238C5
100
AcDbEntity
  8
寸法
 62
     0
 48
50.0
370
    -2
100
AcDbLine
 10
8633.600000000008
 20
7583.953390924579
 30
0.0
 11
7813.600000000008
 21
7583.953390924579
 31
0.0
  0
INSERT
  5
23F0B
330
238C5
100
AcDbEntity
  8
寸法
 62
     0
 48
50.0
370
    -2
100
AcDbBlockReference
  2
_DOTSMALL
 10
8633.600000000008
 20
7583.953390924579
 30
0.0
 41
100.0
 42
100.0
 43
100.0
  0
INSERT
  5
23F0C
330
238C5
100
AcDbEntity
  8
寸法
 62
     0
 48
50.0
370
    -2
100
AcDbBlockReference
  2
_DOTSMALL
 10
7813.600000000008
 20
7583.953390924579
 30
0.0
 41
100.0
 42
100.0
 43
100.0
 50
180.0
  0
MTEXT
  5
23F0D
330
238C5
100
AcDbEntity
  8
寸法
 62
     7
 48
50.0
100
AcDbMText
 10
8223.600000000008
 20
7683.965201948201
 30
0.0
 40
120.0
 41
0.0
 71
     5
 72
     1
  1
\A1;820
  7
STYLE1
 73
     1
 44
1.0
1001
ACAD
1000
MTEXTBEGIN
1070
    73
1070
     1
1070
    44
1040
1.0
1070
    74
1070
     0
1000
MTEXTEND
  0
POINT
  5
23F0E
330
238C5
100
AcDbEntity
  8
DEFPOINTS
 62
     0
 48
50.0
100
AcDbPoint
 10
8633.600000000008
 20
6671.344574254331
 30
0.0
  0
POINT
  5
23F0F
330
238C5
100
AcDbEntity
  8
DEFPOINTS
 62
     0
 48
50.0
100
AcDbPoint
 10
7813.600000000008
 20
6671.344574254331
 30
0.0
  0
POINT
  5
23F10
330
238C5
100
AcDbEntity
  8
DEFPOINTS
 62
     0
 48
50.0
100
AcDbPoint
 10
7813.600000000008
 20
7583.953390924579
 30
0.0
  0
ENDBLK
  5
238D0
330
238C5
100
AcDbEntity
  8
0
 48
50.0
100
AcDbBlockEnd
  0
BLOCK
  5
238DB
330
238D1
100
AcDbEntity
  8
0
 48
50.0
100
AcDbBlockBegin
  2
*D27
 70
     1
 10
0.0
 20
0.0
 30
0.0
  3
*D27
  1

  0
LINE
  5
23EFF
330
238D1
100
AcDbEntity
  8
寸法
 62
     0
 48
50.0
370
    -2
100
AcDbLine
 10
10155.6
 20
7048.344574254331
 30
0.0
 11
10155.6
 21
7887.611032348242
 31
0.0
  0
LINE
  5
23F00
330
238D1
100
AcDbEntity
  8
寸法
 62
     0
 48
50.0
370
    -2
100
AcDbLine
 10
7695.6
 20
7048.344574254331
 30
0.0
 11
7695.6
 21
7887.611032348242
 31
0.0
  0
LINE
  5
23F01
330
238D1
100
AcDbEntity
  8
寸法
 62
     0
 48
50.0
370
    -2
100
AcDbLine
 10
10155.6
 20
7827.611032348241
 30
0.0
 11
7695.6
 21
7827.611032348241
 31
0.0
  0
INSERT
  5
23F02
330
238D1
100
AcDbEntity
  8
寸法
 62
     0
 48
50.0
370
    -2
100
AcDbBlockReference
  2
_DOTSMALL
 10
10155.6
 20
7827.611032348241
 30
0.0
 41
100.0
 42
100.0
 43
100.0
  0
INSERT
  5
23F03
330
238D1
100
AcDbEntity
  8
寸法
 62
     0
 48
50.0
370
    -2
100
AcDbBlockReference
  2
_DOTSMALL
 10
7695.6
 20
7827.611032348241
 30
0.0
 41
100.0
 42
100.0
 43
100.0
 50
180.0
  0
MTEXT
  5
23F04
330
238D1
100
AcDbEntity
  8
寸法
 62
     7
 48
50.0
100
AcDbMText
 10
8925.600000000001
 20
7927.622843371863
 30
0.0
 40
120.0
 41
0.0
 71
     5
 72
     1
  1
\A1;2460
  7
STYLE1
 73
     1
 44
1.0
1001
ACAD
1000
MTEXTBEGIN
1070
    73
1070
     1
1070
    44
1040
1.0
1070
    74
1070
     0
1000
MTEXTEND
  0
POINT
  5
23F05
330
238D1
100
AcDbEntity
  8
DEFPOINTS
 62
     0
 48
50.0
100
AcDbPoint
 10
10155.6
 20
7028.34457425433
 30
0.0
  0
POINT
  5
23F06
330
238D1
100
AcDbEntity
  8
DEFPOINTS
 62
     0
 48
50.0
100
AcDbPoint
 10
7695.6
 20
7028.34457425433
 30
0.0
  0
POINT
  5
23F07
330
238D1
100
AcDbEntity
  8
DEFPOINTS
 62
     0
 48
50.0
100
AcDbPoint
 10
7695.6
 20
7827.611032348241
 30
0.0
  0
ENDBLK
  5
238DC
330
238D1
100
AcDbEntity
  8
0
 48
50.0
100
AcDbBlockEnd
  0
BLOCK
  5
238E7
330
238DD
100
AcDbEntity
  8
0
 48
50.0
100
AcDbBlockBegin
  2
*D28
 70
     1
 10
0.0
 20
0.0
 30
0.0
  3
*D28
  1

  0
LINE
  5
23EF6
330
238DD
100
AcDbEntity
  8
寸法
 62
     0
 48
50.0
370
    -2
100
AcDbLine
 10
6168.600000000001
 20
7121.344574254331
 30
0.0
 11
6168.600000000001
 21
8119.564896313248
 31
0.0
  0
LINE
  5
23EF7
330
238DD
100
AcDbEntity
  8
寸法
 62
     0
 48
50.0
370
    -2
100
AcDbLine
 10
10278.6
 20
7121.344574254331
 30
0.0
 11
10278.6
 21
8119.564896313248
 31
0.0
  0
LINE
  5
23EF8
330
238DD
100
AcDbEntity
  8
寸法
 62
     0
 48
50.0
370
    -2
100
AcDbLine
 10
6168.600000000001
 20
8059.564896313249
 30
0.0
 11
10278.6
 21
8059.564896313249
 31
0.0
  0
INSERT
  5
23EF9
330
238DD
100
AcDbEntity
  8
寸法
 62
     0
 48
50.0
370
    -2
100
AcDbBlockReference
  2
_DOTSMALL
 10
6168.600000000001
 20
8059.564896313249
 30
0.0
 41
100.0
 42
100.0
 43
100.0
 50
180.0
  0
INSERT
  5
23EFA
330
238DD
100
AcDbEntity
  8
寸法
 62
     0
 48
50.0
370
    -2
100
AcDbBlockReference
  2
_DOTSMALL
 10
10278.6
 20
8059.564896313249
 30
0.0
 41
100.0
 42
100.0
 43
100.0
  0
MTEXT
  5
23EFB
330
238DD
100
AcDbEntity
  8
寸法
 62
     7
 48
50.0
100
AcDbMText
 10
8223.600000000001
 20
8159.564896313248
 30
0.0
 40
120.0
 41
0.0
 71
     5
 72
     1
  1
\A1;4110
  7
STYLE1
 73
     1
 44
1.0
1001
ACAD
1000
MTEXTBEGIN
1070
    73
1070
     1
1070
    44
1040
1.0
1070
    74
1070
     0
1000
MTEXTEND
  0
POINT
  5
23EFC
330
238DD
100
AcDbEntity
  8
DEFPOINTS
 62
     0
 48
50.0
100
AcDbPoint
 10
6168.600000000001
 20
7101.344574254331
 30
0.0
  0
POINT
  5
23EFD
330
238DD
100
AcDbEntity
  8
DEFPOINTS
 62
     0
 48
50.0
100
AcDbPoint
 10
10278.6
 20
7101.344574254331
 30
0.0
  0
POINT
  5
23EFE
330
238DD
100
AcDbEntity
  8
DEFPOINTS
 62
     0
 48
50.0
100
AcDbPoint
 10
10278.6
 20
8059.564896313249
 30
0.0
  0
ENDBLK
  5
238E8
330
238DD
100
AcDbEntity
  8
0
 48
50.0
100
AcDbBlockEnd
  0
BLOCK
  5
238F4
330
238E9
100
AcDbEntity
  8
0
 48
50.0
100
AcDbBlockBegin
  2
*D29
 70
     1
 10
0.0
 20
0.0
 30
0.0
  3
*D29
  1

  0
LINE
  5
23EEC
330
238E9
100
AcDbEntity
  8
寸法
 62
     0
 48
50.0
370
    -2
100
AcDbLine
 10
6923.600000000007
 20
6621.344574254331
 30
0.0
 11
6591.285990614302
 21
6621.344574254331
 31
0.0
  0
LINE
  5
23EED
330
238E9
100
AcDbEntity
  8
寸法
 62
     0
 48
50.0
370
    -2
100
AcDbLine
 10
6722.7654751409
 20
7101.344574254331
 30
0.0
 11
6591.285990614302
 21
7101.344574254331
 31
0.0
  0
LINE
  5
23EEE
330
238E9
100
AcDbEntity
  8
寸法
 62
     0
 48
50.0
370
    -2
100
AcDbLine
 10
6651.285990614302
 20
6621.344574254331
 30
0.0
 11
6651.285990614302
 21
7101.344574254331
 31
0.0
  0
LINE
  5
23EEF
330
238E9
100
AcDbEntity
  8
寸法
 62
     0
 48
50.0
370
    -2
100
AcDbLine
 10
6651.285990614302
 20
7101.344574254331
 30
0.0
 11
6651.285990614302
 21
7547.950873466928
 31
0.0
  0
INSERT
  5
23EF0
330
238E9
100
AcDbEntity
  8
寸法
 62
     0
 48
50.0
370
    -2
100
AcDbBlockReference
  2
_DOTSMALL
 10
6651.285990614302
 20
6621.344574254331
 30
0.0
 41
100.0
 42
100.0
 43
100.0
 50
270.0
  0
INSERT
  5
23EF1
330
238E9
100
AcDbEntity
  8
寸法
 62
     0
 48
50.0
370
    -2
100
AcDbBlockReference
  2
_DOTSMALL
 10
6651.285990614302
 20
7101.344574254331
 30
0.0
 41
100.0
 42
100.0
 43
100.0
 50
90.0
  0
MTEXT
  5
23EF2
330
238E9
100
AcDbEntity
  8
寸法
 62
     7
 48
50.0
100
AcDbMText
 10
6551.2859906143
 20
7393.903629372442
 30
0.0
 40
120.0
 41
0.0
 71
     5
 72
     1
  1
\A1;480
  7
STYLE1
 11
0.0000000000000001
 21
1.0
 31
0.0
 73
     1
 44
1.0
1001
ACAD
1000
MTEXTBEGIN
1070
    73
1070
     1
1070
    44
1040
1.0
1070
    74
1070
     0
1000
MTEXTEND
  0
POINT
  5
23EF3
330
238E9
100
AcDbEntity
  8
DEFPOINTS
 62
     0
 48
50.0
100
AcDbPoint
 10
6943.600000000007
 20
6621.344574254331
 30
0.0
  0
POINT
  5
23EF4
330
238E9
100
AcDbEntity
  8
DEFPOINTS
 62
     0
 48
50.0
100
AcDbPoint
 10
6742.765475140901
 20
7101.344574254331
 30
0.0
  0
POINT
  5
23EF5
330
238E9
100
AcDbEntity
  8
DEFPOINTS
 62
     0
 48
50.0
100
AcDbPoint
 10
6651.285990614302
 20
7101.344574254331
 30
0.0
  0
ENDBLK
  5
238F5
330
238E9
100
AcDbEntity
  8
0
 48
50.0
100
AcDbBlockEnd
  0
BLOCK
  5
23900
330
238F6
100
AcDbEntity
  8
0
 48
50.0
100
AcDbBlockBegin
  2
*D30
 70
     1
 10
0.0
 20
0.0
 30
0.0
  3
*D30
  1

  0
LINE
  5
23EE3
330
238F6
100
AcDbEntity
  8
寸法
 62
     0
 48
50.0
370
    -2
100
AcDbLine
 10
6993.600000000007
 20
6691.34457425433
 30
0.0
 11
6993.600000000007
 21
7643.953390924579
 31
0.0
  0
LINE
  5
23EE4
330
238F6
100
AcDbEntity
  8
寸法
 62
     0
 48
50.0
370
    -2
100
AcDbLine
 10
6168.600000000001
 20
7121.344574254331
 30
0.0
 11
6168.600000000001
 21
7643.953390924579
 31
0.0
  0
LINE
  5
23EE5
330
238F6
100
AcDbEntity
  8
寸法
 62
     0
 48
50.0
370
    -2
100
AcDbLine
 10
6993.600000000007
 20
7583.953390924579
 30
0.0
 11
6168.600000000001
 21
7583.953390924579
 31
0.0
  0
INSERT
  5
23EE6
330
238F6
100
AcDbEntity
  8
寸法
 62
     0
 48
50.0
370
    -2
100
AcDbBlockReference
  2
_DOTSMALL
 10
6993.600000000007
 20
7583.953390924579
 30
0.0
 41
100.0
 42
100.0
 43
100.0
  0
INSERT
  5
23EE7
330
238F6
100
AcDbEntity
  8
寸法
 62
     0
 48
50.0
370
    -2
100
AcDbBlockReference
  2
_DOTSMALL
 10
6168.600000000001
 20
7583.953390924579
 30
0.0
 41
100.0
 42
100.0
 43
100.0
 50
180.0
  0
MTEXT
  5
23EE8
330
238F6
100
AcDbEntity
  8
寸法
 62
     7
 48
50.0
100
AcDbMText
 10
6581.100000000003
 20
7683.965201948201
 30
0.0
 40
120.0
 41
0.0
 71
     5
 72
     1
  1
\A1;825
  7
STYLE1
 73
     1
 44
1.0
1001
ACAD
1000
MTEXTBEGIN
1070
    73
1070
     1
1070
    44
1040
1.0
1070
    74
1070
     0
1000
MTEXTEND
  0
POINT
  5
23EE9
330
238F6
100
AcDbEntity
  8
DEFPOINTS
 62
     0
 48
50.0
100
AcDbPoint
 10
6993.600000000007
 20
6671.344574254331
 30
0.0
  0
POINT
  5
23EEA
330
238F6
100
AcDbEntity
  8
DEFPOINTS
 62
     0
 48
50.0
100
AcDbPoint
 10
6168.600000000001
 20
7101.344574254331
 30
0.0
  0
POINT
  5
23EEB
330
238F6
100
AcDbEntity
  8
DEFPOINTS
 62
     0
 48
50.0
100
AcDbPoint
 10
6168.600000000001
 20
7583.953390924579
 30
0.0
  0
ENDBLK
  5
23901
330
238F6
100
AcDbEntity
  8
0
 48
50.0
100
AcDbBlockEnd
  0
BLOCK
  5
2390B
330
23902
100
AcDbEntity
  8
0
 48
50.0
100
AcDbBlockBegin
  2
*D31
 70
     1
 10
0.0
 20
0.0
 30
0.0
  3
*D31
  1

  0
LINE
  5
23EDA
330
23902
100
AcDbEntity
  8
寸法
 62
     0
 48
50.0
370
    -2
100
AcDbLine
 10
7813.600000000008
 20
6691.34457425433
 30
0.0
 11
7813.600000000008
 21
7643.953390924579
 31
0.0
  0
LINE
  5
23EDB
330
23902
100
AcDbEntity
  8
寸法
 62
     0
 48
50.0
370
    -2
100
AcDbLine
 10
6993.600000000007
 20
6691.34457425433
 30
0.0
 11
6993.600000000007
 21
7643.953390924579
 31
0.0
  0
LINE
  5
23EDC
330
23902
100
AcDbEntity
  8
寸法
 62
     0
 48
50.0
370
    -2
100
AcDbLine
 10
7813.600000000008
 20
7583.953390924579
 30
0.0
 11
6993.600000000007
 21
7583.953390924579
 31
0.0
  0
INSERT
  5
23EDD
330
23902
100
AcDbEntity
  8
寸法
 62
     0
 48
50.0
370
    -2
100
AcDbBlockReference
  2
_DOTSMALL
 10
7813.600000000008
 20
7583.953390924579
 30
0.0
 41
100.0
 42
100.0
 43
100.0
  0
INSERT
  5
23EDE
330
23902
100
AcDbEntity
  8
寸法
 62
     0
 48
50.0
370
    -2
100
AcDbBlockReference
  2
_DOTSMALL
 10
6993.600000000007
 20
7583.953390924579
 30
0.0
 41
100.0
 42
100.0
 43
100.0
 50
180.0
  0
MTEXT
  5
23EDF
330
23902
100
AcDbEntity
  8
寸法
 62
     7
 48
50.0
100
AcDbMText
 10
7403.600000000007
 20
7683.965201948201
 30
0.0
 40
120.0
 41
0.0
 71
     5
 72
     1
  1
\A1;820
  7
STYLE1
 73
     1
 44
1.0
1001
ACAD
1000
MTEXTBEGIN
1070
    73
1070
     1
1070
    44
1040
1.0
1070
    74
1070
     0
1000
MTEXTEND
  0
POINT
  5
23EE0
330
23902
100
AcDbEntity
  8
DEFPOINTS
 62
     0
 48
50.0
100
AcDbPoint
 10
7813.600000000008
 20
6671.344574254331
 30
0.0
  0
POINT
  5
23EE1
330
23902
100
AcDbEntity
  8
DEFPOINTS
 62
     0
 48
50.0
100
AcDbPoint
 10
6993.600000000007
 20
6671.344574254331
 30
0.0
  0
POINT
  5
23EE2
330
23902
100
AcDbEntity
  8
DEFPOINTS
 62
     0
 48
50.0
100
AcDbPoint
 10
6993.600000000007
 20
7583.953390924579
 30
0.0
  0
ENDBLK
  5
2390C
330
23902
100
AcDbEntity
  8
0
 48
50.0
100
AcDbBlockEnd
  0
BLOCK
  5
23917
330
2390D
100
AcDbEntity
  8
0
 48
50.0
100
AcDbBlockBegin
  2
*D32
 70
     1
 10
0.0
 20
0.0
 30
0.0
  3
*D32
  1

  0
LINE
  5
23F7F
330
2390D
100
AcDbEntity
  8
寸法
 62
     0
 48
50.0
370
    -2
100
AcDbLine
 10
6221.600000000001
 20
6978.344574254331
 30
0.0
 11
5485.665006330073
 21
6978.344574254332
 31
0.0
  0
LINE
  5
23F80
330
2390D
100
AcDbEntity
  8
寸法
 62
     0
 48
50.0
370
    -2
100
AcDbLine
 10
6221.600000000008
 20
6339.344574254335
 30
0.0
 11
5485.665006330073
 21
6339.344574254336
 31
0.0
  0
LINE
  5
23F81
330
2390D
100
AcDbEntity
  8
寸法
 62
     0
 48
50.0
370
    -2
100
AcDbLine
 10
5545.665006330073
 20
6978.344574254332
 30
0.0
 11
5545.665006330073
 21
6339.344574254336
 31
0.0
  0
INSERT
  5
23F82
330
2390D
100
AcDbEntity
  8
寸法
 62
     0
 48
50.0
370
    -2
100
AcDbBlockReference
  2
_DOTSMALL
 10
5545.665006330073
 20
6978.344574254332
 30
0.0
 41
100.0
 42
100.0
 43
100.0
 50
90.0
  0
INSERT
  5
23F83
330
2390D
100
AcDbEntity
  8
寸法
 62
     0
 48
50.0
370
    -2
100
AcDbBlockReference
  2
_DOTSMALL
 10
5545.665006330073
 20
6339.344574254336
 30
0.0
 41
100.0
 42
100.0
 43
100.0
 50
270.0
  0
MTEXT
  5
23F84
330
2390D
100
AcDbEntity
  8
寸法
 62
     7
 48
50.0
100
AcDbMText
 10
5445.665006330071
 20
6658.844574254331
 30
0.0
 40
120.0
 41
0.0
 71
     5
 72
     1
  1
\A1;639
  7
STYLE1
 11
0.0000000000000001
 21
1.0
 31
0.0
 73
     1
 44
1.0
1001
ACAD
1000
MTEXTBEGIN
1070
    73
1070
     1
1070
    44
1040
1.0
1070
    74
1070
     0
1000
MTEXTEND
  0
POINT
  5
23F85
330
2390D
100
AcDbEntity
  8
DEFPOINTS
 62
     0
 48
50.0
100
AcDbPoint
 10
6241.6
 20
6978.344574254331
 30
0.0
  0
POINT
  5
23F86
330
2390D
100
AcDbEntity
  8
DEFPOINTS
 62
     0
 48
50.0
100
AcDbPoint
 10
6241.600000000008
 20
6339.344574254335
 30
0.0
  0
POINT
  5
23F87
330
2390D
100
AcDbEntity
  8
DEFPOINTS
 62
     0
 48
50.0
100
AcDbPoint
 10
5545.665006330073
 20
6339.344574254336
 30
0.0
  0
ENDBLK
  5
23918
330
2390D
100
AcDbEntity
  8
0
 48
50.0
100
AcDbBlockEnd
  0
BLOCK
  5
23923
330
23919
100
AcDbEntity
  8
0
 48
50.0
100
AcDbBlockBegin
  2
*D33
 70
     1
 10
0.0
 20
0.0
 30
0.0
  3
*D33
  1

  0
LINE
  5
23EC8
330
23919
100
AcDbEntity
  8
寸法
 62
     0
 48
50.0
370
    -2
100
AcDbLine
 10
6148.6
 20
7101.344574254331
 30
0.0
 11
5233.721909610675
 21
7101.344574254333
 31
0.0
  0
LINE
  5
23EC9
330
23919
100
AcDbEntity
  8
寸法
 62
     0
 48
50.0
370
    -2
100
AcDbLine
 10
6148.6
 20
6141.344574254331
 30
0.0
 11
5233.721909610673
 21
6141.344574254332
 31
0.0
  0
LINE
  5
23ECA
330
23919
100
AcDbEntity
  8
寸法
 62
     0
 48
50.0
370
    -2
100
AcDbLine
 10
5293.721909610674
 20
7101.344574254333
 30
0.0
 11
5293.721909610674
 21
6141.344574254332
 31
0.0
  0
INSERT
  5
23ECB
330
23919
100
AcDbEntity
  8
寸法
 62
     0
 48
50.0
370
    -2
100
AcDbBlockReference
  2
_DOTSMALL
 10
5293.721909610674
 20
7101.344574254333
 30
0.0
 41
100.0
 42
100.0
 43
100.0
 50
90.0
  0
INSERT
  5
23ECC
330
23919
100
AcDbEntity
  8
寸法
 62
     0
 48
50.0
370
    -2
100
AcDbBlockReference
  2
_DOTSMALL
 10
5293.721909610674
 20
6141.344574254332
 30
0.0
 41
100.0
 42
100.0
 43
100.0
 50
270.0
  0
MTEXT
  5
23ECD
330
23919
100
AcDbEntity
  8
寸法
 62
     7
 48
50.0
100
AcDbMText
 10
5193.721909610673
 20
6658.844574254331
 30
0.0
 40
120.0
 41
0.0
 71
     5
 72
     1
  1
\A1;960
  7
STYLE1
 11
0.0000000000000001
 21
1.0
 31
0.0
 73
     1
 44
1.0
1001
ACAD
1000
MTEXTBEGIN
1070
    73
1070
     1
1070
    44
1040
1.0
1070
    74
1070
     0
1000
MTEXTEND
  0
POINT
  5
23ECE
330
23919
100
AcDbEntity
  8
DEFPOINTS
 62
     0
 48
50.0
100
AcDbPoint
 10
6168.600000000001
 20
7101.344574254331
 30
0.0
  0
POINT
  5
23ECF
330
23919
100
AcDbEntity
  8
DEFPOINTS
 62
     0
 48
50.0
100
AcDbPoint
 10
6168.600000000001
 20
6141.344574254331
 30
0.0
  0
POINT
  5
23ED0
330
23919
100
AcDbEntity
  8
DEFPOINTS
 62
     0
 48
50.0
100
AcDbPoint
 10
5293.721909610674
 20
6141.344574254332
 30
0.0
  0
ENDBLK
  5
23924
330
23919
100
AcDbEntity
  8
0
 48
50.0
100
AcDbBlockEnd
  0
BLOCK
  5
2393C
330
23931
100
AcDbEntity
  8
0
 48
50.0
100
AcDbBlockBegin
  2
*D34
 70
     1
 10
0.0
 20
0.0
 30
0.0
  3
*D34
  1

  0
LINE
  5
23EBE
330
23931
100
AcDbEntity
  8
寸法
 62
     0
 48
50.0
370
    -2
100
AcDbLine
 10
6722.7654751409
 20
6141.344574254341
 30
0.0
 11
6591.285990614301
 21
6141.344574254341
 31
0.0
  0
LINE
  5
23EBF
330
23931
100
AcDbEntity
  8
寸法
 62
     0
 48
50.0
370
    -2
100
AcDbLine
 10
6923.600000000007
 20
6621.344574254331
 30
0.0
 11
6591.285990614302
 21
6621.344574254331
 31
0.0
  0
LINE
  5
23EC0
330
23931
100
AcDbEntity
  8
寸法
 62
     0
 48
50.0
370
    -2
100
AcDbLine
 10
6651.285990614302
 20
6621.344574254331
 30
0.0
 11
6651.285990614301
 21
6141.344574254341
 31
0.0
  0
LINE
  5
23EC1
330
23931
100
AcDbEntity
  8
寸法
 62
     0
 48
50.0
370
    -2
100
AcDbLine
 10
6651.285990614301
 20
6141.344574254341
 30
0.0
 11
6651.285990614301
 21
5694.738275041741
 31
0.0
  0
INSERT
  5
23EC2
330
23931
100
AcDbEntity
  8
寸法
 62
     0
 48
50.0
370
    -2
100
AcDbBlockReference
  2
_DOTSMALL
 10
6651.285990614302
 20
6621.344574254331
 30
0.0
 41
100.0
 42
100.0
 43
100.0
 50
90.0
  0
INSERT
  5
23EC3
330
23931
100
AcDbEntity
  8
寸法
 62
     0
 48
50.0
370
    -2
100
AcDbBlockReference
  2
_DOTSMALL
 10
6651.285990614301
 20
6141.344574254341
 30
0.0
 41
100.0
 42
100.0
 43
100.0
 50
270.0
  0
MTEXT
  5
23EC4
330
23931
100
AcDbEntity
  8
寸法
 62
     7
 48
50.0
100
AcDbMText
 10
6551.2859906143
 20
5848.785519136231
 30
0.0
 40
120.0
 41
0.0
 71
     5
 72
     1
  1
\A1;480
  7
STYLE1
 11
0.0000000000000001
 21
1.0
 31
0.0
 73
     1
 44
1.0
1001
ACAD
1000
MTEXTBEGIN
1070
    73
1070
     1
1070
    44
1040
1.0
1070
    74
1070
     0
1000
MTEXTEND
  0
POINT
  5
23EC5
330
23931
100
AcDbEntity
  8
DEFPOINTS
 62
     0
 48
50.0
100
AcDbPoint
 10
6742.765475140901
 20
6141.344574254341
 30
0.0
  0
POINT
  5
23EC6
330
23931
100
AcDbEntity
  8
DEFPOINTS
 62
     0
 48
50.0
100
AcDbPoint
 10
6943.600000000007
 20
6621.344574254331
 30
0.0
  0
POINT
  5
23EC7
330
23931
100
AcDbEntity
  8
DEFPOINTS
 62
     0
 48
50.0
100
AcDbPoint
 10
6651.285990614302
 20
6621.344574254331
 30
0.0
  0
ENDBLK
  5
2393D
330
23931
100
AcDbEntity
  8
0
 48
50.0
100
AcDbBlockEnd
  0
BLOCK
  5
23948
330
2393E
100
AcDbEntity
  8
0
 48
50.0
100
AcDbBlockBegin
  2
*D35
 70
     1
 10
0.0
 20
0.0
 30
0.0
  3
*D35
  1

  0
LINE
  5
23EB5
330
2393E
100
AcDbEntity
  8
寸法
 62
     0
 48
50.0
370
    -2
100
AcDbLine
 10
6148.600000000004
 20
6141.344574254327
 30
0.0
 11
5995.512673767883
 21
6141.344574254328
 31
0.0
  0
LINE
  5
23EB6
330
2393E
100
AcDbEntity
  8
寸法
 62
     0
 48
50.0
370
    -2
100
AcDbLine
 10
6504.325326928809
 20
5421.344574254327
 30
0.0
 11
5995.512673767883
 21
5421.344574254328
 31
0.0
  0
LINE
  5
23EB7
330
2393E
100
AcDbEntity
  8
寸法
 62
     0
 48
50.0
370
    -2
100
AcDbLine
 10
6055.512673767883
 20
6141.344574254328
 30
0.0
 11
6055.512673767883
 21
5421.344574254328
 31
0.0
  0
INSERT
  5
23EB8
330
2393E
100
AcDbEntity
  8
寸法
 62
     0
 48
50.0
370
    -2
100
AcDbBlockReference
  2
_DOTSMALL
 10
6055.512673767883
 20
6141.344574254328
 30
0.0
 41
100.0
 42
100.0
 43
100.0
 50
90.0
  0
INSERT
  5
23EB9
330
2393E
100
AcDbEntity
  8
寸法
 62
     0
 48
50.0
370
    -2
100
AcDbBlockReference
  2
_DOTSMALL
 10
6055.512673767883
 20
5421.344574254328
 30
0.0
 41
100.0
 42
100.0
 43
100.0
 50
270.0
  0
MTEXT
  5
23EBA
330
2393E
100
AcDbEntity
  8
寸法
 62
     7
 48
50.0
100
AcDbMText
 10
5955.50086274426
 20
5781.34457425433
 30
0.0
 40
120.0
 41
0.0
 71
     5
 72
     1
  1
\A1;扉の出720
  7
STYLE1
 11
0.0000000000000001
 21
1.0
 31
0.0
 73
     1
 44
1.0
1001
ACAD
1000
MTEXTBEGIN
1070
    73
1070
     1
1070
    44
1040
1.0
1070
    74
1070
     0
1000
MTEXTEND
  0
POINT
  5
23EBB
330
2393E
100
AcDbEntity
  8
DEFPOINTS
 62
     0
 48
50.0
100
AcDbPoint
 10
6168.600000000004
 20
6141.344574254327
 30
0.0
  0
POINT
  5
23EBC
330
2393E
100
AcDbEntity
  8
DEFPOINTS
 62
     0
 48
50.0
100
AcDbPoint
 10
6524.325326928809
 20
5421.344574254327
 30
0.0
  0
POINT
  5
23EBD
330
2393E
100
AcDbEntity
  8
DEFPOINTS
 62
     0
 48
50.0
100
AcDbPoint
 10
6055.512673767883
 20
5421.344574254328
 30
0.0
  0
ENDBLK
  5
23949
330
2393E
100
AcDbEntity
  8
0
 48
50.0
100
AcDbBlockEnd
  0
BLOCK
  5
23955
330
2394A
100
AcDbEntity
  8
0
 48
50.0
100
AcDbBlockBegin
  2
*D36
 70
     1
 10
0.0
 20
0.0
 30
0.0
  3
*D36
  1

  0
LINE
  5
23F75
330
2394A
100
AcDbEntity
  8
寸法
 62
     0
 48
50.0
370
    -2
100
AcDbLine
 10
6221.600000000008
 20
6339.344574254335
 30
0.0
 11
5485.665006330073
 21
6339.344574254336
 31
0.0
  0
LINE
  5
23F76
330
2394A
100
AcDbEntity
  8
寸法
 62
     0
 48
50.0
370
    -2
100
AcDbLine
 10
6148.6
 20
6141.344574254331
 30
0.0
 11
5485.665006330072
 21
6141.344574254332
 31
0.0
  0
LINE
  5
23F77
330
2394A
100
AcDbEntity
  8
寸法
 62
     0
 48
50.0
370
    -2
100
AcDbLine
 10
5545.665006330073
 20
6339.344574254336
 30
0.0
 11
5545.665006330072
 21
6141.344574254332
 31
0.0
  0
LINE
  5
23F78
330
2394A
100
AcDbEntity
  8
寸法
 62
     0
 48
50.0
370
    -2
100
AcDbLine
 10
5545.665006330072
 20
6141.344574254332
 30
0.0
 11
5545.665006330072
 21
5669.603965582081
 31
0.0
  0
INSERT
  5
23F79
330
2394A
100
AcDbEntity
  8
寸法
 62
     0
 48
50.0
370
    -2
100
AcDbBlockReference
  2
_DOTSMALL
 10
5545.665006330073
 20
6339.344574254336
 30
0.0
 41
100.0
 42
100.0
 43
100.0
 50
90.0
  0
INSERT
  5
23F7A
330
2394A
100
AcDbEntity
  8
寸法
 62
     0
 48
50.0
370
    -2
100
AcDbBlockReference
  2
_DOTSMALL
 10
5545.665006330072
 20
6141.344574254332
 30
0.0
 41
100.0
 42
100.0
 43
100.0
 50
270.0
  0
MTEXT
  5
23F7B
330
2394A
100
AcDbEntity
  8
寸法
 62
     7
 48
50.0
100
AcDbMText
 10
5445.665006330071
 20
5805.813625411739
 30
0.0
 40
120.0
 41
0.0
 71
     5
 72
     1
  1
\A1;198
  7
STYLE1
 11
0.0000000000000001
 21
1.0
 31
0.0
 73
     1
 44
1.0
1001
ACAD
1000
MTEXTBEGIN
1070
    73
1070
     1
1070
    44
1040
1.0
1070
    74
1070
     0
1000
MTEXTEND
  0
POINT
  5
23F7C
330
2394A
100
AcDbEntity
  8
DEFPOINTS
 62
     0
 48
50.0
100
AcDbPoint
 10
6241.600000000008
 20
6339.344574254335
 30
0.0
  0
POINT
  5
23F7D
330
2394A
100
AcDbEntity
  8
DEFPOINTS
 62
     0
 48
50.0
100
AcDbPoint
 10
6168.600000000001
 20
6141.344574254331
 30
0.0
  0
POINT
  5
23F7E
330
2394A
100
AcDbEntity
  8
DEFPOINTS
 62
     0
 48
50.0
100
AcDbPoint
 10
5545.665006330072
 20
6141.344574254332
 30
0.0
  0
ENDBLK
  5
23956
330
2394A
100
AcDbEntity
  8
0
 48
50.0
100
AcDbBlockEnd
  0
BLOCK
  5
2396D
330
23964
100
AcDbEntity
  8
0
 48
50.0
100
AcDbBlockBegin
  2
*D37
 70
     1
 10
0.0
 20
0.0
 30
0.0
  3
*D37
  1

  0
LINE
  5
23EA2
330
23964
100
AcDbEntity
  8
寸法
 62
     0
 48
50.0
370
    -2
100
AcDbLine
 10
7695.6
 20
7048.344574254331
 30
0.0
 11
7695.6
 21
7887.611032348242
 31
0.0
  0
LINE
  5
23EA3
330
23964
100
AcDbEntity
  8
寸法
 62
     0
 48
50.0
370
    -2
100
AcDbLine
 10
6291.6
 20
7048.344574254331
 30
0.0
 11
6291.6
 21
7887.611032348242
 31
0.0
  0
LINE
  5
23EA4
330
23964
100
AcDbEntity
  8
寸法
 62
     0
 48
50.0
370
    -2
100
AcDbLine
 10
7695.6
 20
7827.611032348241
 30
0.0
 11
6291.6
 21
7827.611032348241
 31
0.0
  0
INSERT
  5
23EA5
330
23964
100
AcDbEntity
  8
寸法
 62
     0
 48
50.0
370
    -2
100
AcDbBlockReference
  2
_DOTSMALL
 10
7695.6
 20
7827.611032348241
 30
0.0
 41
100.0
 42
100.0
 43
100.0
  0
INSERT
  5
23EA6
330
23964
100
AcDbEntity
  8
寸法
 62
     0
 48
50.0
370
    -2
100
AcDbBlockReference
  2
_DOTSMALL
 10
6291.6
 20
7827.611032348241
 30
0.0
 41
100.0
 42
100.0
 43
100.0
 50
180.0
  0
MTEXT
  5
23EA7
330
23964
100
AcDbEntity
  8
寸法
 62
     7
 48
50.0
100
AcDbMText
 10
6993.6
 20
7927.611032348242
 30
0.0
 40
120.0
 41
0.0
 71
     5
 72
     1
  1
\A1;1404
  7
STYLE1
 73
     1
 44
1.0
1001
ACAD
1000
MTEXTBEGIN
1070
    73
1070
     1
1070
    44
1040
1.0
1070
    74
1070
     0
1000
MTEXTEND
  0
POINT
  5
23EA8
330
23964
100
AcDbEntity
  8
DEFPOINTS
 62
     0
 48
50.0
100
AcDbPoint
 10
7695.6
 20
7028.34457425433
 30
0.0
  0
POINT
  5
23EA9
330
23964
100
AcDbEntity
  8
DEFPOINTS
 62
     0
 48
50.0
100
AcDbPoint
 10
6291.6
 20
7028.34457425433
 30
0.0
  0
POINT
  5
23EAA
330
23964
100
AcDbEntity
  8
DEFPOINTS
 62
     0
 48
50.0
100
AcDbPoint
 10
6291.6
 20
7827.611032348241
 30
0.0
  0
ENDBLK
  5
2396E
330
23964
100
AcDbEntity
  8
0
 48
50.0
100
AcDbBlockEnd
  0
BLOCK
  5
23987
330
2397C
100
AcDbEntity
  8
0
 48
50.0
100
AcDbBlockBegin
  2
*D38
 70
     1
 10
0.0
 20
0.0
 30
0.0
  3
*D38
  1

  0
LINE
  5
23E98
330
2397C
100
AcDbEntity
  8
寸法
 62
     0
 48
50.0
370
    -2
100
AcDbLine
 10
6291.6
 20
7048.344574254331
 30
0.0
 11
6291.6
 21
7887.611032348242
 31
0.0
  0
LINE
  5
23E99
330
2397C
100
AcDbEntity
  8
寸法
 62
     0
 48
50.0
370
    -2
100
AcDbLine
 10
6168.600000000001
 20
7121.344574254331
 30
0.0
 11
6168.600000000001
 21
7887.611032348242
 31
0.0
  0
LINE
  5
23E9A
330
2397C
100
AcDbEntity
  8
寸法
 62
     0
 48
50.0
370
    -2
100
AcDbLine
 10
6291.6
 20
7827.611032348241
 30
0.0
 11
6168.600000000001
 21
7827.611032348241
 31
0.0
  0
LINE
  5
23E9B
330
2397C
100
AcDbEntity
  8
寸法
 62
     0
 48
50.0
370
    -2
100
AcDbLine
 10
6168.600000000001
 20
7827.611032348241
 30
0.0
 11
5757.008116907963
 21
7827.611032348241
 31
0.0
  0
INSERT
  5
23E9C
330
2397C
100
AcDbEntity
  8
寸法
 62
     0
 48
50.0
370
    -2
100
AcDbBlockReference
  2
_DOTSMALL
 10
6291.6
 20
7827.611032348241
 30
0.0
 41
100.0
 42
100.0
 43
100.0
  0
INSERT
  5
23E9D
330
2397C
100
AcDbEntity
  8
寸法
 62
     0
 48
50.0
370
    -2
100
AcDbBlockReference
  2
_DOTSMALL
 10
6168.600000000001
 20
7827.611032348241
 30
0.0
 41
100.0
 42
100.0
 43
100.0
 50
180.0
  0
MTEXT
  5
23E9E
330
2397C
100
AcDbEntity
  8
寸法
 62
     7
 48
50.0
100
AcDbMText
 10
5895.493398282201
 20
7927.622843371863
 30
0.0
 40
120.0
 41
0.0
 71
     5
 72
     1
  1
\A1;123
  7
STYLE1
 73
     1
 44
1.0
1001
ACAD
1000
MTEXTBEGIN
1070
    73
1070
     1
1070
    44
1040
1.0
1070
    74
1070
     0
1000
MTEXTEND
  0
POINT
  5
23E9F
330
2397C
100
AcDbEntity
  8
DEFPOINTS
 62
     0
 48
50.0
100
AcDbPoint
 10
6291.6
 20
7028.34457425433
 30
0.0
  0
POINT
  5
23EA0
330
2397C
100
AcDbEntity
  8
DEFPOINTS
 62
     0
 48
50.0
100
AcDbPoint
 10
6168.600000000001
 20
7101.344574254331
 30
0.0
  0
POINT
  5
23EA1
330
2397C
100
AcDbEntity
  8
DEFPOINTS
 62
     0
 48
50.0
100
AcDbPoint
 10
6168.600000000001
 20
7827.611032348241
 30
0.0
  0
ENDBLK
  5
23988
330
2397C
100
AcDbEntity
  8
0
 48
50.0
100
AcDbBlockEnd
  0
BLOCK
  5
2399E
330
23993
100
AcDbEntity
  8
0
 48
50.0
100
AcDbBlockBegin
  2
*D39
 70
     1
 10
0.0
 20
0.0
 30
0.0
  3
*D39
  1

  0
LINE
  5
23E8E
330
23993
100
AcDbEntity
  8
寸法
 62
     0
 48
50.0
370
    -2
100
AcDbLine
 10
6148.6
 20
7101.344574254331
 30
0.0
 11
5485.665006330073
 21
7101.344574254333
 31
0.0
  0
LINE
  5
23E8F
330
23993
100
AcDbEntity
  8
寸法
 62
     0
 48
50.0
370
    -2
100
AcDbLine
 10
6221.600000000001
 20
6978.344574254331
 30
0.0
 11
5485.665006330073
 21
6978.344574254332
 31
0.0
  0
LINE
  5
23E90
330
23993
100
AcDbEntity
  8
寸法
 62
     0
 48
50.0
370
    -2
100
AcDbLine
 10
5545.665006330073
 20
6978.344574254332
 30
0.0
 11
5545.665006330073
 21
7101.344574254333
 31
0.0
  0
LINE
  5
23E91
330
23993
100
AcDbEntity
  8
寸法
 62
     0
 48
50.0
370
    -2
100
AcDbLine
 10
5545.665006330073
 20
7101.344574254333
 30
0.0
 11
5545.665006330073
 21
7512.936457346369
 31
0.0
  0
INSERT
  5
23E92
330
23993
100
AcDbEntity
  8
寸法
 62
     0
 48
50.0
370
    -2
100
AcDbBlockReference
  2
_DOTSMALL
 10
5545.665006330073
 20
6978.344574254332
 30
0.0
 41
100.0
 42
100.0
 43
100.0
 50
270.0
  0
INSERT
  5
23E93
330
23993
100
AcDbEntity
  8
寸法
 62
     0
 48
50.0
370
    -2
100
AcDbBlockReference
  2
_DOTSMALL
 10
5545.665006330073
 20
7101.344574254333
 30
0.0
 41
100.0
 42
100.0
 43
100.0
 50
90.0
  0
MTEXT
  5
23E94
330
23993
100
AcDbEntity
  8
寸法
 62
     7
 48
50.0
100
AcDbMText
 10
5445.65319530645
 20
7374.45117597213
 30
0.0
 40
120.0
 41
0.0
 71
     5
 72
     1
  1
\A1;123
  7
STYLE1
 11
0.0000000000000001
 21
1.0
 31
0.0
 73
     1
 44
1.0
1001
ACAD
1000
MTEXTBEGIN
1070
    73
1070
     1
1070
    44
1040
1.0
1070
    74
1070
     0
1000
MTEXTEND
  0
POINT
  5
23E95
330
23993
100
AcDbEntity
  8
DEFPOINTS
 62
     0
 48
50.0
100
AcDbPoint
 10
6168.600000000001
 20
7101.344574254331
 30
0.0
  0
POINT
  5
23E96
330
23993
100
AcDbEntity
  8
DEFPOINTS
 62
     0
 48
50.0
100
AcDbPoint
 10
6241.6
 20
6978.344574254331
 30
0.0
  0
POINT
  5
23E97
330
23993
100
AcDbEntity
  8
DEFPOINTS
 62
     0
 48
50.0
100
AcDbPoint
 10
5545.665006330073
 20
6978.344574254332
 30
0.0
  0
ENDBLK
  5
2399F
330
23993
100
AcDbEntity
  8
0
 48
50.0
100
AcDbBlockEnd
  0
BLOCK
  5
239B7
330
239AD
100
AcDbEntity
  8
0
 48
50.0
100
AcDbBlockBegin
  2
*D40
 70
     1
 10
0.0
 20
0.0
 30
0.0
  3
*D40
  1

  0
LINE
  5
23E85
330
239AD
100
AcDbEntity
  8
寸法
 62
     0
 48
50.0
370
    -2
100
AcDbLine
 10
10278.6
 20
7121.344574254331
 30
0.0
 11
10278.6
 21
7643.953390924579
 31
0.0
  0
LINE
  5
23E86
330
239AD
100
AcDbEntity
  8
寸法
 62
     0
 48
50.0
370
    -2
100
AcDbLine
 10
9453.600000000006
 20
6691.34457425433
 30
0.0
 11
9453.600000000006
 21
7643.953390924579
 31
0.0
  0
LINE
  5
23E87
330
239AD
100
AcDbEntity
  8
寸法
 62
     0
 48
50.0
370
    -2
100
AcDbLine
 10
10278.6
 20
7583.953390924579
 30
0.0
 11
9453.600000000006
 21
7583.953390924579
 31
0.0
  0
INSERT
  5
23E88
330
239AD
100
AcDbEntity
  8
寸法
 62
     0
 48
50.0
370
    -2
100
AcDbBlockReference
  2
_DOTSMALL
 10
10278.6
 20
7583.953390924579
 30
0.0
 41
100.0
 42
100.0
 43
100.0
  0
INSERT
  5
23E89
330
239AD
100
AcDbEntity
  8
寸法
 62
     0
 48
50.0
370
    -2
100
AcDbBlockReference
  2
_DOTSMALL
 10
9453.600000000006
 20
7583.953390924579
 30
0.0
 41
100.0
 42
100.0
 43
100.0
 50
180.0
  0
MTEXT
  5
23E8A
330
239AD
100
AcDbEntity
  8
寸法
 62
     7
 48
50.0
100
AcDbMText
 10
9866.100000000004
 20
7683.965201948201
 30
0.0
 40
120.0
 41
0.0
 71
     5
 72
     1
  1
\A1;825
  7
STYLE1
 73
     1
 44
1.0
1001
ACAD
1000
MTEXTBEGIN
1070
    73
1070
     1
1070
    44
1040
1.0
1070
    74
1070
     0
1000
MTEXTEND
  0
POINT
  5
23E8B
330
239AD
100
AcDbEntity
  8
DEFPOINTS
 62
     0
 48
50.0
100
AcDbPoint
 10
10278.6
 20
7101.344574254331
 30
0.0
  0
POINT
  5
23E8C
330
239AD
100
AcDbEntity
  8
DEFPOINTS
 62
     0
 48
50.0
100
AcDbPoint
 10
9453.600000000006
 20
6671.344574254331
 30
0.0
  0
POINT
  5
23E8D
330
239AD
100
AcDbEntity
  8
DEFPOINTS
 62
     0
 48
50.0
100
AcDbPoint
 10
9453.600000000006
 20
7583.953390924579
 30
0.0
  0
ENDBLK
  5
239B8
330
239AD
100
AcDbEntity
  8
0
 48
50.0
100
AcDbBlockEnd
  0
BLOCK
  5
239D0
330
239C6
100
AcDbEntity
  8
0
 48
50.0
100
AcDbBlockBegin
  2
*D41
 70
     1
 10
0.0
 20
0.0
 30
0.0
  3
*D41
  1

  0
LINE
  5
23E7C
330
239C6
100
AcDbEntity
  8
寸法
 62
     0
 48
50.0
370
    -2
100
AcDbLine
 10
9453.600000000006
 20
6691.34457425433
 30
0.0
 11
9453.600000000006
 21
7643.953390924579
 31
0.0
  0
LINE
  5
23E7D
330
239C6
100
AcDbEntity
  8
寸法
 62
     0
 48
50.0
370
    -2
100
AcDbLine
 10
8633.600000000008
 20
6691.34457425433
 30
0.0
 11
8633.600000000008
 21
7643.953390924579
 31
0.0
  0
LINE
  5
23E7E
330
239C6
100
AcDbEntity
  8
寸法
 62
     0
 48
50.0
370
    -2
100
AcDbLine
 10
9453.600000000006
 20
7583.953390924579
 30
0.0
 11
8633.600000000008
 21
7583.953390924579
 31
0.0
  0
INSERT
  5
23E7F
330
239C6
100
AcDbEntity
  8
寸法
 62
     0
 48
50.0
370
    -2
100
AcDbBlockReference
  2
_DOTSMALL
 10
9453.600000000006
 20
7583.953390924579
 30
0.0
 41
100.0
 42
100.0
 43
100.0
  0
INSERT
  5
23E80
330
239C6
100
AcDbEntity
  8
寸法
 62
     0
 48
50.0
370
    -2
100
AcDbBlockReference
  2
_DOTSMALL
 10
8633.600000000008
 20
7583.953390924579
 30
0.0
 41
100.0
 42
100.0
 43
100.0
 50
180.0
  0
MTEXT
  5
23E81
330
239C6
100
AcDbEntity
  8
寸法
 62
     7
 48
50.0
100
AcDbMText
 10
9043.600000000008
 20
7683.965201948201
 30
0.0
 40
120.0
 41
0.0
 71
     5
 72
     1
  1
\A1;820
  7
STYLE1
 73
     1
 44
1.0
1001
ACAD
1000
MTEXTBEGIN
1070
    73
1070
     1
1070
    44
1040
1.0
1070
    74
1070
     0
1000
MTEXTEND
  0
POINT
  5
23E82
330
239C6
100
AcDbEntity
  8
DEFPOINTS
 62
     0
 48
50.0
100
AcDbPoint
 10
9453.600000000006
 20
6671.344574254331
 30
0.0
  0
POINT
  5
23E83
330
239C6
100
AcDbEntity
  8
DEFPOINTS
 62
     0
 48
50.0
100
AcDbPoint
 10
8633.600000000008
 20
6671.344574254331
 30
0.0
  0
POINT
  5
23E84
330
239C6
100
AcDbEntity
  8
DEFPOINTS
 62
     0
 48
50.0
100
AcDbPoint
 10
8633.600000000008
 20
7583.953390924579
 30
0.0
  0
ENDBLK
  5
239D1
330
239C6
100
AcDbEntity
  8
0
 48
50.0
100
AcDbBlockEnd
  0
BLOCK
  5
239DD
330
239D2
100
AcDbEntity
  8
0
 48
50.0
100
AcDbBlockBegin
  2
*D42
 70
     1
 10
0.0
 20
0.0
 30
0.0
  3
*D42
  1

  0
LINE
  5
23E72
330
239D2
100
AcDbEntity
  8
寸法
 62
     0
 48
50.0
370
    -2
100
AcDbLine
 10
10278.6
 20
7121.344574254331
 30
0.0
 11
10278.6
 21
7887.611032348242
 31
0.0
  0
LINE
  5
23E73
330
239D2
100
AcDbEntity
  8
寸法
 62
     0
 48
50.0
370
    -2
100
AcDbLine
 10
10155.6
 20
7048.344574254331
 30
0.0
 11
10155.6
 21
7887.611032348242
 31
0.0
  0
LINE
  5
23E74
330
239D2
100
AcDbEntity
  8
寸法
 62
     0
 48
50.0
370
    -2
100
AcDbLine
 10
10155.6
 20
7827.611032348241
 30
0.0
 11
10278.6
 21
7827.611032348241
 31
0.0
  0
LINE
  5
23E75
330
239D2
100
AcDbEntity
  8
寸法
 62
     0
 48
50.0
370
    -2
100
AcDbLine
 10
10278.6
 20
7827.611032348241
 30
0.0
 11
10690.19188309203
 21
7827.611032348241
 31
0.0
  0
INSERT
  5
23E76
330
239D2
100
AcDbEntity
  8
寸法
 62
     0
 48
50.0
370
    -2
100
AcDbBlockReference
  2
_DOTSMALL
 10
10155.6
 20
7827.611032348241
 30
0.0
 41
100.0
 42
100.0
 43
100.0
 50
180.0
  0
INSERT
  5
23E77
330
239D2
100
AcDbEntity
  8
寸法
 62
     0
 48
50.0
370
    -2
100
AcDbBlockReference
  2
_DOTSMALL
 10
10278.6
 20
7827.611032348241
 30
0.0
 41
100.0
 42
100.0
 43
100.0
  0
MTEXT
  5
23E78
330
239D2
100
AcDbEntity
  8
寸法
 62
     7
 48
50.0
100
AcDbMText
 10
10551.7066017178
 20
7927.622843371863
 30
0.0
 40
120.0
 41
0.0
 71
     5
 72
     1
  1
\A1;123
  7
STYLE1
 73
     1
 44
1.0
1001
ACAD
1000
MTEXTBEGIN
1070
    73
1070
     1
1070
    44
1040
1.0
1070
    74
1070
     0
1000
MTEXTEND
  0
POINT
  5
23E79
330
239D2
100
AcDbEntity
  8
DEFPOINTS
 62
     0
 48
50.0
100
AcDbPoint
 10
10278.6
 20
7101.344574254331
 30
0.0
  0
POINT
  5
23E7A
330
239D2
100
AcDbEntity
  8
DEFPOINTS
 62
     0
 48
50.0
100
AcDbPoint
 10
10155.6
 20
7028.34457425433
 30
0.0
  0
POINT
  5
23E7B
330
239D2
100
AcDbEntity
  8
DEFPOINTS
 62
     0
 48
50.0
100
AcDbPoint
 10
10155.6
 20
7827.611032348241
 30
0.0
  0
ENDBLK
  5
239DE
330
239D2
100
AcDbEntity
  8
0
 48
50.0
100
AcDbBlockEnd
  0
BLOCK
  5
245F9
330
245EF
100
AcDbEntity
  8
0
 48
50.0
100
AcDbBlockBegin
  2
*D43
 70
     1
 10
0.0
 20
0.0
 30
0.0
  3
*D43
  1

  0
LINE
  5
24639
330
245EF
100
AcDbEntity
  8
寸法
 62
     0
 48
50.0
370
    -2
100
AcDbLine
 10
5983.759491165492
 20
1214.232347945277
 30
0.0
 11
5983.759491165492
 21
763.802709940117
 31
0.0
  0
LINE
  5
2463A
330
245EF
100
AcDbEntity
  8
寸法
 62
     0
 48
50.0
370
    -2
100
AcDbLine
 10
6431.759491165492
 20
1214.232347945277
 30
0.0
 11
6431.759491165492
 21
763.802709940117
 31
0.0
  0
LINE
  5
2463B
330
245EF
100
AcDbEntity
  8
寸法
 62
     0
 48
50.0
370
    -2
100
AcDbLine
 10
5983.759491165492
 20
823.802709940117
 30
0.0
 11
6431.759491165492
 21
823.802709940117
 31
0.0
  0
INSERT
  5
2463C
330
245EF
100
AcDbEntity
  8
寸法
 62
     0
 48
50.0
370
    -2
100
AcDbBlockReference
  2
_DOTSMALL
 10
5983.759491165492
 20
823.802709940117
 30
0.0
 41
100.0
 42
100.0
 43
100.0
 50
180.0
  0
INSERT
  5
2463D
330
245EF
100
AcDbEntity
  8
寸法
 62
     0
 48
50.0
370
    -2
100
AcDbBlockReference
  2
_DOTSMALL
 10
6431.759491165492
 20
823.802709940117
 30
0.0
 41
100.0
 42
100.0
 43
100.0
  0
MTEXT
  5
2463E
330
245EF
100
AcDbEntity
  8
寸法
 62
     7
 48
50.0
100
AcDbMText
 10
6187.662732487268
 20
923.802709940117
 30
0.0
 40
120.0
 41
0.0
 71
     5
 72
     1
  1
\A1;300
  7
STYLE1
 73
     1
 44
1.0
1001
ACAD
1000
MTEXTBEGIN
1070
    73
1070
     1
1070
    44
1040
1.0
1070
    74
1070
     0
1000
MTEXTEND
  0
POINT
  5
2463F
330
245EF
100
AcDbEntity
  8
DEFPOINTS
 62
     0
 48
50.0
100
AcDbPoint
 10
5983.759491165492
 20
1234.232347945277
 30
0.0
  0
POINT
  5
24640
330
245EF
100
AcDbEntity
  8
DEFPOINTS
 62
     0
 48
50.0
100
AcDbPoint
 10
6431.759491165492
 20
1234.232347945277
 30
0.0
  0
POINT
  5
24641
330
245EF
100
AcDbEntity
  8
DEFPOINTS
 62
     0
 48
50.0
100
AcDbPoint
 10
6431.759491165492
 20
823.802709940117
 30
0.0
  0
ENDBLK
  5
245FA
330
245EF
100
AcDbEntity
  8
0
 48
50.0
100
AcDbBlockEnd
  0
BLOCK
  5
24605
330
245FB
100
AcDbEntity
  8
0
 48
50.0
100
AcDbBlockBegin
  2
*D44
 70
     1
 10
0.0
 20
0.0
 30
0.0
  3
*D44
  1

  0
LINE
  5
24642
330
245FB
100
AcDbEntity
  8
寸法
 62
     0
 48
50.0
370
    -2
100
AcDbLine
 10
6091.759491165491
 20
2146.232347945277
 30
0.0
 11
5316.722252603752
 21
2146.232347945277
 31
0.0
  0
LINE
  5
24643
330
245FB
100
AcDbEntity
  8
寸法
 62
     0
 48
50.0
370
    -2
100
AcDbLine
 10
5883.759491165495
 20
1362.232347945277
 30
0.0
 11
5316.722252603751
 21
1362.232347945277
 31
0.0
  0
LINE
  5
24644
330
245FB
100
AcDbEntity
  8
寸法
 62
     0
 48
50.0
370
    -2
100
AcDbLine
 10
5376.722252603752
 20
2146.232347945277
 30
0.0
 11
5376.722252603752
 21
1362.232347945277
 31
0.0
  0
INSERT
  5
24645
330
245FB
100
AcDbEntity
  8
寸法
 62
     0
 48
50.0
370
    -2
100
AcDbBlockReference
  2
_DOTSMALL
 10
5376.722252603752
 20
2146.232347945277
 30
0.0
 41
100.0
 42
100.0
 43
100.0
 50
90.0
  0
INSERT
  5
24646
330
245FB
100
AcDbEntity
  8
寸法
 62
     0
 48
50.0
370
    -2
100
AcDbBlockReference
  2
_DOTSMALL
 10
5376.722252603752
 20
1362.232347945277
 30
0.0
 41
100.0
 42
100.0
 43
100.0
 50
270.0
  0
MTEXT
  5
24647
330
245FB
100
AcDbEntity
  8
寸法
 62
     7
 48
50.0
100
AcDbMText
 10
5276.722252603751
 20
1733.772497601278
 30
0.0
 40
120.0
 41
0.0
 71
     5
 72
     1
  1
\A1;540
  7
STYLE1
 11
0.0000000000000001
 21
1.0
 31
0.0
 73
     1
 44
1.0
1001
ACAD
1000
MTEXTBEGIN
1070
    73
1070
     1
1070
    44
1040
1.0
1070
    74
1070
     0
1000
MTEXTEND
  0
POINT
  5
24648
330
245FB
100
AcDbEntity
  8
DEFPOINTS
 62
     0
 48
50.0
100
AcDbPoint
 10
6111.759491165492
 20
2146.232347945277
 30
0.0
  0
POINT
  5
24649
330
245FB
100
AcDbEntity
  8
DEFPOINTS
 62
     0
 48
50.0
100
AcDbPoint
 10
5903.759491165494
 20
1362.232347945277
 30
0.0
  0
POINT
  5
2464A
330
245FB
100
AcDbEntity
  8
DEFPOINTS
 62
     0
 48
50.0
100
AcDbPoint
 10
5376.722252603752
 20
1362.232347945277
 30
0.0
  0
ENDBLK
  5
24606
330
245FB
100
AcDbEntity
  8
0
 48
50.0
100
AcDbBlockEnd
  0
BLOCK
  5
24611
330
24607
100
AcDbEntity
  8
0
 48
50.0
100
AcDbBlockBegin
  2
*D45
 70
     1
 10
0.0
 20
0.0
 30
0.0
  3
*D45
  1

  0
LINE
  5
2464B
330
24607
100
AcDbEntity
  8
寸法
 62
     0
 48
50.0
370
    -2
100
AcDbLine
 10
5963.759491165491
 20
1602.232347945277
 30
0.0
 11
5781.339177433032
 21
1602.232347945277
 31
0.0
  0
LINE
  5
2464C
330
24607
100
AcDbEntity
  8
寸法
 62
     0
 48
50.0
370
    -2
100
AcDbLine
 10
5883.759491165495
 20
1362.232347945277
 30
0.0
 11
5781.339177433032
 21
1362.232347945277
 31
0.0
  0
LINE
  5
2464D
330
24607
100
AcDbEntity
  8
寸法
 62
     0
 48
50.0
370
    -2
100
AcDbLine
 10
5841.339177433032
 20
1602.232347945277
 30
0.0
 11
5841.339177433032
 21
1362.232347945277
 31
0.0
  0
INSERT
  5
2464E
330
24607
100
AcDbEntity
  8
寸法
 62
     0
 48
50.0
370
    -2
100
AcDbBlockReference
  2
_DOTSMALL
 10
5841.339177433032
 20
1602.232347945277
 30
0.0
 41
100.0
 42
100.0
 43
100.0
 50
90.0
  0
INSERT
  5
2464F
330
24607
100
AcDbEntity
  8
寸法
 62
     0
 48
50.0
370
    -2
100
AcDbBlockReference
  2
_DOTSMALL
 10
5841.339177433032
 20
1362.232347945277
 30
0.0
 41
100.0
 42
100.0
 43
100.0
 50
270.0
  0
MTEXT
  5
24650
330
24607
100
AcDbEntity
  8
寸法
 62
     7
 48
50.0
100
AcDbMText
 10
5741.339177433032
 20
1482.232347945278
 30
0.0
 40
120.0
 41
0.0
 71
     5
 72
     1
  1
\A1;150
  7
STYLE1
 11
0.0000000000000001
 21
1.0
 31
0.0
 73
     1
 44
1.0
1001
ACAD
1000
MTEXTBEGIN
1070
    73
1070
     1
1070
    44
1040
1.0
1070
    74
1070
     0
1000
MTEXTEND
  0
POINT
  5
24651
330
24607
100
AcDbEntity
  8
DEFPOINTS
 62
     0
 48
50.0
100
AcDbPoint
 10
5983.759491165492
 20
1602.232347945277
 30
0.0
  0
POINT
  5
24652
330
24607
100
AcDbEntity
  8
DEFPOINTS
 62
     0
 48
50.0
100
AcDbPoint
 10
5903.759491165494
 20
1362.232347945277
 30
0.0
  0
POINT
  5
24653
330
24607
100
AcDbEntity
  8
DEFPOINTS
 62
     0
 48
50.0
100
AcDbPoint
 10
5841.339177433032
 20
1362.232347945277
 30
0.0
  0
ENDBLK
  5
24612
330
24607
100
AcDbEntity
  8
0
 48
50.0
100
AcDbBlockEnd
  0
BLOCK
  5
2461F
330
24613
100
AcDbEntity
  8
0
 48
50.0
100
AcDbBlockBegin
  2
*D46
 70
     1
 10
0.0
 20
0.0
 30
0.0
  3
*D46
  1

  0
LINE
  5
24654
330
24613
100
AcDbEntity
  8
寸法
 62
     0
 48
50.0
370
    -2
100
AcDbLine
 10
8058.598804342686
 20
2198.992347945278
 30
0.0
 11
9063.722070230557
 21
2198.992347945278
 31
0.0
  0
LINE
  5
24655
330
24613
100
AcDbEntity
  8
寸法
 62
     0
 48
50.0
370
    -2
100
AcDbLine
 10
8245.798804342685
 20
2146.232347945277
 30
0.0
 11
9063.722070230557
 21
2146.232347945277
 31
0.0
  0
LINE
  5
24656
330
24613
100
AcDbEntity
  8
寸法
 62
     0
 48
50.0
370
    -2
100
AcDbLine
 10
9003.722070230557
 20
2198.992347945278
 30
0.0
 11
9003.722070230557
 21
2298.992347945278
 31
0.0
  0
LINE
  5
24657
330
24613
100
AcDbEntity
  8
寸法
 62
     0
 48
50.0
370
    -2
100
AcDbLine
 10
9003.722070230557
 20
2146.232347945277
 30
0.0
 11
9003.722070230557
 21
1414.21454110231
 31
0.0
  0
LINE
  5
24658
330
24613
100
AcDbEntity
  8
寸法
 62
     0
 48
50.0
370
    -2
100
AcDbLine
 10
9003.722070230557
 20
2198.992347945278
 30
0.0
 11
9003.722070230557
 21
2146.232347945277
 31
0.0
  0
INSERT
  5
24659
330
24613
100
AcDbEntity
  8
寸法
 62
     0
 48
50.0
370
    -2
100
AcDbBlockReference
  2
_DOTSMALL
 10
9003.722070230557
 20
2198.992347945278
 30
0.0
 41
100.0
 42
100.0
 43
100.0
 50
270.0
  0
INSERT
  5
2465A
330
24613
100
AcDbEntity
  8
寸法
 62
     0
 48
50.0
370
    -2
100
AcDbBlockReference
  2
_DOTSMALL
 10
9003.722070230557
 20
2146.232347945277
 30
0.0
 41
100.0
 42
100.0
 43
100.0
 50
90.0
  0
MTEXT
  5
2465B
330
24613
100
AcDbEntity
  8
寸法
 62
     7
 48
50.0
100
AcDbMText
 10
8903.710259206935
 20
1680.223444523794
 30
0.0
 40
120.0
 41
0.0
 71
     5
 72
     1
  1
\A1;20～25
  7
STYLE1
 11
0.0000000000000001
 21
1.0
 31
0.0
 73
     1
 44
1.0
1001
ACAD
1000
MTEXTBEGIN
1070
    73
1070
     1
1070
    44
1040
1.0
1070
    74
1070
     0
1000
MTEXTEND
  0
POINT
  5
2465C
330
24613
100
AcDbEntity
  8
DEFPOINTS
 62
     0
 48
50.0
100
AcDbPoint
 10
8038.598804342687
 20
2198.992347945278
 30
0.0
  0
POINT
  5
2465D
330
24613
100
AcDbEntity
  8
DEFPOINTS
 62
     0
 48
50.0
100
AcDbPoint
 10
8225.798804342685
 20
2146.232347945277
 30
0.0
  0
POINT
  5
2465E
330
24613
100
AcDbEntity
  8
DEFPOINTS
 62
     0
 48
50.0
100
AcDbPoint
 10
9003.722070230557
 20
2146.232347945277
 30
0.0
  0
ENDBLK
  5
24620
330
24613
100
AcDbEntity
  8
0
 48
50.0
100
AcDbBlockEnd
  0
BLOCK
  5
2462B
330
24621
100
AcDbEntity
  8
0
 48
50.0
100
AcDbBlockBegin
  2
*D47
 70
     1
 10
0.0
 20
0.0
 30
0.0
  3
*D47
  1

  0
LINE
  5
2465F
330
24621
100
AcDbEntity
  8
寸法
 62
     0
 48
50.0
370
    -2
100
AcDbLine
 10
8245.798804342685
 20
2146.232347945277
 30
0.0
 11
8787.667404111529
 21
2146.232347945277
 31
0.0
  0
LINE
  5
24660
330
24621
100
AcDbEntity
  8
寸法
 62
     0
 48
50.0
370
    -2
100
AcDbLine
 10
8245.798804342685
 20
1822.232347945276
 30
0.0
 11
8787.667404111529
 21
1822.232347945276
 31
0.0
  0
LINE
  5
24661
330
24621
100
AcDbEntity
  8
寸法
 62
     0
 48
50.0
370
    -2
100
AcDbLine
 10
8727.66740411153
 20
2146.232347945277
 30
0.0
 11
8727.66740411153
 21
1822.232347945276
 31
0.0
  0
INSERT
  5
24662
330
24621
100
AcDbEntity
  8
寸法
 62
     0
 48
50.0
370
    -2
100
AcDbBlockReference
  2
_DOTSMALL
 10
8727.66740411153
 20
2146.232347945277
 30
0.0
 41
100.0
 42
100.0
 43
100.0
 50
90.0
  0
INSERT
  5
24663
330
24621
100
AcDbEntity
  8
寸法
 62
     0
 48
50.0
370
    -2
100
AcDbBlockReference
  2
_DOTSMALL
 10
8727.66740411153
 20
1822.232347945276
 30
0.0
 41
100.0
 42
100.0
 43
100.0
 50
270.0
  0
MTEXT
  5
24664
330
24621
100
AcDbEntity
  8
寸法
 62
     7
 48
50.0
100
AcDbMText
 10
8627.66740411153
 20
1984.232347945278
 30
0.0
 40
120.0
 41
0.0
 71
     5
 72
     1
  1
\A1;180
  7
STYLE1
 11
0.0000000000000001
 21
1.0
 31
0.0
 73
     1
 44
1.0
1001
ACAD
1000
MTEXTBEGIN
1070
    73
1070
     1
1070
    44
1040
1.0
1070
    74
1070
     0
1000
MTEXTEND
  0
POINT
  5
24665
330
24621
100
AcDbEntity
  8
DEFPOINTS
 62
     0
 48
50.0
100
AcDbPoint
 10
8225.798804342685
 20
2146.232347945277
 30
0.0
  0
POINT
  5
24666
330
24621
100
AcDbEntity
  8
DEFPOINTS
 62
     0
 48
50.0
100
AcDbPoint
 10
8225.798804342685
 20
1822.232347945276
 30
0.0
  0
POINT
  5
24667
330
24621
100
AcDbEntity
  8
DEFPOINTS
 62
     0
 48
50.0
100
AcDbPoint
 10
8727.66740411153
 20
1822.232347945276
 30
0.0
  0
ENDBLK
  5
2462C
330
24621
100
AcDbEntity
  8
0
 48
50.0
100
AcDbBlockEnd
  0
BLOCK
  5
24637
330
2462D
100
AcDbEntity
  8
0
 48
50.0
100
AcDbBlockBegin
  2
*D48
 70
     1
 10
0.0
 20
0.0
 30
0.0
  3
*D48
  1

  0
LINE
  5
24668
330
2462D
100
AcDbEntity
  8
寸法
 62
     0
 48
50.0
370
    -2
100
AcDbLine
 10
6303.759491165491
 20
2166.232347945277
 30
0.0
 11
6303.759491165491
 21
2625.900155861657
 31
0.0
  0
LINE
  5
24669
330
2462D
100
AcDbEntity
  8
寸法
 62
     0
 48
50.0
370
    -2
100
AcDbLine
 10
6111.759491165492
 20
2166.232347945277
 30
0.0
 11
6111.759491165492
 21
2625.900155861657
 31
0.0
  0
LINE
  5
2466A
330
2462D
100
AcDbEntity
  8
寸法
 62
     0
 48
50.0
370
    -2
100
AcDbLine
 10
6303.759491165491
 20
2565.900155861657
 30
0.0
 11
6111.759491165492
 21
2565.900155861657
 31
0.0
  0
INSERT
  5
2466B
330
2462D
100
AcDbEntity
  8
寸法
 62
     0
 48
50.0
370
    -2
100
AcDbBlockReference
  2
_DOTSMALL
 10
6303.759491165491
 20
2565.900155861657
 30
0.0
 41
100.0
 42
100.0
 43
100.0
  0
INSERT
  5
2466C
330
2462D
100
AcDbEntity
  8
寸法
 62
     0
 48
50.0
370
    -2
100
AcDbBlockReference
  2
_DOTSMALL
 10
6111.759491165492
 20
2565.900155861657
 30
0.0
 41
100.0
 42
100.0
 43
100.0
 50
180.0
  0
MTEXT
  5
2466D
330
2462D
100
AcDbEntity
  8
寸法
 62
     7
 48
50.0
100
AcDbMText
 10
6207.759491165491
 20
2865.935588932524
 30
0.0
 40
120.0
 41
0.0
 71
     5
 72
     1
  1
\A1;120\P200\P280
  7
STYLE1
 73
     1
 44
1.0
1001
ACAD
1000
MTEXTBEGIN
1070
    73
1070
     1
1070
    44
1040
1.0
1070
    74
1070
     0
1000
MTEXTEND
  0
POINT
  5
2466E
330
2462D
100
AcDbEntity
  8
DEFPOINTS
 62
     0
 48
50.0
100
AcDbPoint
 10
6303.759491165491
 20
2146.232347945277
 30
0.0
  0
POINT
  5
2466F
330
2462D
100
AcDbEntity
  8
DEFPOINTS
 62
     0
 48
50.0
100
AcDbPoint
 10
6111.759491165492
 20
2146.232347945277
 30
0.0
  0
POINT
  5
24670
330
2462D
100
AcDbEntity
  8
DEFPOINTS
 62
     0
 48
50.0
100
AcDbPoint
 10
6111.759491165492
 20
2565.900155861657
 30
0.0
  0
ENDBLK
  5
24638
330
2462D
100
AcDbEntity
  8
0
 48
50.0
100
AcDbBlockEnd
  0
ENDSEC
  0
SECTION
  2
ENTITIES
  0
MTEXT
  5
763F
330
747D
100
AcDbEntity
  8
0
100
AcDbMText
 10
302.846345836809
 20
280.1983726409901
 30
0.0
 40
3.5
 41
5.323721266742722
 71
     1
 72
     5
  1

  7
MSMINCHO
 73
     1
 44
1.0
1001
ACAD
1000
MTEXTBEGIN
1070
    73
1070
     1
1070
    44
1040
1.0
1070
    74
1070
     0
1000
MTEXTEND
  0
LINE
  5
10B57
330
747D
100
AcDbEntity
  8
補助
  6
PHANTOM
 62
   230
 48
50.0
100
AcDbLine
 10
139.9999999999995
 20
11409.6
 30
0.0
 11
16307.2
 21
11409.6
 31
0.0
  0
LINE
  5
10B59
330
747D
100
AcDbEntity
  8
仕様書枠
  6
Continuous
 48
50.0
100
AcDbLine
 10
13107.2
 20
1200.0
 30
0.0
 11
13107.2
 21
-0.0000000000000729
 31
0.0
  0
LINE
  5
10B5D
330
747D
100
AcDbEntity
  8
仕様書枠
 48
50.0
100
AcDbLine
 10
140.0
 20
0.0
 30
0.0
 11
16307.2
 21
-0.0000000000000909
 31
0.0
  0
LINE
  5
10B5E
330
747D
100
AcDbEntity
  8
補助
  6
PHANTOM
 62
   230
 48
50.0
100
AcDbLine
 10
16307.2
 20
11409.6
 30
0.0
 11
16307.2
 21
1200.0
 31
0.0
  0
LINE
  5
10B6C
330
747D
100
AcDbEntity
  8
仕様書枠
 48
50.0
100
AcDbLine
 10
13107.2
 20
1200.0
 30
0.0
 11
16307.2
 21
1200.0
 31
0.0
  0
TEXT
  5
10B73
330
747D
100
AcDbEntity
  8
文字
 62
     7
 48
50.0
100
AcDbText
 10
13162.9790565769
 20
895.0906074299405
 30
0.0
 40
200.0
  1
基 礎 図
  7
STYLE2
100
AcDbText
  0
LINE
  5
10B7B
330
747D
100
AcDbEntity
  8
仕様書枠
 48
50.0
100
AcDbLine
 10
13107.2
 20
800.0
 30
0.0
 11
14251.2
 21
800.0
 31
0.0
  0
LINE
  5
10B88
330
747D
100
AcDbEntity
  8
仕様書枠
  6
Continuous
 48
50.0
100
AcDbLine
 10
14251.2
 20
1200.0
 30
0.0
 11
14251.2
 21
800.0
 31
0.0
  0
LINE
  5
16462
330
747D
100
AcDbEntity
  8
仕様書枠
 48
50.0
100
AcDbLine
 10
16307.2
 20
1200.0
 30
0.0
 11
16307.2
 21
-0.0000000000000909
 31
0.0
  0
LINE
  5
1903B
330
747D
100
AcDbEntity
  8
補助
  6
PHANTOM
 62
   230
 48
50.0
100
AcDbLine
 10
140.0
 20
0.0
 30
0.0
 11
139.9999999999995
 21
11409.6
 31
0.0
  0
LEADER
  5
1AC27
330
747D
100
AcDbEntity
  8
寸法
 48
50.0
100
AcDbLeader
  3
INABA_S50G
 73
     0
 74
     0
 75
     1
 40
120.0
 41
720.0000000000001
 76
     3
 10
10278.69549961499
 20
6705.448025441508
 30
0.0
 10
10435.46907400128
 20
6444.434111873675
 30
0.0
 10
10560.46907400128
 20
6444.434111873675
 30
0.0
340
1AC28
1001
ACAD
1000
DSTYLE
1002
{
1070
   341
1005
0
1070
    40
1040
1.0
1070
   343
1005
0
1070
   344
1005
0
1002
}
  0
MTEXT
  5
1AC28
102
{ACAD_REACTORS
330
1AC27
102
}
330
747D
100
AcDbEntity
  8
部品1
 62
     7
 48
50.0
100
AcDbMText
 10
11305.46907400128
 20
6529.434111873675
 30
0.0
 40
120.0
 41
0.0
 71
     6
 72
     1
  1
\A1;床下換気口
  7
STYLE1
 73
     1
 44
1.0
1001
ACAD
1000
MTEXTBEGIN
1070
    73
1070
     1
1070
    44
1040
1.0
1070
    74
1070
     0
1000
MTEXTEND
  0
TEXT
  5
1AC29
330
747D
100
AcDbEntity
  8
部品1
 48
50.0
100
AcDbText
 10
10627.43013846118
 20
5866.253672917549
 30
0.0
 40
80.0
  1
(a=45,b=55,c=75)
  7
STYLE1
100
AcDbText
  0
TEXT
  5
1AC2A
330
747D
100
AcDbEntity
  8
部品1
 48
50.0
100
AcDbText
 10
10468.85112970687
 20
5973.098893786303
 30
0.0
 40
80.0
  1
※a,b,cは屋根の出幅です。
  7
STYLE1
100
AcDbText
  0
MTEXT
  5
1AC2B
102
{ACAD_REACTORS
330
1AC2C
102
}
330
747D
100
AcDbEntity
  8
部品1
 62
     7
 48
50.0
100
AcDbMText
 10
11266.63832569548
 20
6152.409580719378
 30
0.0
 40
120.0
 41
0.0
 71
     6
 72
     1
  1
\A1;屋根の外寸
  7
STYLE1
 73
     1
 44
1.0
1001
ACAD
1000
MTEXTBEGIN
1070
    73
1070
     1
1070
    44
1040
1.0
1070
    74
1070
     0
1000
MTEXTEND
  0
LEADER
  5
1AC2C
330
747D
100
AcDbEntity
  8
寸法
 48
50.0
100
AcDbLeader
  3
INABA_S50G
 73
     0
 74
     0
 75
     1
 40
120.0
 41
672.0
 76
     3
 10
10328.69831350344
 20
6326.298924182953
 30
0.0
 10
10444.63832569548
 20
6067.409580719377
 30
0.0
 10
10569.63832569548
 20
6067.409580719377
 30
0.0
340
1AC2B
1001
ACAD
1000
DSTYLE
1002
{
1070
   341
1005
0
1070
    40
1040
1.0
1070
   343
1005
0
1070
   344
1005
0
1002
}
  0
TEXT
  5
1C7A1
330
747D
100
AcDbEntity
  8
文字
 62
     7
 48
50.0
100
AcDbText
 10
13188.16259899338
 20
79.80631269190417
 30
0.0
 40
80.0
  1
※布基礎には換気口を設けてください。
  7
STYLE2
100
AcDbText
  0
TEXT
  5
1C7E7
330
747D
100
AcDbEntity
  8
文字
 62
     7
 48
50.0
100
AcDbText
 10
13188.16259899338
 20
246.7109242801889
 30
0.0
 40
80.0
  1
※寒冷地等は地域の実情に合わせた基礎にして下さい。
  7
STYLE2
100
AcDbText
  0
TEXT
  5
1C7E8
330
747D
100
AcDbEntity
  8
文字
 62
     7
 48
50.0
100
AcDbText
 10
14325.79230300687
 20
499.5983841039506
 30
0.0
 40
160.0
  1
ＮＸＮ－０８ＤＬ－５
  7
STYLE2
100
AcDbText
  0
TEXT
  5
1C7EC
330
747D
100
AcDbEntity
  8
文字
 62
     7
 48
50.0
100
AcDbText
 10
14524.131837222
 20
1031.557706291229
 30
0.0
 40
100.0
  1
<縮尺> S=1/40
  7
STYLE2
100
AcDbText
  0
TEXT
  5
1C7ED
330
747D
100
AcDbEntity
  8
文字
 62
     7
 48
50.0
100
AcDbText
 10
13201.43669998441
 20
477.2740661031257
 30
0.0
 40
160.0
  1
機種名
  7
STYLE2
100
AcDbText
  0
LINE
  5
1C7EF
330
747D
100
AcDbEntity
  8
文字
 62
     7
 48
50.0
100
AcDbLine
 10
13187.2
 20
400.0
 30
0.0
 11
16227.2
 21
400.0
 31
0.0
  0
MTEXT
  5
1D2D5
102
{ACAD_REACTORS
330
1D2D6
102
}
330
747D
100
AcDbEntity
  8
部品1
 62
     7
 48
50.0
100
AcDbMText
 10
11473.99523070988
 20
7416.957318496845
 30
0.0
 40
120.0
 41
0.0
 71
     6
 72
     1
  1
アンカーボルト
  7
STYLE1
 73
     1
 44
1.0
1001
ACAD
1000
MTEXTBEGIN
1070
    73
1070
     1
1070
    44
1040
1.0
1070
    74
1070
     0
1000
MTEXTEND
  0
LEADER
  5
1D2D6
330
747D
100
AcDbEntity
  8
寸法
 48
50.0
100
AcDbLeader
  3
INABA_S50G
 73
     0
 74
     0
 75
     1
 40
120.0
 41
994.3492424049171
 76
     3
 10
10155.680085757
 20
6978.552418613048
 30
0.0
 10
10329.64598830496
 20
7331.957318496846
 30
0.0
 10
10454.64598830496
 20
7331.957318496846
 30
0.0
340
1D2D5
1001
ACAD
1000
DSTYLE
1002
{
1070
   341
1005
0
1070
    40
1040
1.0
1070
   343
1005
0
1070
   344
1005
0
1002
}
  0
MTEXT
  5
1D332
102
{ACAD_REACTORS
330
1D333
102
}
330
747D
100
AcDbEntity
  8
部品1
 62
     7
 48
50.0
100
AcDbMText
 10
9968.828697015695
 20
6542.849933935025
 30
0.0
 40
120.0
 41
0.0
 71
     6
 72
     1
  1
CB
  7
STYLE1
 73
     1
 44
1.0
1001
ACAD
1000
MTEXTBEGIN
1070
    73
1070
     1
1070
    44
1040
1.0
1070
    74
1070
     0
1000
MTEXTEND
  0
LEADER
  5
1D333
330
747D
100
AcDbEntity
  8
寸法
 48
50.0
100
AcDbLeader
  3
INABA_S50G
 73
     0
 74
     0
 75
     1
 40
120.0
 41
149.591883092037
 76
     3
 10
9541.954011061013
 20
6680.568247489851
 30
0.0
 10
9669.236813923658
 20
6457.849933935026
 30
0.0
 10
9794.236813923658
 20
6457.849933935026
 30
0.0
340
1D332
1001
ACAD
1000
DSTYLE
1002
{
1070
   341
1005
0
1070
    40
1040
1.0
1070
   343
1005
0
1070
   344
1005
0
1002
}
  0
DIMENSION
  5
20DE1
330
747D
100
AcDbEntity
  8
寸法
 48
50.0
100
AcDbDimension
  2
*D19
 10
10323.6
 20
8059.564896313249
 30
0.0
 11
10594.77462120246
 21
8059.564896313249
 31
0.0
 70
   160
  1
a
 71
     5
 42
45.0
  3
INABA_S40G
100
AcDbAlignedDimension
 13
10278.6
 23
7101.344574254326
 33
0.0
 14
10323.6
 24
7827.611032348238
 34
0.0
100
AcDbRotatedDimension
1001
ACAD
1000
DSTYLE
1002
{
1070
   341
1005
0
1002
}
  0
DIMENSION
  5
20DFB
330
747D
100
AcDbEntity
  8
寸法
 48
50.0
100
AcDbDimension
  2
*D20
 10
6168.600000000001
 20
8059.564896313249
 30
0.0
 11
5852.425378797541
 21
8059.564896313249
 31
0.0
 70
   160
  1
a
 71
     5
 42
44.99999999999636
  3
INABA_S40G
100
AcDbAlignedDimension
 13
6123.600000000004
 23
7827.61103234824
 33
0.0
 14
6168.600000000001
 24
7101.344574254326
 34
0.0
100
AcDbRotatedDimension
1001
ACAD
1000
DSTYLE
1002
{
1070
   341
1005
0
1002
}
  0
LINE
  5
22711
330
747D
100
AcDbEntity
  8
想像線
 48
10.0
100
AcDbLine
 10
10323.6
 20
7176.34457425434
 30
0.0
 11
6123.600000000011
 21
7176.344574254352
 31
0.0
  0
LINE
  5
22712
330
747D
100
AcDbEntity
  8
想像線
 48
10.0
100
AcDbLine
 10
6123.60000000001
 20
6086.344574254322
 30
0.0
 11
6123.600000000011
 21
7176.344574254352
 31
0.0
  0
LINE
  5
22713
330
747D
100
AcDbEntity
  8
想像線
 48
10.0
100
AcDbLine
 10
10323.6
 20
6086.344574254331
 30
0.0
 11
10323.6
 21
7176.34457425434
 31
0.0
  0
LINE
  5
22714
330
747D
100
AcDbEntity
  8
想像線
 48
10.0
100
AcDbLine
 10
10323.6
 20
6086.344574254331
 30
0.0
 11
6123.60000000001
 21
6086.344574254322
 31
0.0
  0
DIMENSION
  5
22741
330
747D
100
AcDbEntity
  8
寸法
 48
50.0
100
AcDbDimension
  2
*D21
 10
5293.721909610673
 20
7101.34457425434
 30
0.0
 11
5193.721909610671
 21
7138.844574254342
 31
0.0
 70
    32
  1
c
 71
     5
 42
75.00000000000364
  3
INABA_S40G
100
AcDbAlignedDimension
 13
5545.665006330069
 23
7176.344574254343
 33
0.0
 14
6035.156977762462
 24
7101.34457425434
 34
0.0
 50
90.0
100
AcDbRotatedDimension
1001
ACAD
1000
DSTYLE
1002
{
1070
   341
1005
0
1002
}
  0
DIMENSION
  5
2275B
330
747D
100
AcDbEntity
  8
寸法
 48
50.0
100
AcDbDimension
  2
*D22
 10
5293.721909610673
 20
6086.344574254351
 30
0.0
 11
5193.721909610673
 21
6113.844574254341
 31
0.0
 70
    32
  1
b
 71
     5
 42
54.99999999997817
  3
INABA_S40G
100
AcDbAlignedDimension
 13
6041.607272343892
 23
6141.344574254329
 33
0.0
 14
5545.665006330072
 24
6086.344574254351
 34
0.0
 50
90.0
100
AcDbRotatedDimension
1001
ACAD
1000
DSTYLE
1002
{
1070
   341
1005
0
1002
}
  0
DIMENSION
  5
22A76
330
747D
100
AcDbEntity
  8
寸法
 48
50.0
100
AcDbDimension
  2
*D23
 10
9681.821389011624
 20
6141.344574254349
 30
0.0
 11
9681.821389011624
 21
5854.380991577184
 31
0.0
 70
   160
 71
     5
 42
280.00000000001
  3
INABA_S40G
100
AcDbAlignedDimension
 13
9835.095400711711
 23
6421.34457425436
 33
0.0
 14
9651.419106515957
 24
6141.344574254349
 34
0.0
 50
90.0
100
AcDbRotatedDimension
1001
ACAD
1000
DSTYLE
1002
{
1070
   341
1005
0
1002
}
  0
DIMENSION
  5
22A81
330
747D
100
AcDbEntity
  8
寸法
 48
50.0
100
AcDbDimension
  2
*D24
 10
9681.821389011625
 20
6901.344574254242
 30
0.0
 11
9681.821389011624
 21
7388.308156931493
 31
0.0
 70
   160
 71
     5
 42
200.0000000000855
  3
INABA_S40G
100
AcDbAlignedDimension
 13
9675.85634570468
 23
7101.344574254326
 33
0.0
 14
9615.601663693048
 24
6901.344574254242
 34
0.0
 50
90.0
100
AcDbRotatedDimension
1001
ACAD
1000
DSTYLE
1002
{
1070
   341
1005
0
1002
}
  0
DIMENSION
  5
22A98
330
747D
100
AcDbEntity
  8
寸法
 48
50.0
100
AcDbDimension
  2
*D25
 10
10158.6
 20
6825.736242809556
 30
0.0
 11
10562.80965982965
 21
6825.736242809556
 31
0.0
 70
   160
 71
     5
 42
120.0
  3
INABA_S40G
100
AcDbAlignedDimension
 13
10278.6
 23
6746.344574254348
 33
0.0
 14
10158.6
 24
6746.344574254367
 34
0.0
100
AcDbRotatedDimension
1001
ACAD
1000
DSTYLE
1002
{
1070
   341
1005
0
1002
}
  0
DIMENSION
  5
237F5
330
747D
100
AcDbEntity
  8
寸法
 48
50.0
100
AcDbDimension
  2
*D26
 10
7813.600000000008
 20
7583.953390924579
 30
0.0
 11
8223.600000000008
 21
7683.965201948201
 31
0.0
 70
    32
 71
     5
 42
820.0
  3
INABA_S40G
100
AcDbAlignedDimension
 13
8633.600000000008
 23
6671.344574254331
 33
0.0
 14
7813.600000000008
 24
6671.344574254331
 34
0.0
100
AcDbRotatedDimension
1001
ACAD
1000
DSTYLE
1002
{
1070
   341
1005
0
1002
}
  0
LINE
  5
237F6
330
747D
100
AcDbEntity
  8
部品1
 48
50.0
100
AcDbLine
 10
6288.599999999997
 20
6901.344574254342
 30
0.0
 11
10158.6
 21
6901.344574254126
 31
0.0
  0
DIMENSION
  5
237F8
330
747D
100
AcDbEntity
  8
寸法
 48
50.0
100
AcDbDimension
  2
*D27
 10
7695.6
 20
7827.611032348241
 30
0.0
 11
8925.600000000001
 21
7927.622843371863
 31
0.0
 70
    32
 71
     5
 42
2460.0
  3
INABA_S40G
100
AcDbAlignedDimension
 13
10155.6
 23
7028.34457425433
 33
0.0
 14
7695.6
 24
7028.34457425433
 34
0.0
100
AcDbRotatedDimension
1001
ACAD
1000
DSTYLE
1002
{
1070
   341
1005
0
1002
}
  0
LINE
  5
237FA
330
747D
100
AcDbEntity
  8
部品1
 48
50.0
100
AcDbLine
 10
10278.6
 20
7101.344574254331
 30
0.0
 11
6168.600000000001
 21
7101.344574254331
 31
0.0
  0
DIMENSION
  5
237FB
330
747D
100
AcDbEntity
  8
寸法
 48
50.0
100
AcDbDimension
  2
*D28
 10
10278.6
 20
8059.564896313249
 30
0.0
 11
8223.600000000001
 21
8159.564896313248
 31
0.0
 70
    32
 71
     5
 42
4110.0
  3
INABA_S40G
100
AcDbAlignedDimension
 13
6168.600000000001
 23
7101.344574254331
 33
0.0
 14
10278.6
 24
7101.344574254331
 34
0.0
100
AcDbRotatedDimension
1001
ACAD
1000
DSTYLE
1002
{
1070
   341
1005
0
1002
}
  0
LINE
  5
237FD
330
747D
100
AcDbEntity
  8
部品1
 48
50.0
100
AcDbLine
 10
10278.6
 20
6141.344574254349
 30
0.0
 11
6168.599999999997
 21
6141.344574254327
 31
0.0
  0
DIMENSION
  5
237FE
330
747D
100
AcDbEntity
  8
寸法
 48
50.0
100
AcDbDimension
  2
*D29
 10
6651.285990614302
 20
7101.344574254331
 30
0.0
 11
6651.285990614301
 21
7393.903629372442
 31
0.0
 70
   160
 71
     5
 42
480.0
  3
INABA_S40G
100
AcDbAlignedDimension
 13
6943.600000000007
 23
6621.344574254331
 33
0.0
 14
6742.765475140901
 24
7101.344574254331
 34
0.0
 50
90.0
100
AcDbRotatedDimension
1001
ACAD
1000
DSTYLE
1002
{
1070
   341
1005
0
1002
}
  0
DIMENSION
  5
237FF
330
747D
100
AcDbEntity
  8
寸法
 48
50.0
100
AcDbDimension
  2
*D30
 10
6168.600000000001
 20
7583.953390924579
 30
0.0
 11
6581.100000000003
 21
7683.965201948201
 31
0.0
 70
    32
 71
     5
 42
825.0000000000072
  3
INABA_S40G
100
AcDbAlignedDimension
 13
6993.600000000007
 23
6671.344574254331
 33
0.0
 14
6168.600000000001
 24
7101.344574254331
 34
0.0
100
AcDbRotatedDimension
1001
ACAD
1000
DSTYLE
1002
{
1070
   341
1005
0
1002
}
  0
DIMENSION
  5
23800
330
747D
100
AcDbEntity
  8
寸法
 48
50.0
100
AcDbDimension
  2
*D31
 10
6993.600000000007
 20
7583.953390924579
 30
0.0
 11
7403.600000000007
 21
7683.965201948201
 31
0.0
 70
    32
 71
     5
 42
820.0
  3
INABA_S40G
100
AcDbAlignedDimension
 13
7813.600000000008
 23
6671.344574254331
 33
0.0
 14
6993.600000000007
 24
6671.344574254331
 34
0.0
100
AcDbRotatedDimension
1001
ACAD
1000
DSTYLE
1002
{
1070
   341
1005
0
1002
}
  0
DIMENSION
  5
23801
330
747D
100
AcDbEntity
  8
寸法
 48
50.0
100
AcDbDimension
  2
*D32
 10
5545.665006330073
 20
6339.344574254336
 30
0.0
 11
5545.665006330072
 21
6658.844574254331
 31
0.0
 70
   160
 71
     5
 42
638.9999999999964
  3
INABA_S40G
100
AcDbAlignedDimension
 13
6241.6
 23
6978.344574254331
 33
0.0
 14
6241.600000000008
 24
6339.344574254335
 34
0.0
 50
90.0
100
AcDbRotatedDimension
1001
ACAD
1000
DSTYLE
1002
{
1070
   341
1005
0
1002
}
  0
DIMENSION
  5
23802
330
747D
100
AcDbEntity
  8
寸法
 48
50.0
100
AcDbDimension
  2
*D33
 10
5293.721909610674
 20
6141.344574254332
 30
0.0
 11
5293.721909610673
 21
6658.844574254331
 31
0.0
 70
   160
 71
     5
 42
960.0
  3
INABA_S40G
100
AcDbAlignedDimension
 13
6168.600000000001
 23
7101.344574254331
 33
0.0
 14
6168.600000000001
 24
6141.344574254331
 34
0.0
 50
90.0
100
AcDbRotatedDimension
1001
ACAD
1000
DSTYLE
1002
{
1070
   341
1005
0
1002
}
  0
LINE
  5
23804
102
{ACAD_REACTORS
330
23FED
102
}
330
747D
100
AcDbEntity
  8
部品1
 48
50.0
100
AcDbLine
 10
6168.600000000001
 20
6141.344574254331
 30
0.0
 11
6168.600000000001
 21
7101.344574254331
 31
0.0
  0
ARC
  5
23807
330
747D
100
AcDbEntity
  8
想像線
 48
5.0
100
AcDbCircle
 10
6938.600000000004
 20
6141.344574254334
 30
0.0
 40
720.0
100
AcDbArc
 50
180.0
 51
270.0
  0
DIMENSION
  5
23808
330
747D
100
AcDbEntity
  8
寸法
 48
50.0
100
AcDbDimension
  2
*D34
 10
6651.285990614302
 20
6621.344574254331
 30
0.0
 11
6651.285990614301
 21
5848.785519136231
 31
0.0
 70
   160
 71
     5
 42
479.999999999989
  3
INABA_S40G
100
AcDbAlignedDimension
 13
6742.765475140901
 23
6141.344574254341
 33
0.0
 14
6943.600000000007
 24
6621.344574254331
 34
0.0
 50
90.0
100
AcDbRotatedDimension
1001
ACAD
1000
DSTYLE
1002
{
1070
   341
1005
0
1002
}
  0
DIMENSION
  5
23809
330
747D
100
AcDbEntity
  8
寸法
 48
50.0
100
AcDbDimension
  2
*D35
 10
6055.512673767883
 20
5421.344574254328
 30
0.0
 11
6055.512673767882
 21
5781.34457425433
 31
0.0
 70
   160
  1
扉の出<>
 71
     5
 42
720.0
  3
INABA_S40G
100
AcDbAlignedDimension
 13
6168.600000000004
 23
6141.344574254327
 33
0.0
 14
6524.325326928809
 24
5421.344574254327
 34
0.0
 50
90.0
100
AcDbRotatedDimension
1001
ACAD
1000
DSTYLE
1002
{
1070
   341
1005
0
1002
}
  0
DIMENSION
  5
2380A
330
747D
100
AcDbEntity
  8
寸法
 48
50.0
100
AcDbDimension
  2
*D36
 10
5545.665006330072
 20
6141.344574254332
 30
0.0
 11
5545.665006330072
 21
5805.813625411739
 31
0.0
 70
   160
 71
     5
 42
198.0000000000036
  3
INABA_S40G
100
AcDbAlignedDimension
 13
6241.600000000008
 23
6339.344574254335
 33
0.0
 14
6168.600000000001
 24
6141.344574254331
 34
0.0
 50
90.0
100
AcDbRotatedDimension
1001
ACAD
1000
DSTYLE
1002
{
1070
   341
1005
0
1002
}
  0
LINE
  5
2380B
330
747D
100
AcDbEntity
  8
細線
 48
50.0
100
AcDbLine
 10
6529.601803738437
 20
6141.344574254347
 30
0.0
 11
6683.600000000011
 21
6295.342770515925
 31
0.0
  0
LINE
  5
2380C
330
747D
100
AcDbEntity
  8
細線
 48
50.0
100
AcDbLine
 10
6484.700523133089
 20
6141.344574254345
 30
0.0
 11
6683.600000000011
 21
6340.244051121267
 31
0.0
  0
LINE
  5
2380D
330
747D
100
AcDbEntity
  8
細線
 48
50.0
100
AcDbLine
 10
6483.600000000016
 20
6185.145331726618
 30
0.0
 11
6683.600000000009
 21
6385.145331726613
 31
0.0
  0
LINE
  5
2380E
330
747D
100
AcDbEntity
  8
細線
 48
50.0
100
AcDbLine
 10
6483.600000000013
 20
6230.046612331963
 30
0.0
 11
6674.897961922408
 21
6421.344574254359
 31
0.0
  0
LINE
  5
2380F
330
747D
100
AcDbEntity
  8
部品1
 48
50.0
100
AcDbLine
 10
6683.600000000009
 20
6421.34457425436
 30
0.0
 11
6683.600000000017
 21
6141.344574254348
 31
0.0
  0
LINE
  5
23810
330
747D
100
AcDbEntity
  8
部品1
 48
50.0
100
AcDbLine
 10
6483.600000000008
 20
6421.34457425436
 30
0.0
 11
6483.600000000016
 21
6141.344574254344
 31
0.0
  0
LINE
  5
23811
330
747D
100
AcDbEntity
  8
センター
 48
2.0
100
AcDbLine
 10
6291.600000000007
 20
6389.344574254335
 30
0.0
 11
6291.600000000007
 21
6289.344574254335
 31
0.0
  0
LINE
  5
23812
330
747D
100
AcDbEntity
  8
細線
 48
50.0
100
AcDbLine
 10
6574.503084343781
 20
6141.344574254347
 30
0.0
 11
6683.600000000012
 21
6250.441489910579
 31
0.0
  0
LINE
  5
23813
330
747D
100
AcDbEntity
  8
細線
 48
50.0
100
AcDbLine
 10
6664.305645554475
 20
6141.34457425435
 30
0.0
 11
6683.600000000017
 21
6160.638928699891
 31
0.0
  0
LINE
  5
23814
330
747D
100
AcDbEntity
  8
細線
 48
50.0
100
AcDbLine
 10
6619.404364949129
 20
6141.344574254348
 30
0.0
 11
6683.600000000017
 21
6205.540209305236
 31
0.0
  0
LINE
  5
23816
102
{ACAD_REACTORS
330
23FED
102
}
330
747D
100
AcDbEntity
  8
部品1
 48
50.0
100
AcDbLine
 10
6288.599999999999
 20
6546.344574254361
 30
0.0
 11
6168.600000000001
 21
6546.344574254362
 31
0.0
  0
CIRCLE
  5
23817
330
747D
100
AcDbEntity
  8
部品1
 48
50.0
100
AcDbCircle
 10
6291.599999999993
 20
6339.344574254335
 30
0.0
 40
35.0
  0
LINE
  5
23818
330
747D
100
AcDbEntity
  8
センター
 48
2.0
100
AcDbLine
 10
6241.600000000008
 20
6339.344574254335
 30
0.0
 11
6341.600000000007
 21
6339.344574254335
 31
0.0
  0
LINE
  5
23819
102
{ACAD_REACTORS
330
23FED
102
}
330
747D
100
AcDbEntity
  8
部品1
 48
50.0
100
AcDbLine
 10
6288.599999999997
 20
6746.344574254361
 30
0.0
 11
6168.600000000001
 21
6746.344574254362
 31
0.0
  0
LINE
  5
2381A
330
747D
100
AcDbEntity
  8
細線
 48
50.0
100
AcDbLine
 10
6483.600000000016
 20
6274.947892937309
 30
0.0
 11
6629.996681317056
 21
6421.344574254357
 31
0.0
  0
LINE
  5
2381B
330
747D
100
AcDbEntity
  8
細線
 48
50.0
100
AcDbLine
 10
6483.600000000008
 20
6364.750454148049
 30
0.0
 11
6540.19412010632
 21
6421.344574254359
 31
0.0
  0
LINE
  5
2381C
330
747D
100
AcDbEntity
  8
細線
 48
50.0
100
AcDbLine
 10
6483.600000000011
 20
6319.849173542706
 30
0.0
 11
6585.095400711658
 21
6421.344574254359
 31
0.0
  0
LINE
  5
2381D
330
747D
100
AcDbEntity
  8
想像線
 48
5.0
100
AcDbLine
 10
6938.600000000004
 20
6141.344574254345
 30
0.0
 11
6938.600000000004
 21
5421.344574254334
 31
0.0
  0
LINE
  5
2381E
330
747D
100
AcDbEntity
  8
細線
 48
50.0
100
AcDbLine
 10
7349.601803738434
 20
6141.344574254347
 30
0.0
 11
7503.600000000012
 21
6295.342770515926
 31
0.0
  0
LINE
  5
2381F
330
747D
100
AcDbEntity
  8
細線
 48
50.0
100
AcDbLine
 10
7304.70052313309
 20
6141.344574254347
 30
0.0
 11
7503.600000000012
 21
6340.24405112127
 31
0.0
  0
LINE
  5
23820
330
747D
100
AcDbEntity
  8
細線
 48
50.0
100
AcDbLine
 10
7303.600000000016
 20
6185.145331726619
 30
0.0
 11
7503.60000000001
 21
6385.145331726612
 31
0.0
  0
LINE
  5
23821
330
747D
100
AcDbEntity
  8
細線
 48
50.0
100
AcDbLine
 10
7303.600000000013
 20
6230.046612331964
 30
0.0
 11
7494.897961922408
 21
6421.344574254357
 31
0.0
  0
LINE
  5
23822
330
747D
100
AcDbEntity
  8
部品1
 48
50.0
100
AcDbLine
 10
7503.600000000012
 20
6421.34457425436
 30
0.0
 11
7503.600000000017
 21
6141.344574254349
 31
0.0
  0
LINE
  5
23823
330
747D
100
AcDbEntity
  8
部品1
 48
50.0
100
AcDbLine
 10
7303.600000000009
 20
6421.344574254359
 30
0.0
 11
7303.600000000017
 21
6141.344574254345
 31
0.0
  0
LINE
  5
23825
330
747D
100
AcDbEntity
  8
細線
 48
50.0
100
AcDbLine
 10
7394.503084343782
 20
6141.344574254347
 30
0.0
 11
7503.600000000016
 21
6250.44148991058
 31
0.0
  0
LINE
  5
23826
330
747D
100
AcDbEntity
  8
細線
 48
50.0
100
AcDbLine
 10
7484.305645554474
 20
6141.34457425435
 30
0.0
 11
7503.600000000017
 21
6160.638928699892
 31
0.0
  0
LINE
  5
23827
330
747D
100
AcDbEntity
  8
細線
 48
50.0
100
AcDbLine
 10
7439.404364949126
 20
6141.344574254348
 30
0.0
 11
7503.600000000017
 21
6205.540209305237
 31
0.0
  0
LINE
  5
23828
330
747D
100
AcDbEntity
  8
部品1
 48
50.0
100
AcDbLine
 10
7093.600000000008
 20
6521.344574254332
 30
0.0
 11
7093.600000000008
 21
6721.344574254331
 31
0.0
  0
LINE
  5
23829
330
747D
100
AcDbEntity
  8
部品1
 48
50.0
100
AcDbLine
 10
6893.600000000008
 20
6521.344574254332
 30
0.0
 11
6893.600000000008
 21
6721.344574254331
 31
0.0
  0
LINE
  5
2382A
330
747D
100
AcDbEntity
  8
部品1
 48
50.0
100
AcDbLine
 10
7093.600000000008
 20
6521.344574254332
 30
0.0
 11
6893.600000000008
 21
6521.344574254332
 31
0.0
  0
LINE
  5
2382B
330
747D
100
AcDbEntity
  8
センター
 48
2.0
100
AcDbLine
 10
6943.600000000007
 20
6621.344574254331
 30
0.0
 11
7043.600000000008
 21
6621.344574254331
 31
0.0
  0
LINE
  5
2382C
330
747D
100
AcDbEntity
  8
部品1
 48
50.0
100
AcDbLine
 10
7093.600000000008
 20
6721.344574254331
 30
0.0
 11
6893.600000000008
 21
6721.344574254331
 31
0.0
  0
LINE
  5
2382D
330
747D
100
AcDbEntity
  8
センター
 48
2.0
100
AcDbLine
 10
6993.600000000007
 20
6671.344574254331
 30
0.0
 11
6993.600000000007
 21
6571.344574254331
 31
0.0
  0
LINE
  5
2382E
330
747D
100
AcDbEntity
  8
細線
 48
50.0
100
AcDbLine
 10
7303.600000000016
 20
6274.947892937309
 30
0.0
 11
7449.996681317057
 21
6421.34457425436
 31
0.0
  0
LINE
  5
2382F
330
747D
100
AcDbEntity
  8
細線
 48
50.0
100
AcDbLine
 10
7303.600000000007
 20
6364.750454148049
 30
0.0
 11
7360.194120106313
 21
6421.344574254359
 31
0.0
  0
LINE
  5
23830
330
747D
100
AcDbEntity
  8
細線
 48
50.0
100
AcDbLine
 10
7303.600000000011
 20
6319.849173542706
 30
0.0
 11
7405.095400711663
 21
6421.344574254359
 31
0.0
  0
LINE
  5
23831
330
747D
100
AcDbEntity
  8
細線
 48
50.0
100
AcDbLine
 10
8169.601803738427
 20
6141.344574254347
 30
0.0
 11
8323.600000000004
 21
6295.342770515928
 31
0.0
  0
LINE
  5
23832
330
747D
100
AcDbEntity
  8
細線
 48
50.0
100
AcDbLine
 10
8124.70052313308
 20
6141.344574254347
 30
0.0
 11
8323.600000000002
 21
6340.244051121268
 31
0.0
  0
LINE
  5
23833
330
747D
100
AcDbEntity
  8
細線
 48
50.0
100
AcDbLine
 10
8123.600000000008
 20
6185.145331726621
 30
0.0
 11
8323.6
 21
6385.145331726612
 31
0.0
  0
LINE
  5
23834
330
747D
100
AcDbEntity
  8
細線
 48
50.0
100
AcDbLine
 10
8123.600000000005
 20
6230.046612331964
 30
0.0
 11
8314.897961922399
 21
6421.344574254359
 31
0.0
  0
LINE
  5
23835
330
747D
100
AcDbEntity
  8
部品1
 48
50.0
100
AcDbLine
 10
8323.6
 20
6421.34457425436
 30
0.0
 11
8323.600000000007
 21
6141.344574254349
 31
0.0
  0
LINE
  5
23836
330
747D
100
AcDbEntity
  8
部品1
 48
50.0
100
AcDbLine
 10
8123.599999999999
 20
6421.344574254359
 30
0.0
 11
8123.600000000008
 21
6141.344574254345
 31
0.0
  0
TEXT
  5
23837
330
747D
100
AcDbEntity
  8
寸法
 48
50.0
100
AcDbText
 10
7855.308832640769
 20
6160.025865047068
 30
0.0
 40
120.0
  1
扉面
  7
STYLE1
100
AcDbText
  0
LINE
  5
23838
330
747D
100
AcDbEntity
  8
センター
 48
2.0
100
AcDbLine
 10
7695.600000000007
 20
6389.344574254335
 30
0.0
 11
7695.600000000007
 21
6289.344574254335
 31
0.0
  0
LINE
  5
23839
330
747D
100
AcDbEntity
  8
細線
 48
50.0
100
AcDbLine
 10
8214.503084343773
 20
6141.344574254347
 30
0.0
 11
8323.600000000004
 21
6250.44148991058
 31
0.0
  0
LINE
  5
2383A
330
747D
100
AcDbEntity
  8
細線
 48
50.0
100
AcDbLine
 10
8304.305645554464
 20
6141.34457425435
 30
0.0
 11
8323.600000000007
 21
6160.638928699892
 31
0.0
  0
LINE
  5
2383B
330
747D
100
AcDbEntity
  8
細線
 48
50.0
100
AcDbLine
 10
8259.404364949118
 20
6141.344574254348
 30
0.0
 11
8323.600000000007
 21
6205.540209305237
 31
0.0
  0
LINE
  5
2383C
330
747D
100
AcDbEntity
  8
部品1
 48
50.0
100
AcDbLine
 10
7913.600000000008
 20
6521.344574254332
 30
0.0
 11
7913.600000000008
 21
6721.344574254331
 31
0.0
  0
LINE
  5
2383D
330
747D
100
AcDbEntity
  8
部品1
 48
50.0
100
AcDbLine
 10
7713.600000000008
 20
6521.344574254332
 30
0.0
 11
7713.600000000008
 21
6721.344574254331
 31
0.0
  0
LINE
  5
2383E
330
747D
100
AcDbEntity
  8
部品1
 48
50.0
100
AcDbLine
 10
7913.600000000008
 20
6521.344574254332
 30
0.0
 11
7713.600000000008
 21
6521.344574254332
 31
0.0
  0
LINE
  5
2383F
330
747D
100
AcDbEntity
  8
センター
 48
2.0
100
AcDbLine
 10
7645.600000000007
 20
6339.344574254335
 30
0.0
 11
7745.600000000007
 21
6339.344574254335
 31
0.0
  0
CIRCLE
  5
23840
330
747D
100
AcDbEntity
  8
部品1
 48
50.0
100
AcDbCircle
 10
7695.600000000007
 20
6339.344574254335
 30
0.0
 40
35.0
  0
LINE
  5
23841
330
747D
100
AcDbEntity
  8
センター
 48
2.0
100
AcDbLine
 10
7763.600000000008
 20
6621.344574254331
 30
0.0
 11
7863.600000000008
 21
6621.344574254331
 31
0.0
  0
LINE
  5
23842
330
747D
100
AcDbEntity
  8
部品1
 48
50.0
100
AcDbLine
 10
7913.600000000008
 20
6721.344574254331
 30
0.0
 11
7713.600000000008
 21
6721.344574254331
 31
0.0
  0
LINE
  5
23843
330
747D
100
AcDbEntity
  8
センター
 48
2.0
100
AcDbLine
 10
7813.600000000008
 20
6671.344574254331
 30
0.0
 11
7813.600000000008
 21
6571.344574254331
 31
0.0
  0
LINE
  5
23844
330
747D
100
AcDbEntity
  8
細線
 48
50.0
100
AcDbLine
 10
8123.600000000006
 20
6274.947892937309
 30
0.0
 11
8269.996681317039
 21
6421.344574254359
 31
0.0
  0
LINE
  5
23845
330
747D
100
AcDbEntity
  8
細線
 48
50.0
100
AcDbLine
 10
8123.600000000008
 20
6364.750454148049
 30
0.0
 11
8180.194120106317
 21
6421.344574254359
 31
0.0
  0
LINE
  5
23846
330
747D
100
AcDbEntity
  8
細線
 48
50.0
100
AcDbLine
 10
8123.600000000012
 20
6319.849173542706
 30
0.0
 11
8225.095400711664
 21
6421.344574254359
 31
0.0
  0
DIMENSION
  5
23847
330
747D
100
AcDbEntity
  8
寸法
 48
50.0
100
AcDbDimension
  2
*D37
 10
6291.6
 20
7827.611032348241
 30
0.0
 11
6993.6
 21
7927.611032348242
 31
0.0
 70
    32
 71
     5
 42
1404.0
  3
INABA_S40G
100
AcDbAlignedDimension
 13
7695.6
 23
7028.34457425433
 33
0.0
 14
6291.6
 24
7028.34457425433
 34
0.0
100
AcDbRotatedDimension
1001
ACAD
1000
DSTYLE
1002
{
1070
   341
1005
0
1002
}
  0
DIMENSION
  5
23849
330
747D
100
AcDbEntity
  8
寸法
 48
50.0
100
AcDbDimension
  2
*D38
 10
6168.600000000001
 20
7827.611032348241
 30
0.0
 11
5895.493398282201
 21
7827.611032348241
 31
0.0
 70
   160
 71
     5
 42
123.0
  3
INABA_S40G
100
AcDbAlignedDimension
 13
6291.6
 23
7028.34457425433
 33
0.0
 14
6168.600000000001
 24
7101.344574254331
 34
0.0
100
AcDbRotatedDimension
1001
ACAD
1000
DSTYLE
1002
{
1070
   341
1005
0
1002
}
  0
DIMENSION
  5
2384B
330
747D
100
AcDbEntity
  8
寸法
 48
50.0
100
AcDbDimension
  2
*D39
 10
5545.665006330073
 20
6978.344574254332
 30
0.0
 11
5545.665006330072
 21
7374.45117597213
 31
0.0
 70
   160
 71
     5
 42
123.0
  3
INABA_S40G
100
AcDbAlignedDimension
 13
6168.600000000001
 23
7101.344574254331
 33
0.0
 14
6241.6
 24
6978.344574254331
 34
0.0
 50
90.0
100
AcDbRotatedDimension
1001
ACAD
1000
DSTYLE
1002
{
1070
   341
1005
0
1002
}
  0
LINE
  5
2384C
330
747D
100
AcDbEntity
  8
センター
 48
2.0
100
AcDbLine
 10
6291.6
 20
7028.34457425433
 30
0.0
 11
6291.6
 21
6928.344574254331
 31
0.0
  0
CIRCLE
  5
2384D
330
747D
100
AcDbEntity
  8
部品1
 48
50.0
100
AcDbCircle
 10
6291.6
 20
6978.344574254331
 30
0.0
 40
35.0
  0
LINE
  5
2384E
330
747D
100
AcDbEntity
  8
センター
 48
2.0
100
AcDbLine
 10
6241.6
 20
6978.344574254331
 30
0.0
 11
6341.6
 21
6978.344574254331
 31
0.0
  0
LINE
  5
2384F
330
747D
100
AcDbEntity
  8
細線
 48
50.0
100
AcDbLine
 10
6571.181314052899
 20
6901.344574254327
 30
0.0
 11
6683.600000000012
 21
7013.763260201457
 31
0.0
  0
LINE
  5
23850
330
747D
100
AcDbEntity
  8
細線
 48
50.0
100
AcDbLine
 10
6526.280033447533
 20
6901.34457425433
 30
0.0
 11
6683.600000000012
 21
7058.664540806802
 31
0.0
  0
LINE
  5
23851
330
747D
100
AcDbEntity
  8
細線
 48
50.0
100
AcDbLine
 10
6483.600000000016
 20
6903.565821412151
 30
0.0
 11
6681.37875284221
 21
7101.344574254345
 31
0.0
  0
LINE
  5
23852
330
747D
100
AcDbEntity
  8
細線
 48
50.0
100
AcDbLine
 10
6483.600000000016
 20
6948.467102017499
 30
0.0
 11
6636.477472236864
 21
7101.344574254345
 31
0.0
  0
LINE
  5
23853
330
747D
100
AcDbEntity
  8
細線
 48
50.0
100
AcDbLine
 10
6483.600000000016
 20
6993.368382622843
 30
0.0
 11
6591.576191631519
 21
7101.344574254345
 31
0.0
  0
LINE
  5
23854
330
747D
100
AcDbEntity
  8
細線
 48
50.0
100
AcDbLine
 10
6483.600000000016
 20
7038.269663228186
 30
0.0
 11
6546.674911026172
 21
7101.344574254345
 31
0.0
  0
LINE
  5
23855
330
747D
100
AcDbEntity
  8
細線
 48
50.0
100
AcDbLine
 10
6483.600000000013
 20
7083.170943833531
 30
0.0
 11
6501.773630420828
 21
7101.344574254345
 31
0.0
  0
LINE
  5
23856
330
747D
100
AcDbEntity
  8
部品1
 48
50.0
100
AcDbLine
 10
6483.600000000013
 20
7101.344574254345
 30
0.0
 11
6483.600000000016
 21
6901.344574254332
 31
0.0
  0
LINE
  5
23857
330
747D
100
AcDbEntity
  8
細線
 48
50.0
100
AcDbLine
 10
6660.983875263562
 20
6901.344574254323
 30
0.0
 11
6683.600000000011
 21
6923.960698990765
 31
0.0
  0
LINE
  5
23858
330
747D
100
AcDbEntity
  8
細線
 48
50.0
100
AcDbLine
 10
6616.082594658225
 20
6901.344574254324
 30
0.0
 11
6683.600000000011
 21
6968.86197959611
 31
0.0
  0
LINE
  5
23859
330
747D
100
AcDbEntity
  8
部品1
 48
50.0
100
AcDbLine
 10
6683.600000000012
 20
7101.344574254345
 30
0.0
 11
6683.600000000017
 21
6901.34457425432
 31
0.0
  0
LINE
  5
2385B
330
747D
100
AcDbEntity
  8
細線
 48
50.0
100
AcDbLine
 10
7391.181314052852
 20
6901.344574254281
 30
0.0
 11
7503.600000000012
 21
7013.763260201459
 31
0.0
  0
LINE
  5
2385C
330
747D
100
AcDbEntity
  8
細線
 48
50.0
100
AcDbLine
 10
7346.280033447492
 20
6901.344574254283
 30
0.0
 11
7503.600000000012
 21
7058.664540806802
 31
0.0
  0
LINE
  5
2385D
330
747D
100
AcDbEntity
  8
細線
 48
50.0
100
AcDbLine
 10
7303.600000000018
 20
6903.565821412152
 30
0.0
 11
7501.378752842208
 21
7101.344574254344
 31
0.0
  0
LINE
  5
2385E
330
747D
100
AcDbEntity
  8
細線
 48
50.0
100
AcDbLine
 10
7303.600000000016
 20
6948.467102017495
 30
0.0
 11
7456.477472236864
 21
7101.344574254347
 31
0.0
  0
LINE
  5
2385F
330
747D
100
AcDbEntity
  8
細線
 48
50.0
100
AcDbLine
 10
7303.600000000016
 20
6993.368382622843
 30
0.0
 11
7411.576191631519
 21
7101.344574254345
 31
0.0
  0
LINE
  5
23860
330
747D
100
AcDbEntity
  8
細線
 48
50.0
100
AcDbLine
 10
7303.600000000016
 20
7038.269663228189
 30
0.0
 11
7366.674911026172
 21
7101.344574254345
 31
0.0
  0
LINE
  5
23861
330
747D
100
AcDbEntity
  8
細線
 48
50.0
100
AcDbLine
 10
7303.600000000013
 20
7083.170943833531
 30
0.0
 11
7321.773630420828
 21
7101.344574254347
 31
0.0
  0
LINE
  5
23862
330
747D
100
AcDbEntity
  8
部品1
 48
50.0
100
AcDbLine
 10
7303.600000000013
 20
7101.344574254345
 30
0.0
 11
7303.600000000018
 21
6901.344574254287
 31
0.0
  0
LINE
  5
23863
330
747D
100
AcDbEntity
  8
細線
 48
50.0
100
AcDbLine
 10
7480.983875263508
 20
6901.344574254277
 30
0.0
 11
7503.6
 21
6923.960698990765
 31
0.0
  0
LINE
  5
23864
330
747D
100
AcDbEntity
  8
細線
 48
50.0
100
AcDbLine
 10
7436.082594658168
 20
6901.344574254278
 30
0.0
 11
7503.6
 21
6968.86197959611
 31
0.0
  0
LINE
  5
23865
330
747D
100
AcDbEntity
  8
部品1
 48
50.0
100
AcDbLine
 10
7503.600000000012
 20
7101.344574254345
 30
0.0
 11
7503.600000000017
 21
6901.344574254276
 31
0.0
  0
CIRCLE
  5
23866
330
747D
100
AcDbEntity
  8
部品1
 48
50.0
100
AcDbCircle
 10
7695.6
 20
6978.344574254331
 30
0.0
 40
35.0
  0
LINE
  5
23867
330
747D
100
AcDbEntity
  8
センター
 48
2.0
100
AcDbLine
 10
7645.6
 20
6978.344574254331
 30
0.0
 11
7745.6
 21
6978.344574254331
 31
0.0
  0
LINE
  5
23868
330
747D
100
AcDbEntity
  8
センター
 48
2.0
100
AcDbLine
 10
7695.6
 20
7028.34457425433
 30
0.0
 11
7695.6
 21
6928.344574254331
 31
0.0
  0
LINE
  5
23869
330
747D
100
AcDbEntity
  8
細線
 48
50.0
100
AcDbLine
 10
8211.181314052797
 20
6901.344574254236
 30
0.0
 11
8323.600000000004
 21
7013.763260201459
 31
0.0
  0
LINE
  5
2386A
330
747D
100
AcDbEntity
  8
細線
 48
50.0
100
AcDbLine
 10
8166.28003344744
 20
6901.344574254237
 30
0.0
 11
8323.600000000004
 21
7058.664540806802
 31
0.0
  0
LINE
  5
2386B
330
747D
100
AcDbEntity
  8
細線
 48
50.0
100
AcDbLine
 10
8123.600000000008
 20
6903.565821412152
 30
0.0
 11
8321.378752842198
 21
7101.344574254344
 31
0.0
  0
LINE
  5
2386C
330
747D
100
AcDbEntity
  8
細線
 48
50.0
100
AcDbLine
 10
8123.600000000008
 20
6948.467102017497
 30
0.0
 11
8276.477472236853
 21
7101.344574254345
 31
0.0
  0
LINE
  5
2386D
330
747D
100
AcDbEntity
  8
細線
 48
50.0
100
AcDbLine
 10
8123.600000000008
 20
6993.368382622843
 30
0.0
 11
8231.576191631509
 21
7101.344574254344
 31
0.0
  0
LINE
  5
2386E
330
747D
100
AcDbEntity
  8
細線
 48
50.0
100
AcDbLine
 10
8123.600000000005
 20
7038.269663228189
 30
0.0
 11
8186.674911026164
 21
7101.344574254345
 31
0.0
  0
LINE
  5
2386F
330
747D
100
AcDbEntity
  8
細線
 48
50.0
100
AcDbLine
 10
8123.600000000005
 20
7083.170943833531
 30
0.0
 11
8141.773630420818
 21
7101.344574254347
 31
0.0
  0
LINE
  5
23870
330
747D
100
AcDbEntity
  8
部品1
 48
50.0
100
AcDbLine
 10
8123.600000000005
 20
7101.344574254345
 30
0.0
 11
8123.600000000008
 21
6901.34457425424
 31
0.0
  0
LINE
  5
23871
330
747D
100
AcDbEntity
  8
細線
 48
50.0
100
AcDbLine
 10
8300.983875263455
 20
6901.344574254231
 30
0.0
 11
8323.6
 21
6923.960698990775
 31
0.0
  0
LINE
  5
23872
330
747D
100
AcDbEntity
  8
細線
 48
50.0
100
AcDbLine
 10
8256.082594658115
 20
6901.344574254233
 30
0.0
 11
8323.6
 21
6968.86197959612
 31
0.0
  0
LINE
  5
23873
330
747D
100
AcDbEntity
  8
部品1
 48
50.0
100
AcDbLine
 10
8323.600000000004
 20
7101.344574254345
 30
0.0
 11
8323.600000000007
 21
6901.344574254228
 31
0.0
  0
DIMENSION
  5
23874
330
747D
100
AcDbEntity
  8
寸法
 48
50.0
100
AcDbDimension
  2
*D40
 10
9453.600000000006
 20
7583.953390924579
 30
0.0
 11
9866.100000000004
 21
7683.965201948201
 31
0.0
 70
    32
 71
     5
 42
824.9999999999927
  3
INABA_S40G
100
AcDbAlignedDimension
 13
10278.6
 23
7101.344574254331
 33
0.0
 14
9453.600000000006
 24
6671.344574254331
 34
0.0
100
AcDbRotatedDimension
1001
ACAD
1000
DSTYLE
1002
{
1070
   341
1005
0
1002
}
  0
LINE
  5
23876
102
{ACAD_REACTORS
330
23FFC
102
}
330
747D
100
AcDbEntity
  8
部品1
 48
50.0
100
AcDbLine
 10
10278.6
 20
6141.344574254349
 30
0.0
 11
10278.6
 21
7101.344574254331
 31
0.0
  0
DIMENSION
  5
23879
330
747D
100
AcDbEntity
  8
寸法
 48
50.0
100
AcDbDimension
  2
*D41
 10
8633.600000000008
 20
7583.953390924579
 30
0.0
 11
9043.600000000008
 21
7683.965201948201
 31
0.0
 70
    32
 71
     5
 42
820.0
  3
INABA_S40G
100
AcDbAlignedDimension
 13
9453.600000000006
 23
6671.344574254331
 33
0.0
 14
8633.600000000008
 24
6671.344574254331
 34
0.0
100
AcDbRotatedDimension
1001
ACAD
1000
DSTYLE
1002
{
1070
   341
1005
0
1002
}
  0
LINE
  5
2387A
330
747D
100
AcDbEntity
  8
細線
 48
50.0
100
AcDbLine
 10
8989.601803738429
 20
6141.344574254357
 30
0.0
 11
9143.600000000002
 21
6295.342770515935
 31
0.0
  0
LINE
  5
2387B
330
747D
100
AcDbEntity
  8
細線
 48
50.0
100
AcDbLine
 10
8944.70052313308
 20
6141.344574254356
 30
0.0
 11
9143.600000000002
 21
6340.244051121277
 31
0.0
  0
LINE
  5
2387C
330
747D
100
AcDbEntity
  8
細線
 48
50.0
100
AcDbLine
 10
8943.600000000008
 20
6185.145331726629
 30
0.0
 11
9143.600000000001
 21
6385.145331726621
 31
0.0
  0
LINE
  5
2387D
330
747D
100
AcDbEntity
  8
細線
 48
50.0
100
AcDbLine
 10
8943.600000000003
 20
6230.046612331973
 30
0.0
 11
9134.897961922394
 21
6421.34457425436
 31
0.0
  0
LINE
  5
2387E
330
747D
100
AcDbEntity
  8
部品1
 48
50.0
100
AcDbLine
 10
9143.599999999999
 20
6421.344574254359
 30
0.0
 11
9143.600000000008
 21
6141.344574254357
 31
0.0
  0
LINE
  5
2387F
330
747D
100
AcDbEntity
  8
部品1
 48
50.0
100
AcDbLine
 10
8943.600000000001
 20
6421.34457425436
 30
0.0
 11
8943.600000000008
 21
6141.344574254354
 31
0.0
  0
LINE
  5
23880
330
747D
100
AcDbEntity
  8
細線
 48
50.0
100
AcDbLine
 10
9034.503084343773
 20
6141.344574254357
 30
0.0
 11
9143.600000000004
 21
6250.441489910589
 31
0.0
  0
LINE
  5
23881
330
747D
100
AcDbEntity
  8
細線
 48
50.0
100
AcDbLine
 10
9124.305645554466
 20
6141.34457425436
 30
0.0
 11
9143.600000000006
 21
6160.6389286999
 31
0.0
  0
LINE
  5
23882
330
747D
100
AcDbEntity
  8
細線
 48
50.0
100
AcDbLine
 10
9079.40436494912
 20
6141.344574254357
 30
0.0
 11
9143.600000000006
 21
6205.540209305244
 31
0.0
  0
LINE
  5
23883
330
747D
100
AcDbEntity
  8
部品1
 48
50.0
100
AcDbLine
 10
8733.600000000008
 20
6521.344574254332
 30
0.0
 11
8733.600000000008
 21
6721.344574254331
 31
0.0
  0
LINE
  5
23884
330
747D
100
AcDbEntity
  8
部品1
 48
50.0
100
AcDbLine
 10
8533.600000000008
 20
6521.344574254332
 30
0.0
 11
8533.600000000008
 21
6721.344574254331
 31
0.0
  0
LINE
  5
23885
330
747D
100
AcDbEntity
  8
部品1
 48
50.0
100
AcDbLine
 10
8733.600000000008
 20
6521.344574254332
 30
0.0
 11
8533.600000000008
 21
6521.344574254332
 31
0.0
  0
LINE
  5
23886
330
747D
100
AcDbEntity
  8
センター
 48
2.0
100
AcDbLine
 10
8583.600000000009
 20
6621.344574254331
 30
0.0
 11
8683.600000000009
 21
6621.344574254331
 31
0.0
  0
LINE
  5
23887
330
747D
100
AcDbEntity
  8
部品1
 48
50.0
100
AcDbLine
 10
8733.600000000008
 20
6721.344574254331
 30
0.0
 11
8533.600000000008
 21
6721.344574254331
 31
0.0
  0
LINE
  5
23888
330
747D
100
AcDbEntity
  8
センター
 48
2.0
100
AcDbLine
 10
8633.600000000008
 20
6671.344574254331
 30
0.0
 11
8633.600000000008
 21
6571.344574254331
 31
0.0
  0
LINE
  5
23889
330
747D
100
AcDbEntity
  8
細線
 48
50.0
100
AcDbLine
 10
8943.600000000007
 20
6274.947892937318
 30
0.0
 11
9089.99668131703
 21
6421.34457425436
 31
0.0
  0
LINE
  5
2388A
330
747D
100
AcDbEntity
  8
細線
 48
50.0
100
AcDbLine
 10
8943.600000000008
 20
6364.750454148049
 30
0.0
 11
9000.194120106316
 21
6421.34457425436
 31
0.0
  0
LINE
  5
2388B
330
747D
100
AcDbEntity
  8
細線
 48
50.0
100
AcDbLine
 10
8943.600000000012
 20
6319.849173542706
 30
0.0
 11
9045.095400711659
 21
6421.34457425436
 31
0.0
  0
LINE
  5
2388C
330
747D
100
AcDbEntity
  8
細線
 48
50.0
100
AcDbLine
 10
9809.601803738425
 20
6141.344574254357
 30
0.0
 11
9963.600000000003
 21
6295.342770515936
 31
0.0
  0
LINE
  5
2388D
330
747D
100
AcDbEntity
  8
細線
 48
50.0
100
AcDbLine
 10
9764.700523133081
 20
6141.344574254356
 30
0.0
 11
9963.600000000001
 21
6340.244051121278
 31
0.0
  0
LINE
  5
2388E
330
747D
100
AcDbEntity
  8
細線
 48
50.0
100
AcDbLine
 10
9763.600000000009
 20
6185.145331726629
 30
0.0
 11
9963.600000000001
 21
6385.145331726622
 31
0.0
  0
LINE
  5
2388F
330
747D
100
AcDbEntity
  8
細線
 48
50.0
100
AcDbLine
 10
9763.600000000003
 20
6230.046612331973
 30
0.0
 11
9954.897961922394
 21
6421.34457425436
 31
0.0
  0
LINE
  5
23890
330
747D
100
AcDbEntity
  8
部品1
 48
50.0
100
AcDbLine
 10
9963.600000000001
 20
6421.34457425436
 30
0.0
 11
9963.600000000008
 21
6141.344574254357
 31
0.0
  0
LINE
  5
23891
330
747D
100
AcDbEntity
  8
部品1
 48
50.0
100
AcDbLine
 10
9763.600000000003
 20
6421.344574254359
 30
0.0
 11
9763.600000000009
 21
6141.344574254354
 31
0.0
  0
LINE
  5
23892
330
747D
100
AcDbEntity
  8
細線
 48
50.0
100
AcDbLine
 10
9854.503084343773
 20
6141.344574254357
 30
0.0
 11
9963.600000000004
 21
6250.441489910589
 31
0.0
  0
LINE
  5
23893
330
747D
100
AcDbEntity
  8
細線
 48
50.0
100
AcDbLine
 10
9944.305645554466
 20
6141.34457425436
 30
0.0
 11
9963.600000000008
 21
6160.638928699901
 31
0.0
  0
LINE
  5
23894
330
747D
100
AcDbEntity
  8
細線
 48
50.0
100
AcDbLine
 10
9899.40436494912
 20
6141.344574254357
 30
0.0
 11
9963.600000000008
 21
6205.540209305246
 31
0.0
  0
LINE
  5
23895
330
747D
100
AcDbEntity
  8
部品1
 48
50.0
100
AcDbLine
 10
9553.600000000008
 20
6521.344574254332
 30
0.0
 11
9553.600000000008
 21
6721.344574254331
 31
0.0
  0
LINE
  5
23896
330
747D
100
AcDbEntity
  8
部品1
 48
50.0
100
AcDbLine
 10
9353.600000000007
 20
6521.344574254332
 30
0.0
 11
9353.600000000007
 21
6721.344574254331
 31
0.0
  0
LINE
  5
23897
330
747D
100
AcDbEntity
  8
部品1
 48
50.0
100
AcDbLine
 10
9553.600000000008
 20
6521.344574254332
 30
0.0
 11
9353.600000000007
 21
6521.344574254332
 31
0.0
  0
LINE
  5
23898
330
747D
100
AcDbEntity
  8
センター
 48
2.0
100
AcDbLine
 10
9403.600000000007
 20
6621.344574254331
 30
0.0
 11
9503.600000000007
 21
6621.344574254331
 31
0.0
  0
LINE
  5
23899
330
747D
100
AcDbEntity
  8
部品1
 48
50.0
100
AcDbLine
 10
9553.600000000008
 20
6721.344574254331
 30
0.0
 11
9353.600000000007
 21
6721.344574254331
 31
0.0
  0
LINE
  5
2389A
330
747D
100
AcDbEntity
  8
センター
 48
2.0
100
AcDbLine
 10
9453.600000000006
 20
6671.344574254331
 30
0.0
 11
9453.600000000006
 21
6571.344574254331
 31
0.0
  0
LINE
  5
2389B
330
747D
100
AcDbEntity
  8
細線
 48
50.0
100
AcDbLine
 10
9763.600000000007
 20
6274.947892937318
 30
0.0
 11
9909.996681317032
 21
6421.34457425436
 31
0.0
  0
LINE
  5
2389C
330
747D
100
AcDbEntity
  8
細線
 48
50.0
100
AcDbLine
 10
9763.600000000009
 20
6364.750454148061
 30
0.0
 11
9820.194120106311
 21
6421.34457425436
 31
0.0
  0
LINE
  5
2389D
330
747D
100
AcDbEntity
  8
細線
 48
50.0
100
AcDbLine
 10
9763.60000000001
 20
6319.849173542718
 30
0.0
 11
9865.095400711652
 21
6421.34457425436
 31
0.0
  0
LINE
  5
238A4
330
747D
100
AcDbEntity
  8
センター
 48
2.0
100
AcDbLine
 10
10155.60000000001
 20
6389.344574254335
 30
0.0
 11
10155.60000000001
 21
6289.344574254335
 31
0.0
  0
LINE
  5
238A6
102
{ACAD_REACTORS
330
23FFC
102
}
330
747D
100
AcDbEntity
  8
部品1
 48
50.0
100
AcDbLine
 10
10278.59999999999
 20
6546.344574254366
 30
0.0
 11
10158.6
 21
6546.344574254366
 31
0.0
  0
CIRCLE
  5
238A7
330
747D
100
AcDbEntity
  8
部品1
 48
50.0
100
AcDbCircle
 10
10155.60000000001
 20
6339.344574254335
 30
0.0
 40
35.0
  0
LINE
  5
238A8
330
747D
100
AcDbEntity
  8
センター
 48
2.0
100
AcDbLine
 10
10105.60000000001
 20
6339.344574254335
 30
0.0
 11
10205.60000000001
 21
6339.344574254335
 31
0.0
  0
LINE
  5
238A9
102
{ACAD_REACTORS
330
23FFC
102
}
330
747D
100
AcDbEntity
  8
部品1
 48
50.0
100
AcDbLine
 10
10278.59999999999
 20
6746.344574254365
 30
0.0
 11
10158.6
 21
6746.344574254367
 31
0.0
  0
LINE
  5
238AA
330
747D
100
AcDbEntity
  8
細線
 48
50.0
100
AcDbLine
 10
9031.181314052725
 20
6901.344574254188
 30
0.0
 11
9143.600000000004
 21
7013.763260201468
 31
0.0
  0
LINE
  5
238AB
330
747D
100
AcDbEntity
  8
細線
 48
50.0
100
AcDbLine
 10
8986.280033447377
 20
6901.344574254192
 30
0.0
 11
9143.600000000004
 21
7058.664540806812
 31
0.0
  0
LINE
  5
238AC
330
747D
100
AcDbEntity
  8
細線
 48
50.0
100
AcDbLine
 10
8943.600000000003
 20
6903.565821412157
 30
0.0
 11
9141.378752842202
 21
7101.344574254355
 31
0.0
  0
LINE
  5
238AD
330
747D
100
AcDbEntity
  8
細線
 48
50.0
100
AcDbLine
 10
8943.600000000007
 20
6948.467102017504
 30
0.0
 11
9096.477472236854
 21
7101.344574254355
 31
0.0
  0
LINE
  5
238AE
330
747D
100
AcDbEntity
  8
細線
 48
50.0
100
AcDbLine
 10
8943.600000000003
 20
6993.368382622849
 30
0.0
 11
9051.576191631509
 21
7101.344574254355
 31
0.0
  0
LINE
  5
238AF
330
747D
100
AcDbEntity
  8
細線
 48
50.0
100
AcDbLine
 10
8943.600000000003
 20
7038.269663228196
 30
0.0
 11
9006.674911026165
 21
7101.344574254357
 31
0.0
  0
LINE
  5
238B0
330
747D
100
AcDbEntity
  8
細線
 48
50.0
100
AcDbLine
 10
8943.600000000003
 20
7083.170943833541
 30
0.0
 11
8961.77363042082
 21
7101.344574254355
 31
0.0
  0
LINE
  5
238B1
330
747D
100
AcDbEntity
  8
部品1
 48
50.0
100
AcDbLine
 10
8943.600000000003
 20
7101.344574254355
 30
0.0
 11
8943.600000000003
 21
6901.344574254195
 31
0.0
  0
LINE
  5
238B2
330
747D
100
AcDbEntity
  8
細線
 48
50.0
100
AcDbLine
 10
9120.983875263416
 20
6901.344574254183
 30
0.0
 11
9143.600000000001
 21
6923.960698990775
 31
0.0
  0
LINE
  5
238B3
330
747D
100
AcDbEntity
  8
細線
 48
50.0
100
AcDbLine
 10
9076.082594658068
 20
6901.344574254186
 30
0.0
 11
9143.600000000001
 21
6968.861979596121
 31
0.0
  0
LINE
  5
238B4
330
747D
100
AcDbEntity
  8
部品1
 48
50.0
100
AcDbLine
 10
9143.600000000004
 20
7101.344574254355
 30
0.0
 11
9143.600000000004
 21
6901.344574254183
 31
0.0
  0
LINE
  5
238B5
330
747D
100
AcDbEntity
  8
細線
 48
50.0
100
AcDbLine
 10
9851.181314052695
 20
6901.344574254143
 30
0.0
 11
9963.600000000004
 21
7013.763260201468
 31
0.0
  0
LINE
  5
238B6
330
747D
100
AcDbEntity
  8
細線
 48
50.0
100
AcDbLine
 10
9806.280033447338
 20
6901.344574254145
 30
0.0
 11
9963.600000000004
 21
7058.664540806812
 31
0.0
  0
LINE
  5
238B7
330
747D
100
AcDbEntity
  8
細線
 48
50.0
100
AcDbLine
 10
9763.600000000003
 20
6903.56582141216
 30
0.0
 11
9961.378752842199
 21
7101.344574254352
 31
0.0
  0
LINE
  5
238B8
330
747D
100
AcDbEntity
  8
細線
 48
50.0
100
AcDbLine
 10
9763.600000000003
 20
6948.467102017502
 30
0.0
 11
9916.477472236856
 21
7101.344574254354
 31
0.0
  0
LINE
  5
238B9
330
747D
100
AcDbEntity
  8
細線
 48
50.0
100
AcDbLine
 10
9763.600000000003
 20
6993.368382622849
 30
0.0
 11
9871.576191631508
 21
7101.344574254352
 31
0.0
  0
LINE
  5
238BA
330
747D
100
AcDbEntity
  8
細線
 48
50.0
100
AcDbLine
 10
9763.600000000003
 20
7038.269663228196
 30
0.0
 11
9826.674911026165
 21
7101.344574254355
 31
0.0
  0
LINE
  5
238BB
330
747D
100
AcDbEntity
  8
細線
 48
50.0
100
AcDbLine
 10
9763.600000000003
 20
7083.170943833541
 30
0.0
 11
9781.77363042082
 21
7101.344574254355
 31
0.0
  0
LINE
  5
238BC
330
747D
100
AcDbEntity
  8
部品1
 48
50.0
100
AcDbLine
 10
9763.600000000003
 20
7101.344574254355
 30
0.0
 11
9763.600000000003
 21
6901.344574254148
 31
0.0
  0
LINE
  5
238BD
330
747D
100
AcDbEntity
  8
細線
 48
50.0
100
AcDbLine
 10
9940.983875263418
 20
6901.344574254183
 30
0.0
 11
9963.600000000003
 21
6923.960698990775
 31
0.0
  0
LINE
  5
238BE
330
747D
100
AcDbEntity
  8
細線
 48
50.0
100
AcDbLine
 10
9896.08259465807
 20
6901.344574254186
 30
0.0
 11
9963.600000000003
 21
6968.861979596121
 31
0.0
  0
LINE
  5
238BF
330
747D
100
AcDbEntity
  8
部品1
 48
50.0
100
AcDbLine
 10
9963.600000000004
 20
7101.344574254355
 30
0.0
 11
9963.600000000004
 21
6901.344574254138
 31
0.0
  0
DIMENSION
  5
238C0
330
747D
100
AcDbEntity
  8
寸法
 48
50.0
100
AcDbDimension
  2
*D42
 10
10155.6
 20
7827.611032348241
 30
0.0
 11
10551.7066017178
 21
7827.611032348241
 31
0.0
 70
   160
 71
     5
 42
123.0
  3
INABA_S40G
100
AcDbAlignedDimension
 13
10278.6
 23
7101.344574254331
 33
0.0
 14
10155.6
 24
7028.34457425433
 34
0.0
100
AcDbRotatedDimension
1001
ACAD
1000
DSTYLE
1002
{
1070
   341
1005
0
1002
}
  0
LINE
  5
238C2
330
747D
100
AcDbEntity
  8
センター
 48
2.0
100
AcDbLine
 10
10155.6
 20
7028.34457425433
 30
0.0
 11
10155.6
 21
6928.344574254331
 31
0.0
  0
LINE
  5
238C3
330
747D
100
AcDbEntity
  8
センター
 48
2.0
100
AcDbLine
 10
10105.6
 20
6978.344574254331
 30
0.0
 11
10205.6
 21
6978.344574254331
 31
0.0
  0
CIRCLE
  5
238C4
330
747D
100
AcDbEntity
  8
部品1
 48
50.0
100
AcDbCircle
 10
10155.6
 20
6978.344574254331
 30
0.0
 40
35.0
  0
TEXT
  5
23F98
330
747D
100
AcDbEntity
  8
文字
 62
     7
 48
50.0
100
AcDbText
 10
14251.2
 20
838.2527270729188
 30
0.0
 40
100.0
  1
～一般型・多雪地型・豪雪地型～
  7
STYLE2
100
AcDbText
  0
LINE
  5
23FB8
330
747D
100
AcDbEntity
  8
部品1
 48
50.0
100
AcDbLine
 10
6288.600000000002
 20
6421.34457425436
 30
0.0
 11
10158.6
 21
6421.344574254359
 31
0.0
  0
LINE
  5
23FD6
102
{ACAD_REACTORS
330
23FFC
102
}
330
747D
100
AcDbEntity
  8
部品1
 48
50.0
100
AcDbLine
 10
10158.6
 20
6421.344574254359
 30
0.0
 11
10158.6
 21
6901.34457425434
 31
0.0
  0
LINE
  5
23FD7
102
{ACAD_REACTORS
330
23FED
102
}
330
747D
100
AcDbEntity
  8
部品1
 48
50.0
100
AcDbLine
 10
6288.600000000002
 20
6421.34457425436
 30
0.0
 11
6288.599999999997
 21
6901.344574254345
 31
0.0
  0
HATCH
  5
23FED
330
747D
100
AcDbEntity
  8
細線
 48
50.0
100
AcDbHatch
 10
0.0
 20
0.0
 30
0.0
210
0.0
220
0.0
230
1.0
  2
LINE
 70
     0
 71
     1
 91
        1
 92
        7
 72
     0
 73
     1
 93
        4
 10
6288.599999999998
 20
6746.344574254361
 10
6168.600000000001
 20
6746.344574254364
 10
6168.600000000001
 20
6546.344574254362
 10
6288.599999999999
 20
6546.34457425436
 97
        4
330
23819
330
23804
330
23816
330
23FD7
 75
     0
 76
     1
 52
45.0
 41
10.0
 77
     0
 78
     1
 53
45.0
 43
0.0
 44
0.0
 45
-22.45064030267288
 46
22.45064030267288
 79
     0
 47
3.28096831300865
 98
        1
 10
6214.422925945982
 20
6710.995035266646
  0
HATCH
  5
23FFC
330
747D
100
AcDbEntity
  8
細線
 48
50.0
100
AcDbHatch
 10
0.0
 20
0.0
 30
0.0
210
0.0
220
0.0
230
1.0
  2
LINE
 70
     0
 71
     1
 91
        1
 92
        7
 72
     0
 73
     1
 93
        4
 10
10278.6
 20
6746.344574254364
 10
10158.6
 20
6746.344574254367
 10
10158.6
 20
6546.344574254367
 10
10278.6
 20
6546.344574254367
 97
        4
330
238A9
330
23FD6
330
238A6
330
23876
 75
     0
 76
     1
 52
45.0
 41
10.0
 77
     0
 78
     1
 53
45.0
 43
0.0
 44
0.0
 45
-22.45064030267288
 46
22.45064030267288
 79
     0
 47
2.904992064785694
 98
        1
 10
10228.52804472043
 20
6612.7804001146
  0
MTEXT
  5
244BA
102
{ACAD_REACTORS
330
244BB
102
}
330
747D
100
AcDbEntity
  8
寸法
 62
     7
 48
50.0
100
AcDbMText
 10
10519.19735489501
 20
2403.378668626415
 30
0.0
 40
120.0
 41
0.8
 71
     4
 72
     1
  1
\A1;C.B
  7
STYLE1
 73
     1
 44
1.0
1001
ACAD
1000
MTEXTBEGIN
1070
    73
1070
     1
1070
    44
1040
1.0
1070
    74
1070
     0
1000
MTEXTEND
  0
LEADER
  5
244BB
330
747D
100
AcDbEntity
  8
寸法
 48
50.0
100
AcDbLeader
  3
INABA_S50G
 73
     0
 74
     0
 75
     1
 40
120.0
 41
185.591883092037
 76
     3
 10
10336.05914826136
 20
2146.232347945277
 30
0.0
 10
10369.19735489501
 20
2318.378668626415
 30
0.0
 10
10494.19735489501
 20
2318.378668626415
 30
0.0
340
244BA
1001
ACAD
1000
DSTYLE
1002
{
1070
    40
1040
1.0
1002
}
  0
LINE
  5
244BC
330
747D
100
AcDbEntity
  8
細線
 48
50.0
100
AcDbLine
 10
10481.71256183777
 20
1790.533432291926
 30
0.0
 11
10475.28178121943
 21
1814.533432291926
 31
0.0
  0
LINE
  5
244BD
330
747D
100
AcDbEntity
  8
細線
 48
50.0
100
AcDbLine
 10
10460.27662644329
 20
1710.533432291926
 30
0.0
 11
10466.70740706163
 21
1686.533432291926
 31
0.0
  0
LINE
  5
244BE
330
747D
100
AcDbEntity
  8
部品1
100
AcDbLine
 10
10525.33473664544
 20
1906.232347945277
 30
0.0
 11
10525.33473664544
 21
1686.533432291927
 31
0.0
  0
LINE
  5
244BF
330
747D
100
AcDbEntity
  8
細線
 48
50.0
100
AcDbLine
 10
10453.84584582493
 20
1686.533432291926
 30
0.0
 11
10488.14334245612
 21
1814.533432291924
 31
0.0
  0
LINE
  5
244C0
330
747D
100
AcDbEntity
  8
細線
 48
50.0
100
AcDbLine
 10
10402.82451689053
 20
1790.533432291926
 30
0.0
 11
10396.39373627218
 21
1814.533432291926
 31
0.0
  0
LINE
  5
244C1
330
747D
100
AcDbEntity
  8
細線
100
AcDbLine
 10
10278.37113114477
 20
1814.533432291929
 30
0.0
 11
10370.07004679812
 21
1906.232347945277
 31
0.0
  0
LINE
  5
244C2
330
747D
100
AcDbEntity
  8
細線
 48
50.0
100
AcDbLine
 10
10323.93647194327
 20
1790.533432291927
 30
0.0
 11
10317.50569132492
 21
1814.533432291927
 31
0.0
  0
LINE
  5
244C3
330
747D
100
AcDbEntity
  8
細線
100
AcDbLine
 10
10312.31225664173
 20
1814.533432291929
 30
0.0
 11
10404.01117229507
 21
1906.232347945277
 31
0.0
  0
LINE
  5
244C4
330
747D
100
AcDbEntity
  8
細線
 48
50.0
100
AcDbLine
 10
10087.27233710154
 20
1790.533432291927
 30
0.0
 11
10080.84155648319
 21
1814.533432291927
 31
0.0
  0
LINE
  5
244C5
330
747D
100
AcDbEntity
  8
細線
 48
50.0
100
AcDbLine
 10
10166.16038204879
 20
1790.533432291927
 30
0.0
 11
10159.72960143044
 21
1814.533432291927
 31
0.0
  0
LINE
  5
244C6
330
747D
100
AcDbEntity
  8
細線
 48
50.0
100
AcDbLine
 10
10245.04842699603
 20
1790.533432291927
 30
0.0
 11
10238.61764637769
 21
1814.533432291927
 31
0.0
  0
LINE
  5
244C7
330
747D
100
AcDbEntity
  8
細線
 48
50.0
100
AcDbLine
 10
10381.38858149604
 20
1710.533432291926
 30
0.0
 11
10387.81936211438
 21
1686.533432291926
 31
0.0
  0
LINE
  5
244C8
330
747D
100
AcDbEntity
  8
細線
 48
50.0
100
AcDbLine
 10
10302.50053654879
 20
1710.533432291927
 30
0.0
 11
10308.93131716715
 21
1686.533432291927
 31
0.0
  0
LINE
  5
244C9
330
747D
100
AcDbEntity
  8
細線
 48
50.0
100
AcDbLine
 10
10144.7244466543
 20
1710.533432291927
 30
0.0
 11
10151.15522727264
 21
1686.533432291927
 31
0.0
  0
LINE
  5
244CA
330
747D
100
AcDbEntity
  8
細線
 48
50.0
100
AcDbLine
 10
10223.61249160154
 20
1710.533432291927
 30
0.0
 11
10230.04327221989
 21
1686.533432291927
 31
0.0
  0
LINE
  5
244CB
330
747D
100
AcDbEntity
  8
細線
 48
50.0
100
AcDbLine
 10
10217.18171098319
 20
1686.533432291927
 30
0.0
 11
10251.47920761438
 21
1814.533432291926
 31
0.0
  0
LINE
  5
244CC
330
747D
100
AcDbEntity
  8
細線
 48
50.0
100
AcDbLine
 10
10138.29366603595
 20
1686.533432291926
 30
0.0
 11
10172.59116266713
 21
1814.533432291926
 31
0.0
  0
LINE
  5
244CD
330
747D
100
AcDbEntity
  8
細線
 48
50.0
100
AcDbLine
 10
10296.06975593044
 20
1686.533432291926
 30
0.0
 11
10330.36725256161
 21
1814.533432291927
 31
0.0
  0
LINE
  5
244CE
330
747D
100
AcDbEntity
  8
細線
100
AcDbLine
 10
10346.25338213868
 20
1814.533432291929
 30
0.0
 11
10437.95229779203
 21
1906.232347945277
 31
0.0
  0
LINE
  5
244CF
330
747D
100
AcDbEntity
  8
細線
 48
50.0
100
AcDbLine
 10
10374.95780087769
 20
1686.533432291924
 30
0.0
 11
10409.25529750887
 21
1814.533432291924
 31
0.0
  0
LINE
  5
244D0
330
747D
100
AcDbEntity
  8
部品1
100
AcDbLine
 10
10405.33473664544
 20
2146.232347945277
 30
0.0
 11
10405.33473664544
 21
1906.232347945277
 31
0.0
  0
LINE
  5
244D1
330
747D
100
AcDbEntity
  8
細線
100
AcDbLine
 10
10391.49707429786
 20
1906.232347945279
 30
0.0
 11
10151.49707429786
 21
2146.232347945277
 31
0.0
  0
LINE
  5
244D2
330
747D
100
AcDbEntity
  8
細線
100
AcDbLine
 10
10340.58538605243
 20
1906.232347945277
 30
0.0
 11
10100.58538605243
 21
2146.232347945277
 31
0.0
  0
LINE
  5
244D3
330
747D
100
AcDbEntity
  8
細線
100
AcDbLine
 10
9952.312256641731
 20
1814.533432291927
 30
0.0
 11
10044.01117229507
 21
1906.232347945277
 31
0.0
  0
LINE
  5
244D4
330
747D
100
AcDbEntity
  8
細線
100
AcDbLine
 10
9918.371131144773
 20
1814.533432291927
 30
0.0
 11
10010.07004679812
 21
1906.232347945277
 31
0.0
  0
LINE
  5
244D5
330
747D
100
AcDbEntity
  8
細線
 48
50.0
100
AcDbLine
 10
9929.496247207044
 20
1790.533432291927
 30
0.0
 11
9923.065466588697
 21
1814.533432291927
 31
0.0
  0
LINE
  5
244D6
330
747D
100
AcDbEntity
  8
細線
 48
50.0
100
AcDbLine
 10
10008.38429215429
 20
1790.533432291927
 30
0.0
 11
10001.95351153595
 21
1814.533432291927
 31
0.0
  0
LINE
  5
244D7
330
747D
100
AcDbEntity
  8
細線
 48
50.0
100
AcDbLine
 10
9850.608202259794
 20
1790.533432291927
 30
0.0
 11
9844.177421641447
 21
1814.533432291927
 31
0.0
  0
LINE
  5
244D8
330
747D
100
AcDbEntity
  8
細線
 48
50.0
100
AcDbLine
 10
10065.83640170705
 20
1710.533432291927
 30
0.0
 11
10072.2671823254
 21
1686.533432291927
 31
0.0
  0
LINE
  5
244D9
330
747D
100
AcDbEntity
  8
細線
 48
50.0
100
AcDbLine
 10
9986.948356759809
 20
1710.533432291927
 30
0.0
 11
9993.379137378154
 21
1686.533432291927
 31
0.0
  0
LINE
  5
244DA
330
747D
100
AcDbEntity
  8
細線
 48
50.0
100
AcDbLine
 10
9829.172266865304
 20
1710.533432291927
 30
0.0
 11
9835.603047483651
 21
1686.533432291927
 31
0.0
  0
LINE
  5
244DB
330
747D
100
AcDbEntity
  8
細線
 48
50.0
100
AcDbLine
 10
9908.060311812555
 20
1710.533432291927
 30
0.0
 11
9914.491092430903
 21
1686.533432291927
 31
0.0
  0
LINE
  5
244DC
330
747D
100
AcDbEntity
  8
部品1
100
AcDbLine
 10
9805.334736645443
 20
1686.533432291923
 30
0.0
 11
9805.334736645443
 21
1906.232347945277
 31
0.0
  0
LINE
  5
244DD
330
747D
100
AcDbEntity
  8
細線
 48
50.0
100
AcDbLine
 10
9822.741486246956
 20
1686.533432291927
 30
0.0
 11
9857.038982878142
 21
1814.533432291927
 31
0.0
  0
LINE
  5
244DE
330
747D
100
AcDbEntity
  8
細線
 48
50.0
100
AcDbLine
 10
9980.517576141455
 20
1686.533432291927
 30
0.0
 11
10014.81507277264
 21
1814.533432291927
 31
0.0
  0
LINE
  5
244DF
330
747D
100
AcDbEntity
  8
細線
 48
50.0
100
AcDbLine
 10
9901.629531194203
 20
1686.533432291926
 30
0.0
 11
9935.927027825385
 21
1814.533432291926
 31
0.0
  0
LINE
  5
244E0
330
747D
100
AcDbEntity
  8
部品1
100
AcDbLine
 10
9925.334736645444
 20
1906.232347945277
 30
0.0
 11
9925.334736645444
 21
2146.232347945277
 31
0.0
  0
TEXT
  5
244E1
330
747D
100
AcDbEntity
  8
部品1
 48
50.0
100
AcDbText
 10
9161.216649886942
 20
1639.432607307968
 30
0.0
 40
80.0
  1
ボルトの出
 50
90.0
  7
STYLE2
100
AcDbText
  0
LINE
  5
244E2
330
747D
100
AcDbEntity
  8
細線
100
AcDbLine
 10
10069.05638207679
 20
1906.232347945277
 30
0.0
 11
9925.334736645444
 21
2049.95399337663
 31
0.0
  0
LWPOLYLINE
  5
244E3
330
747D
100
AcDbEntity
  8
部品1
 48
50.0
100
AcDbPolyline
 90
        2
 70
     0
 43
12.0
 10
9540.723474545055
 20
1906.232347945277
 10
10741.81577767668
 20
1906.232347945277
  0
LINE
  5
244E4
330
747D
100
AcDbEntity
  8
細線
100
AcDbLine
 10
9986.253382138686
 20
1814.533432291927
 30
0.0
 11
10077.95229779203
 21
1906.232347945277
 31
0.0
  0
LINE
  5
244E5
330
747D
100
AcDbEntity
  8
部品1
100
AcDbLine
 10
9805.334736645443
 20
1814.533432291927
 30
0.0
 11
10525.33473664544
 21
1814.53343229193
 31
0.0
  0
LINE
  5
244E6
330
747D
100
AcDbEntity
  8
部品1
100
AcDbLine
 10
9805.334736645443
 20
1686.533432291923
 30
0.0
 11
10525.33473664544
 21
1686.533432291927
 31
0.0
  0
LINE
  5
244E7
330
747D
100
AcDbEntity
  8
細線
 48
50.0
100
AcDbLine
 10
10059.4056210887
 20
1686.533432291927
 30
0.0
 11
10093.70311771988
 21
1814.533432291926
 31
0.0
  0
LINE
  5
244E8
330
747D
100
AcDbEntity
  8
部品1
100
AcDbLine
 10
9925.334736645444
 20
2146.232347945277
 30
0.0
 11
10405.33473664544
 21
2146.232347945277
 31
0.0
  0
LINE
  5
244E9
330
747D
100
AcDbEntity
  8
細線
100
AcDbLine
 10
10119.96807032222
 20
1906.232347945277
 30
0.0
 11
9925.334736645444
 21
2100.86568162206
 31
0.0
  0
LINE
  5
244EA
330
747D
100
AcDbEntity
  8
部品1
100
AcDbLine
 10
11112.07623774247
 20
581.2640455612154
 30
0.0
 11
11112.07623774248
 21
3545.571015145863
 31
0.0
  0
TEXT
  5
244EB
330
747D
100
AcDbEntity
  8
部品1
100
AcDbText
 10
7733.971053534617
 20
3366.019083194435
 30
0.0
 40
120.0
  1
基礎詳細
  7
STYLE2
100
AcDbText
  0
LINE
  5
244EC
330
747D
100
AcDbEntity
  8
部品1
 48
50.0
100
AcDbLine
 10
8049.198804342687
 20
2545.10762905442
 30
0.0
 11
8065.198804342687
 21
2537.10762905442
 31
0.0
  0
LINE
  5
244ED
330
747D
100
AcDbEntity
  8
細線
 48
50.0
100
AcDbLine
 10
8017.198804342687
 20
2497.10762905442
 30
0.0
 11
8017.198804342687
 21
2529.10762905442
 31
0.0
  0
LINE
  5
244EE
330
747D
100
AcDbEntity
  8
部品1
 48
50.0
100
AcDbLine
 10
8065.198804342687
 20
2505.10762905442
 30
0.0
 11
8065.198804342687
 21
2537.10762905442
 31
0.0
  0
LINE
  5
244EF
330
747D
100
AcDbEntity
  8
細線
 48
50.0
100
AcDbLine
 10
8049.198804342687
 20
2497.10762905442
 30
0.0
 11
8049.198804342687
 21
2529.10762905442
 31
0.0
  0
LINE
  5
244F0
330
747D
100
AcDbEntity
  8
部品1
 48
50.0
100
AcDbLine
 10
8049.198804342687
 20
2529.10762905442
 30
0.0
 11
8065.198804342687
 21
2537.10762905442
 31
0.0
  0
LINE
  5
244F1
330
747D
100
AcDbEntity
  8
部品1
 48
50.0
100
AcDbLine
 10
8017.198804342687
 20
2529.10762905442
 30
0.0
 11
8049.198804342687
 21
2529.10762905442
 31
0.0
  0
LINE
  5
244F2
330
747D
100
AcDbEntity
  8
部品1
 48
50.0
100
AcDbLine
 10
8049.198804342687
 20
2497.10762905442
 30
0.0
 11
8065.198804342687
 21
2505.10762905442
 31
0.0
  0
LINE
  5
244F3
330
747D
100
AcDbEntity
  8
部品1
 48
50.0
100
AcDbLine
 10
8017.198804342687
 20
2497.10762905442
 30
0.0
 11
8049.198804342687
 21
2497.10762905442
 31
0.0
  0
ELLIPSE
  5
244F4
330
747D
100
AcDbEntity
  8
細線
 48
50.0
100
AcDbEllipse
 10
8033.198804342687
 20
2537.10762905442
 30
0.0
 11
14.76670786606846
 21
0.0
 31
0.0
210
0.0
220
0.0
230
1.0
 40
0.2071254069489396
 41
0.0
 42
6.283185307179586
  0
LINE
  5
244F5
330
747D
100
AcDbEntity
  8
部品1
 48
50.0
100
AcDbLine
 10
8017.198804342687
 20
2545.10762905442
 30
0.0
 11
8049.198804342687
 21
2545.10762905442
 31
0.0
  0
LINE
  5
244F6
330
747D
100
AcDbEntity
  8
部品1
 48
50.0
100
AcDbLine
 10
8001.198804342687
 20
2505.10762905442
 30
0.0
 11
8001.198804342687
 21
2537.10762905442
 31
0.0
  0
LINE
  5
244F7
330
747D
100
AcDbEntity
  8
部品1
 48
50.0
100
AcDbLine
 10
8001.198804342687
 20
2537.10762905442
 30
0.0
 11
8017.198804342687
 21
2545.10762905442
 31
0.0
  0
LINE
  5
244F8
330
747D
100
AcDbEntity
  8
部品1
 48
50.0
100
AcDbLine
 10
8001.198804342687
 20
2505.10762905442
 30
0.0
 11
8017.198804342687
 21
2497.10762905442
 31
0.0
  0
LINE
  5
244F9
330
747D
100
AcDbEntity
  8
部品1
 48
50.0
100
AcDbLine
 10
8001.198804342687
 20
2537.10762905442
 30
0.0
 11
8017.198804342687
 21
2529.10762905442
 31
0.0
  0
LINE
  5
244FA
330
747D
100
AcDbEntity
  8
部品1
 48
50.0
100
AcDbLine
 10
8073.198804342686
 20
2405.75563638955
 30
0.0
 11
8073.198804342686
 21
2415.35563638955
 31
0.0
  0
ELLIPSE
  5
244FB
330
747D
100
AcDbEntity
  8
部品1
 48
50.0
100
AcDbEllipse
 10
8033.198804342687
 20
2415.35563638955
 30
0.0
 11
18.4
 21
0.0
 31
0.0
210
0.0
220
0.0
230
1.0
 40
0.3478260869565217
 41
0.0
 42
6.283185307179586
  0
ARC
  5
244FC
330
747D
100
AcDbEntity
  8
部品1
100
AcDbCircle
 10
7872.098804342686
 20
2244.332347945277
 30
0.0
 40
2.7
100
AcDbArc
 50
90.0
 51
180.0
  0
LINE
  5
244FD
330
747D
100
AcDbEntity
  8
部品1
100
AcDbLine
 10
7874.798804342685
 20
2257.832347945277
 30
0.0
 11
7917.098804342685
 21
2257.832347945274
 31
0.0
  0
LINE
  5
244FE
330
747D
100
AcDbEntity
  8
部品1
100
AcDbLine
 10
7872.098804342686
 20
2247.032347945277
 30
0.0
 11
7872.098804342686
 21
2255.132347945277
 31
0.0
  0
LINE
  5
244FF
330
747D
100
AcDbEntity
  8
部品1
100
AcDbLine
 10
7872.098804342686
 20
2247.032347945277
 30
0.0
 11
7872.098804342686
 21
2247.032347945277
 31
0.0
  0
ARC
  5
24500
330
747D
100
AcDbEntity
  8
部品1
100
AcDbCircle
 10
7874.798804342685
 20
2255.132347945277
 30
0.0
 40
2.7
100
AcDbArc
 50
90.0
 51
180.0
  0
ARC
  5
24501
330
747D
100
AcDbEntity
  8
部品1
100
AcDbCircle
 10
7917.098804342685
 20
2255.132347945274
 30
0.0
 40
2.7
100
AcDbArc
 50
0.0
 51
90.0
  0
LINE
  5
24502
330
747D
100
AcDbEntity
  8
部品1
 48
50.0
100
AcDbLine
 10
7993.198804342687
 20
2415.35563638955
 30
0.0
 11
7993.198804342687
 21
2405.75563638955
 31
0.0
  0
ELLIPSE
  5
24503
330
747D
100
AcDbEntity
  8
部品1
 48
50.0
100
AcDbEllipse
 10
8033.198804342687
 20
2405.75563638955
 30
0.0
 11
40.0
 21
0.0
 31
0.0
210
0.0
220
0.0
230
1.0
 40
0.4
 41
3.141592653589793
 42
6.283185307179586
  0
ELLIPSE
  5
24504
330
747D
100
AcDbEntity
  8
部品1
 48
50.0
100
AcDbEllipse
 10
8033.198804342687
 20
2415.35563638955
 30
0.0
 11
40.0
 21
0.0
 31
0.0
210
0.0
220
0.0
230
1.0
 40
0.4
 41
0.0
 42
6.283185307179586
  0
LINE
  5
24505
330
747D
100
AcDbEntity
  8
部品1
100
AcDbLine
 10
8027.798804342685
 20
2198.992347945277
 30
0.0
 11
8038.598804342687
 21
2198.992347945277
 31
0.0
  0
LINE
  5
24506
330
747D
100
AcDbEntity
  8
部品1
100
AcDbLine
 10
8024.198804342686
 20
2195.392347945278
 30
0.0
 11
8042.198804342687
 21
2195.392347945278
 31
0.0
  0
LINE
  5
24507
330
747D
100
AcDbEntity
  8
細線
100
AcDbLine
 10
8027.798804342689
 20
2155.792347945277
 30
0.0
 11
8027.798804342685
 21
2198.992347945277
 31
0.0
  0
LINE
  5
24508
330
747D
100
AcDbEntity
  8
細線
100
AcDbLine
 10
8038.598804342687
 20
2155.792347945277
 30
0.0
 11
8038.598804342687
 21
2198.992347945277
 31
0.0
  0
LINE
  5
24509
330
747D
100
AcDbEntity
  8
部品1
100
AcDbLine
 10
7940.498804342685
 20
2213.092347945277
 30
0.0
 11
7940.498804342685
 21
2195.992347945277
 31
0.0
  0
LINE
  5
2450A
330
747D
100
AcDbEntity
  8
部品1
100
AcDbLine
 10
7974.058804342686
 20
2213.092347945277
 30
0.0
 11
7974.058804342684
 21
2158.492347945277
 31
0.0
  0
ARC
  5
2450B
330
747D
100
AcDbEntity
  8
部品1
100
AcDbCircle
 10
7959.398804342687
 20
2201.132347945277
 30
0.0
 40
2.7
100
AcDbArc
 50
0.0
 51
90.0
  0
LINE
  5
2450C
330
747D
100
AcDbEntity
  8
部品1
100
AcDbLine
 10
7919.798804342685
 20
2203.832347945278
 30
0.0
 11
7959.398804342687
 21
2203.832347945278
 31
0.0
  0
ARC
  5
2450D
330
747D
100
AcDbEntity
  8
部品1
100
AcDbCircle
 10
7959.398804342687
 20
2158.492347945277
 30
0.0
 40
2.7
100
AcDbArc
 50
270.0
 51
0.0
  0
ARC
  5
2450E
330
747D
100
AcDbEntity
  8
部品1
100
AcDbCircle
 10
7976.758804342681
 20
2158.492347945277
 30
0.0
 40
2.7
100
AcDbArc
 50
180.0
 51
270.0
  0
LINE
  5
2450F
330
747D
100
AcDbEntity
  8
部品1
100
AcDbLine
 10
7947.698804342687
 20
2155.792347945277
 30
0.0
 11
7959.398804342687
 21
2155.792347945277
 31
0.0
  0
LINE
  5
24510
330
747D
100
AcDbEntity
  8
部品1
100
AcDbLine
 10
7962.098804342686
 20
2201.132347945277
 30
0.0
 11
7962.098804342686
 21
2158.492347945277
 31
0.0
  0
ARC
  5
24511
330
747D
100
AcDbEntity
  8
部品1
100
AcDbCircle
 10
7971.358804342687
 20
2213.092347945277
 30
0.0
 40
2.7
100
AcDbArc
 50
0.0
 51
90.0
  0
ARC
  5
24512
330
747D
100
AcDbEntity
  8
部品1
100
AcDbCircle
 10
7943.198804342687
 20
2213.092347945277
 30
0.0
 40
2.7
100
AcDbArc
 50
90.0
 51
180.0
  0
LINE
  5
24513
330
747D
100
AcDbEntity
  8
部品1
100
AcDbLine
 10
7943.198804342687
 20
2215.792347945278
 30
0.0
 11
7971.358804342687
 21
2215.792347945278
 31
0.0
  0
LINE
  5
24514
330
747D
100
AcDbEntity
  8
部品1
100
AcDbLine
 10
7919.798804342685
 20
2255.132347945274
 30
0.0
 11
7919.798804342685
 21
2203.832347945278
 31
0.0
  0
LINE
  5
24515
330
747D
100
AcDbEntity
  8
部品1
100
AcDbLine
 10
7869.398804342687
 20
2236.232347945277
 30
0.0
 11
7869.398804342687
 21
2244.332347945277
 31
0.0
  0
LINE
  5
24516
330
747D
100
AcDbEntity
  8
部品1
100
AcDbLine
 10
7976.758804342681
 20
2155.792347945277
 30
0.0
 11
8178.098804342679
 21
2155.792347945277
 31
0.0
  0
LINE
  5
24517
330
747D
100
AcDbEntity
  8
部品1
100
AcDbLine
 10
7818.098804342686
 20
2158.492347945277
 30
0.0
 11
7818.098804342686
 21
2220.624251647985
 31
0.0
  0
LINE
  5
24518
330
747D
100
AcDbEntity
  8
部品1
100
AcDbLine
 10
7820.798804342685
 20
2155.792347945277
 30
0.0
 11
7832.49880434268
 21
2155.792347945277
 31
0.0
  0
LINE
  5
24519
330
747D
100
AcDbEntity
  8
細線
 48
50.0
100
AcDbLine
 10
7811.798804342685
 20
2134.012924245182
 30
0.0
 11
7824.01822804278
 21
2146.232347945277
 31
0.0
  0
ARC
  5
2451A
330
747D
100
AcDbEntity
  8
部品1
100
AcDbCircle
 10
7820.798804342685
 20
2158.492347945277
 30
0.0
 40
2.7
100
AcDbArc
 50
180.0
 51
270.0
  0
LINE
  5
2451B
330
747D
100
AcDbEntity
  8
部品1
100
AcDbLine
 10
7820.143958155087
 20
2223.243636398377
 30
0.0
 11
7828.898804342687
 21
2225.432347945277
 31
0.0
  0
ARC
  5
2451C
330
747D
100
AcDbEntity
  8
部品1
100
AcDbCircle
 10
7820.798804342685
 20
2220.624251647985
 30
0.0
 40
2.7
100
AcDbArc
 50
104.0362434679059
 51
180.0
  0
ARC
  5
2451D
330
747D
100
AcDbEntity
  8
部品1
100
AcDbCircle
 10
7831.598804342686
 20
2233.532347945277
 30
0.0
 40
2.7
100
AcDbArc
 50
90.0
 51
180.0
  0
LINE
  5
2451E
330
747D
100
AcDbEntity
  8
部品1
100
AcDbLine
 10
7828.898804342687
 20
2225.432347945277
 30
0.0
 11
7828.898804342687
 21
2233.532347945277
 31
0.0
  0
LINE
  5
2451F
330
747D
100
AcDbEntity
  8
部品1
 48
50.0
100
AcDbLine
 10
7811.798804342685
 20
2146.232347945277
 30
0.0
 11
8225.798804342689
 21
2146.232347945277
 31
0.0
  0
LINE
  5
24520
330
747D
100
AcDbEntity
  8
細線
 48
50.0
100
AcDbLine
 10
7811.798804342685
 20
2080.131387518767
 30
0.0
 11
7877.899764769196
 21
2146.232347945277
 31
0.0
  0
LINE
  5
24521
330
747D
100
AcDbEntity
  8
細線
 48
50.0
100
AcDbLine
 10
7811.798804342685
 20
2107.072155881975
 30
0.0
 11
7850.958996405992
 21
2146.232347945277
 31
0.0
  0
LINE
  5
24522
330
747D
100
AcDbEntity
  8
部品1
100
AcDbLine
 10
7831.598804342686
 20
2236.232347945277
 30
0.0
 11
7869.398804342687
 21
2236.232347945277
 31
0.0
  0
LINE
  5
24523
330
747D
100
AcDbEntity
  8
部品1
 48
50.0
100
AcDbLine
 10
8225.798804342685
 20
1602.232347945277
 30
0.0
 11
8353.798804342686
 21
1602.232347945277
 31
0.0
  0
LINE
  5
24524
330
747D
100
AcDbEntity
  8
部品1
100
AcDbLine
 10
8042.198804342687
 20
1921.232347945277
 30
0.0
 11
8078.198804342687
 21
1921.232347945277
 31
0.0
  0
LINE
  5
24525
330
747D
100
AcDbEntity
  8
部品1
100
AcDbLine
 10
8042.198804342687
 20
1903.232347945277
 30
0.0
 11
8078.198804342687
 21
1903.232347945277
 31
0.0
  0
ARC
  5
24526
330
747D
100
AcDbEntity
  8
部品1
100
AcDbCircle
 10
8042.198804342687
 20
1921.232347945277
 30
0.0
 40
18.0
100
AcDbArc
 50
180.0
 51
270.0
  0
LINE
  5
24527
330
747D
100
AcDbEntity
  8
部品1
100
AcDbLine
 10
8078.198804342687
 20
1903.232347945277
 30
0.0
 11
8078.198804342687
 21
1921.232347945277
 31
0.0
  0
LINE
  5
24528
330
747D
100
AcDbEntity
  8
部品1
100
AcDbLine
 10
8096.198804342687
 20
1822.232347945275
 30
0.0
 11
7970.198804342679
 21
1822.232347945275
 31
0.0
  0
LINE
  5
24529
330
747D
100
AcDbEntity
  8
細線
 48
50.0
100
AcDbLine
 10
8390.176629535021
 20
1338.232347945275
 30
0.0
 11
8383.745848916674
 21
1362.232347945275
 31
0.0
  0
LINE
  5
2452A
330
747D
100
AcDbEntity
  8
細線
 48
50.0
100
AcDbLine
 10
8311.288584587776
 20
1338.232347945275
 30
0.0
 11
8304.857803969429
 21
1362.232347945275
 31
0.0
  0
LINE
  5
2452B
330
747D
100
AcDbEntity
  8
細線
 48
50.0
100
AcDbLine
 10
8232.40053964052
 20
1338.232347945277
 30
0.0
 11
8225.969759022172
 21
1362.232347945277
 31
0.0
  0
LINE
  5
2452C
330
747D
100
AcDbEntity
  8
細線
 48
50.0
100
AcDbLine
 10
8368.740694140532
 20
1258.232347945275
 30
0.0
 11
8375.171474758879
 21
1234.232347945275
 31
0.0
  0
LINE
  5
2452D
330
747D
100
AcDbEntity
  8
細線
 48
50.0
100
AcDbLine
 10
8289.852649193287
 20
1258.232347945275
 30
0.0
 11
8296.283429811632
 21
1234.232347945275
 31
0.0
  0
LINE
  5
2452E
330
747D
100
AcDbEntity
  8
細線
 48
50.0
100
AcDbLine
 10
8210.964604246036
 20
1258.232347945277
 30
0.0
 11
8217.395384864394
 21
1234.232347945277
 31
0.0
  0
LINE
  5
2452F
330
747D
100
AcDbEntity
  8
細線
 48
50.0
100
AcDbLine
 10
8283.421868574937
 20
1234.232347945274
 30
0.0
 11
8317.719365206119
 21
1362.232347945274
 31
0.0
  0
LINE
  5
24530
330
747D
100
AcDbEntity
  8
細線
 48
50.0
100
AcDbLine
 10
8204.533823627688
 20
1234.232347945275
 30
0.0
 11
8238.831320258862
 21
1362.232347945277
 31
0.0
  0
LINE
  5
24531
330
747D
100
AcDbEntity
  8
細線
 48
50.0
100
AcDbLine
 10
8362.30991352218
 20
1234.232347945275
 30
0.0
 11
8396.607410153366
 21
1362.232347945274
 31
0.0
  0
LINE
  5
24532
330
747D
100
AcDbEntity
  8
部品1
 48
50.0
100
AcDbLine
 10
8433.798804342689
 20
1362.232347945277
 30
0.0
 11
8433.798804342689
 21
1234.232347945277
 31
0.0
  0
LINE
  5
24533
330
747D
100
AcDbEntity
  8
細線
 48
50.0
100
AcDbLine
 10
8153.512494693281
 20
1338.232347945277
 30
0.0
 11
8147.081714074934
 21
1362.232347945277
 31
0.0
  0
LINE
  5
24534
330
747D
100
AcDbEntity
  8
細線
 48
50.0
100
AcDbLine
 10
8074.624449746035
 20
1338.232347945277
 30
0.0
 11
8068.193669127687
 21
1362.232347945277
 31
0.0
  0
LINE
  5
24535
330
747D
100
AcDbEntity
  8
細線
 48
50.0
100
AcDbLine
 10
7916.848359851541
 20
1338.232347945277
 30
0.0
 11
7910.417579233196
 21
1362.232347945277
 31
0.0
  0
LINE
  5
24536
330
747D
100
AcDbEntity
  8
細線
 48
50.0
100
AcDbLine
 10
7995.736404798788
 20
1338.232347945277
 30
0.0
 11
7989.30562418044
 21
1362.232347945277
 31
0.0
  0
LINE
  5
24537
330
747D
100
AcDbEntity
  8
細線
 48
50.0
100
AcDbLine
 10
8053.188514351546
 20
1258.232347945277
 30
0.0
 11
8059.619294969893
 21
1234.232347945277
 31
0.0
  0
LINE
  5
24538
330
747D
100
AcDbEntity
  8
細線
 48
50.0
100
AcDbLine
 10
8132.076559298793
 20
1258.232347945277
 30
0.0
 11
8138.507339917138
 21
1234.232347945277
 31
0.0
  0
LINE
  5
24539
330
747D
100
AcDbEntity
  8
細線
 48
50.0
100
AcDbLine
 10
7895.412424457052
 20
1258.232347945277
 30
0.0
 11
7901.8432050754
 21
1234.232347945277
 31
0.0
  0
LINE
  5
2453A
330
747D
100
AcDbEntity
  8
細線
 48
50.0
100
AcDbLine
 10
7974.300469404299
 20
1258.232347945277
 30
0.0
 11
7980.731250022647
 21
1234.232347945277
 31
0.0
  0
LINE
  5
2453B
330
747D
100
AcDbEntity
  8
細線
 48
50.0
100
AcDbLine
 10
8125.645778680439
 20
1234.232347945277
 30
0.0
 11
8159.943275311624
 21
1362.232347945275
 31
0.0
  0
LINE
  5
2453C
330
747D
100
AcDbEntity
  8
細線
 48
50.0
100
AcDbLine
 10
7967.869688785947
 20
1234.232347945277
 30
0.0
 11
8002.167185417134
 21
1362.232347945275
 31
0.0
  0
LINE
  5
2453D
330
747D
100
AcDbEntity
  8
細線
 48
50.0
100
AcDbLine
 10
7888.9816438387
 20
1234.232347945277
 30
0.0
 11
7923.279140469884
 21
1362.232347945277
 31
0.0
  0
LINE
  5
2453E
330
747D
100
AcDbEntity
  8
細線
 48
50.0
100
AcDbLine
 10
8046.757733733198
 20
1234.232347945275
 30
0.0
 11
8081.055230364379
 21
1362.232347945275
 31
0.0
  0
LINE
  5
2453F
330
747D
100
AcDbEntity
  8
細線
 48
50.0
100
AcDbLine
 10
8171.530499297494
 20
1362.232347945277
 30
0.0
 11
8353.798804342686
 21
1544.500652990473
 31
0.0
  0
LINE
  5
24540
330
747D
100
AcDbEntity
  8
部品1
 48
50.0
100
AcDbLine
 10
8353.798804342686
 20
1602.232347945277
 30
0.0
 11
8353.798804342686
 21
1362.232347945277
 31
0.0
  0
LINE
  5
24541
330
747D
100
AcDbEntity
  8
細線
 48
50.0
100
AcDbLine
 10
8144.58973093429
 20
1362.232347945277
 30
0.0
 11
8353.798804342686
 21
1571.44142135367
 31
0.0
  0
LINE
  5
24542
330
747D
100
AcDbEntity
  8
細線
 48
50.0
100
AcDbLine
 10
8117.648962571079
 20
1362.232347945277
 30
0.0
 11
8353.798804342686
 21
1598.382189716885
 31
0.0
  0
LINE
  5
24543
330
747D
100
AcDbEntity
  8
細線
 48
50.0
100
AcDbLine
 10
7902.12281566542
 20
1362.232347945277
 30
0.0
 11
8225.798804342685
 21
1685.908336622543
 31
0.0
  0
LINE
  5
24544
330
747D
100
AcDbEntity
  8
細線
 48
50.0
100
AcDbLine
 10
7956.004352391835
 20
1362.232347945277
 30
0.0
 11
8225.798804342685
 21
1632.026799896134
 31
0.0
  0
LINE
  5
24545
330
747D
100
AcDbEntity
  8
細線
 48
50.0
100
AcDbLine
 10
7929.06358402863
 20
1362.232347945277
 30
0.0
 11
8225.798804342685
 21
1658.96756825933
 31
0.0
  0
LINE
  5
24546
330
747D
100
AcDbEntity
  8
細線
 48
50.0
100
AcDbLine
 10
7683.798804342682
 20
1574.960630433863
 30
0.0
 11
7711.070521854101
 21
1602.232347945277
 31
0.0
  0
LINE
  5
24547
330
747D
100
AcDbEntity
  8
部品1
 48
50.0
100
AcDbLine
 10
7683.798804342685
 20
1602.232347945277
 30
0.0
 11
7811.798804342685
 21
1602.232347945277
 31
0.0
  0
LINE
  5
24548
330
747D
100
AcDbEntity
  8
細線
 48
50.0
100
AcDbLine
 10
7683.798804342682
 20
1548.019862070652
 30
0.0
 11
7738.011290217309
 21
1602.232347945277
 31
0.0
  0
LWPOLYLINE
  5
24549
330
747D
100
AcDbEntity
  8
部品1
 48
50.0
100
AcDbPolyline
 90
        2
 70
     0
 43
8.0
 10
7397.658902509729
 20
1906.232347945278
 10
7811.798804342685
 20
1906.232347945278
  0
LINE
  5
2454A
330
747D
100
AcDbEntity
  8
細線
 48
50.0
100
AcDbLine
 10
7759.072269957039
 20
1338.232347945277
 30
0.0
 11
7752.641489338691
 21
1362.232347945277
 31
0.0
  0
LINE
  5
2454B
330
747D
100
AcDbEntity
  8
細線
 48
50.0
100
AcDbLine
 10
7837.96031490429
 20
1338.232347945277
 30
0.0
 11
7831.529534285943
 21
1362.232347945277
 31
0.0
  0
LINE
  5
2454C
330
747D
100
AcDbEntity
  8
細線
 48
50.0
100
AcDbLine
 10
7680.184225009788
 20
1338.232347945277
 30
0.0
 11
7673.753444391441
 21
1362.232347945277
 31
0.0
  0
LINE
  5
2454D
330
747D
100
AcDbEntity
  8
細線
 48
50.0
100
AcDbLine
 10
7603.798804342685
 20
1347.572268911057
 30
0.0
 11
7607.726960680881
 21
1362.232347945277
 31
0.0
  0
LINE
  5
2454E
330
747D
100
AcDbEntity
  8
細線
 48
50.0
100
AcDbLine
 10
7737.636334562551
 20
1258.232347945277
 30
0.0
 11
7744.067115180897
 21
1234.232347945277
 31
0.0
  0
LINE
  5
2454F
330
747D
100
AcDbEntity
  8
細線
 48
50.0
100
AcDbLine
 10
7816.524379509802
 20
1258.232347945277
 30
0.0
 11
7822.95516012815
 21
1234.232347945277
 31
0.0
  0
LINE
  5
24550
330
747D
100
AcDbEntity
  8
細線
 48
50.0
100
AcDbLine
 10
7658.748289615298
 20
1258.232347945277
 30
0.0
 11
7665.179070233644
 21
1234.232347945277
 31
0.0
  0
LINE
  5
24551
330
747D
100
AcDbEntity
  8
細線
 48
50.0
100
AcDbLine
 10
7810.09359889145
 20
1234.232347945275
 30
0.0
 11
7844.391095522631
 21
1362.232347945275
 31
0.0
  0
LINE
  5
24552
330
747D
100
AcDbEntity
  8
細線
 48
50.0
100
AcDbLine
 10
7652.317508996944
 20
1234.232347945275
 30
0.0
 11
7686.615005628128
 21
1362.232347945275
 31
0.0
  0
LINE
  5
24553
330
747D
100
AcDbEntity
  8
部品1
 48
50.0
100
AcDbLine
 10
7603.798804342689
 20
1234.232347945277
 30
0.0
 11
7603.798804342689
 21
1362.232347945277
 31
0.0
  0
LINE
  5
24554
330
747D
100
AcDbEntity
  8
細線
 48
50.0
100
AcDbLine
 10
7731.205553944203
 20
1234.232347945277
 30
0.0
 11
7765.503050575386
 21
1362.232347945277
 31
0.0
  0
LINE
  5
24555
330
747D
100
AcDbEntity
  8
部品1
 48
50.0
100
AcDbLine
 10
7683.798804342685
 20
1362.232347945277
 30
0.0
 11
7683.798804342685
 21
1602.232347945277
 31
0.0
  0
LINE
  5
24556
330
747D
100
AcDbEntity
  8
細線
 48
50.0
100
AcDbLine
 10
7683.798804342682
 20
1521.079093707448
 30
0.0
 11
7764.952058580515
 21
1602.232347945277
 31
0.0
  0
LINE
  5
24557
330
747D
100
AcDbEntity
  8
部品1
 48
50.0
100
AcDbLine
 10
8433.798804342689
 20
1234.232347945277
 30
0.0
 11
7603.798804342689
 21
1234.232347945277
 31
0.0
  0
LINE
  5
24558
330
747D
100
AcDbEntity
  8
部品1
 48
50.0
100
AcDbLine
 10
8433.798804342689
 20
1362.232347945277
 30
0.0
 11
7603.798804342689
 21
1362.232347945277
 31
0.0
  0
LINE
  5
24559
330
747D
100
AcDbEntity
  8
細線
 48
50.0
100
AcDbLine
 10
7686.596668759761
 20
1362.232347945277
 30
0.0
 11
8225.798804342685
 21
1901.434483528203
 31
0.0
  0
LINE
  5
2455A
330
747D
100
AcDbEntity
  8
細線
 48
50.0
100
AcDbLine
 10
7713.53743712297
 20
1362.232347945277
 30
0.0
 11
8225.798804342689
 21
1874.493715164991
 31
0.0
  0
LINE
  5
2455B
330
747D
100
AcDbEntity
  8
細線
 48
50.0
100
AcDbLine
 10
7740.478205486176
 20
1362.232347945277
 30
0.0
 11
8225.798804342685
 21
1847.552946801785
 31
0.0
  0
LINE
  5
2455C
330
747D
100
AcDbEntity
  8
細線
 48
50.0
100
AcDbLine
 10
7811.798804342685
 20
1702.960630433863
 30
0.0
 11
7970.198804342679
 21
1861.360630433858
 31
0.0
  0
LINE
  5
2455D
330
747D
100
AcDbEntity
  8
細線
 48
50.0
100
AcDbLine
 10
7811.798804342685
 20
1649.079093707448
 30
0.0
 11
7984.952058580522
 21
1822.232347945275
 31
0.0
  0
LINE
  5
2455E
330
747D
100
AcDbEntity
  8
細線
 48
50.0
100
AcDbLine
 10
7811.798804342685
 20
1676.019862070655
 30
0.0
 11
7970.198804342679
 21
1834.419862070644
 31
0.0
  0
LINE
  5
2455F
330
747D
100
AcDbEntity
  8
部品1
100
AcDbLine
 10
7970.198804342679
 20
1822.232347945277
 30
0.0
 11
7970.198804342686
 21
2146.232347945277
 31
0.0
  0
LINE
  5
24560
330
747D
100
AcDbEntity
  8
部品1
100
AcDbLine
 10
8096.198804342687
 20
1822.232347945277
 30
0.0
 11
8096.198804342687
 21
2146.232347945277
 31
0.0
  0
LINE
  5
24561
330
747D
100
AcDbEntity
  8
細線
 48
50.0
100
AcDbLine
 10
8096.198804342687
 20
1960.419862070648
 30
0.0
 11
8225.798804342685
 21
2090.019862070645
 31
0.0
  0
LINE
  5
24562
330
747D
100
AcDbEntity
  8
細線
 48
50.0
100
AcDbLine
 10
8096.198804342687
 20
1933.479093707436
 30
0.0
 11
8225.798804342685
 21
2063.079093707427
 31
0.0
  0
LINE
  5
24563
330
747D
100
AcDbEntity
  8
部品1
100
AcDbLine
 10
8024.198804342686
 20
1921.232347945277
 30
0.0
 11
8024.198804342683
 21
2195.392347945278
 31
0.0
  0
LINE
  5
24564
330
747D
100
AcDbEntity
  8
部品1
100
AcDbLine
 10
8042.198804342687
 20
1921.232347945277
 30
0.0
 11
8042.198804342682
 21
2195.392347945278
 31
0.0
  0
TEXT
  5
24565
330
747D
100
AcDbEntity
  8
部品1
 48
50.0
100
AcDbText
 10
7397.658902509729
 20
1917.471340228532
 30
0.0
 40
80.0
  1
▽G.L
  7
STYLE2
100
AcDbText
  0
LINE
  5
24566
330
747D
100
AcDbEntity
  8
細線
 48
50.0
100
AcDbLine
 10
7811.798804342685
 20
1864.605240613107
 30
0.0
 11
7970.198804342683
 21
2023.0052406131
 31
0.0
  0
LINE
  5
24567
330
747D
100
AcDbEntity
  8
細線
 48
50.0
100
AcDbLine
 10
7811.798804342685
 20
1891.546008976314
 30
0.0
 11
7970.198804342685
 21
2049.946008976313
 31
0.0
  0
LINE
  5
24568
330
747D
100
AcDbEntity
  8
細線
 48
50.0
100
AcDbLine
 10
7811.798804342685
 20
1918.486777339522
 30
0.0
 11
7970.198804342685
 21
2076.88677733952
 31
0.0
  0
LINE
  5
24569
330
747D
100
AcDbEntity
  8
部品1
 48
50.0
100
AcDbLine
 10
7811.798804342685
 20
1602.232347945277
 30
0.0
 11
7811.798804342685
 21
2146.232347945277
 31
0.0
  0
LINE
  5
2456A
330
747D
100
AcDbEntity
  8
部品1
100
AcDbLine
 10
8225.798804342685
 20
1602.232347945277
 30
0.0
 11
8225.798804342685
 21
2146.232347945277
 31
0.0
  0
LINE
  5
2456B
330
747D
100
AcDbEntity
  8
細線
 48
50.0
100
AcDbLine
 10
8096.198804342687
 20
1987.360630433865
 30
0.0
 11
8225.798804342685
 21
2116.960630433864
 31
0.0
  0
LINE
  5
2456C
330
747D
100
AcDbEntity
  8
細線
 48
50.0
100
AcDbLine
 10
6220.251913667961
 20
2026.979199841993
 30
0.0
 11
6303.759491165493
 21
2110.486777339523
 31
0.0
  0
LINE
  5
2456D
330
747D
100
AcDbEntity
  8
細線
 48
50.0
100
AcDbLine
 10
6231.312198431478
 20
2011.098716242299
 30
0.0
 11
6303.759491165493
 21
2083.546008976314
 31
0.0
  0
LINE
  5
2456E
330
747D
100
AcDbEntity
  8
細線
 48
50.0
100
AcDbLine
 10
6111.759491165493
 20
2134.012924245182
 30
0.0
 11
6123.978914865587
 21
2146.232347945277
 31
0.0
  0
LINE
  5
2456F
330
747D
100
AcDbEntity
  8
細線
 48
50.0
100
AcDbLine
 10
6111.759491165493
 20
2080.131387518767
 30
0.0
 11
6177.860451592001
 21
2146.232347945277
 31
0.0
  0
LINE
  5
24570
330
747D
100
AcDbEntity
  8
細線
 48
50.0
100
AcDbLine
 10
6111.759491165493
 20
2107.072155881975
 30
0.0
 11
6150.919683228796
 21
2146.232347945277
 31
0.0
  0
LINE
  5
24571
330
747D
100
AcDbEntity
  8
部品1
 48
50.0
100
AcDbLine
 10
6111.759491165493
 20
2146.232347945277
 30
0.0
 11
6303.759491165493
 21
2146.232347945277
 31
0.0
  0
DIMENSION
  5
24572
330
747D
100
AcDbEntity
  8
寸法
 48
50.0
100
AcDbDimension
  2
*D48
 10
6111.759491165492
 20
2565.900155861657
 30
0.0
 11
6207.759491165491
 21
2565.900155861657
 31
0.0
 70
   160
  1
120\P200\P280
 71
     5
 42
192.0
  3
INABA_S40G
100
AcDbAlignedDimension
 13
6303.759491165491
 23
2146.232347945277
 33
0.0
 14
6111.759491165492
 24
2146.232347945277
 34
0.0
100
AcDbRotatedDimension
1001
ACAD
1000
DSTYLE
1002
{
1070
   341
1005
0
1002
}
  0
MTEXT
  5
24573
102
{ACAD_REACTORS
330
245C8
102
}
330
747D
100
AcDbEntity
  8
寸法
 62
     7
 48
50.0
100
AcDbMText
 10
6545.497947026743
 20
1184.883262213124
 30
0.0
 40
80.0
 41
0.8
 71
     4
 72
     1
  1
\A1;D10@300
  7
STYLE2
 73
     1
 44
1.0
1001
ACAD
1000
MTEXTBEGIN
1070
    73
1070
     1
1070
    44
1040
1.0
1070
    74
1070
     0
1000
MTEXTEND
  0
LINE
  5
24574
330
747D
100
AcDbEntity
  8
細線
 48
50.0
100
AcDbLine
 10
6231.759491165497
 20
1796.019862070657
 30
0.0
 11
6303.759491165485
 21
1868.019862070652
 31
0.0
  0
LINE
  5
24575
330
747D
100
AcDbEntity
  8
細線
 48
50.0
100
AcDbLine
 10
6231.759491165492
 20
1822.960630433863
 30
0.0
 11
6303.759491165493
 21
1894.960630433863
 31
0.0
  0
LINE
  5
24576
330
747D
100
AcDbEntity
  8
細線
 48
50.0
100
AcDbLine
 10
6231.759491165497
 20
1553.552946801788
 30
0.0
 11
6303.759491165485
 21
1625.552946801789
 31
0.0
  0
LINE
  5
24577
330
747D
100
AcDbEntity
  8
細線
 48
50.0
100
AcDbLine
 10
6231.759491165497
 20
1607.434483528206
 30
0.0
 11
6303.759491165485
 21
1679.434483528202
 31
0.0
  0
LINE
  5
24578
330
747D
100
AcDbEntity
  8
細線
 48
50.0
100
AcDbLine
 10
6231.759491165497
 20
1580.493715164998
 30
0.0
 11
6303.759491165485
 21
1652.493715164993
 31
0.0
  0
LINE
  5
24579
330
747D
100
AcDbEntity
  8
部品1
 48
50.0
100
AcDbLine
 10
6303.759491165493
 20
1602.232347945277
 30
0.0
 11
6431.759491165492
 21
1602.232347945277
 31
0.0
  0
LINE
  5
2457A
330
747D
100
AcDbEntity
  8
細線
 48
50.0
100
AcDbLine
 10
6231.759491165497
 20
1769.079093707448
 30
0.0
 11
6303.759491165485
 21
1841.079093707448
 31
0.0
  0
LINE
  5
2457B
330
747D
100
AcDbEntity
  8
部品1
 48
50.0
100
AcDbLine
 10
6199.759491165492
 20
1948.359562642399
 30
0.0
 11
6199.759491165492
 21
2006.486777339523
 31
0.0
  0
LINE
  5
2457C
330
747D
100
AcDbEntity
  8
細線
 48
50.0
100
AcDbLine
 10
6111.759491165493
 20
1918.486777339522
 30
0.0
 11
6183.759491165492
 21
1990.486777339523
 31
0.0
  0
LINE
  5
2457D
330
747D
100
AcDbEntity
  8
部品1
 48
50.0
100
AcDbLine
 10
6183.759491165492
 20
1948.359562642403
 30
0.0
 11
6183.759491165492
 21
2006.486777339523
 31
0.0
  0
LINE
  5
2457E
330
747D
100
AcDbEntity
  8
細線
 48
50.0
100
AcDbLine
 10
6111.759491165493
 20
1891.546008976314
 30
0.0
 11
6183.759491165492
 21
1963.546008976314
 31
0.0
  0
LINE
  5
2457F
330
747D
100
AcDbEntity
  8
細線
 48
50.0
100
AcDbLine
 10
6111.759491165493
 20
1864.605240613107
 30
0.0
 11
6195.513813194786
 21
1948.359562642399
 31
0.0
  0
LINE
  5
24580
330
747D
100
AcDbEntity
  8
部品1
 48
50.0
100
AcDbLine
 10
6199.759491165492
 20
1948.359562642399
 30
0.0
 11
6183.759491165492
 21
1948.359562642403
 31
0.0
  0
LINE
  5
24581
330
747D
100
AcDbEntity
  8
細線
 48
50.0
100
AcDbLine
 10
5983.759491165486
 20
1574.960630433863
 30
0.0
 11
6011.031208676906
 21
1602.232347945277
 31
0.0
  0
LINE
  5
24582
330
747D
100
AcDbEntity
  8
細線
 48
50.0
100
AcDbLine
 10
5983.759491165486
 20
1548.019862070652
 30
0.0
 11
6037.971977040117
 21
1602.232347945277
 31
0.0
  0
LINE
  5
24583
330
747D
100
AcDbEntity
  8
部品1
 48
50.0
100
AcDbLine
 10
5983.759491165493
 20
1602.232347945277
 30
0.0
 11
6111.759491165493
 21
1602.232347945277
 31
0.0
  0
LINE
  5
24584
330
747D
100
AcDbEntity
  8
細線
 48
50.0
100
AcDbLine
 10
6199.759491165492
 20
1979.546008976315
 30
0.0
 11
6215.759491165492
 21
1995.546008976315
 31
0.0
  0
LINE
  5
24585
330
747D
100
AcDbEntity
  8
細線
 48
50.0
100
AcDbLine
 10
6199.759491165492
 20
1952.605240613107
 30
0.0
 11
6215.759491165492
 21
1968.605240613107
 31
0.0
  0
LINE
  5
24586
330
747D
100
AcDbEntity
  8
細線
 48
50.0
100
AcDbLine
 10
6111.759491165493
 20
1649.079093707448
 30
0.0
 11
6215.759491165498
 21
1753.079093707448
 31
0.0
  0
LINE
  5
24587
330
747D
100
AcDbEntity
  8
細線
 48
50.0
100
AcDbLine
 10
6111.759491165493
 20
1702.960630433863
 30
0.0
 11
6215.759491165492
 21
1806.960630433863
 31
0.0
  0
LINE
  5
24588
330
747D
100
AcDbEntity
  8
細線
 48
50.0
100
AcDbLine
 10
6111.759491165493
 20
1676.019862070655
 30
0.0
 11
6215.759491165498
 21
1780.019862070657
 31
0.0
  0
LINE
  5
24589
330
747D
100
AcDbEntity
  8
細線
 48
50.0
100
AcDbLine
 10
6374.585136568839
 20
1338.232347945277
 30
0.0
 11
6368.154355950494
 21
1362.232347945277
 31
0.0
  0
LINE
  5
2458A
330
747D
100
AcDbEntity
  8
細線
 48
50.0
100
AcDbLine
 10
6417.609649393885
 20
1362.232347945277
 30
0.0
 11
6431.759491165492
 21
1376.382189716883
 31
0.0
  0
LINE
  5
2458B
330
747D
100
AcDbEntity
  8
細線
 48
50.0
100
AcDbLine
 10
6453.473181516087
 20
1338.232347945277
 30
0.0
 11
6447.042400897739
 21
1362.232347945277
 31
0.0
  0
LINE
  5
2458C
330
747D
100
AcDbEntity
  8
部品1
 48
50.0
100
AcDbLine
 10
6375.759491165492
 20
1474.232347945277
 30
0.0
 11
6375.759491165492
 21
1458.232347945277
 31
0.0
  0
LINE
  5
2458D
330
747D
100
AcDbEntity
  8
細線
 48
50.0
100
AcDbLine
 10
6255.96503921464
 20
1362.232347945277
 30
0.0
 11
6351.965927059777
 21
1458.233235790416
 31
0.0
  0
LINE
  5
2458E
330
747D
100
AcDbEntity
  8
細線
 48
50.0
100
AcDbLine
 10
6229.024270851436
 20
1362.232347945277
 30
0.0
 11
6325.024270851436
 21
1458.232347945277
 31
0.0
  0
LINE
  5
2458F
330
747D
100
AcDbEntity
  8
細線
 48
50.0
100
AcDbLine
 10
6295.697091621594
 20
1338.232347945277
 30
0.0
 11
6289.266311003248
 21
1362.232347945277
 31
0.0
  0
LINE
  5
24590
330
747D
100
AcDbEntity
  8
細線
 48
50.0
100
AcDbLine
 10
6216.809046674349
 20
1338.232347945277
 30
0.0
 11
6210.378266056
 21
1362.232347945277
 31
0.0
  0
ARC
  5
24591
330
747D
100
AcDbEntity
  8
部品1
 48
50.0
100
AcDbCircle
 10
6207.759491165493
 20
1482.232347945277
 30
0.0
 40
24.0
100
AcDbArc
 50
340.5287793655103
 51
0.0
  0
CIRCLE
  5
24592
330
747D
100
AcDbEntity
  8
部品1
 48
50.0
100
AcDbCircle
 10
6335.759491165493
 20
1482.232347945277
 30
0.0
 40
8.0
  0
LINE
  5
24593
330
747D
100
AcDbEntity
  8
細線
 48
50.0
100
AcDbLine
 10
6367.96503921464
 20
1474.232347945277
 30
0.0
 11
6431.759491165492
 21
1538.026799896128
 31
0.0
  0
LINE
  5
24594
330
747D
100
AcDbEntity
  8
細線
 48
50.0
100
AcDbLine
 10
6504.494510450495
 20
1234.232347945275
 30
0.0
 11
6511.759491165491
 21
1261.345625089665
 31
0.0
  0
LINE
  5
24595
330
747D
100
AcDbEntity
  8
細線
 48
50.0
100
AcDbLine
 10
6510.925291068845
 20
1258.232347945277
 30
0.0
 11
6511.759491165491
 21
1255.119070800913
 31
0.0
  0
LINE
  5
24596
330
747D
100
AcDbEntity
  8
細線
 48
50.0
100
AcDbLine
 10
6432.037246121598
 20
1258.232347945277
 30
0.0
 11
6438.468026739946
 21
1234.232347945277
 31
0.0
  0
LINE
  5
24597
330
747D
100
AcDbEntity
  8
細線
 48
50.0
100
AcDbLine
 10
6274.261156227105
 20
1258.232347945277
 30
0.0
 11
6280.691936845451
 21
1234.232347945277
 31
0.0
  0
LINE
  5
24598
330
747D
100
AcDbEntity
  8
細線
 48
50.0
100
AcDbLine
 10
6353.14920117435
 20
1258.232347945277
 30
0.0
 11
6359.579981792698
 21
1234.232347945277
 31
0.0
  0
LINE
  5
24599
330
747D
100
AcDbEntity
  8
細線
 48
50.0
100
AcDbLine
 10
6346.718420556001
 20
1234.232347945275
 30
0.0
 11
6381.015917187186
 21
1362.232347945275
 31
0.0
  0
LINE
  5
2459A
330
747D
100
AcDbEntity
  8
細線
 48
50.0
100
AcDbLine
 10
6267.830375608752
 20
1234.232347945277
 30
0.0
 11
6302.127872239939
 21
1362.232347945275
 31
0.0
  0
LINE
  5
2459B
330
747D
100
AcDbEntity
  8
細線
 48
50.0
100
AcDbLine
 10
6425.606465503246
 20
1234.232347945277
 30
0.0
 11
6459.90396213443
 21
1362.232347945275
 31
0.0
  0
LINE
  5
2459C
330
747D
100
AcDbEntity
  8
部品1
 48
50.0
100
AcDbLine
 10
6511.759491165496
 20
1362.232347945277
 30
0.0
 11
6511.759491165496
 21
1234.232347945277
 31
0.0
  0
LINE
  5
2459D
330
747D
100
AcDbEntity
  8
部品1
 48
50.0
100
AcDbLine
 10
6199.759491165492
 20
1540.359562642399
 30
0.0
 11
6199.759491165492
 21
1482.232347945277
 31
0.0
  0
LINE
  5
2459E
330
747D
100
AcDbEntity
  8
細線
 48
50.0
100
AcDbLine
 10
6125.498123945775
 20
1474.232347945277
 30
0.0
 11
6183.759491165492
 21
1532.493715164996
 31
0.0
  0
LINE
  5
2459F
330
747D
100
AcDbEntity
  8
部品1
 48
50.0
100
AcDbLine
 10
6183.759491165492
 20
1540.359562642399
 30
0.0
 11
6183.759491165492
 21
1482.232347945277
 31
0.0
  0
LINE
  5
245A0
330
747D
100
AcDbEntity
  8
細線
 48
50.0
100
AcDbLine
 10
6040.438892308981
 20
1362.232347945277
 30
0.0
 11
6136.438892308981
 21
1458.232347945277
 31
0.0
  0
LINE
  5
245A1
330
747D
100
AcDbEntity
  8
細線
 48
50.0
100
AcDbLine
 10
6137.921001727097
 20
1338.232347945277
 30
0.0
 11
6131.49022110875
 21
1362.232347945277
 31
0.0
  0
LINE
  5
245A2
330
747D
100
AcDbEntity
  8
細線
 48
50.0
100
AcDbLine
 10
6059.032956779843
 20
1338.232347945277
 30
0.0
 11
6052.602176161498
 21
1362.232347945277
 31
0.0
  0
ARC
  5
245A3
330
747D
100
AcDbEntity
  8
部品1
 48
50.0
100
AcDbCircle
 10
6207.759491165493
 20
1482.232347945277
 30
0.0
 40
24.0
100
AcDbArc
 50
180.0
 51
199.4712206344897
  0
LINE
  5
245A4
330
747D
100
AcDbEntity
  8
細線
 48
50.0
100
AcDbLine
 10
6152.438892308981
 20
1474.232347945277
 30
0.0
 11
6183.759491165492
 21
1505.552946801788
 31
0.0
  0
CIRCLE
  5
245A5
330
747D
100
AcDbEntity
  8
部品1
 48
50.0
100
AcDbCircle
 10
6079.759491165493
 20
1482.232347945277
 30
0.0
 40
8.0
  0
LINE
  5
245A6
330
747D
100
AcDbEntity
  8
部品1
 48
50.0
100
AcDbLine
 10
6199.759491165492
 20
1540.359562642399
 30
0.0
 11
6183.759491165492
 21
1540.359562642399
 31
0.0
  0
LINE
  5
245A7
330
747D
100
AcDbEntity
  8
細線
 48
50.0
100
AcDbLine
 10
5903.759491165493
 20
1347.572268911057
 30
0.0
 11
5907.687647503689
 21
1362.232347945277
 31
0.0
  0
LINE
  5
245A8
330
747D
100
AcDbEntity
  8
細線
 48
50.0
100
AcDbLine
 10
5980.144911832592
 20
1338.232347945277
 30
0.0
 11
5973.714131214244
 21
1362.232347945277
 31
0.0
  0
LINE
  5
245A9
330
747D
100
AcDbEntity
  8
部品1
 48
50.0
100
AcDbLine
 10
6039.759491165493
 20
1474.232347945277
 30
0.0
 11
6039.759491165493
 21
1458.232347945277
 31
0.0
  0
LINE
  5
245AA
330
747D
100
AcDbEntity
  8
細線
 48
50.0
100
AcDbLine
 10
5986.557355582565
 20
1362.232347945277
 30
0.0
 11
6082.557355582565
 21
1458.232347945277
 31
0.0
  0
LINE
  5
245AB
330
747D
100
AcDbEntity
  8
細線
 48
50.0
100
AcDbLine
 10
6013.498123945776
 20
1362.232347945277
 30
0.0
 11
6109.498123945776
 21
1458.232347945277
 31
0.0
  0
LINE
  5
245AC
330
747D
100
AcDbEntity
  8
細線
 48
50.0
100
AcDbLine
 10
6116.485066332607
 20
1258.232347945277
 30
0.0
 11
6122.915846950952
 21
1234.232347945277
 31
0.0
  0
LINE
  5
245AD
330
747D
100
AcDbEntity
  8
細線
 48
50.0
100
AcDbLine
 10
6195.37311127986
 20
1258.232347945277
 30
0.0
 11
6201.803891898205
 21
1234.232347945277
 31
0.0
  0
LINE
  5
245AE
330
747D
100
AcDbEntity
  8
細線
 48
50.0
100
AcDbLine
 10
5958.708976438103
 20
1258.232347945277
 30
0.0
 11
5965.13975705645
 21
1234.232347945277
 31
0.0
  0
LINE
  5
245AF
330
747D
100
AcDbEntity
  8
細線
 48
50.0
100
AcDbLine
 10
6037.597021385354
 20
1258.232347945277
 30
0.0
 11
6044.027802003702
 21
1234.232347945277
 31
0.0
  0
LINE
  5
245B0
330
747D
100
AcDbEntity
  8
部品1
 48
50.0
100
AcDbLine
 10
5903.759491165494
 20
1234.232347945277
 30
0.0
 11
5903.759491165494
 21
1362.232347945277
 31
0.0
  0
LINE
  5
245B1
330
747D
100
AcDbEntity
  8
細線
 48
50.0
100
AcDbLine
 10
5952.278195819751
 20
1234.232347945275
 30
0.0
 11
5986.575692450934
 21
1362.232347945275
 31
0.0
  0
LINE
  5
245B2
330
747D
100
AcDbEntity
  8
細線
 48
50.0
100
AcDbLine
 10
6110.054285714253
 20
1234.232347945275
 30
0.0
 11
6144.351782345437
 21
1362.232347945275
 31
0.0
  0
LINE
  5
245B3
330
747D
100
AcDbEntity
  8
細線
 48
50.0
100
AcDbLine
 10
6031.166240767008
 20
1234.232347945277
 30
0.0
 11
6065.463737398191
 21
1362.232347945277
 31
0.0
  0
LINE
  5
245B4
330
747D
100
AcDbEntity
  8
細線
 48
50.0
100
AcDbLine
 10
6202.083502488225
 20
1362.232347945277
 30
0.0
 11
6298.083502488225
 21
1458.232347945277
 31
0.0
  0
CIRCLE
  5
245B5
330
747D
100
AcDbEntity
  8
部品1
 48
50.0
100
AcDbCircle
 10
6207.759491165493
 20
1482.232347945277
 30
0.0
 40
8.0
  0
LINE
  5
245B6
330
747D
100
AcDbEntity
  8
部品1
 48
50.0
100
AcDbLine
 10
6511.759491165496
 20
1362.232347945277
 30
0.0
 11
5903.759491165494
 21
1362.232347945277
 31
0.0
  0
LINE
  5
245B7
330
747D
100
AcDbEntity
  8
部品1
 48
50.0
100
AcDbLine
 10
6039.759491165493
 20
1474.232347945277
 30
0.0
 11
6375.759491165492
 21
1474.232347945277
 31
0.0
  0
LINE
  5
245B8
330
747D
100
AcDbEntity
  8
部品1
 48
50.0
100
AcDbLine
 10
6039.759491165493
 20
1458.232347945277
 30
0.0
 11
6375.759491165492
 21
1458.232347945277
 31
0.0
  0
LINE
  5
245B9
330
747D
100
AcDbEntity
  8
部品1
 48
50.0
100
AcDbLine
 10
6511.759491165496
 20
1234.232347945277
 30
0.0
 11
5903.759491165494
 21
1234.232347945277
 31
0.0
  0
LINE
  5
245BA
330
747D
100
AcDbEntity
  8
細線
 48
50.0
100
AcDbLine
 10
6188.942330661507
 20
1234.232347945277
 30
0.0
 11
6223.239827292689
 21
1362.232347945277
 31
0.0
  0
LINE
  5
245BB
330
747D
100
AcDbEntity
  8
細線
 48
50.0
100
AcDbLine
 10
6199.759491165492
 20
1521.552946801788
 30
0.0
 11
6215.759491165498
 21
1537.552946801788
 31
0.0
  0
LINE
  5
245BC
330
747D
100
AcDbEntity
  8
部品1
 48
50.0
100
AcDbLine
 10
6215.759491165498
 20
1482.232347945277
 30
0.0
 11
6215.759491165485
 21
2006.486777339523
 31
0.0
  0
LINE
  5
245BD
330
747D
100
AcDbEntity
  8
部品1
 48
50.0
100
AcDbLine
 10
6231.759491165497
 20
1482.232347945277
 30
0.0
 11
6231.759491165492
 21
2006.486777339523
 31
0.0
  0
LINE
  5
245BE
330
747D
100
AcDbEntity
  8
部品1
 48
50.0
100
AcDbLine
 10
6431.759491165492
 20
1602.232347945277
 30
0.0
 11
6431.759491165492
 21
1362.232347945277
 31
0.0
  0
LINE
  5
245BF
330
747D
100
AcDbEntity
  8
細線
 48
50.0
100
AcDbLine
 10
6314.08350248822
 20
1474.232347945277
 30
0.0
 11
6431.759491165492
 21
1591.908336622543
 31
0.0
  0
LINE
  5
245C0
330
747D
100
AcDbEntity
  8
細線
 48
50.0
100
AcDbLine
 10
6341.024270851436
 20
1474.232347945277
 30
0.0
 11
6431.759491165492
 21
1564.967568259336
 31
0.0
  0
LINE
  5
245C1
330
747D
100
AcDbEntity
  8
部品1
 48
50.0
100
AcDbLine
 10
5983.759491165493
 20
1362.232347945277
 30
0.0
 11
5983.759491165493
 21
1602.232347945277
 31
0.0
  0
LINE
  5
245C2
330
747D
100
AcDbEntity
  8
細線
 48
50.0
100
AcDbLine
 10
6098.557355582565
 20
1474.232347945277
 30
0.0
 11
6215.759491165492
 21
1591.434483528203
 31
0.0
  0
LINE
  5
245C3
330
747D
100
AcDbEntity
  8
細線
 48
50.0
100
AcDbLine
 10
6191.625338642896
 20
1540.359562642399
 30
0.0
 11
6215.759491165498
 21
1564.493715164998
 31
0.0
  0
LINE
  5
245C4
330
747D
100
AcDbEntity
  8
細線
 48
50.0
100
AcDbLine
 10
5983.759491165486
 20
1521.079093707448
 30
0.0
 11
6064.91274540332
 21
1602.232347945277
 31
0.0
  0
LEADER
  5
245C5
330
747D
100
AcDbEntity
  8
寸法
 48
50.0
100
AcDbLeader
  3
INABA_S50G
 71
     0
 73
     0
 74
     0
 75
     1
 40
100.0
 41
222.7272727272727
 76
     3
 10
6207.759491165491
 20
2006.486777339523
 30
0.0
 10
6261.645428192887
 20
2105.722350192697
 30
0.0
 10
6386.645428192887
 20
2105.722350192697
 30
0.0
1001
ACAD
1000
DSTYLE
1002
{
1070
    40
1040
1.0
1070
   272
1070
     1
1070
   279
1070
     1
1070
   341
1005
0
1002
}
  0
LWPOLYLINE
  5
245C6
330
747D
100
AcDbEntity
  8
部品1
 48
50.0
100
AcDbPolyline
 90
        2
 70
     0
 43
8.0
 10
6303.759491165491
 20
1906.232347945278
 10
6717.899392998448
 20
1906.232347945278
  0
MTEXT
  5
245C7
102
{ACAD_REACTORS
330
245C9
102
}
330
747D
100
AcDbEntity
  8
寸法
 62
     7
 48
50.0
100
AcDbMText
 10
6535.087150972177
 20
1446.835279002304
 30
0.0
 40
80.0
 41
0.8
 71
     4
 72
     1
  1
D10
  7
STYLE2
 73
     1
 44
1.0
1001
ACAD
1000
MTEXTBEGIN
1070
    73
1070
     1
1070
    44
1040
1.0
1070
    74
1070
     0
1000
MTEXTEND
  0
LEADER
  5
245C8
330
747D
100
AcDbEntity
  8
寸法
 48
50.0
100
AcDbLeader
  3
INABA_S50G
 71
     0
 73
     0
 74
     0
 75
     1
 40
100.0
 41
540.3409090909091
 76
     3
 10
6281.704660178666
 20
1465.491817531751
 30
0.0
 10
6400.497947026742
 20
1123.860999536854
 30
0.0
 10
6525.497947026742
 20
1123.860999536854
 30
0.0
213
0.0
223
-1.022262676269383
233
0.0
1001
ACAD
1000
DSTYLE
1002
{
1070
    40
1040
1.0
1070
   272
1070
     1
1070
   279
1070
     1
1070
   341
1005
0
1002
}
  0
LEADER
  5
245C9
330
747D
100
AcDbEntity
  8
寸法
 48
50.0
100
AcDbLeader
  3
INABA_S50G
 71
     0
 73
     0
 74
     0
 75
     1
 40
100.0
 41
225.0
 76
     3
 10
6335.662443517635
 20
1482.232347945277
 30
0.0
 10
6390.087150972177
 20
1386.835279002304
 30
0.0
 10
6515.087150972177
 20
1386.835279002304
 30
0.0
1001
ACAD
1000
DSTYLE
1002
{
1070
    40
1040
1.0
1070
   272
1070
     1
1070
   279
1070
     1
1070
   341
1005
0
1002
}
  0
MTEXT
  5
245CA
102
{ACAD_REACTORS
330
245C5
102
}
330
747D
100
AcDbEntity
  8
寸法
 62
     7
 48
50.0
100
AcDbMText
 10
6386.645428192887
 20
2168.788247238088
 30
0.0
 40
80.0
 41
0.8
 71
     4
 72
     1
  1
D13
  7
STYLE2
 73
     1
 44
1.0
1001
ACAD
1000
MTEXTBEGIN
1070
    73
1070
     1
1070
    44
1040
1.0
1070
    74
1070
     0
1000
MTEXTEND
  0
LINE
  5
245CB
330
747D
100
AcDbEntity
  8
部品1
 48
50.0
100
AcDbLine
 10
6303.759491165493
 20
2146.232347945277
 30
0.0
 11
6303.759491165493
 21
1602.232347945277
 31
0.0
  0
LINE
  5
245CC
330
747D
100
AcDbEntity
  8
部品1
 48
50.0
100
AcDbLine
 10
6111.759491165493
 20
1602.232347945277
 30
0.0
 11
6111.759491165493
 21
2146.232347945277
 31
0.0
  0
CIRCLE
  5
245CD
330
747D
100
AcDbEntity
  8
部品1
 48
50.0
100
AcDbCircle
 10
6207.759491165493
 20
2006.486777339523
 30
0.0
 40
8.0
  0
ARC
  5
245CE
330
747D
100
AcDbEntity
  8
部品1
 48
50.0
100
AcDbCircle
 10
6207.759491165493
 20
2006.486777339523
 30
0.0
 40
24.0
100
AcDbArc
 50
0.0
 51
180.0
  0
LINE
  5
245CF
330
747D
100
AcDbEntity
  8
細線
 48
50.0
100
AcDbLine
 10
6231.759491165492
 20
1984.605240613107
 30
0.0
 11
6303.759491165493
 21
2056.605240613107
 31
0.0
  0
LEADER
  5
245D0
330
747D
100
AcDbEntity
  8
寸法
 48
50.0
100
AcDbLeader
  3
INABA_S50G
 73
     0
 75
     1
 40
106.3636363636363
 41
893.1818181818181
 76
     3
 10
7943.198804342687
 20
2215.792347945278
 30
0.0
 10
7894.774731997746
 20
2589.851922661611
 30
0.0
 10
7769.774731997746
 20
2589.851922661611
 30
0.0
340
245D1
1001
ACAD
1000
DSTYLE
1002
{
1070
   341
1005
0
1070
    40
1040
1.0
1070
   343
1005
0
1070
   344
1005
0
1002
}
  0
MTEXT
  5
245D1
102
{ACAD_REACTORS
330
245D0
102
}
330
747D
100
AcDbEntity
  8
寸法
 62
     7
 48
50.0
100
AcDbMText
 10
7744.774731997747
 20
2668.033740843429
 30
0.0
 40
80.0
 41
0.8
 71
     6
 72
     1
  1
\A1;アンカープレート L
  7
STYLE2
 73
     1
 44
1.0
1001
ACAD
1000
MTEXTBEGIN
1070
    73
1070
     1
1070
    44
1040
1.0
1070
    74
1070
     0
1000
MTEXTEND
  0
DIMENSION
  5
245D2
330
747D
100
AcDbEntity
  8
寸法
 48
50.0
100
AcDbDimension
  2
*D43
 10
6431.759491165492
 20
823.802709940117
 30
0.0
 11
6187.662732487268
 21
823.802709940117
 31
0.0
 70
   160
  1
300
 71
     5
 42
448.0
  3
INABA_S40G
100
AcDbAlignedDimension
 13
5983.759491165492
 23
1234.232347945277
 33
0.0
 14
6431.759491165492
 24
1234.232347945277
 34
0.0
100
AcDbRotatedDimension
1001
ACAD
1000
DSTYLE
1002
{
1070
   341
1005
0
1002
}
  0
MTEXT
  5
245D3
102
{ACAD_REACTORS
330
245DB
102
}
330
747D
100
AcDbEntity
  8
寸法
 62
     7
 48
50.0
100
AcDbMText
 10
5812.824464970297
 20
1278.709654326841
 30
0.0
 40
80.0
 41
0.8
 71
     6
 72
     1
  1
D10
  7
STYLE2
 73
     1
 44
1.0
1001
ACAD
1000
MTEXTBEGIN
1070
    73
1070
     1
1070
    44
1040
1.0
1070
    74
1070
     0
1000
MTEXTEND
  0
MTEXT
  5
245D4
102
{ACAD_REACTORS
330
245DA
102
}
330
747D
100
AcDbEntity
  8
寸法
 62
     7
 48
50.0
100
AcDbMText
 10
5840.947192527732
 20
1098.393501787397
 30
0.0
 40
80.0
 41
0.8
 71
     6
 72
     1
  1
D13
  7
STYLE2
 73
     1
 44
1.0
1001
ACAD
1000
MTEXTBEGIN
1070
    73
1070
     1
1070
    44
1040
1.0
1070
    74
1070
     0
1000
MTEXTEND
  0
DIMENSION
  5
245D5
330
747D
100
AcDbEntity
  8
寸法
 48
50.0
100
AcDbDimension
  2
*D44
 10
5376.722252603752
 20
1362.232347945277
 30
0.0
 11
5376.722252603752
 21
1733.772497601278
 31
0.0
 70
   160
  1
540
 71
     5
 42
784.0
  3
INABA_S40G
100
AcDbAlignedDimension
 13
6111.759491165492
 23
2146.232347945277
 33
0.0
 14
5903.759491165494
 24
1362.232347945277
 34
0.0
 50
90.0
100
AcDbRotatedDimension
1001
ACAD
1000
DSTYLE
1002
{
1070
   341
1005
0
1002
}
  0
MTEXT
  5
245D6
102
{ACAD_REACTORS
330
245D7
102
}
330
747D
100
AcDbEntity
  8
寸法
 62
     7
 48
50.0
100
AcDbMText
 10
5891.661011682218
 20
2358.748567947319
 30
0.0
 40
80.0
 41
0.8
 71
     6
 72
     1
  1
\A1;金コテ押エ
  7
STYLE2
 73
     1
 44
1.0
1001
ACAD
1000
MTEXTBEGIN
1070
    73
1070
     1
1070
    44
1040
1.0
1070
    74
1070
     0
1000
MTEXTEND
  0
LEADER
  5
245D7
330
747D
100
AcDbEntity
  8
寸法
 48
50.0
100
AcDbLeader
  3
INABA_S50G
 71
     0
 73
     0
 75
     1
 40
130.1136363636363
 41
651.1363636363636
 76
     3
 10
6191.759491165491
 20
2146.232347945277
 30
0.0
 10
6079.334911001475
 20
2286.703113401865
 30
0.0
 10
5954.334911001475
 20
2286.703113401865
 30
0.0
1001
ACAD
1000
DSTYLE
1002
{
1070
    40
1040
1.0
1070
   272
1070
     1
1070
   279
1070
     1
1070
   341
1005
0
1002
}
  0
LEADER
  5
245D8
330
747D
100
AcDbEntity
  8
寸法
 48
50.0
100
AcDbLeader
  3
INABA_S50G
 71
     0
 73
     0
 75
     1
 40
100.0
 41
540.3409090909091
 76
     3
 10
6215.759491165492
 20
1904.3595626424
 30
0.0
 10
6157.777254636793
 20
1682.889234101595
 30
0.0
 10
6032.777254636793
 20
1682.889234101595
 30
0.0
213
-9.732182305893367
223
-4.643716661138569
233
0.0
1001
ACAD
1000
DSTYLE
1002
{
1070
    40
1040
1.0
1070
   272
1070
     1
1070
   279
1070
     1
1070
   341
1005
0
1002
}
  0
MTEXT
  5
245D9
102
{ACAD_REACTORS
330
245D8
102
}
330
747D
100
AcDbEntity
  8
寸法
 62
     7
 48
50.0
100
AcDbMText
 10
6022.509436942687
 20
1747.532950762734
 30
0.0
 40
80.0
 41
0.8
 71
     6
 72
     1
  1
\A1;D10@300
  7
STYLE2
 73
     1
 44
1.0
1001
ACAD
1000
MTEXTBEGIN
1070
    73
1070
     1
1070
    44
1040
1.0
1070
    74
1070
     0
1000
MTEXTEND
  0
LEADER
  5
245DA
330
747D
100
AcDbEntity
  8
寸法
 48
50.0
100
AcDbLeader
  3
INABA_S50G
 71
     0
 73
     0
 75
     1
 40
100.0
 41
222.7272727272727
 76
     3
 10
6207.759491165491
 20
1482.232347945277
 30
0.0
 10
5985.947192527731
 20
1038.393501787397
 30
0.0
 10
5860.947192527731
 20
1038.393501787397
 30
0.0
1001
ACAD
1000
DSTYLE
1002
{
1070
    40
1040
1.0
1070
   272
1070
     1
1070
   279
1070
     1
1070
   341
1005
0
1002
}
  0
LEADER
  5
245DB
330
747D
100
AcDbEntity
  8
寸法
 48
50.0
100
AcDbLeader
  3
INABA_S50G
 71
     0
 73
     0
 75
     1
 40
100.0
 41
225.0
 76
     3
 10
6079.662443517634
 20
1482.232347945277
 30
0.0
 10
5957.824464970297
 20
1218.709654326841
 30
0.0
 10
5832.824464970297
 20
1218.709654326841
 30
0.0
1001
ACAD
1000
DSTYLE
1002
{
1070
    40
1040
1.0
1070
   272
1070
     1
1070
   279
1070
     1
1070
   341
1005
0
1002
}
  0
DIMENSION
  5
245DC
330
747D
100
AcDbEntity
  8
寸法
 48
50.0
100
AcDbDimension
  2
*D45
 10
5841.339177433032
 20
1362.232347945277
 30
0.0
 11
5841.339177433032
 21
1482.232347945278
 31
0.0
 70
   160
  1
150
 71
     5
 42
240.0
  3
INABA_S40G
100
AcDbAlignedDimension
 13
5983.759491165492
 23
1602.232347945277
 33
0.0
 14
5903.759491165494
 24
1362.232347945277
 34
0.0
 50
90.0
100
AcDbRotatedDimension
1001
ACAD
1000
DSTYLE
1002
{
1070
   341
1005
0
1002
}
  0
TEXT
  5
245DD
330
747D
100
AcDbEntity
  8
部品1
 48
50.0
100
AcDbText
 10
5697.619589332535
 20
1917.471340228532
 30
0.0
 40
80.0
  1
▽G.L
  7
STYLE2
100
AcDbText
  0
LWPOLYLINE
  5
245DE
330
747D
100
AcDbEntity
  8
部品1
 48
50.0
100
AcDbPolyline
 90
        2
 70
     0
 43
8.0
 10
5697.619589332535
 20
1906.232347945278
 10
6111.759491165492
 20
1906.232347945278
  0
MTEXT
  5
245DF
102
{ACAD_REACTORS
330
245E0
102
}
330
747D
100
AcDbEntity
  8
寸法
 62
     7
 48
50.0
100
AcDbMText
 10
7718.131725789388
 20
3028.718012750943
 30
0.0
 40
80.0
 41
0.8
 71
     6
 72
     1
  1
\A1;φ70スリーブ
  7
STYLE2
 73
     1
 44
1.0
1001
ACAD
1000
MTEXTBEGIN
1070
    73
1070
     1
1070
    44
1040
1.0
1070
    74
1070
     0
1000
MTEXTEND
  0
LEADER
  5
245E0
330
747D
100
AcDbEntity
  8
寸法
 48
50.0
100
AcDbLeader
  3
INABA_S50G
 73
     0
 75
     1
 40
113.1818181818182
 41
608.6363636363635
 76
     3
 10
8001.935554480736
 20
2095.748021303556
 30
0.0
 10
7868.131725789388
 20
2947.127103660034
 30
0.0
 10
7743.131725789388
 20
2947.127103660034
 30
0.0
340
245DF
1001
ACAD
1000
DSTYLE
1002
{
1070
   341
1005
0
1070
    40
1040
1.0
1070
   343
1005
0
1070
   344
1005
0
1002
}
  0
LINE
  5
245E1
330
747D
100
AcDbEntity
  8
部品1
100
AcDbLine
 10
5041.091052356229
 20
3545.571015145863
 30
0.0
 11
5041.091052356231
 21
581.2640455612154
 31
0.0
  0
LEADER
  5
245E2
330
747D
100
AcDbEntity
  8
寸法
 48
50.0
100
AcDbLeader
  3
INABA_S50G
 73
     0
 74
     0
 75
     1
 40
80.0
 41
435.0
 76
     3
 10
8042.198804342687
 20
2195.392347945278
 30
0.0
 10
8084.743266762005
 20
2345.615674098507
 30
0.0
 10
8209.743266762005
 20
2345.615674098507
 30
0.0
340
245E3
1001
ACAD
1000
DSTYLE
1002
{
1070
   341
1005
0
1070
    40
1040
1.0
1070
   343
1005
0
1070
   344
1005
0
1002
}
  0
MTEXT
  5
245E3
102
{ACAD_REACTORS
330
245E2
102
}
330
747D
100
AcDbEntity
  8
部品1
 62
     7
 48
50.0
100
AcDbMText
 10
8234.743266762006
 20
2410.615674098507
 30
0.0
 40
80.0
 41
0.8
 71
     4
 72
     1
  1
M10X160
  7
STYLE2
 73
     1
 44
1.0
1001
ACAD
1000
MTEXTBEGIN
1070
    73
1070
     1
1070
    44
1040
1.0
1070
    74
1070
     0
1000
MTEXTEND
  0
DIMENSION
  5
245E4
330
747D
100
AcDbEntity
  8
寸法
 48
50.0
100
AcDbDimension
  2
*D46
 10
9003.722070230557
 20
2146.232347945277
 30
0.0
 11
9003.722070230557
 21
1680.223444523794
 31
0.0
 70
   160
  1
20～25
 71
     5
 42
52.76000000000113
  3
INABA_S40G
100
AcDbAlignedDimension
 13
8038.598804342687
 23
2198.992347945278
 33
0.0
 14
8225.798804342685
 24
2146.232347945277
 34
0.0
 50
90.0
100
AcDbRotatedDimension
1001
ACAD
1000
DSTYLE
1002
{
1070
   341
1005
0
1002
}
  0
DIMENSION
  5
245E5
330
747D
100
AcDbEntity
  8
寸法
 48
50.0
100
AcDbDimension
  2
*D47
 10
8727.66740411153
 20
1822.232347945276
 30
0.0
 11
8627.66740411153
 21
1984.232347945278
 31
0.0
 70
    32
  1
180
 71
     5
 42
324.0000000000009
  3
INABA_S40G
100
AcDbAlignedDimension
 13
8225.798804342685
 23
2146.232347945277
 33
0.0
 14
8225.798804342685
 24
1822.232347945276
 34
0.0
 50
90.0
100
AcDbRotatedDimension
1001
ACAD
1000
DSTYLE
1002
{
1070
   341
1005
0
1002
}
  0
TEXT
  5
245E6
330
747D
100
AcDbEntity
  8
部品1
 48
50.0
100
AcDbText
 10
8230.152388627114
 20
2502.111028707477
 30
0.0
 40
80.0
  1
基礎ボルト(市販品)
  7
STYLE2
100
AcDbText
  0
LWPOLYLINE
  5
245E7
330
747D
100
AcDbEntity
  8
部品1
 48
50.0
100
AcDbPolyline
 90
        2
 70
     0
 43
8.0
 10
8225.798804342685
 20
1906.232347945278
 10
8519.50126774207
 20
1906.232347945278
  0
MTEXT
  5
245E8
102
{ACAD_REACTORS
330
245E9
102
}
330
747D
100
AcDbEntity
  8
部品1
 62
     7
 48
50.0
100
AcDbMText
 10
8265.070394711527
 20
2846.727721032538
 30
0.0
 40
80.0
 41
0.8
 71
     4
 72
     1
  1
\A1;ワッシャー(市販品)
  7
STYLE2
 73
     1
 44
1.0
1001
ACAD
1000
MTEXTBEGIN
1070
    73
1070
     1
1070
    44
1040
1.0
1070
    74
1070
     0
1000
MTEXTEND
  0
LEADER
  5
245E9
330
747D
100
AcDbEntity
  8
寸法
 48
50.0
100
AcDbLeader
  3
INABA_S50G
 73
     0
 74
     0
 75
     1
 40
102.2727272727273
 41
906.8181818181818
 76
     3
 10
8073.198804342686
 20
2415.355636389557
 30
0.0
 10
8115.070394711526
 20
2770.591357396174
 30
0.0
 10
8240.070394711526
 20
2770.591357396174
 30
0.0
340
245E8
1001
ACAD
1000
DSTYLE
1002
{
1070
   341
1005
0
1070
    40
1040
1.0
1070
   343
1005
0
1070
   344
1005
0
1002
}
  0
MTEXT
  5
245EA
102
{ACAD_REACTORS
330
245EB
102
}
330
747D
100
AcDbEntity
  8
部品1
 62
     7
 48
50.0
100
AcDbMText
 10
8233.552775456043
 20
3031.696803797325
 30
0.0
 40
80.0
 41
0.8
 71
     4
 72
     1
  1
\A1;ナット(市販品)
  7
STYLE2
 73
     1
 44
1.0
1001
ACAD
1000
MTEXTBEGIN
1070
    73
1070
     1
1070
    44
1040
1.0
1070
    74
1070
     0
1000
MTEXTEND
  0
LEADER
  5
245EB
330
747D
100
AcDbEntity
  8
寸法
 48
50.0
100
AcDbLeader
  3
INABA_S50G
 73
     0
 74
     0
 75
     1
 40
102.2727272727273
 41
680.0000000000001
 76
     3
 10
8049.198804342687
 20
2545.10762905442
 30
0.0
 10
8083.552775456043
 20
2955.560440160961
 30
0.0
 10
8208.552775456043
 20
2955.560440160961
 30
0.0
340
245EA
1001
ACAD
1000
DSTYLE
1002
{
1070
   341
1005
0
1070
    40
1040
1.0
1070
   343
1005
0
1070
   344
1005
0
1002
}
  0
LINE
  5
245EC
330
747D
100
AcDbEntity
  8
部品1
100
AcDbLine
 10
5041.091052356232
 20
581.2640455612154
 30
0.0
 11
11112.07623774248
 21
581.2640455612154
 31
0.0
  0
LINE
  5
245ED
330
747D
100
AcDbEntity
  8
部品1
100
AcDbLine
 10
11112.07623774248
 20
3305.571015145861
 30
0.0
 11
5041.091052356231
 21
3305.571015145861
 31
0.0
  0
LINE
  5
245EE
330
747D
100
AcDbEntity
  8
部品1
100
AcDbLine
 10
11112.07623774248
 20
3545.571015145863
 30
0.0
 11
5041.091052356227
 21
3545.571015145863
 31
0.0
  0
ENDSEC
  0
SECTION
  2
OBJECTS
  0
DICTIONARY
  5
7471
330
0
100
AcDbDictionary
281
     1
  3
ACAD_COLOR
350
173D2
  3
ACAD_GROUP
350
7472
  3
ACAD_LAYOUT
350
173D3
  3
ACAD_MATERIAL
350
173D1
  3
ACAD_MLINESTYLE
350
7473
  3
ACAD_PLOTSETTINGS
350
173D4
  3
ACAD_PLOTSTYLENAME
350
173CF
  3
ACDBHEADERROUNDTRIPXREC
350
24699
  3
AcDbVariableDictionary
350
23F69
  3
CONTENTDICTIONARY
350
E71C
  3
DRAWINGVARIABLESDICT
350
F3B9
  0
DICTIONARY
  5
1758F
330
7467
100
AcDbDictionary
280
     1
281
     1
  3
ACAD_LAYERSTATES
360
17590
  0
DICTIONARY
  5
173D2
102
{ACAD_REACTORS
330
7471
102
}
330
7471
100
AcDbDictionary
281
     1
  0
DICTIONARY
  5
7472
102
{ACAD_REACTORS
330
7471
102
}
330
7471
100
AcDbDictionary
281
     1
  3
*A1
350
1D2A9
  0
DICTIONARY
  5
173D3
102
{ACAD_REACTORS
330
7471
102
}
330
7471
100
AcDbDictionary
281
     1
  3
Model
350
173D5
  3
レイアウト1
350
173D6
  0
DICTIONARY
  5
173D1
102
{ACAD_REACTORS
330
7471
102
}
330
7471
100
AcDbDictionary
281
     1
  0
DICTIONARY
  5
7473
102
{ACAD_REACTORS
330
7471
102
}
330
7471
100
AcDbDictionary
281
     1
  3
STANDARD
350
7480
  0
DICTIONARY
  5
173D4
102
{ACAD_REACTORS
330
7471
102
}
330
7471
100
AcDbDictionary
281
     1
  0
ACDBDICTIONARYWDFLT
  5
173CF
102
{ACAD_REACTORS
330
7471
102
}
330
7471
100
AcDbDictionary
281
     1
  3
Normal
350
173D0
100
AcDbDictionaryWithDefault
340
173D0
  0
DICTIONARY
  5
24699
102
{ACAD_REACTORS
330
7471
102
}
330
7471
100
AcDbDictionary
281
     1
  3
COLORDICT
350
2469B
  3
MATERIALDICT
350
2469A
  0
DICTIONARY
  5
23F69
102
{ACAD_REACTORS
330
7471
102
}
330
7471
100
AcDbDictionary
281
     1
  3
DIMASSOC
350
23F6A
  3
PROJECTNAME
350
23F6B
  0
DICTIONARY
  5
E71C
102
{ACAD_REACTORS
330
7471
102
}
330
7471
100
AcDbDictionary
281
     1
  0
DICTIONARY
  5
F3B9
102
{ACAD_REACTORS
330
7471
102
}
330
7471
100
AcDbDictionary
281
     1
1001
DRAWINGVARIABLESXDATA
1000
POLARMODE
1000
1
  0
DICTIONARY
  5
17590
102
{ACAD_REACTORS
330
1758F
102
}
330
1758F
100
AcDbDictionary
281
     1
  0
GROUP
  5
1D2A9
102
{ACAD_REACTORS
330
7472
102
}
330
7472
100
AcDbGroup
300

 70
     1
 71
     1
  0
LAYOUT
  5
173D5
102
{ACAD_XDICTIONARY
360
2469C
102
}
102
{ACAD_REACTORS
330
173D3
102
}
330
173D3
100
AcDbPlotSettings
  1

  2
Microsoft Office Document Image Writer
  4

  6

 40
0.0
 41
0.0
 42
0.0
 43
0.0
 44
0.0
 45
0.0
 46
0.0
 47
0.0
 48
0.0
 49
0.0
140
0.0
141
0.0
142
1.0
143
1.0
 70
  1712
 72
     0
 73
     0
 74
     0
  7

 75
     0
147
1.0
148
0.0
149
0.0
100
AcDbLayout
  1
Model
 70
     1
 71
     0
 10
0.0
 20
0.0
 11
12.0
 21
9.0
 12
0.0
 22
0.0
 32
0.0
 14
0.0
 24
0.0
 34
0.0
 15
0.0
 25
0.0
 35
0.0
146
0.0
 13
0.0
 23
0.0
 33
0.0
 16
1.0
 26
0.0
 36
0.0
 17
0.0
 27
1.0
 37
0.0
 76
     0
330
747D
  0
LAYOUT
  5
173D6
102
{ACAD_XDICTIONARY
360
2469E
102
}
102
{ACAD_REACTORS
330
173D3
102
}
330
173D3
100
AcDbPlotSettings
  1

  2
Microsoft Office Document Image Writer
  4

  6

 40
0.0
 41
0.0
 42
0.0
 43
0.0
 44
0.0
 45
0.0
 46
0.0
 47
0.0
 48
0.0
 49
0.0
140
0.0
141
0.0
142
1.0
143
1.0
 70
   688
 72
     0
 73
     0
 74
     5
  7

 75
    16
147
1.0
148
0.0
149
0.0
100
AcDbLayout
  1
レイアウト1
 70
     0
 71
     1
 10
0.0
 20
0.0
 11
420.0
 21
297.0
 12
0.0
 22
0.0
 32
0.0
 14
1.000000000000000E+20
 24
1.000000000000000E+20
 34
1.000000000000000E+20
 15
-1.000000000000000E+20
 25
-1.000000000000000E+20
 35
-1.000000000000000E+20
146
0.0
 13
0.0
 23
0.0
 33
0.0
 16
1.0
 26
0.0
 36
0.0
 17
0.0
 27
1.0
 37
0.0
 76
     0
330
747A
  0
MLINESTYLE
  5
7480
102
{ACAD_REACTORS
330
7473
102
}
330
7473
100
AcDbMlineStyle
  2
STANDARD
 70
     0
  3

 62
     0
 51
90.0
 52
90.0
 71
     2
 49
0.5
 62
   256
  6
BYLAYER
 49
-0.5
 62
   256
  6
BYLAYER
  0
ACDBPLACEHOLDER
  5
173D0
102
{ACAD_REACTORS
330
173CF
102
}
330
173CF
  0
XRECORD
  5
2469B
102
{ACAD_REACTORS
330
24699
102
}
330
24699
100
AcDbXrecord
280
     1
340
173D2
  0
XRECORD
  5
2469A
102
{ACAD_REACTORS
330
24699
102
}
330
24699
100
AcDbXrecord
280
     1
340
173D1
  0
DICTIONARYVAR
  5
23F6A
102
{ACAD_REACTORS
330
23F69
102
}
330
23F69
100
DictionaryVariables
280
     0
  1
1
  0
DICTIONARYVAR
  5
23F6B
102
{ACAD_REACTORS
330
23F69
102
}
330
23F69
100
DictionaryVariables
280
     0
  1

  0
DICTIONARY
  5
2469C
330
173D5
100
AcDbDictionary
280
     1
281
     1
  3
ACAD_XREC_ROUNDTRIP
360
2469D
  0
DICTIONARY
  5
2469E
330
173D6
100
AcDbDictionary
280
     1
281
     1
  3
ACAD_XREC_ROUNDTRIP
360
2469F
  0
XRECORD
  5
2469D
102
{ACAD_REACTORS
330
2469C
102
}
330
2469C
100
AcDbXrecord
280
     1
102
SHADEPLOT
 70
     0
102
SHADEPLOTRESLEVEL
 70
     2
102
SHADEPLOTCUSTOMDPI
 70
   300
  0
XRECORD
  5
2469F
102
{ACAD_REACTORS
330
2469E
102
}
330
2469E
100
AcDbXrecord
280
     1
102
SHADEPLOT
 70
     0
102
SHADEPLOTRESLEVEL
 70
     2
102
SHADEPLOTCUSTOMDPI
 70
   300
  0
ENDSEC
  0
EOF
