  0
SECTION
  2
HEADER
  9
$ACADVER
  1
AC1015
  9
$ACADMAINTVER
 70
    20
  9
$DWGCODEPAGE
  3
ANSI_932
  9
$INSBASE
 10
0.0
 20
0.0
 30
0.0
  9
$EXTMIN
 10
139.9999999999995
 20
-0.0000000000000909
 30
0.0
  9
$EXTMAX
 10
16307.2
 20
11409.6
 30
0.0
  9
$LIMMIN
 10
0.0
 20
0.0
  9
$LIMMAX
 10
16800.0
 20
11880.0
  9
$ORTHOMODE
 70
     0
  9
$REGENMODE
 70
     1
  9
$FILLMODE
 70
     1
  9
$QTEXTMODE
 70
     0
  9
$MIRRTEXT
 70
     1
  9
$LTSCALE
 40
20.0
  9
$ATTMODE
 70
     1
  9
$TEXTSIZE
 40
4.0
  9
$TRACEWID
 40
1.0
  9
$TEXTSTYLE
  7
STYLE1
  9
$CLAYER
  8
細線
  9
$CELTYPE
  6
BYLAYER
  9
$CECOLOR
 62
   256
  9
$CELTSCALE
 40
50.0
  9
$DISPSILH
 70
     0
  9
$DIMSCALE
 40
40.0
  9
$DIMASZ
 40
2.5
  9
$DIMEXO
 40
0.5
  9
$DIMDLI
 40
7.0
  9
$DIMRND
 40
0.0
  9
$DIMDLE
 40
0.0
  9
$DIMEXE
 40
1.5
  9
$DIMTP
 40
0.0
  9
$DIMTM
 40
0.0
  9
$DIMTXT
 40
3.0
  9
$DIMCEN
 40
0.0
  9
$DIMTSZ
 40
0.0
  9
$DIMTOL
 70
     0
  9
$DIMLIM
 70
     0
  9
$DIMTIH
 70
     0
  9
$DIMTOH
 70
     0
  9
$DIMSE1
 70
     0
  9
$DIMSE2
 70
     0
  9
$DIMTAD
 70
     3
  9
$DIMZIN
 70
     8
  9
$DIMBLK
  1

  9
$DIMASO
 70
     1
  9
$DIMSHO
 70
     1
  9
$DIMPOST
  1

  9
$DIMAPOST
  1

  9
$DIMALT
 70
     0
  9
$DIMALTD
 70
     2
  9
$DIMALTF
 40
0.0394
  9
$DIMLFAC
 40
1.0
  9
$DIMTOFL
 70
     1
  9
$DIMTVP
 40
0.0
  9
$DIMTIX
 70
     1
  9
$DIMSOXD
 70
     0
  9
$DIMSAH
 70
     1
  9
$DIMBLK1
  1
DOTSMALL
  9
$DIMBLK2
  1
DOTSMALL
  9
$DIMSTYLE
  2
INABA_S40G
  9
$DIMCLRD
 70
     0
  9
$DIMCLRE
 70
     0
  9
$DIMCLRT
 70
     7
  9
$DIMTFAC
 40
1.0
  9
$DIMGAP
 40
1.0
  9
$DIMJUST
 70
     0
  9
$DIMSD1
 70
     0
  9
$DIMSD2
 70
     0
  9
$DIMTOLJ
 70
     1
  9
$DIMTZIN
 70
     0
  9
$DIMALTZ
 70
     0
  9
$DIMALTTZ
 70
     0
  9
$DIMUPT
 70
     0
  9
$DIMDEC
 70
     1
  9
$DIMTDEC
 70
     4
  9
$DIMALTU
 70
     2
  9
$DIMALTTD
 70
     2
  9
$DIMTXSTY
  7
STYLE1
  9
$DIMAUNIT
 70
     0
  9
$DIMADEC
 70
     0
  9
$DIMALTRND
 40
0.0
  9
$DIMAZIN
 70
     0
  9
$DIMDSEP
 70
    46
  9
$DIMATFIT
 70
     3
  9
$DIMFRAC
 70
     0
  9
$DIMLDRBLK
  1

  9
$DIMLUNIT
 70
     2
  9
$DIMLWD
 70
    -2
  9
$DIMLWE
 70
    -2
  9
$DIMTMOVE
 70
     0
  9
$LUNITS
 70
     2
  9
$LUPREC
 70
     1
  9
$SKETCHINC
 40
1.0
  9
$FILLETRAD
 40
3.0
  9
$AUNITS
 70
     0
  9
$AUPREC
 70
     0
  9
$MENU
  1
acad
  9
$ELEVATION
 40
0.0
  9
$PELEVATION
 40
0.0
  9
$THICKNESS
 40
0.0
  9
$LIMCHECK
 70
     0
  9
$CHAMFERA
 40
0.0
  9
$CHAMFERB
 40
0.0
  9
$CHAMFERC
 40
0.0
  9
$CHAMFERD
 40
0.0
  9
$SKPOLY
 70
     0
  9
$TDCREATE
 40
2451368.612993866
  9
$TDUCREATE
 40
2451368.237993866
  9
$TDUPDATE
 40
2455826.584448958
  9
$TDUUPDATE
 40
2455826.209448958
  9
$TDINDWG
 40
0.7671965509
  9
$TDUSRTIMER
 40
0.7671965509
  9
$USRTIMER
 70
     1
  9
$ANGBASE
 50
0.0
  9
$ANGDIR
 70
     0
  9
$PDMODE
 70
     3
  9
$PDSIZE
 40
2.0
  9
$PLINEWID
 40
0.0
  9
$SPLFRAME
 70
     0
  9
$SPLINETYPE
 70
     6
  9
$SPLINESEGS
 70
     8
  9
$HANDSEED
  5
239F7
  9
$SURFTAB1
 70
     6
  9
$SURFTAB2
 70
     6
  9
$SURFTYPE
 70
     6
  9
$SURFU
 70
     6
  9
$SURFV
 70
     6
  9
$UCSBASE
  2

  9
$UCSNAME
  2

  9
$UCSORG
 10
0.0
 20
0.0
 30
0.0
  9
$UCSXDIR
 10
1.0
 20
0.0
 30
0.0
  9
$UCSYDIR
 10
0.0
 20
1.0
 30
0.0
  9
$UCSORTHOREF
  2

  9
$UCSORTHOVIEW
 70
     0
  9
$UCSORGTOP
 10
0.0
 20
0.0
 30
0.0
  9
$UCSORGBOTTOM
 10
0.0
 20
0.0
 30
0.0
  9
$UCSORGLEFT
 10
0.0
 20
0.0
 30
0.0
  9
$UCSORGRIGHT
 10
0.0
 20
0.0
 30
0.0
  9
$UCSORGFRONT
 10
0.0
 20
0.0
 30
0.0
  9
$UCSORGBACK
 10
0.0
 20
0.0
 30
0.0
  9
$PUCSBASE
  2

  9
$PUCSNAME
  2

  9
$PUCSORG
 10
0.0
 20
0.0
 30
0.0
  9
$PUCSXDIR
 10
1.0
 20
0.0
 30
0.0
  9
$PUCSYDIR
 10
0.0
 20
1.0
 30
0.0
  9
$PUCSORTHOREF
  2

  9
$PUCSORTHOVIEW
 70
     0
  9
$PUCSORGTOP
 10
0.0
 20
0.0
 30
0.0
  9
$PUCSORGBOTTOM
 10
0.0
 20
0.0
 30
0.0
  9
$PUCSORGLEFT
 10
0.0
 20
0.0
 30
0.0
  9
$PUCSORGRIGHT
 10
0.0
 20
0.0
 30
0.0
  9
$PUCSORGFRONT
 10
0.0
 20
0.0
 30
0.0
  9
$PUCSORGBACK
 10
0.0
 20
0.0
 30
0.0
  9
$USERI1
 70
     0
  9
$USERI2
 70
     0
  9
$USERI3
 70
     0
  9
$USERI4
 70
     0
  9
$USERI5
 70
     0
  9
$USERR1
 40
0.0
  9
$USERR2
 40
0.0
  9
$USERR3
 40
0.0
  9
$USERR4
 40
0.0
  9
$USERR5
 40
0.0
  9
$WORLDVIEW
 70
     1
  9
$SHADEDGE
 70
     3
  9
$SHADEDIF
 70
    70
  9
$TILEMODE
 70
     1
  9
$MAXACTVP
 70
    16
  9
$PINSBASE
 10
0.0
 20
0.0
 30
0.0
  9
$PLIMCHECK
 70
     0
  9
$PEXTMIN
 10
1.000000000000000E+20
 20
1.000000000000000E+20
 30
1.000000000000000E+20
  9
$PEXTMAX
 10
-1.000000000000000E+20
 20
-1.000000000000000E+20
 30
-1.000000000000000E+20
  9
$PLIMMIN
 10
0.0
 20
0.0
  9
$PLIMMAX
 10
420.0
 20
297.0
  9
$UNITMODE
 70
     0
  9
$VISRETAIN
 70
     0
  9
$PLINEGEN
 70
     0
  9
$PSLTSCALE
 70
     0
  9
$TREEDEPTH
 70
  3020
  9
$CMLSTYLE
  2
STANDARD
  9
$CMLJUST
 70
     0
  9
$CMLSCALE
 40
1.0
  9
$PROXYGRAPHICS
 70
     1
  9
$MEASUREMENT
 70
     1
  9
$CELWEIGHT
370
    -1
  9
$ENDCAPS
280
     0
  9
$JOINSTYLE
280
     0
  9
$LWDISPLAY
290
     0
  9
$INSUNITS
 70
     0
  9
$HYPERLINKBASE
  1

  9
$STYLESHEET
  1

  9
$XEDIT
290
     1
  9
$CEPSNTYPE
380
     0
  9
$PSTYLEMODE
290
     1
  9
$FINGERPRINTGUID
  2
{5EAC461A-2277-4BF8-9AB0-99C43BB394F0}
  9
$VERSIONGUID
  2
{62997C8D-565C-44B9-A7F6-AB20B5BAD9FE}
  9
$EXTNAMES
290
     1
  9
$PSVPSCALE
 40
0.0
  9
$OLESTARTUP
290
     0
  0
ENDSEC
  0
SECTION
  2
CLASSES
  0
CLASS
  1
ACDBDICTIONARYWDFLT
  2
AcDbDictionaryWithDefault
  3
ObjectDBX Classes
 90
        0
280
     0
281
     0
  0
CLASS
  1
DICTIONARYVAR
  2
AcDbDictionaryVar
  3
ObjectDBX Classes
 90
        0
280
     0
281
     0
  0
CLASS
  1
ACDBPLACEHOLDER
  2
AcDbPlaceHolder
  3
ObjectDBX Classes
 90
        0
280
     0
281
     0
  0
CLASS
  1
LAYOUT
  2
AcDbLayout
  3
ObjectDBX Classes
 90
        0
280
     0
281
     0
  0
ENDSEC
  0
SECTION
  2
TABLES
  0
TABLE
  2
VPORT
  5
746D
330
0
100
AcDbSymbolTable
 70
     2
  0
VPORT
  5
239EF
330
746D
100
AcDbSymbolTableRecord
100
AcDbViewportTableRecord
  2
*Active
 70
     0
 10
0.0
 20
0.0
 11
1.0
 21
1.0
 12
8400.0
 22
6532.223175279203
 13
0.0
 23
0.0
 14
10.0
 24
10.0
 15
10.0
 25
10.0
 16
0.0
 26
0.0
 36
1.0
 17
0.0
 27
0.0
 37
0.0
 40
13160.56358925593
 41
1.522222222222222
 42
50.0
 43
0.0
 44
0.0
 50
0.0
 51
0.0
 71
     0
 72
     0
 73
     1
 74
     0
 75
     0
 76
     0
 77
     0
 78
     0
281
     0
 65
     1
110
0.0
120
0.0
130
0.0
111
1.0
121
0.0
131
0.0
112
0.0
122
1.0
132
0.0
 79
     0
146
0.0
  0
ENDTAB
  0
TABLE
  2
LTYPE
  5
746A
330
0
100
AcDbSymbolTable
 70
     5
  0
LTYPE
  5
7477
330
746A
100
AcDbSymbolTableRecord
100
AcDbLinetypeTableRecord
  2
BYBLOCK
 70
     0
  3

 72
    65
 73
     0
 40
0.0
  0
LTYPE
  5
7478
330
746A
100
AcDbSymbolTableRecord
100
AcDbLinetypeTableRecord
  2
BYLAYER
 70
     0
  3

 72
    65
 73
     0
 40
0.0
  0
LTYPE
  5
7479
330
746A
100
AcDbSymbolTableRecord
100
AcDbLinetypeTableRecord
  2
CONTINUOUS
 70
     0
  3
Solid line
 72
    65
 73
     0
 40
0.0
  0
LTYPE
  5
7816
330
746A
100
AcDbSymbolTableRecord
100
AcDbLinetypeTableRecord
  2
CENTER
 70
     0
  3
____ _ ____ _ ____ _ ____ _ ____ _ ____ _ ____ 
 72
    65
 73
     4
 40
2.0
 49
1.25
 74
     0
 49
-0.25
 74
     0
 49
0.25
 74
     0
 49
-0.25
 74
     0
  0
LTYPE
  5
781A
330
746A
100
AcDbSymbolTableRecord
100
AcDbLinetypeTableRecord
  2
HIDDEN
 70
     0
  3
__ __ __ __ __ __ __ __ __ __ __ __ __ __ __ __
 72
    65
 73
     2
 40
0.375
 49
0.25
 74
     0
 49
-0.125
 74
     0
  0
LTYPE
  5
781B
330
746A
100
AcDbSymbolTableRecord
100
AcDbLinetypeTableRecord
  2
PHANTOM
 70
     0
  3
______  __  __  ______  __  __  ______  __  __ 
 72
    65
 73
     6
 40
2.5
 49
1.25
 74
     0
 49
-0.25
 74
     0
 49
0.25
 74
     0
 49
-0.25
 74
     0
 49
0.25
 74
     0
 49
-0.25
 74
     0
  0
LTYPE
  5
12CC3
330
746A
100
AcDbSymbolTableRecord
100
AcDbLinetypeTableRecord
  2
HIDDENX2
 70
     0
  3
Hidden (2x) ____ ____ ____ ____ ____ ____ ____
 72
    65
 73
     2
 40
19.05
 49
12.7
 74
     0
 49
-6.349999999999999
 74
     0
  0
ENDTAB
  0
TABLE
  2
LAYER
  5
7467
102
{ACAD_XDICTIONARY
360
1758F
102
}
330
0
100
AcDbSymbolTable
 70
    12
  0
LAYER
  5
7474
330
7467
100
AcDbSymbolTableRecord
100
AcDbLayerTableRecord
  2
0
 70
     0
 62
     7
  6
CONTINUOUS
370
    -3
390
173D0
  0
LAYER
  5
DEB2
330
7467
100
AcDbSymbolTableRecord
100
AcDbLayerTableRecord
  2
センター
 70
     0
 62
     3
  6
CENTER
370
    -3
390
173D0
  0
LAYER
  5
DEB3
330
7467
100
AcDbSymbolTableRecord
100
AcDbLayerTableRecord
  2
寸法
 70
     0
 62
     4
  6
CONTINUOUS
370
    -3
390
173D0
  0
LAYER
  5
DEB4
330
7467
100
AcDbSymbolTableRecord
100
AcDbLayerTableRecord
  2
部品1
 70
     0
 62
     7
  6
CONTINUOUS
370
    -3
390
173D0
  0
LAYER
  5
DEB5
330
7467
100
AcDbSymbolTableRecord
100
AcDbLayerTableRecord
  2
補助
 70
     0
 62
    -1
  6
CONTINUOUS
370
    -3
390
173D0
  0
LAYER
  5
DEB6
330
7467
100
AcDbSymbolTableRecord
100
AcDbLayerTableRecord
  2
文字
 70
     0
 62
     7
  6
CONTINUOUS
370
    -3
390
173D0
  0
LAYER
  5
F255
330
7467
100
AcDbSymbolTableRecord
100
AcDbLayerTableRecord
  2
DEFPOINTS
 70
     0
 62
     7
  6
CONTINUOUS
290
     0
370
    -3
390
173D0
  0
LAYER
  5
10B54
330
7467
100
AcDbSymbolTableRecord
100
AcDbLayerTableRecord
  2
仕様書枠
 70
     0
 62
   230
  6
CONTINUOUS
370
    -3
390
173D0
  0
LAYER
  5
11729
330
7467
100
AcDbSymbolTableRecord
100
AcDbLayerTableRecord
  2
Ｇ．Ｌ
 70
     0
 62
    30
  6
CONTINUOUS
370
    -3
390
173D0
  0
LAYER
  5
1173F
330
7467
100
AcDbSymbolTableRecord
100
AcDbLayerTableRecord
  2
細線
 70
     0
 62
     5
  6
CONTINUOUS
370
    -3
390
173D0
  0
LAYER
  5
12CC4
330
7467
100
AcDbSymbolTableRecord
100
AcDbLayerTableRecord
  2
想像線
 70
     0
 62
     6
  6
PHANTOM
370
    -3
390
173D0
  0
LAYER
  5
142E2
330
7467
100
AcDbSymbolTableRecord
100
AcDbLayerTableRecord
  2
破線
 70
     0
 62
     2
  6
HIDDEN
370
    -3
390
173D0
  0
ENDTAB
  0
TABLE
  2
STYLE
  5
7468
330
0
100
AcDbSymbolTable
 70
     7
  0
STYLE
  5
7475
330
7468
100
AcDbSymbolTableRecord
100
AcDbTextStyleTableRecord
  2
STANDARD
 70
     0
 40
0.0
 41
1.0
 50
0.0
 71
     0
 42
4.0
  3
txt
  4
C:\AutoCAD LT\bigfont.shx
  0
STYLE
  5
763C
330
7468
100
AcDbSymbolTableRecord
100
AcDbTextStyleTableRecord
  2
MSMINCHO
 70
     0
 40
0.0
 41
1.0
 50
0.0
 71
     0
 42
1.199999999999999
  3
C:\AutoCAD LT\msminch2.TTF
  4

  0
STYLE
  5
F706
330
7468
100
AcDbSymbolTableRecord
100
AcDbTextStyleTableRecord
  2
STYLE1
 70
     0
 40
0.0
 41
1.0
 50
0.0
 71
     0
 42
4.0
  3
isocp.shx
  4
bigfont.shx
  0
STYLE
  5
103BF
330
7468
100
AcDbSymbolTableRecord
100
AcDbTextStyleTableRecord
  2
STYLE2
 70
     0
 40
0.0
 41
1.0
 50
0.0
 71
     0
 42
100.0
  3
MS PGothic.ttf
  4

1001
ACAD
1000
MS PGothic
1071
    32818
  0
STYLE
  5
10BAA
330
7468
100
AcDbSymbolTableRecord
100
AcDbTextStyleTableRecord
  2
STYLE3
 70
     0
 40
0.0
 41
1.0
 50
0.0
 71
     0
 42
100.0
  3

  4

1001
ACAD
1000
DFPGothic-EB
1071
    32818
  0
STYLE
  5
11A15
330
7468
100
AcDbSymbolTableRecord
100
AcDbTextStyleTableRecord
  2
MSGOTHIC
 70
     0
 40
0.0
 41
1.0
 50
0.0
 71
     0
 42
3.5
  3
msgothi2.ttf
  4

  0
STYLE
  5
13E96
330
7468
100
AcDbSymbolTableRecord
100
AcDbTextStyleTableRecord
  2
MSPゴシック
 70
     0
 40
0.0
 41
1.0
 50
0.0
 71
     0
 42
4.0
  3
MS PGothic.ttf
  4

1001
ACAD
1000
MS PGothic
1071
    32818
  0
ENDTAB
  0
TABLE
  2
VIEW
  5
746B
330
0
100
AcDbSymbolTable
 70
     0
  0
ENDTAB
  0
TABLE
  2
UCS
  5
746C
330
0
100
AcDbSymbolTable
 70
     0
  0
ENDTAB
  0
TABLE
  2
APPID
  5
746E
330
0
100
AcDbSymbolTable
 70
     6
  0
APPID
  5
7476
330
746E
100
AcDbSymbolTableRecord
100
AcDbRegAppTableRecord
  2
ACAD
 70
     0
  0
APPID
  5
DEA9
330
746E
100
AcDbSymbolTableRecord
100
AcDbRegAppTableRecord
  2
CONTENTBLOCKICON
 70
     0
  0
APPID
  5
DEAA
330
746E
100
AcDbSymbolTableRecord
100
AcDbRegAppTableRecord
  2
CONTENTBLOCKDESCRIPTION
 70
     0
  0
APPID
  5
E71D
330
746E
100
AcDbSymbolTableRecord
100
AcDbRegAppTableRecord
  2
CONTENTTABDATA
 70
     0
  0
APPID
  5
E71E
330
746E
100
AcDbSymbolTableRecord
100
AcDbRegAppTableRecord
  2
CONTENTCURRENTTAB
 70
     0
  0
APPID
  5
F3BA
330
746E
100
AcDbSymbolTableRecord
100
AcDbRegAppTableRecord
  2
DRAWINGVARIABLESXDATA
 70
     0
  0
ENDTAB
  0
TABLE
  2
DIMSTYLE
  5
746F
330
0
100
AcDbSymbolTable
 70
     6
100
AcDbDimStyleTable
 71
     1
340
F71F
  0
DIMSTYLE
105
7484
330
746F
100
AcDbSymbolTableRecord
100
AcDbDimStyleTableRecord
  2
JIS
 70
     0
 41
2.5
 42
1.0
 43
7.0
 44
1.0
 73
     0
 74
     0
 77
     1
 78
     8
140
2.5
141
0.0
143
0.0394
147
0.0
172
     1
174
     1
175
     1
340
7475
  0
DIMSTYLE
105
F236
330
746F
100
AcDbSymbolTableRecord
100
AcDbDimStyleTableRecord
  2
INABA_S40
 70
     0
 40
40.0
 41
2.5
 42
0.5
 43
7.0
 44
1.5
 73
     0
 74
     0
 77
     3
 78
     8
140
3.0
141
0.0
143
0.0394
147
1.0
172
     1
173
     1
174
     1
175
     1
178
     7
289
     0
340
7475
341
DEAC
343
DEAC
344
DEAC
  0
DIMSTYLE
105
F71F
102
{ACAD_REACTORS
330
20DE1
330
20DFB
330
22741
330
2275B
330
22A81
330
22A76
330
22A98
330
230E0
330
230DE
330
2309A
330
23091
330
23088
330
23086
330
23085
330
2305A
330
23059
330
23055
330
23089
330
23063
330
2305C
330
2305B
330
23062
330
2305E
330
238E6
330
23946
330
23949
330
23950
330
23958
330
23959
102
}
330
746F
100
AcDbSymbolTableRecord
100
AcDbDimStyleTableRecord
  2
INABA_S40G
 70
     0
 40
40.0
 41
2.5
 42
0.5
 43
7.0
 44
1.5
 73
     0
 74
     0
 77
     3
 78
     8
140
3.0
141
0.0
143
0.0394
147
1.0
172
     1
173
     1
174
     1
178
     7
271
     1
340
F706
341
F770
343
F770
344
F770
  0
DIMSTYLE
105
142E3
330
746F
100
AcDbSymbolTableRecord
100
AcDbDimStyleTableRecord
  2
INABA_S1
 70
     0
 40
0.0
 41
2.5
 42
0.5
 43
7.0
 44
1.5
 73
     0
 74
     0
 77
     3
 78
     8
140
3.0
141
0.0
143
0.0394
146
0.5
147
0.5
172
     1
173
     1
176
   256
177
   256
178
     7
271
     2
272
     2
284
     8
288
     1
340
7475
341
DEAC
343
DEAC
344
DEAC
  0
DIMSTYLE
105
14463
330
746F
100
AcDbSymbolTableRecord
100
AcDbDimStyleTableRecord
  2
INABA_S30G
 70
     0
 40
30.0
 41
2.5
 42
0.5
 43
7.0
 44
1.5
 73
     0
 74
     0
 77
     3
 78
     8
140
3.0
141
0.0
143
0.0394
147
1.0
172
     1
173
     1
174
     1
175
     1
178
     7
271
     1
340
F706
341
F770
343
F770
344
F770
  0
DIMSTYLE
105
1758E
330
746F
100
AcDbSymbolTableRecord
100
AcDbDimStyleTableRecord
  2
INABA_S50G
 70
     0
 41
125.0
 42
25.0
 43
7.0
 44
75.0
 73
     0
 74
     0
 77
     3
 78
     8
140
150.0
141
0.0
143
0.0394
147
25.0
172
     1
173
     1
174
     1
175
     1
178
     7
271
     1
340
F706
341
F770
343
F770
344
F770
  0
ENDTAB
  0
TABLE
  2
BLOCK_RECORD
  5
7466
330
0
100
AcDbSymbolTable
 70
    59
  0
BLOCK_RECORD
  5
747D
330
7466
100
AcDbSymbolTableRecord
100
AcDbBlockTableRecord
  2
*MODEL_SPACE
340
173D5
  0
BLOCK_RECORD
  5
747A
330
7466
100
AcDbSymbolTableRecord
100
AcDbBlockTableRecord
  2
*PAPER_SPACE
340
173D6
  0
BLOCK_RECORD
  5
DEAC
330
7466
100
AcDbSymbolTableRecord
100
AcDbBlockTableRecord
  2
_OPEN
340
0
  0
BLOCK_RECORD
  5
F770
330
7466
100
AcDbSymbolTableRecord
100
AcDbBlockTableRecord
  2
_DOTSMALL
340
0
102
{BLKREFS
331
18C65
331
18C66
331
18C59
331
18C5A
331
18C4D
331
18C4E
331
18C41
331
18C42
331
18C35
331
18C36
331
18C29
331
18C2A
331
18C1D
331
18C1E
331
18C0F
331
18C10
331
18C03
331
18C04
331
18BF5
331
18BF6
331
18BE7
331
18BE8
331
18BD9
331
18BDA
331
18BCD
331
18BCE
331
21316
331
21317
331
21321
331
21322
331
2132A
331
2132B
331
2350A
331
2350B
331
23514
331
23515
331
2351E
331
2351F
331
23527
331
23528
331
23531
331
23532
331
2353B
331
2353C
331
23544
331
23545
331
2354D
331
2354E
331
23560
331
23561
331
2356A
331
2356B
331
23573
331
23574
331
23585
331
23586
331
2358E
331
2358F
331
23597
331
23598
331
235AB
331
235AC
331
235C0
331
235C1
331
235CB
331
235CC
331
235D6
331
235D7
331
235E1
331
235E2
331
23605
331
23606
331
2360E
331
2360F
331
2364E
331
2364F
331
23658
331
23659
331
236A5
331
236A6
331
236EE
331
236EF
331
236E2
331
236E3
331
236D6
331
236D7
331
236CA
331
236CB
331
236BE
331
236BF
331
236B0
331
236B1
331
239B0
331
239B1
331
239B9
331
239BA
331
239C2
331
239C3
331
239CB
331
239CC
331
239D6
331
239D7
331
239DF
331
239E0
102
}
  0
BLOCK_RECORD
  5
164B4
330
7466
100
AcDbSymbolTableRecord
100
AcDbBlockTableRecord
  2
_DOT
340
0
102
{BLKREFS
331
18C73
331
18C74
102
}
  0
BLOCK_RECORD
  5
18BC8
330
7466
100
AcDbSymbolTableRecord
100
AcDbBlockTableRecord
  2
*D3
340
0
  0
BLOCK_RECORD
  5
18BD4
330
7466
100
AcDbSymbolTableRecord
100
AcDbBlockTableRecord
  2
*D4
340
0
  0
BLOCK_RECORD
  5
18BE0
330
7466
100
AcDbSymbolTableRecord
100
AcDbBlockTableRecord
  2
*D5
340
0
  0
BLOCK_RECORD
  5
18BEE
330
7466
100
AcDbSymbolTableRecord
100
AcDbBlockTableRecord
  2
*D6
340
0
  0
BLOCK_RECORD
  5
18BFC
330
7466
100
AcDbSymbolTableRecord
100
AcDbBlockTableRecord
  2
*D7
340
0
  0
BLOCK_RECORD
  5
18C0A
330
7466
100
AcDbSymbolTableRecord
100
AcDbBlockTableRecord
  2
*D8
340
0
  0
BLOCK_RECORD
  5
18C16
330
7466
100
AcDbSymbolTableRecord
100
AcDbBlockTableRecord
  2
*D9
340
0
  0
BLOCK_RECORD
  5
18C24
330
7466
100
AcDbSymbolTableRecord
100
AcDbBlockTableRecord
  2
*D10
340
0
  0
BLOCK_RECORD
  5
18C30
330
7466
100
AcDbSymbolTableRecord
100
AcDbBlockTableRecord
  2
*D11
340
0
  0
BLOCK_RECORD
  5
18C3C
330
7466
100
AcDbSymbolTableRecord
100
AcDbBlockTableRecord
  2
*D12
340
0
  0
BLOCK_RECORD
  5
18C48
330
7466
100
AcDbSymbolTableRecord
100
AcDbBlockTableRecord
  2
*D13
340
0
  0
BLOCK_RECORD
  5
18C54
330
7466
100
AcDbSymbolTableRecord
100
AcDbBlockTableRecord
  2
*D14
340
0
  0
BLOCK_RECORD
  5
18C60
330
7466
100
AcDbSymbolTableRecord
100
AcDbBlockTableRecord
  2
*D15
340
0
  0
BLOCK_RECORD
  5
18C6C
330
7466
100
AcDbSymbolTableRecord
100
AcDbBlockTableRecord
  2
*D16
340
0
  0
BLOCK_RECORD
  5
18C7A
330
7466
100
AcDbSymbolTableRecord
100
AcDbBlockTableRecord
  2
A$C3B1A506B
340
0
  0
BLOCK_RECORD
  5
1C4CA
330
7466
100
AcDbSymbolTableRecord
100
AcDbBlockTableRecord
  2
_NONE
340
0
  0
BLOCK_RECORD
  5
20DE2
330
7466
100
AcDbSymbolTableRecord
100
AcDbBlockTableRecord
  2
*D19
340
0
  0
BLOCK_RECORD
  5
20DFC
330
7466
100
AcDbSymbolTableRecord
100
AcDbBlockTableRecord
  2
*D20
340
0
  0
BLOCK_RECORD
  5
22742
330
7466
100
AcDbSymbolTableRecord
100
AcDbBlockTableRecord
  2
*D25
340
0
  0
BLOCK_RECORD
  5
2275C
330
7466
100
AcDbSymbolTableRecord
100
AcDbBlockTableRecord
  2
*D26
340
0
  0
BLOCK_RECORD
  5
22B5A
330
7466
100
AcDbSymbolTableRecord
100
AcDbBlockTableRecord
  2
*D27
340
0
  0
BLOCK_RECORD
  5
22B74
330
7466
100
AcDbSymbolTableRecord
100
AcDbBlockTableRecord
  2
*D28
340
0
  0
BLOCK_RECORD
  5
22B9A
330
7466
100
AcDbSymbolTableRecord
100
AcDbBlockTableRecord
  2
*D29
340
0
  0
BLOCK_RECORD
  5
23105
330
7466
100
AcDbSymbolTableRecord
100
AcDbBlockTableRecord
  2
*D30
340
0
  0
BLOCK_RECORD
  5
23111
330
7466
100
AcDbSymbolTableRecord
100
AcDbBlockTableRecord
  2
*D31
340
0
  0
BLOCK_RECORD
  5
2311D
330
7466
100
AcDbSymbolTableRecord
100
AcDbBlockTableRecord
  2
*D32
340
0
  0
BLOCK_RECORD
  5
23129
330
7466
100
AcDbSymbolTableRecord
100
AcDbBlockTableRecord
  2
*D33
340
0
  0
BLOCK_RECORD
  5
23135
330
7466
100
AcDbSymbolTableRecord
100
AcDbBlockTableRecord
  2
*D34
340
0
  0
BLOCK_RECORD
  5
23141
330
7466
100
AcDbSymbolTableRecord
100
AcDbBlockTableRecord
  2
*D35
340
0
  0
BLOCK_RECORD
  5
2314E
330
7466
100
AcDbSymbolTableRecord
100
AcDbBlockTableRecord
  2
*D36
340
0
  0
BLOCK_RECORD
  5
2315A
330
7466
100
AcDbSymbolTableRecord
100
AcDbBlockTableRecord
  2
*D37
340
0
  0
BLOCK_RECORD
  5
23180
330
7466
100
AcDbSymbolTableRecord
100
AcDbBlockTableRecord
  2
*D38
340
0
  0
BLOCK_RECORD
  5
2318B
330
7466
100
AcDbSymbolTableRecord
100
AcDbBlockTableRecord
  2
*D39
340
0
  0
BLOCK_RECORD
  5
231A4
330
7466
100
AcDbSymbolTableRecord
100
AcDbBlockTableRecord
  2
*D40
340
0
  0
BLOCK_RECORD
  5
231B1
330
7466
100
AcDbSymbolTableRecord
100
AcDbBlockTableRecord
  2
*D41
340
0
  0
BLOCK_RECORD
  5
231C8
330
7466
100
AcDbSymbolTableRecord
100
AcDbBlockTableRecord
  2
*D42
340
0
  0
BLOCK_RECORD
  5
231E0
330
7466
100
AcDbSymbolTableRecord
100
AcDbBlockTableRecord
  2
*D43
340
0
  0
BLOCK_RECORD
  5
231FA
330
7466
100
AcDbSymbolTableRecord
100
AcDbBlockTableRecord
  2
*D44
340
0
  0
BLOCK_RECORD
  5
23214
330
7466
100
AcDbSymbolTableRecord
100
AcDbBlockTableRecord
  2
*D45
340
0
  0
BLOCK_RECORD
  5
2361F
330
7466
100
AcDbSymbolTableRecord
100
AcDbBlockTableRecord
  2
A$C4B224CBE
340
0
  0
BLOCK_RECORD
  5
23963
330
7466
100
AcDbSymbolTableRecord
100
AcDbBlockTableRecord
  2
*D53
340
0
  0
BLOCK_RECORD
  5
2396F
330
7466
100
AcDbSymbolTableRecord
100
AcDbBlockTableRecord
  2
*D54
340
0
  0
BLOCK_RECORD
  5
2397B
330
7466
100
AcDbSymbolTableRecord
100
AcDbBlockTableRecord
  2
*D55
340
0
  0
BLOCK_RECORD
  5
23987
330
7466
100
AcDbSymbolTableRecord
100
AcDbBlockTableRecord
  2
*D56
340
0
  0
BLOCK_RECORD
  5
23993
330
7466
100
AcDbSymbolTableRecord
100
AcDbBlockTableRecord
  2
*D57
340
0
  0
BLOCK_RECORD
  5
239A1
330
7466
100
AcDbSymbolTableRecord
100
AcDbBlockTableRecord
  2
*D58
340
0
  0
ENDTAB
  0
ENDSEC
  0
SECTION
  2
BLOCKS
  0
BLOCK
  5
7489
330
747D
100
AcDbEntity
  8
0
100
AcDbBlockBegin
  2
*MODEL_SPACE
 70
     0
 10
0.0
 20
0.0
 30
0.0
  3
*MODEL_SPACE
  1

  0
ENDBLK
  5
748A
330
747D
100
AcDbEntity
  8
0
100
AcDbBlockEnd
  0
BLOCK
  5
7487
330
747A
100
AcDbEntity
 67
     1
  8
0
100
AcDbBlockBegin
  2
*PAPER_SPACE
 70
     0
 10
0.0
 20
0.0
 30
0.0
  3
*PAPER_SPACE
  1

  0
ENDBLK
  5
7488
330
747A
100
AcDbEntity
 67
     1
  8
0
100
AcDbBlockEnd
  0
BLOCK
  5
DEAD
330
DEAC
100
AcDbEntity
  8
0
100
AcDbBlockBegin
  2
_OPEN
 70
     0
 10
0.0
 20
0.0
 30
0.0
  3
_OPEN
  1

  0
LINE
  5
DEAE
330
DEAC
100
AcDbEntity
  8
0
  6
ByBlock
 62
     0
100
AcDbLine
 10
-1.0
 20
0.1666666666666666
 30
0.0
 11
0.0
 21
0.0
 31
0.0
  0
LINE
  5
DEAF
330
DEAC
100
AcDbEntity
  8
0
  6
ByBlock
 62
     0
100
AcDbLine
 10
0.0
 20
0.0
 30
0.0
 11
-1.0
 21
-0.1666666666666666
 31
0.0
  0
LINE
  5
DEB0
330
DEAC
100
AcDbEntity
  8
0
  6
ByBlock
 62
     0
100
AcDbLine
 10
0.0
 20
0.0
 30
0.0
 11
-1.0
 21
0.0
 31
0.0
  0
ENDBLK
  5
DEB1
330
DEAC
100
AcDbEntity
  8
0
100
AcDbBlockEnd
  0
BLOCK
  5
F771
330
F770
100
AcDbEntity
  8
0
 48
50.0
100
AcDbBlockBegin
  2
_DOTSMALL
 70
     0
 10
0.0
 20
0.0
 30
0.0
  3
_DOTSMALL
  1

  0
LWPOLYLINE
  5
F772
330
F770
100
AcDbEntity
  8
0
  6
ByBlock
 62
     0
 48
50.0
100
AcDbPolyline
 90
        2
 70
     1
 43
0.5
 10
-0.0625
 20
0.0
 42
1.0
 10
0.0625
 20
0.0
 42
1.0
  0
ENDBLK
  5
F776
330
F770
100
AcDbEntity
  8
0
 48
50.0
100
AcDbBlockEnd
  0
BLOCK
  5
164BA
330
164B4
100
AcDbEntity
  8
0
 48
50.0
100
AcDbBlockBegin
  2
_DOT
 70
     0
 10
0.0
 20
0.0
 30
0.0
  3
_DOT
  1

  0
LWPOLYLINE
  5
164B5
330
164B4
100
AcDbEntity
  8
0
  6
ByBlock
 62
     0
 48
50.0
100
AcDbPolyline
 90
        2
 70
     1
 43
0.5
 10
-0.25
 20
0.0
 42
1.0
 10
0.25
 20
0.0
 42
1.0
  0
LINE
  5
164B9
330
164B4
100
AcDbEntity
  8
0
  6
ByBlock
 62
     0
 48
50.0
100
AcDbLine
 10
-0.5
 20
0.0
 30
0.0
 11
-1.0
 21
0.0
 31
0.0
  0
ENDBLK
  5
164BB
330
164B4
100
AcDbEntity
  8
0
 48
50.0
100
AcDbBlockEnd
  0
BLOCK
  5
18BC9
330
18BC8
100
AcDbEntity
  8
0
 48
50.0
100
AcDbBlockBegin
  2
*D3
 70
     1
 10
0.0
 20
0.0
 30
0.0
  3
*D3
  1

  0
LINE
  5
18BCA
330
18BC8
100
AcDbEntity
  8
寸法
 62
     0
 48
50.0
370
    -2
100
AcDbLine
 10
7649.896575106999
 20
9636.123139034717
 30
0.0
 11
8702.429862581047
 21
9636.123139034717
 31
0.0
  0
LINE
  5
18BCB
330
18BC8
100
AcDbEntity
  8
寸法
 62
     0
 48
50.0
370
    -2
100
AcDbLine
 10
7649.896575106973
 20
7846.123139034709
 30
0.0
 11
8702.429862581047
 21
7846.123139034709
 31
0.0
  0
LINE
  5
18BCC
330
18BC8
100
AcDbEntity
  8
寸法
 62
     0
 48
50.0
370
    -2
100
AcDbLine
 10
8642.429862581046
 20
9636.123139034717
 30
0.0
 11
8642.429862581046
 21
7846.123139034709
 31
0.0
  0
INSERT
  5
18BCD
330
18BC8
100
AcDbEntity
  8
寸法
 62
     0
 48
50.0
370
    -2
100
AcDbBlockReference
  2
_DOTSMALL
 10
8642.429862581046
 20
9636.123139034717
 30
0.0
 41
100.0
 42
100.0
 43
100.0
 50
90.0
  0
INSERT
  5
18BCE
330
18BC8
100
AcDbEntity
  8
寸法
 62
     0
 48
50.0
370
    -2
100
AcDbBlockReference
  2
_DOTSMALL
 10
8642.429862581046
 20
7846.123139034709
 30
0.0
 41
100.0
 42
100.0
 43
100.0
 50
270.0
  0
MTEXT
  5
18BCF
330
18BC8
100
AcDbEntity
  8
寸法
 62
     7
 48
50.0
100
AcDbMText
 10
8542.429862581045
 20
8741.123139034712
 30
0.0
 40
120.0
 41
0.0
 71
     5
 72
     1
  1
\A1;1790
  7
STYLE1
 11
0.0000000000000001
 21
1.0
 31
0.0
 73
     1
 44
1.0
1001
ACAD
1000
MTEXTBEGIN
1070
    73
1070
     1
1070
    44
1040
1.0
1070
    74
1070
     0
1000
MTEXTEND
  0
POINT
  5
18BD0
330
18BC8
100
AcDbEntity
  8
DEFPOINTS
 62
     0
 48
50.0
100
AcDbPoint
 10
7629.896575106998
 20
9636.123139034717
 30
0.0
  0
POINT
  5
18BD1
330
18BC8
100
AcDbEntity
  8
DEFPOINTS
 62
     0
 48
50.0
100
AcDbPoint
 10
7629.896575106974
 20
7846.123139034709
 30
0.0
  0
POINT
  5
18BD2
330
18BC8
100
AcDbEntity
  8
DEFPOINTS
 62
     0
 48
50.0
100
AcDbPoint
 10
8642.429862581046
 20
7846.123139034709
 30
0.0
  0
ENDBLK
  5
18BD3
330
18BC8
100
AcDbEntity
  8
0
 48
50.0
100
AcDbBlockEnd
  0
BLOCK
  5
18BD5
330
18BD4
100
AcDbEntity
  8
0
 48
50.0
100
AcDbBlockBegin
  2
*D4
 70
     1
 10
0.0
 20
0.0
 30
0.0
  3
*D4
  1

  0
LINE
  5
18BD6
330
18BD4
100
AcDbEntity
  8
寸法
 62
     0
 48
50.0
370
    -2
100
AcDbLine
 10
4214.896575106998
 20
9656.123139034622
 30
0.0
 11
4214.896575106998
 21
10211.93135865972
 31
0.0
  0
LINE
  5
18BD7
330
18BD4
100
AcDbEntity
  8
寸法
 62
     0
 48
50.0
370
    -2
100
AcDbLine
 10
7574.896575106999
 20
9656.123139034718
 30
0.0
 11
7574.896575106999
 21
10211.93135865972
 31
0.0
  0
LINE
  5
18BD8
330
18BD4
100
AcDbEntity
  8
寸法
 62
     0
 48
50.0
370
    -2
100
AcDbLine
 10
4214.896575106998
 20
10151.93135865972
 30
0.0
 11
7574.896575106999
 21
10151.93135865972
 31
0.0
  0
INSERT
  5
18BD9
330
18BD4
100
AcDbEntity
  8
寸法
 62
     0
 48
50.0
370
    -2
100
AcDbBlockReference
  2
_DOTSMALL
 10
4214.896575106998
 20
10151.93135865972
 30
0.0
 41
100.0
 42
100.0
 43
100.0
 50
180.0
  0
INSERT
  5
18BDA
330
18BD4
100
AcDbEntity
  8
寸法
 62
     0
 48
50.0
370
    -2
100
AcDbBlockReference
  2
_DOTSMALL
 10
7574.896575106999
 20
10151.93135865972
 30
0.0
 41
100.0
 42
100.0
 43
100.0
  0
MTEXT
  5
18BDB
330
18BD4
100
AcDbEntity
  8
寸法
 62
     7
 48
50.0
100
AcDbMText
 10
5894.896575106997
 20
10251.94316968334
 30
0.0
 40
120.0
 41
0.0
 71
     5
 72
     1
  1
\A1;8X420=3360
  7
STYLE1
 73
     1
 44
1.0
1001
ACAD
1000
MTEXTBEGIN
1070
    73
1070
     1
1070
    44
1040
1.0
1070
    74
1070
     0
1000
MTEXTEND
  0
POINT
  5
18BDC
330
18BD4
100
AcDbEntity
  8
DEFPOINTS
 62
     0
 48
50.0
100
AcDbPoint
 10
4214.896575106998
 20
9636.123139034623
 30
0.0
  0
POINT
  5
18BDD
330
18BD4
100
AcDbEntity
  8
DEFPOINTS
 62
     0
 48
50.0
100
AcDbPoint
 10
7574.896575106999
 20
9636.123139034717
 30
0.0
  0
POINT
  5
18BDE
330
18BD4
100
AcDbEntity
  8
DEFPOINTS
 62
     0
 48
50.0
100
AcDbPoint
 10
7574.896575106999
 20
10151.93135865972
 30
0.0
  0
ENDBLK
  5
18BDF
330
18BD4
100
AcDbEntity
  8
0
 48
50.0
100
AcDbBlockEnd
  0
BLOCK
  5
18BE1
330
18BE0
100
AcDbEntity
  8
0
 48
50.0
100
AcDbBlockBegin
  2
*D5
 70
     1
 10
0.0
 20
0.0
 30
0.0
  3
*D5
  1

  0
LINE
  5
18BE2
330
18BE0
100
AcDbEntity
  8
寸法
 62
     0
 48
50.0
370
    -2
100
AcDbLine
 10
7574.896575106999
 20
9656.123139034718
 30
0.0
 11
7574.896575106999
 21
10211.9313586597
 31
0.0
  0
LINE
  5
18BE3
330
18BE0
100
AcDbEntity
  8
寸法
 62
     0
 48
50.0
370
    -2
100
AcDbLine
 10
7629.896575106998
 20
9656.123139034718
 30
0.0
 11
7629.896575106998
 21
10211.9313586597
 31
0.0
  0
LINE
  5
18BE4
330
18BE0
100
AcDbEntity
  8
寸法
 62
     0
 48
50.0
370
    -2
100
AcDbLine
 10
7574.896575106999
 20
10151.9313586597
 30
0.0
 11
7474.896575106999
 21
10151.9313586597
 31
0.0
  0
LINE
  5
18BE5
330
18BE0
100
AcDbEntity
  8
寸法
 62
     0
 48
50.0
370
    -2
100
AcDbLine
 10
7629.896575106998
 20
10151.9313586597
 30
0.0
 11
8046.867137855477
 21
10151.9313586597
 31
0.0
  0
LINE
  5
18BE6
330
18BE0
100
AcDbEntity
  8
寸法
 62
     0
 48
50.0
370
    -2
100
AcDbLine
 10
7574.896575106999
 20
10151.9313586597
 30
0.0
 11
7629.896575106998
 21
10151.9313586597
 31
0.0
  0
INSERT
  5
18BE7
330
18BE0
100
AcDbEntity
  8
寸法
 62
     0
 48
50.0
370
    -2
100
AcDbBlockReference
  2
_DOTSMALL
 10
7574.896575106999
 20
10151.9313586597
 30
0.0
 41
100.0
 42
100.0
 43
100.0
  0
INSERT
  5
18BE8
330
18BE0
100
AcDbEntity
  8
寸法
 62
     0
 48
50.0
370
    -2
100
AcDbBlockReference
  2
_DOTSMALL
 10
7629.896575106998
 20
10151.9313586597
 30
0.0
 41
100.0
 42
100.0
 43
100.0
 50
180.0
  0
MTEXT
  5
18BE9
330
18BE0
100
AcDbEntity
  8
寸法
 62
     7
 48
50.0
100
AcDbMText
 10
7938.381856481237
 20
10251.9313586597
 30
0.0
 40
120.0
 41
0.0
 71
     5
 72
     1
  1
\A1;55
  7
STYLE1
 73
     1
 44
1.0
1001
ACAD
1000
MTEXTBEGIN
1070
    73
1070
     1
1070
    44
1040
1.0
1070
    74
1070
     0
1000
MTEXTEND
  0
POINT
  5
18BEA
330
18BE0
100
AcDbEntity
  8
DEFPOINTS
 62
     0
 48
50.0
100
AcDbPoint
 10
7574.896575106999
 20
9636.123139034717
 30
0.0
  0
POINT
  5
18BEB
330
18BE0
100
AcDbEntity
  8
DEFPOINTS
 62
     0
 48
50.0
100
AcDbPoint
 10
7629.896575106998
 20
9636.123139034717
 30
0.0
  0
POINT
  5
18BEC
330
18BE0
100
AcDbEntity
  8
DEFPOINTS
 62
     0
 48
50.0
100
AcDbPoint
 10
7629.896575106998
 20
10151.9313586597
 30
0.0
  0
ENDBLK
  5
18BED
330
18BE0
100
AcDbEntity
  8
0
 48
50.0
100
AcDbBlockEnd
  0
BLOCK
  5
18BEF
330
18BEE
100
AcDbEntity
  8
0
 48
50.0
100
AcDbBlockBegin
  2
*D6
 70
     1
 10
0.0
 20
0.0
 30
0.0
  3
*D6
  1

  0
LINE
  5
18BF0
330
18BEE
100
AcDbEntity
  8
寸法
 62
     0
 48
50.0
370
    -2
100
AcDbLine
 10
7649.896575106999
 20
9636.123139034717
 30
0.0
 11
8337.32292084141
 21
9636.123139034717
 31
0.0
  0
LINE
  5
18BF1
330
18BEE
100
AcDbEntity
  8
寸法
 62
     0
 48
50.0
370
    -2
100
AcDbLine
 10
7649.896575106999
 20
9581.123139034721
 30
0.0
 11
8337.32292084141
 21
9581.123139034721
 31
0.0
  0
LINE
  5
18BF2
330
18BEE
100
AcDbEntity
  8
寸法
 62
     0
 48
50.0
370
    -2
100
AcDbLine
 10
8277.322920841411
 20
9581.123139034721
 30
0.0
 11
8277.322920841411
 21
9481.123139034719
 31
0.0
  0
LINE
  5
18BF3
330
18BEE
100
AcDbEntity
  8
寸法
 62
     0
 48
50.0
370
    -2
100
AcDbLine
 10
8277.322920841411
 20
9636.123139034717
 30
0.0
 11
8277.322920841411
 21
10053.09370178319
 31
0.0
  0
LINE
  5
18BF4
330
18BEE
100
AcDbEntity
  8
寸法
 62
     0
 48
50.0
370
    -2
100
AcDbLine
 10
8277.322920841411
 20
9581.123139034721
 30
0.0
 11
8277.322920841411
 21
9636.123139034717
 31
0.0
  0
INSERT
  5
18BF5
330
18BEE
100
AcDbEntity
  8
寸法
 62
     0
 48
50.0
370
    -2
100
AcDbBlockReference
  2
_DOTSMALL
 10
8277.322920841411
 20
9581.123139034721
 30
0.0
 41
100.0
 42
100.0
 43
100.0
 50
90.0
  0
INSERT
  5
18BF6
330
18BEE
100
AcDbEntity
  8
寸法
 62
     0
 48
50.0
370
    -2
100
AcDbBlockReference
  2
_DOTSMALL
 10
8277.322920841411
 20
9636.123139034717
 30
0.0
 41
100.0
 42
100.0
 43
100.0
 50
270.0
  0
MTEXT
  5
18BF7
330
18BEE
100
AcDbEntity
  8
寸法
 62
     7
 48
50.0
100
AcDbMText
 10
8177.32292084141
 20
9944.608420408957
 30
0.0
 40
120.0
 41
0.0
 71
     5
 72
     1
  1
\A1;55
  7
STYLE1
 11
0.0000000000000001
 21
1.0
 31
0.0
 73
     1
 44
1.0
1001
ACAD
1000
MTEXTBEGIN
1070
    73
1070
     1
1070
    44
1040
1.0
1070
    74
1070
     0
1000
MTEXTEND
  0
POINT
  5
18BF8
330
18BEE
100
AcDbEntity
  8
DEFPOINTS
 62
     0
 48
50.0
100
AcDbPoint
 10
7629.896575106998
 20
9636.123139034717
 30
0.0
  0
POINT
  5
18BF9
330
18BEE
100
AcDbEntity
  8
DEFPOINTS
 62
     0
 48
50.0
100
AcDbPoint
 10
7629.896575106998
 20
9581.123139034721
 30
0.0
  0
POINT
  5
18BFA
330
18BEE
100
AcDbEntity
  8
DEFPOINTS
 62
     0
 48
50.0
100
AcDbPoint
 10
8277.322920841411
 20
9581.123139034721
 30
0.0
  0
ENDBLK
  5
18BFB
330
18BEE
100
AcDbEntity
  8
0
 48
50.0
100
AcDbBlockEnd
  0
BLOCK
  5
18BFD
330
18BFC
100
AcDbEntity
  8
0
 48
50.0
100
AcDbBlockBegin
  2
*D7
 70
     1
 10
0.0
 20
0.0
 30
0.0
  3
*D7
  1

  0
LINE
  5
18BFE
330
18BFC
100
AcDbEntity
  8
寸法
 62
     0
 48
50.0
370
    -2
100
AcDbLine
 10
4159.896575106963
 20
9656.123139034622
 30
0.0
 11
4159.896575106963
 21
10211.9313586596
 31
0.0
  0
LINE
  5
18BFF
330
18BFC
100
AcDbEntity
  8
寸法
 62
     0
 48
50.0
370
    -2
100
AcDbLine
 10
4214.896575106998
 20
9656.123139034622
 30
0.0
 11
4214.896575106998
 21
10211.9313586596
 31
0.0
  0
LINE
  5
18C00
330
18BFC
100
AcDbEntity
  8
寸法
 62
     0
 48
50.0
370
    -2
100
AcDbLine
 10
4214.896575106998
 20
10151.9313586596
 30
0.0
 11
4314.896575106998
 21
10151.9313586596
 31
0.0
  0
LINE
  5
18C01
330
18BFC
100
AcDbEntity
  8
寸法
 62
     0
 48
50.0
370
    -2
100
AcDbLine
 10
4159.896575106963
 20
10151.9313586596
 30
0.0
 11
3742.926012358486
 21
10151.9313586596
 31
0.0
  0
LINE
  5
18C02
330
18BFC
100
AcDbEntity
  8
寸法
 62
     0
 48
50.0
370
    -2
100
AcDbLine
 10
4214.896575106998
 20
10151.9313586596
 30
0.0
 11
4159.896575106963
 21
10151.9313586596
 31
0.0
  0
INSERT
  5
18C03
330
18BFC
100
AcDbEntity
  8
寸法
 62
     0
 48
50.0
370
    -2
100
AcDbBlockReference
  2
_DOTSMALL
 10
4214.896575106998
 20
10151.9313586596
 30
0.0
 41
100.0
 42
100.0
 43
100.0
 50
180.0
  0
INSERT
  5
18C04
330
18BFC
100
AcDbEntity
  8
寸法
 62
     0
 48
50.0
370
    -2
100
AcDbBlockReference
  2
_DOTSMALL
 10
4159.896575106963
 20
10151.9313586596
 30
0.0
 41
100.0
 42
100.0
 43
100.0
  0
MTEXT
  5
18C05
330
18BFC
100
AcDbEntity
  8
寸法
 62
     7
 48
50.0
100
AcDbMText
 10
3851.411293732725
 20
10251.9313586596
 30
0.0
 40
120.0
 41
0.0
 71
     5
 72
     1
  1
\A1;55
  7
STYLE1
 73
     1
 44
1.0
1001
ACAD
1000
MTEXTBEGIN
1070
    73
1070
     1
1070
    44
1040
1.0
1070
    74
1070
     0
1000
MTEXTEND
  0
POINT
  5
18C06
330
18BFC
100
AcDbEntity
  8
DEFPOINTS
 62
     0
 48
50.0
100
AcDbPoint
 10
4159.896575106963
 20
9636.123139034623
 30
0.0
  0
POINT
  5
18C07
330
18BFC
100
AcDbEntity
  8
DEFPOINTS
 62
     0
 48
50.0
100
AcDbPoint
 10
4214.896575106998
 20
9636.123139034623
 30
0.0
  0
POINT
  5
18C08
330
18BFC
100
AcDbEntity
  8
DEFPOINTS
 62
     0
 48
50.0
100
AcDbPoint
 10
4214.896575106998
 20
10151.9313586596
 30
0.0
  0
ENDBLK
  5
18C09
330
18BFC
100
AcDbEntity
  8
0
 48
50.0
100
AcDbBlockEnd
  0
BLOCK
  5
18C0B
330
18C0A
100
AcDbEntity
  8
0
 48
50.0
100
AcDbBlockBegin
  2
*D8
 70
     1
 10
0.0
 20
0.0
 30
0.0
  3
*D8
  1

  0
LINE
  5
18C0C
330
18C0A
100
AcDbEntity
  8
寸法
 62
     0
 48
50.0
370
    -2
100
AcDbLine
 10
4159.896575106992
 20
7826.123139034546
 30
0.0
 11
4159.896575106992
 21
6804.372203245664
 31
0.0
  0
LINE
  5
18C0D
330
18C0A
100
AcDbEntity
  8
寸法
 62
     0
 48
50.0
370
    -2
100
AcDbLine
 10
7629.896575106974
 20
7826.123139034674
 30
0.0
 11
7629.896575106974
 21
6804.372203245664
 31
0.0
  0
LINE
  5
18C0E
330
18C0A
100
AcDbEntity
  8
寸法
 62
     0
 48
50.0
370
    -2
100
AcDbLine
 10
4159.896575106992
 20
6864.372203245665
 30
0.0
 11
7629.896575106974
 21
6864.372203245665
 31
0.0
  0
INSERT
  5
18C0F
330
18C0A
100
AcDbEntity
  8
寸法
 62
     0
 48
50.0
370
    -2
100
AcDbBlockReference
  2
_DOTSMALL
 10
4159.896575106992
 20
6864.372203245665
 30
0.0
 41
100.0
 42
100.0
 43
100.0
 50
180.0
  0
INSERT
  5
18C10
330
18C0A
100
AcDbEntity
  8
寸法
 62
     0
 48
50.0
370
    -2
100
AcDbBlockReference
  2
_DOTSMALL
 10
7629.896575106974
 20
6864.372203245665
 30
0.0
 41
100.0
 42
100.0
 43
100.0
  0
MTEXT
  5
18C11
330
18C0A
100
AcDbEntity
  8
寸法
 62
     7
 48
50.0
100
AcDbMText
 10
5911.12376113973
 20
6964.372203245665
 30
0.0
 40
120.0
 41
0.0
 71
     5
 72
     1
  1
\A1;3470
  7
STYLE1
 73
     1
 44
1.0
1001
ACAD
1000
MTEXTBEGIN
1070
    73
1070
     1
1070
    44
1040
1.0
1070
    74
1070
     0
1000
MTEXTEND
  0
POINT
  5
18C12
330
18C0A
100
AcDbEntity
  8
DEFPOINTS
 62
     0
 48
50.0
100
AcDbPoint
 10
4159.896575106992
 20
7846.123139034546
 30
0.0
  0
POINT
  5
18C13
330
18C0A
100
AcDbEntity
  8
DEFPOINTS
 62
     0
 48
50.0
100
AcDbPoint
 10
7629.896575106974
 20
7846.123139034673
 30
0.0
  0
POINT
  5
18C14
330
18C0A
100
AcDbEntity
  8
DEFPOINTS
 62
     0
 48
50.0
100
AcDbPoint
 10
7629.896575106974
 20
6864.372203245665
 30
0.0
  0
ENDBLK
  5
18C15
330
18C0A
100
AcDbEntity
  8
0
 48
50.0
100
AcDbBlockEnd
  0
BLOCK
  5
18C17
330
18C16
100
AcDbEntity
  8
0
 48
50.0
100
AcDbBlockBegin
  2
*D9
 70
     1
 10
0.0
 20
0.0
 30
0.0
  3
*D9
  1

  0
LINE
  5
18C18
330
18C16
100
AcDbEntity
  8
寸法
 62
     0
 48
50.0
370
    -2
100
AcDbLine
 10
7649.896575106973
 20
7901.123139034706
 30
0.0
 11
8337.322920841385
 21
7901.123139034706
 31
0.0
  0
LINE
  5
18C19
330
18C16
100
AcDbEntity
  8
寸法
 62
     0
 48
50.0
370
    -2
100
AcDbLine
 10
7649.896575106973
 20
7846.123139034709
 30
0.0
 11
8337.322920841385
 21
7846.123139034709
 31
0.0
  0
LINE
  5
18C1A
330
18C16
100
AcDbEntity
  8
寸法
 62
     0
 48
50.0
370
    -2
100
AcDbLine
 10
8277.322920841385
 20
7901.123139034706
 30
0.0
 11
8277.322920841385
 21
8001.123139034707
 31
0.0
  0
LINE
  5
18C1B
330
18C16
100
AcDbEntity
  8
寸法
 62
     0
 48
50.0
370
    -2
100
AcDbLine
 10
8277.322920841385
 20
7846.123139034709
 30
0.0
 11
8277.322920841385
 21
7429.152576286229
 31
0.0
  0
LINE
  5
18C1C
330
18C16
100
AcDbEntity
  8
寸法
 62
     0
 48
50.0
370
    -2
100
AcDbLine
 10
8277.322920841385
 20
7901.123139034706
 30
0.0
 11
8277.322920841385
 21
7846.123139034709
 31
0.0
  0
INSERT
  5
18C1D
330
18C16
100
AcDbEntity
  8
寸法
 62
     0
 48
50.0
370
    -2
100
AcDbBlockReference
  2
_DOTSMALL
 10
8277.322920841385
 20
7901.123139034706
 30
0.0
 41
100.0
 42
100.0
 43
100.0
 50
270.0
  0
INSERT
  5
18C1E
330
18C16
100
AcDbEntity
  8
寸法
 62
     0
 48
50.0
370
    -2
100
AcDbBlockReference
  2
_DOTSMALL
 10
8277.322920841385
 20
7846.123139034709
 30
0.0
 41
100.0
 42
100.0
 43
100.0
 50
90.0
  0
MTEXT
  5
18C1F
330
18C16
100
AcDbEntity
  8
寸法
 62
     7
 48
50.0
100
AcDbMText
 10
8177.322920841383
 20
7537.637857660469
 30
0.0
 40
120.0
 41
0.0
 71
     5
 72
     1
  1
\A1;55
  7
STYLE1
 11
0.0000000000000001
 21
1.0
 31
0.0
 73
     1
 44
1.0
1001
ACAD
1000
MTEXTBEGIN
1070
    73
1070
     1
1070
    44
1040
1.0
1070
    74
1070
     0
1000
MTEXTEND
  0
POINT
  5
18C20
330
18C16
100
AcDbEntity
  8
DEFPOINTS
 62
     0
 48
50.0
100
AcDbPoint
 10
7629.896575106974
 20
7901.123139034706
 30
0.0
  0
POINT
  5
18C21
330
18C16
100
AcDbEntity
  8
DEFPOINTS
 62
     0
 48
50.0
100
AcDbPoint
 10
7629.896575106974
 20
7846.123139034709
 30
0.0
  0
POINT
  5
18C22
330
18C16
100
AcDbEntity
  8
DEFPOINTS
 62
     0
 48
50.0
100
AcDbPoint
 10
8277.322920841385
 20
7846.123139034709
 30
0.0
  0
ENDBLK
  5
18C23
330
18C16
100
AcDbEntity
  8
0
 48
50.0
100
AcDbBlockEnd
  0
BLOCK
  5
18C25
330
18C24
100
AcDbEntity
  8
0
 48
50.0
100
AcDbBlockBegin
  2
*D10
 70
     1
 10
0.0
 20
0.0
 30
0.0
  3
*D10
  1

  0
LINE
  5
18C26
330
18C24
100
AcDbEntity
  8
寸法
 62
     0
 48
50.0
370
    -2
100
AcDbLine
 10
6533.037591258376
 20
9136.123139034728
 30
0.0
 11
6465.083950562664
 21
8882.516699399049
 31
0.0
  0
LINE
  5
18C27
330
18C24
100
AcDbEntity
  8
寸法
 62
     0
 48
50.0
370
    -2
100
AcDbLine
 10
7596.037591258388
 20
9136.123139034721
 30
0.0
 11
7528.083950562677
 21
8882.516699399049
 31
0.0
  0
LINE
  5
18C28
330
18C24
100
AcDbEntity
  8
寸法
 62
     0
 48
50.0
370
    -2
100
AcDbLine
 10
6481.160902108531
 20
8942.51669939905
 30
0.0
 11
7544.160902108544
 21
8942.51669939905
 31
0.0
  0
INSERT
  5
18C29
330
18C24
100
AcDbEntity
  8
寸法
 62
     0
 48
50.0
370
    -2
100
AcDbBlockReference
  2
_DOTSMALL
 10
6481.160902108531
 20
8942.51669939905
 30
0.0
 41
100.0
 42
100.0
 43
100.0
 50
180.0
  0
INSERT
  5
18C2A
330
18C24
100
AcDbEntity
  8
寸法
 62
     0
 48
50.0
370
    -2
100
AcDbBlockReference
  2
_DOTSMALL
 10
7544.160902108544
 20
8942.51669939905
 30
0.0
 41
100.0
 42
100.0
 43
100.0
  0
MTEXT
  5
18C2B
330
18C24
100
AcDbEntity
  8
寸法
 62
     7
 48
50.0
100
AcDbMText
 10
7061.28653022935
 20
9042.516699399049
 30
0.0
 40
120.0
 41
0.0
 71
     5
 72
     1
  1
\A1;1063
  7
STYLE1
 73
     1
 44
1.0
1001
ACAD
1000
MTEXTBEGIN
1070
    73
1070
     1
1070
    44
1040
1.0
1070
    74
1070
     0
1000
MTEXTEND
  0
POINT
  5
18C2C
330
18C24
100
AcDbEntity
  8
DEFPOINTS
 62
     0
 48
50.0
100
AcDbPoint
 10
6538.396575106998
 20
9156.123139034727
 30
0.0
  0
POINT
  5
18C2D
330
18C24
100
AcDbEntity
  8
DEFPOINTS
 62
     0
 48
50.0
100
AcDbPoint
 10
7601.39657510701
 20
9156.12313903472
 30
0.0
  0
POINT
  5
18C2E
330
18C24
100
AcDbEntity
  8
DEFPOINTS
 62
     0
 48
50.0
100
AcDbPoint
 10
7544.160902108544
 20
8942.51669939905
 30
0.0
  0
ENDBLK
  5
18C2F
330
18C24
100
AcDbEntity
  8
0
 48
50.0
100
AcDbBlockEnd
  0
BLOCK
  5
18C31
330
18C30
100
AcDbEntity
  8
0
 48
50.0
100
AcDbBlockBegin
  2
*D11
 70
     1
 10
0.0
 20
0.0
 30
0.0
  3
*D11
  1

  0
LINE
  5
18C32
330
18C30
100
AcDbEntity
  8
寸法
 62
     0
 48
50.0
370
    -2
100
AcDbLine
 10
7621.396575106999
 20
9600.764155186094
 30
0.0
 11
8016.754300969024
 21
9494.828371819961
 31
0.0
  0
LINE
  5
18C33
330
18C30
100
AcDbEntity
  8
寸法
 62
     0
 48
50.0
370
    -2
100
AcDbLine
 10
7621.396575106999
 20
9150.764155186099
 30
0.0
 11
8016.754300969024
 21
9044.828371819964
 31
0.0
  0
LINE
  5
18C34
330
18C30
100
AcDbEntity
  8
寸法
 62
     0
 48
50.0
370
    -2
100
AcDbLine
 10
7956.754300969024
 20
9510.905323365827
 30
0.0
 11
7956.754300969024
 21
9060.90532336583
 31
0.0
  0
INSERT
  5
18C35
330
18C30
100
AcDbEntity
  8
寸法
 62
     0
 48
50.0
370
    -2
100
AcDbBlockReference
  2
_DOTSMALL
 10
7956.754300969024
 20
9510.905323365827
 30
0.0
 41
100.0
 42
100.0
 43
100.0
 50
90.0
  0
INSERT
  5
18C36
330
18C30
100
AcDbEntity
  8
寸法
 62
     0
 48
50.0
370
    -2
100
AcDbBlockReference
  2
_DOTSMALL
 10
7956.754300969024
 20
9060.90532336583
 30
0.0
 41
100.0
 42
100.0
 43
100.0
 50
270.0
  0
MTEXT
  5
18C37
330
18C30
100
AcDbEntity
  8
寸法
 62
     7
 48
50.0
100
AcDbMText
 10
7856.754300969022
 20
9285.905323365829
 30
0.0
 40
120.0
 41
0.0
 71
     5
 72
     1
  1
\A1;450
  7
STYLE1
 11
0.0000000000000001
 21
1.0
 31
0.0
 73
     1
 44
1.0
1001
ACAD
1000
MTEXTBEGIN
1070
    73
1070
     1
1070
    44
1040
1.0
1070
    74
1070
     0
1000
MTEXTEND
  0
POINT
  5
18C38
330
18C30
100
AcDbEntity
  8
DEFPOINTS
 62
     0
 48
50.0
100
AcDbPoint
 10
7601.396575106999
 20
9606.123139034718
 30
0.0
  0
POINT
  5
18C39
330
18C30
100
AcDbEntity
  8
DEFPOINTS
 62
     0
 48
50.0
100
AcDbPoint
 10
7601.396575106999
 20
9156.12313903472
 30
0.0
  0
POINT
  5
18C3A
330
18C30
100
AcDbEntity
  8
DEFPOINTS
 62
     0
 48
50.0
100
AcDbPoint
 10
7956.754300969024
 20
9060.90532336583
 30
0.0
  0
ENDBLK
  5
18C3B
330
18C30
100
AcDbEntity
  8
0
 48
50.0
100
AcDbBlockEnd
  0
BLOCK
  5
18C3D
330
18C3C
100
AcDbEntity
  8
0
 48
50.0
100
AcDbBlockBegin
  2
*D12
 70
     1
 10
0.0
 20
0.0
 30
0.0
  3
*D12
  1

  0
LINE
  5
18C3E
330
18C3C
100
AcDbEntity
  8
寸法
 62
     0
 48
50.0
370
    -2
100
AcDbLine
 10
7649.896575106999
 20
9581.123139034721
 30
0.0
 11
8337.32292084141
 21
9581.123139034721
 31
0.0
  0
LINE
  5
18C3F
330
18C3C
100
AcDbEntity
  8
寸法
 62
     0
 48
50.0
370
    -2
100
AcDbLine
 10
7649.896575106973
 20
7901.123139034706
 30
0.0
 11
8337.32292084141
 21
7901.123139034706
 31
0.0
  0
LINE
  5
18C40
330
18C3C
100
AcDbEntity
  8
寸法
 62
     0
 48
50.0
370
    -2
100
AcDbLine
 10
8277.322920841411
 20
9581.123139034721
 30
0.0
 11
8277.322920841411
 21
7901.123139034706
 31
0.0
  0
INSERT
  5
18C41
330
18C3C
100
AcDbEntity
  8
寸法
 62
     0
 48
50.0
370
    -2
100
AcDbBlockReference
  2
_DOTSMALL
 10
8277.322920841411
 20
9581.123139034721
 30
0.0
 41
100.0
 42
100.0
 43
100.0
 50
90.0
  0
INSERT
  5
18C42
330
18C3C
100
AcDbEntity
  8
寸法
 62
     0
 48
50.0
370
    -2
100
AcDbBlockReference
  2
_DOTSMALL
 10
8277.322920841411
 20
7901.123139034706
 30
0.0
 41
100.0
 42
100.0
 43
100.0
 50
270.0
  0
MTEXT
  5
18C43
330
18C3C
100
AcDbEntity
  8
寸法
 62
     7
 48
50.0
100
AcDbMText
 10
8177.311109817788
 20
8741.123139034712
 30
0.0
 40
120.0
 41
0.0
 71
     5
 72
     1
  1
\A1;4X420=1680
  7
STYLE1
 11
0.0000000000000001
 21
1.0
 31
0.0
 73
     1
 44
1.0
1001
ACAD
1000
MTEXTBEGIN
1070
    73
1070
     1
1070
    44
1040
1.0
1070
    74
1070
     0
1000
MTEXTEND
  0
POINT
  5
18C44
330
18C3C
100
AcDbEntity
  8
DEFPOINTS
 62
     0
 48
50.0
100
AcDbPoint
 10
7629.896575106998
 20
9581.123139034721
 30
0.0
  0
POINT
  5
18C45
330
18C3C
100
AcDbEntity
  8
DEFPOINTS
 62
     0
 48
50.0
100
AcDbPoint
 10
7629.896575106974
 20
7901.123139034706
 30
0.0
  0
POINT
  5
18C46
330
18C3C
100
AcDbEntity
  8
DEFPOINTS
 62
     0
 48
50.0
100
AcDbPoint
 10
8277.322920841411
 20
7901.123139034706
 30
0.0
  0
ENDBLK
  5
18C47
330
18C3C
100
AcDbEntity
  8
0
 48
50.0
100
AcDbBlockEnd
  0
BLOCK
  5
18C49
330
18C48
100
AcDbEntity
  8
0
 48
50.0
100
AcDbBlockBegin
  2
*D13
 70
     1
 10
0.0
 20
0.0
 30
0.0
  3
*D13
  1

  0
LINE
  5
18C4A
330
18C48
100
AcDbEntity
  8
寸法
 62
     0
 48
50.0
370
    -2
100
AcDbLine
 10
4183.037591258377
 20
9136.123139034619
 30
0.0
 11
4115.083950562663
 21
8882.516699398941
 31
0.0
  0
LINE
  5
18C4B
330
18C48
100
AcDbEntity
  8
寸法
 62
     0
 48
50.0
370
    -2
100
AcDbLine
 10
5246.037591258307
 20
9136.123139034671
 30
0.0
 11
5178.08395056258
 21
8882.516699398941
 31
0.0
  0
LINE
  5
18C4C
330
18C48
100
AcDbEntity
  8
寸法
 62
     0
 48
50.0
370
    -2
100
AcDbLine
 10
4131.160902108532
 20
8942.516699398941
 30
0.0
 11
5194.160902108448
 21
8942.516699398941
 31
0.0
  0
INSERT
  5
18C4D
330
18C48
100
AcDbEntity
  8
寸法
 62
     0
 48
50.0
370
    -2
100
AcDbBlockReference
  2
_DOTSMALL
 10
4131.160902108532
 20
8942.516699398941
 30
0.0
 41
100.0
 42
100.0
 43
100.0
 50
180.0
  0
INSERT
  5
18C4E
330
18C48
100
AcDbEntity
  8
寸法
 62
     0
 48
50.0
370
    -2
100
AcDbBlockReference
  2
_DOTSMALL
 10
5194.160902108448
 20
8942.516699398941
 30
0.0
 41
100.0
 42
100.0
 43
100.0
  0
MTEXT
  5
18C4F
330
18C48
100
AcDbEntity
  8
寸法
 62
     7
 48
50.0
100
AcDbMText
 10
4658.986452655306
 20
9042.516699398941
 30
0.0
 40
120.0
 41
0.0
 71
     5
 72
     1
  1
\A1;1063
  7
STYLE1
 73
     1
 44
1.0
1001
ACAD
1000
MTEXTBEGIN
1070
    73
1070
     1
1070
    44
1040
1.0
1070
    74
1070
     0
1000
MTEXTEND
  0
POINT
  5
18C50
330
18C48
100
AcDbEntity
  8
DEFPOINTS
 62
     0
 48
50.0
100
AcDbPoint
 10
4188.396575106999
 20
9156.123139034617
 30
0.0
  0
POINT
  5
18C51
330
18C48
100
AcDbEntity
  8
DEFPOINTS
 62
     0
 48
50.0
100
AcDbPoint
 10
5251.396575106929
 20
9156.123139034672
 30
0.0
  0
POINT
  5
18C52
330
18C48
100
AcDbEntity
  8
DEFPOINTS
 62
     0
 48
50.0
100
AcDbPoint
 10
5194.160902108448
 20
8942.516699398941
 30
0.0
  0
ENDBLK
  5
18C53
330
18C48
100
AcDbEntity
  8
0
 48
50.0
100
AcDbBlockEnd
  0
BLOCK
  5
18C55
330
18C54
100
AcDbEntity
  8
0
 48
50.0
100
AcDbBlockBegin
  2
*D14
 70
     1
 10
0.0
 20
0.0
 30
0.0
  3
*D14
  1

  0
LINE
  5
18C56
330
18C54
100
AcDbEntity
  8
寸法
 62
     0
 48
50.0
370
    -2
100
AcDbLine
 10
5274.037591258307
 20
9136.123139034669
 30
0.0
 11
5206.08395056258
 21
8882.516699398941
 31
0.0
  0
LINE
  5
18C57
330
18C54
100
AcDbEntity
  8
寸法
 62
     0
 48
50.0
370
    -2
100
AcDbLine
 10
6505.037591258377
 20
9136.123139034662
 30
0.0
 11
6437.083950562653
 21
8882.516699398941
 31
0.0
  0
LINE
  5
18C58
330
18C54
100
AcDbEntity
  8
寸法
 62
     0
 48
50.0
370
    -2
100
AcDbLine
 10
5222.160902108448
 20
8942.516699398941
 30
0.0
 11
6453.16090210852
 21
8942.516699398941
 31
0.0
  0
INSERT
  5
18C59
330
18C54
100
AcDbEntity
  8
寸法
 62
     0
 48
50.0
370
    -2
100
AcDbBlockReference
  2
_DOTSMALL
 10
5222.160902108448
 20
8942.516699398941
 30
0.0
 41
100.0
 42
100.0
 43
100.0
 50
180.0
  0
INSERT
  5
18C5A
330
18C54
100
AcDbEntity
  8
寸法
 62
     0
 48
50.0
370
    -2
100
AcDbBlockReference
  2
_DOTSMALL
 10
6453.16090210852
 20
8942.516699398941
 30
0.0
 41
100.0
 42
100.0
 43
100.0
  0
MTEXT
  5
18C5B
330
18C54
100
AcDbEntity
  8
寸法
 62
     7
 48
50.0
100
AcDbMText
 10
6081.244808320626
 20
9042.528510422561
 30
0.0
 40
120.0
 41
0.0
 71
     5
 72
     1
  1
\A1;1231
  7
STYLE1
 73
     1
 44
1.0
1001
ACAD
1000
MTEXTBEGIN
1070
    73
1070
     1
1070
    44
1040
1.0
1070
    74
1070
     0
1000
MTEXTEND
  0
POINT
  5
18C5C
330
18C54
100
AcDbEntity
  8
DEFPOINTS
 62
     0
 48
50.0
100
AcDbPoint
 10
5279.396575106929
 20
9156.123139034669
 30
0.0
  0
POINT
  5
18C5D
330
18C54
100
AcDbEntity
  8
DEFPOINTS
 62
     0
 48
50.0
100
AcDbPoint
 10
6510.396575106999
 20
9156.123139034662
 30
0.0
  0
POINT
  5
18C5E
330
18C54
100
AcDbEntity
  8
DEFPOINTS
 62
     0
 48
50.0
100
AcDbPoint
 10
6453.16090210852
 20
8942.516699398941
 30
0.0
  0
ENDBLK
  5
18C5F
330
18C54
100
AcDbEntity
  8
0
 48
50.0
100
AcDbBlockEnd
  0
BLOCK
  5
18C61
330
18C60
100
AcDbEntity
  8
0
 48
50.0
100
AcDbBlockBegin
  2
*D15
 70
     1
 10
0.0
 20
0.0
 30
0.0
  3
*D15
  1

  0
LINE
  5
18C62
330
18C60
100
AcDbEntity
  8
寸法
 62
     0
 48
50.0
370
    -2
100
AcDbLine
 10
5065.896575106966
 20
7749.123139034579
 30
0.0
 11
5065.896575106966
 21
7099.952920982538
 31
0.0
  0
LINE
  5
18C63
330
18C60
100
AcDbEntity
  8
寸法
 62
     0
 48
50.0
370
    -2
100
AcDbLine
 10
6331.896575106966
 20
7749.123139034579
 30
0.0
 11
6331.896575106966
 21
7099.952920982538
 31
0.0
  0
LINE
  5
18C64
330
18C60
100
AcDbEntity
  8
寸法
 62
     0
 48
50.0
370
    -2
100
AcDbLine
 10
5065.896575106966
 20
7159.952920982537
 30
0.0
 11
6331.896575106966
 21
7159.952920982537
 31
0.0
  0
INSERT
  5
18C65
330
18C60
100
AcDbEntity
  8
寸法
 62
     0
 48
50.0
370
    -2
100
AcDbBlockReference
  2
_DOTSMALL
 10
5065.896575106966
 20
7159.952920982537
 30
0.0
 41
100.0
 42
100.0
 43
100.0
 50
180.0
  0
INSERT
  5
18C66
330
18C60
100
AcDbEntity
  8
寸法
 62
     0
 48
50.0
370
    -2
100
AcDbBlockReference
  2
_DOTSMALL
 10
6331.896575106966
 20
7159.952920982537
 30
0.0
 41
100.0
 42
100.0
 43
100.0
  0
MTEXT
  5
18C67
330
18C60
100
AcDbEntity
  8
寸法
 62
     7
 48
50.0
100
AcDbMText
 10
5711.986008735934
 20
7359.964732006159
 30
0.0
 40
120.0
 41
0.0
 71
     5
 72
     1
  1
\A1;有効開口部間口\P1266
  7
STYLE1
 73
     1
 44
1.0
1001
ACAD
1000
MTEXTBEGIN
1070
    73
1070
     1
1070
    44
1040
1.0
1070
    74
1070
     0
1000
MTEXTEND
  0
POINT
  5
18C68
330
18C60
100
AcDbEntity
  8
DEFPOINTS
 62
     0
 48
50.0
100
AcDbPoint
 10
5065.896575106966
 20
7769.123139034579
 30
0.0
  0
POINT
  5
18C69
330
18C60
100
AcDbEntity
  8
DEFPOINTS
 62
     0
 48
50.0
100
AcDbPoint
 10
6331.896575106966
 20
7769.123139034579
 30
0.0
  0
POINT
  5
18C6A
330
18C60
100
AcDbEntity
  8
DEFPOINTS
 62
     0
 48
50.0
100
AcDbPoint
 10
6331.896575106966
 20
7159.952920982537
 30
0.0
  0
ENDBLK
  5
18C6B
330
18C60
100
AcDbEntity
  8
0
 48
50.0
100
AcDbBlockEnd
  0
BLOCK
  5
18C6D
330
18C6C
100
AcDbEntity
  8
0
 48
50.0
100
AcDbBlockBegin
  2
*D16
 70
     1
 10
0.0
 20
0.0
 30
0.0
  3
*D16
  1

  0
LINE
  5
18C6E
330
18C6C
100
AcDbEntity
  8
寸法
 62
     0
 48
50.0
370
    -2
100
AcDbLine
 10
7200.896575106966
 20
7846.123139034578
 30
0.0
 11
7457.192158500191
 21
7846.123139034578
 31
0.0
  0
LINE
  5
18C6F
330
18C6C
100
AcDbEntity
  8
寸法
 62
     0
 48
50.0
370
    -2
100
AcDbLine
 10
7199.896575106966
 20
7769.123139034579
 30
0.0
 11
7457.192158500191
 21
7769.123139034579
 31
0.0
  0
LINE
  5
18C70
330
18C6C
100
AcDbEntity
  8
寸法
 62
     0
 48
50.0
370
    -2
100
AcDbLine
 10
7417.192158500192
 20
7866.123139034579
 30
0.0
 11
7417.192158500192
 21
7886.123139034578
 31
0.0
  0
LINE
  5
18C71
330
18C6C
100
AcDbEntity
  8
寸法
 62
     0
 48
50.0
370
    -2
100
AcDbLine
 10
7417.192158500192
 20
7749.123139034579
 30
0.0
 11
7417.192158500192
 21
7533.123139034573
 31
0.0
  0
LINE
  5
18C72
330
18C6C
100
AcDbEntity
  8
寸法
 62
     0
 48
50.0
370
    -2
100
AcDbLine
 10
7417.192158500192
 20
7846.123139034578
 30
0.0
 11
7417.192158500192
 21
7769.123139034579
 31
0.0
  0
INSERT
  5
18C73
330
18C6C
100
AcDbEntity
  8
寸法
 62
     0
 48
50.0
370
    -2
100
AcDbBlockReference
  2
_DOT
 10
7417.192158500192
 20
7846.123139034578
 30
0.0
 41
20.0
 42
20.0
 43
20.0
 50
270.0
  0
INSERT
  5
18C74
330
18C6C
100
AcDbEntity
  8
寸法
 62
     0
 48
50.0
370
    -2
100
AcDbBlockReference
  2
_DOT
 10
7417.192158500192
 20
7769.123139034579
 30
0.0
 41
20.0
 42
20.0
 43
20.0
 50
90.0
  0
MTEXT
  5
18C75
330
18C6C
100
AcDbEntity
  8
寸法
 62
     7
 48
50.0
100
AcDbMText
 10
7325.192158500191
 20
7631.123139034575
 30
0.0
 40
120.0
 41
0.0
 71
     5
 72
     1
  1
\A1;77
  7
STYLE1
 11
0.0000000000000001
 21
1.0
 31
0.0
 73
     1
 44
1.0
1001
ACAD
1000
MTEXTBEGIN
1070
    73
1070
     1
1070
    44
1040
1.0
1070
    74
1070
     0
1000
MTEXTEND
  0
POINT
  5
18C76
330
18C6C
100
AcDbEntity
  8
DEFPOINTS
 62
     0
 48
50.0
100
AcDbPoint
 10
7180.896575106967
 20
7846.123139034578
 30
0.0
  0
POINT
  5
18C77
330
18C6C
100
AcDbEntity
  8
DEFPOINTS
 62
     0
 48
50.0
100
AcDbPoint
 10
7179.896575106965
 20
7769.123139034579
 30
0.0
  0
POINT
  5
18C78
330
18C6C
100
AcDbEntity
  8
DEFPOINTS
 62
     0
 48
50.0
100
AcDbPoint
 10
7417.192158500192
 20
7769.123139034579
 30
0.0
  0
ENDBLK
  5
18C79
330
18C6C
100
AcDbEntity
  8
0
 48
50.0
100
AcDbBlockEnd
  0
BLOCK
  5
18DA0
330
18C7A
100
AcDbEntity
  8
0
 48
50.0
100
AcDbBlockBegin
  2
A$C3B1A506B
 70
     0
 10
0.0
 20
0.0
 30
0.0
  3
A$C3B1A506B
  1

  0
MTEXT
  5
18C7B
330
18C7A
100
AcDbEntity
  8
寸法
 62
     7
 48
50.0
100
AcDbMText
 10
3342.250386887194
 20
2778.329429134012
 30
0.0
 40
96.0
 41
0.0
 71
     5
 72
     1
  1
棚 2段
  7
STYLE1
 73
     1
 44
1.0
1001
ACAD
1000
MTEXTBEGIN
1070
    73
1070
     1
1070
    44
1040
1.0
1070
    74
1070
     0
1000
MTEXTEND
  0
MTEXT
  5
18C7C
330
18C7A
100
AcDbEntity
  8
寸法
 62
     7
 48
50.0
100
AcDbMText
 10
2167.25038688716
 20
2778.329429133986
 30
0.0
 40
96.0
 41
0.0
 71
     5
 72
     1
  1
棚 2段
  7
STYLE1
 73
     1
 44
1.0
1001
ACAD
1000
MTEXTBEGIN
1070
    73
1070
     1
1070
    44
1040
1.0
1070
    74
1070
     0
1000
MTEXTEND
  0
MTEXT
  5
18C7D
330
18C7A
100
AcDbEntity
  8
寸法
 62
     7
 48
50.0
100
AcDbMText
 10
992.2503868871608
 20
2778.329429133935
 30
0.0
 40
96.0
 41
0.0
 71
     5
 72
     1
  1
棚 2段
  7
STYLE1
 73
     1
 44
1.0
1001
ACAD
1000
MTEXTBEGIN
1070
    73
1070
     1
1070
    44
1040
1.0
1070
    74
1070
     0
1000
MTEXTEND
  0
LINE
  5
18C7E
330
18C7A
100
AcDbEntity
  8
細線
 48
50.0
100
AcDbLine
 10
2771.970589276527
 20
1368.994384123192
 30
0.0
 11
3398.970589276523
 21
1368.994384123192
 31
0.0
  0
LINE
  5
18C7F
330
18C7A
100
AcDbEntity
  8
細線
 48
50.0
100
AcDbLine
 10
2117.970593930113
 20
1335.285615569113
 30
0.0
 11
3398.970589276523
 21
1335.285615569113
 31
0.0
  0
LINE
  5
18C80
330
18C7A
100
AcDbEntity
  8
細線
 48
50.0
100
AcDbLine
 10
2076.970593930115
 20
1364.690523565368
 30
0.0
 11
1322.970589276523
 21
1364.690523565367
 31
0.0
  0
LINE
  5
18C81
330
18C7A
100
AcDbEntity
  8
細線
100
AcDbLine
 10
3170.720579860066
 20
1388.494284088199
 30
0.0
 11
3173.052119381877
 21
1393.494286728162
 31
0.0
  0
LINE
  5
18C82
330
18C7A
100
AcDbEntity
  8
細線
100
AcDbLine
 10
3240.720589276525
 20
1388.494269174465
 30
0.0
 11
3238.389042800336
 21
1393.494286728144
 31
0.0
  0
LINE
  5
18C83
330
18C7A
100
AcDbEntity
  8
細線
100
AcDbLine
 10
3238.389042800336
 20
1393.494286728144
 30
0.0
 11
3173.052119381862
 21
1393.494286728133
 31
0.0
  0
LINE
  5
18C84
330
18C7A
100
AcDbEntity
  8
細線
100
AcDbLine
 10
3098.389042800336
 20
1393.494286728144
 30
0.0
 11
3033.052119381862
 21
1393.494286728133
 31
0.0
  0
LINE
  5
18C85
330
18C7A
100
AcDbEntity
  8
細線
100
AcDbLine
 10
3100.720589276523
 20
1388.494269174465
 30
0.0
 11
3098.389042800336
 21
1393.494286728144
 31
0.0
  0
LINE
  5
18C86
330
18C7A
100
AcDbEntity
  8
細線
100
AcDbLine
 10
3030.720579860066
 20
1388.494284088199
 30
0.0
 11
3033.052119381875
 21
1393.494286728162
 31
0.0
  0
LINE
  5
18C87
330
18C7A
100
AcDbEntity
  8
細線
100
AcDbLine
 10
2890.720589276525
 20
1388.494269174465
 30
0.0
 11
2893.052128798336
 21
1393.494271814428
 31
0.0
  0
LINE
  5
18C88
330
18C7A
100
AcDbEntity
  8
細線
100
AcDbLine
 10
2960.720598692984
 20
1388.494254260731
 30
0.0
 11
2958.389052216793
 21
1393.49427181441
 31
0.0
  0
LINE
  5
18C89
330
18C7A
100
AcDbEntity
  8
細線
100
AcDbLine
 10
2958.389052216795
 20
1393.49427181441
 30
0.0
 11
2893.052128798321
 21
1393.494271814399
 31
0.0
  0
LINE
  5
18C8A
330
18C7A
100
AcDbEntity
  8
細線
100
AcDbLine
 10
2667.139038146739
 20
1359.494298590735
 30
0.0
 11
2601.802114728263
 21
1359.494298590724
 31
0.0
  0
LINE
  5
18C8B
330
18C7A
100
AcDbEntity
  8
細線
100
AcDbLine
 10
2669.470584622926
 20
1354.494281037055
 30
0.0
 11
2667.139038146737
 21
1359.494298590735
 31
0.0
  0
LINE
  5
18C8C
330
18C7A
100
AcDbEntity
  8
細線
100
AcDbLine
 10
2599.470575206469
 20
1354.49429595079
 30
0.0
 11
2601.802114728278
 21
1359.494298590752
 31
0.0
  0
LINE
  5
18C8D
330
18C7A
100
AcDbEntity
  8
細線
 48
50.0
100
AcDbLine
 10
2440.853968524536
 20
1372.765132327548
 30
0.0
 11
2446.609486107205
 21
1354.494281037057
 31
0.0
  0
LINE
  5
18C8E
330
18C7A
100
AcDbEntity
  8
細線
 48
50.0
100
AcDbLine
 10
2429.925520044106
 20
1372.765132327546
 30
0.0
 11
2440.853968524536
 21
1372.765132327548
 31
0.0
  0
ARC
  5
18C8F
330
18C7A
100
AcDbEntity
  8
細線
 48
50.0
100
AcDbCircle
 10
2424.471163986787
 20
1374.265132327546
 30
0.0
 40
5.0
100
AcDbArc
 50
204.6243183520723
 51
335.3756816479278
  0
ARC
  5
18C90
330
18C7A
100
AcDbEntity
  8
細線
 48
50.0
100
AcDbCircle
 10
2429.925520044106
 20
1371.765132327546
 30
0.0
 40
1.0
100
AcDbArc
 50
90.0
 51
155.3756816479277
  0
ARC
  5
18C91
330
18C7A
100
AcDbEntity
  8
細線
 48
50.0
100
AcDbCircle
 10
2419.016807929469
 20
1371.765132327546
 30
0.0
 40
1.0
100
AcDbArc
 50
24.62431835207225
 51
90.0
  0
LINE
  5
18C92
330
18C7A
100
AcDbEntity
  8
細線
 48
50.0
100
AcDbLine
 10
2408.088359449037
 20
1372.765132327548
 30
0.0
 11
2419.016807929469
 21
1372.765132327546
 31
0.0
  0
LINE
  5
18C93
330
18C7A
100
AcDbEntity
  8
細線
 48
50.0
100
AcDbLine
 10
2402.33284186637
 20
1354.494281037054
 30
0.0
 11
2408.088359449037
 21
1372.765132327548
 31
0.0
  0
LINE
  5
18C94
330
18C7A
100
AcDbEntity
  8
細線
100
AcDbLine
 10
2458.070304175992
 20
1354.494278397076
 30
0.0
 11
2460.401843697802
 21
1359.494281037039
 31
0.0
  0
LINE
  5
18C95
330
18C7A
100
AcDbEntity
  8
細線
100
AcDbLine
 10
2528.070313592451
 20
1354.494263483342
 30
0.0
 11
2525.738767116262
 21
1359.494281037021
 31
0.0
  0
LINE
  5
18C96
330
18C7A
100
AcDbEntity
  8
細線
100
AcDbLine
 10
2525.738767116262
 20
1359.494281037021
 30
0.0
 11
2460.40184369779
 21
1359.49428103701
 31
0.0
  0
LINE
  5
18C97
330
18C7A
100
AcDbEntity
  8
細線
100
AcDbLine
 10
2387.139046332155
 20
1359.494281037021
 30
0.0
 11
2321.80212291368
 21
1359.49428103701
 31
0.0
  0
LINE
  5
18C98
330
18C7A
100
AcDbEntity
  8
細線
100
AcDbLine
 10
2389.470592808342
 20
1354.494263483342
 30
0.0
 11
2387.139046332153
 21
1359.494281037021
 31
0.0
  0
LINE
  5
18C99
330
18C7A
100
AcDbEntity
  8
細線
100
AcDbLine
 10
2319.470584622926
 20
1354.494281037054
 30
0.0
 11
2321.802122913694
 21
1359.494281037039
 31
0.0
  0
LINE
  5
18C9A
330
18C7A
100
AcDbEntity
  8
細線
100
AcDbLine
 10
2179.47061994182
 20
1354.494289224422
 30
0.0
 11
2181.802158232587
 21
1359.494289224407
 31
0.0
  0
LINE
  5
18C9B
330
18C7A
100
AcDbEntity
  8
細線
100
AcDbLine
 10
2249.470628127236
 20
1354.49427167071
 30
0.0
 11
2247.139081651047
 21
1359.494289224389
 31
0.0
  0
LINE
  5
18C9C
330
18C7A
100
AcDbEntity
  8
細線
100
AcDbLine
 10
2247.139081651047
 20
1359.494289224389
 30
0.0
 11
2181.802158232573
 21
1359.494289224378
 31
0.0
  0
LINE
  5
18C9D
330
18C7A
100
AcDbEntity
  8
細線
100
AcDbLine
 10
1807.970585744697
 20
1320.494460905133
 30
0.0
 11
1810.302124035464
 21
1325.494460905118
 31
0.0
  0
LINE
  5
18C9E
330
18C7A
100
AcDbEntity
  8
細線
100
AcDbLine
 10
1877.970593930113
 20
1320.494443351421
 30
0.0
 11
1875.639047453926
 21
1325.4944609051
 31
0.0
  0
LINE
  5
18C9F
330
18C7A
100
AcDbEntity
  8
細線
100
AcDbLine
 10
1875.639047453926
 20
1325.4944609051
 30
0.0
 11
1810.302124035452
 21
1325.494460905089
 31
0.0
  0
LINE
  5
18CA0
330
18C7A
100
AcDbEntity
  8
細線
100
AcDbLine
 10
2015.639047453926
 20
1325.4944609051
 30
0.0
 11
1950.302124035452
 21
1325.494460905089
 31
0.0
  0
LINE
  5
18CA1
330
18C7A
100
AcDbEntity
  8
細線
100
AcDbLine
 10
2017.970593930113
 20
1320.494443351421
 30
0.0
 11
2015.639047453924
 21
1325.4944609051
 31
0.0
  0
LINE
  5
18CA2
330
18C7A
100
AcDbEntity
  8
細線
100
AcDbLine
 10
1947.970585744697
 20
1320.494460905133
 30
0.0
 11
1950.302124035465
 21
1325.494460905118
 31
0.0
  0
LINE
  5
18CA3
330
18C7A
100
AcDbEntity
  8
細線
100
AcDbLine
 10
1735.639047453926
 20
1325.494460905098
 30
0.0
 11
1670.302124035454
 21
1325.494460905087
 31
0.0
  0
LINE
  5
18CA4
330
18C7A
100
AcDbEntity
  8
細線
100
AcDbLine
 10
1737.970593930113
 20
1320.494443351419
 30
0.0
 11
1735.639047453926
 21
1325.494460905098
 31
0.0
  0
LINE
  5
18CA5
330
18C7A
100
AcDbEntity
  8
細線
100
AcDbLine
 10
1667.970585744697
 20
1320.494460905131
 30
0.0
 11
1670.302124035465
 21
1325.494460905116
 31
0.0
  0
LINE
  5
18CA6
330
18C7A
100
AcDbEntity
  8
細線
100
AcDbLine
 10
1527.970593930113
 20
1320.494460905133
 30
0.0
 11
1530.302132220881
 21
1325.494460905118
 31
0.0
  0
LINE
  5
18CA7
330
18C7A
100
AcDbEntity
  8
細線
100
AcDbLine
 10
1597.970602115529
 20
1320.494443351421
 30
0.0
 11
1595.639055639342
 21
1325.4944609051
 31
0.0
  0
LINE
  5
18CA8
330
18C7A
100
AcDbEntity
  8
細線
100
AcDbLine
 10
1595.639055639342
 20
1325.4944609051
 30
0.0
 11
1530.302132220869
 21
1325.494460905089
 31
0.0
  0
ARC
  5
18CA9
330
18C7A
100
AcDbEntity
  8
部品1
 48
0.01
100
AcDbCircle
 10
1483.470482677778
 20
1319.493338720063
 30
0.0
 40
0.5
100
AcDbArc
 50
270.0
 51
0.0
  0
LINE
  5
18CAA
330
18C7A
100
AcDbEntity
  8
部品1
 48
0.01
100
AcDbLine
 10
1483.970482677778
 20
1320.493338720063
 30
0.0
 11
1483.970482677778
 21
1319.493338720063
 31
0.0
  0
LINE
  5
18CAB
330
18C7A
100
AcDbEntity
  8
部品1
 48
0.01
100
AcDbLine
 10
1483.970482677778
 20
1320.493338720063
 30
0.0
 11
1483.970482677778
 21
1319.493338720063
 31
0.0
  0
LINE
  5
18CAC
330
18C7A
100
AcDbEntity
  8
部品1
 48
0.01
100
AcDbLine
 10
1483.470482677778
 20
1318.993338720063
 30
0.0
 11
1476.857977247713
 21
1318.993338720062
 31
0.0
  0
ARC
  5
18CAD
330
18C7A
100
AcDbEntity
  8
部品1
100
AcDbCircle
 10
1476.926326800494
 20
1319.993338720062
 30
0.0
 40
1.0
100
AcDbArc
 50
160.5287793655865
 51
270.0
  0
ARC
  5
18CAE
330
18C7A
100
AcDbEntity
  8
部品1
100
AcDbCircle
 10
1451.470482677778
 20
1328.993338720062
 30
0.0
 40
26.0
100
AcDbArc
 50
340.5287793655865
 51
0.0
  0
LINE
  5
18CAF
330
18C7A
100
AcDbEntity
  8
部品1
100
AcDbLine
 10
1477.470482677778
 20
1328.993338720062
 30
0.0
 11
1477.470482677778
 21
1333.993338720061
 31
0.0
  0
ARC
  5
18CB0
330
18C7A
100
AcDbEntity
  8
部品1
 48
0.01
100
AcDbCircle
 10
1475.470482677778
 20
1333.993338720061
 30
0.0
 40
2.0
100
AcDbArc
 50
0.0
 51
90.0
  0
ARC
  5
18CB1
330
18C7A
100
AcDbEntity
  8
部品1
100
AcDbCircle
 10
1473.862091052968
 20
1332.993338720062
 30
0.0
 40
3.0
100
AcDbArc
 50
90.0
 51
141.6069559808035
  0
LINE
  5
18CB2
330
18C7A
100
AcDbEntity
  8
部品1
 48
0.01
100
AcDbLine
 10
1475.470482677778
 20
1335.993338720062
 30
0.0
 11
1473.862091052968
 21
1335.993338720062
 31
0.0
  0
ARC
  5
18CB3
330
18C7A
100
AcDbEntity
  8
部品1
100
AcDbCircle
 10
1455.399768463507
 20
1332.293338720065
 30
0.0
 40
3.0
100
AcDbArc
 50
254.0576313943215
 51
270.0
  0
ARC
  5
18CB4
330
18C7A
100
AcDbEntity
  8
部品1
100
AcDbCircle
 10
1462.541196892049
 20
1332.293338720065
 30
0.0
 40
3.0
100
AcDbArc
 50
270.0
 51
285.9423686056786
  0
LINE
  5
18CB5
330
18C7A
100
AcDbEntity
  8
部品1
100
AcDbLine
 10
1462.541196892049
 20
1329.293338720064
 30
0.0
 11
1455.399768463507
 21
1329.293338720064
 31
0.0
  0
ARC
  5
18CB6
330
18C7A
100
AcDbEntity
  8
部品1
100
AcDbCircle
 10
1458.970482677778
 20
1344.793338720065
 30
0.0
 40
16.0
100
AcDbArc
 50
285.9423686056786
 51
321.6069559808035
  0
LINE
  5
18CB7
330
18C7A
100
AcDbEntity
  8
部品1
 48
0.01
100
AcDbLine
 10
1442.470482677778
 20
1335.993338720062
 30
0.0
 11
1444.078874302588
 21
1335.993338720062
 31
0.0
  0
ARC
  5
18CB8
330
18C7A
100
AcDbEntity
  8
部品1
100
AcDbCircle
 10
1444.078874302588
 20
1332.993338720062
 30
0.0
 40
3.0
100
AcDbArc
 50
38.39304401919648
 51
90.0
  0
ARC
  5
18CB9
330
18C7A
100
AcDbEntity
  8
部品1
100
AcDbCircle
 10
1458.970482677778
 20
1344.793338720065
 30
0.0
 40
16.0
100
AcDbArc
 50
218.3930440191965
 51
254.0576313943215
  0
LINE
  5
18CBA
330
18C7A
100
AcDbEntity
  8
部品1
100
AcDbLine
 10
1440.470482677778
 20
1328.993338720062
 30
0.0
 11
1440.470482677778
 21
1333.993338720061
 31
0.0
  0
ARC
  5
18CBB
330
18C7A
100
AcDbEntity
  8
部品1
 48
0.01
100
AcDbCircle
 10
1442.470482677778
 20
1333.993338720061
 30
0.0
 40
2.0
100
AcDbArc
 50
90.0
 51
180.0
  0
ARC
  5
18CBC
330
18C7A
100
AcDbEntity
  8
部品1
100
AcDbCircle
 10
1466.470482677778
 20
1328.993338720062
 30
0.0
 40
26.0
100
AcDbArc
 50
180.0
 51
199.4712206344134
  0
ARC
  5
18CBD
330
18C7A
100
AcDbEntity
  8
部品1
 48
0.01
100
AcDbCircle
 10
1434.470482677778
 20
1319.493338720063
 30
0.0
 40
0.5
100
AcDbArc
 50
180.0
 51
270.0
  0
LINE
  5
18CBE
330
18C7A
100
AcDbEntity
  8
部品1
 48
0.01
100
AcDbLine
 10
1434.470482677778
 20
1318.993338720063
 30
0.0
 11
1441.014638555061
 21
1318.993338720062
 31
0.0
  0
LINE
  5
18CBF
330
18C7A
100
AcDbEntity
  8
部品1
 48
0.01
100
AcDbLine
 10
1433.970482677778
 20
1320.493338720063
 30
0.0
 11
1433.970482677778
 21
1319.493338720063
 31
0.0
  0
ARC
  5
18CC0
330
18C7A
100
AcDbEntity
  8
部品1
100
AcDbCircle
 10
1441.014638555061
 20
1319.993338720062
 30
0.0
 40
1.0
100
AcDbArc
 50
270.0
 51
19.47122063441346
  0
LINE
  5
18CC1
330
18C7A
100
AcDbEntity
  8
細線
100
AcDbLine
 10
1479.470482677785
 20
1338.493338720065
 30
0.0
 11
1438.470482677785
 21
1338.493338720058
 31
0.0
  0
LINE
  5
18CC2
330
18C7A
100
AcDbEntity
  8
細線
100
AcDbLine
 10
1438.470482677785
 20
1338.493338720058
 30
0.0
 11
1438.470482677785
 21
1320.49333872004
 31
0.0
  0
LINE
  5
18CC3
330
18C7A
100
AcDbEntity
  8
細線
100
AcDbLine
 10
1479.470482677785
 20
1338.493338720065
 30
0.0
 11
1479.470482677785
 21
1320.49333872004
 31
0.0
  0
LINE
  5
18CC4
330
18C7A
100
AcDbEntity
  8
細線
100
AcDbLine
 10
1322.970589276523
 20
1324.494269174465
 30
0.0
 11
1322.970589276523
 21
1320.494269174513
 31
0.0
  0
LINE
  5
18CC5
330
18C7A
100
AcDbEntity
  8
寸法
 48
50.0
100
AcDbLine
 10
1746.17359555837
 20
1170.531020743327
 30
0.0
 11
1694.767587648266
 21
1170.531020743327
 31
0.0
  0
LINE
  5
18CC6
330
18C7A
100
AcDbEntity
  8
寸法
 48
50.0
100
AcDbLine
 10
1694.767587648266
 20
1170.531020743327
 30
0.0
 11
1694.767587648266
 21
1201.841179395494
 31
0.0
  0
LINE
  5
18CC7
330
18C7A
100
AcDbEntity
  8
寸法
 48
50.0
100
AcDbLine
 10
1694.767587648266
 20
1201.841179395494
 30
0.0
 11
1665.006255656843
 21
1201.841179395494
 31
0.0
  0
LINE
  5
18CC8
330
18C7A
100
AcDbEntity
  8
寸法
 48
50.0
100
AcDbLine
 10
1665.006255656843
 20
1201.841179395494
 30
0.0
 11
1720.470591603318
 21
1239.420630324105
 31
0.0
  0
LINE
  5
18CC9
330
18C7A
100
AcDbEntity
  8
寸法
 48
50.0
100
AcDbLine
 10
1775.934927549793
 20
1201.841179395494
 30
0.0
 11
1720.470591603318
 21
1239.420630324105
 31
0.0
  0
LINE
  5
18CCA
330
18C7A
100
AcDbEntity
  8
寸法
 48
50.0
100
AcDbLine
 10
1746.17359555837
 20
1201.841179395494
 30
0.0
 11
1775.934927549793
 21
1201.841179395494
 31
0.0
  0
LINE
  5
18CCB
330
18C7A
100
AcDbEntity
  8
寸法
 48
50.0
100
AcDbLine
 10
1746.17359555837
 20
1170.531020743327
 30
0.0
 11
1746.17359555837
 21
1201.841179395494
 31
0.0
  0
LINE
  5
18CCC
330
18C7A
100
AcDbEntity
  8
寸法
 48
50.0
100
AcDbLine
 10
1694.767587648266
 20
1170.531020743327
 30
0.0
 11
1746.17359555837
 21
1170.531020743327
 31
0.0
  0
LINE
  5
18CCD
330
18C7A
100
AcDbEntity
  8
寸法
 48
50.0
100
AcDbLine
 10
2025.339129835225
 20
1227.676611498152
 30
0.0
 11
2025.339129835225
 21
1174.01297691636
 31
0.0
  0
LINE
  5
18CCE
330
18C7A
100
AcDbEntity
  8
寸法
 48
50.0
100
AcDbLine
 10
2114.623348430647
 20
1203.752977228664
 30
0.0
 11
2025.339129835225
 21
1227.676611498152
 31
0.0
  0
LINE
  5
18CCF
330
18C7A
100
AcDbEntity
  8
寸法
 48
50.0
100
AcDbLine
 10
1895.471408254923
 20
1203.752977228664
 30
0.0
 11
2114.623348430647
 21
1203.752977228664
 31
0.0
  0
DIMENSION
  5
18CD0
330
18C7A
100
AcDbEntity
  8
寸法
 48
50.0
100
AcDbDimension
  2
*D15
 10
2588.970589276523
 20
706.3240511224249
 30
0.0
 11
1969.060022905491
 21
706.3240511224249
 31
0.0
 12
-3742.925985830444
 22
-6453.628869860112
 32
0.0
 70
   128
  1
有効開口部間口\P<>
 71
     5
 42
1266.0
  3
INABA_S40G
100
AcDbAlignedDimension
 13
1322.970589276523
 23
1315.494269174465
 33
0.0
 14
2588.970589276523
 24
1315.494269174465
 34
0.0
100
AcDbRotatedDimension
1001
ACAD
1000
DSTYLE
1002
{
1070
   341
1005
0
1002
}
  0
LINE
  5
18CD1
330
18C7A
100
AcDbEntity
  8
部品1
100
AcDbLine
 10
3409.970589276524
 20
1392.494269174465
 30
0.0
 11
3437.970589276523
 21
1392.494269174465
 31
0.0
  0
DIMENSION
  5
18CD2
330
18C7A
100
AcDbEntity
  8
寸法
100
AcDbDimension
  2
*D16
 10
3674.266172669749
 20
1315.494269174465
 30
0.0
 11
3674.266172669748
 21
1177.494269174462
 31
0.0
 12
-3742.925985830444
 22
-6453.628869860112
 32
0.0
 70
   128
 71
     5
 42
77.0
  3
INABA_S40
100
AcDbAlignedDimension
 13
3437.970589276523
 23
1392.494269174465
 33
0.0
 14
3436.970589276523
 24
1315.494269174465
 34
0.0
 50
90.0
100
AcDbRotatedDimension
1001
ACAD
1000
DSTYLE
1002
{
1070
    41
1040
0.5
1070
    44
1040
1.0
1070
   147
1040
0.8
1070
   271
1070
     2
1070
   272
1070
     2
1070
   289
1070
     3
1070
   340
1005
F706
1070
   343
1005
164B4
1070
   344
1005
164B4
1002
}
  0
LINE
  5
18CD3
330
18C7A
100
AcDbEntity
  8
部品1
100
AcDbLine
 10
3437.970589276523
 20
1315.494269174465
 30
0.0
 11
3437.970589276523
 21
1392.494269174465
 31
0.0
  0
LINE
  5
18CD4
330
18C7A
100
AcDbEntity
  8
部品1
100
AcDbLine
 10
3398.970589276523
 20
1388.494269174465
 30
0.0
 11
3409.970589276524
 21
1388.494269174465
 31
0.0
  0
LINE
  5
18CD5
330
18C7A
100
AcDbEntity
  8
部品1
100
AcDbLine
 10
3407.970589276523
 20
1324.494269174465
 30
0.0
 11
3407.970589276523
 21
1315.494269174465
 31
0.0
  0
LINE
  5
18CD6
330
18C7A
100
AcDbEntity
  8
部品1
100
AcDbLine
 10
3398.970589276523
 20
1324.494269174465
 30
0.0
 11
3407.970589276523
 21
1324.494269174465
 31
0.0
  0
LINE
  5
18CD7
330
18C7A
100
AcDbEntity
  8
部品1
100
AcDbLine
 10
3398.970589276523
 20
1388.494269174465
 30
0.0
 11
3398.970589276523
 21
1324.494269174465
 31
0.0
  0
LINE
  5
18CD8
330
18C7A
100
AcDbEntity
  8
部品1
100
AcDbLine
 10
3409.970589276524
 20
1419.494269174465
 30
0.0
 11
3409.970589276524
 21
1388.494269174465
 31
0.0
  0
LINE
  5
18CD9
330
18C7A
100
AcDbEntity
  8
部品1
100
AcDbLine
 10
1322.970589276523
 20
1388.494269174465
 30
0.0
 11
1311.970589276523
 21
1388.494269174465
 31
0.0
  0
LINE
  5
18CDA
330
18C7A
100
AcDbEntity
  8
部品1
100
AcDbLine
 10
1283.970589276523
 20
1392.494269174465
 30
0.0
 11
1311.970589276523
 21
1392.494269174465
 31
0.0
  0
LINE
  5
18CDB
330
18C7A
100
AcDbEntity
  8
部品1
100
AcDbLine
 10
1313.970589276523
 20
1324.494269174465
 30
0.0
 11
1313.970589276523
 21
1315.494269174465
 31
0.0
  0
LINE
  5
18CDC
330
18C7A
100
AcDbEntity
  8
部品1
100
AcDbLine
 10
1322.970589276523
 20
1324.494269174465
 30
0.0
 11
1313.970589276523
 21
1324.494269174465
 31
0.0
  0
LINE
  5
18CDD
330
18C7A
100
AcDbEntity
  8
部品1
100
AcDbLine
 10
1313.970589276523
 20
1315.494269174465
 30
0.0
 11
1283.970589276523
 21
1315.494269174465
 31
0.0
  0
LINE
  5
18CDE
330
18C7A
100
AcDbEntity
  8
部品1
100
AcDbLine
 10
1283.970589276523
 20
1315.494269174465
 30
0.0
 11
1283.970589276523
 21
1392.494269174465
 31
0.0
  0
LINE
  5
18CDF
330
18C7A
100
AcDbEntity
  8
部品1
100
AcDbLine
 10
1322.970589276523
 20
1388.494269174465
 30
0.0
 11
1322.970589276523
 21
1324.494269174465
 31
0.0
  0
LINE
  5
18CE0
330
18C7A
100
AcDbEntity
  8
部品1
100
AcDbLine
 10
1311.970589276523
 20
1419.494269174462
 30
0.0
 11
1311.970589276523
 21
1388.494269174465
 31
0.0
  0
LINE
  5
18CE1
330
18C7A
100
AcDbEntity
  8
部品1
100
AcDbLine
 10
1311.970589276523
 20
1419.494269174462
 30
0.0
 11
3409.970589276524
 21
1419.494269174465
 31
0.0
  0
LINE
  5
18CE2
330
18C7A
100
AcDbEntity
  8
部品1
100
AcDbLine
 10
3407.970589276523
 20
1315.494269174465
 30
0.0
 11
3437.970589276523
 21
1315.494269174465
 31
0.0
  0
LINE
  5
18CE3
330
18C7A
100
AcDbEntity
  8
部品1
100
AcDbLine
 10
1313.970589276523
 20
1315.494269174465
 30
0.0
 11
3410.970589276523
 21
1315.494269174465
 31
0.0
  0
LINE
  5
18CE4
330
18C7A
100
AcDbEntity
  8
細線
  6
Continuous
 62
     5
100
AcDbLine
 10
2689.970589276527
 20
1354.494269174462
 30
0.0
 11
2689.970589276527
 21
1354.494269174462
 31
0.0
  0
LINE
  5
18CE5
330
18C7A
100
AcDbEntity
  8
細線
  6
Continuous
 62
     5
100
AcDbLine
 10
2682.470589276527
 20
1354.494269174462
 30
0.0
 11
2682.470589276527
 21
1354.494269174462
 31
0.0
  0
LINE
  5
18CE6
330
18C7A
100
AcDbEntity
  8
細線
  6
Continuous
 62
     5
100
AcDbLine
 10
2676.470589276527
 20
1354.494269174462
 30
0.0
 11
2676.470589276527
 21
1354.494269174462
 31
0.0
  0
LINE
  5
18CE7
330
18C7A
100
AcDbEntity
  8
細線
  6
Continuous
 62
     5
100
AcDbLine
 10
2743.970589276527
 20
1373.494269174462
 30
0.0
 11
2743.970589276527
 21
1373.494269174462
 31
0.0
  0
LINE
  5
18CE8
330
18C7A
100
AcDbEntity
  8
細線
 48
50.0
100
AcDbLine
 10
1336.970593930116
 20
1341.094443351418
 30
0.0
 11
1336.970593930113
 21
1349.490593759059
 31
0.0
  0
LINE
  5
18CE9
330
18C7A
100
AcDbEntity
  8
細線
 48
50.0
100
AcDbLine
 10
1336.970593930113
 20
1349.490593759059
 30
0.0
 11
1322.970589276523
 21
1349.490593759057
 31
0.0
  0
LINE
  5
18CEA
330
18C7A
100
AcDbEntity
  8
細線
 48
50.0
100
AcDbLine
 10
2087.970593930113
 20
1337.644443351419
 30
0.0
 11
2087.970593930113
 21
1342.494443351421
 31
0.0
  0
LINE
  5
18CEB
330
18C7A
100
AcDbEntity
  8
細線
 48
50.0
100
AcDbLine
 10
2087.970593930113
 20
1342.494443351421
 30
0.0
 11
2102.970593930113
 21
1342.494443351421
 31
0.0
  0
LINE
  5
18CEC
330
18C7A
100
AcDbEntity
  8
細線
 48
50.0
100
AcDbLine
 10
2102.970593930113
 20
1342.494443351421
 30
0.0
 11
2102.970593930115
 21
1349.494443351419
 31
0.0
  0
LINE
  5
18CED
330
18C7A
100
AcDbEntity
  8
細線
 48
50.0
100
AcDbLine
 10
2102.970593930115
 20
1349.494443351419
 30
0.0
 11
2117.970593930113
 21
1349.494443351419
 31
0.0
  0
LINE
  5
18CEE
330
18C7A
100
AcDbEntity
  8
細線
 48
50.0
100
AcDbLine
 10
2117.970593930113
 20
1349.494443351419
 30
0.0
 11
2117.970593930113
 21
1320.494443351421
 31
0.0
  0
LINE
  5
18CEF
330
18C7A
100
AcDbEntity
  8
細線
 48
50.0
100
AcDbLine
 10
1313.970589276523
 20
1320.491777694889
 30
0.0
 11
1527.970593930113
 21
1320.494460905133
 31
0.0
  0
LINE
  5
18CF0
330
18C7A
100
AcDbEntity
  8
細線
 48
50.0
100
AcDbLine
 10
2017.970593930113
 20
1320.494443351421
 30
0.0
 11
2117.970593930113
 21
1320.494443351421
 31
0.0
  0
LINE
  5
18CF1
330
18C7A
100
AcDbEntity
  8
細線
 48
50.0
100
AcDbLine
 10
1737.970593930113
 20
1320.494443351419
 30
0.0
 11
1807.970593930113
 21
1320.494443351423
 31
0.0
  0
LINE
  5
18CF2
330
18C7A
100
AcDbEntity
  8
細線
 48
50.0
100
AcDbLine
 10
1750.832558942642
 20
1320.494443351419
 30
0.0
 11
1756.588076525309
 21
1338.765294641913
 31
0.0
  0
LINE
  5
18CF3
330
18C7A
100
AcDbEntity
  8
細線
 48
50.0
100
AcDbLine
 10
1756.588076525309
 20
1338.765294641913
 30
0.0
 11
1767.516525005743
 21
1338.765294641911
 31
0.0
  0
ARC
  5
18CF4
330
18C7A
100
AcDbEntity
  8
細線
 48
50.0
100
AcDbCircle
 10
1767.516525005743
 20
1337.765294641911
 30
0.0
 40
1.0
100
AcDbArc
 50
24.62431835207225
 51
90.0
  0
ARC
  5
18CF5
330
18C7A
100
AcDbEntity
  8
細線
 48
50.0
100
AcDbCircle
 10
1778.425237120377
 20
1337.765294641911
 30
0.0
 40
1.0
100
AcDbArc
 50
90.0
 51
155.3756816479277
  0
ARC
  5
18CF6
330
18C7A
100
AcDbEntity
  8
細線
 48
50.0
100
AcDbCircle
 10
1772.970881063058
 20
1340.265294641911
 30
0.0
 40
5.0
100
AcDbArc
 50
204.6243183520723
 51
335.3756816479278
  0
LINE
  5
18CF7
330
18C7A
100
AcDbEntity
  8
細線
 48
50.0
100
AcDbLine
 10
1778.425237120377
 20
1338.765294641911
 30
0.0
 11
1789.35368560081
 21
1338.765294641913
 31
0.0
  0
LINE
  5
18CF8
330
18C7A
100
AcDbEntity
  8
細線
 48
50.0
100
AcDbLine
 10
1789.35368560081
 20
1338.765294641913
 30
0.0
 11
1795.109203183478
 21
1320.494443351423
 31
0.0
  0
LINE
  5
18CF9
330
18C7A
100
AcDbEntity
  8
細線
 48
50.0
100
AcDbLine
 10
2087.970593930113
 20
1341.094443351419
 30
0.0
 11
1336.970593930116
 21
1341.094443351418
 31
0.0
  0
LINE
  5
18CFA
330
18C7A
100
AcDbEntity
  8
細線
 48
50.0
100
AcDbLine
 10
1947.970593930113
 20
1320.494443351421
 30
0.0
 11
1877.970593930113
 21
1320.494443351421
 31
0.0
  0
LINE
  5
18CFB
330
18C7A
100
AcDbEntity
  8
細線
100
AcDbLine
 10
1667.970593930113
 20
1320.494443351421
 30
0.0
 11
1597.970602115529
 21
1320.494443351421
 31
0.0
  0
LINE
  5
18CFC
330
18C7A
100
AcDbEntity
  8
細線
 48
50.0
100
AcDbLine
 10
2741.970584622936
 20
1375.094487209288
 30
0.0
 11
2106.970593930113
 21
1375.094487209284
 31
0.0
  0
LINE
  5
18CFD
330
18C7A
100
AcDbEntity
  8
細線
 48
50.0
100
AcDbLine
 10
2106.970593930113
 20
1371.990637616925
 30
0.0
 11
2106.970593930113
 21
1376.490637616925
 31
0.0
  0
LINE
  5
18CFE
330
18C7A
100
AcDbEntity
  8
細線
 48
50.0
100
AcDbLine
 10
2106.970593930113
 20
1376.490637616925
 30
0.0
 11
2091.970593930113
 21
1376.490637616925
 31
0.0
  0
LINE
  5
18CFF
330
18C7A
100
AcDbEntity
  8
細線
 48
50.0
100
AcDbLine
 10
2091.970593930113
 20
1376.490637616925
 30
0.0
 11
2091.970593930113
 21
1383.490637616927
 31
0.0
  0
LINE
  5
18D00
330
18C7A
100
AcDbEntity
  8
細線
 48
50.0
100
AcDbLine
 10
2091.970593930113
 20
1383.490637616927
 30
0.0
 11
2076.970593930115
 21
1383.490637616924
 31
0.0
  0
LINE
  5
18D01
330
18C7A
100
AcDbEntity
  8
細線
 48
50.0
100
AcDbLine
 10
2076.970593930115
 20
1383.490637616924
 30
0.0
 11
2076.970593930115
 21
1345.890409513813
 31
0.0
  0
LINE
  5
18D02
330
18C7A
100
AcDbEntity
  8
細線
 48
50.0
100
AcDbLine
 10
2076.970593930115
 20
1345.890409513813
 30
0.0
 11
2096.970601231289
 21
1345.890451063353
 31
0.0
  0
LINE
  5
18D03
330
18C7A
100
AcDbEntity
  8
細線
 48
50.0
100
AcDbLine
 10
2096.970556362348
 20
1354.493912699161
 30
0.0
 11
2096.970601231289
 21
1345.890451063353
 31
0.0
  0
LINE
  5
18D04
330
18C7A
100
AcDbEntity
  8
細線
 48
50.0
100
AcDbLine
 10
2741.970584622936
 20
1371.644487209287
 30
0.0
 11
2741.970584622936
 21
1376.494487209284
 31
0.0
  0
LINE
  5
18D05
330
18C7A
100
AcDbEntity
  8
細線
 48
50.0
100
AcDbLine
 10
2741.970584622936
 20
1376.494487209284
 30
0.0
 11
2756.970584622934
 21
1376.494487209285
 31
0.0
  0
LINE
  5
18D06
330
18C7A
100
AcDbEntity
  8
細線
 48
50.0
100
AcDbLine
 10
2756.970584622934
 20
1376.494487209285
 30
0.0
 11
2756.970596256909
 21
1383.494487209331
 31
0.0
  0
LINE
  5
18D07
330
18C7A
100
AcDbEntity
  8
細線
 48
50.0
100
AcDbLine
 10
2756.970596256909
 20
1383.494487209331
 30
0.0
 11
2771.970594427439
 21
1383.494487209329
 31
0.0
  0
LINE
  5
18D08
330
18C7A
100
AcDbEntity
  8
細線
 48
50.0
100
AcDbLine
 10
2771.970594427439
 20
1383.494487209329
 30
0.0
 11
2771.970584125617
 21
1354.494281037055
 31
0.0
  0
LINE
  5
18D09
330
18C7A
100
AcDbEntity
  8
細線
 48
50.0
100
AcDbLine
 10
2458.070304175992
 20
1354.494278397076
 30
0.0
 11
2389.470863838818
 21
1354.494283787084
 31
0.0
  0
LINE
  5
18D0A
330
18C7A
100
AcDbEntity
  8
細線
 48
50.0
100
AcDbLine
 10
2096.970556362348
 20
1354.493912699161
 30
0.0
 11
2108.203245717057
 21
1354.494095652309
 31
0.0
  0
ARC
  5
18D0B
330
18C7A
100
AcDbEntity
  8
細線
 48
50.0
100
AcDbCircle
 10
2114.785538024393
 20
1353.294259565922
 30
0.0
 40
1.8
100
AcDbArc
 50
270.0006665777295
 51
345.000555481349
  0
LINE
  5
18D0C
330
18C7A
100
AcDbEntity
  8
細線
 48
50.0
100
AcDbLine
 10
2116.771971470473
 20
1353.753100023201
 30
0.0
 11
2116.524209028273
 21
1352.828402141094
 31
0.0
  0
LINE
  5
18D0D
330
18C7A
100
AcDbEntity
  8
細線
 48
50.0
100
AcDbLine
 10
2114.785558965548
 20
1351.494259566043
 30
0.0
 11
2111.155631546781
 21
1351.494217335563
 31
0.0
  0
ARC
  5
18D0E
330
18C7A
100
AcDbEntity
  8
細線
 48
50.0
100
AcDbCircle
 10
2111.155610605627
 20
1353.29421733544
 30
0.0
 40
1.8
100
AcDbArc
 50
195.0010443049965
 51
270.0006665777295
  0
LINE
  5
18D0F
330
18C7A
100
AcDbEntity
  8
細線
 48
50.0
100
AcDbLine
 10
2109.169183113368
 20
1353.752932303007
 30
0.0
 11
2109.416952609882
 21
1352.828311364425
 31
0.0
  0
ARC
  5
18D10
330
18C7A
100
AcDbEntity
  8
細線
 48
50.0
100
AcDbCircle
 10
2108.203262004622
 20
1353.494095652444
 30
0.0
 40
1.0
100
AcDbArc
 50
15.00104430499651
 51
90.00093320877969
  0
LINE
  5
18D11
330
18C7A
100
AcDbEntity
  8
細線
 48
50.0
100
AcDbLine
 10
2117.737892825577
 20
1354.494290342714
 30
0.0
 11
2118.679652976481
 21
1354.494296916564
 31
0.0
  0
ARC
  5
18D12
330
18C7A
100
AcDbEntity
  8
細線
 48
50.0
100
AcDbCircle
 10
2117.737899805961
 20
1353.49429034274
 30
0.0
 40
1.0
100
AcDbArc
 50
90.0003999466794
 51
165.000555481349
  0
LINE
  5
18D13
330
18C7A
100
AcDbEntity
  8
細線
 48
50.0
100
AcDbLine
 10
2669.470584622926
 20
1354.494281037055
 30
0.0
 11
2771.970584125617
 21
1354.494281037055
 31
0.0
  0
LINE
  5
18D14
330
18C7A
100
AcDbEntity
  8
細線
 48
50.0
100
AcDbLine
 10
2179.47061994182
 20
1354.494289224422
 30
0.0
 11
2118.370558714898
 21
1354.494296916564
 31
0.0
  0
LINE
  5
18D15
330
18C7A
100
AcDbEntity
  8
細線
 48
50.0
100
AcDbLine
 10
2599.470584622926
 20
1354.494281037057
 30
0.0
 11
2529.470584622926
 21
1354.494281037055
 31
0.0
  0
LINE
  5
18D16
330
18C7A
100
AcDbEntity
  8
細線
 48
50.0
100
AcDbLine
 10
2319.470584622926
 20
1354.494281037054
 30
0.0
 11
2249.470567335051
 21
1354.494281037057
 31
0.0
  0
ARC
  5
18D17
330
18C7A
100
AcDbEntity
  8
細線
 48
50.0
100
AcDbCircle
 10
2756.170589276533
 20
1387.694269174466
 30
0.0
 40
0.8
100
AcDbArc
 50
359.9997333689499
 51
89.99986668437072
  0
ARC
  5
18D18
330
18C7A
100
AcDbEntity
  8
細線
 48
50.0
100
AcDbCircle
 10
2763.770596101631
 20
1387.694280343081
 30
0.0
 40
0.8
100
AcDbArc
 50
90.00014387753465
 51
179.9997333689498
  0
LINE
  5
18D19
330
18C7A
100
AcDbEntity
  8
細線
 48
50.0
100
AcDbLine
 10
2756.170591137969
 20
1388.494269174465
 30
0.0
 11
2750.970589276525
 21
1388.494269174465
 31
0.0
  0
ARC
  5
18D1A
330
18C7A
100
AcDbEntity
  8
細線
 48
50.0
100
AcDbCircle
 10
2757.670589276524
 20
1386.194269174464
 30
0.0
 40
0.7
100
AcDbArc
 50
180.0
 51
270.0
  0
ARC
  5
18D1B
330
18C7A
100
AcDbEntity
  8
細線
 48
50.0
100
AcDbCircle
 10
2762.270589276524
 20
1386.194269174464
 30
0.0
 40
0.7
100
AcDbArc
 50
270.0
 51
0.0
  0
LINE
  5
18D1C
330
18C7A
100
AcDbEntity
  8
細線
 48
50.0
100
AcDbLine
 10
2762.970589276525
 20
1386.194269174464
 30
0.0
 11
2762.970596101639
 21
1387.694284065954
 31
0.0
  0
LINE
  5
18D1D
330
18C7A
100
AcDbEntity
  8
細線
 48
50.0
100
AcDbLine
 10
2757.670589276524
 20
1385.494269174465
 30
0.0
 11
2762.270589276524
 21
1385.494269174465
 31
0.0
  0
LINE
  5
18D1E
330
18C7A
100
AcDbEntity
  8
細線
 48
50.0
100
AcDbLine
 10
2756.970589276525
 20
1387.694269174466
 30
0.0
 11
2756.970589276525
 21
1386.194269174464
 31
0.0
  0
LINE
  5
18D1F
330
18C7A
100
AcDbEntity
  8
細線
 48
50.0
100
AcDbLine
 10
3382.570589276527
 20
1418.494269174465
 30
0.0
 11
2745.970589276525
 21
1418.494269174463
 31
0.0
  0
LINE
  5
18D20
330
18C7A
100
AcDbEntity
  8
細線
 48
50.0
100
AcDbLine
 10
3408.470589276525
 20
1413.494269174467
 30
0.0
 11
3392.570589276527
 21
1413.494269174465
 31
0.0
  0
LINE
  5
18D21
330
18C7A
100
AcDbEntity
  8
細線
 48
50.0
100
AcDbLine
 10
3392.570589276526
 20
1413.494269174465
 30
0.0
 11
3382.570589276527
 21
1418.494269174465
 31
0.0
  0
LINE
  5
18D22
330
18C7A
100
AcDbEntity
  8
細線
100
AcDbLine
 10
2993.470589276525
 20
1388.494269174465
 30
0.0
 11
2993.470589276525
 21
1417.794269174464
 31
0.0
  0
LINE
  5
18D23
330
18C7A
100
AcDbEntity
  8
細線
100
AcDbLine
 10
2993.470589276525
 20
1417.794269174464
 30
0.0
 11
3013.470589276525
 21
1417.794269174464
 31
0.0
  0
LINE
  5
18D24
330
18C7A
100
AcDbEntity
  8
細線
100
AcDbLine
 10
3013.470589276525
 20
1388.494269174465
 30
0.0
 11
3013.470589276525
 21
1417.794269174464
 31
0.0
  0
LINE
  5
18D25
330
18C7A
100
AcDbEntity
  8
細線
100
AcDbLine
 10
3170.720589276524
 20
1388.494269174465
 30
0.0
 11
3100.720589276523
 21
1388.494269174465
 31
0.0
  0
LINE
  5
18D26
330
18C7A
100
AcDbEntity
  8
細線
 48
50.0
100
AcDbLine
 10
2890.720589276525
 20
1388.494269174465
 30
0.0
 11
2763.766368849365
 21
1388.494269174465
 31
0.0
  0
LINE
  5
18D27
330
18C7A
100
AcDbEntity
  8
細線
100
AcDbLine
 10
3030.720589276525
 20
1388.494269174465
 30
0.0
 11
2960.720589276525
 21
1388.494269174465
 31
0.0
  0
LINE
  5
18D28
330
18C7A
100
AcDbEntity
  8
細線
 48
50.0
100
AcDbLine
 10
2750.970589276525
 20
1380.494269174465
 30
0.0
 11
2750.970589276525
 21
1388.494269174465
 31
0.0
  0
LINE
  5
18D29
330
18C7A
100
AcDbEntity
  8
細線
 48
50.0
100
AcDbLine
 10
2730.970589276524
 20
1380.494269174467
 30
0.0
 11
2750.970589276525
 21
1380.494269174465
 31
0.0
  0
LINE
  5
18D2A
330
18C7A
100
AcDbEntity
  8
細線
 48
50.0
100
AcDbLine
 10
2745.970589276525
 20
1418.494269174465
 30
0.0
 11
2745.970589276525
 21
1413.494269174465
 31
0.0
  0
LINE
  5
18D2B
330
18C7A
100
AcDbEntity
  8
細線
 48
50.0
100
AcDbLine
 10
2730.970589276525
 20
1418.494269174463
 30
0.0
 11
2745.970589276525
 21
1418.494269174465
 31
0.0
  0
LINE
  5
18D2C
330
18C7A
100
AcDbEntity
  8
細線
 48
50.0
100
AcDbLine
 10
2730.970589276524
 20
1380.494269174467
 30
0.0
 11
2730.970589276525
 21
1418.494269174463
 31
0.0
  0
LINE
  5
18D2D
330
18C7A
100
AcDbEntity
  8
細線
100
AcDbLine
 10
3398.970589276523
 20
1388.494269174465
 30
0.0
 11
3240.720589276525
 21
1388.494269174465
 31
0.0
  0
LINE
  5
18D2E
330
18C7A
100
AcDbEntity
  8
細線
 48
50.0
100
AcDbLine
 10
3408.470589276525
 20
1413.494269174467
 30
0.0
 11
3408.470589276524
 21
1388.494269174465
 31
0.0
  0
TEXT
  5
18D2F
330
18C7A
100
AcDbEntity
  8
部品1
100
AcDbText
 10
1860.154865991392
 20
46.99880823813145
 30
0.0
 40
135.0
  1
平面図
  7
STYLE2
100
AcDbText
  0
LWPOLYLINE
  5
18D30
330
18C7A
100
AcDbEntity
  8
部品1
100
AcDbPolyline
 90
        4
 70
     1
 43
0.0
 10
1770.23525616235
 20
239.8923374566548
 10
1770.23525616235
 20
0.0000159111223184
 10
2533.705922390791
 20
0.0000159111223184
 10
2533.705922390791
 20
239.8923374566548
  0
LINE
  5
18D31
330
18C7A
100
AcDbEntity
  8
部品1
100
AcDbLine
 10
1534.470589276487
 20
3154.494269174626
 30
0.0
 11
2769.470589276552
 21
3154.494269174626
 31
0.0
  0
LINE
  5
18D32
330
18C7A
100
AcDbEntity
  8
部品1
 48
50.0
100
AcDbLine
 10
1311.970589276523
 20
1420.494269174462
 30
0.0
 11
3411.970589276523
 21
1420.494269174465
 31
0.0
  0
LINE
  5
18D33
330
18C7A
100
AcDbEntity
  8
部品1
 48
50.0
100
AcDbLine
 10
471.9705892765232
 20
1392.494269174465
 30
0.0
 11
1311.970589276523
 21
1392.494269174465
 31
0.0
  0
DIMENSION
  5
18D34
330
18C7A
100
AcDbEntity
  8
寸法
100
AcDbDimension
  2
*D14
 10
2710.234916278077
 20
2488.887829538828
 30
0.0
 11
2338.318822490183
 21
2488.887829538828
 31
0.0
 12
-3742.925985830444
 22
-6453.628869860112
 32
0.0
 70
   128
 71
     5
 42
1231.00000000007
  3
INABA_S40G
100
AcDbAlignedDimension
 13
1536.470589276486
 23
2702.494269174557
 33
0.0
 14
2767.470589276556
 24
2702.494269174549
 34
0.0
100
AcDbRotatedDimension
1001
ACAD
1000
DSTYLE
1002
{
1002
}
  0
LINE
  5
18D35
330
18C7A
100
AcDbEntity
  8
部品1
100
AcDbLine
 10
1536.470589276487
 20
2702.494269174557
 30
0.0
 11
2767.470589276554
 21
2702.494269174615
 31
0.0
  0
LINE
  5
18D36
330
18C7A
100
AcDbEntity
  8
部品1
100
AcDbLine
 10
1536.470589276487
 20
3152.494269174557
 30
0.0
 11
2767.470589276556
 21
3152.494269174615
 31
0.0
  0
LINE
  5
18D37
330
18C7A
100
AcDbEntity
  8
細線
 48
50.0
100
AcDbLine
 10
1508.470589276487
 20
3152.494269174558
 30
0.0
 11
445.4705892765559
 21
2702.494269174509
 31
0.0
  0
LINE
  5
18D38
330
18C7A
100
AcDbEntity
  8
細線
 48
50.0
100
AcDbLine
 10
1508.470589276487
 20
2702.494269174558
 30
0.0
 11
445.4705892765542
 21
3152.494269174509
 31
0.0
  0
LINE
  5
18D39
330
18C7A
100
AcDbEntity
  8
部品1
100
AcDbLine
 10
1556.970589276487
 20
3172.494269174611
 30
0.0
 11
1556.970589276487
 21
3154.494269174611
 31
0.0
  0
LINE
  5
18D3A
330
18C7A
100
AcDbEntity
  8
部品1
100
AcDbLine
 10
1556.970589276487
 20
3172.494269174611
 30
0.0
 11
1550.970589276487
 21
3172.494269174611
 31
0.0
  0
LINE
  5
18D3B
330
18C7A
100
AcDbEntity
  8
部品1
100
AcDbLine
 10
1534.470589276487
 20
3146.494269174608
 30
0.0
 11
1509.470589276487
 21
3146.494269174611
 31
0.0
  0
LINE
  5
18D3C
330
18C7A
100
AcDbEntity
  8
部品1
100
AcDbLine
 10
1486.970589276487
 20
3172.494269174611
 30
0.0
 11
1486.970589276487
 21
3154.494269174611
 31
0.0
  0
LINE
  5
18D3D
330
18C7A
100
AcDbEntity
  8
部品1
100
AcDbLine
 10
1492.970589276487
 20
3172.494269174611
 30
0.0
 11
1486.970589276487
 21
3172.494269174611
 31
0.0
  0
LINE
  5
18D3E
330
18C7A
100
AcDbEntity
  8
部品1
100
AcDbLine
 10
1534.470589276487
 20
2702.494269174615
 30
0.0
 11
1509.470589276487
 21
2702.494269174615
 31
0.0
  0
LINE
  5
18D3F
330
18C7A
100
AcDbEntity
  8
部品1
 48
50.0
100
AcDbLine
 10
1536.470589276487
 20
3152.494269174611
 30
0.0
 11
1536.470589276487
 21
2702.494269174615
 31
0.0
  0
LINE
  5
18D40
330
18C7A
100
AcDbEntity
  8
部品1
 48
50.0
100
AcDbLine
 10
1508.470589276487
 20
3152.494269174607
 30
0.0
 11
1508.470589276487
 21
2702.494269174615
 31
0.0
  0
LINE
  5
18D41
330
18C7A
100
AcDbEntity
  8
部品1
 48
50.0
100
AcDbLine
 10
1534.470589276487
 20
3154.494269174618
 30
0.0
 11
1534.470589276487
 21
2702.494269174615
 31
0.0
  0
LINE
  5
18D42
330
18C7A
100
AcDbEntity
  8
部品1
 48
50.0
100
AcDbLine
 10
1509.470589276487
 20
3154.494269174615
 30
0.0
 11
1509.470589276487
 21
2702.494269174615
 31
0.0
  0
LINE
  5
18D43
330
18C7A
100
AcDbEntity
  8
部品1
100
AcDbLine
 10
3411.970589276556
 20
1392.494269174582
 30
0.0
 11
3411.970589276556
 21
1420.494269174596
 31
0.0
  0
LINE
  5
18D44
330
18C7A
100
AcDbEntity
  8
部品1
100
AcDbLine
 10
1311.970589276523
 20
1392.494269174596
 30
0.0
 11
1311.970589276523
 21
1420.494269174596
 31
0.0
  0
LINE
  5
18D45
330
18C7A
100
AcDbEntity
  8
部品1
100
AcDbLine
 10
891.9705892765232
 20
1392.494269174596
 30
0.0
 11
891.9705892765232
 21
1420.494269174596
 31
0.0
  0
LINE
  5
18D46
330
18C7A
100
AcDbEntity
  8
部品1
100
AcDbLine
 10
3411.97058927652
 20
3182.494269174477
 30
0.0
 11
3411.970589276523
 21
3154.494269174477
 31
0.0
  0
LINE
  5
18D47
330
18C7A
100
AcDbEntity
  8
部品1
100
AcDbLine
 10
2571.97058927652
 20
3182.494269174477
 30
0.0
 11
2571.970589276523
 21
3154.494269174477
 31
0.0
  0
LINE
  5
18D48
330
18C7A
100
AcDbEntity
  8
部品1
100
AcDbLine
 10
2991.97058927652
 20
3182.494269174477
 30
0.0
 11
2991.970589276523
 21
3154.494269174477
 31
0.0
  0
LINE
  5
18D49
330
18C7A
100
AcDbEntity
  8
部品1
100
AcDbLine
 10
2151.970589276519
 20
3182.494269174477
 30
0.0
 11
2151.970589276523
 21
3154.494269174477
 31
0.0
  0
LINE
  5
18D4A
330
18C7A
100
AcDbEntity
  8
部品1
100
AcDbLine
 10
1731.970589276519
 20
3182.494269174477
 30
0.0
 11
1731.970589276523
 21
3154.494269174477
 31
0.0
  0
LINE
  5
18D4B
330
18C7A
100
AcDbEntity
  8
部品1
100
AcDbLine
 10
1311.970589276519
 20
3182.494269174477
 30
0.0
 11
1311.970589276523
 21
3154.494269174477
 31
0.0
  0
LINE
  5
18D4C
330
18C7A
100
AcDbEntity
  8
部品1
100
AcDbLine
 10
891.9705892765195
 20
3182.494269174477
 30
0.0
 11
891.9705892765232
 21
3154.494269174477
 31
0.0
  0
LINE
  5
18D4D
330
18C7A
100
AcDbEntity
  8
部品1
100
AcDbLine
 10
471.9705892765232
 20
1392.494269174596
 30
0.0
 11
471.9705892765232
 21
1420.494269174596
 31
0.0
  0
LINE
  5
18D4E
330
18C7A
100
AcDbEntity
  8
部品1
100
AcDbLine
 10
444.9705892765305
 20
1420.494269174558
 30
0.0
 11
3858.970589276556
 21
1420.494269174596
 31
0.0
  0
LINE
  5
18D4F
330
18C7A
100
AcDbEntity
  8
部品1
100
AcDbLine
 10
3831.970589276556
 20
1392.494269174596
 30
0.0
 11
3831.970589276556
 21
1420.494269174596
 31
0.0
  0
LINE
  5
18D50
330
18C7A
100
AcDbEntity
  8
部品1
100
AcDbLine
 10
3858.970589276556
 20
1447.494269174593
 30
0.0
 11
3886.970589276556
 21
1447.494269174593
 31
0.0
  0
LINE
  5
18D51
330
18C7A
100
AcDbEntity
  8
部品1
100
AcDbLine
 10
3858.970589276556
 20
1867.494269174607
 30
0.0
 11
3886.970589276556
 21
1867.494269174607
 31
0.0
  0
LINE
  5
18D52
330
18C7A
100
AcDbEntity
  8
部品1
100
AcDbLine
 10
444.9705892765305
 20
1867.49426917448
 30
0.0
 11
416.9705892765305
 21
1867.49426917448
 31
0.0
  0
LINE
  5
18D53
330
18C7A
100
AcDbEntity
  8
部品1
100
AcDbLine
 10
3830.470589276541
 20
1867.49426917458
 30
0.0
 11
473.4705892765396
 21
1867.49426917448
 31
0.0
  0
LINE
  5
18D54
330
18C7A
100
AcDbEntity
  8
部品1
100
AcDbLine
 10
3830.470589276541
 20
2287.49426917458
 30
0.0
 11
473.4705892765396
 21
2287.49426917448
 31
0.0
  0
LINE
  5
18D55
330
18C7A
100
AcDbEntity
  8
部品1
100
AcDbLine
 10
444.9705892765305
 20
2287.49426917448
 30
0.0
 11
416.9705892765305
 21
2287.49426917448
 31
0.0
  0
LINE
  5
18D56
330
18C7A
100
AcDbEntity
  8
部品1
100
AcDbLine
 10
3858.970589276556
 20
2287.494269174608
 30
0.0
 11
3886.970589276556
 21
2287.494269174608
 31
0.0
  0
LINE
  5
18D57
330
18C7A
100
AcDbEntity
  8
部品1
 48
50.0
100
AcDbLine
 10
2151.970589276551
 20
2702.494269174586
 30
0.0
 11
2151.970589276581
 21
1448.994269174494
 31
0.0
  0
LINE
  5
18D58
330
18C7A
100
AcDbEntity
  8
破線
 48
10.0
100
AcDbLine
 10
2959.470589276535
 20
1472.494269174522
 30
0.0
 11
2176.970589276532
 21
1472.494269174505
 31
0.0
  0
LINE
  5
18D59
330
18C7A
100
AcDbEntity
  8
破線
 48
10.0
100
AcDbLine
 10
3009.47058927653
 20
1448.994269174509
 30
0.0
 11
3009.47058927653
 21
2702.494269174615
 31
0.0
  0
LINE
  5
18D5A
330
18C7A
100
AcDbEntity
  8
破線
 48
10.0
100
AcDbLine
 10
2959.470589276535
 20
1448.994269174505
 30
0.0
 11
2959.470589276531
 21
2702.494269174615
 31
0.0
  0
LINE
  5
18D5B
330
18C7A
100
AcDbEntity
  8
破線
 48
10.0
100
AcDbLine
 10
1344.47058927653
 20
1448.994269174509
 30
0.0
 11
1344.47058927653
 21
2702.494269174615
 31
0.0
  0
LINE
  5
18D5C
330
18C7A
100
AcDbEntity
  8
破線
 48
10.0
100
AcDbLine
 10
1294.470589276534
 20
1448.994269174505
 30
0.0
 11
1294.47058927653
 21
2702.494269174615
 31
0.0
  0
DIMENSION
  5
18D5D
330
18C7A
100
AcDbEntity
  8
寸法
100
AcDbDimension
  2
*D13
 10
1451.234916278005
 20
2488.887829538828
 30
0.0
 11
916.0604668248634
 21
2488.887829538828
 31
0.0
 12
-3742.925985830444
 22
-6453.628869860112
 32
0.0
 70
   128
 71
     5
 42
1062.99999999993
  3
INABA_S40G
100
AcDbAlignedDimension
 13
445.4705892765559
 23
2702.494269174505
 33
0.0
 14
1508.470589276486
 24
2702.494269174558
 34
0.0
100
AcDbRotatedDimension
1001
ACAD
1000
DSTYLE
1002
{
1002
}
  0
LINE
  5
18D5E
330
18C7A
100
AcDbEntity
  8
破線
 48
10.0
100
AcDbLine
 10
1294.470589276534
 20
1472.494269174469
 30
0.0
 11
496.9705892765414
 21
1472.494269174476
 31
0.0
  0
LINE
  5
18D5F
330
18C7A
100
AcDbEntity
  8
部品1
100
AcDbLine
 10
3831.970589276556
 20
3182.494269174604
 30
0.0
 11
3831.970589276556
 21
3154.494269174604
 31
0.0
  0
LINE
  5
18D60
330
18C7A
100
AcDbEntity
  8
部品1
100
AcDbLine
 10
3831.970589276556
 20
3182.494269174626
 30
0.0
 11
3831.970589276556
 21
3154.494269174626
 31
0.0
  0
LINE
  5
18D61
330
18C7A
100
AcDbEntity
  8
部品1
100
AcDbLine
 10
3858.970589276556
 20
3127.494269174607
 30
0.0
 11
3886.970589276556
 21
3127.494269174607
 31
0.0
  0
LINE
  5
18D62
330
18C7A
100
AcDbEntity
  8
部品1
100
AcDbLine
 10
3858.970589276556
 20
2707.494269174608
 30
0.0
 11
3886.970589276556
 21
2707.494269174608
 31
0.0
  0
LINE
  5
18D63
330
18C7A
100
AcDbEntity
  8
部品1
100
AcDbLine
 10
3858.470589276556
 20
3152.494269174604
 30
0.0
 11
3858.470589276556
 21
2702.494269174608
 31
0.0
  0
LINE
  5
18D64
330
18C7A
100
AcDbEntity
  8
部品1
100
AcDbLine
 10
3886.970589276533
 20
1447.494269174593
 30
0.0
 11
3886.970589276531
 21
1392.494269174596
 31
0.0
  0
LINE
  5
18D65
330
18C7A
100
AcDbEntity
  8
部品1
 48
50.0
100
AcDbLine
 10
3830.470589276556
 20
1448.994269174596
 30
0.0
 11
3858.970589276554
 21
1420.494269174596
 31
0.0
  0
LINE
  5
18D66
330
18C7A
100
AcDbEntity
  8
部品1
100
AcDbLine
 10
3886.970589276531
 20
1392.494269174596
 30
0.0
 11
3835.970589276531
 21
1392.494269174596
 31
0.0
  0
LINE
  5
18D67
330
18C7A
100
AcDbEntity
  8
部品1
100
AcDbLine
 10
3858.970589276533
 20
1447.494269174593
 30
0.0
 11
3886.970589276531
 21
1447.494269174593
 31
0.0
  0
LINE
  5
18D68
330
18C7A
100
AcDbEntity
  8
部品1
100
AcDbLine
 10
3886.970589276556
 20
3182.494269174604
 30
0.0
 11
3886.970589276531
 21
1392.494269174596
 31
0.0
  0
DIMENSION
  5
18D69
330
18C7A
100
AcDbEntity
  8
寸法
100
AcDbDimension
  2
*D12
 10
4534.396935010967
 20
1447.494269174593
 30
0.0
 11
4534.396935010965
 21
2287.4942691746
 31
0.0
 12
-3742.925985830444
 22
-6453.628869860112
 32
0.0
 70
   128
  1
4X420=<>
 71
     5
 42
1680.000000000014
  3
INABA_S40G
100
AcDbAlignedDimension
 13
3886.970589276556
 23
3127.494269174607
 33
0.0
 14
3886.970589276531
 24
1447.494269174593
 34
0.0
 50
90.0
100
AcDbRotatedDimension
1001
ACAD
1000
DSTYLE
1002
{
1002
}
  0
LINE
  5
18D6A
330
18C7A
100
AcDbEntity
  8
部品1
100
AcDbLine
 10
3858.970589276556
 20
3154.494269174604
 30
0.0
 11
3858.970589276534
 21
1420.494269174596
 31
0.0
  0
DIMENSION
  5
18D6B
330
18C7A
100
AcDbEntity
  8
寸法
100
AcDbDimension
  2
*D11
 10
4213.82831513858
 20
2607.276453505718
 30
0.0
 11
4113.828315138579
 21
2832.276453505718
 31
0.0
 12
-3742.925985830444
 22
-6453.628869860112
 32
0.0
 71
     5
 42
449.9999999999963
  3
INABA_S40G
100
AcDbAlignedDimension
 13
3858.470589276556
 23
3152.494269174604
 33
0.0
 14
3858.470589276556
 24
2702.494269174608
 34
0.0
 50
90.0
100
AcDbRotatedDimension
1001
ACAD
1000
DSTYLE
1002
{
1002
}
  0
LINE
  5
18D6C
330
18C7A
100
AcDbEntity
  8
部品1
100
AcDbLine
 10
3830.470589276547
 20
2702.494269174608
 30
0.0
 11
3830.470589276556
 21
1448.994269174596
 31
0.0
  0
LINE
  5
18D6D
330
18C7A
100
AcDbEntity
  8
破線
 48
10.0
100
AcDbLine
 10
3806.970589276549
 20
2702.494269174608
 30
0.0
 11
3806.970589276558
 21
1472.494269174593
 31
0.0
  0
LINE
  5
18D6E
330
18C7A
100
AcDbEntity
  8
部品1
100
AcDbLine
 10
2769.470589276556
 20
3146.494269174608
 30
0.0
 11
2794.470589276556
 21
3146.494269174611
 31
0.0
  0
LINE
  5
18D6F
330
18C7A
100
AcDbEntity
  8
部品1
100
AcDbLine
 10
2810.970589276556
 20
3172.494269174611
 30
0.0
 11
2816.970589276556
 21
3172.494269174611
 31
0.0
  0
LINE
  5
18D70
330
18C7A
100
AcDbEntity
  8
部品1
100
AcDbLine
 10
2816.970589276556
 20
3172.494269174611
 30
0.0
 11
2816.970589276556
 21
3154.494269174611
 31
0.0
  0
LINE
  5
18D71
330
18C7A
100
AcDbEntity
  8
部品1
100
AcDbLine
 10
2746.970589276556
 20
3172.494269174611
 30
0.0
 11
2752.970589276556
 21
3172.494269174611
 31
0.0
  0
LINE
  5
18D72
330
18C7A
100
AcDbEntity
  8
部品1
100
AcDbLine
 10
2746.970589276556
 20
3172.494269174611
 30
0.0
 11
2746.970589276556
 21
3154.494269174611
 31
0.0
  0
LINE
  5
18D73
330
18C7A
100
AcDbEntity
  8
部品1
100
AcDbLine
 10
2769.470589276556
 20
2702.494269174615
 30
0.0
 11
2794.470589276556
 21
2702.494269174615
 31
0.0
  0
LINE
  5
18D74
330
18C7A
100
AcDbEntity
  8
部品1
 48
50.0
100
AcDbLine
 10
2794.470589276556
 20
3154.494269174615
 30
0.0
 11
2794.470589276556
 21
2702.494269174615
 31
0.0
  0
LINE
  5
18D75
330
18C7A
100
AcDbEntity
  8
部品1
 48
50.0
100
AcDbLine
 10
2769.470589276554
 20
3154.494269174618
 30
0.0
 11
2769.470589276556
 21
2702.494269174615
 31
0.0
  0
LINE
  5
18D76
330
18C7A
100
AcDbEntity
  8
部品1
 48
50.0
100
AcDbLine
 10
2795.470589276556
 20
3152.494269174607
 30
0.0
 11
2795.470589276556
 21
2702.494269174615
 31
0.0
  0
LINE
  5
18D77
330
18C7A
100
AcDbEntity
  8
部品1
 48
50.0
100
AcDbLine
 10
2767.470589276556
 20
3152.494269174611
 30
0.0
 11
2767.470589276556
 21
2702.494269174615
 31
0.0
  0
LINE
  5
18D78
330
18C7A
100
AcDbEntity
  8
破線
 48
10.0
100
AcDbLine
 10
2176.97058927653
 20
1448.994269174509
 30
0.0
 11
2176.97058927653
 21
2702.494269174588
 31
0.0
  0
LINE
  5
18D79
330
18C7A
100
AcDbEntity
  8
破線
 48
10.0
100
AcDbLine
 10
2126.970589276534
 20
1448.994269174505
 30
0.0
 11
2126.970589276531
 21
2702.494269174586
 31
0.0
  0
LINE
  5
18D7A
330
18C7A
100
AcDbEntity
  8
部品1
100
AcDbLine
 10
2794.470589276556
 20
3154.494269174622
 30
0.0
 11
3858.970589276556
 21
3154.494269174604
 31
0.0
  0
LINE
  5
18D7B
330
18C7A
100
AcDbEntity
  8
細線
 48
50.0
100
AcDbLine
 10
3858.470589276556
 20
2702.494269174608
 30
0.0
 11
2795.470589276556
 21
3152.494269174607
 31
0.0
  0
LINE
  5
18D7C
330
18C7A
100
AcDbEntity
  8
部品1
100
AcDbLine
 10
2795.470589276555
 20
2702.494269174615
 30
0.0
 11
3858.470589276556
 21
2702.494269174608
 31
0.0
  0
LINE
  5
18D7D
330
18C7A
100
AcDbEntity
  8
部品1
100
AcDbLine
 10
2795.470589276556
 20
3152.494269174611
 30
0.0
 11
3858.470589276556
 21
3152.494269174604
 31
0.0
  0
LINE
  5
18D7E
330
18C7A
100
AcDbEntity
  8
細線
 48
50.0
100
AcDbLine
 10
3858.470589276556
 20
3152.494269174604
 30
0.0
 11
2795.470589276555
 21
2702.494269174615
 31
0.0
  0
DIMENSION
  5
18D7F
330
18C7A
100
AcDbEntity
  8
寸法
100
AcDbDimension
  2
*D10
 10
3801.234916278101
 20
2488.887829538937
 30
0.0
 11
3318.360544398907
 21
2488.887829538937
 31
0.0
 12
-3742.925985830444
 22
-6453.628869860112
 32
0.0
 70
   128
 71
     5
 42
1063.000000000012
  3
INABA_S40G
100
AcDbAlignedDimension
 13
2795.470589276555
 23
2702.494269174615
 33
0.0
 14
3858.470589276567
 24
2702.494269174608
 34
0.0
100
AcDbRotatedDimension
1001
ACAD
1000
DSTYLE
1002
{
1002
}
  0
LINE
  5
18D80
330
18C7A
100
AcDbEntity
  8
破線
 48
10.0
100
AcDbLine
 10
3806.970589276556
 20
1472.494269174594
 30
0.0
 11
3009.47058927653
 21
1472.494269174523
 31
0.0
  0
DIMENSION
  5
18D81
330
18C7A
100
AcDbEntity
  8
寸法
100
AcDbDimension
  2
*D9
 10
4534.396935010941
 20
1392.494269174596
 30
0.0
 11
4534.39693501094
 21
1084.008987800356
 31
0.0
 12
-3742.925985830444
 22
-6453.628869860112
 32
0.0
 70
   128
 71
     5
 42
54.99999999999636
  3
INABA_S40G
100
AcDbAlignedDimension
 13
3886.970589276531
 23
1447.494269174593
 33
0.0
 14
3886.970589276531
 24
1392.494269174596
 34
0.0
 50
90.0
100
AcDbRotatedDimension
1001
ACAD
1000
DSTYLE
1002
{
1002
}
  0
LINE
  5
18D82
330
18C7A
100
AcDbEntity
  8
部品1
100
AcDbLine
 10
471.9705892765196
 20
3182.494269174477
 30
0.0
 11
471.9705892765232
 21
3154.494269174477
 31
0.0
  0
LINE
  5
18D83
330
18C7A
100
AcDbEntity
  8
部品1
100
AcDbLine
 10
471.9705892765559
 20
3182.494269174509
 30
0.0
 11
471.9705892765559
 21
3154.494269174509
 31
0.0
  0
LINE
  5
18D84
330
18C7A
100
AcDbEntity
  8
部品1
100
AcDbLine
 10
444.9705892765232
 20
3127.49426917448
 30
0.0
 11
416.9705892765232
 21
3127.49426917448
 31
0.0
  0
LINE
  5
18D85
330
18C7A
100
AcDbEntity
  8
部品1
100
AcDbLine
 10
444.9705892765305
 20
2707.49426917448
 30
0.0
 11
416.9705892765305
 21
2707.49426917448
 31
0.0
  0
LINE
  5
18D86
330
18C7A
100
AcDbEntity
  8
部品1
 48
50.0
100
AcDbLine
 10
445.4705892765542
 20
3152.494269174506
 30
0.0
 11
445.4705892765559
 21
2702.494269174505
 31
0.0
  0
LINE
  5
18D87
330
18C7A
100
AcDbEntity
  8
部品1
 48
50.0
100
AcDbLine
 10
473.470589276545
 20
1448.994269174573
 30
0.0
 11
444.970589276545
 21
1420.494269174574
 31
0.0
  0
LINE
  5
18D88
330
18C7A
100
AcDbEntity
  8
部品1
100
AcDbLine
 10
471.9705892765232
 20
1392.494269174465
 30
0.0
 11
416.9705892765486
 21
1392.494269174465
 31
0.0
  0
LINE
  5
18D89
330
18C7A
100
AcDbEntity
  8
部品1
100
AcDbLine
 10
444.9705892765305
 20
1447.494269174429
 30
0.0
 11
416.9705892765469
 21
1447.494269174429
 31
0.0
  0
LINE
  5
18D8A
330
18C7A
100
AcDbEntity
  8
部品1
100
AcDbLine
 10
444.9705892765305
 20
1447.494269174465
 30
0.0
 11
416.9705892765469
 21
1447.494269174465
 31
0.0
  0
LINE
  5
18D8B
330
18C7A
100
AcDbEntity
  8
部品1
100
AcDbLine
 10
444.9705892765469
 20
1447.49426917448
 30
0.0
 11
416.9705892765469
 21
1447.49426917448
 31
0.0
  0
LINE
  5
18D8C
330
18C7A
100
AcDbEntity
  8
部品1
100
AcDbLine
 10
416.9705892765469
 20
1447.494269174429
 30
0.0
 11
416.9705892765486
 21
1392.494269174433
 31
0.0
  0
LINE
  5
18D8D
330
18C7A
100
AcDbEntity
  8
部品1
100
AcDbLine
 10
416.9705892765196
 20
3182.494269174477
 30
0.0
 11
416.9705892765486
 21
1392.494269174465
 31
0.0
  0
LINE
  5
18D8E
330
18C7A
100
AcDbEntity
  8
部品1
100
AcDbLine
 10
444.9705892765305
 20
1420.494269174556
 30
0.0
 11
444.9705892765559
 21
3154.494269174509
 31
0.0
  0
LINE
  5
18D8F
330
18C7A
100
AcDbEntity
  8
部品1
100
AcDbLine
 10
473.4705892765323
 20
2702.494269174608
 30
0.0
 11
473.470589276545
 21
1448.994269174571
 31
0.0
  0
LINE
  5
18D90
330
18C7A
100
AcDbEntity
  8
破線
 48
10.0
100
AcDbLine
 10
496.9705892765305
 20
2702.494269174608
 30
0.0
 11
496.9705892765451
 21
1472.494269174476
 31
0.0
  0
DIMENSION
  5
18D91
330
18C7A
100
AcDbEntity
  8
寸法
100
AcDbDimension
  2
*D8
 10
3886.970589276531
 20
410.7433333855515
 30
0.0
 11
2168.197775309287
 21
410.7433333855515
 31
0.0
 12
-3742.925985830444
 22
-6453.628869860112
 32
0.0
 70
   128
 71
     5
 42
3469.999999999982
  3
INABA_S40G
100
AcDbAlignedDimension
 13
416.9705892765486
 23
1392.494269174433
 33
0.0
 14
3886.970589276531
 24
1392.49426917456
 34
0.0
100
AcDbRotatedDimension
1001
ACAD
1000
DSTYLE
1002
{
1070
   341
1005
0
1002
}
  0
LINE
  5
18D92
330
18C7A
100
AcDbEntity
  8
部品1
100
AcDbLine
 10
444.9705892765559
 20
3154.494269174624
 30
0.0
 11
1509.470589276487
 21
3154.494269174626
 31
0.0
  0
LINE
  5
18D93
330
18C7A
100
AcDbEntity
  8
部品1
100
AcDbLine
 10
3886.970589276531
 20
1392.494269174596
 30
0.0
 11
3411.970589276556
 21
1392.494269174582
 31
0.0
  0
LINE
  5
18D94
330
18C7A
100
AcDbEntity
  8
部品1
100
AcDbLine
 10
416.9705892765559
 20
3182.494269174509
 30
0.0
 11
3886.970589276556
 21
3182.494269174604
 31
0.0
  0
LINE
  5
18D95
330
18C7A
100
AcDbEntity
  8
部品1
100
AcDbLine
 10
445.4705892765559
 20
2702.494269174509
 30
0.0
 11
1508.470589276487
 21
2702.494269174558
 31
0.0
  0
LINE
  5
18D96
330
18C7A
100
AcDbEntity
  8
細線
 48
50.0
100
AcDbLine
 10
2767.470589276556
 20
3152.494269174611
 30
0.0
 11
1536.470589276487
 21
2702.494269174558
 31
0.0
  0
LINE
  5
18D97
330
18C7A
100
AcDbEntity
  8
部品1
100
AcDbLine
 10
445.4705892765542
 20
3152.494269174509
 30
0.0
 11
1508.470589276485
 21
3152.494269174558
 31
0.0
  0
LINE
  5
18D98
330
18C7A
100
AcDbEntity
  8
細線
 48
50.0
100
AcDbLine
 10
2767.470589276554
 20
2702.494269174615
 30
0.0
 11
1536.470589276485
 21
3152.494269174558
 31
0.0
  0
LINE
  5
18D99
330
18C7A
100
AcDbEntity
  8
破線
 48
10.0
100
AcDbLine
 10
2126.970589276534
 20
1472.494269174502
 30
0.0
 11
1344.47058927653
 21
1472.494269174473
 31
0.0
  0
LINE
  5
18D9A
330
18C7A
100
AcDbEntity
  8
部品1
100
AcDbLine
 10
3830.470589276556
 20
1448.994269174596
 30
0.0
 11
473.4705892764487
 21
1448.994269174476
 31
0.0
  0
DIMENSION
  5
18D9B
330
18C7A
100
AcDbEntity
  8
寸法
100
AcDbDimension
  2
*D7
 10
471.970589276555
 20
3698.302488799491
 30
0.0
 11
108.4853079022819
 21
3698.302488799491
 31
0.0
 12
-3742.925985830444
 22
-6453.628869860112
 32
0.0
 70
   128
 71
     5
 42
55.00000000003456
  3
INABA_S40G
100
AcDbAlignedDimension
 13
416.9705892765205
 23
3182.494269174509
 33
0.0
 14
471.970589276555
 24
3182.494269174509
 34
0.0
100
AcDbRotatedDimension
1001
ACAD
1000
DSTYLE
1002
{
1002
}
  0
DIMENSION
  5
18D9C
330
18C7A
100
AcDbEntity
  8
寸法
100
AcDbDimension
  2
*D6
 10
4534.396935010967
 20
3127.494269174607
 30
0.0
 11
4534.396935010965
 21
3490.979550548844
 31
0.0
 12
-3742.925985830444
 22
-6453.628869860112
 32
0.0
 70
   128
 71
     5
 42
54.99999999999636
  3
INABA_S40G
100
AcDbAlignedDimension
 13
3886.970589276556
 23
3182.494269174604
 33
0.0
 14
3886.970589276556
 24
3127.494269174607
 34
0.0
 50
90.0
100
AcDbRotatedDimension
1001
ACAD
1000
DSTYLE
1002
{
1002
}
  0
DIMENSION
  5
18D9D
330
18C7A
100
AcDbEntity
  8
寸法
100
AcDbDimension
  2
*D5
 10
3886.970589276556
 20
3698.302488799589
 30
0.0
 11
4195.455870650794
 21
3698.302488799589
 31
0.0
 12
-3742.925985830444
 22
-6453.628869860112
 32
0.0
 70
   128
 71
     5
 42
55.0
  3
INABA_S40G
100
AcDbAlignedDimension
 13
3831.970589276556
 23
3182.494269174604
 33
0.0
 14
3886.970589276556
 24
3182.494269174604
 34
0.0
100
AcDbRotatedDimension
1001
ACAD
1000
DSTYLE
1002
{
1002
}
  0
DIMENSION
  5
18D9E
330
18C7A
100
AcDbEntity
  8
寸法
100
AcDbDimension
  2
*D4
 10
3831.970589276556
 20
3698.302488799607
 30
0.0
 11
2151.970589276555
 21
3698.302488799607
 31
0.0
 12
-3742.925985830444
 22
-6453.628869860112
 32
0.0
 70
   128
  1
8X420=<>
 71
     5
 42
3360.000000000001
  3
INABA_S40G
100
AcDbAlignedDimension
 13
471.970589276555
 23
3182.494269174509
 33
0.0
 14
3831.970589276556
 24
3182.494269174604
 34
0.0
100
AcDbRotatedDimension
1001
ACAD
1000
DSTYLE
1002
{
1002
}
  0
DIMENSION
  5
18D9F
330
18C7A
100
AcDbEntity
  8
寸法
100
AcDbDimension
  2
*D3
 10
4899.503876750603
 20
1392.494269174596
 30
0.0
 11
4899.503876750601
 21
2287.4942691746
 31
0.0
 12
-3742.925985830444
 22
-6453.628869860112
 32
0.0
 70
   128
 71
     5
 42
1790.000000000007
  3
INABA_S40G
100
AcDbAlignedDimension
 13
3886.970589276556
 23
3182.494269174604
 33
0.0
 14
3886.970589276531
 24
1392.494269174596
 34
0.0
 50
90.0
100
AcDbRotatedDimension
1001
ACAD
1000
DSTYLE
1002
{
1002
}
  0
ENDBLK
  5
18DA1
330
18C7A
100
AcDbEntity
  8
0
 48
50.0
100
AcDbBlockEnd
  0
BLOCK
  5
1C4CB
330
1C4CA
100
AcDbEntity
  8
0
 48
50.0
100
AcDbBlockBegin
  2
_NONE
 70
     0
 10
0.0
 20
0.0
 30
0.0
  3
_NONE
  1

  0
CIRCLE
  5
1C4CC
330
1C4CA
100
AcDbEntity
  8
0
  6
ByBlock
 62
     0
 48
50.0
100
AcDbCircle
 10
0.0
 20
0.0
 30
0.0
 40
0.25
  0
ENDBLK
  5
1C4CD
330
1C4CA
100
AcDbEntity
  8
0
 48
50.0
100
AcDbBlockEnd
  0
BLOCK
  5
20DEE
330
20DE2
100
AcDbEntity
  8
0
 48
50.0
100
AcDbBlockBegin
  2
*D19
 70
     1
 10
0.0
 20
0.0
 30
0.0
  3
*D19
  1

  0
LINE
  5
235DC
330
20DE2
100
AcDbEntity
  8
寸法
 62
     0
 48
50.0
370
    -2
100
AcDbLine
 10
9868.6
 20
7085.293243334522
 30
0.0
 11
9868.6
 21
8083.513565393444
 31
0.0
  0
LINE
  5
235DD
330
20DE2
100
AcDbEntity
  8
寸法
 62
     0
 48
50.0
370
    -2
100
AcDbLine
 10
9913.600000000002
 20
7811.559701428432
 30
0.0
 11
9913.600000000002
 21
8083.513565393444
 31
0.0
  0
LINE
  5
235DE
330
20DE2
100
AcDbEntity
  8
寸法
 62
     0
 48
50.0
370
    -2
100
AcDbLine
 10
9868.6
 20
8023.513565393443
 30
0.0
 11
9768.600000000001
 21
8023.513565393443
 31
0.0
  0
LINE
  5
235DF
330
20DE2
100
AcDbEntity
  8
寸法
 62
     0
 48
50.0
370
    -2
100
AcDbLine
 10
9913.600000000002
 20
8023.513565393443
 30
0.0
 11
10250.94924240492
 21
8023.513565393443
 31
0.0
  0
LINE
  5
235E0
330
20DE2
100
AcDbEntity
  8
寸法
 62
     0
 48
50.0
370
    -2
100
AcDbLine
 10
9868.6
 20
8023.513565393443
 30
0.0
 11
9913.600000000002
 21
8023.513565393443
 31
0.0
  0
INSERT
  5
235E1
330
20DE2
100
AcDbEntity
  8
寸法
 62
     0
 48
50.0
370
    -2
100
AcDbBlockReference
  2
_DOTSMALL
 10
9868.6
 20
8023.513565393443
 30
0.0
 41
100.0
 42
100.0
 43
100.0
  0
INSERT
  5
235E2
330
20DE2
100
AcDbEntity
  8
寸法
 62
     0
 48
50.0
370
    -2
100
AcDbBlockReference
  2
_DOTSMALL
 10
9913.600000000002
 20
8023.513565393443
 30
0.0
 41
100.0
 42
100.0
 43
100.0
 50
180.0
  0
MTEXT
  5
235E3
330
20DE2
100
AcDbEntity
  8
寸法
 62
     7
 48
50.0
100
AcDbMText
 10
10184.77462120246
 20
8123.513565393443
 30
0.0
 40
120.0
 41
0.0
 71
     5
 72
     1
  1
\A1;a
  7
STYLE1
 73
     1
 44
1.0
1001
ACAD
1000
MTEXTBEGIN
1070
    73
1070
     1
1070
    44
1040
1.0
1070
    74
1070
     0
1000
MTEXTEND
  0
POINT
  5
235E4
330
20DE2
100
AcDbEntity
  8
DEFPOINTS
 62
     0
 48
50.0
100
AcDbPoint
 10
9868.6
 20
7065.293243334521
 30
0.0
  0
POINT
  5
235E5
330
20DE2
100
AcDbEntity
  8
DEFPOINTS
 62
     0
 48
50.0
100
AcDbPoint
 10
9913.600000000002
 20
7791.559701428433
 30
0.0
  0
POINT
  5
235E6
330
20DE2
100
AcDbEntity
  8
DEFPOINTS
 62
     0
 48
50.0
100
AcDbPoint
 10
9913.600000000002
 20
8023.513565393443
 30
0.0
  0
ENDBLK
  5
20DEF
330
20DE2
100
AcDbEntity
  8
0
 48
50.0
100
AcDbBlockEnd
  0
BLOCK
  5
20E08
330
20DFC
100
AcDbEntity
  8
0
 48
50.0
100
AcDbBlockBegin
  2
*D20
 70
     1
 10
0.0
 20
0.0
 30
0.0
  3
*D20
  1

  0
LINE
  5
235D1
330
20DFC
100
AcDbEntity
  8
寸法
 62
     0
 48
50.0
370
    -2
100
AcDbLine
 10
6533.600000000004
 20
7811.559701428435
 30
0.0
 11
6533.600000000004
 21
8083.513565393444
 31
0.0
  0
LINE
  5
235D2
330
20DFC
100
AcDbEntity
  8
寸法
 62
     0
 48
50.0
370
    -2
100
AcDbLine
 10
6578.6
 20
7085.293243334522
 30
0.0
 11
6578.6
 21
8083.513565393444
 31
0.0
  0
LINE
  5
235D3
330
20DFC
100
AcDbEntity
  8
寸法
 62
     0
 48
50.0
370
    -2
100
AcDbLine
 10
6578.6
 20
8023.513565393443
 30
0.0
 11
6678.6
 21
8023.513565393443
 31
0.0
  0
LINE
  5
235D4
330
20DFC
100
AcDbEntity
  8
寸法
 62
     0
 48
50.0
370
    -2
100
AcDbLine
 10
6533.600000000004
 20
8023.513565393443
 30
0.0
 11
6196.250757595083
 21
8023.513565393443
 31
0.0
  0
LINE
  5
235D5
330
20DFC
100
AcDbEntity
  8
寸法
 62
     0
 48
50.0
370
    -2
100
AcDbLine
 10
6578.6
 20
8023.513565393443
 30
0.0
 11
6533.600000000004
 21
8023.513565393443
 31
0.0
  0
INSERT
  5
235D6
330
20DFC
100
AcDbEntity
  8
寸法
 62
     0
 48
50.0
370
    -2
100
AcDbBlockReference
  2
_DOTSMALL
 10
6578.6
 20
8023.513565393443
 30
0.0
 41
100.0
 42
100.0
 43
100.0
 50
180.0
  0
INSERT
  5
235D7
330
20DFC
100
AcDbEntity
  8
寸法
 62
     0
 48
50.0
370
    -2
100
AcDbBlockReference
  2
_DOTSMALL
 10
6533.600000000004
 20
8023.513565393443
 30
0.0
 41
100.0
 42
100.0
 43
100.0
  0
MTEXT
  5
235D8
330
20DFC
100
AcDbEntity
  8
寸法
 62
     7
 48
50.0
100
AcDbMText
 10
6262.425378797541
 20
8123.513565393443
 30
0.0
 40
120.0
 41
0.0
 71
     5
 72
     1
  1
\A1;a
  7
STYLE1
 73
     1
 44
1.0
1001
ACAD
1000
MTEXTBEGIN
1070
    73
1070
     1
1070
    44
1040
1.0
1070
    74
1070
     0
1000
MTEXTEND
  0
POINT
  5
235D9
330
20DFC
100
AcDbEntity
  8
DEFPOINTS
 62
     0
 48
50.0
100
AcDbPoint
 10
6533.600000000004
 20
7791.559701428434
 30
0.0
  0
POINT
  5
235DA
330
20DFC
100
AcDbEntity
  8
DEFPOINTS
 62
     0
 48
50.0
100
AcDbPoint
 10
6578.6
 20
7065.293243334521
 30
0.0
  0
POINT
  5
235DB
330
20DFC
100
AcDbEntity
  8
DEFPOINTS
 62
     0
 48
50.0
100
AcDbPoint
 10
6578.6
 20
8023.513565393443
 30
0.0
  0
ENDBLK
  5
20E09
330
20DFC
100
AcDbEntity
  8
0
 48
50.0
100
AcDbBlockEnd
  0
BLOCK
  5
2274E
330
22742
100
AcDbEntity
  8
0
 48
50.0
100
AcDbBlockBegin
  2
*D25
 70
     1
 10
0.0
 20
0.0
 30
0.0
  3
*D25
  1

  0
LINE
  5
235C6
330
22742
100
AcDbEntity
  8
寸法
 62
     0
 48
50.0
370
    -2
100
AcDbLine
 10
5935.66500633007
 20
7140.293243334538
 30
0.0
 11
5643.721909610673
 21
7140.293243334538
 31
0.0
  0
LINE
  5
235C7
330
22742
100
AcDbEntity
  8
寸法
 62
     0
 48
50.0
370
    -2
100
AcDbLine
 10
6425.156977762462
 20
7065.293243334536
 30
0.0
 11
5643.721909610673
 21
7065.293243334536
 31
0.0
  0
LINE
  5
235C8
330
22742
100
AcDbEntity
  8
寸法
 62
     0
 48
50.0
370
    -2
100
AcDbLine
 10
5703.721909610673
 20
7140.293243334538
 30
0.0
 11
5703.721909610673
 21
7240.293243334538
 31
0.0
  0
LINE
  5
235C9
330
22742
100
AcDbEntity
  8
寸法
 62
     0
 48
50.0
370
    -2
100
AcDbLine
 10
5703.721909610673
 20
7065.293243334536
 30
0.0
 11
5703.721909610673
 21
6965.293243334535
 31
0.0
  0
LINE
  5
235CA
330
22742
100
AcDbEntity
  8
寸法
 62
     0
 48
50.0
370
    -2
100
AcDbLine
 10
5703.721909610673
 20
7140.293243334538
 30
0.0
 11
5703.721909610673
 21
7065.293243334536
 31
0.0
  0
INSERT
  5
235CB
330
22742
100
AcDbEntity
  8
寸法
 62
     0
 48
50.0
370
    -2
100
AcDbBlockReference
  2
_DOTSMALL
 10
5703.721909610673
 20
7140.293243334538
 30
0.0
 41
100.0
 42
100.0
 43
100.0
 50
270.0
  0
INSERT
  5
235CC
330
22742
100
AcDbEntity
  8
寸法
 62
     0
 48
50.0
370
    -2
100
AcDbBlockReference
  2
_DOTSMALL
 10
5703.721909610673
 20
7065.293243334536
 30
0.0
 41
100.0
 42
100.0
 43
100.0
 50
90.0
  0
MTEXT
  5
235CD
330
22742
100
AcDbEntity
  8
寸法
 62
     7
 48
50.0
100
AcDbMText
 10
5603.721909610671
 20
7102.793243334538
 30
0.0
 40
120.0
 41
0.0
 71
     5
 72
     1
  1
\A1;c
  7
STYLE1
 11
0.0000000000000001
 21
1.0
 31
0.0
 73
     1
 44
1.0
1001
ACAD
1000
MTEXTBEGIN
1070
    73
1070
     1
1070
    44
1040
1.0
1070
    74
1070
     0
1000
MTEXTEND
  0
POINT
  5
235CE
330
22742
100
AcDbEntity
  8
DEFPOINTS
 62
     0
 48
50.0
100
AcDbPoint
 10
5955.665006330071
 20
7140.293243334538
 30
0.0
  0
POINT
  5
235CF
330
22742
100
AcDbEntity
  8
DEFPOINTS
 62
     0
 48
50.0
100
AcDbPoint
 10
6445.156977762462
 20
7065.293243334536
 30
0.0
  0
POINT
  5
235D0
330
22742
100
AcDbEntity
  8
DEFPOINTS
 62
     0
 48
50.0
100
AcDbPoint
 10
5703.721909610673
 20
7065.293243334536
 30
0.0
  0
ENDBLK
  5
2274F
330
22742
100
AcDbEntity
  8
0
 48
50.0
100
AcDbBlockEnd
  0
BLOCK
  5
22768
330
2275C
100
AcDbEntity
  8
0
 48
50.0
100
AcDbBlockBegin
  2
*D26
 70
     1
 10
0.0
 20
0.0
 30
0.0
  3
*D26
  1

  0
LINE
  5
235BB
330
2275C
100
AcDbEntity
  8
寸法
 62
     0
 48
50.0
370
    -2
100
AcDbLine
 10
6431.607272343892
 20
6105.293243334524
 30
0.0
 11
5643.721909610673
 21
6105.293243334525
 31
0.0
  0
LINE
  5
235BC
330
2275C
100
AcDbEntity
  8
寸法
 62
     0
 48
50.0
370
    -2
100
AcDbLine
 10
5935.665006330071
 20
6050.293243334546
 30
0.0
 11
5643.721909610673
 21
6050.293243334546
 31
0.0
  0
LINE
  5
235BD
330
2275C
100
AcDbEntity
  8
寸法
 62
     0
 48
50.0
370
    -2
100
AcDbLine
 10
5703.721909610673
 20
6105.293243334525
 30
0.0
 11
5703.721909610674
 21
6205.293243334525
 31
0.0
  0
LINE
  5
235BE
330
2275C
100
AcDbEntity
  8
寸法
 62
     0
 48
50.0
370
    -2
100
AcDbLine
 10
5703.721909610673
 20
6050.293243334546
 30
0.0
 11
5703.721909610673
 21
5950.293243334545
 31
0.0
  0
LINE
  5
235BF
330
2275C
100
AcDbEntity
  8
寸法
 62
     0
 48
50.0
370
    -2
100
AcDbLine
 10
5703.721909610673
 20
6105.293243334525
 30
0.0
 11
5703.721909610673
 21
6050.293243334546
 31
0.0
  0
INSERT
  5
235C0
330
2275C
100
AcDbEntity
  8
寸法
 62
     0
 48
50.0
370
    -2
100
AcDbBlockReference
  2
_DOTSMALL
 10
5703.721909610673
 20
6105.293243334525
 30
0.0
 41
100.0
 42
100.0
 43
100.0
 50
270.0
  0
INSERT
  5
235C1
330
2275C
100
AcDbEntity
  8
寸法
 62
     0
 48
50.0
370
    -2
100
AcDbBlockReference
  2
_DOTSMALL
 10
5703.721909610673
 20
6050.293243334546
 30
0.0
 41
100.0
 42
100.0
 43
100.0
 50
90.0
  0
MTEXT
  5
235C2
330
2275C
100
AcDbEntity
  8
寸法
 62
     7
 48
50.0
100
AcDbMText
 10
5603.721909610672
 20
6077.793243334536
 30
0.0
 40
120.0
 41
0.0
 71
     5
 72
     1
  1
\A1;b
  7
STYLE1
 11
0.0000000000000001
 21
1.0
 31
0.0
 73
     1
 44
1.0
1001
ACAD
1000
MTEXTBEGIN
1070
    73
1070
     1
1070
    44
1040
1.0
1070
    74
1070
     0
1000
MTEXTEND
  0
POINT
  5
235C3
330
2275C
100
AcDbEntity
  8
DEFPOINTS
 62
     0
 48
50.0
100
AcDbPoint
 10
6451.607272343892
 20
6105.293243334524
 30
0.0
  0
POINT
  5
235C4
330
2275C
100
AcDbEntity
  8
DEFPOINTS
 62
     0
 48
50.0
100
AcDbPoint
 10
5955.665006330072
 20
6050.293243334546
 30
0.0
  0
POINT
  5
235C5
330
2275C
100
AcDbEntity
  8
DEFPOINTS
 62
     0
 48
50.0
100
AcDbPoint
 10
5703.721909610673
 20
6050.293243334546
 30
0.0
  0
ENDBLK
  5
22769
330
2275C
100
AcDbEntity
  8
0
 48
50.0
100
AcDbBlockEnd
  0
BLOCK
  5
22B65
330
22B5A
100
AcDbEntity
  8
0
 48
50.0
100
AcDbBlockBegin
  2
*D27
 70
     1
 10
0.0
 20
0.0
 30
0.0
  3
*D27
  1

  0
LINE
  5
2364A
330
22B5A
100
AcDbEntity
  8
寸法
 62
     0
 48
50.0
370
    -2
100
AcDbLine
 10
9413.133876484613
 20
6385.293243334552
 30
0.0
 11
9211.821389011623
 21
6385.293243334552
 31
0.0
  0
LINE
  5
2364B
330
22B5A
100
AcDbEntity
  8
寸法
 62
     0
 48
50.0
370
    -2
100
AcDbLine
 10
9261.419106515957
 20
6105.293243334539
 30
0.0
 11
9331.821389011624
 21
6105.293243334539
 31
0.0
  0
LINE
  5
2364C
330
22B5A
100
AcDbEntity
  8
寸法
 62
     0
 48
50.0
370
    -2
100
AcDbLine
 10
9271.821389011625
 20
6385.293243334552
 30
0.0
 11
9271.821389011625
 21
6105.293243334539
 31
0.0
  0
LINE
  5
2364D
330
22B5A
100
AcDbEntity
  8
寸法
 62
     0
 48
50.0
370
    -2
100
AcDbLine
 10
9271.821389011625
 20
6105.293243334539
 30
0.0
 11
9271.821389011625
 21
5668.758794515641
 31
0.0
  0
INSERT
  5
2364E
330
22B5A
100
AcDbEntity
  8
寸法
 62
     0
 48
50.0
370
    -2
100
AcDbBlockReference
  2
_DOTSMALL
 10
9271.821389011625
 20
6385.293243334552
 30
0.0
 41
100.0
 42
100.0
 43
100.0
 50
90.0
  0
INSERT
  5
2364F
330
22B5A
100
AcDbEntity
  8
寸法
 62
     0
 48
50.0
370
    -2
100
AcDbBlockReference
  2
_DOTSMALL
 10
9271.821389011625
 20
6105.293243334539
 30
0.0
 41
100.0
 42
100.0
 43
100.0
 50
270.0
  0
MTEXT
  5
23650
330
22B5A
100
AcDbEntity
  8
寸法
 62
     7
 48
50.0
100
AcDbMText
 10
9171.809577988
 20
5818.329660657375
 30
0.0
 40
120.0
 41
0.0
 71
     5
 72
     1
  1
\A1;280
  7
STYLE1
 11
0.0000000000000001
 21
1.0
 31
0.0
 73
     1
 44
1.0
1001
ACAD
1000
MTEXTBEGIN
1070
    73
1070
     1
1070
    44
1040
1.0
1070
    74
1070
     0
1000
MTEXTEND
  0
POINT
  5
23651
330
22B5A
100
AcDbEntity
  8
DEFPOINTS
 62
     0
 48
50.0
100
AcDbPoint
 10
9433.13387648461
 20
6385.293243334552
 30
0.0
  0
POINT
  5
23652
330
22B5A
100
AcDbEntity
  8
DEFPOINTS
 62
     0
 48
50.0
100
AcDbPoint
 10
9241.419106515955
 20
6105.293243334539
 30
0.0
  0
POINT
  5
23653
330
22B5A
100
AcDbEntity
  8
DEFPOINTS
 62
     0
 48
50.0
100
AcDbPoint
 10
9271.821389011625
 20
6105.293243334539
 30
0.0
  0
ENDBLK
  5
22B66
330
22B5A
100
AcDbEntity
  8
0
 48
50.0
100
AcDbBlockEnd
  0
BLOCK
  5
22B7F
330
22B74
100
AcDbEntity
  8
0
 48
50.0
100
AcDbBlockBegin
  2
*D28
 70
     1
 10
0.0
 20
0.0
 30
0.0
  3
*D28
  1

  0
LINE
  5
235A7
330
22B74
100
AcDbEntity
  8
寸法
 62
     0
 48
50.0
370
    -2
100
AcDbLine
 10
9285.856345704679
 20
7065.293243334519
 30
0.0
 11
9331.821389011626
 21
7065.293243334519
 31
0.0
  0
LINE
  5
235A8
330
22B74
100
AcDbEntity
  8
寸法
 62
     0
 48
50.0
370
    -2
100
AcDbLine
 10
9225.601663693046
 20
6865.293243334432
 30
0.0
 11
9331.821389011626
 21
6865.293243334432
 31
0.0
  0
LINE
  5
235A9
330
22B74
100
AcDbEntity
  8
寸法
 62
     0
 48
50.0
370
    -2
100
AcDbLine
 10
9271.821389011625
 20
6865.293243334432
 30
0.0
 11
9271.821389011625
 21
7065.293243334519
 31
0.0
  0
LINE
  5
235AA
330
22B74
100
AcDbEntity
  8
寸法
 62
     0
 48
50.0
370
    -2
100
AcDbLine
 10
9271.821389011625
 20
7065.293243334519
 30
0.0
 11
9271.821389011625
 21
7501.827692153416
 31
0.0
  0
INSERT
  5
235AB
330
22B74
100
AcDbEntity
  8
寸法
 62
     0
 48
50.0
370
    -2
100
AcDbBlockReference
  2
_DOTSMALL
 10
9271.821389011625
 20
6865.293243334432
 30
0.0
 41
100.0
 42
100.0
 43
100.0
 50
270.0
  0
INSERT
  5
235AC
330
22B74
100
AcDbEntity
  8
寸法
 62
     0
 48
50.0
370
    -2
100
AcDbBlockReference
  2
_DOTSMALL
 10
9271.821389011625
 20
7065.293243334519
 30
0.0
 41
100.0
 42
100.0
 43
100.0
 50
90.0
  0
MTEXT
  5
235AD
330
22B74
100
AcDbEntity
  8
寸法
 62
     7
 48
50.0
100
AcDbMText
 10
9171.809577988003
 20
7352.256826011684
 30
0.0
 40
120.0
 41
0.0
 71
     5
 72
     1
  1
\A1;200
  7
STYLE1
 11
0.0000000000000001
 21
1.0
 31
0.0
 73
     1
 44
1.0
1001
ACAD
1000
MTEXTBEGIN
1070
    73
1070
     1
1070
    44
1040
1.0
1070
    74
1070
     0
1000
MTEXTEND
  0
POINT
  5
235AE
330
22B74
100
AcDbEntity
  8
DEFPOINTS
 62
     0
 48
50.0
100
AcDbPoint
 10
9265.856345704682
 20
7065.293243334519
 30
0.0
  0
POINT
  5
235AF
330
22B74
100
AcDbEntity
  8
DEFPOINTS
 62
     0
 48
50.0
100
AcDbPoint
 10
9205.601663693048
 20
6865.293243334432
 30
0.0
  0
POINT
  5
235B0
330
22B74
100
AcDbEntity
  8
DEFPOINTS
 62
     0
 48
50.0
100
AcDbPoint
 10
9271.821389011625
 20
6865.293243334432
 30
0.0
  0
ENDBLK
  5
22B80
330
22B74
100
AcDbEntity
  8
0
 48
50.0
100
AcDbBlockEnd
  0
BLOCK
  5
22BA5
330
22B9A
100
AcDbEntity
  8
0
 48
50.0
100
AcDbBlockBegin
  2
*D29
 70
     1
 10
0.0
 20
0.0
 30
0.0
  3
*D29
  1

  0
LINE
  5
236A1
330
22B9A
100
AcDbEntity
  8
寸法
 62
     0
 48
50.0
370
    -2
100
AcDbLine
 10
9868.6
 20
6730.293243334539
 30
0.0
 11
9868.6
 21
6849.684911889745
 31
0.0
  0
LINE
  5
236A2
330
22B9A
100
AcDbEntity
  8
寸法
 62
     0
 48
50.0
370
    -2
100
AcDbLine
 10
9748.600000000003
 20
6730.293243334561
 30
0.0
 11
9748.600000000003
 21
6849.684911889745
 31
0.0
  0
LINE
  5
236A3
330
22B9A
100
AcDbEntity
  8
寸法
 62
     0
 48
50.0
370
    -2
100
AcDbLine
 10
9748.600000000003
 20
6789.684911889747
 30
0.0
 11
9868.6
 21
6789.684911889747
 31
0.0
  0
LINE
  5
236A4
330
22B9A
100
AcDbEntity
  8
寸法
 62
     0
 48
50.0
370
    -2
100
AcDbLine
 10
9868.6
 20
6789.684911889747
 30
0.0
 11
10274.7062992126
 21
6789.684911889747
 31
0.0
  0
INSERT
  5
236A5
330
22B9A
100
AcDbEntity
  8
寸法
 62
     0
 48
50.0
370
    -2
100
AcDbBlockReference
  2
_DOTSMALL
 10
9748.600000000003
 20
6789.684911889747
 30
0.0
 41
100.0
 42
100.0
 43
100.0
 50
180.0
  0
INSERT
  5
236A6
330
22B9A
100
AcDbEntity
  8
寸法
 62
     0
 48
50.0
370
    -2
100
AcDbBlockReference
  2
_DOTSMALL
 10
9868.6
 20
6789.684911889747
 30
0.0
 41
100.0
 42
100.0
 43
100.0
  0
MTEXT
  5
236A7
330
22B9A
100
AcDbEntity
  8
寸法
 62
     7
 48
50.0
100
AcDbMText
 10
10138.65905511811
 20
6889.696722913368
 30
0.0
 40
120.0
 41
0.0
 71
     5
 72
     1
  1
\A1;120
  7
STYLE1
 73
     1
 44
1.0
1001
ACAD
1000
MTEXTBEGIN
1070
    73
1070
     1
1070
    44
1040
1.0
1070
    74
1070
     0
1000
MTEXTEND
  0
POINT
  5
236A8
330
22B9A
100
AcDbEntity
  8
DEFPOINTS
 62
     0
 48
50.0
100
AcDbPoint
 10
9868.6
 20
6710.29324333454
 30
0.0
  0
POINT
  5
236A9
330
22B9A
100
AcDbEntity
  8
DEFPOINTS
 62
     0
 48
50.0
100
AcDbPoint
 10
9748.600000000003
 20
6710.29324333456
 30
0.0
  0
POINT
  5
236AA
330
22B9A
100
AcDbEntity
  8
DEFPOINTS
 62
     0
 48
50.0
100
AcDbPoint
 10
9748.600000000003
 20
6789.684911889747
 30
0.0
  0
ENDBLK
  5
22BA6
330
22B9A
100
AcDbEntity
  8
0
 48
50.0
100
AcDbBlockEnd
  0
BLOCK
  5
2310F
330
23105
100
AcDbEntity
  8
0
 48
50.0
100
AcDbBlockBegin
  2
*D30
 70
     1
 10
0.0
 20
0.0
 30
0.0
  3
*D30
  1

  0
LINE
  5
23594
330
23105
100
AcDbEntity
  8
寸法
 62
     0
 48
50.0
370
    -2
100
AcDbLine
 10
6578.6
 20
7085.293243334525
 30
0.0
 11
6578.6
 21
8083.513565393444
 31
0.0
  0
LINE
  5
23595
330
23105
100
AcDbEntity
  8
寸法
 62
     0
 48
50.0
370
    -2
100
AcDbLine
 10
9868.6
 20
7085.293243334525
 30
0.0
 11
9868.6
 21
8083.513565393444
 31
0.0
  0
LINE
  5
23596
330
23105
100
AcDbEntity
  8
寸法
 62
     0
 48
50.0
370
    -2
100
AcDbLine
 10
6578.6
 20
8023.513565393443
 30
0.0
 11
9868.6
 21
8023.513565393443
 31
0.0
  0
INSERT
  5
23597
330
23105
100
AcDbEntity
  8
寸法
 62
     0
 48
50.0
370
    -2
100
AcDbBlockReference
  2
_DOTSMALL
 10
6578.6
 20
8023.513565393443
 30
0.0
 41
100.0
 42
100.0
 43
100.0
 50
180.0
  0
INSERT
  5
23598
330
23105
100
AcDbEntity
  8
寸法
 62
     0
 48
50.0
370
    -2
100
AcDbBlockReference
  2
_DOTSMALL
 10
9868.6
 20
8023.513565393443
 30
0.0
 41
100.0
 42
100.0
 43
100.0
  0
MTEXT
  5
23599
330
23105
100
AcDbEntity
  8
寸法
 62
     7
 48
50.0
100
AcDbMText
 10
8223.600000000001
 20
8123.525376417065
 30
0.0
 40
120.0
 41
0.0
 71
     5
 72
     1
  1
\A1;3290
  7
STYLE1
 73
     1
 44
1.0
1001
ACAD
1000
MTEXTBEGIN
1070
    73
1070
     1
1070
    44
1040
1.0
1070
    74
1070
     0
1000
MTEXTEND
  0
POINT
  5
2359A
330
23105
100
AcDbEntity
  8
DEFPOINTS
 62
     0
 48
50.0
100
AcDbPoint
 10
6578.6
 20
7065.293243334526
 30
0.0
  0
POINT
  5
2359B
330
23105
100
AcDbEntity
  8
DEFPOINTS
 62
     0
 48
50.0
100
AcDbPoint
 10
9868.6
 20
7065.293243334526
 30
0.0
  0
POINT
  5
2359C
330
23105
100
AcDbEntity
  8
DEFPOINTS
 62
     0
 48
50.0
100
AcDbPoint
 10
9868.6
 20
8023.513565393443
 30
0.0
  0
ENDBLK
  5
23110
330
23105
100
AcDbEntity
  8
0
 48
50.0
100
AcDbBlockEnd
  0
BLOCK
  5
2311B
330
23111
100
AcDbEntity
  8
0
 48
50.0
100
AcDbBlockBegin
  2
*D31
 70
     1
 10
0.0
 20
0.0
 30
0.0
  3
*D31
  1

  0
LINE
  5
2358B
330
23111
100
AcDbEntity
  8
寸法
 62
     0
 48
50.0
370
    -2
100
AcDbLine
 10
9745.600000000001
 20
7012.293243334525
 30
0.0
 11
9745.600000000001
 21
7851.559701428435
 31
0.0
  0
LINE
  5
2358C
330
23111
100
AcDbEntity
  8
寸法
 62
     0
 48
50.0
370
    -2
100
AcDbLine
 10
8105.6
 20
7012.293243334525
 30
0.0
 11
8105.6
 21
7851.559701428435
 31
0.0
  0
LINE
  5
2358D
330
23111
100
AcDbEntity
  8
寸法
 62
     0
 48
50.0
370
    -2
100
AcDbLine
 10
9745.600000000001
 20
7791.559701428436
 30
0.0
 11
8105.6
 21
7791.559701428436
 31
0.0
  0
INSERT
  5
2358E
330
23111
100
AcDbEntity
  8
寸法
 62
     0
 48
50.0
370
    -2
100
AcDbBlockReference
  2
_DOTSMALL
 10
9745.600000000001
 20
7791.559701428436
 30
0.0
 41
100.0
 42
100.0
 43
100.0
  0
INSERT
  5
2358F
330
23111
100
AcDbEntity
  8
寸法
 62
     0
 48
50.0
370
    -2
100
AcDbBlockReference
  2
_DOTSMALL
 10
8105.6
 20
7791.559701428436
 30
0.0
 41
100.0
 42
100.0
 43
100.0
 50
180.0
  0
MTEXT
  5
23590
330
23111
100
AcDbEntity
  8
寸法
 62
     7
 48
50.0
100
AcDbMText
 10
8925.600000000001
 20
7891.559701428436
 30
0.0
 40
120.0
 41
0.0
 71
     5
 72
     1
  1
\A1;1640
  7
STYLE1
 73
     1
 44
1.0
1001
ACAD
1000
MTEXTBEGIN
1070
    73
1070
     1
1070
    44
1040
1.0
1070
    74
1070
     0
1000
MTEXTEND
  0
POINT
  5
23591
330
23111
100
AcDbEntity
  8
DEFPOINTS
 62
     0
 48
50.0
100
AcDbPoint
 10
9745.600000000001
 20
6992.293243334525
 30
0.0
  0
POINT
  5
23592
330
23111
100
AcDbEntity
  8
DEFPOINTS
 62
     0
 48
50.0
100
AcDbPoint
 10
8105.6
 20
6992.293243334525
 30
0.0
  0
POINT
  5
23593
330
23111
100
AcDbEntity
  8
DEFPOINTS
 62
     0
 48
50.0
100
AcDbPoint
 10
8105.6
 20
7791.559701428436
 30
0.0
  0
ENDBLK
  5
2311C
330
23111
100
AcDbEntity
  8
0
 48
50.0
100
AcDbBlockEnd
  0
BLOCK
  5
23127
330
2311D
100
AcDbEntity
  8
0
 48
50.0
100
AcDbBlockBegin
  2
*D32
 70
     1
 10
0.0
 20
0.0
 30
0.0
  3
*D32
  1

  0
LINE
  5
23582
330
2311D
100
AcDbEntity
  8
寸法
 62
     0
 48
50.0
370
    -2
100
AcDbLine
 10
9043.600000000008
 20
6655.293243334525
 30
0.0
 11
9043.600000000008
 21
7607.902060004774
 31
0.0
  0
LINE
  5
23583
330
2311D
100
AcDbEntity
  8
寸法
 62
     0
 48
50.0
370
    -2
100
AcDbLine
 10
8223.600000000008
 20
6655.293243334525
 30
0.0
 11
8223.600000000008
 21
7607.902060004774
 31
0.0
  0
LINE
  5
23584
330
2311D
100
AcDbEntity
  8
寸法
 62
     0
 48
50.0
370
    -2
100
AcDbLine
 10
9043.600000000008
 20
7547.902060004773
 30
0.0
 11
8223.600000000008
 21
7547.902060004773
 31
0.0
  0
INSERT
  5
23585
330
2311D
100
AcDbEntity
  8
寸法
 62
     0
 48
50.0
370
    -2
100
AcDbBlockReference
  2
_DOTSMALL
 10
9043.600000000008
 20
7547.902060004773
 30
0.0
 41
100.0
 42
100.0
 43
100.0
  0
INSERT
  5
23586
330
2311D
100
AcDbEntity
  8
寸法
 62
     0
 48
50.0
370
    -2
100
AcDbBlockReference
  2
_DOTSMALL
 10
8223.600000000008
 20
7547.902060004773
 30
0.0
 41
100.0
 42
100.0
 43
100.0
 50
180.0
  0
MTEXT
  5
23587
330
2311D
100
AcDbEntity
  8
寸法
 62
     7
 48
50.0
100
AcDbMText
 10
8633.600000000008
 20
7647.913871028395
 30
0.0
 40
120.0
 41
0.0
 71
     5
 72
     1
  1
\A1;820
  7
STYLE1
 73
     1
 44
1.0
1001
ACAD
1000
MTEXTBEGIN
1070
    73
1070
     1
1070
    44
1040
1.0
1070
    74
1070
     0
1000
MTEXTEND
  0
POINT
  5
23588
330
2311D
100
AcDbEntity
  8
DEFPOINTS
 62
     0
 48
50.0
100
AcDbPoint
 10
9043.600000000008
 20
6635.293243334524
 30
0.0
  0
POINT
  5
23589
330
2311D
100
AcDbEntity
  8
DEFPOINTS
 62
     0
 48
50.0
100
AcDbPoint
 10
8223.600000000008
 20
6635.293243334524
 30
0.0
  0
POINT
  5
2358A
330
2311D
100
AcDbEntity
  8
DEFPOINTS
 62
     0
 48
50.0
100
AcDbPoint
 10
8223.600000000008
 20
7547.902060004773
 30
0.0
  0
ENDBLK
  5
23128
330
2311D
100
AcDbEntity
  8
0
 48
50.0
100
AcDbBlockEnd
  0
BLOCK
  5
23133
330
23129
100
AcDbEntity
  8
0
 48
50.0
100
AcDbBlockBegin
  2
*D33
 70
     1
 10
0.0
 20
0.0
 30
0.0
  3
*D33
  1

  0
LINE
  5
2360B
330
23129
100
AcDbEntity
  8
寸法
 62
     0
 48
50.0
370
    -2
100
AcDbLine
 10
6631.6
 20
6942.293243334525
 30
0.0
 11
5895.665006330073
 21
6942.293243334527
 31
0.0
  0
LINE
  5
2360C
330
23129
100
AcDbEntity
  8
寸法
 62
     0
 48
50.0
370
    -2
100
AcDbLine
 10
6631.600000000007
 20
6303.293243334529
 30
0.0
 11
5895.665006330073
 21
6303.293243334529
 31
0.0
  0
LINE
  5
2360D
330
23129
100
AcDbEntity
  8
寸法
 62
     0
 48
50.0
370
    -2
100
AcDbLine
 10
5955.665006330073
 20
6942.293243334527
 30
0.0
 11
5955.665006330073
 21
6303.293243334529
 31
0.0
  0
INSERT
  5
2360E
330
23129
100
AcDbEntity
  8
寸法
 62
     0
 48
50.0
370
    -2
100
AcDbBlockReference
  2
_DOTSMALL
 10
5955.665006330073
 20
6942.293243334527
 30
0.0
 41
100.0
 42
100.0
 43
100.0
 50
90.0
  0
INSERT
  5
2360F
330
23129
100
AcDbEntity
  8
寸法
 62
     0
 48
50.0
370
    -2
100
AcDbBlockReference
  2
_DOTSMALL
 10
5955.665006330073
 20
6303.293243334529
 30
0.0
 41
100.0
 42
100.0
 43
100.0
 50
270.0
  0
MTEXT
  5
23610
330
23129
100
AcDbEntity
  8
寸法
 62
     7
 48
50.0
100
AcDbMText
 10
5855.665006330071
 20
6622.793243334524
 30
0.0
 40
120.0
 41
0.0
 71
     5
 72
     1
  1
\A1;639
  7
STYLE1
 11
0.0000000000000001
 21
1.0
 31
0.0
 73
     1
 44
1.0
1001
ACAD
1000
MTEXTBEGIN
1070
    73
1070
     1
1070
    44
1040
1.0
1070
    74
1070
     0
1000
MTEXTEND
  0
POINT
  5
23611
330
23129
100
AcDbEntity
  8
DEFPOINTS
 62
     0
 48
50.0
100
AcDbPoint
 10
6651.600000000001
 20
6942.293243334525
 30
0.0
  0
POINT
  5
23612
330
23129
100
AcDbEntity
  8
DEFPOINTS
 62
     0
 48
50.0
100
AcDbPoint
 10
6651.600000000008
 20
6303.293243334529
 30
0.0
  0
POINT
  5
23613
330
23129
100
AcDbEntity
  8
DEFPOINTS
 62
     0
 48
50.0
100
AcDbPoint
 10
5955.665006330073
 20
6303.293243334529
 30
0.0
  0
ENDBLK
  5
23134
330
23129
100
AcDbEntity
  8
0
 48
50.0
100
AcDbBlockEnd
  0
BLOCK
  5
2313F
330
23135
100
AcDbEntity
  8
0
 48
50.0
100
AcDbBlockBegin
  2
*D34
 70
     1
 10
0.0
 20
0.0
 30
0.0
  3
*D34
  1

  0
LINE
  5
23570
330
23135
100
AcDbEntity
  8
寸法
 62
     0
 48
50.0
370
    -2
100
AcDbLine
 10
6558.6
 20
7065.293243334526
 30
0.0
 11
5643.721909610674
 21
7065.293243334526
 31
0.0
  0
LINE
  5
23571
330
23135
100
AcDbEntity
  8
寸法
 62
     0
 48
50.0
370
    -2
100
AcDbLine
 10
6558.6
 20
6105.293243334525
 30
0.0
 11
5643.721909610674
 21
6105.293243334526
 31
0.0
  0
LINE
  5
23572
330
23135
100
AcDbEntity
  8
寸法
 62
     0
 48
50.0
370
    -2
100
AcDbLine
 10
5703.721909610674
 20
7065.293243334526
 30
0.0
 11
5703.721909610674
 21
6105.293243334526
 31
0.0
  0
INSERT
  5
23573
330
23135
100
AcDbEntity
  8
寸法
 62
     0
 48
50.0
370
    -2
100
AcDbBlockReference
  2
_DOTSMALL
 10
5703.721909610674
 20
7065.293243334526
 30
0.0
 41
100.0
 42
100.0
 43
100.0
 50
90.0
  0
INSERT
  5
23574
330
23135
100
AcDbEntity
  8
寸法
 62
     0
 48
50.0
370
    -2
100
AcDbBlockReference
  2
_DOTSMALL
 10
5703.721909610674
 20
6105.293243334526
 30
0.0
 41
100.0
 42
100.0
 43
100.0
 50
270.0
  0
MTEXT
  5
23575
330
23135
100
AcDbEntity
  8
寸法
 62
     7
 48
50.0
100
AcDbMText
 10
5603.721909610673
 20
6622.793243334524
 30
0.0
 40
120.0
 41
0.0
 71
     5
 72
     1
  1
\A1;960
  7
STYLE1
 11
0.0000000000000001
 21
1.0
 31
0.0
 73
     1
 44
1.0
1001
ACAD
1000
MTEXTBEGIN
1070
    73
1070
     1
1070
    44
1040
1.0
1070
    74
1070
     0
1000
MTEXTEND
  0
POINT
  5
23576
330
23135
100
AcDbEntity
  8
DEFPOINTS
 62
     0
 48
50.0
100
AcDbPoint
 10
6578.6
 20
7065.293243334526
 30
0.0
  0
POINT
  5
23577
330
23135
100
AcDbEntity
  8
DEFPOINTS
 62
     0
 48
50.0
100
AcDbPoint
 10
6578.6
 20
6105.293243334525
 30
0.0
  0
POINT
  5
23578
330
23135
100
AcDbEntity
  8
DEFPOINTS
 62
     0
 48
50.0
100
AcDbPoint
 10
5703.721909610674
 20
6105.293243334526
 30
0.0
  0
ENDBLK
  5
23140
330
23135
100
AcDbEntity
  8
0
 48
50.0
100
AcDbBlockEnd
  0
BLOCK
  5
2314C
330
23141
100
AcDbEntity
  8
0
 48
50.0
100
AcDbBlockBegin
  2
*D35
 70
     1
 10
0.0
 20
0.0
 30
0.0
  3
*D35
  1

  0
LINE
  5
23566
330
23141
100
AcDbEntity
  8
寸法
 62
     0
 48
50.0
370
    -2
100
AcDbLine
 10
7042.765475140901
 20
6105.293243334536
 30
0.0
 11
7104.935244228937
 21
6105.293243334536
 31
0.0
  0
LINE
  5
23567
330
23141
100
AcDbEntity
  8
寸法
 62
     0
 48
50.0
370
    -2
100
AcDbLine
 10
7333.600000000008
 20
6585.293243334525
 30
0.0
 11
6984.935244228939
 21
6585.293243334525
 31
0.0
  0
LINE
  5
23568
330
23141
100
AcDbEntity
  8
寸法
 62
     0
 48
50.0
370
    -2
100
AcDbLine
 10
7044.935244228938
 20
6585.293243334525
 30
0.0
 11
7044.935244228938
 21
6105.293243334536
 31
0.0
  0
LINE
  5
23569
330
23141
100
AcDbEntity
  8
寸法
 62
     0
 48
50.0
370
    -2
100
AcDbLine
 10
7044.935244228938
 20
6105.293243334536
 30
0.0
 11
7044.935244228938
 21
5697.19875514556
 31
0.0
  0
INSERT
  5
2356A
330
23141
100
AcDbEntity
  8
寸法
 62
     0
 48
50.0
370
    -2
100
AcDbBlockReference
  2
_DOTSMALL
 10
7044.935244228938
 20
6585.293243334525
 30
0.0
 41
100.0
 42
100.0
 43
100.0
 50
90.0
  0
INSERT
  5
2356B
330
23141
100
AcDbEntity
  8
寸法
 62
     0
 48
50.0
370
    -2
100
AcDbBlockReference
  2
_DOTSMALL
 10
7044.935244228938
 20
6105.293243334536
 30
0.0
 41
100.0
 42
100.0
 43
100.0
 50
270.0
  0
MTEXT
  5
2356C
330
23141
100
AcDbEntity
  8
寸法
 62
     7
 48
50.0
100
AcDbMText
 10
6944.935244228936
 20
5851.245999240049
 30
0.0
 40
120.0
 41
0.0
 71
     5
 72
     1
  1
\A1;480
  7
STYLE1
 11
0.0000000000000001
 21
1.0
 31
0.0
 73
     1
 44
1.0
1001
ACAD
1000
MTEXTBEGIN
1070
    73
1070
     1
1070
    44
1040
1.0
1070
    74
1070
     0
1000
MTEXTEND
  0
POINT
  5
2356D
330
23141
100
AcDbEntity
  8
DEFPOINTS
 62
     0
 48
50.0
100
AcDbPoint
 10
7022.7654751409
 20
6105.293243334536
 30
0.0
  0
POINT
  5
2356E
330
23141
100
AcDbEntity
  8
DEFPOINTS
 62
     0
 48
50.0
100
AcDbPoint
 10
7353.600000000007
 20
6585.293243334525
 30
0.0
  0
POINT
  5
2356F
330
23141
100
AcDbEntity
  8
DEFPOINTS
 62
     0
 48
50.0
100
AcDbPoint
 10
7044.935244228938
 20
6585.293243334525
 30
0.0
  0
ENDBLK
  5
2314D
330
23141
100
AcDbEntity
  8
0
 48
50.0
100
AcDbBlockEnd
  0
BLOCK
  5
23158
330
2314E
100
AcDbEntity
  8
0
 48
50.0
100
AcDbBlockBegin
  2
*D36
 70
     1
 10
0.0
 20
0.0
 30
0.0
  3
*D36
  1

  0
LINE
  5
2355D
330
2314E
100
AcDbEntity
  8
寸法
 62
     0
 48
50.0
370
    -2
100
AcDbLine
 10
6558.600000000004
 20
6105.293243334521
 30
0.0
 11
6405.512673767882
 21
6105.293243334521
 31
0.0
  0
LINE
  5
2355E
330
2314E
100
AcDbEntity
  8
寸法
 62
     0
 48
50.0
370
    -2
100
AcDbLine
 10
6914.32532692881
 20
5385.293243334522
 30
0.0
 11
6405.512673767882
 21
5385.293243334522
 31
0.0
  0
LINE
  5
2355F
330
2314E
100
AcDbEntity
  8
寸法
 62
     0
 48
50.0
370
    -2
100
AcDbLine
 10
6465.512673767881
 20
6105.293243334521
 30
0.0
 11
6465.512673767881
 21
5385.293243334522
 31
0.0
  0
INSERT
  5
23560
330
2314E
100
AcDbEntity
  8
寸法
 62
     0
 48
50.0
370
    -2
100
AcDbBlockReference
  2
_DOTSMALL
 10
6465.512673767881
 20
6105.293243334521
 30
0.0
 41
100.0
 42
100.0
 43
100.0
 50
90.0
  0
INSERT
  5
23561
330
2314E
100
AcDbEntity
  8
寸法
 62
     0
 48
50.0
370
    -2
100
AcDbBlockReference
  2
_DOTSMALL
 10
6465.512673767881
 20
5385.293243334522
 30
0.0
 41
100.0
 42
100.0
 43
100.0
 50
270.0
  0
MTEXT
  5
23562
330
2314E
100
AcDbEntity
  8
寸法
 62
     7
 48
50.0
100
AcDbMText
 10
6365.500862744259
 20
5745.293243334523
 30
0.0
 40
120.0
 41
0.0
 71
     5
 72
     1
  1
\A1;扉の出720
  7
STYLE1
 11
0.0000000000000001
 21
1.0
 31
0.0
 73
     1
 44
1.0
1001
ACAD
1000
MTEXTBEGIN
1070
    73
1070
     1
1070
    44
1040
1.0
1070
    74
1070
     0
1000
MTEXTEND
  0
POINT
  5
23563
330
2314E
100
AcDbEntity
  8
DEFPOINTS
 62
     0
 48
50.0
100
AcDbPoint
 10
6578.600000000005
 20
6105.293243334521
 30
0.0
  0
POINT
  5
23564
330
2314E
100
AcDbEntity
  8
DEFPOINTS
 62
     0
 48
50.0
100
AcDbPoint
 10
6934.325326928808
 20
5385.293243334522
 30
0.0
  0
POINT
  5
23565
330
2314E
100
AcDbEntity
  8
DEFPOINTS
 62
     0
 48
50.0
100
AcDbPoint
 10
6465.512673767881
 20
5385.293243334522
 30
0.0
  0
ENDBLK
  5
23159
330
2314E
100
AcDbEntity
  8
0
 48
50.0
100
AcDbBlockEnd
  0
BLOCK
  5
23165
330
2315A
100
AcDbEntity
  8
0
 48
50.0
100
AcDbBlockBegin
  2
*D37
 70
     1
 10
0.0
 20
0.0
 30
0.0
  3
*D37
  1

  0
LINE
  5
23601
330
2315A
100
AcDbEntity
  8
寸法
 62
     0
 48
50.0
370
    -2
100
AcDbLine
 10
6631.600000000007
 20
6303.293243334529
 30
0.0
 11
5895.665006330073
 21
6303.293243334529
 31
0.0
  0
LINE
  5
23602
330
2315A
100
AcDbEntity
  8
寸法
 62
     0
 48
50.0
370
    -2
100
AcDbLine
 10
6558.6
 20
6105.293243334525
 30
0.0
 11
5895.665006330072
 21
6105.293243334526
 31
0.0
  0
LINE
  5
23603
330
2315A
100
AcDbEntity
  8
寸法
 62
     0
 48
50.0
370
    -2
100
AcDbLine
 10
5955.665006330073
 20
6303.293243334529
 30
0.0
 11
5955.665006330072
 21
6105.293243334526
 31
0.0
  0
LINE
  5
23604
330
2315A
100
AcDbEntity
  8
寸法
 62
     0
 48
50.0
370
    -2
100
AcDbLine
 10
5955.665006330072
 20
6105.293243334526
 30
0.0
 11
5955.665006330072
 21
5633.552634662276
 31
0.0
  0
INSERT
  5
23605
330
2315A
100
AcDbEntity
  8
寸法
 62
     0
 48
50.0
370
    -2
100
AcDbBlockReference
  2
_DOTSMALL
 10
5955.665006330073
 20
6303.293243334529
 30
0.0
 41
100.0
 42
100.0
 43
100.0
 50
90.0
  0
INSERT
  5
23606
330
2315A
100
AcDbEntity
  8
寸法
 62
     0
 48
50.0
370
    -2
100
AcDbBlockReference
  2
_DOTSMALL
 10
5955.665006330072
 20
6105.293243334526
 30
0.0
 41
100.0
 42
100.0
 43
100.0
 50
270.0
  0
MTEXT
  5
23607
330
2315A
100
AcDbEntity
  8
寸法
 62
     7
 48
50.0
100
AcDbMText
 10
5855.665006330071
 20
5769.762294491933
 30
0.0
 40
120.0
 41
0.0
 71
     5
 72
     1
  1
\A1;198
  7
STYLE1
 11
0.0000000000000001
 21
1.0
 31
0.0
 73
     1
 44
1.0
1001
ACAD
1000
MTEXTBEGIN
1070
    73
1070
     1
1070
    44
1040
1.0
1070
    74
1070
     0
1000
MTEXTEND
  0
POINT
  5
23608
330
2315A
100
AcDbEntity
  8
DEFPOINTS
 62
     0
 48
50.0
100
AcDbPoint
 10
6651.600000000008
 20
6303.293243334529
 30
0.0
  0
POINT
  5
23609
330
2315A
100
AcDbEntity
  8
DEFPOINTS
 62
     0
 48
50.0
100
AcDbPoint
 10
6578.6
 20
6105.293243334525
 30
0.0
  0
POINT
  5
2360A
330
2315A
100
AcDbEntity
  8
DEFPOINTS
 62
     0
 48
50.0
100
AcDbPoint
 10
5955.665006330072
 20
6105.293243334526
 30
0.0
  0
ENDBLK
  5
23166
330
2315A
100
AcDbEntity
  8
0
 48
50.0
100
AcDbBlockEnd
  0
BLOCK
  5
23189
330
23180
100
AcDbEntity
  8
0
 48
50.0
100
AcDbBlockBegin
  2
*D38
 70
     1
 10
0.0
 20
0.0
 30
0.0
  3
*D38
  1

  0
LINE
  5
2354A
330
23180
100
AcDbEntity
  8
寸法
 62
     0
 48
50.0
370
    -2
100
AcDbLine
 10
8105.6
 20
7012.293243334525
 30
0.0
 11
8105.6
 21
7851.559701428435
 31
0.0
  0
LINE
  5
2354B
330
23180
100
AcDbEntity
  8
寸法
 62
     0
 48
50.0
370
    -2
100
AcDbLine
 10
6701.6
 20
7012.293243334525
 30
0.0
 11
6701.6
 21
7851.559701428435
 31
0.0
  0
LINE
  5
2354C
330
23180
100
AcDbEntity
  8
寸法
 62
     0
 48
50.0
370
    -2
100
AcDbLine
 10
8105.6
 20
7791.559701428436
 30
0.0
 11
6701.6
 21
7791.559701428436
 31
0.0
  0
INSERT
  5
2354D
330
23180
100
AcDbEntity
  8
寸法
 62
     0
 48
50.0
370
    -2
100
AcDbBlockReference
  2
_DOTSMALL
 10
8105.6
 20
7791.559701428436
 30
0.0
 41
100.0
 42
100.0
 43
100.0
  0
INSERT
  5
2354E
330
23180
100
AcDbEntity
  8
寸法
 62
     0
 48
50.0
370
    -2
100
AcDbBlockReference
  2
_DOTSMALL
 10
6701.6
 20
7791.559701428436
 30
0.0
 41
100.0
 42
100.0
 43
100.0
 50
180.0
  0
MTEXT
  5
2354F
330
23180
100
AcDbEntity
  8
寸法
 62
     7
 48
50.0
100
AcDbMText
 10
7403.6
 20
7891.559701428436
 30
0.0
 40
120.0
 41
0.0
 71
     5
 72
     1
  1
\A1;1404
  7
STYLE1
 73
     1
 44
1.0
1001
ACAD
1000
MTEXTBEGIN
1070
    73
1070
     1
1070
    44
1040
1.0
1070
    74
1070
     0
1000
MTEXTEND
  0
POINT
  5
23550
330
23180
100
AcDbEntity
  8
DEFPOINTS
 62
     0
 48
50.0
100
AcDbPoint
 10
8105.6
 20
6992.293243334525
 30
0.0
  0
POINT
  5
23551
330
23180
100
AcDbEntity
  8
DEFPOINTS
 62
     0
 48
50.0
100
AcDbPoint
 10
6701.6
 20
6992.293243334525
 30
0.0
  0
POINT
  5
23552
330
23180
100
AcDbEntity
  8
DEFPOINTS
 62
     0
 48
50.0
100
AcDbPoint
 10
6701.6
 20
7791.559701428436
 30
0.0
  0
ENDBLK
  5
2318A
330
23180
100
AcDbEntity
  8
0
 48
50.0
100
AcDbBlockEnd
  0
BLOCK
  5
23195
330
2318B
100
AcDbEntity
  8
0
 48
50.0
100
AcDbBlockBegin
  2
*D39
 70
     1
 10
0.0
 20
0.0
 30
0.0
  3
*D39
  1

  0
LINE
  5
23541
330
2318B
100
AcDbEntity
  8
寸法
 62
     0
 48
50.0
370
    -2
100
AcDbLine
 10
7403.600000000007
 20
6655.293243334525
 30
0.0
 11
7403.600000000007
 21
7607.902060004774
 31
0.0
  0
LINE
  5
23542
330
2318B
100
AcDbEntity
  8
寸法
 62
     0
 48
50.0
370
    -2
100
AcDbLine
 10
6578.6
 20
7085.293243334525
 30
0.0
 11
6578.6
 21
7607.902060004774
 31
0.0
  0
LINE
  5
23543
330
2318B
100
AcDbEntity
  8
寸法
 62
     0
 48
50.0
370
    -2
100
AcDbLine
 10
7403.600000000007
 20
7547.902060004773
 30
0.0
 11
6578.6
 21
7547.902060004773
 31
0.0
  0
INSERT
  5
23544
330
2318B
100
AcDbEntity
  8
寸法
 62
     0
 48
50.0
370
    -2
100
AcDbBlockReference
  2
_DOTSMALL
 10
7403.600000000007
 20
7547.902060004773
 30
0.0
 41
100.0
 42
100.0
 43
100.0
  0
INSERT
  5
23545
330
2318B
100
AcDbEntity
  8
寸法
 62
     0
 48
50.0
370
    -2
100
AcDbBlockReference
  2
_DOTSMALL
 10
6578.6
 20
7547.902060004773
 30
0.0
 41
100.0
 42
100.0
 43
100.0
 50
180.0
  0
MTEXT
  5
23546
330
2318B
100
AcDbEntity
  8
寸法
 62
     7
 48
50.0
100
AcDbMText
 10
6991.100000000004
 20
7647.913871028395
 30
0.0
 40
120.0
 41
0.0
 71
     5
 72
     1
  1
\A1;825
  7
STYLE1
 73
     1
 44
1.0
1001
ACAD
1000
MTEXTBEGIN
1070
    73
1070
     1
1070
    44
1040
1.0
1070
    74
1070
     0
1000
MTEXTEND
  0
POINT
  5
23547
330
2318B
100
AcDbEntity
  8
DEFPOINTS
 62
     0
 48
50.0
100
AcDbPoint
 10
7403.600000000007
 20
6635.293243334524
 30
0.0
  0
POINT
  5
23548
330
2318B
100
AcDbEntity
  8
DEFPOINTS
 62
     0
 48
50.0
100
AcDbPoint
 10
6578.6
 20
7065.293243334526
 30
0.0
  0
POINT
  5
23549
330
2318B
100
AcDbEntity
  8
DEFPOINTS
 62
     0
 48
50.0
100
AcDbPoint
 10
6578.6
 20
7547.902060004773
 30
0.0
  0
ENDBLK
  5
23196
330
2318B
100
AcDbEntity
  8
0
 48
50.0
100
AcDbBlockEnd
  0
BLOCK
  5
231AF
330
231A4
100
AcDbEntity
  8
0
 48
50.0
100
AcDbBlockBegin
  2
*D40
 70
     1
 10
0.0
 20
0.0
 30
0.0
  3
*D40
  1

  0
LINE
  5
23537
330
231A4
100
AcDbEntity
  8
寸法
 62
     0
 48
50.0
370
    -2
100
AcDbLine
 10
6701.6
 20
7012.293243334525
 30
0.0
 11
6701.6
 21
7851.559701428435
 31
0.0
  0
LINE
  5
23538
330
231A4
100
AcDbEntity
  8
寸法
 62
     0
 48
50.0
370
    -2
100
AcDbLine
 10
6578.6
 20
7085.293243334525
 30
0.0
 11
6578.6
 21
7851.559701428435
 31
0.0
  0
LINE
  5
23539
330
231A4
100
AcDbEntity
  8
寸法
 62
     0
 48
50.0
370
    -2
100
AcDbLine
 10
6701.6
 20
7791.559701428436
 30
0.0
 11
6578.6
 21
7791.559701428436
 31
0.0
  0
LINE
  5
2353A
330
231A4
100
AcDbEntity
  8
寸法
 62
     0
 48
50.0
370
    -2
100
AcDbLine
 10
6578.6
 20
7791.559701428436
 30
0.0
 11
6167.008116907963
 21
7791.559701428436
 31
0.0
  0
INSERT
  5
2353B
330
231A4
100
AcDbEntity
  8
寸法
 62
     0
 48
50.0
370
    -2
100
AcDbBlockReference
  2
_DOTSMALL
 10
6701.6
 20
7791.559701428436
 30
0.0
 41
100.0
 42
100.0
 43
100.0
  0
INSERT
  5
2353C
330
231A4
100
AcDbEntity
  8
寸法
 62
     0
 48
50.0
370
    -2
100
AcDbBlockReference
  2
_DOTSMALL
 10
6578.6
 20
7791.559701428436
 30
0.0
 41
100.0
 42
100.0
 43
100.0
 50
180.0
  0
MTEXT
  5
2353D
330
231A4
100
AcDbEntity
  8
寸法
 62
     7
 48
50.0
100
AcDbMText
 10
6305.493398282202
 20
7891.571512452057
 30
0.0
 40
120.0
 41
0.0
 71
     5
 72
     1
  1
\A1;123
  7
STYLE1
 73
     1
 44
1.0
1001
ACAD
1000
MTEXTBEGIN
1070
    73
1070
     1
1070
    44
1040
1.0
1070
    74
1070
     0
1000
MTEXTEND
  0
POINT
  5
2353E
330
231A4
100
AcDbEntity
  8
DEFPOINTS
 62
     0
 48
50.0
100
AcDbPoint
 10
6701.6
 20
6992.293243334525
 30
0.0
  0
POINT
  5
2353F
330
231A4
100
AcDbEntity
  8
DEFPOINTS
 62
     0
 48
50.0
100
AcDbPoint
 10
6578.6
 20
7065.293243334526
 30
0.0
  0
POINT
  5
23540
330
231A4
100
AcDbEntity
  8
DEFPOINTS
 62
     0
 48
50.0
100
AcDbPoint
 10
6578.6
 20
7791.559701428436
 30
0.0
  0
ENDBLK
  5
231B0
330
231A4
100
AcDbEntity
  8
0
 48
50.0
100
AcDbBlockEnd
  0
BLOCK
  5
231BC
330
231B1
100
AcDbEntity
  8
0
 48
50.0
100
AcDbBlockBegin
  2
*D41
 70
     1
 10
0.0
 20
0.0
 30
0.0
  3
*D41
  1

  0
LINE
  5
2352D
330
231B1
100
AcDbEntity
  8
寸法
 62
     0
 48
50.0
370
    -2
100
AcDbLine
 10
6558.6
 20
7065.293243334526
 30
0.0
 11
5895.665006330073
 21
7065.293243334526
 31
0.0
  0
LINE
  5
2352E
330
231B1
100
AcDbEntity
  8
寸法
 62
     0
 48
50.0
370
    -2
100
AcDbLine
 10
6631.6
 20
6942.293243334525
 30
0.0
 11
5895.665006330073
 21
6942.293243334527
 31
0.0
  0
LINE
  5
2352F
330
231B1
100
AcDbEntity
  8
寸法
 62
     0
 48
50.0
370
    -2
100
AcDbLine
 10
5955.665006330073
 20
6942.293243334527
 30
0.0
 11
5955.665006330073
 21
7065.293243334526
 31
0.0
  0
LINE
  5
23530
330
231B1
100
AcDbEntity
  8
寸法
 62
     0
 48
50.0
370
    -2
100
AcDbLine
 10
5955.665006330073
 20
7065.293243334526
 30
0.0
 11
5955.665006330073
 21
7476.885126426563
 31
0.0
  0
INSERT
  5
23531
330
231B1
100
AcDbEntity
  8
寸法
 62
     0
 48
50.0
370
    -2
100
AcDbBlockReference
  2
_DOTSMALL
 10
5955.665006330073
 20
6942.293243334527
 30
0.0
 41
100.0
 42
100.0
 43
100.0
 50
270.0
  0
INSERT
  5
23532
330
231B1
100
AcDbEntity
  8
寸法
 62
     0
 48
50.0
370
    -2
100
AcDbBlockReference
  2
_DOTSMALL
 10
5955.665006330073
 20
7065.293243334526
 30
0.0
 41
100.0
 42
100.0
 43
100.0
 50
90.0
  0
MTEXT
  5
23533
330
231B1
100
AcDbEntity
  8
寸法
 62
     7
 48
50.0
100
AcDbMText
 10
5855.65319530645
 20
7338.399845052325
 30
0.0
 40
120.0
 41
0.0
 71
     5
 72
     1
  1
\A1;123
  7
STYLE1
 11
0.0000000000000001
 21
1.0
 31
0.0
 73
     1
 44
1.0
1001
ACAD
1000
MTEXTBEGIN
1070
    73
1070
     1
1070
    44
1040
1.0
1070
    74
1070
     0
1000
MTEXTEND
  0
POINT
  5
23534
330
231B1
100
AcDbEntity
  8
DEFPOINTS
 62
     0
 48
50.0
100
AcDbPoint
 10
6578.6
 20
7065.293243334526
 30
0.0
  0
POINT
  5
23535
330
231B1
100
AcDbEntity
  8
DEFPOINTS
 62
     0
 48
50.0
100
AcDbPoint
 10
6651.600000000001
 20
6942.293243334525
 30
0.0
  0
POINT
  5
23536
330
231B1
100
AcDbEntity
  8
DEFPOINTS
 62
     0
 48
50.0
100
AcDbPoint
 10
5955.665006330073
 20
6942.293243334527
 30
0.0
  0
ENDBLK
  5
231BD
330
231B1
100
AcDbEntity
  8
0
 48
50.0
100
AcDbBlockEnd
  0
BLOCK
  5
231D1
330
231C8
100
AcDbEntity
  8
0
 48
50.0
100
AcDbBlockBegin
  2
*D42
 70
     1
 10
0.0
 20
0.0
 30
0.0
  3
*D42
  1

  0
LINE
  5
23524
330
231C8
100
AcDbEntity
  8
寸法
 62
     0
 48
50.0
370
    -2
100
AcDbLine
 10
8223.600000000008
 20
6655.293243334525
 30
0.0
 11
8223.600000000008
 21
7607.902060004774
 31
0.0
  0
LINE
  5
23525
330
231C8
100
AcDbEntity
  8
寸法
 62
     0
 48
50.0
370
    -2
100
AcDbLine
 10
7403.600000000007
 20
6655.293243334525
 30
0.0
 11
7403.600000000007
 21
7607.902060004774
 31
0.0
  0
LINE
  5
23526
330
231C8
100
AcDbEntity
  8
寸法
 62
     0
 48
50.0
370
    -2
100
AcDbLine
 10
8223.600000000008
 20
7547.902060004773
 30
0.0
 11
7403.600000000007
 21
7547.902060004773
 31
0.0
  0
INSERT
  5
23527
330
231C8
100
AcDbEntity
  8
寸法
 62
     0
 48
50.0
370
    -2
100
AcDbBlockReference
  2
_DOTSMALL
 10
8223.600000000008
 20
7547.902060004773
 30
0.0
 41
100.0
 42
100.0
 43
100.0
  0
INSERT
  5
23528
330
231C8
100
AcDbEntity
  8
寸法
 62
     0
 48
50.0
370
    -2
100
AcDbBlockReference
  2
_DOTSMALL
 10
7403.600000000007
 20
7547.902060004773
 30
0.0
 41
100.0
 42
100.0
 43
100.0
 50
180.0
  0
MTEXT
  5
23529
330
231C8
100
AcDbEntity
  8
寸法
 62
     7
 48
50.0
100
AcDbMText
 10
7813.600000000008
 20
7647.913871028395
 30
0.0
 40
120.0
 41
0.0
 71
     5
 72
     1
  1
\A1;820
  7
STYLE1
 73
     1
 44
1.0
1001
ACAD
1000
MTEXTBEGIN
1070
    73
1070
     1
1070
    44
1040
1.0
1070
    74
1070
     0
1000
MTEXTEND
  0
POINT
  5
2352A
330
231C8
100
AcDbEntity
  8
DEFPOINTS
 62
     0
 48
50.0
100
AcDbPoint
 10
8223.600000000008
 20
6635.293243334524
 30
0.0
  0
POINT
  5
2352B
330
231C8
100
AcDbEntity
  8
DEFPOINTS
 62
     0
 48
50.0
100
AcDbPoint
 10
7403.600000000007
 20
6635.293243334524
 30
0.0
  0
POINT
  5
2352C
330
231C8
100
AcDbEntity
  8
DEFPOINTS
 62
     0
 48
50.0
100
AcDbPoint
 10
7403.600000000007
 20
7547.902060004773
 30
0.0
  0
ENDBLK
  5
231D2
330
231C8
100
AcDbEntity
  8
0
 48
50.0
100
AcDbBlockEnd
  0
BLOCK
  5
231EB
330
231E0
100
AcDbEntity
  8
0
 48
50.0
100
AcDbBlockBegin
  2
*D43
 70
     1
 10
0.0
 20
0.0
 30
0.0
  3
*D43
  1

  0
LINE
  5
2351A
330
231E0
100
AcDbEntity
  8
寸法
 62
     0
 48
50.0
370
    -2
100
AcDbLine
 10
7333.600000000008
 20
6585.293243334525
 30
0.0
 11
6984.935244228939
 21
6585.293243334525
 31
0.0
  0
LINE
  5
2351B
330
231E0
100
AcDbEntity
  8
寸法
 62
     0
 48
50.0
370
    -2
100
AcDbLine
 10
7164.267622114472
 20
7065.293243334526
 30
0.0
 11
6984.935244228939
 21
7065.293243334526
 31
0.0
  0
LINE
  5
2351C
330
231E0
100
AcDbEntity
  8
寸法
 62
     0
 48
50.0
370
    -2
100
AcDbLine
 10
7044.935244228938
 20
6585.293243334525
 30
0.0
 11
7044.935244228938
 21
7065.293243334526
 31
0.0
  0
LINE
  5
2351D
330
231E0
100
AcDbEntity
  8
寸法
 62
     0
 48
50.0
370
    -2
100
AcDbLine
 10
7044.935244228938
 20
7065.293243334526
 30
0.0
 11
7044.935244228938
 21
7511.899542547123
 31
0.0
  0
INSERT
  5
2351E
330
231E0
100
AcDbEntity
  8
寸法
 62
     0
 48
50.0
370
    -2
100
AcDbBlockReference
  2
_DOTSMALL
 10
7044.935244228938
 20
6585.293243334525
 30
0.0
 41
100.0
 42
100.0
 43
100.0
 50
270.0
  0
INSERT
  5
2351F
330
231E0
100
AcDbEntity
  8
寸法
 62
     0
 48
50.0
370
    -2
100
AcDbBlockReference
  2
_DOTSMALL
 10
7044.935244228938
 20
7065.293243334526
 30
0.0
 41
100.0
 42
100.0
 43
100.0
 50
90.0
  0
MTEXT
  5
23520
330
231E0
100
AcDbEntity
  8
寸法
 62
     7
 48
50.0
100
AcDbMText
 10
6944.935244228936
 20
7357.852298452637
 30
0.0
 40
120.0
 41
0.0
 71
     5
 72
     1
  1
\A1;480
  7
STYLE1
 11
0.0000000000000001
 21
1.0
 31
0.0
 73
     1
 44
1.0
1001
ACAD
1000
MTEXTBEGIN
1070
    73
1070
     1
1070
    44
1040
1.0
1070
    74
1070
     0
1000
MTEXTEND
  0
POINT
  5
23521
330
231E0
100
AcDbEntity
  8
DEFPOINTS
 62
     0
 48
50.0
100
AcDbPoint
 10
7353.600000000007
 20
6585.293243334525
 30
0.0
  0
POINT
  5
23522
330
231E0
100
AcDbEntity
  8
DEFPOINTS
 62
     0
 48
50.0
100
AcDbPoint
 10
7184.267622114473
 20
7065.293243334526
 30
0.0
  0
POINT
  5
23523
330
231E0
100
AcDbEntity
  8
DEFPOINTS
 62
     0
 48
50.0
100
AcDbPoint
 10
7044.935244228938
 20
7065.293243334526
 30
0.0
  0
ENDBLK
  5
231EC
330
231E0
100
AcDbEntity
  8
0
 48
50.0
100
AcDbBlockEnd
  0
BLOCK
  5
23205
330
231FA
100
AcDbEntity
  8
0
 48
50.0
100
AcDbBlockBegin
  2
*D44
 70
     1
 10
0.0
 20
0.0
 30
0.0
  3
*D44
  1

  0
LINE
  5
23510
330
231FA
100
AcDbEntity
  8
寸法
 62
     0
 48
50.0
370
    -2
100
AcDbLine
 10
9868.6
 20
7085.293243334525
 30
0.0
 11
9868.6
 21
7851.559701428435
 31
0.0
  0
LINE
  5
23511
330
231FA
100
AcDbEntity
  8
寸法
 62
     0
 48
50.0
370
    -2
100
AcDbLine
 10
9745.600000000001
 20
7012.293243334525
 30
0.0
 11
9745.600000000001
 21
7851.559701428435
 31
0.0
  0
LINE
  5
23512
330
231FA
100
AcDbEntity
  8
寸法
 62
     0
 48
50.0
370
    -2
100
AcDbLine
 10
9745.600000000001
 20
7791.559701428436
 30
0.0
 11
9868.6
 21
7791.559701428436
 31
0.0
  0
LINE
  5
23513
330
231FA
100
AcDbEntity
  8
寸法
 62
     0
 48
50.0
370
    -2
100
AcDbLine
 10
9868.6
 20
7791.559701428436
 30
0.0
 11
10280.19188309204
 21
7791.559701428436
 31
0.0
  0
INSERT
  5
23514
330
231FA
100
AcDbEntity
  8
寸法
 62
     0
 48
50.0
370
    -2
100
AcDbBlockReference
  2
_DOTSMALL
 10
9745.600000000001
 20
7791.559701428436
 30
0.0
 41
100.0
 42
100.0
 43
100.0
 50
180.0
  0
INSERT
  5
23515
330
231FA
100
AcDbEntity
  8
寸法
 62
     0
 48
50.0
370
    -2
100
AcDbBlockReference
  2
_DOTSMALL
 10
9868.6
 20
7791.559701428436
 30
0.0
 41
100.0
 42
100.0
 43
100.0
  0
MTEXT
  5
23516
330
231FA
100
AcDbEntity
  8
寸法
 62
     7
 48
50.0
100
AcDbMText
 10
10141.7066017178
 20
7891.571512452057
 30
0.0
 40
120.0
 41
0.0
 71
     5
 72
     1
  1
\A1;123
  7
STYLE1
 73
     1
 44
1.0
1001
ACAD
1000
MTEXTBEGIN
1070
    73
1070
     1
1070
    44
1040
1.0
1070
    74
1070
     0
1000
MTEXTEND
  0
POINT
  5
23517
330
231FA
100
AcDbEntity
  8
DEFPOINTS
 62
     0
 48
50.0
100
AcDbPoint
 10
9868.6
 20
7065.293243334526
 30
0.0
  0
POINT
  5
23518
330
231FA
100
AcDbEntity
  8
DEFPOINTS
 62
     0
 48
50.0
100
AcDbPoint
 10
9745.600000000001
 20
6992.293243334525
 30
0.0
  0
POINT
  5
23519
330
231FA
100
AcDbEntity
  8
DEFPOINTS
 62
     0
 48
50.0
100
AcDbPoint
 10
9745.600000000001
 20
7791.559701428436
 30
0.0
  0
ENDBLK
  5
23206
330
231FA
100
AcDbEntity
  8
0
 48
50.0
100
AcDbBlockEnd
  0
BLOCK
  5
2321E
330
23214
100
AcDbEntity
  8
0
 48
50.0
100
AcDbBlockBegin
  2
*D45
 70
     1
 10
0.0
 20
0.0
 30
0.0
  3
*D45
  1

  0
LINE
  5
23507
330
23214
100
AcDbEntity
  8
寸法
 62
     0
 48
50.0
370
    -2
100
AcDbLine
 10
9868.6
 20
7085.293243334525
 30
0.0
 11
9868.6
 21
7607.902060004774
 31
0.0
  0
LINE
  5
23508
330
23214
100
AcDbEntity
  8
寸法
 62
     0
 48
50.0
370
    -2
100
AcDbLine
 10
9043.600000000008
 20
6655.293243334525
 30
0.0
 11
9043.600000000008
 21
7607.902060004774
 31
0.0
  0
LINE
  5
23509
330
23214
100
AcDbEntity
  8
寸法
 62
     0
 48
50.0
370
    -2
100
AcDbLine
 10
9868.6
 20
7547.902060004773
 30
0.0
 11
9043.600000000008
 21
7547.902060004773
 31
0.0
  0
INSERT
  5
2350A
330
23214
100
AcDbEntity
  8
寸法
 62
     0
 48
50.0
370
    -2
100
AcDbBlockReference
  2
_DOTSMALL
 10
9868.6
 20
7547.902060004773
 30
0.0
 41
100.0
 42
100.0
 43
100.0
  0
INSERT
  5
2350B
330
23214
100
AcDbEntity
  8
寸法
 62
     0
 48
50.0
370
    -2
100
AcDbBlockReference
  2
_DOTSMALL
 10
9043.600000000008
 20
7547.902060004773
 30
0.0
 41
100.0
 42
100.0
 43
100.0
 50
180.0
  0
MTEXT
  5
2350C
330
23214
100
AcDbEntity
  8
寸法
 62
     7
 48
50.0
100
AcDbMText
 10
9456.100000000004
 20
7647.913871028395
 30
0.0
 40
120.0
 41
0.0
 71
     5
 72
     1
  1
\A1;825
  7
STYLE1
 73
     1
 44
1.0
1001
ACAD
1000
MTEXTBEGIN
1070
    73
1070
     1
1070
    44
1040
1.0
1070
    74
1070
     0
1000
MTEXTEND
  0
POINT
  5
2350D
330
23214
100
AcDbEntity
  8
DEFPOINTS
 62
     0
 48
50.0
100
AcDbPoint
 10
9868.6
 20
7065.293243334526
 30
0.0
  0
POINT
  5
2350E
330
23214
100
AcDbEntity
  8
DEFPOINTS
 62
     0
 48
50.0
100
AcDbPoint
 10
9043.600000000008
 20
6635.293243334524
 30
0.0
  0
POINT
  5
2350F
330
23214
100
AcDbEntity
  8
DEFPOINTS
 62
     0
 48
50.0
100
AcDbPoint
 10
9043.600000000008
 20
7547.902060004773
 30
0.0
  0
ENDBLK
  5
2321F
330
23214
100
AcDbEntity
  8
0
 48
50.0
100
AcDbBlockEnd
  0
BLOCK
  5
23621
330
2361F
100
AcDbEntity
  8
0
 48
50.0
100
AcDbBlockBegin
  2
A$C4B224CBE
 70
     0
 10
0.0
 20
0.0
 30
0.0
  3
A$C4B224CBE
  1

  0
TEXT
  5
23620
330
2361F
100
AcDbEntity
  8
文字
 62
     7
 48
50.0
100
AcDbText
 10
-2056.0
 20
-361.7472729270812
 30
0.0
 40
100.0
  1
～一般型・多雪地型・豪雪地型～
  7
STYLE2
100
AcDbText
  0
ENDBLK
  5
23622
330
2361F
100
AcDbEntity
  8
0
 48
50.0
100
AcDbBlockEnd
  0
BLOCK
  5
2396D
330
23963
100
AcDbEntity
  8
0
 48
50.0
100
AcDbBlockBegin
  2
*D53
 70
     1
 10
0.0
 20
0.0
 30
0.0
  3
*D53
  1

  0
LINE
  5
239AD
330
23963
100
AcDbEntity
  8
寸法
 62
     0
 48
50.0
370
    -2
100
AcDbLine
 10
6351.362015309629
 20
2116.910315020623
 30
0.0
 11
6351.362015309629
 21
2576.578122937003
 31
0.0
  0
LINE
  5
239AE
330
23963
100
AcDbEntity
  8
寸法
 62
     0
 48
50.0
370
    -2
100
AcDbLine
 10
6159.36201530963
 20
2116.910315020623
 30
0.0
 11
6159.36201530963
 21
2576.578122937003
 31
0.0
  0
LINE
  5
239AF
330
23963
100
AcDbEntity
  8
寸法
 62
     0
 48
50.0
370
    -2
100
AcDbLine
 10
6351.362015309629
 20
2516.578122937004
 30
0.0
 11
6159.36201530963
 21
2516.578122937004
 31
0.0
  0
INSERT
  5
239B0
330
23963
100
AcDbEntity
  8
寸法
 62
     0
 48
50.0
370
    -2
100
AcDbBlockReference
  2
_DOTSMALL
 10
6351.362015309629
 20
2516.578122937004
 30
0.0
 41
100.0
 42
100.0
 43
100.0
  0
INSERT
  5
239B1
330
23963
100
AcDbEntity
  8
寸法
 62
     0
 48
50.0
370
    -2
100
AcDbBlockReference
  2
_DOTSMALL
 10
6159.36201530963
 20
2516.578122937004
 30
0.0
 41
100.0
 42
100.0
 43
100.0
 50
180.0
  0
MTEXT
  5
239B2
330
23963
100
AcDbEntity
  8
寸法
 62
     7
 48
50.0
100
AcDbMText
 10
6255.362015309629
 20
2816.613556007869
 30
0.0
 40
120.0
 41
0.0
 71
     5
 72
     1
  1
\A1;120\P200\P280
  7
STYLE1
 73
     1
 44
1.0
1001
ACAD
1000
MTEXTBEGIN
1070
    73
1070
     1
1070
    44
1040
1.0
1070
    74
1070
     0
1000
MTEXTEND
  0
POINT
  5
239B3
330
23963
100
AcDbEntity
  8
DEFPOINTS
 62
     0
 48
50.0
100
AcDbPoint
 10
6351.362015309629
 20
2096.910315020623
 30
0.0
  0
POINT
  5
239B4
330
23963
100
AcDbEntity
  8
DEFPOINTS
 62
     0
 48
50.0
100
AcDbPoint
 10
6159.36201530963
 20
2096.910315020623
 30
0.0
  0
POINT
  5
239B5
330
23963
100
AcDbEntity
  8
DEFPOINTS
 62
     0
 48
50.0
100
AcDbPoint
 10
6159.36201530963
 20
2516.578122937004
 30
0.0
  0
ENDBLK
  5
2396E
330
23963
100
AcDbEntity
  8
0
 48
50.0
100
AcDbBlockEnd
  0
BLOCK
  5
23979
330
2396F
100
AcDbEntity
  8
0
 48
50.0
100
AcDbBlockBegin
  2
*D54
 70
     1
 10
0.0
 20
0.0
 30
0.0
  3
*D54
  1

  0
LINE
  5
239B6
330
2396F
100
AcDbEntity
  8
寸法
 62
     0
 48
50.0
370
    -2
100
AcDbLine
 10
6031.36201530963
 20
1164.910315020623
 30
0.0
 11
6031.36201530963
 21
714.4806770154628
 31
0.0
  0
LINE
  5
239B7
330
2396F
100
AcDbEntity
  8
寸法
 62
     0
 48
50.0
370
    -2
100
AcDbLine
 10
6479.36201530963
 20
1164.910315020623
 30
0.0
 11
6479.36201530963
 21
714.4806770154628
 31
0.0
  0
LINE
  5
239B8
330
2396F
100
AcDbEntity
  8
寸法
 62
     0
 48
50.0
370
    -2
100
AcDbLine
 10
6031.36201530963
 20
774.4806770154627
 30
0.0
 11
6479.36201530963
 21
774.4806770154627
 31
0.0
  0
INSERT
  5
239B9
330
2396F
100
AcDbEntity
  8
寸法
 62
     0
 48
50.0
370
    -2
100
AcDbBlockReference
  2
_DOTSMALL
 10
6031.36201530963
 20
774.4806770154627
 30
0.0
 41
100.0
 42
100.0
 43
100.0
 50
180.0
  0
INSERT
  5
239BA
330
2396F
100
AcDbEntity
  8
寸法
 62
     0
 48
50.0
370
    -2
100
AcDbBlockReference
  2
_DOTSMALL
 10
6479.36201530963
 20
774.4806770154627
 30
0.0
 41
100.0
 42
100.0
 43
100.0
  0
MTEXT
  5
239BB
330
2396F
100
AcDbEntity
  8
寸法
 62
     7
 48
50.0
100
AcDbMText
 10
6235.265256631406
 20
874.4806770154628
 30
0.0
 40
120.0
 41
0.0
 71
     5
 72
     1
  1
\A1;300
  7
STYLE1
 73
     1
 44
1.0
1001
ACAD
1000
MTEXTBEGIN
1070
    73
1070
     1
1070
    44
1040
1.0
1070
    74
1070
     0
1000
MTEXTEND
  0
POINT
  5
239BC
330
2396F
100
AcDbEntity
  8
DEFPOINTS
 62
     0
 48
50.0
100
AcDbPoint
 10
6031.36201530963
 20
1184.910315020623
 30
0.0
  0
POINT
  5
239BD
330
2396F
100
AcDbEntity
  8
DEFPOINTS
 62
     0
 48
50.0
100
AcDbPoint
 10
6479.36201530963
 20
1184.910315020623
 30
0.0
  0
POINT
  5
239BE
330
2396F
100
AcDbEntity
  8
DEFPOINTS
 62
     0
 48
50.0
100
AcDbPoint
 10
6479.36201530963
 20
774.4806770154627
 30
0.0
  0
ENDBLK
  5
2397A
330
2396F
100
AcDbEntity
  8
0
 48
50.0
100
AcDbBlockEnd
  0
BLOCK
  5
23985
330
2397B
100
AcDbEntity
  8
0
 48
50.0
100
AcDbBlockBegin
  2
*D55
 70
     1
 10
0.0
 20
0.0
 30
0.0
  3
*D55
  1

  0
LINE
  5
239BF
330
2397B
100
AcDbEntity
  8
寸法
 62
     0
 48
50.0
370
    -2
100
AcDbLine
 10
6139.36201530963
 20
2096.910315020623
 30
0.0
 11
5364.32477674789
 21
2096.910315020623
 31
0.0
  0
LINE
  5
239C0
330
2397B
100
AcDbEntity
  8
寸法
 62
     0
 48
50.0
370
    -2
100
AcDbLine
 10
5931.362015309634
 20
1312.910315020623
 30
0.0
 11
5364.324776747889
 21
1312.910315020623
 31
0.0
  0
LINE
  5
239C1
330
2397B
100
AcDbEntity
  8
寸法
 62
     0
 48
50.0
370
    -2
100
AcDbLine
 10
5424.324776747891
 20
2096.910315020623
 30
0.0
 11
5424.32477674789
 21
1312.910315020623
 31
0.0
  0
INSERT
  5
239C2
330
2397B
100
AcDbEntity
  8
寸法
 62
     0
 48
50.0
370
    -2
100
AcDbBlockReference
  2
_DOTSMALL
 10
5424.324776747891
 20
2096.910315020623
 30
0.0
 41
100.0
 42
100.0
 43
100.0
 50
90.0
  0
INSERT
  5
239C3
330
2397B
100
AcDbEntity
  8
寸法
 62
     0
 48
50.0
370
    -2
100
AcDbBlockReference
  2
_DOTSMALL
 10
5424.32477674789
 20
1312.910315020623
 30
0.0
 41
100.0
 42
100.0
 43
100.0
 50
270.0
  0
MTEXT
  5
239C4
330
2397B
100
AcDbEntity
  8
寸法
 62
     7
 48
50.0
100
AcDbMText
 10
5324.324776747889
 20
1684.450464676623
 30
0.0
 40
120.0
 41
0.0
 71
     5
 72
     1
  1
\A1;540
  7
STYLE1
 11
0.0000000000000001
 21
1.0
 31
0.0
 73
     1
 44
1.0
1001
ACAD
1000
MTEXTBEGIN
1070
    73
1070
     1
1070
    44
1040
1.0
1070
    74
1070
     0
1000
MTEXTEND
  0
POINT
  5
239C5
330
2397B
100
AcDbEntity
  8
DEFPOINTS
 62
     0
 48
50.0
100
AcDbPoint
 10
6159.36201530963
 20
2096.910315020623
 30
0.0
  0
POINT
  5
239C6
330
2397B
100
AcDbEntity
  8
DEFPOINTS
 62
     0
 48
50.0
100
AcDbPoint
 10
5951.362015309634
 20
1312.910315020623
 30
0.0
  0
POINT
  5
239C7
330
2397B
100
AcDbEntity
  8
DEFPOINTS
 62
     0
 48
50.0
100
AcDbPoint
 10
5424.32477674789
 20
1312.910315020623
 30
0.0
  0
ENDBLK
  5
23986
330
2397B
100
AcDbEntity
  8
0
 48
50.0
100
AcDbBlockEnd
  0
BLOCK
  5
23991
330
23987
100
AcDbEntity
  8
0
 48
50.0
100
AcDbBlockBegin
  2
*D56
 70
     1
 10
0.0
 20
0.0
 30
0.0
  3
*D56
  1

  0
LINE
  5
239C8
330
23987
100
AcDbEntity
  8
寸法
 62
     0
 48
50.0
370
    -2
100
AcDbLine
 10
6011.36201530963
 20
1552.910315020623
 30
0.0
 11
5828.94170157717
 21
1552.910315020623
 31
0.0
  0
LINE
  5
239C9
330
23987
100
AcDbEntity
  8
寸法
 62
     0
 48
50.0
370
    -2
100
AcDbLine
 10
5931.362015309634
 20
1312.910315020623
 30
0.0
 11
5828.94170157717
 21
1312.910315020623
 31
0.0
  0
LINE
  5
239CA
330
23987
100
AcDbEntity
  8
寸法
 62
     0
 48
50.0
370
    -2
100
AcDbLine
 10
5888.94170157717
 20
1552.910315020623
 30
0.0
 11
5888.94170157717
 21
1312.910315020623
 31
0.0
  0
INSERT
  5
239CB
330
23987
100
AcDbEntity
  8
寸法
 62
     0
 48
50.0
370
    -2
100
AcDbBlockReference
  2
_DOTSMALL
 10
5888.94170157717
 20
1552.910315020623
 30
0.0
 41
100.0
 42
100.0
 43
100.0
 50
90.0
  0
INSERT
  5
239CC
330
23987
100
AcDbEntity
  8
寸法
 62
     0
 48
50.0
370
    -2
100
AcDbBlockReference
  2
_DOTSMALL
 10
5888.94170157717
 20
1312.910315020623
 30
0.0
 41
100.0
 42
100.0
 43
100.0
 50
270.0
  0
MTEXT
  5
239CD
330
23987
100
AcDbEntity
  8
寸法
 62
     7
 48
50.0
100
AcDbMText
 10
5788.94170157717
 20
1432.910315020624
 30
0.0
 40
120.0
 41
0.0
 71
     5
 72
     1
  1
\A1;150
  7
STYLE1
 11
0.0000000000000001
 21
1.0
 31
0.0
 73
     1
 44
1.0
1001
ACAD
1000
MTEXTBEGIN
1070
    73
1070
     1
1070
    44
1040
1.0
1070
    74
1070
     0
1000
MTEXTEND
  0
POINT
  5
239CE
330
23987
100
AcDbEntity
  8
DEFPOINTS
 62
     0
 48
50.0
100
AcDbPoint
 10
6031.36201530963
 20
1552.910315020623
 30
0.0
  0
POINT
  5
239CF
330
23987
100
AcDbEntity
  8
DEFPOINTS
 62
     0
 48
50.0
100
AcDbPoint
 10
5951.362015309634
 20
1312.910315020623
 30
0.0
  0
POINT
  5
239D0
330
23987
100
AcDbEntity
  8
DEFPOINTS
 62
     0
 48
50.0
100
AcDbPoint
 10
5888.94170157717
 20
1312.910315020623
 30
0.0
  0
ENDBLK
  5
23992
330
23987
100
AcDbEntity
  8
0
 48
50.0
100
AcDbBlockEnd
  0
BLOCK
  5
2399F
330
23993
100
AcDbEntity
  8
0
 48
50.0
100
AcDbBlockBegin
  2
*D57
 70
     1
 10
0.0
 20
0.0
 30
0.0
  3
*D57
  1

  0
LINE
  5
239D1
330
23993
100
AcDbEntity
  8
寸法
 62
     0
 48
50.0
370
    -2
100
AcDbLine
 10
8106.201328486823
 20
2149.670315020624
 30
0.0
 11
9111.324594374694
 21
2149.670315020624
 31
0.0
  0
LINE
  5
239D2
330
23993
100
AcDbEntity
  8
寸法
 62
     0
 48
50.0
370
    -2
100
AcDbLine
 10
8293.401328486822
 20
2096.910315020623
 30
0.0
 11
9111.324594374694
 21
2096.910315020623
 31
0.0
  0
LINE
  5
239D3
330
23993
100
AcDbEntity
  8
寸法
 62
     0
 48
50.0
370
    -2
100
AcDbLine
 10
9051.324594374696
 20
2149.670315020624
 30
0.0
 11
9051.324594374696
 21
2249.670315020624
 31
0.0
  0
LINE
  5
239D4
330
23993
100
AcDbEntity
  8
寸法
 62
     0
 48
50.0
370
    -2
100
AcDbLine
 10
9051.324594374696
 20
2096.910315020623
 30
0.0
 11
9051.324594374696
 21
1364.892508177656
 31
0.0
  0
LINE
  5
239D5
330
23993
100
AcDbEntity
  8
寸法
 62
     0
 48
50.0
370
    -2
100
AcDbLine
 10
9051.324594374696
 20
2149.670315020624
 30
0.0
 11
9051.324594374696
 21
2096.910315020623
 31
0.0
  0
INSERT
  5
239D6
330
23993
100
AcDbEntity
  8
寸法
 62
     0
 48
50.0
370
    -2
100
AcDbBlockReference
  2
_DOTSMALL
 10
9051.324594374696
 20
2149.670315020624
 30
0.0
 41
100.0
 42
100.0
 43
100.0
 50
270.0
  0
INSERT
  5
239D7
330
23993
100
AcDbEntity
  8
寸法
 62
     0
 48
50.0
370
    -2
100
AcDbBlockReference
  2
_DOTSMALL
 10
9051.324594374696
 20
2096.910315020623
 30
0.0
 41
100.0
 42
100.0
 43
100.0
 50
90.0
  0
MTEXT
  5
239D8
330
23993
100
AcDbEntity
  8
寸法
 62
     7
 48
50.0
100
AcDbMText
 10
8951.312783351074
 20
1630.90141159914
 30
0.0
 40
120.0
 41
0.0
 71
     5
 72
     1
  1
\A1;20～25
  7
STYLE1
 11
0.0000000000000001
 21
1.0
 31
0.0
 73
     1
 44
1.0
1001
ACAD
1000
MTEXTBEGIN
1070
    73
1070
     1
1070
    44
1040
1.0
1070
    74
1070
     0
1000
MTEXTEND
  0
POINT
  5
239D9
330
23993
100
AcDbEntity
  8
DEFPOINTS
 62
     0
 48
50.0
100
AcDbPoint
 10
8086.201328486824
 20
2149.670315020624
 30
0.0
  0
POINT
  5
239DA
330
23993
100
AcDbEntity
  8
DEFPOINTS
 62
     0
 48
50.0
100
AcDbPoint
 10
8273.401328486825
 20
2096.910315020623
 30
0.0
  0
POINT
  5
239DB
330
23993
100
AcDbEntity
  8
DEFPOINTS
 62
     0
 48
50.0
100
AcDbPoint
 10
9051.324594374696
 20
2096.910315020623
 30
0.0
  0
ENDBLK
  5
239A0
330
23993
100
AcDbEntity
  8
0
 48
50.0
100
AcDbBlockEnd
  0
BLOCK
  5
239AB
330
239A1
100
AcDbEntity
  8
0
 48
50.0
100
AcDbBlockBegin
  2
*D58
 70
     1
 10
0.0
 20
0.0
 30
0.0
  3
*D58
  1

  0
LINE
  5
239DC
330
239A1
100
AcDbEntity
  8
寸法
 62
     0
 48
50.0
370
    -2
100
AcDbLine
 10
8293.401328486822
 20
2096.910315020623
 30
0.0
 11
8835.269928255668
 21
2096.910315020623
 31
0.0
  0
LINE
  5
239DD
330
239A1
100
AcDbEntity
  8
寸法
 62
     0
 48
50.0
370
    -2
100
AcDbLine
 10
8293.401328486822
 20
1772.910315020622
 30
0.0
 11
8835.269928255668
 21
1772.910315020622
 31
0.0
  0
LINE
  5
239DE
330
239A1
100
AcDbEntity
  8
寸法
 62
     0
 48
50.0
370
    -2
100
AcDbLine
 10
8775.269928255667
 20
2096.910315020623
 30
0.0
 11
8775.269928255667
 21
1772.910315020622
 31
0.0
  0
INSERT
  5
239DF
330
239A1
100
AcDbEntity
  8
寸法
 62
     0
 48
50.0
370
    -2
100
AcDbBlockReference
  2
_DOTSMALL
 10
8775.269928255667
 20
2096.910315020623
 30
0.0
 41
100.0
 42
100.0
 43
100.0
 50
90.0
  0
INSERT
  5
239E0
330
239A1
100
AcDbEntity
  8
寸法
 62
     0
 48
50.0
370
    -2
100
AcDbBlockReference
  2
_DOTSMALL
 10
8775.269928255667
 20
1772.910315020622
 30
0.0
 41
100.0
 42
100.0
 43
100.0
 50
270.0
  0
MTEXT
  5
239E1
330
239A1
100
AcDbEntity
  8
寸法
 62
     7
 48
50.0
100
AcDbMText
 10
8675.269928255668
 20
1934.910315020624
 30
0.0
 40
120.0
 41
0.0
 71
     5
 72
     1
  1
\A1;180
  7
STYLE1
 11
0.0000000000000001
 21
1.0
 31
0.0
 73
     1
 44
1.0
1001
ACAD
1000
MTEXTBEGIN
1070
    73
1070
     1
1070
    44
1040
1.0
1070
    74
1070
     0
1000
MTEXTEND
  0
POINT
  5
239E2
330
239A1
100
AcDbEntity
  8
DEFPOINTS
 62
     0
 48
50.0
100
AcDbPoint
 10
8273.401328486825
 20
2096.910315020623
 30
0.0
  0
POINT
  5
239E3
330
239A1
100
AcDbEntity
  8
DEFPOINTS
 62
     0
 48
50.0
100
AcDbPoint
 10
8273.401328486825
 20
1772.910315020622
 30
0.0
  0
POINT
  5
239E4
330
239A1
100
AcDbEntity
  8
DEFPOINTS
 62
     0
 48
50.0
100
AcDbPoint
 10
8775.269928255667
 20
1772.910315020622
 30
0.0
  0
ENDBLK
  5
239AC
330
239A1
100
AcDbEntity
  8
0
 48
50.0
100
AcDbBlockEnd
  0
ENDSEC
  0
SECTION
  2
ENTITIES
  0
MTEXT
  5
763F
330
747D
100
AcDbEntity
  8
0
100
AcDbMText
 10
302.846345836809
 20
280.1983726409901
 30
0.0
 40
3.5
 41
5.323721266742722
 71
     1
 72
     5
  1

  7
MSMINCHO
 73
     1
 44
1.0
1001
ACAD
1000
MTEXTBEGIN
1070
    73
1070
     1
1070
    44
1040
1.0
1070
    74
1070
     0
1000
MTEXTEND
  0
LINE
  5
10B57
330
747D
100
AcDbEntity
  8
補助
  6
PHANTOM
 62
   230
 48
50.0
100
AcDbLine
 10
139.9999999999995
 20
11409.6
 30
0.0
 11
16307.2
 21
11409.6
 31
0.0
  0
LINE
  5
10B59
330
747D
100
AcDbEntity
  8
仕様書枠
  6
Continuous
 48
50.0
100
AcDbLine
 10
13107.2
 20
1200.0
 30
0.0
 11
13107.2
 21
-0.0000000000000729
 31
0.0
  0
LINE
  5
10B5D
330
747D
100
AcDbEntity
  8
仕様書枠
 48
50.0
100
AcDbLine
 10
140.0
 20
0.0
 30
0.0
 11
16307.2
 21
-0.0000000000000909
 31
0.0
  0
LINE
  5
10B5E
330
747D
100
AcDbEntity
  8
補助
  6
PHANTOM
 62
   230
 48
50.0
100
AcDbLine
 10
16307.2
 20
11409.6
 30
0.0
 11
16307.2
 21
1200.0
 31
0.0
  0
LINE
  5
10B6C
330
747D
100
AcDbEntity
  8
仕様書枠
 48
50.0
100
AcDbLine
 10
13107.2
 20
1200.0
 30
0.0
 11
16307.2
 21
1200.0
 31
0.0
  0
TEXT
  5
10B73
330
747D
100
AcDbEntity
  8
文字
 62
     7
 48
50.0
100
AcDbText
 10
13162.9790565769
 20
895.0906074299405
 30
0.0
 40
200.0
  1
基 礎 図
  7
STYLE2
100
AcDbText
  0
LINE
  5
10B7B
330
747D
100
AcDbEntity
  8
仕様書枠
 48
50.0
100
AcDbLine
 10
13107.2
 20
800.0
 30
0.0
 11
14251.2
 21
800.0
 31
0.0
  0
LINE
  5
10B88
330
747D
100
AcDbEntity
  8
仕様書枠
  6
Continuous
 48
50.0
100
AcDbLine
 10
14251.2
 20
1200.0
 30
0.0
 11
14251.2
 21
800.0
 31
0.0
  0
LINE
  5
16462
330
747D
100
AcDbEntity
  8
仕様書枠
 48
50.0
100
AcDbLine
 10
16307.2
 20
1200.0
 30
0.0
 11
16307.2
 21
-0.0000000000000909
 31
0.0
  0
LINE
  5
1903B
330
747D
100
AcDbEntity
  8
補助
  6
PHANTOM
 62
   230
 48
50.0
100
AcDbLine
 10
140.0
 20
0.0
 30
0.0
 11
139.9999999999995
 21
11409.6
 31
0.0
  0
LEADER
  5
1AC27
330
747D
100
AcDbEntity
  8
寸法
 48
50.0
100
AcDbLeader
  3
INABA_S50G
 73
     0
 74
     0
 75
     1
 40
120.0
 41
720.0000000000001
 76
     3
 10
9868.695499614997
 20
6669.396694521698
 30
0.0
 10
10025.46907400128
 20
6408.382780953866
 30
0.0
 10
10150.46907400128
 20
6408.382780953866
 30
0.0
340
1AC28
1001
ACAD
1000
DSTYLE
1002
{
1070
   341
1005
0
1070
    40
1040
1.0
1070
   343
1005
0
1070
   344
1005
0
1002
}
  0
MTEXT
  5
1AC28
102
{ACAD_REACTORS
330
1AC27
102
}
330
747D
100
AcDbEntity
  8
部品1
 62
     7
 48
50.0
100
AcDbMText
 10
10895.46907400128
 20
6493.382780953865
 30
0.0
 40
120.0
 41
0.0
 71
     6
 72
     1
  1
\A1;床下換気口
  7
STYLE1
 73
     1
 44
1.0
1001
ACAD
1000
MTEXTBEGIN
1070
    73
1070
     1
1070
    44
1040
1.0
1070
    74
1070
     0
1000
MTEXTEND
  0
TEXT
  5
1AC29
330
747D
100
AcDbEntity
  8
部品1
 48
50.0
100
AcDbText
 10
10217.43013846118
 20
5830.20234199774
 30
0.0
 40
80.0
  1
(a=45,b=55,c=75)
  7
STYLE1
100
AcDbText
  0
TEXT
  5
1AC2A
330
747D
100
AcDbEntity
  8
部品1
 48
50.0
100
AcDbText
 10
10058.85112970688
 20
5937.047562866493
 30
0.0
 40
80.0
  1
※a,b,cは屋根の出幅です。
  7
STYLE1
100
AcDbText
  0
MTEXT
  5
1AC2B
102
{ACAD_REACTORS
330
1AC2C
102
}
330
747D
100
AcDbEntity
  8
部品1
 62
     7
 48
50.0
100
AcDbMText
 10
10856.63832569548
 20
6116.358249799568
 30
0.0
 40
120.0
 41
0.0
 71
     6
 72
     1
  1
\A1;屋根の外寸
  7
STYLE1
 73
     1
 44
1.0
1001
ACAD
1000
MTEXTBEGIN
1070
    73
1070
     1
1070
    44
1040
1.0
1070
    74
1070
     0
1000
MTEXTEND
  0
LEADER
  5
1AC2C
330
747D
100
AcDbEntity
  8
寸法
 48
50.0
100
AcDbLeader
  3
INABA_S50G
 73
     0
 74
     0
 75
     1
 40
120.0
 41
672.0
 76
     3
 10
9918.69831350344
 20
6290.247593263144
 30
0.0
 10
10034.63832569548
 20
6031.358249799569
 30
0.0
 10
10159.63832569548
 20
6031.358249799569
 30
0.0
340
1AC2B
1001
ACAD
1000
DSTYLE
1002
{
1070
   341
1005
0
1070
    40
1040
1.0
1070
   343
1005
0
1070
   344
1005
0
1002
}
  0
TEXT
  5
1C7A1
330
747D
100
AcDbEntity
  8
文字
 62
     7
 48
50.0
100
AcDbText
 10
13188.16259899338
 20
79.80631269190417
 30
0.0
 40
80.0
  1
※布基礎には換気口を設けてください。
  7
STYLE2
100
AcDbText
  0
TEXT
  5
1C7E7
330
747D
100
AcDbEntity
  8
文字
 62
     7
 48
50.0
100
AcDbText
 10
13188.16259899338
 20
246.7109242801889
 30
0.0
 40
80.0
  1
※寒冷地等は地域の実情に合わせた基礎にして下さい。
  7
STYLE2
100
AcDbText
  0
TEXT
  5
1C7E8
330
747D
100
AcDbEntity
  8
文字
 62
     7
 48
50.0
100
AcDbText
 10
14325.79230300687
 20
499.5983841039506
 30
0.0
 40
160.0
  1
ＮＸＮ－０８ＤＬ－４
  7
STYLE2
100
AcDbText
  0
TEXT
  5
1C7EC
330
747D
100
AcDbEntity
  8
文字
 62
     7
 48
50.0
100
AcDbText
 10
14524.131837222
 20
1031.557706291229
 30
0.0
 40
100.0
  1
<縮尺> S=1/40
  7
STYLE2
100
AcDbText
  0
TEXT
  5
1C7ED
330
747D
100
AcDbEntity
  8
文字
 62
     7
 48
50.0
100
AcDbText
 10
13201.43669998441
 20
477.2740661031257
 30
0.0
 40
160.0
  1
機種名
  7
STYLE2
100
AcDbText
  0
LINE
  5
1C7EF
330
747D
100
AcDbEntity
  8
文字
 62
     7
 48
50.0
100
AcDbLine
 10
13187.2
 20
400.0
 30
0.0
 11
16227.2
 21
400.0
 31
0.0
  0
MTEXT
  5
1D2D5
102
{ACAD_REACTORS
330
1D2D6
102
}
330
747D
100
AcDbEntity
  8
部品1
 62
     7
 48
50.0
100
AcDbMText
 10
11063.99523070988
 20
7380.905987577036
 30
0.0
 40
120.0
 41
0.0
 71
     6
 72
     1
  1
アンカーボルト
  7
STYLE1
 73
     1
 44
1.0
1001
ACAD
1000
MTEXTBEGIN
1070
    73
1070
     1
1070
    44
1040
1.0
1070
    74
1070
     0
1000
MTEXTEND
  0
LEADER
  5
1D2D6
330
747D
100
AcDbEntity
  8
寸法
 48
50.0
100
AcDbLeader
  3
INABA_S50G
 73
     0
 74
     0
 75
     1
 40
120.0
 41
994.3492424049171
 76
     3
 10
9745.680085757001
 20
6942.501087693239
 30
0.0
 10
9919.645988304965
 20
7295.905987577036
 30
0.0
 10
10044.64598830496
 20
7295.905987577036
 30
0.0
340
1D2D5
1001
ACAD
1000
DSTYLE
1002
{
1070
   341
1005
0
1070
    40
1040
1.0
1070
   343
1005
0
1070
   344
1005
0
1002
}
  0
MTEXT
  5
1D332
102
{ACAD_REACTORS
330
1D333
102
}
330
747D
100
AcDbEntity
  8
部品1
 62
     7
 48
50.0
100
AcDbMText
 10
9558.828697015693
 20
6506.798603015216
 30
0.0
 40
120.0
 41
0.0
 71
     6
 72
     1
  1
CB
  7
STYLE1
 73
     1
 44
1.0
1001
ACAD
1000
MTEXTBEGIN
1070
    73
1070
     1
1070
    44
1040
1.0
1070
    74
1070
     0
1000
MTEXTEND
  0
LEADER
  5
1D333
330
747D
100
AcDbEntity
  8
寸法
 48
50.0
100
AcDbLeader
  3
INABA_S50G
 73
     0
 74
     0
 75
     1
 40
120.0
 41
149.591883092037
 76
     3
 10
9131.954011061012
 20
6644.516916570042
 30
0.0
 10
9259.236813923656
 20
6421.798603015216
 30
0.0
 10
9384.236813923656
 20
6421.798603015216
 30
0.0
340
1D332
1001
ACAD
1000
DSTYLE
1002
{
1070
   341
1005
0
1070
    40
1040
1.0
1070
   343
1005
0
1070
   344
1005
0
1002
}
  0
DIMENSION
  5
20DE1
330
747D
100
AcDbEntity
  8
寸法
 48
50.0
100
AcDbDimension
  2
*D19
 10
9913.600000000002
 20
8023.513565393443
 30
0.0
 11
10184.77462120246
 21
8023.513565393443
 31
0.0
 70
   160
  1
a
 71
     5
 42
45.0
  3
INABA_S40G
100
AcDbAlignedDimension
 13
9868.6
 23
7065.293243334521
 33
0.0
 14
9913.600000000002
 24
7791.559701428433
 34
0.0
100
AcDbRotatedDimension
1001
ACAD
1000
DSTYLE
1002
{
1070
   341
1005
0
1002
}
  0
DIMENSION
  5
20DFB
330
747D
100
AcDbEntity
  8
寸法
 48
50.0
100
AcDbDimension
  2
*D20
 10
6578.6
 20
8023.513565393443
 30
0.0
 11
6262.425378797541
 21
8023.513565393443
 31
0.0
 70
   160
  1
a
 71
     5
 42
44.99999999999636
  3
INABA_S40G
100
AcDbAlignedDimension
 13
6533.600000000004
 23
7791.559701428434
 33
0.0
 14
6578.6
 24
7065.293243334521
 34
0.0
100
AcDbRotatedDimension
1001
ACAD
1000
DSTYLE
1002
{
1070
   341
1005
0
1002
}
  0
LINE
  5
22711
330
747D
100
AcDbEntity
  8
想像線
 48
10.0
100
AcDbLine
 10
9913.600000000002
 20
7140.29324333453
 30
0.0
 11
6533.600000000011
 21
7140.293243334541
 31
0.0
  0
LINE
  5
22712
330
747D
100
AcDbEntity
  8
想像線
 48
10.0
100
AcDbLine
 10
6533.60000000001
 20
6050.293243334516
 30
0.0
 11
6533.600000000011
 21
7140.293243334541
 31
0.0
  0
LINE
  5
22713
330
747D
100
AcDbEntity
  8
想像線
 48
10.0
100
AcDbLine
 10
9913.600000000002
 20
6050.293243334523
 30
0.0
 11
9913.600000000002
 21
7140.29324333453
 31
0.0
  0
LINE
  5
22714
330
747D
100
AcDbEntity
  8
想像線
 48
10.0
100
AcDbLine
 10
9913.600000000002
 20
6050.293243334523
 30
0.0
 11
6533.60000000001
 21
6050.293243334516
 31
0.0
  0
DIMENSION
  5
22741
330
747D
100
AcDbEntity
  8
寸法
 48
50.0
100
AcDbDimension
  2
*D25
 10
5703.721909610673
 20
7065.293243334536
 30
0.0
 11
5603.721909610671
 21
7102.793243334538
 31
0.0
 70
    32
  1
c
 71
     5
 42
75.00000000000273
  3
INABA_S40G
100
AcDbAlignedDimension
 13
5955.665006330071
 23
7140.293243334538
 33
0.0
 14
6445.156977762462
 24
7065.293243334536
 34
0.0
 50
90.0
100
AcDbRotatedDimension
1001
ACAD
1000
DSTYLE
1002
{
1070
   341
1005
0
1002
}
  0
DIMENSION
  5
2275B
330
747D
100
AcDbEntity
  8
寸法
 48
50.0
100
AcDbDimension
  2
*D26
 10
5703.721909610673
 20
6050.293243334546
 30
0.0
 11
5603.721909610672
 21
6077.793243334536
 31
0.0
 70
    32
  1
b
 71
     5
 42
54.99999999997908
  3
INABA_S40G
100
AcDbAlignedDimension
 13
6451.607272343892
 23
6105.293243334524
 33
0.0
 14
5955.665006330072
 24
6050.293243334546
 34
0.0
 50
90.0
100
AcDbRotatedDimension
1001
ACAD
1000
DSTYLE
1002
{
1070
   341
1005
0
1002
}
  0
DIMENSION
  5
22A76
330
747D
100
AcDbEntity
  8
寸法
 48
50.0
100
AcDbDimension
  2
*D27
 10
9271.821389011625
 20
6105.293243334539
 30
0.0
 11
9271.821389011622
 21
5818.329660657375
 31
0.0
 70
   160
 71
     5
 42
280.0000000000127
  3
INABA_S40G
100
AcDbAlignedDimension
 13
9433.13387648461
 23
6385.293243334552
 33
0.0
 14
9241.419106515955
 24
6105.293243334539
 34
0.0
 50
90.0
100
AcDbRotatedDimension
1001
ACAD
1000
DSTYLE
1002
{
1070
   341
1005
0
1002
}
  0
DIMENSION
  5
22A81
330
747D
100
AcDbEntity
  8
寸法
 48
50.0
100
AcDbDimension
  2
*D28
 10
9271.821389011625
 20
6865.293243334432
 30
0.0
 11
9271.821389011625
 21
7352.256826011684
 31
0.0
 70
   160
 71
     5
 42
200.0000000000855
  3
INABA_S40G
100
AcDbAlignedDimension
 13
9265.856345704682
 23
7065.293243334519
 33
0.0
 14
9205.601663693048
 24
6865.293243334432
 34
0.0
 50
90.0
100
AcDbRotatedDimension
1001
ACAD
1000
DSTYLE
1002
{
1070
   341
1005
0
1002
}
  0
DIMENSION
  5
22A98
330
747D
100
AcDbEntity
  8
寸法
 48
50.0
100
AcDbDimension
  2
*D29
 10
9748.600000000003
 20
6789.684911889747
 30
0.0
 11
10138.65905511811
 21
6789.684911889747
 31
0.0
 70
   160
 71
     5
 42
119.9999999999981
  3
INABA_S40G
100
AcDbAlignedDimension
 13
9868.6
 23
6710.29324333454
 33
0.0
 14
9748.600000000003
 24
6710.29324333456
 34
0.0
100
AcDbRotatedDimension
1001
ACAD
1000
DSTYLE
1002
{
1070
   341
1005
0
1002
}
  0
LINE
  5
23051
330
747D
100
AcDbEntity
  8
部品1
 48
50.0
100
AcDbLine
 10
6698.600000000002
 20
6865.293243334538
 30
0.0
 11
9748.600000000003
 21
6865.293243334367
 31
0.0
  0
LINE
  5
23053
330
747D
100
AcDbEntity
  8
部品1
 48
50.0
100
AcDbLine
 10
9868.6
 20
6105.293243334543
 30
0.0
 11
6578.599999999998
 21
6105.293243334521
 31
0.0
  0
TEXT
  5
23054
330
747D
100
AcDbEntity
  8
寸法
 48
50.0
100
AcDbText
 10
8256.696499061648
 20
6123.974534127263
 30
0.0
 40
120.0
  1
扉面
  7
STYLE1
100
AcDbText
  0
DIMENSION
  5
23055
330
747D
100
AcDbEntity
  8
寸法
 48
50.0
100
AcDbDimension
  2
*D30
 10
9868.6
 20
8023.513565393443
 30
0.0
 11
8223.600000000001
 21
8123.525376417065
 31
0.0
 70
    32
 71
     5
 42
3290.0
  3
INABA_S40G
100
AcDbAlignedDimension
 13
6578.6
 23
7065.293243334526
 33
0.0
 14
9868.6
 24
7065.293243334526
 34
0.0
100
AcDbRotatedDimension
1001
ACAD
1000
DSTYLE
1002
{
1070
   341
1005
0
1002
}
  0
LINE
  5
23056
330
747D
100
AcDbEntity
  8
部品1
 48
50.0
100
AcDbLine
 10
9868.6
 20
7065.293243334526
 30
0.0
 11
6578.6
 21
7065.293243334526
 31
0.0
  0
DIMENSION
  5
23059
330
747D
100
AcDbEntity
  8
寸法
 48
50.0
100
AcDbDimension
  2
*D31
 10
8105.6
 20
7791.559701428436
 30
0.0
 11
8925.600000000001
 21
7891.559701428436
 31
0.0
 70
    32
 71
     5
 42
1640.0
  3
INABA_S40G
100
AcDbAlignedDimension
 13
9745.600000000001
 23
6992.293243334525
 33
0.0
 14
8105.6
 24
6992.293243334525
 34
0.0
100
AcDbRotatedDimension
1001
ACAD
1000
DSTYLE
1002
{
1070
   341
1005
0
1002
}
  0
DIMENSION
  5
2305A
330
747D
100
AcDbEntity
  8
寸法
 48
50.0
100
AcDbDimension
  2
*D32
 10
8223.600000000008
 20
7547.902060004773
 30
0.0
 11
8633.600000000008
 21
7647.913871028395
 31
0.0
 70
    32
 71
     5
 42
820.0
  3
INABA_S40G
100
AcDbAlignedDimension
 13
9043.600000000008
 23
6635.293243334524
 33
0.0
 14
8223.600000000008
 24
6635.293243334524
 34
0.0
100
AcDbRotatedDimension
1001
ACAD
1000
DSTYLE
1002
{
1070
   341
1005
0
1002
}
  0
DIMENSION
  5
2305B
330
747D
100
AcDbEntity
  8
寸法
 48
50.0
100
AcDbDimension
  2
*D33
 10
5955.665006330073
 20
6303.293243334529
 30
0.0
 11
5955.665006330072
 21
6622.793243334524
 31
0.0
 70
   160
 71
     5
 42
638.9999999999964
  3
INABA_S40G
100
AcDbAlignedDimension
 13
6651.600000000001
 23
6942.293243334525
 33
0.0
 14
6651.600000000008
 24
6303.293243334529
 34
0.0
 50
90.0
100
AcDbRotatedDimension
1001
ACAD
1000
DSTYLE
1002
{
1070
   341
1005
0
1002
}
  0
DIMENSION
  5
2305C
330
747D
100
AcDbEntity
  8
寸法
 48
50.0
100
AcDbDimension
  2
*D34
 10
5703.721909610674
 20
6105.293243334526
 30
0.0
 11
5703.721909610673
 21
6622.793243334524
 31
0.0
 70
   160
 71
     5
 42
960.0
  3
INABA_S40G
100
AcDbAlignedDimension
 13
6578.6
 23
7065.293243334526
 33
0.0
 14
6578.6
 24
6105.293243334525
 34
0.0
 50
90.0
100
AcDbRotatedDimension
1001
ACAD
1000
DSTYLE
1002
{
1070
   341
1005
0
1002
}
  0
DIMENSION
  5
2305E
330
747D
100
AcDbEntity
  8
寸法
 48
50.0
100
AcDbDimension
  2
*D35
 10
7044.935244228938
 20
6585.293243334525
 30
0.0
 11
7044.935244228937
 21
5851.245999240049
 31
0.0
 70
   160
 71
     5
 42
479.999999999989
  3
INABA_S40G
100
AcDbAlignedDimension
 13
7022.7654751409
 23
6105.293243334536
 33
0.0
 14
7353.600000000007
 24
6585.293243334525
 34
0.0
 50
90.0
100
AcDbRotatedDimension
1001
ACAD
1000
DSTYLE
1002
{
1070
   341
1005
0
1002
}
  0
LINE
  5
2305F
102
{ACAD_REACTORS
330
23684
102
}
330
747D
100
AcDbEntity
  8
部品1
 48
50.0
100
AcDbLine
 10
6578.6
 20
6105.293243334525
 30
0.0
 11
6578.6
 21
7065.293243334526
 31
0.0
  0
ARC
  5
23061
330
747D
100
AcDbEntity
  8
想像線
 48
5.0
100
AcDbCircle
 10
7348.600000000004
 20
6105.293243334529
 30
0.0
 40
720.0
100
AcDbArc
 50
180.0
 51
270.0
  0
DIMENSION
  5
23062
330
747D
100
AcDbEntity
  8
寸法
 48
50.0
100
AcDbDimension
  2
*D36
 10
6465.512673767881
 20
5385.293243334522
 30
0.0
 11
6465.51267376788
 21
5745.293243334523
 31
0.0
 70
   160
  1
扉の出<>
 71
     5
 42
720.0
  3
INABA_S40G
100
AcDbAlignedDimension
 13
6578.600000000005
 23
6105.293243334521
 33
0.0
 14
6934.325326928808
 24
5385.293243334522
 34
0.0
 50
90.0
100
AcDbRotatedDimension
1001
ACAD
1000
DSTYLE
1002
{
1070
   341
1005
0
1002
}
  0
DIMENSION
  5
23063
330
747D
100
AcDbEntity
  8
寸法
 48
50.0
100
AcDbDimension
  2
*D37
 10
5955.665006330072
 20
6105.293243334526
 30
0.0
 11
5955.665006330072
 21
5769.762294491933
 31
0.0
 70
   160
 71
     5
 42
198.0000000000036
  3
INABA_S40G
100
AcDbAlignedDimension
 13
6651.600000000008
 23
6303.293243334529
 33
0.0
 14
6578.6
 24
6105.293243334525
 34
0.0
 50
90.0
100
AcDbRotatedDimension
1001
ACAD
1000
DSTYLE
1002
{
1070
   341
1005
0
1002
}
  0
CIRCLE
  5
23065
330
747D
100
AcDbEntity
  8
部品1
 48
50.0
100
AcDbCircle
 10
6701.599999999993
 20
6303.293243334529
 30
0.0
 40
35.0
  0
LINE
  5
23066
330
747D
100
AcDbEntity
  8
センター
 48
2.0
100
AcDbLine
 10
6701.600000000007
 20
6353.293243334529
 30
0.0
 11
6701.600000000007
 21
6253.293243334528
 31
0.0
  0
LINE
  5
23067
330
747D
100
AcDbEntity
  8
センター
 48
2.0
100
AcDbLine
 10
6651.600000000008
 20
6303.293243334529
 30
0.0
 11
6751.600000000007
 21
6303.293243334529
 31
0.0
  0
LINE
  5
23069
330
747D
100
AcDbEntity
  8
想像線
 48
5.0
100
AcDbLine
 10
7348.600000000004
 20
6105.293243334539
 30
0.0
 11
7348.600000000004
 21
5385.293243334529
 31
0.0
  0
LINE
  5
2306A
330
747D
100
AcDbEntity
  8
細線
 48
50.0
100
AcDbLine
 10
7029.404364949122
 20
6105.293243334543
 30
0.0
 11
7093.600000000013
 21
6169.488878385432
 31
0.0
  0
LINE
  5
2306B
330
747D
100
AcDbEntity
  8
細線
 48
50.0
100
AcDbLine
 10
6984.503084343777
 20
6105.293243334541
 30
0.0
 11
7093.600000000012
 21
6214.390158990775
 31
0.0
  0
LINE
  5
2306C
330
747D
100
AcDbEntity
  8
細線
 48
50.0
100
AcDbLine
 10
6939.60180373843
 20
6105.293243334541
 30
0.0
 11
7093.600000000006
 21
6259.291439596115
 31
0.0
  0
LINE
  5
2306D
330
747D
100
AcDbEntity
  8
細線
 48
50.0
100
AcDbLine
 10
6894.700523133086
 20
6105.293243334539
 30
0.0
 11
7093.600000000002
 21
6304.192720201461
 31
0.0
  0
LINE
  5
2306E
330
747D
100
AcDbEntity
  8
部品1
 48
50.0
100
AcDbLine
 10
7093.600000000003
 20
6385.293243334552
 30
0.0
 11
7093.600000000013
 21
6105.293243334543
 31
0.0
  0
LINE
  5
2306F
330
747D
100
AcDbEntity
  8
部品1
 48
50.0
100
AcDbLine
 10
6893.600000000006
 20
6385.293243334552
 30
0.0
 11
6893.600000000013
 21
6105.293243334539
 31
0.0
  0
LINE
  5
23070
330
747D
100
AcDbEntity
  8
細線
 48
50.0
100
AcDbLine
 10
7074.305645554471
 20
6105.293243334543
 30
0.0
 11
7093.600000000013
 21
6124.587597780086
 31
0.0
  0
LINE
  5
23071
330
747D
100
AcDbEntity
  8
細線
 48
50.0
100
AcDbLine
 10
6893.600000000012
 20
6149.094000806814
 30
0.0
 11
7093.600000000005
 21
6349.0940008068
 31
0.0
  0
LINE
  5
23072
330
747D
100
AcDbEntity
  8
細線
 48
50.0
100
AcDbLine
 10
6893.600000000009
 20
6193.995281412159
 30
0.0
 11
7084.897961922412
 21
6385.293243334552
 31
0.0
  0
LINE
  5
23073
330
747D
100
AcDbEntity
  8
細線
 48
50.0
100
AcDbLine
 10
6893.600000000009
 20
6238.896562017502
 30
0.0
 11
7039.996681317062
 21
6385.293243334551
 31
0.0
  0
LINE
  5
23074
330
747D
100
AcDbEntity
  8
細線
 48
50.0
100
AcDbLine
 10
6893.600000000012
 20
6328.699123228307
 30
0.0
 11
6950.194120106248
 21
6385.293243334551
 31
0.0
  0
LINE
  5
23075
330
747D
100
AcDbEntity
  8
細線
 48
50.0
100
AcDbLine
 10
6893.600000000012
 20
6283.797842622966
 30
0.0
 11
6995.095400711581
 21
6385.293243334551
 31
0.0
  0
LINE
  5
23076
330
747D
100
AcDbEntity
  8
細線
 48
50.0
100
AcDbLine
 10
7849.404364949116
 20
6105.293243334543
 30
0.0
 11
7913.600000000004
 21
6169.488878385432
 31
0.0
  0
LINE
  5
23077
330
747D
100
AcDbEntity
  8
細線
 48
50.0
100
AcDbLine
 10
7804.503084343767
 20
6105.293243334541
 30
0.0
 11
7913.600000000001
 21
6214.390158990775
 31
0.0
  0
LINE
  5
23078
330
747D
100
AcDbEntity
  8
細線
 48
50.0
100
AcDbLine
 10
7759.601803738423
 20
6105.293243334541
 30
0.0
 11
7913.599999999995
 21
6259.291439596116
 31
0.0
  0
LINE
  5
23079
330
747D
100
AcDbEntity
  8
細線
 48
50.0
100
AcDbLine
 10
7714.700523133076
 20
6105.293243334539
 30
0.0
 11
7913.599999999995
 21
6304.192720201459
 31
0.0
  0
LINE
  5
2307A
330
747D
100
AcDbEntity
  8
部品1
 48
50.0
100
AcDbLine
 10
7913.599999999994
 20
6385.293243334552
 30
0.0
 11
7913.600000000004
 21
6105.293243334543
 31
0.0
  0
LINE
  5
2307B
330
747D
100
AcDbEntity
  8
部品1
 48
50.0
100
AcDbLine
 10
7713.599999999998
 20
6385.293243334552
 30
0.0
 11
7713.600000000004
 21
6105.293243334539
 31
0.0
  0
LINE
  5
2307C
330
747D
100
AcDbEntity
  8
細線
 48
50.0
100
AcDbLine
 10
7894.30564555446
 20
6105.293243334543
 30
0.0
 11
7913.600000000004
 21
6124.587597780086
 31
0.0
  0
LINE
  5
2307D
330
747D
100
AcDbEntity
  8
細線
 48
50.0
100
AcDbLine
 10
7713.600000000004
 20
6149.094000806814
 30
0.0
 11
7913.599999999995
 21
6349.094000806808
 31
0.0
  0
LINE
  5
2307E
330
747D
100
AcDbEntity
  8
細線
 48
50.0
100
AcDbLine
 10
7713.600000000001
 20
6193.995281412159
 30
0.0
 11
7904.897961922403
 21
6385.293243334552
 31
0.0
  0
LINE
  5
2307F
330
747D
100
AcDbEntity
  8
細線
 48
50.0
100
AcDbLine
 10
7713.600000000001
 20
6238.896562017502
 30
0.0
 11
7859.996681317049
 21
6385.293243334551
 31
0.0
  0
LINE
  5
23080
330
747D
100
AcDbEntity
  8
細線
 48
50.0
100
AcDbLine
 10
7713.600000000011
 20
6328.699123228307
 30
0.0
 11
7770.194120106248
 21
6385.293243334551
 31
0.0
  0
LINE
  5
23081
330
747D
100
AcDbEntity
  8
細線
 48
50.0
100
AcDbLine
 10
7713.600000000011
 20
6283.797842622966
 30
0.0
 11
7815.095400711583
 21
6385.293243334551
 31
0.0
  0
LINE
  5
23082
330
747D
100
AcDbEntity
  8
センター
 48
2.0
100
AcDbLine
 10
8105.600000000007
 20
6353.293243334529
 30
0.0
 11
8105.600000000007
 21
6253.293243334528
 31
0.0
  0
LINE
  5
23083
330
747D
100
AcDbEntity
  8
センター
 48
2.0
100
AcDbLine
 10
8055.600000000008
 20
6303.293243334529
 30
0.0
 11
8155.600000000008
 21
6303.293243334529
 31
0.0
  0
CIRCLE
  5
23084
330
747D
100
AcDbEntity
  8
部品1
 48
50.0
100
AcDbCircle
 10
8105.600000000007
 20
6303.293243334529
 30
0.0
 40
35.0
  0
DIMENSION
  5
23085
330
747D
100
AcDbEntity
  8
寸法
 48
50.0
100
AcDbDimension
  2
*D38
 10
6701.6
 20
7791.559701428436
 30
0.0
 11
7403.6
 21
7891.559701428436
 31
0.0
 70
    32
 71
     5
 42
1404.0
  3
INABA_S40G
100
AcDbAlignedDimension
 13
8105.6
 23
6992.293243334525
 33
0.0
 14
6701.6
 24
6992.293243334525
 34
0.0
100
AcDbRotatedDimension
1001
ACAD
1000
DSTYLE
1002
{
1070
   341
1005
0
1002
}
  0
DIMENSION
  5
23086
330
747D
100
AcDbEntity
  8
寸法
 48
50.0
100
AcDbDimension
  2
*D39
 10
6578.6
 20
7547.902060004773
 30
0.0
 11
6991.100000000004
 21
7647.913871028395
 31
0.0
 70
    32
 71
     5
 42
825.0000000000072
  3
INABA_S40G
100
AcDbAlignedDimension
 13
7403.600000000007
 23
6635.293243334524
 33
0.0
 14
6578.6
 24
7065.293243334526
 34
0.0
100
AcDbRotatedDimension
1001
ACAD
1000
DSTYLE
1002
{
1070
   341
1005
0
1002
}
  0
DIMENSION
  5
23088
330
747D
100
AcDbEntity
  8
寸法
 48
50.0
100
AcDbDimension
  2
*D40
 10
6578.6
 20
7791.559701428436
 30
0.0
 11
6305.493398282202
 21
7791.559701428436
 31
0.0
 70
   160
 71
     5
 42
123.0
  3
INABA_S40G
100
AcDbAlignedDimension
 13
6701.6
 23
6992.293243334525
 33
0.0
 14
6578.6
 24
7065.293243334526
 34
0.0
100
AcDbRotatedDimension
1001
ACAD
1000
DSTYLE
1002
{
1070
   341
1005
0
1002
}
  0
DIMENSION
  5
23089
330
747D
100
AcDbEntity
  8
寸法
 48
50.0
100
AcDbDimension
  2
*D41
 10
5955.665006330073
 20
6942.293243334527
 30
0.0
 11
5955.665006330072
 21
7338.399845052325
 31
0.0
 70
   160
 71
     5
 42
123.0
  3
INABA_S40G
100
AcDbAlignedDimension
 13
6578.6
 23
7065.293243334526
 33
0.0
 14
6651.600000000001
 24
6942.293243334525
 34
0.0
 50
90.0
100
AcDbRotatedDimension
1001
ACAD
1000
DSTYLE
1002
{
1070
   341
1005
0
1002
}
  0
LINE
  5
2308B
102
{ACAD_REACTORS
330
23684
102
}
330
747D
100
AcDbEntity
  8
部品1
 48
50.0
100
AcDbLine
 10
6698.6
 20
6710.293243334557
 30
0.0
 11
6578.6
 21
6710.293243334557
 31
0.0
  0
LINE
  5
2308C
102
{ACAD_REACTORS
330
23684
102
}
330
747D
100
AcDbEntity
  8
部品1
 48
50.0
100
AcDbLine
 10
6698.6
 20
6510.293243334557
 30
0.0
 11
6578.6
 21
6510.293243334557
 31
0.0
  0
CIRCLE
  5
2308E
330
747D
100
AcDbEntity
  8
部品1
 48
50.0
100
AcDbCircle
 10
6701.6
 20
6942.293243334525
 30
0.0
 40
35.0
  0
LINE
  5
2308F
330
747D
100
AcDbEntity
  8
センター
 48
2.0
100
AcDbLine
 10
6701.6
 20
6992.293243334525
 30
0.0
 11
6701.6
 21
6892.293243334525
 31
0.0
  0
LINE
  5
23090
330
747D
100
AcDbEntity
  8
センター
 48
2.0
100
AcDbLine
 10
6651.600000000001
 20
6942.293243334525
 30
0.0
 11
6751.6
 21
6942.293243334525
 31
0.0
  0
DIMENSION
  5
23091
330
747D
100
AcDbEntity
  8
寸法
 48
50.0
100
AcDbDimension
  2
*D42
 10
7403.600000000007
 20
7547.902060004773
 30
0.0
 11
7813.600000000008
 21
7647.913871028395
 31
0.0
 70
    32
 71
     5
 42
820.0
  3
INABA_S40G
100
AcDbAlignedDimension
 13
8223.600000000008
 23
6635.293243334524
 33
0.0
 14
7403.600000000007
 24
6635.293243334524
 34
0.0
100
AcDbRotatedDimension
1001
ACAD
1000
DSTYLE
1002
{
1070
   341
1005
0
1002
}
  0
LINE
  5
23093
330
747D
100
AcDbEntity
  8
細線
 48
50.0
100
AcDbLine
 10
6936.280033447537
 20
6865.293243334526
 30
0.0
 11
7093.600000000009
 21
7022.613209886997
 31
0.0
  0
LINE
  5
23094
330
747D
100
AcDbEntity
  8
細線
 48
50.0
100
AcDbLine
 10
6893.600000000009
 20
6867.514490492341
 30
0.0
 11
7091.378752842205
 21
7065.293243334538
 31
0.0
  0
LINE
  5
23095
330
747D
100
AcDbEntity
  8
細線
 48
50.0
100
AcDbLine
 10
6893.600000000009
 20
6912.415771097686
 30
0.0
 11
7046.47747223686
 21
7065.29324333454
 31
0.0
  0
LINE
  5
23096
330
747D
100
AcDbEntity
  8
細線
 48
50.0
100
AcDbLine
 10
6893.600000000009
 20
6957.317051703033
 30
0.0
 11
7001.576191631513
 21
7065.293243334538
 31
0.0
  0
LINE
  5
23097
330
747D
100
AcDbEntity
  8
細線
 48
50.0
100
AcDbLine
 10
6893.600000000012
 20
7002.21833230838
 30
0.0
 11
6956.674911026168
 21
7065.29324333454
 31
0.0
  0
LINE
  5
23098
330
747D
100
AcDbEntity
  8
部品1
 48
50.0
100
AcDbLine
 10
7093.600000000009
 20
7065.29324333454
 30
0.0
 11
7093.600000000015
 21
6865.293243334516
 31
0.0
  0
LINE
  5
23099
330
747D
100
AcDbEntity
  8
部品1
 48
50.0
100
AcDbLine
 10
6893.600000000009
 20
7065.29324333454
 30
0.0
 11
6893.600000000012
 21
6865.293243334527
 31
0.0
  0
DIMENSION
  5
2309A
330
747D
100
AcDbEntity
  8
寸法
 48
50.0
100
AcDbDimension
  2
*D43
 10
7044.935244228938
 20
7065.293243334526
 30
0.0
 11
7044.935244228937
 21
7357.852298452637
 31
0.0
 70
   160
 71
     5
 42
480.0
  3
INABA_S40G
100
AcDbAlignedDimension
 13
7353.600000000007
 23
6585.293243334525
 33
0.0
 14
7184.267622114473
 24
7065.293243334526
 34
0.0
 50
90.0
100
AcDbRotatedDimension
1001
ACAD
1000
DSTYLE
1002
{
1070
   341
1005
0
1002
}
  0
LINE
  5
2309B
330
747D
100
AcDbEntity
  8
細線
 48
50.0
100
AcDbLine
 10
6981.18131405286
 20
6865.293243334523
 30
0.0
 11
7093.600000000009
 21
6977.711929281652
 31
0.0
  0
LINE
  5
2309C
330
747D
100
AcDbEntity
  8
細線
 48
50.0
100
AcDbLine
 10
7026.082594658224
 20
6865.293243334519
 30
0.0
 11
7093.600000000012
 21
6932.810648676305
 31
0.0
  0
LINE
  5
2309D
330
747D
100
AcDbEntity
  8
細線
 48
50.0
100
AcDbLine
 10
7070.983875263562
 20
6865.293243334516
 30
0.0
 11
7093.600000000012
 21
6887.90936807096
 31
0.0
  0
LINE
  5
2309E
330
747D
100
AcDbEntity
  8
センター
 48
2.0
100
AcDbLine
 10
7353.600000000007
 20
6585.293243334525
 30
0.0
 11
7453.600000000007
 21
6585.293243334525
 31
0.0
  0
LINE
  5
2309F
330
747D
100
AcDbEntity
  8
部品1
 48
50.0
100
AcDbLine
 10
7503.600000000007
 20
6485.293243334524
 30
0.0
 11
7303.600000000007
 21
6485.293243334524
 31
0.0
  0
LINE
  5
230A0
330
747D
100
AcDbEntity
  8
部品1
 48
50.0
100
AcDbLine
 10
7503.600000000007
 20
6685.293243334524
 30
0.0
 11
7303.600000000007
 21
6685.293243334524
 31
0.0
  0
LINE
  5
230A1
330
747D
100
AcDbEntity
  8
センター
 48
2.0
100
AcDbLine
 10
7403.600000000007
 20
6635.293243334524
 30
0.0
 11
7403.600000000007
 21
6535.293243334525
 31
0.0
  0
LINE
  5
230A2
330
747D
100
AcDbEntity
  8
部品1
 48
50.0
100
AcDbLine
 10
7303.600000000007
 20
6485.293243334524
 30
0.0
 11
7303.600000000007
 21
6685.293243334524
 31
0.0
  0
LINE
  5
230A3
330
747D
100
AcDbEntity
  8
部品1
 48
50.0
100
AcDbLine
 10
7503.600000000007
 20
6485.293243334524
 30
0.0
 11
7503.600000000007
 21
6685.293243334524
 31
0.0
  0
LINE
  5
230A4
330
747D
100
AcDbEntity
  8
細線
 48
50.0
100
AcDbLine
 10
6893.600000000009
 20
7047.119612913727
 30
0.0
 11
6911.773630420825
 21
7065.29324333454
 31
0.0
  0
LINE
  5
230A5
330
747D
100
AcDbEntity
  8
細線
 48
50.0
100
AcDbLine
 10
7756.280033447477
 20
6865.29324333448
 30
0.0
 11
7913.600000000001
 21
7022.613209886997
 31
0.0
  0
LINE
  5
230A6
330
747D
100
AcDbEntity
  8
細線
 48
50.0
100
AcDbLine
 10
7713.600000000004
 20
6867.514490492347
 30
0.0
 11
7911.378752842195
 21
7065.293243334538
 31
0.0
  0
LINE
  5
230A7
330
747D
100
AcDbEntity
  8
細線
 48
50.0
100
AcDbLine
 10
7713.600000000001
 20
6912.415771097686
 30
0.0
 11
7866.477472236851
 21
7065.29324333454
 31
0.0
  0
LINE
  5
230A8
330
747D
100
AcDbEntity
  8
細線
 48
50.0
100
AcDbLine
 10
7713.599999999998
 20
6957.317051703036
 30
0.0
 11
7821.576191631504
 21
7065.293243334538
 31
0.0
  0
LINE
  5
230A9
330
747D
100
AcDbEntity
  8
細線
 48
50.0
100
AcDbLine
 10
7713.600000000001
 20
7002.21833230838
 30
0.0
 11
7776.674911026161
 21
7065.29324333454
 31
0.0
  0
LINE
  5
230AA
330
747D
100
AcDbEntity
  8
部品1
 48
50.0
100
AcDbLine
 10
7913.600000000001
 20
7065.29324333454
 30
0.0
 11
7913.600000000002
 21
6865.293243334469
 31
0.0
  0
LINE
  5
230AB
330
747D
100
AcDbEntity
  8
部品1
 48
50.0
100
AcDbLine
 10
7713.600000000001
 20
7065.29324333454
 30
0.0
 11
7713.600000000003
 21
6865.29324333448
 31
0.0
  0
LINE
  5
230AC
330
747D
100
AcDbEntity
  8
細線
 48
50.0
100
AcDbLine
 10
7801.181314052809
 20
6865.293243334476
 30
0.0
 11
7913.600000000001
 21
6977.711929281652
 31
0.0
  0
LINE
  5
230AD
330
747D
100
AcDbEntity
  8
細線
 48
50.0
100
AcDbLine
 10
7846.082594658168
 20
6865.293243334473
 30
0.0
 11
7913.600000000001
 21
6932.810648676305
 31
0.0
  0
LINE
  5
230AE
330
747D
100
AcDbEntity
  8
細線
 48
50.0
100
AcDbLine
 10
7890.983875263508
 20
6865.29324333447
 30
0.0
 11
7913.600000000001
 21
6887.90936807096
 31
0.0
  0
LINE
  5
230AF
330
747D
100
AcDbEntity
  8
センター
 48
2.0
100
AcDbLine
 10
8173.600000000007
 20
6585.293243334525
 30
0.0
 11
8273.600000000007
 21
6585.293243334525
 31
0.0
  0
LINE
  5
230B0
330
747D
100
AcDbEntity
  8
部品1
 48
50.0
100
AcDbLine
 10
8323.600000000007
 20
6685.293243334524
 30
0.0
 11
8123.600000000008
 21
6685.293243334524
 31
0.0
  0
LINE
  5
230B1
330
747D
100
AcDbEntity
  8
部品1
 48
50.0
100
AcDbLine
 10
8323.600000000007
 20
6485.293243334524
 30
0.0
 11
8123.600000000008
 21
6485.293243334524
 31
0.0
  0
LINE
  5
230B2
330
747D
100
AcDbEntity
  8
部品1
 48
50.0
100
AcDbLine
 10
8123.600000000008
 20
6485.293243334524
 30
0.0
 11
8123.600000000008
 21
6685.293243334524
 31
0.0
  0
LINE
  5
230B3
330
747D
100
AcDbEntity
  8
センター
 48
2.0
100
AcDbLine
 10
8223.600000000008
 20
6635.293243334524
 30
0.0
 11
8223.600000000008
 21
6535.293243334525
 31
0.0
  0
LINE
  5
230B4
330
747D
100
AcDbEntity
  8
部品1
 48
50.0
100
AcDbLine
 10
8323.600000000007
 20
6485.293243334524
 30
0.0
 11
8323.600000000007
 21
6685.293243334524
 31
0.0
  0
LINE
  5
230B5
330
747D
100
AcDbEntity
  8
センター
 48
2.0
100
AcDbLine
 10
8105.6
 20
6992.293243334525
 30
0.0
 11
8105.6
 21
6892.293243334525
 31
0.0
  0
LINE
  5
230B6
330
747D
100
AcDbEntity
  8
センター
 48
2.0
100
AcDbLine
 10
8055.600000000001
 20
6942.293243334525
 30
0.0
 11
8155.600000000001
 21
6942.293243334525
 31
0.0
  0
CIRCLE
  5
230B7
330
747D
100
AcDbEntity
  8
部品1
 48
50.0
100
AcDbCircle
 10
8105.6
 20
6942.293243334525
 30
0.0
 40
35.0
  0
LINE
  5
230B8
330
747D
100
AcDbEntity
  8
細線
 48
50.0
100
AcDbLine
 10
7713.600000000001
 20
7047.119612913727
 30
0.0
 11
7731.773630420815
 21
7065.29324333454
 31
0.0
  0
LINE
  5
230BC
102
{ACAD_REACTORS
330
236A0
102
}
330
747D
100
AcDbEntity
  8
部品1
 48
50.0
100
AcDbLine
 10
9868.6
 20
6105.293243334543
 30
0.0
 11
9868.6
 21
7065.293243334526
 31
0.0
  0
LINE
  5
230C2
330
747D
100
AcDbEntity
  8
細線
 48
50.0
100
AcDbLine
 10
8669.404364949116
 20
6105.293243334553
 30
0.0
 11
8733.600000000004
 21
6169.488878385439
 31
0.0
  0
LINE
  5
230C3
330
747D
100
AcDbEntity
  8
細線
 48
50.0
100
AcDbLine
 10
8624.503084343769
 20
6105.29324333455
 30
0.0
 11
8733.6
 21
6214.390158990784
 31
0.0
  0
LINE
  5
230C4
330
747D
100
AcDbEntity
  8
細線
 48
50.0
100
AcDbLine
 10
8579.601803738421
 20
6105.293243334553
 30
0.0
 11
8733.599999999997
 21
6259.291439596125
 31
0.0
  0
LINE
  5
230C5
330
747D
100
AcDbEntity
  8
細線
 48
50.0
100
AcDbLine
 10
8534.700523133079
 20
6105.29324333455
 30
0.0
 11
8733.599999999997
 21
6304.192720201468
 31
0.0
  0
LINE
  5
230C6
330
747D
100
AcDbEntity
  8
部品1
 48
50.0
100
AcDbLine
 10
8733.599999999995
 20
6385.293243334552
 30
0.0
 11
8733.600000000004
 21
6105.293243334553
 31
0.0
  0
LINE
  5
230C7
330
747D
100
AcDbEntity
  8
部品1
 48
50.0
100
AcDbLine
 10
8533.600000000003
 20
6385.293243334554
 30
0.0
 11
8533.600000000005
 21
6105.293243334549
 31
0.0
  0
LINE
  5
230C8
330
747D
100
AcDbEntity
  8
細線
 48
50.0
100
AcDbLine
 10
8714.305645554462
 20
6105.293243334553
 30
0.0
 11
8733.6
 21
6124.587597780095
 31
0.0
  0
LINE
  5
230C9
330
747D
100
AcDbEntity
  8
細線
 48
50.0
100
AcDbLine
 10
8533.600000000005
 20
6149.094000806825
 30
0.0
 11
8733.599999999997
 21
6349.094000806814
 31
0.0
  0
LINE
  5
230CA
330
747D
100
AcDbEntity
  8
細線
 48
50.0
100
AcDbLine
 10
8533.599999999999
 20
6193.995281412166
 30
0.0
 11
8724.89796192239
 21
6385.293243334552
 31
0.0
  0
LINE
  5
230CB
330
747D
100
AcDbEntity
  8
細線
 48
50.0
100
AcDbLine
 10
8533.599999999999
 20
6238.896562017512
 30
0.0
 11
8679.996681317041
 21
6385.293243334552
 31
0.0
  0
LINE
  5
230CC
330
747D
100
AcDbEntity
  8
細線
 48
50.0
100
AcDbLine
 10
8533.600000000008
 20
6283.797842622966
 30
0.0
 11
8635.095400711582
 21
6385.293243334551
 31
0.0
  0
LINE
  5
230CD
330
747D
100
AcDbEntity
  8
細線
 48
50.0
100
AcDbLine
 10
8533.600000000008
 20
6328.699123228307
 30
0.0
 11
8590.194120106245
 21
6385.293243334551
 31
0.0
  0
LINE
  5
230CE
330
747D
100
AcDbEntity
  8
細線
 48
50.0
100
AcDbLine
 10
9489.404364949116
 20
6105.293243334553
 30
0.0
 11
9553.600000000004
 21
6169.488878385442
 31
0.0
  0
LINE
  5
230CF
330
747D
100
AcDbEntity
  8
細線
 48
50.0
100
AcDbLine
 10
9444.50308434377
 20
6105.29324333455
 30
0.0
 11
9553.600000000001
 21
6214.390158990784
 31
0.0
  0
LINE
  5
230D0
330
747D
100
AcDbEntity
  8
細線
 48
50.0
100
AcDbLine
 10
9399.601803738422
 20
6105.29324333455
 30
0.0
 11
9553.599999999997
 21
6259.291439596125
 31
0.0
  0
LINE
  5
230D1
330
747D
100
AcDbEntity
  8
細線
 48
50.0
100
AcDbLine
 10
9354.700523133079
 20
6105.29324333455
 30
0.0
 11
9553.599999999994
 21
6304.192720201466
 31
0.0
  0
LINE
  5
230D2
330
747D
100
AcDbEntity
  8
部品1
 48
50.0
100
AcDbLine
 10
9553.599999999994
 20
6385.293243334552
 30
0.0
 11
9553.600000000004
 21
6105.293243334553
 31
0.0
  0
LINE
  5
230D3
330
747D
100
AcDbEntity
  8
部品1
 48
50.0
100
AcDbLine
 10
9353.599999999994
 20
6385.293243334554
 30
0.0
 11
9353.600000000005
 21
6105.293243334549
 31
0.0
  0
LINE
  5
230D4
330
747D
100
AcDbEntity
  8
細線
 48
50.0
100
AcDbLine
 10
9534.305645554459
 20
6105.293243334553
 30
0.0
 11
9553.600000000004
 21
6124.587597780095
 31
0.0
  0
LINE
  5
230D5
330
747D
100
AcDbEntity
  8
細線
 48
50.0
100
AcDbLine
 10
9353.600000000005
 20
6149.094000806825
 30
0.0
 11
9553.599999999997
 21
6349.094000806812
 31
0.0
  0
LINE
  5
230D6
330
747D
100
AcDbEntity
  8
細線
 48
50.0
100
AcDbLine
 10
9353.6
 20
6193.995281412166
 30
0.0
 11
9544.897961922391
 21
6385.293243334552
 31
0.0
  0
LINE
  5
230D7
330
747D
100
AcDbEntity
  8
細線
 48
50.0
100
AcDbLine
 10
9353.6
 20
6238.896562017513
 30
0.0
 11
9499.996681317075
 21
6385.293243334552
 31
0.0
  0
LINE
  5
230D8
330
747D
100
AcDbEntity
  8
細線
 48
50.0
100
AcDbLine
 10
9353.600000000005
 20
6283.797842622966
 30
0.0
 11
9455.095400711575
 21
6385.293243334551
 31
0.0
  0
LINE
  5
230D9
330
747D
100
AcDbEntity
  8
細線
 48
50.0
100
AcDbLine
 10
9353.600000000005
 20
6328.699123228307
 30
0.0
 11
9410.19412010624
 21
6385.293243334551
 31
0.0
  0
LINE
  5
230DA
330
747D
100
AcDbEntity
  8
センター
 48
2.0
100
AcDbLine
 10
9745.600000000008
 20
6353.293243334529
 30
0.0
 11
9745.600000000008
 21
6253.293243334528
 31
0.0
  0
LINE
  5
230DB
330
747D
100
AcDbEntity
  8
センター
 48
2.0
100
AcDbLine
 10
9695.600000000007
 20
6303.293243334529
 30
0.0
 11
9795.600000000007
 21
6303.293243334529
 31
0.0
  0
CIRCLE
  5
230DC
330
747D
100
AcDbEntity
  8
部品1
 48
50.0
100
AcDbCircle
 10
9745.600000000008
 20
6303.293243334529
 30
0.0
 40
35.0
  0
DIMENSION
  5
230DE
330
747D
100
AcDbEntity
  8
寸法
 48
50.0
100
AcDbDimension
  2
*D44
 10
9745.600000000001
 20
7791.559701428436
 30
0.0
 11
10141.7066017178
 21
7791.559701428436
 31
0.0
 70
   160
 71
     5
 42
123.0
  3
INABA_S40G
100
AcDbAlignedDimension
 13
9868.6
 23
7065.293243334526
 33
0.0
 14
9745.600000000001
 24
6992.293243334525
 34
0.0
100
AcDbRotatedDimension
1001
ACAD
1000
DSTYLE
1002
{
1070
   341
1005
0
1002
}
  0
DIMENSION
  5
230E0
330
747D
100
AcDbEntity
  8
寸法
 48
50.0
100
AcDbDimension
  2
*D45
 10
9043.600000000008
 20
7547.902060004773
 30
0.0
 11
9456.100000000004
 21
7647.913871028395
 31
0.0
 70
    32
 71
     5
 42
824.9999999999927
  3
INABA_S40G
100
AcDbAlignedDimension
 13
9868.6
 23
7065.293243334526
 33
0.0
 14
9043.600000000008
 24
6635.293243334524
 34
0.0
100
AcDbRotatedDimension
1001
ACAD
1000
DSTYLE
1002
{
1070
   341
1005
0
1002
}
  0
LINE
  5
230E1
330
747D
100
AcDbEntity
  8
細線
 48
50.0
100
AcDbLine
 10
8576.280033447424
 20
6865.293243334432
 30
0.0
 11
8733.6
 21
7022.613209887005
 31
0.0
  0
LINE
  5
230E2
330
747D
100
AcDbEntity
  8
細線
 48
50.0
100
AcDbLine
 10
8533.599999999999
 20
6867.514490492353
 30
0.0
 11
8731.378752842198
 21
7065.293243334551
 31
0.0
  0
LINE
  5
230E3
330
747D
100
AcDbEntity
  8
細線
 48
50.0
100
AcDbLine
 10
8533.599999999999
 20
6912.415771097696
 30
0.0
 11
8686.47747223685
 21
7065.293243334551
 31
0.0
  0
LINE
  5
230E4
330
747D
100
AcDbEntity
  8
細線
 48
50.0
100
AcDbLine
 10
8533.599999999999
 20
6957.317051703042
 30
0.0
 11
8641.576191631505
 21
7065.293243334551
 31
0.0
  0
LINE
  5
230E5
330
747D
100
AcDbEntity
  8
細線
 48
50.0
100
AcDbLine
 10
8533.599999999999
 20
7002.218332308391
 30
0.0
 11
8596.674911026161
 21
7065.293243334551
 31
0.0
  0
LINE
  5
230E6
330
747D
100
AcDbEntity
  8
部品1
 48
50.0
100
AcDbLine
 10
8733.6
 20
7065.293243334548
 30
0.0
 11
8733.6
 21
6865.293243334424
 31
0.0
  0
LINE
  5
230E7
330
747D
100
AcDbEntity
  8
部品1
 48
50.0
100
AcDbLine
 10
8533.599999999999
 20
7065.293243334548
 30
0.0
 11
8533.599999999999
 21
6865.293243334434
 31
0.0
  0
LINE
  5
230EA
330
747D
100
AcDbEntity
  8
細線
 48
50.0
100
AcDbLine
 10
8621.181314052767
 20
6865.293243334431
 30
0.0
 11
8733.6
 21
6977.711929281662
 31
0.0
  0
LINE
  5
230EB
330
747D
100
AcDbEntity
  8
細線
 48
50.0
100
AcDbLine
 10
8666.082594658115
 20
6865.293243334427
 30
0.0
 11
8733.6
 21
6932.810648676313
 31
0.0
  0
LINE
  5
230EC
330
747D
100
AcDbEntity
  8
細線
 48
50.0
100
AcDbLine
 10
8710.983875263456
 20
6865.293243334424
 30
0.0
 11
8733.6
 21
6887.90936807097
 31
0.0
  0
LINE
  5
230ED
330
747D
100
AcDbEntity
  8
センター
 48
2.0
100
AcDbLine
 10
8993.600000000007
 20
6585.293243334525
 30
0.0
 11
9093.600000000007
 21
6585.293243334525
 31
0.0
  0
LINE
  5
230EE
330
747D
100
AcDbEntity
  8
部品1
 48
50.0
100
AcDbLine
 10
9143.600000000008
 20
6685.293243334524
 30
0.0
 11
8943.600000000008
 21
6685.293243334524
 31
0.0
  0
LINE
  5
230EF
330
747D
100
AcDbEntity
  8
部品1
 48
50.0
100
AcDbLine
 10
9143.600000000008
 20
6485.293243334524
 30
0.0
 11
8943.600000000008
 21
6485.293243334524
 31
0.0
  0
LINE
  5
230F0
330
747D
100
AcDbEntity
  8
部品1
 48
50.0
100
AcDbLine
 10
8943.600000000008
 20
6485.293243334524
 30
0.0
 11
8943.600000000008
 21
6685.293243334524
 31
0.0
  0
LINE
  5
230F1
330
747D
100
AcDbEntity
  8
センター
 48
2.0
100
AcDbLine
 10
9043.600000000008
 20
6635.293243334524
 30
0.0
 11
9043.600000000008
 21
6535.293243334525
 31
0.0
  0
LINE
  5
230F2
330
747D
100
AcDbEntity
  8
部品1
 48
50.0
100
AcDbLine
 10
9143.600000000008
 20
6485.293243334524
 30
0.0
 11
9143.600000000008
 21
6685.293243334524
 31
0.0
  0
LINE
  5
230F3
330
747D
100
AcDbEntity
  8
細線
 48
50.0
100
AcDbLine
 10
8533.599999999999
 20
7047.119612913734
 30
0.0
 11
8551.773630420816
 21
7065.293243334551
 31
0.0
  0
LINE
  5
230F4
330
747D
100
AcDbEntity
  8
細線
 48
50.0
100
AcDbLine
 10
9396.28003344738
 20
6865.293243334386
 30
0.0
 11
9553.600000000001
 21
7022.613209887008
 31
0.0
  0
LINE
  5
230F5
330
747D
100
AcDbEntity
  8
細線
 48
50.0
100
AcDbLine
 10
9353.6
 20
6867.514490492353
 30
0.0
 11
9551.378752842195
 21
7065.293243334547
 31
0.0
  0
LINE
  5
230F6
330
747D
100
AcDbEntity
  8
細線
 48
50.0
100
AcDbLine
 10
9353.6
 20
6912.415771097695
 30
0.0
 11
9506.47747223685
 21
7065.293243334547
 31
0.0
  0
LINE
  5
230F7
330
747D
100
AcDbEntity
  8
細線
 48
50.0
100
AcDbLine
 10
9353.6
 20
6957.317051703045
 30
0.0
 11
9461.576191631504
 21
7065.293243334547
 31
0.0
  0
LINE
  5
230F8
330
747D
100
AcDbEntity
  8
細線
 48
50.0
100
AcDbLine
 10
9353.6
 20
7002.218332308392
 30
0.0
 11
9416.674911026158
 21
7065.293243334547
 31
0.0
  0
LINE
  5
230F9
330
747D
100
AcDbEntity
  8
部品1
 48
50.0
100
AcDbLine
 10
9553.600000000001
 20
7065.293243334548
 30
0.0
 11
9553.600000000001
 21
6865.293243334377
 31
0.0
  0
LINE
  5
230FA
330
747D
100
AcDbEntity
  8
部品1
 48
50.0
100
AcDbLine
 10
9353.6
 20
7065.293243334548
 30
0.0
 11
9353.6
 21
6865.293243334389
 31
0.0
  0
LINE
  5
230FB
330
747D
100
AcDbEntity
  8
細線
 48
50.0
100
AcDbLine
 10
9441.18131405275
 20
6865.293243334384
 30
0.0
 11
9553.600000000001
 21
6977.711929281662
 31
0.0
  0
LINE
  5
230FC
330
747D
100
AcDbEntity
  8
細線
 48
50.0
100
AcDbLine
 10
9486.082594658068
 20
6865.293243334379
 30
0.0
 11
9553.600000000001
 21
6932.810648676316
 31
0.0
  0
LINE
  5
230FD
330
747D
100
AcDbEntity
  8
細線
 48
50.0
100
AcDbLine
 10
9530.983875263414
 20
6865.293243334377
 30
0.0
 11
9553.600000000001
 21
6887.90936807097
 31
0.0
  0
LINE
  5
230FE
102
{ACAD_REACTORS
330
236A0
102
}
330
747D
100
AcDbEntity
  8
部品1
 48
50.0
100
AcDbLine
 10
9868.599999999993
 20
6710.29324333456
 30
0.0
 11
9748.600000000003
 21
6710.29324333456
 31
0.0
  0
LINE
  5
230FF
102
{ACAD_REACTORS
330
236A0
102
}
330
747D
100
AcDbEntity
  8
部品1
 48
50.0
100
AcDbLine
 10
9868.599999999993
 20
6510.29324333456
 30
0.0
 11
9748.600000000003
 21
6510.29324333456
 31
0.0
  0
LINE
  5
23101
330
747D
100
AcDbEntity
  8
センター
 48
2.0
100
AcDbLine
 10
9745.600000000001
 20
6992.293243334525
 30
0.0
 11
9745.600000000001
 21
6892.293243334525
 31
0.0
  0
CIRCLE
  5
23102
330
747D
100
AcDbEntity
  8
部品1
 48
50.0
100
AcDbCircle
 10
9745.600000000001
 20
6942.293243334525
 30
0.0
 40
35.0
  0
LINE
  5
23103
330
747D
100
AcDbEntity
  8
センター
 48
2.0
100
AcDbLine
 10
9695.6
 20
6942.293243334525
 30
0.0
 11
9795.6
 21
6942.293243334525
 31
0.0
  0
LINE
  5
23104
330
747D
100
AcDbEntity
  8
細線
 48
50.0
100
AcDbLine
 10
9353.6
 20
7047.119612913734
 30
0.0
 11
9371.773630420815
 21
7065.293243334551
 31
0.0
  0
TEXT
  5
23628
330
747D
100
AcDbEntity
  8
文字
 62
     7
 48
50.0
100
AcDbText
 10
14251.2
 20
838.2527270729188
 30
0.0
 40
100.0
  1
～一般型・多雪地型・豪雪地型～
  7
STYLE2
100
AcDbText
  0
LINE
  5
23649
330
747D
100
AcDbEntity
  8
部品1
 48
50.0
100
AcDbLine
 10
6698.600000000002
 20
6385.293243334555
 30
0.0
 11
9748.600000000001
 21
6385.293243334552
 31
0.0
  0
LINE
  5
23667
102
{ACAD_REACTORS
330
236A0
102
}
330
747D
100
AcDbEntity
  8
部品1
 48
50.0
100
AcDbLine
 10
9748.600000000001
 20
6385.293243334551
 30
0.0
 11
9748.600000000005
 21
6865.293243334534
 31
0.0
  0
LINE
  5
23668
102
{ACAD_REACTORS
330
23684
102
}
330
747D
100
AcDbEntity
  8
部品1
 48
50.0
100
AcDbLine
 10
6698.6
 20
6385.293243334552
 30
0.0
 11
6698.6
 21
6865.29324333454
 31
0.0
  0
HATCH
  5
23684
330
747D
100
AcDbEntity
  8
細線
 48
50.0
100
AcDbHatch
 10
0.0
 20
0.0
 30
0.0
210
0.0
220
0.0
230
1.0
  2
LINE
 70
     0
 71
     1
 91
        1
 92
        7
 72
     0
 73
     1
 93
        4
 10
6698.599999999998
 20
6710.293243334556
 10
6578.6
 20
6710.293243334558
 10
6578.6
 20
6510.293243334557
 10
6698.599999999998
 20
6510.293243334557
 97
        4
330
2308B
330
2305F
330
2308C
330
23668
 75
     0
 76
     1
 52
45.0
 41
10.0
 77
     0
 78
     1
 53
45.0
 43
0.0
 44
0.0
 45
-22.45064030267288
 46
22.45064030267288
 79
     0
 47
4.137413275661806
 98
        1
 10
6635.666592973423
 20
6654.545431836803
  0
HATCH
  5
236A0
330
747D
100
AcDbEntity
  8
細線
 48
50.0
100
AcDbHatch
 10
0.0
 20
0.0
 30
0.0
210
0.0
220
0.0
230
1.0
  2
LINE
 70
     0
 71
     1
 91
        1
 92
        7
 72
     0
 73
     1
 93
        4
 10
9868.600000000002
 20
6710.29324333456
 10
9748.600000000003
 20
6710.29324333456
 10
9748.600000000001
 20
6510.29324333456
 10
9868.600000000002
 20
6510.29324333456
 97
        4
330
230FE
330
23667
330
230FF
330
230BC
 75
     0
 76
     1
 52
45.0
 41
10.0
 77
     0
 78
     1
 53
45.0
 43
0.0
 44
0.0
 45
-22.45064030267288
 46
22.45064030267288
 79
     0
 47
4.137413275661806
 98
        1
 10
9819.037874481598
 20
6650.40802072818
  0
MTEXT
  5
2382E
102
{ACAD_REACTORS
330
2382F
102
}
330
747D
100
AcDbEntity
  8
寸法
 62
     7
 48
50.0
100
AcDbMText
 10
10566.79987903915
 20
2354.056635701761
 30
0.0
 40
120.0
 41
0.8
 71
     4
 72
     1
  1
\A1;C.B
  7
STYLE1
 73
     1
 44
1.0
1001
ACAD
1000
MTEXTBEGIN
1070
    73
1070
     1
1070
    44
1040
1.0
1070
    74
1070
     0
1000
MTEXTEND
  0
LEADER
  5
2382F
330
747D
100
AcDbEntity
  8
寸法
 48
50.0
100
AcDbLeader
  3
INABA_S50G
 73
     0
 74
     0
 75
     1
 40
120.0
 41
185.591883092037
 76
     3
 10
10383.6616724055
 20
2096.910315020623
 30
0.0
 10
10416.79987903915
 20
2269.05663570176
 30
0.0
 10
10541.79987903915
 20
2269.05663570176
 30
0.0
340
2382E
1001
ACAD
1000
DSTYLE
1002
{
1070
    40
1040
1.0
1002
}
  0
LINE
  5
23830
330
747D
100
AcDbEntity
  8
細線
 48
50.0
100
AcDbLine
 10
10529.31508598191
 20
1741.211399367272
 30
0.0
 11
10522.88430536357
 21
1765.211399367272
 31
0.0
  0
LINE
  5
23831
330
747D
100
AcDbEntity
  8
細線
 48
50.0
100
AcDbLine
 10
10507.87915058742
 20
1661.211399367272
 30
0.0
 11
10514.30993120577
 21
1637.211399367272
 31
0.0
  0
LINE
  5
23832
330
747D
100
AcDbEntity
  8
部品1
100
AcDbLine
 10
10572.93726078958
 20
1856.910315020623
 30
0.0
 11
10572.93726078958
 21
1637.211399367273
 31
0.0
  0
LINE
  5
23833
330
747D
100
AcDbEntity
  8
細線
 48
50.0
100
AcDbLine
 10
10501.44836996907
 20
1637.211399367272
 30
0.0
 11
10535.74586660026
 21
1765.21139936727
 31
0.0
  0
LINE
  5
23834
330
747D
100
AcDbEntity
  8
細線
 48
50.0
100
AcDbLine
 10
10450.42704103467
 20
1741.211399367272
 30
0.0
 11
10443.99626041632
 21
1765.211399367272
 31
0.0
  0
LINE
  5
23835
330
747D
100
AcDbEntity
  8
細線
100
AcDbLine
 10
10325.97365528891
 20
1765.211399367274
 30
0.0
 11
10417.67257094226
 21
1856.910315020623
 31
0.0
  0
LINE
  5
23836
330
747D
100
AcDbEntity
  8
細線
 48
50.0
100
AcDbLine
 10
10371.53899608741
 20
1741.211399367273
 30
0.0
 11
10365.10821546906
 21
1765.211399367273
 31
0.0
  0
LINE
  5
23837
330
747D
100
AcDbEntity
  8
細線
100
AcDbLine
 10
10359.91478078587
 20
1765.211399367274
 30
0.0
 11
10451.61369643921
 21
1856.910315020623
 31
0.0
  0
LINE
  5
23838
330
747D
100
AcDbEntity
  8
細線
 48
50.0
100
AcDbLine
 10
10134.87486124568
 20
1741.211399367273
 30
0.0
 11
10128.44408062733
 21
1765.211399367273
 31
0.0
  0
LINE
  5
23839
330
747D
100
AcDbEntity
  8
細線
 48
50.0
100
AcDbLine
 10
10213.76290619292
 20
1741.211399367273
 30
0.0
 11
10207.33212557458
 21
1765.211399367273
 31
0.0
  0
LINE
  5
2383A
330
747D
100
AcDbEntity
  8
細線
 48
50.0
100
AcDbLine
 10
10292.65095114017
 20
1741.211399367273
 30
0.0
 11
10286.22017052182
 21
1765.211399367273
 31
0.0
  0
LINE
  5
2383B
330
747D
100
AcDbEntity
  8
細線
 48
50.0
100
AcDbLine
 10
10428.99110564018
 20
1661.211399367272
 30
0.0
 11
10435.42188625852
 21
1637.211399367272
 31
0.0
  0
LINE
  5
2383C
330
747D
100
AcDbEntity
  8
細線
 48
50.0
100
AcDbLine
 10
10350.10306069293
 20
1661.211399367273
 30
0.0
 11
10356.53384131129
 21
1637.211399367273
 31
0.0
  0
LINE
  5
2383D
330
747D
100
AcDbEntity
  8
細線
 48
50.0
100
AcDbLine
 10
10192.32697079843
 20
1661.211399367273
 30
0.0
 11
10198.75775141678
 21
1637.211399367273
 31
0.0
  0
LINE
  5
2383E
330
747D
100
AcDbEntity
  8
細線
 48
50.0
100
AcDbLine
 10
10271.21501574568
 20
1661.211399367273
 30
0.0
 11
10277.64579636403
 21
1637.211399367273
 31
0.0
  0
LINE
  5
2383F
330
747D
100
AcDbEntity
  8
細線
 48
50.0
100
AcDbLine
 10
10264.78423512733
 20
1637.211399367273
 30
0.0
 11
10299.08173175851
 21
1765.211399367272
 31
0.0
  0
LINE
  5
23840
330
747D
100
AcDbEntity
  8
細線
 48
50.0
100
AcDbLine
 10
10185.89619018009
 20
1637.211399367272
 30
0.0
 11
10220.19368681127
 21
1765.211399367272
 31
0.0
  0
LINE
  5
23841
330
747D
100
AcDbEntity
  8
細線
 48
50.0
100
AcDbLine
 10
10343.67228007458
 20
1637.211399367272
 30
0.0
 11
10377.96977670575
 21
1765.211399367273
 31
0.0
  0
LINE
  5
23842
330
747D
100
AcDbEntity
  8
細線
100
AcDbLine
 10
10393.85590628282
 20
1765.211399367274
 30
0.0
 11
10485.55482193617
 21
1856.910315020623
 31
0.0
  0
LINE
  5
23843
330
747D
100
AcDbEntity
  8
細線
 48
50.0
100
AcDbLine
 10
10422.56032502183
 20
1637.21139936727
 30
0.0
 11
10456.85782165301
 21
1765.21139936727
 31
0.0
  0
LINE
  5
23844
330
747D
100
AcDbEntity
  8
部品1
100
AcDbLine
 10
10452.93726078958
 20
2096.910315020623
 30
0.0
 11
10452.93726078958
 21
1856.910315020623
 31
0.0
  0
LINE
  5
23845
330
747D
100
AcDbEntity
  8
細線
100
AcDbLine
 10
10439.099598442
 20
1856.910315020624
 30
0.0
 11
10199.099598442
 21
2096.910315020623
 31
0.0
  0
LINE
  5
23846
330
747D
100
AcDbEntity
  8
細線
100
AcDbLine
 10
10388.18791019657
 20
1856.910315020623
 30
0.0
 11
10148.18791019657
 21
2096.910315020623
 31
0.0
  0
LINE
  5
23847
330
747D
100
AcDbEntity
  8
細線
100
AcDbLine
 10
9999.914780785868
 20
1765.211399367273
 30
0.0
 11
10091.61369643921
 21
1856.910315020623
 31
0.0
  0
LINE
  5
23848
330
747D
100
AcDbEntity
  8
細線
100
AcDbLine
 10
9965.973655288911
 20
1765.211399367273
 30
0.0
 11
10057.67257094226
 21
1856.910315020623
 31
0.0
  0
LINE
  5
23849
330
747D
100
AcDbEntity
  8
細線
 48
50.0
100
AcDbLine
 10
9977.098771351183
 20
1741.211399367273
 30
0.0
 11
9970.667990732836
 21
1765.211399367273
 31
0.0
  0
LINE
  5
2384A
330
747D
100
AcDbEntity
  8
細線
 48
50.0
100
AcDbLine
 10
10055.98681629843
 20
1741.211399367273
 30
0.0
 11
10049.55603568009
 21
1765.211399367273
 31
0.0
  0
LINE
  5
2384B
330
747D
100
AcDbEntity
  8
細線
 48
50.0
100
AcDbLine
 10
9898.210726403931
 20
1741.211399367273
 30
0.0
 11
9891.779945785584
 21
1765.211399367273
 31
0.0
  0
LINE
  5
2384C
330
747D
100
AcDbEntity
  8
細線
 48
50.0
100
AcDbLine
 10
10113.43892585119
 20
1661.211399367273
 30
0.0
 11
10119.86970646954
 21
1637.211399367273
 31
0.0
  0
LINE
  5
2384D
330
747D
100
AcDbEntity
  8
細線
 48
50.0
100
AcDbLine
 10
10034.55088090394
 20
1661.211399367273
 30
0.0
 11
10040.98166152229
 21
1637.211399367273
 31
0.0
  0
LINE
  5
2384E
330
747D
100
AcDbEntity
  8
細線
 48
50.0
100
AcDbLine
 10
9876.774791009443
 20
1661.211399367273
 30
0.0
 11
9883.20557162779
 21
1637.211399367273
 31
0.0
  0
LINE
  5
2384F
330
747D
100
AcDbEntity
  8
細線
 48
50.0
100
AcDbLine
 10
9955.662835956694
 20
1661.211399367273
 30
0.0
 11
9962.093616575041
 21
1637.211399367273
 31
0.0
  0
LINE
  5
23850
330
747D
100
AcDbEntity
  8
部品1
100
AcDbLine
 10
9852.937260789582
 20
1637.211399367269
 30
0.0
 11
9852.937260789582
 21
1856.910315020623
 31
0.0
  0
LINE
  5
23851
330
747D
100
AcDbEntity
  8
細線
 48
50.0
100
AcDbLine
 10
9870.344010391095
 20
1637.211399367273
 30
0.0
 11
9904.641507022279
 21
1765.211399367273
 31
0.0
  0
LINE
  5
23852
330
747D
100
AcDbEntity
  8
細線
 48
50.0
100
AcDbLine
 10
10028.12010028559
 20
1637.211399367273
 30
0.0
 11
10062.41759691677
 21
1765.211399367273
 31
0.0
  0
LINE
  5
23853
330
747D
100
AcDbEntity
  8
細線
 48
50.0
100
AcDbLine
 10
9949.232055338342
 20
1637.211399367272
 30
0.0
 11
9983.529551969525
 21
1765.211399367272
 31
0.0
  0
LINE
  5
23854
330
747D
100
AcDbEntity
  8
部品1
100
AcDbLine
 10
9972.937260789583
 20
1856.910315020623
 30
0.0
 11
9972.937260789583
 21
2096.910315020623
 31
0.0
  0
TEXT
  5
23855
330
747D
100
AcDbEntity
  8
部品1
 48
50.0
100
AcDbText
 10
9208.819174031079
 20
1590.110574383314
 30
0.0
 40
80.0
  1
ボルトの出
 50
90.0
  7
STYLE2
100
AcDbText
  0
LINE
  5
23856
330
747D
100
AcDbEntity
  8
細線
100
AcDbLine
 10
10116.65890622093
 20
1856.910315020623
 30
0.0
 11
9972.937260789583
 21
2000.631960451976
 31
0.0
  0
LWPOLYLINE
  5
23857
330
747D
100
AcDbEntity
  8
部品1
 48
50.0
100
AcDbPolyline
 90
        2
 70
     0
 43
12.0
 10
9588.325998689194
 20
1856.910315020623
 10
10789.41830182082
 20
1856.910315020623
  0
LINE
  5
23858
330
747D
100
AcDbEntity
  8
細線
100
AcDbLine
 10
10033.85590628282
 20
1765.211399367273
 30
0.0
 11
10125.55482193617
 21
1856.910315020623
 31
0.0
  0
LINE
  5
23859
330
747D
100
AcDbEntity
  8
部品1
100
AcDbLine
 10
9852.937260789582
 20
1765.211399367273
 30
0.0
 11
10572.93726078958
 21
1765.211399367276
 31
0.0
  0
LINE
  5
2385A
330
747D
100
AcDbEntity
  8
部品1
100
AcDbLine
 10
9852.937260789582
 20
1637.211399367269
 30
0.0
 11
10572.93726078958
 21
1637.211399367273
 31
0.0
  0
LINE
  5
2385B
330
747D
100
AcDbEntity
  8
細線
 48
50.0
100
AcDbLine
 10
10107.00814523284
 20
1637.211399367273
 30
0.0
 11
10141.30564186402
 21
1765.211399367272
 31
0.0
  0
LINE
  5
2385C
330
747D
100
AcDbEntity
  8
部品1
100
AcDbLine
 10
9972.937260789583
 20
2096.910315020623
 30
0.0
 11
10452.93726078958
 21
2096.910315020623
 31
0.0
  0
LINE
  5
2385D
330
747D
100
AcDbEntity
  8
細線
100
AcDbLine
 10
10167.57059446636
 20
1856.910315020623
 30
0.0
 11
9972.937260789583
 21
2051.543648697406
 31
0.0
  0
LINE
  5
2385E
330
747D
100
AcDbEntity
  8
部品1
100
AcDbLine
 10
11159.67876188661
 20
531.9420126365612
 30
0.0
 11
11159.67876188662
 21
3496.248982221209
 31
0.0
  0
TEXT
  5
2385F
330
747D
100
AcDbEntity
  8
部品1
100
AcDbText
 10
7781.573577678755
 20
3316.697050269781
 30
0.0
 40
120.0
  1
基礎詳細
  7
STYLE2
100
AcDbText
  0
LINE
  5
23860
330
747D
100
AcDbEntity
  8
部品1
 48
50.0
100
AcDbLine
 10
8096.801328486824
 20
2495.785596129766
 30
0.0
 11
8112.801328486824
 21
2487.785596129766
 31
0.0
  0
LINE
  5
23861
330
747D
100
AcDbEntity
  8
細線
 48
50.0
100
AcDbLine
 10
8064.801328486826
 20
2447.785596129766
 30
0.0
 11
8064.801328486826
 21
2479.785596129766
 31
0.0
  0
LINE
  5
23862
330
747D
100
AcDbEntity
  8
部品1
 48
50.0
100
AcDbLine
 10
8112.801328486824
 20
2455.785596129766
 30
0.0
 11
8112.801328486824
 21
2487.785596129766
 31
0.0
  0
LINE
  5
23863
330
747D
100
AcDbEntity
  8
細線
 48
50.0
100
AcDbLine
 10
8096.801328486824
 20
2447.785596129766
 30
0.0
 11
8096.801328486824
 21
2479.785596129766
 31
0.0
  0
LINE
  5
23864
330
747D
100
AcDbEntity
  8
部品1
 48
50.0
100
AcDbLine
 10
8096.801328486824
 20
2479.785596129766
 30
0.0
 11
8112.801328486824
 21
2487.785596129766
 31
0.0
  0
LINE
  5
23865
330
747D
100
AcDbEntity
  8
部品1
 48
50.0
100
AcDbLine
 10
8064.801328486826
 20
2479.785596129766
 30
0.0
 11
8096.801328486824
 21
2479.785596129766
 31
0.0
  0
LINE
  5
23866
330
747D
100
AcDbEntity
  8
部品1
 48
50.0
100
AcDbLine
 10
8096.801328486824
 20
2447.785596129766
 30
0.0
 11
8112.801328486824
 21
2455.785596129766
 31
0.0
  0
LINE
  5
23867
330
747D
100
AcDbEntity
  8
部品1
 48
50.0
100
AcDbLine
 10
8064.801328486826
 20
2447.785596129766
 30
0.0
 11
8096.801328486824
 21
2447.785596129766
 31
0.0
  0
ELLIPSE
  5
23868
330
747D
100
AcDbEntity
  8
細線
 48
50.0
100
AcDbEllipse
 10
8080.801328486826
 20
2487.785596129766
 30
0.0
 11
14.76670786606846
 21
0.0
 31
0.0
210
0.0
220
0.0
230
1.0
 40
0.2071254069489396
 41
0.0
 42
6.283185307179586
  0
LINE
  5
23869
330
747D
100
AcDbEntity
  8
部品1
 48
50.0
100
AcDbLine
 10
8064.801328486826
 20
2495.785596129766
 30
0.0
 11
8096.801328486824
 21
2495.785596129766
 31
0.0
  0
LINE
  5
2386A
330
747D
100
AcDbEntity
  8
部品1
 48
50.0
100
AcDbLine
 10
8048.801328486824
 20
2455.785596129766
 30
0.0
 11
8048.801328486824
 21
2487.785596129766
 31
0.0
  0
LINE
  5
2386B
330
747D
100
AcDbEntity
  8
部品1
 48
50.0
100
AcDbLine
 10
8048.801328486824
 20
2487.785596129766
 30
0.0
 11
8064.801328486826
 21
2495.785596129766
 31
0.0
  0
LINE
  5
2386C
330
747D
100
AcDbEntity
  8
部品1
 48
50.0
100
AcDbLine
 10
8048.801328486824
 20
2455.785596129766
 30
0.0
 11
8064.801328486826
 21
2447.785596129766
 31
0.0
  0
LINE
  5
2386D
330
747D
100
AcDbEntity
  8
部品1
 48
50.0
100
AcDbLine
 10
8048.801328486824
 20
2487.785596129766
 30
0.0
 11
8064.801328486826
 21
2479.785596129766
 31
0.0
  0
LINE
  5
2386E
330
747D
100
AcDbEntity
  8
部品1
 48
50.0
100
AcDbLine
 10
8120.801328486825
 20
2356.433603464895
 30
0.0
 11
8120.801328486825
 21
2366.033603464895
 31
0.0
  0
ELLIPSE
  5
2386F
330
747D
100
AcDbEntity
  8
部品1
 48
50.0
100
AcDbEllipse
 10
8080.801328486826
 20
2366.033603464895
 30
0.0
 11
18.4
 21
0.0
 31
0.0
210
0.0
220
0.0
230
1.0
 40
0.3478260869565217
 41
0.0
 42
6.283185307179586
  0
ARC
  5
23870
330
747D
100
AcDbEntity
  8
部品1
100
AcDbCircle
 10
7919.701328486825
 20
2195.010315020623
 30
0.0
 40
2.7
100
AcDbArc
 50
90.0
 51
180.0
  0
LINE
  5
23871
330
747D
100
AcDbEntity
  8
部品1
100
AcDbLine
 10
7922.401328486824
 20
2208.510315020623
 30
0.0
 11
7964.701328486825
 21
2208.51031502062
 31
0.0
  0
LINE
  5
23872
330
747D
100
AcDbEntity
  8
部品1
100
AcDbLine
 10
7919.701328486825
 20
2197.710315020623
 30
0.0
 11
7919.701328486825
 21
2205.810315020622
 31
0.0
  0
LINE
  5
23873
330
747D
100
AcDbEntity
  8
部品1
100
AcDbLine
 10
7919.701328486825
 20
2197.710315020623
 30
0.0
 11
7919.701328486825
 21
2197.710315020623
 31
0.0
  0
ARC
  5
23874
330
747D
100
AcDbEntity
  8
部品1
100
AcDbCircle
 10
7922.401328486824
 20
2205.810315020622
 30
0.0
 40
2.7
100
AcDbArc
 50
90.0
 51
180.0
  0
ARC
  5
23875
330
747D
100
AcDbEntity
  8
部品1
100
AcDbCircle
 10
7964.701328486825
 20
2205.81031502062
 30
0.0
 40
2.7
100
AcDbArc
 50
0.0
 51
90.0
  0
LINE
  5
23876
330
747D
100
AcDbEntity
  8
部品1
 48
50.0
100
AcDbLine
 10
8040.801328486825
 20
2366.033603464895
 30
0.0
 11
8040.801328486825
 21
2356.433603464895
 31
0.0
  0
ELLIPSE
  5
23877
330
747D
100
AcDbEntity
  8
部品1
 48
50.0
100
AcDbEllipse
 10
8080.801328486826
 20
2356.433603464896
 30
0.0
 11
40.0
 21
0.0
 31
0.0
210
0.0
220
0.0
230
1.0
 40
0.4
 41
3.141592653589793
 42
6.283185307179586
  0
ELLIPSE
  5
23878
330
747D
100
AcDbEntity
  8
部品1
 48
50.0
100
AcDbEllipse
 10
8080.801328486826
 20
2366.033603464895
 30
0.0
 11
40.0
 21
0.0
 31
0.0
210
0.0
220
0.0
230
1.0
 40
0.4
 41
0.0
 42
6.283185307179586
  0
LINE
  5
23879
330
747D
100
AcDbEntity
  8
部品1
100
AcDbLine
 10
8075.401328486824
 20
2149.670315020623
 30
0.0
 11
8086.201328486824
 21
2149.670315020623
 31
0.0
  0
LINE
  5
2387A
330
747D
100
AcDbEntity
  8
部品1
100
AcDbLine
 10
8071.801328486825
 20
2146.070315020624
 30
0.0
 11
8089.801328486826
 21
2146.070315020624
 31
0.0
  0
LINE
  5
2387B
330
747D
100
AcDbEntity
  8
細線
100
AcDbLine
 10
8075.401328486826
 20
2106.470315020624
 30
0.0
 11
8075.401328486824
 21
2149.670315020623
 31
0.0
  0
LINE
  5
2387C
330
747D
100
AcDbEntity
  8
細線
100
AcDbLine
 10
8086.201328486824
 20
2106.470315020624
 30
0.0
 11
8086.201328486824
 21
2149.670315020623
 31
0.0
  0
LINE
  5
2387D
330
747D
100
AcDbEntity
  8
部品1
100
AcDbLine
 10
7988.101328486824
 20
2163.770315020624
 30
0.0
 11
7988.101328486824
 21
2146.670315020623
 31
0.0
  0
LINE
  5
2387E
330
747D
100
AcDbEntity
  8
部品1
100
AcDbLine
 10
8021.661328486827
 20
2163.770315020624
 30
0.0
 11
8021.661328486821
 21
2109.170315020623
 31
0.0
  0
ARC
  5
2387F
330
747D
100
AcDbEntity
  8
部品1
100
AcDbCircle
 10
8007.001328486825
 20
2151.810315020623
 30
0.0
 40
2.7
100
AcDbArc
 50
0.0
 51
90.0
  0
LINE
  5
23880
330
747D
100
AcDbEntity
  8
部品1
100
AcDbLine
 10
7967.401328486824
 20
2154.510315020623
 30
0.0
 11
8007.001328486825
 21
2154.510315020623
 31
0.0
  0
ARC
  5
23881
330
747D
100
AcDbEntity
  8
部品1
100
AcDbCircle
 10
8007.001328486825
 20
2109.170315020623
 30
0.0
 40
2.7
100
AcDbArc
 50
270.0
 51
0.0
  0
ARC
  5
23882
330
747D
100
AcDbEntity
  8
部品1
100
AcDbCircle
 10
8024.361328486818
 20
2109.170315020623
 30
0.0
 40
2.7
100
AcDbArc
 50
180.0
 51
270.0
  0
LINE
  5
23883
330
747D
100
AcDbEntity
  8
部品1
100
AcDbLine
 10
7995.301328486824
 20
2106.470315020624
 30
0.0
 11
8007.001328486825
 21
2106.470315020624
 31
0.0
  0
LINE
  5
23884
330
747D
100
AcDbEntity
  8
部品1
100
AcDbLine
 10
8009.701328486825
 20
2151.810315020623
 30
0.0
 11
8009.701328486825
 21
2109.170315020623
 31
0.0
  0
ARC
  5
23885
330
747D
100
AcDbEntity
  8
部品1
100
AcDbCircle
 10
8018.961328486824
 20
2163.770315020624
 30
0.0
 40
2.7
100
AcDbArc
 50
0.0
 51
90.0
  0
ARC
  5
23886
330
747D
100
AcDbEntity
  8
部品1
100
AcDbCircle
 10
7990.801328486824
 20
2163.770315020624
 30
0.0
 40
2.7
100
AcDbArc
 50
90.0
 51
180.0
  0
LINE
  5
23887
330
747D
100
AcDbEntity
  8
部品1
100
AcDbLine
 10
7990.801328486824
 20
2166.470315020623
 30
0.0
 11
8018.961328486824
 21
2166.470315020623
 31
0.0
  0
LINE
  5
23888
330
747D
100
AcDbEntity
  8
部品1
100
AcDbLine
 10
7967.401328486824
 20
2205.81031502062
 30
0.0
 11
7967.401328486824
 21
2154.510315020623
 31
0.0
  0
LINE
  5
23889
330
747D
100
AcDbEntity
  8
部品1
100
AcDbLine
 10
7917.001328486826
 20
2186.910315020623
 30
0.0
 11
7917.001328486826
 21
2195.010315020623
 31
0.0
  0
LINE
  5
2388A
330
747D
100
AcDbEntity
  8
部品1
100
AcDbLine
 10
8024.361328486818
 20
2106.470315020624
 30
0.0
 11
8225.701328486819
 21
2106.470315020624
 31
0.0
  0
LINE
  5
2388B
330
747D
100
AcDbEntity
  8
部品1
100
AcDbLine
 10
7865.701328486824
 20
2109.170315020623
 30
0.0
 11
7865.701328486824
 21
2171.302218723331
 31
0.0
  0
LINE
  5
2388C
330
747D
100
AcDbEntity
  8
部品1
100
AcDbLine
 10
7868.401328486823
 20
2106.470315020624
 30
0.0
 11
7880.101328486819
 21
2106.470315020624
 31
0.0
  0
LINE
  5
2388D
330
747D
100
AcDbEntity
  8
細線
 48
50.0
100
AcDbLine
 10
7859.401328486824
 20
2084.690891320528
 30
0.0
 11
7871.620752186918
 21
2096.910315020623
 31
0.0
  0
ARC
  5
2388E
330
747D
100
AcDbEntity
  8
部品1
100
AcDbCircle
 10
7868.401328486823
 20
2109.170315020623
 30
0.0
 40
2.7
100
AcDbArc
 50
180.0
 51
270.0
  0
LINE
  5
2388F
330
747D
100
AcDbEntity
  8
部品1
100
AcDbLine
 10
7867.746482299226
 20
2173.921603473723
 30
0.0
 11
7876.501328486826
 21
2176.110315020623
 31
0.0
  0
ARC
  5
23890
330
747D
100
AcDbEntity
  8
部品1
100
AcDbCircle
 10
7868.401328486823
 20
2171.302218723331
 30
0.0
 40
2.7
100
AcDbArc
 50
104.0362434679059
 51
180.0
  0
ARC
  5
23891
330
747D
100
AcDbEntity
  8
部品1
100
AcDbCircle
 10
7879.201328486825
 20
2184.210315020623
 30
0.0
 40
2.7
100
AcDbArc
 50
90.0
 51
180.0
  0
LINE
  5
23892
330
747D
100
AcDbEntity
  8
部品1
100
AcDbLine
 10
7876.501328486826
 20
2176.110315020623
 30
0.0
 11
7876.501328486826
 21
2184.210315020623
 31
0.0
  0
LINE
  5
23893
330
747D
100
AcDbEntity
  8
部品1
 48
50.0
100
AcDbLine
 10
7859.401328486824
 20
2096.910315020623
 30
0.0
 11
8273.401328486826
 21
2096.910315020623
 31
0.0
  0
LINE
  5
23894
330
747D
100
AcDbEntity
  8
細線
 48
50.0
100
AcDbLine
 10
7859.401328486824
 20
2030.809354594113
 30
0.0
 11
7925.502288913334
 21
2096.910315020623
 31
0.0
  0
LINE
  5
23895
330
747D
100
AcDbEntity
  8
細線
 48
50.0
100
AcDbLine
 10
7859.401328486824
 20
2057.750122957321
 30
0.0
 11
7898.56152055013
 21
2096.910315020623
 31
0.0
  0
LINE
  5
23896
330
747D
100
AcDbEntity
  8
部品1
100
AcDbLine
 10
7879.201328486825
 20
2186.910315020623
 30
0.0
 11
7917.001328486826
 21
2186.910315020623
 31
0.0
  0
LINE
  5
23897
330
747D
100
AcDbEntity
  8
部品1
 48
50.0
100
AcDbLine
 10
8273.401328486825
 20
1552.910315020623
 30
0.0
 11
8401.401328486825
 21
1552.910315020623
 31
0.0
  0
LINE
  5
23898
330
747D
100
AcDbEntity
  8
部品1
100
AcDbLine
 10
8089.801328486826
 20
1871.910315020623
 30
0.0
 11
8125.801328486826
 21
1871.910315020623
 31
0.0
  0
LINE
  5
23899
330
747D
100
AcDbEntity
  8
部品1
100
AcDbLine
 10
8089.801328486826
 20
1853.910315020623
 30
0.0
 11
8125.801328486826
 21
1853.910315020623
 31
0.0
  0
ARC
  5
2389A
330
747D
100
AcDbEntity
  8
部品1
100
AcDbCircle
 10
8089.801328486826
 20
1871.910315020623
 30
0.0
 40
18.0
100
AcDbArc
 50
180.0
 51
270.0
  0
LINE
  5
2389B
330
747D
100
AcDbEntity
  8
部品1
100
AcDbLine
 10
8125.801328486826
 20
1853.910315020623
 30
0.0
 11
8125.801328486826
 21
1871.910315020623
 31
0.0
  0
LINE
  5
2389C
330
747D
100
AcDbEntity
  8
部品1
100
AcDbLine
 10
8143.801328486825
 20
1772.910315020621
 30
0.0
 11
8017.801328486816
 21
1772.910315020621
 31
0.0
  0
LINE
  5
2389D
330
747D
100
AcDbEntity
  8
細線
 48
50.0
100
AcDbLine
 10
8437.779153679159
 20
1288.910315020621
 30
0.0
 11
8431.348373060812
 21
1312.910315020621
 31
0.0
  0
LINE
  5
2389E
330
747D
100
AcDbEntity
  8
細線
 48
50.0
100
AcDbLine
 10
8358.891108731915
 20
1288.910315020621
 30
0.0
 11
8352.460328113568
 21
1312.910315020621
 31
0.0
  0
LINE
  5
2389F
330
747D
100
AcDbEntity
  8
細線
 48
50.0
100
AcDbLine
 10
8280.003063784658
 20
1288.910315020623
 30
0.0
 11
8273.572283166309
 21
1312.910315020623
 31
0.0
  0
LINE
  5
238A0
330
747D
100
AcDbEntity
  8
細線
 48
50.0
100
AcDbLine
 10
8416.343218284671
 20
1208.910315020621
 30
0.0
 11
8422.773998903018
 21
1184.910315020621
 31
0.0
  0
LINE
  5
238A1
330
747D
100
AcDbEntity
  8
細線
 48
50.0
100
AcDbLine
 10
8337.455173337424
 20
1208.910315020621
 30
0.0
 11
8343.885953955771
 21
1184.910315020621
 31
0.0
  0
LINE
  5
238A2
330
747D
100
AcDbEntity
  8
細線
 48
50.0
100
AcDbLine
 10
8258.567128390176
 20
1208.910315020623
 30
0.0
 11
8264.997909008533
 21
1184.910315020623
 31
0.0
  0
LINE
  5
238A3
330
747D
100
AcDbEntity
  8
細線
 48
50.0
100
AcDbLine
 10
8331.024392719076
 20
1184.91031502062
 30
0.0
 11
8365.321889350258
 21
1312.91031502062
 31
0.0
  0
LINE
  5
238A4
330
747D
100
AcDbEntity
  8
細線
 48
50.0
100
AcDbLine
 10
8252.136347771827
 20
1184.910315020621
 30
0.0
 11
8286.433844402999
 21
1312.910315020623
 31
0.0
  0
LINE
  5
238A5
330
747D
100
AcDbEntity
  8
細線
 48
50.0
100
AcDbLine
 10
8409.912437666319
 20
1184.910315020621
 30
0.0
 11
8444.209934297505
 21
1312.91031502062
 31
0.0
  0
LINE
  5
238A6
330
747D
100
AcDbEntity
  8
部品1
 48
50.0
100
AcDbLine
 10
8481.401328486827
 20
1312.910315020623
 30
0.0
 11
8481.401328486827
 21
1184.910315020623
 31
0.0
  0
LINE
  5
238A7
330
747D
100
AcDbEntity
  8
細線
 48
50.0
100
AcDbLine
 10
8201.11501883742
 20
1288.910315020623
 30
0.0
 11
8194.684238219073
 21
1312.910315020623
 31
0.0
  0
LINE
  5
238A8
330
747D
100
AcDbEntity
  8
細線
 48
50.0
100
AcDbLine
 10
8122.226973890175
 20
1288.910315020623
 30
0.0
 11
8115.796193271826
 21
1312.910315020623
 31
0.0
  0
LINE
  5
238A9
330
747D
100
AcDbEntity
  8
細線
 48
50.0
100
AcDbLine
 10
7964.45088399568
 20
1288.910315020623
 30
0.0
 11
7958.020103377333
 21
1312.910315020623
 31
0.0
  0
LINE
  5
238AA
330
747D
100
AcDbEntity
  8
細線
 48
50.0
100
AcDbLine
 10
8043.338928942928
 20
1288.910315020623
 30
0.0
 11
8036.908148324579
 21
1312.910315020623
 31
0.0
  0
LINE
  5
238AB
330
747D
100
AcDbEntity
  8
細線
 48
50.0
100
AcDbLine
 10
8100.791038495684
 20
1208.910315020623
 30
0.0
 11
8107.22181911403
 21
1184.910315020623
 31
0.0
  0
LINE
  5
238AC
330
747D
100
AcDbEntity
  8
細線
 48
50.0
100
AcDbLine
 10
8179.67908344293
 20
1208.910315020623
 30
0.0
 11
8186.109864061277
 21
1184.910315020623
 31
0.0
  0
LINE
  5
238AD
330
747D
100
AcDbEntity
  8
細線
 48
50.0
100
AcDbLine
 10
7943.014948601192
 20
1208.910315020623
 30
0.0
 11
7949.445729219539
 21
1184.910315020623
 31
0.0
  0
LINE
  5
238AE
330
747D
100
AcDbEntity
  8
細線
 48
50.0
100
AcDbLine
 10
8021.902993548438
 20
1208.910315020623
 30
0.0
 11
8028.333774166787
 21
1184.910315020623
 31
0.0
  0
LINE
  5
238AF
330
747D
100
AcDbEntity
  8
細線
 48
50.0
100
AcDbLine
 10
8173.248302824577
 20
1184.910315020623
 30
0.0
 11
8207.545799455763
 21
1312.910315020621
 31
0.0
  0
LINE
  5
238B0
330
747D
100
AcDbEntity
  8
細線
 48
50.0
100
AcDbLine
 10
8015.472212930086
 20
1184.910315020623
 30
0.0
 11
8049.769709561271
 21
1312.910315020621
 31
0.0
  0
LINE
  5
238B1
330
747D
100
AcDbEntity
  8
細線
 48
50.0
100
AcDbLine
 10
7936.584167982839
 20
1184.910315020623
 30
0.0
 11
7970.881664614022
 21
1312.910315020623
 31
0.0
  0
LINE
  5
238B2
330
747D
100
AcDbEntity
  8
細線
 48
50.0
100
AcDbLine
 10
8094.360257877335
 20
1184.910315020621
 30
0.0
 11
8128.657754508516
 21
1312.910315020621
 31
0.0
  0
LINE
  5
238B3
330
747D
100
AcDbEntity
  8
細線
 48
50.0
100
AcDbLine
 10
8219.133023441633
 20
1312.910315020623
 30
0.0
 11
8401.401328486825
 21
1495.178620065819
 31
0.0
  0
LINE
  5
238B4
330
747D
100
AcDbEntity
  8
部品1
 48
50.0
100
AcDbLine
 10
8401.401328486825
 20
1552.910315020623
 30
0.0
 11
8401.401328486825
 21
1312.910315020623
 31
0.0
  0
LINE
  5
238B5
330
747D
100
AcDbEntity
  8
細線
 48
50.0
100
AcDbLine
 10
8192.192255078429
 20
1312.910315020623
 30
0.0
 11
8401.401328486825
 21
1522.119388429016
 31
0.0
  0
LINE
  5
238B6
330
747D
100
AcDbEntity
  8
細線
 48
50.0
100
AcDbLine
 10
8165.251486715217
 20
1312.910315020623
 30
0.0
 11
8401.401328486825
 21
1549.060156792231
 31
0.0
  0
LINE
  5
238B7
330
747D
100
AcDbEntity
  8
細線
 48
50.0
100
AcDbLine
 10
7949.725339809558
 20
1312.910315020623
 30
0.0
 11
8273.401328486825
 21
1636.586303697889
 31
0.0
  0
LINE
  5
238B8
330
747D
100
AcDbEntity
  8
細線
 48
50.0
100
AcDbLine
 10
8003.606876535974
 20
1312.910315020623
 30
0.0
 11
8273.401328486825
 21
1582.70476697148
 31
0.0
  0
LINE
  5
238B9
330
747D
100
AcDbEntity
  8
細線
 48
50.0
100
AcDbLine
 10
7976.666108172769
 20
1312.910315020623
 30
0.0
 11
8273.401328486825
 21
1609.645535334675
 31
0.0
  0
LINE
  5
238BA
330
747D
100
AcDbEntity
  8
細線
 48
50.0
100
AcDbLine
 10
7731.401328486819
 20
1525.638597509209
 30
0.0
 11
7758.673045998239
 21
1552.910315020623
 31
0.0
  0
LINE
  5
238BB
330
747D
100
AcDbEntity
  8
部品1
 48
50.0
100
AcDbLine
 10
7731.401328486824
 20
1552.910315020623
 30
0.0
 11
7859.401328486824
 21
1552.910315020623
 31
0.0
  0
LINE
  5
238BC
330
747D
100
AcDbEntity
  8
細線
 48
50.0
100
AcDbLine
 10
7731.401328486819
 20
1498.697829145998
 30
0.0
 11
7785.613814361449
 21
1552.910315020623
 31
0.0
  0
LWPOLYLINE
  5
238BD
330
747D
100
AcDbEntity
  8
部品1
 48
50.0
100
AcDbPolyline
 90
        2
 70
     0
 43
8.0
 10
7445.261426653868
 20
1856.910315020624
 10
7859.401328486824
 20
1856.910315020624
  0
LINE
  5
238BE
330
747D
100
AcDbEntity
  8
細線
 48
50.0
100
AcDbLine
 10
7806.674794101178
 20
1288.910315020623
 30
0.0
 11
7800.244013482831
 21
1312.910315020623
 31
0.0
  0
LINE
  5
238BF
330
747D
100
AcDbEntity
  8
細線
 48
50.0
100
AcDbLine
 10
7885.562839048429
 20
1288.910315020623
 30
0.0
 11
7879.13205843008
 21
1312.910315020623
 31
0.0
  0
LINE
  5
238C0
330
747D
100
AcDbEntity
  8
細線
 48
50.0
100
AcDbLine
 10
7727.786749153925
 20
1288.910315020623
 30
0.0
 11
7721.355968535579
 21
1312.910315020623
 31
0.0
  0
LINE
  5
238C1
330
747D
100
AcDbEntity
  8
細線
 48
50.0
100
AcDbLine
 10
7651.401328486824
 20
1298.250235986403
 30
0.0
 11
7655.329484825019
 21
1312.910315020623
 31
0.0
  0
LINE
  5
238C2
330
747D
100
AcDbEntity
  8
細線
 48
50.0
100
AcDbLine
 10
7785.23885870669
 20
1208.910315020623
 30
0.0
 11
7791.669639325035
 21
1184.910315020623
 31
0.0
  0
LINE
  5
238C3
330
747D
100
AcDbEntity
  8
細線
 48
50.0
100
AcDbLine
 10
7864.126903653939
 20
1208.910315020623
 30
0.0
 11
7870.557684272288
 21
1184.910315020623
 31
0.0
  0
LINE
  5
238C4
330
747D
100
AcDbEntity
  8
細線
 48
50.0
100
AcDbLine
 10
7706.350813759437
 20
1208.910315020623
 30
0.0
 11
7712.781594377782
 21
1184.910315020623
 31
0.0
  0
LINE
  5
238C5
330
747D
100
AcDbEntity
  8
細線
 48
50.0
100
AcDbLine
 10
7857.696123035587
 20
1184.910315020621
 30
0.0
 11
7891.993619666769
 21
1312.910315020621
 31
0.0
  0
LINE
  5
238C6
330
747D
100
AcDbEntity
  8
細線
 48
50.0
100
AcDbLine
 10
7699.920033141083
 20
1184.910315020621
 30
0.0
 11
7734.217529772266
 21
1312.910315020621
 31
0.0
  0
LINE
  5
238C7
330
747D
100
AcDbEntity
  8
部品1
 48
50.0
100
AcDbLine
 10
7651.401328486826
 20
1184.910315020623
 30
0.0
 11
7651.401328486826
 21
1312.910315020623
 31
0.0
  0
LINE
  5
238C8
330
747D
100
AcDbEntity
  8
細線
 48
50.0
100
AcDbLine
 10
7778.808078088342
 20
1184.910315020623
 30
0.0
 11
7813.105574719525
 21
1312.910315020623
 31
0.0
  0
LINE
  5
238C9
330
747D
100
AcDbEntity
  8
部品1
 48
50.0
100
AcDbLine
 10
7731.401328486824
 20
1312.910315020623
 30
0.0
 11
7731.401328486824
 21
1552.910315020623
 31
0.0
  0
LINE
  5
238CA
330
747D
100
AcDbEntity
  8
細線
 48
50.0
100
AcDbLine
 10
7731.401328486819
 20
1471.757060782794
 30
0.0
 11
7812.554582724654
 21
1552.910315020623
 31
0.0
  0
LINE
  5
238CB
330
747D
100
AcDbEntity
  8
部品1
 48
50.0
100
AcDbLine
 10
8481.401328486827
 20
1184.910315020623
 30
0.0
 11
7651.401328486826
 21
1184.910315020623
 31
0.0
  0
LINE
  5
238CC
330
747D
100
AcDbEntity
  8
部品1
 48
50.0
100
AcDbLine
 10
8481.401328486827
 20
1312.910315020623
 30
0.0
 11
7651.401328486826
 21
1312.910315020623
 31
0.0
  0
LINE
  5
238CD
330
747D
100
AcDbEntity
  8
細線
 48
50.0
100
AcDbLine
 10
7734.1991929039
 20
1312.910315020623
 30
0.0
 11
8273.401328486825
 21
1852.112450603548
 31
0.0
  0
LINE
  5
238CE
330
747D
100
AcDbEntity
  8
細線
 48
50.0
100
AcDbLine
 10
7761.139961267109
 20
1312.910315020623
 30
0.0
 11
8273.401328486826
 21
1825.171682240337
 31
0.0
  0
LINE
  5
238CF
330
747D
100
AcDbEntity
  8
細線
 48
50.0
100
AcDbLine
 10
7788.080729630313
 20
1312.910315020623
 30
0.0
 11
8273.401328486825
 21
1798.23091387713
 31
0.0
  0
LINE
  5
238D0
330
747D
100
AcDbEntity
  8
細線
 48
50.0
100
AcDbLine
 10
7859.401328486824
 20
1653.638597509209
 30
0.0
 11
8017.801328486816
 21
1812.038597509204
 31
0.0
  0
LINE
  5
238D1
330
747D
100
AcDbEntity
  8
細線
 48
50.0
100
AcDbLine
 10
7859.401328486824
 20
1599.757060782794
 30
0.0
 11
8032.554582724662
 21
1772.910315020621
 31
0.0
  0
LINE
  5
238D2
330
747D
100
AcDbEntity
  8
細線
 48
50.0
100
AcDbLine
 10
7859.401328486824
 20
1626.697829146001
 30
0.0
 11
8017.801328486816
 21
1785.097829145989
 31
0.0
  0
LINE
  5
238D3
330
747D
100
AcDbEntity
  8
部品1
100
AcDbLine
 10
8017.801328486816
 20
1772.910315020623
 30
0.0
 11
8017.801328486823
 21
2096.910315020623
 31
0.0
  0
LINE
  5
238D4
330
747D
100
AcDbEntity
  8
部品1
100
AcDbLine
 10
8143.801328486825
 20
1772.910315020623
 30
0.0
 11
8143.801328486825
 21
2096.910315020623
 31
0.0
  0
LINE
  5
238D5
330
747D
100
AcDbEntity
  8
細線
 48
50.0
100
AcDbLine
 10
8143.801328486825
 20
1911.097829145994
 30
0.0
 11
8273.401328486825
 21
2040.697829145991
 31
0.0
  0
LINE
  5
238D6
330
747D
100
AcDbEntity
  8
細線
 48
50.0
100
AcDbLine
 10
8143.801328486825
 20
1884.157060782781
 30
0.0
 11
8273.401328486825
 21
2013.757060782773
 31
0.0
  0
LINE
  5
238D7
330
747D
100
AcDbEntity
  8
部品1
100
AcDbLine
 10
8071.801328486825
 20
1871.910315020623
 30
0.0
 11
8071.80132848682
 21
2146.070315020624
 31
0.0
  0
LINE
  5
238D8
330
747D
100
AcDbEntity
  8
部品1
100
AcDbLine
 10
8089.801328486826
 20
1871.910315020623
 30
0.0
 11
8089.801328486821
 21
2146.070315020624
 31
0.0
  0
TEXT
  5
238D9
330
747D
100
AcDbEntity
  8
部品1
 48
50.0
100
AcDbText
 10
7445.261426653868
 20
1868.149307303878
 30
0.0
 40
80.0
  1
▽G.L
  7
STYLE2
100
AcDbText
  0
LINE
  5
238DA
330
747D
100
AcDbEntity
  8
細線
 48
50.0
100
AcDbLine
 10
7859.401328486824
 20
1815.283207688453
 30
0.0
 11
8017.801328486822
 21
1973.683207688446
 31
0.0
  0
LINE
  5
238DB
330
747D
100
AcDbEntity
  8
細線
 48
50.0
100
AcDbLine
 10
7859.401328486824
 20
1842.22397605166
 30
0.0
 11
8017.801328486823
 21
2000.623976051658
 31
0.0
  0
LINE
  5
238DC
330
747D
100
AcDbEntity
  8
細線
 48
50.0
100
AcDbLine
 10
7859.401328486824
 20
1869.164744414868
 30
0.0
 11
8017.801328486823
 21
2027.564744414865
 31
0.0
  0
LINE
  5
238DD
330
747D
100
AcDbEntity
  8
部品1
 48
50.0
100
AcDbLine
 10
7859.401328486824
 20
1552.910315020623
 30
0.0
 11
7859.401328486824
 21
2096.910315020623
 31
0.0
  0
LINE
  5
238DE
330
747D
100
AcDbEntity
  8
部品1
100
AcDbLine
 10
8273.401328486825
 20
1552.910315020623
 30
0.0
 11
8273.401328486825
 21
2096.910315020623
 31
0.0
  0
LINE
  5
238DF
330
747D
100
AcDbEntity
  8
細線
 48
50.0
100
AcDbLine
 10
8143.801328486825
 20
1938.038597509211
 30
0.0
 11
8273.401328486825
 21
2067.63859750921
 31
0.0
  0
LINE
  5
238E0
330
747D
100
AcDbEntity
  8
細線
 48
50.0
100
AcDbLine
 10
6267.854437812101
 20
1977.657166917339
 30
0.0
 11
6351.362015309631
 21
2061.164744414869
 31
0.0
  0
LINE
  5
238E1
330
747D
100
AcDbEntity
  8
細線
 48
50.0
100
AcDbLine
 10
6278.914722575617
 20
1961.776683317644
 30
0.0
 11
6351.362015309631
 21
2034.223976051661
 31
0.0
  0
LINE
  5
238E2
330
747D
100
AcDbEntity
  8
細線
 48
50.0
100
AcDbLine
 10
6159.362015309631
 20
2084.690891320528
 30
0.0
 11
6171.581439009726
 21
2096.910315020623
 31
0.0
  0
LINE
  5
238E3
330
747D
100
AcDbEntity
  8
細線
 48
50.0
100
AcDbLine
 10
6159.362015309631
 20
2030.809354594113
 30
0.0
 11
6225.46297573614
 21
2096.910315020623
 31
0.0
  0
LINE
  5
238E4
330
747D
100
AcDbEntity
  8
細線
 48
50.0
100
AcDbLine
 10
6159.362015309631
 20
2057.750122957321
 30
0.0
 11
6198.522207372935
 21
2096.910315020623
 31
0.0
  0
LINE
  5
238E5
330
747D
100
AcDbEntity
  8
部品1
 48
50.0
100
AcDbLine
 10
6159.362015309631
 20
2096.910315020623
 30
0.0
 11
6351.362015309631
 21
2096.910315020623
 31
0.0
  0
DIMENSION
  5
238E6
330
747D
100
AcDbEntity
  8
寸法
 48
50.0
100
AcDbDimension
  2
*D53
 10
6159.36201530963
 20
2516.578122937004
 30
0.0
 11
6255.362015309629
 21
2516.578122937004
 31
0.0
 70
   160
  1
120\P200\P280
 71
     5
 42
192.0
  3
INABA_S40G
100
AcDbAlignedDimension
 13
6351.362015309629
 23
2096.910315020623
 33
0.0
 14
6159.36201530963
 24
2096.910315020623
 34
0.0
100
AcDbRotatedDimension
1001
ACAD
1000
DSTYLE
1002
{
1070
   341
1005
0
1002
}
  0
MTEXT
  5
238E7
102
{ACAD_REACTORS
330
2393C
102
}
330
747D
100
AcDbEntity
  8
寸法
 62
     7
 48
50.0
100
AcDbMText
 10
6593.100471170881
 20
1135.56122928847
 30
0.0
 40
80.0
 41
0.8
 71
     4
 72
     1
  1
\A1;D10@300
  7
STYLE2
 73
     1
 44
1.0
1001
ACAD
1000
MTEXTBEGIN
1070
    73
1070
     1
1070
    44
1040
1.0
1070
    74
1070
     0
1000
MTEXTEND
  0
LINE
  5
238E8
330
747D
100
AcDbEntity
  8
細線
 48
50.0
100
AcDbLine
 10
6279.362015309637
 20
1746.697829146004
 30
0.0
 11
6351.362015309623
 21
1818.697829145998
 31
0.0
  0
LINE
  5
238E9
330
747D
100
AcDbEntity
  8
細線
 48
50.0
100
AcDbLine
 10
6279.36201530963
 20
1773.638597509209
 30
0.0
 11
6351.362015309631
 21
1845.638597509209
 31
0.0
  0
LINE
  5
238EA
330
747D
100
AcDbEntity
  8
細線
 48
50.0
100
AcDbLine
 10
6279.362015309637
 20
1504.230913877134
 30
0.0
 11
6351.362015309623
 21
1576.230913877134
 31
0.0
  0
LINE
  5
238EB
330
747D
100
AcDbEntity
  8
細線
 48
50.0
100
AcDbLine
 10
6279.362015309637
 20
1558.112450603552
 30
0.0
 11
6351.362015309623
 21
1630.112450603548
 31
0.0
  0
LINE
  5
238EC
330
747D
100
AcDbEntity
  8
細線
 48
50.0
100
AcDbLine
 10
6279.362015309637
 20
1531.171682240344
 30
0.0
 11
6351.362015309623
 21
1603.171682240338
 31
0.0
  0
LINE
  5
238ED
330
747D
100
AcDbEntity
  8
部品1
 48
50.0
100
AcDbLine
 10
6351.362015309631
 20
1552.910315020623
 30
0.0
 11
6479.362015309631
 21
1552.910315020623
 31
0.0
  0
LINE
  5
238EE
330
747D
100
AcDbEntity
  8
細線
 48
50.0
100
AcDbLine
 10
6279.362015309637
 20
1719.757060782794
 30
0.0
 11
6351.362015309623
 21
1791.757060782793
 31
0.0
  0
LINE
  5
238EF
330
747D
100
AcDbEntity
  8
部品1
 48
50.0
100
AcDbLine
 10
6247.362015309631
 20
1899.037529717745
 30
0.0
 11
6247.362015309631
 21
1957.164744414868
 31
0.0
  0
LINE
  5
238F0
330
747D
100
AcDbEntity
  8
細線
 48
50.0
100
AcDbLine
 10
6159.362015309631
 20
1869.164744414868
 30
0.0
 11
6231.362015309631
 21
1941.164744414868
 31
0.0
  0
LINE
  5
238F1
330
747D
100
AcDbEntity
  8
部品1
 48
50.0
100
AcDbLine
 10
6231.362015309631
 20
1899.037529717749
 30
0.0
 11
6231.362015309631
 21
1957.164744414868
 31
0.0
  0
LINE
  5
238F2
330
747D
100
AcDbEntity
  8
細線
 48
50.0
100
AcDbLine
 10
6159.362015309631
 20
1842.22397605166
 30
0.0
 11
6231.362015309631
 21
1914.22397605166
 31
0.0
  0
LINE
  5
238F3
330
747D
100
AcDbEntity
  8
細線
 48
50.0
100
AcDbLine
 10
6159.362015309631
 20
1815.283207688453
 30
0.0
 11
6243.116337338925
 21
1899.037529717745
 31
0.0
  0
LINE
  5
238F4
330
747D
100
AcDbEntity
  8
部品1
 48
50.0
100
AcDbLine
 10
6247.362015309631
 20
1899.037529717745
 30
0.0
 11
6231.362015309631
 21
1899.037529717749
 31
0.0
  0
LINE
  5
238F5
330
747D
100
AcDbEntity
  8
細線
 48
50.0
100
AcDbLine
 10
6031.362015309624
 20
1525.638597509209
 30
0.0
 11
6058.633732821045
 21
1552.910315020623
 31
0.0
  0
LINE
  5
238F6
330
747D
100
AcDbEntity
  8
細線
 48
50.0
100
AcDbLine
 10
6031.362015309624
 20
1498.697829145998
 30
0.0
 11
6085.574501184256
 21
1552.910315020623
 31
0.0
  0
LINE
  5
238F7
330
747D
100
AcDbEntity
  8
部品1
 48
50.0
100
AcDbLine
 10
6031.362015309631
 20
1552.910315020623
 30
0.0
 11
6159.362015309631
 21
1552.910315020623
 31
0.0
  0
LINE
  5
238F8
330
747D
100
AcDbEntity
  8
細線
 48
50.0
100
AcDbLine
 10
6247.362015309631
 20
1930.22397605166
 30
0.0
 11
6263.362015309631
 21
1946.22397605166
 31
0.0
  0
LINE
  5
238F9
330
747D
100
AcDbEntity
  8
細線
 48
50.0
100
AcDbLine
 10
6247.362015309631
 20
1903.283207688453
 30
0.0
 11
6263.362015309631
 21
1919.283207688453
 31
0.0
  0
LINE
  5
238FA
330
747D
100
AcDbEntity
  8
細線
 48
50.0
100
AcDbLine
 10
6159.362015309631
 20
1599.757060782794
 30
0.0
 11
6263.362015309636
 21
1703.757060782794
 31
0.0
  0
LINE
  5
238FB
330
747D
100
AcDbEntity
  8
細線
 48
50.0
100
AcDbLine
 10
6159.362015309631
 20
1653.638597509209
 30
0.0
 11
6263.362015309631
 21
1757.638597509209
 31
0.0
  0
LINE
  5
238FC
330
747D
100
AcDbEntity
  8
細線
 48
50.0
100
AcDbLine
 10
6159.362015309631
 20
1626.697829146001
 30
0.0
 11
6263.362015309636
 21
1730.697829146004
 31
0.0
  0
LINE
  5
238FD
330
747D
100
AcDbEntity
  8
細線
 48
50.0
100
AcDbLine
 10
6422.187660712978
 20
1288.910315020623
 30
0.0
 11
6415.756880094632
 21
1312.910315020623
 31
0.0
  0
LINE
  5
238FE
330
747D
100
AcDbEntity
  8
細線
 48
50.0
100
AcDbLine
 10
6465.212173538025
 20
1312.910315020623
 30
0.0
 11
6479.362015309631
 21
1327.060156792229
 31
0.0
  0
LINE
  5
238FF
330
747D
100
AcDbEntity
  8
細線
 48
50.0
100
AcDbLine
 10
6501.075705660226
 20
1288.910315020623
 30
0.0
 11
6494.644925041878
 21
1312.910315020623
 31
0.0
  0
LINE
  5
23900
330
747D
100
AcDbEntity
  8
部品1
 48
50.0
100
AcDbLine
 10
6423.362015309631
 20
1424.910315020623
 30
0.0
 11
6423.362015309631
 21
1408.910315020623
 31
0.0
  0
LINE
  5
23901
330
747D
100
AcDbEntity
  8
細線
 48
50.0
100
AcDbLine
 10
6303.567563358778
 20
1312.910315020623
 30
0.0
 11
6399.568451203915
 21
1408.911202865762
 31
0.0
  0
LINE
  5
23902
330
747D
100
AcDbEntity
  8
細線
 48
50.0
100
AcDbLine
 10
6276.626794995575
 20
1312.910315020623
 30
0.0
 11
6372.626794995575
 21
1408.910315020623
 31
0.0
  0
LINE
  5
23903
330
747D
100
AcDbEntity
  8
細線
 48
50.0
100
AcDbLine
 10
6343.299615765733
 20
1288.910315020623
 30
0.0
 11
6336.868835147386
 21
1312.910315020623
 31
0.0
  0
LINE
  5
23904
330
747D
100
AcDbEntity
  8
細線
 48
50.0
100
AcDbLine
 10
6264.411570818488
 20
1288.910315020623
 30
0.0
 11
6257.980790200139
 21
1312.910315020623
 31
0.0
  0
ARC
  5
23905
330
747D
100
AcDbEntity
  8
部品1
 48
50.0
100
AcDbCircle
 10
6255.362015309631
 20
1432.910315020623
 30
0.0
 40
24.0
100
AcDbArc
 50
340.5287793655103
 51
0.0
  0
CIRCLE
  5
23906
330
747D
100
AcDbEntity
  8
部品1
 48
50.0
100
AcDbCircle
 10
6383.362015309631
 20
1432.910315020623
 30
0.0
 40
8.0
  0
LINE
  5
23907
330
747D
100
AcDbEntity
  8
細線
 48
50.0
100
AcDbLine
 10
6415.567563358777
 20
1424.910315020623
 30
0.0
 11
6479.362015309631
 21
1488.704766971474
 31
0.0
  0
LINE
  5
23908
330
747D
100
AcDbEntity
  8
細線
 48
50.0
100
AcDbLine
 10
6552.097034594634
 20
1184.910315020621
 30
0.0
 11
6559.362015309631
 21
1212.023592165011
 31
0.0
  0
LINE
  5
23909
330
747D
100
AcDbEntity
  8
細線
 48
50.0
100
AcDbLine
 10
6558.527815212983
 20
1208.910315020623
 30
0.0
 11
6559.362015309631
 21
1205.797037876258
 31
0.0
  0
LINE
  5
2390A
330
747D
100
AcDbEntity
  8
細線
 48
50.0
100
AcDbLine
 10
6479.639770265736
 20
1208.910315020623
 30
0.0
 11
6486.070550884083
 21
1184.910315020623
 31
0.0
  0
LINE
  5
2390B
330
747D
100
AcDbEntity
  8
細線
 48
50.0
100
AcDbLine
 10
6321.863680371244
 20
1208.910315020623
 30
0.0
 11
6328.294460989589
 21
1184.910315020623
 31
0.0
  0
LINE
  5
2390C
330
747D
100
AcDbEntity
  8
細線
 48
50.0
100
AcDbLine
 10
6400.751725318489
 20
1208.910315020623
 30
0.0
 11
6407.182505936837
 21
1184.910315020623
 31
0.0
  0
LINE
  5
2390D
330
747D
100
AcDbEntity
  8
細線
 48
50.0
100
AcDbLine
 10
6394.320944700139
 20
1184.910315020621
 30
0.0
 11
6428.618441331323
 21
1312.910315020621
 31
0.0
  0
LINE
  5
2390E
330
747D
100
AcDbEntity
  8
細線
 48
50.0
100
AcDbLine
 10
6315.43289975289
 20
1184.910315020623
 30
0.0
 11
6349.730396384077
 21
1312.910315020621
 31
0.0
  0
LINE
  5
2390F
330
747D
100
AcDbEntity
  8
細線
 48
50.0
100
AcDbLine
 10
6473.208989647385
 20
1184.910315020623
 30
0.0
 11
6507.506486278569
 21
1312.910315020621
 31
0.0
  0
LINE
  5
23910
330
747D
100
AcDbEntity
  8
部品1
 48
50.0
100
AcDbLine
 10
6559.362015309634
 20
1312.910315020623
 30
0.0
 11
6559.362015309634
 21
1184.910315020623
 31
0.0
  0
LINE
  5
23911
330
747D
100
AcDbEntity
  8
部品1
 48
50.0
100
AcDbLine
 10
6247.362015309631
 20
1491.037529717745
 30
0.0
 11
6247.362015309631
 21
1432.910315020623
 31
0.0
  0
LINE
  5
23912
330
747D
100
AcDbEntity
  8
細線
 48
50.0
100
AcDbLine
 10
6173.100648089913
 20
1424.910315020623
 30
0.0
 11
6231.362015309631
 21
1483.171682240341
 31
0.0
  0
LINE
  5
23913
330
747D
100
AcDbEntity
  8
部品1
 48
50.0
100
AcDbLine
 10
6231.362015309631
 20
1491.037529717745
 30
0.0
 11
6231.362015309631
 21
1432.910315020623
 31
0.0
  0
LINE
  5
23914
330
747D
100
AcDbEntity
  8
細線
 48
50.0
100
AcDbLine
 10
6088.041416453119
 20
1312.910315020623
 30
0.0
 11
6184.041416453119
 21
1408.910315020623
 31
0.0
  0
LINE
  5
23915
330
747D
100
AcDbEntity
  8
細線
 48
50.0
100
AcDbLine
 10
6185.523525871235
 20
1288.910315020623
 30
0.0
 11
6179.092745252888
 21
1312.910315020623
 31
0.0
  0
LINE
  5
23916
330
747D
100
AcDbEntity
  8
細線
 48
50.0
100
AcDbLine
 10
6106.635480923982
 20
1288.910315020623
 30
0.0
 11
6100.204700305636
 21
1312.910315020623
 31
0.0
  0
ARC
  5
23917
330
747D
100
AcDbEntity
  8
部品1
 48
50.0
100
AcDbCircle
 10
6255.362015309631
 20
1432.910315020623
 30
0.0
 40
24.0
100
AcDbArc
 50
180.0
 51
199.4712206344897
  0
LINE
  5
23918
330
747D
100
AcDbEntity
  8
細線
 48
50.0
100
AcDbLine
 10
6200.041416453119
 20
1424.910315020623
 30
0.0
 11
6231.362015309631
 21
1456.230913877134
 31
0.0
  0
CIRCLE
  5
23919
330
747D
100
AcDbEntity
  8
部品1
 48
50.0
100
AcDbCircle
 10
6127.362015309631
 20
1432.910315020623
 30
0.0
 40
8.0
  0
LINE
  5
2391A
330
747D
100
AcDbEntity
  8
部品1
 48
50.0
100
AcDbLine
 10
6247.362015309631
 20
1491.037529717745
 30
0.0
 11
6231.362015309631
 21
1491.037529717745
 31
0.0
  0
LINE
  5
2391B
330
747D
100
AcDbEntity
  8
細線
 48
50.0
100
AcDbLine
 10
5951.362015309631
 20
1298.250235986403
 30
0.0
 11
5955.290171647827
 21
1312.910315020623
 31
0.0
  0
LINE
  5
2391C
330
747D
100
AcDbEntity
  8
細線
 48
50.0
100
AcDbLine
 10
6027.747435976731
 20
1288.910315020623
 30
0.0
 11
6021.316655358383
 21
1312.910315020623
 31
0.0
  0
LINE
  5
2391D
330
747D
100
AcDbEntity
  8
部品1
 48
50.0
100
AcDbLine
 10
6087.362015309631
 20
1424.910315020623
 30
0.0
 11
6087.362015309631
 21
1408.910315020623
 31
0.0
  0
LINE
  5
2391E
330
747D
100
AcDbEntity
  8
細線
 48
50.0
100
AcDbLine
 10
6034.159879726703
 20
1312.910315020623
 30
0.0
 11
6130.159879726703
 21
1408.910315020623
 31
0.0
  0
LINE
  5
2391F
330
747D
100
AcDbEntity
  8
細線
 48
50.0
100
AcDbLine
 10
6061.100648089914
 20
1312.910315020623
 30
0.0
 11
6157.100648089914
 21
1408.910315020623
 31
0.0
  0
LINE
  5
23920
330
747D
100
AcDbEntity
  8
細線
 48
50.0
100
AcDbLine
 10
6164.087590476746
 20
1208.910315020623
 30
0.0
 11
6170.518371095091
 21
1184.910315020623
 31
0.0
  0
LINE
  5
23921
330
747D
100
AcDbEntity
  8
細線
 48
50.0
100
AcDbLine
 10
6242.975635423999
 20
1208.910315020623
 30
0.0
 11
6249.406416042344
 21
1184.910315020623
 31
0.0
  0
LINE
  5
23922
330
747D
100
AcDbEntity
  8
細線
 48
50.0
100
AcDbLine
 10
6006.311500582242
 20
1208.910315020623
 30
0.0
 11
6012.742281200588
 21
1184.910315020623
 31
0.0
  0
LINE
  5
23923
330
747D
100
AcDbEntity
  8
細線
 48
50.0
100
AcDbLine
 10
6085.199545529492
 20
1208.910315020623
 30
0.0
 11
6091.63032614784
 21
1184.910315020623
 31
0.0
  0
LINE
  5
23924
330
747D
100
AcDbEntity
  8
部品1
 48
50.0
100
AcDbLine
 10
5951.362015309633
 20
1184.910315020623
 30
0.0
 11
5951.362015309633
 21
1312.910315020623
 31
0.0
  0
LINE
  5
23925
330
747D
100
AcDbEntity
  8
細線
 48
50.0
100
AcDbLine
 10
5999.880719963889
 20
1184.910315020621
 30
0.0
 11
6034.178216595072
 21
1312.910315020621
 31
0.0
  0
LINE
  5
23926
330
747D
100
AcDbEntity
  8
細線
 48
50.0
100
AcDbLine
 10
6157.656809858392
 20
1184.910315020621
 30
0.0
 11
6191.954306489575
 21
1312.910315020621
 31
0.0
  0
LINE
  5
23927
330
747D
100
AcDbEntity
  8
細線
 48
50.0
100
AcDbLine
 10
6078.768764911147
 20
1184.910315020623
 30
0.0
 11
6113.066261542329
 21
1312.910315020623
 31
0.0
  0
LINE
  5
23928
330
747D
100
AcDbEntity
  8
細線
 48
50.0
100
AcDbLine
 10
6249.686026632364
 20
1312.910315020623
 30
0.0
 11
6345.686026632364
 21
1408.910315020623
 31
0.0
  0
CIRCLE
  5
23929
330
747D
100
AcDbEntity
  8
部品1
 48
50.0
100
AcDbCircle
 10
6255.362015309631
 20
1432.910315020623
 30
0.0
 40
8.0
  0
LINE
  5
2392A
330
747D
100
AcDbEntity
  8
部品1
 48
50.0
100
AcDbLine
 10
6559.362015309634
 20
1312.910315020623
 30
0.0
 11
5951.362015309633
 21
1312.910315020623
 31
0.0
  0
LINE
  5
2392B
330
747D
100
AcDbEntity
  8
部品1
 48
50.0
100
AcDbLine
 10
6087.362015309631
 20
1424.910315020623
 30
0.0
 11
6423.362015309631
 21
1424.910315020623
 31
0.0
  0
LINE
  5
2392C
330
747D
100
AcDbEntity
  8
部品1
 48
50.0
100
AcDbLine
 10
6087.362015309631
 20
1408.910315020623
 30
0.0
 11
6423.362015309631
 21
1408.910315020623
 31
0.0
  0
LINE
  5
2392D
330
747D
100
AcDbEntity
  8
部品1
 48
50.0
100
AcDbLine
 10
6559.362015309634
 20
1184.910315020623
 30
0.0
 11
5951.362015309633
 21
1184.910315020623
 31
0.0
  0
LINE
  5
2392E
330
747D
100
AcDbEntity
  8
細線
 48
50.0
100
AcDbLine
 10
6236.544854805645
 20
1184.910315020623
 30
0.0
 11
6270.842351436828
 21
1312.910315020623
 31
0.0
  0
LINE
  5
2392F
330
747D
100
AcDbEntity
  8
細線
 48
50.0
100
AcDbLine
 10
6247.362015309631
 20
1472.230913877134
 30
0.0
 11
6263.362015309636
 21
1488.230913877134
 31
0.0
  0
LINE
  5
23930
330
747D
100
AcDbEntity
  8
部品1
 48
50.0
100
AcDbLine
 10
6263.362015309636
 20
1432.910315020623
 30
0.0
 11
6263.362015309624
 21
1957.164744414868
 31
0.0
  0
LINE
  5
23931
330
747D
100
AcDbEntity
  8
部品1
 48
50.0
100
AcDbLine
 10
6279.362015309637
 20
1432.910315020623
 30
0.0
 11
6279.36201530963
 21
1957.164744414868
 31
0.0
  0
LINE
  5
23932
330
747D
100
AcDbEntity
  8
部品1
 48
50.0
100
AcDbLine
 10
6479.362015309631
 20
1552.910315020623
 30
0.0
 11
6479.362015309631
 21
1312.910315020623
 31
0.0
  0
LINE
  5
23933
330
747D
100
AcDbEntity
  8
細線
 48
50.0
100
AcDbLine
 10
6361.686026632359
 20
1424.910315020623
 30
0.0
 11
6479.362015309631
 21
1542.586303697889
 31
0.0
  0
LINE
  5
23934
330
747D
100
AcDbEntity
  8
細線
 48
50.0
100
AcDbLine
 10
6388.626794995574
 20
1424.910315020623
 30
0.0
 11
6479.362015309631
 21
1515.645535334682
 31
0.0
  0
LINE
  5
23935
330
747D
100
AcDbEntity
  8
部品1
 48
50.0
100
AcDbLine
 10
6031.362015309631
 20
1312.910315020623
 30
0.0
 11
6031.362015309631
 21
1552.910315020623
 31
0.0
  0
LINE
  5
23936
330
747D
100
AcDbEntity
  8
細線
 48
50.0
100
AcDbLine
 10
6146.159879726703
 20
1424.910315020623
 30
0.0
 11
6263.362015309631
 21
1542.112450603548
 31
0.0
  0
LINE
  5
23937
330
747D
100
AcDbEntity
  8
細線
 48
50.0
100
AcDbLine
 10
6239.227862787035
 20
1491.037529717745
 30
0.0
 11
6263.362015309636
 21
1515.171682240344
 31
0.0
  0
LINE
  5
23938
330
747D
100
AcDbEntity
  8
細線
 48
50.0
100
AcDbLine
 10
6031.362015309624
 20
1471.757060782794
 30
0.0
 11
6112.515269547459
 21
1552.910315020623
 31
0.0
  0
LEADER
  5
23939
330
747D
100
AcDbEntity
  8
寸法
 48
50.0
100
AcDbLeader
  3
INABA_S50G
 71
     0
 73
     0
 74
     0
 75
     1
 40
100.0
 41
222.7272727272727
 76
     3
 10
6255.362015309629
 20
1957.164744414868
 30
0.0
 10
6309.247952337025
 20
2056.400317268042
 30
0.0
 10
6434.247952337024
 20
2056.400317268042
 30
0.0
1001
ACAD
1000
DSTYLE
1002
{
1070
    40
1040
1.0
1070
   272
1070
     1
1070
   279
1070
     1
1070
   341
1005
0
1002
}
  0
LWPOLYLINE
  5
2393A
330
747D
100
AcDbEntity
  8
部品1
 48
50.0
100
AcDbPolyline
 90
        2
 70
     0
 43
8.0
 10
6351.362015309629
 20
1856.910315020624
 10
6765.501917142588
 20
1856.910315020624
  0
MTEXT
  5
2393B
102
{ACAD_REACTORS
330
2393D
102
}
330
747D
100
AcDbEntity
  8
寸法
 62
     7
 48
50.0
100
AcDbMText
 10
6582.689675116315
 20
1397.51324607765
 30
0.0
 40
80.0
 41
0.8
 71
     4
 72
     1
  1
D10
  7
STYLE2
 73
     1
 44
1.0
1001
ACAD
1000
MTEXTBEGIN
1070
    73
1070
     1
1070
    44
1040
1.0
1070
    74
1070
     0
1000
MTEXTEND
  0
LEADER
  5
2393C
330
747D
100
AcDbEntity
  8
寸法
 48
50.0
100
AcDbLeader
  3
INABA_S50G
 71
     0
 73
     0
 74
     0
 75
     1
 40
100.0
 41
540.3409090909091
 76
     3
 10
6329.307184322805
 20
1416.169784607097
 30
0.0
 10
6448.100471170881
 20
1074.5389666122
 30
0.0
 10
6573.100471170881
 20
1074.5389666122
 30
0.0
213
0.0
223
-1.022262676269383
233
0.0
1001
ACAD
1000
DSTYLE
1002
{
1070
    40
1040
1.0
1070
   272
1070
     1
1070
   279
1070
     1
1070
   341
1005
0
1002
}
  0
LEADER
  5
2393D
330
747D
100
AcDbEntity
  8
寸法
 48
50.0
100
AcDbLeader
  3
INABA_S50G
 71
     0
 73
     0
 74
     0
 75
     1
 40
100.0
 41
225.0
 76
     3
 10
6383.264967661773
 20
1432.910315020623
 30
0.0
 10
6437.689675116314
 20
1337.51324607765
 30
0.0
 10
6562.689675116314
 20
1337.51324607765
 30
0.0
1001
ACAD
1000
DSTYLE
1002
{
1070
    40
1040
1.0
1070
   272
1070
     1
1070
   279
1070
     1
1070
   341
1005
0
1002
}
  0
MTEXT
  5
2393E
102
{ACAD_REACTORS
330
23939
102
}
330
747D
100
AcDbEntity
  8
寸法
 62
     7
 48
50.0
100
AcDbMText
 10
6434.247952337024
 20
2119.466214313434
 30
0.0
 40
80.0
 41
0.8
 71
     4
 72
     1
  1
D13
  7
STYLE2
 73
     1
 44
1.0
1001
ACAD
1000
MTEXTBEGIN
1070
    73
1070
     1
1070
    44
1040
1.0
1070
    74
1070
     0
1000
MTEXTEND
  0
LINE
  5
2393F
330
747D
100
AcDbEntity
  8
部品1
 48
50.0
100
AcDbLine
 10
6351.362015309631
 20
2096.910315020623
 30
0.0
 11
6351.362015309631
 21
1552.910315020623
 31
0.0
  0
LINE
  5
23940
330
747D
100
AcDbEntity
  8
部品1
 48
50.0
100
AcDbLine
 10
6159.362015309631
 20
1552.910315020623
 30
0.0
 11
6159.362015309631
 21
2096.910315020623
 31
0.0
  0
CIRCLE
  5
23941
330
747D
100
AcDbEntity
  8
部品1
 48
50.0
100
AcDbCircle
 10
6255.362015309631
 20
1957.164744414868
 30
0.0
 40
8.0
  0
ARC
  5
23942
330
747D
100
AcDbEntity
  8
部品1
 48
50.0
100
AcDbCircle
 10
6255.362015309631
 20
1957.164744414868
 30
0.0
 40
24.0
100
AcDbArc
 50
0.0
 51
180.0
  0
LINE
  5
23943
330
747D
100
AcDbEntity
  8
細線
 48
50.0
100
AcDbLine
 10
6279.36201530963
 20
1935.283207688453
 30
0.0
 11
6351.362015309631
 21
2007.283207688454
 31
0.0
  0
LEADER
  5
23944
330
747D
100
AcDbEntity
  8
寸法
 48
50.0
100
AcDbLeader
  3
INABA_S50G
 73
     0
 75
     1
 40
106.3636363636363
 41
893.1818181818181
 76
     3
 10
7990.801328486824
 20
2166.470315020625
 30
0.0
 10
7942.377256141885
 20
2540.529889736956
 30
0.0
 10
7817.377256141885
 20
2540.529889736956
 30
0.0
340
23945
1001
ACAD
1000
DSTYLE
1002
{
1070
   341
1005
0
1070
    40
1040
1.0
1070
   343
1005
0
1070
   344
1005
0
1002
}
  0
MTEXT
  5
23945
102
{ACAD_REACTORS
330
23944
102
}
330
747D
100
AcDbEntity
  8
寸法
 62
     7
 48
50.0
100
AcDbMText
 10
7792.377256141884
 20
2618.711707918775
 30
0.0
 40
80.0
 41
0.8
 71
     6
 72
     1
  1
\A1;アンカープレート L
  7
STYLE2
 73
     1
 44
1.0
1001
ACAD
1000
MTEXTBEGIN
1070
    73
1070
     1
1070
    44
1040
1.0
1070
    74
1070
     0
1000
MTEXTEND
  0
DIMENSION
  5
23946
330
747D
100
AcDbEntity
  8
寸法
 48
50.0
100
AcDbDimension
  2
*D54
 10
6479.36201530963
 20
774.4806770154627
 30
0.0
 11
6235.265256631406
 21
774.4806770154627
 31
0.0
 70
   160
  1
300
 71
     5
 42
448.0
  3
INABA_S40G
100
AcDbAlignedDimension
 13
6031.36201530963
 23
1184.910315020623
 33
0.0
 14
6479.36201530963
 24
1184.910315020623
 34
0.0
100
AcDbRotatedDimension
1001
ACAD
1000
DSTYLE
1002
{
1070
   341
1005
0
1002
}
  0
MTEXT
  5
23947
102
{ACAD_REACTORS
330
2394F
102
}
330
747D
100
AcDbEntity
  8
寸法
 62
     7
 48
50.0
100
AcDbMText
 10
5860.426989114436
 20
1229.387621402186
 30
0.0
 40
80.0
 41
0.8
 71
     6
 72
     1
  1
D10
  7
STYLE2
 73
     1
 44
1.0
1001
ACAD
1000
MTEXTBEGIN
1070
    73
1070
     1
1070
    44
1040
1.0
1070
    74
1070
     0
1000
MTEXTEND
  0
MTEXT
  5
23948
102
{ACAD_REACTORS
330
2394E
102
}
330
747D
100
AcDbEntity
  8
寸法
 62
     7
 48
50.0
100
AcDbMText
 10
5888.549716671871
 20
1049.071468862743
 30
0.0
 40
80.0
 41
0.8
 71
     6
 72
     1
  1
D13
  7
STYLE2
 73
     1
 44
1.0
1001
ACAD
1000
MTEXTBEGIN
1070
    73
1070
     1
1070
    44
1040
1.0
1070
    74
1070
     0
1000
MTEXTEND
  0
DIMENSION
  5
23949
330
747D
100
AcDbEntity
  8
寸法
 48
50.0
100
AcDbDimension
  2
*D55
 10
5424.32477674789
 20
1312.910315020623
 30
0.0
 11
5424.32477674789
 21
1684.450464676623
 31
0.0
 70
   160
  1
540
 71
     5
 42
784.0
  3
INABA_S40G
100
AcDbAlignedDimension
 13
6159.36201530963
 23
2096.910315020623
 33
0.0
 14
5951.362015309634
 24
1312.910315020623
 34
0.0
 50
90.0
100
AcDbRotatedDimension
1001
ACAD
1000
DSTYLE
1002
{
1070
   341
1005
0
1002
}
  0
MTEXT
  5
2394A
102
{ACAD_REACTORS
330
2394B
102
}
330
747D
100
AcDbEntity
  8
寸法
 62
     7
 48
50.0
100
AcDbMText
 10
5939.263535826357
 20
2309.426535022665
 30
0.0
 40
80.0
 41
0.8
 71
     6
 72
     1
  1
\A1;金コテ押エ
  7
STYLE2
 73
     1
 44
1.0
1001
ACAD
1000
MTEXTBEGIN
1070
    73
1070
     1
1070
    44
1040
1.0
1070
    74
1070
     0
1000
MTEXTEND
  0
LEADER
  5
2394B
330
747D
100
AcDbEntity
  8
寸法
 48
50.0
100
AcDbLeader
  3
INABA_S50G
 71
     0
 73
     0
 75
     1
 40
130.1136363636363
 41
651.1363636363636
 76
     3
 10
6239.36201530963
 20
2096.910315020623
 30
0.0
 10
6126.937435145613
 20
2237.381080477211
 30
0.0
 10
6001.937435145613
 20
2237.381080477211
 30
0.0
1001
ACAD
1000
DSTYLE
1002
{
1070
    40
1040
1.0
1070
   272
1070
     1
1070
   279
1070
     1
1070
   341
1005
0
1002
}
  0
LEADER
  5
2394C
330
747D
100
AcDbEntity
  8
寸法
 48
50.0
100
AcDbLeader
  3
INABA_S50G
 71
     0
 73
     0
 75
     1
 40
100.0
 41
540.3409090909091
 76
     3
 10
6263.36201530963
 20
1855.037529717746
 30
0.0
 10
6205.379778780931
 20
1633.567201176941
 30
0.0
 10
6080.379778780931
 20
1633.567201176941
 30
0.0
213
-9.732182305893367
223
-4.643716661138569
233
0.0
1001
ACAD
1000
DSTYLE
1002
{
1070
    40
1040
1.0
1070
   272
1070
     1
1070
   279
1070
     1
1070
   341
1005
0
1002
}
  0
MTEXT
  5
2394D
102
{ACAD_REACTORS
330
2394C
102
}
330
747D
100
AcDbEntity
  8
寸法
 62
     7
 48
50.0
100
AcDbMText
 10
6070.111961086825
 20
1698.210917838079
 30
0.0
 40
80.0
 41
0.8
 71
     6
 72
     1
  1
\A1;D10@300
  7
STYLE2
 73
     1
 44
1.0
1001
ACAD
1000
MTEXTBEGIN
1070
    73
1070
     1
1070
    44
1040
1.0
1070
    74
1070
     0
1000
MTEXTEND
  0
LEADER
  5
2394E
330
747D
100
AcDbEntity
  8
寸法
 48
50.0
100
AcDbLeader
  3
INABA_S50G
 71
     0
 73
     0
 75
     1
 40
100.0
 41
222.7272727272727
 76
     3
 10
6255.362015309629
 20
1432.910315020623
 30
0.0
 10
6033.549716671871
 20
989.0714688627431
 30
0.0
 10
5908.549716671871
 20
989.0714688627431
 30
0.0
1001
ACAD
1000
DSTYLE
1002
{
1070
    40
1040
1.0
1070
   272
1070
     1
1070
   279
1070
     1
1070
   341
1005
0
1002
}
  0
LEADER
  5
2394F
330
747D
100
AcDbEntity
  8
寸法
 48
50.0
100
AcDbLeader
  3
INABA_S50G
 71
     0
 73
     0
 75
     1
 40
100.0
 41
225.0
 76
     3
 10
6127.264967661773
 20
1432.910315020623
 30
0.0
 10
6005.426989114436
 20
1169.387621402186
 30
0.0
 10
5880.426989114436
 20
1169.387621402186
 30
0.0
1001
ACAD
1000
DSTYLE
1002
{
1070
    40
1040
1.0
1070
   272
1070
     1
1070
   279
1070
     1
1070
   341
1005
0
1002
}
  0
DIMENSION
  5
23950
330
747D
100
AcDbEntity
  8
寸法
 48
50.0
100
AcDbDimension
  2
*D56
 10
5888.94170157717
 20
1312.910315020623
 30
0.0
 11
5888.94170157717
 21
1432.910315020624
 31
0.0
 70
   160
  1
150
 71
     5
 42
240.0
  3
INABA_S40G
100
AcDbAlignedDimension
 13
6031.36201530963
 23
1552.910315020623
 33
0.0
 14
5951.362015309634
 24
1312.910315020623
 34
0.0
 50
90.0
100
AcDbRotatedDimension
1001
ACAD
1000
DSTYLE
1002
{
1070
   341
1005
0
1002
}
  0
TEXT
  5
23951
330
747D
100
AcDbEntity
  8
部品1
 48
50.0
100
AcDbText
 10
5745.222113476673
 20
1868.149307303878
 30
0.0
 40
80.0
  1
▽G.L
  7
STYLE2
100
AcDbText
  0
LWPOLYLINE
  5
23952
330
747D
100
AcDbEntity
  8
部品1
 48
50.0
100
AcDbPolyline
 90
        2
 70
     0
 43
8.0
 10
5745.222113476673
 20
1856.910315020624
 10
6159.36201530963
 20
1856.910315020624
  0
MTEXT
  5
23953
102
{ACAD_REACTORS
330
23954
102
}
330
747D
100
AcDbEntity
  8
寸法
 62
     7
 48
50.0
100
AcDbMText
 10
7765.734249933527
 20
2979.395979826289
 30
0.0
 40
80.0
 41
0.8
 71
     6
 72
     1
  1
\A1;φ70スリーブ
  7
STYLE2
 73
     1
 44
1.0
1001
ACAD
1000
MTEXTBEGIN
1070
    73
1070
     1
1070
    44
1040
1.0
1070
    74
1070
     0
1000
MTEXTEND
  0
LEADER
  5
23954
330
747D
100
AcDbEntity
  8
寸法
 48
50.0
100
AcDbLeader
  3
INABA_S50G
 73
     0
 75
     1
 40
113.1818181818182
 41
608.6363636363635
 76
     3
 10
8049.538078624875
 20
2046.425988378902
 30
0.0
 10
7915.734249933527
 20
2897.80507073538
 30
0.0
 10
7790.734249933527
 20
2897.80507073538
 30
0.0
340
23953
1001
ACAD
1000
DSTYLE
1002
{
1070
   341
1005
0
1070
    40
1040
1.0
1070
   343
1005
0
1070
   344
1005
0
1002
}
  0
LINE
  5
23955
330
747D
100
AcDbEntity
  8
部品1
100
AcDbLine
 10
5088.693576500367
 20
3496.248982221209
 30
0.0
 11
5088.693576500369
 21
531.9420126365612
 31
0.0
  0
LEADER
  5
23956
330
747D
100
AcDbEntity
  8
寸法
 48
50.0
100
AcDbLeader
  3
INABA_S50G
 73
     0
 74
     0
 75
     1
 40
80.0
 41
435.0
 76
     3
 10
8089.801328486826
 20
2146.070315020624
 30
0.0
 10
8132.345790906143
 20
2296.293641173853
 30
0.0
 10
8257.345790906143
 20
2296.293641173853
 30
0.0
340
23957
1001
ACAD
1000
DSTYLE
1002
{
1070
   341
1005
0
1070
    40
1040
1.0
1070
   343
1005
0
1070
   344
1005
0
1002
}
  0
MTEXT
  5
23957
102
{ACAD_REACTORS
330
23956
102
}
330
747D
100
AcDbEntity
  8
部品1
 62
     7
 48
50.0
100
AcDbMText
 10
8282.345790906143
 20
2361.293641173853
 30
0.0
 40
80.0
 41
0.8
 71
     4
 72
     1
  1
M10X160
  7
STYLE2
 73
     1
 44
1.0
1001
ACAD
1000
MTEXTBEGIN
1070
    73
1070
     1
1070
    44
1040
1.0
1070
    74
1070
     0
1000
MTEXTEND
  0
DIMENSION
  5
23958
330
747D
100
AcDbEntity
  8
寸法
 48
50.0
100
AcDbDimension
  2
*D57
 10
9051.324594374696
 20
2096.910315020623
 30
0.0
 11
9051.324594374696
 21
1630.90141159914
 31
0.0
 70
   160
  1
20～25
 71
     5
 42
52.76000000000113
  3
INABA_S40G
100
AcDbAlignedDimension
 13
8086.201328486824
 23
2149.670315020624
 33
0.0
 14
8273.401328486825
 24
2096.910315020623
 34
0.0
 50
90.0
100
AcDbRotatedDimension
1001
ACAD
1000
DSTYLE
1002
{
1070
   341
1005
0
1002
}
  0
DIMENSION
  5
23959
330
747D
100
AcDbEntity
  8
寸法
 48
50.0
100
AcDbDimension
  2
*D58
 10
8775.269928255667
 20
1772.910315020622
 30
0.0
 11
8675.269928255668
 21
1934.910315020624
 31
0.0
 70
    32
  1
180
 71
     5
 42
324.0000000000009
  3
INABA_S40G
100
AcDbAlignedDimension
 13
8273.401328486825
 23
2096.910315020623
 33
0.0
 14
8273.401328486825
 24
1772.910315020622
 34
0.0
 50
90.0
100
AcDbRotatedDimension
1001
ACAD
1000
DSTYLE
1002
{
1070
   341
1005
0
1002
}
  0
TEXT
  5
2395A
330
747D
100
AcDbEntity
  8
部品1
 48
50.0
100
AcDbText
 10
8277.754912771252
 20
2452.788995782823
 30
0.0
 40
80.0
  1
基礎ボルト(市販品)
  7
STYLE2
100
AcDbText
  0
LWPOLYLINE
  5
2395B
330
747D
100
AcDbEntity
  8
部品1
 48
50.0
100
AcDbPolyline
 90
        2
 70
     0
 43
8.0
 10
8273.401328486825
 20
1856.910315020624
 10
8567.103791886209
 20
1856.910315020624
  0
MTEXT
  5
2395C
102
{ACAD_REACTORS
330
2395D
102
}
330
747D
100
AcDbEntity
  8
部品1
 62
     7
 48
50.0
100
AcDbMText
 10
8312.672918855664
 20
2797.405688107883
 30
0.0
 40
80.0
 41
0.8
 71
     4
 72
     1
  1
\A1;ワッシャー(市販品)
  7
STYLE2
 73
     1
 44
1.0
1001
ACAD
1000
MTEXTBEGIN
1070
    73
1070
     1
1070
    44
1040
1.0
1070
    74
1070
     0
1000
MTEXTEND
  0
LEADER
  5
2395D
330
747D
100
AcDbEntity
  8
寸法
 48
50.0
100
AcDbLeader
  3
INABA_S50G
 73
     0
 74
     0
 75
     1
 40
102.2727272727273
 41
906.8181818181818
 76
     3
 10
8120.801328486825
 20
2366.033603464903
 30
0.0
 10
8162.672918855664
 20
2721.269324471519
 30
0.0
 10
8287.672918855664
 20
2721.269324471519
 30
0.0
340
2395C
1001
ACAD
1000
DSTYLE
1002
{
1070
   341
1005
0
1070
    40
1040
1.0
1070
   343
1005
0
1070
   344
1005
0
1002
}
  0
MTEXT
  5
2395E
102
{ACAD_REACTORS
330
2395F
102
}
330
747D
100
AcDbEntity
  8
部品1
 62
     7
 48
50.0
100
AcDbMText
 10
8281.155299600181
 20
2982.374770872671
 30
0.0
 40
80.0
 41
0.8
 71
     4
 72
     1
  1
\A1;ナット(市販品)
  7
STYLE2
 73
     1
 44
1.0
1001
ACAD
1000
MTEXTBEGIN
1070
    73
1070
     1
1070
    44
1040
1.0
1070
    74
1070
     0
1000
MTEXTEND
  0
LEADER
  5
2395F
330
747D
100
AcDbEntity
  8
寸法
 48
50.0
100
AcDbLeader
  3
INABA_S50G
 73
     0
 74
     0
 75
     1
 40
102.2727272727273
 41
680.0000000000001
 76
     3
 10
8096.801328486824
 20
2495.785596129766
 30
0.0
 10
8131.15529960018
 20
2906.238407236307
 30
0.0
 10
8256.15529960018
 20
2906.238407236307
 30
0.0
340
2395E
1001
ACAD
1000
DSTYLE
1002
{
1070
   341
1005
0
1070
    40
1040
1.0
1070
   343
1005
0
1070
   344
1005
0
1002
}
  0
LINE
  5
23960
330
747D
100
AcDbEntity
  8
部品1
100
AcDbLine
 10
5088.693576500372
 20
531.9420126365612
 30
0.0
 11
11159.67876188662
 21
531.9420126365612
 31
0.0
  0
LINE
  5
23961
330
747D
100
AcDbEntity
  8
部品1
100
AcDbLine
 10
11159.67876188662
 20
3256.248982221207
 30
0.0
 11
5088.693576500369
 21
3256.248982221207
 31
0.0
  0
LINE
  5
23962
330
747D
100
AcDbEntity
  8
部品1
100
AcDbLine
 10
11159.67876188662
 20
3496.248982221209
 30
0.0
 11
5088.693576500365
 21
3496.248982221209
 31
0.0
  0
ENDSEC
  0
SECTION
  2
OBJECTS
  0
DICTIONARY
  5
7471
330
0
100
AcDbDictionary
281
     1
  3
ACAD_COLOR
350
173D2
  3
ACAD_GROUP
350
7472
  3
ACAD_LAYOUT
350
173D3
  3
ACAD_MATERIAL
350
173D1
  3
ACAD_MLINESTYLE
350
7473
  3
ACAD_PLOTSETTINGS
350
173D4
  3
ACAD_PLOTSTYLENAME
350
173CF
  3
ACDBHEADERROUNDTRIPXREC
350
239F0
  3
AcDbVariableDictionary
350
235F5
  3
CONTENTDICTIONARY
350
E71C
  3
DRAWINGVARIABLESDICT
350
F3B9
  0
DICTIONARY
  5
1758F
330
7467
100
AcDbDictionary
280
     1
281
     1
  3
ACAD_LAYERSTATES
360
17590
  0
DICTIONARY
  5
173D2
102
{ACAD_REACTORS
330
7471
102
}
330
7471
100
AcDbDictionary
281
     1
  0
DICTIONARY
  5
7472
102
{ACAD_REACTORS
330
7471
102
}
330
7471
100
AcDbDictionary
281
     1
  3
*A1
350
1D2A9
  0
DICTIONARY
  5
173D3
102
{ACAD_REACTORS
330
7471
102
}
330
7471
100
AcDbDictionary
281
     1
  3
Model
350
173D5
  3
レイアウト1
350
173D6
  0
DICTIONARY
  5
173D1
102
{ACAD_REACTORS
330
7471
102
}
330
7471
100
AcDbDictionary
281
     1
  0
DICTIONARY
  5
7473
102
{ACAD_REACTORS
330
7471
102
}
330
7471
100
AcDbDictionary
281
     1
  3
STANDARD
350
7480
  0
DICTIONARY
  5
173D4
102
{ACAD_REACTORS
330
7471
102
}
330
7471
100
AcDbDictionary
281
     1
  0
ACDBDICTIONARYWDFLT
  5
173CF
102
{ACAD_REACTORS
330
7471
102
}
330
7471
100
AcDbDictionary
281
     1
  3
Normal
350
173D0
100
AcDbDictionaryWithDefault
340
173D0
  0
DICTIONARY
  5
239F0
102
{ACAD_REACTORS
330
7471
102
}
330
7471
100
AcDbDictionary
281
     1
  3
COLORDICT
350
239F2
  3
MATERIALDICT
350
239F1
  0
DICTIONARY
  5
235F5
102
{ACAD_REACTORS
330
7471
102
}
330
7471
100
AcDbDictionary
281
     1
  3
DIMASSOC
350
235F6
  3
PROJECTNAME
350
235F7
  0
DICTIONARY
  5
E71C
102
{ACAD_REACTORS
330
7471
102
}
330
7471
100
AcDbDictionary
281
     1
  0
DICTIONARY
  5
F3B9
102
{ACAD_REACTORS
330
7471
102
}
330
7471
100
AcDbDictionary
281
     1
1001
DRAWINGVARIABLESXDATA
1000
POLARMODE
1000
1
  0
DICTIONARY
  5
17590
102
{ACAD_REACTORS
330
1758F
102
}
330
1758F
100
AcDbDictionary
281
     1
  0
GROUP
  5
1D2A9
102
{ACAD_REACTORS
330
7472
102
}
330
7472
100
AcDbGroup
300

 70
     1
 71
     1
  0
LAYOUT
  5
173D5
102
{ACAD_XDICTIONARY
360
239F3
102
}
102
{ACAD_REACTORS
330
173D3
102
}
330
173D3
100
AcDbPlotSettings
  1

  2
Microsoft Office Document Image Writer
  4

  6

 40
0.0
 41
0.0
 42
0.0
 43
0.0
 44
0.0
 45
0.0
 46
0.0
 47
0.0
 48
0.0
 49
0.0
140
0.0
141
0.0
142
1.0
143
1.0
 70
  1712
 72
     0
 73
     0
 74
     0
  7

 75
     0
147
1.0
148
0.0
149
0.0
100
AcDbLayout
  1
Model
 70
     1
 71
     0
 10
0.0
 20
0.0
 11
12.0
 21
9.0
 12
0.0
 22
0.0
 32
0.0
 14
0.0
 24
0.0
 34
0.0
 15
0.0
 25
0.0
 35
0.0
146
0.0
 13
0.0
 23
0.0
 33
0.0
 16
1.0
 26
0.0
 36
0.0
 17
0.0
 27
1.0
 37
0.0
 76
     0
330
747D
  0
LAYOUT
  5
173D6
102
{ACAD_XDICTIONARY
360
239F5
102
}
102
{ACAD_REACTORS
330
173D3
102
}
330
173D3
100
AcDbPlotSettings
  1

  2
Microsoft Office Document Image Writer
  4

  6

 40
0.0
 41
0.0
 42
0.0
 43
0.0
 44
0.0
 45
0.0
 46
0.0
 47
0.0
 48
0.0
 49
0.0
140
0.0
141
0.0
142
1.0
143
1.0
 70
   688
 72
     0
 73
     0
 74
     5
  7

 75
    16
147
1.0
148
0.0
149
0.0
100
AcDbLayout
  1
レイアウト1
 70
     0
 71
     1
 10
0.0
 20
0.0
 11
420.0
 21
297.0
 12
0.0
 22
0.0
 32
0.0
 14
1.000000000000000E+20
 24
1.000000000000000E+20
 34
1.000000000000000E+20
 15
-1.000000000000000E+20
 25
-1.000000000000000E+20
 35
-1.000000000000000E+20
146
0.0
 13
0.0
 23
0.0
 33
0.0
 16
1.0
 26
0.0
 36
0.0
 17
0.0
 27
1.0
 37
0.0
 76
     0
330
747A
  0
MLINESTYLE
  5
7480
102
{ACAD_REACTORS
330
7473
102
}
330
7473
100
AcDbMlineStyle
  2
STANDARD
 70
     0
  3

 62
     0
 51
90.0
 52
90.0
 71
     2
 49
0.5
 62
   256
  6
BYLAYER
 49
-0.5
 62
   256
  6
BYLAYER
  0
ACDBPLACEHOLDER
  5
173D0
102
{ACAD_REACTORS
330
173CF
102
}
330
173CF
  0
XRECORD
  5
239F2
102
{ACAD_REACTORS
330
239F0
102
}
330
239F0
100
AcDbXrecord
280
     1
340
173D2
  0
XRECORD
  5
239F1
102
{ACAD_REACTORS
330
239F0
102
}
330
239F0
100
AcDbXrecord
280
     1
340
173D1
  0
DICTIONARYVAR
  5
235F6
102
{ACAD_REACTORS
330
235F5
102
}
330
235F5
100
DictionaryVariables
280
     0
  1
1
  0
DICTIONARYVAR
  5
235F7
102
{ACAD_REACTORS
330
235F5
102
}
330
235F5
100
DictionaryVariables
280
     0
  1

  0
DICTIONARY
  5
239F3
330
173D5
100
AcDbDictionary
280
     1
281
     1
  3
ACAD_XREC_ROUNDTRIP
360
239F4
  0
DICTIONARY
  5
239F5
330
173D6
100
AcDbDictionary
280
     1
281
     1
  3
ACAD_XREC_ROUNDTRIP
360
239F6
  0
XRECORD
  5
239F4
102
{ACAD_REACTORS
330
239F3
102
}
330
239F3
100
AcDbXrecord
280
     1
102
SHADEPLOT
 70
     0
102
SHADEPLOTRESLEVEL
 70
     2
102
SHADEPLOTCUSTOMDPI
 70
   300
  0
XRECORD
  5
239F6
102
{ACAD_REACTORS
330
239F5
102
}
330
239F5
100
AcDbXrecord
280
     1
102
SHADEPLOT
 70
     0
102
SHADEPLOTRESLEVEL
 70
     2
102
SHADEPLOTCUSTOMDPI
 70
   300
  0
ENDSEC
  0
EOF
