  0
SECTION
  2
HEADER
  9
$ACADVER
  1
AC1015
  9
$ACADMAINTVER
 70
    20
  9
$DWGCODEPAGE
  3
ANSI_932
  9
$INSBASE
 10
0.0
 20
0.0
 30
0.0
  9
$EXTMIN
 10
139.9999999999995
 20
-0.0000000000000909
 30
0.0
  9
$EXTMAX
 10
16307.2
 20
11409.6
 30
0.0
  9
$LIMMIN
 10
0.0
 20
0.0
  9
$LIMMAX
 10
16800.0
 20
11880.0
  9
$ORTHOMODE
 70
     0
  9
$REGENMODE
 70
     1
  9
$FILLMODE
 70
     1
  9
$QTEXTMODE
 70
     0
  9
$MIRRTEXT
 70
     1
  9
$LTSCALE
 40
20.0
  9
$ATTMODE
 70
     1
  9
$TEXTSIZE
 40
4.0
  9
$TRACEWID
 40
1.0
  9
$TEXTSTYLE
  7
STYLE1
  9
$CLAYER
  8
寸法
  9
$CELTYPE
  6
BYLAYER
  9
$CECOLOR
 62
   256
  9
$CELTSCALE
 40
50.0
  9
$DISPSILH
 70
     0
  9
$DIMSCALE
 40
40.0
  9
$DIMASZ
 40
2.5
  9
$DIMEXO
 40
0.5
  9
$DIMDLI
 40
7.0
  9
$DIMRND
 40
0.0
  9
$DIMDLE
 40
0.0
  9
$DIMEXE
 40
1.5
  9
$DIMTP
 40
0.0
  9
$DIMTM
 40
0.0
  9
$DIMTXT
 40
3.0
  9
$DIMCEN
 40
0.0
  9
$DIMTSZ
 40
0.0
  9
$DIMTOL
 70
     0
  9
$DIMLIM
 70
     0
  9
$DIMTIH
 70
     0
  9
$DIMTOH
 70
     0
  9
$DIMSE1
 70
     0
  9
$DIMSE2
 70
     0
  9
$DIMTAD
 70
     3
  9
$DIMZIN
 70
     8
  9
$DIMBLK
  1

  9
$DIMASO
 70
     1
  9
$DIMSHO
 70
     1
  9
$DIMPOST
  1

  9
$DIMAPOST
  1

  9
$DIMALT
 70
     0
  9
$DIMALTD
 70
     2
  9
$DIMALTF
 40
0.0394
  9
$DIMLFAC
 40
1.0
  9
$DIMTOFL
 70
     1
  9
$DIMTVP
 40
0.0
  9
$DIMTIX
 70
     1
  9
$DIMSOXD
 70
     0
  9
$DIMSAH
 70
     1
  9
$DIMBLK1
  1
DOTSMALL
  9
$DIMBLK2
  1
DOTSMALL
  9
$DIMSTYLE
  2
INABA_S40G
  9
$DIMCLRD
 70
     0
  9
$DIMCLRE
 70
     0
  9
$DIMCLRT
 70
     7
  9
$DIMTFAC
 40
1.0
  9
$DIMGAP
 40
1.0
  9
$DIMJUST
 70
     0
  9
$DIMSD1
 70
     0
  9
$DIMSD2
 70
     0
  9
$DIMTOLJ
 70
     1
  9
$DIMTZIN
 70
     0
  9
$DIMALTZ
 70
     0
  9
$DIMALTTZ
 70
     0
  9
$DIMUPT
 70
     0
  9
$DIMDEC
 70
     1
  9
$DIMTDEC
 70
     4
  9
$DIMALTU
 70
     2
  9
$DIMALTTD
 70
     2
  9
$DIMTXSTY
  7
STYLE1
  9
$DIMAUNIT
 70
     0
  9
$DIMADEC
 70
     0
  9
$DIMALTRND
 40
0.0
  9
$DIMAZIN
 70
     0
  9
$DIMDSEP
 70
    46
  9
$DIMATFIT
 70
     3
  9
$DIMFRAC
 70
     0
  9
$DIMLDRBLK
  1

  9
$DIMLUNIT
 70
     2
  9
$DIMLWD
 70
    -2
  9
$DIMLWE
 70
    -2
  9
$DIMTMOVE
 70
     0
  9
$LUNITS
 70
     2
  9
$LUPREC
 70
     1
  9
$SKETCHINC
 40
1.0
  9
$FILLETRAD
 40
3.0
  9
$AUNITS
 70
     0
  9
$AUPREC
 70
     0
  9
$MENU
  1
acad
  9
$ELEVATION
 40
0.0
  9
$PELEVATION
 40
0.0
  9
$THICKNESS
 40
0.0
  9
$LIMCHECK
 70
     0
  9
$CHAMFERA
 40
0.0
  9
$CHAMFERB
 40
0.0
  9
$CHAMFERC
 40
0.0
  9
$CHAMFERD
 40
0.0
  9
$SKPOLY
 70
     0
  9
$TDCREATE
 40
2451368.612993866
  9
$TDUCREATE
 40
2451368.237993866
  9
$TDUPDATE
 40
2455826.584324178
  9
$TDUUPDATE
 40
2455826.209324178
  9
$TDINDWG
 40
0.7972131366
  9
$TDUSRTIMER
 40
0.7972131366
  9
$USRTIMER
 70
     1
  9
$ANGBASE
 50
0.0
  9
$ANGDIR
 70
     0
  9
$PDMODE
 70
     3
  9
$PDSIZE
 40
2.0
  9
$PLINEWID
 40
0.0
  9
$SPLFRAME
 70
     0
  9
$SPLINETYPE
 70
     6
  9
$SPLINESEGS
 70
     8
  9
$HANDSEED
  5
29092
  9
$SURFTAB1
 70
     6
  9
$SURFTAB2
 70
     6
  9
$SURFTYPE
 70
     6
  9
$SURFU
 70
     6
  9
$SURFV
 70
     6
  9
$UCSBASE
  2

  9
$UCSNAME
  2

  9
$UCSORG
 10
0.0
 20
0.0
 30
0.0
  9
$UCSXDIR
 10
1.0
 20
0.0
 30
0.0
  9
$UCSYDIR
 10
0.0
 20
1.0
 30
0.0
  9
$UCSORTHOREF
  2

  9
$UCSORTHOVIEW
 70
     0
  9
$UCSORGTOP
 10
0.0
 20
0.0
 30
0.0
  9
$UCSORGBOTTOM
 10
0.0
 20
0.0
 30
0.0
  9
$UCSORGLEFT
 10
0.0
 20
0.0
 30
0.0
  9
$UCSORGRIGHT
 10
0.0
 20
0.0
 30
0.0
  9
$UCSORGFRONT
 10
0.0
 20
0.0
 30
0.0
  9
$UCSORGBACK
 10
0.0
 20
0.0
 30
0.0
  9
$PUCSBASE
  2

  9
$PUCSNAME
  2

  9
$PUCSORG
 10
0.0
 20
0.0
 30
0.0
  9
$PUCSXDIR
 10
1.0
 20
0.0
 30
0.0
  9
$PUCSYDIR
 10
0.0
 20
1.0
 30
0.0
  9
$PUCSORTHOREF
  2

  9
$PUCSORTHOVIEW
 70
     0
  9
$PUCSORGTOP
 10
0.0
 20
0.0
 30
0.0
  9
$PUCSORGBOTTOM
 10
0.0
 20
0.0
 30
0.0
  9
$PUCSORGLEFT
 10
0.0
 20
0.0
 30
0.0
  9
$PUCSORGRIGHT
 10
0.0
 20
0.0
 30
0.0
  9
$PUCSORGFRONT
 10
0.0
 20
0.0
 30
0.0
  9
$PUCSORGBACK
 10
0.0
 20
0.0
 30
0.0
  9
$USERI1
 70
     0
  9
$USERI2
 70
     0
  9
$USERI3
 70
     0
  9
$USERI4
 70
     0
  9
$USERI5
 70
     0
  9
$USERR1
 40
0.0
  9
$USERR2
 40
0.0
  9
$USERR3
 40
0.0
  9
$USERR4
 40
0.0
  9
$USERR5
 40
0.0
  9
$WORLDVIEW
 70
     1
  9
$SHADEDGE
 70
     3
  9
$SHADEDIF
 70
    70
  9
$TILEMODE
 70
     1
  9
$MAXACTVP
 70
    16
  9
$PINSBASE
 10
0.0
 20
0.0
 30
0.0
  9
$PLIMCHECK
 70
     0
  9
$PEXTMIN
 10
1.000000000000000E+20
 20
1.000000000000000E+20
 30
1.000000000000000E+20
  9
$PEXTMAX
 10
-1.000000000000000E+20
 20
-1.000000000000000E+20
 30
-1.000000000000000E+20
  9
$PLIMMIN
 10
0.0
 20
0.0
  9
$PLIMMAX
 10
420.0
 20
297.0
  9
$UNITMODE
 70
     0
  9
$VISRETAIN
 70
     0
  9
$PLINEGEN
 70
     0
  9
$PSLTSCALE
 70
     0
  9
$TREEDEPTH
 70
  3020
  9
$CMLSTYLE
  2
STANDARD
  9
$CMLJUST
 70
     0
  9
$CMLSCALE
 40
1.0
  9
$PROXYGRAPHICS
 70
     1
  9
$MEASUREMENT
 70
     1
  9
$CELWEIGHT
370
    -1
  9
$ENDCAPS
280
     0
  9
$JOINSTYLE
280
     0
  9
$LWDISPLAY
290
     0
  9
$INSUNITS
 70
     0
  9
$HYPERLINKBASE
  1

  9
$STYLESHEET
  1

  9
$XEDIT
290
     1
  9
$CEPSNTYPE
380
     0
  9
$PSTYLEMODE
290
     1
  9
$FINGERPRINTGUID
  2
{5EAC461A-2277-4BF8-9AB0-99C43BB394F0}
  9
$VERSIONGUID
  2
{109B9C62-F19B-472C-A228-3D067E65A5C7}
  9
$EXTNAMES
290
     1
  9
$PSVPSCALE
 40
0.0
  9
$OLESTARTUP
290
     0
  0
ENDSEC
  0
SECTION
  2
CLASSES
  0
CLASS
  1
ACDBDICTIONARYWDFLT
  2
AcDbDictionaryWithDefault
  3
ObjectDBX Classes
 90
        0
280
     0
281
     0
  0
CLASS
  1
DICTIONARYVAR
  2
AcDbDictionaryVar
  3
ObjectDBX Classes
 90
        0
280
     0
281
     0
  0
CLASS
  1
ACDBPLACEHOLDER
  2
AcDbPlaceHolder
  3
ObjectDBX Classes
 90
        0
280
     0
281
     0
  0
CLASS
  1
LAYOUT
  2
AcDbLayout
  3
ObjectDBX Classes
 90
        0
280
     0
281
     0
  0
ENDSEC
  0
SECTION
  2
TABLES
  0
TABLE
  2
VPORT
  5
746D
330
0
100
AcDbSymbolTable
 70
     2
  0
VPORT
  5
2908A
330
746D
100
AcDbSymbolTableRecord
100
AcDbViewportTableRecord
  2
*Active
 70
     0
 10
0.0
 20
0.0
 11
1.0
 21
1.0
 12
8400.0
 22
6532.304808250916
 13
0.0
 23
0.0
 14
10.0
 24
10.0
 15
10.0
 25
10.0
 16
0.0
 26
0.0
 36
1.0
 17
0.0
 27
0.0
 37
0.0
 40
13160.36269532366
 41
1.522222222222222
 42
50.0
 43
0.0
 44
0.0
 50
0.0
 51
0.0
 71
     0
 72
     0
 73
     1
 74
     0
 75
     0
 76
     0
 77
     0
 78
     0
281
     0
 65
     1
110
0.0
120
0.0
130
0.0
111
1.0
121
0.0
131
0.0
112
0.0
122
1.0
132
0.0
 79
     0
146
0.0
  0
ENDTAB
  0
TABLE
  2
LTYPE
  5
746A
330
0
100
AcDbSymbolTable
 70
     5
  0
LTYPE
  5
7477
330
746A
100
AcDbSymbolTableRecord
100
AcDbLinetypeTableRecord
  2
BYBLOCK
 70
     0
  3

 72
    65
 73
     0
 40
0.0
  0
LTYPE
  5
7478
330
746A
100
AcDbSymbolTableRecord
100
AcDbLinetypeTableRecord
  2
BYLAYER
 70
     0
  3

 72
    65
 73
     0
 40
0.0
  0
LTYPE
  5
7479
330
746A
100
AcDbSymbolTableRecord
100
AcDbLinetypeTableRecord
  2
CONTINUOUS
 70
     0
  3
Solid line
 72
    65
 73
     0
 40
0.0
  0
LTYPE
  5
7816
330
746A
100
AcDbSymbolTableRecord
100
AcDbLinetypeTableRecord
  2
CENTER
 70
     0
  3
____ _ ____ _ ____ _ ____ _ ____ _ ____ _ ____ 
 72
    65
 73
     4
 40
2.0
 49
1.25
 74
     0
 49
-0.25
 74
     0
 49
0.25
 74
     0
 49
-0.25
 74
     0
  0
LTYPE
  5
781A
330
746A
100
AcDbSymbolTableRecord
100
AcDbLinetypeTableRecord
  2
HIDDEN
 70
     0
  3
__ __ __ __ __ __ __ __ __ __ __ __ __ __ __ __
 72
    65
 73
     2
 40
0.375
 49
0.25
 74
     0
 49
-0.125
 74
     0
  0
LTYPE
  5
781B
330
746A
100
AcDbSymbolTableRecord
100
AcDbLinetypeTableRecord
  2
PHANTOM
 70
     0
  3
______  __  __  ______  __  __  ______  __  __ 
 72
    65
 73
     6
 40
2.5
 49
1.25
 74
     0
 49
-0.25
 74
     0
 49
0.25
 74
     0
 49
-0.25
 74
     0
 49
0.25
 74
     0
 49
-0.25
 74
     0
  0
LTYPE
  5
12CC3
330
746A
100
AcDbSymbolTableRecord
100
AcDbLinetypeTableRecord
  2
HIDDENX2
 70
     0
  3
Hidden (2x) ____ ____ ____ ____ ____ ____ ____
 72
    65
 73
     2
 40
19.05
 49
12.7
 74
     0
 49
-6.349999999999999
 74
     0
  0
ENDTAB
  0
TABLE
  2
LAYER
  5
7467
102
{ACAD_XDICTIONARY
360
1758F
102
}
330
0
100
AcDbSymbolTable
 70
    12
  0
LAYER
  5
7474
330
7467
100
AcDbSymbolTableRecord
100
AcDbLayerTableRecord
  2
0
 70
     0
 62
     7
  6
CONTINUOUS
370
    -3
390
173D0
  0
LAYER
  5
DEB2
330
7467
100
AcDbSymbolTableRecord
100
AcDbLayerTableRecord
  2
センター
 70
     0
 62
     3
  6
CENTER
370
    -3
390
173D0
  0
LAYER
  5
DEB3
330
7467
100
AcDbSymbolTableRecord
100
AcDbLayerTableRecord
  2
寸法
 70
     0
 62
     4
  6
CONTINUOUS
370
    -3
390
173D0
  0
LAYER
  5
DEB4
330
7467
100
AcDbSymbolTableRecord
100
AcDbLayerTableRecord
  2
部品1
 70
     0
 62
     7
  6
CONTINUOUS
370
    -3
390
173D0
  0
LAYER
  5
DEB5
330
7467
100
AcDbSymbolTableRecord
100
AcDbLayerTableRecord
  2
補助
 70
     0
 62
    -1
  6
CONTINUOUS
370
    -3
390
173D0
  0
LAYER
  5
DEB6
330
7467
100
AcDbSymbolTableRecord
100
AcDbLayerTableRecord
  2
文字
 70
     0
 62
     7
  6
CONTINUOUS
370
    -3
390
173D0
  0
LAYER
  5
F255
330
7467
100
AcDbSymbolTableRecord
100
AcDbLayerTableRecord
  2
DEFPOINTS
 70
     0
 62
     7
  6
CONTINUOUS
290
     0
370
    -3
390
173D0
  0
LAYER
  5
10B54
330
7467
100
AcDbSymbolTableRecord
100
AcDbLayerTableRecord
  2
仕様書枠
 70
     0
 62
   230
  6
CONTINUOUS
370
    -3
390
173D0
  0
LAYER
  5
11729
330
7467
100
AcDbSymbolTableRecord
100
AcDbLayerTableRecord
  2
Ｇ．Ｌ
 70
     0
 62
    30
  6
CONTINUOUS
370
    -3
390
173D0
  0
LAYER
  5
1173F
330
7467
100
AcDbSymbolTableRecord
100
AcDbLayerTableRecord
  2
細線
 70
     0
 62
     5
  6
CONTINUOUS
370
    -3
390
173D0
  0
LAYER
  5
12CC4
330
7467
100
AcDbSymbolTableRecord
100
AcDbLayerTableRecord
  2
想像線
 70
     0
 62
     6
  6
PHANTOM
370
    -3
390
173D0
  0
LAYER
  5
142E2
330
7467
100
AcDbSymbolTableRecord
100
AcDbLayerTableRecord
  2
破線
 70
     0
 62
     2
  6
HIDDEN
370
    -3
390
173D0
  0
ENDTAB
  0
TABLE
  2
STYLE
  5
7468
330
0
100
AcDbSymbolTable
 70
     7
  0
STYLE
  5
7475
330
7468
100
AcDbSymbolTableRecord
100
AcDbTextStyleTableRecord
  2
STANDARD
 70
     0
 40
0.0
 41
1.0
 50
0.0
 71
     0
 42
4.0
  3
txt
  4
C:\AutoCAD LT\bigfont.shx
  0
STYLE
  5
763C
330
7468
100
AcDbSymbolTableRecord
100
AcDbTextStyleTableRecord
  2
MSMINCHO
 70
     0
 40
0.0
 41
1.0
 50
0.0
 71
     0
 42
1.199999999999999
  3
C:\AutoCAD LT\msminch2.TTF
  4

  0
STYLE
  5
F706
330
7468
100
AcDbSymbolTableRecord
100
AcDbTextStyleTableRecord
  2
STYLE1
 70
     0
 40
0.0
 41
1.0
 50
0.0
 71
     0
 42
4.0
  3
isocp.shx
  4
bigfont.shx
  0
STYLE
  5
103BF
330
7468
100
AcDbSymbolTableRecord
100
AcDbTextStyleTableRecord
  2
STYLE2
 70
     0
 40
0.0
 41
1.0
 50
0.0
 71
     0
 42
100.0
  3
MS PGothic.ttf
  4

1001
ACAD
1000
MS PGothic
1071
    32818
  0
STYLE
  5
10BAA
330
7468
100
AcDbSymbolTableRecord
100
AcDbTextStyleTableRecord
  2
STYLE3
 70
     0
 40
0.0
 41
1.0
 50
0.0
 71
     0
 42
100.0
  3

  4

1001
ACAD
1000
DFPGothic-EB
1071
    32818
  0
STYLE
  5
11A15
330
7468
100
AcDbSymbolTableRecord
100
AcDbTextStyleTableRecord
  2
MSGOTHIC
 70
     0
 40
0.0
 41
1.0
 50
0.0
 71
     0
 42
3.5
  3
msgothi2.ttf
  4

  0
STYLE
  5
13E96
330
7468
100
AcDbSymbolTableRecord
100
AcDbTextStyleTableRecord
  2
MSPゴシック
 70
     0
 40
0.0
 41
1.0
 50
0.0
 71
     0
 42
4.0
  3
MS PGothic.ttf
  4

1001
ACAD
1000
MS PGothic
1071
    32818
  0
ENDTAB
  0
TABLE
  2
VIEW
  5
746B
330
0
100
AcDbSymbolTable
 70
     0
  0
ENDTAB
  0
TABLE
  2
UCS
  5
746C
330
0
100
AcDbSymbolTable
 70
     0
  0
ENDTAB
  0
TABLE
  2
APPID
  5
746E
330
0
100
AcDbSymbolTable
 70
     6
  0
APPID
  5
7476
330
746E
100
AcDbSymbolTableRecord
100
AcDbRegAppTableRecord
  2
ACAD
 70
     0
  0
APPID
  5
DEA9
330
746E
100
AcDbSymbolTableRecord
100
AcDbRegAppTableRecord
  2
CONTENTBLOCKICON
 70
     0
  0
APPID
  5
DEAA
330
746E
100
AcDbSymbolTableRecord
100
AcDbRegAppTableRecord
  2
CONTENTBLOCKDESCRIPTION
 70
     0
  0
APPID
  5
E71D
330
746E
100
AcDbSymbolTableRecord
100
AcDbRegAppTableRecord
  2
CONTENTTABDATA
 70
     0
  0
APPID
  5
E71E
330
746E
100
AcDbSymbolTableRecord
100
AcDbRegAppTableRecord
  2
CONTENTCURRENTTAB
 70
     0
  0
APPID
  5
F3BA
330
746E
100
AcDbSymbolTableRecord
100
AcDbRegAppTableRecord
  2
DRAWINGVARIABLESXDATA
 70
     0
  0
ENDTAB
  0
TABLE
  2
DIMSTYLE
  5
746F
330
0
100
AcDbSymbolTable
 70
     6
100
AcDbDimStyleTable
 71
     1
340
F71F
  0
DIMSTYLE
105
7484
330
746F
100
AcDbSymbolTableRecord
100
AcDbDimStyleTableRecord
  2
JIS
 70
     0
 41
2.5
 42
1.0
 43
7.0
 44
1.0
 73
     0
 74
     0
 77
     1
 78
     8
140
2.5
141
0.0
143
0.0394
147
0.0
172
     1
174
     1
175
     1
340
7475
  0
DIMSTYLE
105
F236
330
746F
100
AcDbSymbolTableRecord
100
AcDbDimStyleTableRecord
  2
INABA_S40
 70
     0
 40
40.0
 41
2.5
 42
0.5
 43
7.0
 44
1.5
 73
     0
 74
     0
 77
     3
 78
     8
140
3.0
141
0.0
143
0.0394
147
1.0
172
     1
173
     1
174
     1
175
     1
178
     7
289
     0
340
7475
341
DEAC
343
DEAC
344
DEAC
  0
DIMSTYLE
105
F71F
102
{ACAD_REACTORS
330
20DFB
330
22741
330
2275B
330
22A81
330
22A76
330
22A98
330
27EAC
330
285A8
330
285A7
330
2857E
330
2854A
330
28548
330
28546
330
284C9
330
284A2
330
284A1
330
284A0
330
28477
330
28476
330
28473
330
28471
330
28470
330
28411
330
2840E
330
28474
330
28419
330
28415
330
28414
330
28418
330
28417
330
28EB6
330
28EB7
330
28EBF
330
28EC6
330
28EC9
330
28F29
102
}
330
746F
100
AcDbSymbolTableRecord
100
AcDbDimStyleTableRecord
  2
INABA_S40G
 70
     0
 40
40.0
 41
2.5
 42
0.5
 43
7.0
 44
1.5
 73
     0
 74
     0
 77
     3
 78
     8
140
3.0
141
0.0
143
0.0394
147
1.0
172
     1
173
     1
174
     1
178
     7
271
     1
340
F706
341
F770
343
F770
344
F770
  0
DIMSTYLE
105
142E3
330
746F
100
AcDbSymbolTableRecord
100
AcDbDimStyleTableRecord
  2
INABA_S1
 70
     0
 40
0.0
 41
2.5
 42
0.5
 43
7.0
 44
1.5
 73
     0
 74
     0
 77
     3
 78
     8
140
3.0
141
0.0
143
0.0394
146
0.5
147
0.5
172
     1
173
     1
176
   256
177
   256
178
     7
271
     2
272
     2
284
     8
288
     1
340
7475
341
DEAC
343
DEAC
344
DEAC
  0
DIMSTYLE
105
14463
330
746F
100
AcDbSymbolTableRecord
100
AcDbDimStyleTableRecord
  2
INABA_S30G
 70
     0
 40
30.0
 41
2.5
 42
0.5
 43
7.0
 44
1.5
 73
     0
 74
     0
 77
     3
 78
     8
140
3.0
141
0.0
143
0.0394
147
1.0
172
     1
173
     1
174
     1
175
     1
178
     7
271
     1
340
F706
341
F770
343
F770
344
F770
  0
DIMSTYLE
105
1758E
330
746F
100
AcDbSymbolTableRecord
100
AcDbDimStyleTableRecord
  2
INABA_S50G
 70
     0
 41
125.0
 42
25.0
 43
7.0
 44
75.0
 73
     0
 74
     0
 77
     3
 78
     8
140
150.0
141
0.0
143
0.0394
147
25.0
172
     1
173
     1
174
     1
175
     1
178
     7
271
     1
340
F706
341
F770
343
F770
344
F770
  0
ENDTAB
  0
TABLE
  2
BLOCK_RECORD
  5
7466
330
0
100
AcDbSymbolTable
 70
    55
  0
BLOCK_RECORD
  5
747D
330
7466
100
AcDbSymbolTableRecord
100
AcDbBlockTableRecord
  2
*MODEL_SPACE
340
173D5
  0
BLOCK_RECORD
  5
747A
330
7466
100
AcDbSymbolTableRecord
100
AcDbBlockTableRecord
  2
*PAPER_SPACE
340
173D6
  0
BLOCK_RECORD
  5
DEAC
330
7466
100
AcDbSymbolTableRecord
100
AcDbBlockTableRecord
  2
_OPEN
340
0
  0
BLOCK_RECORD
  5
F770
330
7466
100
AcDbSymbolTableRecord
100
AcDbBlockTableRecord
  2
_DOTSMALL
340
0
102
{BLKREFS
331
18C65
331
18C66
331
18C59
331
18C5A
331
18C4D
331
18C4E
331
18C41
331
18C42
331
18C35
331
18C36
331
18C29
331
18C2A
331
18C1D
331
18C1E
331
18C0F
331
18C10
331
18C03
331
18C04
331
18BF5
331
18BF6
331
18BE7
331
18BE8
331
18BD9
331
18BDA
331
18BCD
331
18BCE
331
28B72
331
28B73
331
28B7B
331
28B7C
331
28B84
331
28B85
331
28B8D
331
28B8E
331
28B96
331
28B97
331
28B9F
331
28BA0
331
28BA8
331
28BA9
331
28BB1
331
28BB2
331
28BBA
331
28BBB
331
28BC3
331
28BC4
331
28BCD
331
28BCE
331
28BD6
331
28BD7
331
28BE0
331
28BE1
331
28BE9
331
28BEA
331
28BF2
331
28BF3
331
28BFB
331
28BFC
331
28C04
331
28C05
331
28C0E
331
28C0F
331
28C21
331
28C22
331
28C33
331
28C34
331
28C3D
331
28C3E
331
28C55
331
28C56
331
28C6A
331
28C6B
331
28C75
331
28C76
331
28C80
331
28C81
331
28C8B
331
28C8C
331
28CAF
331
28CB0
331
28CB8
331
28CB9
331
28D05
331
28D06
331
28D24
331
28D25
331
2902F
331
29030
331
2903A
331
2903B
331
29043
331
29044
331
2904C
331
2904D
331
29055
331
29056
331
2905E
331
2905F
102
}
  0
BLOCK_RECORD
  5
164B4
330
7466
100
AcDbSymbolTableRecord
100
AcDbBlockTableRecord
  2
_DOT
340
0
102
{BLKREFS
331
18C73
331
18C74
102
}
  0
BLOCK_RECORD
  5
18BC8
330
7466
100
AcDbSymbolTableRecord
100
AcDbBlockTableRecord
  2
*D3
340
0
  0
BLOCK_RECORD
  5
18BD4
330
7466
100
AcDbSymbolTableRecord
100
AcDbBlockTableRecord
  2
*D4
340
0
  0
BLOCK_RECORD
  5
18BE0
330
7466
100
AcDbSymbolTableRecord
100
AcDbBlockTableRecord
  2
*D5
340
0
  0
BLOCK_RECORD
  5
18BEE
330
7466
100
AcDbSymbolTableRecord
100
AcDbBlockTableRecord
  2
*D6
340
0
  0
BLOCK_RECORD
  5
18BFC
330
7466
100
AcDbSymbolTableRecord
100
AcDbBlockTableRecord
  2
*D7
340
0
  0
BLOCK_RECORD
  5
18C0A
330
7466
100
AcDbSymbolTableRecord
100
AcDbBlockTableRecord
  2
*D8
340
0
  0
BLOCK_RECORD
  5
18C16
330
7466
100
AcDbSymbolTableRecord
100
AcDbBlockTableRecord
  2
*D9
340
0
  0
BLOCK_RECORD
  5
18C24
330
7466
100
AcDbSymbolTableRecord
100
AcDbBlockTableRecord
  2
*D10
340
0
  0
BLOCK_RECORD
  5
18C30
330
7466
100
AcDbSymbolTableRecord
100
AcDbBlockTableRecord
  2
*D11
340
0
  0
BLOCK_RECORD
  5
18C3C
330
7466
100
AcDbSymbolTableRecord
100
AcDbBlockTableRecord
  2
*D12
340
0
  0
BLOCK_RECORD
  5
18C48
330
7466
100
AcDbSymbolTableRecord
100
AcDbBlockTableRecord
  2
*D13
340
0
  0
BLOCK_RECORD
  5
18C54
330
7466
100
AcDbSymbolTableRecord
100
AcDbBlockTableRecord
  2
*D14
340
0
  0
BLOCK_RECORD
  5
18C60
330
7466
100
AcDbSymbolTableRecord
100
AcDbBlockTableRecord
  2
*D15
340
0
  0
BLOCK_RECORD
  5
18C6C
330
7466
100
AcDbSymbolTableRecord
100
AcDbBlockTableRecord
  2
*D16
340
0
  0
BLOCK_RECORD
  5
18C7A
330
7466
100
AcDbSymbolTableRecord
100
AcDbBlockTableRecord
  2
A$C3B1A506B
340
0
  0
BLOCK_RECORD
  5
1C4CA
330
7466
100
AcDbSymbolTableRecord
100
AcDbBlockTableRecord
  2
_NONE
340
0
  0
BLOCK_RECORD
  5
20DFC
330
7466
100
AcDbSymbolTableRecord
100
AcDbBlockTableRecord
  2
*D19
340
0
  0
BLOCK_RECORD
  5
22742
330
7466
100
AcDbSymbolTableRecord
100
AcDbBlockTableRecord
  2
*D20
340
0
  0
BLOCK_RECORD
  5
2275C
330
7466
100
AcDbSymbolTableRecord
100
AcDbBlockTableRecord
  2
*D21
340
0
  0
BLOCK_RECORD
  5
22B5A
330
7466
100
AcDbSymbolTableRecord
100
AcDbBlockTableRecord
  2
*D22
340
0
  0
BLOCK_RECORD
  5
22B74
330
7466
100
AcDbSymbolTableRecord
100
AcDbBlockTableRecord
  2
*D23
340
0
  0
BLOCK_RECORD
  5
22B9A
330
7466
100
AcDbSymbolTableRecord
100
AcDbBlockTableRecord
  2
*D24
340
0
  0
BLOCK_RECORD
  5
27EAD
330
7466
100
AcDbSymbolTableRecord
100
AcDbBlockTableRecord
  2
*D25
340
0
  0
BLOCK_RECORD
  5
285D4
330
7466
100
AcDbSymbolTableRecord
100
AcDbBlockTableRecord
  2
*D26
340
0
  0
BLOCK_RECORD
  5
285DF
330
7466
100
AcDbSymbolTableRecord
100
AcDbBlockTableRecord
  2
*D27
340
0
  0
BLOCK_RECORD
  5
285F7
330
7466
100
AcDbSymbolTableRecord
100
AcDbBlockTableRecord
  2
*D28
340
0
  0
BLOCK_RECORD
  5
28604
330
7466
100
AcDbSymbolTableRecord
100
AcDbBlockTableRecord
  2
*D29
340
0
  0
BLOCK_RECORD
  5
2861B
330
7466
100
AcDbSymbolTableRecord
100
AcDbBlockTableRecord
  2
*D30
340
0
  0
BLOCK_RECORD
  5
28627
330
7466
100
AcDbSymbolTableRecord
100
AcDbBlockTableRecord
  2
*D31
340
0
  0
BLOCK_RECORD
  5
28634
330
7466
100
AcDbSymbolTableRecord
100
AcDbBlockTableRecord
  2
*D32
340
0
  0
BLOCK_RECORD
  5
28640
330
7466
100
AcDbSymbolTableRecord
100
AcDbBlockTableRecord
  2
*D33
340
0
  0
BLOCK_RECORD
  5
2864C
330
7466
100
AcDbSymbolTableRecord
100
AcDbBlockTableRecord
  2
*D34
340
0
  0
BLOCK_RECORD
  5
28664
330
7466
100
AcDbSymbolTableRecord
100
AcDbBlockTableRecord
  2
*D35
340
0
  0
BLOCK_RECORD
  5
2866F
330
7466
100
AcDbSymbolTableRecord
100
AcDbBlockTableRecord
  2
*D36
340
0
  0
BLOCK_RECORD
  5
2867B
330
7466
100
AcDbSymbolTableRecord
100
AcDbBlockTableRecord
  2
*D37
340
0
  0
BLOCK_RECORD
  5
28687
330
7466
100
AcDbSymbolTableRecord
100
AcDbBlockTableRecord
  2
*D38
340
0
  0
BLOCK_RECORD
  5
28692
330
7466
100
AcDbSymbolTableRecord
100
AcDbBlockTableRecord
  2
*D39
340
0
  0
BLOCK_RECORD
  5
286AB
330
7466
100
AcDbSymbolTableRecord
100
AcDbBlockTableRecord
  2
*D40
340
0
  0
BLOCK_RECORD
  5
286B7
330
7466
100
AcDbSymbolTableRecord
100
AcDbBlockTableRecord
  2
*D41
340
0
  0
BLOCK_RECORD
  5
286D1
330
7466
100
AcDbSymbolTableRecord
100
AcDbBlockTableRecord
  2
*D42
340
0
  0
BLOCK_RECORD
  5
286DD
330
7466
100
AcDbSymbolTableRecord
100
AcDbBlockTableRecord
  2
*D43
340
0
  0
BLOCK_RECORD
  5
286E9
330
7466
100
AcDbSymbolTableRecord
100
AcDbBlockTableRecord
  2
*D44
340
0
  0
BLOCK_RECORD
  5
286F5
330
7466
100
AcDbSymbolTableRecord
100
AcDbBlockTableRecord
  2
*D45
340
0
  0
BLOCK_RECORD
  5
28701
330
7466
100
AcDbSymbolTableRecord
100
AcDbBlockTableRecord
  2
*D46
340
0
  0
BLOCK_RECORD
  5
2870E
330
7466
100
AcDbSymbolTableRecord
100
AcDbBlockTableRecord
  2
*D47
340
0
  0
BLOCK_RECORD
  5
2871A
330
7466
100
AcDbSymbolTableRecord
100
AcDbBlockTableRecord
  2
*D48
340
0
  0
BLOCK_RECORD
  5
28FE2
330
7466
100
AcDbSymbolTableRecord
100
AcDbBlockTableRecord
  2
*D49
340
0
  0
BLOCK_RECORD
  5
28FEE
330
7466
100
AcDbSymbolTableRecord
100
AcDbBlockTableRecord
  2
*D50
340
0
  0
BLOCK_RECORD
  5
28FFC
330
7466
100
AcDbSymbolTableRecord
100
AcDbBlockTableRecord
  2
*D51
340
0
  0
BLOCK_RECORD
  5
29008
330
7466
100
AcDbSymbolTableRecord
100
AcDbBlockTableRecord
  2
*D52
340
0
  0
BLOCK_RECORD
  5
29014
330
7466
100
AcDbSymbolTableRecord
100
AcDbBlockTableRecord
  2
*D53
340
0
  0
BLOCK_RECORD
  5
29020
330
7466
100
AcDbSymbolTableRecord
100
AcDbBlockTableRecord
  2
*D54
340
0
  0
ENDTAB
  0
ENDSEC
  0
SECTION
  2
BLOCKS
  0
BLOCK
  5
7489
330
747D
100
AcDbEntity
  8
0
100
AcDbBlockBegin
  2
*MODEL_SPACE
 70
     0
 10
0.0
 20
0.0
 30
0.0
  3
*MODEL_SPACE
  1

  0
ENDBLK
  5
748A
330
747D
100
AcDbEntity
  8
0
100
AcDbBlockEnd
  0
BLOCK
  5
7487
330
747A
100
AcDbEntity
 67
     1
  8
0
100
AcDbBlockBegin
  2
*PAPER_SPACE
 70
     0
 10
0.0
 20
0.0
 30
0.0
  3
*PAPER_SPACE
  1

  0
ENDBLK
  5
7488
330
747A
100
AcDbEntity
 67
     1
  8
0
100
AcDbBlockEnd
  0
BLOCK
  5
DEAD
330
DEAC
100
AcDbEntity
  8
0
100
AcDbBlockBegin
  2
_OPEN
 70
     0
 10
0.0
 20
0.0
 30
0.0
  3
_OPEN
  1

  0
LINE
  5
DEAE
330
DEAC
100
AcDbEntity
  8
0
  6
ByBlock
 62
     0
100
AcDbLine
 10
-1.0
 20
0.1666666666666666
 30
0.0
 11
0.0
 21
0.0
 31
0.0
  0
LINE
  5
DEAF
330
DEAC
100
AcDbEntity
  8
0
  6
ByBlock
 62
     0
100
AcDbLine
 10
0.0
 20
0.0
 30
0.0
 11
-1.0
 21
-0.1666666666666666
 31
0.0
  0
LINE
  5
DEB0
330
DEAC
100
AcDbEntity
  8
0
  6
ByBlock
 62
     0
100
AcDbLine
 10
0.0
 20
0.0
 30
0.0
 11
-1.0
 21
0.0
 31
0.0
  0
ENDBLK
  5
DEB1
330
DEAC
100
AcDbEntity
  8
0
100
AcDbBlockEnd
  0
BLOCK
  5
F771
330
F770
100
AcDbEntity
  8
0
 48
50.0
100
AcDbBlockBegin
  2
_DOTSMALL
 70
     0
 10
0.0
 20
0.0
 30
0.0
  3
_DOTSMALL
  1

  0
LWPOLYLINE
  5
F772
330
F770
100
AcDbEntity
  8
0
  6
ByBlock
 62
     0
 48
50.0
100
AcDbPolyline
 90
        2
 70
     1
 43
0.5
 10
-0.0625
 20
0.0
 42
1.0
 10
0.0625
 20
0.0
 42
1.0
  0
ENDBLK
  5
F776
330
F770
100
AcDbEntity
  8
0
 48
50.0
100
AcDbBlockEnd
  0
BLOCK
  5
164BA
330
164B4
100
AcDbEntity
  8
0
 48
50.0
100
AcDbBlockBegin
  2
_DOT
 70
     0
 10
0.0
 20
0.0
 30
0.0
  3
_DOT
  1

  0
LWPOLYLINE
  5
164B5
330
164B4
100
AcDbEntity
  8
0
  6
ByBlock
 62
     0
 48
50.0
100
AcDbPolyline
 90
        2
 70
     1
 43
0.5
 10
-0.25
 20
0.0
 42
1.0
 10
0.25
 20
0.0
 42
1.0
  0
LINE
  5
164B9
330
164B4
100
AcDbEntity
  8
0
  6
ByBlock
 62
     0
 48
50.0
100
AcDbLine
 10
-0.5
 20
0.0
 30
0.0
 11
-1.0
 21
0.0
 31
0.0
  0
ENDBLK
  5
164BB
330
164B4
100
AcDbEntity
  8
0
 48
50.0
100
AcDbBlockEnd
  0
BLOCK
  5
18BC9
330
18BC8
100
AcDbEntity
  8
0
 48
50.0
100
AcDbBlockBegin
  2
*D3
 70
     1
 10
0.0
 20
0.0
 30
0.0
  3
*D3
  1

  0
LINE
  5
18BCA
330
18BC8
100
AcDbEntity
  8
寸法
 62
     0
 48
50.0
370
    -2
100
AcDbLine
 10
7649.896575106999
 20
9636.123139034717
 30
0.0
 11
8702.429862581047
 21
9636.123139034717
 31
0.0
  0
LINE
  5
18BCB
330
18BC8
100
AcDbEntity
  8
寸法
 62
     0
 48
50.0
370
    -2
100
AcDbLine
 10
7649.896575106973
 20
7846.123139034709
 30
0.0
 11
8702.429862581047
 21
7846.123139034709
 31
0.0
  0
LINE
  5
18BCC
330
18BC8
100
AcDbEntity
  8
寸法
 62
     0
 48
50.0
370
    -2
100
AcDbLine
 10
8642.429862581046
 20
9636.123139034717
 30
0.0
 11
8642.429862581046
 21
7846.123139034709
 31
0.0
  0
INSERT
  5
18BCD
330
18BC8
100
AcDbEntity
  8
寸法
 62
     0
 48
50.0
370
    -2
100
AcDbBlockReference
  2
_DOTSMALL
 10
8642.429862581046
 20
9636.123139034717
 30
0.0
 41
100.0
 42
100.0
 43
100.0
 50
90.0
  0
INSERT
  5
18BCE
330
18BC8
100
AcDbEntity
  8
寸法
 62
     0
 48
50.0
370
    -2
100
AcDbBlockReference
  2
_DOTSMALL
 10
8642.429862581046
 20
7846.123139034709
 30
0.0
 41
100.0
 42
100.0
 43
100.0
 50
270.0
  0
MTEXT
  5
18BCF
330
18BC8
100
AcDbEntity
  8
寸法
 62
     7
 48
50.0
100
AcDbMText
 10
8542.429862581045
 20
8741.123139034712
 30
0.0
 40
120.0
 41
0.0
 71
     5
 72
     1
  1
\A1;1790
  7
STYLE1
 11
0.0000000000000001
 21
1.0
 31
0.0
 73
     1
 44
1.0
1001
ACAD
1000
MTEXTBEGIN
1070
    73
1070
     1
1070
    44
1040
1.0
1070
    74
1070
     0
1000
MTEXTEND
  0
POINT
  5
18BD0
330
18BC8
100
AcDbEntity
  8
DEFPOINTS
 62
     0
 48
50.0
100
AcDbPoint
 10
7629.896575106998
 20
9636.123139034717
 30
0.0
  0
POINT
  5
18BD1
330
18BC8
100
AcDbEntity
  8
DEFPOINTS
 62
     0
 48
50.0
100
AcDbPoint
 10
7629.896575106974
 20
7846.123139034709
 30
0.0
  0
POINT
  5
18BD2
330
18BC8
100
AcDbEntity
  8
DEFPOINTS
 62
     0
 48
50.0
100
AcDbPoint
 10
8642.429862581046
 20
7846.123139034709
 30
0.0
  0
ENDBLK
  5
18BD3
330
18BC8
100
AcDbEntity
  8
0
 48
50.0
100
AcDbBlockEnd
  0
BLOCK
  5
18BD5
330
18BD4
100
AcDbEntity
  8
0
 48
50.0
100
AcDbBlockBegin
  2
*D4
 70
     1
 10
0.0
 20
0.0
 30
0.0
  3
*D4
  1

  0
LINE
  5
18BD6
330
18BD4
100
AcDbEntity
  8
寸法
 62
     0
 48
50.0
370
    -2
100
AcDbLine
 10
4214.896575106998
 20
9656.123139034622
 30
0.0
 11
4214.896575106998
 21
10211.93135865972
 31
0.0
  0
LINE
  5
18BD7
330
18BD4
100
AcDbEntity
  8
寸法
 62
     0
 48
50.0
370
    -2
100
AcDbLine
 10
7574.896575106999
 20
9656.123139034718
 30
0.0
 11
7574.896575106999
 21
10211.93135865972
 31
0.0
  0
LINE
  5
18BD8
330
18BD4
100
AcDbEntity
  8
寸法
 62
     0
 48
50.0
370
    -2
100
AcDbLine
 10
4214.896575106998
 20
10151.93135865972
 30
0.0
 11
7574.896575106999
 21
10151.93135865972
 31
0.0
  0
INSERT
  5
18BD9
330
18BD4
100
AcDbEntity
  8
寸法
 62
     0
 48
50.0
370
    -2
100
AcDbBlockReference
  2
_DOTSMALL
 10
4214.896575106998
 20
10151.93135865972
 30
0.0
 41
100.0
 42
100.0
 43
100.0
 50
180.0
  0
INSERT
  5
18BDA
330
18BD4
100
AcDbEntity
  8
寸法
 62
     0
 48
50.0
370
    -2
100
AcDbBlockReference
  2
_DOTSMALL
 10
7574.896575106999
 20
10151.93135865972
 30
0.0
 41
100.0
 42
100.0
 43
100.0
  0
MTEXT
  5
18BDB
330
18BD4
100
AcDbEntity
  8
寸法
 62
     7
 48
50.0
100
AcDbMText
 10
5894.896575106997
 20
10251.94316968334
 30
0.0
 40
120.0
 41
0.0
 71
     5
 72
     1
  1
\A1;8X420=3360
  7
STYLE1
 73
     1
 44
1.0
1001
ACAD
1000
MTEXTBEGIN
1070
    73
1070
     1
1070
    44
1040
1.0
1070
    74
1070
     0
1000
MTEXTEND
  0
POINT
  5
18BDC
330
18BD4
100
AcDbEntity
  8
DEFPOINTS
 62
     0
 48
50.0
100
AcDbPoint
 10
4214.896575106998
 20
9636.123139034623
 30
0.0
  0
POINT
  5
18BDD
330
18BD4
100
AcDbEntity
  8
DEFPOINTS
 62
     0
 48
50.0
100
AcDbPoint
 10
7574.896575106999
 20
9636.123139034717
 30
0.0
  0
POINT
  5
18BDE
330
18BD4
100
AcDbEntity
  8
DEFPOINTS
 62
     0
 48
50.0
100
AcDbPoint
 10
7574.896575106999
 20
10151.93135865972
 30
0.0
  0
ENDBLK
  5
18BDF
330
18BD4
100
AcDbEntity
  8
0
 48
50.0
100
AcDbBlockEnd
  0
BLOCK
  5
18BE1
330
18BE0
100
AcDbEntity
  8
0
 48
50.0
100
AcDbBlockBegin
  2
*D5
 70
     1
 10
0.0
 20
0.0
 30
0.0
  3
*D5
  1

  0
LINE
  5
18BE2
330
18BE0
100
AcDbEntity
  8
寸法
 62
     0
 48
50.0
370
    -2
100
AcDbLine
 10
7574.896575106999
 20
9656.123139034718
 30
0.0
 11
7574.896575106999
 21
10211.9313586597
 31
0.0
  0
LINE
  5
18BE3
330
18BE0
100
AcDbEntity
  8
寸法
 62
     0
 48
50.0
370
    -2
100
AcDbLine
 10
7629.896575106998
 20
9656.123139034718
 30
0.0
 11
7629.896575106998
 21
10211.9313586597
 31
0.0
  0
LINE
  5
18BE4
330
18BE0
100
AcDbEntity
  8
寸法
 62
     0
 48
50.0
370
    -2
100
AcDbLine
 10
7574.896575106999
 20
10151.9313586597
 30
0.0
 11
7474.896575106999
 21
10151.9313586597
 31
0.0
  0
LINE
  5
18BE5
330
18BE0
100
AcDbEntity
  8
寸法
 62
     0
 48
50.0
370
    -2
100
AcDbLine
 10
7629.896575106998
 20
10151.9313586597
 30
0.0
 11
8046.867137855477
 21
10151.9313586597
 31
0.0
  0
LINE
  5
18BE6
330
18BE0
100
AcDbEntity
  8
寸法
 62
     0
 48
50.0
370
    -2
100
AcDbLine
 10
7574.896575106999
 20
10151.9313586597
 30
0.0
 11
7629.896575106998
 21
10151.9313586597
 31
0.0
  0
INSERT
  5
18BE7
330
18BE0
100
AcDbEntity
  8
寸法
 62
     0
 48
50.0
370
    -2
100
AcDbBlockReference
  2
_DOTSMALL
 10
7574.896575106999
 20
10151.9313586597
 30
0.0
 41
100.0
 42
100.0
 43
100.0
  0
INSERT
  5
18BE8
330
18BE0
100
AcDbEntity
  8
寸法
 62
     0
 48
50.0
370
    -2
100
AcDbBlockReference
  2
_DOTSMALL
 10
7629.896575106998
 20
10151.9313586597
 30
0.0
 41
100.0
 42
100.0
 43
100.0
 50
180.0
  0
MTEXT
  5
18BE9
330
18BE0
100
AcDbEntity
  8
寸法
 62
     7
 48
50.0
100
AcDbMText
 10
7938.381856481237
 20
10251.9313586597
 30
0.0
 40
120.0
 41
0.0
 71
     5
 72
     1
  1
\A1;55
  7
STYLE1
 73
     1
 44
1.0
1001
ACAD
1000
MTEXTBEGIN
1070
    73
1070
     1
1070
    44
1040
1.0
1070
    74
1070
     0
1000
MTEXTEND
  0
POINT
  5
18BEA
330
18BE0
100
AcDbEntity
  8
DEFPOINTS
 62
     0
 48
50.0
100
AcDbPoint
 10
7574.896575106999
 20
9636.123139034717
 30
0.0
  0
POINT
  5
18BEB
330
18BE0
100
AcDbEntity
  8
DEFPOINTS
 62
     0
 48
50.0
100
AcDbPoint
 10
7629.896575106998
 20
9636.123139034717
 30
0.0
  0
POINT
  5
18BEC
330
18BE0
100
AcDbEntity
  8
DEFPOINTS
 62
     0
 48
50.0
100
AcDbPoint
 10
7629.896575106998
 20
10151.9313586597
 30
0.0
  0
ENDBLK
  5
18BED
330
18BE0
100
AcDbEntity
  8
0
 48
50.0
100
AcDbBlockEnd
  0
BLOCK
  5
18BEF
330
18BEE
100
AcDbEntity
  8
0
 48
50.0
100
AcDbBlockBegin
  2
*D6
 70
     1
 10
0.0
 20
0.0
 30
0.0
  3
*D6
  1

  0
LINE
  5
18BF0
330
18BEE
100
AcDbEntity
  8
寸法
 62
     0
 48
50.0
370
    -2
100
AcDbLine
 10
7649.896575106999
 20
9636.123139034717
 30
0.0
 11
8337.32292084141
 21
9636.123139034717
 31
0.0
  0
LINE
  5
18BF1
330
18BEE
100
AcDbEntity
  8
寸法
 62
     0
 48
50.0
370
    -2
100
AcDbLine
 10
7649.896575106999
 20
9581.123139034721
 30
0.0
 11
8337.32292084141
 21
9581.123139034721
 31
0.0
  0
LINE
  5
18BF2
330
18BEE
100
AcDbEntity
  8
寸法
 62
     0
 48
50.0
370
    -2
100
AcDbLine
 10
8277.322920841411
 20
9581.123139034721
 30
0.0
 11
8277.322920841411
 21
9481.123139034719
 31
0.0
  0
LINE
  5
18BF3
330
18BEE
100
AcDbEntity
  8
寸法
 62
     0
 48
50.0
370
    -2
100
AcDbLine
 10
8277.322920841411
 20
9636.123139034717
 30
0.0
 11
8277.322920841411
 21
10053.09370178319
 31
0.0
  0
LINE
  5
18BF4
330
18BEE
100
AcDbEntity
  8
寸法
 62
     0
 48
50.0
370
    -2
100
AcDbLine
 10
8277.322920841411
 20
9581.123139034721
 30
0.0
 11
8277.322920841411
 21
9636.123139034717
 31
0.0
  0
INSERT
  5
18BF5
330
18BEE
100
AcDbEntity
  8
寸法
 62
     0
 48
50.0
370
    -2
100
AcDbBlockReference
  2
_DOTSMALL
 10
8277.322920841411
 20
9581.123139034721
 30
0.0
 41
100.0
 42
100.0
 43
100.0
 50
90.0
  0
INSERT
  5
18BF6
330
18BEE
100
AcDbEntity
  8
寸法
 62
     0
 48
50.0
370
    -2
100
AcDbBlockReference
  2
_DOTSMALL
 10
8277.322920841411
 20
9636.123139034717
 30
0.0
 41
100.0
 42
100.0
 43
100.0
 50
270.0
  0
MTEXT
  5
18BF7
330
18BEE
100
AcDbEntity
  8
寸法
 62
     7
 48
50.0
100
AcDbMText
 10
8177.32292084141
 20
9944.608420408957
 30
0.0
 40
120.0
 41
0.0
 71
     5
 72
     1
  1
\A1;55
  7
STYLE1
 11
0.0000000000000001
 21
1.0
 31
0.0
 73
     1
 44
1.0
1001
ACAD
1000
MTEXTBEGIN
1070
    73
1070
     1
1070
    44
1040
1.0
1070
    74
1070
     0
1000
MTEXTEND
  0
POINT
  5
18BF8
330
18BEE
100
AcDbEntity
  8
DEFPOINTS
 62
     0
 48
50.0
100
AcDbPoint
 10
7629.896575106998
 20
9636.123139034717
 30
0.0
  0
POINT
  5
18BF9
330
18BEE
100
AcDbEntity
  8
DEFPOINTS
 62
     0
 48
50.0
100
AcDbPoint
 10
7629.896575106998
 20
9581.123139034721
 30
0.0
  0
POINT
  5
18BFA
330
18BEE
100
AcDbEntity
  8
DEFPOINTS
 62
     0
 48
50.0
100
AcDbPoint
 10
8277.322920841411
 20
9581.123139034721
 30
0.0
  0
ENDBLK
  5
18BFB
330
18BEE
100
AcDbEntity
  8
0
 48
50.0
100
AcDbBlockEnd
  0
BLOCK
  5
18BFD
330
18BFC
100
AcDbEntity
  8
0
 48
50.0
100
AcDbBlockBegin
  2
*D7
 70
     1
 10
0.0
 20
0.0
 30
0.0
  3
*D7
  1

  0
LINE
  5
18BFE
330
18BFC
100
AcDbEntity
  8
寸法
 62
     0
 48
50.0
370
    -2
100
AcDbLine
 10
4159.896575106963
 20
9656.123139034622
 30
0.0
 11
4159.896575106963
 21
10211.9313586596
 31
0.0
  0
LINE
  5
18BFF
330
18BFC
100
AcDbEntity
  8
寸法
 62
     0
 48
50.0
370
    -2
100
AcDbLine
 10
4214.896575106998
 20
9656.123139034622
 30
0.0
 11
4214.896575106998
 21
10211.9313586596
 31
0.0
  0
LINE
  5
18C00
330
18BFC
100
AcDbEntity
  8
寸法
 62
     0
 48
50.0
370
    -2
100
AcDbLine
 10
4214.896575106998
 20
10151.9313586596
 30
0.0
 11
4314.896575106998
 21
10151.9313586596
 31
0.0
  0
LINE
  5
18C01
330
18BFC
100
AcDbEntity
  8
寸法
 62
     0
 48
50.0
370
    -2
100
AcDbLine
 10
4159.896575106963
 20
10151.9313586596
 30
0.0
 11
3742.926012358486
 21
10151.9313586596
 31
0.0
  0
LINE
  5
18C02
330
18BFC
100
AcDbEntity
  8
寸法
 62
     0
 48
50.0
370
    -2
100
AcDbLine
 10
4214.896575106998
 20
10151.9313586596
 30
0.0
 11
4159.896575106963
 21
10151.9313586596
 31
0.0
  0
INSERT
  5
18C03
330
18BFC
100
AcDbEntity
  8
寸法
 62
     0
 48
50.0
370
    -2
100
AcDbBlockReference
  2
_DOTSMALL
 10
4214.896575106998
 20
10151.9313586596
 30
0.0
 41
100.0
 42
100.0
 43
100.0
 50
180.0
  0
INSERT
  5
18C04
330
18BFC
100
AcDbEntity
  8
寸法
 62
     0
 48
50.0
370
    -2
100
AcDbBlockReference
  2
_DOTSMALL
 10
4159.896575106963
 20
10151.9313586596
 30
0.0
 41
100.0
 42
100.0
 43
100.0
  0
MTEXT
  5
18C05
330
18BFC
100
AcDbEntity
  8
寸法
 62
     7
 48
50.0
100
AcDbMText
 10
3851.411293732725
 20
10251.9313586596
 30
0.0
 40
120.0
 41
0.0
 71
     5
 72
     1
  1
\A1;55
  7
STYLE1
 73
     1
 44
1.0
1001
ACAD
1000
MTEXTBEGIN
1070
    73
1070
     1
1070
    44
1040
1.0
1070
    74
1070
     0
1000
MTEXTEND
  0
POINT
  5
18C06
330
18BFC
100
AcDbEntity
  8
DEFPOINTS
 62
     0
 48
50.0
100
AcDbPoint
 10
4159.896575106963
 20
9636.123139034623
 30
0.0
  0
POINT
  5
18C07
330
18BFC
100
AcDbEntity
  8
DEFPOINTS
 62
     0
 48
50.0
100
AcDbPoint
 10
4214.896575106998
 20
9636.123139034623
 30
0.0
  0
POINT
  5
18C08
330
18BFC
100
AcDbEntity
  8
DEFPOINTS
 62
     0
 48
50.0
100
AcDbPoint
 10
4214.896575106998
 20
10151.9313586596
 30
0.0
  0
ENDBLK
  5
18C09
330
18BFC
100
AcDbEntity
  8
0
 48
50.0
100
AcDbBlockEnd
  0
BLOCK
  5
18C0B
330
18C0A
100
AcDbEntity
  8
0
 48
50.0
100
AcDbBlockBegin
  2
*D8
 70
     1
 10
0.0
 20
0.0
 30
0.0
  3
*D8
  1

  0
LINE
  5
18C0C
330
18C0A
100
AcDbEntity
  8
寸法
 62
     0
 48
50.0
370
    -2
100
AcDbLine
 10
4159.896575106992
 20
7826.123139034546
 30
0.0
 11
4159.896575106992
 21
6804.372203245664
 31
0.0
  0
LINE
  5
18C0D
330
18C0A
100
AcDbEntity
  8
寸法
 62
     0
 48
50.0
370
    -2
100
AcDbLine
 10
7629.896575106974
 20
7826.123139034674
 30
0.0
 11
7629.896575106974
 21
6804.372203245664
 31
0.0
  0
LINE
  5
18C0E
330
18C0A
100
AcDbEntity
  8
寸法
 62
     0
 48
50.0
370
    -2
100
AcDbLine
 10
4159.896575106992
 20
6864.372203245665
 30
0.0
 11
7629.896575106974
 21
6864.372203245665
 31
0.0
  0
INSERT
  5
18C0F
330
18C0A
100
AcDbEntity
  8
寸法
 62
     0
 48
50.0
370
    -2
100
AcDbBlockReference
  2
_DOTSMALL
 10
4159.896575106992
 20
6864.372203245665
 30
0.0
 41
100.0
 42
100.0
 43
100.0
 50
180.0
  0
INSERT
  5
18C10
330
18C0A
100
AcDbEntity
  8
寸法
 62
     0
 48
50.0
370
    -2
100
AcDbBlockReference
  2
_DOTSMALL
 10
7629.896575106974
 20
6864.372203245665
 30
0.0
 41
100.0
 42
100.0
 43
100.0
  0
MTEXT
  5
18C11
330
18C0A
100
AcDbEntity
  8
寸法
 62
     7
 48
50.0
100
AcDbMText
 10
5911.12376113973
 20
6964.372203245665
 30
0.0
 40
120.0
 41
0.0
 71
     5
 72
     1
  1
\A1;3470
  7
STYLE1
 73
     1
 44
1.0
1001
ACAD
1000
MTEXTBEGIN
1070
    73
1070
     1
1070
    44
1040
1.0
1070
    74
1070
     0
1000
MTEXTEND
  0
POINT
  5
18C12
330
18C0A
100
AcDbEntity
  8
DEFPOINTS
 62
     0
 48
50.0
100
AcDbPoint
 10
4159.896575106992
 20
7846.123139034546
 30
0.0
  0
POINT
  5
18C13
330
18C0A
100
AcDbEntity
  8
DEFPOINTS
 62
     0
 48
50.0
100
AcDbPoint
 10
7629.896575106974
 20
7846.123139034673
 30
0.0
  0
POINT
  5
18C14
330
18C0A
100
AcDbEntity
  8
DEFPOINTS
 62
     0
 48
50.0
100
AcDbPoint
 10
7629.896575106974
 20
6864.372203245665
 30
0.0
  0
ENDBLK
  5
18C15
330
18C0A
100
AcDbEntity
  8
0
 48
50.0
100
AcDbBlockEnd
  0
BLOCK
  5
18C17
330
18C16
100
AcDbEntity
  8
0
 48
50.0
100
AcDbBlockBegin
  2
*D9
 70
     1
 10
0.0
 20
0.0
 30
0.0
  3
*D9
  1

  0
LINE
  5
18C18
330
18C16
100
AcDbEntity
  8
寸法
 62
     0
 48
50.0
370
    -2
100
AcDbLine
 10
7649.896575106973
 20
7901.123139034706
 30
0.0
 11
8337.322920841385
 21
7901.123139034706
 31
0.0
  0
LINE
  5
18C19
330
18C16
100
AcDbEntity
  8
寸法
 62
     0
 48
50.0
370
    -2
100
AcDbLine
 10
7649.896575106973
 20
7846.123139034709
 30
0.0
 11
8337.322920841385
 21
7846.123139034709
 31
0.0
  0
LINE
  5
18C1A
330
18C16
100
AcDbEntity
  8
寸法
 62
     0
 48
50.0
370
    -2
100
AcDbLine
 10
8277.322920841385
 20
7901.123139034706
 30
0.0
 11
8277.322920841385
 21
8001.123139034707
 31
0.0
  0
LINE
  5
18C1B
330
18C16
100
AcDbEntity
  8
寸法
 62
     0
 48
50.0
370
    -2
100
AcDbLine
 10
8277.322920841385
 20
7846.123139034709
 30
0.0
 11
8277.322920841385
 21
7429.152576286229
 31
0.0
  0
LINE
  5
18C1C
330
18C16
100
AcDbEntity
  8
寸法
 62
     0
 48
50.0
370
    -2
100
AcDbLine
 10
8277.322920841385
 20
7901.123139034706
 30
0.0
 11
8277.322920841385
 21
7846.123139034709
 31
0.0
  0
INSERT
  5
18C1D
330
18C16
100
AcDbEntity
  8
寸法
 62
     0
 48
50.0
370
    -2
100
AcDbBlockReference
  2
_DOTSMALL
 10
8277.322920841385
 20
7901.123139034706
 30
0.0
 41
100.0
 42
100.0
 43
100.0
 50
270.0
  0
INSERT
  5
18C1E
330
18C16
100
AcDbEntity
  8
寸法
 62
     0
 48
50.0
370
    -2
100
AcDbBlockReference
  2
_DOTSMALL
 10
8277.322920841385
 20
7846.123139034709
 30
0.0
 41
100.0
 42
100.0
 43
100.0
 50
90.0
  0
MTEXT
  5
18C1F
330
18C16
100
AcDbEntity
  8
寸法
 62
     7
 48
50.0
100
AcDbMText
 10
8177.322920841383
 20
7537.637857660469
 30
0.0
 40
120.0
 41
0.0
 71
     5
 72
     1
  1
\A1;55
  7
STYLE1
 11
0.0000000000000001
 21
1.0
 31
0.0
 73
     1
 44
1.0
1001
ACAD
1000
MTEXTBEGIN
1070
    73
1070
     1
1070
    44
1040
1.0
1070
    74
1070
     0
1000
MTEXTEND
  0
POINT
  5
18C20
330
18C16
100
AcDbEntity
  8
DEFPOINTS
 62
     0
 48
50.0
100
AcDbPoint
 10
7629.896575106974
 20
7901.123139034706
 30
0.0
  0
POINT
  5
18C21
330
18C16
100
AcDbEntity
  8
DEFPOINTS
 62
     0
 48
50.0
100
AcDbPoint
 10
7629.896575106974
 20
7846.123139034709
 30
0.0
  0
POINT
  5
18C22
330
18C16
100
AcDbEntity
  8
DEFPOINTS
 62
     0
 48
50.0
100
AcDbPoint
 10
8277.322920841385
 20
7846.123139034709
 30
0.0
  0
ENDBLK
  5
18C23
330
18C16
100
AcDbEntity
  8
0
 48
50.0
100
AcDbBlockEnd
  0
BLOCK
  5
18C25
330
18C24
100
AcDbEntity
  8
0
 48
50.0
100
AcDbBlockBegin
  2
*D10
 70
     1
 10
0.0
 20
0.0
 30
0.0
  3
*D10
  1

  0
LINE
  5
18C26
330
18C24
100
AcDbEntity
  8
寸法
 62
     0
 48
50.0
370
    -2
100
AcDbLine
 10
6533.037591258376
 20
9136.123139034728
 30
0.0
 11
6465.083950562664
 21
8882.516699399049
 31
0.0
  0
LINE
  5
18C27
330
18C24
100
AcDbEntity
  8
寸法
 62
     0
 48
50.0
370
    -2
100
AcDbLine
 10
7596.037591258388
 20
9136.123139034721
 30
0.0
 11
7528.083950562677
 21
8882.516699399049
 31
0.0
  0
LINE
  5
18C28
330
18C24
100
AcDbEntity
  8
寸法
 62
     0
 48
50.0
370
    -2
100
AcDbLine
 10
6481.160902108531
 20
8942.51669939905
 30
0.0
 11
7544.160902108544
 21
8942.51669939905
 31
0.0
  0
INSERT
  5
18C29
330
18C24
100
AcDbEntity
  8
寸法
 62
     0
 48
50.0
370
    -2
100
AcDbBlockReference
  2
_DOTSMALL
 10
6481.160902108531
 20
8942.51669939905
 30
0.0
 41
100.0
 42
100.0
 43
100.0
 50
180.0
  0
INSERT
  5
18C2A
330
18C24
100
AcDbEntity
  8
寸法
 62
     0
 48
50.0
370
    -2
100
AcDbBlockReference
  2
_DOTSMALL
 10
7544.160902108544
 20
8942.51669939905
 30
0.0
 41
100.0
 42
100.0
 43
100.0
  0
MTEXT
  5
18C2B
330
18C24
100
AcDbEntity
  8
寸法
 62
     7
 48
50.0
100
AcDbMText
 10
7061.28653022935
 20
9042.516699399049
 30
0.0
 40
120.0
 41
0.0
 71
     5
 72
     1
  1
\A1;1063
  7
STYLE1
 73
     1
 44
1.0
1001
ACAD
1000
MTEXTBEGIN
1070
    73
1070
     1
1070
    44
1040
1.0
1070
    74
1070
     0
1000
MTEXTEND
  0
POINT
  5
18C2C
330
18C24
100
AcDbEntity
  8
DEFPOINTS
 62
     0
 48
50.0
100
AcDbPoint
 10
6538.396575106998
 20
9156.123139034727
 30
0.0
  0
POINT
  5
18C2D
330
18C24
100
AcDbEntity
  8
DEFPOINTS
 62
     0
 48
50.0
100
AcDbPoint
 10
7601.39657510701
 20
9156.12313903472
 30
0.0
  0
POINT
  5
18C2E
330
18C24
100
AcDbEntity
  8
DEFPOINTS
 62
     0
 48
50.0
100
AcDbPoint
 10
7544.160902108544
 20
8942.51669939905
 30
0.0
  0
ENDBLK
  5
18C2F
330
18C24
100
AcDbEntity
  8
0
 48
50.0
100
AcDbBlockEnd
  0
BLOCK
  5
18C31
330
18C30
100
AcDbEntity
  8
0
 48
50.0
100
AcDbBlockBegin
  2
*D11
 70
     1
 10
0.0
 20
0.0
 30
0.0
  3
*D11
  1

  0
LINE
  5
18C32
330
18C30
100
AcDbEntity
  8
寸法
 62
     0
 48
50.0
370
    -2
100
AcDbLine
 10
7621.396575106999
 20
9600.764155186094
 30
0.0
 11
8016.754300969024
 21
9494.828371819961
 31
0.0
  0
LINE
  5
18C33
330
18C30
100
AcDbEntity
  8
寸法
 62
     0
 48
50.0
370
    -2
100
AcDbLine
 10
7621.396575106999
 20
9150.764155186099
 30
0.0
 11
8016.754300969024
 21
9044.828371819964
 31
0.0
  0
LINE
  5
18C34
330
18C30
100
AcDbEntity
  8
寸法
 62
     0
 48
50.0
370
    -2
100
AcDbLine
 10
7956.754300969024
 20
9510.905323365827
 30
0.0
 11
7956.754300969024
 21
9060.90532336583
 31
0.0
  0
INSERT
  5
18C35
330
18C30
100
AcDbEntity
  8
寸法
 62
     0
 48
50.0
370
    -2
100
AcDbBlockReference
  2
_DOTSMALL
 10
7956.754300969024
 20
9510.905323365827
 30
0.0
 41
100.0
 42
100.0
 43
100.0
 50
90.0
  0
INSERT
  5
18C36
330
18C30
100
AcDbEntity
  8
寸法
 62
     0
 48
50.0
370
    -2
100
AcDbBlockReference
  2
_DOTSMALL
 10
7956.754300969024
 20
9060.90532336583
 30
0.0
 41
100.0
 42
100.0
 43
100.0
 50
270.0
  0
MTEXT
  5
18C37
330
18C30
100
AcDbEntity
  8
寸法
 62
     7
 48
50.0
100
AcDbMText
 10
7856.754300969022
 20
9285.905323365829
 30
0.0
 40
120.0
 41
0.0
 71
     5
 72
     1
  1
\A1;450
  7
STYLE1
 11
0.0000000000000001
 21
1.0
 31
0.0
 73
     1
 44
1.0
1001
ACAD
1000
MTEXTBEGIN
1070
    73
1070
     1
1070
    44
1040
1.0
1070
    74
1070
     0
1000
MTEXTEND
  0
POINT
  5
18C38
330
18C30
100
AcDbEntity
  8
DEFPOINTS
 62
     0
 48
50.0
100
AcDbPoint
 10
7601.396575106999
 20
9606.123139034718
 30
0.0
  0
POINT
  5
18C39
330
18C30
100
AcDbEntity
  8
DEFPOINTS
 62
     0
 48
50.0
100
AcDbPoint
 10
7601.396575106999
 20
9156.12313903472
 30
0.0
  0
POINT
  5
18C3A
330
18C30
100
AcDbEntity
  8
DEFPOINTS
 62
     0
 48
50.0
100
AcDbPoint
 10
7956.754300969024
 20
9060.90532336583
 30
0.0
  0
ENDBLK
  5
18C3B
330
18C30
100
AcDbEntity
  8
0
 48
50.0
100
AcDbBlockEnd
  0
BLOCK
  5
18C3D
330
18C3C
100
AcDbEntity
  8
0
 48
50.0
100
AcDbBlockBegin
  2
*D12
 70
     1
 10
0.0
 20
0.0
 30
0.0
  3
*D12
  1

  0
LINE
  5
18C3E
330
18C3C
100
AcDbEntity
  8
寸法
 62
     0
 48
50.0
370
    -2
100
AcDbLine
 10
7649.896575106999
 20
9581.123139034721
 30
0.0
 11
8337.32292084141
 21
9581.123139034721
 31
0.0
  0
LINE
  5
18C3F
330
18C3C
100
AcDbEntity
  8
寸法
 62
     0
 48
50.0
370
    -2
100
AcDbLine
 10
7649.896575106973
 20
7901.123139034706
 30
0.0
 11
8337.32292084141
 21
7901.123139034706
 31
0.0
  0
LINE
  5
18C40
330
18C3C
100
AcDbEntity
  8
寸法
 62
     0
 48
50.0
370
    -2
100
AcDbLine
 10
8277.322920841411
 20
9581.123139034721
 30
0.0
 11
8277.322920841411
 21
7901.123139034706
 31
0.0
  0
INSERT
  5
18C41
330
18C3C
100
AcDbEntity
  8
寸法
 62
     0
 48
50.0
370
    -2
100
AcDbBlockReference
  2
_DOTSMALL
 10
8277.322920841411
 20
9581.123139034721
 30
0.0
 41
100.0
 42
100.0
 43
100.0
 50
90.0
  0
INSERT
  5
18C42
330
18C3C
100
AcDbEntity
  8
寸法
 62
     0
 48
50.0
370
    -2
100
AcDbBlockReference
  2
_DOTSMALL
 10
8277.322920841411
 20
7901.123139034706
 30
0.0
 41
100.0
 42
100.0
 43
100.0
 50
270.0
  0
MTEXT
  5
18C43
330
18C3C
100
AcDbEntity
  8
寸法
 62
     7
 48
50.0
100
AcDbMText
 10
8177.311109817788
 20
8741.123139034712
 30
0.0
 40
120.0
 41
0.0
 71
     5
 72
     1
  1
\A1;4X420=1680
  7
STYLE1
 11
0.0000000000000001
 21
1.0
 31
0.0
 73
     1
 44
1.0
1001
ACAD
1000
MTEXTBEGIN
1070
    73
1070
     1
1070
    44
1040
1.0
1070
    74
1070
     0
1000
MTEXTEND
  0
POINT
  5
18C44
330
18C3C
100
AcDbEntity
  8
DEFPOINTS
 62
     0
 48
50.0
100
AcDbPoint
 10
7629.896575106998
 20
9581.123139034721
 30
0.0
  0
POINT
  5
18C45
330
18C3C
100
AcDbEntity
  8
DEFPOINTS
 62
     0
 48
50.0
100
AcDbPoint
 10
7629.896575106974
 20
7901.123139034706
 30
0.0
  0
POINT
  5
18C46
330
18C3C
100
AcDbEntity
  8
DEFPOINTS
 62
     0
 48
50.0
100
AcDbPoint
 10
8277.322920841411
 20
7901.123139034706
 30
0.0
  0
ENDBLK
  5
18C47
330
18C3C
100
AcDbEntity
  8
0
 48
50.0
100
AcDbBlockEnd
  0
BLOCK
  5
18C49
330
18C48
100
AcDbEntity
  8
0
 48
50.0
100
AcDbBlockBegin
  2
*D13
 70
     1
 10
0.0
 20
0.0
 30
0.0
  3
*D13
  1

  0
LINE
  5
18C4A
330
18C48
100
AcDbEntity
  8
寸法
 62
     0
 48
50.0
370
    -2
100
AcDbLine
 10
4183.037591258377
 20
9136.123139034619
 30
0.0
 11
4115.083950562663
 21
8882.516699398941
 31
0.0
  0
LINE
  5
18C4B
330
18C48
100
AcDbEntity
  8
寸法
 62
     0
 48
50.0
370
    -2
100
AcDbLine
 10
5246.037591258307
 20
9136.123139034671
 30
0.0
 11
5178.08395056258
 21
8882.516699398941
 31
0.0
  0
LINE
  5
18C4C
330
18C48
100
AcDbEntity
  8
寸法
 62
     0
 48
50.0
370
    -2
100
AcDbLine
 10
4131.160902108532
 20
8942.516699398941
 30
0.0
 11
5194.160902108448
 21
8942.516699398941
 31
0.0
  0
INSERT
  5
18C4D
330
18C48
100
AcDbEntity
  8
寸法
 62
     0
 48
50.0
370
    -2
100
AcDbBlockReference
  2
_DOTSMALL
 10
4131.160902108532
 20
8942.516699398941
 30
0.0
 41
100.0
 42
100.0
 43
100.0
 50
180.0
  0
INSERT
  5
18C4E
330
18C48
100
AcDbEntity
  8
寸法
 62
     0
 48
50.0
370
    -2
100
AcDbBlockReference
  2
_DOTSMALL
 10
5194.160902108448
 20
8942.516699398941
 30
0.0
 41
100.0
 42
100.0
 43
100.0
  0
MTEXT
  5
18C4F
330
18C48
100
AcDbEntity
  8
寸法
 62
     7
 48
50.0
100
AcDbMText
 10
4658.986452655306
 20
9042.516699398941
 30
0.0
 40
120.0
 41
0.0
 71
     5
 72
     1
  1
\A1;1063
  7
STYLE1
 73
     1
 44
1.0
1001
ACAD
1000
MTEXTBEGIN
1070
    73
1070
     1
1070
    44
1040
1.0
1070
    74
1070
     0
1000
MTEXTEND
  0
POINT
  5
18C50
330
18C48
100
AcDbEntity
  8
DEFPOINTS
 62
     0
 48
50.0
100
AcDbPoint
 10
4188.396575106999
 20
9156.123139034617
 30
0.0
  0
POINT
  5
18C51
330
18C48
100
AcDbEntity
  8
DEFPOINTS
 62
     0
 48
50.0
100
AcDbPoint
 10
5251.396575106929
 20
9156.123139034672
 30
0.0
  0
POINT
  5
18C52
330
18C48
100
AcDbEntity
  8
DEFPOINTS
 62
     0
 48
50.0
100
AcDbPoint
 10
5194.160902108448
 20
8942.516699398941
 30
0.0
  0
ENDBLK
  5
18C53
330
18C48
100
AcDbEntity
  8
0
 48
50.0
100
AcDbBlockEnd
  0
BLOCK
  5
18C55
330
18C54
100
AcDbEntity
  8
0
 48
50.0
100
AcDbBlockBegin
  2
*D14
 70
     1
 10
0.0
 20
0.0
 30
0.0
  3
*D14
  1

  0
LINE
  5
18C56
330
18C54
100
AcDbEntity
  8
寸法
 62
     0
 48
50.0
370
    -2
100
AcDbLine
 10
5274.037591258307
 20
9136.123139034669
 30
0.0
 11
5206.08395056258
 21
8882.516699398941
 31
0.0
  0
LINE
  5
18C57
330
18C54
100
AcDbEntity
  8
寸法
 62
     0
 48
50.0
370
    -2
100
AcDbLine
 10
6505.037591258377
 20
9136.123139034662
 30
0.0
 11
6437.083950562653
 21
8882.516699398941
 31
0.0
  0
LINE
  5
18C58
330
18C54
100
AcDbEntity
  8
寸法
 62
     0
 48
50.0
370
    -2
100
AcDbLine
 10
5222.160902108448
 20
8942.516699398941
 30
0.0
 11
6453.16090210852
 21
8942.516699398941
 31
0.0
  0
INSERT
  5
18C59
330
18C54
100
AcDbEntity
  8
寸法
 62
     0
 48
50.0
370
    -2
100
AcDbBlockReference
  2
_DOTSMALL
 10
5222.160902108448
 20
8942.516699398941
 30
0.0
 41
100.0
 42
100.0
 43
100.0
 50
180.0
  0
INSERT
  5
18C5A
330
18C54
100
AcDbEntity
  8
寸法
 62
     0
 48
50.0
370
    -2
100
AcDbBlockReference
  2
_DOTSMALL
 10
6453.16090210852
 20
8942.516699398941
 30
0.0
 41
100.0
 42
100.0
 43
100.0
  0
MTEXT
  5
18C5B
330
18C54
100
AcDbEntity
  8
寸法
 62
     7
 48
50.0
100
AcDbMText
 10
6081.244808320626
 20
9042.528510422561
 30
0.0
 40
120.0
 41
0.0
 71
     5
 72
     1
  1
\A1;1231
  7
STYLE1
 73
     1
 44
1.0
1001
ACAD
1000
MTEXTBEGIN
1070
    73
1070
     1
1070
    44
1040
1.0
1070
    74
1070
     0
1000
MTEXTEND
  0
POINT
  5
18C5C
330
18C54
100
AcDbEntity
  8
DEFPOINTS
 62
     0
 48
50.0
100
AcDbPoint
 10
5279.396575106929
 20
9156.123139034669
 30
0.0
  0
POINT
  5
18C5D
330
18C54
100
AcDbEntity
  8
DEFPOINTS
 62
     0
 48
50.0
100
AcDbPoint
 10
6510.396575106999
 20
9156.123139034662
 30
0.0
  0
POINT
  5
18C5E
330
18C54
100
AcDbEntity
  8
DEFPOINTS
 62
     0
 48
50.0
100
AcDbPoint
 10
6453.16090210852
 20
8942.516699398941
 30
0.0
  0
ENDBLK
  5
18C5F
330
18C54
100
AcDbEntity
  8
0
 48
50.0
100
AcDbBlockEnd
  0
BLOCK
  5
18C61
330
18C60
100
AcDbEntity
  8
0
 48
50.0
100
AcDbBlockBegin
  2
*D15
 70
     1
 10
0.0
 20
0.0
 30
0.0
  3
*D15
  1

  0
LINE
  5
18C62
330
18C60
100
AcDbEntity
  8
寸法
 62
     0
 48
50.0
370
    -2
100
AcDbLine
 10
5065.896575106966
 20
7749.123139034579
 30
0.0
 11
5065.896575106966
 21
7099.952920982538
 31
0.0
  0
LINE
  5
18C63
330
18C60
100
AcDbEntity
  8
寸法
 62
     0
 48
50.0
370
    -2
100
AcDbLine
 10
6331.896575106966
 20
7749.123139034579
 30
0.0
 11
6331.896575106966
 21
7099.952920982538
 31
0.0
  0
LINE
  5
18C64
330
18C60
100
AcDbEntity
  8
寸法
 62
     0
 48
50.0
370
    -2
100
AcDbLine
 10
5065.896575106966
 20
7159.952920982537
 30
0.0
 11
6331.896575106966
 21
7159.952920982537
 31
0.0
  0
INSERT
  5
18C65
330
18C60
100
AcDbEntity
  8
寸法
 62
     0
 48
50.0
370
    -2
100
AcDbBlockReference
  2
_DOTSMALL
 10
5065.896575106966
 20
7159.952920982537
 30
0.0
 41
100.0
 42
100.0
 43
100.0
 50
180.0
  0
INSERT
  5
18C66
330
18C60
100
AcDbEntity
  8
寸法
 62
     0
 48
50.0
370
    -2
100
AcDbBlockReference
  2
_DOTSMALL
 10
6331.896575106966
 20
7159.952920982537
 30
0.0
 41
100.0
 42
100.0
 43
100.0
  0
MTEXT
  5
18C67
330
18C60
100
AcDbEntity
  8
寸法
 62
     7
 48
50.0
100
AcDbMText
 10
5711.986008735934
 20
7359.964732006159
 30
0.0
 40
120.0
 41
0.0
 71
     5
 72
     1
  1
\A1;有効開口部間口\P1266
  7
STYLE1
 73
     1
 44
1.0
1001
ACAD
1000
MTEXTBEGIN
1070
    73
1070
     1
1070
    44
1040
1.0
1070
    74
1070
     0
1000
MTEXTEND
  0
POINT
  5
18C68
330
18C60
100
AcDbEntity
  8
DEFPOINTS
 62
     0
 48
50.0
100
AcDbPoint
 10
5065.896575106966
 20
7769.123139034579
 30
0.0
  0
POINT
  5
18C69
330
18C60
100
AcDbEntity
  8
DEFPOINTS
 62
     0
 48
50.0
100
AcDbPoint
 10
6331.896575106966
 20
7769.123139034579
 30
0.0
  0
POINT
  5
18C6A
330
18C60
100
AcDbEntity
  8
DEFPOINTS
 62
     0
 48
50.0
100
AcDbPoint
 10
6331.896575106966
 20
7159.952920982537
 30
0.0
  0
ENDBLK
  5
18C6B
330
18C60
100
AcDbEntity
  8
0
 48
50.0
100
AcDbBlockEnd
  0
BLOCK
  5
18C6D
330
18C6C
100
AcDbEntity
  8
0
 48
50.0
100
AcDbBlockBegin
  2
*D16
 70
     1
 10
0.0
 20
0.0
 30
0.0
  3
*D16
  1

  0
LINE
  5
18C6E
330
18C6C
100
AcDbEntity
  8
寸法
 62
     0
 48
50.0
370
    -2
100
AcDbLine
 10
7200.896575106966
 20
7846.123139034578
 30
0.0
 11
7457.192158500191
 21
7846.123139034578
 31
0.0
  0
LINE
  5
18C6F
330
18C6C
100
AcDbEntity
  8
寸法
 62
     0
 48
50.0
370
    -2
100
AcDbLine
 10
7199.896575106966
 20
7769.123139034579
 30
0.0
 11
7457.192158500191
 21
7769.123139034579
 31
0.0
  0
LINE
  5
18C70
330
18C6C
100
AcDbEntity
  8
寸法
 62
     0
 48
50.0
370
    -2
100
AcDbLine
 10
7417.192158500192
 20
7866.123139034579
 30
0.0
 11
7417.192158500192
 21
7886.123139034578
 31
0.0
  0
LINE
  5
18C71
330
18C6C
100
AcDbEntity
  8
寸法
 62
     0
 48
50.0
370
    -2
100
AcDbLine
 10
7417.192158500192
 20
7749.123139034579
 30
0.0
 11
7417.192158500192
 21
7533.123139034573
 31
0.0
  0
LINE
  5
18C72
330
18C6C
100
AcDbEntity
  8
寸法
 62
     0
 48
50.0
370
    -2
100
AcDbLine
 10
7417.192158500192
 20
7846.123139034578
 30
0.0
 11
7417.192158500192
 21
7769.123139034579
 31
0.0
  0
INSERT
  5
18C73
330
18C6C
100
AcDbEntity
  8
寸法
 62
     0
 48
50.0
370
    -2
100
AcDbBlockReference
  2
_DOT
 10
7417.192158500192
 20
7846.123139034578
 30
0.0
 41
20.0
 42
20.0
 43
20.0
 50
270.0
  0
INSERT
  5
18C74
330
18C6C
100
AcDbEntity
  8
寸法
 62
     0
 48
50.0
370
    -2
100
AcDbBlockReference
  2
_DOT
 10
7417.192158500192
 20
7769.123139034579
 30
0.0
 41
20.0
 42
20.0
 43
20.0
 50
90.0
  0
MTEXT
  5
18C75
330
18C6C
100
AcDbEntity
  8
寸法
 62
     7
 48
50.0
100
AcDbMText
 10
7325.192158500191
 20
7631.123139034575
 30
0.0
 40
120.0
 41
0.0
 71
     5
 72
     1
  1
\A1;77
  7
STYLE1
 11
0.0000000000000001
 21
1.0
 31
0.0
 73
     1
 44
1.0
1001
ACAD
1000
MTEXTBEGIN
1070
    73
1070
     1
1070
    44
1040
1.0
1070
    74
1070
     0
1000
MTEXTEND
  0
POINT
  5
18C76
330
18C6C
100
AcDbEntity
  8
DEFPOINTS
 62
     0
 48
50.0
100
AcDbPoint
 10
7180.896575106967
 20
7846.123139034578
 30
0.0
  0
POINT
  5
18C77
330
18C6C
100
AcDbEntity
  8
DEFPOINTS
 62
     0
 48
50.0
100
AcDbPoint
 10
7179.896575106965
 20
7769.123139034579
 30
0.0
  0
POINT
  5
18C78
330
18C6C
100
AcDbEntity
  8
DEFPOINTS
 62
     0
 48
50.0
100
AcDbPoint
 10
7417.192158500192
 20
7769.123139034579
 30
0.0
  0
ENDBLK
  5
18C79
330
18C6C
100
AcDbEntity
  8
0
 48
50.0
100
AcDbBlockEnd
  0
BLOCK
  5
18DA0
330
18C7A
100
AcDbEntity
  8
0
 48
50.0
100
AcDbBlockBegin
  2
A$C3B1A506B
 70
     0
 10
0.0
 20
0.0
 30
0.0
  3
A$C3B1A506B
  1

  0
MTEXT
  5
18C7B
330
18C7A
100
AcDbEntity
  8
寸法
 62
     7
 48
50.0
100
AcDbMText
 10
3342.250386887194
 20
2778.329429134012
 30
0.0
 40
96.0
 41
0.0
 71
     5
 72
     1
  1
棚 2段
  7
STYLE1
 73
     1
 44
1.0
1001
ACAD
1000
MTEXTBEGIN
1070
    73
1070
     1
1070
    44
1040
1.0
1070
    74
1070
     0
1000
MTEXTEND
  0
MTEXT
  5
18C7C
330
18C7A
100
AcDbEntity
  8
寸法
 62
     7
 48
50.0
100
AcDbMText
 10
2167.25038688716
 20
2778.329429133986
 30
0.0
 40
96.0
 41
0.0
 71
     5
 72
     1
  1
棚 2段
  7
STYLE1
 73
     1
 44
1.0
1001
ACAD
1000
MTEXTBEGIN
1070
    73
1070
     1
1070
    44
1040
1.0
1070
    74
1070
     0
1000
MTEXTEND
  0
MTEXT
  5
18C7D
330
18C7A
100
AcDbEntity
  8
寸法
 62
     7
 48
50.0
100
AcDbMText
 10
992.2503868871608
 20
2778.329429133935
 30
0.0
 40
96.0
 41
0.0
 71
     5
 72
     1
  1
棚 2段
  7
STYLE1
 73
     1
 44
1.0
1001
ACAD
1000
MTEXTBEGIN
1070
    73
1070
     1
1070
    44
1040
1.0
1070
    74
1070
     0
1000
MTEXTEND
  0
LINE
  5
18C7E
330
18C7A
100
AcDbEntity
  8
細線
 48
50.0
100
AcDbLine
 10
2771.970589276527
 20
1368.994384123192
 30
0.0
 11
3398.970589276523
 21
1368.994384123192
 31
0.0
  0
LINE
  5
18C7F
330
18C7A
100
AcDbEntity
  8
細線
 48
50.0
100
AcDbLine
 10
2117.970593930113
 20
1335.285615569113
 30
0.0
 11
3398.970589276523
 21
1335.285615569113
 31
0.0
  0
LINE
  5
18C80
330
18C7A
100
AcDbEntity
  8
細線
 48
50.0
100
AcDbLine
 10
2076.970593930115
 20
1364.690523565368
 30
0.0
 11
1322.970589276523
 21
1364.690523565367
 31
0.0
  0
LINE
  5
18C81
330
18C7A
100
AcDbEntity
  8
細線
100
AcDbLine
 10
3170.720579860066
 20
1388.494284088199
 30
0.0
 11
3173.052119381877
 21
1393.494286728162
 31
0.0
  0
LINE
  5
18C82
330
18C7A
100
AcDbEntity
  8
細線
100
AcDbLine
 10
3240.720589276525
 20
1388.494269174465
 30
0.0
 11
3238.389042800336
 21
1393.494286728144
 31
0.0
  0
LINE
  5
18C83
330
18C7A
100
AcDbEntity
  8
細線
100
AcDbLine
 10
3238.389042800336
 20
1393.494286728144
 30
0.0
 11
3173.052119381862
 21
1393.494286728133
 31
0.0
  0
LINE
  5
18C84
330
18C7A
100
AcDbEntity
  8
細線
100
AcDbLine
 10
3098.389042800336
 20
1393.494286728144
 30
0.0
 11
3033.052119381862
 21
1393.494286728133
 31
0.0
  0
LINE
  5
18C85
330
18C7A
100
AcDbEntity
  8
細線
100
AcDbLine
 10
3100.720589276523
 20
1388.494269174465
 30
0.0
 11
3098.389042800336
 21
1393.494286728144
 31
0.0
  0
LINE
  5
18C86
330
18C7A
100
AcDbEntity
  8
細線
100
AcDbLine
 10
3030.720579860066
 20
1388.494284088199
 30
0.0
 11
3033.052119381875
 21
1393.494286728162
 31
0.0
  0
LINE
  5
18C87
330
18C7A
100
AcDbEntity
  8
細線
100
AcDbLine
 10
2890.720589276525
 20
1388.494269174465
 30
0.0
 11
2893.052128798336
 21
1393.494271814428
 31
0.0
  0
LINE
  5
18C88
330
18C7A
100
AcDbEntity
  8
細線
100
AcDbLine
 10
2960.720598692984
 20
1388.494254260731
 30
0.0
 11
2958.389052216793
 21
1393.49427181441
 31
0.0
  0
LINE
  5
18C89
330
18C7A
100
AcDbEntity
  8
細線
100
AcDbLine
 10
2958.389052216795
 20
1393.49427181441
 30
0.0
 11
2893.052128798321
 21
1393.494271814399
 31
0.0
  0
LINE
  5
18C8A
330
18C7A
100
AcDbEntity
  8
細線
100
AcDbLine
 10
2667.139038146739
 20
1359.494298590735
 30
0.0
 11
2601.802114728263
 21
1359.494298590724
 31
0.0
  0
LINE
  5
18C8B
330
18C7A
100
AcDbEntity
  8
細線
100
AcDbLine
 10
2669.470584622926
 20
1354.494281037055
 30
0.0
 11
2667.139038146737
 21
1359.494298590735
 31
0.0
  0
LINE
  5
18C8C
330
18C7A
100
AcDbEntity
  8
細線
100
AcDbLine
 10
2599.470575206469
 20
1354.49429595079
 30
0.0
 11
2601.802114728278
 21
1359.494298590752
 31
0.0
  0
LINE
  5
18C8D
330
18C7A
100
AcDbEntity
  8
細線
 48
50.0
100
AcDbLine
 10
2440.853968524536
 20
1372.765132327548
 30
0.0
 11
2446.609486107205
 21
1354.494281037057
 31
0.0
  0
LINE
  5
18C8E
330
18C7A
100
AcDbEntity
  8
細線
 48
50.0
100
AcDbLine
 10
2429.925520044106
 20
1372.765132327546
 30
0.0
 11
2440.853968524536
 21
1372.765132327548
 31
0.0
  0
ARC
  5
18C8F
330
18C7A
100
AcDbEntity
  8
細線
 48
50.0
100
AcDbCircle
 10
2424.471163986787
 20
1374.265132327546
 30
0.0
 40
5.0
100
AcDbArc
 50
204.6243183520723
 51
335.3756816479278
  0
ARC
  5
18C90
330
18C7A
100
AcDbEntity
  8
細線
 48
50.0
100
AcDbCircle
 10
2429.925520044106
 20
1371.765132327546
 30
0.0
 40
1.0
100
AcDbArc
 50
90.0
 51
155.3756816479277
  0
ARC
  5
18C91
330
18C7A
100
AcDbEntity
  8
細線
 48
50.0
100
AcDbCircle
 10
2419.016807929469
 20
1371.765132327546
 30
0.0
 40
1.0
100
AcDbArc
 50
24.62431835207225
 51
90.0
  0
LINE
  5
18C92
330
18C7A
100
AcDbEntity
  8
細線
 48
50.0
100
AcDbLine
 10
2408.088359449037
 20
1372.765132327548
 30
0.0
 11
2419.016807929469
 21
1372.765132327546
 31
0.0
  0
LINE
  5
18C93
330
18C7A
100
AcDbEntity
  8
細線
 48
50.0
100
AcDbLine
 10
2402.33284186637
 20
1354.494281037054
 30
0.0
 11
2408.088359449037
 21
1372.765132327548
 31
0.0
  0
LINE
  5
18C94
330
18C7A
100
AcDbEntity
  8
細線
100
AcDbLine
 10
2458.070304175992
 20
1354.494278397076
 30
0.0
 11
2460.401843697802
 21
1359.494281037039
 31
0.0
  0
LINE
  5
18C95
330
18C7A
100
AcDbEntity
  8
細線
100
AcDbLine
 10
2528.070313592451
 20
1354.494263483342
 30
0.0
 11
2525.738767116262
 21
1359.494281037021
 31
0.0
  0
LINE
  5
18C96
330
18C7A
100
AcDbEntity
  8
細線
100
AcDbLine
 10
2525.738767116262
 20
1359.494281037021
 30
0.0
 11
2460.40184369779
 21
1359.49428103701
 31
0.0
  0
LINE
  5
18C97
330
18C7A
100
AcDbEntity
  8
細線
100
AcDbLine
 10
2387.139046332155
 20
1359.494281037021
 30
0.0
 11
2321.80212291368
 21
1359.49428103701
 31
0.0
  0
LINE
  5
18C98
330
18C7A
100
AcDbEntity
  8
細線
100
AcDbLine
 10
2389.470592808342
 20
1354.494263483342
 30
0.0
 11
2387.139046332153
 21
1359.494281037021
 31
0.0
  0
LINE
  5
18C99
330
18C7A
100
AcDbEntity
  8
細線
100
AcDbLine
 10
2319.470584622926
 20
1354.494281037054
 30
0.0
 11
2321.802122913694
 21
1359.494281037039
 31
0.0
  0
LINE
  5
18C9A
330
18C7A
100
AcDbEntity
  8
細線
100
AcDbLine
 10
2179.47061994182
 20
1354.494289224422
 30
0.0
 11
2181.802158232587
 21
1359.494289224407
 31
0.0
  0
LINE
  5
18C9B
330
18C7A
100
AcDbEntity
  8
細線
100
AcDbLine
 10
2249.470628127236
 20
1354.49427167071
 30
0.0
 11
2247.139081651047
 21
1359.494289224389
 31
0.0
  0
LINE
  5
18C9C
330
18C7A
100
AcDbEntity
  8
細線
100
AcDbLine
 10
2247.139081651047
 20
1359.494289224389
 30
0.0
 11
2181.802158232573
 21
1359.494289224378
 31
0.0
  0
LINE
  5
18C9D
330
18C7A
100
AcDbEntity
  8
細線
100
AcDbLine
 10
1807.970585744697
 20
1320.494460905133
 30
0.0
 11
1810.302124035464
 21
1325.494460905118
 31
0.0
  0
LINE
  5
18C9E
330
18C7A
100
AcDbEntity
  8
細線
100
AcDbLine
 10
1877.970593930113
 20
1320.494443351421
 30
0.0
 11
1875.639047453926
 21
1325.4944609051
 31
0.0
  0
LINE
  5
18C9F
330
18C7A
100
AcDbEntity
  8
細線
100
AcDbLine
 10
1875.639047453926
 20
1325.4944609051
 30
0.0
 11
1810.302124035452
 21
1325.494460905089
 31
0.0
  0
LINE
  5
18CA0
330
18C7A
100
AcDbEntity
  8
細線
100
AcDbLine
 10
2015.639047453926
 20
1325.4944609051
 30
0.0
 11
1950.302124035452
 21
1325.494460905089
 31
0.0
  0
LINE
  5
18CA1
330
18C7A
100
AcDbEntity
  8
細線
100
AcDbLine
 10
2017.970593930113
 20
1320.494443351421
 30
0.0
 11
2015.639047453924
 21
1325.4944609051
 31
0.0
  0
LINE
  5
18CA2
330
18C7A
100
AcDbEntity
  8
細線
100
AcDbLine
 10
1947.970585744697
 20
1320.494460905133
 30
0.0
 11
1950.302124035465
 21
1325.494460905118
 31
0.0
  0
LINE
  5
18CA3
330
18C7A
100
AcDbEntity
  8
細線
100
AcDbLine
 10
1735.639047453926
 20
1325.494460905098
 30
0.0
 11
1670.302124035454
 21
1325.494460905087
 31
0.0
  0
LINE
  5
18CA4
330
18C7A
100
AcDbEntity
  8
細線
100
AcDbLine
 10
1737.970593930113
 20
1320.494443351419
 30
0.0
 11
1735.639047453926
 21
1325.494460905098
 31
0.0
  0
LINE
  5
18CA5
330
18C7A
100
AcDbEntity
  8
細線
100
AcDbLine
 10
1667.970585744697
 20
1320.494460905131
 30
0.0
 11
1670.302124035465
 21
1325.494460905116
 31
0.0
  0
LINE
  5
18CA6
330
18C7A
100
AcDbEntity
  8
細線
100
AcDbLine
 10
1527.970593930113
 20
1320.494460905133
 30
0.0
 11
1530.302132220881
 21
1325.494460905118
 31
0.0
  0
LINE
  5
18CA7
330
18C7A
100
AcDbEntity
  8
細線
100
AcDbLine
 10
1597.970602115529
 20
1320.494443351421
 30
0.0
 11
1595.639055639342
 21
1325.4944609051
 31
0.0
  0
LINE
  5
18CA8
330
18C7A
100
AcDbEntity
  8
細線
100
AcDbLine
 10
1595.639055639342
 20
1325.4944609051
 30
0.0
 11
1530.302132220869
 21
1325.494460905089
 31
0.0
  0
ARC
  5
18CA9
330
18C7A
100
AcDbEntity
  8
部品1
 48
0.01
100
AcDbCircle
 10
1483.470482677778
 20
1319.493338720063
 30
0.0
 40
0.5
100
AcDbArc
 50
270.0
 51
0.0
  0
LINE
  5
18CAA
330
18C7A
100
AcDbEntity
  8
部品1
 48
0.01
100
AcDbLine
 10
1483.970482677778
 20
1320.493338720063
 30
0.0
 11
1483.970482677778
 21
1319.493338720063
 31
0.0
  0
LINE
  5
18CAB
330
18C7A
100
AcDbEntity
  8
部品1
 48
0.01
100
AcDbLine
 10
1483.970482677778
 20
1320.493338720063
 30
0.0
 11
1483.970482677778
 21
1319.493338720063
 31
0.0
  0
LINE
  5
18CAC
330
18C7A
100
AcDbEntity
  8
部品1
 48
0.01
100
AcDbLine
 10
1483.470482677778
 20
1318.993338720063
 30
0.0
 11
1476.857977247713
 21
1318.993338720062
 31
0.0
  0
ARC
  5
18CAD
330
18C7A
100
AcDbEntity
  8
部品1
100
AcDbCircle
 10
1476.926326800494
 20
1319.993338720062
 30
0.0
 40
1.0
100
AcDbArc
 50
160.5287793655865
 51
270.0
  0
ARC
  5
18CAE
330
18C7A
100
AcDbEntity
  8
部品1
100
AcDbCircle
 10
1451.470482677778
 20
1328.993338720062
 30
0.0
 40
26.0
100
AcDbArc
 50
340.5287793655865
 51
0.0
  0
LINE
  5
18CAF
330
18C7A
100
AcDbEntity
  8
部品1
100
AcDbLine
 10
1477.470482677778
 20
1328.993338720062
 30
0.0
 11
1477.470482677778
 21
1333.993338720061
 31
0.0
  0
ARC
  5
18CB0
330
18C7A
100
AcDbEntity
  8
部品1
 48
0.01
100
AcDbCircle
 10
1475.470482677778
 20
1333.993338720061
 30
0.0
 40
2.0
100
AcDbArc
 50
0.0
 51
90.0
  0
ARC
  5
18CB1
330
18C7A
100
AcDbEntity
  8
部品1
100
AcDbCircle
 10
1473.862091052968
 20
1332.993338720062
 30
0.0
 40
3.0
100
AcDbArc
 50
90.0
 51
141.6069559808035
  0
LINE
  5
18CB2
330
18C7A
100
AcDbEntity
  8
部品1
 48
0.01
100
AcDbLine
 10
1475.470482677778
 20
1335.993338720062
 30
0.0
 11
1473.862091052968
 21
1335.993338720062
 31
0.0
  0
ARC
  5
18CB3
330
18C7A
100
AcDbEntity
  8
部品1
100
AcDbCircle
 10
1455.399768463507
 20
1332.293338720065
 30
0.0
 40
3.0
100
AcDbArc
 50
254.0576313943215
 51
270.0
  0
ARC
  5
18CB4
330
18C7A
100
AcDbEntity
  8
部品1
100
AcDbCircle
 10
1462.541196892049
 20
1332.293338720065
 30
0.0
 40
3.0
100
AcDbArc
 50
270.0
 51
285.9423686056786
  0
LINE
  5
18CB5
330
18C7A
100
AcDbEntity
  8
部品1
100
AcDbLine
 10
1462.541196892049
 20
1329.293338720064
 30
0.0
 11
1455.399768463507
 21
1329.293338720064
 31
0.0
  0
ARC
  5
18CB6
330
18C7A
100
AcDbEntity
  8
部品1
100
AcDbCircle
 10
1458.970482677778
 20
1344.793338720065
 30
0.0
 40
16.0
100
AcDbArc
 50
285.9423686056786
 51
321.6069559808035
  0
LINE
  5
18CB7
330
18C7A
100
AcDbEntity
  8
部品1
 48
0.01
100
AcDbLine
 10
1442.470482677778
 20
1335.993338720062
 30
0.0
 11
1444.078874302588
 21
1335.993338720062
 31
0.0
  0
ARC
  5
18CB8
330
18C7A
100
AcDbEntity
  8
部品1
100
AcDbCircle
 10
1444.078874302588
 20
1332.993338720062
 30
0.0
 40
3.0
100
AcDbArc
 50
38.39304401919648
 51
90.0
  0
ARC
  5
18CB9
330
18C7A
100
AcDbEntity
  8
部品1
100
AcDbCircle
 10
1458.970482677778
 20
1344.793338720065
 30
0.0
 40
16.0
100
AcDbArc
 50
218.3930440191965
 51
254.0576313943215
  0
LINE
  5
18CBA
330
18C7A
100
AcDbEntity
  8
部品1
100
AcDbLine
 10
1440.470482677778
 20
1328.993338720062
 30
0.0
 11
1440.470482677778
 21
1333.993338720061
 31
0.0
  0
ARC
  5
18CBB
330
18C7A
100
AcDbEntity
  8
部品1
 48
0.01
100
AcDbCircle
 10
1442.470482677778
 20
1333.993338720061
 30
0.0
 40
2.0
100
AcDbArc
 50
90.0
 51
180.0
  0
ARC
  5
18CBC
330
18C7A
100
AcDbEntity
  8
部品1
100
AcDbCircle
 10
1466.470482677778
 20
1328.993338720062
 30
0.0
 40
26.0
100
AcDbArc
 50
180.0
 51
199.4712206344134
  0
ARC
  5
18CBD
330
18C7A
100
AcDbEntity
  8
部品1
 48
0.01
100
AcDbCircle
 10
1434.470482677778
 20
1319.493338720063
 30
0.0
 40
0.5
100
AcDbArc
 50
180.0
 51
270.0
  0
LINE
  5
18CBE
330
18C7A
100
AcDbEntity
  8
部品1
 48
0.01
100
AcDbLine
 10
1434.470482677778
 20
1318.993338720063
 30
0.0
 11
1441.014638555061
 21
1318.993338720062
 31
0.0
  0
LINE
  5
18CBF
330
18C7A
100
AcDbEntity
  8
部品1
 48
0.01
100
AcDbLine
 10
1433.970482677778
 20
1320.493338720063
 30
0.0
 11
1433.970482677778
 21
1319.493338720063
 31
0.0
  0
ARC
  5
18CC0
330
18C7A
100
AcDbEntity
  8
部品1
100
AcDbCircle
 10
1441.014638555061
 20
1319.993338720062
 30
0.0
 40
1.0
100
AcDbArc
 50
270.0
 51
19.47122063441346
  0
LINE
  5
18CC1
330
18C7A
100
AcDbEntity
  8
細線
100
AcDbLine
 10
1479.470482677785
 20
1338.493338720065
 30
0.0
 11
1438.470482677785
 21
1338.493338720058
 31
0.0
  0
LINE
  5
18CC2
330
18C7A
100
AcDbEntity
  8
細線
100
AcDbLine
 10
1438.470482677785
 20
1338.493338720058
 30
0.0
 11
1438.470482677785
 21
1320.49333872004
 31
0.0
  0
LINE
  5
18CC3
330
18C7A
100
AcDbEntity
  8
細線
100
AcDbLine
 10
1479.470482677785
 20
1338.493338720065
 30
0.0
 11
1479.470482677785
 21
1320.49333872004
 31
0.0
  0
LINE
  5
18CC4
330
18C7A
100
AcDbEntity
  8
細線
100
AcDbLine
 10
1322.970589276523
 20
1324.494269174465
 30
0.0
 11
1322.970589276523
 21
1320.494269174513
 31
0.0
  0
LINE
  5
18CC5
330
18C7A
100
AcDbEntity
  8
寸法
 48
50.0
100
AcDbLine
 10
1746.17359555837
 20
1170.531020743327
 30
0.0
 11
1694.767587648266
 21
1170.531020743327
 31
0.0
  0
LINE
  5
18CC6
330
18C7A
100
AcDbEntity
  8
寸法
 48
50.0
100
AcDbLine
 10
1694.767587648266
 20
1170.531020743327
 30
0.0
 11
1694.767587648266
 21
1201.841179395494
 31
0.0
  0
LINE
  5
18CC7
330
18C7A
100
AcDbEntity
  8
寸法
 48
50.0
100
AcDbLine
 10
1694.767587648266
 20
1201.841179395494
 30
0.0
 11
1665.006255656843
 21
1201.841179395494
 31
0.0
  0
LINE
  5
18CC8
330
18C7A
100
AcDbEntity
  8
寸法
 48
50.0
100
AcDbLine
 10
1665.006255656843
 20
1201.841179395494
 30
0.0
 11
1720.470591603318
 21
1239.420630324105
 31
0.0
  0
LINE
  5
18CC9
330
18C7A
100
AcDbEntity
  8
寸法
 48
50.0
100
AcDbLine
 10
1775.934927549793
 20
1201.841179395494
 30
0.0
 11
1720.470591603318
 21
1239.420630324105
 31
0.0
  0
LINE
  5
18CCA
330
18C7A
100
AcDbEntity
  8
寸法
 48
50.0
100
AcDbLine
 10
1746.17359555837
 20
1201.841179395494
 30
0.0
 11
1775.934927549793
 21
1201.841179395494
 31
0.0
  0
LINE
  5
18CCB
330
18C7A
100
AcDbEntity
  8
寸法
 48
50.0
100
AcDbLine
 10
1746.17359555837
 20
1170.531020743327
 30
0.0
 11
1746.17359555837
 21
1201.841179395494
 31
0.0
  0
LINE
  5
18CCC
330
18C7A
100
AcDbEntity
  8
寸法
 48
50.0
100
AcDbLine
 10
1694.767587648266
 20
1170.531020743327
 30
0.0
 11
1746.17359555837
 21
1170.531020743327
 31
0.0
  0
LINE
  5
18CCD
330
18C7A
100
AcDbEntity
  8
寸法
 48
50.0
100
AcDbLine
 10
2025.339129835225
 20
1227.676611498152
 30
0.0
 11
2025.339129835225
 21
1174.01297691636
 31
0.0
  0
LINE
  5
18CCE
330
18C7A
100
AcDbEntity
  8
寸法
 48
50.0
100
AcDbLine
 10
2114.623348430647
 20
1203.752977228664
 30
0.0
 11
2025.339129835225
 21
1227.676611498152
 31
0.0
  0
LINE
  5
18CCF
330
18C7A
100
AcDbEntity
  8
寸法
 48
50.0
100
AcDbLine
 10
1895.471408254923
 20
1203.752977228664
 30
0.0
 11
2114.623348430647
 21
1203.752977228664
 31
0.0
  0
DIMENSION
  5
18CD0
330
18C7A
100
AcDbEntity
  8
寸法
 48
50.0
100
AcDbDimension
  2
*D15
 10
2588.970589276523
 20
706.3240511224249
 30
0.0
 11
1969.060022905491
 21
706.3240511224249
 31
0.0
 12
-3742.925985830444
 22
-6453.628869860112
 32
0.0
 70
   128
  1
有効開口部間口\P<>
 71
     5
 42
1266.0
  3
INABA_S40G
100
AcDbAlignedDimension
 13
1322.970589276523
 23
1315.494269174465
 33
0.0
 14
2588.970589276523
 24
1315.494269174465
 34
0.0
100
AcDbRotatedDimension
1001
ACAD
1000
DSTYLE
1002
{
1070
   341
1005
0
1002
}
  0
LINE
  5
18CD1
330
18C7A
100
AcDbEntity
  8
部品1
100
AcDbLine
 10
3409.970589276524
 20
1392.494269174465
 30
0.0
 11
3437.970589276523
 21
1392.494269174465
 31
0.0
  0
DIMENSION
  5
18CD2
330
18C7A
100
AcDbEntity
  8
寸法
100
AcDbDimension
  2
*D16
 10
3674.266172669749
 20
1315.494269174465
 30
0.0
 11
3674.266172669748
 21
1177.494269174462
 31
0.0
 12
-3742.925985830444
 22
-6453.628869860112
 32
0.0
 70
   128
 71
     5
 42
77.0
  3
INABA_S40
100
AcDbAlignedDimension
 13
3437.970589276523
 23
1392.494269174465
 33
0.0
 14
3436.970589276523
 24
1315.494269174465
 34
0.0
 50
90.0
100
AcDbRotatedDimension
1001
ACAD
1000
DSTYLE
1002
{
1070
    41
1040
0.5
1070
    44
1040
1.0
1070
   147
1040
0.8
1070
   271
1070
     2
1070
   272
1070
     2
1070
   289
1070
     3
1070
   340
1005
F706
1070
   343
1005
164B4
1070
   344
1005
164B4
1002
}
  0
LINE
  5
18CD3
330
18C7A
100
AcDbEntity
  8
部品1
100
AcDbLine
 10
3437.970589276523
 20
1315.494269174465
 30
0.0
 11
3437.970589276523
 21
1392.494269174465
 31
0.0
  0
LINE
  5
18CD4
330
18C7A
100
AcDbEntity
  8
部品1
100
AcDbLine
 10
3398.970589276523
 20
1388.494269174465
 30
0.0
 11
3409.970589276524
 21
1388.494269174465
 31
0.0
  0
LINE
  5
18CD5
330
18C7A
100
AcDbEntity
  8
部品1
100
AcDbLine
 10
3407.970589276523
 20
1324.494269174465
 30
0.0
 11
3407.970589276523
 21
1315.494269174465
 31
0.0
  0
LINE
  5
18CD6
330
18C7A
100
AcDbEntity
  8
部品1
100
AcDbLine
 10
3398.970589276523
 20
1324.494269174465
 30
0.0
 11
3407.970589276523
 21
1324.494269174465
 31
0.0
  0
LINE
  5
18CD7
330
18C7A
100
AcDbEntity
  8
部品1
100
AcDbLine
 10
3398.970589276523
 20
1388.494269174465
 30
0.0
 11
3398.970589276523
 21
1324.494269174465
 31
0.0
  0
LINE
  5
18CD8
330
18C7A
100
AcDbEntity
  8
部品1
100
AcDbLine
 10
3409.970589276524
 20
1419.494269174465
 30
0.0
 11
3409.970589276524
 21
1388.494269174465
 31
0.0
  0
LINE
  5
18CD9
330
18C7A
100
AcDbEntity
  8
部品1
100
AcDbLine
 10
1322.970589276523
 20
1388.494269174465
 30
0.0
 11
1311.970589276523
 21
1388.494269174465
 31
0.0
  0
LINE
  5
18CDA
330
18C7A
100
AcDbEntity
  8
部品1
100
AcDbLine
 10
1283.970589276523
 20
1392.494269174465
 30
0.0
 11
1311.970589276523
 21
1392.494269174465
 31
0.0
  0
LINE
  5
18CDB
330
18C7A
100
AcDbEntity
  8
部品1
100
AcDbLine
 10
1313.970589276523
 20
1324.494269174465
 30
0.0
 11
1313.970589276523
 21
1315.494269174465
 31
0.0
  0
LINE
  5
18CDC
330
18C7A
100
AcDbEntity
  8
部品1
100
AcDbLine
 10
1322.970589276523
 20
1324.494269174465
 30
0.0
 11
1313.970589276523
 21
1324.494269174465
 31
0.0
  0
LINE
  5
18CDD
330
18C7A
100
AcDbEntity
  8
部品1
100
AcDbLine
 10
1313.970589276523
 20
1315.494269174465
 30
0.0
 11
1283.970589276523
 21
1315.494269174465
 31
0.0
  0
LINE
  5
18CDE
330
18C7A
100
AcDbEntity
  8
部品1
100
AcDbLine
 10
1283.970589276523
 20
1315.494269174465
 30
0.0
 11
1283.970589276523
 21
1392.494269174465
 31
0.0
  0
LINE
  5
18CDF
330
18C7A
100
AcDbEntity
  8
部品1
100
AcDbLine
 10
1322.970589276523
 20
1388.494269174465
 30
0.0
 11
1322.970589276523
 21
1324.494269174465
 31
0.0
  0
LINE
  5
18CE0
330
18C7A
100
AcDbEntity
  8
部品1
100
AcDbLine
 10
1311.970589276523
 20
1419.494269174462
 30
0.0
 11
1311.970589276523
 21
1388.494269174465
 31
0.0
  0
LINE
  5
18CE1
330
18C7A
100
AcDbEntity
  8
部品1
100
AcDbLine
 10
1311.970589276523
 20
1419.494269174462
 30
0.0
 11
3409.970589276524
 21
1419.494269174465
 31
0.0
  0
LINE
  5
18CE2
330
18C7A
100
AcDbEntity
  8
部品1
100
AcDbLine
 10
3407.970589276523
 20
1315.494269174465
 30
0.0
 11
3437.970589276523
 21
1315.494269174465
 31
0.0
  0
LINE
  5
18CE3
330
18C7A
100
AcDbEntity
  8
部品1
100
AcDbLine
 10
1313.970589276523
 20
1315.494269174465
 30
0.0
 11
3410.970589276523
 21
1315.494269174465
 31
0.0
  0
LINE
  5
18CE4
330
18C7A
100
AcDbEntity
  8
細線
  6
Continuous
 62
     5
100
AcDbLine
 10
2689.970589276527
 20
1354.494269174462
 30
0.0
 11
2689.970589276527
 21
1354.494269174462
 31
0.0
  0
LINE
  5
18CE5
330
18C7A
100
AcDbEntity
  8
細線
  6
Continuous
 62
     5
100
AcDbLine
 10
2682.470589276527
 20
1354.494269174462
 30
0.0
 11
2682.470589276527
 21
1354.494269174462
 31
0.0
  0
LINE
  5
18CE6
330
18C7A
100
AcDbEntity
  8
細線
  6
Continuous
 62
     5
100
AcDbLine
 10
2676.470589276527
 20
1354.494269174462
 30
0.0
 11
2676.470589276527
 21
1354.494269174462
 31
0.0
  0
LINE
  5
18CE7
330
18C7A
100
AcDbEntity
  8
細線
  6
Continuous
 62
     5
100
AcDbLine
 10
2743.970589276527
 20
1373.494269174462
 30
0.0
 11
2743.970589276527
 21
1373.494269174462
 31
0.0
  0
LINE
  5
18CE8
330
18C7A
100
AcDbEntity
  8
細線
 48
50.0
100
AcDbLine
 10
1336.970593930116
 20
1341.094443351418
 30
0.0
 11
1336.970593930113
 21
1349.490593759059
 31
0.0
  0
LINE
  5
18CE9
330
18C7A
100
AcDbEntity
  8
細線
 48
50.0
100
AcDbLine
 10
1336.970593930113
 20
1349.490593759059
 30
0.0
 11
1322.970589276523
 21
1349.490593759057
 31
0.0
  0
LINE
  5
18CEA
330
18C7A
100
AcDbEntity
  8
細線
 48
50.0
100
AcDbLine
 10
2087.970593930113
 20
1337.644443351419
 30
0.0
 11
2087.970593930113
 21
1342.494443351421
 31
0.0
  0
LINE
  5
18CEB
330
18C7A
100
AcDbEntity
  8
細線
 48
50.0
100
AcDbLine
 10
2087.970593930113
 20
1342.494443351421
 30
0.0
 11
2102.970593930113
 21
1342.494443351421
 31
0.0
  0
LINE
  5
18CEC
330
18C7A
100
AcDbEntity
  8
細線
 48
50.0
100
AcDbLine
 10
2102.970593930113
 20
1342.494443351421
 30
0.0
 11
2102.970593930115
 21
1349.494443351419
 31
0.0
  0
LINE
  5
18CED
330
18C7A
100
AcDbEntity
  8
細線
 48
50.0
100
AcDbLine
 10
2102.970593930115
 20
1349.494443351419
 30
0.0
 11
2117.970593930113
 21
1349.494443351419
 31
0.0
  0
LINE
  5
18CEE
330
18C7A
100
AcDbEntity
  8
細線
 48
50.0
100
AcDbLine
 10
2117.970593930113
 20
1349.494443351419
 30
0.0
 11
2117.970593930113
 21
1320.494443351421
 31
0.0
  0
LINE
  5
18CEF
330
18C7A
100
AcDbEntity
  8
細線
 48
50.0
100
AcDbLine
 10
1313.970589276523
 20
1320.491777694889
 30
0.0
 11
1527.970593930113
 21
1320.494460905133
 31
0.0
  0
LINE
  5
18CF0
330
18C7A
100
AcDbEntity
  8
細線
 48
50.0
100
AcDbLine
 10
2017.970593930113
 20
1320.494443351421
 30
0.0
 11
2117.970593930113
 21
1320.494443351421
 31
0.0
  0
LINE
  5
18CF1
330
18C7A
100
AcDbEntity
  8
細線
 48
50.0
100
AcDbLine
 10
1737.970593930113
 20
1320.494443351419
 30
0.0
 11
1807.970593930113
 21
1320.494443351423
 31
0.0
  0
LINE
  5
18CF2
330
18C7A
100
AcDbEntity
  8
細線
 48
50.0
100
AcDbLine
 10
1750.832558942642
 20
1320.494443351419
 30
0.0
 11
1756.588076525309
 21
1338.765294641913
 31
0.0
  0
LINE
  5
18CF3
330
18C7A
100
AcDbEntity
  8
細線
 48
50.0
100
AcDbLine
 10
1756.588076525309
 20
1338.765294641913
 30
0.0
 11
1767.516525005743
 21
1338.765294641911
 31
0.0
  0
ARC
  5
18CF4
330
18C7A
100
AcDbEntity
  8
細線
 48
50.0
100
AcDbCircle
 10
1767.516525005743
 20
1337.765294641911
 30
0.0
 40
1.0
100
AcDbArc
 50
24.62431835207225
 51
90.0
  0
ARC
  5
18CF5
330
18C7A
100
AcDbEntity
  8
細線
 48
50.0
100
AcDbCircle
 10
1778.425237120377
 20
1337.765294641911
 30
0.0
 40
1.0
100
AcDbArc
 50
90.0
 51
155.3756816479277
  0
ARC
  5
18CF6
330
18C7A
100
AcDbEntity
  8
細線
 48
50.0
100
AcDbCircle
 10
1772.970881063058
 20
1340.265294641911
 30
0.0
 40
5.0
100
AcDbArc
 50
204.6243183520723
 51
335.3756816479278
  0
LINE
  5
18CF7
330
18C7A
100
AcDbEntity
  8
細線
 48
50.0
100
AcDbLine
 10
1778.425237120377
 20
1338.765294641911
 30
0.0
 11
1789.35368560081
 21
1338.765294641913
 31
0.0
  0
LINE
  5
18CF8
330
18C7A
100
AcDbEntity
  8
細線
 48
50.0
100
AcDbLine
 10
1789.35368560081
 20
1338.765294641913
 30
0.0
 11
1795.109203183478
 21
1320.494443351423
 31
0.0
  0
LINE
  5
18CF9
330
18C7A
100
AcDbEntity
  8
細線
 48
50.0
100
AcDbLine
 10
2087.970593930113
 20
1341.094443351419
 30
0.0
 11
1336.970593930116
 21
1341.094443351418
 31
0.0
  0
LINE
  5
18CFA
330
18C7A
100
AcDbEntity
  8
細線
 48
50.0
100
AcDbLine
 10
1947.970593930113
 20
1320.494443351421
 30
0.0
 11
1877.970593930113
 21
1320.494443351421
 31
0.0
  0
LINE
  5
18CFB
330
18C7A
100
AcDbEntity
  8
細線
100
AcDbLine
 10
1667.970593930113
 20
1320.494443351421
 30
0.0
 11
1597.970602115529
 21
1320.494443351421
 31
0.0
  0
LINE
  5
18CFC
330
18C7A
100
AcDbEntity
  8
細線
 48
50.0
100
AcDbLine
 10
2741.970584622936
 20
1375.094487209288
 30
0.0
 11
2106.970593930113
 21
1375.094487209284
 31
0.0
  0
LINE
  5
18CFD
330
18C7A
100
AcDbEntity
  8
細線
 48
50.0
100
AcDbLine
 10
2106.970593930113
 20
1371.990637616925
 30
0.0
 11
2106.970593930113
 21
1376.490637616925
 31
0.0
  0
LINE
  5
18CFE
330
18C7A
100
AcDbEntity
  8
細線
 48
50.0
100
AcDbLine
 10
2106.970593930113
 20
1376.490637616925
 30
0.0
 11
2091.970593930113
 21
1376.490637616925
 31
0.0
  0
LINE
  5
18CFF
330
18C7A
100
AcDbEntity
  8
細線
 48
50.0
100
AcDbLine
 10
2091.970593930113
 20
1376.490637616925
 30
0.0
 11
2091.970593930113
 21
1383.490637616927
 31
0.0
  0
LINE
  5
18D00
330
18C7A
100
AcDbEntity
  8
細線
 48
50.0
100
AcDbLine
 10
2091.970593930113
 20
1383.490637616927
 30
0.0
 11
2076.970593930115
 21
1383.490637616924
 31
0.0
  0
LINE
  5
18D01
330
18C7A
100
AcDbEntity
  8
細線
 48
50.0
100
AcDbLine
 10
2076.970593930115
 20
1383.490637616924
 30
0.0
 11
2076.970593930115
 21
1345.890409513813
 31
0.0
  0
LINE
  5
18D02
330
18C7A
100
AcDbEntity
  8
細線
 48
50.0
100
AcDbLine
 10
2076.970593930115
 20
1345.890409513813
 30
0.0
 11
2096.970601231289
 21
1345.890451063353
 31
0.0
  0
LINE
  5
18D03
330
18C7A
100
AcDbEntity
  8
細線
 48
50.0
100
AcDbLine
 10
2096.970556362348
 20
1354.493912699161
 30
0.0
 11
2096.970601231289
 21
1345.890451063353
 31
0.0
  0
LINE
  5
18D04
330
18C7A
100
AcDbEntity
  8
細線
 48
50.0
100
AcDbLine
 10
2741.970584622936
 20
1371.644487209287
 30
0.0
 11
2741.970584622936
 21
1376.494487209284
 31
0.0
  0
LINE
  5
18D05
330
18C7A
100
AcDbEntity
  8
細線
 48
50.0
100
AcDbLine
 10
2741.970584622936
 20
1376.494487209284
 30
0.0
 11
2756.970584622934
 21
1376.494487209285
 31
0.0
  0
LINE
  5
18D06
330
18C7A
100
AcDbEntity
  8
細線
 48
50.0
100
AcDbLine
 10
2756.970584622934
 20
1376.494487209285
 30
0.0
 11
2756.970596256909
 21
1383.494487209331
 31
0.0
  0
LINE
  5
18D07
330
18C7A
100
AcDbEntity
  8
細線
 48
50.0
100
AcDbLine
 10
2756.970596256909
 20
1383.494487209331
 30
0.0
 11
2771.970594427439
 21
1383.494487209329
 31
0.0
  0
LINE
  5
18D08
330
18C7A
100
AcDbEntity
  8
細線
 48
50.0
100
AcDbLine
 10
2771.970594427439
 20
1383.494487209329
 30
0.0
 11
2771.970584125617
 21
1354.494281037055
 31
0.0
  0
LINE
  5
18D09
330
18C7A
100
AcDbEntity
  8
細線
 48
50.0
100
AcDbLine
 10
2458.070304175992
 20
1354.494278397076
 30
0.0
 11
2389.470863838818
 21
1354.494283787084
 31
0.0
  0
LINE
  5
18D0A
330
18C7A
100
AcDbEntity
  8
細線
 48
50.0
100
AcDbLine
 10
2096.970556362348
 20
1354.493912699161
 30
0.0
 11
2108.203245717057
 21
1354.494095652309
 31
0.0
  0
ARC
  5
18D0B
330
18C7A
100
AcDbEntity
  8
細線
 48
50.0
100
AcDbCircle
 10
2114.785538024393
 20
1353.294259565922
 30
0.0
 40
1.8
100
AcDbArc
 50
270.0006665777295
 51
345.000555481349
  0
LINE
  5
18D0C
330
18C7A
100
AcDbEntity
  8
細線
 48
50.0
100
AcDbLine
 10
2116.771971470473
 20
1353.753100023201
 30
0.0
 11
2116.524209028273
 21
1352.828402141094
 31
0.0
  0
LINE
  5
18D0D
330
18C7A
100
AcDbEntity
  8
細線
 48
50.0
100
AcDbLine
 10
2114.785558965548
 20
1351.494259566043
 30
0.0
 11
2111.155631546781
 21
1351.494217335563
 31
0.0
  0
ARC
  5
18D0E
330
18C7A
100
AcDbEntity
  8
細線
 48
50.0
100
AcDbCircle
 10
2111.155610605627
 20
1353.29421733544
 30
0.0
 40
1.8
100
AcDbArc
 50
195.0010443049965
 51
270.0006665777295
  0
LINE
  5
18D0F
330
18C7A
100
AcDbEntity
  8
細線
 48
50.0
100
AcDbLine
 10
2109.169183113368
 20
1353.752932303007
 30
0.0
 11
2109.416952609882
 21
1352.828311364425
 31
0.0
  0
ARC
  5
18D10
330
18C7A
100
AcDbEntity
  8
細線
 48
50.0
100
AcDbCircle
 10
2108.203262004622
 20
1353.494095652444
 30
0.0
 40
1.0
100
AcDbArc
 50
15.00104430499651
 51
90.00093320877969
  0
LINE
  5
18D11
330
18C7A
100
AcDbEntity
  8
細線
 48
50.0
100
AcDbLine
 10
2117.737892825577
 20
1354.494290342714
 30
0.0
 11
2118.679652976481
 21
1354.494296916564
 31
0.0
  0
ARC
  5
18D12
330
18C7A
100
AcDbEntity
  8
細線
 48
50.0
100
AcDbCircle
 10
2117.737899805961
 20
1353.49429034274
 30
0.0
 40
1.0
100
AcDbArc
 50
90.0003999466794
 51
165.000555481349
  0
LINE
  5
18D13
330
18C7A
100
AcDbEntity
  8
細線
 48
50.0
100
AcDbLine
 10
2669.470584622926
 20
1354.494281037055
 30
0.0
 11
2771.970584125617
 21
1354.494281037055
 31
0.0
  0
LINE
  5
18D14
330
18C7A
100
AcDbEntity
  8
細線
 48
50.0
100
AcDbLine
 10
2179.47061994182
 20
1354.494289224422
 30
0.0
 11
2118.370558714898
 21
1354.494296916564
 31
0.0
  0
LINE
  5
18D15
330
18C7A
100
AcDbEntity
  8
細線
 48
50.0
100
AcDbLine
 10
2599.470584622926
 20
1354.494281037057
 30
0.0
 11
2529.470584622926
 21
1354.494281037055
 31
0.0
  0
LINE
  5
18D16
330
18C7A
100
AcDbEntity
  8
細線
 48
50.0
100
AcDbLine
 10
2319.470584622926
 20
1354.494281037054
 30
0.0
 11
2249.470567335051
 21
1354.494281037057
 31
0.0
  0
ARC
  5
18D17
330
18C7A
100
AcDbEntity
  8
細線
 48
50.0
100
AcDbCircle
 10
2756.170589276533
 20
1387.694269174466
 30
0.0
 40
0.8
100
AcDbArc
 50
359.9997333689499
 51
89.99986668437072
  0
ARC
  5
18D18
330
18C7A
100
AcDbEntity
  8
細線
 48
50.0
100
AcDbCircle
 10
2763.770596101631
 20
1387.694280343081
 30
0.0
 40
0.8
100
AcDbArc
 50
90.00014387753465
 51
179.9997333689498
  0
LINE
  5
18D19
330
18C7A
100
AcDbEntity
  8
細線
 48
50.0
100
AcDbLine
 10
2756.170591137969
 20
1388.494269174465
 30
0.0
 11
2750.970589276525
 21
1388.494269174465
 31
0.0
  0
ARC
  5
18D1A
330
18C7A
100
AcDbEntity
  8
細線
 48
50.0
100
AcDbCircle
 10
2757.670589276524
 20
1386.194269174464
 30
0.0
 40
0.7
100
AcDbArc
 50
180.0
 51
270.0
  0
ARC
  5
18D1B
330
18C7A
100
AcDbEntity
  8
細線
 48
50.0
100
AcDbCircle
 10
2762.270589276524
 20
1386.194269174464
 30
0.0
 40
0.7
100
AcDbArc
 50
270.0
 51
0.0
  0
LINE
  5
18D1C
330
18C7A
100
AcDbEntity
  8
細線
 48
50.0
100
AcDbLine
 10
2762.970589276525
 20
1386.194269174464
 30
0.0
 11
2762.970596101639
 21
1387.694284065954
 31
0.0
  0
LINE
  5
18D1D
330
18C7A
100
AcDbEntity
  8
細線
 48
50.0
100
AcDbLine
 10
2757.670589276524
 20
1385.494269174465
 30
0.0
 11
2762.270589276524
 21
1385.494269174465
 31
0.0
  0
LINE
  5
18D1E
330
18C7A
100
AcDbEntity
  8
細線
 48
50.0
100
AcDbLine
 10
2756.970589276525
 20
1387.694269174466
 30
0.0
 11
2756.970589276525
 21
1386.194269174464
 31
0.0
  0
LINE
  5
18D1F
330
18C7A
100
AcDbEntity
  8
細線
 48
50.0
100
AcDbLine
 10
3382.570589276527
 20
1418.494269174465
 30
0.0
 11
2745.970589276525
 21
1418.494269174463
 31
0.0
  0
LINE
  5
18D20
330
18C7A
100
AcDbEntity
  8
細線
 48
50.0
100
AcDbLine
 10
3408.470589276525
 20
1413.494269174467
 30
0.0
 11
3392.570589276527
 21
1413.494269174465
 31
0.0
  0
LINE
  5
18D21
330
18C7A
100
AcDbEntity
  8
細線
 48
50.0
100
AcDbLine
 10
3392.570589276526
 20
1413.494269174465
 30
0.0
 11
3382.570589276527
 21
1418.494269174465
 31
0.0
  0
LINE
  5
18D22
330
18C7A
100
AcDbEntity
  8
細線
100
AcDbLine
 10
2993.470589276525
 20
1388.494269174465
 30
0.0
 11
2993.470589276525
 21
1417.794269174464
 31
0.0
  0
LINE
  5
18D23
330
18C7A
100
AcDbEntity
  8
細線
100
AcDbLine
 10
2993.470589276525
 20
1417.794269174464
 30
0.0
 11
3013.470589276525
 21
1417.794269174464
 31
0.0
  0
LINE
  5
18D24
330
18C7A
100
AcDbEntity
  8
細線
100
AcDbLine
 10
3013.470589276525
 20
1388.494269174465
 30
0.0
 11
3013.470589276525
 21
1417.794269174464
 31
0.0
  0
LINE
  5
18D25
330
18C7A
100
AcDbEntity
  8
細線
100
AcDbLine
 10
3170.720589276524
 20
1388.494269174465
 30
0.0
 11
3100.720589276523
 21
1388.494269174465
 31
0.0
  0
LINE
  5
18D26
330
18C7A
100
AcDbEntity
  8
細線
 48
50.0
100
AcDbLine
 10
2890.720589276525
 20
1388.494269174465
 30
0.0
 11
2763.766368849365
 21
1388.494269174465
 31
0.0
  0
LINE
  5
18D27
330
18C7A
100
AcDbEntity
  8
細線
100
AcDbLine
 10
3030.720589276525
 20
1388.494269174465
 30
0.0
 11
2960.720589276525
 21
1388.494269174465
 31
0.0
  0
LINE
  5
18D28
330
18C7A
100
AcDbEntity
  8
細線
 48
50.0
100
AcDbLine
 10
2750.970589276525
 20
1380.494269174465
 30
0.0
 11
2750.970589276525
 21
1388.494269174465
 31
0.0
  0
LINE
  5
18D29
330
18C7A
100
AcDbEntity
  8
細線
 48
50.0
100
AcDbLine
 10
2730.970589276524
 20
1380.494269174467
 30
0.0
 11
2750.970589276525
 21
1380.494269174465
 31
0.0
  0
LINE
  5
18D2A
330
18C7A
100
AcDbEntity
  8
細線
 48
50.0
100
AcDbLine
 10
2745.970589276525
 20
1418.494269174465
 30
0.0
 11
2745.970589276525
 21
1413.494269174465
 31
0.0
  0
LINE
  5
18D2B
330
18C7A
100
AcDbEntity
  8
細線
 48
50.0
100
AcDbLine
 10
2730.970589276525
 20
1418.494269174463
 30
0.0
 11
2745.970589276525
 21
1418.494269174465
 31
0.0
  0
LINE
  5
18D2C
330
18C7A
100
AcDbEntity
  8
細線
 48
50.0
100
AcDbLine
 10
2730.970589276524
 20
1380.494269174467
 30
0.0
 11
2730.970589276525
 21
1418.494269174463
 31
0.0
  0
LINE
  5
18D2D
330
18C7A
100
AcDbEntity
  8
細線
100
AcDbLine
 10
3398.970589276523
 20
1388.494269174465
 30
0.0
 11
3240.720589276525
 21
1388.494269174465
 31
0.0
  0
LINE
  5
18D2E
330
18C7A
100
AcDbEntity
  8
細線
 48
50.0
100
AcDbLine
 10
3408.470589276525
 20
1413.494269174467
 30
0.0
 11
3408.470589276524
 21
1388.494269174465
 31
0.0
  0
TEXT
  5
18D2F
330
18C7A
100
AcDbEntity
  8
部品1
100
AcDbText
 10
1860.154865991392
 20
46.99880823813145
 30
0.0
 40
135.0
  1
平面図
  7
STYLE2
100
AcDbText
  0
LWPOLYLINE
  5
18D30
330
18C7A
100
AcDbEntity
  8
部品1
100
AcDbPolyline
 90
        4
 70
     1
 43
0.0
 10
1770.23525616235
 20
239.8923374566548
 10
1770.23525616235
 20
0.0000159111223184
 10
2533.705922390791
 20
0.0000159111223184
 10
2533.705922390791
 20
239.8923374566548
  0
LINE
  5
18D31
330
18C7A
100
AcDbEntity
  8
部品1
100
AcDbLine
 10
1534.470589276487
 20
3154.494269174626
 30
0.0
 11
2769.470589276552
 21
3154.494269174626
 31
0.0
  0
LINE
  5
18D32
330
18C7A
100
AcDbEntity
  8
部品1
 48
50.0
100
AcDbLine
 10
1311.970589276523
 20
1420.494269174462
 30
0.0
 11
3411.970589276523
 21
1420.494269174465
 31
0.0
  0
LINE
  5
18D33
330
18C7A
100
AcDbEntity
  8
部品1
 48
50.0
100
AcDbLine
 10
471.9705892765232
 20
1392.494269174465
 30
0.0
 11
1311.970589276523
 21
1392.494269174465
 31
0.0
  0
DIMENSION
  5
18D34
330
18C7A
100
AcDbEntity
  8
寸法
100
AcDbDimension
  2
*D14
 10
2710.234916278077
 20
2488.887829538828
 30
0.0
 11
2338.318822490183
 21
2488.887829538828
 31
0.0
 12
-3742.925985830444
 22
-6453.628869860112
 32
0.0
 70
   128
 71
     5
 42
1231.00000000007
  3
INABA_S40G
100
AcDbAlignedDimension
 13
1536.470589276486
 23
2702.494269174557
 33
0.0
 14
2767.470589276556
 24
2702.494269174549
 34
0.0
100
AcDbRotatedDimension
1001
ACAD
1000
DSTYLE
1002
{
1002
}
  0
LINE
  5
18D35
330
18C7A
100
AcDbEntity
  8
部品1
100
AcDbLine
 10
1536.470589276487
 20
2702.494269174557
 30
0.0
 11
2767.470589276554
 21
2702.494269174615
 31
0.0
  0
LINE
  5
18D36
330
18C7A
100
AcDbEntity
  8
部品1
100
AcDbLine
 10
1536.470589276487
 20
3152.494269174557
 30
0.0
 11
2767.470589276556
 21
3152.494269174615
 31
0.0
  0
LINE
  5
18D37
330
18C7A
100
AcDbEntity
  8
細線
 48
50.0
100
AcDbLine
 10
1508.470589276487
 20
3152.494269174558
 30
0.0
 11
445.4705892765559
 21
2702.494269174509
 31
0.0
  0
LINE
  5
18D38
330
18C7A
100
AcDbEntity
  8
細線
 48
50.0
100
AcDbLine
 10
1508.470589276487
 20
2702.494269174558
 30
0.0
 11
445.4705892765542
 21
3152.494269174509
 31
0.0
  0
LINE
  5
18D39
330
18C7A
100
AcDbEntity
  8
部品1
100
AcDbLine
 10
1556.970589276487
 20
3172.494269174611
 30
0.0
 11
1556.970589276487
 21
3154.494269174611
 31
0.0
  0
LINE
  5
18D3A
330
18C7A
100
AcDbEntity
  8
部品1
100
AcDbLine
 10
1556.970589276487
 20
3172.494269174611
 30
0.0
 11
1550.970589276487
 21
3172.494269174611
 31
0.0
  0
LINE
  5
18D3B
330
18C7A
100
AcDbEntity
  8
部品1
100
AcDbLine
 10
1534.470589276487
 20
3146.494269174608
 30
0.0
 11
1509.470589276487
 21
3146.494269174611
 31
0.0
  0
LINE
  5
18D3C
330
18C7A
100
AcDbEntity
  8
部品1
100
AcDbLine
 10
1486.970589276487
 20
3172.494269174611
 30
0.0
 11
1486.970589276487
 21
3154.494269174611
 31
0.0
  0
LINE
  5
18D3D
330
18C7A
100
AcDbEntity
  8
部品1
100
AcDbLine
 10
1492.970589276487
 20
3172.494269174611
 30
0.0
 11
1486.970589276487
 21
3172.494269174611
 31
0.0
  0
LINE
  5
18D3E
330
18C7A
100
AcDbEntity
  8
部品1
100
AcDbLine
 10
1534.470589276487
 20
2702.494269174615
 30
0.0
 11
1509.470589276487
 21
2702.494269174615
 31
0.0
  0
LINE
  5
18D3F
330
18C7A
100
AcDbEntity
  8
部品1
 48
50.0
100
AcDbLine
 10
1536.470589276487
 20
3152.494269174611
 30
0.0
 11
1536.470589276487
 21
2702.494269174615
 31
0.0
  0
LINE
  5
18D40
330
18C7A
100
AcDbEntity
  8
部品1
 48
50.0
100
AcDbLine
 10
1508.470589276487
 20
3152.494269174607
 30
0.0
 11
1508.470589276487
 21
2702.494269174615
 31
0.0
  0
LINE
  5
18D41
330
18C7A
100
AcDbEntity
  8
部品1
 48
50.0
100
AcDbLine
 10
1534.470589276487
 20
3154.494269174618
 30
0.0
 11
1534.470589276487
 21
2702.494269174615
 31
0.0
  0
LINE
  5
18D42
330
18C7A
100
AcDbEntity
  8
部品1
 48
50.0
100
AcDbLine
 10
1509.470589276487
 20
3154.494269174615
 30
0.0
 11
1509.470589276487
 21
2702.494269174615
 31
0.0
  0
LINE
  5
18D43
330
18C7A
100
AcDbEntity
  8
部品1
100
AcDbLine
 10
3411.970589276556
 20
1392.494269174582
 30
0.0
 11
3411.970589276556
 21
1420.494269174596
 31
0.0
  0
LINE
  5
18D44
330
18C7A
100
AcDbEntity
  8
部品1
100
AcDbLine
 10
1311.970589276523
 20
1392.494269174596
 30
0.0
 11
1311.970589276523
 21
1420.494269174596
 31
0.0
  0
LINE
  5
18D45
330
18C7A
100
AcDbEntity
  8
部品1
100
AcDbLine
 10
891.9705892765232
 20
1392.494269174596
 30
0.0
 11
891.9705892765232
 21
1420.494269174596
 31
0.0
  0
LINE
  5
18D46
330
18C7A
100
AcDbEntity
  8
部品1
100
AcDbLine
 10
3411.97058927652
 20
3182.494269174477
 30
0.0
 11
3411.970589276523
 21
3154.494269174477
 31
0.0
  0
LINE
  5
18D47
330
18C7A
100
AcDbEntity
  8
部品1
100
AcDbLine
 10
2571.97058927652
 20
3182.494269174477
 30
0.0
 11
2571.970589276523
 21
3154.494269174477
 31
0.0
  0
LINE
  5
18D48
330
18C7A
100
AcDbEntity
  8
部品1
100
AcDbLine
 10
2991.97058927652
 20
3182.494269174477
 30
0.0
 11
2991.970589276523
 21
3154.494269174477
 31
0.0
  0
LINE
  5
18D49
330
18C7A
100
AcDbEntity
  8
部品1
100
AcDbLine
 10
2151.970589276519
 20
3182.494269174477
 30
0.0
 11
2151.970589276523
 21
3154.494269174477
 31
0.0
  0
LINE
  5
18D4A
330
18C7A
100
AcDbEntity
  8
部品1
100
AcDbLine
 10
1731.970589276519
 20
3182.494269174477
 30
0.0
 11
1731.970589276523
 21
3154.494269174477
 31
0.0
  0
LINE
  5
18D4B
330
18C7A
100
AcDbEntity
  8
部品1
100
AcDbLine
 10
1311.970589276519
 20
3182.494269174477
 30
0.0
 11
1311.970589276523
 21
3154.494269174477
 31
0.0
  0
LINE
  5
18D4C
330
18C7A
100
AcDbEntity
  8
部品1
100
AcDbLine
 10
891.9705892765195
 20
3182.494269174477
 30
0.0
 11
891.9705892765232
 21
3154.494269174477
 31
0.0
  0
LINE
  5
18D4D
330
18C7A
100
AcDbEntity
  8
部品1
100
AcDbLine
 10
471.9705892765232
 20
1392.494269174596
 30
0.0
 11
471.9705892765232
 21
1420.494269174596
 31
0.0
  0
LINE
  5
18D4E
330
18C7A
100
AcDbEntity
  8
部品1
100
AcDbLine
 10
444.9705892765305
 20
1420.494269174558
 30
0.0
 11
3858.970589276556
 21
1420.494269174596
 31
0.0
  0
LINE
  5
18D4F
330
18C7A
100
AcDbEntity
  8
部品1
100
AcDbLine
 10
3831.970589276556
 20
1392.494269174596
 30
0.0
 11
3831.970589276556
 21
1420.494269174596
 31
0.0
  0
LINE
  5
18D50
330
18C7A
100
AcDbEntity
  8
部品1
100
AcDbLine
 10
3858.970589276556
 20
1447.494269174593
 30
0.0
 11
3886.970589276556
 21
1447.494269174593
 31
0.0
  0
LINE
  5
18D51
330
18C7A
100
AcDbEntity
  8
部品1
100
AcDbLine
 10
3858.970589276556
 20
1867.494269174607
 30
0.0
 11
3886.970589276556
 21
1867.494269174607
 31
0.0
  0
LINE
  5
18D52
330
18C7A
100
AcDbEntity
  8
部品1
100
AcDbLine
 10
444.9705892765305
 20
1867.49426917448
 30
0.0
 11
416.9705892765305
 21
1867.49426917448
 31
0.0
  0
LINE
  5
18D53
330
18C7A
100
AcDbEntity
  8
部品1
100
AcDbLine
 10
3830.470589276541
 20
1867.49426917458
 30
0.0
 11
473.4705892765396
 21
1867.49426917448
 31
0.0
  0
LINE
  5
18D54
330
18C7A
100
AcDbEntity
  8
部品1
100
AcDbLine
 10
3830.470589276541
 20
2287.49426917458
 30
0.0
 11
473.4705892765396
 21
2287.49426917448
 31
0.0
  0
LINE
  5
18D55
330
18C7A
100
AcDbEntity
  8
部品1
100
AcDbLine
 10
444.9705892765305
 20
2287.49426917448
 30
0.0
 11
416.9705892765305
 21
2287.49426917448
 31
0.0
  0
LINE
  5
18D56
330
18C7A
100
AcDbEntity
  8
部品1
100
AcDbLine
 10
3858.970589276556
 20
2287.494269174608
 30
0.0
 11
3886.970589276556
 21
2287.494269174608
 31
0.0
  0
LINE
  5
18D57
330
18C7A
100
AcDbEntity
  8
部品1
 48
50.0
100
AcDbLine
 10
2151.970589276551
 20
2702.494269174586
 30
0.0
 11
2151.970589276581
 21
1448.994269174494
 31
0.0
  0
LINE
  5
18D58
330
18C7A
100
AcDbEntity
  8
破線
 48
10.0
100
AcDbLine
 10
2959.470589276535
 20
1472.494269174522
 30
0.0
 11
2176.970589276532
 21
1472.494269174505
 31
0.0
  0
LINE
  5
18D59
330
18C7A
100
AcDbEntity
  8
破線
 48
10.0
100
AcDbLine
 10
3009.47058927653
 20
1448.994269174509
 30
0.0
 11
3009.47058927653
 21
2702.494269174615
 31
0.0
  0
LINE
  5
18D5A
330
18C7A
100
AcDbEntity
  8
破線
 48
10.0
100
AcDbLine
 10
2959.470589276535
 20
1448.994269174505
 30
0.0
 11
2959.470589276531
 21
2702.494269174615
 31
0.0
  0
LINE
  5
18D5B
330
18C7A
100
AcDbEntity
  8
破線
 48
10.0
100
AcDbLine
 10
1344.47058927653
 20
1448.994269174509
 30
0.0
 11
1344.47058927653
 21
2702.494269174615
 31
0.0
  0
LINE
  5
18D5C
330
18C7A
100
AcDbEntity
  8
破線
 48
10.0
100
AcDbLine
 10
1294.470589276534
 20
1448.994269174505
 30
0.0
 11
1294.47058927653
 21
2702.494269174615
 31
0.0
  0
DIMENSION
  5
18D5D
330
18C7A
100
AcDbEntity
  8
寸法
100
AcDbDimension
  2
*D13
 10
1451.234916278005
 20
2488.887829538828
 30
0.0
 11
916.0604668248634
 21
2488.887829538828
 31
0.0
 12
-3742.925985830444
 22
-6453.628869860112
 32
0.0
 70
   128
 71
     5
 42
1062.99999999993
  3
INABA_S40G
100
AcDbAlignedDimension
 13
445.4705892765559
 23
2702.494269174505
 33
0.0
 14
1508.470589276486
 24
2702.494269174558
 34
0.0
100
AcDbRotatedDimension
1001
ACAD
1000
DSTYLE
1002
{
1002
}
  0
LINE
  5
18D5E
330
18C7A
100
AcDbEntity
  8
破線
 48
10.0
100
AcDbLine
 10
1294.470589276534
 20
1472.494269174469
 30
0.0
 11
496.9705892765414
 21
1472.494269174476
 31
0.0
  0
LINE
  5
18D5F
330
18C7A
100
AcDbEntity
  8
部品1
100
AcDbLine
 10
3831.970589276556
 20
3182.494269174604
 30
0.0
 11
3831.970589276556
 21
3154.494269174604
 31
0.0
  0
LINE
  5
18D60
330
18C7A
100
AcDbEntity
  8
部品1
100
AcDbLine
 10
3831.970589276556
 20
3182.494269174626
 30
0.0
 11
3831.970589276556
 21
3154.494269174626
 31
0.0
  0
LINE
  5
18D61
330
18C7A
100
AcDbEntity
  8
部品1
100
AcDbLine
 10
3858.970589276556
 20
3127.494269174607
 30
0.0
 11
3886.970589276556
 21
3127.494269174607
 31
0.0
  0
LINE
  5
18D62
330
18C7A
100
AcDbEntity
  8
部品1
100
AcDbLine
 10
3858.970589276556
 20
2707.494269174608
 30
0.0
 11
3886.970589276556
 21
2707.494269174608
 31
0.0
  0
LINE
  5
18D63
330
18C7A
100
AcDbEntity
  8
部品1
100
AcDbLine
 10
3858.470589276556
 20
3152.494269174604
 30
0.0
 11
3858.470589276556
 21
2702.494269174608
 31
0.0
  0
LINE
  5
18D64
330
18C7A
100
AcDbEntity
  8
部品1
100
AcDbLine
 10
3886.970589276533
 20
1447.494269174593
 30
0.0
 11
3886.970589276531
 21
1392.494269174596
 31
0.0
  0
LINE
  5
18D65
330
18C7A
100
AcDbEntity
  8
部品1
 48
50.0
100
AcDbLine
 10
3830.470589276556
 20
1448.994269174596
 30
0.0
 11
3858.970589276554
 21
1420.494269174596
 31
0.0
  0
LINE
  5
18D66
330
18C7A
100
AcDbEntity
  8
部品1
100
AcDbLine
 10
3886.970589276531
 20
1392.494269174596
 30
0.0
 11
3835.970589276531
 21
1392.494269174596
 31
0.0
  0
LINE
  5
18D67
330
18C7A
100
AcDbEntity
  8
部品1
100
AcDbLine
 10
3858.970589276533
 20
1447.494269174593
 30
0.0
 11
3886.970589276531
 21
1447.494269174593
 31
0.0
  0
LINE
  5
18D68
330
18C7A
100
AcDbEntity
  8
部品1
100
AcDbLine
 10
3886.970589276556
 20
3182.494269174604
 30
0.0
 11
3886.970589276531
 21
1392.494269174596
 31
0.0
  0
DIMENSION
  5
18D69
330
18C7A
100
AcDbEntity
  8
寸法
100
AcDbDimension
  2
*D12
 10
4534.396935010967
 20
1447.494269174593
 30
0.0
 11
4534.396935010965
 21
2287.4942691746
 31
0.0
 12
-3742.925985830444
 22
-6453.628869860112
 32
0.0
 70
   128
  1
4X420=<>
 71
     5
 42
1680.000000000014
  3
INABA_S40G
100
AcDbAlignedDimension
 13
3886.970589276556
 23
3127.494269174607
 33
0.0
 14
3886.970589276531
 24
1447.494269174593
 34
0.0
 50
90.0
100
AcDbRotatedDimension
1001
ACAD
1000
DSTYLE
1002
{
1002
}
  0
LINE
  5
18D6A
330
18C7A
100
AcDbEntity
  8
部品1
100
AcDbLine
 10
3858.970589276556
 20
3154.494269174604
 30
0.0
 11
3858.970589276534
 21
1420.494269174596
 31
0.0
  0
DIMENSION
  5
18D6B
330
18C7A
100
AcDbEntity
  8
寸法
100
AcDbDimension
  2
*D11
 10
4213.82831513858
 20
2607.276453505718
 30
0.0
 11
4113.828315138579
 21
2832.276453505718
 31
0.0
 12
-3742.925985830444
 22
-6453.628869860112
 32
0.0
 71
     5
 42
449.9999999999963
  3
INABA_S40G
100
AcDbAlignedDimension
 13
3858.470589276556
 23
3152.494269174604
 33
0.0
 14
3858.470589276556
 24
2702.494269174608
 34
0.0
 50
90.0
100
AcDbRotatedDimension
1001
ACAD
1000
DSTYLE
1002
{
1002
}
  0
LINE
  5
18D6C
330
18C7A
100
AcDbEntity
  8
部品1
100
AcDbLine
 10
3830.470589276547
 20
2702.494269174608
 30
0.0
 11
3830.470589276556
 21
1448.994269174596
 31
0.0
  0
LINE
  5
18D6D
330
18C7A
100
AcDbEntity
  8
破線
 48
10.0
100
AcDbLine
 10
3806.970589276549
 20
2702.494269174608
 30
0.0
 11
3806.970589276558
 21
1472.494269174593
 31
0.0
  0
LINE
  5
18D6E
330
18C7A
100
AcDbEntity
  8
部品1
100
AcDbLine
 10
2769.470589276556
 20
3146.494269174608
 30
0.0
 11
2794.470589276556
 21
3146.494269174611
 31
0.0
  0
LINE
  5
18D6F
330
18C7A
100
AcDbEntity
  8
部品1
100
AcDbLine
 10
2810.970589276556
 20
3172.494269174611
 30
0.0
 11
2816.970589276556
 21
3172.494269174611
 31
0.0
  0
LINE
  5
18D70
330
18C7A
100
AcDbEntity
  8
部品1
100
AcDbLine
 10
2816.970589276556
 20
3172.494269174611
 30
0.0
 11
2816.970589276556
 21
3154.494269174611
 31
0.0
  0
LINE
  5
18D71
330
18C7A
100
AcDbEntity
  8
部品1
100
AcDbLine
 10
2746.970589276556
 20
3172.494269174611
 30
0.0
 11
2752.970589276556
 21
3172.494269174611
 31
0.0
  0
LINE
  5
18D72
330
18C7A
100
AcDbEntity
  8
部品1
100
AcDbLine
 10
2746.970589276556
 20
3172.494269174611
 30
0.0
 11
2746.970589276556
 21
3154.494269174611
 31
0.0
  0
LINE
  5
18D73
330
18C7A
100
AcDbEntity
  8
部品1
100
AcDbLine
 10
2769.470589276556
 20
2702.494269174615
 30
0.0
 11
2794.470589276556
 21
2702.494269174615
 31
0.0
  0
LINE
  5
18D74
330
18C7A
100
AcDbEntity
  8
部品1
 48
50.0
100
AcDbLine
 10
2794.470589276556
 20
3154.494269174615
 30
0.0
 11
2794.470589276556
 21
2702.494269174615
 31
0.0
  0
LINE
  5
18D75
330
18C7A
100
AcDbEntity
  8
部品1
 48
50.0
100
AcDbLine
 10
2769.470589276554
 20
3154.494269174618
 30
0.0
 11
2769.470589276556
 21
2702.494269174615
 31
0.0
  0
LINE
  5
18D76
330
18C7A
100
AcDbEntity
  8
部品1
 48
50.0
100
AcDbLine
 10
2795.470589276556
 20
3152.494269174607
 30
0.0
 11
2795.470589276556
 21
2702.494269174615
 31
0.0
  0
LINE
  5
18D77
330
18C7A
100
AcDbEntity
  8
部品1
 48
50.0
100
AcDbLine
 10
2767.470589276556
 20
3152.494269174611
 30
0.0
 11
2767.470589276556
 21
2702.494269174615
 31
0.0
  0
LINE
  5
18D78
330
18C7A
100
AcDbEntity
  8
破線
 48
10.0
100
AcDbLine
 10
2176.97058927653
 20
1448.994269174509
 30
0.0
 11
2176.97058927653
 21
2702.494269174588
 31
0.0
  0
LINE
  5
18D79
330
18C7A
100
AcDbEntity
  8
破線
 48
10.0
100
AcDbLine
 10
2126.970589276534
 20
1448.994269174505
 30
0.0
 11
2126.970589276531
 21
2702.494269174586
 31
0.0
  0
LINE
  5
18D7A
330
18C7A
100
AcDbEntity
  8
部品1
100
AcDbLine
 10
2794.470589276556
 20
3154.494269174622
 30
0.0
 11
3858.970589276556
 21
3154.494269174604
 31
0.0
  0
LINE
  5
18D7B
330
18C7A
100
AcDbEntity
  8
細線
 48
50.0
100
AcDbLine
 10
3858.470589276556
 20
2702.494269174608
 30
0.0
 11
2795.470589276556
 21
3152.494269174607
 31
0.0
  0
LINE
  5
18D7C
330
18C7A
100
AcDbEntity
  8
部品1
100
AcDbLine
 10
2795.470589276555
 20
2702.494269174615
 30
0.0
 11
3858.470589276556
 21
2702.494269174608
 31
0.0
  0
LINE
  5
18D7D
330
18C7A
100
AcDbEntity
  8
部品1
100
AcDbLine
 10
2795.470589276556
 20
3152.494269174611
 30
0.0
 11
3858.470589276556
 21
3152.494269174604
 31
0.0
  0
LINE
  5
18D7E
330
18C7A
100
AcDbEntity
  8
細線
 48
50.0
100
AcDbLine
 10
3858.470589276556
 20
3152.494269174604
 30
0.0
 11
2795.470589276555
 21
2702.494269174615
 31
0.0
  0
DIMENSION
  5
18D7F
330
18C7A
100
AcDbEntity
  8
寸法
100
AcDbDimension
  2
*D10
 10
3801.234916278101
 20
2488.887829538937
 30
0.0
 11
3318.360544398907
 21
2488.887829538937
 31
0.0
 12
-3742.925985830444
 22
-6453.628869860112
 32
0.0
 70
   128
 71
     5
 42
1063.000000000012
  3
INABA_S40G
100
AcDbAlignedDimension
 13
2795.470589276555
 23
2702.494269174615
 33
0.0
 14
3858.470589276567
 24
2702.494269174608
 34
0.0
100
AcDbRotatedDimension
1001
ACAD
1000
DSTYLE
1002
{
1002
}
  0
LINE
  5
18D80
330
18C7A
100
AcDbEntity
  8
破線
 48
10.0
100
AcDbLine
 10
3806.970589276556
 20
1472.494269174594
 30
0.0
 11
3009.47058927653
 21
1472.494269174523
 31
0.0
  0
DIMENSION
  5
18D81
330
18C7A
100
AcDbEntity
  8
寸法
100
AcDbDimension
  2
*D9
 10
4534.396935010941
 20
1392.494269174596
 30
0.0
 11
4534.39693501094
 21
1084.008987800356
 31
0.0
 12
-3742.925985830444
 22
-6453.628869860112
 32
0.0
 70
   128
 71
     5
 42
54.99999999999636
  3
INABA_S40G
100
AcDbAlignedDimension
 13
3886.970589276531
 23
1447.494269174593
 33
0.0
 14
3886.970589276531
 24
1392.494269174596
 34
0.0
 50
90.0
100
AcDbRotatedDimension
1001
ACAD
1000
DSTYLE
1002
{
1002
}
  0
LINE
  5
18D82
330
18C7A
100
AcDbEntity
  8
部品1
100
AcDbLine
 10
471.9705892765196
 20
3182.494269174477
 30
0.0
 11
471.9705892765232
 21
3154.494269174477
 31
0.0
  0
LINE
  5
18D83
330
18C7A
100
AcDbEntity
  8
部品1
100
AcDbLine
 10
471.9705892765559
 20
3182.494269174509
 30
0.0
 11
471.9705892765559
 21
3154.494269174509
 31
0.0
  0
LINE
  5
18D84
330
18C7A
100
AcDbEntity
  8
部品1
100
AcDbLine
 10
444.9705892765232
 20
3127.49426917448
 30
0.0
 11
416.9705892765232
 21
3127.49426917448
 31
0.0
  0
LINE
  5
18D85
330
18C7A
100
AcDbEntity
  8
部品1
100
AcDbLine
 10
444.9705892765305
 20
2707.49426917448
 30
0.0
 11
416.9705892765305
 21
2707.49426917448
 31
0.0
  0
LINE
  5
18D86
330
18C7A
100
AcDbEntity
  8
部品1
 48
50.0
100
AcDbLine
 10
445.4705892765542
 20
3152.494269174506
 30
0.0
 11
445.4705892765559
 21
2702.494269174505
 31
0.0
  0
LINE
  5
18D87
330
18C7A
100
AcDbEntity
  8
部品1
 48
50.0
100
AcDbLine
 10
473.470589276545
 20
1448.994269174573
 30
0.0
 11
444.970589276545
 21
1420.494269174574
 31
0.0
  0
LINE
  5
18D88
330
18C7A
100
AcDbEntity
  8
部品1
100
AcDbLine
 10
471.9705892765232
 20
1392.494269174465
 30
0.0
 11
416.9705892765486
 21
1392.494269174465
 31
0.0
  0
LINE
  5
18D89
330
18C7A
100
AcDbEntity
  8
部品1
100
AcDbLine
 10
444.9705892765305
 20
1447.494269174429
 30
0.0
 11
416.9705892765469
 21
1447.494269174429
 31
0.0
  0
LINE
  5
18D8A
330
18C7A
100
AcDbEntity
  8
部品1
100
AcDbLine
 10
444.9705892765305
 20
1447.494269174465
 30
0.0
 11
416.9705892765469
 21
1447.494269174465
 31
0.0
  0
LINE
  5
18D8B
330
18C7A
100
AcDbEntity
  8
部品1
100
AcDbLine
 10
444.9705892765469
 20
1447.49426917448
 30
0.0
 11
416.9705892765469
 21
1447.49426917448
 31
0.0
  0
LINE
  5
18D8C
330
18C7A
100
AcDbEntity
  8
部品1
100
AcDbLine
 10
416.9705892765469
 20
1447.494269174429
 30
0.0
 11
416.9705892765486
 21
1392.494269174433
 31
0.0
  0
LINE
  5
18D8D
330
18C7A
100
AcDbEntity
  8
部品1
100
AcDbLine
 10
416.9705892765196
 20
3182.494269174477
 30
0.0
 11
416.9705892765486
 21
1392.494269174465
 31
0.0
  0
LINE
  5
18D8E
330
18C7A
100
AcDbEntity
  8
部品1
100
AcDbLine
 10
444.9705892765305
 20
1420.494269174556
 30
0.0
 11
444.9705892765559
 21
3154.494269174509
 31
0.0
  0
LINE
  5
18D8F
330
18C7A
100
AcDbEntity
  8
部品1
100
AcDbLine
 10
473.4705892765323
 20
2702.494269174608
 30
0.0
 11
473.470589276545
 21
1448.994269174571
 31
0.0
  0
LINE
  5
18D90
330
18C7A
100
AcDbEntity
  8
破線
 48
10.0
100
AcDbLine
 10
496.9705892765305
 20
2702.494269174608
 30
0.0
 11
496.9705892765451
 21
1472.494269174476
 31
0.0
  0
DIMENSION
  5
18D91
330
18C7A
100
AcDbEntity
  8
寸法
100
AcDbDimension
  2
*D8
 10
3886.970589276531
 20
410.7433333855515
 30
0.0
 11
2168.197775309287
 21
410.7433333855515
 31
0.0
 12
-3742.925985830444
 22
-6453.628869860112
 32
0.0
 70
   128
 71
     5
 42
3469.999999999982
  3
INABA_S40G
100
AcDbAlignedDimension
 13
416.9705892765486
 23
1392.494269174433
 33
0.0
 14
3886.970589276531
 24
1392.49426917456
 34
0.0
100
AcDbRotatedDimension
1001
ACAD
1000
DSTYLE
1002
{
1070
   341
1005
0
1002
}
  0
LINE
  5
18D92
330
18C7A
100
AcDbEntity
  8
部品1
100
AcDbLine
 10
444.9705892765559
 20
3154.494269174624
 30
0.0
 11
1509.470589276487
 21
3154.494269174626
 31
0.0
  0
LINE
  5
18D93
330
18C7A
100
AcDbEntity
  8
部品1
100
AcDbLine
 10
3886.970589276531
 20
1392.494269174596
 30
0.0
 11
3411.970589276556
 21
1392.494269174582
 31
0.0
  0
LINE
  5
18D94
330
18C7A
100
AcDbEntity
  8
部品1
100
AcDbLine
 10
416.9705892765559
 20
3182.494269174509
 30
0.0
 11
3886.970589276556
 21
3182.494269174604
 31
0.0
  0
LINE
  5
18D95
330
18C7A
100
AcDbEntity
  8
部品1
100
AcDbLine
 10
445.4705892765559
 20
2702.494269174509
 30
0.0
 11
1508.470589276487
 21
2702.494269174558
 31
0.0
  0
LINE
  5
18D96
330
18C7A
100
AcDbEntity
  8
細線
 48
50.0
100
AcDbLine
 10
2767.470589276556
 20
3152.494269174611
 30
0.0
 11
1536.470589276487
 21
2702.494269174558
 31
0.0
  0
LINE
  5
18D97
330
18C7A
100
AcDbEntity
  8
部品1
100
AcDbLine
 10
445.4705892765542
 20
3152.494269174509
 30
0.0
 11
1508.470589276485
 21
3152.494269174558
 31
0.0
  0
LINE
  5
18D98
330
18C7A
100
AcDbEntity
  8
細線
 48
50.0
100
AcDbLine
 10
2767.470589276554
 20
2702.494269174615
 30
0.0
 11
1536.470589276485
 21
3152.494269174558
 31
0.0
  0
LINE
  5
18D99
330
18C7A
100
AcDbEntity
  8
破線
 48
10.0
100
AcDbLine
 10
2126.970589276534
 20
1472.494269174502
 30
0.0
 11
1344.47058927653
 21
1472.494269174473
 31
0.0
  0
LINE
  5
18D9A
330
18C7A
100
AcDbEntity
  8
部品1
100
AcDbLine
 10
3830.470589276556
 20
1448.994269174596
 30
0.0
 11
473.4705892764487
 21
1448.994269174476
 31
0.0
  0
DIMENSION
  5
18D9B
330
18C7A
100
AcDbEntity
  8
寸法
100
AcDbDimension
  2
*D7
 10
471.970589276555
 20
3698.302488799491
 30
0.0
 11
108.4853079022819
 21
3698.302488799491
 31
0.0
 12
-3742.925985830444
 22
-6453.628869860112
 32
0.0
 70
   128
 71
     5
 42
55.00000000003456
  3
INABA_S40G
100
AcDbAlignedDimension
 13
416.9705892765205
 23
3182.494269174509
 33
0.0
 14
471.970589276555
 24
3182.494269174509
 34
0.0
100
AcDbRotatedDimension
1001
ACAD
1000
DSTYLE
1002
{
1002
}
  0
DIMENSION
  5
18D9C
330
18C7A
100
AcDbEntity
  8
寸法
100
AcDbDimension
  2
*D6
 10
4534.396935010967
 20
3127.494269174607
 30
0.0
 11
4534.396935010965
 21
3490.979550548844
 31
0.0
 12
-3742.925985830444
 22
-6453.628869860112
 32
0.0
 70
   128
 71
     5
 42
54.99999999999636
  3
INABA_S40G
100
AcDbAlignedDimension
 13
3886.970589276556
 23
3182.494269174604
 33
0.0
 14
3886.970589276556
 24
3127.494269174607
 34
0.0
 50
90.0
100
AcDbRotatedDimension
1001
ACAD
1000
DSTYLE
1002
{
1002
}
  0
DIMENSION
  5
18D9D
330
18C7A
100
AcDbEntity
  8
寸法
100
AcDbDimension
  2
*D5
 10
3886.970589276556
 20
3698.302488799589
 30
0.0
 11
4195.455870650794
 21
3698.302488799589
 31
0.0
 12
-3742.925985830444
 22
-6453.628869860112
 32
0.0
 70
   128
 71
     5
 42
55.0
  3
INABA_S40G
100
AcDbAlignedDimension
 13
3831.970589276556
 23
3182.494269174604
 33
0.0
 14
3886.970589276556
 24
3182.494269174604
 34
0.0
100
AcDbRotatedDimension
1001
ACAD
1000
DSTYLE
1002
{
1002
}
  0
DIMENSION
  5
18D9E
330
18C7A
100
AcDbEntity
  8
寸法
100
AcDbDimension
  2
*D4
 10
3831.970589276556
 20
3698.302488799607
 30
0.0
 11
2151.970589276555
 21
3698.302488799607
 31
0.0
 12
-3742.925985830444
 22
-6453.628869860112
 32
0.0
 70
   128
  1
8X420=<>
 71
     5
 42
3360.000000000001
  3
INABA_S40G
100
AcDbAlignedDimension
 13
471.970589276555
 23
3182.494269174509
 33
0.0
 14
3831.970589276556
 24
3182.494269174604
 34
0.0
100
AcDbRotatedDimension
1001
ACAD
1000
DSTYLE
1002
{
1002
}
  0
DIMENSION
  5
18D9F
330
18C7A
100
AcDbEntity
  8
寸法
100
AcDbDimension
  2
*D3
 10
4899.503876750603
 20
1392.494269174596
 30
0.0
 11
4899.503876750601
 21
2287.4942691746
 31
0.0
 12
-3742.925985830444
 22
-6453.628869860112
 32
0.0
 70
   128
 71
     5
 42
1790.000000000007
  3
INABA_S40G
100
AcDbAlignedDimension
 13
3886.970589276556
 23
3182.494269174604
 33
0.0
 14
3886.970589276531
 24
1392.494269174596
 34
0.0
 50
90.0
100
AcDbRotatedDimension
1001
ACAD
1000
DSTYLE
1002
{
1002
}
  0
ENDBLK
  5
18DA1
330
18C7A
100
AcDbEntity
  8
0
 48
50.0
100
AcDbBlockEnd
  0
BLOCK
  5
1C4CB
330
1C4CA
100
AcDbEntity
  8
0
 48
50.0
100
AcDbBlockBegin
  2
_NONE
 70
     0
 10
0.0
 20
0.0
 30
0.0
  3
_NONE
  1

  0
CIRCLE
  5
1C4CC
330
1C4CA
100
AcDbEntity
  8
0
  6
ByBlock
 62
     0
 48
50.0
100
AcDbCircle
 10
0.0
 20
0.0
 30
0.0
 40
0.25
  0
ENDBLK
  5
1C4CD
330
1C4CA
100
AcDbEntity
  8
0
 48
50.0
100
AcDbBlockEnd
  0
BLOCK
  5
20E08
330
20DFC
100
AcDbEntity
  8
0
 48
50.0
100
AcDbBlockBegin
  2
*D19
 70
     1
 10
0.0
 20
0.0
 30
0.0
  3
*D19
  1

  0
LINE
  5
28C70
330
20DFC
100
AcDbEntity
  8
寸法
 62
     0
 48
50.0
370
    -2
100
AcDbLine
 10
3663.600000000004
 20
8136.39429495082
 30
0.0
 11
3663.600000000004
 21
8408.348158915829
 31
0.0
  0
LINE
  5
28C71
330
20DFC
100
AcDbEntity
  8
寸法
 62
     0
 48
50.0
370
    -2
100
AcDbLine
 10
3708.600000000001
 20
7410.127836856907
 30
0.0
 11
3708.600000000001
 21
8408.348158915829
 31
0.0
  0
LINE
  5
28C72
330
20DFC
100
AcDbEntity
  8
寸法
 62
     0
 48
50.0
370
    -2
100
AcDbLine
 10
3708.600000000001
 20
8348.348158915829
 30
0.0
 11
3808.600000000001
 21
8348.348158915829
 31
0.0
  0
LINE
  5
28C73
330
20DFC
100
AcDbEntity
  8
寸法
 62
     0
 48
50.0
370
    -2
100
AcDbLine
 10
3663.600000000004
 20
8348.348158915829
 30
0.0
 11
3326.250757595082
 21
8348.348158915829
 31
0.0
  0
LINE
  5
28C74
330
20DFC
100
AcDbEntity
  8
寸法
 62
     0
 48
50.0
370
    -2
100
AcDbLine
 10
3708.600000000001
 20
8348.348158915829
 30
0.0
 11
3663.600000000004
 21
8348.348158915829
 31
0.0
  0
INSERT
  5
28C75
330
20DFC
100
AcDbEntity
  8
寸法
 62
     0
 48
50.0
370
    -2
100
AcDbBlockReference
  2
_DOTSMALL
 10
3708.600000000001
 20
8348.348158915829
 30
0.0
 41
100.0
 42
100.0
 43
100.0
 50
180.0
  0
INSERT
  5
28C76
330
20DFC
100
AcDbEntity
  8
寸法
 62
     0
 48
50.0
370
    -2
100
AcDbBlockReference
  2
_DOTSMALL
 10
3663.600000000004
 20
8348.348158915829
 30
0.0
 41
100.0
 42
100.0
 43
100.0
  0
MTEXT
  5
28C77
330
20DFC
100
AcDbEntity
  8
寸法
 62
     7
 48
50.0
100
AcDbMText
 10
3392.425378797542
 20
8448.348158915829
 30
0.0
 40
120.0
 41
0.0
 71
     5
 72
     1
  1
\A1;a
  7
STYLE1
 73
     1
 44
1.0
1001
ACAD
1000
MTEXTBEGIN
1070
    73
1070
     1
1070
    44
1040
1.0
1070
    74
1070
     0
1000
MTEXTEND
  0
POINT
  5
28C78
330
20DFC
100
AcDbEntity
  8
DEFPOINTS
 62
     0
 48
50.0
100
AcDbPoint
 10
3663.600000000004
 20
8116.39429495082
 30
0.0
  0
POINT
  5
28C79
330
20DFC
100
AcDbEntity
  8
DEFPOINTS
 62
     0
 48
50.0
100
AcDbPoint
 10
3708.600000000001
 20
7390.127836856908
 30
0.0
  0
POINT
  5
28C7A
330
20DFC
100
AcDbEntity
  8
DEFPOINTS
 62
     0
 48
50.0
100
AcDbPoint
 10
3708.600000000001
 20
8348.348158915829
 30
0.0
  0
ENDBLK
  5
20E09
330
20DFC
100
AcDbEntity
  8
0
 48
50.0
100
AcDbBlockEnd
  0
BLOCK
  5
2274E
330
22742
100
AcDbEntity
  8
0
 48
50.0
100
AcDbBlockBegin
  2
*D20
 70
     1
 10
0.0
 20
0.0
 30
0.0
  3
*D20
  1

  0
LINE
  5
28C7B
330
22742
100
AcDbEntity
  8
寸法
 62
     0
 48
50.0
370
    -2
100
AcDbLine
 10
3065.665006330072
 20
7465.127836856924
 30
0.0
 11
2773.721909610673
 21
7465.127836856924
 31
0.0
  0
LINE
  5
28C7C
330
22742
100
AcDbEntity
  8
寸法
 62
     0
 48
50.0
370
    -2
100
AcDbLine
 10
3555.156977762463
 20
7390.127836856921
 30
0.0
 11
2773.721909610673
 21
7390.127836856921
 31
0.0
  0
LINE
  5
28C7D
330
22742
100
AcDbEntity
  8
寸法
 62
     0
 48
50.0
370
    -2
100
AcDbLine
 10
2833.721909610673
 20
7465.127836856924
 30
0.0
 11
2833.721909610673
 21
7565.127836856923
 31
0.0
  0
LINE
  5
28C7E
330
22742
100
AcDbEntity
  8
寸法
 62
     0
 48
50.0
370
    -2
100
AcDbLine
 10
2833.721909610673
 20
7390.127836856921
 30
0.0
 11
2833.721909610673
 21
7290.127836856921
 31
0.0
  0
LINE
  5
28C7F
330
22742
100
AcDbEntity
  8
寸法
 62
     0
 48
50.0
370
    -2
100
AcDbLine
 10
2833.721909610673
 20
7465.127836856924
 30
0.0
 11
2833.721909610673
 21
7390.127836856921
 31
0.0
  0
INSERT
  5
28C80
330
22742
100
AcDbEntity
  8
寸法
 62
     0
 48
50.0
370
    -2
100
AcDbBlockReference
  2
_DOTSMALL
 10
2833.721909610673
 20
7465.127836856924
 30
0.0
 41
100.0
 42
100.0
 43
100.0
 50
270.0
  0
INSERT
  5
28C81
330
22742
100
AcDbEntity
  8
寸法
 62
     0
 48
50.0
370
    -2
100
AcDbBlockReference
  2
_DOTSMALL
 10
2833.721909610673
 20
7390.127836856921
 30
0.0
 41
100.0
 42
100.0
 43
100.0
 50
90.0
  0
MTEXT
  5
28C82
330
22742
100
AcDbEntity
  8
寸法
 62
     7
 48
50.0
100
AcDbMText
 10
2733.721909610672
 20
7427.627836856924
 30
0.0
 40
120.0
 41
0.0
 71
     5
 72
     1
  1
\A1;c
  7
STYLE1
 11
0.0000000000000001
 21
1.0
 31
0.0
 73
     1
 44
1.0
1001
ACAD
1000
MTEXTBEGIN
1070
    73
1070
     1
1070
    44
1040
1.0
1070
    74
1070
     0
1000
MTEXTEND
  0
POINT
  5
28C83
330
22742
100
AcDbEntity
  8
DEFPOINTS
 62
     0
 48
50.0
100
AcDbPoint
 10
3085.665006330071
 20
7465.127836856924
 30
0.0
  0
POINT
  5
28C84
330
22742
100
AcDbEntity
  8
DEFPOINTS
 62
     0
 48
50.0
100
AcDbPoint
 10
3575.156977762463
 20
7390.127836856921
 30
0.0
  0
POINT
  5
28C85
330
22742
100
AcDbEntity
  8
DEFPOINTS
 62
     0
 48
50.0
100
AcDbPoint
 10
2833.721909610673
 20
7390.127836856921
 30
0.0
  0
ENDBLK
  5
2274F
330
22742
100
AcDbEntity
  8
0
 48
50.0
100
AcDbBlockEnd
  0
BLOCK
  5
22768
330
2275C
100
AcDbEntity
  8
0
 48
50.0
100
AcDbBlockBegin
  2
*D21
 70
     1
 10
0.0
 20
0.0
 30
0.0
  3
*D21
  1

  0
LINE
  5
28C86
330
2275C
100
AcDbEntity
  8
寸法
 62
     0
 48
50.0
370
    -2
100
AcDbLine
 10
3561.607272343894
 20
6430.127836856908
 30
0.0
 11
2773.721909610673
 21
6430.127836856908
 31
0.0
  0
LINE
  5
28C87
330
2275C
100
AcDbEntity
  8
寸法
 62
     0
 48
50.0
370
    -2
100
AcDbLine
 10
3065.665006330072
 20
6375.127836856931
 30
0.0
 11
2773.721909610673
 21
6375.127836856931
 31
0.0
  0
LINE
  5
28C88
330
2275C
100
AcDbEntity
  8
寸法
 62
     0
 48
50.0
370
    -2
100
AcDbLine
 10
2833.721909610673
 20
6430.127836856908
 30
0.0
 11
2833.721909610673
 21
6530.127836856909
 31
0.0
  0
LINE
  5
28C89
330
2275C
100
AcDbEntity
  8
寸法
 62
     0
 48
50.0
370
    -2
100
AcDbLine
 10
2833.721909610673
 20
6375.127836856931
 30
0.0
 11
2833.721909610673
 21
6275.127836856931
 31
0.0
  0
LINE
  5
28C8A
330
2275C
100
AcDbEntity
  8
寸法
 62
     0
 48
50.0
370
    -2
100
AcDbLine
 10
2833.721909610673
 20
6430.127836856908
 30
0.0
 11
2833.721909610673
 21
6375.127836856931
 31
0.0
  0
INSERT
  5
28C8B
330
2275C
100
AcDbEntity
  8
寸法
 62
     0
 48
50.0
370
    -2
100
AcDbBlockReference
  2
_DOTSMALL
 10
2833.721909610673
 20
6430.127836856908
 30
0.0
 41
100.0
 42
100.0
 43
100.0
 50
270.0
  0
INSERT
  5
28C8C
330
2275C
100
AcDbEntity
  8
寸法
 62
     0
 48
50.0
370
    -2
100
AcDbBlockReference
  2
_DOTSMALL
 10
2833.721909610673
 20
6375.127836856931
 30
0.0
 41
100.0
 42
100.0
 43
100.0
 50
90.0
  0
MTEXT
  5
28C8D
330
2275C
100
AcDbEntity
  8
寸法
 62
     7
 48
50.0
100
AcDbMText
 10
2733.721909610672
 20
6402.627836856921
 30
0.0
 40
120.0
 41
0.0
 71
     5
 72
     1
  1
\A1;b
  7
STYLE1
 11
0.0000000000000001
 21
1.0
 31
0.0
 73
     1
 44
1.0
1001
ACAD
1000
MTEXTBEGIN
1070
    73
1070
     1
1070
    44
1040
1.0
1070
    74
1070
     0
1000
MTEXTEND
  0
POINT
  5
28C8E
330
2275C
100
AcDbEntity
  8
DEFPOINTS
 62
     0
 48
50.0
100
AcDbPoint
 10
3581.607272343894
 20
6430.127836856908
 30
0.0
  0
POINT
  5
28C8F
330
2275C
100
AcDbEntity
  8
DEFPOINTS
 62
     0
 48
50.0
100
AcDbPoint
 10
3085.665006330071
 20
6375.127836856931
 30
0.0
  0
POINT
  5
28C90
330
2275C
100
AcDbEntity
  8
DEFPOINTS
 62
     0
 48
50.0
100
AcDbPoint
 10
2833.721909610673
 20
6375.127836856931
 30
0.0
  0
ENDBLK
  5
22769
330
2275C
100
AcDbEntity
  8
0
 48
50.0
100
AcDbBlockEnd
  0
BLOCK
  5
22B65
330
22B5A
100
AcDbEntity
  8
0
 48
50.0
100
AcDbBlockBegin
  2
*D22
 70
     1
 10
0.0
 20
0.0
 30
0.0
  3
*D22
  1

  0
LINE
  5
28D01
330
22B5A
100
AcDbEntity
  8
寸法
 62
     0
 48
50.0
370
    -2
100
AcDbLine
 10
12275.09540071171
 20
6710.127836856941
 30
0.0
 11
12081.82138901162
 21
6710.127836856941
 31
0.0
  0
LINE
  5
28D02
330
22B5A
100
AcDbEntity
  8
寸法
 62
     0
 48
50.0
370
    -2
100
AcDbLine
 10
12131.41910651595
 20
6430.127836856943
 30
0.0
 11
12201.82138901162
 21
6430.127836856943
 31
0.0
  0
LINE
  5
28D03
330
22B5A
100
AcDbEntity
  8
寸法
 62
     0
 48
50.0
370
    -2
100
AcDbLine
 10
12141.82138901162
 20
6710.127836856941
 30
0.0
 11
12141.82138901162
 21
6430.127836856943
 31
0.0
  0
LINE
  5
28D04
330
22B5A
100
AcDbEntity
  8
寸法
 62
     0
 48
50.0
370
    -2
100
AcDbLine
 10
12141.82138901162
 20
6430.127836856943
 30
0.0
 11
12141.82138901162
 21
5993.593388038043
 31
0.0
  0
INSERT
  5
28D05
330
22B5A
100
AcDbEntity
  8
寸法
 62
     0
 48
50.0
370
    -2
100
AcDbBlockReference
  2
_DOTSMALL
 10
12141.82138901162
 20
6710.127836856941
 30
0.0
 41
100.0
 42
100.0
 43
100.0
 50
90.0
  0
INSERT
  5
28D06
330
22B5A
100
AcDbEntity
  8
寸法
 62
     0
 48
50.0
370
    -2
100
AcDbBlockReference
  2
_DOTSMALL
 10
12141.82138901162
 20
6430.127836856943
 30
0.0
 41
100.0
 42
100.0
 43
100.0
 50
270.0
  0
MTEXT
  5
28D07
330
22B5A
100
AcDbEntity
  8
寸法
 62
     7
 48
50.0
100
AcDbMText
 10
12041.809577988
 20
6143.164254179777
 30
0.0
 40
120.0
 41
0.0
 71
     5
 72
     1
  1
\A1;280
  7
STYLE1
 11
0.0000000000000001
 21
1.0
 31
0.0
 73
     1
 44
1.0
1001
ACAD
1000
MTEXTBEGIN
1070
    73
1070
     1
1070
    44
1040
1.0
1070
    74
1070
     0
1000
MTEXTEND
  0
POINT
  5
28D08
330
22B5A
100
AcDbEntity
  8
DEFPOINTS
 62
     0
 48
50.0
100
AcDbPoint
 10
12295.09540071171
 20
6710.127836856941
 30
0.0
  0
POINT
  5
28D09
330
22B5A
100
AcDbEntity
  8
DEFPOINTS
 62
     0
 48
50.0
100
AcDbPoint
 10
12111.41910651595
 20
6430.127836856943
 30
0.0
  0
POINT
  5
28D0A
330
22B5A
100
AcDbEntity
  8
DEFPOINTS
 62
     0
 48
50.0
100
AcDbPoint
 10
12141.82138901162
 20
6430.127836856943
 30
0.0
  0
ENDBLK
  5
22B66
330
22B5A
100
AcDbEntity
  8
0
 48
50.0
100
AcDbBlockEnd
  0
BLOCK
  5
22B7F
330
22B74
100
AcDbEntity
  8
0
 48
50.0
100
AcDbBlockBegin
  2
*D23
 70
     1
 10
0.0
 20
0.0
 30
0.0
  3
*D23
  1

  0
LINE
  5
28C51
330
22B74
100
AcDbEntity
  8
寸法
 62
     0
 48
50.0
370
    -2
100
AcDbLine
 10
12155.85634570468
 20
7390.127836856912
 30
0.0
 11
12201.82138901162
 21
7390.127836856912
 31
0.0
  0
LINE
  5
28C52
330
22B74
100
AcDbEntity
  8
寸法
 62
     0
 48
50.0
370
    -2
100
AcDbLine
 10
12095.60166369304
 20
7190.127836856827
 30
0.0
 11
12201.82138901162
 21
7190.127836856827
 31
0.0
  0
LINE
  5
28C53
330
22B74
100
AcDbEntity
  8
寸法
 62
     0
 48
50.0
370
    -2
100
AcDbLine
 10
12141.82138901162
 20
7190.127836856827
 30
0.0
 11
12141.82138901162
 21
7390.127836856912
 31
0.0
  0
LINE
  5
28C54
330
22B74
100
AcDbEntity
  8
寸法
 62
     0
 48
50.0
370
    -2
100
AcDbLine
 10
12141.82138901162
 20
7390.127836856912
 30
0.0
 11
12141.82138901162
 21
7826.66228567581
 31
0.0
  0
INSERT
  5
28C55
330
22B74
100
AcDbEntity
  8
寸法
 62
     0
 48
50.0
370
    -2
100
AcDbBlockReference
  2
_DOTSMALL
 10
12141.82138901162
 20
7190.127836856827
 30
0.0
 41
100.0
 42
100.0
 43
100.0
 50
270.0
  0
INSERT
  5
28C56
330
22B74
100
AcDbEntity
  8
寸法
 62
     0
 48
50.0
370
    -2
100
AcDbBlockReference
  2
_DOTSMALL
 10
12141.82138901162
 20
7390.127836856912
 30
0.0
 41
100.0
 42
100.0
 43
100.0
 50
90.0
  0
MTEXT
  5
28C57
330
22B74
100
AcDbEntity
  8
寸法
 62
     7
 48
50.0
100
AcDbMText
 10
12041.809577988
 20
7677.091419534079
 30
0.0
 40
120.0
 41
0.0
 71
     5
 72
     1
  1
\A1;200
  7
STYLE1
 11
0.0000000000000001
 21
1.0
 31
0.0
 73
     1
 44
1.0
1001
ACAD
1000
MTEXTBEGIN
1070
    73
1070
     1
1070
    44
1040
1.0
1070
    74
1070
     0
1000
MTEXTEND
  0
POINT
  5
28C58
330
22B74
100
AcDbEntity
  8
DEFPOINTS
 62
     0
 48
50.0
100
AcDbPoint
 10
12135.85634570468
 20
7390.127836856912
 30
0.0
  0
POINT
  5
28C59
330
22B74
100
AcDbEntity
  8
DEFPOINTS
 62
     0
 48
50.0
100
AcDbPoint
 10
12075.60166369304
 20
7190.127836856827
 30
0.0
  0
POINT
  5
28C5A
330
22B74
100
AcDbEntity
  8
DEFPOINTS
 62
     0
 48
50.0
100
AcDbPoint
 10
12141.82138901162
 20
7190.127836856827
 30
0.0
  0
ENDBLK
  5
22B80
330
22B74
100
AcDbEntity
  8
0
 48
50.0
100
AcDbBlockEnd
  0
BLOCK
  5
22BA5
330
22B9A
100
AcDbEntity
  8
0
 48
50.0
100
AcDbBlockBegin
  2
*D24
 70
     1
 10
0.0
 20
0.0
 30
0.0
  3
*D24
  1

  0
LINE
  5
28D20
330
22B9A
100
AcDbEntity
  8
寸法
 62
     0
 48
50.0
370
    -2
100
AcDbLine
 10
12738.6
 20
7055.127836856943
 30
0.0
 11
12738.6
 21
7174.519505412148
 31
0.0
  0
LINE
  5
28D21
330
22B9A
100
AcDbEntity
  8
寸法
 62
     0
 48
50.0
370
    -2
100
AcDbLine
 10
12618.6
 20
7055.127830361986
 30
0.0
 11
12618.6
 21
7174.519505412148
 31
0.0
  0
LINE
  5
28D22
330
22B9A
100
AcDbEntity
  8
寸法
 62
     0
 48
50.0
370
    -2
100
AcDbLine
 10
12618.6
 20
7114.519505412149
 30
0.0
 11
12738.6
 21
7114.519505412149
 31
0.0
  0
LINE
  5
28D23
330
22B9A
100
AcDbEntity
  8
寸法
 62
     0
 48
50.0
370
    -2
100
AcDbLine
 10
12738.6
 20
7114.519505412149
 30
0.0
 11
13144.7062992126
 21
7114.519505412149
 31
0.0
  0
INSERT
  5
28D24
330
22B9A
100
AcDbEntity
  8
寸法
 62
     0
 48
50.0
370
    -2
100
AcDbBlockReference
  2
_DOTSMALL
 10
12618.6
 20
7114.519505412149
 30
0.0
 41
100.0
 42
100.0
 43
100.0
 50
180.0
  0
INSERT
  5
28D25
330
22B9A
100
AcDbEntity
  8
寸法
 62
     0
 48
50.0
370
    -2
100
AcDbBlockReference
  2
_DOTSMALL
 10
12738.6
 20
7114.519505412149
 30
0.0
 41
100.0
 42
100.0
 43
100.0
  0
MTEXT
  5
28D26
330
22B9A
100
AcDbEntity
  8
寸法
 62
     7
 48
50.0
100
AcDbMText
 10
13008.65905511811
 20
7214.53131643577
 30
0.0
 40
120.0
 41
0.0
 71
     5
 72
     1
  1
\A1;120
  7
STYLE1
 73
     1
 44
1.0
1001
ACAD
1000
MTEXTBEGIN
1070
    73
1070
     1
1070
    44
1040
1.0
1070
    74
1070
     0
1000
MTEXTEND
  0
POINT
  5
28D27
330
22B9A
100
AcDbEntity
  8
DEFPOINTS
 62
     0
 48
50.0
100
AcDbPoint
 10
12738.6
 20
7035.127836856942
 30
0.0
  0
POINT
  5
28D28
330
22B9A
100
AcDbEntity
  8
DEFPOINTS
 62
     0
 48
50.0
100
AcDbPoint
 10
12618.6
 20
7035.127830361986
 30
0.0
  0
POINT
  5
28D29
330
22B9A
100
AcDbEntity
  8
DEFPOINTS
 62
     0
 48
50.0
100
AcDbPoint
 10
12618.6
 20
7114.519505412149
 30
0.0
  0
ENDBLK
  5
22BA6
330
22B9A
100
AcDbEntity
  8
0
 48
50.0
100
AcDbBlockEnd
  0
BLOCK
  5
27EB9
330
27EAD
100
AcDbEntity
  8
0
 48
50.0
100
AcDbBlockBegin
  2
*D25
 70
     1
 10
0.0
 20
0.0
 30
0.0
  3
*D25
  1

  0
LINE
  5
28C65
330
27EAD
100
AcDbEntity
  8
寸法
 62
     0
 48
50.0
370
    -2
100
AcDbLine
 10
12738.6
 20
7410.127836856905
 30
0.0
 11
12738.6
 21
8408.348158915826
 31
0.0
  0
LINE
  5
28C66
330
27EAD
100
AcDbEntity
  8
寸法
 62
     0
 48
50.0
370
    -2
100
AcDbLine
 10
12783.6
 20
8136.394294950816
 30
0.0
 11
12783.6
 21
8408.348158915826
 31
0.0
  0
LINE
  5
28C67
330
27EAD
100
AcDbEntity
  8
寸法
 62
     0
 48
50.0
370
    -2
100
AcDbLine
 10
12738.6
 20
8348.348158915827
 30
0.0
 11
12638.6
 21
8348.348158915827
 31
0.0
  0
LINE
  5
28C68
330
27EAD
100
AcDbEntity
  8
寸法
 62
     0
 48
50.0
370
    -2
100
AcDbLine
 10
12783.6
 20
8348.348158915827
 30
0.0
 11
13120.94924240491
 21
8348.348158915827
 31
0.0
  0
LINE
  5
28C69
330
27EAD
100
AcDbEntity
  8
寸法
 62
     0
 48
50.0
370
    -2
100
AcDbLine
 10
12738.6
 20
8348.348158915827
 30
0.0
 11
12783.6
 21
8348.348158915827
 31
0.0
  0
INSERT
  5
28C6A
330
27EAD
100
AcDbEntity
  8
寸法
 62
     0
 48
50.0
370
    -2
100
AcDbBlockReference
  2
_DOTSMALL
 10
12738.6
 20
8348.348158915827
 30
0.0
 41
100.0
 42
100.0
 43
100.0
  0
INSERT
  5
28C6B
330
27EAD
100
AcDbEntity
  8
寸法
 62
     0
 48
50.0
370
    -2
100
AcDbBlockReference
  2
_DOTSMALL
 10
12783.6
 20
8348.348158915827
 30
0.0
 41
100.0
 42
100.0
 43
100.0
 50
180.0
  0
MTEXT
  5
28C6C
330
27EAD
100
AcDbEntity
  8
寸法
 62
     7
 48
50.0
100
AcDbMText
 10
13054.77462120245
 20
8448.348158915827
 30
0.0
 40
120.0
 41
0.0
 71
     5
 72
     1
  1
\A1;a
  7
STYLE1
 73
     1
 44
1.0
1001
ACAD
1000
MTEXTBEGIN
1070
    73
1070
     1
1070
    44
1040
1.0
1070
    74
1070
     0
1000
MTEXTEND
  0
POINT
  5
28C6D
330
27EAD
100
AcDbEntity
  8
DEFPOINTS
 62
     0
 48
50.0
100
AcDbPoint
 10
12738.6
 20
7390.127836856905
 30
0.0
  0
POINT
  5
28C6E
330
27EAD
100
AcDbEntity
  8
DEFPOINTS
 62
     0
 48
50.0
100
AcDbPoint
 10
12783.6
 20
8116.394294950817
 30
0.0
  0
POINT
  5
28C6F
330
27EAD
100
AcDbEntity
  8
DEFPOINTS
 62
     0
 48
50.0
100
AcDbPoint
 10
12783.6
 20
8348.348158915827
 30
0.0
  0
ENDBLK
  5
27EBA
330
27EAD
100
AcDbEntity
  8
0
 48
50.0
100
AcDbBlockEnd
  0
BLOCK
  5
285DD
330
285D4
100
AcDbEntity
  8
0
 48
50.0
100
AcDbBlockBegin
  2
*D26
 70
     1
 10
0.0
 20
0.0
 30
0.0
  3
*D26
  1

  0
LINE
  5
28BEF
330
285D4
100
AcDbEntity
  8
寸法
 62
     0
 48
50.0
370
    -2
100
AcDbLine
 10
5353.600000000008
 20
6980.12783685691
 30
0.0
 11
5353.600000000008
 21
7932.736653527157
 31
0.0
  0
LINE
  5
28BF0
330
285D4
100
AcDbEntity
  8
寸法
 62
     0
 48
50.0
370
    -2
100
AcDbLine
 10
4533.600000000007
 20
6980.12783685691
 30
0.0
 11
4533.600000000007
 21
7932.736653527157
 31
0.0
  0
LINE
  5
28BF1
330
285D4
100
AcDbEntity
  8
寸法
 62
     0
 48
50.0
370
    -2
100
AcDbLine
 10
5353.600000000008
 20
7872.736653527157
 30
0.0
 11
4533.600000000007
 21
7872.736653527157
 31
0.0
  0
INSERT
  5
28BF2
330
285D4
100
AcDbEntity
  8
寸法
 62
     0
 48
50.0
370
    -2
100
AcDbBlockReference
  2
_DOTSMALL
 10
5353.600000000008
 20
7872.736653527157
 30
0.0
 41
100.0
 42
100.0
 43
100.0
  0
INSERT
  5
28BF3
330
285D4
100
AcDbEntity
  8
寸法
 62
     0
 48
50.0
370
    -2
100
AcDbBlockReference
  2
_DOTSMALL
 10
4533.600000000007
 20
7872.736653527157
 30
0.0
 41
100.0
 42
100.0
 43
100.0
 50
180.0
  0
MTEXT
  5
28BF4
330
285D4
100
AcDbEntity
  8
寸法
 62
     7
 48
50.0
100
AcDbMText
 10
4943.600000000007
 20
7972.74846455078
 30
0.0
 40
120.0
 41
0.0
 71
     5
 72
     1
  1
\A1;820
  7
STYLE1
 73
     1
 44
1.0
1001
ACAD
1000
MTEXTBEGIN
1070
    73
1070
     1
1070
    44
1040
1.0
1070
    74
1070
     0
1000
MTEXTEND
  0
POINT
  5
28BF5
330
285D4
100
AcDbEntity
  8
DEFPOINTS
 62
     0
 48
50.0
100
AcDbPoint
 10
5353.600000000008
 20
6960.127836856909
 30
0.0
  0
POINT
  5
28BF6
330
285D4
100
AcDbEntity
  8
DEFPOINTS
 62
     0
 48
50.0
100
AcDbPoint
 10
4533.600000000007
 20
6960.127836856909
 30
0.0
  0
POINT
  5
28BF7
330
285D4
100
AcDbEntity
  8
DEFPOINTS
 62
     0
 48
50.0
100
AcDbPoint
 10
4533.600000000007
 20
7872.736653527157
 30
0.0
  0
ENDBLK
  5
285DE
330
285D4
100
AcDbEntity
  8
0
 48
50.0
100
AcDbBlockEnd
  0
BLOCK
  5
285E8
330
285DF
100
AcDbEntity
  8
0
 48
50.0
100
AcDbBlockBegin
  2
*D27
 70
     1
 10
0.0
 20
0.0
 30
0.0
  3
*D27
  1

  0
LINE
  5
28BE6
330
285DF
100
AcDbEntity
  8
寸法
 62
     0
 48
50.0
370
    -2
100
AcDbLine
 10
6055.6
 20
7337.127836856909
 30
0.0
 11
6055.6
 21
8176.394294950821
 31
0.0
  0
LINE
  5
28BE7
330
285DF
100
AcDbEntity
  8
寸法
 62
     0
 48
50.0
370
    -2
100
AcDbLine
 10
3831.6
 20
7337.127836856909
 30
0.0
 11
3831.6
 21
8176.394294950821
 31
0.0
  0
LINE
  5
28BE8
330
285DF
100
AcDbEntity
  8
寸法
 62
     0
 48
50.0
370
    -2
100
AcDbLine
 10
6055.6
 20
8116.39429495082
 30
0.0
 11
3831.6
 21
8116.39429495082
 31
0.0
  0
INSERT
  5
28BE9
330
285DF
100
AcDbEntity
  8
寸法
 62
     0
 48
50.0
370
    -2
100
AcDbBlockReference
  2
_DOTSMALL
 10
6055.6
 20
8116.39429495082
 30
0.0
 41
100.0
 42
100.0
 43
100.0
  0
INSERT
  5
28BEA
330
285DF
100
AcDbEntity
  8
寸法
 62
     0
 48
50.0
370
    -2
100
AcDbBlockReference
  2
_DOTSMALL
 10
3831.6
 20
8116.39429495082
 30
0.0
 41
100.0
 42
100.0
 43
100.0
 50
180.0
  0
MTEXT
  5
28BEB
330
285DF
100
AcDbEntity
  8
寸法
 62
     7
 48
50.0
100
AcDbMText
 10
4943.6
 20
8216.40610597444
 30
0.0
 40
120.0
 41
0.0
 71
     5
 72
     1
  1
\A1;2224
  7
STYLE1
 73
     1
 44
1.0
1001
ACAD
1000
MTEXTBEGIN
1070
    73
1070
     1
1070
    44
1040
1.0
1070
    74
1070
     0
1000
MTEXTEND
  0
POINT
  5
28BEC
330
285DF
100
AcDbEntity
  8
DEFPOINTS
 62
     0
 48
50.0
100
AcDbPoint
 10
6055.6
 20
7317.127836856909
 30
0.0
  0
POINT
  5
28BED
330
285DF
100
AcDbEntity
  8
DEFPOINTS
 62
     0
 48
50.0
100
AcDbPoint
 10
3831.6
 20
7317.127836856909
 30
0.0
  0
POINT
  5
28BEE
330
285DF
100
AcDbEntity
  8
DEFPOINTS
 62
     0
 48
50.0
100
AcDbPoint
 10
3831.6
 20
8116.39429495082
 30
0.0
  0
ENDBLK
  5
285E9
330
285DF
100
AcDbEntity
  8
0
 48
50.0
100
AcDbBlockEnd
  0
BLOCK
  5
28602
330
285F7
100
AcDbEntity
  8
0
 48
50.0
100
AcDbBlockBegin
  2
*D28
 70
     1
 10
0.0
 20
0.0
 30
0.0
  3
*D28
  1

  0
LINE
  5
28BDC
330
285F7
100
AcDbEntity
  8
寸法
 62
     0
 48
50.0
370
    -2
100
AcDbLine
 10
3831.6
 20
7337.127836856909
 30
0.0
 11
3831.6
 21
8176.394294950821
 31
0.0
  0
LINE
  5
28BDD
330
285F7
100
AcDbEntity
  8
寸法
 62
     0
 48
50.0
370
    -2
100
AcDbLine
 10
3708.600000000001
 20
7410.12783685691
 30
0.0
 11
3708.600000000001
 21
8176.394294950821
 31
0.0
  0
LINE
  5
28BDE
330
285F7
100
AcDbEntity
  8
寸法
 62
     0
 48
50.0
370
    -2
100
AcDbLine
 10
3831.6
 20
8116.39429495082
 30
0.0
 11
3708.600000000001
 21
8116.39429495082
 31
0.0
  0
LINE
  5
28BDF
330
285F7
100
AcDbEntity
  8
寸法
 62
     0
 48
50.0
370
    -2
100
AcDbLine
 10
3708.600000000001
 20
8116.39429495082
 30
0.0
 11
3297.008116907964
 21
8116.39429495082
 31
0.0
  0
INSERT
  5
28BE0
330
285F7
100
AcDbEntity
  8
寸法
 62
     0
 48
50.0
370
    -2
100
AcDbBlockReference
  2
_DOTSMALL
 10
3831.6
 20
8116.39429495082
 30
0.0
 41
100.0
 42
100.0
 43
100.0
  0
INSERT
  5
28BE1
330
285F7
100
AcDbEntity
  8
寸法
 62
     0
 48
50.0
370
    -2
100
AcDbBlockReference
  2
_DOTSMALL
 10
3708.600000000001
 20
8116.39429495082
 30
0.0
 41
100.0
 42
100.0
 43
100.0
 50
180.0
  0
MTEXT
  5
28BE2
330
285F7
100
AcDbEntity
  8
寸法
 62
     7
 48
50.0
100
AcDbMText
 10
3435.493398282203
 20
8216.40610597444
 30
0.0
 40
120.0
 41
0.0
 71
     5
 72
     1
  1
\A1;123
  7
STYLE1
 73
     1
 44
1.0
1001
ACAD
1000
MTEXTBEGIN
1070
    73
1070
     1
1070
    44
1040
1.0
1070
    74
1070
     0
1000
MTEXTEND
  0
POINT
  5
28BE3
330
285F7
100
AcDbEntity
  8
DEFPOINTS
 62
     0
 48
50.0
100
AcDbPoint
 10
3831.6
 20
7317.127836856909
 30
0.0
  0
POINT
  5
28BE4
330
285F7
100
AcDbEntity
  8
DEFPOINTS
 62
     0
 48
50.0
100
AcDbPoint
 10
3708.600000000001
 20
7390.127836856909
 30
0.0
  0
POINT
  5
28BE5
330
285F7
100
AcDbEntity
  8
DEFPOINTS
 62
     0
 48
50.0
100
AcDbPoint
 10
3708.600000000001
 20
8116.39429495082
 30
0.0
  0
ENDBLK
  5
28603
330
285F7
100
AcDbEntity
  8
0
 48
50.0
100
AcDbBlockEnd
  0
BLOCK
  5
2860F
330
28604
100
AcDbEntity
  8
0
 48
50.0
100
AcDbBlockBegin
  2
*D29
 70
     1
 10
0.0
 20
0.0
 30
0.0
  3
*D29
  1

  0
LINE
  5
28C0A
330
28604
100
AcDbEntity
  8
寸法
 62
     0
 48
50.0
370
    -2
100
AcDbLine
 10
3688.6
 20
7390.127836856909
 30
0.0
 11
3025.665006330072
 21
7390.127836856909
 31
0.0
  0
LINE
  5
28C0B
330
28604
100
AcDbEntity
  8
寸法
 62
     0
 48
50.0
370
    -2
100
AcDbLine
 10
3761.600000000001
 20
7267.127836856909
 30
0.0
 11
3025.665006330072
 21
7267.127836856909
 31
0.0
  0
LINE
  5
28C0C
330
28604
100
AcDbEntity
  8
寸法
 62
     0
 48
50.0
370
    -2
100
AcDbLine
 10
3085.665006330073
 20
7267.127836856909
 30
0.0
 11
3085.665006330073
 21
7390.127836856909
 31
0.0
  0
LINE
  5
28C0D
330
28604
100
AcDbEntity
  8
寸法
 62
     0
 48
50.0
370
    -2
100
AcDbLine
 10
3085.665006330073
 20
7390.127836856909
 30
0.0
 11
3085.665006330073
 21
7801.719719948947
 31
0.0
  0
INSERT
  5
28C0E
330
28604
100
AcDbEntity
  8
寸法
 62
     0
 48
50.0
370
    -2
100
AcDbBlockReference
  2
_DOTSMALL
 10
3085.665006330073
 20
7267.127836856909
 30
0.0
 41
100.0
 42
100.0
 43
100.0
 50
270.0
  0
INSERT
  5
28C0F
330
28604
100
AcDbEntity
  8
寸法
 62
     0
 48
50.0
370
    -2
100
AcDbBlockReference
  2
_DOTSMALL
 10
3085.665006330073
 20
7390.127836856909
 30
0.0
 41
100.0
 42
100.0
 43
100.0
 50
90.0
  0
MTEXT
  5
28C10
330
28604
100
AcDbEntity
  8
寸法
 62
     7
 48
50.0
100
AcDbMText
 10
2985.653195306449
 20
7663.234438574709
 30
0.0
 40
120.0
 41
0.0
 71
     5
 72
     1
  1
\A1;123
  7
STYLE1
 11
0.0000000000000001
 21
1.0
 31
0.0
 73
     1
 44
1.0
1001
ACAD
1000
MTEXTBEGIN
1070
    73
1070
     1
1070
    44
1040
1.0
1070
    74
1070
     0
1000
MTEXTEND
  0
POINT
  5
28C11
330
28604
100
AcDbEntity
  8
DEFPOINTS
 62
     0
 48
50.0
100
AcDbPoint
 10
3708.600000000001
 20
7390.127836856909
 30
0.0
  0
POINT
  5
28C12
330
28604
100
AcDbEntity
  8
DEFPOINTS
 62
     0
 48
50.0
100
AcDbPoint
 10
3781.6
 20
7267.127836856909
 30
0.0
  0
POINT
  5
28C13
330
28604
100
AcDbEntity
  8
DEFPOINTS
 62
     0
 48
50.0
100
AcDbPoint
 10
3085.665006330073
 20
7267.127836856909
 30
0.0
  0
ENDBLK
  5
28610
330
28604
100
AcDbEntity
  8
0
 48
50.0
100
AcDbBlockEnd
  0
BLOCK
  5
28625
330
2861B
100
AcDbEntity
  8
0
 48
50.0
100
AcDbBlockBegin
  2
*D30
 70
     1
 10
0.0
 20
0.0
 30
0.0
  3
*D30
  1

  0
LINE
  5
28BD3
330
2861B
100
AcDbEntity
  8
寸法
 62
     0
 48
50.0
370
    -2
100
AcDbLine
 10
4533.600000000007
 20
6980.12783685691
 30
0.0
 11
4533.600000000007
 21
7932.736653527157
 31
0.0
  0
LINE
  5
28BD4
330
2861B
100
AcDbEntity
  8
寸法
 62
     0
 48
50.0
370
    -2
100
AcDbLine
 10
3708.600000000001
 20
7410.12783685691
 30
0.0
 11
3708.600000000001
 21
7932.736653527157
 31
0.0
  0
LINE
  5
28BD5
330
2861B
100
AcDbEntity
  8
寸法
 62
     0
 48
50.0
370
    -2
100
AcDbLine
 10
4533.600000000007
 20
7872.736653527157
 30
0.0
 11
3708.600000000001
 21
7872.736653527157
 31
0.0
  0
INSERT
  5
28BD6
330
2861B
100
AcDbEntity
  8
寸法
 62
     0
 48
50.0
370
    -2
100
AcDbBlockReference
  2
_DOTSMALL
 10
4533.600000000007
 20
7872.736653527157
 30
0.0
 41
100.0
 42
100.0
 43
100.0
  0
INSERT
  5
28BD7
330
2861B
100
AcDbEntity
  8
寸法
 62
     0
 48
50.0
370
    -2
100
AcDbBlockReference
  2
_DOTSMALL
 10
3708.600000000001
 20
7872.736653527157
 30
0.0
 41
100.0
 42
100.0
 43
100.0
 50
180.0
  0
MTEXT
  5
28BD8
330
2861B
100
AcDbEntity
  8
寸法
 62
     7
 48
50.0
100
AcDbMText
 10
4121.100000000004
 20
7972.74846455078
 30
0.0
 40
120.0
 41
0.0
 71
     5
 72
     1
  1
\A1;825
  7
STYLE1
 73
     1
 44
1.0
1001
ACAD
1000
MTEXTBEGIN
1070
    73
1070
     1
1070
    44
1040
1.0
1070
    74
1070
     0
1000
MTEXTEND
  0
POINT
  5
28BD9
330
2861B
100
AcDbEntity
  8
DEFPOINTS
 62
     0
 48
50.0
100
AcDbPoint
 10
4533.600000000007
 20
6960.127836856909
 30
0.0
  0
POINT
  5
28BDA
330
2861B
100
AcDbEntity
  8
DEFPOINTS
 62
     0
 48
50.0
100
AcDbPoint
 10
3708.600000000001
 20
7390.127836856909
 30
0.0
  0
POINT
  5
28BDB
330
2861B
100
AcDbEntity
  8
DEFPOINTS
 62
     0
 48
50.0
100
AcDbPoint
 10
3708.600000000001
 20
7872.736653527157
 30
0.0
  0
ENDBLK
  5
28626
330
2861B
100
AcDbEntity
  8
0
 48
50.0
100
AcDbBlockEnd
  0
BLOCK
  5
28632
330
28627
100
AcDbEntity
  8
0
 48
50.0
100
AcDbBlockBegin
  2
*D31
 70
     1
 10
0.0
 20
0.0
 30
0.0
  3
*D31
  1

  0
LINE
  5
28BC9
330
28627
100
AcDbEntity
  8
寸法
 62
     0
 48
50.0
370
    -2
100
AcDbLine
 10
4463.600000000007
 20
6910.12783685691
 30
0.0
 11
4131.2859906143
 21
6910.12783685691
 31
0.0
  0
LINE
  5
28BCA
330
28627
100
AcDbEntity
  8
寸法
 62
     0
 48
50.0
370
    -2
100
AcDbLine
 10
4262.765475140901
 20
7390.127836856909
 30
0.0
 11
4131.2859906143
 21
7390.127836856909
 31
0.0
  0
LINE
  5
28BCB
330
28627
100
AcDbEntity
  8
寸法
 62
     0
 48
50.0
370
    -2
100
AcDbLine
 10
4191.285990614301
 20
6910.12783685691
 30
0.0
 11
4191.285990614301
 21
7390.127836856909
 31
0.0
  0
LINE
  5
28BCC
330
28627
100
AcDbEntity
  8
寸法
 62
     0
 48
50.0
370
    -2
100
AcDbLine
 10
4191.285990614301
 20
7390.127836856909
 30
0.0
 11
4191.285990614301
 21
7836.734136069508
 31
0.0
  0
INSERT
  5
28BCD
330
28627
100
AcDbEntity
  8
寸法
 62
     0
 48
50.0
370
    -2
100
AcDbBlockReference
  2
_DOTSMALL
 10
4191.285990614301
 20
6910.12783685691
 30
0.0
 41
100.0
 42
100.0
 43
100.0
 50
270.0
  0
INSERT
  5
28BCE
330
28627
100
AcDbEntity
  8
寸法
 62
     0
 48
50.0
370
    -2
100
AcDbBlockReference
  2
_DOTSMALL
 10
4191.285990614301
 20
7390.127836856909
 30
0.0
 41
100.0
 42
100.0
 43
100.0
 50
90.0
  0
MTEXT
  5
28BCF
330
28627
100
AcDbEntity
  8
寸法
 62
     7
 48
50.0
100
AcDbMText
 10
4091.285990614299
 20
7682.686891975021
 30
0.0
 40
120.0
 41
0.0
 71
     5
 72
     1
  1
\A1;480
  7
STYLE1
 11
0.0000000000000001
 21
1.0
 31
0.0
 73
     1
 44
1.0
1001
ACAD
1000
MTEXTBEGIN
1070
    73
1070
     1
1070
    44
1040
1.0
1070
    74
1070
     0
1000
MTEXTEND
  0
POINT
  5
28BD0
330
28627
100
AcDbEntity
  8
DEFPOINTS
 62
     0
 48
50.0
100
AcDbPoint
 10
4483.600000000008
 20
6910.12783685691
 30
0.0
  0
POINT
  5
28BD1
330
28627
100
AcDbEntity
  8
DEFPOINTS
 62
     0
 48
50.0
100
AcDbPoint
 10
4282.765475140901
 20
7390.127836856909
 30
0.0
  0
POINT
  5
28BD2
330
28627
100
AcDbEntity
  8
DEFPOINTS
 62
     0
 48
50.0
100
AcDbPoint
 10
4191.285990614301
 20
7390.127836856909
 30
0.0
  0
ENDBLK
  5
28633
330
28627
100
AcDbEntity
  8
0
 48
50.0
100
AcDbBlockEnd
  0
BLOCK
  5
2863E
330
28634
100
AcDbEntity
  8
0
 48
50.0
100
AcDbBlockBegin
  2
*D32
 70
     1
 10
0.0
 20
0.0
 30
0.0
  3
*D32
  1

  0
LINE
  5
28BC0
330
28634
100
AcDbEntity
  8
寸法
 62
     0
 48
50.0
370
    -2
100
AcDbLine
 10
6993.600000000007
 20
6980.12783685691
 30
0.0
 11
6993.600000000007
 21
7932.736653527157
 31
0.0
  0
LINE
  5
28BC1
330
28634
100
AcDbEntity
  8
寸法
 62
     0
 48
50.0
370
    -2
100
AcDbLine
 10
6173.600000000007
 20
6980.12783685691
 30
0.0
 11
6173.600000000007
 21
7932.736653527157
 31
0.0
  0
LINE
  5
28BC2
330
28634
100
AcDbEntity
  8
寸法
 62
     0
 48
50.0
370
    -2
100
AcDbLine
 10
6993.600000000007
 20
7872.736653527157
 30
0.0
 11
6173.600000000007
 21
7872.736653527157
 31
0.0
  0
INSERT
  5
28BC3
330
28634
100
AcDbEntity
  8
寸法
 62
     0
 48
50.0
370
    -2
100
AcDbBlockReference
  2
_DOTSMALL
 10
6993.600000000007
 20
7872.736653527157
 30
0.0
 41
100.0
 42
100.0
 43
100.0
  0
INSERT
  5
28BC4
330
28634
100
AcDbEntity
  8
寸法
 62
     0
 48
50.0
370
    -2
100
AcDbBlockReference
  2
_DOTSMALL
 10
6173.600000000007
 20
7872.736653527157
 30
0.0
 41
100.0
 42
100.0
 43
100.0
 50
180.0
  0
MTEXT
  5
28BC5
330
28634
100
AcDbEntity
  8
寸法
 62
     7
 48
50.0
100
AcDbMText
 10
6583.600000000008
 20
7972.74846455078
 30
0.0
 40
120.0
 41
0.0
 71
     5
 72
     1
  1
\A1;820
  7
STYLE1
 73
     1
 44
1.0
1001
ACAD
1000
MTEXTBEGIN
1070
    73
1070
     1
1070
    44
1040
1.0
1070
    74
1070
     0
1000
MTEXTEND
  0
POINT
  5
28BC6
330
28634
100
AcDbEntity
  8
DEFPOINTS
 62
     0
 48
50.0
100
AcDbPoint
 10
6993.600000000007
 20
6960.127836856909
 30
0.0
  0
POINT
  5
28BC7
330
28634
100
AcDbEntity
  8
DEFPOINTS
 62
     0
 48
50.0
100
AcDbPoint
 10
6173.600000000007
 20
6960.127836856909
 30
0.0
  0
POINT
  5
28BC8
330
28634
100
AcDbEntity
  8
DEFPOINTS
 62
     0
 48
50.0
100
AcDbPoint
 10
6173.600000000007
 20
7872.736653527157
 30
0.0
  0
ENDBLK
  5
2863F
330
28634
100
AcDbEntity
  8
0
 48
50.0
100
AcDbBlockEnd
  0
BLOCK
  5
2864A
330
28640
100
AcDbEntity
  8
0
 48
50.0
100
AcDbBlockBegin
  2
*D33
 70
     1
 10
0.0
 20
0.0
 30
0.0
  3
*D33
  1

  0
LINE
  5
28BB7
330
28640
100
AcDbEntity
  8
寸法
 62
     0
 48
50.0
370
    -2
100
AcDbLine
 10
7695.6
 20
7337.127836856909
 30
0.0
 11
7695.6
 21
8176.394294950821
 31
0.0
  0
LINE
  5
28BB8
330
28640
100
AcDbEntity
  8
寸法
 62
     0
 48
50.0
370
    -2
100
AcDbLine
 10
6055.6
 20
7337.127836856909
 30
0.0
 11
6055.6
 21
8176.394294950821
 31
0.0
  0
LINE
  5
28BB9
330
28640
100
AcDbEntity
  8
寸法
 62
     0
 48
50.0
370
    -2
100
AcDbLine
 10
7695.6
 20
8116.39429495082
 30
0.0
 11
6055.6
 21
8116.39429495082
 31
0.0
  0
INSERT
  5
28BBA
330
28640
100
AcDbEntity
  8
寸法
 62
     0
 48
50.0
370
    -2
100
AcDbBlockReference
  2
_DOTSMALL
 10
7695.6
 20
8116.39429495082
 30
0.0
 41
100.0
 42
100.0
 43
100.0
  0
INSERT
  5
28BBB
330
28640
100
AcDbEntity
  8
寸法
 62
     0
 48
50.0
370
    -2
100
AcDbBlockReference
  2
_DOTSMALL
 10
6055.6
 20
8116.39429495082
 30
0.0
 41
100.0
 42
100.0
 43
100.0
 50
180.0
  0
MTEXT
  5
28BBC
330
28640
100
AcDbEntity
  8
寸法
 62
     7
 48
50.0
100
AcDbMText
 10
6875.6
 20
8216.39429495082
 30
0.0
 40
120.0
 41
0.0
 71
     5
 72
     1
  1
\A1;1640
  7
STYLE1
 73
     1
 44
1.0
1001
ACAD
1000
MTEXTBEGIN
1070
    73
1070
     1
1070
    44
1040
1.0
1070
    74
1070
     0
1000
MTEXTEND
  0
POINT
  5
28BBD
330
28640
100
AcDbEntity
  8
DEFPOINTS
 62
     0
 48
50.0
100
AcDbPoint
 10
7695.6
 20
7317.127836856909
 30
0.0
  0
POINT
  5
28BBE
330
28640
100
AcDbEntity
  8
DEFPOINTS
 62
     0
 48
50.0
100
AcDbPoint
 10
6055.6
 20
7317.127836856909
 30
0.0
  0
POINT
  5
28BBF
330
28640
100
AcDbEntity
  8
DEFPOINTS
 62
     0
 48
50.0
100
AcDbPoint
 10
6055.6
 20
8116.39429495082
 30
0.0
  0
ENDBLK
  5
2864B
330
28640
100
AcDbEntity
  8
0
 48
50.0
100
AcDbBlockEnd
  0
BLOCK
  5
28655
330
2864C
100
AcDbEntity
  8
0
 48
50.0
100
AcDbBlockBegin
  2
*D34
 70
     1
 10
0.0
 20
0.0
 30
0.0
  3
*D34
  1

  0
LINE
  5
28BAE
330
2864C
100
AcDbEntity
  8
寸法
 62
     0
 48
50.0
370
    -2
100
AcDbLine
 10
6173.600000000007
 20
6980.12783685691
 30
0.0
 11
6173.600000000007
 21
7932.736653527157
 31
0.0
  0
LINE
  5
28BAF
330
2864C
100
AcDbEntity
  8
寸法
 62
     0
 48
50.0
370
    -2
100
AcDbLine
 10
5353.600000000008
 20
6980.12783685691
 30
0.0
 11
5353.600000000008
 21
7932.736653527157
 31
0.0
  0
LINE
  5
28BB0
330
2864C
100
AcDbEntity
  8
寸法
 62
     0
 48
50.0
370
    -2
100
AcDbLine
 10
6173.600000000007
 20
7872.736653527157
 30
0.0
 11
5353.600000000008
 21
7872.736653527157
 31
0.0
  0
INSERT
  5
28BB1
330
2864C
100
AcDbEntity
  8
寸法
 62
     0
 48
50.0
370
    -2
100
AcDbBlockReference
  2
_DOTSMALL
 10
6173.600000000007
 20
7872.736653527157
 30
0.0
 41
100.0
 42
100.0
 43
100.0
  0
INSERT
  5
28BB2
330
2864C
100
AcDbEntity
  8
寸法
 62
     0
 48
50.0
370
    -2
100
AcDbBlockReference
  2
_DOTSMALL
 10
5353.600000000008
 20
7872.736653527157
 30
0.0
 41
100.0
 42
100.0
 43
100.0
 50
180.0
  0
MTEXT
  5
28BB3
330
2864C
100
AcDbEntity
  8
寸法
 62
     7
 48
50.0
100
AcDbMText
 10
5763.600000000008
 20
7972.74846455078
 30
0.0
 40
120.0
 41
0.0
 71
     5
 72
     1
  1
\A1;820
  7
STYLE1
 73
     1
 44
1.0
1001
ACAD
1000
MTEXTBEGIN
1070
    73
1070
     1
1070
    44
1040
1.0
1070
    74
1070
     0
1000
MTEXTEND
  0
POINT
  5
28BB4
330
2864C
100
AcDbEntity
  8
DEFPOINTS
 62
     0
 48
50.0
100
AcDbPoint
 10
6173.600000000007
 20
6960.127836856909
 30
0.0
  0
POINT
  5
28BB5
330
2864C
100
AcDbEntity
  8
DEFPOINTS
 62
     0
 48
50.0
100
AcDbPoint
 10
5353.600000000008
 20
6960.127836856909
 30
0.0
  0
POINT
  5
28BB6
330
2864C
100
AcDbEntity
  8
DEFPOINTS
 62
     0
 48
50.0
100
AcDbPoint
 10
5353.600000000008
 20
7872.736653527157
 30
0.0
  0
ENDBLK
  5
28656
330
2864C
100
AcDbEntity
  8
0
 48
50.0
100
AcDbBlockEnd
  0
BLOCK
  5
2866D
330
28664
100
AcDbEntity
  8
0
 48
50.0
100
AcDbBlockBegin
  2
*D35
 70
     1
 10
0.0
 20
0.0
 30
0.0
  3
*D35
  1

  0
LINE
  5
28BA5
330
28664
100
AcDbEntity
  8
寸法
 62
     0
 48
50.0
370
    -2
100
AcDbLine
 10
7813.600000000008
 20
6980.12783685691
 30
0.0
 11
7813.600000000008
 21
7932.736653527157
 31
0.0
  0
LINE
  5
28BA6
330
28664
100
AcDbEntity
  8
寸法
 62
     0
 48
50.0
370
    -2
100
AcDbLine
 10
6993.600000000007
 20
6980.12783685691
 30
0.0
 11
6993.600000000007
 21
7932.736653527157
 31
0.0
  0
LINE
  5
28BA7
330
28664
100
AcDbEntity
  8
寸法
 62
     0
 48
50.0
370
    -2
100
AcDbLine
 10
7813.600000000008
 20
7872.736653527157
 30
0.0
 11
6993.600000000007
 21
7872.736653527157
 31
0.0
  0
INSERT
  5
28BA8
330
28664
100
AcDbEntity
  8
寸法
 62
     0
 48
50.0
370
    -2
100
AcDbBlockReference
  2
_DOTSMALL
 10
7813.600000000008
 20
7872.736653527157
 30
0.0
 41
100.0
 42
100.0
 43
100.0
  0
INSERT
  5
28BA9
330
28664
100
AcDbEntity
  8
寸法
 62
     0
 48
50.0
370
    -2
100
AcDbBlockReference
  2
_DOTSMALL
 10
6993.600000000007
 20
7872.736653527157
 30
0.0
 41
100.0
 42
100.0
 43
100.0
 50
180.0
  0
MTEXT
  5
28BAA
330
28664
100
AcDbEntity
  8
寸法
 62
     7
 48
50.0
100
AcDbMText
 10
7403.600000000007
 20
7972.74846455078
 30
0.0
 40
120.0
 41
0.0
 71
     5
 72
     1
  1
\A1;820
  7
STYLE1
 73
     1
 44
1.0
1001
ACAD
1000
MTEXTBEGIN
1070
    73
1070
     1
1070
    44
1040
1.0
1070
    74
1070
     0
1000
MTEXTEND
  0
POINT
  5
28BAB
330
28664
100
AcDbEntity
  8
DEFPOINTS
 62
     0
 48
50.0
100
AcDbPoint
 10
7813.600000000008
 20
6960.127836856909
 30
0.0
  0
POINT
  5
28BAC
330
28664
100
AcDbEntity
  8
DEFPOINTS
 62
     0
 48
50.0
100
AcDbPoint
 10
6993.600000000007
 20
6960.127836856909
 30
0.0
  0
POINT
  5
28BAD
330
28664
100
AcDbEntity
  8
DEFPOINTS
 62
     0
 48
50.0
100
AcDbPoint
 10
6993.600000000007
 20
7872.736653527157
 30
0.0
  0
ENDBLK
  5
2866E
330
28664
100
AcDbEntity
  8
0
 48
50.0
100
AcDbBlockEnd
  0
BLOCK
  5
28679
330
2866F
100
AcDbEntity
  8
0
 48
50.0
100
AcDbBlockBegin
  2
*D36
 70
     1
 10
0.0
 20
0.0
 30
0.0
  3
*D36
  1

  0
LINE
  5
28B9C
330
2866F
100
AcDbEntity
  8
寸法
 62
     0
 48
50.0
370
    -2
100
AcDbLine
 10
12615.6
 20
7337.127836856909
 30
0.0
 11
12615.6
 21
8176.394294950821
 31
0.0
  0
LINE
  5
28B9D
330
2866F
100
AcDbEntity
  8
寸法
 62
     0
 48
50.0
370
    -2
100
AcDbLine
 10
10155.6
 20
7337.127836856909
 30
0.0
 11
10155.6
 21
8176.394294950821
 31
0.0
  0
LINE
  5
28B9E
330
2866F
100
AcDbEntity
  8
寸法
 62
     0
 48
50.0
370
    -2
100
AcDbLine
 10
12615.6
 20
8116.39429495082
 30
0.0
 11
10155.6
 21
8116.39429495082
 31
0.0
  0
INSERT
  5
28B9F
330
2866F
100
AcDbEntity
  8
寸法
 62
     0
 48
50.0
370
    -2
100
AcDbBlockReference
  2
_DOTSMALL
 10
12615.6
 20
8116.39429495082
 30
0.0
 41
100.0
 42
100.0
 43
100.0
  0
INSERT
  5
28BA0
330
2866F
100
AcDbEntity
  8
寸法
 62
     0
 48
50.0
370
    -2
100
AcDbBlockReference
  2
_DOTSMALL
 10
10155.6
 20
8116.39429495082
 30
0.0
 41
100.0
 42
100.0
 43
100.0
 50
180.0
  0
MTEXT
  5
28BA1
330
2866F
100
AcDbEntity
  8
寸法
 62
     7
 48
50.0
100
AcDbMText
 10
11385.6
 20
8216.40610597444
 30
0.0
 40
120.0
 41
0.0
 71
     5
 72
     1
  1
\A1;2460
  7
STYLE1
 73
     1
 44
1.0
1001
ACAD
1000
MTEXTBEGIN
1070
    73
1070
     1
1070
    44
1040
1.0
1070
    74
1070
     0
1000
MTEXTEND
  0
POINT
  5
28BA2
330
2866F
100
AcDbEntity
  8
DEFPOINTS
 62
     0
 48
50.0
100
AcDbPoint
 10
12615.6
 20
7317.127836856909
 30
0.0
  0
POINT
  5
28BA3
330
2866F
100
AcDbEntity
  8
DEFPOINTS
 62
     0
 48
50.0
100
AcDbPoint
 10
10155.6
 20
7317.127836856909
 30
0.0
  0
POINT
  5
28BA4
330
2866F
100
AcDbEntity
  8
DEFPOINTS
 62
     0
 48
50.0
100
AcDbPoint
 10
10155.6
 20
8116.39429495082
 30
0.0
  0
ENDBLK
  5
2867A
330
2866F
100
AcDbEntity
  8
0
 48
50.0
100
AcDbBlockEnd
  0
BLOCK
  5
28685
330
2867B
100
AcDbEntity
  8
0
 48
50.0
100
AcDbBlockBegin
  2
*D37
 70
     1
 10
0.0
 20
0.0
 30
0.0
  3
*D37
  1

  0
LINE
  5
28B93
330
2867B
100
AcDbEntity
  8
寸法
 62
     0
 48
50.0
370
    -2
100
AcDbLine
 10
11913.60000000001
 20
6980.12783685691
 30
0.0
 11
11913.60000000001
 21
7932.736653527157
 31
0.0
  0
LINE
  5
28B94
330
2867B
100
AcDbEntity
  8
寸法
 62
     0
 48
50.0
370
    -2
100
AcDbLine
 10
11093.60000000001
 20
6980.12783685691
 30
0.0
 11
11093.60000000001
 21
7932.736653527157
 31
0.0
  0
LINE
  5
28B95
330
2867B
100
AcDbEntity
  8
寸法
 62
     0
 48
50.0
370
    -2
100
AcDbLine
 10
11913.60000000001
 20
7872.736653527157
 30
0.0
 11
11093.60000000001
 21
7872.736653527157
 31
0.0
  0
INSERT
  5
28B96
330
2867B
100
AcDbEntity
  8
寸法
 62
     0
 48
50.0
370
    -2
100
AcDbBlockReference
  2
_DOTSMALL
 10
11913.60000000001
 20
7872.736653527157
 30
0.0
 41
100.0
 42
100.0
 43
100.0
  0
INSERT
  5
28B97
330
2867B
100
AcDbEntity
  8
寸法
 62
     0
 48
50.0
370
    -2
100
AcDbBlockReference
  2
_DOTSMALL
 10
11093.60000000001
 20
7872.736653527157
 30
0.0
 41
100.0
 42
100.0
 43
100.0
 50
180.0
  0
MTEXT
  5
28B98
330
2867B
100
AcDbEntity
  8
寸法
 62
     7
 48
50.0
100
AcDbMText
 10
11503.6
 20
7972.74846455078
 30
0.0
 40
120.0
 41
0.0
 71
     5
 72
     1
  1
\A1;820
  7
STYLE1
 73
     1
 44
1.0
1001
ACAD
1000
MTEXTBEGIN
1070
    73
1070
     1
1070
    44
1040
1.0
1070
    74
1070
     0
1000
MTEXTEND
  0
POINT
  5
28B99
330
2867B
100
AcDbEntity
  8
DEFPOINTS
 62
     0
 48
50.0
100
AcDbPoint
 10
11913.60000000001
 20
6960.127836856909
 30
0.0
  0
POINT
  5
28B9A
330
2867B
100
AcDbEntity
  8
DEFPOINTS
 62
     0
 48
50.0
100
AcDbPoint
 10
11093.60000000001
 20
6960.127836856909
 30
0.0
  0
POINT
  5
28B9B
330
2867B
100
AcDbEntity
  8
DEFPOINTS
 62
     0
 48
50.0
100
AcDbPoint
 10
11093.60000000001
 20
7872.736653527157
 30
0.0
  0
ENDBLK
  5
28686
330
2867B
100
AcDbEntity
  8
0
 48
50.0
100
AcDbBlockEnd
  0
BLOCK
  5
28690
330
28687
100
AcDbEntity
  8
0
 48
50.0
100
AcDbBlockBegin
  2
*D38
 70
     1
 10
0.0
 20
0.0
 30
0.0
  3
*D38
  1

  0
LINE
  5
28B8A
330
28687
100
AcDbEntity
  8
寸法
 62
     0
 48
50.0
370
    -2
100
AcDbLine
 10
10273.6
 20
6980.12783685691
 30
0.0
 11
10273.6
 21
7932.736653527157
 31
0.0
  0
LINE
  5
28B8B
330
28687
100
AcDbEntity
  8
寸法
 62
     0
 48
50.0
370
    -2
100
AcDbLine
 10
9453.600000000006
 20
6980.12783685691
 30
0.0
 11
9453.600000000006
 21
7932.736653527157
 31
0.0
  0
LINE
  5
28B8C
330
28687
100
AcDbEntity
  8
寸法
 62
     0
 48
50.0
370
    -2
100
AcDbLine
 10
10273.6
 20
7872.736653527157
 30
0.0
 11
9453.600000000006
 21
7872.736653527157
 31
0.0
  0
INSERT
  5
28B8D
330
28687
100
AcDbEntity
  8
寸法
 62
     0
 48
50.0
370
    -2
100
AcDbBlockReference
  2
_DOTSMALL
 10
10273.6
 20
7872.736653527157
 30
0.0
 41
100.0
 42
100.0
 43
100.0
  0
INSERT
  5
28B8E
330
28687
100
AcDbEntity
  8
寸法
 62
     0
 48
50.0
370
    -2
100
AcDbBlockReference
  2
_DOTSMALL
 10
9453.600000000006
 20
7872.736653527157
 30
0.0
 41
100.0
 42
100.0
 43
100.0
 50
180.0
  0
MTEXT
  5
28B8F
330
28687
100
AcDbEntity
  8
寸法
 62
     7
 48
50.0
100
AcDbMText
 10
9863.600000000008
 20
7972.74846455078
 30
0.0
 40
120.0
 41
0.0
 71
     5
 72
     1
  1
\A1;820
  7
STYLE1
 73
     1
 44
1.0
1001
ACAD
1000
MTEXTBEGIN
1070
    73
1070
     1
1070
    44
1040
1.0
1070
    74
1070
     0
1000
MTEXTEND
  0
POINT
  5
28B90
330
28687
100
AcDbEntity
  8
DEFPOINTS
 62
     0
 48
50.0
100
AcDbPoint
 10
10273.6
 20
6960.127836856909
 30
0.0
  0
POINT
  5
28B91
330
28687
100
AcDbEntity
  8
DEFPOINTS
 62
     0
 48
50.0
100
AcDbPoint
 10
9453.600000000006
 20
6960.127836856909
 30
0.0
  0
POINT
  5
28B92
330
28687
100
AcDbEntity
  8
DEFPOINTS
 62
     0
 48
50.0
100
AcDbPoint
 10
9453.600000000006
 20
7872.736653527157
 30
0.0
  0
ENDBLK
  5
28691
330
28687
100
AcDbEntity
  8
0
 48
50.0
100
AcDbBlockEnd
  0
BLOCK
  5
2869C
330
28692
100
AcDbEntity
  8
0
 48
50.0
100
AcDbBlockBegin
  2
*D39
 70
     1
 10
0.0
 20
0.0
 30
0.0
  3
*D39
  1

  0
LINE
  5
28B81
330
28692
100
AcDbEntity
  8
寸法
 62
     0
 48
50.0
370
    -2
100
AcDbLine
 10
11093.60000000001
 20
6980.12783685691
 30
0.0
 11
11093.60000000001
 21
7932.736653527157
 31
0.0
  0
LINE
  5
28B82
330
28692
100
AcDbEntity
  8
寸法
 62
     0
 48
50.0
370
    -2
100
AcDbLine
 10
10273.6
 20
6980.12783685691
 30
0.0
 11
10273.6
 21
7932.736653527157
 31
0.0
  0
LINE
  5
28B83
330
28692
100
AcDbEntity
  8
寸法
 62
     0
 48
50.0
370
    -2
100
AcDbLine
 10
11093.60000000001
 20
7872.736653527157
 30
0.0
 11
10273.6
 21
7872.736653527157
 31
0.0
  0
INSERT
  5
28B84
330
28692
100
AcDbEntity
  8
寸法
 62
     0
 48
50.0
370
    -2
100
AcDbBlockReference
  2
_DOTSMALL
 10
11093.60000000001
 20
7872.736653527157
 30
0.0
 41
100.0
 42
100.0
 43
100.0
  0
INSERT
  5
28B85
330
28692
100
AcDbEntity
  8
寸法
 62
     0
 48
50.0
370
    -2
100
AcDbBlockReference
  2
_DOTSMALL
 10
10273.6
 20
7872.736653527157
 30
0.0
 41
100.0
 42
100.0
 43
100.0
 50
180.0
  0
MTEXT
  5
28B86
330
28692
100
AcDbEntity
  8
寸法
 62
     7
 48
50.0
100
AcDbMText
 10
10683.60000000001
 20
7972.74846455078
 30
0.0
 40
120.0
 41
0.0
 71
     5
 72
     1
  1
\A1;820
  7
STYLE1
 73
     1
 44
1.0
1001
ACAD
1000
MTEXTBEGIN
1070
    73
1070
     1
1070
    44
1040
1.0
1070
    74
1070
     0
1000
MTEXTEND
  0
POINT
  5
28B87
330
28692
100
AcDbEntity
  8
DEFPOINTS
 62
     0
 48
50.0
100
AcDbPoint
 10
11093.60000000001
 20
6960.127836856909
 30
0.0
  0
POINT
  5
28B88
330
28692
100
AcDbEntity
  8
DEFPOINTS
 62
     0
 48
50.0
100
AcDbPoint
 10
10273.6
 20
6960.127836856909
 30
0.0
  0
POINT
  5
28B89
330
28692
100
AcDbEntity
  8
DEFPOINTS
 62
     0
 48
50.0
100
AcDbPoint
 10
10273.6
 20
7872.736653527157
 30
0.0
  0
ENDBLK
  5
2869D
330
28692
100
AcDbEntity
  8
0
 48
50.0
100
AcDbBlockEnd
  0
BLOCK
  5
286B5
330
286AB
100
AcDbEntity
  8
0
 48
50.0
100
AcDbBlockBegin
  2
*D40
 70
     1
 10
0.0
 20
0.0
 30
0.0
  3
*D40
  1

  0
LINE
  5
28B78
330
286AB
100
AcDbEntity
  8
寸法
 62
     0
 48
50.0
370
    -2
100
AcDbLine
 10
12738.6
 20
7410.12783685691
 30
0.0
 11
12738.6
 21
7932.736653527157
 31
0.0
  0
LINE
  5
28B79
330
286AB
100
AcDbEntity
  8
寸法
 62
     0
 48
50.0
370
    -2
100
AcDbLine
 10
11913.60000000001
 20
6980.12783685691
 30
0.0
 11
11913.60000000001
 21
7932.736653527157
 31
0.0
  0
LINE
  5
28B7A
330
286AB
100
AcDbEntity
  8
寸法
 62
     0
 48
50.0
370
    -2
100
AcDbLine
 10
12738.6
 20
7872.736653527157
 30
0.0
 11
11913.60000000001
 21
7872.736653527157
 31
0.0
  0
INSERT
  5
28B7B
330
286AB
100
AcDbEntity
  8
寸法
 62
     0
 48
50.0
370
    -2
100
AcDbBlockReference
  2
_DOTSMALL
 10
12738.6
 20
7872.736653527157
 30
0.0
 41
100.0
 42
100.0
 43
100.0
  0
INSERT
  5
28B7C
330
286AB
100
AcDbEntity
  8
寸法
 62
     0
 48
50.0
370
    -2
100
AcDbBlockReference
  2
_DOTSMALL
 10
11913.60000000001
 20
7872.736653527157
 30
0.0
 41
100.0
 42
100.0
 43
100.0
 50
180.0
  0
MTEXT
  5
28B7D
330
286AB
100
AcDbEntity
  8
寸法
 62
     7
 48
50.0
100
AcDbMText
 10
12326.1
 20
7972.74846455078
 30
0.0
 40
120.0
 41
0.0
 71
     5
 72
     1
  1
\A1;825
  7
STYLE1
 73
     1
 44
1.0
1001
ACAD
1000
MTEXTBEGIN
1070
    73
1070
     1
1070
    44
1040
1.0
1070
    74
1070
     0
1000
MTEXTEND
  0
POINT
  5
28B7E
330
286AB
100
AcDbEntity
  8
DEFPOINTS
 62
     0
 48
50.0
100
AcDbPoint
 10
12738.6
 20
7390.127836856909
 30
0.0
  0
POINT
  5
28B7F
330
286AB
100
AcDbEntity
  8
DEFPOINTS
 62
     0
 48
50.0
100
AcDbPoint
 10
11913.60000000001
 20
6960.127836856909
 30
0.0
  0
POINT
  5
28B80
330
286AB
100
AcDbEntity
  8
DEFPOINTS
 62
     0
 48
50.0
100
AcDbPoint
 10
11913.60000000001
 20
7872.736653527157
 30
0.0
  0
ENDBLK
  5
286B6
330
286AB
100
AcDbEntity
  8
0
 48
50.0
100
AcDbBlockEnd
  0
BLOCK
  5
286C2
330
286B7
100
AcDbEntity
  8
0
 48
50.0
100
AcDbBlockBegin
  2
*D41
 70
     1
 10
0.0
 20
0.0
 30
0.0
  3
*D41
  1

  0
LINE
  5
28B6E
330
286B7
100
AcDbEntity
  8
寸法
 62
     0
 48
50.0
370
    -2
100
AcDbLine
 10
12738.6
 20
7410.12783685691
 30
0.0
 11
12738.6
 21
8176.394294950821
 31
0.0
  0
LINE
  5
28B6F
330
286B7
100
AcDbEntity
  8
寸法
 62
     0
 48
50.0
370
    -2
100
AcDbLine
 10
12615.6
 20
7337.127836856909
 30
0.0
 11
12615.6
 21
8176.394294950821
 31
0.0
  0
LINE
  5
28B70
330
286B7
100
AcDbEntity
  8
寸法
 62
     0
 48
50.0
370
    -2
100
AcDbLine
 10
12615.6
 20
8116.39429495082
 30
0.0
 11
12738.6
 21
8116.39429495082
 31
0.0
  0
LINE
  5
28B71
330
286B7
100
AcDbEntity
  8
寸法
 62
     0
 48
50.0
370
    -2
100
AcDbLine
 10
12738.6
 20
8116.39429495082
 30
0.0
 11
13150.19188309203
 21
8116.39429495082
 31
0.0
  0
INSERT
  5
28B72
330
286B7
100
AcDbEntity
  8
寸法
 62
     0
 48
50.0
370
    -2
100
AcDbBlockReference
  2
_DOTSMALL
 10
12615.6
 20
8116.39429495082
 30
0.0
 41
100.0
 42
100.0
 43
100.0
 50
180.0
  0
INSERT
  5
28B73
330
286B7
100
AcDbEntity
  8
寸法
 62
     0
 48
50.0
370
    -2
100
AcDbBlockReference
  2
_DOTSMALL
 10
12738.6
 20
8116.39429495082
 30
0.0
 41
100.0
 42
100.0
 43
100.0
  0
MTEXT
  5
28B74
330
286B7
100
AcDbEntity
  8
寸法
 62
     7
 48
50.0
100
AcDbMText
 10
13011.7066017178
 20
8216.40610597444
 30
0.0
 40
120.0
 41
0.0
 71
     5
 72
     1
  1
\A1;123
  7
STYLE1
 73
     1
 44
1.0
1001
ACAD
1000
MTEXTBEGIN
1070
    73
1070
     1
1070
    44
1040
1.0
1070
    74
1070
     0
1000
MTEXTEND
  0
POINT
  5
28B75
330
286B7
100
AcDbEntity
  8
DEFPOINTS
 62
     0
 48
50.0
100
AcDbPoint
 10
12738.6
 20
7390.127836856909
 30
0.0
  0
POINT
  5
28B76
330
286B7
100
AcDbEntity
  8
DEFPOINTS
 62
     0
 48
50.0
100
AcDbPoint
 10
12615.6
 20
7317.127836856909
 30
0.0
  0
POINT
  5
28B77
330
286B7
100
AcDbEntity
  8
DEFPOINTS
 62
     0
 48
50.0
100
AcDbPoint
 10
12615.6
 20
8116.39429495082
 30
0.0
  0
ENDBLK
  5
286C3
330
286B7
100
AcDbEntity
  8
0
 48
50.0
100
AcDbBlockEnd
  0
BLOCK
  5
286DB
330
286D1
100
AcDbEntity
  8
0
 48
50.0
100
AcDbBlockBegin
  2
*D42
 70
     1
 10
0.0
 20
0.0
 30
0.0
  3
*D42
  1

  0
LINE
  5
28C01
330
286D1
100
AcDbEntity
  8
寸法
 62
     0
 48
50.0
370
    -2
100
AcDbLine
 10
8633.600000000008
 20
6980.12783685691
 30
0.0
 11
8633.600000000008
 21
7932.736653527157
 31
0.0
  0
LINE
  5
28C02
330
286D1
100
AcDbEntity
  8
寸法
 62
     0
 48
50.0
370
    -2
100
AcDbLine
 10
7813.600000000008
 20
6980.12783685691
 30
0.0
 11
7813.600000000008
 21
7932.736653527157
 31
0.0
  0
LINE
  5
28C03
330
286D1
100
AcDbEntity
  8
寸法
 62
     0
 48
50.0
370
    -2
100
AcDbLine
 10
8633.600000000008
 20
7872.736653527157
 30
0.0
 11
7813.600000000008
 21
7872.736653527157
 31
0.0
  0
INSERT
  5
28C04
330
286D1
100
AcDbEntity
  8
寸法
 62
     0
 48
50.0
370
    -2
100
AcDbBlockReference
  2
_DOTSMALL
 10
8633.600000000008
 20
7872.736653527157
 30
0.0
 41
100.0
 42
100.0
 43
100.0
  0
INSERT
  5
28C05
330
286D1
100
AcDbEntity
  8
寸法
 62
     0
 48
50.0
370
    -2
100
AcDbBlockReference
  2
_DOTSMALL
 10
7813.600000000008
 20
7872.736653527157
 30
0.0
 41
100.0
 42
100.0
 43
100.0
 50
180.0
  0
MTEXT
  5
28C06
330
286D1
100
AcDbEntity
  8
寸法
 62
     7
 48
50.0
100
AcDbMText
 10
8223.600000000008
 20
7972.74846455078
 30
0.0
 40
120.0
 41
0.0
 71
     5
 72
     1
  1
\A1;820
  7
STYLE1
 73
     1
 44
1.0
1001
ACAD
1000
MTEXTBEGIN
1070
    73
1070
     1
1070
    44
1040
1.0
1070
    74
1070
     0
1000
MTEXTEND
  0
POINT
  5
28C07
330
286D1
100
AcDbEntity
  8
DEFPOINTS
 62
     0
 48
50.0
100
AcDbPoint
 10
8633.600000000008
 20
6960.127836856909
 30
0.0
  0
POINT
  5
28C08
330
286D1
100
AcDbEntity
  8
DEFPOINTS
 62
     0
 48
50.0
100
AcDbPoint
 10
7813.600000000008
 20
6960.127836856909
 30
0.0
  0
POINT
  5
28C09
330
286D1
100
AcDbEntity
  8
DEFPOINTS
 62
     0
 48
50.0
100
AcDbPoint
 10
7813.600000000008
 20
7872.736653527157
 30
0.0
  0
ENDBLK
  5
286DC
330
286D1
100
AcDbEntity
  8
0
 48
50.0
100
AcDbBlockEnd
  0
BLOCK
  5
286E7
330
286DD
100
AcDbEntity
  8
0
 48
50.0
100
AcDbBlockBegin
  2
*D43
 70
     1
 10
0.0
 20
0.0
 30
0.0
  3
*D43
  1

  0
LINE
  5
28BF8
330
286DD
100
AcDbEntity
  8
寸法
 62
     0
 48
50.0
370
    -2
100
AcDbLine
 10
3708.600000000001
 20
7410.12783685691
 30
0.0
 11
3708.600000000001
 21
8408.348158915826
 31
0.0
  0
LINE
  5
28BF9
330
286DD
100
AcDbEntity
  8
寸法
 62
     0
 48
50.0
370
    -2
100
AcDbLine
 10
12738.6
 20
7410.12783685691
 30
0.0
 11
12738.6
 21
8408.348158915826
 31
0.0
  0
LINE
  5
28BFA
330
286DD
100
AcDbEntity
  8
寸法
 62
     0
 48
50.0
370
    -2
100
AcDbLine
 10
3708.600000000001
 20
8348.348158915827
 30
0.0
 11
12738.6
 21
8348.348158915827
 31
0.0
  0
INSERT
  5
28BFB
330
286DD
100
AcDbEntity
  8
寸法
 62
     0
 48
50.0
370
    -2
100
AcDbBlockReference
  2
_DOTSMALL
 10
3708.600000000001
 20
8348.348158915827
 30
0.0
 41
100.0
 42
100.0
 43
100.0
 50
180.0
  0
INSERT
  5
28BFC
330
286DD
100
AcDbEntity
  8
寸法
 62
     0
 48
50.0
370
    -2
100
AcDbBlockReference
  2
_DOTSMALL
 10
12738.6
 20
8348.348158915827
 30
0.0
 41
100.0
 42
100.0
 43
100.0
  0
MTEXT
  5
28BFD
330
286DD
100
AcDbEntity
  8
寸法
 62
     7
 48
50.0
100
AcDbMText
 10
8223.600000000001
 20
8448.359969939449
 30
0.0
 40
120.0
 41
0.0
 71
     5
 72
     1
  1
\A1;N X 820+10
  7
STYLE1
 73
     1
 44
1.0
1001
ACAD
1000
MTEXTBEGIN
1070
    73
1070
     1
1070
    44
1040
1.0
1070
    74
1070
     0
1000
MTEXTEND
  0
POINT
  5
28BFE
330
286DD
100
AcDbEntity
  8
DEFPOINTS
 62
     0
 48
50.0
100
AcDbPoint
 10
3708.600000000001
 20
7390.127836856909
 30
0.0
  0
POINT
  5
28BFF
330
286DD
100
AcDbEntity
  8
DEFPOINTS
 62
     0
 48
50.0
100
AcDbPoint
 10
12738.6
 20
7390.127836856909
 30
0.0
  0
POINT
  5
28C00
330
286DD
100
AcDbEntity
  8
DEFPOINTS
 62
     0
 48
50.0
100
AcDbPoint
 10
12738.6
 20
8348.348158915827
 30
0.0
  0
ENDBLK
  5
286E8
330
286DD
100
AcDbEntity
  8
0
 48
50.0
100
AcDbBlockEnd
  0
BLOCK
  5
286F3
330
286E9
100
AcDbEntity
  8
0
 48
50.0
100
AcDbBlockBegin
  2
*D44
 70
     1
 10
0.0
 20
0.0
 30
0.0
  3
*D44
  1

  0
LINE
  5
28CB5
330
286E9
100
AcDbEntity
  8
寸法
 62
     0
 48
50.0
370
    -2
100
AcDbLine
 10
3761.600000000001
 20
7267.127836856909
 30
0.0
 11
3025.665006330072
 21
7267.127836856909
 31
0.0
  0
LINE
  5
28CB6
330
286E9
100
AcDbEntity
  8
寸法
 62
     0
 48
50.0
370
    -2
100
AcDbLine
 10
3761.600000000008
 20
6628.127836856913
 30
0.0
 11
3025.665006330072
 21
6628.127836856913
 31
0.0
  0
LINE
  5
28CB7
330
286E9
100
AcDbEntity
  8
寸法
 62
     0
 48
50.0
370
    -2
100
AcDbLine
 10
3085.665006330073
 20
7267.127836856909
 30
0.0
 11
3085.665006330073
 21
6628.127836856913
 31
0.0
  0
INSERT
  5
28CB8
330
286E9
100
AcDbEntity
  8
寸法
 62
     0
 48
50.0
370
    -2
100
AcDbBlockReference
  2
_DOTSMALL
 10
3085.665006330073
 20
7267.127836856909
 30
0.0
 41
100.0
 42
100.0
 43
100.0
 50
90.0
  0
INSERT
  5
28CB9
330
286E9
100
AcDbEntity
  8
寸法
 62
     0
 48
50.0
370
    -2
100
AcDbBlockReference
  2
_DOTSMALL
 10
3085.665006330073
 20
6628.127836856913
 30
0.0
 41
100.0
 42
100.0
 43
100.0
 50
270.0
  0
MTEXT
  5
28CBA
330
286E9
100
AcDbEntity
  8
寸法
 62
     7
 48
50.0
100
AcDbMText
 10
2985.665006330071
 20
6947.627836856909
 30
0.0
 40
120.0
 41
0.0
 71
     5
 72
     1
  1
\A1;639
  7
STYLE1
 11
0.0000000000000001
 21
1.0
 31
0.0
 73
     1
 44
1.0
1001
ACAD
1000
MTEXTBEGIN
1070
    73
1070
     1
1070
    44
1040
1.0
1070
    74
1070
     0
1000
MTEXTEND
  0
POINT
  5
28CBB
330
286E9
100
AcDbEntity
  8
DEFPOINTS
 62
     0
 48
50.0
100
AcDbPoint
 10
3781.6
 20
7267.127836856909
 30
0.0
  0
POINT
  5
28CBC
330
286E9
100
AcDbEntity
  8
DEFPOINTS
 62
     0
 48
50.0
100
AcDbPoint
 10
3781.600000000008
 20
6628.127836856913
 30
0.0
  0
POINT
  5
28CBD
330
286E9
100
AcDbEntity
  8
DEFPOINTS
 62
     0
 48
50.0
100
AcDbPoint
 10
3085.665006330073
 20
6628.127836856913
 30
0.0
  0
ENDBLK
  5
286F4
330
286E9
100
AcDbEntity
  8
0
 48
50.0
100
AcDbBlockEnd
  0
BLOCK
  5
286FF
330
286F5
100
AcDbEntity
  8
0
 48
50.0
100
AcDbBlockBegin
  2
*D45
 70
     1
 10
0.0
 20
0.0
 30
0.0
  3
*D45
  1

  0
LINE
  5
28C1E
330
286F5
100
AcDbEntity
  8
寸法
 62
     0
 48
50.0
370
    -2
100
AcDbLine
 10
3688.6
 20
7390.127836856909
 30
0.0
 11
2773.721909610674
 21
7390.127836856909
 31
0.0
  0
LINE
  5
28C1F
330
286F5
100
AcDbEntity
  8
寸法
 62
     0
 48
50.0
370
    -2
100
AcDbLine
 10
3688.6
 20
6430.127836856908
 30
0.0
 11
2773.721909610674
 21
6430.127836856908
 31
0.0
  0
LINE
  5
28C20
330
286F5
100
AcDbEntity
  8
寸法
 62
     0
 48
50.0
370
    -2
100
AcDbLine
 10
2833.721909610675
 20
7390.127836856909
 30
0.0
 11
2833.721909610673
 21
6430.127836856908
 31
0.0
  0
INSERT
  5
28C21
330
286F5
100
AcDbEntity
  8
寸法
 62
     0
 48
50.0
370
    -2
100
AcDbBlockReference
  2
_DOTSMALL
 10
2833.721909610675
 20
7390.127836856909
 30
0.0
 41
100.0
 42
100.0
 43
100.0
 50
90.0
  0
INSERT
  5
28C22
330
286F5
100
AcDbEntity
  8
寸法
 62
     0
 48
50.0
370
    -2
100
AcDbBlockReference
  2
_DOTSMALL
 10
2833.721909610673
 20
6430.127836856908
 30
0.0
 41
100.0
 42
100.0
 43
100.0
 50
270.0
  0
MTEXT
  5
28C23
330
286F5
100
AcDbEntity
  8
寸法
 62
     7
 48
50.0
100
AcDbMText
 10
2733.721909610673
 20
6947.627836856909
 30
0.0
 40
120.0
 41
0.0
 71
     5
 72
     1
  1
\A1;960
  7
STYLE1
 11
0.0000000000000001
 21
1.0
 31
0.0
 73
     1
 44
1.0
1001
ACAD
1000
MTEXTBEGIN
1070
    73
1070
     1
1070
    44
1040
1.0
1070
    74
1070
     0
1000
MTEXTEND
  0
POINT
  5
28C24
330
286F5
100
AcDbEntity
  8
DEFPOINTS
 62
     0
 48
50.0
100
AcDbPoint
 10
3708.600000000001
 20
7390.127836856909
 30
0.0
  0
POINT
  5
28C25
330
286F5
100
AcDbEntity
  8
DEFPOINTS
 62
     0
 48
50.0
100
AcDbPoint
 10
3708.600000000001
 20
6430.127836856908
 30
0.0
  0
POINT
  5
28C26
330
286F5
100
AcDbEntity
  8
DEFPOINTS
 62
     0
 48
50.0
100
AcDbPoint
 10
2833.721909610673
 20
6430.127836856908
 30
0.0
  0
ENDBLK
  5
28700
330
286F5
100
AcDbEntity
  8
0
 48
50.0
100
AcDbBlockEnd
  0
BLOCK
  5
2870C
330
28701
100
AcDbEntity
  8
0
 48
50.0
100
AcDbBlockBegin
  2
*D46
 70
     1
 10
0.0
 20
0.0
 30
0.0
  3
*D46
  1

  0
LINE
  5
28C39
330
28701
100
AcDbEntity
  8
寸法
 62
     0
 48
50.0
370
    -2
100
AcDbLine
 10
4262.765475140901
 20
6430.12783685692
 30
0.0
 11
4131.285990614302
 21
6430.12783685692
 31
0.0
  0
LINE
  5
28C3A
330
28701
100
AcDbEntity
  8
寸法
 62
     0
 48
50.0
370
    -2
100
AcDbLine
 10
4463.600000000007
 20
6910.12783685691
 30
0.0
 11
4131.285990614302
 21
6910.12783685691
 31
0.0
  0
LINE
  5
28C3B
330
28701
100
AcDbEntity
  8
寸法
 62
     0
 48
50.0
370
    -2
100
AcDbLine
 10
4191.285990614302
 20
6910.12783685691
 30
0.0
 11
4191.285990614302
 21
6430.12783685692
 31
0.0
  0
LINE
  5
28C3C
330
28701
100
AcDbEntity
  8
寸法
 62
     0
 48
50.0
370
    -2
100
AcDbLine
 10
4191.285990614302
 20
6430.12783685692
 30
0.0
 11
4191.285990614301
 21
5983.521537644321
 31
0.0
  0
INSERT
  5
28C3D
330
28701
100
AcDbEntity
  8
寸法
 62
     0
 48
50.0
370
    -2
100
AcDbBlockReference
  2
_DOTSMALL
 10
4191.285990614302
 20
6910.12783685691
 30
0.0
 41
100.0
 42
100.0
 43
100.0
 50
90.0
  0
INSERT
  5
28C3E
330
28701
100
AcDbEntity
  8
寸法
 62
     0
 48
50.0
370
    -2
100
AcDbBlockReference
  2
_DOTSMALL
 10
4191.285990614302
 20
6430.12783685692
 30
0.0
 41
100.0
 42
100.0
 43
100.0
 50
270.0
  0
MTEXT
  5
28C3F
330
28701
100
AcDbEntity
  8
寸法
 62
     7
 48
50.0
100
AcDbMText
 10
4091.2859906143
 20
6137.56878173881
 30
0.0
 40
120.0
 41
0.0
 71
     5
 72
     1
  1
\A1;480
  7
STYLE1
 11
0.0000000000000001
 21
1.0
 31
0.0
 73
     1
 44
1.0
1001
ACAD
1000
MTEXTBEGIN
1070
    73
1070
     1
1070
    44
1040
1.0
1070
    74
1070
     0
1000
MTEXTEND
  0
POINT
  5
28C40
330
28701
100
AcDbEntity
  8
DEFPOINTS
 62
     0
 48
50.0
100
AcDbPoint
 10
4282.765475140901
 20
6430.12783685692
 30
0.0
  0
POINT
  5
28C41
330
28701
100
AcDbEntity
  8
DEFPOINTS
 62
     0
 48
50.0
100
AcDbPoint
 10
4483.600000000008
 20
6910.12783685691
 30
0.0
  0
POINT
  5
28C42
330
28701
100
AcDbEntity
  8
DEFPOINTS
 62
     0
 48
50.0
100
AcDbPoint
 10
4191.285990614302
 20
6910.12783685691
 30
0.0
  0
ENDBLK
  5
2870D
330
28701
100
AcDbEntity
  8
0
 48
50.0
100
AcDbBlockEnd
  0
BLOCK
  5
28718
330
2870E
100
AcDbEntity
  8
0
 48
50.0
100
AcDbBlockBegin
  2
*D47
 70
     1
 10
0.0
 20
0.0
 30
0.0
  3
*D47
  1

  0
LINE
  5
28C30
330
2870E
100
AcDbEntity
  8
寸法
 62
     0
 48
50.0
370
    -2
100
AcDbLine
 10
3688.600000000004
 20
6430.127836856906
 30
0.0
 11
3535.512673767883
 21
6430.127836856906
 31
0.0
  0
LINE
  5
28C31
330
2870E
100
AcDbEntity
  8
寸法
 62
     0
 48
50.0
370
    -2
100
AcDbLine
 10
4044.325326928809
 20
5710.127836856905
 30
0.0
 11
3535.512673767883
 21
5710.127836856905
 31
0.0
  0
LINE
  5
28C32
330
2870E
100
AcDbEntity
  8
寸法
 62
     0
 48
50.0
370
    -2
100
AcDbLine
 10
3595.512673767883
 20
6430.127836856906
 30
0.0
 11
3595.512673767883
 21
5710.127836856905
 31
0.0
  0
INSERT
  5
28C33
330
2870E
100
AcDbEntity
  8
寸法
 62
     0
 48
50.0
370
    -2
100
AcDbBlockReference
  2
_DOTSMALL
 10
3595.512673767883
 20
6430.127836856906
 30
0.0
 41
100.0
 42
100.0
 43
100.0
 50
90.0
  0
INSERT
  5
28C34
330
2870E
100
AcDbEntity
  8
寸法
 62
     0
 48
50.0
370
    -2
100
AcDbBlockReference
  2
_DOTSMALL
 10
3595.512673767883
 20
5710.127836856905
 30
0.0
 41
100.0
 42
100.0
 43
100.0
 50
270.0
  0
MTEXT
  5
28C35
330
2870E
100
AcDbEntity
  8
寸法
 62
     7
 48
50.0
100
AcDbMText
 10
3495.50086274426
 20
6070.127836856906
 30
0.0
 40
120.0
 41
0.0
 71
     5
 72
     1
  1
\A1;扉の出720
  7
STYLE1
 11
0.0000000000000001
 21
1.0
 31
0.0
 73
     1
 44
1.0
1001
ACAD
1000
MTEXTBEGIN
1070
    73
1070
     1
1070
    44
1040
1.0
1070
    74
1070
     0
1000
MTEXTEND
  0
POINT
  5
28C36
330
2870E
100
AcDbEntity
  8
DEFPOINTS
 62
     0
 48
50.0
100
AcDbPoint
 10
3708.600000000004
 20
6430.127836856906
 30
0.0
  0
POINT
  5
28C37
330
2870E
100
AcDbEntity
  8
DEFPOINTS
 62
     0
 48
50.0
100
AcDbPoint
 10
4064.325326928808
 20
5710.127836856905
 30
0.0
  0
POINT
  5
28C38
330
2870E
100
AcDbEntity
  8
DEFPOINTS
 62
     0
 48
50.0
100
AcDbPoint
 10
3595.512673767883
 20
5710.127836856905
 30
0.0
  0
ENDBLK
  5
28719
330
2870E
100
AcDbEntity
  8
0
 48
50.0
100
AcDbBlockEnd
  0
BLOCK
  5
28725
330
2871A
100
AcDbEntity
  8
0
 48
50.0
100
AcDbBlockBegin
  2
*D48
 70
     1
 10
0.0
 20
0.0
 30
0.0
  3
*D48
  1

  0
LINE
  5
28CAB
330
2871A
100
AcDbEntity
  8
寸法
 62
     0
 48
50.0
370
    -2
100
AcDbLine
 10
3761.600000000008
 20
6628.127836856913
 30
0.0
 11
3025.665006330072
 21
6628.127836856913
 31
0.0
  0
LINE
  5
28CAC
330
2871A
100
AcDbEntity
  8
寸法
 62
     0
 48
50.0
370
    -2
100
AcDbLine
 10
3688.6
 20
6430.127836856908
 30
0.0
 11
3025.665006330072
 21
6430.127836856908
 31
0.0
  0
LINE
  5
28CAD
330
2871A
100
AcDbEntity
  8
寸法
 62
     0
 48
50.0
370
    -2
100
AcDbLine
 10
3085.665006330073
 20
6628.127836856913
 30
0.0
 11
3085.665006330073
 21
6430.127836856908
 31
0.0
  0
LINE
  5
28CAE
330
2871A
100
AcDbEntity
  8
寸法
 62
     0
 48
50.0
370
    -2
100
AcDbLine
 10
3085.665006330073
 20
6430.127836856908
 30
0.0
 11
3085.665006330073
 21
5958.387228184659
 31
0.0
  0
INSERT
  5
28CAF
330
2871A
100
AcDbEntity
  8
寸法
 62
     0
 48
50.0
370
    -2
100
AcDbBlockReference
  2
_DOTSMALL
 10
3085.665006330073
 20
6628.127836856913
 30
0.0
 41
100.0
 42
100.0
 43
100.0
 50
90.0
  0
INSERT
  5
28CB0
330
2871A
100
AcDbEntity
  8
寸法
 62
     0
 48
50.0
370
    -2
100
AcDbBlockReference
  2
_DOTSMALL
 10
3085.665006330073
 20
6430.127836856908
 30
0.0
 41
100.0
 42
100.0
 43
100.0
 50
270.0
  0
MTEXT
  5
28CB1
330
2871A
100
AcDbEntity
  8
寸法
 62
     7
 48
50.0
100
AcDbMText
 10
2985.665006330071
 20
6094.596888014318
 30
0.0
 40
120.0
 41
0.0
 71
     5
 72
     1
  1
\A1;198
  7
STYLE1
 11
0.0000000000000001
 21
1.0
 31
0.0
 73
     1
 44
1.0
1001
ACAD
1000
MTEXTBEGIN
1070
    73
1070
     1
1070
    44
1040
1.0
1070
    74
1070
     0
1000
MTEXTEND
  0
POINT
  5
28CB2
330
2871A
100
AcDbEntity
  8
DEFPOINTS
 62
     0
 48
50.0
100
AcDbPoint
 10
3781.600000000008
 20
6628.127836856913
 30
0.0
  0
POINT
  5
28CB3
330
2871A
100
AcDbEntity
  8
DEFPOINTS
 62
     0
 48
50.0
100
AcDbPoint
 10
3708.600000000001
 20
6430.127836856908
 30
0.0
  0
POINT
  5
28CB4
330
2871A
100
AcDbEntity
  8
DEFPOINTS
 62
     0
 48
50.0
100
AcDbPoint
 10
3085.665006330073
 20
6430.127836856908
 30
0.0
  0
ENDBLK
  5
28726
330
2871A
100
AcDbEntity
  8
0
 48
50.0
100
AcDbBlockEnd
  0
BLOCK
  5
28FEC
330
28FE2
100
AcDbEntity
  8
0
 48
50.0
100
AcDbBlockBegin
  2
*D49
 70
     1
 10
0.0
 20
0.0
 30
0.0
  3
*D49
  1

  0
LINE
  5
2902C
330
28FE2
100
AcDbEntity
  8
寸法
 62
     0
 48
50.0
370
    -2
100
AcDbLine
 10
8266.8289053542
 20
1969.227543845381
 30
0.0
 11
8808.697505123044
 21
1969.227543845381
 31
0.0
  0
LINE
  5
2902D
330
28FE2
100
AcDbEntity
  8
寸法
 62
     0
 48
50.0
370
    -2
100
AcDbLine
 10
8266.8289053542
 20
1645.22754384538
 30
0.0
 11
8808.697505123044
 21
1645.22754384538
 31
0.0
  0
LINE
  5
2902E
330
28FE2
100
AcDbEntity
  8
寸法
 62
     0
 48
50.0
370
    -2
100
AcDbLine
 10
8748.697505123045
 20
1969.227543845381
 30
0.0
 11
8748.697505123045
 21
1645.22754384538
 31
0.0
  0
INSERT
  5
2902F
330
28FE2
100
AcDbEntity
  8
寸法
 62
     0
 48
50.0
370
    -2
100
AcDbBlockReference
  2
_DOTSMALL
 10
8748.697505123045
 20
1969.227543845381
 30
0.0
 41
100.0
 42
100.0
 43
100.0
 50
90.0
  0
INSERT
  5
29030
330
28FE2
100
AcDbEntity
  8
寸法
 62
     0
 48
50.0
370
    -2
100
AcDbBlockReference
  2
_DOTSMALL
 10
8748.697505123045
 20
1645.22754384538
 30
0.0
 41
100.0
 42
100.0
 43
100.0
 50
270.0
  0
MTEXT
  5
29031
330
28FE2
100
AcDbEntity
  8
寸法
 62
     7
 48
50.0
100
AcDbMText
 10
8648.697505123044
 20
1807.227543845382
 30
0.0
 40
120.0
 41
0.0
 71
     5
 72
     1
  1
\A1;180
  7
STYLE1
 11
0.0000000000000001
 21
1.0
 31
0.0
 73
     1
 44
1.0
1001
ACAD
1000
MTEXTBEGIN
1070
    73
1070
     1
1070
    44
1040
1.0
1070
    74
1070
     0
1000
MTEXTEND
  0
POINT
  5
29032
330
28FE2
100
AcDbEntity
  8
DEFPOINTS
 62
     0
 48
50.0
100
AcDbPoint
 10
8246.828905354199
 20
1969.227543845381
 30
0.0
  0
POINT
  5
29033
330
28FE2
100
AcDbEntity
  8
DEFPOINTS
 62
     0
 48
50.0
100
AcDbPoint
 10
8246.828905354199
 20
1645.22754384538
 30
0.0
  0
POINT
  5
29034
330
28FE2
100
AcDbEntity
  8
DEFPOINTS
 62
     0
 48
50.0
100
AcDbPoint
 10
8748.697505123045
 20
1645.22754384538
 30
0.0
  0
ENDBLK
  5
28FED
330
28FE2
100
AcDbEntity
  8
0
 48
50.0
100
AcDbBlockEnd
  0
BLOCK
  5
28FFA
330
28FEE
100
AcDbEntity
  8
0
 48
50.0
100
AcDbBlockBegin
  2
*D50
 70
     1
 10
0.0
 20
0.0
 30
0.0
  3
*D50
  1

  0
LINE
  5
29035
330
28FEE
100
AcDbEntity
  8
寸法
 62
     0
 48
50.0
370
    -2
100
AcDbLine
 10
8079.628905354201
 20
2021.987543845383
 30
0.0
 11
9084.752171242071
 21
2021.987543845383
 31
0.0
  0
LINE
  5
29036
330
28FEE
100
AcDbEntity
  8
寸法
 62
     0
 48
50.0
370
    -2
100
AcDbLine
 10
8266.8289053542
 20
1969.227543845381
 30
0.0
 11
9084.752171242071
 21
1969.227543845381
 31
0.0
  0
LINE
  5
29037
330
28FEE
100
AcDbEntity
  8
寸法
 62
     0
 48
50.0
370
    -2
100
AcDbLine
 10
9024.752171242072
 20
2021.987543845383
 30
0.0
 11
9024.752171242072
 21
2121.987543845383
 31
0.0
  0
LINE
  5
29038
330
28FEE
100
AcDbEntity
  8
寸法
 62
     0
 48
50.0
370
    -2
100
AcDbLine
 10
9024.752171242072
 20
1969.227543845381
 30
0.0
 11
9024.752171242072
 21
1237.209737002415
 31
0.0
  0
LINE
  5
29039
330
28FEE
100
AcDbEntity
  8
寸法
 62
     0
 48
50.0
370
    -2
100
AcDbLine
 10
9024.752171242072
 20
2021.987543845383
 30
0.0
 11
9024.752171242072
 21
1969.227543845381
 31
0.0
  0
INSERT
  5
2903A
330
28FEE
100
AcDbEntity
  8
寸法
 62
     0
 48
50.0
370
    -2
100
AcDbBlockReference
  2
_DOTSMALL
 10
9024.752171242072
 20
2021.987543845383
 30
0.0
 41
100.0
 42
100.0
 43
100.0
 50
270.0
  0
INSERT
  5
2903B
330
28FEE
100
AcDbEntity
  8
寸法
 62
     0
 48
50.0
370
    -2
100
AcDbBlockReference
  2
_DOTSMALL
 10
9024.752171242072
 20
1969.227543845381
 30
0.0
 41
100.0
 42
100.0
 43
100.0
 50
90.0
  0
MTEXT
  5
2903C
330
28FEE
100
AcDbEntity
  8
寸法
 62
     7
 48
50.0
100
AcDbMText
 10
8924.740360218448
 20
1503.218640423899
 30
0.0
 40
120.0
 41
0.0
 71
     5
 72
     1
  1
\A1;20～25
  7
STYLE1
 11
0.0000000000000001
 21
1.0
 31
0.0
 73
     1
 44
1.0
1001
ACAD
1000
MTEXTBEGIN
1070
    73
1070
     1
1070
    44
1040
1.0
1070
    74
1070
     0
1000
MTEXTEND
  0
POINT
  5
2903D
330
28FEE
100
AcDbEntity
  8
DEFPOINTS
 62
     0
 48
50.0
100
AcDbPoint
 10
8059.6289053542
 20
2021.987543845383
 30
0.0
  0
POINT
  5
2903E
330
28FEE
100
AcDbEntity
  8
DEFPOINTS
 62
     0
 48
50.0
100
AcDbPoint
 10
8246.828905354199
 20
1969.227543845381
 30
0.0
  0
POINT
  5
2903F
330
28FEE
100
AcDbEntity
  8
DEFPOINTS
 62
     0
 48
50.0
100
AcDbPoint
 10
9024.752171242072
 20
1969.227543845381
 30
0.0
  0
ENDBLK
  5
28FFB
330
28FEE
100
AcDbEntity
  8
0
 48
50.0
100
AcDbBlockEnd
  0
BLOCK
  5
29006
330
28FFC
100
AcDbEntity
  8
0
 48
50.0
100
AcDbBlockBegin
  2
*D51
 70
     1
 10
0.0
 20
0.0
 30
0.0
  3
*D51
  1

  0
LINE
  5
29040
330
28FFC
100
AcDbEntity
  8
寸法
 62
     0
 48
50.0
370
    -2
100
AcDbLine
 10
5984.789592177006
 20
1425.227543845381
 30
0.0
 11
5802.369278444547
 21
1425.227543845381
 31
0.0
  0
LINE
  5
29041
330
28FFC
100
AcDbEntity
  8
寸法
 62
     0
 48
50.0
370
    -2
100
AcDbLine
 10
5904.78959217701
 20
1185.227543845381
 30
0.0
 11
5802.369278444547
 21
1185.227543845381
 31
0.0
  0
LINE
  5
29042
330
28FFC
100
AcDbEntity
  8
寸法
 62
     0
 48
50.0
370
    -2
100
AcDbLine
 10
5862.369278444546
 20
1425.227543845381
 30
0.0
 11
5862.369278444546
 21
1185.227543845381
 31
0.0
  0
INSERT
  5
29043
330
28FFC
100
AcDbEntity
  8
寸法
 62
     0
 48
50.0
370
    -2
100
AcDbBlockReference
  2
_DOTSMALL
 10
5862.369278444546
 20
1425.227543845381
 30
0.0
 41
100.0
 42
100.0
 43
100.0
 50
90.0
  0
INSERT
  5
29044
330
28FFC
100
AcDbEntity
  8
寸法
 62
     0
 48
50.0
370
    -2
100
AcDbBlockReference
  2
_DOTSMALL
 10
5862.369278444546
 20
1185.227543845381
 30
0.0
 41
100.0
 42
100.0
 43
100.0
 50
270.0
  0
MTEXT
  5
29045
330
28FFC
100
AcDbEntity
  8
寸法
 62
     7
 48
50.0
100
AcDbMText
 10
5762.369278444547
 20
1305.227543845382
 30
0.0
 40
120.0
 41
0.0
 71
     5
 72
     1
  1
\A1;150
  7
STYLE1
 11
0.0000000000000001
 21
1.0
 31
0.0
 73
     1
 44
1.0
1001
ACAD
1000
MTEXTBEGIN
1070
    73
1070
     1
1070
    44
1040
1.0
1070
    74
1070
     0
1000
MTEXTEND
  0
POINT
  5
29046
330
28FFC
100
AcDbEntity
  8
DEFPOINTS
 62
     0
 48
50.0
100
AcDbPoint
 10
6004.789592177006
 20
1425.227543845381
 30
0.0
  0
POINT
  5
29047
330
28FFC
100
AcDbEntity
  8
DEFPOINTS
 62
     0
 48
50.0
100
AcDbPoint
 10
5924.78959217701
 20
1185.227543845381
 30
0.0
  0
POINT
  5
29048
330
28FFC
100
AcDbEntity
  8
DEFPOINTS
 62
     0
 48
50.0
100
AcDbPoint
 10
5862.369278444546
 20
1185.227543845381
 30
0.0
  0
ENDBLK
  5
29007
330
28FFC
100
AcDbEntity
  8
0
 48
50.0
100
AcDbBlockEnd
  0
BLOCK
  5
29012
330
29008
100
AcDbEntity
  8
0
 48
50.0
100
AcDbBlockBegin
  2
*D52
 70
     1
 10
0.0
 20
0.0
 30
0.0
  3
*D52
  1

  0
LINE
  5
29049
330
29008
100
AcDbEntity
  8
寸法
 62
     0
 48
50.0
370
    -2
100
AcDbLine
 10
6112.789592177006
 20
1969.227543845381
 30
0.0
 11
5337.752353615266
 21
1969.227543845382
 31
0.0
  0
LINE
  5
2904A
330
29008
100
AcDbEntity
  8
寸法
 62
     0
 48
50.0
370
    -2
100
AcDbLine
 10
5904.78959217701
 20
1185.227543845381
 30
0.0
 11
5337.752353615266
 21
1185.227543845382
 31
0.0
  0
LINE
  5
2904B
330
29008
100
AcDbEntity
  8
寸法
 62
     0
 48
50.0
370
    -2
100
AcDbLine
 10
5397.752353615266
 20
1969.227543845382
 30
0.0
 11
5397.752353615266
 21
1185.227543845382
 31
0.0
  0
INSERT
  5
2904C
330
29008
100
AcDbEntity
  8
寸法
 62
     0
 48
50.0
370
    -2
100
AcDbBlockReference
  2
_DOTSMALL
 10
5397.752353615266
 20
1969.227543845382
 30
0.0
 41
100.0
 42
100.0
 43
100.0
 50
90.0
  0
INSERT
  5
2904D
330
29008
100
AcDbEntity
  8
寸法
 62
     0
 48
50.0
370
    -2
100
AcDbBlockReference
  2
_DOTSMALL
 10
5397.752353615266
 20
1185.227543845382
 30
0.0
 41
100.0
 42
100.0
 43
100.0
 50
270.0
  0
MTEXT
  5
2904E
330
29008
100
AcDbEntity
  8
寸法
 62
     7
 48
50.0
100
AcDbMText
 10
5297.752353615265
 20
1556.767693501382
 30
0.0
 40
120.0
 41
0.0
 71
     5
 72
     1
  1
\A1;540
  7
STYLE1
 11
0.0000000000000001
 21
1.0
 31
0.0
 73
     1
 44
1.0
1001
ACAD
1000
MTEXTBEGIN
1070
    73
1070
     1
1070
    44
1040
1.0
1070
    74
1070
     0
1000
MTEXTEND
  0
POINT
  5
2904F
330
29008
100
AcDbEntity
  8
DEFPOINTS
 62
     0
 48
50.0
100
AcDbPoint
 10
6132.789592177005
 20
1969.227543845381
 30
0.0
  0
POINT
  5
29050
330
29008
100
AcDbEntity
  8
DEFPOINTS
 62
     0
 48
50.0
100
AcDbPoint
 10
5924.78959217701
 20
1185.227543845381
 30
0.0
  0
POINT
  5
29051
330
29008
100
AcDbEntity
  8
DEFPOINTS
 62
     0
 48
50.0
100
AcDbPoint
 10
5397.752353615266
 20
1185.227543845382
 30
0.0
  0
ENDBLK
  5
29013
330
29008
100
AcDbEntity
  8
0
 48
50.0
100
AcDbBlockEnd
  0
BLOCK
  5
2901E
330
29014
100
AcDbEntity
  8
0
 48
50.0
100
AcDbBlockBegin
  2
*D53
 70
     1
 10
0.0
 20
0.0
 30
0.0
  3
*D53
  1

  0
LINE
  5
29052
330
29014
100
AcDbEntity
  8
寸法
 62
     0
 48
50.0
370
    -2
100
AcDbLine
 10
6004.789592177006
 20
1037.227543845381
 30
0.0
 11
6004.789592177006
 21
586.7979058402215
 31
0.0
  0
LINE
  5
29053
330
29014
100
AcDbEntity
  8
寸法
 62
     0
 48
50.0
370
    -2
100
AcDbLine
 10
6452.789592177007
 20
1037.227543845381
 30
0.0
 11
6452.789592177007
 21
586.7979058402215
 31
0.0
  0
LINE
  5
29054
330
29014
100
AcDbEntity
  8
寸法
 62
     0
 48
50.0
370
    -2
100
AcDbLine
 10
6004.789592177006
 20
646.7979058402216
 30
0.0
 11
6452.789592177007
 21
646.7979058402216
 31
0.0
  0
INSERT
  5
29055
330
29014
100
AcDbEntity
  8
寸法
 62
     0
 48
50.0
370
    -2
100
AcDbBlockReference
  2
_DOTSMALL
 10
6004.789592177006
 20
646.7979058402216
 30
0.0
 41
100.0
 42
100.0
 43
100.0
 50
180.0
  0
INSERT
  5
29056
330
29014
100
AcDbEntity
  8
寸法
 62
     0
 48
50.0
370
    -2
100
AcDbBlockReference
  2
_DOTSMALL
 10
6452.789592177007
 20
646.7979058402216
 30
0.0
 41
100.0
 42
100.0
 43
100.0
  0
MTEXT
  5
29057
330
29014
100
AcDbEntity
  8
寸法
 62
     7
 48
50.0
100
AcDbMText
 10
6208.692833498782
 20
746.7979058402216
 30
0.0
 40
120.0
 41
0.0
 71
     5
 72
     1
  1
\A1;300
  7
STYLE1
 73
     1
 44
1.0
1001
ACAD
1000
MTEXTBEGIN
1070
    73
1070
     1
1070
    44
1040
1.0
1070
    74
1070
     0
1000
MTEXTEND
  0
POINT
  5
29058
330
29014
100
AcDbEntity
  8
DEFPOINTS
 62
     0
 48
50.0
100
AcDbPoint
 10
6004.789592177006
 20
1057.227543845381
 30
0.0
  0
POINT
  5
29059
330
29014
100
AcDbEntity
  8
DEFPOINTS
 62
     0
 48
50.0
100
AcDbPoint
 10
6452.789592177007
 20
1057.227543845381
 30
0.0
  0
POINT
  5
2905A
330
29014
100
AcDbEntity
  8
DEFPOINTS
 62
     0
 48
50.0
100
AcDbPoint
 10
6452.789592177007
 20
646.7979058402216
 30
0.0
  0
ENDBLK
  5
2901F
330
29014
100
AcDbEntity
  8
0
 48
50.0
100
AcDbBlockEnd
  0
BLOCK
  5
2902A
330
29020
100
AcDbEntity
  8
0
 48
50.0
100
AcDbBlockBegin
  2
*D54
 70
     1
 10
0.0
 20
0.0
 30
0.0
  3
*D54
  1

  0
LINE
  5
2905B
330
29020
100
AcDbEntity
  8
寸法
 62
     0
 48
50.0
370
    -2
100
AcDbLine
 10
6324.789592177006
 20
1989.227543845382
 30
0.0
 11
6324.789592177006
 21
2448.895351761762
 31
0.0
  0
LINE
  5
2905C
330
29020
100
AcDbEntity
  8
寸法
 62
     0
 48
50.0
370
    -2
100
AcDbLine
 10
6132.789592177005
 20
1989.227543845382
 30
0.0
 11
6132.789592177005
 21
2448.895351761762
 31
0.0
  0
LINE
  5
2905D
330
29020
100
AcDbEntity
  8
寸法
 62
     0
 48
50.0
370
    -2
100
AcDbLine
 10
6324.789592177006
 20
2388.895351761762
 30
0.0
 11
6132.789592177005
 21
2388.895351761762
 31
0.0
  0
INSERT
  5
2905E
330
29020
100
AcDbEntity
  8
寸法
 62
     0
 48
50.0
370
    -2
100
AcDbBlockReference
  2
_DOTSMALL
 10
6324.789592177006
 20
2388.895351761762
 30
0.0
 41
100.0
 42
100.0
 43
100.0
  0
INSERT
  5
2905F
330
29020
100
AcDbEntity
  8
寸法
 62
     0
 48
50.0
370
    -2
100
AcDbBlockReference
  2
_DOTSMALL
 10
6132.789592177005
 20
2388.895351761762
 30
0.0
 41
100.0
 42
100.0
 43
100.0
 50
180.0
  0
MTEXT
  5
29060
330
29020
100
AcDbEntity
  8
寸法
 62
     7
 48
50.0
100
AcDbMText
 10
6228.789592177006
 20
2688.930784832628
 30
0.0
 40
120.0
 41
0.0
 71
     5
 72
     1
  1
\A1;120\P200\P280
  7
STYLE1
 73
     1
 44
1.0
1001
ACAD
1000
MTEXTBEGIN
1070
    73
1070
     1
1070
    44
1040
1.0
1070
    74
1070
     0
1000
MTEXTEND
  0
POINT
  5
29061
330
29020
100
AcDbEntity
  8
DEFPOINTS
 62
     0
 48
50.0
100
AcDbPoint
 10
6324.789592177006
 20
1969.227543845381
 30
0.0
  0
POINT
  5
29062
330
29020
100
AcDbEntity
  8
DEFPOINTS
 62
     0
 48
50.0
100
AcDbPoint
 10
6132.789592177005
 20
1969.227543845381
 30
0.0
  0
POINT
  5
29063
330
29020
100
AcDbEntity
  8
DEFPOINTS
 62
     0
 48
50.0
100
AcDbPoint
 10
6132.789592177005
 20
2388.895351761762
 30
0.0
  0
ENDBLK
  5
2902B
330
29020
100
AcDbEntity
  8
0
 48
50.0
100
AcDbBlockEnd
  0
ENDSEC
  0
SECTION
  2
ENTITIES
  0
MTEXT
  5
763F
330
747D
100
AcDbEntity
  8
0
100
AcDbMText
 10
302.846345836809
 20
280.1983726409901
 30
0.0
 40
3.5
 41
5.323721266742722
 71
     1
 72
     5
  1

  7
MSMINCHO
 73
     1
 44
1.0
1001
ACAD
1000
MTEXTBEGIN
1070
    73
1070
     1
1070
    44
1040
1.0
1070
    74
1070
     0
1000
MTEXTEND
  0
LINE
  5
10B57
330
747D
100
AcDbEntity
  8
補助
  6
PHANTOM
 62
   230
 48
50.0
100
AcDbLine
 10
139.9999999999995
 20
11409.6
 30
0.0
 11
16307.2
 21
11409.6
 31
0.0
  0
LINE
  5
10B59
330
747D
100
AcDbEntity
  8
仕様書枠
  6
Continuous
 48
50.0
100
AcDbLine
 10
13107.2
 20
1200.0
 30
0.0
 11
13107.2
 21
-0.0000000000000729
 31
0.0
  0
LINE
  5
10B5D
330
747D
100
AcDbEntity
  8
仕様書枠
 48
50.0
100
AcDbLine
 10
140.0
 20
0.0
 30
0.0
 11
16307.2
 21
-0.0000000000000909
 31
0.0
  0
LINE
  5
10B5E
330
747D
100
AcDbEntity
  8
補助
  6
PHANTOM
 62
   230
 48
50.0
100
AcDbLine
 10
16307.2
 20
11409.6
 30
0.0
 11
16307.2
 21
1200.0
 31
0.0
  0
LINE
  5
10B6C
330
747D
100
AcDbEntity
  8
仕様書枠
 48
50.0
100
AcDbLine
 10
13107.2
 20
1200.0
 30
0.0
 11
16307.2
 21
1200.0
 31
0.0
  0
TEXT
  5
10B73
330
747D
100
AcDbEntity
  8
文字
 62
     7
 48
50.0
100
AcDbText
 10
13162.9790565769
 20
895.0906074299405
 30
0.0
 40
200.0
  1
基 礎 図
  7
STYLE2
100
AcDbText
  0
LINE
  5
10B7B
330
747D
100
AcDbEntity
  8
仕様書枠
 48
50.0
100
AcDbLine
 10
13107.2
 20
800.0
 30
0.0
 11
14251.2
 21
800.0
 31
0.0
  0
LINE
  5
10B88
330
747D
100
AcDbEntity
  8
仕様書枠
  6
Continuous
 48
50.0
100
AcDbLine
 10
14251.2
 20
1200.0
 30
0.0
 11
14251.2
 21
800.0
 31
0.0
  0
LINE
  5
16462
330
747D
100
AcDbEntity
  8
仕様書枠
 48
50.0
100
AcDbLine
 10
16307.2
 20
1200.0
 30
0.0
 11
16307.2
 21
-0.0000000000000909
 31
0.0
  0
LINE
  5
1903B
330
747D
100
AcDbEntity
  8
補助
  6
PHANTOM
 62
   230
 48
50.0
100
AcDbLine
 10
140.0
 20
0.0
 30
0.0
 11
139.9999999999995
 21
11409.6
 31
0.0
  0
LEADER
  5
1AC27
330
747D
100
AcDbEntity
  8
寸法
 48
50.0
100
AcDbLeader
  3
INABA_S50G
 73
     0
 74
     0
 75
     1
 40
120.0
 41
720.0000000000001
 76
     3
 10
12738.69549961499
 20
6994.231288044101
 30
0.0
 10
12895.46907400128
 20
6733.217374476268
 30
0.0
 10
13020.46907400128
 20
6733.217374476268
 30
0.0
340
1AC28
1001
ACAD
1000
DSTYLE
1002
{
1070
   341
1005
0
1070
    40
1040
1.0
1070
   343
1005
0
1070
   344
1005
0
1002
}
  0
MTEXT
  5
1AC28
102
{ACAD_REACTORS
330
1AC27
102
}
330
747D
100
AcDbEntity
  8
部品1
 62
     7
 48
50.0
100
AcDbMText
 10
13765.46907400128
 20
6818.217374476269
 30
0.0
 40
120.0
 41
0.0
 71
     6
 72
     1
  1
\A1;床下換気口
  7
STYLE1
 73
     1
 44
1.0
1001
ACAD
1000
MTEXTBEGIN
1070
    73
1070
     1
1070
    44
1040
1.0
1070
    74
1070
     0
1000
MTEXTEND
  0
TEXT
  5
1AC29
330
747D
100
AcDbEntity
  8
部品1
 48
50.0
100
AcDbText
 10
13087.43013846117
 20
6155.036935520142
 30
0.0
 40
80.0
  1
(a=45,b=55,c=75)
  7
STYLE1
100
AcDbText
  0
TEXT
  5
1AC2A
330
747D
100
AcDbEntity
  8
部品1
 48
50.0
100
AcDbText
 10
12928.85112970687
 20
6261.882156388896
 30
0.0
 40
80.0
  1
※a,b,cは屋根の出幅です。
  7
STYLE1
100
AcDbText
  0
MTEXT
  5
1AC2B
102
{ACAD_REACTORS
330
1AC2C
102
}
330
747D
100
AcDbEntity
  8
部品1
 62
     7
 48
50.0
100
AcDbMText
 10
13726.63832569548
 20
6441.192843321971
 30
0.0
 40
120.0
 41
0.0
 71
     6
 72
     1
  1
\A1;屋根の外寸
  7
STYLE1
 73
     1
 44
1.0
1001
ACAD
1000
MTEXTBEGIN
1070
    73
1070
     1
1070
    44
1040
1.0
1070
    74
1070
     0
1000
MTEXTEND
  0
LEADER
  5
1AC2C
330
747D
100
AcDbEntity
  8
寸法
 48
50.0
100
AcDbLeader
  3
INABA_S50G
 73
     0
 74
     0
 75
     1
 40
120.0
 41
672.0
 76
     3
 10
12788.69831350344
 20
6615.082186785547
 30
0.0
 10
12904.63832569548
 20
6356.192843321971
 30
0.0
 10
13029.63832569548
 20
6356.192843321971
 30
0.0
340
1AC2B
1001
ACAD
1000
DSTYLE
1002
{
1070
   341
1005
0
1070
    40
1040
1.0
1070
   343
1005
0
1070
   344
1005
0
1002
}
  0
TEXT
  5
1C7A1
330
747D
100
AcDbEntity
  8
文字
 62
     7
 48
50.0
100
AcDbText
 10
13188.16259899338
 20
79.80631269190417
 30
0.0
 40
80.0
  1
※布基礎には換気口を設けてください。
  7
STYLE2
100
AcDbText
  0
TEXT
  5
1C7E7
330
747D
100
AcDbEntity
  8
文字
 62
     7
 48
50.0
100
AcDbText
 10
13188.16259899338
 20
246.7109242801889
 30
0.0
 40
80.0
  1
※寒冷地等は地域の実情に合わせた基礎にして下さい。
  7
STYLE2
100
AcDbText
  0
TEXT
  5
1C7EC
330
747D
100
AcDbEntity
  8
文字
 62
     7
 48
50.0
100
AcDbText
 10
14524.131837222
 20
1031.557706291229
 30
0.0
 40
100.0
  1
<縮尺> S=1/40
  7
STYLE2
100
AcDbText
  0
TEXT
  5
1C7ED
330
747D
100
AcDbEntity
  8
文字
 62
     7
 48
50.0
100
AcDbText
 10
13201.43669998441
 20
477.2740661031257
 30
0.0
 40
160.0
  1
機種名
  7
STYLE2
100
AcDbText
  0
LINE
  5
1C7EF
330
747D
100
AcDbEntity
  8
文字
 62
     7
 48
50.0
100
AcDbLine
 10
13187.2
 20
400.0
 30
0.0
 11
16227.2
 21
400.0
 31
0.0
  0
MTEXT
  5
1D2D5
102
{ACAD_REACTORS
330
1D2D6
102
}
330
747D
100
AcDbEntity
  8
部品1
 62
     7
 48
50.0
100
AcDbMText
 10
13933.99523070988
 20
7705.740581099438
 30
0.0
 40
120.0
 41
0.0
 71
     6
 72
     1
  1
アンカーボルト
  7
STYLE1
 73
     1
 44
1.0
1001
ACAD
1000
MTEXTBEGIN
1070
    73
1070
     1
1070
    44
1040
1.0
1070
    74
1070
     0
1000
MTEXTEND
  0
LEADER
  5
1D2D6
330
747D
100
AcDbEntity
  8
寸法
 48
50.0
100
AcDbLeader
  3
INABA_S50G
 73
     0
 74
     0
 75
     1
 40
120.0
 41
994.3492424049171
 76
     3
 10
12615.680085757
 20
7267.335681215641
 30
0.0
 10
12789.64598830496
 20
7620.740581099439
 30
0.0
 10
12914.64598830496
 20
7620.740581099439
 30
0.0
340
1D2D5
1001
ACAD
1000
DSTYLE
1002
{
1070
   341
1005
0
1070
    40
1040
1.0
1070
   343
1005
0
1070
   344
1005
0
1002
}
  0
MTEXT
  5
1D332
102
{ACAD_REACTORS
330
1D333
102
}
330
747D
100
AcDbEntity
  8
部品1
 62
     7
 48
50.0
100
AcDbMText
 10
12428.82869701569
 20
6831.633196537615
 30
0.0
 40
120.0
 41
0.0
 71
     6
 72
     1
  1
CB
  7
STYLE1
 73
     1
 44
1.0
1001
ACAD
1000
MTEXTBEGIN
1070
    73
1070
     1
1070
    44
1040
1.0
1070
    74
1070
     0
1000
MTEXTEND
  0
LEADER
  5
1D333
330
747D
100
AcDbEntity
  8
寸法
 48
50.0
100
AcDbLeader
  3
INABA_S50G
 73
     0
 74
     0
 75
     1
 40
120.0
 41
149.591883092037
 76
     3
 10
12001.95401106101
 20
6969.35151009244
 30
0.0
 10
12129.23681392366
 20
6746.633196537615
 30
0.0
 10
12254.23681392366
 20
6746.633196537615
 30
0.0
340
1D332
1001
ACAD
1000
DSTYLE
1002
{
1070
   341
1005
0
1070
    40
1040
1.0
1070
   343
1005
0
1070
   344
1005
0
1002
}
  0
DIMENSION
  5
20DFB
330
747D
100
AcDbEntity
  8
寸法
 48
50.0
100
AcDbDimension
  2
*D19
 10
3708.600000000001
 20
8348.348158915829
 30
0.0
 11
3392.425378797542
 21
8348.348158915829
 31
0.0
 70
   160
  1
a
 71
     5
 42
44.99999999999636
  3
INABA_S40G
100
AcDbAlignedDimension
 13
3663.600000000004
 23
8116.39429495082
 33
0.0
 14
3708.600000000001
 24
7390.127836856908
 34
0.0
100
AcDbRotatedDimension
1001
ACAD
1000
DSTYLE
1002
{
1070
   341
1005
0
1002
}
  0
LINE
  5
22712
330
747D
100
AcDbEntity
  8
想像線
 48
10.0
100
AcDbLine
 10
3663.600000000029
 20
6375.127836856903
 30
0.0
 11
3663.600000000029
 21
7465.127836856962
 31
0.0
  0
LINE
  5
22713
330
747D
100
AcDbEntity
  8
想像線
 48
10.0
100
AcDbLine
 10
12783.6
 20
6375.127836856908
 30
0.0
 11
12783.6
 21
7465.127836856933
 31
0.0
  0
DIMENSION
  5
22741
330
747D
100
AcDbEntity
  8
寸法
 48
50.0
100
AcDbDimension
  2
*D20
 10
2833.721909610673
 20
7390.127836856921
 30
0.0
 11
2733.721909610672
 21
7427.627836856924
 31
0.0
 70
    32
  1
c
 71
     5
 42
75.00000000000364
  3
INABA_S40G
100
AcDbAlignedDimension
 13
3085.665006330071
 23
7465.127836856924
 33
0.0
 14
3575.156977762463
 24
7390.127836856921
 34
0.0
 50
90.0
100
AcDbRotatedDimension
1001
ACAD
1000
DSTYLE
1002
{
1070
   341
1005
0
1002
}
  0
DIMENSION
  5
2275B
330
747D
100
AcDbEntity
  8
寸法
 48
50.0
100
AcDbDimension
  2
*D21
 10
2833.721909610673
 20
6375.127836856931
 30
0.0
 11
2733.721909610672
 21
6402.627836856921
 31
0.0
 70
    32
  1
b
 71
     5
 42
54.99999999997817
  3
INABA_S40G
100
AcDbAlignedDimension
 13
3581.607272343894
 23
6430.127836856908
 33
0.0
 14
3085.665006330071
 24
6375.127836856931
 34
0.0
 50
90.0
100
AcDbRotatedDimension
1001
ACAD
1000
DSTYLE
1002
{
1070
   341
1005
0
1002
}
  0
DIMENSION
  5
22A76
330
747D
100
AcDbEntity
  8
寸法
 48
50.0
100
AcDbDimension
  2
*D22
 10
12141.82138901162
 20
6430.127836856943
 30
0.0
 11
12141.82138901162
 21
6143.164254179777
 31
0.0
 70
   160
 71
     5
 42
279.9999999999991
  3
INABA_S40G
100
AcDbAlignedDimension
 13
12295.09540071171
 23
6710.127836856941
 33
0.0
 14
12111.41910651595
 24
6430.127836856943
 34
0.0
 50
90.0
100
AcDbRotatedDimension
1001
ACAD
1000
DSTYLE
1002
{
1070
   341
1005
0
1002
}
  0
DIMENSION
  5
22A81
330
747D
100
AcDbEntity
  8
寸法
 48
50.0
100
AcDbDimension
  2
*D23
 10
12141.82138901162
 20
7190.127836856827
 30
0.0
 11
12141.82138901162
 21
7677.091419534079
 31
0.0
 70
   160
 71
     5
 42
200.0000000000855
  3
INABA_S40G
100
AcDbAlignedDimension
 13
12135.85634570468
 23
7390.127836856912
 33
0.0
 14
12075.60166369304
 24
7190.127836856827
 34
0.0
 50
90.0
100
AcDbRotatedDimension
1001
ACAD
1000
DSTYLE
1002
{
1070
   341
1005
0
1002
}
  0
DIMENSION
  5
22A98
330
747D
100
AcDbEntity
  8
寸法
 48
50.0
100
AcDbDimension
  2
*D24
 10
12618.6
 20
7114.519505412149
 30
0.0
 11
13008.65905511811
 21
7114.519505412149
 31
0.0
 70
   160
 71
     5
 42
119.9999999999981
  3
INABA_S40G
100
AcDbAlignedDimension
 13
12738.6
 23
7035.127836856942
 33
0.0
 14
12618.6
 24
7035.127830361986
 34
0.0
100
AcDbRotatedDimension
1001
ACAD
1000
DSTYLE
1002
{
1070
   341
1005
0
1002
}
  0
TEXT
  5
271E7
330
747D
100
AcDbEntity
  8
部品1
100
AcDbText
 10
7020.398178799904
 20
5513.846593980296
 30
0.0
 40
135.0
  1
11連棟・14連棟・17連棟・20連棟
  7
STYLE2
100
AcDbText
  0
TEXT
  5
27754
330
747D
100
AcDbEntity
  8
文字
 62
     7
 48
50.0
100
AcDbText
 10
14271.39351435261
 20
483.8967129911416
 30
0.0
 40
160.0
  1
ＮＸＮ－０８ＤＬ-Ｎ
  7
STYLE2
100
AcDbText
  0
LINE
  5
27E89
330
747D
100
AcDbEntity
  8
想像線
 48
10.0
100
AcDbLine
 10
12783.6
 20
7465.127836856931
 30
0.0
 11
3663.600000000029
 21
7465.127836856961
 31
0.0
  0
LINE
  5
27E8A
330
747D
100
AcDbEntity
  8
想像線
 48
10.0
100
AcDbLine
 10
12783.6
 20
6375.127836856916
 30
0.0
 11
3663.600000000029
 21
6375.127836856895
 31
0.0
  0
DIMENSION
  5
27EAC
330
747D
100
AcDbEntity
  8
寸法
 48
50.0
100
AcDbDimension
  2
*D25
 10
12783.6
 20
8348.348158915827
 30
0.0
 11
13054.77462120245
 21
8348.348158915827
 31
0.0
 70
   160
  1
a
 71
     5
 42
45.0
  3
INABA_S40G
100
AcDbAlignedDimension
 13
12738.6
 23
7390.127836856905
 33
0.0
 14
12783.6
 24
8116.394294950817
 34
0.0
100
AcDbRotatedDimension
1001
ACAD
1000
DSTYLE
1002
{
1070
   341
1005
0
1002
}
  0
LINE
  5
2840B
330
747D
100
AcDbEntity
  8
部品1
 48
50.0
100
AcDbLine
 10
12618.6
 20
7190.127836856905
 30
0.0
 11
3828.599999999995
 21
7190.127836856909
 31
0.0
  0
LINE
  5
2840C
330
747D
100
AcDbEntity
  8
部品1
 48
50.0
100
AcDbLine
 10
12738.6
 20
6430.127836856946
 30
0.0
 11
3708.600000000001
 21
6430.1278368569
 31
0.0
  0
LINE
  5
2840D
330
747D
100
AcDbEntity
  8
部品1
 48
50.0
100
AcDbLine
 10
12738.6
 20
7390.127836856908
 30
0.0
 11
3708.600000000001
 21
7390.127836856908
 31
0.0
  0
DIMENSION
  5
2840E
330
747D
100
AcDbEntity
  8
寸法
 48
50.0
100
AcDbDimension
  2
*D42
 10
7813.600000000008
 20
7872.736653527157
 30
0.0
 11
8223.600000000008
 21
7972.74846455078
 31
0.0
 70
    32
 71
     5
 42
820.0
  3
INABA_S40G
100
AcDbAlignedDimension
 13
8633.600000000008
 23
6960.127836856909
 33
0.0
 14
7813.600000000008
 24
6960.127836856909
 34
0.0
100
AcDbRotatedDimension
1001
ACAD
1000
DSTYLE
1002
{
1070
   341
1005
0
1002
}
  0
DIMENSION
  5
28411
330
747D
100
AcDbEntity
  8
寸法
 48
50.0
100
AcDbDimension
  2
*D43
 10
12738.6
 20
8348.348158915827
 30
0.0
 11
8223.600000000001
 21
8348.348158915827
 31
0.0
 70
   160
  1
N X 820+10
 71
     5
 42
9030.0
  3
INABA_S40G
100
AcDbAlignedDimension
 13
3708.600000000001
 23
7390.127836856909
 33
0.0
 14
12738.6
 24
7390.127836856909
 34
0.0
100
AcDbRotatedDimension
1001
ACAD
1000
DSTYLE
1002
{
1070
   341
1005
0
1002
}
  0
LINE
  5
28413
330
747D
100
AcDbEntity
  8
部品1
 48
50.0
100
AcDbLine
 10
3708.600000000001
 20
6430.127836856908
 30
0.0
 11
3708.600000000001
 21
7390.127836856909
 31
0.0
  0
DIMENSION
  5
28414
330
747D
100
AcDbEntity
  8
寸法
 48
50.0
100
AcDbDimension
  2
*D44
 10
3085.665006330073
 20
6628.127836856913
 30
0.0
 11
3085.665006330071
 21
6947.627836856909
 31
0.0
 70
   160
 71
     5
 42
638.9999999999964
  3
INABA_S40G
100
AcDbAlignedDimension
 13
3781.6
 23
7267.127836856909
 33
0.0
 14
3781.600000000008
 24
6628.127836856913
 34
0.0
 50
90.0
100
AcDbRotatedDimension
1001
ACAD
1000
DSTYLE
1002
{
1070
   341
1005
0
1002
}
  0
DIMENSION
  5
28415
330
747D
100
AcDbEntity
  8
寸法
 48
50.0
100
AcDbDimension
  2
*D45
 10
2833.721909610673
 20
6430.127836856908
 30
0.0
 11
2833.721909610673
 21
6947.627836856909
 31
0.0
 70
   160
 71
     5
 42
960.0
  3
INABA_S40G
100
AcDbAlignedDimension
 13
3708.600000000001
 23
7390.127836856909
 33
0.0
 14
3708.600000000001
 24
6430.127836856908
 34
0.0
 50
90.0
100
AcDbRotatedDimension
1001
ACAD
1000
DSTYLE
1002
{
1070
   341
1005
0
1002
}
  0
DIMENSION
  5
28417
330
747D
100
AcDbEntity
  8
寸法
 48
50.0
100
AcDbDimension
  2
*D46
 10
4191.285990614302
 20
6910.12783685691
 30
0.0
 11
4191.2859906143
 21
6137.56878173881
 31
0.0
 70
   160
 71
     5
 42
479.999999999989
  3
INABA_S40G
100
AcDbAlignedDimension
 13
4282.765475140901
 23
6430.12783685692
 33
0.0
 14
4483.600000000008
 24
6910.12783685691
 34
0.0
 50
90.0
100
AcDbRotatedDimension
1001
ACAD
1000
DSTYLE
1002
{
1070
   341
1005
0
1002
}
  0
DIMENSION
  5
28418
330
747D
100
AcDbEntity
  8
寸法
 48
50.0
100
AcDbDimension
  2
*D47
 10
3595.512673767883
 20
5710.127836856905
 30
0.0
 11
3595.512673767882
 21
6070.127836856906
 31
0.0
 70
   160
  1
扉の出<>
 71
     5
 42
720.0
  3
INABA_S40G
100
AcDbAlignedDimension
 13
3708.600000000004
 23
6430.127836856906
 33
0.0
 14
4064.325326928808
 24
5710.127836856905
 34
0.0
 50
90.0
100
AcDbRotatedDimension
1001
ACAD
1000
DSTYLE
1002
{
1070
   341
1005
0
1002
}
  0
DIMENSION
  5
28419
330
747D
100
AcDbEntity
  8
寸法
 48
50.0
100
AcDbDimension
  2
*D48
 10
3085.665006330073
 20
6430.127836856908
 30
0.0
 11
3085.665006330071
 21
6094.596888014318
 31
0.0
 70
   160
 71
     5
 42
198.0000000000036
  3
INABA_S40G
100
AcDbAlignedDimension
 13
3781.600000000008
 23
6628.127836856913
 33
0.0
 14
3708.600000000001
 24
6430.127836856908
 34
0.0
 50
90.0
100
AcDbRotatedDimension
1001
ACAD
1000
DSTYLE
1002
{
1070
   341
1005
0
1002
}
  0
ARC
  5
2841B
330
747D
100
AcDbEntity
  8
想像線
 48
5.0
100
AcDbCircle
 10
4478.600000000004
 20
6430.127836856913
 30
0.0
 40
720.0
100
AcDbArc
 50
180.0
 51
270.0
  0
LINE
  5
2841C
330
747D
100
AcDbEntity
  8
センター
 48
2.0
100
AcDbLine
 10
3781.600000000008
 20
6628.127836856913
 30
0.0
 11
3881.600000000008
 21
6628.127836856913
 31
0.0
  0
CIRCLE
  5
2841D
330
747D
100
AcDbEntity
  8
部品1
 48
50.0
100
AcDbCircle
 10
3831.599999999993
 20
6628.127836856913
 30
0.0
 40
35.0
  0
LINE
  5
2841E
330
747D
100
AcDbEntity
  8
センター
 48
2.0
100
AcDbLine
 10
3831.600000000008
 20
6678.127836856913
 30
0.0
 11
3831.600000000008
 21
6578.127836856913
 31
0.0
  0
LINE
  5
2841F
330
747D
100
AcDbEntity
  8
細線
 48
50.0
100
AcDbLine
 10
4159.404359938236
 20
6430.127830361965
 30
0.0
 11
4223.599994989124
 21
6494.323465412853
 31
0.0
  0
LINE
  5
28420
330
747D
100
AcDbEntity
  8
細線
 48
50.0
100
AcDbLine
 10
4114.50307933289
 20
6430.127830361964
 30
0.0
 11
4223.599994989121
 21
6539.224746018198
 31
0.0
  0
LINE
  5
28421
330
747D
100
AcDbEntity
  8
細線
 48
50.0
100
AcDbLine
 10
4069.601798727545
 20
6430.127830361965
 30
0.0
 11
4223.599994989121
 21
6584.126026623547
 31
0.0
  0
LINE
  5
28422
330
747D
100
AcDbEntity
  8
細線
 48
50.0
100
AcDbLine
 10
4024.700518122197
 20
6430.127830361962
 30
0.0
 11
4223.599994989119
 21
6629.027307228887
 31
0.0
  0
LINE
  5
28423
330
747D
100
AcDbEntity
  8
細線
 48
50.0
100
AcDbLine
 10
4023.599994989125
 20
6473.928587834236
 30
0.0
 11
4223.599994989119
 21
6673.928587834232
 31
0.0
  0
LINE
  5
28424
330
747D
100
AcDbEntity
  8
部品1
 48
50.0
100
AcDbLine
 10
4023.599994989117
 20
6710.127836856901
 30
0.0
 11
4023.599994989125
 21
6430.127830361962
 31
0.0
  0
LINE
  5
28425
330
747D
100
AcDbEntity
  8
部品1
 48
50.0
100
AcDbLine
 10
4223.599994989117
 20
6710.127836856902
 30
0.0
 11
4223.599994989124
 21
6430.127830361965
 31
0.0
  0
LINE
  5
28426
330
747D
100
AcDbEntity
  8
細線
 48
50.0
100
AcDbLine
 10
4204.305640543583
 20
6430.127830361968
 30
0.0
 11
4223.599994989124
 21
6449.422184807509
 31
0.0
  0
LINE
  5
28427
330
747D
100
AcDbEntity
  8
細線
 48
50.0
100
AcDbLine
 10
4023.599994989121
 20
6518.829868439581
 30
0.0
 11
4214.897963406438
 21
6710.127836856902
 31
0.0
  0
LINE
  5
28428
330
747D
100
AcDbEntity
  8
細線
 48
50.0
100
AcDbLine
 10
4023.599994989123
 20
6563.731149044925
 30
0.0
 11
4169.996682801091
 21
6710.127836856902
 31
0.0
  0
LINE
  5
28429
330
747D
100
AcDbEntity
  8
細線
 48
50.0
100
AcDbLine
 10
4023.599994989119
 20
6653.533710255612
 30
0.0
 11
4080.194121590411
 21
6710.127836856902
 31
0.0
  0
LINE
  5
2842A
330
747D
100
AcDbEntity
  8
細線
 48
50.0
100
AcDbLine
 10
4023.599994989121
 20
6608.63242965027
 30
0.0
 11
4125.095402195753
 21
6710.127836856902
 31
0.0
  0
LINE
  5
2842B
330
747D
100
AcDbEntity
  8
想像線
 48
5.0
100
AcDbLine
 10
4478.600000000004
 20
6430.127836856924
 30
0.0
 11
4478.600000000004
 21
5710.127836856912
 31
0.0
  0
LINE
  5
2842C
330
747D
100
AcDbEntity
  8
細線
 48
50.0
100
AcDbLine
 10
4979.404359938235
 20
6430.127830361977
 30
0.0
 11
5043.599994989125
 21
6494.323465412865
 31
0.0
  0
LINE
  5
2842D
330
747D
100
AcDbEntity
  8
細線
 48
50.0
100
AcDbLine
 10
4934.503079332889
 20
6430.127830361977
 30
0.0
 11
5043.599994989121
 21
6539.22474601821
 31
0.0
  0
LINE
  5
2842E
330
747D
100
AcDbEntity
  8
細線
 48
50.0
100
AcDbLine
 10
4889.601798727543
 20
6430.127830361977
 30
0.0
 11
5043.599994989119
 21
6584.126026623554
 31
0.0
  0
LINE
  5
2842F
330
747D
100
AcDbEntity
  8
細線
 48
50.0
100
AcDbLine
 10
4844.700518122198
 20
6430.127830361977
 30
0.0
 11
5043.599994989118
 21
6629.027307228897
 31
0.0
  0
LINE
  5
28430
330
747D
100
AcDbEntity
  8
細線
 48
50.0
100
AcDbLine
 10
4843.599994989125
 20
6473.928587834251
 30
0.0
 11
5043.599994989119
 21
6673.928587834243
 31
0.0
  0
LINE
  5
28431
330
747D
100
AcDbEntity
  8
部品1
 48
50.0
100
AcDbLine
 10
4843.599994989117
 20
6710.127836856904
 30
0.0
 11
4843.599994989125
 21
6430.127830361975
 31
0.0
  0
LINE
  5
28432
330
747D
100
AcDbEntity
  8
部品1
 48
50.0
100
AcDbLine
 10
5043.599994989119
 20
6710.127836856907
 30
0.0
 11
5043.599994989125
 21
6430.127830361978
 31
0.0
  0
LINE
  5
28433
330
747D
100
AcDbEntity
  8
細線
 48
50.0
100
AcDbLine
 10
5024.305640543584
 20
6430.127830361979
 30
0.0
 11
5043.599994989125
 21
6449.422184807521
 31
0.0
  0
LINE
  5
28434
330
747D
100
AcDbEntity
  8
細線
 48
50.0
100
AcDbLine
 10
4843.599994989121
 20
6518.829868439592
 30
0.0
 11
5034.897963406439
 21
6710.127836856909
 31
0.0
  0
LINE
  5
28435
330
747D
100
AcDbEntity
  8
細線
 48
50.0
100
AcDbLine
 10
4843.599994989123
 20
6563.731149044939
 30
0.0
 11
4989.996682801083
 21
6710.127836856907
 31
0.0
  0
LINE
  5
28436
330
747D
100
AcDbEntity
  8
細線
 48
50.0
100
AcDbLine
 10
4843.599994989121
 20
6608.63242965027
 30
0.0
 11
4945.095402195757
 21
6710.127836856909
 31
0.0
  0
LINE
  5
28437
330
747D
100
AcDbEntity
  8
細線
 48
50.0
100
AcDbLine
 10
4843.599994989119
 20
6653.533710255612
 30
0.0
 11
4900.194121590415
 21
6710.127836856907
 31
0.0
  0
LINE
  5
28439
330
747D
100
AcDbEntity
  8
細線
 48
50.0
100
AcDbLine
 10
5799.404359938235
 20
6430.127830361965
 30
0.0
 11
5863.599994989125
 21
6494.323465412853
 31
0.0
  0
LINE
  5
2843A
330
747D
100
AcDbEntity
  8
細線
 48
50.0
100
AcDbLine
 10
5754.50307933289
 20
6430.127830361964
 30
0.0
 11
5863.599994989122
 21
6539.224746018198
 31
0.0
  0
LINE
  5
2843B
330
747D
100
AcDbEntity
  8
細線
 48
50.0
100
AcDbLine
 10
5709.601798727543
 20
6430.127830361964
 30
0.0
 11
5863.599994989119
 21
6584.126026623543
 31
0.0
  0
LINE
  5
2843C
330
747D
100
AcDbEntity
  8
細線
 48
50.0
100
AcDbLine
 10
5664.700518122198
 20
6430.127830361962
 30
0.0
 11
5863.599994989119
 21
6629.027307228887
 31
0.0
  0
LINE
  5
2843D
330
747D
100
AcDbEntity
  8
細線
 48
50.0
100
AcDbLine
 10
5663.599994989125
 20
6473.928587834238
 30
0.0
 11
5863.599994989119
 21
6673.928587834227
 31
0.0
  0
LINE
  5
2843E
330
747D
100
AcDbEntity
  8
部品1
 48
50.0
100
AcDbLine
 10
5663.59999498912
 20
6710.127836856909
 30
0.0
 11
5663.599994989125
 21
6430.127830361962
 31
0.0
  0
LINE
  5
2843F
330
747D
100
AcDbEntity
  8
部品1
 48
50.0
100
AcDbLine
 10
5863.599994989119
 20
6710.127836856912
 30
0.0
 11
5863.599994989125
 21
6430.127830361965
 31
0.0
  0
LINE
  5
28440
330
747D
100
AcDbEntity
  8
細線
 48
50.0
100
AcDbLine
 10
5844.305640543584
 20
6430.127830361968
 30
0.0
 11
5863.599994989125
 21
6449.422184807509
 31
0.0
  0
LINE
  5
28441
330
747D
100
AcDbEntity
  8
細線
 48
50.0
100
AcDbLine
 10
5663.599994989121
 20
6518.829868439581
 30
0.0
 11
5854.897963406451
 21
6710.127836856912
 31
0.0
  0
LINE
  5
28442
330
747D
100
AcDbEntity
  8
細線
 48
50.0
100
AcDbLine
 10
5663.599994989123
 20
6563.731149044925
 30
0.0
 11
5809.996682801084
 21
6710.127836856909
 31
0.0
  0
LINE
  5
28443
330
747D
100
AcDbEntity
  8
細線
 48
50.0
100
AcDbLine
 10
5663.59999498912
 20
6653.533710255612
 30
0.0
 11
5720.19412159042
 21
6710.127836856909
 31
0.0
  0
LINE
  5
28444
330
747D
100
AcDbEntity
  8
細線
 48
50.0
100
AcDbLine
 10
5663.599994989121
 20
6608.63242965027
 30
0.0
 11
5765.095402195761
 21
6710.127836856912
 31
0.0
  0
LINE
  5
28445
330
747D
100
AcDbEntity
  8
センター
 48
2.0
100
AcDbLine
 10
6055.600000000008
 20
6678.127836856913
 30
0.0
 11
6055.600000000008
 21
6578.127836856913
 31
0.0
  0
CIRCLE
  5
28446
330
747D
100
AcDbEntity
  8
部品1
 48
50.0
100
AcDbCircle
 10
6055.600000000008
 20
6628.127836856913
 30
0.0
 40
35.0
  0
LINE
  5
28447
330
747D
100
AcDbEntity
  8
センター
 48
2.0
100
AcDbLine
 10
6005.600000000008
 20
6628.127836856913
 30
0.0
 11
6105.600000000007
 21
6628.127836856913
 31
0.0
  0
LINE
  5
28448
330
747D
100
AcDbEntity
  8
細線
 48
50.0
100
AcDbLine
 10
6619.404359938236
 20
6430.127830361978
 30
0.0
 11
6683.599994989124
 21
6494.323465412865
 31
0.0
  0
LINE
  5
28449
330
747D
100
AcDbEntity
  8
細線
 48
50.0
100
AcDbLine
 10
6574.503079332889
 20
6430.127830361977
 30
0.0
 11
6683.599994989122
 21
6539.22474601821
 31
0.0
  0
LINE
  5
2844A
330
747D
100
AcDbEntity
  8
細線
 48
50.0
100
AcDbLine
 10
6529.601798727544
 20
6430.127830361977
 30
0.0
 11
6683.599994989122
 21
6584.126026623557
 31
0.0
  0
LINE
  5
2844B
330
747D
100
AcDbEntity
  8
細線
 48
50.0
100
AcDbLine
 10
6484.700518122197
 20
6430.127830361977
 30
0.0
 11
6683.599994989122
 21
6629.027307228899
 31
0.0
  0
LINE
  5
2844C
330
747D
100
AcDbEntity
  8
細線
 48
50.0
100
AcDbLine
 10
6483.599994989124
 20
6473.928587834248
 30
0.0
 11
6683.599994989117
 21
6673.928587834241
 31
0.0
  0
LINE
  5
2844D
330
747D
100
AcDbEntity
  8
部品1
 48
50.0
100
AcDbLine
 10
6483.599994989116
 20
6710.127836856916
 30
0.0
 11
6483.599994989124
 21
6430.127830361975
 31
0.0
  0
LINE
  5
2844E
330
747D
100
AcDbEntity
  8
部品1
 48
50.0
100
AcDbLine
 10
6683.599994989119
 20
6710.127836856916
 30
0.0
 11
6683.599994989124
 21
6430.127830361978
 31
0.0
  0
LINE
  5
2844F
330
747D
100
AcDbEntity
  8
細線
 48
50.0
100
AcDbLine
 10
6664.305640543584
 20
6430.127830361979
 30
0.0
 11
6683.599994989124
 21
6449.422184807521
 31
0.0
  0
LINE
  5
28450
330
747D
100
AcDbEntity
  8
細線
 48
50.0
100
AcDbLine
 10
6483.599994989122
 20
6518.829868439592
 30
0.0
 11
6674.897963406447
 21
6710.127836856917
 31
0.0
  0
LINE
  5
28451
330
747D
100
AcDbEntity
  8
細線
 48
50.0
100
AcDbLine
 10
6483.599994989123
 20
6563.731149044939
 30
0.0
 11
6629.996682801091
 21
6710.127836856916
 31
0.0
  0
LINE
  5
28452
330
747D
100
AcDbEntity
  8
細線
 48
50.0
100
AcDbLine
 10
6483.599994989119
 20
6653.533716750558
 30
0.0
 11
6540.19411509548
 21
6710.127836856916
 31
0.0
  0
LINE
  5
28453
330
747D
100
AcDbEntity
  8
細線
 48
50.0
100
AcDbLine
 10
6483.599994989122
 20
6608.632436145216
 30
0.0
 11
6585.09539570082
 21
6710.127836856916
 31
0.0
  0
LINE
  5
28454
330
747D
100
AcDbEntity
  8
細線
 48
50.0
100
AcDbLine
 10
7439.404359938237
 20
6430.127830361978
 30
0.0
 11
7503.599994989125
 21
6494.323465412865
 31
0.0
  0
LINE
  5
28455
330
747D
100
AcDbEntity
  8
細線
 48
50.0
100
AcDbLine
 10
7394.503079332889
 20
6430.127830361977
 30
0.0
 11
7503.59999498912
 21
6539.22474601821
 31
0.0
  0
LINE
  5
28456
330
747D
100
AcDbEntity
  8
細線
 48
50.0
100
AcDbLine
 10
7349.601798727542
 20
6430.127830361977
 30
0.0
 11
7503.599994989119
 21
6584.126026623555
 31
0.0
  0
LINE
  5
28457
330
747D
100
AcDbEntity
  8
細線
 48
50.0
100
AcDbLine
 10
7304.700518122198
 20
6430.127830361977
 30
0.0
 11
7503.599994989119
 21
6629.027307228898
 31
0.0
  0
LINE
  5
28458
330
747D
100
AcDbEntity
  8
細線
 48
50.0
100
AcDbLine
 10
7303.599994989125
 20
6473.928587834248
 30
0.0
 11
7503.599994989119
 21
6673.928587834243
 31
0.0
  0
LINE
  5
28459
330
747D
100
AcDbEntity
  8
部品1
 48
50.0
100
AcDbLine
 10
7303.599994989119
 20
6710.127836856919
 30
0.0
 11
7303.599994989125
 21
6430.127830361975
 31
0.0
  0
LINE
  5
2845A
330
747D
100
AcDbEntity
  8
部品1
 48
50.0
100
AcDbLine
 10
7503.599994989116
 20
6710.127836856919
 30
0.0
 11
7503.599994989125
 21
6430.127830361978
 31
0.0
  0
LINE
  5
2845B
330
747D
100
AcDbEntity
  8
細線
 48
50.0
100
AcDbLine
 10
7484.305640543583
 20
6430.127830361979
 30
0.0
 11
7503.599994989125
 21
6449.422184807521
 31
0.0
  0
LINE
  5
2845C
330
747D
100
AcDbEntity
  8
細線
 48
50.0
100
AcDbLine
 10
7303.59999498912
 20
6518.829868439592
 30
0.0
 11
7494.897963406454
 21
6710.127836856921
 31
0.0
  0
LINE
  5
2845D
330
747D
100
AcDbEntity
  8
細線
 48
50.0
100
AcDbLine
 10
7303.599994989124
 20
6563.731149044939
 30
0.0
 11
7449.996682801097
 21
6710.127836856919
 31
0.0
  0
LINE
  5
2845E
330
747D
100
AcDbEntity
  8
細線
 48
50.0
100
AcDbLine
 10
7303.59999498912
 20
6608.632436145216
 30
0.0
 11
7405.095395700825
 21
6710.127836856921
 31
0.0
  0
LINE
  5
2845F
330
747D
100
AcDbEntity
  8
細線
 48
50.0
100
AcDbLine
 10
7303.599994989119
 20
6653.533716750558
 30
0.0
 11
7360.194115095485
 21
6710.127836856919
 31
0.0
  0
TEXT
  5
28460
330
747D
100
AcDbEntity
  8
寸法
 48
50.0
100
AcDbText
 10
7846.76807089491
 20
6448.809127649647
 30
0.0
 40
120.0
  1
扉面
  7
STYLE1
100
AcDbText
  0
LINE
  5
28461
330
747D
100
AcDbEntity
  8
センター
 48
2.0
100
AcDbLine
 10
7695.600000000007
 20
6678.127836856913
 30
0.0
 11
7695.600000000007
 21
6578.127836856913
 31
0.0
  0
CIRCLE
  5
28462
330
747D
100
AcDbEntity
  8
部品1
 48
50.0
100
AcDbCircle
 10
7695.600000000007
 20
6628.127836856913
 30
0.0
 40
35.0
  0
LINE
  5
28463
330
747D
100
AcDbEntity
  8
センター
 48
2.0
100
AcDbLine
 10
7645.600000000007
 20
6628.127836856913
 30
0.0
 11
7745.600000000007
 21
6628.127836856913
 31
0.0
  0
LINE
  5
28464
330
747D
100
AcDbEntity
  8
細線
 48
50.0
100
AcDbLine
 10
8259.404359938237
 20
6430.127830361978
 30
0.0
 11
8323.599994989125
 21
6494.323465412865
 31
0.0
  0
LINE
  5
28465
330
747D
100
AcDbEntity
  8
細線
 48
50.0
100
AcDbLine
 10
8214.503079332891
 20
6430.127830361977
 30
0.0
 11
8323.599994989121
 21
6539.22474601821
 31
0.0
  0
LINE
  5
28466
330
747D
100
AcDbEntity
  8
細線
 48
50.0
100
AcDbLine
 10
8169.601798727542
 20
6430.127830361977
 30
0.0
 11
8323.599994989121
 21
6584.126026623557
 31
0.0
  0
LINE
  5
28467
330
747D
100
AcDbEntity
  8
細線
 48
50.0
100
AcDbLine
 10
8124.700518122198
 20
6430.127830361977
 30
0.0
 11
8323.599994989121
 21
6629.027307228898
 31
0.0
  0
LINE
  5
28468
330
747D
100
AcDbEntity
  8
細線
 48
50.0
100
AcDbLine
 10
8123.599994989126
 20
6473.928587834248
 30
0.0
 11
8323.599994989121
 21
6673.928587834246
 31
0.0
  0
LINE
  5
28469
330
747D
100
AcDbEntity
  8
部品1
 48
50.0
100
AcDbLine
 10
8123.599994989119
 20
6710.127836856924
 30
0.0
 11
8123.599994989126
 21
6430.127830361975
 31
0.0
  0
LINE
  5
2846A
330
747D
100
AcDbEntity
  8
部品1
 48
50.0
100
AcDbLine
 10
8323.599994989114
 20
6710.127836856924
 30
0.0
 11
8323.599994989125
 21
6430.127830361978
 31
0.0
  0
LINE
  5
2846B
330
747D
100
AcDbEntity
  8
細線
 48
50.0
100
AcDbLine
 10
8304.305640543583
 20
6430.127830361979
 30
0.0
 11
8323.599994989125
 21
6449.422184807521
 31
0.0
  0
LINE
  5
2846C
330
747D
100
AcDbEntity
  8
細線
 48
50.0
100
AcDbLine
 10
8123.59999498912
 20
6518.829868439592
 30
0.0
 11
8314.897963406457
 21
6710.127836856924
 31
0.0
  0
LINE
  5
2846D
330
747D
100
AcDbEntity
  8
細線
 48
50.0
100
AcDbLine
 10
8123.599994989124
 20
6563.731149044939
 30
0.0
 11
8269.996682801098
 21
6710.127836856923
 31
0.0
  0
LINE
  5
2846E
330
747D
100
AcDbEntity
  8
細線
 48
50.0
100
AcDbLine
 10
8123.599994989119
 20
6653.533716750558
 30
0.0
 11
8180.194115095487
 21
6710.127836856924
 31
0.0
  0
LINE
  5
2846F
330
747D
100
AcDbEntity
  8
細線
 48
50.0
100
AcDbLine
 10
8123.59999498912
 20
6608.632436145216
 30
0.0
 11
8225.095395700829
 21
6710.127836856925
 31
0.0
  0
DIMENSION
  5
28470
330
747D
100
AcDbEntity
  8
寸法
 48
50.0
100
AcDbDimension
  2
*D26
 10
4533.600000000007
 20
7872.736653527157
 30
0.0
 11
4943.600000000007
 21
7972.74846455078
 31
0.0
 70
    32
 71
     5
 42
820.0
  3
INABA_S40G
100
AcDbAlignedDimension
 13
5353.600000000008
 23
6960.127836856909
 33
0.0
 14
4533.600000000007
 24
6960.127836856909
 34
0.0
100
AcDbRotatedDimension
1001
ACAD
1000
DSTYLE
1002
{
1070
   341
1005
0
1002
}
  0
DIMENSION
  5
28471
330
747D
100
AcDbEntity
  8
寸法
 48
50.0
100
AcDbDimension
  2
*D27
 10
3831.6
 20
8116.39429495082
 30
0.0
 11
4943.6
 21
8216.40610597444
 31
0.0
 70
    32
 71
     5
 42
2224.0
  3
INABA_S40G
100
AcDbAlignedDimension
 13
6055.6
 23
7317.127836856909
 33
0.0
 14
3831.6
 24
7317.127836856909
 34
0.0
100
AcDbRotatedDimension
1001
ACAD
1000
DSTYLE
1002
{
1070
   341
1005
0
1002
}
  0
DIMENSION
  5
28473
330
747D
100
AcDbEntity
  8
寸法
 48
50.0
100
AcDbDimension
  2
*D28
 10
3708.600000000001
 20
8116.39429495082
 30
0.0
 11
3435.493398282203
 21
8116.39429495082
 31
0.0
 70
   160
 71
     5
 42
123.0
  3
INABA_S40G
100
AcDbAlignedDimension
 13
3831.6
 23
7317.127836856909
 33
0.0
 14
3708.600000000001
 24
7390.127836856909
 34
0.0
100
AcDbRotatedDimension
1001
ACAD
1000
DSTYLE
1002
{
1070
   341
1005
0
1002
}
  0
DIMENSION
  5
28474
330
747D
100
AcDbEntity
  8
寸法
 48
50.0
100
AcDbDimension
  2
*D29
 10
3085.665006330073
 20
7267.127836856909
 30
0.0
 11
3085.665006330071
 21
7663.234438574709
 31
0.0
 70
   160
 71
     5
 42
123.0
  3
INABA_S40G
100
AcDbAlignedDimension
 13
3708.600000000001
 23
7390.127836856909
 33
0.0
 14
3781.6
 24
7267.127836856909
 34
0.0
 50
90.0
100
AcDbRotatedDimension
1001
ACAD
1000
DSTYLE
1002
{
1070
   341
1005
0
1002
}
  0
DIMENSION
  5
28476
330
747D
100
AcDbEntity
  8
寸法
 48
50.0
100
AcDbDimension
  2
*D30
 10
3708.600000000001
 20
7872.736653527157
 30
0.0
 11
4121.100000000004
 21
7972.74846455078
 31
0.0
 70
    32
 71
     5
 42
825.0000000000072
  3
INABA_S40G
100
AcDbAlignedDimension
 13
4533.600000000007
 23
6960.127836856909
 33
0.0
 14
3708.600000000001
 24
7390.127836856909
 34
0.0
100
AcDbRotatedDimension
1001
ACAD
1000
DSTYLE
1002
{
1070
   341
1005
0
1002
}
  0
DIMENSION
  5
28477
330
747D
100
AcDbEntity
  8
寸法
 48
50.0
100
AcDbDimension
  2
*D31
 10
4191.285990614301
 20
7390.127836856909
 30
0.0
 11
4191.2859906143
 21
7682.686891975021
 31
0.0
 70
   160
 71
     5
 42
480.0
  3
INABA_S40G
100
AcDbAlignedDimension
 13
4483.600000000008
 23
6910.12783685691
 33
0.0
 14
4282.765475140901
 24
7390.127836856909
 34
0.0
 50
90.0
100
AcDbRotatedDimension
1001
ACAD
1000
DSTYLE
1002
{
1070
   341
1005
0
1002
}
  0
LINE
  5
28478
330
747D
100
AcDbEntity
  8
細線
 48
50.0
100
AcDbLine
 10
4023.599994989125
 20
7192.349077519769
 30
0.0
 11
4221.378747831319
 21
7390.127830361961
 31
0.0
  0
LINE
  5
28479
330
747D
100
AcDbEntity
  8
細線
 48
50.0
100
AcDbLine
 10
4023.599994989125
 20
7237.250358125116
 30
0.0
 11
4176.477467225971
 21
7390.127830361961
 31
0.0
  0
LINE
  5
2847A
330
747D
100
AcDbEntity
  8
細線
 48
50.0
100
AcDbLine
 10
4023.599994989125
 20
7282.151638730458
 30
0.0
 11
4131.576186620626
 21
7390.127830361961
 31
0.0
  0
LINE
  5
2847B
330
747D
100
AcDbEntity
  8
細線
 48
50.0
100
AcDbLine
 10
4023.599994989121
 20
7327.052919335803
 30
0.0
 11
4086.674906015281
 21
7390.127830361961
 31
0.0
  0
LINE
  5
2847C
330
747D
100
AcDbEntity
  8
部品1
 48
50.0
100
AcDbLine
 10
4223.599994989121
 20
7390.127830361961
 30
0.0
 11
4223.599994989124
 21
7190.127836856908
 31
0.0
  0
LINE
  5
2847D
330
747D
100
AcDbEntity
  8
部品1
 48
50.0
100
AcDbLine
 10
4023.599994989121
 20
7390.127830361961
 30
0.0
 11
4023.599994989125
 21
7190.127836856908
 31
0.0
  0
LINE
  5
2847E
330
747D
100
AcDbEntity
  8
細線
 48
50.0
100
AcDbLine
 10
3711.280028436677
 20
6835.127830361987
 30
0.0
 11
3828.599999999998
 21
6952.447801925308
 31
0.0
  0
LINE
  5
2847F
330
747D
100
AcDbEntity
  8
細線
 48
50.0
100
AcDbLine
 10
3708.599994989116
 20
6877.349077519771
 30
0.0
 11
3828.599999999998
 21
6997.349082530651
 31
0.0
  0
LINE
  5
28480
330
747D
100
AcDbEntity
  8
細線
 48
50.0
100
AcDbLine
 10
3708.599994989118
 20
6922.250358125118
 30
0.0
 11
3821.477467225986
 21
7035.127830361985
 31
0.0
  0
LINE
  5
28481
330
747D
100
AcDbEntity
  8
細線
 48
50.0
100
AcDbLine
 10
3708.599994989116
 20
6967.151638730463
 30
0.0
 11
3776.576186620637
 21
7035.127830361983
 31
0.0
  0
LINE
  5
28482
330
747D
100
AcDbEntity
  8
細線
 48
50.0
100
AcDbLine
 10
3708.599994989116
 20
7012.052919335809
 30
0.0
 11
3731.674906015292
 21
7035.127830361986
 31
0.0
  0
LINE
  5
28483
330
747D
100
AcDbEntity
  8
部品1
 48
50.0
100
AcDbLine
 10
3828.599999999997
 20
7035.127830361985
 30
0.0
 11
3708.599994989116
 21
7035.127830361986
 31
0.0
  0
LINE
  5
28484
330
747D
100
AcDbEntity
  8
部品1
 48
50.0
100
AcDbLine
 10
3828.599999999998
 20
6835.127830361985
 30
0.0
 11
3708.599994989116
 21
6835.127830361987
 31
0.0
  0
LINE
  5
28485
330
747D
100
AcDbEntity
  8
細線
 48
50.0
100
AcDbLine
 10
3801.082589647363
 20
6835.127830361983
 30
0.0
 11
3828.599999999998
 21
6862.645240714606
 31
0.0
  0
LINE
  5
28486
330
747D
100
AcDbEntity
  8
細線
 48
50.0
100
AcDbLine
 10
3756.181309042022
 20
6835.127830361987
 30
0.0
 11
3828.599999999998
 21
6907.546521319959
 31
0.0
  0
LINE
  5
28487
330
747D
100
AcDbEntity
  8
センター
 48
2.0
100
AcDbLine
 10
3781.6
 20
7267.127836856909
 30
0.0
 11
3881.6
 21
7267.127836856909
 31
0.0
  0
CIRCLE
  5
28488
330
747D
100
AcDbEntity
  8
部品1
 48
50.0
100
AcDbCircle
 10
3831.6
 20
7267.127836856909
 30
0.0
 40
35.0
  0
LINE
  5
28489
330
747D
100
AcDbEntity
  8
センター
 48
2.0
100
AcDbLine
 10
3831.6
 20
7317.127836856909
 30
0.0
 11
3831.6
 21
7217.127836856909
 31
0.0
  0
LINE
  5
2848A
330
747D
100
AcDbEntity
  8
細線
 48
50.0
100
AcDbLine
 10
4111.181315536973
 20
7190.127836856909
 30
0.0
 11
4223.599994989121
 21
7302.546516309075
 31
0.0
  0
LINE
  5
2848B
330
747D
100
AcDbEntity
  8
細線
 48
50.0
100
AcDbLine
 10
4066.280034931604
 20
7190.127836856909
 30
0.0
 11
4223.599994989121
 21
7347.447796914419
 31
0.0
  0
LINE
  5
2848C
330
747D
100
AcDbEntity
  8
細線
 48
50.0
100
AcDbLine
 10
4200.983876747658
 20
7190.127836856901
 30
0.0
 11
4223.599994989124
 21
7212.743955098371
 31
0.0
  0
LINE
  5
2848D
330
747D
100
AcDbEntity
  8
細線
 48
50.0
100
AcDbLine
 10
4156.082596142297
 20
7190.127836856901
 30
0.0
 11
4223.599994989123
 21
7257.645235703724
 31
0.0
  0
LINE
  5
2848E
330
747D
100
AcDbEntity
  8
細線
 48
50.0
100
AcDbLine
 10
4023.599994989121
 20
7371.954199941149
 30
0.0
 11
4041.773625409937
 21
7390.127830361961
 31
0.0
  0
LINE
  5
2848F
330
747D
100
AcDbEntity
  8
細線
 48
50.0
100
AcDbLine
 10
4843.599994989128
 20
7192.349077519782
 30
0.0
 11
5041.378747831319
 21
7390.127830361975
 31
0.0
  0
LINE
  5
28490
330
747D
100
AcDbEntity
  8
細線
 48
50.0
100
AcDbLine
 10
4843.599994989125
 20
7237.250358125127
 30
0.0
 11
4996.477467225972
 21
7390.127830361976
 31
0.0
  0
LINE
  5
28491
330
747D
100
AcDbEntity
  8
細線
 48
50.0
100
AcDbLine
 10
4843.599994989123
 20
7282.15163873047
 30
0.0
 11
4951.576186620627
 21
7390.127830361975
 31
0.0
  0
LINE
  5
28492
330
747D
100
AcDbEntity
  8
細線
 48
50.0
100
AcDbLine
 10
4843.599994989121
 20
7327.052919335819
 30
0.0
 11
4906.674906015282
 21
7390.127830361975
 31
0.0
  0
LINE
  5
28493
330
747D
100
AcDbEntity
  8
部品1
 48
50.0
100
AcDbLine
 10
5043.599994989121
 20
7390.127830361975
 30
0.0
 11
5043.599994989125
 21
7190.127836856908
 31
0.0
  0
LINE
  5
28494
330
747D
100
AcDbEntity
  8
部品1
 48
50.0
100
AcDbLine
 10
4843.599994989121
 20
7390.127830361975
 30
0.0
 11
4843.599994989125
 21
7190.127836856908
 31
0.0
  0
LINE
  5
28495
330
747D
100
AcDbEntity
  8
部品1
 48
50.0
100
AcDbLine
 10
4633.600000000007
 20
7010.127836856909
 30
0.0
 11
4433.600000000008
 21
7010.127836856909
 31
0.0
  0
LINE
  5
28496
330
747D
100
AcDbEntity
  8
部品1
 48
50.0
100
AcDbLine
 10
4633.600000000007
 20
6810.12783685691
 30
0.0
 11
4433.600000000008
 21
6810.12783685691
 31
0.0
  0
LINE
  5
28497
330
747D
100
AcDbEntity
  8
センター
 48
2.0
100
AcDbLine
 10
4483.600000000008
 20
6910.12783685691
 30
0.0
 11
4583.600000000007
 21
6910.12783685691
 31
0.0
  0
LINE
  5
28498
330
747D
100
AcDbEntity
  8
部品1
 48
50.0
100
AcDbLine
 10
4433.600000000008
 20
6810.12783685691
 30
0.0
 11
4433.600000000008
 21
7010.127836856909
 31
0.0
  0
LINE
  5
28499
330
747D
100
AcDbEntity
  8
センター
 48
2.0
100
AcDbLine
 10
4533.600000000007
 20
6960.127836856909
 30
0.0
 11
4533.600000000007
 21
6860.12783685691
 31
0.0
  0
LINE
  5
2849A
330
747D
100
AcDbEntity
  8
部品1
 48
50.0
100
AcDbLine
 10
4633.600000000007
 20
6810.12783685691
 30
0.0
 11
4633.600000000007
 21
7010.127836856909
 31
0.0
  0
LINE
  5
2849B
330
747D
100
AcDbEntity
  8
細線
 48
50.0
100
AcDbLine
 10
4931.181315536958
 20
7190.127836856909
 30
0.0
 11
5043.599994989121
 21
7302.546516309089
 31
0.0
  0
LINE
  5
2849C
330
747D
100
AcDbEntity
  8
細線
 48
50.0
100
AcDbLine
 10
4886.280034931597
 20
7190.127836856908
 30
0.0
 11
5043.599994989121
 21
7347.447796914432
 31
0.0
  0
LINE
  5
2849D
330
747D
100
AcDbEntity
  8
細線
 48
50.0
100
AcDbLine
 10
5020.983876747657
 20
7190.127836856901
 30
0.0
 11
5043.599994989125
 21
7212.743955098371
 31
0.0
  0
LINE
  5
2849E
330
747D
100
AcDbEntity
  8
細線
 48
50.0
100
AcDbLine
 10
4976.082596142298
 20
7190.127836856901
 30
0.0
 11
5043.599994989123
 21
7257.645235703724
 31
0.0
  0
LINE
  5
2849F
330
747D
100
AcDbEntity
  8
細線
 48
50.0
100
AcDbLine
 10
4843.599994989121
 20
7371.954199941159
 30
0.0
 11
4861.773625409934
 21
7390.127830361976
 31
0.0
  0
DIMENSION
  5
284A0
330
747D
100
AcDbEntity
  8
寸法
 48
50.0
100
AcDbDimension
  2
*D32
 10
6173.600000000007
 20
7872.736653527157
 30
0.0
 11
6583.600000000008
 21
7972.74846455078
 31
0.0
 70
    32
 71
     5
 42
820.0
  3
INABA_S40G
100
AcDbAlignedDimension
 13
6993.600000000007
 23
6960.127836856909
 33
0.0
 14
6173.600000000007
 24
6960.127836856909
 34
0.0
100
AcDbRotatedDimension
1001
ACAD
1000
DSTYLE
1002
{
1070
   341
1005
0
1002
}
  0
DIMENSION
  5
284A1
330
747D
100
AcDbEntity
  8
寸法
 48
50.0
100
AcDbDimension
  2
*D33
 10
6055.6
 20
8116.39429495082
 30
0.0
 11
6875.6
 21
8216.39429495082
 31
0.0
 70
    32
 71
     5
 42
1640.0
  3
INABA_S40G
100
AcDbAlignedDimension
 13
7695.6
 23
7317.127836856909
 33
0.0
 14
6055.6
 24
7317.127836856909
 34
0.0
100
AcDbRotatedDimension
1001
ACAD
1000
DSTYLE
1002
{
1070
   341
1005
0
1002
}
  0
DIMENSION
  5
284A2
330
747D
100
AcDbEntity
  8
寸法
 48
50.0
100
AcDbDimension
  2
*D34
 10
5353.600000000008
 20
7872.736653527157
 30
0.0
 11
5763.600000000008
 21
7972.74846455078
 31
0.0
 70
    32
 71
     5
 42
820.0
  3
INABA_S40G
100
AcDbAlignedDimension
 13
6173.600000000007
 23
6960.127836856909
 33
0.0
 14
5353.600000000008
 24
6960.127836856909
 34
0.0
100
AcDbRotatedDimension
1001
ACAD
1000
DSTYLE
1002
{
1070
   341
1005
0
1002
}
  0
LINE
  5
284A3
330
747D
100
AcDbEntity
  8
細線
 48
50.0
100
AcDbLine
 10
5663.599994989127
 20
7192.349077519772
 30
0.0
 11
5861.378747831317
 21
7390.127830361961
 31
0.0
  0
LINE
  5
284A4
330
747D
100
AcDbEntity
  8
細線
 48
50.0
100
AcDbLine
 10
5663.599994989125
 20
7237.250358125111
 30
0.0
 11
5816.477467225972
 21
7390.127830361961
 31
0.0
  0
LINE
  5
284A5
330
747D
100
AcDbEntity
  8
細線
 48
50.0
100
AcDbLine
 10
5663.599994989123
 20
7282.151638730457
 30
0.0
 11
5771.576186620625
 21
7390.127830361961
 31
0.0
  0
LINE
  5
284A6
330
747D
100
AcDbEntity
  8
細線
 48
50.0
100
AcDbLine
 10
5663.599994989121
 20
7327.052919335805
 30
0.0
 11
5726.674906015282
 21
7390.127830361961
 31
0.0
  0
LINE
  5
284A7
330
747D
100
AcDbEntity
  8
部品1
 48
50.0
100
AcDbLine
 10
5863.599994989121
 20
7390.127830361961
 30
0.0
 11
5863.599994989126
 21
7190.127836856908
 31
0.0
  0
LINE
  5
284A8
330
747D
100
AcDbEntity
  8
部品1
 48
50.0
100
AcDbLine
 10
5663.599994989121
 20
7390.127830361961
 30
0.0
 11
5663.599994989125
 21
7190.127836856908
 31
0.0
  0
LINE
  5
284AA
330
747D
100
AcDbEntity
  8
部品1
 48
50.0
100
AcDbLine
 10
5453.600000000008
 20
7010.127836856909
 30
0.0
 11
5253.600000000008
 21
7010.127836856909
 31
0.0
  0
LINE
  5
284AB
330
747D
100
AcDbEntity
  8
部品1
 48
50.0
100
AcDbLine
 10
5453.600000000008
 20
6810.12783685691
 30
0.0
 11
5253.600000000008
 21
6810.12783685691
 31
0.0
  0
LINE
  5
284AC
330
747D
100
AcDbEntity
  8
センター
 48
2.0
100
AcDbLine
 10
5303.600000000008
 20
6910.12783685691
 30
0.0
 11
5403.600000000007
 21
6910.12783685691
 31
0.0
  0
LINE
  5
284AD
330
747D
100
AcDbEntity
  8
部品1
 48
50.0
100
AcDbLine
 10
5253.600000000008
 20
6810.12783685691
 30
0.0
 11
5253.600000000008
 21
7010.127836856909
 31
0.0
  0
LINE
  5
284AE
330
747D
100
AcDbEntity
  8
センター
 48
2.0
100
AcDbLine
 10
5353.600000000008
 20
6960.127836856909
 30
0.0
 11
5353.600000000008
 21
6860.12783685691
 31
0.0
  0
LINE
  5
284AF
330
747D
100
AcDbEntity
  8
部品1
 48
50.0
100
AcDbLine
 10
5453.600000000008
 20
6810.12783685691
 30
0.0
 11
5453.600000000008
 21
7010.127836856909
 31
0.0
  0
LINE
  5
284B0
330
747D
100
AcDbEntity
  8
細線
 48
50.0
100
AcDbLine
 10
5751.181315536954
 20
7190.127836856909
 30
0.0
 11
5863.599994989121
 21
7302.546516309075
 31
0.0
  0
LINE
  5
284B1
330
747D
100
AcDbEntity
  8
細線
 48
50.0
100
AcDbLine
 10
5706.280034931609
 20
7190.127836856908
 30
0.0
 11
5863.599994989121
 21
7347.447796914419
 31
0.0
  0
LINE
  5
284B2
330
747D
100
AcDbEntity
  8
細線
 48
50.0
100
AcDbLine
 10
5840.983876747658
 20
7190.127836856901
 30
0.0
 11
5863.599994989122
 21
7212.743955098371
 31
0.0
  0
LINE
  5
284B3
330
747D
100
AcDbEntity
  8
細線
 48
50.0
100
AcDbLine
 10
5796.082596142296
 20
7190.127836856901
 30
0.0
 11
5863.599994989122
 21
7257.645235703724
 31
0.0
  0
LINE
  5
284B4
330
747D
100
AcDbEntity
  8
細線
 48
50.0
100
AcDbLine
 10
5663.599994989121
 20
7371.954199941149
 30
0.0
 11
5681.773625409935
 21
7390.127830361961
 31
0.0
  0
LINE
  5
284B5
330
747D
100
AcDbEntity
  8
細線
 48
50.0
100
AcDbLine
 10
6483.599994989126
 20
7192.349077519786
 30
0.0
 11
6681.378747831319
 21
7390.127830361975
 31
0.0
  0
LINE
  5
284B6
330
747D
100
AcDbEntity
  8
細線
 48
50.0
100
AcDbLine
 10
6483.599994989124
 20
7237.250358125127
 30
0.0
 11
6636.477467225971
 21
7390.127830361976
 31
0.0
  0
LINE
  5
284B7
330
747D
100
AcDbEntity
  8
細線
 48
50.0
100
AcDbLine
 10
6483.599994989123
 20
7282.151638730472
 30
0.0
 11
6591.576186620627
 21
7390.127830361975
 31
0.0
  0
LINE
  5
284B8
330
747D
100
AcDbEntity
  8
細線
 48
50.0
100
AcDbLine
 10
6483.599994989122
 20
7327.052919335816
 30
0.0
 11
6546.674906015282
 21
7390.127830361976
 31
0.0
  0
LINE
  5
284B9
330
747D
100
AcDbEntity
  8
部品1
 48
50.0
100
AcDbLine
 10
6683.599994989122
 20
7390.127830361975
 30
0.0
 11
6683.599994989126
 21
7190.127836856908
 31
0.0
  0
LINE
  5
284BA
330
747D
100
AcDbEntity
  8
部品1
 48
50.0
100
AcDbLine
 10
6483.599994989122
 20
7390.127830361975
 30
0.0
 11
6483.599994989126
 21
7190.127836856908
 31
0.0
  0
LINE
  5
284BB
330
747D
100
AcDbEntity
  8
部品1
 48
50.0
100
AcDbLine
 10
6273.600000000008
 20
7010.127836856909
 30
0.0
 11
6073.600000000007
 21
7010.127836856909
 31
0.0
  0
LINE
  5
284BC
330
747D
100
AcDbEntity
  8
センター
 48
2.0
100
AcDbLine
 10
6123.600000000007
 20
6910.12783685691
 30
0.0
 11
6223.600000000008
 21
6910.12783685691
 31
0.0
  0
LINE
  5
284BD
330
747D
100
AcDbEntity
  8
部品1
 48
50.0
100
AcDbLine
 10
6273.600000000008
 20
6810.12783685691
 30
0.0
 11
6073.600000000007
 21
6810.12783685691
 31
0.0
  0
LINE
  5
284BE
330
747D
100
AcDbEntity
  8
部品1
 48
50.0
100
AcDbLine
 10
6073.600000000007
 20
6810.12783685691
 30
0.0
 11
6073.600000000007
 21
7010.127836856909
 31
0.0
  0
LINE
  5
284BF
330
747D
100
AcDbEntity
  8
センター
 48
2.0
100
AcDbLine
 10
6173.600000000007
 20
6960.127836856909
 30
0.0
 11
6173.600000000007
 21
6860.12783685691
 31
0.0
  0
LINE
  5
284C0
330
747D
100
AcDbEntity
  8
部品1
 48
50.0
100
AcDbLine
 10
6273.600000000008
 20
6810.12783685691
 30
0.0
 11
6273.600000000008
 21
7010.127836856909
 31
0.0
  0
LINE
  5
284C1
330
747D
100
AcDbEntity
  8
センター
 48
2.0
100
AcDbLine
 10
6005.600000000001
 20
7267.127836856909
 30
0.0
 11
6105.6
 21
7267.127836856909
 31
0.0
  0
LINE
  5
284C2
330
747D
100
AcDbEntity
  8
センター
 48
2.0
100
AcDbLine
 10
6055.6
 20
7317.127836856909
 30
0.0
 11
6055.6
 21
7217.127836856909
 31
0.0
  0
CIRCLE
  5
284C3
330
747D
100
AcDbEntity
  8
部品1
 48
50.0
100
AcDbCircle
 10
6055.6
 20
7267.127836856909
 30
0.0
 40
35.0
  0
LINE
  5
284C4
330
747D
100
AcDbEntity
  8
細線
 48
50.0
100
AcDbLine
 10
6571.181315536958
 20
7190.127836856909
 30
0.0
 11
6683.599994989122
 21
7302.546516309089
 31
0.0
  0
LINE
  5
284C5
330
747D
100
AcDbEntity
  8
細線
 48
50.0
100
AcDbLine
 10
6526.280034931597
 20
7190.127836856908
 30
0.0
 11
6683.599994989122
 21
7347.447796914432
 31
0.0
  0
LINE
  5
284C6
330
747D
100
AcDbEntity
  8
細線
 48
50.0
100
AcDbLine
 10
6660.983876747657
 20
7190.127843351845
 30
0.0
 11
6683.599994989124
 21
7212.743961593317
 31
0.0
  0
LINE
  5
284C7
330
747D
100
AcDbEntity
  8
細線
 48
50.0
100
AcDbLine
 10
6616.082596142298
 20
7190.127843351845
 30
0.0
 11
6683.599994989123
 21
7257.645242198669
 31
0.0
  0
LINE
  5
284C8
330
747D
100
AcDbEntity
  8
細線
 48
50.0
100
AcDbLine
 10
6483.599994989122
 20
7371.954199941159
 30
0.0
 11
6501.773625409936
 21
7390.127830361976
 31
0.0
  0
DIMENSION
  5
284C9
330
747D
100
AcDbEntity
  8
寸法
 48
50.0
100
AcDbDimension
  2
*D35
 10
6993.600000000007
 20
7872.736653527157
 30
0.0
 11
7403.600000000007
 21
7972.74846455078
 31
0.0
 70
    32
 71
     5
 42
820.0
  3
INABA_S40G
100
AcDbAlignedDimension
 13
7813.600000000008
 23
6960.127836856909
 33
0.0
 14
6993.600000000007
 24
6960.127836856909
 34
0.0
100
AcDbRotatedDimension
1001
ACAD
1000
DSTYLE
1002
{
1070
   341
1005
0
1002
}
  0
LINE
  5
284CA
330
747D
100
AcDbEntity
  8
細線
 48
50.0
100
AcDbLine
 10
7303.599994989125
 20
7192.349077519785
 30
0.0
 11
7501.378747831319
 21
7390.127830361975
 31
0.0
  0
LINE
  5
284CB
330
747D
100
AcDbEntity
  8
細線
 48
50.0
100
AcDbLine
 10
7303.599994989124
 20
7237.250358125123
 30
0.0
 11
7456.477467225972
 21
7390.127830361976
 31
0.0
  0
LINE
  5
284CC
330
747D
100
AcDbEntity
  8
細線
 48
50.0
100
AcDbLine
 10
7303.599994989124
 20
7282.151638730471
 30
0.0
 11
7411.576186620625
 21
7390.127830361973
 31
0.0
  0
LINE
  5
284CD
330
747D
100
AcDbEntity
  8
細線
 48
50.0
100
AcDbLine
 10
7303.59999498912
 20
7327.052919335819
 30
0.0
 11
7366.674906015281
 21
7390.127830361975
 31
0.0
  0
LINE
  5
284CE
330
747D
100
AcDbEntity
  8
部品1
 48
50.0
100
AcDbLine
 10
7503.59999498912
 20
7390.127830361975
 30
0.0
 11
7503.599994989126
 21
7190.127836856908
 31
0.0
  0
LINE
  5
284CF
330
747D
100
AcDbEntity
  8
部品1
 48
50.0
100
AcDbLine
 10
7303.59999498912
 20
7390.127830361975
 30
0.0
 11
7303.599994989125
 21
7190.127836856908
 31
0.0
  0
LINE
  5
284D0
330
747D
100
AcDbEntity
  8
部品1
 48
50.0
100
AcDbLine
 10
7093.600000000008
 20
7010.127836856909
 30
0.0
 11
6893.600000000008
 21
7010.127836856909
 31
0.0
  0
LINE
  5
284D1
330
747D
100
AcDbEntity
  8
センター
 48
2.0
100
AcDbLine
 10
6943.600000000007
 20
6910.12783685691
 30
0.0
 11
7043.600000000008
 21
6910.12783685691
 31
0.0
  0
LINE
  5
284D2
330
747D
100
AcDbEntity
  8
部品1
 48
50.0
100
AcDbLine
 10
7093.600000000008
 20
6810.12783685691
 30
0.0
 11
6893.600000000008
 21
6810.12783685691
 31
0.0
  0
LINE
  5
284D3
330
747D
100
AcDbEntity
  8
部品1
 48
50.0
100
AcDbLine
 10
6893.600000000008
 20
6810.12783685691
 30
0.0
 11
6893.600000000008
 21
7010.127836856909
 31
0.0
  0
LINE
  5
284D4
330
747D
100
AcDbEntity
  8
センター
 48
2.0
100
AcDbLine
 10
6993.600000000007
 20
6960.127836856909
 30
0.0
 11
6993.600000000007
 21
6860.12783685691
 31
0.0
  0
LINE
  5
284D5
330
747D
100
AcDbEntity
  8
部品1
 48
50.0
100
AcDbLine
 10
7093.600000000008
 20
6810.12783685691
 30
0.0
 11
7093.600000000008
 21
7010.127836856909
 31
0.0
  0
LINE
  5
284D6
330
747D
100
AcDbEntity
  8
細線
 48
50.0
100
AcDbLine
 10
7391.181315536957
 20
7190.127836856909
 30
0.0
 11
7503.59999498912
 21
7302.546516309089
 31
0.0
  0
LINE
  5
284D7
330
747D
100
AcDbEntity
  8
細線
 48
50.0
100
AcDbLine
 10
7346.280034931597
 20
7190.127836856908
 30
0.0
 11
7503.59999498912
 21
7347.447796914432
 31
0.0
  0
LINE
  5
284D8
330
747D
100
AcDbEntity
  8
細線
 48
50.0
100
AcDbLine
 10
7480.983876747657
 20
7190.127843351845
 30
0.0
 11
7503.599994989125
 21
7212.743961593317
 31
0.0
  0
LINE
  5
284D9
330
747D
100
AcDbEntity
  8
細線
 48
50.0
100
AcDbLine
 10
7436.082596142298
 20
7190.127843351845
 30
0.0
 11
7503.599994989123
 21
7257.645242198669
 31
0.0
  0
LINE
  5
284DA
330
747D
100
AcDbEntity
  8
細線
 48
50.0
100
AcDbLine
 10
7303.59999498912
 20
7371.954199941159
 30
0.0
 11
7321.773625409935
 21
7390.127830361976
 31
0.0
  0
LINE
  5
284DB
330
747D
100
AcDbEntity
  8
細線
 48
50.0
100
AcDbLine
 10
8123.599994989126
 20
7192.349077519785
 30
0.0
 11
8321.378747831319
 21
7390.127830361975
 31
0.0
  0
LINE
  5
284DC
330
747D
100
AcDbEntity
  8
細線
 48
50.0
100
AcDbLine
 10
8123.599994989126
 20
7237.250358125127
 30
0.0
 11
8276.477467225971
 21
7390.127830361976
 31
0.0
  0
LINE
  5
284DD
330
747D
100
AcDbEntity
  8
細線
 48
50.0
100
AcDbLine
 10
8123.599994989124
 20
7282.151638730471
 30
0.0
 11
8231.576186620625
 21
7390.127830361973
 31
0.0
  0
LINE
  5
284DE
330
747D
100
AcDbEntity
  8
細線
 48
50.0
100
AcDbLine
 10
8123.59999498912
 20
7327.052919335819
 30
0.0
 11
8186.674906015282
 21
7390.127830361975
 31
0.0
  0
LINE
  5
284DF
330
747D
100
AcDbEntity
  8
部品1
 48
50.0
100
AcDbLine
 10
8323.599994989121
 20
7390.127830361975
 30
0.0
 11
8323.599994989127
 21
7190.127836856908
 31
0.0
  0
LINE
  5
284E0
330
747D
100
AcDbEntity
  8
部品1
 48
50.0
100
AcDbLine
 10
8123.59999498912
 20
7390.127830361975
 30
0.0
 11
8123.599994989126
 21
7190.127836856908
 31
0.0
  0
LINE
  5
284E1
330
747D
100
AcDbEntity
  8
部品1
 48
50.0
100
AcDbLine
 10
7913.600000000008
 20
7010.127836856909
 30
0.0
 11
7713.600000000008
 21
7010.127836856909
 31
0.0
  0
LINE
  5
284E2
330
747D
100
AcDbEntity
  8
部品1
 48
50.0
100
AcDbLine
 10
7913.600000000008
 20
6810.12783685691
 30
0.0
 11
7713.600000000008
 21
6810.12783685691
 31
0.0
  0
LINE
  5
284E3
330
747D
100
AcDbEntity
  8
センター
 48
2.0
100
AcDbLine
 10
7763.600000000008
 20
6910.12783685691
 30
0.0
 11
7863.600000000008
 21
6910.12783685691
 31
0.0
  0
LINE
  5
284E4
330
747D
100
AcDbEntity
  8
部品1
 48
50.0
100
AcDbLine
 10
7713.600000000008
 20
6810.12783685691
 30
0.0
 11
7713.600000000008
 21
7010.127836856909
 31
0.0
  0
LINE
  5
284E5
330
747D
100
AcDbEntity
  8
センター
 48
2.0
100
AcDbLine
 10
7813.600000000008
 20
6960.127836856909
 30
0.0
 11
7813.600000000008
 21
6860.12783685691
 31
0.0
  0
LINE
  5
284E6
330
747D
100
AcDbEntity
  8
部品1
 48
50.0
100
AcDbLine
 10
7913.600000000008
 20
6810.12783685691
 30
0.0
 11
7913.600000000008
 21
7010.127836856909
 31
0.0
  0
LINE
  5
284E7
330
747D
100
AcDbEntity
  8
センター
 48
2.0
100
AcDbLine
 10
7645.6
 20
7267.127836856909
 30
0.0
 11
7745.6
 21
7267.127836856909
 31
0.0
  0
CIRCLE
  5
284E8
330
747D
100
AcDbEntity
  8
部品1
 48
50.0
100
AcDbCircle
 10
7695.6
 20
7267.127836856909
 30
0.0
 40
35.0
  0
LINE
  5
284E9
330
747D
100
AcDbEntity
  8
センター
 48
2.0
100
AcDbLine
 10
7695.6
 20
7317.127836856909
 30
0.0
 11
7695.6
 21
7217.127836856909
 31
0.0
  0
LINE
  5
284EA
330
747D
100
AcDbEntity
  8
細線
 48
50.0
100
AcDbLine
 10
8211.181315536959
 20
7190.127836856909
 30
0.0
 11
8323.599994989121
 21
7302.546516309089
 31
0.0
  0
LINE
  5
284EB
330
747D
100
AcDbEntity
  8
細線
 48
50.0
100
AcDbLine
 10
8166.280034931597
 20
7190.127836856908
 30
0.0
 11
8323.599994989121
 21
7347.447796914432
 31
0.0
  0
LINE
  5
284EC
330
747D
100
AcDbEntity
  8
細線
 48
50.0
100
AcDbLine
 10
8300.983876747658
 20
7190.127843351845
 30
0.0
 11
8323.599994989125
 21
7212.743961593317
 31
0.0
  0
LINE
  5
284ED
330
747D
100
AcDbEntity
  8
細線
 48
50.0
100
AcDbLine
 10
8256.082596142297
 20
7190.127843351845
 30
0.0
 11
8323.599994989123
 21
7257.645242198669
 31
0.0
  0
LINE
  5
284EE
330
747D
100
AcDbEntity
  8
細線
 48
50.0
100
AcDbLine
 10
8123.59999498912
 20
7371.954199941159
 30
0.0
 11
8141.773625409935
 21
7390.127830361976
 31
0.0
  0
LINE
  5
284F0
330
747D
100
AcDbEntity
  8
寸法
 48
50.0
100
AcDbLine
 10
7695.6
 20
8116.394294950707
 30
0.0
 11
8395.644554822071
 21
8116.394294950707
 31
0.0
  0
LINE
  5
284F5
330
747D
100
AcDbEntity
  8
部品1
 48
50.0
100
AcDbLine
 10
12738.6
 20
6430.127836856927
 30
0.0
 11
12738.6
 21
7390.127836856909
 31
0.0
  0
LINE
  5
284FA
330
747D
100
AcDbEntity
  8
細線
 48
50.0
100
AcDbLine
 10
9079.404359938235
 20
6430.127830361978
 30
0.0
 11
9143.599994989125
 21
6494.323465412865
 31
0.0
  0
LINE
  5
284FB
330
747D
100
AcDbEntity
  8
細線
 48
50.0
100
AcDbLine
 10
9034.503079332891
 20
6430.127830361977
 30
0.0
 11
9143.599994989122
 21
6539.22474601821
 31
0.0
  0
LINE
  5
284FC
330
747D
100
AcDbEntity
  8
細線
 48
50.0
100
AcDbLine
 10
8989.601805222497
 20
6430.127836856927
 30
0.0
 11
9143.59999498912
 21
6584.126026623554
 31
0.0
  0
LINE
  5
284FE
330
747D
100
AcDbEntity
  8
部品1
 48
50.0
100
AcDbLine
 10
8943.599994989115
 20
6710.127836856926
 30
0.0
 11
8943.599994989126
 21
6430.127830361975
 31
0.0
  0
LINE
  5
284FF
330
747D
100
AcDbEntity
  8
部品1
 48
50.0
100
AcDbLine
 10
9143.599994989113
 20
6710.12783685693
 30
0.0
 11
9143.599994989127
 21
6430.127830361978
 31
0.0
  0
LINE
  5
28501
330
747D
100
AcDbEntity
  8
細線
 48
50.0
100
AcDbLine
 10
9124.305640543584
 20
6430.127830361979
 30
0.0
 11
9143.599994989125
 21
6449.422184807521
 31
0.0
  0
LINE
  5
28502
330
747D
100
AcDbEntity
  8
細線
 48
50.0
100
AcDbLine
 10
8943.599994989119
 20
6563.731149044944
 30
0.0
 11
9089.996682801107
 21
6710.127836856928
 31
0.0
  0
LINE
  5
28503
330
747D
100
AcDbEntity
  8
細線
 48
50.0
100
AcDbLine
 10
8943.599994989121
 20
6518.829868439597
 30
0.0
 11
9134.897963406466
 21
6710.127836856928
 31
0.0
  0
LINE
  5
28504
330
747D
100
AcDbEntity
  8
細線
 48
50.0
100
AcDbLine
 10
8944.70052461715
 20
6430.127836856927
 30
0.0
 11
9143.599994989115
 21
6629.027307228897
 31
0.0
  0
LINE
  5
28505
330
747D
100
AcDbEntity
  8
細線
 48
50.0
100
AcDbLine
 10
8943.599994989126
 20
6473.928587834247
 30
0.0
 11
9143.599994989115
 21
6673.928587834239
 31
0.0
  0
LINE
  5
28506
330
747D
100
AcDbEntity
  8
細線
 48
50.0
100
AcDbLine
 10
8943.599994989121
 20
6608.632429650285
 30
0.0
 11
9045.095402195764
 21
6710.127836856926
 31
0.0
  0
LINE
  5
28507
330
747D
100
AcDbEntity
  8
細線
 48
50.0
100
AcDbLine
 10
8943.599994989122
 20
6653.533710255629
 30
0.0
 11
9000.194121590414
 21
6710.127836856928
 31
0.0
  0
LINE
  5
2850A
330
747D
100
AcDbEntity
  8
細線
 48
50.0
100
AcDbLine
 10
9899.404359938236
 20
6430.127830361977
 30
0.0
 11
9963.599994989124
 21
6494.323465412865
 31
0.0
  0
LINE
  5
2850B
330
747D
100
AcDbEntity
  8
細線
 48
50.0
100
AcDbLine
 10
9854.503079332891
 20
6430.127830361977
 30
0.0
 11
9963.599994989122
 21
6539.22474601821
 31
0.0
  0
LINE
  5
2850C
330
747D
100
AcDbEntity
  8
細線
 48
50.0
100
AcDbLine
 10
9809.601798727543
 20
6430.127830361977
 30
0.0
 11
9963.599994989117
 21
6584.126026623549
 31
0.0
  0
LINE
  5
2850D
330
747D
100
AcDbEntity
  8
細線
 48
50.0
100
AcDbLine
 10
9764.700518122197
 20
6430.127830361977
 30
0.0
 11
9963.599994989115
 21
6629.027307228891
 31
0.0
  0
LINE
  5
2850E
330
747D
100
AcDbEntity
  8
細線
 48
50.0
100
AcDbLine
 10
9763.599994989125
 20
6473.928587834251
 30
0.0
 11
9963.599994989113
 21
6673.928587834232
 31
0.0
  0
LINE
  5
2850F
330
747D
100
AcDbEntity
  8
部品1
 48
50.0
100
AcDbLine
 10
9763.599994989116
 20
6710.12783685693
 30
0.0
 11
9763.599994989128
 21
6430.127830361975
 31
0.0
  0
LINE
  5
28510
330
747D
100
AcDbEntity
  8
部品1
 48
50.0
100
AcDbLine
 10
9963.599994989113
 20
6710.127836856933
 30
0.0
 11
9963.599994989127
 21
6430.127830361978
 31
0.0
  0
LINE
  5
28511
330
747D
100
AcDbEntity
  8
細線
 48
50.0
100
AcDbLine
 10
9944.305640543582
 20
6430.127830361979
 30
0.0
 11
9963.599994989124
 21
6449.422184807521
 31
0.0
  0
LINE
  5
28512
330
747D
100
AcDbEntity
  8
細線
 48
50.0
100
AcDbLine
 10
9763.599994989123
 20
6518.829868439595
 30
0.0
 11
9954.897963406459
 21
6710.127836856931
 31
0.0
  0
LINE
  5
28513
330
747D
100
AcDbEntity
  8
細線
 48
50.0
100
AcDbLine
 10
9763.599994989123
 20
6563.731149044939
 30
0.0
 11
9909.996682801109
 21
6710.127836856931
 31
0.0
  0
LINE
  5
28514
330
747D
100
AcDbEntity
  8
細線
 48
50.0
100
AcDbLine
 10
9763.599994989117
 20
6653.533716750558
 30
0.0
 11
9820.194115095493
 21
6710.127836856933
 31
0.0
  0
LINE
  5
28515
330
747D
100
AcDbEntity
  8
細線
 48
50.0
100
AcDbLine
 10
9763.599994989117
 20
6608.632436145216
 30
0.0
 11
9865.095395700839
 21
6710.127836856933
 31
0.0
  0
LINE
  5
28516
330
747D
100
AcDbEntity
  8
センター
 48
2.0
100
AcDbLine
 10
10155.60000000001
 20
6678.127836856913
 30
0.0
 11
10155.60000000001
 21
6578.127836856913
 31
0.0
  0
LINE
  5
28517
330
747D
100
AcDbEntity
  8
センター
 48
2.0
100
AcDbLine
 10
10105.60000000001
 20
6628.127836856913
 30
0.0
 11
10205.60000000001
 21
6628.127836856913
 31
0.0
  0
CIRCLE
  5
28518
330
747D
100
AcDbEntity
  8
部品1
 48
50.0
100
AcDbCircle
 10
10155.60000000001
 20
6628.127836856913
 30
0.0
 40
35.0
  0
LINE
  5
28519
330
747D
100
AcDbEntity
  8
細線
 48
50.0
100
AcDbLine
 10
10719.40435993824
 20
6430.127830361977
 30
0.0
 11
10783.59999498912
 21
6494.323465412865
 31
0.0
  0
LINE
  5
2851A
330
747D
100
AcDbEntity
  8
細線
 48
50.0
100
AcDbLine
 10
10674.50307933289
 20
6430.127830361977
 30
0.0
 11
10783.59999498912
 21
6539.22474601821
 31
0.0
  0
LINE
  5
2851B
330
747D
100
AcDbEntity
  8
細線
 48
50.0
100
AcDbLine
 10
10629.60179872754
 20
6430.127830361977
 30
0.0
 11
10783.59999498911
 21
6584.12602662355
 31
0.0
  0
LINE
  5
2851C
330
747D
100
AcDbEntity
  8
細線
 48
50.0
100
AcDbLine
 10
10584.7005181222
 20
6430.127830361977
 30
0.0
 11
10783.59999498911
 21
6629.027307228891
 31
0.0
  0
LINE
  5
2851D
330
747D
100
AcDbEntity
  8
細線
 48
50.0
100
AcDbLine
 10
10583.59999498912
 20
6473.928587834251
 30
0.0
 11
10783.59999498911
 21
6673.928587834236
 31
0.0
  0
LINE
  5
2851E
330
747D
100
AcDbEntity
  8
部品1
 48
50.0
100
AcDbLine
 10
10583.59999498911
 20
6710.127836856935
 30
0.0
 11
10583.59999498913
 21
6430.127830361975
 31
0.0
  0
LINE
  5
2851F
330
747D
100
AcDbEntity
  8
部品1
 48
50.0
100
AcDbLine
 10
10783.59999498911
 20
6710.127836856935
 30
0.0
 11
10783.59999498913
 21
6430.127830361978
 31
0.0
  0
LINE
  5
28520
330
747D
100
AcDbEntity
  8
細線
 48
50.0
100
AcDbLine
 10
10764.30564054358
 20
6430.127830361979
 30
0.0
 11
10783.59999498912
 21
6449.422184807521
 31
0.0
  0
LINE
  5
28521
330
747D
100
AcDbEntity
  8
細線
 48
50.0
100
AcDbLine
 10
10583.59999498912
 20
6518.829868439592
 30
0.0
 11
10774.89796340647
 21
6710.127836856935
 31
0.0
  0
LINE
  5
28522
330
747D
100
AcDbEntity
  8
細線
 48
50.0
100
AcDbLine
 10
10583.59999498912
 20
6563.731149044937
 30
0.0
 11
10729.99668280112
 21
6710.127836856933
 31
0.0
  0
LINE
  5
28523
330
747D
100
AcDbEntity
  8
細線
 48
50.0
100
AcDbLine
 10
10583.59999498912
 20
6608.632436145216
 30
0.0
 11
10685.09539570084
 21
6710.127836856935
 31
0.0
  0
LINE
  5
28524
330
747D
100
AcDbEntity
  8
細線
 48
50.0
100
AcDbLine
 10
10583.59999498912
 20
6653.533716750558
 30
0.0
 11
10640.19411509549
 21
6710.127836856935
 31
0.0
  0
LINE
  5
28525
330
747D
100
AcDbEntity
  8
細線
 48
50.0
100
AcDbLine
 10
11539.40435993823
 20
6430.127830361978
 30
0.0
 11
11603.59999498912
 21
6494.323465412865
 31
0.0
  0
LINE
  5
28526
330
747D
100
AcDbEntity
  8
細線
 48
50.0
100
AcDbLine
 10
11494.50307933289
 20
6430.127830361977
 30
0.0
 11
11603.59999498912
 21
6539.22474601821
 31
0.0
  0
LINE
  5
28527
330
747D
100
AcDbEntity
  8
細線
 48
50.0
100
AcDbLine
 10
11449.60179872754
 20
6430.127830361977
 30
0.0
 11
11603.59999498911
 21
6584.126026623554
 31
0.0
  0
LINE
  5
28528
330
747D
100
AcDbEntity
  8
細線
 48
50.0
100
AcDbLine
 10
11404.70051812219
 20
6430.127830361977
 30
0.0
 11
11603.59999498911
 21
6629.027307228892
 31
0.0
  0
LINE
  5
28529
330
747D
100
AcDbEntity
  8
細線
 48
50.0
100
AcDbLine
 10
11403.59999498912
 20
6473.928587834251
 30
0.0
 11
11603.59999498911
 21
6673.92858783424
 31
0.0
  0
LINE
  5
2852A
330
747D
100
AcDbEntity
  8
部品1
 48
50.0
100
AcDbLine
 10
11403.59999498911
 20
6710.127836856938
 30
0.0
 11
11403.59999498912
 21
6430.127830361975
 31
0.0
  0
LINE
  5
2852B
330
747D
100
AcDbEntity
  8
部品1
 48
50.0
100
AcDbLine
 10
11603.59999498911
 20
6710.127836856938
 30
0.0
 11
11603.59999498912
 21
6430.127830361978
 31
0.0
  0
LINE
  5
2852C
330
747D
100
AcDbEntity
  8
細線
 48
50.0
100
AcDbLine
 10
11584.30564054358
 20
6430.127830361979
 30
0.0
 11
11603.59999498912
 21
6449.422184807521
 31
0.0
  0
LINE
  5
2852D
330
747D
100
AcDbEntity
  8
細線
 48
50.0
100
AcDbLine
 10
11403.59999498912
 20
6518.829868439592
 30
0.0
 11
11594.89796340646
 21
6710.127836856938
 31
0.0
  0
LINE
  5
2852E
330
747D
100
AcDbEntity
  8
細線
 48
50.0
100
AcDbLine
 10
11403.59999498911
 20
6653.533716750558
 30
0.0
 11
11460.19411509549
 21
6710.127836856938
 31
0.0
  0
LINE
  5
2852F
330
747D
100
AcDbEntity
  8
細線
 48
50.0
100
AcDbLine
 10
11403.59999498911
 20
6608.632436145216
 30
0.0
 11
11505.09539570084
 21
6710.127836856938
 31
0.0
  0
LINE
  5
28530
330
747D
100
AcDbEntity
  8
細線
 48
50.0
100
AcDbLine
 10
11403.59999498912
 20
6563.731149044937
 30
0.0
 11
11549.99668280113
 21
6710.127836856938
 31
0.0
  0
LINE
  5
28535
330
747D
100
AcDbEntity
  8
細線
 48
50.0
100
AcDbLine
 10
12359.40435993823
 20
6430.127830361977
 30
0.0
 11
12423.59999498912
 21
6494.323465412865
 31
0.0
  0
LINE
  5
28536
330
747D
100
AcDbEntity
  8
細線
 48
50.0
100
AcDbLine
 10
12314.50307933289
 20
6430.127830361977
 30
0.0
 11
12423.59999498912
 21
6539.22474601821
 31
0.0
  0
LINE
  5
28537
330
747D
100
AcDbEntity
  8
細線
 48
50.0
100
AcDbLine
 10
12269.60179872754
 20
6430.127830361977
 30
0.0
 11
12423.59999498912
 21
6584.126026623549
 31
0.0
  0
LINE
  5
28538
330
747D
100
AcDbEntity
  8
細線
 48
50.0
100
AcDbLine
 10
12224.7005181222
 20
6430.127830361977
 30
0.0
 11
12423.59999498911
 21
6629.027307228892
 31
0.0
  0
LINE
  5
28539
330
747D
100
AcDbEntity
  8
細線
 48
50.0
100
AcDbLine
 10
12223.59999498912
 20
6473.928587834251
 30
0.0
 11
12423.59999498911
 21
6673.928587834234
 31
0.0
  0
LINE
  5
2853A
330
747D
100
AcDbEntity
  8
部品1
 48
50.0
100
AcDbLine
 10
12423.59999498911
 20
6710.127836856941
 30
0.0
 11
12423.59999498912
 21
6430.127830361978
 31
0.0
  0
LINE
  5
2853B
330
747D
100
AcDbEntity
  8
部品1
 48
50.0
100
AcDbLine
 10
12223.59999498911
 20
6710.127836856941
 30
0.0
 11
12223.59999498912
 21
6430.127830361975
 31
0.0
  0
LINE
  5
2853C
330
747D
100
AcDbEntity
  8
細線
 48
50.0
100
AcDbLine
 10
12404.30564054358
 20
6430.127830361979
 30
0.0
 11
12423.59999498912
 21
6449.422184807521
 31
0.0
  0
LINE
  5
2853D
330
747D
100
AcDbEntity
  8
細線
 48
50.0
100
AcDbLine
 10
12223.59999498912
 20
6518.829868439592
 30
0.0
 11
12414.89796340647
 21
6710.127836856942
 31
0.0
  0
LINE
  5
2853E
330
747D
100
AcDbEntity
  8
細線
 48
50.0
100
AcDbLine
 10
12223.59999498911
 20
6608.632436145216
 30
0.0
 11
12325.09539570084
 21
6710.127836856942
 31
0.0
  0
LINE
  5
2853F
330
747D
100
AcDbEntity
  8
細線
 48
50.0
100
AcDbLine
 10
12223.59999498911
 20
6653.533716750558
 30
0.0
 11
12280.1941150955
 21
6710.127836856942
 31
0.0
  0
LINE
  5
28540
330
747D
100
AcDbEntity
  8
細線
 48
50.0
100
AcDbLine
 10
12223.59999498912
 20
6563.731149044937
 30
0.0
 11
12369.99668280113
 21
6710.127836856941
 31
0.0
  0
LINE
  5
28541
330
747D
100
AcDbEntity
  8
センター
 48
2.0
100
AcDbLine
 10
12565.60000000001
 20
6628.127836856913
 30
0.0
 11
12665.60000000001
 21
6628.127836856913
 31
0.0
  0
LINE
  5
28542
330
747D
100
AcDbEntity
  8
センター
 48
2.0
100
AcDbLine
 10
12615.60000000001
 20
6678.127836856913
 30
0.0
 11
12615.60000000001
 21
6578.127836856913
 31
0.0
  0
CIRCLE
  5
28543
330
747D
100
AcDbEntity
  8
部品1
 48
50.0
100
AcDbCircle
 10
12615.60000000001
 20
6628.127836856913
 30
0.0
 40
35.0
  0
DIMENSION
  5
28546
330
747D
100
AcDbEntity
  8
寸法
 48
50.0
100
AcDbDimension
  2
*D36
 10
10155.6
 20
8116.39429495082
 30
0.0
 11
11385.6
 21
8216.40610597444
 31
0.0
 70
    32
 71
     5
 42
2460.0
  3
INABA_S40G
100
AcDbAlignedDimension
 13
12615.6
 23
7317.127836856909
 33
0.0
 14
10155.6
 24
7317.127836856909
 34
0.0
100
AcDbRotatedDimension
1001
ACAD
1000
DSTYLE
1002
{
1070
   341
1005
0
1002
}
  0
DIMENSION
  5
28548
330
747D
100
AcDbEntity
  8
寸法
 48
50.0
100
AcDbDimension
  2
*D37
 10
11093.60000000001
 20
7872.736653527157
 30
0.0
 11
11503.6
 21
7972.74846455078
 31
0.0
 70
    32
 71
     5
 42
820.0
  3
INABA_S40G
100
AcDbAlignedDimension
 13
11913.60000000001
 23
6960.127836856909
 33
0.0
 14
11093.60000000001
 24
6960.127836856909
 34
0.0
100
AcDbRotatedDimension
1001
ACAD
1000
DSTYLE
1002
{
1070
   341
1005
0
1002
}
  0
LINE
  5
28549
330
747D
100
AcDbEntity
  8
寸法
 48
50.0
100
AcDbLine
 10
9455.55544517793
 20
8116.394294950822
 30
0.0
 11
10155.6
 21
8116.394294950822
 31
0.0
  0
DIMENSION
  5
2854A
330
747D
100
AcDbEntity
  8
寸法
 48
50.0
100
AcDbDimension
  2
*D38
 10
9453.600000000006
 20
7872.736653527157
 30
0.0
 11
9863.600000000008
 21
7972.74846455078
 31
0.0
 70
    32
 71
     5
 42
820.0
  3
INABA_S40G
100
AcDbAlignedDimension
 13
10273.6
 23
6960.127836856909
 33
0.0
 14
9453.600000000006
 24
6960.127836856909
 34
0.0
100
AcDbRotatedDimension
1001
ACAD
1000
DSTYLE
1002
{
1070
   341
1005
0
1002
}
  0
LINE
  5
2854D
330
747D
100
AcDbEntity
  8
寸法
 48
50.0
100
AcDbLine
 10
9173.600000000007
 20
7872.73665352716
 30
0.0
 11
9453.600000000006
 21
7872.73665352716
 31
0.0
  0
LINE
  5
2854E
330
747D
100
AcDbEntity
  8
細線
 48
50.0
100
AcDbLine
 10
8943.599994989122
 20
7237.250358125123
 30
0.0
 11
9096.477467225971
 21
7390.127830361976
 31
0.0
  0
LINE
  5
2854F
330
747D
100
AcDbEntity
  8
細線
 48
50.0
100
AcDbLine
 10
8943.599994989122
 20
7282.151638730471
 30
0.0
 11
9051.576186620627
 21
7390.127830361975
 31
0.0
  0
LINE
  5
28550
330
747D
100
AcDbEntity
  8
細線
 48
50.0
100
AcDbLine
 10
8943.599994989121
 20
7327.052919335816
 30
0.0
 11
9006.674906015282
 21
7390.127830361976
 31
0.0
  0
LINE
  5
28551
330
747D
100
AcDbEntity
  8
部品1
 48
50.0
100
AcDbLine
 10
9143.59999498912
 20
7390.127830361975
 30
0.0
 11
9143.599994989129
 21
7190.127836856908
 31
0.0
  0
LINE
  5
28552
330
747D
100
AcDbEntity
  8
部品1
 48
50.0
100
AcDbLine
 10
8943.599994989121
 20
7390.127830361975
 30
0.0
 11
8943.599994989126
 21
7190.127836856908
 31
0.0
  0
LINE
  5
28557
330
747D
100
AcDbEntity
  8
部品1
 48
50.0
100
AcDbLine
 10
8733.600000000008
 20
7010.127836856909
 30
0.0
 11
8533.600000000008
 21
7010.127836856909
 31
0.0
  0
LINE
  5
28558
330
747D
100
AcDbEntity
  8
部品1
 48
50.0
100
AcDbLine
 10
8733.600000000008
 20
6810.12783685691
 30
0.0
 11
8533.600000000008
 21
6810.12783685691
 31
0.0
  0
LINE
  5
28559
330
747D
100
AcDbEntity
  8
センター
 48
2.0
100
AcDbLine
 10
8583.600000000009
 20
6910.12783685691
 30
0.0
 11
8683.600000000009
 21
6910.12783685691
 31
0.0
  0
LINE
  5
2855A
330
747D
100
AcDbEntity
  8
部品1
 48
50.0
100
AcDbLine
 10
8533.600000000008
 20
6810.12783685691
 30
0.0
 11
8533.600000000008
 21
7010.127836856909
 31
0.0
  0
LINE
  5
2855B
330
747D
100
AcDbEntity
  8
センター
 48
2.0
100
AcDbLine
 10
8633.600000000008
 20
6960.127836856909
 30
0.0
 11
8633.600000000008
 21
6860.12783685691
 31
0.0
  0
LINE
  5
2855C
330
747D
100
AcDbEntity
  8
部品1
 48
50.0
100
AcDbLine
 10
8733.600000000008
 20
6810.12783685691
 30
0.0
 11
8733.600000000008
 21
7010.127836856909
 31
0.0
  0
LINE
  5
28562
330
747D
100
AcDbEntity
  8
細線
 48
50.0
100
AcDbLine
 10
9031.181315536942
 20
7190.127836856908
 30
0.0
 11
9143.599994989122
 21
7302.546516309089
 31
0.0
  0
LINE
  5
28563
330
747D
100
AcDbEntity
  8
細線
 48
50.0
100
AcDbLine
 10
8986.280034931615
 20
7190.127836856908
 30
0.0
 11
9143.599994989122
 21
7347.447796914433
 31
0.0
  0
LINE
  5
28564
330
747D
100
AcDbEntity
  8
細線
 48
50.0
100
AcDbLine
 10
8943.599994989126
 20
7192.349077519778
 30
0.0
 11
9141.378754326249
 21
7390.127836856908
 31
0.0
  0
LINE
  5
28565
330
747D
100
AcDbEntity
  8
細線
 48
50.0
100
AcDbLine
 10
9120.983876747628
 20
7190.127836856904
 30
0.0
 11
9143.599994989127
 21
7212.743955098402
 31
0.0
  0
LINE
  5
28566
330
747D
100
AcDbEntity
  8
細線
 48
50.0
100
AcDbLine
 10
9076.082596142285
 20
7190.127836856906
 30
0.0
 11
9143.599994989122
 21
7257.645235703741
 31
0.0
  0
LINE
  5
28569
330
747D
100
AcDbEntity
  8
寸法
 48
50.0
100
AcDbLine
 10
8633.600000000008
 20
7872.736653527043
 30
0.0
 11
8913.600000000007
 21
7872.736653527043
 31
0.0
  0
LINE
  5
2856A
330
747D
100
AcDbEntity
  8
細線
 48
50.0
100
AcDbLine
 10
8943.599994989121
 20
7371.954199941159
 30
0.0
 11
8961.773625409938
 21
7390.127830361976
 31
0.0
  0
LINE
  5
2856B
330
747D
100
AcDbEntity
  8
細線
 48
50.0
100
AcDbLine
 10
9136.476413573296
 20
7385.225496103955
 30
0.0
 11
9141.378747831319
 21
7390.127830361975
 31
0.0
  0
LINE
  5
2856C
330
747D
100
AcDbEntity
  8
細線
 48
50.0
100
AcDbLine
 10
9763.599994989128
 20
7192.349077519785
 30
0.0
 11
9961.378747831318
 21
7390.127830361975
 31
0.0
  0
LINE
  5
2856D
330
747D
100
AcDbEntity
  8
細線
 48
50.0
100
AcDbLine
 10
9763.599994989128
 20
7237.250358125129
 30
0.0
 11
9916.477467225973
 21
7390.127830361973
 31
0.0
  0
LINE
  5
2856E
330
747D
100
AcDbEntity
  8
細線
 48
50.0
100
AcDbLine
 10
9763.599994989125
 20
7282.151638730475
 30
0.0
 11
9871.576186620625
 21
7390.127830361973
 31
0.0
  0
LINE
  5
2856F
330
747D
100
AcDbEntity
  8
細線
 48
50.0
100
AcDbLine
 10
9763.599994989121
 20
7327.052919335819
 30
0.0
 11
9826.674906015277
 21
7390.127830361973
 31
0.0
  0
LINE
  5
28570
330
747D
100
AcDbEntity
  8
部品1
 48
50.0
100
AcDbLine
 10
9963.59999498912
 20
7390.127830361975
 30
0.0
 11
9963.599994989129
 21
7190.127836856909
 31
0.0
  0
LINE
  5
28571
330
747D
100
AcDbEntity
  8
部品1
 48
50.0
100
AcDbLine
 10
9763.599994989121
 20
7390.127830361975
 30
0.0
 11
9763.599994989128
 21
7190.127836856908
 31
0.0
  0
LINE
  5
28572
330
747D
100
AcDbEntity
  8
部品1
 48
50.0
100
AcDbLine
 10
9553.600000000008
 20
7010.127836856909
 30
0.0
 11
9353.600000000007
 21
7010.127836856909
 31
0.0
  0
LINE
  5
28573
330
747D
100
AcDbEntity
  8
センター
 48
2.0
100
AcDbLine
 10
9403.600000000007
 20
6910.12783685691
 30
0.0
 11
9503.600000000007
 21
6910.12783685691
 31
0.0
  0
LINE
  5
28574
330
747D
100
AcDbEntity
  8
部品1
 48
50.0
100
AcDbLine
 10
9553.600000000008
 20
6810.12783685691
 30
0.0
 11
9353.600000000007
 21
6810.12783685691
 31
0.0
  0
LINE
  5
28575
330
747D
100
AcDbEntity
  8
センター
 48
2.0
100
AcDbLine
 10
9453.600000000006
 20
6960.127836856909
 30
0.0
 11
9453.600000000006
 21
6860.12783685691
 31
0.0
  0
LINE
  5
28576
330
747D
100
AcDbEntity
  8
部品1
 48
50.0
100
AcDbLine
 10
9353.600000000007
 20
6810.12783685691
 30
0.0
 11
9353.600000000007
 21
7010.127836856909
 31
0.0
  0
LINE
  5
28577
330
747D
100
AcDbEntity
  8
部品1
 48
50.0
100
AcDbLine
 10
9553.600000000008
 20
6810.12783685691
 30
0.0
 11
9553.600000000008
 21
7010.127836856909
 31
0.0
  0
LINE
  5
28578
330
747D
100
AcDbEntity
  8
細線
 48
50.0
100
AcDbLine
 10
9851.181315536924
 20
7190.127836856905
 30
0.0
 11
9963.599994989122
 21
7302.546516309085
 31
0.0
  0
LINE
  5
28579
330
747D
100
AcDbEntity
  8
細線
 48
50.0
100
AcDbLine
 10
9806.280034931599
 20
7190.127836856908
 30
0.0
 11
9963.59999498912
 21
7347.44779691443
 31
0.0
  0
LINE
  5
2857A
330
747D
100
AcDbEntity
  8
細線
 48
50.0
100
AcDbLine
 10
9940.983876747656
 20
7190.127843351845
 30
0.0
 11
9963.599994989122
 21
7212.743961593317
 31
0.0
  0
LINE
  5
2857B
330
747D
100
AcDbEntity
  8
細線
 48
50.0
100
AcDbLine
 10
9896.082596142294
 20
7190.127843351845
 30
0.0
 11
9963.599994989122
 21
7257.645242198669
 31
0.0
  0
LINE
  5
2857C
330
747D
100
AcDbEntity
  8
細線
 48
50.0
100
AcDbLine
 10
9763.599994989121
 20
7371.954199941159
 30
0.0
 11
9781.773625409934
 21
7390.127830361973
 31
0.0
  0
DIMENSION
  5
2857E
330
747D
100
AcDbEntity
  8
寸法
 48
50.0
100
AcDbDimension
  2
*D39
 10
10273.6
 20
7872.736653527157
 30
0.0
 11
10683.60000000001
 21
7972.74846455078
 31
0.0
 70
    32
 71
     5
 42
820.0
  3
INABA_S40G
100
AcDbAlignedDimension
 13
11093.60000000001
 23
6960.127836856909
 33
0.0
 14
10273.6
 24
6960.127836856909
 34
0.0
100
AcDbRotatedDimension
1001
ACAD
1000
DSTYLE
1002
{
1070
   341
1005
0
1002
}
  0
LINE
  5
28581
330
747D
100
AcDbEntity
  8
細線
 48
50.0
100
AcDbLine
 10
10583.59999498913
 20
7192.349077519788
 30
0.0
 11
10781.37874783132
 21
7390.127830361975
 31
0.0
  0
LINE
  5
28582
330
747D
100
AcDbEntity
  8
細線
 48
50.0
100
AcDbLine
 10
10583.59999498913
 20
7237.250358125129
 30
0.0
 11
10736.47746722597
 21
7390.127830361976
 31
0.0
  0
LINE
  5
28583
330
747D
100
AcDbEntity
  8
細線
 48
50.0
100
AcDbLine
 10
10583.59999498912
 20
7282.151638730471
 30
0.0
 11
10691.57618662063
 21
7390.127830361975
 31
0.0
  0
LINE
  5
28584
330
747D
100
AcDbEntity
  8
細線
 48
50.0
100
AcDbLine
 10
10583.59999498912
 20
7327.052919335814
 30
0.0
 11
10646.67490601528
 21
7390.127830361975
 31
0.0
  0
LINE
  5
28585
330
747D
100
AcDbEntity
  8
部品1
 48
50.0
100
AcDbLine
 10
10783.59999498912
 20
7390.127830361975
 30
0.0
 11
10783.59999498913
 21
7190.127836856909
 31
0.0
  0
LINE
  5
28586
330
747D
100
AcDbEntity
  8
部品1
 48
50.0
100
AcDbLine
 10
10583.59999498912
 20
7390.127830361975
 30
0.0
 11
10583.59999498913
 21
7190.127836856909
 31
0.0
  0
LINE
  5
28587
330
747D
100
AcDbEntity
  8
部品1
 48
50.0
100
AcDbLine
 10
10373.6
 20
7010.127836856909
 30
0.0
 11
10173.6
 21
7010.127836856909
 31
0.0
  0
LINE
  5
28588
330
747D
100
AcDbEntity
  8
部品1
 48
50.0
100
AcDbLine
 10
10373.6
 20
6810.12783685691
 30
0.0
 11
10173.6
 21
6810.12783685691
 31
0.0
  0
LINE
  5
28589
330
747D
100
AcDbEntity
  8
センター
 48
2.0
100
AcDbLine
 10
10223.60000000001
 20
6910.12783685691
 30
0.0
 11
10323.60000000001
 21
6910.12783685691
 31
0.0
  0
LINE
  5
2858A
330
747D
100
AcDbEntity
  8
部品1
 48
50.0
100
AcDbLine
 10
10173.6
 20
6810.12783685691
 30
0.0
 11
10173.6
 21
7010.127836856909
 31
0.0
  0
LINE
  5
2858B
330
747D
100
AcDbEntity
  8
センター
 48
2.0
100
AcDbLine
 10
10273.6
 20
6960.127836856909
 30
0.0
 11
10273.6
 21
6860.12783685691
 31
0.0
  0
LINE
  5
2858C
330
747D
100
AcDbEntity
  8
部品1
 48
50.0
100
AcDbLine
 10
10373.6
 20
6810.12783685691
 30
0.0
 11
10373.6
 21
7010.127836856909
 31
0.0
  0
LINE
  5
2858D
330
747D
100
AcDbEntity
  8
センター
 48
2.0
100
AcDbLine
 10
10105.6
 20
7267.127836856909
 30
0.0
 11
10205.6
 21
7267.127836856909
 31
0.0
  0
CIRCLE
  5
2858E
330
747D
100
AcDbEntity
  8
部品1
 48
50.0
100
AcDbCircle
 10
10155.6
 20
7267.127836856909
 30
0.0
 40
35.0
  0
LINE
  5
2858F
330
747D
100
AcDbEntity
  8
センター
 48
2.0
100
AcDbLine
 10
10155.6
 20
7317.127836856909
 30
0.0
 11
10155.6
 21
7217.127836856909
 31
0.0
  0
LINE
  5
28590
330
747D
100
AcDbEntity
  8
細線
 48
50.0
100
AcDbLine
 10
10671.18131553692
 20
7190.127836856908
 30
0.0
 11
10783.59999498912
 21
7302.546516309085
 31
0.0
  0
LINE
  5
28591
330
747D
100
AcDbEntity
  8
細線
 48
50.0
100
AcDbLine
 10
10626.2800349316
 20
7190.127836856908
 30
0.0
 11
10783.59999498912
 21
7347.44779691443
 31
0.0
  0
LINE
  5
28592
330
747D
100
AcDbEntity
  8
細線
 48
50.0
100
AcDbLine
 10
10760.98387674765
 20
7190.127843351845
 30
0.0
 11
10783.59999498912
 21
7212.743961593317
 31
0.0
  0
LINE
  5
28593
330
747D
100
AcDbEntity
  8
細線
 48
50.0
100
AcDbLine
 10
10716.08259614229
 20
7190.127843351845
 30
0.0
 11
10783.59999498912
 21
7257.645242198669
 31
0.0
  0
LINE
  5
28594
330
747D
100
AcDbEntity
  8
細線
 48
50.0
100
AcDbLine
 10
10583.59999498912
 20
7371.954199941159
 30
0.0
 11
10601.77362540993
 21
7390.127830361976
 31
0.0
  0
LINE
  5
28595
330
747D
100
AcDbEntity
  8
細線
 48
50.0
100
AcDbLine
 10
11403.59999498913
 20
7192.349077519785
 30
0.0
 11
11601.37874783132
 21
7390.127830361975
 31
0.0
  0
LINE
  5
28596
330
747D
100
AcDbEntity
  8
細線
 48
50.0
100
AcDbLine
 10
11403.59999498912
 20
7237.250358125127
 30
0.0
 11
11556.47746722597
 21
7390.127830361976
 31
0.0
  0
LINE
  5
28597
330
747D
100
AcDbEntity
  8
細線
 48
50.0
100
AcDbLine
 10
11403.59999498912
 20
7282.151638730471
 30
0.0
 11
11511.57618662062
 21
7390.127830361975
 31
0.0
  0
LINE
  5
28598
330
747D
100
AcDbEntity
  8
細線
 48
50.0
100
AcDbLine
 10
11403.59999498912
 20
7327.052919335814
 30
0.0
 11
11466.67490601528
 21
7390.127830361975
 31
0.0
  0
LINE
  5
28599
330
747D
100
AcDbEntity
  8
部品1
 48
50.0
100
AcDbLine
 10
11603.59999498912
 20
7390.127830361975
 30
0.0
 11
11603.59999498913
 21
7190.127836856909
 31
0.0
  0
LINE
  5
2859A
330
747D
100
AcDbEntity
  8
部品1
 48
50.0
100
AcDbLine
 10
11403.59999498912
 20
7390.127830361975
 30
0.0
 11
11403.59999498913
 21
7190.127836856909
 31
0.0
  0
LINE
  5
2859B
330
747D
100
AcDbEntity
  8
部品1
 48
50.0
100
AcDbLine
 10
11193.60000000001
 20
7010.127836856909
 30
0.0
 11
10993.6
 21
7010.127836856909
 31
0.0
  0
LINE
  5
2859C
330
747D
100
AcDbEntity
  8
部品1
 48
50.0
100
AcDbLine
 10
11193.60000000001
 20
6810.12783685691
 30
0.0
 11
10993.6
 21
6810.12783685691
 31
0.0
  0
LINE
  5
2859D
330
747D
100
AcDbEntity
  8
センター
 48
2.0
100
AcDbLine
 10
11043.60000000001
 20
6910.12783685691
 30
0.0
 11
11143.60000000001
 21
6910.12783685691
 31
0.0
  0
LINE
  5
2859E
330
747D
100
AcDbEntity
  8
部品1
 48
50.0
100
AcDbLine
 10
10993.6
 20
6810.12783685691
 30
0.0
 11
10993.6
 21
7010.127836856909
 31
0.0
  0
LINE
  5
2859F
330
747D
100
AcDbEntity
  8
センター
 48
2.0
100
AcDbLine
 10
11093.60000000001
 20
6960.127836856909
 30
0.0
 11
11093.60000000001
 21
6860.12783685691
 31
0.0
  0
LINE
  5
285A0
330
747D
100
AcDbEntity
  8
部品1
 48
50.0
100
AcDbLine
 10
11193.60000000001
 20
6810.12783685691
 30
0.0
 11
11193.60000000001
 21
7010.127836856909
 31
0.0
  0
LINE
  5
285A1
330
747D
100
AcDbEntity
  8
細線
 48
50.0
100
AcDbLine
 10
11491.18131553692
 20
7190.127836856909
 30
0.0
 11
11603.59999498912
 21
7302.546516309085
 31
0.0
  0
LINE
  5
285A2
330
747D
100
AcDbEntity
  8
細線
 48
50.0
100
AcDbLine
 10
11446.2800349316
 20
7190.127836856908
 30
0.0
 11
11603.59999498912
 21
7347.44779691443
 31
0.0
  0
LINE
  5
285A3
330
747D
100
AcDbEntity
  8
細線
 48
50.0
100
AcDbLine
 10
11580.98387674765
 20
7190.127843351845
 30
0.0
 11
11603.59999498912
 21
7212.743961593317
 31
0.0
  0
LINE
  5
285A4
330
747D
100
AcDbEntity
  8
細線
 48
50.0
100
AcDbLine
 10
11536.08259614229
 20
7190.127843351845
 30
0.0
 11
11603.59999498912
 21
7257.645242198669
 31
0.0
  0
LINE
  5
285A5
330
747D
100
AcDbEntity
  8
細線
 48
50.0
100
AcDbLine
 10
11403.59999498912
 20
7371.954199941159
 30
0.0
 11
11421.77362540993
 21
7390.127830361976
 31
0.0
  0
DIMENSION
  5
285A7
330
747D
100
AcDbEntity
  8
寸法
 48
50.0
100
AcDbDimension
  2
*D40
 10
11913.60000000001
 20
7872.736653527157
 30
0.0
 11
12326.1
 21
7972.74846455078
 31
0.0
 70
    32
 71
     5
 42
824.9999999999927
  3
INABA_S40G
100
AcDbAlignedDimension
 13
12738.6
 23
7390.127836856909
 33
0.0
 14
11913.60000000001
 24
6960.127836856909
 34
0.0
100
AcDbRotatedDimension
1001
ACAD
1000
DSTYLE
1002
{
1070
   341
1005
0
1002
}
  0
DIMENSION
  5
285A8
330
747D
100
AcDbEntity
  8
寸法
 48
50.0
100
AcDbDimension
  2
*D41
 10
12615.6
 20
8116.39429495082
 30
0.0
 11
13011.7066017178
 21
8116.39429495082
 31
0.0
 70
   160
 71
     5
 42
123.0
  3
INABA_S40G
100
AcDbAlignedDimension
 13
12738.6
 23
7390.127836856909
 33
0.0
 14
12615.6
 24
7317.127836856909
 34
0.0
100
AcDbRotatedDimension
1001
ACAD
1000
DSTYLE
1002
{
1070
   341
1005
0
1002
}
  0
LINE
  5
285A9
330
747D
100
AcDbEntity
  8
細線
 48
50.0
100
AcDbLine
 10
12223.59999498912
 20
7192.349077519786
 30
0.0
 11
12421.37874783132
 21
7390.127830361975
 31
0.0
  0
LINE
  5
285AA
330
747D
100
AcDbEntity
  8
細線
 48
50.0
100
AcDbLine
 10
12223.59999498912
 20
7237.250358125127
 30
0.0
 11
12376.47746722597
 21
7390.127830361976
 31
0.0
  0
LINE
  5
285AB
330
747D
100
AcDbEntity
  8
細線
 48
50.0
100
AcDbLine
 10
12223.59999498912
 20
7282.151638730471
 30
0.0
 11
12331.57618662062
 21
7390.127830361975
 31
0.0
  0
LINE
  5
285AC
330
747D
100
AcDbEntity
  8
細線
 48
50.0
100
AcDbLine
 10
12223.59999498912
 20
7327.052919335814
 30
0.0
 11
12286.67490601528
 21
7390.127830361975
 31
0.0
  0
LINE
  5
285AD
330
747D
100
AcDbEntity
  8
部品1
 48
50.0
100
AcDbLine
 10
12423.59999498912
 20
7390.127830361975
 30
0.0
 11
12423.59999498913
 21
7190.127836856909
 31
0.0
  0
LINE
  5
285AE
330
747D
100
AcDbEntity
  8
部品1
 48
50.0
100
AcDbLine
 10
12223.59999498912
 20
7390.127830361975
 30
0.0
 11
12223.59999498912
 21
7190.127836856909
 31
0.0
  0
LINE
  5
285AF
330
747D
100
AcDbEntity
  8
部品1
 48
50.0
100
AcDbLine
 10
12013.60000000001
 20
7010.127836856909
 30
0.0
 11
11813.60000000001
 21
7010.127836856909
 31
0.0
  0
LINE
  5
285B0
330
747D
100
AcDbEntity
  8
部品1
 48
50.0
100
AcDbLine
 10
12013.60000000001
 20
6810.12783685691
 30
0.0
 11
11813.60000000001
 21
6810.12783685691
 31
0.0
  0
LINE
  5
285B1
330
747D
100
AcDbEntity
  8
センター
 48
2.0
100
AcDbLine
 10
11863.6
 20
6910.12783685691
 30
0.0
 11
11963.6
 21
6910.12783685691
 31
0.0
  0
LINE
  5
285B2
330
747D
100
AcDbEntity
  8
部品1
 48
50.0
100
AcDbLine
 10
11813.60000000001
 20
6810.12783685691
 30
0.0
 11
11813.60000000001
 21
7010.127836856909
 31
0.0
  0
LINE
  5
285B3
330
747D
100
AcDbEntity
  8
センター
 48
2.0
100
AcDbLine
 10
11913.60000000001
 20
6960.127836856909
 30
0.0
 11
11913.60000000001
 21
6860.12783685691
 31
0.0
  0
LINE
  5
285B4
330
747D
100
AcDbEntity
  8
部品1
 48
50.0
100
AcDbLine
 10
12013.60000000001
 20
6810.12783685691
 30
0.0
 11
12013.60000000001
 21
7010.127836856909
 31
0.0
  0
LINE
  5
285B5
330
747D
100
AcDbEntity
  8
細線
 48
50.0
100
AcDbLine
 10
12311.18131553693
 20
7190.127836856909
 30
0.0
 11
12423.59999498912
 21
7302.546516309085
 31
0.0
  0
LINE
  5
285B6
330
747D
100
AcDbEntity
  8
細線
 48
50.0
100
AcDbLine
 10
12266.2800349316
 20
7190.127836856909
 30
0.0
 11
12423.59999498912
 21
7347.44779691443
 31
0.0
  0
LINE
  5
285B7
330
747D
100
AcDbEntity
  8
細線
 48
50.0
100
AcDbLine
 10
12400.98387674765
 20
7190.127843351845
 30
0.0
 11
12423.59999498912
 21
7212.743961593317
 31
0.0
  0
LINE
  5
285B8
330
747D
100
AcDbEntity
  8
細線
 48
50.0
100
AcDbLine
 10
12356.08259614229
 20
7190.127843351845
 30
0.0
 11
12423.59999498912
 21
7257.645242198669
 31
0.0
  0
LINE
  5
285B9
330
747D
100
AcDbEntity
  8
細線
 48
50.0
100
AcDbLine
 10
12223.59999498912
 20
7371.954199941159
 30
0.0
 11
12241.77362540993
 21
7390.127830361976
 31
0.0
  0
LINE
  5
285BB
330
747D
100
AcDbEntity
  8
細線
 48
50.0
100
AcDbLine
 10
12731.08259465825
 20
6835.127830361983
 30
0.0
 11
12738.6
 21
6842.645235703734
 31
0.0
  0
LINE
  5
285BC
330
747D
100
AcDbEntity
  8
細線
 48
50.0
100
AcDbLine
 10
12686.18131405291
 20
6835.127830361987
 30
0.0
 11
12738.6
 21
6887.546516309078
 31
0.0
  0
LINE
  5
285BD
330
747D
100
AcDbEntity
  8
細線
 48
50.0
100
AcDbLine
 10
12641.28003344756
 20
6835.127830361983
 30
0.0
 11
12738.6
 21
6932.447796914424
 31
0.0
  0
LINE
  5
285BE
330
747D
100
AcDbEntity
  8
細線
 48
50.0
100
AcDbLine
 10
12618.6
 20
6857.349077519768
 30
0.0
 11
12738.6
 21
6977.349077519768
 31
0.0
  0
LINE
  5
285BF
330
747D
100
AcDbEntity
  8
細線
 48
50.0
100
AcDbLine
 10
12618.6
 20
6902.250358125114
 30
0.0
 11
12738.6
 21
7022.250358125114
 31
0.0
  0
LINE
  5
285C0
330
747D
100
AcDbEntity
  8
細線
 48
50.0
100
AcDbLine
 10
12618.6
 20
6947.151638730457
 30
0.0
 11
12706.57619163152
 21
7035.127830361983
 31
0.0
  0
LINE
  5
285C1
330
747D
100
AcDbEntity
  8
細線
 48
50.0
100
AcDbLine
 10
12618.6
 20
6992.052919335804
 30
0.0
 11
12661.67491102618
 21
7035.127830361986
 31
0.0
  0
LINE
  5
285C2
330
747D
100
AcDbEntity
  8
部品1
 48
50.0
100
AcDbLine
 10
12738.6
 20
7035.127830361986
 30
0.0
 11
12618.6
 21
7035.127830361986
 31
0.0
  0
LINE
  5
285C3
330
747D
100
AcDbEntity
  8
部品1
 48
50.0
100
AcDbLine
 10
12738.6
 20
6835.127830361987
 30
0.0
 11
12618.6
 21
6835.127830361987
 31
0.0
  0
LINE
  5
285C4
330
747D
100
AcDbEntity
  8
センター
 48
2.0
100
AcDbLine
 10
12565.6
 20
7267.127836856909
 30
0.0
 11
12665.6
 21
7267.127836856909
 31
0.0
  0
LINE
  5
285C5
330
747D
100
AcDbEntity
  8
センター
 48
2.0
100
AcDbLine
 10
12615.6
 20
7317.127836856909
 30
0.0
 11
12615.6
 21
7217.127836856909
 31
0.0
  0
CIRCLE
  5
285C6
330
747D
100
AcDbEntity
  8
部品1
 48
50.0
100
AcDbCircle
 10
12615.6
 20
7267.127836856909
 30
0.0
 40
35.0
  0
MTEXT
  5
28C43
330
747D
100
AcDbEntity
  8
寸法
 62
     7
 48
50.0
100
AcDbMText
 10
9820.799137359472
 20
8203.871684080182
 30
0.0
 40
120.0
 41
0.0
 71
     5
 72
     1
  1
\A1;2460
  7
STYLE1
 73
     1
 44
1.0
1001
ACAD
1000
MTEXTBEGIN
1070
    73
1070
     1
1070
    44
1040
1.0
1070
    74
1070
     0
1000
MTEXTEND
  0
MTEXT
  5
28C44
330
747D
100
AcDbEntity
  8
寸法
 62
     7
 48
50.0
100
AcDbMText
 10
9300.38621656746
 20
7969.565125133896
 30
0.0
 40
120.0
 41
0.0
 71
     5
 72
     1
  1
\A1;820
  7
STYLE1
 73
     1
 44
1.0
1001
ACAD
1000
MTEXTBEGIN
1070
    73
1070
     1
1070
    44
1040
1.0
1070
    74
1070
     0
1000
MTEXTEND
  0
MTEXT
  5
28C45
330
747D
100
AcDbEntity
  8
寸法
 62
     7
 48
50.0
100
AcDbMText
 10
8796.984919384902
 20
7969.565125133896
 30
0.0
 40
120.0
 41
0.0
 71
     5
 72
     1
  1
\A1;820
  7
STYLE1
 73
     1
 44
1.0
1001
ACAD
1000
MTEXTBEGIN
1070
    73
1070
     1
1070
    44
1040
1.0
1070
    74
1070
     0
1000
MTEXTEND
  0
MTEXT
  5
28C46
330
747D
100
AcDbEntity
  8
寸法
 62
     7
 48
50.0
100
AcDbMText
 10
8085.036898755092
 20
8203.871684080182
 30
0.0
 40
120.0
 41
0.0
 71
     5
 72
     1
  1
\A1;2460
  7
STYLE1
 73
     1
 44
1.0
1001
ACAD
1000
MTEXTBEGIN
1070
    73
1070
     1
1070
    44
1040
1.0
1070
    74
1070
     0
1000
MTEXTEND
  0
TEXT
  5
28CCE
330
747D
100
AcDbEntity
  8
文字
 62
     7
 48
50.0
100
AcDbText
 10
7652.147291080078
 20
4566.152605289365
 30
0.0
 40
200.0
  1
〈参 考 図〉
  7
STYLE2
100
AcDbText
  0
TEXT
  5
28CDF
330
747D
100
AcDbEntity
  8
文字
 62
     7
 48
50.0
100
AcDbText
 10
14251.2
 20
838.2527270729188
 30
0.0
 40
100.0
  1
～一般型・多雪地型・豪雪地型～
  7
STYLE2
100
AcDbText
  0
LINE
  5
28CFF
330
747D
100
AcDbEntity
  8
部品1
 48
50.0
100
AcDbLine
 10
12618.6
 20
6710.127836856942
 30
0.0
 11
3828.6
 21
6710.1278368569
 31
0.0
  0
LINE
  5
28D1E
330
747D
100
AcDbEntity
  8
部品1
 48
50.0
100
AcDbLine
 10
12618.6
 20
6710.127836856942
 30
0.0
 11
12618.6
 21
7190.127836856908
 31
0.0
  0
LINE
  5
28D1F
330
747D
100
AcDbEntity
  8
部品1
 48
50.0
100
AcDbLine
 10
3828.6
 20
6710.127836856907
 30
0.0
 11
3828.599999999995
 21
7190.127836856905
 31
0.0
  0
LINE
  5
28EAD
330
747D
100
AcDbEntity
  8
部品1
100
AcDbLine
 10
11133.10633875399
 20
3368.566211045968
 30
0.0
 11
5062.121153367741
 21
3368.566211045968
 31
0.0
  0
LINE
  5
28EAE
330
747D
100
AcDbEntity
  8
部品1
100
AcDbLine
 10
11133.10633875399
 20
3128.566211045966
 30
0.0
 11
5062.121153367745
 21
3128.566211045966
 31
0.0
  0
LINE
  5
28EAF
330
747D
100
AcDbEntity
  8
部品1
100
AcDbLine
 10
5062.121153367747
 20
404.25924146132
 30
0.0
 11
11133.10633875399
 21
404.25924146132
 31
0.0
  0
LEADER
  5
28EB0
330
747D
100
AcDbEntity
  8
寸法
 48
50.0
100
AcDbLeader
  3
INABA_S50G
 73
     0
 74
     0
 75
     1
 40
102.2727272727273
 41
680.0000000000001
 76
     3
 10
8070.2289053542
 20
2368.102824954524
 30
0.0
 10
8104.582876467558
 20
2778.555636061066
 30
0.0
 10
8229.582876467558
 20
2778.555636061066
 30
0.0
340
28EB1
1001
ACAD
1000
DSTYLE
1002
{
1070
   341
1005
0
1070
    40
1040
1.0
1070
   343
1005
0
1070
   344
1005
0
1002
}
  0
MTEXT
  5
28EB1
102
{ACAD_REACTORS
330
28EB0
102
}
330
747D
100
AcDbEntity
  8
部品1
 62
     7
 48
50.0
100
AcDbMText
 10
8254.582876467557
 20
2854.691999697429
 30
0.0
 40
80.0
 41
0.8
 71
     4
 72
     1
  1
\A1;ナット(市販品)
  7
STYLE2
 73
     1
 44
1.0
1001
ACAD
1000
MTEXTBEGIN
1070
    73
1070
     1
1070
    44
1040
1.0
1070
    74
1070
     0
1000
MTEXTEND
  0
LEADER
  5
28EB2
330
747D
100
AcDbEntity
  8
寸法
 48
50.0
100
AcDbLeader
  3
INABA_S50G
 73
     0
 74
     0
 75
     1
 40
102.2727272727273
 41
906.8181818181818
 76
     3
 10
8094.228905354201
 20
2238.350832289661
 30
0.0
 10
8136.10049572304
 20
2593.586553296278
 30
0.0
 10
8261.10049572304
 20
2593.586553296278
 30
0.0
340
28EB3
1001
ACAD
1000
DSTYLE
1002
{
1070
   341
1005
0
1070
    40
1040
1.0
1070
   343
1005
0
1070
   344
1005
0
1002
}
  0
MTEXT
  5
28EB3
102
{ACAD_REACTORS
330
28EB2
102
}
330
747D
100
AcDbEntity
  8
部品1
 62
     7
 48
50.0
100
AcDbMText
 10
8286.10049572304
 20
2669.722916932642
 30
0.0
 40
80.0
 41
0.8
 71
     4
 72
     1
  1
\A1;ワッシャー(市販品)
  7
STYLE2
 73
     1
 44
1.0
1001
ACAD
1000
MTEXTBEGIN
1070
    73
1070
     1
1070
    44
1040
1.0
1070
    74
1070
     0
1000
MTEXTEND
  0
LWPOLYLINE
  5
28EB4
330
747D
100
AcDbEntity
  8
部品1
 48
50.0
100
AcDbPolyline
 90
        2
 70
     0
 43
8.0
 10
8246.828905354199
 20
1729.227543845382
 10
8540.531368753583
 20
1729.227543845382
  0
TEXT
  5
28EB5
330
747D
100
AcDbEntity
  8
部品1
 48
50.0
100
AcDbText
 10
8251.182489638628
 20
2325.106224607582
 30
0.0
 40
80.0
  1
基礎ボルト(市販品)
  7
STYLE2
100
AcDbText
  0
DIMENSION
  5
28EB6
330
747D
100
AcDbEntity
  8
寸法
 48
50.0
100
AcDbDimension
  2
*D49
 10
8748.697505123045
 20
1645.22754384538
 30
0.0
 11
8648.697505123044
 21
1807.227543845382
 31
0.0
 70
    32
  1
180
 71
     5
 42
324.0000000000009
  3
INABA_S40G
100
AcDbAlignedDimension
 13
8246.828905354199
 23
1969.227543845381
 33
0.0
 14
8246.828905354199
 24
1645.22754384538
 34
0.0
 50
90.0
100
AcDbRotatedDimension
1001
ACAD
1000
DSTYLE
1002
{
1070
   341
1005
0
1002
}
  0
DIMENSION
  5
28EB7
330
747D
100
AcDbEntity
  8
寸法
 48
50.0
100
AcDbDimension
  2
*D50
 10
9024.752171242072
 20
1969.227543845381
 30
0.0
 11
9024.752171242072
 21
1503.218640423899
 31
0.0
 70
   160
  1
20～25
 71
     5
 42
52.76000000000113
  3
INABA_S40G
100
AcDbAlignedDimension
 13
8059.6289053542
 23
2021.987543845383
 33
0.0
 14
8246.828905354199
 24
1969.227543845381
 34
0.0
 50
90.0
100
AcDbRotatedDimension
1001
ACAD
1000
DSTYLE
1002
{
1070
   341
1005
0
1002
}
  0
MTEXT
  5
28EB8
102
{ACAD_REACTORS
330
28EB9
102
}
330
747D
100
AcDbEntity
  8
部品1
 62
     7
 48
50.0
100
AcDbMText
 10
8255.773367773519
 20
2233.610869998612
 30
0.0
 40
80.0
 41
0.8
 71
     4
 72
     1
  1
M10X160
  7
STYLE2
 73
     1
 44
1.0
1001
ACAD
1000
MTEXTBEGIN
1070
    73
1070
     1
1070
    44
1040
1.0
1070
    74
1070
     0
1000
MTEXTEND
  0
LEADER
  5
28EB9
330
747D
100
AcDbEntity
  8
寸法
 48
50.0
100
AcDbLeader
  3
INABA_S50G
 73
     0
 74
     0
 75
     1
 40
80.0
 41
435.0
 76
     3
 10
8063.228905354201
 20
2018.387543845383
 30
0.0
 10
8105.773367773521
 20
2168.610869998612
 30
0.0
 10
8230.773367773521
 20
2168.610869998612
 30
0.0
340
28EB8
1001
ACAD
1000
DSTYLE
1002
{
1070
   341
1005
0
1070
    40
1040
1.0
1070
   343
1005
0
1070
   344
1005
0
1002
}
  0
LINE
  5
28EBA
330
747D
100
AcDbEntity
  8
部品1
100
AcDbLine
 10
5062.121153367743
 20
3368.566211045968
 30
0.0
 11
5062.121153367745
 21
404.25924146132
 31
0.0
  0
LEADER
  5
28EBB
330
747D
100
AcDbEntity
  8
寸法
 48
50.0
100
AcDbLeader
  3
INABA_S50G
 73
     0
 75
     1
 40
113.1818181818182
 41
608.6363636363635
 76
     3
 10
8022.965655492251
 20
1918.74321720366
 30
0.0
 10
7889.161826800902
 20
2770.122299560139
 30
0.0
 10
7764.161826800902
 20
2770.122299560139
 30
0.0
340
28EBC
1001
ACAD
1000
DSTYLE
1002
{
1070
   341
1005
0
1070
    40
1040
1.0
1070
   343
1005
0
1070
   344
1005
0
1002
}
  0
MTEXT
  5
28EBC
102
{ACAD_REACTORS
330
28EBB
102
}
330
747D
100
AcDbEntity
  8
寸法
 62
     7
 48
50.0
100
AcDbMText
 10
7739.161826800902
 20
2851.713208651048
 30
0.0
 40
80.0
 41
0.8
 71
     6
 72
     1
  1
\A1;φ70スリーブ
  7
STYLE2
 73
     1
 44
1.0
1001
ACAD
1000
MTEXTBEGIN
1070
    73
1070
     1
1070
    44
1040
1.0
1070
    74
1070
     0
1000
MTEXTEND
  0
LWPOLYLINE
  5
28EBD
330
747D
100
AcDbEntity
  8
部品1
 48
50.0
100
AcDbPolyline
 90
        2
 70
     0
 43
8.0
 10
5718.649690344049
 20
1729.227543845382
 10
6132.789592177005
 20
1729.227543845382
  0
TEXT
  5
28EBE
330
747D
100
AcDbEntity
  8
部品1
 48
50.0
100
AcDbText
 10
5718.649690344049
 20
1740.466536128637
 30
0.0
 40
80.0
  1
▽G.L
  7
STYLE2
100
AcDbText
  0
DIMENSION
  5
28EBF
330
747D
100
AcDbEntity
  8
寸法
 48
50.0
100
AcDbDimension
  2
*D51
 10
5862.369278444546
 20
1185.227543845381
 30
0.0
 11
5862.369278444546
 21
1305.227543845382
 31
0.0
 70
   160
  1
150
 71
     5
 42
240.0
  3
INABA_S40G
100
AcDbAlignedDimension
 13
6004.789592177006
 23
1425.227543845381
 33
0.0
 14
5924.78959217701
 24
1185.227543845381
 34
0.0
 50
90.0
100
AcDbRotatedDimension
1001
ACAD
1000
DSTYLE
1002
{
1070
   341
1005
0
1002
}
  0
LEADER
  5
28EC0
330
747D
100
AcDbEntity
  8
寸法
 48
50.0
100
AcDbLeader
  3
INABA_S50G
 71
     0
 73
     0
 75
     1
 40
100.0
 41
225.0
 76
     3
 10
6100.692544529149
 20
1305.227543845381
 30
0.0
 10
5978.854565981812
 20
1041.704850226945
 30
0.0
 10
5853.854565981812
 20
1041.704850226945
 30
0.0
1001
ACAD
1000
DSTYLE
1002
{
1070
    40
1040
1.0
1070
   272
1070
     1
1070
   279
1070
     1
1070
   341
1005
0
1002
}
  0
LEADER
  5
28EC1
330
747D
100
AcDbEntity
  8
寸法
 48
50.0
100
AcDbLeader
  3
INABA_S50G
 71
     0
 73
     0
 75
     1
 40
100.0
 41
222.7272727272727
 76
     3
 10
6228.789592177006
 20
1305.227543845381
 30
0.0
 10
6006.977293539247
 20
861.3886976875019
 30
0.0
 10
5881.977293539247
 20
861.3886976875019
 30
0.0
1001
ACAD
1000
DSTYLE
1002
{
1070
    40
1040
1.0
1070
   272
1070
     1
1070
   279
1070
     1
1070
   341
1005
0
1002
}
  0
MTEXT
  5
28EC2
102
{ACAD_REACTORS
330
28EC3
102
}
330
747D
100
AcDbEntity
  8
寸法
 62
     7
 48
50.0
100
AcDbMText
 10
6043.539537954202
 20
1570.528146662838
 30
0.0
 40
80.0
 41
0.8
 71
     6
 72
     1
  1
\A1;D10@300
  7
STYLE2
 73
     1
 44
1.0
1001
ACAD
1000
MTEXTBEGIN
1070
    73
1070
     1
1070
    44
1040
1.0
1070
    74
1070
     0
1000
MTEXTEND
  0
LEADER
  5
28EC3
330
747D
100
AcDbEntity
  8
寸法
 48
50.0
100
AcDbLeader
  3
INABA_S50G
 71
     0
 73
     0
 75
     1
 40
100.0
 41
540.3409090909091
 76
     3
 10
6236.789592177006
 20
1727.354758542505
 30
0.0
 10
6178.807355648308
 20
1505.8844300017
 30
0.0
 10
6053.807355648308
 20
1505.8844300017
 30
0.0
213
-9.732182305893367
223
-4.643716661138569
233
0.0
1001
ACAD
1000
DSTYLE
1002
{
1070
    40
1040
1.0
1070
   272
1070
     1
1070
   279
1070
     1
1070
   341
1005
0
1002
}
  0
LEADER
  5
28EC4
330
747D
100
AcDbEntity
  8
寸法
 48
50.0
100
AcDbLeader
  3
INABA_S50G
 71
     0
 73
     0
 75
     1
 40
130.1136363636363
 41
651.1363636363636
 76
     3
 10
6212.789592177006
 20
1969.227543845381
 30
0.0
 10
6100.365012012989
 20
2109.69830930197
 30
0.0
 10
5975.365012012989
 20
2109.69830930197
 30
0.0
1001
ACAD
1000
DSTYLE
1002
{
1070
    40
1040
1.0
1070
   272
1070
     1
1070
   279
1070
     1
1070
   341
1005
0
1002
}
  0
MTEXT
  5
28EC5
102
{ACAD_REACTORS
330
28EC4
102
}
330
747D
100
AcDbEntity
  8
寸法
 62
     7
 48
50.0
100
AcDbMText
 10
5912.691112693733
 20
2181.743763847424
 30
0.0
 40
80.0
 41
0.8
 71
     6
 72
     1
  1
\A1;金コテ押エ
  7
STYLE2
 73
     1
 44
1.0
1001
ACAD
1000
MTEXTBEGIN
1070
    73
1070
     1
1070
    44
1040
1.0
1070
    74
1070
     0
1000
MTEXTEND
  0
DIMENSION
  5
28EC6
330
747D
100
AcDbEntity
  8
寸法
 48
50.0
100
AcDbDimension
  2
*D52
 10
5397.752353615266
 20
1185.227543845382
 30
0.0
 11
5397.752353615266
 21
1556.767693501382
 31
0.0
 70
   160
  1
540
 71
     5
 42
784.0
  3
INABA_S40G
100
AcDbAlignedDimension
 13
6132.789592177005
 23
1969.227543845381
 33
0.0
 14
5924.78959217701
 24
1185.227543845381
 34
0.0
 50
90.0
100
AcDbRotatedDimension
1001
ACAD
1000
DSTYLE
1002
{
1070
   341
1005
0
1002
}
  0
MTEXT
  5
28EC7
102
{ACAD_REACTORS
330
28EC1
102
}
330
747D
100
AcDbEntity
  8
寸法
 62
     7
 48
50.0
100
AcDbMText
 10
5861.977293539247
 20
921.3886976875018
 30
0.0
 40
80.0
 41
0.8
 71
     6
 72
     1
  1
D13
  7
STYLE2
 73
     1
 44
1.0
1001
ACAD
1000
MTEXTBEGIN
1070
    73
1070
     1
1070
    44
1040
1.0
1070
    74
1070
     0
1000
MTEXTEND
  0
MTEXT
  5
28EC8
102
{ACAD_REACTORS
330
28EC0
102
}
330
747D
100
AcDbEntity
  8
寸法
 62
     7
 48
50.0
100
AcDbMText
 10
5833.854565981813
 20
1101.704850226945
 30
0.0
 40
80.0
 41
0.8
 71
     6
 72
     1
  1
D10
  7
STYLE2
 73
     1
 44
1.0
1001
ACAD
1000
MTEXTBEGIN
1070
    73
1070
     1
1070
    44
1040
1.0
1070
    74
1070
     0
1000
MTEXTEND
  0
DIMENSION
  5
28EC9
330
747D
100
AcDbEntity
  8
寸法
 48
50.0
100
AcDbDimension
  2
*D53
 10
6452.789592177007
 20
646.7979058402216
 30
0.0
 11
6208.692833498782
 21
646.7979058402216
 31
0.0
 70
   160
  1
300
 71
     5
 42
448.0
  3
INABA_S40G
100
AcDbAlignedDimension
 13
6004.789592177006
 23
1057.227543845381
 33
0.0
 14
6452.789592177007
 24
1057.227543845381
 34
0.0
100
AcDbRotatedDimension
1001
ACAD
1000
DSTYLE
1002
{
1070
   341
1005
0
1002
}
  0
MTEXT
  5
28ECA
102
{ACAD_REACTORS
330
28ECB
102
}
330
747D
100
AcDbEntity
  8
寸法
 62
     7
 48
50.0
100
AcDbMText
 10
7765.804833009261
 20
2491.028936743534
 30
0.0
 40
80.0
 41
0.8
 71
     6
 72
     1
  1
\A1;アンカープレート L
  7
STYLE2
 73
     1
 44
1.0
1001
ACAD
1000
MTEXTBEGIN
1070
    73
1070
     1
1070
    44
1040
1.0
1070
    74
1070
     0
1000
MTEXTEND
  0
LEADER
  5
28ECB
330
747D
100
AcDbEntity
  8
寸法
 48
50.0
100
AcDbLeader
  3
INABA_S50G
 73
     0
 75
     1
 40
106.3636363636363
 41
893.1818181818181
 76
     3
 10
7964.228905354201
 20
2038.787543845383
 30
0.0
 10
7915.804833009261
 20
2412.847118561715
 30
0.0
 10
7790.804833009261
 20
2412.847118561715
 30
0.0
340
28ECA
1001
ACAD
1000
DSTYLE
1002
{
1070
   341
1005
0
1070
    40
1040
1.0
1070
   343
1005
0
1070
   344
1005
0
1002
}
  0
LINE
  5
28ECC
330
747D
100
AcDbEntity
  8
細線
 48
50.0
100
AcDbLine
 10
6252.789592177006
 20
1807.600436513212
 30
0.0
 11
6324.789592177007
 21
1879.600436513212
 31
0.0
  0
ARC
  5
28ECD
330
747D
100
AcDbEntity
  8
部品1
 48
50.0
100
AcDbCircle
 10
6228.789592177007
 20
1829.481973239627
 30
0.0
 40
24.0
100
AcDbArc
 50
0.0
 51
180.0
  0
CIRCLE
  5
28ECE
330
747D
100
AcDbEntity
  8
部品1
 48
50.0
100
AcDbCircle
 10
6228.789592177007
 20
1829.481973239627
 30
0.0
 40
8.0
  0
LINE
  5
28ECF
330
747D
100
AcDbEntity
  8
部品1
 48
50.0
100
AcDbLine
 10
6132.789592177007
 20
1425.227543845381
 30
0.0
 11
6132.789592177007
 21
1969.227543845381
 31
0.0
  0
LINE
  5
28ED0
330
747D
100
AcDbEntity
  8
部品1
 48
50.0
100
AcDbLine
 10
6324.789592177007
 20
1969.227543845381
 30
0.0
 11
6324.789592177007
 21
1425.227543845381
 31
0.0
  0
MTEXT
  5
28ED1
102
{ACAD_REACTORS
330
28ED6
102
}
330
747D
100
AcDbEntity
  8
寸法
 62
     7
 48
50.0
100
AcDbMText
 10
6407.675529204401
 20
1991.783443138192
 30
0.0
 40
80.0
 41
0.8
 71
     4
 72
     1
  1
D13
  7
STYLE2
 73
     1
 44
1.0
1001
ACAD
1000
MTEXTBEGIN
1070
    73
1070
     1
1070
    44
1040
1.0
1070
    74
1070
     0
1000
MTEXTEND
  0
LEADER
  5
28ED2
330
747D
100
AcDbEntity
  8
寸法
 48
50.0
100
AcDbLeader
  3
INABA_S50G
 71
     0
 73
     0
 74
     0
 75
     1
 40
100.0
 41
225.0
 76
     3
 10
6356.692544529149
 20
1305.227543845381
 30
0.0
 10
6411.117251983691
 20
1209.830474902409
 30
0.0
 10
6536.117251983691
 20
1209.830474902409
 30
0.0
1001
ACAD
1000
DSTYLE
1002
{
1070
    40
1040
1.0
1070
   272
1070
     1
1070
   279
1070
     1
1070
   341
1005
0
1002
}
  0
LEADER
  5
28ED3
330
747D
100
AcDbEntity
  8
寸法
 48
50.0
100
AcDbLeader
  3
INABA_S50G
 71
     0
 73
     0
 74
     0
 75
     1
 40
100.0
 41
540.3409090909091
 76
     3
 10
6302.734761190181
 20
1288.487013431856
 30
0.0
 10
6421.528048038258
 20
946.8561954369588
 30
0.0
 10
6546.528048038258
 20
946.8561954369588
 30
0.0
213
0.0
223
-1.022262676269383
233
0.0
1001
ACAD
1000
DSTYLE
1002
{
1070
    40
1040
1.0
1070
   272
1070
     1
1070
   279
1070
     1
1070
   341
1005
0
1002
}
  0
MTEXT
  5
28ED4
102
{ACAD_REACTORS
330
28ED2
102
}
330
747D
100
AcDbEntity
  8
寸法
 62
     7
 48
50.0
100
AcDbMText
 10
6556.117251983692
 20
1269.830474902409
 30
0.0
 40
80.0
 41
0.8
 71
     4
 72
     1
  1
D10
  7
STYLE2
 73
     1
 44
1.0
1001
ACAD
1000
MTEXTBEGIN
1070
    73
1070
     1
1070
    44
1040
1.0
1070
    74
1070
     0
1000
MTEXTEND
  0
LWPOLYLINE
  5
28ED5
330
747D
100
AcDbEntity
  8
部品1
 48
50.0
100
AcDbPolyline
 90
        2
 70
     0
 43
8.0
 10
6324.789592177006
 20
1729.227543845382
 10
6738.929494009963
 20
1729.227543845382
  0
LEADER
  5
28ED6
330
747D
100
AcDbEntity
  8
寸法
 48
50.0
100
AcDbLeader
  3
INABA_S50G
 71
     0
 73
     0
 74
     0
 75
     1
 40
100.0
 41
222.7272727272727
 76
     3
 10
6228.789592177006
 20
1829.481973239627
 30
0.0
 10
6282.675529204401
 20
1928.717546092801
 30
0.0
 10
6407.675529204401
 20
1928.717546092801
 30
0.0
1001
ACAD
1000
DSTYLE
1002
{
1070
    40
1040
1.0
1070
   272
1070
     1
1070
   279
1070
     1
1070
   341
1005
0
1002
}
  0
LINE
  5
28ED7
330
747D
100
AcDbEntity
  8
細線
 48
50.0
100
AcDbLine
 10
6004.789592177
 20
1344.074289607553
 30
0.0
 11
6085.942846414835
 21
1425.227543845381
 31
0.0
  0
LINE
  5
28ED8
330
747D
100
AcDbEntity
  8
細線
 48
50.0
100
AcDbLine
 10
6212.655439654411
 20
1363.354758542504
 30
0.0
 11
6236.789592177013
 21
1387.488911065103
 31
0.0
  0
LINE
  5
28ED9
330
747D
100
AcDbEntity
  8
細線
 48
50.0
100
AcDbLine
 10
6119.587456594079
 20
1297.227543845381
 30
0.0
 11
6236.789592177007
 21
1414.429679428307
 31
0.0
  0
LINE
  5
28EDA
330
747D
100
AcDbEntity
  8
部品1
 48
50.0
100
AcDbLine
 10
6004.789592177007
 20
1185.227543845381
 30
0.0
 11
6004.789592177007
 21
1425.227543845381
 31
0.0
  0
LINE
  5
28EDB
330
747D
100
AcDbEntity
  8
細線
 48
50.0
100
AcDbLine
 10
6362.05437186295
 20
1297.227543845381
 30
0.0
 11
6452.789592177007
 21
1387.96276415944
 31
0.0
  0
LINE
  5
28EDC
330
747D
100
AcDbEntity
  8
細線
 48
50.0
100
AcDbLine
 10
6335.113603499735
 20
1297.227543845381
 30
0.0
 11
6452.789592177007
 21
1414.903532522648
 31
0.0
  0
LINE
  5
28EDD
330
747D
100
AcDbEntity
  8
部品1
 48
50.0
100
AcDbLine
 10
6452.789592177007
 20
1425.227543845381
 30
0.0
 11
6452.789592177007
 21
1185.227543845381
 31
0.0
  0
LINE
  5
28EDE
330
747D
100
AcDbEntity
  8
部品1
 48
50.0
100
AcDbLine
 10
6252.789592177013
 20
1305.227543845381
 30
0.0
 11
6252.789592177006
 21
1829.481973239627
 31
0.0
  0
LINE
  5
28EDF
330
747D
100
AcDbEntity
  8
部品1
 48
50.0
100
AcDbLine
 10
6236.789592177013
 20
1305.227543845381
 30
0.0
 11
6236.789592177
 21
1829.481973239627
 31
0.0
  0
LINE
  5
28EE0
330
747D
100
AcDbEntity
  8
細線
 48
50.0
100
AcDbLine
 10
6220.789592177006
 20
1344.548142701893
 30
0.0
 11
6236.789592177013
 21
1360.548142701893
 31
0.0
  0
LINE
  5
28EE1
330
747D
100
AcDbEntity
  8
細線
 48
50.0
100
AcDbLine
 10
6209.972431673021
 20
1057.227543845381
 30
0.0
 11
6244.269928304204
 21
1185.227543845381
 31
0.0
  0
LINE
  5
28EE2
330
747D
100
AcDbEntity
  8
部品1
 48
50.0
100
AcDbLine
 10
6532.78959217701
 20
1057.227543845381
 30
0.0
 11
5924.789592177009
 21
1057.227543845381
 31
0.0
  0
LINE
  5
28EE3
330
747D
100
AcDbEntity
  8
部品1
 48
50.0
100
AcDbLine
 10
6060.789592177007
 20
1281.227543845381
 30
0.0
 11
6396.789592177007
 21
1281.227543845381
 31
0.0
  0
LINE
  5
28EE4
330
747D
100
AcDbEntity
  8
部品1
 48
50.0
100
AcDbLine
 10
6060.789592177007
 20
1297.227543845381
 30
0.0
 11
6396.789592177007
 21
1297.227543845381
 31
0.0
  0
LINE
  5
28EE5
330
747D
100
AcDbEntity
  8
部品1
 48
50.0
100
AcDbLine
 10
6532.78959217701
 20
1185.227543845381
 30
0.0
 11
5924.789592177009
 21
1185.227543845381
 31
0.0
  0
CIRCLE
  5
28EE6
330
747D
100
AcDbEntity
  8
部品1
 48
50.0
100
AcDbCircle
 10
6228.789592177007
 20
1305.227543845381
 30
0.0
 40
8.0
  0
LINE
  5
28EE7
330
747D
100
AcDbEntity
  8
細線
 48
50.0
100
AcDbLine
 10
6223.11360349974
 20
1185.227543845381
 30
0.0
 11
6319.11360349974
 21
1281.227543845381
 31
0.0
  0
LINE
  5
28EE8
330
747D
100
AcDbEntity
  8
細線
 48
50.0
100
AcDbLine
 10
6052.196341778523
 20
1057.227543845381
 30
0.0
 11
6086.493838409706
 21
1185.227543845381
 31
0.0
  0
LINE
  5
28EE9
330
747D
100
AcDbEntity
  8
細線
 48
50.0
100
AcDbLine
 10
6131.084386725768
 20
1057.22754384538
 30
0.0
 11
6165.381883356952
 21
1185.22754384538
 31
0.0
  0
LINE
  5
28EEA
330
747D
100
AcDbEntity
  8
細線
 48
50.0
100
AcDbLine
 10
5973.308296831265
 20
1057.22754384538
 30
0.0
 11
6007.605793462448
 21
1185.22754384538
 31
0.0
  0
LINE
  5
28EEB
330
747D
100
AcDbEntity
  8
部品1
 48
50.0
100
AcDbLine
 10
5924.789592177009
 20
1057.227543845381
 30
0.0
 11
5924.789592177009
 21
1185.227543845381
 31
0.0
  0
LINE
  5
28EEC
330
747D
100
AcDbEntity
  8
細線
 48
50.0
100
AcDbLine
 10
6058.627122396869
 20
1081.227543845382
 30
0.0
 11
6065.057903015216
 21
1057.227543845381
 31
0.0
  0
LINE
  5
28EED
330
747D
100
AcDbEntity
  8
細線
 48
50.0
100
AcDbLine
 10
5979.739077449618
 20
1081.227543845382
 30
0.0
 11
5986.169858067964
 21
1057.227543845381
 31
0.0
  0
LINE
  5
28EEE
330
747D
100
AcDbEntity
  8
細線
 48
50.0
100
AcDbLine
 10
6216.403212291375
 20
1081.227543845382
 30
0.0
 11
6222.83399290972
 21
1057.227543845381
 31
0.0
  0
LINE
  5
28EEF
330
747D
100
AcDbEntity
  8
細線
 48
50.0
100
AcDbLine
 10
6137.515167344122
 20
1081.227543845382
 30
0.0
 11
6143.945947962468
 21
1057.227543845381
 31
0.0
  0
LINE
  5
28EF0
330
747D
100
AcDbEntity
  8
細線
 48
50.0
100
AcDbLine
 10
6034.52822495729
 20
1185.227543845381
 30
0.0
 11
6130.52822495729
 21
1281.227543845381
 31
0.0
  0
LINE
  5
28EF1
330
747D
100
AcDbEntity
  8
細線
 48
50.0
100
AcDbLine
 10
6007.587456594079
 20
1185.227543845381
 30
0.0
 11
6103.587456594079
 21
1281.227543845381
 31
0.0
  0
LINE
  5
28EF2
330
747D
100
AcDbEntity
  8
部品1
 48
50.0
100
AcDbLine
 10
6060.789592177007
 20
1297.227543845381
 30
0.0
 11
6060.789592177007
 21
1281.227543845381
 31
0.0
  0
LINE
  5
28EF3
330
747D
100
AcDbEntity
  8
細線
 48
50.0
100
AcDbLine
 10
6001.175012844107
 20
1161.227543845382
 30
0.0
 11
5994.744232225759
 21
1185.227543845381
 31
0.0
  0
LINE
  5
28EF4
330
747D
100
AcDbEntity
  8
細線
 48
50.0
100
AcDbLine
 10
5924.789592177006
 20
1170.567464811162
 30
0.0
 11
5928.717748515203
 21
1185.227543845381
 31
0.0
  0
LINE
  5
28EF5
330
747D
100
AcDbEntity
  8
部品1
 48
50.0
100
AcDbLine
 10
6220.789592177006
 20
1363.354758542504
 30
0.0
 11
6204.789592177007
 21
1363.354758542504
 31
0.0
  0
CIRCLE
  5
28EF6
330
747D
100
AcDbEntity
  8
部品1
 48
50.0
100
AcDbCircle
 10
6100.789592177007
 20
1305.227543845381
 30
0.0
 40
8.0
  0
LINE
  5
28EF7
330
747D
100
AcDbEntity
  8
細線
 48
50.0
100
AcDbLine
 10
6173.468993320495
 20
1297.227543845381
 30
0.0
 11
6204.789592177007
 21
1328.548142701893
 31
0.0
  0
ARC
  5
28EF8
330
747D
100
AcDbEntity
  8
部品1
 48
50.0
100
AcDbCircle
 10
6228.789592177007
 20
1305.227543845381
 30
0.0
 40
24.0
100
AcDbArc
 50
180.0
 51
199.4712206344866
  0
LINE
  5
28EF9
330
747D
100
AcDbEntity
  8
細線
 48
50.0
100
AcDbLine
 10
6080.063057791358
 20
1161.227543845382
 30
0.0
 11
6073.632277173012
 21
1185.227543845381
 31
0.0
  0
LINE
  5
28EFA
330
747D
100
AcDbEntity
  8
細線
 48
50.0
100
AcDbLine
 10
6158.951102738611
 20
1161.227543845382
 30
0.0
 11
6152.520322120264
 21
1185.227543845381
 31
0.0
  0
LINE
  5
28EFB
330
747D
100
AcDbEntity
  8
細線
 48
50.0
100
AcDbLine
 10
6061.468993320495
 20
1185.227543845381
 30
0.0
 11
6157.468993320495
 21
1281.227543845381
 31
0.0
  0
LINE
  5
28EFC
330
747D
100
AcDbEntity
  8
部品1
 48
50.0
100
AcDbLine
 10
6204.789592177007
 20
1363.354758542504
 30
0.0
 11
6204.789592177007
 21
1305.227543845381
 31
0.0
  0
LINE
  5
28EFD
330
747D
100
AcDbEntity
  8
細線
 48
50.0
100
AcDbLine
 10
6146.52822495729
 20
1297.227543845381
 30
0.0
 11
6204.789592177007
 21
1355.4889110651
 31
0.0
  0
LINE
  5
28EFE
330
747D
100
AcDbEntity
  8
部品1
 48
50.0
100
AcDbLine
 10
6220.789592177006
 20
1363.354758542504
 30
0.0
 11
6220.789592177006
 21
1305.227543845381
 31
0.0
  0
LINE
  5
28EFF
330
747D
100
AcDbEntity
  8
部品1
 48
50.0
100
AcDbLine
 10
6532.78959217701
 20
1185.227543845381
 30
0.0
 11
6532.78959217701
 21
1057.227543845381
 31
0.0
  0
LINE
  5
28F00
330
747D
100
AcDbEntity
  8
細線
 48
50.0
100
AcDbLine
 10
6446.636566514761
 20
1057.227543845381
 30
0.0
 11
6480.934063145944
 21
1185.22754384538
 31
0.0
  0
LINE
  5
28F01
330
747D
100
AcDbEntity
  8
細線
 48
50.0
100
AcDbLine
 10
6288.860476620266
 20
1057.227543845381
 30
0.0
 11
6323.157973251453
 21
1185.22754384538
 31
0.0
  0
LINE
  5
28F02
330
747D
100
AcDbEntity
  8
細線
 48
50.0
100
AcDbLine
 10
6367.748521567516
 20
1057.22754384538
 30
0.0
 11
6402.0460181987
 21
1185.22754384538
 31
0.0
  0
LINE
  5
28F03
330
747D
100
AcDbEntity
  8
細線
 48
50.0
100
AcDbLine
 10
6374.179302185865
 20
1081.227543845382
 30
0.0
 11
6380.610082804213
 21
1057.227543845381
 31
0.0
  0
LINE
  5
28F04
330
747D
100
AcDbEntity
  8
細線
 48
50.0
100
AcDbLine
 10
6295.29125723862
 20
1081.227543845382
 30
0.0
 11
6301.722037856965
 21
1057.227543845381
 31
0.0
  0
LINE
  5
28F05
330
747D
100
AcDbEntity
  8
細線
 48
50.0
100
AcDbLine
 10
6453.067347133113
 20
1081.227543845382
 30
0.0
 11
6459.49812775146
 21
1057.227543845381
 31
0.0
  0
LINE
  5
28F06
330
747D
100
AcDbEntity
  8
細線
 48
50.0
100
AcDbLine
 10
6531.95539208036
 20
1081.227543845382
 30
0.0
 11
6532.789592177007
 21
1078.114266701017
 31
0.0
  0
LINE
  5
28F07
330
747D
100
AcDbEntity
  8
細線
 48
50.0
100
AcDbLine
 10
6525.524611462009
 20
1057.22754384538
 30
0.0
 11
6532.789592177007
 21
1084.34082098977
 31
0.0
  0
LINE
  5
28F08
330
747D
100
AcDbEntity
  8
細線
 48
50.0
100
AcDbLine
 10
6388.995140226154
 20
1297.227543845381
 30
0.0
 11
6452.789592177007
 21
1361.021995796233
 31
0.0
  0
CIRCLE
  5
28F09
330
747D
100
AcDbEntity
  8
部品1
 48
50.0
100
AcDbCircle
 10
6356.789592177007
 20
1305.227543845381
 30
0.0
 40
8.0
  0
ARC
  5
28F0A
330
747D
100
AcDbEntity
  8
部品1
 48
50.0
100
AcDbCircle
 10
6228.789592177007
 20
1305.227543845381
 30
0.0
 40
24.0
100
AcDbArc
 50
340.5287793655134
 51
0.0
  0
LINE
  5
28F0B
330
747D
100
AcDbEntity
  8
細線
 48
50.0
100
AcDbLine
 10
6237.839147685863
 20
1161.227543845382
 30
0.0
 11
6231.408367067515
 21
1185.227543845381
 31
0.0
  0
LINE
  5
28F0C
330
747D
100
AcDbEntity
  8
細線
 48
50.0
100
AcDbLine
 10
6316.727192633109
 20
1161.227543845382
 30
0.0
 11
6310.296412014762
 21
1185.227543845381
 31
0.0
  0
LINE
  5
28F0D
330
747D
100
AcDbEntity
  8
細線
 48
50.0
100
AcDbLine
 10
6250.054371862951
 20
1185.227543845381
 30
0.0
 11
6346.054371862951
 21
1281.227543845381
 31
0.0
  0
LINE
  5
28F0E
330
747D
100
AcDbEntity
  8
細線
 48
50.0
100
AcDbLine
 10
6276.995140226154
 20
1185.227543845381
 30
0.0
 11
6372.996028071291
 21
1281.22843169052
 31
0.0
  0
LINE
  5
28F0F
330
747D
100
AcDbEntity
  8
部品1
 48
50.0
100
AcDbLine
 10
6396.789592177007
 20
1297.227543845381
 30
0.0
 11
6396.789592177007
 21
1281.227543845381
 31
0.0
  0
LINE
  5
28F10
330
747D
100
AcDbEntity
  8
細線
 48
50.0
100
AcDbLine
 10
6474.503282527601
 20
1161.227543845382
 30
0.0
 11
6468.072501909253
 21
1185.227543845381
 31
0.0
  0
LINE
  5
28F11
330
747D
100
AcDbEntity
  8
細線
 48
50.0
100
AcDbLine
 10
6438.6397504054
 20
1185.227543845381
 30
0.0
 11
6452.789592177007
 21
1199.377385616988
 31
0.0
  0
LINE
  5
28F12
330
747D
100
AcDbEntity
  8
細線
 48
50.0
100
AcDbLine
 10
6395.615237580354
 20
1161.227543845382
 30
0.0
 11
6389.184456962008
 21
1185.227543845381
 31
0.0
  0
LINE
  5
28F13
330
747D
100
AcDbEntity
  8
細線
 48
50.0
100
AcDbLine
 10
6132.789592177007
 20
1499.015057970759
 30
0.0
 11
6236.789592177013
 21
1603.015057970762
 31
0.0
  0
LINE
  5
28F14
330
747D
100
AcDbEntity
  8
細線
 48
50.0
100
AcDbLine
 10
6132.789592177007
 20
1525.955826333968
 30
0.0
 11
6236.789592177007
 21
1629.955826333968
 31
0.0
  0
LINE
  5
28F15
330
747D
100
AcDbEntity
  8
細線
 48
50.0
100
AcDbLine
 10
6132.789592177007
 20
1472.074289607552
 30
0.0
 11
6236.789592177013
 21
1576.074289607553
 31
0.0
  0
LINE
  5
28F16
330
747D
100
AcDbEntity
  8
細線
 48
50.0
100
AcDbLine
 10
6220.789592177006
 20
1775.600436513212
 30
0.0
 11
6236.789592177007
 21
1791.600436513212
 31
0.0
  0
LINE
  5
28F17
330
747D
100
AcDbEntity
  8
細線
 48
50.0
100
AcDbLine
 10
6220.789592177006
 20
1802.541204876419
 30
0.0
 11
6236.789592177007
 21
1818.541204876419
 31
0.0
  0
LINE
  5
28F18
330
747D
100
AcDbEntity
  8
部品1
 48
50.0
100
AcDbLine
 10
6004.789592177007
 20
1425.227543845381
 30
0.0
 11
6132.789592177007
 21
1425.227543845381
 31
0.0
  0
LINE
  5
28F19
330
747D
100
AcDbEntity
  8
細線
 48
50.0
100
AcDbLine
 10
6004.789592177
 20
1371.015057970757
 30
0.0
 11
6059.002078051632
 21
1425.227543845381
 31
0.0
  0
LINE
  5
28F1A
330
747D
100
AcDbEntity
  8
細線
 48
50.0
100
AcDbLine
 10
6004.789592177
 20
1397.955826333968
 30
0.0
 11
6032.061309688421
 21
1425.227543845381
 31
0.0
  0
LINE
  5
28F1B
330
747D
100
AcDbEntity
  8
部品1
 48
50.0
100
AcDbLine
 10
6220.789592177006
 20
1771.354758542504
 30
0.0
 11
6204.789592177007
 21
1771.354758542507
 31
0.0
  0
LINE
  5
28F1C
330
747D
100
AcDbEntity
  8
細線
 48
50.0
100
AcDbLine
 10
6132.789592177007
 20
1687.600436513212
 30
0.0
 11
6216.543914206301
 21
1771.354758542504
 31
0.0
  0
LINE
  5
28F1D
330
747D
100
AcDbEntity
  8
細線
 48
50.0
100
AcDbLine
 10
6132.789592177007
 20
1714.541204876419
 30
0.0
 11
6204.789592177007
 21
1786.541204876419
 31
0.0
  0
LINE
  5
28F1E
330
747D
100
AcDbEntity
  8
部品1
 48
50.0
100
AcDbLine
 10
6204.789592177007
 20
1771.354758542507
 30
0.0
 11
6204.789592177007
 21
1829.481973239627
 31
0.0
  0
LINE
  5
28F1F
330
747D
100
AcDbEntity
  8
細線
 48
50.0
100
AcDbLine
 10
6132.789592177007
 20
1741.481973239627
 30
0.0
 11
6204.789592177007
 21
1813.481973239627
 31
0.0
  0
LINE
  5
28F20
330
747D
100
AcDbEntity
  8
部品1
 48
50.0
100
AcDbLine
 10
6220.789592177006
 20
1771.354758542504
 30
0.0
 11
6220.789592177006
 21
1829.481973239627
 31
0.0
  0
LINE
  5
28F21
330
747D
100
AcDbEntity
  8
細線
 48
50.0
100
AcDbLine
 10
6252.789592177013
 20
1592.074289607552
 30
0.0
 11
6324.789592176999
 21
1664.074289607552
 31
0.0
  0
LINE
  5
28F22
330
747D
100
AcDbEntity
  8
部品1
 48
50.0
100
AcDbLine
 10
6324.789592177007
 20
1425.227543845381
 30
0.0
 11
6452.789592177007
 21
1425.227543845381
 31
0.0
  0
LINE
  5
28F23
330
747D
100
AcDbEntity
  8
細線
 48
50.0
100
AcDbLine
 10
6252.789592177013
 20
1403.488911065103
 30
0.0
 11
6324.789592176999
 21
1475.488911065097
 31
0.0
  0
LINE
  5
28F24
330
747D
100
AcDbEntity
  8
細線
 48
50.0
100
AcDbLine
 10
6252.789592177013
 20
1430.429679428311
 30
0.0
 11
6324.789592176999
 21
1502.429679428307
 31
0.0
  0
LINE
  5
28F25
330
747D
100
AcDbEntity
  8
細線
 48
50.0
100
AcDbLine
 10
6252.789592177013
 20
1376.548142701893
 30
0.0
 11
6324.789592176999
 21
1448.548142701893
 31
0.0
  0
LINE
  5
28F26
330
747D
100
AcDbEntity
  8
細線
 48
50.0
100
AcDbLine
 10
6252.789592177006
 20
1645.955826333968
 30
0.0
 11
6324.789592177007
 21
1717.955826333968
 31
0.0
  0
LINE
  5
28F27
330
747D
100
AcDbEntity
  8
細線
 48
50.0
100
AcDbLine
 10
6252.789592177013
 20
1619.015057970762
 30
0.0
 11
6324.789592176999
 21
1691.015057970757
 31
0.0
  0
MTEXT
  5
28F28
102
{ACAD_REACTORS
330
28ED3
102
}
330
747D
100
AcDbEntity
  8
寸法
 62
     7
 48
50.0
100
AcDbMText
 10
6566.528048038257
 20
1007.878458113228
 30
0.0
 40
80.0
 41
0.8
 71
     4
 72
     1
  1
\A1;D10@300
  7
STYLE2
 73
     1
 44
1.0
1001
ACAD
1000
MTEXTBEGIN
1070
    73
1070
     1
1070
    44
1040
1.0
1070
    74
1070
     0
1000
MTEXTEND
  0
DIMENSION
  5
28F29
330
747D
100
AcDbEntity
  8
寸法
 48
50.0
100
AcDbDimension
  2
*D54
 10
6132.789592177005
 20
2388.895351761762
 30
0.0
 11
6228.789592177006
 21
2388.895351761762
 31
0.0
 70
   160
  1
120\P200\P280
 71
     5
 42
192.0
  3
INABA_S40G
100
AcDbAlignedDimension
 13
6324.789592177006
 23
1969.227543845381
 33
0.0
 14
6132.789592177005
 24
1969.227543845381
 34
0.0
100
AcDbRotatedDimension
1001
ACAD
1000
DSTYLE
1002
{
1070
   341
1005
0
1002
}
  0
LINE
  5
28F2A
330
747D
100
AcDbEntity
  8
部品1
 48
50.0
100
AcDbLine
 10
6132.789592177007
 20
1969.227543845381
 30
0.0
 11
6324.789592177007
 21
1969.227543845381
 31
0.0
  0
LINE
  5
28F2B
330
747D
100
AcDbEntity
  8
細線
 48
50.0
100
AcDbLine
 10
6132.789592177007
 20
1930.06735178208
 30
0.0
 11
6171.949784240311
 21
1969.227543845381
 31
0.0
  0
LINE
  5
28F2C
330
747D
100
AcDbEntity
  8
細線
 48
50.0
100
AcDbLine
 10
6132.789592177007
 20
1903.126583418871
 30
0.0
 11
6198.890552603516
 21
1969.227543845381
 31
0.0
  0
LINE
  5
28F2D
330
747D
100
AcDbEntity
  8
細線
 48
50.0
100
AcDbLine
 10
6132.789592177007
 20
1957.008120145287
 30
0.0
 11
6145.009015877102
 21
1969.227543845381
 31
0.0
  0
LINE
  5
28F2E
330
747D
100
AcDbEntity
  8
細線
 48
50.0
100
AcDbLine
 10
6252.342299442993
 20
1834.093912142403
 30
0.0
 11
6324.789592177007
 21
1906.541204876419
 31
0.0
  0
LINE
  5
28F2F
330
747D
100
AcDbEntity
  8
細線
 48
50.0
100
AcDbLine
 10
6241.282014679477
 20
1849.974395742098
 30
0.0
 11
6324.789592177007
 21
1933.481973239627
 31
0.0
  0
LINE
  5
28F30
330
747D
100
AcDbEntity
  8
細線
 48
50.0
100
AcDbLine
 10
8117.228905354201
 20
1810.35582633397
 30
0.0
 11
8246.828905354199
 21
1939.955826333968
 31
0.0
  0
LINE
  5
28F31
330
747D
100
AcDbEntity
  8
部品1
100
AcDbLine
 10
8246.828905354199
 20
1425.227543845381
 30
0.0
 11
8246.828905354199
 21
1969.227543845381
 31
0.0
  0
LINE
  5
28F32
330
747D
100
AcDbEntity
  8
部品1
 48
50.0
100
AcDbLine
 10
7832.828905354199
 20
1425.227543845381
 30
0.0
 11
7832.828905354199
 21
1969.227543845381
 31
0.0
  0
LINE
  5
28F33
330
747D
100
AcDbEntity
  8
細線
 48
50.0
100
AcDbLine
 10
7832.828905354199
 20
1741.481973239627
 30
0.0
 11
7991.2289053542
 21
1899.881973239624
 31
0.0
  0
LINE
  5
28F34
330
747D
100
AcDbEntity
  8
細線
 48
50.0
100
AcDbLine
 10
7832.828905354199
 20
1714.541204876419
 30
0.0
 11
7991.2289053542
 21
1872.941204876417
 31
0.0
  0
LINE
  5
28F35
330
747D
100
AcDbEntity
  8
細線
 48
50.0
100
AcDbLine
 10
7832.828905354199
 20
1687.600436513212
 30
0.0
 11
7991.228905354197
 21
1846.000436513205
 31
0.0
  0
TEXT
  5
28F36
330
747D
100
AcDbEntity
  8
部品1
 48
50.0
100
AcDbText
 10
7418.689003521244
 20
1740.466536128637
 30
0.0
 40
80.0
  1
▽G.L
  7
STYLE2
100
AcDbText
  0
LINE
  5
28F37
330
747D
100
AcDbEntity
  8
部品1
100
AcDbLine
 10
8063.228905354201
 20
1744.227543845381
 30
0.0
 11
8063.228905354197
 21
2018.387543845383
 31
0.0
  0
LINE
  5
28F38
330
747D
100
AcDbEntity
  8
部品1
100
AcDbLine
 10
8045.2289053542
 20
1744.227543845381
 30
0.0
 11
8045.228905354198
 21
2018.387543845383
 31
0.0
  0
LINE
  5
28F39
330
747D
100
AcDbEntity
  8
細線
 48
50.0
100
AcDbLine
 10
8117.228905354201
 20
1756.47428960754
 30
0.0
 11
8246.828905354199
 21
1886.074289607532
 31
0.0
  0
LINE
  5
28F3A
330
747D
100
AcDbEntity
  8
細線
 48
50.0
100
AcDbLine
 10
8117.228905354201
 20
1783.415057970753
 30
0.0
 11
8246.828905354199
 21
1913.015057970749
 31
0.0
  0
LINE
  5
28F3B
330
747D
100
AcDbEntity
  8
部品1
100
AcDbLine
 10
8117.228905354201
 20
1645.227543845382
 30
0.0
 11
8117.228905354201
 21
1969.227543845381
 31
0.0
  0
LINE
  5
28F3C
330
747D
100
AcDbEntity
  8
部品1
100
AcDbLine
 10
7991.228905354194
 20
1645.227543845382
 30
0.0
 11
7991.228905354201
 21
1969.227543845381
 31
0.0
  0
LINE
  5
28F3D
330
747D
100
AcDbEntity
  8
細線
 48
50.0
100
AcDbLine
 10
7832.828905354199
 20
1499.015057970759
 30
0.0
 11
7991.228905354194
 21
1657.415057970748
 31
0.0
  0
LINE
  5
28F3E
330
747D
100
AcDbEntity
  8
細線
 48
50.0
100
AcDbLine
 10
7832.828905354199
 20
1472.074289607552
 30
0.0
 11
8005.982159592036
 21
1645.22754384538
 31
0.0
  0
LINE
  5
28F3F
330
747D
100
AcDbEntity
  8
細線
 48
50.0
100
AcDbLine
 10
7832.828905354199
 20
1525.955826333968
 30
0.0
 11
7991.228905354194
 21
1684.355826333963
 31
0.0
  0
LINE
  5
28F40
330
747D
100
AcDbEntity
  8
細線
 48
50.0
100
AcDbLine
 10
7761.50830649769
 20
1185.227543845381
 30
0.0
 11
8246.828905354199
 21
1670.548142701889
 31
0.0
  0
LINE
  5
28F41
330
747D
100
AcDbEntity
  8
細線
 48
50.0
100
AcDbLine
 10
7734.567538134484
 20
1185.227543845381
 30
0.0
 11
8246.828905354204
 21
1697.488911065095
 31
0.0
  0
LINE
  5
28F42
330
747D
100
AcDbEntity
  8
細線
 48
50.0
100
AcDbLine
 10
7707.626769771275
 20
1185.227543845381
 30
0.0
 11
8246.828905354199
 21
1724.429679428307
 31
0.0
  0
LINE
  5
28F43
330
747D
100
AcDbEntity
  8
部品1
 48
50.0
100
AcDbLine
 10
8454.828905354203
 20
1185.227543845381
 30
0.0
 11
7624.828905354203
 21
1185.227543845381
 31
0.0
  0
LINE
  5
28F44
330
747D
100
AcDbEntity
  8
部品1
 48
50.0
100
AcDbLine
 10
8454.828905354203
 20
1057.227543845381
 30
0.0
 11
7624.828905354203
 21
1057.227543845381
 31
0.0
  0
LINE
  5
28F45
330
747D
100
AcDbEntity
  8
細線
 48
50.0
100
AcDbLine
 10
7704.828905354196
 20
1344.074289607553
 30
0.0
 11
7785.982159592029
 21
1425.227543845381
 31
0.0
  0
LINE
  5
28F46
330
747D
100
AcDbEntity
  8
部品1
 48
50.0
100
AcDbLine
 10
7704.828905354199
 20
1185.227543845381
 30
0.0
 11
7704.828905354199
 21
1425.227543845381
 31
0.0
  0
LINE
  5
28F47
330
747D
100
AcDbEntity
  8
細線
 48
50.0
100
AcDbLine
 10
7752.235654955717
 20
1057.227543845381
 30
0.0
 11
7786.5331515869
 21
1185.227543845381
 31
0.0
  0
LINE
  5
28F48
330
747D
100
AcDbEntity
  8
部品1
 48
50.0
100
AcDbLine
 10
7624.828905354203
 20
1057.227543845381
 30
0.0
 11
7624.828905354203
 21
1185.227543845381
 31
0.0
  0
LINE
  5
28F49
330
747D
100
AcDbEntity
  8
細線
 48
50.0
100
AcDbLine
 10
7673.347610008459
 20
1057.22754384538
 30
0.0
 11
7707.645106639642
 21
1185.22754384538
 31
0.0
  0
LINE
  5
28F4A
330
747D
100
AcDbEntity
  8
細線
 48
50.0
100
AcDbLine
 10
7831.123699902964
 20
1057.22754384538
 30
0.0
 11
7865.421196534146
 21
1185.22754384538
 31
0.0
  0
LINE
  5
28F4B
330
747D
100
AcDbEntity
  8
細線
 48
50.0
100
AcDbLine
 10
7679.778390626812
 20
1081.227543845382
 30
0.0
 11
7686.209171245159
 21
1057.227543845381
 31
0.0
  0
LINE
  5
28F4C
330
747D
100
AcDbEntity
  8
細線
 48
50.0
100
AcDbLine
 10
7837.554480521315
 20
1081.227543845382
 30
0.0
 11
7843.985261139663
 21
1057.227543845381
 31
0.0
  0
LINE
  5
28F4D
330
747D
100
AcDbEntity
  8
細線
 48
50.0
100
AcDbLine
 10
7758.666435574065
 20
1081.227543845382
 30
0.0
 11
7765.097216192412
 21
1057.227543845381
 31
0.0
  0
LINE
  5
28F4E
330
747D
100
AcDbEntity
  8
細線
 48
50.0
100
AcDbLine
 10
7624.828905354199
 20
1170.567464811162
 30
0.0
 11
7628.757061692396
 21
1185.227543845381
 31
0.0
  0
LINE
  5
28F4F
330
747D
100
AcDbEntity
  8
細線
 48
50.0
100
AcDbLine
 10
7701.214326021302
 20
1161.227543845382
 30
0.0
 11
7694.783545402955
 21
1185.227543845381
 31
0.0
  0
LINE
  5
28F50
330
747D
100
AcDbEntity
  8
細線
 48
50.0
100
AcDbLine
 10
7858.990415915805
 20
1161.227543845382
 30
0.0
 11
7852.559635297457
 21
1185.227543845381
 31
0.0
  0
LINE
  5
28F51
330
747D
100
AcDbEntity
  8
細線
 48
50.0
100
AcDbLine
 10
7780.102370968553
 20
1161.227543845382
 30
0.0
 11
7773.671590350206
 21
1185.227543845381
 31
0.0
  0
LWPOLYLINE
  5
28F52
330
747D
100
AcDbEntity
  8
部品1
 48
50.0
100
AcDbPolyline
 90
        2
 70
     0
 43
8.0
 10
7418.689003521244
 20
1729.227543845382
 10
7832.828905354199
 20
1729.227543845382
  0
LINE
  5
28F53
330
747D
100
AcDbEntity
  8
細線
 48
50.0
100
AcDbLine
 10
7704.828905354196
 20
1371.015057970757
 30
0.0
 11
7759.041391228824
 21
1425.227543845381
 31
0.0
  0
LINE
  5
28F54
330
747D
100
AcDbEntity
  8
部品1
 48
50.0
100
AcDbLine
 10
7704.828905354199
 20
1425.227543845381
 30
0.0
 11
7832.828905354199
 21
1425.227543845381
 31
0.0
  0
LINE
  5
28F55
330
747D
100
AcDbEntity
  8
細線
 48
50.0
100
AcDbLine
 10
7704.828905354196
 20
1397.955826333968
 30
0.0
 11
7732.100622865615
 21
1425.227543845381
 31
0.0
  0
LINE
  5
28F56
330
747D
100
AcDbEntity
  8
細線
 48
50.0
100
AcDbLine
 10
7950.093685040144
 20
1185.227543845381
 30
0.0
 11
8246.828905354199
 21
1481.962764159434
 31
0.0
  0
LINE
  5
28F57
330
747D
100
AcDbEntity
  8
細線
 48
50.0
100
AcDbLine
 10
7977.03445340335
 20
1185.227543845381
 30
0.0
 11
8246.828905354199
 21
1455.021995796239
 31
0.0
  0
LINE
  5
28F58
330
747D
100
AcDbEntity
  8
細線
 48
50.0
100
AcDbLine
 10
7923.152916676935
 20
1185.227543845381
 30
0.0
 11
8246.828905354199
 21
1508.903532522648
 31
0.0
  0
LINE
  5
28F59
330
747D
100
AcDbEntity
  8
細線
 48
50.0
100
AcDbLine
 10
8138.679063582593
 20
1185.227543845381
 30
0.0
 11
8374.828905354199
 21
1421.37738561699
 31
0.0
  0
LINE
  5
28F5A
330
747D
100
AcDbEntity
  8
細線
 48
50.0
100
AcDbLine
 10
8165.619831945805
 20
1185.227543845381
 30
0.0
 11
8374.828905354199
 21
1394.436617253775
 31
0.0
  0
LINE
  5
28F5B
330
747D
100
AcDbEntity
  8
部品1
 48
50.0
100
AcDbLine
 10
8374.828905354199
 20
1425.227543845381
 30
0.0
 11
8374.828905354199
 21
1185.227543845381
 31
0.0
  0
LINE
  5
28F5C
330
747D
100
AcDbEntity
  8
細線
 48
50.0
100
AcDbLine
 10
8192.560600309009
 20
1185.227543845381
 30
0.0
 11
8374.828905354199
 21
1367.495848890577
 31
0.0
  0
LINE
  5
28F5D
330
747D
100
AcDbEntity
  8
細線
 48
50.0
100
AcDbLine
 10
8067.787834744711
 20
1057.22754384538
 30
0.0
 11
8102.085331375894
 21
1185.22754384538
 31
0.0
  0
LINE
  5
28F5E
330
747D
100
AcDbEntity
  8
細線
 48
50.0
100
AcDbLine
 10
7910.011744850215
 20
1057.227543845381
 30
0.0
 11
7944.309241481398
 21
1185.227543845381
 31
0.0
  0
LINE
  5
28F5F
330
747D
100
AcDbEntity
  8
細線
 48
50.0
100
AcDbLine
 10
7988.899789797462
 20
1057.227543845381
 30
0.0
 11
8023.197286428647
 21
1185.22754384538
 31
0.0
  0
LINE
  5
28F60
330
747D
100
AcDbEntity
  8
細線
 48
50.0
100
AcDbLine
 10
8146.675879691953
 20
1057.227543845381
 30
0.0
 11
8180.973376323137
 21
1185.22754384538
 31
0.0
  0
LINE
  5
28F61
330
747D
100
AcDbEntity
  8
細線
 48
50.0
100
AcDbLine
 10
7995.330570415814
 20
1081.227543845382
 30
0.0
 11
8001.761351034161
 21
1057.227543845381
 31
0.0
  0
LINE
  5
28F62
330
747D
100
AcDbEntity
  8
細線
 48
50.0
100
AcDbLine
 10
7916.442525468567
 20
1081.227543845382
 30
0.0
 11
7922.873306086914
 21
1057.227543845381
 31
0.0
  0
LINE
  5
28F63
330
747D
100
AcDbEntity
  8
細線
 48
50.0
100
AcDbLine
 10
8153.106660310307
 20
1081.227543845382
 30
0.0
 11
8159.537440928652
 21
1057.227543845381
 31
0.0
  0
LINE
  5
28F64
330
747D
100
AcDbEntity
  8
細線
 48
50.0
100
AcDbLine
 10
8074.218615363061
 20
1081.227543845382
 30
0.0
 11
8080.649395981408
 21
1057.227543845381
 31
0.0
  0
LINE
  5
28F65
330
747D
100
AcDbEntity
  8
細線
 48
50.0
100
AcDbLine
 10
8016.766505810302
 20
1161.227543845382
 30
0.0
 11
8010.335725191955
 21
1185.227543845381
 31
0.0
  0
LINE
  5
28F66
330
747D
100
AcDbEntity
  8
細線
 48
50.0
100
AcDbLine
 10
7937.878460863055
 20
1161.227543845382
 30
0.0
 11
7931.44768024471
 21
1185.227543845381
 31
0.0
  0
LINE
  5
28F67
330
747D
100
AcDbEntity
  8
細線
 48
50.0
100
AcDbLine
 10
8095.654550757549
 20
1161.227543845382
 30
0.0
 11
8089.223770139202
 21
1185.227543845381
 31
0.0
  0
LINE
  5
28F68
330
747D
100
AcDbEntity
  8
細線
 48
50.0
100
AcDbLine
 10
8174.542595704796
 20
1161.227543845382
 30
0.0
 11
8168.111815086449
 21
1185.227543845381
 31
0.0
  0
LINE
  5
28F69
330
747D
100
AcDbEntity
  8
部品1
 48
50.0
100
AcDbLine
 10
8454.828905354203
 20
1185.227543845381
 30
0.0
 11
8454.828905354203
 21
1057.227543845381
 31
0.0
  0
LINE
  5
28F6A
330
747D
100
AcDbEntity
  8
細線
 48
50.0
100
AcDbLine
 10
8383.340014533695
 20
1057.22754384538
 30
0.0
 11
8417.637511164882
 21
1185.227543845379
 31
0.0
  0
LINE
  5
28F6B
330
747D
100
AcDbEntity
  8
細線
 48
50.0
100
AcDbLine
 10
8225.563924639201
 20
1057.22754384538
 30
0.0
 11
8259.861421270377
 21
1185.227543845381
 31
0.0
  0
LINE
  5
28F6C
330
747D
100
AcDbEntity
  8
細線
 48
50.0
100
AcDbLine
 10
8304.45196958645
 20
1057.227543845379
 30
0.0
 11
8338.749466217633
 21
1185.227543845379
 31
0.0
  0
LINE
  5
28F6D
330
747D
100
AcDbEntity
  8
細線
 48
50.0
100
AcDbLine
 10
8231.994705257552
 20
1081.227543845382
 30
0.0
 11
8238.425485875909
 21
1057.227543845381
 31
0.0
  0
LINE
  5
28F6E
330
747D
100
AcDbEntity
  8
細線
 48
50.0
100
AcDbLine
 10
8310.882750204802
 20
1081.22754384538
 30
0.0
 11
8317.313530823147
 21
1057.22754384538
 31
0.0
  0
LINE
  5
28F6F
330
747D
100
AcDbEntity
  8
細線
 48
50.0
100
AcDbLine
 10
8389.770795152045
 20
1081.22754384538
 30
0.0
 11
8396.201575770394
 21
1057.22754384538
 31
0.0
  0
LINE
  5
28F70
330
747D
100
AcDbEntity
  8
細線
 48
50.0
100
AcDbLine
 10
8253.430640652034
 20
1161.227543845382
 30
0.0
 11
8246.999860033687
 21
1185.227543845381
 31
0.0
  0
LINE
  5
28F71
330
747D
100
AcDbEntity
  8
細線
 48
50.0
100
AcDbLine
 10
8332.31868559929
 20
1161.22754384538
 30
0.0
 11
8325.887904980943
 21
1185.22754384538
 31
0.0
  0
LINE
  5
28F72
330
747D
100
AcDbEntity
  8
細線
 48
50.0
100
AcDbLine
 10
8411.206730546537
 20
1161.22754384538
 30
0.0
 11
8404.77594992819
 21
1185.22754384538
 31
0.0
  0
LINE
  5
28F73
330
747D
100
AcDbEntity
  8
部品1
100
AcDbLine
 10
8117.228905354201
 20
1645.22754384538
 30
0.0
 11
7991.228905354194
 21
1645.22754384538
 31
0.0
  0
LINE
  5
28F74
330
747D
100
AcDbEntity
  8
部品1
100
AcDbLine
 10
8099.2289053542
 20
1726.227543845381
 30
0.0
 11
8099.2289053542
 21
1744.227543845381
 31
0.0
  0
ARC
  5
28F75
330
747D
100
AcDbEntity
  8
部品1
100
AcDbCircle
 10
8063.228905354201
 20
1744.227543845381
 30
0.0
 40
18.0
100
AcDbArc
 50
180.0
 51
270.0
  0
LINE
  5
28F76
330
747D
100
AcDbEntity
  8
部品1
100
AcDbLine
 10
8063.228905354201
 20
1726.227543845381
 30
0.0
 11
8099.2289053542
 21
1726.227543845381
 31
0.0
  0
LINE
  5
28F77
330
747D
100
AcDbEntity
  8
部品1
100
AcDbLine
 10
8063.228905354201
 20
1744.227543845381
 30
0.0
 11
8099.2289053542
 21
1744.227543845381
 31
0.0
  0
LINE
  5
28F78
330
747D
100
AcDbEntity
  8
部品1
 48
50.0
100
AcDbLine
 10
8246.828905354199
 20
1425.227543845381
 30
0.0
 11
8374.828905354199
 21
1425.227543845381
 31
0.0
  0
LINE
  5
28F79
330
747D
100
AcDbEntity
  8
部品1
100
AcDbLine
 10
7852.6289053542
 20
2059.227543845382
 30
0.0
 11
7890.428905354202
 21
2059.227543845382
 31
0.0
  0
LINE
  5
28F7A
330
747D
100
AcDbEntity
  8
細線
 48
50.0
100
AcDbLine
 10
7832.828905354199
 20
1930.06735178208
 30
0.0
 11
7871.989097417507
 21
1969.227543845381
 31
0.0
  0
LINE
  5
28F7B
330
747D
100
AcDbEntity
  8
細線
 48
50.0
100
AcDbLine
 10
7832.828905354199
 20
1903.126583418871
 30
0.0
 11
7898.929865780711
 21
1969.227543845381
 31
0.0
  0
LINE
  5
28F7C
330
747D
100
AcDbEntity
  8
部品1
 48
50.0
100
AcDbLine
 10
7832.828905354199
 20
1969.227543845381
 30
0.0
 11
8246.828905354204
 21
1969.227543845381
 31
0.0
  0
LINE
  5
28F7D
330
747D
100
AcDbEntity
  8
部品1
100
AcDbLine
 10
7849.928905354201
 20
2048.427543845381
 30
0.0
 11
7849.928905354201
 21
2056.527543845382
 31
0.0
  0
ARC
  5
28F7E
330
747D
100
AcDbEntity
  8
部品1
100
AcDbCircle
 10
7852.6289053542
 20
2056.527543845382
 30
0.0
 40
2.7
100
AcDbArc
 50
90.0
 51
180.0
  0
ARC
  5
28F7F
330
747D
100
AcDbEntity
  8
部品1
100
AcDbCircle
 10
7841.8289053542
 20
2043.61944754809
 30
0.0
 40
2.7
100
AcDbArc
 50
104.0362434679067
 51
180.0
  0
LINE
  5
28F80
330
747D
100
AcDbEntity
  8
部品1
100
AcDbLine
 10
7841.174059166601
 20
2046.238832298482
 30
0.0
 11
7849.928905354201
 21
2048.427543845381
 31
0.0
  0
ARC
  5
28F81
330
747D
100
AcDbEntity
  8
部品1
100
AcDbCircle
 10
7841.8289053542
 20
1981.487543845382
 30
0.0
 40
2.7
100
AcDbArc
 50
180.0
 51
270.0
  0
LINE
  5
28F82
330
747D
100
AcDbEntity
  8
細線
 48
50.0
100
AcDbLine
 10
7832.828905354199
 20
1957.008120145287
 30
0.0
 11
7845.048329054295
 21
1969.227543845381
 31
0.0
  0
LINE
  5
28F83
330
747D
100
AcDbEntity
  8
部品1
100
AcDbLine
 10
7841.8289053542
 20
1978.787543845382
 30
0.0
 11
7853.528905354195
 21
1978.787543845382
 31
0.0
  0
LINE
  5
28F84
330
747D
100
AcDbEntity
  8
部品1
100
AcDbLine
 10
7839.128905354201
 20
1981.487543845382
 30
0.0
 11
7839.128905354201
 21
2043.61944754809
 31
0.0
  0
LINE
  5
28F85
330
747D
100
AcDbEntity
  8
部品1
100
AcDbLine
 10
7997.788905354195
 20
1978.787543845382
 30
0.0
 11
8199.128905354195
 21
1978.787543845382
 31
0.0
  0
LINE
  5
28F86
330
747D
100
AcDbEntity
  8
部品1
100
AcDbLine
 10
7890.428905354202
 20
2059.227543845382
 30
0.0
 11
7890.428905354202
 21
2067.327543845382
 31
0.0
  0
LINE
  5
28F87
330
747D
100
AcDbEntity
  8
部品1
100
AcDbLine
 10
7940.828905354199
 20
2078.127543845379
 30
0.0
 11
7940.828905354199
 21
2026.827543845382
 31
0.0
  0
LINE
  5
28F88
330
747D
100
AcDbEntity
  8
部品1
100
AcDbLine
 10
7964.228905354201
 20
2038.787543845382
 30
0.0
 11
7992.388905354201
 21
2038.787543845382
 31
0.0
  0
ARC
  5
28F89
330
747D
100
AcDbEntity
  8
部品1
100
AcDbCircle
 10
7964.228905354201
 20
2036.087543845383
 30
0.0
 40
2.7
100
AcDbArc
 50
90.0
 51
180.0
  0
ARC
  5
28F8A
330
747D
100
AcDbEntity
  8
部品1
100
AcDbCircle
 10
7992.388905354201
 20
2036.087543845383
 30
0.0
 40
2.7
100
AcDbArc
 50
0.0
 51
90.0
  0
LINE
  5
28F8B
330
747D
100
AcDbEntity
  8
部品1
100
AcDbLine
 10
7983.128905354201
 20
2024.127543845381
 30
0.0
 11
7983.128905354201
 21
1981.487543845382
 31
0.0
  0
LINE
  5
28F8C
330
747D
100
AcDbEntity
  8
部品1
100
AcDbLine
 10
7968.728905354201
 20
1978.787543845382
 30
0.0
 11
7980.428905354202
 21
1978.787543845382
 31
0.0
  0
ARC
  5
28F8D
330
747D
100
AcDbEntity
  8
部品1
100
AcDbCircle
 10
7997.788905354195
 20
1981.487543845382
 30
0.0
 40
2.7
100
AcDbArc
 50
180.0
 51
270.0
  0
ARC
  5
28F8E
330
747D
100
AcDbEntity
  8
部品1
100
AcDbCircle
 10
7980.428905354202
 20
1981.487543845382
 30
0.0
 40
2.7
100
AcDbArc
 50
270.0
 51
0.0
  0
LINE
  5
28F8F
330
747D
100
AcDbEntity
  8
部品1
100
AcDbLine
 10
7940.828905354199
 20
2026.827543845382
 30
0.0
 11
7980.428905354202
 21
2026.827543845382
 31
0.0
  0
ARC
  5
28F90
330
747D
100
AcDbEntity
  8
部品1
100
AcDbCircle
 10
7980.428905354202
 20
2024.127543845381
 30
0.0
 40
2.7
100
AcDbArc
 50
0.0
 51
90.0
  0
LINE
  5
28F91
330
747D
100
AcDbEntity
  8
部品1
100
AcDbLine
 10
7995.088905354201
 20
2036.087543845383
 30
0.0
 11
7995.088905354198
 21
1981.487543845382
 31
0.0
  0
LINE
  5
28F92
330
747D
100
AcDbEntity
  8
部品1
100
AcDbLine
 10
7961.528905354199
 20
2036.087543845383
 30
0.0
 11
7961.528905354199
 21
2018.987543845382
 31
0.0
  0
LINE
  5
28F93
330
747D
100
AcDbEntity
  8
細線
100
AcDbLine
 10
8059.6289053542
 20
1978.787543845382
 30
0.0
 11
8059.6289053542
 21
2021.987543845382
 31
0.0
  0
LINE
  5
28F94
330
747D
100
AcDbEntity
  8
細線
100
AcDbLine
 10
8048.828905354204
 20
1978.787543845382
 30
0.0
 11
8048.828905354199
 21
2021.987543845382
 31
0.0
  0
LINE
  5
28F95
330
747D
100
AcDbEntity
  8
部品1
100
AcDbLine
 10
8045.2289053542
 20
2018.387543845383
 30
0.0
 11
8063.228905354201
 21
2018.387543845383
 31
0.0
  0
LINE
  5
28F96
330
747D
100
AcDbEntity
  8
部品1
100
AcDbLine
 10
8048.828905354199
 20
2021.987543845382
 30
0.0
 11
8059.6289053542
 21
2021.987543845382
 31
0.0
  0
ELLIPSE
  5
28F97
330
747D
100
AcDbEntity
  8
部品1
 48
50.0
100
AcDbEllipse
 10
8054.2289053542
 20
2238.350832289654
 30
0.0
 11
40.0
 21
0.0
 31
0.0
210
0.0
220
0.0
230
1.0
 40
0.4
 41
0.0
 42
6.283185307179586
  0
ELLIPSE
  5
28F98
330
747D
100
AcDbEntity
  8
部品1
 48
50.0
100
AcDbEllipse
 10
8054.2289053542
 20
2228.750832289655
 30
0.0
 11
40.0
 21
0.0
 31
0.0
210
0.0
220
0.0
230
1.0
 40
0.4
 41
3.141592653589793
 42
6.283185307179586
  0
LINE
  5
28F99
330
747D
100
AcDbEntity
  8
部品1
 48
50.0
100
AcDbLine
 10
8014.228905354201
 20
2238.350832289654
 30
0.0
 11
8014.228905354201
 21
2228.750832289654
 31
0.0
  0
ARC
  5
28F9A
330
747D
100
AcDbEntity
  8
部品1
100
AcDbCircle
 10
7938.128905354201
 20
2078.127543845379
 30
0.0
 40
2.7
100
AcDbArc
 50
0.0
 51
90.0
  0
ARC
  5
28F9B
330
747D
100
AcDbEntity
  8
部品1
100
AcDbCircle
 10
7895.828905354199
 20
2078.127543845381
 30
0.0
 40
2.7
100
AcDbArc
 50
90.0
 51
180.0
  0
LINE
  5
28F9C
330
747D
100
AcDbEntity
  8
部品1
100
AcDbLine
 10
7893.1289053542
 20
2070.027543845382
 30
0.0
 11
7893.1289053542
 21
2070.027543845382
 31
0.0
  0
LINE
  5
28F9D
330
747D
100
AcDbEntity
  8
部品1
100
AcDbLine
 10
7893.1289053542
 20
2070.027543845382
 30
0.0
 11
7893.1289053542
 21
2078.127543845381
 31
0.0
  0
LINE
  5
28F9E
330
747D
100
AcDbEntity
  8
部品1
100
AcDbLine
 10
7895.828905354199
 20
2080.827543845382
 30
0.0
 11
7938.128905354201
 21
2080.827543845378
 31
0.0
  0
ARC
  5
28F9F
330
747D
100
AcDbEntity
  8
部品1
100
AcDbCircle
 10
7893.1289053542
 20
2067.327543845382
 30
0.0
 40
2.7
100
AcDbArc
 50
90.0
 51
180.0
  0
ELLIPSE
  5
28FA0
330
747D
100
AcDbEntity
  8
部品1
 48
50.0
100
AcDbEllipse
 10
8054.2289053542
 20
2238.350832289654
 30
0.0
 11
18.4
 21
0.0
 31
0.0
210
0.0
220
0.0
230
1.0
 40
0.3478260869565217
 41
0.0
 42
6.283185307179586
  0
LINE
  5
28FA1
330
747D
100
AcDbEntity
  8
部品1
 48
50.0
100
AcDbLine
 10
8094.228905354201
 20
2228.750832289654
 30
0.0
 11
8094.228905354201
 21
2238.350832289654
 31
0.0
  0
LINE
  5
28FA2
330
747D
100
AcDbEntity
  8
部品1
 48
50.0
100
AcDbLine
 10
8022.228905354202
 20
2360.102824954525
 30
0.0
 11
8038.2289053542
 21
2352.102824954524
 31
0.0
  0
LINE
  5
28FA3
330
747D
100
AcDbEntity
  8
部品1
 48
50.0
100
AcDbLine
 10
8022.228905354202
 20
2328.102824954525
 30
0.0
 11
8038.2289053542
 21
2320.102824954524
 31
0.0
  0
LINE
  5
28FA4
330
747D
100
AcDbEntity
  8
部品1
 48
50.0
100
AcDbLine
 10
8022.228905354202
 20
2360.102824954525
 30
0.0
 11
8038.2289053542
 21
2368.102824954524
 31
0.0
  0
LINE
  5
28FA5
330
747D
100
AcDbEntity
  8
部品1
 48
50.0
100
AcDbLine
 10
8022.228905354202
 20
2328.102824954525
 30
0.0
 11
8022.228905354202
 21
2360.102824954525
 31
0.0
  0
LINE
  5
28FA6
330
747D
100
AcDbEntity
  8
部品1
 48
50.0
100
AcDbLine
 10
8038.2289053542
 20
2368.102824954524
 30
0.0
 11
8070.2289053542
 21
2368.102824954524
 31
0.0
  0
ELLIPSE
  5
28FA7
330
747D
100
AcDbEntity
  8
細線
 48
50.0
100
AcDbEllipse
 10
8054.2289053542
 20
2360.102824954525
 30
0.0
 11
14.76670786606846
 21
0.0
 31
0.0
210
0.0
220
0.0
230
1.0
 40
0.2071254069489396
 41
0.0
 42
6.283185307179586
  0
LINE
  5
28FA8
330
747D
100
AcDbEntity
  8
部品1
 48
50.0
100
AcDbLine
 10
8038.2289053542
 20
2320.102824954524
 30
0.0
 11
8070.2289053542
 21
2320.102824954524
 31
0.0
  0
LINE
  5
28FA9
330
747D
100
AcDbEntity
  8
部品1
 48
50.0
100
AcDbLine
 10
8070.2289053542
 20
2320.102824954524
 30
0.0
 11
8086.228905354202
 21
2328.102824954525
 31
0.0
  0
LINE
  5
28FAA
330
747D
100
AcDbEntity
  8
部品1
 48
50.0
100
AcDbLine
 10
8038.2289053542
 20
2352.102824954524
 30
0.0
 11
8070.2289053542
 21
2352.102824954524
 31
0.0
  0
LINE
  5
28FAB
330
747D
100
AcDbEntity
  8
部品1
 48
50.0
100
AcDbLine
 10
8070.2289053542
 20
2352.102824954524
 30
0.0
 11
8086.228905354202
 21
2360.102824954525
 31
0.0
  0
LINE
  5
28FAC
330
747D
100
AcDbEntity
  8
細線
 48
50.0
100
AcDbLine
 10
8070.2289053542
 20
2320.102824954524
 30
0.0
 11
8070.2289053542
 21
2352.102824954524
 31
0.0
  0
LINE
  5
28FAD
330
747D
100
AcDbEntity
  8
部品1
 48
50.0
100
AcDbLine
 10
8086.228905354202
 20
2328.102824954525
 30
0.0
 11
8086.228905354202
 21
2360.102824954525
 31
0.0
  0
LINE
  5
28FAE
330
747D
100
AcDbEntity
  8
細線
 48
50.0
100
AcDbLine
 10
8038.2289053542
 20
2320.102824954524
 30
0.0
 11
8038.2289053542
 21
2352.102824954524
 31
0.0
  0
LINE
  5
28FAF
330
747D
100
AcDbEntity
  8
部品1
 48
50.0
100
AcDbLine
 10
8070.2289053542
 20
2368.102824954524
 30
0.0
 11
8086.228905354202
 21
2360.102824954525
 31
0.0
  0
TEXT
  5
28FB0
330
747D
100
AcDbEntity
  8
部品1
100
AcDbText
 10
7755.001154546132
 20
3189.01427909454
 30
0.0
 40
120.0
  1
基礎詳細
  7
STYLE2
100
AcDbText
  0
LINE
  5
28FB1
330
747D
100
AcDbEntity
  8
部品1
100
AcDbLine
 10
11133.10633875399
 20
404.25924146132
 30
0.0
 11
11133.10633875399
 21
3368.566211045968
 31
0.0
  0
LINE
  5
28FB2
330
747D
100
AcDbEntity
  8
細線
100
AcDbLine
 10
10140.99817133374
 20
1729.227543845382
 30
0.0
 11
9946.364837656958
 21
1923.860877522164
 31
0.0
  0
LINE
  5
28FB3
330
747D
100
AcDbEntity
  8
部品1
100
AcDbLine
 10
9946.364837656958
 20
1969.227543845381
 30
0.0
 11
10426.36483765696
 21
1969.227543845381
 31
0.0
  0
LINE
  5
28FB4
330
747D
100
AcDbEntity
  8
細線
 48
50.0
100
AcDbLine
 10
10080.43572210021
 20
1509.528628192031
 30
0.0
 11
10114.7332187314
 21
1637.52862819203
 31
0.0
  0
LINE
  5
28FB5
330
747D
100
AcDbEntity
  8
部品1
100
AcDbLine
 10
9826.364837656958
 20
1509.528628192028
 30
0.0
 11
10546.36483765696
 21
1509.528628192031
 31
0.0
  0
LINE
  5
28FB6
330
747D
100
AcDbEntity
  8
部品1
100
AcDbLine
 10
9826.364837656958
 20
1637.528628192032
 30
0.0
 11
10546.36483765696
 21
1637.528628192034
 31
0.0
  0
LINE
  5
28FB7
330
747D
100
AcDbEntity
  8
細線
100
AcDbLine
 10
10007.2834831502
 20
1637.528628192032
 30
0.0
 11
10098.98239880354
 21
1729.227543845382
 31
0.0
  0
LWPOLYLINE
  5
28FB8
330
747D
100
AcDbEntity
  8
部品1
 48
50.0
100
AcDbPolyline
 90
        2
 70
     0
 43
12.0
 10
9561.75357555657
 20
1729.227543845382
 10
10762.84587868819
 20
1729.227543845382
  0
LINE
  5
28FB9
330
747D
100
AcDbEntity
  8
細線
100
AcDbLine
 10
10090.08648308831
 20
1729.227543845382
 30
0.0
 11
9946.364837656958
 21
1872.949189276734
 31
0.0
  0
TEXT
  5
28FBA
330
747D
100
AcDbEntity
  8
部品1
 48
50.0
100
AcDbText
 10
9182.246750898455
 20
1462.427803208073
 30
0.0
 40
80.0
  1
ボルトの出
 50
90.0
  7
STYLE2
100
AcDbText
  0
LINE
  5
28FBB
330
747D
100
AcDbEntity
  8
部品1
100
AcDbLine
 10
9946.364837656958
 20
1729.227543845382
 30
0.0
 11
9946.364837656958
 21
1969.227543845381
 31
0.0
  0
LINE
  5
28FBC
330
747D
100
AcDbEntity
  8
細線
 48
50.0
100
AcDbLine
 10
9922.659632205718
 20
1509.528628192031
 30
0.0
 11
9956.957128836901
 21
1637.52862819203
 31
0.0
  0
LINE
  5
28FBD
330
747D
100
AcDbEntity
  8
細線
 48
50.0
100
AcDbLine
 10
10001.54767715297
 20
1509.528628192031
 30
0.0
 11
10035.84517378415
 21
1637.528628192032
 31
0.0
  0
LINE
  5
28FBE
330
747D
100
AcDbEntity
  8
細線
 48
50.0
100
AcDbLine
 10
9843.771587258471
 20
1509.528628192031
 30
0.0
 11
9878.069083889656
 21
1637.528628192032
 31
0.0
  0
LINE
  5
28FBF
330
747D
100
AcDbEntity
  8
部品1
100
AcDbLine
 10
9826.364837656958
 20
1509.528628192028
 30
0.0
 11
9826.364837656958
 21
1729.227543845382
 31
0.0
  0
LINE
  5
28FC0
330
747D
100
AcDbEntity
  8
細線
 48
50.0
100
AcDbLine
 10
9929.09041282407
 20
1533.528628192031
 30
0.0
 11
9935.521193442419
 21
1509.528628192031
 31
0.0
  0
LINE
  5
28FC1
330
747D
100
AcDbEntity
  8
細線
 48
50.0
100
AcDbLine
 10
9850.202367876818
 20
1533.528628192031
 30
0.0
 11
9856.633148495166
 21
1509.528628192031
 31
0.0
  0
LINE
  5
28FC2
330
747D
100
AcDbEntity
  8
細線
 48
50.0
100
AcDbLine
 10
10007.97845777132
 20
1533.528628192031
 30
0.0
 11
10014.40923838966
 21
1509.528628192031
 31
0.0
  0
LINE
  5
28FC3
330
747D
100
AcDbEntity
  8
細線
 48
50.0
100
AcDbLine
 10
10086.86650271856
 20
1533.528628192031
 30
0.0
 11
10093.29728333691
 21
1509.528628192031
 31
0.0
  0
LINE
  5
28FC4
330
747D
100
AcDbEntity
  8
細線
 48
50.0
100
AcDbLine
 10
9871.638303271309
 20
1613.528628192031
 30
0.0
 11
9865.20752265296
 21
1637.528628192032
 31
0.0
  0
LINE
  5
28FC5
330
747D
100
AcDbEntity
  8
細線
 48
50.0
100
AcDbLine
 10
10029.41439316581
 20
1613.528628192031
 30
0.0
 11
10022.98361254746
 21
1637.528628192032
 31
0.0
  0
LINE
  5
28FC6
330
747D
100
AcDbEntity
  8
細線
 48
50.0
100
AcDbLine
 10
9950.526348218559
 20
1613.528628192031
 30
0.0
 11
9944.095567600212
 21
1637.528628192032
 31
0.0
  0
LINE
  5
28FC7
330
747D
100
AcDbEntity
  8
細線
100
AcDbLine
 10
9939.401232156285
 20
1637.528628192032
 30
0.0
 11
10031.10014780963
 21
1729.227543845382
 31
0.0
  0
LINE
  5
28FC8
330
747D
100
AcDbEntity
  8
細線
100
AcDbLine
 10
9973.342357653244
 20
1637.528628192032
 30
0.0
 11
10065.04127330659
 21
1729.227543845382
 31
0.0
  0
LINE
  5
28FC9
330
747D
100
AcDbEntity
  8
細線
100
AcDbLine
 10
10361.61548706394
 20
1729.227543845382
 30
0.0
 11
10121.61548706395
 21
1969.227543845381
 31
0.0
  0
LINE
  5
28FCA
330
747D
100
AcDbEntity
  8
細線
100
AcDbLine
 10
10412.52717530937
 20
1729.227543845383
 30
0.0
 11
10172.52717530938
 21
1969.227543845381
 31
0.0
  0
LINE
  5
28FCB
330
747D
100
AcDbEntity
  8
部品1
100
AcDbLine
 10
10426.36483765696
 20
1969.227543845381
 30
0.0
 11
10426.36483765696
 21
1729.227543845382
 31
0.0
  0
LINE
  5
28FCC
330
747D
100
AcDbEntity
  8
細線
 48
50.0
100
AcDbLine
 10
10395.9879018892
 20
1509.528628192029
 30
0.0
 11
10430.28539852039
 21
1637.528628192029
 31
0.0
  0
LINE
  5
28FCD
330
747D
100
AcDbEntity
  8
細線
100
AcDbLine
 10
10367.2834831502
 20
1637.528628192033
 30
0.0
 11
10458.98239880354
 21
1729.227543845382
 31
0.0
  0
LINE
  5
28FCE
330
747D
100
AcDbEntity
  8
細線
 48
50.0
100
AcDbLine
 10
10317.09985694196
 20
1509.528628192031
 30
0.0
 11
10351.39735357313
 21
1637.528628192032
 31
0.0
  0
LINE
  5
28FCF
330
747D
100
AcDbEntity
  8
細線
 48
50.0
100
AcDbLine
 10
10159.32376704746
 20
1509.528628192031
 30
0.0
 11
10193.62126367864
 21
1637.52862819203
 31
0.0
  0
LINE
  5
28FD0
330
747D
100
AcDbEntity
  8
細線
 48
50.0
100
AcDbLine
 10
10238.21181199471
 20
1509.528628192031
 30
0.0
 11
10272.50930862589
 21
1637.52862819203
 31
0.0
  0
LINE
  5
28FD1
330
747D
100
AcDbEntity
  8
細線
 48
50.0
100
AcDbLine
 10
10244.64259261306
 20
1533.528628192031
 30
0.0
 11
10251.0733732314
 21
1509.528628192031
 31
0.0
  0
LINE
  5
28FD2
330
747D
100
AcDbEntity
  8
細線
 48
50.0
100
AcDbLine
 10
10165.75454766581
 20
1533.528628192031
 30
0.0
 11
10172.18532828416
 21
1509.528628192031
 31
0.0
  0
LINE
  5
28FD3
330
747D
100
AcDbEntity
  8
細線
 48
50.0
100
AcDbLine
 10
10323.5306375603
 20
1533.528628192031
 30
0.0
 11
10329.96141817866
 21
1509.528628192031
 31
0.0
  0
LINE
  5
28FD4
330
747D
100
AcDbEntity
  8
細線
 48
50.0
100
AcDbLine
 10
10402.41868250755
 20
1533.528628192031
 30
0.0
 11
10408.8494631259
 21
1509.528628192031
 31
0.0
  0
LINE
  5
28FD5
330
747D
100
AcDbEntity
  8
細線
 48
50.0
100
AcDbLine
 10
10266.07852800755
 20
1613.528628192031
 30
0.0
 11
10259.6477473892
 21
1637.528628192032
 31
0.0
  0
LINE
  5
28FD6
330
747D
100
AcDbEntity
  8
細線
 48
50.0
100
AcDbLine
 10
10187.1904830603
 20
1613.528628192031
 30
0.0
 11
10180.75970244195
 21
1637.528628192032
 31
0.0
  0
LINE
  5
28FD7
330
747D
100
AcDbEntity
  8
細線
 48
50.0
100
AcDbLine
 10
10108.30243811305
 20
1613.528628192031
 30
0.0
 11
10101.87165749471
 21
1637.528628192032
 31
0.0
  0
LINE
  5
28FD8
330
747D
100
AcDbEntity
  8
細線
100
AcDbLine
 10
10333.34235765325
 20
1637.528628192033
 30
0.0
 11
10425.04127330659
 21
1729.227543845382
 31
0.0
  0
LINE
  5
28FD9
330
747D
100
AcDbEntity
  8
細線
 48
50.0
100
AcDbLine
 10
10344.96657295479
 20
1613.528628192031
 30
0.0
 11
10338.53579233644
 21
1637.528628192032
 31
0.0
  0
LINE
  5
28FDA
330
747D
100
AcDbEntity
  8
細線
100
AcDbLine
 10
10299.40123215629
 20
1637.528628192033
 30
0.0
 11
10391.10014780963
 21
1729.227543845382
 31
0.0
  0
LINE
  5
28FDB
330
747D
100
AcDbEntity
  8
細線
 48
50.0
100
AcDbLine
 10
10423.85461790204
 20
1613.528628192031
 30
0.0
 11
10417.42383728369
 21
1637.52862819203
 31
0.0
  0
LINE
  5
28FDC
330
747D
100
AcDbEntity
  8
細線
 48
50.0
100
AcDbLine
 10
10474.87594683645
 20
1509.528628192031
 30
0.0
 11
10509.17344346763
 21
1637.528628192029
 31
0.0
  0
LINE
  5
28FDD
330
747D
100
AcDbEntity
  8
部品1
100
AcDbLine
 10
10546.36483765696
 20
1729.227543845382
 30
0.0
 11
10546.36483765696
 21
1509.528628192031
 31
0.0
  0
LINE
  5
28FDE
330
747D
100
AcDbEntity
  8
細線
 48
50.0
100
AcDbLine
 10
10481.3067274548
 20
1533.528628192031
 30
0.0
 11
10487.73750807315
 21
1509.528628192031
 31
0.0
  0
LINE
  5
28FDF
330
747D
100
AcDbEntity
  8
細線
 48
50.0
100
AcDbLine
 10
10502.74266284929
 20
1613.528628192031
 30
0.0
 11
10496.31188223094
 21
1637.52862819203
 31
0.0
  0
LEADER
  5
28FE0
330
747D
100
AcDbEntity
  8
寸法
 48
50.0
100
AcDbLeader
  3
INABA_S50G
 73
     0
 74
     0
 75
     1
 40
120.0
 41
185.591883092037
 76
     3
 10
10357.08924927288
 20
1969.227543845381
 30
0.0
 10
10390.22745590652
 20
2141.373864526519
 30
0.0
 10
10515.22745590652
 20
2141.373864526519
 30
0.0
340
28FE1
1001
ACAD
1000
DSTYLE
1002
{
1070
    40
1040
1.0
1002
}
  0
MTEXT
  5
28FE1
102
{ACAD_REACTORS
330
28FE0
102
}
330
747D
100
AcDbEntity
  8
寸法
 62
     7
 48
50.0
100
AcDbMText
 10
10540.22745590652
 20
2226.373864526519
 30
0.0
 40
120.0
 41
0.8
 71
     4
 72
     1
  1
\A1;C.B
  7
STYLE1
 73
     1
 44
1.0
1001
ACAD
1000
MTEXTBEGIN
1070
    73
1070
     1
1070
    44
1040
1.0
1070
    74
1070
     0
1000
MTEXTEND
  0
SPLINE
  5
29074
330
747D
100
AcDbEntity
  8
細線
 48
50.0
100
AcDbSpline
210
0.0
220
0.0
230
1.0
 70
     8
 71
     3
 72
    10
 73
     6
 74
     4
 42
0.0000000001
 43
0.0000000001
 44
0.0000000001
 40
0.0
 40
0.0
 40
0.0
 40
0.0
 40
192.2397835813012
 40
392.3518421163208
 40
606.4563990014053
 40
606.4563990014053
 40
606.4563990014053
 40
606.4563990014053
 10
9000.341832157486
 20
7043.438405881878
 30
0.0
 10
8900.395644914201
 20
7031.862642126687
 30
0.0
 10
8696.41044504104
 20
7008.237083729556
 30
0.0
 10
9116.06787796868
 20
6874.960323698411
 30
0.0
 10
8895.272472398495
 20
6850.734708372548
 30
0.0
 10
8781.145465629533
 20
6838.212722432047
 30
0.0
 11
9000.341832157486
 21
7043.438405881878
 31
0.0
 11
8814.652460356086
 21
6993.683088664649
 31
0.0
 11
8987.954586651012
 21
6893.62705939714
 31
0.0
 11
8781.145465629533
 21
6838.212722432047
 31
0.0
  0
LINE
  5
29075
330
747D
100
AcDbEntity
  8
細線
 48
50.0
100
AcDbLine
 10
9070.076422157196
 20
8097.513967207408
 30
0.0
 11
8740.793503672113
 21
5775.726854344188
 31
0.0
  0
ENDSEC
  0
SECTION
  2
OBJECTS
  0
DICTIONARY
  5
7471
330
0
100
AcDbDictionary
281
     1
  3
ACAD_COLOR
350
173D2
  3
ACAD_GROUP
350
7472
  3
ACAD_LAYOUT
350
173D3
  3
ACAD_MATERIAL
350
173D1
  3
ACAD_MLINESTYLE
350
7473
  3
ACAD_PLOTSETTINGS
350
173D4
  3
ACAD_PLOTSTYLENAME
350
173CF
  3
ACDBHEADERROUNDTRIPXREC
350
2908B
  3
AcDbVariableDictionary
350
28C9F
  3
CONTENTDICTIONARY
350
E71C
  3
DRAWINGVARIABLESDICT
350
F3B9
  0
DICTIONARY
  5
1758F
330
7467
100
AcDbDictionary
280
     1
281
     1
  3
ACAD_LAYERSTATES
360
17590
  0
DICTIONARY
  5
173D2
102
{ACAD_REACTORS
330
7471
102
}
330
7471
100
AcDbDictionary
281
     1
  0
DICTIONARY
  5
7472
102
{ACAD_REACTORS
330
7471
102
}
330
7471
100
AcDbDictionary
281
     1
  3
*A1
350
1D2A9
  0
DICTIONARY
  5
173D3
102
{ACAD_REACTORS
330
7471
102
}
330
7471
100
AcDbDictionary
281
     1
  3
Model
350
173D5
  3
レイアウト1
350
173D6
  0
DICTIONARY
  5
173D1
102
{ACAD_REACTORS
330
7471
102
}
330
7471
100
AcDbDictionary
281
     1
  0
DICTIONARY
  5
7473
102
{ACAD_REACTORS
330
7471
102
}
330
7471
100
AcDbDictionary
281
     1
  3
STANDARD
350
7480
  0
DICTIONARY
  5
173D4
102
{ACAD_REACTORS
330
7471
102
}
330
7471
100
AcDbDictionary
281
     1
  0
ACDBDICTIONARYWDFLT
  5
173CF
102
{ACAD_REACTORS
330
7471
102
}
330
7471
100
AcDbDictionary
281
     1
  3
Normal
350
173D0
100
AcDbDictionaryWithDefault
340
173D0
  0
DICTIONARY
  5
2908B
102
{ACAD_REACTORS
330
7471
102
}
330
7471
100
AcDbDictionary
281
     1
  3
COLORDICT
350
2908D
  3
MATERIALDICT
350
2908C
  0
DICTIONARY
  5
28C9F
102
{ACAD_REACTORS
330
7471
102
}
330
7471
100
AcDbDictionary
281
     1
  3
DIMASSOC
350
28CA0
  3
PROJECTNAME
350
28CA1
  0
DICTIONARY
  5
E71C
102
{ACAD_REACTORS
330
7471
102
}
330
7471
100
AcDbDictionary
281
     1
  0
DICTIONARY
  5
F3B9
102
{ACAD_REACTORS
330
7471
102
}
330
7471
100
AcDbDictionary
281
     1
1001
DRAWINGVARIABLESXDATA
1000
POLARMODE
1000
1
  0
DICTIONARY
  5
17590
102
{ACAD_REACTORS
330
1758F
102
}
330
1758F
100
AcDbDictionary
281
     1
  0
GROUP
  5
1D2A9
102
{ACAD_REACTORS
330
7472
102
}
330
7472
100
AcDbGroup
300

 70
     1
 71
     1
  0
LAYOUT
  5
173D5
102
{ACAD_XDICTIONARY
360
2908E
102
}
102
{ACAD_REACTORS
330
173D3
102
}
330
173D3
100
AcDbPlotSettings
  1

  2
Microsoft Office Document Image Writer
  4

  6

 40
0.0
 41
0.0
 42
0.0
 43
0.0
 44
0.0
 45
0.0
 46
0.0
 47
0.0
 48
0.0
 49
0.0
140
0.0
141
0.0
142
1.0
143
1.0
 70
  1712
 72
     0
 73
     0
 74
     0
  7

 75
     0
147
1.0
148
0.0
149
0.0
100
AcDbLayout
  1
Model
 70
     1
 71
     0
 10
0.0
 20
0.0
 11
12.0
 21
9.0
 12
0.0
 22
0.0
 32
0.0
 14
0.0
 24
0.0
 34
0.0
 15
0.0
 25
0.0
 35
0.0
146
0.0
 13
0.0
 23
0.0
 33
0.0
 16
1.0
 26
0.0
 36
0.0
 17
0.0
 27
1.0
 37
0.0
 76
     0
330
747D
  0
LAYOUT
  5
173D6
102
{ACAD_XDICTIONARY
360
29090
102
}
102
{ACAD_REACTORS
330
173D3
102
}
330
173D3
100
AcDbPlotSettings
  1

  2
Microsoft Office Document Image Writer
  4

  6

 40
0.0
 41
0.0
 42
0.0
 43
0.0
 44
0.0
 45
0.0
 46
0.0
 47
0.0
 48
0.0
 49
0.0
140
0.0
141
0.0
142
1.0
143
1.0
 70
   688
 72
     0
 73
     0
 74
     5
  7

 75
    16
147
1.0
148
0.0
149
0.0
100
AcDbLayout
  1
レイアウト1
 70
     0
 71
     1
 10
0.0
 20
0.0
 11
420.0
 21
297.0
 12
0.0
 22
0.0
 32
0.0
 14
1.000000000000000E+20
 24
1.000000000000000E+20
 34
1.000000000000000E+20
 15
-1.000000000000000E+20
 25
-1.000000000000000E+20
 35
-1.000000000000000E+20
146
0.0
 13
0.0
 23
0.0
 33
0.0
 16
1.0
 26
0.0
 36
0.0
 17
0.0
 27
1.0
 37
0.0
 76
     0
330
747A
  0
MLINESTYLE
  5
7480
102
{ACAD_REACTORS
330
7473
102
}
330
7473
100
AcDbMlineStyle
  2
STANDARD
 70
     0
  3

 62
     0
 51
90.0
 52
90.0
 71
     2
 49
0.5
 62
   256
  6
BYLAYER
 49
-0.5
 62
   256
  6
BYLAYER
  0
ACDBPLACEHOLDER
  5
173D0
102
{ACAD_REACTORS
330
173CF
102
}
330
173CF
  0
XRECORD
  5
2908D
102
{ACAD_REACTORS
330
2908B
102
}
330
2908B
100
AcDbXrecord
280
     1
340
173D2
  0
XRECORD
  5
2908C
102
{ACAD_REACTORS
330
2908B
102
}
330
2908B
100
AcDbXrecord
280
     1
340
173D1
  0
DICTIONARYVAR
  5
28CA0
102
{ACAD_REACTORS
330
28C9F
102
}
330
28C9F
100
DictionaryVariables
280
     0
  1
1
  0
DICTIONARYVAR
  5
28CA1
102
{ACAD_REACTORS
330
28C9F
102
}
330
28C9F
100
DictionaryVariables
280
     0
  1

  0
DICTIONARY
  5
2908E
330
173D5
100
AcDbDictionary
280
     1
281
     1
  3
ACAD_XREC_ROUNDTRIP
360
2908F
  0
DICTIONARY
  5
29090
330
173D6
100
AcDbDictionary
280
     1
281
     1
  3
ACAD_XREC_ROUNDTRIP
360
29091
  0
XRECORD
  5
2908F
102
{ACAD_REACTORS
330
2908E
102
}
330
2908E
100
AcDbXrecord
280
     1
102
SHADEPLOT
 70
     0
102
SHADEPLOTRESLEVEL
 70
     2
102
SHADEPLOTCUSTOMDPI
 70
   300
  0
XRECORD
  5
29091
102
{ACAD_REACTORS
330
29090
102
}
330
29090
100
AcDbXrecord
280
     1
102
SHADEPLOT
 70
     0
102
SHADEPLOTRESLEVEL
 70
     2
102
SHADEPLOTCUSTOMDPI
 70
   300
  0
ENDSEC
  0
EOF
