  0
SECTION
  2
HEADER
  9
$ACADVER
  1
AC1015
  9
$ACADMAINTVER
 70
    20
  9
$DWGCODEPAGE
  3
ANSI_932
  9
$INSBASE
 10
0.0
 20
0.0
 30
0.0
  9
$EXTMIN
 10
139.9999999999995
 20
-0.0000000000000909
 30
0.0
  9
$EXTMAX
 10
16307.2
 20
11409.6
 30
0.0
  9
$LIMMIN
 10
0.0
 20
0.0
  9
$LIMMAX
 10
16800.0
 20
11880.0
  9
$ORTHOMODE
 70
     0
  9
$REGENMODE
 70
     1
  9
$FILLMODE
 70
     1
  9
$QTEXTMODE
 70
     0
  9
$MIRRTEXT
 70
     1
  9
$LTSCALE
 40
20.0
  9
$ATTMODE
 70
     1
  9
$TEXTSIZE
 40
100.0
  9
$TRACEWID
 40
1.0
  9
$TEXTSTYLE
  7
STYLE3
  9
$CLAYER
  8
部品1
  9
$CELTYPE
  6
BYLAYER
  9
$CECOLOR
 62
   256
  9
$CELTSCALE
 40
50.0
  9
$DISPSILH
 70
     0
  9
$DIMSCALE
 40
40.0
  9
$DIMASZ
 40
0.5
  9
$DIMEXO
 40
0.5
  9
$DIMDLI
 40
7.0
  9
$DIMRND
 40
0.0
  9
$DIMDLE
 40
0.0
  9
$DIMEXE
 40
1.0
  9
$DIMTP
 40
0.0
  9
$DIMTM
 40
0.0
  9
$DIMTXT
 40
3.0
  9
$DIMCEN
 40
0.0
  9
$DIMTSZ
 40
0.0
  9
$DIMTOL
 70
     0
  9
$DIMLIM
 70
     0
  9
$DIMTIH
 70
     0
  9
$DIMTOH
 70
     0
  9
$DIMSE1
 70
     0
  9
$DIMSE2
 70
     0
  9
$DIMTAD
 70
     3
  9
$DIMZIN
 70
     8
  9
$DIMBLK
  1

  9
$DIMASO
 70
     1
  9
$DIMSHO
 70
     1
  9
$DIMPOST
  1

  9
$DIMAPOST
  1

  9
$DIMALT
 70
     0
  9
$DIMALTD
 70
     2
  9
$DIMALTF
 40
0.0394
  9
$DIMLFAC
 40
1.0
  9
$DIMTOFL
 70
     1
  9
$DIMTVP
 40
0.0
  9
$DIMTIX
 70
     1
  9
$DIMSOXD
 70
     1
  9
$DIMSAH
 70
     1
  9
$DIMBLK1
  1
DOT
  9
$DIMBLK2
  1
DOT
  9
$DIMSTYLE
  2
INABA_S40
  9
$DIMCLRD
 70
     0
  9
$DIMCLRE
 70
     0
  9
$DIMCLRT
 70
     7
  9
$DIMTFAC
 40
1.0
  9
$DIMGAP
 40
0.8
  9
$DIMJUST
 70
     0
  9
$DIMSD1
 70
     0
  9
$DIMSD2
 70
     0
  9
$DIMTOLJ
 70
     1
  9
$DIMTZIN
 70
     0
  9
$DIMALTZ
 70
     0
  9
$DIMALTTZ
 70
     0
  9
$DIMUPT
 70
     0
  9
$DIMDEC
 70
     2
  9
$DIMTDEC
 70
     2
  9
$DIMALTU
 70
     2
  9
$DIMALTTD
 70
     2
  9
$DIMTXSTY
  7
STYLE1
  9
$DIMAUNIT
 70
     0
  9
$DIMADEC
 70
     0
  9
$DIMALTRND
 40
0.0
  9
$DIMAZIN
 70
     0
  9
$DIMDSEP
 70
    46
  9
$DIMATFIT
 70
     3
  9
$DIMFRAC
 70
     0
  9
$DIMLDRBLK
  1

  9
$DIMLUNIT
 70
     2
  9
$DIMLWD
 70
    -2
  9
$DIMLWE
 70
    -2
  9
$DIMTMOVE
 70
     0
  9
$LUNITS
 70
     2
  9
$LUPREC
 70
     1
  9
$SKETCHINC
 40
1.0
  9
$FILLETRAD
 40
5.0
  9
$AUNITS
 70
     0
  9
$AUPREC
 70
     0
  9
$MENU
  1
acad
  9
$ELEVATION
 40
0.0
  9
$PELEVATION
 40
0.0
  9
$THICKNESS
 40
0.0
  9
$LIMCHECK
 70
     0
  9
$CHAMFERA
 40
0.0
  9
$CHAMFERB
 40
0.0
  9
$CHAMFERC
 40
0.0
  9
$CHAMFERD
 40
0.0
  9
$SKPOLY
 70
     0
  9
$TDCREATE
 40
2451590.492424190
  9
$TDUCREATE
 40
2451590.117424190
  9
$TDUPDATE
 40
2455575.701790544
  9
$TDUUPDATE
 40
2455575.326790544
  9
$TDINDWG
 40
0.0696613542
  9
$TDUSRTIMER
 40
0.0696613542
  9
$USRTIMER
 70
     1
  9
$ANGBASE
 50
0.0
  9
$ANGDIR
 70
     0
  9
$PDMODE
 70
     3
  9
$PDSIZE
 40
2.0
  9
$PLINEWID
 40
0.0
  9
$SPLFRAME
 70
     0
  9
$SPLINETYPE
 70
     6
  9
$SPLINESEGS
 70
     8
  9
$HANDSEED
  5
1543C
  9
$SURFTAB1
 70
     6
  9
$SURFTAB2
 70
     6
  9
$SURFTYPE
 70
     6
  9
$SURFU
 70
     6
  9
$SURFV
 70
     6
  9
$UCSBASE
  2

  9
$UCSNAME
  2

  9
$UCSORG
 10
0.0
 20
0.0
 30
0.0
  9
$UCSXDIR
 10
1.0
 20
0.0
 30
0.0
  9
$UCSYDIR
 10
0.0
 20
1.0
 30
0.0
  9
$UCSORTHOREF
  2

  9
$UCSORTHOVIEW
 70
     0
  9
$UCSORGTOP
 10
0.0
 20
0.0
 30
0.0
  9
$UCSORGBOTTOM
 10
0.0
 20
0.0
 30
0.0
  9
$UCSORGLEFT
 10
0.0
 20
0.0
 30
0.0
  9
$UCSORGRIGHT
 10
0.0
 20
0.0
 30
0.0
  9
$UCSORGFRONT
 10
0.0
 20
0.0
 30
0.0
  9
$UCSORGBACK
 10
0.0
 20
0.0
 30
0.0
  9
$PUCSBASE
  2

  9
$PUCSNAME
  2

  9
$PUCSORG
 10
0.0
 20
0.0
 30
0.0
  9
$PUCSXDIR
 10
1.0
 20
0.0
 30
0.0
  9
$PUCSYDIR
 10
0.0
 20
1.0
 30
0.0
  9
$PUCSORTHOREF
  2

  9
$PUCSORTHOVIEW
 70
     0
  9
$PUCSORGTOP
 10
0.0
 20
0.0
 30
0.0
  9
$PUCSORGBOTTOM
 10
0.0
 20
0.0
 30
0.0
  9
$PUCSORGLEFT
 10
0.0
 20
0.0
 30
0.0
  9
$PUCSORGRIGHT
 10
0.0
 20
0.0
 30
0.0
  9
$PUCSORGFRONT
 10
0.0
 20
0.0
 30
0.0
  9
$PUCSORGBACK
 10
0.0
 20
0.0
 30
0.0
  9
$USERI1
 70
     0
  9
$USERI2
 70
     0
  9
$USERI3
 70
     0
  9
$USERI4
 70
     0
  9
$USERI5
 70
     0
  9
$USERR1
 40
0.0
  9
$USERR2
 40
0.0
  9
$USERR3
 40
0.0
  9
$USERR4
 40
0.0
  9
$USERR5
 40
0.0
  9
$WORLDVIEW
 70
     1
  9
$SHADEDGE
 70
     3
  9
$SHADEDIF
 70
    70
  9
$TILEMODE
 70
     1
  9
$MAXACTVP
 70
    16
  9
$PINSBASE
 10
0.0
 20
0.0
 30
0.0
  9
$PLIMCHECK
 70
     0
  9
$PEXTMIN
 10
1.000000000000000E+20
 20
1.000000000000000E+20
 30
1.000000000000000E+20
  9
$PEXTMAX
 10
-1.000000000000000E+20
 20
-1.000000000000000E+20
 30
-1.000000000000000E+20
  9
$PLIMMIN
 10
0.0
 20
0.0
  9
$PLIMMAX
 10
420.0
 20
297.0
  9
$UNITMODE
 70
     0
  9
$VISRETAIN
 70
     0
  9
$PLINEGEN
 70
     0
  9
$PSLTSCALE
 70
     0
  9
$TREEDEPTH
 70
  3020
  9
$CMLSTYLE
  2
STANDARD
  9
$CMLJUST
 70
     0
  9
$CMLSCALE
 40
1.0
  9
$PROXYGRAPHICS
 70
     1
  9
$MEASUREMENT
 70
     1
  9
$CELWEIGHT
370
    -1
  9
$ENDCAPS
280
     0
  9
$JOINSTYLE
280
     0
  9
$LWDISPLAY
290
     0
  9
$INSUNITS
 70
     0
  9
$HYPERLINKBASE
  1

  9
$STYLESHEET
  1
inaba.ctb
  9
$XEDIT
290
     1
  9
$CEPSNTYPE
380
     0
  9
$PSTYLEMODE
290
     1
  9
$FINGERPRINTGUID
  2
{753BD1C4-9BBF-4660-9872-857B831833B3}
  9
$VERSIONGUID
  2
{B1D18265-6715-4D37-84D2-ED1B758CDD48}
  9
$EXTNAMES
290
     1
  9
$PSVPSCALE
 40
0.0
  9
$OLESTARTUP
290
     0
  0
ENDSEC
  0
SECTION
  2
CLASSES
  0
CLASS
  1
ACDBDICTIONARYWDFLT
  2
AcDbDictionaryWithDefault
  3
ObjectDBX Classes
 90
        0
280
     0
281
     0
  0
CLASS
  1
DICTIONARYVAR
  2
AcDbDictionaryVar
  3
ObjectDBX Classes
 90
        0
280
     0
281
     0
  0
CLASS
  1
ACDBPLACEHOLDER
  2
AcDbPlaceHolder
  3
ObjectDBX Classes
 90
        0
280
     0
281
     0
  0
CLASS
  1
LAYOUT
  2
AcDbLayout
  3
ObjectDBX Classes
 90
        0
280
     0
281
     0
  0
ENDSEC
  0
SECTION
  2
TABLES
  0
TABLE
  2
VPORT
  5
746D
330
0
100
AcDbSymbolTable
 70
     2
  0
VPORT
  5
15434
330
746D
100
AcDbSymbolTableRecord
100
AcDbViewportTableRecord
  2
*Active
 70
     0
 10
0.0
 20
0.0
 11
1.0
 21
1.0
 12
8223.761025238502
 22
6348.450103178214
 13
0.0
 23
0.0
 14
10.0
 24
10.0
 15
10.0
 25
10.0
 16
0.0
 26
0.0
 36
1.0
 17
0.0
 27
0.0
 37
0.0
 40
12806.19275401884
 41
1.525925925925925
 42
50.0
 43
0.0
 44
0.0
 50
0.0
 51
0.0
 71
     0
 72
     0
 73
     1
 74
     0
 75
     0
 76
     0
 77
     0
 78
     0
281
     0
 65
     1
110
0.0
120
0.0
130
0.0
111
1.0
121
0.0
131
0.0
112
0.0
122
1.0
132
0.0
 79
     0
146
0.0
  0
ENDTAB
  0
TABLE
  2
LTYPE
  5
746A
330
0
100
AcDbSymbolTable
 70
     4
  0
LTYPE
  5
7477
330
746A
100
AcDbSymbolTableRecord
100
AcDbLinetypeTableRecord
  2
BYBLOCK
 70
     0
  3

 72
    65
 73
     0
 40
0.0
  0
LTYPE
  5
7478
330
746A
100
AcDbSymbolTableRecord
100
AcDbLinetypeTableRecord
  2
BYLAYER
 70
     0
  3

 72
    65
 73
     0
 40
0.0
  0
LTYPE
  5
7479
330
746A
100
AcDbSymbolTableRecord
100
AcDbLinetypeTableRecord
  2
CONTINUOUS
 70
     0
  3
Solid line
 72
    65
 73
     0
 40
0.0
  0
LTYPE
  5
7816
330
746A
100
AcDbSymbolTableRecord
100
AcDbLinetypeTableRecord
  2
CENTER
 70
     0
  3
____ _ ____ _ ____ _ ____ _ ____ _ ____ _ ____ 
 72
    65
 73
     4
 40
2.0
 49
1.25
 74
     0
 49
-0.25
 74
     0
 49
0.25
 74
     0
 49
-0.25
 74
     0
  0
LTYPE
  5
781A
330
746A
100
AcDbSymbolTableRecord
100
AcDbLinetypeTableRecord
  2
HIDDEN
 70
     0
  3
__ __ __ __ __ __ __ __ __ __ __ __ __ __ __ __
 72
    65
 73
     2
 40
0.375
 49
0.25
 74
     0
 49
-0.125
 74
     0
  0
LTYPE
  5
781B
330
746A
100
AcDbSymbolTableRecord
100
AcDbLinetypeTableRecord
  2
PHANTOM
 70
     0
  3
______  __  __  ______  __  __  ______  __  __ 
 72
    65
 73
     6
 40
2.5
 49
1.25
 74
     0
 49
-0.25
 74
     0
 49
0.25
 74
     0
 49
-0.25
 74
     0
 49
0.25
 74
     0
 49
-0.25
 74
     0
  0
ENDTAB
  0
TABLE
  2
LAYER
  5
7467
102
{ACAD_XDICTIONARY
360
13B48
102
}
330
0
100
AcDbSymbolTable
 70
    12
  0
LAYER
  5
7474
330
7467
100
AcDbSymbolTableRecord
100
AcDbLayerTableRecord
  2
0
 70
     0
 62
     7
  6
CONTINUOUS
370
    -3
390
139CA
  0
LAYER
  5
DEB2
330
7467
100
AcDbSymbolTableRecord
100
AcDbLayerTableRecord
  2
センター
 70
     0
 62
     3
  6
CENTER
370
    -3
390
139CA
  0
LAYER
  5
DEB3
330
7467
100
AcDbSymbolTableRecord
100
AcDbLayerTableRecord
  2
寸法
 70
     0
 62
     4
  6
CONTINUOUS
370
    -3
390
139CA
  0
LAYER
  5
DEB4
330
7467
100
AcDbSymbolTableRecord
100
AcDbLayerTableRecord
  2
部品1
 70
     0
 62
     7
  6
CONTINUOUS
370
    -3
390
139CA
  0
LAYER
  5
DEB5
330
7467
100
AcDbSymbolTableRecord
100
AcDbLayerTableRecord
  2
補助
 70
     0
 62
    -1
  6
CONTINUOUS
370
    -3
390
139CA
  0
LAYER
  5
DEB6
330
7467
100
AcDbSymbolTableRecord
100
AcDbLayerTableRecord
  2
文字
 70
     0
 62
     7
  6
CONTINUOUS
370
    -3
390
139CA
  0
LAYER
  5
F255
330
7467
100
AcDbSymbolTableRecord
100
AcDbLayerTableRecord
  2
DEFPOINTS
 70
     0
 62
     7
  6
CONTINUOUS
290
     0
370
    -3
390
139CA
  0
LAYER
  5
10B54
330
7467
100
AcDbSymbolTableRecord
100
AcDbLayerTableRecord
  2
仕様書枠
 70
     0
 62
   230
  6
CONTINUOUS
370
    -3
390
139CA
  0
LAYER
  5
11729
330
7467
100
AcDbSymbolTableRecord
100
AcDbLayerTableRecord
  2
Ｇ．Ｌ
 70
     0
 62
    30
  6
CONTINUOUS
370
    -3
390
139CA
  0
LAYER
  5
1173F
330
7467
100
AcDbSymbolTableRecord
100
AcDbLayerTableRecord
  2
細線
 70
     0
 62
     5
  6
CONTINUOUS
370
    -3
390
139CA
  0
LAYER
  5
11740
330
7467
100
AcDbSymbolTableRecord
100
AcDbLayerTableRecord
  2
点線
 70
     0
 62
     2
  6
HIDDEN
370
    -3
390
139CA
  0
LAYER
  5
11905
330
7467
100
AcDbSymbolTableRecord
100
AcDbLayerTableRecord
  2
破線
 70
     0
 62
     2
  6
HIDDEN
370
    -3
390
139CA
  0
ENDTAB
  0
TABLE
  2
STYLE
  5
7468
330
0
100
AcDbSymbolTable
 70
     7
  0
STYLE
  5
7475
330
7468
100
AcDbSymbolTableRecord
100
AcDbTextStyleTableRecord
  2
STANDARD
 70
     0
 40
0.0
 41
1.0
 50
0.0
 71
     0
 42
4.0
  3
txt
  4
C:\AutoCAD LT\bigfont.shx
  0
STYLE
  5
763C
330
7468
100
AcDbSymbolTableRecord
100
AcDbTextStyleTableRecord
  2
MSMINCHO
 70
     0
 40
0.0
 41
1.0
 50
0.0
 71
     0
 42
1.199999999999999
  3
C:\AutoCAD LT\msminch2.TTF
  4

  0
STYLE
  5
F5E9
330
7468
100
AcDbSymbolTableRecord
100
AcDbTextStyleTableRecord
  2

 70
     1
 40
0.0
 41
1.0
 50
0.0
 71
     0
 42
4.0
  3
ltypeshp.shx
  4

  0
STYLE
  5
F706
330
7468
100
AcDbSymbolTableRecord
100
AcDbTextStyleTableRecord
  2
STYLE1
 70
     0
 40
0.0
 41
1.0
 50
0.0
 71
     0
 42
4.0
  3
isocp.shx
  4
bigfont.shx
  0
STYLE
  5
103BF
330
7468
100
AcDbSymbolTableRecord
100
AcDbTextStyleTableRecord
  2
STYLE2
 70
     0
 40
0.0
 41
1.0
 50
0.0
 71
     0
 42
100.0
  3
MS PGothic.ttf
  4

1001
ACAD
1000
MS PGothic
1071
    32818
  0
STYLE
  5
10BAA
330
7468
100
AcDbSymbolTableRecord
100
AcDbTextStyleTableRecord
  2
STYLE3
 70
     0
 40
0.0
 41
1.0
 50
0.0
 71
     0
 42
100.0
  3

  4

1001
ACAD
1000
DFPGothic-EB
1071
    32818
  0
STYLE
  5
11906
330
7468
100
AcDbSymbolTableRecord
100
AcDbTextStyleTableRecord
  2
MSGOTHIC
 70
     0
 40
0.0
 41
1.0
 50
0.0
 71
     0
 42
3.5
  3
msgothi2.ttf
  4

  0
ENDTAB
  0
TABLE
  2
VIEW
  5
746B
330
0
100
AcDbSymbolTable
 70
     0
  0
ENDTAB
  0
TABLE
  2
UCS
  5
746C
330
0
100
AcDbSymbolTable
 70
     0
  0
ENDTAB
  0
TABLE
  2
APPID
  5
746E
330
0
100
AcDbSymbolTable
 70
     6
  0
APPID
  5
7476
330
746E
100
AcDbSymbolTableRecord
100
AcDbRegAppTableRecord
  2
ACAD
 70
     0
  0
APPID
  5
DEA9
330
746E
100
AcDbSymbolTableRecord
100
AcDbRegAppTableRecord
  2
CONTENTBLOCKICON
 70
     0
  0
APPID
  5
DEAA
330
746E
100
AcDbSymbolTableRecord
100
AcDbRegAppTableRecord
  2
CONTENTBLOCKDESCRIPTION
 70
     0
  0
APPID
  5
E71D
330
746E
100
AcDbSymbolTableRecord
100
AcDbRegAppTableRecord
  2
CONTENTTABDATA
 70
     0
  0
APPID
  5
E71E
330
746E
100
AcDbSymbolTableRecord
100
AcDbRegAppTableRecord
  2
CONTENTCURRENTTAB
 70
     0
  0
APPID
  5
F3BA
330
746E
100
AcDbSymbolTableRecord
100
AcDbRegAppTableRecord
  2
DRAWINGVARIABLESXDATA
 70
     0
  0
ENDTAB
  0
TABLE
  2
DIMSTYLE
  5
746F
330
0
100
AcDbSymbolTable
 70
     7
100
AcDbDimStyleTable
 71
     0
  0
DIMSTYLE
105
7484
330
746F
100
AcDbSymbolTableRecord
100
AcDbDimStyleTableRecord
  2
JIS
 70
     0
 41
2.5
 42
1.0
 43
7.0
 44
1.0
 73
     0
 74
     0
 77
     1
 78
     8
140
2.5
141
0.0
143
0.0394
147
0.0
172
     1
174
     1
175
     1
340
7475
  0
DIMSTYLE
105
F236
102
{ACAD_REACTORS
330
13EEC
330
13EED
330
13EEE
330
13EEF
330
13EF0
330
13F17
330
13F18
330
13F2F
330
13F77
330
13F82
330
1472C
330
14D3D
330
1500C
330
15109
330
15144
102
}
330
746F
100
AcDbSymbolTableRecord
100
AcDbDimStyleTableRecord
  2
INABA_S40
 70
     0
 40
40.0
 41
2.5
 42
0.5
 43
7.0
 44
1.5
 73
     0
 74
     0
 77
     3
 78
     8
140
3.0
141
0.0
143
0.0394
147
1.0
172
     1
173
     1
174
     1
175
     1
178
     7
289
     0
340
7475
  0
DIMSTYLE
105
F71F
102
{ACAD_REACTORS
330
13FF6
330
13FF7
330
13FF8
330
14011
330
146DC
330
146E5
330
146F3
330
146F4
330
146F5
330
146F9
330
14729
330
1472A
330
1472B
330
1500D
102
}
330
746F
100
AcDbSymbolTableRecord
100
AcDbDimStyleTableRecord
  2
INABA_S40G
 70
     0
 40
40.0
 41
2.5
 42
0.5
 43
7.0
 44
1.5
 73
     0
 74
     0
 77
     3
 78
     8
140
3.0
141
0.0
143
0.0394
147
1.0
172
     1
173
     1
174
     1
175
     1
178
     7
271
     1
340
F706
341
F770
343
F770
344
F770
  0
DIMSTYLE
105
11907
330
746F
100
AcDbSymbolTableRecord
100
AcDbDimStyleTableRecord
  2
INABA_S50
 70
     0
 40
50.0
 41
0.5
 42
0.5
 43
7.0
 44
1.0
 73
     0
 74
     0
 77
     3
 78
     8
140
2.5
141
0.0
143
0.0394
147
0.8
172
     1
173
     1
174
     1
175
     1
178
     7
271
     2
272
     2
289
     0
340
7475
341
F744
343
F744
344
F744
  0
DIMSTYLE
105
11908
330
746F
100
AcDbSymbolTableRecord
100
AcDbDimStyleTableRecord
  2
INABA_S50G
 70
     0
 41
125.0
 42
25.0
 43
7.0
 44
75.0
 73
     0
 74
     0
 77
     3
 78
     8
140
150.0
141
0.0
143
0.0394
147
25.0
172
     1
173
     1
174
     1
175
     1
178
     7
271
     1
340
F706
341
F770
343
F770
344
F770
  0
DIMSTYLE
105
13488
330
746F
100
AcDbSymbolTableRecord
100
AcDbDimStyleTableRecord
  2
INABA_S60G
 70
     0
 40
60.0
 41
2.5
 42
0.5
 43
7.0
 44
1.5
 73
     0
 74
     0
 77
     3
 78
     8
140
3.0
141
0.0
143
0.0394
147
1.0
172
     1
173
     1
174
     1
178
     7
271
     1
340
F706
341
F770
343
F770
344
F770
  0
DIMSTYLE
105
153CB
330
746F
100
AcDbSymbolTableRecord
100
AcDbDimStyleTableRecord
  2
INABA_S20G
 70
     0
 40
20.0
 41
2.5
 42
0.5
 43
7.0
 44
1.5
 73
     0
 74
     0
 77
     3
 78
     8
140
3.0
141
0.0
143
0.0394
147
1.0
172
     1
173
     1
174
     1
178
     7
271
     1
340
F706
341
F770
343
F770
344
F770
  0
ENDTAB
  0
TABLE
  2
BLOCK_RECORD
  5
7466
330
0
100
AcDbSymbolTable
 70
    32
  0
BLOCK_RECORD
  5
747D
330
7466
100
AcDbSymbolTableRecord
100
AcDbBlockTableRecord
  2
*MODEL_SPACE
340
139CF
  0
BLOCK_RECORD
  5
747A
330
7466
100
AcDbSymbolTableRecord
100
AcDbBlockTableRecord
  2
*PAPER_SPACE
340
139D0
  0
BLOCK_RECORD
  5
ECB3
330
7466
100
AcDbSymbolTableRecord
100
AcDbBlockTableRecord
  2
作図枠S50
340
0
310
2800000020000000200000000100040000000000000200000000000000000000000000000000000000000000000080000080000000808000800000008000800080800000C0C0C000808080000000FF0000FF000000FFFF00FF000000FF00FF00FFFF0000FFFFFF00FFFFFFFFFFFFFFFFFFFFFFFFFFFFFFFFFFFFFFFFFFFFFF
310
FFFFFFFFFFFFFFFFFFFFFFFFFFFFFFFFFFFFFFFFFFFFFFFFFFFFFFFFFFFFFFFFFFFFFFFFFFFFFFFFFFFFFFFFFFFFFFFFFFFFFFFFFFFFFFFFFFFFFFFFFFFFFFFFFFFFFFFFFFFFFFFFFF999999999999999999999999999999999FFFFFFFFFFFFFFFFFFFFFFFFFFFFFF99FFFFFFFFFFFFFFFFFFFFFFFFFFFFFF99FFFFFFFFFFF
310
FFFFFFFFFFFFFFFFFFF99FFFFFFFFFFFFFFFFFFFFFFFFFFFFFF99FFFFFFFFFFFFFFFFFFFFFFFFFFFFFF99FFFFFFFFFFFFFFFFFFFFFFFFFFFFFF99FFFFFFFFFFFFFFFFFFFFFFFFFFFFFF99FFFFFFFFFFFFFFFFFFFFFFFFFFFFFF99FFFFFFFFFFFFFFFFFFFFFFFFFFFFFF99FFFFFFFFFFFFFFFFFFFFFFFFFFFFFF99FFFFFFFFF
310
FFFFFFFFFFFFFFFFFFFFF99FFFFFFFFFFFFFFFFFFFFFFFFFFFFFF99FFFFFFFFFFFFFFFFFFFFFFFFFFFFFF99FFFFFFFFFFFFFFFFFFFFFFFFFFFFFF99FFFFFFFFFFFFFFFFFFFFFFFFFFFFFF99FFFFFFFFFFFFFFFFFFFFFFFFFFFFFF99FFFFFFFFFFFFFFFFFFFFFFFFFFFFFF99FFFFFFFFFFFFFFFFFFFFF99999999999FFFFFFF
310
FFFFFFFFFFFFFF9FFFFFFFFF99999999999999999999999FFFFFFFFFFFFFFFFFFFFFFFFFFFFFFFFFFFFFFFFFFFFFFFFFFFFFFFFFFFFFFFFFFFFFFFFFFFFFFFFFFFFFFFFFFFFFFFFFFFFFFFFFFFFFFFFFFFFFFFFFFFFFFFFFFFFFFFFFFFFFFFFFFFFFFFFFFFFFFFFFFFFFFFFF
102
{BLKREFS
331
F235
102
}
  0
BLOCK_RECORD
  5
F744
330
7466
100
AcDbSymbolTableRecord
100
AcDbBlockTableRecord
  2
_DOT
340
0
102
{BLKREFS
331
14AF5
331
14AF6
331
152D0
331
152D1
331
152D9
331
152DA
331
152ED
331
152EE
331
152F6
331
152F7
331
152FF
331
15300
331
15308
331
15309
331
15313
331
15314
331
1531C
331
1531D
331
15325
331
15326
331
15330
331
15331
331
15339
331
1533A
331
15344
331
15345
331
1534D
331
1534E
331
15358
331
15359
102
}
  0
BLOCK_RECORD
  5
F770
330
7466
100
AcDbSymbolTableRecord
100
AcDbBlockTableRecord
  2
_DOTSMALL
340
0
102
{BLKREFS
331
14AFE
331
14AFF
331
14B07
331
14B08
331
14B10
331
14B11
331
14B1B
331
14B1C
331
14B24
331
14B25
331
14B2F
331
14B30
331
14B38
331
14B39
331
14B42
331
14B43
331
14B4C
331
14B4D
331
14B57
331
14B58
331
14B60
331
14B61
331
14B69
331
14B6A
331
14B74
331
14B75
331
152E2
331
152E3
102
}
  0
BLOCK_RECORD
  5
141BA
330
7466
100
AcDbSymbolTableRecord
100
AcDbBlockTableRecord
  2
*D3
340
0
  0
BLOCK_RECORD
  5
141C8
330
7466
100
AcDbSymbolTableRecord
100
AcDbBlockTableRecord
  2
*D4
340
0
  0
BLOCK_RECORD
  5
141D4
330
7466
100
AcDbSymbolTableRecord
100
AcDbBlockTableRecord
  2
*D5
340
0
  0
BLOCK_RECORD
  5
141E0
330
7466
100
AcDbSymbolTableRecord
100
AcDbBlockTableRecord
  2
*D6
340
0
  0
BLOCK_RECORD
  5
14286
330
7466
100
AcDbSymbolTableRecord
100
AcDbBlockTableRecord
  2
*D7
340
0
  0
BLOCK_RECORD
  5
14294
330
7466
100
AcDbSymbolTableRecord
100
AcDbBlockTableRecord
  2
*D8
340
0
  0
BLOCK_RECORD
  5
142A0
330
7466
100
AcDbSymbolTableRecord
100
AcDbBlockTableRecord
  2
*D9
340
0
  0
BLOCK_RECORD
  5
142AE
330
7466
100
AcDbSymbolTableRecord
100
AcDbBlockTableRecord
  2
*D10
340
0
  0
BLOCK_RECORD
  5
142BA
330
7466
100
AcDbSymbolTableRecord
100
AcDbBlockTableRecord
  2
*D11
340
0
  0
BLOCK_RECORD
  5
142C8
330
7466
100
AcDbSymbolTableRecord
100
AcDbBlockTableRecord
  2
*D12
340
0
  0
BLOCK_RECORD
  5
142D4
330
7466
100
AcDbSymbolTableRecord
100
AcDbBlockTableRecord
  2
*D13
340
0
  0
BLOCK_RECORD
  5
142EC
330
7466
100
AcDbSymbolTableRecord
100
AcDbBlockTableRecord
  2
*D14
340
0
  0
BLOCK_RECORD
  5
14306
330
7466
100
AcDbSymbolTableRecord
100
AcDbBlockTableRecord
  2
*D15
340
0
  0
BLOCK_RECORD
  5
14312
330
7466
100
AcDbSymbolTableRecord
100
AcDbBlockTableRecord
  2
*D16
340
0
  0
BLOCK_RECORD
  5
14846
330
7466
100
AcDbSymbolTableRecord
100
AcDbBlockTableRecord
  2
*D17
340
0
  0
BLOCK_RECORD
  5
14853
330
7466
100
AcDbSymbolTableRecord
100
AcDbBlockTableRecord
  2
*D18
340
0
  0
BLOCK_RECORD
  5
14860
330
7466
100
AcDbSymbolTableRecord
100
AcDbBlockTableRecord
  2
*D19
340
0
  0
BLOCK_RECORD
  5
1486C
330
7466
100
AcDbSymbolTableRecord
100
AcDbBlockTableRecord
  2
*D20
340
0
  0
BLOCK_RECORD
  5
1487A
330
7466
100
AcDbSymbolTableRecord
100
AcDbBlockTableRecord
  2
*D21
340
0
  0
BLOCK_RECORD
  5
14886
330
7466
100
AcDbSymbolTableRecord
100
AcDbBlockTableRecord
  2
*D22
340
0
  0
BLOCK_RECORD
  5
14894
330
7466
100
AcDbSymbolTableRecord
100
AcDbBlockTableRecord
  2
*D23
340
0
  0
BLOCK_RECORD
  5
148A0
330
7466
100
AcDbSymbolTableRecord
100
AcDbBlockTableRecord
  2
*D24
340
0
  0
BLOCK_RECORD
  5
148AC
330
7466
100
AcDbSymbolTableRecord
100
AcDbBlockTableRecord
  2
*D25
340
0
  0
BLOCK_RECORD
  5
148B8
330
7466
100
AcDbSymbolTableRecord
100
AcDbBlockTableRecord
  2
*D26
340
0
  0
BLOCK_RECORD
  5
14DA8
330
7466
100
AcDbSymbolTableRecord
100
AcDbBlockTableRecord
  2
*D27
340
0
  0
BLOCK_RECORD
  5
15158
330
7466
100
AcDbSymbolTableRecord
100
AcDbBlockTableRecord
  2
*D28
340
0
  0
BLOCK_RECORD
  5
15166
330
7466
100
AcDbSymbolTableRecord
100
AcDbBlockTableRecord
  2
*D29
340
0
  0
BLOCK_RECORD
  5
15196
330
7466
100
AcDbSymbolTableRecord
100
AcDbBlockTableRecord
  2
*D30
340
0
  0
BLOCK_RECORD
  5
151B0
330
7466
100
AcDbSymbolTableRecord
100
AcDbBlockTableRecord
  2
*D31
340
0
  0
ENDTAB
  0
ENDSEC
  0
SECTION
  2
BLOCKS
  0
BLOCK
  5
7489
330
747D
100
AcDbEntity
  8
0
100
AcDbBlockBegin
  2
*MODEL_SPACE
 70
     0
 10
0.0
 20
0.0
 30
0.0
  3
*MODEL_SPACE
  1

  0
ENDBLK
  5
748A
330
747D
100
AcDbEntity
  8
0
100
AcDbBlockEnd
  0
BLOCK
  5
7487
330
747A
100
AcDbEntity
 67
     1
  8
0
100
AcDbBlockBegin
  2
*PAPER_SPACE
 70
     0
 10
0.0
 20
0.0
 30
0.0
  3
*PAPER_SPACE
  1

  0
ENDBLK
  5
7488
330
747A
100
AcDbEntity
 67
     1
  8
0
100
AcDbBlockEnd
  0
BLOCK
  5
ECB4
330
ECB3
100
AcDbEntity
  8
0
100
AcDbBlockBegin
  2
作図枠S50
 70
     0
 10
0.0
 20
0.0
 30
0.0
  3
作図枠S50
  1

  4
作図領域枠 縮尺 1/50
  0
LINE
  5
ECB5
330
ECB3
100
AcDbEntity
  8
補助
100
AcDbLine
 10
14364.0
 20
14262.0
 30
0.0
 11
174.9999999999993
 21
14262.0
 31
0.0
  0
LINE
  5
ECB6
330
ECB3
100
AcDbEntity
  8
補助
100
AcDbLine
 10
174.9999999999993
 20
14262.0
 30
0.0
 11
174.9999999999993
 21
1520.0
 31
0.0
  0
LINE
  5
ECB7
330
ECB3
100
AcDbEntity
  8
補助
100
AcDbLine
 10
174.9999999999993
 20
1520.0
 30
0.0
 11
20384.0
 21
1520.0
 31
0.0
  0
LINE
  5
ECB8
330
ECB3
100
AcDbEntity
  8
補助
100
AcDbLine
 10
20384.0
 20
1520.0
 30
0.0
 11
20384.0
 21
13042.0
 31
0.0
  0
LINE
  5
ECB9
330
ECB3
100
AcDbEntity
  8
補助
100
AcDbLine
 10
20384.0
 20
13042.0
 30
0.0
 11
14364.0
 21
13042.0
 31
0.0
  0
LINE
  5
ECBA
330
ECB3
100
AcDbEntity
  8
補助
100
AcDbLine
 10
14364.0
 20
13042.0
 30
0.0
 11
14364.0
 21
14262.0
 31
0.0
  0
ENDBLK
  5
ECBB
330
ECB3
100
AcDbEntity
  8
0
100
AcDbBlockEnd
  0
BLOCK
  5
F745
330
F744
100
AcDbEntity
  8
0
 48
50.0
100
AcDbBlockBegin
  2
_DOT
 70
     0
 10
0.0
 20
0.0
 30
0.0
  3
_DOT
  1

  0
LWPOLYLINE
  5
F746
330
F744
100
AcDbEntity
  8
0
  6
ByBlock
 62
     0
 48
50.0
100
AcDbPolyline
 90
        2
 70
     1
 43
0.5
 10
-0.25
 20
0.0
 42
1.0
 10
0.25
 20
0.0
 42
1.0
  0
LINE
  5
F74A
330
F744
100
AcDbEntity
  8
0
  6
ByBlock
 62
     0
 48
50.0
100
AcDbLine
 10
-0.5
 20
0.0
 30
0.0
 11
-1.0
 21
0.0
 31
0.0
  0
ENDBLK
  5
F74B
330
F744
100
AcDbEntity
  8
0
 48
50.0
100
AcDbBlockEnd
  0
BLOCK
  5
F771
330
F770
100
AcDbEntity
  8
0
 48
50.0
100
AcDbBlockBegin
  2
_DOTSMALL
 70
     0
 10
0.0
 20
0.0
 30
0.0
  3
_DOTSMALL
  1

  0
LWPOLYLINE
  5
F772
330
F770
100
AcDbEntity
  8
0
  6
ByBlock
 62
     0
 48
50.0
100
AcDbPolyline
 90
        2
 70
     1
 43
0.5
 10
-0.0625
 20
0.0
 42
1.0
 10
0.0625
 20
0.0
 42
1.0
  0
ENDBLK
  5
F776
330
F770
100
AcDbEntity
  8
0
 48
50.0
100
AcDbBlockEnd
  0
BLOCK
  5
141C6
330
141BA
100
AcDbEntity
  8
0
 48
50.0
100
AcDbBlockBegin
  2
*D3
 70
     1
 10
0.0
 20
0.0
 30
0.0
  3
*D3
  1

  0
LINE
  5
14B6F
330
141BA
100
AcDbEntity
  8
寸法
 62
     0
 48
50.0
370
    -2
100
AcDbLine
 10
1659.695515348525
 20
4469.342041959943
 30
0.0
 11
1659.695515348525
 21
4721.883627218181
 31
0.0
  0
LINE
  5
14B70
330
141BA
100
AcDbEntity
  8
寸法
 62
     0
 48
50.0
370
    -2
100
AcDbLine
 10
1609.695515348525
 20
4469.342041959941
 30
0.0
 11
1609.695515348525
 21
4721.883627218181
 31
0.0
  0
LINE
  5
14B71
330
141BA
100
AcDbEntity
  8
寸法
 62
     0
 48
50.0
370
    -2
100
AcDbLine
 10
1659.695515348525
 20
4661.88362721818
 30
0.0
 11
1759.695515348525
 21
4661.88362721818
 31
0.0
  0
LINE
  5
14B72
330
141BA
100
AcDbEntity
  8
寸法
 62
     0
 48
50.0
370
    -2
100
AcDbLine
 10
1609.695515348525
 20
4661.88362721818
 30
0.0
 11
1190.162989879789
 21
4661.88362721818
 31
0.0
  0
LINE
  5
14B73
330
141BA
100
AcDbEntity
  8
寸法
 62
     0
 48
50.0
370
    -2
100
AcDbLine
 10
1659.695515348525
 20
4661.88362721818
 30
0.0
 11
1609.695515348525
 21
4661.88362721818
 31
0.0
  0
INSERT
  5
14B74
330
141BA
100
AcDbEntity
  8
寸法
 62
     0
 48
50.0
370
    -2
100
AcDbBlockReference
  2
_DOTSMALL
 10
1659.695515348525
 20
4661.88362721818
 30
0.0
 41
100.0
 42
100.0
 43
100.0
 50
180.0
  0
INSERT
  5
14B75
330
141BA
100
AcDbEntity
  8
寸法
 62
     0
 48
50.0
370
    -2
100
AcDbBlockReference
  2
_DOTSMALL
 10
1609.695515348525
 20
4661.88362721818
 30
0.0
 41
100.0
 42
100.0
 43
100.0
  0
MTEXT
  5
14B76
330
141BA
100
AcDbEntity
  8
寸法
 62
     7
 48
50.0
100
AcDbMText
 10
1296.210233974278
 20
4761.883627218181
 30
0.0
 40
120.0
 41
0.0
 71
     5
 72
     1
  1
\A1;50
  7
STYLE1
 73
     1
 44
1.0
1001
ACAD
1000
MTEXTBEGIN
1070
    73
1070
     1
1070
    44
1040
1.0
1070
    74
1070
     0
1000
MTEXTEND
  0
POINT
  5
14B77
330
141BA
100
AcDbEntity
  8
DEFPOINTS
 62
     0
 48
50.0
100
AcDbPoint
 10
1659.695515348525
 20
4449.342041959943
 30
0.0
  0
POINT
  5
14B78
330
141BA
100
AcDbEntity
  8
DEFPOINTS
 62
     0
 48
50.0
100
AcDbPoint
 10
1609.695515348525
 20
4449.342041959941
 30
0.0
  0
POINT
  5
14B79
330
141BA
100
AcDbEntity
  8
DEFPOINTS
 62
     0
 48
50.0
100
AcDbPoint
 10
1609.695515348525
 20
4661.88362721818
 30
0.0
  0
ENDBLK
  5
141C7
330
141BA
100
AcDbEntity
  8
0
 48
50.0
100
AcDbBlockEnd
  0
BLOCK
  5
141D2
330
141C8
100
AcDbEntity
  8
0
 48
50.0
100
AcDbBlockBegin
  2
*D4
 70
     1
 10
0.0
 20
0.0
 30
0.0
  3
*D4
  1

  0
LINE
  5
14B66
330
141C8
100
AcDbEntity
  8
寸法
 62
     0
 48
50.0
370
    -2
100
AcDbLine
 10
1609.695515348525
 20
4469.342041959941
 30
0.0
 11
1609.695515348525
 21
4942.788927691928
 31
0.0
  0
LINE
  5
14B67
330
141C8
100
AcDbEntity
  8
寸法
 62
     0
 48
50.0
370
    -2
100
AcDbLine
 10
8649.695515348529
 20
4469.342041959937
 30
0.0
 11
8649.695515348529
 21
4942.788927691928
 31
0.0
  0
LINE
  5
14B68
330
141C8
100
AcDbEntity
  8
寸法
 62
     0
 48
50.0
370
    -2
100
AcDbLine
 10
1609.695515348525
 20
4882.788927691929
 30
0.0
 11
8649.695515348529
 21
4882.788927691929
 31
0.0
  0
INSERT
  5
14B69
330
141C8
100
AcDbEntity
  8
寸法
 62
     0
 48
50.0
370
    -2
100
AcDbBlockReference
  2
_DOTSMALL
 10
1609.695515348525
 20
4882.788927691929
 30
0.0
 41
100.0
 42
100.0
 43
100.0
 50
180.0
  0
INSERT
  5
14B6A
330
141C8
100
AcDbEntity
  8
寸法
 62
     0
 48
50.0
370
    -2
100
AcDbBlockReference
  2
_DOTSMALL
 10
8649.695515348529
 20
4882.788927691929
 30
0.0
 41
100.0
 42
100.0
 43
100.0
  0
MTEXT
  5
14B6B
330
141C8
100
AcDbEntity
  8
寸法
 62
     7
 48
50.0
100
AcDbMText
 10
5129.695515348525
 20
4982.788927691928
 30
0.0
 40
120.0
 41
0.0
 71
     5
 72
     1
  1
\A1;7040
  7
STYLE1
 73
     1
 44
1.0
1001
ACAD
1000
MTEXTBEGIN
1070
    73
1070
     1
1070
    44
1040
1.0
1070
    74
1070
     0
1000
MTEXTEND
  0
POINT
  5
14B6C
330
141C8
100
AcDbEntity
  8
DEFPOINTS
 62
     0
 48
50.0
100
AcDbPoint
 10
1609.695515348525
 20
4449.342041959941
 30
0.0
  0
POINT
  5
14B6D
330
141C8
100
AcDbEntity
  8
DEFPOINTS
 62
     0
 48
50.0
100
AcDbPoint
 10
8649.695515348529
 20
4449.342041959936
 30
0.0
  0
POINT
  5
14B6E
330
141C8
100
AcDbEntity
  8
DEFPOINTS
 62
     0
 48
50.0
100
AcDbPoint
 10
8649.695515348529
 20
4882.788927691929
 30
0.0
  0
ENDBLK
  5
141D3
330
141C8
100
AcDbEntity
  8
0
 48
50.0
100
AcDbBlockEnd
  0
BLOCK
  5
141DE
330
141D4
100
AcDbEntity
  8
0
 48
50.0
100
AcDbBlockBegin
  2
*D5
 70
     1
 10
0.0
 20
0.0
 30
0.0
  3
*D5
  1

  0
LINE
  5
14B5D
330
141D4
100
AcDbEntity
  8
寸法
 62
     0
 48
50.0
370
    -2
100
AcDbLine
 10
8599.695515348528
 20
4469.342041959939
 30
0.0
 11
8599.695515348528
 21
4721.883627218178
 31
0.0
  0
LINE
  5
14B5E
330
141D4
100
AcDbEntity
  8
寸法
 62
     0
 48
50.0
370
    -2
100
AcDbLine
 10
1659.695515348525
 20
4469.342041959943
 30
0.0
 11
1659.695515348525
 21
4721.883627218178
 31
0.0
  0
LINE
  5
14B5F
330
141D4
100
AcDbEntity
  8
寸法
 62
     0
 48
50.0
370
    -2
100
AcDbLine
 10
8599.695515348528
 20
4661.883627218179
 30
0.0
 11
1659.695515348525
 21
4661.883627218179
 31
0.0
  0
INSERT
  5
14B60
330
141D4
100
AcDbEntity
  8
寸法
 62
     0
 48
50.0
370
    -2
100
AcDbBlockReference
  2
_DOTSMALL
 10
8599.695515348528
 20
4661.883627218179
 30
0.0
 41
100.0
 42
100.0
 43
100.0
  0
INSERT
  5
14B61
330
141D4
100
AcDbEntity
  8
寸法
 62
     0
 48
50.0
370
    -2
100
AcDbBlockReference
  2
_DOTSMALL
 10
1659.695515348525
 20
4661.883627218179
 30
0.0
 41
100.0
 42
100.0
 43
100.0
 50
180.0
  0
MTEXT
  5
14B62
330
141D4
100
AcDbEntity
  8
寸法
 62
     7
 48
50.0
100
AcDbMText
 10
5129.695515348525
 20
4761.883627218178
 30
0.0
 40
120.0
 41
0.0
 71
     5
 72
     1
  1
\A1;柱外寸法6940
  7
STYLE1
 73
     1
 44
1.0
1001
ACAD
1000
MTEXTBEGIN
1070
    73
1070
     1
1070
    44
1040
1.0
1070
    74
1070
     0
1000
MTEXTEND
  0
POINT
  5
14B63
330
141D4
100
AcDbEntity
  8
DEFPOINTS
 62
     0
 48
50.0
100
AcDbPoint
 10
8599.695515348528
 20
4449.342041959939
 30
0.0
  0
POINT
  5
14B64
330
141D4
100
AcDbEntity
  8
DEFPOINTS
 62
     0
 48
50.0
100
AcDbPoint
 10
1659.695515348525
 20
4449.342041959943
 30
0.0
  0
POINT
  5
14B65
330
141D4
100
AcDbEntity
  8
DEFPOINTS
 62
     0
 48
50.0
100
AcDbPoint
 10
1659.695515348525
 20
4661.883627218179
 30
0.0
  0
ENDBLK
  5
141DF
330
141D4
100
AcDbEntity
  8
0
 48
50.0
100
AcDbBlockEnd
  0
BLOCK
  5
141EC
330
141E0
100
AcDbEntity
  8
0
 48
50.0
100
AcDbBlockBegin
  2
*D6
 70
     1
 10
0.0
 20
0.0
 30
0.0
  3
*D6
  1

  0
LINE
  5
14B52
330
141E0
100
AcDbEntity
  8
寸法
 62
     0
 48
50.0
370
    -2
100
AcDbLine
 10
8649.695515348529
 20
4469.342041959937
 30
0.0
 11
8649.695515348529
 21
4721.883627218178
 31
0.0
  0
LINE
  5
14B53
330
141E0
100
AcDbEntity
  8
寸法
 62
     0
 48
50.0
370
    -2
100
AcDbLine
 10
8599.695515348528
 20
4469.342041959939
 30
0.0
 11
8599.695515348528
 21
4721.883627218178
 31
0.0
  0
LINE
  5
14B54
330
141E0
100
AcDbEntity
  8
寸法
 62
     0
 48
50.0
370
    -2
100
AcDbLine
 10
8599.695515348528
 20
4661.883627218178
 30
0.0
 11
8499.695515348529
 21
4661.883627218178
 31
0.0
  0
LINE
  5
14B55
330
141E0
100
AcDbEntity
  8
寸法
 62
     0
 48
50.0
370
    -2
100
AcDbLine
 10
8649.695515348529
 20
4661.883627218178
 30
0.0
 11
9069.228040817252
 21
4661.883627218178
 31
0.0
  0
LINE
  5
14B56
330
141E0
100
AcDbEntity
  8
寸法
 62
     0
 48
50.0
370
    -2
100
AcDbLine
 10
8599.695515348528
 20
4661.883627218178
 30
0.0
 11
8649.695515348529
 21
4661.883627218178
 31
0.0
  0
INSERT
  5
14B57
330
141E0
100
AcDbEntity
  8
寸法
 62
     0
 48
50.0
370
    -2
100
AcDbBlockReference
  2
_DOTSMALL
 10
8599.695515348528
 20
4661.883627218178
 30
0.0
 41
100.0
 42
100.0
 43
100.0
  0
INSERT
  5
14B58
330
141E0
100
AcDbEntity
  8
寸法
 62
     0
 48
50.0
370
    -2
100
AcDbBlockReference
  2
_DOTSMALL
 10
8649.695515348529
 20
4661.883627218178
 30
0.0
 41
100.0
 42
100.0
 43
100.0
 50
180.0
  0
MTEXT
  5
14B59
330
141E0
100
AcDbEntity
  8
寸法
 62
     7
 48
50.0
100
AcDbMText
 10
8963.180796722765
 20
4761.883627218177
 30
0.0
 40
120.0
 41
0.0
 71
     5
 72
     1
  1
\A1;50
  7
STYLE1
 73
     1
 44
1.0
1001
ACAD
1000
MTEXTBEGIN
1070
    73
1070
     1
1070
    44
1040
1.0
1070
    74
1070
     0
1000
MTEXTEND
  0
POINT
  5
14B5A
330
141E0
100
AcDbEntity
  8
DEFPOINTS
 62
     0
 48
50.0
100
AcDbPoint
 10
8649.695515348529
 20
4449.342041959936
 30
0.0
  0
POINT
  5
14B5B
330
141E0
100
AcDbEntity
  8
DEFPOINTS
 62
     0
 48
50.0
100
AcDbPoint
 10
8599.695515348528
 20
4449.342041959939
 30
0.0
  0
POINT
  5
14B5C
330
141E0
100
AcDbEntity
  8
DEFPOINTS
 62
     0
 48
50.0
100
AcDbPoint
 10
8599.695515348528
 20
4661.883627218178
 30
0.0
  0
ENDBLK
  5
141ED
330
141E0
100
AcDbEntity
  8
0
 48
50.0
100
AcDbBlockEnd
  0
BLOCK
  5
14292
330
14286
100
AcDbEntity
  8
0
 48
50.0
100
AcDbBlockBegin
  2
*D7
 70
     1
 10
0.0
 20
0.0
 30
0.0
  3
*D7
  1

  0
LINE
  5
15353
330
14286
100
AcDbEntity
  8
寸法
 62
     0
 48
50.0
370
    -2
100
AcDbLine
 10
8544.695515348525
 20
10550.37705018694
 30
0.0
 11
8544.695515348525
 21
10845.08946020573
 31
0.0
  0
LINE
  5
15354
330
14286
100
AcDbEntity
  8
寸法
 62
     0
 48
50.0
370
    -2
100
AcDbLine
 10
8599.695515348525
 20
10550.37705018693
 30
0.0
 11
8599.695515348525
 21
10845.08946020573
 31
0.0
  0
LINE
  5
15355
330
14286
100
AcDbEntity
  8
寸法
 62
     0
 48
50.0
370
    -2
100
AcDbLine
 10
8524.695515348524
 20
10805.08946020573
 30
0.0
 11
8504.695515348526
 21
10805.08946020573
 31
0.0
  0
LINE
  5
15356
330
14286
100
AcDbEntity
  8
寸法
 62
     0
 48
50.0
370
    -2
100
AcDbLine
 10
8619.695515348524
 20
10805.08946020573
 30
0.0
 11
9094.34746338943
 21
10805.08946020573
 31
0.0
  0
LINE
  5
15357
330
14286
100
AcDbEntity
  8
寸法
 62
     0
 48
50.0
370
    -2
100
AcDbLine
 10
8544.695515348525
 20
10805.08946020573
 30
0.0
 11
8599.695515348525
 21
10805.08946020573
 31
0.0
  0
INSERT
  5
15358
330
14286
100
AcDbEntity
  8
寸法
 62
     0
 48
50.0
370
    -2
100
AcDbBlockReference
  2
_DOT
 10
8544.695515348525
 20
10805.08946020573
 30
0.0
 41
20.0
 42
20.0
 43
20.0
  0
INSERT
  5
15359
330
14286
100
AcDbEntity
  8
寸法
 62
     0
 48
50.0
370
    -2
100
AcDbBlockReference
  2
_DOT
 10
8599.695515348525
 20
10805.08946020573
 30
0.0
 41
20.0
 42
20.0
 43
20.0
 50
180.0
  0
MTEXT
  5
1535A
330
14286
100
AcDbEntity
  8
寸法
 62
     7
 48
50.0
100
AcDbMText
 10
8993.86218201519
 20
10897.08946020573
 30
0.0
 40
120.0
 41
0.0
 71
     5
 72
     1
  1
\A1;55
  7
STYLE1
 73
     1
 44
1.0
1001
ACAD
1000
MTEXTBEGIN
1070
    73
1070
     1
1070
    44
1040
1.0
1070
    74
1070
     0
1000
MTEXTEND
  0
POINT
  5
1535B
330
14286
100
AcDbEntity
  8
DEFPOINTS
 62
     0
 48
50.0
100
AcDbPoint
 10
8544.695515348525
 20
10530.37705018694
 30
0.0
  0
POINT
  5
1535C
330
14286
100
AcDbEntity
  8
DEFPOINTS
 62
     0
 48
50.0
100
AcDbPoint
 10
8599.695515348525
 20
10530.37705018693
 30
0.0
  0
POINT
  5
1535D
330
14286
100
AcDbEntity
  8
DEFPOINTS
 62
     0
 48
50.0
100
AcDbPoint
 10
8599.695515348525
 20
10805.08946020573
 30
0.0
  0
ENDBLK
  5
14293
330
14286
100
AcDbEntity
  8
0
 48
50.0
100
AcDbBlockEnd
  0
BLOCK
  5
1429E
330
14294
100
AcDbEntity
  8
0
 48
50.0
100
AcDbBlockBegin
  2
*D8
 70
     1
 10
0.0
 20
0.0
 30
0.0
  3
*D8
  1

  0
LINE
  5
1534A
330
14294
100
AcDbEntity
  8
寸法
 62
     0
 48
50.0
370
    -2
100
AcDbLine
 10
8619.695515348524
 20
10530.37705018693
 30
0.0
 11
9710.442632392879
 21
10530.37705018693
 31
0.0
  0
LINE
  5
1534B
330
14294
100
AcDbEntity
  8
寸法
 62
     0
 48
50.0
370
    -2
100
AcDbLine
 10
8619.695515348524
 20
7060.377050186936
 30
0.0
 11
9710.442632392879
 21
7060.377050186936
 31
0.0
  0
LINE
  5
1534C
330
14294
100
AcDbEntity
  8
寸法
 62
     0
 48
50.0
370
    -2
100
AcDbLine
 10
9670.442632392878
 20
10510.37705018693
 30
0.0
 11
9670.442632392878
 21
7080.377050186936
 31
0.0
  0
INSERT
  5
1534D
330
14294
100
AcDbEntity
  8
寸法
 62
     0
 48
50.0
370
    -2
100
AcDbBlockReference
  2
_DOT
 10
9670.442632392878
 20
10530.37705018693
 30
0.0
 41
20.0
 42
20.0
 43
20.0
 50
90.0
  0
INSERT
  5
1534E
330
14294
100
AcDbEntity
  8
寸法
 62
     0
 48
50.0
370
    -2
100
AcDbBlockReference
  2
_DOT
 10
9670.442632392878
 20
7060.377050186936
 30
0.0
 41
20.0
 42
20.0
 43
20.0
 50
270.0
  0
MTEXT
  5
1534F
330
14294
100
AcDbEntity
  8
寸法
 62
     7
 48
50.0
100
AcDbMText
 10
9578.442632392876
 20
8795.377050186939
 30
0.0
 40
120.0
 41
0.0
 71
     5
 72
     1
  1
\A1;3470
  7
STYLE1
 11
0.0000000000000001
 21
1.0
 31
0.0
 73
     1
 44
1.0
1001
ACAD
1000
MTEXTBEGIN
1070
    73
1070
     1
1070
    44
1040
1.0
1070
    74
1070
     0
1000
MTEXTEND
  0
POINT
  5
15350
330
14294
100
AcDbEntity
  8
DEFPOINTS
 62
     0
 48
50.0
100
AcDbPoint
 10
8599.695515348525
 20
10530.37705018693
 30
0.0
  0
POINT
  5
15351
330
14294
100
AcDbEntity
  8
DEFPOINTS
 62
     0
 48
50.0
100
AcDbPoint
 10
8599.695515348525
 20
7060.377050186936
 30
0.0
  0
POINT
  5
15352
330
14294
100
AcDbEntity
  8
DEFPOINTS
 62
     0
 48
50.0
100
AcDbPoint
 10
9670.442632392878
 20
7060.377050186936
 30
0.0
  0
ENDBLK
  5
1429F
330
14294
100
AcDbEntity
  8
0
 48
50.0
100
AcDbBlockEnd
  0
BLOCK
  5
142AC
330
142A0
100
AcDbEntity
  8
0
 48
50.0
100
AcDbBlockBegin
  2
*D9
 70
     1
 10
0.0
 20
0.0
 30
0.0
  3
*D9
  1

  0
LINE
  5
1533F
330
142A0
100
AcDbEntity
  8
寸法
 62
     0
 48
50.0
370
    -2
100
AcDbLine
 10
8619.695515348524
 20
7115.377050186933
 30
0.0
 11
9410.44263239288
 21
7115.377050186933
 31
0.0
  0
LINE
  5
15340
330
142A0
100
AcDbEntity
  8
寸法
 62
     0
 48
50.0
370
    -2
100
AcDbLine
 10
8619.695515348524
 20
7060.377050186936
 30
0.0
 11
9410.44263239288
 21
7060.377050186936
 31
0.0
  0
LINE
  5
15341
330
142A0
100
AcDbEntity
  8
寸法
 62
     0
 48
50.0
370
    -2
100
AcDbLine
 10
9370.44263239288
 20
7135.377050186933
 30
0.0
 11
9370.44263239288
 21
7155.377050186934
 31
0.0
  0
LINE
  5
15342
330
142A0
100
AcDbEntity
  8
寸法
 62
     0
 48
50.0
370
    -2
100
AcDbLine
 10
9370.44263239288
 20
7040.377050186937
 30
0.0
 11
9370.44263239288
 21
6565.725102146031
 31
0.0
  0
LINE
  5
15343
330
142A0
100
AcDbEntity
  8
寸法
 62
     0
 48
50.0
370
    -2
100
AcDbLine
 10
9370.44263239288
 20
7115.377050186933
 30
0.0
 11
9370.44263239288
 21
7060.377050186936
 31
0.0
  0
INSERT
  5
15344
330
142A0
100
AcDbEntity
  8
寸法
 62
     0
 48
50.0
370
    -2
100
AcDbBlockReference
  2
_DOT
 10
9370.44263239288
 20
7115.377050186933
 30
0.0
 41
20.0
 42
20.0
 43
20.0
 50
270.0
  0
INSERT
  5
15345
330
142A0
100
AcDbEntity
  8
寸法
 62
     0
 48
50.0
370
    -2
100
AcDbBlockReference
  2
_DOT
 10
9370.44263239288
 20
7060.377050186936
 30
0.0
 41
20.0
 42
20.0
 43
20.0
 50
90.0
  0
MTEXT
  5
15346
330
142A0
100
AcDbEntity
  8
寸法
 62
     7
 48
50.0
100
AcDbMText
 10
9278.442632392879
 20
6666.210383520271
 30
0.0
 40
120.0
 41
0.0
 71
     5
 72
     1
  1
\A1;55
  7
STYLE1
 11
0.0000000000000001
 21
1.0
 31
0.0
 73
     1
 44
1.0
1001
ACAD
1000
MTEXTBEGIN
1070
    73
1070
     1
1070
    44
1040
1.0
1070
    74
1070
     0
1000
MTEXTEND
  0
POINT
  5
15347
330
142A0
100
AcDbEntity
  8
DEFPOINTS
 62
     0
 48
50.0
100
AcDbPoint
 10
8599.695515348525
 20
7115.377050186933
 30
0.0
  0
POINT
  5
15348
330
142A0
100
AcDbEntity
  8
DEFPOINTS
 62
     0
 48
50.0
100
AcDbPoint
 10
8599.695515348525
 20
7060.377050186936
 30
0.0
  0
POINT
  5
15349
330
142A0
100
AcDbEntity
  8
DEFPOINTS
 62
     0
 48
50.0
100
AcDbPoint
 10
9370.44263239288
 20
7060.377050186936
 30
0.0
  0
ENDBLK
  5
142AD
330
142A0
100
AcDbEntity
  8
0
 48
50.0
100
AcDbBlockEnd
  0
BLOCK
  5
142B8
330
142AE
100
AcDbEntity
  8
0
 48
50.0
100
AcDbBlockBegin
  2
*D10
 70
     1
 10
0.0
 20
0.0
 30
0.0
  3
*D10
  1

  0
LINE
  5
15336
330
142AE
100
AcDbEntity
  8
寸法
 62
     0
 48
50.0
370
    -2
100
AcDbLine
 10
8619.695515348524
 20
10475.37705018694
 30
0.0
 11
9410.442632392879
 21
10475.37705018694
 31
0.0
  0
LINE
  5
15337
330
142AE
100
AcDbEntity
  8
寸法
 62
     0
 48
50.0
370
    -2
100
AcDbLine
 10
8619.695515348524
 20
7115.377050186933
 30
0.0
 11
9410.442632392879
 21
7115.377050186933
 31
0.0
  0
LINE
  5
15338
330
142AE
100
AcDbEntity
  8
寸法
 62
     0
 48
50.0
370
    -2
100
AcDbLine
 10
9370.442632392878
 20
10455.37705018694
 30
0.0
 11
9370.442632392878
 21
7135.377050186933
 31
0.0
  0
INSERT
  5
15339
330
142AE
100
AcDbEntity
  8
寸法
 62
     0
 48
50.0
370
    -2
100
AcDbBlockReference
  2
_DOT
 10
9370.442632392878
 20
10475.37705018694
 30
0.0
 41
20.0
 42
20.0
 43
20.0
 50
90.0
  0
INSERT
  5
1533A
330
142AE
100
AcDbEntity
  8
寸法
 62
     0
 48
50.0
370
    -2
100
AcDbBlockReference
  2
_DOT
 10
9370.442632392878
 20
7115.377050186933
 30
0.0
 41
20.0
 42
20.0
 43
20.0
 50
270.0
  0
MTEXT
  5
1533B
330
142AE
100
AcDbEntity
  8
寸法
 62
     7
 48
50.0
100
AcDbMText
 10
9278.430821369255
 20
8795.377050186939
 30
0.0
 40
120.0
 41
0.0
 71
     5
 72
     1
  1
\A1;8X420=3360
  7
STYLE1
 11
0.0000000000000001
 21
1.0
 31
0.0
 73
     1
 44
1.0
1001
ACAD
1000
MTEXTBEGIN
1070
    73
1070
     1
1070
    44
1040
1.0
1070
    74
1070
     0
1000
MTEXTEND
  0
POINT
  5
1533C
330
142AE
100
AcDbEntity
  8
DEFPOINTS
 62
     0
 48
50.0
100
AcDbPoint
 10
8599.695515348525
 20
10475.37705018694
 30
0.0
  0
POINT
  5
1533D
330
142AE
100
AcDbEntity
  8
DEFPOINTS
 62
     0
 48
50.0
100
AcDbPoint
 10
8599.695515348525
 20
7115.377050186933
 30
0.0
  0
POINT
  5
1533E
330
142AE
100
AcDbEntity
  8
DEFPOINTS
 62
     0
 48
50.0
100
AcDbPoint
 10
9370.442632392878
 20
7115.377050186933
 30
0.0
  0
ENDBLK
  5
142B9
330
142AE
100
AcDbEntity
  8
0
 48
50.0
100
AcDbBlockEnd
  0
BLOCK
  5
142C6
330
142BA
100
AcDbEntity
  8
0
 48
50.0
100
AcDbBlockBegin
  2
*D11
 70
     1
 10
0.0
 20
0.0
 30
0.0
  3
*D11
  1

  0
LINE
  5
1532B
330
142BA
100
AcDbEntity
  8
寸法
 62
     0
 48
50.0
370
    -2
100
AcDbLine
 10
8619.695515348524
 20
10530.37705018693
 30
0.0
 11
9410.44263239288
 21
10530.37705018693
 31
0.0
  0
LINE
  5
1532C
330
142BA
100
AcDbEntity
  8
寸法
 62
     0
 48
50.0
370
    -2
100
AcDbLine
 10
8619.695515348524
 20
10475.37705018694
 30
0.0
 11
9410.44263239288
 21
10475.37705018694
 31
0.0
  0
LINE
  5
1532D
330
142BA
100
AcDbEntity
  8
寸法
 62
     0
 48
50.0
370
    -2
100
AcDbLine
 10
9370.44263239288
 20
10455.37705018694
 30
0.0
 11
9370.44263239288
 21
10435.37705018694
 31
0.0
  0
LINE
  5
1532E
330
142BA
100
AcDbEntity
  8
寸法
 62
     0
 48
50.0
370
    -2
100
AcDbLine
 10
9370.44263239288
 20
10550.37705018693
 30
0.0
 11
9370.44263239288
 21
11025.02899822784
 31
0.0
  0
LINE
  5
1532F
330
142BA
100
AcDbEntity
  8
寸法
 62
     0
 48
50.0
370
    -2
100
AcDbLine
 10
9370.44263239288
 20
10475.37705018694
 30
0.0
 11
9370.44263239288
 21
10530.37705018693
 31
0.0
  0
INSERT
  5
15330
330
142BA
100
AcDbEntity
  8
寸法
 62
     0
 48
50.0
370
    -2
100
AcDbBlockReference
  2
_DOT
 10
9370.44263239288
 20
10475.37705018694
 30
0.0
 41
20.0
 42
20.0
 43
20.0
 50
90.0
  0
INSERT
  5
15331
330
142BA
100
AcDbEntity
  8
寸法
 62
     0
 48
50.0
370
    -2
100
AcDbBlockReference
  2
_DOT
 10
9370.44263239288
 20
10530.37705018693
 30
0.0
 41
20.0
 42
20.0
 43
20.0
 50
270.0
  0
MTEXT
  5
15332
330
142BA
100
AcDbEntity
  8
寸法
 62
     7
 48
50.0
100
AcDbMText
 10
9278.442632392879
 20
10924.5437168536
 30
0.0
 40
120.0
 41
0.0
 71
     5
 72
     1
  1
\A1;55
  7
STYLE1
 11
0.0000000000000001
 21
1.0
 31
0.0
 73
     1
 44
1.0
1001
ACAD
1000
MTEXTBEGIN
1070
    73
1070
     1
1070
    44
1040
1.0
1070
    74
1070
     0
1000
MTEXTEND
  0
POINT
  5
15333
330
142BA
100
AcDbEntity
  8
DEFPOINTS
 62
     0
 48
50.0
100
AcDbPoint
 10
8599.695515348525
 20
10530.37705018693
 30
0.0
  0
POINT
  5
15334
330
142BA
100
AcDbEntity
  8
DEFPOINTS
 62
     0
 48
50.0
100
AcDbPoint
 10
8599.695515348525
 20
10475.37705018694
 30
0.0
  0
POINT
  5
15335
330
142BA
100
AcDbEntity
  8
DEFPOINTS
 62
     0
 48
50.0
100
AcDbPoint
 10
9370.44263239288
 20
10475.37705018694
 30
0.0
  0
ENDBLK
  5
142C7
330
142BA
100
AcDbEntity
  8
0
 48
50.0
100
AcDbBlockEnd
  0
BLOCK
  5
142D2
330
142C8
100
AcDbEntity
  8
0
 48
50.0
100
AcDbBlockBegin
  2
*D12
 70
     1
 10
0.0
 20
0.0
 30
0.0
  3
*D12
  1

  0
LINE
  5
15322
330
142C8
100
AcDbEntity
  8
寸法
 62
     0
 48
50.0
370
    -2
100
AcDbLine
 10
1659.695515348525
 20
10550.37705018693
 30
0.0
 11
1659.695515348525
 21
11145.08946020573
 31
0.0
  0
LINE
  5
15323
330
142C8
100
AcDbEntity
  8
寸法
 62
     0
 48
50.0
370
    -2
100
AcDbLine
 10
8599.695515348525
 20
10550.37705018693
 30
0.0
 11
8599.695515348525
 21
11145.08946020573
 31
0.0
  0
LINE
  5
15324
330
142C8
100
AcDbEntity
  8
寸法
 62
     0
 48
50.0
370
    -2
100
AcDbLine
 10
1679.695515348525
 20
11105.08946020573
 30
0.0
 11
8579.695515348525
 21
11105.08946020573
 31
0.0
  0
INSERT
  5
15325
330
142C8
100
AcDbEntity
  8
寸法
 62
     0
 48
50.0
370
    -2
100
AcDbBlockReference
  2
_DOT
 10
1659.695515348525
 20
11105.08946020573
 30
0.0
 41
20.0
 42
20.0
 43
20.0
 50
180.0
  0
INSERT
  5
15326
330
142C8
100
AcDbEntity
  8
寸法
 62
     0
 48
50.0
370
    -2
100
AcDbBlockReference
  2
_DOT
 10
8599.695515348525
 20
11105.08946020573
 30
0.0
 41
20.0
 42
20.0
 43
20.0
  0
MTEXT
  5
15327
330
142C8
100
AcDbEntity
  8
寸法
 62
     7
 48
50.0
100
AcDbMText
 10
5129.695515348525
 20
11197.08946020573
 30
0.0
 40
120.0
 41
0.0
 71
     5
 72
     1
  1
\A1;6940
  7
STYLE1
 73
     1
 44
1.0
1001
ACAD
1000
MTEXTBEGIN
1070
    73
1070
     1
1070
    44
1040
1.0
1070
    74
1070
     0
1000
MTEXTEND
  0
POINT
  5
15328
330
142C8
100
AcDbEntity
  8
DEFPOINTS
 62
     0
 48
50.0
100
AcDbPoint
 10
1659.695515348525
 20
10530.37705018693
 30
0.0
  0
POINT
  5
15329
330
142C8
100
AcDbEntity
  8
DEFPOINTS
 62
     0
 48
50.0
100
AcDbPoint
 10
8599.695515348525
 20
10530.37705018693
 30
0.0
  0
POINT
  5
1532A
330
142C8
100
AcDbEntity
  8
DEFPOINTS
 62
     0
 48
50.0
100
AcDbPoint
 10
8599.695515348525
 20
11105.08946020573
 30
0.0
  0
ENDBLK
  5
142D3
330
142C8
100
AcDbEntity
  8
0
 48
50.0
100
AcDbBlockEnd
  0
BLOCK
  5
142DE
330
142D4
100
AcDbEntity
  8
0
 48
50.0
100
AcDbBlockBegin
  2
*D13
 70
     1
 10
0.0
 20
0.0
 30
0.0
  3
*D13
  1

  0
LINE
  5
15319
330
142D4
100
AcDbEntity
  8
寸法
 62
     0
 48
50.0
370
    -2
100
AcDbLine
 10
1714.695515348525
 20
10550.37705018694
 30
0.0
 11
1714.695515348525
 21
10845.08946020573
 31
0.0
  0
LINE
  5
1531A
330
142D4
100
AcDbEntity
  8
寸法
 62
     0
 48
50.0
370
    -2
100
AcDbLine
 10
5074.695515348525
 20
10550.37705018694
 30
0.0
 11
5074.695515348525
 21
10845.08946020573
 31
0.0
  0
LINE
  5
1531B
330
142D4
100
AcDbEntity
  8
寸法
 62
     0
 48
50.0
370
    -2
100
AcDbLine
 10
1734.695515348525
 20
10805.08946020573
 30
0.0
 11
5054.695515348525
 21
10805.08946020573
 31
0.0
  0
INSERT
  5
1531C
330
142D4
100
AcDbEntity
  8
寸法
 62
     0
 48
50.0
370
    -2
100
AcDbBlockReference
  2
_DOT
 10
1714.695515348525
 20
10805.08946020573
 30
0.0
 41
20.0
 42
20.0
 43
20.0
 50
180.0
  0
INSERT
  5
1531D
330
142D4
100
AcDbEntity
  8
寸法
 62
     0
 48
50.0
370
    -2
100
AcDbBlockReference
  2
_DOT
 10
5074.695515348525
 20
10805.08946020573
 30
0.0
 41
20.0
 42
20.0
 43
20.0
  0
MTEXT
  5
1531E
330
142D4
100
AcDbEntity
  8
寸法
 62
     7
 48
50.0
100
AcDbMText
 10
3394.695515348525
 20
10897.10127122935
 30
0.0
 40
120.0
 41
0.0
 71
     5
 72
     1
  1
\A1;8X420=3360
  7
STYLE1
 73
     1
 44
1.0
1001
ACAD
1000
MTEXTBEGIN
1070
    73
1070
     1
1070
    44
1040
1.0
1070
    74
1070
     0
1000
MTEXTEND
  0
POINT
  5
1531F
330
142D4
100
AcDbEntity
  8
DEFPOINTS
 62
     0
 48
50.0
100
AcDbPoint
 10
1714.695515348525
 20
10530.37705018694
 30
0.0
  0
POINT
  5
15320
330
142D4
100
AcDbEntity
  8
DEFPOINTS
 62
     0
 48
50.0
100
AcDbPoint
 10
5074.695515348525
 20
10530.37705018694
 30
0.0
  0
POINT
  5
15321
330
142D4
100
AcDbEntity
  8
DEFPOINTS
 62
     0
 48
50.0
100
AcDbPoint
 10
5074.695515348525
 20
10805.08946020573
 30
0.0
  0
ENDBLK
  5
142DF
330
142D4
100
AcDbEntity
  8
0
 48
50.0
100
AcDbBlockEnd
  0
BLOCK
  5
142F8
330
142EC
100
AcDbEntity
  8
0
 48
50.0
100
AcDbBlockBegin
  2
*D14
 70
     1
 10
0.0
 20
0.0
 30
0.0
  3
*D14
  1

  0
LINE
  5
1530E
330
142EC
100
AcDbEntity
  8
寸法
 62
     0
 48
50.0
370
    -2
100
AcDbLine
 10
1659.695515348525
 20
10550.37705018693
 30
0.0
 11
1659.695515348525
 21
10845.08946020573
 31
0.0
  0
LINE
  5
1530F
330
142EC
100
AcDbEntity
  8
寸法
 62
     0
 48
50.0
370
    -2
100
AcDbLine
 10
1714.695515348525
 20
10550.37705018694
 30
0.0
 11
1714.695515348525
 21
10845.08946020573
 31
0.0
  0
LINE
  5
15310
330
142EC
100
AcDbEntity
  8
寸法
 62
     0
 48
50.0
370
    -2
100
AcDbLine
 10
1734.695515348525
 20
10805.08946020573
 30
0.0
 11
1754.695515348525
 21
10805.08946020573
 31
0.0
  0
LINE
  5
15311
330
142EC
100
AcDbEntity
  8
寸法
 62
     0
 48
50.0
370
    -2
100
AcDbLine
 10
1639.695515348525
 20
10805.08946020573
 30
0.0
 11
1165.043567307622
 21
10805.08946020573
 31
0.0
  0
LINE
  5
15312
330
142EC
100
AcDbEntity
  8
寸法
 62
     0
 48
50.0
370
    -2
100
AcDbLine
 10
1714.695515348525
 20
10805.08946020573
 30
0.0
 11
1659.695515348525
 21
10805.08946020573
 31
0.0
  0
INSERT
  5
15313
330
142EC
100
AcDbEntity
  8
寸法
 62
     0
 48
50.0
370
    -2
100
AcDbBlockReference
  2
_DOT
 10
1714.695515348525
 20
10805.08946020573
 30
0.0
 41
20.0
 42
20.0
 43
20.0
 50
180.0
  0
INSERT
  5
15314
330
142EC
100
AcDbEntity
  8
寸法
 62
     0
 48
50.0
370
    -2
100
AcDbBlockReference
  2
_DOT
 10
1659.695515348525
 20
10805.08946020573
 30
0.0
 41
20.0
 42
20.0
 43
20.0
  0
MTEXT
  5
15315
330
142EC
100
AcDbEntity
  8
寸法
 62
     7
 48
50.0
100
AcDbMText
 10
1265.528848681861
 20
10897.08946020573
 30
0.0
 40
120.0
 41
0.0
 71
     5
 72
     1
  1
\A1;55
  7
STYLE1
 73
     1
 44
1.0
1001
ACAD
1000
MTEXTBEGIN
1070
    73
1070
     1
1070
    44
1040
1.0
1070
    74
1070
     0
1000
MTEXTEND
  0
POINT
  5
15316
330
142EC
100
AcDbEntity
  8
DEFPOINTS
 62
     0
 48
50.0
100
AcDbPoint
 10
1659.695515348525
 20
10530.37705018693
 30
0.0
  0
POINT
  5
15317
330
142EC
100
AcDbEntity
  8
DEFPOINTS
 62
     0
 48
50.0
100
AcDbPoint
 10
1714.695515348525
 20
10530.37705018694
 30
0.0
  0
POINT
  5
15318
330
142EC
100
AcDbEntity
  8
DEFPOINTS
 62
     0
 48
50.0
100
AcDbPoint
 10
1714.695515348525
 20
10805.08946020573
 30
0.0
  0
ENDBLK
  5
142F9
330
142EC
100
AcDbEntity
  8
0
 48
50.0
100
AcDbBlockEnd
  0
BLOCK
  5
14310
330
14306
100
AcDbEntity
  8
0
 48
50.0
100
AcDbBlockBegin
  2
*D15
 70
     1
 10
0.0
 20
0.0
 30
0.0
  3
*D15
  1

  0
LINE
  5
15305
330
14306
100
AcDbEntity
  8
寸法
 62
     0
 48
50.0
370
    -2
100
AcDbLine
 10
5184.695515348526
 20
10550.37705018694
 30
0.0
 11
5184.695515348526
 21
10845.08946020573
 31
0.0
  0
LINE
  5
15306
330
14306
100
AcDbEntity
  8
寸法
 62
     0
 48
50.0
370
    -2
100
AcDbLine
 10
8544.695515348525
 20
10550.37705018694
 30
0.0
 11
8544.695515348525
 21
10845.08946020573
 31
0.0
  0
LINE
  5
15307
330
14306
100
AcDbEntity
  8
寸法
 62
     0
 48
50.0
370
    -2
100
AcDbLine
 10
5204.695515348525
 20
10805.08946020573
 30
0.0
 11
8524.695515348524
 21
10805.08946020573
 31
0.0
  0
INSERT
  5
15308
330
14306
100
AcDbEntity
  8
寸法
 62
     0
 48
50.0
370
    -2
100
AcDbBlockReference
  2
_DOT
 10
5184.695515348526
 20
10805.08946020573
 30
0.0
 41
20.0
 42
20.0
 43
20.0
 50
180.0
  0
INSERT
  5
15309
330
14306
100
AcDbEntity
  8
寸法
 62
     0
 48
50.0
370
    -2
100
AcDbBlockReference
  2
_DOT
 10
8544.695515348525
 20
10805.08946020573
 30
0.0
 41
20.0
 42
20.0
 43
20.0
  0
MTEXT
  5
1530A
330
14306
100
AcDbEntity
  8
寸法
 62
     7
 48
50.0
100
AcDbMText
 10
6864.695515348525
 20
10897.10127122935
 30
0.0
 40
120.0
 41
0.0
 71
     5
 72
     1
  1
\A1;8X420=3360
  7
STYLE1
 73
     1
 44
1.0
1001
ACAD
1000
MTEXTBEGIN
1070
    73
1070
     1
1070
    44
1040
1.0
1070
    74
1070
     0
1000
MTEXTEND
  0
POINT
  5
1530B
330
14306
100
AcDbEntity
  8
DEFPOINTS
 62
     0
 48
50.0
100
AcDbPoint
 10
5184.695515348526
 20
10530.37705018694
 30
0.0
  0
POINT
  5
1530C
330
14306
100
AcDbEntity
  8
DEFPOINTS
 62
     0
 48
50.0
100
AcDbPoint
 10
8544.695515348525
 20
10530.37705018694
 30
0.0
  0
POINT
  5
1530D
330
14306
100
AcDbEntity
  8
DEFPOINTS
 62
     0
 48
50.0
100
AcDbPoint
 10
8544.695515348525
 20
10805.08946020573
 30
0.0
  0
ENDBLK
  5
14311
330
14306
100
AcDbEntity
  8
0
 48
50.0
100
AcDbBlockEnd
  0
BLOCK
  5
1431C
330
14312
100
AcDbEntity
  8
0
 48
50.0
100
AcDbBlockBegin
  2
*D16
 70
     1
 10
0.0
 20
0.0
 30
0.0
  3
*D16
  1

  0
LINE
  5
152FC
330
14312
100
AcDbEntity
  8
寸法
 62
     0
 48
50.0
370
    -2
100
AcDbLine
 10
5074.695515348525
 20
10550.37705018694
 30
0.0
 11
5074.695515348525
 21
10845.08946020573
 31
0.0
  0
LINE
  5
152FD
330
14312
100
AcDbEntity
  8
寸法
 62
     0
 48
50.0
370
    -2
100
AcDbLine
 10
5184.695515348526
 20
10550.37705018694
 30
0.0
 11
5184.695515348526
 21
10845.08946020573
 31
0.0
  0
LINE
  5
152FE
330
14312
100
AcDbEntity
  8
寸法
 62
     0
 48
50.0
370
    -2
100
AcDbLine
 10
5094.695515348525
 20
10805.08946020573
 30
0.0
 11
5164.695515348525
 21
10805.08946020573
 31
0.0
  0
INSERT
  5
152FF
330
14312
100
AcDbEntity
  8
寸法
 62
     0
 48
50.0
370
    -2
100
AcDbBlockReference
  2
_DOT
 10
5074.695515348525
 20
10805.08946020573
 30
0.0
 41
20.0
 42
20.0
 43
20.0
 50
180.0
  0
INSERT
  5
15300
330
14312
100
AcDbEntity
  8
寸法
 62
     0
 48
50.0
370
    -2
100
AcDbBlockReference
  2
_DOT
 10
5184.695515348526
 20
10805.08946020573
 30
0.0
 41
20.0
 42
20.0
 43
20.0
  0
MTEXT
  5
15301
330
14312
100
AcDbEntity
  8
寸法
 62
     7
 48
50.0
100
AcDbMText
 10
5129.695515348525
 20
10897.08946020573
 30
0.0
 40
120.0
 41
0.0
 71
     5
 72
     1
  1
\A1;110
  7
STYLE1
 73
     1
 44
1.0
1001
ACAD
1000
MTEXTBEGIN
1070
    73
1070
     1
1070
    44
1040
1.0
1070
    74
1070
     0
1000
MTEXTEND
  0
POINT
  5
15302
330
14312
100
AcDbEntity
  8
DEFPOINTS
 62
     0
 48
50.0
100
AcDbPoint
 10
5074.695515348525
 20
10530.37705018694
 30
0.0
  0
POINT
  5
15303
330
14312
100
AcDbEntity
  8
DEFPOINTS
 62
     0
 48
50.0
100
AcDbPoint
 10
5184.695515348526
 20
10530.37705018694
 30
0.0
  0
POINT
  5
15304
330
14312
100
AcDbEntity
  8
DEFPOINTS
 62
     0
 48
50.0
100
AcDbPoint
 10
5184.695515348526
 20
10805.08946020573
 30
0.0
  0
ENDBLK
  5
1431D
330
14312
100
AcDbEntity
  8
0
 48
50.0
100
AcDbBlockEnd
  0
BLOCK
  5
14851
330
14846
100
AcDbEntity
  8
0
 48
50.0
100
AcDbBlockBegin
  2
*D17
 70
     1
 10
0.0
 20
0.0
 30
0.0
  3
*D17
  1

  0
LINE
  5
14B48
330
14846
100
AcDbEntity
  8
寸法
 62
     0
 48
50.0
370
    -2
100
AcDbLine
 10
11575.45420978329
 20
4448.639749029597
 30
0.0
 11
10959.51977067801
 21
4466.353899303927
 31
0.0
  0
LINE
  5
14B49
330
14846
100
AcDbEntity
  8
寸法
 62
     0
 48
50.0
370
    -2
100
AcDbLine
 10
11571.40075422666
 20
4307.698025263884
 30
0.0
 11
10955.46631512138
 21
4325.412175538214
 31
0.0
  0
LINE
  5
14B4A
330
14846
100
AcDbEntity
  8
寸法
 62
     0
 48
50.0
370
    -2
100
AcDbLine
 10
11015.44151672381
 20
4323.687300833267
 30
0.0
 11
11019.49497228044
 21
4464.62902459898
 31
0.0
  0
LINE
  5
14B4B
330
14846
100
AcDbEntity
  8
寸法
 62
     0
 48
50.0
370
    -2
100
AcDbLine
 10
11019.49497228044
 20
4464.62902459898
 30
0.0
 11
11029.84422051012
 21
4824.480234213566
 31
0.0
  0
INSERT
  5
14B4C
330
14846
100
AcDbEntity
  8
寸法
 62
     0
 48
50.0
370
    -2
100
AcDbBlockReference
  2
_DOTSMALL
 10
11015.44151672381
 20
4323.687300833267
 30
0.0
 41
100.0
 42
100.0
 43
100.0
 50
268.3526390256378
  0
INSERT
  5
14B4D
330
14846
100
AcDbEntity
  8
寸法
 62
     0
 48
50.0
370
    -2
100
AcDbBlockReference
  2
_DOTSMALL
 10
11019.49497228044
 20
4464.62902459898
 30
0.0
 41
100.0
 42
100.0
 43
100.0
 50
88.35263902563776
  0
MTEXT
  5
14B4E
330
14846
100
AcDbEntity
  8
寸法
 62
     7
 48
50.0
100
AcDbMText
 10
10926.14832264535
 20
4697.408755249878
 30
0.0
 40
120.0
 41
0.0
 71
     5
 72
     1
  1
\A1;141
  7
STYLE1
 11
0.0287479117491237
 21
0.9995866933738488
 31
0.0
 73
     1
 44
1.0
1001
ACAD
1000
MTEXTBEGIN
1070
    73
1070
     1
1070
    44
1040
1.0
1070
    74
1070
     0
1000
MTEXTEND
  0
POINT
  5
14B4F
330
14846
100
AcDbEntity
  8
DEFPOINTS
 62
     0
 48
50.0
100
AcDbPoint
 10
11595.44594365077
 20
4448.064790794614
 30
0.0
  0
POINT
  5
14B50
330
14846
100
AcDbEntity
  8
DEFPOINTS
 62
     0
 48
50.0
100
AcDbPoint
 10
11591.39248809414
 20
4307.123067028902
 30
0.0
  0
POINT
  5
14B51
330
14846
100
AcDbEntity
  8
DEFPOINTS
 62
     0
 48
50.0
100
AcDbPoint
 10
11015.44151672381
 20
4323.687300833267
 30
0.0
  0
ENDBLK
  5
14852
330
14846
100
AcDbEntity
  8
0
 48
50.0
100
AcDbBlockEnd
  0
BLOCK
  5
1485E
330
14853
100
AcDbEntity
  8
0
 48
50.0
100
AcDbBlockBegin
  2
*D18
 70
     1
 10
0.0
 20
0.0
 30
0.0
  3
*D18
  1

  0
LINE
  5
14B3E
330
14853
100
AcDbEntity
  8
寸法
 62
     0
 48
50.0
370
    -2
100
AcDbLine
 10
15106.04992349218
 20
4416.152721571591
 30
0.0
 11
15106.04992349218
 21
4907.999495539241
 31
0.0
  0
LINE
  5
14B3F
330
14853
100
AcDbEntity
  8
寸法
 62
     0
 48
50.0
370
    -2
100
AcDbLine
 10
15186.04992349218
 20
4414.342041959939
 30
0.0
 11
15186.04992349218
 21
4907.999495539241
 31
0.0
  0
LINE
  5
14B40
330
14853
100
AcDbEntity
  8
寸法
 62
     0
 48
50.0
370
    -2
100
AcDbLine
 10
15106.04992349218
 20
4847.999495539241
 30
0.0
 11
15186.04992349218
 21
4847.999495539241
 31
0.0
  0
LINE
  5
14B41
330
14853
100
AcDbEntity
  8
寸法
 62
     0
 48
50.0
370
    -2
100
AcDbLine
 10
15186.04992349218
 20
4847.999495539241
 30
0.0
 11
15498.14441168116
 21
4847.999495539241
 31
0.0
  0
INSERT
  5
14B42
330
14853
100
AcDbEntity
  8
寸法
 62
     0
 48
50.0
370
    -2
100
AcDbBlockReference
  2
_DOTSMALL
 10
15106.04992349218
 20
4847.999495539241
 30
0.0
 41
100.0
 42
100.0
 43
100.0
 50
180.0
  0
INSERT
  5
14B43
330
14853
100
AcDbEntity
  8
寸法
 62
     0
 48
50.0
370
    -2
100
AcDbBlockReference
  2
_DOTSMALL
 10
15186.04992349218
 20
4847.999495539241
 30
0.0
 41
100.0
 42
100.0
 43
100.0
  0
MTEXT
  5
14B44
330
14853
100
AcDbEntity
  8
寸法
 62
     7
 48
50.0
100
AcDbMText
 10
15392.09716758668
 20
4947.999495539241
 30
0.0
 40
120.0
 41
0.0
 71
     5
 72
     1
  1
\A1;80
  7
STYLE1
 73
     1
 44
1.0
1001
ACAD
1000
MTEXTBEGIN
1070
    73
1070
     1
1070
    44
1040
1.0
1070
    74
1070
     0
1000
MTEXTEND
  0
POINT
  5
14B45
330
14853
100
AcDbEntity
  8
DEFPOINTS
 62
     0
 48
50.0
100
AcDbPoint
 10
15106.04992349218
 20
4396.15272157159
 30
0.0
  0
POINT
  5
14B46
330
14853
100
AcDbEntity
  8
DEFPOINTS
 62
     0
 48
50.0
100
AcDbPoint
 10
15186.04992349218
 20
4394.342041959939
 30
0.0
  0
POINT
  5
14B47
330
14853
100
AcDbEntity
  8
DEFPOINTS
 62
     0
 48
50.0
100
AcDbPoint
 10
15186.04992349218
 20
4847.999495539241
 30
0.0
  0
ENDBLK
  5
1485F
330
14853
100
AcDbEntity
  8
0
 48
50.0
100
AcDbBlockEnd
  0
BLOCK
  5
1486A
330
14860
100
AcDbEntity
  8
0
 48
50.0
100
AcDbBlockBegin
  2
*D19
 70
     1
 10
0.0
 20
0.0
 30
0.0
  3
*D19
  1

  0
LINE
  5
14B35
330
14860
100
AcDbEntity
  8
寸法
 62
     0
 48
50.0
370
    -2
100
AcDbLine
 10
15186.04992349218
 20
4414.342041959937
 30
0.0
 11
15186.04992349218
 21
5138.113088325518
 31
0.0
  0
LINE
  5
14B36
330
14860
100
AcDbEntity
  8
寸法
 62
     0
 48
50.0
370
    -2
100
AcDbLine
 10
11576.04992349219
 20
4469.342041959939
 30
0.0
 11
11576.04992349219
 21
5138.113088325518
 31
0.0
  0
LINE
  5
14B37
330
14860
100
AcDbEntity
  8
寸法
 62
     0
 48
50.0
370
    -2
100
AcDbLine
 10
15186.04992349218
 20
5078.113088325517
 30
0.0
 11
11576.04992349219
 21
5078.113088325517
 31
0.0
  0
INSERT
  5
14B38
330
14860
100
AcDbEntity
  8
寸法
 62
     0
 48
50.0
370
    -2
100
AcDbBlockReference
  2
_DOTSMALL
 10
15186.04992349218
 20
5078.113088325517
 30
0.0
 41
100.0
 42
100.0
 43
100.0
  0
INSERT
  5
14B39
330
14860
100
AcDbEntity
  8
寸法
 62
     0
 48
50.0
370
    -2
100
AcDbBlockReference
  2
_DOTSMALL
 10
11576.04992349219
 20
5078.113088325517
 30
0.0
 41
100.0
 42
100.0
 43
100.0
 50
180.0
  0
MTEXT
  5
14B3A
330
14860
100
AcDbEntity
  8
寸法
 62
     7
 48
50.0
100
AcDbMText
 10
13381.04992349219
 20
5178.113088325517
 30
0.0
 40
120.0
 41
0.0
 71
     5
 72
     1
  1
\A1;3610
  7
STYLE1
 73
     1
 44
1.0
1001
ACAD
1000
MTEXTBEGIN
1070
    73
1070
     1
1070
    44
1040
1.0
1070
    74
1070
     0
1000
MTEXTEND
  0
POINT
  5
14B3B
330
14860
100
AcDbEntity
  8
DEFPOINTS
 62
     0
 48
50.0
100
AcDbPoint
 10
15186.04992349218
 20
4394.342041959936
 30
0.0
  0
POINT
  5
14B3C
330
14860
100
AcDbEntity
  8
DEFPOINTS
 62
     0
 48
50.0
100
AcDbPoint
 10
11576.04992349219
 20
4449.34204195994
 30
0.0
  0
POINT
  5
14B3D
330
14860
100
AcDbEntity
  8
DEFPOINTS
 62
     0
 48
50.0
100
AcDbPoint
 10
11576.04992349219
 20
5078.113088325517
 30
0.0
  0
ENDBLK
  5
1486B
330
14860
100
AcDbEntity
  8
0
 48
50.0
100
AcDbBlockEnd
  0
BLOCK
  5
14878
330
1486C
100
AcDbEntity
  8
0
 48
50.0
100
AcDbBlockBegin
  2
*D20
 70
     1
 10
0.0
 20
0.0
 30
0.0
  3
*D20
  1

  0
LINE
  5
14B2A
330
1486C
100
AcDbEntity
  8
寸法
 62
     0
 48
50.0
370
    -2
100
AcDbLine
 10
11636.04992349219
 20
4465.343660082911
 30
0.0
 11
11636.04992349219
 21
4907.99949553924
 31
0.0
  0
LINE
  5
14B2B
330
1486C
100
AcDbEntity
  8
寸法
 62
     0
 48
50.0
370
    -2
100
AcDbLine
 10
11576.04992349219
 20
4469.342041959939
 30
0.0
 11
11576.04992349219
 21
4907.99949553924
 31
0.0
  0
LINE
  5
14B2C
330
1486C
100
AcDbEntity
  8
寸法
 62
     0
 48
50.0
370
    -2
100
AcDbLine
 10
11636.04992349219
 20
4847.999495539239
 30
0.0
 11
11736.04992349219
 21
4847.999495539239
 31
0.0
  0
LINE
  5
14B2D
330
1486C
100
AcDbEntity
  8
寸法
 62
     0
 48
50.0
370
    -2
100
AcDbLine
 10
11576.04992349219
 20
4847.999495539239
 30
0.0
 11
11156.77433294101
 21
4847.999495539239
 31
0.0
  0
LINE
  5
14B2E
330
1486C
100
AcDbEntity
  8
寸法
 62
     0
 48
50.0
370
    -2
100
AcDbLine
 10
11636.04992349219
 20
4847.999495539239
 30
0.0
 11
11576.04992349219
 21
4847.999495539239
 31
0.0
  0
INSERT
  5
14B2F
330
1486C
100
AcDbEntity
  8
寸法
 62
     0
 48
50.0
370
    -2
100
AcDbBlockReference
  2
_DOTSMALL
 10
11636.04992349219
 20
4847.999495539239
 30
0.0
 41
100.0
 42
100.0
 43
100.0
 50
180.0
  0
INSERT
  5
14B30
330
1486C
100
AcDbEntity
  8
寸法
 62
     0
 48
50.0
370
    -2
100
AcDbBlockReference
  2
_DOTSMALL
 10
11576.04992349219
 20
4847.999495539239
 30
0.0
 41
100.0
 42
100.0
 43
100.0
  0
MTEXT
  5
14B31
330
1486C
100
AcDbEntity
  8
寸法
 62
     7
 48
50.0
100
AcDbMText
 10
11266.4121282166
 20
4947.999495539239
 30
0.0
 40
120.0
 41
0.0
 71
     5
 72
     1
  1
\A1;60
  7
STYLE1
 73
     1
 44
1.0
1001
ACAD
1000
MTEXTBEGIN
1070
    73
1070
     1
1070
    44
1040
1.0
1070
    74
1070
     0
1000
MTEXTEND
  0
POINT
  5
14B32
330
1486C
100
AcDbEntity
  8
DEFPOINTS
 62
     0
 48
50.0
100
AcDbPoint
 10
11636.04992349219
 20
4445.343660082912
 30
0.0
  0
POINT
  5
14B33
330
1486C
100
AcDbEntity
  8
DEFPOINTS
 62
     0
 48
50.0
100
AcDbPoint
 10
11576.04992349219
 20
4449.34204195994
 30
0.0
  0
POINT
  5
14B34
330
1486C
100
AcDbEntity
  8
DEFPOINTS
 62
     0
 48
50.0
100
AcDbPoint
 10
11576.04992349219
 20
4847.999495539239
 30
0.0
  0
ENDBLK
  5
14879
330
1486C
100
AcDbEntity
  8
0
 48
50.0
100
AcDbBlockEnd
  0
BLOCK
  5
14884
330
1487A
100
AcDbEntity
  8
0
 48
50.0
100
AcDbBlockBegin
  2
*D21
 70
     1
 10
0.0
 20
0.0
 30
0.0
  3
*D21
  1

  0
LINE
  5
14B21
330
1487A
100
AcDbEntity
  8
寸法
 62
     0
 48
50.0
370
    -2
100
AcDbLine
 10
15106.04992349218
 20
4416.152721571591
 30
0.0
 11
15106.04992349218
 21
4907.999495539241
 31
0.0
  0
LINE
  5
14B22
330
1487A
100
AcDbEntity
  8
寸法
 62
     0
 48
50.0
370
    -2
100
AcDbLine
 10
11636.04992349219
 20
4465.343660082911
 30
0.0
 11
11636.04992349219
 21
4907.999495539241
 31
0.0
  0
LINE
  5
14B23
330
1487A
100
AcDbEntity
  8
寸法
 62
     0
 48
50.0
370
    -2
100
AcDbLine
 10
15106.04992349218
 20
4847.999495539241
 30
0.0
 11
11636.04992349219
 21
4847.999495539241
 31
0.0
  0
INSERT
  5
14B24
330
1487A
100
AcDbEntity
  8
寸法
 62
     0
 48
50.0
370
    -2
100
AcDbBlockReference
  2
_DOTSMALL
 10
15106.04992349218
 20
4847.999495539241
 30
0.0
 41
100.0
 42
100.0
 43
100.0
  0
INSERT
  5
14B25
330
1487A
100
AcDbEntity
  8
寸法
 62
     0
 48
50.0
370
    -2
100
AcDbBlockReference
  2
_DOTSMALL
 10
11636.04992349219
 20
4847.999495539241
 30
0.0
 41
100.0
 42
100.0
 43
100.0
 50
180.0
  0
MTEXT
  5
14B26
330
1487A
100
AcDbEntity
  8
寸法
 62
     7
 48
50.0
100
AcDbMText
 10
13371.04992349219
 20
4947.999495539241
 30
0.0
 40
120.0
 41
0.0
 71
     5
 72
     1
  1
\A1;柱外寸法3470
  7
STYLE1
 73
     1
 44
1.0
1001
ACAD
1000
MTEXTBEGIN
1070
    73
1070
     1
1070
    44
1040
1.0
1070
    74
1070
     0
1000
MTEXTEND
  0
POINT
  5
14B27
330
1487A
100
AcDbEntity
  8
DEFPOINTS
 62
     0
 48
50.0
100
AcDbPoint
 10
15106.04992349218
 20
4396.15272157159
 30
0.0
  0
POINT
  5
14B28
330
1487A
100
AcDbEntity
  8
DEFPOINTS
 62
     0
 48
50.0
100
AcDbPoint
 10
11636.04992349219
 20
4445.343660082912
 30
0.0
  0
POINT
  5
14B29
330
1487A
100
AcDbEntity
  8
DEFPOINTS
 62
     0
 48
50.0
100
AcDbPoint
 10
11636.04992349219
 20
4847.999495539241
 30
0.0
  0
ENDBLK
  5
14885
330
1487A
100
AcDbEntity
  8
0
 48
50.0
100
AcDbBlockEnd
  0
BLOCK
  5
14892
330
14886
100
AcDbEntity
  8
0
 48
50.0
100
AcDbBlockBegin
  2
*D22
 70
     1
 10
0.0
 20
0.0
 30
0.0
  3
*D22
  1

  0
LINE
  5
14B16
330
14886
100
AcDbEntity
  8
寸法
 62
     0
 48
50.0
370
    -2
100
AcDbLine
 10
11616.04992349219
 20
2124.342041959935
 30
0.0
 11
10732.29979430893
 21
2124.342041959936
 31
0.0
  0
LINE
  5
14B17
330
14886
100
AcDbEntity
  8
寸法
 62
     0
 48
50.0
370
    -2
100
AcDbLine
 10
11539.04992349219
 20
2074.342041959931
 30
0.0
 11
10732.29979430893
 21
2074.342041959931
 31
0.0
  0
LINE
  5
14B18
330
14886
100
AcDbEntity
  8
寸法
 62
     0
 48
50.0
370
    -2
100
AcDbLine
 10
10792.29979430893
 20
2124.342041959936
 30
0.0
 11
10792.29979430893
 21
2224.342041959936
 31
0.0
  0
LINE
  5
14B19
330
14886
100
AcDbEntity
  8
寸法
 62
     0
 48
50.0
370
    -2
100
AcDbLine
 10
10792.29979430893
 20
2074.342041959931
 30
0.0
 11
10792.29979430893
 21
1662.24755377095
 31
0.0
  0
LINE
  5
14B1A
330
14886
100
AcDbEntity
  8
寸法
 62
     0
 48
50.0
370
    -2
100
AcDbLine
 10
10792.29979430893
 20
2124.342041959936
 30
0.0
 11
10792.29979430893
 21
2074.342041959931
 31
0.0
  0
INSERT
  5
14B1B
330
14886
100
AcDbEntity
  8
寸法
 62
     0
 48
50.0
370
    -2
100
AcDbBlockReference
  2
_DOTSMALL
 10
10792.29979430893
 20
2124.342041959936
 30
0.0
 41
100.0
 42
100.0
 43
100.0
 50
270.0
  0
INSERT
  5
14B1C
330
14886
100
AcDbEntity
  8
寸法
 62
     0
 48
50.0
370
    -2
100
AcDbBlockReference
  2
_DOTSMALL
 10
10792.29979430893
 20
2074.342041959931
 30
0.0
 41
100.0
 42
100.0
 43
100.0
 50
90.0
  0
MTEXT
  5
14B1D
330
14886
100
AcDbEntity
  8
寸法
 62
     7
 48
50.0
100
AcDbMText
 10
10692.29979430893
 20
1768.29479786544
 30
0.0
 40
120.0
 41
0.0
 71
     5
 72
     1
  1
\A1;50
  7
STYLE1
 11
0.0000000000000001
 21
1.0
 31
0.0
 73
     1
 44
1.0
1001
ACAD
1000
MTEXTBEGIN
1070
    73
1070
     1
1070
    44
1040
1.0
1070
    74
1070
     0
1000
MTEXTEND
  0
POINT
  5
14B1E
330
14886
100
AcDbEntity
  8
DEFPOINTS
 62
     0
 48
50.0
100
AcDbPoint
 10
11636.04992349219
 20
2124.342041959935
 30
0.0
  0
POINT
  5
14B1F
330
14886
100
AcDbEntity
  8
DEFPOINTS
 62
     0
 48
50.0
100
AcDbPoint
 10
11559.04992349219
 20
2074.342041959931
 30
0.0
  0
POINT
  5
14B20
330
14886
100
AcDbEntity
  8
DEFPOINTS
 62
     0
 48
50.0
100
AcDbPoint
 10
10792.29979430893
 20
2074.342041959931
 30
0.0
  0
ENDBLK
  5
14893
330
14886
100
AcDbEntity
  8
0
 48
50.0
100
AcDbBlockEnd
  0
BLOCK
  5
1489E
330
14894
100
AcDbEntity
  8
0
 48
50.0
100
AcDbBlockBegin
  2
*D23
 70
     1
 10
0.0
 20
0.0
 30
0.0
  3
*D23
  1

  0
LINE
  5
14B0D
330
14894
100
AcDbEntity
  8
寸法
 62
     0
 48
50.0
370
    -2
100
AcDbLine
 10
15126.04992349219
 20
2074.342041959937
 30
0.0
 11
15870.97708146431
 21
2074.342041959937
 31
0.0
  0
LINE
  5
14B0E
330
14894
100
AcDbEntity
  8
寸法
 62
     0
 48
50.0
370
    -2
100
AcDbLine
 10
15206.04992349218
 20
4394.342041959936
 30
0.0
 11
15870.97708146432
 21
4394.342041959936
 31
0.0
  0
LINE
  5
14B0F
330
14894
100
AcDbEntity
  8
寸法
 62
     0
 48
50.0
370
    -2
100
AcDbLine
 10
15810.97708146431
 20
2074.342041959937
 30
0.0
 11
15810.97708146432
 21
4394.342041959936
 31
0.0
  0
INSERT
  5
14B10
330
14894
100
AcDbEntity
  8
寸法
 62
     0
 48
50.0
370
    -2
100
AcDbBlockReference
  2
_DOTSMALL
 10
15810.97708146431
 20
2074.342041959937
 30
0.0
 41
100.0
 42
100.0
 43
100.0
 50
270.0
  0
INSERT
  5
14B11
330
14894
100
AcDbEntity
  8
寸法
 62
     0
 48
50.0
370
    -2
100
AcDbBlockReference
  2
_DOTSMALL
 10
15810.97708146432
 20
4394.342041959936
 30
0.0
 41
100.0
 42
100.0
 43
100.0
 50
90.0
  0
MTEXT
  5
14B12
330
14894
100
AcDbEntity
  8
寸法
 62
     7
 48
50.0
100
AcDbMText
 10
15710.96527044069
 20
3234.34204195994
 30
0.0
 40
120.0
 41
0.0
 71
     5
 72
     1
  1
\A1;2320
  7
STYLE1
 11
0.0000000000000001
 21
1.0
 31
0.0
 73
     1
 44
1.0
1001
ACAD
1000
MTEXTBEGIN
1070
    73
1070
     1
1070
    44
1040
1.0
1070
    74
1070
     0
1000
MTEXTEND
  0
POINT
  5
14B13
330
14894
100
AcDbEntity
  8
DEFPOINTS
 62
     0
 48
50.0
100
AcDbPoint
 10
15106.04992349219
 20
2074.342041959937
 30
0.0
  0
POINT
  5
14B14
330
14894
100
AcDbEntity
  8
DEFPOINTS
 62
     0
 48
50.0
100
AcDbPoint
 10
15186.04992349218
 20
4394.342041959936
 30
0.0
  0
POINT
  5
14B15
330
14894
100
AcDbEntity
  8
DEFPOINTS
 62
     0
 48
50.0
100
AcDbPoint
 10
15810.97708146432
 20
4394.342041959936
 30
0.0
  0
ENDBLK
  5
1489F
330
14894
100
AcDbEntity
  8
0
 48
50.0
100
AcDbBlockEnd
  0
BLOCK
  5
148AA
330
148A0
100
AcDbEntity
  8
0
 48
50.0
100
AcDbBlockBegin
  2
*D24
 70
     1
 10
0.0
 20
0.0
 30
0.0
  3
*D24
  1

  0
LINE
  5
14B04
330
148A0
100
AcDbEntity
  8
寸法
 62
     0
 48
50.0
370
    -2
100
AcDbLine
 10
11539.04992349219
 20
2074.342041959931
 30
0.0
 11
10432.29979430893
 21
2074.342041959931
 31
0.0
  0
LINE
  5
14B05
330
148A0
100
AcDbEntity
  8
寸法
 62
     0
 48
50.0
370
    -2
100
AcDbLine
 10
11556.04992349219
 20
4449.342041959935
 30
0.0
 11
10432.29979430893
 21
4449.342041959935
 31
0.0
  0
LINE
  5
14B06
330
148A0
100
AcDbEntity
  8
寸法
 62
     0
 48
50.0
370
    -2
100
AcDbLine
 10
10492.29979430893
 20
2074.342041959931
 30
0.0
 11
10492.29979430893
 21
4449.342041959935
 31
0.0
  0
INSERT
  5
14B07
330
148A0
100
AcDbEntity
  8
寸法
 62
     0
 48
50.0
370
    -2
100
AcDbBlockReference
  2
_DOTSMALL
 10
10492.29979430893
 20
2074.342041959931
 30
0.0
 41
100.0
 42
100.0
 43
100.0
 50
270.0
  0
INSERT
  5
14B08
330
148A0
100
AcDbEntity
  8
寸法
 62
     0
 48
50.0
370
    -2
100
AcDbBlockReference
  2
_DOTSMALL
 10
10492.29979430893
 20
4449.342041959935
 30
0.0
 41
100.0
 42
100.0
 43
100.0
 50
90.0
  0
MTEXT
  5
14B09
330
148A0
100
AcDbEntity
  8
寸法
 62
     7
 48
50.0
100
AcDbMText
 10
10392.2879832853
 20
3261.842041959936
 30
0.0
 40
120.0
 41
0.0
 71
     5
 72
     1
  1
\A1;2375
  7
STYLE1
 11
0.0000000000000001
 21
1.0
 31
0.0
 73
     1
 44
1.0
1001
ACAD
1000
MTEXTBEGIN
1070
    73
1070
     1
1070
    44
1040
1.0
1070
    74
1070
     0
1000
MTEXTEND
  0
POINT
  5
14B0A
330
148A0
100
AcDbEntity
  8
DEFPOINTS
 62
     0
 48
50.0
100
AcDbPoint
 10
11559.04992349219
 20
2074.342041959931
 30
0.0
  0
POINT
  5
14B0B
330
148A0
100
AcDbEntity
  8
DEFPOINTS
 62
     0
 48
50.0
100
AcDbPoint
 10
11576.04992349219
 20
4449.342041959935
 30
0.0
  0
POINT
  5
14B0C
330
148A0
100
AcDbEntity
  8
DEFPOINTS
 62
     0
 48
50.0
100
AcDbPoint
 10
10492.29979430893
 20
4449.342041959935
 30
0.0
  0
ENDBLK
  5
148AB
330
148A0
100
AcDbEntity
  8
0
 48
50.0
100
AcDbBlockEnd
  0
BLOCK
  5
148B6
330
148AC
100
AcDbEntity
  8
0
 48
50.0
100
AcDbBlockBegin
  2
*D25
 70
     1
 10
0.0
 20
0.0
 30
0.0
  3
*D25
  1

  0
LINE
  5
14AFB
330
148AC
100
AcDbEntity
  8
寸法
 62
     0
 48
50.0
370
    -2
100
AcDbLine
 10
11616.04992349219
 20
4214.342041959931
 30
0.0
 11
10732.29979430893
 21
4214.342041959931
 31
0.0
  0
LINE
  5
14AFC
330
148AC
100
AcDbEntity
  8
寸法
 62
     0
 48
50.0
370
    -2
100
AcDbLine
 10
11616.04992349219
 20
2124.342041959931
 30
0.0
 11
10732.29979430893
 21
2124.342041959931
 31
0.0
  0
LINE
  5
14AFD
330
148AC
100
AcDbEntity
  8
寸法
 62
     0
 48
50.0
370
    -2
100
AcDbLine
 10
10792.29979430893
 20
4214.342041959931
 30
0.0
 11
10792.29979430893
 21
2124.342041959931
 31
0.0
  0
INSERT
  5
14AFE
330
148AC
100
AcDbEntity
  8
寸法
 62
     0
 48
50.0
370
    -2
100
AcDbBlockReference
  2
_DOTSMALL
 10
10792.29979430893
 20
4214.342041959931
 30
0.0
 41
100.0
 42
100.0
 43
100.0
 50
90.0
  0
INSERT
  5
14AFF
330
148AC
100
AcDbEntity
  8
寸法
 62
     0
 48
50.0
370
    -2
100
AcDbBlockReference
  2
_DOTSMALL
 10
10792.29979430893
 20
2124.342041959931
 30
0.0
 41
100.0
 42
100.0
 43
100.0
 50
270.0
  0
MTEXT
  5
14B00
330
148AC
100
AcDbEntity
  8
寸法
 62
     7
 48
50.0
100
AcDbMText
 10
10692.28798328531
 20
3169.342041959934
 30
0.0
 40
120.0
 41
0.0
 71
     5
 72
     1
  1
\A1;2090
  7
STYLE1
 11
0.0000000000000001
 21
1.0
 31
0.0
 73
     1
 44
1.0
1001
ACAD
1000
MTEXTBEGIN
1070
    73
1070
     1
1070
    44
1040
1.0
1070
    74
1070
     0
1000
MTEXTEND
  0
POINT
  5
14B01
330
148AC
100
AcDbEntity
  8
DEFPOINTS
 62
     0
 48
50.0
100
AcDbPoint
 10
11636.04992349219
 20
4214.342041959931
 30
0.0
  0
POINT
  5
14B02
330
148AC
100
AcDbEntity
  8
DEFPOINTS
 62
     0
 48
50.0
100
AcDbPoint
 10
11636.04992349219
 20
2124.342041959931
 30
0.0
  0
POINT
  5
14B03
330
148AC
100
AcDbEntity
  8
DEFPOINTS
 62
     0
 48
50.0
100
AcDbPoint
 10
10792.29979430893
 20
2124.342041959931
 30
0.0
  0
ENDBLK
  5
148B7
330
148AC
100
AcDbEntity
  8
0
 48
50.0
100
AcDbBlockEnd
  0
BLOCK
  5
148C2
330
148B8
100
AcDbEntity
  8
0
 48
50.0
100
AcDbBlockBegin
  2
*D26
 70
     1
 10
0.0
 20
0.0
 30
0.0
  3
*D26
  1

  0
LINE
  5
14AF2
330
148B8
100
AcDbEntity
  8
寸法
 62
     0
 48
50.0
370
    -2
100
AcDbLine
 10
11539.04992349219
 20
4165.342041959934
 30
0.0
 11
11051.14128209493
 21
4165.342041959934
 31
0.0
  0
LINE
  5
14AF3
330
148B8
100
AcDbEntity
  8
寸法
 62
     0
 48
50.0
370
    -2
100
AcDbLine
 10
11539.04992349219
 20
2140.342041959935
 30
0.0
 11
11051.14128209493
 21
2140.342041959936
 31
0.0
  0
LINE
  5
14AF4
330
148B8
100
AcDbEntity
  8
寸法
 62
     0
 48
50.0
370
    -2
100
AcDbLine
 10
11091.14128209493
 20
4145.342041959935
 30
0.0
 11
11091.14128209493
 21
2160.342041959935
 31
0.0
  0
INSERT
  5
14AF5
330
148B8
100
AcDbEntity
  8
寸法
 62
     0
 48
50.0
370
    -2
100
AcDbBlockReference
  2
_DOT
 10
11091.14128209493
 20
4165.342041959934
 30
0.0
 41
20.0
 42
20.0
 43
20.0
 50
90.0
  0
INSERT
  5
14AF6
330
148B8
100
AcDbEntity
  8
寸法
 62
     0
 48
50.0
370
    -2
100
AcDbBlockReference
  2
_DOT
 10
11091.14128209493
 20
2140.342041959936
 30
0.0
 41
20.0
 42
20.0
 43
20.0
 50
270.0
  0
MTEXT
  5
14AF7
330
148B8
100
AcDbEntity
  8
寸法
 62
     7
 48
50.0
100
AcDbMText
 10
10999.12947107131
 20
3152.842041959937
 30
0.0
 40
120.0
 41
0.0
 71
     5
 72
     1
  1
\A1;有効開口部高サ2025
  7
STYLE1
 11
0.0000000000000001
 21
1.0
 31
0.0
 73
     1
 44
1.0
1001
ACAD
1000
MTEXTBEGIN
1070
    73
1070
     1
1070
    44
1040
1.0
1070
    74
1070
     0
1000
MTEXTEND
  0
POINT
  5
14AF8
330
148B8
100
AcDbEntity
  8
DEFPOINTS
 62
     0
 48
50.0
100
AcDbPoint
 10
11559.04992349219
 20
4165.342041959934
 30
0.0
  0
POINT
  5
14AF9
330
148B8
100
AcDbEntity
  8
DEFPOINTS
 62
     0
 48
50.0
100
AcDbPoint
 10
11559.04992349219
 20
2140.342041959935
 30
0.0
  0
POINT
  5
14AFA
330
148B8
100
AcDbEntity
  8
DEFPOINTS
 62
     0
 48
50.0
100
AcDbPoint
 10
11091.14128209493
 20
2140.342041959936
 30
0.0
  0
ENDBLK
  5
148C3
330
148B8
100
AcDbEntity
  8
0
 48
50.0
100
AcDbBlockEnd
  0
BLOCK
  5
14DB2
330
14DA8
100
AcDbEntity
  8
0
 48
50.0
100
AcDbBlockBegin
  2
*D27
 70
     1
 10
0.0
 20
0.0
 30
0.0
  3
*D27
  1

  0
LINE
  5
152F3
330
14DA8
100
AcDbEntity
  8
寸法
 62
     0
 48
50.0
370
    -2
100
AcDbLine
 10
2566.695515348526
 20
6963.377050186942
 30
0.0
 11
2566.695515348526
 21
6246.62422399075
 31
0.0
  0
LINE
  5
152F4
330
14DA8
100
AcDbEntity
  8
寸法
 62
     0
 48
50.0
370
    -2
100
AcDbLine
 10
3832.695515348526
 20
6963.377050186942
 30
0.0
 11
3832.695515348526
 21
6246.62422399075
 31
0.0
  0
LINE
  5
152F5
330
14DA8
100
AcDbEntity
  8
寸法
 62
     0
 48
50.0
370
    -2
100
AcDbLine
 10
2586.695515348526
 20
6286.62422399075
 30
0.0
 11
3812.695515348526
 21
6286.62422399075
 31
0.0
  0
INSERT
  5
152F6
330
14DA8
100
AcDbEntity
  8
寸法
 62
     0
 48
50.0
370
    -2
100
AcDbBlockReference
  2
_DOT
 10
2566.695515348526
 20
6286.62422399075
 30
0.0
 41
20.0
 42
20.0
 43
20.0
 50
180.0
  0
INSERT
  5
152F7
330
14DA8
100
AcDbEntity
  8
寸法
 62
     0
 48
50.0
370
    -2
100
AcDbBlockReference
  2
_DOT
 10
3832.695515348526
 20
6286.62422399075
 30
0.0
 41
20.0
 42
20.0
 43
20.0
  0
MTEXT
  5
152F8
330
14DA8
100
AcDbEntity
  8
寸法
 62
     7
 48
50.0
100
AcDbMText
 10
3227.383170944443
 20
6478.636035014371
 30
0.0
 40
120.0
 41
0.0
 71
     5
 72
     1
  1
\A1;有効開口部間口\P1266
  7
STYLE1
 73
     1
 44
1.0
1001
ACAD
1000
MTEXTBEGIN
1070
    73
1070
     1
1070
    44
1040
1.0
1070
    74
1070
     0
1000
MTEXTEND
  0
POINT
  5
152F9
330
14DA8
100
AcDbEntity
  8
DEFPOINTS
 62
     0
 48
50.0
100
AcDbPoint
 10
2566.695515348526
 20
6983.377050186942
 30
0.0
  0
POINT
  5
152FA
330
14DA8
100
AcDbEntity
  8
DEFPOINTS
 62
     0
 48
50.0
100
AcDbPoint
 10
3832.695515348526
 20
6983.377050186942
 30
0.0
  0
POINT
  5
152FB
330
14DA8
100
AcDbEntity
  8
DEFPOINTS
 62
     0
 48
50.0
100
AcDbPoint
 10
3832.695515348526
 20
6286.62422399075
 30
0.0
  0
ENDBLK
  5
14DB3
330
14DA8
100
AcDbEntity
  8
0
 48
50.0
100
AcDbBlockEnd
  0
BLOCK
  5
15164
330
15158
100
AcDbEntity
  8
0
 48
50.0
100
AcDbBlockBegin
  2
*D28
 70
     1
 10
0.0
 20
0.0
 30
0.0
  3
*D28
  1

  0
LINE
  5
152E8
330
15158
100
AcDbEntity
  8
寸法
 62
     0
 48
50.0
370
    -2
100
AcDbLine
 10
1639.695515348526
 20
7060.377050186936
 30
0.0
 11
1288.376701444477
 21
7060.377050186936
 31
0.0
  0
LINE
  5
152E9
330
15158
100
AcDbEntity
  8
寸法
 62
     0
 48
50.0
370
    -2
100
AcDbLine
 10
2507.695515348526
 20
6985.377050186909
 30
0.0
 11
1288.376701444477
 21
6985.377050186911
 31
0.0
  0
LINE
  5
152EA
330
15158
100
AcDbEntity
  8
寸法
 62
     0
 48
50.0
370
    -2
100
AcDbLine
 10
1328.376701444477
 20
7080.377050186936
 30
0.0
 11
1328.376701444477
 21
7100.377050186937
 31
0.0
  0
LINE
  5
152EB
330
15158
100
AcDbEntity
  8
寸法
 62
     0
 48
50.0
370
    -2
100
AcDbLine
 10
1328.376701444477
 20
6965.37705018691
 30
0.0
 11
1328.376701444477
 21
6744.406487438431
 31
0.0
  0
LINE
  5
152EC
330
15158
100
AcDbEntity
  8
寸法
 62
     0
 48
50.0
370
    -2
100
AcDbLine
 10
1328.376701444477
 20
7060.377050186936
 30
0.0
 11
1328.376701444477
 21
6985.377050186911
 31
0.0
  0
INSERT
  5
152ED
330
15158
100
AcDbEntity
  8
寸法
 62
     0
 48
50.0
370
    -2
100
AcDbBlockReference
  2
_DOT
 10
1328.376701444477
 20
7060.377050186936
 30
0.0
 41
20.0
 42
20.0
 43
20.0
 50
270.0
  0
INSERT
  5
152EE
330
15158
100
AcDbEntity
  8
寸法
 62
     0
 48
50.0
370
    -2
100
AcDbBlockReference
  2
_DOT
 10
1328.376701444477
 20
6985.377050186911
 30
0.0
 41
20.0
 42
20.0
 43
20.0
 50
90.0
  0
MTEXT
  5
152EF
330
15158
100
AcDbEntity
  8
寸法
 62
     7
 48
50.0
100
AcDbMText
 10
1236.376701444475
 20
6844.89176881267
 30
0.0
 40
120.0
 41
0.0
 71
     5
 72
     1
  1
\A1;75
  7
STYLE1
 11
0.0000000000000001
 21
1.0
 31
0.0
 73
     1
 44
1.0
1001
ACAD
1000
MTEXTBEGIN
1070
    73
1070
     1
1070
    44
1040
1.0
1070
    74
1070
     0
1000
MTEXTEND
  0
POINT
  5
152F0
330
15158
100
AcDbEntity
  8
DEFPOINTS
 62
     0
 48
50.0
100
AcDbPoint
 10
1659.695515348526
 20
7060.377050186936
 30
0.0
  0
POINT
  5
152F1
330
15158
100
AcDbEntity
  8
DEFPOINTS
 62
     0
 48
50.0
100
AcDbPoint
 10
2527.695515348526
 20
6985.377050186909
 30
0.0
  0
POINT
  5
152F2
330
15158
100
AcDbEntity
  8
DEFPOINTS
 62
     0
 48
50.0
100
AcDbPoint
 10
1328.376701444477
 20
6985.377050186911
 30
0.0
  0
ENDBLK
  5
15165
330
15158
100
AcDbEntity
  8
0
 48
50.0
100
AcDbBlockEnd
  0
BLOCK
  5
15170
330
15166
100
AcDbEntity
  8
0
 48
50.0
100
AcDbBlockBegin
  2
*D29
 70
     1
 10
0.0
 20
0.0
 30
0.0
  3
*D29
  1

  0
LINE
  5
152DF
330
15166
100
AcDbEntity
  8
寸法
 62
     0
 48
50.0
370
    -2
100
AcDbLine
 10
2527.695515348526
 20
6963.377050186934
 30
0.0
 11
2527.695515348526
 21
5964.42004267768
 31
0.0
  0
LINE
  5
152E0
330
15166
100
AcDbEntity
  8
寸法
 62
     0
 48
50.0
370
    -2
100
AcDbLine
 10
4681.695515348526
 20
6963.377050186934
 30
0.0
 11
4681.695515348526
 21
5964.42004267768
 31
0.0
  0
LINE
  5
152E1
330
15166
100
AcDbEntity
  8
寸法
 62
     0
 48
50.0
370
    -2
100
AcDbLine
 10
2527.695515348526
 20
6024.420042677681
 30
0.0
 11
4681.695515348526
 21
6024.420042677681
 31
0.0
  0
INSERT
  5
152E2
330
15166
100
AcDbEntity
  8
寸法
 62
     0
 48
50.0
370
    -2
100
AcDbBlockReference
  2
_DOTSMALL
 10
2527.695515348526
 20
6024.420042677681
 30
0.0
 41
100.0
 42
100.0
 43
100.0
 50
180.0
  0
INSERT
  5
152E3
330
15166
100
AcDbEntity
  8
寸法
 62
     0
 48
50.0
370
    -2
100
AcDbBlockReference
  2
_DOTSMALL
 10
4681.695515348526
 20
6024.420042677681
 30
0.0
 41
100.0
 42
100.0
 43
100.0
  0
MTEXT
  5
152E4
330
15166
100
AcDbEntity
  8
寸法
 62
     7
 48
50.0
100
AcDbMText
 10
3581.817515997383
 20
6124.431853701302
 30
0.0
 40
120.0
 41
0.0
 71
     5
 72
     1
  1
\A1;2154
  7
STYLE1
 73
     1
 44
1.0
1001
ACAD
1000
MTEXTBEGIN
1070
    73
1070
     1
1070
    44
1040
1.0
1070
    74
1070
     0
1000
MTEXTEND
  0
POINT
  5
152E5
330
15166
100
AcDbEntity
  8
DEFPOINTS
 62
     0
 48
50.0
100
AcDbPoint
 10
2527.695515348526
 20
6983.377050186935
 30
0.0
  0
POINT
  5
152E6
330
15166
100
AcDbEntity
  8
DEFPOINTS
 62
     0
 48
50.0
100
AcDbPoint
 10
4681.695515348526
 20
6983.377050186935
 30
0.0
  0
POINT
  5
152E7
330
15166
100
AcDbEntity
  8
DEFPOINTS
 62
     0
 48
50.0
100
AcDbPoint
 10
4681.695515348526
 20
6024.420042677681
 30
0.0
  0
ENDBLK
  5
15171
330
15166
100
AcDbEntity
  8
0
 48
50.0
100
AcDbBlockEnd
  0
BLOCK
  5
151A0
330
15196
100
AcDbEntity
  8
0
 48
50.0
100
AcDbBlockBegin
  2
*D30
 70
     1
 10
0.0
 20
0.0
 30
0.0
  3
*D30
  1

  0
LINE
  5
152D6
330
15196
100
AcDbEntity
  8
寸法
 62
     0
 48
50.0
370
    -2
100
AcDbLine
 10
5129.695515348525
 20
7095.377050186932
 30
0.0
 11
5129.695515348525
 21
5695.29509268409
 31
0.0
  0
LINE
  5
152D7
330
15196
100
AcDbEntity
  8
寸法
 62
     0
 48
50.0
370
    -2
100
AcDbLine
 10
8599.695515348525
 20
7040.377050186937
 30
0.0
 11
8599.695515348525
 21
5695.29509268409
 31
0.0
  0
LINE
  5
152D8
330
15196
100
AcDbEntity
  8
寸法
 62
     0
 48
50.0
370
    -2
100
AcDbLine
 10
5149.695515348525
 20
5735.29509268409
 30
0.0
 11
8579.695515348525
 21
5735.29509268409
 31
0.0
  0
INSERT
  5
152D9
330
15196
100
AcDbEntity
  8
寸法
 62
     0
 48
50.0
370
    -2
100
AcDbBlockReference
  2
_DOT
 10
5129.695515348525
 20
5735.29509268409
 30
0.0
 41
20.0
 42
20.0
 43
20.0
 50
180.0
  0
INSERT
  5
152DA
330
15196
100
AcDbEntity
  8
寸法
 62
     0
 48
50.0
370
    -2
100
AcDbBlockReference
  2
_DOT
 10
8599.695515348525
 20
5735.29509268409
 30
0.0
 41
20.0
 42
20.0
 43
20.0
  0
MTEXT
  5
152DB
330
15196
100
AcDbEntity
  8
寸法
 62
     7
 48
50.0
100
AcDbMText
 10
6864.695515348525
 20
5827.29509268409
 30
0.0
 40
120.0
 41
0.0
 71
     5
 72
     1
  1
\A1;3470
  7
STYLE1
 73
     1
 44
1.0
1001
ACAD
1000
MTEXTBEGIN
1070
    73
1070
     1
1070
    44
1040
1.0
1070
    74
1070
     0
1000
MTEXTEND
  0
POINT
  5
152DC
330
15196
100
AcDbEntity
  8
DEFPOINTS
 62
     0
 48
50.0
100
AcDbPoint
 10
5129.695515348525
 20
7115.377050186933
 30
0.0
  0
POINT
  5
152DD
330
15196
100
AcDbEntity
  8
DEFPOINTS
 62
     0
 48
50.0
100
AcDbPoint
 10
8599.695515348525
 20
7060.377050186936
 30
0.0
  0
POINT
  5
152DE
330
15196
100
AcDbEntity
  8
DEFPOINTS
 62
     0
 48
50.0
100
AcDbPoint
 10
8599.695515348525
 20
5735.29509268409
 30
0.0
  0
ENDBLK
  5
151A1
330
15196
100
AcDbEntity
  8
0
 48
50.0
100
AcDbBlockEnd
  0
BLOCK
  5
151BA
330
151B0
100
AcDbEntity
  8
0
 48
50.0
100
AcDbBlockBegin
  2
*D31
 70
     1
 10
0.0
 20
0.0
 30
0.0
  3
*D31
  1

  0
LINE
  5
152CD
330
151B0
100
AcDbEntity
  8
寸法
 62
     0
 48
50.0
370
    -2
100
AcDbLine
 10
1659.695515348525
 20
7040.377050186937
 30
0.0
 11
1659.695515348525
 21
5695.29509268409
 31
0.0
  0
LINE
  5
152CE
330
151B0
100
AcDbEntity
  8
寸法
 62
     0
 48
50.0
370
    -2
100
AcDbLine
 10
5129.695515348525
 20
7095.377050186937
 30
0.0
 11
5129.695515348525
 21
5695.29509268409
 31
0.0
  0
LINE
  5
152CF
330
151B0
100
AcDbEntity
  8
寸法
 62
     0
 48
50.0
370
    -2
100
AcDbLine
 10
1679.695515348525
 20
5735.29509268409
 30
0.0
 11
5109.695515348525
 21
5735.29509268409
 31
0.0
  0
INSERT
  5
152D0
330
151B0
100
AcDbEntity
  8
寸法
 62
     0
 48
50.0
370
    -2
100
AcDbBlockReference
  2
_DOT
 10
1659.695515348525
 20
5735.29509268409
 30
0.0
 41
20.0
 42
20.0
 43
20.0
 50
180.0
  0
INSERT
  5
152D1
330
151B0
100
AcDbEntity
  8
寸法
 62
     0
 48
50.0
370
    -2
100
AcDbBlockReference
  2
_DOT
 10
5129.695515348525
 20
5735.29509268409
 30
0.0
 41
20.0
 42
20.0
 43
20.0
  0
MTEXT
  5
152D2
330
151B0
100
AcDbEntity
  8
寸法
 62
     7
 48
50.0
100
AcDbMText
 10
3394.695515348525
 20
5827.29509268409
 30
0.0
 40
120.0
 41
0.0
 71
     5
 72
     1
  1
\A1;3470
  7
STYLE1
 73
     1
 44
1.0
1001
ACAD
1000
MTEXTBEGIN
1070
    73
1070
     1
1070
    44
1040
1.0
1070
    74
1070
     0
1000
MTEXTEND
  0
POINT
  5
152D3
330
151B0
100
AcDbEntity
  8
DEFPOINTS
 62
     0
 48
50.0
100
AcDbPoint
 10
1659.695515348525
 20
7060.377050186936
 30
0.0
  0
POINT
  5
152D4
330
151B0
100
AcDbEntity
  8
DEFPOINTS
 62
     0
 48
50.0
100
AcDbPoint
 10
5129.695515348525
 20
7115.377050186937
 30
0.0
  0
POINT
  5
152D5
330
151B0
100
AcDbEntity
  8
DEFPOINTS
 62
     0
 48
50.0
100
AcDbPoint
 10
5129.695515348525
 20
5735.29509268409
 30
0.0
  0
ENDBLK
  5
151BB
330
151B0
100
AcDbEntity
  8
0
 48
50.0
100
AcDbBlockEnd
  0
ENDSEC
  0
SECTION
  2
ENTITIES
  0
MTEXT
  5
763F
330
747D
100
AcDbEntity
  8
0
100
AcDbMText
 10
302.846345836809
 20
280.1983726409901
 30
0.0
 40
3.5
 41
5.323721266742722
 71
     1
 72
     5
  1

  7
MSMINCHO
 73
     1
 44
1.0
1001
ACAD
1000
MTEXTBEGIN
1070
    73
1070
     1
1070
    44
1040
1.0
1070
    74
1070
     0
1000
MTEXTEND
  0
INSERT
  5
F235
330
747D
100
AcDbEntity
  8
0
100
AcDbBlockReference
  2
作図枠S50
 10
0.0
 20
0.0
 30
0.0
 41
0.8
 42
0.8
 43
0.8
  0
LINE
  5
10B56
330
747D
100
AcDbEntity
  8
補助
  6
PHANTOM
 62
   230
 48
50.0
100
AcDbLine
 10
140.0
 20
0.0
 30
0.0
 11
139.9999999999995
 21
11409.6
 31
0.0
  0
LINE
  5
10B57
330
747D
100
AcDbEntity
  8
補助
  6
PHANTOM
 62
   230
 48
50.0
100
AcDbLine
 10
139.9999999999995
 20
11409.6
 30
0.0
 11
16307.2
 21
11409.6
 31
0.0
  0
LINE
  5
10B59
330
747D
100
AcDbEntity
  8
仕様書枠
  6
Continuous
 48
50.0
100
AcDbLine
 10
13107.2
 20
1200.0
 30
0.0
 11
13107.2
 21
-0.0000000000000729
 31
0.0
  0
LINE
  5
10B5C
330
747D
100
AcDbEntity
  8
仕様書枠
 48
50.0
100
AcDbLine
 10
16307.2
 20
1200.0
 30
0.0
 11
16307.2
 21
-0.0000000000000909
 31
0.0
  0
LINE
  5
10B5D
330
747D
100
AcDbEntity
  8
仕様書枠
 48
50.0
100
AcDbLine
 10
140.0
 20
0.0
 30
0.0
 11
16307.2
 21
-0.0000000000000909
 31
0.0
  0
LINE
  5
10B5E
330
747D
100
AcDbEntity
  8
補助
  6
PHANTOM
 62
   230
 48
50.0
100
AcDbLine
 10
16307.2
 20
11409.6
 30
0.0
 11
16307.2
 21
1200.0
 31
0.0
  0
LINE
  5
10B6C
330
747D
100
AcDbEntity
  8
仕様書枠
 48
50.0
100
AcDbLine
 10
13107.2
 20
1200.0
 30
0.0
 11
16307.2
 21
1200.0
 31
0.0
  0
LINE
  5
10B6D
330
747D
100
AcDbEntity
  8
補助
  6
PHANTOM
 62
   230
 48
50.0
100
AcDbLine
 10
13107.2
 20
11409.6
 30
0.0
 11
13107.2
 21
4800.0
 31
0.0
  0
LINE
  5
10B6F
330
747D
100
AcDbEntity
  8
補助
  6
PHANTOM
 62
   230
 48
50.0
100
AcDbLine
 10
13107.2
 20
4800.0
 30
0.0
 11
16307.2
 21
4800.0
 31
0.0
  0
LINE
  5
10B72
330
747D
100
AcDbEntity
  8
文字
 62
     7
 48
50.0
100
AcDbLine
 10
13187.2
 20
400.0
 30
0.0
 11
16227.2
 21
400.0
 31
0.0
  0
TEXT
  5
10B73
330
747D
100
AcDbEntity
  8
文字
 62
     7
 48
50.0
100
AcDbText
 10
13162.9790565769
 20
895.0906074299405
 30
0.0
 40
200.0
  1
外 形 図
  7
STYLE2
100
AcDbText
  0
TEXT
  5
10B74
330
747D
100
AcDbEntity
  8
文字
 62
     7
 48
50.0
100
AcDbText
 10
13201.43669998441
 20
477.2740661031255
 30
0.0
 40
160.0
  1
機種名
  7
STYLE2
100
AcDbText
  0
TEXT
  5
10B76
330
747D
100
AcDbEntity
  8
文字
 62
     7
 48
50.0
100
AcDbText
 10
13209.4053442172
 20
76.09434707649343
 30
0.0
 40
100.0
  1
○床面積 ： 24.24㎡(7.35坪) 　
  7
STYLE2
100
AcDbText
  0
TEXT
  5
10B79
330
747D
100
AcDbEntity
  8
文字
 62
     7
 48
50.0
100
AcDbText
 10
14524.131837222
 20
1031.557706291228
 30
0.0
 40
100.0
  1
NO.34     <縮尺> S=1/40
  7
STYLE2
100
AcDbText
  0
LINE
  5
10B7B
330
747D
100
AcDbEntity
  8
仕様書枠
 48
50.0
100
AcDbLine
 10
13107.2
 20
800.0
 30
0.0
 11
14251.2
 21
800.0
 31
0.0
  0
LINE
  5
10B88
330
747D
100
AcDbEntity
  8
仕様書枠
  6
Continuous
 48
50.0
100
AcDbLine
 10
14251.2
 20
1200.0
 30
0.0
 11
14251.2
 21
800.0
 31
0.0
  0
TEXT
  5
10EA8
330
747D
100
AcDbEntity
  8
文字
 62
     7
 48
50.0
100
AcDbText
 10
14851.62318972916
 20
838.2527270729188
 30
0.0
 40
100.0
  1
～一般型～
  7
STYLE2
100
AcDbText
  0
LINE
  5
13EE8
330
747D
100
AcDbEntity
  8
部品1
100
AcDbLine
 10
8571.695515348526
 20
9635.37705018694
 30
0.0
 11
8599.695515348525
 21
9635.37705018694
 31
0.0
  0
LINE
  5
13EE9
330
747D
100
AcDbEntity
  8
部品1
100
AcDbLine
 10
5184.695515348526
 20
9635.377050186939
 30
0.0
 11
8544.695515348525
 21
9635.377050186939
 31
0.0
  0
LINE
  5
13EEA
330
747D
100
AcDbEntity
  8
部品1
100
AcDbLine
 10
1687.695515348525
 20
9635.37705018694
 30
0.0
 11
1659.695515348525
 21
9635.37705018694
 31
0.0
  0
LINE
  5
13EEB
330
747D
100
AcDbEntity
  8
部品1
100
AcDbLine
 10
5074.695515348522
 20
9635.377050186939
 30
0.0
 11
1714.695515348525
 21
9635.377050186935
 31
0.0
  0
DIMENSION
  5
13EEC
330
747D
100
AcDbEntity
  8
寸法
 48
50.0
100
AcDbDimension
  2
*D7
 10
8599.695515348525
 20
10805.08946020573
 30
0.0
 11
8993.86218201519
 21
10805.08946020573
 31
0.0
 70
   160
 71
     5
 42
55.0
  3
INABA_S40
100
AcDbAlignedDimension
 13
8544.695515348525
 23
10530.37705018694
 33
0.0
 14
8599.695515348525
 24
10530.37705018693
 34
0.0
100
AcDbRotatedDimension
1001
ACAD
1000
DSTYLE
1002
{
1070
    41
1040
0.5
1070
    44
1040
1.0
1070
   147
1040
0.8
1070
   271
1070
     2
1070
   272
1070
     2
1070
   289
1070
     3
1070
   340
1005
F706
1070
   343
1005
F744
1070
   344
1005
F744
1002
}
  0
DIMENSION
  5
13EED
330
747D
100
AcDbEntity
  8
寸法
 48
50.0
100
AcDbDimension
  2
*D8
 10
9670.442632392878
 20
7060.377050186936
 30
0.0
 11
9578.442632392876
 21
8795.377050186939
 31
0.0
 70
    32
 71
     5
 42
3470.0
  3
INABA_S40
100
AcDbAlignedDimension
 13
8599.695515348525
 23
10530.37705018693
 33
0.0
 14
8599.695515348525
 24
7060.377050186936
 34
0.0
 50
90.0
100
AcDbRotatedDimension
1001
ACAD
1000
DSTYLE
1002
{
1070
    41
1040
0.5
1070
    44
1040
1.0
1070
   147
1040
0.8
1070
   271
1070
     2
1070
   272
1070
     2
1070
   289
1070
     3
1070
   340
1005
F706
1070
   343
1005
F744
1070
   344
1005
F744
1002
}
  0
DIMENSION
  5
13EEE
330
747D
100
AcDbEntity
  8
寸法
 48
50.0
100
AcDbDimension
  2
*D9
 10
9370.44263239288
 20
7060.377050186936
 30
0.0
 11
9370.442632392878
 21
6666.210383520271
 31
0.0
 70
   160
 71
     5
 42
54.99999999999636
  3
INABA_S40
100
AcDbAlignedDimension
 13
8599.695515348525
 23
7115.377050186933
 33
0.0
 14
8599.695515348525
 24
7060.377050186936
 34
0.0
 50
90.0
100
AcDbRotatedDimension
1001
ACAD
1000
DSTYLE
1002
{
1070
    41
1040
0.5
1070
    44
1040
1.0
1070
   147
1040
0.8
1070
   271
1070
     2
1070
   272
1070
     2
1070
   289
1070
     3
1070
   340
1005
F706
1070
   343
1005
F744
1070
   344
1005
F744
1002
}
  0
DIMENSION
  5
13EEF
330
747D
100
AcDbEntity
  8
寸法
 48
50.0
100
AcDbDimension
  2
*D10
 10
9370.442632392878
 20
7115.377050186933
 30
0.0
 11
9278.430821369255
 21
8795.377050186939
 31
0.0
 70
    32
  1
8X420=<>
 71
     5
 42
3360.000000000007
  3
INABA_S40
100
AcDbAlignedDimension
 13
8599.695515348525
 23
10475.37705018694
 33
0.0
 14
8599.695515348525
 24
7115.377050186933
 34
0.0
 50
90.0
100
AcDbRotatedDimension
1001
ACAD
1000
DSTYLE
1002
{
1070
    41
1040
0.5
1070
    44
1040
1.0
1070
   147
1040
0.8
1070
   271
1070
     2
1070
   272
1070
     2
1070
   289
1070
     3
1070
   340
1005
F706
1070
   343
1005
F744
1070
   344
1005
F744
1002
}
  0
DIMENSION
  5
13EF0
330
747D
100
AcDbEntity
  8
寸法
 48
50.0
100
AcDbDimension
  2
*D11
 10
9370.44263239288
 20
10475.37705018694
 30
0.0
 11
9370.442632392878
 21
10924.5437168536
 31
0.0
 70
   160
 71
     5
 42
54.99999999999636
  3
INABA_S40
100
AcDbAlignedDimension
 13
8599.695515348525
 23
10530.37705018693
 33
0.0
 14
8599.695515348525
 24
10475.37705018694
 34
0.0
 50
90.0
100
AcDbRotatedDimension
1001
ACAD
1000
DSTYLE
1002
{
1070
    41
1040
0.5
1070
    44
1040
1.0
1070
   147
1040
0.8
1070
   271
1070
     2
1070
   272
1070
     2
1070
   289
1070
     3
1070
   340
1005
F706
1070
   343
1005
F744
1070
   344
1005
F744
1002
}
  0
LINE
  5
13EF1
330
747D
100
AcDbEntity
  8
Ｇ．Ｌ
 48
50.0
100
AcDbLine
 10
395.8281281223826
 20
1974.342041959935
 30
0.0
 11
16054.68797572656
 21
1974.342041959935
 31
0.0
  0
LINE
  5
13EF2
330
747D
100
AcDbEntity
  8
部品1
100
AcDbLine
 10
1659.695515348525
 20
4214.342041959935
 30
0.0
 11
8599.695515348525
 21
4214.342041959935
 31
0.0
  0
LINE
  5
13EF3
330
747D
100
AcDbEntity
  8
部品1
100
AcDbLine
 10
1659.695515348525
 20
2074.342041959935
 30
0.0
 11
8599.695515348525
 21
2074.342041959935
 31
0.0
  0
LINE
  5
13EF4
330
747D
100
AcDbEntity
  8
部品1
100
AcDbLine
 10
2134.695515348525
 20
4214.342041959935
 30
0.0
 11
2134.695515348525
 21
2124.342041959935
 31
0.0
  0
LINE
  5
13EF5
330
747D
100
AcDbEntity
  8
部品1
100
AcDbLine
 10
1714.695515348525
 20
4214.342041959935
 30
0.0
 11
1714.695515348525
 21
2124.342041959935
 31
0.0
  0
LINE
  5
13EF6
330
747D
100
AcDbEntity
  8
部品1
100
AcDbLine
 10
1659.695515348525
 20
4308.342041959939
 30
0.0
 11
1659.695515348525
 21
1974.342041959935
 31
0.0
  0
TEXT
  5
13EF7
330
747D
100
AcDbEntity
  8
部品1
100
AcDbText
 10
826.7648200007897
 20
1989.183746830924
 30
0.0
 40
125.0
  1
G.L
  7
MSGOTHIC
100
AcDbText
  0
LINE
  5
13EF8
330
747D
100
AcDbEntity
  8
部品1
100
AcDbLine
 10
684.280866300971
 20
2078.265090414066
 30
0.0
 11
804.280866300971
 21
2078.265090414066
 31
0.0
  0
LINE
  5
13EF9
330
747D
100
AcDbEntity
  8
部品1
100
AcDbLine
 10
804.280866300971
 20
2078.265090414066
 30
0.0
 11
744.2808663009709
 21
1974.342041959935
 31
0.0
  0
LINE
  5
13EFA
330
747D
100
AcDbEntity
  8
部品1
100
AcDbLine
 10
744.2808663009709
 20
1974.342041959935
 30
0.0
 11
684.280866300971
 21
2078.265090414066
 31
0.0
  0
LINE
  5
13EFB
330
747D
100
AcDbEntity
  8
部品1
 48
50.0
100
AcDbLine
 10
2527.695515348525
 20
2124.342041959935
 30
0.0
 11
1659.695515348525
 21
2124.342041959935
 31
0.0
  0
LINE
  5
13EFC
330
747D
100
AcDbEntity
  8
部品1
 48
50.0
100
AcDbLine
 10
5129.695515348525
 20
2124.342041959935
 30
0.0
 11
8599.695515348525
 21
2124.342041959935
 31
0.0
  0
LINE
  5
13EFD
330
747D
100
AcDbEntity
  8
部品1
100
AcDbLine
 10
5184.695515348526
 20
4214.342041959935
 30
0.0
 11
5184.695515348526
 21
2124.342041959935
 31
0.0
  0
LINE
  5
13EFE
330
747D
100
AcDbEntity
  8
部品1
100
AcDbLine
 10
5604.695515348525
 20
4214.342041959935
 30
0.0
 11
5604.695515348525
 21
2124.342041959935
 31
0.0
  0
LINE
  5
13EFF
330
747D
100
AcDbEntity
  8
部品1
100
AcDbLine
 10
5074.695515348525
 20
4214.342041959935
 30
0.0
 11
5074.695515348525
 21
2124.342041959935
 31
0.0
  0
LINE
  5
13F00
330
747D
100
AcDbEntity
  8
部品1
 48
50.0
100
AcDbLine
 10
5129.695515348525
 20
2124.342041959935
 30
0.0
 11
4681.695515348525
 21
2124.342041959935
 31
0.0
  0
LINE
  5
13F01
330
747D
100
AcDbEntity
  8
部品1
100
AcDbLine
 10
5129.695515348525
 20
2124.342041959935
 30
0.0
 11
5129.695515348518
 21
2074.342041959935
 31
0.0
  0
LINE
  5
13F02
330
747D
100
AcDbEntity
  8
部品1
100
AcDbLine
 10
5129.695515348525
 20
4214.342041959935
 30
0.0
 11
5129.695515348525
 21
4308.34204195994
 31
0.0
  0
LINE
  5
13F03
330
747D
100
AcDbEntity
  8
部品1
100
AcDbLine
 10
7704.695515348539
 20
4214.342041959935
 30
0.0
 11
7704.695515348536
 21
2124.342041959935
 31
0.0
  0
LINE
  5
13F04
330
747D
100
AcDbEntity
  8
部品1
100
AcDbLine
 10
7284.695515348538
 20
4214.342041959935
 30
0.0
 11
7284.695515348537
 21
2124.342041959935
 31
0.0
  0
LINE
  5
13F05
330
747D
100
AcDbEntity
  8
部品1
100
AcDbLine
 10
6864.695515348538
 20
4214.342041959935
 30
0.0
 11
6864.695515348536
 21
2124.342041959935
 31
0.0
  0
LINE
  5
13F06
330
747D
100
AcDbEntity
  8
部品1
100
AcDbLine
 10
6444.695515348525
 20
4214.342041959935
 30
0.0
 11
6444.695515348524
 21
2124.342041959935
 31
0.0
  0
LINE
  5
13F07
330
747D
100
AcDbEntity
  8
部品1
100
AcDbLine
 10
6024.695515348525
 20
4214.342041959935
 30
0.0
 11
6024.695515348525
 21
2124.342041959935
 31
0.0
  0
LINE
  5
13F08
330
747D
100
AcDbEntity
  8
部品1
100
AcDbLine
 10
8124.695515348525
 20
4214.342041959936
 30
0.0
 11
8124.695515348511
 21
2124.342041959935
 31
0.0
  0
LINE
  5
13F09
330
747D
100
AcDbEntity
  8
部品1
100
AcDbLine
 10
8544.695515348525
 20
4214.342041959935
 30
0.0
 11
8544.695515348523
 21
2124.342041959935
 31
0.0
  0
LINE
  5
13F0A
330
747D
100
AcDbEntity
  8
部品1
100
AcDbLine
 10
8599.695515348525
 20
4308.34204195994
 30
0.0
 11
8599.695515348525
 21
1974.342041959935
 31
0.0
  0
LINE
  5
13F0B
330
747D
100
AcDbEntity
  8
破線
  6
HIDDEN
 48
10.0
100
AcDbLine
 10
2586.695515348522
 20
10451.87705018694
 30
0.0
 11
3369.695515348521
 21
10451.87705018694
 31
0.0
  0
LINE
  5
13F0C
330
747D
100
AcDbEntity
  8
破線
  6
HIDDEN
 48
10.0
100
AcDbLine
 10
2586.695515348518
 20
7138.877050186934
 30
0.0
 11
3369.695515348518
 21
7138.877050186938
 31
0.0
  0
LINE
  5
13F0D
330
747D
100
AcDbEntity
  8
部品1
100
AcDbLine
 10
5074.695515348522
 20
9215.377050186939
 30
0.0
 11
1714.695515348525
 21
9215.377050186935
 31
0.0
  0
LINE
  5
13F0E
330
747D
100
AcDbEntity
  8
部品1
100
AcDbLine
 10
1714.695515348521
 20
10475.37705018694
 30
0.0
 11
5074.695515348525
 21
10475.37705018694
 31
0.0
  0
LINE
  5
13F0F
330
747D
100
AcDbEntity
  8
部品1
100
AcDbLine
 10
2974.695515348525
 20
10502.37705018694
 30
0.0
 11
1687.695515348525
 21
10502.37705018694
 31
0.0
  0
LINE
  5
13F10
330
747D
100
AcDbEntity
  8
部品1
100
AcDbLine
 10
5074.695515348525
 20
7535.377050186939
 30
0.0
 11
1714.695515348525
 21
7535.377050186935
 31
0.0
  0
LINE
  5
13F11
330
747D
100
AcDbEntity
  8
部品1
100
AcDbLine
 10
5074.695515348525
 20
7955.377050186938
 30
0.0
 11
1714.695515348525
 21
7955.377050186935
 31
0.0
  0
LINE
  5
13F12
330
747D
100
AcDbEntity
  8
部品1
100
AcDbLine
 10
5074.695515348525
 20
8375.377050186939
 30
0.0
 11
1714.695515348525
 21
8375.377050186935
 31
0.0
  0
LINE
  5
13F13
330
747D
100
AcDbEntity
  8
部品1
100
AcDbLine
 10
5074.695515348525
 20
8795.377050186939
 30
0.0
 11
1714.695515348525
 21
8795.377050186935
 31
0.0
  0
LINE
  5
13F14
330
747D
100
AcDbEntity
  8
部品1
100
AcDbLine
 10
5129.695515348525
 20
10530.37705018693
 30
0.0
 11
1659.695515348525
 21
10530.37705018693
 31
0.0
  0
LINE
  5
13F15
330
747D
100
AcDbEntity
  8
部品1
100
AcDbLine
 10
1714.695515348521
 20
7115.377050186939
 30
0.0
 11
5074.695515348525
 21
7115.377050186933
 31
0.0
  0
LINE
  5
13F16
330
747D
100
AcDbEntity
  8
部品1
100
AcDbLine
 10
1687.695515348525
 20
7088.377050186936
 30
0.0
 11
5101.695515348525
 21
7088.377050186939
 31
0.0
  0
DIMENSION
  5
13F17
330
747D
100
AcDbEntity
  8
寸法
 48
50.0
100
AcDbDimension
  2
*D12
 10
8599.695515348525
 20
11105.08946020573
 30
0.0
 11
5129.695515348525
 21
11197.08946020573
 31
0.0
 70
    32
 71
     5
 42
6940.0
  3
INABA_S40
100
AcDbAlignedDimension
 13
1659.695515348525
 23
10530.37705018693
 33
0.0
 14
8599.695515348525
 24
10530.37705018693
 34
0.0
100
AcDbRotatedDimension
1001
ACAD
1000
DSTYLE
1002
{
1070
    41
1040
0.5
1070
    44
1040
1.0
1070
   147
1040
0.8
1070
   271
1070
     2
1070
   272
1070
     2
1070
   289
1070
     3
1070
   340
1005
F706
1070
   343
1005
F744
1070
   344
1005
F744
1002
}
  0
DIMENSION
  5
13F18
330
747D
100
AcDbEntity
  8
寸法
 48
50.0
100
AcDbDimension
  2
*D13
 10
5074.695515348525
 20
10805.08946020573
 30
0.0
 11
3394.695515348525
 21
10897.10127122935
 31
0.0
 70
    32
  1
8X420=<>
 71
     5
 42
3360.0
  3
INABA_S40
100
AcDbAlignedDimension
 13
1714.695515348525
 23
10530.37705018694
 33
0.0
 14
5074.695515348525
 24
10530.37705018694
 34
0.0
100
AcDbRotatedDimension
1001
ACAD
1000
DSTYLE
1002
{
1070
    41
1040
0.5
1070
    44
1040
1.0
1070
   147
1040
0.8
1070
   271
1070
     2
1070
   272
1070
     2
1070
   289
1070
     3
1070
   340
1005
F706
1070
   343
1005
F744
1070
   344
1005
F744
1002
}
  0
LINE
  5
13F1A
330
747D
100
AcDbEntity
  8
破線
  6
HIDDEN
 48
10.0
100
AcDbLine
 10
2586.695515348522
 20
10475.37705018694
 30
0.0
 11
2586.695515348518
 21
7115.377050186937
 31
0.0
  0
LINE
  5
13F1B
330
747D
100
AcDbEntity
  8
破線
  6
HIDDEN
 48
10.0
100
AcDbLine
 10
2536.695515348522
 20
10475.37705018694
 30
0.0
 11
2536.695515348518
 21
7115.377050186939
 31
0.0
  0
LINE
  5
13F1C
330
747D
100
AcDbEntity
  8
部品1
100
AcDbLine
 10
1714.695515348532
 20
10475.37705018694
 30
0.0
 11
1714.695515348521
 21
7115.377050186939
 31
0.0
  0
LINE
  5
13F1D
330
747D
100
AcDbEntity
  8
破線
  6
HIDDEN
 48
10.0
100
AcDbLine
 10
1738.195515348532
 20
10451.87705018694
 30
0.0
 11
1738.195515348521
 21
7138.877050186938
 31
0.0
  0
LINE
  5
13F1E
330
747D
100
AcDbEntity
  8
部品1
100
AcDbLine
 10
1659.695515348525
 20
10530.37705018693
 30
0.0
 11
1659.695515348525
 21
7060.377050186936
 31
0.0
  0
LINE
  5
13F1F
330
747D
100
AcDbEntity
  8
部品1
100
AcDbLine
 10
1687.695515348525
 20
10502.37705018694
 30
0.0
 11
1687.695515348525
 21
9013.377050186939
 31
0.0
  0
LINE
  5
13F20
330
747D
100
AcDbEntity
  8
部品1
100
AcDbLine
 10
1687.695515348525
 20
9215.37705018694
 30
0.0
 11
1687.695515348525
 21
7088.377050186936
 31
0.0
  0
LINE
  5
13F21
330
747D
100
AcDbEntity
  8
破線
  6
HIDDEN
 48
10.0
100
AcDbLine
 10
1738.195515348521
 20
7138.877050186938
 30
0.0
 11
2536.695515348518
 21
7138.877050186938
 31
0.0
  0
LINE
  5
13F22
330
747D
100
AcDbEntity
  8
部品1
100
AcDbLine
 10
1659.695515348525
 20
7060.377050186936
 30
0.0
 11
2554.695515348525
 21
7060.377050186935
 31
0.0
  0
LINE
  5
13F23
330
747D
100
AcDbEntity
  8
部品1
 48
50.0
100
AcDbLine
 10
1687.695515348525
 20
7088.377050186936
 30
0.0
 11
1714.695515348521
 21
7115.377050186939
 31
0.0
  0
LINE
  5
13F24
330
747D
100
AcDbEntity
  8
部品1
100
AcDbLine
 10
1714.695515348525
 20
7060.377050186935
 30
0.0
 11
1714.695515348525
 21
7088.377050186936
 31
0.0
  0
LINE
  5
13F25
330
747D
100
AcDbEntity
  8
部品1
100
AcDbLine
 10
1687.695515348525
 20
7115.377050186933
 30
0.0
 11
1659.695515348525
 21
7115.377050186933
 31
0.0
  0
LINE
  5
13F26
330
747D
100
AcDbEntity
  8
部品1
100
AcDbLine
 10
2134.695515348525
 20
7088.377050186939
 30
0.0
 11
2134.695515348525
 21
7060.377050186936
 31
0.0
  0
LINE
  5
13F27
330
747D
100
AcDbEntity
  8
部品1
100
AcDbLine
 10
2554.695515348525
 20
7060.377050186942
 30
0.0
 11
2554.695515348525
 21
7088.377050186943
 31
0.0
  0
LINE
  5
13F28
330
747D
100
AcDbEntity
  8
部品1
100
AcDbLine
 10
2554.695515348525
 20
7060.377050186935
 30
0.0
 11
2554.695515348525
 21
7088.377050186936
 31
0.0
  0
LINE
  5
13F29
330
747D
100
AcDbEntity
  8
部品1
100
AcDbLine
 10
1687.695515348525
 20
7535.377050186941
 30
0.0
 11
1659.695515348525
 21
7535.377050186941
 31
0.0
  0
LINE
  5
13F2A
330
747D
100
AcDbEntity
  8
部品1
100
AcDbLine
 10
1687.695515348525
 20
7955.377050186941
 30
0.0
 11
1659.695515348525
 21
7955.377050186941
 31
0.0
  0
LINE
  5
13F2B
330
747D
100
AcDbEntity
  8
部品1
100
AcDbLine
 10
1687.695515348525
 20
8375.377050186941
 30
0.0
 11
1659.695515348525
 21
8375.377050186941
 31
0.0
  0
LINE
  5
13F2C
330
747D
100
AcDbEntity
  8
部品1
100
AcDbLine
 10
1687.695515348525
 20
8795.377050186941
 30
0.0
 11
1659.695515348525
 21
8795.377050186941
 31
0.0
  0
LINE
  5
13F2D
330
747D
100
AcDbEntity
  8
部品1
100
AcDbLine
 10
1687.695515348525
 20
9215.37705018694
 30
0.0
 11
1659.695515348525
 21
9215.37705018694
 31
0.0
  0
LINE
  5
13F2E
330
747D
100
AcDbEntity
  8
破線
  6
HIDDEN
 48
10.0
100
AcDbLine
 10
1738.195515348521
 20
10451.87705018694
 30
0.0
 11
2536.695515348525
 21
10451.87705018694
 31
0.0
  0
DIMENSION
  5
13F2F
330
747D
100
AcDbEntity
  8
寸法
 48
50.0
100
AcDbDimension
  2
*D14
 10
1714.695515348525
 20
10805.08946020573
 30
0.0
 11
1265.528848681861
 21
10805.08946020573
 31
0.0
 70
   160
 71
     5
 42
55.0
  3
INABA_S40
100
AcDbAlignedDimension
 13
1659.695515348525
 23
10530.37705018693
 33
0.0
 14
1714.695515348525
 24
10530.37705018694
 34
0.0
100
AcDbRotatedDimension
1001
ACAD
1000
DSTYLE
1002
{
1070
    41
1040
0.5
1070
    44
1040
1.0
1070
   147
1040
0.8
1070
   271
1070
     2
1070
   272
1070
     2
1070
   289
1070
     3
1070
   340
1005
F706
1070
   343
1005
F744
1070
   344
1005
F744
1002
}
  0
LINE
  5
13F30
330
747D
100
AcDbEntity
  8
部品1
 48
50.0
100
AcDbLine
 10
1687.695515348525
 20
10502.37705018694
 30
0.0
 11
1714.695515348521
 21
10475.37705018694
 31
0.0
  0
LINE
  5
13F31
330
747D
100
AcDbEntity
  8
部品1
100
AcDbLine
 10
1714.695515348525
 20
10530.37705018694
 30
0.0
 11
1714.695515348525
 21
10502.37705018693
 31
0.0
  0
LINE
  5
13F32
330
747D
100
AcDbEntity
  8
部品1
100
AcDbLine
 10
1687.695515348525
 20
10475.37705018694
 30
0.0
 11
1659.695515348525
 21
10475.37705018694
 31
0.0
  0
LINE
  5
13F33
330
747D
100
AcDbEntity
  8
部品1
100
AcDbLine
 10
2134.695515348525
 20
10530.37705018694
 30
0.0
 11
2134.695515348525
 21
10502.37705018693
 31
0.0
  0
LINE
  5
13F34
330
747D
100
AcDbEntity
  8
部品1
100
AcDbLine
 10
2554.695515348525
 20
10530.37705018694
 30
0.0
 11
2554.695515348525
 21
10502.37705018693
 31
0.0
  0
LINE
  5
13F35
330
747D
100
AcDbEntity
  8
破線
  6
HIDDEN
 48
10.0
100
AcDbLine
 10
7722.695515348525
 20
10475.37705018694
 30
0.0
 11
7722.695515348523
 21
7115.377050186937
 31
0.0
  0
LINE
  5
13F36
330
747D
100
AcDbEntity
  8
破線
  6
HIDDEN
 48
10.0
100
AcDbLine
 10
7672.695515348525
 20
10475.37705018694
 30
0.0
 11
7672.695515348523
 21
7115.377050186937
 31
0.0
  0
LINE
  5
13F37
330
747D
100
AcDbEntity
  8
破線
  6
HIDDEN
 48
10.0
100
AcDbLine
 10
6056.695515348526
 20
10475.37705018694
 30
0.0
 11
6056.695515348526
 21
7115.377050186939
 31
0.0
  0
LINE
  5
13F38
330
747D
100
AcDbEntity
  8
破線
  6
HIDDEN
 48
10.0
100
AcDbLine
 10
6006.695515348525
 20
10475.37705018694
 30
0.0
 11
6006.695515348525
 21
7115.377050186939
 31
0.0
  0
LINE
  5
13F39
330
747D
100
AcDbEntity
  8
破線
  6
HIDDEN
 48
10.0
100
AcDbLine
 10
4252.695515348522
 20
10475.37705018694
 30
0.0
 11
4252.695515348517
 21
7115.377050186937
 31
0.0
  0
LINE
  5
13F3A
330
747D
100
AcDbEntity
  8
破線
  6
HIDDEN
 48
10.0
100
AcDbLine
 10
4202.695515348522
 20
10475.37705018694
 30
0.0
 11
4202.695515348517
 21
7115.377050186937
 31
0.0
  0
LINE
  5
13F3B
330
747D
100
AcDbEntity
  8
部品1
100
AcDbLine
 10
8544.695515348525
 20
10475.37705018694
 30
0.0
 11
8544.695515348525
 21
7115.377050186937
 31
0.0
  0
LINE
  5
13F3C
330
747D
100
AcDbEntity
  8
破線
  6
HIDDEN
 48
10.0
100
AcDbLine
 10
6839.695515348525
 20
10451.87705018694
 30
0.0
 11
6839.695515348523
 21
7138.877050186938
 31
0.0
  0
LINE
  5
13F3D
330
747D
100
AcDbEntity
  8
破線
  6
HIDDEN
 48
10.0
100
AcDbLine
 10
6889.695515348525
 20
10451.87705018694
 30
0.0
 11
6889.695515348524
 21
7138.877050186938
 31
0.0
  0
LINE
  5
13F3E
330
747D
100
AcDbEntity
  8
破線
  6
HIDDEN
 48
10.0
100
AcDbLine
 10
3419.695515348522
 20
10451.87705018694
 30
0.0
 11
3419.695515348518
 21
7138.877050186938
 31
0.0
  0
LINE
  5
13F3F
330
747D
100
AcDbEntity
  8
破線
  6
HIDDEN
 48
10.0
100
AcDbLine
 10
3369.695515348521
 20
10451.87705018694
 30
0.0
 11
3369.695515348518
 21
7138.877050186938
 31
0.0
  0
LINE
  5
13F40
330
747D
100
AcDbEntity
  8
部品1
100
AcDbLine
 10
6864.695515348525
 20
7115.377050186937
 30
0.0
 11
6864.695515348525
 21
10475.37705018694
 31
0.0
  0
LINE
  5
13F41
330
747D
100
AcDbEntity
  8
部品1
100
AcDbLine
 10
5184.695515348526
 20
7115.377050186937
 30
0.0
 11
5184.695515348526
 21
10475.37705018694
 31
0.0
  0
LINE
  5
13F42
330
747D
100
AcDbEntity
  8
破線
  6
HIDDEN
 48
10.0
100
AcDbLine
 10
5208.195515348525
 20
7138.877050186938
 30
0.0
 11
5208.195515348525
 21
10451.87705018693
 31
0.0
  0
LINE
  5
13F43
330
747D
100
AcDbEntity
  8
部品1
100
AcDbLine
 10
5157.695515348525
 20
7088.377050186936
 30
0.0
 11
5157.695515348525
 21
10502.37705018694
 31
0.0
  0
LINE
  5
13F44
330
747D
100
AcDbEntity
  8
部品1
100
AcDbLine
 10
3394.695515348525
 20
10475.37705018694
 30
0.0
 11
3394.695515348518
 21
7115.377050186939
 31
0.0
  0
LINE
  5
13F45
330
747D
100
AcDbEntity
  8
破線
  6
HIDDEN
 48
10.0
100
AcDbLine
 10
5051.195515348525
 20
7138.877050186933
 30
0.0
 11
5051.195515348521
 21
10451.87705018694
 31
0.0
  0
LINE
  5
13F46
330
747D
100
AcDbEntity
  8
部品1
100
AcDbLine
 10
5074.695515348525
 20
7115.377050186933
 30
0.0
 11
5074.695515348522
 21
10475.37705018694
 31
0.0
  0
LINE
  5
13F47
330
747D
100
AcDbEntity
  8
部品1
100
AcDbLine
 10
5101.695515348525
 20
7088.377050186939
 30
0.0
 11
5101.695515348525
 21
10502.37705018694
 31
0.0
  0
LINE
  5
13F48
330
747D
100
AcDbEntity
  8
破線
  6
HIDDEN
 48
10.0
100
AcDbLine
 10
8521.195515348525
 20
10451.87705018694
 30
0.0
 11
8521.195515348525
 21
7138.877050186934
 31
0.0
  0
LINE
  5
13F49
330
747D
100
AcDbEntity
  8
部品1
100
AcDbLine
 10
8599.695515348525
 20
10530.37705018693
 30
0.0
 11
8599.695515348525
 21
7060.377050186936
 31
0.0
  0
LINE
  5
13F4A
330
747D
100
AcDbEntity
  8
部品1
100
AcDbLine
 10
8571.695515348526
 20
10502.37705018693
 30
0.0
 11
8571.695515348526
 21
9013.377050186939
 31
0.0
  0
LINE
  5
13F4B
330
747D
100
AcDbEntity
  8
破線
  6
HIDDEN
 48
10.0
100
AcDbLine
 10
6006.695515348525
 20
7138.877050186938
 30
0.0
 11
5208.195515348525
 21
7138.877050186938
 31
0.0
  0
LINE
  5
13F4C
330
747D
100
AcDbEntity
  8
部品1
100
AcDbLine
 10
5184.695515348526
 20
9215.377050186939
 30
0.0
 11
8544.695515348525
 21
9215.377050186939
 31
0.0
  0
LINE
  5
13F4D
330
747D
100
AcDbEntity
  8
部品1
100
AcDbLine
 10
5184.695515348526
 20
7535.377050186939
 30
0.0
 11
8544.695515348525
 21
7535.377050186939
 31
0.0
  0
LINE
  5
13F4E
330
747D
100
AcDbEntity
  8
部品1
100
AcDbLine
 10
5184.695515348526
 20
7955.377050186938
 30
0.0
 11
8544.695515348525
 21
7955.377050186938
 31
0.0
  0
LINE
  5
13F4F
330
747D
100
AcDbEntity
  8
部品1
100
AcDbLine
 10
5184.695515348526
 20
8375.377050186939
 30
0.0
 11
8544.695515348525
 21
8375.377050186939
 31
0.0
  0
LINE
  5
13F50
330
747D
100
AcDbEntity
  8
部品1
100
AcDbLine
 10
5184.695515348526
 20
8795.377050186939
 30
0.0
 11
8544.695515348525
 21
8795.377050186939
 31
0.0
  0
LINE
  5
13F51
330
747D
100
AcDbEntity
  8
部品1
100
AcDbLine
 10
8599.695515348525
 20
7060.377050186936
 30
0.0
 11
5184.695515348526
 21
7060.377050186936
 31
0.0
  0
LINE
  5
13F52
330
747D
100
AcDbEntity
  8
部品1
100
AcDbLine
 10
8544.695515348525
 20
7115.377050186937
 30
0.0
 11
5184.695515348526
 21
7115.377050186939
 31
0.0
  0
LINE
  5
13F53
330
747D
100
AcDbEntity
  8
部品1
100
AcDbLine
 10
8571.695515348526
 20
7088.377050186936
 30
0.0
 11
5157.695515348525
 21
7088.377050186939
 31
0.0
  0
LINE
  5
13F55
330
747D
100
AcDbEntity
  8
破線
  6
HIDDEN
 48
10.0
100
AcDbLine
 10
3419.695515348518
 20
7138.877050186934
 30
0.0
 11
4202.695515348517
 21
7138.877050186934
 31
0.0
  0
LINE
  5
13F56
330
747D
100
AcDbEntity
  8
破線
  6
HIDDEN
 48
10.0
100
AcDbLine
 10
4252.695515348517
 20
7138.877050186934
 30
0.0
 11
5051.195515348525
 21
7138.877050186933
 31
0.0
  0
LINE
  5
13F57
330
747D
100
AcDbEntity
  8
部品1
100
AcDbLine
 10
4654.695515348524
 20
7060.377050186936
 30
0.0
 11
5129.695515348525
 21
7060.377050186936
 31
0.0
  0
LINE
  5
13F58
330
747D
100
AcDbEntity
  8
部品1
100
AcDbLine
 10
4654.695515348524
 20
7060.377050186935
 30
0.0
 11
4654.695515348524
 21
7088.377050186936
 31
0.0
  0
LINE
  5
13F59
330
747D
100
AcDbEntity
  8
部品1
100
AcDbLine
 10
4654.695515348524
 20
7060.377050186935
 30
0.0
 11
4654.695515348524
 21
7088.377050186936
 31
0.0
  0
LINE
  5
13F5A
330
747D
100
AcDbEntity
  8
部品1
 48
50.0
100
AcDbLine
 10
5157.695515348525
 20
7088.377050186936
 30
0.0
 11
5184.695515348526
 21
7115.377050186937
 31
0.0
  0
LINE
  5
13F5B
330
747D
100
AcDbEntity
  8
部品1
 48
50.0
100
AcDbLine
 10
5101.695515348525
 20
7088.377050186939
 30
0.0
 11
5074.695515348525
 21
7115.377050186933
 31
0.0
  0
LINE
  5
13F5C
330
747D
100
AcDbEntity
  8
部品1
100
AcDbLine
 10
5184.695515348526
 20
7060.377050186939
 30
0.0
 11
5129.695515348525
 21
7060.377050186936
 31
0.0
  0
LINE
  5
13F5D
330
747D
100
AcDbEntity
  8
部品1
100
AcDbLine
 10
5074.695515348525
 20
7060.377050186935
 30
0.0
 11
5074.695515348525
 21
7088.377050186936
 31
0.0
  0
LINE
  5
13F5E
330
747D
100
AcDbEntity
  8
部品1
100
AcDbLine
 10
5184.695515348526
 20
7060.377050186935
 30
0.0
 11
5184.695515348526
 21
7088.377050186936
 31
0.0
  0
LINE
  5
13F5F
330
747D
100
AcDbEntity
  8
部品1
100
AcDbLine
 10
5157.695515348525
 20
7115.377050186933
 30
0.0
 11
5129.695515348525
 21
7115.377050186933
 31
0.0
  0
LINE
  5
13F60
330
747D
100
AcDbEntity
  8
部品1
100
AcDbLine
 10
5101.695515348525
 20
7115.377050186933
 30
0.0
 11
5129.695515348525
 21
7115.377050186933
 31
0.0
  0
LINE
  5
13F61
330
747D
100
AcDbEntity
  8
部品1
100
AcDbLine
 10
5604.695515348525
 20
7060.377050186935
 30
0.0
 11
5604.695515348525
 21
7088.377050186936
 31
0.0
  0
LINE
  5
13F62
330
747D
100
AcDbEntity
  8
部品1
100
AcDbLine
 10
8571.695515348526
 20
9215.37705018694
 30
0.0
 11
8571.695515348526
 21
7088.377050186936
 31
0.0
  0
LINE
  5
13F63
330
747D
100
AcDbEntity
  8
破線
  6
HIDDEN
 48
10.0
100
AcDbLine
 10
7672.695515348523
 20
7138.877050186938
 30
0.0
 11
6889.695515348522
 21
7138.877050186938
 31
0.0
  0
LINE
  5
13F64
330
747D
100
AcDbEntity
  8
破線
  6
HIDDEN
 48
10.0
100
AcDbLine
 10
6839.695515348522
 20
7138.877050186933
 30
0.0
 11
6056.695515348526
 21
7138.877050186938
 31
0.0
  0
LINE
  5
13F65
330
747D
100
AcDbEntity
  8
部品1
100
AcDbLine
 10
6024.695515348525
 20
7060.377050186935
 30
0.0
 11
6024.695515348525
 21
7088.377050186936
 31
0.0
  0
LINE
  5
13F66
330
747D
100
AcDbEntity
  8
部品1
100
AcDbLine
 10
6444.695515348525
 20
7060.377050186935
 30
0.0
 11
6444.695515348525
 21
7088.377050186936
 31
0.0
  0
LINE
  5
13F67
330
747D
100
AcDbEntity
  8
部品1
100
AcDbLine
 10
6864.695515348525
 20
7060.377050186935
 30
0.0
 11
6864.695515348525
 21
7088.377050186936
 31
0.0
  0
LINE
  5
13F68
330
747D
100
AcDbEntity
  8
部品1
100
AcDbLine
 10
7284.695515348525
 20
7060.377050186935
 30
0.0
 11
7284.695515348525
 21
7088.377050186936
 31
0.0
  0
LINE
  5
13F69
330
747D
100
AcDbEntity
  8
破線
  6
HIDDEN
 48
10.0
100
AcDbLine
 10
8521.195515348525
 20
7138.877050186934
 30
0.0
 11
7722.695515348523
 21
7138.877050186938
 31
0.0
  0
LINE
  5
13F6A
330
747D
100
AcDbEntity
  8
部品1
100
AcDbLine
 10
7704.695515348525
 20
7060.377050186935
 30
0.0
 11
7704.695515348525
 21
7088.377050186936
 31
0.0
  0
LINE
  5
13F6B
330
747D
100
AcDbEntity
  8
部品1
100
AcDbLine
 10
8124.695515348525
 20
7060.377050186935
 30
0.0
 11
8124.695515348525
 21
7088.377050186936
 31
0.0
  0
LINE
  5
13F6C
330
747D
100
AcDbEntity
  8
部品1
 48
50.0
100
AcDbLine
 10
8571.695515348526
 20
7088.377050186936
 30
0.0
 11
8544.695515348525
 21
7115.377050186937
 31
0.0
  0
LINE
  5
13F6D
330
747D
100
AcDbEntity
  8
部品1
100
AcDbLine
 10
8544.695515348525
 20
7060.377050186935
 30
0.0
 11
8544.695515348525
 21
7088.377050186936
 31
0.0
  0
LINE
  5
13F6E
330
747D
100
AcDbEntity
  8
部品1
100
AcDbLine
 10
8571.695515348526
 20
7115.377050186933
 30
0.0
 11
8599.695515348525
 21
7115.377050186933
 31
0.0
  0
LINE
  5
13F6F
330
747D
100
AcDbEntity
  8
部品1
100
AcDbLine
 10
8571.695515348526
 20
7535.377050186941
 30
0.0
 11
8599.695515348525
 21
7535.377050186941
 31
0.0
  0
LINE
  5
13F70
330
747D
100
AcDbEntity
  8
部品1
100
AcDbLine
 10
8571.695515348526
 20
7955.377050186941
 30
0.0
 11
8599.695515348525
 21
7955.377050186941
 31
0.0
  0
LINE
  5
13F71
330
747D
100
AcDbEntity
  8
部品1
100
AcDbLine
 10
8571.695515348526
 20
8375.377050186941
 30
0.0
 11
8599.695515348525
 21
8375.377050186941
 31
0.0
  0
LINE
  5
13F72
330
747D
100
AcDbEntity
  8
部品1
100
AcDbLine
 10
8571.695515348526
 20
8795.377050186941
 30
0.0
 11
8599.695515348525
 21
8795.377050186941
 31
0.0
  0
LINE
  5
13F73
330
747D
100
AcDbEntity
  8
部品1
100
AcDbLine
 10
8571.695515348526
 20
9215.37705018694
 30
0.0
 11
8599.695515348525
 21
9215.37705018694
 31
0.0
  0
LINE
  5
13F74
330
747D
100
AcDbEntity
  8
破線
  6
HIDDEN
 48
10.0
100
AcDbLine
 10
6006.695515348525
 20
10451.87705018694
 30
0.0
 11
5208.195515348525
 21
10451.87705018694
 31
0.0
  0
LINE
  5
13F75
330
747D
100
AcDbEntity
  8
部品1
100
AcDbLine
 10
8544.695515348525
 20
10475.37705018694
 30
0.0
 11
5184.695515348526
 21
10475.37705018694
 31
0.0
  0
LINE
  5
13F76
330
747D
100
AcDbEntity
  8
部品1
100
AcDbLine
 10
5157.695515348525
 20
10502.37705018694
 30
0.0
 11
6864.695515348525
 21
10502.37705018694
 31
0.0
  0
DIMENSION
  5
13F77
330
747D
100
AcDbEntity
  8
寸法
 48
50.0
100
AcDbDimension
  2
*D15
 10
8544.695515348525
 20
10805.08946020573
 30
0.0
 11
6864.695515348525
 21
10897.10127122935
 31
0.0
 70
    32
  1
8X420=<>
 71
     5
 42
3360.0
  3
INABA_S40
100
AcDbAlignedDimension
 13
5184.695515348526
 23
10530.37705018694
 33
0.0
 14
8544.695515348525
 24
10530.37705018694
 34
0.0
100
AcDbRotatedDimension
1001
ACAD
1000
DSTYLE
1002
{
1070
    41
1040
0.5
1070
    44
1040
1.0
1070
   147
1040
0.8
1070
   271
1070
     2
1070
   272
1070
     2
1070
   289
1070
     3
1070
   340
1005
F706
1070
   343
1005
F744
1070
   344
1005
F744
1002
}
  0
LINE
  5
13F78
330
747D
100
AcDbEntity
  8
部品1
100
AcDbLine
 10
5129.695515348525
 20
10530.37705018693
 30
0.0
 11
8599.695515348525
 21
10530.37705018693
 31
0.0
  0
LINE
  5
13F79
330
747D
100
AcDbEntity
  8
破線
  6
HIDDEN
 48
10.0
100
AcDbLine
 10
3419.695515348522
 20
10451.87705018693
 30
0.0
 11
4202.695515348525
 21
10451.87705018694
 31
0.0
  0
LINE
  5
13F7A
330
747D
100
AcDbEntity
  8
部品1
100
AcDbLine
 10
4234.695515348525
 20
10502.37705018694
 30
0.0
 11
2974.695515348525
 21
10502.37705018694
 31
0.0
  0
LINE
  5
13F7B
330
747D
100
AcDbEntity
  8
部品1
100
AcDbLine
 10
2974.695515348525
 20
10530.37705018694
 30
0.0
 11
2974.695515348525
 21
10502.37705018693
 31
0.0
  0
LINE
  5
13F7C
330
747D
100
AcDbEntity
  8
部品1
100
AcDbLine
 10
3394.695515348525
 20
10530.37705018694
 30
0.0
 11
3394.695515348525
 21
10502.37705018693
 31
0.0
  0
LINE
  5
13F7D
330
747D
100
AcDbEntity
  8
部品1
100
AcDbLine
 10
3814.695515348525
 20
10530.37705018694
 30
0.0
 11
3814.695515348525
 21
10502.37705018693
 31
0.0
  0
LINE
  5
13F7E
330
747D
100
AcDbEntity
  8
破線
  6
HIDDEN
 48
10.0
100
AcDbLine
 10
4252.695515348525
 20
10451.87705018694
 30
0.0
 11
5051.195515348525
 21
10451.87705018694
 31
0.0
  0
LINE
  5
13F7F
330
747D
100
AcDbEntity
  8
部品1
100
AcDbLine
 10
5101.695515348525
 20
10502.37705018694
 30
0.0
 11
4234.695515348525
 21
10502.37705018694
 31
0.0
  0
LINE
  5
13F80
330
747D
100
AcDbEntity
  8
部品1
100
AcDbLine
 10
4234.695515348525
 20
10530.37705018694
 30
0.0
 11
4234.695515348525
 21
10502.37705018693
 31
0.0
  0
LINE
  5
13F81
330
747D
100
AcDbEntity
  8
部品1
100
AcDbLine
 10
4654.695515348524
 20
10530.37705018694
 30
0.0
 11
4654.695515348524
 21
10502.37705018693
 31
0.0
  0
DIMENSION
  5
13F82
330
747D
100
AcDbEntity
  8
寸法
 48
50.0
100
AcDbDimension
  2
*D16
 10
5184.695515348526
 20
10805.08946020573
 30
0.0
 11
5129.695515348525
 21
10805.08946020573
 31
0.0
 70
   160
 71
     5
 42
110.0
  3
INABA_S40
100
AcDbAlignedDimension
 13
5074.695515348525
 23
10530.37705018694
 33
0.0
 14
5184.695515348526
 24
10530.37705018694
 34
0.0
100
AcDbRotatedDimension
1001
ACAD
1000
DSTYLE
1002
{
1070
    41
1040
0.5
1070
    44
1040
1.0
1070
   147
1040
0.8
1070
   271
1070
     2
1070
   272
1070
     2
1070
   289
1070
     3
1070
   340
1005
F706
1070
   343
1005
F744
1070
   344
1005
F744
1002
}
  0
LINE
  5
13F83
330
747D
100
AcDbEntity
  8
部品1
 48
50.0
100
AcDbLine
 10
5157.695515348525
 20
10502.37705018694
 30
0.0
 11
5184.695515348526
 21
10475.37705018694
 31
0.0
  0
LINE
  5
13F84
330
747D
100
AcDbEntity
  8
部品1
 48
50.0
100
AcDbLine
 10
5101.695515348525
 20
10502.37705018694
 30
0.0
 11
5074.695515348525
 21
10475.37705018694
 31
0.0
  0
LINE
  5
13F85
330
747D
100
AcDbEntity
  8
部品1
100
AcDbLine
 10
5157.695515348525
 20
10475.37705018694
 30
0.0
 11
5129.695515348525
 21
10475.37705018694
 31
0.0
  0
LINE
  5
13F86
330
747D
100
AcDbEntity
  8
部品1
100
AcDbLine
 10
5074.695515348525
 20
10530.37705018694
 30
0.0
 11
5074.695515348525
 21
10502.37705018693
 31
0.0
  0
LINE
  5
13F87
330
747D
100
AcDbEntity
  8
部品1
100
AcDbLine
 10
5101.695515348525
 20
10475.37705018694
 30
0.0
 11
5129.695515348525
 21
10475.37705018694
 31
0.0
  0
LINE
  5
13F88
330
747D
100
AcDbEntity
  8
部品1
100
AcDbLine
 10
5184.695515348526
 20
10530.37705018694
 30
0.0
 11
5184.695515348526
 21
10502.37705018693
 31
0.0
  0
LINE
  5
13F89
330
747D
100
AcDbEntity
  8
部品1
100
AcDbLine
 10
5184.695515348526
 20
10530.37705018694
 30
0.0
 11
5184.695515348526
 21
10502.37705018693
 31
0.0
  0
LINE
  5
13F8A
330
747D
100
AcDbEntity
  8
部品1
100
AcDbLine
 10
5604.695515348525
 20
10530.37705018694
 30
0.0
 11
5604.695515348525
 21
10502.37705018693
 31
0.0
  0
LINE
  5
13F8B
330
747D
100
AcDbEntity
  8
破線
  6
HIDDEN
 48
10.0
100
AcDbLine
 10
7672.695515348525
 20
10451.87705018694
 30
0.0
 11
6889.695515348525
 21
10451.87705018694
 31
0.0
  0
LINE
  5
13F8C
330
747D
100
AcDbEntity
  8
部品1
100
AcDbLine
 10
6667.195515348526
 20
10502.37705018694
 30
0.0
 11
7902.195515348525
 21
10502.37705018693
 31
0.0
  0
LINE
  5
13F8D
330
747D
100
AcDbEntity
  8
破線
  6
HIDDEN
 48
10.0
100
AcDbLine
 10
6839.695515348525
 20
10451.87705018694
 30
0.0
 11
6056.695515348526
 21
10451.87705018694
 31
0.0
  0
LINE
  5
13F8E
330
747D
100
AcDbEntity
  8
部品1
100
AcDbLine
 10
6024.695515348525
 20
10530.37705018694
 30
0.0
 11
6024.695515348525
 21
10502.37705018693
 31
0.0
  0
LINE
  5
13F8F
330
747D
100
AcDbEntity
  8
部品1
100
AcDbLine
 10
6444.695515348525
 20
10530.37705018694
 30
0.0
 11
6444.695515348525
 21
10502.37705018693
 31
0.0
  0
LINE
  5
13F90
330
747D
100
AcDbEntity
  8
部品1
100
AcDbLine
 10
6864.695515348525
 20
10530.37705018694
 30
0.0
 11
6864.695515348525
 21
10502.37705018693
 31
0.0
  0
LINE
  5
13F91
330
747D
100
AcDbEntity
  8
部品1
100
AcDbLine
 10
7284.695515348525
 20
10530.37705018694
 30
0.0
 11
7284.695515348525
 21
10502.37705018693
 31
0.0
  0
LINE
  5
13F92
330
747D
100
AcDbEntity
  8
破線
  6
HIDDEN
 48
10.0
100
AcDbLine
 10
8521.195515348525
 20
10451.87705018694
 30
0.0
 11
7722.695515348525
 21
10451.87705018694
 31
0.0
  0
LINE
  5
13F93
330
747D
100
AcDbEntity
  8
部品1
100
AcDbLine
 10
7704.695515348525
 20
10502.37705018693
 30
0.0
 11
8571.695515348526
 21
10502.37705018693
 31
0.0
  0
LINE
  5
13F94
330
747D
100
AcDbEntity
  8
部品1
100
AcDbLine
 10
7704.695515348525
 20
10530.37705018694
 30
0.0
 11
7704.695515348525
 21
10502.37705018693
 31
0.0
  0
LINE
  5
13F95
330
747D
100
AcDbEntity
  8
部品1
100
AcDbLine
 10
8124.695515348525
 20
10530.37705018694
 30
0.0
 11
8124.695515348525
 21
10502.37705018693
 31
0.0
  0
LINE
  5
13F96
330
747D
100
AcDbEntity
  8
部品1
 48
50.0
100
AcDbLine
 10
8571.695515348526
 20
10502.37705018693
 30
0.0
 11
8544.695515348525
 21
10475.37705018694
 31
0.0
  0
LINE
  5
13F97
330
747D
100
AcDbEntity
  8
部品1
100
AcDbLine
 10
8544.695515348525
 20
10530.37705018694
 30
0.0
 11
8544.695515348525
 21
10502.37705018693
 31
0.0
  0
LINE
  5
13F98
330
747D
100
AcDbEntity
  8
部品1
100
AcDbLine
 10
8571.695515348526
 20
10475.37705018694
 30
0.0
 11
8599.695515348525
 21
10475.37705018694
 31
0.0
  0
LINE
  5
13F99
330
747D
100
AcDbEntity
  8
部品1
 48
50.0
100
AcDbLine
 10
5129.695517592096
 20
10502.3770537641
 30
0.0
 11
5101.695517592095
 21
10530.3770537641
 31
0.0
  0
LINE
  5
13F9A
330
747D
100
AcDbEntity
  8
部品1
100
AcDbLine
 10
5101.695517592095
 20
10502.3770537641
 30
0.0
 11
5101.695517592095
 21
10530.37705376411
 31
0.0
  0
LINE
  5
13F9B
330
747D
100
AcDbEntity
  8
部品1
100
AcDbLine
 10
5157.695517592095
 20
10502.3770537641
 30
0.0
 11
5157.695517592095
 21
10530.3770537641
 31
0.0
  0
LINE
  5
13F9C
330
747D
100
AcDbEntity
  8
部品1
100
AcDbLine
 10
5101.695517592095
 20
10502.3770537641
 30
0.0
 11
5129.695517592096
 21
10502.3770537641
 31
0.0
  0
LINE
  5
13F9D
330
747D
100
AcDbEntity
  8
部品1
 48
50.0
100
AcDbLine
 10
2554.695515348525
 20
7088.377050186931
 30
0.0
 11
4654.695515348524
 21
7088.377050186934
 31
0.0
  0
TEXT
  5
13FA2
330
747D
100
AcDbEntity
  8
部品1
100
AcDbText
 10
4838.485585972252
 20
1422.046146689567
 30
0.0
 40
135.0
  1
正面図
  7
STYLE2
100
AcDbText
  0
LWPOLYLINE
  5
13FA3
330
747D
100
AcDbEntity
  8
部品1
100
AcDbPolyline
 90
        4
 70
     1
 43
0.0
 10
4747.960182234296
 20
1614.939675908091
 10
4747.960182234296
 20
1375.047354362558
 10
5511.43084846274
 20
1375.047354362558
 10
5511.43084846274
 20
1614.939675908091
  0
TEXT
  5
13FA4
330
747D
100
AcDbEntity
  8
文字
 62
     7
 48
50.0
100
AcDbText
 10
14505.34213575793
 20
483.8967129911411
 30
0.0
 40
160.0
  1
ＮＸＮ－２４５Ｈ
  7
STYLE2
100
AcDbText
  0
TEXT
  5
13FA5
330
747D
100
AcDbEntity
  8
文字
 62
     7
 48
50.0
100
AcDbText
 10
13209.4053442172
 20
228.5435242569015
 30
0.0
 40
100.0
  1
○有効開口寸法 ： 1266×2025(mm)
  7
STYLE2
100
AcDbText
  0
TEXT
  5
13FA6
330
747D
100
AcDbEntity
  8
文字
 62
     7
 48
50.0
100
AcDbText
 10
15022.63965474517
 20
9910.01374588373
 30
0.0
 40
100.0
  1
F12,Y10      1.2+1.6
  7
STYLE1
100
AcDbText
  0
TEXT
  5
13FA7
330
747D
100
AcDbEntity
  8
文字
 62
     7
 48
50.0
100
AcDbText
 10
13583.1181901657
 20
9910.01374588373
 30
0.0
 40
100.0
  1
梁中
 41
0.9
  7
STYLE1
100
AcDbText
  0
TEXT
  5
13FA8
330
747D
100
AcDbEntity
  8
文字
 62
     7
 48
50.0
100
AcDbText
 10
13248.77747366447
 20
8380.013745883728
 30
0.0
 40
100.0
  1
17
  7
STYLE1
100
AcDbText
  0
TEXT
  5
13FA9
330
747D
100
AcDbEntity
  8
文字
 62
     7
 48
50.0
100
AcDbText
 10
13248.77747366447
 20
8550.013745883729
 30
0.0
 40
100.0
  1
16
  7
STYLE1
100
AcDbText
  0
TEXT
  5
13FAA
330
747D
100
AcDbEntity
  8
文字
 62
     7
 48
50.0
100
AcDbText
 10
15022.63965474517
 20
8890.013745883726
 30
0.0
 40
100.0
  1
F12            1.0
  7
STYLE1
100
AcDbText
  0
TEXT
  5
13FAB
330
747D
100
AcDbEntity
  8
文字
 62
     7
 48
50.0
100
AcDbText
 10
13583.11819016569
 20
8890.013745883733
 30
0.0
 40
100.0
  1
壁面扉枠左右
  7
STYLE1
100
AcDbText
  0
TEXT
  5
13FAC
330
747D
100
AcDbEntity
  8
文字
 62
     7
 48
50.0
100
AcDbText
 10
15022.63965474517
 20
9060.013745883725
 30
0.0
 40
100.0
  1
F12            1.0
  7
STYLE1
100
AcDbText
  0
TEXT
  5
13FAD
330
747D
100
AcDbEntity
  8
文字
 62
     7
 48
50.0
100
AcDbText
 10
15022.63965474515
 20
9230.013745883729
 30
0.0
 40
100.0
  1
F12            0.7
  7
STYLE1
100
AcDbText
  0
TEXT
  5
13FAE
330
747D
100
AcDbEntity
  8
文字
 62
     7
 48
50.0
100
AcDbText
 10
13583.11819016569
 20
9060.013745883733
 30
0.0
 40
100.0
  1
壁面扉敷居
  7
STYLE1
100
AcDbText
  0
TEXT
  5
13FAF
330
747D
100
AcDbEntity
  8
文字
 62
     7
 48
50.0
100
AcDbText
 10
13583.11819016569
 20
9230.013745883729
 30
0.0
 40
100.0
  1
壁面扉鴨居
  7
STYLE1
100
AcDbText
  0
LINE
  5
13FB0
330
747D
100
AcDbEntity
  8
仕様書枠
 48
50.0
100
AcDbLine
 10
16307.19999999999
 20
8689.600000000003
 30
0.0
 11
13127.2
 21
8689.600000000007
 31
0.0
  0
LINE
  5
13FB1
330
747D
100
AcDbEntity
  8
仕様書枠
 48
50.0
100
AcDbLine
 10
16307.19999999999
 20
8519.600000000004
 30
0.0
 11
13127.2
 21
8519.600000000009
 31
0.0
  0
TEXT
  5
13FB2
330
747D
100
AcDbEntity
  8
文字
 62
     7
 48
50.0
100
AcDbText
 10
13583.11819016569
 20
8380.013745883728
 30
0.0
 40
100.0
  1
アンカープレート
  7
STYLE1
100
AcDbText
  0
TEXT
  5
13FB3
330
747D
100
AcDbEntity
  8
文字
 62
     7
 48
50.0
100
AcDbText
 10
15022.63965474515
 20
8380.013745883726
 30
0.0
 40
100.0
  1
F12            2.3
  7
STYLE1
100
AcDbText
  0
LINE
  5
13FB4
330
747D
100
AcDbEntity
  8
仕様書枠
 48
50.0
100
AcDbLine
 10
16307.2
 20
10049.6
 30
0.0
 11
13127.2
 21
10049.6
 31
0.0
  0
LINE
  5
13FB5
330
747D
100
AcDbEntity
  8
仕様書枠
 48
50.0
100
AcDbLine
 10
16307.2
 20
11409.6
 30
0.0
 11
13127.2
 21
11409.6
 31
0.0
  0
LINE
  5
13FB6
330
747D
100
AcDbEntity
  8
仕様書枠
 48
50.0
100
AcDbLine
 10
16307.19999999999
 20
8009.600000000004
 30
0.0
 11
16307.2
 21
11409.6
 31
0.0
  0
LINE
  5
13FB7
330
747D
100
AcDbEntity
  8
仕様書枠
 48
50.0
100
AcDbLine
 10
14785.2
 20
11409.59999999999
 30
0.0
 11
14785.2
 21
8349.600000000004
 31
0.0
  0
LINE
  5
13FB8
330
747D
100
AcDbEntity
  8
仕様書枠
 48
50.0
100
AcDbLine
 10
13490.2
 20
11409.6
 30
0.0
 11
13490.20000000001
 21
8349.600000000007
 31
0.0
  0
LINE
  5
13FB9
330
747D
100
AcDbEntity
  8
仕様書枠
 48
50.0
100
AcDbLine
 10
16307.2
 20
11239.6
 30
0.0
 11
13127.2
 21
11239.6
 31
0.0
  0
LINE
  5
13FBA
330
747D
100
AcDbEntity
  8
仕様書枠
 48
50.0
100
AcDbLine
 10
16307.2
 20
10899.6
 30
0.0
 11
13127.2
 21
10899.6
 31
0.0
  0
LINE
  5
13FBB
330
747D
100
AcDbEntity
  8
仕様書枠
 48
50.0
100
AcDbLine
 10
16307.2
 20
11069.6
 30
0.0
 11
13127.2
 21
11069.6
 31
0.0
  0
LINE
  5
13FBC
330
747D
100
AcDbEntity
  8
仕様書枠
 48
50.0
100
AcDbLine
 10
16307.19999999999
 20
10559.6
 30
0.0
 11
13127.2
 21
10559.6
 31
0.0
  0
LINE
  5
13FBD
330
747D
100
AcDbEntity
  8
仕様書枠
 48
50.0
100
AcDbLine
 10
16307.19999999999
 20
10389.6
 30
0.0
 11
13127.2
 21
10389.6
 31
0.0
  0
LINE
  5
13FBE
330
747D
100
AcDbEntity
  8
仕様書枠
 48
50.0
100
AcDbLine
 10
16307.19999999999
 20
10729.6
 30
0.0
 11
13127.2
 21
10729.6
 31
0.0
  0
TEXT
  5
13FBF
330
747D
100
AcDbEntity
  8
文字
 62
     7
 48
50.0
100
AcDbText
 10
13197.42518560407
 20
11270.01374588373
 30
0.0
 40
100.0
  1
品番
  7
STYLE1
100
AcDbText
  0
TEXT
  5
13FC0
330
747D
100
AcDbEntity
  8
文字
 62
     7
 48
50.0
100
AcDbText
 10
13271.19032244792
 20
11100.01374588373
 30
0.0
 40
100.0
  1
1
  7
STYLE1
100
AcDbText
  0
TEXT
  5
13FC1
330
747D
100
AcDbEntity
  8
文字
 62
     7
 48
50.0
100
AcDbText
 10
13271.19032244792
 20
10930.01374588373
 30
0.0
 40
100.0
  1
2
  7
STYLE1
100
AcDbText
  0
TEXT
  5
13FC2
330
747D
100
AcDbEntity
  8
文字
 62
     7
 48
50.0
100
AcDbText
 10
13271.19032244792
 20
10590.01374588373
 30
0.0
 40
100.0
  1
4
  7
STYLE1
100
AcDbText
  0
TEXT
  5
13FC3
330
747D
100
AcDbEntity
  8
文字
 62
     7
 48
50.0
100
AcDbText
 10
13271.19032244792
 20
10760.01374588373
 30
0.0
 40
100.0
  1
3
  7
STYLE1
100
AcDbText
  0
TEXT
  5
13FC4
330
747D
100
AcDbEntity
  8
文字
 62
     7
 48
50.0
100
AcDbText
 10
13732.03840939434
 20
11270.01374588373
 30
0.0
 40
100.0
  1
部　　品　　名
  7
STYLE1
100
AcDbText
  0
TEXT
  5
13FC5
330
747D
100
AcDbEntity
  8
文字
 62
     7
 48
50.0
100
AcDbText
 10
14859.79774614482
 20
11270.01374588373
 30
0.0
 40
100.0
  1
材料（材質）　　単位mm
  7
STYLE1
100
AcDbText
  0
TEXT
  5
13FC6
330
747D
100
AcDbEntity
  8
文字
 62
     7
 48
50.0
100
AcDbText
 10
13583.11819016569
 20
11100.01374588373
 30
0.0
 40
100.0
  1
土台枠
  7
STYLE1
100
AcDbText
  0
TEXT
  5
13FC7
330
747D
100
AcDbEntity
  8
文字
 62
     7
 48
50.0
100
AcDbText
 10
13583.1181901657
 20
10760.01374588373
 30
0.0
 40
100.0
  1
柱
  7
STYLE1
100
AcDbText
  0
TEXT
  5
13FC8
330
747D
100
AcDbEntity
  8
文字
 62
     7
 48
50.0
100
AcDbText
 10
13583.11819016569
 20
10420.01374588373
 30
0.0
 40
100.0
  1
桁前後
  7
STYLE1
100
AcDbText
  0
TEXT
  5
13FC9
330
747D
100
AcDbEntity
  8
文字
 62
     7
 48
50.0
100
AcDbText
 10
13271.19032244792
 20
10420.01374588373
 30
0.0
 40
100.0
  1
5
  7
STYLE1
100
AcDbText
  0
TEXT
  5
13FCA
330
747D
100
AcDbEntity
  8
文字
 62
     7
 48
50.0
100
AcDbText
 10
13583.11819016569
 20
10250.01374588373
 30
0.0
 40
100.0
  1
妻板左右
  7
STYLE1
100
AcDbText
  0
TEXT
  5
13FCB
330
747D
100
AcDbEntity
  8
文字
 62
     7
 48
50.0
100
AcDbText
 10
13248.77747366447
 20
9570.013745883729
 30
0.0
 40
100.0
  1
10
  7
STYLE1
100
AcDbText
  0
TEXT
  5
13FCC
330
747D
100
AcDbEntity
  8
文字
 62
     7
 48
50.0
100
AcDbText
 10
13583.11819016568
 20
9400.013745883729
 30
0.0
 40
100.0
  1
壁パネル
  7
STYLE1
100
AcDbText
  0
TEXT
  5
13FCD
330
747D
100
AcDbEntity
  8
文字
 62
     7
 48
50.0
100
AcDbText
 10
13583.11819016569
 20
9740.013745883729
 30
0.0
 40
100.0
  1
屋根パネル
  7
STYLE1
100
AcDbText
  0
TEXT
  5
13FCE
330
747D
100
AcDbEntity
  8
文字
 62
     7
 48
50.0
100
AcDbText
 10
13583.11819016569
 20
10080.01374588373
 30
0.0
 40
100.0
  1
鼻隠シ前後
  7
STYLE1
100
AcDbText
  0
TEXT
  5
13FCF
330
747D
100
AcDbEntity
  8
文字
 62
     7
 48
50.0
100
AcDbText
 10
13271.19032244792
 20
9910.01374588373
 30
0.0
 40
100.0
  1
8
  7
STYLE1
100
AcDbText
  0
TEXT
  5
13FD0
330
747D
100
AcDbEntity
  8
文字
 62
     7
 48
50.0
100
AcDbText
 10
13271.19032244792
 20
9740.013745883729
 30
0.0
 40
100.0
  1
9
  7
STYLE1
100
AcDbText
  0
TEXT
  5
13FD1
330
747D
100
AcDbEntity
  8
文字
 62
     7
 48
50.0
100
AcDbText
 10
13271.19032244792
 20
10080.01374588373
 30
0.0
 40
100.0
  1
7
  7
STYLE1
100
AcDbText
  0
TEXT
  5
13FD2
330
747D
100
AcDbEntity
  8
文字
 62
     7
 48
50.0
100
AcDbText
 10
13271.19032244792
 20
10250.01374588373
 30
0.0
 40
100.0
  1
6
  7
STYLE1
100
AcDbText
  0
LINE
  5
13FD3
330
747D
100
AcDbEntity
  8
仕様書枠
 48
50.0
100
AcDbLine
 10
16307.19999999999
 20
9709.600000000001
 30
0.0
 11
13127.2
 21
9709.600000000001
 31
0.0
  0
LINE
  5
13FD4
330
747D
100
AcDbEntity
  8
仕様書枠
 48
50.0
100
AcDbLine
 10
16307.19999999999
 20
9369.600000000001
 30
0.0
 11
13127.2
 21
9369.600000000001
 31
0.0
  0
LINE
  5
13FD5
330
747D
100
AcDbEntity
  8
仕様書枠
 48
50.0
100
AcDbLine
 10
16307.19999999999
 20
9539.6
 30
0.0
 11
13127.2
 21
9539.6
 31
0.0
  0
LINE
  5
13FD6
330
747D
100
AcDbEntity
  8
仕様書枠
 48
50.0
100
AcDbLine
 10
16307.2
 20
10219.6
 30
0.0
 11
13127.2
 21
10219.6
 31
0.0
  0
LINE
  5
13FD7
330
747D
100
AcDbEntity
  8
仕様書枠
 48
50.0
100
AcDbLine
 10
16307.2
 20
9879.600000000001
 30
0.0
 11
13127.2
 21
9879.600000000001
 31
0.0
  0
TEXT
  5
13FD8
330
747D
100
AcDbEntity
  8
文字
 62
     7
 48
50.0
100
AcDbText
 10
13248.77747366447
 20
9400.013745883729
 30
0.0
 40
100.0
  1
11
  7
STYLE1
100
AcDbText
  0
LINE
  5
13FD9
330
747D
100
AcDbEntity
  8
仕様書枠
 48
50.0
100
AcDbLine
 10
16307.19999999999
 20
9199.600000000001
 30
0.0
 11
13127.2
 21
9199.600000000001
 31
0.0
  0
LINE
  5
13FDA
330
747D
100
AcDbEntity
  8
仕様書枠
 48
50.0
100
AcDbLine
 10
16307.19999999999
 20
8859.6
 30
0.0
 11
13127.2
 21
8859.600000000005
 31
0.0
  0
TEXT
  5
13FDB
330
747D
100
AcDbEntity
  8
文字
 62
     7
 48
50.0
100
AcDbText
 10
13248.77747366448
 20
9060.013745883729
 30
0.0
 40
100.0
  1
13
  7
STYLE1
100
AcDbText
  0
TEXT
  5
13FDC
330
747D
100
AcDbEntity
  8
文字
 62
     7
 48
50.0
100
AcDbText
 10
13248.77747366448
 20
9230.013745883729
 30
0.0
 40
100.0
  1
12
  7
STYLE1
100
AcDbText
  0
TEXT
  5
13FDD
330
747D
100
AcDbEntity
  8
文字
 62
     7
 48
50.0
100
AcDbText
 10
15022.63965474517
 20
11100.01374588372
 30
0.0
 40
100.0
  1
F12            1.2
  7
STYLE1
100
AcDbText
  0
TEXT
  5
13FDE
330
747D
100
AcDbEntity
  8
文字
 62
     7
 48
50.0
100
AcDbText
 10
15022.63965474518
 20
10760.01374588372
 30
0.0
 40
100.0
  1
F12            1.0
  7
STYLE1
100
AcDbText
  0
TEXT
  5
13FDF
330
747D
100
AcDbEntity
  8
文字
 62
     7
 48
50.0
100
AcDbText
 10
15022.63965474516
 20
10420.01374588372
 30
0.0
 40
100.0
  1
Y10            1.0
  7
STYLE1
100
AcDbText
  0
TEXT
  5
13FE0
330
747D
100
AcDbEntity
  8
文字
 62
     7
 48
50.0
100
AcDbText
 10
15022.63965474516
 20
10250.01374588372
 30
0.0
 40
100.0
  1
Y10            0.7
  7
STYLE1
100
AcDbText
  0
TEXT
  5
13FE1
330
747D
100
AcDbEntity
  8
文字
 62
     7
 48
50.0
100
AcDbText
 10
15022.63965474516
 20
10080.01374588372
 30
0.0
 40
100.0
  1
Y10            0.7
  7
STYLE1
100
AcDbText
  0
TEXT
  5
13FE2
330
747D
100
AcDbEntity
  8
文字
 62
     7
 48
50.0
100
AcDbText
 10
15022.63965474517
 20
9740.013745883725
 30
0.0
 40
100.0
  1
Y10            0.5
  7
STYLE1
100
AcDbText
  0
TEXT
  5
13FE3
330
747D
100
AcDbEntity
  8
文字
 62
     7
 48
50.0
100
AcDbText
 10
15022.63965474515
 20
9400.013745883725
 30
0.0
 40
100.0
  1
F12            0.7
  7
STYLE1
100
AcDbText
  0
LINE
  5
13FE4
330
747D
100
AcDbEntity
  8
仕様書枠
 48
50.0
100
AcDbLine
 10
16307.19999999999
 20
8349.600000000004
 30
0.0
 11
13127.19999999999
 21
8349.600000000007
 31
0.0
  0
LINE
  5
13FE5
330
747D
100
AcDbEntity
  8
仕様書枠
 48
50.0
100
AcDbLine
 10
16307.19999999999
 20
8009.600000000006
 30
0.0
 11
13127.19999999999
 21
8009.600000000006
 31
0.0
  0
TEXT
  5
13FE6
330
747D
100
AcDbEntity
  8
文字
 62
     7
 48
50.0
100
AcDbText
 10
13229.83081656554
 20
8210.013745883737
 30
0.0
 40
100.0
  1
F12→溶融亜鉛めっき鋼板(JIS G 3302)
  7
STYLE1
100
AcDbText
  0
TEXT
  5
13FE7
330
747D
100
AcDbEntity
  8
文字
 62
     7
 48
50.0
100
AcDbText
 10
13229.83081656554
 20
8040.013745883737
 30
0.0
 40
100.0
  1
Y10→溶融亜鉛-5％アルミニウム合金めっき鋼板(JIS G 3317)
 41
0.9
  7
STYLE1
100
AcDbText
  0
LINE
  5
13FE8
330
747D
100
AcDbEntity
  8
仕様書枠
 48
50.0
100
AcDbLine
 10
13127.2
 20
11409.6
 30
0.0
 11
13127.19999999999
 21
8009.600000000004
 31
0.0
  0
LINE
  5
13FE9
330
747D
100
AcDbEntity
  8
仕様書枠
 48
50.0
100
AcDbLine
 10
16307.19999999999
 20
9029.6
 30
0.0
 11
13127.2
 21
9029.600000000003
 31
0.0
  0
TEXT
  5
13FEA
330
747D
100
AcDbEntity
  8
文字
 62
     7
 48
50.0
100
AcDbText
 10
13583.1181901657
 20
10590.01374588373
 30
0.0
 40
100.0
  1
床パネル
 41
0.9
  7
STYLE1
100
AcDbText
  0
TEXT
  5
13FEB
330
747D
100
AcDbEntity
  8
文字
 62
     7
 48
50.0
100
AcDbText
 10
13583.11819016569
 20
10930.01374588373
 30
0.0
 40
100.0
  1
根太
  7
STYLE1
100
AcDbText
  0
TEXT
  5
13FEC
330
747D
100
AcDbEntity
  8
文字
 62
     7
 48
50.0
100
AcDbText
 10
13248.77747366448
 20
8890.013745883729
 30
0.0
 40
100.0
  1
14
  7
STYLE1
100
AcDbText
  0
TEXT
  5
13FED
330
747D
100
AcDbEntity
  8
文字
 62
     7
 48
50.0
100
AcDbText
 10
15022.63965474516
 20
10930.01374588372
 30
0.0
 40
100.0
  1
F12            1.2
  7
STYLE1
100
AcDbText
  0
TEXT
  5
13FEE
330
747D
100
AcDbEntity
  8
文字
 62
     7
 48
50.0
100
AcDbText
 10
15022.63965474517
 20
10590.01374588372
 30
0.0
 40
100.0
  1
F12            1.0
  7
STYLE1
100
AcDbText
  0
TEXT
  5
13FEF
330
747D
100
AcDbEntity
  8
文字
 62
     7
 48
50.0
100
AcDbText
 10
15022.63965474515
 20
8720.013745883729
 30
0.0
 40
100.0
  1
F12            0.7
  7
STYLE1
100
AcDbText
  0
TEXT
  5
13FF0
330
747D
100
AcDbEntity
  8
文字
 62
     7
 48
50.0
100
AcDbText
 10
13583.11819016568
 20
8720.013745883733
 30
0.0
 40
100.0
  1
正面パネル
  7
STYLE1
100
AcDbText
  0
TEXT
  5
13FF1
330
747D
100
AcDbEntity
  8
文字
 62
     7
 48
50.0
100
AcDbText
 10
15022.63965474516
 20
8550.013745883729
 30
0.0
 40
100.0
  1
F12            0.8
  7
STYLE1
100
AcDbText
  0
TEXT
  5
13FF2
330
747D
100
AcDbEntity
  8
文字
 62
     7
 48
50.0
100
AcDbText
 10
13583.11819016569
 20
8550.013745883733
 30
0.0
 40
100.0
  1
扉
  7
STYLE1
100
AcDbText
  0
TEXT
  5
13FF3
330
747D
100
AcDbEntity
  8
文字
 62
     7
 48
50.0
100
AcDbText
 10
13248.77747366447
 20
8720.013745883729
 30
0.0
 40
100.0
  1
15
  7
STYLE1
100
AcDbText
  0
TEXT
  5
13FF4
330
747D
100
AcDbEntity
  8
文字
 62
     7
 48
50.0
100
AcDbText
 10
13583.11819016569
 20
9570.013745883729
 30
0.0
 40
100.0
  1
母屋中
  7
STYLE1
100
AcDbText
  0
LINE
  5
13FF5
330
747D
100
AcDbEntity
  8
仕様書枠
 48
50.0
100
AcDbLine
 10
16307.19999999999
 20
8179.600000000005
 30
0.0
 11
13127.19999999999
 21
8179.600000000007
 31
0.0
  0
DIMENSION
  5
13FF6
330
747D
100
AcDbEntity
  8
寸法
 48
50.0
100
AcDbDimension
  2
*D3
 10
1609.695515348525
 20
4661.88362721818
 30
0.0
 11
1296.210233974278
 21
4661.88362721818
 31
0.0
 70
   160
 71
     5
 42
50.0
  3
INABA_S40G
100
AcDbAlignedDimension
 13
1659.695515348525
 23
4449.342041959943
 33
0.0
 14
1609.695515348525
 24
4449.342041959941
 34
0.0
100
AcDbRotatedDimension
1001
ACAD
1000
DSTYLE
1002
{
1002
}
  0
DIMENSION
  5
13FF7
330
747D
100
AcDbEntity
  8
寸法
 48
50.0
100
AcDbDimension
  2
*D4
 10
8649.695515348529
 20
4882.788927691929
 30
0.0
 11
5129.695515348525
 21
4882.788927691929
 31
0.0
 70
   160
 71
     5
 42
7040.000000000003
  3
INABA_S40G
100
AcDbAlignedDimension
 13
1609.695515348525
 23
4449.342041959941
 33
0.0
 14
8649.695515348529
 24
4449.342041959936
 34
0.0
100
AcDbRotatedDimension
  0
DIMENSION
  5
13FF8
330
747D
100
AcDbEntity
  8
寸法
 48
50.0
100
AcDbDimension
  2
*D5
 10
1659.695515348525
 20
4661.883627218179
 30
0.0
 11
5129.695515348525
 21
4661.883627218179
 31
0.0
 70
   160
  1
柱外寸法<>
 71
     5
 42
6940.000000000003
  3
INABA_S40G
100
AcDbAlignedDimension
 13
8599.695515348528
 23
4449.342041959939
 33
0.0
 14
1659.695515348525
 24
4449.342041959943
 34
0.0
100
AcDbRotatedDimension
  0
LINE
  5
13FF9
330
747D
100
AcDbEntity
  8
細線
 48
50.0
100
AcDbLine
 10
1642.695515348525
 20
4449.342041959939
 30
0.0
 11
1642.695515348525
 21
4308.342041959939
 31
0.0
  0
ARC
  5
13FFA
330
747D
100
AcDbEntity
  8
部品1
100
AcDbCircle
 10
1617.103936454954
 20
4442.342041959938
 30
0.0
 40
7.0
100
AcDbArc
 50
90.0
 51
183.247342790341
  0
ARC
  5
13FFB
330
747D
100
AcDbEntity
  8
部品1
100
AcDbCircle
 10
1630.319259915988
 20
4315.342041959943
 30
0.0
 40
7.0
100
AcDbArc
 50
183.247342790341
 51
270.0
  0
ARC
  5
13FFC
330
747D
100
AcDbEntity
  8
部品1
 48
50.0
100
AcDbCircle
 10
1611.947449705312
 20
4422.009041121626
 30
0.0
 40
0.7
100
AcDbArc
 50
183.2473427903929
 51
262.3418727926363
  0
ARC
  5
13FFD
330
747D
100
AcDbEntity
  8
部品1
 48
50.0
100
AcDbCircle
 10
1620.183480230152
 20
4329.809041121621
 30
0.0
 40
0.7
100
AcDbArc
 50
183.2473427903019
 51
262.3418727926363
  0
ARC
  5
13FFE
330
747D
100
AcDbEntity
  8
部品1
 48
50.0
100
AcDbCircle
 10
1619.690411121592
 20
4326.142041959938
 30
0.0
 40
3.0
100
AcDbArc
 50
3.247342790340932
 51
82.34187279263631
  0
ARC
  5
13FFF
330
747D
100
AcDbEntity
  8
部品1
 48
50.0
100
AcDbCircle
 10
1611.454380596748
 20
4418.342041959942
 30
0.0
 40
3.0
100
AcDbArc
 50
3.247342790340932
 51
82.34187279263631
  0
LINE
  5
14000
330
747D
100
AcDbEntity
  8
部品1
100
AcDbLine
 10
1614.449563492933
 20
4418.511981415042
 30
0.0
 11
1619.484604221044
 21
4329.769388582099
 31
0.0
  0
LINE
  5
14001
330
747D
100
AcDbEntity
  8
部品1
100
AcDbLine
 10
1622.685594017781
 20
4326.311981415041
 30
0.0
 11
1623.33049982489
 21
4314.945516564701
 31
0.0
  0
LINE
  5
14002
330
747D
100
AcDbEntity
  8
部品1
100
AcDbLine
 10
1610.115176363855
 20
4441.945516564701
 30
0.0
 11
1611.248573696204
 21
4421.9693885821
 31
0.0
  0
LINE
  5
14003
330
747D
100
AcDbEntity
  8
部品1
 48
50.0
100
AcDbLine
 10
8642.287094242096
 20
4449.342041959939
 30
0.0
 11
1617.103936454954
 21
4449.342041959936
 31
0.0
  0
LINE
  5
14004
330
747D
100
AcDbEntity
  8
細線
 48
50.0
100
AcDbLine
 10
8647.536864331973
 20
4421.315284523108
 30
0.0
 11
1611.854166358939
 21
4421.315284523936
 31
0.0
  0
LINE
  5
14005
330
747D
100
AcDbEntity
  8
細線
 48
50.0
100
AcDbLine
 10
8639.300833807144
 20
4329.115284523108
 30
0.0
 11
1620.090196883771
 21
4329.115284523934
 31
0.0
  0
LINE
  5
14006
330
747D
100
AcDbEntity
  8
部品1
 48
50.0
100
AcDbLine
 10
8629.071770781061
 20
4308.34204195994
 30
0.0
 11
1630.319259915988
 21
4308.342041959939
 31
0.0
  0
LINE
  5
14007
330
747D
100
AcDbEntity
  8
部品1
100
AcDbLine
 10
8649.275854333195
 20
4441.945516564698
 30
0.0
 11
8648.142457000849
 21
4421.969388582097
 31
0.0
  0
LINE
  5
14008
330
747D
100
AcDbEntity
  8
細線
 48
50.0
100
AcDbLine
 10
8616.69551534853
 20
4449.342041959936
 30
0.0
 11
8616.69551534853
 21
4308.342041959937
 31
0.0
  0
LINE
  5
14009
330
747D
100
AcDbEntity
  8
部品1
100
AcDbLine
 10
8636.705436679273
 20
4326.311981415039
 30
0.0
 11
8636.06053087216
 21
4314.9455165647
 31
0.0
  0
LINE
  5
1400A
330
747D
100
AcDbEntity
  8
部品1
100
AcDbLine
 10
8644.941467204118
 20
4418.51198141504
 30
0.0
 11
8639.906426476006
 21
4329.769388582097
 31
0.0
  0
ARC
  5
1400B
330
747D
100
AcDbEntity
  8
部品1
 48
50.0
100
AcDbCircle
 10
8647.936650100303
 20
4418.342041959938
 30
0.0
 40
3.0
100
AcDbArc
 50
97.6581272073637
 51
176.752657209659
  0
ARC
  5
1400C
330
747D
100
AcDbEntity
  8
部品1
 48
50.0
100
AcDbCircle
 10
8639.700619575458
 20
4326.142041959935
 30
0.0
 40
3.0
100
AcDbArc
 50
97.6581272073637
 51
176.752657209659
  0
ARC
  5
1400D
330
747D
100
AcDbEntity
  8
部品1
 48
50.0
100
AcDbCircle
 10
8639.207550466897
 20
4329.809041121619
 30
0.0
 40
0.7
100
AcDbArc
 50
277.6581272073637
 51
356.7526572096981
  0
ARC
  5
1400E
330
747D
100
AcDbEntity
  8
部品1
 48
50.0
100
AcDbCircle
 10
8647.44358099174
 20
4422.009041121624
 30
0.0
 40
0.7
100
AcDbArc
 50
277.6581272073637
 51
356.752657209607
  0
ARC
  5
1400F
330
747D
100
AcDbEntity
  8
部品1
100
AcDbCircle
 10
8629.071770781061
 20
4315.342041959939
 30
0.0
 40
7.0
100
AcDbArc
 50
270.0
 51
356.752657209659
  0
ARC
  5
14010
330
747D
100
AcDbEntity
  8
部品1
100
AcDbCircle
 10
8642.287094242096
 20
4442.342041959937
 30
0.0
 40
7.0
100
AcDbArc
 50
356.752657209659
 51
90.0
  0
DIMENSION
  5
14011
330
747D
100
AcDbEntity
  8
寸法
 48
50.0
100
AcDbDimension
  2
*D6
 10
8599.695515348528
 20
4661.883627218178
 30
0.0
 11
8963.180796722765
 21
4661.883627218178
 31
0.0
 70
   160
 71
     5
 42
50.0
  3
INABA_S40G
100
AcDbAlignedDimension
 13
8649.695515348529
 23
4449.342041959936
 33
0.0
 14
8599.695515348528
 24
4449.342041959939
 34
0.0
100
AcDbRotatedDimension
  0
TEXT
  5
14012
330
747D
100
AcDbEntity
  8
文字
 62
     7
 48
50.0
100
AcDbText
 10
15022.63965474515
 20
9570.013745883725
 30
0.0
 40
100.0
  1
F12            1.2
  7
STYLE1
100
AcDbText
  0
LINE
  5
140C4
330
747D
100
AcDbEntity
  8
部品1
100
AcDbLine
 10
5119.695515348524
 20
4308.342041959939
 30
0.0
 11
5119.695515348521
 21
4449.342041959936
 31
0.0
  0
LINE
  5
140C5
330
747D
100
AcDbEntity
  8
細線
 48
50.0
100
AcDbLine
 10
8467.195515348514
 20
4214.342041959935
 30
0.0
 11
8467.195515348514
 21
2124.342041959935
 31
0.0
  0
LINE
  5
140C6
330
747D
100
AcDbEntity
  8
細線
 48
50.0
100
AcDbLine
 10
8482.195515348514
 20
4214.342041959935
 30
0.0
 11
8482.195515348514
 21
2124.342041959935
 31
0.0
  0
LINE
  5
140C7
330
747D
100
AcDbEntity
  8
細線
 48
50.0
100
AcDbLine
 10
8342.195515348514
 20
4214.342041959935
 30
0.0
 11
8342.195515348514
 21
2124.342041959935
 31
0.0
  0
LINE
  5
140C8
330
747D
100
AcDbEntity
  8
細線
 48
50.0
100
AcDbLine
 10
8327.195515348513
 20
4214.342041959935
 30
0.0
 11
8327.195515348513
 21
2124.342041959935
 31
0.0
  0
LINE
  5
140C9
330
747D
100
AcDbEntity
  8
細線
 48
50.0
100
AcDbLine
 10
8187.195515348514
 20
4214.342041959935
 30
0.0
 11
8187.195515348514
 21
2124.342041959935
 31
0.0
  0
LINE
  5
140CA
330
747D
100
AcDbEntity
  8
細線
 48
50.0
100
AcDbLine
 10
8202.195515348513
 20
4214.342041959935
 30
0.0
 11
8202.195515348513
 21
2124.342041959935
 31
0.0
  0
LINE
  5
140CB
330
747D
100
AcDbEntity
  8
細線
 48
50.0
100
AcDbLine
 10
8047.19551534851
 20
4214.342041959935
 30
0.0
 11
8047.19551534851
 21
2124.342041959935
 31
0.0
  0
LINE
  5
140CC
330
747D
100
AcDbEntity
  8
細線
 48
50.0
100
AcDbLine
 10
8062.195515348511
 20
4214.342041959935
 30
0.0
 11
8062.195515348511
 21
2124.342041959935
 31
0.0
  0
LINE
  5
140CD
330
747D
100
AcDbEntity
  8
細線
 48
50.0
100
AcDbLine
 10
7922.195515348511
 20
4214.342041959935
 30
0.0
 11
7922.195515348511
 21
2124.342041959935
 31
0.0
  0
LINE
  5
140CE
330
747D
100
AcDbEntity
  8
細線
 48
50.0
100
AcDbLine
 10
7907.195515348511
 20
4214.342041959935
 30
0.0
 11
7907.195515348511
 21
2124.342041959935
 31
0.0
  0
LINE
  5
140CF
330
747D
100
AcDbEntity
  8
細線
 48
50.0
100
AcDbLine
 10
7767.19551534851
 20
4214.342041959935
 30
0.0
 11
7767.19551534851
 21
2124.342041959935
 31
0.0
  0
LINE
  5
140D0
330
747D
100
AcDbEntity
  8
細線
 48
50.0
100
AcDbLine
 10
7782.195515348511
 20
4214.342041959935
 30
0.0
 11
7782.195515348511
 21
2124.342041959935
 31
0.0
  0
LINE
  5
140D1
330
747D
100
AcDbEntity
  8
細線
 48
50.0
100
AcDbLine
 10
7362.195515348528
 20
4214.342041959935
 30
0.0
 11
7362.195515348528
 21
2124.342041959935
 31
0.0
  0
LINE
  5
140D2
330
747D
100
AcDbEntity
  8
細線
 48
50.0
100
AcDbLine
 10
7347.195515348527
 20
4214.342041959935
 30
0.0
 11
7347.195515348527
 21
2124.342041959935
 31
0.0
  0
LINE
  5
140D3
330
747D
100
AcDbEntity
  8
細線
 48
50.0
100
AcDbLine
 10
7487.195515348528
 20
4214.342041959935
 30
0.0
 11
7487.195515348528
 21
2124.342041959935
 31
0.0
  0
LINE
  5
140D4
330
747D
100
AcDbEntity
  8
細線
 48
50.0
100
AcDbLine
 10
7502.195515348526
 20
4214.342041959935
 30
0.0
 11
7502.195515348526
 21
2124.342041959935
 31
0.0
  0
LINE
  5
140D5
330
747D
100
AcDbEntity
  8
細線
 48
50.0
100
AcDbLine
 10
7642.195515348527
 20
4214.342041959935
 30
0.0
 11
7642.195515348527
 21
2124.342041959935
 31
0.0
  0
LINE
  5
140D6
330
747D
100
AcDbEntity
  8
細線
 48
50.0
100
AcDbLine
 10
7627.195515348526
 20
4214.342041959935
 30
0.0
 11
7627.195515348526
 21
2124.342041959935
 31
0.0
  0
LINE
  5
140D7
330
747D
100
AcDbEntity
  8
細線
 48
50.0
100
AcDbLine
 10
6942.195515348522
 20
4214.342041959935
 30
0.0
 11
6942.195515348522
 21
2124.342041959935
 31
0.0
  0
LINE
  5
140D8
330
747D
100
AcDbEntity
  8
細線
 48
50.0
100
AcDbLine
 10
6927.195515348524
 20
4214.342041959935
 30
0.0
 11
6927.195515348524
 21
2124.342041959935
 31
0.0
  0
LINE
  5
140D9
330
747D
100
AcDbEntity
  8
細線
 48
50.0
100
AcDbLine
 10
7067.195515348522
 20
4214.342041959935
 30
0.0
 11
7067.195515348522
 21
2124.342041959935
 31
0.0
  0
LINE
  5
140DA
330
747D
100
AcDbEntity
  8
細線
 48
50.0
100
AcDbLine
 10
7082.195515348523
 20
4214.342041959935
 30
0.0
 11
7082.195515348523
 21
2124.342041959935
 31
0.0
  0
LINE
  5
140DB
330
747D
100
AcDbEntity
  8
細線
 48
50.0
100
AcDbLine
 10
7222.195515348523
 20
4214.342041959935
 30
0.0
 11
7222.195515348523
 21
2124.342041959935
 31
0.0
  0
LINE
  5
140DC
330
747D
100
AcDbEntity
  8
細線
 48
50.0
100
AcDbLine
 10
7207.195515348523
 20
4214.342041959935
 30
0.0
 11
7207.195515348523
 21
2124.342041959935
 31
0.0
  0
LINE
  5
140DD
330
747D
100
AcDbEntity
  8
細線
 48
50.0
100
AcDbLine
 10
6522.195515348501
 20
4214.342041959935
 30
0.0
 11
6522.195515348501
 21
2124.342041959935
 31
0.0
  0
LINE
  5
140DE
330
747D
100
AcDbEntity
  8
細線
 48
50.0
100
AcDbLine
 10
6507.195515348502
 20
4214.342041959935
 30
0.0
 11
6507.195515348502
 21
2124.342041959935
 31
0.0
  0
LINE
  5
140DF
330
747D
100
AcDbEntity
  8
細線
 48
50.0
100
AcDbLine
 10
6647.195515348501
 20
4214.342041959935
 30
0.0
 11
6647.195515348501
 21
2124.342041959935
 31
0.0
  0
LINE
  5
140E0
330
747D
100
AcDbEntity
  8
細線
 48
50.0
100
AcDbLine
 10
6662.195515348502
 20
4214.342041959935
 30
0.0
 11
6662.195515348502
 21
2124.342041959935
 31
0.0
  0
LINE
  5
140E1
330
747D
100
AcDbEntity
  8
細線
 48
50.0
100
AcDbLine
 10
6802.1955153485
 20
4214.342041959935
 30
0.0
 11
6802.1955153485
 21
2124.342041959935
 31
0.0
  0
LINE
  5
140E2
330
747D
100
AcDbEntity
  8
細線
 48
50.0
100
AcDbLine
 10
6787.195515348502
 20
4214.342041959935
 30
0.0
 11
6787.195515348502
 21
2124.342041959935
 31
0.0
  0
LINE
  5
140E3
330
747D
100
AcDbEntity
  8
細線
 48
50.0
100
AcDbLine
 10
6102.195515348496
 20
4214.342041959935
 30
0.0
 11
6102.195515348496
 21
2124.342041959935
 31
0.0
  0
LINE
  5
140E4
330
747D
100
AcDbEntity
  8
細線
 48
50.0
100
AcDbLine
 10
6087.195515348496
 20
4214.342041959935
 30
0.0
 11
6087.195515348496
 21
2124.342041959935
 31
0.0
  0
LINE
  5
140E5
330
747D
100
AcDbEntity
  8
細線
 48
50.0
100
AcDbLine
 10
6227.195515348496
 20
4214.342041959935
 30
0.0
 11
6227.195515348496
 21
2124.342041959935
 31
0.0
  0
LINE
  5
140E6
330
747D
100
AcDbEntity
  8
細線
 48
50.0
100
AcDbLine
 10
6242.195515348496
 20
4214.342041959935
 30
0.0
 11
6242.195515348496
 21
2124.342041959935
 31
0.0
  0
LINE
  5
140E7
330
747D
100
AcDbEntity
  8
細線
 48
50.0
100
AcDbLine
 10
6382.195515348496
 20
4214.342041959935
 30
0.0
 11
6382.195515348496
 21
2124.342041959935
 31
0.0
  0
LINE
  5
140E8
330
747D
100
AcDbEntity
  8
細線
 48
50.0
100
AcDbLine
 10
6367.195515348496
 20
4214.342041959935
 30
0.0
 11
6367.195515348496
 21
2124.342041959935
 31
0.0
  0
LINE
  5
140E9
330
747D
100
AcDbEntity
  8
細線
 48
50.0
100
AcDbLine
 10
5947.195515348514
 20
4214.342041959935
 30
0.0
 11
5947.195515348514
 21
2124.342041959935
 31
0.0
  0
LINE
  5
140EA
330
747D
100
AcDbEntity
  8
細線
 48
50.0
100
AcDbLine
 10
5962.195515348515
 20
4214.342041959935
 30
0.0
 11
5962.195515348515
 21
2124.342041959935
 31
0.0
  0
LINE
  5
140EB
330
747D
100
AcDbEntity
  8
細線
 48
50.0
100
AcDbLine
 10
5822.195515348514
 20
4214.342041959935
 30
0.0
 11
5822.195515348514
 21
2124.342041959935
 31
0.0
  0
LINE
  5
140EC
330
747D
100
AcDbEntity
  8
細線
 48
50.0
100
AcDbLine
 10
5807.195515348514
 20
4214.342041959935
 30
0.0
 11
5807.195515348514
 21
2124.342041959935
 31
0.0
  0
LINE
  5
140ED
330
747D
100
AcDbEntity
  8
細線
 48
50.0
100
AcDbLine
 10
5667.195515348514
 20
4214.342041959935
 30
0.0
 11
5667.195515348514
 21
2124.342041959935
 31
0.0
  0
LINE
  5
140EE
330
747D
100
AcDbEntity
  8
細線
 48
50.0
100
AcDbLine
 10
5682.195515348514
 20
4214.342041959935
 30
0.0
 11
5682.195515348514
 21
2124.342041959935
 31
0.0
  0
LINE
  5
140EF
330
747D
100
AcDbEntity
  8
細線
 48
50.0
100
AcDbLine
 10
5527.195515348511
 20
4214.342041959935
 30
0.0
 11
5527.195515348511
 21
2124.342041959935
 31
0.0
  0
LINE
  5
140F0
330
747D
100
AcDbEntity
  8
細線
 48
50.0
100
AcDbLine
 10
5542.19551534851
 20
4214.342041959935
 30
0.0
 11
5542.19551534851
 21
2124.342041959935
 31
0.0
  0
LINE
  5
140F1
330
747D
100
AcDbEntity
  8
細線
 48
50.0
100
AcDbLine
 10
5402.195515348511
 20
4214.342041959935
 30
0.0
 11
5402.195515348511
 21
2124.342041959935
 31
0.0
  0
LINE
  5
140F2
330
747D
100
AcDbEntity
  8
細線
 48
50.0
100
AcDbLine
 10
5387.19551534851
 20
4214.342041959935
 30
0.0
 11
5387.19551534851
 21
2124.342041959935
 31
0.0
  0
LINE
  5
140F3
330
747D
100
AcDbEntity
  8
細線
 48
50.0
100
AcDbLine
 10
5247.195515348511
 20
4214.342041959935
 30
0.0
 11
5247.195515348511
 21
2124.342041959935
 31
0.0
  0
LINE
  5
140F4
330
747D
100
AcDbEntity
  8
細線
 48
50.0
100
AcDbLine
 10
5262.19551534851
 20
4214.342041959935
 30
0.0
 11
5262.19551534851
 21
2124.342041959935
 31
0.0
  0
LINE
  5
140F5
330
747D
100
AcDbEntity
  8
細線
100
AcDbLine
 10
6024.695515348518
 20
4273.842041959933
 30
0.0
 11
6024.695515348518
 21
4250.842041959933
 31
0.0
  0
LINE
  5
140F6
330
747D
100
AcDbEntity
  8
細線
100
AcDbLine
 10
6098.695515348517
 20
4261.842041959932
 30
0.0
 11
6024.695515348518
 21
4261.842041959932
 31
0.0
  0
LINE
  5
140F7
330
747D
100
AcDbEntity
  8
細線
100
AcDbLine
 10
6098.695515348517
 20
4255.842041959931
 30
0.0
 11
6024.695515348518
 21
4255.842041959933
 31
0.0
  0
LINE
  5
140F8
330
747D
100
AcDbEntity
  8
細線
100
AcDbLine
 10
6098.695515348517
 20
4267.842041959931
 30
0.0
 11
6024.695515348518
 21
4267.842041959933
 31
0.0
  0
LINE
  5
140F9
330
747D
100
AcDbEntity
  8
細線
100
AcDbLine
 10
5950.695515348518
 20
4267.842041959933
 30
0.0
 11
6019.695515348518
 21
4267.842041959933
 31
0.0
  0
LINE
  5
140FA
330
747D
100
AcDbEntity
  8
細線
100
AcDbLine
 10
5950.695515348518
 20
4255.842041959933
 30
0.0
 11
6024.695515348518
 21
4255.842041959933
 31
0.0
  0
LINE
  5
140FB
330
747D
100
AcDbEntity
  8
細線
100
AcDbLine
 10
5950.695515348518
 20
4261.842041959932
 30
0.0
 11
6024.695515348518
 21
4261.842041959932
 31
0.0
  0
LINE
  5
140FC
330
747D
100
AcDbEntity
  8
細線
100
AcDbLine
 10
5950.695515348518
 20
4267.842041959933
 30
0.0
 11
6024.695515348518
 21
4267.842041959933
 31
0.0
  0
LINE
  5
140FD
330
747D
100
AcDbEntity
  8
部品1
 48
0.01
100
AcDbLine
 10
6112.695515348518
 20
4280.342041959933
 30
0.0
 11
5936.695515348517
 21
4280.342041959933
 31
0.0
  0
LINE
  5
140FE
330
747D
100
AcDbEntity
  8
部品1
 48
0.01
100
AcDbLine
 10
5934.695515348518
 20
4278.342041959933
 30
0.0
 11
5934.695515348518
 21
4246.842041959933
 31
0.0
  0
LINE
  5
140FF
330
747D
100
AcDbEntity
  8
部品1
 48
0.01
100
AcDbLine
 10
5936.695515348517
 20
4244.842041959933
 30
0.0
 11
6112.695515348518
 21
4244.842041959933
 31
0.0
  0
LINE
  5
14100
330
747D
100
AcDbEntity
  8
部品1
 48
0.01
100
AcDbLine
 10
6114.695515348518
 20
4246.842041959933
 30
0.0
 11
6114.695515348518
 21
4278.342041959933
 31
0.0
  0
LINE
  5
14101
330
747D
100
AcDbEntity
  8
細線
100
AcDbLine
 10
5950.695515348518
 20
4273.842041959933
 30
0.0
 11
5950.695515348518
 21
4250.842041959933
 31
0.0
  0
LINE
  5
14102
330
747D
100
AcDbEntity
  8
細線
100
AcDbLine
 10
6098.695515348517
 20
4250.842041959933
 30
0.0
 11
6098.695515348517
 21
4273.842041959933
 31
0.0
  0
LINE
  5
14103
330
747D
100
AcDbEntity
  8
細線
100
AcDbLine
 10
6098.695515348517
 20
4273.842041959933
 30
0.0
 11
6024.695515348518
 21
4273.842041959933
 31
0.0
  0
LINE
  5
14104
330
747D
100
AcDbEntity
  8
細線
100
AcDbLine
 10
5950.695515348518
 20
4250.842041959933
 30
0.0
 11
6024.695515348518
 21
4250.842041959933
 31
0.0
  0
LINE
  5
14105
330
747D
100
AcDbEntity
  8
細線
100
AcDbLine
 10
6024.695515348518
 20
4273.842041959933
 30
0.0
 11
5950.695515348518
 21
4273.842041959933
 31
0.0
  0
LINE
  5
14106
330
747D
100
AcDbEntity
  8
細線
100
AcDbLine
 10
6024.695515348518
 20
4250.842041959933
 30
0.0
 11
6098.695515348517
 21
4250.842041959933
 31
0.0
  0
ARC
  5
14107
330
747D
100
AcDbEntity
  8
部品1
 48
0.01
100
AcDbCircle
 10
5936.695515348517
 20
4278.342041959933
 30
0.0
 40
2.0
100
AcDbArc
 50
90.0
 51
180.0
  0
ARC
  5
14108
330
747D
100
AcDbEntity
  8
部品1
 48
0.01
100
AcDbCircle
 10
5936.695515348517
 20
4246.842041959933
 30
0.0
 40
2.0
100
AcDbArc
 50
180.0
 51
270.0
  0
ARC
  5
14109
330
747D
100
AcDbEntity
  8
部品1
 48
0.01
100
AcDbCircle
 10
6112.695515348518
 20
4278.342041959933
 30
0.0
 40
2.0
100
AcDbArc
 50
0.0
 51
90.0
  0
ARC
  5
1410A
330
747D
100
AcDbEntity
  8
部品1
 48
0.01
100
AcDbCircle
 10
6112.695515348518
 20
4246.842041959933
 30
0.0
 40
2.0
100
AcDbArc
 50
270.0
 51
0.0
  0
ARC
  5
1410B
330
747D
100
AcDbEntity
  8
部品1
 48
0.01
100
AcDbCircle
 10
7616.695515348531
 20
4246.842041959935
 30
0.0
 40
2.0
100
AcDbArc
 50
180.0
 51
270.0
  0
ARC
  5
1410C
330
747D
100
AcDbEntity
  8
部品1
 48
0.01
100
AcDbCircle
 10
7616.695515348531
 20
4278.342041959935
 30
0.0
 40
2.0
100
AcDbArc
 50
90.0
 51
180.0
  0
ARC
  5
1410D
330
747D
100
AcDbEntity
  8
部品1
 48
0.01
100
AcDbCircle
 10
7792.695515348532
 20
4246.842041959935
 30
0.0
 40
2.0
100
AcDbArc
 50
270.0
 51
0.0
  0
ARC
  5
1410E
330
747D
100
AcDbEntity
  8
部品1
 48
0.01
100
AcDbCircle
 10
7792.695515348532
 20
4278.342041959935
 30
0.0
 40
2.0
100
AcDbArc
 50
0.0
 51
90.0
  0
LINE
  5
1410F
330
747D
100
AcDbEntity
  8
細線
100
AcDbLine
 10
7704.695515348532
 20
4250.842041959935
 30
0.0
 11
7630.695515348532
 21
4250.842041959935
 31
0.0
  0
LINE
  5
14110
330
747D
100
AcDbEntity
  8
細線
100
AcDbLine
 10
7704.695515348532
 20
4273.842041959935
 30
0.0
 11
7778.695515348532
 21
4273.842041959935
 31
0.0
  0
LINE
  5
14111
330
747D
100
AcDbEntity
  8
細線
100
AcDbLine
 10
7778.695515348532
 20
4250.842041959935
 30
0.0
 11
7704.695515348532
 21
4250.842041959935
 31
0.0
  0
LINE
  5
14112
330
747D
100
AcDbEntity
  8
細線
100
AcDbLine
 10
7630.695515348532
 20
4273.842041959935
 30
0.0
 11
7704.695515348532
 21
4273.842041959935
 31
0.0
  0
LINE
  5
14113
330
747D
100
AcDbEntity
  8
細線
100
AcDbLine
 10
7630.695515348532
 20
4250.842041959935
 30
0.0
 11
7630.695515348532
 21
4273.842041959935
 31
0.0
  0
LINE
  5
14114
330
747D
100
AcDbEntity
  8
細線
100
AcDbLine
 10
7778.695515348532
 20
4273.842041959935
 30
0.0
 11
7778.695515348532
 21
4250.842041959935
 31
0.0
  0
LINE
  5
14115
330
747D
100
AcDbEntity
  8
部品1
 48
0.01
100
AcDbLine
 10
7614.695515348532
 20
4246.842041959935
 30
0.0
 11
7614.695515348532
 21
4278.342041959935
 31
0.0
  0
LINE
  5
14116
330
747D
100
AcDbEntity
  8
部品1
 48
0.01
100
AcDbLine
 10
7792.695515348532
 20
4244.842041959935
 30
0.0
 11
7616.695515348531
 21
4244.842041959935
 31
0.0
  0
LINE
  5
14117
330
747D
100
AcDbEntity
  8
部品1
 48
0.01
100
AcDbLine
 10
7794.695515348532
 20
4278.342041959935
 30
0.0
 11
7794.695515348532
 21
4246.842041959935
 31
0.0
  0
LINE
  5
14118
330
747D
100
AcDbEntity
  8
部品1
 48
0.01
100
AcDbLine
 10
7616.695515348531
 20
4280.342041959936
 30
0.0
 11
7792.695515348532
 21
4280.342041959936
 31
0.0
  0
LINE
  5
14119
330
747D
100
AcDbEntity
  8
細線
100
AcDbLine
 10
7778.695515348532
 20
4267.842041959935
 30
0.0
 11
7704.695515348532
 21
4267.842041959935
 31
0.0
  0
LINE
  5
1411A
330
747D
100
AcDbEntity
  8
細線
100
AcDbLine
 10
7778.695515348532
 20
4261.842041959935
 30
0.0
 11
7704.695515348532
 21
4261.842041959935
 31
0.0
  0
LINE
  5
1411B
330
747D
100
AcDbEntity
  8
細線
100
AcDbLine
 10
7778.695515348532
 20
4255.842041959935
 30
0.0
 11
7704.695515348532
 21
4255.842041959935
 31
0.0
  0
LINE
  5
1411C
330
747D
100
AcDbEntity
  8
細線
100
AcDbLine
 10
7778.695515348532
 20
4267.842041959935
 30
0.0
 11
7709.695515348532
 21
4267.842041959935
 31
0.0
  0
LINE
  5
1411D
330
747D
100
AcDbEntity
  8
細線
100
AcDbLine
 10
7630.695515348532
 20
4267.842041959933
 30
0.0
 11
7704.695515348532
 21
4267.842041959935
 31
0.0
  0
LINE
  5
1411E
330
747D
100
AcDbEntity
  8
細線
100
AcDbLine
 10
7630.695515348532
 20
4255.842041959933
 30
0.0
 11
7704.695515348532
 21
4255.842041959935
 31
0.0
  0
LINE
  5
1411F
330
747D
100
AcDbEntity
  8
細線
100
AcDbLine
 10
7630.695515348532
 20
4261.842041959935
 30
0.0
 11
7704.695515348532
 21
4261.842041959935
 31
0.0
  0
LINE
  5
14120
330
747D
100
AcDbEntity
  8
細線
100
AcDbLine
 10
7704.695515348532
 20
4273.842041959935
 30
0.0
 11
7704.695515348532
 21
4250.842041959935
 31
0.0
  0
LINE
  5
14121
330
747D
100
AcDbEntity
  8
細線
100
AcDbLine
 10
4234.695515348533
 20
4273.842041959935
 30
0.0
 11
4234.695515348533
 21
4250.842041959935
 31
0.0
  0
LINE
  5
14122
330
747D
100
AcDbEntity
  8
細線
100
AcDbLine
 10
4160.695515348532
 20
4261.842041959935
 30
0.0
 11
4234.695515348533
 21
4261.842041959935
 31
0.0
  0
LINE
  5
14123
330
747D
100
AcDbEntity
  8
細線
100
AcDbLine
 10
4160.695515348532
 20
4255.842041959933
 30
0.0
 11
4234.695515348533
 21
4255.842041959935
 31
0.0
  0
LINE
  5
14124
330
747D
100
AcDbEntity
  8
細線
100
AcDbLine
 10
4160.695515348532
 20
4267.842041959933
 30
0.0
 11
4234.695515348533
 21
4267.842041959935
 31
0.0
  0
LINE
  5
14125
330
747D
100
AcDbEntity
  8
細線
100
AcDbLine
 10
4308.695515348532
 20
4267.842041959935
 30
0.0
 11
4239.695515348532
 21
4267.842041959935
 31
0.0
  0
LINE
  5
14126
330
747D
100
AcDbEntity
  8
細線
100
AcDbLine
 10
4308.695515348532
 20
4255.842041959935
 30
0.0
 11
4234.695515348533
 21
4255.842041959935
 31
0.0
  0
LINE
  5
14127
330
747D
100
AcDbEntity
  8
細線
100
AcDbLine
 10
4308.695515348532
 20
4261.842041959935
 30
0.0
 11
4234.695515348533
 21
4261.842041959935
 31
0.0
  0
LINE
  5
14128
330
747D
100
AcDbEntity
  8
細線
100
AcDbLine
 10
4308.695515348532
 20
4267.842041959935
 30
0.0
 11
4234.695515348533
 21
4267.842041959935
 31
0.0
  0
LINE
  5
14129
330
747D
100
AcDbEntity
  8
部品1
 48
0.01
100
AcDbLine
 10
4146.695515348532
 20
4280.342041959936
 30
0.0
 11
4322.695515348533
 21
4280.342041959936
 31
0.0
  0
LINE
  5
1412A
330
747D
100
AcDbEntity
  8
部品1
 48
0.01
100
AcDbLine
 10
4324.695515348532
 20
4278.342041959935
 30
0.0
 11
4324.695515348532
 21
4246.842041959935
 31
0.0
  0
LINE
  5
1412B
330
747D
100
AcDbEntity
  8
部品1
 48
0.01
100
AcDbLine
 10
4322.695515348533
 20
4244.842041959935
 30
0.0
 11
4146.695515348532
 21
4244.842041959935
 31
0.0
  0
LINE
  5
1412C
330
747D
100
AcDbEntity
  8
部品1
 48
0.01
100
AcDbLine
 10
4144.695515348533
 20
4246.842041959935
 30
0.0
 11
4144.695515348533
 21
4278.342041959935
 31
0.0
  0
LINE
  5
1412D
330
747D
100
AcDbEntity
  8
細線
100
AcDbLine
 10
4308.695515348532
 20
4273.842041959935
 30
0.0
 11
4308.695515348532
 21
4250.842041959935
 31
0.0
  0
LINE
  5
1412E
330
747D
100
AcDbEntity
  8
細線
100
AcDbLine
 10
4160.695515348532
 20
4250.842041959935
 30
0.0
 11
4160.695515348532
 21
4273.842041959935
 31
0.0
  0
LINE
  5
1412F
330
747D
100
AcDbEntity
  8
細線
100
AcDbLine
 10
4160.695515348532
 20
4273.842041959935
 30
0.0
 11
4234.695515348533
 21
4273.842041959935
 31
0.0
  0
LINE
  5
14130
330
747D
100
AcDbEntity
  8
細線
100
AcDbLine
 10
4308.695515348532
 20
4250.842041959935
 30
0.0
 11
4234.695515348533
 21
4250.842041959935
 31
0.0
  0
LINE
  5
14131
330
747D
100
AcDbEntity
  8
細線
100
AcDbLine
 10
4234.695515348533
 20
4273.842041959935
 30
0.0
 11
4308.695515348532
 21
4273.842041959935
 31
0.0
  0
LINE
  5
14132
330
747D
100
AcDbEntity
  8
細線
100
AcDbLine
 10
4234.695515348533
 20
4250.842041959935
 30
0.0
 11
4160.695515348532
 21
4250.842041959935
 31
0.0
  0
ARC
  5
14133
330
747D
100
AcDbEntity
  8
部品1
 48
0.01
100
AcDbCircle
 10
4322.695515348533
 20
4278.342041959935
 30
0.0
 40
2.0
100
AcDbArc
 50
0.0
 51
90.0
  0
ARC
  5
14134
330
747D
100
AcDbEntity
  8
部品1
 48
0.01
100
AcDbCircle
 10
4322.695515348533
 20
4246.842041959935
 30
0.0
 40
2.0
100
AcDbArc
 50
270.0
 51
0.0
  0
ARC
  5
14135
330
747D
100
AcDbEntity
  8
部品1
 48
0.01
100
AcDbCircle
 10
4146.695515348532
 20
4278.342041959935
 30
0.0
 40
2.0
100
AcDbArc
 50
90.0
 51
180.0
  0
ARC
  5
14136
330
747D
100
AcDbEntity
  8
部品1
 48
0.01
100
AcDbCircle
 10
4146.695515348532
 20
4246.842041959935
 30
0.0
 40
2.0
100
AcDbArc
 50
180.0
 51
270.0
  0
ARC
  5
14137
330
747D
100
AcDbEntity
  8
部品1
 48
0.01
100
AcDbCircle
 10
2642.695515348518
 20
4246.842041959933
 30
0.0
 40
2.0
100
AcDbArc
 50
270.0
 51
0.0
  0
ARC
  5
14138
330
747D
100
AcDbEntity
  8
部品1
 48
0.01
100
AcDbCircle
 10
2642.695515348518
 20
4278.342041959933
 30
0.0
 40
2.0
100
AcDbArc
 50
0.0
 51
90.0
  0
ARC
  5
14139
330
747D
100
AcDbEntity
  8
部品1
 48
0.01
100
AcDbCircle
 10
2466.695515348518
 20
4246.842041959933
 30
0.0
 40
2.0
100
AcDbArc
 50
180.0
 51
270.0
  0
ARC
  5
1413A
330
747D
100
AcDbEntity
  8
部品1
 48
0.01
100
AcDbCircle
 10
2466.695515348518
 20
4278.342041959933
 30
0.0
 40
2.0
100
AcDbArc
 50
90.0
 51
180.0
  0
LINE
  5
1413B
330
747D
100
AcDbEntity
  8
細線
100
AcDbLine
 10
2554.695515348518
 20
4250.842041959933
 30
0.0
 11
2628.695515348518
 21
4250.842041959933
 31
0.0
  0
LINE
  5
1413C
330
747D
100
AcDbEntity
  8
細線
100
AcDbLine
 10
2554.695515348518
 20
4273.842041959933
 30
0.0
 11
2480.695515348518
 21
4273.842041959933
 31
0.0
  0
LINE
  5
1413D
330
747D
100
AcDbEntity
  8
細線
100
AcDbLine
 10
2480.695515348518
 20
4250.842041959933
 30
0.0
 11
2554.695515348518
 21
4250.842041959933
 31
0.0
  0
LINE
  5
1413E
330
747D
100
AcDbEntity
  8
細線
100
AcDbLine
 10
2628.695515348518
 20
4273.842041959933
 30
0.0
 11
2554.695515348518
 21
4273.842041959933
 31
0.0
  0
LINE
  5
1413F
330
747D
100
AcDbEntity
  8
細線
100
AcDbLine
 10
2628.695515348518
 20
4250.842041959933
 30
0.0
 11
2628.695515348518
 21
4273.842041959933
 31
0.0
  0
LINE
  5
14140
330
747D
100
AcDbEntity
  8
細線
100
AcDbLine
 10
2480.695515348518
 20
4273.842041959933
 30
0.0
 11
2480.695515348518
 21
4250.842041959933
 31
0.0
  0
LINE
  5
14141
330
747D
100
AcDbEntity
  8
部品1
 48
0.01
100
AcDbLine
 10
2644.695515348518
 20
4246.842041959933
 30
0.0
 11
2644.695515348518
 21
4278.342041959933
 31
0.0
  0
LINE
  5
14142
330
747D
100
AcDbEntity
  8
部品1
 48
0.01
100
AcDbLine
 10
2466.695515348518
 20
4244.842041959933
 30
0.0
 11
2642.695515348518
 21
4244.842041959933
 31
0.0
  0
LINE
  5
14143
330
747D
100
AcDbEntity
  8
部品1
 48
0.01
100
AcDbLine
 10
2464.695515348518
 20
4278.342041959933
 30
0.0
 11
2464.695515348518
 21
4246.842041959933
 31
0.0
  0
LINE
  5
14144
330
747D
100
AcDbEntity
  8
部品1
 48
0.01
100
AcDbLine
 10
2642.695515348518
 20
4280.342041959933
 30
0.0
 11
2466.695515348518
 21
4280.342041959933
 31
0.0
  0
LINE
  5
14145
330
747D
100
AcDbEntity
  8
細線
100
AcDbLine
 10
2480.695515348518
 20
4267.842041959933
 30
0.0
 11
2554.695515348518
 21
4267.842041959933
 31
0.0
  0
LINE
  5
14146
330
747D
100
AcDbEntity
  8
細線
100
AcDbLine
 10
2480.695515348518
 20
4261.842041959932
 30
0.0
 11
2554.695515348518
 21
4261.842041959932
 31
0.0
  0
LINE
  5
14147
330
747D
100
AcDbEntity
  8
細線
100
AcDbLine
 10
2480.695515348518
 20
4255.842041959933
 30
0.0
 11
2554.695515348518
 21
4255.842041959933
 31
0.0
  0
LINE
  5
14148
330
747D
100
AcDbEntity
  8
細線
100
AcDbLine
 10
2480.695515348518
 20
4267.842041959933
 30
0.0
 11
2549.695515348518
 21
4267.842041959933
 31
0.0
  0
LINE
  5
14149
330
747D
100
AcDbEntity
  8
細線
100
AcDbLine
 10
2628.695515348518
 20
4267.842041959931
 30
0.0
 11
2554.695515348518
 21
4267.842041959933
 31
0.0
  0
LINE
  5
1414A
330
747D
100
AcDbEntity
  8
細線
100
AcDbLine
 10
2628.695515348518
 20
4255.842041959931
 30
0.0
 11
2554.695515348518
 21
4255.842041959933
 31
0.0
  0
LINE
  5
1414B
330
747D
100
AcDbEntity
  8
細線
100
AcDbLine
 10
2628.695515348518
 20
4261.842041959932
 30
0.0
 11
2554.695515348518
 21
4261.842041959932
 31
0.0
  0
LINE
  5
1414C
330
747D
100
AcDbEntity
  8
細線
100
AcDbLine
 10
2554.695515348518
 20
4273.842041959933
 30
0.0
 11
2554.695515348518
 21
4250.842041959933
 31
0.0
  0
LINE
  5
1414D
330
747D
100
AcDbEntity
  8
部品1
 48
50.0
100
AcDbLine
 10
3355.695515348525
 20
4157.342041959937
 30
0.0
 11
3355.695515348525
 21
2124.342041959935
 31
0.0
  0
LINE
  5
1414E
330
747D
100
AcDbEntity
  8
部品1
100
AcDbLine
 10
4006.695515348518
 20
4157.342041959937
 30
0.0
 11
4006.695515348525
 21
2131.84204195995
 31
0.0
  0
LINE
  5
1414F
330
747D
100
AcDbEntity
  8
細線
100
AcDbLine
 10
3261.695515348525
 20
4157.342041959937
 30
0.0
 11
3261.695515348525
 21
2124.342041959943
 31
0.0
  0
LINE
  5
14150
330
747D
100
AcDbEntity
  8
細線
100
AcDbLine
 10
3191.695515348525
 20
4157.342041959937
 30
0.0
 11
3191.695515348525
 21
2124.342041959943
 31
0.0
  0
LINE
  5
14151
330
747D
100
AcDbEntity
  8
細線
100
AcDbLine
 10
3121.695515348525
 20
4157.342041959937
 30
0.0
 11
3121.695515348525
 21
2124.342041959943
 31
0.0
  0
LINE
  5
14152
330
747D
100
AcDbEntity
  8
細線
100
AcDbLine
 10
3051.695515348525
 20
4157.342041959937
 30
0.0
 11
3051.695515348525
 21
2124.342041959939
 31
0.0
  0
LINE
  5
14153
330
747D
100
AcDbEntity
  8
細線
100
AcDbLine
 10
2981.695515348525
 20
4157.342041959937
 30
0.0
 11
2981.695515348525
 21
2124.342041959939
 31
0.0
  0
LINE
  5
14154
330
747D
100
AcDbEntity
  8
細線
100
AcDbLine
 10
2911.695515348525
 20
4157.342041959937
 30
0.0
 11
2911.695515348525
 21
2124.342041959939
 31
0.0
  0
LINE
  5
14155
330
747D
100
AcDbEntity
  8
部品1
100
AcDbLine
 10
2727.695515348525
 20
4157.342041959937
 30
0.0
 11
2727.695515348525
 21
2124.342041959943
 31
0.0
  0
LINE
  5
14156
330
747D
100
AcDbEntity
  8
部品1
100
AcDbLine
 10
2677.695515348525
 20
4157.342041959937
 30
0.0
 11
2677.695515348525
 21
2124.342041959943
 31
0.0
  0
LINE
  5
14157
330
747D
100
AcDbEntity
  8
細線
100
AcDbLine
 10
2719.695515348525
 20
4157.342041959937
 30
0.0
 11
2719.695515348525
 21
2124.342041959943
 31
0.0
  0
LINE
  5
14158
330
747D
100
AcDbEntity
  8
細線
100
AcDbLine
 10
2685.695515348526
 20
4157.342041959937
 30
0.0
 11
2685.695515348526
 21
2124.342041959943
 31
0.0
  0
LINE
  5
14159
330
747D
100
AcDbEntity
  8
細線
100
AcDbLine
 10
3905.695515348526
 20
4157.342041959937
 30
0.0
 11
3905.695515348526
 21
2131.84204195995
 31
0.0
  0
LINE
  5
1415A
330
747D
100
AcDbEntity
  8
細線
100
AcDbLine
 10
3835.695515348525
 20
4157.342041959937
 30
0.0
 11
3835.695515348525
 21
2131.84204195995
 31
0.0
  0
LINE
  5
1415B
330
747D
100
AcDbEntity
  8
細線
100
AcDbLine
 10
3765.695515348525
 20
4157.342041959937
 30
0.0
 11
3765.695515348525
 21
2131.84204195995
 31
0.0
  0
LINE
  5
1415C
330
747D
100
AcDbEntity
  8
細線
100
AcDbLine
 10
3695.695515348525
 20
4157.342041959937
 30
0.0
 11
3695.695515348525
 21
2131.84204195995
 31
0.0
  0
LINE
  5
1415D
330
747D
100
AcDbEntity
  8
細線
100
AcDbLine
 10
3625.695515348525
 20
4157.342041959937
 30
0.0
 11
3625.695515348525
 21
2131.84204195995
 31
0.0
  0
LINE
  5
1415E
330
747D
100
AcDbEntity
  8
細線
100
AcDbLine
 10
3555.695515348526
 20
4157.342041959937
 30
0.0
 11
3555.695515348526
 21
2131.84204195995
 31
0.0
  0
LINE
  5
1415F
330
747D
100
AcDbEntity
  8
細線
100
AcDbLine
 10
4491.195515348525
 20
4157.342041959937
 30
0.0
 11
4491.195515348525
 21
2131.842041959953
 31
0.0
  0
LINE
  5
14160
330
747D
100
AcDbEntity
  8
細線
100
AcDbLine
 10
4421.195515348524
 20
4157.342041959937
 30
0.0
 11
4421.195515348524
 21
2131.842041959953
 31
0.0
  0
LINE
  5
14161
330
747D
100
AcDbEntity
  8
細線
100
AcDbLine
 10
4351.195515348525
 20
4157.342041959937
 30
0.0
 11
4351.195515348525
 21
2131.842041959953
 31
0.0
  0
LINE
  5
14162
330
747D
100
AcDbEntity
  8
細線
100
AcDbLine
 10
4281.195515348525
 20
4157.342041959937
 30
0.0
 11
4281.195515348525
 21
2131.842041959953
 31
0.0
  0
LINE
  5
14163
330
747D
100
AcDbEntity
  8
細線
100
AcDbLine
 10
4211.195515348525
 20
4157.342041959937
 30
0.0
 11
4211.195515348525
 21
2131.842041959953
 31
0.0
  0
LINE
  5
14167
330
747D
100
AcDbEntity
  8
部品1
 48
50.0
100
AcDbLine
 10
2601.695515348525
 20
3205.842041959937
 30
0.0
 11
2654.695515348525
 21
3205.842041959937
 31
0.0
  0
LINE
  5
14181
330
747D
100
AcDbEntity
  8
細線
100
AcDbLine
 10
2841.695515348525
 20
4157.342041959937
 30
0.0
 11
2841.695515348525
 21
2124.342041959939
 31
0.0
  0
LINE
  5
14182
330
747D
100
AcDbEntity
  8
細線
100
AcDbLine
 10
2771.695515348525
 20
4157.342041959937
 30
0.0
 11
2771.695515348525
 21
2124.342041959939
 31
0.0
  0
LINE
  5
14183
330
747D
100
AcDbEntity
  8
細線
100
AcDbLine
 10
3485.695515348525
 20
4157.342041959937
 30
0.0
 11
3485.695515348525
 21
2131.84204195995
 31
0.0
  0
LINE
  5
14184
330
747D
100
AcDbEntity
  8
細線
100
AcDbLine
 10
3415.695515348525
 20
4157.342041959937
 30
0.0
 11
3415.695515348525
 21
2131.84204195995
 31
0.0
  0
LINE
  5
14185
330
747D
100
AcDbEntity
  8
細線
100
AcDbLine
 10
4141.195515348525
 20
4157.342041959937
 30
0.0
 11
4141.195515348525
 21
2131.842041959953
 31
0.0
  0
LINE
  5
14186
330
747D
100
AcDbEntity
  8
部品1
 48
50.0
100
AcDbLine
 10
4006.695515348525
 20
4157.342041959934
 30
0.0
 11
4006.695515348525
 21
2131.842041959935
 31
0.0
  0
LINE
  5
14187
330
747D
100
AcDbEntity
  8
部品1
 48
50.0
100
AcDbLine
 10
4681.695515348525
 20
1974.342041959935
 30
0.0
 11
4681.695515348525
 21
4209.342041959935
 31
0.0
  0
LINE
  5
14188
330
747D
100
AcDbEntity
  8
細線
 48
50.0
100
AcDbLine
 10
4651.695515348524
 20
2074.342041959935
 30
0.0
 11
4651.695515348524
 21
4166.842041959935
 31
0.0
  0
LINE
  5
14189
330
747D
100
AcDbEntity
  8
部品1
 48
50.0
100
AcDbLine
 10
4642.695515348525
 20
2121.342041959935
 30
0.0
 11
4642.695515348525
 21
4157.342041959934
 31
0.0
  0
LINE
  5
1418A
330
747D
100
AcDbEntity
  8
部品1
 48
50.0
100
AcDbLine
 10
3355.695515348525
 20
4157.342041959934
 30
0.0
 11
3355.695515348525
 21
2124.342041959935
 31
0.0
  0
LINE
  5
1418B
330
747D
100
AcDbEntity
  8
部品1
 48
50.0
100
AcDbLine
 10
2557.695515348525
 20
2124.342041959935
 30
0.0
 11
3355.695515348525
 21
2124.342041959935
 31
0.0
  0
LINE
  5
1418C
330
747D
100
AcDbEntity
  8
細線
 48
50.0
100
AcDbLine
 10
2557.695515348525
 20
2121.342041959935
 30
0.0
 11
4651.695515348524
 21
2121.342041959935
 31
0.0
  0
LINE
  5
1418D
330
747D
100
AcDbEntity
  8
細線
 48
50.0
100
AcDbLine
 10
2557.695515348525
 20
2117.342041959935
 30
0.0
 11
4651.695515348524
 21
2117.342041959935
 31
0.0
  0
LINE
  5
1418E
330
747D
100
AcDbEntity
  8
部品1
 48
50.0
100
AcDbLine
 10
2566.695515348525
 20
2124.342041959935
 30
0.0
 11
2566.695515348525
 21
2121.342041959935
 31
0.0
  0
LINE
  5
1418F
330
747D
100
AcDbEntity
  8
細線
 48
50.0
100
AcDbLine
 10
2557.695515348525
 20
4166.842041959935
 30
0.0
 11
2557.695515348525
 21
2074.342041959935
 31
0.0
  0
LINE
  5
14190
330
747D
100
AcDbEntity
  8
部品1
 48
50.0
100
AcDbLine
 10
2557.695515348525
 20
2124.342041959935
 30
0.0
 11
2557.695515348525
 21
4157.342041959934
 31
0.0
  0
LINE
  5
14191
330
747D
100
AcDbEntity
  8
部品1
 48
50.0
100
AcDbLine
 10
2527.695515348525
 20
4209.342041959935
 30
0.0
 11
2527.695515348525
 21
1974.342041959935
 31
0.0
  0
LINE
  5
14192
330
747D
100
AcDbEntity
  8
細線
 48
50.0
100
AcDbLine
 10
4629.695515348525
 20
2121.342041959935
 30
0.0
 11
4625.695515348525
 21
2131.842041959935
 31
0.0
  0
LINE
  5
14193
330
747D
100
AcDbEntity
  8
細線
 48
50.0
100
AcDbLine
 10
3355.695515348525
 20
2131.842041959935
 30
0.0
 11
4625.695515348525
 21
2131.842041959935
 31
0.0
  0
LINE
  5
14194
330
747D
100
AcDbEntity
  8
部品1
 48
50.0
100
AcDbLine
 10
4681.695515348525
 20
4165.342041959934
 30
0.0
 11
4651.695515348524
 21
4165.342041959934
 31
0.0
  0
LINE
  5
14195
330
747D
100
AcDbEntity
  8
細線
 48
50.0
100
AcDbLine
 10
4681.695515348525
 20
4199.342041959935
 30
0.0
 11
2527.695515348525
 21
4199.342041959935
 31
0.0
  0
LINE
  5
14196
330
747D
100
AcDbEntity
  8
部品1
 48
50.0
100
AcDbLine
 10
4681.695515348525
 20
4209.342041959935
 30
0.0
 11
2527.695515348525
 21
4209.342041959935
 31
0.0
  0
LINE
  5
14197
330
747D
100
AcDbEntity
  8
細線
 48
50.0
100
AcDbLine
 10
4651.695515348524
 20
4166.842041959935
 30
0.0
 11
2557.695515348525
 21
4166.842041959935
 31
0.0
  0
LINE
  5
14198
330
747D
100
AcDbEntity
  8
細線
 48
50.0
100
AcDbLine
 10
4651.695515348524
 20
4157.342041959934
 30
0.0
 11
2557.695515348525
 21
4157.342041959934
 31
0.0
  0
LINE
  5
14199
330
747D
100
AcDbEntity
  8
部品1
 48
50.0
100
AcDbLine
 10
2557.695515348525
 20
4165.342041959934
 30
0.0
 11
2527.695515348525
 21
4165.342041959934
 31
0.0
  0
LINE
  5
1419A
330
747D
100
AcDbEntity
  8
部品1
100
AcDbLine
 10
4654.695515348524
 20
4214.342041959937
 30
0.0
 11
4654.695515348524
 21
4209.342041959935
 31
0.0
  0
LINE
  5
1419B
330
747D
100
AcDbEntity
  8
部品1
100
AcDbLine
 10
2554.695515348525
 20
4214.342041959937
 30
0.0
 11
2554.695515348525
 21
4209.342041959935
 31
0.0
  0
LINE
  5
1419C
330
747D
100
AcDbEntity
  8
細線
 48
50.0
100
AcDbLine
 10
2212.195515348514
 20
4214.342041959935
 30
0.0
 11
2212.195515348514
 21
2124.342041959935
 31
0.0
  0
LINE
  5
1419D
330
747D
100
AcDbEntity
  8
細線
 48
50.0
100
AcDbLine
 10
2197.195515348514
 20
4214.342041959935
 30
0.0
 11
2197.195515348514
 21
2124.342041959935
 31
0.0
  0
LINE
  5
1419E
330
747D
100
AcDbEntity
  8
細線
 48
50.0
100
AcDbLine
 10
2337.195515348514
 20
4214.342041959935
 30
0.0
 11
2337.195515348514
 21
2124.342041959935
 31
0.0
  0
LINE
  5
1419F
330
747D
100
AcDbEntity
  8
細線
 48
50.0
100
AcDbLine
 10
2352.195515348514
 20
4214.342041959935
 30
0.0
 11
2352.195515348514
 21
2124.342041959935
 31
0.0
  0
LINE
  5
141A0
330
747D
100
AcDbEntity
  8
細線
 48
50.0
100
AcDbLine
 10
2492.195515348515
 20
4214.342041959935
 30
0.0
 11
2492.195515348515
 21
2124.342041959935
 31
0.0
  0
LINE
  5
141A1
330
747D
100
AcDbEntity
  8
細線
 48
50.0
100
AcDbLine
 10
2477.195515348514
 20
4214.342041959935
 30
0.0
 11
2477.195515348514
 21
2124.342041959935
 31
0.0
  0
LINE
  5
141A2
330
747D
100
AcDbEntity
  8
細線
 48
50.0
100
AcDbLine
 10
1792.19551534851
 20
4214.342041959935
 30
0.0
 11
1792.19551534851
 21
2124.342041959935
 31
0.0
  0
LINE
  5
141A3
330
747D
100
AcDbEntity
  8
細線
 48
50.0
100
AcDbLine
 10
1777.19551534851
 20
4214.342041959935
 30
0.0
 11
1777.19551534851
 21
2124.342041959935
 31
0.0
  0
LINE
  5
141A4
330
747D
100
AcDbEntity
  8
細線
 48
50.0
100
AcDbLine
 10
1917.19551534851
 20
4214.342041959935
 30
0.0
 11
1917.19551534851
 21
2124.342041959935
 31
0.0
  0
LINE
  5
141A5
330
747D
100
AcDbEntity
  8
細線
 48
50.0
100
AcDbLine
 10
1932.19551534851
 20
4214.342041959935
 30
0.0
 11
1932.19551534851
 21
2124.342041959935
 31
0.0
  0
LINE
  5
141A6
330
747D
100
AcDbEntity
  8
細線
 48
50.0
100
AcDbLine
 10
2072.195515348511
 20
4214.342041959935
 30
0.0
 11
2072.195515348511
 21
2124.342041959935
 31
0.0
  0
LINE
  5
141A7
330
747D
100
AcDbEntity
  8
細線
 48
50.0
100
AcDbLine
 10
2057.195515348511
 20
4214.342041959935
 30
0.0
 11
2057.195515348511
 21
2124.342041959935
 31
0.0
  0
LINE
  5
141A8
330
747D
100
AcDbEntity
  8
細線
 48
50.0
100
AcDbLine
 10
4732.19551534851
 20
4214.342041959935
 30
0.0
 11
4732.19551534851
 21
2124.342041959935
 31
0.0
  0
LINE
  5
141A9
330
747D
100
AcDbEntity
  8
細線
 48
50.0
100
AcDbLine
 10
4717.19551534851
 20
4214.342041959935
 30
0.0
 11
4717.19551534851
 21
2124.342041959935
 31
0.0
  0
LINE
  5
141AA
330
747D
100
AcDbEntity
  8
細線
 48
50.0
100
AcDbLine
 10
4857.195515348511
 20
4214.342041959935
 30
0.0
 11
4857.195515348511
 21
2124.342041959935
 31
0.0
  0
LINE
  5
141AB
330
747D
100
AcDbEntity
  8
細線
 48
50.0
100
AcDbLine
 10
4872.195515348511
 20
4214.342041959935
 30
0.0
 11
4872.195515348511
 21
2124.342041959935
 31
0.0
  0
LINE
  5
141AC
330
747D
100
AcDbEntity
  8
細線
 48
50.0
100
AcDbLine
 10
5012.19551534851
 20
4214.342041959935
 30
0.0
 11
5012.19551534851
 21
2124.342041959935
 31
0.0
  0
LINE
  5
141AD
330
747D
100
AcDbEntity
  8
細線
 48
50.0
100
AcDbLine
 10
4997.195515348511
 20
4214.342041959935
 30
0.0
 11
4997.195515348511
 21
2124.342041959935
 31
0.0
  0
LINE
  5
14485
330
747D
100
AcDbEntity
  8
部品1
100
AcDbLine
 10
5074.695515348522
 20
10055.37705018694
 30
0.0
 11
1714.695515348525
 21
10055.37705018693
 31
0.0
  0
LINE
  5
14486
330
747D
100
AcDbEntity
  8
部品1
100
AcDbLine
 10
1687.695515348525
 20
10055.37705018694
 30
0.0
 11
1659.695515348525
 21
10055.37705018694
 31
0.0
  0
LINE
  5
14487
330
747D
100
AcDbEntity
  8
部品1
100
AcDbLine
 10
5184.695515348526
 20
10055.37705018694
 30
0.0
 11
8544.695515348525
 21
10055.37705018694
 31
0.0
  0
LINE
  5
14488
330
747D
100
AcDbEntity
  8
部品1
100
AcDbLine
 10
8571.695515348526
 20
10055.37705018694
 30
0.0
 11
8599.695515348525
 21
10055.37705018694
 31
0.0
  0
LINE
  5
146C7
330
747D
100
AcDbEntity
  8
細線
 48
50.0
100
AcDbLine
 10
14553.54992349218
 20
4214.342041959937
 30
0.0
 11
14553.54992349219
 21
2124.342041959939
 31
0.0
  0
LINE
  5
146C8
330
747D
100
AcDbEntity
  8
細線
 48
50.0
100
AcDbLine
 10
14568.54992349218
 20
4214.342041959937
 30
0.0
 11
14568.54992349219
 21
2124.342041959939
 31
0.0
  0
LINE
  5
146C9
330
747D
100
AcDbEntity
  8
細線
 48
50.0
100
AcDbLine
 10
14428.54992349218
 20
4214.342041959937
 30
0.0
 11
14428.54992349219
 21
2124.342041959939
 31
0.0
  0
LINE
  5
146CA
330
747D
100
AcDbEntity
  8
細線
 48
50.0
100
AcDbLine
 10
14413.54992349218
 20
4214.342041959937
 30
0.0
 11
14413.54992349219
 21
2124.342041959939
 31
0.0
  0
LINE
  5
146CB
330
747D
100
AcDbEntity
  8
細線
 48
50.0
100
AcDbLine
 10
14273.54992349218
 20
4214.342041959937
 30
0.0
 11
14273.54992349219
 21
2124.342041959939
 31
0.0
  0
LINE
  5
146CC
330
747D
100
AcDbEntity
  8
細線
 48
50.0
100
AcDbLine
 10
14288.54992349218
 20
4214.342041959937
 30
0.0
 11
14288.54992349219
 21
2124.342041959939
 31
0.0
  0
LINE
  5
146CD
330
747D
100
AcDbEntity
  8
部品1
100
AcDbLine
 10
14631.04992349217
 20
4214.342041959937
 30
0.0
 11
14631.04992349217
 21
2124.342041959939
 31
0.0
  0
LINE
  5
146CE
330
747D
100
AcDbEntity
  8
細線
 48
50.0
100
AcDbLine
 10
14708.54992349218
 20
4214.342041959937
 30
0.0
 11
14708.54992349218
 21
2124.342041959939
 31
0.0
  0
LINE
  5
146CF
330
747D
100
AcDbEntity
  8
細線
 48
50.0
100
AcDbLine
 10
14693.54992349218
 20
4214.342041959937
 30
0.0
 11
14693.54992349218
 21
2124.342041959939
 31
0.0
  0
LINE
  5
146D0
330
747D
100
AcDbEntity
  8
細線
 48
50.0
100
AcDbLine
 10
14833.54992349218
 20
4214.342041959937
 30
0.0
 11
14833.54992349218
 21
2124.342041959939
 31
0.0
  0
LINE
  5
146D1
330
747D
100
AcDbEntity
  8
細線
 48
50.0
100
AcDbLine
 10
14848.54992349218
 20
4214.342041959937
 30
0.0
 11
14848.54992349218
 21
2124.342041959939
 31
0.0
  0
LINE
  5
146D2
330
747D
100
AcDbEntity
  8
細線
 48
50.0
100
AcDbLine
 10
14988.54992349218
 20
4214.342041959937
 30
0.0
 11
14988.54992349218
 21
2124.342041959939
 31
0.0
  0
LINE
  5
146D3
330
747D
100
AcDbEntity
  8
細線
 48
50.0
100
AcDbLine
 10
14973.54992349218
 20
4214.342041959937
 30
0.0
 11
14973.54992349218
 21
2124.342041959939
 31
0.0
  0
LINE
  5
146D4
330
747D
100
AcDbEntity
  8
部品1
100
AcDbLine
 10
14211.04992349218
 20
4214.342041959937
 30
0.0
 11
14211.04992349218
 21
2124.342041959939
 31
0.0
  0
LINE
  5
146D5
330
747D
100
AcDbEntity
  8
細線
 48
50.0
100
AcDbLine
 10
14133.54992349218
 20
4214.342041959935
 30
0.0
 11
14133.54992349218
 21
2124.342041959937
 31
0.0
  0
LINE
  5
146D6
330
747D
100
AcDbEntity
  8
細線
 48
50.0
100
AcDbLine
 10
14148.54992349219
 20
4214.342041959935
 30
0.0
 11
14148.54992349219
 21
2124.342041959937
 31
0.0
  0
LINE
  5
146D7
330
747D
100
AcDbEntity
  8
細線
 48
50.0
100
AcDbLine
 10
14008.54992349218
 20
4214.342041959935
 30
0.0
 11
14008.54992349219
 21
2124.342041959937
 31
0.0
  0
LINE
  5
146D8
330
747D
100
AcDbEntity
  8
細線
 48
50.0
100
AcDbLine
 10
13993.54992349219
 20
4214.342041959935
 30
0.0
 11
13993.54992349219
 21
2124.342041959937
 31
0.0
  0
LINE
  5
146D9
330
747D
100
AcDbEntity
  8
細線
 48
50.0
100
AcDbLine
 10
13853.54992349219
 20
4214.342041959935
 30
0.0
 11
13853.54992349219
 21
2124.342041959937
 31
0.0
  0
LINE
  5
146DA
330
747D
100
AcDbEntity
  8
細線
 48
50.0
100
AcDbLine
 10
13868.54992349218
 20
4214.342041959935
 30
0.0
 11
13868.54992349219
 21
2124.342041959937
 31
0.0
  0
LINE
  5
146DB
330
747D
100
AcDbEntity
  8
部品1
100
AcDbLine
 10
13791.04992349218
 20
4214.342041959935
 30
0.0
 11
13791.04992349218
 21
2124.342041959937
 31
0.0
  0
DIMENSION
  5
146DC
330
747D
100
AcDbEntity
  8
寸法
 48
50.0
100
AcDbDimension
  2
*D17
 10
11015.44151672381
 20
4323.687300833267
 30
0.0
 11
11026.10699198274
 21
4694.533964074966
 31
0.0
 70
   161
 71
     5
 42
141.0
  3
INABA_S40G
100
AcDbAlignedDimension
 13
11595.44594365077
 23
4448.064790794615
 33
0.0
 14
11591.39248809414
 24
4307.123067028903
 34
0.0
1001
ACAD
1000
DSTYLE
1002
{
1070
   174
1070
     0
1070
   272
1070
     1
1070
   288
1070
     0
1070
   341
1005
0
1002
}
  0
LINE
  5
146DD
330
747D
100
AcDbEntity
  8
部品1
100
AcDbLine
 10
12951.04992349219
 20
4214.342041959935
 30
0.0
 11
12951.04992349219
 21
2124.342041959935
 31
0.0
  0
LINE
  5
146DE
330
747D
100
AcDbEntity
  8
細線
 48
50.0
100
AcDbLine
 10
12608.54992349219
 20
4214.342041959935
 30
0.0
 11
12608.54992349219
 21
2124.342041959935
 31
0.0
  0
LINE
  5
146DF
330
747D
100
AcDbEntity
  8
細線
 48
50.0
100
AcDbLine
 10
12593.54992349219
 20
4214.342041959935
 30
0.0
 11
12593.54992349219
 21
2124.342041959935
 31
0.0
  0
LINE
  5
146E0
330
747D
100
AcDbEntity
  8
細線
 48
50.0
100
AcDbLine
 10
12733.54992349219
 20
4214.342041959935
 30
0.0
 11
12733.54992349219
 21
2124.342041959935
 31
0.0
  0
LINE
  5
146E1
330
747D
100
AcDbEntity
  8
細線
 48
50.0
100
AcDbLine
 10
12748.54992349219
 20
4214.342041959935
 30
0.0
 11
12748.54992349219
 21
2124.342041959935
 31
0.0
  0
LINE
  5
146E2
330
747D
100
AcDbEntity
  8
細線
 48
50.0
100
AcDbLine
 10
12888.54992349219
 20
4214.342041959935
 30
0.0
 11
12888.54992349219
 21
2124.342041959935
 31
0.0
  0
LINE
  5
146E3
330
747D
100
AcDbEntity
  8
細線
 48
50.0
100
AcDbLine
 10
12873.54992349219
 20
4214.342041959935
 30
0.0
 11
12873.54992349219
 21
2124.342041959935
 31
0.0
  0
LINE
  5
146E4
330
747D
100
AcDbEntity
  8
部品1
100
AcDbLine
 10
12531.04992349219
 20
4214.342041959935
 30
0.0
 11
12531.04992349219
 21
2124.342041959935
 31
0.0
  0
DIMENSION
  5
146E5
330
747D
100
AcDbEntity
  8
寸法
 48
50.0
100
AcDbDimension
  2
*D18
 10
15186.04992349218
 20
4847.999495539241
 30
0.0
 11
15392.09716758668
 21
4847.999495539241
 31
0.0
 70
   160
 71
     5
 42
80.0
  3
INABA_S40G
100
AcDbAlignedDimension
 13
15106.04992349218
 23
4396.15272157159
 33
0.0
 14
15186.04992349218
 24
4394.342041959939
 34
0.0
100
AcDbRotatedDimension
1001
ACAD
1000
DSTYLE
1002
{
1070
   174
1070
     0
1070
   272
1070
     1
1070
   288
1070
     0
1070
   341
1005
0
1002
}
  0
LINE
  5
146E6
330
747D
100
AcDbEntity
  8
細線
 48
50.0
100
AcDbLine
 10
11768.54992349219
 20
4214.342041959935
 30
0.0
 11
11768.54992349219
 21
2124.342041959935
 31
0.0
  0
LINE
  5
146E7
330
747D
100
AcDbEntity
  8
細線
 48
50.0
100
AcDbLine
 10
11753.54992349219
 20
4214.342041959935
 30
0.0
 11
11753.54992349219
 21
2124.342041959935
 31
0.0
  0
LINE
  5
146E8
330
747D
100
AcDbEntity
  8
細線
 48
50.0
100
AcDbLine
 10
11893.54992349219
 20
4214.342041959935
 30
0.0
 11
11893.54992349219
 21
2124.342041959935
 31
0.0
  0
LINE
  5
146E9
330
747D
100
AcDbEntity
  8
細線
 48
50.0
100
AcDbLine
 10
11908.54992349219
 20
4214.342041959935
 30
0.0
 11
11908.54992349219
 21
2124.342041959935
 31
0.0
  0
LINE
  5
146EA
330
747D
100
AcDbEntity
  8
細線
 48
50.0
100
AcDbLine
 10
12048.54992349219
 20
4214.342041959935
 30
0.0
 11
12048.54992349219
 21
2124.342041959935
 31
0.0
  0
LINE
  5
146EB
330
747D
100
AcDbEntity
  8
細線
 48
50.0
100
AcDbLine
 10
12033.54992349219
 20
4214.342041959935
 30
0.0
 11
12033.54992349219
 21
2124.342041959935
 31
0.0
  0
LINE
  5
146EC
330
747D
100
AcDbEntity
  8
細線
 48
50.0
100
AcDbLine
 10
12453.54992349219
 20
4214.342041959935
 30
0.0
 11
12453.54992349219
 21
2124.342041959935
 31
0.0
  0
LINE
  5
146ED
330
747D
100
AcDbEntity
  8
細線
 48
50.0
100
AcDbLine
 10
12468.54992349219
 20
4214.342041959935
 30
0.0
 11
12468.54992349219
 21
2124.342041959935
 31
0.0
  0
LINE
  5
146EE
330
747D
100
AcDbEntity
  8
細線
 48
50.0
100
AcDbLine
 10
12328.54992349219
 20
4214.342041959935
 30
0.0
 11
12328.54992349219
 21
2124.342041959935
 31
0.0
  0
LINE
  5
146EF
330
747D
100
AcDbEntity
  8
細線
 48
50.0
100
AcDbLine
 10
12313.54992349219
 20
4214.342041959935
 30
0.0
 11
12313.54992349219
 21
2124.342041959935
 31
0.0
  0
LINE
  5
146F0
330
747D
100
AcDbEntity
  8
細線
 48
50.0
100
AcDbLine
 10
12173.54992349219
 20
4214.342041959935
 30
0.0
 11
12173.54992349219
 21
2124.342041959935
 31
0.0
  0
LINE
  5
146F1
330
747D
100
AcDbEntity
  8
細線
 48
50.0
100
AcDbLine
 10
12188.54992349219
 20
4214.342041959935
 30
0.0
 11
12188.54992349219
 21
2124.342041959935
 31
0.0
  0
LINE
  5
146F2
330
747D
100
AcDbEntity
  8
部品1
100
AcDbLine
 10
11636.04992349219
 20
2074.342041959935
 30
0.0
 11
15106.04992349219
 21
2074.342041959935
 31
0.0
  0
DIMENSION
  5
146F3
330
747D
100
AcDbEntity
  8
寸法
 48
50.0
100
AcDbDimension
  2
*D19
 10
11576.04992349219
 20
5078.113088325517
 30
0.0
 11
13381.04992349219
 21
5078.113088325517
 31
0.0
 70
   160
 71
     5
 42
3609.999999999997
  3
INABA_S40G
100
AcDbAlignedDimension
 13
15186.04992349218
 23
4394.342041959936
 33
0.0
 14
11576.04992349219
 24
4449.34204195994
 34
0.0
100
AcDbRotatedDimension
1001
ACAD
1000
DSTYLE
1002
{
1070
   174
1070
     0
1070
   272
1070
     1
1070
   288
1070
     0
1070
   341
1005
0
1002
}
  0
DIMENSION
  5
146F4
330
747D
100
AcDbEntity
  8
寸法
 48
50.0
100
AcDbDimension
  2
*D20
 10
11576.04992349219
 20
4847.999495539239
 30
0.0
 11
11266.4121282166
 21
4847.999495539239
 31
0.0
 70
   160
 71
     5
 42
60.0
  3
INABA_S40G
100
AcDbAlignedDimension
 13
11636.04992349219
 23
4445.343660082912
 33
0.0
 14
11576.04992349219
 24
4449.34204195994
 34
0.0
100
AcDbRotatedDimension
1001
ACAD
1000
DSTYLE
1002
{
1070
   174
1070
     0
1070
   272
1070
     1
1070
   288
1070
     0
1070
   341
1005
0
1002
}
  0
DIMENSION
  5
146F5
330
747D
100
AcDbEntity
  8
寸法
 48
50.0
100
AcDbDimension
  2
*D21
 10
11636.04992349219
 20
4847.999495539241
 30
0.0
 11
13371.04992349219
 21
4847.999495539241
 31
0.0
 70
   160
  1
柱外寸法<>
 71
     5
 42
3469.999999999997
  3
INABA_S40G
100
AcDbAlignedDimension
 13
15106.04992349218
 23
4396.15272157159
 33
0.0
 14
11636.04992349219
 24
4445.343660082912
 34
0.0
100
AcDbRotatedDimension
1001
ACAD
1000
DSTYLE
1002
{
1070
   174
1070
     0
1070
   272
1070
     1
1070
   288
1070
     0
1070
   341
1005
0
1002
}
  0
LINE
  5
146F6
330
747D
100
AcDbEntity
  8
部品1
100
AcDbLine
 10
15051.04992349219
 20
4214.342041959937
 30
0.0
 11
15051.04992349219
 21
2124.342041959937
 31
0.0
  0
LINE
  5
146F7
330
747D
100
AcDbEntity
  8
部品1
100
AcDbLine
 10
15106.04992349219
 20
4268.772069741054
 30
0.0
 11
15106.04992349219
 21
1974.342041959937
 31
0.0
  0
LINE
  5
146F8
330
747D
100
AcDbEntity
  8
部品1
100
AcDbLine
 10
12111.04992349219
 20
4214.342041959935
 30
0.0
 11
12111.04992349219
 21
2124.342041959935
 31
0.0
  0
DIMENSION
  5
146F9
330
747D
100
AcDbEntity
  8
寸法
100
AcDbDimension
  2
*D22
 10
10792.29979430893
 20
2074.342041959931
 30
0.0
 11
10792.29979430893
 21
1768.29479786544
 31
0.0
 70
   160
 71
     5
 42
50.00000000000454
  3
INABA_S40G
100
AcDbAlignedDimension
 13
11636.04992349219
 23
2124.342041959935
 33
0.0
 14
11559.04992349219
 24
2074.342041959931
 34
0.0
 50
90.0
100
AcDbRotatedDimension
1001
ACAD
1000
DSTYLE
1002
{
1070
   174
1070
     0
1070
   272
1070
     1
1070
   288
1070
     0
1070
   341
1005
0
1002
}
  0
LINE
  5
146FA
330
747D
100
AcDbEntity
  8
部品1
100
AcDbLine
 10
11636.04992349219
 20
4306.484479888814
 30
0.0
 11
11636.04992349219
 21
1974.342041959935
 31
0.0
  0
LINE
  5
146FB
330
747D
100
AcDbEntity
  8
部品1
100
AcDbLine
 10
11691.04992349219
 20
4214.342041959935
 30
0.0
 11
11691.04992349219
 21
2124.342041959935
 31
0.0
  0
LINE
  5
146FC
330
747D
100
AcDbEntity
  8
部品1
100
AcDbLine
 10
11636.04992349219
 20
2124.342041959935
 30
0.0
 11
15106.04992349219
 21
2124.342041959937
 31
0.0
  0
LINE
  5
146FD
330
747D
100
AcDbEntity
  8
部品1
100
AcDbLine
 10
11636.04992349219
 20
4214.342041959935
 30
0.0
 11
15106.04992349218
 21
4214.342041959935
 31
0.0
  0
LINE
  5
146FE
330
747D
100
AcDbEntity
  8
部品1
100
AcDbLine
 10
15051.04992349218
 20
4214.342041959938
 30
0.0
 11
15051.04992349218
 21
2124.342041959939
 31
0.0
  0
LINE
  5
146FF
330
747D
100
AcDbEntity
  8
細線
 48
50.0
100
AcDbLine
 10
13293.54992349219
 20
4214.342041959935
 30
0.0
 11
13293.54992349219
 21
2124.342041959935
 31
0.0
  0
LINE
  5
14700
330
747D
100
AcDbEntity
  8
細線
 48
50.0
100
AcDbLine
 10
13308.54992349219
 20
4214.342041959935
 30
0.0
 11
13308.54992349219
 21
2124.342041959935
 31
0.0
  0
LINE
  5
14701
330
747D
100
AcDbEntity
  8
細線
 48
50.0
100
AcDbLine
 10
13168.54992349219
 20
4214.342041959935
 30
0.0
 11
13168.54992349219
 21
2124.342041959935
 31
0.0
  0
LINE
  5
14702
330
747D
100
AcDbEntity
  8
細線
 48
50.0
100
AcDbLine
 10
13153.54992349219
 20
4214.342041959935
 30
0.0
 11
13153.54992349219
 21
2124.342041959935
 31
0.0
  0
LINE
  5
14703
330
747D
100
AcDbEntity
  8
細線
 48
50.0
100
AcDbLine
 10
13013.54992349219
 20
4214.342041959935
 30
0.0
 11
13013.54992349219
 21
2124.342041959935
 31
0.0
  0
LINE
  5
14704
330
747D
100
AcDbEntity
  8
細線
 48
50.0
100
AcDbLine
 10
13028.54992349219
 20
4214.342041959935
 30
0.0
 11
13028.54992349219
 21
2124.342041959935
 31
0.0
  0
TEXT
  5
14705
330
747D
100
AcDbEntity
  8
部品1
 48
50.0
100
AcDbText
 10
13696.950781381
 20
4471.611134898242
 30
0.0
 40
120.0
  1
28
 50
90.0
  7
STYLE1
100
AcDbText
  0
TEXT
  5
14706
330
747D
100
AcDbEntity
  8
部品1
 48
50.0
100
AcDbText
 10
13219.31775871591
 20
4609.112393116524
 30
0.0
 40
120.0
  1
1000
  7
STYLE1
100
AcDbText
  0
LINE
  5
14707
330
747D
100
AcDbEntity
  8
部品1
 48
50.0
100
AcDbLine
 10
13531.04992349219
 20
4573.22837096409
 30
0.0
 11
13531.04992349219
 21
4557.028370964093
 31
0.0
  0
LINE
  5
14708
330
747D
100
AcDbEntity
  8
部品1
 48
50.0
100
AcDbLine
 10
13231.04992349219
 20
4573.22837096409
 30
0.0
 11
13531.04992349219
 21
4573.22837096409
 31
0.0
  0
LINE
  5
14709
330
747D
100
AcDbEntity
  8
部品1
100
AcDbLine
 10
11583.59490984915
 20
4448.059777294202
 30
0.0
 11
15178.66180035365
 21
4392.982839669076
 31
0.0
  0
LINE
  5
1470A
330
747D
100
AcDbEntity
  8
部品1
100
AcDbLine
 10
11591.39248809414
 20
4307.123067028903
 30
0.0
 11
15160.71362403204
 21
4268.094641794697
 31
0.0
  0
LINE
  5
1470B
330
747D
100
AcDbEntity
  8
細線
 48
50.0
100
AcDbLine
 10
11609.04992349219
 20
4446.741718335339
 30
0.0
 11
11603.76082193668
 21
4306.656085707985
 31
0.0
  0
LINE
  5
1470C
330
747D
100
AcDbEntity
  8
細線
 48
50.0
100
AcDbLine
 10
15153.01920668588
 20
4393.495464439405
 30
0.0
 11
15148.30224060419
 21
4268.563248504488
 31
0.0
  0
LINE
  5
1470D
330
747D
100
AcDbEntity
  8
部品1
 48
50.0
100
AcDbLine
 10
11576.23420940529
 20
4440.935588124628
 30
0.0
 11
11576.61446918311
 21
4421.008623678215
 31
0.0
  0
LINE
  5
1470E
330
747D
100
AcDbEntity
  8
部品1
 48
50.0
100
AcDbLine
 10
11579.68324128935
 20
4417.433342184744
 30
0.0
 11
11581.38714278072
 21
4328.142845478097
 31
0.0
  0
LINE
  5
1470F
330
747D
100
AcDbEntity
  8
細線
 48
50.0
100
AcDbLine
 10
11577.089346593
 20
4420.359123801296
 30
0.0
 11
15182.72533133817
 21
4364.734919160469
 31
0.0
  0
LINE
  5
14710
330
747D
100
AcDbEntity
  8
細線
 48
50.0
100
AcDbLine
 10
11581.84982183029
 20
4327.497612103434
 30
0.0
 11
15171.85348626093
 21
4287.688293128939
 31
0.0
  0
LINE
  5
14711
330
747D
100
AcDbEntity
  8
部品1
 48
50.0
100
AcDbLine
 10
11584.45591488696
 20
4324.567563984625
 30
0.0
 11
11584.65786750739
 21
4313.984528591532
 31
0.0
  0
ARC
  5
14712
330
747D
100
AcDbEntity
  8
部品1
 48
50.0
100
AcDbCircle
 10
11583.23293523363
 20
4441.069142532055
 30
0.0
 40
7.0
100
AcDbArc
 50
87.03587545283228
 51
181.0932240293156
  0
ARC
  5
14713
330
747D
100
AcDbEntity
  8
部品1
 48
50.0
100
AcDbCircle
 10
11591.65659333573
 20
4314.118082998961
 30
0.0
 40
7.0
100
AcDbArc
 50
181.0932240293156
 51
267.8377559869492
  0
ARC
  5
14714
330
747D
100
AcDbEntity
  8
部品1
100
AcDbCircle
 10
11581.45646096053
 20
4324.510326381441
 30
0.0
 40
3.0
100
AcDbArc
 50
1.093224029315636
 51
80.18775403169875
  0
ARC
  5
14715
330
747D
100
AcDbEntity
  8
部品1
100
AcDbCircle
 10
11576.68378736292
 20
4417.376104581561
 30
0.0
 40
3.0
100
AcDbArc
 50
1.093224029315636
 51
80.18775403169875
  0
ARC
  5
14716
330
747D
100
AcDbEntity
  8
部品1
100
AcDbCircle
 10
11577.31434176594
 20
4421.021979118959
 30
0.0
 40
0.7
100
AcDbArc
 50
181.0932240292114
 51
260.1877540314845
  0
ARC
  5
14717
330
747D
100
AcDbEntity
  8
部品1
100
AcDbCircle
 10
11582.08701536356
 20
4328.156200918838
 30
0.0
 40
0.7
100
AcDbArc
 50
181.0932240292635
 51
260.1877540314845
  0
LINE
  5
14718
330
747D
100
AcDbEntity
  8
部品1
 48
50.0
100
AcDbLine
 10
15185.26382630289
 20
4385.283194234154
 30
0.0
 11
15183.23320511192
 21
4365.338152976375
 31
0.0
  0
LINE
  5
14719
330
747D
100
AcDbEntity
  8
部品1
 48
50.0
100
AcDbLine
 10
15179.88063862744
 20
4362.027518903466
 30
0.0
 11
15172.3738593626
 21
4288.294898158452
 31
0.0
  0
LINE
  5
1471A
330
747D
100
AcDbEntity
  8
部品1
 48
50.0
100
AcDbLine
 10
15169.02129287812
 20
4284.984264085542
 30
0.0
 11
15167.94172983838
 21
4274.380647091983
 31
0.0
  0
ARC
  5
1471B
330
747D
100
AcDbEntity
  8
部品1
 48
50.0
100
AcDbCircle
 10
15178.29982573814
 20
4385.992204906928
 30
0.0
 40
7.0
100
AcDbArc
 50
354.1866997665532
 51
87.03587545283228
  0
ARC
  5
1471C
330
747D
100
AcDbEntity
  8
部品1
 48
50.0
100
AcDbCircle
 10
15160.97772927362
 20
4275.089657764756
 30
0.0
 40
7.0
100
AcDbArc
 50
267.8377559869492
 51
354.1866997665532
  0
ARC
  5
1471D
330
747D
100
AcDbEntity
  8
部品1
100
AcDbCircle
 10
15172.00586454873
 20
4284.680402368638
 30
0.0
 40
3.0
100
AcDbArc
 50
95.09216976420788
 51
174.1866997665532
  0
ARC
  5
1471E
330
747D
100
AcDbEntity
  8
部品1
100
AcDbCircle
 10
15182.86521029805
 20
4361.723657186561
 30
0.0
 40
3.0
100
AcDbArc
 50
95.09216976420788
 51
174.1866997665532
  0
ARC
  5
1471F
330
747D
100
AcDbEntity
  8
部品1
100
AcDbCircle
 10
15182.53680505545
 20
4365.409054043651
 30
0.0
 40
0.7
100
AcDbArc
 50
275.0921697642079
 51
354.1866997665532
  0
ARC
  5
14720
330
747D
100
AcDbEntity
  8
部品1
100
AcDbCircle
 10
15171.67745930613
 20
4288.365799225728
 30
0.0
 40
0.7
100
AcDbArc
 50
275.0921697642079
 51
354.1866997667087
  0
LINE
  5
14721
330
747D
100
AcDbEntity
  8
部品1
100
AcDbLine
 10
13205.59490984915
 20
4574.546429922953
 30
0.0
 11
13531.04992349219
 21
4557.028370964093
 31
0.0
  0
LINE
  5
14722
330
747D
100
AcDbEntity
  8
部品1
100
AcDbLine
 10
13371.04992349218
 20
4214.342041959935
 30
0.0
 11
13371.04992349218
 21
2124.342041959937
 31
0.0
  0
LINE
  5
14723
330
747D
100
AcDbEntity
  8
細線
 48
50.0
100
AcDbLine
 10
13448.54992349219
 20
4214.342041959935
 30
0.0
 11
13448.54992349219
 21
2124.342041959937
 31
0.0
  0
LINE
  5
14724
330
747D
100
AcDbEntity
  8
細線
 48
50.0
100
AcDbLine
 10
13433.54992349219
 20
4214.342041959935
 30
0.0
 11
13433.54992349219
 21
2124.342041959937
 31
0.0
  0
LINE
  5
14725
330
747D
100
AcDbEntity
  8
細線
 48
50.0
100
AcDbLine
 10
13573.54992349219
 20
4214.342041959935
 30
0.0
 11
13573.54992349219
 21
2124.342041959937
 31
0.0
  0
LINE
  5
14726
330
747D
100
AcDbEntity
  8
細線
 48
50.0
100
AcDbLine
 10
13588.54992349219
 20
4214.342041959935
 30
0.0
 11
13588.54992349219
 21
2124.342041959937
 31
0.0
  0
LINE
  5
14727
330
747D
100
AcDbEntity
  8
細線
 48
50.0
100
AcDbLine
 10
13728.54992349219
 20
4214.342041959935
 30
0.0
 11
13728.54992349219
 21
2124.342041959937
 31
0.0
  0
LINE
  5
14728
330
747D
100
AcDbEntity
  8
細線
 48
50.0
100
AcDbLine
 10
13713.54992349219
 20
4214.342041959935
 30
0.0
 11
13713.54992349219
 21
2124.342041959937
 31
0.0
  0
DIMENSION
  5
14729
330
747D
100
AcDbEntity
  8
寸法
100
AcDbDimension
  2
*D23
 10
15810.97708146432
 20
4394.342041959936
 30
0.0
 11
15710.96527044069
 21
3234.34204195994
 31
0.0
 70
    32
 71
     5
 42
2320.000000000001
  3
INABA_S40G
100
AcDbAlignedDimension
 13
15106.04992349219
 23
2074.342041959937
 33
0.0
 14
15186.04992349218
 24
4394.342041959936
 34
0.0
 50
90.0
100
AcDbRotatedDimension
1001
ACAD
1000
DSTYLE
1002
{
1070
   174
1070
     0
1070
   272
1070
     1
1070
   288
1070
     0
1070
   341
1005
0
1002
}
  0
DIMENSION
  5
1472A
330
747D
100
AcDbEntity
  8
寸法
100
AcDbDimension
  2
*D24
 10
10492.29979430893
 20
4449.342041959935
 30
0.0
 11
10392.2879832853
 21
3261.842041959936
 31
0.0
 70
    32
 71
     5
 42
2375.000000000005
  3
INABA_S40G
100
AcDbAlignedDimension
 13
11559.04992349219
 23
2074.342041959931
 33
0.0
 14
11576.04992349219
 24
4449.342041959935
 34
0.0
 50
90.0
100
AcDbRotatedDimension
1001
ACAD
1000
DSTYLE
1002
{
1070
   174
1070
     0
1070
   272
1070
     1
1070
   288
1070
     0
1070
   341
1005
0
1002
}
  0
DIMENSION
  5
1472B
330
747D
100
AcDbEntity
  8
寸法
100
AcDbDimension
  2
*D25
 10
10792.29979430893
 20
2124.342041959931
 30
0.0
 11
10692.28798328531
 21
3169.342041959934
 31
0.0
 70
    32
 71
     5
 42
2090.000000000001
  3
INABA_S40G
100
AcDbAlignedDimension
 13
11636.04992349219
 23
4214.342041959931
 33
0.0
 14
11636.04992349219
 24
2124.342041959931
 34
0.0
 50
90.0
100
AcDbRotatedDimension
1001
ACAD
1000
DSTYLE
1002
{
1070
   174
1070
     0
1070
   272
1070
     1
1070
   288
1070
     0
1070
   341
1005
0
1002
}
  0
DIMENSION
  5
1472C
330
747D
100
AcDbEntity
  8
寸法
 48
50.0
100
AcDbDimension
  2
*D26
 10
11091.14128209493
 20
2140.342041959936
 30
0.0
 11
10999.12947107131
 21
3152.842041959937
 31
0.0
 70
    32
  1
有効開口部高サ<>
 71
     5
 42
2025.0
  3
INABA_S40
100
AcDbAlignedDimension
 13
11559.04992349219
 23
4165.342041959934
 33
0.0
 14
11559.04992349219
 24
2140.342041959935
 34
0.0
 50
90.0
100
AcDbRotatedDimension
1001
ACAD
1000
DSTYLE
1002
{
1070
    41
1040
0.5
1070
    44
1040
1.0
1070
   147
1040
0.8
1070
   271
1070
     2
1070
   272
1070
     2
1070
   289
1070
     3
1070
   340
1005
F706
1070
   343
1005
F744
1070
   344
1005
F744
1002
}
  0
LINE
  5
1472D
330
747D
100
AcDbEntity
  8
部品1
100
AcDbLine
 10
11559.04992349219
 20
4200.029146868337
 30
0.0
 11
11559.04992349219
 21
1974.342041959935
 31
0.0
  0
LINE
  5
1472E
330
747D
100
AcDbEntity
  8
部品1
100
AcDbLine
 10
11559.04992349219
 20
4200.029146868337
 30
0.0
 11
11636.04992349219
 21
4214.342041959935
 31
0.0
  0
LINE
  5
1472F
330
747D
100
AcDbEntity
  8
部品1
100
AcDbLine
 10
11636.04992349219
 20
2074.342041959935
 30
0.0
 11
11559.04992349219
 21
2074.342041959935
 31
0.0
  0
LWPOLYLINE
  5
14730
330
747D
100
AcDbEntity
  8
部品1
100
AcDbPolyline
 90
        4
 70
     1
 43
0.0
 10
12999.31459037796
 20
1614.939675908091
 10
12999.31459037796
 20
1375.047354362558
 10
13762.78525660641
 20
1375.047354362558
 10
13762.78525660641
 20
1614.939675908091
  0
TEXT
  5
14731
330
747D
100
AcDbEntity
  8
部品1
100
AcDbText
 10
13088.76069180157
 20
1422.046146689568
 30
0.0
 40
135.0
  1
側面図
  7
STYLE2
100
AcDbText
  0
LINE
  5
14CEB
330
747D
100
AcDbEntity
  8
寸法
 48
50.0
100
AcDbLine
 10
2989.898521630371
 20
6838.413801755805
 30
0.0
 11
2938.492513720267
 21
6838.413801755805
 31
0.0
  0
LINE
  5
14CEC
330
747D
100
AcDbEntity
  8
寸法
 48
50.0
100
AcDbLine
 10
2938.492513720267
 20
6838.413801755805
 30
0.0
 11
2938.492513720267
 21
6869.723960407971
 31
0.0
  0
LINE
  5
14CED
330
747D
100
AcDbEntity
  8
寸法
 48
50.0
100
AcDbLine
 10
2938.492513720267
 20
6869.723960407971
 30
0.0
 11
2908.731181728844
 21
6869.723960407971
 31
0.0
  0
LINE
  5
14CEE
330
747D
100
AcDbEntity
  8
寸法
 48
50.0
100
AcDbLine
 10
2908.731181728844
 20
6869.723960407971
 30
0.0
 11
2964.195517675319
 21
6907.303411336581
 31
0.0
  0
LINE
  5
14CEF
330
747D
100
AcDbEntity
  8
寸法
 48
50.0
100
AcDbLine
 10
3019.659853621794
 20
6869.723960407971
 30
0.0
 11
2964.195517675319
 21
6907.303411336581
 31
0.0
  0
LINE
  5
14CF0
330
747D
100
AcDbEntity
  8
寸法
 48
50.0
100
AcDbLine
 10
2989.898521630371
 20
6869.723960407971
 30
0.0
 11
3019.659853621794
 21
6869.723960407971
 31
0.0
  0
LINE
  5
14CF1
330
747D
100
AcDbEntity
  8
寸法
 48
50.0
100
AcDbLine
 10
2989.898521630371
 20
6838.413801755805
 30
0.0
 11
2989.898521630371
 21
6869.723960407971
 31
0.0
  0
LINE
  5
14CF2
330
747D
100
AcDbEntity
  8
寸法
 48
50.0
100
AcDbLine
 10
2938.492513720267
 20
6838.413801755805
 30
0.0
 11
2989.898521630371
 21
6838.413801755805
 31
0.0
  0
LINE
  5
14CF3
330
747D
100
AcDbEntity
  8
寸法
 48
50.0
100
AcDbLine
 10
3269.064055907228
 20
6895.559392510628
 30
0.0
 11
3269.064055907228
 21
6841.895757928838
 31
0.0
  0
LINE
  5
14CF4
330
747D
100
AcDbEntity
  8
寸法
 48
50.0
100
AcDbLine
 10
3358.348274502649
 20
6871.635758241142
 30
0.0
 11
3269.064055907228
 21
6895.559392510628
 31
0.0
  0
LINE
  5
14CF5
330
747D
100
AcDbEntity
  8
寸法
 48
50.0
100
AcDbLine
 10
3139.196334326925
 20
6871.635758241142
 30
0.0
 11
3358.348274502649
 21
6871.635758241142
 31
0.0
  0
LINE
  5
14CF6
330
747D
100
AcDbEntity
  8
細線
 48
50.0
100
AcDbLine
 10
4015.69551534853
 20
7036.877165135668
 30
0.0
 11
4642.695515348526
 21
7036.877165135668
 31
0.0
  0
LINE
  5
14CF7
330
747D
100
AcDbEntity
  8
細線
 48
50.0
100
AcDbLine
 10
3361.695520002116
 20
7003.168396581592
 30
0.0
 11
4642.695515348526
 21
7003.168396581592
 31
0.0
  0
LINE
  5
14CF8
330
747D
100
AcDbEntity
  8
細線
 48
50.0
100
AcDbLine
 10
3320.695520002119
 20
7032.573304577844
 30
0.0
 11
2566.695515348525
 21
7032.573304577842
 31
0.0
  0
LINE
  5
14CF9
330
747D
100
AcDbEntity
  8
細線
100
AcDbLine
 10
4418.445505932069
 20
7056.377065100676
 30
0.0
 11
4420.777045453879
 21
7061.377067740638
 31
0.0
  0
LINE
  5
14CFA
330
747D
100
AcDbEntity
  8
細線
100
AcDbLine
 10
4488.445515348526
 20
7056.377050186942
 30
0.0
 11
4486.11396887234
 21
7061.377067740624
 31
0.0
  0
LINE
  5
14CFB
330
747D
100
AcDbEntity
  8
細線
100
AcDbLine
 10
4486.11396887234
 20
7061.377067740624
 30
0.0
 11
4420.777045453863
 21
7061.377067740608
 31
0.0
  0
LINE
  5
14CFC
330
747D
100
AcDbEntity
  8
細線
100
AcDbLine
 10
4346.11396887234
 20
7061.377067740624
 30
0.0
 11
4280.777045453864
 21
7061.377067740608
 31
0.0
  0
LINE
  5
14CFD
330
747D
100
AcDbEntity
  8
細線
100
AcDbLine
 10
4348.445515348527
 20
7056.377050186942
 30
0.0
 11
4346.11396887234
 21
7061.377067740624
 31
0.0
  0
LINE
  5
14CFE
330
747D
100
AcDbEntity
  8
細線
100
AcDbLine
 10
4278.44550593207
 20
7056.377065100676
 30
0.0
 11
4280.777045453879
 21
7061.377067740638
 31
0.0
  0
LINE
  5
14CFF
330
747D
100
AcDbEntity
  8
細線
100
AcDbLine
 10
4138.445515348527
 20
7056.377050186942
 30
0.0
 11
4140.77705487034
 21
7061.377052826903
 31
0.0
  0
LINE
  5
14D00
330
747D
100
AcDbEntity
  8
細線
100
AcDbLine
 10
4208.445524764988
 20
7056.377035273207
 30
0.0
 11
4206.113978288796
 21
7061.377052826888
 31
0.0
  0
LINE
  5
14D01
330
747D
100
AcDbEntity
  8
細線
100
AcDbLine
 10
4206.1139782888
 20
7061.377052826888
 30
0.0
 11
4140.777054870325
 21
7061.377052826874
 31
0.0
  0
LINE
  5
14D02
330
747D
100
AcDbEntity
  8
細線
100
AcDbLine
 10
3910.863999537634
 20
7027.377089524271
 30
0.0
 11
3845.527076119158
 21
7027.377089524256
 31
0.0
  0
LINE
  5
14D03
330
747D
100
AcDbEntity
  8
細線
100
AcDbLine
 10
3913.195546013821
 20
7022.37707197059
 30
0.0
 11
3910.863999537634
 21
7027.377089524271
 31
0.0
  0
LINE
  5
14D04
330
747D
100
AcDbEntity
  8
細線
100
AcDbLine
 10
3843.195536597363
 20
7022.377086884325
 30
0.0
 11
3845.527076119173
 21
7027.377089524285
 31
0.0
  0
LINE
  5
14D05
330
747D
100
AcDbEntity
  8
細線
 48
50.0
100
AcDbLine
 10
3684.57889459654
 20
7040.647913340023
 30
0.0
 11
3690.334412179208
 21
7022.377062049535
 31
0.0
  0
LINE
  5
14D06
330
747D
100
AcDbEntity
  8
細線
 48
50.0
100
AcDbLine
 10
3673.650446116111
 20
7040.647913340023
 30
0.0
 11
3684.57889459654
 21
7040.647913340023
 31
0.0
  0
ARC
  5
14D07
330
747D
100
AcDbEntity
  8
細線
 48
50.0
100
AcDbCircle
 10
3668.196090058788
 20
7042.147913340023
 30
0.0
 40
5.0
100
AcDbArc
 50
204.6243183521251
 51
335.375681647875
  0
ARC
  5
14D08
330
747D
100
AcDbEntity
  8
細線
 48
50.0
100
AcDbCircle
 10
3673.650446116111
 20
7039.647913340023
 30
0.0
 40
1.0
100
AcDbArc
 50
90.0
 51
155.3756816478749
  0
ARC
  5
14D09
330
747D
100
AcDbEntity
  8
細線
 48
50.0
100
AcDbCircle
 10
3662.741734001474
 20
7039.647913340023
 30
0.0
 40
1.0
100
AcDbArc
 50
24.62431835212505
 51
90.0
  0
LINE
  5
14D0A
330
747D
100
AcDbEntity
  8
細線
 48
50.0
100
AcDbLine
 10
3651.81328552104
 20
7040.647913340023
 30
0.0
 11
3662.741734001474
 21
7040.647913340023
 31
0.0
  0
LINE
  5
14D0B
330
747D
100
AcDbEntity
  8
細線
 48
50.0
100
AcDbLine
 10
3646.057767938373
 20
7022.377062049528
 30
0.0
 11
3651.81328552104
 21
7040.647913340023
 31
0.0
  0
LINE
  5
14D0C
330
747D
100
AcDbEntity
  8
細線
100
AcDbLine
 10
3703.195537828405
 20
7022.377059415333
 30
0.0
 11
3705.527077350217
 21
7027.377062055293
 31
0.0
  0
LINE
  5
14D0D
330
747D
100
AcDbEntity
  8
細線
100
AcDbLine
 10
3773.195547244866
 20
7022.377044501599
 30
0.0
 11
3770.864000768675
 21
7027.377062055279
 31
0.0
  0
LINE
  5
14D0E
330
747D
100
AcDbEntity
  8
細線
100
AcDbLine
 10
3770.864000768675
 20
7027.377062055279
 30
0.0
 11
3705.527077350203
 21
7027.377062055265
 31
0.0
  0
LINE
  5
14D0F
330
747D
100
AcDbEntity
  8
細線
100
AcDbLine
 10
3630.863972404158
 20
7027.3770620495
 30
0.0
 11
3565.527048985682
 21
7027.377062049485
 31
0.0
  0
LINE
  5
14D10
330
747D
100
AcDbEntity
  8
細線
100
AcDbLine
 10
3633.195518880345
 20
7022.377044495819
 30
0.0
 11
3630.863972404158
 21
7027.3770620495
 31
0.0
  0
LINE
  5
14D11
330
747D
100
AcDbEntity
  8
細線
100
AcDbLine
 10
3563.195510694929
 20
7022.377062049528
 30
0.0
 11
3565.527048985697
 21
7027.377062049514
 31
0.0
  0
LINE
  5
14D12
330
747D
100
AcDbEntity
  8
細線
100
AcDbLine
 10
3423.195546013821
 20
7022.377070236898
 30
0.0
 11
3425.527084304589
 21
7027.377070236884
 31
0.0
  0
LINE
  5
14D13
330
747D
100
AcDbEntity
  8
細線
100
AcDbLine
 10
3493.195554199237
 20
7022.377052683189
 30
0.0
 11
3490.864007723049
 21
7027.377070236865
 31
0.0
  0
LINE
  5
14D14
330
747D
100
AcDbEntity
  8
細線
100
AcDbLine
 10
3490.864007723049
 20
7027.377070236865
 30
0.0
 11
3425.527084304574
 21
7027.377070236855
 31
0.0
  0
LINE
  5
14D15
330
747D
100
AcDbEntity
  8
細線
100
AcDbLine
 10
3051.6955118167
 20
6988.377241917611
 30
0.0
 11
3054.027050107467
 21
6993.377241917596
 31
0.0
  0
LINE
  5
14D16
330
747D
100
AcDbEntity
  8
細線
100
AcDbLine
 10
3121.695520002116
 20
6988.377224363897
 30
0.0
 11
3119.363973525929
 21
6993.377241917575
 31
0.0
  0
LINE
  5
14D17
330
747D
100
AcDbEntity
  8
細線
100
AcDbLine
 10
3119.363973525929
 20
6993.377241917575
 30
0.0
 11
3054.027050107457
 21
6993.377241917568
 31
0.0
  0
LINE
  5
14D18
330
747D
100
AcDbEntity
  8
細線
100
AcDbLine
 10
3259.363973525929
 20
6993.377241917575
 30
0.0
 11
3194.027050107457
 21
6993.377241917568
 31
0.0
  0
LINE
  5
14D19
330
747D
100
AcDbEntity
  8
細線
100
AcDbLine
 10
3261.695520002116
 20
6988.377224363897
 30
0.0
 11
3259.363973525929
 21
6993.377241917575
 31
0.0
  0
LINE
  5
14D1A
330
747D
100
AcDbEntity
  8
細線
100
AcDbLine
 10
3191.6955118167
 20
6988.377241917611
 30
0.0
 11
3194.027050107468
 21
6993.377241917596
 31
0.0
  0
LINE
  5
14D1B
330
747D
100
AcDbEntity
  8
細線
100
AcDbLine
 10
2979.363973525929
 20
6993.377241917575
 30
0.0
 11
2914.027050107457
 21
6993.377241917563
 31
0.0
  0
LINE
  5
14D1C
330
747D
100
AcDbEntity
  8
細線
100
AcDbLine
 10
2981.695520002116
 20
6988.377224363897
 30
0.0
 11
2979.363973525929
 21
6993.377241917575
 31
0.0
  0
LINE
  5
14D1D
330
747D
100
AcDbEntity
  8
細線
100
AcDbLine
 10
2911.6955118167
 20
6988.377241917608
 30
0.0
 11
2914.027050107467
 21
6993.377241917594
 31
0.0
  0
LINE
  5
14D1E
330
747D
100
AcDbEntity
  8
細線
100
AcDbLine
 10
2771.695520002116
 20
6988.377241917611
 30
0.0
 11
2774.027058292884
 21
6993.377241917596
 31
0.0
  0
LINE
  5
14D1F
330
747D
100
AcDbEntity
  8
細線
100
AcDbLine
 10
2841.695528187532
 20
6988.377224363897
 30
0.0
 11
2839.363981711345
 21
6993.377241917575
 31
0.0
  0
LINE
  5
14D20
330
747D
100
AcDbEntity
  8
細線
100
AcDbLine
 10
2839.363981711345
 20
6993.377241917575
 30
0.0
 11
2774.027058292873
 21
6993.377241917568
 31
0.0
  0
ARC
  5
14D21
330
747D
100
AcDbEntity
  8
部品1
 48
0.01
100
AcDbCircle
 10
2727.195408749781
 20
6987.376119732537
 30
0.0
 40
0.5
100
AcDbArc
 50
270.0
 51
0.0
  0
LINE
  5
14D22
330
747D
100
AcDbEntity
  8
部品1
 48
0.01
100
AcDbLine
 10
2727.695408749781
 20
6988.376119732539
 30
0.0
 11
2727.695408749781
 21
6987.376119732537
 31
0.0
  0
LINE
  5
14D23
330
747D
100
AcDbEntity
  8
部品1
 48
0.01
100
AcDbLine
 10
2727.695408749781
 20
6988.376119732539
 30
0.0
 11
2727.695408749781
 21
6987.376119732537
 31
0.0
  0
LINE
  5
14D24
330
747D
100
AcDbEntity
  8
部品1
 48
0.01
100
AcDbLine
 10
2727.195408749781
 20
6986.876119732539
 30
0.0
 11
2720.582903319716
 21
6986.876119732539
 31
0.0
  0
ARC
  5
14D25
330
747D
100
AcDbEntity
  8
部品1
100
AcDbCircle
 10
2720.651252872497
 20
6987.876119732539
 30
0.0
 40
1.0
100
AcDbArc
 50
160.5287793655822
 51
270.0
  0
ARC
  5
14D26
330
747D
100
AcDbEntity
  8
部品1
100
AcDbCircle
 10
2695.195408749781
 20
6996.876119732539
 30
0.0
 40
26.0
100
AcDbArc
 50
340.5287793655822
 51
0.0
  0
LINE
  5
14D27
330
747D
100
AcDbEntity
  8
部品1
100
AcDbLine
 10
2721.195408749781
 20
6996.876119732539
 30
0.0
 11
2721.195408749781
 21
7001.876119732539
 31
0.0
  0
ARC
  5
14D28
330
747D
100
AcDbEntity
  8
部品1
 48
0.01
100
AcDbCircle
 10
2719.195408749781
 20
7001.876119732539
 30
0.0
 40
2.0
100
AcDbArc
 50
0.0
 51
90.0
  0
ARC
  5
14D29
330
747D
100
AcDbEntity
  8
部品1
100
AcDbCircle
 10
2717.587017124971
 20
7000.876119732538
 30
0.0
 40
3.0
100
AcDbArc
 50
90.0
 51
141.6069559807873
  0
LINE
  5
14D2A
330
747D
100
AcDbEntity
  8
部品1
 48
0.01
100
AcDbLine
 10
2719.195408749781
 20
7003.876119732538
 30
0.0
 11
2717.587017124971
 21
7003.876119732538
 31
0.0
  0
ARC
  5
14D2B
330
747D
100
AcDbEntity
  8
部品1
100
AcDbCircle
 10
2699.12469453551
 20
7000.176119732542
 30
0.0
 40
3.0
100
AcDbArc
 50
254.0576313943215
 51
270.0
  0
ARC
  5
14D2C
330
747D
100
AcDbEntity
  8
部品1
100
AcDbCircle
 10
2706.266122964052
 20
7000.176119732542
 30
0.0
 40
3.0
100
AcDbArc
 50
270.0
 51
285.9423686056786
  0
LINE
  5
14D2D
330
747D
100
AcDbEntity
  8
部品1
100
AcDbLine
 10
2706.266122964052
 20
6997.176119732542
 30
0.0
 11
2699.12469453551
 21
6997.176119732542
 31
0.0
  0
ARC
  5
14D2E
330
747D
100
AcDbEntity
  8
部品1
100
AcDbCircle
 10
2702.695408749781
 20
7012.676119732542
 30
0.0
 40
16.0
100
AcDbArc
 50
285.9423686056786
 51
321.6069559807873
  0
LINE
  5
14D2F
330
747D
100
AcDbEntity
  8
部品1
 48
0.01
100
AcDbLine
 10
2686.195408749781
 20
7003.876119732538
 30
0.0
 11
2687.803800374591
 21
7003.876119732538
 31
0.0
  0
ARC
  5
14D30
330
747D
100
AcDbEntity
  8
部品1
100
AcDbCircle
 10
2687.803800374591
 20
7000.876119732538
 30
0.0
 40
3.0
100
AcDbArc
 50
38.39304401921267
 51
90.0
  0
ARC
  5
14D31
330
747D
100
AcDbEntity
  8
部品1
100
AcDbCircle
 10
2702.695408749781
 20
7012.676119732542
 30
0.0
 40
16.0
100
AcDbArc
 50
218.3930440192126
 51
254.0576313943215
  0
LINE
  5
14D32
330
747D
100
AcDbEntity
  8
部品1
100
AcDbLine
 10
2684.195408749781
 20
6996.876119732539
 30
0.0
 11
2684.195408749781
 21
7001.876119732539
 31
0.0
  0
ARC
  5
14D33
330
747D
100
AcDbEntity
  8
部品1
 48
0.01
100
AcDbCircle
 10
2686.195408749781
 20
7001.876119732539
 30
0.0
 40
2.0
100
AcDbArc
 50
90.0
 51
180.0
  0
ARC
  5
14D34
330
747D
100
AcDbEntity
  8
部品1
100
AcDbCircle
 10
2710.195408749781
 20
6996.876119732539
 30
0.0
 40
26.0
100
AcDbArc
 50
180.0
 51
199.4712206344178
  0
ARC
  5
14D35
330
747D
100
AcDbEntity
  8
部品1
 48
0.01
100
AcDbCircle
 10
2678.195408749781
 20
6987.376119732537
 30
0.0
 40
0.5
100
AcDbArc
 50
180.0
 51
270.0
  0
LINE
  5
14D36
330
747D
100
AcDbEntity
  8
部品1
 48
0.01
100
AcDbLine
 10
2678.195408749781
 20
6986.876119732539
 30
0.0
 11
2684.739564627065
 21
6986.876119732539
 31
0.0
  0
LINE
  5
14D37
330
747D
100
AcDbEntity
  8
部品1
 48
0.01
100
AcDbLine
 10
2677.695408749781
 20
6988.376119732539
 30
0.0
 11
2677.695408749781
 21
6987.376119732537
 31
0.0
  0
ARC
  5
14D38
330
747D
100
AcDbEntity
  8
部品1
100
AcDbCircle
 10
2684.739564627065
 20
6987.876119732539
 30
0.0
 40
1.0
100
AcDbArc
 50
270.0
 51
19.4712206344178
  0
LINE
  5
14D39
330
747D
100
AcDbEntity
  8
細線
100
AcDbLine
 10
2723.195408749788
 20
7006.376119732542
 30
0.0
 11
2682.195408749788
 21
7006.376119732535
 31
0.0
  0
LINE
  5
14D3A
330
747D
100
AcDbEntity
  8
細線
100
AcDbLine
 10
2682.195408749788
 20
7006.376119732535
 30
0.0
 11
2682.195408749788
 21
6988.376119732517
 31
0.0
  0
LINE
  5
14D3B
330
747D
100
AcDbEntity
  8
細線
100
AcDbLine
 10
2723.195408749788
 20
7006.376119732542
 30
0.0
 11
2723.195408749788
 21
6988.376119732517
 31
0.0
  0
LINE
  5
14D3C
330
747D
100
AcDbEntity
  8
細線
100
AcDbLine
 10
2566.695515348525
 20
6992.377050186942
 30
0.0
 11
2566.695515348525
 21
6988.377050186989
 31
0.0
  0
DIMENSION
  5
14D3D
330
747D
100
AcDbEntity
  8
寸法
 48
50.0
100
AcDbDimension
  2
*D27
 10
3832.695515348526
 20
6286.62422399075
 30
0.0
 11
3227.383170944443
 21
6286.62422399075
 31
0.0
 70
   160
  1
有効開口部間口\P<>
 71
     5
 42
1266.0
  3
INABA_S40
100
AcDbAlignedDimension
 13
2566.695515348526
 23
6983.377050186942
 33
0.0
 14
3832.695515348526
 24
6983.377050186942
 34
0.0
100
AcDbRotatedDimension
1001
ACAD
1000
DSTYLE
1002
{
1070
    41
1040
0.5
1070
    44
1040
1.0
1070
   147
1040
0.8
1070
   271
1070
     2
1070
   272
1070
     2
1070
   289
1070
     3
1070
   340
1005
F706
1070
   343
1005
F744
1070
   344
1005
F744
1002
}
  0
LINE
  5
14D3E
330
747D
100
AcDbEntity
  8
部品1
100
AcDbLine
 10
4654.695515348526
 20
7060.377050186942
 30
0.0
 11
4681.695515348526
 21
7060.377050186942
 31
0.0
  0
LINE
  5
14D40
330
747D
100
AcDbEntity
  8
部品1
100
AcDbLine
 10
4681.695515348526
 20
6983.377050186942
 30
0.0
 11
4681.695515348526
 21
7060.377050186942
 31
0.0
  0
LINE
  5
14D41
330
747D
100
AcDbEntity
  8
部品1
100
AcDbLine
 10
4642.695515348526
 20
7056.377050186942
 30
0.0
 11
4654.695515348526
 21
7056.377050186942
 31
0.0
  0
LINE
  5
14D42
330
747D
100
AcDbEntity
  8
部品1
100
AcDbLine
 10
4651.695515348526
 20
6992.377050186942
 30
0.0
 11
4651.695515348526
 21
6983.377050186942
 31
0.0
  0
LINE
  5
14D43
330
747D
100
AcDbEntity
  8
部品1
100
AcDbLine
 10
4642.695515348526
 20
6992.377050186942
 30
0.0
 11
4651.695515348526
 21
6992.377050186942
 31
0.0
  0
LINE
  5
14D44
330
747D
100
AcDbEntity
  8
部品1
100
AcDbLine
 10
4642.695515348526
 20
7056.377050186942
 30
0.0
 11
4642.695515348526
 21
6992.377050186942
 31
0.0
  0
LINE
  5
14D45
330
747D
100
AcDbEntity
  8
部品1
100
AcDbLine
 10
4654.695515348526
 20
7087.377050186943
 30
0.0
 11
4654.695515348526
 21
7056.377050186942
 31
0.0
  0
LINE
  5
14D46
330
747D
100
AcDbEntity
  8
部品1
100
AcDbLine
 10
2566.695515348525
 20
7056.377050186942
 30
0.0
 11
2554.695515348525
 21
7056.377050186942
 31
0.0
  0
LINE
  5
14D47
330
747D
100
AcDbEntity
  8
部品1
100
AcDbLine
 10
2527.695515348525
 20
7060.377050186942
 30
0.0
 11
2554.695515348525
 21
7060.377050186942
 31
0.0
  0
LINE
  5
14D48
330
747D
100
AcDbEntity
  8
部品1
100
AcDbLine
 10
2557.695515348525
 20
6992.377050186942
 30
0.0
 11
2557.695515348525
 21
6983.377050186942
 31
0.0
  0
LINE
  5
14D49
330
747D
100
AcDbEntity
  8
部品1
100
AcDbLine
 10
2566.695515348525
 20
6992.377050186942
 30
0.0
 11
2557.695515348525
 21
6992.377050186942
 31
0.0
  0
LINE
  5
14D4A
330
747D
100
AcDbEntity
  8
部品1
100
AcDbLine
 10
2557.695515348525
 20
6983.377050186942
 30
0.0
 11
2527.695515348525
 21
6983.377050186942
 31
0.0
  0
LINE
  5
14D4B
330
747D
100
AcDbEntity
  8
部品1
100
AcDbLine
 10
2527.695515348525
 20
6983.377050186942
 30
0.0
 11
2527.695515348525
 21
7060.377050186942
 31
0.0
  0
LINE
  5
14D4C
330
747D
100
AcDbEntity
  8
部品1
100
AcDbLine
 10
2566.695515348525
 20
7056.377050186942
 30
0.0
 11
2566.695515348525
 21
6992.377050186942
 31
0.0
  0
LINE
  5
14D4D
330
747D
100
AcDbEntity
  8
部品1
100
AcDbLine
 10
2554.695515348525
 20
7087.377050186939
 30
0.0
 11
2554.695515348525
 21
7056.377050186942
 31
0.0
  0
LINE
  5
14D4E
330
747D
100
AcDbEntity
  8
部品1
100
AcDbLine
 10
2554.695515348525
 20
7087.377050186939
 30
0.0
 11
4654.695515348526
 21
7087.377050186943
 31
0.0
  0
LINE
  5
14D4F
330
747D
100
AcDbEntity
  8
部品1
100
AcDbLine
 10
4651.695515348526
 20
6983.377050186942
 30
0.0
 11
4681.695515348526
 21
6983.377050186942
 31
0.0
  0
LINE
  5
14D50
330
747D
100
AcDbEntity
  8
部品1
100
AcDbLine
 10
2557.695515348525
 20
6983.377050186942
 30
0.0
 11
4654.695515348526
 21
6983.377050186942
 31
0.0
  0
LINE
  5
14D51
330
747D
100
AcDbEntity
  8
細線
  6
Continuous
 62
     5
100
AcDbLine
 10
3933.69551534853
 20
7022.377050186938
 30
0.0
 11
3933.69551534853
 21
7022.377050186938
 31
0.0
  0
LINE
  5
14D52
330
747D
100
AcDbEntity
  8
細線
  6
Continuous
 62
     5
100
AcDbLine
 10
3926.195550667421
 20
7022.377060107996
 30
0.0
 11
3926.195550667421
 21
7022.377060107996
 31
0.0
  0
LINE
  5
14D53
330
747D
100
AcDbEntity
  8
細線
  6
Continuous
 62
     5
100
AcDbLine
 10
3920.195550667421
 20
7022.377060107996
 30
0.0
 11
3920.195550667421
 21
7022.377060107996
 31
0.0
  0
LINE
  5
14D54
330
747D
100
AcDbEntity
  8
細線
  6
Continuous
 62
     5
100
AcDbLine
 10
3987.69551534853
 20
7041.377050186939
 30
0.0
 11
3987.69551534853
 21
7041.377050186939
 31
0.0
  0
LINE
  5
14D55
330
747D
100
AcDbEntity
  8
細線
 48
50.0
100
AcDbLine
 10
2580.695520002119
 20
7008.977224363896
 30
0.0
 11
2580.695520002119
 21
7017.373374771536
 31
0.0
  0
LINE
  5
14D56
330
747D
100
AcDbEntity
  8
細線
 48
50.0
100
AcDbLine
 10
2580.695520002119
 20
7017.373374771536
 30
0.0
 11
2566.695515348525
 21
7017.373374771533
 31
0.0
  0
LINE
  5
14D57
330
747D
100
AcDbEntity
  8
細線
 48
50.0
100
AcDbLine
 10
3331.695520002116
 20
7005.527224363895
 30
0.0
 11
3331.695520002116
 21
7010.377224363899
 31
0.0
  0
LINE
  5
14D58
330
747D
100
AcDbEntity
  8
細線
 48
50.0
100
AcDbLine
 10
3331.695520002116
 20
7010.377224363899
 30
0.0
 11
3346.695520002116
 21
7010.377224363899
 31
0.0
  0
LINE
  5
14D59
330
747D
100
AcDbEntity
  8
細線
 48
50.0
100
AcDbLine
 10
3346.695520002116
 20
7010.377224363899
 30
0.0
 11
3346.69552000212
 21
7017.377224363897
 31
0.0
  0
LINE
  5
14D5A
330
747D
100
AcDbEntity
  8
細線
 48
50.0
100
AcDbLine
 10
3346.69552000212
 20
7017.377224363897
 30
0.0
 11
3361.695520002116
 21
7017.377224363897
 31
0.0
  0
LINE
  5
14D5B
330
747D
100
AcDbEntity
  8
細線
 48
50.0
100
AcDbLine
 10
3361.695520002116
 20
7017.377224363897
 30
0.0
 11
3361.695520002116
 21
6988.377224363897
 31
0.0
  0
LINE
  5
14D5C
330
747D
100
AcDbEntity
  8
細線
 48
50.0
100
AcDbLine
 10
2557.695515348525
 20
6988.374558707366
 30
0.0
 11
2771.695520002116
 21
6988.377241917611
 31
0.0
  0
LINE
  5
14D5D
330
747D
100
AcDbEntity
  8
細線
 48
50.0
100
AcDbLine
 10
3261.695520002116
 20
6988.377224363897
 30
0.0
 11
3361.695520002116
 21
6988.377224363897
 31
0.0
  0
LINE
  5
14D5E
330
747D
100
AcDbEntity
  8
細線
 48
50.0
100
AcDbLine
 10
2981.695520002116
 20
6988.377224363897
 30
0.0
 11
3051.695520002116
 21
6988.377224363897
 31
0.0
  0
LINE
  5
14D5F
330
747D
100
AcDbEntity
  8
細線
 48
50.0
100
AcDbLine
 10
2994.557485014645
 20
6988.377224363897
 30
0.0
 11
3000.313002597313
 21
7006.648075654391
 31
0.0
  0
LINE
  5
14D60
330
747D
100
AcDbEntity
  8
細線
 48
50.0
100
AcDbLine
 10
3000.313002597313
 20
7006.648075654391
 30
0.0
 11
3011.241451077746
 21
7006.648075654388
 31
0.0
  0
ARC
  5
14D61
330
747D
100
AcDbEntity
  8
細線
 48
50.0
100
AcDbCircle
 10
3011.241451077746
 20
7005.648075654388
 30
0.0
 40
1.0
100
AcDbArc
 50
24.62431835212505
 51
90.0
  0
ARC
  5
14D62
330
747D
100
AcDbEntity
  8
細線
 48
50.0
100
AcDbCircle
 10
3022.150163192379
 20
7005.648075654388
 30
0.0
 40
1.0
100
AcDbArc
 50
90.0
 51
155.3756816478749
  0
ARC
  5
14D63
330
747D
100
AcDbEntity
  8
細線
 48
50.0
100
AcDbCircle
 10
3016.695807135061
 20
7008.148075654388
 30
0.0
 40
5.0
100
AcDbArc
 50
204.6243183521251
 51
335.375681647875
  0
LINE
  5
14D64
330
747D
100
AcDbEntity
  8
細線
 48
50.0
100
AcDbLine
 10
3022.150163192379
 20
7006.648075654388
 30
0.0
 11
3033.078611672813
 21
7006.648075654391
 31
0.0
  0
LINE
  5
14D65
330
747D
100
AcDbEntity
  8
細線
 48
50.0
100
AcDbLine
 10
3033.078611672813
 20
7006.648075654391
 30
0.0
 11
3038.834129255481
 21
6988.377224363897
 31
0.0
  0
LINE
  5
14D66
330
747D
100
AcDbEntity
  8
細線
 48
50.0
100
AcDbLine
 10
3331.695520002116
 20
7008.977224363896
 30
0.0
 11
2580.695520002119
 21
7008.977224363896
 31
0.0
  0
LINE
  5
14D67
330
747D
100
AcDbEntity
  8
細線
 48
50.0
100
AcDbLine
 10
3191.695520002116
 20
6988.377224363897
 30
0.0
 11
3121.695520002116
 21
6988.377224363897
 31
0.0
  0
LINE
  5
14D68
330
747D
100
AcDbEntity
  8
細線
100
AcDbLine
 10
2911.695520002116
 20
6988.377224363897
 30
0.0
 11
2841.695528187532
 21
6988.377224363897
 31
0.0
  0
LINE
  5
14D69
330
747D
100
AcDbEntity
  8
細線
 48
50.0
100
AcDbLine
 10
3985.69551069494
 20
7042.977268221765
 30
0.0
 11
3350.695520002116
 21
7042.97726822176
 31
0.0
  0
LINE
  5
14D6A
330
747D
100
AcDbEntity
  8
細線
 48
50.0
100
AcDbLine
 10
3350.695520002116
 20
7039.873418629404
 30
0.0
 11
3350.695520002116
 21
7044.373418629404
 31
0.0
  0
LINE
  5
14D6B
330
747D
100
AcDbEntity
  8
細線
 48
50.0
100
AcDbLine
 10
3350.695520002116
 20
7044.373418629404
 30
0.0
 11
3335.695520002115
 21
7044.373418629404
 31
0.0
  0
LINE
  5
14D6C
330
747D
100
AcDbEntity
  8
細線
 48
50.0
100
AcDbLine
 10
3335.695520002115
 20
7044.373418629404
 30
0.0
 11
3335.695520002115
 21
7051.373418629404
 31
0.0
  0
LINE
  5
14D6D
330
747D
100
AcDbEntity
  8
細線
 48
50.0
100
AcDbLine
 10
3335.695520002115
 20
7051.373418629404
 30
0.0
 11
3320.695520002119
 21
7051.3734186294
 31
0.0
  0
LINE
  5
14D6E
330
747D
100
AcDbEntity
  8
細線
 48
50.0
100
AcDbLine
 10
3320.695520002119
 20
7051.3734186294
 30
0.0
 11
3320.695520002119
 21
7013.77319052629
 31
0.0
  0
LINE
  5
14D6F
330
747D
100
AcDbEntity
  8
細線
 48
50.0
100
AcDbLine
 10
3320.695520002119
 20
7013.77319052629
 30
0.0
 11
3340.695527303292
 21
7013.773232075831
 31
0.0
  0
LINE
  5
14D70
330
747D
100
AcDbEntity
  8
細線
 48
50.0
100
AcDbLine
 10
3340.695482434349
 20
7022.376693711639
 30
0.0
 11
3340.695527303292
 21
7013.773232075831
 31
0.0
  0
LINE
  5
14D71
330
747D
100
AcDbEntity
  8
細線
 48
50.0
100
AcDbLine
 10
3985.69551069494
 20
7039.527268221764
 30
0.0
 11
3985.69551069494
 21
7044.377268221762
 31
0.0
  0
LINE
  5
14D72
330
747D
100
AcDbEntity
  8
細線
 48
50.0
100
AcDbLine
 10
3985.69551069494
 20
7044.377268221762
 30
0.0
 11
4000.695510694936
 21
7044.377268221762
 31
0.0
  0
LINE
  5
14D73
330
747D
100
AcDbEntity
  8
細線
 48
50.0
100
AcDbLine
 10
4000.695510694936
 20
7044.377268221762
 30
0.0
 11
4000.695522328912
 21
7051.377268221806
 31
0.0
  0
LINE
  5
14D74
330
747D
100
AcDbEntity
  8
細線
 48
50.0
100
AcDbLine
 10
4000.695522328912
 20
7051.377268221806
 30
0.0
 11
4015.695520499441
 21
7051.377268221806
 31
0.0
  0
LINE
  5
14D75
330
747D
100
AcDbEntity
  8
細線
 48
50.0
100
AcDbLine
 10
4015.695520499441
 20
7051.377268221806
 30
0.0
 11
4015.695510197621
 21
7022.377062049533
 31
0.0
  0
LINE
  5
14D76
330
747D
100
AcDbEntity
  8
細線
 48
50.0
100
AcDbLine
 10
3703.195537828405
 20
7022.377070236898
 30
0.0
 11
3633.195789910821
 21
7022.37706479956
 31
0.0
  0
LINE
  5
14D77
330
747D
100
AcDbEntity
  8
細線
 48
50.0
100
AcDbLine
 10
3340.695482434349
 20
7022.376693711639
 30
0.0
 11
3351.92817178906
 21
7022.376876664786
 31
0.0
  0
ARC
  5
14D78
330
747D
100
AcDbEntity
  8
細線
 48
50.0
100
AcDbCircle
 10
3358.510464096396
 20
7021.177040578399
 30
0.0
 40
1.8
100
AcDbArc
 50
270.0006665777295
 51
345.0005554812987
  0
LINE
  5
14D79
330
747D
100
AcDbEntity
  8
細線
 48
50.0
100
AcDbLine
 10
3360.496897542475
 20
7021.635881035678
 30
0.0
 11
3360.249135100276
 21
7020.711183153571
 31
0.0
  0
LINE
  5
14D7A
330
747D
100
AcDbEntity
  8
細線
 48
50.0
100
AcDbLine
 10
3358.510485037551
 20
7019.37704057852
 30
0.0
 11
3354.880557618782
 21
7019.37699834804
 31
0.0
  0
ARC
  5
14D7B
330
747D
100
AcDbEntity
  8
細線
 48
50.0
100
AcDbCircle
 10
3354.88053667763
 20
7021.176998347918
 30
0.0
 40
1.8
100
AcDbArc
 50
195.0010443049461
 51
270.0006665777295
  0
LINE
  5
14D7C
330
747D
100
AcDbEntity
  8
細線
 48
50.0
100
AcDbLine
 10
3352.894109185371
 20
7021.635713315482
 30
0.0
 11
3353.141878681884
 21
7020.711092376902
 31
0.0
  0
ARC
  5
14D7D
330
747D
100
AcDbEntity
  8
細線
 48
50.0
100
AcDbCircle
 10
3351.928188076622
 20
7021.376876664921
 30
0.0
 40
1.0
100
AcDbArc
 50
15.00104430494617
 51
90.00093320877969
  0
LINE
  5
14D7E
330
747D
100
AcDbEntity
  8
細線
 48
50.0
100
AcDbLine
 10
3361.462818897578
 20
7022.377071355191
 30
0.0
 11
3362.404579048483
 21
7022.37707792904
 31
0.0
  0
ARC
  5
14D7F
330
747D
100
AcDbEntity
  8
細線
 48
50.0
100
AcDbCircle
 10
3361.462825877964
 20
7021.377071355217
 30
0.0
 40
1.0
100
AcDbArc
 50
90.0003999466794
 51
165.0005554812987
  0
LINE
  5
14D80
330
747D
100
AcDbEntity
  8
細線
 48
50.0
100
AcDbLine
 10
3913.195510694929
 20
7022.377062049533
 30
0.0
 11
4015.695510197621
 21
7022.377062049533
 31
0.0
  0
LINE
  5
14D81
330
747D
100
AcDbEntity
  8
細線
 48
50.0
100
AcDbLine
 10
3423.195546013821
 20
7022.377070236898
 30
0.0
 11
3362.095484786901
 21
7022.37707792904
 31
0.0
  0
LINE
  5
14D82
330
747D
100
AcDbEntity
  8
細線
 48
50.0
100
AcDbLine
 10
3843.19554601382
 20
7022.377107077982
 30
0.0
 11
3773.195539059435
 21
7022.377062055314
 31
0.0
  0
LINE
  5
14D83
330
747D
100
AcDbEntity
  8
細線
 48
50.0
100
AcDbLine
 10
3563.195510694929
 20
7022.377062049528
 30
0.0
 11
3493.195493407054
 21
7022.377062049535
 31
0.0
  0
ARC
  5
14D84
330
747D
100
AcDbEntity
  8
細線
 48
50.0
100
AcDbCircle
 10
3999.895515348537
 20
7055.577050186943
 30
0.0
 40
0.8
100
AcDbArc
 50
359.9997333689499
 51
89.99986668437072
  0
ARC
  5
14D85
330
747D
100
AcDbEntity
  8
細線
 48
50.0
100
AcDbCircle
 10
4007.495522173631
 20
7055.57706135556
 30
0.0
 40
0.8
100
AcDbArc
 50
90.00014387753465
 51
179.9997333689498
  0
LINE
  5
14D86
330
747D
100
AcDbEntity
  8
細線
 48
50.0
100
AcDbLine
 10
3999.895517209971
 20
7056.377050186942
 30
0.0
 11
3994.695515348526
 21
7056.377050186942
 31
0.0
  0
ARC
  5
14D87
330
747D
100
AcDbEntity
  8
細線
 48
50.0
100
AcDbCircle
 10
4001.395515348526
 20
7054.077050186943
 30
0.0
 40
0.7
100
AcDbArc
 50
180.0
 51
270.0
  0
ARC
  5
14D88
330
747D
100
AcDbEntity
  8
細線
 48
50.0
100
AcDbCircle
 10
4005.995515348529
 20
7054.077050186943
 30
0.0
 40
0.7
100
AcDbArc
 50
270.0
 51
0.0
  0
LINE
  5
14D89
330
747D
100
AcDbEntity
  8
細線
 48
50.0
100
AcDbLine
 10
4006.695515348526
 20
7054.077050186943
 30
0.0
 11
4006.695522173643
 21
7055.577065078431
 31
0.0
  0
LINE
  5
14D8A
330
747D
100
AcDbEntity
  8
細線
 48
50.0
100
AcDbLine
 10
4001.395515348526
 20
7053.377050186942
 30
0.0
 11
4005.995515348529
 21
7053.377050186942
 31
0.0
  0
LINE
  5
14D8B
330
747D
100
AcDbEntity
  8
細線
 48
50.0
100
AcDbLine
 10
4000.695515348525
 20
7055.577050186943
 30
0.0
 11
4000.695515348525
 21
7054.077050186943
 31
0.0
  0
LINE
  5
14D8C
330
747D
100
AcDbEntity
  8
細線
 48
50.0
100
AcDbLine
 10
4626.295515348532
 20
7086.377050186943
 30
0.0
 11
3989.695515348526
 21
7086.377050186938
 31
0.0
  0
LINE
  5
14D8D
330
747D
100
AcDbEntity
  8
細線
 48
50.0
100
AcDbLine
 10
4652.195515348526
 20
7081.377050186945
 30
0.0
 11
4636.295515348531
 21
7081.377050186943
 31
0.0
  0
LINE
  5
14D8E
330
747D
100
AcDbEntity
  8
細線
 48
50.0
100
AcDbLine
 10
4636.295515348527
 20
7081.377050186943
 30
0.0
 11
4626.295515348532
 21
7086.377050186943
 31
0.0
  0
LINE
  5
14D8F
330
747D
100
AcDbEntity
  8
細線
100
AcDbLine
 10
4237.195515348527
 20
7056.377050186942
 30
0.0
 11
4237.195515348527
 21
7085.677050186942
 31
0.0
  0
LINE
  5
14D90
330
747D
100
AcDbEntity
  8
細線
100
AcDbLine
 10
4237.195515348527
 20
7085.677050186942
 30
0.0
 11
4257.195515348526
 21
7085.677050186942
 31
0.0
  0
LINE
  5
14D91
330
747D
100
AcDbEntity
  8
細線
100
AcDbLine
 10
4257.195515348526
 20
7056.377050186942
 30
0.0
 11
4257.195515348526
 21
7085.677050186942
 31
0.0
  0
LINE
  5
14D92
330
747D
100
AcDbEntity
  8
細線
100
AcDbLine
 10
4418.445515348526
 20
7056.377050186942
 30
0.0
 11
4348.445515348527
 21
7056.377050186942
 31
0.0
  0
LINE
  5
14D93
330
747D
100
AcDbEntity
  8
細線
 48
50.0
100
AcDbLine
 10
4138.445515348526
 20
7056.377050186942
 30
0.0
 11
4007.491294921369
 21
7056.377050186942
 31
0.0
  0
LINE
  5
14D94
330
747D
100
AcDbEntity
  8
細線
100
AcDbLine
 10
4278.445515348527
 20
7056.377050186942
 30
0.0
 11
4208.445515348527
 21
7056.377050186942
 31
0.0
  0
LINE
  5
14D95
330
747D
100
AcDbEntity
  8
細線
 48
50.0
100
AcDbLine
 10
3994.695515348526
 20
7048.377050186942
 30
0.0
 11
3994.695515348526
 21
7056.377050186942
 31
0.0
  0
LINE
  5
14D96
330
747D
100
AcDbEntity
  8
細線
 48
50.0
100
AcDbLine
 10
3974.695515348526
 20
7048.377050186946
 30
0.0
 11
3994.695515348526
 21
7048.377050186942
 31
0.0
  0
LINE
  5
14D97
330
747D
100
AcDbEntity
  8
細線
 48
50.0
100
AcDbLine
 10
3989.695515348526
 20
7086.377050186943
 30
0.0
 11
3989.695515348526
 21
7081.377050186943
 31
0.0
  0
LINE
  5
14D98
330
747D
100
AcDbEntity
  8
細線
 48
50.0
100
AcDbLine
 10
3974.695515348526
 20
7086.377050186938
 30
0.0
 11
3989.695515348526
 21
7086.377050186943
 31
0.0
  0
LINE
  5
14D99
330
747D
100
AcDbEntity
  8
細線
 48
50.0
100
AcDbLine
 10
3974.695515348526
 20
7048.377050186946
 30
0.0
 11
3974.695515348526
 21
7086.377050186938
 31
0.0
  0
LINE
  5
14D9A
330
747D
100
AcDbEntity
  8
細線
100
AcDbLine
 10
4642.695515348526
 20
7056.377050186942
 30
0.0
 11
4488.445515348526
 21
7056.377050186942
 31
0.0
  0
LINE
  5
14D9B
330
747D
100
AcDbEntity
  8
細線
 48
50.0
100
AcDbLine
 10
4652.195515348526
 20
7081.377050186945
 30
0.0
 11
4652.195515348526
 21
7056.377050186942
 31
0.0
  0
DIMENSION
  5
1500C
330
747D
100
AcDbEntity
  8
寸法
100
AcDbDimension
  2
*D28
 10
1328.376701444477
 20
6985.377050186911
 30
0.0
 11
1328.376701444476
 21
6844.89176881267
 31
0.0
 70
   160
 71
     5
 42
75.00000000002637
  3
INABA_S40
100
AcDbAlignedDimension
 13
1659.695515348526
 23
7060.377050186936
 33
0.0
 14
2527.695515348526
 24
6985.377050186909
 34
0.0
 50
90.0
100
AcDbRotatedDimension
1001
ACAD
1000
DSTYLE
1002
{
1070
    41
1040
0.5
1070
    44
1040
1.0
1070
   147
1040
0.8
1070
   271
1070
     2
1070
   272
1070
     2
1070
   289
1070
     3
1070
   340
1005
F706
1070
   343
1005
F744
1070
   344
1005
F744
1002
}
  0
DIMENSION
  5
1500D
330
747D
100
AcDbEntity
  8
寸法
 48
50.0
100
AcDbDimension
  2
*D29
 10
4681.695515348526
 20
6024.420042677681
 30
0.0
 11
3581.817515997383
 21
6024.420042677681
 31
0.0
 70
   160
 71
     5
 42
2154.0
  3
INABA_S40G
100
AcDbAlignedDimension
 13
2527.695515348526
 23
6983.377050186935
 33
0.0
 14
4681.695515348526
 24
6983.377050186935
 34
0.0
100
AcDbRotatedDimension
1001
ACAD
1000
DSTYLE
1002
{
1070
   341
1005
0
1002
}
  0
TEXT
  5
150BE
330
747D
100
AcDbEntity
  8
部品1
100
AcDbText
 10
4837.879792063358
 20
5371.5453979583
 30
0.0
 40
135.0
  1
平面図
  7
STYLE2
100
AcDbText
  0
LWPOLYLINE
  5
150BF
330
747D
100
AcDbEntity
  8
部品1
100
AcDbPolyline
 90
        4
 70
     1
 43
0.0
 10
4747.960182234318
 20
5564.438927176823
 10
4747.960182234318
 20
5324.54660563129
 10
5511.430848462762
 20
5324.54660563129
 10
5511.430848462762
 20
5564.438927176823
  0
DIMENSION
  5
15109
330
747D
100
AcDbEntity
  8
寸法
 48
50.0
100
AcDbDimension
  2
*D30
 10
8599.695515348525
 20
5735.29509268409
 30
0.0
 11
6864.695515348525
 21
5827.29509268409
 31
0.0
 70
    32
 71
     5
 42
3470.0
  3
INABA_S40
100
AcDbAlignedDimension
 13
5129.695515348525
 23
7115.377050186933
 33
0.0
 14
8599.695515348525
 24
7060.377050186936
 34
0.0
100
AcDbRotatedDimension
1001
ACAD
1000
DSTYLE
1002
{
1070
    41
1040
0.5
1070
    44
1040
1.0
1070
   147
1040
0.8
1070
   271
1070
     2
1070
   272
1070
     2
1070
   289
1070
     3
1070
   340
1005
F706
1070
   343
1005
F744
1070
   344
1005
F744
1002
}
  0
DIMENSION
  5
15144
330
747D
100
AcDbEntity
  8
寸法
 48
50.0
100
AcDbDimension
  2
*D31
 10
5129.695515348525
 20
5735.29509268409
 30
0.0
 11
3394.695515348525
 21
5827.29509268409
 31
0.0
 70
    32
 71
     5
 42
3470.0
  3
INABA_S40
100
AcDbAlignedDimension
 13
1659.695515348525
 23
7060.377050186936
 33
0.0
 14
5129.695515348525
 24
7115.377050186937
 34
0.0
100
AcDbRotatedDimension
1001
ACAD
1000
DSTYLE
1002
{
1070
    41
1040
0.5
1070
    44
1040
1.0
1070
   147
1040
0.8
1070
   271
1070
     2
1070
   272
1070
     2
1070
   289
1070
     3
1070
   340
1005
F706
1070
   343
1005
F744
1070
   344
1005
F744
1002
}
  0
LWPOLYLINE
  5
153FB
330
747D
100
AcDbEntity
  8
部品1
 48
50.0
100
AcDbPolyline
 90
        4
 70
     1
 43
0.0
 10
2626.745515348524
 20
3120.592041959937
 10
2629.645515348526
 20
3120.592041959937
 10
2629.645515348526
 20
3130.092041959937
 10
2626.745515348524
 20
3130.092041959937
  0
CIRCLE
  5
153FC
330
747D
100
AcDbEntity
  8
部品1
 48
50.0
100
AcDbCircle
 10
2628.195515348525
 20
3125.342041959937
 30
0.0
 40
9.0
  0
ARC
  5
153FD
330
747D
100
AcDbEntity
  8
細線
 48
50.0
100
AcDbCircle
 10
2628.195515348525
 20
3125.342041959937
 30
0.0
 40
4.0
100
AcDbArc
 50
111.2538091853375
 51
248.7461908146625
  0
ARC
  5
153FE
330
747D
100
AcDbEntity
  8
細線
 48
50.0
100
AcDbCircle
 10
2628.195515348525
 20
3125.342041959937
 30
0.0
 40
17.5
100
AcDbArc
 50
306.4837370612677
 51
233.5162629387323
  0
LINE
  5
153FF
330
747D
100
AcDbEntity
  8
細線
 48
50.0
100
AcDbLine
 10
2638.195515348522
 20
3101.483081379055
 30
0.0
 11
2638.195515348525
 21
3110.467567179296
 31
0.0
  0
LINE
  5
15400
330
747D
100
AcDbEntity
  8
細線
 48
50.0
100
AcDbLine
 10
2618.195515348525
 20
3101.483081379056
 30
0.0
 11
2618.195515348525
 21
3110.467567179292
 31
0.0
  0
ARC
  5
15401
330
747D
100
AcDbEntity
  8
細線
 48
50.0
100
AcDbCircle
 10
2628.195515348525
 20
3125.342041959937
 30
0.0
 40
26.5
100
AcDbArc
 50
249.3326835063939
 51
290.6673164933835
  0
ARC
  5
15402
330
747D
100
AcDbEntity
  8
細線
 48
50.0
100
AcDbCircle
 10
2637.195515348518
 20
3101.483081379055
 30
0.0
 40
1.0
100
AcDbArc
 50
290.6673164936062
 51
359.9999999998958
  0
ARC
  5
15403
330
747D
100
AcDbEntity
  8
細線
 48
50.0
100
AcDbCircle
 10
2619.195515348526
 20
3101.483081379056
 30
0.0
 40
1.0
100
AcDbArc
 50
180.0
 51
249.3326835066164
  0
ARC
  5
15404
330
747D
100
AcDbEntity
  8
細線
 48
50.0
100
AcDbCircle
 10
2617.195515348525
 20
3110.467567179292
 30
0.0
 40
1.0
100
AcDbArc
 50
0.0
 51
53.51626293873231
  0
ARC
  5
15405
330
747D
100
AcDbEntity
  8
細線
 48
50.0
100
AcDbCircle
 10
2639.195515348529
 20
3110.467567179296
 30
0.0
 40
1.0
100
AcDbArc
 50
126.4837370614917
 51
180.0
  0
ARC
  5
15406
330
747D
100
AcDbEntity
  8
細線
 48
50.0
100
AcDbCircle
 10
2628.195515348525
 20
3125.342041959937
 30
0.0
 40
21.5
100
AcDbArc
 50
255.8014401250294
 51
284.1985598749706
  0
ARC
  5
15407
330
747D
100
AcDbEntity
  8
細線
 48
50.0
100
AcDbCircle
 10
2628.195515348525
 20
3125.342041959937
 30
0.0
 40
16.5
100
AcDbArc
 50
251.9694646069326
 51
288.0305353930674
  0
LINE
  5
15408
330
747D
100
AcDbEntity
  8
細線
 48
50.0
100
AcDbLine
 10
2633.695515348525
 20
3104.78966983413
 30
0.0
 11
2633.695515348525
 21
3109.367061521467
 31
0.0
  0
LINE
  5
15409
330
747D
100
AcDbEntity
  8
細線
 48
50.0
100
AcDbLine
 10
2622.695515348525
 20
3104.78966983413
 30
0.0
 11
2622.695515348525
 21
3109.367061521465
 31
0.0
  0
ARC
  5
1540A
330
747D
100
AcDbEntity
  8
細線
 48
50.0
100
AcDbCircle
 10
2622.995515348528
 20
3109.367061521465
 30
0.0
 40
0.3
100
AcDbArc
 50
71.96946460693259
 51
180.0
  0
ARC
  5
1540B
330
747D
100
AcDbEntity
  8
細線
 48
50.0
100
AcDbCircle
 10
2633.395515348526
 20
3109.367061521467
 30
0.0
 40
0.3
100
AcDbArc
 50
0.0
 51
108.0305353930674
  0
ARC
  5
1540C
330
747D
100
AcDbEntity
  8
細線
 48
50.0
100
AcDbCircle
 10
2633.395515348522
 20
3104.78966983413
 30
0.0
 40
0.3
100
AcDbArc
 50
284.1985598747622
 51
0.0000000001042204
  0
ARC
  5
1540D
330
747D
100
AcDbEntity
  8
細線
 48
50.0
100
AcDbCircle
 10
2622.995515348528
 20
3104.78966983413
 30
0.0
 40
0.3
100
AcDbArc
 50
180.0
 51
255.8014401248081
  0
CIRCLE
  5
1540E
330
747D
100
AcDbEntity
  8
細線
 48
50.0
100
AcDbCircle
 10
2628.195515348525
 20
3125.342041959937
 30
0.0
 40
12.0
  0
ARC
  5
1540F
330
747D
100
AcDbEntity
  8
部品1
 48
50.0
100
AcDbCircle
 10
2628.195515348525
 20
3175.342041959937
 30
0.0
 40
8.5
100
AcDbArc
 50
114.315739171091
 51
245.684260828909
  0
CIRCLE
  5
15410
330
747D
100
AcDbEntity
  8
細線
 48
50.0
100
AcDbCircle
 10
2628.195515348525
 20
3175.342041959937
 30
0.0
 40
4.5
  0
LWPOLYLINE
  5
15411
330
747D
100
AcDbEntity
  8
部品1
 48
50.0
100
AcDbPolyline
 90
        2
 70
     0
 43
0.0
 10
2624.695515348526
 20
3194.01689135692
 10
2624.695515348526
 20
3183.088008652352
  0
CIRCLE
  5
15412
330
747D
100
AcDbEntity
  8
部品1
 48
50.0
100
AcDbCircle
 10
2628.195515348525
 20
3175.342041959937
 30
0.0
 40
19.0
  0
LWPOLYLINE
  5
15413
330
747D
100
AcDbEntity
  8
部品1
 48
50.0
100
AcDbPolyline
 90
        2
 70
     0
 43
0.0
 10
2624.695515348526
 20
3167.596075267522
 10
2624.695515348526
 20
3156.667192562955
  0
LWPOLYLINE
  5
15414
330
747D
100
AcDbEntity
  8
部品1
 48
50.0
100
AcDbPolyline
 90
        2
 70
     0
 43
0.0
 10
2631.695515348525
 20
3183.088008652352
 10
2631.695515348525
 20
3194.01689135692
  0
ARC
  5
15415
330
747D
100
AcDbEntity
  8
部品1
 48
50.0
100
AcDbCircle
 10
2628.195515348525
 20
3175.342041959937
 30
0.0
 40
8.5
100
AcDbArc
 50
294.315739171091
 51
65.68426082890896
  0
LWPOLYLINE
  5
15416
330
747D
100
AcDbEntity
  8
部品1
 48
50.0
100
AcDbPolyline
 90
        2
 70
     0
 43
0.0
 10
2631.695515348525
 20
3156.667192562955
 10
2631.695515348525
 20
3167.596075267522
  0
ARC
  5
15417
330
747D
100
AcDbEntity
  8
細線
 48
50.0
100
AcDbCircle
 10
2628.195515348525
 20
3175.342041959937
 30
0.0
 40
16.5
100
AcDbArc
 50
332.0012352654316
 51
27.99876473456844
  0
ARC
  5
15418
330
747D
100
AcDbEntity
  8
細線
 48
50.0
100
AcDbCircle
 10
2628.195515348525
 20
3175.342041959937
 30
0.0
 40
14.0
100
AcDbArc
 50
326.4074436112843
 51
33.59255638871576
  0
LINE
  5
15419
330
747D
100
AcDbEntity
  8
細線
 48
50.0
100
AcDbLine
 10
2613.626713064194
 20
3183.088008652352
 30
0.0
 11
2616.533611558836
 21
3183.088008652352
 31
0.0
  0
LINE
  5
1541A
330
747D
100
AcDbEntity
  8
細線
 48
50.0
100
AcDbLine
 10
2613.626713064194
 20
3167.596075267522
 30
0.0
 11
2616.533611558836
 21
3167.596075267522
 31
0.0
  0
LINE
  5
1541B
330
747D
100
AcDbEntity
  8
細線
 48
50.0
100
AcDbLine
 10
2639.857419138214
 20
3183.088008652352
 30
0.0
 11
2642.76431763286
 21
3183.088008652352
 31
0.0
  0
LINE
  5
1541C
330
747D
100
AcDbEntity
  8
細線
 48
50.0
100
AcDbLine
 10
2639.857419138214
 20
3167.596075267522
 30
0.0
 11
2642.76431763286
 21
3167.596075267522
 31
0.0
  0
ARC
  5
1541D
330
747D
100
AcDbEntity
  8
細線
 48
50.0
100
AcDbCircle
 10
2628.195515348525
 20
3175.342041959937
 30
0.0
 40
14.0
100
AcDbArc
 50
146.4074436112842
 51
213.5925563887158
  0
ARC
  5
1541E
330
747D
100
AcDbEntity
  8
細線
 48
50.0
100
AcDbCircle
 10
2628.195515348525
 20
3175.342041959937
 30
0.0
 40
16.5
100
AcDbArc
 50
152.0012352654315
 51
207.9987647345685
  0
ARC
  5
1541F
330
747D
100
AcDbEntity
  8
部品1
 48
50.0
100
AcDbCircle
 10
2601.695515348525
 20
3200.842041959937
 30
0.0
 40
5.0
100
AcDbArc
 50
90.0
 51
180.0
  0
ARC
  5
15420
330
747D
100
AcDbEntity
  8
部品1
 48
50.0
100
AcDbCircle
 10
2601.695515348525
 20
3089.842041959937
 30
0.0
 40
5.0
100
AcDbArc
 50
180.0
 51
270.0
  0
ARC
  5
15421
330
747D
100
AcDbEntity
  8
部品1
 48
50.0
100
AcDbCircle
 10
2654.695515348525
 20
3089.842041959937
 30
0.0
 40
5.0
100
AcDbArc
 50
270.0
 51
0.0
  0
ARC
  5
15422
330
747D
100
AcDbEntity
  8
部品1
 48
50.0
100
AcDbCircle
 10
2654.695515348525
 20
3200.842041959937
 30
0.0
 40
5.0
100
AcDbArc
 50
0.0
 51
90.0
  0
LINE
  5
15423
330
747D
100
AcDbEntity
  8
部品1
 48
50.0
100
AcDbLine
 10
2596.695515348525
 20
3089.842041959937
 30
0.0
 11
2596.695515348525
 21
3200.842041959937
 31
0.0
  0
LINE
  5
15424
330
747D
100
AcDbEntity
  8
部品1
 48
50.0
100
AcDbLine
 10
2654.695515348525
 20
3084.842041959937
 30
0.0
 11
2601.695515348525
 21
3084.842041959937
 31
0.0
  0
LINE
  5
15425
330
747D
100
AcDbEntity
  8
部品1
 48
50.0
100
AcDbLine
 10
2659.695515348525
 20
3200.842041959937
 30
0.0
 11
2659.695515348525
 21
3089.842041959937
 31
0.0
  0
ENDSEC
  0
SECTION
  2
OBJECTS
  0
DICTIONARY
  5
7471
330
0
100
AcDbDictionary
281
     1
  3
ACAD_COLOR
350
139CC
  3
ACAD_GROUP
350
7472
  3
ACAD_LAYOUT
350
139CD
  3
ACAD_MATERIAL
350
139CB
  3
ACAD_MLINESTYLE
350
7473
  3
ACAD_PLOTSETTINGS
350
139CE
  3
ACAD_PLOTSTYLENAME
350
139C9
  3
ACDBHEADERROUNDTRIPXREC
350
15435
  3
AcDbVariableDictionary
350
15431
  3
CONTENTDICTIONARY
350
E71C
  3
DRAWINGVARIABLESDICT
350
F3B9
  0
DICTIONARY
  5
13B48
330
7467
100
AcDbDictionary
280
     1
281
     1
  3
ACAD_LAYERSTATES
360
13B49
  0
DICTIONARY
  5
139CC
102
{ACAD_REACTORS
330
7471
102
}
330
7471
100
AcDbDictionary
281
     1
  0
DICTIONARY
  5
7472
102
{ACAD_REACTORS
330
7471
102
}
330
7471
100
AcDbDictionary
281
     1
  0
DICTIONARY
  5
139CD
102
{ACAD_REACTORS
330
7471
102
}
330
7471
100
AcDbDictionary
281
     1
  3
Model
350
139CF
  3
レイアウト1
350
139D0
  0
DICTIONARY
  5
139CB
102
{ACAD_REACTORS
330
7471
102
}
330
7471
100
AcDbDictionary
281
     1
  0
DICTIONARY
  5
7473
102
{ACAD_REACTORS
330
7471
102
}
330
7471
100
AcDbDictionary
281
     1
  3
STANDARD
350
7480
  0
DICTIONARY
  5
139CE
102
{ACAD_REACTORS
330
7471
102
}
330
7471
100
AcDbDictionary
281
     1
  0
ACDBDICTIONARYWDFLT
  5
139C9
102
{ACAD_REACTORS
330
7471
102
}
330
7471
100
AcDbDictionary
281
     1
  3
Normal
350
139CA
100
AcDbDictionaryWithDefault
340
139CA
  0
DICTIONARY
  5
15435
102
{ACAD_REACTORS
330
7471
102
}
330
7471
100
AcDbDictionary
281
     1
  3
COLORDICT
350
15437
  3
MATERIALDICT
350
15436
  0
DICTIONARY
  5
15431
102
{ACAD_REACTORS
330
7471
102
}
330
7471
100
AcDbDictionary
281
     1
  3
DIMASSOC
350
15432
  3
PROJECTNAME
350
15433
  0
DICTIONARY
  5
E71C
102
{ACAD_REACTORS
330
7471
102
}
330
7471
100
AcDbDictionary
281
     1
  0
DICTIONARY
  5
F3B9
102
{ACAD_REACTORS
330
7471
102
}
330
7471
100
AcDbDictionary
281
     1
1001
DRAWINGVARIABLESXDATA
1000
POLARMODE
1000
1
  0
DICTIONARY
  5
13B49
102
{ACAD_REACTORS
330
13B48
102
}
330
13B48
100
AcDbDictionary
281
     1
  0
LAYOUT
  5
139CF
102
{ACAD_XDICTIONARY
360
15438
102
}
102
{ACAD_REACTORS
330
139CD
102
}
330
139CD
100
AcDbPlotSettings
  1

  2
iR C3880
  4
A3
  6

 40
5.873749732971191
 41
5.873747825622558
 42
5.873748779296875
 43
5.873748779296875
 44
296.9259948730469
 45
419.9466552734374
 46
0.0
 47
0.0
 48
0.0
 49
0.0
140
0.0
141
0.0
142
1.0
143
40.0
 70
 11952
 72
     1
 73
     1
 74
     2
  7
inaba.ctb
 75
    24
147
0.025
148
0.0
149
0.0
100
AcDbLayout
  1
Model
 70
     1
 71
     0
 10
0.0
 20
0.0
 11
12.0
 21
9.0
 12
0.0
 22
0.0
 32
0.0
 14
0.0
 24
0.0
 34
0.0
 15
0.0
 25
0.0
 35
0.0
146
0.0
 13
0.0
 23
0.0
 33
0.0
 16
1.0
 26
0.0
 36
0.0
 17
0.0
 27
1.0
 37
0.0
 76
     0
330
747D
  0
LAYOUT
  5
139D0
102
{ACAD_XDICTIONARY
360
1543A
102
}
102
{ACAD_REACTORS
330
139CD
102
}
330
139CD
100
AcDbPlotSettings
  1

  2
EPSON LP-7000C
  4

  6

 40
0.0
 41
0.0
 42
0.0
 43
0.0
 44
0.0
 45
0.0
 46
0.0
 47
0.0
 48
0.0
 49
0.0
140
0.0
141
0.0
142
1.0
143
1.0
 70
   688
 72
     0
 73
     0
 74
     5
  7
inaba.ctb
 75
    16
147
1.0
148
0.0
149
0.0
100
AcDbLayout
  1
レイアウト1
 70
     0
 71
     1
 10
0.0
 20
0.0
 11
420.0
 21
297.0
 12
0.0
 22
0.0
 32
0.0
 14
1.000000000000000E+20
 24
1.000000000000000E+20
 34
1.000000000000000E+20
 15
-1.000000000000000E+20
 25
-1.000000000000000E+20
 35
-1.000000000000000E+20
146
0.0
 13
0.0
 23
0.0
 33
0.0
 16
1.0
 26
0.0
 36
0.0
 17
0.0
 27
1.0
 37
0.0
 76
     0
330
747A
  0
MLINESTYLE
  5
7480
102
{ACAD_REACTORS
330
7473
102
}
330
7473
100
AcDbMlineStyle
  2
STANDARD
 70
     0
  3

 62
     0
 51
90.0
 52
90.0
 71
     2
 49
0.5
 62
   256
  6
BYLAYER
 49
-0.5
 62
   256
  6
BYLAYER
  0
ACDBPLACEHOLDER
  5
139CA
102
{ACAD_REACTORS
330
139C9
102
}
330
139C9
  0
XRECORD
  5
15437
102
{ACAD_REACTORS
330
15435
102
}
330
15435
100
AcDbXrecord
280
     1
340
139CC
  0
XRECORD
  5
15436
102
{ACAD_REACTORS
330
15435
102
}
330
15435
100
AcDbXrecord
280
     1
340
139CB
  0
DICTIONARYVAR
  5
15432
102
{ACAD_REACTORS
330
15431
102
}
330
15431
100
DictionaryVariables
280
     0
  1
1
  0
DICTIONARYVAR
  5
15433
102
{ACAD_REACTORS
330
15431
102
}
330
15431
100
DictionaryVariables
280
     0
  1

  0
DICTIONARY
  5
15438
330
139CF
100
AcDbDictionary
280
     1
281
     1
  3
ACAD_XREC_ROUNDTRIP
360
15439
  0
DICTIONARY
  5
1543A
330
139D0
100
AcDbDictionary
280
     1
281
     1
  3
ACAD_XREC_ROUNDTRIP
360
1543B
  0
XRECORD
  5
15439
102
{ACAD_REACTORS
330
15438
102
}
330
15438
100
AcDbXrecord
280
     1
102
SHADEPLOT
 70
     0
102
SHADEPLOTRESLEVEL
 70
     2
102
SHADEPLOTCUSTOMDPI
 70
   300
  0
XRECORD
  5
1543B
102
{ACAD_REACTORS
330
1543A
102
}
330
1543A
100
AcDbXrecord
280
     1
102
SHADEPLOT
 70
     0
102
SHADEPLOTRESLEVEL
 70
     2
102
SHADEPLOTCUSTOMDPI
 70
   300
  0
ENDSEC
  0
EOF
