  0
SECTION
  2
HEADER
  9
$ACADVER
  1
AC1015
  9
$ACADMAINTVER
 70
    20
  9
$DWGCODEPAGE
  3
ANSI_932
  9
$INSBASE
 10
0.0
 20
0.0
 30
0.0
  9
$EXTMIN
 10
139.9999999999995
 20
-0.0000000000000909
 30
0.0
  9
$EXTMAX
 10
16307.2
 20
11409.6
 30
0.0
  9
$LIMMIN
 10
0.0
 20
0.0
  9
$LIMMAX
 10
16800.0
 20
11880.0
  9
$ORTHOMODE
 70
     0
  9
$REGENMODE
 70
     1
  9
$FILLMODE
 70
     1
  9
$QTEXTMODE
 70
     0
  9
$MIRRTEXT
 70
     1
  9
$LTSCALE
 40
20.0
  9
$ATTMODE
 70
     1
  9
$TEXTSIZE
 40
100.0
  9
$TRACEWID
 40
1.0
  9
$TEXTSTYLE
  7
STYLE3
  9
$CLAYER
  8
部品1
  9
$CELTYPE
  6
BYLAYER
  9
$CECOLOR
 62
   256
  9
$CELTSCALE
 40
50.0
  9
$DISPSILH
 70
     0
  9
$DIMSCALE
 40
40.0
  9
$DIMASZ
 40
0.5
  9
$DIMEXO
 40
0.5
  9
$DIMDLI
 40
7.0
  9
$DIMRND
 40
0.0
  9
$DIMDLE
 40
0.0
  9
$DIMEXE
 40
1.0
  9
$DIMTP
 40
0.0
  9
$DIMTM
 40
0.0
  9
$DIMTXT
 40
3.0
  9
$DIMCEN
 40
0.0
  9
$DIMTSZ
 40
0.0
  9
$DIMTOL
 70
     0
  9
$DIMLIM
 70
     0
  9
$DIMTIH
 70
     0
  9
$DIMTOH
 70
     0
  9
$DIMSE1
 70
     0
  9
$DIMSE2
 70
     0
  9
$DIMTAD
 70
     3
  9
$DIMZIN
 70
     8
  9
$DIMBLK
  1

  9
$DIMASO
 70
     1
  9
$DIMSHO
 70
     1
  9
$DIMPOST
  1

  9
$DIMAPOST
  1

  9
$DIMALT
 70
     0
  9
$DIMALTD
 70
     2
  9
$DIMALTF
 40
0.0394
  9
$DIMLFAC
 40
1.0
  9
$DIMTOFL
 70
     1
  9
$DIMTVP
 40
0.0
  9
$DIMTIX
 70
     1
  9
$DIMSOXD
 70
     1
  9
$DIMSAH
 70
     1
  9
$DIMBLK1
  1
DOT
  9
$DIMBLK2
  1
DOT
  9
$DIMSTYLE
  2
INABA_S40
  9
$DIMCLRD
 70
     0
  9
$DIMCLRE
 70
     0
  9
$DIMCLRT
 70
     7
  9
$DIMTFAC
 40
1.0
  9
$DIMGAP
 40
0.8
  9
$DIMJUST
 70
     0
  9
$DIMSD1
 70
     0
  9
$DIMSD2
 70
     0
  9
$DIMTOLJ
 70
     1
  9
$DIMTZIN
 70
     0
  9
$DIMALTZ
 70
     0
  9
$DIMALTTZ
 70
     0
  9
$DIMUPT
 70
     0
  9
$DIMDEC
 70
     2
  9
$DIMTDEC
 70
     2
  9
$DIMALTU
 70
     2
  9
$DIMALTTD
 70
     2
  9
$DIMTXSTY
  7
STYLE1
  9
$DIMAUNIT
 70
     0
  9
$DIMADEC
 70
     0
  9
$DIMALTRND
 40
0.0
  9
$DIMAZIN
 70
     0
  9
$DIMDSEP
 70
    46
  9
$DIMATFIT
 70
     3
  9
$DIMFRAC
 70
     0
  9
$DIMLDRBLK
  1

  9
$DIMLUNIT
 70
     2
  9
$DIMLWD
 70
    -2
  9
$DIMLWE
 70
    -2
  9
$DIMTMOVE
 70
     0
  9
$LUNITS
 70
     2
  9
$LUPREC
 70
     1
  9
$SKETCHINC
 40
1.0
  9
$FILLETRAD
 40
5.0
  9
$AUNITS
 70
     0
  9
$AUPREC
 70
     0
  9
$MENU
  1
acad
  9
$ELEVATION
 40
0.0
  9
$PELEVATION
 40
0.0
  9
$THICKNESS
 40
0.0
  9
$LIMCHECK
 70
     0
  9
$CHAMFERA
 40
0.0
  9
$CHAMFERB
 40
0.0
  9
$CHAMFERC
 40
0.0
  9
$CHAMFERD
 40
0.0
  9
$SKPOLY
 70
     0
  9
$TDCREATE
 40
2451590.492424190
  9
$TDUCREATE
 40
2451590.117424190
  9
$TDUPDATE
 40
2455575.701481296
  9
$TDUUPDATE
 40
2455575.326481296
  9
$TDINDWG
 40
0.1312259838
  9
$TDUSRTIMER
 40
0.1312259838
  9
$USRTIMER
 70
     1
  9
$ANGBASE
 50
0.0
  9
$ANGDIR
 70
     0
  9
$PDMODE
 70
     3
  9
$PDSIZE
 40
2.0
  9
$PLINEWID
 40
0.0
  9
$SPLFRAME
 70
     0
  9
$SPLINETYPE
 70
     6
  9
$SPLINESEGS
 70
     8
  9
$HANDSEED
  5
15A70
  9
$SURFTAB1
 70
     6
  9
$SURFTAB2
 70
     6
  9
$SURFTYPE
 70
     6
  9
$SURFU
 70
     6
  9
$SURFV
 70
     6
  9
$UCSBASE
  2

  9
$UCSNAME
  2

  9
$UCSORG
 10
0.0
 20
0.0
 30
0.0
  9
$UCSXDIR
 10
1.0
 20
0.0
 30
0.0
  9
$UCSYDIR
 10
0.0
 20
1.0
 30
0.0
  9
$UCSORTHOREF
  2

  9
$UCSORTHOVIEW
 70
     0
  9
$UCSORGTOP
 10
0.0
 20
0.0
 30
0.0
  9
$UCSORGBOTTOM
 10
0.0
 20
0.0
 30
0.0
  9
$UCSORGLEFT
 10
0.0
 20
0.0
 30
0.0
  9
$UCSORGRIGHT
 10
0.0
 20
0.0
 30
0.0
  9
$UCSORGFRONT
 10
0.0
 20
0.0
 30
0.0
  9
$UCSORGBACK
 10
0.0
 20
0.0
 30
0.0
  9
$PUCSBASE
  2

  9
$PUCSNAME
  2

  9
$PUCSORG
 10
0.0
 20
0.0
 30
0.0
  9
$PUCSXDIR
 10
1.0
 20
0.0
 30
0.0
  9
$PUCSYDIR
 10
0.0
 20
1.0
 30
0.0
  9
$PUCSORTHOREF
  2

  9
$PUCSORTHOVIEW
 70
     0
  9
$PUCSORGTOP
 10
0.0
 20
0.0
 30
0.0
  9
$PUCSORGBOTTOM
 10
0.0
 20
0.0
 30
0.0
  9
$PUCSORGLEFT
 10
0.0
 20
0.0
 30
0.0
  9
$PUCSORGRIGHT
 10
0.0
 20
0.0
 30
0.0
  9
$PUCSORGFRONT
 10
0.0
 20
0.0
 30
0.0
  9
$PUCSORGBACK
 10
0.0
 20
0.0
 30
0.0
  9
$USERI1
 70
     0
  9
$USERI2
 70
     0
  9
$USERI3
 70
     0
  9
$USERI4
 70
     0
  9
$USERI5
 70
     0
  9
$USERR1
 40
0.0
  9
$USERR2
 40
0.0
  9
$USERR3
 40
0.0
  9
$USERR4
 40
0.0
  9
$USERR5
 40
0.0
  9
$WORLDVIEW
 70
     1
  9
$SHADEDGE
 70
     3
  9
$SHADEDIF
 70
    70
  9
$TILEMODE
 70
     1
  9
$MAXACTVP
 70
    16
  9
$PINSBASE
 10
0.0
 20
0.0
 30
0.0
  9
$PLIMCHECK
 70
     0
  9
$PEXTMIN
 10
1.000000000000000E+20
 20
1.000000000000000E+20
 30
1.000000000000000E+20
  9
$PEXTMAX
 10
-1.000000000000000E+20
 20
-1.000000000000000E+20
 30
-1.000000000000000E+20
  9
$PLIMMIN
 10
0.0
 20
0.0
  9
$PLIMMAX
 10
420.0
 20
297.0
  9
$UNITMODE
 70
     0
  9
$VISRETAIN
 70
     0
  9
$PLINEGEN
 70
     0
  9
$PSLTSCALE
 70
     0
  9
$TREEDEPTH
 70
  3020
  9
$CMLSTYLE
  2
STANDARD
  9
$CMLJUST
 70
     0
  9
$CMLSCALE
 40
1.0
  9
$PROXYGRAPHICS
 70
     1
  9
$MEASUREMENT
 70
     1
  9
$CELWEIGHT
370
    -1
  9
$ENDCAPS
280
     0
  9
$JOINSTYLE
280
     0
  9
$LWDISPLAY
290
     0
  9
$INSUNITS
 70
     0
  9
$HYPERLINKBASE
  1

  9
$STYLESHEET
  1

  9
$XEDIT
290
     1
  9
$CEPSNTYPE
380
     0
  9
$PSTYLEMODE
290
     1
  9
$FINGERPRINTGUID
  2
{F005CBC3-B71F-49D3-86A7-35B166C9EC44}
  9
$VERSIONGUID
  2
{8938E137-9E67-4BF9-9FCD-4F3313E1375D}
  9
$EXTNAMES
290
     1
  9
$PSVPSCALE
 40
0.0
  9
$OLESTARTUP
290
     0
  0
ENDSEC
  0
SECTION
  2
CLASSES
  0
CLASS
  1
ACDBDICTIONARYWDFLT
  2
AcDbDictionaryWithDefault
  3
ObjectDBX Classes
 90
        0
280
     0
281
     0
  0
CLASS
  1
DICTIONARYVAR
  2
AcDbDictionaryVar
  3
ObjectDBX Classes
 90
        0
280
     0
281
     0
  0
CLASS
  1
ACDBPLACEHOLDER
  2
AcDbPlaceHolder
  3
ObjectDBX Classes
 90
        0
280
     0
281
     0
  0
CLASS
  1
LAYOUT
  2
AcDbLayout
  3
ObjectDBX Classes
 90
        0
280
     0
281
     0
  0
ENDSEC
  0
SECTION
  2
TABLES
  0
TABLE
  2
VPORT
  5
746D
330
0
100
AcDbSymbolTable
 70
     2
  0
VPORT
  5
15A68
330
746D
100
AcDbSymbolTableRecord
100
AcDbViewportTableRecord
  2
*Active
 70
     0
 10
0.0
 20
0.0
 11
1.0
 21
1.0
 12
8223.761025238502
 22
6348.683291179126
 13
0.0
 23
0.0
 14
10.0
 24
10.0
 15
10.0
 25
10.0
 16
0.0
 26
0.0
 36
1.0
 17
0.0
 27
0.0
 37
0.0
 40
12805.56644836532
 41
1.525925925925925
 42
50.0
 43
0.0
 44
0.0
 50
0.0
 51
0.0
 71
     0
 72
     0
 73
     1
 74
     0
 75
     0
 76
     0
 77
     0
 78
     0
281
     0
 65
     1
110
0.0
120
0.0
130
0.0
111
1.0
121
0.0
131
0.0
112
0.0
122
1.0
132
0.0
 79
     0
146
0.0
  0
ENDTAB
  0
TABLE
  2
LTYPE
  5
746A
330
0
100
AcDbSymbolTable
 70
     4
  0
LTYPE
  5
7477
330
746A
100
AcDbSymbolTableRecord
100
AcDbLinetypeTableRecord
  2
BYBLOCK
 70
     0
  3

 72
    65
 73
     0
 40
0.0
  0
LTYPE
  5
7478
330
746A
100
AcDbSymbolTableRecord
100
AcDbLinetypeTableRecord
  2
BYLAYER
 70
     0
  3

 72
    65
 73
     0
 40
0.0
  0
LTYPE
  5
7479
330
746A
100
AcDbSymbolTableRecord
100
AcDbLinetypeTableRecord
  2
CONTINUOUS
 70
     0
  3
Solid line
 72
    65
 73
     0
 40
0.0
  0
LTYPE
  5
7816
330
746A
100
AcDbSymbolTableRecord
100
AcDbLinetypeTableRecord
  2
CENTER
 70
     0
  3
____ _ ____ _ ____ _ ____ _ ____ _ ____ _ ____ 
 72
    65
 73
     4
 40
2.0
 49
1.25
 74
     0
 49
-0.25
 74
     0
 49
0.25
 74
     0
 49
-0.25
 74
     0
  0
LTYPE
  5
781A
330
746A
100
AcDbSymbolTableRecord
100
AcDbLinetypeTableRecord
  2
HIDDEN
 70
     0
  3
__ __ __ __ __ __ __ __ __ __ __ __ __ __ __ __
 72
    65
 73
     2
 40
0.375
 49
0.25
 74
     0
 49
-0.125
 74
     0
  0
LTYPE
  5
781B
330
746A
100
AcDbSymbolTableRecord
100
AcDbLinetypeTableRecord
  2
PHANTOM
 70
     0
  3
______  __  __  ______  __  __  ______  __  __ 
 72
    65
 73
     6
 40
2.5
 49
1.25
 74
     0
 49
-0.25
 74
     0
 49
0.25
 74
     0
 49
-0.25
 74
     0
 49
0.25
 74
     0
 49
-0.25
 74
     0
  0
ENDTAB
  0
TABLE
  2
LAYER
  5
7467
102
{ACAD_XDICTIONARY
360
13558
102
}
330
0
100
AcDbSymbolTable
 70
    13
  0
LAYER
  5
7474
330
7467
100
AcDbSymbolTableRecord
100
AcDbLayerTableRecord
  2
0
 70
     0
 62
     7
  6
CONTINUOUS
370
    -3
390
133D9
  0
LAYER
  5
DEB2
330
7467
100
AcDbSymbolTableRecord
100
AcDbLayerTableRecord
  2
センター
 70
     0
 62
     3
  6
CENTER
370
    -3
390
133D9
  0
LAYER
  5
DEB3
330
7467
100
AcDbSymbolTableRecord
100
AcDbLayerTableRecord
  2
寸法
 70
     0
 62
     4
  6
CONTINUOUS
370
    -3
390
133D9
  0
LAYER
  5
DEB4
330
7467
100
AcDbSymbolTableRecord
100
AcDbLayerTableRecord
  2
部品1
 70
     0
 62
     7
  6
CONTINUOUS
370
    -3
390
133D9
  0
LAYER
  5
DEB5
330
7467
100
AcDbSymbolTableRecord
100
AcDbLayerTableRecord
  2
補助
 70
     0
 62
    -1
  6
CONTINUOUS
370
    -3
390
133D9
  0
LAYER
  5
DEB6
330
7467
100
AcDbSymbolTableRecord
100
AcDbLayerTableRecord
  2
文字
 70
     0
 62
     7
  6
CONTINUOUS
370
    -3
390
133D9
  0
LAYER
  5
F255
330
7467
100
AcDbSymbolTableRecord
100
AcDbLayerTableRecord
  2
DEFPOINTS
 70
     0
 62
     7
  6
CONTINUOUS
290
     0
370
    -3
390
133D9
  0
LAYER
  5
10B54
330
7467
100
AcDbSymbolTableRecord
100
AcDbLayerTableRecord
  2
仕様書枠
 70
     0
 62
   230
  6
CONTINUOUS
370
    -3
390
133D9
  0
LAYER
  5
11729
330
7467
100
AcDbSymbolTableRecord
100
AcDbLayerTableRecord
  2
Ｇ．Ｌ
 70
     0
 62
    30
  6
CONTINUOUS
370
    -3
390
133D9
  0
LAYER
  5
1173F
330
7467
100
AcDbSymbolTableRecord
100
AcDbLayerTableRecord
  2
細線
 70
     0
 62
     5
  6
CONTINUOUS
370
    -3
390
133D9
  0
LAYER
  5
11740
330
7467
100
AcDbSymbolTableRecord
100
AcDbLayerTableRecord
  2
点線
 70
     0
 62
     2
  6
HIDDEN
370
    -3
390
133D9
  0
LAYER
  5
11905
330
7467
100
AcDbSymbolTableRecord
100
AcDbLayerTableRecord
  2
破線
 70
     0
 62
     2
  6
HIDDEN
370
    -3
390
133D9
  0
LAYER
  5
13557
330
7467
100
AcDbSymbolTableRecord
100
AcDbLayerTableRecord
  2
Ｇ_Ｌ
 70
     0
 62
    30
  6
CONTINUOUS
370
    -3
390
133D9
  0
ENDTAB
  0
TABLE
  2
STYLE
  5
7468
330
0
100
AcDbSymbolTable
 70
     7
  0
STYLE
  5
7475
330
7468
100
AcDbSymbolTableRecord
100
AcDbTextStyleTableRecord
  2
STANDARD
 70
     0
 40
0.0
 41
1.0
 50
0.0
 71
     0
 42
4.0
  3
txt
  4
C:\AutoCAD LT\bigfont.shx
  0
STYLE
  5
763C
330
7468
100
AcDbSymbolTableRecord
100
AcDbTextStyleTableRecord
  2
MSMINCHO
 70
     0
 40
0.0
 41
1.0
 50
0.0
 71
     0
 42
1.199999999999999
  3
C:\AutoCAD LT\msminch2.TTF
  4

  0
STYLE
  5
F5E9
330
7468
100
AcDbSymbolTableRecord
100
AcDbTextStyleTableRecord
  2

 70
     1
 40
0.0
 41
1.0
 50
0.0
 71
     0
 42
4.0
  3
ltypeshp.shx
  4

  0
STYLE
  5
F706
330
7468
100
AcDbSymbolTableRecord
100
AcDbTextStyleTableRecord
  2
STYLE1
 70
     0
 40
0.0
 41
1.0
 50
0.0
 71
     0
 42
4.0
  3
isocp.shx
  4
bigfont.shx
  0
STYLE
  5
103BF
330
7468
100
AcDbSymbolTableRecord
100
AcDbTextStyleTableRecord
  2
STYLE2
 70
     0
 40
0.0
 41
1.0
 50
0.0
 71
     0
 42
100.0
  3
MS PGothic.ttf
  4

1001
ACAD
1000
MS PGothic
1071
    32818
  0
STYLE
  5
10BAA
330
7468
100
AcDbSymbolTableRecord
100
AcDbTextStyleTableRecord
  2
STYLE3
 70
     0
 40
0.0
 41
1.0
 50
0.0
 71
     0
 42
100.0
  3

  4

1001
ACAD
1000
DFPGothic-EB
1071
    32818
  0
STYLE
  5
11906
330
7468
100
AcDbSymbolTableRecord
100
AcDbTextStyleTableRecord
  2
MSGOTHIC
 70
     0
 40
0.0
 41
1.0
 50
0.0
 71
     0
 42
3.5
  3
msgothi2.ttf
  4

  0
ENDTAB
  0
TABLE
  2
VIEW
  5
746B
330
0
100
AcDbSymbolTable
 70
     0
  0
ENDTAB
  0
TABLE
  2
UCS
  5
746C
330
0
100
AcDbSymbolTable
 70
     0
  0
ENDTAB
  0
TABLE
  2
APPID
  5
746E
330
0
100
AcDbSymbolTable
 70
     6
  0
APPID
  5
7476
330
746E
100
AcDbSymbolTableRecord
100
AcDbRegAppTableRecord
  2
ACAD
 70
     0
  0
APPID
  5
DEA9
330
746E
100
AcDbSymbolTableRecord
100
AcDbRegAppTableRecord
  2
CONTENTBLOCKICON
 70
     0
  0
APPID
  5
DEAA
330
746E
100
AcDbSymbolTableRecord
100
AcDbRegAppTableRecord
  2
CONTENTBLOCKDESCRIPTION
 70
     0
  0
APPID
  5
E71D
330
746E
100
AcDbSymbolTableRecord
100
AcDbRegAppTableRecord
  2
CONTENTTABDATA
 70
     0
  0
APPID
  5
E71E
330
746E
100
AcDbSymbolTableRecord
100
AcDbRegAppTableRecord
  2
CONTENTCURRENTTAB
 70
     0
  0
APPID
  5
F3BA
330
746E
100
AcDbSymbolTableRecord
100
AcDbRegAppTableRecord
  2
DRAWINGVARIABLESXDATA
 70
     0
  0
ENDTAB
  0
TABLE
  2
DIMSTYLE
  5
746F
330
0
100
AcDbSymbolTable
 70
     6
100
AcDbDimStyleTable
 71
     0
  0
DIMSTYLE
105
7484
330
746F
100
AcDbSymbolTableRecord
100
AcDbDimStyleTableRecord
  2
JIS
 70
     0
 41
2.5
 42
1.0
 43
7.0
 44
1.0
 73
     0
 74
     0
 77
     1
 78
     8
140
2.5
141
0.0
143
0.0394
147
0.0
172
     1
174
     1
175
     1
340
7475
  0
DIMSTYLE
105
F236
102
{ACAD_REACTORS
330
138DB
330
138DC
330
138DD
330
138DE
330
138DF
330
13900
330
13901
330
13915
330
13948
330
13953
330
142DA
330
153B5
330
15681
330
15682
330
15685
102
}
330
746F
100
AcDbSymbolTableRecord
100
AcDbDimStyleTableRecord
  2
INABA_S40
 70
     0
 40
40.0
 41
2.5
 42
0.5
 43
7.0
 44
1.5
 73
     0
 74
     0
 77
     3
 78
     8
140
3.0
141
0.0
143
0.0394
147
1.0
172
     1
173
     1
174
     1
175
     1
178
     7
289
     0
340
7475
  0
DIMSTYLE
105
F71F
102
{ACAD_REACTORS
330
13A29
330
13A2A
330
13A2B
330
13A3A
330
1428A
330
14293
330
142A1
330
142A2
330
142A3
330
142A7
330
142D7
330
142D8
330
142D9
330
15686
102
}
330
746F
100
AcDbSymbolTableRecord
100
AcDbDimStyleTableRecord
  2
INABA_S40G
 70
     0
 40
40.0
 41
2.5
 42
0.5
 43
7.0
 44
1.5
 73
     0
 74
     0
 77
     3
 78
     8
140
3.0
141
0.0
143
0.0394
147
1.0
172
     1
173
     1
174
     1
175
     1
178
     7
271
     1
340
F706
341
F770
343
F770
344
F770
  0
DIMSTYLE
105
11907
330
746F
100
AcDbSymbolTableRecord
100
AcDbDimStyleTableRecord
  2
INABA_S50
 70
     0
 40
50.0
 41
0.5
 42
0.5
 43
7.0
 44
1.0
 73
     0
 74
     0
 77
     3
 78
     8
140
2.5
141
0.0
143
0.0394
147
0.8
172
     1
173
     1
174
     1
175
     1
178
     7
271
     2
272
     2
289
     0
340
7475
341
F744
343
F744
344
F744
  0
DIMSTYLE
105
11908
330
746F
100
AcDbSymbolTableRecord
100
AcDbDimStyleTableRecord
  2
INABA_S50G
 70
     0
 41
125.0
 42
25.0
 43
7.0
 44
75.0
 73
     0
 74
     0
 77
     3
 78
     8
140
150.0
141
0.0
143
0.0394
147
25.0
172
     1
173
     1
174
     1
175
     1
178
     7
271
     1
340
F706
341
F770
343
F770
344
F770
  0
DIMSTYLE
105
159FF
330
746F
100
AcDbSymbolTableRecord
100
AcDbDimStyleTableRecord
  2
INABA_S20G
 70
     0
 40
20.0
 41
2.5
 42
0.5
 43
7.0
 44
1.5
 73
     0
 74
     0
 77
     3
 78
     8
140
3.0
141
0.0
143
0.0394
147
1.0
172
     1
173
     1
174
     1
178
     7
271
     1
340
F706
341
F770
343
F770
344
F770
  0
ENDTAB
  0
TABLE
  2
BLOCK_RECORD
  5
7466
330
0
100
AcDbSymbolTable
 70
    32
  0
BLOCK_RECORD
  5
747D
330
7466
100
AcDbSymbolTableRecord
100
AcDbBlockTableRecord
  2
*MODEL_SPACE
340
133DE
  0
BLOCK_RECORD
  5
747A
330
7466
100
AcDbSymbolTableRecord
100
AcDbBlockTableRecord
  2
*PAPER_SPACE
340
133DF
  0
BLOCK_RECORD
  5
ECB3
330
7466
100
AcDbSymbolTableRecord
100
AcDbBlockTableRecord
  2
作図枠S50
340
0
310
2800000020000000200000000100040000000000000200000000000000000000000000000000000000000000000080000080000000808000800000008000800080800000C0C0C000808080000000FF0000FF000000FFFF00FF000000FF00FF00FFFF0000FFFFFF00FFFFFFFFFFFFFFFFFFFFFFFFFFFFFFFFFFFFFFFFFFFFFF
310
FFFFFFFFFFFFFFFFFFFFFFFFFFFFFFFFFFFFFFFFFFFFFFFFFFFFFFFFFFFFFFFFFFFFFFFFFFFFFFFFFFFFFFFFFFFFFFFFFFFFFFFFFFFFFFFFFFFFFFFFFFFFFFFFFFFFFFFFFFFFFFFFFF999999999999999999999999999999999FFFFFFFFFFFFFFFFFFFFFFFFFFFFFF99FFFFFFFFFFFFFFFFFFFFFFFFFFFFFF99FFFFFFFFFFF
310
FFFFFFFFFFFFFFFFFFF99FFFFFFFFFFFFFFFFFFFFFFFFFFFFFF99FFFFFFFFFFFFFFFFFFFFFFFFFFFFFF99FFFFFFFFFFFFFFFFFFFFFFFFFFFFFF99FFFFFFFFFFFFFFFFFFFFFFFFFFFFFF99FFFFFFFFFFFFFFFFFFFFFFFFFFFFFF99FFFFFFFFFFFFFFFFFFFFFFFFFFFFFF99FFFFFFFFFFFFFFFFFFFFFFFFFFFFFF99FFFFFFFFF
310
FFFFFFFFFFFFFFFFFFFFF99FFFFFFFFFFFFFFFFFFFFFFFFFFFFFF99FFFFFFFFFFFFFFFFFFFFFFFFFFFFFF99FFFFFFFFFFFFFFFFFFFFFFFFFFFFFF99FFFFFFFFFFFFFFFFFFFFFFFFFFFFFF99FFFFFFFFFFFFFFFFFFFFFFFFFFFFFF99FFFFFFFFFFFFFFFFFFFFFFFFFFFFFF99FFFFFFFFFFFFFFFFFFFFF99999999999FFFFFFF
310
FFFFFFFFFFFFFF9FFFFFFFFF99999999999999999999999FFFFFFFFFFFFFFFFFFFFFFFFFFFFFFFFFFFFFFFFFFFFFFFFFFFFFFFFFFFFFFFFFFFFFFFFFFFFFFFFFFFFFFFFFFFFFFFFFFFFFFFFFFFFFFFFFFFFFFFFFFFFFFFFFFFFFFFFFFFFFFFFFFFFFFFFFFFFFFFFFFFFFFFFF
102
{BLKREFS
331
F235
102
}
  0
BLOCK_RECORD
  5
F744
330
7466
100
AcDbSymbolTableRecord
100
AcDbBlockTableRecord
  2
_DOT
340
0
102
{BLKREFS
331
15127
331
15128
331
1593B
331
1593C
331
15944
331
15945
331
1594D
331
1594E
331
15956
331
15957
331
1595F
331
15960
331
15968
331
15969
331
15973
331
15974
331
1597C
331
1597D
331
15985
331
15986
331
15990
331
15991
331
15999
331
1599A
331
159A4
331
159A5
331
159AD
331
159AE
331
159B8
331
159B9
102
}
  0
BLOCK_RECORD
  5
F770
330
7466
100
AcDbSymbolTableRecord
100
AcDbBlockTableRecord
  2
_DOTSMALL
340
0
102
{BLKREFS
331
15130
331
15131
331
15139
331
1513A
331
15142
331
15143
331
1514D
331
1514E
331
15156
331
15157
331
15161
331
15162
331
1516A
331
1516B
331
15174
331
15175
331
1517E
331
1517F
331
15189
331
1518A
331
15194
331
15195
331
1519D
331
1519E
331
151A6
331
151A7
331
15930
331
15931
102
}
  0
BLOCK_RECORD
  5
13B8E
330
7466
100
AcDbSymbolTableRecord
100
AcDbBlockTableRecord
  2
*D3
340
0
  0
BLOCK_RECORD
  5
13B9A
330
7466
100
AcDbSymbolTableRecord
100
AcDbBlockTableRecord
  2
*D4
340
0
  0
BLOCK_RECORD
  5
13BA6
330
7466
100
AcDbSymbolTableRecord
100
AcDbBlockTableRecord
  2
*D5
340
0
  0
BLOCK_RECORD
  5
13BB4
330
7466
100
AcDbSymbolTableRecord
100
AcDbBlockTableRecord
  2
*D6
340
0
  0
BLOCK_RECORD
  5
13C40
330
7466
100
AcDbSymbolTableRecord
100
AcDbBlockTableRecord
  2
*D7
340
0
  0
BLOCK_RECORD
  5
13C4E
330
7466
100
AcDbSymbolTableRecord
100
AcDbBlockTableRecord
  2
*D8
340
0
  0
BLOCK_RECORD
  5
13C5A
330
7466
100
AcDbSymbolTableRecord
100
AcDbBlockTableRecord
  2
*D9
340
0
  0
BLOCK_RECORD
  5
13C68
330
7466
100
AcDbSymbolTableRecord
100
AcDbBlockTableRecord
  2
*D10
340
0
  0
BLOCK_RECORD
  5
13C74
330
7466
100
AcDbSymbolTableRecord
100
AcDbBlockTableRecord
  2
*D11
340
0
  0
BLOCK_RECORD
  5
13C82
330
7466
100
AcDbSymbolTableRecord
100
AcDbBlockTableRecord
  2
*D12
340
0
  0
BLOCK_RECORD
  5
13C8E
330
7466
100
AcDbSymbolTableRecord
100
AcDbBlockTableRecord
  2
*D13
340
0
  0
BLOCK_RECORD
  5
13CA6
330
7466
100
AcDbSymbolTableRecord
100
AcDbBlockTableRecord
  2
*D14
340
0
  0
BLOCK_RECORD
  5
13CC0
330
7466
100
AcDbSymbolTableRecord
100
AcDbBlockTableRecord
  2
*D15
340
0
  0
BLOCK_RECORD
  5
13CCC
330
7466
100
AcDbSymbolTableRecord
100
AcDbBlockTableRecord
  2
*D16
340
0
  0
BLOCK_RECORD
  5
14312
330
7466
100
AcDbSymbolTableRecord
100
AcDbBlockTableRecord
  2
*D17
340
0
  0
BLOCK_RECORD
  5
1431F
330
7466
100
AcDbSymbolTableRecord
100
AcDbBlockTableRecord
  2
*D18
340
0
  0
BLOCK_RECORD
  5
1432C
330
7466
100
AcDbSymbolTableRecord
100
AcDbBlockTableRecord
  2
*D19
340
0
  0
BLOCK_RECORD
  5
14338
330
7466
100
AcDbSymbolTableRecord
100
AcDbBlockTableRecord
  2
*D20
340
0
  0
BLOCK_RECORD
  5
14346
330
7466
100
AcDbSymbolTableRecord
100
AcDbBlockTableRecord
  2
*D21
340
0
  0
BLOCK_RECORD
  5
14352
330
7466
100
AcDbSymbolTableRecord
100
AcDbBlockTableRecord
  2
*D22
340
0
  0
BLOCK_RECORD
  5
14360
330
7466
100
AcDbSymbolTableRecord
100
AcDbBlockTableRecord
  2
*D23
340
0
  0
BLOCK_RECORD
  5
1436C
330
7466
100
AcDbSymbolTableRecord
100
AcDbBlockTableRecord
  2
*D24
340
0
  0
BLOCK_RECORD
  5
14378
330
7466
100
AcDbSymbolTableRecord
100
AcDbBlockTableRecord
  2
*D25
340
0
  0
BLOCK_RECORD
  5
14384
330
7466
100
AcDbSymbolTableRecord
100
AcDbBlockTableRecord
  2
*D26
340
0
  0
BLOCK_RECORD
  5
15420
330
7466
100
AcDbSymbolTableRecord
100
AcDbBlockTableRecord
  2
*D27
340
0
  0
BLOCK_RECORD
  5
157B8
330
7466
100
AcDbSymbolTableRecord
100
AcDbBlockTableRecord
  2
*D28
340
0
  0
BLOCK_RECORD
  5
157C4
330
7466
100
AcDbSymbolTableRecord
100
AcDbBlockTableRecord
  2
*D29
340
0
  0
BLOCK_RECORD
  5
157D0
330
7466
100
AcDbSymbolTableRecord
100
AcDbBlockTableRecord
  2
*D30
340
0
  0
BLOCK_RECORD
  5
157DE
330
7466
100
AcDbSymbolTableRecord
100
AcDbBlockTableRecord
  2
*D31
340
0
  0
ENDTAB
  0
ENDSEC
  0
SECTION
  2
BLOCKS
  0
BLOCK
  5
7489
330
747D
100
AcDbEntity
  8
0
100
AcDbBlockBegin
  2
*MODEL_SPACE
 70
     0
 10
0.0
 20
0.0
 30
0.0
  3
*MODEL_SPACE
  1

  0
ENDBLK
  5
748A
330
747D
100
AcDbEntity
  8
0
100
AcDbBlockEnd
  0
BLOCK
  5
7487
330
747A
100
AcDbEntity
 67
     1
  8
0
100
AcDbBlockBegin
  2
*PAPER_SPACE
 70
     0
 10
0.0
 20
0.0
 30
0.0
  3
*PAPER_SPACE
  1

  0
ENDBLK
  5
7488
330
747A
100
AcDbEntity
 67
     1
  8
0
100
AcDbBlockEnd
  0
BLOCK
  5
ECB4
330
ECB3
100
AcDbEntity
  8
0
100
AcDbBlockBegin
  2
作図枠S50
 70
     0
 10
0.0
 20
0.0
 30
0.0
  3
作図枠S50
  1

  4
作図領域枠 縮尺 1/50
  0
LINE
  5
ECB5
330
ECB3
100
AcDbEntity
  8
補助
100
AcDbLine
 10
14364.0
 20
14262.0
 30
0.0
 11
174.9999999999993
 21
14262.0
 31
0.0
  0
LINE
  5
ECB6
330
ECB3
100
AcDbEntity
  8
補助
100
AcDbLine
 10
174.9999999999993
 20
14262.0
 30
0.0
 11
174.9999999999993
 21
1520.0
 31
0.0
  0
LINE
  5
ECB7
330
ECB3
100
AcDbEntity
  8
補助
100
AcDbLine
 10
174.9999999999993
 20
1520.0
 30
0.0
 11
20384.0
 21
1520.0
 31
0.0
  0
LINE
  5
ECB8
330
ECB3
100
AcDbEntity
  8
補助
100
AcDbLine
 10
20384.0
 20
1520.0
 30
0.0
 11
20384.0
 21
13042.0
 31
0.0
  0
LINE
  5
ECB9
330
ECB3
100
AcDbEntity
  8
補助
100
AcDbLine
 10
20384.0
 20
13042.0
 30
0.0
 11
14364.0
 21
13042.0
 31
0.0
  0
LINE
  5
ECBA
330
ECB3
100
AcDbEntity
  8
補助
100
AcDbLine
 10
14364.0
 20
13042.0
 30
0.0
 11
14364.0
 21
14262.0
 31
0.0
  0
ENDBLK
  5
ECBB
330
ECB3
100
AcDbEntity
  8
0
100
AcDbBlockEnd
  0
BLOCK
  5
F745
330
F744
100
AcDbEntity
  8
0
 48
50.0
100
AcDbBlockBegin
  2
_DOT
 70
     0
 10
0.0
 20
0.0
 30
0.0
  3
_DOT
  1

  0
LWPOLYLINE
  5
F746
330
F744
100
AcDbEntity
  8
0
  6
ByBlock
 62
     0
 48
50.0
100
AcDbPolyline
 90
        2
 70
     1
 43
0.5
 10
-0.25
 20
0.0
 42
1.0
 10
0.25
 20
0.0
 42
1.0
  0
LINE
  5
F74A
330
F744
100
AcDbEntity
  8
0
  6
ByBlock
 62
     0
 48
50.0
100
AcDbLine
 10
-0.5
 20
0.0
 30
0.0
 11
-1.0
 21
0.0
 31
0.0
  0
ENDBLK
  5
F74B
330
F744
100
AcDbEntity
  8
0
 48
50.0
100
AcDbBlockEnd
  0
BLOCK
  5
F771
330
F770
100
AcDbEntity
  8
0
 48
50.0
100
AcDbBlockBegin
  2
_DOTSMALL
 70
     0
 10
0.0
 20
0.0
 30
0.0
  3
_DOTSMALL
  1

  0
LWPOLYLINE
  5
F772
330
F770
100
AcDbEntity
  8
0
  6
ByBlock
 62
     0
 48
50.0
100
AcDbPolyline
 90
        2
 70
     1
 43
0.5
 10
-0.0625
 20
0.0
 42
1.0
 10
0.0625
 20
0.0
 42
1.0
  0
ENDBLK
  5
F776
330
F770
100
AcDbEntity
  8
0
 48
50.0
100
AcDbBlockEnd
  0
BLOCK
  5
13B98
330
13B8E
100
AcDbEntity
  8
0
 48
50.0
100
AcDbBlockBegin
  2
*D3
 70
     1
 10
0.0
 20
0.0
 30
0.0
  3
*D3
  1

  0
LINE
  5
151A3
330
13B8E
100
AcDbEntity
  8
寸法
 62
     0
 48
50.0
370
    -2
100
AcDbLine
 10
8071.105566466835
 20
4372.209044902247
 30
0.0
 11
8071.105566466835
 21
4624.750630160487
 31
0.0
  0
LINE
  5
151A4
330
13B8E
100
AcDbEntity
  8
寸法
 62
     0
 48
50.0
370
    -2
100
AcDbLine
 10
2811.105566466831
 20
4372.209044902251
 30
0.0
 11
2811.105566466831
 21
4624.750630160487
 31
0.0
  0
LINE
  5
151A5
330
13B8E
100
AcDbEntity
  8
寸法
 62
     0
 48
50.0
370
    -2
100
AcDbLine
 10
8071.105566466835
 20
4564.750630160487
 30
0.0
 11
2811.105566466831
 21
4564.750630160487
 31
0.0
  0
INSERT
  5
151A6
330
13B8E
100
AcDbEntity
  8
寸法
 62
     0
 48
50.0
370
    -2
100
AcDbBlockReference
  2
_DOTSMALL
 10
8071.105566466835
 20
4564.750630160487
 30
0.0
 41
100.0
 42
100.0
 43
100.0
  0
INSERT
  5
151A7
330
13B8E
100
AcDbEntity
  8
寸法
 62
     0
 48
50.0
370
    -2
100
AcDbBlockReference
  2
_DOTSMALL
 10
2811.105566466831
 20
4564.750630160487
 30
0.0
 41
100.0
 42
100.0
 43
100.0
 50
180.0
  0
MTEXT
  5
151A8
330
13B8E
100
AcDbEntity
  8
寸法
 62
     7
 48
50.0
100
AcDbMText
 10
5441.105566466831
 20
4664.762441184108
 30
0.0
 40
120.0
 41
0.0
 71
     5
 72
     1
  1
\A1;柱外寸法5260
  7
STYLE1
 73
     1
 44
1.0
1001
ACAD
1000
MTEXTBEGIN
1070
    73
1070
     1
1070
    44
1040
1.0
1070
    74
1070
     0
1000
MTEXTEND
  0
POINT
  5
151A9
330
13B8E
100
AcDbEntity
  8
DEFPOINTS
 62
     0
 48
50.0
100
AcDbPoint
 10
8071.105566466835
 20
4352.209044902247
 30
0.0
  0
POINT
  5
151AA
330
13B8E
100
AcDbEntity
  8
DEFPOINTS
 62
     0
 48
50.0
100
AcDbPoint
 10
2811.105566466831
 20
4352.209044902251
 30
0.0
  0
POINT
  5
151AB
330
13B8E
100
AcDbEntity
  8
DEFPOINTS
 62
     0
 48
50.0
100
AcDbPoint
 10
2811.105566466831
 20
4564.750630160487
 30
0.0
  0
ENDBLK
  5
13B99
330
13B8E
100
AcDbEntity
  8
0
 48
50.0
100
AcDbBlockEnd
  0
BLOCK
  5
13BA4
330
13B9A
100
AcDbEntity
  8
0
 48
50.0
100
AcDbBlockBegin
  2
*D4
 70
     1
 10
0.0
 20
0.0
 30
0.0
  3
*D4
  1

  0
LINE
  5
1519A
330
13B9A
100
AcDbEntity
  8
寸法
 62
     0
 48
50.0
370
    -2
100
AcDbLine
 10
2761.105566466831
 20
4372.20904490225
 30
0.0
 11
2761.105566466831
 21
4845.655930634237
 31
0.0
  0
LINE
  5
1519B
330
13B9A
100
AcDbEntity
  8
寸法
 62
     0
 48
50.0
370
    -2
100
AcDbLine
 10
8121.105566466836
 20
4372.209044902245
 30
0.0
 11
8121.105566466836
 21
4845.655930634237
 31
0.0
  0
LINE
  5
1519C
330
13B9A
100
AcDbEntity
  8
寸法
 62
     0
 48
50.0
370
    -2
100
AcDbLine
 10
2761.105566466831
 20
4785.655930634237
 30
0.0
 11
8121.105566466836
 21
4785.655930634237
 31
0.0
  0
INSERT
  5
1519D
330
13B9A
100
AcDbEntity
  8
寸法
 62
     0
 48
50.0
370
    -2
100
AcDbBlockReference
  2
_DOTSMALL
 10
2761.105566466831
 20
4785.655930634237
 30
0.0
 41
100.0
 42
100.0
 43
100.0
 50
180.0
  0
INSERT
  5
1519E
330
13B9A
100
AcDbEntity
  8
寸法
 62
     0
 48
50.0
370
    -2
100
AcDbBlockReference
  2
_DOTSMALL
 10
8121.105566466836
 20
4785.655930634237
 30
0.0
 41
100.0
 42
100.0
 43
100.0
  0
MTEXT
  5
1519F
330
13B9A
100
AcDbEntity
  8
寸法
 62
     7
 48
50.0
100
AcDbMText
 10
5441.105566466831
 20
4885.655930634237
 30
0.0
 40
120.0
 41
0.0
 71
     5
 72
     1
  1
\A1;5360
  7
STYLE1
 73
     1
 44
1.0
1001
ACAD
1000
MTEXTBEGIN
1070
    73
1070
     1
1070
    44
1040
1.0
1070
    74
1070
     0
1000
MTEXTEND
  0
POINT
  5
151A0
330
13B9A
100
AcDbEntity
  8
DEFPOINTS
 62
     0
 48
50.0
100
AcDbPoint
 10
2761.105566466831
 20
4352.20904490225
 30
0.0
  0
POINT
  5
151A1
330
13B9A
100
AcDbEntity
  8
DEFPOINTS
 62
     0
 48
50.0
100
AcDbPoint
 10
8121.105566466836
 20
4352.209044902245
 30
0.0
  0
POINT
  5
151A2
330
13B9A
100
AcDbEntity
  8
DEFPOINTS
 62
     0
 48
50.0
100
AcDbPoint
 10
8121.105566466836
 20
4785.655930634237
 30
0.0
  0
ENDBLK
  5
13BA5
330
13B9A
100
AcDbEntity
  8
0
 48
50.0
100
AcDbBlockEnd
  0
BLOCK
  5
13BB2
330
13BA6
100
AcDbEntity
  8
0
 48
50.0
100
AcDbBlockBegin
  2
*D5
 70
     1
 10
0.0
 20
0.0
 30
0.0
  3
*D5
  1

  0
LINE
  5
1518F
330
13BA6
100
AcDbEntity
  8
寸法
 62
     0
 48
50.0
370
    -2
100
AcDbLine
 10
2811.105566466831
 20
4372.209044902251
 30
0.0
 11
2811.105566466831
 21
4624.750630160489
 31
0.0
  0
LINE
  5
15190
330
13BA6
100
AcDbEntity
  8
寸法
 62
     0
 48
50.0
370
    -2
100
AcDbLine
 10
2761.105566466831
 20
4372.20904490225
 30
0.0
 11
2761.105566466831
 21
4624.750630160489
 31
0.0
  0
LINE
  5
15191
330
13BA6
100
AcDbEntity
  8
寸法
 62
     0
 48
50.0
370
    -2
100
AcDbLine
 10
2811.105566466831
 20
4564.750630160489
 30
0.0
 11
2911.105566466831
 21
4564.750630160489
 31
0.0
  0
LINE
  5
15192
330
13BA6
100
AcDbEntity
  8
寸法
 62
     0
 48
50.0
370
    -2
100
AcDbLine
 10
2761.105566466831
 20
4564.750630160489
 30
0.0
 11
2341.573040998095
 21
4564.750630160489
 31
0.0
  0
LINE
  5
15193
330
13BA6
100
AcDbEntity
  8
寸法
 62
     0
 48
50.0
370
    -2
100
AcDbLine
 10
2811.105566466831
 20
4564.750630160489
 30
0.0
 11
2761.105566466831
 21
4564.750630160489
 31
0.0
  0
INSERT
  5
15194
330
13BA6
100
AcDbEntity
  8
寸法
 62
     0
 48
50.0
370
    -2
100
AcDbBlockReference
  2
_DOTSMALL
 10
2811.105566466831
 20
4564.750630160489
 30
0.0
 41
100.0
 42
100.0
 43
100.0
 50
180.0
  0
INSERT
  5
15195
330
13BA6
100
AcDbEntity
  8
寸法
 62
     0
 48
50.0
370
    -2
100
AcDbBlockReference
  2
_DOTSMALL
 10
2761.105566466831
 20
4564.750630160489
 30
0.0
 41
100.0
 42
100.0
 43
100.0
  0
MTEXT
  5
15196
330
13BA6
100
AcDbEntity
  8
寸法
 62
     7
 48
50.0
100
AcDbMText
 10
2447.620285092584
 20
4664.750630160489
 30
0.0
 40
120.0
 41
0.0
 71
     5
 72
     1
  1
\A1;50
  7
STYLE1
 73
     1
 44
1.0
1001
ACAD
1000
MTEXTBEGIN
1070
    73
1070
     1
1070
    44
1040
1.0
1070
    74
1070
     0
1000
MTEXTEND
  0
POINT
  5
15197
330
13BA6
100
AcDbEntity
  8
DEFPOINTS
 62
     0
 48
50.0
100
AcDbPoint
 10
2811.105566466831
 20
4352.209044902251
 30
0.0
  0
POINT
  5
15198
330
13BA6
100
AcDbEntity
  8
DEFPOINTS
 62
     0
 48
50.0
100
AcDbPoint
 10
2761.105566466831
 20
4352.20904490225
 30
0.0
  0
POINT
  5
15199
330
13BA6
100
AcDbEntity
  8
DEFPOINTS
 62
     0
 48
50.0
100
AcDbPoint
 10
2761.105566466831
 20
4564.750630160489
 30
0.0
  0
ENDBLK
  5
13BB3
330
13BA6
100
AcDbEntity
  8
0
 48
50.0
100
AcDbBlockEnd
  0
BLOCK
  5
13BC0
330
13BB4
100
AcDbEntity
  8
0
 48
50.0
100
AcDbBlockBegin
  2
*D6
 70
     1
 10
0.0
 20
0.0
 30
0.0
  3
*D6
  1

  0
LINE
  5
15184
330
13BB4
100
AcDbEntity
  8
寸法
 62
     0
 48
50.0
370
    -2
100
AcDbLine
 10
8121.105566466836
 20
4372.209044902245
 30
0.0
 11
8121.105566466836
 21
4624.750630160487
 31
0.0
  0
LINE
  5
15185
330
13BB4
100
AcDbEntity
  8
寸法
 62
     0
 48
50.0
370
    -2
100
AcDbLine
 10
8071.105566466835
 20
4372.209044902247
 30
0.0
 11
8071.105566466835
 21
4624.750630160487
 31
0.0
  0
LINE
  5
15186
330
13BB4
100
AcDbEntity
  8
寸法
 62
     0
 48
50.0
370
    -2
100
AcDbLine
 10
8071.105566466835
 20
4564.750630160486
 30
0.0
 11
7971.105566466835
 21
4564.750630160486
 31
0.0
  0
LINE
  5
15187
330
13BB4
100
AcDbEntity
  8
寸法
 62
     0
 48
50.0
370
    -2
100
AcDbLine
 10
8121.105566466836
 20
4564.750630160486
 30
0.0
 11
8540.638091935559
 21
4564.750630160486
 31
0.0
  0
LINE
  5
15188
330
13BB4
100
AcDbEntity
  8
寸法
 62
     0
 48
50.0
370
    -2
100
AcDbLine
 10
8071.105566466835
 20
4564.750630160486
 30
0.0
 11
8121.105566466836
 21
4564.750630160486
 31
0.0
  0
INSERT
  5
15189
330
13BB4
100
AcDbEntity
  8
寸法
 62
     0
 48
50.0
370
    -2
100
AcDbBlockReference
  2
_DOTSMALL
 10
8071.105566466835
 20
4564.750630160486
 30
0.0
 41
100.0
 42
100.0
 43
100.0
  0
INSERT
  5
1518A
330
13BB4
100
AcDbEntity
  8
寸法
 62
     0
 48
50.0
370
    -2
100
AcDbBlockReference
  2
_DOTSMALL
 10
8121.105566466836
 20
4564.750630160486
 30
0.0
 41
100.0
 42
100.0
 43
100.0
 50
180.0
  0
MTEXT
  5
1518B
330
13BB4
100
AcDbEntity
  8
寸法
 62
     7
 48
50.0
100
AcDbMText
 10
8434.59084784107
 20
4664.750630160486
 30
0.0
 40
120.0
 41
0.0
 71
     5
 72
     1
  1
\A1;50
  7
STYLE1
 73
     1
 44
1.0
1001
ACAD
1000
MTEXTBEGIN
1070
    73
1070
     1
1070
    44
1040
1.0
1070
    74
1070
     0
1000
MTEXTEND
  0
POINT
  5
1518C
330
13BB4
100
AcDbEntity
  8
DEFPOINTS
 62
     0
 48
50.0
100
AcDbPoint
 10
8121.105566466836
 20
4352.209044902245
 30
0.0
  0
POINT
  5
1518D
330
13BB4
100
AcDbEntity
  8
DEFPOINTS
 62
     0
 48
50.0
100
AcDbPoint
 10
8071.105566466835
 20
4352.209044902247
 30
0.0
  0
POINT
  5
1518E
330
13BB4
100
AcDbEntity
  8
DEFPOINTS
 62
     0
 48
50.0
100
AcDbPoint
 10
8071.105566466835
 20
4564.750630160486
 30
0.0
  0
ENDBLK
  5
13BC1
330
13BB4
100
AcDbEntity
  8
0
 48
50.0
100
AcDbBlockEnd
  0
BLOCK
  5
13C4C
330
13C40
100
AcDbEntity
  8
0
 48
50.0
100
AcDbBlockBegin
  2
*D7
 70
     1
 10
0.0
 20
0.0
 30
0.0
  3
*D7
  1

  0
LINE
  5
159B3
330
13C40
100
AcDbEntity
  8
寸法
 62
     0
 48
50.0
370
    -2
100
AcDbLine
 10
8016.105566466832
 20
10443.54815606238
 30
0.0
 11
8016.105566466832
 21
10838.26056608117
 31
0.0
  0
LINE
  5
159B4
330
13C40
100
AcDbEntity
  8
寸法
 62
     0
 48
50.0
370
    -2
100
AcDbLine
 10
8071.105566466831
 20
10443.54815606238
 30
0.0
 11
8071.105566466831
 21
10838.26056608117
 31
0.0
  0
LINE
  5
159B5
330
13C40
100
AcDbEntity
  8
寸法
 62
     0
 48
50.0
370
    -2
100
AcDbLine
 10
7996.10556646683
 20
10798.26056608117
 30
0.0
 11
7976.105566466832
 21
10798.26056608117
 31
0.0
  0
LINE
  5
159B6
330
13C40
100
AcDbEntity
  8
寸法
 62
     0
 48
50.0
370
    -2
100
AcDbLine
 10
8091.105566466831
 20
10798.26056608117
 30
0.0
 11
8565.757514507737
 21
10798.26056608117
 31
0.0
  0
LINE
  5
159B7
330
13C40
100
AcDbEntity
  8
寸法
 62
     0
 48
50.0
370
    -2
100
AcDbLine
 10
8016.105566466832
 20
10798.26056608117
 30
0.0
 11
8071.105566466831
 21
10798.26056608117
 31
0.0
  0
INSERT
  5
159B8
330
13C40
100
AcDbEntity
  8
寸法
 62
     0
 48
50.0
370
    -2
100
AcDbBlockReference
  2
_DOT
 10
8016.105566466832
 20
10798.26056608117
 30
0.0
 41
20.0
 42
20.0
 43
20.0
  0
INSERT
  5
159B9
330
13C40
100
AcDbEntity
  8
寸法
 62
     0
 48
50.0
370
    -2
100
AcDbBlockReference
  2
_DOT
 10
8071.105566466831
 20
10798.26056608117
 30
0.0
 41
20.0
 42
20.0
 43
20.0
 50
180.0
  0
MTEXT
  5
159BA
330
13C40
100
AcDbEntity
  8
寸法
 62
     7
 48
50.0
100
AcDbMText
 10
8465.272233133498
 20
10890.26056608118
 30
0.0
 40
120.0
 41
0.0
 71
     5
 72
     1
  1
\A1;55
  7
STYLE1
 73
     1
 44
1.0
1001
ACAD
1000
MTEXTBEGIN
1070
    73
1070
     1
1070
    44
1040
1.0
1070
    74
1070
     0
1000
MTEXTEND
  0
POINT
  5
159BB
330
13C40
100
AcDbEntity
  8
DEFPOINTS
 62
     0
 48
50.0
100
AcDbPoint
 10
8016.105566466832
 20
10423.54815606238
 30
0.0
  0
POINT
  5
159BC
330
13C40
100
AcDbEntity
  8
DEFPOINTS
 62
     0
 48
50.0
100
AcDbPoint
 10
8071.105566466831
 20
10423.54815606238
 30
0.0
  0
POINT
  5
159BD
330
13C40
100
AcDbEntity
  8
DEFPOINTS
 62
     0
 48
50.0
100
AcDbPoint
 10
8071.105566466831
 20
10798.26056608117
 30
0.0
  0
ENDBLK
  5
13C4D
330
13C40
100
AcDbEntity
  8
0
 48
50.0
100
AcDbBlockEnd
  0
BLOCK
  5
13C58
330
13C4E
100
AcDbEntity
  8
0
 48
50.0
100
AcDbBlockBegin
  2
*D8
 70
     1
 10
0.0
 20
0.0
 30
0.0
  3
*D8
  1

  0
LINE
  5
159AA
330
13C4E
100
AcDbEntity
  8
寸法
 62
     0
 48
50.0
370
    -2
100
AcDbLine
 10
8091.105566466831
 20
10423.54815606238
 30
0.0
 11
9181.852683511184
 21
10423.54815606238
 31
0.0
  0
LINE
  5
159AB
330
13C4E
100
AcDbEntity
  8
寸法
 62
     0
 48
50.0
370
    -2
100
AcDbLine
 10
8091.105566466831
 20
6953.548156062381
 30
0.0
 11
9181.852683511184
 21
6953.548156062381
 31
0.0
  0
LINE
  5
159AC
330
13C4E
100
AcDbEntity
  8
寸法
 62
     0
 48
50.0
370
    -2
100
AcDbLine
 10
9141.852683511185
 20
10403.54815606238
 30
0.0
 11
9141.852683511185
 21
6973.548156062381
 31
0.0
  0
INSERT
  5
159AD
330
13C4E
100
AcDbEntity
  8
寸法
 62
     0
 48
50.0
370
    -2
100
AcDbBlockReference
  2
_DOT
 10
9141.852683511185
 20
10423.54815606238
 30
0.0
 41
20.0
 42
20.0
 43
20.0
 50
90.0
  0
INSERT
  5
159AE
330
13C4E
100
AcDbEntity
  8
寸法
 62
     0
 48
50.0
370
    -2
100
AcDbBlockReference
  2
_DOT
 10
9141.852683511185
 20
6953.548156062381
 30
0.0
 41
20.0
 42
20.0
 43
20.0
 50
270.0
  0
MTEXT
  5
159AF
330
13C4E
100
AcDbEntity
  8
寸法
 62
     7
 48
50.0
100
AcDbMText
 10
9049.852683511183
 20
8688.548156062383
 30
0.0
 40
120.0
 41
0.0
 71
     5
 72
     1
  1
\A1;3470
  7
STYLE1
 11
0.0000000000000001
 21
1.0
 31
0.0
 73
     1
 44
1.0
1001
ACAD
1000
MTEXTBEGIN
1070
    73
1070
     1
1070
    44
1040
1.0
1070
    74
1070
     0
1000
MTEXTEND
  0
POINT
  5
159B0
330
13C4E
100
AcDbEntity
  8
DEFPOINTS
 62
     0
 48
50.0
100
AcDbPoint
 10
8071.105566466831
 20
10423.54815606238
 30
0.0
  0
POINT
  5
159B1
330
13C4E
100
AcDbEntity
  8
DEFPOINTS
 62
     0
 48
50.0
100
AcDbPoint
 10
8071.105566466831
 20
6953.548156062381
 30
0.0
  0
POINT
  5
159B2
330
13C4E
100
AcDbEntity
  8
DEFPOINTS
 62
     0
 48
50.0
100
AcDbPoint
 10
9141.852683511185
 20
6953.548156062381
 30
0.0
  0
ENDBLK
  5
13C59
330
13C4E
100
AcDbEntity
  8
0
 48
50.0
100
AcDbBlockEnd
  0
BLOCK
  5
13C66
330
13C5A
100
AcDbEntity
  8
0
 48
50.0
100
AcDbBlockBegin
  2
*D9
 70
     1
 10
0.0
 20
0.0
 30
0.0
  3
*D9
  1

  0
LINE
  5
1599F
330
13C5A
100
AcDbEntity
  8
寸法
 62
     0
 48
50.0
370
    -2
100
AcDbLine
 10
8091.105566466831
 20
7008.548156062378
 30
0.0
 11
8881.852683511187
 21
7008.548156062378
 31
0.0
  0
LINE
  5
159A0
330
13C5A
100
AcDbEntity
  8
寸法
 62
     0
 48
50.0
370
    -2
100
AcDbLine
 10
8091.105566466831
 20
6953.548156062381
 30
0.0
 11
8881.852683511187
 21
6953.548156062381
 31
0.0
  0
LINE
  5
159A1
330
13C5A
100
AcDbEntity
  8
寸法
 62
     0
 48
50.0
370
    -2
100
AcDbLine
 10
8841.852683511186
 20
7028.548156062377
 30
0.0
 11
8841.852683511186
 21
7048.548156062378
 31
0.0
  0
LINE
  5
159A2
330
13C5A
100
AcDbEntity
  8
寸法
 62
     0
 48
50.0
370
    -2
100
AcDbLine
 10
8841.852683511186
 20
6933.54815606238
 30
0.0
 11
8841.852683511186
 21
6458.896208021475
 31
0.0
  0
LINE
  5
159A3
330
13C5A
100
AcDbEntity
  8
寸法
 62
     0
 48
50.0
370
    -2
100
AcDbLine
 10
8841.852683511186
 20
7008.548156062378
 30
0.0
 11
8841.852683511186
 21
6953.548156062381
 31
0.0
  0
INSERT
  5
159A4
330
13C5A
100
AcDbEntity
  8
寸法
 62
     0
 48
50.0
370
    -2
100
AcDbBlockReference
  2
_DOT
 10
8841.852683511186
 20
7008.548156062378
 30
0.0
 41
20.0
 42
20.0
 43
20.0
 50
270.0
  0
INSERT
  5
159A5
330
13C5A
100
AcDbEntity
  8
寸法
 62
     0
 48
50.0
370
    -2
100
AcDbBlockReference
  2
_DOT
 10
8841.852683511186
 20
6953.548156062381
 30
0.0
 41
20.0
 42
20.0
 43
20.0
 50
90.0
  0
MTEXT
  5
159A6
330
13C5A
100
AcDbEntity
  8
寸法
 62
     7
 48
50.0
100
AcDbMText
 10
8749.852683511184
 20
6559.381489395716
 30
0.0
 40
120.0
 41
0.0
 71
     5
 72
     1
  1
\A1;55
  7
STYLE1
 11
0.0000000000000001
 21
1.0
 31
0.0
 73
     1
 44
1.0
1001
ACAD
1000
MTEXTBEGIN
1070
    73
1070
     1
1070
    44
1040
1.0
1070
    74
1070
     0
1000
MTEXTEND
  0
POINT
  5
159A7
330
13C5A
100
AcDbEntity
  8
DEFPOINTS
 62
     0
 48
50.0
100
AcDbPoint
 10
8071.105566466831
 20
7008.548156062378
 30
0.0
  0
POINT
  5
159A8
330
13C5A
100
AcDbEntity
  8
DEFPOINTS
 62
     0
 48
50.0
100
AcDbPoint
 10
8071.105566466831
 20
6953.548156062381
 30
0.0
  0
POINT
  5
159A9
330
13C5A
100
AcDbEntity
  8
DEFPOINTS
 62
     0
 48
50.0
100
AcDbPoint
 10
8841.852683511186
 20
6953.548156062381
 30
0.0
  0
ENDBLK
  5
13C67
330
13C5A
100
AcDbEntity
  8
0
 48
50.0
100
AcDbBlockEnd
  0
BLOCK
  5
13C72
330
13C68
100
AcDbEntity
  8
0
 48
50.0
100
AcDbBlockBegin
  2
*D10
 70
     1
 10
0.0
 20
0.0
 30
0.0
  3
*D10
  1

  0
LINE
  5
15996
330
13C68
100
AcDbEntity
  8
寸法
 62
     0
 48
50.0
370
    -2
100
AcDbLine
 10
8091.105566466831
 20
10368.54815606238
 30
0.0
 11
8881.852683511183
 21
10368.54815606238
 31
0.0
  0
LINE
  5
15997
330
13C68
100
AcDbEntity
  8
寸法
 62
     0
 48
50.0
370
    -2
100
AcDbLine
 10
8091.105566466831
 20
7008.548156062378
 30
0.0
 11
8881.852683511183
 21
7008.548156062378
 31
0.0
  0
LINE
  5
15998
330
13C68
100
AcDbEntity
  8
寸法
 62
     0
 48
50.0
370
    -2
100
AcDbLine
 10
8841.852683511184
 20
10348.54815606238
 30
0.0
 11
8841.852683511184
 21
7028.548156062377
 31
0.0
  0
INSERT
  5
15999
330
13C68
100
AcDbEntity
  8
寸法
 62
     0
 48
50.0
370
    -2
100
AcDbBlockReference
  2
_DOT
 10
8841.852683511184
 20
10368.54815606238
 30
0.0
 41
20.0
 42
20.0
 43
20.0
 50
90.0
  0
INSERT
  5
1599A
330
13C68
100
AcDbEntity
  8
寸法
 62
     0
 48
50.0
370
    -2
100
AcDbBlockReference
  2
_DOT
 10
8841.852683511184
 20
7008.548156062378
 30
0.0
 41
20.0
 42
20.0
 43
20.0
 50
270.0
  0
MTEXT
  5
1599B
330
13C68
100
AcDbEntity
  8
寸法
 62
     7
 48
50.0
100
AcDbMText
 10
8749.84087248756
 20
8688.548156062383
 30
0.0
 40
120.0
 41
0.0
 71
     5
 72
     1
  1
\A1;8X420=3360
  7
STYLE1
 11
0.0000000000000001
 21
1.0
 31
0.0
 73
     1
 44
1.0
1001
ACAD
1000
MTEXTBEGIN
1070
    73
1070
     1
1070
    44
1040
1.0
1070
    74
1070
     0
1000
MTEXTEND
  0
POINT
  5
1599C
330
13C68
100
AcDbEntity
  8
DEFPOINTS
 62
     0
 48
50.0
100
AcDbPoint
 10
8071.105566466831
 20
10368.54815606238
 30
0.0
  0
POINT
  5
1599D
330
13C68
100
AcDbEntity
  8
DEFPOINTS
 62
     0
 48
50.0
100
AcDbPoint
 10
8071.105566466831
 20
7008.548156062378
 30
0.0
  0
POINT
  5
1599E
330
13C68
100
AcDbEntity
  8
DEFPOINTS
 62
     0
 48
50.0
100
AcDbPoint
 10
8841.852683511184
 20
7008.548156062378
 30
0.0
  0
ENDBLK
  5
13C73
330
13C68
100
AcDbEntity
  8
0
 48
50.0
100
AcDbBlockEnd
  0
BLOCK
  5
13C80
330
13C74
100
AcDbEntity
  8
0
 48
50.0
100
AcDbBlockBegin
  2
*D11
 70
     1
 10
0.0
 20
0.0
 30
0.0
  3
*D11
  1

  0
LINE
  5
1598B
330
13C74
100
AcDbEntity
  8
寸法
 62
     0
 48
50.0
370
    -2
100
AcDbLine
 10
8091.105566466831
 20
10423.54815606238
 30
0.0
 11
8881.852683511187
 21
10423.54815606238
 31
0.0
  0
LINE
  5
1598C
330
13C74
100
AcDbEntity
  8
寸法
 62
     0
 48
50.0
370
    -2
100
AcDbLine
 10
8091.105566466831
 20
10368.54815606238
 30
0.0
 11
8881.852683511187
 21
10368.54815606238
 31
0.0
  0
LINE
  5
1598D
330
13C74
100
AcDbEntity
  8
寸法
 62
     0
 48
50.0
370
    -2
100
AcDbLine
 10
8841.852683511186
 20
10348.54815606238
 30
0.0
 11
8841.852683511186
 21
10328.54815606238
 31
0.0
  0
LINE
  5
1598E
330
13C74
100
AcDbEntity
  8
寸法
 62
     0
 48
50.0
370
    -2
100
AcDbLine
 10
8841.852683511186
 20
10443.54815606238
 30
0.0
 11
8841.852683511186
 21
10918.20010410328
 31
0.0
  0
LINE
  5
1598F
330
13C74
100
AcDbEntity
  8
寸法
 62
     0
 48
50.0
370
    -2
100
AcDbLine
 10
8841.852683511186
 20
10368.54815606238
 30
0.0
 11
8841.852683511186
 21
10423.54815606238
 31
0.0
  0
INSERT
  5
15990
330
13C74
100
AcDbEntity
  8
寸法
 62
     0
 48
50.0
370
    -2
100
AcDbBlockReference
  2
_DOT
 10
8841.852683511186
 20
10368.54815606238
 30
0.0
 41
20.0
 42
20.0
 43
20.0
 50
90.0
  0
INSERT
  5
15991
330
13C74
100
AcDbEntity
  8
寸法
 62
     0
 48
50.0
370
    -2
100
AcDbBlockReference
  2
_DOT
 10
8841.852683511186
 20
10423.54815606238
 30
0.0
 41
20.0
 42
20.0
 43
20.0
 50
270.0
  0
MTEXT
  5
15992
330
13C74
100
AcDbEntity
  8
寸法
 62
     7
 48
50.0
100
AcDbMText
 10
8749.852683511184
 20
10817.71482272905
 30
0.0
 40
120.0
 41
0.0
 71
     5
 72
     1
  1
\A1;55
  7
STYLE1
 11
0.0000000000000001
 21
1.0
 31
0.0
 73
     1
 44
1.0
1001
ACAD
1000
MTEXTBEGIN
1070
    73
1070
     1
1070
    44
1040
1.0
1070
    74
1070
     0
1000
MTEXTEND
  0
POINT
  5
15993
330
13C74
100
AcDbEntity
  8
DEFPOINTS
 62
     0
 48
50.0
100
AcDbPoint
 10
8071.105566466831
 20
10423.54815606238
 30
0.0
  0
POINT
  5
15994
330
13C74
100
AcDbEntity
  8
DEFPOINTS
 62
     0
 48
50.0
100
AcDbPoint
 10
8071.105566466831
 20
10368.54815606238
 30
0.0
  0
POINT
  5
15995
330
13C74
100
AcDbEntity
  8
DEFPOINTS
 62
     0
 48
50.0
100
AcDbPoint
 10
8841.852683511186
 20
10368.54815606238
 30
0.0
  0
ENDBLK
  5
13C81
330
13C74
100
AcDbEntity
  8
0
 48
50.0
100
AcDbBlockEnd
  0
BLOCK
  5
13C8C
330
13C82
100
AcDbEntity
  8
0
 48
50.0
100
AcDbBlockBegin
  2
*D12
 70
     1
 10
0.0
 20
0.0
 30
0.0
  3
*D12
  1

  0
LINE
  5
15982
330
13C82
100
AcDbEntity
  8
寸法
 62
     0
 48
50.0
370
    -2
100
AcDbLine
 10
2811.105566466831
 20
10443.54815606238
 30
0.0
 11
2811.105566466831
 21
11138.26056608117
 31
0.0
  0
LINE
  5
15983
330
13C82
100
AcDbEntity
  8
寸法
 62
     0
 48
50.0
370
    -2
100
AcDbLine
 10
8071.105566466831
 20
10443.54815606238
 30
0.0
 11
8071.105566466831
 21
11138.26056608117
 31
0.0
  0
LINE
  5
15984
330
13C82
100
AcDbEntity
  8
寸法
 62
     0
 48
50.0
370
    -2
100
AcDbLine
 10
2831.105566466832
 20
11098.26056608117
 30
0.0
 11
8051.105566466832
 21
11098.26056608117
 31
0.0
  0
INSERT
  5
15985
330
13C82
100
AcDbEntity
  8
寸法
 62
     0
 48
50.0
370
    -2
100
AcDbBlockReference
  2
_DOT
 10
2811.105566466831
 20
11098.26056608117
 30
0.0
 41
20.0
 42
20.0
 43
20.0
 50
180.0
  0
INSERT
  5
15986
330
13C82
100
AcDbEntity
  8
寸法
 62
     0
 48
50.0
370
    -2
100
AcDbBlockReference
  2
_DOT
 10
8071.105566466831
 20
11098.26056608117
 30
0.0
 41
20.0
 42
20.0
 43
20.0
  0
MTEXT
  5
15987
330
13C82
100
AcDbEntity
  8
寸法
 62
     7
 48
50.0
100
AcDbMText
 10
5441.105566466831
 20
11190.2723771048
 30
0.0
 40
120.0
 41
0.0
 71
     5
 72
     1
  1
\A1;5260
  7
STYLE1
 73
     1
 44
1.0
1001
ACAD
1000
MTEXTBEGIN
1070
    73
1070
     1
1070
    44
1040
1.0
1070
    74
1070
     0
1000
MTEXTEND
  0
POINT
  5
15988
330
13C82
100
AcDbEntity
  8
DEFPOINTS
 62
     0
 48
50.0
100
AcDbPoint
 10
2811.105566466831
 20
10423.54815606238
 30
0.0
  0
POINT
  5
15989
330
13C82
100
AcDbEntity
  8
DEFPOINTS
 62
     0
 48
50.0
100
AcDbPoint
 10
8071.105566466831
 20
10423.54815606238
 30
0.0
  0
POINT
  5
1598A
330
13C82
100
AcDbEntity
  8
DEFPOINTS
 62
     0
 48
50.0
100
AcDbPoint
 10
8071.105566466831
 20
11098.26056608117
 30
0.0
  0
ENDBLK
  5
13C8D
330
13C82
100
AcDbEntity
  8
0
 48
50.0
100
AcDbBlockEnd
  0
BLOCK
  5
13C98
330
13C8E
100
AcDbEntity
  8
0
 48
50.0
100
AcDbBlockBegin
  2
*D13
 70
     1
 10
0.0
 20
0.0
 30
0.0
  3
*D13
  1

  0
LINE
  5
15979
330
13C8E
100
AcDbEntity
  8
寸法
 62
     0
 48
50.0
370
    -2
100
AcDbLine
 10
2866.105566466831
 20
10443.54815606238
 30
0.0
 11
2866.105566466831
 21
10838.26056608117
 31
0.0
  0
LINE
  5
1597A
330
13C8E
100
AcDbEntity
  8
寸法
 62
     0
 48
50.0
370
    -2
100
AcDbLine
 10
5386.105566466831
 20
10443.54815606238
 30
0.0
 11
5386.105566466831
 21
10838.26056608117
 31
0.0
  0
LINE
  5
1597B
330
13C8E
100
AcDbEntity
  8
寸法
 62
     0
 48
50.0
370
    -2
100
AcDbLine
 10
2886.105566466831
 20
10798.26056608117
 30
0.0
 11
5366.105566466831
 21
10798.26056608117
 31
0.0
  0
INSERT
  5
1597C
330
13C8E
100
AcDbEntity
  8
寸法
 62
     0
 48
50.0
370
    -2
100
AcDbBlockReference
  2
_DOT
 10
2866.105566466831
 20
10798.26056608117
 30
0.0
 41
20.0
 42
20.0
 43
20.0
 50
180.0
  0
INSERT
  5
1597D
330
13C8E
100
AcDbEntity
  8
寸法
 62
     0
 48
50.0
370
    -2
100
AcDbBlockReference
  2
_DOT
 10
5386.105566466831
 20
10798.26056608117
 30
0.0
 41
20.0
 42
20.0
 43
20.0
  0
MTEXT
  5
1597E
330
13C8E
100
AcDbEntity
  8
寸法
 62
     7
 48
50.0
100
AcDbMText
 10
4126.105566466831
 20
10890.2723771048
 30
0.0
 40
120.0
 41
0.0
 71
     5
 72
     1
  1
\A1;6X420=2520
  7
STYLE1
 73
     1
 44
1.0
1001
ACAD
1000
MTEXTBEGIN
1070
    73
1070
     1
1070
    44
1040
1.0
1070
    74
1070
     0
1000
MTEXTEND
  0
POINT
  5
1597F
330
13C8E
100
AcDbEntity
  8
DEFPOINTS
 62
     0
 48
50.0
100
AcDbPoint
 10
2866.105566466831
 20
10423.54815606238
 30
0.0
  0
POINT
  5
15980
330
13C8E
100
AcDbEntity
  8
DEFPOINTS
 62
     0
 48
50.0
100
AcDbPoint
 10
5386.105566466831
 20
10423.54815606238
 30
0.0
  0
POINT
  5
15981
330
13C8E
100
AcDbEntity
  8
DEFPOINTS
 62
     0
 48
50.0
100
AcDbPoint
 10
5386.105566466831
 20
10798.26056608117
 30
0.0
  0
ENDBLK
  5
13C99
330
13C8E
100
AcDbEntity
  8
0
 48
50.0
100
AcDbBlockEnd
  0
BLOCK
  5
13CB2
330
13CA6
100
AcDbEntity
  8
0
 48
50.0
100
AcDbBlockBegin
  2
*D14
 70
     1
 10
0.0
 20
0.0
 30
0.0
  3
*D14
  1

  0
LINE
  5
1596E
330
13CA6
100
AcDbEntity
  8
寸法
 62
     0
 48
50.0
370
    -2
100
AcDbLine
 10
2811.105566466831
 20
10443.54815606238
 30
0.0
 11
2811.105566466831
 21
10838.26056608117
 31
0.0
  0
LINE
  5
1596F
330
13CA6
100
AcDbEntity
  8
寸法
 62
     0
 48
50.0
370
    -2
100
AcDbLine
 10
2866.105566466831
 20
10443.54815606238
 30
0.0
 11
2866.105566466831
 21
10838.26056608117
 31
0.0
  0
LINE
  5
15970
330
13CA6
100
AcDbEntity
  8
寸法
 62
     0
 48
50.0
370
    -2
100
AcDbLine
 10
2886.105566466831
 20
10798.26056608117
 30
0.0
 11
2906.105566466831
 21
10798.26056608117
 31
0.0
  0
LINE
  5
15971
330
13CA6
100
AcDbEntity
  8
寸法
 62
     0
 48
50.0
370
    -2
100
AcDbLine
 10
2791.105566466831
 20
10798.26056608117
 30
0.0
 11
2316.453618425928
 21
10798.26056608117
 31
0.0
  0
LINE
  5
15972
330
13CA6
100
AcDbEntity
  8
寸法
 62
     0
 48
50.0
370
    -2
100
AcDbLine
 10
2866.105566466831
 20
10798.26056608117
 30
0.0
 11
2811.105566466831
 21
10798.26056608117
 31
0.0
  0
INSERT
  5
15973
330
13CA6
100
AcDbEntity
  8
寸法
 62
     0
 48
50.0
370
    -2
100
AcDbBlockReference
  2
_DOT
 10
2866.105566466831
 20
10798.26056608117
 30
0.0
 41
20.0
 42
20.0
 43
20.0
 50
180.0
  0
INSERT
  5
15974
330
13CA6
100
AcDbEntity
  8
寸法
 62
     0
 48
50.0
370
    -2
100
AcDbBlockReference
  2
_DOT
 10
2811.105566466831
 20
10798.26056608117
 30
0.0
 41
20.0
 42
20.0
 43
20.0
  0
MTEXT
  5
15975
330
13CA6
100
AcDbEntity
  8
寸法
 62
     7
 48
50.0
100
AcDbMText
 10
2416.938899800167
 20
10890.26056608118
 30
0.0
 40
120.0
 41
0.0
 71
     5
 72
     1
  1
\A1;55
  7
STYLE1
 73
     1
 44
1.0
1001
ACAD
1000
MTEXTBEGIN
1070
    73
1070
     1
1070
    44
1040
1.0
1070
    74
1070
     0
1000
MTEXTEND
  0
POINT
  5
15976
330
13CA6
100
AcDbEntity
  8
DEFPOINTS
 62
     0
 48
50.0
100
AcDbPoint
 10
2811.105566466831
 20
10423.54815606238
 30
0.0
  0
POINT
  5
15977
330
13CA6
100
AcDbEntity
  8
DEFPOINTS
 62
     0
 48
50.0
100
AcDbPoint
 10
2866.105566466831
 20
10423.54815606238
 30
0.0
  0
POINT
  5
15978
330
13CA6
100
AcDbEntity
  8
DEFPOINTS
 62
     0
 48
50.0
100
AcDbPoint
 10
2866.105566466831
 20
10798.26056608117
 30
0.0
  0
ENDBLK
  5
13CB3
330
13CA6
100
AcDbEntity
  8
0
 48
50.0
100
AcDbBlockEnd
  0
BLOCK
  5
13CCA
330
13CC0
100
AcDbEntity
  8
0
 48
50.0
100
AcDbBlockBegin
  2
*D15
 70
     1
 10
0.0
 20
0.0
 30
0.0
  3
*D15
  1

  0
LINE
  5
15965
330
13CC0
100
AcDbEntity
  8
寸法
 62
     0
 48
50.0
370
    -2
100
AcDbLine
 10
5496.105566466831
 20
10443.54815606238
 30
0.0
 11
5496.105566466831
 21
10838.26056608117
 31
0.0
  0
LINE
  5
15966
330
13CC0
100
AcDbEntity
  8
寸法
 62
     0
 48
50.0
370
    -2
100
AcDbLine
 10
8016.105566466832
 20
10443.54815606238
 30
0.0
 11
8016.105566466832
 21
10838.26056608117
 31
0.0
  0
LINE
  5
15967
330
13CC0
100
AcDbEntity
  8
寸法
 62
     0
 48
50.0
370
    -2
100
AcDbLine
 10
5516.105566466831
 20
10798.26056608117
 30
0.0
 11
7996.10556646683
 21
10798.26056608117
 31
0.0
  0
INSERT
  5
15968
330
13CC0
100
AcDbEntity
  8
寸法
 62
     0
 48
50.0
370
    -2
100
AcDbBlockReference
  2
_DOT
 10
5496.105566466831
 20
10798.26056608117
 30
0.0
 41
20.0
 42
20.0
 43
20.0
 50
180.0
  0
INSERT
  5
15969
330
13CC0
100
AcDbEntity
  8
寸法
 62
     0
 48
50.0
370
    -2
100
AcDbBlockReference
  2
_DOT
 10
8016.105566466832
 20
10798.26056608117
 30
0.0
 41
20.0
 42
20.0
 43
20.0
  0
MTEXT
  5
1596A
330
13CC0
100
AcDbEntity
  8
寸法
 62
     7
 48
50.0
100
AcDbMText
 10
6756.105566466832
 20
10890.2723771048
 30
0.0
 40
120.0
 41
0.0
 71
     5
 72
     1
  1
\A1;6X420=2520
  7
STYLE1
 73
     1
 44
1.0
1001
ACAD
1000
MTEXTBEGIN
1070
    73
1070
     1
1070
    44
1040
1.0
1070
    74
1070
     0
1000
MTEXTEND
  0
POINT
  5
1596B
330
13CC0
100
AcDbEntity
  8
DEFPOINTS
 62
     0
 48
50.0
100
AcDbPoint
 10
5496.105566466831
 20
10423.54815606238
 30
0.0
  0
POINT
  5
1596C
330
13CC0
100
AcDbEntity
  8
DEFPOINTS
 62
     0
 48
50.0
100
AcDbPoint
 10
8016.105566466832
 20
10423.54815606238
 30
0.0
  0
POINT
  5
1596D
330
13CC0
100
AcDbEntity
  8
DEFPOINTS
 62
     0
 48
50.0
100
AcDbPoint
 10
8016.105566466832
 20
10798.26056608117
 30
0.0
  0
ENDBLK
  5
13CCB
330
13CC0
100
AcDbEntity
  8
0
 48
50.0
100
AcDbBlockEnd
  0
BLOCK
  5
13CD6
330
13CCC
100
AcDbEntity
  8
0
 48
50.0
100
AcDbBlockBegin
  2
*D16
 70
     1
 10
0.0
 20
0.0
 30
0.0
  3
*D16
  1

  0
LINE
  5
1595C
330
13CCC
100
AcDbEntity
  8
寸法
 62
     0
 48
50.0
370
    -2
100
AcDbLine
 10
5386.105566466831
 20
10443.54815606238
 30
0.0
 11
5386.105566466831
 21
10838.26056608117
 31
0.0
  0
LINE
  5
1595D
330
13CCC
100
AcDbEntity
  8
寸法
 62
     0
 48
50.0
370
    -2
100
AcDbLine
 10
5496.105566466831
 20
10443.54815606238
 30
0.0
 11
5496.105566466831
 21
10838.26056608117
 31
0.0
  0
LINE
  5
1595E
330
13CCC
100
AcDbEntity
  8
寸法
 62
     0
 48
50.0
370
    -2
100
AcDbLine
 10
5406.10556646683
 20
10798.26056608117
 30
0.0
 11
5476.105566466831
 21
10798.26056608117
 31
0.0
  0
INSERT
  5
1595F
330
13CCC
100
AcDbEntity
  8
寸法
 62
     0
 48
50.0
370
    -2
100
AcDbBlockReference
  2
_DOT
 10
5386.105566466831
 20
10798.26056608117
 30
0.0
 41
20.0
 42
20.0
 43
20.0
 50
180.0
  0
INSERT
  5
15960
330
13CCC
100
AcDbEntity
  8
寸法
 62
     0
 48
50.0
370
    -2
100
AcDbBlockReference
  2
_DOT
 10
5496.105566466831
 20
10798.26056608117
 30
0.0
 41
20.0
 42
20.0
 43
20.0
  0
MTEXT
  5
15961
330
13CCC
100
AcDbEntity
  8
寸法
 62
     7
 48
50.0
100
AcDbMText
 10
5441.105566466831
 20
10890.26056608118
 30
0.0
 40
120.0
 41
0.0
 71
     5
 72
     1
  1
\A1;110
  7
STYLE1
 73
     1
 44
1.0
1001
ACAD
1000
MTEXTBEGIN
1070
    73
1070
     1
1070
    44
1040
1.0
1070
    74
1070
     0
1000
MTEXTEND
  0
POINT
  5
15962
330
13CCC
100
AcDbEntity
  8
DEFPOINTS
 62
     0
 48
50.0
100
AcDbPoint
 10
5386.105566466831
 20
10423.54815606238
 30
0.0
  0
POINT
  5
15963
330
13CCC
100
AcDbEntity
  8
DEFPOINTS
 62
     0
 48
50.0
100
AcDbPoint
 10
5496.105566466831
 20
10423.54815606238
 30
0.0
  0
POINT
  5
15964
330
13CCC
100
AcDbEntity
  8
DEFPOINTS
 62
     0
 48
50.0
100
AcDbPoint
 10
5496.105566466831
 20
10798.26056608117
 30
0.0
  0
ENDBLK
  5
13CD7
330
13CCC
100
AcDbEntity
  8
0
 48
50.0
100
AcDbBlockEnd
  0
BLOCK
  5
1431D
330
14312
100
AcDbEntity
  8
0
 48
50.0
100
AcDbBlockBegin
  2
*D17
 70
     1
 10
0.0
 20
0.0
 30
0.0
  3
*D17
  1

  0
LINE
  5
1517A
330
14312
100
AcDbEntity
  8
寸法
 62
     0
 48
50.0
370
    -2
100
AcDbLine
 10
11046.8642609016
 20
4351.506751971903
 30
0.0
 11
10430.92982179632
 21
4369.220902246232
 31
0.0
  0
LINE
  5
1517B
330
14312
100
AcDbEntity
  8
寸法
 62
     0
 48
50.0
370
    -2
100
AcDbLine
 10
11042.81080534497
 20
4210.565028206191
 30
0.0
 11
10426.87636623969
 21
4228.27917848052
 31
0.0
  0
LINE
  5
1517C
330
14312
100
AcDbEntity
  8
寸法
 62
     0
 48
50.0
370
    -2
100
AcDbLine
 10
10486.85156784212
 20
4226.554303775573
 30
0.0
 11
10490.90502339875
 21
4367.496027541285
 31
0.0
  0
LINE
  5
1517D
330
14312
100
AcDbEntity
  8
寸法
 62
     0
 48
50.0
370
    -2
100
AcDbLine
 10
10490.90502339875
 20
4367.496027541285
 30
0.0
 11
10501.25427162843
 21
4727.34723715587
 31
0.0
  0
INSERT
  5
1517E
330
14312
100
AcDbEntity
  8
寸法
 62
     0
 48
50.0
370
    -2
100
AcDbBlockReference
  2
_DOTSMALL
 10
10486.85156784212
 20
4226.554303775573
 30
0.0
 41
100.0
 42
100.0
 43
100.0
 50
268.3526390256378
  0
INSERT
  5
1517F
330
14312
100
AcDbEntity
  8
寸法
 62
     0
 48
50.0
370
    -2
100
AcDbBlockReference
  2
_DOTSMALL
 10
10490.90502339875
 20
4367.496027541285
 30
0.0
 41
100.0
 42
100.0
 43
100.0
 50
88.35263902563776
  0
MTEXT
  5
15180
330
14312
100
AcDbEntity
  8
寸法
 62
     7
 48
50.0
100
AcDbMText
 10
10397.55837376366
 20
4600.275758192183
 30
0.0
 40
120.0
 41
0.0
 71
     5
 72
     1
  1
\A1;141
  7
STYLE1
 11
0.0287479117491237
 21
0.9995866933738488
 31
0.0
 73
     1
 44
1.0
1001
ACAD
1000
MTEXTBEGIN
1070
    73
1070
     1
1070
    44
1040
1.0
1070
    74
1070
     0
1000
MTEXTEND
  0
POINT
  5
15181
330
14312
100
AcDbEntity
  8
DEFPOINTS
 62
     0
 48
50.0
100
AcDbPoint
 10
11066.85599476908
 20
4350.93179373692
 30
0.0
  0
POINT
  5
15182
330
14312
100
AcDbEntity
  8
DEFPOINTS
 62
     0
 48
50.0
100
AcDbPoint
 10
11062.80253921245
 20
4209.990069971207
 30
0.0
  0
POINT
  5
15183
330
14312
100
AcDbEntity
  8
DEFPOINTS
 62
     0
 48
50.0
100
AcDbPoint
 10
10486.85156784212
 20
4226.554303775573
 30
0.0
  0
ENDBLK
  5
1431E
330
14312
100
AcDbEntity
  8
0
 48
50.0
100
AcDbBlockEnd
  0
BLOCK
  5
1432A
330
1431F
100
AcDbEntity
  8
0
 48
50.0
100
AcDbBlockBegin
  2
*D18
 70
     1
 10
0.0
 20
0.0
 30
0.0
  3
*D18
  1

  0
LINE
  5
15170
330
1431F
100
AcDbEntity
  8
寸法
 62
     0
 48
50.0
370
    -2
100
AcDbLine
 10
14577.45997461049
 20
4319.019724513896
 30
0.0
 11
14577.45997461049
 21
4810.866498481548
 31
0.0
  0
LINE
  5
15171
330
1431F
100
AcDbEntity
  8
寸法
 62
     0
 48
50.0
370
    -2
100
AcDbLine
 10
14657.45997461049
 20
4317.209044902245
 30
0.0
 11
14657.45997461049
 21
4810.866498481548
 31
0.0
  0
LINE
  5
15172
330
1431F
100
AcDbEntity
  8
寸法
 62
     0
 48
50.0
370
    -2
100
AcDbLine
 10
14577.45997461049
 20
4750.866498481547
 30
0.0
 11
14657.45997461049
 21
4750.866498481547
 31
0.0
  0
LINE
  5
15173
330
1431F
100
AcDbEntity
  8
寸法
 62
     0
 48
50.0
370
    -2
100
AcDbLine
 10
14657.45997461049
 20
4750.866498481547
 30
0.0
 11
14969.55446279947
 21
4750.866498481547
 31
0.0
  0
INSERT
  5
15174
330
1431F
100
AcDbEntity
  8
寸法
 62
     0
 48
50.0
370
    -2
100
AcDbBlockReference
  2
_DOTSMALL
 10
14577.45997461049
 20
4750.866498481547
 30
0.0
 41
100.0
 42
100.0
 43
100.0
 50
180.0
  0
INSERT
  5
15175
330
1431F
100
AcDbEntity
  8
寸法
 62
     0
 48
50.0
370
    -2
100
AcDbBlockReference
  2
_DOTSMALL
 10
14657.45997461049
 20
4750.866498481547
 30
0.0
 41
100.0
 42
100.0
 43
100.0
  0
MTEXT
  5
15176
330
1431F
100
AcDbEntity
  8
寸法
 62
     7
 48
50.0
100
AcDbMText
 10
14863.50721870498
 20
4850.866498481548
 30
0.0
 40
120.0
 41
0.0
 71
     5
 72
     1
  1
\A1;80
  7
STYLE1
 73
     1
 44
1.0
1001
ACAD
1000
MTEXTBEGIN
1070
    73
1070
     1
1070
    44
1040
1.0
1070
    74
1070
     0
1000
MTEXTEND
  0
POINT
  5
15177
330
1431F
100
AcDbEntity
  8
DEFPOINTS
 62
     0
 48
50.0
100
AcDbPoint
 10
14577.45997461049
 20
4299.019724513897
 30
0.0
  0
POINT
  5
15178
330
1431F
100
AcDbEntity
  8
DEFPOINTS
 62
     0
 48
50.0
100
AcDbPoint
 10
14657.45997461049
 20
4297.209044902245
 30
0.0
  0
POINT
  5
15179
330
1431F
100
AcDbEntity
  8
DEFPOINTS
 62
     0
 48
50.0
100
AcDbPoint
 10
14657.45997461049
 20
4750.866498481547
 30
0.0
  0
ENDBLK
  5
1432B
330
1431F
100
AcDbEntity
  8
0
 48
50.0
100
AcDbBlockEnd
  0
BLOCK
  5
14336
330
1432C
100
AcDbEntity
  8
0
 48
50.0
100
AcDbBlockBegin
  2
*D19
 70
     1
 10
0.0
 20
0.0
 30
0.0
  3
*D19
  1

  0
LINE
  5
15167
330
1432C
100
AcDbEntity
  8
寸法
 62
     0
 48
50.0
370
    -2
100
AcDbLine
 10
14657.45997461049
 20
4317.209044902243
 30
0.0
 11
14657.45997461049
 21
5040.980091267823
 31
0.0
  0
LINE
  5
15168
330
1432C
100
AcDbEntity
  8
寸法
 62
     0
 48
50.0
370
    -2
100
AcDbLine
 10
11047.45997461049
 20
4372.209044902246
 30
0.0
 11
11047.45997461049
 21
5040.980091267823
 31
0.0
  0
LINE
  5
15169
330
1432C
100
AcDbEntity
  8
寸法
 62
     0
 48
50.0
370
    -2
100
AcDbLine
 10
14657.45997461049
 20
4980.980091267824
 30
0.0
 11
11047.45997461049
 21
4980.980091267824
 31
0.0
  0
INSERT
  5
1516A
330
1432C
100
AcDbEntity
  8
寸法
 62
     0
 48
50.0
370
    -2
100
AcDbBlockReference
  2
_DOTSMALL
 10
14657.45997461049
 20
4980.980091267824
 30
0.0
 41
100.0
 42
100.0
 43
100.0
  0
INSERT
  5
1516B
330
1432C
100
AcDbEntity
  8
寸法
 62
     0
 48
50.0
370
    -2
100
AcDbBlockReference
  2
_DOTSMALL
 10
11047.45997461049
 20
4980.980091267824
 30
0.0
 41
100.0
 42
100.0
 43
100.0
 50
180.0
  0
MTEXT
  5
1516C
330
1432C
100
AcDbEntity
  8
寸法
 62
     7
 48
50.0
100
AcDbMText
 10
12852.45997461049
 20
5080.980091267824
 30
0.0
 40
120.0
 41
0.0
 71
     5
 72
     1
  1
\A1;3610
  7
STYLE1
 73
     1
 44
1.0
1001
ACAD
1000
MTEXTBEGIN
1070
    73
1070
     1
1070
    44
1040
1.0
1070
    74
1070
     0
1000
MTEXTEND
  0
POINT
  5
1516D
330
1432C
100
AcDbEntity
  8
DEFPOINTS
 62
     0
 48
50.0
100
AcDbPoint
 10
14657.45997461049
 20
4297.209044902244
 30
0.0
  0
POINT
  5
1516E
330
1432C
100
AcDbEntity
  8
DEFPOINTS
 62
     0
 48
50.0
100
AcDbPoint
 10
11047.45997461049
 20
4352.209044902246
 30
0.0
  0
POINT
  5
1516F
330
1432C
100
AcDbEntity
  8
DEFPOINTS
 62
     0
 48
50.0
100
AcDbPoint
 10
11047.45997461049
 20
4980.980091267824
 30
0.0
  0
ENDBLK
  5
14337
330
1432C
100
AcDbEntity
  8
0
 48
50.0
100
AcDbBlockEnd
  0
BLOCK
  5
14344
330
14338
100
AcDbEntity
  8
0
 48
50.0
100
AcDbBlockBegin
  2
*D20
 70
     1
 10
0.0
 20
0.0
 30
0.0
  3
*D20
  1

  0
LINE
  5
1515C
330
14338
100
AcDbEntity
  8
寸法
 62
     0
 48
50.0
370
    -2
100
AcDbLine
 10
11107.45997461049
 20
4368.210663025219
 30
0.0
 11
11107.45997461049
 21
4810.866498481546
 31
0.0
  0
LINE
  5
1515D
330
14338
100
AcDbEntity
  8
寸法
 62
     0
 48
50.0
370
    -2
100
AcDbLine
 10
11047.45997461049
 20
4372.209044902246
 30
0.0
 11
11047.45997461049
 21
4810.866498481546
 31
0.0
  0
LINE
  5
1515E
330
14338
100
AcDbEntity
  8
寸法
 62
     0
 48
50.0
370
    -2
100
AcDbLine
 10
11107.45997461049
 20
4750.866498481546
 30
0.0
 11
11207.45997461049
 21
4750.866498481546
 31
0.0
  0
LINE
  5
1515F
330
14338
100
AcDbEntity
  8
寸法
 62
     0
 48
50.0
370
    -2
100
AcDbLine
 10
11047.45997461049
 20
4750.866498481546
 30
0.0
 11
10628.18438405931
 21
4750.866498481546
 31
0.0
  0
LINE
  5
15160
330
14338
100
AcDbEntity
  8
寸法
 62
     0
 48
50.0
370
    -2
100
AcDbLine
 10
11107.45997461049
 20
4750.866498481546
 30
0.0
 11
11047.45997461049
 21
4750.866498481546
 31
0.0
  0
INSERT
  5
15161
330
14338
100
AcDbEntity
  8
寸法
 62
     0
 48
50.0
370
    -2
100
AcDbBlockReference
  2
_DOTSMALL
 10
11107.45997461049
 20
4750.866498481546
 30
0.0
 41
100.0
 42
100.0
 43
100.0
 50
180.0
  0
INSERT
  5
15162
330
14338
100
AcDbEntity
  8
寸法
 62
     0
 48
50.0
370
    -2
100
AcDbBlockReference
  2
_DOTSMALL
 10
11047.45997461049
 20
4750.866498481546
 30
0.0
 41
100.0
 42
100.0
 43
100.0
  0
MTEXT
  5
15163
330
14338
100
AcDbEntity
  8
寸法
 62
     7
 48
50.0
100
AcDbMText
 10
10737.8221793349
 20
4850.866498481546
 30
0.0
 40
120.0
 41
0.0
 71
     5
 72
     1
  1
\A1;60
  7
STYLE1
 73
     1
 44
1.0
1001
ACAD
1000
MTEXTBEGIN
1070
    73
1070
     1
1070
    44
1040
1.0
1070
    74
1070
     0
1000
MTEXTEND
  0
POINT
  5
15164
330
14338
100
AcDbEntity
  8
DEFPOINTS
 62
     0
 48
50.0
100
AcDbPoint
 10
11107.45997461049
 20
4348.210663025218
 30
0.0
  0
POINT
  5
15165
330
14338
100
AcDbEntity
  8
DEFPOINTS
 62
     0
 48
50.0
100
AcDbPoint
 10
11047.45997461049
 20
4352.209044902246
 30
0.0
  0
POINT
  5
15166
330
14338
100
AcDbEntity
  8
DEFPOINTS
 62
     0
 48
50.0
100
AcDbPoint
 10
11047.45997461049
 20
4750.866498481546
 30
0.0
  0
ENDBLK
  5
14345
330
14338
100
AcDbEntity
  8
0
 48
50.0
100
AcDbBlockEnd
  0
BLOCK
  5
14350
330
14346
100
AcDbEntity
  8
0
 48
50.0
100
AcDbBlockBegin
  2
*D21
 70
     1
 10
0.0
 20
0.0
 30
0.0
  3
*D21
  1

  0
LINE
  5
15153
330
14346
100
AcDbEntity
  8
寸法
 62
     0
 48
50.0
370
    -2
100
AcDbLine
 10
14577.45997461049
 20
4319.019724513896
 30
0.0
 11
14577.45997461049
 21
4810.866498481548
 31
0.0
  0
LINE
  5
15154
330
14346
100
AcDbEntity
  8
寸法
 62
     0
 48
50.0
370
    -2
100
AcDbLine
 10
11107.45997461049
 20
4368.210663025219
 30
0.0
 11
11107.45997461049
 21
4810.866498481548
 31
0.0
  0
LINE
  5
15155
330
14346
100
AcDbEntity
  8
寸法
 62
     0
 48
50.0
370
    -2
100
AcDbLine
 10
14577.45997461049
 20
4750.866498481547
 30
0.0
 11
11107.45997461049
 21
4750.866498481547
 31
0.0
  0
INSERT
  5
15156
330
14346
100
AcDbEntity
  8
寸法
 62
     0
 48
50.0
370
    -2
100
AcDbBlockReference
  2
_DOTSMALL
 10
14577.45997461049
 20
4750.866498481547
 30
0.0
 41
100.0
 42
100.0
 43
100.0
  0
INSERT
  5
15157
330
14346
100
AcDbEntity
  8
寸法
 62
     0
 48
50.0
370
    -2
100
AcDbBlockReference
  2
_DOTSMALL
 10
11107.45997461049
 20
4750.866498481547
 30
0.0
 41
100.0
 42
100.0
 43
100.0
 50
180.0
  0
MTEXT
  5
15158
330
14346
100
AcDbEntity
  8
寸法
 62
     7
 48
50.0
100
AcDbMText
 10
12842.45997461049
 20
4850.866498481548
 30
0.0
 40
120.0
 41
0.0
 71
     5
 72
     1
  1
\A1;柱外寸法3470
  7
STYLE1
 73
     1
 44
1.0
1001
ACAD
1000
MTEXTBEGIN
1070
    73
1070
     1
1070
    44
1040
1.0
1070
    74
1070
     0
1000
MTEXTEND
  0
POINT
  5
15159
330
14346
100
AcDbEntity
  8
DEFPOINTS
 62
     0
 48
50.0
100
AcDbPoint
 10
14577.45997461049
 20
4299.019724513897
 30
0.0
  0
POINT
  5
1515A
330
14346
100
AcDbEntity
  8
DEFPOINTS
 62
     0
 48
50.0
100
AcDbPoint
 10
11107.45997461049
 20
4348.210663025218
 30
0.0
  0
POINT
  5
1515B
330
14346
100
AcDbEntity
  8
DEFPOINTS
 62
     0
 48
50.0
100
AcDbPoint
 10
11107.45997461049
 20
4750.866498481547
 30
0.0
  0
ENDBLK
  5
14351
330
14346
100
AcDbEntity
  8
0
 48
50.0
100
AcDbBlockEnd
  0
BLOCK
  5
1435E
330
14352
100
AcDbEntity
  8
0
 48
50.0
100
AcDbBlockBegin
  2
*D22
 70
     1
 10
0.0
 20
0.0
 30
0.0
  3
*D22
  1

  0
LINE
  5
15148
330
14352
100
AcDbEntity
  8
寸法
 62
     0
 48
50.0
370
    -2
100
AcDbLine
 10
11087.45997461049
 20
2027.209044902242
 30
0.0
 11
10203.70984542724
 21
2027.209044902242
 31
0.0
  0
LINE
  5
15149
330
14352
100
AcDbEntity
  8
寸法
 62
     0
 48
50.0
370
    -2
100
AcDbLine
 10
11010.45997461049
 20
1977.209044902237
 30
0.0
 11
10203.70984542724
 21
1977.209044902237
 31
0.0
  0
LINE
  5
1514A
330
14352
100
AcDbEntity
  8
寸法
 62
     0
 48
50.0
370
    -2
100
AcDbLine
 10
10263.70984542723
 20
2027.209044902242
 30
0.0
 11
10263.70984542723
 21
2127.209044902242
 31
0.0
  0
LINE
  5
1514B
330
14352
100
AcDbEntity
  8
寸法
 62
     0
 48
50.0
370
    -2
100
AcDbLine
 10
10263.70984542723
 20
1977.209044902237
 30
0.0
 11
10263.70984542723
 21
1565.114556713257
 31
0.0
  0
LINE
  5
1514C
330
14352
100
AcDbEntity
  8
寸法
 62
     0
 48
50.0
370
    -2
100
AcDbLine
 10
10263.70984542723
 20
2027.209044902242
 30
0.0
 11
10263.70984542723
 21
1977.209044902237
 31
0.0
  0
INSERT
  5
1514D
330
14352
100
AcDbEntity
  8
寸法
 62
     0
 48
50.0
370
    -2
100
AcDbBlockReference
  2
_DOTSMALL
 10
10263.70984542723
 20
2027.209044902242
 30
0.0
 41
100.0
 42
100.0
 43
100.0
 50
270.0
  0
INSERT
  5
1514E
330
14352
100
AcDbEntity
  8
寸法
 62
     0
 48
50.0
370
    -2
100
AcDbBlockReference
  2
_DOTSMALL
 10
10263.70984542723
 20
1977.209044902237
 30
0.0
 41
100.0
 42
100.0
 43
100.0
 50
90.0
  0
MTEXT
  5
1514F
330
14352
100
AcDbEntity
  8
寸法
 62
     7
 48
50.0
100
AcDbMText
 10
10163.70984542724
 20
1671.161800807746
 30
0.0
 40
120.0
 41
0.0
 71
     5
 72
     1
  1
\A1;50
  7
STYLE1
 11
0.0000000000000001
 21
1.0
 31
0.0
 73
     1
 44
1.0
1001
ACAD
1000
MTEXTBEGIN
1070
    73
1070
     1
1070
    44
1040
1.0
1070
    74
1070
     0
1000
MTEXTEND
  0
POINT
  5
15150
330
14352
100
AcDbEntity
  8
DEFPOINTS
 62
     0
 48
50.0
100
AcDbPoint
 10
11107.45997461049
 20
2027.209044902242
 30
0.0
  0
POINT
  5
15151
330
14352
100
AcDbEntity
  8
DEFPOINTS
 62
     0
 48
50.0
100
AcDbPoint
 10
11030.45997461049
 20
1977.209044902237
 30
0.0
  0
POINT
  5
15152
330
14352
100
AcDbEntity
  8
DEFPOINTS
 62
     0
 48
50.0
100
AcDbPoint
 10
10263.70984542723
 20
1977.209044902237
 30
0.0
  0
ENDBLK
  5
1435F
330
14352
100
AcDbEntity
  8
0
 48
50.0
100
AcDbBlockEnd
  0
BLOCK
  5
1436A
330
14360
100
AcDbEntity
  8
0
 48
50.0
100
AcDbBlockBegin
  2
*D23
 70
     1
 10
0.0
 20
0.0
 30
0.0
  3
*D23
  1

  0
LINE
  5
1513F
330
14360
100
AcDbEntity
  8
寸法
 62
     0
 48
50.0
370
    -2
100
AcDbLine
 10
14597.45997461049
 20
1977.209044902243
 30
0.0
 11
15342.38713258262
 21
1977.209044902243
 31
0.0
  0
LINE
  5
15140
330
14360
100
AcDbEntity
  8
寸法
 62
     0
 48
50.0
370
    -2
100
AcDbLine
 10
14677.45997461049
 20
4297.209044902244
 30
0.0
 11
15342.38713258262
 21
4297.209044902244
 31
0.0
  0
LINE
  5
15141
330
14360
100
AcDbEntity
  8
寸法
 62
     0
 48
50.0
370
    -2
100
AcDbLine
 10
15282.38713258262
 20
1977.209044902243
 30
0.0
 11
15282.38713258262
 21
4297.209044902244
 31
0.0
  0
INSERT
  5
15142
330
14360
100
AcDbEntity
  8
寸法
 62
     0
 48
50.0
370
    -2
100
AcDbBlockReference
  2
_DOTSMALL
 10
15282.38713258262
 20
1977.209044902243
 30
0.0
 41
100.0
 42
100.0
 43
100.0
 50
270.0
  0
INSERT
  5
15143
330
14360
100
AcDbEntity
  8
寸法
 62
     0
 48
50.0
370
    -2
100
AcDbBlockReference
  2
_DOTSMALL
 10
15282.38713258262
 20
4297.209044902244
 30
0.0
 41
100.0
 42
100.0
 43
100.0
 50
90.0
  0
MTEXT
  5
15144
330
14360
100
AcDbEntity
  8
寸法
 62
     7
 48
50.0
100
AcDbMText
 10
15182.375321559
 20
3137.209044902246
 30
0.0
 40
120.0
 41
0.0
 71
     5
 72
     1
  1
\A1;2320
  7
STYLE1
 11
0.0000000000000001
 21
1.0
 31
0.0
 73
     1
 44
1.0
1001
ACAD
1000
MTEXTBEGIN
1070
    73
1070
     1
1070
    44
1040
1.0
1070
    74
1070
     0
1000
MTEXTEND
  0
POINT
  5
15145
330
14360
100
AcDbEntity
  8
DEFPOINTS
 62
     0
 48
50.0
100
AcDbPoint
 10
14577.45997461049
 20
1977.209044902243
 30
0.0
  0
POINT
  5
15146
330
14360
100
AcDbEntity
  8
DEFPOINTS
 62
     0
 48
50.0
100
AcDbPoint
 10
14657.45997461049
 20
4297.209044902244
 30
0.0
  0
POINT
  5
15147
330
14360
100
AcDbEntity
  8
DEFPOINTS
 62
     0
 48
50.0
100
AcDbPoint
 10
15282.38713258262
 20
4297.209044902244
 30
0.0
  0
ENDBLK
  5
1436B
330
14360
100
AcDbEntity
  8
0
 48
50.0
100
AcDbBlockEnd
  0
BLOCK
  5
14376
330
1436C
100
AcDbEntity
  8
0
 48
50.0
100
AcDbBlockBegin
  2
*D24
 70
     1
 10
0.0
 20
0.0
 30
0.0
  3
*D24
  1

  0
LINE
  5
15136
330
1436C
100
AcDbEntity
  8
寸法
 62
     0
 48
50.0
370
    -2
100
AcDbLine
 10
11010.45997461049
 20
1977.209044902237
 30
0.0
 11
9903.709845427236
 21
1977.209044902237
 31
0.0
  0
LINE
  5
15137
330
1436C
100
AcDbEntity
  8
寸法
 62
     0
 48
50.0
370
    -2
100
AcDbLine
 10
11027.45997461049
 20
4352.209044902241
 30
0.0
 11
9903.709845427236
 21
4352.209044902243
 31
0.0
  0
LINE
  5
15138
330
1436C
100
AcDbEntity
  8
寸法
 62
     0
 48
50.0
370
    -2
100
AcDbLine
 10
9963.709845427235
 20
1977.209044902237
 30
0.0
 11
9963.709845427237
 21
4352.209044902243
 31
0.0
  0
INSERT
  5
15139
330
1436C
100
AcDbEntity
  8
寸法
 62
     0
 48
50.0
370
    -2
100
AcDbBlockReference
  2
_DOTSMALL
 10
9963.709845427235
 20
1977.209044902237
 30
0.0
 41
100.0
 42
100.0
 43
100.0
 50
270.0
  0
INSERT
  5
1513A
330
1436C
100
AcDbEntity
  8
寸法
 62
     0
 48
50.0
370
    -2
100
AcDbBlockReference
  2
_DOTSMALL
 10
9963.709845427237
 20
4352.209044902243
 30
0.0
 41
100.0
 42
100.0
 43
100.0
 50
90.0
  0
MTEXT
  5
1513B
330
1436C
100
AcDbEntity
  8
寸法
 62
     7
 48
50.0
100
AcDbMText
 10
9863.698034403613
 20
3164.709044902242
 30
0.0
 40
120.0
 41
0.0
 71
     5
 72
     1
  1
\A1;2375
  7
STYLE1
 11
0.0000000000000001
 21
1.0
 31
0.0
 73
     1
 44
1.0
1001
ACAD
1000
MTEXTBEGIN
1070
    73
1070
     1
1070
    44
1040
1.0
1070
    74
1070
     0
1000
MTEXTEND
  0
POINT
  5
1513C
330
1436C
100
AcDbEntity
  8
DEFPOINTS
 62
     0
 48
50.0
100
AcDbPoint
 10
11030.45997461049
 20
1977.209044902237
 30
0.0
  0
POINT
  5
1513D
330
1436C
100
AcDbEntity
  8
DEFPOINTS
 62
     0
 48
50.0
100
AcDbPoint
 10
11047.45997461049
 20
4352.209044902241
 30
0.0
  0
POINT
  5
1513E
330
1436C
100
AcDbEntity
  8
DEFPOINTS
 62
     0
 48
50.0
100
AcDbPoint
 10
9963.709845427237
 20
4352.209044902243
 30
0.0
  0
ENDBLK
  5
14377
330
1436C
100
AcDbEntity
  8
0
 48
50.0
100
AcDbBlockEnd
  0
BLOCK
  5
14382
330
14378
100
AcDbEntity
  8
0
 48
50.0
100
AcDbBlockBegin
  2
*D25
 70
     1
 10
0.0
 20
0.0
 30
0.0
  3
*D25
  1

  0
LINE
  5
1512D
330
14378
100
AcDbEntity
  8
寸法
 62
     0
 48
50.0
370
    -2
100
AcDbLine
 10
11087.45997461049
 20
4117.209044902238
 30
0.0
 11
10203.70984542724
 21
4117.209044902239
 31
0.0
  0
LINE
  5
1512E
330
14378
100
AcDbEntity
  8
寸法
 62
     0
 48
50.0
370
    -2
100
AcDbLine
 10
11087.45997461049
 20
2027.209044902237
 30
0.0
 11
10203.70984542724
 21
2027.209044902237
 31
0.0
  0
LINE
  5
1512F
330
14378
100
AcDbEntity
  8
寸法
 62
     0
 48
50.0
370
    -2
100
AcDbLine
 10
10263.70984542724
 20
4117.209044902238
 30
0.0
 11
10263.70984542723
 21
2027.209044902237
 31
0.0
  0
INSERT
  5
15130
330
14378
100
AcDbEntity
  8
寸法
 62
     0
 48
50.0
370
    -2
100
AcDbBlockReference
  2
_DOTSMALL
 10
10263.70984542724
 20
4117.209044902238
 30
0.0
 41
100.0
 42
100.0
 43
100.0
 50
90.0
  0
INSERT
  5
15131
330
14378
100
AcDbEntity
  8
寸法
 62
     0
 48
50.0
370
    -2
100
AcDbBlockReference
  2
_DOTSMALL
 10
10263.70984542723
 20
2027.209044902237
 30
0.0
 41
100.0
 42
100.0
 43
100.0
 50
270.0
  0
MTEXT
  5
15132
330
14378
100
AcDbEntity
  8
寸法
 62
     7
 48
50.0
100
AcDbMText
 10
10163.69803440361
 20
3072.20904490224
 30
0.0
 40
120.0
 41
0.0
 71
     5
 72
     1
  1
\A1;2090
  7
STYLE1
 11
0.0000000000000001
 21
1.0
 31
0.0
 73
     1
 44
1.0
1001
ACAD
1000
MTEXTBEGIN
1070
    73
1070
     1
1070
    44
1040
1.0
1070
    74
1070
     0
1000
MTEXTEND
  0
POINT
  5
15133
330
14378
100
AcDbEntity
  8
DEFPOINTS
 62
     0
 48
50.0
100
AcDbPoint
 10
11107.45997461049
 20
4117.209044902238
 30
0.0
  0
POINT
  5
15134
330
14378
100
AcDbEntity
  8
DEFPOINTS
 62
     0
 48
50.0
100
AcDbPoint
 10
11107.45997461049
 20
2027.209044902237
 30
0.0
  0
POINT
  5
15135
330
14378
100
AcDbEntity
  8
DEFPOINTS
 62
     0
 48
50.0
100
AcDbPoint
 10
10263.70984542723
 20
2027.209044902237
 30
0.0
  0
ENDBLK
  5
14383
330
14378
100
AcDbEntity
  8
0
 48
50.0
100
AcDbBlockEnd
  0
BLOCK
  5
1438E
330
14384
100
AcDbEntity
  8
0
 48
50.0
100
AcDbBlockBegin
  2
*D26
 70
     1
 10
0.0
 20
0.0
 30
0.0
  3
*D26
  1

  0
LINE
  5
15124
330
14384
100
AcDbEntity
  8
寸法
 62
     0
 48
50.0
370
    -2
100
AcDbLine
 10
11010.4599746105
 20
4068.209044902242
 30
0.0
 11
10522.55133321324
 21
4068.209044902242
 31
0.0
  0
LINE
  5
15125
330
14384
100
AcDbEntity
  8
寸法
 62
     0
 48
50.0
370
    -2
100
AcDbLine
 10
11010.45997461049
 20
2043.209044902242
 30
0.0
 11
10522.55133321324
 21
2043.209044902242
 31
0.0
  0
LINE
  5
15126
330
14384
100
AcDbEntity
  8
寸法
 62
     0
 48
50.0
370
    -2
100
AcDbLine
 10
10562.55133321324
 20
4048.209044902241
 30
0.0
 11
10562.55133321324
 21
2063.209044902242
 31
0.0
  0
INSERT
  5
15127
330
14384
100
AcDbEntity
  8
寸法
 62
     0
 48
50.0
370
    -2
100
AcDbBlockReference
  2
_DOT
 10
10562.55133321324
 20
4068.209044902242
 30
0.0
 41
20.0
 42
20.0
 43
20.0
 50
90.0
  0
INSERT
  5
15128
330
14384
100
AcDbEntity
  8
寸法
 62
     0
 48
50.0
370
    -2
100
AcDbBlockReference
  2
_DOT
 10
10562.55133321324
 20
2043.209044902242
 30
0.0
 41
20.0
 42
20.0
 43
20.0
 50
270.0
  0
MTEXT
  5
15129
330
14384
100
AcDbEntity
  8
寸法
 62
     7
 48
50.0
100
AcDbMText
 10
10470.53952218962
 20
3055.709044902244
 30
0.0
 40
120.0
 41
0.0
 71
     5
 72
     1
  1
\A1;有効開口部高サ2025
  7
STYLE1
 11
0.0000000000000001
 21
1.0
 31
0.0
 73
     1
 44
1.0
1001
ACAD
1000
MTEXTBEGIN
1070
    73
1070
     1
1070
    44
1040
1.0
1070
    74
1070
     0
1000
MTEXTEND
  0
POINT
  5
1512A
330
14384
100
AcDbEntity
  8
DEFPOINTS
 62
     0
 48
50.0
100
AcDbPoint
 10
11030.4599746105
 20
4068.209044902242
 30
0.0
  0
POINT
  5
1512B
330
14384
100
AcDbEntity
  8
DEFPOINTS
 62
     0
 48
50.0
100
AcDbPoint
 10
11030.45997461049
 20
2043.209044902242
 30
0.0
  0
POINT
  5
1512C
330
14384
100
AcDbEntity
  8
DEFPOINTS
 62
     0
 48
50.0
100
AcDbPoint
 10
10562.55133321324
 20
2043.209044902242
 30
0.0
  0
ENDBLK
  5
1438F
330
14384
100
AcDbEntity
  8
0
 48
50.0
100
AcDbBlockEnd
  0
BLOCK
  5
1542A
330
15420
100
AcDbEntity
  8
0
 48
50.0
100
AcDbBlockBegin
  2
*D27
 70
     1
 10
0.0
 20
0.0
 30
0.0
  3
*D27
  1

  0
LINE
  5
15953
330
15420
100
AcDbEntity
  8
寸法
 62
     0
 48
50.0
370
    -2
100
AcDbLine
 10
3298.105566466832
 20
6856.548156062387
 30
0.0
 11
3298.105566466832
 21
6178.953012387363
 31
0.0
  0
LINE
  5
15954
330
15420
100
AcDbEntity
  8
寸法
 62
     0
 48
50.0
370
    -2
100
AcDbLine
 10
4564.105566466832
 20
6856.548156062387
 30
0.0
 11
4564.105566466832
 21
6178.953012387363
 31
0.0
  0
LINE
  5
15955
330
15420
100
AcDbEntity
  8
寸法
 62
     0
 48
50.0
370
    -2
100
AcDbLine
 10
3318.105566466832
 20
6218.953012387363
 30
0.0
 11
4544.105566466831
 21
6218.953012387363
 31
0.0
  0
INSERT
  5
15956
330
15420
100
AcDbEntity
  8
寸法
 62
     0
 48
50.0
370
    -2
100
AcDbBlockReference
  2
_DOT
 10
3298.105566466832
 20
6218.953012387363
 30
0.0
 41
20.0
 42
20.0
 43
20.0
 50
180.0
  0
INSERT
  5
15957
330
15420
100
AcDbEntity
  8
寸法
 62
     0
 48
50.0
370
    -2
100
AcDbBlockReference
  2
_DOT
 10
4564.105566466832
 20
6218.953012387363
 30
0.0
 41
20.0
 42
20.0
 43
20.0
  0
MTEXT
  5
15958
330
15420
100
AcDbEntity
  8
寸法
 62
     7
 48
50.0
100
AcDbMText
 10
3945.774982323914
 20
6410.964823410984
 30
0.0
 40
120.0
 41
0.0
 71
     5
 72
     1
  1
\A1;有効開口部間口\P1266
  7
STYLE1
 73
     1
 44
1.0
1001
ACAD
1000
MTEXTBEGIN
1070
    73
1070
     1
1070
    44
1040
1.0
1070
    74
1070
     0
1000
MTEXTEND
  0
POINT
  5
15959
330
15420
100
AcDbEntity
  8
DEFPOINTS
 62
     0
 48
50.0
100
AcDbPoint
 10
3298.105566466832
 20
6876.548156062387
 30
0.0
  0
POINT
  5
1595A
330
15420
100
AcDbEntity
  8
DEFPOINTS
 62
     0
 48
50.0
100
AcDbPoint
 10
4564.105566466832
 20
6876.548156062387
 30
0.0
  0
POINT
  5
1595B
330
15420
100
AcDbEntity
  8
DEFPOINTS
 62
     0
 48
50.0
100
AcDbPoint
 10
4564.105566466832
 20
6218.953012387363
 30
0.0
  0
ENDBLK
  5
1542B
330
15420
100
AcDbEntity
  8
0
 48
50.0
100
AcDbBlockEnd
  0
BLOCK
  5
157C2
330
157B8
100
AcDbEntity
  8
0
 48
50.0
100
AcDbBlockBegin
  2
*D28
 70
     1
 10
0.0
 20
0.0
 30
0.0
  3
*D28
  1

  0
LINE
  5
1594A
330
157B8
100
AcDbEntity
  8
寸法
 62
     0
 48
50.0
370
    -2
100
AcDbLine
 10
2811.10556646683
 20
6933.54815606238
 30
0.0
 11
2811.10556646683
 21
5588.466198559535
 31
0.0
  0
LINE
  5
1594B
330
157B8
100
AcDbEntity
  8
寸法
 62
     0
 48
50.0
370
    -2
100
AcDbLine
 10
5441.105566466831
 20
6988.54815606238
 30
0.0
 11
5441.105566466831
 21
5588.466198559535
 31
0.0
  0
LINE
  5
1594C
330
157B8
100
AcDbEntity
  8
寸法
 62
     0
 48
50.0
370
    -2
100
AcDbLine
 10
2831.10556646683
 20
5628.466198559535
 30
0.0
 11
5421.105566466832
 21
5628.466198559535
 31
0.0
  0
INSERT
  5
1594D
330
157B8
100
AcDbEntity
  8
寸法
 62
     0
 48
50.0
370
    -2
100
AcDbBlockReference
  2
_DOT
 10
2811.10556646683
 20
5628.466198559535
 30
0.0
 41
20.0
 42
20.0
 43
20.0
 50
180.0
  0
INSERT
  5
1594E
330
157B8
100
AcDbEntity
  8
寸法
 62
     0
 48
50.0
370
    -2
100
AcDbBlockReference
  2
_DOT
 10
5441.105566466831
 20
5628.466198559535
 30
0.0
 41
20.0
 42
20.0
 43
20.0
  0
MTEXT
  5
1594F
330
157B8
100
AcDbEntity
  8
寸法
 62
     7
 48
50.0
100
AcDbMText
 10
4126.105566466831
 20
5720.478009583157
 30
0.0
 40
120.0
 41
0.0
 71
     5
 72
     1
  1
\A1;2630
  7
STYLE1
 73
     1
 44
1.0
1001
ACAD
1000
MTEXTBEGIN
1070
    73
1070
     1
1070
    44
1040
1.0
1070
    74
1070
     0
1000
MTEXTEND
  0
POINT
  5
15950
330
157B8
100
AcDbEntity
  8
DEFPOINTS
 62
     0
 48
50.0
100
AcDbPoint
 10
2811.10556646683
 20
6953.548156062381
 30
0.0
  0
POINT
  5
15951
330
157B8
100
AcDbEntity
  8
DEFPOINTS
 62
     0
 48
50.0
100
AcDbPoint
 10
5441.105566466831
 20
7008.548156062381
 30
0.0
  0
POINT
  5
15952
330
157B8
100
AcDbEntity
  8
DEFPOINTS
 62
     0
 48
50.0
100
AcDbPoint
 10
5441.105566466831
 20
5628.466198559535
 30
0.0
  0
ENDBLK
  5
157C3
330
157B8
100
AcDbEntity
  8
0
 48
50.0
100
AcDbBlockEnd
  0
BLOCK
  5
157CE
330
157C4
100
AcDbEntity
  8
0
 48
50.0
100
AcDbBlockBegin
  2
*D29
 70
     1
 10
0.0
 20
0.0
 30
0.0
  3
*D29
  1

  0
LINE
  5
15941
330
157C4
100
AcDbEntity
  8
寸法
 62
     0
 48
50.0
370
    -2
100
AcDbLine
 10
5441.105566466831
 20
6988.548156062377
 30
0.0
 11
5441.105566466831
 21
5588.466198559535
 31
0.0
  0
LINE
  5
15942
330
157C4
100
AcDbEntity
  8
寸法
 62
     0
 48
50.0
370
    -2
100
AcDbLine
 10
8071.105566466831
 20
6933.54815606238
 30
0.0
 11
8071.105566466831
 21
5588.466198559535
 31
0.0
  0
LINE
  5
15943
330
157C4
100
AcDbEntity
  8
寸法
 62
     0
 48
50.0
370
    -2
100
AcDbLine
 10
5461.105566466832
 20
5628.466198559535
 30
0.0
 11
8051.105566466832
 21
5628.466198559535
 31
0.0
  0
INSERT
  5
15944
330
157C4
100
AcDbEntity
  8
寸法
 62
     0
 48
50.0
370
    -2
100
AcDbBlockReference
  2
_DOT
 10
5441.105566466831
 20
5628.466198559535
 30
0.0
 41
20.0
 42
20.0
 43
20.0
 50
180.0
  0
INSERT
  5
15945
330
157C4
100
AcDbEntity
  8
寸法
 62
     0
 48
50.0
370
    -2
100
AcDbBlockReference
  2
_DOT
 10
8071.105566466831
 20
5628.466198559535
 30
0.0
 41
20.0
 42
20.0
 43
20.0
  0
MTEXT
  5
15946
330
157C4
100
AcDbEntity
  8
寸法
 62
     7
 48
50.0
100
AcDbMText
 10
6756.105566466832
 20
5720.478009583157
 30
0.0
 40
120.0
 41
0.0
 71
     5
 72
     1
  1
\A1;2630
  7
STYLE1
 73
     1
 44
1.0
1001
ACAD
1000
MTEXTBEGIN
1070
    73
1070
     1
1070
    44
1040
1.0
1070
    74
1070
     0
1000
MTEXTEND
  0
POINT
  5
15947
330
157C4
100
AcDbEntity
  8
DEFPOINTS
 62
     0
 48
50.0
100
AcDbPoint
 10
5441.105566466831
 20
7008.548156062376
 30
0.0
  0
POINT
  5
15948
330
157C4
100
AcDbEntity
  8
DEFPOINTS
 62
     0
 48
50.0
100
AcDbPoint
 10
8071.105566466831
 20
6953.548156062381
 30
0.0
  0
POINT
  5
15949
330
157C4
100
AcDbEntity
  8
DEFPOINTS
 62
     0
 48
50.0
100
AcDbPoint
 10
8071.105566466831
 20
5628.466198559535
 30
0.0
  0
ENDBLK
  5
157CF
330
157C4
100
AcDbEntity
  8
0
 48
50.0
100
AcDbBlockEnd
  0
BLOCK
  5
157DC
330
157D0
100
AcDbEntity
  8
0
 48
50.0
100
AcDbBlockBegin
  2
*D30
 70
     1
 10
0.0
 20
0.0
 30
0.0
  3
*D30
  1

  0
LINE
  5
15936
330
157D0
100
AcDbEntity
  8
寸法
 62
     0
 48
50.0
370
    -2
100
AcDbLine
 10
2791.105566466831
 20
6953.548156062381
 30
0.0
 11
2439.786752562782
 21
6953.548156062381
 31
0.0
  0
LINE
  5
15937
330
157D0
100
AcDbEntity
  8
寸法
 62
     0
 48
50.0
370
    -2
100
AcDbLine
 10
3239.105566466832
 20
6878.548156062354
 30
0.0
 11
2439.786752562782
 21
6878.548156062354
 31
0.0
  0
LINE
  5
15938
330
157D0
100
AcDbEntity
  8
寸法
 62
     0
 48
50.0
370
    -2
100
AcDbLine
 10
2479.786752562782
 20
6973.548156062381
 30
0.0
 11
2479.786752562782
 21
6993.54815606238
 31
0.0
  0
LINE
  5
15939
330
157D0
100
AcDbEntity
  8
寸法
 62
     0
 48
50.0
370
    -2
100
AcDbLine
 10
2479.786752562782
 20
6858.548156062354
 30
0.0
 11
2479.786752562782
 21
6637.577593313874
 31
0.0
  0
LINE
  5
1593A
330
157D0
100
AcDbEntity
  8
寸法
 62
     0
 48
50.0
370
    -2
100
AcDbLine
 10
2479.786752562782
 20
6953.548156062381
 30
0.0
 11
2479.786752562782
 21
6878.548156062354
 31
0.0
  0
INSERT
  5
1593B
330
157D0
100
AcDbEntity
  8
寸法
 62
     0
 48
50.0
370
    -2
100
AcDbBlockReference
  2
_DOT
 10
2479.786752562782
 20
6953.548156062381
 30
0.0
 41
20.0
 42
20.0
 43
20.0
 50
270.0
  0
INSERT
  5
1593C
330
157D0
100
AcDbEntity
  8
寸法
 62
     0
 48
50.0
370
    -2
100
AcDbBlockReference
  2
_DOT
 10
2479.786752562782
 20
6878.548156062354
 30
0.0
 41
20.0
 42
20.0
 43
20.0
 50
90.0
  0
MTEXT
  5
1593D
330
157D0
100
AcDbEntity
  8
寸法
 62
     7
 48
50.0
100
AcDbMText
 10
2387.786752562781
 20
6738.062874688115
 30
0.0
 40
120.0
 41
0.0
 71
     5
 72
     1
  1
\A1;75
  7
STYLE1
 11
0.0000000000000001
 21
1.0
 31
0.0
 73
     1
 44
1.0
1001
ACAD
1000
MTEXTBEGIN
1070
    73
1070
     1
1070
    44
1040
1.0
1070
    74
1070
     0
1000
MTEXTEND
  0
POINT
  5
1593E
330
157D0
100
AcDbEntity
  8
DEFPOINTS
 62
     0
 48
50.0
100
AcDbPoint
 10
2811.105566466831
 20
6953.548156062381
 30
0.0
  0
POINT
  5
1593F
330
157D0
100
AcDbEntity
  8
DEFPOINTS
 62
     0
 48
50.0
100
AcDbPoint
 10
3259.105566466832
 20
6878.548156062354
 30
0.0
  0
POINT
  5
15940
330
157D0
100
AcDbEntity
  8
DEFPOINTS
 62
     0
 48
50.0
100
AcDbPoint
 10
2479.786752562782
 20
6878.548156062354
 30
0.0
  0
ENDBLK
  5
157DD
330
157D0
100
AcDbEntity
  8
0
 48
50.0
100
AcDbBlockEnd
  0
BLOCK
  5
157E8
330
157DE
100
AcDbEntity
  8
0
 48
50.0
100
AcDbBlockBegin
  2
*D31
 70
     1
 10
0.0
 20
0.0
 30
0.0
  3
*D31
  1

  0
LINE
  5
1592D
330
157DE
100
AcDbEntity
  8
寸法
 62
     0
 48
50.0
370
    -2
100
AcDbLine
 10
3259.105566466832
 20
6856.548156062387
 30
0.0
 11
3259.105566466832
 21
5857.591148553131
 31
0.0
  0
LINE
  5
1592E
330
157DE
100
AcDbEntity
  8
寸法
 62
     0
 48
50.0
370
    -2
100
AcDbLine
 10
5413.105566466832
 20
6856.548156062387
 30
0.0
 11
5413.105566466832
 21
5857.591148553131
 31
0.0
  0
LINE
  5
1592F
330
157DE
100
AcDbEntity
  8
寸法
 62
     0
 48
50.0
370
    -2
100
AcDbLine
 10
3259.105566466832
 20
5917.591148553132
 30
0.0
 11
5413.105566466832
 21
5917.591148553132
 31
0.0
  0
INSERT
  5
15930
330
157DE
100
AcDbEntity
  8
寸法
 62
     0
 48
50.0
370
    -2
100
AcDbBlockReference
  2
_DOTSMALL
 10
3259.105566466832
 20
5917.591148553132
 30
0.0
 41
100.0
 42
100.0
 43
100.0
 50
180.0
  0
INSERT
  5
15931
330
157DE
100
AcDbEntity
  8
寸法
 62
     0
 48
50.0
370
    -2
100
AcDbBlockReference
  2
_DOTSMALL
 10
5413.105566466832
 20
5917.591148553132
 30
0.0
 41
100.0
 42
100.0
 43
100.0
  0
MTEXT
  5
15932
330
157DE
100
AcDbEntity
  8
寸法
 62
     7
 48
50.0
100
AcDbMText
 10
4313.227567115689
 20
6017.602959576753
 30
0.0
 40
120.0
 41
0.0
 71
     5
 72
     1
  1
\A1;2154
  7
STYLE1
 73
     1
 44
1.0
1001
ACAD
1000
MTEXTBEGIN
1070
    73
1070
     1
1070
    44
1040
1.0
1070
    74
1070
     0
1000
MTEXTEND
  0
POINT
  5
15933
330
157DE
100
AcDbEntity
  8
DEFPOINTS
 62
     0
 48
50.0
100
AcDbPoint
 10
3259.105566466832
 20
6876.548156062385
 30
0.0
  0
POINT
  5
15934
330
157DE
100
AcDbEntity
  8
DEFPOINTS
 62
     0
 48
50.0
100
AcDbPoint
 10
5413.105566466832
 20
6876.548156062385
 30
0.0
  0
POINT
  5
15935
330
157DE
100
AcDbEntity
  8
DEFPOINTS
 62
     0
 48
50.0
100
AcDbPoint
 10
5413.105566466832
 20
5917.591148553132
 30
0.0
  0
ENDBLK
  5
157E9
330
157DE
100
AcDbEntity
  8
0
 48
50.0
100
AcDbBlockEnd
  0
ENDSEC
  0
SECTION
  2
ENTITIES
  0
MTEXT
  5
763F
330
747D
100
AcDbEntity
  8
0
100
AcDbMText
 10
302.846345836809
 20
280.1983726409901
 30
0.0
 40
3.5
 41
5.323721266742722
 71
     1
 72
     5
  1

  7
MSMINCHO
 73
     1
 44
1.0
1001
ACAD
1000
MTEXTBEGIN
1070
    73
1070
     1
1070
    44
1040
1.0
1070
    74
1070
     0
1000
MTEXTEND
  0
INSERT
  5
F235
330
747D
100
AcDbEntity
  8
0
100
AcDbBlockReference
  2
作図枠S50
 10
0.0
 20
0.0
 30
0.0
 41
0.8
 42
0.8
 43
0.8
  0
LINE
  5
10B56
330
747D
100
AcDbEntity
  8
補助
  6
PHANTOM
 62
   230
 48
50.0
100
AcDbLine
 10
140.0
 20
0.0
 30
0.0
 11
139.9999999999995
 21
11409.6
 31
0.0
  0
LINE
  5
10B57
330
747D
100
AcDbEntity
  8
補助
  6
PHANTOM
 62
   230
 48
50.0
100
AcDbLine
 10
139.9999999999995
 20
11409.6
 30
0.0
 11
16307.2
 21
11409.6
 31
0.0
  0
LINE
  5
10B59
330
747D
100
AcDbEntity
  8
仕様書枠
  6
Continuous
 48
50.0
100
AcDbLine
 10
13107.2
 20
1200.0
 30
0.0
 11
13107.2
 21
-0.0000000000000729
 31
0.0
  0
LINE
  5
10B5C
330
747D
100
AcDbEntity
  8
仕様書枠
 48
50.0
100
AcDbLine
 10
16307.2
 20
1200.0
 30
0.0
 11
16307.2
 21
-0.0000000000000909
 31
0.0
  0
LINE
  5
10B5D
330
747D
100
AcDbEntity
  8
仕様書枠
 48
50.0
100
AcDbLine
 10
140.0
 20
0.0
 30
0.0
 11
16307.2
 21
-0.0000000000000909
 31
0.0
  0
LINE
  5
10B5E
330
747D
100
AcDbEntity
  8
補助
  6
PHANTOM
 62
   230
 48
50.0
100
AcDbLine
 10
16307.2
 20
11409.6
 30
0.0
 11
16307.2
 21
1200.0
 31
0.0
  0
LINE
  5
10B6C
330
747D
100
AcDbEntity
  8
仕様書枠
 48
50.0
100
AcDbLine
 10
13107.2
 20
1200.0
 30
0.0
 11
16307.2
 21
1200.0
 31
0.0
  0
LINE
  5
10B6D
330
747D
100
AcDbEntity
  8
補助
  6
PHANTOM
 62
   230
 48
50.0
100
AcDbLine
 10
13107.2
 20
11409.6
 30
0.0
 11
13107.2
 21
4800.0
 31
0.0
  0
LINE
  5
10B6F
330
747D
100
AcDbEntity
  8
補助
  6
PHANTOM
 62
   230
 48
50.0
100
AcDbLine
 10
13107.2
 20
4800.0
 30
0.0
 11
16307.2
 21
4800.0
 31
0.0
  0
LINE
  5
10B72
330
747D
100
AcDbEntity
  8
文字
 62
     7
 48
50.0
100
AcDbLine
 10
13187.2
 20
400.0
 30
0.0
 11
16227.2
 21
400.0
 31
0.0
  0
TEXT
  5
10B73
330
747D
100
AcDbEntity
  8
文字
 62
     7
 48
50.0
100
AcDbText
 10
13162.9790565769
 20
895.0906074299405
 30
0.0
 40
200.0
  1
外 形 図
  7
STYLE2
100
AcDbText
  0
TEXT
  5
10B74
330
747D
100
AcDbEntity
  8
文字
 62
     7
 48
50.0
100
AcDbText
 10
13201.43669998441
 20
477.2740661031255
 30
0.0
 40
160.0
  1
機種名
  7
STYLE2
100
AcDbText
  0
TEXT
  5
10B76
330
747D
100
AcDbEntity
  8
文字
 62
     7
 48
50.0
100
AcDbText
 10
13209.4053442172
 20
76.09434707649343
 30
0.0
 40
100.0
  1
○床面積 ： 18.41㎡(5.58坪) 　
  7
STYLE2
100
AcDbText
  0
TEXT
  5
10B79
330
747D
100
AcDbEntity
  8
文字
 62
     7
 48
50.0
100
AcDbText
 10
14524.131837222
 20
1031.557706291228
 30
0.0
 40
100.0
  1
NO.24     <縮尺> S=1/40
  7
STYLE2
100
AcDbText
  0
LINE
  5
10B7B
330
747D
100
AcDbEntity
  8
仕様書枠
 48
50.0
100
AcDbLine
 10
13107.2
 20
800.0
 30
0.0
 11
14251.2
 21
800.0
 31
0.0
  0
LINE
  5
10B88
330
747D
100
AcDbEntity
  8
仕様書枠
  6
Continuous
 48
50.0
100
AcDbLine
 10
14251.2
 20
1200.0
 30
0.0
 11
14251.2
 21
800.0
 31
0.0
  0
TEXT
  5
10EA8
330
747D
100
AcDbEntity
  8
文字
 62
     7
 48
50.0
100
AcDbText
 10
14939.43219896481
 20
838.2527270729188
 30
0.0
 40
100.0
  1
～一般型～
  7
STYLE2
100
AcDbText
  0
LINE
  5
138CD
330
747D
100
AcDbEntity
  8
部品1
100
AcDbLine
 10
8043.105566466829
 20
9528.548156062385
 30
0.0
 11
8071.105566466831
 21
9528.548156062385
 31
0.0
  0
LINE
  5
138CE
330
747D
100
AcDbEntity
  8
部品1
100
AcDbLine
 10
5496.105566466831
 20
9528.548156062383
 30
0.0
 11
8016.105566466832
 21
9528.548156062383
 31
0.0
  0
LINE
  5
138CF
330
747D
100
AcDbEntity
  8
部品1
100
AcDbLine
 10
2839.105566466831
 20
9528.548156062385
 30
0.0
 11
2811.105566466831
 21
9528.548156062385
 31
0.0
  0
LINE
  5
138D0
330
747D
100
AcDbEntity
  8
部品1
100
AcDbLine
 10
5386.105566466831
 20
9528.548156062383
 30
0.0
 11
2866.105566466831
 21
9528.548156062379
 31
0.0
  0
LINE
  5
138D1
330
747D
100
AcDbEntity
  8
細線
 48
50.0
100
AcDbLine
 10
3208.605566466835
 20
4117.209044902243
 30
0.0
 11
3208.605566466839
 21
2027.209044902244
 31
0.0
  0
LINE
  5
138D2
330
747D
100
AcDbEntity
  8
細線
 48
50.0
100
AcDbLine
 10
3223.605566466835
 20
4117.209044902243
 30
0.0
 11
3223.605566466839
 21
2027.209044902244
 31
0.0
  0
LINE
  5
138D3
330
747D
100
AcDbEntity
  8
細線
 48
50.0
100
AcDbLine
 10
3083.605566466835
 20
4117.209044902243
 30
0.0
 11
3083.605566466838
 21
2027.209044902244
 31
0.0
  0
LINE
  5
138D4
330
747D
100
AcDbEntity
  8
細線
 48
50.0
100
AcDbLine
 10
3068.605566466835
 20
4117.209044902243
 30
0.0
 11
3068.605566466839
 21
2027.209044902244
 31
0.0
  0
LINE
  5
138D5
330
747D
100
AcDbEntity
  8
細線
 48
50.0
100
AcDbLine
 10
2928.605566466835
 20
4117.209044902243
 30
0.0
 11
2928.605566466839
 21
2027.209044902244
 31
0.0
  0
LINE
  5
138D6
330
747D
100
AcDbEntity
  8
細線
 48
50.0
100
AcDbLine
 10
2943.605566466835
 20
4117.209044902243
 30
0.0
 11
2943.605566466839
 21
2027.209044902244
 31
0.0
  0
LINE
  5
138D7
330
747D
100
AcDbEntity
  8
部品1
100
AcDbLine
 10
8043.105566466829
 20
8688.548156062385
 30
0.0
 11
8071.105566466831
 21
8688.548156062385
 31
0.0
  0
LINE
  5
138D8
330
747D
100
AcDbEntity
  8
部品1
100
AcDbLine
 10
5496.105566466831
 20
8688.548156062383
 30
0.0
 11
8016.105566466832
 21
8688.548156062383
 31
0.0
  0
LINE
  5
138D9
330
747D
100
AcDbEntity
  8
部品1
100
AcDbLine
 10
2839.105566466831
 20
8688.548156062385
 30
0.0
 11
2811.105566466831
 21
8688.548156062385
 31
0.0
  0
LINE
  5
138DA
330
747D
100
AcDbEntity
  8
部品1
100
AcDbLine
 10
5386.105566466831
 20
8688.548156062383
 30
0.0
 11
2866.105566466831
 21
8688.548156062379
 31
0.0
  0
DIMENSION
  5
138DB
330
747D
100
AcDbEntity
  8
寸法
 48
50.0
100
AcDbDimension
  2
*D7
 10
8071.105566466831
 20
10798.26056608117
 30
0.0
 11
8465.272233133498
 21
10798.26056608117
 31
0.0
 70
   160
 71
     5
 42
55.0
  3
INABA_S40
100
AcDbAlignedDimension
 13
8016.105566466832
 23
10423.54815606238
 33
0.0
 14
8071.105566466831
 24
10423.54815606238
 34
0.0
100
AcDbRotatedDimension
1001
ACAD
1000
DSTYLE
1002
{
1070
   287
1070
     3
1070
    41
1040
0.5
1070
    44
1040
1.0
1070
   147
1040
0.8
1070
   271
1070
     2
1070
   272
1070
     2
1070
   289
1070
     3
1070
   340
1005
F706
1070
     6
1000
DOT
1070
     7
1000
DOT
1002
}
  0
DIMENSION
  5
138DC
330
747D
100
AcDbEntity
  8
寸法
 48
50.0
100
AcDbDimension
  2
*D8
 10
9141.852683511185
 20
6953.548156062381
 30
0.0
 11
9049.852683511183
 21
8688.548156062383
 31
0.0
 70
    32
 71
     5
 42
3470.000000000001
  3
INABA_S40
100
AcDbAlignedDimension
 13
8071.105566466831
 23
10423.54815606238
 33
0.0
 14
8071.105566466831
 24
6953.548156062381
 34
0.0
 50
90.0
100
AcDbRotatedDimension
1001
ACAD
1000
DSTYLE
1002
{
1070
   287
1070
     3
1070
    41
1040
0.5
1070
    44
1040
1.0
1070
   147
1040
0.8
1070
   271
1070
     2
1070
   272
1070
     2
1070
   289
1070
     3
1070
   340
1005
F706
1070
     6
1000
DOT
1070
     7
1000
DOT
1002
}
  0
DIMENSION
  5
138DD
330
747D
100
AcDbEntity
  8
寸法
 48
50.0
100
AcDbDimension
  2
*D9
 10
8841.852683511186
 20
6953.548156062381
 30
0.0
 11
8841.852683511184
 21
6559.381489395716
 31
0.0
 70
   160
 71
     5
 42
54.99999999999727
  3
INABA_S40
100
AcDbAlignedDimension
 13
8071.105566466831
 23
7008.548156062378
 33
0.0
 14
8071.105566466831
 24
6953.548156062381
 34
0.0
 50
90.0
100
AcDbRotatedDimension
1001
ACAD
1000
DSTYLE
1002
{
1070
   287
1070
     3
1070
    41
1040
0.5
1070
    44
1040
1.0
1070
   147
1040
0.8
1070
   271
1070
     2
1070
   272
1070
     2
1070
   289
1070
     3
1070
   340
1005
F706
1070
     6
1000
DOT
1070
     7
1000
DOT
1002
}
  0
DIMENSION
  5
138DE
330
747D
100
AcDbEntity
  8
寸法
 48
50.0
100
AcDbDimension
  2
*D10
 10
8841.852683511184
 20
7008.548156062378
 30
0.0
 11
8749.84087248756
 21
8688.548156062383
 31
0.0
 70
    32
  1
8X420=<>
 71
     5
 42
3360.000000000007
  3
INABA_S40
100
AcDbAlignedDimension
 13
8071.105566466831
 23
10368.54815606238
 33
0.0
 14
8071.105566466831
 24
7008.548156062378
 34
0.0
 50
90.0
100
AcDbRotatedDimension
1001
ACAD
1000
DSTYLE
1002
{
1070
   287
1070
     3
1070
    41
1040
0.5
1070
    44
1040
1.0
1070
   147
1040
0.8
1070
   271
1070
     2
1070
   272
1070
     2
1070
   289
1070
     3
1070
   340
1005
F706
1070
     6
1000
DOT
1070
     7
1000
DOT
1002
}
  0
DIMENSION
  5
138DF
330
747D
100
AcDbEntity
  8
寸法
 48
50.0
100
AcDbDimension
  2
*D11
 10
8841.852683511186
 20
10368.54815606238
 30
0.0
 11
8841.852683511184
 21
10817.71482272905
 31
0.0
 70
   160
 71
     5
 42
54.99999999999636
  3
INABA_S40
100
AcDbAlignedDimension
 13
8071.105566466831
 23
10423.54815606238
 33
0.0
 14
8071.105566466831
 24
10368.54815606238
 34
0.0
 50
90.0
100
AcDbRotatedDimension
1001
ACAD
1000
DSTYLE
1002
{
1070
   287
1070
     3
1070
    41
1040
0.5
1070
    44
1040
1.0
1070
   147
1040
0.8
1070
   271
1070
     2
1070
   272
1070
     2
1070
   289
1070
     3
1070
   340
1005
F706
1070
     6
1000
DOT
1070
     7
1000
DOT
1002
}
  0
LINE
  5
138E0
330
747D
100
AcDbEntity
  8
Ｇ_Ｌ
 48
50.0
100
AcDbLine
 10
1766.005610658249
 20
1877.209044902242
 30
0.0
 11
15307.97391633054
 21
1877.209044902242
 31
0.0
  0
LINE
  5
138E1
330
747D
100
AcDbEntity
  8
部品1
100
AcDbLine
 10
2811.105566466831
 20
4117.209044902243
 30
0.0
 11
8071.105566466831
 21
4117.209044902243
 31
0.0
  0
LINE
  5
138E2
330
747D
100
AcDbEntity
  8
部品1
100
AcDbLine
 10
2811.105566466831
 20
1977.209044902243
 30
0.0
 11
5441.105566466831
 21
1977.209044902243
 31
0.0
  0
LINE
  5
138E3
330
747D
100
AcDbEntity
  8
部品1
100
AcDbLine
 10
2866.105566466831
 20
4117.209044902243
 30
0.0
 11
2866.105566466831
 21
2027.209044902242
 31
0.0
  0
LINE
  5
138E4
330
747D
100
AcDbEntity
  8
部品1
100
AcDbLine
 10
2811.105566466831
 20
4211.209044902248
 30
0.0
 11
2811.105566466831
 21
1877.209044902242
 31
0.0
  0
TEXT
  5
138E5
330
747D
100
AcDbEntity
  8
部品1
100
AcDbText
 10
1978.174871119096
 20
1892.050749773232
 30
0.0
 40
125.0
  1
G.L
  7
MSGOTHIC
100
AcDbText
  0
LINE
  5
138E6
330
747D
100
AcDbEntity
  8
部品1
100
AcDbLine
 10
1835.690917419277
 20
1981.132093356375
 30
0.0
 11
1955.690917419277
 21
1981.132093356375
 31
0.0
  0
LINE
  5
138E7
330
747D
100
AcDbEntity
  8
部品1
100
AcDbLine
 10
1955.690917419277
 20
1981.132093356375
 30
0.0
 11
1895.690917419277
 21
1877.209044902242
 31
0.0
  0
LINE
  5
138E8
330
747D
100
AcDbEntity
  8
部品1
100
AcDbLine
 10
1895.690917419277
 20
1877.209044902242
 30
0.0
 11
1835.690917419277
 21
1981.132093356375
 31
0.0
  0
LINE
  5
138E9
330
747D
100
AcDbEntity
  8
部品1
 48
50.0
100
AcDbLine
 10
3259.105566466831
 20
2027.209044902242
 30
0.0
 11
2811.105566466831
 21
2027.209044902242
 31
0.0
  0
LINE
  5
138EA
330
747D
100
AcDbEntity
  8
部品1
100
AcDbLine
 10
5441.105566466831
 20
1977.209044902243
 30
0.0
 11
8071.105566466831
 21
1977.209044902243
 31
0.0
  0
LINE
  5
138EB
330
747D
100
AcDbEntity
  8
部品1
 48
50.0
100
AcDbLine
 10
5441.105566466831
 20
2027.209044902242
 30
0.0
 11
8071.105566466831
 21
2027.209044902242
 31
0.0
  0
LINE
  5
138EC
330
747D
100
AcDbEntity
  8
部品1
100
AcDbLine
 10
5496.105566466831
 20
4117.209044902243
 30
0.0
 11
5496.105566466831
 21
2027.209044902242
 31
0.0
  0
LINE
  5
138ED
330
747D
100
AcDbEntity
  8
部品1
100
AcDbLine
 10
5916.105566466831
 20
4117.209044902243
 30
0.0
 11
5916.105566466831
 21
2027.209044902242
 31
0.0
  0
LINE
  5
138EE
330
747D
100
AcDbEntity
  8
部品1
 48
50.0
100
AcDbLine
 10
5441.105566466831
 20
2027.209044902242
 30
0.0
 11
5413.105566466831
 21
2027.209044902242
 31
0.0
  0
LINE
  5
138EF
330
747D
100
AcDbEntity
  8
部品1
100
AcDbLine
 10
5441.105566466831
 20
2027.209044902242
 30
0.0
 11
5441.105566466831
 21
1977.209044902243
 31
0.0
  0
LINE
  5
138F0
330
747D
100
AcDbEntity
  8
部品1
100
AcDbLine
 10
5441.105566466831
 20
4117.209044902243
 30
0.0
 11
5441.105566466831
 21
4211.209044902247
 31
0.0
  0
LINE
  5
138F1
330
747D
100
AcDbEntity
  8
部品1
100
AcDbLine
 10
7176.105566466846
 20
4117.209044902243
 30
0.0
 11
7176.105566466842
 21
2027.209044902242
 31
0.0
  0
LINE
  5
138F2
330
747D
100
AcDbEntity
  8
部品1
100
AcDbLine
 10
6756.105566466846
 20
4117.209044902243
 30
0.0
 11
6756.105566466842
 21
2027.209044902242
 31
0.0
  0
LINE
  5
138F3
330
747D
100
AcDbEntity
  8
部品1
100
AcDbLine
 10
6756.105566466832
 20
4117.209044902243
 30
0.0
 11
6756.105566466832
 21
2027.209044902242
 31
0.0
  0
LINE
  5
138F4
330
747D
100
AcDbEntity
  8
部品1
100
AcDbLine
 10
6336.105566466831
 20
4117.209044902243
 30
0.0
 11
6336.105566466831
 21
2027.209044902242
 31
0.0
  0
LINE
  5
138F5
330
747D
100
AcDbEntity
  8
部品1
100
AcDbLine
 10
7596.105566466831
 20
4117.209044902244
 30
0.0
 11
7596.105566466817
 21
2027.209044902242
 31
0.0
  0
LINE
  5
138F6
330
747D
100
AcDbEntity
  8
部品1
100
AcDbLine
 10
8016.105566466832
 20
4117.209044902243
 30
0.0
 11
8016.10556646683
 21
2027.209044902242
 31
0.0
  0
LINE
  5
138F7
330
747D
100
AcDbEntity
  8
部品1
100
AcDbLine
 10
8071.105566466831
 20
4211.209044902248
 30
0.0
 11
8071.105566466831
 21
1877.209044902242
 31
0.0
  0
LINE
  5
138F8
330
747D
100
AcDbEntity
  8
部品1
100
AcDbLine
 10
2866.105566466828
 20
10368.54815606238
 30
0.0
 11
5386.105566466831
 21
10368.54815606239
 31
0.0
  0
LINE
  5
138F9
330
747D
100
AcDbEntity
  8
部品1
100
AcDbLine
 10
3706.105566466831
 20
10395.54815606239
 30
0.0
 11
2839.105566466831
 21
10395.54815606238
 31
0.0
  0
LINE
  5
138FA
330
747D
100
AcDbEntity
  8
部品1
100
AcDbLine
 10
5386.105566466831
 20
7428.548156062385
 30
0.0
 11
2866.105566466831
 21
7428.548156062378
 31
0.0
  0
LINE
  5
138FB
330
747D
100
AcDbEntity
  8
部品1
100
AcDbLine
 10
5386.105566466831
 20
7848.548156062385
 30
0.0
 11
2866.105566466831
 21
7848.548156062381
 31
0.0
  0
LINE
  5
138FC
330
747D
100
AcDbEntity
  8
部品1
100
AcDbLine
 10
5386.105566466831
 20
8268.548156062383
 30
0.0
 11
2866.105566466831
 21
8268.548156062379
 31
0.0
  0
LINE
  5
138FD
330
747D
100
AcDbEntity
  8
部品1
100
AcDbLine
 10
5441.105566466831
 20
10423.54815606238
 30
0.0
 11
2811.105566466831
 21
10423.54815606238
 31
0.0
  0
LINE
  5
138FE
330
747D
100
AcDbEntity
  8
部品1
100
AcDbLine
 10
2866.105566466828
 20
7008.548156062385
 30
0.0
 11
5386.105566466831
 21
7008.548156062378
 31
0.0
  0
LINE
  5
138FF
330
747D
100
AcDbEntity
  8
部品1
100
AcDbLine
 10
2839.105566466831
 20
6981.54815606238
 30
0.0
 11
5413.105566466831
 21
6981.548156062384
 31
0.0
  0
DIMENSION
  5
13900
330
747D
100
AcDbEntity
  8
寸法
 48
50.0
100
AcDbDimension
  2
*D12
 10
8071.105566466831
 20
11098.26056608117
 30
0.0
 11
5441.105566466831
 21
11190.2723771048
 31
0.0
 70
    32
 71
     5
 42
5260.0
  3
INABA_S40
100
AcDbAlignedDimension
 13
2811.105566466831
 23
10423.54815606238
 33
0.0
 14
8071.105566466831
 24
10423.54815606238
 34
0.0
100
AcDbRotatedDimension
1001
ACAD
1000
DSTYLE
1002
{
1070
   287
1070
     3
1070
    41
1040
0.5
1070
    44
1040
1.0
1070
   147
1040
0.8
1070
   271
1070
     2
1070
   272
1070
     2
1070
   289
1070
     3
1070
   340
1005
F706
1070
     6
1000
DOT
1070
     7
1000
DOT
1002
}
  0
DIMENSION
  5
13901
330
747D
100
AcDbEntity
  8
寸法
 48
50.0
100
AcDbDimension
  2
*D13
 10
5386.105566466831
 20
10798.26056608117
 30
0.0
 11
4126.105566466831
 21
10890.2723771048
 31
0.0
 70
    32
  1
6X420=<>
 71
     5
 42
2520.0
  3
INABA_S40
100
AcDbAlignedDimension
 13
2866.105566466831
 23
10423.54815606238
 33
0.0
 14
5386.105566466831
 24
10423.54815606238
 34
0.0
100
AcDbRotatedDimension
1001
ACAD
1000
DSTYLE
1002
{
1070
   287
1070
     3
1070
    41
1040
0.5
1070
    44
1040
1.0
1070
   147
1040
0.8
1070
   271
1070
     2
1070
   272
1070
     2
1070
   289
1070
     3
1070
   340
1005
F706
1070
     6
1000
DOT
1070
     7
1000
DOT
1002
}
  0
LINE
  5
13903
330
747D
100
AcDbEntity
  8
破線
  6
HIDDEN
 48
10.0
100
AcDbLine
 10
3735.605566466828
 20
10368.54815606238
 30
0.0
 11
3735.605566466824
 21
7008.548156062381
 31
0.0
  0
LINE
  5
13904
330
747D
100
AcDbEntity
  8
破線
  6
HIDDEN
 48
10.0
100
AcDbLine
 10
3685.605566466831
 20
10368.54815606238
 30
0.0
 11
3685.605566466824
 21
7008.548156062385
 31
0.0
  0
LINE
  5
13905
330
747D
100
AcDbEntity
  8
部品1
100
AcDbLine
 10
2866.105566466839
 20
10368.54815606238
 30
0.0
 11
2866.105566466828
 21
7008.548156062385
 31
0.0
  0
LINE
  5
13906
330
747D
100
AcDbEntity
  8
破線
  6
HIDDEN
 48
10.0
100
AcDbLine
 10
2889.605566466839
 20
10345.04815606238
 30
0.0
 11
2889.605566466828
 21
7032.048156062384
 31
0.0
  0
LINE
  5
13907
330
747D
100
AcDbEntity
  8
部品1
100
AcDbLine
 10
2811.105566466831
 20
10423.54815606238
 30
0.0
 11
2811.105566466831
 21
6953.548156062381
 31
0.0
  0
LINE
  5
13908
330
747D
100
AcDbEntity
  8
部品1
100
AcDbLine
 10
2839.105566466831
 20
10395.54815606238
 30
0.0
 11
2839.105566466831
 21
8486.548156062383
 31
0.0
  0
LINE
  5
13909
330
747D
100
AcDbEntity
  8
部品1
100
AcDbLine
 10
2839.105566466831
 20
10368.54815606238
 30
0.0
 11
2839.105566466831
 21
6981.54815606238
 31
0.0
  0
LINE
  5
1390A
330
747D
100
AcDbEntity
  8
破線
  6
HIDDEN
 48
10.0
100
AcDbLine
 10
2889.605566466828
 20
7032.048156062384
 30
0.0
 11
3685.605566466824
 21
7032.04815606238
 31
0.0
  0
LINE
  5
1390B
330
747D
100
AcDbEntity
  8
部品1
100
AcDbLine
 10
2811.105566466831
 20
6953.548156062381
 30
0.0
 11
3286.105566466832
 21
6953.548156062378
 31
0.0
  0
LINE
  5
1390C
330
747D
100
AcDbEntity
  8
部品1
 48
50.0
100
AcDbLine
 10
2839.105566466831
 20
6981.54815606238
 30
0.0
 11
2866.105566466828
 21
7008.548156062385
 31
0.0
  0
LINE
  5
1390D
330
747D
100
AcDbEntity
  8
部品1
100
AcDbLine
 10
2866.105566466831
 20
6953.548156062378
 30
0.0
 11
2866.105566466831
 21
6981.54815606238
 31
0.0
  0
LINE
  5
1390E
330
747D
100
AcDbEntity
  8
部品1
100
AcDbLine
 10
2839.105566466831
 20
7008.548156062378
 30
0.0
 11
2811.105566466831
 21
7008.548156062378
 31
0.0
  0
LINE
  5
1390F
330
747D
100
AcDbEntity
  8
部品1
100
AcDbLine
 10
3286.105566466832
 20
6953.548156062386
 30
0.0
 11
3286.105566466832
 21
6981.548156062387
 31
0.0
  0
LINE
  5
13910
330
747D
100
AcDbEntity
  8
部品1
100
AcDbLine
 10
3286.105566466832
 20
6953.548156062378
 30
0.0
 11
3286.105566466832
 21
6981.54815606238
 31
0.0
  0
LINE
  5
13911
330
747D
100
AcDbEntity
  8
部品1
100
AcDbLine
 10
2839.105566466831
 20
7428.548156062385
 30
0.0
 11
2811.105566466831
 21
7428.548156062385
 31
0.0
  0
LINE
  5
13912
330
747D
100
AcDbEntity
  8
部品1
100
AcDbLine
 10
2839.105566466831
 20
7848.548156062385
 30
0.0
 11
2811.105566466831
 21
7848.548156062385
 31
0.0
  0
LINE
  5
13913
330
747D
100
AcDbEntity
  8
部品1
100
AcDbLine
 10
2839.105566466831
 20
8268.548156062385
 30
0.0
 11
2811.105566466831
 21
8268.548156062385
 31
0.0
  0
LINE
  5
13914
330
747D
100
AcDbEntity
  8
破線
  6
HIDDEN
 48
10.0
100
AcDbLine
 10
2889.605566466828
 20
10345.04815606238
 30
0.0
 11
3685.605566466831
 21
10345.04815606238
 31
0.0
  0
DIMENSION
  5
13915
330
747D
100
AcDbEntity
  8
寸法
 48
50.0
100
AcDbDimension
  2
*D14
 10
2866.105566466831
 20
10798.26056608117
 30
0.0
 11
2416.938899800167
 21
10798.26056608117
 31
0.0
 70
   160
 71
     5
 42
55.0
  3
INABA_S40
100
AcDbAlignedDimension
 13
2811.105566466831
 23
10423.54815606238
 33
0.0
 14
2866.105566466831
 24
10423.54815606238
 34
0.0
100
AcDbRotatedDimension
1001
ACAD
1000
DSTYLE
1002
{
1070
   287
1070
     3
1070
    41
1040
0.5
1070
    44
1040
1.0
1070
   147
1040
0.8
1070
   271
1070
     2
1070
   272
1070
     2
1070
   289
1070
     3
1070
   340
1005
F706
1070
     6
1000
DOT
1070
     7
1000
DOT
1002
}
  0
LINE
  5
13916
330
747D
100
AcDbEntity
  8
部品1
 48
50.0
100
AcDbLine
 10
2839.105566466831
 20
10395.54815606238
 30
0.0
 11
2866.105566466828
 21
10368.54815606238
 31
0.0
  0
LINE
  5
13917
330
747D
100
AcDbEntity
  8
部品1
100
AcDbLine
 10
2866.105566466831
 20
10423.54815606238
 30
0.0
 11
2866.105566466831
 21
10395.54815606238
 31
0.0
  0
LINE
  5
13918
330
747D
100
AcDbEntity
  8
部品1
100
AcDbLine
 10
2839.105566466831
 20
10368.54815606238
 30
0.0
 11
2811.105566466831
 21
10368.54815606238
 31
0.0
  0
LINE
  5
13919
330
747D
100
AcDbEntity
  8
部品1
100
AcDbLine
 10
3286.105566466832
 20
10423.54815606238
 30
0.0
 11
3286.105566466832
 21
10395.54815606238
 31
0.0
  0
LINE
  5
1391A
330
747D
100
AcDbEntity
  8
部品1
100
AcDbLine
 10
8016.105566466832
 20
10368.54815606238
 30
0.0
 11
8016.105566466832
 21
7008.548156062381
 31
0.0
  0
LINE
  5
1391B
330
747D
100
AcDbEntity
  8
部品1
100
AcDbLine
 10
5496.105566466831
 20
7008.548156062381
 30
0.0
 11
5496.105566466831
 21
10368.54815606238
 31
0.0
  0
LINE
  5
1391C
330
747D
100
AcDbEntity
  8
破線
  6
HIDDEN
 48
10.0
100
AcDbLine
 10
5519.605566466831
 20
7032.048156062384
 30
0.0
 11
5519.605566466831
 21
10345.04815606238
 31
0.0
  0
LINE
  5
1391D
330
747D
100
AcDbEntity
  8
部品1
100
AcDbLine
 10
5469.105566466831
 20
6981.54815606238
 30
0.0
 11
5469.105566466831
 21
10395.54815606238
 31
0.0
  0
LINE
  5
1391E
330
747D
100
AcDbEntity
  8
破線
  6
HIDDEN
 48
10.0
100
AcDbLine
 10
5362.605566466831
 20
7032.048156062377
 30
0.0
 11
5362.605566466828
 21
10345.04815606238
 31
0.0
  0
LINE
  5
1391F
330
747D
100
AcDbEntity
  8
部品1
100
AcDbLine
 10
5386.105566466831
 20
7008.548156062378
 30
0.0
 11
5386.105566466827
 21
10368.54815606238
 31
0.0
  0
LINE
  5
13920
330
747D
100
AcDbEntity
  8
部品1
100
AcDbLine
 10
5413.105566466831
 20
6981.548156062384
 30
0.0
 11
5413.105566466831
 21
10395.54815606238
 31
0.0
  0
LINE
  5
13921
330
747D
100
AcDbEntity
  8
破線
  6
HIDDEN
 48
10.0
100
AcDbLine
 10
7992.605566466831
 20
10345.04815606239
 30
0.0
 11
7992.605566466831
 21
7032.048156062377
 31
0.0
  0
LINE
  5
13922
330
747D
100
AcDbEntity
  8
部品1
100
AcDbLine
 10
8071.105566466831
 20
10423.54815606238
 30
0.0
 11
8071.105566466831
 21
6953.548156062381
 31
0.0
  0
LINE
  5
13923
330
747D
100
AcDbEntity
  8
部品1
100
AcDbLine
 10
8043.105566466829
 20
10395.54815606238
 30
0.0
 11
8043.105566466829
 21
8486.548156062383
 31
0.0
  0
LINE
  5
13924
330
747D
100
AcDbEntity
  8
破線
  6
HIDDEN
 48
10.0
100
AcDbLine
 10
6315.605566466835
 20
7032.048156062384
 30
0.0
 11
5519.605566466835
 21
7032.048156062384
 31
0.0
  0
LINE
  5
13925
330
747D
100
AcDbEntity
  8
部品1
100
AcDbLine
 10
5496.105566466831
 20
7428.548156062385
 30
0.0
 11
8016.105566466832
 21
7428.548156062385
 31
0.0
  0
LINE
  5
13926
330
747D
100
AcDbEntity
  8
部品1
100
AcDbLine
 10
5496.105566466831
 20
7848.548156062385
 30
0.0
 11
8016.105566466832
 21
7848.548156062385
 31
0.0
  0
LINE
  5
13927
330
747D
100
AcDbEntity
  8
部品1
100
AcDbLine
 10
5496.105566466831
 20
8268.548156062383
 30
0.0
 11
8016.105566466832
 21
8268.548156062383
 31
0.0
  0
LINE
  5
13928
330
747D
100
AcDbEntity
  8
部品1
100
AcDbLine
 10
8071.105566466831
 20
6953.548156062381
 30
0.0
 11
5496.105566466831
 21
6953.548156062381
 31
0.0
  0
LINE
  5
13929
330
747D
100
AcDbEntity
  8
部品1
100
AcDbLine
 10
8016.105566466832
 20
7008.548156062381
 30
0.0
 11
5496.105566466831
 21
7008.548156062385
 31
0.0
  0
LINE
  5
1392A
330
747D
100
AcDbEntity
  8
部品1
100
AcDbLine
 10
8043.105566466829
 20
6981.54815606238
 30
0.0
 11
5469.105566466831
 21
6981.548156062384
 31
0.0
  0
LINE
  5
1392C
330
747D
100
AcDbEntity
  8
破線
  6
HIDDEN
 48
10.0
100
AcDbLine
 10
3735.605566466824
 20
7032.04815606238
 30
0.0
 11
4516.605566466824
 21
7032.048156062377
 31
0.0
  0
LINE
  5
1392D
330
747D
100
AcDbEntity
  8
破線
  6
HIDDEN
 48
10.0
100
AcDbLine
 10
4566.605566466824
 20
7032.048156062384
 30
0.0
 11
5362.605566466831
 21
7032.048156062377
 31
0.0
  0
LINE
  5
1392E
330
747D
100
AcDbEntity
  8
部品1
100
AcDbLine
 10
5386.105566466831
 20
6953.548156062378
 30
0.0
 11
5386.105566466831
 21
6981.54815606238
 31
0.0
  0
LINE
  5
1392F
330
747D
100
AcDbEntity
  8
部品1
100
AcDbLine
 10
5386.105566466831
 20
6953.548156062378
 30
0.0
 11
5386.105566466831
 21
6981.54815606238
 31
0.0
  0
LINE
  5
13930
330
747D
100
AcDbEntity
  8
部品1
 48
50.0
100
AcDbLine
 10
5469.105566466831
 20
6981.54815606238
 30
0.0
 11
5496.105566466831
 21
7008.548156062381
 31
0.0
  0
LINE
  5
13931
330
747D
100
AcDbEntity
  8
部品1
 48
50.0
100
AcDbLine
 10
5413.105566466831
 20
6981.548156062384
 30
0.0
 11
5386.105566466831
 21
7008.548156062378
 31
0.0
  0
LINE
  5
13932
330
747D
100
AcDbEntity
  8
部品1
100
AcDbLine
 10
5496.105566466831
 20
6953.548156062383
 30
0.0
 11
5386.105566466831
 21
6953.548156062378
 31
0.0
  0
LINE
  5
13933
330
747D
100
AcDbEntity
  8
部品1
100
AcDbLine
 10
5386.105566466831
 20
6953.548156062378
 30
0.0
 11
5386.105566466831
 21
6981.54815606238
 31
0.0
  0
LINE
  5
13934
330
747D
100
AcDbEntity
  8
部品1
100
AcDbLine
 10
5496.105566466831
 20
6953.548156062378
 30
0.0
 11
5496.105566466831
 21
6981.54815606238
 31
0.0
  0
LINE
  5
13935
330
747D
100
AcDbEntity
  8
部品1
100
AcDbLine
 10
5469.105566466831
 20
7008.548156062378
 30
0.0
 11
5441.105566466831
 21
7008.548156062378
 31
0.0
  0
LINE
  5
13936
330
747D
100
AcDbEntity
  8
部品1
100
AcDbLine
 10
5413.105566466831
 20
7008.548156062378
 30
0.0
 11
5441.105566466831
 21
7008.548156062378
 31
0.0
  0
LINE
  5
13937
330
747D
100
AcDbEntity
  8
部品1
100
AcDbLine
 10
5916.105566466831
 20
6953.548156062378
 30
0.0
 11
5916.105566466831
 21
6981.54815606238
 31
0.0
  0
LINE
  5
13938
330
747D
100
AcDbEntity
  8
部品1
100
AcDbLine
 10
8043.105566466829
 20
10368.54815606238
 30
0.0
 11
8043.105566466829
 21
6981.54815606238
 31
0.0
  0
LINE
  5
13939
330
747D
100
AcDbEntity
  8
破線
  6
HIDDEN
 48
10.0
100
AcDbLine
 10
7146.605566466838
 20
7032.04815606238
 30
0.0
 11
6365.605566466835
 21
7032.048156062384
 31
0.0
  0
LINE
  5
1393A
330
747D
100
AcDbEntity
  8
部品1
100
AcDbLine
 10
6336.105566466831
 20
6953.548156062378
 30
0.0
 11
6336.105566466831
 21
6981.54815606238
 31
0.0
  0
LINE
  5
1393B
330
747D
100
AcDbEntity
  8
部品1
100
AcDbLine
 10
6756.105566466832
 20
6953.548156062378
 30
0.0
 11
6756.105566466832
 21
6981.54815606238
 31
0.0
  0
LINE
  5
1393C
330
747D
100
AcDbEntity
  8
破線
  6
HIDDEN
 48
10.0
100
AcDbLine
 10
7992.605566466831
 20
7032.048156062377
 30
0.0
 11
7196.605566466839
 21
7032.04815606238
 31
0.0
  0
LINE
  5
1393D
330
747D
100
AcDbEntity
  8
部品1
100
AcDbLine
 10
7176.105566466832
 20
6953.548156062378
 30
0.0
 11
7176.105566466832
 21
6981.54815606238
 31
0.0
  0
LINE
  5
1393E
330
747D
100
AcDbEntity
  8
部品1
100
AcDbLine
 10
7596.105566466831
 20
6953.548156062378
 30
0.0
 11
7596.105566466831
 21
6981.54815606238
 31
0.0
  0
LINE
  5
1393F
330
747D
100
AcDbEntity
  8
部品1
 48
50.0
100
AcDbLine
 10
8043.105566466829
 20
6981.54815606238
 30
0.0
 11
8016.105566466832
 21
7008.548156062381
 31
0.0
  0
LINE
  5
13940
330
747D
100
AcDbEntity
  8
部品1
100
AcDbLine
 10
8016.105566466832
 20
6953.548156062378
 30
0.0
 11
8016.105566466832
 21
6981.54815606238
 31
0.0
  0
LINE
  5
13941
330
747D
100
AcDbEntity
  8
部品1
100
AcDbLine
 10
8043.105566466829
 20
7008.548156062378
 30
0.0
 11
8071.105566466831
 21
7008.548156062378
 31
0.0
  0
LINE
  5
13942
330
747D
100
AcDbEntity
  8
部品1
100
AcDbLine
 10
8043.105566466829
 20
7428.548156062385
 30
0.0
 11
8071.105566466831
 21
7428.548156062385
 31
0.0
  0
LINE
  5
13943
330
747D
100
AcDbEntity
  8
部品1
100
AcDbLine
 10
8043.105566466829
 20
7848.548156062385
 30
0.0
 11
8071.105566466831
 21
7848.548156062385
 31
0.0
  0
LINE
  5
13944
330
747D
100
AcDbEntity
  8
部品1
100
AcDbLine
 10
8043.105566466829
 20
8268.548156062385
 30
0.0
 11
8071.105566466831
 21
8268.548156062385
 31
0.0
  0
LINE
  5
13945
330
747D
100
AcDbEntity
  8
破線
  6
HIDDEN
 48
10.0
100
AcDbLine
 10
6315.605566466835
 20
10345.04815606238
 30
0.0
 11
5519.605566466835
 21
10345.04815606238
 31
0.0
  0
LINE
  5
13946
330
747D
100
AcDbEntity
  8
部品1
100
AcDbLine
 10
8016.105566466832
 20
10368.54815606238
 30
0.0
 11
5496.105566466831
 21
10368.54815606238
 31
0.0
  0
LINE
  5
13947
330
747D
100
AcDbEntity
  8
部品1
100
AcDbLine
 10
5469.105566466831
 20
10395.54815606238
 30
0.0
 11
7176.105566466832
 21
10395.54815606238
 31
0.0
  0
DIMENSION
  5
13948
330
747D
100
AcDbEntity
  8
寸法
 48
50.0
100
AcDbDimension
  2
*D15
 10
8016.105566466832
 20
10798.26056608117
 30
0.0
 11
6756.105566466832
 21
10890.2723771048
 31
0.0
 70
    32
  1
6X420=<>
 71
     5
 42
2520.0
  3
INABA_S40
100
AcDbAlignedDimension
 13
5496.105566466831
 23
10423.54815606238
 33
0.0
 14
8016.105566466832
 24
10423.54815606238
 34
0.0
100
AcDbRotatedDimension
1001
ACAD
1000
DSTYLE
1002
{
1070
   287
1070
     3
1070
    41
1040
0.5
1070
    44
1040
1.0
1070
   147
1040
0.8
1070
   271
1070
     2
1070
   272
1070
     2
1070
   289
1070
     3
1070
   340
1005
F706
1070
     6
1000
DOT
1070
     7
1000
DOT
1002
}
  0
LINE
  5
13949
330
747D
100
AcDbEntity
  8
部品1
100
AcDbLine
 10
5441.105566466831
 20
10423.54815606238
 30
0.0
 11
8071.105566466831
 21
10423.54815606238
 31
0.0
  0
LINE
  5
1394A
330
747D
100
AcDbEntity
  8
破線
  6
HIDDEN
 48
10.0
100
AcDbLine
 10
3735.605566466828
 20
10345.04815606237
 30
0.0
 11
4516.605566466831
 21
10345.04815606238
 31
0.0
  0
LINE
  5
1394B
330
747D
100
AcDbEntity
  8
部品1
100
AcDbLine
 10
4966.105566466831
 20
10395.54815606238
 30
0.0
 11
3706.105566466831
 21
10395.54815606238
 31
0.0
  0
LINE
  5
1394C
330
747D
100
AcDbEntity
  8
部品1
100
AcDbLine
 10
3706.105566466831
 20
10423.54815606238
 30
0.0
 11
3706.105566466831
 21
10395.54815606238
 31
0.0
  0
LINE
  5
1394D
330
747D
100
AcDbEntity
  8
部品1
100
AcDbLine
 10
4126.105566466831
 20
10423.54815606238
 30
0.0
 11
4126.105566466831
 21
10395.54815606238
 31
0.0
  0
LINE
  5
1394E
330
747D
100
AcDbEntity
  8
部品1
100
AcDbLine
 10
4546.105566466831
 20
10423.54815606238
 30
0.0
 11
4546.105566466831
 21
10395.54815606238
 31
0.0
  0
LINE
  5
1394F
330
747D
100
AcDbEntity
  8
破線
  6
HIDDEN
 48
10.0
100
AcDbLine
 10
4566.605566466828
 20
10345.04815606239
 30
0.0
 11
5362.605566466831
 21
10345.04815606239
 31
0.0
  0
LINE
  5
13950
330
747D
100
AcDbEntity
  8
部品1
100
AcDbLine
 10
5413.105566466831
 20
10395.54815606238
 30
0.0
 11
4966.105566466831
 21
10395.54815606238
 31
0.0
  0
LINE
  5
13951
330
747D
100
AcDbEntity
  8
部品1
100
AcDbLine
 10
4966.105566466831
 20
10423.54815606238
 30
0.0
 11
4966.105566466831
 21
10395.54815606238
 31
0.0
  0
LINE
  5
13952
330
747D
100
AcDbEntity
  8
部品1
100
AcDbLine
 10
5386.105566466831
 20
10423.54815606238
 30
0.0
 11
5386.105566466831
 21
10395.54815606238
 31
0.0
  0
DIMENSION
  5
13953
330
747D
100
AcDbEntity
  8
寸法
 48
50.0
100
AcDbDimension
  2
*D16
 10
5496.105566466831
 20
10798.26056608117
 30
0.0
 11
5441.105566466831
 21
10798.26056608117
 31
0.0
 70
   160
 71
     5
 42
110.0
  3
INABA_S40
100
AcDbAlignedDimension
 13
5386.105566466831
 23
10423.54815606238
 33
0.0
 14
5496.105566466831
 24
10423.54815606238
 34
0.0
100
AcDbRotatedDimension
1001
ACAD
1000
DSTYLE
1002
{
1070
   287
1070
     3
1070
    41
1040
0.5
1070
    44
1040
1.0
1070
   147
1040
0.8
1070
   271
1070
     2
1070
   272
1070
     2
1070
   289
1070
     3
1070
   340
1005
F706
1070
     6
1000
DOT
1070
     7
1000
DOT
1002
}
  0
LINE
  5
13954
330
747D
100
AcDbEntity
  8
部品1
 48
50.0
100
AcDbLine
 10
5469.105566466831
 20
10395.54815606238
 30
0.0
 11
5496.105566466831
 21
10368.54815606238
 31
0.0
  0
LINE
  5
13955
330
747D
100
AcDbEntity
  8
部品1
 48
50.0
100
AcDbLine
 10
5413.105566466831
 20
10395.54815606238
 30
0.0
 11
5386.105566466831
 21
10368.54815606239
 31
0.0
  0
LINE
  5
13956
330
747D
100
AcDbEntity
  8
部品1
100
AcDbLine
 10
5469.105566466831
 20
10368.54815606238
 30
0.0
 11
5441.105566466831
 21
10368.54815606238
 31
0.0
  0
LINE
  5
13957
330
747D
100
AcDbEntity
  8
部品1
100
AcDbLine
 10
5386.105566466831
 20
10423.54815606238
 30
0.0
 11
5386.105566466831
 21
10395.54815606238
 31
0.0
  0
LINE
  5
13958
330
747D
100
AcDbEntity
  8
部品1
100
AcDbLine
 10
5413.105566466831
 20
10368.54815606238
 30
0.0
 11
5441.105566466831
 21
10368.54815606238
 31
0.0
  0
LINE
  5
13959
330
747D
100
AcDbEntity
  8
部品1
100
AcDbLine
 10
5496.105566466831
 20
10423.54815606238
 30
0.0
 11
5496.105566466831
 21
10395.54815606238
 31
0.0
  0
LINE
  5
1395A
330
747D
100
AcDbEntity
  8
部品1
100
AcDbLine
 10
5496.105566466831
 20
10423.54815606238
 30
0.0
 11
5496.105566466831
 21
10395.54815606238
 31
0.0
  0
LINE
  5
1395B
330
747D
100
AcDbEntity
  8
部品1
100
AcDbLine
 10
5916.105566466831
 20
10423.54815606238
 30
0.0
 11
5916.105566466831
 21
10395.54815606238
 31
0.0
  0
LINE
  5
1395C
330
747D
100
AcDbEntity
  8
破線
  6
HIDDEN
 48
10.0
100
AcDbLine
 10
7146.605566466835
 20
10345.04815606238
 30
0.0
 11
6365.605566466835
 21
10345.04815606238
 31
0.0
  0
LINE
  5
1395D
330
747D
100
AcDbEntity
  8
部品1
100
AcDbLine
 10
6978.605566466831
 20
10395.54815606238
 30
0.0
 11
7373.605566466832
 21
10395.54815606238
 31
0.0
  0
LINE
  5
1395E
330
747D
100
AcDbEntity
  8
部品1
100
AcDbLine
 10
6336.105566466831
 20
10423.54815606238
 30
0.0
 11
6336.105566466831
 21
10395.54815606238
 31
0.0
  0
LINE
  5
1395F
330
747D
100
AcDbEntity
  8
部品1
100
AcDbLine
 10
6756.105566466832
 20
10423.54815606238
 30
0.0
 11
6756.105566466832
 21
10395.54815606238
 31
0.0
  0
LINE
  5
13960
330
747D
100
AcDbEntity
  8
破線
  6
HIDDEN
 48
10.0
100
AcDbLine
 10
7992.605566466831
 20
10345.04815606238
 30
0.0
 11
7196.605566466832
 21
10345.04815606238
 31
0.0
  0
LINE
  5
13961
330
747D
100
AcDbEntity
  8
部品1
100
AcDbLine
 10
7176.105566466832
 20
10395.54815606238
 30
0.0
 11
8043.105566466829
 21
10395.54815606238
 31
0.0
  0
LINE
  5
13962
330
747D
100
AcDbEntity
  8
部品1
100
AcDbLine
 10
7176.105566466832
 20
10423.54815606238
 30
0.0
 11
7176.105566466832
 21
10395.54815606238
 31
0.0
  0
LINE
  5
13963
330
747D
100
AcDbEntity
  8
部品1
100
AcDbLine
 10
7596.105566466831
 20
10423.54815606238
 30
0.0
 11
7596.105566466831
 21
10395.54815606238
 31
0.0
  0
LINE
  5
13964
330
747D
100
AcDbEntity
  8
部品1
 48
50.0
100
AcDbLine
 10
8043.105566466829
 20
10395.54815606238
 30
0.0
 11
8016.105566466832
 21
10368.54815606238
 31
0.0
  0
LINE
  5
13965
330
747D
100
AcDbEntity
  8
部品1
100
AcDbLine
 10
8016.105566466832
 20
10423.54815606238
 30
0.0
 11
8016.105566466832
 21
10395.54815606238
 31
0.0
  0
LINE
  5
13966
330
747D
100
AcDbEntity
  8
部品1
100
AcDbLine
 10
8043.105566466829
 20
10368.54815606238
 30
0.0
 11
8071.105566466831
 21
10368.54815606238
 31
0.0
  0
LINE
  5
13967
330
747D
100
AcDbEntity
  8
破線
  6
HIDDEN
 48
10.0
100
AcDbLine
 10
4516.605566466828
 20
10368.54815606238
 30
0.0
 11
4516.605566466824
 21
7008.548156062385
 31
0.0
  0
LINE
  5
13968
330
747D
100
AcDbEntity
  8
破線
  6
HIDDEN
 48
10.0
100
AcDbLine
 10
4566.605566466828
 20
10368.54815606238
 30
0.0
 11
4566.605566466824
 21
7008.548156062381
 31
0.0
  0
LINE
  5
13969
330
747D
100
AcDbEntity
  8
破線
  6
HIDDEN
 48
10.0
100
AcDbLine
 10
6315.605566466835
 20
10368.54815606238
 30
0.0
 11
6315.605566466835
 21
7008.548156062381
 31
0.0
  0
LINE
  5
1396A
330
747D
100
AcDbEntity
  8
破線
  6
HIDDEN
 48
10.0
100
AcDbLine
 10
6365.605566466835
 20
10368.54815606238
 30
0.0
 11
6365.605566466835
 21
7008.548156062385
 31
0.0
  0
LINE
  5
1396B
330
747D
100
AcDbEntity
  8
破線
  6
HIDDEN
 48
10.0
100
AcDbLine
 10
7196.605566466832
 20
10368.54815606238
 30
0.0
 11
7196.605566466839
 21
7008.548156062385
 31
0.0
  0
LINE
  5
1396C
330
747D
100
AcDbEntity
  8
破線
  6
HIDDEN
 48
10.0
100
AcDbLine
 10
7146.605566466835
 20
10368.54815606238
 30
0.0
 11
7146.605566466835
 21
7008.548156062381
 31
0.0
  0
LINE
  5
1396D
330
747D
100
AcDbEntity
  8
部品1
 48
50.0
100
AcDbLine
 10
5441.105568710401
 20
10395.54815963955
 30
0.0
 11
5413.105568710402
 21
10423.54815963955
 31
0.0
  0
LINE
  5
1396E
330
747D
100
AcDbEntity
  8
部品1
100
AcDbLine
 10
5413.105568710402
 20
10395.54815963955
 30
0.0
 11
5413.105568710402
 21
10423.54815963955
 31
0.0
  0
LINE
  5
1396F
330
747D
100
AcDbEntity
  8
部品1
100
AcDbLine
 10
5469.105568710402
 20
10395.54815963955
 30
0.0
 11
5469.105568710402
 21
10423.54815963955
 31
0.0
  0
LINE
  5
13970
330
747D
100
AcDbEntity
  8
部品1
100
AcDbLine
 10
5413.105568710402
 20
10395.54815963955
 30
0.0
 11
5441.105568710401
 21
10395.54815963955
 31
0.0
  0
LINE
  5
13971
330
747D
100
AcDbEntity
  8
部品1
 48
50.0
100
AcDbLine
 10
3286.105566466832
 20
6981.548156062377
 30
0.0
 11
5386.105566466831
 21
6981.548156062378
 31
0.0
  0
TEXT
  5
13A25
330
747D
100
AcDbEntity
  8
部品1
100
AcDbText
 10
5149.895637090565
 20
1452.427650931982
 30
0.0
 40
135.0
  1
正面図
  7
STYLE2
100
AcDbText
  0
LWPOLYLINE
  5
13A26
330
747D
100
AcDbEntity
  8
部品1
100
AcDbPolyline
 90
        4
 70
     1
 43
0.0
 10
5059.370233352609
 20
1645.321180150506
 10
5059.370233352609
 20
1405.428858604974
 10
5822.840899581053
 20
1405.428858604974
 10
5822.840899581053
 20
1645.321180150506
  0
TEXT
  5
13A27
330
747D
100
AcDbEntity
  8
文字
 62
     7
 48
50.0
100
AcDbText
 10
14505.34213575793
 20
483.8967129911411
 30
0.0
 40
160.0
  1
ＮＸＮ－１８５Ｈ
  7
STYLE2
100
AcDbText
  0
TEXT
  5
13A28
330
747D
100
AcDbEntity
  8
文字
 62
     7
 48
50.0
100
AcDbText
 10
13209.4053442172
 20
228.5435242569015
 30
0.0
 40
100.0
  1
○有効開口寸法 ： 1266×2025(mm)
  7
STYLE2
100
AcDbText
  0
DIMENSION
  5
13A29
330
747D
100
AcDbEntity
  8
寸法
 48
50.0
100
AcDbDimension
  2
*D3
 10
2811.105566466831
 20
4564.750630160487
 30
0.0
 11
5441.105566466831
 21
4564.750630160487
 31
0.0
 70
   160
  1
柱外寸法<>
 71
     5
 42
5260.000000000004
  3
INABA_S40G
100
AcDbAlignedDimension
 13
8071.105566466835
 23
4352.209044902247
 33
0.0
 14
2811.105566466831
 24
4352.209044902251
 34
0.0
100
AcDbRotatedDimension
  0
DIMENSION
  5
13A2A
330
747D
100
AcDbEntity
  8
寸法
 48
50.0
100
AcDbDimension
  2
*D4
 10
8121.105566466836
 20
4785.655930634237
 30
0.0
 11
5441.105566466831
 21
4785.655930634237
 31
0.0
 70
   160
 71
     5
 42
5360.000000000003
  3
INABA_S40G
100
AcDbAlignedDimension
 13
2761.105566466831
 23
4352.20904490225
 33
0.0
 14
8121.105566466836
 24
4352.209044902245
 34
0.0
100
AcDbRotatedDimension
  0
DIMENSION
  5
13A2B
330
747D
100
AcDbEntity
  8
寸法
 48
50.0
100
AcDbDimension
  2
*D5
 10
2761.105566466831
 20
4564.750630160489
 30
0.0
 11
2447.620285092584
 21
4564.750630160489
 31
0.0
 70
   160
 71
     5
 42
50.0
  3
INABA_S40G
100
AcDbAlignedDimension
 13
2811.105566466831
 23
4352.209044902251
 33
0.0
 14
2761.105566466831
 24
4352.20904490225
 34
0.0
100
AcDbRotatedDimension
1001
ACAD
1000
DSTYLE
1002
{
1002
}
  0
LINE
  5
13A2C
330
747D
100
AcDbEntity
  8
部品1
 48
50.0
100
AcDbLine
 10
8100.481821899368
 20
4211.209044902247
 30
0.0
 11
2781.729311034295
 21
4211.209044902248
 31
0.0
  0
LINE
  5
13A2D
330
747D
100
AcDbEntity
  8
細線
 48
50.0
100
AcDbLine
 10
8088.105566466836
 20
4231.982287465616
 30
0.0
 11
2771.500248002078
 21
4231.982287466244
 31
0.0
  0
LINE
  5
13A2E
330
747D
100
AcDbEntity
  8
細線
 48
50.0
100
AcDbLine
 10
8088.105566466834
 20
4324.182287465617
 30
0.0
 11
2763.264217477245
 21
4324.182287466245
 31
0.0
  0
LINE
  5
13A2F
330
747D
100
AcDbEntity
  8
部品1
 48
50.0
100
AcDbLine
 10
8113.697145360402
 20
4352.209044902245
 30
0.0
 11
2768.51398757326
 21
4352.209044902245
 31
0.0
  0
LINE
  5
13A30
330
747D
100
AcDbEntity
  8
部品1
100
AcDbLine
 10
2761.525227482162
 20
4344.812519507009
 30
0.0
 11
2762.658624814511
 21
4324.836391524409
 31
0.0
  0
LINE
  5
13A31
330
747D
100
AcDbEntity
  8
部品1
100
AcDbLine
 10
2774.095645136088
 20
4229.17898435735
 30
0.0
 11
2774.740550943196
 21
4217.812519507011
 31
0.0
  0
LINE
  5
13A32
330
747D
100
AcDbEntity
  8
部品1
100
AcDbLine
 10
2765.859614611239
 20
4321.378984357351
 30
0.0
 11
2770.894655339351
 21
4232.636391524407
 31
0.0
  0
ARC
  5
13A33
330
747D
100
AcDbEntity
  8
部品1
 48
50.0
100
AcDbCircle
 10
2762.864431715054
 20
4321.209044902249
 30
0.0
 40
3.0
100
AcDbArc
 50
3.247342790337682
 51
82.34187279263654
  0
ARC
  5
13A34
330
747D
100
AcDbEntity
  8
部品1
 48
50.0
100
AcDbCircle
 10
2771.100462239898
 20
4229.009044902247
 30
0.0
 40
3.0
100
AcDbArc
 50
3.247342790337682
 51
82.34187279263654
  0
ARC
  5
13A35
330
747D
100
AcDbEntity
  8
部品1
 48
50.0
100
AcDbCircle
 10
2771.593531348459
 20
4232.676044063931
 30
0.0
 40
0.7
100
AcDbArc
 50
183.2473427902856
 51
262.3418727926365
  0
ARC
  5
13A36
330
747D
100
AcDbEntity
  8
部品1
 48
50.0
100
AcDbCircle
 10
2763.357500823619
 20
4324.876044063935
 30
0.0
 40
0.7
100
AcDbArc
 50
183.2473427903897
 51
262.3418727926365
  0
ARC
  5
13A37
330
747D
100
AcDbEntity
  8
部品1
100
AcDbCircle
 10
2781.729311034295
 20
4218.209044902249
 30
0.0
 40
7.0
100
AcDbArc
 50
183.2473427903377
 51
270.0
  0
ARC
  5
13A38
330
747D
100
AcDbEntity
  8
部品1
100
AcDbCircle
 10
2768.51398757326
 20
4345.209044902247
 30
0.0
 40
7.0
100
AcDbArc
 50
90.0
 51
183.2473427903377
  0
LINE
  5
13A39
330
747D
100
AcDbEntity
  8
細線
 48
50.0
100
AcDbLine
 10
2794.105566466831
 20
4352.209044902248
 30
0.0
 11
2794.105566466831
 21
4211.209044902248
 31
0.0
  0
DIMENSION
  5
13A3A
330
747D
100
AcDbEntity
  8
寸法
 48
50.0
100
AcDbDimension
  2
*D6
 10
8071.105566466835
 20
4564.750630160486
 30
0.0
 11
8434.59084784107
 21
4564.750630160486
 31
0.0
 70
   160
 71
     5
 42
50.0
  3
INABA_S40G
100
AcDbAlignedDimension
 13
8121.105566466836
 23
4352.209044902245
 33
0.0
 14
8071.105566466835
 24
4352.209044902247
 34
0.0
100
AcDbRotatedDimension
  0
ARC
  5
13A3B
330
747D
100
AcDbEntity
  8
部品1
100
AcDbCircle
 10
8113.697145360402
 20
4345.209044902246
 30
0.0
 40
7.0
100
AcDbArc
 50
356.7526572096623
 51
90.0
  0
ARC
  5
13A3C
330
747D
100
AcDbEntity
  8
部品1
100
AcDbCircle
 10
8100.481821899368
 20
4218.209044902248
 30
0.0
 40
7.0
100
AcDbArc
 50
270.0
 51
356.7526572096623
  0
ARC
  5
13A3D
330
747D
100
AcDbEntity
  8
部品1
 48
50.0
100
AcDbCircle
 10
8118.853632110047
 20
4324.876044063932
 30
0.0
 40
0.7
100
AcDbArc
 50
277.6581272073635
 51
356.7526572096103
  0
ARC
  5
13A3E
330
747D
100
AcDbEntity
  8
部品1
 48
50.0
100
AcDbCircle
 10
8110.617601585202
 20
4232.676044063928
 30
0.0
 40
0.7
100
AcDbArc
 50
277.6581272073635
 51
356.7526572097143
  0
ARC
  5
13A3F
330
747D
100
AcDbEntity
  8
部品1
 48
50.0
100
AcDbCircle
 10
8111.110670693765
 20
4229.009044902244
 30
0.0
 40
3.0
100
AcDbArc
 50
97.65812720736347
 51
176.7526572096623
  0
ARC
  5
13A40
330
747D
100
AcDbEntity
  8
部品1
 48
50.0
100
AcDbCircle
 10
8119.346701218608
 20
4321.209044902246
 30
0.0
 40
3.0
100
AcDbArc
 50
97.65812720736347
 51
176.7526572096623
  0
LINE
  5
13A41
330
747D
100
AcDbEntity
  8
部品1
100
AcDbLine
 10
8116.351518322423
 20
4321.378984357348
 30
0.0
 11
8111.316477594312
 21
4232.636391524406
 31
0.0
  0
LINE
  5
13A42
330
747D
100
AcDbEntity
  8
部品1
100
AcDbLine
 10
8108.115487797579
 20
4229.178984357348
 30
0.0
 11
8107.470581990467
 21
4217.812519507008
 31
0.0
  0
LINE
  5
13A43
330
747D
100
AcDbEntity
  8
細線
 48
50.0
100
AcDbLine
 10
8088.105566466834
 20
4352.209044902245
 30
0.0
 11
8088.105566466834
 21
4211.209044902245
 31
0.0
  0
LINE
  5
13A44
330
747D
100
AcDbEntity
  8
部品1
100
AcDbLine
 10
8120.6859054515
 20
4344.812519507006
 30
0.0
 11
8119.552508119156
 21
4324.836391524406
 31
0.0
  0
LINE
  5
13A45
330
747D
100
AcDbEntity
  8
部品1
100
AcDbLine
 10
5431.105566466831
 20
4211.209044902247
 30
0.0
 11
5431.105566466827
 21
4352.209044902245
 31
0.0
  0
TEXT
  5
13A46
330
747D
100
AcDbEntity
  8
文字
 62
     7
 48
50.0
100
AcDbText
 10
15022.63965474517
 20
9910.01374588373
 30
0.0
 40
100.0
  1
F12,Y10      1.2+1.6
  7
STYLE1
100
AcDbText
  0
TEXT
  5
13A47
330
747D
100
AcDbEntity
  8
文字
 62
     7
 48
50.0
100
AcDbText
 10
13583.1181901657
 20
9910.01374588373
 30
0.0
 40
100.0
  1
梁中
 41
0.9
  7
STYLE1
100
AcDbText
  0
TEXT
  5
13A48
330
747D
100
AcDbEntity
  8
文字
 62
     7
 48
50.0
100
AcDbText
 10
13248.77747366447
 20
8380.013745883728
 30
0.0
 40
100.0
  1
17
  7
STYLE1
100
AcDbText
  0
TEXT
  5
13A49
330
747D
100
AcDbEntity
  8
文字
 62
     7
 48
50.0
100
AcDbText
 10
13248.77747366447
 20
8550.013745883729
 30
0.0
 40
100.0
  1
16
  7
STYLE1
100
AcDbText
  0
TEXT
  5
13A4A
330
747D
100
AcDbEntity
  8
文字
 62
     7
 48
50.0
100
AcDbText
 10
15022.63965474517
 20
8890.013745883726
 30
0.0
 40
100.0
  1
F12            1.0
  7
STYLE1
100
AcDbText
  0
TEXT
  5
13A4B
330
747D
100
AcDbEntity
  8
文字
 62
     7
 48
50.0
100
AcDbText
 10
13583.11819016569
 20
8890.013745883733
 30
0.0
 40
100.0
  1
壁面扉枠左右
  7
STYLE1
100
AcDbText
  0
TEXT
  5
13A4C
330
747D
100
AcDbEntity
  8
文字
 62
     7
 48
50.0
100
AcDbText
 10
15022.63965474517
 20
9060.013745883725
 30
0.0
 40
100.0
  1
F12            1.0
  7
STYLE1
100
AcDbText
  0
TEXT
  5
13A4D
330
747D
100
AcDbEntity
  8
文字
 62
     7
 48
50.0
100
AcDbText
 10
15022.63965474515
 20
9230.013745883729
 30
0.0
 40
100.0
  1
F12            0.7
  7
STYLE1
100
AcDbText
  0
TEXT
  5
13A4E
330
747D
100
AcDbEntity
  8
文字
 62
     7
 48
50.0
100
AcDbText
 10
13583.11819016569
 20
9060.013745883733
 30
0.0
 40
100.0
  1
壁面扉敷居
  7
STYLE1
100
AcDbText
  0
TEXT
  5
13A4F
330
747D
100
AcDbEntity
  8
文字
 62
     7
 48
50.0
100
AcDbText
 10
13583.11819016569
 20
9230.013745883729
 30
0.0
 40
100.0
  1
壁面扉鴨居
  7
STYLE1
100
AcDbText
  0
LINE
  5
13A50
330
747D
100
AcDbEntity
  8
仕様書枠
 48
50.0
100
AcDbLine
 10
16307.19999999999
 20
8689.600000000003
 30
0.0
 11
13127.2
 21
8689.600000000007
 31
0.0
  0
LINE
  5
13A51
330
747D
100
AcDbEntity
  8
仕様書枠
 48
50.0
100
AcDbLine
 10
16307.19999999999
 20
8519.600000000004
 30
0.0
 11
13127.2
 21
8519.600000000009
 31
0.0
  0
TEXT
  5
13A52
330
747D
100
AcDbEntity
  8
文字
 62
     7
 48
50.0
100
AcDbText
 10
13583.11819016569
 20
8380.013745883728
 30
0.0
 40
100.0
  1
アンカープレート
  7
STYLE1
100
AcDbText
  0
TEXT
  5
13A53
330
747D
100
AcDbEntity
  8
文字
 62
     7
 48
50.0
100
AcDbText
 10
15022.63965474515
 20
8380.013745883726
 30
0.0
 40
100.0
  1
F12            2.3
  7
STYLE1
100
AcDbText
  0
LINE
  5
13A54
330
747D
100
AcDbEntity
  8
仕様書枠
 48
50.0
100
AcDbLine
 10
16307.2
 20
10049.6
 30
0.0
 11
13127.2
 21
10049.6
 31
0.0
  0
LINE
  5
13A55
330
747D
100
AcDbEntity
  8
仕様書枠
 48
50.0
100
AcDbLine
 10
16307.2
 20
11409.6
 30
0.0
 11
13127.2
 21
11409.6
 31
0.0
  0
LINE
  5
13A56
330
747D
100
AcDbEntity
  8
仕様書枠
 48
50.0
100
AcDbLine
 10
16307.19999999999
 20
8009.600000000004
 30
0.0
 11
16307.2
 21
11409.6
 31
0.0
  0
LINE
  5
13A57
330
747D
100
AcDbEntity
  8
仕様書枠
 48
50.0
100
AcDbLine
 10
14785.2
 20
11409.59999999999
 30
0.0
 11
14785.2
 21
8349.600000000004
 31
0.0
  0
LINE
  5
13A58
330
747D
100
AcDbEntity
  8
仕様書枠
 48
50.0
100
AcDbLine
 10
13490.2
 20
11409.6
 30
0.0
 11
13490.20000000001
 21
8349.600000000007
 31
0.0
  0
LINE
  5
13A59
330
747D
100
AcDbEntity
  8
仕様書枠
 48
50.0
100
AcDbLine
 10
16307.2
 20
11239.6
 30
0.0
 11
13127.2
 21
11239.6
 31
0.0
  0
LINE
  5
13A5A
330
747D
100
AcDbEntity
  8
仕様書枠
 48
50.0
100
AcDbLine
 10
16307.2
 20
10899.6
 30
0.0
 11
13127.2
 21
10899.6
 31
0.0
  0
LINE
  5
13A5B
330
747D
100
AcDbEntity
  8
仕様書枠
 48
50.0
100
AcDbLine
 10
16307.2
 20
11069.6
 30
0.0
 11
13127.2
 21
11069.6
 31
0.0
  0
LINE
  5
13A5C
330
747D
100
AcDbEntity
  8
仕様書枠
 48
50.0
100
AcDbLine
 10
16307.19999999999
 20
10559.6
 30
0.0
 11
13127.2
 21
10559.6
 31
0.0
  0
LINE
  5
13A5D
330
747D
100
AcDbEntity
  8
仕様書枠
 48
50.0
100
AcDbLine
 10
16307.19999999999
 20
10389.6
 30
0.0
 11
13127.2
 21
10389.6
 31
0.0
  0
LINE
  5
13A5E
330
747D
100
AcDbEntity
  8
仕様書枠
 48
50.0
100
AcDbLine
 10
16307.19999999999
 20
10729.6
 30
0.0
 11
13127.2
 21
10729.6
 31
0.0
  0
TEXT
  5
13A5F
330
747D
100
AcDbEntity
  8
文字
 62
     7
 48
50.0
100
AcDbText
 10
13197.42518560407
 20
11270.01374588373
 30
0.0
 40
100.0
  1
品番
  7
STYLE1
100
AcDbText
  0
TEXT
  5
13A60
330
747D
100
AcDbEntity
  8
文字
 62
     7
 48
50.0
100
AcDbText
 10
13271.19032244792
 20
11100.01374588373
 30
0.0
 40
100.0
  1
1
  7
STYLE1
100
AcDbText
  0
TEXT
  5
13A61
330
747D
100
AcDbEntity
  8
文字
 62
     7
 48
50.0
100
AcDbText
 10
13271.19032244792
 20
10930.01374588373
 30
0.0
 40
100.0
  1
2
  7
STYLE1
100
AcDbText
  0
TEXT
  5
13A62
330
747D
100
AcDbEntity
  8
文字
 62
     7
 48
50.0
100
AcDbText
 10
13271.19032244792
 20
10590.01374588373
 30
0.0
 40
100.0
  1
4
  7
STYLE1
100
AcDbText
  0
TEXT
  5
13A63
330
747D
100
AcDbEntity
  8
文字
 62
     7
 48
50.0
100
AcDbText
 10
13271.19032244792
 20
10760.01374588373
 30
0.0
 40
100.0
  1
3
  7
STYLE1
100
AcDbText
  0
TEXT
  5
13A64
330
747D
100
AcDbEntity
  8
文字
 62
     7
 48
50.0
100
AcDbText
 10
13732.03840939434
 20
11270.01374588373
 30
0.0
 40
100.0
  1
部　　品　　名
  7
STYLE1
100
AcDbText
  0
TEXT
  5
13A65
330
747D
100
AcDbEntity
  8
文字
 62
     7
 48
50.0
100
AcDbText
 10
14859.79774614482
 20
11270.01374588373
 30
0.0
 40
100.0
  1
材料（材質）　　単位mm
  7
STYLE1
100
AcDbText
  0
TEXT
  5
13A66
330
747D
100
AcDbEntity
  8
文字
 62
     7
 48
50.0
100
AcDbText
 10
13583.11819016569
 20
11100.01374588373
 30
0.0
 40
100.0
  1
土台枠
  7
STYLE1
100
AcDbText
  0
TEXT
  5
13A67
330
747D
100
AcDbEntity
  8
文字
 62
     7
 48
50.0
100
AcDbText
 10
13583.1181901657
 20
10760.01374588373
 30
0.0
 40
100.0
  1
柱
  7
STYLE1
100
AcDbText
  0
TEXT
  5
13A68
330
747D
100
AcDbEntity
  8
文字
 62
     7
 48
50.0
100
AcDbText
 10
13583.11819016569
 20
10420.01374588373
 30
0.0
 40
100.0
  1
桁前後
  7
STYLE1
100
AcDbText
  0
TEXT
  5
13A69
330
747D
100
AcDbEntity
  8
文字
 62
     7
 48
50.0
100
AcDbText
 10
13271.19032244792
 20
10420.01374588373
 30
0.0
 40
100.0
  1
5
  7
STYLE1
100
AcDbText
  0
TEXT
  5
13A6A
330
747D
100
AcDbEntity
  8
文字
 62
     7
 48
50.0
100
AcDbText
 10
13583.11819016569
 20
10250.01374588373
 30
0.0
 40
100.0
  1
妻板左右
  7
STYLE1
100
AcDbText
  0
TEXT
  5
13A6B
330
747D
100
AcDbEntity
  8
文字
 62
     7
 48
50.0
100
AcDbText
 10
13248.77747366447
 20
9570.013745883729
 30
0.0
 40
100.0
  1
10
  7
STYLE1
100
AcDbText
  0
TEXT
  5
13A6C
330
747D
100
AcDbEntity
  8
文字
 62
     7
 48
50.0
100
AcDbText
 10
13583.11819016568
 20
9400.013745883729
 30
0.0
 40
100.0
  1
壁パネル
  7
STYLE1
100
AcDbText
  0
TEXT
  5
13A6D
330
747D
100
AcDbEntity
  8
文字
 62
     7
 48
50.0
100
AcDbText
 10
13583.11819016569
 20
9740.013745883729
 30
0.0
 40
100.0
  1
屋根パネル
  7
STYLE1
100
AcDbText
  0
TEXT
  5
13A6E
330
747D
100
AcDbEntity
  8
文字
 62
     7
 48
50.0
100
AcDbText
 10
13583.11819016569
 20
10080.01374588373
 30
0.0
 40
100.0
  1
鼻隠シ前後
  7
STYLE1
100
AcDbText
  0
TEXT
  5
13A6F
330
747D
100
AcDbEntity
  8
文字
 62
     7
 48
50.0
100
AcDbText
 10
13271.19032244792
 20
9910.01374588373
 30
0.0
 40
100.0
  1
8
  7
STYLE1
100
AcDbText
  0
TEXT
  5
13A70
330
747D
100
AcDbEntity
  8
文字
 62
     7
 48
50.0
100
AcDbText
 10
13271.19032244792
 20
9740.013745883729
 30
0.0
 40
100.0
  1
9
  7
STYLE1
100
AcDbText
  0
TEXT
  5
13A71
330
747D
100
AcDbEntity
  8
文字
 62
     7
 48
50.0
100
AcDbText
 10
13271.19032244792
 20
10080.01374588373
 30
0.0
 40
100.0
  1
7
  7
STYLE1
100
AcDbText
  0
TEXT
  5
13A72
330
747D
100
AcDbEntity
  8
文字
 62
     7
 48
50.0
100
AcDbText
 10
13271.19032244792
 20
10250.01374588373
 30
0.0
 40
100.0
  1
6
  7
STYLE1
100
AcDbText
  0
LINE
  5
13A73
330
747D
100
AcDbEntity
  8
仕様書枠
 48
50.0
100
AcDbLine
 10
16307.19999999999
 20
9709.600000000001
 30
0.0
 11
13127.2
 21
9709.600000000001
 31
0.0
  0
LINE
  5
13A74
330
747D
100
AcDbEntity
  8
仕様書枠
 48
50.0
100
AcDbLine
 10
16307.19999999999
 20
9369.600000000001
 30
0.0
 11
13127.2
 21
9369.600000000001
 31
0.0
  0
LINE
  5
13A75
330
747D
100
AcDbEntity
  8
仕様書枠
 48
50.0
100
AcDbLine
 10
16307.19999999999
 20
9539.6
 30
0.0
 11
13127.2
 21
9539.6
 31
0.0
  0
LINE
  5
13A76
330
747D
100
AcDbEntity
  8
仕様書枠
 48
50.0
100
AcDbLine
 10
16307.2
 20
10219.6
 30
0.0
 11
13127.2
 21
10219.6
 31
0.0
  0
LINE
  5
13A77
330
747D
100
AcDbEntity
  8
仕様書枠
 48
50.0
100
AcDbLine
 10
16307.2
 20
9879.600000000001
 30
0.0
 11
13127.2
 21
9879.600000000001
 31
0.0
  0
TEXT
  5
13A78
330
747D
100
AcDbEntity
  8
文字
 62
     7
 48
50.0
100
AcDbText
 10
13248.77747366447
 20
9400.013745883729
 30
0.0
 40
100.0
  1
11
  7
STYLE1
100
AcDbText
  0
LINE
  5
13A79
330
747D
100
AcDbEntity
  8
仕様書枠
 48
50.0
100
AcDbLine
 10
16307.19999999999
 20
9199.600000000001
 30
0.0
 11
13127.2
 21
9199.600000000001
 31
0.0
  0
LINE
  5
13A7A
330
747D
100
AcDbEntity
  8
仕様書枠
 48
50.0
100
AcDbLine
 10
16307.19999999999
 20
8859.6
 30
0.0
 11
13127.2
 21
8859.600000000005
 31
0.0
  0
TEXT
  5
13A7B
330
747D
100
AcDbEntity
  8
文字
 62
     7
 48
50.0
100
AcDbText
 10
13248.77747366448
 20
9060.013745883729
 30
0.0
 40
100.0
  1
13
  7
STYLE1
100
AcDbText
  0
TEXT
  5
13A7C
330
747D
100
AcDbEntity
  8
文字
 62
     7
 48
50.0
100
AcDbText
 10
13248.77747366448
 20
9230.013745883729
 30
0.0
 40
100.0
  1
12
  7
STYLE1
100
AcDbText
  0
TEXT
  5
13A7D
330
747D
100
AcDbEntity
  8
文字
 62
     7
 48
50.0
100
AcDbText
 10
15022.63965474517
 20
11100.01374588372
 30
0.0
 40
100.0
  1
F12            1.2
  7
STYLE1
100
AcDbText
  0
TEXT
  5
13A7E
330
747D
100
AcDbEntity
  8
文字
 62
     7
 48
50.0
100
AcDbText
 10
15022.63965474518
 20
10760.01374588372
 30
0.0
 40
100.0
  1
F12            1.0
  7
STYLE1
100
AcDbText
  0
TEXT
  5
13A7F
330
747D
100
AcDbEntity
  8
文字
 62
     7
 48
50.0
100
AcDbText
 10
15022.63965474516
 20
10420.01374588372
 30
0.0
 40
100.0
  1
Y10            1.0
  7
STYLE1
100
AcDbText
  0
TEXT
  5
13A80
330
747D
100
AcDbEntity
  8
文字
 62
     7
 48
50.0
100
AcDbText
 10
15022.63965474516
 20
10250.01374588372
 30
0.0
 40
100.0
  1
Y10            0.7
  7
STYLE1
100
AcDbText
  0
TEXT
  5
13A81
330
747D
100
AcDbEntity
  8
文字
 62
     7
 48
50.0
100
AcDbText
 10
15022.63965474516
 20
10080.01374588372
 30
0.0
 40
100.0
  1
Y10            0.7
  7
STYLE1
100
AcDbText
  0
TEXT
  5
13A82
330
747D
100
AcDbEntity
  8
文字
 62
     7
 48
50.0
100
AcDbText
 10
15022.63965474517
 20
9740.013745883725
 30
0.0
 40
100.0
  1
Y10            0.5
  7
STYLE1
100
AcDbText
  0
TEXT
  5
13A83
330
747D
100
AcDbEntity
  8
文字
 62
     7
 48
50.0
100
AcDbText
 10
15022.63965474515
 20
9400.013745883725
 30
0.0
 40
100.0
  1
F12            0.7
  7
STYLE1
100
AcDbText
  0
LINE
  5
13A84
330
747D
100
AcDbEntity
  8
仕様書枠
 48
50.0
100
AcDbLine
 10
16307.19999999999
 20
8349.600000000004
 30
0.0
 11
13127.19999999999
 21
8349.600000000007
 31
0.0
  0
LINE
  5
13A85
330
747D
100
AcDbEntity
  8
仕様書枠
 48
50.0
100
AcDbLine
 10
16307.19999999999
 20
8009.600000000004
 30
0.0
 11
13127.19999999999
 21
8009.600000000007
 31
0.0
  0
TEXT
  5
13A86
330
747D
100
AcDbEntity
  8
文字
 62
     7
 48
50.0
100
AcDbText
 10
13229.83081656555
 20
8210.013745883735
 30
0.0
 40
100.0
  1
F12→溶融亜鉛めっき鋼板(JIS G 3302)
  7
STYLE1
100
AcDbText
  0
TEXT
  5
13A87
330
747D
100
AcDbEntity
  8
文字
 62
     7
 48
50.0
100
AcDbText
 10
13229.83081656555
 20
8040.013745883733
 30
0.0
 40
100.0
  1
Y10→溶融亜鉛-5％アルミニウム合金めっき鋼板(JIS G 3317)
 41
0.9
  7
STYLE1
100
AcDbText
  0
LINE
  5
13A88
330
747D
100
AcDbEntity
  8
仕様書枠
 48
50.0
100
AcDbLine
 10
13127.2
 20
11409.6
 30
0.0
 11
13127.19999999999
 21
8009.600000000006
 31
0.0
  0
LINE
  5
13A89
330
747D
100
AcDbEntity
  8
仕様書枠
 48
50.0
100
AcDbLine
 10
16307.19999999999
 20
9029.6
 30
0.0
 11
13127.2
 21
9029.600000000003
 31
0.0
  0
TEXT
  5
13A8A
330
747D
100
AcDbEntity
  8
文字
 62
     7
 48
50.0
100
AcDbText
 10
13583.1181901657
 20
10590.01374588373
 30
0.0
 40
100.0
  1
床パネル
 41
0.9
  7
STYLE1
100
AcDbText
  0
TEXT
  5
13A8B
330
747D
100
AcDbEntity
  8
文字
 62
     7
 48
50.0
100
AcDbText
 10
13583.11819016569
 20
10930.01374588373
 30
0.0
 40
100.0
  1
根太
  7
STYLE1
100
AcDbText
  0
TEXT
  5
13A8C
330
747D
100
AcDbEntity
  8
文字
 62
     7
 48
50.0
100
AcDbText
 10
13248.77747366448
 20
8890.013745883729
 30
0.0
 40
100.0
  1
14
  7
STYLE1
100
AcDbText
  0
TEXT
  5
13A8D
330
747D
100
AcDbEntity
  8
文字
 62
     7
 48
50.0
100
AcDbText
 10
15022.63965474516
 20
10930.01374588372
 30
0.0
 40
100.0
  1
F12            1.2
  7
STYLE1
100
AcDbText
  0
TEXT
  5
13A8E
330
747D
100
AcDbEntity
  8
文字
 62
     7
 48
50.0
100
AcDbText
 10
15022.63965474517
 20
10590.01374588372
 30
0.0
 40
100.0
  1
F12            1.0
  7
STYLE1
100
AcDbText
  0
TEXT
  5
13A8F
330
747D
100
AcDbEntity
  8
文字
 62
     7
 48
50.0
100
AcDbText
 10
15022.63965474515
 20
8720.013745883729
 30
0.0
 40
100.0
  1
F12            0.7
  7
STYLE1
100
AcDbText
  0
TEXT
  5
13A90
330
747D
100
AcDbEntity
  8
文字
 62
     7
 48
50.0
100
AcDbText
 10
13583.11819016568
 20
8720.013745883733
 30
0.0
 40
100.0
  1
正面パネル
  7
STYLE1
100
AcDbText
  0
TEXT
  5
13A91
330
747D
100
AcDbEntity
  8
文字
 62
     7
 48
50.0
100
AcDbText
 10
15022.63965474516
 20
8550.013745883729
 30
0.0
 40
100.0
  1
F12            0.8
  7
STYLE1
100
AcDbText
  0
TEXT
  5
13A92
330
747D
100
AcDbEntity
  8
文字
 62
     7
 48
50.0
100
AcDbText
 10
13583.11819016569
 20
8550.013745883733
 30
0.0
 40
100.0
  1
扉
  7
STYLE1
100
AcDbText
  0
TEXT
  5
13A94
330
747D
100
AcDbEntity
  8
文字
 62
     7
 48
50.0
100
AcDbText
 10
13248.77747366447
 20
8720.013745883729
 30
0.0
 40
100.0
  1
15
  7
STYLE1
100
AcDbText
  0
TEXT
  5
13A95
330
747D
100
AcDbEntity
  8
文字
 62
     7
 48
50.0
100
AcDbText
 10
13583.11819016569
 20
9570.013745883729
 30
0.0
 40
100.0
  1
母屋中
  7
STYLE1
100
AcDbText
  0
LINE
  5
13A97
330
747D
100
AcDbEntity
  8
仕様書枠
 48
50.0
100
AcDbLine
 10
16307.19999999999
 20
8179.600000000005
 30
0.0
 11
13127.19999999999
 21
8179.600000000007
 31
0.0
  0
LINE
  5
13A99
330
747D
100
AcDbEntity
  8
部品1
 48
50.0
100
AcDbLine
 10
4087.10556646683
 20
4060.209044902243
 30
0.0
 11
4087.10556646683
 21
2027.209044902244
 31
0.0
  0
LINE
  5
13A9A
330
747D
100
AcDbEntity
  8
部品1
100
AcDbLine
 10
4738.105566466823
 20
4060.209044902243
 30
0.0
 11
4738.10556646683
 21
2034.709044902258
 31
0.0
  0
LINE
  5
13A9B
330
747D
100
AcDbEntity
  8
細線
100
AcDbLine
 10
3993.105566466832
 20
4060.209044902243
 30
0.0
 11
3993.105566466832
 21
2027.209044902251
 31
0.0
  0
LINE
  5
13A9C
330
747D
100
AcDbEntity
  8
細線
100
AcDbLine
 10
3923.105566466831
 20
4060.209044902243
 30
0.0
 11
3923.105566466831
 21
2027.209044902251
 31
0.0
  0
LINE
  5
13A9D
330
747D
100
AcDbEntity
  8
細線
100
AcDbLine
 10
3853.105566466831
 20
4060.209044902243
 30
0.0
 11
3853.105566466831
 21
2027.209044902247
 31
0.0
  0
LINE
  5
13A9E
330
747D
100
AcDbEntity
  8
細線
100
AcDbLine
 10
3783.105566466832
 20
4060.209044902243
 30
0.0
 11
3783.105566466832
 21
2027.209044902247
 31
0.0
  0
LINE
  5
13A9F
330
747D
100
AcDbEntity
  8
細線
100
AcDbLine
 10
3713.105566466831
 20
4060.209044902243
 30
0.0
 11
3713.105566466831
 21
2027.209044902247
 31
0.0
  0
LINE
  5
13AA0
330
747D
100
AcDbEntity
  8
細線
100
AcDbLine
 10
3643.105566466831
 20
4060.209044902243
 30
0.0
 11
3643.105566466831
 21
2027.209044902247
 31
0.0
  0
LINE
  5
13AA1
330
747D
100
AcDbEntity
  8
部品1
100
AcDbLine
 10
3459.105566466831
 20
4060.209044902243
 30
0.0
 11
3459.105566466831
 21
2027.209044902247
 31
0.0
  0
LINE
  5
13AA2
330
747D
100
AcDbEntity
  8
部品1
100
AcDbLine
 10
3409.105566466831
 20
4060.209044902243
 30
0.0
 11
3409.105566466831
 21
2027.209044902247
 31
0.0
  0
LINE
  5
13AA3
330
747D
100
AcDbEntity
  8
細線
100
AcDbLine
 10
3451.105566466831
 20
4060.209044902243
 30
0.0
 11
3451.105566466831
 21
2027.209044902247
 31
0.0
  0
LINE
  5
13AA4
330
747D
100
AcDbEntity
  8
細線
100
AcDbLine
 10
3417.105566466831
 20
4060.209044902243
 30
0.0
 11
3417.105566466831
 21
2027.209044902247
 31
0.0
  0
LINE
  5
13AA5
330
747D
100
AcDbEntity
  8
細線
100
AcDbLine
 10
4637.105566466831
 20
4060.209044902243
 30
0.0
 11
4637.105566466831
 21
2034.709044902255
 31
0.0
  0
LINE
  5
13AA6
330
747D
100
AcDbEntity
  8
細線
100
AcDbLine
 10
4567.105566466831
 20
4060.209044902243
 30
0.0
 11
4567.105566466831
 21
2034.709044902255
 31
0.0
  0
LINE
  5
13AA7
330
747D
100
AcDbEntity
  8
細線
100
AcDbLine
 10
4497.105566466831
 20
4060.209044902243
 30
0.0
 11
4497.105566466831
 21
2034.709044902255
 31
0.0
  0
LINE
  5
13AA8
330
747D
100
AcDbEntity
  8
細線
100
AcDbLine
 10
4427.10556646683
 20
4060.209044902243
 30
0.0
 11
4427.10556646683
 21
2034.709044902255
 31
0.0
  0
LINE
  5
13AA9
330
747D
100
AcDbEntity
  8
細線
100
AcDbLine
 10
4357.105566466831
 20
4060.209044902243
 30
0.0
 11
4357.105566466831
 21
2034.709044902255
 31
0.0
  0
LINE
  5
13AAA
330
747D
100
AcDbEntity
  8
細線
100
AcDbLine
 10
4287.105566466831
 20
4060.209044902243
 30
0.0
 11
4287.105566466831
 21
2034.709044902255
 31
0.0
  0
LINE
  5
13AAB
330
747D
100
AcDbEntity
  8
細線
100
AcDbLine
 10
5222.605566466831
 20
4060.209044902243
 30
0.0
 11
5222.605566466831
 21
2034.709044902262
 31
0.0
  0
LINE
  5
13AAC
330
747D
100
AcDbEntity
  8
細線
100
AcDbLine
 10
5152.605566466831
 20
4060.209044902243
 30
0.0
 11
5152.605566466831
 21
2034.709044902262
 31
0.0
  0
LINE
  5
13AAD
330
747D
100
AcDbEntity
  8
細線
100
AcDbLine
 10
5082.605566466831
 20
4060.209044902243
 30
0.0
 11
5082.605566466831
 21
2034.709044902262
 31
0.0
  0
LINE
  5
13AAE
330
747D
100
AcDbEntity
  8
細線
100
AcDbLine
 10
5012.605566466831
 20
4060.209044902243
 30
0.0
 11
5012.605566466831
 21
2034.709044902262
 31
0.0
  0
LINE
  5
13AAF
330
747D
100
AcDbEntity
  8
細線
100
AcDbLine
 10
4942.605566466831
 20
4060.209044902243
 30
0.0
 11
4942.605566466831
 21
2034.709044902262
 31
0.0
  0
LINE
  5
13AB3
330
747D
100
AcDbEntity
  8
部品1
 48
50.0
100
AcDbLine
 10
3333.105566466831
 20
3108.709044902244
 30
0.0
 11
3386.105566466831
 21
3108.709044902244
 31
0.0
  0
LINE
  5
13ACD
330
747D
100
AcDbEntity
  8
細線
100
AcDbLine
 10
3573.105566466831
 20
4060.209044902243
 30
0.0
 11
3573.105566466831
 21
2027.209044902247
 31
0.0
  0
LINE
  5
13ACE
330
747D
100
AcDbEntity
  8
細線
100
AcDbLine
 10
3503.105566466831
 20
4060.209044902243
 30
0.0
 11
3503.105566466831
 21
2027.209044902247
 31
0.0
  0
LINE
  5
13ACF
330
747D
100
AcDbEntity
  8
細線
100
AcDbLine
 10
4217.10556646683
 20
4060.209044902243
 30
0.0
 11
4217.10556646683
 21
2034.709044902255
 31
0.0
  0
LINE
  5
13AD0
330
747D
100
AcDbEntity
  8
細線
100
AcDbLine
 10
4147.105566466831
 20
4060.209044902243
 30
0.0
 11
4147.105566466831
 21
2034.709044902255
 31
0.0
  0
LINE
  5
13AD1
330
747D
100
AcDbEntity
  8
細線
100
AcDbLine
 10
4872.60556646683
 20
4060.209044902243
 30
0.0
 11
4872.60556646683
 21
2034.709044902262
 31
0.0
  0
LINE
  5
13AD2
330
747D
100
AcDbEntity
  8
部品1
 48
50.0
100
AcDbLine
 10
4738.10556646683
 20
4060.209044902242
 30
0.0
 11
4738.10556646683
 21
2034.709044902242
 31
0.0
  0
LINE
  5
13AD3
330
747D
100
AcDbEntity
  8
部品1
 48
50.0
100
AcDbLine
 10
5413.105566466831
 20
1877.209044902242
 30
0.0
 11
5413.105566466831
 21
4112.209044902241
 31
0.0
  0
LINE
  5
13AD4
330
747D
100
AcDbEntity
  8
細線
 48
50.0
100
AcDbLine
 10
5383.105566466831
 20
1977.209044902242
 30
0.0
 11
5383.105566466831
 21
4069.709044902242
 31
0.0
  0
LINE
  5
13AD5
330
747D
100
AcDbEntity
  8
部品1
 48
50.0
100
AcDbLine
 10
5374.10556646683
 20
2024.209044902242
 30
0.0
 11
5374.10556646683
 21
4060.209044902242
 31
0.0
  0
LINE
  5
13AD6
330
747D
100
AcDbEntity
  8
部品1
 48
50.0
100
AcDbLine
 10
4087.10556646683
 20
4060.209044902242
 30
0.0
 11
4087.10556646683
 21
2027.209044902242
 31
0.0
  0
LINE
  5
13AD7
330
747D
100
AcDbEntity
  8
部品1
 48
50.0
100
AcDbLine
 10
3289.105566466832
 20
2027.209044902242
 30
0.0
 11
4087.10556646683
 21
2027.209044902242
 31
0.0
  0
LINE
  5
13AD8
330
747D
100
AcDbEntity
  8
細線
 48
50.0
100
AcDbLine
 10
3289.105566466832
 20
2024.209044902242
 30
0.0
 11
5383.105566466831
 21
2024.209044902242
 31
0.0
  0
LINE
  5
13AD9
330
747D
100
AcDbEntity
  8
細線
 48
50.0
100
AcDbLine
 10
3289.105566466832
 20
2020.209044902242
 30
0.0
 11
5383.105566466831
 21
2020.209044902242
 31
0.0
  0
LINE
  5
13ADA
330
747D
100
AcDbEntity
  8
部品1
 48
50.0
100
AcDbLine
 10
3298.105566466831
 20
2027.209044902242
 30
0.0
 11
3298.105566466831
 21
2024.209044902242
 31
0.0
  0
LINE
  5
13ADB
330
747D
100
AcDbEntity
  8
細線
 48
50.0
100
AcDbLine
 10
3289.105566466832
 20
4069.709044902242
 30
0.0
 11
3289.105566466832
 21
1977.209044902242
 31
0.0
  0
LINE
  5
13ADC
330
747D
100
AcDbEntity
  8
部品1
 48
50.0
100
AcDbLine
 10
3289.105566466832
 20
2027.209044902242
 30
0.0
 11
3289.105566466832
 21
4060.209044902242
 31
0.0
  0
LINE
  5
13ADD
330
747D
100
AcDbEntity
  8
部品1
 48
50.0
100
AcDbLine
 10
3259.105566466831
 20
4112.209044902241
 30
0.0
 11
3259.105566466831
 21
1877.209044902242
 31
0.0
  0
LINE
  5
13ADE
330
747D
100
AcDbEntity
  8
細線
 48
50.0
100
AcDbLine
 10
5361.105566466831
 20
2024.209044902242
 30
0.0
 11
5357.105566466831
 21
2034.709044902242
 31
0.0
  0
LINE
  5
13ADF
330
747D
100
AcDbEntity
  8
細線
 48
50.0
100
AcDbLine
 10
4087.10556646683
 20
2034.709044902242
 30
0.0
 11
5357.105566466831
 21
2034.709044902242
 31
0.0
  0
LINE
  5
13AE0
330
747D
100
AcDbEntity
  8
部品1
 48
50.0
100
AcDbLine
 10
5413.105566466831
 20
4068.209044902242
 30
0.0
 11
5383.105566466831
 21
4068.209044902242
 31
0.0
  0
LINE
  5
13AE1
330
747D
100
AcDbEntity
  8
細線
 48
50.0
100
AcDbLine
 10
5413.105566466831
 20
4102.209044902241
 30
0.0
 11
3259.105566466831
 21
4102.209044902241
 31
0.0
  0
LINE
  5
13AE2
330
747D
100
AcDbEntity
  8
部品1
 48
50.0
100
AcDbLine
 10
5413.105566466831
 20
4112.209044902241
 30
0.0
 11
3259.105566466831
 21
4112.209044902241
 31
0.0
  0
LINE
  5
13AE3
330
747D
100
AcDbEntity
  8
細線
 48
50.0
100
AcDbLine
 10
5383.105566466831
 20
4069.709044902242
 30
0.0
 11
3289.105566466832
 21
4069.709044902242
 31
0.0
  0
LINE
  5
13AE4
330
747D
100
AcDbEntity
  8
細線
 48
50.0
100
AcDbLine
 10
5383.105566466831
 20
4060.209044902242
 30
0.0
 11
3289.105566466832
 21
4060.209044902242
 31
0.0
  0
LINE
  5
13AE5
330
747D
100
AcDbEntity
  8
部品1
 48
50.0
100
AcDbLine
 10
3289.105566466832
 20
4068.209044902242
 30
0.0
 11
3259.105566466831
 21
4068.209044902242
 31
0.0
  0
LINE
  5
13AE6
330
747D
100
AcDbEntity
  8
部品1
100
AcDbLine
 10
5386.105566466831
 20
4117.209044902243
 30
0.0
 11
5386.105566466831
 21
4112.209044902241
 31
0.0
  0
LINE
  5
13AE7
330
747D
100
AcDbEntity
  8
部品1
100
AcDbLine
 10
3286.105566466832
 20
4117.209044902243
 30
0.0
 11
3286.105566466832
 21
4112.209044902241
 31
0.0
  0
LINE
  5
13AE8
330
747D
100
AcDbEntity
  8
細線
 48
50.0
100
AcDbLine
 10
7938.605566466835
 20
4117.209044902243
 30
0.0
 11
7938.605566466836
 21
2027.209044902244
 31
0.0
  0
LINE
  5
13AE9
330
747D
100
AcDbEntity
  8
細線
 48
50.0
100
AcDbLine
 10
7953.605566466835
 20
4117.209044902243
 30
0.0
 11
7953.605566466837
 21
2027.209044902244
 31
0.0
  0
LINE
  5
13AEA
330
747D
100
AcDbEntity
  8
細線
 48
50.0
100
AcDbLine
 10
7813.605566466835
 20
4117.209044902243
 30
0.0
 11
7813.605566466836
 21
2027.209044902244
 31
0.0
  0
LINE
  5
13AEB
330
747D
100
AcDbEntity
  8
細線
 48
50.0
100
AcDbLine
 10
7798.605566466834
 20
4117.209044902243
 30
0.0
 11
7798.605566466837
 21
2027.209044902244
 31
0.0
  0
LINE
  5
13AEC
330
747D
100
AcDbEntity
  8
細線
 48
50.0
100
AcDbLine
 10
7658.605566466835
 20
4117.209044902243
 30
0.0
 11
7658.605566466838
 21
2027.209044902244
 31
0.0
  0
LINE
  5
13AED
330
747D
100
AcDbEntity
  8
細線
 48
50.0
100
AcDbLine
 10
7673.605566466834
 20
4117.209044902243
 30
0.0
 11
7673.605566466839
 21
2027.209044902244
 31
0.0
  0
LINE
  5
13AEE
330
747D
100
AcDbEntity
  8
細線
 48
50.0
100
AcDbLine
 10
7253.605566466835
 20
4117.209044902243
 30
0.0
 11
7253.605566466838
 21
2027.209044902244
 31
0.0
  0
LINE
  5
13AEF
330
747D
100
AcDbEntity
  8
細線
 48
50.0
100
AcDbLine
 10
7238.605566466834
 20
4117.209044902243
 30
0.0
 11
7238.605566466839
 21
2027.209044902244
 31
0.0
  0
LINE
  5
13AF0
330
747D
100
AcDbEntity
  8
細線
 48
50.0
100
AcDbLine
 10
7378.605566466835
 20
4117.209044902243
 30
0.0
 11
7378.605566466838
 21
2027.209044902244
 31
0.0
  0
LINE
  5
13AF1
330
747D
100
AcDbEntity
  8
細線
 48
50.0
100
AcDbLine
 10
7393.605566466835
 20
4117.209044902243
 30
0.0
 11
7393.605566466838
 21
2027.209044902244
 31
0.0
  0
LINE
  5
13AF2
330
747D
100
AcDbEntity
  8
細線
 48
50.0
100
AcDbLine
 10
7533.605566466835
 20
4117.209044902243
 30
0.0
 11
7533.605566466838
 21
2027.209044902244
 31
0.0
  0
LINE
  5
13AF3
330
747D
100
AcDbEntity
  8
細線
 48
50.0
100
AcDbLine
 10
7518.605566466835
 20
4117.209044902243
 30
0.0
 11
7518.605566466838
 21
2027.209044902244
 31
0.0
  0
LINE
  5
13AF4
330
747D
100
AcDbEntity
  8
細線
 48
50.0
100
AcDbLine
 10
6833.605566466835
 20
4117.209044902243
 30
0.0
 11
6833.605566466838
 21
2027.209044902244
 31
0.0
  0
LINE
  5
13AF5
330
747D
100
AcDbEntity
  8
細線
 48
50.0
100
AcDbLine
 10
6818.605566466835
 20
4117.209044902243
 30
0.0
 11
6818.605566466839
 21
2027.209044902244
 31
0.0
  0
LINE
  5
13AF6
330
747D
100
AcDbEntity
  8
細線
 48
50.0
100
AcDbLine
 10
6958.605566466835
 20
4117.209044902243
 30
0.0
 11
6958.605566466838
 21
2027.209044902244
 31
0.0
  0
LINE
  5
13AF7
330
747D
100
AcDbEntity
  8
細線
 48
50.0
100
AcDbLine
 10
6973.605566466834
 20
4117.209044902243
 30
0.0
 11
6973.605566466838
 21
2027.209044902244
 31
0.0
  0
LINE
  5
13AF8
330
747D
100
AcDbEntity
  8
細線
 48
50.0
100
AcDbLine
 10
7113.605566466834
 20
4117.209044902243
 30
0.0
 11
7113.605566466839
 21
2027.209044902244
 31
0.0
  0
LINE
  5
13AF9
330
747D
100
AcDbEntity
  8
細線
 48
50.0
100
AcDbLine
 10
7098.605566466834
 20
4117.209044902243
 30
0.0
 11
7098.605566466838
 21
2027.209044902244
 31
0.0
  0
LINE
  5
13AFA
330
747D
100
AcDbEntity
  8
細線
 48
50.0
100
AcDbLine
 10
6678.605566466835
 20
4117.209044902243
 30
0.0
 11
6678.605566466838
 21
2027.209044902244
 31
0.0
  0
LINE
  5
13AFB
330
747D
100
AcDbEntity
  8
細線
 48
50.0
100
AcDbLine
 10
6693.605566466835
 20
4117.209044902243
 30
0.0
 11
6693.605566466839
 21
2027.209044902244
 31
0.0
  0
LINE
  5
13AFC
330
747D
100
AcDbEntity
  8
細線
 48
50.0
100
AcDbLine
 10
6553.605566466835
 20
4117.209044902243
 30
0.0
 11
6553.605566466838
 21
2027.209044902244
 31
0.0
  0
LINE
  5
13AFD
330
747D
100
AcDbEntity
  8
細線
 48
50.0
100
AcDbLine
 10
6538.605566466834
 20
4117.209044902243
 30
0.0
 11
6538.605566466839
 21
2027.209044902244
 31
0.0
  0
LINE
  5
13AFE
330
747D
100
AcDbEntity
  8
細線
 48
50.0
100
AcDbLine
 10
6398.605566466835
 20
4117.209044902243
 30
0.0
 11
6398.605566466838
 21
2027.209044902244
 31
0.0
  0
LINE
  5
13AFF
330
747D
100
AcDbEntity
  8
細線
 48
50.0
100
AcDbLine
 10
6413.605566466834
 20
4117.209044902243
 30
0.0
 11
6413.605566466839
 21
2027.209044902244
 31
0.0
  0
LINE
  5
13B00
330
747D
100
AcDbEntity
  8
細線
 48
50.0
100
AcDbLine
 10
5993.605566466834
 20
4117.209044902243
 30
0.0
 11
5993.605566466839
 21
2027.209044902244
 31
0.0
  0
LINE
  5
13B01
330
747D
100
AcDbEntity
  8
細線
 48
50.0
100
AcDbLine
 10
5978.605566466835
 20
4117.209044902243
 30
0.0
 11
5978.605566466838
 21
2027.209044902244
 31
0.0
  0
LINE
  5
13B02
330
747D
100
AcDbEntity
  8
細線
 48
50.0
100
AcDbLine
 10
6118.605566466834
 20
4117.209044902243
 30
0.0
 11
6118.605566466839
 21
2027.209044902244
 31
0.0
  0
LINE
  5
13B03
330
747D
100
AcDbEntity
  8
細線
 48
50.0
100
AcDbLine
 10
6133.605566466835
 20
4117.209044902243
 30
0.0
 11
6133.605566466838
 21
2027.209044902244
 31
0.0
  0
LINE
  5
13B04
330
747D
100
AcDbEntity
  8
細線
 48
50.0
100
AcDbLine
 10
6273.605566466835
 20
4117.209044902243
 30
0.0
 11
6273.605566466838
 21
2027.209044902244
 31
0.0
  0
LINE
  5
13B05
330
747D
100
AcDbEntity
  8
細線
 48
50.0
100
AcDbLine
 10
6258.605566466835
 20
4117.209044902243
 30
0.0
 11
6258.605566466838
 21
2027.209044902244
 31
0.0
  0
LINE
  5
13B06
330
747D
100
AcDbEntity
  8
細線
 48
50.0
100
AcDbLine
 10
5838.605566466835
 20
4117.209044902243
 30
0.0
 11
5838.605566466839
 21
2027.209044902244
 31
0.0
  0
LINE
  5
13B07
330
747D
100
AcDbEntity
  8
細線
 48
50.0
100
AcDbLine
 10
5853.605566466835
 20
4117.209044902243
 30
0.0
 11
5853.605566466838
 21
2027.209044902244
 31
0.0
  0
LINE
  5
13B08
330
747D
100
AcDbEntity
  8
細線
 48
50.0
100
AcDbLine
 10
5713.605566466835
 20
4117.209044902243
 30
0.0
 11
5713.605566466839
 21
2027.209044902244
 31
0.0
  0
LINE
  5
13B09
330
747D
100
AcDbEntity
  8
細線
 48
50.0
100
AcDbLine
 10
5698.605566466834
 20
4117.209044902243
 30
0.0
 11
5698.605566466838
 21
2027.209044902244
 31
0.0
  0
LINE
  5
13B0A
330
747D
100
AcDbEntity
  8
細線
 48
50.0
100
AcDbLine
 10
5558.605566466835
 20
4117.209044902243
 30
0.0
 11
5558.605566466838
 21
2027.209044902244
 31
0.0
  0
LINE
  5
13B0B
330
747D
100
AcDbEntity
  8
細線
 48
50.0
100
AcDbLine
 10
5573.605566466834
 20
4117.209044902243
 30
0.0
 11
5573.605566466838
 21
2027.209044902244
 31
0.0
  0
LINE
  5
13B0C
330
747D
100
AcDbEntity
  8
細線
100
AcDbLine
 10
4741.105566466841
 20
4176.709044902243
 30
0.0
 11
4741.105566466841
 21
4153.709044902243
 31
0.0
  0
LINE
  5
13B0D
330
747D
100
AcDbEntity
  8
細線
100
AcDbLine
 10
4667.105566466842
 20
4164.709044902243
 30
0.0
 11
4741.105566466841
 21
4164.709044902243
 31
0.0
  0
LINE
  5
13B0E
330
747D
100
AcDbEntity
  8
細線
100
AcDbLine
 10
4667.105566466842
 20
4158.709044902241
 30
0.0
 11
4741.105566466841
 21
4158.709044902243
 31
0.0
  0
LINE
  5
13B0F
330
747D
100
AcDbEntity
  8
細線
100
AcDbLine
 10
4667.105566466842
 20
4170.709044902241
 30
0.0
 11
4741.105566466841
 21
4170.709044902244
 31
0.0
  0
LINE
  5
13B10
330
747D
100
AcDbEntity
  8
細線
100
AcDbLine
 10
4815.105566466842
 20
4170.709044902244
 30
0.0
 11
4746.105566466842
 21
4170.709044902244
 31
0.0
  0
LINE
  5
13B11
330
747D
100
AcDbEntity
  8
細線
100
AcDbLine
 10
4815.105566466842
 20
4158.709044902243
 30
0.0
 11
4741.105566466841
 21
4158.709044902243
 31
0.0
  0
LINE
  5
13B12
330
747D
100
AcDbEntity
  8
細線
100
AcDbLine
 10
4815.105566466842
 20
4164.709044902243
 30
0.0
 11
4741.105566466841
 21
4164.709044902243
 31
0.0
  0
LINE
  5
13B13
330
747D
100
AcDbEntity
  8
細線
100
AcDbLine
 10
4815.105566466842
 20
4170.709044902244
 30
0.0
 11
4741.105566466841
 21
4170.709044902244
 31
0.0
  0
LINE
  5
13B14
330
747D
100
AcDbEntity
  8
部品1
 48
0.01
100
AcDbLine
 10
4653.105566466842
 20
4183.209044902244
 30
0.0
 11
4829.105566466842
 21
4183.209044902244
 31
0.0
  0
LINE
  5
13B15
330
747D
100
AcDbEntity
  8
部品1
 48
0.01
100
AcDbLine
 10
4831.105566466842
 20
4181.209044902243
 30
0.0
 11
4831.105566466842
 21
4149.709044902244
 31
0.0
  0
LINE
  5
13B16
330
747D
100
AcDbEntity
  8
部品1
 48
0.01
100
AcDbLine
 10
4829.105566466842
 20
4147.709044902243
 30
0.0
 11
4653.105566466842
 21
4147.709044902243
 31
0.0
  0
LINE
  5
13B17
330
747D
100
AcDbEntity
  8
部品1
 48
0.01
100
AcDbLine
 10
4651.105566466841
 20
4149.709044902244
 30
0.0
 11
4651.105566466841
 21
4181.209044902243
 31
0.0
  0
LINE
  5
13B18
330
747D
100
AcDbEntity
  8
細線
100
AcDbLine
 10
4815.105566466842
 20
4176.709044902243
 30
0.0
 11
4815.105566466842
 21
4153.709044902243
 31
0.0
  0
LINE
  5
13B19
330
747D
100
AcDbEntity
  8
細線
100
AcDbLine
 10
4667.105566466842
 20
4153.709044902243
 30
0.0
 11
4667.105566466842
 21
4176.709044902243
 31
0.0
  0
LINE
  5
13B1A
330
747D
100
AcDbEntity
  8
細線
100
AcDbLine
 10
4667.105566466842
 20
4176.709044902243
 30
0.0
 11
4741.105566466841
 21
4176.709044902243
 31
0.0
  0
LINE
  5
13B1B
330
747D
100
AcDbEntity
  8
細線
100
AcDbLine
 10
4815.105566466842
 20
4153.709044902243
 30
0.0
 11
4741.105566466841
 21
4153.709044902243
 31
0.0
  0
LINE
  5
13B1C
330
747D
100
AcDbEntity
  8
細線
100
AcDbLine
 10
4741.105566466841
 20
4176.709044902243
 30
0.0
 11
4815.105566466842
 21
4176.709044902243
 31
0.0
  0
LINE
  5
13B1D
330
747D
100
AcDbEntity
  8
細線
100
AcDbLine
 10
4741.105566466841
 20
4153.709044902243
 30
0.0
 11
4667.105566466842
 21
4153.709044902243
 31
0.0
  0
ARC
  5
13B1E
330
747D
100
AcDbEntity
  8
部品1
 48
0.01
100
AcDbCircle
 10
4829.105566466842
 20
4181.209044902243
 30
0.0
 40
2.0
100
AcDbArc
 50
0.0
 51
90.0
  0
ARC
  5
13B1F
330
747D
100
AcDbEntity
  8
部品1
 48
0.01
100
AcDbCircle
 10
4829.105566466842
 20
4149.709044902244
 30
0.0
 40
2.0
100
AcDbArc
 50
270.0
 51
0.0
  0
ARC
  5
13B20
330
747D
100
AcDbEntity
  8
部品1
 48
0.01
100
AcDbCircle
 10
4653.105566466842
 20
4181.209044902243
 30
0.0
 40
2.0
100
AcDbArc
 50
90.0
 51
180.0
  0
ARC
  5
13B21
330
747D
100
AcDbEntity
  8
部品1
 48
0.01
100
AcDbCircle
 10
4653.105566466842
 20
4149.709044902244
 30
0.0
 40
2.0
100
AcDbArc
 50
180.0
 51
270.0
  0
ARC
  5
13B22
330
747D
100
AcDbEntity
  8
部品1
 48
0.01
100
AcDbCircle
 10
3599.105566466824
 20
4149.709044902241
 30
0.0
 40
2.0
100
AcDbArc
 50
270.0
 51
0.0
  0
ARC
  5
13B23
330
747D
100
AcDbEntity
  8
部品1
 48
0.01
100
AcDbCircle
 10
3599.105566466824
 20
4181.209044902241
 30
0.0
 40
2.0
100
AcDbArc
 50
0.0
 51
90.0
  0
ARC
  5
13B24
330
747D
100
AcDbEntity
  8
部品1
 48
0.01
100
AcDbCircle
 10
3423.105566466824
 20
4149.709044902241
 30
0.0
 40
2.0
100
AcDbArc
 50
180.0
 51
270.0
  0
ARC
  5
13B25
330
747D
100
AcDbEntity
  8
部品1
 48
0.01
100
AcDbCircle
 10
3423.105566466824
 20
4181.209044902241
 30
0.0
 40
2.0
100
AcDbArc
 50
90.0
 51
180.0
  0
LINE
  5
13B26
330
747D
100
AcDbEntity
  8
細線
100
AcDbLine
 10
3511.105566466824
 20
4153.709044902242
 30
0.0
 11
3585.105566466824
 21
4153.709044902242
 31
0.0
  0
LINE
  5
13B27
330
747D
100
AcDbEntity
  8
細線
100
AcDbLine
 10
3511.105566466824
 20
4176.709044902241
 30
0.0
 11
3437.105566466824
 21
4176.709044902241
 31
0.0
  0
LINE
  5
13B28
330
747D
100
AcDbEntity
  8
細線
100
AcDbLine
 10
3437.105566466824
 20
4153.709044902242
 30
0.0
 11
3511.105566466824
 21
4153.709044902242
 31
0.0
  0
LINE
  5
13B29
330
747D
100
AcDbEntity
  8
細線
100
AcDbLine
 10
3585.105566466824
 20
4176.709044902241
 30
0.0
 11
3511.105566466824
 21
4176.709044902241
 31
0.0
  0
LINE
  5
13B2A
330
747D
100
AcDbEntity
  8
細線
100
AcDbLine
 10
3585.105566466824
 20
4153.709044902242
 30
0.0
 11
3585.105566466824
 21
4176.709044902241
 31
0.0
  0
LINE
  5
13B2B
330
747D
100
AcDbEntity
  8
細線
100
AcDbLine
 10
3437.105566466824
 20
4176.709044902241
 30
0.0
 11
3437.105566466824
 21
4153.709044902242
 31
0.0
  0
LINE
  5
13B2C
330
747D
100
AcDbEntity
  8
部品1
 48
0.01
100
AcDbLine
 10
3601.105566466824
 20
4149.709044902241
 30
0.0
 11
3601.105566466824
 21
4181.209044902241
 31
0.0
  0
LINE
  5
13B2D
330
747D
100
AcDbEntity
  8
部品1
 48
0.01
100
AcDbLine
 10
3423.105566466824
 20
4147.709044902241
 30
0.0
 11
3599.105566466824
 21
4147.709044902241
 31
0.0
  0
LINE
  5
13B2E
330
747D
100
AcDbEntity
  8
部品1
 48
0.01
100
AcDbLine
 10
3421.105566466824
 20
4181.209044902241
 30
0.0
 11
3421.105566466824
 21
4149.709044902241
 31
0.0
  0
LINE
  5
13B2F
330
747D
100
AcDbEntity
  8
部品1
 48
0.01
100
AcDbLine
 10
3599.105566466824
 20
4183.209044902241
 30
0.0
 11
3423.105566466824
 21
4183.209044902241
 31
0.0
  0
LINE
  5
13B30
330
747D
100
AcDbEntity
  8
細線
100
AcDbLine
 10
3437.105566466824
 20
4170.709044902241
 30
0.0
 11
3511.105566466824
 21
4170.709044902241
 31
0.0
  0
LINE
  5
13B31
330
747D
100
AcDbEntity
  8
細線
100
AcDbLine
 10
3437.105566466824
 20
4164.709044902241
 30
0.0
 11
3511.105566466824
 21
4164.709044902241
 31
0.0
  0
LINE
  5
13B32
330
747D
100
AcDbEntity
  8
細線
100
AcDbLine
 10
3437.105566466824
 20
4158.709044902241
 30
0.0
 11
3511.105566466824
 21
4158.709044902241
 31
0.0
  0
LINE
  5
13B33
330
747D
100
AcDbEntity
  8
細線
100
AcDbLine
 10
3437.105566466824
 20
4170.709044902241
 30
0.0
 11
3506.105566466824
 21
4170.709044902241
 31
0.0
  0
LINE
  5
13B34
330
747D
100
AcDbEntity
  8
細線
100
AcDbLine
 10
3585.105566466824
 20
4170.70904490224
 30
0.0
 11
3511.105566466824
 21
4170.709044902241
 31
0.0
  0
LINE
  5
13B35
330
747D
100
AcDbEntity
  8
細線
100
AcDbLine
 10
3585.105566466824
 20
4158.70904490224
 30
0.0
 11
3511.105566466824
 21
4158.709044902241
 31
0.0
  0
LINE
  5
13B36
330
747D
100
AcDbEntity
  8
細線
100
AcDbLine
 10
3585.105566466824
 20
4164.709044902241
 30
0.0
 11
3511.105566466824
 21
4164.709044902241
 31
0.0
  0
LINE
  5
13B37
330
747D
100
AcDbEntity
  8
細線
100
AcDbLine
 10
3511.105566466824
 20
4176.709044902241
 30
0.0
 11
3511.105566466824
 21
4153.709044902242
 31
0.0
  0
ARC
  5
13B38
330
747D
100
AcDbEntity
  8
部品1
 48
0.01
100
AcDbCircle
 10
7283.105566466843
 20
4149.709044902244
 30
0.0
 40
2.0
100
AcDbArc
 50
180.0
 51
270.0
  0
ARC
  5
13B39
330
747D
100
AcDbEntity
  8
部品1
 48
0.01
100
AcDbCircle
 10
7283.105566466843
 20
4181.209044902243
 30
0.0
 40
2.0
100
AcDbArc
 50
90.0
 51
180.0
  0
ARC
  5
13B3A
330
747D
100
AcDbEntity
  8
部品1
 48
0.01
100
AcDbCircle
 10
7459.105566466842
 20
4149.709044902244
 30
0.0
 40
2.0
100
AcDbArc
 50
270.0
 51
0.0
  0
ARC
  5
13B3B
330
747D
100
AcDbEntity
  8
部品1
 48
0.01
100
AcDbCircle
 10
7459.105566466842
 20
4181.209044902243
 30
0.0
 40
2.0
100
AcDbArc
 50
0.0
 51
90.0
  0
LINE
  5
13B3C
330
747D
100
AcDbEntity
  8
細線
100
AcDbLine
 10
7371.105566466842
 20
4153.709044902243
 30
0.0
 11
7297.105566466843
 21
4153.709044902243
 31
0.0
  0
LINE
  5
13B3D
330
747D
100
AcDbEntity
  8
細線
100
AcDbLine
 10
7371.105566466842
 20
4176.709044902243
 30
0.0
 11
7445.105566466842
 21
4176.709044902243
 31
0.0
  0
LINE
  5
13B3E
330
747D
100
AcDbEntity
  8
細線
100
AcDbLine
 10
7445.105566466842
 20
4153.709044902243
 30
0.0
 11
7371.105566466842
 21
4153.709044902243
 31
0.0
  0
LINE
  5
13B3F
330
747D
100
AcDbEntity
  8
細線
100
AcDbLine
 10
7297.105566466843
 20
4176.709044902243
 30
0.0
 11
7371.105566466842
 21
4176.709044902243
 31
0.0
  0
LINE
  5
13B40
330
747D
100
AcDbEntity
  8
細線
100
AcDbLine
 10
7297.105566466843
 20
4153.709044902243
 30
0.0
 11
7297.105566466843
 21
4176.709044902243
 31
0.0
  0
LINE
  5
13B41
330
747D
100
AcDbEntity
  8
細線
100
AcDbLine
 10
7445.105566466842
 20
4176.709044902243
 30
0.0
 11
7445.105566466842
 21
4153.709044902243
 31
0.0
  0
LINE
  5
13B42
330
747D
100
AcDbEntity
  8
部品1
 48
0.01
100
AcDbLine
 10
7281.105566466841
 20
4149.709044902244
 30
0.0
 11
7281.105566466841
 21
4181.209044902243
 31
0.0
  0
LINE
  5
13B43
330
747D
100
AcDbEntity
  8
部品1
 48
0.01
100
AcDbLine
 10
7459.105566466842
 20
4147.709044902243
 30
0.0
 11
7283.105566466843
 21
4147.709044902243
 31
0.0
  0
LINE
  5
13B44
330
747D
100
AcDbEntity
  8
部品1
 48
0.01
100
AcDbLine
 10
7461.105566466843
 20
4181.209044902243
 30
0.0
 11
7461.105566466843
 21
4149.709044902244
 31
0.0
  0
LINE
  5
13B45
330
747D
100
AcDbEntity
  8
部品1
 48
0.01
100
AcDbLine
 10
7283.105566466843
 20
4183.209044902244
 30
0.0
 11
7459.105566466842
 21
4183.209044902244
 31
0.0
  0
LINE
  5
13B46
330
747D
100
AcDbEntity
  8
細線
100
AcDbLine
 10
7445.105566466842
 20
4170.709044902244
 30
0.0
 11
7371.105566466842
 21
4170.709044902244
 31
0.0
  0
LINE
  5
13B47
330
747D
100
AcDbEntity
  8
細線
100
AcDbLine
 10
7445.105566466842
 20
4164.709044902243
 30
0.0
 11
7371.105566466842
 21
4164.709044902243
 31
0.0
  0
LINE
  5
13B48
330
747D
100
AcDbEntity
  8
細線
100
AcDbLine
 10
7445.105566466842
 20
4158.709044902243
 30
0.0
 11
7371.105566466842
 21
4158.709044902243
 31
0.0
  0
LINE
  5
13B49
330
747D
100
AcDbEntity
  8
細線
100
AcDbLine
 10
7445.105566466842
 20
4170.709044902244
 30
0.0
 11
7376.105566466842
 21
4170.709044902244
 31
0.0
  0
LINE
  5
13B4A
330
747D
100
AcDbEntity
  8
細線
100
AcDbLine
 10
7297.105566466843
 20
4170.709044902241
 30
0.0
 11
7371.105566466842
 21
4170.709044902244
 31
0.0
  0
LINE
  5
13B4B
330
747D
100
AcDbEntity
  8
細線
100
AcDbLine
 10
7297.105566466843
 20
4158.709044902241
 30
0.0
 11
7371.105566466842
 21
4158.709044902243
 31
0.0
  0
LINE
  5
13B4C
330
747D
100
AcDbEntity
  8
細線
100
AcDbLine
 10
7297.105566466843
 20
4164.709044902243
 30
0.0
 11
7371.105566466842
 21
4164.709044902243
 31
0.0
  0
LINE
  5
13B4D
330
747D
100
AcDbEntity
  8
細線
100
AcDbLine
 10
7371.105566466842
 20
4176.709044902243
 30
0.0
 11
7371.105566466842
 21
4153.709044902243
 31
0.0
  0
LINE
  5
13B4E
330
747D
100
AcDbEntity
  8
細線
100
AcDbLine
 10
6141.105566466824
 20
4176.709044902241
 30
0.0
 11
6141.105566466824
 21
4153.709044902242
 31
0.0
  0
LINE
  5
13B4F
330
747D
100
AcDbEntity
  8
細線
100
AcDbLine
 10
6215.105566466824
 20
4164.709044902241
 30
0.0
 11
6141.105566466824
 21
4164.709044902241
 31
0.0
  0
LINE
  5
13B50
330
747D
100
AcDbEntity
  8
細線
100
AcDbLine
 10
6215.105566466824
 20
4158.70904490224
 30
0.0
 11
6141.105566466824
 21
4158.709044902241
 31
0.0
  0
LINE
  5
13B51
330
747D
100
AcDbEntity
  8
細線
100
AcDbLine
 10
6215.105566466824
 20
4170.70904490224
 30
0.0
 11
6141.105566466824
 21
4170.709044902241
 31
0.0
  0
LINE
  5
13B52
330
747D
100
AcDbEntity
  8
細線
100
AcDbLine
 10
6067.105566466824
 20
4170.709044902241
 30
0.0
 11
6136.105566466824
 21
4170.709044902241
 31
0.0
  0
LINE
  5
13B53
330
747D
100
AcDbEntity
  8
細線
100
AcDbLine
 10
6067.105566466824
 20
4158.709044902241
 30
0.0
 11
6141.105566466824
 21
4158.709044902241
 31
0.0
  0
LINE
  5
13B54
330
747D
100
AcDbEntity
  8
細線
100
AcDbLine
 10
6067.105566466824
 20
4164.709044902241
 30
0.0
 11
6141.105566466824
 21
4164.709044902241
 31
0.0
  0
LINE
  5
13B55
330
747D
100
AcDbEntity
  8
細線
100
AcDbLine
 10
6067.105566466824
 20
4170.709044902241
 30
0.0
 11
6141.105566466824
 21
4170.709044902241
 31
0.0
  0
LINE
  5
13B56
330
747D
100
AcDbEntity
  8
部品1
 48
0.01
100
AcDbLine
 10
6229.105566466824
 20
4183.209044902241
 30
0.0
 11
6053.105566466824
 21
4183.209044902241
 31
0.0
  0
LINE
  5
13B57
330
747D
100
AcDbEntity
  8
部品1
 48
0.01
100
AcDbLine
 10
6051.105566466824
 20
4181.209044902241
 30
0.0
 11
6051.105566466824
 21
4149.709044902241
 31
0.0
  0
LINE
  5
13B58
330
747D
100
AcDbEntity
  8
部品1
 48
0.01
100
AcDbLine
 10
6053.105566466824
 20
4147.709044902241
 30
0.0
 11
6229.105566466824
 21
4147.709044902241
 31
0.0
  0
LINE
  5
13B59
330
747D
100
AcDbEntity
  8
部品1
 48
0.01
100
AcDbLine
 10
6231.105566466824
 20
4149.709044902241
 30
0.0
 11
6231.105566466824
 21
4181.209044902241
 31
0.0
  0
LINE
  5
13B5A
330
747D
100
AcDbEntity
  8
細線
100
AcDbLine
 10
6067.105566466824
 20
4176.709044902241
 30
0.0
 11
6067.105566466824
 21
4153.709044902242
 31
0.0
  0
LINE
  5
13B5B
330
747D
100
AcDbEntity
  8
細線
100
AcDbLine
 10
6215.105566466824
 20
4153.709044902242
 30
0.0
 11
6215.105566466824
 21
4176.709044902241
 31
0.0
  0
LINE
  5
13B5C
330
747D
100
AcDbEntity
  8
細線
100
AcDbLine
 10
6215.105566466824
 20
4176.709044902241
 30
0.0
 11
6141.105566466824
 21
4176.709044902241
 31
0.0
  0
LINE
  5
13B5D
330
747D
100
AcDbEntity
  8
細線
100
AcDbLine
 10
6067.105566466824
 20
4153.709044902242
 30
0.0
 11
6141.105566466824
 21
4153.709044902242
 31
0.0
  0
LINE
  5
13B5E
330
747D
100
AcDbEntity
  8
細線
100
AcDbLine
 10
6141.105566466824
 20
4176.709044902241
 30
0.0
 11
6067.105566466824
 21
4176.709044902241
 31
0.0
  0
LINE
  5
13B5F
330
747D
100
AcDbEntity
  8
細線
100
AcDbLine
 10
6141.105566466824
 20
4153.709044902242
 30
0.0
 11
6215.105566466824
 21
4153.709044902242
 31
0.0
  0
ARC
  5
13B60
330
747D
100
AcDbEntity
  8
部品1
 48
0.01
100
AcDbCircle
 10
6053.105566466824
 20
4181.209044902241
 30
0.0
 40
2.0
100
AcDbArc
 50
90.0
 51
180.0
  0
ARC
  5
13B61
330
747D
100
AcDbEntity
  8
部品1
 48
0.01
100
AcDbCircle
 10
6053.105566466824
 20
4149.709044902241
 30
0.0
 40
2.0
100
AcDbArc
 50
180.0
 51
270.0
  0
ARC
  5
13B62
330
747D
100
AcDbEntity
  8
部品1
 48
0.01
100
AcDbCircle
 10
6229.105566466824
 20
4181.209044902241
 30
0.0
 40
2.0
100
AcDbArc
 50
0.0
 51
90.0
  0
ARC
  5
13B63
330
747D
100
AcDbEntity
  8
部品1
 48
0.01
100
AcDbCircle
 10
6229.105566466824
 20
4149.709044902241
 30
0.0
 40
2.0
100
AcDbArc
 50
270.0
 51
0.0
  0
LINE
  5
13B64
330
747D
100
AcDbEntity
  8
部品1
100
AcDbLine
 10
5386.105566466831
 20
9108.548156062383
 30
0.0
 11
2866.105566466831
 21
9108.548156062379
 31
0.0
  0
LINE
  5
13B65
330
747D
100
AcDbEntity
  8
部品1
100
AcDbLine
 10
2839.105566466831
 20
9108.548156062385
 30
0.0
 11
2811.105566466831
 21
9108.548156062385
 31
0.0
  0
LINE
  5
13B66
330
747D
100
AcDbEntity
  8
部品1
100
AcDbLine
 10
5496.105566466831
 20
9108.548156062383
 30
0.0
 11
8016.105566466832
 21
9108.548156062383
 31
0.0
  0
LINE
  5
13B67
330
747D
100
AcDbEntity
  8
部品1
100
AcDbLine
 10
8043.105566466829
 20
9108.548156062385
 30
0.0
 11
8071.105566466831
 21
9108.548156062385
 31
0.0
  0
TEXT
  5
13EF9
330
747D
100
AcDbEntity
  8
文字
 62
     7
 48
50.0
100
AcDbText
 10
15022.63965474516
 20
9570.013745883725
 30
0.0
 40
100.0
  1
F12            1.2
  7
STYLE1
100
AcDbText
  0
LINE
  5
13F51
330
747D
100
AcDbEntity
  8
部品1
100
AcDbLine
 10
5386.105566466831
 20
9948.548156062384
 30
0.0
 11
2866.105566466831
 21
9948.548156062379
 31
0.0
  0
LINE
  5
13F52
330
747D
100
AcDbEntity
  8
部品1
100
AcDbLine
 10
2839.105566466831
 20
9948.548156062386
 30
0.0
 11
2811.105566466831
 21
9948.548156062386
 31
0.0
  0
LINE
  5
13F53
330
747D
100
AcDbEntity
  8
部品1
100
AcDbLine
 10
5496.105566466831
 20
9948.548156062384
 30
0.0
 11
8016.105566466832
 21
9948.548156062384
 31
0.0
  0
LINE
  5
13F54
330
747D
100
AcDbEntity
  8
部品1
100
AcDbLine
 10
8043.105566466829
 20
9948.548156062386
 30
0.0
 11
8071.105566466831
 21
9948.548156062386
 31
0.0
  0
LINE
  5
1417A
330
747D
100
AcDbEntity
  8
細線
 48
50.0
100
AcDbLine
 10
14024.95997461049
 20
4117.209044902243
 30
0.0
 11
14024.95997461049
 21
2027.209044902245
 31
0.0
  0
LINE
  5
1417B
330
747D
100
AcDbEntity
  8
細線
 48
50.0
100
AcDbLine
 10
14039.95997461049
 20
4117.209044902243
 30
0.0
 11
14039.95997461049
 21
2027.209044902245
 31
0.0
  0
LINE
  5
1417C
330
747D
100
AcDbEntity
  8
細線
 48
50.0
100
AcDbLine
 10
13899.95997461049
 20
4117.209044902243
 30
0.0
 11
13899.95997461049
 21
2027.209044902245
 31
0.0
  0
LINE
  5
1417D
330
747D
100
AcDbEntity
  8
細線
 48
50.0
100
AcDbLine
 10
13884.95997461049
 20
4117.209044902243
 30
0.0
 11
13884.95997461049
 21
2027.209044902245
 31
0.0
  0
LINE
  5
1417E
330
747D
100
AcDbEntity
  8
細線
 48
50.0
100
AcDbLine
 10
13744.95997461049
 20
4117.209044902243
 30
0.0
 11
13744.95997461049
 21
2027.209044902245
 31
0.0
  0
LINE
  5
1417F
330
747D
100
AcDbEntity
  8
細線
 48
50.0
100
AcDbLine
 10
13759.95997461049
 20
4117.209044902243
 30
0.0
 11
13759.95997461049
 21
2027.209044902245
 31
0.0
  0
LINE
  5
14180
330
747D
100
AcDbEntity
  8
部品1
100
AcDbLine
 10
14102.45997461048
 20
4117.209044902243
 30
0.0
 11
14102.45997461048
 21
2027.209044902245
 31
0.0
  0
LINE
  5
14181
330
747D
100
AcDbEntity
  8
細線
 48
50.0
100
AcDbLine
 10
14179.95997461048
 20
4117.209044902243
 30
0.0
 11
14179.95997461049
 21
2027.209044902245
 31
0.0
  0
LINE
  5
14182
330
747D
100
AcDbEntity
  8
細線
 48
50.0
100
AcDbLine
 10
14164.95997461048
 20
4117.209044902243
 30
0.0
 11
14164.95997461049
 21
2027.209044902245
 31
0.0
  0
LINE
  5
14183
330
747D
100
AcDbEntity
  8
細線
 48
50.0
100
AcDbLine
 10
14304.95997461048
 20
4117.209044902243
 30
0.0
 11
14304.95997461049
 21
2027.209044902245
 31
0.0
  0
LINE
  5
14184
330
747D
100
AcDbEntity
  8
細線
 48
50.0
100
AcDbLine
 10
14319.95997461048
 20
4117.209044902243
 30
0.0
 11
14319.95997461049
 21
2027.209044902245
 31
0.0
  0
LINE
  5
14185
330
747D
100
AcDbEntity
  8
細線
 48
50.0
100
AcDbLine
 10
14459.95997461048
 20
4117.209044902243
 30
0.0
 11
14459.95997461049
 21
2027.209044902245
 31
0.0
  0
LINE
  5
14186
330
747D
100
AcDbEntity
  8
細線
 48
50.0
100
AcDbLine
 10
14444.95997461048
 20
4117.209044902243
 30
0.0
 11
14444.95997461049
 21
2027.209044902245
 31
0.0
  0
LINE
  5
14282
330
747D
100
AcDbEntity
  8
部品1
100
AcDbLine
 10
13682.45997461048
 20
4117.209044902243
 30
0.0
 11
13682.45997461048
 21
2027.209044902245
 31
0.0
  0
LINE
  5
14283
330
747D
100
AcDbEntity
  8
細線
 48
50.0
100
AcDbLine
 10
13604.95997461049
 20
4117.209044902241
 30
0.0
 11
13604.95997461049
 21
2027.209044902244
 31
0.0
  0
LINE
  5
14284
330
747D
100
AcDbEntity
  8
細線
 48
50.0
100
AcDbLine
 10
13619.95997461049
 20
4117.209044902241
 30
0.0
 11
13619.95997461049
 21
2027.209044902244
 31
0.0
  0
LINE
  5
14285
330
747D
100
AcDbEntity
  8
細線
 48
50.0
100
AcDbLine
 10
13479.95997461049
 20
4117.209044902241
 30
0.0
 11
13479.95997461049
 21
2027.209044902244
 31
0.0
  0
LINE
  5
14286
330
747D
100
AcDbEntity
  8
細線
 48
50.0
100
AcDbLine
 10
13464.95997461049
 20
4117.209044902241
 30
0.0
 11
13464.95997461049
 21
2027.209044902244
 31
0.0
  0
LINE
  5
14287
330
747D
100
AcDbEntity
  8
細線
 48
50.0
100
AcDbLine
 10
13324.95997461049
 20
4117.209044902241
 30
0.0
 11
13324.95997461049
 21
2027.209044902244
 31
0.0
  0
LINE
  5
14288
330
747D
100
AcDbEntity
  8
細線
 48
50.0
100
AcDbLine
 10
13339.95997461049
 20
4117.209044902241
 30
0.0
 11
13339.95997461049
 21
2027.209044902244
 31
0.0
  0
LINE
  5
14289
330
747D
100
AcDbEntity
  8
部品1
100
AcDbLine
 10
13262.45997461049
 20
4117.209044902241
 30
0.0
 11
13262.45997461049
 21
2027.209044902244
 31
0.0
  0
DIMENSION
  5
1428A
330
747D
100
AcDbEntity
  8
寸法
 48
50.0
100
AcDbDimension
  2
*D17
 10
10486.85156784212
 20
4226.554303775573
 30
0.0
 11
10497.51704310105
 21
4597.400967017271
 31
0.0
 70
   161
 71
     5
 42
141.0
  3
INABA_S40G
100
AcDbAlignedDimension
 13
11066.85599476907
 23
4350.931793736921
 33
0.0
 14
11062.80253921245
 24
4209.990069971208
 34
0.0
1001
ACAD
1000
DSTYLE
1002
{
1070
   174
1070
     0
1070
   272
1070
     1
1070
   288
1070
     0
1070
   341
1005
0
1002
}
  0
LINE
  5
1428B
330
747D
100
AcDbEntity
  8
部品1
100
AcDbLine
 10
12422.45997461049
 20
4117.209044902241
 30
0.0
 11
12422.45997461049
 21
2027.209044902242
 31
0.0
  0
LINE
  5
1428C
330
747D
100
AcDbEntity
  8
細線
 48
50.0
100
AcDbLine
 10
12079.95997461049
 20
4117.209044902241
 30
0.0
 11
12079.9599746105
 21
2027.209044902242
 31
0.0
  0
LINE
  5
1428D
330
747D
100
AcDbEntity
  8
細線
 48
50.0
100
AcDbLine
 10
12064.95997461049
 20
4117.209044902241
 30
0.0
 11
12064.9599746105
 21
2027.209044902242
 31
0.0
  0
LINE
  5
1428E
330
747D
100
AcDbEntity
  8
細線
 48
50.0
100
AcDbLine
 10
12204.95997461049
 20
4117.209044902241
 30
0.0
 11
12204.9599746105
 21
2027.209044902242
 31
0.0
  0
LINE
  5
1428F
330
747D
100
AcDbEntity
  8
細線
 48
50.0
100
AcDbLine
 10
12219.95997461049
 20
4117.209044902241
 30
0.0
 11
12219.9599746105
 21
2027.209044902242
 31
0.0
  0
LINE
  5
14290
330
747D
100
AcDbEntity
  8
細線
 48
50.0
100
AcDbLine
 10
12359.95997461049
 20
4117.209044902241
 30
0.0
 11
12359.9599746105
 21
2027.209044902242
 31
0.0
  0
LINE
  5
14291
330
747D
100
AcDbEntity
  8
細線
 48
50.0
100
AcDbLine
 10
12344.95997461049
 20
4117.209044902241
 30
0.0
 11
12344.9599746105
 21
2027.209044902242
 31
0.0
  0
LINE
  5
14292
330
747D
100
AcDbEntity
  8
部品1
100
AcDbLine
 10
12002.45997461049
 20
4117.209044902241
 30
0.0
 11
12002.45997461049
 21
2027.209044902242
 31
0.0
  0
DIMENSION
  5
14293
330
747D
100
AcDbEntity
  8
寸法
 48
50.0
100
AcDbDimension
  2
*D18
 10
14657.45997461049
 20
4750.866498481547
 30
0.0
 11
14863.50721870498
 21
4750.866498481547
 31
0.0
 70
   160
 71
     5
 42
80.0
  3
INABA_S40G
100
AcDbAlignedDimension
 13
14577.45997461049
 23
4299.019724513897
 33
0.0
 14
14657.45997461049
 24
4297.209044902245
 34
0.0
100
AcDbRotatedDimension
1001
ACAD
1000
DSTYLE
1002
{
1070
   174
1070
     0
1070
   272
1070
     1
1070
   288
1070
     0
1070
   341
1005
0
1002
}
  0
LINE
  5
14294
330
747D
100
AcDbEntity
  8
細線
 48
50.0
100
AcDbLine
 10
11239.95997461049
 20
4117.209044902241
 30
0.0
 11
11239.95997461049
 21
2027.209044902242
 31
0.0
  0
LINE
  5
14295
330
747D
100
AcDbEntity
  8
細線
 48
50.0
100
AcDbLine
 10
11224.95997461049
 20
4117.209044902241
 30
0.0
 11
11224.95997461049
 21
2027.209044902242
 31
0.0
  0
LINE
  5
14296
330
747D
100
AcDbEntity
  8
細線
 48
50.0
100
AcDbLine
 10
11364.95997461049
 20
4117.209044902241
 30
0.0
 11
11364.95997461049
 21
2027.209044902242
 31
0.0
  0
LINE
  5
14297
330
747D
100
AcDbEntity
  8
細線
 48
50.0
100
AcDbLine
 10
11379.95997461049
 20
4117.209044902241
 30
0.0
 11
11379.95997461049
 21
2027.209044902242
 31
0.0
  0
LINE
  5
14298
330
747D
100
AcDbEntity
  8
細線
 48
50.0
100
AcDbLine
 10
11519.95997461049
 20
4117.209044902241
 30
0.0
 11
11519.95997461049
 21
2027.209044902242
 31
0.0
  0
LINE
  5
14299
330
747D
100
AcDbEntity
  8
細線
 48
50.0
100
AcDbLine
 10
11504.95997461049
 20
4117.209044902241
 30
0.0
 11
11504.95997461049
 21
2027.209044902242
 31
0.0
  0
LINE
  5
1429A
330
747D
100
AcDbEntity
  8
細線
 48
50.0
100
AcDbLine
 10
11924.95997461049
 20
4117.209044902241
 30
0.0
 11
11924.95997461049
 21
2027.209044902242
 31
0.0
  0
LINE
  5
1429B
330
747D
100
AcDbEntity
  8
細線
 48
50.0
100
AcDbLine
 10
11939.95997461049
 20
4117.209044902241
 30
0.0
 11
11939.95997461049
 21
2027.209044902242
 31
0.0
  0
LINE
  5
1429C
330
747D
100
AcDbEntity
  8
細線
 48
50.0
100
AcDbLine
 10
11799.95997461049
 20
4117.209044902241
 30
0.0
 11
11799.95997461049
 21
2027.209044902242
 31
0.0
  0
LINE
  5
1429D
330
747D
100
AcDbEntity
  8
細線
 48
50.0
100
AcDbLine
 10
11784.95997461049
 20
4117.209044902241
 30
0.0
 11
11784.95997461049
 21
2027.209044902242
 31
0.0
  0
LINE
  5
1429E
330
747D
100
AcDbEntity
  8
細線
 48
50.0
100
AcDbLine
 10
11644.95997461049
 20
4117.209044902241
 30
0.0
 11
11644.95997461049
 21
2027.209044902242
 31
0.0
  0
LINE
  5
1429F
330
747D
100
AcDbEntity
  8
細線
 48
50.0
100
AcDbLine
 10
11659.95997461049
 20
4117.209044902241
 30
0.0
 11
11659.95997461049
 21
2027.209044902242
 31
0.0
  0
LINE
  5
142A0
330
747D
100
AcDbEntity
  8
部品1
100
AcDbLine
 10
11107.4599746105
 20
1977.209044902242
 30
0.0
 11
14577.45997461049
 21
1977.209044902242
 31
0.0
  0
DIMENSION
  5
142A1
330
747D
100
AcDbEntity
  8
寸法
 48
50.0
100
AcDbDimension
  2
*D19
 10
11047.45997461049
 20
4980.980091267824
 30
0.0
 11
12852.45997461049
 21
4980.980091267824
 31
0.0
 70
   160
 71
     5
 42
3609.999999999997
  3
INABA_S40G
100
AcDbAlignedDimension
 13
14657.45997461049
 23
4297.209044902244
 33
0.0
 14
11047.45997461049
 24
4352.209044902246
 34
0.0
100
AcDbRotatedDimension
1001
ACAD
1000
DSTYLE
1002
{
1070
   174
1070
     0
1070
   272
1070
     1
1070
   288
1070
     0
1070
   341
1005
0
1002
}
  0
DIMENSION
  5
142A2
330
747D
100
AcDbEntity
  8
寸法
 48
50.0
100
AcDbDimension
  2
*D20
 10
11047.45997461049
 20
4750.866498481546
 30
0.0
 11
10737.8221793349
 21
4750.866498481546
 31
0.0
 70
   160
 71
     5
 42
60.0
  3
INABA_S40G
100
AcDbAlignedDimension
 13
11107.45997461049
 23
4348.210663025218
 33
0.0
 14
11047.45997461049
 24
4352.209044902246
 34
0.0
100
AcDbRotatedDimension
1001
ACAD
1000
DSTYLE
1002
{
1070
   174
1070
     0
1070
   272
1070
     1
1070
   288
1070
     0
1070
   341
1005
0
1002
}
  0
DIMENSION
  5
142A3
330
747D
100
AcDbEntity
  8
寸法
 48
50.0
100
AcDbDimension
  2
*D21
 10
11107.45997461049
 20
4750.866498481547
 30
0.0
 11
12842.45997461049
 21
4750.866498481547
 31
0.0
 70
   160
  1
柱外寸法<>
 71
     5
 42
3469.999999999997
  3
INABA_S40G
100
AcDbAlignedDimension
 13
14577.45997461049
 23
4299.019724513897
 33
0.0
 14
11107.45997461049
 24
4348.210663025218
 34
0.0
100
AcDbRotatedDimension
1001
ACAD
1000
DSTYLE
1002
{
1070
   174
1070
     0
1070
   272
1070
     1
1070
   288
1070
     0
1070
   341
1005
0
1002
}
  0
LINE
  5
142A4
330
747D
100
AcDbEntity
  8
部品1
100
AcDbLine
 10
14522.45997461049
 20
4117.209044902243
 30
0.0
 11
14522.4599746105
 21
2027.209044902244
 31
0.0
  0
LINE
  5
142A5
330
747D
100
AcDbEntity
  8
部品1
100
AcDbLine
 10
14577.45997461049
 20
4171.639072683361
 30
0.0
 11
14577.45997461049
 21
1877.209044902243
 31
0.0
  0
LINE
  5
142A6
330
747D
100
AcDbEntity
  8
部品1
100
AcDbLine
 10
11582.45997461049
 20
4117.209044902241
 30
0.0
 11
11582.45997461049
 21
2027.209044902242
 31
0.0
  0
DIMENSION
  5
142A7
330
747D
100
AcDbEntity
  8
寸法
100
AcDbDimension
  2
*D22
 10
10263.70984542723
 20
1977.209044902237
 30
0.0
 11
10263.70984542723
 21
1671.161800807746
 31
0.0
 70
   160
 71
     5
 42
50.00000000000454
  3
INABA_S40G
100
AcDbAlignedDimension
 13
11107.45997461049
 23
2027.209044902242
 33
0.0
 14
11030.45997461049
 24
1977.209044902237
 34
0.0
 50
90.0
100
AcDbRotatedDimension
1001
ACAD
1000
DSTYLE
1002
{
1070
   174
1070
     0
1070
   272
1070
     1
1070
   288
1070
     0
1070
   341
1005
0
1002
}
  0
LINE
  5
142A8
330
747D
100
AcDbEntity
  8
部品1
100
AcDbLine
 10
11107.45997461049
 20
4209.351482831119
 30
0.0
 11
11107.45997461049
 21
1877.209044902242
 31
0.0
  0
LINE
  5
142A9
330
747D
100
AcDbEntity
  8
部品1
100
AcDbLine
 10
11162.45997461049
 20
4117.209044902241
 30
0.0
 11
11162.45997461049
 21
2027.209044902242
 31
0.0
  0
LINE
  5
142AA
330
747D
100
AcDbEntity
  8
部品1
100
AcDbLine
 10
11107.45997461049
 20
2027.209044902242
 30
0.0
 11
14577.4599746105
 21
2027.209044902244
 31
0.0
  0
LINE
  5
142AB
330
747D
100
AcDbEntity
  8
部品1
100
AcDbLine
 10
11107.45997461049
 20
4117.209044902241
 30
0.0
 11
14577.45997461049
 21
4117.209044902241
 31
0.0
  0
LINE
  5
142AC
330
747D
100
AcDbEntity
  8
部品1
100
AcDbLine
 10
14522.45997461049
 20
4117.209044902245
 30
0.0
 11
14522.45997461049
 21
2027.209044902245
 31
0.0
  0
LINE
  5
142AD
330
747D
100
AcDbEntity
  8
細線
 48
50.0
100
AcDbLine
 10
12764.95997461049
 20
4117.209044902241
 30
0.0
 11
12764.9599746105
 21
2027.209044902242
 31
0.0
  0
LINE
  5
142AE
330
747D
100
AcDbEntity
  8
細線
 48
50.0
100
AcDbLine
 10
12779.95997461049
 20
4117.209044902241
 30
0.0
 11
12779.9599746105
 21
2027.209044902242
 31
0.0
  0
LINE
  5
142AF
330
747D
100
AcDbEntity
  8
細線
 48
50.0
100
AcDbLine
 10
12639.95997461049
 20
4117.209044902241
 30
0.0
 11
12639.9599746105
 21
2027.209044902242
 31
0.0
  0
LINE
  5
142B0
330
747D
100
AcDbEntity
  8
細線
 48
50.0
100
AcDbLine
 10
12624.95997461049
 20
4117.209044902241
 30
0.0
 11
12624.9599746105
 21
2027.209044902242
 31
0.0
  0
LINE
  5
142B1
330
747D
100
AcDbEntity
  8
細線
 48
50.0
100
AcDbLine
 10
12484.95997461049
 20
4117.209044902241
 30
0.0
 11
12484.9599746105
 21
2027.209044902242
 31
0.0
  0
LINE
  5
142B2
330
747D
100
AcDbEntity
  8
細線
 48
50.0
100
AcDbLine
 10
12499.95997461049
 20
4117.209044902241
 30
0.0
 11
12499.9599746105
 21
2027.209044902242
 31
0.0
  0
TEXT
  5
142B3
330
747D
100
AcDbEntity
  8
部品1
 48
50.0
100
AcDbText
 10
13168.36083249931
 20
4374.478137840547
 30
0.0
 40
120.0
  1
28
 50
90.0
  7
STYLE1
100
AcDbText
  0
TEXT
  5
142B4
330
747D
100
AcDbEntity
  8
部品1
 48
50.0
100
AcDbText
 10
12690.72780983422
 20
4511.97939605883
 30
0.0
 40
120.0
  1
1000
  7
STYLE1
100
AcDbText
  0
LINE
  5
142B5
330
747D
100
AcDbEntity
  8
部品1
 48
50.0
100
AcDbLine
 10
13002.45997461049
 20
4476.095373906397
 30
0.0
 11
13002.45997461049
 21
4459.8953739064
 31
0.0
  0
LINE
  5
142B6
330
747D
100
AcDbEntity
  8
部品1
 48
50.0
100
AcDbLine
 10
12702.45997461049
 20
4476.095373906397
 30
0.0
 11
13002.45997461049
 21
4476.095373906397
 31
0.0
  0
LINE
  5
142B7
330
747D
100
AcDbEntity
  8
部品1
100
AcDbLine
 10
11055.00496096746
 20
4350.926780236508
 30
0.0
 11
14650.07185147196
 21
4295.849842611382
 31
0.0
  0
LINE
  5
142B8
330
747D
100
AcDbEntity
  8
部品1
100
AcDbLine
 10
11062.80253921245
 20
4209.990069971208
 30
0.0
 11
14632.12367515034
 21
4170.961644737004
 31
0.0
  0
LINE
  5
142B9
330
747D
100
AcDbEntity
  8
細線
 48
50.0
100
AcDbLine
 10
11080.45997461049
 20
4349.608721277646
 30
0.0
 11
11075.17087305499
 21
4209.523088650292
 31
0.0
  0
LINE
  5
142BA
330
747D
100
AcDbEntity
  8
細線
 48
50.0
100
AcDbLine
 10
14624.42925780418
 20
4296.362467381712
 30
0.0
 11
14619.7122917225
 21
4171.430251446794
 31
0.0
  0
LINE
  5
142BB
330
747D
100
AcDbEntity
  8
部品1
 48
50.0
100
AcDbLine
 10
11047.6442605236
 20
4343.802591066935
 30
0.0
 11
11048.02452030141
 21
4323.875626620522
 31
0.0
  0
LINE
  5
142BC
330
747D
100
AcDbEntity
  8
部品1
 48
50.0
100
AcDbLine
 10
11051.09329240766
 20
4320.30034512705
 30
0.0
 11
11052.79719389902
 21
4231.009848420405
 31
0.0
  0
LINE
  5
142BD
330
747D
100
AcDbEntity
  8
細線
 48
50.0
100
AcDbLine
 10
11048.49939771131
 20
4323.226126743602
 30
0.0
 11
14654.13538245648
 21
4267.601922102776
 31
0.0
  0
LINE
  5
142BE
330
747D
100
AcDbEntity
  8
細線
 48
50.0
100
AcDbLine
 10
11053.25987294859
 20
4230.364615045741
 30
0.0
 11
14643.26353737924
 21
4190.555296071247
 31
0.0
  0
LINE
  5
142BF
330
747D
100
AcDbEntity
  8
部品1
 48
50.0
100
AcDbLine
 10
11055.86596600526
 20
4227.434566926931
 30
0.0
 11
11056.0679186257
 21
4216.851531533839
 31
0.0
  0
ARC
  5
142C0
330
747D
100
AcDbEntity
  8
部品1
 48
50.0
100
AcDbCircle
 10
11054.64298635194
 20
4343.936145474361
 30
0.0
 40
7.0
100
AcDbArc
 50
87.03587545283228
 51
181.0932240293156
  0
ARC
  5
142C1
330
747D
100
AcDbEntity
  8
部品1
 48
50.0
100
AcDbCircle
 10
11063.06664445404
 20
4216.985085941267
 30
0.0
 40
7.0
100
AcDbArc
 50
181.0932240293156
 51
267.8377559869492
  0
ARC
  5
142C2
330
747D
100
AcDbEntity
  8
部品1
100
AcDbCircle
 10
11052.86651207884
 20
4227.377329323748
 30
0.0
 40
3.0
100
AcDbArc
 50
1.093224029315636
 51
80.18775403169875
  0
ARC
  5
142C3
330
747D
100
AcDbEntity
  8
部品1
100
AcDbCircle
 10
11048.09383848123
 20
4320.243107523867
 30
0.0
 40
3.0
100
AcDbArc
 50
1.093224029315636
 51
80.18775403169875
  0
ARC
  5
142C4
330
747D
100
AcDbEntity
  8
部品1
100
AcDbCircle
 10
11048.72439288425
 20
4323.888982061265
 30
0.0
 40
0.7
100
AcDbArc
 50
181.0932240292114
 51
260.1877540314845
  0
ARC
  5
142C5
330
747D
100
AcDbEntity
  8
部品1
100
AcDbCircle
 10
11053.49706648186
 20
4231.023203861144
 30
0.0
 40
0.7
100
AcDbArc
 50
181.0932240292635
 51
260.1877540314845
  0
LINE
  5
142C6
330
747D
100
AcDbEntity
  8
部品1
 48
50.0
100
AcDbLine
 10
14656.6738774212
 20
4288.150197176461
 30
0.0
 11
14654.64325623023
 21
4268.205155918682
 31
0.0
  0
LINE
  5
142C7
330
747D
100
AcDbEntity
  8
部品1
 48
50.0
100
AcDbLine
 10
14651.29068974575
 20
4264.894521845771
 30
0.0
 11
14643.78391048091
 21
4191.161901100758
 31
0.0
  0
LINE
  5
142C8
330
747D
100
AcDbEntity
  8
部品1
 48
50.0
100
AcDbLine
 10
14640.43134399642
 20
4187.851267027848
 30
0.0
 11
14639.35178095668
 21
4177.247650034288
 31
0.0
  0
ARC
  5
142C9
330
747D
100
AcDbEntity
  8
部品1
 48
50.0
100
AcDbCircle
 10
14649.70987685644
 20
4288.859207849235
 30
0.0
 40
7.0
100
AcDbArc
 50
354.1866997665532
 51
87.03587545283228
  0
ARC
  5
142CA
330
747D
100
AcDbEntity
  8
部品1
 48
50.0
100
AcDbCircle
 10
14632.38778039193
 20
4177.956660707063
 30
0.0
 40
7.0
100
AcDbArc
 50
267.8377559869492
 51
354.1866997665532
  0
ARC
  5
142CB
330
747D
100
AcDbEntity
  8
部品1
100
AcDbCircle
 10
14643.41591566703
 20
4187.547405310945
 30
0.0
 40
3.0
100
AcDbArc
 50
95.09216976420788
 51
174.1866997665532
  0
ARC
  5
142CC
330
747D
100
AcDbEntity
  8
部品1
100
AcDbCircle
 10
14654.27526141636
 20
4264.590660128868
 30
0.0
 40
3.0
100
AcDbArc
 50
95.09216976420788
 51
174.1866997665532
  0
ARC
  5
142CD
330
747D
100
AcDbEntity
  8
部品1
100
AcDbCircle
 10
14653.94685617376
 20
4268.276056985958
 30
0.0
 40
0.7
100
AcDbArc
 50
275.0921697642079
 51
354.1866997665532
  0
ARC
  5
142CE
330
747D
100
AcDbEntity
  8
部品1
100
AcDbCircle
 10
14643.08751042444
 20
4191.232802168035
 30
0.0
 40
0.7
100
AcDbArc
 50
275.0921697642079
 51
354.1866997667087
  0
LINE
  5
142CF
330
747D
100
AcDbEntity
  8
部品1
100
AcDbLine
 10
12677.00496096745
 20
4477.41343286526
 30
0.0
 11
13002.45997461049
 21
4459.8953739064
 31
0.0
  0
LINE
  5
142D0
330
747D
100
AcDbEntity
  8
部品1
100
AcDbLine
 10
12842.45997461049
 20
4117.209044902241
 30
0.0
 11
12842.45997461049
 21
2027.209044902244
 31
0.0
  0
LINE
  5
142D1
330
747D
100
AcDbEntity
  8
細線
 48
50.0
100
AcDbLine
 10
12919.95997461049
 20
4117.209044902241
 30
0.0
 11
12919.9599746105
 21
2027.209044902244
 31
0.0
  0
LINE
  5
142D2
330
747D
100
AcDbEntity
  8
細線
 48
50.0
100
AcDbLine
 10
12904.95997461049
 20
4117.209044902241
 30
0.0
 11
12904.9599746105
 21
2027.209044902244
 31
0.0
  0
LINE
  5
142D3
330
747D
100
AcDbEntity
  8
細線
 48
50.0
100
AcDbLine
 10
13044.95997461049
 20
4117.209044902241
 30
0.0
 11
13044.9599746105
 21
2027.209044902244
 31
0.0
  0
LINE
  5
142D4
330
747D
100
AcDbEntity
  8
細線
 48
50.0
100
AcDbLine
 10
13059.95997461049
 20
4117.209044902241
 30
0.0
 11
13059.9599746105
 21
2027.209044902244
 31
0.0
  0
LINE
  5
142D5
330
747D
100
AcDbEntity
  8
細線
 48
50.0
100
AcDbLine
 10
13199.95997461049
 20
4117.209044902241
 30
0.0
 11
13199.9599746105
 21
2027.209044902244
 31
0.0
  0
LINE
  5
142D6
330
747D
100
AcDbEntity
  8
細線
 48
50.0
100
AcDbLine
 10
13184.95997461049
 20
4117.209044902241
 30
0.0
 11
13184.9599746105
 21
2027.209044902244
 31
0.0
  0
DIMENSION
  5
142D7
330
747D
100
AcDbEntity
  8
寸法
100
AcDbDimension
  2
*D23
 10
15282.38713258262
 20
4297.209044902244
 30
0.0
 11
15182.375321559
 21
3137.209044902246
 31
0.0
 70
    32
 71
     5
 42
2320.000000000001
  3
INABA_S40G
100
AcDbAlignedDimension
 13
14577.45997461049
 23
1977.209044902243
 33
0.0
 14
14657.45997461049
 24
4297.209044902244
 34
0.0
 50
90.0
100
AcDbRotatedDimension
1001
ACAD
1000
DSTYLE
1002
{
1070
   174
1070
     0
1070
   272
1070
     1
1070
   288
1070
     0
1070
   341
1005
0
1002
}
  0
DIMENSION
  5
142D8
330
747D
100
AcDbEntity
  8
寸法
100
AcDbDimension
  2
*D24
 10
9963.709845427237
 20
4352.209044902243
 30
0.0
 11
9863.698034403613
 21
3164.709044902242
 31
0.0
 70
    32
 71
     5
 42
2375.000000000005
  3
INABA_S40G
100
AcDbAlignedDimension
 13
11030.45997461049
 23
1977.209044902237
 33
0.0
 14
11047.45997461049
 24
4352.209044902241
 34
0.0
 50
90.0
100
AcDbRotatedDimension
1001
ACAD
1000
DSTYLE
1002
{
1070
   174
1070
     0
1070
   272
1070
     1
1070
   288
1070
     0
1070
   341
1005
0
1002
}
  0
DIMENSION
  5
142D9
330
747D
100
AcDbEntity
  8
寸法
100
AcDbDimension
  2
*D25
 10
10263.70984542723
 20
2027.209044902237
 30
0.0
 11
10163.69803440361
 21
3072.20904490224
 31
0.0
 70
    32
 71
     5
 42
2090.000000000001
  3
INABA_S40G
100
AcDbAlignedDimension
 13
11107.45997461049
 23
4117.209044902238
 33
0.0
 14
11107.45997461049
 24
2027.209044902237
 34
0.0
 50
90.0
100
AcDbRotatedDimension
1001
ACAD
1000
DSTYLE
1002
{
1070
   174
1070
     0
1070
   272
1070
     1
1070
   288
1070
     0
1070
   341
1005
0
1002
}
  0
DIMENSION
  5
142DA
330
747D
100
AcDbEntity
  8
寸法
 48
50.0
100
AcDbDimension
  2
*D26
 10
10562.55133321324
 20
2043.209044902242
 30
0.0
 11
10470.53952218962
 21
3055.709044902244
 31
0.0
 70
    32
  1
有効開口部高サ<>
 71
     5
 42
2025.0
  3
INABA_S40
100
AcDbAlignedDimension
 13
11030.4599746105
 23
4068.209044902242
 33
0.0
 14
11030.45997461049
 24
2043.209044902242
 34
0.0
 50
90.0
100
AcDbRotatedDimension
1001
ACAD
1000
DSTYLE
1002
{
1070
    41
1040
0.5
1070
    44
1040
1.0
1070
   147
1040
0.8
1070
   271
1070
     2
1070
   272
1070
     2
1070
   289
1070
     3
1070
   340
1005
F706
1070
   343
1005
F744
1070
   344
1005
F744
1002
}
  0
LINE
  5
142DB
330
747D
100
AcDbEntity
  8
部品1
100
AcDbLine
 10
11030.4599746105
 20
4102.896149810644
 30
0.0
 11
11030.45997461049
 21
1877.209044902242
 31
0.0
  0
LINE
  5
142DC
330
747D
100
AcDbEntity
  8
部品1
100
AcDbLine
 10
11030.4599746105
 20
4102.896149810644
 30
0.0
 11
11107.45997461049
 21
4117.209044902241
 31
0.0
  0
LINE
  5
142DD
330
747D
100
AcDbEntity
  8
部品1
100
AcDbLine
 10
11107.45997461049
 20
1977.209044902242
 30
0.0
 11
11030.45997461049
 21
1977.209044902242
 31
0.0
  0
LWPOLYLINE
  5
14C61
330
747D
100
AcDbEntity
  8
部品1
100
AcDbPolyline
 90
        4
 70
     1
 43
0.0
 10
12470.72464149627
 20
1645.321180150506
 10
12470.72464149627
 20
1405.428858604974
 10
13234.19530772471
 20
1405.428858604974
 10
13234.19530772471
 20
1645.321180150506
  0
TEXT
  5
14C62
330
747D
100
AcDbEntity
  8
部品1
100
AcDbText
 10
12560.17074291988
 20
1452.427650931984
 30
0.0
 40
135.0
  1
側面図
  7
STYLE2
100
AcDbText
  0
LINE
  5
15363
330
747D
100
AcDbEntity
  8
寸法
 48
50.0
100
AcDbLine
 10
3721.308572748677
 20
6731.58490763125
 30
0.0
 11
3669.902564838574
 21
6731.58490763125
 31
0.0
  0
LINE
  5
15364
330
747D
100
AcDbEntity
  8
寸法
 48
50.0
100
AcDbLine
 10
3669.902564838574
 20
6731.58490763125
 30
0.0
 11
3669.902564838574
 21
6762.895066283416
 31
0.0
  0
LINE
  5
15365
330
747D
100
AcDbEntity
  8
寸法
 48
50.0
100
AcDbLine
 10
3669.902564838574
 20
6762.895066283416
 30
0.0
 11
3640.14123284715
 21
6762.895066283416
 31
0.0
  0
LINE
  5
15366
330
747D
100
AcDbEntity
  8
寸法
 48
50.0
100
AcDbLine
 10
3640.14123284715
 20
6762.895066283416
 30
0.0
 11
3695.605568793625
 21
6800.474517212025
 31
0.0
  0
LINE
  5
15367
330
747D
100
AcDbEntity
  8
寸法
 48
50.0
100
AcDbLine
 10
3751.069904740101
 20
6762.895066283416
 30
0.0
 11
3695.605568793625
 21
6800.474517212025
 31
0.0
  0
LINE
  5
15368
330
747D
100
AcDbEntity
  8
寸法
 48
50.0
100
AcDbLine
 10
3721.308572748677
 20
6762.895066283416
 30
0.0
 11
3751.069904740101
 21
6762.895066283416
 31
0.0
  0
LINE
  5
15369
330
747D
100
AcDbEntity
  8
寸法
 48
50.0
100
AcDbLine
 10
3721.308572748677
 20
6731.58490763125
 30
0.0
 11
3721.308572748677
 21
6762.895066283416
 31
0.0
  0
LINE
  5
1536A
330
747D
100
AcDbEntity
  8
寸法
 48
50.0
100
AcDbLine
 10
3669.902564838574
 20
6731.58490763125
 30
0.0
 11
3721.308572748677
 21
6731.58490763125
 31
0.0
  0
LINE
  5
1536B
330
747D
100
AcDbEntity
  8
寸法
 48
50.0
100
AcDbLine
 10
4000.474107025534
 20
6788.730498386073
 30
0.0
 11
4000.474107025534
 21
6735.066863804283
 31
0.0
  0
LINE
  5
1536C
330
747D
100
AcDbEntity
  8
寸法
 48
50.0
100
AcDbLine
 10
4089.758325620955
 20
6764.806864116586
 30
0.0
 11
4000.474107025534
 21
6788.730498386073
 31
0.0
  0
LINE
  5
1536D
330
747D
100
AcDbEntity
  8
寸法
 48
50.0
100
AcDbLine
 10
3870.60638544523
 20
6764.806864116586
 30
0.0
 11
4089.758325620955
 21
6764.806864116586
 31
0.0
  0
LINE
  5
1536E
330
747D
100
AcDbEntity
  8
細線
 48
50.0
100
AcDbLine
 10
4747.105566466835
 20
6930.048271011113
 30
0.0
 11
5374.105566466832
 21
6930.048271011113
 31
0.0
  0
LINE
  5
1536F
330
747D
100
AcDbEntity
  8
細線
 48
50.0
100
AcDbLine
 10
4093.105571120421
 20
6896.339502457036
 30
0.0
 11
5374.105566466832
 21
6896.339502457036
 31
0.0
  0
LINE
  5
15370
330
747D
100
AcDbEntity
  8
細線
 48
50.0
100
AcDbLine
 10
4052.105571120425
 20
6925.744410453289
 30
0.0
 11
3298.105566466832
 21
6925.744410453287
 31
0.0
  0
LINE
  5
15371
330
747D
100
AcDbEntity
  8
細線
100
AcDbLine
 10
5149.855557050376
 20
6949.548170976121
 30
0.0
 11
5152.187096572184
 21
6954.548173616082
 31
0.0
  0
LINE
  5
15372
330
747D
100
AcDbEntity
  8
細線
100
AcDbLine
 10
5219.855566466833
 20
6949.548156062387
 30
0.0
 11
5217.524019990645
 21
6954.548173616068
 31
0.0
  0
LINE
  5
15373
330
747D
100
AcDbEntity
  8
細線
100
AcDbLine
 10
5217.524019990645
 20
6954.548173616068
 30
0.0
 11
5152.18709657217
 21
6954.548173616053
 31
0.0
  0
LINE
  5
15374
330
747D
100
AcDbEntity
  8
細線
100
AcDbLine
 10
5077.524019990645
 20
6954.548173616068
 30
0.0
 11
5012.18709657217
 21
6954.548173616053
 31
0.0
  0
LINE
  5
15375
330
747D
100
AcDbEntity
  8
細線
100
AcDbLine
 10
5079.855566466832
 20
6949.548156062387
 30
0.0
 11
5077.524019990645
 21
6954.548173616068
 31
0.0
  0
LINE
  5
15376
330
747D
100
AcDbEntity
  8
細線
100
AcDbLine
 10
5009.855557050376
 20
6949.548170976121
 30
0.0
 11
5012.187096572184
 21
6954.548173616082
 31
0.0
  0
LINE
  5
15377
330
747D
100
AcDbEntity
  8
細線
100
AcDbLine
 10
4869.855566466833
 20
6949.548156062387
 30
0.0
 11
4872.187105988645
 21
6954.548158702348
 31
0.0
  0
LINE
  5
15378
330
747D
100
AcDbEntity
  8
細線
100
AcDbLine
 10
4939.855575883293
 20
6949.548141148652
 30
0.0
 11
4937.524029407103
 21
6954.548158702333
 31
0.0
  0
LINE
  5
15379
330
747D
100
AcDbEntity
  8
細線
100
AcDbLine
 10
4937.524029407106
 20
6954.548158702333
 30
0.0
 11
4872.187105988631
 21
6954.548158702319
 31
0.0
  0
LINE
  5
1537A
330
747D
100
AcDbEntity
  8
細線
100
AcDbLine
 10
4642.274050655939
 20
6920.548195399715
 30
0.0
 11
4576.937127237464
 21
6920.548195399701
 31
0.0
  0
LINE
  5
1537B
330
747D
100
AcDbEntity
  8
細線
100
AcDbLine
 10
4644.605597132126
 20
6915.548177846034
 30
0.0
 11
4642.274050655939
 21
6920.548195399715
 31
0.0
  0
LINE
  5
1537C
330
747D
100
AcDbEntity
  8
細線
100
AcDbLine
 10
4574.605587715669
 20
6915.548192759769
 30
0.0
 11
4576.937127237478
 21
6920.548195399729
 31
0.0
  0
LINE
  5
1537D
330
747D
100
AcDbEntity
  8
細線
 48
50.0
100
AcDbLine
 10
4415.988945714846
 20
6933.819019215467
 30
0.0
 11
4421.744463297513
 21
6915.54816792498
 31
0.0
  0
LINE
  5
1537E
330
747D
100
AcDbEntity
  8
細線
 48
50.0
100
AcDbLine
 10
4405.060497234416
 20
6933.819019215467
 30
0.0
 11
4415.988945714846
 21
6933.819019215467
 31
0.0
  0
ARC
  5
1537F
330
747D
100
AcDbEntity
  8
細線
 48
50.0
100
AcDbCircle
 10
4399.606141177094
 20
6935.319019215467
 30
0.0
 40
5.0
100
AcDbArc
 50
204.6243183521251
 51
335.375681647875
  0
ARC
  5
15380
330
747D
100
AcDbEntity
  8
細線
 48
50.0
100
AcDbCircle
 10
4405.060497234416
 20
6932.819019215468
 30
0.0
 40
1.0
100
AcDbArc
 50
90.0
 51
155.3756816478749
  0
ARC
  5
15381
330
747D
100
AcDbEntity
  8
細線
 48
50.0
100
AcDbCircle
 10
4394.151785119779
 20
6932.819019215468
 30
0.0
 40
1.0
100
AcDbArc
 50
24.62431835212505
 51
90.0
  0
LINE
  5
15382
330
747D
100
AcDbEntity
  8
細線
 48
50.0
100
AcDbLine
 10
4383.223336639345
 20
6933.819019215467
 30
0.0
 11
4394.151785119779
 21
6933.819019215467
 31
0.0
  0
LINE
  5
15383
330
747D
100
AcDbEntity
  8
細線
 48
50.0
100
AcDbLine
 10
4377.467819056678
 20
6915.548167924973
 30
0.0
 11
4383.223336639345
 21
6933.819019215467
 31
0.0
  0
LINE
  5
15384
330
747D
100
AcDbEntity
  8
細線
100
AcDbLine
 10
4434.605588946711
 20
6915.548165290778
 30
0.0
 11
4436.937128468523
 21
6920.548167930738
 31
0.0
  0
LINE
  5
15385
330
747D
100
AcDbEntity
  8
細線
100
AcDbLine
 10
4504.605598363172
 20
6915.548150377043
 30
0.0
 11
4502.27405188698
 21
6920.548167930724
 31
0.0
  0
LINE
  5
15386
330
747D
100
AcDbEntity
  8
細線
100
AcDbLine
 10
4502.27405188698
 20
6920.548167930724
 30
0.0
 11
4436.937128468509
 21
6920.54816793071
 31
0.0
  0
LINE
  5
15387
330
747D
100
AcDbEntity
  8
細線
100
AcDbLine
 10
4362.274023522464
 20
6920.548167924945
 30
0.0
 11
4296.937100103987
 21
6920.54816792493
 31
0.0
  0
LINE
  5
15388
330
747D
100
AcDbEntity
  8
細線
100
AcDbLine
 10
4364.605569998651
 20
6915.548150371264
 30
0.0
 11
4362.274023522464
 21
6920.548167924945
 31
0.0
  0
LINE
  5
15389
330
747D
100
AcDbEntity
  8
細線
100
AcDbLine
 10
4294.605561813234
 20
6915.548167924973
 30
0.0
 11
4296.937100104002
 21
6920.548167924959
 31
0.0
  0
LINE
  5
1538A
330
747D
100
AcDbEntity
  8
細線
100
AcDbLine
 10
4154.605597132126
 20
6915.548176112342
 30
0.0
 11
4156.937135422894
 21
6920.548176112328
 31
0.0
  0
LINE
  5
1538B
330
747D
100
AcDbEntity
  8
細線
100
AcDbLine
 10
4224.605605317543
 20
6915.548158558633
 30
0.0
 11
4222.274058841355
 21
6920.548176112309
 31
0.0
  0
LINE
  5
1538C
330
747D
100
AcDbEntity
  8
細線
100
AcDbLine
 10
4222.274058841355
 20
6920.548176112309
 30
0.0
 11
4156.93713542288
 21
6920.548176112299
 31
0.0
  0
LINE
  5
1538D
330
747D
100
AcDbEntity
  8
細線
100
AcDbLine
 10
3783.105562935006
 20
6881.548347793056
 30
0.0
 11
3785.437101225774
 21
6886.548347793041
 31
0.0
  0
LINE
  5
1538E
330
747D
100
AcDbEntity
  8
細線
100
AcDbLine
 10
3853.105571120422
 20
6881.548330239342
 30
0.0
 11
3850.774024644234
 21
6886.54834779302
 31
0.0
  0
LINE
  5
1538F
330
747D
100
AcDbEntity
  8
細線
100
AcDbLine
 10
3850.774024644234
 20
6886.54834779302
 30
0.0
 11
3785.437101225762
 21
6886.548347793013
 31
0.0
  0
LINE
  5
15390
330
747D
100
AcDbEntity
  8
細線
100
AcDbLine
 10
3990.774024644235
 20
6886.54834779302
 30
0.0
 11
3925.437101225763
 21
6886.548347793013
 31
0.0
  0
LINE
  5
15391
330
747D
100
AcDbEntity
  8
細線
100
AcDbLine
 10
3993.105571120422
 20
6881.548330239342
 30
0.0
 11
3990.774024644235
 21
6886.54834779302
 31
0.0
  0
LINE
  5
15392
330
747D
100
AcDbEntity
  8
細線
100
AcDbLine
 10
3923.105562935006
 20
6881.548347793056
 30
0.0
 11
3925.437101225774
 21
6886.548347793041
 31
0.0
  0
LINE
  5
15393
330
747D
100
AcDbEntity
  8
細線
100
AcDbLine
 10
3710.774024644235
 20
6886.54834779302
 30
0.0
 11
3645.437101225763
 21
6886.548347793008
 31
0.0
  0
LINE
  5
15394
330
747D
100
AcDbEntity
  8
細線
100
AcDbLine
 10
3713.105571120422
 20
6881.548330239342
 30
0.0
 11
3710.774024644235
 21
6886.54834779302
 31
0.0
  0
LINE
  5
15395
330
747D
100
AcDbEntity
  8
細線
100
AcDbLine
 10
3643.105562935005
 20
6881.548347793053
 30
0.0
 11
3645.437101225774
 21
6886.548347793038
 31
0.0
  0
LINE
  5
15396
330
747D
100
AcDbEntity
  8
細線
100
AcDbLine
 10
3503.105571120422
 20
6881.548347793056
 30
0.0
 11
3505.43710941119
 21
6886.548347793041
 31
0.0
  0
LINE
  5
15397
330
747D
100
AcDbEntity
  8
細線
100
AcDbLine
 10
3573.105579305837
 20
6881.548330239342
 30
0.0
 11
3570.77403282965
 21
6886.54834779302
 31
0.0
  0
LINE
  5
15398
330
747D
100
AcDbEntity
  8
細線
100
AcDbLine
 10
3570.77403282965
 20
6886.54834779302
 30
0.0
 11
3505.437109411179
 21
6886.548347793013
 31
0.0
  0
ARC
  5
15399
330
747D
100
AcDbEntity
  8
部品1
 48
0.01
100
AcDbCircle
 10
3458.605459868087
 20
6880.547225607982
 30
0.0
 40
0.5
100
AcDbArc
 50
270.0
 51
0.0
  0
LINE
  5
1539A
330
747D
100
AcDbEntity
  8
部品1
 48
0.01
100
AcDbLine
 10
3459.105459868087
 20
6881.547225607983
 30
0.0
 11
3459.105459868087
 21
6880.547225607982
 31
0.0
  0
LINE
  5
1539B
330
747D
100
AcDbEntity
  8
部品1
 48
0.01
100
AcDbLine
 10
3459.105459868087
 20
6881.547225607983
 30
0.0
 11
3459.105459868087
 21
6880.547225607982
 31
0.0
  0
LINE
  5
1539C
330
747D
100
AcDbEntity
  8
部品1
 48
0.01
100
AcDbLine
 10
3458.605459868087
 20
6880.047225607983
 30
0.0
 11
3451.992954438022
 21
6880.047225607983
 31
0.0
  0
ARC
  5
1539D
330
747D
100
AcDbEntity
  8
部品1
100
AcDbCircle
 10
3452.061303990803
 20
6881.047225607983
 30
0.0
 40
1.0
100
AcDbArc
 50
160.5287793655822
 51
270.0
  0
ARC
  5
1539E
330
747D
100
AcDbEntity
  8
部品1
100
AcDbCircle
 10
3426.605459868087
 20
6890.047225607983
 30
0.0
 40
26.0
100
AcDbArc
 50
340.5287793655822
 51
0.0
  0
LINE
  5
1539F
330
747D
100
AcDbEntity
  8
部品1
100
AcDbLine
 10
3452.605459868087
 20
6890.047225607983
 30
0.0
 11
3452.605459868087
 21
6895.047225607983
 31
0.0
  0
ARC
  5
153A0
330
747D
100
AcDbEntity
  8
部品1
 48
0.01
100
AcDbCircle
 10
3450.605459868087
 20
6895.047225607983
 30
0.0
 40
2.0
100
AcDbArc
 50
0.0
 51
90.0
  0
ARC
  5
153A1
330
747D
100
AcDbEntity
  8
部品1
100
AcDbCircle
 10
3448.997068243277
 20
6894.047225607983
 30
0.0
 40
3.0
100
AcDbArc
 50
90.0
 51
141.6069559807873
  0
LINE
  5
153A2
330
747D
100
AcDbEntity
  8
部品1
 48
0.01
100
AcDbLine
 10
3450.605459868087
 20
6897.047225607983
 30
0.0
 11
3448.997068243277
 21
6897.047225607983
 31
0.0
  0
ARC
  5
153A3
330
747D
100
AcDbEntity
  8
部品1
100
AcDbCircle
 10
3430.534745653816
 20
6893.347225607986
 30
0.0
 40
3.0
100
AcDbArc
 50
254.0576313943215
 51
270.0
  0
ARC
  5
153A4
330
747D
100
AcDbEntity
  8
部品1
100
AcDbCircle
 10
3437.676174082358
 20
6893.347225607986
 30
0.0
 40
3.0
100
AcDbArc
 50
270.0
 51
285.9423686056786
  0
LINE
  5
153A5
330
747D
100
AcDbEntity
  8
部品1
100
AcDbLine
 10
3437.676174082358
 20
6890.347225607986
 30
0.0
 11
3430.534745653816
 21
6890.347225607986
 31
0.0
  0
ARC
  5
153A6
330
747D
100
AcDbEntity
  8
部品1
100
AcDbCircle
 10
3434.105459868087
 20
6905.847225607987
 30
0.0
 40
16.0
100
AcDbArc
 50
285.9423686056786
 51
321.6069559807873
  0
LINE
  5
153A7
330
747D
100
AcDbEntity
  8
部品1
 48
0.01
100
AcDbLine
 10
3417.605459868087
 20
6897.047225607983
 30
0.0
 11
3419.213851492897
 21
6897.047225607983
 31
0.0
  0
ARC
  5
153A8
330
747D
100
AcDbEntity
  8
部品1
100
AcDbCircle
 10
3419.213851492897
 20
6894.047225607983
 30
0.0
 40
3.0
100
AcDbArc
 50
38.39304401921267
 51
90.0
  0
ARC
  5
153A9
330
747D
100
AcDbEntity
  8
部品1
100
AcDbCircle
 10
3434.105459868087
 20
6905.847225607987
 30
0.0
 40
16.0
100
AcDbArc
 50
218.3930440192126
 51
254.0576313943215
  0
LINE
  5
153AA
330
747D
100
AcDbEntity
  8
部品1
100
AcDbLine
 10
3415.605459868087
 20
6890.047225607983
 30
0.0
 11
3415.605459868087
 21
6895.047225607983
 31
0.0
  0
ARC
  5
153AB
330
747D
100
AcDbEntity
  8
部品1
 48
0.01
100
AcDbCircle
 10
3417.605459868087
 20
6895.047225607983
 30
0.0
 40
2.0
100
AcDbArc
 50
90.0
 51
180.0
  0
ARC
  5
153AC
330
747D
100
AcDbEntity
  8
部品1
100
AcDbCircle
 10
3441.605459868087
 20
6890.047225607983
 30
0.0
 40
26.0
100
AcDbArc
 50
180.0
 51
199.4712206344178
  0
ARC
  5
153AD
330
747D
100
AcDbEntity
  8
部品1
 48
0.01
100
AcDbCircle
 10
3409.605459868087
 20
6880.547225607982
 30
0.0
 40
0.5
100
AcDbArc
 50
180.0
 51
270.0
  0
LINE
  5
153AE
330
747D
100
AcDbEntity
  8
部品1
 48
0.01
100
AcDbLine
 10
3409.605459868087
 20
6880.047225607983
 30
0.0
 11
3416.149615745371
 21
6880.047225607983
 31
0.0
  0
LINE
  5
153AF
330
747D
100
AcDbEntity
  8
部品1
 48
0.01
100
AcDbLine
 10
3409.105459868087
 20
6881.547225607983
 30
0.0
 11
3409.105459868087
 21
6880.547225607982
 31
0.0
  0
ARC
  5
153B0
330
747D
100
AcDbEntity
  8
部品1
100
AcDbCircle
 10
3416.149615745371
 20
6881.047225607983
 30
0.0
 40
1.0
100
AcDbArc
 50
270.0
 51
19.4712206344178
  0
LINE
  5
153B1
330
747D
100
AcDbEntity
  8
細線
100
AcDbLine
 10
3454.605459868094
 20
6899.547225607986
 30
0.0
 11
3413.605459868094
 21
6899.547225607979
 31
0.0
  0
LINE
  5
153B2
330
747D
100
AcDbEntity
  8
細線
100
AcDbLine
 10
3413.605459868094
 20
6899.547225607979
 30
0.0
 11
3413.605459868094
 21
6881.547225607961
 31
0.0
  0
LINE
  5
153B3
330
747D
100
AcDbEntity
  8
細線
100
AcDbLine
 10
3454.605459868094
 20
6899.547225607986
 30
0.0
 11
3454.605459868094
 21
6881.547225607961
 31
0.0
  0
LINE
  5
153B4
330
747D
100
AcDbEntity
  8
細線
100
AcDbLine
 10
3298.105566466832
 20
6885.548156062387
 30
0.0
 11
3298.105566466832
 21
6881.548156062433
 31
0.0
  0
DIMENSION
  5
153B5
330
747D
100
AcDbEntity
  8
寸法
 48
50.0
100
AcDbDimension
  2
*D27
 10
4564.105566466832
 20
6218.953012387363
 30
0.0
 11
3945.774982323914
 21
6218.953012387363
 31
0.0
 70
   160
  1
有効開口部間口\P<>
 71
     5
 42
1266.0
  3
INABA_S40
100
AcDbAlignedDimension
 13
3298.105566466832
 23
6876.548156062387
 33
0.0
 14
4564.105566466832
 24
6876.548156062387
 34
0.0
100
AcDbRotatedDimension
1001
ACAD
1000
DSTYLE
1002
{
1070
    41
1040
0.5
1070
    44
1040
1.0
1070
   147
1040
0.8
1070
   271
1070
     2
1070
   272
1070
     2
1070
   289
1070
     3
1070
   340
1005
F706
1070
   343
1005
F744
1070
   344
1005
F744
1002
}
  0
LINE
  5
153B6
330
747D
100
AcDbEntity
  8
部品1
100
AcDbLine
 10
5386.105566466832
 20
6953.548156062386
 30
0.0
 11
5413.105566466832
 21
6953.548156062386
 31
0.0
  0
LINE
  5
153B8
330
747D
100
AcDbEntity
  8
部品1
100
AcDbLine
 10
5413.105566466832
 20
6876.548156062387
 30
0.0
 11
5413.105566466832
 21
6953.548156062386
 31
0.0
  0
LINE
  5
153B9
330
747D
100
AcDbEntity
  8
部品1
100
AcDbLine
 10
5374.105566466832
 20
6949.548156062387
 30
0.0
 11
5386.105566466832
 21
6949.548156062387
 31
0.0
  0
LINE
  5
153BA
330
747D
100
AcDbEntity
  8
部品1
100
AcDbLine
 10
5383.105566466832
 20
6885.548156062387
 30
0.0
 11
5383.105566466832
 21
6876.548156062387
 31
0.0
  0
LINE
  5
153BB
330
747D
100
AcDbEntity
  8
部品1
100
AcDbLine
 10
5374.105566466832
 20
6885.548156062387
 30
0.0
 11
5383.105566466832
 21
6885.548156062387
 31
0.0
  0
LINE
  5
153BC
330
747D
100
AcDbEntity
  8
部品1
100
AcDbLine
 10
5374.105566466832
 20
6949.548156062387
 30
0.0
 11
5374.105566466832
 21
6885.548156062387
 31
0.0
  0
LINE
  5
153BD
330
747D
100
AcDbEntity
  8
部品1
100
AcDbLine
 10
5386.105566466832
 20
6980.548156062387
 30
0.0
 11
5386.105566466832
 21
6949.548156062387
 31
0.0
  0
LINE
  5
153BE
330
747D
100
AcDbEntity
  8
部品1
100
AcDbLine
 10
3298.105566466832
 20
6949.548156062387
 30
0.0
 11
3286.105566466832
 21
6949.548156062387
 31
0.0
  0
LINE
  5
153BF
330
747D
100
AcDbEntity
  8
部品1
100
AcDbLine
 10
3259.105566466832
 20
6953.548156062386
 30
0.0
 11
3286.105566466832
 21
6953.548156062386
 31
0.0
  0
LINE
  5
153C0
330
747D
100
AcDbEntity
  8
部品1
100
AcDbLine
 10
3289.105566466832
 20
6885.548156062387
 30
0.0
 11
3289.105566466832
 21
6876.548156062387
 31
0.0
  0
LINE
  5
153C1
330
747D
100
AcDbEntity
  8
部品1
100
AcDbLine
 10
3298.105566466832
 20
6885.548156062387
 30
0.0
 11
3289.105566466832
 21
6885.548156062387
 31
0.0
  0
LINE
  5
153C2
330
747D
100
AcDbEntity
  8
部品1
100
AcDbLine
 10
3289.105566466832
 20
6876.548156062387
 30
0.0
 11
3259.105566466832
 21
6876.548156062387
 31
0.0
  0
LINE
  5
153C3
330
747D
100
AcDbEntity
  8
部品1
100
AcDbLine
 10
3259.105566466832
 20
6876.548156062387
 30
0.0
 11
3259.105566466832
 21
6953.548156062386
 31
0.0
  0
LINE
  5
153C4
330
747D
100
AcDbEntity
  8
部品1
100
AcDbLine
 10
3298.105566466832
 20
6949.548156062387
 30
0.0
 11
3298.105566466832
 21
6885.548156062387
 31
0.0
  0
LINE
  5
153C5
330
747D
100
AcDbEntity
  8
部品1
100
AcDbLine
 10
3286.105566466832
 20
6980.548156062383
 30
0.0
 11
3286.105566466832
 21
6949.548156062387
 31
0.0
  0
LINE
  5
153C6
330
747D
100
AcDbEntity
  8
部品1
100
AcDbLine
 10
3286.105566466832
 20
6980.548156062383
 30
0.0
 11
5386.105566466832
 21
6980.548156062387
 31
0.0
  0
LINE
  5
153C7
330
747D
100
AcDbEntity
  8
部品1
100
AcDbLine
 10
5383.105566466832
 20
6876.548156062387
 30
0.0
 11
5413.105566466832
 21
6876.548156062387
 31
0.0
  0
LINE
  5
153C8
330
747D
100
AcDbEntity
  8
部品1
100
AcDbLine
 10
3289.105566466832
 20
6876.548156062387
 30
0.0
 11
5386.105566466832
 21
6876.548156062387
 31
0.0
  0
LINE
  5
153C9
330
747D
100
AcDbEntity
  8
細線
  6
Continuous
 62
     5
100
AcDbLine
 10
4665.105566466835
 20
6915.548156062382
 30
0.0
 11
4665.105566466835
 21
6915.548156062382
 31
0.0
  0
LINE
  5
153CA
330
747D
100
AcDbEntity
  8
細線
  6
Continuous
 62
     5
100
AcDbLine
 10
4657.605601785728
 20
6915.548165983441
 30
0.0
 11
4657.605601785728
 21
6915.548165983441
 31
0.0
  0
LINE
  5
153CB
330
747D
100
AcDbEntity
  8
細線
  6
Continuous
 62
     5
100
AcDbLine
 10
4651.605601785727
 20
6915.548165983441
 30
0.0
 11
4651.605601785727
 21
6915.548165983441
 31
0.0
  0
LINE
  5
153CC
330
747D
100
AcDbEntity
  8
細線
  6
Continuous
 62
     5
100
AcDbLine
 10
4719.105566466835
 20
6934.548156062383
 30
0.0
 11
4719.105566466835
 21
6934.548156062383
 31
0.0
  0
LINE
  5
153CD
330
747D
100
AcDbEntity
  8
細線
 48
50.0
100
AcDbLine
 10
3312.105571120426
 20
6902.148330239341
 30
0.0
 11
3312.105571120426
 21
6910.54448064698
 31
0.0
  0
LINE
  5
153CE
330
747D
100
AcDbEntity
  8
細線
 48
50.0
100
AcDbLine
 10
3312.105571120426
 20
6910.54448064698
 30
0.0
 11
3298.105566466832
 21
6910.544480646978
 31
0.0
  0
LINE
  5
153CF
330
747D
100
AcDbEntity
  8
細線
 48
50.0
100
AcDbLine
 10
4063.105571120422
 20
6898.69833023934
 30
0.0
 11
4063.105571120422
 21
6903.548330239343
 31
0.0
  0
LINE
  5
153D0
330
747D
100
AcDbEntity
  8
細線
 48
50.0
100
AcDbLine
 10
4063.105571120422
 20
6903.548330239343
 30
0.0
 11
4078.105571120421
 21
6903.548330239343
 31
0.0
  0
LINE
  5
153D1
330
747D
100
AcDbEntity
  8
細線
 48
50.0
100
AcDbLine
 10
4078.105571120421
 20
6903.548330239343
 30
0.0
 11
4078.105571120425
 21
6910.548330239342
 31
0.0
  0
LINE
  5
153D2
330
747D
100
AcDbEntity
  8
細線
 48
50.0
100
AcDbLine
 10
4078.105571120425
 20
6910.548330239342
 30
0.0
 11
4093.105571120421
 21
6910.548330239342
 31
0.0
  0
LINE
  5
153D3
330
747D
100
AcDbEntity
  8
細線
 48
50.0
100
AcDbLine
 10
4093.105571120421
 20
6910.548330239342
 30
0.0
 11
4093.105571120421
 21
6881.548330239342
 31
0.0
  0
LINE
  5
153D4
330
747D
100
AcDbEntity
  8
細線
 48
50.0
100
AcDbLine
 10
3289.105566466832
 20
6881.545664582811
 30
0.0
 11
3503.105571120422
 21
6881.548347793056
 31
0.0
  0
LINE
  5
153D5
330
747D
100
AcDbEntity
  8
細線
 48
50.0
100
AcDbLine
 10
3993.105571120422
 20
6881.548330239342
 30
0.0
 11
4093.105571120421
 21
6881.548330239342
 31
0.0
  0
LINE
  5
153D6
330
747D
100
AcDbEntity
  8
細線
 48
50.0
100
AcDbLine
 10
3713.105571120422
 20
6881.548330239342
 30
0.0
 11
3783.105571120422
 21
6881.548330239342
 31
0.0
  0
LINE
  5
153D7
330
747D
100
AcDbEntity
  8
細線
 48
50.0
100
AcDbLine
 10
3725.967536132952
 20
6881.548330239342
 30
0.0
 11
3731.723053715619
 21
6899.819181529835
 31
0.0
  0
LINE
  5
153D8
330
747D
100
AcDbEntity
  8
細線
 48
50.0
100
AcDbLine
 10
3731.723053715619
 20
6899.819181529835
 30
0.0
 11
3742.651502196053
 21
6899.819181529832
 31
0.0
  0
ARC
  5
153D9
330
747D
100
AcDbEntity
  8
細線
 48
50.0
100
AcDbCircle
 10
3742.651502196053
 20
6898.819181529832
 30
0.0
 40
1.0
100
AcDbArc
 50
24.62431835212505
 51
90.0
  0
ARC
  5
153DA
330
747D
100
AcDbEntity
  8
細線
 48
50.0
100
AcDbCircle
 10
3753.560214310686
 20
6898.819181529832
 30
0.0
 40
1.0
100
AcDbArc
 50
90.0
 51
155.3756816478749
  0
ARC
  5
153DB
330
747D
100
AcDbEntity
  8
細線
 48
50.0
100
AcDbCircle
 10
3748.105858253367
 20
6901.319181529832
 30
0.0
 40
5.0
100
AcDbArc
 50
204.6243183521251
 51
335.375681647875
  0
LINE
  5
153DC
330
747D
100
AcDbEntity
  8
細線
 48
50.0
100
AcDbLine
 10
3753.560214310686
 20
6899.819181529832
 30
0.0
 11
3764.488662791119
 21
6899.819181529835
 31
0.0
  0
LINE
  5
153DD
330
747D
100
AcDbEntity
  8
細線
 48
50.0
100
AcDbLine
 10
3764.488662791119
 20
6899.819181529835
 30
0.0
 11
3770.244180373787
 21
6881.548330239342
 31
0.0
  0
LINE
  5
153DE
330
747D
100
AcDbEntity
  8
細線
 48
50.0
100
AcDbLine
 10
4063.105571120422
 20
6902.148330239341
 30
0.0
 11
3312.105571120426
 21
6902.148330239341
 31
0.0
  0
LINE
  5
153DF
330
747D
100
AcDbEntity
  8
細線
 48
50.0
100
AcDbLine
 10
3923.105571120422
 20
6881.548330239342
 30
0.0
 11
3853.105571120422
 21
6881.548330239342
 31
0.0
  0
LINE
  5
153E0
330
747D
100
AcDbEntity
  8
細線
100
AcDbLine
 10
3643.105571120422
 20
6881.548330239342
 30
0.0
 11
3573.105579305837
 21
6881.548330239342
 31
0.0
  0
LINE
  5
153E1
330
747D
100
AcDbEntity
  8
細線
 48
50.0
100
AcDbLine
 10
4717.105561813246
 20
6936.148374097209
 30
0.0
 11
4082.105571120421
 21
6936.148374097204
 31
0.0
  0
LINE
  5
153E2
330
747D
100
AcDbEntity
  8
細線
 48
50.0
100
AcDbLine
 10
4082.105571120421
 20
6933.044524504849
 30
0.0
 11
4082.105571120421
 21
6937.544524504848
 31
0.0
  0
LINE
  5
153E3
330
747D
100
AcDbEntity
  8
細線
 48
50.0
100
AcDbLine
 10
4082.105571120421
 20
6937.544524504848
 30
0.0
 11
4067.105571120421
 21
6937.544524504848
 31
0.0
  0
LINE
  5
153E4
330
747D
100
AcDbEntity
  8
細線
 48
50.0
100
AcDbLine
 10
4067.105571120421
 20
6937.544524504848
 30
0.0
 11
4067.105571120421
 21
6944.544524504848
 31
0.0
  0
LINE
  5
153E5
330
747D
100
AcDbEntity
  8
細線
 48
50.0
100
AcDbLine
 10
4067.105571120421
 20
6944.544524504848
 30
0.0
 11
4052.105571120425
 21
6944.544524504845
 31
0.0
  0
LINE
  5
153E6
330
747D
100
AcDbEntity
  8
細線
 48
50.0
100
AcDbLine
 10
4052.105571120425
 20
6944.544524504845
 30
0.0
 11
4052.105571120425
 21
6906.944296401734
 31
0.0
  0
LINE
  5
153E7
330
747D
100
AcDbEntity
  8
細線
 48
50.0
100
AcDbLine
 10
4052.105571120425
 20
6906.944296401734
 30
0.0
 11
4072.105578421598
 21
6906.944337951276
 31
0.0
  0
LINE
  5
153E8
330
747D
100
AcDbEntity
  8
細線
 48
50.0
100
AcDbLine
 10
4072.105533552655
 20
6915.547799587084
 30
0.0
 11
4072.105578421598
 21
6906.944337951276
 31
0.0
  0
LINE
  5
153E9
330
747D
100
AcDbEntity
  8
細線
 48
50.0
100
AcDbLine
 10
4717.105561813246
 20
6932.698374097208
 30
0.0
 11
4717.105561813246
 21
6937.548374097207
 31
0.0
  0
LINE
  5
153EA
330
747D
100
AcDbEntity
  8
細線
 48
50.0
100
AcDbLine
 10
4717.105561813246
 20
6937.548374097207
 30
0.0
 11
4732.105561813242
 21
6937.548374097207
 31
0.0
  0
LINE
  5
153EB
330
747D
100
AcDbEntity
  8
細線
 48
50.0
100
AcDbLine
 10
4732.105561813242
 20
6937.548374097207
 30
0.0
 11
4732.105573447218
 21
6944.548374097251
 31
0.0
  0
LINE
  5
153EC
330
747D
100
AcDbEntity
  8
細線
 48
50.0
100
AcDbLine
 10
4732.105573447218
 20
6944.548374097251
 30
0.0
 11
4747.105571617748
 21
6944.548374097251
 31
0.0
  0
LINE
  5
153ED
330
747D
100
AcDbEntity
  8
細線
 48
50.0
100
AcDbLine
 10
4747.105571617748
 20
6944.548374097251
 30
0.0
 11
4747.105561315927
 21
6915.548167924978
 31
0.0
  0
LINE
  5
153EE
330
747D
100
AcDbEntity
  8
細線
 48
50.0
100
AcDbLine
 10
4434.605588946711
 20
6915.548176112342
 30
0.0
 11
4364.605841029127
 21
6915.548170675005
 31
0.0
  0
LINE
  5
153EF
330
747D
100
AcDbEntity
  8
細線
 48
50.0
100
AcDbLine
 10
4072.105533552655
 20
6915.547799587084
 30
0.0
 11
4083.338222907365
 21
6915.547982540231
 31
0.0
  0
ARC
  5
153F0
330
747D
100
AcDbEntity
  8
細線
 48
50.0
100
AcDbCircle
 10
4089.920515214702
 20
6914.348146453844
 30
0.0
 40
1.8
100
AcDbArc
 50
270.0006665777295
 51
345.0005554812987
  0
LINE
  5
153F1
330
747D
100
AcDbEntity
  8
細線
 48
50.0
100
AcDbLine
 10
4091.906948660781
 20
6914.806986911123
 30
0.0
 11
4091.659186218582
 21
6913.882289029015
 31
0.0
  0
LINE
  5
153F2
330
747D
100
AcDbEntity
  8
細線
 48
50.0
100
AcDbLine
 10
4089.920536155857
 20
6912.548146453964
 30
0.0
 11
4086.290608737087
 21
6912.548104223484
 31
0.0
  0
ARC
  5
153F3
330
747D
100
AcDbEntity
  8
細線
 48
50.0
100
AcDbCircle
 10
4086.290587795935
 20
6914.348104223363
 30
0.0
 40
1.8
100
AcDbArc
 50
195.0010443049461
 51
270.0006665777295
  0
LINE
  5
153F4
330
747D
100
AcDbEntity
  8
細線
 48
50.0
100
AcDbLine
 10
4084.304160303677
 20
6914.806819190927
 30
0.0
 11
4084.55192980019
 21
6913.882198252347
 31
0.0
  0
ARC
  5
153F5
330
747D
100
AcDbEntity
  8
細線
 48
50.0
100
AcDbCircle
 10
4083.338239194928
 20
6914.547982540366
 30
0.0
 40
1.0
100
AcDbArc
 50
15.00104430494617
 51
90.00093320877969
  0
LINE
  5
153F6
330
747D
100
AcDbEntity
  8
細線
 48
50.0
100
AcDbLine
 10
4092.872870015884
 20
6915.548177230636
 30
0.0
 11
4093.814630166789
 21
6915.548183804485
 31
0.0
  0
ARC
  5
153F7
330
747D
100
AcDbEntity
  8
細線
 48
50.0
100
AcDbCircle
 10
4092.87287699627
 20
6914.548177230661
 30
0.0
 40
1.0
100
AcDbArc
 50
90.0003999466794
 51
165.0005554812987
  0
LINE
  5
153F8
330
747D
100
AcDbEntity
  8
細線
 48
50.0
100
AcDbLine
 10
4644.605561813235
 20
6915.548167924978
 30
0.0
 11
4747.105561315927
 21
6915.548167924978
 31
0.0
  0
LINE
  5
153F9
330
747D
100
AcDbEntity
  8
細線
 48
50.0
100
AcDbLine
 10
4154.605597132126
 20
6915.548176112342
 30
0.0
 11
4093.505535905206
 21
6915.548183804485
 31
0.0
  0
LINE
  5
153FA
330
747D
100
AcDbEntity
  8
細線
 48
50.0
100
AcDbLine
 10
4574.605597132126
 20
6915.548212953426
 30
0.0
 11
4504.605590177741
 21
6915.548167930758
 31
0.0
  0
LINE
  5
153FB
330
747D
100
AcDbEntity
  8
細線
 48
50.0
100
AcDbLine
 10
4294.605561813234
 20
6915.548167924973
 30
0.0
 11
4224.605544525359
 21
6915.54816792498
 31
0.0
  0
ARC
  5
153FC
330
747D
100
AcDbEntity
  8
細線
 48
50.0
100
AcDbCircle
 10
4731.305566466843
 20
6948.748156062388
 30
0.0
 40
0.8
100
AcDbArc
 50
359.9997333689499
 51
89.99986668437072
  0
ARC
  5
153FD
330
747D
100
AcDbEntity
  8
細線
 48
50.0
100
AcDbCircle
 10
4738.905573291938
 20
6948.748167231004
 30
0.0
 40
0.8
100
AcDbArc
 50
90.00014387753465
 51
179.9997333689498
  0
LINE
  5
153FE
330
747D
100
AcDbEntity
  8
細線
 48
50.0
100
AcDbLine
 10
4731.305568328277
 20
6949.548156062387
 30
0.0
 11
4726.105566466832
 21
6949.548156062387
 31
0.0
  0
ARC
  5
153FF
330
747D
100
AcDbEntity
  8
細線
 48
50.0
100
AcDbCircle
 10
4732.805566466832
 20
6947.248156062387
 30
0.0
 40
0.7
100
AcDbArc
 50
180.0
 51
270.0
  0
ARC
  5
15400
330
747D
100
AcDbEntity
  8
細線
 48
50.0
100
AcDbCircle
 10
4737.405566466835
 20
6947.248156062387
 30
0.0
 40
0.7
100
AcDbArc
 50
270.0
 51
0.0
  0
LINE
  5
15401
330
747D
100
AcDbEntity
  8
細線
 48
50.0
100
AcDbLine
 10
4738.105566466832
 20
6947.248156062387
 30
0.0
 11
4738.105573291949
 21
6948.748170953876
 31
0.0
  0
LINE
  5
15402
330
747D
100
AcDbEntity
  8
細線
 48
50.0
100
AcDbLine
 10
4732.805566466832
 20
6946.548156062387
 30
0.0
 11
4737.405566466835
 21
6946.548156062387
 31
0.0
  0
LINE
  5
15403
330
747D
100
AcDbEntity
  8
細線
 48
50.0
100
AcDbLine
 10
4732.105566466832
 20
6948.748156062388
 30
0.0
 11
4732.105566466832
 21
6947.248156062387
 31
0.0
  0
LINE
  5
15404
330
747D
100
AcDbEntity
  8
細線
 48
50.0
100
AcDbLine
 10
5357.705566466838
 20
6979.548156062387
 30
0.0
 11
4721.105566466832
 21
6979.548156062382
 31
0.0
  0
LINE
  5
15405
330
747D
100
AcDbEntity
  8
細線
 48
50.0
100
AcDbLine
 10
5383.605566466832
 20
6974.54815606239
 30
0.0
 11
5367.705566466838
 21
6974.548156062387
 31
0.0
  0
LINE
  5
15406
330
747D
100
AcDbEntity
  8
細線
 48
50.0
100
AcDbLine
 10
5367.705566466835
 20
6974.548156062387
 30
0.0
 11
5357.705566466838
 21
6979.548156062387
 31
0.0
  0
LINE
  5
15407
330
747D
100
AcDbEntity
  8
細線
100
AcDbLine
 10
4968.605566466833
 20
6949.548156062387
 30
0.0
 11
4968.605566466833
 21
6978.848156062387
 31
0.0
  0
LINE
  5
15408
330
747D
100
AcDbEntity
  8
細線
100
AcDbLine
 10
4968.605566466833
 20
6978.848156062387
 30
0.0
 11
4988.605566466834
 21
6978.848156062387
 31
0.0
  0
LINE
  5
15409
330
747D
100
AcDbEntity
  8
細線
100
AcDbLine
 10
4988.605566466834
 20
6949.548156062387
 30
0.0
 11
4988.605566466834
 21
6978.848156062387
 31
0.0
  0
LINE
  5
1540A
330
747D
100
AcDbEntity
  8
細線
100
AcDbLine
 10
5149.855566466833
 20
6949.548156062387
 30
0.0
 11
5079.855566466832
 21
6949.548156062387
 31
0.0
  0
LINE
  5
1540B
330
747D
100
AcDbEntity
  8
細線
 48
50.0
100
AcDbLine
 10
4869.855566466831
 20
6949.548156062387
 30
0.0
 11
4738.901346039675
 21
6949.548156062387
 31
0.0
  0
LINE
  5
1540C
330
747D
100
AcDbEntity
  8
細線
100
AcDbLine
 10
5009.855566466833
 20
6949.548156062387
 30
0.0
 11
4939.855566466833
 21
6949.548156062387
 31
0.0
  0
LINE
  5
1540D
330
747D
100
AcDbEntity
  8
細線
 48
50.0
100
AcDbLine
 10
4726.105566466832
 20
6941.548156062387
 30
0.0
 11
4726.105566466832
 21
6949.548156062387
 31
0.0
  0
LINE
  5
1540E
330
747D
100
AcDbEntity
  8
細線
 48
50.0
100
AcDbLine
 10
4706.105566466832
 20
6941.54815606239
 30
0.0
 11
4726.105566466832
 21
6941.548156062387
 31
0.0
  0
LINE
  5
1540F
330
747D
100
AcDbEntity
  8
細線
 48
50.0
100
AcDbLine
 10
4721.105566466832
 20
6979.548156062387
 30
0.0
 11
4721.105566466832
 21
6974.548156062387
 31
0.0
  0
LINE
  5
15410
330
747D
100
AcDbEntity
  8
細線
 48
50.0
100
AcDbLine
 10
4706.105566466832
 20
6979.548156062382
 30
0.0
 11
4721.105566466832
 21
6979.548156062387
 31
0.0
  0
LINE
  5
15411
330
747D
100
AcDbEntity
  8
細線
 48
50.0
100
AcDbLine
 10
4706.105566466832
 20
6941.54815606239
 30
0.0
 11
4706.105566466832
 21
6979.548156062382
 31
0.0
  0
LINE
  5
15412
330
747D
100
AcDbEntity
  8
細線
100
AcDbLine
 10
5374.105566466832
 20
6949.548156062387
 30
0.0
 11
5219.855566466833
 21
6949.548156062387
 31
0.0
  0
LINE
  5
15413
330
747D
100
AcDbEntity
  8
細線
 48
50.0
100
AcDbLine
 10
5383.605566466832
 20
6974.54815606239
 30
0.0
 11
5383.605566466832
 21
6949.548156062387
 31
0.0
  0
DIMENSION
  5
15681
330
747D
100
AcDbEntity
  8
寸法
 48
50.0
100
AcDbDimension
  2
*D28
 10
5441.105566466831
 20
5628.466198559535
 30
0.0
 11
4126.105566466831
 21
5720.478009583157
 31
0.0
 70
    32
 71
     5
 42
2630.000000000002
  3
INABA_S40
100
AcDbAlignedDimension
 13
2811.10556646683
 23
6953.548156062381
 33
0.0
 14
5441.105566466831
 24
7008.548156062381
 34
0.0
100
AcDbRotatedDimension
1001
ACAD
1000
DSTYLE
1002
{
1070
   287
1070
     3
1070
    41
1040
0.5
1070
    44
1040
1.0
1070
   147
1040
0.8
1070
   271
1070
     2
1070
   272
1070
     2
1070
   289
1070
     3
1070
   340
1005
F706
1070
     6
1000
DOT
1070
     7
1000
DOT
1002
}
  0
DIMENSION
  5
15682
330
747D
100
AcDbEntity
  8
寸法
 48
50.0
100
AcDbDimension
  2
*D29
 10
8071.105566466831
 20
5628.466198559535
 30
0.0
 11
6756.105566466832
 21
5720.478009583157
 31
0.0
 70
    32
 71
     5
 42
2629.999999999999
  3
INABA_S40
100
AcDbAlignedDimension
 13
5441.105566466831
 23
7008.548156062376
 33
0.0
 14
8071.105566466831
 24
6953.548156062381
 34
0.0
100
AcDbRotatedDimension
1001
ACAD
1000
DSTYLE
1002
{
1070
   287
1070
     3
1070
    41
1040
0.5
1070
    44
1040
1.0
1070
   147
1040
0.8
1070
   271
1070
     2
1070
   272
1070
     2
1070
   289
1070
     3
1070
   340
1005
F706
1070
     6
1000
DOT
1070
     7
1000
DOT
1002
}
  0
LWPOLYLINE
  5
15683
330
747D
100
AcDbEntity
  8
部品1
100
AcDbPolyline
 90
        4
 70
     1
 43
0.0
 10
5059.370233352625
 20
5441.899603026374
 10
5059.370233352625
 20
5202.007281480842
 10
5822.840899581066
 20
5202.007281480842
 10
5822.840899581066
 20
5441.899603026374
  0
TEXT
  5
15684
330
747D
100
AcDbEntity
  8
部品1
100
AcDbText
 10
5149.289843181667
 20
5249.006073807851
 30
0.0
 40
135.0
  1
平面図
  7
STYLE2
100
AcDbText
  0
DIMENSION
  5
15685
330
747D
100
AcDbEntity
  8
寸法
100
AcDbDimension
  2
*D30
 10
2479.786752562782
 20
6878.548156062354
 30
0.0
 11
2479.786752562781
 21
6738.062874688115
 31
0.0
 70
   160
 71
     5
 42
75.00000000002728
  3
INABA_S40
100
AcDbAlignedDimension
 13
2811.105566466831
 23
6953.548156062381
 33
0.0
 14
3259.105566466832
 24
6878.548156062354
 34
0.0
 50
90.0
100
AcDbRotatedDimension
1001
ACAD
1000
DSTYLE
1002
{
1070
    41
1040
0.5
1070
    44
1040
1.0
1070
   147
1040
0.8
1070
   271
1070
     2
1070
   272
1070
     2
1070
   289
1070
     3
1070
   340
1005
F706
1070
   343
1005
F744
1070
   344
1005
F744
1002
}
  0
DIMENSION
  5
15686
330
747D
100
AcDbEntity
  8
寸法
 48
50.0
100
AcDbDimension
  2
*D31
 10
5413.105566466832
 20
5917.591148553132
 30
0.0
 11
4313.227567115689
 21
5917.591148553132
 31
0.0
 70
   160
 71
     5
 42
2154.0
  3
INABA_S40G
100
AcDbAlignedDimension
 13
3259.105566466832
 23
6876.548156062385
 33
0.0
 14
5413.105566466832
 24
6876.548156062385
 34
0.0
100
AcDbRotatedDimension
1001
ACAD
1000
DSTYLE
1002
{
1070
   341
1005
0
1002
}
  0
LWPOLYLINE
  5
15A2F
330
747D
100
AcDbEntity
  8
部品1
 48
50.0
100
AcDbPolyline
 90
        4
 70
     1
 43
0.0
 10
3358.15556646683
 20
3023.459044902244
 10
3361.055566466832
 20
3023.459044902244
 10
3361.055566466832
 20
3032.959044902244
 10
3358.15556646683
 20
3032.959044902244
  0
CIRCLE
  5
15A30
330
747D
100
AcDbEntity
  8
部品1
 48
50.0
100
AcDbCircle
 10
3359.605566466831
 20
3028.209044902244
 30
0.0
 40
9.0
  0
ARC
  5
15A31
330
747D
100
AcDbEntity
  8
細線
 48
50.0
100
AcDbCircle
 10
3359.605566466831
 20
3028.209044902244
 30
0.0
 40
4.0
100
AcDbArc
 50
111.2538091853375
 51
248.7461908146625
  0
ARC
  5
15A32
330
747D
100
AcDbEntity
  8
細線
 48
50.0
100
AcDbCircle
 10
3359.605566466831
 20
3028.209044902244
 30
0.0
 40
17.5
100
AcDbArc
 50
306.4837370612677
 51
233.5162629387323
  0
LINE
  5
15A33
330
747D
100
AcDbEntity
  8
細線
 48
50.0
100
AcDbLine
 10
3369.605566466827
 20
3004.350084321361
 30
0.0
 11
3369.605566466832
 21
3013.334570121602
 31
0.0
  0
LINE
  5
15A34
330
747D
100
AcDbEntity
  8
細線
 48
50.0
100
AcDbLine
 10
3349.605566466831
 20
3004.350084321363
 30
0.0
 11
3349.605566466831
 21
3013.334570121599
 31
0.0
  0
ARC
  5
15A35
330
747D
100
AcDbEntity
  8
細線
 48
50.0
100
AcDbCircle
 10
3359.605566466831
 20
3028.209044902244
 30
0.0
 40
26.5
100
AcDbArc
 50
249.3326835063939
 51
290.6673164933835
  0
ARC
  5
15A36
330
747D
100
AcDbEntity
  8
細線
 48
50.0
100
AcDbCircle
 10
3368.605566466824
 20
3004.350084321361
 30
0.0
 40
1.0
100
AcDbArc
 50
290.6673164936062
 51
359.9999999998958
  0
ARC
  5
15A37
330
747D
100
AcDbEntity
  8
細線
 48
50.0
100
AcDbCircle
 10
3350.605566466831
 20
3004.350084321363
 30
0.0
 40
1.0
100
AcDbArc
 50
180.0
 51
249.3326835066164
  0
ARC
  5
15A38
330
747D
100
AcDbEntity
  8
細線
 48
50.0
100
AcDbCircle
 10
3348.605566466832
 20
3013.334570121599
 30
0.0
 40
1.0
100
AcDbArc
 50
0.0
 51
53.51626293873231
  0
ARC
  5
15A39
330
747D
100
AcDbEntity
  8
細線
 48
50.0
100
AcDbCircle
 10
3370.605566466835
 20
3013.334570121602
 30
0.0
 40
1.0
100
AcDbArc
 50
126.4837370614917
 51
180.0
  0
ARC
  5
15A3A
330
747D
100
AcDbEntity
  8
細線
 48
50.0
100
AcDbCircle
 10
3359.605566466831
 20
3028.209044902244
 30
0.0
 40
21.5
100
AcDbArc
 50
255.8014401250294
 51
284.1985598749706
  0
ARC
  5
15A3B
330
747D
100
AcDbEntity
  8
細線
 48
50.0
100
AcDbCircle
 10
3359.605566466831
 20
3028.209044902244
 30
0.0
 40
16.5
100
AcDbArc
 50
251.9694646069326
 51
288.0305353930674
  0
LINE
  5
15A3C
330
747D
100
AcDbEntity
  8
細線
 48
50.0
100
AcDbLine
 10
3365.105566466831
 20
3007.656672776437
 30
0.0
 11
3365.105566466831
 21
3012.234064463774
 31
0.0
  0
LINE
  5
15A3D
330
747D
100
AcDbEntity
  8
細線
 48
50.0
100
AcDbLine
 10
3354.105566466831
 20
3007.656672776437
 30
0.0
 11
3354.105566466831
 21
3012.234064463772
 31
0.0
  0
ARC
  5
15A3E
330
747D
100
AcDbEntity
  8
細線
 48
50.0
100
AcDbCircle
 10
3354.405566466834
 20
3012.234064463772
 30
0.0
 40
0.3
100
AcDbArc
 50
71.96946460693259
 51
180.0
  0
ARC
  5
15A3F
330
747D
100
AcDbEntity
  8
細線
 48
50.0
100
AcDbCircle
 10
3364.805566466832
 20
3012.234064463774
 30
0.0
 40
0.3
100
AcDbArc
 50
0.0
 51
108.0305353930674
  0
ARC
  5
15A40
330
747D
100
AcDbEntity
  8
細線
 48
50.0
100
AcDbCircle
 10
3364.805566466829
 20
3007.656672776437
 30
0.0
 40
0.3
100
AcDbArc
 50
284.1985598747622
 51
0.0000000001042204
  0
ARC
  5
15A41
330
747D
100
AcDbEntity
  8
細線
 48
50.0
100
AcDbCircle
 10
3354.405566466834
 20
3007.656672776437
 30
0.0
 40
0.3
100
AcDbArc
 50
180.0
 51
255.8014401248081
  0
CIRCLE
  5
15A42
330
747D
100
AcDbEntity
  8
細線
 48
50.0
100
AcDbCircle
 10
3359.605566466831
 20
3028.209044902244
 30
0.0
 40
12.0
  0
ARC
  5
15A43
330
747D
100
AcDbEntity
  8
部品1
 48
50.0
100
AcDbCircle
 10
3359.605566466831
 20
3078.209044902244
 30
0.0
 40
8.5
100
AcDbArc
 50
114.315739171091
 51
245.684260828909
  0
CIRCLE
  5
15A44
330
747D
100
AcDbEntity
  8
細線
 48
50.0
100
AcDbCircle
 10
3359.605566466831
 20
3078.209044902244
 30
0.0
 40
4.5
  0
LWPOLYLINE
  5
15A45
330
747D
100
AcDbEntity
  8
部品1
 48
50.0
100
AcDbPolyline
 90
        2
 70
     0
 43
0.0
 10
3356.105566466831
 20
3096.883894299226
 10
3356.105566466831
 20
3085.955011594659
  0
CIRCLE
  5
15A46
330
747D
100
AcDbEntity
  8
部品1
 48
50.0
100
AcDbCircle
 10
3359.605566466831
 20
3078.209044902244
 30
0.0
 40
19.0
  0
LWPOLYLINE
  5
15A47
330
747D
100
AcDbEntity
  8
部品1
 48
50.0
100
AcDbPolyline
 90
        2
 70
     0
 43
0.0
 10
3356.105566466831
 20
3070.463078209828
 10
3356.105566466831
 20
3059.534195505261
  0
LWPOLYLINE
  5
15A48
330
747D
100
AcDbEntity
  8
部品1
 48
50.0
100
AcDbPolyline
 90
        2
 70
     0
 43
0.0
 10
3363.105566466831
 20
3085.955011594659
 10
3363.105566466831
 20
3096.883894299226
  0
ARC
  5
15A49
330
747D
100
AcDbEntity
  8
部品1
 48
50.0
100
AcDbCircle
 10
3359.605566466831
 20
3078.209044902244
 30
0.0
 40
8.5
100
AcDbArc
 50
294.315739171091
 51
65.68426082890896
  0
LWPOLYLINE
  5
15A4A
330
747D
100
AcDbEntity
  8
部品1
 48
50.0
100
AcDbPolyline
 90
        2
 70
     0
 43
0.0
 10
3363.105566466831
 20
3059.534195505261
 10
3363.105566466831
 20
3070.463078209828
  0
ARC
  5
15A4B
330
747D
100
AcDbEntity
  8
細線
 48
50.0
100
AcDbCircle
 10
3359.605566466831
 20
3078.209044902244
 30
0.0
 40
16.5
100
AcDbArc
 50
332.0012352654316
 51
27.99876473456844
  0
ARC
  5
15A4C
330
747D
100
AcDbEntity
  8
細線
 48
50.0
100
AcDbCircle
 10
3359.605566466831
 20
3078.209044902244
 30
0.0
 40
14.0
100
AcDbArc
 50
326.4074436112843
 51
33.59255638871576
  0
LINE
  5
15A4D
330
747D
100
AcDbEntity
  8
細線
 48
50.0
100
AcDbLine
 10
3345.0367641825
 20
3085.955011594659
 30
0.0
 11
3347.943662677142
 21
3085.955011594659
 31
0.0
  0
LINE
  5
15A4E
330
747D
100
AcDbEntity
  8
細線
 48
50.0
100
AcDbLine
 10
3345.0367641825
 20
3070.463078209828
 30
0.0
 11
3347.943662677142
 21
3070.463078209828
 31
0.0
  0
LINE
  5
15A4F
330
747D
100
AcDbEntity
  8
細線
 48
50.0
100
AcDbLine
 10
3371.26747025652
 20
3085.955011594659
 30
0.0
 11
3374.174368751166
 21
3085.955011594659
 31
0.0
  0
LINE
  5
15A50
330
747D
100
AcDbEntity
  8
細線
 48
50.0
100
AcDbLine
 10
3371.26747025652
 20
3070.463078209828
 30
0.0
 11
3374.174368751166
 21
3070.463078209828
 31
0.0
  0
ARC
  5
15A51
330
747D
100
AcDbEntity
  8
細線
 48
50.0
100
AcDbCircle
 10
3359.605566466831
 20
3078.209044902244
 30
0.0
 40
14.0
100
AcDbArc
 50
146.4074436112842
 51
213.5925563887158
  0
ARC
  5
15A52
330
747D
100
AcDbEntity
  8
細線
 48
50.0
100
AcDbCircle
 10
3359.605566466831
 20
3078.209044902244
 30
0.0
 40
16.5
100
AcDbArc
 50
152.0012352654315
 51
207.9987647345685
  0
ARC
  5
15A53
330
747D
100
AcDbEntity
  8
部品1
 48
50.0
100
AcDbCircle
 10
3333.105566466831
 20
3103.709044902244
 30
0.0
 40
5.0
100
AcDbArc
 50
90.0
 51
180.0
  0
ARC
  5
15A54
330
747D
100
AcDbEntity
  8
部品1
 48
50.0
100
AcDbCircle
 10
3333.105566466831
 20
2992.709044902244
 30
0.0
 40
5.0
100
AcDbArc
 50
180.0
 51
270.0
  0
ARC
  5
15A55
330
747D
100
AcDbEntity
  8
部品1
 48
50.0
100
AcDbCircle
 10
3386.105566466831
 20
2992.709044902244
 30
0.0
 40
5.0
100
AcDbArc
 50
270.0
 51
0.0
  0
ARC
  5
15A56
330
747D
100
AcDbEntity
  8
部品1
 48
50.0
100
AcDbCircle
 10
3386.105566466831
 20
3103.709044902244
 30
0.0
 40
5.0
100
AcDbArc
 50
0.0
 51
90.0
  0
LINE
  5
15A57
330
747D
100
AcDbEntity
  8
部品1
 48
50.0
100
AcDbLine
 10
3328.105566466831
 20
2992.709044902244
 30
0.0
 11
3328.105566466831
 21
3103.709044902244
 31
0.0
  0
LINE
  5
15A58
330
747D
100
AcDbEntity
  8
部品1
 48
50.0
100
AcDbLine
 10
3386.105566466831
 20
2987.709044902244
 30
0.0
 11
3333.105566466831
 21
2987.709044902244
 31
0.0
  0
LINE
  5
15A59
330
747D
100
AcDbEntity
  8
部品1
 48
50.0
100
AcDbLine
 10
3391.105566466831
 20
3103.709044902244
 30
0.0
 11
3391.105566466831
 21
2992.709044902244
 31
0.0
  0
ENDSEC
  0
SECTION
  2
OBJECTS
  0
DICTIONARY
  5
7471
330
0
100
AcDbDictionary
281
     1
  3
ACAD_COLOR
350
133DB
  3
ACAD_GROUP
350
7472
  3
ACAD_LAYOUT
350
133DC
  3
ACAD_MATERIAL
350
133DA
  3
ACAD_MLINESTYLE
350
7473
  3
ACAD_PLOTSETTINGS
350
133DD
  3
ACAD_PLOTSTYLENAME
350
133D8
  3
ACDBHEADERROUNDTRIPXREC
350
15A69
  3
AcDbVariableDictionary
350
15A65
  3
CONTENTDICTIONARY
350
E71C
  3
DRAWINGVARIABLESDICT
350
F3B9
  0
DICTIONARY
  5
13558
330
7467
100
AcDbDictionary
280
     1
281
     1
  3
ACAD_LAYERSTATES
360
13559
  0
DICTIONARY
  5
133DB
102
{ACAD_REACTORS
330
7471
102
}
330
7471
100
AcDbDictionary
281
     1
  0
DICTIONARY
  5
7472
102
{ACAD_REACTORS
330
7471
102
}
330
7471
100
AcDbDictionary
281
     1
  0
DICTIONARY
  5
133DC
102
{ACAD_REACTORS
330
7471
102
}
330
7471
100
AcDbDictionary
281
     1
  3
Model
350
133DE
  3
レイアウト1
350
133DF
  0
DICTIONARY
  5
133DA
102
{ACAD_REACTORS
330
7471
102
}
330
7471
100
AcDbDictionary
281
     1
  0
DICTIONARY
  5
7473
102
{ACAD_REACTORS
330
7471
102
}
330
7471
100
AcDbDictionary
281
     1
  3
STANDARD
350
7480
  0
DICTIONARY
  5
133DD
102
{ACAD_REACTORS
330
7471
102
}
330
7471
100
AcDbDictionary
281
     1
  0
ACDBDICTIONARYWDFLT
  5
133D8
102
{ACAD_REACTORS
330
7471
102
}
330
7471
100
AcDbDictionary
281
     1
  3
Normal
350
133D9
100
AcDbDictionaryWithDefault
340
133D9
  0
DICTIONARY
  5
15A69
102
{ACAD_REACTORS
330
7471
102
}
330
7471
100
AcDbDictionary
281
     1
  3
COLORDICT
350
15A6B
  3
MATERIALDICT
350
15A6A
  0
DICTIONARY
  5
15A65
102
{ACAD_REACTORS
330
7471
102
}
330
7471
100
AcDbDictionary
281
     1
  3
DIMASSOC
350
15A66
  3
PROJECTNAME
350
15A67
  0
DICTIONARY
  5
E71C
102
{ACAD_REACTORS
330
7471
102
}
330
7471
100
AcDbDictionary
281
     1
  0
DICTIONARY
  5
F3B9
102
{ACAD_REACTORS
330
7471
102
}
330
7471
100
AcDbDictionary
281
     1
1001
DRAWINGVARIABLESXDATA
1000
POLARMODE
1000
1
  0
DICTIONARY
  5
13559
102
{ACAD_REACTORS
330
13558
102
}
330
13558
100
AcDbDictionary
281
     1
  0
LAYOUT
  5
133DE
102
{ACAD_XDICTIONARY
360
15A6C
102
}
102
{ACAD_REACTORS
330
133DC
102
}
330
133DC
100
AcDbPlotSettings
  1

  2
EPSON LP-7000C
  4

  6

 40
0.0
 41
0.0
 42
0.0
 43
0.0
 44
0.0
 45
0.0
 46
0.0
 47
0.0
 48
0.0
 49
0.0
140
0.0
141
0.0
142
1.0
143
1.0
 70
  1712
 72
     0
 73
     0
 74
     0
  7

 75
     0
147
1.0
148
0.0
149
0.0
100
AcDbLayout
  1
Model
 70
     1
 71
     0
 10
0.0
 20
0.0
 11
12.0
 21
9.0
 12
0.0
 22
0.0
 32
0.0
 14
0.0
 24
0.0
 34
0.0
 15
0.0
 25
0.0
 35
0.0
146
0.0
 13
0.0
 23
0.0
 33
0.0
 16
1.0
 26
0.0
 36
0.0
 17
0.0
 27
1.0
 37
0.0
 76
     0
330
747D
  0
LAYOUT
  5
133DF
102
{ACAD_XDICTIONARY
360
15A6E
102
}
102
{ACAD_REACTORS
330
133DC
102
}
330
133DC
100
AcDbPlotSettings
  1

  2
EPSON LP-7000C
  4

  6

 40
0.0
 41
0.0
 42
0.0
 43
0.0
 44
0.0
 45
0.0
 46
0.0
 47
0.0
 48
0.0
 49
0.0
140
0.0
141
0.0
142
1.0
143
1.0
 70
   688
 72
     0
 73
     0
 74
     5
  7

 75
    16
147
1.0
148
0.0
149
0.0
100
AcDbLayout
  1
レイアウト1
 70
     0
 71
     1
 10
0.0
 20
0.0
 11
420.0
 21
297.0
 12
0.0
 22
0.0
 32
0.0
 14
1.000000000000000E+20
 24
1.000000000000000E+20
 34
1.000000000000000E+20
 15
-1.000000000000000E+20
 25
-1.000000000000000E+20
 35
-1.000000000000000E+20
146
0.0
 13
0.0
 23
0.0
 33
0.0
 16
1.0
 26
0.0
 36
0.0
 17
0.0
 27
1.0
 37
0.0
 76
     0
330
747A
  0
MLINESTYLE
  5
7480
102
{ACAD_REACTORS
330
7473
102
}
330
7473
100
AcDbMlineStyle
  2
STANDARD
 70
     0
  3

 62
     0
 51
90.0
 52
90.0
 71
     2
 49
0.5
 62
   256
  6
BYLAYER
 49
-0.5
 62
   256
  6
BYLAYER
  0
ACDBPLACEHOLDER
  5
133D9
102
{ACAD_REACTORS
330
133D8
102
}
330
133D8
  0
XRECORD
  5
15A6B
102
{ACAD_REACTORS
330
15A69
102
}
330
15A69
100
AcDbXrecord
280
     1
340
133DB
  0
XRECORD
  5
15A6A
102
{ACAD_REACTORS
330
15A69
102
}
330
15A69
100
AcDbXrecord
280
     1
340
133DA
  0
DICTIONARYVAR
  5
15A66
102
{ACAD_REACTORS
330
15A65
102
}
330
15A65
100
DictionaryVariables
280
     0
  1
1
  0
DICTIONARYVAR
  5
15A67
102
{ACAD_REACTORS
330
15A65
102
}
330
15A65
100
DictionaryVariables
280
     0
  1

  0
DICTIONARY
  5
15A6C
330
133DE
100
AcDbDictionary
280
     1
281
     1
  3
ACAD_XREC_ROUNDTRIP
360
15A6D
  0
DICTIONARY
  5
15A6E
330
133DF
100
AcDbDictionary
280
     1
281
     1
  3
ACAD_XREC_ROUNDTRIP
360
15A6F
  0
XRECORD
  5
15A6D
102
{ACAD_REACTORS
330
15A6C
102
}
330
15A6C
100
AcDbXrecord
280
     1
102
SHADEPLOT
 70
     0
102
SHADEPLOTRESLEVEL
 70
     2
102
SHADEPLOTCUSTOMDPI
 70
   300
  0
XRECORD
  5
15A6F
102
{ACAD_REACTORS
330
15A6E
102
}
330
15A6E
100
AcDbXrecord
280
     1
102
SHADEPLOT
 70
     0
102
SHADEPLOTRESLEVEL
 70
     2
102
SHADEPLOTCUSTOMDPI
 70
   300
  0
ENDSEC
  0
EOF
