  0
SECTION
  2
HEADER
  9
$ACADVER
  1
AC1015
  9
$ACADMAINTVER
 70
    20
  9
$DWGCODEPAGE
  3
ANSI_932
  9
$INSBASE
 10
0.0
 20
0.0
 30
0.0
  9
$EXTMIN
 10
139.9999999999995
 20
-0.0000000000000909
 30
0.0
  9
$EXTMAX
 10
16307.2
 20
11409.6
 30
0.0
  9
$LIMMIN
 10
0.0
 20
0.0
  9
$LIMMAX
 10
16800.0
 20
11880.0
  9
$ORTHOMODE
 70
     0
  9
$REGENMODE
 70
     1
  9
$FILLMODE
 70
     1
  9
$QTEXTMODE
 70
     0
  9
$MIRRTEXT
 70
     1
  9
$LTSCALE
 40
20.0
  9
$ATTMODE
 70
     1
  9
$TEXTSIZE
 40
100.0
  9
$TRACEWID
 40
1.0
  9
$TEXTSTYLE
  7
STYLE3
  9
$CLAYER
  8
寸法
  9
$CELTYPE
  6
BYLAYER
  9
$CECOLOR
 62
   256
  9
$CELTSCALE
 40
50.0
  9
$DISPSILH
 70
     0
  9
$DIMSCALE
 40
40.0
  9
$DIMASZ
 40
0.5
  9
$DIMEXO
 40
0.5
  9
$DIMDLI
 40
7.0
  9
$DIMRND
 40
0.0
  9
$DIMDLE
 40
0.0
  9
$DIMEXE
 40
1.0
  9
$DIMTP
 40
0.0
  9
$DIMTM
 40
0.0
  9
$DIMTXT
 40
3.0
  9
$DIMCEN
 40
0.0
  9
$DIMTSZ
 40
0.0
  9
$DIMTOL
 70
     0
  9
$DIMLIM
 70
     0
  9
$DIMTIH
 70
     0
  9
$DIMTOH
 70
     0
  9
$DIMSE1
 70
     0
  9
$DIMSE2
 70
     0
  9
$DIMTAD
 70
     3
  9
$DIMZIN
 70
     8
  9
$DIMBLK
  1

  9
$DIMASO
 70
     1
  9
$DIMSHO
 70
     1
  9
$DIMPOST
  1

  9
$DIMAPOST
  1

  9
$DIMALT
 70
     0
  9
$DIMALTD
 70
     2
  9
$DIMALTF
 40
0.0394
  9
$DIMLFAC
 40
1.0
  9
$DIMTOFL
 70
     1
  9
$DIMTVP
 40
0.0
  9
$DIMTIX
 70
     1
  9
$DIMSOXD
 70
     1
  9
$DIMSAH
 70
     1
  9
$DIMBLK1
  1
DOT
  9
$DIMBLK2
  1
DOT
  9
$DIMSTYLE
  2
INABA_S40
  9
$DIMCLRD
 70
     0
  9
$DIMCLRE
 70
     0
  9
$DIMCLRT
 70
     7
  9
$DIMTFAC
 40
1.0
  9
$DIMGAP
 40
0.8
  9
$DIMJUST
 70
     0
  9
$DIMSD1
 70
     0
  9
$DIMSD2
 70
     0
  9
$DIMTOLJ
 70
     1
  9
$DIMTZIN
 70
     0
  9
$DIMALTZ
 70
     0
  9
$DIMALTTZ
 70
     0
  9
$DIMUPT
 70
     0
  9
$DIMDEC
 70
     2
  9
$DIMTDEC
 70
     2
  9
$DIMALTU
 70
     2
  9
$DIMALTTD
 70
     2
  9
$DIMTXSTY
  7
STYLE1
  9
$DIMAUNIT
 70
     0
  9
$DIMADEC
 70
     0
  9
$DIMALTRND
 40
0.0
  9
$DIMAZIN
 70
     0
  9
$DIMDSEP
 70
    46
  9
$DIMATFIT
 70
     3
  9
$DIMFRAC
 70
     0
  9
$DIMLDRBLK
  1

  9
$DIMLUNIT
 70
     2
  9
$DIMLWD
 70
    -2
  9
$DIMLWE
 70
    -2
  9
$DIMTMOVE
 70
     0
  9
$LUNITS
 70
     2
  9
$LUPREC
 70
     1
  9
$SKETCHINC
 40
1.0
  9
$FILLETRAD
 40
5.0
  9
$AUNITS
 70
     0
  9
$AUPREC
 70
     0
  9
$MENU
  1
acad
  9
$ELEVATION
 40
0.0
  9
$PELEVATION
 40
0.0
  9
$THICKNESS
 40
0.0
  9
$LIMCHECK
 70
     0
  9
$CHAMFERA
 40
0.0
  9
$CHAMFERB
 40
0.0
  9
$CHAMFERC
 40
0.0
  9
$CHAMFERD
 40
0.0
  9
$SKPOLY
 70
     0
  9
$TDCREATE
 40
2451590.492424190
  9
$TDUCREATE
 40
2451590.117424190
  9
$TDUPDATE
 40
2455575.701542060
  9
$TDUUPDATE
 40
2455575.326542061
  9
$TDINDWG
 40
0.0860329861
  9
$TDUSRTIMER
 40
0.0860329861
  9
$USRTIMER
 70
     1
  9
$ANGBASE
 50
0.0
  9
$ANGDIR
 70
     0
  9
$PDMODE
 70
     3
  9
$PDSIZE
 40
2.0
  9
$PLINEWID
 40
0.0
  9
$SPLFRAME
 70
     0
  9
$SPLINETYPE
 70
     6
  9
$SPLINESEGS
 70
     8
  9
$HANDSEED
  5
15082
  9
$SURFTAB1
 70
     6
  9
$SURFTAB2
 70
     6
  9
$SURFTYPE
 70
     6
  9
$SURFU
 70
     6
  9
$SURFV
 70
     6
  9
$UCSBASE
  2

  9
$UCSNAME
  2

  9
$UCSORG
 10
0.0
 20
0.0
 30
0.0
  9
$UCSXDIR
 10
1.0
 20
0.0
 30
0.0
  9
$UCSYDIR
 10
0.0
 20
1.0
 30
0.0
  9
$UCSORTHOREF
  2

  9
$UCSORTHOVIEW
 70
     0
  9
$UCSORGTOP
 10
0.0
 20
0.0
 30
0.0
  9
$UCSORGBOTTOM
 10
0.0
 20
0.0
 30
0.0
  9
$UCSORGLEFT
 10
0.0
 20
0.0
 30
0.0
  9
$UCSORGRIGHT
 10
0.0
 20
0.0
 30
0.0
  9
$UCSORGFRONT
 10
0.0
 20
0.0
 30
0.0
  9
$UCSORGBACK
 10
0.0
 20
0.0
 30
0.0
  9
$PUCSBASE
  2

  9
$PUCSNAME
  2

  9
$PUCSORG
 10
0.0
 20
0.0
 30
0.0
  9
$PUCSXDIR
 10
1.0
 20
0.0
 30
0.0
  9
$PUCSYDIR
 10
0.0
 20
1.0
 30
0.0
  9
$PUCSORTHOREF
  2

  9
$PUCSORTHOVIEW
 70
     0
  9
$PUCSORGTOP
 10
0.0
 20
0.0
 30
0.0
  9
$PUCSORGBOTTOM
 10
0.0
 20
0.0
 30
0.0
  9
$PUCSORGLEFT
 10
0.0
 20
0.0
 30
0.0
  9
$PUCSORGRIGHT
 10
0.0
 20
0.0
 30
0.0
  9
$PUCSORGFRONT
 10
0.0
 20
0.0
 30
0.0
  9
$PUCSORGBACK
 10
0.0
 20
0.0
 30
0.0
  9
$USERI1
 70
     0
  9
$USERI2
 70
     0
  9
$USERI3
 70
     0
  9
$USERI4
 70
     0
  9
$USERI5
 70
     0
  9
$USERR1
 40
0.0
  9
$USERR2
 40
0.0
  9
$USERR3
 40
0.0
  9
$USERR4
 40
0.0
  9
$USERR5
 40
0.0
  9
$WORLDVIEW
 70
     1
  9
$SHADEDGE
 70
     3
  9
$SHADEDIF
 70
    70
  9
$TILEMODE
 70
     1
  9
$MAXACTVP
 70
    16
  9
$PINSBASE
 10
0.0
 20
0.0
 30
0.0
  9
$PLIMCHECK
 70
     0
  9
$PEXTMIN
 10
1.000000000000000E+20
 20
1.000000000000000E+20
 30
1.000000000000000E+20
  9
$PEXTMAX
 10
-1.000000000000000E+20
 20
-1.000000000000000E+20
 30
-1.000000000000000E+20
  9
$PLIMMIN
 10
0.0
 20
0.0
  9
$PLIMMAX
 10
420.0
 20
297.0
  9
$UNITMODE
 70
     0
  9
$VISRETAIN
 70
     0
  9
$PLINEGEN
 70
     0
  9
$PSLTSCALE
 70
     0
  9
$TREEDEPTH
 70
  3020
  9
$CMLSTYLE
  2
STANDARD
  9
$CMLJUST
 70
     0
  9
$CMLSCALE
 40
1.0
  9
$PROXYGRAPHICS
 70
     1
  9
$MEASUREMENT
 70
     1
  9
$CELWEIGHT
370
    -1
  9
$ENDCAPS
280
     0
  9
$JOINSTYLE
280
     0
  9
$LWDISPLAY
290
     0
  9
$INSUNITS
 70
     0
  9
$HYPERLINKBASE
  1

  9
$STYLESHEET
  1

  9
$XEDIT
290
     1
  9
$CEPSNTYPE
380
     0
  9
$PSTYLEMODE
290
     1
  9
$FINGERPRINTGUID
  2
{06FF1AD7-ABDA-4C5E-B50C-F39E989EAA9F}
  9
$VERSIONGUID
  2
{0305EA80-46DA-4E76-BC0D-2BC1AEBD7A3D}
  9
$EXTNAMES
290
     1
  9
$PSVPSCALE
 40
0.0
  9
$OLESTARTUP
290
     0
  0
ENDSEC
  0
SECTION
  2
CLASSES
  0
CLASS
  1
ACDBDICTIONARYWDFLT
  2
AcDbDictionaryWithDefault
  3
ObjectDBX Classes
 90
        0
280
     0
281
     0
  0
CLASS
  1
DICTIONARYVAR
  2
AcDbDictionaryVar
  3
ObjectDBX Classes
 90
        0
280
     0
281
     0
  0
CLASS
  1
ACDBPLACEHOLDER
  2
AcDbPlaceHolder
  3
ObjectDBX Classes
 90
        0
280
     0
281
     0
  0
CLASS
  1
LAYOUT
  2
AcDbLayout
  3
ObjectDBX Classes
 90
        0
280
     0
281
     0
  0
ENDSEC
  0
SECTION
  2
TABLES
  0
TABLE
  2
VPORT
  5
746D
330
0
100
AcDbSymbolTable
 70
     2
  0
VPORT
  5
1507A
330
746D
100
AcDbSymbolTableRecord
100
AcDbViewportTableRecord
  2
*Active
 70
     0
 10
0.0
 20
0.0
 11
1.0
 21
1.0
 12
8223.761025238502
 22
6348.450019463587
 13
0.0
 23
0.0
 14
10.0
 24
10.0
 15
10.0
 25
10.0
 16
0.0
 26
0.0
 36
1.0
 17
0.0
 27
0.0
 37
0.0
 40
12806.19294782812
 41
1.525925925925925
 42
50.0
 43
0.0
 44
0.0
 50
0.0
 51
0.0
 71
     0
 72
     0
 73
     1
 74
     0
 75
     0
 76
     0
 77
     0
 78
     0
281
     0
 65
     1
110
0.0
120
0.0
130
0.0
111
1.0
121
0.0
131
0.0
112
0.0
122
1.0
132
0.0
 79
     0
146
0.0
  0
ENDTAB
  0
TABLE
  2
LTYPE
  5
746A
330
0
100
AcDbSymbolTable
 70
     4
  0
LTYPE
  5
7477
330
746A
100
AcDbSymbolTableRecord
100
AcDbLinetypeTableRecord
  2
BYBLOCK
 70
     0
  3

 72
    65
 73
     0
 40
0.0
  0
LTYPE
  5
7478
330
746A
100
AcDbSymbolTableRecord
100
AcDbLinetypeTableRecord
  2
BYLAYER
 70
     0
  3

 72
    65
 73
     0
 40
0.0
  0
LTYPE
  5
7479
330
746A
100
AcDbSymbolTableRecord
100
AcDbLinetypeTableRecord
  2
CONTINUOUS
 70
     0
  3
Solid line
 72
    65
 73
     0
 40
0.0
  0
LTYPE
  5
7816
330
746A
100
AcDbSymbolTableRecord
100
AcDbLinetypeTableRecord
  2
CENTER
 70
     0
  3
____ _ ____ _ ____ _ ____ _ ____ _ ____ _ ____ 
 72
    65
 73
     4
 40
2.0
 49
1.25
 74
     0
 49
-0.25
 74
     0
 49
0.25
 74
     0
 49
-0.25
 74
     0
  0
LTYPE
  5
781A
330
746A
100
AcDbSymbolTableRecord
100
AcDbLinetypeTableRecord
  2
HIDDEN
 70
     0
  3
__ __ __ __ __ __ __ __ __ __ __ __ __ __ __ __
 72
    65
 73
     2
 40
0.375
 49
0.25
 74
     0
 49
-0.125
 74
     0
  0
LTYPE
  5
781B
330
746A
100
AcDbSymbolTableRecord
100
AcDbLinetypeTableRecord
  2
PHANTOM
 70
     0
  3
______  __  __  ______  __  __  ______  __  __ 
 72
    65
 73
     6
 40
2.5
 49
1.25
 74
     0
 49
-0.25
 74
     0
 49
0.25
 74
     0
 49
-0.25
 74
     0
 49
0.25
 74
     0
 49
-0.25
 74
     0
  0
ENDTAB
  0
TABLE
  2
LAYER
  5
7467
102
{ACAD_XDICTIONARY
360
13D31
102
}
330
0
100
AcDbSymbolTable
 70
    13
  0
LAYER
  5
7474
330
7467
100
AcDbSymbolTableRecord
100
AcDbLayerTableRecord
  2
0
 70
     0
 62
     7
  6
CONTINUOUS
370
    -3
390
13BB2
  0
LAYER
  5
DEB2
330
7467
100
AcDbSymbolTableRecord
100
AcDbLayerTableRecord
  2
センター
 70
     0
 62
     3
  6
CENTER
370
    -3
390
13BB2
  0
LAYER
  5
DEB3
330
7467
100
AcDbSymbolTableRecord
100
AcDbLayerTableRecord
  2
寸法
 70
     0
 62
     4
  6
CONTINUOUS
370
    -3
390
13BB2
  0
LAYER
  5
DEB4
330
7467
100
AcDbSymbolTableRecord
100
AcDbLayerTableRecord
  2
部品1
 70
     0
 62
     7
  6
CONTINUOUS
370
    -3
390
13BB2
  0
LAYER
  5
DEB5
330
7467
100
AcDbSymbolTableRecord
100
AcDbLayerTableRecord
  2
補助
 70
     0
 62
    -1
  6
CONTINUOUS
370
    -3
390
13BB2
  0
LAYER
  5
DEB6
330
7467
100
AcDbSymbolTableRecord
100
AcDbLayerTableRecord
  2
文字
 70
     0
 62
     7
  6
CONTINUOUS
370
    -3
390
13BB2
  0
LAYER
  5
F255
330
7467
100
AcDbSymbolTableRecord
100
AcDbLayerTableRecord
  2
DEFPOINTS
 70
     0
 62
     7
  6
CONTINUOUS
290
     0
370
    -3
390
13BB2
  0
LAYER
  5
10B54
330
7467
100
AcDbSymbolTableRecord
100
AcDbLayerTableRecord
  2
仕様書枠
 70
     0
 62
   230
  6
CONTINUOUS
370
    -3
390
13BB2
  0
LAYER
  5
11729
330
7467
100
AcDbSymbolTableRecord
100
AcDbLayerTableRecord
  2
Ｇ．Ｌ
 70
     0
 62
    30
  6
CONTINUOUS
370
    -3
390
13BB2
  0
LAYER
  5
1173F
330
7467
100
AcDbSymbolTableRecord
100
AcDbLayerTableRecord
  2
細線
 70
     0
 62
     5
  6
CONTINUOUS
370
    -3
390
13BB2
  0
LAYER
  5
11740
330
7467
100
AcDbSymbolTableRecord
100
AcDbLayerTableRecord
  2
点線
 70
     0
 62
     2
  6
HIDDEN
370
    -3
390
13BB2
  0
LAYER
  5
11905
330
7467
100
AcDbSymbolTableRecord
100
AcDbLayerTableRecord
  2
破線
 70
     0
 62
     2
  6
HIDDEN
370
    -3
390
13BB2
  0
LAYER
  5
13D30
330
7467
100
AcDbSymbolTableRecord
100
AcDbLayerTableRecord
  2
Ｇ_Ｌ
 70
     0
 62
    30
  6
CONTINUOUS
370
    -3
390
13BB2
  0
ENDTAB
  0
TABLE
  2
STYLE
  5
7468
330
0
100
AcDbSymbolTable
 70
     7
  0
STYLE
  5
7475
330
7468
100
AcDbSymbolTableRecord
100
AcDbTextStyleTableRecord
  2
STANDARD
 70
     0
 40
0.0
 41
1.0
 50
0.0
 71
     0
 42
4.0
  3
txt
  4
C:\AutoCAD LT\bigfont.shx
  0
STYLE
  5
763C
330
7468
100
AcDbSymbolTableRecord
100
AcDbTextStyleTableRecord
  2
MSMINCHO
 70
     0
 40
0.0
 41
1.0
 50
0.0
 71
     0
 42
1.199999999999999
  3
C:\AutoCAD LT\msminch2.TTF
  4

  0
STYLE
  5
F5E9
330
7468
100
AcDbSymbolTableRecord
100
AcDbTextStyleTableRecord
  2

 70
     1
 40
0.0
 41
1.0
 50
0.0
 71
     0
 42
4.0
  3
ltypeshp.shx
  4

  0
STYLE
  5
F706
330
7468
100
AcDbSymbolTableRecord
100
AcDbTextStyleTableRecord
  2
STYLE1
 70
     0
 40
0.0
 41
1.0
 50
0.0
 71
     0
 42
4.0
  3
isocp.shx
  4
bigfont.shx
  0
STYLE
  5
103BF
330
7468
100
AcDbSymbolTableRecord
100
AcDbTextStyleTableRecord
  2
STYLE2
 70
     0
 40
0.0
 41
1.0
 50
0.0
 71
     0
 42
100.0
  3
MS PGothic.ttf
  4

1001
ACAD
1000
MS PGothic
1071
    32818
  0
STYLE
  5
10BAA
330
7468
100
AcDbSymbolTableRecord
100
AcDbTextStyleTableRecord
  2
STYLE3
 70
     0
 40
0.0
 41
1.0
 50
0.0
 71
     0
 42
100.0
  3

  4

1001
ACAD
1000
DFPGothic-EB
1071
    32818
  0
STYLE
  5
11906
330
7468
100
AcDbSymbolTableRecord
100
AcDbTextStyleTableRecord
  2
MSGOTHIC
 70
     0
 40
0.0
 41
1.0
 50
0.0
 71
     0
 42
3.5
  3
msgothi2.ttf
  4

  0
ENDTAB
  0
TABLE
  2
VIEW
  5
746B
330
0
100
AcDbSymbolTable
 70
     0
  0
ENDTAB
  0
TABLE
  2
UCS
  5
746C
330
0
100
AcDbSymbolTable
 70
     0
  0
ENDTAB
  0
TABLE
  2
APPID
  5
746E
330
0
100
AcDbSymbolTable
 70
     6
  0
APPID
  5
7476
330
746E
100
AcDbSymbolTableRecord
100
AcDbRegAppTableRecord
  2
ACAD
 70
     0
  0
APPID
  5
DEA9
330
746E
100
AcDbSymbolTableRecord
100
AcDbRegAppTableRecord
  2
CONTENTBLOCKICON
 70
     0
  0
APPID
  5
DEAA
330
746E
100
AcDbSymbolTableRecord
100
AcDbRegAppTableRecord
  2
CONTENTBLOCKDESCRIPTION
 70
     0
  0
APPID
  5
E71D
330
746E
100
AcDbSymbolTableRecord
100
AcDbRegAppTableRecord
  2
CONTENTTABDATA
 70
     0
  0
APPID
  5
E71E
330
746E
100
AcDbSymbolTableRecord
100
AcDbRegAppTableRecord
  2
CONTENTCURRENTTAB
 70
     0
  0
APPID
  5
F3BA
330
746E
100
AcDbSymbolTableRecord
100
AcDbRegAppTableRecord
  2
DRAWINGVARIABLESXDATA
 70
     0
  0
ENDTAB
  0
TABLE
  2
DIMSTYLE
  5
746F
330
0
100
AcDbSymbolTable
 70
     6
100
AcDbDimStyleTable
 71
     1
340
F236
  0
DIMSTYLE
105
7484
330
746F
100
AcDbSymbolTableRecord
100
AcDbDimStyleTableRecord
  2
JIS
 70
     0
 41
2.5
 42
1.0
 43
7.0
 44
1.0
 73
     0
 74
     0
 77
     1
 78
     8
140
2.5
141
0.0
143
0.0394
147
0.0
172
     1
174
     1
175
     1
340
7475
  0
DIMSTYLE
105
F236
102
{ACAD_REACTORS
330
120D6
330
120D7
330
120D8
330
120D9
330
120DA
330
121FB
330
121FC
330
121FD
330
1221B
330
12240
330
12294
330
1229F
330
1407F
330
14903
330
14BD3
102
}
330
746F
100
AcDbSymbolTableRecord
100
AcDbDimStyleTableRecord
  2
INABA_S40
 70
     0
 40
40.0
 41
2.5
 42
0.5
 43
7.0
 44
1.5
 73
     0
 74
     0
 77
     3
 78
     8
140
3.0
141
0.0
143
0.0394
147
1.0
172
     1
173
     1
174
     1
175
     1
178
     7
289
     0
340
7475
  0
DIMSTYLE
105
F71F
102
{ACAD_REACTORS
330
1402B
330
1402C
330
1402D
330
1402E
330
1403D
330
1404B
330
1404C
330
1404D
330
14051
330
145EE
330
145ED
330
145EC
330
1464A
330
14BD4
330
14FCA
102
}
330
746F
100
AcDbSymbolTableRecord
100
AcDbDimStyleTableRecord
  2
INABA_S40G
 70
     0
 40
40.0
 41
2.5
 42
0.5
 43
7.0
 44
1.5
 73
     0
 74
     0
 77
     3
 78
     8
140
3.0
141
0.0
143
0.0394
147
1.0
172
     1
173
     1
174
     1
175
     1
178
     7
271
     1
340
F706
341
F770
343
F770
344
F770
  0
DIMSTYLE
105
11907
330
746F
100
AcDbSymbolTableRecord
100
AcDbDimStyleTableRecord
  2
INABA_S50
 70
     0
 40
50.0
 41
0.5
 42
0.5
 43
7.0
 44
1.0
 73
     0
 74
     0
 77
     3
 78
     8
140
2.5
141
0.0
143
0.0394
147
0.8
172
     1
173
     1
174
     1
175
     1
178
     7
271
     2
272
     2
289
     0
340
7475
341
F744
343
F744
344
F744
  0
DIMSTYLE
105
11908
102
{ACAD_REACTORS
330
120D6
330
120D7
330
120D8
330
120D9
330
120DA
330
121FB
330
121FC
330
121FD
330
1221B
330
12240
330
12294
330
1229F
102
}
330
746F
100
AcDbSymbolTableRecord
100
AcDbDimStyleTableRecord
  2
INABA_S50G
 70
     0
 41
125.0
 42
25.0
 43
7.0
 44
75.0
 73
     0
 74
     0
 77
     3
 78
     8
140
150.0
141
0.0
143
0.0394
147
25.0
172
     1
173
     1
174
     1
175
     1
178
     7
271
     1
340
F706
341
F770
343
F770
344
F770
  0
DIMSTYLE
105
15011
330
746F
100
AcDbSymbolTableRecord
100
AcDbDimStyleTableRecord
  2
INABA_S20G
 70
     0
 40
20.0
 41
2.5
 42
0.5
 43
7.0
 44
1.5
 73
     0
 74
     0
 77
     3
 78
     8
140
3.0
141
0.0
143
0.0394
147
1.0
172
     1
173
     1
174
     1
178
     7
271
     1
340
F706
341
F770
343
F770
344
F770
  0
ENDTAB
  0
TABLE
  2
BLOCK_RECORD
  5
7466
330
0
100
AcDbSymbolTable
 70
    34
  0
BLOCK_RECORD
  5
747D
330
7466
100
AcDbSymbolTableRecord
100
AcDbBlockTableRecord
  2
*MODEL_SPACE
340
13BB7
  0
BLOCK_RECORD
  5
747A
330
7466
100
AcDbSymbolTableRecord
100
AcDbBlockTableRecord
  2
*PAPER_SPACE
340
13BB8
  0
BLOCK_RECORD
  5
ECB3
330
7466
100
AcDbSymbolTableRecord
100
AcDbBlockTableRecord
  2
作図枠S50
340
0
310
2800000020000000200000000100040000000000000200000000000000000000000000000000000000000000000080000080000000808000800000008000800080800000C0C0C000808080000000FF0000FF000000FFFF00FF000000FF00FF00FFFF0000FFFFFF00FFFFFFFFFFFFFFFFFFFFFFFFFFFFFFFFFFFFFFFFFFFFFF
310
FFFFFFFFFFFFFFFFFFFFFFFFFFFFFFFFFFFFFFFFFFFFFFFFFFFFFFFFFFFFFFFFFFFFFFFFFFFFFFFFFFFFFFFFFFFFFFFFFFFFFFFFFFFFFFFFFFFFFFFFFFFFFFFFFFFFFFFFFFFFFFFFFF999999999999999999999999999999999FFFFFFFFFFFFFFFFFFFFFFFFFFFFFF99FFFFFFFFFFFFFFFFFFFFFFFFFFFFFF99FFFFFFFFFFF
310
FFFFFFFFFFFFFFFFFFF99FFFFFFFFFFFFFFFFFFFFFFFFFFFFFF99FFFFFFFFFFFFFFFFFFFFFFFFFFFFFF99FFFFFFFFFFFFFFFFFFFFFFFFFFFFFF99FFFFFFFFFFFFFFFFFFFFFFFFFFFFFF99FFFFFFFFFFFFFFFFFFFFFFFFFFFFFF99FFFFFFFFFFFFFFFFFFFFFFFFFFFFFF99FFFFFFFFFFFFFFFFFFFFFFFFFFFFFF99FFFFFFFFF
310
FFFFFFFFFFFFFFFFFFFFF99FFFFFFFFFFFFFFFFFFFFFFFFFFFFFF99FFFFFFFFFFFFFFFFFFFFFFFFFFFFFF99FFFFFFFFFFFFFFFFFFFFFFFFFFFFFF99FFFFFFFFFFFFFFFFFFFFFFFFFFFFFF99FFFFFFFFFFFFFFFFFFFFFFFFFFFFFF99FFFFFFFFFFFFFFFFFFFFFFFFFFFFFF99FFFFFFFFFFFFFFFFFFFFF99999999999FFFFFFF
310
FFFFFFFFFFFFFF9FFFFFFFFF99999999999999999999999FFFFFFFFFFFFFFFFFFFFFFFFFFFFFFFFFFFFFFFFFFFFFFFFFFFFFFFFFFFFFFFFFFFFFFFFFFFFFFFFFFFFFFFFFFFFFFFFFFFFFFFFFFFFFFFFFFFFFFFFFFFFFFFFFFFFFFFFFFFFFFFFFFFFFFFFFFFFFFFFFFFFFFFFF
102
{BLKREFS
331
F235
102
}
  0
BLOCK_RECORD
  5
F744
330
7466
100
AcDbSymbolTableRecord
100
AcDbBlockTableRecord
  2
_DOT
340
0
102
{BLKREFS
331
1476C
331
1476D
331
14F06
331
14F07
331
14F0F
331
14F10
331
14F18
331
14F19
331
14F21
331
14F22
331
14F2A
331
14F2B
331
14F35
331
14F36
331
14F3E
331
14F3F
331
14F47
331
14F48
331
14F50
331
14F51
331
14F5B
331
14F5C
331
14F64
331
14F65
331
14F6F
331
14F70
331
14F78
331
14F79
331
14F83
331
14F84
102
}
  0
BLOCK_RECORD
  5
F770
330
7466
100
AcDbSymbolTableRecord
100
AcDbBlockTableRecord
  2
_DOTSMALL
340
0
102
{BLKREFS
331
1463A
331
1463B
331
1465E
331
1465F
331
1475A
331
1475B
331
14763
331
14764
331
14777
331
14778
331
14780
331
14781
331
1478B
331
1478C
331
14794
331
14795
331
1479E
331
1479F
331
147A8
331
147A9
331
147B1
331
147B2
331
147BA
331
147BB
331
147C3
331
147C4
331
14EFB
331
14EFC
331
14FE0
331
14FE1
102
}
  0
BLOCK_RECORD
  5
12352
330
7466
100
AcDbSymbolTableRecord
100
AcDbBlockTableRecord
  2
*D3
340
0
  0
BLOCK_RECORD
  5
1235F
330
7466
100
AcDbSymbolTableRecord
100
AcDbBlockTableRecord
  2
*D4
340
0
  0
BLOCK_RECORD
  5
1236B
330
7466
100
AcDbSymbolTableRecord
100
AcDbBlockTableRecord
  2
*D5
340
0
  0
BLOCK_RECORD
  5
12378
330
7466
100
AcDbSymbolTableRecord
100
AcDbBlockTableRecord
  2
*D6
340
0
  0
BLOCK_RECORD
  5
12384
330
7466
100
AcDbSymbolTableRecord
100
AcDbBlockTableRecord
  2
*D7
340
0
  0
BLOCK_RECORD
  5
123CF
330
7466
100
AcDbSymbolTableRecord
100
AcDbBlockTableRecord
  2
*D8
340
0
  0
BLOCK_RECORD
  5
123DB
330
7466
100
AcDbSymbolTableRecord
100
AcDbBlockTableRecord
  2
*D9
340
0
  0
BLOCK_RECORD
  5
123E7
330
7466
100
AcDbSymbolTableRecord
100
AcDbBlockTableRecord
  2
*D10
340
0
  0
BLOCK_RECORD
  5
123F3
330
7466
100
AcDbSymbolTableRecord
100
AcDbBlockTableRecord
  2
*D11
340
0
  0
BLOCK_RECORD
  5
12400
330
7466
100
AcDbSymbolTableRecord
100
AcDbBlockTableRecord
  2
*D12
340
0
  0
BLOCK_RECORD
  5
1240C
330
7466
100
AcDbSymbolTableRecord
100
AcDbBlockTableRecord
  2
*D13
340
0
  0
BLOCK_RECORD
  5
12418
330
7466
100
AcDbSymbolTableRecord
100
AcDbBlockTableRecord
  2
*D14
340
0
  0
BLOCK_RECORD
  5
1431F
330
7466
100
AcDbSymbolTableRecord
100
AcDbBlockTableRecord
  2
*D15
340
0
  0
BLOCK_RECORD
  5
1432B
330
7466
100
AcDbSymbolTableRecord
100
AcDbBlockTableRecord
  2
*D16
340
0
  0
BLOCK_RECORD
  5
14337
330
7466
100
AcDbSymbolTableRecord
100
AcDbBlockTableRecord
  2
*D17
340
0
  0
BLOCK_RECORD
  5
14343
330
7466
100
AcDbSymbolTableRecord
100
AcDbBlockTableRecord
  2
*D18
340
0
  0
BLOCK_RECORD
  5
14350
330
7466
100
AcDbSymbolTableRecord
100
AcDbBlockTableRecord
  2
*D19
340
0
  0
BLOCK_RECORD
  5
1435D
330
7466
100
AcDbSymbolTableRecord
100
AcDbBlockTableRecord
  2
*D20
340
0
  0
BLOCK_RECORD
  5
14369
330
7466
100
AcDbSymbolTableRecord
100
AcDbBlockTableRecord
  2
*D21
340
0
  0
BLOCK_RECORD
  5
14377
330
7466
100
AcDbSymbolTableRecord
100
AcDbBlockTableRecord
  2
*D22
340
0
  0
BLOCK_RECORD
  5
14383
330
7466
100
AcDbSymbolTableRecord
100
AcDbBlockTableRecord
  2
*D23
340
0
  0
BLOCK_RECORD
  5
14391
330
7466
100
AcDbSymbolTableRecord
100
AcDbBlockTableRecord
  2
*D24
340
0
  0
BLOCK_RECORD
  5
145FD
330
7466
100
AcDbSymbolTableRecord
100
AcDbBlockTableRecord
  2
*D25
340
0
  0
BLOCK_RECORD
  5
14609
330
7466
100
AcDbSymbolTableRecord
100
AcDbBlockTableRecord
  2
*D26
340
0
  0
BLOCK_RECORD
  5
14615
330
7466
100
AcDbSymbolTableRecord
100
AcDbBlockTableRecord
  2
*D27
340
0
  0
BLOCK_RECORD
  5
1464B
330
7466
100
AcDbSymbolTableRecord
100
AcDbBlockTableRecord
  2
*D28
340
0
  0
BLOCK_RECORD
  5
1496E
330
7466
100
AcDbSymbolTableRecord
100
AcDbBlockTableRecord
  2
*D29
340
0
  0
BLOCK_RECORD
  5
14D1E
330
7466
100
AcDbSymbolTableRecord
100
AcDbBlockTableRecord
  2
*D30
340
0
  0
BLOCK_RECORD
  5
14D2C
330
7466
100
AcDbSymbolTableRecord
100
AcDbBlockTableRecord
  2
*D31
340
0
  0
BLOCK_RECORD
  5
14FAE
330
7466
100
AcDbSymbolTableRecord
100
AcDbBlockTableRecord
  2
A$C7FDD23FE
340
0
  0
BLOCK_RECORD
  5
14FD1
330
7466
100
AcDbSymbolTableRecord
100
AcDbBlockTableRecord
  2
*D33
340
0
  0
ENDTAB
  0
ENDSEC
  0
SECTION
  2
BLOCKS
  0
BLOCK
  5
7489
330
747D
100
AcDbEntity
  8
0
100
AcDbBlockBegin
  2
*MODEL_SPACE
 70
     0
 10
0.0
 20
0.0
 30
0.0
  3
*MODEL_SPACE
  1

  0
ENDBLK
  5
748A
330
747D
100
AcDbEntity
  8
0
100
AcDbBlockEnd
  0
BLOCK
  5
7487
330
747A
100
AcDbEntity
 67
     1
  8
0
100
AcDbBlockBegin
  2
*PAPER_SPACE
 70
     0
 10
0.0
 20
0.0
 30
0.0
  3
*PAPER_SPACE
  1

  0
ENDBLK
  5
7488
330
747A
100
AcDbEntity
 67
     1
  8
0
100
AcDbBlockEnd
  0
BLOCK
  5
ECB4
330
ECB3
100
AcDbEntity
  8
0
100
AcDbBlockBegin
  2
作図枠S50
 70
     0
 10
0.0
 20
0.0
 30
0.0
  3
作図枠S50
  1

  4
作図領域枠 縮尺 1/50
  0
LINE
  5
ECB5
330
ECB3
100
AcDbEntity
  8
補助
100
AcDbLine
 10
14364.0
 20
14262.0
 30
0.0
 11
174.9999999999993
 21
14262.0
 31
0.0
  0
LINE
  5
ECB6
330
ECB3
100
AcDbEntity
  8
補助
100
AcDbLine
 10
174.9999999999993
 20
14262.0
 30
0.0
 11
174.9999999999993
 21
1520.0
 31
0.0
  0
LINE
  5
ECB7
330
ECB3
100
AcDbEntity
  8
補助
100
AcDbLine
 10
174.9999999999993
 20
1520.0
 30
0.0
 11
20384.0
 21
1520.0
 31
0.0
  0
LINE
  5
ECB8
330
ECB3
100
AcDbEntity
  8
補助
100
AcDbLine
 10
20384.0
 20
1520.0
 30
0.0
 11
20384.0
 21
13042.0
 31
0.0
  0
LINE
  5
ECB9
330
ECB3
100
AcDbEntity
  8
補助
100
AcDbLine
 10
20384.0
 20
13042.0
 30
0.0
 11
14364.0
 21
13042.0
 31
0.0
  0
LINE
  5
ECBA
330
ECB3
100
AcDbEntity
  8
補助
100
AcDbLine
 10
14364.0
 20
13042.0
 30
0.0
 11
14364.0
 21
14262.0
 31
0.0
  0
ENDBLK
  5
ECBB
330
ECB3
100
AcDbEntity
  8
0
100
AcDbBlockEnd
  0
BLOCK
  5
F745
330
F744
100
AcDbEntity
  8
0
 48
50.0
100
AcDbBlockBegin
  2
_DOT
 70
     0
 10
0.0
 20
0.0
 30
0.0
  3
_DOT
  1

  0
LWPOLYLINE
  5
F746
330
F744
100
AcDbEntity
  8
0
  6
ByBlock
 62
     0
 48
50.0
100
AcDbPolyline
 90
        2
 70
     1
 43
0.5
 10
-0.25
 20
0.0
 42
1.0
 10
0.25
 20
0.0
 42
1.0
  0
LINE
  5
F74A
330
F744
100
AcDbEntity
  8
0
  6
ByBlock
 62
     0
 48
50.0
100
AcDbLine
 10
-0.5
 20
0.0
 30
0.0
 11
-1.0
 21
0.0
 31
0.0
  0
ENDBLK
  5
F74B
330
F744
100
AcDbEntity
  8
0
 48
50.0
100
AcDbBlockEnd
  0
BLOCK
  5
F771
330
F770
100
AcDbEntity
  8
0
 48
50.0
100
AcDbBlockBegin
  2
_DOTSMALL
 70
     0
 10
0.0
 20
0.0
 30
0.0
  3
_DOTSMALL
  1

  0
LWPOLYLINE
  5
F772
330
F770
100
AcDbEntity
  8
0
  6
ByBlock
 62
     0
 48
50.0
100
AcDbPolyline
 90
        2
 70
     1
 43
0.5
 10
-0.0625
 20
0.0
 42
1.0
 10
0.0625
 20
0.0
 42
1.0
  0
ENDBLK
  5
F776
330
F770
100
AcDbEntity
  8
0
 48
50.0
100
AcDbBlockEnd
  0
BLOCK
  5
129B7
330
12352
100
AcDbEntity
  8
0
 48
50.0
100
AcDbBlockBegin
  2
*D3
 70
     1
 10
0.0
 20
0.0
 30
0.0
  3
*D3
  1

  0
LINE
  5
14F7E
330
12352
100
AcDbEntity
  8
寸法
 62
     0
 48
50.0
370
    -2
100
AcDbLine
 10
8544.695515348525
 20
9660.579896324142
 30
0.0
 11
8544.695515348525
 21
10055.29230634294
 31
0.0
  0
LINE
  5
14F7F
330
12352
100
AcDbEntity
  8
寸法
 62
     0
 48
50.0
370
    -2
100
AcDbLine
 10
8599.695515348525
 20
9660.57989632414
 30
0.0
 11
8599.695515348525
 21
10055.29230634294
 31
0.0
  0
LINE
  5
14F80
330
12352
100
AcDbEntity
  8
寸法
 62
     0
 48
50.0
370
    -2
100
AcDbLine
 10
8524.695515348524
 20
10015.29230634293
 30
0.0
 11
8504.695515348526
 21
10015.29230634293
 31
0.0
  0
LINE
  5
14F81
330
12352
100
AcDbEntity
  8
寸法
 62
     0
 48
50.0
370
    -2
100
AcDbLine
 10
8619.695515348524
 20
10015.29230634293
 30
0.0
 11
9094.34746338943
 21
10015.29230634293
 31
0.0
  0
LINE
  5
14F82
330
12352
100
AcDbEntity
  8
寸法
 62
     0
 48
50.0
370
    -2
100
AcDbLine
 10
8544.695515348525
 20
10015.29230634293
 30
0.0
 11
8599.695515348525
 21
10015.29230634293
 31
0.0
  0
INSERT
  5
14F83
330
12352
100
AcDbEntity
  8
寸法
 62
     0
 48
50.0
370
    -2
100
AcDbBlockReference
  2
_DOT
 10
8544.695515348525
 20
10015.29230634293
 30
0.0
 41
20.0
 42
20.0
 43
20.0
  0
INSERT
  5
14F84
330
12352
100
AcDbEntity
  8
寸法
 62
     0
 48
50.0
370
    -2
100
AcDbBlockReference
  2
_DOT
 10
8599.695515348525
 20
10015.29230634293
 30
0.0
 41
20.0
 42
20.0
 43
20.0
 50
180.0
  0
MTEXT
  5
14F85
330
12352
100
AcDbEntity
  8
寸法
 62
     7
 48
50.0
100
AcDbMText
 10
8993.86218201519
 20
10107.29230634293
 30
0.0
 40
120.0
 41
0.0
 71
     5
 72
     1
  1
\A1;55
  7
STYLE1
 73
     1
 44
1.0
1001
ACAD
1000
MTEXTBEGIN
1070
    73
1070
     1
1070
    44
1040
1.0
1070
    74
1070
     0
1000
MTEXTEND
  0
POINT
  5
14F86
330
12352
100
AcDbEntity
  8
DEFPOINTS
 62
     0
 48
50.0
100
AcDbPoint
 10
8544.695515348525
 20
9640.57989632414
 30
0.0
  0
POINT
  5
14F87
330
12352
100
AcDbEntity
  8
DEFPOINTS
 62
     0
 48
50.0
100
AcDbPoint
 10
8599.695515348525
 20
9640.57989632414
 30
0.0
  0
POINT
  5
14F88
330
12352
100
AcDbEntity
  8
DEFPOINTS
 62
     0
 48
50.0
100
AcDbPoint
 10
8599.695515348525
 20
10015.29230634293
 30
0.0
  0
ENDBLK
  5
129C3
330
12352
100
AcDbEntity
  8
0
 48
50.0
100
AcDbBlockEnd
  0
BLOCK
  5
1396B
330
1235F
100
AcDbEntity
  8
0
 48
50.0
100
AcDbBlockBegin
  2
*D4
 70
     1
 10
0.0
 20
0.0
 30
0.0
  3
*D4
  1

  0
LINE
  5
14F75
330
1235F
100
AcDbEntity
  8
寸法
 62
     0
 48
50.0
370
    -2
100
AcDbLine
 10
8619.695515348524
 20
9640.57989632414
 30
0.0
 11
9710.442632392879
 21
9640.57989632414
 31
0.0
  0
LINE
  5
14F76
330
1235F
100
AcDbEntity
  8
寸法
 62
     0
 48
50.0
370
    -2
100
AcDbLine
 10
8619.695515348524
 20
7430.57989632414
 30
0.0
 11
9710.442632392879
 21
7430.57989632414
 31
0.0
  0
LINE
  5
14F77
330
1235F
100
AcDbEntity
  8
寸法
 62
     0
 48
50.0
370
    -2
100
AcDbLine
 10
9670.442632392878
 20
9620.579896324139
 30
0.0
 11
9670.442632392878
 21
7450.57989632414
 31
0.0
  0
INSERT
  5
14F78
330
1235F
100
AcDbEntity
  8
寸法
 62
     0
 48
50.0
370
    -2
100
AcDbBlockReference
  2
_DOT
 10
9670.442632392878
 20
9640.57989632414
 30
0.0
 41
20.0
 42
20.0
 43
20.0
 50
90.0
  0
INSERT
  5
14F79
330
1235F
100
AcDbEntity
  8
寸法
 62
     0
 48
50.0
370
    -2
100
AcDbBlockReference
  2
_DOT
 10
9670.442632392878
 20
7430.57989632414
 30
0.0
 41
20.0
 42
20.0
 43
20.0
 50
270.0
  0
MTEXT
  5
14F7A
330
1235F
100
AcDbEntity
  8
寸法
 62
     7
 48
50.0
100
AcDbMText
 10
9578.430821369256
 20
8535.579896324142
 30
0.0
 40
120.0
 41
0.0
 71
     5
 72
     1
  1
\A1;2210
  7
STYLE1
 11
0.0000000000000001
 21
1.0
 31
0.0
 73
     1
 44
1.0
1001
ACAD
1000
MTEXTBEGIN
1070
    73
1070
     1
1070
    44
1040
1.0
1070
    74
1070
     0
1000
MTEXTEND
  0
POINT
  5
14F7B
330
1235F
100
AcDbEntity
  8
DEFPOINTS
 62
     0
 48
50.0
100
AcDbPoint
 10
8599.695515348525
 20
9640.57989632414
 30
0.0
  0
POINT
  5
14F7C
330
1235F
100
AcDbEntity
  8
DEFPOINTS
 62
     0
 48
50.0
100
AcDbPoint
 10
8599.695515348525
 20
7430.57989632414
 30
0.0
  0
POINT
  5
14F7D
330
1235F
100
AcDbEntity
  8
DEFPOINTS
 62
     0
 48
50.0
100
AcDbPoint
 10
9670.442632392878
 20
7430.57989632414
 30
0.0
  0
ENDBLK
  5
13975
330
1235F
100
AcDbEntity
  8
0
 48
50.0
100
AcDbBlockEnd
  0
BLOCK
  5
1299D
330
1236B
100
AcDbEntity
  8
0
 48
50.0
100
AcDbBlockBegin
  2
*D5
 70
     1
 10
0.0
 20
0.0
 30
0.0
  3
*D5
  1

  0
LINE
  5
14F6A
330
1236B
100
AcDbEntity
  8
寸法
 62
     0
 48
50.0
370
    -2
100
AcDbLine
 10
8619.695515348524
 20
7485.579896324136
 30
0.0
 11
9410.44263239288
 21
7485.579896324136
 31
0.0
  0
LINE
  5
14F6B
330
1236B
100
AcDbEntity
  8
寸法
 62
     0
 48
50.0
370
    -2
100
AcDbLine
 10
8619.695515348524
 20
7430.57989632414
 30
0.0
 11
9410.44263239288
 21
7430.57989632414
 31
0.0
  0
LINE
  5
14F6C
330
1236B
100
AcDbEntity
  8
寸法
 62
     0
 48
50.0
370
    -2
100
AcDbLine
 10
9370.44263239288
 20
7505.579896324135
 30
0.0
 11
9370.44263239288
 21
7525.579896324136
 31
0.0
  0
LINE
  5
14F6D
330
1236B
100
AcDbEntity
  8
寸法
 62
     0
 48
50.0
370
    -2
100
AcDbLine
 10
9370.44263239288
 20
7410.57989632414
 30
0.0
 11
9370.44263239288
 21
6935.927948283233
 31
0.0
  0
LINE
  5
14F6E
330
1236B
100
AcDbEntity
  8
寸法
 62
     0
 48
50.0
370
    -2
100
AcDbLine
 10
9370.44263239288
 20
7485.579896324136
 30
0.0
 11
9370.44263239288
 21
7430.57989632414
 31
0.0
  0
INSERT
  5
14F6F
330
1236B
100
AcDbEntity
  8
寸法
 62
     0
 48
50.0
370
    -2
100
AcDbBlockReference
  2
_DOT
 10
9370.44263239288
 20
7485.579896324136
 30
0.0
 41
20.0
 42
20.0
 43
20.0
 50
270.0
  0
INSERT
  5
14F70
330
1236B
100
AcDbEntity
  8
寸法
 62
     0
 48
50.0
370
    -2
100
AcDbBlockReference
  2
_DOT
 10
9370.44263239288
 20
7430.57989632414
 30
0.0
 41
20.0
 42
20.0
 43
20.0
 50
90.0
  0
MTEXT
  5
14F71
330
1236B
100
AcDbEntity
  8
寸法
 62
     7
 48
50.0
100
AcDbMText
 10
9278.442632392879
 20
7036.413229657473
 30
0.0
 40
120.0
 41
0.0
 71
     5
 72
     1
  1
\A1;55
  7
STYLE1
 11
0.0000000000000001
 21
1.0
 31
0.0
 73
     1
 44
1.0
1001
ACAD
1000
MTEXTBEGIN
1070
    73
1070
     1
1070
    44
1040
1.0
1070
    74
1070
     0
1000
MTEXTEND
  0
POINT
  5
14F72
330
1236B
100
AcDbEntity
  8
DEFPOINTS
 62
     0
 48
50.0
100
AcDbPoint
 10
8599.695515348525
 20
7485.579896324136
 30
0.0
  0
POINT
  5
14F73
330
1236B
100
AcDbEntity
  8
DEFPOINTS
 62
     0
 48
50.0
100
AcDbPoint
 10
8599.695515348525
 20
7430.57989632414
 30
0.0
  0
POINT
  5
14F74
330
1236B
100
AcDbEntity
  8
DEFPOINTS
 62
     0
 48
50.0
100
AcDbPoint
 10
9370.44263239288
 20
7430.57989632414
 30
0.0
  0
ENDBLK
  5
129A9
330
1236B
100
AcDbEntity
  8
0
 48
50.0
100
AcDbBlockEnd
  0
BLOCK
  5
13976
330
12378
100
AcDbEntity
  8
0
 48
50.0
100
AcDbBlockBegin
  2
*D6
 70
     1
 10
0.0
 20
0.0
 30
0.0
  3
*D6
  1

  0
LINE
  5
14F61
330
12378
100
AcDbEntity
  8
寸法
 62
     0
 48
50.0
370
    -2
100
AcDbLine
 10
8619.695515348524
 20
9585.579896324144
 30
0.0
 11
9410.442632392879
 21
9585.579896324144
 31
0.0
  0
LINE
  5
14F62
330
12378
100
AcDbEntity
  8
寸法
 62
     0
 48
50.0
370
    -2
100
AcDbLine
 10
8619.695515348524
 20
7485.579896324136
 30
0.0
 11
9410.442632392879
 21
7485.579896324136
 31
0.0
  0
LINE
  5
14F63
330
12378
100
AcDbEntity
  8
寸法
 62
     0
 48
50.0
370
    -2
100
AcDbLine
 10
9370.442632392878
 20
9565.579896324143
 30
0.0
 11
9370.442632392878
 21
7505.579896324135
 31
0.0
  0
INSERT
  5
14F64
330
12378
100
AcDbEntity
  8
寸法
 62
     0
 48
50.0
370
    -2
100
AcDbBlockReference
  2
_DOT
 10
9370.442632392878
 20
9585.579896324144
 30
0.0
 41
20.0
 42
20.0
 43
20.0
 50
90.0
  0
INSERT
  5
14F65
330
12378
100
AcDbEntity
  8
寸法
 62
     0
 48
50.0
370
    -2
100
AcDbBlockReference
  2
_DOT
 10
9370.442632392878
 20
7485.579896324136
 30
0.0
 41
20.0
 42
20.0
 43
20.0
 50
270.0
  0
MTEXT
  5
14F66
330
12378
100
AcDbEntity
  8
寸法
 62
     7
 48
50.0
100
AcDbMText
 10
9278.430821369255
 20
8535.579896324142
 30
0.0
 40
120.0
 41
0.0
 71
     5
 72
     1
  1
\A1;5X420=2100
  7
STYLE1
 11
0.0000000000000001
 21
1.0
 31
0.0
 73
     1
 44
1.0
1001
ACAD
1000
MTEXTBEGIN
1070
    73
1070
     1
1070
    44
1040
1.0
1070
    74
1070
     0
1000
MTEXTEND
  0
POINT
  5
14F67
330
12378
100
AcDbEntity
  8
DEFPOINTS
 62
     0
 48
50.0
100
AcDbPoint
 10
8599.695515348525
 20
9585.579896324144
 30
0.0
  0
POINT
  5
14F68
330
12378
100
AcDbEntity
  8
DEFPOINTS
 62
     0
 48
50.0
100
AcDbPoint
 10
8599.695515348525
 20
7485.579896324136
 30
0.0
  0
POINT
  5
14F69
330
12378
100
AcDbEntity
  8
DEFPOINTS
 62
     0
 48
50.0
100
AcDbPoint
 10
9370.442632392878
 20
7485.579896324136
 30
0.0
  0
ENDBLK
  5
13980
330
12378
100
AcDbEntity
  8
0
 48
50.0
100
AcDbBlockEnd
  0
BLOCK
  5
129AA
330
12384
100
AcDbEntity
  8
0
 48
50.0
100
AcDbBlockBegin
  2
*D7
 70
     1
 10
0.0
 20
0.0
 30
0.0
  3
*D7
  1

  0
LINE
  5
14F56
330
12384
100
AcDbEntity
  8
寸法
 62
     0
 48
50.0
370
    -2
100
AcDbLine
 10
8619.695515348524
 20
9640.57989632414
 30
0.0
 11
9410.44263239288
 21
9640.57989632414
 31
0.0
  0
LINE
  5
14F57
330
12384
100
AcDbEntity
  8
寸法
 62
     0
 48
50.0
370
    -2
100
AcDbLine
 10
8619.695515348524
 20
9585.579896324144
 30
0.0
 11
9410.44263239288
 21
9585.579896324144
 31
0.0
  0
LINE
  5
14F58
330
12384
100
AcDbEntity
  8
寸法
 62
     0
 48
50.0
370
    -2
100
AcDbLine
 10
9370.44263239288
 20
9565.579896324143
 30
0.0
 11
9370.44263239288
 21
9545.579896324143
 31
0.0
  0
LINE
  5
14F59
330
12384
100
AcDbEntity
  8
寸法
 62
     0
 48
50.0
370
    -2
100
AcDbLine
 10
9370.44263239288
 20
9660.57989632414
 30
0.0
 11
9370.44263239288
 21
10135.23184436504
 31
0.0
  0
LINE
  5
14F5A
330
12384
100
AcDbEntity
  8
寸法
 62
     0
 48
50.0
370
    -2
100
AcDbLine
 10
9370.44263239288
 20
9585.579896324144
 30
0.0
 11
9370.44263239288
 21
9640.57989632414
 31
0.0
  0
INSERT
  5
14F5B
330
12384
100
AcDbEntity
  8
寸法
 62
     0
 48
50.0
370
    -2
100
AcDbBlockReference
  2
_DOT
 10
9370.44263239288
 20
9585.579896324144
 30
0.0
 41
20.0
 42
20.0
 43
20.0
 50
90.0
  0
INSERT
  5
14F5C
330
12384
100
AcDbEntity
  8
寸法
 62
     0
 48
50.0
370
    -2
100
AcDbBlockReference
  2
_DOT
 10
9370.44263239288
 20
9640.57989632414
 30
0.0
 41
20.0
 42
20.0
 43
20.0
 50
270.0
  0
MTEXT
  5
14F5D
330
12384
100
AcDbEntity
  8
寸法
 62
     7
 48
50.0
100
AcDbMText
 10
9278.442632392879
 20
10034.7465629908
 30
0.0
 40
120.0
 41
0.0
 71
     5
 72
     1
  1
\A1;55
  7
STYLE1
 11
0.0000000000000001
 21
1.0
 31
0.0
 73
     1
 44
1.0
1001
ACAD
1000
MTEXTBEGIN
1070
    73
1070
     1
1070
    44
1040
1.0
1070
    74
1070
     0
1000
MTEXTEND
  0
POINT
  5
14F5E
330
12384
100
AcDbEntity
  8
DEFPOINTS
 62
     0
 48
50.0
100
AcDbPoint
 10
8599.695515348525
 20
9640.57989632414
 30
0.0
  0
POINT
  5
14F5F
330
12384
100
AcDbEntity
  8
DEFPOINTS
 62
     0
 48
50.0
100
AcDbPoint
 10
8599.695515348525
 20
9585.579896324144
 30
0.0
  0
POINT
  5
14F60
330
12384
100
AcDbEntity
  8
DEFPOINTS
 62
     0
 48
50.0
100
AcDbPoint
 10
9370.44263239288
 20
9585.579896324144
 30
0.0
  0
ENDBLK
  5
129B6
330
12384
100
AcDbEntity
  8
0
 48
50.0
100
AcDbBlockEnd
  0
BLOCK
  5
134B6
330
123CF
100
AcDbEntity
  8
0
 48
50.0
100
AcDbBlockBegin
  2
*D8
 70
     1
 10
0.0
 20
0.0
 30
0.0
  3
*D8
  1

  0
LINE
  5
14F4D
330
123CF
100
AcDbEntity
  8
寸法
 62
     0
 48
50.0
370
    -2
100
AcDbLine
 10
2499.695515348526
 20
9660.57989632414
 30
0.0
 11
2499.695515348526
 21
10355.29230634294
 31
0.0
  0
LINE
  5
14F4E
330
123CF
100
AcDbEntity
  8
寸法
 62
     0
 48
50.0
370
    -2
100
AcDbLine
 10
8599.695515348525
 20
9660.57989632414
 30
0.0
 11
8599.695515348525
 21
10355.29230634294
 31
0.0
  0
LINE
  5
14F4F
330
123CF
100
AcDbEntity
  8
寸法
 62
     0
 48
50.0
370
    -2
100
AcDbLine
 10
2519.695515348525
 20
10315.29230634294
 30
0.0
 11
8579.695515348525
 21
10315.29230634294
 31
0.0
  0
INSERT
  5
14F50
330
123CF
100
AcDbEntity
  8
寸法
 62
     0
 48
50.0
370
    -2
100
AcDbBlockReference
  2
_DOT
 10
2499.695515348526
 20
10315.29230634294
 30
0.0
 41
20.0
 42
20.0
 43
20.0
 50
180.0
  0
INSERT
  5
14F51
330
123CF
100
AcDbEntity
  8
寸法
 62
     0
 48
50.0
370
    -2
100
AcDbBlockReference
  2
_DOT
 10
8599.695515348525
 20
10315.29230634294
 30
0.0
 41
20.0
 42
20.0
 43
20.0
  0
MTEXT
  5
14F52
330
123CF
100
AcDbEntity
  8
寸法
 62
     7
 48
50.0
100
AcDbMText
 10
5549.695515348525
 20
10407.29230634293
 30
0.0
 40
120.0
 41
0.0
 71
     5
 72
     1
  1
\A1;6100
  7
STYLE1
 73
     1
 44
1.0
1001
ACAD
1000
MTEXTBEGIN
1070
    73
1070
     1
1070
    44
1040
1.0
1070
    74
1070
     0
1000
MTEXTEND
  0
POINT
  5
14F53
330
123CF
100
AcDbEntity
  8
DEFPOINTS
 62
     0
 48
50.0
100
AcDbPoint
 10
2499.695515348526
 20
9640.57989632414
 30
0.0
  0
POINT
  5
14F54
330
123CF
100
AcDbEntity
  8
DEFPOINTS
 62
     0
 48
50.0
100
AcDbPoint
 10
8599.695515348525
 20
9640.57989632414
 30
0.0
  0
POINT
  5
14F55
330
123CF
100
AcDbEntity
  8
DEFPOINTS
 62
     0
 48
50.0
100
AcDbPoint
 10
8599.695515348525
 20
10315.29230634294
 30
0.0
  0
ENDBLK
  5
134C0
330
123CF
100
AcDbEntity
  8
0
 48
50.0
100
AcDbBlockEnd
  0
BLOCK
  5
134D8
330
123DB
100
AcDbEntity
  8
0
 48
50.0
100
AcDbBlockBegin
  2
*D9
 70
     1
 10
0.0
 20
0.0
 30
0.0
  3
*D9
  1

  0
LINE
  5
14F44
330
123DB
100
AcDbEntity
  8
寸法
 62
     0
 48
50.0
370
    -2
100
AcDbLine
 10
2554.695515348525
 20
9660.579896324142
 30
0.0
 11
2554.695515348525
 21
10055.29230634294
 31
0.0
  0
LINE
  5
14F45
330
123DB
100
AcDbEntity
  8
寸法
 62
     0
 48
50.0
370
    -2
100
AcDbLine
 10
5494.695515348524
 20
9660.579896324142
 30
0.0
 11
5494.695515348524
 21
10055.29230634294
 31
0.0
  0
LINE
  5
14F46
330
123DB
100
AcDbEntity
  8
寸法
 62
     0
 48
50.0
370
    -2
100
AcDbLine
 10
2574.695515348525
 20
10015.29230634293
 30
0.0
 11
5474.695515348525
 21
10015.29230634293
 31
0.0
  0
INSERT
  5
14F47
330
123DB
100
AcDbEntity
  8
寸法
 62
     0
 48
50.0
370
    -2
100
AcDbBlockReference
  2
_DOT
 10
2554.695515348525
 20
10015.29230634293
 30
0.0
 41
20.0
 42
20.0
 43
20.0
 50
180.0
  0
INSERT
  5
14F48
330
123DB
100
AcDbEntity
  8
寸法
 62
     0
 48
50.0
370
    -2
100
AcDbBlockReference
  2
_DOT
 10
5494.695515348524
 20
10015.29230634293
 30
0.0
 41
20.0
 42
20.0
 43
20.0
  0
MTEXT
  5
14F49
330
123DB
100
AcDbEntity
  8
寸法
 62
     7
 48
50.0
100
AcDbMText
 10
4024.695515348525
 20
10107.30411736656
 30
0.0
 40
120.0
 41
0.0
 71
     5
 72
     1
  1
\A1;7X420=2940
  7
STYLE1
 73
     1
 44
1.0
1001
ACAD
1000
MTEXTBEGIN
1070
    73
1070
     1
1070
    44
1040
1.0
1070
    74
1070
     0
1000
MTEXTEND
  0
POINT
  5
14F4A
330
123DB
100
AcDbEntity
  8
DEFPOINTS
 62
     0
 48
50.0
100
AcDbPoint
 10
2554.695515348525
 20
9640.57989632414
 30
0.0
  0
POINT
  5
14F4B
330
123DB
100
AcDbEntity
  8
DEFPOINTS
 62
     0
 48
50.0
100
AcDbPoint
 10
5494.695515348524
 20
9640.57989632414
 30
0.0
  0
POINT
  5
14F4C
330
123DB
100
AcDbEntity
  8
DEFPOINTS
 62
     0
 48
50.0
100
AcDbPoint
 10
5494.695515348524
 20
10015.29230634293
 30
0.0
  0
ENDBLK
  5
134E2
330
123DB
100
AcDbEntity
  8
0
 48
50.0
100
AcDbBlockEnd
  0
BLOCK
  5
134A0
330
123E7
100
AcDbEntity
  8
0
 48
50.0
100
AcDbBlockBegin
  2
*D10
 70
     1
 10
0.0
 20
0.0
 30
0.0
  3
*D10
  1

  0
LINE
  5
14F3B
330
123E7
100
AcDbEntity
  8
寸法
 62
     0
 48
50.0
370
    -2
100
AcDbLine
 10
2499.695515348526
 20
7410.57989632414
 30
0.0
 11
2499.695515348526
 21
6065.497938821292
 31
0.0
  0
LINE
  5
14F3C
330
123E7
100
AcDbEntity
  8
寸法
 62
     0
 48
50.0
370
    -2
100
AcDbLine
 10
5549.695515348525
 20
7465.57989632414
 30
0.0
 11
5549.695515348525
 21
6065.497938821292
 31
0.0
  0
LINE
  5
14F3D
330
123E7
100
AcDbEntity
  8
寸法
 62
     0
 48
50.0
370
    -2
100
AcDbLine
 10
2519.695515348525
 20
6105.497938821293
 30
0.0
 11
5529.695515348524
 21
6105.497938821293
 31
0.0
  0
INSERT
  5
14F3E
330
123E7
100
AcDbEntity
  8
寸法
 62
     0
 48
50.0
370
    -2
100
AcDbBlockReference
  2
_DOT
 10
2499.695515348526
 20
6105.497938821293
 30
0.0
 41
20.0
 42
20.0
 43
20.0
 50
180.0
  0
INSERT
  5
14F3F
330
123E7
100
AcDbEntity
  8
寸法
 62
     0
 48
50.0
370
    -2
100
AcDbBlockReference
  2
_DOT
 10
5549.695515348525
 20
6105.497938821293
 30
0.0
 41
20.0
 42
20.0
 43
20.0
  0
MTEXT
  5
14F40
330
123E7
100
AcDbEntity
  8
寸法
 62
     7
 48
50.0
100
AcDbMText
 10
4024.695515348525
 20
6197.497938821292
 30
0.0
 40
120.0
 41
0.0
 71
     5
 72
     1
  1
\A1;3050
  7
STYLE1
 73
     1
 44
1.0
1001
ACAD
1000
MTEXTBEGIN
1070
    73
1070
     1
1070
    44
1040
1.0
1070
    74
1070
     0
1000
MTEXTEND
  0
POINT
  5
14F41
330
123E7
100
AcDbEntity
  8
DEFPOINTS
 62
     0
 48
50.0
100
AcDbPoint
 10
2499.695515348526
 20
7430.57989632414
 30
0.0
  0
POINT
  5
14F42
330
123E7
100
AcDbEntity
  8
DEFPOINTS
 62
     0
 48
50.0
100
AcDbPoint
 10
5549.695515348525
 20
7485.579896324139
 30
0.0
  0
POINT
  5
14F43
330
123E7
100
AcDbEntity
  8
DEFPOINTS
 62
     0
 48
50.0
100
AcDbPoint
 10
5549.695515348525
 20
6105.497938821293
 30
0.0
  0
ENDBLK
  5
134AA
330
123E7
100
AcDbEntity
  8
0
 48
50.0
100
AcDbBlockEnd
  0
BLOCK
  5
1296F
330
123F3
100
AcDbEntity
  8
0
 48
50.0
100
AcDbBlockBegin
  2
*D11
 70
     1
 10
0.0
 20
0.0
 30
0.0
  3
*D11
  1

  0
LINE
  5
14F30
330
123F3
100
AcDbEntity
  8
寸法
 62
     0
 48
50.0
370
    -2
100
AcDbLine
 10
2499.695515348526
 20
9660.57989632414
 30
0.0
 11
2499.695515348526
 21
10055.29230634294
 31
0.0
  0
LINE
  5
14F31
330
123F3
100
AcDbEntity
  8
寸法
 62
     0
 48
50.0
370
    -2
100
AcDbLine
 10
2554.695515348525
 20
9660.579896324142
 30
0.0
 11
2554.695515348525
 21
10055.29230634294
 31
0.0
  0
LINE
  5
14F32
330
123F3
100
AcDbEntity
  8
寸法
 62
     0
 48
50.0
370
    -2
100
AcDbLine
 10
2574.695515348525
 20
10015.29230634293
 30
0.0
 11
2594.695515348525
 21
10015.29230634293
 31
0.0
  0
LINE
  5
14F33
330
123F3
100
AcDbEntity
  8
寸法
 62
     0
 48
50.0
370
    -2
100
AcDbLine
 10
2479.695515348525
 20
10015.29230634293
 30
0.0
 11
2005.043567307621
 21
10015.29230634293
 31
0.0
  0
LINE
  5
14F34
330
123F3
100
AcDbEntity
  8
寸法
 62
     0
 48
50.0
370
    -2
100
AcDbLine
 10
2554.695515348525
 20
10015.29230634293
 30
0.0
 11
2499.695515348526
 21
10015.29230634293
 31
0.0
  0
INSERT
  5
14F35
330
123F3
100
AcDbEntity
  8
寸法
 62
     0
 48
50.0
370
    -2
100
AcDbBlockReference
  2
_DOT
 10
2554.695515348525
 20
10015.29230634293
 30
0.0
 41
20.0
 42
20.0
 43
20.0
 50
180.0
  0
INSERT
  5
14F36
330
123F3
100
AcDbEntity
  8
寸法
 62
     0
 48
50.0
370
    -2
100
AcDbBlockReference
  2
_DOT
 10
2499.695515348526
 20
10015.29230634293
 30
0.0
 41
20.0
 42
20.0
 43
20.0
  0
MTEXT
  5
14F37
330
123F3
100
AcDbEntity
  8
寸法
 62
     7
 48
50.0
100
AcDbMText
 10
2105.528848681859
 20
10107.29230634293
 30
0.0
 40
120.0
 41
0.0
 71
     5
 72
     1
  1
\A1;55
  7
STYLE1
 73
     1
 44
1.0
1001
ACAD
1000
MTEXTBEGIN
1070
    73
1070
     1
1070
    44
1040
1.0
1070
    74
1070
     0
1000
MTEXTEND
  0
POINT
  5
14F38
330
123F3
100
AcDbEntity
  8
DEFPOINTS
 62
     0
 48
50.0
100
AcDbPoint
 10
2499.695515348526
 20
9640.57989632414
 30
0.0
  0
POINT
  5
14F39
330
123F3
100
AcDbEntity
  8
DEFPOINTS
 62
     0
 48
50.0
100
AcDbPoint
 10
2554.695515348525
 20
9640.57989632414
 30
0.0
  0
POINT
  5
14F3A
330
123F3
100
AcDbEntity
  8
DEFPOINTS
 62
     0
 48
50.0
100
AcDbPoint
 10
2554.695515348525
 20
10015.29230634293
 30
0.0
  0
ENDBLK
  5
1297B
330
123F3
100
AcDbEntity
  8
0
 48
50.0
100
AcDbBlockEnd
  0
BLOCK
  5
134CC
330
12400
100
AcDbEntity
  8
0
 48
50.0
100
AcDbBlockBegin
  2
*D12
 70
     1
 10
0.0
 20
0.0
 30
0.0
  3
*D12
  1

  0
LINE
  5
14F27
330
12400
100
AcDbEntity
  8
寸法
 62
     0
 48
50.0
370
    -2
100
AcDbLine
 10
5549.695515348525
 20
7465.579896324136
 30
0.0
 11
5549.695515348525
 21
6065.497938821292
 31
0.0
  0
LINE
  5
14F28
330
12400
100
AcDbEntity
  8
寸法
 62
     0
 48
50.0
370
    -2
100
AcDbLine
 10
8599.695515348525
 20
7410.57989632414
 30
0.0
 11
8599.695515348525
 21
6065.497938821292
 31
0.0
  0
LINE
  5
14F29
330
12400
100
AcDbEntity
  8
寸法
 62
     0
 48
50.0
370
    -2
100
AcDbLine
 10
5569.695515348525
 20
6105.497938821293
 30
0.0
 11
8579.695515348525
 21
6105.497938821293
 31
0.0
  0
INSERT
  5
14F2A
330
12400
100
AcDbEntity
  8
寸法
 62
     0
 48
50.0
370
    -2
100
AcDbBlockReference
  2
_DOT
 10
5549.695515348525
 20
6105.497938821293
 30
0.0
 41
20.0
 42
20.0
 43
20.0
 50
180.0
  0
INSERT
  5
14F2B
330
12400
100
AcDbEntity
  8
寸法
 62
     0
 48
50.0
370
    -2
100
AcDbBlockReference
  2
_DOT
 10
8599.695515348525
 20
6105.497938821293
 30
0.0
 41
20.0
 42
20.0
 43
20.0
  0
MTEXT
  5
14F2C
330
12400
100
AcDbEntity
  8
寸法
 62
     7
 48
50.0
100
AcDbMText
 10
7074.695515348524
 20
6197.497938821292
 30
0.0
 40
120.0
 41
0.0
 71
     5
 72
     1
  1
\A1;3050
  7
STYLE1
 73
     1
 44
1.0
1001
ACAD
1000
MTEXTBEGIN
1070
    73
1070
     1
1070
    44
1040
1.0
1070
    74
1070
     0
1000
MTEXTEND
  0
POINT
  5
14F2D
330
12400
100
AcDbEntity
  8
DEFPOINTS
 62
     0
 48
50.0
100
AcDbPoint
 10
5549.695515348525
 20
7485.579896324136
 30
0.0
  0
POINT
  5
14F2E
330
12400
100
AcDbEntity
  8
DEFPOINTS
 62
     0
 48
50.0
100
AcDbPoint
 10
8599.695515348525
 20
7430.57989632414
 30
0.0
  0
POINT
  5
14F2F
330
12400
100
AcDbEntity
  8
DEFPOINTS
 62
     0
 48
50.0
100
AcDbPoint
 10
8599.695515348525
 20
6105.497938821293
 30
0.0
  0
ENDBLK
  5
134D6
330
12400
100
AcDbEntity
  8
0
 48
50.0
100
AcDbBlockEnd
  0
BLOCK
  5
134E3
330
1240C
100
AcDbEntity
  8
0
 48
50.0
100
AcDbBlockBegin
  2
*D13
 70
     1
 10
0.0
 20
0.0
 30
0.0
  3
*D13
  1

  0
LINE
  5
14F1E
330
1240C
100
AcDbEntity
  8
寸法
 62
     0
 48
50.0
370
    -2
100
AcDbLine
 10
5604.695515348525
 20
9660.579896324142
 30
0.0
 11
5604.695515348525
 21
10055.29230634294
 31
0.0
  0
LINE
  5
14F1F
330
1240C
100
AcDbEntity
  8
寸法
 62
     0
 48
50.0
370
    -2
100
AcDbLine
 10
8544.695515348525
 20
9660.579896324142
 30
0.0
 11
8544.695515348525
 21
10055.29230634294
 31
0.0
  0
LINE
  5
14F20
330
1240C
100
AcDbEntity
  8
寸法
 62
     0
 48
50.0
370
    -2
100
AcDbLine
 10
5624.695515348525
 20
10015.29230634293
 30
0.0
 11
8524.695515348524
 21
10015.29230634293
 31
0.0
  0
INSERT
  5
14F21
330
1240C
100
AcDbEntity
  8
寸法
 62
     0
 48
50.0
370
    -2
100
AcDbBlockReference
  2
_DOT
 10
5604.695515348525
 20
10015.29230634293
 30
0.0
 41
20.0
 42
20.0
 43
20.0
 50
180.0
  0
INSERT
  5
14F22
330
1240C
100
AcDbEntity
  8
寸法
 62
     0
 48
50.0
370
    -2
100
AcDbBlockReference
  2
_DOT
 10
8544.695515348525
 20
10015.29230634293
 30
0.0
 41
20.0
 42
20.0
 43
20.0
  0
MTEXT
  5
14F23
330
1240C
100
AcDbEntity
  8
寸法
 62
     7
 48
50.0
100
AcDbMText
 10
7074.695515348524
 20
10107.30411736656
 30
0.0
 40
120.0
 41
0.0
 71
     5
 72
     1
  1
\A1;7X420=2940
  7
STYLE1
 73
     1
 44
1.0
1001
ACAD
1000
MTEXTBEGIN
1070
    73
1070
     1
1070
    44
1040
1.0
1070
    74
1070
     0
1000
MTEXTEND
  0
POINT
  5
14F24
330
1240C
100
AcDbEntity
  8
DEFPOINTS
 62
     0
 48
50.0
100
AcDbPoint
 10
5604.695515348525
 20
9640.57989632414
 30
0.0
  0
POINT
  5
14F25
330
1240C
100
AcDbEntity
  8
DEFPOINTS
 62
     0
 48
50.0
100
AcDbPoint
 10
8544.695515348525
 20
9640.57989632414
 30
0.0
  0
POINT
  5
14F26
330
1240C
100
AcDbEntity
  8
DEFPOINTS
 62
     0
 48
50.0
100
AcDbPoint
 10
8544.695515348525
 20
10015.29230634293
 30
0.0
  0
ENDBLK
  5
134ED
330
1240C
100
AcDbEntity
  8
0
 48
50.0
100
AcDbBlockEnd
  0
BLOCK
  5
1297C
330
12418
100
AcDbEntity
  8
0
 48
50.0
100
AcDbBlockBegin
  2
*D14
 70
     1
 10
0.0
 20
0.0
 30
0.0
  3
*D14
  1

  0
LINE
  5
14F15
330
12418
100
AcDbEntity
  8
寸法
 62
     0
 48
50.0
370
    -2
100
AcDbLine
 10
5494.695515348524
 20
9660.579896324142
 30
0.0
 11
5494.695515348524
 21
10055.29230634294
 31
0.0
  0
LINE
  5
14F16
330
12418
100
AcDbEntity
  8
寸法
 62
     0
 48
50.0
370
    -2
100
AcDbLine
 10
5604.695515348525
 20
9660.579896324142
 30
0.0
 11
5604.695515348525
 21
10055.29230634294
 31
0.0
  0
LINE
  5
14F17
330
12418
100
AcDbEntity
  8
寸法
 62
     0
 48
50.0
370
    -2
100
AcDbLine
 10
5514.695515348525
 20
10015.29230634293
 30
0.0
 11
5584.695515348525
 21
10015.29230634293
 31
0.0
  0
INSERT
  5
14F18
330
12418
100
AcDbEntity
  8
寸法
 62
     0
 48
50.0
370
    -2
100
AcDbBlockReference
  2
_DOT
 10
5494.695515348524
 20
10015.29230634293
 30
0.0
 41
20.0
 42
20.0
 43
20.0
 50
180.0
  0
INSERT
  5
14F19
330
12418
100
AcDbEntity
  8
寸法
 62
     0
 48
50.0
370
    -2
100
AcDbBlockReference
  2
_DOT
 10
5604.695515348525
 20
10015.29230634293
 30
0.0
 41
20.0
 42
20.0
 43
20.0
  0
MTEXT
  5
14F1A
330
12418
100
AcDbEntity
  8
寸法
 62
     7
 48
50.0
100
AcDbMText
 10
5549.695515348525
 20
10107.29230634293
 30
0.0
 40
120.0
 41
0.0
 71
     5
 72
     1
  1
\A1;110
  7
STYLE1
 73
     1
 44
1.0
1001
ACAD
1000
MTEXTBEGIN
1070
    73
1070
     1
1070
    44
1040
1.0
1070
    74
1070
     0
1000
MTEXTEND
  0
POINT
  5
14F1B
330
12418
100
AcDbEntity
  8
DEFPOINTS
 62
     0
 48
50.0
100
AcDbPoint
 10
5494.695515348524
 20
9640.57989632414
 30
0.0
  0
POINT
  5
14F1C
330
12418
100
AcDbEntity
  8
DEFPOINTS
 62
     0
 48
50.0
100
AcDbPoint
 10
5604.695515348525
 20
9640.57989632414
 30
0.0
  0
POINT
  5
14F1D
330
12418
100
AcDbEntity
  8
DEFPOINTS
 62
     0
 48
50.0
100
AcDbPoint
 10
5604.695515348525
 20
10015.29230634293
 30
0.0
  0
ENDBLK
  5
12986
330
12418
100
AcDbEntity
  8
0
 48
50.0
100
AcDbBlockEnd
  0
BLOCK
  5
14329
330
1431F
100
AcDbEntity
  8
0
 48
50.0
100
AcDbBlockBegin
  2
*D15
 70
     1
 10
0.0
 20
0.0
 30
0.0
  3
*D15
  1

  0
LINE
  5
147C0
330
1431F
100
AcDbEntity
  8
寸法
 62
     0
 48
50.0
370
    -2
100
AcDbLine
 10
11716.81870467152
 20
4428.112805903256
 30
0.0
 11
10833.06857548826
 21
4428.112805903256
 31
0.0
  0
LINE
  5
147C1
330
1431F
100
AcDbEntity
  8
寸法
 62
     0
 48
50.0
370
    -2
100
AcDbLine
 10
11716.81870467152
 20
2338.112805903256
 30
0.0
 11
10833.06857548826
 21
2338.112805903257
 31
0.0
  0
LINE
  5
147C2
330
1431F
100
AcDbEntity
  8
寸法
 62
     0
 48
50.0
370
    -2
100
AcDbLine
 10
10893.06857548826
 20
4428.112805903256
 30
0.0
 11
10893.06857548826
 21
2338.112805903257
 31
0.0
  0
INSERT
  5
147C3
330
1431F
100
AcDbEntity
  8
寸法
 62
     0
 48
50.0
370
    -2
100
AcDbBlockReference
  2
_DOTSMALL
 10
10893.06857548826
 20
4428.112805903256
 30
0.0
 41
100.0
 42
100.0
 43
100.0
 50
90.0
  0
INSERT
  5
147C4
330
1431F
100
AcDbEntity
  8
寸法
 62
     0
 48
50.0
370
    -2
100
AcDbBlockReference
  2
_DOTSMALL
 10
10893.06857548826
 20
2338.112805903257
 30
0.0
 41
100.0
 42
100.0
 43
100.0
 50
270.0
  0
MTEXT
  5
147C5
330
1431F
100
AcDbEntity
  8
寸法
 62
     7
 48
50.0
100
AcDbMText
 10
10793.05676446464
 20
3383.112805903259
 30
0.0
 40
120.0
 41
0.0
 71
     5
 72
     1
  1
\A1;2090
  7
STYLE1
 11
0.0000000000000001
 21
1.0
 31
0.0
 73
     1
 44
1.0
1001
ACAD
1000
MTEXTBEGIN
1070
    73
1070
     1
1070
    44
1040
1.0
1070
    74
1070
     0
1000
MTEXTEND
  0
POINT
  5
147C6
330
1431F
100
AcDbEntity
  8
DEFPOINTS
 62
     0
 48
50.0
100
AcDbPoint
 10
11736.81870467152
 20
4428.112805903256
 30
0.0
  0
POINT
  5
147C7
330
1431F
100
AcDbEntity
  8
DEFPOINTS
 62
     0
 48
50.0
100
AcDbPoint
 10
11736.81870467152
 20
2338.112805903256
 30
0.0
  0
POINT
  5
147C8
330
1431F
100
AcDbEntity
  8
DEFPOINTS
 62
     0
 48
50.0
100
AcDbPoint
 10
10893.06857548826
 20
2338.112805903257
 30
0.0
  0
ENDBLK
  5
1432A
330
1431F
100
AcDbEntity
  8
0
 48
50.0
100
AcDbBlockEnd
  0
BLOCK
  5
14335
330
1432B
100
AcDbEntity
  8
0
 48
50.0
100
AcDbBlockBegin
  2
*D16
 70
     1
 10
0.0
 20
0.0
 30
0.0
  3
*D16
  1

  0
LINE
  5
147B7
330
1432B
100
AcDbEntity
  8
寸法
 62
     0
 48
50.0
370
    -2
100
AcDbLine
 10
11639.81870467152
 20
2288.112805903256
 30
0.0
 11
10533.06857548826
 21
2288.112805903256
 31
0.0
  0
LINE
  5
147B8
330
1432B
100
AcDbEntity
  8
寸法
 62
     0
 48
50.0
370
    -2
100
AcDbLine
 10
11656.81870467152
 20
4663.112805903262
 30
0.0
 11
10533.06857548826
 21
4663.112805903262
 31
0.0
  0
LINE
  5
147B9
330
1432B
100
AcDbEntity
  8
寸法
 62
     0
 48
50.0
370
    -2
100
AcDbLine
 10
10593.06857548826
 20
2288.112805903256
 30
0.0
 11
10593.06857548826
 21
4663.112805903262
 31
0.0
  0
INSERT
  5
147BA
330
1432B
100
AcDbEntity
  8
寸法
 62
     0
 48
50.0
370
    -2
100
AcDbBlockReference
  2
_DOTSMALL
 10
10593.06857548826
 20
2288.112805903256
 30
0.0
 41
100.0
 42
100.0
 43
100.0
 50
270.0
  0
INSERT
  5
147BB
330
1432B
100
AcDbEntity
  8
寸法
 62
     0
 48
50.0
370
    -2
100
AcDbBlockReference
  2
_DOTSMALL
 10
10593.06857548826
 20
4663.112805903262
 30
0.0
 41
100.0
 42
100.0
 43
100.0
 50
90.0
  0
MTEXT
  5
147BC
330
1432B
100
AcDbEntity
  8
寸法
 62
     7
 48
50.0
100
AcDbMText
 10
10493.05676446464
 20
3475.612805903261
 30
0.0
 40
120.0
 41
0.0
 71
     5
 72
     1
  1
\A1;2375
  7
STYLE1
 11
0.0000000000000001
 21
1.0
 31
0.0
 73
     1
 44
1.0
1001
ACAD
1000
MTEXTBEGIN
1070
    73
1070
     1
1070
    44
1040
1.0
1070
    74
1070
     0
1000
MTEXTEND
  0
POINT
  5
147BD
330
1432B
100
AcDbEntity
  8
DEFPOINTS
 62
     0
 48
50.0
100
AcDbPoint
 10
11659.81870467152
 20
2288.112805903256
 30
0.0
  0
POINT
  5
147BE
330
1432B
100
AcDbEntity
  8
DEFPOINTS
 62
     0
 48
50.0
100
AcDbPoint
 10
11676.81870467152
 20
4663.112805903262
 30
0.0
  0
POINT
  5
147BF
330
1432B
100
AcDbEntity
  8
DEFPOINTS
 62
     0
 48
50.0
100
AcDbPoint
 10
10593.06857548826
 20
4663.112805903262
 30
0.0
  0
ENDBLK
  5
14336
330
1432B
100
AcDbEntity
  8
0
 48
50.0
100
AcDbBlockEnd
  0
BLOCK
  5
14341
330
14337
100
AcDbEntity
  8
0
 48
50.0
100
AcDbBlockBegin
  2
*D17
 70
     1
 10
0.0
 20
0.0
 30
0.0
  3
*D17
  1

  0
LINE
  5
147AE
330
14337
100
AcDbEntity
  8
寸法
 62
     0
 48
50.0
370
    -2
100
AcDbLine
 10
13966.81870467152
 20
2288.112805903256
 30
0.0
 11
14711.74586264365
 21
2288.112805903256
 31
0.0
  0
LINE
  5
147AF
330
14337
100
AcDbEntity
  8
寸法
 62
     0
 48
50.0
370
    -2
100
AcDbLine
 10
14046.81870467152
 20
4608.112805903258
 30
0.0
 11
14711.74586264365
 21
4608.112805903257
 31
0.0
  0
LINE
  5
147B0
330
14337
100
AcDbEntity
  8
寸法
 62
     0
 48
50.0
370
    -2
100
AcDbLine
 10
14651.74586264365
 20
2288.112805903256
 30
0.0
 11
14651.74586264365
 21
4608.112805903257
 31
0.0
  0
INSERT
  5
147B1
330
14337
100
AcDbEntity
  8
寸法
 62
     0
 48
50.0
370
    -2
100
AcDbBlockReference
  2
_DOTSMALL
 10
14651.74586264365
 20
2288.112805903256
 30
0.0
 41
100.0
 42
100.0
 43
100.0
 50
270.0
  0
INSERT
  5
147B2
330
14337
100
AcDbEntity
  8
寸法
 62
     0
 48
50.0
370
    -2
100
AcDbBlockReference
  2
_DOTSMALL
 10
14651.74586264365
 20
4608.112805903257
 30
0.0
 41
100.0
 42
100.0
 43
100.0
 50
90.0
  0
MTEXT
  5
147B3
330
14337
100
AcDbEntity
  8
寸法
 62
     7
 48
50.0
100
AcDbMText
 10
14551.73405162002
 20
3448.112805903259
 30
0.0
 40
120.0
 41
0.0
 71
     5
 72
     1
  1
\A1;2320
  7
STYLE1
 11
0.0000000000000001
 21
1.0
 31
0.0
 73
     1
 44
1.0
1001
ACAD
1000
MTEXTBEGIN
1070
    73
1070
     1
1070
    44
1040
1.0
1070
    74
1070
     0
1000
MTEXTEND
  0
POINT
  5
147B4
330
14337
100
AcDbEntity
  8
DEFPOINTS
 62
     0
 48
50.0
100
AcDbPoint
 10
13946.81870467152
 20
2288.112805903256
 30
0.0
  0
POINT
  5
147B5
330
14337
100
AcDbEntity
  8
DEFPOINTS
 62
     0
 48
50.0
100
AcDbPoint
 10
14026.81870467152
 20
4608.112805903258
 30
0.0
  0
POINT
  5
147B6
330
14337
100
AcDbEntity
  8
DEFPOINTS
 62
     0
 48
50.0
100
AcDbPoint
 10
14651.74586264365
 20
4608.112805903257
 30
0.0
  0
ENDBLK
  5
14342
330
14337
100
AcDbEntity
  8
0
 48
50.0
100
AcDbBlockEnd
  0
BLOCK
  5
1434E
330
14343
100
AcDbEntity
  8
0
 48
50.0
100
AcDbBlockBegin
  2
*D18
 70
     1
 10
0.0
 20
0.0
 30
0.0
  3
*D18
  1

  0
LINE
  5
147A4
330
14343
100
AcDbEntity
  8
寸法
 62
     0
 48
50.0
370
    -2
100
AcDbLine
 10
11676.22299096262
 20
4662.410512972918
 30
0.0
 11
11060.28855185733
 21
4680.124663247248
 31
0.0
  0
LINE
  5
147A5
330
14343
100
AcDbEntity
  8
寸法
 62
     0
 48
50.0
370
    -2
100
AcDbLine
 10
11672.169535406
 20
4521.468789207206
 30
0.0
 11
11056.23509630071
 21
4539.182939481536
 31
0.0
  0
LINE
  5
147A6
330
14343
100
AcDbEntity
  8
寸法
 62
     0
 48
50.0
370
    -2
100
AcDbLine
 10
11116.21029790314
 20
4537.458064776589
 30
0.0
 11
11120.26375345976
 21
4678.399788542301
 31
0.0
  0
LINE
  5
147A7
330
14343
100
AcDbEntity
  8
寸法
 62
     0
 48
50.0
370
    -2
100
AcDbLine
 10
11120.26375345976
 20
4678.399788542301
 30
0.0
 11
11130.61300168945
 21
5038.250998156886
 31
0.0
  0
INSERT
  5
147A8
330
14343
100
AcDbEntity
  8
寸法
 62
     0
 48
50.0
370
    -2
100
AcDbBlockReference
  2
_DOTSMALL
 10
11116.21029790314
 20
4537.458064776589
 30
0.0
 41
100.0
 42
100.0
 43
100.0
 50
268.3526390256378
  0
INSERT
  5
147A9
330
14343
100
AcDbEntity
  8
寸法
 62
     0
 48
50.0
370
    -2
100
AcDbBlockReference
  2
_DOTSMALL
 10
11120.26375345976
 20
4678.399788542301
 30
0.0
 41
100.0
 42
100.0
 43
100.0
 50
88.35263902563776
  0
MTEXT
  5
147AA
330
14343
100
AcDbEntity
  8
寸法
 62
     7
 48
50.0
100
AcDbMText
 10
11026.91710382468
 20
4911.1795191932
 30
0.0
 40
120.0
 41
0.0
 71
     5
 72
     1
  1
\A1;141
  7
STYLE1
 11
0.0287479117491237
 21
0.9995866933738488
 31
0.0
 73
     1
 44
1.0
1001
ACAD
1000
MTEXTBEGIN
1070
    73
1070
     1
1070
    44
1040
1.0
1070
    74
1070
     0
1000
MTEXTEND
  0
POINT
  5
147AB
330
14343
100
AcDbEntity
  8
DEFPOINTS
 62
     0
 48
50.0
100
AcDbPoint
 10
11696.2147248301
 20
4661.835554737936
 30
0.0
  0
POINT
  5
147AC
330
14343
100
AcDbEntity
  8
DEFPOINTS
 62
     0
 48
50.0
100
AcDbPoint
 10
11692.16126927347
 20
4520.893830972223
 30
0.0
  0
POINT
  5
147AD
330
14343
100
AcDbEntity
  8
DEFPOINTS
 62
     0
 48
50.0
100
AcDbPoint
 10
11116.21029790314
 20
4537.458064776589
 30
0.0
  0
ENDBLK
  5
1434F
330
14343
100
AcDbEntity
  8
0
 48
50.0
100
AcDbBlockEnd
  0
BLOCK
  5
1435B
330
14350
100
AcDbEntity
  8
0
 48
50.0
100
AcDbBlockBegin
  2
*D19
 70
     1
 10
0.0
 20
0.0
 30
0.0
  3
*D19
  1

  0
LINE
  5
1479A
330
14350
100
AcDbEntity
  8
寸法
 62
     0
 48
50.0
370
    -2
100
AcDbLine
 10
13946.81870467152
 20
4629.92348551491
 30
0.0
 11
13946.81870467152
 21
5121.77025948256
 31
0.0
  0
LINE
  5
1479B
330
14350
100
AcDbEntity
  8
寸法
 62
     0
 48
50.0
370
    -2
100
AcDbLine
 10
14026.81870467152
 20
4628.112805903258
 30
0.0
 11
14026.81870467152
 21
5121.77025948256
 31
0.0
  0
LINE
  5
1479C
330
14350
100
AcDbEntity
  8
寸法
 62
     0
 48
50.0
370
    -2
100
AcDbLine
 10
13946.81870467152
 20
5061.77025948256
 30
0.0
 11
14026.81870467152
 21
5061.77025948256
 31
0.0
  0
LINE
  5
1479D
330
14350
100
AcDbEntity
  8
寸法
 62
     0
 48
50.0
370
    -2
100
AcDbLine
 10
14026.81870467152
 20
5061.77025948256
 30
0.0
 11
14338.9131928605
 21
5061.77025948256
 31
0.0
  0
INSERT
  5
1479E
330
14350
100
AcDbEntity
  8
寸法
 62
     0
 48
50.0
370
    -2
100
AcDbBlockReference
  2
_DOTSMALL
 10
13946.81870467152
 20
5061.77025948256
 30
0.0
 41
100.0
 42
100.0
 43
100.0
 50
180.0
  0
INSERT
  5
1479F
330
14350
100
AcDbEntity
  8
寸法
 62
     0
 48
50.0
370
    -2
100
AcDbBlockReference
  2
_DOTSMALL
 10
14026.81870467152
 20
5061.77025948256
 30
0.0
 41
100.0
 42
100.0
 43
100.0
  0
MTEXT
  5
147A0
330
14350
100
AcDbEntity
  8
寸法
 62
     7
 48
50.0
100
AcDbMText
 10
14232.86594876601
 20
5161.770259482561
 30
0.0
 40
120.0
 41
0.0
 71
     5
 72
     1
  1
\A1;80
  7
STYLE1
 73
     1
 44
1.0
1001
ACAD
1000
MTEXTBEGIN
1070
    73
1070
     1
1070
    44
1040
1.0
1070
    74
1070
     0
1000
MTEXTEND
  0
POINT
  5
147A1
330
14350
100
AcDbEntity
  8
DEFPOINTS
 62
     0
 48
50.0
100
AcDbPoint
 10
13946.81870467152
 20
4609.92348551491
 30
0.0
  0
POINT
  5
147A2
330
14350
100
AcDbEntity
  8
DEFPOINTS
 62
     0
 48
50.0
100
AcDbPoint
 10
14026.81870467152
 20
4608.112805903258
 30
0.0
  0
POINT
  5
147A3
330
14350
100
AcDbEntity
  8
DEFPOINTS
 62
     0
 48
50.0
100
AcDbPoint
 10
14026.81870467152
 20
5061.77025948256
 30
0.0
  0
ENDBLK
  5
1435C
330
14350
100
AcDbEntity
  8
0
 48
50.0
100
AcDbBlockEnd
  0
BLOCK
  5
14367
330
1435D
100
AcDbEntity
  8
0
 48
50.0
100
AcDbBlockBegin
  2
*D20
 70
     1
 10
0.0
 20
0.0
 30
0.0
  3
*D20
  1

  0
LINE
  5
14791
330
1435D
100
AcDbEntity
  8
寸法
 62
     0
 48
50.0
370
    -2
100
AcDbLine
 10
14026.81870467152
 20
4628.112805903258
 30
0.0
 11
14026.81870467152
 21
5340.972093156852
 31
0.0
  0
LINE
  5
14792
330
1435D
100
AcDbEntity
  8
寸法
 62
     0
 48
50.0
370
    -2
100
AcDbLine
 10
11676.81870467152
 20
4683.112805903261
 30
0.0
 11
11676.81870467152
 21
5340.972093156852
 31
0.0
  0
LINE
  5
14793
330
1435D
100
AcDbEntity
  8
寸法
 62
     0
 48
50.0
370
    -2
100
AcDbLine
 10
14026.81870467152
 20
5280.972093156852
 30
0.0
 11
11676.81870467152
 21
5280.972093156852
 31
0.0
  0
INSERT
  5
14794
330
1435D
100
AcDbEntity
  8
寸法
 62
     0
 48
50.0
370
    -2
100
AcDbBlockReference
  2
_DOTSMALL
 10
14026.81870467152
 20
5280.972093156852
 30
0.0
 41
100.0
 42
100.0
 43
100.0
  0
INSERT
  5
14795
330
1435D
100
AcDbEntity
  8
寸法
 62
     0
 48
50.0
370
    -2
100
AcDbBlockReference
  2
_DOTSMALL
 10
11676.81870467152
 20
5280.972093156852
 30
0.0
 41
100.0
 42
100.0
 43
100.0
 50
180.0
  0
MTEXT
  5
14796
330
1435D
100
AcDbEntity
  8
寸法
 62
     7
 48
50.0
100
AcDbMText
 10
12911.16255876399
 20
5380.983904180474
 30
0.0
 40
120.0
 41
0.0
 71
     5
 72
     1
  1
\A1;2350
  7
STYLE1
 73
     1
 44
1.0
1001
ACAD
1000
MTEXTBEGIN
1070
    73
1070
     1
1070
    44
1040
1.0
1070
    74
1070
     0
1000
MTEXTEND
  0
POINT
  5
14797
330
1435D
100
AcDbEntity
  8
DEFPOINTS
 62
     0
 48
50.0
100
AcDbPoint
 10
14026.81870467152
 20
4608.112805903258
 30
0.0
  0
POINT
  5
14798
330
1435D
100
AcDbEntity
  8
DEFPOINTS
 62
     0
 48
50.0
100
AcDbPoint
 10
11676.81870467152
 20
4663.112805903262
 30
0.0
  0
POINT
  5
14799
330
1435D
100
AcDbEntity
  8
DEFPOINTS
 62
     0
 48
50.0
100
AcDbPoint
 10
11676.81870467152
 20
5280.972093156852
 30
0.0
  0
ENDBLK
  5
14368
330
1435D
100
AcDbEntity
  8
0
 48
50.0
100
AcDbBlockEnd
  0
BLOCK
  5
14375
330
14369
100
AcDbEntity
  8
0
 48
50.0
100
AcDbBlockBegin
  2
*D21
 70
     1
 10
0.0
 20
0.0
 30
0.0
  3
*D21
  1

  0
LINE
  5
14786
330
14369
100
AcDbEntity
  8
寸法
 62
     0
 48
50.0
370
    -2
100
AcDbLine
 10
11736.81870467152
 20
4679.114424026233
 30
0.0
 11
11736.81870467152
 21
5121.77025948256
 31
0.0
  0
LINE
  5
14787
330
14369
100
AcDbEntity
  8
寸法
 62
     0
 48
50.0
370
    -2
100
AcDbLine
 10
11676.81870467152
 20
4683.112805903261
 30
0.0
 11
11676.81870467152
 21
5121.77025948256
 31
0.0
  0
LINE
  5
14788
330
14369
100
AcDbEntity
  8
寸法
 62
     0
 48
50.0
370
    -2
100
AcDbLine
 10
11736.81870467152
 20
5061.77025948256
 30
0.0
 11
11836.81870467152
 21
5061.77025948256
 31
0.0
  0
LINE
  5
14789
330
14369
100
AcDbEntity
  8
寸法
 62
     0
 48
50.0
370
    -2
100
AcDbLine
 10
11676.81870467152
 20
5061.77025948256
 30
0.0
 11
11257.54311412034
 21
5061.77025948256
 31
0.0
  0
LINE
  5
1478A
330
14369
100
AcDbEntity
  8
寸法
 62
     0
 48
50.0
370
    -2
100
AcDbLine
 10
11736.81870467152
 20
5061.77025948256
 30
0.0
 11
11676.81870467152
 21
5061.77025948256
 31
0.0
  0
INSERT
  5
1478B
330
14369
100
AcDbEntity
  8
寸法
 62
     0
 48
50.0
370
    -2
100
AcDbBlockReference
  2
_DOTSMALL
 10
11736.81870467152
 20
5061.77025948256
 30
0.0
 41
100.0
 42
100.0
 43
100.0
 50
180.0
  0
INSERT
  5
1478C
330
14369
100
AcDbEntity
  8
寸法
 62
     0
 48
50.0
370
    -2
100
AcDbBlockReference
  2
_DOTSMALL
 10
11676.81870467152
 20
5061.77025948256
 30
0.0
 41
100.0
 42
100.0
 43
100.0
  0
MTEXT
  5
1478D
330
14369
100
AcDbEntity
  8
寸法
 62
     7
 48
50.0
100
AcDbMText
 10
11367.18090939593
 20
5161.770259482561
 30
0.0
 40
120.0
 41
0.0
 71
     5
 72
     1
  1
\A1;60
  7
STYLE1
 73
     1
 44
1.0
1001
ACAD
1000
MTEXTBEGIN
1070
    73
1070
     1
1070
    44
1040
1.0
1070
    74
1070
     0
1000
MTEXTEND
  0
POINT
  5
1478E
330
14369
100
AcDbEntity
  8
DEFPOINTS
 62
     0
 48
50.0
100
AcDbPoint
 10
11736.81870467152
 20
4659.114424026233
 30
0.0
  0
POINT
  5
1478F
330
14369
100
AcDbEntity
  8
DEFPOINTS
 62
     0
 48
50.0
100
AcDbPoint
 10
11676.81870467152
 20
4663.112805903262
 30
0.0
  0
POINT
  5
14790
330
14369
100
AcDbEntity
  8
DEFPOINTS
 62
     0
 48
50.0
100
AcDbPoint
 10
11676.81870467152
 20
5061.77025948256
 30
0.0
  0
ENDBLK
  5
14376
330
14369
100
AcDbEntity
  8
0
 48
50.0
100
AcDbBlockEnd
  0
BLOCK
  5
14381
330
14377
100
AcDbEntity
  8
0
 48
50.0
100
AcDbBlockBegin
  2
*D22
 70
     1
 10
0.0
 20
0.0
 30
0.0
  3
*D22
  1

  0
LINE
  5
1477D
330
14377
100
AcDbEntity
  8
寸法
 62
     0
 48
50.0
370
    -2
100
AcDbLine
 10
13946.81870467152
 20
4629.92348551491
 30
0.0
 11
13946.81870467152
 21
5121.77025948256
 31
0.0
  0
LINE
  5
1477E
330
14377
100
AcDbEntity
  8
寸法
 62
     0
 48
50.0
370
    -2
100
AcDbLine
 10
11736.81870467152
 20
4679.114424026233
 30
0.0
 11
11736.81870467152
 21
5121.77025948256
 31
0.0
  0
LINE
  5
1477F
330
14377
100
AcDbEntity
  8
寸法
 62
     0
 48
50.0
370
    -2
100
AcDbLine
 10
13946.81870467152
 20
5061.77025948256
 30
0.0
 11
11736.81870467152
 21
5061.77025948256
 31
0.0
  0
INSERT
  5
14780
330
14377
100
AcDbEntity
  8
寸法
 62
     0
 48
50.0
370
    -2
100
AcDbBlockReference
  2
_DOTSMALL
 10
13946.81870467152
 20
5061.77025948256
 30
0.0
 41
100.0
 42
100.0
 43
100.0
  0
INSERT
  5
14781
330
14377
100
AcDbEntity
  8
寸法
 62
     0
 48
50.0
370
    -2
100
AcDbBlockReference
  2
_DOTSMALL
 10
11736.81870467152
 20
5061.77025948256
 30
0.0
 41
100.0
 42
100.0
 43
100.0
 50
180.0
  0
MTEXT
  5
14782
330
14377
100
AcDbEntity
  8
寸法
 62
     7
 48
50.0
100
AcDbMText
 10
12831.46344174203
 20
5161.782070506182
 30
0.0
 40
120.0
 41
0.0
 71
     5
 72
     1
  1
\A1;柱外寸法2210
  7
STYLE1
 73
     1
 44
1.0
1001
ACAD
1000
MTEXTBEGIN
1070
    73
1070
     1
1070
    44
1040
1.0
1070
    74
1070
     0
1000
MTEXTEND
  0
POINT
  5
14783
330
14377
100
AcDbEntity
  8
DEFPOINTS
 62
     0
 48
50.0
100
AcDbPoint
 10
13946.81870467152
 20
4609.92348551491
 30
0.0
  0
POINT
  5
14784
330
14377
100
AcDbEntity
  8
DEFPOINTS
 62
     0
 48
50.0
100
AcDbPoint
 10
11736.81870467152
 20
4659.114424026233
 30
0.0
  0
POINT
  5
14785
330
14377
100
AcDbEntity
  8
DEFPOINTS
 62
     0
 48
50.0
100
AcDbPoint
 10
11736.81870467152
 20
5061.77025948256
 30
0.0
  0
ENDBLK
  5
14382
330
14377
100
AcDbEntity
  8
0
 48
50.0
100
AcDbBlockEnd
  0
BLOCK
  5
1438F
330
14383
100
AcDbEntity
  8
0
 48
50.0
100
AcDbBlockBegin
  2
*D23
 70
     1
 10
0.0
 20
0.0
 30
0.0
  3
*D23
  1

  0
LINE
  5
14772
330
14383
100
AcDbEntity
  8
寸法
 62
     0
 48
50.0
370
    -2
100
AcDbLine
 10
11716.81870467152
 20
2338.112805903256
 30
0.0
 11
10833.06857548826
 21
2338.112805903257
 31
0.0
  0
LINE
  5
14773
330
14383
100
AcDbEntity
  8
寸法
 62
     0
 48
50.0
370
    -2
100
AcDbLine
 10
11639.81870467152
 20
2288.112805903256
 30
0.0
 11
10833.06857548826
 21
2288.112805903256
 31
0.0
  0
LINE
  5
14774
330
14383
100
AcDbEntity
  8
寸法
 62
     0
 48
50.0
370
    -2
100
AcDbLine
 10
10893.06857548826
 20
2338.112805903257
 30
0.0
 11
10893.06857548826
 21
2438.112805903257
 31
0.0
  0
LINE
  5
14775
330
14383
100
AcDbEntity
  8
寸法
 62
     0
 48
50.0
370
    -2
100
AcDbLine
 10
10893.06857548826
 20
2288.112805903256
 30
0.0
 11
10893.06857548826
 21
1876.018317714276
 31
0.0
  0
LINE
  5
14776
330
14383
100
AcDbEntity
  8
寸法
 62
     0
 48
50.0
370
    -2
100
AcDbLine
 10
10893.06857548826
 20
2338.112805903257
 30
0.0
 11
10893.06857548826
 21
2288.112805903256
 31
0.0
  0
INSERT
  5
14777
330
14383
100
AcDbEntity
  8
寸法
 62
     0
 48
50.0
370
    -2
100
AcDbBlockReference
  2
_DOTSMALL
 10
10893.06857548826
 20
2338.112805903257
 30
0.0
 41
100.0
 42
100.0
 43
100.0
 50
270.0
  0
INSERT
  5
14778
330
14383
100
AcDbEntity
  8
寸法
 62
     0
 48
50.0
370
    -2
100
AcDbBlockReference
  2
_DOTSMALL
 10
10893.06857548826
 20
2288.112805903256
 30
0.0
 41
100.0
 42
100.0
 43
100.0
 50
90.0
  0
MTEXT
  5
14779
330
14383
100
AcDbEntity
  8
寸法
 62
     7
 48
50.0
100
AcDbMText
 10
10793.06857548826
 20
1982.065561808766
 30
0.0
 40
120.0
 41
0.0
 71
     5
 72
     1
  1
\A1;50
  7
STYLE1
 11
0.0000000000000001
 21
1.0
 31
0.0
 73
     1
 44
1.0
1001
ACAD
1000
MTEXTBEGIN
1070
    73
1070
     1
1070
    44
1040
1.0
1070
    74
1070
     0
1000
MTEXTEND
  0
POINT
  5
1477A
330
14383
100
AcDbEntity
  8
DEFPOINTS
 62
     0
 48
50.0
100
AcDbPoint
 10
11736.81870467152
 20
2338.112805903256
 30
0.0
  0
POINT
  5
1477B
330
14383
100
AcDbEntity
  8
DEFPOINTS
 62
     0
 48
50.0
100
AcDbPoint
 10
11659.81870467152
 20
2288.112805903256
 30
0.0
  0
POINT
  5
1477C
330
14383
100
AcDbEntity
  8
DEFPOINTS
 62
     0
 48
50.0
100
AcDbPoint
 10
10893.06857548826
 20
2288.112805903256
 30
0.0
  0
ENDBLK
  5
14390
330
14383
100
AcDbEntity
  8
0
 48
50.0
100
AcDbBlockEnd
  0
BLOCK
  5
1439B
330
14391
100
AcDbEntity
  8
0
 48
50.0
100
AcDbBlockBegin
  2
*D24
 70
     1
 10
0.0
 20
0.0
 30
0.0
  3
*D24
  1

  0
LINE
  5
14769
330
14391
100
AcDbEntity
  8
寸法
 62
     0
 48
50.0
370
    -2
100
AcDbLine
 10
11639.81870467152
 20
4379.112805903257
 30
0.0
 11
11151.91006327426
 21
4379.112805903257
 31
0.0
  0
LINE
  5
1476A
330
14391
100
AcDbEntity
  8
寸法
 62
     0
 48
50.0
370
    -2
100
AcDbLine
 10
11639.81870467152
 20
2354.112805903256
 30
0.0
 11
11151.91006327426
 21
2354.112805903257
 31
0.0
  0
LINE
  5
1476B
330
14391
100
AcDbEntity
  8
寸法
 62
     0
 48
50.0
370
    -2
100
AcDbLine
 10
11191.91006327426
 20
4359.112805903256
 30
0.0
 11
11191.91006327426
 21
2374.112805903257
 31
0.0
  0
INSERT
  5
1476C
330
14391
100
AcDbEntity
  8
寸法
 62
     0
 48
50.0
370
    -2
100
AcDbBlockReference
  2
_DOT
 10
11191.91006327426
 20
4379.112805903257
 30
0.0
 41
20.0
 42
20.0
 43
20.0
 50
90.0
  0
INSERT
  5
1476D
330
14391
100
AcDbEntity
  8
寸法
 62
     0
 48
50.0
370
    -2
100
AcDbBlockReference
  2
_DOT
 10
11191.91006327426
 20
2354.112805903257
 30
0.0
 41
20.0
 42
20.0
 43
20.0
 50
270.0
  0
MTEXT
  5
1476E
330
14391
100
AcDbEntity
  8
寸法
 62
     7
 48
50.0
100
AcDbMText
 10
11099.89825225064
 20
3366.612805903259
 30
0.0
 40
120.0
 41
0.0
 71
     5
 72
     1
  1
\A1;有効開口部高サ2025
  7
STYLE1
 11
0.0000000000000001
 21
1.0
 31
0.0
 73
     1
 44
1.0
1001
ACAD
1000
MTEXTBEGIN
1070
    73
1070
     1
1070
    44
1040
1.0
1070
    74
1070
     0
1000
MTEXTEND
  0
POINT
  5
1476F
330
14391
100
AcDbEntity
  8
DEFPOINTS
 62
     0
 48
50.0
100
AcDbPoint
 10
11659.81870467152
 20
4379.112805903257
 30
0.0
  0
POINT
  5
14770
330
14391
100
AcDbEntity
  8
DEFPOINTS
 62
     0
 48
50.0
100
AcDbPoint
 10
11659.81870467152
 20
2354.112805903256
 30
0.0
  0
POINT
  5
14771
330
14391
100
AcDbEntity
  8
DEFPOINTS
 62
     0
 48
50.0
100
AcDbPoint
 10
11191.91006327426
 20
2354.112805903257
 30
0.0
  0
ENDBLK
  5
1439C
330
14391
100
AcDbEntity
  8
0
 48
50.0
100
AcDbBlockEnd
  0
BLOCK
  5
14607
330
145FD
100
AcDbEntity
  8
0
 48
50.0
100
AcDbBlockBegin
  2
*D25
 70
     1
 10
0.0
 20
0.0
 30
0.0
  3
*D25
  1

  0
LINE
  5
14760
330
145FD
100
AcDbEntity
  8
寸法
 62
     0
 48
50.0
370
    -2
100
AcDbLine
 10
8599.695515348528
 20
4683.11280590326
 30
0.0
 11
8599.695515348528
 21
4935.6543911615
 31
0.0
  0
LINE
  5
14761
330
145FD
100
AcDbEntity
  8
寸法
 62
     0
 48
50.0
370
    -2
100
AcDbLine
 10
2499.695515348526
 20
4683.112805903264
 30
0.0
 11
2499.695515348526
 21
4935.6543911615
 31
0.0
  0
LINE
  5
14762
330
145FD
100
AcDbEntity
  8
寸法
 62
     0
 48
50.0
370
    -2
100
AcDbLine
 10
8599.695515348528
 20
4875.6543911615
 30
0.0
 11
2499.695515348526
 21
4875.6543911615
 31
0.0
  0
INSERT
  5
14763
330
145FD
100
AcDbEntity
  8
寸法
 62
     0
 48
50.0
370
    -2
100
AcDbBlockReference
  2
_DOTSMALL
 10
8599.695515348528
 20
4875.6543911615
 30
0.0
 41
100.0
 42
100.0
 43
100.0
  0
INSERT
  5
14764
330
145FD
100
AcDbEntity
  8
寸法
 62
     0
 48
50.0
370
    -2
100
AcDbBlockReference
  2
_DOTSMALL
 10
2499.695515348526
 20
4875.6543911615
 30
0.0
 41
100.0
 42
100.0
 43
100.0
 50
180.0
  0
MTEXT
  5
14765
330
145FD
100
AcDbEntity
  8
寸法
 62
     7
 48
50.0
100
AcDbMText
 10
5549.695515348527
 20
4975.6543911615
 30
0.0
 40
120.0
 41
0.0
 71
     5
 72
     1
  1
\A1;柱外寸法6100
  7
STYLE1
 73
     1
 44
1.0
1001
ACAD
1000
MTEXTBEGIN
1070
    73
1070
     1
1070
    44
1040
1.0
1070
    74
1070
     0
1000
MTEXTEND
  0
POINT
  5
14766
330
145FD
100
AcDbEntity
  8
DEFPOINTS
 62
     0
 48
50.0
100
AcDbPoint
 10
8599.695515348528
 20
4663.112805903259
 30
0.0
  0
POINT
  5
14767
330
145FD
100
AcDbEntity
  8
DEFPOINTS
 62
     0
 48
50.0
100
AcDbPoint
 10
2499.695515348526
 20
4663.112805903264
 30
0.0
  0
POINT
  5
14768
330
145FD
100
AcDbEntity
  8
DEFPOINTS
 62
     0
 48
50.0
100
AcDbPoint
 10
2499.695515348526
 20
4875.6543911615
 30
0.0
  0
ENDBLK
  5
14608
330
145FD
100
AcDbEntity
  8
0
 48
50.0
100
AcDbBlockEnd
  0
BLOCK
  5
14613
330
14609
100
AcDbEntity
  8
0
 48
50.0
100
AcDbBlockBegin
  2
*D26
 70
     1
 10
0.0
 20
0.0
 30
0.0
  3
*D26
  1

  0
LINE
  5
14757
330
14609
100
AcDbEntity
  8
寸法
 62
     0
 48
50.0
370
    -2
100
AcDbLine
 10
2449.695515348525
 20
4683.112805903262
 30
0.0
 11
2449.695515348525
 21
5156.55969163525
 31
0.0
  0
LINE
  5
14758
330
14609
100
AcDbEntity
  8
寸法
 62
     0
 48
50.0
370
    -2
100
AcDbLine
 10
8649.695515348529
 20
4683.112805903258
 30
0.0
 11
8649.695515348529
 21
5156.55969163525
 31
0.0
  0
LINE
  5
14759
330
14609
100
AcDbEntity
  8
寸法
 62
     0
 48
50.0
370
    -2
100
AcDbLine
 10
2449.695515348525
 20
5096.559691635249
 30
0.0
 11
8649.695515348529
 21
5096.559691635249
 31
0.0
  0
INSERT
  5
1475A
330
14609
100
AcDbEntity
  8
寸法
 62
     0
 48
50.0
370
    -2
100
AcDbBlockReference
  2
_DOTSMALL
 10
2449.695515348525
 20
5096.559691635249
 30
0.0
 41
100.0
 42
100.0
 43
100.0
 50
180.0
  0
INSERT
  5
1475B
330
14609
100
AcDbEntity
  8
寸法
 62
     0
 48
50.0
370
    -2
100
AcDbBlockReference
  2
_DOTSMALL
 10
8649.695515348529
 20
5096.559691635249
 30
0.0
 41
100.0
 42
100.0
 43
100.0
  0
MTEXT
  5
1475C
330
14609
100
AcDbEntity
  8
寸法
 62
     7
 48
50.0
100
AcDbMText
 10
5549.695515348527
 20
5196.571502658872
 30
0.0
 40
120.0
 41
0.0
 71
     5
 72
     1
  1
\A1;6200
  7
STYLE1
 73
     1
 44
1.0
1001
ACAD
1000
MTEXTBEGIN
1070
    73
1070
     1
1070
    44
1040
1.0
1070
    74
1070
     0
1000
MTEXTEND
  0
POINT
  5
1475D
330
14609
100
AcDbEntity
  8
DEFPOINTS
 62
     0
 48
50.0
100
AcDbPoint
 10
2449.695515348525
 20
4663.112805903263
 30
0.0
  0
POINT
  5
1475E
330
14609
100
AcDbEntity
  8
DEFPOINTS
 62
     0
 48
50.0
100
AcDbPoint
 10
8649.695515348529
 20
4663.112805903258
 30
0.0
  0
POINT
  5
1475F
330
14609
100
AcDbEntity
  8
DEFPOINTS
 62
     0
 48
50.0
100
AcDbPoint
 10
8649.695515348529
 20
5096.559691635249
 30
0.0
  0
ENDBLK
  5
14614
330
14609
100
AcDbEntity
  8
0
 48
50.0
100
AcDbBlockEnd
  0
BLOCK
  5
14621
330
14615
100
AcDbEntity
  8
0
 48
50.0
100
AcDbBlockBegin
  2
*D27
 70
     1
 10
0.0
 20
0.0
 30
0.0
  3
*D27
  1

  0
LINE
  5
14635
330
14615
100
AcDbEntity
  8
寸法
 62
     0
 48
50.0
370
    -2
100
AcDbLine
 10
2499.695515348526
 20
4683.112805903264
 30
0.0
 11
2499.695515348526
 21
4935.654391161502
 31
0.0
  0
LINE
  5
14636
330
14615
100
AcDbEntity
  8
寸法
 62
     0
 48
50.0
370
    -2
100
AcDbLine
 10
2449.695515348525
 20
4683.112805903262
 30
0.0
 11
2449.695515348525
 21
4935.654391161502
 31
0.0
  0
LINE
  5
14637
330
14615
100
AcDbEntity
  8
寸法
 62
     0
 48
50.0
370
    -2
100
AcDbLine
 10
2499.695515348526
 20
4875.654391161502
 30
0.0
 11
2599.695515348525
 21
4875.654391161502
 31
0.0
  0
LINE
  5
14638
330
14615
100
AcDbEntity
  8
寸法
 62
     0
 48
50.0
370
    -2
100
AcDbLine
 10
2449.695515348525
 20
4875.654391161502
 30
0.0
 11
2030.162989879789
 21
4875.654391161502
 31
0.0
  0
LINE
  5
14639
330
14615
100
AcDbEntity
  8
寸法
 62
     0
 48
50.0
370
    -2
100
AcDbLine
 10
2499.695515348526
 20
4875.654391161502
 30
0.0
 11
2449.695515348525
 21
4875.654391161502
 31
0.0
  0
INSERT
  5
1463A
330
14615
100
AcDbEntity
  8
寸法
 62
     0
 48
50.0
370
    -2
100
AcDbBlockReference
  2
_DOTSMALL
 10
2499.695515348526
 20
4875.654391161502
 30
0.0
 41
100.0
 42
100.0
 43
100.0
 50
180.0
  0
INSERT
  5
1463B
330
14615
100
AcDbEntity
  8
寸法
 62
     0
 48
50.0
370
    -2
100
AcDbBlockReference
  2
_DOTSMALL
 10
2449.695515348525
 20
4875.654391161502
 30
0.0
 41
100.0
 42
100.0
 43
100.0
  0
MTEXT
  5
1463C
330
14615
100
AcDbEntity
  8
寸法
 62
     7
 48
50.0
100
AcDbMText
 10
2136.210233974278
 20
4975.654391161501
 30
0.0
 40
120.0
 41
0.0
 71
     5
 72
     1
  1
\A1;50
  7
STYLE1
 73
     1
 44
1.0
1001
ACAD
1000
MTEXTBEGIN
1070
    73
1070
     1
1070
    44
1040
1.0
1070
    74
1070
     0
1000
MTEXTEND
  0
POINT
  5
1463D
330
14615
100
AcDbEntity
  8
DEFPOINTS
 62
     0
 48
50.0
100
AcDbPoint
 10
2499.695515348526
 20
4663.112805903264
 30
0.0
  0
POINT
  5
1463E
330
14615
100
AcDbEntity
  8
DEFPOINTS
 62
     0
 48
50.0
100
AcDbPoint
 10
2449.695515348525
 20
4663.112805903263
 30
0.0
  0
POINT
  5
1463F
330
14615
100
AcDbEntity
  8
DEFPOINTS
 62
     0
 48
50.0
100
AcDbPoint
 10
2449.695515348525
 20
4875.654391161502
 30
0.0
  0
ENDBLK
  5
14622
330
14615
100
AcDbEntity
  8
0
 48
50.0
100
AcDbBlockEnd
  0
BLOCK
  5
14657
330
1464B
100
AcDbEntity
  8
0
 48
50.0
100
AcDbBlockBegin
  2
*D28
 70
     1
 10
0.0
 20
0.0
 30
0.0
  3
*D28
  1

  0
LINE
  5
14659
330
1464B
100
AcDbEntity
  8
寸法
 62
     0
 48
50.0
370
    -2
100
AcDbLine
 10
8649.695515348529
 20
4683.112805903258
 30
0.0
 11
8649.695515348529
 21
4935.654391161499
 31
0.0
  0
LINE
  5
1465A
330
1464B
100
AcDbEntity
  8
寸法
 62
     0
 48
50.0
370
    -2
100
AcDbLine
 10
8599.695515348528
 20
4683.11280590326
 30
0.0
 11
8599.695515348528
 21
4935.654391161499
 31
0.0
  0
LINE
  5
1465B
330
1464B
100
AcDbEntity
  8
寸法
 62
     0
 48
50.0
370
    -2
100
AcDbLine
 10
8599.695515348528
 20
4875.654391161499
 30
0.0
 11
8499.695515348529
 21
4875.654391161499
 31
0.0
  0
LINE
  5
1465C
330
1464B
100
AcDbEntity
  8
寸法
 62
     0
 48
50.0
370
    -2
100
AcDbLine
 10
8649.695515348529
 20
4875.654391161499
 30
0.0
 11
9069.228040817252
 21
4875.654391161499
 31
0.0
  0
LINE
  5
1465D
330
1464B
100
AcDbEntity
  8
寸法
 62
     0
 48
50.0
370
    -2
100
AcDbLine
 10
8599.695515348528
 20
4875.654391161499
 30
0.0
 11
8649.695515348529
 21
4875.654391161499
 31
0.0
  0
INSERT
  5
1465E
330
1464B
100
AcDbEntity
  8
寸法
 62
     0
 48
50.0
370
    -2
100
AcDbBlockReference
  2
_DOTSMALL
 10
8599.695515348528
 20
4875.654391161499
 30
0.0
 41
100.0
 42
100.0
 43
100.0
  0
INSERT
  5
1465F
330
1464B
100
AcDbEntity
  8
寸法
 62
     0
 48
50.0
370
    -2
100
AcDbBlockReference
  2
_DOTSMALL
 10
8649.695515348529
 20
4875.654391161499
 30
0.0
 41
100.0
 42
100.0
 43
100.0
 50
180.0
  0
MTEXT
  5
14660
330
1464B
100
AcDbEntity
  8
寸法
 62
     7
 48
50.0
100
AcDbMText
 10
8963.180796722765
 20
4975.654391161499
 30
0.0
 40
120.0
 41
0.0
 71
     5
 72
     1
  1
\A1;50
  7
STYLE1
 73
     1
 44
1.0
1001
ACAD
1000
MTEXTBEGIN
1070
    73
1070
     1
1070
    44
1040
1.0
1070
    74
1070
     0
1000
MTEXTEND
  0
POINT
  5
14661
330
1464B
100
AcDbEntity
  8
DEFPOINTS
 62
     0
 48
50.0
100
AcDbPoint
 10
8649.695515348529
 20
4663.112805903258
 30
0.0
  0
POINT
  5
14662
330
1464B
100
AcDbEntity
  8
DEFPOINTS
 62
     0
 48
50.0
100
AcDbPoint
 10
8599.695515348528
 20
4663.112805903259
 30
0.0
  0
POINT
  5
14663
330
1464B
100
AcDbEntity
  8
DEFPOINTS
 62
     0
 48
50.0
100
AcDbPoint
 10
8599.695515348528
 20
4875.654391161499
 30
0.0
  0
ENDBLK
  5
14658
330
1464B
100
AcDbEntity
  8
0
 48
50.0
100
AcDbBlockEnd
  0
BLOCK
  5
14978
330
1496E
100
AcDbEntity
  8
0
 48
50.0
100
AcDbBlockBegin
  2
*D29
 70
     1
 10
0.0
 20
0.0
 30
0.0
  3
*D29
  1

  0
LINE
  5
14F0C
330
1496E
100
AcDbEntity
  8
寸法
 62
     0
 48
50.0
370
    -2
100
AcDbLine
 10
2986.695515348526
 20
7333.579896324137
 30
0.0
 11
2986.695515348526
 21
6643.246397575741
 31
0.0
  0
LINE
  5
14F0D
330
1496E
100
AcDbEntity
  8
寸法
 62
     0
 48
50.0
370
    -2
100
AcDbLine
 10
4252.695515348526
 20
7333.579896324137
 30
0.0
 11
4252.695515348526
 21
6643.246397575741
 31
0.0
  0
LINE
  5
14F0E
330
1496E
100
AcDbEntity
  8
寸法
 62
     0
 48
50.0
370
    -2
100
AcDbLine
 10
3006.695515348526
 20
6683.246397575742
 30
0.0
 11
4232.695515348526
 21
6683.246397575742
 31
0.0
  0
INSERT
  5
14F0F
330
1496E
100
AcDbEntity
  8
寸法
 62
     0
 48
50.0
370
    -2
100
AcDbBlockReference
  2
_DOT
 10
2986.695515348526
 20
6683.246397575742
 30
0.0
 41
20.0
 42
20.0
 43
20.0
 50
180.0
  0
INSERT
  5
14F10
330
1496E
100
AcDbEntity
  8
寸法
 62
     0
 48
50.0
370
    -2
100
AcDbBlockReference
  2
_DOT
 10
4252.695515348526
 20
6683.246397575742
 30
0.0
 41
20.0
 42
20.0
 43
20.0
  0
MTEXT
  5
14F11
330
1496E
100
AcDbEntity
  8
寸法
 62
     7
 48
50.0
100
AcDbMText
 10
3660.475835176025
 20
6875.258208599364
 30
0.0
 40
120.0
 41
0.0
 71
     5
 72
     1
  1
\A1;有効開口部間口\P1266
  7
STYLE1
 73
     1
 44
1.0
1001
ACAD
1000
MTEXTBEGIN
1070
    73
1070
     1
1070
    44
1040
1.0
1070
    74
1070
     0
1000
MTEXTEND
  0
POINT
  5
14F12
330
1496E
100
AcDbEntity
  8
DEFPOINTS
 62
     0
 48
50.0
100
AcDbPoint
 10
2986.695515348526
 20
7353.579896324138
 30
0.0
  0
POINT
  5
14F13
330
1496E
100
AcDbEntity
  8
DEFPOINTS
 62
     0
 48
50.0
100
AcDbPoint
 10
4252.695515348526
 20
7353.579896324138
 30
0.0
  0
POINT
  5
14F14
330
1496E
100
AcDbEntity
  8
DEFPOINTS
 62
     0
 48
50.0
100
AcDbPoint
 10
4252.695515348526
 20
6683.246397575742
 30
0.0
  0
ENDBLK
  5
14979
330
1496E
100
AcDbEntity
  8
0
 48
50.0
100
AcDbBlockEnd
  0
BLOCK
  5
14D2A
330
14D1E
100
AcDbEntity
  8
0
 48
50.0
100
AcDbBlockBegin
  2
*D30
 70
     1
 10
0.0
 20
0.0
 30
0.0
  3
*D30
  1

  0
LINE
  5
14F01
330
14D1E
100
AcDbEntity
  8
寸法
 62
     0
 48
50.0
370
    -2
100
AcDbLine
 10
2479.695515348526
 20
7430.57989632414
 30
0.0
 11
2128.376701444477
 21
7430.57989632414
 31
0.0
  0
LINE
  5
14F02
330
14D1E
100
AcDbEntity
  8
寸法
 62
     0
 48
50.0
370
    -2
100
AcDbLine
 10
2927.695515348527
 20
7355.579896324113
 30
0.0
 11
2128.376701444477
 21
7355.579896324113
 31
0.0
  0
LINE
  5
14F03
330
14D1E
100
AcDbEntity
  8
寸法
 62
     0
 48
50.0
370
    -2
100
AcDbLine
 10
2168.376701444477
 20
7450.57989632414
 30
0.0
 11
2168.376701444477
 21
7470.579896324139
 31
0.0
  0
LINE
  5
14F04
330
14D1E
100
AcDbEntity
  8
寸法
 62
     0
 48
50.0
370
    -2
100
AcDbLine
 10
2168.376701444477
 20
7335.579896324112
 30
0.0
 11
2168.376701444477
 21
7114.609333575633
 31
0.0
  0
LINE
  5
14F05
330
14D1E
100
AcDbEntity
  8
寸法
 62
     0
 48
50.0
370
    -2
100
AcDbLine
 10
2168.376701444477
 20
7430.57989632414
 30
0.0
 11
2168.376701444477
 21
7355.579896324113
 31
0.0
  0
INSERT
  5
14F06
330
14D1E
100
AcDbEntity
  8
寸法
 62
     0
 48
50.0
370
    -2
100
AcDbBlockReference
  2
_DOT
 10
2168.376701444477
 20
7430.57989632414
 30
0.0
 41
20.0
 42
20.0
 43
20.0
 50
270.0
  0
INSERT
  5
14F07
330
14D1E
100
AcDbEntity
  8
寸法
 62
     0
 48
50.0
370
    -2
100
AcDbBlockReference
  2
_DOT
 10
2168.376701444477
 20
7355.579896324113
 30
0.0
 41
20.0
 42
20.0
 43
20.0
 50
90.0
  0
MTEXT
  5
14F08
330
14D1E
100
AcDbEntity
  8
寸法
 62
     7
 48
50.0
100
AcDbMText
 10
2076.376701444476
 20
7215.094614949873
 30
0.0
 40
120.0
 41
0.0
 71
     5
 72
     1
  1
\A1;75
  7
STYLE1
 11
0.0000000000000001
 21
1.0
 31
0.0
 73
     1
 44
1.0
1001
ACAD
1000
MTEXTBEGIN
1070
    73
1070
     1
1070
    44
1040
1.0
1070
    74
1070
     0
1000
MTEXTEND
  0
POINT
  5
14F09
330
14D1E
100
AcDbEntity
  8
DEFPOINTS
 62
     0
 48
50.0
100
AcDbPoint
 10
2499.695515348526
 20
7430.57989632414
 30
0.0
  0
POINT
  5
14F0A
330
14D1E
100
AcDbEntity
  8
DEFPOINTS
 62
     0
 48
50.0
100
AcDbPoint
 10
2947.695515348527
 20
7355.579896324113
 30
0.0
  0
POINT
  5
14F0B
330
14D1E
100
AcDbEntity
  8
DEFPOINTS
 62
     0
 48
50.0
100
AcDbPoint
 10
2168.376701444477
 20
7355.579896324113
 30
0.0
  0
ENDBLK
  5
14D2B
330
14D1E
100
AcDbEntity
  8
0
 48
50.0
100
AcDbBlockEnd
  0
BLOCK
  5
14D36
330
14D2C
100
AcDbEntity
  8
0
 48
50.0
100
AcDbBlockBegin
  2
*D31
 70
     1
 10
0.0
 20
0.0
 30
0.0
  3
*D31
  1

  0
LINE
  5
14EF8
330
14D2C
100
AcDbEntity
  8
寸法
 62
     0
 48
50.0
370
    -2
100
AcDbLine
 10
2947.695515348526
 20
7333.579896324137
 30
0.0
 11
2947.695515348526
 21
6334.622888814884
 31
0.0
  0
LINE
  5
14EF9
330
14D2C
100
AcDbEntity
  8
寸法
 62
     0
 48
50.0
370
    -2
100
AcDbLine
 10
5101.695515348526
 20
7333.579896324137
 30
0.0
 11
5101.695515348526
 21
6334.622888814884
 31
0.0
  0
LINE
  5
14EFA
330
14D2C
100
AcDbEntity
  8
寸法
 62
     0
 48
50.0
370
    -2
100
AcDbLine
 10
2947.695515348526
 20
6394.622888814883
 30
0.0
 11
5101.695515348526
 21
6394.622888814883
 31
0.0
  0
INSERT
  5
14EFB
330
14D2C
100
AcDbEntity
  8
寸法
 62
     0
 48
50.0
370
    -2
100
AcDbBlockReference
  2
_DOTSMALL
 10
2947.695515348526
 20
6394.622888814883
 30
0.0
 41
100.0
 42
100.0
 43
100.0
 50
180.0
  0
INSERT
  5
14EFC
330
14D2C
100
AcDbEntity
  8
寸法
 62
     0
 48
50.0
370
    -2
100
AcDbBlockReference
  2
_DOTSMALL
 10
5101.695515348526
 20
6394.622888814883
 30
0.0
 41
100.0
 42
100.0
 43
100.0
  0
MTEXT
  5
14EFD
330
14D2C
100
AcDbEntity
  8
寸法
 62
     7
 48
50.0
100
AcDbMText
 10
4001.817515997383
 20
6494.634699838505
 30
0.0
 40
120.0
 41
0.0
 71
     5
 72
     1
  1
\A1;2154
  7
STYLE1
 73
     1
 44
1.0
1001
ACAD
1000
MTEXTBEGIN
1070
    73
1070
     1
1070
    44
1040
1.0
1070
    74
1070
     0
1000
MTEXTEND
  0
POINT
  5
14EFE
330
14D2C
100
AcDbEntity
  8
DEFPOINTS
 62
     0
 48
50.0
100
AcDbPoint
 10
2947.695515348526
 20
7353.579896324138
 30
0.0
  0
POINT
  5
14EFF
330
14D2C
100
AcDbEntity
  8
DEFPOINTS
 62
     0
 48
50.0
100
AcDbPoint
 10
5101.695515348526
 20
7353.579896324138
 30
0.0
  0
POINT
  5
14F00
330
14D2C
100
AcDbEntity
  8
DEFPOINTS
 62
     0
 48
50.0
100
AcDbPoint
 10
5101.695515348526
 20
6394.622888814883
 30
0.0
  0
ENDBLK
  5
14D37
330
14D2C
100
AcDbEntity
  8
0
 48
50.0
100
AcDbBlockEnd
  0
BLOCK
  5
14FB1
330
14FAE
100
AcDbEntity
  8
0
 48
50.0
100
AcDbBlockBegin
  2
A$C7FDD23FE
 70
     0
 10
0.0
 20
0.0
 30
0.0
  3
A$C7FDD23FE
  1

  0
TEXT
  5
14FAF
330
14FAE
100
AcDbEntity
  8
文字
 62
     7
 48
50.0
100
AcDbText
 10
92.91819016568116
 20
-145.1926033665058
 30
0.0
 40
100.0
  1
梁中補強パネル
  7
STYLE1
100
AcDbText
  0
TEXT
  5
14FB0
330
14FAE
100
AcDbEntity
  8
文字
 62
     7
 48
50.0
100
AcDbText
 10
1532.439654745158
 20
-145.1926033665095
 30
0.0
 40
100.0
  1
F12         0.7+1.2
  7
STYLE1
100
AcDbText
  0
ENDBLK
  5
14FB2
330
14FAE
100
AcDbEntity
  8
0
 48
50.0
100
AcDbBlockEnd
  0
BLOCK
  5
14FDB
330
14FD1
100
AcDbEntity
  8
0
 48
50.0
100
AcDbBlockBegin
  2
*D33
 70
     1
 10
0.0
 20
0.0
 30
0.0
  3
*D33
  1

  0
LINE
  5
14FDD
330
14FD1
100
AcDbEntity
  8
寸法
 62
     0
 48
50.0
370
    -2
100
AcDbLine
 10
5594.695517591684
 20
8924.079896324105
 30
0.0
 11
5946.536877852522
 21
8924.079896324105
 31
0.0
  0
LINE
  5
14FDE
330
14FD1
100
AcDbEntity
  8
寸法
 62
     0
 48
50.0
370
    -2
100
AcDbLine
 10
5624.69551759192
 20
9640.579899901281
 30
0.0
 11
5946.536877852522
 21
9640.579899901281
 31
0.0
  0
LINE
  5
14FDF
330
14FD1
100
AcDbEntity
  8
寸法
 62
     0
 48
50.0
370
    -2
100
AcDbLine
 10
5886.536877852521
 20
8924.079896324105
 30
0.0
 11
5886.536877852521
 21
9640.579899901281
 31
0.0
  0
INSERT
  5
14FE0
330
14FD1
100
AcDbEntity
  8
寸法
 62
     0
 48
50.0
370
    -2
100
AcDbBlockReference
  2
_DOTSMALL
 10
5886.536877852521
 20
8924.079896324105
 30
0.0
 41
100.0
 42
100.0
 43
100.0
 50
270.0
  0
INSERT
  5
14FE1
330
14FD1
100
AcDbEntity
  8
寸法
 62
     0
 48
50.0
370
    -2
100
AcDbBlockReference
  2
_DOTSMALL
 10
5886.536877852521
 20
9640.579899901281
 30
0.0
 41
100.0
 42
100.0
 43
100.0
 50
90.0
  0
MTEXT
  5
14FE2
330
14FD1
100
AcDbEntity
  8
寸法
 62
     7
 48
50.0
100
AcDbMText
 10
5786.536877852521
 20
9257.818755537547
 30
0.0
 40
120.0
 41
0.0
 71
     5
 72
     1
  1
\A1;716.5
  7
STYLE1
 11
0.0000000000000001
 21
1.0
 31
0.0
 73
     1
 44
1.0
1001
ACAD
1000
MTEXTBEGIN
1070
    73
1070
     1
1070
    44
1040
1.0
1070
    74
1070
     0
1000
MTEXTEND
  0
POINT
  5
14FE3
330
14FD1
100
AcDbEntity
  8
DEFPOINTS
 62
     0
 48
50.0
100
AcDbPoint
 10
5574.695517591685
 20
8924.079896324105
 30
0.0
  0
POINT
  5
14FE4
330
14FD1
100
AcDbEntity
  8
DEFPOINTS
 62
     0
 48
50.0
100
AcDbPoint
 10
5604.695517591919
 20
9640.579899901281
 30
0.0
  0
POINT
  5
14FE5
330
14FD1
100
AcDbEntity
  8
DEFPOINTS
 62
     0
 48
50.0
100
AcDbPoint
 10
5886.536877852521
 20
9640.579899901281
 30
0.0
  0
ENDBLK
  5
14FDC
330
14FD1
100
AcDbEntity
  8
0
 48
50.0
100
AcDbBlockEnd
  0
ENDSEC
  0
SECTION
  2
ENTITIES
  0
MTEXT
  5
763F
330
747D
100
AcDbEntity
  8
0
100
AcDbMText
 10
302.846345836809
 20
280.1983726409901
 30
0.0
 40
3.5
 41
5.323721266742722
 71
     1
 72
     5
  1

  7
MSMINCHO
 73
     1
 44
1.0
1001
ACAD
1000
MTEXTBEGIN
1070
    73
1070
     1
1070
    44
1040
1.0
1070
    74
1070
     0
1000
MTEXTEND
  0
INSERT
  5
F235
330
747D
100
AcDbEntity
  8
0
100
AcDbBlockReference
  2
作図枠S50
 10
0.0
 20
0.0
 30
0.0
 41
0.8
 42
0.8
 43
0.8
  0
LINE
  5
10B56
330
747D
100
AcDbEntity
  8
補助
  6
PHANTOM
 62
   230
 48
50.0
100
AcDbLine
 10
140.0
 20
0.0
 30
0.0
 11
139.9999999999995
 21
11409.6
 31
0.0
  0
LINE
  5
10B57
330
747D
100
AcDbEntity
  8
補助
  6
PHANTOM
 62
   230
 48
50.0
100
AcDbLine
 10
139.9999999999995
 20
11409.6
 30
0.0
 11
16307.2
 21
11409.6
 31
0.0
  0
LINE
  5
10B59
330
747D
100
AcDbEntity
  8
仕様書枠
  6
Continuous
 48
50.0
100
AcDbLine
 10
13107.2
 20
1200.0
 30
0.0
 11
13107.2
 21
-0.0000000000000729
 31
0.0
  0
LINE
  5
10B5C
330
747D
100
AcDbEntity
  8
仕様書枠
 48
50.0
100
AcDbLine
 10
16307.2
 20
1200.0
 30
0.0
 11
16307.2
 21
-0.0000000000000909
 31
0.0
  0
LINE
  5
10B5D
330
747D
100
AcDbEntity
  8
仕様書枠
 48
50.0
100
AcDbLine
 10
140.0
 20
0.0
 30
0.0
 11
16307.2
 21
-0.0000000000000909
 31
0.0
  0
LINE
  5
10B5E
330
747D
100
AcDbEntity
  8
補助
  6
PHANTOM
 62
   230
 48
50.0
100
AcDbLine
 10
16307.2
 20
11409.6
 30
0.0
 11
16307.2
 21
1200.0
 31
0.0
  0
LINE
  5
10B6C
330
747D
100
AcDbEntity
  8
仕様書枠
 48
50.0
100
AcDbLine
 10
13107.2
 20
1200.0
 30
0.0
 11
16307.2
 21
1200.0
 31
0.0
  0
LINE
  5
10B6D
330
747D
100
AcDbEntity
  8
補助
  6
PHANTOM
 62
   230
 48
50.0
100
AcDbLine
 10
13107.2
 20
11409.6
 30
0.0
 11
13107.2
 21
4800.0
 31
0.0
  0
LINE
  5
10B6F
330
747D
100
AcDbEntity
  8
補助
  6
PHANTOM
 62
   230
 48
50.0
100
AcDbLine
 10
13107.2
 20
4800.0
 30
0.0
 11
16307.2
 21
4800.0
 31
0.0
  0
LINE
  5
10B72
330
747D
100
AcDbEntity
  8
文字
 62
     7
 48
50.0
100
AcDbLine
 10
13187.2
 20
400.0
 30
0.0
 11
16227.2
 21
400.0
 31
0.0
  0
TEXT
  5
10B73
330
747D
100
AcDbEntity
  8
文字
 62
     7
 48
50.0
100
AcDbText
 10
13162.9790565769
 20
895.0906074299405
 30
0.0
 40
200.0
  1
外 形 図
  7
STYLE2
100
AcDbText
  0
TEXT
  5
10B74
330
747D
100
AcDbEntity
  8
文字
 62
     7
 48
50.0
100
AcDbText
 10
13201.43669998441
 20
477.2740661031255
 30
0.0
 40
160.0
  1
機種名
  7
STYLE2
100
AcDbText
  0
TEXT
  5
10B76
330
747D
100
AcDbEntity
  8
文字
 62
     7
 48
50.0
100
AcDbText
 10
13209.4053442172
 20
76.09434707649343
 30
0.0
 40
100.0
  1
○床面積 ： 13.64㎡(4.13坪) 　
  7
STYLE2
100
AcDbText
  0
TEXT
  5
10B79
330
747D
100
AcDbEntity
  8
文字
 62
     7
 48
50.0
100
AcDbText
 10
14524.131837222
 20
1031.557706291228
 30
0.0
 40
100.0
  1
NO.26     <縮尺> S=1/40
  7
STYLE2
100
AcDbText
  0
LINE
  5
10B7B
330
747D
100
AcDbEntity
  8
仕様書枠
 48
50.0
100
AcDbLine
 10
13107.2
 20
800.0
 30
0.0
 11
14251.2
 21
800.0
 31
0.0
  0
LINE
  5
10B88
330
747D
100
AcDbEntity
  8
仕様書枠
  6
Continuous
 48
50.0
100
AcDbLine
 10
14251.2
 20
1200.0
 30
0.0
 11
14251.2
 21
800.0
 31
0.0
  0
TEXT
  5
10EA8
330
747D
100
AcDbEntity
  8
文字
 62
     7
 48
50.0
100
AcDbText
 10
14638.7793550615
 20
838.2527270729188
 30
0.0
 40
100.0
  1
～多雪地型～
  7
STYLE2
100
AcDbText
  0
DIMENSION
  5
120D6
330
747D
100
AcDbEntity
  8
寸法
 48
50.0
100
AcDbDimension
  2
*D3
 10
8599.695515348525
 20
10015.29230634293
 30
0.0
 11
8993.86218201519
 21
10015.29230634293
 31
0.0
 70
   160
 71
     5
 42
55.0
  3
INABA_S40
100
AcDbAlignedDimension
 13
8544.695515348525
 23
9640.57989632414
 33
0.0
 14
8599.695515348525
 24
9640.57989632414
 34
0.0
100
AcDbRotatedDimension
1001
ACAD
1000
DSTYLE
1002
{
1070
    41
1040
0.5
1070
    44
1040
1.0
1070
   147
1040
0.8
1070
   271
1070
     2
1070
   272
1070
     2
1070
   289
1070
     3
1070
   340
1005
F706
1070
   343
1005
F744
1070
   344
1005
F744
1002
}
  0
DIMENSION
  5
120D7
330
747D
100
AcDbEntity
  8
寸法
 48
50.0
100
AcDbDimension
  2
*D4
 10
9670.442632392878
 20
7430.57989632414
 30
0.0
 11
9578.430821369256
 21
8535.579896324142
 31
0.0
 70
    32
 71
     5
 42
2210.0
  3
INABA_S40
100
AcDbAlignedDimension
 13
8599.695515348525
 23
9640.57989632414
 33
0.0
 14
8599.695515348525
 24
7430.57989632414
 34
0.0
 50
90.0
100
AcDbRotatedDimension
1001
ACAD
1000
DSTYLE
1002
{
1070
    41
1040
0.5
1070
    44
1040
1.0
1070
   147
1040
0.8
1070
   271
1070
     2
1070
   272
1070
     2
1070
   289
1070
     3
1070
   340
1005
F706
1070
   343
1005
F744
1070
   344
1005
F744
1002
}
  0
DIMENSION
  5
120D8
330
747D
100
AcDbEntity
  8
寸法
 48
50.0
100
AcDbDimension
  2
*D5
 10
9370.44263239288
 20
7430.57989632414
 30
0.0
 11
9370.442632392878
 21
7036.413229657473
 31
0.0
 70
   160
 71
     5
 42
54.99999999999636
  3
INABA_S40
100
AcDbAlignedDimension
 13
8599.695515348525
 23
7485.579896324136
 33
0.0
 14
8599.695515348525
 24
7430.57989632414
 34
0.0
 50
90.0
100
AcDbRotatedDimension
1001
ACAD
1000
DSTYLE
1002
{
1070
    41
1040
0.5
1070
    44
1040
1.0
1070
   147
1040
0.8
1070
   271
1070
     2
1070
   272
1070
     2
1070
   289
1070
     3
1070
   340
1005
F706
1070
   343
1005
F744
1070
   344
1005
F744
1002
}
  0
DIMENSION
  5
120D9
330
747D
100
AcDbEntity
  8
寸法
 48
50.0
100
AcDbDimension
  2
*D6
 10
9370.442632392878
 20
7485.579896324136
 30
0.0
 11
9278.430821369255
 21
8535.579896324142
 31
0.0
 70
    32
  1
5X420=<>
 71
     5
 42
2100.000000000008
  3
INABA_S40
100
AcDbAlignedDimension
 13
8599.695515348525
 23
9585.579896324144
 33
0.0
 14
8599.695515348525
 24
7485.579896324136
 34
0.0
 50
90.0
100
AcDbRotatedDimension
1001
ACAD
1000
DSTYLE
1002
{
1070
    41
1040
0.5
1070
    44
1040
1.0
1070
   147
1040
0.8
1070
   271
1070
     2
1070
   272
1070
     2
1070
   289
1070
     3
1070
   340
1005
F706
1070
   343
1005
F744
1070
   344
1005
F744
1002
}
  0
DIMENSION
  5
120DA
330
747D
100
AcDbEntity
  8
寸法
 48
50.0
100
AcDbDimension
  2
*D7
 10
9370.44263239288
 20
9585.579896324144
 30
0.0
 11
9370.442632392878
 21
10034.7465629908
 31
0.0
 70
   160
 71
     5
 42
54.99999999999636
  3
INABA_S40
100
AcDbAlignedDimension
 13
8599.695515348525
 23
9640.57989632414
 33
0.0
 14
8599.695515348525
 24
9585.579896324144
 34
0.0
 50
90.0
100
AcDbRotatedDimension
1001
ACAD
1000
DSTYLE
1002
{
1070
    41
1040
0.5
1070
    44
1040
1.0
1070
   147
1040
0.8
1070
   271
1070
     2
1070
   272
1070
     2
1070
   289
1070
     3
1070
   340
1005
F706
1070
   343
1005
F744
1070
   344
1005
F744
1002
}
  0
LINE
  5
120DB
330
747D
100
AcDbEntity
  8
Ｇ．Ｌ
 48
50.0
100
AcDbLine
 10
1235.828128122382
 20
2188.112805903256
 30
0.0
 11
15186.26680742205
 21
2188.112805903256
 31
0.0
  0
LINE
  5
120F0
330
747D
100
AcDbEntity
  8
部品1
100
AcDbLine
 10
2499.695515348526
 20
4428.112805903256
 30
0.0
 11
8599.695515348525
 21
4428.112805903256
 31
0.0
  0
LINE
  5
120F1
330
747D
100
AcDbEntity
  8
部品1
100
AcDbLine
 10
2499.695515348526
 20
2288.112805903256
 30
0.0
 11
8599.695515348525
 21
2288.112805903256
 31
0.0
  0
LINE
  5
120FB
330
747D
100
AcDbEntity
  8
部品1
100
AcDbLine
 10
2554.695515348525
 20
4428.112805903256
 30
0.0
 11
2554.695515348525
 21
2338.112805903256
 31
0.0
  0
LINE
  5
12102
330
747D
100
AcDbEntity
  8
部品1
100
AcDbLine
 10
2499.695515348526
 20
4522.112805903261
 30
0.0
 11
2499.695515348526
 21
2188.112805903256
 31
0.0
  0
TEXT
  5
12103
330
747D
100
AcDbEntity
  8
部品1
100
AcDbText
 10
1666.764820000789
 20
2202.954510774246
 30
0.0
 40
125.0
  1
G.L
  7
MSGOTHIC
100
AcDbText
  0
LINE
  5
12104
330
747D
100
AcDbEntity
  8
部品1
100
AcDbLine
 10
1524.280866300971
 20
2292.035854357388
 30
0.0
 11
1644.280866300971
 21
2292.035854357388
 31
0.0
  0
LINE
  5
12105
330
747D
100
AcDbEntity
  8
部品1
100
AcDbLine
 10
1644.280866300971
 20
2292.035854357388
 30
0.0
 11
1584.280866300971
 21
2188.112805903256
 31
0.0
  0
LINE
  5
12106
330
747D
100
AcDbEntity
  8
部品1
100
AcDbLine
 10
1584.280866300971
 20
2188.112805903256
 30
0.0
 11
1524.280866300971
 21
2292.035854357388
 31
0.0
  0
LINE
  5
12107
330
747D
100
AcDbEntity
  8
部品1
 48
50.0
100
AcDbLine
 10
2947.695515348525
 20
2338.112805903256
 30
0.0
 11
2499.695515348526
 21
2338.112805903256
 31
0.0
  0
LINE
  5
12125
330
747D
100
AcDbEntity
  8
部品1
 48
50.0
100
AcDbLine
 10
5549.695515348525
 20
2338.112805903256
 30
0.0
 11
8599.695515348525
 21
2338.112805903256
 31
0.0
  0
LINE
  5
12130
330
747D
100
AcDbEntity
  8
部品1
100
AcDbLine
 10
5604.695515348525
 20
4428.112805903256
 30
0.0
 11
5604.695515348525
 21
2338.112805903256
 31
0.0
  0
LINE
  5
12131
330
747D
100
AcDbEntity
  8
部品1
100
AcDbLine
 10
6024.695515348525
 20
4428.112805903256
 30
0.0
 11
6024.695515348525
 21
2338.112805903256
 31
0.0
  0
LINE
  5
1213E
330
747D
100
AcDbEntity
  8
部品1
100
AcDbLine
 10
5494.695515348524
 20
4428.112805903256
 30
0.0
 11
5494.695515348524
 21
2338.112805903256
 31
0.0
  0
LINE
  5
12161
330
747D
100
AcDbEntity
  8
部品1
 48
50.0
100
AcDbLine
 10
5549.695515348525
 20
2338.112805903256
 30
0.0
 11
5101.695515348524
 21
2338.112805903256
 31
0.0
  0
LINE
  5
1216E
330
747D
100
AcDbEntity
  8
部品1
100
AcDbLine
 10
5549.695515348525
 20
2338.112805903256
 30
0.0
 11
5549.695515348524
 21
2288.112805903256
 31
0.0
  0
LINE
  5
12183
330
747D
100
AcDbEntity
  8
部品1
100
AcDbLine
 10
5539.695515348526
 20
4522.112805903261
 30
0.0
 11
5539.695515348523
 21
4663.112805903258
 31
0.0
  0
LINE
  5
12184
330
747D
100
AcDbEntity
  8
部品1
100
AcDbLine
 10
5549.695515348525
 20
4428.112805903256
 30
0.0
 11
5549.695515348525
 21
4522.112805903261
 31
0.0
  0
LINE
  5
12185
330
747D
100
AcDbEntity
  8
部品1
100
AcDbLine
 10
8124.695515348538
 20
4428.112805903256
 30
0.0
 11
8124.695515348536
 21
2338.112805903256
 31
0.0
  0
LINE
  5
12192
330
747D
100
AcDbEntity
  8
部品1
100
AcDbLine
 10
7704.695515348539
 20
4428.112805903256
 30
0.0
 11
7704.695515348536
 21
2338.112805903256
 31
0.0
  0
LINE
  5
12199
330
747D
100
AcDbEntity
  8
部品1
100
AcDbLine
 10
7284.695515348538
 20
4428.112805903256
 30
0.0
 11
7284.695515348537
 21
2338.112805903256
 31
0.0
  0
LINE
  5
121A0
330
747D
100
AcDbEntity
  8
部品1
100
AcDbLine
 10
6864.695515348525
 20
4428.112805903256
 30
0.0
 11
6864.695515348524
 21
2338.112805903256
 31
0.0
  0
LINE
  5
121A7
330
747D
100
AcDbEntity
  8
部品1
100
AcDbLine
 10
6444.695515348525
 20
4428.112805903256
 30
0.0
 11
6444.695515348524
 21
2338.112805903256
 31
0.0
  0
LINE
  5
121B5
330
747D
100
AcDbEntity
  8
部品1
100
AcDbLine
 10
8544.695515348525
 20
4428.112805903256
 30
0.0
 11
8544.695515348523
 21
2338.112805903256
 31
0.0
  0
LINE
  5
121B6
330
747D
100
AcDbEntity
  8
部品1
100
AcDbLine
 10
8599.695515348525
 20
4522.11280590326
 30
0.0
 11
8599.695515348525
 21
2188.112805903256
 31
0.0
  0
LINE
  5
121EA
330
747D
100
AcDbEntity
  8
破線
  6
HIDDEN
 48
10.0
100
AcDbLine
 10
3322.195515348521
 20
9562.07989632414
 30
0.0
 11
3999.695515348522
 21
9562.07989632414
 31
0.0
  0
LINE
  5
121EB
330
747D
100
AcDbEntity
  8
破線
  6
HIDDEN
 48
10.0
100
AcDbLine
 10
3322.19551534852
 20
7509.07989632414
 30
0.0
 11
3999.695515348519
 21
7509.07989632414
 31
0.0
  0
LINE
  5
121F1
330
747D
100
AcDbEntity
  8
部品1
100
AcDbLine
 10
2554.695515348522
 20
9585.579896324141
 30
0.0
 11
5494.695515348524
 21
9585.579896324146
 31
0.0
  0
LINE
  5
121F2
330
747D
100
AcDbEntity
  8
部品1
100
AcDbLine
 10
3394.695515348525
 20
9612.579896324147
 30
0.0
 11
2527.695515348525
 21
9612.579896324142
 31
0.0
  0
LINE
  5
121F3
330
747D
100
AcDbEntity
  8
部品1
100
AcDbLine
 10
5494.695515348523
 20
7905.579896324141
 30
0.0
 11
2554.695515348527
 21
7905.579896324137
 31
0.0
  0
LINE
  5
121F4
330
747D
100
AcDbEntity
  8
部品1
100
AcDbLine
 10
5494.695515348523
 20
8325.579896324141
 30
0.0
 11
2554.695515348527
 21
8325.579896324137
 31
0.0
  0
LINE
  5
121F5
330
747D
100
AcDbEntity
  8
部品1
100
AcDbLine
 10
5494.695515348523
 20
8745.579896324143
 30
0.0
 11
2554.695515348527
 21
8745.579896324137
 31
0.0
  0
LINE
  5
121F6
330
747D
100
AcDbEntity
  8
部品1
100
AcDbLine
 10
5494.695515348523
 20
9165.579896324141
 30
0.0
 11
2554.695515348527
 21
9165.579896324137
 31
0.0
  0
LINE
  5
121F8
330
747D
100
AcDbEntity
  8
部品1
100
AcDbLine
 10
5549.695515348525
 20
9640.57989632414
 30
0.0
 11
2499.695515348526
 21
9640.57989632414
 31
0.0
  0
LINE
  5
121F9
330
747D
100
AcDbEntity
  8
部品1
100
AcDbLine
 10
2554.695515348522
 20
7485.579896324141
 30
0.0
 11
5494.695515348524
 21
7485.579896324136
 31
0.0
  0
LINE
  5
121FA
330
747D
100
AcDbEntity
  8
部品1
100
AcDbLine
 10
2527.695515348523
 20
7458.57989632414
 30
0.0
 11
5521.695515348525
 21
7458.579896324142
 31
0.0
  0
DIMENSION
  5
121FB
330
747D
100
AcDbEntity
  8
寸法
 48
50.0
100
AcDbDimension
  2
*D8
 10
8599.695515348525
 20
10315.29230634294
 30
0.0
 11
5549.695515348525
 21
10407.29230634293
 31
0.0
 70
    32
 71
     5
 42
6100.0
  3
INABA_S40
100
AcDbAlignedDimension
 13
2499.695515348526
 23
9640.57989632414
 33
0.0
 14
8599.695515348525
 24
9640.57989632414
 34
0.0
100
AcDbRotatedDimension
1001
ACAD
1000
DSTYLE
1002
{
1070
    41
1040
0.5
1070
    44
1040
1.0
1070
   147
1040
0.8
1070
   271
1070
     2
1070
   272
1070
     2
1070
   289
1070
     3
1070
   340
1005
F706
1070
   343
1005
F744
1070
   344
1005
F744
1002
}
  0
DIMENSION
  5
121FC
330
747D
100
AcDbEntity
  8
寸法
 48
50.0
100
AcDbDimension
  2
*D9
 10
5494.695515348524
 20
10015.29230634293
 30
0.0
 11
4024.695515348525
 21
10107.30411736656
 31
0.0
 70
    32
  1
7X420=<>
 71
     5
 42
2940.0
  3
INABA_S40
100
AcDbAlignedDimension
 13
2554.695515348525
 23
9640.57989632414
 33
0.0
 14
5494.695515348524
 24
9640.57989632414
 34
0.0
100
AcDbRotatedDimension
1001
ACAD
1000
DSTYLE
1002
{
1070
    41
1040
0.5
1070
    44
1040
1.0
1070
   147
1040
0.8
1070
   271
1070
     2
1070
   272
1070
     2
1070
   289
1070
     3
1070
   340
1005
F706
1070
   343
1005
F744
1070
   344
1005
F744
1002
}
  0
DIMENSION
  5
121FD
330
747D
100
AcDbEntity
  8
寸法
 48
50.0
100
AcDbDimension
  2
*D10
 10
5549.695515348525
 20
6105.497938821293
 30
0.0
 11
4024.695515348525
 21
6197.497938821292
 31
0.0
 70
    32
 71
     5
 42
3050.0
  3
INABA_S40
100
AcDbAlignedDimension
 13
2499.695515348526
 23
7430.57989632414
 33
0.0
 14
5549.695515348525
 24
7485.579896324139
 34
0.0
100
AcDbRotatedDimension
1001
ACAD
1000
DSTYLE
1002
{
1070
    41
1040
0.5
1070
    44
1040
1.0
1070
   147
1040
0.8
1070
   271
1070
     2
1070
   272
1070
     2
1070
   289
1070
     3
1070
   340
1005
F706
1070
   343
1005
F744
1070
   344
1005
F744
1002
}
  0
LINE
  5
121FE
330
747D
100
AcDbEntity
  8
破線
  6
HIDDEN
 48
10.0
100
AcDbLine
 10
3322.195515348521
 20
9585.579896324144
 30
0.0
 11
3322.19551534852
 21
7485.579896324139
 31
0.0
  0
LINE
  5
121FF
330
747D
100
AcDbEntity
  8
破線
  6
HIDDEN
 48
10.0
100
AcDbLine
 10
3272.195515348523
 20
9585.579896324144
 30
0.0
 11
3272.19551534852
 21
7485.579896324141
 31
0.0
  0
LINE
  5
12200
330
747D
100
AcDbEntity
  8
部品1
100
AcDbLine
 10
2554.695515348531
 20
9585.579896324139
 30
0.0
 11
2554.695515348522
 21
7485.579896324141
 31
0.0
  0
LINE
  5
12201
330
747D
100
AcDbEntity
  8
破線
  6
HIDDEN
 48
10.0
100
AcDbLine
 10
2578.195515348531
 20
9562.07989632414
 30
0.0
 11
2578.195515348522
 21
7509.07989632414
 31
0.0
  0
LINE
  5
12202
330
747D
100
AcDbEntity
  8
部品1
100
AcDbLine
 10
2499.695515348526
 20
9640.57989632414
 30
0.0
 11
2499.695515348526
 21
7430.57989632414
 31
0.0
  0
LINE
  5
12204
330
747D
100
AcDbEntity
  8
部品1
100
AcDbLine
 10
2527.695515348529
 20
9612.579896324136
 30
0.0
 11
2527.695515348523
 21
7458.57989632414
 31
0.0
  0
LINE
  5
12205
330
747D
100
AcDbEntity
  8
破線
  6
HIDDEN
 48
10.0
100
AcDbLine
 10
2578.195515348522
 20
7509.07989632414
 30
0.0
 11
3272.19551534852
 21
7509.079896324138
 31
0.0
  0
LINE
  5
12206
330
747D
100
AcDbEntity
  8
部品1
100
AcDbLine
 10
2499.695515348526
 20
7430.57989632414
 30
0.0
 11
2974.695515348525
 21
7430.579896324137
 31
0.0
  0
LINE
  5
12207
330
747D
100
AcDbEntity
  8
部品1
 48
50.0
100
AcDbLine
 10
2527.695515348523
 20
7458.57989632414
 30
0.0
 11
2554.695515348522
 21
7485.579896324141
 31
0.0
  0
LINE
  5
12208
330
747D
100
AcDbEntity
  8
部品1
100
AcDbLine
 10
2554.695515348525
 20
7430.579896324137
 30
0.0
 11
2554.695515348525
 21
7458.57989632414
 31
0.0
  0
LINE
  5
12209
330
747D
100
AcDbEntity
  8
部品1
100
AcDbLine
 10
2527.695515348525
 20
7485.579896324136
 30
0.0
 11
2499.695515348526
 21
7485.579896324136
 31
0.0
  0
LINE
  5
12210
330
747D
100
AcDbEntity
  8
部品1
100
AcDbLine
 10
2974.695515348525
 20
7430.579896324146
 30
0.0
 11
2974.695515348525
 21
7458.579896324147
 31
0.0
  0
LINE
  5
12214
330
747D
100
AcDbEntity
  8
部品1
100
AcDbLine
 10
2974.695515348525
 20
7430.579896324137
 30
0.0
 11
2974.695515348525
 21
7458.57989632414
 31
0.0
  0
LINE
  5
12215
330
747D
100
AcDbEntity
  8
部品1
100
AcDbLine
 10
2527.695515348525
 20
7905.579896324143
 30
0.0
 11
2499.695515348526
 21
7905.579896324143
 31
0.0
  0
LINE
  5
12216
330
747D
100
AcDbEntity
  8
部品1
100
AcDbLine
 10
2527.695515348525
 20
8325.579896324143
 30
0.0
 11
2499.695515348526
 21
8325.579896324143
 31
0.0
  0
LINE
  5
12217
330
747D
100
AcDbEntity
  8
部品1
100
AcDbLine
 10
2527.695515348525
 20
8745.579896324143
 30
0.0
 11
2499.695515348526
 21
8745.579896324143
 31
0.0
  0
LINE
  5
12218
330
747D
100
AcDbEntity
  8
部品1
100
AcDbLine
 10
2527.695515348525
 20
9165.579896324144
 30
0.0
 11
2499.695515348526
 21
9165.579896324144
 31
0.0
  0
LINE
  5
1221A
330
747D
100
AcDbEntity
  8
破線
  6
HIDDEN
 48
10.0
100
AcDbLine
 10
2578.195515348522
 20
9562.079896324144
 30
0.0
 11
3272.195515348521
 21
9562.07989632414
 31
0.0
  0
DIMENSION
  5
1221B
330
747D
100
AcDbEntity
  8
寸法
 48
50.0
100
AcDbDimension
  2
*D11
 10
2554.695515348525
 20
10015.29230634293
 30
0.0
 11
2105.528848681859
 21
10015.29230634293
 31
0.0
 70
   160
 71
     5
 42
55.0
  3
INABA_S40
100
AcDbAlignedDimension
 13
2499.695515348526
 23
9640.57989632414
 33
0.0
 14
2554.695515348525
 24
9640.57989632414
 34
0.0
100
AcDbRotatedDimension
1001
ACAD
1000
DSTYLE
1002
{
1070
    41
1040
0.5
1070
    44
1040
1.0
1070
   147
1040
0.8
1070
   271
1070
     2
1070
   272
1070
     2
1070
   289
1070
     3
1070
   340
1005
F706
1070
   343
1005
F744
1070
   344
1005
F744
1002
}
  0
LINE
  5
1221C
330
747D
100
AcDbEntity
  8
部品1
 48
50.0
100
AcDbLine
 10
2527.695515348525
 20
9612.579896324142
 30
0.0
 11
2554.695515348522
 21
9585.579896324141
 31
0.0
  0
LINE
  5
1221D
330
747D
100
AcDbEntity
  8
部品1
100
AcDbLine
 10
2554.695515348525
 20
9640.57989632414
 30
0.0
 11
2554.695515348525
 21
9612.57989632414
 31
0.0
  0
LINE
  5
1221E
330
747D
100
AcDbEntity
  8
部品1
100
AcDbLine
 10
2527.695515348525
 20
9585.579896324144
 30
0.0
 11
2499.695515348526
 21
9585.579896324144
 31
0.0
  0
LINE
  5
12220
330
747D
100
AcDbEntity
  8
部品1
100
AcDbLine
 10
2974.695515348525
 20
9640.57989632414
 30
0.0
 11
2974.695515348525
 21
9612.57989632414
 31
0.0
  0
LINE
  5
12221
330
747D
100
AcDbEntity
  8
破線
  6
HIDDEN
 48
10.0
100
AcDbLine
 10
7827.195515348525
 20
9585.579896324144
 30
0.0
 11
7827.195515348524
 21
7485.579896324139
 31
0.0
  0
LINE
  5
12222
330
747D
100
AcDbEntity
  8
破線
  6
HIDDEN
 48
10.0
100
AcDbLine
 10
7777.195515348525
 20
9585.579896324144
 30
0.0
 11
7777.195515348523
 21
7485.579896324139
 31
0.0
  0
LINE
  5
12223
330
747D
100
AcDbEntity
  8
破線
  6
HIDDEN
 48
10.0
100
AcDbLine
 10
6372.195515348526
 20
9585.579896324141
 30
0.0
 11
6372.195515348523
 21
7485.579896324141
 31
0.0
  0
LINE
  5
12224
330
747D
100
AcDbEntity
  8
破線
  6
HIDDEN
 48
10.0
100
AcDbLine
 10
6322.195515348525
 20
9585.579896324141
 30
0.0
 11
6322.195515348523
 21
7485.579896324141
 31
0.0
  0
LINE
  5
12225
330
747D
100
AcDbEntity
  8
破線
  6
HIDDEN
 48
10.0
100
AcDbLine
 10
4777.195515348521
 20
9585.579896324146
 30
0.0
 11
4777.195515348519
 21
7485.579896324139
 31
0.0
  0
LINE
  5
12226
330
747D
100
AcDbEntity
  8
破線
  6
HIDDEN
 48
10.0
100
AcDbLine
 10
4727.195515348522
 20
9585.579896324146
 30
0.0
 11
4727.195515348519
 21
7485.579896324139
 31
0.0
  0
LINE
  5
12227
330
747D
100
AcDbEntity
  8
部品1
100
AcDbLine
 10
8544.695515348525
 20
9585.579896324144
 30
0.0
 11
8544.695515348525
 21
7485.579896324139
 31
0.0
  0
LINE
  5
12228
330
747D
100
AcDbEntity
  8
破線
  6
HIDDEN
 48
10.0
100
AcDbLine
 10
7049.695515348524
 20
9562.079896324146
 30
0.0
 11
7049.695515348523
 21
7509.07989632414
 31
0.0
  0
LINE
  5
12229
330
747D
100
AcDbEntity
  8
破線
  6
HIDDEN
 48
10.0
100
AcDbLine
 10
7099.695515348525
 20
9562.079896324146
 30
0.0
 11
7099.695515348523
 21
7509.07989632414
 31
0.0
  0
LINE
  5
1222A
330
747D
100
AcDbEntity
  8
破線
  6
HIDDEN
 48
10.0
100
AcDbLine
 10
4049.695515348521
 20
9562.079896324148
 30
0.0
 11
4049.69551534852
 21
7509.079896324141
 31
0.0
  0
LINE
  5
1222B
330
747D
100
AcDbEntity
  8
破線
  6
HIDDEN
 48
10.0
100
AcDbLine
 10
3999.695515348522
 20
9562.079896324148
 30
0.0
 11
3999.69551534852
 21
7509.079896324141
 31
0.0
  0
LINE
  5
1222C
330
747D
100
AcDbEntity
  8
部品1
100
AcDbLine
 10
7074.695515348524
 20
7485.579896324139
 30
0.0
 11
7074.695515348524
 21
9585.579896324144
 31
0.0
  0
LINE
  5
1222D
330
747D
100
AcDbEntity
  8
部品1
100
AcDbLine
 10
5604.695515348525
 20
7485.579896324139
 30
0.0
 11
5604.695515348525
 21
9585.579896324139
 31
0.0
  0
LINE
  5
1222E
330
747D
100
AcDbEntity
  8
破線
  6
HIDDEN
 48
10.0
100
AcDbLine
 10
5628.195515348525
 20
7509.07989632414
 30
0.0
 11
5628.195515348523
 21
9562.07989632414
 31
0.0
  0
LINE
  5
1222F
330
747D
100
AcDbEntity
  8
部品1
100
AcDbLine
 10
5577.695515348525
 20
7458.57989632414
 30
0.0
 11
5577.695515348525
 21
9612.579896324144
 31
0.0
  0
LINE
  5
12230
330
747D
100
AcDbEntity
  8
部品1
100
AcDbLine
 10
4024.695515348526
 20
9585.579896324144
 30
0.0
 11
4024.695515348519
 21
7485.579896324141
 31
0.0
  0
LINE
  5
12231
330
747D
100
AcDbEntity
  8
破線
  6
HIDDEN
 48
10.0
100
AcDbLine
 10
5471.195515348525
 20
7509.079896324135
 30
0.0
 11
5471.195515348521
 21
9562.079896324146
 31
0.0
  0
LINE
  5
12232
330
747D
100
AcDbEntity
  8
部品1
100
AcDbLine
 10
5494.695515348524
 20
7485.579896324136
 30
0.0
 11
5494.695515348521
 21
9585.579896324146
 31
0.0
  0
LINE
  5
12233
330
747D
100
AcDbEntity
  8
部品1
100
AcDbLine
 10
5521.695515348525
 20
7458.579896324142
 30
0.0
 11
5521.695515348525
 21
9612.579896324142
 31
0.0
  0
LINE
  5
12234
330
747D
100
AcDbEntity
  8
破線
  6
HIDDEN
 48
10.0
100
AcDbLine
 10
8521.195515348525
 20
9562.079896324148
 30
0.0
 11
8521.195515348525
 21
7509.079896324138
 31
0.0
  0
LINE
  5
12235
330
747D
100
AcDbEntity
  8
部品1
100
AcDbLine
 10
8599.695515348525
 20
9640.57989632414
 30
0.0
 11
8599.695515348525
 21
7430.57989632414
 31
0.0
  0
LINE
  5
12237
330
747D
100
AcDbEntity
  8
破線
  6
HIDDEN
 48
10.0
100
AcDbLine
 10
6322.195515348522
 20
7509.07989632414
 30
0.0
 11
5628.195515348527
 21
7509.079896324141
 31
0.0
  0
LINE
  5
12239
330
747D
100
AcDbEntity
  8
部品1
100
AcDbLine
 10
5604.695515348525
 20
7905.579896324141
 30
0.0
 11
8544.695515348525
 21
7905.579896324141
 31
0.0
  0
LINE
  5
1223A
330
747D
100
AcDbEntity
  8
部品1
100
AcDbLine
 10
5604.695515348525
 20
8325.579896324141
 30
0.0
 11
8544.695515348525
 21
8325.579896324141
 31
0.0
  0
LINE
  5
1223B
330
747D
100
AcDbEntity
  8
部品1
100
AcDbLine
 10
5604.695515348525
 20
8745.579896324143
 30
0.0
 11
8544.695515348525
 21
8745.579896324143
 31
0.0
  0
LINE
  5
1223C
330
747D
100
AcDbEntity
  8
部品1
100
AcDbLine
 10
5604.695515348525
 20
9165.579896324141
 30
0.0
 11
8544.695515348525
 21
9165.579896324141
 31
0.0
  0
LINE
  5
1223D
330
747D
100
AcDbEntity
  8
部品1
100
AcDbLine
 10
8599.695515348525
 20
7430.57989632414
 30
0.0
 11
5604.695515348525
 21
7430.57989632414
 31
0.0
  0
LINE
  5
1223E
330
747D
100
AcDbEntity
  8
部品1
100
AcDbLine
 10
8544.695515348525
 20
7485.579896324139
 30
0.0
 11
5604.695515348525
 21
7485.579896324141
 31
0.0
  0
LINE
  5
1223F
330
747D
100
AcDbEntity
  8
部品1
100
AcDbLine
 10
8571.695515348526
 20
7458.57989632414
 30
0.0
 11
5577.695515348525
 21
7458.579896324142
 31
0.0
  0
DIMENSION
  5
12240
330
747D
100
AcDbEntity
  8
寸法
 48
50.0
100
AcDbDimension
  2
*D12
 10
8599.695515348525
 20
6105.497938821293
 30
0.0
 11
7074.695515348524
 21
6197.497938821292
 31
0.0
 70
    32
 71
     5
 42
3050.0
  3
INABA_S40
100
AcDbAlignedDimension
 13
5549.695515348525
 23
7485.579896324136
 33
0.0
 14
8599.695515348525
 24
7430.57989632414
 34
0.0
100
AcDbRotatedDimension
1001
ACAD
1000
DSTYLE
1002
{
1070
    41
1040
0.5
1070
    44
1040
1.0
1070
   147
1040
0.8
1070
   271
1070
     2
1070
   272
1070
     2
1070
   289
1070
     3
1070
   340
1005
F706
1070
   343
1005
F744
1070
   344
1005
F744
1002
}
  0
LINE
  5
12241
330
747D
100
AcDbEntity
  8
破線
  6
HIDDEN
 48
10.0
100
AcDbLine
 10
4049.69551534852
 20
7509.079896324138
 30
0.0
 11
4727.195515348519
 21
7509.079896324138
 31
0.0
  0
LINE
  5
1226B
330
747D
100
AcDbEntity
  8
破線
  6
HIDDEN
 48
10.0
100
AcDbLine
 10
4777.195515348519
 20
7509.079896324138
 30
0.0
 11
5471.195515348525
 21
7509.079896324135
 31
0.0
  0
LINE
  5
1226C
330
747D
100
AcDbEntity
  8
部品1
100
AcDbLine
 10
5074.695515348525
 20
7430.57989632414
 30
0.0
 11
5549.695515348525
 21
7430.57989632414
 31
0.0
  0
LINE
  5
12272
330
747D
100
AcDbEntity
  8
部品1
100
AcDbLine
 10
5074.695515348525
 20
7430.579896324137
 30
0.0
 11
5074.695515348525
 21
7458.57989632414
 31
0.0
  0
LINE
  5
12276
330
747D
100
AcDbEntity
  8
部品1
100
AcDbLine
 10
5074.695515348525
 20
7430.579896324137
 30
0.0
 11
5074.695515348525
 21
7458.57989632414
 31
0.0
  0
LINE
  5
12277
330
747D
100
AcDbEntity
  8
部品1
 48
50.0
100
AcDbLine
 10
5577.695515348525
 20
7458.57989632414
 30
0.0
 11
5604.695515348525
 21
7485.579896324139
 31
0.0
  0
LINE
  5
12278
330
747D
100
AcDbEntity
  8
部品1
 48
50.0
100
AcDbLine
 10
5521.695515348525
 20
7458.579896324142
 30
0.0
 11
5494.695515348524
 21
7485.579896324136
 31
0.0
  0
LINE
  5
12279
330
747D
100
AcDbEntity
  8
部品1
100
AcDbLine
 10
5604.695515348525
 20
7430.579896324141
 30
0.0
 11
5549.695515348525
 21
7430.57989632414
 31
0.0
  0
LINE
  5
1227A
330
747D
100
AcDbEntity
  8
部品1
100
AcDbLine
 10
5494.695515348524
 20
7430.579896324137
 30
0.0
 11
5494.695515348524
 21
7458.57989632414
 31
0.0
  0
LINE
  5
1227B
330
747D
100
AcDbEntity
  8
部品1
100
AcDbLine
 10
5604.695515348525
 20
7430.579896324137
 30
0.0
 11
5604.695515348525
 21
7458.57989632414
 31
0.0
  0
LINE
  5
1227C
330
747D
100
AcDbEntity
  8
部品1
100
AcDbLine
 10
5577.695515348525
 20
7485.579896324136
 30
0.0
 11
5549.695515348525
 21
7485.579896324136
 31
0.0
  0
LINE
  5
1227D
330
747D
100
AcDbEntity
  8
部品1
100
AcDbLine
 10
5521.695515348525
 20
7485.579896324136
 30
0.0
 11
5549.695515348525
 21
7485.579896324136
 31
0.0
  0
LINE
  5
1227E
330
747D
100
AcDbEntity
  8
部品1
100
AcDbLine
 10
6024.695515348525
 20
7430.579896324137
 30
0.0
 11
6024.695515348525
 21
7458.57989632414
 31
0.0
  0
LINE
  5
1227F
330
747D
100
AcDbEntity
  8
部品1
100
AcDbLine
 10
8571.695515348526
 20
9612.57989632414
 30
0.0
 11
8571.695515348526
 21
7458.57989632414
 31
0.0
  0
LINE
  5
12280
330
747D
100
AcDbEntity
  8
破線
  6
HIDDEN
 48
10.0
100
AcDbLine
 10
7777.195515348522
 20
7509.079896324141
 30
0.0
 11
7099.695515348525
 21
7509.079896324141
 31
0.0
  0
LINE
  5
12281
330
747D
100
AcDbEntity
  8
破線
  6
HIDDEN
 48
10.0
100
AcDbLine
 10
7049.695515348523
 20
7509.079896324135
 30
0.0
 11
6372.195515348522
 21
7509.07989632414
 31
0.0
  0
LINE
  5
12282
330
747D
100
AcDbEntity
  8
部品1
100
AcDbLine
 10
6444.695515348525
 20
7430.579896324137
 30
0.0
 11
6444.695515348525
 21
7458.57989632414
 31
0.0
  0
LINE
  5
12283
330
747D
100
AcDbEntity
  8
部品1
100
AcDbLine
 10
6864.695515348525
 20
7430.579896324137
 30
0.0
 11
6864.695515348525
 21
7458.57989632414
 31
0.0
  0
LINE
  5
12284
330
747D
100
AcDbEntity
  8
部品1
100
AcDbLine
 10
7284.695515348525
 20
7430.579896324137
 30
0.0
 11
7284.695515348525
 21
7458.57989632414
 31
0.0
  0
LINE
  5
12285
330
747D
100
AcDbEntity
  8
部品1
100
AcDbLine
 10
7704.695515348525
 20
7430.579896324137
 30
0.0
 11
7704.695515348525
 21
7458.57989632414
 31
0.0
  0
LINE
  5
12286
330
747D
100
AcDbEntity
  8
破線
  6
HIDDEN
 48
10.0
100
AcDbLine
 10
8521.195515348525
 20
7509.079896324138
 30
0.0
 11
7827.195515348524
 21
7509.079896324141
 31
0.0
  0
LINE
  5
12287
330
747D
100
AcDbEntity
  8
部品1
100
AcDbLine
 10
8124.695515348525
 20
7430.579896324137
 30
0.0
 11
8124.695515348525
 21
7458.57989632414
 31
0.0
  0
LINE
  5
12289
330
747D
100
AcDbEntity
  8
部品1
 48
50.0
100
AcDbLine
 10
8571.695515348526
 20
7458.57989632414
 30
0.0
 11
8544.695515348525
 21
7485.579896324139
 31
0.0
  0
LINE
  5
1228A
330
747D
100
AcDbEntity
  8
部品1
100
AcDbLine
 10
8544.695515348525
 20
7430.579896324137
 30
0.0
 11
8544.695515348525
 21
7458.57989632414
 31
0.0
  0
LINE
  5
1228B
330
747D
100
AcDbEntity
  8
部品1
100
AcDbLine
 10
8571.695515348526
 20
7485.579896324136
 30
0.0
 11
8599.695515348525
 21
7485.579896324136
 31
0.0
  0
LINE
  5
1228C
330
747D
100
AcDbEntity
  8
部品1
100
AcDbLine
 10
8571.695515348526
 20
7905.579896324143
 30
0.0
 11
8599.695515348525
 21
7905.579896324143
 31
0.0
  0
LINE
  5
1228D
330
747D
100
AcDbEntity
  8
部品1
100
AcDbLine
 10
8571.695515348526
 20
8325.579896324143
 30
0.0
 11
8599.695515348525
 21
8325.579896324143
 31
0.0
  0
LINE
  5
1228E
330
747D
100
AcDbEntity
  8
部品1
100
AcDbLine
 10
8571.695515348526
 20
8745.579896324143
 30
0.0
 11
8599.695515348525
 21
8745.579896324143
 31
0.0
  0
LINE
  5
1228F
330
747D
100
AcDbEntity
  8
部品1
100
AcDbLine
 10
8571.695515348526
 20
9165.579896324144
 30
0.0
 11
8599.695515348525
 21
9165.579896324144
 31
0.0
  0
LINE
  5
12291
330
747D
100
AcDbEntity
  8
破線
  6
HIDDEN
 48
10.0
100
AcDbLine
 10
6322.195515348524
 20
9562.07989632414
 30
0.0
 11
5628.195515348527
 21
9562.07989632414
 31
0.0
  0
LINE
  5
12292
330
747D
100
AcDbEntity
  8
部品1
100
AcDbLine
 10
8544.695515348525
 20
9585.579896324144
 30
0.0
 11
5604.695515348525
 21
9585.579896324141
 31
0.0
  0
LINE
  5
12293
330
747D
100
AcDbEntity
  8
部品1
100
AcDbLine
 10
5577.695515348525
 20
9612.579896324142
 30
0.0
 11
7284.695515348525
 21
9612.579896324142
 31
0.0
  0
DIMENSION
  5
12294
330
747D
100
AcDbEntity
  8
寸法
 48
50.0
100
AcDbDimension
  2
*D13
 10
8544.695515348525
 20
10015.29230634293
 30
0.0
 11
7074.695515348524
 21
10107.30411736656
 31
0.0
 70
    32
  1
7X420=<>
 71
     5
 42
2940.0
  3
INABA_S40
100
AcDbAlignedDimension
 13
5604.695515348525
 23
9640.57989632414
 33
0.0
 14
8544.695515348525
 24
9640.57989632414
 34
0.0
100
AcDbRotatedDimension
1001
ACAD
1000
DSTYLE
1002
{
1070
    41
1040
0.5
1070
    44
1040
1.0
1070
   147
1040
0.8
1070
   271
1070
     2
1070
   272
1070
     2
1070
   289
1070
     3
1070
   340
1005
F706
1070
   343
1005
F744
1070
   344
1005
F744
1002
}
  0
LINE
  5
12295
330
747D
100
AcDbEntity
  8
部品1
100
AcDbLine
 10
5549.695515348525
 20
9640.57989632414
 30
0.0
 11
8599.695515348525
 21
9640.57989632414
 31
0.0
  0
LINE
  5
12296
330
747D
100
AcDbEntity
  8
破線
  6
HIDDEN
 48
10.0
100
AcDbLine
 10
4049.695515348522
 20
9562.07989632414
 30
0.0
 11
4727.195515348522
 21
9562.079896324148
 31
0.0
  0
LINE
  5
12297
330
747D
100
AcDbEntity
  8
部品1
100
AcDbLine
 10
4654.695515348524
 20
9612.579896324142
 30
0.0
 11
3394.695515348526
 21
9612.579896324144
 31
0.0
  0
LINE
  5
12298
330
747D
100
AcDbEntity
  8
部品1
100
AcDbLine
 10
3394.695515348525
 20
9640.57989632414
 30
0.0
 11
3394.695515348525
 21
9612.57989632414
 31
0.0
  0
LINE
  5
12299
330
747D
100
AcDbEntity
  8
部品1
100
AcDbLine
 10
3814.695515348525
 20
9640.57989632414
 30
0.0
 11
3814.695515348525
 21
9612.57989632414
 31
0.0
  0
LINE
  5
1229A
330
747D
100
AcDbEntity
  8
部品1
100
AcDbLine
 10
4234.695515348525
 20
9640.57989632414
 30
0.0
 11
4234.695515348525
 21
9612.57989632414
 31
0.0
  0
LINE
  5
1229B
330
747D
100
AcDbEntity
  8
破線
  6
HIDDEN
 48
10.0
100
AcDbLine
 10
4777.195515348522
 20
9562.079896324148
 30
0.0
 11
5471.195515348525
 21
9562.079896324148
 31
0.0
  0
LINE
  5
1229C
330
747D
100
AcDbEntity
  8
部品1
100
AcDbLine
 10
5521.695515348525
 20
9612.579896324142
 30
0.0
 11
4654.695515348524
 21
9612.579896324142
 31
0.0
  0
LINE
  5
1229D
330
747D
100
AcDbEntity
  8
部品1
100
AcDbLine
 10
4654.695515348524
 20
9640.57989632414
 30
0.0
 11
4654.695515348524
 21
9612.57989632414
 31
0.0
  0
LINE
  5
1229E
330
747D
100
AcDbEntity
  8
部品1
100
AcDbLine
 10
5074.695515348525
 20
9640.57989632414
 30
0.0
 11
5074.695515348525
 21
9612.57989632414
 31
0.0
  0
DIMENSION
  5
1229F
330
747D
100
AcDbEntity
  8
寸法
 48
50.0
100
AcDbDimension
  2
*D14
 10
5604.695515348525
 20
10015.29230634293
 30
0.0
 11
5549.695515348525
 21
10015.29230634293
 31
0.0
 70
   160
 71
     5
 42
110.0
  3
INABA_S40
100
AcDbAlignedDimension
 13
5494.695515348524
 23
9640.57989632414
 33
0.0
 14
5604.695515348525
 24
9640.57989632414
 34
0.0
100
AcDbRotatedDimension
1001
ACAD
1000
DSTYLE
1002
{
1070
    41
1040
0.5
1070
    44
1040
1.0
1070
   147
1040
0.8
1070
   271
1070
     2
1070
   272
1070
     2
1070
   289
1070
     3
1070
   340
1005
F706
1070
   343
1005
F744
1070
   344
1005
F744
1002
}
  0
LINE
  5
122A0
330
747D
100
AcDbEntity
  8
部品1
 48
50.0
100
AcDbLine
 10
5577.695515348525
 20
9612.579896324142
 30
0.0
 11
5604.695515348525
 21
9585.579896324141
 31
0.0
  0
LINE
  5
122A1
330
747D
100
AcDbEntity
  8
部品1
 48
50.0
100
AcDbLine
 10
5521.695515348525
 20
9612.579896324142
 30
0.0
 11
5494.695515348524
 21
9585.579896324146
 31
0.0
  0
LINE
  5
122A2
330
747D
100
AcDbEntity
  8
部品1
100
AcDbLine
 10
5577.695515348525
 20
9585.579896324144
 30
0.0
 11
5549.695515348525
 21
9585.579896324144
 31
0.0
  0
LINE
  5
122A3
330
747D
100
AcDbEntity
  8
部品1
100
AcDbLine
 10
5494.695515348524
 20
9640.57989632414
 30
0.0
 11
5494.695515348524
 21
9612.57989632414
 31
0.0
  0
LINE
  5
122A4
330
747D
100
AcDbEntity
  8
部品1
100
AcDbLine
 10
5521.695515348525
 20
9585.579896324144
 30
0.0
 11
5549.695515348525
 21
9585.579896324144
 31
0.0
  0
LINE
  5
122A5
330
747D
100
AcDbEntity
  8
部品1
100
AcDbLine
 10
5604.695515348525
 20
9640.57989632414
 30
0.0
 11
5604.695515348525
 21
9612.57989632414
 31
0.0
  0
LINE
  5
122A6
330
747D
100
AcDbEntity
  8
部品1
100
AcDbLine
 10
5604.695515348525
 20
9640.57989632414
 30
0.0
 11
5604.695515348525
 21
9612.57989632414
 31
0.0
  0
LINE
  5
122A7
330
747D
100
AcDbEntity
  8
部品1
100
AcDbLine
 10
6024.695515348525
 20
9640.57989632414
 30
0.0
 11
6024.695515348525
 21
9612.57989632414
 31
0.0
  0
LINE
  5
122A8
330
747D
100
AcDbEntity
  8
破線
  6
HIDDEN
 48
10.0
100
AcDbLine
 10
7777.195515348523
 20
9562.079896324144
 30
0.0
 11
7099.695515348526
 21
9562.07989632414
 31
0.0
  0
LINE
  5
122A9
330
747D
100
AcDbEntity
  8
部品1
100
AcDbLine
 10
7087.195515348525
 20
9612.579896324142
 30
0.0
 11
8322.195515348525
 21
9612.57989632414
 31
0.0
  0
LINE
  5
122AA
330
747D
100
AcDbEntity
  8
破線
  6
HIDDEN
 48
10.0
100
AcDbLine
 10
7049.695515348526
 20
9562.07989632414
 30
0.0
 11
6372.195515348526
 21
9562.079896324144
 31
0.0
  0
LINE
  5
122AB
330
747D
100
AcDbEntity
  8
部品1
100
AcDbLine
 10
6444.695515348525
 20
9640.57989632414
 30
0.0
 11
6444.695515348525
 21
9612.57989632414
 31
0.0
  0
LINE
  5
122AC
330
747D
100
AcDbEntity
  8
部品1
100
AcDbLine
 10
6864.695515348525
 20
9640.57989632414
 30
0.0
 11
6864.695515348525
 21
9612.57989632414
 31
0.0
  0
LINE
  5
122AD
330
747D
100
AcDbEntity
  8
部品1
100
AcDbLine
 10
7284.695515348525
 20
9640.57989632414
 30
0.0
 11
7284.695515348525
 21
9612.57989632414
 31
0.0
  0
LINE
  5
122AE
330
747D
100
AcDbEntity
  8
部品1
100
AcDbLine
 10
7704.695515348525
 20
9640.57989632414
 30
0.0
 11
7704.695515348525
 21
9612.57989632414
 31
0.0
  0
LINE
  5
122AF
330
747D
100
AcDbEntity
  8
破線
  6
HIDDEN
 48
10.0
100
AcDbLine
 10
8521.195515348525
 20
9562.079896324146
 30
0.0
 11
7827.195515348525
 21
9562.07989632414
 31
0.0
  0
LINE
  5
122B0
330
747D
100
AcDbEntity
  8
部品1
100
AcDbLine
 10
8124.695515348525
 20
9612.57989632414
 30
0.0
 11
8571.695515348526
 21
9612.57989632414
 31
0.0
  0
LINE
  5
122B1
330
747D
100
AcDbEntity
  8
部品1
100
AcDbLine
 10
8124.695515348525
 20
9640.57989632414
 30
0.0
 11
8124.695515348525
 21
9612.57989632414
 31
0.0
  0
LINE
  5
122B3
330
747D
100
AcDbEntity
  8
部品1
 48
50.0
100
AcDbLine
 10
8571.695515348526
 20
9612.57989632414
 30
0.0
 11
8544.695515348525
 21
9585.579896324144
 31
0.0
  0
LINE
  5
122B4
330
747D
100
AcDbEntity
  8
部品1
100
AcDbLine
 10
8544.695515348525
 20
9640.57989632414
 30
0.0
 11
8544.695515348525
 21
9612.57989632414
 31
0.0
  0
LINE
  5
122B5
330
747D
100
AcDbEntity
  8
部品1
100
AcDbLine
 10
8571.695515348526
 20
9585.579896324144
 30
0.0
 11
8599.695515348525
 21
9585.579896324144
 31
0.0
  0
LINE
  5
139CF
330
747D
100
AcDbEntity
  8
部品1
 48
50.0
100
AcDbLine
 10
5549.695517592096
 20
9612.579899901311
 30
0.0
 11
5521.695517592096
 21
9640.579899901311
 31
0.0
  0
LINE
  5
139D0
330
747D
100
AcDbEntity
  8
部品1
100
AcDbLine
 10
5521.695517592096
 20
9612.579899901311
 30
0.0
 11
5521.695517592096
 21
9640.579899901311
 31
0.0
  0
LINE
  5
139D1
330
747D
100
AcDbEntity
  8
部品1
100
AcDbLine
 10
5577.695517592094
 20
9612.579899901311
 30
0.0
 11
5577.695517592094
 21
9640.579899901306
 31
0.0
  0
LINE
  5
139D2
330
747D
100
AcDbEntity
  8
部品1
100
AcDbLine
 10
5521.695517592096
 20
9612.579899901311
 30
0.0
 11
5549.695517592096
 21
9612.579899901311
 31
0.0
  0
LINE
  5
13AD7
330
747D
100
AcDbEntity
  8
部品1
 48
50.0
100
AcDbLine
 10
2974.695515348525
 20
7458.579896324135
 30
0.0
 11
5074.695515348525
 21
7458.579896324137
 31
0.0
  0
DIMENSION
  5
1402B
330
747D
100
AcDbEntity
  8
寸法
100
AcDbDimension
  2
*D15
 10
10893.06857548826
 20
2338.112805903257
 30
0.0
 11
10793.05676446464
 21
3383.112805903259
 31
0.0
 70
    32
 71
     5
 42
2090.0
  3
INABA_S40G
100
AcDbAlignedDimension
 13
11736.81870467152
 23
4428.112805903256
 33
0.0
 14
11736.81870467152
 24
2338.112805903256
 34
0.0
 50
90.0
100
AcDbRotatedDimension
1001
ACAD
1000
DSTYLE
1002
{
1070
   174
1070
     0
1070
   272
1070
     1
1070
   288
1070
     0
1070
   341
1005
0
1002
}
  0
DIMENSION
  5
1402C
330
747D
100
AcDbEntity
  8
寸法
100
AcDbDimension
  2
*D16
 10
10593.06857548826
 20
4663.112805903262
 30
0.0
 11
10493.05676446464
 21
3475.612805903261
 31
0.0
 70
    32
 71
     5
 42
2375.000000000005
  3
INABA_S40G
100
AcDbAlignedDimension
 13
11659.81870467152
 23
2288.112805903256
 33
0.0
 14
11676.81870467152
 24
4663.112805903262
 34
0.0
 50
90.0
100
AcDbRotatedDimension
1001
ACAD
1000
DSTYLE
1002
{
1070
   174
1070
     0
1070
   272
1070
     1
1070
   288
1070
     0
1070
   341
1005
0
1002
}
  0
DIMENSION
  5
1402D
330
747D
100
AcDbEntity
  8
寸法
100
AcDbDimension
  2
*D17
 10
14651.74586264365
 20
4608.112805903257
 30
0.0
 11
14551.73405162002
 21
3448.112805903259
 31
0.0
 70
    32
 71
     5
 42
2320.000000000002
  3
INABA_S40G
100
AcDbAlignedDimension
 13
13946.81870467152
 23
2288.112805903256
 33
0.0
 14
14026.81870467152
 24
4608.112805903258
 34
0.0
 50
90.0
100
AcDbRotatedDimension
1001
ACAD
1000
DSTYLE
1002
{
1070
   174
1070
     0
1070
   272
1070
     1
1070
   288
1070
     0
1070
   341
1005
0
1002
}
  0
DIMENSION
  5
1402E
330
747D
100
AcDbEntity
  8
寸法
 48
50.0
100
AcDbDimension
  2
*D18
 10
11116.21029790314
 20
4537.458064776589
 30
0.0
 11
11126.87577316206
 21
4908.304728018287
 31
0.0
 70
   161
 71
     5
 42
141.0
  3
INABA_S40G
100
AcDbAlignedDimension
 13
11696.2147248301
 23
4661.835554737936
 33
0.0
 14
11692.16126927347
 24
4520.893830972223
 34
0.0
1001
ACAD
1000
DSTYLE
1002
{
1070
   174
1070
     0
1070
   272
1070
     1
1070
   288
1070
     0
1070
   341
1005
0
1002
}
  0
LINE
  5
1402F
330
747D
100
AcDbEntity
  8
細線
 48
50.0
100
AcDbLine
 10
13814.31870467153
 20
4428.112805903256
 30
0.0
 11
13814.31870467153
 21
2338.112805903256
 31
0.0
  0
LINE
  5
14030
330
747D
100
AcDbEntity
  8
細線
 48
50.0
100
AcDbLine
 10
13829.31870467153
 20
4428.112805903256
 30
0.0
 11
13829.31870467153
 21
2338.112805903256
 31
0.0
  0
LINE
  5
14031
330
747D
100
AcDbEntity
  8
細線
 48
50.0
100
AcDbLine
 10
13689.31870467153
 20
4428.112805903256
 30
0.0
 11
13689.31870467153
 21
2338.112805903256
 31
0.0
  0
LINE
  5
14032
330
747D
100
AcDbEntity
  8
細線
 48
50.0
100
AcDbLine
 10
13674.31870467153
 20
4428.112805903256
 30
0.0
 11
13674.31870467153
 21
2338.112805903256
 31
0.0
  0
LINE
  5
14033
330
747D
100
AcDbEntity
  8
細線
 48
50.0
100
AcDbLine
 10
13534.31870467153
 20
4428.112805903256
 30
0.0
 11
13534.31870467153
 21
2338.112805903256
 31
0.0
  0
LINE
  5
14034
330
747D
100
AcDbEntity
  8
細線
 48
50.0
100
AcDbLine
 10
13549.31870467153
 20
4428.112805903256
 30
0.0
 11
13549.31870467153
 21
2338.112805903256
 31
0.0
  0
LINE
  5
14035
330
747D
100
AcDbEntity
  8
部品1
100
AcDbLine
 10
13051.81870467152
 20
4428.112805903256
 30
0.0
 11
13051.81870467152
 21
2338.112805903256
 31
0.0
  0
LINE
  5
14036
330
747D
100
AcDbEntity
  8
細線
 48
50.0
100
AcDbLine
 10
12709.31870467152
 20
4428.112805903256
 30
0.0
 11
12709.31870467152
 21
2338.112805903256
 31
0.0
  0
LINE
  5
14037
330
747D
100
AcDbEntity
  8
細線
 48
50.0
100
AcDbLine
 10
12694.31870467152
 20
4428.112805903256
 30
0.0
 11
12694.31870467152
 21
2338.112805903256
 31
0.0
  0
LINE
  5
14038
330
747D
100
AcDbEntity
  8
細線
 48
50.0
100
AcDbLine
 10
12834.31870467152
 20
4428.112805903256
 30
0.0
 11
12834.31870467152
 21
2338.112805903256
 31
0.0
  0
LINE
  5
14039
330
747D
100
AcDbEntity
  8
細線
 48
50.0
100
AcDbLine
 10
12849.31870467152
 20
4428.112805903256
 30
0.0
 11
12849.31870467152
 21
2338.112805903256
 31
0.0
  0
LINE
  5
1403A
330
747D
100
AcDbEntity
  8
細線
 48
50.0
100
AcDbLine
 10
12989.31870467152
 20
4428.112805903256
 30
0.0
 11
12989.31870467152
 21
2338.112805903256
 31
0.0
  0
LINE
  5
1403B
330
747D
100
AcDbEntity
  8
細線
 48
50.0
100
AcDbLine
 10
12974.31870467152
 20
4428.112805903256
 30
0.0
 11
12974.31870467152
 21
2338.112805903256
 31
0.0
  0
LINE
  5
1403C
330
747D
100
AcDbEntity
  8
部品1
100
AcDbLine
 10
12631.81870467152
 20
4428.112805903256
 30
0.0
 11
12631.81870467152
 21
2338.112805903256
 31
0.0
  0
DIMENSION
  5
1403D
330
747D
100
AcDbEntity
  8
寸法
 48
50.0
100
AcDbDimension
  2
*D19
 10
14026.81870467152
 20
5061.77025948256
 30
0.0
 11
14232.86594876601
 21
5061.77025948256
 31
0.0
 70
   160
 71
     5
 42
80.0
  3
INABA_S40G
100
AcDbAlignedDimension
 13
13946.81870467152
 23
4609.92348551491
 33
0.0
 14
14026.81870467152
 24
4608.112805903258
 34
0.0
100
AcDbRotatedDimension
1001
ACAD
1000
DSTYLE
1002
{
1070
   174
1070
     0
1070
   272
1070
     1
1070
   288
1070
     0
1070
   341
1005
0
1002
}
  0
LINE
  5
1403E
330
747D
100
AcDbEntity
  8
細線
 48
50.0
100
AcDbLine
 10
11869.31870467152
 20
4428.112805903256
 30
0.0
 11
11869.31870467152
 21
2338.112805903256
 31
0.0
  0
LINE
  5
1403F
330
747D
100
AcDbEntity
  8
細線
 48
50.0
100
AcDbLine
 10
11854.31870467152
 20
4428.112805903256
 30
0.0
 11
11854.31870467152
 21
2338.112805903256
 31
0.0
  0
LINE
  5
14040
330
747D
100
AcDbEntity
  8
細線
 48
50.0
100
AcDbLine
 10
11994.31870467152
 20
4428.112805903256
 30
0.0
 11
11994.31870467152
 21
2338.112805903256
 31
0.0
  0
LINE
  5
14041
330
747D
100
AcDbEntity
  8
細線
 48
50.0
100
AcDbLine
 10
12009.31870467152
 20
4428.112805903256
 30
0.0
 11
12009.31870467152
 21
2338.112805903256
 31
0.0
  0
LINE
  5
14042
330
747D
100
AcDbEntity
  8
細線
 48
50.0
100
AcDbLine
 10
12149.31870467152
 20
4428.112805903256
 30
0.0
 11
12149.31870467152
 21
2338.112805903256
 31
0.0
  0
LINE
  5
14043
330
747D
100
AcDbEntity
  8
細線
 48
50.0
100
AcDbLine
 10
12134.31870467152
 20
4428.112805903256
 30
0.0
 11
12134.31870467152
 21
2338.112805903256
 31
0.0
  0
LINE
  5
14044
330
747D
100
AcDbEntity
  8
細線
 48
50.0
100
AcDbLine
 10
12554.31870467152
 20
4428.112805903256
 30
0.0
 11
12554.31870467152
 21
2338.112805903256
 31
0.0
  0
LINE
  5
14045
330
747D
100
AcDbEntity
  8
細線
 48
50.0
100
AcDbLine
 10
12569.31870467152
 20
4428.112805903256
 30
0.0
 11
12569.31870467152
 21
2338.112805903256
 31
0.0
  0
LINE
  5
14046
330
747D
100
AcDbEntity
  8
細線
 48
50.0
100
AcDbLine
 10
12429.31870467152
 20
4428.112805903256
 30
0.0
 11
12429.31870467152
 21
2338.112805903256
 31
0.0
  0
LINE
  5
14047
330
747D
100
AcDbEntity
  8
細線
 48
50.0
100
AcDbLine
 10
12414.31870467152
 20
4428.112805903256
 30
0.0
 11
12414.31870467152
 21
2338.112805903256
 31
0.0
  0
LINE
  5
14048
330
747D
100
AcDbEntity
  8
細線
 48
50.0
100
AcDbLine
 10
12274.31870467152
 20
4428.112805903256
 30
0.0
 11
12274.31870467152
 21
2338.112805903256
 31
0.0
  0
LINE
  5
14049
330
747D
100
AcDbEntity
  8
細線
 48
50.0
100
AcDbLine
 10
12289.31870467152
 20
4428.112805903256
 30
0.0
 11
12289.31870467152
 21
2338.112805903256
 31
0.0
  0
LINE
  5
1404A
330
747D
100
AcDbEntity
  8
部品1
100
AcDbLine
 10
11736.81870467152
 20
2288.112805903257
 30
0.0
 11
13946.81870467152
 21
2288.112805903258
 31
0.0
  0
DIMENSION
  5
1404B
330
747D
100
AcDbEntity
  8
寸法
 48
50.0
100
AcDbDimension
  2
*D20
 10
11676.81870467152
 20
5280.972093156852
 30
0.0
 11
12911.16255876399
 21
5280.972093156852
 31
0.0
 70
   160
 71
     5
 42
2350.0
  3
INABA_S40G
100
AcDbAlignedDimension
 13
14026.81870467152
 23
4608.112805903258
 33
0.0
 14
11676.81870467152
 24
4663.112805903262
 34
0.0
100
AcDbRotatedDimension
1001
ACAD
1000
DSTYLE
1002
{
1070
   174
1070
     0
1070
   272
1070
     1
1070
   288
1070
     0
1070
   341
1005
0
1002
}
  0
DIMENSION
  5
1404C
330
747D
100
AcDbEntity
  8
寸法
 48
50.0
100
AcDbDimension
  2
*D21
 10
11676.81870467152
 20
5061.77025948256
 30
0.0
 11
11367.18090939593
 21
5061.77025948256
 31
0.0
 70
   160
 71
     5
 42
60.0
  3
INABA_S40G
100
AcDbAlignedDimension
 13
11736.81870467152
 23
4659.114424026233
 33
0.0
 14
11676.81870467152
 24
4663.112805903262
 34
0.0
100
AcDbRotatedDimension
1001
ACAD
1000
DSTYLE
1002
{
1070
   174
1070
     0
1070
   272
1070
     1
1070
   288
1070
     0
1070
   341
1005
0
1002
}
  0
DIMENSION
  5
1404D
330
747D
100
AcDbEntity
  8
寸法
 48
50.0
100
AcDbDimension
  2
*D22
 10
11736.81870467152
 20
5061.77025948256
 30
0.0
 11
12831.46344174203
 21
5061.77025948256
 31
0.0
 70
   160
  1
柱外寸法<>
 71
     5
 42
2210.0
  3
INABA_S40G
100
AcDbAlignedDimension
 13
13946.81870467152
 23
4609.92348551491
 33
0.0
 14
11736.81870467152
 24
4659.114424026233
 34
0.0
100
AcDbRotatedDimension
1001
ACAD
1000
DSTYLE
1002
{
1070
   174
1070
     0
1070
   272
1070
     1
1070
   288
1070
     0
1070
   341
1005
0
1002
}
  0
LINE
  5
1404E
330
747D
100
AcDbEntity
  8
部品1
100
AcDbLine
 10
13891.81870467152
 20
4428.112805903256
 30
0.0
 11
13891.81870467152
 21
2338.112805903256
 31
0.0
  0
LINE
  5
1404F
330
747D
100
AcDbEntity
  8
部品1
100
AcDbLine
 10
13946.81870467152
 20
4482.789243534479
 30
0.0
 11
13946.81870467152
 21
2188.112805903256
 31
0.0
  0
LINE
  5
14050
330
747D
100
AcDbEntity
  8
部品1
100
AcDbLine
 10
12211.81870467152
 20
4428.112805903256
 30
0.0
 11
12211.81870467152
 21
2338.112805903256
 31
0.0
  0
DIMENSION
  5
14051
330
747D
100
AcDbEntity
  8
寸法
100
AcDbDimension
  2
*D23
 10
10893.06857548826
 20
2288.112805903256
 30
0.0
 11
10893.06857548826
 21
1982.065561808766
 31
0.0
 70
   160
 71
     5
 42
50.0
  3
INABA_S40G
100
AcDbAlignedDimension
 13
11736.81870467152
 23
2338.112805903256
 33
0.0
 14
11659.81870467152
 24
2288.112805903256
 34
0.0
 50
90.0
100
AcDbRotatedDimension
1001
ACAD
1000
DSTYLE
1002
{
1070
   174
1070
     0
1070
   272
1070
     1
1070
   288
1070
     0
1070
   341
1005
0
1002
}
  0
LINE
  5
14052
330
747D
100
AcDbEntity
  8
部品1
100
AcDbLine
 10
11736.81870467152
 20
4520.139102947843
 30
0.0
 11
11736.81870467152
 21
2188.112805903256
 31
0.0
  0
LINE
  5
14053
330
747D
100
AcDbEntity
  8
部品1
100
AcDbLine
 10
11791.81870467152
 20
4428.112805903256
 30
0.0
 11
11791.81870467152
 21
2338.112805903256
 31
0.0
  0
LINE
  5
14054
330
747D
100
AcDbEntity
  8
部品1
100
AcDbLine
 10
11736.81870467152
 20
2338.112805903256
 30
0.0
 11
13946.81870467152
 21
2338.112805903258
 31
0.0
  0
LINE
  5
14055
330
747D
100
AcDbEntity
  8
部品1
100
AcDbLine
 10
11736.81870467152
 20
4428.112805903256
 30
0.0
 11
13946.81870467152
 21
4428.112805903256
 31
0.0
  0
LINE
  5
14056
330
747D
100
AcDbEntity
  8
部品1
100
AcDbLine
 10
13471.81870467152
 20
4428.112805903256
 30
0.0
 11
13471.81870467152
 21
2338.112805903256
 31
0.0
  0
LINE
  5
14057
330
747D
100
AcDbEntity
  8
細線
 48
50.0
100
AcDbLine
 10
13394.31870467152
 20
4428.112805903256
 30
0.0
 11
13394.31870467152
 21
2338.112805903256
 31
0.0
  0
LINE
  5
14058
330
747D
100
AcDbEntity
  8
細線
 48
50.0
100
AcDbLine
 10
13409.31870467152
 20
4428.112805903256
 30
0.0
 11
13409.31870467152
 21
2338.112805903256
 31
0.0
  0
LINE
  5
14059
330
747D
100
AcDbEntity
  8
細線
 48
50.0
100
AcDbLine
 10
13269.31870467152
 20
4428.112805903256
 30
0.0
 11
13269.31870467152
 21
2338.112805903256
 31
0.0
  0
LINE
  5
1405A
330
747D
100
AcDbEntity
  8
細線
 48
50.0
100
AcDbLine
 10
13254.31870467152
 20
4428.112805903256
 30
0.0
 11
13254.31870467152
 21
2338.112805903256
 31
0.0
  0
LINE
  5
1405B
330
747D
100
AcDbEntity
  8
細線
 48
50.0
100
AcDbLine
 10
13114.31870467152
 20
4428.112805903256
 30
0.0
 11
13114.31870467152
 21
2338.112805903256
 31
0.0
  0
LINE
  5
1405C
330
747D
100
AcDbEntity
  8
細線
 48
50.0
100
AcDbLine
 10
13129.31870467152
 20
4428.112805903256
 30
0.0
 11
13129.31870467152
 21
2338.112805903256
 31
0.0
  0
TEXT
  5
1405D
330
747D
100
AcDbEntity
  8
部品1
 48
50.0
100
AcDbText
 10
13157.71956256034
 20
4691.927993178518
 30
0.0
 40
120.0
  1
44
 50
90.0
  7
STYLE1
100
AcDbText
  0
TEXT
  5
1405E
330
747D
100
AcDbEntity
  8
部品1
 48
50.0
100
AcDbText
 10
12680.08653989525
 20
4829.429251396801
 30
0.0
 40
120.0
  1
1000
  7
STYLE1
100
AcDbText
  0
LINE
  5
1405F
330
747D
100
AcDbEntity
  8
部品1
 48
50.0
100
AcDbLine
 10
12991.81870467152
 20
4793.545229244368
 30
0.0
 11
12991.81870467152
 21
4777.345229244369
 31
0.0
  0
LINE
  5
14060
330
747D
100
AcDbEntity
  8
部品1
 48
50.0
100
AcDbLine
 10
12691.81870467152
 20
4793.545229244368
 30
0.0
 11
12991.81870467152
 21
4793.545229244368
 31
0.0
  0
LINE
  5
14061
330
747D
100
AcDbEntity
  8
部品1
100
AcDbLine
 10
11684.36369102848
 20
4661.830541237523
 30
0.0
 11
14019.43058153299
 21
4606.753603612396
 31
0.0
  0
LINE
  5
14062
330
747D
100
AcDbEntity
  8
部品1
100
AcDbLine
 10
11692.16126927347
 20
4520.893830972223
 30
0.0
 11
14001.48240521137
 21
4481.865405738019
 31
0.0
  0
LINE
  5
14063
330
747D
100
AcDbEntity
  8
細線
 48
50.0
100
AcDbLine
 10
11709.81870467152
 20
4660.512482278662
 30
0.0
 11
11704.52960311601
 21
4520.426849651307
 31
0.0
  0
LINE
  5
14064
330
747D
100
AcDbEntity
  8
細線
 48
50.0
100
AcDbLine
 10
13993.81870467152
 20
4608.079784938552
 30
0.0
 11
13989.07102178352
 21
4482.334012447809
 31
0.0
  0
LINE
  5
14065
330
747D
100
AcDbEntity
  8
部品1
 48
50.0
100
AcDbLine
 10
11677.00299058463
 20
4654.706352067949
 30
0.0
 11
11677.38325036244
 21
4634.779387621538
 31
0.0
  0
LINE
  5
14066
330
747D
100
AcDbEntity
  8
部品1
 48
50.0
100
AcDbLine
 10
11680.45202246868
 20
4631.204106128065
 30
0.0
 11
11682.15592396005
 21
4541.913609421419
 31
0.0
  0
LINE
  5
14067
330
747D
100
AcDbEntity
  8
細線
 48
50.0
100
AcDbLine
 10
11677.85812777233
 20
4634.129887744619
 30
0.0
 11
14023.4941125175
 21
4578.505683103791
 31
0.0
  0
LINE
  5
14068
330
747D
100
AcDbEntity
  8
細線
 48
50.0
100
AcDbLine
 10
11682.61860300962
 20
4541.268376046755
 30
0.0
 11
14012.62226744026
 21
4501.459057072261
 31
0.0
  0
LINE
  5
14069
330
747D
100
AcDbEntity
  8
部品1
 48
50.0
100
AcDbLine
 10
11685.22469606629
 20
4538.338327927946
 30
0.0
 11
11685.42664868672
 21
4527.755292534854
 31
0.0
  0
ARC
  5
1406A
330
747D
100
AcDbEntity
  8
部品1
 48
50.0
100
AcDbCircle
 10
11684.00171641297
 20
4654.839906475377
 30
0.0
 40
7.0
100
AcDbArc
 50
87.03587545303909
 51
181.0932240293156
  0
ARC
  5
1406B
330
747D
100
AcDbEntity
  8
部品1
 48
50.0
100
AcDbCircle
 10
11692.42537451506
 20
4527.888846942281
 30
0.0
 40
7.0
100
AcDbArc
 50
181.0932240293156
 51
267.8377559869492
  0
ARC
  5
1406C
330
747D
100
AcDbEntity
  8
部品1
100
AcDbCircle
 10
11682.22524213986
 20
4538.281090324763
 30
0.0
 40
3.0
100
AcDbArc
 50
1.093224029315636
 51
80.18775403148891
  0
ARC
  5
1406D
330
747D
100
AcDbEntity
  8
部品1
100
AcDbCircle
 10
11677.45256854225
 20
4631.146868524882
 30
0.0
 40
3.0
100
AcDbArc
 50
1.093224029315636
 51
80.18775403148891
  0
ARC
  5
1406E
330
747D
100
AcDbEntity
  8
部品1
100
AcDbCircle
 10
11678.08312294527
 20
4634.79274306228
 30
0.0
 40
0.7
100
AcDbArc
 50
181.0932240292114
 51
260.187754031489
  0
ARC
  5
1406F
330
747D
100
AcDbEntity
  8
部品1
100
AcDbCircle
 10
11682.85579654289
 20
4541.926964862161
 30
0.0
 40
0.7
100
AcDbArc
 50
181.0932240292635
 51
260.187754031489
  0
LINE
  5
14070
330
747D
100
AcDbEntity
  8
部品1
 48
50.0
100
AcDbLine
 10
14026.03260748222
 20
4599.053958177475
 30
0.0
 11
14024.00198629125
 21
4579.108916919695
 31
0.0
  0
LINE
  5
14071
330
747D
100
AcDbEntity
  8
部品1
 48
50.0
100
AcDbLine
 10
14020.64941980677
 20
4575.798282846786
 30
0.0
 11
14013.14264054193
 21
4502.065662101773
 31
0.0
  0
LINE
  5
14072
330
747D
100
AcDbEntity
  8
部品1
 48
50.0
100
AcDbLine
 10
14009.79007405745
 20
4498.755028028861
 30
0.0
 11
14008.71051101771
 21
4488.151411035303
 31
0.0
  0
ARC
  5
14073
330
747D
100
AcDbEntity
  8
部品1
 48
50.0
100
AcDbCircle
 10
14019.06860691747
 20
4599.762968850249
 30
0.0
 40
7.0
100
AcDbArc
 50
354.1866997665532
 51
87.03587545303909
  0
ARC
  5
14074
330
747D
100
AcDbEntity
  8
部品1
 48
50.0
100
AcDbCircle
 10
14001.74651045295
 20
4488.860421708078
 30
0.0
 40
7.0
100
AcDbArc
 50
267.8377559869492
 51
354.1866997665532
  0
ARC
  5
14075
330
747D
100
AcDbEntity
  8
部品1
100
AcDbCircle
 10
14012.77464572806
 20
4498.451166311959
 30
0.0
 40
3.0
100
AcDbArc
 50
95.0921697642102
 51
174.1866997665532
  0
ARC
  5
14076
330
747D
100
AcDbEntity
  8
部品1
100
AcDbCircle
 10
14023.63399147738
 20
4575.494421129882
 30
0.0
 40
3.0
100
AcDbArc
 50
95.09216976441781
 51
174.1866997665532
  0
ARC
  5
14077
330
747D
100
AcDbEntity
  8
部品1
100
AcDbCircle
 10
14023.30558623478
 20
4579.179817986973
 30
0.0
 40
0.7
100
AcDbArc
 50
275.0921697642102
 51
354.1866997665532
  0
ARC
  5
14078
330
747D
100
AcDbEntity
  8
部品1
100
AcDbCircle
 10
14012.44624048546
 20
4502.13656316905
 30
0.0
 40
0.7
100
AcDbArc
 50
275.0921697642102
 51
354.1866997667087
  0
LINE
  5
14079
330
747D
100
AcDbEntity
  8
部品1
100
AcDbLine
 10
12666.36369102848
 20
4794.863288203229
 30
0.0
 11
12991.81870467152
 21
4777.345229244369
 31
0.0
  0
TEXT
  5
1407A
330
747D
100
AcDbEntity
  8
部品1
100
AcDbText
 10
12559.52947298091
 20
1635.81691063289
 30
0.0
 40
135.0
  1
側面図
  7
STYLE2
100
AcDbText
  0
LWPOLYLINE
  5
1407B
330
747D
100
AcDbEntity
  8
部品1
100
AcDbPolyline
 90
        4
 70
     1
 43
0.0
 10
12470.0833715573
 20
1828.710439851413
 10
12470.0833715573
 20
1588.81811830588
 10
13233.55403778574
 20
1588.81811830588
 10
13233.55403778574
 20
1828.710439851413
  0
LINE
  5
1407C
330
747D
100
AcDbEntity
  8
部品1
100
AcDbLine
 10
11659.81870467152
 20
4413.799910811657
 30
0.0
 11
11659.81870467152
 21
2188.112805903256
 31
0.0
  0
LINE
  5
1407D
330
747D
100
AcDbEntity
  8
部品1
100
AcDbLine
 10
11659.81870467152
 20
4413.799910811657
 30
0.0
 11
11736.81870467152
 21
4428.112805903256
 31
0.0
  0
LINE
  5
1407E
330
747D
100
AcDbEntity
  8
部品1
100
AcDbLine
 10
11736.81870467152
 20
2288.112805903256
 30
0.0
 11
11659.81870467152
 21
2288.112805903256
 31
0.0
  0
DIMENSION
  5
1407F
330
747D
100
AcDbEntity
  8
寸法
 48
50.0
100
AcDbDimension
  2
*D24
 10
11191.91006327426
 20
2354.112805903257
 30
0.0
 11
11099.89825225064
 21
3366.612805903259
 31
0.0
 70
    32
  1
有効開口部高サ<>
 71
     5
 42
2025.0
  3
INABA_S40
100
AcDbAlignedDimension
 13
11659.81870467152
 23
4379.112805903257
 33
0.0
 14
11659.81870467152
 24
2354.112805903256
 34
0.0
 50
90.0
100
AcDbRotatedDimension
1001
ACAD
1000
DSTYLE
1002
{
1070
    41
1040
0.5
1070
    44
1040
1.0
1070
   147
1040
0.8
1070
   271
1070
     2
1070
   272
1070
     2
1070
   289
1070
     3
1070
   340
1005
F706
1070
   343
1005
F744
1070
   344
1005
F744
1002
}
  0
LINE
  5
140BE
330
747D
100
AcDbEntity
  8
部品1
100
AcDbLine
 10
2974.695515348525
 20
7430.579896324147
 30
0.0
 11
2974.695515348525
 21
7458.579896324149
 31
0.0
  0
LINE
  5
140DD
330
747D
100
AcDbEntity
  8
部品1
100
AcDbLine
 10
5074.695515348525
 20
7430.579896324137
 30
0.0
 11
5074.695515348525
 21
7458.579896324142
 31
0.0
  0
LINE
  5
140DE
330
747D
100
AcDbEntity
  8
部品1
100
AcDbLine
 10
5074.695515348525
 20
7430.579896324137
 30
0.0
 11
5074.695515348525
 21
7458.579896324142
 31
0.0
  0
LINE
  5
14120
330
747D
100
AcDbEntity
  8
部品1
 48
50.0
100
AcDbLine
 10
2974.695515348525
 20
7458.579896324137
 30
0.0
 11
5074.695515348525
 21
7458.579896324137
 31
0.0
  0
LWPOLYLINE
  5
141D2
330
747D
100
AcDbEntity
  8
部品1
100
AcDbPolyline
 90
        4
 70
     1
 43
0.0
 10
5167.960182234317
 20
5904.796142913212
 10
5167.960182234317
 20
5664.90382136768
 10
5931.430848462762
 20
5664.90382136768
 10
5931.430848462762
 20
5904.796142913212
  0
TEXT
  5
141D3
330
747D
100
AcDbEntity
  8
部品1
100
AcDbText
 10
5257.879792063359
 20
5711.902613694689
 30
0.0
 40
135.0
  1
平面図
  7
STYLE2
100
AcDbText
  0
TEXT
  5
141D4
330
747D
100
AcDbEntity
  8
部品1
100
AcDbText
 10
5258.485585972259
 20
1635.816910632888
 30
0.0
 40
135.0
  1
正面図
  7
STYLE2
100
AcDbText
  0
LWPOLYLINE
  5
141D5
330
747D
100
AcDbEntity
  8
部品1
100
AcDbPolyline
 90
        4
 70
     1
 43
0.0
 10
5167.960182234303
 20
1828.710439851412
 10
5167.960182234303
 20
1588.818118305879
 10
5931.430848462747
 20
1588.818118305879
 10
5931.430848462747
 20
1828.710439851412
  0
TEXT
  5
141D6
330
747D
100
AcDbEntity
  8
文字
 62
     7
 48
50.0
100
AcDbText
 10
14505.34213575793
 20
483.8967129911411
 30
0.0
 40
160.0
  1
ＮＸＮ－１３６Ｈ
  7
STYLE2
100
AcDbText
  0
TEXT
  5
141D7
330
747D
100
AcDbEntity
  8
文字
 62
     7
 48
50.0
100
AcDbText
 10
13209.4053442172
 20
228.5435242569015
 30
0.0
 40
100.0
  1
○有効開口寸法 ： 1266×2025(mm)
  7
STYLE2
100
AcDbText
  0
TEXT
  5
141F5
330
747D
100
AcDbEntity
  8
文字
 62
     7
 48
50.0
100
AcDbText
 10
15022.63965474517
 20
9910.01374588373
 30
0.0
 40
100.0
  1
F12,Y10        1.0
  7
STYLE1
100
AcDbText
  0
TEXT
  5
141F6
330
747D
100
AcDbEntity
  8
文字
 62
     7
 48
50.0
100
AcDbText
 10
13583.1181901657
 20
9910.01374588373
 30
0.0
 40
100.0
  1
梁中
 41
0.9
  7
STYLE1
100
AcDbText
  0
TEXT
  5
141F7
330
747D
100
AcDbEntity
  8
文字
 62
     7
 48
50.0
100
AcDbText
 10
13248.77747366447
 20
8380.013745883728
 30
0.0
 40
100.0
  1
17
  7
STYLE1
100
AcDbText
  0
TEXT
  5
141F8
330
747D
100
AcDbEntity
  8
文字
 62
     7
 48
50.0
100
AcDbText
 10
13248.77747366447
 20
8550.013745883729
 30
0.0
 40
100.0
  1
16
  7
STYLE1
100
AcDbText
  0
TEXT
  5
141F9
330
747D
100
AcDbEntity
  8
文字
 62
     7
 48
50.0
100
AcDbText
 10
15022.63965474517
 20
8720.013745883726
 30
0.0
 40
100.0
  1
F12            1.0
  7
STYLE1
100
AcDbText
  0
TEXT
  5
141FA
330
747D
100
AcDbEntity
  8
文字
 62
     7
 48
50.0
100
AcDbText
 10
13583.11819016569
 20
8720.013745883733
 30
0.0
 40
100.0
  1
壁面扉枠左右
  7
STYLE1
100
AcDbText
  0
TEXT
  5
141FB
330
747D
100
AcDbEntity
  8
文字
 62
     7
 48
50.0
100
AcDbText
 10
15022.63965474517
 20
8890.013745883726
 30
0.0
 40
100.0
  1
F12            1.0
  7
STYLE1
100
AcDbText
  0
TEXT
  5
141FC
330
747D
100
AcDbEntity
  8
文字
 62
     7
 48
50.0
100
AcDbText
 10
15022.63965474515
 20
9060.013745883729
 30
0.0
 40
100.0
  1
F12            0.7
  7
STYLE1
100
AcDbText
  0
TEXT
  5
141FD
330
747D
100
AcDbEntity
  8
文字
 62
     7
 48
50.0
100
AcDbText
 10
13583.11819016569
 20
8890.013745883733
 30
0.0
 40
100.0
  1
壁面扉敷居
  7
STYLE1
100
AcDbText
  0
TEXT
  5
141FE
330
747D
100
AcDbEntity
  8
文字
 62
     7
 48
50.0
100
AcDbText
 10
13583.11819016569
 20
9060.013745883729
 30
0.0
 40
100.0
  1
壁面扉鴨居
  7
STYLE1
100
AcDbText
  0
LINE
  5
141FF
330
747D
100
AcDbEntity
  8
仕様書枠
 48
50.0
100
AcDbLine
 10
16307.19999999999
 20
8689.600000000003
 30
0.0
 11
13127.2
 21
8689.600000000007
 31
0.0
  0
LINE
  5
14200
330
747D
100
AcDbEntity
  8
仕様書枠
 48
50.0
100
AcDbLine
 10
16307.19999999999
 20
8519.600000000004
 30
0.0
 11
13127.2
 21
8519.600000000009
 31
0.0
  0
TEXT
  5
14201
330
747D
100
AcDbEntity
  8
文字
 62
     7
 48
50.0
100
AcDbText
 10
13583.11819016569
 20
8210.013745883729
 30
0.0
 40
100.0
  1
アンカープレート
  7
STYLE1
100
AcDbText
  0
TEXT
  5
14202
330
747D
100
AcDbEntity
  8
文字
 62
     7
 48
50.0
100
AcDbText
 10
15022.63965474515
 20
8210.013745883726
 30
0.0
 40
100.0
  1
F12            2.3
  7
STYLE1
100
AcDbText
  0
LINE
  5
14203
330
747D
100
AcDbEntity
  8
仕様書枠
 48
50.0
100
AcDbLine
 10
16307.2
 20
10049.6
 30
0.0
 11
13127.2
 21
10049.6
 31
0.0
  0
LINE
  5
14204
330
747D
100
AcDbEntity
  8
仕様書枠
 48
50.0
100
AcDbLine
 10
16307.2
 20
11409.6
 30
0.0
 11
13127.2
 21
11409.6
 31
0.0
  0
LINE
  5
14205
330
747D
100
AcDbEntity
  8
仕様書枠
 48
50.0
100
AcDbLine
 10
16307.19999999999
 20
7839.600000000007
 30
0.0
 11
16307.2
 21
11409.6
 31
0.0
  0
LINE
  5
14206
330
747D
100
AcDbEntity
  8
仕様書枠
 48
50.0
100
AcDbLine
 10
14785.2
 20
11409.59999999999
 30
0.0
 11
14785.19999999999
 21
8179.600000000005
 31
0.0
  0
LINE
  5
14207
330
747D
100
AcDbEntity
  8
仕様書枠
 48
50.0
100
AcDbLine
 10
13490.2
 20
11409.6
 30
0.0
 11
13490.20000000001
 21
8179.600000000005
 31
0.0
  0
LINE
  5
14208
330
747D
100
AcDbEntity
  8
仕様書枠
 48
50.0
100
AcDbLine
 10
16307.2
 20
11239.6
 30
0.0
 11
13127.2
 21
11239.6
 31
0.0
  0
LINE
  5
14209
330
747D
100
AcDbEntity
  8
仕様書枠
 48
50.0
100
AcDbLine
 10
16307.2
 20
10899.6
 30
0.0
 11
13127.2
 21
10899.6
 31
0.0
  0
LINE
  5
1420A
330
747D
100
AcDbEntity
  8
仕様書枠
 48
50.0
100
AcDbLine
 10
16307.2
 20
11069.6
 30
0.0
 11
13127.2
 21
11069.6
 31
0.0
  0
LINE
  5
1420B
330
747D
100
AcDbEntity
  8
仕様書枠
 48
50.0
100
AcDbLine
 10
16307.19999999999
 20
10559.6
 30
0.0
 11
13127.2
 21
10559.6
 31
0.0
  0
LINE
  5
1420C
330
747D
100
AcDbEntity
  8
仕様書枠
 48
50.0
100
AcDbLine
 10
16307.19999999999
 20
10389.6
 30
0.0
 11
13127.2
 21
10389.6
 31
0.0
  0
LINE
  5
1420D
330
747D
100
AcDbEntity
  8
仕様書枠
 48
50.0
100
AcDbLine
 10
16307.19999999999
 20
10729.6
 30
0.0
 11
13127.2
 21
10729.6
 31
0.0
  0
TEXT
  5
1420E
330
747D
100
AcDbEntity
  8
文字
 62
     7
 48
50.0
100
AcDbText
 10
13197.42518560407
 20
11270.01374588373
 30
0.0
 40
100.0
  1
品番
  7
STYLE1
100
AcDbText
  0
TEXT
  5
1420F
330
747D
100
AcDbEntity
  8
文字
 62
     7
 48
50.0
100
AcDbText
 10
13271.19032244792
 20
11100.01374588373
 30
0.0
 40
100.0
  1
1
  7
STYLE1
100
AcDbText
  0
TEXT
  5
14210
330
747D
100
AcDbEntity
  8
文字
 62
     7
 48
50.0
100
AcDbText
 10
13271.19032244792
 20
10930.01374588373
 30
0.0
 40
100.0
  1
2
  7
STYLE1
100
AcDbText
  0
TEXT
  5
14211
330
747D
100
AcDbEntity
  8
文字
 62
     7
 48
50.0
100
AcDbText
 10
13271.19032244792
 20
10590.01374588373
 30
0.0
 40
100.0
  1
4
  7
STYLE1
100
AcDbText
  0
TEXT
  5
14212
330
747D
100
AcDbEntity
  8
文字
 62
     7
 48
50.0
100
AcDbText
 10
13271.19032244792
 20
10760.01374588373
 30
0.0
 40
100.0
  1
3
  7
STYLE1
100
AcDbText
  0
TEXT
  5
14213
330
747D
100
AcDbEntity
  8
文字
 62
     7
 48
50.0
100
AcDbText
 10
13732.03840939434
 20
11270.01374588373
 30
0.0
 40
100.0
  1
部　　品　　名
  7
STYLE1
100
AcDbText
  0
TEXT
  5
14214
330
747D
100
AcDbEntity
  8
文字
 62
     7
 48
50.0
100
AcDbText
 10
14859.79774614482
 20
11270.01374588373
 30
0.0
 40
100.0
  1
材料（材質）　　単位mm
  7
STYLE1
100
AcDbText
  0
TEXT
  5
14215
330
747D
100
AcDbEntity
  8
文字
 62
     7
 48
50.0
100
AcDbText
 10
13583.11819016569
 20
11100.01374588373
 30
0.0
 40
100.0
  1
土台枠
  7
STYLE1
100
AcDbText
  0
TEXT
  5
14216
330
747D
100
AcDbEntity
  8
文字
 62
     7
 48
50.0
100
AcDbText
 10
13583.1181901657
 20
10760.01374588373
 30
0.0
 40
100.0
  1
柱
  7
STYLE1
100
AcDbText
  0
TEXT
  5
14217
330
747D
100
AcDbEntity
  8
文字
 62
     7
 48
50.0
100
AcDbText
 10
13583.11819016569
 20
10420.01374588373
 30
0.0
 40
100.0
  1
桁前後
  7
STYLE1
100
AcDbText
  0
TEXT
  5
14218
330
747D
100
AcDbEntity
  8
文字
 62
     7
 48
50.0
100
AcDbText
 10
13271.19032244792
 20
10420.01374588373
 30
0.0
 40
100.0
  1
5
  7
STYLE1
100
AcDbText
  0
TEXT
  5
14219
330
747D
100
AcDbEntity
  8
文字
 62
     7
 48
50.0
100
AcDbText
 10
13583.11819016569
 20
10250.01374588373
 30
0.0
 40
100.0
  1
妻板左右
  7
STYLE1
100
AcDbText
  0
TEXT
  5
1421A
330
747D
100
AcDbEntity
  8
文字
 62
     7
 48
50.0
100
AcDbText
 10
13248.77747366447
 20
9570.013745883729
 30
0.0
 40
100.0
  1
10
  7
STYLE1
100
AcDbText
  0
TEXT
  5
1421B
330
747D
100
AcDbEntity
  8
文字
 62
     7
 48
50.0
100
AcDbText
 10
13583.11819016568
 20
9400.013745883729
 30
0.0
 40
100.0
  1
壁パネル
  7
STYLE1
100
AcDbText
  0
TEXT
  5
1421C
330
747D
100
AcDbEntity
  8
文字
 62
     7
 48
50.0
100
AcDbText
 10
13583.11819016569
 20
9740.013745883729
 30
0.0
 40
100.0
  1
屋根パネル
  7
STYLE1
100
AcDbText
  0
TEXT
  5
1421D
330
747D
100
AcDbEntity
  8
文字
 62
     7
 48
50.0
100
AcDbText
 10
13583.11819016569
 20
10080.01374588373
 30
0.0
 40
100.0
  1
鼻隠シ前後
  7
STYLE1
100
AcDbText
  0
TEXT
  5
1421E
330
747D
100
AcDbEntity
  8
文字
 62
     7
 48
50.0
100
AcDbText
 10
13271.19032244792
 20
9910.01374588373
 30
0.0
 40
100.0
  1
8
  7
STYLE1
100
AcDbText
  0
TEXT
  5
1421F
330
747D
100
AcDbEntity
  8
文字
 62
     7
 48
50.0
100
AcDbText
 10
13271.19032244792
 20
9740.013745883729
 30
0.0
 40
100.0
  1
9
  7
STYLE1
100
AcDbText
  0
TEXT
  5
14220
330
747D
100
AcDbEntity
  8
文字
 62
     7
 48
50.0
100
AcDbText
 10
13271.19032244792
 20
10080.01374588373
 30
0.0
 40
100.0
  1
7
  7
STYLE1
100
AcDbText
  0
TEXT
  5
14221
330
747D
100
AcDbEntity
  8
文字
 62
     7
 48
50.0
100
AcDbText
 10
13271.19032244792
 20
10250.01374588373
 30
0.0
 40
100.0
  1
6
  7
STYLE1
100
AcDbText
  0
LINE
  5
14222
330
747D
100
AcDbEntity
  8
仕様書枠
 48
50.0
100
AcDbLine
 10
16307.19999999999
 20
9709.600000000001
 30
0.0
 11
13127.2
 21
9709.600000000001
 31
0.0
  0
LINE
  5
14223
330
747D
100
AcDbEntity
  8
仕様書枠
 48
50.0
100
AcDbLine
 10
16307.19999999999
 20
9369.600000000001
 30
0.0
 11
13127.2
 21
9369.600000000001
 31
0.0
  0
LINE
  5
14224
330
747D
100
AcDbEntity
  8
仕様書枠
 48
50.0
100
AcDbLine
 10
16307.19999999999
 20
9539.6
 30
0.0
 11
13127.2
 21
9539.6
 31
0.0
  0
LINE
  5
14225
330
747D
100
AcDbEntity
  8
仕様書枠
 48
50.0
100
AcDbLine
 10
16307.2
 20
10219.6
 30
0.0
 11
13127.2
 21
10219.6
 31
0.0
  0
LINE
  5
14226
330
747D
100
AcDbEntity
  8
仕様書枠
 48
50.0
100
AcDbLine
 10
16307.2
 20
9879.600000000001
 30
0.0
 11
13127.2
 21
9879.600000000001
 31
0.0
  0
TEXT
  5
14227
330
747D
100
AcDbEntity
  8
文字
 62
     7
 48
50.0
100
AcDbText
 10
13248.77747366447
 20
9400.013745883729
 30
0.0
 40
100.0
  1
11
  7
STYLE1
100
AcDbText
  0
LINE
  5
14228
330
747D
100
AcDbEntity
  8
仕様書枠
 48
50.0
100
AcDbLine
 10
16307.19999999999
 20
9199.600000000001
 30
0.0
 11
13127.2
 21
9199.600000000001
 31
0.0
  0
LINE
  5
14229
330
747D
100
AcDbEntity
  8
仕様書枠
 48
50.0
100
AcDbLine
 10
16307.19999999999
 20
8859.6
 30
0.0
 11
13127.2
 21
8859.600000000005
 31
0.0
  0
TEXT
  5
1422A
330
747D
100
AcDbEntity
  8
文字
 62
     7
 48
50.0
100
AcDbText
 10
13248.77747366448
 20
9060.013745883729
 30
0.0
 40
100.0
  1
13
  7
STYLE1
100
AcDbText
  0
TEXT
  5
1422B
330
747D
100
AcDbEntity
  8
文字
 62
     7
 48
50.0
100
AcDbText
 10
13248.77747366448
 20
9230.013745883729
 30
0.0
 40
100.0
  1
12
  7
STYLE1
100
AcDbText
  0
TEXT
  5
1422C
330
747D
100
AcDbEntity
  8
文字
 62
     7
 48
50.0
100
AcDbText
 10
15022.63965474517
 20
11100.01374588372
 30
0.0
 40
100.0
  1
F12            1.2
  7
STYLE1
100
AcDbText
  0
TEXT
  5
1422D
330
747D
100
AcDbEntity
  8
文字
 62
     7
 48
50.0
100
AcDbText
 10
15022.63965474518
 20
10760.01374588372
 30
0.0
 40
100.0
  1
F12            1.0
  7
STYLE1
100
AcDbText
  0
TEXT
  5
1422E
330
747D
100
AcDbEntity
  8
文字
 62
     7
 48
50.0
100
AcDbText
 10
15022.63965474516
 20
10420.01374588372
 30
0.0
 40
100.0
  1
Y10            1.0
  7
STYLE1
100
AcDbText
  0
TEXT
  5
1422F
330
747D
100
AcDbEntity
  8
文字
 62
     7
 48
50.0
100
AcDbText
 10
15022.63965474516
 20
10250.01374588372
 30
0.0
 40
100.0
  1
Y10            0.7
  7
STYLE1
100
AcDbText
  0
TEXT
  5
14230
330
747D
100
AcDbEntity
  8
文字
 62
     7
 48
50.0
100
AcDbText
 10
15022.63965474516
 20
10080.01374588372
 30
0.0
 40
100.0
  1
Y10            0.7
  7
STYLE1
100
AcDbText
  0
TEXT
  5
14231
330
747D
100
AcDbEntity
  8
文字
 62
     7
 48
50.0
100
AcDbText
 10
15022.63965474517
 20
9740.013745883725
 30
0.0
 40
100.0
  1
Y10            0.5
  7
STYLE1
100
AcDbText
  0
TEXT
  5
14232
330
747D
100
AcDbEntity
  8
文字
 62
     7
 48
50.0
100
AcDbText
 10
15022.63965474515
 20
9400.013745883725
 30
0.0
 40
100.0
  1
F12            0.7
  7
STYLE1
100
AcDbText
  0
LINE
  5
14233
330
747D
100
AcDbEntity
  8
仕様書枠
 48
50.0
100
AcDbLine
 10
16307.19999999999
 20
8349.600000000004
 30
0.0
 11
13127.19999999999
 21
8349.600000000007
 31
0.0
  0
LINE
  5
14234
330
747D
100
AcDbEntity
  8
仕様書枠
 48
50.0
100
AcDbLine
 10
16307.19999999999
 20
8009.600000000006
 30
0.0
 11
13127.19999999999
 21
8009.600000000006
 31
0.0
  0
TEXT
  5
14235
330
747D
100
AcDbEntity
  8
文字
 62
     7
 48
50.0
100
AcDbText
 10
13229.83081656554
 20
8040.013745883735
 30
0.0
 40
100.0
  1
F12→溶融亜鉛めっき鋼板(JIS G 3302)
  7
STYLE1
100
AcDbText
  0
TEXT
  5
14236
330
747D
100
AcDbEntity
  8
文字
 62
     7
 48
50.0
100
AcDbText
 10
13229.83081656554
 20
7870.013745883735
 30
0.0
 40
100.0
  1
Y10→溶融亜鉛-5％アルミニウム合金めっき鋼板(JIS G 3317)
 41
0.9
  7
STYLE1
100
AcDbText
  0
LINE
  5
14237
330
747D
100
AcDbEntity
  8
仕様書枠
 48
50.0
100
AcDbLine
 10
13127.2
 20
11409.6
 30
0.0
 11
13127.19999999999
 21
7839.600000000006
 31
0.0
  0
LINE
  5
14238
330
747D
100
AcDbEntity
  8
仕様書枠
 48
50.0
100
AcDbLine
 10
16307.19999999999
 20
9029.6
 30
0.0
 11
13127.2
 21
9029.600000000003
 31
0.0
  0
TEXT
  5
14239
330
747D
100
AcDbEntity
  8
文字
 62
     7
 48
50.0
100
AcDbText
 10
13583.1181901657
 20
10590.01374588373
 30
0.0
 40
100.0
  1
床パネル
 41
0.9
  7
STYLE1
100
AcDbText
  0
TEXT
  5
1423A
330
747D
100
AcDbEntity
  8
文字
 62
     7
 48
50.0
100
AcDbText
 10
13583.11819016569
 20
10930.01374588373
 30
0.0
 40
100.0
  1
根太
  7
STYLE1
100
AcDbText
  0
TEXT
  5
1423B
330
747D
100
AcDbEntity
  8
文字
 62
     7
 48
50.0
100
AcDbText
 10
13248.77747366448
 20
8890.013745883729
 30
0.0
 40
100.0
  1
14
  7
STYLE1
100
AcDbText
  0
TEXT
  5
1423C
330
747D
100
AcDbEntity
  8
文字
 62
     7
 48
50.0
100
AcDbText
 10
15022.63965474516
 20
10930.01374588372
 30
0.0
 40
100.0
  1
F12            1.2
  7
STYLE1
100
AcDbText
  0
TEXT
  5
1423D
330
747D
100
AcDbEntity
  8
文字
 62
     7
 48
50.0
100
AcDbText
 10
15022.63965474517
 20
10590.01374588372
 30
0.0
 40
100.0
  1
F12            1.0
  7
STYLE1
100
AcDbText
  0
TEXT
  5
1423E
330
747D
100
AcDbEntity
  8
文字
 62
     7
 48
50.0
100
AcDbText
 10
15022.63965474515
 20
8550.013745883729
 30
0.0
 40
100.0
  1
F12            0.7
  7
STYLE1
100
AcDbText
  0
TEXT
  5
1423F
330
747D
100
AcDbEntity
  8
文字
 62
     7
 48
50.0
100
AcDbText
 10
13583.11819016568
 20
8550.013745883733
 30
0.0
 40
100.0
  1
正面パネル
  7
STYLE1
100
AcDbText
  0
TEXT
  5
14240
330
747D
100
AcDbEntity
  8
文字
 62
     7
 48
50.0
100
AcDbText
 10
15022.63965474516
 20
8380.013745883728
 30
0.0
 40
100.0
  1
F12            0.8
  7
STYLE1
100
AcDbText
  0
TEXT
  5
14241
330
747D
100
AcDbEntity
  8
文字
 62
     7
 48
50.0
100
AcDbText
 10
13583.11819016569
 20
8380.013745883733
 30
0.0
 40
100.0
  1
扉
  7
STYLE1
100
AcDbText
  0
LINE
  5
14242
330
747D
100
AcDbEntity
  8
仕様書枠
 48
50.0
100
AcDbLine
 10
16307.19999999998
 20
7839.600000000006
 30
0.0
 11
13127.19999999999
 21
7839.600000000006
 31
0.0
  0
TEXT
  5
14243
330
747D
100
AcDbEntity
  8
文字
 62
     7
 48
50.0
100
AcDbText
 10
13248.77747366447
 20
8720.013745883729
 30
0.0
 40
100.0
  1
15
  7
STYLE1
100
AcDbText
  0
TEXT
  5
14244
330
747D
100
AcDbEntity
  8
文字
 62
     7
 48
50.0
100
AcDbText
 10
13583.11819016569
 20
9570.013745883729
 30
0.0
 40
100.0
  1
母屋中
  7
STYLE1
100
AcDbText
  0
DIMENSION
  5
145EC
330
747D
100
AcDbEntity
  8
寸法
 48
50.0
100
AcDbDimension
  2
*D27
 10
2449.695515348525
 20
4875.654391161502
 30
0.0
 11
2136.210233974278
 21
4875.654391161502
 31
0.0
 70
   160
 71
     5
 42
50.0
  3
INABA_S40G
100
AcDbAlignedDimension
 13
2499.695515348526
 23
4663.112805903264
 33
0.0
 14
2449.695515348525
 24
4663.112805903263
 34
0.0
100
AcDbRotatedDimension
1001
ACAD
1000
DSTYLE
1002
{
1002
}
  0
DIMENSION
  5
145ED
330
747D
100
AcDbEntity
  8
寸法
 48
50.0
100
AcDbDimension
  2
*D26
 10
8649.695515348529
 20
5096.559691635249
 30
0.0
 11
5549.695515348527
 21
5096.559691635249
 31
0.0
 70
   160
 71
     5
 42
6200.000000000003
  3
INABA_S40G
100
AcDbAlignedDimension
 13
2449.695515348525
 23
4663.112805903263
 33
0.0
 14
8649.695515348529
 24
4663.112805903258
 34
0.0
100
AcDbRotatedDimension
  0
DIMENSION
  5
145EE
330
747D
100
AcDbEntity
  8
寸法
 48
50.0
100
AcDbDimension
  2
*D25
 10
2499.695515348526
 20
4875.6543911615
 30
0.0
 11
5549.695515348527
 21
4875.6543911615
 31
0.0
 70
   160
  1
柱外寸法<>
 71
     5
 42
6100.000000000004
  3
INABA_S40G
100
AcDbAlignedDimension
 13
8599.695515348528
 23
4663.112805903259
 33
0.0
 14
2499.695515348526
 24
4663.112805903264
 34
0.0
100
AcDbRotatedDimension
  0
LINE
  5
145EF
330
747D
100
AcDbEntity
  8
細線
 48
50.0
100
AcDbLine
 10
2482.695515348525
 20
4663.112805903261
 30
0.0
 11
2482.695515348525
 21
4522.112805903261
 31
0.0
  0
ARC
  5
145F0
330
747D
100
AcDbEntity
  8
部品1
100
AcDbCircle
 10
2457.103936454954
 20
4656.112805903261
 30
0.0
 40
7.0
100
AcDbArc
 50
90.0
 51
183.2473427903377
  0
ARC
  5
145F1
330
747D
100
AcDbEntity
  8
部品1
100
AcDbCircle
 10
2470.319259915989
 20
4529.112805903262
 30
0.0
 40
7.0
100
AcDbArc
 50
183.2473427903377
 51
270.0
  0
ARC
  5
145F2
330
747D
100
AcDbEntity
  8
部品1
 48
50.0
100
AcDbCircle
 10
2451.947449705313
 20
4635.779805064948
 30
0.0
 40
0.7
100
AcDbArc
 50
183.2473427903897
 51
262.3418727926349
  0
ARC
  5
145F3
330
747D
100
AcDbEntity
  8
部品1
 48
50.0
100
AcDbCircle
 10
2460.183480230153
 20
4543.579805064943
 30
0.0
 40
0.7
100
AcDbArc
 50
183.2473427902856
 51
262.3418727926349
  0
ARC
  5
145F4
330
747D
100
AcDbEntity
  8
部品1
 48
50.0
100
AcDbCircle
 10
2459.690411121592
 20
4539.912805903259
 30
0.0
 40
3.0
100
AcDbArc
 50
3.247342790337682
 51
82.3418727926348
  0
ARC
  5
145F5
330
747D
100
AcDbEntity
  8
部品1
 48
50.0
100
AcDbCircle
 10
2451.454380596748
 20
4632.112805903262
 30
0.0
 40
3.0
100
AcDbArc
 50
3.247342790337682
 51
82.3418727926348
  0
LINE
  5
145F6
330
747D
100
AcDbEntity
  8
部品1
100
AcDbLine
 10
2454.449563492934
 20
4632.282745358364
 30
0.0
 11
2459.484604221045
 21
4543.540152525421
 31
0.0
  0
LINE
  5
145F7
330
747D
100
AcDbEntity
  8
部品1
100
AcDbLine
 10
2462.685594017781
 20
4540.082745358364
 30
0.0
 11
2463.33049982489
 21
4528.716280508024
 31
0.0
  0
LINE
  5
145F8
330
747D
100
AcDbEntity
  8
部品1
100
AcDbLine
 10
2450.115176363855
 20
4655.716280508022
 30
0.0
 11
2451.248573696205
 21
4635.740152525421
 31
0.0
  0
LINE
  5
145F9
330
747D
100
AcDbEntity
  8
部品1
 48
50.0
100
AcDbLine
 10
8642.287094242096
 20
4663.112805903259
 30
0.0
 11
2457.103936454954
 21
4663.112805903258
 31
0.0
  0
LINE
  5
145FA
330
747D
100
AcDbEntity
  8
細線
 48
50.0
100
AcDbLine
 10
8647.536864332705
 20
4635.086048466527
 30
0.0
 11
2451.854166358939
 21
4635.086048467257
 31
0.0
  0
LINE
  5
145FB
330
747D
100
AcDbEntity
  8
細線
 48
50.0
100
AcDbLine
 10
8639.300833807885
 20
4542.886048466528
 30
0.0
 11
2460.090196883772
 21
4542.886048467256
 31
0.0
  0
LINE
  5
145FC
330
747D
100
AcDbEntity
  8
部品1
 48
50.0
100
AcDbLine
 10
8629.071770781061
 20
4522.11280590326
 30
0.0
 11
2470.319259915989
 21
4522.112805903261
 31
0.0
  0
LINE
  5
14640
330
747D
100
AcDbEntity
  8
部品1
100
AcDbLine
 10
8649.275854333195
 20
4655.716280508019
 30
0.0
 11
8648.142457000849
 21
4635.740152525419
 31
0.0
  0
LINE
  5
14641
330
747D
100
AcDbEntity
  8
細線
 48
50.0
100
AcDbLine
 10
8616.69551534853
 20
4663.112805903258
 30
0.0
 11
8616.69551534853
 21
4522.112805903257
 31
0.0
  0
LINE
  5
14642
330
747D
100
AcDbEntity
  8
部品1
100
AcDbLine
 10
8636.705436679273
 20
4540.08274535836
 30
0.0
 11
8636.06053087216
 21
4528.71628050802
 31
0.0
  0
LINE
  5
14643
330
747D
100
AcDbEntity
  8
部品1
100
AcDbLine
 10
8644.941467204118
 20
4632.282745358361
 30
0.0
 11
8639.906426476006
 21
4543.540152525419
 31
0.0
  0
ARC
  5
14644
330
747D
100
AcDbEntity
  8
部品1
 48
50.0
100
AcDbCircle
 10
8647.936650100303
 20
4632.11280590326
 30
0.0
 40
3.0
100
AcDbArc
 50
97.65812720736519
 51
176.7526572096623
  0
ARC
  5
14645
330
747D
100
AcDbEntity
  8
部品1
 48
50.0
100
AcDbCircle
 10
8639.700619575458
 20
4539.912805903258
 30
0.0
 40
3.0
100
AcDbArc
 50
97.65812720736519
 51
176.7526572096623
  0
ARC
  5
14646
330
747D
100
AcDbEntity
  8
部品1
 48
50.0
100
AcDbCircle
 10
8639.207550466897
 20
4543.579805064941
 30
0.0
 40
0.7
100
AcDbArc
 50
277.6581272073652
 51
356.7526572097143
  0
ARC
  5
14647
330
747D
100
AcDbEntity
  8
部品1
 48
50.0
100
AcDbCircle
 10
8647.44358099174
 20
4635.779805064945
 30
0.0
 40
0.7
100
AcDbArc
 50
277.6581272073652
 51
356.7526572096103
  0
ARC
  5
14648
330
747D
100
AcDbEntity
  8
部品1
100
AcDbCircle
 10
8629.071770781061
 20
4529.11280590326
 30
0.0
 40
7.0
100
AcDbArc
 50
270.0
 51
356.7526572096623
  0
ARC
  5
14649
330
747D
100
AcDbEntity
  8
部品1
100
AcDbCircle
 10
8642.287094242096
 20
4656.112805903258
 30
0.0
 40
7.0
100
AcDbArc
 50
356.7526572096623
 51
90.0
  0
DIMENSION
  5
1464A
330
747D
100
AcDbEntity
  8
寸法
 48
50.0
100
AcDbDimension
  2
*D28
 10
8599.695515348528
 20
4875.654391161499
 30
0.0
 11
8963.180796722765
 21
4875.654391161499
 31
0.0
 70
   160
 71
     5
 42
50.0
  3
INABA_S40G
100
AcDbAlignedDimension
 13
8649.695515348529
 23
4663.112805903258
 33
0.0
 14
8599.695515348528
 24
4663.112805903259
 34
0.0
100
AcDbRotatedDimension
  0
LINE
  5
14676
330
747D
100
AcDbEntity
  8
細線
100
AcDbLine
 10
3409.695515348516
 20
4487.612805903254
 30
0.0
 11
3409.695515348516
 21
4464.612805903254
 31
0.0
  0
LINE
  5
14677
330
747D
100
AcDbEntity
  8
細線
100
AcDbLine
 10
3483.695515348516
 20
4475.612805903255
 30
0.0
 11
3409.695515348516
 21
4475.612805903255
 31
0.0
  0
LINE
  5
14678
330
747D
100
AcDbEntity
  8
細線
100
AcDbLine
 10
3483.695515348516
 20
4469.612805903252
 30
0.0
 11
3409.695515348516
 21
4469.612805903254
 31
0.0
  0
LINE
  5
14679
330
747D
100
AcDbEntity
  8
細線
100
AcDbLine
 10
3483.695515348516
 20
4481.612805903252
 30
0.0
 11
3409.695515348516
 21
4481.612805903254
 31
0.0
  0
LINE
  5
1467A
330
747D
100
AcDbEntity
  8
細線
100
AcDbLine
 10
3335.695515348515
 20
4481.612805903254
 30
0.0
 11
3404.695515348516
 21
4481.612805903254
 31
0.0
  0
LINE
  5
1467B
330
747D
100
AcDbEntity
  8
細線
100
AcDbLine
 10
3335.695515348515
 20
4469.612805903254
 30
0.0
 11
3409.695515348516
 21
4469.612805903254
 31
0.0
  0
LINE
  5
1467C
330
747D
100
AcDbEntity
  8
細線
100
AcDbLine
 10
3335.695515348515
 20
4475.612805903255
 30
0.0
 11
3409.695515348516
 21
4475.612805903255
 31
0.0
  0
LINE
  5
1467D
330
747D
100
AcDbEntity
  8
細線
100
AcDbLine
 10
3335.695515348515
 20
4481.612805903254
 30
0.0
 11
3409.695515348516
 21
4481.612805903254
 31
0.0
  0
LINE
  5
1467E
330
747D
100
AcDbEntity
  8
部品1
 48
0.01
100
AcDbLine
 10
3497.695515348516
 20
4494.112805903254
 30
0.0
 11
3321.695515348516
 21
4494.112805903254
 31
0.0
  0
LINE
  5
1467F
330
747D
100
AcDbEntity
  8
部品1
 48
0.01
100
AcDbLine
 10
3319.695515348516
 20
4492.112805903254
 30
0.0
 11
3319.695515348516
 21
4460.612805903254
 31
0.0
  0
LINE
  5
14680
330
747D
100
AcDbEntity
  8
部品1
 48
0.01
100
AcDbLine
 10
3321.695515348516
 20
4458.612805903254
 30
0.0
 11
3497.695515348516
 21
4458.612805903254
 31
0.0
  0
LINE
  5
14681
330
747D
100
AcDbEntity
  8
部品1
 48
0.01
100
AcDbLine
 10
3499.695515348515
 20
4460.612805903254
 30
0.0
 11
3499.695515348515
 21
4492.112805903254
 31
0.0
  0
LINE
  5
14682
330
747D
100
AcDbEntity
  8
細線
100
AcDbLine
 10
3335.695515348515
 20
4487.612805903254
 30
0.0
 11
3335.695515348515
 21
4464.612805903254
 31
0.0
  0
LINE
  5
14683
330
747D
100
AcDbEntity
  8
細線
100
AcDbLine
 10
3483.695515348516
 20
4464.612805903254
 30
0.0
 11
3483.695515348516
 21
4487.612805903254
 31
0.0
  0
LINE
  5
14684
330
747D
100
AcDbEntity
  8
細線
100
AcDbLine
 10
3483.695515348516
 20
4487.612805903254
 30
0.0
 11
3409.695515348516
 21
4487.612805903254
 31
0.0
  0
LINE
  5
14685
330
747D
100
AcDbEntity
  8
細線
100
AcDbLine
 10
3335.695515348515
 20
4464.612805903254
 30
0.0
 11
3409.695515348516
 21
4464.612805903254
 31
0.0
  0
LINE
  5
14686
330
747D
100
AcDbEntity
  8
細線
100
AcDbLine
 10
3409.695515348516
 20
4487.612805903254
 30
0.0
 11
3335.695515348515
 21
4487.612805903254
 31
0.0
  0
LINE
  5
14687
330
747D
100
AcDbEntity
  8
細線
100
AcDbLine
 10
3409.695515348516
 20
4464.612805903254
 30
0.0
 11
3483.695515348516
 21
4464.612805903254
 31
0.0
  0
ARC
  5
14688
330
747D
100
AcDbEntity
  8
部品1
 48
0.01
100
AcDbCircle
 10
3321.695515348516
 20
4492.112805903254
 30
0.0
 40
2.0
100
AcDbArc
 50
90.0
 51
180.0
  0
ARC
  5
14689
330
747D
100
AcDbEntity
  8
部品1
 48
0.01
100
AcDbCircle
 10
3321.695515348516
 20
4460.612805903254
 30
0.0
 40
2.0
100
AcDbArc
 50
180.0
 51
270.0
  0
ARC
  5
1468A
330
747D
100
AcDbEntity
  8
部品1
 48
0.01
100
AcDbCircle
 10
3497.695515348516
 20
4492.112805903254
 30
0.0
 40
2.0
100
AcDbArc
 50
0.0
 51
90.0
  0
ARC
  5
1468B
330
747D
100
AcDbEntity
  8
部品1
 48
0.01
100
AcDbCircle
 10
3497.695515348516
 20
4460.612805903254
 30
0.0
 40
2.0
100
AcDbArc
 50
270.0
 51
0.0
  0
ARC
  5
1468C
330
747D
100
AcDbEntity
  8
部品1
 48
0.01
100
AcDbCircle
 10
4551.695515348534
 20
4460.612805903256
 30
0.0
 40
2.0
100
AcDbArc
 50
180.0
 51
270.0
  0
ARC
  5
1468D
330
747D
100
AcDbEntity
  8
部品1
 48
0.01
100
AcDbCircle
 10
4551.695515348534
 20
4492.112805903256
 30
0.0
 40
2.0
100
AcDbArc
 50
90.0
 51
180.0
  0
ARC
  5
1468E
330
747D
100
AcDbEntity
  8
部品1
 48
0.01
100
AcDbCircle
 10
4727.695515348534
 20
4460.612805903256
 30
0.0
 40
2.0
100
AcDbArc
 50
270.0
 51
0.0
  0
ARC
  5
1468F
330
747D
100
AcDbEntity
  8
部品1
 48
0.01
100
AcDbCircle
 10
4727.695515348534
 20
4492.112805903256
 30
0.0
 40
2.0
100
AcDbArc
 50
0.0
 51
90.0
  0
LINE
  5
14690
330
747D
100
AcDbEntity
  8
細線
100
AcDbLine
 10
4639.695515348534
 20
4464.612805903256
 30
0.0
 11
4565.695515348534
 21
4464.612805903256
 31
0.0
  0
LINE
  5
14691
330
747D
100
AcDbEntity
  8
細線
100
AcDbLine
 10
4639.695515348534
 20
4487.612805903256
 30
0.0
 11
4713.695515348534
 21
4487.612805903256
 31
0.0
  0
LINE
  5
14692
330
747D
100
AcDbEntity
  8
細線
100
AcDbLine
 10
4713.695515348534
 20
4464.612805903256
 30
0.0
 11
4639.695515348534
 21
4464.612805903256
 31
0.0
  0
LINE
  5
14693
330
747D
100
AcDbEntity
  8
細線
100
AcDbLine
 10
4565.695515348534
 20
4487.612805903256
 30
0.0
 11
4639.695515348534
 21
4487.612805903256
 31
0.0
  0
LINE
  5
14694
330
747D
100
AcDbEntity
  8
細線
100
AcDbLine
 10
4565.695515348534
 20
4464.612805903256
 30
0.0
 11
4565.695515348534
 21
4487.612805903256
 31
0.0
  0
LINE
  5
14695
330
747D
100
AcDbEntity
  8
細線
100
AcDbLine
 10
4713.695515348534
 20
4487.612805903256
 30
0.0
 11
4713.695515348534
 21
4464.612805903256
 31
0.0
  0
LINE
  5
14696
330
747D
100
AcDbEntity
  8
部品1
 48
0.01
100
AcDbLine
 10
4549.695515348534
 20
4460.612805903256
 30
0.0
 11
4549.695515348534
 21
4492.112805903256
 31
0.0
  0
LINE
  5
14697
330
747D
100
AcDbEntity
  8
部品1
 48
0.01
100
AcDbLine
 10
4727.695515348534
 20
4458.612805903256
 30
0.0
 11
4551.695515348534
 21
4458.612805903256
 31
0.0
  0
LINE
  5
14698
330
747D
100
AcDbEntity
  8
部品1
 48
0.01
100
AcDbLine
 10
4729.695515348534
 20
4492.112805903256
 30
0.0
 11
4729.695515348534
 21
4460.612805903256
 31
0.0
  0
LINE
  5
14699
330
747D
100
AcDbEntity
  8
部品1
 48
0.01
100
AcDbLine
 10
4551.695515348534
 20
4494.112805903256
 30
0.0
 11
4727.695515348534
 21
4494.112805903256
 31
0.0
  0
LINE
  5
1469A
330
747D
100
AcDbEntity
  8
細線
100
AcDbLine
 10
4713.695515348534
 20
4481.612805903256
 30
0.0
 11
4639.695515348534
 21
4481.612805903256
 31
0.0
  0
LINE
  5
1469B
330
747D
100
AcDbEntity
  8
細線
100
AcDbLine
 10
4713.695515348534
 20
4475.612805903256
 30
0.0
 11
4639.695515348534
 21
4475.612805903256
 31
0.0
  0
LINE
  5
1469C
330
747D
100
AcDbEntity
  8
細線
100
AcDbLine
 10
4713.695515348534
 20
4469.612805903255
 30
0.0
 11
4639.695515348534
 21
4469.612805903255
 31
0.0
  0
LINE
  5
1469D
330
747D
100
AcDbEntity
  8
細線
100
AcDbLine
 10
4713.695515348534
 20
4481.612805903256
 30
0.0
 11
4644.695515348534
 21
4481.612805903256
 31
0.0
  0
LINE
  5
1469E
330
747D
100
AcDbEntity
  8
細線
100
AcDbLine
 10
4565.695515348534
 20
4481.612805903254
 30
0.0
 11
4639.695515348534
 21
4481.612805903256
 31
0.0
  0
LINE
  5
1469F
330
747D
100
AcDbEntity
  8
細線
100
AcDbLine
 10
4565.695515348534
 20
4469.612805903254
 30
0.0
 11
4639.695515348534
 21
4469.612805903255
 31
0.0
  0
LINE
  5
146A0
330
747D
100
AcDbEntity
  8
細線
100
AcDbLine
 10
4565.695515348534
 20
4475.612805903256
 30
0.0
 11
4639.695515348534
 21
4475.612805903256
 31
0.0
  0
LINE
  5
146A1
330
747D
100
AcDbEntity
  8
細線
100
AcDbLine
 10
4639.695515348534
 20
4487.612805903256
 30
0.0
 11
4639.695515348534
 21
4464.612805903256
 31
0.0
  0
LINE
  5
146A4
330
747D
100
AcDbEntity
  8
細線
100
AcDbLine
 10
7689.695515348534
 20
4487.612805903256
 30
0.0
 11
7689.695515348534
 21
4464.612805903256
 31
0.0
  0
LINE
  5
146A5
330
747D
100
AcDbEntity
  8
細線
100
AcDbLine
 10
7615.695515348534
 20
4475.612805903256
 30
0.0
 11
7689.695515348534
 21
4475.612805903256
 31
0.0
  0
LINE
  5
146A6
330
747D
100
AcDbEntity
  8
細線
100
AcDbLine
 10
7615.695515348534
 20
4469.612805903254
 30
0.0
 11
7689.695515348534
 21
4469.612805903255
 31
0.0
  0
LINE
  5
146A7
330
747D
100
AcDbEntity
  8
細線
100
AcDbLine
 10
7615.695515348534
 20
4481.612805903254
 30
0.0
 11
7689.695515348534
 21
4481.612805903256
 31
0.0
  0
LINE
  5
146A8
330
747D
100
AcDbEntity
  8
細線
100
AcDbLine
 10
7763.695515348534
 20
4481.612805903256
 30
0.0
 11
7694.695515348534
 21
4481.612805903256
 31
0.0
  0
LINE
  5
146A9
330
747D
100
AcDbEntity
  8
細線
100
AcDbLine
 10
7763.695515348534
 20
4469.612805903255
 30
0.0
 11
7689.695515348534
 21
4469.612805903255
 31
0.0
  0
LINE
  5
146AA
330
747D
100
AcDbEntity
  8
細線
100
AcDbLine
 10
7763.695515348534
 20
4475.612805903256
 30
0.0
 11
7689.695515348534
 21
4475.612805903256
 31
0.0
  0
LINE
  5
146AB
330
747D
100
AcDbEntity
  8
細線
100
AcDbLine
 10
7763.695515348534
 20
4481.612805903256
 30
0.0
 11
7689.695515348534
 21
4481.612805903256
 31
0.0
  0
LINE
  5
146AC
330
747D
100
AcDbEntity
  8
部品1
 48
0.01
100
AcDbLine
 10
7601.695515348534
 20
4494.112805903256
 30
0.0
 11
7777.695515348534
 21
4494.112805903256
 31
0.0
  0
LINE
  5
146AD
330
747D
100
AcDbEntity
  8
部品1
 48
0.01
100
AcDbLine
 10
7779.695515348534
 20
4492.112805903256
 30
0.0
 11
7779.695515348534
 21
4460.612805903256
 31
0.0
  0
LINE
  5
146AE
330
747D
100
AcDbEntity
  8
部品1
 48
0.01
100
AcDbLine
 10
7777.695515348534
 20
4458.612805903256
 30
0.0
 11
7601.695515348534
 21
4458.612805903256
 31
0.0
  0
LINE
  5
146AF
330
747D
100
AcDbEntity
  8
部品1
 48
0.01
100
AcDbLine
 10
7599.695515348535
 20
4460.612805903256
 30
0.0
 11
7599.695515348535
 21
4492.112805903256
 31
0.0
  0
LINE
  5
146B0
330
747D
100
AcDbEntity
  8
細線
100
AcDbLine
 10
7763.695515348534
 20
4487.612805903256
 30
0.0
 11
7763.695515348534
 21
4464.612805903256
 31
0.0
  0
LINE
  5
146B1
330
747D
100
AcDbEntity
  8
細線
100
AcDbLine
 10
7615.695515348534
 20
4464.612805903256
 30
0.0
 11
7615.695515348534
 21
4487.612805903256
 31
0.0
  0
LINE
  5
146B2
330
747D
100
AcDbEntity
  8
細線
100
AcDbLine
 10
7615.695515348534
 20
4487.612805903256
 30
0.0
 11
7689.695515348534
 21
4487.612805903256
 31
0.0
  0
LINE
  5
146B3
330
747D
100
AcDbEntity
  8
細線
100
AcDbLine
 10
7763.695515348534
 20
4464.612805903256
 30
0.0
 11
7689.695515348534
 21
4464.612805903256
 31
0.0
  0
LINE
  5
146B4
330
747D
100
AcDbEntity
  8
細線
100
AcDbLine
 10
7689.695515348534
 20
4487.612805903256
 30
0.0
 11
7763.695515348534
 21
4487.612805903256
 31
0.0
  0
LINE
  5
146B5
330
747D
100
AcDbEntity
  8
細線
100
AcDbLine
 10
7689.695515348534
 20
4464.612805903256
 30
0.0
 11
7615.695515348534
 21
4464.612805903256
 31
0.0
  0
ARC
  5
146B6
330
747D
100
AcDbEntity
  8
部品1
 48
0.01
100
AcDbCircle
 10
7777.695515348534
 20
4492.112805903256
 30
0.0
 40
2.0
100
AcDbArc
 50
0.0
 51
90.0
  0
ARC
  5
146B7
330
747D
100
AcDbEntity
  8
部品1
 48
0.01
100
AcDbCircle
 10
7777.695515348534
 20
4460.612805903256
 30
0.0
 40
2.0
100
AcDbArc
 50
270.0
 51
0.0
  0
ARC
  5
146B8
330
747D
100
AcDbEntity
  8
部品1
 48
0.01
100
AcDbCircle
 10
7601.695515348534
 20
4492.112805903256
 30
0.0
 40
2.0
100
AcDbArc
 50
90.0
 51
180.0
  0
ARC
  5
146B9
330
747D
100
AcDbEntity
  8
部品1
 48
0.01
100
AcDbCircle
 10
7601.695515348534
 20
4460.612805903256
 30
0.0
 40
2.0
100
AcDbArc
 50
180.0
 51
270.0
  0
ARC
  5
146BA
330
747D
100
AcDbEntity
  8
部品1
 48
0.01
100
AcDbCircle
 10
6547.695515348516
 20
4460.612805903254
 30
0.0
 40
2.0
100
AcDbArc
 50
270.0
 51
0.0
  0
ARC
  5
146BB
330
747D
100
AcDbEntity
  8
部品1
 48
0.01
100
AcDbCircle
 10
6547.695515348516
 20
4492.112805903254
 30
0.0
 40
2.0
100
AcDbArc
 50
0.0
 51
90.0
  0
ARC
  5
146BC
330
747D
100
AcDbEntity
  8
部品1
 48
0.01
100
AcDbCircle
 10
6371.695515348516
 20
4460.612805903254
 30
0.0
 40
2.0
100
AcDbArc
 50
180.0
 51
270.0
  0
ARC
  5
146BD
330
747D
100
AcDbEntity
  8
部品1
 48
0.01
100
AcDbCircle
 10
6371.695515348516
 20
4492.112805903254
 30
0.0
 40
2.0
100
AcDbArc
 50
90.0
 51
180.0
  0
LINE
  5
146BE
330
747D
100
AcDbEntity
  8
細線
100
AcDbLine
 10
6459.695515348515
 20
4464.612805903254
 30
0.0
 11
6533.695515348516
 21
4464.612805903254
 31
0.0
  0
LINE
  5
146BF
330
747D
100
AcDbEntity
  8
細線
100
AcDbLine
 10
6459.695515348515
 20
4487.612805903254
 30
0.0
 11
6385.695515348515
 21
4487.612805903254
 31
0.0
  0
LINE
  5
146C0
330
747D
100
AcDbEntity
  8
細線
100
AcDbLine
 10
6385.695515348515
 20
4464.612805903254
 30
0.0
 11
6459.695515348515
 21
4464.612805903254
 31
0.0
  0
LINE
  5
146C1
330
747D
100
AcDbEntity
  8
細線
100
AcDbLine
 10
6533.695515348516
 20
4487.612805903254
 30
0.0
 11
6459.695515348515
 21
4487.612805903254
 31
0.0
  0
LINE
  5
146C2
330
747D
100
AcDbEntity
  8
細線
100
AcDbLine
 10
6533.695515348516
 20
4464.612805903254
 30
0.0
 11
6533.695515348516
 21
4487.612805903254
 31
0.0
  0
LINE
  5
146C3
330
747D
100
AcDbEntity
  8
細線
100
AcDbLine
 10
6385.695515348515
 20
4487.612805903254
 30
0.0
 11
6385.695515348515
 21
4464.612805903254
 31
0.0
  0
LINE
  5
146C4
330
747D
100
AcDbEntity
  8
部品1
 48
0.01
100
AcDbLine
 10
6549.695515348516
 20
4460.612805903254
 30
0.0
 11
6549.695515348516
 21
4492.112805903254
 31
0.0
  0
LINE
  5
146C5
330
747D
100
AcDbEntity
  8
部品1
 48
0.01
100
AcDbLine
 10
6371.695515348516
 20
4458.612805903254
 30
0.0
 11
6547.695515348516
 21
4458.612805903254
 31
0.0
  0
LINE
  5
146C6
330
747D
100
AcDbEntity
  8
部品1
 48
0.01
100
AcDbLine
 10
6369.695515348516
 20
4492.112805903254
 30
0.0
 11
6369.695515348516
 21
4460.612805903254
 31
0.0
  0
LINE
  5
146C7
330
747D
100
AcDbEntity
  8
部品1
 48
0.01
100
AcDbLine
 10
6547.695515348516
 20
4494.112805903254
 30
0.0
 11
6371.695515348516
 21
4494.112805903254
 31
0.0
  0
LINE
  5
146C8
330
747D
100
AcDbEntity
  8
細線
100
AcDbLine
 10
6385.695515348515
 20
4481.612805903254
 30
0.0
 11
6459.695515348515
 21
4481.612805903254
 31
0.0
  0
LINE
  5
146C9
330
747D
100
AcDbEntity
  8
細線
100
AcDbLine
 10
6385.695515348515
 20
4475.612805903255
 30
0.0
 11
6459.695515348515
 21
4475.612805903255
 31
0.0
  0
LINE
  5
146CA
330
747D
100
AcDbEntity
  8
細線
100
AcDbLine
 10
6385.695515348515
 20
4469.612805903254
 30
0.0
 11
6459.695515348515
 21
4469.612805903254
 31
0.0
  0
LINE
  5
146CB
330
747D
100
AcDbEntity
  8
細線
100
AcDbLine
 10
6385.695515348515
 20
4481.612805903254
 30
0.0
 11
6454.695515348515
 21
4481.612805903254
 31
0.0
  0
LINE
  5
146CC
330
747D
100
AcDbEntity
  8
細線
100
AcDbLine
 10
6533.695515348516
 20
4481.612805903252
 30
0.0
 11
6459.695515348515
 21
4481.612805903254
 31
0.0
  0
LINE
  5
146CD
330
747D
100
AcDbEntity
  8
細線
100
AcDbLine
 10
6533.695515348516
 20
4469.612805903252
 30
0.0
 11
6459.695515348515
 21
4469.612805903254
 31
0.0
  0
LINE
  5
146CE
330
747D
100
AcDbEntity
  8
細線
100
AcDbLine
 10
6533.695515348516
 20
4475.612805903255
 30
0.0
 11
6459.695515348515
 21
4475.612805903255
 31
0.0
  0
LINE
  5
146CF
330
747D
100
AcDbEntity
  8
細線
100
AcDbLine
 10
6459.695515348515
 20
4487.612805903254
 30
0.0
 11
6459.695515348515
 21
4464.612805903254
 31
0.0
  0
LINE
  5
146D0
330
747D
100
AcDbEntity
  8
部品1
100
AcDbLine
 10
2974.695515348525
 20
4428.112805903258
 30
0.0
 11
2974.695515348525
 21
4423.112805903256
 31
0.0
  0
LINE
  5
146D1
330
747D
100
AcDbEntity
  8
部品1
100
AcDbLine
 10
5074.695515348525
 20
4428.112805903258
 30
0.0
 11
5074.695515348525
 21
4423.112805903256
 31
0.0
  0
LINE
  5
146D2
330
747D
100
AcDbEntity
  8
部品1
 48
50.0
100
AcDbLine
 10
2977.695515348525
 20
4379.112805903257
 30
0.0
 11
2947.695515348525
 21
4379.112805903257
 31
0.0
  0
LINE
  5
146D3
330
747D
100
AcDbEntity
  8
細線
 48
50.0
100
AcDbLine
 10
5071.695515348525
 20
4371.112805903256
 30
0.0
 11
2977.695515348525
 21
4371.112805903256
 31
0.0
  0
LINE
  5
146D4
330
747D
100
AcDbEntity
  8
細線
 48
50.0
100
AcDbLine
 10
5071.695515348525
 20
4380.612805903257
 30
0.0
 11
2977.695515348525
 21
4380.612805903257
 31
0.0
  0
LINE
  5
146D5
330
747D
100
AcDbEntity
  8
部品1
 48
50.0
100
AcDbLine
 10
5101.695515348525
 20
4423.112805903256
 30
0.0
 11
2947.695515348525
 21
4423.112805903256
 31
0.0
  0
LINE
  5
146D6
330
747D
100
AcDbEntity
  8
細線
 48
50.0
100
AcDbLine
 10
5101.695515348525
 20
4413.112805903256
 30
0.0
 11
2947.695515348525
 21
4413.112805903256
 31
0.0
  0
LINE
  5
146D7
330
747D
100
AcDbEntity
  8
部品1
 48
50.0
100
AcDbLine
 10
5101.695515348525
 20
4379.112805903257
 30
0.0
 11
5071.695515348525
 21
4379.112805903257
 31
0.0
  0
LINE
  5
146D8
330
747D
100
AcDbEntity
  8
細線
 48
50.0
100
AcDbLine
 10
3775.695515348525
 20
2345.612805903256
 30
0.0
 11
5045.695515348525
 21
2345.612805903256
 31
0.0
  0
LINE
  5
146D9
330
747D
100
AcDbEntity
  8
細線
 48
50.0
100
AcDbLine
 10
5049.695515348525
 20
2335.112805903256
 30
0.0
 11
5045.695515348525
 21
2345.612805903256
 31
0.0
  0
LINE
  5
146DA
330
747D
100
AcDbEntity
  8
部品1
 48
50.0
100
AcDbLine
 10
2947.695515348525
 20
4423.112805903256
 30
0.0
 11
2947.695515348523
 21
2188.112805903256
 31
0.0
  0
LINE
  5
146DB
330
747D
100
AcDbEntity
  8
部品1
 48
50.0
100
AcDbLine
 10
2977.695515348525
 20
2338.112805903256
 30
0.0
 11
2977.695515348525
 21
4371.112805903256
 31
0.0
  0
LINE
  5
146DC
330
747D
100
AcDbEntity
  8
細線
 48
50.0
100
AcDbLine
 10
2977.695515348525
 20
4380.612805903257
 30
0.0
 11
2977.695515348525
 21
2288.112805903256
 31
0.0
  0
LINE
  5
146DD
330
747D
100
AcDbEntity
  8
部品1
 48
50.0
100
AcDbLine
 10
2986.695515348525
 20
2338.112805903256
 30
0.0
 11
2986.695515348525
 21
2335.112805903256
 31
0.0
  0
LINE
  5
146DE
330
747D
100
AcDbEntity
  8
細線
 48
50.0
100
AcDbLine
 10
2977.695515348525
 20
2331.112805903256
 30
0.0
 11
5071.695515348525
 21
2331.112805903256
 31
0.0
  0
LINE
  5
146DF
330
747D
100
AcDbEntity
  8
細線
 48
50.0
100
AcDbLine
 10
2977.695515348525
 20
2335.112805903256
 30
0.0
 11
5071.695515348525
 21
2335.112805903256
 31
0.0
  0
LINE
  5
146E0
330
747D
100
AcDbEntity
  8
部品1
 48
50.0
100
AcDbLine
 10
2977.695515348525
 20
2338.112805903256
 30
0.0
 11
3775.695515348525
 21
2338.112805903256
 31
0.0
  0
LINE
  5
146E1
330
747D
100
AcDbEntity
  8
部品1
 48
50.0
100
AcDbLine
 10
3775.695515348525
 20
4371.112805903256
 30
0.0
 11
3775.695515348525
 21
2338.112805903256
 31
0.0
  0
LINE
  5
146E2
330
747D
100
AcDbEntity
  8
部品1
 48
50.0
100
AcDbLine
 10
5062.695515348526
 20
2335.112805903256
 30
0.0
 11
5062.695515348526
 21
4371.112805903256
 31
0.0
  0
LINE
  5
146E3
330
747D
100
AcDbEntity
  8
細線
 48
50.0
100
AcDbLine
 10
5071.695515348525
 20
2288.112805903256
 30
0.0
 11
5071.695515348525
 21
4380.612805903257
 31
0.0
  0
LINE
  5
146E4
330
747D
100
AcDbEntity
  8
部品1
 48
50.0
100
AcDbLine
 10
5101.695515348524
 20
2188.112805903256
 30
0.0
 11
5101.695515348525
 21
4423.112805903256
 31
0.0
  0
LINE
  5
146E5
330
747D
100
AcDbEntity
  8
部品1
 48
50.0
100
AcDbLine
 10
4426.695515348525
 20
4371.112805903256
 30
0.0
 11
4426.695515348525
 21
2345.612805903256
 31
0.0
  0
LINE
  5
146E6
330
747D
100
AcDbEntity
  8
細線
100
AcDbLine
 10
4561.195515348525
 20
4371.112805903258
 30
0.0
 11
4561.195515348525
 21
2345.612805903275
 31
0.0
  0
LINE
  5
146E7
330
747D
100
AcDbEntity
  8
細線
100
AcDbLine
 10
3835.695515348525
 20
4371.112805903258
 30
0.0
 11
3835.695515348525
 21
2345.61280590327
 31
0.0
  0
LINE
  5
146E8
330
747D
100
AcDbEntity
  8
細線
100
AcDbLine
 10
3905.695515348526
 20
4371.112805903258
 30
0.0
 11
3905.695515348526
 21
2345.61280590327
 31
0.0
  0
LINE
  5
146E9
330
747D
100
AcDbEntity
  8
細線
100
AcDbLine
 10
3191.695515348525
 20
4371.112805903258
 30
0.0
 11
3191.695515348525
 21
2338.112805903261
 31
0.0
  0
LINE
  5
146EA
330
747D
100
AcDbEntity
  8
細線
100
AcDbLine
 10
3261.695515348525
 20
4371.112805903258
 30
0.0
 11
3261.695515348525
 21
2338.112805903261
 31
0.0
  0
LINE
  5
14704
330
747D
100
AcDbEntity
  8
部品1
 48
50.0
100
AcDbLine
 10
3021.695515348525
 20
3419.612805903258
 30
0.0
 11
3074.695515348525
 21
3419.612805903258
 31
0.0
  0
LINE
  5
14708
330
747D
100
AcDbEntity
  8
細線
100
AcDbLine
 10
4631.195515348525
 20
4371.112805903258
 30
0.0
 11
4631.195515348525
 21
2345.612805903275
 31
0.0
  0
LINE
  5
14709
330
747D
100
AcDbEntity
  8
細線
100
AcDbLine
 10
4701.195515348525
 20
4371.112805903258
 30
0.0
 11
4701.195515348525
 21
2345.612805903275
 31
0.0
  0
LINE
  5
1470A
330
747D
100
AcDbEntity
  8
細線
100
AcDbLine
 10
4771.195515348525
 20
4371.112805903258
 30
0.0
 11
4771.195515348525
 21
2345.612805903275
 31
0.0
  0
LINE
  5
1470B
330
747D
100
AcDbEntity
  8
細線
100
AcDbLine
 10
4841.195515348525
 20
4371.112805903258
 30
0.0
 11
4841.195515348525
 21
2345.612805903275
 31
0.0
  0
LINE
  5
1470C
330
747D
100
AcDbEntity
  8
細線
100
AcDbLine
 10
4911.195515348525
 20
4371.112805903258
 30
0.0
 11
4911.195515348525
 21
2345.612805903275
 31
0.0
  0
LINE
  5
1470D
330
747D
100
AcDbEntity
  8
細線
100
AcDbLine
 10
3975.695515348525
 20
4371.112805903258
 30
0.0
 11
3975.695515348525
 21
2345.61280590327
 31
0.0
  0
LINE
  5
1470E
330
747D
100
AcDbEntity
  8
細線
100
AcDbLine
 10
4045.695515348525
 20
4371.112805903258
 30
0.0
 11
4045.695515348525
 21
2345.61280590327
 31
0.0
  0
LINE
  5
1470F
330
747D
100
AcDbEntity
  8
細線
100
AcDbLine
 10
4115.695515348525
 20
4371.112805903258
 30
0.0
 11
4115.695515348525
 21
2345.61280590327
 31
0.0
  0
LINE
  5
14710
330
747D
100
AcDbEntity
  8
細線
100
AcDbLine
 10
4185.695515348525
 20
4371.112805903258
 30
0.0
 11
4185.695515348525
 21
2345.61280590327
 31
0.0
  0
LINE
  5
14711
330
747D
100
AcDbEntity
  8
細線
100
AcDbLine
 10
4255.695515348525
 20
4371.112805903258
 30
0.0
 11
4255.695515348525
 21
2345.61280590327
 31
0.0
  0
LINE
  5
14712
330
747D
100
AcDbEntity
  8
細線
100
AcDbLine
 10
4325.695515348525
 20
4371.112805903258
 30
0.0
 11
4325.695515348525
 21
2345.61280590327
 31
0.0
  0
LINE
  5
14713
330
747D
100
AcDbEntity
  8
細線
100
AcDbLine
 10
3105.695515348525
 20
4371.112805903258
 30
0.0
 11
3105.695515348525
 21
2338.112805903262
 31
0.0
  0
LINE
  5
14714
330
747D
100
AcDbEntity
  8
細線
100
AcDbLine
 10
3139.695515348525
 20
4371.112805903258
 30
0.0
 11
3139.695515348525
 21
2338.112805903262
 31
0.0
  0
LINE
  5
14715
330
747D
100
AcDbEntity
  8
部品1
100
AcDbLine
 10
3097.695515348525
 20
4371.112805903258
 30
0.0
 11
3097.695515348525
 21
2338.112805903262
 31
0.0
  0
LINE
  5
14716
330
747D
100
AcDbEntity
  8
部品1
100
AcDbLine
 10
3147.695515348525
 20
4371.112805903258
 30
0.0
 11
3147.695515348525
 21
2338.112805903262
 31
0.0
  0
LINE
  5
14717
330
747D
100
AcDbEntity
  8
細線
100
AcDbLine
 10
3331.695515348525
 20
4371.112805903258
 30
0.0
 11
3331.695515348525
 21
2338.112805903261
 31
0.0
  0
LINE
  5
14718
330
747D
100
AcDbEntity
  8
細線
100
AcDbLine
 10
3401.695515348525
 20
4371.112805903258
 30
0.0
 11
3401.695515348525
 21
2338.112805903261
 31
0.0
  0
LINE
  5
14719
330
747D
100
AcDbEntity
  8
細線
100
AcDbLine
 10
3471.695515348525
 20
4371.112805903258
 30
0.0
 11
3471.695515348525
 21
2338.112805903261
 31
0.0
  0
LINE
  5
1471A
330
747D
100
AcDbEntity
  8
細線
100
AcDbLine
 10
3541.695515348525
 20
4371.112805903258
 30
0.0
 11
3541.695515348525
 21
2338.112805903262
 31
0.0
  0
LINE
  5
1471B
330
747D
100
AcDbEntity
  8
細線
100
AcDbLine
 10
3611.695515348525
 20
4371.112805903258
 30
0.0
 11
3611.695515348525
 21
2338.112805903264
 31
0.0
  0
LINE
  5
1471C
330
747D
100
AcDbEntity
  8
細線
100
AcDbLine
 10
3681.695515348526
 20
4371.112805903258
 30
0.0
 11
3681.695515348526
 21
2338.112805903264
 31
0.0
  0
LINE
  5
1471D
330
747D
100
AcDbEntity
  8
部品1
100
AcDbLine
 10
4426.695515348518
 20
4371.112805903258
 30
0.0
 11
4426.695515348525
 21
2345.612805903272
 31
0.0
  0
LINE
  5
1471E
330
747D
100
AcDbEntity
  8
部品1
 48
50.0
100
AcDbLine
 10
3775.695515348525
 20
4371.112805903258
 30
0.0
 11
3775.695515348525
 21
2338.112805903257
 31
0.0
  0
LINE
  5
14720
330
747D
100
AcDbEntity
  8
細線
 48
50.0
100
AcDbLine
 10
8202.195515348529
 20
4428.112805903256
 30
0.0
 11
8202.195515348529
 21
2338.112805903256
 31
0.0
  0
LINE
  5
14721
330
747D
100
AcDbEntity
  8
細線
 48
50.0
100
AcDbLine
 10
8187.195515348529
 20
4428.112805903256
 30
0.0
 11
8187.195515348529
 21
2338.112805903256
 31
0.0
  0
LINE
  5
14722
330
747D
100
AcDbEntity
  8
細線
 48
50.0
100
AcDbLine
 10
8327.195515348529
 20
4428.112805903256
 30
0.0
 11
8327.195515348529
 21
2338.112805903256
 31
0.0
  0
LINE
  5
14723
330
747D
100
AcDbEntity
  8
細線
 48
50.0
100
AcDbLine
 10
8342.195515348528
 20
4428.112805903256
 30
0.0
 11
8342.195515348528
 21
2338.112805903256
 31
0.0
  0
LINE
  5
14724
330
747D
100
AcDbEntity
  8
細線
 48
50.0
100
AcDbLine
 10
8482.195515348529
 20
4428.112805903256
 30
0.0
 11
8482.195515348529
 21
2338.112805903256
 31
0.0
  0
LINE
  5
14725
330
747D
100
AcDbEntity
  8
細線
 48
50.0
100
AcDbLine
 10
8467.195515348528
 20
4428.112805903256
 30
0.0
 11
8467.195515348528
 21
2338.112805903256
 31
0.0
  0
LINE
  5
14726
330
747D
100
AcDbEntity
  8
細線
 48
50.0
100
AcDbLine
 10
7782.195515348525
 20
4428.112805903256
 30
0.0
 11
7782.195515348525
 21
2338.112805903256
 31
0.0
  0
LINE
  5
14727
330
747D
100
AcDbEntity
  8
細線
 48
50.0
100
AcDbLine
 10
7767.195515348525
 20
4428.112805903256
 30
0.0
 11
7767.195515348525
 21
2338.112805903256
 31
0.0
  0
LINE
  5
14728
330
747D
100
AcDbEntity
  8
細線
 48
50.0
100
AcDbLine
 10
7907.195515348525
 20
4428.112805903256
 30
0.0
 11
7907.195515348525
 21
2338.112805903256
 31
0.0
  0
LINE
  5
14729
330
747D
100
AcDbEntity
  8
細線
 48
50.0
100
AcDbLine
 10
7922.195515348525
 20
4428.112805903256
 30
0.0
 11
7922.195515348525
 21
2338.112805903256
 31
0.0
  0
LINE
  5
1472A
330
747D
100
AcDbEntity
  8
細線
 48
50.0
100
AcDbLine
 10
8062.195515348525
 20
4428.112805903256
 30
0.0
 11
8062.195515348525
 21
2338.112805903256
 31
0.0
  0
LINE
  5
1472B
330
747D
100
AcDbEntity
  8
細線
 48
50.0
100
AcDbLine
 10
8047.195515348525
 20
4428.112805903256
 30
0.0
 11
8047.195515348525
 21
2338.112805903256
 31
0.0
  0
LINE
  5
1472C
330
747D
100
AcDbEntity
  8
細線
 48
50.0
100
AcDbLine
 10
7627.195515348525
 20
4428.112805903256
 30
0.0
 11
7627.195515348525
 21
2338.112805903256
 31
0.0
  0
LINE
  5
1472D
330
747D
100
AcDbEntity
  8
細線
 48
50.0
100
AcDbLine
 10
7642.195515348525
 20
4428.112805903256
 30
0.0
 11
7642.195515348525
 21
2338.112805903256
 31
0.0
  0
LINE
  5
1472E
330
747D
100
AcDbEntity
  8
細線
 48
50.0
100
AcDbLine
 10
7502.195515348525
 20
4428.112805903256
 30
0.0
 11
7502.195515348525
 21
2338.112805903256
 31
0.0
  0
LINE
  5
1472F
330
747D
100
AcDbEntity
  8
細線
 48
50.0
100
AcDbLine
 10
7487.195515348524
 20
4428.112805903256
 30
0.0
 11
7487.195515348524
 21
2338.112805903256
 31
0.0
  0
LINE
  5
14730
330
747D
100
AcDbEntity
  8
細線
 48
50.0
100
AcDbLine
 10
7347.195515348525
 20
4428.112805903256
 30
0.0
 11
7347.195515348525
 21
2338.112805903256
 31
0.0
  0
LINE
  5
14731
330
747D
100
AcDbEntity
  8
細線
 48
50.0
100
AcDbLine
 10
7362.195515348524
 20
4428.112805903256
 30
0.0
 11
7362.195515348524
 21
2338.112805903256
 31
0.0
  0
LINE
  5
14732
330
747D
100
AcDbEntity
  8
細線
 48
50.0
100
AcDbLine
 10
6942.195515348521
 20
4428.112805903256
 30
0.0
 11
6942.195515348521
 21
2338.112805903256
 31
0.0
  0
LINE
  5
14733
330
747D
100
AcDbEntity
  8
細線
 48
50.0
100
AcDbLine
 10
6927.195515348522
 20
4428.112805903256
 30
0.0
 11
6927.195515348522
 21
2338.112805903256
 31
0.0
  0
LINE
  5
14734
330
747D
100
AcDbEntity
  8
細線
 48
50.0
100
AcDbLine
 10
7067.195515348521
 20
4428.112805903256
 30
0.0
 11
7067.195515348521
 21
2338.112805903256
 31
0.0
  0
LINE
  5
14735
330
747D
100
AcDbEntity
  8
細線
 48
50.0
100
AcDbLine
 10
7082.195515348522
 20
4428.112805903256
 30
0.0
 11
7082.195515348522
 21
2338.112805903256
 31
0.0
  0
LINE
  5
14736
330
747D
100
AcDbEntity
  8
細線
 48
50.0
100
AcDbLine
 10
7222.195515348521
 20
4428.112805903256
 30
0.0
 11
7222.195515348521
 21
2338.112805903256
 31
0.0
  0
LINE
  5
14737
330
747D
100
AcDbEntity
  8
細線
 48
50.0
100
AcDbLine
 10
7207.195515348522
 20
4428.112805903256
 30
0.0
 11
7207.195515348522
 21
2338.112805903256
 31
0.0
  0
LINE
  5
14738
330
747D
100
AcDbEntity
  8
細線
 48
50.0
100
AcDbLine
 10
6787.195515348525
 20
4428.112805903256
 30
0.0
 11
6787.195515348521
 21
2338.112805903256
 31
0.0
  0
LINE
  5
14739
330
747D
100
AcDbEntity
  8
細線
 48
50.0
100
AcDbLine
 10
6802.195515348525
 20
4428.112805903256
 30
0.0
 11
6802.195515348521
 21
2338.112805903256
 31
0.0
  0
LINE
  5
1473A
330
747D
100
AcDbEntity
  8
細線
 48
50.0
100
AcDbLine
 10
6662.195515348525
 20
4428.112805903256
 30
0.0
 11
6662.195515348521
 21
2338.112805903256
 31
0.0
  0
LINE
  5
1473B
330
747D
100
AcDbEntity
  8
細線
 48
50.0
100
AcDbLine
 10
6647.195515348525
 20
4428.112805903256
 30
0.0
 11
6647.195515348521
 21
2338.112805903256
 31
0.0
  0
LINE
  5
1473C
330
747D
100
AcDbEntity
  8
細線
 48
50.0
100
AcDbLine
 10
6507.195515348525
 20
4428.112805903256
 30
0.0
 11
6507.195515348522
 21
2338.112805903256
 31
0.0
  0
LINE
  5
1473D
330
747D
100
AcDbEntity
  8
細線
 48
50.0
100
AcDbLine
 10
6522.195515348525
 20
4428.112805903256
 30
0.0
 11
6522.195515348521
 21
2338.112805903256
 31
0.0
  0
LINE
  5
1473E
330
747D
100
AcDbEntity
  8
細線
 48
50.0
100
AcDbLine
 10
5682.195515348513
 20
4428.112805903256
 30
0.0
 11
5682.195515348508
 21
2338.112805903256
 31
0.0
  0
LINE
  5
1473F
330
747D
100
AcDbEntity
  8
細線
 48
50.0
100
AcDbLine
 10
5667.195515348512
 20
4428.112805903256
 30
0.0
 11
5667.195515348509
 21
2338.112805903256
 31
0.0
  0
LINE
  5
14740
330
747D
100
AcDbEntity
  8
細線
 48
50.0
100
AcDbLine
 10
5807.195515348513
 20
4428.112805903256
 30
0.0
 11
5807.195515348508
 21
2338.112805903256
 31
0.0
  0
LINE
  5
14741
330
747D
100
AcDbEntity
  8
細線
 48
50.0
100
AcDbLine
 10
5822.195515348512
 20
4428.112805903256
 30
0.0
 11
5822.195515348509
 21
2338.112805903256
 31
0.0
  0
LINE
  5
14742
330
747D
100
AcDbEntity
  8
細線
 48
50.0
100
AcDbLine
 10
5962.195515348512
 20
4428.112805903256
 30
0.0
 11
5962.195515348509
 21
2338.112805903256
 31
0.0
  0
LINE
  5
14743
330
747D
100
AcDbEntity
  8
細線
 48
50.0
100
AcDbLine
 10
5947.195515348512
 20
4428.112805903256
 30
0.0
 11
5947.195515348509
 21
2338.112805903256
 31
0.0
  0
LINE
  5
14744
330
747D
100
AcDbEntity
  8
細線
 48
50.0
100
AcDbLine
 10
6367.195515348509
 20
4428.112805903256
 30
0.0
 11
6367.195515348509
 21
2338.112805903256
 31
0.0
  0
LINE
  5
14745
330
747D
100
AcDbEntity
  8
細線
 48
50.0
100
AcDbLine
 10
6382.195515348509
 20
4428.112805903256
 30
0.0
 11
6382.195515348509
 21
2338.112805903256
 31
0.0
  0
LINE
  5
14746
330
747D
100
AcDbEntity
  8
細線
 48
50.0
100
AcDbLine
 10
6242.195515348509
 20
4428.112805903256
 30
0.0
 11
6242.195515348509
 21
2338.112805903256
 31
0.0
  0
LINE
  5
14747
330
747D
100
AcDbEntity
  8
細線
 48
50.0
100
AcDbLine
 10
6227.195515348508
 20
4428.112805903256
 30
0.0
 11
6227.195515348508
 21
2338.112805903256
 31
0.0
  0
LINE
  5
14748
330
747D
100
AcDbEntity
  8
細線
 48
50.0
100
AcDbLine
 10
6087.195515348509
 20
4428.112805903256
 30
0.0
 11
6087.195515348509
 21
2338.112805903256
 31
0.0
  0
LINE
  5
14749
330
747D
100
AcDbEntity
  8
細線
 48
50.0
100
AcDbLine
 10
6102.195515348508
 20
4428.112805903256
 30
0.0
 11
6102.195515348508
 21
2338.112805903256
 31
0.0
  0
LINE
  5
1474A
330
747D
100
AcDbEntity
  8
細線
 48
50.0
100
AcDbLine
 10
5417.195515348512
 20
4428.112805903256
 30
0.0
 11
5417.195515348509
 21
2338.112805903256
 31
0.0
  0
LINE
  5
1474B
330
747D
100
AcDbEntity
  8
細線
 48
50.0
100
AcDbLine
 10
5432.195515348513
 20
4428.112805903256
 30
0.0
 11
5432.195515348508
 21
2338.112805903256
 31
0.0
  0
LINE
  5
1474C
330
747D
100
AcDbEntity
  8
細線
 48
50.0
100
AcDbLine
 10
5292.195515348512
 20
4428.112805903256
 30
0.0
 11
5292.195515348509
 21
2338.112805903256
 31
0.0
  0
LINE
  5
1474D
330
747D
100
AcDbEntity
  8
細線
 48
50.0
100
AcDbLine
 10
5277.195515348513
 20
4428.112805903256
 30
0.0
 11
5277.195515348509
 21
2338.112805903256
 31
0.0
  0
LINE
  5
1474E
330
747D
100
AcDbEntity
  8
細線
 48
50.0
100
AcDbLine
 10
5137.195515348512
 20
4428.112805903256
 30
0.0
 11
5137.195515348508
 21
2338.112805903256
 31
0.0
  0
LINE
  5
1474F
330
747D
100
AcDbEntity
  8
細線
 48
50.0
100
AcDbLine
 10
5152.195515348513
 20
4428.112805903256
 30
0.0
 11
5152.195515348509
 21
2338.112805903256
 31
0.0
  0
LINE
  5
14750
330
747D
100
AcDbEntity
  8
細線
 48
50.0
100
AcDbLine
 10
2897.195515348512
 20
4428.112805903256
 30
0.0
 11
2897.195515348509
 21
2338.112805903256
 31
0.0
  0
LINE
  5
14751
330
747D
100
AcDbEntity
  8
細線
 48
50.0
100
AcDbLine
 10
2912.195515348513
 20
4428.112805903256
 30
0.0
 11
2912.195515348509
 21
2338.112805903256
 31
0.0
  0
LINE
  5
14752
330
747D
100
AcDbEntity
  8
細線
 48
50.0
100
AcDbLine
 10
2772.195515348512
 20
4428.112805903256
 30
0.0
 11
2772.195515348509
 21
2338.112805903256
 31
0.0
  0
LINE
  5
14753
330
747D
100
AcDbEntity
  8
細線
 48
50.0
100
AcDbLine
 10
2757.195515348513
 20
4428.112805903256
 30
0.0
 11
2757.195515348509
 21
2338.112805903256
 31
0.0
  0
LINE
  5
14754
330
747D
100
AcDbEntity
  8
細線
 48
50.0
100
AcDbLine
 10
2617.195515348513
 20
4428.112805903256
 30
0.0
 11
2617.195515348509
 21
2338.112805903256
 31
0.0
  0
LINE
  5
14755
330
747D
100
AcDbEntity
  8
細線
 48
50.0
100
AcDbLine
 10
2632.195515348513
 20
4428.112805903256
 30
0.0
 11
2632.195515348509
 21
2338.112805903256
 31
0.0
  0
LINE
  5
148B1
330
747D
100
AcDbEntity
  8
寸法
 48
50.0
100
AcDbLine
 10
3409.898521630371
 20
7208.616647893001
 30
0.0
 11
3358.492513720268
 21
7208.616647893001
 31
0.0
  0
LINE
  5
148B2
330
747D
100
AcDbEntity
  8
寸法
 48
50.0
100
AcDbLine
 10
3358.492513720268
 20
7208.616647893001
 30
0.0
 11
3358.492513720268
 21
7239.926806545167
 31
0.0
  0
LINE
  5
148B3
330
747D
100
AcDbEntity
  8
寸法
 48
50.0
100
AcDbLine
 10
3358.492513720268
 20
7239.926806545167
 30
0.0
 11
3328.731181728844
 21
7239.926806545167
 31
0.0
  0
LINE
  5
148B4
330
747D
100
AcDbEntity
  8
寸法
 48
50.0
100
AcDbLine
 10
3328.731181728844
 20
7239.926806545167
 30
0.0
 11
3384.195517675319
 21
7277.506257473778
 31
0.0
  0
LINE
  5
148B5
330
747D
100
AcDbEntity
  8
寸法
 48
50.0
100
AcDbLine
 10
3439.659853621794
 20
7239.926806545167
 30
0.0
 11
3384.195517675319
 21
7277.506257473778
 31
0.0
  0
LINE
  5
148B6
330
747D
100
AcDbEntity
  8
寸法
 48
50.0
100
AcDbLine
 10
3409.898521630371
 20
7239.926806545167
 30
0.0
 11
3439.659853621794
 21
7239.926806545167
 31
0.0
  0
LINE
  5
148B7
330
747D
100
AcDbEntity
  8
寸法
 48
50.0
100
AcDbLine
 10
3409.898521630371
 20
7208.616647893001
 30
0.0
 11
3409.898521630371
 21
7239.926806545167
 31
0.0
  0
LINE
  5
148B8
330
747D
100
AcDbEntity
  8
寸法
 48
50.0
100
AcDbLine
 10
3358.492513720268
 20
7208.616647893001
 30
0.0
 11
3409.898521630371
 21
7208.616647893001
 31
0.0
  0
LINE
  5
148B9
330
747D
100
AcDbEntity
  8
寸法
 48
50.0
100
AcDbLine
 10
3689.064055907228
 20
7265.762238647823
 30
0.0
 11
3689.064055907228
 21
7212.098604066034
 31
0.0
  0
LINE
  5
148BA
330
747D
100
AcDbEntity
  8
寸法
 48
50.0
100
AcDbLine
 10
3778.34827450265
 20
7241.838604378337
 30
0.0
 11
3689.064055907228
 21
7265.762238647823
 31
0.0
  0
LINE
  5
148BB
330
747D
100
AcDbEntity
  8
寸法
 48
50.0
100
AcDbLine
 10
3559.196334326924
 20
7241.838604378337
 30
0.0
 11
3778.34827450265
 21
7241.838604378337
 31
0.0
  0
LINE
  5
148BC
330
747D
100
AcDbEntity
  8
細線
 48
50.0
100
AcDbLine
 10
4435.69551534853
 20
7407.080011272864
 30
0.0
 11
5062.695515348526
 21
7407.080011272864
 31
0.0
  0
LINE
  5
148BD
330
747D
100
AcDbEntity
  8
細線
 48
50.0
100
AcDbLine
 10
3781.695520002116
 20
7373.371242718788
 30
0.0
 11
5062.695515348526
 21
7373.371242718788
 31
0.0
  0
LINE
  5
148BE
330
747D
100
AcDbEntity
  8
細線
 48
50.0
100
AcDbLine
 10
3740.69552000212
 20
7402.776150715041
 30
0.0
 11
2986.695515348526
 21
7402.776150715038
 31
0.0
  0
LINE
  5
148BF
330
747D
100
AcDbEntity
  8
細線
100
AcDbLine
 10
4838.44550593207
 20
7426.579911237872
 30
0.0
 11
4840.777045453878
 21
7431.579913877833
 31
0.0
  0
LINE
  5
148C0
330
747D
100
AcDbEntity
  8
細線
100
AcDbLine
 10
4908.445515348527
 20
7426.579896324138
 30
0.0
 11
4906.11396887234
 21
7431.579913877818
 31
0.0
  0
LINE
  5
148C1
330
747D
100
AcDbEntity
  8
細線
100
AcDbLine
 10
4906.11396887234
 20
7431.579913877818
 30
0.0
 11
4840.777045453864
 21
7431.579913877804
 31
0.0
  0
LINE
  5
148C2
330
747D
100
AcDbEntity
  8
細線
100
AcDbLine
 10
4766.113968872339
 20
7431.579913877818
 30
0.0
 11
4700.777045453864
 21
7431.579913877804
 31
0.0
  0
LINE
  5
148C3
330
747D
100
AcDbEntity
  8
細線
100
AcDbLine
 10
4768.445515348527
 20
7426.579896324138
 30
0.0
 11
4766.113968872339
 21
7431.579913877818
 31
0.0
  0
LINE
  5
148C4
330
747D
100
AcDbEntity
  8
細線
100
AcDbLine
 10
4698.445505932069
 20
7426.579911237872
 30
0.0
 11
4700.777045453878
 21
7431.579913877833
 31
0.0
  0
LINE
  5
148C5
330
747D
100
AcDbEntity
  8
細線
100
AcDbLine
 10
4558.445515348527
 20
7426.579896324138
 30
0.0
 11
4560.777054870339
 21
7431.579898964099
 31
0.0
  0
LINE
  5
148C6
330
747D
100
AcDbEntity
  8
細線
100
AcDbLine
 10
4628.445524764987
 20
7426.579881410404
 30
0.0
 11
4626.113978288796
 21
7431.579898964084
 31
0.0
  0
LINE
  5
148C7
330
747D
100
AcDbEntity
  8
細線
100
AcDbLine
 10
4626.1139782888
 20
7431.579898964084
 30
0.0
 11
4560.777054870325
 21
7431.57989896407
 31
0.0
  0
LINE
  5
148C8
330
747D
100
AcDbEntity
  8
細線
100
AcDbLine
 10
4330.863999537633
 20
7397.579935661465
 30
0.0
 11
4265.527076119158
 21
7397.579935661451
 31
0.0
  0
LINE
  5
148C9
330
747D
100
AcDbEntity
  8
細線
100
AcDbLine
 10
4333.19554601382
 20
7392.579918107786
 30
0.0
 11
4330.863999537633
 21
7397.579935661465
 31
0.0
  0
LINE
  5
148CA
330
747D
100
AcDbEntity
  8
細線
100
AcDbLine
 10
4263.195536597364
 20
7392.57993302152
 30
0.0
 11
4265.527076119172
 21
7397.579935661481
 31
0.0
  0
LINE
  5
148CB
330
747D
100
AcDbEntity
  8
細線
 48
50.0
100
AcDbLine
 10
4104.57889459654
 20
7410.850759477217
 30
0.0
 11
4110.334412179208
 21
7392.579908186732
 31
0.0
  0
LINE
  5
148CC
330
747D
100
AcDbEntity
  8
細線
 48
50.0
100
AcDbLine
 10
4093.65044611611
 20
7410.850759477217
 30
0.0
 11
4104.57889459654
 21
7410.850759477217
 31
0.0
  0
ARC
  5
148CD
330
747D
100
AcDbEntity
  8
細線
 48
50.0
100
AcDbCircle
 10
4088.196090058788
 20
7412.350759477217
 30
0.0
 40
5.0
100
AcDbArc
 50
204.6243183521277
 51
335.3756816478722
  0
ARC
  5
148CE
330
747D
100
AcDbEntity
  8
細線
 48
50.0
100
AcDbCircle
 10
4093.65044611611
 20
7409.850759477219
 30
0.0
 40
1.0
100
AcDbArc
 50
90.0
 51
155.3756816478722
  0
ARC
  5
148CF
330
747D
100
AcDbEntity
  8
細線
 48
50.0
100
AcDbCircle
 10
4082.741734001473
 20
7409.850759477219
 30
0.0
 40
1.0
100
AcDbArc
 50
24.62431835212777
 51
90.0
  0
LINE
  5
148D0
330
747D
100
AcDbEntity
  8
細線
 48
50.0
100
AcDbLine
 10
4071.81328552104
 20
7410.850759477217
 30
0.0
 11
4082.741734001473
 21
7410.850759477217
 31
0.0
  0
LINE
  5
148D1
330
747D
100
AcDbEntity
  8
細線
 48
50.0
100
AcDbLine
 10
4066.057767938372
 20
7392.579908186724
 30
0.0
 11
4071.81328552104
 21
7410.850759477217
 31
0.0
  0
LINE
  5
148D2
330
747D
100
AcDbEntity
  8
細線
100
AcDbLine
 10
4123.195537828404
 20
7392.579905552529
 30
0.0
 11
4125.527077350216
 21
7397.57990819249
 31
0.0
  0
LINE
  5
148D3
330
747D
100
AcDbEntity
  8
細線
100
AcDbLine
 10
4193.195547244865
 20
7392.579890638796
 30
0.0
 11
4190.864000768675
 21
7397.579908192475
 31
0.0
  0
LINE
  5
148D4
330
747D
100
AcDbEntity
  8
細線
100
AcDbLine
 10
4190.864000768675
 20
7397.579908192475
 30
0.0
 11
4125.527077350202
 21
7397.579908192461
 31
0.0
  0
LINE
  5
148D5
330
747D
100
AcDbEntity
  8
細線
100
AcDbLine
 10
4050.863972404157
 20
7397.579908186695
 30
0.0
 11
3985.527048985682
 21
7397.579908186681
 31
0.0
  0
LINE
  5
148D6
330
747D
100
AcDbEntity
  8
細線
100
AcDbLine
 10
4053.195518880345
 20
7392.579890633014
 30
0.0
 11
4050.863972404157
 21
7397.579908186695
 31
0.0
  0
LINE
  5
148D7
330
747D
100
AcDbEntity
  8
細線
100
AcDbLine
 10
3983.195510694929
 20
7392.579908186724
 30
0.0
 11
3985.527048985697
 21
7397.57990818671
 31
0.0
  0
LINE
  5
148D8
330
747D
100
AcDbEntity
  8
細線
100
AcDbLine
 10
3843.19554601382
 20
7392.579916374095
 30
0.0
 11
3845.527084304588
 21
7397.57991637408
 31
0.0
  0
LINE
  5
148D9
330
747D
100
AcDbEntity
  8
細線
100
AcDbLine
 10
3913.195554199237
 20
7392.579898820383
 30
0.0
 11
3910.86400772305
 21
7397.579916374062
 31
0.0
  0
LINE
  5
148DA
330
747D
100
AcDbEntity
  8
細線
100
AcDbLine
 10
3910.86400772305
 20
7397.579916374062
 30
0.0
 11
3845.527084304574
 21
7397.57991637405
 31
0.0
  0
LINE
  5
148DB
330
747D
100
AcDbEntity
  8
細線
100
AcDbLine
 10
3471.6955118167
 20
7358.580088054806
 30
0.0
 11
3474.027050107468
 21
7363.580088054792
 31
0.0
  0
LINE
  5
148DC
330
747D
100
AcDbEntity
  8
細線
100
AcDbLine
 10
3541.695520002116
 20
7358.580070501094
 30
0.0
 11
3539.363973525929
 21
7363.580088054771
 31
0.0
  0
LINE
  5
148DD
330
747D
100
AcDbEntity
  8
細線
100
AcDbLine
 10
3539.363973525929
 20
7363.580088054771
 30
0.0
 11
3474.027050107457
 21
7363.580088054764
 31
0.0
  0
LINE
  5
148DE
330
747D
100
AcDbEntity
  8
細線
100
AcDbLine
 10
3679.363973525929
 20
7363.580088054771
 30
0.0
 11
3614.027050107457
 21
7363.580088054764
 31
0.0
  0
LINE
  5
148DF
330
747D
100
AcDbEntity
  8
細線
100
AcDbLine
 10
3681.695520002115
 20
7358.580070501094
 30
0.0
 11
3679.363973525929
 21
7363.580088054771
 31
0.0
  0
LINE
  5
148E0
330
747D
100
AcDbEntity
  8
細線
100
AcDbLine
 10
3611.6955118167
 20
7358.580088054806
 30
0.0
 11
3614.027050107468
 21
7363.580088054792
 31
0.0
  0
LINE
  5
148E1
330
747D
100
AcDbEntity
  8
細線
100
AcDbLine
 10
3399.363973525929
 20
7363.580088054771
 30
0.0
 11
3334.027050107457
 21
7363.580088054759
 31
0.0
  0
LINE
  5
148E2
330
747D
100
AcDbEntity
  8
細線
100
AcDbLine
 10
3401.695520002116
 20
7358.580070501094
 30
0.0
 11
3399.363973525929
 21
7363.580088054771
 31
0.0
  0
LINE
  5
148E3
330
747D
100
AcDbEntity
  8
細線
100
AcDbLine
 10
3331.6955118167
 20
7358.580088054804
 30
0.0
 11
3334.027050107468
 21
7363.580088054789
 31
0.0
  0
LINE
  5
148E4
330
747D
100
AcDbEntity
  8
細線
100
AcDbLine
 10
3191.695520002116
 20
7358.580088054806
 30
0.0
 11
3194.027058292884
 21
7363.580088054792
 31
0.0
  0
LINE
  5
148E5
330
747D
100
AcDbEntity
  8
細線
100
AcDbLine
 10
3261.695528187532
 20
7358.580070501094
 30
0.0
 11
3259.363981711344
 21
7363.580088054771
 31
0.0
  0
LINE
  5
148E6
330
747D
100
AcDbEntity
  8
細線
100
AcDbLine
 10
3259.363981711344
 20
7363.580088054771
 30
0.0
 11
3194.027058292873
 21
7363.580088054764
 31
0.0
  0
ARC
  5
148E7
330
747D
100
AcDbEntity
  8
部品1
 48
0.01
100
AcDbCircle
 10
3147.195408749781
 20
7357.578965869734
 30
0.0
 40
0.5
100
AcDbArc
 50
270.0
 51
0.0
  0
LINE
  5
148E8
330
747D
100
AcDbEntity
  8
部品1
 48
0.01
100
AcDbLine
 10
3147.695408749781
 20
7358.578965869734
 30
0.0
 11
3147.695408749781
 21
7357.578965869734
 31
0.0
  0
LINE
  5
148E9
330
747D
100
AcDbEntity
  8
部品1
 48
0.01
100
AcDbLine
 10
3147.695408749781
 20
7358.578965869734
 30
0.0
 11
3147.695408749781
 21
7357.578965869734
 31
0.0
  0
LINE
  5
148EA
330
747D
100
AcDbEntity
  8
部品1
 48
0.01
100
AcDbLine
 10
3147.195408749781
 20
7357.078965869733
 30
0.0
 11
3140.582903319716
 21
7357.078965869733
 31
0.0
  0
ARC
  5
148EB
330
747D
100
AcDbEntity
  8
部品1
100
AcDbCircle
 10
3140.651252872497
 20
7358.078965869734
 30
0.0
 40
1.0
100
AcDbArc
 50
160.5287793655822
 51
270.0
  0
ARC
  5
148EC
330
747D
100
AcDbEntity
  8
部品1
100
AcDbCircle
 10
3115.195408749781
 20
7367.078965869734
 30
0.0
 40
26.0
100
AcDbArc
 50
340.5287793655822
 51
0.0
  0
LINE
  5
148ED
330
747D
100
AcDbEntity
  8
部品1
100
AcDbLine
 10
3141.195408749781
 20
7367.078965869734
 30
0.0
 11
3141.195408749781
 21
7372.078965869734
 31
0.0
  0
ARC
  5
148EE
330
747D
100
AcDbEntity
  8
部品1
 48
0.01
100
AcDbCircle
 10
3139.195408749781
 20
7372.078965869734
 30
0.0
 40
2.0
100
AcDbArc
 50
0.0
 51
90.0
  0
ARC
  5
148EF
330
747D
100
AcDbEntity
  8
部品1
100
AcDbCircle
 10
3137.587017124971
 20
7371.078965869734
 30
0.0
 40
3.0
100
AcDbArc
 50
90.0
 51
141.6069559807873
  0
LINE
  5
148F0
330
747D
100
AcDbEntity
  8
部品1
 48
0.01
100
AcDbLine
 10
3139.195408749781
 20
7374.078965869734
 30
0.0
 11
3137.587017124971
 21
7374.078965869734
 31
0.0
  0
ARC
  5
148F1
330
747D
100
AcDbEntity
  8
部品1
100
AcDbCircle
 10
3119.12469453551
 20
7370.378965869737
 30
0.0
 40
3.0
100
AcDbArc
 50
254.0576313943215
 51
270.0
  0
ARC
  5
148F2
330
747D
100
AcDbEntity
  8
部品1
100
AcDbCircle
 10
3126.266122964052
 20
7370.378965869737
 30
0.0
 40
3.0
100
AcDbArc
 50
270.0
 51
285.9423686056786
  0
LINE
  5
148F3
330
747D
100
AcDbEntity
  8
部品1
100
AcDbLine
 10
3126.266122964052
 20
7367.378965869737
 30
0.0
 11
3119.12469453551
 21
7367.378965869737
 31
0.0
  0
ARC
  5
148F4
330
747D
100
AcDbEntity
  8
部品1
100
AcDbCircle
 10
3122.695408749781
 20
7382.878965869737
 30
0.0
 40
16.0
100
AcDbArc
 50
285.9423686056786
 51
321.6069559807873
  0
LINE
  5
148F5
330
747D
100
AcDbEntity
  8
部品1
 48
0.01
100
AcDbLine
 10
3106.195408749781
 20
7374.078965869734
 30
0.0
 11
3107.803800374591
 21
7374.078965869734
 31
0.0
  0
ARC
  5
148F6
330
747D
100
AcDbEntity
  8
部品1
100
AcDbCircle
 10
3107.803800374591
 20
7371.078965869734
 30
0.0
 40
3.0
100
AcDbArc
 50
38.39304401921267
 51
90.0
  0
ARC
  5
148F7
330
747D
100
AcDbEntity
  8
部品1
100
AcDbCircle
 10
3122.695408749781
 20
7382.878965869737
 30
0.0
 40
16.0
100
AcDbArc
 50
218.3930440192126
 51
254.0576313943215
  0
LINE
  5
148F8
330
747D
100
AcDbEntity
  8
部品1
100
AcDbLine
 10
3104.195408749781
 20
7367.078965869734
 30
0.0
 11
3104.195408749781
 21
7372.078965869734
 31
0.0
  0
ARC
  5
148F9
330
747D
100
AcDbEntity
  8
部品1
 48
0.01
100
AcDbCircle
 10
3106.195408749781
 20
7372.078965869734
 30
0.0
 40
2.0
100
AcDbArc
 50
90.0
 51
180.0
  0
ARC
  5
148FA
330
747D
100
AcDbEntity
  8
部品1
100
AcDbCircle
 10
3130.195408749781
 20
7367.078965869734
 30
0.0
 40
26.0
100
AcDbArc
 50
180.0
 51
199.4712206344178
  0
ARC
  5
148FB
330
747D
100
AcDbEntity
  8
部品1
 48
0.01
100
AcDbCircle
 10
3098.195408749781
 20
7357.578965869734
 30
0.0
 40
0.5
100
AcDbArc
 50
180.0
 51
270.0
  0
LINE
  5
148FC
330
747D
100
AcDbEntity
  8
部品1
 48
0.01
100
AcDbLine
 10
3098.195408749781
 20
7357.078965869733
 30
0.0
 11
3104.739564627065
 21
7357.078965869733
 31
0.0
  0
LINE
  5
148FD
330
747D
100
AcDbEntity
  8
部品1
 48
0.01
100
AcDbLine
 10
3097.69540874978
 20
7358.578965869734
 30
0.0
 11
3097.69540874978
 21
7357.578965869734
 31
0.0
  0
ARC
  5
148FE
330
747D
100
AcDbEntity
  8
部品1
100
AcDbCircle
 10
3104.739564627065
 20
7358.078965869734
 30
0.0
 40
1.0
100
AcDbArc
 50
270.0
 51
19.4712206344178
  0
LINE
  5
148FF
330
747D
100
AcDbEntity
  8
細線
100
AcDbLine
 10
3143.195408749788
 20
7376.578965869737
 30
0.0
 11
3102.195408749788
 21
7376.57896586973
 31
0.0
  0
LINE
  5
14900
330
747D
100
AcDbEntity
  8
細線
100
AcDbLine
 10
3102.195408749788
 20
7376.57896586973
 30
0.0
 11
3102.195408749788
 21
7358.578965869712
 31
0.0
  0
LINE
  5
14901
330
747D
100
AcDbEntity
  8
細線
100
AcDbLine
 10
3143.195408749788
 20
7376.578965869737
 30
0.0
 11
3143.195408749788
 21
7358.578965869712
 31
0.0
  0
LINE
  5
14902
330
747D
100
AcDbEntity
  8
細線
100
AcDbLine
 10
2986.695515348526
 20
7362.579896324138
 30
0.0
 11
2986.695515348526
 21
7358.579896324186
 31
0.0
  0
DIMENSION
  5
14903
330
747D
100
AcDbEntity
  8
寸法
 48
50.0
100
AcDbDimension
  2
*D29
 10
4252.695515348526
 20
6683.246397575742
 30
0.0
 11
3660.475835176025
 21
6683.246397575742
 31
0.0
 70
   160
  1
有効開口部間口\P<>
 71
     5
 42
1266.0
  3
INABA_S40
100
AcDbAlignedDimension
 13
2986.695515348526
 23
7353.579896324138
 33
0.0
 14
4252.695515348526
 24
7353.579896324138
 34
0.0
100
AcDbRotatedDimension
1001
ACAD
1000
DSTYLE
1002
{
1070
    41
1040
0.5
1070
    44
1040
1.0
1070
   147
1040
0.8
1070
   271
1070
     2
1070
   272
1070
     2
1070
   289
1070
     3
1070
   340
1005
F706
1070
   343
1005
F744
1070
   344
1005
F744
1002
}
  0
LINE
  5
14904
330
747D
100
AcDbEntity
  8
部品1
100
AcDbLine
 10
5074.695515348526
 20
7430.579896324137
 30
0.0
 11
5101.695515348526
 21
7430.579896324137
 31
0.0
  0
LINE
  5
14906
330
747D
100
AcDbEntity
  8
部品1
100
AcDbLine
 10
5101.695515348526
 20
7353.579896324138
 30
0.0
 11
5101.695515348526
 21
7430.579896324137
 31
0.0
  0
LINE
  5
14907
330
747D
100
AcDbEntity
  8
部品1
100
AcDbLine
 10
5062.695515348526
 20
7426.579896324138
 30
0.0
 11
5074.695515348526
 21
7426.579896324138
 31
0.0
  0
LINE
  5
14908
330
747D
100
AcDbEntity
  8
部品1
100
AcDbLine
 10
5071.695515348526
 20
7362.579896324138
 30
0.0
 11
5071.695515348526
 21
7353.579896324138
 31
0.0
  0
LINE
  5
14909
330
747D
100
AcDbEntity
  8
部品1
100
AcDbLine
 10
5062.695515348526
 20
7362.579896324138
 30
0.0
 11
5071.695515348526
 21
7362.579896324138
 31
0.0
  0
LINE
  5
1490A
330
747D
100
AcDbEntity
  8
部品1
100
AcDbLine
 10
5062.695515348526
 20
7426.579896324138
 30
0.0
 11
5062.695515348526
 21
7362.579896324138
 31
0.0
  0
LINE
  5
1490B
330
747D
100
AcDbEntity
  8
部品1
100
AcDbLine
 10
5074.695515348526
 20
7457.579896324138
 30
0.0
 11
5074.695515348526
 21
7426.579896324138
 31
0.0
  0
LINE
  5
1490C
330
747D
100
AcDbEntity
  8
部品1
100
AcDbLine
 10
2986.695515348526
 20
7426.579896324138
 30
0.0
 11
2974.695515348526
 21
7426.579896324138
 31
0.0
  0
LINE
  5
1490D
330
747D
100
AcDbEntity
  8
部品1
100
AcDbLine
 10
2947.695515348526
 20
7430.579896324137
 30
0.0
 11
2974.695515348525
 21
7430.579896324137
 31
0.0
  0
LINE
  5
1490E
330
747D
100
AcDbEntity
  8
部品1
100
AcDbLine
 10
2977.695515348526
 20
7362.579896324138
 30
0.0
 11
2977.695515348526
 21
7353.579896324138
 31
0.0
  0
LINE
  5
1490F
330
747D
100
AcDbEntity
  8
部品1
100
AcDbLine
 10
2986.695515348526
 20
7362.579896324138
 30
0.0
 11
2977.695515348526
 21
7362.579896324138
 31
0.0
  0
LINE
  5
14910
330
747D
100
AcDbEntity
  8
部品1
100
AcDbLine
 10
2977.695515348526
 20
7353.579896324138
 30
0.0
 11
2947.695515348526
 21
7353.579896324138
 31
0.0
  0
LINE
  5
14911
330
747D
100
AcDbEntity
  8
部品1
100
AcDbLine
 10
2947.695515348526
 20
7353.579896324138
 30
0.0
 11
2947.695515348526
 21
7430.579896324137
 31
0.0
  0
LINE
  5
14912
330
747D
100
AcDbEntity
  8
部品1
100
AcDbLine
 10
2986.695515348526
 20
7426.579896324138
 30
0.0
 11
2986.695515348526
 21
7362.579896324138
 31
0.0
  0
LINE
  5
14913
330
747D
100
AcDbEntity
  8
部品1
100
AcDbLine
 10
2974.695515348525
 20
7457.579896324133
 30
0.0
 11
2974.695515348526
 21
7426.579896324138
 31
0.0
  0
LINE
  5
14914
330
747D
100
AcDbEntity
  8
部品1
100
AcDbLine
 10
2974.695515348525
 20
7457.579896324133
 30
0.0
 11
5074.695515348526
 21
7457.579896324138
 31
0.0
  0
LINE
  5
14915
330
747D
100
AcDbEntity
  8
部品1
100
AcDbLine
 10
5071.695515348526
 20
7353.579896324138
 30
0.0
 11
5101.695515348526
 21
7353.579896324138
 31
0.0
  0
LINE
  5
14916
330
747D
100
AcDbEntity
  8
部品1
100
AcDbLine
 10
2977.695515348526
 20
7353.579896324138
 30
0.0
 11
5074.695515348526
 21
7353.579896324138
 31
0.0
  0
LINE
  5
14917
330
747D
100
AcDbEntity
  8
細線
  6
Continuous
 62
     5
100
AcDbLine
 10
4353.695515348529
 20
7392.579896324135
 30
0.0
 11
4353.695515348529
 21
7392.579896324135
 31
0.0
  0
LINE
  5
14918
330
747D
100
AcDbEntity
  8
細線
  6
Continuous
 62
     5
100
AcDbLine
 10
4346.195550667421
 20
7392.579906245192
 30
0.0
 11
4346.195550667421
 21
7392.579906245192
 31
0.0
  0
LINE
  5
14919
330
747D
100
AcDbEntity
  8
細線
  6
Continuous
 62
     5
100
AcDbLine
 10
4340.195550667421
 20
7392.579906245192
 30
0.0
 11
4340.195550667421
 21
7392.579906245192
 31
0.0
  0
LINE
  5
1491A
330
747D
100
AcDbEntity
  8
細線
  6
Continuous
 62
     5
100
AcDbLine
 10
4407.695515348529
 20
7411.579896324134
 30
0.0
 11
4407.695515348529
 21
7411.579896324134
 31
0.0
  0
LINE
  5
1491B
330
747D
100
AcDbEntity
  8
細線
 48
50.0
100
AcDbLine
 10
3000.69552000212
 20
7379.180070501091
 30
0.0
 11
3000.69552000212
 21
7387.576220908731
 31
0.0
  0
LINE
  5
1491C
330
747D
100
AcDbEntity
  8
細線
 48
50.0
100
AcDbLine
 10
3000.69552000212
 20
7387.576220908731
 30
0.0
 11
2986.695515348526
 21
7387.576220908728
 31
0.0
  0
LINE
  5
1491D
330
747D
100
AcDbEntity
  8
細線
 48
50.0
100
AcDbLine
 10
3751.695520002116
 20
7375.730070501091
 30
0.0
 11
3751.695520002116
 21
7380.580070501093
 31
0.0
  0
LINE
  5
1491E
330
747D
100
AcDbEntity
  8
細線
 48
50.0
100
AcDbLine
 10
3751.695520002116
 20
7380.580070501093
 30
0.0
 11
3766.695520002116
 21
7380.580070501093
 31
0.0
  0
LINE
  5
1491F
330
747D
100
AcDbEntity
  8
細線
 48
50.0
100
AcDbLine
 10
3766.695520002116
 20
7380.580070501093
 30
0.0
 11
3766.695520002119
 21
7387.580070501093
 31
0.0
  0
LINE
  5
14920
330
747D
100
AcDbEntity
  8
細線
 48
50.0
100
AcDbLine
 10
3766.695520002119
 20
7387.580070501093
 30
0.0
 11
3781.695520002116
 21
7387.580070501093
 31
0.0
  0
LINE
  5
14921
330
747D
100
AcDbEntity
  8
細線
 48
50.0
100
AcDbLine
 10
3781.695520002116
 20
7387.580070501093
 30
0.0
 11
3781.695520002116
 21
7358.580070501094
 31
0.0
  0
LINE
  5
14922
330
747D
100
AcDbEntity
  8
細線
 48
50.0
100
AcDbLine
 10
2977.695515348526
 20
7358.577404844561
 30
0.0
 11
3191.695520002116
 21
7358.580088054806
 31
0.0
  0
LINE
  5
14923
330
747D
100
AcDbEntity
  8
細線
 48
50.0
100
AcDbLine
 10
3681.695520002115
 20
7358.580070501094
 30
0.0
 11
3781.695520002116
 21
7358.580070501094
 31
0.0
  0
LINE
  5
14924
330
747D
100
AcDbEntity
  8
細線
 48
50.0
100
AcDbLine
 10
3401.695520002116
 20
7358.580070501094
 30
0.0
 11
3471.695520002116
 21
7358.580070501094
 31
0.0
  0
LINE
  5
14925
330
747D
100
AcDbEntity
  8
細線
 48
50.0
100
AcDbLine
 10
3414.557485014646
 20
7358.580070501094
 30
0.0
 11
3420.313002597313
 21
7376.850921791588
 31
0.0
  0
LINE
  5
14926
330
747D
100
AcDbEntity
  8
細線
 48
50.0
100
AcDbLine
 10
3420.313002597313
 20
7376.850921791588
 30
0.0
 11
3431.241451077747
 21
7376.850921791583
 31
0.0
  0
ARC
  5
14927
330
747D
100
AcDbEntity
  8
細線
 48
50.0
100
AcDbCircle
 10
3431.241451077747
 20
7375.850921791583
 30
0.0
 40
1.0
100
AcDbArc
 50
24.62431835212777
 51
90.0
  0
ARC
  5
14928
330
747D
100
AcDbEntity
  8
細線
 48
50.0
100
AcDbCircle
 10
3442.15016319238
 20
7375.850921791583
 30
0.0
 40
1.0
100
AcDbArc
 50
90.0
 51
155.3756816478722
  0
ARC
  5
14929
330
747D
100
AcDbEntity
  8
細線
 48
50.0
100
AcDbCircle
 10
3436.695807135061
 20
7378.350921791583
 30
0.0
 40
5.0
100
AcDbArc
 50
204.6243183521277
 51
335.3756816478722
  0
LINE
  5
1492A
330
747D
100
AcDbEntity
  8
細線
 48
50.0
100
AcDbLine
 10
3442.15016319238
 20
7376.850921791583
 30
0.0
 11
3453.078611672813
 21
7376.850921791588
 31
0.0
  0
LINE
  5
1492B
330
747D
100
AcDbEntity
  8
細線
 48
50.0
100
AcDbLine
 10
3453.078611672813
 20
7376.850921791588
 30
0.0
 11
3458.834129255481
 21
7358.580070501094
 31
0.0
  0
LINE
  5
1492C
330
747D
100
AcDbEntity
  8
細線
 48
50.0
100
AcDbLine
 10
3751.695520002116
 20
7379.180070501091
 30
0.0
 11
3000.69552000212
 21
7379.180070501091
 31
0.0
  0
LINE
  5
1492D
330
747D
100
AcDbEntity
  8
細線
 48
50.0
100
AcDbLine
 10
3611.695520002116
 20
7358.580070501094
 30
0.0
 11
3541.695520002116
 21
7358.580070501094
 31
0.0
  0
LINE
  5
1492E
330
747D
100
AcDbEntity
  8
細線
100
AcDbLine
 10
3331.695520002116
 20
7358.580070501094
 30
0.0
 11
3261.695528187532
 21
7358.580070501094
 31
0.0
  0
LINE
  5
1492F
330
747D
100
AcDbEntity
  8
細線
 48
50.0
100
AcDbLine
 10
4405.69551069494
 20
7413.18011435896
 30
0.0
 11
3770.695520002116
 21
7413.180114358957
 31
0.0
  0
LINE
  5
14930
330
747D
100
AcDbEntity
  8
細線
 48
50.0
100
AcDbLine
 10
3770.695520002116
 20
7410.0762647666
 30
0.0
 11
3770.695520002116
 21
7414.5762647666
 31
0.0
  0
LINE
  5
14931
330
747D
100
AcDbEntity
  8
細線
 48
50.0
100
AcDbLine
 10
3770.695520002116
 20
7414.5762647666
 30
0.0
 11
3755.695520002116
 21
7414.5762647666
 31
0.0
  0
LINE
  5
14932
330
747D
100
AcDbEntity
  8
細線
 48
50.0
100
AcDbLine
 10
3755.695520002116
 20
7414.5762647666
 30
0.0
 11
3755.695520002116
 21
7421.576264766599
 31
0.0
  0
LINE
  5
14933
330
747D
100
AcDbEntity
  8
細線
 48
50.0
100
AcDbLine
 10
3755.695520002116
 20
7421.576264766599
 30
0.0
 11
3740.69552000212
 21
7421.576264766597
 31
0.0
  0
LINE
  5
14934
330
747D
100
AcDbEntity
  8
細線
 48
50.0
100
AcDbLine
 10
3740.69552000212
 20
7421.576264766597
 30
0.0
 11
3740.69552000212
 21
7383.976036663487
 31
0.0
  0
LINE
  5
14935
330
747D
100
AcDbEntity
  8
細線
 48
50.0
100
AcDbLine
 10
3740.69552000212
 20
7383.976036663487
 30
0.0
 11
3760.695527303292
 21
7383.976078213027
 31
0.0
  0
LINE
  5
14936
330
747D
100
AcDbEntity
  8
細線
 48
50.0
100
AcDbLine
 10
3760.69548243435
 20
7392.579539848836
 30
0.0
 11
3760.695527303292
 21
7383.976078213027
 31
0.0
  0
LINE
  5
14937
330
747D
100
AcDbEntity
  8
細線
 48
50.0
100
AcDbLine
 10
4405.69551069494
 20
7409.730114358959
 30
0.0
 11
4405.69551069494
 21
7414.580114358958
 31
0.0
  0
LINE
  5
14938
330
747D
100
AcDbEntity
  8
細線
 48
50.0
100
AcDbLine
 10
4405.69551069494
 20
7414.580114358958
 30
0.0
 11
4420.695510694936
 21
7414.580114358958
 31
0.0
  0
LINE
  5
14939
330
747D
100
AcDbEntity
  8
細線
 48
50.0
100
AcDbLine
 10
4420.695510694936
 20
7414.580114358958
 30
0.0
 11
4420.695522328911
 21
7421.580114359001
 31
0.0
  0
LINE
  5
1493A
330
747D
100
AcDbEntity
  8
細線
 48
50.0
100
AcDbLine
 10
4420.695522328911
 20
7421.580114359001
 30
0.0
 11
4435.695520499442
 21
7421.580114359001
 31
0.0
  0
LINE
  5
1493B
330
747D
100
AcDbEntity
  8
細線
 48
50.0
100
AcDbLine
 10
4435.695520499442
 20
7421.580114359001
 30
0.0
 11
4435.69551019762
 21
7392.579908186728
 31
0.0
  0
LINE
  5
1493C
330
747D
100
AcDbEntity
  8
細線
 48
50.0
100
AcDbLine
 10
4123.195537828404
 20
7392.579916374095
 30
0.0
 11
4053.195789910821
 21
7392.579910936756
 31
0.0
  0
LINE
  5
1493D
330
747D
100
AcDbEntity
  8
細線
 48
50.0
100
AcDbLine
 10
3760.69548243435
 20
7392.579539848836
 30
0.0
 11
3771.92817178906
 21
7392.579722801982
 31
0.0
  0
ARC
  5
1493E
330
747D
100
AcDbEntity
  8
細線
 48
50.0
100
AcDbCircle
 10
3778.510464096396
 20
7391.379886715594
 30
0.0
 40
1.8
100
AcDbArc
 50
270.0006665777295
 51
345.0005554812987
  0
LINE
  5
1493F
330
747D
100
AcDbEntity
  8
細線
 48
50.0
100
AcDbLine
 10
3780.496897542476
 20
7391.838727172873
 30
0.0
 11
3780.249135100277
 21
7390.914029290766
 31
0.0
  0
LINE
  5
14940
330
747D
100
AcDbEntity
  8
細線
 48
50.0
100
AcDbLine
 10
3778.510485037551
 20
7389.579886715715
 30
0.0
 11
3774.880557618781
 21
7389.579844485236
 31
0.0
  0
ARC
  5
14941
330
747D
100
AcDbEntity
  8
細線
 48
50.0
100
AcDbCircle
 10
3774.88053667763
 20
7391.379844485115
 30
0.0
 40
1.8
100
AcDbArc
 50
195.0010443049445
 51
270.0006665777295
  0
LINE
  5
14942
330
747D
100
AcDbEntity
  8
細線
 48
50.0
100
AcDbLine
 10
3772.894109185371
 20
7391.838559452679
 30
0.0
 11
3773.141878681884
 21
7390.913938514097
 31
0.0
  0
ARC
  5
14943
330
747D
100
AcDbEntity
  8
細線
 48
50.0
100
AcDbCircle
 10
3771.928188076623
 20
7391.579722802116
 30
0.0
 40
1.0
100
AcDbArc
 50
15.00104430494449
 51
90.00093320877969
  0
LINE
  5
14944
330
747D
100
AcDbEntity
  8
細線
 48
50.0
100
AcDbLine
 10
3781.462818897578
 20
7392.579917492387
 30
0.0
 11
3782.404579048483
 21
7392.579924066237
 31
0.0
  0
ARC
  5
14945
330
747D
100
AcDbEntity
  8
細線
 48
50.0
100
AcDbCircle
 10
3781.462825877965
 20
7391.579917492411
 30
0.0
 40
1.0
100
AcDbArc
 50
90.0003999466794
 51
165.0005554812987
  0
LINE
  5
14946
330
747D
100
AcDbEntity
  8
細線
 48
50.0
100
AcDbLine
 10
4333.195510694928
 20
7392.579908186728
 30
0.0
 11
4435.69551019762
 21
7392.579908186728
 31
0.0
  0
LINE
  5
14947
330
747D
100
AcDbEntity
  8
細線
 48
50.0
100
AcDbLine
 10
3843.19554601382
 20
7392.579916374095
 30
0.0
 11
3782.095484786901
 21
7392.579924066237
 31
0.0
  0
LINE
  5
14948
330
747D
100
AcDbEntity
  8
細線
 48
50.0
100
AcDbLine
 10
4263.195546013821
 20
7392.579953215177
 30
0.0
 11
4193.195539059434
 21
7392.579908192509
 31
0.0
  0
LINE
  5
14949
330
747D
100
AcDbEntity
  8
細線
 48
50.0
100
AcDbLine
 10
3983.195510694929
 20
7392.579908186724
 30
0.0
 11
3913.195493407054
 21
7392.579908186732
 31
0.0
  0
ARC
  5
1494A
330
747D
100
AcDbEntity
  8
細線
 48
50.0
100
AcDbCircle
 10
4419.895515348538
 20
7425.779896324138
 30
0.0
 40
0.8
100
AcDbArc
 50
359.9997333689499
 51
89.99986668437072
  0
ARC
  5
1494B
330
747D
100
AcDbEntity
  8
細線
 48
50.0
100
AcDbCircle
 10
4427.495522173631
 20
7425.779907492755
 30
0.0
 40
0.8
100
AcDbArc
 50
90.00014387753465
 51
179.9997333689498
  0
LINE
  5
1494C
330
747D
100
AcDbEntity
  8
細線
 48
50.0
100
AcDbLine
 10
4419.895517209972
 20
7426.579896324138
 30
0.0
 11
4414.695515348525
 21
7426.579896324138
 31
0.0
  0
ARC
  5
1494D
330
747D
100
AcDbEntity
  8
細線
 48
50.0
100
AcDbCircle
 10
4421.395515348526
 20
7424.279896324138
 30
0.0
 40
0.7
100
AcDbArc
 50
180.0
 51
270.0
  0
ARC
  5
1494E
330
747D
100
AcDbEntity
  8
細線
 48
50.0
100
AcDbCircle
 10
4425.995515348528
 20
7424.279896324138
 30
0.0
 40
0.7
100
AcDbArc
 50
270.0
 51
0.0
  0
LINE
  5
1494F
330
747D
100
AcDbEntity
  8
細線
 48
50.0
100
AcDbLine
 10
4426.695515348526
 20
7424.279896324138
 30
0.0
 11
4426.695522173644
 21
7425.779911215626
 31
0.0
  0
LINE
  5
14950
330
747D
100
AcDbEntity
  8
細線
 48
50.0
100
AcDbLine
 10
4421.395515348526
 20
7423.579896324138
 30
0.0
 11
4425.995515348528
 21
7423.579896324138
 31
0.0
  0
LINE
  5
14951
330
747D
100
AcDbEntity
  8
細線
 48
50.0
100
AcDbLine
 10
4420.695515348525
 20
7425.779896324138
 30
0.0
 11
4420.695515348525
 21
7424.279896324138
 31
0.0
  0
LINE
  5
14952
330
747D
100
AcDbEntity
  8
細線
 48
50.0
100
AcDbLine
 10
5046.295515348532
 20
7456.579896324138
 30
0.0
 11
4409.695515348526
 21
7456.579896324135
 31
0.0
  0
LINE
  5
14953
330
747D
100
AcDbEntity
  8
細線
 48
50.0
100
AcDbLine
 10
5072.195515348526
 20
7451.57989632414
 30
0.0
 11
5056.295515348532
 21
7451.579896324138
 31
0.0
  0
LINE
  5
14954
330
747D
100
AcDbEntity
  8
細線
 48
50.0
100
AcDbLine
 10
5056.295515348528
 20
7451.579896324138
 30
0.0
 11
5046.295515348532
 21
7456.579896324138
 31
0.0
  0
LINE
  5
14955
330
747D
100
AcDbEntity
  8
細線
100
AcDbLine
 10
4657.195515348527
 20
7426.579896324138
 30
0.0
 11
4657.195515348527
 21
7455.879896324137
 31
0.0
  0
LINE
  5
14956
330
747D
100
AcDbEntity
  8
細線
100
AcDbLine
 10
4657.195515348527
 20
7455.879896324137
 30
0.0
 11
4677.195515348527
 21
7455.879896324137
 31
0.0
  0
LINE
  5
14957
330
747D
100
AcDbEntity
  8
細線
100
AcDbLine
 10
4677.195515348527
 20
7426.579896324138
 30
0.0
 11
4677.195515348527
 21
7455.879896324137
 31
0.0
  0
LINE
  5
14958
330
747D
100
AcDbEntity
  8
細線
100
AcDbLine
 10
4838.445515348527
 20
7426.579896324138
 30
0.0
 11
4768.445515348527
 21
7426.579896324138
 31
0.0
  0
LINE
  5
14959
330
747D
100
AcDbEntity
  8
細線
 48
50.0
100
AcDbLine
 10
4558.445515348526
 20
7426.579896324138
 30
0.0
 11
4427.491294921369
 21
7426.579896324138
 31
0.0
  0
LINE
  5
1495A
330
747D
100
AcDbEntity
  8
細線
100
AcDbLine
 10
4698.445515348526
 20
7426.579896324138
 30
0.0
 11
4628.445515348526
 21
7426.579896324138
 31
0.0
  0
LINE
  5
1495B
330
747D
100
AcDbEntity
  8
細線
 48
50.0
100
AcDbLine
 10
4414.695515348525
 20
7418.579896324138
 30
0.0
 11
4414.695515348525
 21
7426.579896324138
 31
0.0
  0
LINE
  5
1495C
330
747D
100
AcDbEntity
  8
細線
 48
50.0
100
AcDbLine
 10
4394.695515348526
 20
7418.579896324141
 30
0.0
 11
4414.695515348525
 21
7418.579896324138
 31
0.0
  0
LINE
  5
1495D
330
747D
100
AcDbEntity
  8
細線
 48
50.0
100
AcDbLine
 10
4409.695515348526
 20
7456.579896324138
 30
0.0
 11
4409.695515348526
 21
7451.579896324138
 31
0.0
  0
LINE
  5
1495E
330
747D
100
AcDbEntity
  8
細線
 48
50.0
100
AcDbLine
 10
4394.695515348526
 20
7456.579896324135
 30
0.0
 11
4409.695515348526
 21
7456.579896324138
 31
0.0
  0
LINE
  5
1495F
330
747D
100
AcDbEntity
  8
細線
 48
50.0
100
AcDbLine
 10
4394.695515348526
 20
7418.579896324141
 30
0.0
 11
4394.695515348526
 21
7456.579896324135
 31
0.0
  0
LINE
  5
14960
330
747D
100
AcDbEntity
  8
細線
100
AcDbLine
 10
5062.695515348526
 20
7426.579896324138
 30
0.0
 11
4908.445515348527
 21
7426.579896324138
 31
0.0
  0
LINE
  5
14961
330
747D
100
AcDbEntity
  8
細線
 48
50.0
100
AcDbLine
 10
5072.195515348526
 20
7451.57989632414
 30
0.0
 11
5072.195515348526
 21
7426.579896324138
 31
0.0
  0
DIMENSION
  5
14BD3
330
747D
100
AcDbEntity
  8
寸法
100
AcDbDimension
  2
*D30
 10
2168.376701444477
 20
7355.579896324113
 30
0.0
 11
2168.376701444476
 21
7215.094614949873
 31
0.0
 70
   160
 71
     5
 42
75.00000000002728
  3
INABA_S40
100
AcDbAlignedDimension
 13
2499.695515348526
 23
7430.57989632414
 33
0.0
 14
2947.695515348527
 24
7355.579896324113
 34
0.0
 50
90.0
100
AcDbRotatedDimension
1001
ACAD
1000
DSTYLE
1002
{
1070
    41
1040
0.5
1070
    44
1040
1.0
1070
   147
1040
0.8
1070
   271
1070
     2
1070
   272
1070
     2
1070
   289
1070
     3
1070
   340
1005
F706
1070
   343
1005
F744
1070
   344
1005
F744
1002
}
  0
DIMENSION
  5
14BD4
330
747D
100
AcDbEntity
  8
寸法
 48
50.0
100
AcDbDimension
  2
*D31
 10
5101.695515348526
 20
6394.622888814883
 30
0.0
 11
4001.817515997383
 21
6394.622888814883
 31
0.0
 70
   160
 71
     5
 42
2154.0
  3
INABA_S40G
100
AcDbAlignedDimension
 13
2947.695515348526
 23
7353.579896324138
 33
0.0
 14
5101.695515348526
 24
7353.579896324138
 34
0.0
100
AcDbRotatedDimension
1001
ACAD
1000
DSTYLE
1002
{
1070
   341
1005
0
1002
}
  0
TEXT
  5
14FA2
330
747D
100
AcDbEntity
  8
文字
 62
     7
 48
50.0
100
AcDbText
 10
15022.63965474518
 20
9570.013745883725
 30
0.0
 40
100.0
  1
F12          2.3+1.6
  7
STYLE1
100
AcDbText
  0
LINE
  5
14FA4
330
747D
100
AcDbEntity
  8
仕様書枠
 48
50.0
100
AcDbLine
 10
16307.19999999999
 20
8179.600000000004
 30
0.0
 11
13127.19999999999
 21
8179.600000000007
 31
0.0
  0
TEXT
  5
14FA5
330
747D
100
AcDbEntity
  8
文字
 62
     7
 48
50.0
100
AcDbText
 10
13248.77747366446
 20
8210.013745883729
 30
0.0
 40
100.0
  1
18
  7
STYLE1
100
AcDbText
  0
TEXT
  5
14FAC
330
747D
100
AcDbEntity
  8
文字
 62
     7
 48
50.0
100
AcDbText
 10
13583.11819016569
 20
9224.407396633495
 30
0.0
 40
100.0
  1
梁中補強パネル
  7
STYLE1
100
AcDbText
  0
TEXT
  5
14FAD
330
747D
100
AcDbEntity
  8
文字
 62
     7
 48
50.0
100
AcDbText
 10
15022.63965474516
 20
9224.407396633491
 30
0.0
 40
100.0
  1
F12         0.7+1.2
  7
STYLE1
100
AcDbText
  0
DIMENSION
  5
14FCA
330
747D
100
AcDbEntity
  8
寸法
 48
50.0
100
AcDbDimension
  2
*D33
 10
5886.536877852521
 20
9640.579899901281
 30
0.0
 11
5886.53687785252
 21
9257.818755537547
 31
0.0
 70
   160
 71
     5
 42
716.5000035771754
  3
INABA_S40G
100
AcDbAlignedDimension
 13
5574.695517591685
 23
8924.079896324105
 33
0.0
 14
5604.695517591919
 24
9640.579899901281
 34
0.0
 50
90.0
100
AcDbRotatedDimension
1001
ACAD
1000
DSTYLE
1002
{
1070
   174
1070
     0
1070
   272
1070
     1
1070
   341
1005
0
1002
}
  0
LINE
  5
14FCB
330
747D
100
AcDbEntity
  8
部品1
 48
50.0
100
AcDbLine
 10
5574.695517591685
 20
8924.079896324105
 30
0.0
 11
5574.695517591685
 21
9585.579896324105
 31
0.0
  0
LINE
  5
14FCC
330
747D
100
AcDbEntity
  8
部品1
 48
50.0
100
AcDbLine
 10
5524.695517591684
 20
9585.579896324105
 30
0.0
 11
5524.695517591684
 21
8924.079896324105
 31
0.0
  0
LINE
  5
14FCD
330
747D
100
AcDbEntity
  8
部品1
 48
50.0
100
AcDbLine
 10
5524.695517591684
 20
8924.079896324105
 30
0.0
 11
5574.695517591685
 21
8924.079896324105
 31
0.0
  0
LINE
  5
14FCE
330
747D
100
AcDbEntity
  8
部品1
100
AcDbLine
 10
5574.695517591685
 20
9201.25587976096
 30
0.0
 11
5524.695517591683
 21
9196.079896324105
 31
0.0
  0
LINE
  5
14FCF
330
747D
100
AcDbEntity
  8
部品1
100
AcDbLine
 10
5574.695517591685
 20
9160.903912887253
 30
0.0
 11
5524.695517591683
 21
9166.079896324104
 31
0.0
  0
LINE
  5
14FD0
330
747D
100
AcDbEntity
  8
部品1
100
AcDbLine
 10
5524.695517591684
 20
9006.079896324106
 30
0.0
 11
5574.695517591683
 21
9018.791760730882
 31
0.0
  0
LWPOLYLINE
  5
15041
330
747D
100
AcDbEntity
  8
部品1
 48
50.0
100
AcDbPolyline
 90
        4
 70
     1
 43
0.0
 10
3046.745515348524
 20
3334.362805903258
 10
3049.645515348526
 20
3334.362805903258
 10
3049.645515348526
 20
3343.862805903258
 10
3046.745515348524
 20
3343.862805903258
  0
CIRCLE
  5
15042
330
747D
100
AcDbEntity
  8
部品1
 48
50.0
100
AcDbCircle
 10
3048.195515348525
 20
3339.112805903258
 30
0.0
 40
9.0
  0
ARC
  5
15043
330
747D
100
AcDbEntity
  8
細線
 48
50.0
100
AcDbCircle
 10
3048.195515348525
 20
3339.112805903258
 30
0.0
 40
4.0
100
AcDbArc
 50
111.2538091853375
 51
248.7461908146625
  0
ARC
  5
15044
330
747D
100
AcDbEntity
  8
細線
 48
50.0
100
AcDbCircle
 10
3048.195515348525
 20
3339.112805903258
 30
0.0
 40
17.5
100
AcDbArc
 50
306.4837370612677
 51
233.5162629387323
  0
LINE
  5
15045
330
747D
100
AcDbEntity
  8
細線
 48
50.0
100
AcDbLine
 10
3058.195515348522
 20
3315.253845322376
 30
0.0
 11
3058.195515348525
 21
3324.238331122617
 31
0.0
  0
LINE
  5
15046
330
747D
100
AcDbEntity
  8
細線
 48
50.0
100
AcDbLine
 10
3038.195515348525
 20
3315.253845322377
 30
0.0
 11
3038.195515348525
 21
3324.238331122614
 31
0.0
  0
ARC
  5
15047
330
747D
100
AcDbEntity
  8
細線
 48
50.0
100
AcDbCircle
 10
3048.195515348525
 20
3339.112805903258
 30
0.0
 40
26.5
100
AcDbArc
 50
249.3326835063939
 51
290.6673164933835
  0
ARC
  5
15048
330
747D
100
AcDbEntity
  8
細線
 48
50.0
100
AcDbCircle
 10
3057.195515348518
 20
3315.253845322376
 30
0.0
 40
1.0
100
AcDbArc
 50
290.6673164936062
 51
359.9999999998958
  0
ARC
  5
15049
330
747D
100
AcDbEntity
  8
細線
 48
50.0
100
AcDbCircle
 10
3039.195515348525
 20
3315.253845322377
 30
0.0
 40
1.0
100
AcDbArc
 50
180.0
 51
249.3326835066164
  0
ARC
  5
1504A
330
747D
100
AcDbEntity
  8
細線
 48
50.0
100
AcDbCircle
 10
3037.195515348525
 20
3324.238331122614
 30
0.0
 40
1.0
100
AcDbArc
 50
0.0
 51
53.51626293873231
  0
ARC
  5
1504B
330
747D
100
AcDbEntity
  8
細線
 48
50.0
100
AcDbCircle
 10
3059.195515348529
 20
3324.238331122617
 30
0.0
 40
1.0
100
AcDbArc
 50
126.4837370614917
 51
180.0
  0
ARC
  5
1504C
330
747D
100
AcDbEntity
  8
細線
 48
50.0
100
AcDbCircle
 10
3048.195515348525
 20
3339.112805903258
 30
0.0
 40
21.5
100
AcDbArc
 50
255.8014401250294
 51
284.1985598749706
  0
ARC
  5
1504D
330
747D
100
AcDbEntity
  8
細線
 48
50.0
100
AcDbCircle
 10
3048.195515348525
 20
3339.112805903258
 30
0.0
 40
16.5
100
AcDbArc
 50
251.9694646069326
 51
288.0305353930674
  0
LINE
  5
1504E
330
747D
100
AcDbEntity
  8
細線
 48
50.0
100
AcDbLine
 10
3053.695515348525
 20
3318.560433777451
 30
0.0
 11
3053.695515348525
 21
3323.137825464788
 31
0.0
  0
LINE
  5
1504F
330
747D
100
AcDbEntity
  8
細線
 48
50.0
100
AcDbLine
 10
3042.695515348525
 20
3318.560433777451
 30
0.0
 11
3042.695515348525
 21
3323.137825464787
 31
0.0
  0
ARC
  5
15050
330
747D
100
AcDbEntity
  8
細線
 48
50.0
100
AcDbCircle
 10
3042.995515348528
 20
3323.137825464787
 30
0.0
 40
0.3
100
AcDbArc
 50
71.96946460693259
 51
180.0
  0
ARC
  5
15051
330
747D
100
AcDbEntity
  8
細線
 48
50.0
100
AcDbCircle
 10
3053.395515348526
 20
3323.137825464788
 30
0.0
 40
0.3
100
AcDbArc
 50
0.0
 51
108.0305353930674
  0
ARC
  5
15052
330
747D
100
AcDbEntity
  8
細線
 48
50.0
100
AcDbCircle
 10
3053.395515348523
 20
3318.560433777451
 30
0.0
 40
0.3
100
AcDbArc
 50
284.1985598747622
 51
0.0000000001042204
  0
ARC
  5
15053
330
747D
100
AcDbEntity
  8
細線
 48
50.0
100
AcDbCircle
 10
3042.995515348528
 20
3318.560433777451
 30
0.0
 40
0.3
100
AcDbArc
 50
180.0
 51
255.8014401248081
  0
CIRCLE
  5
15054
330
747D
100
AcDbEntity
  8
細線
 48
50.0
100
AcDbCircle
 10
3048.195515348525
 20
3339.112805903258
 30
0.0
 40
12.0
  0
ARC
  5
15055
330
747D
100
AcDbEntity
  8
部品1
 48
50.0
100
AcDbCircle
 10
3048.195515348525
 20
3389.112805903258
 30
0.0
 40
8.5
100
AcDbArc
 50
114.315739171091
 51
245.684260828909
  0
CIRCLE
  5
15056
330
747D
100
AcDbEntity
  8
細線
 48
50.0
100
AcDbCircle
 10
3048.195515348525
 20
3389.112805903258
 30
0.0
 40
4.5
  0
LWPOLYLINE
  5
15057
330
747D
100
AcDbEntity
  8
部品1
 48
50.0
100
AcDbPolyline
 90
        2
 70
     0
 43
0.0
 10
3044.695515348526
 20
3407.787655300241
 10
3044.695515348526
 20
3396.858772595673
  0
CIRCLE
  5
15058
330
747D
100
AcDbEntity
  8
部品1
 48
50.0
100
AcDbCircle
 10
3048.195515348525
 20
3389.112805903258
 30
0.0
 40
19.0
  0
LWPOLYLINE
  5
15059
330
747D
100
AcDbEntity
  8
部品1
 48
50.0
100
AcDbPolyline
 90
        2
 70
     0
 43
0.0
 10
3044.695515348526
 20
3381.366839210843
 10
3044.695515348526
 20
3370.437956506275
  0
LWPOLYLINE
  5
1505A
330
747D
100
AcDbEntity
  8
部品1
 48
50.0
100
AcDbPolyline
 90
        2
 70
     0
 43
0.0
 10
3051.695515348525
 20
3396.858772595673
 10
3051.695515348525
 20
3407.787655300241
  0
ARC
  5
1505B
330
747D
100
AcDbEntity
  8
部品1
 48
50.0
100
AcDbCircle
 10
3048.195515348525
 20
3389.112805903258
 30
0.0
 40
8.5
100
AcDbArc
 50
294.315739171091
 51
65.68426082890896
  0
LWPOLYLINE
  5
1505C
330
747D
100
AcDbEntity
  8
部品1
 48
50.0
100
AcDbPolyline
 90
        2
 70
     0
 43
0.0
 10
3051.695515348525
 20
3370.437956506275
 10
3051.695515348525
 20
3381.366839210843
  0
ARC
  5
1505D
330
747D
100
AcDbEntity
  8
細線
 48
50.0
100
AcDbCircle
 10
3048.195515348525
 20
3389.112805903258
 30
0.0
 40
16.5
100
AcDbArc
 50
332.0012352654316
 51
27.99876473456844
  0
ARC
  5
1505E
330
747D
100
AcDbEntity
  8
細線
 48
50.0
100
AcDbCircle
 10
3048.195515348525
 20
3389.112805903258
 30
0.0
 40
14.0
100
AcDbArc
 50
326.4074436112843
 51
33.59255638871576
  0
LINE
  5
1505F
330
747D
100
AcDbEntity
  8
細線
 48
50.0
100
AcDbLine
 10
3033.626713064194
 20
3396.858772595673
 30
0.0
 11
3036.533611558836
 21
3396.858772595673
 31
0.0
  0
LINE
  5
15060
330
747D
100
AcDbEntity
  8
細線
 48
50.0
100
AcDbLine
 10
3033.626713064194
 20
3381.366839210843
 30
0.0
 11
3036.533611558836
 21
3381.366839210843
 31
0.0
  0
LINE
  5
15061
330
747D
100
AcDbEntity
  8
細線
 48
50.0
100
AcDbLine
 10
3059.857419138214
 20
3396.858772595673
 30
0.0
 11
3062.76431763286
 21
3396.858772595673
 31
0.0
  0
LINE
  5
15062
330
747D
100
AcDbEntity
  8
細線
 48
50.0
100
AcDbLine
 10
3059.857419138214
 20
3381.366839210843
 30
0.0
 11
3062.76431763286
 21
3381.366839210843
 31
0.0
  0
ARC
  5
15063
330
747D
100
AcDbEntity
  8
細線
 48
50.0
100
AcDbCircle
 10
3048.195515348525
 20
3389.112805903258
 30
0.0
 40
14.0
100
AcDbArc
 50
146.4074436112842
 51
213.5925563887158
  0
ARC
  5
15064
330
747D
100
AcDbEntity
  8
細線
 48
50.0
100
AcDbCircle
 10
3048.195515348525
 20
3389.112805903258
 30
0.0
 40
16.5
100
AcDbArc
 50
152.0012352654315
 51
207.9987647345685
  0
ARC
  5
15065
330
747D
100
AcDbEntity
  8
部品1
 48
50.0
100
AcDbCircle
 10
3021.695515348525
 20
3414.612805903259
 30
0.0
 40
5.0
100
AcDbArc
 50
90.0
 51
180.0
  0
ARC
  5
15066
330
747D
100
AcDbEntity
  8
部品1
 48
50.0
100
AcDbCircle
 10
3021.695515348525
 20
3303.612805903258
 30
0.0
 40
5.0
100
AcDbArc
 50
180.0
 51
270.0
  0
ARC
  5
15067
330
747D
100
AcDbEntity
  8
部品1
 48
50.0
100
AcDbCircle
 10
3074.695515348525
 20
3303.612805903258
 30
0.0
 40
5.0
100
AcDbArc
 50
270.0
 51
0.0
  0
ARC
  5
15068
330
747D
100
AcDbEntity
  8
部品1
 48
50.0
100
AcDbCircle
 10
3074.695515348525
 20
3414.612805903259
 30
0.0
 40
5.0
100
AcDbArc
 50
0.0
 51
90.0
  0
LINE
  5
15069
330
747D
100
AcDbEntity
  8
部品1
 48
50.0
100
AcDbLine
 10
3016.695515348525
 20
3303.612805903258
 30
0.0
 11
3016.695515348525
 21
3414.612805903259
 31
0.0
  0
LINE
  5
1506A
330
747D
100
AcDbEntity
  8
部品1
 48
50.0
100
AcDbLine
 10
3074.695515348525
 20
3298.612805903258
 30
0.0
 11
3021.695515348525
 21
3298.612805903258
 31
0.0
  0
LINE
  5
1506B
330
747D
100
AcDbEntity
  8
部品1
 48
50.0
100
AcDbLine
 10
3079.695515348525
 20
3414.612805903259
 30
0.0
 11
3079.695515348525
 21
3303.612805903258
 31
0.0
  0
ENDSEC
  0
SECTION
  2
OBJECTS
  0
DICTIONARY
  5
7471
330
0
100
AcDbDictionary
281
     1
  3
ACAD_COLOR
350
13BB4
  3
ACAD_GROUP
350
7472
  3
ACAD_LAYOUT
350
13BB5
  3
ACAD_MATERIAL
350
13BB3
  3
ACAD_MLINESTYLE
350
7473
  3
ACAD_PLOTSETTINGS
350
13BB6
  3
ACAD_PLOTSTYLENAME
350
13BB1
  3
ACDBHEADERROUNDTRIPXREC
350
1507B
  3
AcDbVariableDictionary
350
15077
  3
CONTENTDICTIONARY
350
E71C
  3
DRAWINGVARIABLESDICT
350
F3B9
  0
DICTIONARY
  5
13D31
330
7467
100
AcDbDictionary
280
     1
281
     1
  3
ACAD_LAYERSTATES
360
13D32
  0
DICTIONARY
  5
13BB4
102
{ACAD_REACTORS
330
7471
102
}
330
7471
100
AcDbDictionary
281
     1
  0
DICTIONARY
  5
7472
102
{ACAD_REACTORS
330
7471
102
}
330
7471
100
AcDbDictionary
281
     1
  0
DICTIONARY
  5
13BB5
102
{ACAD_REACTORS
330
7471
102
}
330
7471
100
AcDbDictionary
281
     1
  3
Model
350
13BB7
  3
レイアウト1
350
13BB8
  0
DICTIONARY
  5
13BB3
102
{ACAD_REACTORS
330
7471
102
}
330
7471
100
AcDbDictionary
281
     1
  0
DICTIONARY
  5
7473
102
{ACAD_REACTORS
330
7471
102
}
330
7471
100
AcDbDictionary
281
     1
  3
STANDARD
350
7480
  0
DICTIONARY
  5
13BB6
102
{ACAD_REACTORS
330
7471
102
}
330
7471
100
AcDbDictionary
281
     1
  0
ACDBDICTIONARYWDFLT
  5
13BB1
102
{ACAD_REACTORS
330
7471
102
}
330
7471
100
AcDbDictionary
281
     1
  3
Normal
350
13BB2
100
AcDbDictionaryWithDefault
340
13BB2
  0
DICTIONARY
  5
1507B
102
{ACAD_REACTORS
330
7471
102
}
330
7471
100
AcDbDictionary
281
     1
  3
COLORDICT
350
1507D
  3
MATERIALDICT
350
1507C
  0
DICTIONARY
  5
15077
102
{ACAD_REACTORS
330
7471
102
}
330
7471
100
AcDbDictionary
281
     1
  3
DIMASSOC
350
15078
  3
PROJECTNAME
350
15079
  0
DICTIONARY
  5
E71C
102
{ACAD_REACTORS
330
7471
102
}
330
7471
100
AcDbDictionary
281
     1
  0
DICTIONARY
  5
F3B9
102
{ACAD_REACTORS
330
7471
102
}
330
7471
100
AcDbDictionary
281
     1
1001
DRAWINGVARIABLESXDATA
1000
POLARMODE
1000
1
  0
DICTIONARY
  5
13D32
102
{ACAD_REACTORS
330
13D31
102
}
330
13D31
100
AcDbDictionary
281
     1
  0
LAYOUT
  5
13BB7
102
{ACAD_XDICTIONARY
360
1507E
102
}
102
{ACAD_REACTORS
330
13BB5
102
}
330
13BB5
100
AcDbPlotSettings
  1

  2
EPSON LP-7000C
  4

  6

 40
0.0
 41
0.0
 42
0.0
 43
0.0
 44
0.0
 45
0.0
 46
0.0
 47
0.0
 48
0.0
 49
0.0
140
0.0
141
0.0
142
1.0
143
1.0
 70
  1712
 72
     0
 73
     0
 74
     0
  7

 75
     0
147
1.0
148
0.0
149
0.0
100
AcDbLayout
  1
Model
 70
     1
 71
     0
 10
0.0
 20
0.0
 11
12.0
 21
9.0
 12
0.0
 22
0.0
 32
0.0
 14
0.0
 24
0.0
 34
0.0
 15
0.0
 25
0.0
 35
0.0
146
0.0
 13
0.0
 23
0.0
 33
0.0
 16
1.0
 26
0.0
 36
0.0
 17
0.0
 27
1.0
 37
0.0
 76
     0
330
747D
  0
LAYOUT
  5
13BB8
102
{ACAD_XDICTIONARY
360
15080
102
}
102
{ACAD_REACTORS
330
13BB5
102
}
330
13BB5
100
AcDbPlotSettings
  1

  2
EPSON LP-7000C
  4

  6

 40
0.0
 41
0.0
 42
0.0
 43
0.0
 44
0.0
 45
0.0
 46
0.0
 47
0.0
 48
0.0
 49
0.0
140
0.0
141
0.0
142
1.0
143
1.0
 70
   688
 72
     0
 73
     0
 74
     5
  7

 75
    16
147
1.0
148
0.0
149
0.0
100
AcDbLayout
  1
レイアウト1
 70
     0
 71
     1
 10
0.0
 20
0.0
 11
420.0
 21
297.0
 12
0.0
 22
0.0
 32
0.0
 14
1.000000000000000E+20
 24
1.000000000000000E+20
 34
1.000000000000000E+20
 15
-1.000000000000000E+20
 25
-1.000000000000000E+20
 35
-1.000000000000000E+20
146
0.0
 13
0.0
 23
0.0
 33
0.0
 16
1.0
 26
0.0
 36
0.0
 17
0.0
 27
1.0
 37
0.0
 76
     0
330
747A
  0
MLINESTYLE
  5
7480
102
{ACAD_REACTORS
330
7473
102
}
330
7473
100
AcDbMlineStyle
  2
STANDARD
 70
     0
  3

 62
     0
 51
90.0
 52
90.0
 71
     2
 49
0.5
 62
   256
  6
BYLAYER
 49
-0.5
 62
   256
  6
BYLAYER
  0
ACDBPLACEHOLDER
  5
13BB2
102
{ACAD_REACTORS
330
13BB1
102
}
330
13BB1
  0
XRECORD
  5
1507D
102
{ACAD_REACTORS
330
1507B
102
}
330
1507B
100
AcDbXrecord
280
     1
340
13BB4
  0
XRECORD
  5
1507C
102
{ACAD_REACTORS
330
1507B
102
}
330
1507B
100
AcDbXrecord
280
     1
340
13BB3
  0
DICTIONARYVAR
  5
15078
102
{ACAD_REACTORS
330
15077
102
}
330
15077
100
DictionaryVariables
280
     0
  1
1
  0
DICTIONARYVAR
  5
15079
102
{ACAD_REACTORS
330
15077
102
}
330
15077
100
DictionaryVariables
280
     0
  1

  0
DICTIONARY
  5
1507E
330
13BB7
100
AcDbDictionary
280
     1
281
     1
  3
ACAD_XREC_ROUNDTRIP
360
1507F
  0
DICTIONARY
  5
15080
330
13BB8
100
AcDbDictionary
280
     1
281
     1
  3
ACAD_XREC_ROUNDTRIP
360
15081
  0
XRECORD
  5
1507F
102
{ACAD_REACTORS
330
1507E
102
}
330
1507E
100
AcDbXrecord
280
     1
102
SHADEPLOT
 70
     0
102
SHADEPLOTRESLEVEL
 70
     2
102
SHADEPLOTCUSTOMDPI
 70
   300
  0
XRECORD
  5
15081
102
{ACAD_REACTORS
330
15080
102
}
330
15080
100
AcDbXrecord
280
     1
102
SHADEPLOT
 70
     0
102
SHADEPLOTRESLEVEL
 70
     2
102
SHADEPLOTCUSTOMDPI
 70
   300
  0
ENDSEC
  0
EOF
