  0
SECTION
  2
HEADER
  9
$ACADVER
  1
AC1015
  9
$ACADMAINTVER
 70
    20
  9
$DWGCODEPAGE
  3
ANSI_932
  9
$INSBASE
 10
0.0
 20
0.0
 30
0.0
  9
$EXTMIN
 10
139.9999999999995
 20
-0.0000000000000909
 30
0.0
  9
$EXTMAX
 10
16307.2
 20
11409.6
 30
0.0
  9
$LIMMIN
 10
0.0
 20
0.0
  9
$LIMMAX
 10
16800.0
 20
11880.0
  9
$ORTHOMODE
 70
     0
  9
$REGENMODE
 70
     1
  9
$FILLMODE
 70
     1
  9
$QTEXTMODE
 70
     0
  9
$MIRRTEXT
 70
     1
  9
$LTSCALE
 40
20.0
  9
$ATTMODE
 70
     1
  9
$TEXTSIZE
 40
100.0
  9
$TRACEWID
 40
1.0
  9
$TEXTSTYLE
  7
STYLE3
  9
$CLAYER
  8
部品1
  9
$CELTYPE
  6
BYLAYER
  9
$CECOLOR
 62
   256
  9
$CELTSCALE
 40
50.0
  9
$DISPSILH
 70
     0
  9
$DIMSCALE
 40
40.0
  9
$DIMASZ
 40
0.5
  9
$DIMEXO
 40
0.5
  9
$DIMDLI
 40
7.0
  9
$DIMRND
 40
0.0
  9
$DIMDLE
 40
0.0
  9
$DIMEXE
 40
1.0
  9
$DIMTP
 40
0.0
  9
$DIMTM
 40
0.0
  9
$DIMTXT
 40
3.0
  9
$DIMCEN
 40
0.0
  9
$DIMTSZ
 40
0.0
  9
$DIMTOL
 70
     0
  9
$DIMLIM
 70
     0
  9
$DIMTIH
 70
     0
  9
$DIMTOH
 70
     0
  9
$DIMSE1
 70
     0
  9
$DIMSE2
 70
     0
  9
$DIMTAD
 70
     3
  9
$DIMZIN
 70
     8
  9
$DIMBLK
  1

  9
$DIMASO
 70
     1
  9
$DIMSHO
 70
     1
  9
$DIMPOST
  1

  9
$DIMAPOST
  1

  9
$DIMALT
 70
     0
  9
$DIMALTD
 70
     2
  9
$DIMALTF
 40
0.0394
  9
$DIMLFAC
 40
1.0
  9
$DIMTOFL
 70
     1
  9
$DIMTVP
 40
0.0
  9
$DIMTIX
 70
     1
  9
$DIMSOXD
 70
     1
  9
$DIMSAH
 70
     1
  9
$DIMBLK1
  1
DOT
  9
$DIMBLK2
  1
DOT
  9
$DIMSTYLE
  2
INABA_S40
  9
$DIMCLRD
 70
     0
  9
$DIMCLRE
 70
     0
  9
$DIMCLRT
 70
     7
  9
$DIMTFAC
 40
1.0
  9
$DIMGAP
 40
0.8
  9
$DIMJUST
 70
     0
  9
$DIMSD1
 70
     0
  9
$DIMSD2
 70
     0
  9
$DIMTOLJ
 70
     1
  9
$DIMTZIN
 70
     0
  9
$DIMALTZ
 70
     0
  9
$DIMALTTZ
 70
     0
  9
$DIMUPT
 70
     0
  9
$DIMDEC
 70
     2
  9
$DIMTDEC
 70
     2
  9
$DIMALTU
 70
     2
  9
$DIMALTTD
 70
     2
  9
$DIMTXSTY
  7
STYLE1
  9
$DIMAUNIT
 70
     0
  9
$DIMADEC
 70
     0
  9
$DIMALTRND
 40
0.0
  9
$DIMAZIN
 70
     0
  9
$DIMDSEP
 70
    46
  9
$DIMATFIT
 70
     3
  9
$DIMFRAC
 70
     0
  9
$DIMLDRBLK
  1

  9
$DIMLUNIT
 70
     2
  9
$DIMLWD
 70
    -2
  9
$DIMLWE
 70
    -2
  9
$DIMTMOVE
 70
     0
  9
$LUNITS
 70
     2
  9
$LUPREC
 70
     1
  9
$SKETCHINC
 40
1.0
  9
$FILLETRAD
 40
5.0
  9
$AUNITS
 70
     0
  9
$AUPREC
 70
     0
  9
$MENU
  1
acad
  9
$ELEVATION
 40
0.0
  9
$PELEVATION
 40
0.0
  9
$THICKNESS
 40
0.0
  9
$LIMCHECK
 70
     0
  9
$CHAMFERA
 40
0.0
  9
$CHAMFERB
 40
0.0
  9
$CHAMFERC
 40
0.0
  9
$CHAMFERD
 40
0.0
  9
$SKPOLY
 70
     0
  9
$TDCREATE
 40
2451590.492424190
  9
$TDUCREATE
 40
2451590.117424190
  9
$TDUPDATE
 40
2455575.701129734
  9
$TDUUPDATE
 40
2455575.326129734
  9
$TDINDWG
 40
0.1487870370
  9
$TDUSRTIMER
 40
0.1487870370
  9
$USRTIMER
 70
     1
  9
$ANGBASE
 50
0.0
  9
$ANGDIR
 70
     0
  9
$PDMODE
 70
     3
  9
$PDSIZE
 40
2.0
  9
$PLINEWID
 40
0.0
  9
$SPLFRAME
 70
     0
  9
$SPLINETYPE
 70
     6
  9
$SPLINESEGS
 70
     8
  9
$HANDSEED
  5
160CD
  9
$SURFTAB1
 70
     6
  9
$SURFTAB2
 70
     6
  9
$SURFTYPE
 70
     6
  9
$SURFU
 70
     6
  9
$SURFV
 70
     6
  9
$UCSBASE
  2

  9
$UCSNAME
  2

  9
$UCSORG
 10
0.0
 20
0.0
 30
0.0
  9
$UCSXDIR
 10
1.0
 20
0.0
 30
0.0
  9
$UCSYDIR
 10
0.0
 20
1.0
 30
0.0
  9
$UCSORTHOREF
  2

  9
$UCSORTHOVIEW
 70
     0
  9
$UCSORGTOP
 10
0.0
 20
0.0
 30
0.0
  9
$UCSORGBOTTOM
 10
0.0
 20
0.0
 30
0.0
  9
$UCSORGLEFT
 10
0.0
 20
0.0
 30
0.0
  9
$UCSORGRIGHT
 10
0.0
 20
0.0
 30
0.0
  9
$UCSORGFRONT
 10
0.0
 20
0.0
 30
0.0
  9
$UCSORGBACK
 10
0.0
 20
0.0
 30
0.0
  9
$PUCSBASE
  2

  9
$PUCSNAME
  2

  9
$PUCSORG
 10
0.0
 20
0.0
 30
0.0
  9
$PUCSXDIR
 10
1.0
 20
0.0
 30
0.0
  9
$PUCSYDIR
 10
0.0
 20
1.0
 30
0.0
  9
$PUCSORTHOREF
  2

  9
$PUCSORTHOVIEW
 70
     0
  9
$PUCSORGTOP
 10
0.0
 20
0.0
 30
0.0
  9
$PUCSORGBOTTOM
 10
0.0
 20
0.0
 30
0.0
  9
$PUCSORGLEFT
 10
0.0
 20
0.0
 30
0.0
  9
$PUCSORGRIGHT
 10
0.0
 20
0.0
 30
0.0
  9
$PUCSORGFRONT
 10
0.0
 20
0.0
 30
0.0
  9
$PUCSORGBACK
 10
0.0
 20
0.0
 30
0.0
  9
$USERI1
 70
     0
  9
$USERI2
 70
     0
  9
$USERI3
 70
     0
  9
$USERI4
 70
     0
  9
$USERI5
 70
     0
  9
$USERR1
 40
0.0
  9
$USERR2
 40
0.0
  9
$USERR3
 40
0.0
  9
$USERR4
 40
0.0
  9
$USERR5
 40
0.0
  9
$WORLDVIEW
 70
     1
  9
$SHADEDGE
 70
     3
  9
$SHADEDIF
 70
    70
  9
$TILEMODE
 70
     1
  9
$MAXACTVP
 70
    16
  9
$PINSBASE
 10
0.0
 20
0.0
 30
0.0
  9
$PLIMCHECK
 70
     0
  9
$PEXTMIN
 10
1.000000000000000E+20
 20
1.000000000000000E+20
 30
1.000000000000000E+20
  9
$PEXTMAX
 10
-1.000000000000000E+20
 20
-1.000000000000000E+20
 30
-1.000000000000000E+20
  9
$PLIMMIN
 10
0.0
 20
0.0
  9
$PLIMMAX
 10
420.0
 20
297.0
  9
$UNITMODE
 70
     0
  9
$VISRETAIN
 70
     0
  9
$PLINEGEN
 70
     0
  9
$PSLTSCALE
 70
     0
  9
$TREEDEPTH
 70
  3020
  9
$CMLSTYLE
  2
STANDARD
  9
$CMLJUST
 70
     0
  9
$CMLSCALE
 40
1.0
  9
$PROXYGRAPHICS
 70
     1
  9
$MEASUREMENT
 70
     1
  9
$CELWEIGHT
370
    -1
  9
$ENDCAPS
280
     0
  9
$JOINSTYLE
280
     0
  9
$LWDISPLAY
290
     0
  9
$INSUNITS
 70
     0
  9
$HYPERLINKBASE
  1

  9
$STYLESHEET
  1

  9
$XEDIT
290
     1
  9
$CEPSNTYPE
380
     0
  9
$PSTYLEMODE
290
     1
  9
$FINGERPRINTGUID
  2
{BF5BBDF6-4FC6-42CA-BC7E-242CE9681EA5}
  9
$VERSIONGUID
  2
{4C4B6925-9B97-4406-AEFF-7B3C64EBA885}
  9
$EXTNAMES
290
     1
  9
$PSVPSCALE
 40
0.0
  9
$OLESTARTUP
290
     0
  0
ENDSEC
  0
SECTION
  2
CLASSES
  0
CLASS
  1
ACDBDICTIONARYWDFLT
  2
AcDbDictionaryWithDefault
  3
ObjectDBX Classes
 90
        0
280
     0
281
     0
  0
CLASS
  1
DICTIONARYVAR
  2
AcDbDictionaryVar
  3
ObjectDBX Classes
 90
        0
280
     0
281
     0
  0
CLASS
  1
ACDBPLACEHOLDER
  2
AcDbPlaceHolder
  3
ObjectDBX Classes
 90
        0
280
     0
281
     0
  0
CLASS
  1
LAYOUT
  2
AcDbLayout
  3
ObjectDBX Classes
 90
        0
280
     0
281
     0
  0
ENDSEC
  0
SECTION
  2
TABLES
  0
TABLE
  2
VPORT
  5
746D
330
0
100
AcDbSymbolTable
 70
     2
  0
VPORT
  5
160C5
330
746D
100
AcDbSymbolTableRecord
100
AcDbViewportTableRecord
  2
*Active
 70
     0
 10
0.0
 20
0.0
 11
1.0
 21
1.0
 12
8223.761025238502
 22
6348.683291179126
 13
0.0
 23
0.0
 14
10.0
 24
10.0
 15
10.0
 25
10.0
 16
0.0
 26
0.0
 36
1.0
 17
0.0
 27
0.0
 37
0.0
 40
12805.56644836532
 41
1.525925925925925
 42
50.0
 43
0.0
 44
0.0
 50
0.0
 51
0.0
 71
     0
 72
     0
 73
     1
 74
     0
 75
     0
 76
     0
 77
     0
 78
     0
281
     0
 65
     1
110
0.0
120
0.0
130
0.0
111
1.0
121
0.0
131
0.0
112
0.0
122
1.0
132
0.0
 79
     0
146
0.0
  0
ENDTAB
  0
TABLE
  2
LTYPE
  5
746A
330
0
100
AcDbSymbolTable
 70
     4
  0
LTYPE
  5
7477
330
746A
100
AcDbSymbolTableRecord
100
AcDbLinetypeTableRecord
  2
BYBLOCK
 70
     0
  3

 72
    65
 73
     0
 40
0.0
  0
LTYPE
  5
7478
330
746A
100
AcDbSymbolTableRecord
100
AcDbLinetypeTableRecord
  2
BYLAYER
 70
     0
  3

 72
    65
 73
     0
 40
0.0
  0
LTYPE
  5
7479
330
746A
100
AcDbSymbolTableRecord
100
AcDbLinetypeTableRecord
  2
CONTINUOUS
 70
     0
  3
Solid line
 72
    65
 73
     0
 40
0.0
  0
LTYPE
  5
7816
330
746A
100
AcDbSymbolTableRecord
100
AcDbLinetypeTableRecord
  2
CENTER
 70
     0
  3
____ _ ____ _ ____ _ ____ _ ____ _ ____ _ ____ 
 72
    65
 73
     4
 40
2.0
 49
1.25
 74
     0
 49
-0.25
 74
     0
 49
0.25
 74
     0
 49
-0.25
 74
     0
  0
LTYPE
  5
781A
330
746A
100
AcDbSymbolTableRecord
100
AcDbLinetypeTableRecord
  2
HIDDEN
 70
     0
  3
__ __ __ __ __ __ __ __ __ __ __ __ __ __ __ __
 72
    65
 73
     2
 40
0.375
 49
0.25
 74
     0
 49
-0.125
 74
     0
  0
LTYPE
  5
781B
330
746A
100
AcDbSymbolTableRecord
100
AcDbLinetypeTableRecord
  2
PHANTOM
 70
     0
  3
______  __  __  ______  __  __  ______  __  __ 
 72
    65
 73
     6
 40
2.5
 49
1.25
 74
     0
 49
-0.25
 74
     0
 49
0.25
 74
     0
 49
-0.25
 74
     0
 49
0.25
 74
     0
 49
-0.25
 74
     0
  0
ENDTAB
  0
TABLE
  2
LAYER
  5
7467
102
{ACAD_XDICTIONARY
360
132E2
102
}
330
0
100
AcDbSymbolTable
 70
    12
  0
LAYER
  5
7474
330
7467
100
AcDbSymbolTableRecord
100
AcDbLayerTableRecord
  2
0
 70
     0
 62
     7
  6
CONTINUOUS
370
    -3
390
13164
  0
LAYER
  5
DEB2
330
7467
100
AcDbSymbolTableRecord
100
AcDbLayerTableRecord
  2
センター
 70
     0
 62
     3
  6
CENTER
370
    -3
390
13164
  0
LAYER
  5
DEB3
330
7467
100
AcDbSymbolTableRecord
100
AcDbLayerTableRecord
  2
寸法
 70
     0
 62
     4
  6
CONTINUOUS
370
    -3
390
13164
  0
LAYER
  5
DEB4
330
7467
100
AcDbSymbolTableRecord
100
AcDbLayerTableRecord
  2
部品1
 70
     0
 62
     7
  6
CONTINUOUS
370
    -3
390
13164
  0
LAYER
  5
DEB5
330
7467
100
AcDbSymbolTableRecord
100
AcDbLayerTableRecord
  2
補助
 70
     0
 62
    -1
  6
CONTINUOUS
370
    -3
390
13164
  0
LAYER
  5
DEB6
330
7467
100
AcDbSymbolTableRecord
100
AcDbLayerTableRecord
  2
文字
 70
     0
 62
     7
  6
CONTINUOUS
370
    -3
390
13164
  0
LAYER
  5
F255
330
7467
100
AcDbSymbolTableRecord
100
AcDbLayerTableRecord
  2
DEFPOINTS
 70
     0
 62
     7
  6
CONTINUOUS
290
     0
370
    -3
390
13164
  0
LAYER
  5
10B54
330
7467
100
AcDbSymbolTableRecord
100
AcDbLayerTableRecord
  2
仕様書枠
 70
     0
 62
   230
  6
CONTINUOUS
370
    -3
390
13164
  0
LAYER
  5
11729
330
7467
100
AcDbSymbolTableRecord
100
AcDbLayerTableRecord
  2
Ｇ．Ｌ
 70
     0
 62
    30
  6
CONTINUOUS
370
    -3
390
13164
  0
LAYER
  5
1173F
330
7467
100
AcDbSymbolTableRecord
100
AcDbLayerTableRecord
  2
細線
 70
     0
 62
     5
  6
CONTINUOUS
370
    -3
390
13164
  0
LAYER
  5
11740
330
7467
100
AcDbSymbolTableRecord
100
AcDbLayerTableRecord
  2
点線
 70
     0
 62
     2
  6
HIDDEN
370
    -3
390
13164
  0
LAYER
  5
11905
330
7467
100
AcDbSymbolTableRecord
100
AcDbLayerTableRecord
  2
破線
 70
     0
 62
     2
  6
HIDDEN
370
    -3
390
13164
  0
ENDTAB
  0
TABLE
  2
STYLE
  5
7468
330
0
100
AcDbSymbolTable
 70
     7
  0
STYLE
  5
7475
330
7468
100
AcDbSymbolTableRecord
100
AcDbTextStyleTableRecord
  2
STANDARD
 70
     0
 40
0.0
 41
1.0
 50
0.0
 71
     0
 42
4.0
  3
txt
  4
C:\AutoCAD LT\bigfont.shx
  0
STYLE
  5
763C
330
7468
100
AcDbSymbolTableRecord
100
AcDbTextStyleTableRecord
  2
MSMINCHO
 70
     0
 40
0.0
 41
1.0
 50
0.0
 71
     0
 42
1.199999999999999
  3
C:\AutoCAD LT\msminch2.TTF
  4

  0
STYLE
  5
F5E9
330
7468
100
AcDbSymbolTableRecord
100
AcDbTextStyleTableRecord
  2

 70
     1
 40
0.0
 41
1.0
 50
0.0
 71
     0
 42
4.0
  3
ltypeshp.shx
  4

  0
STYLE
  5
F706
330
7468
100
AcDbSymbolTableRecord
100
AcDbTextStyleTableRecord
  2
STYLE1
 70
     0
 40
0.0
 41
1.0
 50
0.0
 71
     0
 42
4.0
  3
isocp.shx
  4
bigfont.shx
  0
STYLE
  5
103BF
330
7468
100
AcDbSymbolTableRecord
100
AcDbTextStyleTableRecord
  2
STYLE2
 70
     0
 40
0.0
 41
1.0
 50
0.0
 71
     0
 42
100.0
  3
MS PGothic.ttf
  4

1001
ACAD
1000
MS PGothic
1071
    32818
  0
STYLE
  5
10BAA
330
7468
100
AcDbSymbolTableRecord
100
AcDbTextStyleTableRecord
  2
STYLE3
 70
     0
 40
0.0
 41
1.0
 50
0.0
 71
     0
 42
100.0
  3

  4

1001
ACAD
1000
DFPGothic-EB
1071
    32818
  0
STYLE
  5
11906
330
7468
100
AcDbSymbolTableRecord
100
AcDbTextStyleTableRecord
  2
MSGOTHIC
 70
     0
 40
0.0
 41
1.0
 50
0.0
 71
     0
 42
3.5
  3
msgothi2.ttf
  4

  0
ENDTAB
  0
TABLE
  2
VIEW
  5
746B
330
0
100
AcDbSymbolTable
 70
     0
  0
ENDTAB
  0
TABLE
  2
UCS
  5
746C
330
0
100
AcDbSymbolTable
 70
     0
  0
ENDTAB
  0
TABLE
  2
APPID
  5
746E
330
0
100
AcDbSymbolTable
 70
     6
  0
APPID
  5
7476
330
746E
100
AcDbSymbolTableRecord
100
AcDbRegAppTableRecord
  2
ACAD
 70
     0
  0
APPID
  5
DEA9
330
746E
100
AcDbSymbolTableRecord
100
AcDbRegAppTableRecord
  2
CONTENTBLOCKICON
 70
     0
  0
APPID
  5
DEAA
330
746E
100
AcDbSymbolTableRecord
100
AcDbRegAppTableRecord
  2
CONTENTBLOCKDESCRIPTION
 70
     0
  0
APPID
  5
E71D
330
746E
100
AcDbSymbolTableRecord
100
AcDbRegAppTableRecord
  2
CONTENTTABDATA
 70
     0
  0
APPID
  5
E71E
330
746E
100
AcDbSymbolTableRecord
100
AcDbRegAppTableRecord
  2
CONTENTCURRENTTAB
 70
     0
  0
APPID
  5
F3BA
330
746E
100
AcDbSymbolTableRecord
100
AcDbRegAppTableRecord
  2
DRAWINGVARIABLESXDATA
 70
     0
  0
ENDTAB
  0
TABLE
  2
DIMSTYLE
  5
746F
330
0
100
AcDbSymbolTable
 70
     6
100
AcDbDimStyleTable
 71
     1
340
F236
  0
DIMSTYLE
105
7484
330
746F
100
AcDbSymbolTableRecord
100
AcDbDimStyleTableRecord
  2
JIS
 70
     0
 41
2.5
 42
1.0
 43
7.0
 44
1.0
 73
     0
 74
     0
 77
     1
 78
     8
140
2.5
141
0.0
143
0.0394
147
0.0
172
     1
174
     1
175
     1
340
7475
  0
DIMSTYLE
105
F236
102
{ACAD_REACTORS
330
13631
330
13632
330
13633
330
13634
330
13635
330
13654
330
13655
330
13667
330
13697
330
136A1
330
1406B
330
1578D
330
15C46
330
15D42
330
15D67
102
}
330
746F
100
AcDbSymbolTableRecord
100
AcDbDimStyleTableRecord
  2
INABA_S40
 70
     0
 40
40.0
 41
2.5
 42
0.5
 43
7.0
 44
1.5
 73
     0
 74
     0
 77
     3
 78
     8
140
3.0
141
0.0
143
0.0394
147
1.0
172
     1
173
     1
174
     1
175
     1
178
     7
289
     0
340
7475
  0
DIMSTYLE
105
F71F
102
{ACAD_REACTORS
330
137C8
330
137C9
330
137CA
330
137D9
330
13E56
330
13E65
330
13E8C
330
13E8D
330
13E8E
330
13E94
330
13EC6
330
13EC7
330
13EC8
330
15C47
102
}
330
746F
100
AcDbSymbolTableRecord
100
AcDbDimStyleTableRecord
  2
INABA_S40G
 70
     0
 40
40.0
 41
2.5
 42
0.5
 43
7.0
 44
1.5
 73
     0
 74
     0
 77
     3
 78
     8
140
3.0
141
0.0
143
0.0394
147
1.0
172
     1
173
     1
174
     1
175
     1
178
     7
271
     1
340
F706
341
F770
343
F770
344
F770
  0
DIMSTYLE
105
11907
330
746F
100
AcDbSymbolTableRecord
100
AcDbDimStyleTableRecord
  2
INABA_S50
 70
     0
 40
50.0
 41
0.5
 42
0.5
 43
7.0
 44
1.0
 73
     0
 74
     0
 77
     3
 78
     8
140
2.5
141
0.0
143
0.0394
147
0.8
172
     1
173
     1
174
     1
175
     1
178
     7
271
     2
272
     2
289
     0
340
7475
341
F744
343
F744
344
F744
  0
DIMSTYLE
105
11908
330
746F
100
AcDbSymbolTableRecord
100
AcDbDimStyleTableRecord
  2
INABA_S50G
 70
     0
 41
125.0
 42
25.0
 43
7.0
 44
75.0
 73
     0
 74
     0
 77
     3
 78
     8
140
150.0
141
0.0
143
0.0394
147
25.0
172
     1
173
     1
174
     1
175
     1
178
     7
271
     1
340
F706
341
F770
343
F770
344
F770
  0
DIMSTYLE
105
1605C
330
746F
100
AcDbSymbolTableRecord
100
AcDbDimStyleTableRecord
  2
INABA_S20G
 70
     0
 40
20.0
 41
2.5
 42
0.5
 43
7.0
 44
1.5
 73
     0
 74
     0
 77
     3
 78
     8
140
3.0
141
0.0
143
0.0394
147
1.0
172
     1
173
     1
174
     1
178
     7
271
     1
340
F706
341
F770
343
F770
344
F770
  0
ENDTAB
  0
TABLE
  2
BLOCK_RECORD
  5
7466
330
0
100
AcDbSymbolTable
 70
    33
  0
BLOCK_RECORD
  5
747D
330
7466
100
AcDbSymbolTableRecord
100
AcDbBlockTableRecord
  2
*MODEL_SPACE
340
13169
  0
BLOCK_RECORD
  5
747A
330
7466
100
AcDbSymbolTableRecord
100
AcDbBlockTableRecord
  2
*PAPER_SPACE
340
1316A
  0
BLOCK_RECORD
  5
ECB3
330
7466
100
AcDbSymbolTableRecord
100
AcDbBlockTableRecord
  2
作図枠S50
340
0
310
2800000020000000200000000100040000000000000200000000000000000000000000000000000000000000000080000080000000808000800000008000800080800000C0C0C000808080000000FF0000FF000000FFFF00FF000000FF00FF00FFFF0000FFFFFF00FFFFFFFFFFFFFFFFFFFFFFFFFFFFFFFFFFFFFFFFFFFFFF
310
FFFFFFFFFFFFFFFFFFFFFFFFFFFFFFFFFFFFFFFFFFFFFFFFFFFFFFFFFFFFFFFFFFFFFFFFFFFFFFFFFFFFFFFFFFFFFFFFFFFFFFFFFFFFFFFFFFFFFFFFFFFFFFFFFFFFFFFFFFFFFFFFFF999999999999999999999999999999999FFFFFFFFFFFFFFFFFFFFFFFFFFFFFF99FFFFFFFFFFFFFFFFFFFFFFFFFFFFFF99FFFFFFFFFFF
310
FFFFFFFFFFFFFFFFFFF99FFFFFFFFFFFFFFFFFFFFFFFFFFFFFF99FFFFFFFFFFFFFFFFFFFFFFFFFFFFFF99FFFFFFFFFFFFFFFFFFFFFFFFFFFFFF99FFFFFFFFFFFFFFFFFFFFFFFFFFFFFF99FFFFFFFFFFFFFFFFFFFFFFFFFFFFFF99FFFFFFFFFFFFFFFFFFFFFFFFFFFFFF99FFFFFFFFFFFFFFFFFFFFFFFFFFFFFF99FFFFFFFFF
310
FFFFFFFFFFFFFFFFFFFFF99FFFFFFFFFFFFFFFFFFFFFFFFFFFFFF99FFFFFFFFFFFFFFFFFFFFFFFFFFFFFF99FFFFFFFFFFFFFFFFFFFFFFFFFFFFFF99FFFFFFFFFFFFFFFFFFFFFFFFFFFFFF99FFFFFFFFFFFFFFFFFFFFFFFFFFFFFF99FFFFFFFFFFFFFFFFFFFFFFFFFFFFFF99FFFFFFFFFFFFFFFFFFFFF99999999999FFFFFFF
310
FFFFFFFFFFFFFF9FFFFFFFFF99999999999999999999999FFFFFFFFFFFFFFFFFFFFFFFFFFFFFFFFFFFFFFFFFFFFFFFFFFFFFFFFFFFFFFFFFFFFFFFFFFFFFFFFFFFFFFFFFFFFFFFFFFFFFFFFFFFFFFFFFFFFFFFFFFFFFFFFFFFFFFFFFFFFFFFFFFFFFFFFFFFFFFFFFFFFFFFFF
102
{BLKREFS
331
F235
102
}
  0
BLOCK_RECORD
  5
F744
330
7466
100
AcDbSymbolTableRecord
100
AcDbBlockTableRecord
  2
_DOT
340
0
102
{BLKREFS
331
1409B
331
1409C
331
15F8B
331
15F8C
331
15F94
331
15F95
331
15FA8
331
15FA9
331
15FB1
331
15FB2
331
15FBA
331
15FBB
331
15FC3
331
15FC4
331
15FCE
331
15FCF
331
15FD7
331
15FD8
331
15FE0
331
15FE1
331
15FEB
331
15FEC
331
15FF4
331
15FF5
331
15FFF
331
16000
331
16008
331
16009
331
16013
331
16014
102
}
  0
BLOCK_RECORD
  5
F770
330
7466
100
AcDbSymbolTableRecord
100
AcDbBlockTableRecord
  2
_DOTSMALL
340
0
102
{BLKREFS
331
13C58
331
13C59
331
13C61
331
13C62
331
13C6C
331
13C6D
331
13C75
331
13C76
331
140A4
331
140A5
331
140AD
331
140AE
331
140B6
331
140B7
331
140C1
331
140C2
331
140CA
331
140CB
331
140D5
331
140D6
331
140DE
331
140DF
331
140E8
331
140E9
331
140F2
331
140F3
331
15F9D
331
15F9E
102
}
  0
BLOCK_RECORD
  5
1392A
330
7466
100
AcDbSymbolTableRecord
100
AcDbBlockTableRecord
  2
*D3
340
0
  0
BLOCK_RECORD
  5
13938
330
7466
100
AcDbSymbolTableRecord
100
AcDbBlockTableRecord
  2
*D4
340
0
  0
BLOCK_RECORD
  5
13944
330
7466
100
AcDbSymbolTableRecord
100
AcDbBlockTableRecord
  2
*D5
340
0
  0
BLOCK_RECORD
  5
13952
330
7466
100
AcDbSymbolTableRecord
100
AcDbBlockTableRecord
  2
*D6
340
0
  0
BLOCK_RECORD
  5
1395E
330
7466
100
AcDbSymbolTableRecord
100
AcDbBlockTableRecord
  2
*D7
340
0
  0
BLOCK_RECORD
  5
1396C
330
7466
100
AcDbSymbolTableRecord
100
AcDbBlockTableRecord
  2
*D8
340
0
  0
BLOCK_RECORD
  5
13978
330
7466
100
AcDbSymbolTableRecord
100
AcDbBlockTableRecord
  2
*D9
340
0
  0
BLOCK_RECORD
  5
13990
330
7466
100
AcDbSymbolTableRecord
100
AcDbBlockTableRecord
  2
*D10
340
0
  0
BLOCK_RECORD
  5
139AA
330
7466
100
AcDbSymbolTableRecord
100
AcDbBlockTableRecord
  2
*D11
340
0
  0
BLOCK_RECORD
  5
139B6
330
7466
100
AcDbSymbolTableRecord
100
AcDbBlockTableRecord
  2
*D12
340
0
  0
BLOCK_RECORD
  5
139E8
330
7466
100
AcDbSymbolTableRecord
100
AcDbBlockTableRecord
  2
*D13
340
0
  0
BLOCK_RECORD
  5
139F4
330
7466
100
AcDbSymbolTableRecord
100
AcDbBlockTableRecord
  2
*D14
340
0
  0
BLOCK_RECORD
  5
13A02
330
7466
100
AcDbSymbolTableRecord
100
AcDbBlockTableRecord
  2
*D15
340
0
  0
BLOCK_RECORD
  5
13A0E
330
7466
100
AcDbSymbolTableRecord
100
AcDbBlockTableRecord
  2
*D16
340
0
  0
BLOCK_RECORD
  5
13EE5
330
7466
100
AcDbSymbolTableRecord
100
AcDbBlockTableRecord
  2
*D17
340
0
  0
BLOCK_RECORD
  5
13EF2
330
7466
100
AcDbSymbolTableRecord
100
AcDbBlockTableRecord
  2
*D18
340
0
  0
BLOCK_RECORD
  5
13EFF
330
7466
100
AcDbSymbolTableRecord
100
AcDbBlockTableRecord
  2
*D19
340
0
  0
BLOCK_RECORD
  5
13F0B
330
7466
100
AcDbSymbolTableRecord
100
AcDbBlockTableRecord
  2
*D20
340
0
  0
BLOCK_RECORD
  5
13F19
330
7466
100
AcDbSymbolTableRecord
100
AcDbBlockTableRecord
  2
*D21
340
0
  0
BLOCK_RECORD
  5
13F25
330
7466
100
AcDbSymbolTableRecord
100
AcDbBlockTableRecord
  2
*D22
340
0
  0
BLOCK_RECORD
  5
13F40
330
7466
100
AcDbSymbolTableRecord
100
AcDbBlockTableRecord
  2
*D23
340
0
  0
BLOCK_RECORD
  5
13F4C
330
7466
100
AcDbSymbolTableRecord
100
AcDbBlockTableRecord
  2
*D24
340
0
  0
BLOCK_RECORD
  5
13F58
330
7466
100
AcDbSymbolTableRecord
100
AcDbBlockTableRecord
  2
*D25
340
0
  0
BLOCK_RECORD
  5
1406F
330
7466
100
AcDbSymbolTableRecord
100
AcDbBlockTableRecord
  2
*D26
340
0
  0
BLOCK_RECORD
  5
14137
330
7466
100
AcDbSymbolTableRecord
100
AcDbBlockTableRecord
  2
_OPEN
340
0
  0
BLOCK_RECORD
  5
157F8
330
7466
100
AcDbSymbolTableRecord
100
AcDbBlockTableRecord
  2
*D28
340
0
  0
BLOCK_RECORD
  5
15D77
330
7466
100
AcDbSymbolTableRecord
100
AcDbBlockTableRecord
  2
*D29
340
0
  0
BLOCK_RECORD
  5
15D85
330
7466
100
AcDbSymbolTableRecord
100
AcDbBlockTableRecord
  2
*D30
340
0
  0
BLOCK_RECORD
  5
15DB5
330
7466
100
AcDbSymbolTableRecord
100
AcDbBlockTableRecord
  2
*D31
340
0
  0
BLOCK_RECORD
  5
15DCF
330
7466
100
AcDbSymbolTableRecord
100
AcDbBlockTableRecord
  2
*D32
340
0
  0
ENDTAB
  0
ENDSEC
  0
SECTION
  2
BLOCKS
  0
BLOCK
  5
7489
330
747D
100
AcDbEntity
  8
0
100
AcDbBlockBegin
  2
*MODEL_SPACE
 70
     0
 10
0.0
 20
0.0
 30
0.0
  3
*MODEL_SPACE
  1

  0
ENDBLK
  5
748A
330
747D
100
AcDbEntity
  8
0
100
AcDbBlockEnd
  0
BLOCK
  5
7487
330
747A
100
AcDbEntity
 67
     1
  8
0
100
AcDbBlockBegin
  2
*PAPER_SPACE
 70
     0
 10
0.0
 20
0.0
 30
0.0
  3
*PAPER_SPACE
  1

  0
ENDBLK
  5
7488
330
747A
100
AcDbEntity
 67
     1
  8
0
100
AcDbBlockEnd
  0
BLOCK
  5
ECB4
330
ECB3
100
AcDbEntity
  8
0
100
AcDbBlockBegin
  2
作図枠S50
 70
     0
 10
0.0
 20
0.0
 30
0.0
  3
作図枠S50
  1

  4
作図領域枠 縮尺 1/50
  0
LINE
  5
ECB5
330
ECB3
100
AcDbEntity
  8
補助
100
AcDbLine
 10
14364.0
 20
14262.0
 30
0.0
 11
174.9999999999993
 21
14262.0
 31
0.0
  0
LINE
  5
ECB6
330
ECB3
100
AcDbEntity
  8
補助
100
AcDbLine
 10
174.9999999999993
 20
14262.0
 30
0.0
 11
174.9999999999993
 21
1520.0
 31
0.0
  0
LINE
  5
ECB7
330
ECB3
100
AcDbEntity
  8
補助
100
AcDbLine
 10
174.9999999999993
 20
1520.0
 30
0.0
 11
20384.0
 21
1520.0
 31
0.0
  0
LINE
  5
ECB8
330
ECB3
100
AcDbEntity
  8
補助
100
AcDbLine
 10
20384.0
 20
1520.0
 30
0.0
 11
20384.0
 21
13042.0
 31
0.0
  0
LINE
  5
ECB9
330
ECB3
100
AcDbEntity
  8
補助
100
AcDbLine
 10
20384.0
 20
13042.0
 30
0.0
 11
14364.0
 21
13042.0
 31
0.0
  0
LINE
  5
ECBA
330
ECB3
100
AcDbEntity
  8
補助
100
AcDbLine
 10
14364.0
 20
13042.0
 30
0.0
 11
14364.0
 21
14262.0
 31
0.0
  0
ENDBLK
  5
ECBB
330
ECB3
100
AcDbEntity
  8
0
100
AcDbBlockEnd
  0
BLOCK
  5
F745
330
F744
100
AcDbEntity
  8
0
 48
50.0
100
AcDbBlockBegin
  2
_DOT
 70
     0
 10
0.0
 20
0.0
 30
0.0
  3
_DOT
  1

  0
LWPOLYLINE
  5
F746
330
F744
100
AcDbEntity
  8
0
  6
ByBlock
 62
     0
 48
50.0
100
AcDbPolyline
 90
        2
 70
     1
 43
0.5
 10
-0.25
 20
0.0
 42
1.0
 10
0.25
 20
0.0
 42
1.0
  0
LINE
  5
F74A
330
F744
100
AcDbEntity
  8
0
  6
ByBlock
 62
     0
 48
50.0
100
AcDbLine
 10
-0.5
 20
0.0
 30
0.0
 11
-1.0
 21
0.0
 31
0.0
  0
ENDBLK
  5
F74B
330
F744
100
AcDbEntity
  8
0
 48
50.0
100
AcDbBlockEnd
  0
BLOCK
  5
F771
330
F770
100
AcDbEntity
  8
0
 48
50.0
100
AcDbBlockBegin
  2
_DOTSMALL
 70
     0
 10
0.0
 20
0.0
 30
0.0
  3
_DOTSMALL
  1

  0
LWPOLYLINE
  5
F772
330
F770
100
AcDbEntity
  8
0
  6
ByBlock
 62
     0
 48
50.0
100
AcDbPolyline
 90
        2
 70
     1
 43
0.5
 10
-0.0625
 20
0.0
 42
1.0
 10
0.0625
 20
0.0
 42
1.0
  0
ENDBLK
  5
F776
330
F770
100
AcDbEntity
  8
0
 48
50.0
100
AcDbBlockEnd
  0
BLOCK
  5
13936
330
1392A
100
AcDbEntity
  8
0
 48
50.0
100
AcDbBlockBegin
  2
*D3
 70
     1
 10
0.0
 20
0.0
 30
0.0
  3
*D3
  1

  0
LINE
  5
1600E
330
1392A
100
AcDbEntity
  8
寸法
 62
     0
 48
50.0
370
    -2
100
AcDbLine
 10
7943.904397928898
 20
10326.9845259076
 30
0.0
 11
7943.904397928898
 21
10721.69693592639
 31
0.0
  0
LINE
  5
1600F
330
1392A
100
AcDbEntity
  8
寸法
 62
     0
 48
50.0
370
    -2
100
AcDbLine
 10
7998.904397928898
 20
10326.98452590759
 30
0.0
 11
7998.904397928898
 21
10721.69693592639
 31
0.0
  0
LINE
  5
16010
330
1392A
100
AcDbEntity
  8
寸法
 62
     0
 48
50.0
370
    -2
100
AcDbLine
 10
7923.904397928898
 20
10681.69693592639
 30
0.0
 11
7903.904397928897
 21
10681.69693592639
 31
0.0
  0
LINE
  5
16011
330
1392A
100
AcDbEntity
  8
寸法
 62
     0
 48
50.0
370
    -2
100
AcDbLine
 10
8018.904397928897
 20
10681.69693592639
 30
0.0
 11
8493.556345969803
 21
10681.69693592639
 31
0.0
  0
LINE
  5
16012
330
1392A
100
AcDbEntity
  8
寸法
 62
     0
 48
50.0
370
    -2
100
AcDbLine
 10
7943.904397928898
 20
10681.69693592639
 30
0.0
 11
7998.904397928898
 21
10681.69693592639
 31
0.0
  0
INSERT
  5
16013
330
1392A
100
AcDbEntity
  8
寸法
 62
     0
 48
50.0
370
    -2
100
AcDbBlockReference
  2
_DOT
 10
7943.904397928898
 20
10681.69693592639
 30
0.0
 41
20.0
 42
20.0
 43
20.0
  0
INSERT
  5
16014
330
1392A
100
AcDbEntity
  8
寸法
 62
     0
 48
50.0
370
    -2
100
AcDbBlockReference
  2
_DOT
 10
7998.904397928898
 20
10681.69693592639
 30
0.0
 41
20.0
 42
20.0
 43
20.0
 50
180.0
  0
MTEXT
  5
16015
330
1392A
100
AcDbEntity
  8
寸法
 62
     7
 48
50.0
100
AcDbMText
 10
8393.071064595565
 20
10773.69693592639
 30
0.0
 40
120.0
 41
0.0
 71
     5
 72
     1
  1
\A1;55
  7
STYLE1
 73
     1
 44
1.0
1001
ACAD
1000
MTEXTBEGIN
1070
    73
1070
     1
1070
    44
1040
1.0
1070
    74
1070
     0
1000
MTEXTEND
  0
POINT
  5
16016
330
1392A
100
AcDbEntity
  8
DEFPOINTS
 62
     0
 48
50.0
100
AcDbPoint
 10
7943.904397928898
 20
10306.9845259076
 30
0.0
  0
POINT
  5
16017
330
1392A
100
AcDbEntity
  8
DEFPOINTS
 62
     0
 48
50.0
100
AcDbPoint
 10
7998.904397928898
 20
10306.98452590759
 30
0.0
  0
POINT
  5
16018
330
1392A
100
AcDbEntity
  8
DEFPOINTS
 62
     0
 48
50.0
100
AcDbPoint
 10
7998.904397928898
 20
10681.69693592639
 30
0.0
  0
ENDBLK
  5
13937
330
1392A
100
AcDbEntity
  8
0
 48
50.0
100
AcDbBlockEnd
  0
BLOCK
  5
13942
330
13938
100
AcDbEntity
  8
0
 48
50.0
100
AcDbBlockBegin
  2
*D4
 70
     1
 10
0.0
 20
0.0
 30
0.0
  3
*D4
  1

  0
LINE
  5
16005
330
13938
100
AcDbEntity
  8
寸法
 62
     0
 48
50.0
370
    -2
100
AcDbLine
 10
8018.904397928897
 20
10306.98452590759
 30
0.0
 11
9109.651514973251
 21
10306.98452590759
 31
0.0
  0
LINE
  5
16006
330
13938
100
AcDbEntity
  8
寸法
 62
     0
 48
50.0
370
    -2
100
AcDbLine
 10
8018.904397928897
 20
7256.984525907596
 30
0.0
 11
9109.651514973251
 21
7256.984525907596
 31
0.0
  0
LINE
  5
16007
330
13938
100
AcDbEntity
  8
寸法
 62
     0
 48
50.0
370
    -2
100
AcDbLine
 10
9069.651514973251
 20
10286.98452590759
 30
0.0
 11
9069.651514973251
 21
7276.984525907595
 31
0.0
  0
INSERT
  5
16008
330
13938
100
AcDbEntity
  8
寸法
 62
     0
 48
50.0
370
    -2
100
AcDbBlockReference
  2
_DOT
 10
9069.651514973251
 20
10306.98452590759
 30
0.0
 41
20.0
 42
20.0
 43
20.0
 50
90.0
  0
INSERT
  5
16009
330
13938
100
AcDbEntity
  8
寸法
 62
     0
 48
50.0
370
    -2
100
AcDbBlockReference
  2
_DOT
 10
9069.651514973251
 20
7256.984525907596
 30
0.0
 41
20.0
 42
20.0
 43
20.0
 50
270.0
  0
MTEXT
  5
1600A
330
13938
100
AcDbEntity
  8
寸法
 62
     7
 48
50.0
100
AcDbMText
 10
8977.651514973251
 20
8781.984525907597
 30
0.0
 40
120.0
 41
0.0
 71
     5
 72
     1
  1
\A1;3050
  7
STYLE1
 11
0.0000000000000001
 21
1.0
 31
0.0
 73
     1
 44
1.0
1001
ACAD
1000
MTEXTBEGIN
1070
    73
1070
     1
1070
    44
1040
1.0
1070
    74
1070
     0
1000
MTEXTEND
  0
POINT
  5
1600B
330
13938
100
AcDbEntity
  8
DEFPOINTS
 62
     0
 48
50.0
100
AcDbPoint
 10
7998.904397928898
 20
10306.98452590759
 30
0.0
  0
POINT
  5
1600C
330
13938
100
AcDbEntity
  8
DEFPOINTS
 62
     0
 48
50.0
100
AcDbPoint
 10
7998.904397928898
 20
7256.984525907596
 30
0.0
  0
POINT
  5
1600D
330
13938
100
AcDbEntity
  8
DEFPOINTS
 62
     0
 48
50.0
100
AcDbPoint
 10
9069.651514973251
 20
7256.984525907596
 30
0.0
  0
ENDBLK
  5
13943
330
13938
100
AcDbEntity
  8
0
 48
50.0
100
AcDbBlockEnd
  0
BLOCK
  5
13950
330
13944
100
AcDbEntity
  8
0
 48
50.0
100
AcDbBlockBegin
  2
*D5
 70
     1
 10
0.0
 20
0.0
 30
0.0
  3
*D5
  1

  0
LINE
  5
15FFA
330
13944
100
AcDbEntity
  8
寸法
 62
     0
 48
50.0
370
    -2
100
AcDbLine
 10
8018.904397928897
 20
7311.984525907591
 30
0.0
 11
8809.651514973253
 21
7311.984525907591
 31
0.0
  0
LINE
  5
15FFB
330
13944
100
AcDbEntity
  8
寸法
 62
     0
 48
50.0
370
    -2
100
AcDbLine
 10
8018.904397928897
 20
7256.984525907596
 30
0.0
 11
8809.651514973253
 21
7256.984525907596
 31
0.0
  0
LINE
  5
15FFC
330
13944
100
AcDbEntity
  8
寸法
 62
     0
 48
50.0
370
    -2
100
AcDbLine
 10
8769.651514973253
 20
7331.984525907592
 30
0.0
 11
8769.651514973253
 21
7351.984525907592
 31
0.0
  0
LINE
  5
15FFD
330
13944
100
AcDbEntity
  8
寸法
 62
     0
 48
50.0
370
    -2
100
AcDbLine
 10
8769.651514973253
 20
7236.984525907596
 30
0.0
 11
8769.651514973253
 21
6762.33257786669
 31
0.0
  0
LINE
  5
15FFE
330
13944
100
AcDbEntity
  8
寸法
 62
     0
 48
50.0
370
    -2
100
AcDbLine
 10
8769.651514973253
 20
7311.984525907591
 30
0.0
 11
8769.651514973253
 21
7256.984525907596
 31
0.0
  0
INSERT
  5
15FFF
330
13944
100
AcDbEntity
  8
寸法
 62
     0
 48
50.0
370
    -2
100
AcDbBlockReference
  2
_DOT
 10
8769.651514973253
 20
7311.984525907591
 30
0.0
 41
20.0
 42
20.0
 43
20.0
 50
270.0
  0
INSERT
  5
16000
330
13944
100
AcDbEntity
  8
寸法
 62
     0
 48
50.0
370
    -2
100
AcDbBlockReference
  2
_DOT
 10
8769.651514973253
 20
7256.984525907596
 30
0.0
 41
20.0
 42
20.0
 43
20.0
 50
90.0
  0
MTEXT
  5
16001
330
13944
100
AcDbEntity
  8
寸法
 62
     7
 48
50.0
100
AcDbMText
 10
8677.651514973252
 20
6862.81785924093
 30
0.0
 40
120.0
 41
0.0
 71
     5
 72
     1
  1
\A1;55
  7
STYLE1
 11
0.0000000000000001
 21
1.0
 31
0.0
 73
     1
 44
1.0
1001
ACAD
1000
MTEXTBEGIN
1070
    73
1070
     1
1070
    44
1040
1.0
1070
    74
1070
     0
1000
MTEXTEND
  0
POINT
  5
16002
330
13944
100
AcDbEntity
  8
DEFPOINTS
 62
     0
 48
50.0
100
AcDbPoint
 10
7998.904397928898
 20
7311.984525907591
 30
0.0
  0
POINT
  5
16003
330
13944
100
AcDbEntity
  8
DEFPOINTS
 62
     0
 48
50.0
100
AcDbPoint
 10
7998.904397928898
 20
7256.984525907596
 30
0.0
  0
POINT
  5
16004
330
13944
100
AcDbEntity
  8
DEFPOINTS
 62
     0
 48
50.0
100
AcDbPoint
 10
8769.651514973253
 20
7256.984525907596
 30
0.0
  0
ENDBLK
  5
13951
330
13944
100
AcDbEntity
  8
0
 48
50.0
100
AcDbBlockEnd
  0
BLOCK
  5
1395C
330
13952
100
AcDbEntity
  8
0
 48
50.0
100
AcDbBlockBegin
  2
*D6
 70
     1
 10
0.0
 20
0.0
 30
0.0
  3
*D6
  1

  0
LINE
  5
15FF1
330
13952
100
AcDbEntity
  8
寸法
 62
     0
 48
50.0
370
    -2
100
AcDbLine
 10
8018.904397928897
 20
10251.9845259076
 30
0.0
 11
8809.651514973252
 21
10251.9845259076
 31
0.0
  0
LINE
  5
15FF2
330
13952
100
AcDbEntity
  8
寸法
 62
     0
 48
50.0
370
    -2
100
AcDbLine
 10
8018.904397928897
 20
7311.984525907591
 30
0.0
 11
8809.651514973252
 21
7311.984525907591
 31
0.0
  0
LINE
  5
15FF3
330
13952
100
AcDbEntity
  8
寸法
 62
     0
 48
50.0
370
    -2
100
AcDbLine
 10
8769.651514973253
 20
10231.9845259076
 30
0.0
 11
8769.651514973253
 21
7331.984525907592
 31
0.0
  0
INSERT
  5
15FF4
330
13952
100
AcDbEntity
  8
寸法
 62
     0
 48
50.0
370
    -2
100
AcDbBlockReference
  2
_DOT
 10
8769.651514973253
 20
10251.9845259076
 30
0.0
 41
20.0
 42
20.0
 43
20.0
 50
90.0
  0
INSERT
  5
15FF5
330
13952
100
AcDbEntity
  8
寸法
 62
     0
 48
50.0
370
    -2
100
AcDbBlockReference
  2
_DOT
 10
8769.651514973253
 20
7311.984525907591
 30
0.0
 41
20.0
 42
20.0
 43
20.0
 50
270.0
  0
MTEXT
  5
15FF6
330
13952
100
AcDbEntity
  8
寸法
 62
     7
 48
50.0
100
AcDbMText
 10
8677.639703949628
 20
8781.984525907597
 30
0.0
 40
120.0
 41
0.0
 71
     5
 72
     1
  1
\A1;7X420=2940
  7
STYLE1
 11
0.0000000000000001
 21
1.0
 31
0.0
 73
     1
 44
1.0
1001
ACAD
1000
MTEXTBEGIN
1070
    73
1070
     1
1070
    44
1040
1.0
1070
    74
1070
     0
1000
MTEXTEND
  0
POINT
  5
15FF7
330
13952
100
AcDbEntity
  8
DEFPOINTS
 62
     0
 48
50.0
100
AcDbPoint
 10
7998.904397928898
 20
10251.9845259076
 30
0.0
  0
POINT
  5
15FF8
330
13952
100
AcDbEntity
  8
DEFPOINTS
 62
     0
 48
50.0
100
AcDbPoint
 10
7998.904397928898
 20
7311.984525907591
 30
0.0
  0
POINT
  5
15FF9
330
13952
100
AcDbEntity
  8
DEFPOINTS
 62
     0
 48
50.0
100
AcDbPoint
 10
8769.651514973253
 20
7311.984525907591
 30
0.0
  0
ENDBLK
  5
1395D
330
13952
100
AcDbEntity
  8
0
 48
50.0
100
AcDbBlockEnd
  0
BLOCK
  5
1396A
330
1395E
100
AcDbEntity
  8
0
 48
50.0
100
AcDbBlockBegin
  2
*D7
 70
     1
 10
0.0
 20
0.0
 30
0.0
  3
*D7
  1

  0
LINE
  5
15FE6
330
1395E
100
AcDbEntity
  8
寸法
 62
     0
 48
50.0
370
    -2
100
AcDbLine
 10
8018.904397928897
 20
10306.98452590759
 30
0.0
 11
8809.651514973253
 21
10306.98452590759
 31
0.0
  0
LINE
  5
15FE7
330
1395E
100
AcDbEntity
  8
寸法
 62
     0
 48
50.0
370
    -2
100
AcDbLine
 10
8018.904397928897
 20
10251.9845259076
 30
0.0
 11
8809.651514973253
 21
10251.9845259076
 31
0.0
  0
LINE
  5
15FE8
330
1395E
100
AcDbEntity
  8
寸法
 62
     0
 48
50.0
370
    -2
100
AcDbLine
 10
8769.651514973253
 20
10231.9845259076
 30
0.0
 11
8769.651514973253
 21
10211.9845259076
 31
0.0
  0
LINE
  5
15FE9
330
1395E
100
AcDbEntity
  8
寸法
 62
     0
 48
50.0
370
    -2
100
AcDbLine
 10
8769.651514973253
 20
10326.98452590759
 30
0.0
 11
8769.651514973253
 21
10801.6364739485
 31
0.0
  0
LINE
  5
15FEA
330
1395E
100
AcDbEntity
  8
寸法
 62
     0
 48
50.0
370
    -2
100
AcDbLine
 10
8769.651514973253
 20
10251.9845259076
 30
0.0
 11
8769.651514973253
 21
10306.98452590759
 31
0.0
  0
INSERT
  5
15FEB
330
1395E
100
AcDbEntity
  8
寸法
 62
     0
 48
50.0
370
    -2
100
AcDbBlockReference
  2
_DOT
 10
8769.651514973253
 20
10251.9845259076
 30
0.0
 41
20.0
 42
20.0
 43
20.0
 50
90.0
  0
INSERT
  5
15FEC
330
1395E
100
AcDbEntity
  8
寸法
 62
     0
 48
50.0
370
    -2
100
AcDbBlockReference
  2
_DOT
 10
8769.651514973253
 20
10306.98452590759
 30
0.0
 41
20.0
 42
20.0
 43
20.0
 50
270.0
  0
MTEXT
  5
15FED
330
1395E
100
AcDbEntity
  8
寸法
 62
     7
 48
50.0
100
AcDbMText
 10
8677.651514973252
 20
10701.15119257426
 30
0.0
 40
120.0
 41
0.0
 71
     5
 72
     1
  1
\A1;55
  7
STYLE1
 11
0.0000000000000001
 21
1.0
 31
0.0
 73
     1
 44
1.0
1001
ACAD
1000
MTEXTBEGIN
1070
    73
1070
     1
1070
    44
1040
1.0
1070
    74
1070
     0
1000
MTEXTEND
  0
POINT
  5
15FEE
330
1395E
100
AcDbEntity
  8
DEFPOINTS
 62
     0
 48
50.0
100
AcDbPoint
 10
7998.904397928898
 20
10306.98452590759
 30
0.0
  0
POINT
  5
15FEF
330
1395E
100
AcDbEntity
  8
DEFPOINTS
 62
     0
 48
50.0
100
AcDbPoint
 10
7998.904397928898
 20
10251.9845259076
 30
0.0
  0
POINT
  5
15FF0
330
1395E
100
AcDbEntity
  8
DEFPOINTS
 62
     0
 48
50.0
100
AcDbPoint
 10
8769.651514973253
 20
10251.9845259076
 30
0.0
  0
ENDBLK
  5
1396B
330
1395E
100
AcDbEntity
  8
0
 48
50.0
100
AcDbBlockEnd
  0
BLOCK
  5
13976
330
1396C
100
AcDbEntity
  8
0
 48
50.0
100
AcDbBlockBegin
  2
*D8
 70
     1
 10
0.0
 20
0.0
 30
0.0
  3
*D8
  1

  0
LINE
  5
15FDD
330
1396C
100
AcDbEntity
  8
寸法
 62
     0
 48
50.0
370
    -2
100
AcDbLine
 10
3578.904397928898
 20
10326.98452590759
 30
0.0
 11
3578.904397928898
 21
11021.69693592639
 31
0.0
  0
LINE
  5
15FDE
330
1396C
100
AcDbEntity
  8
寸法
 62
     0
 48
50.0
370
    -2
100
AcDbLine
 10
7998.904397928898
 20
10326.98452590759
 30
0.0
 11
7998.904397928898
 21
11021.69693592639
 31
0.0
  0
LINE
  5
15FDF
330
1396C
100
AcDbEntity
  8
寸法
 62
     0
 48
50.0
370
    -2
100
AcDbLine
 10
3598.904397928898
 20
10981.69693592639
 30
0.0
 11
7978.904397928897
 21
10981.69693592639
 31
0.0
  0
INSERT
  5
15FE0
330
1396C
100
AcDbEntity
  8
寸法
 62
     0
 48
50.0
370
    -2
100
AcDbBlockReference
  2
_DOT
 10
3578.904397928898
 20
10981.69693592639
 30
0.0
 41
20.0
 42
20.0
 43
20.0
 50
180.0
  0
INSERT
  5
15FE1
330
1396C
100
AcDbEntity
  8
寸法
 62
     0
 48
50.0
370
    -2
100
AcDbBlockReference
  2
_DOT
 10
7998.904397928898
 20
10981.69693592639
 30
0.0
 41
20.0
 42
20.0
 43
20.0
  0
MTEXT
  5
15FE2
330
1396C
100
AcDbEntity
  8
寸法
 62
     7
 48
50.0
100
AcDbMText
 10
5788.904397928899
 20
11073.70874695001
 30
0.0
 40
120.0
 41
0.0
 71
     5
 72
     1
  1
\A1;4420
  7
STYLE1
 73
     1
 44
1.0
1001
ACAD
1000
MTEXTBEGIN
1070
    73
1070
     1
1070
    44
1040
1.0
1070
    74
1070
     0
1000
MTEXTEND
  0
POINT
  5
15FE3
330
1396C
100
AcDbEntity
  8
DEFPOINTS
 62
     0
 48
50.0
100
AcDbPoint
 10
3578.904397928898
 20
10306.98452590759
 30
0.0
  0
POINT
  5
15FE4
330
1396C
100
AcDbEntity
  8
DEFPOINTS
 62
     0
 48
50.0
100
AcDbPoint
 10
7998.904397928898
 20
10306.98452590759
 30
0.0
  0
POINT
  5
15FE5
330
1396C
100
AcDbEntity
  8
DEFPOINTS
 62
     0
 48
50.0
100
AcDbPoint
 10
7998.904397928898
 20
10981.69693592639
 30
0.0
  0
ENDBLK
  5
13977
330
1396C
100
AcDbEntity
  8
0
 48
50.0
100
AcDbBlockEnd
  0
BLOCK
  5
13982
330
13978
100
AcDbEntity
  8
0
 48
50.0
100
AcDbBlockBegin
  2
*D9
 70
     1
 10
0.0
 20
0.0
 30
0.0
  3
*D9
  1

  0
LINE
  5
15FD4
330
13978
100
AcDbEntity
  8
寸法
 62
     0
 48
50.0
370
    -2
100
AcDbLine
 10
3633.904397928898
 20
10326.9845259076
 30
0.0
 11
3633.904397928898
 21
10721.69693592639
 31
0.0
  0
LINE
  5
15FD5
330
13978
100
AcDbEntity
  8
寸法
 62
     0
 48
50.0
370
    -2
100
AcDbLine
 10
5733.904397928898
 20
10326.9845259076
 30
0.0
 11
5733.904397928898
 21
10721.69693592639
 31
0.0
  0
LINE
  5
15FD6
330
13978
100
AcDbEntity
  8
寸法
 62
     0
 48
50.0
370
    -2
100
AcDbLine
 10
3653.904397928898
 20
10681.69693592639
 30
0.0
 11
5713.904397928899
 21
10681.69693592639
 31
0.0
  0
INSERT
  5
15FD7
330
13978
100
AcDbEntity
  8
寸法
 62
     0
 48
50.0
370
    -2
100
AcDbBlockReference
  2
_DOT
 10
3633.904397928898
 20
10681.69693592639
 30
0.0
 41
20.0
 42
20.0
 43
20.0
 50
180.0
  0
INSERT
  5
15FD8
330
13978
100
AcDbEntity
  8
寸法
 62
     0
 48
50.0
370
    -2
100
AcDbBlockReference
  2
_DOT
 10
5733.904397928898
 20
10681.69693592639
 30
0.0
 41
20.0
 42
20.0
 43
20.0
  0
MTEXT
  5
15FD9
330
13978
100
AcDbEntity
  8
寸法
 62
     7
 48
50.0
100
AcDbMText
 10
4683.904397928897
 20
10773.70874695001
 30
0.0
 40
120.0
 41
0.0
 71
     5
 72
     1
  1
\A1;5X420=2100
  7
STYLE1
 73
     1
 44
1.0
1001
ACAD
1000
MTEXTBEGIN
1070
    73
1070
     1
1070
    44
1040
1.0
1070
    74
1070
     0
1000
MTEXTEND
  0
POINT
  5
15FDA
330
13978
100
AcDbEntity
  8
DEFPOINTS
 62
     0
 48
50.0
100
AcDbPoint
 10
3633.904397928898
 20
10306.9845259076
 30
0.0
  0
POINT
  5
15FDB
330
13978
100
AcDbEntity
  8
DEFPOINTS
 62
     0
 48
50.0
100
AcDbPoint
 10
5733.904397928898
 20
10306.9845259076
 30
0.0
  0
POINT
  5
15FDC
330
13978
100
AcDbEntity
  8
DEFPOINTS
 62
     0
 48
50.0
100
AcDbPoint
 10
5733.904397928898
 20
10681.69693592639
 30
0.0
  0
ENDBLK
  5
13983
330
13978
100
AcDbEntity
  8
0
 48
50.0
100
AcDbBlockEnd
  0
BLOCK
  5
1399C
330
13990
100
AcDbEntity
  8
0
 48
50.0
100
AcDbBlockBegin
  2
*D10
 70
     1
 10
0.0
 20
0.0
 30
0.0
  3
*D10
  1

  0
LINE
  5
15FC9
330
13990
100
AcDbEntity
  8
寸法
 62
     0
 48
50.0
370
    -2
100
AcDbLine
 10
3578.904397928898
 20
10326.98452590759
 30
0.0
 11
3578.904397928898
 21
10721.69693592639
 31
0.0
  0
LINE
  5
15FCA
330
13990
100
AcDbEntity
  8
寸法
 62
     0
 48
50.0
370
    -2
100
AcDbLine
 10
3633.904397928898
 20
10326.9845259076
 30
0.0
 11
3633.904397928898
 21
10721.69693592639
 31
0.0
  0
LINE
  5
15FCB
330
13990
100
AcDbEntity
  8
寸法
 62
     0
 48
50.0
370
    -2
100
AcDbLine
 10
3653.904397928898
 20
10681.69693592639
 30
0.0
 11
3673.904397928898
 21
10681.69693592639
 31
0.0
  0
LINE
  5
15FCC
330
13990
100
AcDbEntity
  8
寸法
 62
     0
 48
50.0
370
    -2
100
AcDbLine
 10
3558.904397928898
 20
10681.69693592639
 30
0.0
 11
3084.252449887995
 21
10681.69693592639
 31
0.0
  0
LINE
  5
15FCD
330
13990
100
AcDbEntity
  8
寸法
 62
     0
 48
50.0
370
    -2
100
AcDbLine
 10
3633.904397928898
 20
10681.69693592639
 30
0.0
 11
3578.904397928898
 21
10681.69693592639
 31
0.0
  0
INSERT
  5
15FCE
330
13990
100
AcDbEntity
  8
寸法
 62
     0
 48
50.0
370
    -2
100
AcDbBlockReference
  2
_DOT
 10
3633.904397928898
 20
10681.69693592639
 30
0.0
 41
20.0
 42
20.0
 43
20.0
 50
180.0
  0
INSERT
  5
15FCF
330
13990
100
AcDbEntity
  8
寸法
 62
     0
 48
50.0
370
    -2
100
AcDbBlockReference
  2
_DOT
 10
3578.904397928898
 20
10681.69693592639
 30
0.0
 41
20.0
 42
20.0
 43
20.0
  0
MTEXT
  5
15FD0
330
13990
100
AcDbEntity
  8
寸法
 62
     7
 48
50.0
100
AcDbMText
 10
3184.737731262234
 20
10773.69693592639
 30
0.0
 40
120.0
 41
0.0
 71
     5
 72
     1
  1
\A1;55
  7
STYLE1
 73
     1
 44
1.0
1001
ACAD
1000
MTEXTBEGIN
1070
    73
1070
     1
1070
    44
1040
1.0
1070
    74
1070
     0
1000
MTEXTEND
  0
POINT
  5
15FD1
330
13990
100
AcDbEntity
  8
DEFPOINTS
 62
     0
 48
50.0
100
AcDbPoint
 10
3578.904397928898
 20
10306.98452590759
 30
0.0
  0
POINT
  5
15FD2
330
13990
100
AcDbEntity
  8
DEFPOINTS
 62
     0
 48
50.0
100
AcDbPoint
 10
3633.904397928898
 20
10306.9845259076
 30
0.0
  0
POINT
  5
15FD3
330
13990
100
AcDbEntity
  8
DEFPOINTS
 62
     0
 48
50.0
100
AcDbPoint
 10
3633.904397928898
 20
10681.69693592639
 30
0.0
  0
ENDBLK
  5
1399D
330
13990
100
AcDbEntity
  8
0
 48
50.0
100
AcDbBlockEnd
  0
BLOCK
  5
139B4
330
139AA
100
AcDbEntity
  8
0
 48
50.0
100
AcDbBlockBegin
  2
*D11
 70
     1
 10
0.0
 20
0.0
 30
0.0
  3
*D11
  1

  0
LINE
  5
15FC0
330
139AA
100
AcDbEntity
  8
寸法
 62
     0
 48
50.0
370
    -2
100
AcDbLine
 10
5843.904397928898
 20
10326.9845259076
 30
0.0
 11
5843.904397928898
 21
10721.69693592639
 31
0.0
  0
LINE
  5
15FC1
330
139AA
100
AcDbEntity
  8
寸法
 62
     0
 48
50.0
370
    -2
100
AcDbLine
 10
7943.904397928898
 20
10326.9845259076
 30
0.0
 11
7943.904397928898
 21
10721.69693592639
 31
0.0
  0
LINE
  5
15FC2
330
139AA
100
AcDbEntity
  8
寸法
 62
     0
 48
50.0
370
    -2
100
AcDbLine
 10
5863.904397928898
 20
10681.69693592639
 30
0.0
 11
7923.904397928898
 21
10681.69693592639
 31
0.0
  0
INSERT
  5
15FC3
330
139AA
100
AcDbEntity
  8
寸法
 62
     0
 48
50.0
370
    -2
100
AcDbBlockReference
  2
_DOT
 10
5843.904397928898
 20
10681.69693592639
 30
0.0
 41
20.0
 42
20.0
 43
20.0
 50
180.0
  0
INSERT
  5
15FC4
330
139AA
100
AcDbEntity
  8
寸法
 62
     0
 48
50.0
370
    -2
100
AcDbBlockReference
  2
_DOT
 10
7943.904397928898
 20
10681.69693592639
 30
0.0
 41
20.0
 42
20.0
 43
20.0
  0
MTEXT
  5
15FC5
330
139AA
100
AcDbEntity
  8
寸法
 62
     7
 48
50.0
100
AcDbMText
 10
6893.904397928898
 20
10773.70874695001
 30
0.0
 40
120.0
 41
0.0
 71
     5
 72
     1
  1
\A1;5X420=2100
  7
STYLE1
 73
     1
 44
1.0
1001
ACAD
1000
MTEXTBEGIN
1070
    73
1070
     1
1070
    44
1040
1.0
1070
    74
1070
     0
1000
MTEXTEND
  0
POINT
  5
15FC6
330
139AA
100
AcDbEntity
  8
DEFPOINTS
 62
     0
 48
50.0
100
AcDbPoint
 10
5843.904397928898
 20
10306.9845259076
 30
0.0
  0
POINT
  5
15FC7
330
139AA
100
AcDbEntity
  8
DEFPOINTS
 62
     0
 48
50.0
100
AcDbPoint
 10
7943.904397928898
 20
10306.9845259076
 30
0.0
  0
POINT
  5
15FC8
330
139AA
100
AcDbEntity
  8
DEFPOINTS
 62
     0
 48
50.0
100
AcDbPoint
 10
7943.904397928898
 20
10681.69693592639
 30
0.0
  0
ENDBLK
  5
139B5
330
139AA
100
AcDbEntity
  8
0
 48
50.0
100
AcDbBlockEnd
  0
BLOCK
  5
139C0
330
139B6
100
AcDbEntity
  8
0
 48
50.0
100
AcDbBlockBegin
  2
*D12
 70
     1
 10
0.0
 20
0.0
 30
0.0
  3
*D12
  1

  0
LINE
  5
15FB7
330
139B6
100
AcDbEntity
  8
寸法
 62
     0
 48
50.0
370
    -2
100
AcDbLine
 10
5733.904397928898
 20
10326.9845259076
 30
0.0
 11
5733.904397928898
 21
10721.69693592639
 31
0.0
  0
LINE
  5
15FB8
330
139B6
100
AcDbEntity
  8
寸法
 62
     0
 48
50.0
370
    -2
100
AcDbLine
 10
5843.904397928898
 20
10326.9845259076
 30
0.0
 11
5843.904397928898
 21
10721.69693592639
 31
0.0
  0
LINE
  5
15FB9
330
139B6
100
AcDbEntity
  8
寸法
 62
     0
 48
50.0
370
    -2
100
AcDbLine
 10
5753.904397928899
 20
10681.69693592639
 30
0.0
 11
5823.904397928898
 21
10681.69693592639
 31
0.0
  0
INSERT
  5
15FBA
330
139B6
100
AcDbEntity
  8
寸法
 62
     0
 48
50.0
370
    -2
100
AcDbBlockReference
  2
_DOT
 10
5733.904397928898
 20
10681.69693592639
 30
0.0
 41
20.0
 42
20.0
 43
20.0
 50
180.0
  0
INSERT
  5
15FBB
330
139B6
100
AcDbEntity
  8
寸法
 62
     0
 48
50.0
370
    -2
100
AcDbBlockReference
  2
_DOT
 10
5843.904397928898
 20
10681.69693592639
 30
0.0
 41
20.0
 42
20.0
 43
20.0
  0
MTEXT
  5
15FBC
330
139B6
100
AcDbEntity
  8
寸法
 62
     7
 48
50.0
100
AcDbMText
 10
5788.904397928899
 20
10773.69693592639
 30
0.0
 40
120.0
 41
0.0
 71
     5
 72
     1
  1
\A1;110
  7
STYLE1
 73
     1
 44
1.0
1001
ACAD
1000
MTEXTBEGIN
1070
    73
1070
     1
1070
    44
1040
1.0
1070
    74
1070
     0
1000
MTEXTEND
  0
POINT
  5
15FBD
330
139B6
100
AcDbEntity
  8
DEFPOINTS
 62
     0
 48
50.0
100
AcDbPoint
 10
5733.904397928898
 20
10306.9845259076
 30
0.0
  0
POINT
  5
15FBE
330
139B6
100
AcDbEntity
  8
DEFPOINTS
 62
     0
 48
50.0
100
AcDbPoint
 10
5843.904397928898
 20
10306.9845259076
 30
0.0
  0
POINT
  5
15FBF
330
139B6
100
AcDbEntity
  8
DEFPOINTS
 62
     0
 48
50.0
100
AcDbPoint
 10
5843.904397928898
 20
10681.69693592639
 30
0.0
  0
ENDBLK
  5
139C1
330
139B6
100
AcDbEntity
  8
0
 48
50.0
100
AcDbBlockEnd
  0
BLOCK
  5
139F2
330
139E8
100
AcDbEntity
  8
0
 48
50.0
100
AcDbBlockBegin
  2
*D13
 70
     1
 10
0.0
 20
0.0
 30
0.0
  3
*D13
  1

  0
LINE
  5
13C72
330
139E8
100
AcDbEntity
  8
寸法
 62
     0
 48
50.0
370
    -2
100
AcDbLine
 10
7998.904397928902
 20
4683.11280590326
 30
0.0
 11
7998.904397928902
 21
4935.6543911615
 31
0.0
  0
LINE
  5
13C73
330
139E8
100
AcDbEntity
  8
寸法
 62
     0
 48
50.0
370
    -2
100
AcDbLine
 10
3578.904397928898
 20
4683.112805903264
 30
0.0
 11
3578.904397928898
 21
4935.6543911615
 31
0.0
  0
LINE
  5
13C74
330
139E8
100
AcDbEntity
  8
寸法
 62
     0
 48
50.0
370
    -2
100
AcDbLine
 10
7998.904397928902
 20
4875.6543911615
 30
0.0
 11
3578.904397928898
 21
4875.6543911615
 31
0.0
  0
INSERT
  5
13C75
330
139E8
100
AcDbEntity
  8
寸法
 62
     0
 48
50.0
370
    -2
100
AcDbBlockReference
  2
_DOTSMALL
 10
7998.904397928902
 20
4875.6543911615
 30
0.0
 41
100.0
 42
100.0
 43
100.0
  0
INSERT
  5
13C76
330
139E8
100
AcDbEntity
  8
寸法
 62
     0
 48
50.0
370
    -2
100
AcDbBlockReference
  2
_DOTSMALL
 10
3578.904397928898
 20
4875.6543911615
 30
0.0
 41
100.0
 42
100.0
 43
100.0
 50
180.0
  0
MTEXT
  5
13C77
330
139E8
100
AcDbEntity
  8
寸法
 62
     7
 48
50.0
100
AcDbMText
 10
5788.9043979289
 20
4975.666202185122
 30
0.0
 40
120.0
 41
0.0
 71
     5
 72
     1
  1
\A1;柱外寸法4420
  7
STYLE1
 73
     1
 44
1.0
1001
ACAD
1000
MTEXTBEGIN
1070
    73
1070
     1
1070
    44
1040
1.0
1070
    74
1070
     0
1000
MTEXTEND
  0
POINT
  5
13C78
330
139E8
100
AcDbEntity
  8
DEFPOINTS
 62
     0
 48
50.0
100
AcDbPoint
 10
7998.904397928902
 20
4663.112805903259
 30
0.0
  0
POINT
  5
13C79
330
139E8
100
AcDbEntity
  8
DEFPOINTS
 62
     0
 48
50.0
100
AcDbPoint
 10
3578.904397928898
 20
4663.112805903264
 30
0.0
  0
POINT
  5
13C7A
330
139E8
100
AcDbEntity
  8
DEFPOINTS
 62
     0
 48
50.0
100
AcDbPoint
 10
3578.904397928898
 20
4875.6543911615
 30
0.0
  0
ENDBLK
  5
139F3
330
139E8
100
AcDbEntity
  8
0
 48
50.0
100
AcDbBlockEnd
  0
BLOCK
  5
13A00
330
139F4
100
AcDbEntity
  8
0
 48
50.0
100
AcDbBlockBegin
  2
*D14
 70
     1
 10
0.0
 20
0.0
 30
0.0
  3
*D14
  1

  0
LINE
  5
13C67
330
139F4
100
AcDbEntity
  8
寸法
 62
     0
 48
50.0
370
    -2
100
AcDbLine
 10
8048.904397928902
 20
4683.112805903258
 30
0.0
 11
8048.904397928902
 21
4935.654391161499
 31
0.0
  0
LINE
  5
13C68
330
139F4
100
AcDbEntity
  8
寸法
 62
     0
 48
50.0
370
    -2
100
AcDbLine
 10
7998.904397928902
 20
4683.11280590326
 30
0.0
 11
7998.904397928902
 21
4935.654391161499
 31
0.0
  0
LINE
  5
13C69
330
139F4
100
AcDbEntity
  8
寸法
 62
     0
 48
50.0
370
    -2
100
AcDbLine
 10
7998.904397928902
 20
4875.654391161499
 30
0.0
 11
7898.904397928902
 21
4875.654391161499
 31
0.0
  0
LINE
  5
13C6A
330
139F4
100
AcDbEntity
  8
寸法
 62
     0
 48
50.0
370
    -2
100
AcDbLine
 10
8048.904397928902
 20
4875.654391161499
 30
0.0
 11
8468.436923397625
 21
4875.654391161499
 31
0.0
  0
LINE
  5
13C6B
330
139F4
100
AcDbEntity
  8
寸法
 62
     0
 48
50.0
370
    -2
100
AcDbLine
 10
7998.904397928902
 20
4875.654391161499
 30
0.0
 11
8048.904397928902
 21
4875.654391161499
 31
0.0
  0
INSERT
  5
13C6C
330
139F4
100
AcDbEntity
  8
寸法
 62
     0
 48
50.0
370
    -2
100
AcDbBlockReference
  2
_DOTSMALL
 10
7998.904397928902
 20
4875.654391161499
 30
0.0
 41
100.0
 42
100.0
 43
100.0
  0
INSERT
  5
13C6D
330
139F4
100
AcDbEntity
  8
寸法
 62
     0
 48
50.0
370
    -2
100
AcDbBlockReference
  2
_DOTSMALL
 10
8048.904397928902
 20
4875.654391161499
 30
0.0
 41
100.0
 42
100.0
 43
100.0
 50
180.0
  0
MTEXT
  5
13C6E
330
139F4
100
AcDbEntity
  8
寸法
 62
     7
 48
50.0
100
AcDbMText
 10
8362.389679303138
 20
4975.654391161499
 30
0.0
 40
120.0
 41
0.0
 71
     5
 72
     1
  1
\A1;50
  7
STYLE1
 73
     1
 44
1.0
1001
ACAD
1000
MTEXTBEGIN
1070
    73
1070
     1
1070
    44
1040
1.0
1070
    74
1070
     0
1000
MTEXTEND
  0
POINT
  5
13C6F
330
139F4
100
AcDbEntity
  8
DEFPOINTS
 62
     0
 48
50.0
100
AcDbPoint
 10
8048.904397928902
 20
4663.112805903258
 30
0.0
  0
POINT
  5
13C70
330
139F4
100
AcDbEntity
  8
DEFPOINTS
 62
     0
 48
50.0
100
AcDbPoint
 10
7998.904397928902
 20
4663.112805903259
 30
0.0
  0
POINT
  5
13C71
330
139F4
100
AcDbEntity
  8
DEFPOINTS
 62
     0
 48
50.0
100
AcDbPoint
 10
7998.904397928902
 20
4875.654391161499
 30
0.0
  0
ENDBLK
  5
13A01
330
139F4
100
AcDbEntity
  8
0
 48
50.0
100
AcDbBlockEnd
  0
BLOCK
  5
13A0C
330
13A02
100
AcDbEntity
  8
0
 48
50.0
100
AcDbBlockBegin
  2
*D15
 70
     1
 10
0.0
 20
0.0
 30
0.0
  3
*D15
  1

  0
LINE
  5
13C5E
330
13A02
100
AcDbEntity
  8
寸法
 62
     0
 48
50.0
370
    -2
100
AcDbLine
 10
3528.904397928898
 20
4683.112805903262
 30
0.0
 11
3528.904397928898
 21
5156.55969163525
 31
0.0
  0
LINE
  5
13C5F
330
13A02
100
AcDbEntity
  8
寸法
 62
     0
 48
50.0
370
    -2
100
AcDbLine
 10
8048.904397928902
 20
4683.112805903258
 30
0.0
 11
8048.904397928902
 21
5156.55969163525
 31
0.0
  0
LINE
  5
13C60
330
13A02
100
AcDbEntity
  8
寸法
 62
     0
 48
50.0
370
    -2
100
AcDbLine
 10
3528.904397928898
 20
5096.559691635249
 30
0.0
 11
8048.904397928902
 21
5096.559691635249
 31
0.0
  0
INSERT
  5
13C61
330
13A02
100
AcDbEntity
  8
寸法
 62
     0
 48
50.0
370
    -2
100
AcDbBlockReference
  2
_DOTSMALL
 10
3528.904397928898
 20
5096.559691635249
 30
0.0
 41
100.0
 42
100.0
 43
100.0
 50
180.0
  0
INSERT
  5
13C62
330
13A02
100
AcDbEntity
  8
寸法
 62
     0
 48
50.0
370
    -2
100
AcDbBlockReference
  2
_DOTSMALL
 10
8048.904397928902
 20
5096.559691635249
 30
0.0
 41
100.0
 42
100.0
 43
100.0
  0
MTEXT
  5
13C63
330
13A02
100
AcDbEntity
  8
寸法
 62
     7
 48
50.0
100
AcDbMText
 10
5788.9043979289
 20
5196.571502658872
 30
0.0
 40
120.0
 41
0.0
 71
     5
 72
     1
  1
\A1;4520
  7
STYLE1
 73
     1
 44
1.0
1001
ACAD
1000
MTEXTBEGIN
1070
    73
1070
     1
1070
    44
1040
1.0
1070
    74
1070
     0
1000
MTEXTEND
  0
POINT
  5
13C64
330
13A02
100
AcDbEntity
  8
DEFPOINTS
 62
     0
 48
50.0
100
AcDbPoint
 10
3528.904397928898
 20
4663.112805903263
 30
0.0
  0
POINT
  5
13C65
330
13A02
100
AcDbEntity
  8
DEFPOINTS
 62
     0
 48
50.0
100
AcDbPoint
 10
8048.904397928902
 20
4663.112805903258
 30
0.0
  0
POINT
  5
13C66
330
13A02
100
AcDbEntity
  8
DEFPOINTS
 62
     0
 48
50.0
100
AcDbPoint
 10
8048.904397928902
 20
5096.559691635249
 30
0.0
  0
ENDBLK
  5
13A0D
330
13A02
100
AcDbEntity
  8
0
 48
50.0
100
AcDbBlockEnd
  0
BLOCK
  5
13A1A
330
13A0E
100
AcDbEntity
  8
0
 48
50.0
100
AcDbBlockBegin
  2
*D16
 70
     1
 10
0.0
 20
0.0
 30
0.0
  3
*D16
  1

  0
LINE
  5
13C53
330
13A0E
100
AcDbEntity
  8
寸法
 62
     0
 48
50.0
370
    -2
100
AcDbLine
 10
3578.904397928898
 20
4683.112805903264
 30
0.0
 11
3578.904397928898
 21
4935.654391161502
 31
0.0
  0
LINE
  5
13C54
330
13A0E
100
AcDbEntity
  8
寸法
 62
     0
 48
50.0
370
    -2
100
AcDbLine
 10
3528.904397928898
 20
4683.112805903262
 30
0.0
 11
3528.904397928898
 21
4935.654391161502
 31
0.0
  0
LINE
  5
13C55
330
13A0E
100
AcDbEntity
  8
寸法
 62
     0
 48
50.0
370
    -2
100
AcDbLine
 10
3578.904397928898
 20
4875.654391161502
 30
0.0
 11
3678.904397928898
 21
4875.654391161502
 31
0.0
  0
LINE
  5
13C56
330
13A0E
100
AcDbEntity
  8
寸法
 62
     0
 48
50.0
370
    -2
100
AcDbLine
 10
3528.904397928898
 20
4875.654391161502
 30
0.0
 11
3109.371872460163
 21
4875.654391161502
 31
0.0
  0
LINE
  5
13C57
330
13A0E
100
AcDbEntity
  8
寸法
 62
     0
 48
50.0
370
    -2
100
AcDbLine
 10
3578.904397928898
 20
4875.654391161502
 30
0.0
 11
3528.904397928898
 21
4875.654391161502
 31
0.0
  0
INSERT
  5
13C58
330
13A0E
100
AcDbEntity
  8
寸法
 62
     0
 48
50.0
370
    -2
100
AcDbBlockReference
  2
_DOTSMALL
 10
3578.904397928898
 20
4875.654391161502
 30
0.0
 41
100.0
 42
100.0
 43
100.0
 50
180.0
  0
INSERT
  5
13C59
330
13A0E
100
AcDbEntity
  8
寸法
 62
     0
 48
50.0
370
    -2
100
AcDbBlockReference
  2
_DOTSMALL
 10
3528.904397928898
 20
4875.654391161502
 30
0.0
 41
100.0
 42
100.0
 43
100.0
  0
MTEXT
  5
13C5A
330
13A0E
100
AcDbEntity
  8
寸法
 62
     7
 48
50.0
100
AcDbMText
 10
3215.419116554651
 20
4975.654391161501
 30
0.0
 40
120.0
 41
0.0
 71
     5
 72
     1
  1
\A1;50
  7
STYLE1
 73
     1
 44
1.0
1001
ACAD
1000
MTEXTBEGIN
1070
    73
1070
     1
1070
    44
1040
1.0
1070
    74
1070
     0
1000
MTEXTEND
  0
POINT
  5
13C5B
330
13A0E
100
AcDbEntity
  8
DEFPOINTS
 62
     0
 48
50.0
100
AcDbPoint
 10
3578.904397928898
 20
4663.112805903264
 30
0.0
  0
POINT
  5
13C5C
330
13A0E
100
AcDbEntity
  8
DEFPOINTS
 62
     0
 48
50.0
100
AcDbPoint
 10
3528.904397928898
 20
4663.112805903263
 30
0.0
  0
POINT
  5
13C5D
330
13A0E
100
AcDbEntity
  8
DEFPOINTS
 62
     0
 48
50.0
100
AcDbPoint
 10
3528.904397928898
 20
4875.654391161502
 30
0.0
  0
ENDBLK
  5
13A1B
330
13A0E
100
AcDbEntity
  8
0
 48
50.0
100
AcDbBlockEnd
  0
BLOCK
  5
13EF0
330
13EE5
100
AcDbEntity
  8
0
 48
50.0
100
AcDbBlockBegin
  2
*D17
 70
     1
 10
0.0
 20
0.0
 30
0.0
  3
*D17
  1

  0
LINE
  5
140EE
330
13EE5
100
AcDbEntity
  8
寸法
 62
     0
 48
50.0
370
    -2
100
AcDbLine
 10
10974.66309236366
 20
4662.410512972918
 30
0.0
 11
10358.72865325839
 21
4680.124663247248
 31
0.0
  0
LINE
  5
140EF
330
13EE5
100
AcDbEntity
  8
寸法
 62
     0
 48
50.0
370
    -2
100
AcDbLine
 10
10970.60963680704
 20
4521.468789207206
 30
0.0
 11
10354.67519770176
 21
4539.182939481536
 31
0.0
  0
LINE
  5
140F0
330
13EE5
100
AcDbEntity
  8
寸法
 62
     0
 48
50.0
370
    -2
100
AcDbLine
 10
10414.65039930419
 20
4537.458064776588
 30
0.0
 11
10418.70385486082
 21
4678.3997885423
 31
0.0
  0
LINE
  5
140F1
330
13EE5
100
AcDbEntity
  8
寸法
 62
     0
 48
50.0
370
    -2
100
AcDbLine
 10
10418.70385486082
 20
4678.3997885423
 30
0.0
 11
10429.0531030905
 21
5038.250998156886
 31
0.0
  0
INSERT
  5
140F2
330
13EE5
100
AcDbEntity
  8
寸法
 62
     0
 48
50.0
370
    -2
100
AcDbBlockReference
  2
_DOTSMALL
 10
10414.65039930419
 20
4537.458064776588
 30
0.0
 41
100.0
 42
100.0
 43
100.0
 50
268.3526390256378
  0
INSERT
  5
140F3
330
13EE5
100
AcDbEntity
  8
寸法
 62
     0
 48
50.0
370
    -2
100
AcDbBlockReference
  2
_DOTSMALL
 10
10418.70385486082
 20
4678.3997885423
 30
0.0
 41
100.0
 42
100.0
 43
100.0
 50
88.35263902563776
  0
MTEXT
  5
140F4
330
13EE5
100
AcDbEntity
  8
寸法
 62
     7
 48
50.0
100
AcDbMText
 10
10325.35720522573
 20
4911.179519193199
 30
0.0
 40
120.0
 41
0.0
 71
     5
 72
     1
  1
\A1;141
  7
STYLE1
 11
0.0287479117491237
 21
0.9995866933738488
 31
0.0
 73
     1
 44
1.0
1001
ACAD
1000
MTEXTBEGIN
1070
    73
1070
     1
1070
    44
1040
1.0
1070
    74
1070
     0
1000
MTEXTEND
  0
POINT
  5
140F5
330
13EE5
100
AcDbEntity
  8
DEFPOINTS
 62
     0
 48
50.0
100
AcDbPoint
 10
10994.65482623114
 20
4661.835554737936
 30
0.0
  0
POINT
  5
140F6
330
13EE5
100
AcDbEntity
  8
DEFPOINTS
 62
     0
 48
50.0
100
AcDbPoint
 10
10990.60137067451
 20
4520.893830972223
 30
0.0
  0
POINT
  5
140F7
330
13EE5
100
AcDbEntity
  8
DEFPOINTS
 62
     0
 48
50.0
100
AcDbPoint
 10
10414.65039930419
 20
4537.458064776588
 30
0.0
  0
ENDBLK
  5
13EF1
330
13EE5
100
AcDbEntity
  8
0
 48
50.0
100
AcDbBlockEnd
  0
BLOCK
  5
13EFD
330
13EF2
100
AcDbEntity
  8
0
 48
50.0
100
AcDbBlockBegin
  2
*D18
 70
     1
 10
0.0
 20
0.0
 30
0.0
  3
*D18
  1

  0
LINE
  5
140E4
330
13EF2
100
AcDbEntity
  8
寸法
 62
     0
 48
50.0
370
    -2
100
AcDbLine
 10
14085.25880607256
 20
4629.923485514911
 30
0.0
 11
14085.25880607256
 21
5121.770259482563
 31
0.0
  0
LINE
  5
140E5
330
13EF2
100
AcDbEntity
  8
寸法
 62
     0
 48
50.0
370
    -2
100
AcDbLine
 10
14165.25880607256
 20
4628.112805903259
 30
0.0
 11
14165.25880607256
 21
5121.770259482563
 31
0.0
  0
LINE
  5
140E6
330
13EF2
100
AcDbEntity
  8
寸法
 62
     0
 48
50.0
370
    -2
100
AcDbLine
 10
14085.25880607256
 20
5061.770259482562
 30
0.0
 11
14165.25880607256
 21
5061.770259482562
 31
0.0
  0
LINE
  5
140E7
330
13EF2
100
AcDbEntity
  8
寸法
 62
     0
 48
50.0
370
    -2
100
AcDbLine
 10
14165.25880607256
 20
5061.770259482562
 30
0.0
 11
14477.35329426154
 21
5061.770259482562
 31
0.0
  0
INSERT
  5
140E8
330
13EF2
100
AcDbEntity
  8
寸法
 62
     0
 48
50.0
370
    -2
100
AcDbBlockReference
  2
_DOTSMALL
 10
14085.25880607256
 20
5061.770259482562
 30
0.0
 41
100.0
 42
100.0
 43
100.0
 50
180.0
  0
INSERT
  5
140E9
330
13EF2
100
AcDbEntity
  8
寸法
 62
     0
 48
50.0
370
    -2
100
AcDbBlockReference
  2
_DOTSMALL
 10
14165.25880607256
 20
5061.770259482562
 30
0.0
 41
100.0
 42
100.0
 43
100.0
  0
MTEXT
  5
140EA
330
13EF2
100
AcDbEntity
  8
寸法
 62
     7
 48
50.0
100
AcDbMText
 10
14371.30605016705
 20
5161.770259482562
 30
0.0
 40
120.0
 41
0.0
 71
     5
 72
     1
  1
\A1;80
  7
STYLE1
 73
     1
 44
1.0
1001
ACAD
1000
MTEXTBEGIN
1070
    73
1070
     1
1070
    44
1040
1.0
1070
    74
1070
     0
1000
MTEXTEND
  0
POINT
  5
140EB
330
13EF2
100
AcDbEntity
  8
DEFPOINTS
 62
     0
 48
50.0
100
AcDbPoint
 10
14085.25880607256
 20
4609.923485514911
 30
0.0
  0
POINT
  5
140EC
330
13EF2
100
AcDbEntity
  8
DEFPOINTS
 62
     0
 48
50.0
100
AcDbPoint
 10
14165.25880607256
 20
4608.112805903259
 30
0.0
  0
POINT
  5
140ED
330
13EF2
100
AcDbEntity
  8
DEFPOINTS
 62
     0
 48
50.0
100
AcDbPoint
 10
14165.25880607256
 20
5061.770259482562
 30
0.0
  0
ENDBLK
  5
13EFE
330
13EF2
100
AcDbEntity
  8
0
 48
50.0
100
AcDbBlockEnd
  0
BLOCK
  5
13F09
330
13EFF
100
AcDbEntity
  8
0
 48
50.0
100
AcDbBlockBegin
  2
*D19
 70
     1
 10
0.0
 20
0.0
 30
0.0
  3
*D19
  1

  0
LINE
  5
140DB
330
13EFF
100
AcDbEntity
  8
寸法
 62
     0
 48
50.0
370
    -2
100
AcDbLine
 10
14165.25880607256
 20
4628.112805903258
 30
0.0
 11
14165.25880607256
 21
5351.883852268838
 31
0.0
  0
LINE
  5
140DC
330
13EFF
100
AcDbEntity
  8
寸法
 62
     0
 48
50.0
370
    -2
100
AcDbLine
 10
10975.25880607256
 20
4683.11280590326
 30
0.0
 11
10975.25880607256
 21
5351.883852268838
 31
0.0
  0
LINE
  5
140DD
330
13EFF
100
AcDbEntity
  8
寸法
 62
     0
 48
50.0
370
    -2
100
AcDbLine
 10
14165.25880607256
 20
5291.883852268838
 30
0.0
 11
10975.25880607256
 21
5291.883852268838
 31
0.0
  0
INSERT
  5
140DE
330
13EFF
100
AcDbEntity
  8
寸法
 62
     0
 48
50.0
370
    -2
100
AcDbBlockReference
  2
_DOTSMALL
 10
14165.25880607256
 20
5291.883852268838
 30
0.0
 41
100.0
 42
100.0
 43
100.0
  0
INSERT
  5
140DF
330
13EFF
100
AcDbEntity
  8
寸法
 62
     0
 48
50.0
370
    -2
100
AcDbBlockReference
  2
_DOTSMALL
 10
10975.25880607256
 20
5291.883852268838
 30
0.0
 41
100.0
 42
100.0
 43
100.0
 50
180.0
  0
MTEXT
  5
140E0
330
13EFF
100
AcDbEntity
  8
寸法
 62
     7
 48
50.0
100
AcDbMText
 10
12646.96461238209
 20
5391.883852268838
 30
0.0
 40
120.0
 41
0.0
 71
     5
 72
     1
  1
\A1;3190
  7
STYLE1
 73
     1
 44
1.0
1001
ACAD
1000
MTEXTBEGIN
1070
    73
1070
     1
1070
    44
1040
1.0
1070
    74
1070
     0
1000
MTEXTEND
  0
POINT
  5
140E1
330
13EFF
100
AcDbEntity
  8
DEFPOINTS
 62
     0
 48
50.0
100
AcDbPoint
 10
14165.25880607256
 20
4608.112805903258
 30
0.0
  0
POINT
  5
140E2
330
13EFF
100
AcDbEntity
  8
DEFPOINTS
 62
     0
 48
50.0
100
AcDbPoint
 10
10975.25880607256
 20
4663.112805903261
 30
0.0
  0
POINT
  5
140E3
330
13EFF
100
AcDbEntity
  8
DEFPOINTS
 62
     0
 48
50.0
100
AcDbPoint
 10
10975.25880607256
 20
5291.883852268838
 30
0.0
  0
ENDBLK
  5
13F0A
330
13EFF
100
AcDbEntity
  8
0
 48
50.0
100
AcDbBlockEnd
  0
BLOCK
  5
13F17
330
13F0B
100
AcDbEntity
  8
0
 48
50.0
100
AcDbBlockBegin
  2
*D20
 70
     1
 10
0.0
 20
0.0
 30
0.0
  3
*D20
  1

  0
LINE
  5
140D0
330
13F0B
100
AcDbEntity
  8
寸法
 62
     0
 48
50.0
370
    -2
100
AcDbLine
 10
11035.25880607256
 20
4679.114424026233
 30
0.0
 11
11035.25880607256
 21
5121.77025948256
 31
0.0
  0
LINE
  5
140D1
330
13F0B
100
AcDbEntity
  8
寸法
 62
     0
 48
50.0
370
    -2
100
AcDbLine
 10
10975.25880607256
 20
4683.11280590326
 30
0.0
 11
10975.25880607256
 21
5121.77025948256
 31
0.0
  0
LINE
  5
140D2
330
13F0B
100
AcDbEntity
  8
寸法
 62
     0
 48
50.0
370
    -2
100
AcDbLine
 10
11035.25880607256
 20
5061.77025948256
 30
0.0
 11
11135.25880607256
 21
5061.77025948256
 31
0.0
  0
LINE
  5
140D3
330
13F0B
100
AcDbEntity
  8
寸法
 62
     0
 48
50.0
370
    -2
100
AcDbLine
 10
10975.25880607256
 20
5061.77025948256
 30
0.0
 11
10555.98321552138
 21
5061.77025948256
 31
0.0
  0
LINE
  5
140D4
330
13F0B
100
AcDbEntity
  8
寸法
 62
     0
 48
50.0
370
    -2
100
AcDbLine
 10
11035.25880607256
 20
5061.77025948256
 30
0.0
 11
10975.25880607256
 21
5061.77025948256
 31
0.0
  0
INSERT
  5
140D5
330
13F0B
100
AcDbEntity
  8
寸法
 62
     0
 48
50.0
370
    -2
100
AcDbBlockReference
  2
_DOTSMALL
 10
11035.25880607256
 20
5061.77025948256
 30
0.0
 41
100.0
 42
100.0
 43
100.0
 50
180.0
  0
INSERT
  5
140D6
330
13F0B
100
AcDbEntity
  8
寸法
 62
     0
 48
50.0
370
    -2
100
AcDbBlockReference
  2
_DOTSMALL
 10
10975.25880607256
 20
5061.77025948256
 30
0.0
 41
100.0
 42
100.0
 43
100.0
  0
MTEXT
  5
140D7
330
13F0B
100
AcDbEntity
  8
寸法
 62
     7
 48
50.0
100
AcDbMText
 10
10665.62101079697
 20
5161.770259482561
 30
0.0
 40
120.0
 41
0.0
 71
     5
 72
     1
  1
\A1;60
  7
STYLE1
 73
     1
 44
1.0
1001
ACAD
1000
MTEXTBEGIN
1070
    73
1070
     1
1070
    44
1040
1.0
1070
    74
1070
     0
1000
MTEXTEND
  0
POINT
  5
140D8
330
13F0B
100
AcDbEntity
  8
DEFPOINTS
 62
     0
 48
50.0
100
AcDbPoint
 10
11035.25880607256
 20
4659.114424026233
 30
0.0
  0
POINT
  5
140D9
330
13F0B
100
AcDbEntity
  8
DEFPOINTS
 62
     0
 48
50.0
100
AcDbPoint
 10
10975.25880607256
 20
4663.112805903261
 30
0.0
  0
POINT
  5
140DA
330
13F0B
100
AcDbEntity
  8
DEFPOINTS
 62
     0
 48
50.0
100
AcDbPoint
 10
10975.25880607256
 20
5061.77025948256
 30
0.0
  0
ENDBLK
  5
13F18
330
13F0B
100
AcDbEntity
  8
0
 48
50.0
100
AcDbBlockEnd
  0
BLOCK
  5
13F23
330
13F19
100
AcDbEntity
  8
0
 48
50.0
100
AcDbBlockBegin
  2
*D21
 70
     1
 10
0.0
 20
0.0
 30
0.0
  3
*D21
  1

  0
LINE
  5
140C7
330
13F19
100
AcDbEntity
  8
寸法
 62
     0
 48
50.0
370
    -2
100
AcDbLine
 10
14085.25880607256
 20
4629.923485514911
 30
0.0
 11
14085.25880607256
 21
5121.770259482563
 31
0.0
  0
LINE
  5
140C8
330
13F19
100
AcDbEntity
  8
寸法
 62
     0
 48
50.0
370
    -2
100
AcDbLine
 10
11035.25880607256
 20
4679.114424026233
 30
0.0
 11
11035.25880607256
 21
5121.770259482563
 31
0.0
  0
LINE
  5
140C9
330
13F19
100
AcDbEntity
  8
寸法
 62
     0
 48
50.0
370
    -2
100
AcDbLine
 10
14085.25880607256
 20
5061.770259482562
 30
0.0
 11
11035.25880607256
 21
5061.770259482562
 31
0.0
  0
INSERT
  5
140CA
330
13F19
100
AcDbEntity
  8
寸法
 62
     0
 48
50.0
370
    -2
100
AcDbBlockReference
  2
_DOTSMALL
 10
14085.25880607256
 20
5061.770259482562
 30
0.0
 41
100.0
 42
100.0
 43
100.0
  0
INSERT
  5
140CB
330
13F19
100
AcDbEntity
  8
寸法
 62
     0
 48
50.0
370
    -2
100
AcDbBlockReference
  2
_DOTSMALL
 10
11035.25880607256
 20
5061.770259482562
 30
0.0
 41
100.0
 42
100.0
 43
100.0
 50
180.0
  0
MTEXT
  5
140CC
330
13F19
100
AcDbEntity
  8
寸法
 62
     7
 48
50.0
100
AcDbMText
 10
12605.31718063197
 20
5161.770259482562
 30
0.0
 40
120.0
 41
0.0
 71
     5
 72
     1
  1
\A1;柱外寸法3050
  7
STYLE1
 73
     1
 44
1.0
1001
ACAD
1000
MTEXTBEGIN
1070
    73
1070
     1
1070
    44
1040
1.0
1070
    74
1070
     0
1000
MTEXTEND
  0
POINT
  5
140CD
330
13F19
100
AcDbEntity
  8
DEFPOINTS
 62
     0
 48
50.0
100
AcDbPoint
 10
14085.25880607256
 20
4609.923485514911
 30
0.0
  0
POINT
  5
140CE
330
13F19
100
AcDbEntity
  8
DEFPOINTS
 62
     0
 48
50.0
100
AcDbPoint
 10
11035.25880607256
 20
4659.114424026233
 30
0.0
  0
POINT
  5
140CF
330
13F19
100
AcDbEntity
  8
DEFPOINTS
 62
     0
 48
50.0
100
AcDbPoint
 10
11035.25880607256
 20
5061.770259482562
 30
0.0
  0
ENDBLK
  5
13F24
330
13F19
100
AcDbEntity
  8
0
 48
50.0
100
AcDbBlockEnd
  0
BLOCK
  5
13F31
330
13F25
100
AcDbEntity
  8
0
 48
50.0
100
AcDbBlockBegin
  2
*D22
 70
     1
 10
0.0
 20
0.0
 30
0.0
  3
*D22
  1

  0
LINE
  5
140BC
330
13F25
100
AcDbEntity
  8
寸法
 62
     0
 48
50.0
370
    -2
100
AcDbLine
 10
11015.25880607256
 20
2338.112805903256
 30
0.0
 11
10131.5086768893
 21
2338.112805903256
 31
0.0
  0
LINE
  5
140BD
330
13F25
100
AcDbEntity
  8
寸法
 62
     0
 48
50.0
370
    -2
100
AcDbLine
 10
10938.25880607256
 20
2288.112805903252
 30
0.0
 11
10131.5086768893
 21
2288.112805903252
 31
0.0
  0
LINE
  5
140BE
330
13F25
100
AcDbEntity
  8
寸法
 62
     0
 48
50.0
370
    -2
100
AcDbLine
 10
10191.5086768893
 20
2338.112805903256
 30
0.0
 11
10191.5086768893
 21
2438.112805903256
 31
0.0
  0
LINE
  5
140BF
330
13F25
100
AcDbEntity
  8
寸法
 62
     0
 48
50.0
370
    -2
100
AcDbLine
 10
10191.5086768893
 20
2288.112805903252
 30
0.0
 11
10191.5086768893
 21
1876.018317714275
 31
0.0
  0
LINE
  5
140C0
330
13F25
100
AcDbEntity
  8
寸法
 62
     0
 48
50.0
370
    -2
100
AcDbLine
 10
10191.5086768893
 20
2338.112805903256
 30
0.0
 11
10191.5086768893
 21
2288.112805903252
 31
0.0
  0
INSERT
  5
140C1
330
13F25
100
AcDbEntity
  8
寸法
 62
     0
 48
50.0
370
    -2
100
AcDbBlockReference
  2
_DOTSMALL
 10
10191.5086768893
 20
2338.112805903256
 30
0.0
 41
100.0
 42
100.0
 43
100.0
 50
270.0
  0
INSERT
  5
140C2
330
13F25
100
AcDbEntity
  8
寸法
 62
     0
 48
50.0
370
    -2
100
AcDbBlockReference
  2
_DOTSMALL
 10
10191.5086768893
 20
2288.112805903252
 30
0.0
 41
100.0
 42
100.0
 43
100.0
 50
90.0
  0
MTEXT
  5
140C3
330
13F25
100
AcDbEntity
  8
寸法
 62
     7
 48
50.0
100
AcDbMText
 10
10091.5086768893
 20
1982.065561808765
 30
0.0
 40
120.0
 41
0.0
 71
     5
 72
     1
  1
\A1;50
  7
STYLE1
 11
0.0000000000000001
 21
1.0
 31
0.0
 73
     1
 44
1.0
1001
ACAD
1000
MTEXTBEGIN
1070
    73
1070
     1
1070
    44
1040
1.0
1070
    74
1070
     0
1000
MTEXTEND
  0
POINT
  5
140C4
330
13F25
100
AcDbEntity
  8
DEFPOINTS
 62
     0
 48
50.0
100
AcDbPoint
 10
11035.25880607256
 20
2338.112805903256
 30
0.0
  0
POINT
  5
140C5
330
13F25
100
AcDbEntity
  8
DEFPOINTS
 62
     0
 48
50.0
100
AcDbPoint
 10
10958.25880607256
 20
2288.112805903252
 30
0.0
  0
POINT
  5
140C6
330
13F25
100
AcDbEntity
  8
DEFPOINTS
 62
     0
 48
50.0
100
AcDbPoint
 10
10191.5086768893
 20
2288.112805903252
 30
0.0
  0
ENDBLK
  5
13F32
330
13F25
100
AcDbEntity
  8
0
 48
50.0
100
AcDbBlockEnd
  0
BLOCK
  5
13F4A
330
13F40
100
AcDbEntity
  8
0
 48
50.0
100
AcDbBlockBegin
  2
*D23
 70
     1
 10
0.0
 20
0.0
 30
0.0
  3
*D23
  1

  0
LINE
  5
140B3
330
13F40
100
AcDbEntity
  8
寸法
 62
     0
 48
50.0
370
    -2
100
AcDbLine
 10
14105.25880607256
 20
2288.112805903258
 30
0.0
 11
14850.18596404469
 21
2288.112805903258
 31
0.0
  0
LINE
  5
140B4
330
13F40
100
AcDbEntity
  8
寸法
 62
     0
 48
50.0
370
    -2
100
AcDbLine
 10
14185.25880607256
 20
4608.112805903258
 30
0.0
 11
14850.18596404469
 21
4608.112805903257
 31
0.0
  0
LINE
  5
140B5
330
13F40
100
AcDbEntity
  8
寸法
 62
     0
 48
50.0
370
    -2
100
AcDbLine
 10
14790.18596404469
 20
2288.112805903258
 30
0.0
 11
14790.18596404469
 21
4608.112805903257
 31
0.0
  0
INSERT
  5
140B6
330
13F40
100
AcDbEntity
  8
寸法
 62
     0
 48
50.0
370
    -2
100
AcDbBlockReference
  2
_DOTSMALL
 10
14790.18596404469
 20
2288.112805903258
 30
0.0
 41
100.0
 42
100.0
 43
100.0
 50
270.0
  0
INSERT
  5
140B7
330
13F40
100
AcDbEntity
  8
寸法
 62
     0
 48
50.0
370
    -2
100
AcDbBlockReference
  2
_DOTSMALL
 10
14790.18596404469
 20
4608.112805903257
 30
0.0
 41
100.0
 42
100.0
 43
100.0
 50
90.0
  0
MTEXT
  5
140B8
330
13F40
100
AcDbEntity
  8
寸法
 62
     7
 48
50.0
100
AcDbMText
 10
14690.17415302106
 20
3448.11280590326
 30
0.0
 40
120.0
 41
0.0
 71
     5
 72
     1
  1
\A1;2320
  7
STYLE1
 11
0.0000000000000001
 21
1.0
 31
0.0
 73
     1
 44
1.0
1001
ACAD
1000
MTEXTBEGIN
1070
    73
1070
     1
1070
    44
1040
1.0
1070
    74
1070
     0
1000
MTEXTEND
  0
POINT
  5
140B9
330
13F40
100
AcDbEntity
  8
DEFPOINTS
 62
     0
 48
50.0
100
AcDbPoint
 10
14085.25880607256
 20
2288.112805903258
 30
0.0
  0
POINT
  5
140BA
330
13F40
100
AcDbEntity
  8
DEFPOINTS
 62
     0
 48
50.0
100
AcDbPoint
 10
14165.25880607256
 20
4608.112805903258
 30
0.0
  0
POINT
  5
140BB
330
13F40
100
AcDbEntity
  8
DEFPOINTS
 62
     0
 48
50.0
100
AcDbPoint
 10
14790.18596404469
 20
4608.112805903257
 30
0.0
  0
ENDBLK
  5
13F4B
330
13F40
100
AcDbEntity
  8
0
 48
50.0
100
AcDbBlockEnd
  0
BLOCK
  5
13F56
330
13F4C
100
AcDbEntity
  8
0
 48
50.0
100
AcDbBlockBegin
  2
*D24
 70
     1
 10
0.0
 20
0.0
 30
0.0
  3
*D24
  1

  0
LINE
  5
140AA
330
13F4C
100
AcDbEntity
  8
寸法
 62
     0
 48
50.0
370
    -2
100
AcDbLine
 10
10938.25880607256
 20
2288.112805903252
 30
0.0
 11
9831.508676889303
 21
2288.112805903252
 31
0.0
  0
LINE
  5
140AB
330
13F4C
100
AcDbEntity
  8
寸法
 62
     0
 48
50.0
370
    -2
100
AcDbLine
 10
10955.25880607256
 20
4663.112805903256
 30
0.0
 11
9831.508676889304
 21
4663.112805903256
 31
0.0
  0
LINE
  5
140AC
330
13F4C
100
AcDbEntity
  8
寸法
 62
     0
 48
50.0
370
    -2
100
AcDbLine
 10
9891.508676889301
 20
2288.112805903252
 30
0.0
 11
9891.508676889303
 21
4663.112805903256
 31
0.0
  0
INSERT
  5
140AD
330
13F4C
100
AcDbEntity
  8
寸法
 62
     0
 48
50.0
370
    -2
100
AcDbBlockReference
  2
_DOTSMALL
 10
9891.508676889301
 20
2288.112805903252
 30
0.0
 41
100.0
 42
100.0
 43
100.0
 50
270.0
  0
INSERT
  5
140AE
330
13F4C
100
AcDbEntity
  8
寸法
 62
     0
 48
50.0
370
    -2
100
AcDbBlockReference
  2
_DOTSMALL
 10
9891.508676889303
 20
4663.112805903256
 30
0.0
 41
100.0
 42
100.0
 43
100.0
 50
90.0
  0
MTEXT
  5
140AF
330
13F4C
100
AcDbEntity
  8
寸法
 62
     7
 48
50.0
100
AcDbMText
 10
9791.496865865681
 20
3475.612805903256
 30
0.0
 40
120.0
 41
0.0
 71
     5
 72
     1
  1
\A1;2375
  7
STYLE1
 11
0.0000000000000001
 21
1.0
 31
0.0
 73
     1
 44
1.0
1001
ACAD
1000
MTEXTBEGIN
1070
    73
1070
     1
1070
    44
1040
1.0
1070
    74
1070
     0
1000
MTEXTEND
  0
POINT
  5
140B0
330
13F4C
100
AcDbEntity
  8
DEFPOINTS
 62
     0
 48
50.0
100
AcDbPoint
 10
10958.25880607256
 20
2288.112805903252
 30
0.0
  0
POINT
  5
140B1
330
13F4C
100
AcDbEntity
  8
DEFPOINTS
 62
     0
 48
50.0
100
AcDbPoint
 10
10975.25880607256
 20
4663.112805903256
 30
0.0
  0
POINT
  5
140B2
330
13F4C
100
AcDbEntity
  8
DEFPOINTS
 62
     0
 48
50.0
100
AcDbPoint
 10
9891.508676889303
 20
4663.112805903256
 30
0.0
  0
ENDBLK
  5
13F57
330
13F4C
100
AcDbEntity
  8
0
 48
50.0
100
AcDbBlockEnd
  0
BLOCK
  5
13F62
330
13F58
100
AcDbEntity
  8
0
 48
50.0
100
AcDbBlockBegin
  2
*D25
 70
     1
 10
0.0
 20
0.0
 30
0.0
  3
*D25
  1

  0
LINE
  5
140A1
330
13F58
100
AcDbEntity
  8
寸法
 62
     0
 48
50.0
370
    -2
100
AcDbLine
 10
11015.25880607256
 20
4428.112805903253
 30
0.0
 11
10131.5086768893
 21
4428.112805903253
 31
0.0
  0
LINE
  5
140A2
330
13F58
100
AcDbEntity
  8
寸法
 62
     0
 48
50.0
370
    -2
100
AcDbLine
 10
11015.25880607256
 20
2338.112805903252
 30
0.0
 11
10131.5086768893
 21
2338.112805903252
 31
0.0
  0
LINE
  5
140A3
330
13F58
100
AcDbEntity
  8
寸法
 62
     0
 48
50.0
370
    -2
100
AcDbLine
 10
10191.5086768893
 20
4428.112805903253
 30
0.0
 11
10191.5086768893
 21
2338.112805903252
 31
0.0
  0
INSERT
  5
140A4
330
13F58
100
AcDbEntity
  8
寸法
 62
     0
 48
50.0
370
    -2
100
AcDbBlockReference
  2
_DOTSMALL
 10
10191.5086768893
 20
4428.112805903253
 30
0.0
 41
100.0
 42
100.0
 43
100.0
 50
90.0
  0
INSERT
  5
140A5
330
13F58
100
AcDbEntity
  8
寸法
 62
     0
 48
50.0
370
    -2
100
AcDbBlockReference
  2
_DOTSMALL
 10
10191.5086768893
 20
2338.112805903252
 30
0.0
 41
100.0
 42
100.0
 43
100.0
 50
270.0
  0
MTEXT
  5
140A6
330
13F58
100
AcDbEntity
  8
寸法
 62
     7
 48
50.0
100
AcDbMText
 10
10091.49686586568
 20
3383.112805903254
 30
0.0
 40
120.0
 41
0.0
 71
     5
 72
     1
  1
\A1;2090
  7
STYLE1
 11
0.0000000000000001
 21
1.0
 31
0.0
 73
     1
 44
1.0
1001
ACAD
1000
MTEXTBEGIN
1070
    73
1070
     1
1070
    44
1040
1.0
1070
    74
1070
     0
1000
MTEXTEND
  0
POINT
  5
140A7
330
13F58
100
AcDbEntity
  8
DEFPOINTS
 62
     0
 48
50.0
100
AcDbPoint
 10
11035.25880607256
 20
4428.112805903253
 30
0.0
  0
POINT
  5
140A8
330
13F58
100
AcDbEntity
  8
DEFPOINTS
 62
     0
 48
50.0
100
AcDbPoint
 10
11035.25880607256
 20
2338.112805903252
 30
0.0
  0
POINT
  5
140A9
330
13F58
100
AcDbEntity
  8
DEFPOINTS
 62
     0
 48
50.0
100
AcDbPoint
 10
10191.5086768893
 20
2338.112805903252
 30
0.0
  0
ENDBLK
  5
13F63
330
13F58
100
AcDbEntity
  8
0
 48
50.0
100
AcDbBlockEnd
  0
BLOCK
  5
14079
330
1406F
100
AcDbEntity
  8
0
 48
50.0
100
AcDbBlockBegin
  2
*D26
 70
     1
 10
0.0
 20
0.0
 30
0.0
  3
*D26
  1

  0
LINE
  5
14098
330
1406F
100
AcDbEntity
  8
寸法
 62
     0
 48
50.0
370
    -2
100
AcDbLine
 10
10938.25880607256
 20
4379.112805903257
 30
0.0
 11
10450.35016467531
 21
4379.112805903257
 31
0.0
  0
LINE
  5
14099
330
1406F
100
AcDbEntity
  8
寸法
 62
     0
 48
50.0
370
    -2
100
AcDbLine
 10
10938.25880607256
 20
2354.112805903256
 30
0.0
 11
10450.3501646753
 21
2354.112805903256
 31
0.0
  0
LINE
  5
1409A
330
1406F
100
AcDbEntity
  8
寸法
 62
     0
 48
50.0
370
    -2
100
AcDbLine
 10
10490.35016467531
 20
4359.112805903256
 30
0.0
 11
10490.3501646753
 21
2374.112805903256
 31
0.0
  0
INSERT
  5
1409B
330
1406F
100
AcDbEntity
  8
寸法
 62
     0
 48
50.0
370
    -2
100
AcDbBlockReference
  2
_DOT
 10
10490.35016467531
 20
4379.112805903257
 30
0.0
 41
20.0
 42
20.0
 43
20.0
 50
90.0
  0
INSERT
  5
1409C
330
1406F
100
AcDbEntity
  8
寸法
 62
     0
 48
50.0
370
    -2
100
AcDbBlockReference
  2
_DOT
 10
10490.3501646753
 20
2354.112805903256
 30
0.0
 41
20.0
 42
20.0
 43
20.0
 50
270.0
  0
MTEXT
  5
1409D
330
1406F
100
AcDbEntity
  8
寸法
 62
     7
 48
50.0
100
AcDbMText
 10
10398.33835365168
 20
3366.612805903259
 30
0.0
 40
120.0
 41
0.0
 71
     5
 72
     1
  1
\A1;有効開口部高サ2025
  7
STYLE1
 11
0.0000000000000001
 21
1.0
 31
0.0
 73
     1
 44
1.0
1001
ACAD
1000
MTEXTBEGIN
1070
    73
1070
     1
1070
    44
1040
1.0
1070
    74
1070
     0
1000
MTEXTEND
  0
POINT
  5
1409E
330
1406F
100
AcDbEntity
  8
DEFPOINTS
 62
     0
 48
50.0
100
AcDbPoint
 10
10958.25880607256
 20
4379.112805903257
 30
0.0
  0
POINT
  5
1409F
330
1406F
100
AcDbEntity
  8
DEFPOINTS
 62
     0
 48
50.0
100
AcDbPoint
 10
10958.25880607256
 20
2354.112805903256
 30
0.0
  0
POINT
  5
140A0
330
1406F
100
AcDbEntity
  8
DEFPOINTS
 62
     0
 48
50.0
100
AcDbPoint
 10
10490.3501646753
 20
2354.112805903256
 30
0.0
  0
ENDBLK
  5
1407A
330
1406F
100
AcDbEntity
  8
0
 48
50.0
100
AcDbBlockEnd
  0
BLOCK
  5
14138
330
14137
100
AcDbEntity
  8
0
100
AcDbBlockBegin
  2
_OPEN
 70
     0
 10
0.0
 20
0.0
 30
0.0
  3
_OPEN
  1

  0
LINE
  5
14139
330
14137
100
AcDbEntity
  8
0
  6
ByBlock
 62
     0
100
AcDbLine
 10
-1.0
 20
0.1666666666666666
 30
0.0
 11
0.0
 21
0.0
 31
0.0
  0
LINE
  5
1413A
330
14137
100
AcDbEntity
  8
0
  6
ByBlock
 62
     0
100
AcDbLine
 10
0.0
 20
0.0
 30
0.0
 11
-1.0
 21
-0.1666666666666666
 31
0.0
  0
LINE
  5
1413B
330
14137
100
AcDbEntity
  8
0
  6
ByBlock
 62
     0
100
AcDbLine
 10
0.0
 20
0.0
 30
0.0
 11
-1.0
 21
0.0
 31
0.0
  0
ENDBLK
  5
1413C
330
14137
100
AcDbEntity
  8
0
100
AcDbBlockEnd
  0
BLOCK
  5
15802
330
157F8
100
AcDbEntity
  8
0
 48
50.0
100
AcDbBlockBegin
  2
*D28
 70
     1
 10
0.0
 20
0.0
 30
0.0
  3
*D28
  1

  0
LINE
  5
15FAE
330
157F8
100
AcDbEntity
  8
寸法
 62
     0
 48
50.0
370
    -2
100
AcDbLine
 10
3645.904397928899
 20
7159.984525907593
 30
0.0
 11
3645.904397928899
 21
6496.474177692252
 31
0.0
  0
LINE
  5
15FAF
330
157F8
100
AcDbEntity
  8
寸法
 62
     0
 48
50.0
370
    -2
100
AcDbLine
 10
4911.904397928899
 20
7159.984525907593
 30
0.0
 11
4911.904397928899
 21
6496.474177692252
 31
0.0
  0
LINE
  5
15FB0
330
157F8
100
AcDbEntity
  8
寸法
 62
     0
 48
50.0
370
    -2
100
AcDbLine
 10
3665.904397928899
 20
6536.474177692253
 30
0.0
 11
4891.904397928899
 21
6536.474177692253
 31
0.0
  0
INSERT
  5
15FB1
330
157F8
100
AcDbEntity
  8
寸法
 62
     0
 48
50.0
370
    -2
100
AcDbBlockReference
  2
_DOT
 10
3645.904397928899
 20
6536.474177692253
 30
0.0
 41
20.0
 42
20.0
 43
20.0
 50
180.0
  0
INSERT
  5
15FB2
330
157F8
100
AcDbEntity
  8
寸法
 62
     0
 48
50.0
370
    -2
100
AcDbBlockReference
  2
_DOT
 10
4911.904397928899
 20
6536.474177692253
 30
0.0
 41
20.0
 42
20.0
 43
20.0
  0
MTEXT
  5
15FB3
330
157F8
100
AcDbEntity
  8
寸法
 62
     7
 48
50.0
100
AcDbMText
 10
4286.411002235865
 20
6728.485988715874
 30
0.0
 40
120.0
 41
0.0
 71
     5
 72
     1
  1
\A1;有効開口部間口\P1266
  7
STYLE1
 73
     1
 44
1.0
1001
ACAD
1000
MTEXTBEGIN
1070
    73
1070
     1
1070
    44
1040
1.0
1070
    74
1070
     0
1000
MTEXTEND
  0
POINT
  5
15FB4
330
157F8
100
AcDbEntity
  8
DEFPOINTS
 62
     0
 48
50.0
100
AcDbPoint
 10
3645.904397928899
 20
7179.984525907594
 30
0.0
  0
POINT
  5
15FB5
330
157F8
100
AcDbEntity
  8
DEFPOINTS
 62
     0
 48
50.0
100
AcDbPoint
 10
4911.904397928899
 20
7179.984525907594
 30
0.0
  0
POINT
  5
15FB6
330
157F8
100
AcDbEntity
  8
DEFPOINTS
 62
     0
 48
50.0
100
AcDbPoint
 10
4911.904397928899
 20
6536.474177692253
 30
0.0
  0
ENDBLK
  5
15803
330
157F8
100
AcDbEntity
  8
0
 48
50.0
100
AcDbBlockEnd
  0
BLOCK
  5
15D83
330
15D77
100
AcDbEntity
  8
0
 48
50.0
100
AcDbBlockBegin
  2
*D29
 70
     1
 10
0.0
 20
0.0
 30
0.0
  3
*D29
  1

  0
LINE
  5
15FA3
330
15D77
100
AcDbEntity
  8
寸法
 62
     0
 48
50.0
370
    -2
100
AcDbLine
 10
3558.904397928898
 20
7256.984525907596
 30
0.0
 11
3280.153023599285
 21
7256.984525907596
 31
0.0
  0
LINE
  5
15FA4
330
15D77
100
AcDbEntity
  8
寸法
 62
     0
 48
50.0
370
    -2
100
AcDbLine
 10
3586.904397928899
 20
7181.984525907563
 30
0.0
 11
3280.153023599285
 21
7181.984525907563
 31
0.0
  0
LINE
  5
15FA5
330
15D77
100
AcDbEntity
  8
寸法
 62
     0
 48
50.0
370
    -2
100
AcDbLine
 10
3320.153023599285
 20
7276.984525907595
 30
0.0
 11
3320.153023599285
 21
7296.984525907595
 31
0.0
  0
LINE
  5
15FA6
330
15D77
100
AcDbEntity
  8
寸法
 62
     0
 48
50.0
370
    -2
100
AcDbLine
 10
3320.153023599284
 20
7161.984525907563
 30
0.0
 11
3320.153023599284
 21
6924.248014125137
 31
0.0
  0
LINE
  5
15FA7
330
15D77
100
AcDbEntity
  8
寸法
 62
     0
 48
50.0
370
    -2
100
AcDbLine
 10
3320.153023599285
 20
7256.984525907596
 30
0.0
 11
3320.153023599285
 21
7181.984525907563
 31
0.0
  0
INSERT
  5
15FA8
330
15D77
100
AcDbEntity
  8
寸法
 62
     0
 48
50.0
370
    -2
100
AcDbBlockReference
  2
_DOT
 10
3320.153023599285
 20
7256.984525907596
 30
0.0
 41
20.0
 42
20.0
 43
20.0
 50
270.0
  0
INSERT
  5
15FA9
330
15D77
100
AcDbEntity
  8
寸法
 62
     0
 48
50.0
370
    -2
100
AcDbBlockReference
  2
_DOT
 10
3320.153023599285
 20
7181.984525907563
 30
0.0
 41
20.0
 42
20.0
 43
20.0
 50
90.0
  0
MTEXT
  5
15FAA
330
15D77
100
AcDbEntity
  8
寸法
 62
     7
 48
50.0
100
AcDbMText
 10
3228.153023599283
 20
7024.733295499377
 30
0.0
 40
120.0
 41
0.0
 71
     5
 72
     1
  1
\A1;75
  7
STYLE1
 11
0.0000000000000001
 21
1.0
 31
0.0
 73
     1
 44
1.0
1001
ACAD
1000
MTEXTBEGIN
1070
    73
1070
     1
1070
    44
1040
1.0
1070
    74
1070
     0
1000
MTEXTEND
  0
POINT
  5
15FAB
330
15D77
100
AcDbEntity
  8
DEFPOINTS
 62
     0
 48
50.0
100
AcDbPoint
 10
3578.904397928898
 20
7256.984525907596
 30
0.0
  0
POINT
  5
15FAC
330
15D77
100
AcDbEntity
  8
DEFPOINTS
 62
     0
 48
50.0
100
AcDbPoint
 10
3606.904397928899
 20
7181.984525907563
 30
0.0
  0
POINT
  5
15FAD
330
15D77
100
AcDbEntity
  8
DEFPOINTS
 62
     0
 48
50.0
100
AcDbPoint
 10
3320.153023599285
 20
7181.984525907563
 30
0.0
  0
ENDBLK
  5
15D84
330
15D77
100
AcDbEntity
  8
0
 48
50.0
100
AcDbBlockEnd
  0
BLOCK
  5
15D8F
330
15D85
100
AcDbEntity
  8
0
 48
50.0
100
AcDbBlockBegin
  2
*D30
 70
     1
 10
0.0
 20
0.0
 30
0.0
  3
*D30
  1

  0
LINE
  5
15F9A
330
15D85
100
AcDbEntity
  8
寸法
 62
     0
 48
50.0
370
    -2
100
AcDbLine
 10
3606.904397928899
 20
7159.984525907593
 30
0.0
 11
3606.904397928899
 21
6177.241492959904
 31
0.0
  0
LINE
  5
15F9B
330
15D85
100
AcDbEntity
  8
寸法
 62
     0
 48
50.0
370
    -2
100
AcDbLine
 10
5760.904397928899
 20
7159.984525907593
 30
0.0
 11
5760.904397928899
 21
6177.241492959904
 31
0.0
  0
LINE
  5
15F9C
330
15D85
100
AcDbEntity
  8
寸法
 62
     0
 48
50.0
370
    -2
100
AcDbLine
 10
3606.904397928899
 20
6237.241492959904
 30
0.0
 11
5760.904397928899
 21
6237.241492959904
 31
0.0
  0
INSERT
  5
15F9D
330
15D85
100
AcDbEntity
  8
寸法
 62
     0
 48
50.0
370
    -2
100
AcDbBlockReference
  2
_DOTSMALL
 10
3606.904397928899
 20
6237.241492959904
 30
0.0
 41
100.0
 42
100.0
 43
100.0
 50
180.0
  0
INSERT
  5
15F9E
330
15D85
100
AcDbEntity
  8
寸法
 62
     0
 48
50.0
370
    -2
100
AcDbBlockReference
  2
_DOTSMALL
 10
5760.904397928899
 20
6237.241492959904
 30
0.0
 41
100.0
 42
100.0
 43
100.0
  0
MTEXT
  5
15F9F
330
15D85
100
AcDbEntity
  8
寸法
 62
     7
 48
50.0
100
AcDbMText
 10
4689.961971101395
 20
6337.253303983525
 30
0.0
 40
120.0
 41
0.0
 71
     5
 72
     1
  1
\A1;2154
  7
STYLE1
 73
     1
 44
1.0
1001
ACAD
1000
MTEXTBEGIN
1070
    73
1070
     1
1070
    44
1040
1.0
1070
    74
1070
     0
1000
MTEXTEND
  0
POINT
  5
15FA0
330
15D85
100
AcDbEntity
  8
DEFPOINTS
 62
     0
 48
50.0
100
AcDbPoint
 10
3606.904397928899
 20
7179.984525907594
 30
0.0
  0
POINT
  5
15FA1
330
15D85
100
AcDbEntity
  8
DEFPOINTS
 62
     0
 48
50.0
100
AcDbPoint
 10
5760.904397928899
 20
7179.984525907594
 30
0.0
  0
POINT
  5
15FA2
330
15D85
100
AcDbEntity
  8
DEFPOINTS
 62
     0
 48
50.0
100
AcDbPoint
 10
5760.904397928899
 20
6237.241492959904
 30
0.0
  0
ENDBLK
  5
15D90
330
15D85
100
AcDbEntity
  8
0
 48
50.0
100
AcDbBlockEnd
  0
BLOCK
  5
15DBF
330
15DB5
100
AcDbEntity
  8
0
 48
50.0
100
AcDbBlockBegin
  2
*D31
 70
     1
 10
0.0
 20
0.0
 30
0.0
  3
*D31
  1

  0
LINE
  5
15F91
330
15DB5
100
AcDbEntity
  8
寸法
 62
     0
 48
50.0
370
    -2
100
AcDbLine
 10
5788.904397928899
 20
7291.984525907593
 30
0.0
 11
5788.904397928899
 21
5938.935946353275
 31
0.0
  0
LINE
  5
15F92
330
15DB5
100
AcDbEntity
  8
寸法
 62
     0
 48
50.0
370
    -2
100
AcDbLine
 10
7998.904397928898
 20
7236.984525907596
 30
0.0
 11
7998.904397928898
 21
5938.935946353275
 31
0.0
  0
LINE
  5
15F93
330
15DB5
100
AcDbEntity
  8
寸法
 62
     0
 48
50.0
370
    -2
100
AcDbLine
 10
5808.904397928898
 20
5978.935946353274
 30
0.0
 11
7978.904397928897
 21
5978.935946353274
 31
0.0
  0
INSERT
  5
15F94
330
15DB5
100
AcDbEntity
  8
寸法
 62
     0
 48
50.0
370
    -2
100
AcDbBlockReference
  2
_DOT
 10
5788.904397928899
 20
5978.935946353274
 30
0.0
 41
20.0
 42
20.0
 43
20.0
 50
180.0
  0
INSERT
  5
15F95
330
15DB5
100
AcDbEntity
  8
寸法
 62
     0
 48
50.0
370
    -2
100
AcDbBlockReference
  2
_DOT
 10
7998.904397928898
 20
5978.935946353274
 30
0.0
 41
20.0
 42
20.0
 43
20.0
  0
MTEXT
  5
15F96
330
15DB5
100
AcDbEntity
  8
寸法
 62
     7
 48
50.0
100
AcDbMText
 10
6893.904397928898
 20
6070.947757376896
 30
0.0
 40
120.0
 41
0.0
 71
     5
 72
     1
  1
\A1;2210
  7
STYLE1
 73
     1
 44
1.0
1001
ACAD
1000
MTEXTBEGIN
1070
    73
1070
     1
1070
    44
1040
1.0
1070
    74
1070
     0
1000
MTEXTEND
  0
POINT
  5
15F97
330
15DB5
100
AcDbEntity
  8
DEFPOINTS
 62
     0
 48
50.0
100
AcDbPoint
 10
5788.904397928899
 20
7311.984525907591
 30
0.0
  0
POINT
  5
15F98
330
15DB5
100
AcDbEntity
  8
DEFPOINTS
 62
     0
 48
50.0
100
AcDbPoint
 10
7998.904397928898
 20
7256.984525907596
 30
0.0
  0
POINT
  5
15F99
330
15DB5
100
AcDbEntity
  8
DEFPOINTS
 62
     0
 48
50.0
100
AcDbPoint
 10
7998.904397928898
 20
5978.935946353274
 30
0.0
  0
ENDBLK
  5
15DC0
330
15DB5
100
AcDbEntity
  8
0
 48
50.0
100
AcDbBlockEnd
  0
BLOCK
  5
15DD9
330
15DCF
100
AcDbEntity
  8
0
 48
50.0
100
AcDbBlockBegin
  2
*D32
 70
     1
 10
0.0
 20
0.0
 30
0.0
  3
*D32
  1

  0
LINE
  5
15F88
330
15DCF
100
AcDbEntity
  8
寸法
 62
     0
 48
50.0
370
    -2
100
AcDbLine
 10
3578.904397928898
 20
7236.984525907596
 30
0.0
 11
3578.904397928898
 21
5938.935946353275
 31
0.0
  0
LINE
  5
15F89
330
15DCF
100
AcDbEntity
  8
寸法
 62
     0
 48
50.0
370
    -2
100
AcDbLine
 10
5788.904397928899
 20
7291.984525907595
 30
0.0
 11
5788.904397928899
 21
5938.935946353275
 31
0.0
  0
LINE
  5
15F8A
330
15DCF
100
AcDbEntity
  8
寸法
 62
     0
 48
50.0
370
    -2
100
AcDbLine
 10
3598.904397928898
 20
5978.935946353274
 30
0.0
 11
5768.904397928898
 21
5978.935946353274
 31
0.0
  0
INSERT
  5
15F8B
330
15DCF
100
AcDbEntity
  8
寸法
 62
     0
 48
50.0
370
    -2
100
AcDbBlockReference
  2
_DOT
 10
3578.904397928898
 20
5978.935946353274
 30
0.0
 41
20.0
 42
20.0
 43
20.0
 50
180.0
  0
INSERT
  5
15F8C
330
15DCF
100
AcDbEntity
  8
寸法
 62
     0
 48
50.0
370
    -2
100
AcDbBlockReference
  2
_DOT
 10
5788.904397928899
 20
5978.935946353274
 30
0.0
 41
20.0
 42
20.0
 43
20.0
  0
MTEXT
  5
15F8D
330
15DCF
100
AcDbEntity
  8
寸法
 62
     7
 48
50.0
100
AcDbMText
 10
4673.548125189918
 20
6070.947757376896
 30
0.0
 40
120.0
 41
0.0
 71
     5
 72
     1
  1
\A1;2210
  7
STYLE1
 73
     1
 44
1.0
1001
ACAD
1000
MTEXTBEGIN
1070
    73
1070
     1
1070
    44
1040
1.0
1070
    74
1070
     0
1000
MTEXTEND
  0
POINT
  5
15F8E
330
15DCF
100
AcDbEntity
  8
DEFPOINTS
 62
     0
 48
50.0
100
AcDbPoint
 10
3578.904397928898
 20
7256.984525907596
 30
0.0
  0
POINT
  5
15F8F
330
15DCF
100
AcDbEntity
  8
DEFPOINTS
 62
     0
 48
50.0
100
AcDbPoint
 10
5788.904397928899
 20
7311.984525907596
 30
0.0
  0
POINT
  5
15F90
330
15DCF
100
AcDbEntity
  8
DEFPOINTS
 62
     0
 48
50.0
100
AcDbPoint
 10
5788.904397928899
 20
5978.935946353274
 30
0.0
  0
ENDBLK
  5
15DDA
330
15DCF
100
AcDbEntity
  8
0
 48
50.0
100
AcDbBlockEnd
  0
ENDSEC
  0
SECTION
  2
ENTITIES
  0
MTEXT
  5
763F
330
747D
100
AcDbEntity
  8
0
100
AcDbMText
 10
302.846345836809
 20
280.1983726409901
 30
0.0
 40
3.5
 41
5.323721266742722
 71
     1
 72
     5
  1

  7
MSMINCHO
 73
     1
 44
1.0
1001
ACAD
1000
MTEXTBEGIN
1070
    73
1070
     1
1070
    44
1040
1.0
1070
    74
1070
     0
1000
MTEXTEND
  0
INSERT
  5
F235
330
747D
100
AcDbEntity
  8
0
100
AcDbBlockReference
  2
作図枠S50
 10
0.0
 20
0.0
 30
0.0
 41
0.8
 42
0.8
 43
0.8
  0
LINE
  5
10B56
330
747D
100
AcDbEntity
  8
補助
  6
PHANTOM
 62
   230
 48
50.0
100
AcDbLine
 10
140.0
 20
0.0
 30
0.0
 11
139.9999999999995
 21
11409.6
 31
0.0
  0
LINE
  5
10B57
330
747D
100
AcDbEntity
  8
補助
  6
PHANTOM
 62
   230
 48
50.0
100
AcDbLine
 10
139.9999999999995
 20
11409.6
 30
0.0
 11
16307.2
 21
11409.6
 31
0.0
  0
LINE
  5
10B59
330
747D
100
AcDbEntity
  8
仕様書枠
  6
Continuous
 48
50.0
100
AcDbLine
 10
13107.2
 20
1200.0
 30
0.0
 11
13107.2
 21
-0.0000000000000729
 31
0.0
  0
LINE
  5
10B5C
330
747D
100
AcDbEntity
  8
仕様書枠
 48
50.0
100
AcDbLine
 10
16307.2
 20
1200.0
 30
0.0
 11
16307.2
 21
-0.0000000000000909
 31
0.0
  0
LINE
  5
10B5D
330
747D
100
AcDbEntity
  8
仕様書枠
 48
50.0
100
AcDbLine
 10
140.0
 20
0.0
 30
0.0
 11
16307.2
 21
-0.0000000000000909
 31
0.0
  0
LINE
  5
10B5E
330
747D
100
AcDbEntity
  8
補助
  6
PHANTOM
 62
   230
 48
50.0
100
AcDbLine
 10
16307.2
 20
11409.6
 30
0.0
 11
16307.2
 21
1200.0
 31
0.0
  0
LINE
  5
10B6C
330
747D
100
AcDbEntity
  8
仕様書枠
 48
50.0
100
AcDbLine
 10
13107.2
 20
1200.0
 30
0.0
 11
16307.2
 21
1200.0
 31
0.0
  0
LINE
  5
10B6D
330
747D
100
AcDbEntity
  8
補助
  6
PHANTOM
 62
   230
 48
50.0
100
AcDbLine
 10
13107.2
 20
11409.6
 30
0.0
 11
13107.2
 21
4800.0
 31
0.0
  0
LINE
  5
10B6F
330
747D
100
AcDbEntity
  8
補助
  6
PHANTOM
 62
   230
 48
50.0
100
AcDbLine
 10
13107.2
 20
4800.0
 30
0.0
 11
16307.2
 21
4800.0
 31
0.0
  0
LINE
  5
10B72
330
747D
100
AcDbEntity
  8
文字
 62
     7
 48
50.0
100
AcDbLine
 10
13187.2
 20
400.0
 30
0.0
 11
16227.2
 21
400.0
 31
0.0
  0
TEXT
  5
10B73
330
747D
100
AcDbEntity
  8
文字
 62
     7
 48
50.0
100
AcDbText
 10
13162.9790565769
 20
895.0906074299405
 30
0.0
 40
200.0
  1
外 形 図
  7
STYLE2
100
AcDbText
  0
TEXT
  5
10B74
330
747D
100
AcDbEntity
  8
文字
 62
     7
 48
50.0
100
AcDbText
 10
13201.43669998441
 20
477.2740661031255
 30
0.0
 40
160.0
  1
機種名
  7
STYLE2
100
AcDbText
  0
TEXT
  5
10B76
330
747D
100
AcDbEntity
  8
文字
 62
     7
 48
50.0
100
AcDbText
 10
13209.4053442172
 20
76.09434707649343
 30
0.0
 40
100.0
  1
○床面積 ： 13.64㎡(4.13坪) 　
  7
STYLE2
100
AcDbText
  0
TEXT
  5
10B79
330
747D
100
AcDbEntity
  8
文字
 62
     7
 48
50.0
100
AcDbText
 10
14524.131837222
 20
1031.557706291228
 30
0.0
 40
100.0
  1
NO.13     <縮尺> S=1/40
  7
STYLE2
100
AcDbText
  0
LINE
  5
10B7B
330
747D
100
AcDbEntity
  8
仕様書枠
 48
50.0
100
AcDbLine
 10
13107.2
 20
800.0
 30
0.0
 11
14251.2
 21
800.0
 31
0.0
  0
LINE
  5
10B88
330
747D
100
AcDbEntity
  8
仕様書枠
  6
Continuous
 48
50.0
100
AcDbLine
 10
14251.2
 20
1200.0
 30
0.0
 11
14251.2
 21
800.0
 31
0.0
  0
TEXT
  5
10EA8
330
747D
100
AcDbEntity
  8
文字
 62
     7
 48
50.0
100
AcDbText
 10
14612.63704048961
 20
838.2527270729188
 30
0.0
 40
100.0
  1
～一般型～
  7
STYLE2
100
AcDbText
  0
LINE
  5
120DB
330
747D
100
AcDbEntity
  8
Ｇ．Ｌ
 48
50.0
100
AcDbLine
 10
2315.037010702756
 20
2188.112805903256
 30
0.0
 11
15091.90078798375
 21
2188.112805903256
 31
0.0
  0
LINE
  5
13628
330
747D
100
AcDbEntity
  8
部品1
100
AcDbLine
 10
7970.904397928897
 20
9411.984525907598
 30
0.0
 11
7998.904397928898
 21
9411.984525907598
 31
0.0
  0
LINE
  5
13629
330
747D
100
AcDbEntity
  8
部品1
100
AcDbLine
 10
7970.904397928897
 20
8991.9845259076
 30
0.0
 11
7998.904397928898
 21
8991.9845259076
 31
0.0
  0
LINE
  5
1362A
330
747D
100
AcDbEntity
  8
部品1
100
AcDbLine
 10
3606.904397928899
 20
9411.984525907598
 30
0.0
 11
3578.904397928898
 21
9411.984525907598
 31
0.0
  0
LINE
  5
1362B
330
747D
100
AcDbEntity
  8
部品1
100
AcDbLine
 10
3606.904397928899
 20
8991.9845259076
 30
0.0
 11
3578.904397928898
 21
8991.9845259076
 31
0.0
  0
LINE
  5
1362C
330
747D
100
AcDbEntity
  8
部品1
100
AcDbLine
 10
5733.904397928896
 20
9411.984525907596
 30
0.0
 11
3633.904397928898
 21
9411.984525907595
 31
0.0
  0
LINE
  5
1362D
330
747D
100
AcDbEntity
  8
部品1
100
AcDbLine
 10
5733.904397928896
 20
8991.984525907597
 30
0.0
 11
3633.904397928898
 21
8991.984525907595
 31
0.0
  0
LINE
  5
1362E
330
747D
100
AcDbEntity
  8
部品1
100
AcDbLine
 10
5843.904397928898
 20
9411.984525907596
 30
0.0
 11
7943.904397928898
 21
9411.984525907596
 31
0.0
  0
LINE
  5
1362F
330
747D
100
AcDbEntity
  8
部品1
100
AcDbLine
 10
5843.904397928898
 20
8991.984525907597
 30
0.0
 11
7943.904397928898
 21
8991.984525907597
 31
0.0
  0
TEXT
  5
13630
330
747D
100
AcDbEntity
  8
文字
 62
     7
 48
50.0
100
AcDbText
 10
13209.4053442172
 20
228.5435242569015
 30
0.0
 40
100.0
  1
○有効開口寸法 ： 1266×2025(mm)
  7
STYLE2
100
AcDbText
  0
DIMENSION
  5
13631
330
747D
100
AcDbEntity
  8
寸法
 48
50.0
100
AcDbDimension
  2
*D3
 10
7998.904397928898
 20
10681.69693592639
 30
0.0
 11
8393.071064595565
 21
10681.69693592639
 31
0.0
 70
   160
 71
     5
 42
55.0
  3
INABA_S40
100
AcDbAlignedDimension
 13
7943.904397928898
 23
10306.9845259076
 33
0.0
 14
7998.904397928898
 24
10306.98452590759
 34
0.0
100
AcDbRotatedDimension
1001
ACAD
1000
DSTYLE
1002
{
1070
    41
1040
0.5
1070
    44
1040
1.0
1070
   147
1040
0.8
1070
   271
1070
     2
1070
   272
1070
     2
1070
   289
1070
     3
1070
   340
1005
F706
1070
   343
1005
F744
1070
   344
1005
F744
1002
}
  0
DIMENSION
  5
13632
330
747D
100
AcDbEntity
  8
寸法
 48
50.0
100
AcDbDimension
  2
*D4
 10
9069.651514973251
 20
7256.984525907596
 30
0.0
 11
8977.651514973251
 21
8781.984525907597
 31
0.0
 70
    32
 71
     5
 42
3050.0
  3
INABA_S40
100
AcDbAlignedDimension
 13
7998.904397928898
 23
10306.98452590759
 33
0.0
 14
7998.904397928898
 24
7256.984525907596
 34
0.0
 50
90.0
100
AcDbRotatedDimension
1001
ACAD
1000
DSTYLE
1002
{
1070
    41
1040
0.5
1070
    44
1040
1.0
1070
   147
1040
0.8
1070
   271
1070
     2
1070
   272
1070
     2
1070
   289
1070
     3
1070
   340
1005
F706
1070
   343
1005
F744
1070
   344
1005
F744
1002
}
  0
DIMENSION
  5
13633
330
747D
100
AcDbEntity
  8
寸法
 48
50.0
100
AcDbDimension
  2
*D5
 10
8769.651514973253
 20
7256.984525907596
 30
0.0
 11
8769.651514973253
 21
6862.81785924093
 31
0.0
 70
   160
 71
     5
 42
54.99999999999636
  3
INABA_S40
100
AcDbAlignedDimension
 13
7998.904397928898
 23
7311.984525907591
 33
0.0
 14
7998.904397928898
 24
7256.984525907596
 34
0.0
 50
90.0
100
AcDbRotatedDimension
1001
ACAD
1000
DSTYLE
1002
{
1070
    41
1040
0.5
1070
    44
1040
1.0
1070
   147
1040
0.8
1070
   271
1070
     2
1070
   272
1070
     2
1070
   289
1070
     3
1070
   340
1005
F706
1070
   343
1005
F744
1070
   344
1005
F744
1002
}
  0
DIMENSION
  5
13634
330
747D
100
AcDbEntity
  8
寸法
 48
50.0
100
AcDbDimension
  2
*D6
 10
8769.651514973253
 20
7311.984525907591
 30
0.0
 11
8677.639703949628
 21
8781.984525907597
 31
0.0
 70
    32
  1
7X420=<>
 71
     5
 42
2940.000000000008
  3
INABA_S40
100
AcDbAlignedDimension
 13
7998.904397928898
 23
10251.9845259076
 33
0.0
 14
7998.904397928898
 24
7311.984525907591
 34
0.0
 50
90.0
100
AcDbRotatedDimension
1001
ACAD
1000
DSTYLE
1002
{
1070
    41
1040
0.5
1070
    44
1040
1.0
1070
   147
1040
0.8
1070
   271
1070
     2
1070
   272
1070
     2
1070
   289
1070
     3
1070
   340
1005
F706
1070
   343
1005
F744
1070
   344
1005
F744
1002
}
  0
DIMENSION
  5
13635
330
747D
100
AcDbEntity
  8
寸法
 48
50.0
100
AcDbDimension
  2
*D7
 10
8769.651514973253
 20
10251.9845259076
 30
0.0
 11
8769.651514973253
 21
10701.15119257426
 31
0.0
 70
   160
 71
     5
 42
54.99999999999636
  3
INABA_S40
100
AcDbAlignedDimension
 13
7998.904397928898
 23
10306.98452590759
 33
0.0
 14
7998.904397928898
 24
10251.9845259076
 34
0.0
 50
90.0
100
AcDbRotatedDimension
1001
ACAD
1000
DSTYLE
1002
{
1070
    41
1040
0.5
1070
    44
1040
1.0
1070
   147
1040
0.8
1070
   271
1070
     2
1070
   272
1070
     2
1070
   289
1070
     3
1070
   340
1005
F706
1070
   343
1005
F744
1070
   344
1005
F744
1002
}
  0
LINE
  5
13636
330
747D
100
AcDbEntity
  8
部品1
100
AcDbLine
 10
3603.904397928899
 20
4428.112805903256
 30
0.0
 11
5763.904397928898
 21
4428.112805903256
 31
0.0
  0
LINE
  5
13637
330
747D
100
AcDbEntity
  8
部品1
100
AcDbLine
 10
3578.904397928898
 20
4428.112805903256
 30
0.0
 11
7998.904397928898
 21
4428.112805903256
 31
0.0
  0
LINE
  5
13638
330
747D
100
AcDbEntity
  8
部品1
100
AcDbLine
 10
3578.904397928898
 20
2288.112805903256
 30
0.0
 11
5788.904397928899
 21
2288.112805903256
 31
0.0
  0
LINE
  5
13639
330
747D
100
AcDbEntity
  8
部品1
100
AcDbLine
 10
3578.904397928898
 20
4522.112805903261
 30
0.0
 11
3578.904397928898
 21
2188.112805903256
 31
0.0
  0
TEXT
  5
1363A
330
747D
100
AcDbEntity
  8
部品1
100
AcDbText
 10
2745.973702581163
 20
2202.954510774245
 30
0.0
 40
125.0
  1
G.L
  7
MSGOTHIC
100
AcDbText
  0
LINE
  5
1363B
330
747D
100
AcDbEntity
  8
部品1
100
AcDbLine
 10
2603.489748881344
 20
2292.035854357388
 30
0.0
 11
2723.489748881344
 21
2292.035854357388
 31
0.0
  0
LINE
  5
1363C
330
747D
100
AcDbEntity
  8
部品1
100
AcDbLine
 10
2723.489748881344
 20
2292.035854357388
 30
0.0
 11
2663.489748881344
 21
2188.112805903256
 31
0.0
  0
LINE
  5
1363D
330
747D
100
AcDbEntity
  8
部品1
100
AcDbLine
 10
2663.489748881344
 20
2188.112805903256
 30
0.0
 11
2603.489748881344
 21
2292.035854357388
 31
0.0
  0
LINE
  5
1363E
330
747D
100
AcDbEntity
  8
部品1
 48
50.0
100
AcDbLine
 10
3606.904397928899
 20
2338.112805903255
 30
0.0
 11
3578.904397928898
 21
2338.112805903256
 31
0.0
  0
LINE
  5
1363F
330
747D
100
AcDbEntity
  8
部品1
100
AcDbLine
 10
5788.904397928899
 20
2288.112805903256
 30
0.0
 11
7998.904397928898
 21
2288.112805903256
 31
0.0
  0
LINE
  5
13640
330
747D
100
AcDbEntity
  8
部品1
 48
50.0
100
AcDbLine
 10
5788.904397928899
 20
2338.112805903256
 30
0.0
 11
7998.904397928898
 21
2338.112805903256
 31
0.0
  0
LINE
  5
13641
330
747D
100
AcDbEntity
  8
部品1
100
AcDbLine
 10
5843.904397928898
 20
4428.112805903256
 30
0.0
 11
5843.904397928898
 21
2338.112805903256
 31
0.0
  0
LINE
  5
13642
330
747D
100
AcDbEntity
  8
部品1
100
AcDbLine
 10
6263.904397928898
 20
4428.112805903256
 30
0.0
 11
6263.904397928898
 21
2338.112805903256
 31
0.0
  0
LINE
  5
13643
330
747D
100
AcDbEntity
  8
部品1
 48
50.0
100
AcDbLine
 10
5788.904397928899
 20
2338.112805903256
 30
0.0
 11
5760.9043979289
 21
2338.112805903256
 31
0.0
  0
LINE
  5
13644
330
747D
100
AcDbEntity
  8
部品1
100
AcDbLine
 10
5788.904397928899
 20
2338.112805903256
 30
0.0
 11
5788.904397928899
 21
2288.112805903256
 31
0.0
  0
LINE
  5
13645
330
747D
100
AcDbEntity
  8
部品1
100
AcDbLine
 10
5788.904397928899
 20
4428.112805903256
 30
0.0
 11
5788.904397928899
 21
4522.112805903261
 31
0.0
  0
LINE
  5
13646
330
747D
100
AcDbEntity
  8
部品1
100
AcDbLine
 10
7103.904397928911
 20
4428.112805903256
 30
0.0
 11
7103.904397928909
 21
2338.112805903256
 31
0.0
  0
LINE
  5
13647
330
747D
100
AcDbEntity
  8
部品1
100
AcDbLine
 10
7103.904397928897
 20
4428.112805903256
 30
0.0
 11
7103.904397928896
 21
2338.112805903256
 31
0.0
  0
LINE
  5
13648
330
747D
100
AcDbEntity
  8
部品1
100
AcDbLine
 10
6683.904397928898
 20
4428.112805903256
 30
0.0
 11
6683.904397928896
 21
2338.112805903256
 31
0.0
  0
LINE
  5
13649
330
747D
100
AcDbEntity
  8
部品1
100
AcDbLine
 10
7523.904397928898
 20
4428.112805903257
 30
0.0
 11
7523.904397928884
 21
2338.112805903256
 31
0.0
  0
LINE
  5
1364A
330
747D
100
AcDbEntity
  8
部品1
100
AcDbLine
 10
7943.904397928898
 20
4428.112805903256
 30
0.0
 11
7943.904397928896
 21
2338.112805903256
 31
0.0
  0
LINE
  5
1364B
330
747D
100
AcDbEntity
  8
部品1
100
AcDbLine
 10
7998.904397928898
 20
4522.112805903261
 30
0.0
 11
7998.904397928898
 21
2188.112805903256
 31
0.0
  0
LINE
  5
1364C
330
747D
100
AcDbEntity
  8
部品1
100
AcDbLine
 10
3633.904397928894
 20
10251.9845259076
 30
0.0
 11
5733.904397928898
 21
10251.9845259076
 31
0.0
  0
LINE
  5
1364D
330
747D
100
AcDbEntity
  8
部品1
100
AcDbLine
 10
4053.904397928898
 20
10278.9845259076
 30
0.0
 11
3606.904397928899
 21
10278.98452590759
 31
0.0
  0
LINE
  5
1364E
330
747D
100
AcDbEntity
  8
部品1
100
AcDbLine
 10
5733.904397928896
 20
7731.984525907598
 30
0.0
 11
3633.904397928898
 21
7731.984525907593
 31
0.0
  0
LINE
  5
1364F
330
747D
100
AcDbEntity
  8
部品1
100
AcDbLine
 10
5733.904397928896
 20
8151.984525907598
 30
0.0
 11
3633.904397928898
 21
8151.984525907593
 31
0.0
  0
LINE
  5
13650
330
747D
100
AcDbEntity
  8
部品1
100
AcDbLine
 10
5733.904397928896
 20
8571.984525907598
 30
0.0
 11
3633.904397928898
 21
8571.984525907593
 31
0.0
  0
LINE
  5
13651
330
747D
100
AcDbEntity
  8
部品1
100
AcDbLine
 10
5788.904397928899
 20
10306.98452590759
 30
0.0
 11
3578.904397928898
 21
10306.98452590759
 31
0.0
  0
LINE
  5
13652
330
747D
100
AcDbEntity
  8
部品1
100
AcDbLine
 10
3633.904397928894
 20
7311.984525907597
 30
0.0
 11
5733.904397928898
 21
7311.984525907591
 31
0.0
  0
LINE
  5
13653
330
747D
100
AcDbEntity
  8
部品1
100
AcDbLine
 10
3606.904397928899
 20
7284.984525907596
 30
0.0
 11
5760.904397928898
 21
7284.984525907598
 31
0.0
  0
DIMENSION
  5
13654
330
747D
100
AcDbEntity
  8
寸法
 48
50.0
100
AcDbDimension
  2
*D8
 10
7998.904397928898
 20
10981.69693592639
 30
0.0
 11
5788.904397928899
 21
11073.70874695001
 31
0.0
 70
    32
 71
     5
 42
4420.0
  3
INABA_S40
100
AcDbAlignedDimension
 13
3578.904397928898
 23
10306.98452590759
 33
0.0
 14
7998.904397928898
 24
10306.98452590759
 34
0.0
100
AcDbRotatedDimension
1001
ACAD
1000
DSTYLE
1002
{
1070
    41
1040
0.5
1070
    44
1040
1.0
1070
   147
1040
0.8
1070
   271
1070
     2
1070
   272
1070
     2
1070
   289
1070
     3
1070
   340
1005
F706
1070
   343
1005
F744
1070
   344
1005
F744
1002
}
  0
DIMENSION
  5
13655
330
747D
100
AcDbEntity
  8
寸法
 48
50.0
100
AcDbDimension
  2
*D9
 10
5733.904397928898
 20
10681.69693592639
 30
0.0
 11
4683.904397928897
 21
10773.70874695001
 31
0.0
 70
    32
  1
5X420=<>
 71
     5
 42
2100.0
  3
INABA_S40
100
AcDbAlignedDimension
 13
3633.904397928898
 23
10306.9845259076
 33
0.0
 14
5733.904397928898
 24
10306.9845259076
 34
0.0
100
AcDbRotatedDimension
1001
ACAD
1000
DSTYLE
1002
{
1070
    41
1040
0.5
1070
    44
1040
1.0
1070
   147
1040
0.8
1070
   271
1070
     2
1070
   272
1070
     2
1070
   289
1070
     3
1070
   340
1005
F706
1070
   343
1005
F744
1070
   344
1005
F744
1002
}
  0
LINE
  5
13657
330
747D
100
AcDbEntity
  8
部品1
100
AcDbLine
 10
3633.904397928905
 20
10251.98452590759
 30
0.0
 11
3633.904397928894
 21
7311.984525907597
 31
0.0
  0
LINE
  5
13658
330
747D
100
AcDbEntity
  8
破線
  6
HIDDEN
 48
10.0
100
AcDbLine
 10
3657.404397928905
 20
10228.48452590759
 30
0.0
 11
3657.404397928895
 21
7335.484525907595
 31
0.0
  0
LINE
  5
13659
330
747D
100
AcDbEntity
  8
部品1
100
AcDbLine
 10
3578.904397928898
 20
10306.98452590759
 30
0.0
 11
3578.904397928898
 21
7256.984525907596
 31
0.0
  0
LINE
  5
1365A
330
747D
100
AcDbEntity
  8
部品1
100
AcDbLine
 10
3606.904397928899
 20
10278.98452590759
 30
0.0
 11
3606.904397928899
 21
8789.984525907597
 31
0.0
  0
LINE
  5
1365B
330
747D
100
AcDbEntity
  8
部品1
100
AcDbLine
 10
3606.904397928899
 20
10251.9845259076
 30
0.0
 11
3606.904397928899
 21
7284.984525907596
 31
0.0
  0
LINE
  5
1365D
330
747D
100
AcDbEntity
  8
部品1
100
AcDbLine
 10
3578.904397928898
 20
7256.984525907596
 30
0.0
 11
3633.904397928898
 21
7256.984525907594
 31
0.0
  0
LINE
  5
1365E
330
747D
100
AcDbEntity
  8
部品1
 48
50.0
100
AcDbLine
 10
3606.904397928899
 20
7284.984525907596
 30
0.0
 11
3633.904397928894
 21
7311.984525907597
 31
0.0
  0
LINE
  5
1365F
330
747D
100
AcDbEntity
  8
部品1
100
AcDbLine
 10
3633.904397928898
 20
7256.984525907594
 30
0.0
 11
3633.904397928898
 21
7284.984525907596
 31
0.0
  0
LINE
  5
13660
330
747D
100
AcDbEntity
  8
部品1
100
AcDbLine
 10
3606.904397928899
 20
7311.984525907591
 30
0.0
 11
3578.904397928898
 21
7311.984525907591
 31
0.0
  0
LINE
  5
13661
330
747D
100
AcDbEntity
  8
部品1
100
AcDbLine
 10
3633.904397928898
 20
7256.984525907602
 30
0.0
 11
3633.904397928898
 21
7284.984525907603
 31
0.0
  0
LINE
  5
13662
330
747D
100
AcDbEntity
  8
部品1
100
AcDbLine
 10
3633.904397928898
 20
7256.984525907594
 30
0.0
 11
3633.904397928898
 21
7284.984525907596
 31
0.0
  0
LINE
  5
13663
330
747D
100
AcDbEntity
  8
部品1
100
AcDbLine
 10
3606.904397928899
 20
7731.984525907598
 30
0.0
 11
3578.904397928898
 21
7731.984525907598
 31
0.0
  0
LINE
  5
13664
330
747D
100
AcDbEntity
  8
部品1
100
AcDbLine
 10
3606.904397928899
 20
8151.984525907598
 30
0.0
 11
3578.904397928898
 21
8151.984525907598
 31
0.0
  0
LINE
  5
13665
330
747D
100
AcDbEntity
  8
部品1
100
AcDbLine
 10
3606.904397928899
 20
8571.9845259076
 30
0.0
 11
3578.904397928898
 21
8571.9845259076
 31
0.0
  0
DIMENSION
  5
13667
330
747D
100
AcDbEntity
  8
寸法
 48
50.0
100
AcDbDimension
  2
*D10
 10
3633.904397928898
 20
10681.69693592639
 30
0.0
 11
3184.737731262234
 21
10681.69693592639
 31
0.0
 70
   160
 71
     5
 42
55.0
  3
INABA_S40
100
AcDbAlignedDimension
 13
3578.904397928898
 23
10306.98452590759
 33
0.0
 14
3633.904397928898
 24
10306.9845259076
 34
0.0
100
AcDbRotatedDimension
1001
ACAD
1000
DSTYLE
1002
{
1070
    41
1040
0.5
1070
    44
1040
1.0
1070
   147
1040
0.8
1070
   271
1070
     2
1070
   272
1070
     2
1070
   289
1070
     3
1070
   340
1005
F706
1070
   343
1005
F744
1070
   344
1005
F744
1002
}
  0
LINE
  5
13668
330
747D
100
AcDbEntity
  8
部品1
 48
50.0
100
AcDbLine
 10
3606.904397928899
 20
10278.98452590759
 30
0.0
 11
3633.904397928894
 21
10251.9845259076
 31
0.0
  0
LINE
  5
13669
330
747D
100
AcDbEntity
  8
部品1
100
AcDbLine
 10
3633.904397928898
 20
10306.9845259076
 30
0.0
 11
3633.904397928898
 21
10278.98452590759
 31
0.0
  0
LINE
  5
1366A
330
747D
100
AcDbEntity
  8
部品1
100
AcDbLine
 10
3606.904397928899
 20
10251.9845259076
 30
0.0
 11
3578.904397928898
 21
10251.9845259076
 31
0.0
  0
LINE
  5
1366B
330
747D
100
AcDbEntity
  8
部品1
100
AcDbLine
 10
7943.904397928898
 20
10251.9845259076
 30
0.0
 11
7943.904397928898
 21
7311.984525907596
 31
0.0
  0
LINE
  5
1366C
330
747D
100
AcDbEntity
  8
部品1
100
AcDbLine
 10
5843.904397928898
 20
7311.984525907596
 30
0.0
 11
5843.904397928898
 21
10251.98452590759
 31
0.0
  0
LINE
  5
1366D
330
747D
100
AcDbEntity
  8
破線
  6
HIDDEN
 48
10.0
100
AcDbLine
 10
5867.404397928898
 20
7335.484525907595
 30
0.0
 11
5867.404397928897
 21
10228.48452590759
 31
0.0
  0
LINE
  5
1366E
330
747D
100
AcDbEntity
  8
部品1
100
AcDbLine
 10
5816.904397928897
 20
7284.984525907596
 30
0.0
 11
5816.904397928897
 21
10278.9845259076
 31
0.0
  0
LINE
  5
1366F
330
747D
100
AcDbEntity
  8
破線
  6
HIDDEN
 48
10.0
100
AcDbLine
 10
5710.404397928898
 20
7335.484525907592
 30
0.0
 11
5710.404397928894
 21
10228.4845259076
 31
0.0
  0
LINE
  5
13670
330
747D
100
AcDbEntity
  8
部品1
100
AcDbLine
 10
5733.904397928898
 20
7311.984525907591
 30
0.0
 11
5733.904397928895
 21
10251.9845259076
 31
0.0
  0
LINE
  5
13671
330
747D
100
AcDbEntity
  8
部品1
100
AcDbLine
 10
5760.904397928898
 20
7284.984525907598
 30
0.0
 11
5760.904397928898
 21
10278.98452590759
 31
0.0
  0
LINE
  5
13672
330
747D
100
AcDbEntity
  8
破線
  6
HIDDEN
 48
10.0
100
AcDbLine
 10
7920.404397928898
 20
10228.4845259076
 30
0.0
 11
7920.404397928898
 21
7335.484525907594
 31
0.0
  0
LINE
  5
13673
330
747D
100
AcDbEntity
  8
部品1
100
AcDbLine
 10
7998.904397928898
 20
10306.98452590759
 30
0.0
 11
7998.904397928898
 21
7256.984525907596
 31
0.0
  0
LINE
  5
13674
330
747D
100
AcDbEntity
  8
部品1
100
AcDbLine
 10
7970.904397928897
 20
10278.98452590759
 30
0.0
 11
7970.904397928897
 21
8789.984525907597
 31
0.0
  0
LINE
  5
13676
330
747D
100
AcDbEntity
  8
部品1
100
AcDbLine
 10
5843.904397928898
 20
7731.984525907598
 30
0.0
 11
7943.904397928898
 21
7731.984525907598
 31
0.0
  0
LINE
  5
13677
330
747D
100
AcDbEntity
  8
部品1
100
AcDbLine
 10
5843.904397928898
 20
8151.984525907598
 30
0.0
 11
7943.904397928898
 21
8151.984525907598
 31
0.0
  0
LINE
  5
13678
330
747D
100
AcDbEntity
  8
部品1
100
AcDbLine
 10
5843.904397928898
 20
8571.984525907598
 30
0.0
 11
7943.904397928898
 21
8571.984525907598
 31
0.0
  0
LINE
  5
13679
330
747D
100
AcDbEntity
  8
部品1
100
AcDbLine
 10
7998.904397928898
 20
7256.984525907596
 30
0.0
 11
5843.904397928898
 21
7256.984525907596
 31
0.0
  0
LINE
  5
1367A
330
747D
100
AcDbEntity
  8
部品1
100
AcDbLine
 10
7943.904397928898
 20
7311.984525907596
 30
0.0
 11
5843.904397928898
 21
7311.984525907597
 31
0.0
  0
LINE
  5
1367B
330
747D
100
AcDbEntity
  8
部品1
100
AcDbLine
 10
7970.904397928897
 20
7284.984525907596
 30
0.0
 11
5816.904397928897
 21
7284.984525907598
 31
0.0
  0
LINE
  5
1367E
330
747D
100
AcDbEntity
  8
部品1
100
AcDbLine
 10
5733.904397928898
 20
7256.984525907596
 30
0.0
 11
5788.904397928899
 21
7256.984525907596
 31
0.0
  0
LINE
  5
1367F
330
747D
100
AcDbEntity
  8
部品1
100
AcDbLine
 10
5733.904397928898
 20
7256.984525907594
 30
0.0
 11
5733.904397928898
 21
7284.984525907596
 31
0.0
  0
LINE
  5
13680
330
747D
100
AcDbEntity
  8
部品1
100
AcDbLine
 10
5733.904397928898
 20
7256.984525907594
 30
0.0
 11
5733.904397928898
 21
7284.984525907596
 31
0.0
  0
LINE
  5
13681
330
747D
100
AcDbEntity
  8
部品1
 48
50.0
100
AcDbLine
 10
5816.904397928897
 20
7284.984525907596
 30
0.0
 11
5843.904397928898
 21
7311.984525907596
 31
0.0
  0
LINE
  5
13682
330
747D
100
AcDbEntity
  8
部品1
 48
50.0
100
AcDbLine
 10
5760.904397928898
 20
7284.984525907598
 30
0.0
 11
5733.904397928898
 21
7311.984525907591
 31
0.0
  0
LINE
  5
13683
330
747D
100
AcDbEntity
  8
部品1
100
AcDbLine
 10
5843.904397928898
 20
7256.984525907597
 30
0.0
 11
5788.904397928899
 21
7256.984525907596
 31
0.0
  0
LINE
  5
13684
330
747D
100
AcDbEntity
  8
部品1
100
AcDbLine
 10
5733.904397928898
 20
7256.984525907594
 30
0.0
 11
5733.904397928898
 21
7284.984525907596
 31
0.0
  0
LINE
  5
13685
330
747D
100
AcDbEntity
  8
部品1
100
AcDbLine
 10
5843.904397928898
 20
7256.984525907594
 30
0.0
 11
5843.904397928898
 21
7284.984525907596
 31
0.0
  0
LINE
  5
13686
330
747D
100
AcDbEntity
  8
部品1
100
AcDbLine
 10
5816.904397928897
 20
7311.984525907591
 30
0.0
 11
5788.904397928899
 21
7311.984525907591
 31
0.0
  0
LINE
  5
13687
330
747D
100
AcDbEntity
  8
部品1
100
AcDbLine
 10
5760.904397928898
 20
7311.984525907591
 30
0.0
 11
5788.904397928899
 21
7311.984525907591
 31
0.0
  0
LINE
  5
13688
330
747D
100
AcDbEntity
  8
部品1
100
AcDbLine
 10
6263.904397928898
 20
7256.984525907594
 30
0.0
 11
6263.904397928898
 21
7284.984525907596
 31
0.0
  0
LINE
  5
13689
330
747D
100
AcDbEntity
  8
部品1
100
AcDbLine
 10
7970.904397928897
 20
10251.9845259076
 30
0.0
 11
7970.904397928897
 21
7284.984525907596
 31
0.0
  0
LINE
  5
1368A
330
747D
100
AcDbEntity
  8
部品1
100
AcDbLine
 10
6683.904397928898
 20
7256.984525907594
 30
0.0
 11
6683.904397928898
 21
7284.984525907596
 31
0.0
  0
LINE
  5
1368C
330
747D
100
AcDbEntity
  8
部品1
100
AcDbLine
 10
7103.904397928897
 20
7256.984525907594
 30
0.0
 11
7103.904397928897
 21
7284.984525907596
 31
0.0
  0
LINE
  5
1368D
330
747D
100
AcDbEntity
  8
部品1
100
AcDbLine
 10
7523.904397928898
 20
7256.984525907594
 30
0.0
 11
7523.904397928898
 21
7284.984525907596
 31
0.0
  0
LINE
  5
1368E
330
747D
100
AcDbEntity
  8
部品1
 48
50.0
100
AcDbLine
 10
7970.904397928897
 20
7284.984525907596
 30
0.0
 11
7943.904397928898
 21
7311.984525907596
 31
0.0
  0
LINE
  5
1368F
330
747D
100
AcDbEntity
  8
部品1
100
AcDbLine
 10
7943.904397928898
 20
7256.984525907594
 30
0.0
 11
7943.904397928898
 21
7284.984525907596
 31
0.0
  0
LINE
  5
13690
330
747D
100
AcDbEntity
  8
部品1
100
AcDbLine
 10
7970.904397928897
 20
7311.984525907591
 30
0.0
 11
7998.904397928898
 21
7311.984525907591
 31
0.0
  0
LINE
  5
13691
330
747D
100
AcDbEntity
  8
部品1
100
AcDbLine
 10
7970.904397928897
 20
7731.984525907598
 30
0.0
 11
7998.904397928898
 21
7731.984525907598
 31
0.0
  0
LINE
  5
13692
330
747D
100
AcDbEntity
  8
部品1
100
AcDbLine
 10
7970.904397928897
 20
8151.984525907598
 30
0.0
 11
7998.904397928898
 21
8151.984525907598
 31
0.0
  0
LINE
  5
13693
330
747D
100
AcDbEntity
  8
部品1
100
AcDbLine
 10
7970.904397928897
 20
8571.9845259076
 30
0.0
 11
7998.904397928898
 21
8571.9845259076
 31
0.0
  0
LINE
  5
13695
330
747D
100
AcDbEntity
  8
部品1
100
AcDbLine
 10
7943.904397928898
 20
10251.9845259076
 30
0.0
 11
5843.904397928898
 21
10251.9845259076
 31
0.0
  0
LINE
  5
13696
330
747D
100
AcDbEntity
  8
部品1
100
AcDbLine
 10
5816.904397928897
 20
10278.98452590759
 30
0.0
 11
7103.904397928897
 21
10278.98452590759
 31
0.0
  0
DIMENSION
  5
13697
330
747D
100
AcDbEntity
  8
寸法
 48
50.0
100
AcDbDimension
  2
*D11
 10
7943.904397928898
 20
10681.69693592639
 30
0.0
 11
6893.904397928898
 21
10773.70874695001
 31
0.0
 70
    32
  1
5X420=<>
 71
     5
 42
2100.0
  3
INABA_S40
100
AcDbAlignedDimension
 13
5843.904397928898
 23
10306.9845259076
 33
0.0
 14
7943.904397928898
 24
10306.9845259076
 34
0.0
100
AcDbRotatedDimension
1001
ACAD
1000
DSTYLE
1002
{
1070
    41
1040
0.5
1070
    44
1040
1.0
1070
   147
1040
0.8
1070
   271
1070
     2
1070
   272
1070
     2
1070
   289
1070
     3
1070
   340
1005
F706
1070
   343
1005
F744
1070
   344
1005
F744
1002
}
  0
LINE
  5
13698
330
747D
100
AcDbEntity
  8
部品1
100
AcDbLine
 10
5788.904397928899
 20
10306.98452590759
 30
0.0
 11
7998.904397928898
 21
10306.98452590759
 31
0.0
  0
LINE
  5
13699
330
747D
100
AcDbEntity
  8
部品1
100
AcDbLine
 10
5313.904397928898
 20
10278.98452590759
 30
0.0
 11
4053.904397928898
 21
10278.9845259076
 31
0.0
  0
LINE
  5
1369A
330
747D
100
AcDbEntity
  8
部品1
100
AcDbLine
 10
4053.904397928898
 20
10306.9845259076
 30
0.0
 11
4053.904397928898
 21
10278.98452590759
 31
0.0
  0
LINE
  5
1369B
330
747D
100
AcDbEntity
  8
部品1
100
AcDbLine
 10
4473.904397928897
 20
10306.9845259076
 30
0.0
 11
4473.904397928897
 21
10278.98452590759
 31
0.0
  0
LINE
  5
1369C
330
747D
100
AcDbEntity
  8
部品1
100
AcDbLine
 10
4893.904397928898
 20
10306.9845259076
 30
0.0
 11
4893.904397928898
 21
10278.98452590759
 31
0.0
  0
LINE
  5
1369E
330
747D
100
AcDbEntity
  8
部品1
100
AcDbLine
 10
5760.904397928898
 20
10278.98452590759
 30
0.0
 11
5313.904397928898
 21
10278.98452590759
 31
0.0
  0
LINE
  5
1369F
330
747D
100
AcDbEntity
  8
部品1
100
AcDbLine
 10
5313.904397928898
 20
10306.9845259076
 30
0.0
 11
5313.904397928898
 21
10278.98452590759
 31
0.0
  0
LINE
  5
136A0
330
747D
100
AcDbEntity
  8
部品1
100
AcDbLine
 10
5733.904397928898
 20
10306.9845259076
 30
0.0
 11
5733.904397928898
 21
10278.98452590759
 31
0.0
  0
DIMENSION
  5
136A1
330
747D
100
AcDbEntity
  8
寸法
 48
50.0
100
AcDbDimension
  2
*D12
 10
5843.904397928898
 20
10681.69693592639
 30
0.0
 11
5788.904397928899
 21
10681.69693592639
 31
0.0
 70
   160
 71
     5
 42
110.0
  3
INABA_S40
100
AcDbAlignedDimension
 13
5733.904397928898
 23
10306.9845259076
 33
0.0
 14
5843.904397928898
 24
10306.9845259076
 34
0.0
100
AcDbRotatedDimension
1001
ACAD
1000
DSTYLE
1002
{
1070
    41
1040
0.5
1070
    44
1040
1.0
1070
   147
1040
0.8
1070
   271
1070
     2
1070
   272
1070
     2
1070
   289
1070
     3
1070
   340
1005
F706
1070
   343
1005
F744
1070
   344
1005
F744
1002
}
  0
LINE
  5
136A2
330
747D
100
AcDbEntity
  8
部品1
 48
50.0
100
AcDbLine
 10
5816.904397928897
 20
10278.98452590759
 30
0.0
 11
5843.904397928898
 21
10251.9845259076
 31
0.0
  0
LINE
  5
136A3
330
747D
100
AcDbEntity
  8
部品1
 48
50.0
100
AcDbLine
 10
5760.904397928898
 20
10278.98452590759
 30
0.0
 11
5733.904397928898
 21
10251.9845259076
 31
0.0
  0
LINE
  5
136A4
330
747D
100
AcDbEntity
  8
部品1
100
AcDbLine
 10
5816.904397928897
 20
10251.9845259076
 30
0.0
 11
5788.904397928899
 21
10251.9845259076
 31
0.0
  0
LINE
  5
136A5
330
747D
100
AcDbEntity
  8
部品1
100
AcDbLine
 10
5733.904397928898
 20
10306.9845259076
 30
0.0
 11
5733.904397928898
 21
10278.98452590759
 31
0.0
  0
LINE
  5
136A6
330
747D
100
AcDbEntity
  8
部品1
100
AcDbLine
 10
5760.904397928898
 20
10251.9845259076
 30
0.0
 11
5788.904397928899
 21
10251.9845259076
 31
0.0
  0
LINE
  5
136A7
330
747D
100
AcDbEntity
  8
部品1
100
AcDbLine
 10
5843.904397928898
 20
10306.9845259076
 30
0.0
 11
5843.904397928898
 21
10278.98452590759
 31
0.0
  0
LINE
  5
136A8
330
747D
100
AcDbEntity
  8
部品1
100
AcDbLine
 10
5843.904397928898
 20
10306.9845259076
 30
0.0
 11
5843.904397928898
 21
10278.98452590759
 31
0.0
  0
LINE
  5
136A9
330
747D
100
AcDbEntity
  8
部品1
100
AcDbLine
 10
6263.904397928898
 20
10306.9845259076
 30
0.0
 11
6263.904397928898
 21
10278.98452590759
 31
0.0
  0
LINE
  5
136AA
330
747D
100
AcDbEntity
  8
部品1
100
AcDbLine
 10
6906.404397928898
 20
10278.98452590759
 30
0.0
 11
7301.404397928898
 21
10278.98452590759
 31
0.0
  0
LINE
  5
136AB
330
747D
100
AcDbEntity
  8
部品1
100
AcDbLine
 10
6683.904397928898
 20
10306.9845259076
 30
0.0
 11
6683.904397928898
 21
10278.98452590759
 31
0.0
  0
LINE
  5
136AD
330
747D
100
AcDbEntity
  8
部品1
100
AcDbLine
 10
7103.904397928897
 20
10278.98452590759
 30
0.0
 11
7970.904397928897
 21
10278.98452590759
 31
0.0
  0
LINE
  5
136AE
330
747D
100
AcDbEntity
  8
部品1
100
AcDbLine
 10
7103.904397928897
 20
10306.9845259076
 30
0.0
 11
7103.904397928897
 21
10278.98452590759
 31
0.0
  0
LINE
  5
136AF
330
747D
100
AcDbEntity
  8
部品1
100
AcDbLine
 10
7523.904397928898
 20
10306.9845259076
 30
0.0
 11
7523.904397928898
 21
10278.98452590759
 31
0.0
  0
LINE
  5
136B0
330
747D
100
AcDbEntity
  8
部品1
 48
50.0
100
AcDbLine
 10
7970.904397928897
 20
10278.98452590759
 30
0.0
 11
7943.904397928898
 21
10251.9845259076
 31
0.0
  0
LINE
  5
136B1
330
747D
100
AcDbEntity
  8
部品1
100
AcDbLine
 10
7943.904397928898
 20
10306.9845259076
 30
0.0
 11
7943.904397928898
 21
10278.98452590759
 31
0.0
  0
LINE
  5
136B2
330
747D
100
AcDbEntity
  8
部品1
100
AcDbLine
 10
7970.904397928897
 20
10251.9845259076
 30
0.0
 11
7998.904397928898
 21
10251.9845259076
 31
0.0
  0
LINE
  5
136BA
330
747D
100
AcDbEntity
  8
部品1
 48
50.0
100
AcDbLine
 10
5788.904400172469
 20
10278.98452948476
 30
0.0
 11
5760.904400172469
 21
10306.98452948476
 31
0.0
  0
LINE
  5
136BB
330
747D
100
AcDbEntity
  8
部品1
100
AcDbLine
 10
5760.904400172469
 20
10278.98452948476
 30
0.0
 11
5760.904400172469
 21
10306.98452948477
 31
0.0
  0
LINE
  5
136BC
330
747D
100
AcDbEntity
  8
部品1
100
AcDbLine
 10
5816.904400172468
 20
10278.98452948476
 30
0.0
 11
5816.904400172468
 21
10306.98452948476
 31
0.0
  0
LINE
  5
136BD
330
747D
100
AcDbEntity
  8
部品1
100
AcDbLine
 10
5760.904400172469
 20
10278.98452948476
 30
0.0
 11
5788.904400172469
 21
10278.98452948476
 31
0.0
  0
LINE
  5
136BE
330
747D
100
AcDbEntity
  8
部品1
 48
50.0
100
AcDbLine
 10
3633.904397928898
 20
7284.984525907592
 30
0.0
 11
5733.904397928898
 21
7284.984525907596
 31
0.0
  0
TEXT
  5
13706
330
747D
100
AcDbEntity
  8
文字
 62
     7
 48
50.0
100
AcDbText
 10
14505.34213575793
 20
483.8967129911411
 30
0.0
 40
160.0
  1
ＮＸＮ－１３５Ｈ
  7
STYLE2
100
AcDbText
  0
LWPOLYLINE
  5
13707
330
747D
100
AcDbEntity
  8
部品1
100
AcDbPolyline
 90
        4
 70
     1
 43
0.0
 10
5407.169064814677
 20
1862.751840551128
 10
5407.169064814677
 20
1622.859519005596
 10
6170.639731043118
 20
1622.859519005596
 10
6170.639731043118
 20
1862.751840551128
  0
TEXT
  5
13708
330
747D
100
AcDbEntity
  8
部品1
100
AcDbText
 10
5497.694468552634
 20
1669.858311332604
 30
0.0
 40
135.0
  1
正面図
  7
STYLE2
100
AcDbText
  0
LINE
  5
1373F
330
747D
100
AcDbEntity
  8
細線
100
AcDbLine
 10
3849.904402582488
 20
7184.984717638261
 30
0.0
 11
3852.235940873256
 21
7189.984717638246
 31
0.0
  0
DIMENSION
  5
137C8
330
747D
100
AcDbEntity
  8
寸法
 48
50.0
100
AcDbDimension
  2
*D13
 10
3578.904397928898
 20
4875.6543911615
 30
0.0
 11
5788.9043979289
 21
4875.6543911615
 31
0.0
 70
   160
  1
柱外寸法<>
 71
     5
 42
4420.000000000004
  3
INABA_S40G
100
AcDbAlignedDimension
 13
7998.904397928902
 23
4663.112805903259
 33
0.0
 14
3578.904397928898
 24
4663.112805903264
 34
0.0
100
AcDbRotatedDimension
  0
DIMENSION
  5
137C9
330
747D
100
AcDbEntity
  8
寸法
 48
50.0
100
AcDbDimension
  2
*D14
 10
7998.904397928902
 20
4875.654391161499
 30
0.0
 11
8362.389679303138
 21
4875.654391161499
 31
0.0
 70
   160
 71
     5
 42
50.0
  3
INABA_S40G
100
AcDbAlignedDimension
 13
8048.904397928902
 23
4663.112805903258
 33
0.0
 14
7998.904397928902
 24
4663.112805903259
 34
0.0
100
AcDbRotatedDimension
  0
DIMENSION
  5
137CA
330
747D
100
AcDbEntity
  8
寸法
 48
50.0
100
AcDbDimension
  2
*D15
 10
8048.904397928902
 20
5096.559691635249
 30
0.0
 11
5788.9043979289
 21
5096.559691635249
 31
0.0
 70
   160
 71
     5
 42
4520.000000000004
  3
INABA_S40G
100
AcDbAlignedDimension
 13
3528.904397928898
 23
4663.112805903263
 33
0.0
 14
8048.904397928902
 24
4663.112805903258
 34
0.0
100
AcDbRotatedDimension
  0
ARC
  5
137CB
330
747D
100
AcDbEntity
  8
部品1
100
AcDbCircle
 10
8041.495976822469
 20
4656.112805903258
 30
0.0
 40
7.0
100
AcDbArc
 50
356.7526572096623
 51
90.0
  0
ARC
  5
137CC
330
747D
100
AcDbEntity
  8
部品1
100
AcDbCircle
 10
8028.280653361434
 20
4529.11280590326
 30
0.0
 40
7.0
100
AcDbArc
 50
270.0
 51
356.7526572096623
  0
ARC
  5
137CD
330
747D
100
AcDbEntity
  8
部品1
 48
50.0
100
AcDbCircle
 10
8046.652463572113
 20
4635.779805064945
 30
0.0
 40
0.7
100
AcDbArc
 50
277.6581272073635
 51
356.7526572096103
  0
ARC
  5
137CE
330
747D
100
AcDbEntity
  8
部品1
 48
50.0
100
AcDbCircle
 10
8038.41643304727
 20
4543.579805064941
 30
0.0
 40
0.7
100
AcDbArc
 50
277.6581272073635
 51
356.7526572097143
  0
ARC
  5
137CF
330
747D
100
AcDbEntity
  8
部品1
 48
50.0
100
AcDbCircle
 10
8038.909502155831
 20
4539.912805903258
 30
0.0
 40
3.0
100
AcDbArc
 50
97.65812720736347
 51
176.7526572096623
  0
ARC
  5
137D0
330
747D
100
AcDbEntity
  8
部品1
 48
50.0
100
AcDbCircle
 10
8047.145532680676
 20
4632.11280590326
 30
0.0
 40
3.0
100
AcDbArc
 50
97.65812720736347
 51
176.7526572096623
  0
LINE
  5
137D1
330
747D
100
AcDbEntity
  8
部品1
100
AcDbLine
 10
8044.150349784489
 20
4632.282745358361
 30
0.0
 11
8039.115309056379
 21
4543.540152525419
 31
0.0
  0
LINE
  5
137D2
330
747D
100
AcDbEntity
  8
部品1
100
AcDbLine
 10
8035.914319259646
 20
4540.08274535836
 30
0.0
 11
8035.269413452533
 21
4528.71628050802
 31
0.0
  0
LINE
  5
137D3
330
747D
100
AcDbEntity
  8
細線
 48
50.0
100
AcDbLine
 10
8015.904397928903
 20
4663.112805903258
 30
0.0
 11
8015.904397928903
 21
4522.112805903257
 31
0.0
  0
LINE
  5
137D4
330
747D
100
AcDbEntity
  8
部品1
100
AcDbLine
 10
8048.484736913568
 20
4655.716280508019
 30
0.0
 11
8047.351339581222
 21
4635.740152525419
 31
0.0
  0
LINE
  5
137D5
330
747D
100
AcDbEntity
  8
部品1
 48
50.0
100
AcDbLine
 10
8028.280653361434
 20
4522.11280590326
 30
0.0
 11
3549.528142496362
 21
4522.112805903261
 31
0.0
  0
LINE
  5
137D6
330
747D
100
AcDbEntity
  8
細線
 48
50.0
100
AcDbLine
 10
8038.509716392141
 20
4542.886048466725
 30
0.0
 11
3539.299079464145
 21
4542.886048467256
 31
0.0
  0
LINE
  5
137D7
330
747D
100
AcDbEntity
  8
細線
 48
50.0
100
AcDbLine
 10
8046.745746916986
 20
4635.086048466726
 30
0.0
 11
3531.063048939312
 21
4635.086048467257
 31
0.0
  0
LINE
  5
137D8
330
747D
100
AcDbEntity
  8
部品1
 48
50.0
100
AcDbLine
 10
8041.495976822469
 20
4663.112805903258
 30
0.0
 11
3536.312819035327
 21
4663.112805903258
 31
0.0
  0
DIMENSION
  5
137D9
330
747D
100
AcDbEntity
  8
寸法
 48
50.0
100
AcDbDimension
  2
*D16
 10
3528.904397928898
 20
4875.654391161502
 30
0.0
 11
3215.419116554651
 21
4875.654391161502
 31
0.0
 70
   160
 71
     5
 42
50.0
  3
INABA_S40G
100
AcDbAlignedDimension
 13
3578.904397928898
 23
4663.112805903264
 33
0.0
 14
3528.904397928898
 24
4663.112805903263
 34
0.0
100
AcDbRotatedDimension
1001
ACAD
1000
DSTYLE
1002
{
1002
}
  0
LINE
  5
137DA
330
747D
100
AcDbEntity
  8
部品1
100
AcDbLine
 10
3529.324058944228
 20
4655.716280508022
 30
0.0
 11
3530.457456276578
 21
4635.740152525421
 31
0.0
  0
LINE
  5
137DB
330
747D
100
AcDbEntity
  8
部品1
100
AcDbLine
 10
3541.894476598154
 20
4540.082745358364
 30
0.0
 11
3542.539382405263
 21
4528.716280508024
 31
0.0
  0
LINE
  5
137DC
330
747D
100
AcDbEntity
  8
部品1
100
AcDbLine
 10
3533.658446073307
 20
4632.282745358364
 30
0.0
 11
3538.693486801418
 21
4543.540152525421
 31
0.0
  0
ARC
  5
137DD
330
747D
100
AcDbEntity
  8
部品1
 48
50.0
100
AcDbCircle
 10
3530.663263177121
 20
4632.112805903262
 30
0.0
 40
3.0
100
AcDbArc
 50
3.247342790337682
 51
82.34187279263654
  0
ARC
  5
137DE
330
747D
100
AcDbEntity
  8
部品1
 48
50.0
100
AcDbCircle
 10
3538.899293701965
 20
4539.912805903259
 30
0.0
 40
3.0
100
AcDbArc
 50
3.247342790337682
 51
82.34187279263654
  0
ARC
  5
137DF
330
747D
100
AcDbEntity
  8
部品1
 48
50.0
100
AcDbCircle
 10
3539.392362810526
 20
4543.579805064943
 30
0.0
 40
0.7
100
AcDbArc
 50
183.2473427902856
 51
262.3418727926365
  0
ARC
  5
137E0
330
747D
100
AcDbEntity
  8
部品1
 48
50.0
100
AcDbCircle
 10
3531.156332285686
 20
4635.779805064948
 30
0.0
 40
0.7
100
AcDbArc
 50
183.2473427903897
 51
262.3418727926365
  0
ARC
  5
137E1
330
747D
100
AcDbEntity
  8
部品1
100
AcDbCircle
 10
3549.528142496362
 20
4529.112805903262
 30
0.0
 40
7.0
100
AcDbArc
 50
183.2473427903377
 51
270.0
  0
ARC
  5
137E2
330
747D
100
AcDbEntity
  8
部品1
100
AcDbCircle
 10
3536.312819035327
 20
4656.112805903261
 30
0.0
 40
7.0
100
AcDbArc
 50
90.0
 51
183.2473427903377
  0
LINE
  5
137E3
330
747D
100
AcDbEntity
  8
細線
 48
50.0
100
AcDbLine
 10
3561.904397928898
 20
4663.112805903261
 30
0.0
 11
3561.904397928898
 21
4522.112805903261
 31
0.0
  0
LINE
  5
137E4
330
747D
100
AcDbEntity
  8
細線
100
AcDbLine
 10
4068.904397928891
 20
4487.612805903254
 30
0.0
 11
4068.904397928891
 21
4464.612805903254
 31
0.0
  0
LINE
  5
137E5
330
747D
100
AcDbEntity
  8
細線
100
AcDbLine
 10
4142.90439792889
 20
4475.612805903255
 30
0.0
 11
4068.904397928891
 21
4475.612805903255
 31
0.0
  0
LINE
  5
137E6
330
747D
100
AcDbEntity
  8
細線
100
AcDbLine
 10
4142.90439792889
 20
4469.612805903254
 30
0.0
 11
4068.904397928891
 21
4469.612805903254
 31
0.0
  0
LINE
  5
137E7
330
747D
100
AcDbEntity
  8
細線
100
AcDbLine
 10
4142.90439792889
 20
4481.612805903253
 30
0.0
 11
4068.904397928891
 21
4481.612805903254
 31
0.0
  0
LINE
  5
137E8
330
747D
100
AcDbEntity
  8
細線
100
AcDbLine
 10
3994.904397928891
 20
4481.612805903254
 30
0.0
 11
4063.90439792889
 21
4481.612805903254
 31
0.0
  0
LINE
  5
137E9
330
747D
100
AcDbEntity
  8
細線
100
AcDbLine
 10
3994.904397928891
 20
4469.612805903254
 30
0.0
 11
4068.904397928891
 21
4469.612805903254
 31
0.0
  0
LINE
  5
137EA
330
747D
100
AcDbEntity
  8
細線
100
AcDbLine
 10
3994.904397928891
 20
4475.612805903255
 30
0.0
 11
4068.904397928891
 21
4475.612805903255
 31
0.0
  0
LINE
  5
137EB
330
747D
100
AcDbEntity
  8
細線
100
AcDbLine
 10
3994.904397928891
 20
4481.612805903254
 30
0.0
 11
4068.904397928891
 21
4481.612805903254
 31
0.0
  0
LINE
  5
137EC
330
747D
100
AcDbEntity
  8
部品1
 48
0.01
100
AcDbLine
 10
4156.90439792889
 20
4494.112805903254
 30
0.0
 11
3980.904397928891
 21
4494.112805903254
 31
0.0
  0
LINE
  5
137ED
330
747D
100
AcDbEntity
  8
部品1
 48
0.01
100
AcDbLine
 10
3978.904397928891
 20
4492.112805903254
 30
0.0
 11
3978.904397928891
 21
4460.612805903254
 31
0.0
  0
LINE
  5
137EE
330
747D
100
AcDbEntity
  8
部品1
 48
0.01
100
AcDbLine
 10
3980.904397928891
 20
4458.612805903254
 30
0.0
 11
4156.90439792889
 21
4458.612805903254
 31
0.0
  0
LINE
  5
137EF
330
747D
100
AcDbEntity
  8
部品1
 48
0.01
100
AcDbLine
 10
4158.904397928891
 20
4460.612805903254
 30
0.0
 11
4158.904397928891
 21
4492.112805903254
 31
0.0
  0
LINE
  5
137F0
330
747D
100
AcDbEntity
  8
細線
100
AcDbLine
 10
3994.904397928891
 20
4487.612805903254
 30
0.0
 11
3994.904397928891
 21
4464.612805903254
 31
0.0
  0
LINE
  5
137F1
330
747D
100
AcDbEntity
  8
細線
100
AcDbLine
 10
4142.90439792889
 20
4464.612805903254
 30
0.0
 11
4142.90439792889
 21
4487.612805903254
 31
0.0
  0
LINE
  5
137F2
330
747D
100
AcDbEntity
  8
細線
100
AcDbLine
 10
4142.90439792889
 20
4487.612805903254
 30
0.0
 11
4068.904397928891
 21
4487.612805903254
 31
0.0
  0
LINE
  5
137F3
330
747D
100
AcDbEntity
  8
細線
100
AcDbLine
 10
3994.904397928891
 20
4464.612805903254
 30
0.0
 11
4068.904397928891
 21
4464.612805903254
 31
0.0
  0
LINE
  5
137F4
330
747D
100
AcDbEntity
  8
細線
100
AcDbLine
 10
4068.904397928891
 20
4487.612805903254
 30
0.0
 11
3994.904397928891
 21
4487.612805903254
 31
0.0
  0
LINE
  5
137F5
330
747D
100
AcDbEntity
  8
細線
100
AcDbLine
 10
4068.904397928891
 20
4464.612805903254
 30
0.0
 11
4142.90439792889
 21
4464.612805903254
 31
0.0
  0
ARC
  5
137F6
330
747D
100
AcDbEntity
  8
部品1
 48
0.01
100
AcDbCircle
 10
3980.904397928891
 20
4492.112805903254
 30
0.0
 40
2.0
100
AcDbArc
 50
90.0
 51
180.0
  0
ARC
  5
137F7
330
747D
100
AcDbEntity
  8
部品1
 48
0.01
100
AcDbCircle
 10
3980.904397928891
 20
4460.612805903254
 30
0.0
 40
2.0
100
AcDbArc
 50
180.0
 51
270.0
  0
ARC
  5
137F8
330
747D
100
AcDbEntity
  8
部品1
 48
0.01
100
AcDbCircle
 10
4156.90439792889
 20
4492.112805903254
 30
0.0
 40
2.0
100
AcDbArc
 50
0.0
 51
90.0
  0
ARC
  5
137F9
330
747D
100
AcDbEntity
  8
部品1
 48
0.01
100
AcDbCircle
 10
4156.90439792889
 20
4460.612805903254
 30
0.0
 40
2.0
100
AcDbArc
 50
270.0
 51
0.0
  0
ARC
  5
137FA
330
747D
100
AcDbEntity
  8
部品1
 48
0.01
100
AcDbCircle
 10
5210.904397928909
 20
4460.612805903255
 30
0.0
 40
2.0
100
AcDbArc
 50
180.0
 51
270.0
  0
ARC
  5
137FB
330
747D
100
AcDbEntity
  8
部品1
 48
0.01
100
AcDbCircle
 10
5210.904397928909
 20
4492.112805903255
 30
0.0
 40
2.0
100
AcDbArc
 50
90.0
 51
180.0
  0
ARC
  5
137FC
330
747D
100
AcDbEntity
  8
部品1
 48
0.01
100
AcDbCircle
 10
5386.904397928908
 20
4460.612805903255
 30
0.0
 40
2.0
100
AcDbArc
 50
270.0
 51
0.0
  0
ARC
  5
137FD
330
747D
100
AcDbEntity
  8
部品1
 48
0.01
100
AcDbCircle
 10
5386.904397928908
 20
4492.112805903255
 30
0.0
 40
2.0
100
AcDbArc
 50
0.0
 51
90.0
  0
LINE
  5
137FE
330
747D
100
AcDbEntity
  8
細線
100
AcDbLine
 10
5298.904397928909
 20
4464.612805903255
 30
0.0
 11
5224.904397928909
 21
4464.612805903255
 31
0.0
  0
LINE
  5
137FF
330
747D
100
AcDbEntity
  8
細線
100
AcDbLine
 10
5298.904397928909
 20
4487.612805903255
 30
0.0
 11
5372.904397928909
 21
4487.612805903255
 31
0.0
  0
LINE
  5
13800
330
747D
100
AcDbEntity
  8
細線
100
AcDbLine
 10
5372.904397928909
 20
4464.612805903255
 30
0.0
 11
5298.904397928909
 21
4464.612805903255
 31
0.0
  0
LINE
  5
13801
330
747D
100
AcDbEntity
  8
細線
100
AcDbLine
 10
5224.904397928909
 20
4487.612805903255
 30
0.0
 11
5298.904397928909
 21
4487.612805903255
 31
0.0
  0
LINE
  5
13802
330
747D
100
AcDbEntity
  8
細線
100
AcDbLine
 10
5224.904397928909
 20
4464.612805903255
 30
0.0
 11
5224.904397928909
 21
4487.612805903255
 31
0.0
  0
LINE
  5
13803
330
747D
100
AcDbEntity
  8
細線
100
AcDbLine
 10
5372.904397928909
 20
4487.612805903255
 30
0.0
 11
5372.904397928909
 21
4464.612805903255
 31
0.0
  0
LINE
  5
13804
330
747D
100
AcDbEntity
  8
部品1
 48
0.01
100
AcDbLine
 10
5208.904397928909
 20
4460.612805903255
 30
0.0
 11
5208.904397928909
 21
4492.112805903255
 31
0.0
  0
LINE
  5
13805
330
747D
100
AcDbEntity
  8
部品1
 48
0.01
100
AcDbLine
 10
5386.904397928908
 20
4458.612805903255
 30
0.0
 11
5210.904397928909
 21
4458.612805903255
 31
0.0
  0
LINE
  5
13806
330
747D
100
AcDbEntity
  8
部品1
 48
0.01
100
AcDbLine
 10
5388.904397928909
 20
4492.112805903255
 30
0.0
 11
5388.904397928909
 21
4460.612805903255
 31
0.0
  0
LINE
  5
13807
330
747D
100
AcDbEntity
  8
部品1
 48
0.01
100
AcDbLine
 10
5210.904397928909
 20
4494.112805903255
 30
0.0
 11
5386.904397928908
 21
4494.112805903255
 31
0.0
  0
LINE
  5
13808
330
747D
100
AcDbEntity
  8
細線
100
AcDbLine
 10
5372.904397928909
 20
4481.612805903256
 30
0.0
 11
5298.904397928909
 21
4481.612805903256
 31
0.0
  0
LINE
  5
13809
330
747D
100
AcDbEntity
  8
細線
100
AcDbLine
 10
5372.904397928909
 20
4475.612805903256
 30
0.0
 11
5298.904397928909
 21
4475.612805903256
 31
0.0
  0
LINE
  5
1380A
330
747D
100
AcDbEntity
  8
細線
100
AcDbLine
 10
5372.904397928909
 20
4469.612805903255
 30
0.0
 11
5298.904397928909
 21
4469.612805903255
 31
0.0
  0
LINE
  5
1380B
330
747D
100
AcDbEntity
  8
細線
100
AcDbLine
 10
5372.904397928909
 20
4481.612805903256
 30
0.0
 11
5303.904397928909
 21
4481.612805903256
 31
0.0
  0
LINE
  5
1380C
330
747D
100
AcDbEntity
  8
細線
100
AcDbLine
 10
5224.904397928909
 20
4481.612805903254
 30
0.0
 11
5298.904397928909
 21
4481.612805903256
 31
0.0
  0
LINE
  5
1380D
330
747D
100
AcDbEntity
  8
細線
100
AcDbLine
 10
5224.904397928909
 20
4469.612805903254
 30
0.0
 11
5298.904397928909
 21
4469.612805903255
 31
0.0
  0
LINE
  5
1380E
330
747D
100
AcDbEntity
  8
細線
100
AcDbLine
 10
5224.904397928909
 20
4475.612805903256
 30
0.0
 11
5298.904397928909
 21
4475.612805903256
 31
0.0
  0
LINE
  5
1380F
330
747D
100
AcDbEntity
  8
細線
100
AcDbLine
 10
5298.904397928909
 20
4487.612805903255
 30
0.0
 11
5298.904397928909
 21
4464.612805903255
 31
0.0
  0
LINE
  5
13810
330
747D
100
AcDbEntity
  8
細線
 48
50.0
100
AcDbLine
 10
7866.404397928902
 20
4428.112805903256
 30
0.0
 11
7866.404397928903
 21
2338.112805903256
 31
0.0
  0
LINE
  5
13811
330
747D
100
AcDbEntity
  8
細線
 48
50.0
100
AcDbLine
 10
7881.404397928903
 20
4428.112805903256
 30
0.0
 11
7881.404397928903
 21
2338.112805903256
 31
0.0
  0
LINE
  5
13812
330
747D
100
AcDbEntity
  8
細線
 48
50.0
100
AcDbLine
 10
7741.404397928902
 20
4428.112805903256
 30
0.0
 11
7741.404397928903
 21
2338.112805903256
 31
0.0
  0
LINE
  5
13813
330
747D
100
AcDbEntity
  8
細線
 48
50.0
100
AcDbLine
 10
7726.404397928901
 20
4428.112805903256
 30
0.0
 11
7726.404397928904
 21
2338.112805903256
 31
0.0
  0
LINE
  5
13814
330
747D
100
AcDbEntity
  8
細線
 48
50.0
100
AcDbLine
 10
7586.404397928902
 20
4428.112805903256
 30
0.0
 11
7586.404397928903
 21
2338.112805903256
 31
0.0
  0
LINE
  5
13815
330
747D
100
AcDbEntity
  8
細線
 48
50.0
100
AcDbLine
 10
7601.404397928901
 20
4428.112805903256
 30
0.0
 11
7601.404397928904
 21
2338.112805903256
 31
0.0
  0
LINE
  5
13816
330
747D
100
AcDbEntity
  8
細線
 48
50.0
100
AcDbLine
 10
7181.404397928902
 20
4428.112805903256
 30
0.0
 11
7181.404397928904
 21
2338.112805903256
 31
0.0
  0
LINE
  5
13817
330
747D
100
AcDbEntity
  8
細線
 48
50.0
100
AcDbLine
 10
7166.404397928902
 20
4428.112805903256
 30
0.0
 11
7166.404397928904
 21
2338.112805903256
 31
0.0
  0
LINE
  5
13818
330
747D
100
AcDbEntity
  8
細線
 48
50.0
100
AcDbLine
 10
7306.404397928902
 20
4428.112805903256
 30
0.0
 11
7306.404397928904
 21
2338.112805903256
 31
0.0
  0
LINE
  5
13819
330
747D
100
AcDbEntity
  8
細線
 48
50.0
100
AcDbLine
 10
7321.404397928901
 20
4428.112805903256
 30
0.0
 11
7321.404397928903
 21
2338.112805903256
 31
0.0
  0
LINE
  5
1381A
330
747D
100
AcDbEntity
  8
細線
 48
50.0
100
AcDbLine
 10
7461.404397928902
 20
4428.112805903256
 30
0.0
 11
7461.404397928903
 21
2338.112805903256
 31
0.0
  0
LINE
  5
1381B
330
747D
100
AcDbEntity
  8
細線
 48
50.0
100
AcDbLine
 10
7446.404397928901
 20
4428.112805903256
 30
0.0
 11
7446.404397928903
 21
2338.112805903256
 31
0.0
  0
LINE
  5
1381C
330
747D
100
AcDbEntity
  8
細線
 48
50.0
100
AcDbLine
 10
6761.404397928902
 20
4428.112805903256
 30
0.0
 11
6761.404397928903
 21
2338.112805903256
 31
0.0
  0
LINE
  5
1381D
330
747D
100
AcDbEntity
  8
細線
 48
50.0
100
AcDbLine
 10
6746.404397928902
 20
4428.112805903256
 30
0.0
 11
6746.404397928903
 21
2338.112805903256
 31
0.0
  0
LINE
  5
1381E
330
747D
100
AcDbEntity
  8
細線
 48
50.0
100
AcDbLine
 10
6886.404397928902
 20
4428.112805903256
 30
0.0
 11
6886.404397928903
 21
2338.112805903256
 31
0.0
  0
LINE
  5
1381F
330
747D
100
AcDbEntity
  8
細線
 48
50.0
100
AcDbLine
 10
6901.404397928901
 20
4428.112805903256
 30
0.0
 11
6901.404397928904
 21
2338.112805903256
 31
0.0
  0
LINE
  5
13820
330
747D
100
AcDbEntity
  8
細線
 48
50.0
100
AcDbLine
 10
7041.404397928902
 20
4428.112805903256
 30
0.0
 11
7041.404397928904
 21
2338.112805903256
 31
0.0
  0
LINE
  5
13821
330
747D
100
AcDbEntity
  8
細線
 48
50.0
100
AcDbLine
 10
7026.404397928901
 20
4428.112805903256
 30
0.0
 11
7026.404397928904
 21
2338.112805903256
 31
0.0
  0
LINE
  5
13822
330
747D
100
AcDbEntity
  8
細線
 48
50.0
100
AcDbLine
 10
6606.404397928902
 20
4428.112805903256
 30
0.0
 11
6606.404397928904
 21
2338.112805903256
 31
0.0
  0
LINE
  5
13823
330
747D
100
AcDbEntity
  8
細線
 48
50.0
100
AcDbLine
 10
6621.404397928902
 20
4428.112805903256
 30
0.0
 11
6621.404397928903
 21
2338.112805903256
 31
0.0
  0
LINE
  5
13824
330
747D
100
AcDbEntity
  8
細線
 48
50.0
100
AcDbLine
 10
6481.404397928902
 20
4428.112805903256
 30
0.0
 11
6481.404397928904
 21
2338.112805903256
 31
0.0
  0
LINE
  5
13825
330
747D
100
AcDbEntity
  8
細線
 48
50.0
100
AcDbLine
 10
6466.404397928902
 20
4428.112805903256
 30
0.0
 11
6466.404397928903
 21
2338.112805903256
 31
0.0
  0
LINE
  5
13826
330
747D
100
AcDbEntity
  8
細線
 48
50.0
100
AcDbLine
 10
6326.404397928902
 20
4428.112805903256
 30
0.0
 11
6326.404397928904
 21
2338.112805903256
 31
0.0
  0
LINE
  5
13827
330
747D
100
AcDbEntity
  8
細線
 48
50.0
100
AcDbLine
 10
6341.404397928902
 20
4428.112805903256
 30
0.0
 11
6341.404397928904
 21
2338.112805903256
 31
0.0
  0
LINE
  5
13828
330
747D
100
AcDbEntity
  8
細線
 48
50.0
100
AcDbLine
 10
5921.404397928902
 20
4428.112805903256
 30
0.0
 11
5921.404397928903
 21
2338.112805903256
 31
0.0
  0
LINE
  5
13829
330
747D
100
AcDbEntity
  8
細線
 48
50.0
100
AcDbLine
 10
5906.404397928902
 20
4428.112805903256
 30
0.0
 11
5906.404397928904
 21
2338.112805903256
 31
0.0
  0
LINE
  5
1382A
330
747D
100
AcDbEntity
  8
細線
 48
50.0
100
AcDbLine
 10
6046.404397928902
 20
4428.112805903256
 30
0.0
 11
6046.404397928903
 21
2338.112805903256
 31
0.0
  0
LINE
  5
1382B
330
747D
100
AcDbEntity
  8
細線
 48
50.0
100
AcDbLine
 10
6061.404397928902
 20
4428.112805903256
 30
0.0
 11
6061.404397928903
 21
2338.112805903256
 31
0.0
  0
LINE
  5
1382C
330
747D
100
AcDbEntity
  8
細線
 48
50.0
100
AcDbLine
 10
6201.404397928902
 20
4428.112805903256
 30
0.0
 11
6201.404397928904
 21
2338.112805903256
 31
0.0
  0
LINE
  5
1382D
330
747D
100
AcDbEntity
  8
細線
 48
50.0
100
AcDbLine
 10
6186.404397928902
 20
4428.112805903256
 30
0.0
 11
6186.404397928903
 21
2338.112805903256
 31
0.0
  0
LINE
  5
1382E
330
747D
100
AcDbEntity
  8
細線
100
AcDbLine
 10
7508.904397928908
 20
4487.612805903255
 30
0.0
 11
7508.904397928908
 21
4464.612805903255
 31
0.0
  0
LINE
  5
1382F
330
747D
100
AcDbEntity
  8
細線
100
AcDbLine
 10
7434.904397928909
 20
4475.612805903256
 30
0.0
 11
7508.904397928908
 21
4475.612805903256
 31
0.0
  0
LINE
  5
13830
330
747D
100
AcDbEntity
  8
細線
100
AcDbLine
 10
7434.904397928909
 20
4469.612805903254
 30
0.0
 11
7508.904397928908
 21
4469.612805903255
 31
0.0
  0
LINE
  5
13831
330
747D
100
AcDbEntity
  8
細線
100
AcDbLine
 10
7434.904397928909
 20
4481.612805903254
 30
0.0
 11
7508.904397928908
 21
4481.612805903256
 31
0.0
  0
LINE
  5
13832
330
747D
100
AcDbEntity
  8
細線
100
AcDbLine
 10
7582.90439792891
 20
4481.612805903256
 30
0.0
 11
7513.90439792891
 21
4481.612805903256
 31
0.0
  0
LINE
  5
13833
330
747D
100
AcDbEntity
  8
細線
100
AcDbLine
 10
7582.90439792891
 20
4469.612805903255
 30
0.0
 11
7508.904397928908
 21
4469.612805903255
 31
0.0
  0
LINE
  5
13834
330
747D
100
AcDbEntity
  8
細線
100
AcDbLine
 10
7582.90439792891
 20
4475.612805903256
 30
0.0
 11
7508.904397928908
 21
4475.612805903256
 31
0.0
  0
LINE
  5
13835
330
747D
100
AcDbEntity
  8
細線
100
AcDbLine
 10
7582.90439792891
 20
4481.612805903256
 30
0.0
 11
7508.904397928908
 21
4481.612805903256
 31
0.0
  0
LINE
  5
13836
330
747D
100
AcDbEntity
  8
部品1
 48
0.01
100
AcDbLine
 10
7420.904397928909
 20
4494.112805903255
 30
0.0
 11
7596.904397928909
 21
4494.112805903255
 31
0.0
  0
LINE
  5
13837
330
747D
100
AcDbEntity
  8
部品1
 48
0.01
100
AcDbLine
 10
7598.904397928909
 20
4492.112805903255
 30
0.0
 11
7598.904397928909
 21
4460.612805903255
 31
0.0
  0
LINE
  5
13838
330
747D
100
AcDbEntity
  8
部品1
 48
0.01
100
AcDbLine
 10
7596.904397928909
 20
4458.612805903255
 30
0.0
 11
7420.904397928909
 21
4458.612805903255
 31
0.0
  0
LINE
  5
13839
330
747D
100
AcDbEntity
  8
部品1
 48
0.01
100
AcDbLine
 10
7418.904397928909
 20
4460.612805903255
 30
0.0
 11
7418.904397928909
 21
4492.112805903255
 31
0.0
  0
LINE
  5
1383A
330
747D
100
AcDbEntity
  8
細線
100
AcDbLine
 10
7582.90439792891
 20
4487.612805903255
 30
0.0
 11
7582.90439792891
 21
4464.612805903255
 31
0.0
  0
LINE
  5
1383B
330
747D
100
AcDbEntity
  8
細線
100
AcDbLine
 10
7434.904397928909
 20
4464.612805903255
 30
0.0
 11
7434.904397928909
 21
4487.612805903255
 31
0.0
  0
LINE
  5
1383C
330
747D
100
AcDbEntity
  8
細線
100
AcDbLine
 10
7434.904397928909
 20
4487.612805903255
 30
0.0
 11
7508.904397928908
 21
4487.612805903255
 31
0.0
  0
LINE
  5
1383D
330
747D
100
AcDbEntity
  8
細線
100
AcDbLine
 10
7582.90439792891
 20
4464.612805903255
 30
0.0
 11
7508.904397928908
 21
4464.612805903255
 31
0.0
  0
LINE
  5
1383E
330
747D
100
AcDbEntity
  8
細線
100
AcDbLine
 10
7508.904397928908
 20
4487.612805903255
 30
0.0
 11
7582.90439792891
 21
4487.612805903255
 31
0.0
  0
LINE
  5
1383F
330
747D
100
AcDbEntity
  8
細線
100
AcDbLine
 10
7508.904397928908
 20
4464.612805903255
 30
0.0
 11
7434.904397928909
 21
4464.612805903255
 31
0.0
  0
ARC
  5
13840
330
747D
100
AcDbEntity
  8
部品1
 48
0.01
100
AcDbCircle
 10
7596.904397928909
 20
4492.112805903255
 30
0.0
 40
2.0
100
AcDbArc
 50
0.0
 51
90.0
  0
ARC
  5
13841
330
747D
100
AcDbEntity
  8
部品1
 48
0.01
100
AcDbCircle
 10
7596.904397928909
 20
4460.612805903255
 30
0.0
 40
2.0
100
AcDbArc
 50
270.0
 51
0.0
  0
ARC
  5
13842
330
747D
100
AcDbEntity
  8
部品1
 48
0.01
100
AcDbCircle
 10
7420.904397928909
 20
4492.112805903255
 30
0.0
 40
2.0
100
AcDbArc
 50
90.0
 51
180.0
  0
ARC
  5
13843
330
747D
100
AcDbEntity
  8
部品1
 48
0.01
100
AcDbCircle
 10
7420.904397928909
 20
4460.612805903255
 30
0.0
 40
2.0
100
AcDbArc
 50
180.0
 51
270.0
  0
ARC
  5
13844
330
747D
100
AcDbEntity
  8
部品1
 48
0.01
100
AcDbCircle
 10
6366.904397928891
 20
4460.612805903254
 30
0.0
 40
2.0
100
AcDbArc
 50
270.0
 51
0.0
  0
ARC
  5
13845
330
747D
100
AcDbEntity
  8
部品1
 48
0.01
100
AcDbCircle
 10
6366.904397928891
 20
4492.112805903254
 30
0.0
 40
2.0
100
AcDbArc
 50
0.0
 51
90.0
  0
ARC
  5
13846
330
747D
100
AcDbEntity
  8
部品1
 48
0.01
100
AcDbCircle
 10
6190.904397928891
 20
4460.612805903254
 30
0.0
 40
2.0
100
AcDbArc
 50
180.0
 51
270.0
  0
ARC
  5
13847
330
747D
100
AcDbEntity
  8
部品1
 48
0.01
100
AcDbCircle
 10
6190.904397928891
 20
4492.112805903254
 30
0.0
 40
2.0
100
AcDbArc
 50
90.0
 51
180.0
  0
LINE
  5
13848
330
747D
100
AcDbEntity
  8
細線
100
AcDbLine
 10
6278.904397928891
 20
4464.612805903254
 30
0.0
 11
6352.904397928891
 21
4464.612805903254
 31
0.0
  0
LINE
  5
13849
330
747D
100
AcDbEntity
  8
細線
100
AcDbLine
 10
6278.904397928891
 20
4487.612805903254
 30
0.0
 11
6204.904397928891
 21
4487.612805903254
 31
0.0
  0
LINE
  5
1384A
330
747D
100
AcDbEntity
  8
細線
100
AcDbLine
 10
6204.904397928891
 20
4464.612805903254
 30
0.0
 11
6278.904397928891
 21
4464.612805903254
 31
0.0
  0
LINE
  5
1384B
330
747D
100
AcDbEntity
  8
細線
100
AcDbLine
 10
6352.904397928891
 20
4487.612805903254
 30
0.0
 11
6278.904397928891
 21
4487.612805903254
 31
0.0
  0
LINE
  5
1384C
330
747D
100
AcDbEntity
  8
細線
100
AcDbLine
 10
6352.904397928891
 20
4464.612805903254
 30
0.0
 11
6352.904397928891
 21
4487.612805903254
 31
0.0
  0
LINE
  5
1384D
330
747D
100
AcDbEntity
  8
細線
100
AcDbLine
 10
6204.904397928891
 20
4487.612805903254
 30
0.0
 11
6204.904397928891
 21
4464.612805903254
 31
0.0
  0
LINE
  5
1384E
330
747D
100
AcDbEntity
  8
部品1
 48
0.01
100
AcDbLine
 10
6368.904397928891
 20
4460.612805903254
 30
0.0
 11
6368.904397928891
 21
4492.112805903254
 31
0.0
  0
LINE
  5
1384F
330
747D
100
AcDbEntity
  8
部品1
 48
0.01
100
AcDbLine
 10
6190.904397928891
 20
4458.612805903254
 30
0.0
 11
6366.904397928891
 21
4458.612805903254
 31
0.0
  0
LINE
  5
13850
330
747D
100
AcDbEntity
  8
部品1
 48
0.01
100
AcDbLine
 10
6188.90439792889
 20
4492.112805903254
 30
0.0
 11
6188.90439792889
 21
4460.612805903254
 31
0.0
  0
LINE
  5
13851
330
747D
100
AcDbEntity
  8
部品1
 48
0.01
100
AcDbLine
 10
6366.904397928891
 20
4494.112805903254
 30
0.0
 11
6190.904397928891
 21
4494.112805903254
 31
0.0
  0
LINE
  5
13852
330
747D
100
AcDbEntity
  8
細線
100
AcDbLine
 10
6204.904397928891
 20
4481.612805903254
 30
0.0
 11
6278.904397928891
 21
4481.612805903254
 31
0.0
  0
LINE
  5
13853
330
747D
100
AcDbEntity
  8
細線
100
AcDbLine
 10
6204.904397928891
 20
4475.612805903255
 30
0.0
 11
6278.904397928891
 21
4475.612805903255
 31
0.0
  0
LINE
  5
13854
330
747D
100
AcDbEntity
  8
細線
100
AcDbLine
 10
6204.904397928891
 20
4469.612805903254
 30
0.0
 11
6278.904397928891
 21
4469.612805903254
 31
0.0
  0
LINE
  5
13855
330
747D
100
AcDbEntity
  8
細線
100
AcDbLine
 10
6204.904397928891
 20
4481.612805903254
 30
0.0
 11
6273.904397928891
 21
4481.612805903254
 31
0.0
  0
LINE
  5
13856
330
747D
100
AcDbEntity
  8
細線
100
AcDbLine
 10
6352.904397928891
 20
4481.612805903253
 30
0.0
 11
6278.904397928891
 21
4481.612805903254
 31
0.0
  0
LINE
  5
13857
330
747D
100
AcDbEntity
  8
細線
100
AcDbLine
 10
6352.904397928891
 20
4469.612805903254
 30
0.0
 11
6278.904397928891
 21
4469.612805903254
 31
0.0
  0
LINE
  5
13858
330
747D
100
AcDbEntity
  8
細線
100
AcDbLine
 10
6352.904397928891
 20
4475.612805903255
 30
0.0
 11
6278.904397928891
 21
4475.612805903255
 31
0.0
  0
LINE
  5
13859
330
747D
100
AcDbEntity
  8
細線
100
AcDbLine
 10
6278.904397928891
 20
4487.612805903254
 30
0.0
 11
6278.904397928891
 21
4464.612805903254
 31
0.0
  0
LINE
  5
1385A
330
747D
100
AcDbEntity
  8
部品1
 48
50.0
100
AcDbLine
 10
4434.9043979289
 20
4371.112805903256
 30
0.0
 11
4434.9043979289
 21
2338.112805903255
 31
0.0
  0
LINE
  5
1385B
330
747D
100
AcDbEntity
  8
部品1
100
AcDbLine
 10
5085.904397928892
 20
4371.112805903256
 30
0.0
 11
5085.904397928896
 21
2345.61280590327
 31
0.0
  0
LINE
  5
1385C
330
747D
100
AcDbEntity
  8
細線
100
AcDbLine
 10
4340.9043979289
 20
4371.112805903256
 30
0.0
 11
4340.904397928897
 21
2338.112805903262
 31
0.0
  0
LINE
  5
1385D
330
747D
100
AcDbEntity
  8
細線
100
AcDbLine
 10
4270.9043979289
 20
4371.112805903256
 30
0.0
 11
4270.904397928896
 21
2338.112805903262
 31
0.0
  0
LINE
  5
1385E
330
747D
100
AcDbEntity
  8
細線
100
AcDbLine
 10
4200.9043979289
 20
4371.112805903256
 30
0.0
 11
4200.904397928896
 21
2338.112805903261
 31
0.0
  0
LINE
  5
1385F
330
747D
100
AcDbEntity
  8
細線
100
AcDbLine
 10
4130.9043979289
 20
4371.112805903256
 30
0.0
 11
4130.904397928897
 21
2338.112805903259
 31
0.0
  0
LINE
  5
13860
330
747D
100
AcDbEntity
  8
細線
100
AcDbLine
 10
4060.904397928898
 20
4371.112805903256
 30
0.0
 11
4060.904397928898
 21
2338.112805903259
 31
0.0
  0
LINE
  5
13861
330
747D
100
AcDbEntity
  8
細線
100
AcDbLine
 10
3990.904397928898
 20
4371.112805903256
 30
0.0
 11
3990.904397928898
 21
2338.112805903259
 31
0.0
  0
LINE
  5
13862
330
747D
100
AcDbEntity
  8
部品1
100
AcDbLine
 10
3806.904397928899
 20
4371.112805903256
 30
0.0
 11
3806.904397928899
 21
2338.112805903261
 31
0.0
  0
LINE
  5
13863
330
747D
100
AcDbEntity
  8
部品1
100
AcDbLine
 10
3756.904397928899
 20
4371.112805903256
 30
0.0
 11
3756.904397928899
 21
2338.112805903261
 31
0.0
  0
LINE
  5
13864
330
747D
100
AcDbEntity
  8
細線
100
AcDbLine
 10
3798.904397928898
 20
4371.112805903256
 30
0.0
 11
3798.904397928898
 21
2338.112805903261
 31
0.0
  0
LINE
  5
13865
330
747D
100
AcDbEntity
  8
細線
100
AcDbLine
 10
3764.904397928898
 20
4371.112805903256
 30
0.0
 11
3764.904397928898
 21
2338.112805903261
 31
0.0
  0
LINE
  5
13866
330
747D
100
AcDbEntity
  8
細線
100
AcDbLine
 10
4984.9043979289
 20
4371.112805903256
 30
0.0
 11
4984.9043979289
 21
2345.612805903268
 31
0.0
  0
LINE
  5
13867
330
747D
100
AcDbEntity
  8
細線
100
AcDbLine
 10
4914.9043979289
 20
4371.112805903256
 30
0.0
 11
4914.9043979289
 21
2345.612805903268
 31
0.0
  0
LINE
  5
13868
330
747D
100
AcDbEntity
  8
細線
100
AcDbLine
 10
4844.9043979289
 20
4371.112805903256
 30
0.0
 11
4844.9043979289
 21
2345.612805903268
 31
0.0
  0
LINE
  5
13869
330
747D
100
AcDbEntity
  8
細線
100
AcDbLine
 10
4774.904397928899
 20
4371.112805903256
 30
0.0
 11
4774.904397928899
 21
2345.612805903268
 31
0.0
  0
LINE
  5
1386A
330
747D
100
AcDbEntity
  8
細線
100
AcDbLine
 10
4704.9043979289
 20
4371.112805903256
 30
0.0
 11
4704.9043979289
 21
2345.612805903268
 31
0.0
  0
LINE
  5
1386B
330
747D
100
AcDbEntity
  8
細線
100
AcDbLine
 10
4634.9043979289
 20
4371.112805903256
 30
0.0
 11
4634.9043979289
 21
2345.612805903268
 31
0.0
  0
LINE
  5
1386C
330
747D
100
AcDbEntity
  8
細線
100
AcDbLine
 10
5570.4043979289
 20
4371.112805903256
 30
0.0
 11
5570.4043979289
 21
2345.612805903273
 31
0.0
  0
LINE
  5
1386D
330
747D
100
AcDbEntity
  8
細線
100
AcDbLine
 10
5500.4043979289
 20
4371.112805903256
 30
0.0
 11
5500.4043979289
 21
2345.612805903273
 31
0.0
  0
LINE
  5
1386E
330
747D
100
AcDbEntity
  8
細線
100
AcDbLine
 10
5430.404397928899
 20
4371.112805903256
 30
0.0
 11
5430.404397928899
 21
2345.612805903273
 31
0.0
  0
LINE
  5
1386F
330
747D
100
AcDbEntity
  8
細線
100
AcDbLine
 10
5360.4043979289
 20
4371.112805903256
 30
0.0
 11
5360.4043979289
 21
2345.612805903273
 31
0.0
  0
LINE
  5
13870
330
747D
100
AcDbEntity
  8
細線
100
AcDbLine
 10
5290.4043979289
 20
4371.112805903256
 30
0.0
 11
5290.4043979289
 21
2345.612805903273
 31
0.0
  0
LINE
  5
13874
330
747D
100
AcDbEntity
  8
部品1
 48
50.0
100
AcDbLine
 10
3680.904397928898
 20
3419.612805903256
 30
0.0
 11
3733.904397928898
 21
3419.612805903256
 31
0.0
  0
LINE
  5
1388E
330
747D
100
AcDbEntity
  8
細線
100
AcDbLine
 10
3920.904397928899
 20
4371.112805903256
 30
0.0
 11
3920.904397928899
 21
2338.112805903259
 31
0.0
  0
LINE
  5
1388F
330
747D
100
AcDbEntity
  8
細線
100
AcDbLine
 10
3850.904397928898
 20
4371.112805903256
 30
0.0
 11
3850.904397928898
 21
2338.112805903259
 31
0.0
  0
LINE
  5
13890
330
747D
100
AcDbEntity
  8
細線
100
AcDbLine
 10
4564.904397928899
 20
4371.112805903256
 30
0.0
 11
4564.904397928899
 21
2345.612805903268
 31
0.0
  0
LINE
  5
13891
330
747D
100
AcDbEntity
  8
細線
100
AcDbLine
 10
4494.9043979289
 20
4371.112805903256
 30
0.0
 11
4494.9043979289
 21
2345.612805903268
 31
0.0
  0
LINE
  5
13892
330
747D
100
AcDbEntity
  8
細線
100
AcDbLine
 10
5220.404397928899
 20
4371.112805903256
 30
0.0
 11
5220.404397928899
 21
2345.612805903273
 31
0.0
  0
LINE
  5
13893
330
747D
100
AcDbEntity
  8
部品1
 48
50.0
100
AcDbLine
 10
5760.9043979289
 20
4379.112805903254
 30
0.0
 11
5730.9043979289
 21
4379.112805903254
 31
0.0
  0
LINE
  5
13894
330
747D
100
AcDbEntity
  8
細線
 48
50.0
100
AcDbLine
 10
5708.9043979289
 20
2335.112805903254
 30
0.0
 11
5704.9043979289
 21
2345.612805903254
 31
0.0
  0
LINE
  5
13895
330
747D
100
AcDbEntity
  8
部品1
 48
50.0
100
AcDbLine
 10
5085.904397928899
 20
4371.112805903254
 30
0.0
 11
5085.904397928899
 21
2345.612805903254
 31
0.0
  0
LINE
  5
13896
330
747D
100
AcDbEntity
  8
部品1
 48
50.0
100
AcDbLine
 10
5760.9043979289
 20
2188.112805903256
 30
0.0
 11
5760.9043979289
 21
4423.112805903254
 31
0.0
  0
LINE
  5
13897
330
747D
100
AcDbEntity
  8
細線
 48
50.0
100
AcDbLine
 10
5730.9043979289
 20
2288.112805903255
 30
0.0
 11
5730.9043979289
 21
4380.612805903254
 31
0.0
  0
LINE
  5
13898
330
747D
100
AcDbEntity
  8
部品1
 48
50.0
100
AcDbLine
 10
5721.904397928899
 20
2335.112805903254
 30
0.0
 11
5721.904397928899
 21
4371.112805903254
 31
0.0
  0
LINE
  5
13899
330
747D
100
AcDbEntity
  8
部品1
 48
50.0
100
AcDbLine
 10
3636.904397928898
 20
4379.112805903254
 30
0.0
 11
3606.904397928899
 21
4379.112805903254
 31
0.0
  0
LINE
  5
1389A
330
747D
100
AcDbEntity
  8
部品1
 48
50.0
100
AcDbLine
 10
3645.904397928898
 20
2338.112805903254
 30
0.0
 11
3645.904397928898
 21
2335.112805903254
 31
0.0
  0
LINE
  5
1389B
330
747D
100
AcDbEntity
  8
部品1
 48
50.0
100
AcDbLine
 10
3636.904397928898
 20
2338.112805903254
 30
0.0
 11
4434.9043979289
 21
2338.112805903254
 31
0.0
  0
LINE
  5
1389C
330
747D
100
AcDbEntity
  8
部品1
 48
50.0
100
AcDbLine
 10
4434.9043979289
 20
4371.112805903254
 30
0.0
 11
4434.9043979289
 21
2338.112805903254
 31
0.0
  0
LINE
  5
1389D
330
747D
100
AcDbEntity
  8
部品1
 48
50.0
100
AcDbLine
 10
3606.904397928899
 20
4423.112805903254
 30
0.0
 11
3606.904397928899
 21
2288.112805903255
 31
0.0
  0
LINE
  5
1389E
330
747D
100
AcDbEntity
  8
細線
 48
50.0
100
AcDbLine
 10
3636.904397928898
 20
4380.612805903254
 30
0.0
 11
3636.904397928898
 21
2288.112805903255
 31
0.0
  0
LINE
  5
1389F
330
747D
100
AcDbEntity
  8
部品1
 48
50.0
100
AcDbLine
 10
3636.904397928898
 20
2338.112805903254
 30
0.0
 11
3636.904397928898
 21
4371.112805903254
 31
0.0
  0
LINE
  5
138A0
330
747D
100
AcDbEntity
  8
細線
 48
50.0
100
AcDbLine
 10
4434.9043979289
 20
2345.612805903254
 30
0.0
 11
5704.9043979289
 21
2345.612805903254
 31
0.0
  0
LINE
  5
138A1
330
747D
100
AcDbEntity
  8
細線
 48
50.0
100
AcDbLine
 10
3636.904397928898
 20
2335.112805903254
 30
0.0
 11
5730.9043979289
 21
2335.112805903254
 31
0.0
  0
LINE
  5
138A2
330
747D
100
AcDbEntity
  8
細線
 48
50.0
100
AcDbLine
 10
3636.904397928898
 20
2331.112805903254
 30
0.0
 11
5730.9043979289
 21
2331.112805903254
 31
0.0
  0
LINE
  5
138A3
330
747D
100
AcDbEntity
  8
部品1
 48
50.0
100
AcDbLine
 10
3606.904397928899
 20
2288.112805903255
 30
0.0
 11
5760.9043979289
 21
2288.112805903255
 31
0.0
  0
LINE
  5
138A4
330
747D
100
AcDbEntity
  8
細線
 48
50.0
100
AcDbLine
 10
5730.9043979289
 20
4380.612805903254
 30
0.0
 11
3636.904397928898
 21
4380.612805903254
 31
0.0
  0
LINE
  5
138A5
330
747D
100
AcDbEntity
  8
細線
 48
50.0
100
AcDbLine
 10
5730.9043979289
 20
4371.112805903254
 30
0.0
 11
3636.904397928898
 21
4371.112805903254
 31
0.0
  0
LINE
  5
138A6
330
747D
100
AcDbEntity
  8
細線
 48
50.0
100
AcDbLine
 10
5760.9043979289
 20
4413.112805903255
 30
0.0
 11
3606.904397928899
 21
4413.112805903255
 31
0.0
  0
LINE
  5
138A7
330
747D
100
AcDbEntity
  8
部品1
 48
50.0
100
AcDbLine
 10
5760.9043979289
 20
4423.112805903254
 30
0.0
 11
3606.904397928899
 21
4423.112805903254
 31
0.0
  0
LINE
  5
138A8
330
747D
100
AcDbEntity
  8
部品1
100
AcDbLine
 10
3633.904397928898
 20
4428.112805903257
 30
0.0
 11
3633.904397928898
 21
4423.112805903254
 31
0.0
  0
LINE
  5
138A9
330
747D
100
AcDbEntity
  8
部品1
100
AcDbLine
 10
5733.904397928898
 20
4428.112805903256
 30
0.0
 11
5733.904397928898
 21
4423.112805903254
 31
0.0
  0
TEXT
  5
13B91
330
747D
100
AcDbEntity
  8
文字
 62
     7
 48
50.0
100
AcDbText
 10
13583.11819016569
 20
9570.013745883727
 30
0.0
 40
100.0
  1
母屋中
  7
STYLE1
100
AcDbText
  0
TEXT
  5
13B92
330
747D
100
AcDbEntity
  8
文字
 62
     7
 48
50.0
100
AcDbText
 10
13248.77747366447
 20
8720.013745883729
 30
0.0
 40
100.0
  1
15
  7
STYLE1
100
AcDbText
  0
LINE
  5
13B93
330
747D
100
AcDbEntity
  8
仕様書枠
 48
50.0
100
AcDbLine
 10
16307.19999999998
 20
8009.600000000004
 30
0.0
 11
13127.19999999999
 21
8009.600000000006
 31
0.0
  0
TEXT
  5
13B94
330
747D
100
AcDbEntity
  8
文字
 62
     7
 48
50.0
100
AcDbText
 10
13583.11819016569
 20
8550.013745883731
 30
0.0
 40
100.0
  1
扉
  7
STYLE1
100
AcDbText
  0
TEXT
  5
13B95
330
747D
100
AcDbEntity
  8
文字
 62
     7
 48
50.0
100
AcDbText
 10
15022.63965474516
 20
8550.013745883727
 30
0.0
 40
100.0
  1
F12            0.8
  7
STYLE1
100
AcDbText
  0
TEXT
  5
13B96
330
747D
100
AcDbEntity
  8
文字
 62
     7
 48
50.0
100
AcDbText
 10
13583.11819016568
 20
8720.013745883731
 30
0.0
 40
100.0
  1
正面パネル
  7
STYLE1
100
AcDbText
  0
TEXT
  5
13B97
330
747D
100
AcDbEntity
  8
文字
 62
     7
 48
50.0
100
AcDbText
 10
15022.63965474515
 20
8720.013745883727
 30
0.0
 40
100.0
  1
F12            0.7
  7
STYLE1
100
AcDbText
  0
TEXT
  5
13B98
330
747D
100
AcDbEntity
  8
文字
 62
     7
 48
50.0
100
AcDbText
 10
15022.63965474517
 20
10590.01374588372
 30
0.0
 40
100.0
  1
F12            1.0
  7
STYLE1
100
AcDbText
  0
TEXT
  5
13B99
330
747D
100
AcDbEntity
  8
文字
 62
     7
 48
50.0
100
AcDbText
 10
15022.63965474516
 20
10930.01374588372
 30
0.0
 40
100.0
  1
F12            1.2
  7
STYLE1
100
AcDbText
  0
TEXT
  5
13B9A
330
747D
100
AcDbEntity
  8
文字
 62
     7
 48
50.0
100
AcDbText
 10
13248.77747366448
 20
8890.013745883727
 30
0.0
 40
100.0
  1
14
  7
STYLE1
100
AcDbText
  0
TEXT
  5
13B9B
330
747D
100
AcDbEntity
  8
文字
 62
     7
 48
50.0
100
AcDbText
 10
13583.11819016569
 20
10930.01374588372
 30
0.0
 40
100.0
  1
根太
  7
STYLE1
100
AcDbText
  0
TEXT
  5
13B9C
330
747D
100
AcDbEntity
  8
文字
 62
     7
 48
50.0
100
AcDbText
 10
13583.1181901657
 20
10590.01374588373
 30
0.0
 40
100.0
  1
床パネル
 41
0.9
  7
STYLE1
100
AcDbText
  0
LINE
  5
13B9D
330
747D
100
AcDbEntity
  8
仕様書枠
 48
50.0
100
AcDbLine
 10
16307.19999999999
 20
9029.6
 30
0.0
 11
13127.2
 21
9029.600000000002
 31
0.0
  0
LINE
  5
13B9E
330
747D
100
AcDbEntity
  8
仕様書枠
 48
50.0
100
AcDbLine
 10
13127.2
 20
11409.6
 30
0.0
 11
13127.19999999999
 21
8009.600000000006
 31
0.0
  0
TEXT
  5
13B9F
330
747D
100
AcDbEntity
  8
文字
 62
     7
 48
50.0
100
AcDbText
 10
13229.83081656554
 20
8040.013745883731
 30
0.0
 40
100.0
  1
Y10→溶融亜鉛-5％アルミニウム合金めっき鋼板(JIS G 3317)
 41
0.9
  7
STYLE1
100
AcDbText
  0
TEXT
  5
13BA0
330
747D
100
AcDbEntity
  8
文字
 62
     7
 48
50.0
100
AcDbText
 10
13229.83081656554
 20
8210.013745883733
 30
0.0
 40
100.0
  1
F12→溶融亜鉛めっき鋼板(JIS G 3302)
  7
STYLE1
100
AcDbText
  0
LINE
  5
13BA1
330
747D
100
AcDbEntity
  8
仕様書枠
 48
50.0
100
AcDbLine
 10
16307.19999999999
 20
8179.600000000004
 30
0.0
 11
13127.19999999999
 21
8179.600000000005
 31
0.0
  0
LINE
  5
13BA2
330
747D
100
AcDbEntity
  8
仕様書枠
 48
50.0
100
AcDbLine
 10
16307.19999999999
 20
8349.600000000004
 30
0.0
 11
13127.19999999999
 21
8349.600000000007
 31
0.0
  0
TEXT
  5
13BA3
330
747D
100
AcDbEntity
  8
文字
 62
     7
 48
50.0
100
AcDbText
 10
15022.63965474515
 20
9400.013745883725
 30
0.0
 40
100.0
  1
F12            0.7
  7
STYLE1
100
AcDbText
  0
TEXT
  5
13BA4
330
747D
100
AcDbEntity
  8
文字
 62
     7
 48
50.0
100
AcDbText
 10
15022.63965474517
 20
9740.013745883725
 30
0.0
 40
100.0
  1
Y10            0.5
  7
STYLE1
100
AcDbText
  0
TEXT
  5
13BA5
330
747D
100
AcDbEntity
  8
文字
 62
     7
 48
50.0
100
AcDbText
 10
15022.63965474516
 20
10080.01374588372
 30
0.0
 40
100.0
  1
Y10            0.7
  7
STYLE1
100
AcDbText
  0
TEXT
  5
13BA6
330
747D
100
AcDbEntity
  8
文字
 62
     7
 48
50.0
100
AcDbText
 10
15022.63965474516
 20
10250.01374588372
 30
0.0
 40
100.0
  1
Y10            0.7
  7
STYLE1
100
AcDbText
  0
TEXT
  5
13BA7
330
747D
100
AcDbEntity
  8
文字
 62
     7
 48
50.0
100
AcDbText
 10
15022.63965474516
 20
10420.01374588372
 30
0.0
 40
100.0
  1
Y10            1.0
  7
STYLE1
100
AcDbText
  0
TEXT
  5
13BA8
330
747D
100
AcDbEntity
  8
文字
 62
     7
 48
50.0
100
AcDbText
 10
15022.63965474518
 20
10760.01374588372
 30
0.0
 40
100.0
  1
F12            1.0
  7
STYLE1
100
AcDbText
  0
TEXT
  5
13BA9
330
747D
100
AcDbEntity
  8
文字
 62
     7
 48
50.0
100
AcDbText
 10
15022.63965474517
 20
11100.01374588372
 30
0.0
 40
100.0
  1
F12            1.2
  7
STYLE1
100
AcDbText
  0
TEXT
  5
13BAA
330
747D
100
AcDbEntity
  8
文字
 62
     7
 48
50.0
100
AcDbText
 10
13248.77747366448
 20
9230.013745883727
 30
0.0
 40
100.0
  1
12
  7
STYLE1
100
AcDbText
  0
TEXT
  5
13BAB
330
747D
100
AcDbEntity
  8
文字
 62
     7
 48
50.0
100
AcDbText
 10
13248.77747366448
 20
9060.013745883727
 30
0.0
 40
100.0
  1
13
  7
STYLE1
100
AcDbText
  0
LINE
  5
13BAC
330
747D
100
AcDbEntity
  8
仕様書枠
 48
50.0
100
AcDbLine
 10
16307.19999999999
 20
8859.6
 30
0.0
 11
13127.2
 21
8859.600000000002
 31
0.0
  0
LINE
  5
13BAD
330
747D
100
AcDbEntity
  8
仕様書枠
 48
50.0
100
AcDbLine
 10
16307.19999999999
 20
9199.599999999998
 30
0.0
 11
13127.2
 21
9199.600000000001
 31
0.0
  0
TEXT
  5
13BAE
330
747D
100
AcDbEntity
  8
文字
 62
     7
 48
50.0
100
AcDbText
 10
13248.77747366447
 20
9400.013745883727
 30
0.0
 40
100.0
  1
11
  7
STYLE1
100
AcDbText
  0
LINE
  5
13BAF
330
747D
100
AcDbEntity
  8
仕様書枠
 48
50.0
100
AcDbLine
 10
16307.2
 20
9879.599999999999
 30
0.0
 11
13127.2
 21
9879.600000000001
 31
0.0
  0
LINE
  5
13BB0
330
747D
100
AcDbEntity
  8
仕様書枠
 48
50.0
100
AcDbLine
 10
16307.2
 20
10219.6
 30
0.0
 11
13127.2
 21
10219.6
 31
0.0
  0
LINE
  5
13BB1
330
747D
100
AcDbEntity
  8
仕様書枠
 48
50.0
100
AcDbLine
 10
16307.19999999999
 20
9539.599999999998
 30
0.0
 11
13127.2
 21
9539.6
 31
0.0
  0
LINE
  5
13BB2
330
747D
100
AcDbEntity
  8
仕様書枠
 48
50.0
100
AcDbLine
 10
16307.19999999999
 20
9369.599999999998
 30
0.0
 11
13127.2
 21
9369.600000000001
 31
0.0
  0
LINE
  5
13BB3
330
747D
100
AcDbEntity
  8
仕様書枠
 48
50.0
100
AcDbLine
 10
16307.19999999999
 20
9709.6
 30
0.0
 11
13127.2
 21
9709.600000000001
 31
0.0
  0
TEXT
  5
13BB4
330
747D
100
AcDbEntity
  8
文字
 62
     7
 48
50.0
100
AcDbText
 10
13271.19032244792
 20
10250.01374588373
 30
0.0
 40
100.0
  1
6
  7
STYLE1
100
AcDbText
  0
TEXT
  5
13BB5
330
747D
100
AcDbEntity
  8
文字
 62
     7
 48
50.0
100
AcDbText
 10
13271.19032244792
 20
10080.01374588373
 30
0.0
 40
100.0
  1
7
  7
STYLE1
100
AcDbText
  0
TEXT
  5
13BB6
330
747D
100
AcDbEntity
  8
文字
 62
     7
 48
50.0
100
AcDbText
 10
13271.19032244792
 20
9740.013745883729
 30
0.0
 40
100.0
  1
9
  7
STYLE1
100
AcDbText
  0
TEXT
  5
13BB7
330
747D
100
AcDbEntity
  8
文字
 62
     7
 48
50.0
100
AcDbText
 10
13271.19032244792
 20
9910.01374588373
 30
0.0
 40
100.0
  1
8
  7
STYLE1
100
AcDbText
  0
TEXT
  5
13BB8
330
747D
100
AcDbEntity
  8
文字
 62
     7
 48
50.0
100
AcDbText
 10
13583.11819016569
 20
10080.01374588372
 30
0.0
 40
100.0
  1
鼻隠シ前後
  7
STYLE1
100
AcDbText
  0
TEXT
  5
13BB9
330
747D
100
AcDbEntity
  8
文字
 62
     7
 48
50.0
100
AcDbText
 10
13583.11819016569
 20
9740.013745883729
 30
0.0
 40
100.0
  1
屋根パネル
  7
STYLE1
100
AcDbText
  0
TEXT
  5
13BBA
330
747D
100
AcDbEntity
  8
文字
 62
     7
 48
50.0
100
AcDbText
 10
13583.11819016568
 20
9400.013745883729
 30
0.0
 40
100.0
  1
壁パネル
  7
STYLE1
100
AcDbText
  0
TEXT
  5
13BBB
330
747D
100
AcDbEntity
  8
文字
 62
     7
 48
50.0
100
AcDbText
 10
13248.77747366447
 20
9570.013745883727
 30
0.0
 40
100.0
  1
10
  7
STYLE1
100
AcDbText
  0
TEXT
  5
13BBC
330
747D
100
AcDbEntity
  8
文字
 62
     7
 48
50.0
100
AcDbText
 10
13583.11819016569
 20
10250.01374588373
 30
0.0
 40
100.0
  1
妻板左右
  7
STYLE1
100
AcDbText
  0
TEXT
  5
13BBD
330
747D
100
AcDbEntity
  8
文字
 62
     7
 48
50.0
100
AcDbText
 10
13271.19032244792
 20
10420.01374588372
 30
0.0
 40
100.0
  1
5
  7
STYLE1
100
AcDbText
  0
TEXT
  5
13BBE
330
747D
100
AcDbEntity
  8
文字
 62
     7
 48
50.0
100
AcDbText
 10
13583.11819016569
 20
10420.01374588373
 30
0.0
 40
100.0
  1
桁前後
  7
STYLE1
100
AcDbText
  0
TEXT
  5
13BBF
330
747D
100
AcDbEntity
  8
文字
 62
     7
 48
50.0
100
AcDbText
 10
13583.1181901657
 20
10760.01374588372
 30
0.0
 40
100.0
  1
柱
  7
STYLE1
100
AcDbText
  0
TEXT
  5
13BC0
330
747D
100
AcDbEntity
  8
文字
 62
     7
 48
50.0
100
AcDbText
 10
13583.11819016569
 20
11100.01374588373
 30
0.0
 40
100.0
  1
土台枠
  7
STYLE1
100
AcDbText
  0
TEXT
  5
13BC1
330
747D
100
AcDbEntity
  8
文字
 62
     7
 48
50.0
100
AcDbText
 10
14859.79774614482
 20
11270.01374588372
 30
0.0
 40
100.0
  1
材料（材質）　　単位mm
  7
STYLE1
100
AcDbText
  0
TEXT
  5
13BC2
330
747D
100
AcDbEntity
  8
文字
 62
     7
 48
50.0
100
AcDbText
 10
13732.03840939434
 20
11270.01374588372
 30
0.0
 40
100.0
  1
部　　品　　名
  7
STYLE1
100
AcDbText
  0
TEXT
  5
13BC3
330
747D
100
AcDbEntity
  8
文字
 62
     7
 48
50.0
100
AcDbText
 10
13271.19032244792
 20
10760.01374588373
 30
0.0
 40
100.0
  1
3
  7
STYLE1
100
AcDbText
  0
TEXT
  5
13BC4
330
747D
100
AcDbEntity
  8
文字
 62
     7
 48
50.0
100
AcDbText
 10
13271.19032244792
 20
10590.01374588373
 30
0.0
 40
100.0
  1
4
  7
STYLE1
100
AcDbText
  0
TEXT
  5
13BC5
330
747D
100
AcDbEntity
  8
文字
 62
     7
 48
50.0
100
AcDbText
 10
13271.19032244792
 20
10930.01374588373
 30
0.0
 40
100.0
  1
2
  7
STYLE1
100
AcDbText
  0
TEXT
  5
13BC6
330
747D
100
AcDbEntity
  8
文字
 62
     7
 48
50.0
100
AcDbText
 10
13271.19032244792
 20
11100.01374588373
 30
0.0
 40
100.0
  1
1
  7
STYLE1
100
AcDbText
  0
TEXT
  5
13BC7
330
747D
100
AcDbEntity
  8
文字
 62
     7
 48
50.0
100
AcDbText
 10
13197.42518560407
 20
11270.01374588372
 30
0.0
 40
100.0
  1
品番
  7
STYLE1
100
AcDbText
  0
LINE
  5
13BC8
330
747D
100
AcDbEntity
  8
仕様書枠
 48
50.0
100
AcDbLine
 10
16307.19999999999
 20
10729.6
 30
0.0
 11
13127.2
 21
10729.6
 31
0.0
  0
LINE
  5
13BC9
330
747D
100
AcDbEntity
  8
仕様書枠
 48
50.0
100
AcDbLine
 10
16307.19999999999
 20
10389.6
 30
0.0
 11
13127.2
 21
10389.6
 31
0.0
  0
LINE
  5
13BCA
330
747D
100
AcDbEntity
  8
仕様書枠
 48
50.0
100
AcDbLine
 10
16307.19999999999
 20
10559.6
 30
0.0
 11
13127.2
 21
10559.6
 31
0.0
  0
LINE
  5
13BCB
330
747D
100
AcDbEntity
  8
仕様書枠
 48
50.0
100
AcDbLine
 10
16307.2
 20
11069.6
 30
0.0
 11
13127.2
 21
11069.6
 31
0.0
  0
LINE
  5
13BCC
330
747D
100
AcDbEntity
  8
仕様書枠
 48
50.0
100
AcDbLine
 10
16307.2
 20
10899.6
 30
0.0
 11
13127.2
 21
10899.6
 31
0.0
  0
LINE
  5
13BCD
330
747D
100
AcDbEntity
  8
仕様書枠
 48
50.0
100
AcDbLine
 10
16307.2
 20
11239.6
 30
0.0
 11
13127.2
 21
11239.6
 31
0.0
  0
LINE
  5
13BCE
330
747D
100
AcDbEntity
  8
仕様書枠
 48
50.0
100
AcDbLine
 10
13490.2
 20
11409.6
 30
0.0
 11
13490.20000000001
 21
8349.600000000007
 31
0.0
  0
LINE
  5
13BCF
330
747D
100
AcDbEntity
  8
仕様書枠
 48
50.0
100
AcDbLine
 10
14785.2
 20
11409.59999999999
 30
0.0
 11
14785.2
 21
8349.600000000004
 31
0.0
  0
LINE
  5
13BD0
330
747D
100
AcDbEntity
  8
仕様書枠
 48
50.0
100
AcDbLine
 10
16307.19999999999
 20
8009.600000000004
 30
0.0
 11
16307.2
 21
11409.6
 31
0.0
  0
LINE
  5
13BD1
330
747D
100
AcDbEntity
  8
仕様書枠
 48
50.0
100
AcDbLine
 10
16307.2
 20
11409.6
 30
0.0
 11
13127.2
 21
11409.6
 31
0.0
  0
LINE
  5
13BD2
330
747D
100
AcDbEntity
  8
仕様書枠
 48
50.0
100
AcDbLine
 10
16307.2
 20
10049.6
 30
0.0
 11
13127.2
 21
10049.6
 31
0.0
  0
TEXT
  5
13BD3
330
747D
100
AcDbEntity
  8
文字
 62
     7
 48
50.0
100
AcDbText
 10
15022.63965474515
 20
8380.013745883724
 30
0.0
 40
100.0
  1
F12            2.3
  7
STYLE1
100
AcDbText
  0
TEXT
  5
13BD4
330
747D
100
AcDbEntity
  8
文字
 62
     7
 48
50.0
100
AcDbText
 10
13583.11819016569
 20
8380.013745883728
 30
0.0
 40
100.0
  1
アンカープレート
  7
STYLE1
100
AcDbText
  0
LINE
  5
13BD5
330
747D
100
AcDbEntity
  8
仕様書枠
 48
50.0
100
AcDbLine
 10
16307.19999999999
 20
8519.600000000004
 30
0.0
 11
13127.2
 21
8519.600000000005
 31
0.0
  0
LINE
  5
13BD6
330
747D
100
AcDbEntity
  8
仕様書枠
 48
50.0
100
AcDbLine
 10
16307.19999999999
 20
8689.600000000003
 30
0.0
 11
13127.2
 21
8689.600000000005
 31
0.0
  0
TEXT
  5
13BD7
330
747D
100
AcDbEntity
  8
文字
 62
     7
 48
50.0
100
AcDbText
 10
13583.11819016569
 20
9230.013745883729
 30
0.0
 40
100.0
  1
壁面扉鴨居
  7
STYLE1
100
AcDbText
  0
TEXT
  5
13BD8
330
747D
100
AcDbEntity
  8
文字
 62
     7
 48
50.0
100
AcDbText
 10
13583.11819016569
 20
9060.013745883733
 30
0.0
 40
100.0
  1
壁面扉敷居
  7
STYLE1
100
AcDbText
  0
TEXT
  5
13BD9
330
747D
100
AcDbEntity
  8
文字
 62
     7
 48
50.0
100
AcDbText
 10
15022.63965474515
 20
9230.013745883727
 30
0.0
 40
100.0
  1
F12            0.7
  7
STYLE1
100
AcDbText
  0
TEXT
  5
13BDA
330
747D
100
AcDbEntity
  8
文字
 62
     7
 48
50.0
100
AcDbText
 10
15022.63965474517
 20
9060.013745883725
 30
0.0
 40
100.0
  1
F12            1.0
  7
STYLE1
100
AcDbText
  0
TEXT
  5
13BDB
330
747D
100
AcDbEntity
  8
文字
 62
     7
 48
50.0
100
AcDbText
 10
13583.11819016569
 20
8890.013745883733
 30
0.0
 40
100.0
  1
壁面扉枠左右
  7
STYLE1
100
AcDbText
  0
TEXT
  5
13BDC
330
747D
100
AcDbEntity
  8
文字
 62
     7
 48
50.0
100
AcDbText
 10
15022.63965474517
 20
8890.013745883726
 30
0.0
 40
100.0
  1
F12            1.0
  7
STYLE1
100
AcDbText
  0
TEXT
  5
13BDD
330
747D
100
AcDbEntity
  8
文字
 62
     7
 48
50.0
100
AcDbText
 10
13248.77747366447
 20
8550.013745883729
 30
0.0
 40
100.0
  1
16
  7
STYLE1
100
AcDbText
  0
TEXT
  5
13BDE
330
747D
100
AcDbEntity
  8
文字
 62
     7
 48
50.0
100
AcDbText
 10
13248.77747366447
 20
8380.013745883728
 30
0.0
 40
100.0
  1
17
  7
STYLE1
100
AcDbText
  0
TEXT
  5
13BDF
330
747D
100
AcDbEntity
  8
文字
 62
     7
 48
50.0
100
AcDbText
 10
13583.1181901657
 20
9910.01374588373
 30
0.0
 40
100.0
  1
梁中
 41
0.9
  7
STYLE1
100
AcDbText
  0
TEXT
  5
13BE0
330
747D
100
AcDbEntity
  8
文字
 62
     7
 48
50.0
100
AcDbText
 10
15022.63965474517
 20
9910.013745883727
 30
0.0
 40
100.0
  1
F12,Y10      1.2+1.6
  7
STYLE1
100
AcDbText
  0
LINE
  5
13C4E
330
747D
100
AcDbEntity
  8
部品1
100
AcDbLine
 10
5843.904397928898
 20
9831.984525907598
 30
0.0
 11
7943.904397928898
 21
9831.984525907598
 31
0.0
  0
LINE
  5
13C4F
330
747D
100
AcDbEntity
  8
部品1
100
AcDbLine
 10
5733.904397928896
 20
9831.984525907598
 30
0.0
 11
3633.904397928898
 21
9831.984525907593
 31
0.0
  0
LINE
  5
13C50
330
747D
100
AcDbEntity
  8
部品1
100
AcDbLine
 10
3606.904397928899
 20
9831.9845259076
 30
0.0
 11
3578.904397928898
 21
9831.9845259076
 31
0.0
  0
LINE
  5
13C51
330
747D
100
AcDbEntity
  8
部品1
100
AcDbLine
 10
7970.904397928897
 20
9831.9845259076
 30
0.0
 11
7998.904397928898
 21
9831.9845259076
 31
0.0
  0
LINE
  5
13E46
330
747D
100
AcDbEntity
  8
部品1
100
AcDbLine
 10
13610.25880607255
 20
4428.112805903258
 30
0.0
 11
13610.25880607255
 21
2338.11280590326
 31
0.0
  0
LINE
  5
13E47
330
747D
100
AcDbEntity
  8
細線
 48
50.0
100
AcDbLine
 10
13532.75880607256
 20
4428.112805903256
 30
0.0
 11
13532.75880607256
 21
2338.112805903258
 31
0.0
  0
LINE
  5
13E48
330
747D
100
AcDbEntity
  8
細線
 48
50.0
100
AcDbLine
 10
13547.75880607256
 20
4428.112805903256
 30
0.0
 11
13547.75880607256
 21
2338.112805903258
 31
0.0
  0
LINE
  5
13E49
330
747D
100
AcDbEntity
  8
細線
 48
50.0
100
AcDbLine
 10
13407.75880607256
 20
4428.112805903256
 30
0.0
 11
13407.75880607256
 21
2338.112805903258
 31
0.0
  0
LINE
  5
13E4A
330
747D
100
AcDbEntity
  8
細線
 48
50.0
100
AcDbLine
 10
13392.75880607256
 20
4428.112805903256
 30
0.0
 11
13392.75880607256
 21
2338.112805903258
 31
0.0
  0
LINE
  5
13E4B
330
747D
100
AcDbEntity
  8
細線
 48
50.0
100
AcDbLine
 10
13252.75880607256
 20
4428.112805903256
 30
0.0
 11
13252.75880607256
 21
2338.112805903258
 31
0.0
  0
LINE
  5
13E4C
330
747D
100
AcDbEntity
  8
細線
 48
50.0
100
AcDbLine
 10
13267.75880607256
 20
4428.112805903256
 30
0.0
 11
13267.75880607256
 21
2338.112805903258
 31
0.0
  0
LINE
  5
13E4D
330
747D
100
AcDbEntity
  8
部品1
100
AcDbLine
 10
13190.25880607255
 20
4428.112805903256
 30
0.0
 11
13190.25880607255
 21
2338.112805903258
 31
0.0
  0
DIMENSION
  5
13E56
330
747D
100
AcDbEntity
  8
寸法
 48
50.0
100
AcDbDimension
  2
*D17
 10
10414.65039930419
 20
4537.458064776588
 30
0.0
 11
10425.31587456311
 21
4908.304728018286
 31
0.0
 70
   161
 71
     5
 42
141.0
  3
INABA_S40G
100
AcDbAlignedDimension
 13
10994.65482623114
 23
4661.835554737936
 33
0.0
 14
10990.60137067451
 24
4520.893830972223
 34
0.0
1001
ACAD
1000
DSTYLE
1002
{
1070
   174
1070
     0
1070
   272
1070
     1
1070
   288
1070
     0
1070
   341
1005
0
1002
}
  0
LINE
  5
13E57
330
747D
100
AcDbEntity
  8
細線
 48
50.0
100
AcDbLine
 10
13952.75880607256
 20
4428.112805903258
 30
0.0
 11
13952.75880607256
 21
2338.112805903258
 31
0.0
  0
LINE
  5
13E58
330
747D
100
AcDbEntity
  8
細線
 48
50.0
100
AcDbLine
 10
13967.75880607257
 20
4428.112805903258
 30
0.0
 11
13967.75880607257
 21
2338.112805903258
 31
0.0
  0
LINE
  5
13E59
330
747D
100
AcDbEntity
  8
細線
 48
50.0
100
AcDbLine
 10
13827.75880607256
 20
4428.112805903258
 30
0.0
 11
13827.75880607256
 21
2338.112805903258
 31
0.0
  0
LINE
  5
13E5A
330
747D
100
AcDbEntity
  8
細線
 48
50.0
100
AcDbLine
 10
13812.75880607256
 20
4428.112805903258
 30
0.0
 11
13812.75880607256
 21
2338.112805903258
 31
0.0
  0
LINE
  5
13E5B
330
747D
100
AcDbEntity
  8
細線
 48
50.0
100
AcDbLine
 10
13672.75880607256
 20
4428.112805903258
 30
0.0
 11
13672.75880607256
 21
2338.112805903258
 31
0.0
  0
LINE
  5
13E5C
330
747D
100
AcDbEntity
  8
細線
 48
50.0
100
AcDbLine
 10
13687.75880607256
 20
4428.112805903258
 30
0.0
 11
13687.75880607256
 21
2338.112805903258
 31
0.0
  0
LINE
  5
13E5D
330
747D
100
AcDbEntity
  8
部品1
100
AcDbLine
 10
12350.25880607256
 20
4428.112805903256
 30
0.0
 11
12350.25880607256
 21
2338.112805903256
 31
0.0
  0
LINE
  5
13E5E
330
747D
100
AcDbEntity
  8
細線
 48
50.0
100
AcDbLine
 10
12007.75880607256
 20
4428.112805903256
 30
0.0
 11
12007.75880607257
 21
2338.112805903256
 31
0.0
  0
LINE
  5
13E5F
330
747D
100
AcDbEntity
  8
細線
 48
50.0
100
AcDbLine
 10
11992.75880607256
 20
4428.112805903256
 30
0.0
 11
11992.75880607256
 21
2338.112805903256
 31
0.0
  0
LINE
  5
13E60
330
747D
100
AcDbEntity
  8
細線
 48
50.0
100
AcDbLine
 10
12132.75880607256
 20
4428.112805903256
 30
0.0
 11
12132.75880607256
 21
2338.112805903256
 31
0.0
  0
LINE
  5
13E61
330
747D
100
AcDbEntity
  8
細線
 48
50.0
100
AcDbLine
 10
12147.75880607256
 20
4428.112805903256
 30
0.0
 11
12147.75880607256
 21
2338.112805903256
 31
0.0
  0
LINE
  5
13E62
330
747D
100
AcDbEntity
  8
細線
 48
50.0
100
AcDbLine
 10
12287.75880607256
 20
4428.112805903256
 30
0.0
 11
12287.75880607256
 21
2338.112805903256
 31
0.0
  0
LINE
  5
13E63
330
747D
100
AcDbEntity
  8
細線
 48
50.0
100
AcDbLine
 10
12272.75880607256
 20
4428.112805903256
 30
0.0
 11
12272.75880607257
 21
2338.112805903256
 31
0.0
  0
LINE
  5
13E64
330
747D
100
AcDbEntity
  8
部品1
100
AcDbLine
 10
11930.25880607256
 20
4428.112805903256
 30
0.0
 11
11930.25880607256
 21
2338.112805903256
 31
0.0
  0
DIMENSION
  5
13E65
330
747D
100
AcDbEntity
  8
寸法
 48
50.0
100
AcDbDimension
  2
*D18
 10
14165.25880607256
 20
5061.770259482562
 30
0.0
 11
14371.30605016705
 21
5061.770259482562
 31
0.0
 70
   160
 71
     5
 42
80.0
  3
INABA_S40G
100
AcDbAlignedDimension
 13
14085.25880607256
 23
4609.923485514911
 33
0.0
 14
14165.25880607256
 24
4608.112805903259
 34
0.0
100
AcDbRotatedDimension
1001
ACAD
1000
DSTYLE
1002
{
1070
   174
1070
     0
1070
   272
1070
     1
1070
   288
1070
     0
1070
   341
1005
0
1002
}
  0
LINE
  5
13E66
330
747D
100
AcDbEntity
  8
細線
 48
50.0
100
AcDbLine
 10
11167.75880607256
 20
4428.112805903256
 30
0.0
 11
11167.75880607256
 21
2338.112805903256
 31
0.0
  0
LINE
  5
13E67
330
747D
100
AcDbEntity
  8
細線
 48
50.0
100
AcDbLine
 10
11152.75880607256
 20
4428.112805903256
 30
0.0
 11
11152.75880607256
 21
2338.112805903256
 31
0.0
  0
LINE
  5
13E68
330
747D
100
AcDbEntity
  8
細線
 48
50.0
100
AcDbLine
 10
11292.75880607256
 20
4428.112805903256
 30
0.0
 11
11292.75880607256
 21
2338.112805903256
 31
0.0
  0
LINE
  5
13E69
330
747D
100
AcDbEntity
  8
細線
 48
50.0
100
AcDbLine
 10
11307.75880607256
 20
4428.112805903256
 30
0.0
 11
11307.75880607256
 21
2338.112805903256
 31
0.0
  0
LINE
  5
13E6A
330
747D
100
AcDbEntity
  8
細線
 48
50.0
100
AcDbLine
 10
11447.75880607256
 20
4428.112805903256
 30
0.0
 11
11447.75880607256
 21
2338.112805903256
 31
0.0
  0
LINE
  5
13E6B
330
747D
100
AcDbEntity
  8
細線
 48
50.0
100
AcDbLine
 10
11432.75880607256
 20
4428.112805903256
 30
0.0
 11
11432.75880607256
 21
2338.112805903256
 31
0.0
  0
LINE
  5
13E6C
330
747D
100
AcDbEntity
  8
細線
 48
50.0
100
AcDbLine
 10
11852.75880607256
 20
4428.112805903256
 30
0.0
 11
11852.75880607256
 21
2338.112805903256
 31
0.0
  0
LINE
  5
13E6D
330
747D
100
AcDbEntity
  8
細線
 48
50.0
100
AcDbLine
 10
11867.75880607256
 20
4428.112805903256
 30
0.0
 11
11867.75880607256
 21
2338.112805903256
 31
0.0
  0
LINE
  5
13E6E
330
747D
100
AcDbEntity
  8
細線
 48
50.0
100
AcDbLine
 10
11727.75880607256
 20
4428.112805903256
 30
0.0
 11
11727.75880607256
 21
2338.112805903256
 31
0.0
  0
LINE
  5
13E6F
330
747D
100
AcDbEntity
  8
細線
 48
50.0
100
AcDbLine
 10
11712.75880607256
 20
4428.112805903256
 30
0.0
 11
11712.75880607256
 21
2338.112805903256
 31
0.0
  0
LINE
  5
13E70
330
747D
100
AcDbEntity
  8
細線
 48
50.0
100
AcDbLine
 10
11572.75880607256
 20
4428.112805903256
 30
0.0
 11
11572.75880607256
 21
2338.112805903256
 31
0.0
  0
LINE
  5
13E71
330
747D
100
AcDbEntity
  8
細線
 48
50.0
100
AcDbLine
 10
11587.75880607256
 20
4428.112805903256
 30
0.0
 11
11587.75880607256
 21
2338.112805903256
 31
0.0
  0
LINE
  5
13E72
330
747D
100
AcDbEntity
  8
部品1
100
AcDbLine
 10
11035.25880607256
 20
2288.112805903256
 30
0.0
 11
14085.25880607256
 21
2288.112805903256
 31
0.0
  0
DIMENSION
  5
13E8C
330
747D
100
AcDbEntity
  8
寸法
 48
50.0
100
AcDbDimension
  2
*D19
 10
10975.25880607256
 20
5291.883852268838
 30
0.0
 11
12646.96461238209
 21
5291.883852268838
 31
0.0
 70
   160
 71
     5
 42
3189.999999999996
  3
INABA_S40G
100
AcDbAlignedDimension
 13
14165.25880607256
 23
4608.112805903258
 33
0.0
 14
10975.25880607256
 24
4663.112805903261
 34
0.0
100
AcDbRotatedDimension
1001
ACAD
1000
DSTYLE
1002
{
1070
   174
1070
     0
1070
   272
1070
     1
1070
   288
1070
     0
1070
   341
1005
0
1002
}
  0
DIMENSION
  5
13E8D
330
747D
100
AcDbEntity
  8
寸法
 48
50.0
100
AcDbDimension
  2
*D20
 10
10975.25880607256
 20
5061.77025948256
 30
0.0
 11
10665.62101079697
 21
5061.77025948256
 31
0.0
 70
   160
 71
     5
 42
60.0
  3
INABA_S40G
100
AcDbAlignedDimension
 13
11035.25880607256
 23
4659.114424026233
 33
0.0
 14
10975.25880607256
 24
4663.112805903261
 34
0.0
100
AcDbRotatedDimension
1001
ACAD
1000
DSTYLE
1002
{
1070
   174
1070
     0
1070
   272
1070
     1
1070
   288
1070
     0
1070
   341
1005
0
1002
}
  0
DIMENSION
  5
13E8E
330
747D
100
AcDbEntity
  8
寸法
 48
50.0
100
AcDbDimension
  2
*D21
 10
11035.25880607256
 20
5061.770259482562
 30
0.0
 11
12605.31718063197
 21
5061.770259482562
 31
0.0
 70
   160
  1
柱外寸法<>
 71
     5
 42
3049.999999999997
  3
INABA_S40G
100
AcDbAlignedDimension
 13
14085.25880607256
 23
4609.923485514911
 33
0.0
 14
11035.25880607256
 24
4659.114424026233
 34
0.0
100
AcDbRotatedDimension
1001
ACAD
1000
DSTYLE
1002
{
1070
   174
1070
     0
1070
   272
1070
     1
1070
   288
1070
     0
1070
   341
1005
0
1002
}
  0
LINE
  5
13E91
330
747D
100
AcDbEntity
  8
部品1
100
AcDbLine
 10
14030.25880607256
 20
4428.112805903258
 30
0.0
 11
14030.25880607256
 21
2338.112805903258
 31
0.0
  0
LINE
  5
13E92
330
747D
100
AcDbEntity
  8
部品1
100
AcDbLine
 10
14085.25880607256
 20
4482.542833684377
 30
0.0
 11
14085.25880607256
 21
2188.112805903258
 31
0.0
  0
LINE
  5
13E93
330
747D
100
AcDbEntity
  8
部品1
100
AcDbLine
 10
11510.25880607256
 20
4428.112805903256
 30
0.0
 11
11510.25880607256
 21
2338.112805903256
 31
0.0
  0
DIMENSION
  5
13E94
330
747D
100
AcDbEntity
  8
寸法
100
AcDbDimension
  2
*D22
 10
10191.5086768893
 20
2288.112805903252
 30
0.0
 11
10191.5086768893
 21
1982.065561808765
 31
0.0
 70
   160
 71
     5
 42
50.00000000000454
  3
INABA_S40G
100
AcDbAlignedDimension
 13
11035.25880607256
 23
2338.112805903256
 33
0.0
 14
10958.25880607256
 24
2288.112805903252
 34
0.0
 50
90.0
100
AcDbRotatedDimension
1001
ACAD
1000
DSTYLE
1002
{
1070
   174
1070
     0
1070
   272
1070
     1
1070
   288
1070
     0
1070
   341
1005
0
1002
}
  0
LINE
  5
13E96
330
747D
100
AcDbEntity
  8
部品1
100
AcDbLine
 10
11035.25880607256
 20
4520.255243832134
 30
0.0
 11
11035.25880607256
 21
2188.112805903256
 31
0.0
  0
LINE
  5
13E97
330
747D
100
AcDbEntity
  8
部品1
100
AcDbLine
 10
11090.25880607256
 20
4428.112805903256
 30
0.0
 11
11090.25880607256
 21
2338.112805903256
 31
0.0
  0
LINE
  5
13E99
330
747D
100
AcDbEntity
  8
部品1
100
AcDbLine
 10
11035.25880607256
 20
2338.112805903256
 30
0.0
 11
14085.25880607256
 21
2338.112805903258
 31
0.0
  0
LINE
  5
13E9A
330
747D
100
AcDbEntity
  8
部品1
100
AcDbLine
 10
11035.25880607256
 20
4428.112805903256
 30
0.0
 11
14085.25880607255
 21
4428.112805903256
 31
0.0
  0
LINE
  5
13E9B
330
747D
100
AcDbEntity
  8
部品1
100
AcDbLine
 10
14030.25880607255
 20
4428.11280590326
 30
0.0
 11
14030.25880607255
 21
2338.11280590326
 31
0.0
  0
LINE
  5
13E9C
330
747D
100
AcDbEntity
  8
細線
 48
50.0
100
AcDbLine
 10
12692.75880607256
 20
4428.112805903256
 30
0.0
 11
12692.75880607257
 21
2338.112805903256
 31
0.0
  0
LINE
  5
13E9D
330
747D
100
AcDbEntity
  8
細線
 48
50.0
100
AcDbLine
 10
12707.75880607256
 20
4428.112805903256
 30
0.0
 11
12707.75880607256
 21
2338.112805903256
 31
0.0
  0
LINE
  5
13E9E
330
747D
100
AcDbEntity
  8
細線
 48
50.0
100
AcDbLine
 10
12567.75880607256
 20
4428.112805903256
 30
0.0
 11
12567.75880607256
 21
2338.112805903256
 31
0.0
  0
LINE
  5
13E9F
330
747D
100
AcDbEntity
  8
細線
 48
50.0
100
AcDbLine
 10
12552.75880607256
 20
4428.112805903256
 30
0.0
 11
12552.75880607257
 21
2338.112805903256
 31
0.0
  0
LINE
  5
13EA0
330
747D
100
AcDbEntity
  8
細線
 48
50.0
100
AcDbLine
 10
12412.75880607256
 20
4428.112805903256
 30
0.0
 11
12412.75880607257
 21
2338.112805903256
 31
0.0
  0
LINE
  5
13EA1
330
747D
100
AcDbEntity
  8
細線
 48
50.0
100
AcDbLine
 10
12427.75880607256
 20
4428.112805903256
 30
0.0
 11
12427.75880607256
 21
2338.112805903256
 31
0.0
  0
TEXT
  5
13EA2
330
747D
100
AcDbEntity
  8
部品1
 48
50.0
100
AcDbText
 10
12905.12795012793
 20
4685.381898841563
 30
0.0
 40
120.0
  1
32
 50
90.0
  7
STYLE1
100
AcDbText
  0
TEXT
  5
13EA3
330
747D
100
AcDbEntity
  8
部品1
 48
50.0
100
AcDbText
 10
12427.49492746284
 20
4822.883157059846
 30
0.0
 40
120.0
  1
1000
  7
STYLE1
100
AcDbText
  0
LINE
  5
13EA4
330
747D
100
AcDbEntity
  8
部品1
 48
50.0
100
AcDbLine
 10
12739.22709223911
 20
4786.999134907413
 30
0.0
 11
12739.22709223911
 21
4770.799134907413
 31
0.0
  0
LINE
  5
13EA5
330
747D
100
AcDbEntity
  8
部品1
 48
50.0
100
AcDbLine
 10
12439.22709223911
 20
4786.999134907413
 30
0.0
 11
12739.22709223911
 21
4786.999134907413
 31
0.0
  0
LINE
  5
13EA6
330
747D
100
AcDbEntity
  8
部品1
100
AcDbLine
 10
10982.80379242952
 20
4661.830541237523
 30
0.0
 11
14157.87068293403
 21
4606.753603612395
 31
0.0
  0
LINE
  5
13EA7
330
747D
100
AcDbEntity
  8
部品1
100
AcDbLine
 10
10990.60137067451
 20
4520.893830972223
 30
0.0
 11
14139.92250661241
 21
4481.865405738018
 31
0.0
  0
LINE
  5
13EA8
330
747D
100
AcDbEntity
  8
細線
 48
50.0
100
AcDbLine
 10
11008.25880607256
 20
4660.512482278661
 30
0.0
 11
11002.96970451705
 21
4520.426849651307
 31
0.0
  0
LINE
  5
13EA9
330
747D
100
AcDbEntity
  8
細線
 48
50.0
100
AcDbLine
 10
14132.22808926625
 20
4607.266228382726
 30
0.0
 11
14127.51112318457
 21
4482.334012447809
 31
0.0
  0
LINE
  5
13EAA
330
747D
100
AcDbEntity
  8
部品1
 48
50.0
100
AcDbLine
 10
10975.44309198567
 20
4654.706352067949
 30
0.0
 11
10975.82335176348
 21
4634.779387621537
 31
0.0
  0
LINE
  5
13EAB
330
747D
100
AcDbEntity
  8
部品1
 48
50.0
100
AcDbLine
 10
10978.89212386973
 20
4631.204106128065
 30
0.0
 11
10980.59602536109
 21
4541.913609421418
 31
0.0
  0
LINE
  5
13EAC
330
747D
100
AcDbEntity
  8
細線
 48
50.0
100
AcDbLine
 10
10976.29822917338
 20
4634.129887744617
 30
0.0
 11
14161.93421391855
 21
4578.50568310379
 31
0.0
  0
LINE
  5
13EAD
330
747D
100
AcDbEntity
  8
細線
 48
50.0
100
AcDbLine
 10
10981.05870441066
 20
4541.268376046754
 30
0.0
 11
14151.0623688413
 21
4501.459057072261
 31
0.0
  0
LINE
  5
13EAE
330
747D
100
AcDbEntity
  8
部品1
 48
50.0
100
AcDbLine
 10
10983.66479746733
 20
4538.338327927946
 30
0.0
 11
10983.86675008776
 21
4527.755292534854
 31
0.0
  0
ARC
  5
13EAF
330
747D
100
AcDbEntity
  8
部品1
 48
50.0
100
AcDbCircle
 10
10982.44181781401
 20
4654.839906475376
 30
0.0
 40
7.0
100
AcDbArc
 50
87.03587545283228
 51
181.0932240293156
  0
ARC
  5
13EB0
330
747D
100
AcDbEntity
  8
部品1
 48
50.0
100
AcDbCircle
 10
10990.8654759161
 20
4527.888846942281
 30
0.0
 40
7.0
100
AcDbArc
 50
181.0932240293156
 51
267.8377559869492
  0
ARC
  5
13EB1
330
747D
100
AcDbEntity
  8
部品1
100
AcDbCircle
 10
10980.6653435409
 20
4538.281090324763
 30
0.0
 40
3.0
100
AcDbArc
 50
1.093224029315636
 51
80.18775403169875
  0
ARC
  5
13EB2
330
747D
100
AcDbEntity
  8
部品1
100
AcDbCircle
 10
10975.8926699433
 20
4631.146868524882
 30
0.0
 40
3.0
100
AcDbArc
 50
1.093224029315636
 51
80.18775403169875
  0
ARC
  5
13EB3
330
747D
100
AcDbEntity
  8
部品1
100
AcDbCircle
 10
10976.52322434632
 20
4634.79274306228
 30
0.0
 40
0.7
100
AcDbArc
 50
181.0932240292114
 51
260.1877540314845
  0
ARC
  5
13EB4
330
747D
100
AcDbEntity
  8
部品1
100
AcDbCircle
 10
10981.29589794393
 20
4541.92696486216
 30
0.0
 40
0.7
100
AcDbArc
 50
181.0932240292635
 51
260.1877540314845
  0
LINE
  5
13EB5
330
747D
100
AcDbEntity
  8
部品1
 48
50.0
100
AcDbLine
 10
14164.47270888327
 20
4599.053958177475
 30
0.0
 11
14162.4420876923
 21
4579.108916919696
 31
0.0
  0
LINE
  5
13EB6
330
747D
100
AcDbEntity
  8
部品1
 48
50.0
100
AcDbLine
 10
14159.08952120781
 20
4575.798282846786
 30
0.0
 11
14151.58274194298
 21
4502.065662101774
 31
0.0
  0
LINE
  5
13EB7
330
747D
100
AcDbEntity
  8
部品1
 48
50.0
100
AcDbLine
 10
14148.23017545849
 20
4498.755028028862
 30
0.0
 11
14147.15061241875
 21
4488.151411035303
 31
0.0
  0
ARC
  5
13EB8
330
747D
100
AcDbEntity
  8
部品1
 48
50.0
100
AcDbCircle
 10
14157.50870831851
 20
4599.76296885025
 30
0.0
 40
7.0
100
AcDbArc
 50
354.1866997665532
 51
87.03587545283228
  0
ARC
  5
13EB9
330
747D
100
AcDbEntity
  8
部品1
 48
50.0
100
AcDbCircle
 10
14140.186611854
 20
4488.860421708078
 30
0.0
 40
7.0
100
AcDbArc
 50
267.8377559869492
 51
354.1866997665532
  0
ARC
  5
13EBA
330
747D
100
AcDbEntity
  8
部品1
100
AcDbCircle
 10
14151.2147471291
 20
4498.451166311959
 30
0.0
 40
3.0
100
AcDbArc
 50
95.09216976420788
 51
174.1866997665532
  0
ARC
  5
13EBB
330
747D
100
AcDbEntity
  8
部品1
100
AcDbCircle
 10
14162.07409287842
 20
4575.494421129883
 30
0.0
 40
3.0
100
AcDbArc
 50
95.09216976420788
 51
174.1866997665532
  0
ARC
  5
13EBC
330
747D
100
AcDbEntity
  8
部品1
100
AcDbCircle
 10
14161.74568763582
 20
4579.179817986973
 30
0.0
 40
0.7
100
AcDbArc
 50
275.0921697642079
 51
354.1866997665532
  0
ARC
  5
13EBD
330
747D
100
AcDbEntity
  8
部品1
100
AcDbCircle
 10
14150.8863418865
 20
4502.13656316905
 30
0.0
 40
0.7
100
AcDbArc
 50
275.0921697642079
 51
354.1866997667087
  0
LINE
  5
13EBE
330
747D
100
AcDbEntity
  8
部品1
100
AcDbLine
 10
12413.77207859607
 20
4788.317193866275
 30
0.0
 11
12739.22709223911
 21
4770.799134907413
 31
0.0
  0
LINE
  5
13EBF
330
747D
100
AcDbEntity
  8
部品1
100
AcDbLine
 10
12770.25880607256
 20
4428.112805903256
 30
0.0
 11
12770.25880607256
 21
2338.112805903258
 31
0.0
  0
LINE
  5
13EC0
330
747D
100
AcDbEntity
  8
細線
 48
50.0
100
AcDbLine
 10
12847.75880607256
 20
4428.112805903256
 30
0.0
 11
12847.75880607256
 21
2338.112805903258
 31
0.0
  0
LINE
  5
13EC1
330
747D
100
AcDbEntity
  8
細線
 48
50.0
100
AcDbLine
 10
12832.75880607256
 20
4428.112805903256
 30
0.0
 11
12832.75880607256
 21
2338.112805903258
 31
0.0
  0
LINE
  5
13EC2
330
747D
100
AcDbEntity
  8
細線
 48
50.0
100
AcDbLine
 10
12972.75880607256
 20
4428.112805903256
 30
0.0
 11
12972.75880607256
 21
2338.112805903258
 31
0.0
  0
LINE
  5
13EC3
330
747D
100
AcDbEntity
  8
細線
 48
50.0
100
AcDbLine
 10
12987.75880607256
 20
4428.112805903256
 30
0.0
 11
12987.75880607256
 21
2338.112805903258
 31
0.0
  0
LINE
  5
13EC4
330
747D
100
AcDbEntity
  8
細線
 48
50.0
100
AcDbLine
 10
13127.75880607256
 20
4428.112805903256
 30
0.0
 11
13127.75880607256
 21
2338.112805903258
 31
0.0
  0
LINE
  5
13EC5
330
747D
100
AcDbEntity
  8
細線
 48
50.0
100
AcDbLine
 10
13112.75880607256
 20
4428.112805903256
 30
0.0
 11
13112.75880607256
 21
2338.112805903258
 31
0.0
  0
DIMENSION
  5
13EC6
330
747D
100
AcDbEntity
  8
寸法
100
AcDbDimension
  2
*D23
 10
14790.18596404469
 20
4608.112805903257
 30
0.0
 11
14690.17415302106
 21
3448.11280590326
 31
0.0
 70
    32
 71
     5
 42
2320.0
  3
INABA_S40G
100
AcDbAlignedDimension
 13
14085.25880607256
 23
2288.112805903258
 33
0.0
 14
14165.25880607256
 24
4608.112805903258
 34
0.0
 50
90.0
100
AcDbRotatedDimension
1001
ACAD
1000
DSTYLE
1002
{
1070
   174
1070
     0
1070
   272
1070
     1
1070
   288
1070
     0
1070
   341
1005
0
1002
}
  0
DIMENSION
  5
13EC7
330
747D
100
AcDbEntity
  8
寸法
100
AcDbDimension
  2
*D24
 10
9891.508676889303
 20
4663.112805903256
 30
0.0
 11
9791.496865865681
 21
3475.612805903256
 31
0.0
 70
    32
 71
     5
 42
2375.000000000005
  3
INABA_S40G
100
AcDbAlignedDimension
 13
10958.25880607256
 23
2288.112805903252
 33
0.0
 14
10975.25880607256
 24
4663.112805903256
 34
0.0
 50
90.0
100
AcDbRotatedDimension
1001
ACAD
1000
DSTYLE
1002
{
1070
   174
1070
     0
1070
   272
1070
     1
1070
   288
1070
     0
1070
   341
1005
0
1002
}
  0
DIMENSION
  5
13EC8
330
747D
100
AcDbEntity
  8
寸法
100
AcDbDimension
  2
*D25
 10
10191.5086768893
 20
2338.112805903252
 30
0.0
 11
10091.49686586568
 21
3383.112805903254
 31
0.0
 70
    32
 71
     5
 42
2090.000000000001
  3
INABA_S40G
100
AcDbAlignedDimension
 13
11035.25880607256
 23
4428.112805903253
 33
0.0
 14
11035.25880607256
 24
2338.112805903252
 34
0.0
 50
90.0
100
AcDbRotatedDimension
1001
ACAD
1000
DSTYLE
1002
{
1070
   174
1070
     0
1070
   272
1070
     1
1070
   288
1070
     0
1070
   341
1005
0
1002
}
  0
LWPOLYLINE
  5
13ECB
330
747D
100
AcDbEntity
  8
部品1
100
AcDbPolyline
 90
        4
 70
     1
 43
0.0
 10
12188.52347295834
 20
1862.751840551128
 10
12188.52347295834
 20
1622.859519005596
 10
12951.99413918678
 20
1622.859519005596
 10
12951.99413918678
 20
1862.751840551128
  0
TEXT
  5
13ECC
330
747D
100
AcDbEntity
  8
部品1
100
AcDbText
 10
12277.96957438195
 20
1669.858311332605
 30
0.0
 40
135.0
  1
側面図
  7
STYLE2
100
AcDbText
  0
DIMENSION
  5
1406B
330
747D
100
AcDbEntity
  8
寸法
 48
50.0
100
AcDbDimension
  2
*D26
 10
10490.3501646753
 20
2354.112805903256
 30
0.0
 11
10398.33835365168
 21
3366.612805903259
 31
0.0
 70
    32
  1
有効開口部高サ<>
 71
     5
 42
2025.0
  3
INABA_S40
100
AcDbAlignedDimension
 13
10958.25880607256
 23
4379.112805903257
 33
0.0
 14
10958.25880607256
 24
2354.112805903256
 34
0.0
 50
90.0
100
AcDbRotatedDimension
1001
ACAD
1000
DSTYLE
1002
{
1070
    41
1040
0.5
1070
    44
1040
1.0
1070
   147
1040
0.8
1070
   271
1070
     2
1070
   272
1070
     2
1070
   289
1070
     3
1070
   340
1005
F706
1070
   343
1005
F744
1070
   344
1005
F744
1002
}
  0
LINE
  5
1406C
330
747D
100
AcDbEntity
  8
部品1
100
AcDbLine
 10
10958.25880607256
 20
4413.799910811658
 30
0.0
 11
10958.25880607256
 21
2188.112805903256
 31
0.0
  0
LINE
  5
1406D
330
747D
100
AcDbEntity
  8
部品1
100
AcDbLine
 10
10958.25880607256
 20
4413.799910811658
 30
0.0
 11
11035.25880607256
 21
4428.112805903256
 31
0.0
  0
LINE
  5
1406E
330
747D
100
AcDbEntity
  8
部品1
100
AcDbLine
 10
11035.25880607256
 20
2288.112805903256
 30
0.0
 11
10958.25880607256
 21
2288.112805903256
 31
0.0
  0
LINE
  5
15049
330
747D
100
AcDbEntity
  8
破線
 48
10.0
100
AcDbLine
 10
7264.40439792891
 20
7311.984525907596
 30
0.0
 11
7264.404397928931
 21
10251.9845259076
 31
0.0
  0
LINE
  5
1504A
330
747D
100
AcDbEntity
  8
破線
 48
10.0
100
AcDbLine
 10
7214.404397928918
 20
7311.984525907596
 30
0.0
 11
7214.404397928911
 21
10251.9845259076
 31
0.0
  0
LINE
  5
1504B
330
747D
100
AcDbEntity
  8
破線
 48
10.0
100
AcDbLine
 10
6523.404397928922
 20
7311.984525907599
 30
0.0
 11
6523.404397928904
 21
10251.9845259076
 31
0.0
  0
LINE
  5
1504C
330
747D
100
AcDbEntity
  8
破線
 48
10.0
100
AcDbLine
 10
6573.404397928912
 20
7311.984525907599
 30
0.0
 11
6573.404397928917
 21
10251.9845259076
 31
0.0
  0
LINE
  5
1504D
330
747D
100
AcDbEntity
  8
破線
 48
10.0
100
AcDbLine
 10
4363.404397928909
 20
7311.984525907596
 30
0.0
 11
4363.404397928914
 21
10251.9845259076
 31
0.0
  0
LINE
  5
1504E
330
747D
100
AcDbEntity
  8
破線
 48
10.0
100
AcDbLine
 10
4313.404397928918
 20
7311.984525907596
 30
0.0
 11
4313.404397928901
 21
10251.9845259076
 31
0.0
  0
LINE
  5
1504F
330
747D
100
AcDbEntity
  8
破線
 48
10.0
100
AcDbLine
 10
5004.404397928914
 20
7311.984525907594
 30
0.0
 11
5004.40439792891
 21
10251.9845259076
 31
0.0
  0
LINE
  5
15050
330
747D
100
AcDbEntity
  8
破線
 48
10.0
100
AcDbLine
 10
5054.404397928905
 20
7311.984525907594
 30
0.0
 11
5054.404397928926
 21
10251.9845259076
 31
0.0
  0
LINE
  5
15051
330
747D
100
AcDbEntity
  8
破線
  6
HIDDEN
 48
10.0
100
AcDbLine
 10
3657.404397928891
 20
7335.484525907595
 30
0.0
 11
4313.404397928918
 21
7335.484525907594
 31
0.0
  0
LINE
  5
15052
330
747D
100
AcDbEntity
  8
破線
  6
HIDDEN
 48
10.0
100
AcDbLine
 10
4363.404397928909
 20
7335.484525907594
 30
0.0
 11
5004.404397928914
 21
7335.484525907592
 31
0.0
  0
LINE
  5
15053
330
747D
100
AcDbEntity
  8
破線
  6
HIDDEN
 48
10.0
100
AcDbLine
 10
5054.404397928905
 20
7335.484525907595
 30
0.0
 11
5710.404397928894
 21
7335.484525907592
 31
0.0
  0
LINE
  5
15054
330
747D
100
AcDbEntity
  8
破線
  6
HIDDEN
 48
10.0
100
AcDbLine
 10
5867.404397928894
 20
7335.484525907597
 30
0.0
 11
6523.404397928922
 21
7335.484525907595
 31
0.0
  0
LINE
  5
15055
330
747D
100
AcDbEntity
  8
破線
  6
HIDDEN
 48
10.0
100
AcDbLine
 10
6573.404397928912
 20
7335.484525907595
 30
0.0
 11
7214.404397928918
 21
7335.484525907592
 31
0.0
  0
LINE
  5
15056
330
747D
100
AcDbEntity
  8
破線
  6
HIDDEN
 48
10.0
100
AcDbLine
 10
7264.40439792891
 20
7335.484525907597
 30
0.0
 11
7920.404397928898
 21
7335.484525907594
 31
0.0
  0
LINE
  5
15057
330
747D
100
AcDbEntity
  8
破線
  6
HIDDEN
 48
10.0
100
AcDbLine
 10
3657.404397928895
 20
10228.4845259076
 30
0.0
 11
4313.404397928907
 21
10228.48452590759
 31
0.0
  0
LINE
  5
15058
330
747D
100
AcDbEntity
  8
破線
  6
HIDDEN
 48
10.0
100
AcDbLine
 10
4363.404397928912
 20
10228.4845259076
 30
0.0
 11
5004.404397928911
 21
10228.4845259076
 31
0.0
  0
LINE
  5
15059
330
747D
100
AcDbEntity
  8
破線
  6
HIDDEN
 48
10.0
100
AcDbLine
 10
5054.404397928919
 20
10228.4845259076
 30
0.0
 11
5710.404397928898
 21
10228.4845259076
 31
0.0
  0
LINE
  5
1505A
330
747D
100
AcDbEntity
  8
破線
  6
HIDDEN
 48
10.0
100
AcDbLine
 10
6523.40439792891
 20
10228.4845259076
 30
0.0
 11
5867.404397928901
 21
10228.4845259076
 31
0.0
  0
LINE
  5
1505B
330
747D
100
AcDbEntity
  8
破線
  6
HIDDEN
 48
10.0
100
AcDbLine
 10
7214.404397928912
 20
10228.4845259076
 30
0.0
 11
6573.404397928917
 21
10228.48452590759
 31
0.0
  0
LINE
  5
1505C
330
747D
100
AcDbEntity
  8
破線
  6
HIDDEN
 48
10.0
100
AcDbLine
 10
7920.404397928898
 20
10228.4845259076
 30
0.0
 11
7264.404397928924
 21
10228.4845259076
 31
0.0
  0
LINE
  5
152E6
330
747D
100
AcDbEntity
  8
部品1
100
AcDbLine
 10
5778.904397928898
 20
4522.112805903258
 30
0.0
 11
5778.904397928897
 21
4663.112805903256
 31
0.0
  0
LINE
  5
1573B
330
747D
100
AcDbEntity
  8
寸法
 48
50.0
100
AcDbLine
 10
4069.107404210743
 20
7035.021277476457
 30
0.0
 11
4017.70139630064
 21
7035.021277476457
 31
0.0
  0
LINE
  5
1573C
330
747D
100
AcDbEntity
  8
寸法
 48
50.0
100
AcDbLine
 10
4017.70139630064
 20
7035.021277476457
 30
0.0
 11
4017.70139630064
 21
7066.331436128622
 31
0.0
  0
LINE
  5
1573D
330
747D
100
AcDbEntity
  8
寸法
 48
50.0
100
AcDbLine
 10
4017.70139630064
 20
7066.331436128622
 30
0.0
 11
3987.940064309217
 21
7066.331436128622
 31
0.0
  0
LINE
  5
1573E
330
747D
100
AcDbEntity
  8
寸法
 48
50.0
100
AcDbLine
 10
3987.940064309217
 20
7066.331436128622
 30
0.0
 11
4043.404400255692
 21
7103.910887057233
 31
0.0
  0
LINE
  5
1573F
330
747D
100
AcDbEntity
  8
寸法
 48
50.0
100
AcDbLine
 10
4098.868736202167
 20
7066.331436128622
 30
0.0
 11
4043.404400255692
 21
7103.910887057233
 31
0.0
  0
LINE
  5
15740
330
747D
100
AcDbEntity
  8
寸法
 48
50.0
100
AcDbLine
 10
4069.107404210743
 20
7066.331436128622
 30
0.0
 11
4098.868736202167
 21
7066.331436128622
 31
0.0
  0
LINE
  5
15741
330
747D
100
AcDbEntity
  8
寸法
 48
50.0
100
AcDbLine
 10
4069.107404210743
 20
7035.021277476457
 30
0.0
 11
4069.107404210743
 21
7066.331436128622
 31
0.0
  0
LINE
  5
15742
330
747D
100
AcDbEntity
  8
寸法
 48
50.0
100
AcDbLine
 10
4017.70139630064
 20
7035.021277476457
 30
0.0
 11
4069.107404210743
 21
7035.021277476457
 31
0.0
  0
LINE
  5
15743
330
747D
100
AcDbEntity
  8
寸法
 48
50.0
100
AcDbLine
 10
4348.272938487601
 20
7092.16686823128
 30
0.0
 11
4348.272938487601
 21
7038.50323364949
 31
0.0
  0
LINE
  5
15744
330
747D
100
AcDbEntity
  8
寸法
 48
50.0
100
AcDbLine
 10
4437.557157083023
 20
7068.243233961793
 30
0.0
 11
4348.272938487601
 21
7092.16686823128
 31
0.0
  0
LINE
  5
15745
330
747D
100
AcDbEntity
  8
寸法
 48
50.0
100
AcDbLine
 10
4218.405216907298
 20
7068.243233961793
 30
0.0
 11
4437.557157083023
 21
7068.243233961793
 31
0.0
  0
LINE
  5
15746
330
747D
100
AcDbEntity
  8
細線
 48
50.0
100
AcDbLine
 10
5094.904397928903
 20
7233.484640856319
 30
0.0
 11
5721.904397928899
 21
7233.484640856319
 31
0.0
  0
LINE
  5
15747
330
747D
100
AcDbEntity
  8
細線
 48
50.0
100
AcDbLine
 10
4440.904402582488
 20
7199.775872302244
 30
0.0
 11
5721.904397928899
 21
7199.775872302244
 31
0.0
  0
LINE
  5
15748
330
747D
100
AcDbEntity
  8
細線
 48
50.0
100
AcDbLine
 10
4399.904402582492
 20
7229.180780298496
 30
0.0
 11
3645.904397928899
 21
7229.180780298493
 31
0.0
  0
LINE
  5
15749
330
747D
100
AcDbEntity
  8
細線
100
AcDbLine
 10
5497.654388512443
 20
7252.984540821327
 30
0.0
 11
5499.985928034252
 21
7257.984543461289
 31
0.0
  0
LINE
  5
1574A
330
747D
100
AcDbEntity
  8
細線
100
AcDbLine
 10
5567.6543979289
 20
7252.984525907594
 30
0.0
 11
5565.322851452712
 21
7257.984543461275
 31
0.0
  0
LINE
  5
1574B
330
747D
100
AcDbEntity
  8
細線
100
AcDbLine
 10
5565.322851452712
 20
7257.984543461275
 30
0.0
 11
5499.985928034237
 21
7257.984543461259
 31
0.0
  0
LINE
  5
1574C
330
747D
100
AcDbEntity
  8
細線
100
AcDbLine
 10
5425.322851452713
 20
7257.984543461275
 30
0.0
 11
5359.985928034237
 21
7257.984543461259
 31
0.0
  0
LINE
  5
1574D
330
747D
100
AcDbEntity
  8
細線
100
AcDbLine
 10
5427.6543979289
 20
7252.984525907594
 30
0.0
 11
5425.322851452713
 21
7257.984543461275
 31
0.0
  0
LINE
  5
1574E
330
747D
100
AcDbEntity
  8
細線
100
AcDbLine
 10
5357.654388512443
 20
7252.984540821327
 30
0.0
 11
5359.985928034252
 21
7257.984543461289
 31
0.0
  0
LINE
  5
1574F
330
747D
100
AcDbEntity
  8
細線
100
AcDbLine
 10
5217.6543979289
 20
7252.984525907594
 30
0.0
 11
5219.985937450712
 21
7257.984528547556
 31
0.0
  0
LINE
  5
15750
330
747D
100
AcDbEntity
  8
細線
100
AcDbLine
 10
5287.65440734536
 20
7252.984510993859
 30
0.0
 11
5285.32286086917
 21
7257.98452854754
 31
0.0
  0
LINE
  5
15751
330
747D
100
AcDbEntity
  8
細線
100
AcDbLine
 10
5285.322860869174
 20
7257.98452854754
 30
0.0
 11
5219.985937450697
 21
7257.984528547526
 31
0.0
  0
LINE
  5
15752
330
747D
100
AcDbEntity
  8
細線
100
AcDbLine
 10
4990.072882118006
 20
7223.984565244922
 30
0.0
 11
4924.735958699531
 21
7223.984565244908
 31
0.0
  0
LINE
  5
15753
330
747D
100
AcDbEntity
  8
細線
100
AcDbLine
 10
4992.404428594194
 20
7218.984547691241
 30
0.0
 11
4990.072882118006
 21
7223.984565244922
 31
0.0
  0
LINE
  5
15754
330
747D
100
AcDbEntity
  8
細線
100
AcDbLine
 10
4922.404419177737
 20
7218.984562604976
 30
0.0
 11
4924.735958699546
 21
7223.984565244937
 31
0.0
  0
LINE
  5
15755
330
747D
100
AcDbEntity
  8
細線
 48
50.0
100
AcDbLine
 10
4763.787777176913
 20
7237.255389060674
 30
0.0
 11
4769.543294759581
 21
7218.984537770187
 31
0.0
  0
LINE
  5
15756
330
747D
100
AcDbEntity
  8
細線
 48
50.0
100
AcDbLine
 10
4752.859328696483
 20
7237.255389060674
 30
0.0
 11
4763.787777176913
 21
7237.255389060674
 31
0.0
  0
ARC
  5
15757
330
747D
100
AcDbEntity
  8
細線
 48
50.0
100
AcDbCircle
 10
4747.404972639161
 20
7238.755389060674
 30
0.0
 40
5.0
100
AcDbArc
 50
204.6243183521264
 51
335.3756816478736
  0
ARC
  5
15758
330
747D
100
AcDbEntity
  8
細線
 48
50.0
100
AcDbCircle
 10
4752.859328696483
 20
7236.255389060675
 30
0.0
 40
1.0
100
AcDbArc
 50
90.0
 51
155.3756816478736
  0
ARC
  5
15759
330
747D
100
AcDbEntity
  8
細線
 48
50.0
100
AcDbCircle
 10
4741.950616581847
 20
7236.255389060675
 30
0.0
 40
1.0
100
AcDbArc
 50
24.62431835212641
 51
90.0
  0
LINE
  5
1575A
330
747D
100
AcDbEntity
  8
細線
 48
50.0
100
AcDbLine
 10
4731.022168101413
 20
7237.255389060674
 30
0.0
 11
4741.950616581847
 21
7237.255389060674
 31
0.0
  0
LINE
  5
1575B
330
747D
100
AcDbEntity
  8
細線
 48
50.0
100
AcDbLine
 10
4725.266650518745
 20
7218.98453777018
 30
0.0
 11
4731.022168101413
 21
7237.255389060674
 31
0.0
  0
LINE
  5
1575C
330
747D
100
AcDbEntity
  8
細線
100
AcDbLine
 10
4782.404420408777
 20
7218.984535135985
 30
0.0
 11
4784.73595993059
 21
7223.984537775947
 31
0.0
  0
LINE
  5
1575D
330
747D
100
AcDbEntity
  8
細線
100
AcDbLine
 10
4852.404429825238
 20
7218.98452022225
 30
0.0
 11
4850.072883349048
 21
7223.984537775931
 31
0.0
  0
LINE
  5
1575E
330
747D
100
AcDbEntity
  8
細線
100
AcDbLine
 10
4850.072883349048
 20
7223.984537775931
 30
0.0
 11
4784.735959930575
 21
7223.984537775916
 31
0.0
  0
LINE
  5
1575F
330
747D
100
AcDbEntity
  8
細線
100
AcDbLine
 10
4710.07285498453
 20
7223.984537770151
 30
0.0
 11
4644.735931566055
 21
7223.984537770137
 31
0.0
  0
LINE
  5
15760
330
747D
100
AcDbEntity
  8
細線
100
AcDbLine
 10
4712.404401460718
 20
7218.98452021647
 30
0.0
 11
4710.07285498453
 21
7223.984537770151
 31
0.0
  0
LINE
  5
15761
330
747D
100
AcDbEntity
  8
細線
100
AcDbLine
 10
4642.404393275302
 20
7218.98453777018
 30
0.0
 11
4644.73593156607
 21
7223.984537770165
 31
0.0
  0
LINE
  5
15762
330
747D
100
AcDbEntity
  8
細線
100
AcDbLine
 10
4502.404428594194
 20
7218.98454595755
 30
0.0
 11
4504.735966884961
 21
7223.984545957534
 31
0.0
  0
LINE
  5
15763
330
747D
100
AcDbEntity
  8
細線
100
AcDbLine
 10
4572.404436779609
 20
7218.98452840384
 30
0.0
 11
4570.072890303422
 21
7223.984545957518
 31
0.0
  0
LINE
  5
15764
330
747D
100
AcDbEntity
  8
細線
100
AcDbLine
 10
4570.072890303422
 20
7223.984545957518
 30
0.0
 11
4504.735966884946
 21
7223.984545957506
 31
0.0
  0
LINE
  5
15765
330
747D
100
AcDbEntity
  8
細線
100
AcDbLine
 10
4130.904394397073
 20
7184.984717638262
 30
0.0
 11
4133.23593268784
 21
7189.984717638248
 31
0.0
  0
LINE
  5
15766
330
747D
100
AcDbEntity
  8
細線
100
AcDbLine
 10
4200.904402582488
 20
7184.98470008455
 30
0.0
 11
4198.572856106301
 21
7189.984717638226
 31
0.0
  0
LINE
  5
15767
330
747D
100
AcDbEntity
  8
細線
100
AcDbLine
 10
4198.572856106301
 20
7189.984717638226
 30
0.0
 11
4133.23593268783
 21
7189.984717638219
 31
0.0
  0
LINE
  5
15768
330
747D
100
AcDbEntity
  8
細線
100
AcDbLine
 10
4338.572856106302
 20
7189.984717638226
 30
0.0
 11
4273.235932687829
 21
7189.984717638219
 31
0.0
  0
LINE
  5
15769
330
747D
100
AcDbEntity
  8
細線
100
AcDbLine
 10
4340.904402582489
 20
7184.98470008455
 30
0.0
 11
4338.572856106302
 21
7189.984717638226
 31
0.0
  0
LINE
  5
1576A
330
747D
100
AcDbEntity
  8
細線
100
AcDbLine
 10
4270.904394397073
 20
7184.984717638262
 30
0.0
 11
4273.23593268784
 21
7189.984717638248
 31
0.0
  0
LINE
  5
1576B
330
747D
100
AcDbEntity
  8
細線
100
AcDbLine
 10
4058.572856106301
 20
7189.984717638226
 30
0.0
 11
3993.23593268783
 21
7189.984717638215
 31
0.0
  0
LINE
  5
1576C
330
747D
100
AcDbEntity
  8
細線
100
AcDbLine
 10
4060.904402582488
 20
7184.98470008455
 30
0.0
 11
4058.572856106301
 21
7189.984717638226
 31
0.0
  0
LINE
  5
1576D
330
747D
100
AcDbEntity
  8
細線
100
AcDbLine
 10
3990.904394397073
 20
7184.984717638259
 30
0.0
 11
3993.235932687841
 21
7189.984717638245
 31
0.0
  0
LINE
  5
1576E
330
747D
100
AcDbEntity
  8
細線
100
AcDbLine
 10
3850.904402582489
 20
7184.984717638262
 30
0.0
 11
3853.235940873257
 21
7189.984717638248
 31
0.0
  0
LINE
  5
1576F
330
747D
100
AcDbEntity
  8
細線
100
AcDbLine
 10
3920.904410767905
 20
7184.98470008455
 30
0.0
 11
3918.572864291718
 21
7189.984717638226
 31
0.0
  0
LINE
  5
15770
330
747D
100
AcDbEntity
  8
細線
100
AcDbLine
 10
3918.572864291718
 20
7189.984717638226
 30
0.0
 11
3853.235940873246
 21
7189.984717638219
 31
0.0
  0
ARC
  5
15771
330
747D
100
AcDbEntity
  8
部品1
 48
0.01
100
AcDbCircle
 10
3806.404291330153
 20
7183.983595453191
 30
0.0
 40
0.5
100
AcDbArc
 50
270.0
 51
0.0
  0
LINE
  5
15772
330
747D
100
AcDbEntity
  8
部品1
 48
0.01
100
AcDbLine
 10
3806.904291330154
 20
7184.983595453189
 30
0.0
 11
3806.904291330154
 21
7183.983595453191
 31
0.0
  0
LINE
  5
15773
330
747D
100
AcDbEntity
  8
部品1
 48
0.01
100
AcDbLine
 10
3806.904291330154
 20
7184.983595453189
 30
0.0
 11
3806.904291330154
 21
7183.983595453191
 31
0.0
  0
LINE
  5
15774
330
747D
100
AcDbEntity
  8
部品1
 48
0.01
100
AcDbLine
 10
3806.404291330153
 20
7183.483595453189
 30
0.0
 11
3799.791785900089
 21
7183.483595453189
 31
0.0
  0
ARC
  5
15775
330
747D
100
AcDbEntity
  8
部品1
100
AcDbCircle
 10
3799.86013545287
 20
7184.48359545319
 30
0.0
 40
1.0
100
AcDbArc
 50
160.5287793655822
 51
270.0
  0
ARC
  5
15776
330
747D
100
AcDbEntity
  8
部品1
100
AcDbCircle
 10
3774.404291330153
 20
7193.483595453191
 30
0.0
 40
26.0
100
AcDbArc
 50
340.5287793655822
 51
0.0
  0
LINE
  5
15777
330
747D
100
AcDbEntity
  8
部品1
100
AcDbLine
 10
3800.404291330154
 20
7193.483595453191
 30
0.0
 11
3800.404291330154
 21
7198.48359545319
 31
0.0
  0
ARC
  5
15778
330
747D
100
AcDbEntity
  8
部品1
 48
0.01
100
AcDbCircle
 10
3798.404291330154
 20
7198.48359545319
 30
0.0
 40
2.0
100
AcDbArc
 50
0.0
 51
90.0
  0
ARC
  5
15779
330
747D
100
AcDbEntity
  8
部品1
100
AcDbCircle
 10
3796.795899705344
 20
7197.483595453189
 30
0.0
 40
3.0
100
AcDbArc
 50
90.0
 51
141.6069559807873
  0
LINE
  5
1577A
330
747D
100
AcDbEntity
  8
部品1
 48
0.01
100
AcDbLine
 10
3798.404291330154
 20
7200.48359545319
 30
0.0
 11
3796.795899705344
 21
7200.48359545319
 31
0.0
  0
ARC
  5
1577B
330
747D
100
AcDbEntity
  8
部品1
100
AcDbCircle
 10
3778.333577115883
 20
7196.783595453194
 30
0.0
 40
3.0
100
AcDbArc
 50
254.0576313943183
 51
270.0
  0
ARC
  5
1577C
330
747D
100
AcDbEntity
  8
部品1
100
AcDbCircle
 10
3785.475005544425
 20
7196.783595453194
 30
0.0
 40
3.0
100
AcDbArc
 50
270.0
 51
285.9423686056817
  0
LINE
  5
1577D
330
747D
100
AcDbEntity
  8
部品1
100
AcDbLine
 10
3785.475005544425
 20
7193.783595453194
 30
0.0
 11
3778.333577115883
 21
7193.783595453194
 31
0.0
  0
ARC
  5
1577E
330
747D
100
AcDbEntity
  8
部品1
100
AcDbCircle
 10
3781.904291330154
 20
7209.283595453193
 30
0.0
 40
16.0
100
AcDbArc
 50
285.9423686056817
 51
321.6069559807873
  0
LINE
  5
1577F
330
747D
100
AcDbEntity
  8
部品1
 48
0.01
100
AcDbLine
 10
3765.404291330154
 20
7200.48359545319
 30
0.0
 11
3767.012682954964
 21
7200.48359545319
 31
0.0
  0
ARC
  5
15780
330
747D
100
AcDbEntity
  8
部品1
100
AcDbCircle
 10
3767.012682954964
 20
7197.483595453189
 30
0.0
 40
3.0
100
AcDbArc
 50
38.39304401921267
 51
90.0
  0
ARC
  5
15781
330
747D
100
AcDbEntity
  8
部品1
100
AcDbCircle
 10
3781.904291330154
 20
7209.283595453193
 30
0.0
 40
16.0
100
AcDbArc
 50
218.3930440192126
 51
254.0576313943183
  0
LINE
  5
15782
330
747D
100
AcDbEntity
  8
部品1
100
AcDbLine
 10
3763.404291330154
 20
7193.483595453191
 30
0.0
 11
3763.404291330154
 21
7198.48359545319
 31
0.0
  0
ARC
  5
15783
330
747D
100
AcDbEntity
  8
部品1
 48
0.01
100
AcDbCircle
 10
3765.404291330154
 20
7198.48359545319
 30
0.0
 40
2.0
100
AcDbArc
 50
90.0
 51
180.0
  0
ARC
  5
15784
330
747D
100
AcDbEntity
  8
部品1
100
AcDbCircle
 10
3789.404291330154
 20
7193.483595453191
 30
0.0
 40
26.0
100
AcDbArc
 50
180.0
 51
199.4712206344178
  0
ARC
  5
15785
330
747D
100
AcDbEntity
  8
部品1
 48
0.01
100
AcDbCircle
 10
3757.404291330154
 20
7183.983595453191
 30
0.0
 40
0.5
100
AcDbArc
 50
180.0
 51
270.0
  0
LINE
  5
15786
330
747D
100
AcDbEntity
  8
部品1
 48
0.01
100
AcDbLine
 10
3757.404291330154
 20
7183.483595453189
 30
0.0
 11
3763.948447207437
 21
7183.483595453189
 31
0.0
  0
LINE
  5
15787
330
747D
100
AcDbEntity
  8
部品1
 48
0.01
100
AcDbLine
 10
3756.904291330154
 20
7184.983595453189
 30
0.0
 11
3756.904291330154
 21
7183.983595453191
 31
0.0
  0
ARC
  5
15788
330
747D
100
AcDbEntity
  8
部品1
100
AcDbCircle
 10
3763.948447207437
 20
7184.48359545319
 30
0.0
 40
1.0
100
AcDbArc
 50
270.0
 51
19.4712206344178
  0
LINE
  5
15789
330
747D
100
AcDbEntity
  8
細線
100
AcDbLine
 10
3802.404291330161
 20
7202.983595453193
 30
0.0
 11
3761.404291330161
 21
7202.983595453186
 31
0.0
  0
LINE
  5
1578A
330
747D
100
AcDbEntity
  8
細線
100
AcDbLine
 10
3761.404291330161
 20
7202.983595453186
 30
0.0
 11
3761.404291330161
 21
7184.983595453168
 31
0.0
  0
LINE
  5
1578B
330
747D
100
AcDbEntity
  8
細線
100
AcDbLine
 10
3802.404291330161
 20
7202.983595453193
 30
0.0
 11
3802.404291330161
 21
7184.983595453168
 31
0.0
  0
LINE
  5
1578C
330
747D
100
AcDbEntity
  8
細線
100
AcDbLine
 10
3645.904397928899
 20
7188.984525907594
 30
0.0
 11
3645.904397928899
 21
7184.984525907641
 31
0.0
  0
DIMENSION
  5
1578D
330
747D
100
AcDbEntity
  8
寸法
 48
50.0
100
AcDbDimension
  2
*D28
 10
4911.904397928899
 20
6536.474177692253
 30
0.0
 11
4286.411002235865
 21
6536.474177692253
 31
0.0
 70
   160
  1
有効開口部間口\P<>
 71
     5
 42
1266.0
  3
INABA_S40
100
AcDbAlignedDimension
 13
3645.904397928899
 23
7179.984525907594
 33
0.0
 14
4911.904397928899
 24
7179.984525907594
 34
0.0
100
AcDbRotatedDimension
1001
ACAD
1000
DSTYLE
1002
{
1070
    41
1040
0.5
1070
    44
1040
1.0
1070
   147
1040
0.8
1070
   271
1070
     2
1070
   272
1070
     2
1070
   289
1070
     3
1070
   340
1005
F706
1070
   343
1005
F744
1070
   344
1005
F744
1002
}
  0
LINE
  5
1578E
330
747D
100
AcDbEntity
  8
部品1
100
AcDbLine
 10
5733.904397928899
 20
7256.984525907594
 30
0.0
 11
5760.904397928899
 21
7256.984525907594
 31
0.0
  0
LINE
  5
15790
330
747D
100
AcDbEntity
  8
部品1
100
AcDbLine
 10
5760.904397928899
 20
7179.984525907594
 30
0.0
 11
5760.904397928899
 21
7256.984525907594
 31
0.0
  0
LINE
  5
15791
330
747D
100
AcDbEntity
  8
部品1
100
AcDbLine
 10
5721.904397928899
 20
7252.984525907594
 30
0.0
 11
5733.904397928899
 21
7252.984525907594
 31
0.0
  0
LINE
  5
15792
330
747D
100
AcDbEntity
  8
部品1
100
AcDbLine
 10
5730.904397928899
 20
7188.984525907594
 30
0.0
 11
5730.904397928899
 21
7179.984525907594
 31
0.0
  0
LINE
  5
15793
330
747D
100
AcDbEntity
  8
部品1
100
AcDbLine
 10
5721.904397928899
 20
7188.984525907594
 30
0.0
 11
5730.904397928899
 21
7188.984525907594
 31
0.0
  0
LINE
  5
15794
330
747D
100
AcDbEntity
  8
部品1
100
AcDbLine
 10
5721.904397928899
 20
7252.984525907594
 30
0.0
 11
5721.904397928899
 21
7188.984525907594
 31
0.0
  0
LINE
  5
15795
330
747D
100
AcDbEntity
  8
部品1
100
AcDbLine
 10
5733.904397928899
 20
7283.984525907595
 30
0.0
 11
5733.904397928899
 21
7252.984525907594
 31
0.0
  0
LINE
  5
15796
330
747D
100
AcDbEntity
  8
部品1
100
AcDbLine
 10
3645.904397928899
 20
7252.984525907594
 30
0.0
 11
3633.904397928899
 21
7252.984525907594
 31
0.0
  0
LINE
  5
15797
330
747D
100
AcDbEntity
  8
部品1
100
AcDbLine
 10
3606.904397928899
 20
7256.984525907594
 30
0.0
 11
3633.904397928898
 21
7256.984525907594
 31
0.0
  0
LINE
  5
15798
330
747D
100
AcDbEntity
  8
部品1
100
AcDbLine
 10
3636.904397928899
 20
7188.984525907594
 30
0.0
 11
3636.904397928899
 21
7179.984525907594
 31
0.0
  0
LINE
  5
15799
330
747D
100
AcDbEntity
  8
部品1
100
AcDbLine
 10
3645.904397928899
 20
7188.984525907594
 30
0.0
 11
3636.904397928899
 21
7188.984525907594
 31
0.0
  0
LINE
  5
1579A
330
747D
100
AcDbEntity
  8
部品1
100
AcDbLine
 10
3636.904397928899
 20
7179.984525907594
 30
0.0
 11
3606.904397928899
 21
7179.984525907594
 31
0.0
  0
LINE
  5
1579B
330
747D
100
AcDbEntity
  8
部品1
100
AcDbLine
 10
3606.904397928899
 20
7179.984525907594
 30
0.0
 11
3606.904397928899
 21
7256.984525907594
 31
0.0
  0
LINE
  5
1579C
330
747D
100
AcDbEntity
  8
部品1
100
AcDbLine
 10
3645.904397928899
 20
7252.984525907594
 30
0.0
 11
3645.904397928899
 21
7188.984525907594
 31
0.0
  0
LINE
  5
1579D
330
747D
100
AcDbEntity
  8
部品1
100
AcDbLine
 10
3633.904397928898
 20
7283.98452590759
 30
0.0
 11
3633.904397928899
 21
7252.984525907594
 31
0.0
  0
LINE
  5
1579E
330
747D
100
AcDbEntity
  8
部品1
100
AcDbLine
 10
3633.904397928898
 20
7283.98452590759
 30
0.0
 11
5733.904397928899
 21
7283.984525907595
 31
0.0
  0
LINE
  5
1579F
330
747D
100
AcDbEntity
  8
部品1
100
AcDbLine
 10
5730.904397928899
 20
7179.984525907594
 30
0.0
 11
5760.904397928899
 21
7179.984525907594
 31
0.0
  0
LINE
  5
157A0
330
747D
100
AcDbEntity
  8
部品1
100
AcDbLine
 10
3636.904397928899
 20
7179.984525907594
 30
0.0
 11
5733.904397928899
 21
7179.984525907594
 31
0.0
  0
LINE
  5
157A1
330
747D
100
AcDbEntity
  8
細線
  6
Continuous
 62
     5
100
AcDbLine
 10
5012.904397928902
 20
7218.984525907591
 30
0.0
 11
5012.904397928902
 21
7218.984525907591
 31
0.0
  0
LINE
  5
157A2
330
747D
100
AcDbEntity
  8
細線
  6
Continuous
 62
     5
100
AcDbLine
 10
5005.404433247794
 20
7218.984535828647
 30
0.0
 11
5005.404433247794
 21
7218.984535828647
 31
0.0
  0
LINE
  5
157A3
330
747D
100
AcDbEntity
  8
細線
  6
Continuous
 62
     5
100
AcDbLine
 10
4999.404433247794
 20
7218.984535828647
 30
0.0
 11
4999.404433247794
 21
7218.984535828647
 31
0.0
  0
LINE
  5
157A4
330
747D
100
AcDbEntity
  8
細線
  6
Continuous
 62
     5
100
AcDbLine
 10
5066.904397928903
 20
7237.984525907591
 30
0.0
 11
5066.904397928903
 21
7237.984525907591
 31
0.0
  0
LINE
  5
157A5
330
747D
100
AcDbEntity
  8
細線
 48
50.0
100
AcDbLine
 10
3659.904402582493
 20
7205.584700084547
 30
0.0
 11
3659.904402582493
 21
7213.980850492188
 31
0.0
  0
LINE
  5
157A6
330
747D
100
AcDbEntity
  8
細線
 48
50.0
100
AcDbLine
 10
3659.904402582493
 20
7213.980850492188
 30
0.0
 11
3645.904397928899
 21
7213.980850492184
 31
0.0
  0
LINE
  5
157A7
330
747D
100
AcDbEntity
  8
細線
 48
50.0
100
AcDbLine
 10
4410.904402582488
 20
7202.134700084546
 30
0.0
 11
4410.904402582488
 21
7206.98470008455
 31
0.0
  0
LINE
  5
157A8
330
747D
100
AcDbEntity
  8
細線
 48
50.0
100
AcDbLine
 10
4410.904402582488
 20
7206.98470008455
 30
0.0
 11
4425.904402582488
 21
7206.98470008455
 31
0.0
  0
LINE
  5
157A9
330
747D
100
AcDbEntity
  8
細線
 48
50.0
100
AcDbLine
 10
4425.904402582488
 20
7206.98470008455
 30
0.0
 11
4425.904402582492
 21
7213.984700084549
 31
0.0
  0
LINE
  5
157AA
330
747D
100
AcDbEntity
  8
細線
 48
50.0
100
AcDbLine
 10
4425.904402582492
 20
7213.984700084549
 30
0.0
 11
4440.904402582488
 21
7213.984700084549
 31
0.0
  0
LINE
  5
157AB
330
747D
100
AcDbEntity
  8
細線
 48
50.0
100
AcDbLine
 10
4440.904402582488
 20
7213.984700084549
 30
0.0
 11
4440.904402582488
 21
7184.98470008455
 31
0.0
  0
LINE
  5
157AC
330
747D
100
AcDbEntity
  8
細線
 48
50.0
100
AcDbLine
 10
3636.904397928899
 20
7184.982034428017
 30
0.0
 11
3850.904402582489
 21
7184.984717638262
 31
0.0
  0
LINE
  5
157AD
330
747D
100
AcDbEntity
  8
細線
 48
50.0
100
AcDbLine
 10
4340.904402582489
 20
7184.98470008455
 30
0.0
 11
4440.904402582488
 21
7184.98470008455
 31
0.0
  0
LINE
  5
157AE
330
747D
100
AcDbEntity
  8
細線
 48
50.0
100
AcDbLine
 10
4060.904402582488
 20
7184.98470008455
 30
0.0
 11
4130.904402582489
 21
7184.98470008455
 31
0.0
  0
LINE
  5
157AF
330
747D
100
AcDbEntity
  8
細線
 48
50.0
100
AcDbLine
 10
4073.766367595018
 20
7184.98470008455
 30
0.0
 11
4079.521885177685
 21
7203.255551375043
 31
0.0
  0
LINE
  5
157B0
330
747D
100
AcDbEntity
  8
細線
 48
50.0
100
AcDbLine
 10
4079.521885177685
 20
7203.255551375043
 30
0.0
 11
4090.450333658119
 21
7203.25555137504
 31
0.0
  0
ARC
  5
157B1
330
747D
100
AcDbEntity
  8
細線
 48
50.0
100
AcDbCircle
 10
4090.450333658119
 20
7202.255551375039
 30
0.0
 40
1.0
100
AcDbArc
 50
24.62431835212641
 51
90.0
  0
ARC
  5
157B2
330
747D
100
AcDbEntity
  8
細線
 48
50.0
100
AcDbCircle
 10
4101.359045772752
 20
7202.255551375039
 30
0.0
 40
1.0
100
AcDbArc
 50
90.0
 51
155.3756816478736
  0
ARC
  5
157B3
330
747D
100
AcDbEntity
  8
細線
 48
50.0
100
AcDbCircle
 10
4095.904689715434
 20
7204.75555137504
 30
0.0
 40
5.0
100
AcDbArc
 50
204.6243183521264
 51
335.3756816478736
  0
LINE
  5
157B4
330
747D
100
AcDbEntity
  8
細線
 48
50.0
100
AcDbLine
 10
4101.359045772752
 20
7203.25555137504
 30
0.0
 11
4112.287494253187
 21
7203.255551375043
 31
0.0
  0
LINE
  5
157B5
330
747D
100
AcDbEntity
  8
細線
 48
50.0
100
AcDbLine
 10
4112.287494253187
 20
7203.255551375043
 30
0.0
 11
4118.043011835854
 21
7184.98470008455
 31
0.0
  0
LINE
  5
157B6
330
747D
100
AcDbEntity
  8
細線
 48
50.0
100
AcDbLine
 10
4410.904402582488
 20
7205.584700084547
 30
0.0
 11
3659.904402582493
 21
7205.584700084547
 31
0.0
  0
LINE
  5
157B7
330
747D
100
AcDbEntity
  8
細線
 48
50.0
100
AcDbLine
 10
4270.904402582488
 20
7184.98470008455
 30
0.0
 11
4200.904402582488
 21
7184.98470008455
 31
0.0
  0
LINE
  5
157B8
330
747D
100
AcDbEntity
  8
細線
100
AcDbLine
 10
3990.904402582489
 20
7184.98470008455
 30
0.0
 11
3920.904410767905
 21
7184.98470008455
 31
0.0
  0
LINE
  5
157B9
330
747D
100
AcDbEntity
  8
細線
 48
50.0
100
AcDbLine
 10
5064.904393275313
 20
7239.584743942415
 30
0.0
 11
4429.904402582489
 21
7239.584743942413
 31
0.0
  0
LINE
  5
157BA
330
747D
100
AcDbEntity
  8
細線
 48
50.0
100
AcDbLine
 10
4429.904402582489
 20
7236.480894350056
 30
0.0
 11
4429.904402582489
 21
7240.980894350056
 31
0.0
  0
LINE
  5
157BB
330
747D
100
AcDbEntity
  8
細線
 48
50.0
100
AcDbLine
 10
4429.904402582489
 20
7240.980894350056
 30
0.0
 11
4414.904402582489
 21
7240.980894350056
 31
0.0
  0
LINE
  5
157BC
330
747D
100
AcDbEntity
  8
細線
 48
50.0
100
AcDbLine
 10
4414.904402582489
 20
7240.980894350056
 30
0.0
 11
4414.904402582489
 21
7247.980894350056
 31
0.0
  0
LINE
  5
157BD
330
747D
100
AcDbEntity
  8
細線
 48
50.0
100
AcDbLine
 10
4414.904402582489
 20
7247.980894350056
 30
0.0
 11
4399.904402582492
 21
7247.980894350051
 31
0.0
  0
LINE
  5
157BE
330
747D
100
AcDbEntity
  8
細線
 48
50.0
100
AcDbLine
 10
4399.904402582492
 20
7247.980894350051
 30
0.0
 11
4399.904402582492
 21
7210.38066624694
 31
0.0
  0
LINE
  5
157BF
330
747D
100
AcDbEntity
  8
細線
 48
50.0
100
AcDbLine
 10
4399.904402582492
 20
7210.38066624694
 30
0.0
 11
4419.904409883665
 21
7210.380707796483
 31
0.0
  0
LINE
  5
157C0
330
747D
100
AcDbEntity
  8
細線
 48
50.0
100
AcDbLine
 10
4419.904365014722
 20
7218.984169432291
 30
0.0
 11
4419.904409883665
 21
7210.380707796483
 31
0.0
  0
LINE
  5
157C1
330
747D
100
AcDbEntity
  8
細線
 48
50.0
100
AcDbLine
 10
5064.904393275313
 20
7236.134743942415
 30
0.0
 11
5064.904393275313
 21
7240.984743942414
 31
0.0
  0
LINE
  5
157C2
330
747D
100
AcDbEntity
  8
細線
 48
50.0
100
AcDbLine
 10
5064.904393275313
 20
7240.984743942414
 30
0.0
 11
5079.90439327531
 21
7240.984743942414
 31
0.0
  0
LINE
  5
157C3
330
747D
100
AcDbEntity
  8
細線
 48
50.0
100
AcDbLine
 10
5079.90439327531
 20
7240.984743942414
 30
0.0
 11
5079.904404909285
 21
7247.984743942457
 31
0.0
  0
LINE
  5
157C4
330
747D
100
AcDbEntity
  8
細線
 48
50.0
100
AcDbLine
 10
5079.904404909285
 20
7247.984743942457
 30
0.0
 11
5094.904403079815
 21
7247.984743942457
 31
0.0
  0
LINE
  5
157C5
330
747D
100
AcDbEntity
  8
細線
 48
50.0
100
AcDbLine
 10
5094.904403079815
 20
7247.984743942457
 30
0.0
 11
5094.904392777994
 21
7218.984537770184
 31
0.0
  0
LINE
  5
157C6
330
747D
100
AcDbEntity
  8
細線
 48
50.0
100
AcDbLine
 10
4782.404420408777
 20
7218.98454595755
 30
0.0
 11
4712.404672491194
 21
7218.984540520212
 31
0.0
  0
LINE
  5
157C7
330
747D
100
AcDbEntity
  8
細線
 48
50.0
100
AcDbLine
 10
4419.904365014722
 20
7218.984169432291
 30
0.0
 11
4431.137054369433
 21
7218.984352385438
 31
0.0
  0
ARC
  5
157C8
330
747D
100
AcDbEntity
  8
細線
 48
50.0
100
AcDbCircle
 10
4437.719346676768
 20
7217.784516299051
 30
0.0
 40
1.8
100
AcDbArc
 50
270.0006665777295
 51
345.0005554812979
  0
LINE
  5
157C9
330
747D
100
AcDbEntity
  8
細線
 48
50.0
100
AcDbLine
 10
4439.705780122848
 20
7218.243356756329
 30
0.0
 11
4439.458017680649
 21
7217.318658874223
 31
0.0
  0
LINE
  5
157CA
330
747D
100
AcDbEntity
  8
細線
 48
50.0
100
AcDbLine
 10
4437.719367617924
 20
7215.984516299172
 30
0.0
 11
4434.089440199154
 21
7215.984474068692
 31
0.0
  0
ARC
  5
157CB
330
747D
100
AcDbEntity
  8
細線
 48
50.0
100
AcDbCircle
 10
4434.089419258003
 20
7217.78447406857
 30
0.0
 40
1.8
100
AcDbArc
 50
195.0010443049453
 51
270.0006665777295
  0
LINE
  5
157CC
330
747D
100
AcDbEntity
  8
細線
 48
50.0
100
AcDbLine
 10
4432.102991765744
 20
7218.243189036136
 30
0.0
 11
4432.350761262257
 21
7217.318568097553
 31
0.0
  0
ARC
  5
157CD
330
747D
100
AcDbEntity
  8
細線
 48
50.0
100
AcDbCircle
 10
4431.137070656995
 20
7217.984352385572
 30
0.0
 40
1.0
100
AcDbArc
 50
15.00104430494533
 51
90.00093320877969
  0
LINE
  5
157CE
330
747D
100
AcDbEntity
  8
細線
 48
50.0
100
AcDbLine
 10
4440.671701477951
 20
7218.984547075843
 30
0.0
 11
4441.613461628855
 21
7218.984553649692
 31
0.0
  0
ARC
  5
157CF
330
747D
100
AcDbEntity
  8
細線
 48
50.0
100
AcDbCircle
 10
4440.671708458337
 20
7217.984547075868
 30
0.0
 40
1.0
100
AcDbArc
 50
90.0003999466794
 51
165.0005554812978
  0
LINE
  5
157D0
330
747D
100
AcDbEntity
  8
細線
 48
50.0
100
AcDbLine
 10
4992.404393275302
 20
7218.984537770184
 30
0.0
 11
5094.904392777994
 21
7218.984537770184
 31
0.0
  0
LINE
  5
157D1
330
747D
100
AcDbEntity
  8
細線
 48
50.0
100
AcDbLine
 10
4502.404428594194
 20
7218.98454595755
 30
0.0
 11
4441.304367367274
 21
7218.984553649692
 31
0.0
  0
LINE
  5
157D2
330
747D
100
AcDbEntity
  8
細線
 48
50.0
100
AcDbLine
 10
4922.404428594194
 20
7218.984582798633
 30
0.0
 11
4852.404421639808
 21
7218.984537775965
 31
0.0
  0
LINE
  5
157D3
330
747D
100
AcDbEntity
  8
細線
 48
50.0
100
AcDbLine
 10
4642.404393275302
 20
7218.98453777018
 30
0.0
 11
4572.404375987427
 21
7218.984537770187
 31
0.0
  0
ARC
  5
157D4
330
747D
100
AcDbEntity
  8
細線
 48
50.0
100
AcDbCircle
 10
5079.104397928911
 20
7252.184525907594
 30
0.0
 40
0.8
100
AcDbArc
 50
359.9997333689499
 51
89.99986668437072
  0
ARC
  5
157D5
330
747D
100
AcDbEntity
  8
細線
 48
50.0
100
AcDbCircle
 10
5086.704404754005
 20
7252.18453707621
 30
0.0
 40
0.8
100
AcDbArc
 50
90.00014387753465
 51
179.9997333689498
  0
LINE
  5
157D6
330
747D
100
AcDbEntity
  8
細線
 48
50.0
100
AcDbLine
 10
5079.104399790344
 20
7252.984525907594
 30
0.0
 11
5073.904397928899
 21
7252.984525907594
 31
0.0
  0
ARC
  5
157D7
330
747D
100
AcDbEntity
  8
細線
 48
50.0
100
AcDbCircle
 10
5080.6043979289
 20
7250.684525907594
 30
0.0
 40
0.7
100
AcDbArc
 50
180.0
 51
270.0
  0
ARC
  5
157D8
330
747D
100
AcDbEntity
  8
細線
 48
50.0
100
AcDbCircle
 10
5085.204397928902
 20
7250.684525907594
 30
0.0
 40
0.7
100
AcDbArc
 50
270.0
 51
0.0
  0
LINE
  5
157D9
330
747D
100
AcDbEntity
  8
細線
 48
50.0
100
AcDbLine
 10
5085.904397928899
 20
7250.684525907594
 30
0.0
 11
5085.904404754017
 21
7252.184540799082
 31
0.0
  0
LINE
  5
157DA
330
747D
100
AcDbEntity
  8
細線
 48
50.0
100
AcDbLine
 10
5080.6043979289
 20
7249.984525907594
 30
0.0
 11
5085.204397928902
 21
7249.984525907594
 31
0.0
  0
LINE
  5
157DB
330
747D
100
AcDbEntity
  8
細線
 48
50.0
100
AcDbLine
 10
5079.904397928899
 20
7252.184525907594
 30
0.0
 11
5079.904397928899
 21
7250.684525907594
 31
0.0
  0
LINE
  5
157DC
330
747D
100
AcDbEntity
  8
細線
 48
50.0
100
AcDbLine
 10
5705.504397928905
 20
7282.984525907593
 30
0.0
 11
5068.904397928899
 21
7282.98452590759
 31
0.0
  0
LINE
  5
157DD
330
747D
100
AcDbEntity
  8
細線
 48
50.0
100
AcDbLine
 10
5731.404397928899
 20
7277.984525907597
 30
0.0
 11
5715.504397928905
 21
7277.984525907594
 31
0.0
  0
LINE
  5
157DE
330
747D
100
AcDbEntity
  8
細線
 48
50.0
100
AcDbLine
 10
5715.504397928901
 20
7277.984525907594
 30
0.0
 11
5705.504397928905
 21
7282.984525907593
 31
0.0
  0
LINE
  5
157DF
330
747D
100
AcDbEntity
  8
細線
100
AcDbLine
 10
5316.404397928899
 20
7252.984525907594
 30
0.0
 11
5316.404397928899
 21
7282.284525907593
 31
0.0
  0
LINE
  5
157E0
330
747D
100
AcDbEntity
  8
細線
100
AcDbLine
 10
5316.404397928899
 20
7282.284525907593
 30
0.0
 11
5336.4043979289
 21
7282.284525907593
 31
0.0
  0
LINE
  5
157E1
330
747D
100
AcDbEntity
  8
細線
100
AcDbLine
 10
5336.4043979289
 20
7252.984525907594
 30
0.0
 11
5336.4043979289
 21
7282.284525907593
 31
0.0
  0
LINE
  5
157E2
330
747D
100
AcDbEntity
  8
細線
100
AcDbLine
 10
5497.6543979289
 20
7252.984525907594
 30
0.0
 11
5427.6543979289
 21
7252.984525907594
 31
0.0
  0
LINE
  5
157E3
330
747D
100
AcDbEntity
  8
細線
 48
50.0
100
AcDbLine
 10
5217.6543979289
 20
7252.984525907594
 30
0.0
 11
5086.700177501743
 21
7252.984525907594
 31
0.0
  0
LINE
  5
157E4
330
747D
100
AcDbEntity
  8
細線
100
AcDbLine
 10
5357.6543979289
 20
7252.984525907594
 30
0.0
 11
5287.6543979289
 21
7252.984525907594
 31
0.0
  0
LINE
  5
157E5
330
747D
100
AcDbEntity
  8
細線
 48
50.0
100
AcDbLine
 10
5073.904397928899
 20
7244.984525907594
 30
0.0
 11
5073.904397928899
 21
7252.984525907594
 31
0.0
  0
LINE
  5
157E6
330
747D
100
AcDbEntity
  8
細線
 48
50.0
100
AcDbLine
 10
5053.904397928899
 20
7244.984525907597
 30
0.0
 11
5073.904397928899
 21
7244.984525907594
 31
0.0
  0
LINE
  5
157E7
330
747D
100
AcDbEntity
  8
細線
 48
50.0
100
AcDbLine
 10
5068.904397928899
 20
7282.984525907593
 30
0.0
 11
5068.904397928899
 21
7277.984525907594
 31
0.0
  0
LINE
  5
157E8
330
747D
100
AcDbEntity
  8
細線
 48
50.0
100
AcDbLine
 10
5053.904397928899
 20
7282.98452590759
 30
0.0
 11
5068.904397928899
 21
7282.984525907593
 31
0.0
  0
LINE
  5
157E9
330
747D
100
AcDbEntity
  8
細線
 48
50.0
100
AcDbLine
 10
5053.904397928899
 20
7244.984525907597
 30
0.0
 11
5053.904397928899
 21
7282.98452590759
 31
0.0
  0
LINE
  5
157EA
330
747D
100
AcDbEntity
  8
細線
100
AcDbLine
 10
5721.904397928899
 20
7252.984525907594
 30
0.0
 11
5567.6543979289
 21
7252.984525907594
 31
0.0
  0
LINE
  5
157EB
330
747D
100
AcDbEntity
  8
細線
 48
50.0
100
AcDbLine
 10
5731.404397928899
 20
7277.984525907597
 30
0.0
 11
5731.404397928899
 21
7252.984525907594
 31
0.0
  0
DIMENSION
  5
15C46
330
747D
100
AcDbEntity
  8
寸法
100
AcDbDimension
  2
*D29
 10
3320.153023599285
 20
7181.984525907563
 30
0.0
 11
3320.153023599284
 21
7024.733295499377
 31
0.0
 70
   160
 71
     5
 42
75.00000000003274
  3
INABA_S40
100
AcDbAlignedDimension
 13
3578.904397928898
 23
7256.984525907596
 33
0.0
 14
3606.904397928899
 24
7181.984525907563
 34
0.0
 50
90.0
100
AcDbRotatedDimension
1001
ACAD
1000
DSTYLE
1002
{
1070
    41
1040
0.5
1070
    44
1040
1.0
1070
   147
1040
0.8
1070
   271
1070
     2
1070
   272
1070
     2
1070
   289
1070
     3
1070
   340
1005
F706
1070
   343
1005
F744
1070
   344
1005
F744
1002
}
  0
DIMENSION
  5
15C47
330
747D
100
AcDbEntity
  8
寸法
 48
50.0
100
AcDbDimension
  2
*D30
 10
5760.904397928899
 20
6237.241492959904
 30
0.0
 11
4689.961971101395
 21
6237.241492959904
 31
0.0
 70
   160
 71
     5
 42
2154.0
  3
INABA_S40G
100
AcDbAlignedDimension
 13
3606.904397928899
 23
7179.984525907594
 33
0.0
 14
5760.904397928899
 24
7179.984525907594
 34
0.0
100
AcDbRotatedDimension
1001
ACAD
1000
DSTYLE
1002
{
1070
   341
1005
0
1002
}
  0
LWPOLYLINE
  5
15D08
330
747D
100
AcDbEntity
  8
部品1
100
AcDbPolyline
 90
        4
 70
     1
 43
0.0
 10
5407.169064814692
 20
5803.796299326955
 10
5407.169064814692
 20
5563.903977781422
 10
6170.639731043134
 20
5563.903977781422
 10
6170.639731043134
 20
5803.796299326955
  0
TEXT
  5
15D09
330
747D
100
AcDbEntity
  8
部品1
100
AcDbText
 10
5497.088674643734
 20
5610.902770108431
 30
0.0
 40
135.0
  1
平面図
  7
STYLE2
100
AcDbText
  0
DIMENSION
  5
15D42
330
747D
100
AcDbEntity
  8
寸法
 48
50.0
100
AcDbDimension
  2
*D31
 10
7998.904397928898
 20
5978.935946353274
 30
0.0
 11
6893.904397928898
 21
6070.947757376896
 31
0.0
 70
    32
 71
     5
 42
2210.0
  3
INABA_S40
100
AcDbAlignedDimension
 13
5788.904397928899
 23
7311.984525907591
 33
0.0
 14
7998.904397928898
 24
7256.984525907596
 34
0.0
100
AcDbRotatedDimension
1001
ACAD
1000
DSTYLE
1002
{
1070
    41
1040
0.5
1070
    44
1040
1.0
1070
   147
1040
0.8
1070
   271
1070
     2
1070
   272
1070
     2
1070
   289
1070
     3
1070
   340
1005
F706
1070
   343
1005
F744
1070
   344
1005
F744
1002
}
  0
DIMENSION
  5
15D67
330
747D
100
AcDbEntity
  8
寸法
 48
50.0
100
AcDbDimension
  2
*D32
 10
5788.904397928899
 20
5978.935946353274
 30
0.0
 11
4673.548125189918
 21
5978.935946353274
 31
0.0
 70
   160
 71
     5
 42
2210.0
  3
INABA_S40
100
AcDbAlignedDimension
 13
3578.904397928898
 23
7256.984525907596
 33
0.0
 14
5788.904397928899
 24
7311.984525907596
 34
0.0
100
AcDbRotatedDimension
1001
ACAD
1000
DSTYLE
1002
{
1070
    41
1040
0.5
1070
    44
1040
1.0
1070
   147
1040
0.8
1070
   271
1070
     2
1070
   272
1070
     2
1070
   289
1070
     3
1070
   340
1005
F706
1070
   343
1005
F744
1070
   344
1005
F744
1002
}
  0
TEXT
  5
16025
330
747D
100
AcDbEntity
  8
文字
 62
     7
 48
50.0
100
AcDbText
 10
15022.63965474517
 20
9570.013745883725
 30
0.0
 40
100.0
  1
F12            1.0
  7
STYLE1
100
AcDbText
  0
LWPOLYLINE
  5
1608C
330
747D
100
AcDbEntity
  8
部品1
 48
50.0
100
AcDbPolyline
 90
        4
 70
     1
 43
0.0
 10
3705.954397928898
 20
3334.362805903256
 10
3708.854397928899
 20
3334.362805903256
 10
3708.854397928899
 20
3343.862805903256
 10
3705.954397928898
 20
3343.862805903256
  0
CIRCLE
  5
1608D
330
747D
100
AcDbEntity
  8
部品1
 48
50.0
100
AcDbCircle
 10
3707.404397928898
 20
3339.112805903256
 30
0.0
 40
9.0
  0
ARC
  5
1608E
330
747D
100
AcDbEntity
  8
細線
 48
50.0
100
AcDbCircle
 10
3707.404397928898
 20
3339.112805903256
 30
0.0
 40
4.0
100
AcDbArc
 50
111.2538091853375
 51
248.7461908146625
  0
ARC
  5
1608F
330
747D
100
AcDbEntity
  8
細線
 48
50.0
100
AcDbCircle
 10
3707.404397928898
 20
3339.112805903256
 30
0.0
 40
17.5
100
AcDbArc
 50
306.4837370612677
 51
233.5162629387323
  0
LINE
  5
16090
330
747D
100
AcDbEntity
  8
細線
 48
50.0
100
AcDbLine
 10
3717.404397928895
 20
3315.253845322374
 30
0.0
 11
3717.404397928898
 21
3324.238331122615
 31
0.0
  0
LINE
  5
16091
330
747D
100
AcDbEntity
  8
細線
 48
50.0
100
AcDbLine
 10
3697.404397928898
 20
3315.253845322376
 30
0.0
 11
3697.404397928898
 21
3324.238331122611
 31
0.0
  0
ARC
  5
16092
330
747D
100
AcDbEntity
  8
細線
 48
50.0
100
AcDbCircle
 10
3707.404397928898
 20
3339.112805903256
 30
0.0
 40
26.5
100
AcDbArc
 50
249.3326835063939
 51
290.6673164933835
  0
ARC
  5
16093
330
747D
100
AcDbEntity
  8
細線
 48
50.0
100
AcDbCircle
 10
3716.404397928891
 20
3315.253845322374
 30
0.0
 40
1.0
100
AcDbArc
 50
290.6673164936062
 51
359.9999999998958
  0
ARC
  5
16094
330
747D
100
AcDbEntity
  8
細線
 48
50.0
100
AcDbCircle
 10
3698.404397928899
 20
3315.253845322376
 30
0.0
 40
1.0
100
AcDbArc
 50
180.0
 51
249.3326835066164
  0
ARC
  5
16095
330
747D
100
AcDbEntity
  8
細線
 48
50.0
100
AcDbCircle
 10
3696.404397928898
 20
3324.238331122611
 30
0.0
 40
1.0
100
AcDbArc
 50
0.0
 51
53.51626293873231
  0
ARC
  5
16096
330
747D
100
AcDbEntity
  8
細線
 48
50.0
100
AcDbCircle
 10
3718.404397928902
 20
3324.238331122615
 30
0.0
 40
1.0
100
AcDbArc
 50
126.4837370614917
 51
180.0
  0
ARC
  5
16097
330
747D
100
AcDbEntity
  8
細線
 48
50.0
100
AcDbCircle
 10
3707.404397928898
 20
3339.112805903256
 30
0.0
 40
21.5
100
AcDbArc
 50
255.8014401250294
 51
284.1985598749706
  0
ARC
  5
16098
330
747D
100
AcDbEntity
  8
細線
 48
50.0
100
AcDbCircle
 10
3707.404397928898
 20
3339.112805903256
 30
0.0
 40
16.5
100
AcDbArc
 50
251.9694646069326
 51
288.0305353930674
  0
LINE
  5
16099
330
747D
100
AcDbEntity
  8
細線
 48
50.0
100
AcDbLine
 10
3712.904397928898
 20
3318.560433777449
 30
0.0
 11
3712.904397928898
 21
3323.137825464787
 31
0.0
  0
LINE
  5
1609A
330
747D
100
AcDbEntity
  8
細線
 48
50.0
100
AcDbLine
 10
3701.904397928898
 20
3318.560433777449
 30
0.0
 11
3701.904397928898
 21
3323.137825464784
 31
0.0
  0
ARC
  5
1609B
330
747D
100
AcDbEntity
  8
細線
 48
50.0
100
AcDbCircle
 10
3702.204397928901
 20
3323.137825464784
 30
0.0
 40
0.3
100
AcDbArc
 50
71.96946460693259
 51
180.0
  0
ARC
  5
1609C
330
747D
100
AcDbEntity
  8
細線
 48
50.0
100
AcDbCircle
 10
3712.604397928899
 20
3323.137825464787
 30
0.0
 40
0.3
100
AcDbArc
 50
0.0
 51
108.0305353930674
  0
ARC
  5
1609D
330
747D
100
AcDbEntity
  8
細線
 48
50.0
100
AcDbCircle
 10
3712.604397928895
 20
3318.560433777449
 30
0.0
 40
0.3
100
AcDbArc
 50
284.1985598747622
 51
0.0000000001042204
  0
ARC
  5
1609E
330
747D
100
AcDbEntity
  8
細線
 48
50.0
100
AcDbCircle
 10
3702.204397928901
 20
3318.560433777449
 30
0.0
 40
0.3
100
AcDbArc
 50
180.0
 51
255.8014401248081
  0
CIRCLE
  5
1609F
330
747D
100
AcDbEntity
  8
細線
 48
50.0
100
AcDbCircle
 10
3707.404397928898
 20
3339.112805903256
 30
0.0
 40
12.0
  0
ARC
  5
160A0
330
747D
100
AcDbEntity
  8
部品1
 48
50.0
100
AcDbCircle
 10
3707.404397928898
 20
3389.112805903256
 30
0.0
 40
8.5
100
AcDbArc
 50
114.315739171091
 51
245.684260828909
  0
CIRCLE
  5
160A1
330
747D
100
AcDbEntity
  8
細線
 48
50.0
100
AcDbCircle
 10
3707.404397928898
 20
3389.112805903256
 30
0.0
 40
4.5
  0
LWPOLYLINE
  5
160A2
330
747D
100
AcDbEntity
  8
部品1
 48
50.0
100
AcDbPolyline
 90
        2
 70
     0
 43
0.0
 10
3703.904397928898
 20
3407.787655300239
 10
3703.904397928898
 20
3396.858772595672
  0
CIRCLE
  5
160A3
330
747D
100
AcDbEntity
  8
部品1
 48
50.0
100
AcDbCircle
 10
3707.404397928898
 20
3389.112805903256
 30
0.0
 40
19.0
  0
LWPOLYLINE
  5
160A4
330
747D
100
AcDbEntity
  8
部品1
 48
50.0
100
AcDbPolyline
 90
        2
 70
     0
 43
0.0
 10
3703.904397928898
 20
3381.366839210841
 10
3703.904397928898
 20
3370.437956506274
  0
LWPOLYLINE
  5
160A5
330
747D
100
AcDbEntity
  8
部品1
 48
50.0
100
AcDbPolyline
 90
        2
 70
     0
 43
0.0
 10
3710.904397928898
 20
3396.858772595672
 10
3710.904397928898
 20
3407.787655300239
  0
ARC
  5
160A6
330
747D
100
AcDbEntity
  8
部品1
 48
50.0
100
AcDbCircle
 10
3707.404397928898
 20
3389.112805903256
 30
0.0
 40
8.5
100
AcDbArc
 50
294.315739171091
 51
65.68426082890896
  0
LWPOLYLINE
  5
160A7
330
747D
100
AcDbEntity
  8
部品1
 48
50.0
100
AcDbPolyline
 90
        2
 70
     0
 43
0.0
 10
3710.904397928898
 20
3370.437956506274
 10
3710.904397928898
 20
3381.366839210841
  0
ARC
  5
160A8
330
747D
100
AcDbEntity
  8
細線
 48
50.0
100
AcDbCircle
 10
3707.404397928898
 20
3389.112805903256
 30
0.0
 40
16.5
100
AcDbArc
 50
332.0012352654316
 51
27.99876473456844
  0
ARC
  5
160A9
330
747D
100
AcDbEntity
  8
細線
 48
50.0
100
AcDbCircle
 10
3707.404397928898
 20
3389.112805903256
 30
0.0
 40
14.0
100
AcDbArc
 50
326.4074436112843
 51
33.59255638871576
  0
LINE
  5
160AA
330
747D
100
AcDbEntity
  8
細線
 48
50.0
100
AcDbLine
 10
3692.835595644567
 20
3396.858772595672
 30
0.0
 11
3695.742494139209
 21
3396.858772595672
 31
0.0
  0
LINE
  5
160AB
330
747D
100
AcDbEntity
  8
細線
 48
50.0
100
AcDbLine
 10
3692.835595644567
 20
3381.366839210841
 30
0.0
 11
3695.742494139209
 21
3381.366839210841
 31
0.0
  0
LINE
  5
160AC
330
747D
100
AcDbEntity
  8
細線
 48
50.0
100
AcDbLine
 10
3719.066301718587
 20
3396.858772595672
 30
0.0
 11
3721.973200213233
 21
3396.858772595672
 31
0.0
  0
LINE
  5
160AD
330
747D
100
AcDbEntity
  8
細線
 48
50.0
100
AcDbLine
 10
3719.066301718587
 20
3381.366839210841
 30
0.0
 11
3721.973200213233
 21
3381.366839210841
 31
0.0
  0
ARC
  5
160AE
330
747D
100
AcDbEntity
  8
細線
 48
50.0
100
AcDbCircle
 10
3707.404397928898
 20
3389.112805903256
 30
0.0
 40
14.0
100
AcDbArc
 50
146.4074436112842
 51
213.5925563887158
  0
ARC
  5
160AF
330
747D
100
AcDbEntity
  8
細線
 48
50.0
100
AcDbCircle
 10
3707.404397928898
 20
3389.112805903256
 30
0.0
 40
16.5
100
AcDbArc
 50
152.0012352654315
 51
207.9987647345685
  0
ARC
  5
160B0
330
747D
100
AcDbEntity
  8
部品1
 48
50.0
100
AcDbCircle
 10
3680.904397928898
 20
3414.612805903256
 30
0.0
 40
5.0
100
AcDbArc
 50
90.0
 51
180.0
  0
ARC
  5
160B1
330
747D
100
AcDbEntity
  8
部品1
 48
50.0
100
AcDbCircle
 10
3680.904397928898
 20
3303.612805903256
 30
0.0
 40
5.0
100
AcDbArc
 50
180.0
 51
270.0
  0
ARC
  5
160B2
330
747D
100
AcDbEntity
  8
部品1
 48
50.0
100
AcDbCircle
 10
3733.904397928898
 20
3303.612805903256
 30
0.0
 40
5.0
100
AcDbArc
 50
270.0
 51
0.0
  0
ARC
  5
160B3
330
747D
100
AcDbEntity
  8
部品1
 48
50.0
100
AcDbCircle
 10
3733.904397928898
 20
3414.612805903256
 30
0.0
 40
5.0
100
AcDbArc
 50
0.0
 51
90.0
  0
LINE
  5
160B4
330
747D
100
AcDbEntity
  8
部品1
 48
50.0
100
AcDbLine
 10
3675.904397928898
 20
3303.612805903256
 30
0.0
 11
3675.904397928898
 21
3414.612805903256
 31
0.0
  0
LINE
  5
160B5
330
747D
100
AcDbEntity
  8
部品1
 48
50.0
100
AcDbLine
 10
3733.904397928898
 20
3298.612805903257
 30
0.0
 11
3680.904397928898
 21
3298.612805903257
 31
0.0
  0
LINE
  5
160B6
330
747D
100
AcDbEntity
  8
部品1
 48
50.0
100
AcDbLine
 10
3738.904397928898
 20
3414.612805903256
 30
0.0
 11
3738.904397928898
 21
3303.612805903256
 31
0.0
  0
ENDSEC
  0
SECTION
  2
OBJECTS
  0
DICTIONARY
  5
7471
330
0
100
AcDbDictionary
281
     1
  3
ACAD_COLOR
350
13166
  3
ACAD_GROUP
350
7472
  3
ACAD_LAYOUT
350
13167
  3
ACAD_MATERIAL
350
13165
  3
ACAD_MLINESTYLE
350
7473
  3
ACAD_PLOTSETTINGS
350
13168
  3
ACAD_PLOTSTYLENAME
350
13163
  3
ACDBHEADERROUNDTRIPXREC
350
160C6
  3
AcDbVariableDictionary
350
160C2
  3
CONTENTDICTIONARY
350
E71C
  3
DRAWINGVARIABLESDICT
350
F3B9
  0
DICTIONARY
  5
132E2
330
7467
100
AcDbDictionary
280
     1
281
     1
  3
ACAD_LAYERSTATES
360
132E3
  0
DICTIONARY
  5
13166
102
{ACAD_REACTORS
330
7471
102
}
330
7471
100
AcDbDictionary
281
     1
  0
DICTIONARY
  5
7472
102
{ACAD_REACTORS
330
7471
102
}
330
7471
100
AcDbDictionary
281
     1
  0
DICTIONARY
  5
13167
102
{ACAD_REACTORS
330
7471
102
}
330
7471
100
AcDbDictionary
281
     1
  3
Model
350
13169
  3
レイアウト1
350
1316A
  0
DICTIONARY
  5
13165
102
{ACAD_REACTORS
330
7471
102
}
330
7471
100
AcDbDictionary
281
     1
  0
DICTIONARY
  5
7473
102
{ACAD_REACTORS
330
7471
102
}
330
7471
100
AcDbDictionary
281
     1
  3
STANDARD
350
7480
  0
DICTIONARY
  5
13168
102
{ACAD_REACTORS
330
7471
102
}
330
7471
100
AcDbDictionary
281
     1
  0
ACDBDICTIONARYWDFLT
  5
13163
102
{ACAD_REACTORS
330
7471
102
}
330
7471
100
AcDbDictionary
281
     1
  3
Normal
350
13164
100
AcDbDictionaryWithDefault
340
13164
  0
DICTIONARY
  5
160C6
102
{ACAD_REACTORS
330
7471
102
}
330
7471
100
AcDbDictionary
281
     1
  3
COLORDICT
350
160C8
  3
MATERIALDICT
350
160C7
  0
DICTIONARY
  5
160C2
102
{ACAD_REACTORS
330
7471
102
}
330
7471
100
AcDbDictionary
281
     1
  3
DIMASSOC
350
160C3
  3
PROJECTNAME
350
160C4
  0
DICTIONARY
  5
E71C
102
{ACAD_REACTORS
330
7471
102
}
330
7471
100
AcDbDictionary
281
     1
  0
DICTIONARY
  5
F3B9
102
{ACAD_REACTORS
330
7471
102
}
330
7471
100
AcDbDictionary
281
     1
1001
DRAWINGVARIABLESXDATA
1000
POLARMODE
1000
1
  0
DICTIONARY
  5
132E3
102
{ACAD_REACTORS
330
132E2
102
}
330
132E2
100
AcDbDictionary
281
     1
  0
LAYOUT
  5
13169
102
{ACAD_XDICTIONARY
360
160C9
102
}
102
{ACAD_REACTORS
330
13167
102
}
330
13167
100
AcDbPlotSettings
  1

  2
EPSON LP-7000C
  4

  6

 40
0.0
 41
0.0
 42
0.0
 43
0.0
 44
0.0
 45
0.0
 46
0.0
 47
0.0
 48
0.0
 49
0.0
140
0.0
141
0.0
142
1.0
143
1.0
 70
  1712
 72
     0
 73
     0
 74
     0
  7

 75
     0
147
1.0
148
0.0
149
0.0
100
AcDbLayout
  1
Model
 70
     1
 71
     0
 10
0.0
 20
0.0
 11
12.0
 21
9.0
 12
0.0
 22
0.0
 32
0.0
 14
0.0
 24
0.0
 34
0.0
 15
0.0
 25
0.0
 35
0.0
146
0.0
 13
0.0
 23
0.0
 33
0.0
 16
1.0
 26
0.0
 36
0.0
 17
0.0
 27
1.0
 37
0.0
 76
     0
330
747D
  0
LAYOUT
  5
1316A
102
{ACAD_XDICTIONARY
360
160CB
102
}
102
{ACAD_REACTORS
330
13167
102
}
330
13167
100
AcDbPlotSettings
  1

  2
EPSON LP-7000C
  4

  6

 40
0.0
 41
0.0
 42
0.0
 43
0.0
 44
0.0
 45
0.0
 46
0.0
 47
0.0
 48
0.0
 49
0.0
140
0.0
141
0.0
142
1.0
143
1.0
 70
   688
 72
     0
 73
     0
 74
     5
  7

 75
    16
147
1.0
148
0.0
149
0.0
100
AcDbLayout
  1
レイアウト1
 70
     0
 71
     1
 10
0.0
 20
0.0
 11
420.0
 21
297.0
 12
0.0
 22
0.0
 32
0.0
 14
1.000000000000000E+20
 24
1.000000000000000E+20
 34
1.000000000000000E+20
 15
-1.000000000000000E+20
 25
-1.000000000000000E+20
 35
-1.000000000000000E+20
146
0.0
 13
0.0
 23
0.0
 33
0.0
 16
1.0
 26
0.0
 36
0.0
 17
0.0
 27
1.0
 37
0.0
 76
     0
330
747A
  0
MLINESTYLE
  5
7480
102
{ACAD_REACTORS
330
7473
102
}
330
7473
100
AcDbMlineStyle
  2
STANDARD
 70
     0
  3

 62
     0
 51
90.0
 52
90.0
 71
     2
 49
0.5
 62
   256
  6
BYLAYER
 49
-0.5
 62
   256
  6
BYLAYER
  0
ACDBPLACEHOLDER
  5
13164
102
{ACAD_REACTORS
330
13163
102
}
330
13163
  0
XRECORD
  5
160C8
102
{ACAD_REACTORS
330
160C6
102
}
330
160C6
100
AcDbXrecord
280
     1
340
13166
  0
XRECORD
  5
160C7
102
{ACAD_REACTORS
330
160C6
102
}
330
160C6
100
AcDbXrecord
280
     1
340
13165
  0
DICTIONARYVAR
  5
160C3
102
{ACAD_REACTORS
330
160C2
102
}
330
160C2
100
DictionaryVariables
280
     0
  1
1
  0
DICTIONARYVAR
  5
160C4
102
{ACAD_REACTORS
330
160C2
102
}
330
160C2
100
DictionaryVariables
280
     0
  1

  0
DICTIONARY
  5
160C9
330
13169
100
AcDbDictionary
280
     1
281
     1
  3
ACAD_XREC_ROUNDTRIP
360
160CA
  0
DICTIONARY
  5
160CB
330
1316A
100
AcDbDictionary
280
     1
281
     1
  3
ACAD_XREC_ROUNDTRIP
360
160CC
  0
XRECORD
  5
160CA
102
{ACAD_REACTORS
330
160C9
102
}
330
160C9
100
AcDbXrecord
280
     1
102
SHADEPLOT
 70
     0
102
SHADEPLOTRESLEVEL
 70
     2
102
SHADEPLOTCUSTOMDPI
 70
   300
  0
XRECORD
  5
160CC
102
{ACAD_REACTORS
330
160CB
102
}
330
160CB
100
AcDbXrecord
280
     1
102
SHADEPLOT
 70
     0
102
SHADEPLOTRESLEVEL
 70
     2
102
SHADEPLOTCUSTOMDPI
 70
   300
  0
ENDSEC
  0
EOF
