  0
SECTION
  2
HEADER
  9
$ACADVER
  1
AC1015
  9
$ACADMAINTVER
 70
    20
  9
$DWGCODEPAGE
  3
ANSI_932
  9
$INSBASE
 10
0.0
 20
0.0
 30
0.0
  9
$EXTMIN
 10
139.9999999999995
 20
-0.0000000000000909
 30
0.0
  9
$EXTMAX
 10
16307.2
 20
11409.6
 30
0.0
  9
$LIMMIN
 10
0.0
 20
0.0
  9
$LIMMAX
 10
16800.0
 20
11880.0
  9
$ORTHOMODE
 70
     0
  9
$REGENMODE
 70
     1
  9
$FILLMODE
 70
     1
  9
$QTEXTMODE
 70
     0
  9
$MIRRTEXT
 70
     1
  9
$LTSCALE
 40
20.0
  9
$ATTMODE
 70
     1
  9
$TEXTSIZE
 40
100.0
  9
$TRACEWID
 40
1.0
  9
$TEXTSTYLE
  7
STYLE3
  9
$CLAYER
  8
部品1
  9
$CELTYPE
  6
BYLAYER
  9
$CECOLOR
 62
   256
  9
$CELTSCALE
 40
50.0
  9
$DISPSILH
 70
     0
  9
$DIMSCALE
 40
40.0
  9
$DIMASZ
 40
0.5
  9
$DIMEXO
 40
0.5
  9
$DIMDLI
 40
7.0
  9
$DIMRND
 40
0.0
  9
$DIMDLE
 40
0.0
  9
$DIMEXE
 40
1.0
  9
$DIMTP
 40
0.0
  9
$DIMTM
 40
0.0
  9
$DIMTXT
 40
3.0
  9
$DIMCEN
 40
0.0
  9
$DIMTSZ
 40
0.0
  9
$DIMTOL
 70
     0
  9
$DIMLIM
 70
     0
  9
$DIMTIH
 70
     0
  9
$DIMTOH
 70
     0
  9
$DIMSE1
 70
     0
  9
$DIMSE2
 70
     0
  9
$DIMTAD
 70
     3
  9
$DIMZIN
 70
     8
  9
$DIMBLK
  1

  9
$DIMASO
 70
     1
  9
$DIMSHO
 70
     1
  9
$DIMPOST
  1

  9
$DIMAPOST
  1

  9
$DIMALT
 70
     0
  9
$DIMALTD
 70
     2
  9
$DIMALTF
 40
0.0394
  9
$DIMLFAC
 40
1.0
  9
$DIMTOFL
 70
     1
  9
$DIMTVP
 40
0.0
  9
$DIMTIX
 70
     1
  9
$DIMSOXD
 70
     1
  9
$DIMSAH
 70
     1
  9
$DIMBLK1
  1
DOT
  9
$DIMBLK2
  1
DOT
  9
$DIMSTYLE
  2
INABA_S40
  9
$DIMCLRD
 70
     0
  9
$DIMCLRE
 70
     0
  9
$DIMCLRT
 70
     7
  9
$DIMTFAC
 40
1.0
  9
$DIMGAP
 40
0.8
  9
$DIMJUST
 70
     0
  9
$DIMSD1
 70
     0
  9
$DIMSD2
 70
     0
  9
$DIMTOLJ
 70
     1
  9
$DIMTZIN
 70
     0
  9
$DIMALTZ
 70
     0
  9
$DIMALTTZ
 70
     0
  9
$DIMUPT
 70
     0
  9
$DIMDEC
 70
     2
  9
$DIMTDEC
 70
     2
  9
$DIMALTU
 70
     2
  9
$DIMALTTD
 70
     2
  9
$DIMTXSTY
  7
STYLE1
  9
$DIMAUNIT
 70
     0
  9
$DIMADEC
 70
     0
  9
$DIMALTRND
 40
0.0
  9
$DIMAZIN
 70
     0
  9
$DIMDSEP
 70
    46
  9
$DIMATFIT
 70
     3
  9
$DIMFRAC
 70
     0
  9
$DIMLDRBLK
  1

  9
$DIMLUNIT
 70
     2
  9
$DIMLWD
 70
    -2
  9
$DIMLWE
 70
    -2
  9
$DIMTMOVE
 70
     0
  9
$LUNITS
 70
     2
  9
$LUPREC
 70
     1
  9
$SKETCHINC
 40
1.0
  9
$FILLETRAD
 40
5.0
  9
$AUNITS
 70
     0
  9
$AUPREC
 70
     0
  9
$MENU
  1
acad
  9
$ELEVATION
 40
0.0
  9
$PELEVATION
 40
0.0
  9
$THICKNESS
 40
0.0
  9
$LIMCHECK
 70
     0
  9
$CHAMFERA
 40
0.0
  9
$CHAMFERB
 40
0.0
  9
$CHAMFERC
 40
0.0
  9
$CHAMFERD
 40
0.0
  9
$SKPOLY
 70
     0
  9
$TDCREATE
 40
2451590.492424190
  9
$TDUCREATE
 40
2451590.117424190
  9
$TDUPDATE
 40
2455575.701295926
  9
$TDUUPDATE
 40
2455575.326295926
  9
$TDINDWG
 40
0.1138559838
  9
$TDUSRTIMER
 40
0.1138559838
  9
$USRTIMER
 70
     1
  9
$ANGBASE
 50
0.0
  9
$ANGDIR
 70
     0
  9
$PDMODE
 70
     3
  9
$PDSIZE
 40
2.0
  9
$PLINEWID
 40
0.0
  9
$SPLFRAME
 70
     0
  9
$SPLINETYPE
 70
     6
  9
$SPLINESEGS
 70
     8
  9
$HANDSEED
  5
14AD1
  9
$SURFTAB1
 70
     6
  9
$SURFTAB2
 70
     6
  9
$SURFTYPE
 70
     6
  9
$SURFU
 70
     6
  9
$SURFV
 70
     6
  9
$UCSBASE
  2

  9
$UCSNAME
  2

  9
$UCSORG
 10
0.0
 20
0.0
 30
0.0
  9
$UCSXDIR
 10
1.0
 20
0.0
 30
0.0
  9
$UCSYDIR
 10
0.0
 20
1.0
 30
0.0
  9
$UCSORTHOREF
  2

  9
$UCSORTHOVIEW
 70
     0
  9
$UCSORGTOP
 10
0.0
 20
0.0
 30
0.0
  9
$UCSORGBOTTOM
 10
0.0
 20
0.0
 30
0.0
  9
$UCSORGLEFT
 10
0.0
 20
0.0
 30
0.0
  9
$UCSORGRIGHT
 10
0.0
 20
0.0
 30
0.0
  9
$UCSORGFRONT
 10
0.0
 20
0.0
 30
0.0
  9
$UCSORGBACK
 10
0.0
 20
0.0
 30
0.0
  9
$PUCSBASE
  2

  9
$PUCSNAME
  2

  9
$PUCSORG
 10
0.0
 20
0.0
 30
0.0
  9
$PUCSXDIR
 10
1.0
 20
0.0
 30
0.0
  9
$PUCSYDIR
 10
0.0
 20
1.0
 30
0.0
  9
$PUCSORTHOREF
  2

  9
$PUCSORTHOVIEW
 70
     0
  9
$PUCSORGTOP
 10
0.0
 20
0.0
 30
0.0
  9
$PUCSORGBOTTOM
 10
0.0
 20
0.0
 30
0.0
  9
$PUCSORGLEFT
 10
0.0
 20
0.0
 30
0.0
  9
$PUCSORGRIGHT
 10
0.0
 20
0.0
 30
0.0
  9
$PUCSORGFRONT
 10
0.0
 20
0.0
 30
0.0
  9
$PUCSORGBACK
 10
0.0
 20
0.0
 30
0.0
  9
$USERI1
 70
     0
  9
$USERI2
 70
     0
  9
$USERI3
 70
     0
  9
$USERI4
 70
     0
  9
$USERI5
 70
     0
  9
$USERR1
 40
0.0
  9
$USERR2
 40
0.0
  9
$USERR3
 40
0.0
  9
$USERR4
 40
0.0
  9
$USERR5
 40
0.0
  9
$WORLDVIEW
 70
     1
  9
$SHADEDGE
 70
     3
  9
$SHADEDIF
 70
    70
  9
$TILEMODE
 70
     1
  9
$MAXACTVP
 70
    16
  9
$PINSBASE
 10
0.0
 20
0.0
 30
0.0
  9
$PLIMCHECK
 70
     0
  9
$PEXTMIN
 10
1.000000000000000E+20
 20
1.000000000000000E+20
 30
1.000000000000000E+20
  9
$PEXTMAX
 10
-1.000000000000000E+20
 20
-1.000000000000000E+20
 30
-1.000000000000000E+20
  9
$PLIMMIN
 10
0.0
 20
0.0
  9
$PLIMMAX
 10
420.0
 20
297.0
  9
$UNITMODE
 70
     0
  9
$VISRETAIN
 70
     0
  9
$PLINEGEN
 70
     0
  9
$PSLTSCALE
 70
     0
  9
$TREEDEPTH
 70
  3020
  9
$CMLSTYLE
  2
STANDARD
  9
$CMLJUST
 70
     0
  9
$CMLSCALE
 40
1.0
  9
$PROXYGRAPHICS
 70
     1
  9
$MEASUREMENT
 70
     1
  9
$CELWEIGHT
370
    -1
  9
$ENDCAPS
280
     0
  9
$JOINSTYLE
280
     0
  9
$LWDISPLAY
290
     0
  9
$INSUNITS
 70
     0
  9
$HYPERLINKBASE
  1

  9
$STYLESHEET
  1

  9
$XEDIT
290
     1
  9
$CEPSNTYPE
380
     0
  9
$PSTYLEMODE
290
     1
  9
$FINGERPRINTGUID
  2
{89BD94FF-AC22-49AC-8F55-EE27B5D3055B}
  9
$VERSIONGUID
  2
{361EB186-D3A0-4E54-AE6C-50571E2DDDFC}
  9
$EXTNAMES
290
     1
  9
$PSVPSCALE
 40
0.0
  9
$OLESTARTUP
290
     0
  0
ENDSEC
  0
SECTION
  2
CLASSES
  0
CLASS
  1
ACDBDICTIONARYWDFLT
  2
AcDbDictionaryWithDefault
  3
ObjectDBX Classes
 90
        0
280
     0
281
     0
  0
CLASS
  1
DICTIONARYVAR
  2
AcDbDictionaryVar
  3
ObjectDBX Classes
 90
        0
280
     0
281
     0
  0
CLASS
  1
ACDBPLACEHOLDER
  2
AcDbPlaceHolder
  3
ObjectDBX Classes
 90
        0
280
     0
281
     0
  0
CLASS
  1
LAYOUT
  2
AcDbLayout
  3
ObjectDBX Classes
 90
        0
280
     0
281
     0
  0
ENDSEC
  0
SECTION
  2
TABLES
  0
TABLE
  2
VPORT
  5
746D
330
0
100
AcDbSymbolTable
 70
     2
  0
VPORT
  5
14AC9
330
746D
100
AcDbSymbolTableRecord
100
AcDbViewportTableRecord
  2
*Active
 70
     0
 10
0.0
 20
0.0
 11
1.0
 21
1.0
 12
8223.761025238502
 22
6348.450019463587
 13
0.0
 23
0.0
 14
10.0
 24
10.0
 15
10.0
 25
10.0
 16
0.0
 26
0.0
 36
1.0
 17
0.0
 27
0.0
 37
0.0
 40
12806.19294782812
 41
1.525925925925925
 42
50.0
 43
0.0
 44
0.0
 50
0.0
 51
0.0
 71
     0
 72
     0
 73
     1
 74
     0
 75
     0
 76
     0
 77
     0
 78
     0
281
     0
 65
     1
110
0.0
120
0.0
130
0.0
111
1.0
121
0.0
131
0.0
112
0.0
122
1.0
132
0.0
 79
     0
146
0.0
  0
ENDTAB
  0
TABLE
  2
LTYPE
  5
746A
330
0
100
AcDbSymbolTable
 70
     4
  0
LTYPE
  5
7477
330
746A
100
AcDbSymbolTableRecord
100
AcDbLinetypeTableRecord
  2
BYBLOCK
 70
     0
  3

 72
    65
 73
     0
 40
0.0
  0
LTYPE
  5
7478
330
746A
100
AcDbSymbolTableRecord
100
AcDbLinetypeTableRecord
  2
BYLAYER
 70
     0
  3

 72
    65
 73
     0
 40
0.0
  0
LTYPE
  5
7479
330
746A
100
AcDbSymbolTableRecord
100
AcDbLinetypeTableRecord
  2
CONTINUOUS
 70
     0
  3
Solid line
 72
    65
 73
     0
 40
0.0
  0
LTYPE
  5
7816
330
746A
100
AcDbSymbolTableRecord
100
AcDbLinetypeTableRecord
  2
CENTER
 70
     0
  3
____ _ ____ _ ____ _ ____ _ ____ _ ____ _ ____ 
 72
    65
 73
     4
 40
2.0
 49
1.25
 74
     0
 49
-0.25
 74
     0
 49
0.25
 74
     0
 49
-0.25
 74
     0
  0
LTYPE
  5
781A
330
746A
100
AcDbSymbolTableRecord
100
AcDbLinetypeTableRecord
  2
HIDDEN
 70
     0
  3
__ __ __ __ __ __ __ __ __ __ __ __ __ __ __ __
 72
    65
 73
     2
 40
0.375
 49
0.25
 74
     0
 49
-0.125
 74
     0
  0
LTYPE
  5
781B
330
746A
100
AcDbSymbolTableRecord
100
AcDbLinetypeTableRecord
  2
PHANTOM
 70
     0
  3
______  __  __  ______  __  __  ______  __  __ 
 72
    65
 73
     6
 40
2.5
 49
1.25
 74
     0
 49
-0.25
 74
     0
 49
0.25
 74
     0
 49
-0.25
 74
     0
 49
0.25
 74
     0
 49
-0.25
 74
     0
  0
ENDTAB
  0
TABLE
  2
LAYER
  5
7467
102
{ACAD_XDICTIONARY
360
12FAF
102
}
330
0
100
AcDbSymbolTable
 70
    13
  0
LAYER
  5
7474
330
7467
100
AcDbSymbolTableRecord
100
AcDbLayerTableRecord
  2
0
 70
     0
 62
     7
  6
CONTINUOUS
370
    -3
390
12DFE
  0
LAYER
  5
DEB2
330
7467
100
AcDbSymbolTableRecord
100
AcDbLayerTableRecord
  2
センター
 70
     0
 62
     3
  6
CENTER
370
    -3
390
12DFE
  0
LAYER
  5
DEB3
330
7467
100
AcDbSymbolTableRecord
100
AcDbLayerTableRecord
  2
寸法
 70
     0
 62
     4
  6
CONTINUOUS
370
    -3
390
12DFE
  0
LAYER
  5
DEB4
330
7467
100
AcDbSymbolTableRecord
100
AcDbLayerTableRecord
  2
部品1
 70
     0
 62
     7
  6
CONTINUOUS
370
    -3
390
12DFE
  0
LAYER
  5
DEB5
330
7467
100
AcDbSymbolTableRecord
100
AcDbLayerTableRecord
  2
補助
 70
     0
 62
    -1
  6
CONTINUOUS
370
    -3
390
12DFE
  0
LAYER
  5
DEB6
330
7467
100
AcDbSymbolTableRecord
100
AcDbLayerTableRecord
  2
文字
 70
     0
 62
     7
  6
CONTINUOUS
370
    -3
390
12DFE
  0
LAYER
  5
F255
330
7467
100
AcDbSymbolTableRecord
100
AcDbLayerTableRecord
  2
DEFPOINTS
 70
     0
 62
     7
  6
CONTINUOUS
290
     0
370
    -3
390
12DFE
  0
LAYER
  5
10B54
330
7467
100
AcDbSymbolTableRecord
100
AcDbLayerTableRecord
  2
仕様書枠
 70
     0
 62
   230
  6
CONTINUOUS
370
    -3
390
12DFE
  0
LAYER
  5
11729
330
7467
100
AcDbSymbolTableRecord
100
AcDbLayerTableRecord
  2
Ｇ．Ｌ
 70
     0
 62
    30
  6
CONTINUOUS
370
    -3
390
12DFE
  0
LAYER
  5
1173F
330
7467
100
AcDbSymbolTableRecord
100
AcDbLayerTableRecord
  2
細線
 70
     0
 62
     5
  6
CONTINUOUS
370
    -3
390
12DFE
  0
LAYER
  5
11740
330
7467
100
AcDbSymbolTableRecord
100
AcDbLayerTableRecord
  2
点線
 70
     0
 62
     2
  6
HIDDEN
370
    -3
390
12DFE
  0
LAYER
  5
11905
330
7467
100
AcDbSymbolTableRecord
100
AcDbLayerTableRecord
  2
破線
 70
     0
 62
     2
  6
HIDDEN
370
    -3
390
12DFE
  0
LAYER
  5
12FAE
330
7467
100
AcDbSymbolTableRecord
100
AcDbLayerTableRecord
  2
Ｇ_Ｌ
 70
     0
 62
    30
  6
CONTINUOUS
370
    -3
390
12DFE
  0
ENDTAB
  0
TABLE
  2
STYLE
  5
7468
330
0
100
AcDbSymbolTable
 70
     7
  0
STYLE
  5
7475
330
7468
100
AcDbSymbolTableRecord
100
AcDbTextStyleTableRecord
  2
STANDARD
 70
     0
 40
0.0
 41
1.0
 50
0.0
 71
     0
 42
4.0
  3
txt
  4
C:\AutoCAD LT\bigfont.shx
  0
STYLE
  5
763C
330
7468
100
AcDbSymbolTableRecord
100
AcDbTextStyleTableRecord
  2
MSMINCHO
 70
     0
 40
0.0
 41
1.0
 50
0.0
 71
     0
 42
1.199999999999999
  3
C:\AutoCAD LT\msminch2.TTF
  4

  0
STYLE
  5
F5E9
330
7468
100
AcDbSymbolTableRecord
100
AcDbTextStyleTableRecord
  2

 70
     1
 40
0.0
 41
1.0
 50
0.0
 71
     0
 42
4.0
  3
ltypeshp.shx
  4

  0
STYLE
  5
F706
330
7468
100
AcDbSymbolTableRecord
100
AcDbTextStyleTableRecord
  2
STYLE1
 70
     0
 40
0.0
 41
1.0
 50
0.0
 71
     0
 42
4.0
  3
isocp.shx
  4
bigfont.shx
  0
STYLE
  5
103BF
330
7468
100
AcDbSymbolTableRecord
100
AcDbTextStyleTableRecord
  2
STYLE2
 70
     0
 40
0.0
 41
1.0
 50
0.0
 71
     0
 42
100.0
  3
MS PGothic.ttf
  4

1001
ACAD
1000
MS PGothic
1071
    32818
  0
STYLE
  5
10BAA
330
7468
100
AcDbSymbolTableRecord
100
AcDbTextStyleTableRecord
  2
STYLE3
 70
     0
 40
0.0
 41
1.0
 50
0.0
 71
     0
 42
100.0
  3

  4

1001
ACAD
1000
DFPGothic-EB
1071
    32818
  0
STYLE
  5
11906
330
7468
100
AcDbSymbolTableRecord
100
AcDbTextStyleTableRecord
  2
MSGOTHIC
 70
     0
 40
0.0
 41
1.0
 50
0.0
 71
     0
 42
3.5
  3
msgothi2.ttf
  4

  0
ENDTAB
  0
TABLE
  2
VIEW
  5
746B
330
0
100
AcDbSymbolTable
 70
     0
  0
ENDTAB
  0
TABLE
  2
UCS
  5
746C
330
0
100
AcDbSymbolTable
 70
     0
  0
ENDTAB
  0
TABLE
  2
APPID
  5
746E
330
0
100
AcDbSymbolTable
 70
     6
  0
APPID
  5
7476
330
746E
100
AcDbSymbolTableRecord
100
AcDbRegAppTableRecord
  2
ACAD
 70
     0
  0
APPID
  5
DEA9
330
746E
100
AcDbSymbolTableRecord
100
AcDbRegAppTableRecord
  2
CONTENTBLOCKICON
 70
     0
  0
APPID
  5
DEAA
330
746E
100
AcDbSymbolTableRecord
100
AcDbRegAppTableRecord
  2
CONTENTBLOCKDESCRIPTION
 70
     0
  0
APPID
  5
E71D
330
746E
100
AcDbSymbolTableRecord
100
AcDbRegAppTableRecord
  2
CONTENTTABDATA
 70
     0
  0
APPID
  5
E71E
330
746E
100
AcDbSymbolTableRecord
100
AcDbRegAppTableRecord
  2
CONTENTCURRENTTAB
 70
     0
  0
APPID
  5
F3BA
330
746E
100
AcDbSymbolTableRecord
100
AcDbRegAppTableRecord
  2
DRAWINGVARIABLESXDATA
 70
     0
  0
ENDTAB
  0
TABLE
  2
DIMSTYLE
  5
746F
330
0
100
AcDbSymbolTable
 70
     6
100
AcDbDimStyleTable
 71
     1
340
F236
  0
DIMSTYLE
105
7484
330
746F
100
AcDbSymbolTableRecord
100
AcDbDimStyleTableRecord
  2
JIS
 70
     0
 41
2.5
 42
1.0
 43
7.0
 44
1.0
 73
     0
 74
     0
 77
     1
 78
     8
140
2.5
141
0.0
143
0.0394
147
0.0
172
     1
174
     1
175
     1
340
7475
  0
DIMSTYLE
105
F236
102
{ACAD_REACTORS
330
13575
330
13580
330
135B3
330
135C7
330
135C8
330
1360F
330
13610
330
13611
330
13612
330
13613
330
13D33
330
14406
330
147F2
330
146D0
330
147C9
102
}
330
746F
100
AcDbSymbolTableRecord
100
AcDbDimStyleTableRecord
  2
INABA_S40
 70
     0
 40
40.0
 41
2.5
 42
0.5
 43
7.0
 44
1.5
 73
     0
 74
     0
 77
     3
 78
     8
140
3.0
141
0.0
143
0.0394
147
1.0
172
     1
173
     1
174
     1
175
     1
178
     7
289
     0
340
7475
  0
DIMSTYLE
105
F71F
102
{ACAD_REACTORS
330
13414
330
13423
330
13424
330
13425
330
13D65
330
13D6B
330
13D6C
330
13D6D
330
13D94
330
13DA3
330
13DAC
330
13DAD
330
13DAE
330
146CF
102
}
330
746F
100
AcDbSymbolTableRecord
100
AcDbDimStyleTableRecord
  2
INABA_S40G
 70
     0
 40
40.0
 41
2.5
 42
0.5
 43
7.0
 44
1.5
 73
     0
 74
     0
 77
     3
 78
     8
140
3.0
141
0.0
143
0.0394
147
1.0
172
     1
173
     1
174
     1
175
     1
178
     7
271
     1
340
F706
341
F770
343
F770
344
F770
  0
DIMSTYLE
105
11907
330
746F
100
AcDbSymbolTableRecord
100
AcDbDimStyleTableRecord
  2
INABA_S50
 70
     0
 40
50.0
 41
0.5
 42
0.5
 43
7.0
 44
1.0
 73
     0
 74
     0
 77
     3
 78
     8
140
2.5
141
0.0
143
0.0394
147
0.8
172
     1
173
     1
174
     1
175
     1
178
     7
271
     2
272
     2
289
     0
340
7475
341
F744
343
F744
344
F744
  0
DIMSTYLE
105
11908
330
746F
100
AcDbSymbolTableRecord
100
AcDbDimStyleTableRecord
  2
INABA_S50G
 70
     0
 41
125.0
 42
25.0
 43
7.0
 44
75.0
 73
     0
 74
     0
 77
     3
 78
     8
140
150.0
141
0.0
143
0.0394
147
25.0
172
     1
173
     1
174
     1
175
     1
178
     7
271
     1
340
F706
341
F770
343
F770
344
F770
  0
DIMSTYLE
105
14A60
330
746F
100
AcDbSymbolTableRecord
100
AcDbDimStyleTableRecord
  2
INABA_S20G
 70
     0
 40
20.0
 41
2.5
 42
0.5
 43
7.0
 44
1.5
 73
     0
 74
     0
 77
     3
 78
     8
140
3.0
141
0.0
143
0.0394
147
1.0
172
     1
173
     1
174
     1
178
     7
271
     1
340
F706
341
F770
343
F770
344
F770
  0
ENDTAB
  0
TABLE
  2
BLOCK_RECORD
  5
7466
330
0
100
AcDbSymbolTable
 70
    32
  0
BLOCK_RECORD
  5
747D
330
7466
100
AcDbSymbolTableRecord
100
AcDbBlockTableRecord
  2
*MODEL_SPACE
340
12E03
  0
BLOCK_RECORD
  5
747A
330
7466
100
AcDbSymbolTableRecord
100
AcDbBlockTableRecord
  2
*PAPER_SPACE
340
12E04
  0
BLOCK_RECORD
  5
ECB3
330
7466
100
AcDbSymbolTableRecord
100
AcDbBlockTableRecord
  2
作図枠S50
340
0
310
2800000020000000200000000100040000000000000200000000000000000000000000000000000000000000000080000080000000808000800000008000800080800000C0C0C000808080000000FF0000FF000000FFFF00FF000000FF00FF00FFFF0000FFFFFF00FFFFFFFFFFFFFFFFFFFFFFFFFFFFFFFFFFFFFFFFFFFFFF
310
FFFFFFFFFFFFFFFFFFFFFFFFFFFFFFFFFFFFFFFFFFFFFFFFFFFFFFFFFFFFFFFFFFFFFFFFFFFFFFFFFFFFFFFFFFFFFFFFFFFFFFFFFFFFFFFFFFFFFFFFFFFFFFFFFFFFFFFFFFFFFFFFFF999999999999999999999999999999999FFFFFFFFFFFFFFFFFFFFFFFFFFFFFF99FFFFFFFFFFFFFFFFFFFFFFFFFFFFFF99FFFFFFFFFFF
310
FFFFFFFFFFFFFFFFFFF99FFFFFFFFFFFFFFFFFFFFFFFFFFFFFF99FFFFFFFFFFFFFFFFFFFFFFFFFFFFFF99FFFFFFFFFFFFFFFFFFFFFFFFFFFFFF99FFFFFFFFFFFFFFFFFFFFFFFFFFFFFF99FFFFFFFFFFFFFFFFFFFFFFFFFFFFFF99FFFFFFFFFFFFFFFFFFFFFFFFFFFFFF99FFFFFFFFFFFFFFFFFFFFFFFFFFFFFF99FFFFFFFFF
310
FFFFFFFFFFFFFFFFFFFFF99FFFFFFFFFFFFFFFFFFFFFFFFFFFFFF99FFFFFFFFFFFFFFFFFFFFFFFFFFFFFF99FFFFFFFFFFFFFFFFFFFFFFFFFFFFFF99FFFFFFFFFFFFFFFFFFFFFFFFFFFFFF99FFFFFFFFFFFFFFFFFFFFFFFFFFFFFF99FFFFFFFFFFFFFFFFFFFFFFFFFFFFFF99FFFFFFFFFFFFFFFFFFFFF99999999999FFFFFFF
310
FFFFFFFFFFFFFF9FFFFFFFFF99999999999999999999999FFFFFFFFFFFFFFFFFFFFFFFFFFFFFFFFFFFFFFFFFFFFFFFFFFFFFFFFFFFFFFFFFFFFFFFFFFFFFFFFFFFFFFFFFFFFFFFFFFFFFFFFFFFFFFFFFFFFFFFFFFFFFFFFFFFFFFFFFFFFFFFFFFFFFFFFFFFFFFFFFFFFFFFFF
102
{BLKREFS
331
F235
102
}
  0
BLOCK_RECORD
  5
F744
330
7466
100
AcDbSymbolTableRecord
100
AcDbBlockTableRecord
  2
_DOT
340
0
102
{BLKREFS
331
14273
331
14274
331
1499B
331
1499C
331
149A4
331
149A5
331
149AF
331
149B0
331
149C1
331
149C2
331
149CC
331
149CD
331
149D5
331
149D6
331
149E0
331
149E1
331
149E9
331
149EA
331
149F4
331
149F5
331
149FD
331
149FE
331
14A06
331
14A07
331
14A11
331
14A12
331
14A1A
331
14A1B
331
14A23
331
14A24
102
}
  0
BLOCK_RECORD
  5
F770
330
7466
100
AcDbSymbolTableRecord
100
AcDbBlockTableRecord
  2
_DOTSMALL
340
0
102
{BLKREFS
331
141F4
331
141F5
331
141FD
331
141FE
331
14208
331
14209
331
14213
331
14214
331
1421C
331
1421D
331
14225
331
14226
331
1422E
331
1422F
331
14238
331
14239
331
14242
331
14243
331
1424B
331
1424C
331
14256
331
14257
331
1425F
331
14260
331
1426A
331
1426B
331
149B8
331
149B9
102
}
  0
BLOCK_RECORD
  5
13620
330
7466
100
AcDbSymbolTableRecord
100
AcDbBlockTableRecord
  2
*D3
340
0
  0
BLOCK_RECORD
  5
1362E
330
7466
100
AcDbSymbolTableRecord
100
AcDbBlockTableRecord
  2
*D4
340
0
  0
BLOCK_RECORD
  5
1363C
330
7466
100
AcDbSymbolTableRecord
100
AcDbBlockTableRecord
  2
*D5
340
0
  0
BLOCK_RECORD
  5
13648
330
7466
100
AcDbSymbolTableRecord
100
AcDbBlockTableRecord
  2
*D6
340
0
  0
BLOCK_RECORD
  5
13712
330
7466
100
AcDbSymbolTableRecord
100
AcDbBlockTableRecord
  2
*D7
340
0
  0
BLOCK_RECORD
  5
1371E
330
7466
100
AcDbSymbolTableRecord
100
AcDbBlockTableRecord
  2
*D8
340
0
  0
BLOCK_RECORD
  5
13736
330
7466
100
AcDbSymbolTableRecord
100
AcDbBlockTableRecord
  2
*D9
340
0
  0
BLOCK_RECORD
  5
13750
330
7466
100
AcDbSymbolTableRecord
100
AcDbBlockTableRecord
  2
*D10
340
0
  0
BLOCK_RECORD
  5
1375C
330
7466
100
AcDbSymbolTableRecord
100
AcDbBlockTableRecord
  2
*D11
340
0
  0
BLOCK_RECORD
  5
13774
330
7466
100
AcDbSymbolTableRecord
100
AcDbBlockTableRecord
  2
*D12
340
0
  0
BLOCK_RECORD
  5
13782
330
7466
100
AcDbSymbolTableRecord
100
AcDbBlockTableRecord
  2
*D13
340
0
  0
BLOCK_RECORD
  5
1378E
330
7466
100
AcDbSymbolTableRecord
100
AcDbBlockTableRecord
  2
*D14
340
0
  0
BLOCK_RECORD
  5
1379C
330
7466
100
AcDbSymbolTableRecord
100
AcDbBlockTableRecord
  2
*D15
340
0
  0
BLOCK_RECORD
  5
137A8
330
7466
100
AcDbSymbolTableRecord
100
AcDbBlockTableRecord
  2
*D16
340
0
  0
BLOCK_RECORD
  5
13EE1
330
7466
100
AcDbSymbolTableRecord
100
AcDbBlockTableRecord
  2
*D17
340
0
  0
BLOCK_RECORD
  5
13EEF
330
7466
100
AcDbSymbolTableRecord
100
AcDbBlockTableRecord
  2
*D18
340
0
  0
BLOCK_RECORD
  5
13EFB
330
7466
100
AcDbSymbolTableRecord
100
AcDbBlockTableRecord
  2
*D19
340
0
  0
BLOCK_RECORD
  5
13F09
330
7466
100
AcDbSymbolTableRecord
100
AcDbBlockTableRecord
  2
*D20
340
0
  0
BLOCK_RECORD
  5
13F15
330
7466
100
AcDbSymbolTableRecord
100
AcDbBlockTableRecord
  2
*D21
340
0
  0
BLOCK_RECORD
  5
13F22
330
7466
100
AcDbSymbolTableRecord
100
AcDbBlockTableRecord
  2
*D22
340
0
  0
BLOCK_RECORD
  5
13F47
330
7466
100
AcDbSymbolTableRecord
100
AcDbBlockTableRecord
  2
*D23
340
0
  0
BLOCK_RECORD
  5
13F53
330
7466
100
AcDbSymbolTableRecord
100
AcDbBlockTableRecord
  2
*D24
340
0
  0
BLOCK_RECORD
  5
13F5F
330
7466
100
AcDbSymbolTableRecord
100
AcDbBlockTableRecord
  2
*D25
340
0
  0
BLOCK_RECORD
  5
13FAB
330
7466
100
AcDbSymbolTableRecord
100
AcDbBlockTableRecord
  2
*D26
340
0
  0
BLOCK_RECORD
  5
14471
330
7466
100
AcDbSymbolTableRecord
100
AcDbBlockTableRecord
  2
*D27
340
0
  0
BLOCK_RECORD
  5
14810
330
7466
100
AcDbSymbolTableRecord
100
AcDbBlockTableRecord
  2
*D28
340
0
  0
BLOCK_RECORD
  5
14876
330
7466
100
AcDbSymbolTableRecord
100
AcDbBlockTableRecord
  2
*D29
340
0
  0
BLOCK_RECORD
  5
14882
330
7466
100
AcDbSymbolTableRecord
100
AcDbBlockTableRecord
  2
*D30
340
0
  0
BLOCK_RECORD
  5
148B4
330
7466
100
AcDbSymbolTableRecord
100
AcDbBlockTableRecord
  2
*D31
340
0
  0
ENDTAB
  0
ENDSEC
  0
SECTION
  2
BLOCKS
  0
BLOCK
  5
7489
330
747D
100
AcDbEntity
  8
0
100
AcDbBlockBegin
  2
*MODEL_SPACE
 70
     0
 10
0.0
 20
0.0
 30
0.0
  3
*MODEL_SPACE
  1

  0
ENDBLK
  5
748A
330
747D
100
AcDbEntity
  8
0
100
AcDbBlockEnd
  0
BLOCK
  5
7487
330
747A
100
AcDbEntity
 67
     1
  8
0
100
AcDbBlockBegin
  2
*PAPER_SPACE
 70
     0
 10
0.0
 20
0.0
 30
0.0
  3
*PAPER_SPACE
  1

  0
ENDBLK
  5
7488
330
747A
100
AcDbEntity
 67
     1
  8
0
100
AcDbBlockEnd
  0
BLOCK
  5
ECB4
330
ECB3
100
AcDbEntity
  8
0
100
AcDbBlockBegin
  2
作図枠S50
 70
     0
 10
0.0
 20
0.0
 30
0.0
  3
作図枠S50
  1

  4
作図領域枠 縮尺 1/50
  0
LINE
  5
ECB5
330
ECB3
100
AcDbEntity
  8
補助
100
AcDbLine
 10
14364.0
 20
14262.0
 30
0.0
 11
174.9999999999993
 21
14262.0
 31
0.0
  0
LINE
  5
ECB6
330
ECB3
100
AcDbEntity
  8
補助
100
AcDbLine
 10
174.9999999999993
 20
14262.0
 30
0.0
 11
174.9999999999993
 21
1520.0
 31
0.0
  0
LINE
  5
ECB7
330
ECB3
100
AcDbEntity
  8
補助
100
AcDbLine
 10
174.9999999999993
 20
1520.0
 30
0.0
 11
20384.0
 21
1520.0
 31
0.0
  0
LINE
  5
ECB8
330
ECB3
100
AcDbEntity
  8
補助
100
AcDbLine
 10
20384.0
 20
1520.0
 30
0.0
 11
20384.0
 21
13042.0
 31
0.0
  0
LINE
  5
ECB9
330
ECB3
100
AcDbEntity
  8
補助
100
AcDbLine
 10
20384.0
 20
13042.0
 30
0.0
 11
14364.0
 21
13042.0
 31
0.0
  0
LINE
  5
ECBA
330
ECB3
100
AcDbEntity
  8
補助
100
AcDbLine
 10
14364.0
 20
13042.0
 30
0.0
 11
14364.0
 21
14262.0
 31
0.0
  0
ENDBLK
  5
ECBB
330
ECB3
100
AcDbEntity
  8
0
100
AcDbBlockEnd
  0
BLOCK
  5
F745
330
F744
100
AcDbEntity
  8
0
 48
50.0
100
AcDbBlockBegin
  2
_DOT
 70
     0
 10
0.0
 20
0.0
 30
0.0
  3
_DOT
  1

  0
LWPOLYLINE
  5
F746
330
F744
100
AcDbEntity
  8
0
  6
ByBlock
 62
     0
 48
50.0
100
AcDbPolyline
 90
        2
 70
     1
 43
0.5
 10
-0.25
 20
0.0
 42
1.0
 10
0.25
 20
0.0
 42
1.0
  0
LINE
  5
F74A
330
F744
100
AcDbEntity
  8
0
  6
ByBlock
 62
     0
 48
50.0
100
AcDbLine
 10
-0.5
 20
0.0
 30
0.0
 11
-1.0
 21
0.0
 31
0.0
  0
ENDBLK
  5
F74B
330
F744
100
AcDbEntity
  8
0
 48
50.0
100
AcDbBlockEnd
  0
BLOCK
  5
F771
330
F770
100
AcDbEntity
  8
0
 48
50.0
100
AcDbBlockBegin
  2
_DOTSMALL
 70
     0
 10
0.0
 20
0.0
 30
0.0
  3
_DOTSMALL
  1

  0
LWPOLYLINE
  5
F772
330
F770
100
AcDbEntity
  8
0
  6
ByBlock
 62
     0
 48
50.0
100
AcDbPolyline
 90
        2
 70
     1
 43
0.5
 10
-0.0625
 20
0.0
 42
1.0
 10
0.0625
 20
0.0
 42
1.0
  0
ENDBLK
  5
F776
330
F770
100
AcDbEntity
  8
0
 48
50.0
100
AcDbBlockEnd
  0
BLOCK
  5
1362C
330
13620
100
AcDbEntity
  8
0
 48
50.0
100
AcDbBlockBegin
  2
*D3
 70
     1
 10
0.0
 20
0.0
 30
0.0
  3
*D3
  1

  0
LINE
  5
1420E
330
13620
100
AcDbEntity
  8
寸法
 62
     0
 48
50.0
370
    -2
100
AcDbLine
 10
8468.904397928902
 20
4683.112805903258
 30
0.0
 11
8468.904397928902
 21
4935.654391161499
 31
0.0
  0
LINE
  5
1420F
330
13620
100
AcDbEntity
  8
寸法
 62
     0
 48
50.0
370
    -2
100
AcDbLine
 10
8418.904397928903
 20
4683.11280590326
 30
0.0
 11
8418.904397928903
 21
4935.654391161499
 31
0.0
  0
LINE
  5
14210
330
13620
100
AcDbEntity
  8
寸法
 62
     0
 48
50.0
370
    -2
100
AcDbLine
 10
8418.904397928903
 20
4875.654391161499
 30
0.0
 11
8318.904397928902
 21
4875.654391161499
 31
0.0
  0
LINE
  5
14211
330
13620
100
AcDbEntity
  8
寸法
 62
     0
 48
50.0
370
    -2
100
AcDbLine
 10
8468.904397928902
 20
4875.654391161499
 30
0.0
 11
8888.436923397625
 21
4875.654391161499
 31
0.0
  0
LINE
  5
14212
330
13620
100
AcDbEntity
  8
寸法
 62
     0
 48
50.0
370
    -2
100
AcDbLine
 10
8418.904397928903
 20
4875.654391161499
 30
0.0
 11
8468.904397928902
 21
4875.654391161499
 31
0.0
  0
INSERT
  5
14213
330
13620
100
AcDbEntity
  8
寸法
 62
     0
 48
50.0
370
    -2
100
AcDbBlockReference
  2
_DOTSMALL
 10
8418.904397928903
 20
4875.654391161499
 30
0.0
 41
100.0
 42
100.0
 43
100.0
  0
INSERT
  5
14214
330
13620
100
AcDbEntity
  8
寸法
 62
     0
 48
50.0
370
    -2
100
AcDbBlockReference
  2
_DOTSMALL
 10
8468.904397928902
 20
4875.654391161499
 30
0.0
 41
100.0
 42
100.0
 43
100.0
 50
180.0
  0
MTEXT
  5
14215
330
13620
100
AcDbEntity
  8
寸法
 62
     7
 48
50.0
100
AcDbMText
 10
8782.389679303138
 20
4975.654391161499
 30
0.0
 40
120.0
 41
0.0
 71
     5
 72
     1
  1
\A1;50
  7
STYLE1
 73
     1
 44
1.0
1001
ACAD
1000
MTEXTBEGIN
1070
    73
1070
     1
1070
    44
1040
1.0
1070
    74
1070
     0
1000
MTEXTEND
  0
POINT
  5
14216
330
13620
100
AcDbEntity
  8
DEFPOINTS
 62
     0
 48
50.0
100
AcDbPoint
 10
8468.904397928902
 20
4663.112805903258
 30
0.0
  0
POINT
  5
14217
330
13620
100
AcDbEntity
  8
DEFPOINTS
 62
     0
 48
50.0
100
AcDbPoint
 10
8418.904397928903
 20
4663.112805903259
 30
0.0
  0
POINT
  5
14218
330
13620
100
AcDbEntity
  8
DEFPOINTS
 62
     0
 48
50.0
100
AcDbPoint
 10
8418.904397928903
 20
4875.654391161499
 30
0.0
  0
ENDBLK
  5
1362D
330
13620
100
AcDbEntity
  8
0
 48
50.0
100
AcDbBlockEnd
  0
BLOCK
  5
1363A
330
1362E
100
AcDbEntity
  8
0
 48
50.0
100
AcDbBlockBegin
  2
*D4
 70
     1
 10
0.0
 20
0.0
 30
0.0
  3
*D4
  1

  0
LINE
  5
14203
330
1362E
100
AcDbEntity
  8
寸法
 62
     0
 48
50.0
370
    -2
100
AcDbLine
 10
3158.904397928898
 20
4683.112805903264
 30
0.0
 11
3158.904397928898
 21
4935.654391161502
 31
0.0
  0
LINE
  5
14204
330
1362E
100
AcDbEntity
  8
寸法
 62
     0
 48
50.0
370
    -2
100
AcDbLine
 10
3108.904397928898
 20
4683.112805903262
 30
0.0
 11
3108.904397928898
 21
4935.654391161502
 31
0.0
  0
LINE
  5
14205
330
1362E
100
AcDbEntity
  8
寸法
 62
     0
 48
50.0
370
    -2
100
AcDbLine
 10
3158.904397928898
 20
4875.654391161502
 30
0.0
 11
3258.904397928898
 21
4875.654391161502
 31
0.0
  0
LINE
  5
14206
330
1362E
100
AcDbEntity
  8
寸法
 62
     0
 48
50.0
370
    -2
100
AcDbLine
 10
3108.904397928898
 20
4875.654391161502
 30
0.0
 11
2689.371872460163
 21
4875.654391161502
 31
0.0
  0
LINE
  5
14207
330
1362E
100
AcDbEntity
  8
寸法
 62
     0
 48
50.0
370
    -2
100
AcDbLine
 10
3158.904397928898
 20
4875.654391161502
 30
0.0
 11
3108.904397928898
 21
4875.654391161502
 31
0.0
  0
INSERT
  5
14208
330
1362E
100
AcDbEntity
  8
寸法
 62
     0
 48
50.0
370
    -2
100
AcDbBlockReference
  2
_DOTSMALL
 10
3158.904397928898
 20
4875.654391161502
 30
0.0
 41
100.0
 42
100.0
 43
100.0
 50
180.0
  0
INSERT
  5
14209
330
1362E
100
AcDbEntity
  8
寸法
 62
     0
 48
50.0
370
    -2
100
AcDbBlockReference
  2
_DOTSMALL
 10
3108.904397928898
 20
4875.654391161502
 30
0.0
 41
100.0
 42
100.0
 43
100.0
  0
MTEXT
  5
1420A
330
1362E
100
AcDbEntity
  8
寸法
 62
     7
 48
50.0
100
AcDbMText
 10
2795.419116554651
 20
4975.654391161501
 30
0.0
 40
120.0
 41
0.0
 71
     5
 72
     1
  1
\A1;50
  7
STYLE1
 73
     1
 44
1.0
1001
ACAD
1000
MTEXTBEGIN
1070
    73
1070
     1
1070
    44
1040
1.0
1070
    74
1070
     0
1000
MTEXTEND
  0
POINT
  5
1420B
330
1362E
100
AcDbEntity
  8
DEFPOINTS
 62
     0
 48
50.0
100
AcDbPoint
 10
3158.904397928898
 20
4663.112805903264
 30
0.0
  0
POINT
  5
1420C
330
1362E
100
AcDbEntity
  8
DEFPOINTS
 62
     0
 48
50.0
100
AcDbPoint
 10
3108.904397928898
 20
4663.112805903263
 30
0.0
  0
POINT
  5
1420D
330
1362E
100
AcDbEntity
  8
DEFPOINTS
 62
     0
 48
50.0
100
AcDbPoint
 10
3108.904397928898
 20
4875.654391161502
 30
0.0
  0
ENDBLK
  5
1363B
330
1362E
100
AcDbEntity
  8
0
 48
50.0
100
AcDbBlockEnd
  0
BLOCK
  5
13646
330
1363C
100
AcDbEntity
  8
0
 48
50.0
100
AcDbBlockBegin
  2
*D5
 70
     1
 10
0.0
 20
0.0
 30
0.0
  3
*D5
  1

  0
LINE
  5
141FA
330
1363C
100
AcDbEntity
  8
寸法
 62
     0
 48
50.0
370
    -2
100
AcDbLine
 10
3108.904397928898
 20
4683.112805903262
 30
0.0
 11
3108.904397928898
 21
5156.55969163525
 31
0.0
  0
LINE
  5
141FB
330
1363C
100
AcDbEntity
  8
寸法
 62
     0
 48
50.0
370
    -2
100
AcDbLine
 10
8468.904397928902
 20
4683.112805903258
 30
0.0
 11
8468.904397928902
 21
5156.55969163525
 31
0.0
  0
LINE
  5
141FC
330
1363C
100
AcDbEntity
  8
寸法
 62
     0
 48
50.0
370
    -2
100
AcDbLine
 10
3108.904397928898
 20
5096.559691635249
 30
0.0
 11
8468.904397928902
 21
5096.559691635249
 31
0.0
  0
INSERT
  5
141FD
330
1363C
100
AcDbEntity
  8
寸法
 62
     0
 48
50.0
370
    -2
100
AcDbBlockReference
  2
_DOTSMALL
 10
3108.904397928898
 20
5096.559691635249
 30
0.0
 41
100.0
 42
100.0
 43
100.0
 50
180.0
  0
INSERT
  5
141FE
330
1363C
100
AcDbEntity
  8
寸法
 62
     0
 48
50.0
370
    -2
100
AcDbBlockReference
  2
_DOTSMALL
 10
8468.904397928902
 20
5096.559691635249
 30
0.0
 41
100.0
 42
100.0
 43
100.0
  0
MTEXT
  5
141FF
330
1363C
100
AcDbEntity
  8
寸法
 62
     7
 48
50.0
100
AcDbMText
 10
5788.904397928899
 20
5196.55969163525
 30
0.0
 40
120.0
 41
0.0
 71
     5
 72
     1
  1
\A1;5360
  7
STYLE1
 73
     1
 44
1.0
1001
ACAD
1000
MTEXTBEGIN
1070
    73
1070
     1
1070
    44
1040
1.0
1070
    74
1070
     0
1000
MTEXTEND
  0
POINT
  5
14200
330
1363C
100
AcDbEntity
  8
DEFPOINTS
 62
     0
 48
50.0
100
AcDbPoint
 10
3108.904397928898
 20
4663.112805903263
 30
0.0
  0
POINT
  5
14201
330
1363C
100
AcDbEntity
  8
DEFPOINTS
 62
     0
 48
50.0
100
AcDbPoint
 10
8468.904397928902
 20
4663.112805903258
 30
0.0
  0
POINT
  5
14202
330
1363C
100
AcDbEntity
  8
DEFPOINTS
 62
     0
 48
50.0
100
AcDbPoint
 10
8468.904397928902
 20
5096.559691635249
 30
0.0
  0
ENDBLK
  5
13647
330
1363C
100
AcDbEntity
  8
0
 48
50.0
100
AcDbBlockEnd
  0
BLOCK
  5
13652
330
13648
100
AcDbEntity
  8
0
 48
50.0
100
AcDbBlockBegin
  2
*D6
 70
     1
 10
0.0
 20
0.0
 30
0.0
  3
*D6
  1

  0
LINE
  5
141F1
330
13648
100
AcDbEntity
  8
寸法
 62
     0
 48
50.0
370
    -2
100
AcDbLine
 10
8418.904397928903
 20
4683.11280590326
 30
0.0
 11
8418.904397928903
 21
4935.6543911615
 31
0.0
  0
LINE
  5
141F2
330
13648
100
AcDbEntity
  8
寸法
 62
     0
 48
50.0
370
    -2
100
AcDbLine
 10
3158.904397928898
 20
4683.112805903264
 30
0.0
 11
3158.904397928898
 21
4935.6543911615
 31
0.0
  0
LINE
  5
141F3
330
13648
100
AcDbEntity
  8
寸法
 62
     0
 48
50.0
370
    -2
100
AcDbLine
 10
8418.904397928903
 20
4875.6543911615
 30
0.0
 11
3158.904397928898
 21
4875.6543911615
 31
0.0
  0
INSERT
  5
141F4
330
13648
100
AcDbEntity
  8
寸法
 62
     0
 48
50.0
370
    -2
100
AcDbBlockReference
  2
_DOTSMALL
 10
8418.904397928903
 20
4875.6543911615
 30
0.0
 41
100.0
 42
100.0
 43
100.0
  0
INSERT
  5
141F5
330
13648
100
AcDbEntity
  8
寸法
 62
     0
 48
50.0
370
    -2
100
AcDbBlockReference
  2
_DOTSMALL
 10
3158.904397928898
 20
4875.6543911615
 30
0.0
 41
100.0
 42
100.0
 43
100.0
 50
180.0
  0
MTEXT
  5
141F6
330
13648
100
AcDbEntity
  8
寸法
 62
     7
 48
50.0
100
AcDbMText
 10
5788.904397928899
 20
4975.666202185122
 30
0.0
 40
120.0
 41
0.0
 71
     5
 72
     1
  1
\A1;柱外寸法5260
  7
STYLE1
 73
     1
 44
1.0
1001
ACAD
1000
MTEXTBEGIN
1070
    73
1070
     1
1070
    44
1040
1.0
1070
    74
1070
     0
1000
MTEXTEND
  0
POINT
  5
141F7
330
13648
100
AcDbEntity
  8
DEFPOINTS
 62
     0
 48
50.0
100
AcDbPoint
 10
8418.904397928903
 20
4663.112805903259
 30
0.0
  0
POINT
  5
141F8
330
13648
100
AcDbEntity
  8
DEFPOINTS
 62
     0
 48
50.0
100
AcDbPoint
 10
3158.904397928898
 20
4663.112805903264
 30
0.0
  0
POINT
  5
141F9
330
13648
100
AcDbEntity
  8
DEFPOINTS
 62
     0
 48
50.0
100
AcDbPoint
 10
3158.904397928898
 20
4875.6543911615
 30
0.0
  0
ENDBLK
  5
13653
330
13648
100
AcDbEntity
  8
0
 48
50.0
100
AcDbBlockEnd
  0
BLOCK
  5
1371C
330
13712
100
AcDbEntity
  8
0
 48
50.0
100
AcDbBlockBegin
  2
*D7
 70
     1
 10
0.0
 20
0.0
 30
0.0
  3
*D7
  1

  0
LINE
  5
14A20
330
13712
100
AcDbEntity
  8
寸法
 62
     0
 48
50.0
370
    -2
100
AcDbLine
 10
5733.904397928898
 20
9565.057105901763
 30
0.0
 11
5733.904397928898
 21
9959.769515920555
 31
0.0
  0
LINE
  5
14A21
330
13712
100
AcDbEntity
  8
寸法
 62
     0
 48
50.0
370
    -2
100
AcDbLine
 10
5843.904397928898
 20
9565.057105901763
 30
0.0
 11
5843.904397928898
 21
9959.769515920555
 31
0.0
  0
LINE
  5
14A22
330
13712
100
AcDbEntity
  8
寸法
 62
     0
 48
50.0
370
    -2
100
AcDbLine
 10
5753.904397928899
 20
9919.769515920556
 30
0.0
 11
5823.904397928898
 21
9919.769515920556
 31
0.0
  0
INSERT
  5
14A23
330
13712
100
AcDbEntity
  8
寸法
 62
     0
 48
50.0
370
    -2
100
AcDbBlockReference
  2
_DOT
 10
5733.904397928898
 20
9919.769515920556
 30
0.0
 41
20.0
 42
20.0
 43
20.0
 50
180.0
  0
INSERT
  5
14A24
330
13712
100
AcDbEntity
  8
寸法
 62
     0
 48
50.0
370
    -2
100
AcDbBlockReference
  2
_DOT
 10
5843.904397928898
 20
9919.769515920556
 30
0.0
 41
20.0
 42
20.0
 43
20.0
  0
MTEXT
  5
14A25
330
13712
100
AcDbEntity
  8
寸法
 62
     7
 48
50.0
100
AcDbMText
 10
5788.904397928899
 20
10011.76951592055
 30
0.0
 40
120.0
 41
0.0
 71
     5
 72
     1
  1
\A1;110
  7
STYLE1
 73
     1
 44
1.0
1001
ACAD
1000
MTEXTBEGIN
1070
    73
1070
     1
1070
    44
1040
1.0
1070
    74
1070
     0
1000
MTEXTEND
  0
POINT
  5
14A26
330
13712
100
AcDbEntity
  8
DEFPOINTS
 62
     0
 48
50.0
100
AcDbPoint
 10
5733.904397928898
 20
9545.057105901761
 30
0.0
  0
POINT
  5
14A27
330
13712
100
AcDbEntity
  8
DEFPOINTS
 62
     0
 48
50.0
100
AcDbPoint
 10
5843.904397928898
 20
9545.057105901761
 30
0.0
  0
POINT
  5
14A28
330
13712
100
AcDbEntity
  8
DEFPOINTS
 62
     0
 48
50.0
100
AcDbPoint
 10
5843.904397928898
 20
9919.769515920556
 30
0.0
  0
ENDBLK
  5
1371D
330
13712
100
AcDbEntity
  8
0
 48
50.0
100
AcDbBlockEnd
  0
BLOCK
  5
13728
330
1371E
100
AcDbEntity
  8
0
 48
50.0
100
AcDbBlockBegin
  2
*D8
 70
     1
 10
0.0
 20
0.0
 30
0.0
  3
*D8
  1

  0
LINE
  5
14A17
330
1371E
100
AcDbEntity
  8
寸法
 62
     0
 48
50.0
370
    -2
100
AcDbLine
 10
5843.904397928898
 20
9565.057105901763
 30
0.0
 11
5843.904397928898
 21
9959.769515920555
 31
0.0
  0
LINE
  5
14A18
330
1371E
100
AcDbEntity
  8
寸法
 62
     0
 48
50.0
370
    -2
100
AcDbLine
 10
8363.904397928898
 20
9565.057105901763
 30
0.0
 11
8363.904397928898
 21
9959.769515920555
 31
0.0
  0
LINE
  5
14A19
330
1371E
100
AcDbEntity
  8
寸法
 62
     0
 48
50.0
370
    -2
100
AcDbLine
 10
5863.904397928898
 20
9919.769515920556
 30
0.0
 11
8343.904397928898
 21
9919.769515920556
 31
0.0
  0
INSERT
  5
14A1A
330
1371E
100
AcDbEntity
  8
寸法
 62
     0
 48
50.0
370
    -2
100
AcDbBlockReference
  2
_DOT
 10
5843.904397928898
 20
9919.769515920556
 30
0.0
 41
20.0
 42
20.0
 43
20.0
 50
180.0
  0
INSERT
  5
14A1B
330
1371E
100
AcDbEntity
  8
寸法
 62
     0
 48
50.0
370
    -2
100
AcDbBlockReference
  2
_DOT
 10
8363.904397928898
 20
9919.769515920556
 30
0.0
 41
20.0
 42
20.0
 43
20.0
  0
MTEXT
  5
14A1C
330
1371E
100
AcDbEntity
  8
寸法
 62
     7
 48
50.0
100
AcDbMText
 10
7103.904397928897
 20
10011.78132694418
 30
0.0
 40
120.0
 41
0.0
 71
     5
 72
     1
  1
\A1;6X420=2520
  7
STYLE1
 73
     1
 44
1.0
1001
ACAD
1000
MTEXTBEGIN
1070
    73
1070
     1
1070
    44
1040
1.0
1070
    74
1070
     0
1000
MTEXTEND
  0
POINT
  5
14A1D
330
1371E
100
AcDbEntity
  8
DEFPOINTS
 62
     0
 48
50.0
100
AcDbPoint
 10
5843.904397928898
 20
9545.057105901761
 30
0.0
  0
POINT
  5
14A1E
330
1371E
100
AcDbEntity
  8
DEFPOINTS
 62
     0
 48
50.0
100
AcDbPoint
 10
8363.904397928898
 20
9545.057105901761
 30
0.0
  0
POINT
  5
14A1F
330
1371E
100
AcDbEntity
  8
DEFPOINTS
 62
     0
 48
50.0
100
AcDbPoint
 10
8363.904397928898
 20
9919.769515920556
 30
0.0
  0
ENDBLK
  5
13729
330
1371E
100
AcDbEntity
  8
0
 48
50.0
100
AcDbBlockEnd
  0
BLOCK
  5
13742
330
13736
100
AcDbEntity
  8
0
 48
50.0
100
AcDbBlockBegin
  2
*D9
 70
     1
 10
0.0
 20
0.0
 30
0.0
  3
*D9
  1

  0
LINE
  5
14A0C
330
13736
100
AcDbEntity
  8
寸法
 62
     0
 48
50.0
370
    -2
100
AcDbLine
 10
3158.904397928898
 20
9565.057105901761
 30
0.0
 11
3158.904397928898
 21
9959.769515920555
 31
0.0
  0
LINE
  5
14A0D
330
13736
100
AcDbEntity
  8
寸法
 62
     0
 48
50.0
370
    -2
100
AcDbLine
 10
3213.904397928899
 20
9565.057105901763
 30
0.0
 11
3213.904397928899
 21
9959.769515920555
 31
0.0
  0
LINE
  5
14A0E
330
13736
100
AcDbEntity
  8
寸法
 62
     0
 48
50.0
370
    -2
100
AcDbLine
 10
3233.904397928898
 20
9919.769515920556
 30
0.0
 11
3253.904397928899
 21
9919.769515920556
 31
0.0
  0
LINE
  5
14A0F
330
13736
100
AcDbEntity
  8
寸法
 62
     0
 48
50.0
370
    -2
100
AcDbLine
 10
3138.904397928898
 20
9919.769515920556
 30
0.0
 11
2664.252449887996
 21
9919.769515920556
 31
0.0
  0
LINE
  5
14A10
330
13736
100
AcDbEntity
  8
寸法
 62
     0
 48
50.0
370
    -2
100
AcDbLine
 10
3213.904397928899
 20
9919.769515920556
 30
0.0
 11
3158.904397928898
 21
9919.769515920556
 31
0.0
  0
INSERT
  5
14A11
330
13736
100
AcDbEntity
  8
寸法
 62
     0
 48
50.0
370
    -2
100
AcDbBlockReference
  2
_DOT
 10
3213.904397928899
 20
9919.769515920556
 30
0.0
 41
20.0
 42
20.0
 43
20.0
 50
180.0
  0
INSERT
  5
14A12
330
13736
100
AcDbEntity
  8
寸法
 62
     0
 48
50.0
370
    -2
100
AcDbBlockReference
  2
_DOT
 10
3158.904397928898
 20
9919.769515920556
 30
0.0
 41
20.0
 42
20.0
 43
20.0
  0
MTEXT
  5
14A13
330
13736
100
AcDbEntity
  8
寸法
 62
     7
 48
50.0
100
AcDbMText
 10
2764.737731262234
 20
10011.76951592055
 30
0.0
 40
120.0
 41
0.0
 71
     5
 72
     1
  1
\A1;55
  7
STYLE1
 73
     1
 44
1.0
1001
ACAD
1000
MTEXTBEGIN
1070
    73
1070
     1
1070
    44
1040
1.0
1070
    74
1070
     0
1000
MTEXTEND
  0
POINT
  5
14A14
330
13736
100
AcDbEntity
  8
DEFPOINTS
 62
     0
 48
50.0
100
AcDbPoint
 10
3158.904397928898
 20
9545.05710590176
 30
0.0
  0
POINT
  5
14A15
330
13736
100
AcDbEntity
  8
DEFPOINTS
 62
     0
 48
50.0
100
AcDbPoint
 10
3213.904397928899
 20
9545.057105901761
 30
0.0
  0
POINT
  5
14A16
330
13736
100
AcDbEntity
  8
DEFPOINTS
 62
     0
 48
50.0
100
AcDbPoint
 10
3213.904397928899
 20
9919.769515920556
 30
0.0
  0
ENDBLK
  5
13743
330
13736
100
AcDbEntity
  8
0
 48
50.0
100
AcDbBlockEnd
  0
BLOCK
  5
1375A
330
13750
100
AcDbEntity
  8
0
 48
50.0
100
AcDbBlockBegin
  2
*D10
 70
     1
 10
0.0
 20
0.0
 30
0.0
  3
*D10
  1

  0
LINE
  5
14A03
330
13750
100
AcDbEntity
  8
寸法
 62
     0
 48
50.0
370
    -2
100
AcDbLine
 10
3213.904397928899
 20
9565.057105901763
 30
0.0
 11
3213.904397928899
 21
9959.769515920555
 31
0.0
  0
LINE
  5
14A04
330
13750
100
AcDbEntity
  8
寸法
 62
     0
 48
50.0
370
    -2
100
AcDbLine
 10
5733.904397928898
 20
9565.057105901763
 30
0.0
 11
5733.904397928898
 21
9959.769515920555
 31
0.0
  0
LINE
  5
14A05
330
13750
100
AcDbEntity
  8
寸法
 62
     0
 48
50.0
370
    -2
100
AcDbLine
 10
3233.904397928898
 20
9919.769515920556
 30
0.0
 11
5713.904397928899
 21
9919.769515920556
 31
0.0
  0
INSERT
  5
14A06
330
13750
100
AcDbEntity
  8
寸法
 62
     0
 48
50.0
370
    -2
100
AcDbBlockReference
  2
_DOT
 10
3213.904397928899
 20
9919.769515920556
 30
0.0
 41
20.0
 42
20.0
 43
20.0
 50
180.0
  0
INSERT
  5
14A07
330
13750
100
AcDbEntity
  8
寸法
 62
     0
 48
50.0
370
    -2
100
AcDbBlockReference
  2
_DOT
 10
5733.904397928898
 20
9919.769515920556
 30
0.0
 41
20.0
 42
20.0
 43
20.0
  0
MTEXT
  5
14A08
330
13750
100
AcDbEntity
  8
寸法
 62
     7
 48
50.0
100
AcDbMText
 10
4473.904397928897
 20
10011.78132694418
 30
0.0
 40
120.0
 41
0.0
 71
     5
 72
     1
  1
\A1;6X420=2520
  7
STYLE1
 73
     1
 44
1.0
1001
ACAD
1000
MTEXTBEGIN
1070
    73
1070
     1
1070
    44
1040
1.0
1070
    74
1070
     0
1000
MTEXTEND
  0
POINT
  5
14A09
330
13750
100
AcDbEntity
  8
DEFPOINTS
 62
     0
 48
50.0
100
AcDbPoint
 10
3213.904397928899
 20
9545.057105901761
 30
0.0
  0
POINT
  5
14A0A
330
13750
100
AcDbEntity
  8
DEFPOINTS
 62
     0
 48
50.0
100
AcDbPoint
 10
5733.904397928898
 20
9545.057105901761
 30
0.0
  0
POINT
  5
14A0B
330
13750
100
AcDbEntity
  8
DEFPOINTS
 62
     0
 48
50.0
100
AcDbPoint
 10
5733.904397928898
 20
9919.769515920556
 30
0.0
  0
ENDBLK
  5
1375B
330
13750
100
AcDbEntity
  8
0
 48
50.0
100
AcDbBlockEnd
  0
BLOCK
  5
13766
330
1375C
100
AcDbEntity
  8
0
 48
50.0
100
AcDbBlockBegin
  2
*D11
 70
     1
 10
0.0
 20
0.0
 30
0.0
  3
*D11
  1

  0
LINE
  5
149FA
330
1375C
100
AcDbEntity
  8
寸法
 62
     0
 48
50.0
370
    -2
100
AcDbLine
 10
3158.904397928898
 20
9565.057105901761
 30
0.0
 11
3158.904397928898
 21
10259.76951592055
 31
0.0
  0
LINE
  5
149FB
330
1375C
100
AcDbEntity
  8
寸法
 62
     0
 48
50.0
370
    -2
100
AcDbLine
 10
8418.904397928898
 20
9565.057105901761
 30
0.0
 11
8418.904397928898
 21
10259.76951592055
 31
0.0
  0
LINE
  5
149FC
330
1375C
100
AcDbEntity
  8
寸法
 62
     0
 48
50.0
370
    -2
100
AcDbLine
 10
3178.904397928898
 20
10219.76951592055
 30
0.0
 11
8398.904397928898
 21
10219.76951592055
 31
0.0
  0
INSERT
  5
149FD
330
1375C
100
AcDbEntity
  8
寸法
 62
     0
 48
50.0
370
    -2
100
AcDbBlockReference
  2
_DOT
 10
3158.904397928898
 20
10219.76951592055
 30
0.0
 41
20.0
 42
20.0
 43
20.0
 50
180.0
  0
INSERT
  5
149FE
330
1375C
100
AcDbEntity
  8
寸法
 62
     0
 48
50.0
370
    -2
100
AcDbBlockReference
  2
_DOT
 10
8418.904397928898
 20
10219.76951592055
 30
0.0
 41
20.0
 42
20.0
 43
20.0
  0
MTEXT
  5
149FF
330
1375C
100
AcDbEntity
  8
寸法
 62
     7
 48
50.0
100
AcDbMText
 10
5788.904397928899
 20
10311.78132694418
 30
0.0
 40
120.0
 41
0.0
 71
     5
 72
     1
  1
\A1;5260
  7
STYLE1
 73
     1
 44
1.0
1001
ACAD
1000
MTEXTBEGIN
1070
    73
1070
     1
1070
    44
1040
1.0
1070
    74
1070
     0
1000
MTEXTEND
  0
POINT
  5
14A00
330
1375C
100
AcDbEntity
  8
DEFPOINTS
 62
     0
 48
50.0
100
AcDbPoint
 10
3158.904397928898
 20
9545.05710590176
 30
0.0
  0
POINT
  5
14A01
330
1375C
100
AcDbEntity
  8
DEFPOINTS
 62
     0
 48
50.0
100
AcDbPoint
 10
8418.904397928898
 20
9545.05710590176
 30
0.0
  0
POINT
  5
14A02
330
1375C
100
AcDbEntity
  8
DEFPOINTS
 62
     0
 48
50.0
100
AcDbPoint
 10
8418.904397928898
 20
10219.76951592055
 30
0.0
  0
ENDBLK
  5
13767
330
1375C
100
AcDbEntity
  8
0
 48
50.0
100
AcDbBlockEnd
  0
BLOCK
  5
13780
330
13774
100
AcDbEntity
  8
0
 48
50.0
100
AcDbBlockBegin
  2
*D12
 70
     1
 10
0.0
 20
0.0
 30
0.0
  3
*D12
  1

  0
LINE
  5
149EF
330
13774
100
AcDbEntity
  8
寸法
 62
     0
 48
50.0
370
    -2
100
AcDbLine
 10
8438.904397928899
 20
9545.05710590176
 30
0.0
 11
9229.651514973253
 21
9545.05710590176
 31
0.0
  0
LINE
  5
149F0
330
13774
100
AcDbEntity
  8
寸法
 62
     0
 48
50.0
370
    -2
100
AcDbLine
 10
8438.904397928899
 20
9490.057105901763
 30
0.0
 11
9229.651514973253
 21
9490.057105901763
 31
0.0
  0
LINE
  5
149F1
330
13774
100
AcDbEntity
  8
寸法
 62
     0
 48
50.0
370
    -2
100
AcDbLine
 10
9189.651514973254
 20
9470.057105901764
 30
0.0
 11
9189.651514973254
 21
9450.057105901764
 31
0.0
  0
LINE
  5
149F2
330
13774
100
AcDbEntity
  8
寸法
 62
     0
 48
50.0
370
    -2
100
AcDbLine
 10
9189.651514973254
 20
9565.057105901761
 30
0.0
 11
9189.651514973254
 21
10039.70905394266
 31
0.0
  0
LINE
  5
149F3
330
13774
100
AcDbEntity
  8
寸法
 62
     0
 48
50.0
370
    -2
100
AcDbLine
 10
9189.651514973254
 20
9490.057105901763
 30
0.0
 11
9189.651514973254
 21
9545.05710590176
 31
0.0
  0
INSERT
  5
149F4
330
13774
100
AcDbEntity
  8
寸法
 62
     0
 48
50.0
370
    -2
100
AcDbBlockReference
  2
_DOT
 10
9189.651514973254
 20
9490.057105901763
 30
0.0
 41
20.0
 42
20.0
 43
20.0
 50
90.0
  0
INSERT
  5
149F5
330
13774
100
AcDbEntity
  8
寸法
 62
     0
 48
50.0
370
    -2
100
AcDbBlockReference
  2
_DOT
 10
9189.651514973254
 20
9545.05710590176
 30
0.0
 41
20.0
 42
20.0
 43
20.0
 50
270.0
  0
MTEXT
  5
149F6
330
13774
100
AcDbEntity
  8
寸法
 62
     7
 48
50.0
100
AcDbMText
 10
9097.651514973252
 20
9939.223772568428
 30
0.0
 40
120.0
 41
0.0
 71
     5
 72
     1
  1
\A1;55
  7
STYLE1
 11
0.0000000000000001
 21
1.0
 31
0.0
 73
     1
 44
1.0
1001
ACAD
1000
MTEXTBEGIN
1070
    73
1070
     1
1070
    44
1040
1.0
1070
    74
1070
     0
1000
MTEXTEND
  0
POINT
  5
149F7
330
13774
100
AcDbEntity
  8
DEFPOINTS
 62
     0
 48
50.0
100
AcDbPoint
 10
8418.904397928898
 20
9545.05710590176
 30
0.0
  0
POINT
  5
149F8
330
13774
100
AcDbEntity
  8
DEFPOINTS
 62
     0
 48
50.0
100
AcDbPoint
 10
8418.904397928898
 20
9490.057105901763
 30
0.0
  0
POINT
  5
149F9
330
13774
100
AcDbEntity
  8
DEFPOINTS
 62
     0
 48
50.0
100
AcDbPoint
 10
9189.651514973254
 20
9490.057105901763
 30
0.0
  0
ENDBLK
  5
13781
330
13774
100
AcDbEntity
  8
0
 48
50.0
100
AcDbBlockEnd
  0
BLOCK
  5
1378C
330
13782
100
AcDbEntity
  8
0
 48
50.0
100
AcDbBlockBegin
  2
*D13
 70
     1
 10
0.0
 20
0.0
 30
0.0
  3
*D13
  1

  0
LINE
  5
149E6
330
13782
100
AcDbEntity
  8
寸法
 62
     0
 48
50.0
370
    -2
100
AcDbLine
 10
8438.904397928899
 20
9490.057105901763
 30
0.0
 11
9229.651514973252
 21
9490.057105901763
 31
0.0
  0
LINE
  5
149E7
330
13782
100
AcDbEntity
  8
寸法
 62
     0
 48
50.0
370
    -2
100
AcDbLine
 10
8438.904397928899
 20
7390.057105901757
 30
0.0
 11
9229.651514973252
 21
7390.057105901757
 31
0.0
  0
LINE
  5
149E8
330
13782
100
AcDbEntity
  8
寸法
 62
     0
 48
50.0
370
    -2
100
AcDbLine
 10
9189.651514973251
 20
9470.057105901764
 30
0.0
 11
9189.651514973251
 21
7410.057105901756
 31
0.0
  0
INSERT
  5
149E9
330
13782
100
AcDbEntity
  8
寸法
 62
     0
 48
50.0
370
    -2
100
AcDbBlockReference
  2
_DOT
 10
9189.651514973251
 20
9490.057105901763
 30
0.0
 41
20.0
 42
20.0
 43
20.0
 50
90.0
  0
INSERT
  5
149EA
330
13782
100
AcDbEntity
  8
寸法
 62
     0
 48
50.0
370
    -2
100
AcDbBlockReference
  2
_DOT
 10
9189.651514973251
 20
7390.057105901757
 30
0.0
 41
20.0
 42
20.0
 43
20.0
 50
270.0
  0
MTEXT
  5
149EB
330
13782
100
AcDbEntity
  8
寸法
 62
     7
 48
50.0
100
AcDbMText
 10
9097.639703949628
 20
8440.057105901763
 30
0.0
 40
120.0
 41
0.0
 71
     5
 72
     1
  1
\A1;5X420=2100
  7
STYLE1
 11
0.0000000000000001
 21
1.0
 31
0.0
 73
     1
 44
1.0
1001
ACAD
1000
MTEXTBEGIN
1070
    73
1070
     1
1070
    44
1040
1.0
1070
    74
1070
     0
1000
MTEXTEND
  0
POINT
  5
149EC
330
13782
100
AcDbEntity
  8
DEFPOINTS
 62
     0
 48
50.0
100
AcDbPoint
 10
8418.904397928898
 20
9490.057105901763
 30
0.0
  0
POINT
  5
149ED
330
13782
100
AcDbEntity
  8
DEFPOINTS
 62
     0
 48
50.0
100
AcDbPoint
 10
8418.904397928898
 20
7390.057105901757
 30
0.0
  0
POINT
  5
149EE
330
13782
100
AcDbEntity
  8
DEFPOINTS
 62
     0
 48
50.0
100
AcDbPoint
 10
9189.651514973251
 20
7390.057105901757
 30
0.0
  0
ENDBLK
  5
1378D
330
13782
100
AcDbEntity
  8
0
 48
50.0
100
AcDbBlockEnd
  0
BLOCK
  5
1379A
330
1378E
100
AcDbEntity
  8
0
 48
50.0
100
AcDbBlockBegin
  2
*D14
 70
     1
 10
0.0
 20
0.0
 30
0.0
  3
*D14
  1

  0
LINE
  5
149DB
330
1378E
100
AcDbEntity
  8
寸法
 62
     0
 48
50.0
370
    -2
100
AcDbLine
 10
8438.904397928899
 20
7390.057105901757
 30
0.0
 11
9229.651514973253
 21
7390.057105901757
 31
0.0
  0
LINE
  5
149DC
330
1378E
100
AcDbEntity
  8
寸法
 62
     0
 48
50.0
370
    -2
100
AcDbLine
 10
8438.904397928899
 20
7335.05710590176
 30
0.0
 11
9229.651514973253
 21
7335.05710590176
 31
0.0
  0
LINE
  5
149DD
330
1378E
100
AcDbEntity
  8
寸法
 62
     0
 48
50.0
370
    -2
100
AcDbLine
 10
9189.651514973254
 20
7410.057105901756
 30
0.0
 11
9189.651514973254
 21
7430.057105901757
 31
0.0
  0
LINE
  5
149DE
330
1378E
100
AcDbEntity
  8
寸法
 62
     0
 48
50.0
370
    -2
100
AcDbLine
 10
9189.651514973254
 20
7315.057105901759
 30
0.0
 11
9189.651514973254
 21
6840.405157860856
 31
0.0
  0
LINE
  5
149DF
330
1378E
100
AcDbEntity
  8
寸法
 62
     0
 48
50.0
370
    -2
100
AcDbLine
 10
9189.651514973254
 20
7390.057105901757
 30
0.0
 11
9189.651514973254
 21
7335.05710590176
 31
0.0
  0
INSERT
  5
149E0
330
1378E
100
AcDbEntity
  8
寸法
 62
     0
 48
50.0
370
    -2
100
AcDbBlockReference
  2
_DOT
 10
9189.651514973254
 20
7390.057105901757
 30
0.0
 41
20.0
 42
20.0
 43
20.0
 50
270.0
  0
INSERT
  5
149E1
330
1378E
100
AcDbEntity
  8
寸法
 62
     0
 48
50.0
370
    -2
100
AcDbBlockReference
  2
_DOT
 10
9189.651514973254
 20
7335.05710590176
 30
0.0
 41
20.0
 42
20.0
 43
20.0
 50
90.0
  0
MTEXT
  5
149E2
330
1378E
100
AcDbEntity
  8
寸法
 62
     7
 48
50.0
100
AcDbMText
 10
9097.651514973252
 20
6940.890439235094
 30
0.0
 40
120.0
 41
0.0
 71
     5
 72
     1
  1
\A1;55
  7
STYLE1
 11
0.0000000000000001
 21
1.0
 31
0.0
 73
     1
 44
1.0
1001
ACAD
1000
MTEXTBEGIN
1070
    73
1070
     1
1070
    44
1040
1.0
1070
    74
1070
     0
1000
MTEXTEND
  0
POINT
  5
149E3
330
1378E
100
AcDbEntity
  8
DEFPOINTS
 62
     0
 48
50.0
100
AcDbPoint
 10
8418.904397928898
 20
7390.057105901757
 30
0.0
  0
POINT
  5
149E4
330
1378E
100
AcDbEntity
  8
DEFPOINTS
 62
     0
 48
50.0
100
AcDbPoint
 10
8418.904397928898
 20
7335.05710590176
 30
0.0
  0
POINT
  5
149E5
330
1378E
100
AcDbEntity
  8
DEFPOINTS
 62
     0
 48
50.0
100
AcDbPoint
 10
9189.651514973254
 20
7335.05710590176
 30
0.0
  0
ENDBLK
  5
1379B
330
1378E
100
AcDbEntity
  8
0
 48
50.0
100
AcDbBlockEnd
  0
BLOCK
  5
137A6
330
1379C
100
AcDbEntity
  8
0
 48
50.0
100
AcDbBlockBegin
  2
*D15
 70
     1
 10
0.0
 20
0.0
 30
0.0
  3
*D15
  1

  0
LINE
  5
149D2
330
1379C
100
AcDbEntity
  8
寸法
 62
     0
 48
50.0
370
    -2
100
AcDbLine
 10
8438.904397928899
 20
9545.05710590176
 30
0.0
 11
9529.651514973251
 21
9545.05710590176
 31
0.0
  0
LINE
  5
149D3
330
1379C
100
AcDbEntity
  8
寸法
 62
     0
 48
50.0
370
    -2
100
AcDbLine
 10
8438.904397928899
 20
7335.05710590176
 30
0.0
 11
9529.651514973251
 21
7335.05710590176
 31
0.0
  0
LINE
  5
149D4
330
1379C
100
AcDbEntity
  8
寸法
 62
     0
 48
50.0
370
    -2
100
AcDbLine
 10
9489.651514973251
 20
9525.05710590176
 30
0.0
 11
9489.651514973251
 21
7355.05710590176
 31
0.0
  0
INSERT
  5
149D5
330
1379C
100
AcDbEntity
  8
寸法
 62
     0
 48
50.0
370
    -2
100
AcDbBlockReference
  2
_DOT
 10
9489.651514973251
 20
9545.05710590176
 30
0.0
 41
20.0
 42
20.0
 43
20.0
 50
90.0
  0
INSERT
  5
149D6
330
1379C
100
AcDbEntity
  8
寸法
 62
     0
 48
50.0
370
    -2
100
AcDbBlockReference
  2
_DOT
 10
9489.651514973251
 20
7335.05710590176
 30
0.0
 41
20.0
 42
20.0
 43
20.0
 50
270.0
  0
MTEXT
  5
149D7
330
1379C
100
AcDbEntity
  8
寸法
 62
     7
 48
50.0
100
AcDbMText
 10
9397.639703949627
 20
8440.057105901763
 30
0.0
 40
120.0
 41
0.0
 71
     5
 72
     1
  1
\A1;2210
  7
STYLE1
 11
0.0000000000000001
 21
1.0
 31
0.0
 73
     1
 44
1.0
1001
ACAD
1000
MTEXTBEGIN
1070
    73
1070
     1
1070
    44
1040
1.0
1070
    74
1070
     0
1000
MTEXTEND
  0
POINT
  5
149D8
330
1379C
100
AcDbEntity
  8
DEFPOINTS
 62
     0
 48
50.0
100
AcDbPoint
 10
8418.904397928898
 20
9545.05710590176
 30
0.0
  0
POINT
  5
149D9
330
1379C
100
AcDbEntity
  8
DEFPOINTS
 62
     0
 48
50.0
100
AcDbPoint
 10
8418.904397928898
 20
7335.05710590176
 30
0.0
  0
POINT
  5
149DA
330
1379C
100
AcDbEntity
  8
DEFPOINTS
 62
     0
 48
50.0
100
AcDbPoint
 10
9489.651514973251
 20
7335.05710590176
 30
0.0
  0
ENDBLK
  5
137A7
330
1379C
100
AcDbEntity
  8
0
 48
50.0
100
AcDbBlockEnd
  0
BLOCK
  5
137B4
330
137A8
100
AcDbEntity
  8
0
 48
50.0
100
AcDbBlockBegin
  2
*D16
 70
     1
 10
0.0
 20
0.0
 30
0.0
  3
*D16
  1

  0
LINE
  5
149C7
330
137A8
100
AcDbEntity
  8
寸法
 62
     0
 48
50.0
370
    -2
100
AcDbLine
 10
8363.904397928898
 20
9565.057105901763
 30
0.0
 11
8363.904397928898
 21
9959.769515920555
 31
0.0
  0
LINE
  5
149C8
330
137A8
100
AcDbEntity
  8
寸法
 62
     0
 48
50.0
370
    -2
100
AcDbLine
 10
8418.904397928898
 20
9565.057105901761
 30
0.0
 11
8418.904397928898
 21
9959.769515920555
 31
0.0
  0
LINE
  5
149C9
330
137A8
100
AcDbEntity
  8
寸法
 62
     0
 48
50.0
370
    -2
100
AcDbLine
 10
8343.904397928898
 20
9919.769515920556
 30
0.0
 11
8323.904397928897
 21
9919.769515920556
 31
0.0
  0
LINE
  5
149CA
330
137A8
100
AcDbEntity
  8
寸法
 62
     0
 48
50.0
370
    -2
100
AcDbLine
 10
8438.904397928899
 20
9919.769515920556
 30
0.0
 11
8913.556345969805
 21
9919.769515920556
 31
0.0
  0
LINE
  5
149CB
330
137A8
100
AcDbEntity
  8
寸法
 62
     0
 48
50.0
370
    -2
100
AcDbLine
 10
8363.904397928898
 20
9919.769515920556
 30
0.0
 11
8418.904397928898
 21
9919.769515920556
 31
0.0
  0
INSERT
  5
149CC
330
137A8
100
AcDbEntity
  8
寸法
 62
     0
 48
50.0
370
    -2
100
AcDbBlockReference
  2
_DOT
 10
8363.904397928898
 20
9919.769515920556
 30
0.0
 41
20.0
 42
20.0
 43
20.0
  0
INSERT
  5
149CD
330
137A8
100
AcDbEntity
  8
寸法
 62
     0
 48
50.0
370
    -2
100
AcDbBlockReference
  2
_DOT
 10
8418.904397928898
 20
9919.769515920556
 30
0.0
 41
20.0
 42
20.0
 43
20.0
 50
180.0
  0
MTEXT
  5
149CE
330
137A8
100
AcDbEntity
  8
寸法
 62
     7
 48
50.0
100
AcDbMText
 10
8813.071064595566
 20
10011.76951592055
 30
0.0
 40
120.0
 41
0.0
 71
     5
 72
     1
  1
\A1;55
  7
STYLE1
 73
     1
 44
1.0
1001
ACAD
1000
MTEXTBEGIN
1070
    73
1070
     1
1070
    44
1040
1.0
1070
    74
1070
     0
1000
MTEXTEND
  0
POINT
  5
149CF
330
137A8
100
AcDbEntity
  8
DEFPOINTS
 62
     0
 48
50.0
100
AcDbPoint
 10
8363.904397928898
 20
9545.057105901761
 30
0.0
  0
POINT
  5
149D0
330
137A8
100
AcDbEntity
  8
DEFPOINTS
 62
     0
 48
50.0
100
AcDbPoint
 10
8418.904397928898
 20
9545.05710590176
 30
0.0
  0
POINT
  5
149D1
330
137A8
100
AcDbEntity
  8
DEFPOINTS
 62
     0
 48
50.0
100
AcDbPoint
 10
8418.904397928898
 20
9919.769515920556
 30
0.0
  0
ENDBLK
  5
137B5
330
137A8
100
AcDbEntity
  8
0
 48
50.0
100
AcDbBlockEnd
  0
BLOCK
  5
13EED
330
13EE1
100
AcDbEntity
  8
0
 48
50.0
100
AcDbBlockBegin
  2
*D17
 70
     1
 10
0.0
 20
0.0
 30
0.0
  3
*D17
  1

  0
LINE
  5
14265
330
13EE1
100
AcDbEntity
  8
寸法
 62
     0
 48
50.0
370
    -2
100
AcDbLine
 10
11536.02758725189
 20
2338.112805903255
 30
0.0
 11
10652.27745806863
 21
2338.112805903255
 31
0.0
  0
LINE
  5
14266
330
13EE1
100
AcDbEntity
  8
寸法
 62
     0
 48
50.0
370
    -2
100
AcDbLine
 10
11459.02758725189
 20
2288.112805903255
 30
0.0
 11
10652.27745806863
 21
2288.112805903255
 31
0.0
  0
LINE
  5
14267
330
13EE1
100
AcDbEntity
  8
寸法
 62
     0
 48
50.0
370
    -2
100
AcDbLine
 10
10712.27745806863
 20
2338.112805903255
 30
0.0
 11
10712.27745806863
 21
2438.112805903255
 31
0.0
  0
LINE
  5
14268
330
13EE1
100
AcDbEntity
  8
寸法
 62
     0
 48
50.0
370
    -2
100
AcDbLine
 10
10712.27745806863
 20
2288.112805903255
 30
0.0
 11
10712.27745806863
 21
1876.018317714276
 31
0.0
  0
LINE
  5
14269
330
13EE1
100
AcDbEntity
  8
寸法
 62
     0
 48
50.0
370
    -2
100
AcDbLine
 10
10712.27745806863
 20
2338.112805903255
 30
0.0
 11
10712.27745806863
 21
2288.112805903255
 31
0.0
  0
INSERT
  5
1426A
330
13EE1
100
AcDbEntity
  8
寸法
 62
     0
 48
50.0
370
    -2
100
AcDbBlockReference
  2
_DOTSMALL
 10
10712.27745806863
 20
2338.112805903255
 30
0.0
 41
100.0
 42
100.0
 43
100.0
 50
270.0
  0
INSERT
  5
1426B
330
13EE1
100
AcDbEntity
  8
寸法
 62
     0
 48
50.0
370
    -2
100
AcDbBlockReference
  2
_DOTSMALL
 10
10712.27745806863
 20
2288.112805903255
 30
0.0
 41
100.0
 42
100.0
 43
100.0
 50
90.0
  0
MTEXT
  5
1426C
330
13EE1
100
AcDbEntity
  8
寸法
 62
     7
 48
50.0
100
AcDbMText
 10
10612.27745806863
 20
1982.065561808766
 30
0.0
 40
120.0
 41
0.0
 71
     5
 72
     1
  1
\A1;50
  7
STYLE1
 11
0.0000000000000001
 21
1.0
 31
0.0
 73
     1
 44
1.0
1001
ACAD
1000
MTEXTBEGIN
1070
    73
1070
     1
1070
    44
1040
1.0
1070
    74
1070
     0
1000
MTEXTEND
  0
POINT
  5
1426D
330
13EE1
100
AcDbEntity
  8
DEFPOINTS
 62
     0
 48
50.0
100
AcDbPoint
 10
11556.02758725189
 20
2338.112805903255
 30
0.0
  0
POINT
  5
1426E
330
13EE1
100
AcDbEntity
  8
DEFPOINTS
 62
     0
 48
50.0
100
AcDbPoint
 10
11479.02758725189
 20
2288.112805903255
 30
0.0
  0
POINT
  5
1426F
330
13EE1
100
AcDbEntity
  8
DEFPOINTS
 62
     0
 48
50.0
100
AcDbPoint
 10
10712.27745806863
 20
2288.112805903255
 30
0.0
  0
ENDBLK
  5
13EEE
330
13EE1
100
AcDbEntity
  8
0
 48
50.0
100
AcDbBlockEnd
  0
BLOCK
  5
13EF9
330
13EEF
100
AcDbEntity
  8
0
 48
50.0
100
AcDbBlockBegin
  2
*D18
 70
     1
 10
0.0
 20
0.0
 30
0.0
  3
*D18
  1

  0
LINE
  5
1425C
330
13EEF
100
AcDbEntity
  8
寸法
 62
     0
 48
50.0
370
    -2
100
AcDbLine
 10
13766.02758725189
 20
4629.923485514908
 30
0.0
 11
13766.02758725189
 21
5121.770259482559
 31
0.0
  0
LINE
  5
1425D
330
13EEF
100
AcDbEntity
  8
寸法
 62
     0
 48
50.0
370
    -2
100
AcDbLine
 10
11556.02758725189
 20
4679.114424026231
 30
0.0
 11
11556.02758725189
 21
5121.770259482559
 31
0.0
  0
LINE
  5
1425E
330
13EEF
100
AcDbEntity
  8
寸法
 62
     0
 48
50.0
370
    -2
100
AcDbLine
 10
13766.02758725189
 20
5061.770259482559
 30
0.0
 11
11556.02758725189
 21
5061.770259482559
 31
0.0
  0
INSERT
  5
1425F
330
13EEF
100
AcDbEntity
  8
寸法
 62
     0
 48
50.0
370
    -2
100
AcDbBlockReference
  2
_DOTSMALL
 10
13766.02758725189
 20
5061.770259482559
 30
0.0
 41
100.0
 42
100.0
 43
100.0
  0
INSERT
  5
14260
330
13EEF
100
AcDbEntity
  8
寸法
 62
     0
 48
50.0
370
    -2
100
AcDbBlockReference
  2
_DOTSMALL
 10
11556.02758725189
 20
5061.770259482559
 30
0.0
 41
100.0
 42
100.0
 43
100.0
 50
180.0
  0
MTEXT
  5
14261
330
13EEF
100
AcDbEntity
  8
寸法
 62
     7
 48
50.0
100
AcDbMText
 10
12650.67232432241
 20
5161.78207050618
 30
0.0
 40
120.0
 41
0.0
 71
     5
 72
     1
  1
\A1;柱外寸法2210
  7
STYLE1
 73
     1
 44
1.0
1001
ACAD
1000
MTEXTBEGIN
1070
    73
1070
     1
1070
    44
1040
1.0
1070
    74
1070
     0
1000
MTEXTEND
  0
POINT
  5
14262
330
13EEF
100
AcDbEntity
  8
DEFPOINTS
 62
     0
 48
50.0
100
AcDbPoint
 10
13766.02758725189
 20
4609.923485514907
 30
0.0
  0
POINT
  5
14263
330
13EEF
100
AcDbEntity
  8
DEFPOINTS
 62
     0
 48
50.0
100
AcDbPoint
 10
11556.02758725189
 20
4659.11442402623
 30
0.0
  0
POINT
  5
14264
330
13EEF
100
AcDbEntity
  8
DEFPOINTS
 62
     0
 48
50.0
100
AcDbPoint
 10
11556.02758725189
 20
5061.770259482559
 30
0.0
  0
ENDBLK
  5
13EFA
330
13EEF
100
AcDbEntity
  8
0
 48
50.0
100
AcDbBlockEnd
  0
BLOCK
  5
13F07
330
13EFB
100
AcDbEntity
  8
0
 48
50.0
100
AcDbBlockBegin
  2
*D19
 70
     1
 10
0.0
 20
0.0
 30
0.0
  3
*D19
  1

  0
LINE
  5
14251
330
13EFB
100
AcDbEntity
  8
寸法
 62
     0
 48
50.0
370
    -2
100
AcDbLine
 10
11556.02758725189
 20
4679.114424026231
 30
0.0
 11
11556.02758725189
 21
5121.770259482559
 31
0.0
  0
LINE
  5
14252
330
13EFB
100
AcDbEntity
  8
寸法
 62
     0
 48
50.0
370
    -2
100
AcDbLine
 10
11496.02758725189
 20
4683.11280590326
 30
0.0
 11
11496.02758725189
 21
5121.770259482559
 31
0.0
  0
LINE
  5
14253
330
13EFB
100
AcDbEntity
  8
寸法
 62
     0
 48
50.0
370
    -2
100
AcDbLine
 10
11556.02758725189
 20
5061.770259482559
 30
0.0
 11
11656.02758725189
 21
5061.770259482559
 31
0.0
  0
LINE
  5
14254
330
13EFB
100
AcDbEntity
  8
寸法
 62
     0
 48
50.0
370
    -2
100
AcDbLine
 10
11496.02758725189
 20
5061.770259482559
 30
0.0
 11
11076.75199670071
 21
5061.770259482559
 31
0.0
  0
LINE
  5
14255
330
13EFB
100
AcDbEntity
  8
寸法
 62
     0
 48
50.0
370
    -2
100
AcDbLine
 10
11556.02758725189
 20
5061.770259482559
 30
0.0
 11
11496.02758725189
 21
5061.770259482559
 31
0.0
  0
INSERT
  5
14256
330
13EFB
100
AcDbEntity
  8
寸法
 62
     0
 48
50.0
370
    -2
100
AcDbBlockReference
  2
_DOTSMALL
 10
11556.02758725189
 20
5061.770259482559
 30
0.0
 41
100.0
 42
100.0
 43
100.0
 50
180.0
  0
INSERT
  5
14257
330
13EFB
100
AcDbEntity
  8
寸法
 62
     0
 48
50.0
370
    -2
100
AcDbBlockReference
  2
_DOTSMALL
 10
11496.02758725189
 20
5061.770259482559
 30
0.0
 41
100.0
 42
100.0
 43
100.0
  0
MTEXT
  5
14258
330
13EFB
100
AcDbEntity
  8
寸法
 62
     7
 48
50.0
100
AcDbMText
 10
11186.3897919763
 20
5161.770259482558
 30
0.0
 40
120.0
 41
0.0
 71
     5
 72
     1
  1
\A1;60
  7
STYLE1
 73
     1
 44
1.0
1001
ACAD
1000
MTEXTBEGIN
1070
    73
1070
     1
1070
    44
1040
1.0
1070
    74
1070
     0
1000
MTEXTEND
  0
POINT
  5
14259
330
13EFB
100
AcDbEntity
  8
DEFPOINTS
 62
     0
 48
50.0
100
AcDbPoint
 10
11556.02758725189
 20
4659.11442402623
 30
0.0
  0
POINT
  5
1425A
330
13EFB
100
AcDbEntity
  8
DEFPOINTS
 62
     0
 48
50.0
100
AcDbPoint
 10
11496.02758725189
 20
4663.112805903259
 30
0.0
  0
POINT
  5
1425B
330
13EFB
100
AcDbEntity
  8
DEFPOINTS
 62
     0
 48
50.0
100
AcDbPoint
 10
11496.02758725189
 20
5061.770259482559
 30
0.0
  0
ENDBLK
  5
13F08
330
13EFB
100
AcDbEntity
  8
0
 48
50.0
100
AcDbBlockEnd
  0
BLOCK
  5
13F13
330
13F09
100
AcDbEntity
  8
0
 48
50.0
100
AcDbBlockBegin
  2
*D20
 70
     1
 10
0.0
 20
0.0
 30
0.0
  3
*D20
  1

  0
LINE
  5
14248
330
13F09
100
AcDbEntity
  8
寸法
 62
     0
 48
50.0
370
    -2
100
AcDbLine
 10
13846.02758725189
 20
4628.112805903255
 30
0.0
 11
13846.02758725189
 21
5340.97209315685
 31
0.0
  0
LINE
  5
14249
330
13F09
100
AcDbEntity
  8
寸法
 62
     0
 48
50.0
370
    -2
100
AcDbLine
 10
11496.02758725189
 20
4683.11280590326
 30
0.0
 11
11496.02758725189
 21
5340.97209315685
 31
0.0
  0
LINE
  5
1424A
330
13F09
100
AcDbEntity
  8
寸法
 62
     0
 48
50.0
370
    -2
100
AcDbLine
 10
13846.02758725189
 20
5280.97209315685
 30
0.0
 11
11496.02758725189
 21
5280.97209315685
 31
0.0
  0
INSERT
  5
1424B
330
13F09
100
AcDbEntity
  8
寸法
 62
     0
 48
50.0
370
    -2
100
AcDbBlockReference
  2
_DOTSMALL
 10
13846.02758725189
 20
5280.97209315685
 30
0.0
 41
100.0
 42
100.0
 43
100.0
  0
INSERT
  5
1424C
330
13F09
100
AcDbEntity
  8
寸法
 62
     0
 48
50.0
370
    -2
100
AcDbBlockReference
  2
_DOTSMALL
 10
11496.02758725189
 20
5280.97209315685
 30
0.0
 41
100.0
 42
100.0
 43
100.0
 50
180.0
  0
MTEXT
  5
1424D
330
13F09
100
AcDbEntity
  8
寸法
 62
     7
 48
50.0
100
AcDbMText
 10
12730.37144134436
 20
5380.983904180471
 30
0.0
 40
120.0
 41
0.0
 71
     5
 72
     1
  1
\A1;2350
  7
STYLE1
 73
     1
 44
1.0
1001
ACAD
1000
MTEXTBEGIN
1070
    73
1070
     1
1070
    44
1040
1.0
1070
    74
1070
     0
1000
MTEXTEND
  0
POINT
  5
1424E
330
13F09
100
AcDbEntity
  8
DEFPOINTS
 62
     0
 48
50.0
100
AcDbPoint
 10
13846.02758725189
 20
4608.112805903256
 30
0.0
  0
POINT
  5
1424F
330
13F09
100
AcDbEntity
  8
DEFPOINTS
 62
     0
 48
50.0
100
AcDbPoint
 10
11496.02758725189
 20
4663.112805903259
 30
0.0
  0
POINT
  5
14250
330
13F09
100
AcDbEntity
  8
DEFPOINTS
 62
     0
 48
50.0
100
AcDbPoint
 10
11496.02758725189
 20
5280.97209315685
 30
0.0
  0
ENDBLK
  5
13F14
330
13F09
100
AcDbEntity
  8
0
 48
50.0
100
AcDbBlockEnd
  0
BLOCK
  5
13F20
330
13F15
100
AcDbEntity
  8
0
 48
50.0
100
AcDbBlockBegin
  2
*D21
 70
     1
 10
0.0
 20
0.0
 30
0.0
  3
*D21
  1

  0
LINE
  5
1423E
330
13F15
100
AcDbEntity
  8
寸法
 62
     0
 48
50.0
370
    -2
100
AcDbLine
 10
13766.02758725189
 20
4629.923485514908
 30
0.0
 11
13766.02758725189
 21
5121.770259482559
 31
0.0
  0
LINE
  5
1423F
330
13F15
100
AcDbEntity
  8
寸法
 62
     0
 48
50.0
370
    -2
100
AcDbLine
 10
13846.02758725189
 20
4628.112805903255
 30
0.0
 11
13846.02758725189
 21
5121.770259482559
 31
0.0
  0
LINE
  5
14240
330
13F15
100
AcDbEntity
  8
寸法
 62
     0
 48
50.0
370
    -2
100
AcDbLine
 10
13766.02758725189
 20
5061.770259482559
 30
0.0
 11
13846.02758725189
 21
5061.770259482559
 31
0.0
  0
LINE
  5
14241
330
13F15
100
AcDbEntity
  8
寸法
 62
     0
 48
50.0
370
    -2
100
AcDbLine
 10
13846.02758725189
 20
5061.770259482559
 30
0.0
 11
14158.12207544087
 21
5061.770259482559
 31
0.0
  0
INSERT
  5
14242
330
13F15
100
AcDbEntity
  8
寸法
 62
     0
 48
50.0
370
    -2
100
AcDbBlockReference
  2
_DOTSMALL
 10
13766.02758725189
 20
5061.770259482559
 30
0.0
 41
100.0
 42
100.0
 43
100.0
 50
180.0
  0
INSERT
  5
14243
330
13F15
100
AcDbEntity
  8
寸法
 62
     0
 48
50.0
370
    -2
100
AcDbBlockReference
  2
_DOTSMALL
 10
13846.02758725189
 20
5061.770259482559
 30
0.0
 41
100.0
 42
100.0
 43
100.0
  0
MTEXT
  5
14244
330
13F15
100
AcDbEntity
  8
寸法
 62
     7
 48
50.0
100
AcDbMText
 10
14052.07483134638
 20
5161.770259482558
 30
0.0
 40
120.0
 41
0.0
 71
     5
 72
     1
  1
\A1;80
  7
STYLE1
 73
     1
 44
1.0
1001
ACAD
1000
MTEXTBEGIN
1070
    73
1070
     1
1070
    44
1040
1.0
1070
    74
1070
     0
1000
MTEXTEND
  0
POINT
  5
14245
330
13F15
100
AcDbEntity
  8
DEFPOINTS
 62
     0
 48
50.0
100
AcDbPoint
 10
13766.02758725189
 20
4609.923485514907
 30
0.0
  0
POINT
  5
14246
330
13F15
100
AcDbEntity
  8
DEFPOINTS
 62
     0
 48
50.0
100
AcDbPoint
 10
13846.02758725189
 20
4608.112805903256
 30
0.0
  0
POINT
  5
14247
330
13F15
100
AcDbEntity
  8
DEFPOINTS
 62
     0
 48
50.0
100
AcDbPoint
 10
13846.02758725189
 20
5061.770259482559
 30
0.0
  0
ENDBLK
  5
13F21
330
13F15
100
AcDbEntity
  8
0
 48
50.0
100
AcDbBlockEnd
  0
BLOCK
  5
13F2D
330
13F22
100
AcDbEntity
  8
0
 48
50.0
100
AcDbBlockBegin
  2
*D22
 70
     1
 10
0.0
 20
0.0
 30
0.0
  3
*D22
  1

  0
LINE
  5
14234
330
13F22
100
AcDbEntity
  8
寸法
 62
     0
 48
50.0
370
    -2
100
AcDbLine
 10
11495.43187354299
 20
4662.410512972916
 30
0.0
 11
10879.49743443771
 21
4680.124663247245
 31
0.0
  0
LINE
  5
14235
330
13F22
100
AcDbEntity
  8
寸法
 62
     0
 48
50.0
370
    -2
100
AcDbLine
 10
11491.37841798637
 20
4521.468789207204
 30
0.0
 11
10875.44397888108
 21
4539.182939481533
 31
0.0
  0
LINE
  5
14236
330
13F22
100
AcDbEntity
  8
寸法
 62
     0
 48
50.0
370
    -2
100
AcDbLine
 10
10935.41918048351
 20
4537.458064776586
 30
0.0
 11
10939.47263604014
 21
4678.399788542298
 31
0.0
  0
LINE
  5
14237
330
13F22
100
AcDbEntity
  8
寸法
 62
     0
 48
50.0
370
    -2
100
AcDbLine
 10
10939.47263604014
 20
4678.399788542298
 30
0.0
 11
10949.82188426982
 21
5038.250998156884
 31
0.0
  0
INSERT
  5
14238
330
13F22
100
AcDbEntity
  8
寸法
 62
     0
 48
50.0
370
    -2
100
AcDbBlockReference
  2
_DOTSMALL
 10
10935.41918048351
 20
4537.458064776586
 30
0.0
 41
100.0
 42
100.0
 43
100.0
 50
268.3526390256378
  0
INSERT
  5
14239
330
13F22
100
AcDbEntity
  8
寸法
 62
     0
 48
50.0
370
    -2
100
AcDbBlockReference
  2
_DOTSMALL
 10
10939.47263604014
 20
4678.399788542298
 30
0.0
 41
100.0
 42
100.0
 43
100.0
 50
88.35263902563776
  0
MTEXT
  5
1423A
330
13F22
100
AcDbEntity
  8
寸法
 62
     7
 48
50.0
100
AcDbMText
 10
10846.12598640505
 20
4911.179519193197
 30
0.0
 40
120.0
 41
0.0
 71
     5
 72
     1
  1
\A1;141
  7
STYLE1
 11
0.0287479117491237
 21
0.9995866933738488
 31
0.0
 73
     1
 44
1.0
1001
ACAD
1000
MTEXTBEGIN
1070
    73
1070
     1
1070
    44
1040
1.0
1070
    74
1070
     0
1000
MTEXTEND
  0
POINT
  5
1423B
330
13F22
100
AcDbEntity
  8
DEFPOINTS
 62
     0
 48
50.0
100
AcDbPoint
 10
11515.42360741047
 20
4661.835554737932
 30
0.0
  0
POINT
  5
1423C
330
13F22
100
AcDbEntity
  8
DEFPOINTS
 62
     0
 48
50.0
100
AcDbPoint
 10
11511.37015185384
 20
4520.893830972221
 30
0.0
  0
POINT
  5
1423D
330
13F22
100
AcDbEntity
  8
DEFPOINTS
 62
     0
 48
50.0
100
AcDbPoint
 10
10935.41918048351
 20
4537.458064776586
 30
0.0
  0
ENDBLK
  5
13F2E
330
13F22
100
AcDbEntity
  8
0
 48
50.0
100
AcDbBlockEnd
  0
BLOCK
  5
13F51
330
13F47
100
AcDbEntity
  8
0
 48
50.0
100
AcDbBlockBegin
  2
*D23
 70
     1
 10
0.0
 20
0.0
 30
0.0
  3
*D23
  1

  0
LINE
  5
1422B
330
13F47
100
AcDbEntity
  8
寸法
 62
     0
 48
50.0
370
    -2
100
AcDbLine
 10
13786.0275872519
 20
2288.112805903255
 30
0.0
 11
14530.95474522402
 21
2288.112805903255
 31
0.0
  0
LINE
  5
1422C
330
13F47
100
AcDbEntity
  8
寸法
 62
     0
 48
50.0
370
    -2
100
AcDbLine
 10
13866.0275872519
 20
4608.112805903256
 30
0.0
 11
14530.95474522402
 21
4608.112805903255
 31
0.0
  0
LINE
  5
1422D
330
13F47
100
AcDbEntity
  8
寸法
 62
     0
 48
50.0
370
    -2
100
AcDbLine
 10
14470.95474522402
 20
2288.112805903255
 30
0.0
 11
14470.95474522402
 21
4608.112805903255
 31
0.0
  0
INSERT
  5
1422E
330
13F47
100
AcDbEntity
  8
寸法
 62
     0
 48
50.0
370
    -2
100
AcDbBlockReference
  2
_DOTSMALL
 10
14470.95474522402
 20
2288.112805903255
 30
0.0
 41
100.0
 42
100.0
 43
100.0
 50
270.0
  0
INSERT
  5
1422F
330
13F47
100
AcDbEntity
  8
寸法
 62
     0
 48
50.0
370
    -2
100
AcDbBlockReference
  2
_DOTSMALL
 10
14470.95474522402
 20
4608.112805903255
 30
0.0
 41
100.0
 42
100.0
 43
100.0
 50
90.0
  0
MTEXT
  5
14230
330
13F47
100
AcDbEntity
  8
寸法
 62
     7
 48
50.0
100
AcDbMText
 10
14370.9429342004
 20
3448.112805903258
 30
0.0
 40
120.0
 41
0.0
 71
     5
 72
     1
  1
\A1;2320
  7
STYLE1
 11
0.0000000000000001
 21
1.0
 31
0.0
 73
     1
 44
1.0
1001
ACAD
1000
MTEXTBEGIN
1070
    73
1070
     1
1070
    44
1040
1.0
1070
    74
1070
     0
1000
MTEXTEND
  0
POINT
  5
14231
330
13F47
100
AcDbEntity
  8
DEFPOINTS
 62
     0
 48
50.0
100
AcDbPoint
 10
13766.0275872519
 20
2288.112805903255
 30
0.0
  0
POINT
  5
14232
330
13F47
100
AcDbEntity
  8
DEFPOINTS
 62
     0
 48
50.0
100
AcDbPoint
 10
13846.0275872519
 20
4608.112805903256
 30
0.0
  0
POINT
  5
14233
330
13F47
100
AcDbEntity
  8
DEFPOINTS
 62
     0
 48
50.0
100
AcDbPoint
 10
14470.95474522402
 20
4608.112805903255
 30
0.0
  0
ENDBLK
  5
13F52
330
13F47
100
AcDbEntity
  8
0
 48
50.0
100
AcDbBlockEnd
  0
BLOCK
  5
13F5D
330
13F53
100
AcDbEntity
  8
0
 48
50.0
100
AcDbBlockBegin
  2
*D24
 70
     1
 10
0.0
 20
0.0
 30
0.0
  3
*D24
  1

  0
LINE
  5
14222
330
13F53
100
AcDbEntity
  8
寸法
 62
     0
 48
50.0
370
    -2
100
AcDbLine
 10
11459.02758725189
 20
2288.112805903255
 30
0.0
 11
10352.27745806863
 21
2288.112805903255
 31
0.0
  0
LINE
  5
14223
330
13F53
100
AcDbEntity
  8
寸法
 62
     0
 48
50.0
370
    -2
100
AcDbLine
 10
11476.0275872519
 20
4663.112805903259
 30
0.0
 11
10352.27745806863
 21
4663.112805903259
 31
0.0
  0
LINE
  5
14224
330
13F53
100
AcDbEntity
  8
寸法
 62
     0
 48
50.0
370
    -2
100
AcDbLine
 10
10412.27745806863
 20
2288.112805903255
 30
0.0
 11
10412.27745806863
 21
4663.112805903259
 31
0.0
  0
INSERT
  5
14225
330
13F53
100
AcDbEntity
  8
寸法
 62
     0
 48
50.0
370
    -2
100
AcDbBlockReference
  2
_DOTSMALL
 10
10412.27745806863
 20
2288.112805903255
 30
0.0
 41
100.0
 42
100.0
 43
100.0
 50
270.0
  0
INSERT
  5
14226
330
13F53
100
AcDbEntity
  8
寸法
 62
     0
 48
50.0
370
    -2
100
AcDbBlockReference
  2
_DOTSMALL
 10
10412.27745806863
 20
4663.112805903259
 30
0.0
 41
100.0
 42
100.0
 43
100.0
 50
90.0
  0
MTEXT
  5
14227
330
13F53
100
AcDbEntity
  8
寸法
 62
     7
 48
50.0
100
AcDbMText
 10
10312.26564704501
 20
3475.61280590326
 30
0.0
 40
120.0
 41
0.0
 71
     5
 72
     1
  1
\A1;2375
  7
STYLE1
 11
0.0000000000000001
 21
1.0
 31
0.0
 73
     1
 44
1.0
1001
ACAD
1000
MTEXTBEGIN
1070
    73
1070
     1
1070
    44
1040
1.0
1070
    74
1070
     0
1000
MTEXTEND
  0
POINT
  5
14228
330
13F53
100
AcDbEntity
  8
DEFPOINTS
 62
     0
 48
50.0
100
AcDbPoint
 10
11479.02758725189
 20
2288.112805903255
 30
0.0
  0
POINT
  5
14229
330
13F53
100
AcDbEntity
  8
DEFPOINTS
 62
     0
 48
50.0
100
AcDbPoint
 10
11496.0275872519
 20
4663.112805903259
 30
0.0
  0
POINT
  5
1422A
330
13F53
100
AcDbEntity
  8
DEFPOINTS
 62
     0
 48
50.0
100
AcDbPoint
 10
10412.27745806863
 20
4663.112805903259
 30
0.0
  0
ENDBLK
  5
13F5E
330
13F53
100
AcDbEntity
  8
0
 48
50.0
100
AcDbBlockEnd
  0
BLOCK
  5
13F69
330
13F5F
100
AcDbEntity
  8
0
 48
50.0
100
AcDbBlockBegin
  2
*D25
 70
     1
 10
0.0
 20
0.0
 30
0.0
  3
*D25
  1

  0
LINE
  5
14219
330
13F5F
100
AcDbEntity
  8
寸法
 62
     0
 48
50.0
370
    -2
100
AcDbLine
 10
11536.02758725189
 20
4428.112805903254
 30
0.0
 11
10652.27745806863
 21
4428.112805903254
 31
0.0
  0
LINE
  5
1421A
330
13F5F
100
AcDbEntity
  8
寸法
 62
     0
 48
50.0
370
    -2
100
AcDbLine
 10
11536.02758725189
 20
2338.112805903255
 30
0.0
 11
10652.27745806863
 21
2338.112805903255
 31
0.0
  0
LINE
  5
1421B
330
13F5F
100
AcDbEntity
  8
寸法
 62
     0
 48
50.0
370
    -2
100
AcDbLine
 10
10712.27745806863
 20
4428.112805903254
 30
0.0
 11
10712.27745806863
 21
2338.112805903255
 31
0.0
  0
INSERT
  5
1421C
330
13F5F
100
AcDbEntity
  8
寸法
 62
     0
 48
50.0
370
    -2
100
AcDbBlockReference
  2
_DOTSMALL
 10
10712.27745806863
 20
4428.112805903254
 30
0.0
 41
100.0
 42
100.0
 43
100.0
 50
90.0
  0
INSERT
  5
1421D
330
13F5F
100
AcDbEntity
  8
寸法
 62
     0
 48
50.0
370
    -2
100
AcDbBlockReference
  2
_DOTSMALL
 10
10712.27745806863
 20
2338.112805903255
 30
0.0
 41
100.0
 42
100.0
 43
100.0
 50
270.0
  0
MTEXT
  5
1421E
330
13F5F
100
AcDbEntity
  8
寸法
 62
     7
 48
50.0
100
AcDbMText
 10
10612.26564704501
 20
3383.112805903257
 30
0.0
 40
120.0
 41
0.0
 71
     5
 72
     1
  1
\A1;2090
  7
STYLE1
 11
0.0000000000000001
 21
1.0
 31
0.0
 73
     1
 44
1.0
1001
ACAD
1000
MTEXTBEGIN
1070
    73
1070
     1
1070
    44
1040
1.0
1070
    74
1070
     0
1000
MTEXTEND
  0
POINT
  5
1421F
330
13F5F
100
AcDbEntity
  8
DEFPOINTS
 62
     0
 48
50.0
100
AcDbPoint
 10
11556.02758725189
 20
4428.112805903254
 30
0.0
  0
POINT
  5
14220
330
13F5F
100
AcDbEntity
  8
DEFPOINTS
 62
     0
 48
50.0
100
AcDbPoint
 10
11556.02758725189
 20
2338.112805903255
 30
0.0
  0
POINT
  5
14221
330
13F5F
100
AcDbEntity
  8
DEFPOINTS
 62
     0
 48
50.0
100
AcDbPoint
 10
10712.27745806863
 20
2338.112805903255
 30
0.0
  0
ENDBLK
  5
13F6A
330
13F5F
100
AcDbEntity
  8
0
 48
50.0
100
AcDbBlockEnd
  0
BLOCK
  5
13FB5
330
13FAB
100
AcDbEntity
  8
0
 48
50.0
100
AcDbBlockBegin
  2
*D26
 70
     1
 10
0.0
 20
0.0
 30
0.0
  3
*D26
  1

  0
LINE
  5
14270
330
13FAB
100
AcDbEntity
  8
寸法
 62
     0
 48
50.0
370
    -2
100
AcDbLine
 10
11459.02758725189
 20
4379.112805903254
 30
0.0
 11
10971.11894585464
 21
4379.112805903254
 31
0.0
  0
LINE
  5
14271
330
13FAB
100
AcDbEntity
  8
寸法
 62
     0
 48
50.0
370
    -2
100
AcDbLine
 10
11459.02758725189
 20
2354.112805903255
 30
0.0
 11
10971.11894585463
 21
2354.112805903255
 31
0.0
  0
LINE
  5
14272
330
13FAB
100
AcDbEntity
  8
寸法
 62
     0
 48
50.0
370
    -2
100
AcDbLine
 10
11011.11894585464
 20
4359.112805903254
 30
0.0
 11
11011.11894585463
 21
2374.112805903255
 31
0.0
  0
INSERT
  5
14273
330
13FAB
100
AcDbEntity
  8
寸法
 62
     0
 48
50.0
370
    -2
100
AcDbBlockReference
  2
_DOT
 10
11011.11894585464
 20
4379.112805903254
 30
0.0
 41
20.0
 42
20.0
 43
20.0
 50
90.0
  0
INSERT
  5
14274
330
13FAB
100
AcDbEntity
  8
寸法
 62
     0
 48
50.0
370
    -2
100
AcDbBlockReference
  2
_DOT
 10
11011.11894585463
 20
2354.112805903255
 30
0.0
 41
20.0
 42
20.0
 43
20.0
 50
270.0
  0
MTEXT
  5
14275
330
13FAB
100
AcDbEntity
  8
寸法
 62
     7
 48
50.0
100
AcDbMText
 10
10919.10713483101
 20
3366.612805903257
 30
0.0
 40
120.0
 41
0.0
 71
     5
 72
     1
  1
\A1;有効開口部高サ2025
  7
STYLE1
 11
0.0000000000000001
 21
1.0
 31
0.0
 73
     1
 44
1.0
1001
ACAD
1000
MTEXTBEGIN
1070
    73
1070
     1
1070
    44
1040
1.0
1070
    74
1070
     0
1000
MTEXTEND
  0
POINT
  5
14276
330
13FAB
100
AcDbEntity
  8
DEFPOINTS
 62
     0
 48
50.0
100
AcDbPoint
 10
11479.02758725189
 20
4379.112805903254
 30
0.0
  0
POINT
  5
14277
330
13FAB
100
AcDbEntity
  8
DEFPOINTS
 62
     0
 48
50.0
100
AcDbPoint
 10
11479.02758725189
 20
2354.112805903255
 30
0.0
  0
POINT
  5
14278
330
13FAB
100
AcDbEntity
  8
DEFPOINTS
 62
     0
 48
50.0
100
AcDbPoint
 10
11011.11894585463
 20
2354.112805903255
 30
0.0
  0
ENDBLK
  5
13FB6
330
13FAB
100
AcDbEntity
  8
0
 48
50.0
100
AcDbBlockEnd
  0
BLOCK
  5
1447B
330
14471
100
AcDbEntity
  8
0
 48
50.0
100
AcDbBlockBegin
  2
*D27
 70
     1
 10
0.0
 20
0.0
 30
0.0
  3
*D27
  1

  0
LINE
  5
149BE
330
14471
100
AcDbEntity
  8
寸法
 62
     0
 48
50.0
370
    -2
100
AcDbLine
 10
3645.904397928898
 20
7238.057105901765
 30
0.0
 11
3645.904397928898
 21
6552.835347201813
 31
0.0
  0
LINE
  5
149BF
330
14471
100
AcDbEntity
  8
寸法
 62
     0
 48
50.0
370
    -2
100
AcDbLine
 10
4911.904397928898
 20
7238.057105901765
 30
0.0
 11
4911.904397928898
 21
6552.835347201813
 31
0.0
  0
LINE
  5
149C0
330
14471
100
AcDbEntity
  8
寸法
 62
     0
 48
50.0
370
    -2
100
AcDbLine
 10
3665.904397928898
 20
6592.835347201813
 30
0.0
 11
4891.904397928898
 21
6592.835347201813
 31
0.0
  0
INSERT
  5
149C1
330
14471
100
AcDbEntity
  8
寸法
 62
     0
 48
50.0
370
    -2
100
AcDbBlockReference
  2
_DOT
 10
3645.904397928898
 20
6592.835347201813
 30
0.0
 41
20.0
 42
20.0
 43
20.0
 50
180.0
  0
INSERT
  5
149C2
330
14471
100
AcDbEntity
  8
寸法
 62
     0
 48
50.0
370
    -2
100
AcDbBlockReference
  2
_DOT
 10
4911.904397928898
 20
6592.835347201813
 30
0.0
 41
20.0
 42
20.0
 43
20.0
  0
MTEXT
  5
149C3
330
14471
100
AcDbEntity
  8
寸法
 62
     7
 48
50.0
100
AcDbMText
 10
4289.429942239985
 20
6784.847158225435
 30
0.0
 40
120.0
 41
0.0
 71
     5
 72
     1
  1
\A1;有効開口部間口\P1266
  7
STYLE1
 73
     1
 44
1.0
1001
ACAD
1000
MTEXTBEGIN
1070
    73
1070
     1
1070
    44
1040
1.0
1070
    74
1070
     0
1000
MTEXTEND
  0
POINT
  5
149C4
330
14471
100
AcDbEntity
  8
DEFPOINTS
 62
     0
 48
50.0
100
AcDbPoint
 10
3645.904397928898
 20
7258.057105901766
 30
0.0
  0
POINT
  5
149C5
330
14471
100
AcDbEntity
  8
DEFPOINTS
 62
     0
 48
50.0
100
AcDbPoint
 10
4911.904397928898
 20
7258.057105901766
 30
0.0
  0
POINT
  5
149C6
330
14471
100
AcDbEntity
  8
DEFPOINTS
 62
     0
 48
50.0
100
AcDbPoint
 10
4911.904397928898
 20
6592.835347201813
 30
0.0
  0
ENDBLK
  5
1447C
330
14471
100
AcDbEntity
  8
0
 48
50.0
100
AcDbBlockEnd
  0
BLOCK
  5
1481A
330
14810
100
AcDbEntity
  8
0
 48
50.0
100
AcDbBlockBegin
  2
*D28
 70
     1
 10
0.0
 20
0.0
 30
0.0
  3
*D28
  1

  0
LINE
  5
14998
330
14810
100
AcDbEntity
  8
寸法
 62
     0
 48
50.0
370
    -2
100
AcDbLine
 10
3158.904397928897
 20
7315.057105901759
 30
0.0
 11
3158.904397928897
 21
5969.975148398914
 31
0.0
  0
LINE
  5
14999
330
14810
100
AcDbEntity
  8
寸法
 62
     0
 48
50.0
370
    -2
100
AcDbLine
 10
5788.904397928899
 20
7370.057105901759
 30
0.0
 11
5788.904397928899
 21
5969.975148398914
 31
0.0
  0
LINE
  5
1499A
330
14810
100
AcDbEntity
  8
寸法
 62
     0
 48
50.0
370
    -2
100
AcDbLine
 10
3178.904397928898
 20
6009.975148398914
 30
0.0
 11
5768.904397928899
 21
6009.975148398914
 31
0.0
  0
INSERT
  5
1499B
330
14810
100
AcDbEntity
  8
寸法
 62
     0
 48
50.0
370
    -2
100
AcDbBlockReference
  2
_DOT
 10
3158.904397928897
 20
6009.975148398914
 30
0.0
 41
20.0
 42
20.0
 43
20.0
 50
180.0
  0
INSERT
  5
1499C
330
14810
100
AcDbEntity
  8
寸法
 62
     0
 48
50.0
370
    -2
100
AcDbBlockReference
  2
_DOT
 10
5788.904397928899
 20
6009.975148398914
 30
0.0
 41
20.0
 42
20.0
 43
20.0
  0
MTEXT
  5
1499D
330
14810
100
AcDbEntity
  8
寸法
 62
     7
 48
50.0
100
AcDbMText
 10
4473.904397928897
 20
6101.986959422536
 30
0.0
 40
120.0
 41
0.0
 71
     5
 72
     1
  1
\A1;2630
  7
STYLE1
 73
     1
 44
1.0
1001
ACAD
1000
MTEXTBEGIN
1070
    73
1070
     1
1070
    44
1040
1.0
1070
    74
1070
     0
1000
MTEXTEND
  0
POINT
  5
1499E
330
14810
100
AcDbEntity
  8
DEFPOINTS
 62
     0
 48
50.0
100
AcDbPoint
 10
3158.904397928897
 20
7335.05710590176
 30
0.0
  0
POINT
  5
1499F
330
14810
100
AcDbEntity
  8
DEFPOINTS
 62
     0
 48
50.0
100
AcDbPoint
 10
5788.904397928899
 20
7390.057105901759
 30
0.0
  0
POINT
  5
149A0
330
14810
100
AcDbEntity
  8
DEFPOINTS
 62
     0
 48
50.0
100
AcDbPoint
 10
5788.904397928899
 20
6009.975148398914
 30
0.0
  0
ENDBLK
  5
1481B
330
14810
100
AcDbEntity
  8
0
 48
50.0
100
AcDbBlockEnd
  0
BLOCK
  5
14880
330
14876
100
AcDbEntity
  8
0
 48
50.0
100
AcDbBlockBegin
  2
*D29
 70
     1
 10
0.0
 20
0.0
 30
0.0
  3
*D29
  1

  0
LINE
  5
149B5
330
14876
100
AcDbEntity
  8
寸法
 62
     0
 48
50.0
370
    -2
100
AcDbLine
 10
3606.904397928899
 20
7238.057105901765
 30
0.0
 11
3606.904397928899
 21
6239.10009839251
 31
0.0
  0
LINE
  5
149B6
330
14876
100
AcDbEntity
  8
寸法
 62
     0
 48
50.0
370
    -2
100
AcDbLine
 10
5760.904397928899
 20
7238.057105901765
 30
0.0
 11
5760.904397928899
 21
6239.10009839251
 31
0.0
  0
LINE
  5
149B7
330
14876
100
AcDbEntity
  8
寸法
 62
     0
 48
50.0
370
    -2
100
AcDbLine
 10
3606.904397928899
 20
6299.100098392511
 30
0.0
 11
5760.904397928899
 21
6299.100098392511
 31
0.0
  0
INSERT
  5
149B8
330
14876
100
AcDbEntity
  8
寸法
 62
     0
 48
50.0
370
    -2
100
AcDbBlockReference
  2
_DOTSMALL
 10
3606.904397928899
 20
6299.100098392511
 30
0.0
 41
100.0
 42
100.0
 43
100.0
 50
180.0
  0
INSERT
  5
149B9
330
14876
100
AcDbEntity
  8
寸法
 62
     0
 48
50.0
370
    -2
100
AcDbBlockReference
  2
_DOTSMALL
 10
5760.904397928899
 20
6299.100098392511
 30
0.0
 41
100.0
 42
100.0
 43
100.0
  0
MTEXT
  5
149BA
330
14876
100
AcDbEntity
  8
寸法
 62
     7
 48
50.0
100
AcDbMText
 10
4661.026398577756
 20
6399.111909416133
 30
0.0
 40
120.0
 41
0.0
 71
     5
 72
     1
  1
\A1;2154
  7
STYLE1
 73
     1
 44
1.0
1001
ACAD
1000
MTEXTBEGIN
1070
    73
1070
     1
1070
    44
1040
1.0
1070
    74
1070
     0
1000
MTEXTEND
  0
POINT
  5
149BB
330
14876
100
AcDbEntity
  8
DEFPOINTS
 62
     0
 48
50.0
100
AcDbPoint
 10
3606.904397928899
 20
7258.057105901764
 30
0.0
  0
POINT
  5
149BC
330
14876
100
AcDbEntity
  8
DEFPOINTS
 62
     0
 48
50.0
100
AcDbPoint
 10
5760.904397928899
 20
7258.057105901764
 30
0.0
  0
POINT
  5
149BD
330
14876
100
AcDbEntity
  8
DEFPOINTS
 62
     0
 48
50.0
100
AcDbPoint
 10
5760.904397928899
 20
6299.100098392511
 30
0.0
  0
ENDBLK
  5
14881
330
14876
100
AcDbEntity
  8
0
 48
50.0
100
AcDbBlockEnd
  0
BLOCK
  5
1488E
330
14882
100
AcDbEntity
  8
0
 48
50.0
100
AcDbBlockBegin
  2
*D30
 70
     1
 10
0.0
 20
0.0
 30
0.0
  3
*D30
  1

  0
LINE
  5
149AA
330
14882
100
AcDbEntity
  8
寸法
 62
     0
 48
50.0
370
    -2
100
AcDbLine
 10
3138.904397928898
 20
7335.05710590176
 30
0.0
 11
2787.585584024849
 21
7335.05710590176
 31
0.0
  0
LINE
  5
149AB
330
14882
100
AcDbEntity
  8
寸法
 62
     0
 48
50.0
370
    -2
100
AcDbLine
 10
3586.904397928899
 20
7260.057105901733
 30
0.0
 11
2787.585584024849
 21
7260.057105901733
 31
0.0
  0
LINE
  5
149AC
330
14882
100
AcDbEntity
  8
寸法
 62
     0
 48
50.0
370
    -2
100
AcDbLine
 10
2827.585584024849
 20
7355.05710590176
 30
0.0
 11
2827.585584024849
 21
7375.057105901759
 31
0.0
  0
LINE
  5
149AD
330
14882
100
AcDbEntity
  8
寸法
 62
     0
 48
50.0
370
    -2
100
AcDbLine
 10
2827.585584024849
 20
7240.057105901732
 30
0.0
 11
2827.585584024849
 21
7019.086543153254
 31
0.0
  0
LINE
  5
149AE
330
14882
100
AcDbEntity
  8
寸法
 62
     0
 48
50.0
370
    -2
100
AcDbLine
 10
2827.585584024849
 20
7335.05710590176
 30
0.0
 11
2827.585584024849
 21
7260.057105901733
 31
0.0
  0
INSERT
  5
149AF
330
14882
100
AcDbEntity
  8
寸法
 62
     0
 48
50.0
370
    -2
100
AcDbBlockReference
  2
_DOT
 10
2827.585584024849
 20
7335.05710590176
 30
0.0
 41
20.0
 42
20.0
 43
20.0
 50
270.0
  0
INSERT
  5
149B0
330
14882
100
AcDbEntity
  8
寸法
 62
     0
 48
50.0
370
    -2
100
AcDbBlockReference
  2
_DOT
 10
2827.585584024849
 20
7260.057105901733
 30
0.0
 41
20.0
 42
20.0
 43
20.0
 50
90.0
  0
MTEXT
  5
149B1
330
14882
100
AcDbEntity
  8
寸法
 62
     7
 48
50.0
100
AcDbMText
 10
2735.585584024848
 20
7119.571824527494
 30
0.0
 40
120.0
 41
0.0
 71
     5
 72
     1
  1
\A1;75
  7
STYLE1
 11
0.0000000000000001
 21
1.0
 31
0.0
 73
     1
 44
1.0
1001
ACAD
1000
MTEXTBEGIN
1070
    73
1070
     1
1070
    44
1040
1.0
1070
    74
1070
     0
1000
MTEXTEND
  0
POINT
  5
149B2
330
14882
100
AcDbEntity
  8
DEFPOINTS
 62
     0
 48
50.0
100
AcDbPoint
 10
3158.904397928898
 20
7335.05710590176
 30
0.0
  0
POINT
  5
149B3
330
14882
100
AcDbEntity
  8
DEFPOINTS
 62
     0
 48
50.0
100
AcDbPoint
 10
3606.904397928899
 20
7260.057105901733
 30
0.0
  0
POINT
  5
149B4
330
14882
100
AcDbEntity
  8
DEFPOINTS
 62
     0
 48
50.0
100
AcDbPoint
 10
2827.585584024849
 20
7260.057105901733
 30
0.0
  0
ENDBLK
  5
1488F
330
14882
100
AcDbEntity
  8
0
 48
50.0
100
AcDbBlockEnd
  0
BLOCK
  5
148BE
330
148B4
100
AcDbEntity
  8
0
 48
50.0
100
AcDbBlockBegin
  2
*D31
 70
     1
 10
0.0
 20
0.0
 30
0.0
  3
*D31
  1

  0
LINE
  5
149A1
330
148B4
100
AcDbEntity
  8
寸法
 62
     0
 48
50.0
370
    -2
100
AcDbLine
 10
5788.904397928899
 20
7370.057105901756
 30
0.0
 11
5788.904397928899
 21
5969.975148398914
 31
0.0
  0
LINE
  5
149A2
330
148B4
100
AcDbEntity
  8
寸法
 62
     0
 48
50.0
370
    -2
100
AcDbLine
 10
8418.904397928898
 20
7315.057105901759
 30
0.0
 11
8418.904397928898
 21
5969.975148398914
 31
0.0
  0
LINE
  5
149A3
330
148B4
100
AcDbEntity
  8
寸法
 62
     0
 48
50.0
370
    -2
100
AcDbLine
 10
5808.904397928898
 20
6009.975148398914
 30
0.0
 11
8398.904397928898
 21
6009.975148398914
 31
0.0
  0
INSERT
  5
149A4
330
148B4
100
AcDbEntity
  8
寸法
 62
     0
 48
50.0
370
    -2
100
AcDbBlockReference
  2
_DOT
 10
5788.904397928899
 20
6009.975148398914
 30
0.0
 41
20.0
 42
20.0
 43
20.0
 50
180.0
  0
INSERT
  5
149A5
330
148B4
100
AcDbEntity
  8
寸法
 62
     0
 48
50.0
370
    -2
100
AcDbBlockReference
  2
_DOT
 10
8418.904397928898
 20
6009.975148398914
 30
0.0
 41
20.0
 42
20.0
 43
20.0
  0
MTEXT
  5
149A6
330
148B4
100
AcDbEntity
  8
寸法
 62
     7
 48
50.0
100
AcDbMText
 10
7103.904397928897
 20
6101.986959422536
 30
0.0
 40
120.0
 41
0.0
 71
     5
 72
     1
  1
\A1;2630
  7
STYLE1
 73
     1
 44
1.0
1001
ACAD
1000
MTEXTBEGIN
1070
    73
1070
     1
1070
    44
1040
1.0
1070
    74
1070
     0
1000
MTEXTEND
  0
POINT
  5
149A7
330
148B4
100
AcDbEntity
  8
DEFPOINTS
 62
     0
 48
50.0
100
AcDbPoint
 10
5788.904397928899
 20
7390.057105901757
 30
0.0
  0
POINT
  5
149A8
330
148B4
100
AcDbEntity
  8
DEFPOINTS
 62
     0
 48
50.0
100
AcDbPoint
 10
8418.904397928898
 20
7335.05710590176
 30
0.0
  0
POINT
  5
149A9
330
148B4
100
AcDbEntity
  8
DEFPOINTS
 62
     0
 48
50.0
100
AcDbPoint
 10
8418.904397928898
 20
6009.975148398914
 30
0.0
  0
ENDBLK
  5
148BF
330
148B4
100
AcDbEntity
  8
0
 48
50.0
100
AcDbBlockEnd
  0
ENDSEC
  0
SECTION
  2
ENTITIES
  0
MTEXT
  5
763F
330
747D
100
AcDbEntity
  8
0
100
AcDbMText
 10
302.846345836809
 20
280.1983726409901
 30
0.0
 40
3.5
 41
5.323721266742722
 71
     1
 72
     5
  1

  7
MSMINCHO
 73
     1
 44
1.0
1001
ACAD
1000
MTEXTBEGIN
1070
    73
1070
     1
1070
    44
1040
1.0
1070
    74
1070
     0
1000
MTEXTEND
  0
INSERT
  5
F235
330
747D
100
AcDbEntity
  8
0
100
AcDbBlockReference
  2
作図枠S50
 10
0.0
 20
0.0
 30
0.0
 41
0.8
 42
0.8
 43
0.8
  0
LINE
  5
10B56
330
747D
100
AcDbEntity
  8
補助
  6
PHANTOM
 62
   230
 48
50.0
100
AcDbLine
 10
140.0
 20
0.0
 30
0.0
 11
139.9999999999995
 21
11409.6
 31
0.0
  0
LINE
  5
10B57
330
747D
100
AcDbEntity
  8
補助
  6
PHANTOM
 62
   230
 48
50.0
100
AcDbLine
 10
139.9999999999995
 20
11409.6
 30
0.0
 11
16307.2
 21
11409.6
 31
0.0
  0
LINE
  5
10B59
330
747D
100
AcDbEntity
  8
仕様書枠
  6
Continuous
 48
50.0
100
AcDbLine
 10
13107.2
 20
1200.0
 30
0.0
 11
13107.2
 21
-0.0000000000000729
 31
0.0
  0
LINE
  5
10B5C
330
747D
100
AcDbEntity
  8
仕様書枠
 48
50.0
100
AcDbLine
 10
16307.2
 20
1200.0
 30
0.0
 11
16307.2
 21
-0.0000000000000909
 31
0.0
  0
LINE
  5
10B5D
330
747D
100
AcDbEntity
  8
仕様書枠
 48
50.0
100
AcDbLine
 10
140.0
 20
0.0
 30
0.0
 11
16307.2
 21
-0.0000000000000909
 31
0.0
  0
LINE
  5
10B5E
330
747D
100
AcDbEntity
  8
補助
  6
PHANTOM
 62
   230
 48
50.0
100
AcDbLine
 10
16307.2
 20
11409.6
 30
0.0
 11
16307.2
 21
1200.0
 31
0.0
  0
LINE
  5
10B6C
330
747D
100
AcDbEntity
  8
仕様書枠
 48
50.0
100
AcDbLine
 10
13107.2
 20
1200.0
 30
0.0
 11
16307.2
 21
1200.0
 31
0.0
  0
LINE
  5
10B6D
330
747D
100
AcDbEntity
  8
補助
  6
PHANTOM
 62
   230
 48
50.0
100
AcDbLine
 10
13107.2
 20
11409.6
 30
0.0
 11
13107.2
 21
4800.0
 31
0.0
  0
LINE
  5
10B6F
330
747D
100
AcDbEntity
  8
補助
  6
PHANTOM
 62
   230
 48
50.0
100
AcDbLine
 10
13107.2
 20
4800.0
 30
0.0
 11
16307.2
 21
4800.0
 31
0.0
  0
LINE
  5
10B72
330
747D
100
AcDbEntity
  8
文字
 62
     7
 48
50.0
100
AcDbLine
 10
13187.2
 20
400.0
 30
0.0
 11
16227.2
 21
400.0
 31
0.0
  0
TEXT
  5
10B73
330
747D
100
AcDbEntity
  8
文字
 62
     7
 48
50.0
100
AcDbText
 10
13162.9790565769
 20
895.0906074299405
 30
0.0
 40
200.0
  1
外 形 図
  7
STYLE2
100
AcDbText
  0
TEXT
  5
10B74
330
747D
100
AcDbEntity
  8
文字
 62
     7
 48
50.0
100
AcDbText
 10
13201.43669998441
 20
477.2740661031255
 30
0.0
 40
160.0
  1
機種名
  7
STYLE2
100
AcDbText
  0
TEXT
  5
10B76
330
747D
100
AcDbEntity
  8
文字
 62
     7
 48
50.0
100
AcDbText
 10
13209.4053442172
 20
76.09434707649343
 30
0.0
 40
100.0
  1
○床面積 ： 11.79㎡(3.57坪) 　
  7
STYLE2
100
AcDbText
  0
TEXT
  5
10B79
330
747D
100
AcDbEntity
  8
文字
 62
     7
 48
50.0
100
AcDbText
 10
14524.131837222
 20
1031.557706291228
 30
0.0
 40
100.0
  1
NO.18     <縮尺> S=1/40
  7
STYLE2
100
AcDbText
  0
LINE
  5
10B7B
330
747D
100
AcDbEntity
  8
仕様書枠
 48
50.0
100
AcDbLine
 10
13107.2
 20
800.0
 30
0.0
 11
14251.2
 21
800.0
 31
0.0
  0
LINE
  5
10B88
330
747D
100
AcDbEntity
  8
仕様書枠
  6
Continuous
 48
50.0
100
AcDbLine
 10
14251.2
 20
1200.0
 30
0.0
 11
14251.2
 21
800.0
 31
0.0
  0
TEXT
  5
10EA8
330
747D
100
AcDbEntity
  8
文字
 62
     7
 48
50.0
100
AcDbText
 10
14608.80443268923
 20
838.2527270729188
 30
0.0
 40
100.0
  1
～一般型～
  7
STYLE2
100
AcDbText
  0
ARC
  5
132EB
330
747D
100
AcDbEntity
  8
部品1
 48
0.01
100
AcDbCircle
 10
6576.904397928891
 20
4460.612805903254
 30
0.0
 40
2.0
100
AcDbArc
 50
270.0
 51
0.0
  0
ARC
  5
132EC
330
747D
100
AcDbEntity
  8
部品1
 48
0.01
100
AcDbCircle
 10
6576.904397928891
 20
4492.112805903254
 30
0.0
 40
2.0
100
AcDbArc
 50
0.0
 51
90.0
  0
ARC
  5
132ED
330
747D
100
AcDbEntity
  8
部品1
 48
0.01
100
AcDbCircle
 10
6400.90439792889
 20
4460.612805903254
 30
0.0
 40
2.0
100
AcDbArc
 50
180.0
 51
270.0
  0
ARC
  5
132EE
330
747D
100
AcDbEntity
  8
部品1
 48
0.01
100
AcDbCircle
 10
6400.90439792889
 20
4492.112805903254
 30
0.0
 40
2.0
100
AcDbArc
 50
90.0
 51
180.0
  0
LINE
  5
132EF
330
747D
100
AcDbEntity
  8
細線
100
AcDbLine
 10
6488.904397928891
 20
4464.612805903254
 30
0.0
 11
6562.904397928891
 21
4464.612805903254
 31
0.0
  0
LINE
  5
132F0
330
747D
100
AcDbEntity
  8
細線
100
AcDbLine
 10
6488.904397928891
 20
4487.612805903254
 30
0.0
 11
6414.90439792889
 21
4487.612805903254
 31
0.0
  0
LINE
  5
132F1
330
747D
100
AcDbEntity
  8
細線
100
AcDbLine
 10
6414.90439792889
 20
4464.612805903254
 30
0.0
 11
6488.904397928891
 21
4464.612805903254
 31
0.0
  0
LINE
  5
132F2
330
747D
100
AcDbEntity
  8
細線
100
AcDbLine
 10
6562.904397928891
 20
4487.612805903254
 30
0.0
 11
6488.904397928891
 21
4487.612805903254
 31
0.0
  0
LINE
  5
132F3
330
747D
100
AcDbEntity
  8
細線
100
AcDbLine
 10
6562.904397928891
 20
4464.612805903254
 30
0.0
 11
6562.904397928891
 21
4487.612805903254
 31
0.0
  0
LINE
  5
132F4
330
747D
100
AcDbEntity
  8
細線
100
AcDbLine
 10
6414.90439792889
 20
4487.612805903254
 30
0.0
 11
6414.90439792889
 21
4464.612805903254
 31
0.0
  0
LINE
  5
132F5
330
747D
100
AcDbEntity
  8
部品1
 48
0.01
100
AcDbLine
 10
6578.904397928891
 20
4460.612805903254
 30
0.0
 11
6578.904397928891
 21
4492.112805903254
 31
0.0
  0
LINE
  5
132F6
330
747D
100
AcDbEntity
  8
部品1
 48
0.01
100
AcDbLine
 10
6400.90439792889
 20
4458.612805903254
 30
0.0
 11
6576.904397928891
 21
4458.612805903254
 31
0.0
  0
LINE
  5
132F7
330
747D
100
AcDbEntity
  8
部品1
 48
0.01
100
AcDbLine
 10
6398.904397928891
 20
4492.112805903254
 30
0.0
 11
6398.904397928891
 21
4460.612805903254
 31
0.0
  0
LINE
  5
132F8
330
747D
100
AcDbEntity
  8
部品1
 48
0.01
100
AcDbLine
 10
6576.904397928891
 20
4494.112805903254
 30
0.0
 11
6400.90439792889
 21
4494.112805903254
 31
0.0
  0
LINE
  5
132F9
330
747D
100
AcDbEntity
  8
細線
100
AcDbLine
 10
6414.90439792889
 20
4481.612805903254
 30
0.0
 11
6488.904397928891
 21
4481.612805903254
 31
0.0
  0
LINE
  5
132FA
330
747D
100
AcDbEntity
  8
細線
100
AcDbLine
 10
6414.90439792889
 20
4475.612805903255
 30
0.0
 11
6488.904397928891
 21
4475.612805903255
 31
0.0
  0
LINE
  5
132FB
330
747D
100
AcDbEntity
  8
細線
100
AcDbLine
 10
6414.90439792889
 20
4469.612805903254
 30
0.0
 11
6488.904397928891
 21
4469.612805903254
 31
0.0
  0
LINE
  5
132FC
330
747D
100
AcDbEntity
  8
細線
100
AcDbLine
 10
6414.90439792889
 20
4481.612805903254
 30
0.0
 11
6483.90439792889
 21
4481.612805903254
 31
0.0
  0
LINE
  5
132FD
330
747D
100
AcDbEntity
  8
細線
100
AcDbLine
 10
6562.904397928891
 20
4481.612805903252
 30
0.0
 11
6488.904397928891
 21
4481.612805903254
 31
0.0
  0
LINE
  5
132FE
330
747D
100
AcDbEntity
  8
細線
100
AcDbLine
 10
6562.904397928891
 20
4469.612805903252
 30
0.0
 11
6488.904397928891
 21
4469.612805903254
 31
0.0
  0
LINE
  5
132FF
330
747D
100
AcDbEntity
  8
細線
100
AcDbLine
 10
6562.904397928891
 20
4475.612805903255
 30
0.0
 11
6488.904397928891
 21
4475.612805903255
 31
0.0
  0
LINE
  5
13300
330
747D
100
AcDbEntity
  8
細線
100
AcDbLine
 10
6488.904397928891
 20
4487.612805903254
 30
0.0
 11
6488.904397928891
 21
4464.612805903254
 31
0.0
  0
LINE
  5
13301
330
747D
100
AcDbEntity
  8
細線
100
AcDbLine
 10
7718.904397928909
 20
4487.612805903256
 30
0.0
 11
7718.904397928909
 21
4464.612805903256
 31
0.0
  0
LINE
  5
13302
330
747D
100
AcDbEntity
  8
細線
100
AcDbLine
 10
7644.904397928908
 20
4475.612805903256
 30
0.0
 11
7718.904397928909
 21
4475.612805903256
 31
0.0
  0
LINE
  5
13303
330
747D
100
AcDbEntity
  8
細線
100
AcDbLine
 10
7644.904397928908
 20
4469.612805903254
 30
0.0
 11
7718.904397928909
 21
4469.612805903255
 31
0.0
  0
LINE
  5
13304
330
747D
100
AcDbEntity
  8
細線
100
AcDbLine
 10
7644.904397928908
 20
4481.612805903254
 30
0.0
 11
7718.904397928909
 21
4481.612805903256
 31
0.0
  0
LINE
  5
13305
330
747D
100
AcDbEntity
  8
細線
100
AcDbLine
 10
7792.904397928909
 20
4481.612805903256
 30
0.0
 11
7723.904397928909
 21
4481.612805903256
 31
0.0
  0
LINE
  5
13306
330
747D
100
AcDbEntity
  8
細線
100
AcDbLine
 10
7792.904397928909
 20
4469.612805903255
 30
0.0
 11
7718.904397928909
 21
4469.612805903255
 31
0.0
  0
LINE
  5
13307
330
747D
100
AcDbEntity
  8
細線
100
AcDbLine
 10
7792.904397928909
 20
4475.612805903256
 30
0.0
 11
7718.904397928909
 21
4475.612805903256
 31
0.0
  0
LINE
  5
13308
330
747D
100
AcDbEntity
  8
細線
100
AcDbLine
 10
7792.904397928909
 20
4481.612805903256
 30
0.0
 11
7718.904397928909
 21
4481.612805903256
 31
0.0
  0
LINE
  5
13309
330
747D
100
AcDbEntity
  8
部品1
 48
0.01
100
AcDbLine
 10
7630.904397928908
 20
4494.112805903256
 30
0.0
 11
7806.904397928909
 21
4494.112805903256
 31
0.0
  0
LINE
  5
1330A
330
747D
100
AcDbEntity
  8
部品1
 48
0.01
100
AcDbLine
 10
7808.904397928909
 20
4492.112805903256
 30
0.0
 11
7808.904397928909
 21
4460.612805903256
 31
0.0
  0
LINE
  5
1330B
330
747D
100
AcDbEntity
  8
部品1
 48
0.01
100
AcDbLine
 10
7806.904397928909
 20
4458.612805903256
 30
0.0
 11
7630.904397928908
 21
4458.612805903256
 31
0.0
  0
LINE
  5
1330C
330
747D
100
AcDbEntity
  8
部品1
 48
0.01
100
AcDbLine
 10
7628.904397928909
 20
4460.612805903256
 30
0.0
 11
7628.904397928909
 21
4492.112805903256
 31
0.0
  0
LINE
  5
1330D
330
747D
100
AcDbEntity
  8
細線
100
AcDbLine
 10
7792.904397928909
 20
4487.612805903256
 30
0.0
 11
7792.904397928909
 21
4464.612805903256
 31
0.0
  0
LINE
  5
1330E
330
747D
100
AcDbEntity
  8
細線
100
AcDbLine
 10
7644.904397928908
 20
4464.612805903256
 30
0.0
 11
7644.904397928908
 21
4487.612805903256
 31
0.0
  0
LINE
  5
1330F
330
747D
100
AcDbEntity
  8
細線
100
AcDbLine
 10
7644.904397928908
 20
4487.612805903256
 30
0.0
 11
7718.904397928909
 21
4487.612805903256
 31
0.0
  0
LINE
  5
13310
330
747D
100
AcDbEntity
  8
細線
100
AcDbLine
 10
7792.904397928909
 20
4464.612805903256
 30
0.0
 11
7718.904397928909
 21
4464.612805903256
 31
0.0
  0
LINE
  5
13311
330
747D
100
AcDbEntity
  8
細線
100
AcDbLine
 10
7718.904397928909
 20
4487.612805903256
 30
0.0
 11
7792.904397928909
 21
4487.612805903256
 31
0.0
  0
LINE
  5
13312
330
747D
100
AcDbEntity
  8
細線
100
AcDbLine
 10
7718.904397928909
 20
4464.612805903256
 30
0.0
 11
7644.904397928908
 21
4464.612805903256
 31
0.0
  0
ARC
  5
13313
330
747D
100
AcDbEntity
  8
部品1
 48
0.01
100
AcDbCircle
 10
7806.904397928909
 20
4492.112805903256
 30
0.0
 40
2.0
100
AcDbArc
 50
0.0
 51
90.0
  0
ARC
  5
13314
330
747D
100
AcDbEntity
  8
部品1
 48
0.01
100
AcDbCircle
 10
7806.904397928909
 20
4460.612805903256
 30
0.0
 40
2.0
100
AcDbArc
 50
270.0
 51
0.0
  0
ARC
  5
13315
330
747D
100
AcDbEntity
  8
部品1
 48
0.01
100
AcDbCircle
 10
7630.904397928908
 20
4492.112805903256
 30
0.0
 40
2.0
100
AcDbArc
 50
90.0
 51
180.0
  0
ARC
  5
13316
330
747D
100
AcDbEntity
  8
部品1
 48
0.01
100
AcDbCircle
 10
7630.904397928908
 20
4460.612805903256
 30
0.0
 40
2.0
100
AcDbArc
 50
180.0
 51
270.0
  0
LINE
  5
13317
330
747D
100
AcDbEntity
  8
細線
100
AcDbLine
 10
3858.904397928891
 20
4487.612805903254
 30
0.0
 11
3858.904397928891
 21
4464.612805903254
 31
0.0
  0
LINE
  5
13318
330
747D
100
AcDbEntity
  8
細線
100
AcDbLine
 10
3932.904397928891
 20
4475.612805903255
 30
0.0
 11
3858.904397928891
 21
4475.612805903255
 31
0.0
  0
LINE
  5
13319
330
747D
100
AcDbEntity
  8
細線
100
AcDbLine
 10
3932.904397928891
 20
4469.612805903252
 30
0.0
 11
3858.904397928891
 21
4469.612805903254
 31
0.0
  0
LINE
  5
1331A
330
747D
100
AcDbEntity
  8
細線
100
AcDbLine
 10
3932.904397928891
 20
4481.612805903252
 30
0.0
 11
3858.904397928891
 21
4481.612805903254
 31
0.0
  0
LINE
  5
1331B
330
747D
100
AcDbEntity
  8
細線
100
AcDbLine
 10
3784.904397928891
 20
4481.612805903254
 30
0.0
 11
3853.904397928891
 21
4481.612805903254
 31
0.0
  0
LINE
  5
1331C
330
747D
100
AcDbEntity
  8
細線
100
AcDbLine
 10
3784.904397928891
 20
4469.612805903254
 30
0.0
 11
3858.904397928891
 21
4469.612805903254
 31
0.0
  0
LINE
  5
1331D
330
747D
100
AcDbEntity
  8
細線
100
AcDbLine
 10
3784.904397928891
 20
4475.612805903255
 30
0.0
 11
3858.904397928891
 21
4475.612805903255
 31
0.0
  0
LINE
  5
1331E
330
747D
100
AcDbEntity
  8
細線
100
AcDbLine
 10
3784.904397928891
 20
4481.612805903254
 30
0.0
 11
3858.904397928891
 21
4481.612805903254
 31
0.0
  0
LINE
  5
1331F
330
747D
100
AcDbEntity
  8
部品1
 48
0.01
100
AcDbLine
 10
3946.904397928891
 20
4494.112805903254
 30
0.0
 11
3770.904397928891
 21
4494.112805903254
 31
0.0
  0
LINE
  5
13320
330
747D
100
AcDbEntity
  8
部品1
 48
0.01
100
AcDbLine
 10
3768.904397928891
 20
4492.112805903254
 30
0.0
 11
3768.904397928891
 21
4460.612805903254
 31
0.0
  0
LINE
  5
13321
330
747D
100
AcDbEntity
  8
部品1
 48
0.01
100
AcDbLine
 10
3770.904397928891
 20
4458.612805903254
 30
0.0
 11
3946.904397928891
 21
4458.612805903254
 31
0.0
  0
LINE
  5
13322
330
747D
100
AcDbEntity
  8
部品1
 48
0.01
100
AcDbLine
 10
3948.904397928891
 20
4460.612805903254
 30
0.0
 11
3948.904397928891
 21
4492.112805903254
 31
0.0
  0
LINE
  5
13323
330
747D
100
AcDbEntity
  8
細線
100
AcDbLine
 10
3784.904397928891
 20
4487.612805903254
 30
0.0
 11
3784.904397928891
 21
4464.612805903254
 31
0.0
  0
LINE
  5
13324
330
747D
100
AcDbEntity
  8
細線
100
AcDbLine
 10
3932.904397928891
 20
4464.612805903254
 30
0.0
 11
3932.904397928891
 21
4487.612805903254
 31
0.0
  0
LINE
  5
13325
330
747D
100
AcDbEntity
  8
細線
100
AcDbLine
 10
3932.904397928891
 20
4487.612805903254
 30
0.0
 11
3858.904397928891
 21
4487.612805903254
 31
0.0
  0
LINE
  5
13326
330
747D
100
AcDbEntity
  8
細線
100
AcDbLine
 10
3784.904397928891
 20
4464.612805903254
 30
0.0
 11
3858.904397928891
 21
4464.612805903254
 31
0.0
  0
LINE
  5
13327
330
747D
100
AcDbEntity
  8
細線
100
AcDbLine
 10
3858.904397928891
 20
4487.612805903254
 30
0.0
 11
3784.904397928891
 21
4487.612805903254
 31
0.0
  0
LINE
  5
13328
330
747D
100
AcDbEntity
  8
細線
100
AcDbLine
 10
3858.904397928891
 20
4464.612805903254
 30
0.0
 11
3932.904397928891
 21
4464.612805903254
 31
0.0
  0
ARC
  5
13329
330
747D
100
AcDbEntity
  8
部品1
 48
0.01
100
AcDbCircle
 10
3770.904397928891
 20
4492.112805903254
 30
0.0
 40
2.0
100
AcDbArc
 50
90.0
 51
180.0
  0
ARC
  5
1332A
330
747D
100
AcDbEntity
  8
部品1
 48
0.01
100
AcDbCircle
 10
3770.904397928891
 20
4460.612805903254
 30
0.0
 40
2.0
100
AcDbArc
 50
180.0
 51
270.0
  0
ARC
  5
1332B
330
747D
100
AcDbEntity
  8
部品1
 48
0.01
100
AcDbCircle
 10
3946.904397928891
 20
4492.112805903254
 30
0.0
 40
2.0
100
AcDbArc
 50
0.0
 51
90.0
  0
ARC
  5
1332C
330
747D
100
AcDbEntity
  8
部品1
 48
0.01
100
AcDbCircle
 10
3946.904397928891
 20
4460.612805903254
 30
0.0
 40
2.0
100
AcDbArc
 50
270.0
 51
0.0
  0
ARC
  5
1332D
330
747D
100
AcDbEntity
  8
部品1
 48
0.01
100
AcDbCircle
 10
5000.904397928909
 20
4460.612805903256
 30
0.0
 40
2.0
100
AcDbArc
 50
180.0
 51
270.0
  0
ARC
  5
1332E
330
747D
100
AcDbEntity
  8
部品1
 48
0.01
100
AcDbCircle
 10
5000.904397928909
 20
4492.112805903256
 30
0.0
 40
2.0
100
AcDbArc
 50
90.0
 51
180.0
  0
ARC
  5
1332F
330
747D
100
AcDbEntity
  8
部品1
 48
0.01
100
AcDbCircle
 10
5176.904397928909
 20
4460.612805903256
 30
0.0
 40
2.0
100
AcDbArc
 50
270.0
 51
0.0
  0
ARC
  5
13330
330
747D
100
AcDbEntity
  8
部品1
 48
0.01
100
AcDbCircle
 10
5176.904397928909
 20
4492.112805903256
 30
0.0
 40
2.0
100
AcDbArc
 50
0.0
 51
90.0
  0
LINE
  5
13331
330
747D
100
AcDbEntity
  8
細線
100
AcDbLine
 10
5088.904397928909
 20
4464.612805903256
 30
0.0
 11
5014.904397928908
 21
4464.612805903256
 31
0.0
  0
LINE
  5
13332
330
747D
100
AcDbEntity
  8
細線
100
AcDbLine
 10
5088.904397928909
 20
4487.612805903256
 30
0.0
 11
5162.904397928909
 21
4487.612805903256
 31
0.0
  0
LINE
  5
13333
330
747D
100
AcDbEntity
  8
細線
100
AcDbLine
 10
5162.904397928909
 20
4464.612805903256
 30
0.0
 11
5088.904397928909
 21
4464.612805903256
 31
0.0
  0
LINE
  5
13334
330
747D
100
AcDbEntity
  8
細線
100
AcDbLine
 10
5014.904397928908
 20
4487.612805903256
 30
0.0
 11
5088.904397928909
 21
4487.612805903256
 31
0.0
  0
LINE
  5
13335
330
747D
100
AcDbEntity
  8
細線
100
AcDbLine
 10
5014.904397928908
 20
4464.612805903256
 30
0.0
 11
5014.904397928908
 21
4487.612805903256
 31
0.0
  0
LINE
  5
13336
330
747D
100
AcDbEntity
  8
細線
100
AcDbLine
 10
5162.904397928909
 20
4487.612805903256
 30
0.0
 11
5162.904397928909
 21
4464.612805903256
 31
0.0
  0
LINE
  5
13337
330
747D
100
AcDbEntity
  8
部品1
 48
0.01
100
AcDbLine
 10
4998.904397928909
 20
4460.612805903256
 30
0.0
 11
4998.904397928909
 21
4492.112805903256
 31
0.0
  0
LINE
  5
13338
330
747D
100
AcDbEntity
  8
部品1
 48
0.01
100
AcDbLine
 10
5176.904397928909
 20
4458.612805903256
 30
0.0
 11
5000.904397928909
 21
4458.612805903256
 31
0.0
  0
LINE
  5
13339
330
747D
100
AcDbEntity
  8
部品1
 48
0.01
100
AcDbLine
 10
5178.904397928909
 20
4492.112805903256
 30
0.0
 11
5178.904397928909
 21
4460.612805903256
 31
0.0
  0
LINE
  5
1333A
330
747D
100
AcDbEntity
  8
部品1
 48
0.01
100
AcDbLine
 10
5000.904397928909
 20
4494.112805903256
 30
0.0
 11
5176.904397928909
 21
4494.112805903256
 31
0.0
  0
LINE
  5
1333B
330
747D
100
AcDbEntity
  8
細線
100
AcDbLine
 10
5162.904397928909
 20
4481.612805903256
 30
0.0
 11
5088.904397928909
 21
4481.612805903256
 31
0.0
  0
LINE
  5
1333C
330
747D
100
AcDbEntity
  8
細線
100
AcDbLine
 10
5162.904397928909
 20
4475.612805903256
 30
0.0
 11
5088.904397928909
 21
4475.612805903256
 31
0.0
  0
LINE
  5
1333D
330
747D
100
AcDbEntity
  8
細線
100
AcDbLine
 10
5162.904397928909
 20
4469.612805903255
 30
0.0
 11
5088.904397928909
 21
4469.612805903255
 31
0.0
  0
LINE
  5
1333E
330
747D
100
AcDbEntity
  8
細線
100
AcDbLine
 10
5162.904397928909
 20
4481.612805903256
 30
0.0
 11
5093.904397928909
 21
4481.612805903256
 31
0.0
  0
LINE
  5
1333F
330
747D
100
AcDbEntity
  8
細線
100
AcDbLine
 10
5014.904397928908
 20
4481.612805903254
 30
0.0
 11
5088.904397928909
 21
4481.612805903256
 31
0.0
  0
LINE
  5
13340
330
747D
100
AcDbEntity
  8
細線
100
AcDbLine
 10
5014.904397928908
 20
4469.612805903254
 30
0.0
 11
5088.904397928909
 21
4469.612805903255
 31
0.0
  0
LINE
  5
13341
330
747D
100
AcDbEntity
  8
細線
100
AcDbLine
 10
5014.904397928908
 20
4475.612805903256
 30
0.0
 11
5088.904397928909
 21
4475.612805903256
 31
0.0
  0
LINE
  5
13342
330
747D
100
AcDbEntity
  8
細線
100
AcDbLine
 10
5088.904397928909
 20
4487.612805903256
 30
0.0
 11
5088.904397928909
 21
4464.612805903256
 31
0.0
  0
LINE
  5
13343
330
747D
100
AcDbEntity
  8
細線
 48
50.0
100
AcDbLine
 10
5921.404397928902
 20
4428.112805903256
 30
0.0
 11
5921.404397928905
 21
2338.112805903256
 31
0.0
  0
LINE
  5
13344
330
747D
100
AcDbEntity
  8
細線
 48
50.0
100
AcDbLine
 10
5906.404397928902
 20
4428.112805903256
 30
0.0
 11
5906.404397928906
 21
2338.112805903256
 31
0.0
  0
LINE
  5
13345
330
747D
100
AcDbEntity
  8
細線
 48
50.0
100
AcDbLine
 10
6046.404397928902
 20
4428.112805903256
 30
0.0
 11
6046.404397928905
 21
2338.112805903256
 31
0.0
  0
LINE
  5
13346
330
747D
100
AcDbEntity
  8
細線
 48
50.0
100
AcDbLine
 10
6061.404397928902
 20
4428.112805903256
 30
0.0
 11
6061.404397928906
 21
2338.112805903256
 31
0.0
  0
LINE
  5
13347
330
747D
100
AcDbEntity
  8
細線
 48
50.0
100
AcDbLine
 10
6201.404397928902
 20
4428.112805903256
 30
0.0
 11
6201.404397928905
 21
2338.112805903256
 31
0.0
  0
LINE
  5
13348
330
747D
100
AcDbEntity
  8
細線
 48
50.0
100
AcDbLine
 10
6186.404397928902
 20
4428.112805903256
 30
0.0
 11
6186.404397928906
 21
2338.112805903256
 31
0.0
  0
LINE
  5
13349
330
747D
100
AcDbEntity
  8
細線
 48
50.0
100
AcDbLine
 10
6606.404397928902
 20
4428.112805903256
 30
0.0
 11
6606.404397928905
 21
2338.112805903256
 31
0.0
  0
LINE
  5
1334A
330
747D
100
AcDbEntity
  8
細線
 48
50.0
100
AcDbLine
 10
6621.404397928902
 20
4428.112805903256
 30
0.0
 11
6621.404397928905
 21
2338.112805903256
 31
0.0
  0
LINE
  5
1334B
330
747D
100
AcDbEntity
  8
細線
 48
50.0
100
AcDbLine
 10
6481.404397928902
 20
4428.112805903256
 30
0.0
 11
6481.404397928905
 21
2338.112805903256
 31
0.0
  0
LINE
  5
1334C
330
747D
100
AcDbEntity
  8
細線
 48
50.0
100
AcDbLine
 10
6466.404397928902
 20
4428.112805903256
 30
0.0
 11
6466.404397928906
 21
2338.112805903256
 31
0.0
  0
LINE
  5
1334D
330
747D
100
AcDbEntity
  8
細線
 48
50.0
100
AcDbLine
 10
6326.404397928902
 20
4428.112805903256
 30
0.0
 11
6326.404397928905
 21
2338.112805903256
 31
0.0
  0
LINE
  5
1334E
330
747D
100
AcDbEntity
  8
細線
 48
50.0
100
AcDbLine
 10
6341.404397928902
 20
4428.112805903256
 30
0.0
 11
6341.404397928905
 21
2338.112805903256
 31
0.0
  0
LINE
  5
1334F
330
747D
100
AcDbEntity
  8
細線
 48
50.0
100
AcDbLine
 10
6761.404397928902
 20
4428.112805903256
 30
0.0
 11
6761.404397928905
 21
2338.112805903256
 31
0.0
  0
LINE
  5
13350
330
747D
100
AcDbEntity
  8
細線
 48
50.0
100
AcDbLine
 10
6746.404397928902
 20
4428.112805903256
 30
0.0
 11
6746.404397928905
 21
2338.112805903256
 31
0.0
  0
LINE
  5
13351
330
747D
100
AcDbEntity
  8
細線
 48
50.0
100
AcDbLine
 10
6886.404397928902
 20
4428.112805903256
 30
0.0
 11
6886.404397928905
 21
2338.112805903256
 31
0.0
  0
LINE
  5
13352
330
747D
100
AcDbEntity
  8
細線
 48
50.0
100
AcDbLine
 10
6901.404397928901
 20
4428.112805903256
 30
0.0
 11
6901.404397928906
 21
2338.112805903256
 31
0.0
  0
LINE
  5
13353
330
747D
100
AcDbEntity
  8
細線
 48
50.0
100
AcDbLine
 10
7041.404397928902
 20
4428.112805903256
 30
0.0
 11
7041.404397928906
 21
2338.112805903256
 31
0.0
  0
LINE
  5
13354
330
747D
100
AcDbEntity
  8
細線
 48
50.0
100
AcDbLine
 10
7026.404397928901
 20
4428.112805903256
 30
0.0
 11
7026.404397928906
 21
2338.112805903256
 31
0.0
  0
LINE
  5
13355
330
747D
100
AcDbEntity
  8
細線
 48
50.0
100
AcDbLine
 10
7446.404397928901
 20
4428.112805903256
 30
0.0
 11
7446.404397928906
 21
2338.112805903256
 31
0.0
  0
LINE
  5
13356
330
747D
100
AcDbEntity
  8
細線
 48
50.0
100
AcDbLine
 10
7461.404397928902
 20
4428.112805903256
 30
0.0
 11
7461.404397928905
 21
2338.112805903256
 31
0.0
  0
LINE
  5
13357
330
747D
100
AcDbEntity
  8
細線
 48
50.0
100
AcDbLine
 10
7321.404397928901
 20
4428.112805903256
 30
0.0
 11
7321.404397928906
 21
2338.112805903256
 31
0.0
  0
LINE
  5
13358
330
747D
100
AcDbEntity
  8
細線
 48
50.0
100
AcDbLine
 10
7306.404397928902
 20
4428.112805903256
 30
0.0
 11
7306.404397928905
 21
2338.112805903256
 31
0.0
  0
LINE
  5
13359
330
747D
100
AcDbEntity
  8
細線
 48
50.0
100
AcDbLine
 10
7166.404397928902
 20
4428.112805903256
 30
0.0
 11
7166.404397928906
 21
2338.112805903256
 31
0.0
  0
LINE
  5
1335A
330
747D
100
AcDbEntity
  8
細線
 48
50.0
100
AcDbLine
 10
7181.404397928902
 20
4428.112805903256
 30
0.0
 11
7181.404397928905
 21
2338.112805903256
 31
0.0
  0
LINE
  5
1335B
330
747D
100
AcDbEntity
  8
細線
 48
50.0
100
AcDbLine
 10
7866.404397928902
 20
4428.112805903256
 30
0.0
 11
7866.404397928906
 21
2338.112805903256
 31
0.0
  0
LINE
  5
1335C
330
747D
100
AcDbEntity
  8
細線
 48
50.0
100
AcDbLine
 10
7881.404397928903
 20
4428.112805903256
 30
0.0
 11
7881.404397928905
 21
2338.112805903256
 31
0.0
  0
LINE
  5
1335D
330
747D
100
AcDbEntity
  8
細線
 48
50.0
100
AcDbLine
 10
7741.404397928902
 20
4428.112805903256
 30
0.0
 11
7741.404397928906
 21
2338.112805903256
 31
0.0
  0
LINE
  5
1335E
330
747D
100
AcDbEntity
  8
細線
 48
50.0
100
AcDbLine
 10
7726.404397928901
 20
4428.112805903256
 30
0.0
 11
7726.404397928906
 21
2338.112805903256
 31
0.0
  0
LINE
  5
1335F
330
747D
100
AcDbEntity
  8
細線
 48
50.0
100
AcDbLine
 10
7586.404397928902
 20
4428.112805903256
 30
0.0
 11
7586.404397928905
 21
2338.112805903256
 31
0.0
  0
LINE
  5
13360
330
747D
100
AcDbEntity
  8
細線
 48
50.0
100
AcDbLine
 10
7601.404397928901
 20
4428.112805903256
 30
0.0
 11
7601.404397928906
 21
2338.112805903256
 31
0.0
  0
LINE
  5
13361
330
747D
100
AcDbEntity
  8
細線
 48
50.0
100
AcDbLine
 10
8021.404397928902
 20
4428.112805903256
 30
0.0
 11
8021.404397928906
 21
2338.112805903256
 31
0.0
  0
LINE
  5
13362
330
747D
100
AcDbEntity
  8
細線
 48
50.0
100
AcDbLine
 10
8006.404397928902
 20
4428.112805903256
 30
0.0
 11
8006.404397928905
 21
2338.112805903256
 31
0.0
  0
LINE
  5
13363
330
747D
100
AcDbEntity
  8
細線
 48
50.0
100
AcDbLine
 10
8146.404397928902
 20
4428.112805903256
 30
0.0
 11
8146.404397928902
 21
2338.112805903256
 31
0.0
  0
LINE
  5
13364
330
747D
100
AcDbEntity
  8
細線
 48
50.0
100
AcDbLine
 10
8161.404397928903
 20
4428.112805903256
 30
0.0
 11
8161.404397928903
 21
2338.112805903256
 31
0.0
  0
LINE
  5
13365
330
747D
100
AcDbEntity
  8
細線
 48
50.0
100
AcDbLine
 10
8301.404397928902
 20
4428.112805903256
 30
0.0
 11
8301.404397928903
 21
2338.112805903256
 31
0.0
  0
LINE
  5
13366
330
747D
100
AcDbEntity
  8
細線
 48
50.0
100
AcDbLine
 10
8286.404397928903
 20
4428.112805903256
 30
0.0
 11
8286.404397928903
 21
2338.112805903256
 31
0.0
  0
LINE
  5
13367
330
747D
100
AcDbEntity
  8
部品1
100
AcDbLine
 10
3633.904397928898
 20
4428.112805903256
 30
0.0
 11
3633.904397928898
 21
4423.112805903254
 31
0.0
  0
LINE
  5
13368
330
747D
100
AcDbEntity
  8
部品1
100
AcDbLine
 10
5733.904397928898
 20
4428.112805903256
 30
0.0
 11
5733.904397928898
 21
4423.112805903254
 31
0.0
  0
LINE
  5
13369
330
747D
100
AcDbEntity
  8
部品1
 48
50.0
100
AcDbLine
 10
3636.904397928898
 20
4379.112805903254
 30
0.0
 11
3606.904397928899
 21
4379.112805903254
 31
0.0
  0
LINE
  5
1336A
330
747D
100
AcDbEntity
  8
細線
 48
50.0
100
AcDbLine
 10
5730.904397928898
 20
4371.112805903254
 30
0.0
 11
3636.904397928898
 21
4371.112805903254
 31
0.0
  0
LINE
  5
1336B
330
747D
100
AcDbEntity
  8
細線
 48
50.0
100
AcDbLine
 10
5730.904397928898
 20
4380.612805903254
 30
0.0
 11
3636.904397928898
 21
4380.612805903254
 31
0.0
  0
LINE
  5
1336C
330
747D
100
AcDbEntity
  8
部品1
 48
50.0
100
AcDbLine
 10
5760.904397928898
 20
4423.112805903254
 30
0.0
 11
3606.904397928899
 21
4423.112805903254
 31
0.0
  0
LINE
  5
1336D
330
747D
100
AcDbEntity
  8
細線
 48
50.0
100
AcDbLine
 10
5760.904397928898
 20
4413.112805903255
 30
0.0
 11
3606.904397928899
 21
4413.112805903255
 31
0.0
  0
LINE
  5
1336E
330
747D
100
AcDbEntity
  8
部品1
 48
50.0
100
AcDbLine
 10
5760.904397928898
 20
4379.112805903254
 30
0.0
 11
5730.904397928898
 21
4379.112805903254
 31
0.0
  0
LINE
  5
1336F
330
747D
100
AcDbEntity
  8
細線
 48
50.0
100
AcDbLine
 10
4434.904397928898
 20
2345.612805903254
 30
0.0
 11
5704.904397928898
 21
2345.612805903254
 31
0.0
  0
LINE
  5
13370
330
747D
100
AcDbEntity
  8
細線
 48
50.0
100
AcDbLine
 10
5708.904397928898
 20
2335.112805903254
 30
0.0
 11
5704.904397928898
 21
2345.612805903254
 31
0.0
  0
LINE
  5
13371
330
747D
100
AcDbEntity
  8
部品1
 48
50.0
100
AcDbLine
 10
3606.904397928899
 20
4423.112805903254
 30
0.0
 11
3606.904397928897
 21
2188.112805903255
 31
0.0
  0
LINE
  5
13372
330
747D
100
AcDbEntity
  8
部品1
 48
50.0
100
AcDbLine
 10
3636.904397928898
 20
2338.112805903254
 30
0.0
 11
3636.904397928898
 21
4371.112805903254
 31
0.0
  0
LINE
  5
13373
330
747D
100
AcDbEntity
  8
細線
 48
50.0
100
AcDbLine
 10
3636.904397928898
 20
4380.612805903254
 30
0.0
 11
3636.904397928898
 21
2288.112805903255
 31
0.0
  0
LINE
  5
13374
330
747D
100
AcDbEntity
  8
部品1
 48
50.0
100
AcDbLine
 10
3645.904397928898
 20
2338.112805903254
 30
0.0
 11
3645.904397928898
 21
2335.112805903254
 31
0.0
  0
LINE
  5
13375
330
747D
100
AcDbEntity
  8
細線
 48
50.0
100
AcDbLine
 10
3636.904397928898
 20
2331.112805903254
 30
0.0
 11
5730.904397928898
 21
2331.112805903254
 31
0.0
  0
LINE
  5
13376
330
747D
100
AcDbEntity
  8
細線
 48
50.0
100
AcDbLine
 10
3636.904397928898
 20
2335.112805903254
 30
0.0
 11
5730.904397928898
 21
2335.112805903254
 31
0.0
  0
LINE
  5
13377
330
747D
100
AcDbEntity
  8
部品1
 48
50.0
100
AcDbLine
 10
3636.904397928898
 20
2338.112805903254
 30
0.0
 11
4434.904397928898
 21
2338.112805903254
 31
0.0
  0
LINE
  5
13378
330
747D
100
AcDbEntity
  8
部品1
 48
50.0
100
AcDbLine
 10
4434.904397928898
 20
4371.112805903254
 30
0.0
 11
4434.904397928898
 21
2338.112805903254
 31
0.0
  0
LINE
  5
13379
330
747D
100
AcDbEntity
  8
部品1
 48
50.0
100
AcDbLine
 10
5721.904397928899
 20
2335.112805903254
 30
0.0
 11
5721.904397928899
 21
4371.112805903254
 31
0.0
  0
LINE
  5
1337A
330
747D
100
AcDbEntity
  8
細線
 48
50.0
100
AcDbLine
 10
5730.904397928898
 20
2288.112805903255
 30
0.0
 11
5730.904397928898
 21
4380.612805903254
 31
0.0
  0
LINE
  5
1337B
330
747D
100
AcDbEntity
  8
部品1
 48
50.0
100
AcDbLine
 10
5760.904397928896
 20
2188.112805903255
 30
0.0
 11
5760.904397928898
 21
4423.112805903254
 31
0.0
  0
LINE
  5
1337C
330
747D
100
AcDbEntity
  8
部品1
 48
50.0
100
AcDbLine
 10
5085.904397928898
 20
4371.112805903254
 30
0.0
 11
5085.904397928898
 21
2345.612805903254
 31
0.0
  0
LINE
  5
1337D
330
747D
100
AcDbEntity
  8
細線
100
AcDbLine
 10
5220.404397928898
 20
4371.112805903256
 30
0.0
 11
5220.404397928898
 21
2345.612805903273
 31
0.0
  0
LINE
  5
1337E
330
747D
100
AcDbEntity
  8
細線
100
AcDbLine
 10
4494.904397928897
 20
4371.112805903256
 30
0.0
 11
4494.904397928897
 21
2345.612805903268
 31
0.0
  0
LINE
  5
1337F
330
747D
100
AcDbEntity
  8
細線
100
AcDbLine
 10
4564.904397928898
 20
4371.112805903256
 30
0.0
 11
4564.904397928898
 21
2345.612805903268
 31
0.0
  0
LINE
  5
13380
330
747D
100
AcDbEntity
  8
細線
100
AcDbLine
 10
3850.904397928898
 20
4371.112805903256
 30
0.0
 11
3850.904397928898
 21
2338.112805903259
 31
0.0
  0
LINE
  5
13381
330
747D
100
AcDbEntity
  8
細線
100
AcDbLine
 10
3920.904397928899
 20
4371.112805903256
 30
0.0
 11
3920.904397928899
 21
2338.112805903259
 31
0.0
  0
LINE
  5
1339B
330
747D
100
AcDbEntity
  8
部品1
 48
50.0
100
AcDbLine
 10
3680.904397928898
 20
3419.612805903256
 30
0.0
 11
3733.904397928898
 21
3419.612805903256
 31
0.0
  0
LINE
  5
1339F
330
747D
100
AcDbEntity
  8
細線
100
AcDbLine
 10
5290.404397928899
 20
4371.112805903256
 30
0.0
 11
5290.404397928899
 21
2345.612805903273
 31
0.0
  0
LINE
  5
133A0
330
747D
100
AcDbEntity
  8
細線
100
AcDbLine
 10
5360.404397928898
 20
4371.112805903256
 30
0.0
 11
5360.404397928898
 21
2345.612805903273
 31
0.0
  0
LINE
  5
133A1
330
747D
100
AcDbEntity
  8
細線
100
AcDbLine
 10
5430.404397928898
 20
4371.112805903256
 30
0.0
 11
5430.404397928898
 21
2345.612805903273
 31
0.0
  0
LINE
  5
133A2
330
747D
100
AcDbEntity
  8
細線
100
AcDbLine
 10
5500.404397928898
 20
4371.112805903256
 30
0.0
 11
5500.404397928898
 21
2345.612805903273
 31
0.0
  0
LINE
  5
133A3
330
747D
100
AcDbEntity
  8
細線
100
AcDbLine
 10
5570.404397928898
 20
4371.112805903256
 30
0.0
 11
5570.404397928898
 21
2345.612805903273
 31
0.0
  0
LINE
  5
133A4
330
747D
100
AcDbEntity
  8
細線
100
AcDbLine
 10
4634.904397928898
 20
4371.112805903256
 30
0.0
 11
4634.904397928898
 21
2345.612805903268
 31
0.0
  0
LINE
  5
133A5
330
747D
100
AcDbEntity
  8
細線
100
AcDbLine
 10
4704.904397928898
 20
4371.112805903256
 30
0.0
 11
4704.904397928898
 21
2345.612805903268
 31
0.0
  0
LINE
  5
133A6
330
747D
100
AcDbEntity
  8
細線
100
AcDbLine
 10
4774.904397928898
 20
4371.112805903256
 30
0.0
 11
4774.904397928898
 21
2345.612805903268
 31
0.0
  0
LINE
  5
133A7
330
747D
100
AcDbEntity
  8
細線
100
AcDbLine
 10
4844.904397928898
 20
4371.112805903256
 30
0.0
 11
4844.904397928898
 21
2345.612805903268
 31
0.0
  0
LINE
  5
133A8
330
747D
100
AcDbEntity
  8
細線
100
AcDbLine
 10
4914.904397928898
 20
4371.112805903256
 30
0.0
 11
4914.904397928898
 21
2345.612805903268
 31
0.0
  0
LINE
  5
133A9
330
747D
100
AcDbEntity
  8
細線
100
AcDbLine
 10
4984.904397928898
 20
4371.112805903256
 30
0.0
 11
4984.904397928898
 21
2345.612805903268
 31
0.0
  0
LINE
  5
133AA
330
747D
100
AcDbEntity
  8
細線
100
AcDbLine
 10
3764.904397928898
 20
4371.112805903256
 30
0.0
 11
3764.904397928898
 21
2338.112805903261
 31
0.0
  0
LINE
  5
133AB
330
747D
100
AcDbEntity
  8
細線
100
AcDbLine
 10
3798.904397928898
 20
4371.112805903256
 30
0.0
 11
3798.904397928898
 21
2338.112805903261
 31
0.0
  0
LINE
  5
133AC
330
747D
100
AcDbEntity
  8
部品1
100
AcDbLine
 10
3756.904397928899
 20
4371.112805903256
 30
0.0
 11
3756.904397928899
 21
2338.112805903261
 31
0.0
  0
LINE
  5
133AD
330
747D
100
AcDbEntity
  8
部品1
100
AcDbLine
 10
3806.904397928899
 20
4371.112805903256
 30
0.0
 11
3806.904397928899
 21
2338.112805903261
 31
0.0
  0
LINE
  5
133AE
330
747D
100
AcDbEntity
  8
細線
100
AcDbLine
 10
3990.904397928898
 20
4371.112805903256
 30
0.0
 11
3990.904397928898
 21
2338.112805903259
 31
0.0
  0
LINE
  5
133AF
330
747D
100
AcDbEntity
  8
細線
100
AcDbLine
 10
4060.904397928898
 20
4371.112805903256
 30
0.0
 11
4060.904397928898
 21
2338.112805903259
 31
0.0
  0
LINE
  5
133B0
330
747D
100
AcDbEntity
  8
細線
100
AcDbLine
 10
4130.904397928897
 20
4371.112805903256
 30
0.0
 11
4130.904397928897
 21
2338.112805903259
 31
0.0
  0
LINE
  5
133B1
330
747D
100
AcDbEntity
  8
細線
100
AcDbLine
 10
4200.904397928898
 20
4371.112805903256
 30
0.0
 11
4200.904397928898
 21
2338.112805903261
 31
0.0
  0
LINE
  5
133B2
330
747D
100
AcDbEntity
  8
細線
100
AcDbLine
 10
4270.904397928898
 20
4371.112805903256
 30
0.0
 11
4270.904397928898
 21
2338.112805903262
 31
0.0
  0
LINE
  5
133B3
330
747D
100
AcDbEntity
  8
細線
100
AcDbLine
 10
4340.904397928897
 20
4371.112805903256
 30
0.0
 11
4340.904397928897
 21
2338.112805903262
 31
0.0
  0
LINE
  5
133B4
330
747D
100
AcDbEntity
  8
部品1
100
AcDbLine
 10
5085.904397928891
 20
4371.112805903256
 30
0.0
 11
5085.904397928898
 21
2345.61280590327
 31
0.0
  0
LINE
  5
133B5
330
747D
100
AcDbEntity
  8
部品1
 48
50.0
100
AcDbLine
 10
4434.904397928898
 20
4371.112805903256
 30
0.0
 11
4434.904397928898
 21
2338.112805903255
 31
0.0
  0
TEXT
  5
133B9
330
747D
100
AcDbEntity
  8
文字
 62
     7
 48
50.0
100
AcDbText
 10
13583.11819016569
 20
9570.013745883729
 30
0.0
 40
100.0
  1
母屋中
  7
STYLE1
100
AcDbText
  0
TEXT
  5
133BA
330
747D
100
AcDbEntity
  8
文字
 62
     7
 48
50.0
100
AcDbText
 10
13248.77747366447
 20
8720.013745883729
 30
0.0
 40
100.0
  1
15
  7
STYLE1
100
AcDbText
  0
LINE
  5
133BB
330
747D
100
AcDbEntity
  8
仕様書枠
 48
50.0
100
AcDbLine
 10
16307.19999999998
 20
8009.600000000004
 30
0.0
 11
13127.19999999999
 21
8009.600000000007
 31
0.0
  0
TEXT
  5
133BC
330
747D
100
AcDbEntity
  8
文字
 62
     7
 48
50.0
100
AcDbText
 10
13583.11819016569
 20
8550.013745883733
 30
0.0
 40
100.0
  1
扉
  7
STYLE1
100
AcDbText
  0
TEXT
  5
133BD
330
747D
100
AcDbEntity
  8
文字
 62
     7
 48
50.0
100
AcDbText
 10
15022.63965474516
 20
8550.013745883729
 30
0.0
 40
100.0
  1
F12            0.8
  7
STYLE1
100
AcDbText
  0
TEXT
  5
133BE
330
747D
100
AcDbEntity
  8
文字
 62
     7
 48
50.0
100
AcDbText
 10
13583.11819016568
 20
8720.013745883733
 30
0.0
 40
100.0
  1
正面パネル
  7
STYLE1
100
AcDbText
  0
TEXT
  5
133BF
330
747D
100
AcDbEntity
  8
文字
 62
     7
 48
50.0
100
AcDbText
 10
15022.63965474515
 20
8720.013745883729
 30
0.0
 40
100.0
  1
F12            0.7
  7
STYLE1
100
AcDbText
  0
TEXT
  5
133C0
330
747D
100
AcDbEntity
  8
文字
 62
     7
 48
50.0
100
AcDbText
 10
15022.63965474517
 20
10590.01374588372
 30
0.0
 40
100.0
  1
F12            1.0
  7
STYLE1
100
AcDbText
  0
TEXT
  5
133C1
330
747D
100
AcDbEntity
  8
文字
 62
     7
 48
50.0
100
AcDbText
 10
15022.63965474516
 20
10930.01374588372
 30
0.0
 40
100.0
  1
F12            1.2
  7
STYLE1
100
AcDbText
  0
TEXT
  5
133C2
330
747D
100
AcDbEntity
  8
文字
 62
     7
 48
50.0
100
AcDbText
 10
13248.77747366448
 20
8890.013745883729
 30
0.0
 40
100.0
  1
14
  7
STYLE1
100
AcDbText
  0
TEXT
  5
133C3
330
747D
100
AcDbEntity
  8
文字
 62
     7
 48
50.0
100
AcDbText
 10
13583.11819016569
 20
10930.01374588373
 30
0.0
 40
100.0
  1
根太
  7
STYLE1
100
AcDbText
  0
TEXT
  5
133C4
330
747D
100
AcDbEntity
  8
文字
 62
     7
 48
50.0
100
AcDbText
 10
13583.1181901657
 20
10590.01374588373
 30
0.0
 40
100.0
  1
床パネル
 41
0.9
  7
STYLE1
100
AcDbText
  0
LINE
  5
133C5
330
747D
100
AcDbEntity
  8
仕様書枠
 48
50.0
100
AcDbLine
 10
16307.19999999999
 20
9029.6
 30
0.0
 11
13127.2
 21
9029.600000000003
 31
0.0
  0
LINE
  5
133C6
330
747D
100
AcDbEntity
  8
仕様書枠
 48
50.0
100
AcDbLine
 10
13127.2
 20
11409.6
 30
0.0
 11
13127.19999999999
 21
8009.600000000006
 31
0.0
  0
TEXT
  5
133C7
330
747D
100
AcDbEntity
  8
文字
 62
     7
 48
50.0
100
AcDbText
 10
13229.83081656554
 20
8040.013745883733
 30
0.0
 40
100.0
  1
Y10→溶融亜鉛-5％アルミニウム合金めっき鋼板(JIS G 3317)
 41
0.9
  7
STYLE1
100
AcDbText
  0
TEXT
  5
133C8
330
747D
100
AcDbEntity
  8
文字
 62
     7
 48
50.0
100
AcDbText
 10
13229.83081656554
 20
8210.013745883735
 30
0.0
 40
100.0
  1
F12→溶融亜鉛めっき鋼板(JIS G 3302)
  7
STYLE1
100
AcDbText
  0
LINE
  5
133C9
330
747D
100
AcDbEntity
  8
仕様書枠
 48
50.0
100
AcDbLine
 10
16307.19999999999
 20
8179.600000000005
 30
0.0
 11
13127.2
 21
8179.600000000005
 31
0.0
  0
LINE
  5
133CA
330
747D
100
AcDbEntity
  8
仕様書枠
 48
50.0
100
AcDbLine
 10
16307.19999999999
 20
8349.600000000004
 30
0.0
 11
13127.19999999999
 21
8349.600000000007
 31
0.0
  0
TEXT
  5
133CB
330
747D
100
AcDbEntity
  8
文字
 62
     7
 48
50.0
100
AcDbText
 10
15022.63965474515
 20
9400.013745883725
 30
0.0
 40
100.0
  1
F12            0.7
  7
STYLE1
100
AcDbText
  0
TEXT
  5
133CC
330
747D
100
AcDbEntity
  8
文字
 62
     7
 48
50.0
100
AcDbText
 10
15022.63965474517
 20
9740.013745883725
 30
0.0
 40
100.0
  1
Y10            0.5
  7
STYLE1
100
AcDbText
  0
TEXT
  5
133CD
330
747D
100
AcDbEntity
  8
文字
 62
     7
 48
50.0
100
AcDbText
 10
15022.63965474516
 20
10080.01374588372
 30
0.0
 40
100.0
  1
Y10            0.7
  7
STYLE1
100
AcDbText
  0
TEXT
  5
133CE
330
747D
100
AcDbEntity
  8
文字
 62
     7
 48
50.0
100
AcDbText
 10
15022.63965474516
 20
10250.01374588372
 30
0.0
 40
100.0
  1
Y10            0.7
  7
STYLE1
100
AcDbText
  0
TEXT
  5
133CF
330
747D
100
AcDbEntity
  8
文字
 62
     7
 48
50.0
100
AcDbText
 10
15022.63965474516
 20
10420.01374588372
 30
0.0
 40
100.0
  1
Y10            1.0
  7
STYLE1
100
AcDbText
  0
TEXT
  5
133D0
330
747D
100
AcDbEntity
  8
文字
 62
     7
 48
50.0
100
AcDbText
 10
15022.63965474518
 20
10760.01374588372
 30
0.0
 40
100.0
  1
F12            1.0
  7
STYLE1
100
AcDbText
  0
TEXT
  5
133D1
330
747D
100
AcDbEntity
  8
文字
 62
     7
 48
50.0
100
AcDbText
 10
15022.63965474517
 20
11100.01374588372
 30
0.0
 40
100.0
  1
F12            1.2
  7
STYLE1
100
AcDbText
  0
TEXT
  5
133D2
330
747D
100
AcDbEntity
  8
文字
 62
     7
 48
50.0
100
AcDbText
 10
13248.77747366448
 20
9230.013745883729
 30
0.0
 40
100.0
  1
12
  7
STYLE1
100
AcDbText
  0
TEXT
  5
133D3
330
747D
100
AcDbEntity
  8
文字
 62
     7
 48
50.0
100
AcDbText
 10
13248.77747366448
 20
9060.013745883729
 30
0.0
 40
100.0
  1
13
  7
STYLE1
100
AcDbText
  0
LINE
  5
133D4
330
747D
100
AcDbEntity
  8
仕様書枠
 48
50.0
100
AcDbLine
 10
16307.19999999999
 20
8859.6
 30
0.0
 11
13127.2
 21
8859.600000000005
 31
0.0
  0
LINE
  5
133D5
330
747D
100
AcDbEntity
  8
仕様書枠
 48
50.0
100
AcDbLine
 10
16307.19999999999
 20
9199.600000000001
 30
0.0
 11
13127.2
 21
9199.600000000001
 31
0.0
  0
TEXT
  5
133D6
330
747D
100
AcDbEntity
  8
文字
 62
     7
 48
50.0
100
AcDbText
 10
13248.77747366447
 20
9400.013745883729
 30
0.0
 40
100.0
  1
11
  7
STYLE1
100
AcDbText
  0
LINE
  5
133D7
330
747D
100
AcDbEntity
  8
仕様書枠
 48
50.0
100
AcDbLine
 10
16307.2
 20
9879.600000000001
 30
0.0
 11
13127.2
 21
9879.600000000001
 31
0.0
  0
LINE
  5
133D8
330
747D
100
AcDbEntity
  8
仕様書枠
 48
50.0
100
AcDbLine
 10
16307.2
 20
10219.6
 30
0.0
 11
13127.2
 21
10219.6
 31
0.0
  0
LINE
  5
133D9
330
747D
100
AcDbEntity
  8
仕様書枠
 48
50.0
100
AcDbLine
 10
16307.19999999999
 20
9539.6
 30
0.0
 11
13127.2
 21
9539.6
 31
0.0
  0
LINE
  5
133DA
330
747D
100
AcDbEntity
  8
仕様書枠
 48
50.0
100
AcDbLine
 10
16307.19999999999
 20
9369.600000000001
 30
0.0
 11
13127.2
 21
9369.600000000001
 31
0.0
  0
LINE
  5
133DB
330
747D
100
AcDbEntity
  8
仕様書枠
 48
50.0
100
AcDbLine
 10
16307.19999999999
 20
9709.600000000001
 30
0.0
 11
13127.2
 21
9709.600000000001
 31
0.0
  0
TEXT
  5
133DC
330
747D
100
AcDbEntity
  8
文字
 62
     7
 48
50.0
100
AcDbText
 10
13271.19032244792
 20
10250.01374588373
 30
0.0
 40
100.0
  1
6
  7
STYLE1
100
AcDbText
  0
TEXT
  5
133DD
330
747D
100
AcDbEntity
  8
文字
 62
     7
 48
50.0
100
AcDbText
 10
13271.19032244792
 20
10080.01374588373
 30
0.0
 40
100.0
  1
7
  7
STYLE1
100
AcDbText
  0
TEXT
  5
133DE
330
747D
100
AcDbEntity
  8
文字
 62
     7
 48
50.0
100
AcDbText
 10
13271.19032244792
 20
9740.013745883729
 30
0.0
 40
100.0
  1
9
  7
STYLE1
100
AcDbText
  0
TEXT
  5
133DF
330
747D
100
AcDbEntity
  8
文字
 62
     7
 48
50.0
100
AcDbText
 10
13271.19032244792
 20
9910.01374588373
 30
0.0
 40
100.0
  1
8
  7
STYLE1
100
AcDbText
  0
TEXT
  5
133E0
330
747D
100
AcDbEntity
  8
文字
 62
     7
 48
50.0
100
AcDbText
 10
13583.11819016569
 20
10080.01374588373
 30
0.0
 40
100.0
  1
鼻隠シ前後
  7
STYLE1
100
AcDbText
  0
TEXT
  5
133E1
330
747D
100
AcDbEntity
  8
文字
 62
     7
 48
50.0
100
AcDbText
 10
13583.11819016569
 20
9740.013745883729
 30
0.0
 40
100.0
  1
屋根パネル
  7
STYLE1
100
AcDbText
  0
TEXT
  5
133E2
330
747D
100
AcDbEntity
  8
文字
 62
     7
 48
50.0
100
AcDbText
 10
13583.11819016568
 20
9400.013745883729
 30
0.0
 40
100.0
  1
壁パネル
  7
STYLE1
100
AcDbText
  0
TEXT
  5
133E3
330
747D
100
AcDbEntity
  8
文字
 62
     7
 48
50.0
100
AcDbText
 10
13248.77747366447
 20
9570.013745883729
 30
0.0
 40
100.0
  1
10
  7
STYLE1
100
AcDbText
  0
TEXT
  5
133E4
330
747D
100
AcDbEntity
  8
文字
 62
     7
 48
50.0
100
AcDbText
 10
13583.11819016569
 20
10250.01374588373
 30
0.0
 40
100.0
  1
妻板左右
  7
STYLE1
100
AcDbText
  0
TEXT
  5
133E5
330
747D
100
AcDbEntity
  8
文字
 62
     7
 48
50.0
100
AcDbText
 10
13271.19032244792
 20
10420.01374588373
 30
0.0
 40
100.0
  1
5
  7
STYLE1
100
AcDbText
  0
TEXT
  5
133E6
330
747D
100
AcDbEntity
  8
文字
 62
     7
 48
50.0
100
AcDbText
 10
13583.11819016569
 20
10420.01374588373
 30
0.0
 40
100.0
  1
桁前後
  7
STYLE1
100
AcDbText
  0
TEXT
  5
133E7
330
747D
100
AcDbEntity
  8
文字
 62
     7
 48
50.0
100
AcDbText
 10
13583.1181901657
 20
10760.01374588373
 30
0.0
 40
100.0
  1
柱
  7
STYLE1
100
AcDbText
  0
TEXT
  5
133E8
330
747D
100
AcDbEntity
  8
文字
 62
     7
 48
50.0
100
AcDbText
 10
13583.11819016569
 20
11100.01374588373
 30
0.0
 40
100.0
  1
土台枠
  7
STYLE1
100
AcDbText
  0
TEXT
  5
133E9
330
747D
100
AcDbEntity
  8
文字
 62
     7
 48
50.0
100
AcDbText
 10
14859.79774614482
 20
11270.01374588373
 30
0.0
 40
100.0
  1
材料（材質）　　単位mm
  7
STYLE1
100
AcDbText
  0
TEXT
  5
133EA
330
747D
100
AcDbEntity
  8
文字
 62
     7
 48
50.0
100
AcDbText
 10
13732.03840939434
 20
11270.01374588373
 30
0.0
 40
100.0
  1
部　　品　　名
  7
STYLE1
100
AcDbText
  0
TEXT
  5
133EB
330
747D
100
AcDbEntity
  8
文字
 62
     7
 48
50.0
100
AcDbText
 10
13271.19032244792
 20
10760.01374588373
 30
0.0
 40
100.0
  1
3
  7
STYLE1
100
AcDbText
  0
TEXT
  5
133EC
330
747D
100
AcDbEntity
  8
文字
 62
     7
 48
50.0
100
AcDbText
 10
13271.19032244792
 20
10590.01374588373
 30
0.0
 40
100.0
  1
4
  7
STYLE1
100
AcDbText
  0
TEXT
  5
133ED
330
747D
100
AcDbEntity
  8
文字
 62
     7
 48
50.0
100
AcDbText
 10
13271.19032244792
 20
10930.01374588373
 30
0.0
 40
100.0
  1
2
  7
STYLE1
100
AcDbText
  0
TEXT
  5
133EE
330
747D
100
AcDbEntity
  8
文字
 62
     7
 48
50.0
100
AcDbText
 10
13271.19032244792
 20
11100.01374588373
 30
0.0
 40
100.0
  1
1
  7
STYLE1
100
AcDbText
  0
TEXT
  5
133EF
330
747D
100
AcDbEntity
  8
文字
 62
     7
 48
50.0
100
AcDbText
 10
13197.42518560407
 20
11270.01374588373
 30
0.0
 40
100.0
  1
品番
  7
STYLE1
100
AcDbText
  0
LINE
  5
133F0
330
747D
100
AcDbEntity
  8
仕様書枠
 48
50.0
100
AcDbLine
 10
16307.19999999999
 20
10729.6
 30
0.0
 11
13127.2
 21
10729.6
 31
0.0
  0
LINE
  5
133F1
330
747D
100
AcDbEntity
  8
仕様書枠
 48
50.0
100
AcDbLine
 10
16307.19999999999
 20
10389.6
 30
0.0
 11
13127.2
 21
10389.6
 31
0.0
  0
LINE
  5
133F2
330
747D
100
AcDbEntity
  8
仕様書枠
 48
50.0
100
AcDbLine
 10
16307.19999999999
 20
10559.6
 30
0.0
 11
13127.2
 21
10559.6
 31
0.0
  0
LINE
  5
133F3
330
747D
100
AcDbEntity
  8
仕様書枠
 48
50.0
100
AcDbLine
 10
16307.2
 20
11069.6
 30
0.0
 11
13127.2
 21
11069.6
 31
0.0
  0
LINE
  5
133F4
330
747D
100
AcDbEntity
  8
仕様書枠
 48
50.0
100
AcDbLine
 10
16307.2
 20
10899.6
 30
0.0
 11
13127.2
 21
10899.6
 31
0.0
  0
LINE
  5
133F5
330
747D
100
AcDbEntity
  8
仕様書枠
 48
50.0
100
AcDbLine
 10
16307.2
 20
11239.6
 30
0.0
 11
13127.2
 21
11239.6
 31
0.0
  0
LINE
  5
133F6
330
747D
100
AcDbEntity
  8
仕様書枠
 48
50.0
100
AcDbLine
 10
13490.2
 20
11409.6
 30
0.0
 11
13490.20000000001
 21
8349.600000000007
 31
0.0
  0
LINE
  5
133F7
330
747D
100
AcDbEntity
  8
仕様書枠
 48
50.0
100
AcDbLine
 10
14785.2
 20
11409.59999999999
 30
0.0
 11
14785.2
 21
8349.600000000004
 31
0.0
  0
LINE
  5
133F8
330
747D
100
AcDbEntity
  8
仕様書枠
 48
50.0
100
AcDbLine
 10
16307.19999999999
 20
8009.600000000004
 30
0.0
 11
16307.2
 21
11409.6
 31
0.0
  0
LINE
  5
133F9
330
747D
100
AcDbEntity
  8
仕様書枠
 48
50.0
100
AcDbLine
 10
16307.2
 20
11409.6
 30
0.0
 11
13127.2
 21
11409.6
 31
0.0
  0
LINE
  5
133FA
330
747D
100
AcDbEntity
  8
仕様書枠
 48
50.0
100
AcDbLine
 10
16307.2
 20
10049.6
 30
0.0
 11
13127.2
 21
10049.6
 31
0.0
  0
TEXT
  5
133FB
330
747D
100
AcDbEntity
  8
文字
 62
     7
 48
50.0
100
AcDbText
 10
15022.63965474515
 20
8380.013745883726
 30
0.0
 40
100.0
  1
F12            2.3
  7
STYLE1
100
AcDbText
  0
TEXT
  5
133FC
330
747D
100
AcDbEntity
  8
文字
 62
     7
 48
50.0
100
AcDbText
 10
13583.11819016569
 20
8380.013745883728
 30
0.0
 40
100.0
  1
アンカープレート
  7
STYLE1
100
AcDbText
  0
LINE
  5
133FD
330
747D
100
AcDbEntity
  8
仕様書枠
 48
50.0
100
AcDbLine
 10
16307.19999999999
 20
8519.600000000004
 30
0.0
 11
13127.2
 21
8519.600000000009
 31
0.0
  0
LINE
  5
133FE
330
747D
100
AcDbEntity
  8
仕様書枠
 48
50.0
100
AcDbLine
 10
16307.19999999999
 20
8689.600000000003
 30
0.0
 11
13127.2
 21
8689.600000000007
 31
0.0
  0
TEXT
  5
133FF
330
747D
100
AcDbEntity
  8
文字
 62
     7
 48
50.0
100
AcDbText
 10
13583.11819016569
 20
9230.013745883729
 30
0.0
 40
100.0
  1
壁面扉鴨居
  7
STYLE1
100
AcDbText
  0
TEXT
  5
13400
330
747D
100
AcDbEntity
  8
文字
 62
     7
 48
50.0
100
AcDbText
 10
13583.11819016569
 20
9060.013745883733
 30
0.0
 40
100.0
  1
壁面扉敷居
  7
STYLE1
100
AcDbText
  0
TEXT
  5
13401
330
747D
100
AcDbEntity
  8
文字
 62
     7
 48
50.0
100
AcDbText
 10
15022.63965474515
 20
9230.013745883729
 30
0.0
 40
100.0
  1
F12            0.7
  7
STYLE1
100
AcDbText
  0
TEXT
  5
13402
330
747D
100
AcDbEntity
  8
文字
 62
     7
 48
50.0
100
AcDbText
 10
15022.63965474517
 20
9060.013745883725
 30
0.0
 40
100.0
  1
F12            1.0
  7
STYLE1
100
AcDbText
  0
TEXT
  5
13403
330
747D
100
AcDbEntity
  8
文字
 62
     7
 48
50.0
100
AcDbText
 10
13583.11819016569
 20
8890.013745883733
 30
0.0
 40
100.0
  1
壁面扉枠左右
  7
STYLE1
100
AcDbText
  0
TEXT
  5
13404
330
747D
100
AcDbEntity
  8
文字
 62
     7
 48
50.0
100
AcDbText
 10
15022.63965474517
 20
8890.013745883726
 30
0.0
 40
100.0
  1
F12            1.0
  7
STYLE1
100
AcDbText
  0
TEXT
  5
13405
330
747D
100
AcDbEntity
  8
文字
 62
     7
 48
50.0
100
AcDbText
 10
13248.77747366447
 20
8550.013745883729
 30
0.0
 40
100.0
  1
16
  7
STYLE1
100
AcDbText
  0
TEXT
  5
13406
330
747D
100
AcDbEntity
  8
文字
 62
     7
 48
50.0
100
AcDbText
 10
13248.77747366447
 20
8380.013745883728
 30
0.0
 40
100.0
  1
17
  7
STYLE1
100
AcDbText
  0
TEXT
  5
13407
330
747D
100
AcDbEntity
  8
文字
 62
     7
 48
50.0
100
AcDbText
 10
13583.1181901657
 20
9910.01374588373
 30
0.0
 40
100.0
  1
梁中
 41
0.9
  7
STYLE1
100
AcDbText
  0
TEXT
  5
13408
330
747D
100
AcDbEntity
  8
文字
 62
     7
 48
50.0
100
AcDbText
 10
15022.63965474517
 20
9910.01374588373
 30
0.0
 40
100.0
  1
F12,Y10        1.0
  7
STYLE1
100
AcDbText
  0
LINE
  5
13409
330
747D
100
AcDbEntity
  8
部品1
100
AcDbLine
 10
5778.904397928898
 20
4522.11280590326
 30
0.0
 11
5778.904397928894
 21
4663.112805903258
 31
0.0
  0
LINE
  5
1340A
330
747D
100
AcDbEntity
  8
部品1
100
AcDbLine
 10
8468.484736913568
 20
4655.716280508019
 30
0.0
 11
8467.351339581222
 21
4635.740152525419
 31
0.0
  0
LINE
  5
1340B
330
747D
100
AcDbEntity
  8
細線
 48
50.0
100
AcDbLine
 10
8435.904397928901
 20
4663.112805903258
 30
0.0
 11
8435.904397928901
 21
4522.112805903257
 31
0.0
  0
LINE
  5
1340C
330
747D
100
AcDbEntity
  8
部品1
100
AcDbLine
 10
8455.914319259646
 20
4540.08274535836
 30
0.0
 11
8455.269413452533
 21
4528.71628050802
 31
0.0
  0
LINE
  5
1340D
330
747D
100
AcDbEntity
  8
部品1
100
AcDbLine
 10
8464.150349784489
 20
4632.282745358361
 30
0.0
 11
8459.115309056379
 21
4543.540152525419
 31
0.0
  0
ARC
  5
1340E
330
747D
100
AcDbEntity
  8
部品1
 48
50.0
100
AcDbCircle
 10
8467.145532680675
 20
4632.11280590326
 30
0.0
 40
3.0
100
AcDbArc
 50
97.65812720736347
 51
176.7526572096623
  0
ARC
  5
1340F
330
747D
100
AcDbEntity
  8
部品1
 48
50.0
100
AcDbCircle
 10
8458.909502155831
 20
4539.912805903258
 30
0.0
 40
3.0
100
AcDbArc
 50
97.65812720736347
 51
176.7526572096623
  0
ARC
  5
13410
330
747D
100
AcDbEntity
  8
部品1
 48
50.0
100
AcDbCircle
 10
8458.41643304727
 20
4543.579805064941
 30
0.0
 40
0.7
100
AcDbArc
 50
277.6581272073635
 51
356.7526572097143
  0
ARC
  5
13411
330
747D
100
AcDbEntity
  8
部品1
 48
50.0
100
AcDbCircle
 10
8466.652463572115
 20
4635.779805064945
 30
0.0
 40
0.7
100
AcDbArc
 50
277.6581272073635
 51
356.7526572096103
  0
ARC
  5
13412
330
747D
100
AcDbEntity
  8
部品1
100
AcDbCircle
 10
8448.280653361434
 20
4529.11280590326
 30
0.0
 40
7.0
100
AcDbArc
 50
270.0
 51
356.7526572096623
  0
ARC
  5
13413
330
747D
100
AcDbEntity
  8
部品1
100
AcDbCircle
 10
8461.495976822469
 20
4656.112805903258
 30
0.0
 40
7.0
100
AcDbArc
 50
356.7526572096623
 51
90.0
  0
DIMENSION
  5
13414
330
747D
100
AcDbEntity
  8
寸法
 48
50.0
100
AcDbDimension
  2
*D3
 10
8418.904397928903
 20
4875.654391161499
 30
0.0
 11
8782.389679303138
 21
4875.654391161499
 31
0.0
 70
   160
 71
     5
 42
50.0
  3
INABA_S40G
100
AcDbAlignedDimension
 13
8468.904397928902
 23
4663.112805903258
 33
0.0
 14
8418.904397928903
 24
4663.112805903259
 34
0.0
100
AcDbRotatedDimension
  0
LINE
  5
13415
330
747D
100
AcDbEntity
  8
細線
 48
50.0
100
AcDbLine
 10
3141.904397928898
 20
4663.112805903261
 30
0.0
 11
3141.904397928898
 21
4522.112805903261
 31
0.0
  0
ARC
  5
13416
330
747D
100
AcDbEntity
  8
部品1
100
AcDbCircle
 10
3116.312819035327
 20
4656.112805903261
 30
0.0
 40
7.0
100
AcDbArc
 50
90.0
 51
183.2473427903377
  0
ARC
  5
13417
330
747D
100
AcDbEntity
  8
部品1
100
AcDbCircle
 10
3129.528142496362
 20
4529.112805903262
 30
0.0
 40
7.0
100
AcDbArc
 50
183.2473427903377
 51
270.0
  0
ARC
  5
13418
330
747D
100
AcDbEntity
  8
部品1
 48
50.0
100
AcDbCircle
 10
3111.156332285686
 20
4635.779805064948
 30
0.0
 40
0.7
100
AcDbArc
 50
183.2473427903897
 51
262.3418727926365
  0
ARC
  5
13419
330
747D
100
AcDbEntity
  8
部品1
 48
50.0
100
AcDbCircle
 10
3119.392362810526
 20
4543.579805064943
 30
0.0
 40
0.7
100
AcDbArc
 50
183.2473427902856
 51
262.3418727926365
  0
ARC
  5
1341A
330
747D
100
AcDbEntity
  8
部品1
 48
50.0
100
AcDbCircle
 10
3118.899293701965
 20
4539.912805903259
 30
0.0
 40
3.0
100
AcDbArc
 50
3.247342790337682
 51
82.34187279263654
  0
ARC
  5
1341B
330
747D
100
AcDbEntity
  8
部品1
 48
50.0
100
AcDbCircle
 10
3110.663263177121
 20
4632.112805903262
 30
0.0
 40
3.0
100
AcDbArc
 50
3.247342790337682
 51
82.34187279263654
  0
LINE
  5
1341C
330
747D
100
AcDbEntity
  8
部品1
100
AcDbLine
 10
3113.658446073307
 20
4632.282745358364
 30
0.0
 11
3118.693486801418
 21
4543.540152525421
 31
0.0
  0
LINE
  5
1341D
330
747D
100
AcDbEntity
  8
部品1
100
AcDbLine
 10
3121.894476598154
 20
4540.082745358364
 30
0.0
 11
3122.539382405263
 21
4528.716280508024
 31
0.0
  0
LINE
  5
1341E
330
747D
100
AcDbEntity
  8
部品1
100
AcDbLine
 10
3109.324058944229
 20
4655.716280508022
 30
0.0
 11
3110.457456276578
 21
4635.740152525421
 31
0.0
  0
LINE
  5
1341F
330
747D
100
AcDbEntity
  8
部品1
 48
50.0
100
AcDbLine
 10
8461.495976822469
 20
4663.112805903258
 30
0.0
 11
3116.312819035327
 21
4663.112805903258
 31
0.0
  0
LINE
  5
13420
330
747D
100
AcDbEntity
  8
細線
 48
50.0
100
AcDbLine
 10
8435.904397928901
 20
4635.086048466631
 30
0.0
 11
3111.063048939312
 21
4635.086048467257
 31
0.0
  0
LINE
  5
13421
330
747D
100
AcDbEntity
  8
細線
 48
50.0
100
AcDbLine
 10
8435.904397928904
 20
4542.88604846663
 30
0.0
 11
3119.299079464145
 21
4542.886048467256
 31
0.0
  0
LINE
  5
13422
330
747D
100
AcDbEntity
  8
部品1
 48
50.0
100
AcDbLine
 10
8448.280653361434
 20
4522.11280590326
 30
0.0
 11
3129.528142496362
 21
4522.112805903261
 31
0.0
  0
DIMENSION
  5
13423
330
747D
100
AcDbEntity
  8
寸法
 48
50.0
100
AcDbDimension
  2
*D4
 10
3108.904397928898
 20
4875.654391161502
 30
0.0
 11
2795.419116554651
 21
4875.654391161502
 31
0.0
 70
   160
 71
     5
 42
50.0
  3
INABA_S40G
100
AcDbAlignedDimension
 13
3158.904397928898
 23
4663.112805903264
 33
0.0
 14
3108.904397928898
 24
4663.112805903263
 34
0.0
100
AcDbRotatedDimension
1001
ACAD
1000
DSTYLE
1002
{
1002
}
  0
DIMENSION
  5
13424
330
747D
100
AcDbEntity
  8
寸法
 48
50.0
100
AcDbDimension
  2
*D5
 10
8468.904397928902
 20
5096.559691635249
 30
0.0
 11
5788.904397928899
 21
5096.559691635249
 31
0.0
 70
   160
 71
     5
 42
5360.000000000003
  3
INABA_S40G
100
AcDbAlignedDimension
 13
3108.904397928898
 23
4663.112805903263
 33
0.0
 14
8468.904397928902
 24
4663.112805903258
 34
0.0
100
AcDbRotatedDimension
  0
DIMENSION
  5
13425
330
747D
100
AcDbEntity
  8
寸法
 48
50.0
100
AcDbDimension
  2
*D6
 10
3158.904397928898
 20
4875.6543911615
 30
0.0
 11
5788.904397928899
 21
4875.6543911615
 31
0.0
 70
   160
  1
柱外寸法<>
 71
     5
 42
5260.000000000004
  3
INABA_S40G
100
AcDbAlignedDimension
 13
8418.904397928903
 23
4663.112805903259
 33
0.0
 14
3158.904397928898
 24
4663.112805903264
 34
0.0
100
AcDbRotatedDimension
  0
TEXT
  5
13426
330
747D
100
AcDbEntity
  8
文字
 62
     7
 48
50.0
100
AcDbText
 10
13209.4053442172
 20
228.5435242569015
 30
0.0
 40
100.0
  1
○有効開口寸法 ： 1266×2025(mm)
  7
STYLE2
100
AcDbText
  0
TEXT
  5
13461
330
747D
100
AcDbEntity
  8
文字
 62
     7
 48
50.0
100
AcDbText
 10
14505.34213575793
 20
483.8967129911411
 30
0.0
 40
160.0
  1
ＮＸＮ－１２０Ｈ
  7
STYLE2
100
AcDbText
  0
LWPOLYLINE
  5
13462
330
747D
100
AcDbEntity
  8
部品1
100
AcDbPolyline
 90
        4
 70
     1
 43
0.0
 10
5407.169064814676
 20
1828.710439851414
 10
5407.169064814676
 20
1588.818118305881
 10
6170.63973104312
 20
1588.818118305881
 10
6170.63973104312
 20
1828.710439851414
  0
TEXT
  5
13463
330
747D
100
AcDbEntity
  8
部品1
100
AcDbText
 10
5497.694468552633
 20
1635.81691063289
 30
0.0
 40
135.0
  1
正面図
  7
STYLE2
100
AcDbText
  0
LINE
  5
13553
330
747D
100
AcDbEntity
  8
部品1
 48
50.0
100
AcDbLine
 10
3633.904397928898
 20
7363.057105901756
 30
0.0
 11
5733.904397928898
 21
7363.057105901757
 31
0.0
  0
LINE
  5
13554
330
747D
100
AcDbEntity
  8
部品1
100
AcDbLine
 10
5760.904400172469
 20
9517.057109478932
 30
0.0
 11
5788.904400172469
 21
9517.057109478932
 31
0.0
  0
LINE
  5
13555
330
747D
100
AcDbEntity
  8
部品1
100
AcDbLine
 10
5816.904400172468
 20
9517.057109478932
 30
0.0
 11
5816.904400172468
 21
9545.057109478927
 31
0.0
  0
LINE
  5
13556
330
747D
100
AcDbEntity
  8
部品1
100
AcDbLine
 10
5760.904400172469
 20
9517.057109478932
 30
0.0
 11
5760.904400172469
 21
9545.057109478932
 31
0.0
  0
LINE
  5
13557
330
747D
100
AcDbEntity
  8
部品1
 48
50.0
100
AcDbLine
 10
5788.904400172469
 20
9517.057109478932
 30
0.0
 11
5760.904400172469
 21
9545.05710947893
 31
0.0
  0
LINE
  5
1355C
330
747D
100
AcDbEntity
  8
破線
  6
HIDDEN
 48
10.0
100
AcDbLine
 10
7494.404397928902
 20
9490.057105901763
 30
0.0
 11
7494.404397928902
 21
7390.05710590176
 31
0.0
  0
LINE
  5
1355D
330
747D
100
AcDbEntity
  8
破線
  6
HIDDEN
 48
10.0
100
AcDbLine
 10
7544.404397928897
 20
9490.057105901763
 30
0.0
 11
7544.404397928905
 21
7390.057105901764
 31
0.0
  0
LINE
  5
1355E
330
747D
100
AcDbEntity
  8
破線
  6
HIDDEN
 48
10.0
100
AcDbLine
 10
6713.404397928901
 20
9490.057105901763
 30
0.0
 11
6713.404397928901
 21
7390.057105901764
 31
0.0
  0
LINE
  5
1355F
330
747D
100
AcDbEntity
  8
破線
  6
HIDDEN
 48
10.0
100
AcDbLine
 10
6663.404397928902
 20
9490.057105901763
 30
0.0
 11
6663.404397928902
 21
7390.05710590176
 31
0.0
  0
LINE
  5
13560
330
747D
100
AcDbEntity
  8
破線
  6
HIDDEN
 48
10.0
100
AcDbLine
 10
4914.404397928894
 20
9490.057105901763
 30
0.0
 11
4914.40439792889
 21
7390.05710590176
 31
0.0
  0
LINE
  5
13561
330
747D
100
AcDbEntity
  8
破線
  6
HIDDEN
 48
10.0
100
AcDbLine
 10
4864.404397928894
 20
9490.057105901763
 30
0.0
 11
4864.404397928891
 21
7390.057105901764
 31
0.0
  0
LINE
  5
13562
330
747D
100
AcDbEntity
  8
部品1
100
AcDbLine
 10
8390.904397928897
 20
9490.057105901763
 30
0.0
 11
8418.904397928898
 21
9490.057105901763
 31
0.0
  0
LINE
  5
13563
330
747D
100
AcDbEntity
  8
部品1
100
AcDbLine
 10
8363.904397928898
 20
9545.057105901761
 30
0.0
 11
8363.904397928898
 21
9517.057105901759
 31
0.0
  0
LINE
  5
13564
330
747D
100
AcDbEntity
  8
部品1
 48
50.0
100
AcDbLine
 10
8390.904397928897
 20
9517.057105901759
 30
0.0
 11
8363.904397928898
 21
9490.057105901763
 31
0.0
  0
LINE
  5
13565
330
747D
100
AcDbEntity
  8
部品1
100
AcDbLine
 10
7943.904397928898
 20
9545.057105901761
 30
0.0
 11
7943.904397928898
 21
9517.057105901759
 31
0.0
  0
LINE
  5
13566
330
747D
100
AcDbEntity
  8
部品1
100
AcDbLine
 10
7523.904397928898
 20
9545.057105901761
 30
0.0
 11
7523.904397928898
 21
9517.057105901759
 31
0.0
  0
LINE
  5
13567
330
747D
100
AcDbEntity
  8
部品1
100
AcDbLine
 10
7523.904397928898
 20
9517.057105901759
 30
0.0
 11
8390.904397928897
 21
9517.057105901759
 31
0.0
  0
LINE
  5
13568
330
747D
100
AcDbEntity
  8
破線
  6
HIDDEN
 48
10.0
100
AcDbLine
 10
8340.404397928898
 20
9466.557105901767
 30
0.0
 11
7544.404397928897
 21
9466.557105901761
 31
0.0
  0
LINE
  5
13569
330
747D
100
AcDbEntity
  8
部品1
100
AcDbLine
 10
7103.904397928897
 20
9545.057105901761
 30
0.0
 11
7103.904397928897
 21
9517.057105901759
 31
0.0
  0
LINE
  5
1356A
330
747D
100
AcDbEntity
  8
部品1
100
AcDbLine
 10
6683.904397928898
 20
9545.057105901761
 30
0.0
 11
6683.904397928898
 21
9517.057105901759
 31
0.0
  0
LINE
  5
1356B
330
747D
100
AcDbEntity
  8
部品1
100
AcDbLine
 10
7326.404397928898
 20
9517.057105901761
 30
0.0
 11
7721.404397928899
 21
9517.057105901759
 31
0.0
  0
LINE
  5
1356C
330
747D
100
AcDbEntity
  8
破線
  6
HIDDEN
 48
10.0
100
AcDbLine
 10
7494.404397928902
 20
9466.557105901761
 30
0.0
 11
6713.404397928901
 21
9466.557105901758
 31
0.0
  0
LINE
  5
1356D
330
747D
100
AcDbEntity
  8
部品1
100
AcDbLine
 10
6263.904397928898
 20
9545.057105901761
 30
0.0
 11
6263.904397928898
 21
9517.057105901759
 31
0.0
  0
LINE
  5
1356E
330
747D
100
AcDbEntity
  8
部品1
100
AcDbLine
 10
5843.904397928898
 20
9545.057105901761
 30
0.0
 11
5843.904397928898
 21
9517.057105901759
 31
0.0
  0
LINE
  5
1356F
330
747D
100
AcDbEntity
  8
部品1
100
AcDbLine
 10
5843.904397928898
 20
9545.057105901761
 30
0.0
 11
5843.904397928898
 21
9517.057105901759
 31
0.0
  0
LINE
  5
13570
330
747D
100
AcDbEntity
  8
部品1
100
AcDbLine
 10
5760.904397928898
 20
9490.057105901763
 30
0.0
 11
5788.904397928899
 21
9490.057105901763
 31
0.0
  0
LINE
  5
13571
330
747D
100
AcDbEntity
  8
部品1
100
AcDbLine
 10
5733.904397928898
 20
9545.057105901761
 30
0.0
 11
5733.904397928898
 21
9517.057105901759
 31
0.0
  0
LINE
  5
13572
330
747D
100
AcDbEntity
  8
部品1
100
AcDbLine
 10
5816.904397928897
 20
9490.057105901763
 30
0.0
 11
5788.904397928899
 21
9490.057105901763
 31
0.0
  0
LINE
  5
13573
330
747D
100
AcDbEntity
  8
部品1
 48
50.0
100
AcDbLine
 10
5760.904397928898
 20
9517.057105901761
 30
0.0
 11
5733.904397928898
 21
9490.057105901767
 31
0.0
  0
LINE
  5
13574
330
747D
100
AcDbEntity
  8
部品1
 48
50.0
100
AcDbLine
 10
5816.904397928897
 20
9517.057105901761
 30
0.0
 11
5843.904397928898
 21
9490.057105901762
 31
0.0
  0
DIMENSION
  5
13575
330
747D
100
AcDbEntity
  8
寸法
 48
50.0
100
AcDbDimension
  2
*D7
 10
5843.904397928898
 20
9919.769515920556
 30
0.0
 11
5788.904397928899
 21
9919.769515920556
 31
0.0
 70
   160
 71
     5
 42
110.0
  3
INABA_S40
100
AcDbAlignedDimension
 13
5733.904397928898
 23
9545.057105901761
 33
0.0
 14
5843.904397928898
 24
9545.057105901761
 34
0.0
100
AcDbRotatedDimension
1001
ACAD
1000
DSTYLE
1002
{
1070
   287
1070
     3
1070
    41
1040
0.5
1070
    44
1040
1.0
1070
   147
1040
0.8
1070
   271
1070
     2
1070
   272
1070
     2
1070
   289
1070
     3
1070
   340
1005
F706
1070
     6
1000
DOT
1070
     7
1000
DOT
1002
}
  0
LINE
  5
13576
330
747D
100
AcDbEntity
  8
部品1
100
AcDbLine
 10
5733.904397928898
 20
9545.057105901761
 30
0.0
 11
5733.904397928898
 21
9517.057105901759
 31
0.0
  0
LINE
  5
13577
330
747D
100
AcDbEntity
  8
部品1
100
AcDbLine
 10
5313.904397928898
 20
9545.057105901761
 30
0.0
 11
5313.904397928898
 21
9517.057105901759
 31
0.0
  0
LINE
  5
13578
330
747D
100
AcDbEntity
  8
部品1
100
AcDbLine
 10
5760.904397928898
 20
9517.057105901761
 30
0.0
 11
5313.904397928898
 21
9517.057105901761
 31
0.0
  0
LINE
  5
13579
330
747D
100
AcDbEntity
  8
破線
  6
HIDDEN
 48
10.0
100
AcDbLine
 10
4914.404397928894
 20
9466.557105901769
 30
0.0
 11
5710.404397928898
 21
9466.557105901769
 31
0.0
  0
LINE
  5
1357A
330
747D
100
AcDbEntity
  8
部品1
100
AcDbLine
 10
4893.904397928898
 20
9545.057105901761
 30
0.0
 11
4893.904397928898
 21
9517.057105901759
 31
0.0
  0
LINE
  5
1357B
330
747D
100
AcDbEntity
  8
部品1
100
AcDbLine
 10
4473.904397928897
 20
9545.057105901761
 30
0.0
 11
4473.904397928897
 21
9517.057105901759
 31
0.0
  0
LINE
  5
1357C
330
747D
100
AcDbEntity
  8
部品1
100
AcDbLine
 10
4053.904397928898
 20
9545.057105901761
 30
0.0
 11
4053.904397928898
 21
9517.057105901759
 31
0.0
  0
LINE
  5
1357D
330
747D
100
AcDbEntity
  8
部品1
100
AcDbLine
 10
5313.904397928898
 20
9517.057105901761
 30
0.0
 11
4053.904397928898
 21
9517.057105901766
 31
0.0
  0
LINE
  5
1357E
330
747D
100
AcDbEntity
  8
破線
  6
HIDDEN
 48
10.0
100
AcDbLine
 10
4083.404397928894
 20
9466.557105901756
 30
0.0
 11
4864.404397928898
 21
9466.557105901761
 31
0.0
  0
LINE
  5
1357F
330
747D
100
AcDbEntity
  8
部品1
100
AcDbLine
 10
5788.904397928899
 20
9545.05710590176
 30
0.0
 11
8418.904397928898
 21
9545.05710590176
 31
0.0
  0
DIMENSION
  5
13580
330
747D
100
AcDbEntity
  8
寸法
 48
50.0
100
AcDbDimension
  2
*D8
 10
8363.904397928898
 20
9919.769515920556
 30
0.0
 11
7103.904397928897
 21
10011.78132694418
 31
0.0
 70
    32
  1
6X420=<>
 71
     5
 42
2520.0
  3
INABA_S40
100
AcDbAlignedDimension
 13
5843.904397928898
 23
9545.057105901761
 33
0.0
 14
8363.904397928898
 24
9545.057105901761
 34
0.0
100
AcDbRotatedDimension
1001
ACAD
1000
DSTYLE
1002
{
1070
   287
1070
     3
1070
    41
1040
0.5
1070
    44
1040
1.0
1070
   147
1040
0.8
1070
   271
1070
     2
1070
   272
1070
     2
1070
   289
1070
     3
1070
   340
1005
F706
1070
     6
1000
DOT
1070
     7
1000
DOT
1002
}
  0
LINE
  5
13581
330
747D
100
AcDbEntity
  8
部品1
100
AcDbLine
 10
5816.904397928897
 20
9517.057105901761
 30
0.0
 11
7523.904397928898
 21
9517.057105901761
 31
0.0
  0
LINE
  5
13582
330
747D
100
AcDbEntity
  8
部品1
100
AcDbLine
 10
8363.904397928898
 20
9490.057105901763
 30
0.0
 11
5843.904397928898
 21
9490.057105901762
 31
0.0
  0
LINE
  5
13583
330
747D
100
AcDbEntity
  8
破線
  6
HIDDEN
 48
10.0
100
AcDbLine
 10
6663.404397928902
 20
9466.557105901761
 30
0.0
 11
5867.404397928901
 21
9466.557105901761
 31
0.0
  0
LINE
  5
13584
330
747D
100
AcDbEntity
  8
部品1
100
AcDbLine
 10
8390.904397928897
 20
8650.057105901764
 30
0.0
 11
8418.904397928898
 21
8650.057105901764
 31
0.0
  0
LINE
  5
13585
330
747D
100
AcDbEntity
  8
部品1
100
AcDbLine
 10
8390.904397928897
 20
8230.057105901764
 30
0.0
 11
8418.904397928898
 21
8230.057105901764
 31
0.0
  0
LINE
  5
13586
330
747D
100
AcDbEntity
  8
部品1
100
AcDbLine
 10
8390.904397928897
 20
7810.057105901764
 30
0.0
 11
8418.904397928898
 21
7810.057105901764
 31
0.0
  0
LINE
  5
13587
330
747D
100
AcDbEntity
  8
部品1
100
AcDbLine
 10
8390.904397928897
 20
7390.057105901757
 30
0.0
 11
8418.904397928898
 21
7390.057105901757
 31
0.0
  0
LINE
  5
13588
330
747D
100
AcDbEntity
  8
部品1
100
AcDbLine
 10
8363.904397928898
 20
7335.057105901758
 30
0.0
 11
8363.904397928898
 21
7363.057105901759
 31
0.0
  0
LINE
  5
13589
330
747D
100
AcDbEntity
  8
部品1
 48
50.0
100
AcDbLine
 10
8390.904397928897
 20
7363.057105901759
 30
0.0
 11
8363.904397928898
 21
7390.05710590176
 31
0.0
  0
LINE
  5
1358A
330
747D
100
AcDbEntity
  8
部品1
100
AcDbLine
 10
7943.904397928898
 20
7335.057105901758
 30
0.0
 11
7943.904397928898
 21
7363.057105901759
 31
0.0
  0
LINE
  5
1358B
330
747D
100
AcDbEntity
  8
部品1
100
AcDbLine
 10
7523.904397928898
 20
7335.057105901758
 30
0.0
 11
7523.904397928898
 21
7363.057105901759
 31
0.0
  0
LINE
  5
1358C
330
747D
100
AcDbEntity
  8
破線
  6
HIDDEN
 48
10.0
100
AcDbLine
 10
8340.404397928898
 20
7413.557105901756
 30
0.0
 11
7544.404397928905
 21
7413.557105901759
 31
0.0
  0
LINE
  5
1358D
330
747D
100
AcDbEntity
  8
部品1
100
AcDbLine
 10
7103.904397928897
 20
7335.057105901758
 30
0.0
 11
7103.904397928897
 21
7363.057105901759
 31
0.0
  0
LINE
  5
1358E
330
747D
100
AcDbEntity
  8
部品1
100
AcDbLine
 10
6683.904397928898
 20
7335.057105901758
 30
0.0
 11
6683.904397928898
 21
7363.057105901759
 31
0.0
  0
LINE
  5
1358F
330
747D
100
AcDbEntity
  8
破線
  6
HIDDEN
 48
10.0
100
AcDbLine
 10
7494.404397928905
 20
7413.557105901759
 30
0.0
 11
6713.404397928901
 21
7413.557105901763
 31
0.0
  0
LINE
  5
13590
330
747D
100
AcDbEntity
  8
部品1
100
AcDbLine
 10
8390.904397928897
 20
9490.057105901763
 30
0.0
 11
8390.904397928897
 21
7363.057105901759
 31
0.0
  0
LINE
  5
13591
330
747D
100
AcDbEntity
  8
部品1
100
AcDbLine
 10
6263.904397928898
 20
7335.057105901758
 30
0.0
 11
6263.904397928898
 21
7363.057105901759
 31
0.0
  0
LINE
  5
13592
330
747D
100
AcDbEntity
  8
部品1
100
AcDbLine
 10
5760.904397928898
 20
7390.057105901757
 30
0.0
 11
5788.904397928899
 21
7390.057105901757
 31
0.0
  0
LINE
  5
13593
330
747D
100
AcDbEntity
  8
部品1
100
AcDbLine
 10
5816.904397928897
 20
7390.057105901757
 30
0.0
 11
5788.904397928899
 21
7390.057105901757
 31
0.0
  0
LINE
  5
13594
330
747D
100
AcDbEntity
  8
部品1
100
AcDbLine
 10
5843.904397928898
 20
7335.057105901758
 30
0.0
 11
5843.904397928898
 21
7363.057105901759
 31
0.0
  0
LINE
  5
13595
330
747D
100
AcDbEntity
  8
部品1
100
AcDbLine
 10
5733.904397928898
 20
7335.057105901758
 30
0.0
 11
5733.904397928898
 21
7363.057105901759
 31
0.0
  0
LINE
  5
13596
330
747D
100
AcDbEntity
  8
部品1
100
AcDbLine
 10
5843.904397928898
 20
7335.057105901762
 30
0.0
 11
5733.904397928898
 21
7335.057105901758
 31
0.0
  0
LINE
  5
13597
330
747D
100
AcDbEntity
  8
部品1
 48
50.0
100
AcDbLine
 10
5760.904397928898
 20
7363.057105901763
 30
0.0
 11
5733.904397928898
 21
7390.057105901757
 31
0.0
  0
LINE
  5
13598
330
747D
100
AcDbEntity
  8
部品1
 48
50.0
100
AcDbLine
 10
5816.904397928897
 20
7363.057105901759
 30
0.0
 11
5843.904397928898
 21
7390.05710590176
 31
0.0
  0
LINE
  5
13599
330
747D
100
AcDbEntity
  8
部品1
100
AcDbLine
 10
5733.904397928898
 20
7335.057105901758
 30
0.0
 11
5733.904397928898
 21
7363.057105901759
 31
0.0
  0
LINE
  5
1359A
330
747D
100
AcDbEntity
  8
部品1
100
AcDbLine
 10
5733.904397928898
 20
7335.057105901758
 30
0.0
 11
5733.904397928898
 21
7363.057105901759
 31
0.0
  0
LINE
  5
1359B
330
747D
100
AcDbEntity
  8
破線
  6
HIDDEN
 48
10.0
100
AcDbLine
 10
4914.40439792889
 20
7413.557105901763
 30
0.0
 11
5710.404397928898
 21
7413.557105901756
 31
0.0
  0
LINE
  5
1359C
330
747D
100
AcDbEntity
  8
破線
  6
HIDDEN
 48
10.0
100
AcDbLine
 10
4083.40439792889
 20
7413.557105901759
 30
0.0
 11
4864.404397928891
 21
7413.557105901756
 31
0.0
  0
LINE
  5
1359E
330
747D
100
AcDbEntity
  8
部品1
100
AcDbLine
 10
8390.904397928897
 20
7363.057105901759
 30
0.0
 11
5816.904397928897
 21
7363.057105901763
 31
0.0
  0
LINE
  5
1359F
330
747D
100
AcDbEntity
  8
部品1
100
AcDbLine
 10
8363.904397928898
 20
7390.05710590176
 30
0.0
 11
5843.904397928898
 21
7390.057105901764
 31
0.0
  0
LINE
  5
135A0
330
747D
100
AcDbEntity
  8
部品1
100
AcDbLine
 10
8418.904397928898
 20
7335.05710590176
 30
0.0
 11
5843.904397928898
 21
7335.05710590176
 31
0.0
  0
LINE
  5
135A1
330
747D
100
AcDbEntity
  8
部品1
100
AcDbLine
 10
5843.904397928898
 20
8650.057105901762
 30
0.0
 11
8363.904397928898
 21
8650.057105901762
 31
0.0
  0
LINE
  5
135A2
330
747D
100
AcDbEntity
  8
部品1
100
AcDbLine
 10
5843.904397928898
 20
8230.057105901764
 30
0.0
 11
8363.904397928898
 21
8230.057105901764
 31
0.0
  0
LINE
  5
135A3
330
747D
100
AcDbEntity
  8
部品1
100
AcDbLine
 10
5843.904397928898
 20
7810.057105901764
 30
0.0
 11
8363.904397928898
 21
7810.057105901764
 31
0.0
  0
LINE
  5
135A4
330
747D
100
AcDbEntity
  8
破線
  6
HIDDEN
 48
10.0
100
AcDbLine
 10
6663.404397928902
 20
7413.557105901763
 30
0.0
 11
5867.404397928901
 21
7413.557105901763
 31
0.0
  0
LINE
  5
135A5
330
747D
100
AcDbEntity
  8
部品1
100
AcDbLine
 10
8390.904397928897
 20
9517.057105901759
 30
0.0
 11
8390.904397928897
 21
8868.057105901762
 31
0.0
  0
LINE
  5
135A6
330
747D
100
AcDbEntity
  8
部品1
100
AcDbLine
 10
8418.904397928898
 20
9545.05710590176
 30
0.0
 11
8418.904397928898
 21
7335.05710590176
 31
0.0
  0
LINE
  5
135A7
330
747D
100
AcDbEntity
  8
破線
  6
HIDDEN
 48
10.0
100
AcDbLine
 10
8340.404397928898
 20
9466.557105901769
 30
0.0
 11
8340.404397928898
 21
7413.557105901756
 31
0.0
  0
LINE
  5
135A8
330
747D
100
AcDbEntity
  8
部品1
100
AcDbLine
 10
5760.904397928898
 20
7363.057105901763
 30
0.0
 11
5760.904397928898
 21
9517.057105901761
 31
0.0
  0
LINE
  5
135A9
330
747D
100
AcDbEntity
  8
部品1
100
AcDbLine
 10
5733.904397928898
 20
7390.057105901757
 30
0.0
 11
5733.904397928895
 21
9490.057105901767
 31
0.0
  0
LINE
  5
135AA
330
747D
100
AcDbEntity
  8
破線
  6
HIDDEN
 48
10.0
100
AcDbLine
 10
5710.404397928898
 20
7413.557105901756
 30
0.0
 11
5710.404397928894
 21
9466.557105901767
 31
0.0
  0
LINE
  5
135AB
330
747D
100
AcDbEntity
  8
部品1
100
AcDbLine
 10
5816.904397928897
 20
7363.057105901759
 30
0.0
 11
5816.904397928897
 21
9517.057105901766
 31
0.0
  0
LINE
  5
135AC
330
747D
100
AcDbEntity
  8
破線
  6
HIDDEN
 48
10.0
100
AcDbLine
 10
5867.404397928898
 20
7413.557105901763
 30
0.0
 11
5867.404397928898
 21
9466.557105901761
 31
0.0
  0
LINE
  5
135AD
330
747D
100
AcDbEntity
  8
部品1
100
AcDbLine
 10
5843.904397928898
 20
7390.05710590176
 30
0.0
 11
5843.904397928898
 21
9490.05710590176
 31
0.0
  0
LINE
  5
135AE
330
747D
100
AcDbEntity
  8
部品1
100
AcDbLine
 10
8363.904397928898
 20
9490.057105901763
 30
0.0
 11
8363.904397928898
 21
7390.05710590176
 31
0.0
  0
LINE
  5
135AF
330
747D
100
AcDbEntity
  8
部品1
100
AcDbLine
 10
3633.904397928898
 20
9545.057105901761
 30
0.0
 11
3633.904397928898
 21
9517.057105901759
 31
0.0
  0
LINE
  5
135B0
330
747D
100
AcDbEntity
  8
部品1
100
AcDbLine
 10
3186.904397928898
 20
9490.057105901763
 30
0.0
 11
3158.904397928898
 21
9490.057105901763
 31
0.0
  0
LINE
  5
135B1
330
747D
100
AcDbEntity
  8
部品1
100
AcDbLine
 10
3213.904397928899
 20
9545.057105901761
 30
0.0
 11
3213.904397928899
 21
9517.057105901759
 31
0.0
  0
LINE
  5
135B2
330
747D
100
AcDbEntity
  8
部品1
 48
50.0
100
AcDbLine
 10
3186.904397928898
 20
9517.057105901761
 30
0.0
 11
3213.904397928895
 21
9490.057105901762
 31
0.0
  0
DIMENSION
  5
135B3
330
747D
100
AcDbEntity
  8
寸法
 48
50.0
100
AcDbDimension
  2
*D9
 10
3213.904397928899
 20
9919.769515920556
 30
0.0
 11
2764.737731262234
 21
9919.769515920556
 31
0.0
 70
   160
 71
     5
 42
55.0
  3
INABA_S40
100
AcDbAlignedDimension
 13
3158.904397928898
 23
9545.05710590176
 33
0.0
 14
3213.904397928899
 24
9545.057105901761
 34
0.0
100
AcDbRotatedDimension
1001
ACAD
1000
DSTYLE
1002
{
1070
   287
1070
     3
1070
    41
1040
0.5
1070
    44
1040
1.0
1070
   147
1040
0.8
1070
   271
1070
     2
1070
   272
1070
     2
1070
   289
1070
     3
1070
   340
1005
F706
1070
     6
1000
DOT
1070
     7
1000
DOT
1002
}
  0
LINE
  5
135B4
330
747D
100
AcDbEntity
  8
破線
  6
HIDDEN
 48
10.0
100
AcDbLine
 10
3237.404397928894
 20
9466.557105901761
 30
0.0
 11
4033.404397928898
 21
9466.557105901761
 31
0.0
  0
LINE
  5
135B5
330
747D
100
AcDbEntity
  8
部品1
100
AcDbLine
 10
3186.904397928898
 20
8650.057105901764
 30
0.0
 11
3158.904397928898
 21
8650.057105901764
 31
0.0
  0
LINE
  5
135B6
330
747D
100
AcDbEntity
  8
部品1
100
AcDbLine
 10
3186.904397928898
 20
8230.057105901764
 30
0.0
 11
3158.904397928898
 21
8230.057105901764
 31
0.0
  0
LINE
  5
135B7
330
747D
100
AcDbEntity
  8
部品1
100
AcDbLine
 10
3186.904397928898
 20
7810.057105901764
 30
0.0
 11
3158.904397928898
 21
7810.057105901764
 31
0.0
  0
LINE
  5
135B8
330
747D
100
AcDbEntity
  8
部品1
100
AcDbLine
 10
3633.904397928898
 20
7335.057105901758
 30
0.0
 11
3633.904397928898
 21
7363.057105901759
 31
0.0
  0
LINE
  5
135B9
330
747D
100
AcDbEntity
  8
部品1
100
AcDbLine
 10
3633.904397928898
 20
7335.057105901765
 30
0.0
 11
3633.904397928898
 21
7363.057105901768
 31
0.0
  0
LINE
  5
135BA
330
747D
100
AcDbEntity
  8
部品1
100
AcDbLine
 10
3186.904397928898
 20
7390.057105901757
 30
0.0
 11
3158.904397928898
 21
7390.057105901757
 31
0.0
  0
LINE
  5
135BB
330
747D
100
AcDbEntity
  8
部品1
100
AcDbLine
 10
3213.904397928899
 20
7335.057105901758
 30
0.0
 11
3213.904397928899
 21
7363.057105901759
 31
0.0
  0
LINE
  5
135BC
330
747D
100
AcDbEntity
  8
部品1
 48
50.0
100
AcDbLine
 10
3186.904397928898
 20
7363.057105901759
 30
0.0
 11
3213.904397928895
 21
7390.057105901764
 31
0.0
  0
LINE
  5
135BD
330
747D
100
AcDbEntity
  8
部品1
100
AcDbLine
 10
3158.904397928898
 20
7335.05710590176
 30
0.0
 11
3633.904397928898
 21
7335.057105901758
 31
0.0
  0
LINE
  5
135BE
330
747D
100
AcDbEntity
  8
破線
  6
HIDDEN
 48
10.0
100
AcDbLine
 10
3237.404397928894
 20
7413.557105901763
 30
0.0
 11
4033.40439792889
 21
7413.557105901759
 31
0.0
  0
LINE
  5
135BF
330
747D
100
AcDbEntity
  8
部品1
100
AcDbLine
 10
3186.904397928898
 20
9490.057105901763
 30
0.0
 11
3186.904397928898
 21
7363.057105901759
 31
0.0
  0
LINE
  5
135C0
330
747D
100
AcDbEntity
  8
部品1
100
AcDbLine
 10
3186.904397928898
 20
9517.057105901761
 30
0.0
 11
3186.904397928898
 21
8868.057105901762
 31
0.0
  0
LINE
  5
135C1
330
747D
100
AcDbEntity
  8
部品1
100
AcDbLine
 10
3158.904397928898
 20
9545.05710590176
 30
0.0
 11
3158.904397928898
 21
7335.05710590176
 31
0.0
  0
LINE
  5
135C2
330
747D
100
AcDbEntity
  8
破線
  6
HIDDEN
 48
10.0
100
AcDbLine
 10
3237.404397928905
 20
9466.557105901761
 30
0.0
 11
3237.404397928894
 21
7413.557105901763
 31
0.0
  0
LINE
  5
135C3
330
747D
100
AcDbEntity
  8
部品1
100
AcDbLine
 10
3213.904397928906
 20
9490.05710590176
 30
0.0
 11
3213.904397928895
 21
7390.057105901764
 31
0.0
  0
LINE
  5
135C4
330
747D
100
AcDbEntity
  8
破線
  6
HIDDEN
 48
10.0
100
AcDbLine
 10
4033.404397928898
 20
9490.057105901763
 30
0.0
 11
4033.40439792889
 21
7390.057105901764
 31
0.0
  0
LINE
  5
135C5
330
747D
100
AcDbEntity
  8
破線
  6
HIDDEN
 48
10.0
100
AcDbLine
 10
4083.404397928894
 20
9490.057105901763
 30
0.0
 11
4083.40439792889
 21
7390.05710590176
 31
0.0
  0
DIMENSION
  5
135C7
330
747D
100
AcDbEntity
  8
寸法
 48
50.0
100
AcDbDimension
  2
*D10
 10
5733.904397928898
 20
9919.769515920556
 30
0.0
 11
4473.904397928897
 21
10011.78132694418
 31
0.0
 70
    32
  1
6X420=<>
 71
     5
 42
2520.0
  3
INABA_S40
100
AcDbAlignedDimension
 13
3213.904397928899
 23
9545.057105901761
 33
0.0
 14
5733.904397928898
 24
9545.057105901761
 34
0.0
100
AcDbRotatedDimension
1001
ACAD
1000
DSTYLE
1002
{
1070
   287
1070
     3
1070
    41
1040
0.5
1070
    44
1040
1.0
1070
   147
1040
0.8
1070
   271
1070
     2
1070
   272
1070
     2
1070
   289
1070
     3
1070
   340
1005
F706
1070
     6
1000
DOT
1070
     7
1000
DOT
1002
}
  0
DIMENSION
  5
135C8
330
747D
100
AcDbEntity
  8
寸法
 48
50.0
100
AcDbDimension
  2
*D11
 10
8418.904397928898
 20
10219.76951592055
 30
0.0
 11
5788.904397928899
 21
10311.78132694418
 31
0.0
 70
    32
 71
     5
 42
5260.0
  3
INABA_S40
100
AcDbAlignedDimension
 13
3158.904397928898
 23
9545.05710590176
 33
0.0
 14
8418.904397928898
 24
9545.05710590176
 34
0.0
100
AcDbRotatedDimension
1001
ACAD
1000
DSTYLE
1002
{
1070
   287
1070
     3
1070
    41
1040
0.5
1070
    44
1040
1.0
1070
   147
1040
0.8
1070
   271
1070
     2
1070
   272
1070
     2
1070
   289
1070
     3
1070
   340
1005
F706
1070
     6
1000
DOT
1070
     7
1000
DOT
1002
}
  0
LINE
  5
135C9
330
747D
100
AcDbEntity
  8
部品1
100
AcDbLine
 10
3186.904397928898
 20
7363.057105901759
 30
0.0
 11
5760.904397928898
 21
7363.057105901763
 31
0.0
  0
LINE
  5
135CA
330
747D
100
AcDbEntity
  8
部品1
100
AcDbLine
 10
3213.904397928895
 20
7390.057105901764
 30
0.0
 11
5733.904397928898
 21
7390.057105901757
 31
0.0
  0
LINE
  5
135CB
330
747D
100
AcDbEntity
  8
部品1
100
AcDbLine
 10
5788.904397928899
 20
9545.05710590176
 30
0.0
 11
3158.904397928898
 21
9545.05710590176
 31
0.0
  0
LINE
  5
135CC
330
747D
100
AcDbEntity
  8
部品1
100
AcDbLine
 10
5733.904397928898
 20
8650.057105901762
 30
0.0
 11
3213.904397928899
 21
8650.057105901758
 31
0.0
  0
LINE
  5
135CD
330
747D
100
AcDbEntity
  8
部品1
100
AcDbLine
 10
5733.904397928898
 20
8230.057105901764
 30
0.0
 11
3213.904397928899
 21
8230.05710590176
 31
0.0
  0
LINE
  5
135CE
330
747D
100
AcDbEntity
  8
部品1
100
AcDbLine
 10
5733.904397928898
 20
7810.057105901764
 30
0.0
 11
3213.904397928899
 21
7810.057105901757
 31
0.0
  0
LINE
  5
135CF
330
747D
100
AcDbEntity
  8
部品1
100
AcDbLine
 10
4053.904397928898
 20
9517.057105901768
 30
0.0
 11
3186.904397928898
 21
9517.057105901761
 31
0.0
  0
LINE
  5
135D0
330
747D
100
AcDbEntity
  8
部品1
100
AcDbLine
 10
3213.904397928895
 20
9490.057105901762
 30
0.0
 11
5733.904397928898
 21
9490.057105901767
 31
0.0
  0
LINE
  5
135D8
330
747D
100
AcDbEntity
  8
部品1
100
AcDbLine
 10
8418.904397928898
 20
4522.112805903261
 30
0.0
 11
8418.904397928898
 21
2188.112805903255
 31
0.0
  0
LINE
  5
135D9
330
747D
100
AcDbEntity
  8
部品1
100
AcDbLine
 10
8363.904397928898
 20
4428.112805903256
 30
0.0
 11
8363.904397928896
 21
2338.112805903254
 31
0.0
  0
LINE
  5
135DA
330
747D
100
AcDbEntity
  8
部品1
100
AcDbLine
 10
7943.904397928898
 20
4428.112805903257
 30
0.0
 11
7943.904397928884
 21
2338.112805903254
 31
0.0
  0
LINE
  5
135DB
330
747D
100
AcDbEntity
  8
部品1
100
AcDbLine
 10
6683.904397928898
 20
4428.112805903256
 30
0.0
 11
6683.904397928898
 21
2338.112805903254
 31
0.0
  0
LINE
  5
135DC
330
747D
100
AcDbEntity
  8
部品1
100
AcDbLine
 10
7103.904397928897
 20
4428.112805903256
 30
0.0
 11
7103.904397928897
 21
2338.112805903254
 31
0.0
  0
LINE
  5
135DD
330
747D
100
AcDbEntity
  8
部品1
100
AcDbLine
 10
7103.904397928913
 20
4428.112805903256
 30
0.0
 11
7103.904397928909
 21
2338.112805903254
 31
0.0
  0
LINE
  5
135DE
330
747D
100
AcDbEntity
  8
部品1
100
AcDbLine
 10
7523.904397928912
 20
4428.112805903256
 30
0.0
 11
7523.904397928909
 21
2338.112805903254
 31
0.0
  0
LINE
  5
135DF
330
747D
100
AcDbEntity
  8
部品1
100
AcDbLine
 10
5788.904397928899
 20
4428.112805903256
 30
0.0
 11
5788.904397928899
 21
4522.11280590326
 31
0.0
  0
LINE
  5
135E2
330
747D
100
AcDbEntity
  8
部品1
100
AcDbLine
 10
5788.904397928899
 20
2338.112805903254
 30
0.0
 11
5788.9043979289
 21
2288.112805903256
 31
0.0
  0
LINE
  5
135EF
330
747D
100
AcDbEntity
  8
部品1
 48
50.0
100
AcDbLine
 10
5788.904397928899
 20
2338.112805903254
 30
0.0
 11
5760.904397928898
 21
2338.112805903254
 31
0.0
  0
LINE
  5
135F3
330
747D
100
AcDbEntity
  8
部品1
100
AcDbLine
 10
6263.904397928898
 20
4428.112805903256
 30
0.0
 11
6263.904397928898
 21
2338.112805903254
 31
0.0
  0
LINE
  5
135F4
330
747D
100
AcDbEntity
  8
部品1
100
AcDbLine
 10
5843.904397928898
 20
4428.112805903256
 30
0.0
 11
5843.904397928898
 21
2338.112805903254
 31
0.0
  0
LINE
  5
135F5
330
747D
100
AcDbEntity
  8
部品1
 48
50.0
100
AcDbLine
 10
5788.904397928899
 20
2338.112805903254
 30
0.0
 11
8418.904397928898
 21
2338.112805903254
 31
0.0
  0
LINE
  5
135F6
330
747D
100
AcDbEntity
  8
部品1
100
AcDbLine
 10
5788.904397928899
 20
2288.112805903256
 30
0.0
 11
8418.904397928898
 21
2288.112805903256
 31
0.0
  0
LINE
  5
135FF
330
747D
100
AcDbEntity
  8
部品1
 48
50.0
100
AcDbLine
 10
3606.904397928899
 20
2338.112805903254
 30
0.0
 11
3158.904397928898
 21
2338.112805903254
 31
0.0
  0
LINE
  5
13600
330
747D
100
AcDbEntity
  8
部品1
100
AcDbLine
 10
2243.489748881344
 20
2188.112805903255
 30
0.0
 11
2183.489748881344
 21
2292.035854357388
 31
0.0
  0
LINE
  5
13601
330
747D
100
AcDbEntity
  8
部品1
100
AcDbLine
 10
2303.489748881344
 20
2292.035854357388
 30
0.0
 11
2243.489748881344
 21
2188.112805903255
 31
0.0
  0
LINE
  5
13602
330
747D
100
AcDbEntity
  8
部品1
100
AcDbLine
 10
2183.489748881344
 20
2292.035854357388
 30
0.0
 11
2303.489748881344
 21
2292.035854357388
 31
0.0
  0
TEXT
  5
13603
330
747D
100
AcDbEntity
  8
部品1
100
AcDbText
 10
2325.973702581163
 20
2202.954510774245
 30
0.0
 40
125.0
  1
G.L
  7
MSGOTHIC
100
AcDbText
  0
LINE
  5
13604
330
747D
100
AcDbEntity
  8
部品1
100
AcDbLine
 10
3158.904397928898
 20
4522.112805903261
 30
0.0
 11
3158.904397928898
 21
2188.112805903255
 31
0.0
  0
LINE
  5
1360B
330
747D
100
AcDbEntity
  8
部品1
100
AcDbLine
 10
3213.904397928899
 20
4428.112805903256
 30
0.0
 11
3213.904397928899
 21
2338.112805903254
 31
0.0
  0
LINE
  5
1360C
330
747D
100
AcDbEntity
  8
部品1
100
AcDbLine
 10
3158.904397928898
 20
2288.112805903256
 30
0.0
 11
5788.9043979289
 21
2288.112805903256
 31
0.0
  0
LINE
  5
1360D
330
747D
100
AcDbEntity
  8
部品1
100
AcDbLine
 10
3158.904397928898
 20
4428.112805903256
 30
0.0
 11
8418.904397928898
 21
4428.112805903256
 31
0.0
  0
LINE
  5
1360E
330
747D
100
AcDbEntity
  8
Ｇ_Ｌ
 48
50.0
100
AcDbLine
 10
1895.037010702755
 20
2188.112805903255
 30
0.0
 11
14766.26680742205
 21
2188.112805903255
 31
0.0
  0
DIMENSION
  5
1360F
330
747D
100
AcDbEntity
  8
寸法
 48
50.0
100
AcDbDimension
  2
*D12
 10
9189.651514973254
 20
9490.057105901763
 30
0.0
 11
9189.651514973251
 21
9939.223772568428
 31
0.0
 70
   160
 71
     5
 42
54.99999999999636
  3
INABA_S40
100
AcDbAlignedDimension
 13
8418.904397928898
 23
9545.05710590176
 33
0.0
 14
8418.904397928898
 24
9490.057105901763
 34
0.0
 50
90.0
100
AcDbRotatedDimension
1001
ACAD
1000
DSTYLE
1002
{
1070
   287
1070
     3
1070
    41
1040
0.5
1070
    44
1040
1.0
1070
   147
1040
0.8
1070
   271
1070
     2
1070
   272
1070
     2
1070
   289
1070
     3
1070
   340
1005
F706
1070
     6
1000
DOT
1070
     7
1000
DOT
1002
}
  0
DIMENSION
  5
13610
330
747D
100
AcDbEntity
  8
寸法
 48
50.0
100
AcDbDimension
  2
*D13
 10
9189.651514973251
 20
7390.057105901757
 30
0.0
 11
9097.639703949628
 21
8440.057105901763
 31
0.0
 70
    32
  1
5X420=<>
 71
     5
 42
2100.000000000008
  3
INABA_S40
100
AcDbAlignedDimension
 13
8418.904397928898
 23
9490.057105901763
 33
0.0
 14
8418.904397928898
 24
7390.057105901757
 34
0.0
 50
90.0
100
AcDbRotatedDimension
1001
ACAD
1000
DSTYLE
1002
{
1070
   287
1070
     3
1070
    41
1040
0.5
1070
    44
1040
1.0
1070
   147
1040
0.8
1070
   271
1070
     2
1070
   272
1070
     2
1070
   289
1070
     3
1070
   340
1005
F706
1070
     6
1000
DOT
1070
     7
1000
DOT
1002
}
  0
DIMENSION
  5
13611
330
747D
100
AcDbEntity
  8
寸法
 48
50.0
100
AcDbDimension
  2
*D14
 10
9189.651514973254
 20
7335.05710590176
 30
0.0
 11
9189.651514973251
 21
6940.890439235094
 31
0.0
 70
   160
 71
     5
 42
54.99999999999727
  3
INABA_S40
100
AcDbAlignedDimension
 13
8418.904397928898
 23
7390.057105901757
 33
0.0
 14
8418.904397928898
 24
7335.05710590176
 34
0.0
 50
90.0
100
AcDbRotatedDimension
1001
ACAD
1000
DSTYLE
1002
{
1070
   287
1070
     3
1070
    41
1040
0.5
1070
    44
1040
1.0
1070
   147
1040
0.8
1070
   271
1070
     2
1070
   272
1070
     2
1070
   289
1070
     3
1070
   340
1005
F706
1070
     6
1000
DOT
1070
     7
1000
DOT
1002
}
  0
DIMENSION
  5
13612
330
747D
100
AcDbEntity
  8
寸法
 48
50.0
100
AcDbDimension
  2
*D15
 10
9489.651514973251
 20
7335.05710590176
 30
0.0
 11
9397.639703949627
 21
8440.057105901763
 31
0.0
 70
    32
 71
     5
 42
2210.000000000001
  3
INABA_S40
100
AcDbAlignedDimension
 13
8418.904397928898
 23
9545.05710590176
 33
0.0
 14
8418.904397928898
 24
7335.05710590176
 34
0.0
 50
90.0
100
AcDbRotatedDimension
1001
ACAD
1000
DSTYLE
1002
{
1070
   287
1070
     3
1070
    41
1040
0.5
1070
    44
1040
1.0
1070
   147
1040
0.8
1070
   271
1070
     2
1070
   272
1070
     2
1070
   289
1070
     3
1070
   340
1005
F706
1070
     6
1000
DOT
1070
     7
1000
DOT
1002
}
  0
DIMENSION
  5
13613
330
747D
100
AcDbEntity
  8
寸法
 48
50.0
100
AcDbDimension
  2
*D16
 10
8418.904397928898
 20
9919.769515920556
 30
0.0
 11
8813.071064595566
 21
9919.769515920556
 31
0.0
 70
   160
 71
     5
 42
55.0
  3
INABA_S40
100
AcDbAlignedDimension
 13
8363.904397928898
 23
9545.057105901761
 33
0.0
 14
8418.904397928898
 24
9545.05710590176
 34
0.0
100
AcDbRotatedDimension
1001
ACAD
1000
DSTYLE
1002
{
1070
   287
1070
     3
1070
    41
1040
0.5
1070
    44
1040
1.0
1070
   147
1040
0.8
1070
   271
1070
     2
1070
   272
1070
     2
1070
   289
1070
     3
1070
   340
1005
F706
1070
     6
1000
DOT
1070
     7
1000
DOT
1002
}
  0
LINE
  5
13A7A
330
747D
100
AcDbEntity
  8
部品1
100
AcDbLine
 10
5733.904397928898
 20
9070.057105901762
 30
0.0
 11
3213.904397928899
 21
9070.057105901758
 31
0.0
  0
LINE
  5
13A7B
330
747D
100
AcDbEntity
  8
部品1
100
AcDbLine
 10
3186.904397928898
 20
9070.057105901764
 30
0.0
 11
3158.904397928898
 21
9070.057105901764
 31
0.0
  0
LINE
  5
13A7C
330
747D
100
AcDbEntity
  8
部品1
100
AcDbLine
 10
5843.904397928898
 20
9070.057105901762
 30
0.0
 11
8363.904397928898
 21
9070.057105901762
 31
0.0
  0
LINE
  5
13A7D
330
747D
100
AcDbEntity
  8
部品1
100
AcDbLine
 10
8390.904397928897
 20
9070.057105901764
 30
0.0
 11
8418.904397928898
 21
9070.057105901764
 31
0.0
  0
LINE
  5
13A7E
330
747D
100
AcDbEntity
  8
細線
 48
50.0
100
AcDbLine
 10
3291.404397928902
 20
4428.112805903256
 30
0.0
 11
3291.404397928906
 21
2338.112805903256
 31
0.0
  0
LINE
  5
13A7F
330
747D
100
AcDbEntity
  8
細線
 48
50.0
100
AcDbLine
 10
3276.404397928902
 20
4428.112805903256
 30
0.0
 11
3276.404397928906
 21
2338.112805903256
 31
0.0
  0
LINE
  5
13A80
330
747D
100
AcDbEntity
  8
細線
 48
50.0
100
AcDbLine
 10
3416.404397928902
 20
4428.112805903256
 30
0.0
 11
3416.404397928906
 21
2338.112805903256
 31
0.0
  0
LINE
  5
13A81
330
747D
100
AcDbEntity
  8
細線
 48
50.0
100
AcDbLine
 10
3431.404397928902
 20
4428.112805903256
 30
0.0
 11
3431.404397928905
 21
2338.112805903256
 31
0.0
  0
LINE
  5
13A82
330
747D
100
AcDbEntity
  8
細線
 48
50.0
100
AcDbLine
 10
3571.404397928902
 20
4428.112805903256
 30
0.0
 11
3571.404397928905
 21
2338.112805903256
 31
0.0
  0
LINE
  5
13A83
330
747D
100
AcDbEntity
  8
細線
 48
50.0
100
AcDbLine
 10
3556.404397928902
 20
4428.112805903256
 30
0.0
 11
3556.404397928905
 21
2338.112805903256
 31
0.0
  0
DIMENSION
  5
13D33
330
747D
100
AcDbEntity
  8
寸法
 48
50.0
100
AcDbDimension
  2
*D26
 10
11011.11894585463
 20
2354.112805903255
 30
0.0
 11
10919.10713483101
 21
3366.612805903257
 31
0.0
 70
    32
  1
有効開口部高サ<>
 71
     5
 42
2025.0
  3
INABA_S40
100
AcDbAlignedDimension
 13
11479.02758725189
 23
4379.112805903254
 33
0.0
 14
11479.02758725189
 24
2354.112805903255
 34
0.0
 50
90.0
100
AcDbRotatedDimension
1001
ACAD
1000
DSTYLE
1002
{
1070
    41
1040
0.5
1070
    44
1040
1.0
1070
   147
1040
0.8
1070
   271
1070
     2
1070
   272
1070
     2
1070
   289
1070
     3
1070
   340
1005
F706
1070
   343
1005
F744
1070
   344
1005
F744
1002
}
  0
LINE
  5
13D34
330
747D
100
AcDbEntity
  8
部品1
100
AcDbLine
 10
11556.02758725189
 20
2288.112805903255
 30
0.0
 11
11479.02758725189
 21
2288.112805903255
 31
0.0
  0
LINE
  5
13D35
330
747D
100
AcDbEntity
  8
部品1
100
AcDbLine
 10
11479.02758725189
 20
4413.799910811654
 30
0.0
 11
11556.02758725189
 21
4428.112805903254
 31
0.0
  0
LINE
  5
13D36
330
747D
100
AcDbEntity
  8
部品1
100
AcDbLine
 10
11479.02758725189
 20
4413.799910811654
 30
0.0
 11
11479.02758725189
 21
2188.112805903255
 31
0.0
  0
LWPOLYLINE
  5
13D37
330
747D
100
AcDbEntity
  8
部品1
100
AcDbPolyline
 90
        4
 70
     1
 43
0.0
 10
12289.29225413767
 20
1828.710439851411
 10
12289.29225413767
 20
1588.818118305878
 10
13052.76292036611
 20
1588.818118305878
 10
13052.76292036611
 20
1828.710439851411
  0
TEXT
  5
13D38
330
747D
100
AcDbEntity
  8
部品1
100
AcDbText
 10
12378.73835556128
 20
1635.816910632888
 30
0.0
 40
135.0
  1
側面図
  7
STYLE2
100
AcDbText
  0
LINE
  5
13D39
330
747D
100
AcDbEntity
  8
部品1
100
AcDbLine
 10
12485.57257360886
 20
4794.863288203226
 30
0.0
 11
12811.02758725189
 21
4777.345229244366
 31
0.0
  0
ARC
  5
13D3C
330
747D
100
AcDbEntity
  8
部品1
100
AcDbCircle
 10
13831.65512306584
 20
4502.136563169048
 30
0.0
 40
0.7
100
AcDbArc
 50
275.0921697642079
 51
354.1866997667087
  0
ARC
  5
13D3D
330
747D
100
AcDbEntity
  8
部品1
100
AcDbCircle
 10
13842.51446881515
 20
4579.179817986971
 30
0.0
 40
0.7
100
AcDbArc
 50
275.0921697642079
 51
354.1866997665532
  0
ARC
  5
13D3E
330
747D
100
AcDbEntity
  8
部品1
100
AcDbCircle
 10
13842.84287405776
 20
4575.494421129881
 30
0.0
 40
3.0
100
AcDbArc
 50
95.0921697643163
 51
174.1866997665532
  0
ARC
  5
13D3F
330
747D
100
AcDbEntity
  8
部品1
100
AcDbCircle
 10
13831.98352830843
 20
4498.451166311958
 30
0.0
 40
3.0
100
AcDbArc
 50
95.09216976420788
 51
174.1866997665532
  0
ARC
  5
13D40
330
747D
100
AcDbEntity
  8
部品1
 48
50.0
100
AcDbCircle
 10
13820.95539303332
 20
4488.860421708075
 30
0.0
 40
7.0
100
AcDbArc
 50
267.8377559870533
 51
354.1866997665532
  0
ARC
  5
13D41
330
747D
100
AcDbEntity
  8
部品1
 48
50.0
100
AcDbCircle
 10
13838.27748949784
 20
4599.762968850248
 30
0.0
 40
7.0
100
AcDbArc
 50
354.1866997665532
 51
87.03587545293636
  0
LINE
  5
13D42
330
747D
100
AcDbEntity
  8
部品1
 48
50.0
100
AcDbLine
 10
13828.99895663782
 20
4498.755028028859
 30
0.0
 11
13827.91939359808
 21
4488.151411035302
 31
0.0
  0
LINE
  5
13D43
330
747D
100
AcDbEntity
  8
部品1
 48
50.0
100
AcDbLine
 10
13839.85830238714
 20
4575.798282846784
 30
0.0
 11
13832.35152312231
 21
4502.065662101771
 31
0.0
  0
LINE
  5
13D44
330
747D
100
AcDbEntity
  8
部品1
 48
50.0
100
AcDbLine
 10
13845.2414900626
 20
4599.053958177473
 30
0.0
 11
13843.21086887163
 21
4579.108916919692
 31
0.0
  0
ARC
  5
13D45
330
747D
100
AcDbEntity
  8
部品1
100
AcDbCircle
 10
11502.06467912326
 20
4541.926964862159
 30
0.0
 40
0.7
100
AcDbArc
 50
181.0932240292635
 51
260.1877540315872
  0
ARC
  5
13D46
330
747D
100
AcDbEntity
  8
部品1
100
AcDbCircle
 10
11497.29200552565
 20
4634.792743062279
 30
0.0
 40
0.7
100
AcDbArc
 50
181.0932240292114
 51
260.1877540315872
  0
ARC
  5
13D47
330
747D
100
AcDbEntity
  8
部品1
100
AcDbCircle
 10
11496.66145112263
 20
4631.14686852488
 30
0.0
 40
3.0
100
AcDbArc
 50
1.093224029315636
 51
80.18775403158718
  0
ARC
  5
13D48
330
747D
100
AcDbEntity
  8
部品1
100
AcDbCircle
 10
11501.43412472023
 20
4538.281090324761
 30
0.0
 40
3.0
100
AcDbArc
 50
1.093224029315636
 51
80.18775403158718
  0
ARC
  5
13D49
330
747D
100
AcDbEntity
  8
部品1
 48
50.0
100
AcDbCircle
 10
11511.63425709543
 20
4527.88884694228
 30
0.0
 40
7.0
100
AcDbArc
 50
181.0932240293156
 51
267.8377559870533
  0
ARC
  5
13D4A
330
747D
100
AcDbEntity
  8
部品1
 48
50.0
100
AcDbCircle
 10
11503.21059899334
 20
4654.839906475376
 30
0.0
 40
7.0
100
AcDbArc
 50
87.03587545293636
 51
181.0932240293156
  0
LINE
  5
13D4B
330
747D
100
AcDbEntity
  8
部品1
 48
50.0
100
AcDbLine
 10
11504.43357864666
 20
4538.338327927944
 30
0.0
 11
11504.6355312671
 21
4527.755292534851
 31
0.0
  0
LINE
  5
13D4C
330
747D
100
AcDbEntity
  8
細線
 48
50.0
100
AcDbLine
 10
11501.82748558999
 20
4541.268376046754
 30
0.0
 11
13831.83115002063
 21
4501.459057072259
 31
0.0
  0
LINE
  5
13D4D
330
747D
100
AcDbEntity
  8
細線
 48
50.0
100
AcDbLine
 10
11497.06701035271
 20
4634.129887744617
 30
0.0
 11
13842.70299509788
 21
4578.505683103789
 31
0.0
  0
LINE
  5
13D4E
330
747D
100
AcDbEntity
  8
部品1
 48
50.0
100
AcDbLine
 10
11499.66090504906
 20
4631.204106128063
 30
0.0
 11
11501.36480654042
 21
4541.913609421417
 31
0.0
  0
LINE
  5
13D4F
330
747D
100
AcDbEntity
  8
部品1
 48
50.0
100
AcDbLine
 10
11496.211873165
 20
4654.706352067948
 30
0.0
 11
11496.59213294281
 21
4634.779387621536
 31
0.0
  0
LINE
  5
13D50
330
747D
100
AcDbEntity
  8
細線
 48
50.0
100
AcDbLine
 10
13813.0275872519
 20
4608.079784938551
 30
0.0
 11
13808.2799043639
 21
4482.334012447807
 31
0.0
  0
LINE
  5
13D51
330
747D
100
AcDbEntity
  8
細線
 48
50.0
100
AcDbLine
 10
11529.02758725189
 20
4660.51248227866
 30
0.0
 11
11523.73848569639
 21
4520.426849651305
 31
0.0
  0
LINE
  5
13D52
330
747D
100
AcDbEntity
  8
部品1
100
AcDbLine
 10
11511.37015185385
 20
4520.893830972221
 30
0.0
 11
13820.69128779174
 21
4481.865405738017
 31
0.0
  0
LINE
  5
13D53
330
747D
100
AcDbEntity
  8
部品1
100
AcDbLine
 10
11503.57257360886
 20
4661.830541237521
 30
0.0
 11
13838.63946411336
 21
4606.753603612395
 31
0.0
  0
LINE
  5
13D54
330
747D
100
AcDbEntity
  8
部品1
 48
50.0
100
AcDbLine
 10
12511.02758725189
 20
4793.545229244366
 30
0.0
 11
12811.02758725189
 21
4793.545229244366
 31
0.0
  0
LINE
  5
13D55
330
747D
100
AcDbEntity
  8
部品1
 48
50.0
100
AcDbLine
 10
12811.02758725189
 20
4793.545229244366
 30
0.0
 11
12811.02758725189
 21
4777.345229244366
 31
0.0
  0
TEXT
  5
13D56
330
747D
100
AcDbEntity
  8
部品1
 48
50.0
100
AcDbText
 10
12499.29542247562
 20
4829.429251396799
 30
0.0
 40
120.0
  1
1000
  7
STYLE1
100
AcDbText
  0
TEXT
  5
13D57
330
747D
100
AcDbEntity
  8
部品1
 48
50.0
100
AcDbText
 10
12976.92844514071
 20
4691.927993178516
 30
0.0
 40
120.0
  1
44
 50
90.0
  7
STYLE1
100
AcDbText
  0
LINE
  5
13D58
330
747D
100
AcDbEntity
  8
細線
 48
50.0
100
AcDbLine
 10
12948.5275872519
 20
4428.112805903254
 30
0.0
 11
12948.5275872519
 21
2338.112805903254
 31
0.0
  0
LINE
  5
13D59
330
747D
100
AcDbEntity
  8
細線
 48
50.0
100
AcDbLine
 10
12933.5275872519
 20
4428.112805903254
 30
0.0
 11
12933.5275872519
 21
2338.112805903254
 31
0.0
  0
LINE
  5
13D5A
330
747D
100
AcDbEntity
  8
細線
 48
50.0
100
AcDbLine
 10
13073.5275872519
 20
4428.112805903254
 30
0.0
 11
13073.5275872519
 21
2338.112805903254
 31
0.0
  0
LINE
  5
13D5B
330
747D
100
AcDbEntity
  8
細線
 48
50.0
100
AcDbLine
 10
13088.5275872519
 20
4428.112805903254
 30
0.0
 11
13088.5275872519
 21
2338.112805903254
 31
0.0
  0
LINE
  5
13D5C
330
747D
100
AcDbEntity
  8
細線
 48
50.0
100
AcDbLine
 10
13228.5275872519
 20
4428.112805903254
 30
0.0
 11
13228.5275872519
 21
2338.112805903254
 31
0.0
  0
LINE
  5
13D5D
330
747D
100
AcDbEntity
  8
細線
 48
50.0
100
AcDbLine
 10
13213.5275872519
 20
4428.112805903254
 30
0.0
 11
13213.5275872519
 21
2338.112805903254
 31
0.0
  0
LINE
  5
13D5E
330
747D
100
AcDbEntity
  8
部品1
100
AcDbLine
 10
13291.02758725189
 20
4428.112805903254
 30
0.0
 11
13291.02758725189
 21
2338.112805903254
 31
0.0
  0
LINE
  5
13D5F
330
747D
100
AcDbEntity
  8
部品1
100
AcDbLine
 10
11556.02758725189
 20
4428.112805903254
 30
0.0
 11
13766.02758725189
 21
4428.112805903254
 31
0.0
  0
LINE
  5
13D60
330
747D
100
AcDbEntity
  8
部品1
100
AcDbLine
 10
11556.02758725189
 20
2338.112805903254
 30
0.0
 11
13766.0275872519
 21
2338.112805903256
 31
0.0
  0
LINE
  5
13D62
330
747D
100
AcDbEntity
  8
部品1
100
AcDbLine
 10
11611.0275872519
 20
4428.112805903254
 30
0.0
 11
11611.02758725189
 21
2338.112805903254
 31
0.0
  0
LINE
  5
13D63
330
747D
100
AcDbEntity
  8
部品1
100
AcDbLine
 10
11556.0275872519
 20
4520.139102947842
 30
0.0
 11
11556.02758725189
 21
2188.112805903255
 31
0.0
  0
DIMENSION
  5
13D65
330
747D
100
AcDbEntity
  8
寸法
100
AcDbDimension
  2
*D17
 10
10712.27745806863
 20
2288.112805903255
 30
0.0
 11
10712.27745806863
 21
1982.065561808766
 31
0.0
 70
   160
 71
     5
 42
50.00000000000046
  3
INABA_S40G
100
AcDbAlignedDimension
 13
11556.02758725189
 23
2338.112805903255
 33
0.0
 14
11479.02758725189
 24
2288.112805903255
 34
0.0
 50
90.0
100
AcDbRotatedDimension
1001
ACAD
1000
DSTYLE
1002
{
1070
   174
1070
     0
1070
   272
1070
     1
1070
   288
1070
     0
1070
   341
1005
0
1002
}
  0
LINE
  5
13D66
330
747D
100
AcDbEntity
  8
部品1
100
AcDbLine
 10
12031.02758725189
 20
4428.112805903254
 30
0.0
 11
12031.02758725189
 21
2338.112805903254
 31
0.0
  0
LINE
  5
13D67
330
747D
100
AcDbEntity
  8
部品1
100
AcDbLine
 10
13766.02758725189
 20
4482.789243534476
 30
0.0
 11
13766.0275872519
 21
2188.112805903255
 31
0.0
  0
LINE
  5
13D68
330
747D
100
AcDbEntity
  8
部品1
100
AcDbLine
 10
13711.0275872519
 20
4428.112805903254
 30
0.0
 11
13711.0275872519
 21
2338.112805903254
 31
0.0
  0
DIMENSION
  5
13D6B
330
747D
100
AcDbEntity
  8
寸法
 48
50.0
100
AcDbDimension
  2
*D18
 10
11556.02758725189
 20
5061.770259482559
 30
0.0
 11
12650.67232432241
 21
5061.770259482559
 31
0.0
 70
   160
  1
柱外寸法<>
 71
     5
 42
2210.0
  3
INABA_S40G
100
AcDbAlignedDimension
 13
13766.02758725189
 23
4609.923485514907
 33
0.0
 14
11556.02758725189
 24
4659.11442402623
 34
0.0
100
AcDbRotatedDimension
1001
ACAD
1000
DSTYLE
1002
{
1070
   174
1070
     0
1070
   272
1070
     1
1070
   288
1070
     0
1070
   341
1005
0
1002
}
  0
DIMENSION
  5
13D6C
330
747D
100
AcDbEntity
  8
寸法
 48
50.0
100
AcDbDimension
  2
*D19
 10
11496.02758725189
 20
5061.770259482559
 30
0.0
 11
11186.3897919763
 21
5061.770259482559
 31
0.0
 70
   160
 71
     5
 42
60.0
  3
INABA_S40G
100
AcDbAlignedDimension
 13
11556.02758725189
 23
4659.11442402623
 33
0.0
 14
11496.02758725189
 24
4663.112805903259
 34
0.0
100
AcDbRotatedDimension
1001
ACAD
1000
DSTYLE
1002
{
1070
   174
1070
     0
1070
   272
1070
     1
1070
   288
1070
     0
1070
   341
1005
0
1002
}
  0
DIMENSION
  5
13D6D
330
747D
100
AcDbEntity
  8
寸法
 48
50.0
100
AcDbDimension
  2
*D20
 10
11496.02758725189
 20
5280.97209315685
 30
0.0
 11
12730.37144134436
 21
5280.97209315685
 31
0.0
 70
   160
 71
     5
 42
2350.0
  3
INABA_S40G
100
AcDbAlignedDimension
 13
13846.02758725189
 23
4608.112805903256
 33
0.0
 14
11496.02758725189
 24
4663.112805903259
 34
0.0
100
AcDbRotatedDimension
1001
ACAD
1000
DSTYLE
1002
{
1070
   174
1070
     0
1070
   272
1070
     1
1070
   288
1070
     0
1070
   341
1005
0
1002
}
  0
LINE
  5
13D87
330
747D
100
AcDbEntity
  8
部品1
100
AcDbLine
 10
11556.02758725189
 20
2288.112805903256
 30
0.0
 11
13766.02758725189
 21
2288.112805903256
 31
0.0
  0
LINE
  5
13D88
330
747D
100
AcDbEntity
  8
細線
 48
50.0
100
AcDbLine
 10
12108.52758725189
 20
4428.112805903254
 30
0.0
 11
12108.52758725189
 21
2338.112805903254
 31
0.0
  0
LINE
  5
13D89
330
747D
100
AcDbEntity
  8
細線
 48
50.0
100
AcDbLine
 10
12093.52758725189
 20
4428.112805903254
 30
0.0
 11
12093.52758725189
 21
2338.112805903254
 31
0.0
  0
LINE
  5
13D8A
330
747D
100
AcDbEntity
  8
細線
 48
50.0
100
AcDbLine
 10
12233.52758725189
 20
4428.112805903254
 30
0.0
 11
12233.52758725189
 21
2338.112805903254
 31
0.0
  0
LINE
  5
13D8B
330
747D
100
AcDbEntity
  8
細線
 48
50.0
100
AcDbLine
 10
12248.52758725189
 20
4428.112805903254
 30
0.0
 11
12248.52758725189
 21
2338.112805903254
 31
0.0
  0
LINE
  5
13D8C
330
747D
100
AcDbEntity
  8
細線
 48
50.0
100
AcDbLine
 10
12388.52758725189
 20
4428.112805903254
 30
0.0
 11
12388.52758725189
 21
2338.112805903254
 31
0.0
  0
LINE
  5
13D8D
330
747D
100
AcDbEntity
  8
細線
 48
50.0
100
AcDbLine
 10
12373.52758725189
 20
4428.112805903254
 30
0.0
 11
12373.52758725189
 21
2338.112805903254
 31
0.0
  0
LINE
  5
13D8E
330
747D
100
AcDbEntity
  8
細線
 48
50.0
100
AcDbLine
 10
11953.52758725189
 20
4428.112805903254
 30
0.0
 11
11953.52758725189
 21
2338.112805903254
 31
0.0
  0
LINE
  5
13D8F
330
747D
100
AcDbEntity
  8
細線
 48
50.0
100
AcDbLine
 10
11968.5275872519
 20
4428.112805903254
 30
0.0
 11
11968.52758725189
 21
2338.112805903254
 31
0.0
  0
LINE
  5
13D90
330
747D
100
AcDbEntity
  8
細線
 48
50.0
100
AcDbLine
 10
11828.5275872519
 20
4428.112805903254
 30
0.0
 11
11828.52758725189
 21
2338.112805903254
 31
0.0
  0
LINE
  5
13D91
330
747D
100
AcDbEntity
  8
細線
 48
50.0
100
AcDbLine
 10
11813.52758725189
 20
4428.112805903254
 30
0.0
 11
11813.52758725189
 21
2338.112805903254
 31
0.0
  0
LINE
  5
13D92
330
747D
100
AcDbEntity
  8
細線
 48
50.0
100
AcDbLine
 10
11673.52758725189
 20
4428.112805903254
 30
0.0
 11
11673.52758725189
 21
2338.112805903254
 31
0.0
  0
LINE
  5
13D93
330
747D
100
AcDbEntity
  8
細線
 48
50.0
100
AcDbLine
 10
11688.5275872519
 20
4428.112805903254
 30
0.0
 11
11688.52758725189
 21
2338.112805903254
 31
0.0
  0
DIMENSION
  5
13D94
330
747D
100
AcDbEntity
  8
寸法
 48
50.0
100
AcDbDimension
  2
*D21
 10
13846.02758725189
 20
5061.770259482559
 30
0.0
 11
14052.07483134638
 21
5061.770259482559
 31
0.0
 70
   160
 71
     5
 42
80.0
  3
INABA_S40G
100
AcDbAlignedDimension
 13
13766.02758725189
 23
4609.923485514907
 33
0.0
 14
13846.02758725189
 24
4608.112805903256
 34
0.0
100
AcDbRotatedDimension
1001
ACAD
1000
DSTYLE
1002
{
1070
   174
1070
     0
1070
   272
1070
     1
1070
   288
1070
     0
1070
   341
1005
0
1002
}
  0
LINE
  5
13D95
330
747D
100
AcDbEntity
  8
部品1
100
AcDbLine
 10
12451.02758725189
 20
4428.112805903254
 30
0.0
 11
12451.02758725189
 21
2338.112805903254
 31
0.0
  0
LINE
  5
13D96
330
747D
100
AcDbEntity
  8
細線
 48
50.0
100
AcDbLine
 10
12793.5275872519
 20
4428.112805903254
 30
0.0
 11
12793.5275872519
 21
2338.112805903254
 31
0.0
  0
LINE
  5
13D97
330
747D
100
AcDbEntity
  8
細線
 48
50.0
100
AcDbLine
 10
12808.5275872519
 20
4428.112805903254
 30
0.0
 11
12808.5275872519
 21
2338.112805903254
 31
0.0
  0
LINE
  5
13D98
330
747D
100
AcDbEntity
  8
細線
 48
50.0
100
AcDbLine
 10
12668.5275872519
 20
4428.112805903254
 30
0.0
 11
12668.5275872519
 21
2338.112805903254
 31
0.0
  0
LINE
  5
13D99
330
747D
100
AcDbEntity
  8
細線
 48
50.0
100
AcDbLine
 10
12653.5275872519
 20
4428.112805903254
 30
0.0
 11
12653.5275872519
 21
2338.112805903254
 31
0.0
  0
LINE
  5
13D9A
330
747D
100
AcDbEntity
  8
細線
 48
50.0
100
AcDbLine
 10
12513.5275872519
 20
4428.112805903254
 30
0.0
 11
12513.5275872519
 21
2338.112805903254
 31
0.0
  0
LINE
  5
13D9B
330
747D
100
AcDbEntity
  8
細線
 48
50.0
100
AcDbLine
 10
12528.5275872519
 20
4428.112805903254
 30
0.0
 11
12528.5275872519
 21
2338.112805903254
 31
0.0
  0
LINE
  5
13D9C
330
747D
100
AcDbEntity
  8
部品1
100
AcDbLine
 10
12871.02758725189
 20
4428.112805903254
 30
0.0
 11
12871.02758725189
 21
2338.112805903254
 31
0.0
  0
LINE
  5
13D9D
330
747D
100
AcDbEntity
  8
細線
 48
50.0
100
AcDbLine
 10
13368.5275872519
 20
4428.112805903254
 30
0.0
 11
13368.5275872519
 21
2338.112805903254
 31
0.0
  0
LINE
  5
13D9E
330
747D
100
AcDbEntity
  8
細線
 48
50.0
100
AcDbLine
 10
13353.5275872519
 20
4428.112805903254
 30
0.0
 11
13353.5275872519
 21
2338.112805903254
 31
0.0
  0
LINE
  5
13D9F
330
747D
100
AcDbEntity
  8
細線
 48
50.0
100
AcDbLine
 10
13493.5275872519
 20
4428.112805903254
 30
0.0
 11
13493.5275872519
 21
2338.112805903254
 31
0.0
  0
LINE
  5
13DA0
330
747D
100
AcDbEntity
  8
細線
 48
50.0
100
AcDbLine
 10
13508.5275872519
 20
4428.112805903254
 30
0.0
 11
13508.5275872519
 21
2338.112805903254
 31
0.0
  0
LINE
  5
13DA1
330
747D
100
AcDbEntity
  8
細線
 48
50.0
100
AcDbLine
 10
13648.5275872519
 20
4428.112805903254
 30
0.0
 11
13648.5275872519
 21
2338.112805903254
 31
0.0
  0
LINE
  5
13DA2
330
747D
100
AcDbEntity
  8
細線
 48
50.0
100
AcDbLine
 10
13633.5275872519
 20
4428.112805903254
 30
0.0
 11
13633.5275872519
 21
2338.112805903254
 31
0.0
  0
DIMENSION
  5
13DA3
330
747D
100
AcDbEntity
  8
寸法
 48
50.0
100
AcDbDimension
  2
*D22
 10
10935.41918048351
 20
4537.458064776586
 30
0.0
 11
10946.08465574244
 21
4908.304728018284
 31
0.0
 70
   161
 71
     5
 42
140.9999999999991
  3
INABA_S40G
100
AcDbAlignedDimension
 13
11515.42360741047
 23
4661.835554737934
 33
0.0
 14
11511.37015185385
 24
4520.893830972221
 34
0.0
1001
ACAD
1000
DSTYLE
1002
{
1070
   174
1070
     0
1070
   272
1070
     1
1070
   288
1070
     0
1070
   341
1005
0
1002
}
  0
DIMENSION
  5
13DAC
330
747D
100
AcDbEntity
  8
寸法
100
AcDbDimension
  2
*D23
 10
14470.95474522402
 20
4608.112805903255
 30
0.0
 11
14370.9429342004
 21
3448.112805903258
 31
0.0
 70
    32
 71
     5
 42
2320.000000000001
  3
INABA_S40G
100
AcDbAlignedDimension
 13
13766.0275872519
 23
2288.112805903255
 33
0.0
 14
13846.0275872519
 24
4608.112805903256
 34
0.0
 50
90.0
100
AcDbRotatedDimension
1001
ACAD
1000
DSTYLE
1002
{
1070
   174
1070
     0
1070
   272
1070
     1
1070
   288
1070
     0
1070
   341
1005
0
1002
}
  0
DIMENSION
  5
13DAD
330
747D
100
AcDbEntity
  8
寸法
100
AcDbDimension
  2
*D24
 10
10412.27745806863
 20
4663.112805903259
 30
0.0
 11
10312.26564704501
 21
3475.61280590326
 31
0.0
 70
    32
 71
     5
 42
2375.000000000005
  3
INABA_S40G
100
AcDbAlignedDimension
 13
11479.02758725189
 23
2288.112805903255
 33
0.0
 14
11496.0275872519
 24
4663.112805903259
 34
0.0
 50
90.0
100
AcDbRotatedDimension
1001
ACAD
1000
DSTYLE
1002
{
1070
   174
1070
     0
1070
   272
1070
     1
1070
   288
1070
     0
1070
   341
1005
0
1002
}
  0
DIMENSION
  5
13DAE
330
747D
100
AcDbEntity
  8
寸法
100
AcDbDimension
  2
*D25
 10
10712.27745806863
 20
2338.112805903255
 30
0.0
 11
10612.26564704501
 21
3383.112805903257
 31
0.0
 70
    32
 71
     5
 42
2089.999999999999
  3
INABA_S40G
100
AcDbAlignedDimension
 13
11556.02758725189
 23
4428.112805903254
 33
0.0
 14
11556.02758725189
 24
2338.112805903255
 34
0.0
 50
90.0
100
AcDbRotatedDimension
1001
ACAD
1000
DSTYLE
1002
{
1070
   174
1070
     0
1070
   272
1070
     1
1070
   288
1070
     0
1070
   341
1005
0
1002
}
  0
LINE
  5
143B4
330
747D
100
AcDbEntity
  8
寸法
 48
50.0
100
AcDbLine
 10
4069.107404210742
 20
7113.093857470629
 30
0.0
 11
4017.70139630064
 21
7113.093857470629
 31
0.0
  0
LINE
  5
143B5
330
747D
100
AcDbEntity
  8
寸法
 48
50.0
100
AcDbLine
 10
4017.70139630064
 20
7113.093857470629
 30
0.0
 11
4017.70139630064
 21
7144.404016122795
 31
0.0
  0
LINE
  5
143B6
330
747D
100
AcDbEntity
  8
寸法
 48
50.0
100
AcDbLine
 10
4017.70139630064
 20
7144.404016122795
 30
0.0
 11
3987.940064309216
 21
7144.404016122795
 31
0.0
  0
LINE
  5
143B7
330
747D
100
AcDbEntity
  8
寸法
 48
50.0
100
AcDbLine
 10
3987.940064309216
 20
7144.404016122795
 30
0.0
 11
4043.404400255691
 21
7181.983467051406
 31
0.0
  0
LINE
  5
143B8
330
747D
100
AcDbEntity
  8
寸法
 48
50.0
100
AcDbLine
 10
4098.868736202166
 20
7144.404016122795
 30
0.0
 11
4043.404400255691
 21
7181.983467051406
 31
0.0
  0
LINE
  5
143B9
330
747D
100
AcDbEntity
  8
寸法
 48
50.0
100
AcDbLine
 10
4069.107404210742
 20
7144.404016122795
 30
0.0
 11
4098.868736202166
 21
7144.404016122795
 31
0.0
  0
LINE
  5
143BA
330
747D
100
AcDbEntity
  8
寸法
 48
50.0
100
AcDbLine
 10
4069.107404210742
 20
7113.093857470629
 30
0.0
 11
4069.107404210742
 21
7144.404016122795
 31
0.0
  0
LINE
  5
143BB
330
747D
100
AcDbEntity
  8
寸法
 48
50.0
100
AcDbLine
 10
4017.70139630064
 20
7113.093857470629
 30
0.0
 11
4069.107404210742
 21
7113.093857470629
 31
0.0
  0
LINE
  5
143BC
330
747D
100
AcDbEntity
  8
寸法
 48
50.0
100
AcDbLine
 10
4348.2729384876
 20
7170.239448225451
 30
0.0
 11
4348.2729384876
 21
7116.575813643662
 31
0.0
  0
LINE
  5
143BD
330
747D
100
AcDbEntity
  8
寸法
 48
50.0
100
AcDbLine
 10
4437.557157083022
 20
7146.315813955965
 30
0.0
 11
4348.2729384876
 21
7170.239448225451
 31
0.0
  0
LINE
  5
143BE
330
747D
100
AcDbEntity
  8
寸法
 48
50.0
100
AcDbLine
 10
4218.405216907296
 20
7146.315813955965
 30
0.0
 11
4437.557157083022
 21
7146.315813955965
 31
0.0
  0
LINE
  5
143BF
330
747D
100
AcDbEntity
  8
細線
 48
50.0
100
AcDbLine
 10
5094.904397928901
 20
7311.557220850492
 30
0.0
 11
5721.904397928899
 21
7311.557220850492
 31
0.0
  0
LINE
  5
143C0
330
747D
100
AcDbEntity
  8
細線
 48
50.0
100
AcDbLine
 10
4440.904402582487
 20
7277.848452296415
 30
0.0
 11
5721.904397928899
 21
7277.848452296415
 31
0.0
  0
LINE
  5
143C1
330
747D
100
AcDbEntity
  8
細線
 48
50.0
100
AcDbLine
 10
4399.904402582492
 20
7307.253360292668
 30
0.0
 11
3645.904397928898
 21
7307.253360292666
 31
0.0
  0
LINE
  5
143C2
330
747D
100
AcDbEntity
  8
細線
100
AcDbLine
 10
5497.654388512442
 20
7331.0571208155
 30
0.0
 11
5499.98592803425
 21
7336.057123455461
 31
0.0
  0
LINE
  5
143C3
330
747D
100
AcDbEntity
  8
細線
100
AcDbLine
 10
5567.654397928899
 20
7331.057105901766
 30
0.0
 11
5565.322851452712
 21
7336.057123455447
 31
0.0
  0
LINE
  5
143C4
330
747D
100
AcDbEntity
  8
細線
100
AcDbLine
 10
5565.322851452712
 20
7336.057123455447
 30
0.0
 11
5499.985928034236
 21
7336.057123455431
 31
0.0
  0
LINE
  5
143C5
330
747D
100
AcDbEntity
  8
細線
100
AcDbLine
 10
5425.322851452712
 20
7336.057123455447
 30
0.0
 11
5359.985928034237
 21
7336.057123455431
 31
0.0
  0
LINE
  5
143C6
330
747D
100
AcDbEntity
  8
細線
100
AcDbLine
 10
5427.654397928899
 20
7331.057105901766
 30
0.0
 11
5425.322851452712
 21
7336.057123455447
 31
0.0
  0
LINE
  5
143C7
330
747D
100
AcDbEntity
  8
細線
100
AcDbLine
 10
5357.654388512442
 20
7331.0571208155
 30
0.0
 11
5359.985928034251
 21
7336.057123455461
 31
0.0
  0
LINE
  5
143C8
330
747D
100
AcDbEntity
  8
細線
100
AcDbLine
 10
5217.6543979289
 20
7331.057105901766
 30
0.0
 11
5219.985937450712
 21
7336.057108541727
 31
0.0
  0
LINE
  5
143C9
330
747D
100
AcDbEntity
  8
細線
100
AcDbLine
 10
5287.65440734536
 20
7331.057090988031
 30
0.0
 11
5285.322860869168
 21
7336.057108541712
 31
0.0
  0
LINE
  5
143CA
330
747D
100
AcDbEntity
  8
細線
100
AcDbLine
 10
5285.322860869172
 20
7336.057108541712
 30
0.0
 11
5219.985937450697
 21
7336.057108541698
 31
0.0
  0
LINE
  5
143CB
330
747D
100
AcDbEntity
  8
細線
100
AcDbLine
 10
4990.072882118005
 20
7302.057145239094
 30
0.0
 11
4924.73595869953
 21
7302.057145239079
 31
0.0
  0
LINE
  5
143CC
330
747D
100
AcDbEntity
  8
細線
100
AcDbLine
 10
4992.404428594193
 20
7297.057127685413
 30
0.0
 11
4990.072882118005
 21
7302.057145239094
 31
0.0
  0
LINE
  5
143CD
330
747D
100
AcDbEntity
  8
細線
100
AcDbLine
 10
4922.404419177736
 20
7297.057142599148
 30
0.0
 11
4924.735958699544
 21
7302.057145239108
 31
0.0
  0
LINE
  5
143CE
330
747D
100
AcDbEntity
  8
細線
 48
50.0
100
AcDbLine
 10
4763.787777176912
 20
7315.327969054846
 30
0.0
 11
4769.543294759579
 21
7297.057117764359
 31
0.0
  0
LINE
  5
143CF
330
747D
100
AcDbEntity
  8
細線
 48
50.0
100
AcDbLine
 10
4752.859328696483
 20
7315.327969054846
 30
0.0
 11
4763.787777176912
 21
7315.327969054846
 31
0.0
  0
ARC
  5
143D0
330
747D
100
AcDbEntity
  8
細線
 48
50.0
100
AcDbCircle
 10
4747.40497263916
 20
7316.827969054846
 30
0.0
 40
5.0
100
AcDbArc
 50
204.6243183521277
 51
335.3756816478722
  0
ARC
  5
143D1
330
747D
100
AcDbEntity
  8
細線
 48
50.0
100
AcDbCircle
 10
4752.859328696483
 20
7314.327969054847
 30
0.0
 40
1.0
100
AcDbArc
 50
90.0
 51
155.3756816478722
  0
ARC
  5
143D2
330
747D
100
AcDbEntity
  8
細線
 48
50.0
100
AcDbCircle
 10
4741.950616581845
 20
7314.327969054847
 30
0.0
 40
1.0
100
AcDbArc
 50
24.62431835212777
 51
90.0
  0
LINE
  5
143D3
330
747D
100
AcDbEntity
  8
細線
 48
50.0
100
AcDbLine
 10
4731.022168101412
 20
7315.327969054846
 30
0.0
 11
4741.950616581845
 21
7315.327969054846
 31
0.0
  0
LINE
  5
143D4
330
747D
100
AcDbEntity
  8
細線
 48
50.0
100
AcDbLine
 10
4725.266650518744
 20
7297.057117764352
 30
0.0
 11
4731.022168101412
 21
7315.327969054846
 31
0.0
  0
LINE
  5
143D5
330
747D
100
AcDbEntity
  8
細線
100
AcDbLine
 10
4782.404420408776
 20
7297.057115130157
 30
0.0
 11
4784.735959930588
 21
7302.057117770117
 31
0.0
  0
LINE
  5
143D6
330
747D
100
AcDbEntity
  8
細線
100
AcDbLine
 10
4852.404429825238
 20
7297.057100216422
 30
0.0
 11
4850.072883349047
 21
7302.057117770103
 31
0.0
  0
LINE
  5
143D7
330
747D
100
AcDbEntity
  8
細線
100
AcDbLine
 10
4850.072883349047
 20
7302.057117770103
 30
0.0
 11
4784.735959930574
 21
7302.057117770089
 31
0.0
  0
LINE
  5
143D8
330
747D
100
AcDbEntity
  8
細線
100
AcDbLine
 10
4710.07285498453
 20
7302.057117764324
 30
0.0
 11
4644.735931566054
 21
7302.057117764309
 31
0.0
  0
LINE
  5
143D9
330
747D
100
AcDbEntity
  8
細線
100
AcDbLine
 10
4712.404401460717
 20
7297.057100210643
 30
0.0
 11
4710.07285498453
 21
7302.057117764324
 31
0.0
  0
LINE
  5
143DA
330
747D
100
AcDbEntity
  8
細線
100
AcDbLine
 10
4642.404393275302
 20
7297.057117764352
 30
0.0
 11
4644.735931566069
 21
7302.057117764338
 31
0.0
  0
LINE
  5
143DB
330
747D
100
AcDbEntity
  8
細線
100
AcDbLine
 10
4502.404428594192
 20
7297.057125951721
 30
0.0
 11
4504.73596688496
 21
7302.057125951707
 31
0.0
  0
LINE
  5
143DC
330
747D
100
AcDbEntity
  8
細線
100
AcDbLine
 10
4572.404436779609
 20
7297.057108398012
 30
0.0
 11
4570.072890303421
 21
7302.05712595169
 31
0.0
  0
LINE
  5
143DD
330
747D
100
AcDbEntity
  8
細線
100
AcDbLine
 10
4570.072890303421
 20
7302.05712595169
 30
0.0
 11
4504.735966884946
 21
7302.057125951678
 31
0.0
  0
LINE
  5
143DE
330
747D
100
AcDbEntity
  8
細線
100
AcDbLine
 10
4130.904394397072
 20
7263.057297632435
 30
0.0
 11
4133.235932687839
 21
7268.05729763242
 31
0.0
  0
LINE
  5
143DF
330
747D
100
AcDbEntity
  8
細線
100
AcDbLine
 10
4200.904402582487
 20
7263.057280078722
 30
0.0
 11
4198.5728561063
 21
7268.057297632399
 31
0.0
  0
LINE
  5
143E0
330
747D
100
AcDbEntity
  8
細線
100
AcDbLine
 10
4198.5728561063
 20
7268.057297632399
 30
0.0
 11
4133.235932687829
 21
7268.057297632392
 31
0.0
  0
LINE
  5
143E1
330
747D
100
AcDbEntity
  8
細線
100
AcDbLine
 10
4338.5728561063
 20
7268.057297632399
 30
0.0
 11
4273.235932687828
 21
7268.057297632392
 31
0.0
  0
LINE
  5
143E2
330
747D
100
AcDbEntity
  8
細線
100
AcDbLine
 10
4340.904402582487
 20
7263.057280078722
 30
0.0
 11
4338.5728561063
 21
7268.057297632399
 31
0.0
  0
LINE
  5
143E3
330
747D
100
AcDbEntity
  8
細線
100
AcDbLine
 10
4270.904394397072
 20
7263.057297632435
 30
0.0
 11
4273.235932687839
 21
7268.05729763242
 31
0.0
  0
LINE
  5
143E4
330
747D
100
AcDbEntity
  8
細線
100
AcDbLine
 10
4058.572856106301
 20
7268.057297632399
 30
0.0
 11
3993.235932687829
 21
7268.057297632387
 31
0.0
  0
LINE
  5
143E5
330
747D
100
AcDbEntity
  8
細線
100
AcDbLine
 10
4060.904402582488
 20
7263.057280078722
 30
0.0
 11
4058.572856106301
 21
7268.057297632399
 31
0.0
  0
LINE
  5
143E6
330
747D
100
AcDbEntity
  8
細線
100
AcDbLine
 10
3990.904394397072
 20
7263.057297632432
 30
0.0
 11
3993.23593268784
 21
7268.057297632417
 31
0.0
  0
LINE
  5
143E7
330
747D
100
AcDbEntity
  8
細線
100
AcDbLine
 10
3850.904402582488
 20
7263.057297632435
 30
0.0
 11
3853.235940873256
 21
7268.05729763242
 31
0.0
  0
LINE
  5
143E8
330
747D
100
AcDbEntity
  8
細線
100
AcDbLine
 10
3920.904410767904
 20
7263.057280078722
 30
0.0
 11
3918.572864291717
 21
7268.057297632399
 31
0.0
  0
LINE
  5
143E9
330
747D
100
AcDbEntity
  8
細線
100
AcDbLine
 10
3918.572864291717
 20
7268.057297632399
 30
0.0
 11
3853.235940873245
 21
7268.057297632392
 31
0.0
  0
ARC
  5
143EA
330
747D
100
AcDbEntity
  8
部品1
 48
0.01
100
AcDbCircle
 10
3806.404291330153
 20
7262.056175447362
 30
0.0
 40
0.5
100
AcDbArc
 50
270.0
 51
0.0
  0
LINE
  5
143EB
330
747D
100
AcDbEntity
  8
部品1
 48
0.01
100
AcDbLine
 10
3806.904291330153
 20
7263.056175447362
 30
0.0
 11
3806.904291330153
 21
7262.056175447362
 31
0.0
  0
LINE
  5
143EC
330
747D
100
AcDbEntity
  8
部品1
 48
0.01
100
AcDbLine
 10
3806.904291330153
 20
7263.056175447362
 30
0.0
 11
3806.904291330153
 21
7262.056175447362
 31
0.0
  0
LINE
  5
143ED
330
747D
100
AcDbEntity
  8
部品1
 48
0.01
100
AcDbLine
 10
3806.404291330153
 20
7261.556175447362
 30
0.0
 11
3799.791785900089
 21
7261.556175447362
 31
0.0
  0
ARC
  5
143EE
330
747D
100
AcDbEntity
  8
部品1
100
AcDbCircle
 10
3799.86013545287
 20
7262.556175447362
 30
0.0
 40
1.0
100
AcDbArc
 50
160.5287793655822
 51
270.0
  0
ARC
  5
143EF
330
747D
100
AcDbEntity
  8
部品1
100
AcDbCircle
 10
3774.404291330153
 20
7271.556175447362
 30
0.0
 40
26.0
100
AcDbArc
 50
340.5287793655822
 51
0.0
  0
LINE
  5
143F0
330
747D
100
AcDbEntity
  8
部品1
100
AcDbLine
 10
3800.404291330153
 20
7271.556175447362
 30
0.0
 11
3800.404291330153
 21
7276.556175447362
 31
0.0
  0
ARC
  5
143F1
330
747D
100
AcDbEntity
  8
部品1
 48
0.01
100
AcDbCircle
 10
3798.404291330153
 20
7276.556175447362
 30
0.0
 40
2.0
100
AcDbArc
 50
0.0
 51
90.0
  0
ARC
  5
143F2
330
747D
100
AcDbEntity
  8
部品1
100
AcDbCircle
 10
3796.795899705343
 20
7275.556175447362
 30
0.0
 40
3.0
100
AcDbArc
 50
90.0
 51
141.6069559807873
  0
LINE
  5
143F3
330
747D
100
AcDbEntity
  8
部品1
 48
0.01
100
AcDbLine
 10
3798.404291330153
 20
7278.556175447362
 30
0.0
 11
3796.795899705343
 21
7278.556175447362
 31
0.0
  0
ARC
  5
143F4
330
747D
100
AcDbEntity
  8
部品1
100
AcDbCircle
 10
3778.333577115882
 20
7274.856175447365
 30
0.0
 40
3.0
100
AcDbArc
 50
254.0576313943215
 51
270.0
  0
ARC
  5
143F5
330
747D
100
AcDbEntity
  8
部品1
100
AcDbCircle
 10
3785.475005544423
 20
7274.856175447365
 30
0.0
 40
3.0
100
AcDbArc
 50
270.0
 51
285.9423686056786
  0
LINE
  5
143F6
330
747D
100
AcDbEntity
  8
部品1
100
AcDbLine
 10
3785.475005544423
 20
7271.856175447365
 30
0.0
 11
3778.333577115882
 21
7271.856175447365
 31
0.0
  0
ARC
  5
143F7
330
747D
100
AcDbEntity
  8
部品1
100
AcDbCircle
 10
3781.904291330153
 20
7287.356175447365
 30
0.0
 40
16.0
100
AcDbArc
 50
285.9423686056786
 51
321.6069559807873
  0
LINE
  5
143F8
330
747D
100
AcDbEntity
  8
部品1
 48
0.01
100
AcDbLine
 10
3765.404291330153
 20
7278.556175447362
 30
0.0
 11
3767.012682954963
 21
7278.556175447362
 31
0.0
  0
ARC
  5
143F9
330
747D
100
AcDbEntity
  8
部品1
100
AcDbCircle
 10
3767.012682954963
 20
7275.556175447362
 30
0.0
 40
3.0
100
AcDbArc
 50
38.39304401921267
 51
90.0
  0
ARC
  5
143FA
330
747D
100
AcDbEntity
  8
部品1
100
AcDbCircle
 10
3781.904291330153
 20
7287.356175447365
 30
0.0
 40
16.0
100
AcDbArc
 50
218.3930440192126
 51
254.0576313943215
  0
LINE
  5
143FB
330
747D
100
AcDbEntity
  8
部品1
100
AcDbLine
 10
3763.404291330153
 20
7271.556175447362
 30
0.0
 11
3763.404291330153
 21
7276.556175447362
 31
0.0
  0
ARC
  5
143FC
330
747D
100
AcDbEntity
  8
部品1
 48
0.01
100
AcDbCircle
 10
3765.404291330153
 20
7276.556175447362
 30
0.0
 40
2.0
100
AcDbArc
 50
90.0
 51
180.0
  0
ARC
  5
143FD
330
747D
100
AcDbEntity
  8
部品1
100
AcDbCircle
 10
3789.404291330153
 20
7271.556175447362
 30
0.0
 40
26.0
100
AcDbArc
 50
180.0
 51
199.4712206344178
  0
ARC
  5
143FE
330
747D
100
AcDbEntity
  8
部品1
 48
0.01
100
AcDbCircle
 10
3757.404291330153
 20
7262.056175447362
 30
0.0
 40
0.5
100
AcDbArc
 50
180.0
 51
270.0
  0
LINE
  5
143FF
330
747D
100
AcDbEntity
  8
部品1
 48
0.01
100
AcDbLine
 10
3757.404291330153
 20
7261.556175447362
 30
0.0
 11
3763.948447207436
 21
7261.556175447362
 31
0.0
  0
LINE
  5
14400
330
747D
100
AcDbEntity
  8
部品1
 48
0.01
100
AcDbLine
 10
3756.904291330153
 20
7263.056175447362
 30
0.0
 11
3756.904291330153
 21
7262.056175447362
 31
0.0
  0
ARC
  5
14401
330
747D
100
AcDbEntity
  8
部品1
100
AcDbCircle
 10
3763.948447207436
 20
7262.556175447362
 30
0.0
 40
1.0
100
AcDbArc
 50
270.0
 51
19.4712206344178
  0
LINE
  5
14402
330
747D
100
AcDbEntity
  8
細線
100
AcDbLine
 10
3802.40429133016
 20
7281.056175447365
 30
0.0
 11
3761.404291330161
 21
7281.056175447358
 31
0.0
  0
LINE
  5
14403
330
747D
100
AcDbEntity
  8
細線
100
AcDbLine
 10
3761.404291330161
 20
7281.056175447358
 30
0.0
 11
3761.404291330161
 21
7263.05617544734
 31
0.0
  0
LINE
  5
14404
330
747D
100
AcDbEntity
  8
細線
100
AcDbLine
 10
3802.40429133016
 20
7281.056175447365
 30
0.0
 11
3802.40429133016
 21
7263.05617544734
 31
0.0
  0
LINE
  5
14405
330
747D
100
AcDbEntity
  8
細線
100
AcDbLine
 10
3645.904397928898
 20
7267.057105901766
 30
0.0
 11
3645.904397928898
 21
7263.057105901814
 31
0.0
  0
DIMENSION
  5
14406
330
747D
100
AcDbEntity
  8
寸法
 48
50.0
100
AcDbDimension
  2
*D27
 10
4911.904397928898
 20
6592.835347201813
 30
0.0
 11
4289.429942239985
 21
6592.835347201813
 31
0.0
 70
   160
  1
有効開口部間口\P<>
 71
     5
 42
1266.0
  3
INABA_S40
100
AcDbAlignedDimension
 13
3645.904397928898
 23
7258.057105901766
 33
0.0
 14
4911.904397928898
 24
7258.057105901766
 34
0.0
100
AcDbRotatedDimension
1001
ACAD
1000
DSTYLE
1002
{
1070
    41
1040
0.5
1070
    44
1040
1.0
1070
   147
1040
0.8
1070
   271
1070
     2
1070
   272
1070
     2
1070
   289
1070
     3
1070
   340
1005
F706
1070
   343
1005
F744
1070
   344
1005
F744
1002
}
  0
LINE
  5
14407
330
747D
100
AcDbEntity
  8
部品1
100
AcDbLine
 10
5733.904397928898
 20
7335.057105901765
 30
0.0
 11
5760.904397928898
 21
7335.057105901765
 31
0.0
  0
LINE
  5
14409
330
747D
100
AcDbEntity
  8
部品1
100
AcDbLine
 10
5760.904397928898
 20
7258.057105901766
 30
0.0
 11
5760.904397928898
 21
7335.057105901765
 31
0.0
  0
LINE
  5
1440A
330
747D
100
AcDbEntity
  8
部品1
100
AcDbLine
 10
5721.904397928899
 20
7331.057105901766
 30
0.0
 11
5733.904397928898
 21
7331.057105901766
 31
0.0
  0
LINE
  5
1440B
330
747D
100
AcDbEntity
  8
部品1
100
AcDbLine
 10
5730.904397928898
 20
7267.057105901766
 30
0.0
 11
5730.904397928898
 21
7258.057105901766
 31
0.0
  0
LINE
  5
1440C
330
747D
100
AcDbEntity
  8
部品1
100
AcDbLine
 10
5721.904397928899
 20
7267.057105901766
 30
0.0
 11
5730.904397928898
 21
7267.057105901766
 31
0.0
  0
LINE
  5
1440D
330
747D
100
AcDbEntity
  8
部品1
100
AcDbLine
 10
5721.904397928899
 20
7331.057105901766
 30
0.0
 11
5721.904397928899
 21
7267.057105901766
 31
0.0
  0
LINE
  5
1440E
330
747D
100
AcDbEntity
  8
部品1
100
AcDbLine
 10
5733.904397928898
 20
7362.057105901766
 30
0.0
 11
5733.904397928898
 21
7331.057105901766
 31
0.0
  0
LINE
  5
1440F
330
747D
100
AcDbEntity
  8
部品1
100
AcDbLine
 10
3645.904397928898
 20
7331.057105901766
 30
0.0
 11
3633.904397928898
 21
7331.057105901766
 31
0.0
  0
LINE
  5
14410
330
747D
100
AcDbEntity
  8
部品1
100
AcDbLine
 10
3606.904397928899
 20
7335.057105901765
 30
0.0
 11
3633.904397928898
 21
7335.057105901765
 31
0.0
  0
LINE
  5
14411
330
747D
100
AcDbEntity
  8
部品1
100
AcDbLine
 10
3636.904397928898
 20
7267.057105901766
 30
0.0
 11
3636.904397928898
 21
7258.057105901766
 31
0.0
  0
LINE
  5
14412
330
747D
100
AcDbEntity
  8
部品1
100
AcDbLine
 10
3645.904397928898
 20
7267.057105901766
 30
0.0
 11
3636.904397928898
 21
7267.057105901766
 31
0.0
  0
LINE
  5
14413
330
747D
100
AcDbEntity
  8
部品1
100
AcDbLine
 10
3636.904397928898
 20
7258.057105901766
 30
0.0
 11
3606.904397928899
 21
7258.057105901766
 31
0.0
  0
LINE
  5
14414
330
747D
100
AcDbEntity
  8
部品1
100
AcDbLine
 10
3606.904397928899
 20
7258.057105901766
 30
0.0
 11
3606.904397928899
 21
7335.057105901765
 31
0.0
  0
LINE
  5
14415
330
747D
100
AcDbEntity
  8
部品1
100
AcDbLine
 10
3645.904397928898
 20
7331.057105901766
 30
0.0
 11
3645.904397928898
 21
7267.057105901766
 31
0.0
  0
LINE
  5
14416
330
747D
100
AcDbEntity
  8
部品1
100
AcDbLine
 10
3633.904397928898
 20
7362.057105901762
 30
0.0
 11
3633.904397928898
 21
7331.057105901766
 31
0.0
  0
LINE
  5
14417
330
747D
100
AcDbEntity
  8
部品1
100
AcDbLine
 10
3633.904397928898
 20
7362.057105901762
 30
0.0
 11
5733.904397928898
 21
7362.057105901766
 31
0.0
  0
LINE
  5
14418
330
747D
100
AcDbEntity
  8
部品1
100
AcDbLine
 10
5730.904397928898
 20
7258.057105901766
 30
0.0
 11
5760.904397928898
 21
7258.057105901766
 31
0.0
  0
LINE
  5
14419
330
747D
100
AcDbEntity
  8
部品1
100
AcDbLine
 10
3636.904397928898
 20
7258.057105901766
 30
0.0
 11
5733.904397928898
 21
7258.057105901766
 31
0.0
  0
LINE
  5
1441A
330
747D
100
AcDbEntity
  8
細線
  6
Continuous
 62
     5
100
AcDbLine
 10
5012.904397928902
 20
7297.057105901761
 30
0.0
 11
5012.904397928902
 21
7297.057105901761
 31
0.0
  0
LINE
  5
1441B
330
747D
100
AcDbEntity
  8
細線
  6
Continuous
 62
     5
100
AcDbLine
 10
5005.404433247793
 20
7297.05711582282
 30
0.0
 11
5005.404433247793
 21
7297.05711582282
 31
0.0
  0
LINE
  5
1441C
330
747D
100
AcDbEntity
  8
細線
  6
Continuous
 62
     5
100
AcDbLine
 10
4999.404433247793
 20
7297.05711582282
 30
0.0
 11
4999.404433247793
 21
7297.05711582282
 31
0.0
  0
LINE
  5
1441D
330
747D
100
AcDbEntity
  8
細線
  6
Continuous
 62
     5
100
AcDbLine
 10
5066.904397928902
 20
7316.057105901762
 30
0.0
 11
5066.904397928902
 21
7316.057105901762
 31
0.0
  0
LINE
  5
1441E
330
747D
100
AcDbEntity
  8
細線
 48
50.0
100
AcDbLine
 10
3659.904402582492
 20
7283.65728007872
 30
0.0
 11
3659.904402582492
 21
7292.053430486359
 31
0.0
  0
LINE
  5
1441F
330
747D
100
AcDbEntity
  8
細線
 48
50.0
100
AcDbLine
 10
3659.904402582492
 20
7292.053430486359
 30
0.0
 11
3645.904397928898
 21
7292.053430486356
 31
0.0
  0
LINE
  5
14420
330
747D
100
AcDbEntity
  8
細線
 48
50.0
100
AcDbLine
 10
4410.904402582487
 20
7280.207280078719
 30
0.0
 11
4410.904402582487
 21
7285.057280078722
 31
0.0
  0
LINE
  5
14421
330
747D
100
AcDbEntity
  8
細線
 48
50.0
100
AcDbLine
 10
4410.904402582487
 20
7285.057280078722
 30
0.0
 11
4425.904402582488
 21
7285.057280078722
 31
0.0
  0
LINE
  5
14422
330
747D
100
AcDbEntity
  8
細線
 48
50.0
100
AcDbLine
 10
4425.904402582488
 20
7285.057280078722
 30
0.0
 11
4425.904402582491
 21
7292.057280078721
 31
0.0
  0
LINE
  5
14423
330
747D
100
AcDbEntity
  8
細線
 48
50.0
100
AcDbLine
 10
4425.904402582491
 20
7292.057280078721
 30
0.0
 11
4440.904402582487
 21
7292.057280078721
 31
0.0
  0
LINE
  5
14424
330
747D
100
AcDbEntity
  8
細線
 48
50.0
100
AcDbLine
 10
4440.904402582487
 20
7292.057280078721
 30
0.0
 11
4440.904402582487
 21
7263.057280078722
 31
0.0
  0
LINE
  5
14425
330
747D
100
AcDbEntity
  8
細線
 48
50.0
100
AcDbLine
 10
3636.904397928898
 20
7263.054614422189
 30
0.0
 11
3850.904402582488
 21
7263.057297632435
 31
0.0
  0
LINE
  5
14426
330
747D
100
AcDbEntity
  8
細線
 48
50.0
100
AcDbLine
 10
4340.904402582487
 20
7263.057280078722
 30
0.0
 11
4440.904402582487
 21
7263.057280078722
 31
0.0
  0
LINE
  5
14427
330
747D
100
AcDbEntity
  8
細線
 48
50.0
100
AcDbLine
 10
4060.904402582488
 20
7263.057280078722
 30
0.0
 11
4130.904402582488
 21
7263.057280078722
 31
0.0
  0
LINE
  5
14428
330
747D
100
AcDbEntity
  8
細線
 48
50.0
100
AcDbLine
 10
4073.766367595017
 20
7263.057280078722
 30
0.0
 11
4079.521885177684
 21
7281.328131369216
 31
0.0
  0
LINE
  5
14429
330
747D
100
AcDbEntity
  8
細線
 48
50.0
100
AcDbLine
 10
4079.521885177684
 20
7281.328131369216
 30
0.0
 11
4090.450333658118
 21
7281.328131369211
 31
0.0
  0
ARC
  5
1442A
330
747D
100
AcDbEntity
  8
細線
 48
50.0
100
AcDbCircle
 10
4090.450333658118
 20
7280.328131369211
 30
0.0
 40
1.0
100
AcDbArc
 50
24.62431835212777
 51
90.0
  0
ARC
  5
1442B
330
747D
100
AcDbEntity
  8
細線
 48
50.0
100
AcDbCircle
 10
4101.359045772752
 20
7280.328131369211
 30
0.0
 40
1.0
100
AcDbArc
 50
90.0
 51
155.3756816478722
  0
ARC
  5
1442C
330
747D
100
AcDbEntity
  8
細線
 48
50.0
100
AcDbCircle
 10
4095.904689715433
 20
7282.828131369211
 30
0.0
 40
5.0
100
AcDbArc
 50
204.6243183521277
 51
335.3756816478722
  0
LINE
  5
1442D
330
747D
100
AcDbEntity
  8
細線
 48
50.0
100
AcDbLine
 10
4101.359045772752
 20
7281.328131369211
 30
0.0
 11
4112.287494253185
 21
7281.328131369216
 31
0.0
  0
LINE
  5
1442E
330
747D
100
AcDbEntity
  8
細線
 48
50.0
100
AcDbLine
 10
4112.287494253185
 20
7281.328131369216
 30
0.0
 11
4118.043011835853
 21
7263.057280078722
 31
0.0
  0
LINE
  5
1442F
330
747D
100
AcDbEntity
  8
細線
 48
50.0
100
AcDbLine
 10
4410.904402582487
 20
7283.65728007872
 30
0.0
 11
3659.904402582492
 21
7283.65728007872
 31
0.0
  0
LINE
  5
14430
330
747D
100
AcDbEntity
  8
細線
 48
50.0
100
AcDbLine
 10
4270.904402582488
 20
7263.057280078722
 30
0.0
 11
4200.904402582487
 21
7263.057280078722
 31
0.0
  0
LINE
  5
14431
330
747D
100
AcDbEntity
  8
細線
100
AcDbLine
 10
3990.904402582488
 20
7263.057280078722
 30
0.0
 11
3920.904410767904
 21
7263.057280078722
 31
0.0
  0
LINE
  5
14432
330
747D
100
AcDbEntity
  8
細線
 48
50.0
100
AcDbLine
 10
5064.904393275313
 20
7317.657323936588
 30
0.0
 11
4429.904402582487
 21
7317.657323936585
 31
0.0
  0
LINE
  5
14433
330
747D
100
AcDbEntity
  8
細線
 48
50.0
100
AcDbLine
 10
4429.904402582487
 20
7314.553474344228
 30
0.0
 11
4429.904402582487
 21
7319.053474344229
 31
0.0
  0
LINE
  5
14434
330
747D
100
AcDbEntity
  8
細線
 48
50.0
100
AcDbLine
 10
4429.904402582487
 20
7319.053474344229
 30
0.0
 11
4414.904402582488
 21
7319.053474344229
 31
0.0
  0
LINE
  5
14435
330
747D
100
AcDbEntity
  8
細線
 48
50.0
100
AcDbLine
 10
4414.904402582488
 20
7319.053474344229
 30
0.0
 11
4414.904402582488
 21
7326.053474344227
 31
0.0
  0
LINE
  5
14436
330
747D
100
AcDbEntity
  8
細線
 48
50.0
100
AcDbLine
 10
4414.904402582488
 20
7326.053474344227
 30
0.0
 11
4399.904402582492
 21
7326.053474344224
 31
0.0
  0
LINE
  5
14437
330
747D
100
AcDbEntity
  8
細線
 48
50.0
100
AcDbLine
 10
4399.904402582492
 20
7326.053474344224
 30
0.0
 11
4399.904402582492
 21
7288.453246241113
 31
0.0
  0
LINE
  5
14438
330
747D
100
AcDbEntity
  8
細線
 48
50.0
100
AcDbLine
 10
4399.904402582492
 20
7288.453246241113
 30
0.0
 11
4419.904409883663
 21
7288.453287790655
 31
0.0
  0
LINE
  5
14439
330
747D
100
AcDbEntity
  8
細線
 48
50.0
100
AcDbLine
 10
4419.904365014722
 20
7297.056749426463
 30
0.0
 11
4419.904409883663
 21
7288.453287790655
 31
0.0
  0
LINE
  5
1443A
330
747D
100
AcDbEntity
  8
細線
 48
50.0
100
AcDbLine
 10
5064.904393275313
 20
7314.207323936587
 30
0.0
 11
5064.904393275313
 21
7319.057323936586
 31
0.0
  0
LINE
  5
1443B
330
747D
100
AcDbEntity
  8
細線
 48
50.0
100
AcDbLine
 10
5064.904393275313
 20
7319.057323936586
 30
0.0
 11
5079.904393275309
 21
7319.057323936586
 31
0.0
  0
LINE
  5
1443C
330
747D
100
AcDbEntity
  8
細線
 48
50.0
100
AcDbLine
 10
5079.904393275309
 20
7319.057323936586
 30
0.0
 11
5079.904404909285
 21
7326.05732393663
 31
0.0
  0
LINE
  5
1443D
330
747D
100
AcDbEntity
  8
細線
 48
50.0
100
AcDbLine
 10
5079.904404909285
 20
7326.05732393663
 30
0.0
 11
5094.904403079814
 21
7326.05732393663
 31
0.0
  0
LINE
  5
1443E
330
747D
100
AcDbEntity
  8
細線
 48
50.0
100
AcDbLine
 10
5094.904403079814
 20
7326.05732393663
 30
0.0
 11
5094.904392777993
 21
7297.057117764357
 31
0.0
  0
LINE
  5
1443F
330
747D
100
AcDbEntity
  8
細線
 48
50.0
100
AcDbLine
 10
4782.404420408776
 20
7297.057125951721
 30
0.0
 11
4712.404672491193
 21
7297.057120514384
 31
0.0
  0
LINE
  5
14440
330
747D
100
AcDbEntity
  8
細線
 48
50.0
100
AcDbLine
 10
4419.904365014722
 20
7297.056749426463
 30
0.0
 11
4431.137054369432
 21
7297.05693237961
 31
0.0
  0
ARC
  5
14441
330
747D
100
AcDbEntity
  8
細線
 48
50.0
100
AcDbCircle
 10
4437.719346676767
 20
7295.857096293222
 30
0.0
 40
1.8
100
AcDbArc
 50
270.0006665777295
 51
345.0005554812987
  0
LINE
  5
14442
330
747D
100
AcDbEntity
  8
細線
 48
50.0
100
AcDbLine
 10
4439.705780122848
 20
7296.315936750501
 30
0.0
 11
4439.458017680649
 21
7295.391238868394
 31
0.0
  0
LINE
  5
14443
330
747D
100
AcDbEntity
  8
細線
 48
50.0
100
AcDbLine
 10
4437.719367617923
 20
7294.057096293343
 30
0.0
 11
4434.089440199153
 21
7294.057054062863
 31
0.0
  0
ARC
  5
14444
330
747D
100
AcDbEntity
  8
細線
 48
50.0
100
AcDbCircle
 10
4434.089419258001
 20
7295.857054062742
 30
0.0
 40
1.8
100
AcDbArc
 50
195.0010443049445
 51
270.0006665777295
  0
LINE
  5
14445
330
747D
100
AcDbEntity
  8
細線
 48
50.0
100
AcDbLine
 10
4432.102991765743
 20
7296.315769030307
 30
0.0
 11
4432.350761262256
 21
7295.391148091725
 31
0.0
  0
ARC
  5
14446
330
747D
100
AcDbEntity
  8
細線
 48
50.0
100
AcDbCircle
 10
4431.137070656994
 20
7296.056932379745
 30
0.0
 40
1.0
100
AcDbArc
 50
15.00104430494449
 51
90.00093320877969
  0
LINE
  5
14447
330
747D
100
AcDbEntity
  8
細線
 48
50.0
100
AcDbLine
 10
4440.671701477949
 20
7297.057127070015
 30
0.0
 11
4441.613461628854
 21
7297.057133643864
 31
0.0
  0
ARC
  5
14448
330
747D
100
AcDbEntity
  8
細線
 48
50.0
100
AcDbCircle
 10
4440.671708458336
 20
7296.05712707004
 30
0.0
 40
1.0
100
AcDbArc
 50
90.0003999466794
 51
165.0005554812987
  0
LINE
  5
14449
330
747D
100
AcDbEntity
  8
細線
 48
50.0
100
AcDbLine
 10
4992.404393275301
 20
7297.057117764357
 30
0.0
 11
5094.904392777993
 21
7297.057117764357
 31
0.0
  0
LINE
  5
1444A
330
747D
100
AcDbEntity
  8
細線
 48
50.0
100
AcDbLine
 10
4502.404428594192
 20
7297.057125951721
 30
0.0
 11
4441.304367367273
 21
7297.057133643864
 31
0.0
  0
LINE
  5
1444B
330
747D
100
AcDbEntity
  8
細線
 48
50.0
100
AcDbLine
 10
4922.404428594193
 20
7297.057162792805
 30
0.0
 11
4852.404421639807
 21
7297.057117770137
 31
0.0
  0
LINE
  5
1444C
330
747D
100
AcDbEntity
  8
細線
 48
50.0
100
AcDbLine
 10
4642.404393275302
 20
7297.057117764352
 30
0.0
 11
4572.404375987425
 21
7297.057117764359
 31
0.0
  0
ARC
  5
1444D
330
747D
100
AcDbEntity
  8
細線
 48
50.0
100
AcDbCircle
 10
5079.10439792891
 20
7330.257105901766
 30
0.0
 40
0.8
100
AcDbArc
 50
359.9997333689499
 51
89.99986668437072
  0
ARC
  5
1444E
330
747D
100
AcDbEntity
  8
細線
 48
50.0
100
AcDbCircle
 10
5086.704404754004
 20
7330.257117070383
 30
0.0
 40
0.8
100
AcDbArc
 50
90.00014387753465
 51
179.9997333689498
  0
LINE
  5
1444F
330
747D
100
AcDbEntity
  8
細線
 48
50.0
100
AcDbLine
 10
5079.104399790344
 20
7331.057105901766
 30
0.0
 11
5073.904397928898
 21
7331.057105901766
 31
0.0
  0
ARC
  5
14450
330
747D
100
AcDbEntity
  8
細線
 48
50.0
100
AcDbCircle
 10
5080.604397928898
 20
7328.757105901766
 30
0.0
 40
0.7
100
AcDbArc
 50
180.0
 51
270.0
  0
ARC
  5
14451
330
747D
100
AcDbEntity
  8
細線
 48
50.0
100
AcDbCircle
 10
5085.204397928901
 20
7328.757105901766
 30
0.0
 40
0.7
100
AcDbArc
 50
270.0
 51
0.0
  0
LINE
  5
14452
330
747D
100
AcDbEntity
  8
細線
 48
50.0
100
AcDbLine
 10
5085.904397928898
 20
7328.757105901766
 30
0.0
 11
5085.904404754016
 21
7330.257120793254
 31
0.0
  0
LINE
  5
14453
330
747D
100
AcDbEntity
  8
細線
 48
50.0
100
AcDbLine
 10
5080.604397928898
 20
7328.057105901766
 30
0.0
 11
5085.204397928901
 21
7328.057105901766
 31
0.0
  0
LINE
  5
14454
330
747D
100
AcDbEntity
  8
細線
 48
50.0
100
AcDbLine
 10
5079.904397928898
 20
7330.257105901766
 30
0.0
 11
5079.904397928898
 21
7328.757105901766
 31
0.0
  0
LINE
  5
14455
330
747D
100
AcDbEntity
  8
細線
 48
50.0
100
AcDbLine
 10
5705.504397928904
 20
7361.057105901766
 30
0.0
 11
5068.904397928898
 21
7361.057105901761
 31
0.0
  0
LINE
  5
14456
330
747D
100
AcDbEntity
  8
細線
 48
50.0
100
AcDbLine
 10
5731.404397928898
 20
7356.057105901768
 30
0.0
 11
5715.504397928904
 21
7356.057105901766
 31
0.0
  0
LINE
  5
14457
330
747D
100
AcDbEntity
  8
細線
 48
50.0
100
AcDbLine
 10
5715.5043979289
 20
7356.057105901766
 30
0.0
 11
5705.504397928904
 21
7361.057105901766
 31
0.0
  0
LINE
  5
14458
330
747D
100
AcDbEntity
  8
細線
100
AcDbLine
 10
5316.404397928899
 20
7331.057105901766
 30
0.0
 11
5316.404397928899
 21
7360.357105901766
 31
0.0
  0
LINE
  5
14459
330
747D
100
AcDbEntity
  8
細線
100
AcDbLine
 10
5316.404397928899
 20
7360.357105901766
 30
0.0
 11
5336.404397928899
 21
7360.357105901766
 31
0.0
  0
LINE
  5
1445A
330
747D
100
AcDbEntity
  8
細線
100
AcDbLine
 10
5336.404397928899
 20
7331.057105901766
 30
0.0
 11
5336.404397928899
 21
7360.357105901766
 31
0.0
  0
LINE
  5
1445B
330
747D
100
AcDbEntity
  8
細線
100
AcDbLine
 10
5497.654397928899
 20
7331.057105901766
 30
0.0
 11
5427.654397928899
 21
7331.057105901766
 31
0.0
  0
LINE
  5
1445C
330
747D
100
AcDbEntity
  8
細線
 48
50.0
100
AcDbLine
 10
5217.654397928898
 20
7331.057105901766
 30
0.0
 11
5086.700177501741
 21
7331.057105901766
 31
0.0
  0
LINE
  5
1445D
330
747D
100
AcDbEntity
  8
細線
100
AcDbLine
 10
5357.654397928899
 20
7331.057105901766
 30
0.0
 11
5287.654397928899
 21
7331.057105901766
 31
0.0
  0
LINE
  5
1445E
330
747D
100
AcDbEntity
  8
細線
 48
50.0
100
AcDbLine
 10
5073.904397928898
 20
7323.057105901766
 30
0.0
 11
5073.904397928898
 21
7331.057105901766
 31
0.0
  0
LINE
  5
1445F
330
747D
100
AcDbEntity
  8
細線
 48
50.0
100
AcDbLine
 10
5053.904397928898
 20
7323.057105901769
 30
0.0
 11
5073.904397928898
 21
7323.057105901766
 31
0.0
  0
LINE
  5
14460
330
747D
100
AcDbEntity
  8
細線
 48
50.0
100
AcDbLine
 10
5068.904397928898
 20
7361.057105901766
 30
0.0
 11
5068.904397928898
 21
7356.057105901766
 31
0.0
  0
LINE
  5
14461
330
747D
100
AcDbEntity
  8
細線
 48
50.0
100
AcDbLine
 10
5053.904397928898
 20
7361.057105901761
 30
0.0
 11
5068.904397928898
 21
7361.057105901766
 31
0.0
  0
LINE
  5
14462
330
747D
100
AcDbEntity
  8
細線
 48
50.0
100
AcDbLine
 10
5053.904397928898
 20
7323.057105901769
 30
0.0
 11
5053.904397928898
 21
7361.057105901761
 31
0.0
  0
LINE
  5
14463
330
747D
100
AcDbEntity
  8
細線
100
AcDbLine
 10
5721.904397928899
 20
7331.057105901766
 30
0.0
 11
5567.654397928899
 21
7331.057105901766
 31
0.0
  0
LINE
  5
14464
330
747D
100
AcDbEntity
  8
細線
 48
50.0
100
AcDbLine
 10
5731.404397928898
 20
7356.057105901768
 30
0.0
 11
5731.404397928898
 21
7331.057105901766
 31
0.0
  0
DIMENSION
  5
146CF
330
747D
100
AcDbEntity
  8
寸法
 48
50.0
100
AcDbDimension
  2
*D29
 10
5760.904397928899
 20
6299.100098392511
 30
0.0
 11
4661.026398577756
 21
6299.100098392511
 31
0.0
 70
   160
 71
     5
 42
2154.0
  3
INABA_S40G
100
AcDbAlignedDimension
 13
3606.904397928899
 23
7258.057105901764
 33
0.0
 14
5760.904397928899
 24
7258.057105901764
 34
0.0
100
AcDbRotatedDimension
1001
ACAD
1000
DSTYLE
1002
{
1070
   341
1005
0
1002
}
  0
DIMENSION
  5
146D0
330
747D
100
AcDbEntity
  8
寸法
100
AcDbDimension
  2
*D30
 10
2827.585584024849
 20
7260.057105901733
 30
0.0
 11
2827.585584024848
 21
7119.571824527494
 31
0.0
 70
   160
 71
     5
 42
75.00000000002728
  3
INABA_S40
100
AcDbAlignedDimension
 13
3158.904397928898
 23
7335.05710590176
 33
0.0
 14
3606.904397928899
 24
7260.057105901733
 34
0.0
 50
90.0
100
AcDbRotatedDimension
1001
ACAD
1000
DSTYLE
1002
{
1070
    41
1040
0.5
1070
    44
1040
1.0
1070
   147
1040
0.8
1070
   271
1070
     2
1070
   272
1070
     2
1070
   289
1070
     3
1070
   340
1005
F706
1070
   343
1005
F744
1070
   344
1005
F744
1002
}
  0
TEXT
  5
14781
330
747D
100
AcDbEntity
  8
部品1
100
AcDbText
 10
5497.088674643734
 20
5630.51502364723
 30
0.0
 40
135.0
  1
平面図
  7
STYLE2
100
AcDbText
  0
LWPOLYLINE
  5
14782
330
747D
100
AcDbEntity
  8
部品1
100
AcDbPolyline
 90
        4
 70
     1
 43
0.0
 10
5407.169064814692
 20
5823.408552865753
 10
5407.169064814692
 20
5583.516231320221
 10
6170.639731043134
 20
5583.516231320221
 10
6170.639731043134
 20
5823.408552865753
  0
DIMENSION
  5
147C9
330
747D
100
AcDbEntity
  8
寸法
 48
50.0
100
AcDbDimension
  2
*D31
 10
8418.904397928898
 20
6009.975148398914
 30
0.0
 11
7103.904397928897
 21
6101.986959422536
 31
0.0
 70
    32
 71
     5
 42
2629.999999999999
  3
INABA_S40
100
AcDbAlignedDimension
 13
5788.904397928899
 23
7390.057105901757
 33
0.0
 14
8418.904397928898
 24
7335.05710590176
 34
0.0
100
AcDbRotatedDimension
1001
ACAD
1000
DSTYLE
1002
{
1070
   287
1070
     3
1070
    41
1040
0.5
1070
    44
1040
1.0
1070
   147
1040
0.8
1070
   271
1070
     2
1070
   272
1070
     2
1070
   289
1070
     3
1070
   340
1005
F706
1070
     6
1000
DOT
1070
     7
1000
DOT
1002
}
  0
DIMENSION
  5
147F2
330
747D
100
AcDbEntity
  8
寸法
 48
50.0
100
AcDbDimension
  2
*D28
 10
5788.904397928899
 20
6009.975148398914
 30
0.0
 11
4473.904397928897
 21
6101.986959422536
 31
0.0
 70
    32
 71
     5
 42
2630.000000000002
  3
INABA_S40
100
AcDbAlignedDimension
 13
3158.904397928897
 23
7335.05710590176
 33
0.0
 14
5788.904397928899
 24
7390.057105901759
 34
0.0
100
AcDbRotatedDimension
1001
ACAD
1000
DSTYLE
1002
{
1070
   287
1070
     3
1070
    41
1040
0.5
1070
    44
1040
1.0
1070
   147
1040
0.8
1070
   271
1070
     2
1070
   272
1070
     2
1070
   289
1070
     3
1070
   340
1005
F706
1070
     6
1000
DOT
1070
     7
1000
DOT
1002
}
  0
TEXT
  5
14A34
330
747D
100
AcDbEntity
  8
文字
 62
     7
 48
50.0
100
AcDbText
 10
15022.63965474516
 20
9570.013745883725
 30
0.0
 40
100.0
  1
F12            1.2
  7
STYLE1
100
AcDbText
  0
LWPOLYLINE
  5
14A90
330
747D
100
AcDbEntity
  8
部品1
 48
50.0
100
AcDbPolyline
 90
        4
 70
     1
 43
0.0
 10
3705.954397928898
 20
3334.362805903256
 10
3708.854397928899
 20
3334.362805903256
 10
3708.854397928899
 20
3343.862805903256
 10
3705.954397928898
 20
3343.862805903256
  0
CIRCLE
  5
14A91
330
747D
100
AcDbEntity
  8
部品1
 48
50.0
100
AcDbCircle
 10
3707.404397928898
 20
3339.112805903256
 30
0.0
 40
9.0
  0
ARC
  5
14A92
330
747D
100
AcDbEntity
  8
細線
 48
50.0
100
AcDbCircle
 10
3707.404397928898
 20
3339.112805903256
 30
0.0
 40
4.0
100
AcDbArc
 50
111.2538091853375
 51
248.7461908146625
  0
ARC
  5
14A93
330
747D
100
AcDbEntity
  8
細線
 48
50.0
100
AcDbCircle
 10
3707.404397928898
 20
3339.112805903256
 30
0.0
 40
17.5
100
AcDbArc
 50
306.4837370612677
 51
233.5162629387323
  0
LINE
  5
14A94
330
747D
100
AcDbEntity
  8
細線
 48
50.0
100
AcDbLine
 10
3717.404397928895
 20
3315.253845322374
 30
0.0
 11
3717.404397928898
 21
3324.238331122615
 31
0.0
  0
LINE
  5
14A95
330
747D
100
AcDbEntity
  8
細線
 48
50.0
100
AcDbLine
 10
3697.404397928898
 20
3315.253845322376
 30
0.0
 11
3697.404397928898
 21
3324.238331122611
 31
0.0
  0
ARC
  5
14A96
330
747D
100
AcDbEntity
  8
細線
 48
50.0
100
AcDbCircle
 10
3707.404397928898
 20
3339.112805903256
 30
0.0
 40
26.5
100
AcDbArc
 50
249.3326835063939
 51
290.6673164933835
  0
ARC
  5
14A97
330
747D
100
AcDbEntity
  8
細線
 48
50.0
100
AcDbCircle
 10
3716.404397928891
 20
3315.253845322374
 30
0.0
 40
1.0
100
AcDbArc
 50
290.6673164936062
 51
359.9999999998958
  0
ARC
  5
14A98
330
747D
100
AcDbEntity
  8
細線
 48
50.0
100
AcDbCircle
 10
3698.404397928899
 20
3315.253845322376
 30
0.0
 40
1.0
100
AcDbArc
 50
180.0
 51
249.3326835066164
  0
ARC
  5
14A99
330
747D
100
AcDbEntity
  8
細線
 48
50.0
100
AcDbCircle
 10
3696.404397928898
 20
3324.238331122611
 30
0.0
 40
1.0
100
AcDbArc
 50
0.0
 51
53.51626293873231
  0
ARC
  5
14A9A
330
747D
100
AcDbEntity
  8
細線
 48
50.0
100
AcDbCircle
 10
3718.404397928902
 20
3324.238331122615
 30
0.0
 40
1.0
100
AcDbArc
 50
126.4837370614917
 51
180.0
  0
ARC
  5
14A9B
330
747D
100
AcDbEntity
  8
細線
 48
50.0
100
AcDbCircle
 10
3707.404397928898
 20
3339.112805903256
 30
0.0
 40
21.5
100
AcDbArc
 50
255.8014401250294
 51
284.1985598749706
  0
ARC
  5
14A9C
330
747D
100
AcDbEntity
  8
細線
 48
50.0
100
AcDbCircle
 10
3707.404397928898
 20
3339.112805903256
 30
0.0
 40
16.5
100
AcDbArc
 50
251.9694646069326
 51
288.0305353930674
  0
LINE
  5
14A9D
330
747D
100
AcDbEntity
  8
細線
 48
50.0
100
AcDbLine
 10
3712.904397928898
 20
3318.560433777449
 30
0.0
 11
3712.904397928898
 21
3323.137825464787
 31
0.0
  0
LINE
  5
14A9E
330
747D
100
AcDbEntity
  8
細線
 48
50.0
100
AcDbLine
 10
3701.904397928898
 20
3318.560433777449
 30
0.0
 11
3701.904397928898
 21
3323.137825464784
 31
0.0
  0
ARC
  5
14A9F
330
747D
100
AcDbEntity
  8
細線
 48
50.0
100
AcDbCircle
 10
3702.204397928901
 20
3323.137825464784
 30
0.0
 40
0.3
100
AcDbArc
 50
71.96946460693259
 51
180.0
  0
ARC
  5
14AA0
330
747D
100
AcDbEntity
  8
細線
 48
50.0
100
AcDbCircle
 10
3712.604397928899
 20
3323.137825464787
 30
0.0
 40
0.3
100
AcDbArc
 50
0.0
 51
108.0305353930674
  0
ARC
  5
14AA1
330
747D
100
AcDbEntity
  8
細線
 48
50.0
100
AcDbCircle
 10
3712.604397928895
 20
3318.560433777449
 30
0.0
 40
0.3
100
AcDbArc
 50
284.1985598747622
 51
0.0000000001042204
  0
ARC
  5
14AA2
330
747D
100
AcDbEntity
  8
細線
 48
50.0
100
AcDbCircle
 10
3702.204397928901
 20
3318.560433777449
 30
0.0
 40
0.3
100
AcDbArc
 50
180.0
 51
255.8014401248081
  0
CIRCLE
  5
14AA3
330
747D
100
AcDbEntity
  8
細線
 48
50.0
100
AcDbCircle
 10
3707.404397928898
 20
3339.112805903256
 30
0.0
 40
12.0
  0
ARC
  5
14AA4
330
747D
100
AcDbEntity
  8
部品1
 48
50.0
100
AcDbCircle
 10
3707.404397928898
 20
3389.112805903256
 30
0.0
 40
8.5
100
AcDbArc
 50
114.315739171091
 51
245.684260828909
  0
CIRCLE
  5
14AA5
330
747D
100
AcDbEntity
  8
細線
 48
50.0
100
AcDbCircle
 10
3707.404397928898
 20
3389.112805903256
 30
0.0
 40
4.5
  0
LWPOLYLINE
  5
14AA6
330
747D
100
AcDbEntity
  8
部品1
 48
50.0
100
AcDbPolyline
 90
        2
 70
     0
 43
0.0
 10
3703.904397928898
 20
3407.787655300239
 10
3703.904397928898
 20
3396.858772595672
  0
CIRCLE
  5
14AA7
330
747D
100
AcDbEntity
  8
部品1
 48
50.0
100
AcDbCircle
 10
3707.404397928898
 20
3389.112805903256
 30
0.0
 40
19.0
  0
LWPOLYLINE
  5
14AA8
330
747D
100
AcDbEntity
  8
部品1
 48
50.0
100
AcDbPolyline
 90
        2
 70
     0
 43
0.0
 10
3703.904397928898
 20
3381.366839210841
 10
3703.904397928898
 20
3370.437956506274
  0
LWPOLYLINE
  5
14AA9
330
747D
100
AcDbEntity
  8
部品1
 48
50.0
100
AcDbPolyline
 90
        2
 70
     0
 43
0.0
 10
3710.904397928898
 20
3396.858772595672
 10
3710.904397928898
 20
3407.787655300239
  0
ARC
  5
14AAA
330
747D
100
AcDbEntity
  8
部品1
 48
50.0
100
AcDbCircle
 10
3707.404397928898
 20
3389.112805903256
 30
0.0
 40
8.5
100
AcDbArc
 50
294.315739171091
 51
65.68426082890896
  0
LWPOLYLINE
  5
14AAB
330
747D
100
AcDbEntity
  8
部品1
 48
50.0
100
AcDbPolyline
 90
        2
 70
     0
 43
0.0
 10
3710.904397928898
 20
3370.437956506274
 10
3710.904397928898
 20
3381.366839210841
  0
ARC
  5
14AAC
330
747D
100
AcDbEntity
  8
細線
 48
50.0
100
AcDbCircle
 10
3707.404397928898
 20
3389.112805903256
 30
0.0
 40
16.5
100
AcDbArc
 50
332.0012352654316
 51
27.99876473456844
  0
ARC
  5
14AAD
330
747D
100
AcDbEntity
  8
細線
 48
50.0
100
AcDbCircle
 10
3707.404397928898
 20
3389.112805903256
 30
0.0
 40
14.0
100
AcDbArc
 50
326.4074436112843
 51
33.59255638871576
  0
LINE
  5
14AAE
330
747D
100
AcDbEntity
  8
細線
 48
50.0
100
AcDbLine
 10
3692.835595644567
 20
3396.858772595672
 30
0.0
 11
3695.742494139209
 21
3396.858772595672
 31
0.0
  0
LINE
  5
14AAF
330
747D
100
AcDbEntity
  8
細線
 48
50.0
100
AcDbLine
 10
3692.835595644567
 20
3381.366839210841
 30
0.0
 11
3695.742494139209
 21
3381.366839210841
 31
0.0
  0
LINE
  5
14AB0
330
747D
100
AcDbEntity
  8
細線
 48
50.0
100
AcDbLine
 10
3719.066301718587
 20
3396.858772595672
 30
0.0
 11
3721.973200213233
 21
3396.858772595672
 31
0.0
  0
LINE
  5
14AB1
330
747D
100
AcDbEntity
  8
細線
 48
50.0
100
AcDbLine
 10
3719.066301718587
 20
3381.366839210841
 30
0.0
 11
3721.973200213233
 21
3381.366839210841
 31
0.0
  0
ARC
  5
14AB2
330
747D
100
AcDbEntity
  8
細線
 48
50.0
100
AcDbCircle
 10
3707.404397928898
 20
3389.112805903256
 30
0.0
 40
14.0
100
AcDbArc
 50
146.4074436112842
 51
213.5925563887158
  0
ARC
  5
14AB3
330
747D
100
AcDbEntity
  8
細線
 48
50.0
100
AcDbCircle
 10
3707.404397928898
 20
3389.112805903256
 30
0.0
 40
16.5
100
AcDbArc
 50
152.0012352654315
 51
207.9987647345685
  0
ARC
  5
14AB4
330
747D
100
AcDbEntity
  8
部品1
 48
50.0
100
AcDbCircle
 10
3680.904397928898
 20
3414.612805903256
 30
0.0
 40
5.0
100
AcDbArc
 50
90.0
 51
180.0
  0
ARC
  5
14AB5
330
747D
100
AcDbEntity
  8
部品1
 48
50.0
100
AcDbCircle
 10
3680.904397928898
 20
3303.612805903256
 30
0.0
 40
5.0
100
AcDbArc
 50
180.0
 51
270.0
  0
ARC
  5
14AB6
330
747D
100
AcDbEntity
  8
部品1
 48
50.0
100
AcDbCircle
 10
3733.904397928898
 20
3303.612805903256
 30
0.0
 40
5.0
100
AcDbArc
 50
270.0
 51
0.0
  0
ARC
  5
14AB7
330
747D
100
AcDbEntity
  8
部品1
 48
50.0
100
AcDbCircle
 10
3733.904397928898
 20
3414.612805903256
 30
0.0
 40
5.0
100
AcDbArc
 50
0.0
 51
90.0
  0
LINE
  5
14AB8
330
747D
100
AcDbEntity
  8
部品1
 48
50.0
100
AcDbLine
 10
3675.904397928898
 20
3303.612805903256
 30
0.0
 11
3675.904397928898
 21
3414.612805903256
 31
0.0
  0
LINE
  5
14AB9
330
747D
100
AcDbEntity
  8
部品1
 48
50.0
100
AcDbLine
 10
3733.904397928898
 20
3298.612805903257
 30
0.0
 11
3680.904397928898
 21
3298.612805903257
 31
0.0
  0
LINE
  5
14ABA
330
747D
100
AcDbEntity
  8
部品1
 48
50.0
100
AcDbLine
 10
3738.904397928898
 20
3414.612805903256
 30
0.0
 11
3738.904397928898
 21
3303.612805903256
 31
0.0
  0
ENDSEC
  0
SECTION
  2
OBJECTS
  0
DICTIONARY
  5
7471
330
0
100
AcDbDictionary
281
     1
  3
ACAD_COLOR
350
12E00
  3
ACAD_GROUP
350
7472
  3
ACAD_LAYOUT
350
12E01
  3
ACAD_MATERIAL
350
12DFF
  3
ACAD_MLINESTYLE
350
7473
  3
ACAD_PLOTSETTINGS
350
12E02
  3
ACAD_PLOTSTYLENAME
350
12DFD
  3
ACDBHEADERROUNDTRIPXREC
350
14ACA
  3
AcDbVariableDictionary
350
14AC6
  3
CONTENTDICTIONARY
350
E71C
  3
DRAWINGVARIABLESDICT
350
F3B9
  0
DICTIONARY
  5
12FAF
330
7467
100
AcDbDictionary
280
     1
281
     1
  3
ACAD_LAYERSTATES
360
12FB0
  0
DICTIONARY
  5
12E00
102
{ACAD_REACTORS
330
7471
102
}
330
7471
100
AcDbDictionary
281
     1
  0
DICTIONARY
  5
7472
102
{ACAD_REACTORS
330
7471
102
}
330
7471
100
AcDbDictionary
281
     1
  0
DICTIONARY
  5
12E01
102
{ACAD_REACTORS
330
7471
102
}
330
7471
100
AcDbDictionary
281
     1
  3
Model
350
12E03
  3
レイアウト1
350
12E04
  0
DICTIONARY
  5
12DFF
102
{ACAD_REACTORS
330
7471
102
}
330
7471
100
AcDbDictionary
281
     1
  0
DICTIONARY
  5
7473
102
{ACAD_REACTORS
330
7471
102
}
330
7471
100
AcDbDictionary
281
     1
  3
STANDARD
350
7480
  0
DICTIONARY
  5
12E02
102
{ACAD_REACTORS
330
7471
102
}
330
7471
100
AcDbDictionary
281
     1
  0
ACDBDICTIONARYWDFLT
  5
12DFD
102
{ACAD_REACTORS
330
7471
102
}
330
7471
100
AcDbDictionary
281
     1
  3
Normal
350
12DFE
100
AcDbDictionaryWithDefault
340
12DFE
  0
DICTIONARY
  5
14ACA
102
{ACAD_REACTORS
330
7471
102
}
330
7471
100
AcDbDictionary
281
     1
  3
COLORDICT
350
14ACC
  3
MATERIALDICT
350
14ACB
  0
DICTIONARY
  5
14AC6
102
{ACAD_REACTORS
330
7471
102
}
330
7471
100
AcDbDictionary
281
     1
  3
DIMASSOC
350
14AC7
  3
PROJECTNAME
350
14AC8
  0
DICTIONARY
  5
E71C
102
{ACAD_REACTORS
330
7471
102
}
330
7471
100
AcDbDictionary
281
     1
  0
DICTIONARY
  5
F3B9
102
{ACAD_REACTORS
330
7471
102
}
330
7471
100
AcDbDictionary
281
     1
1001
DRAWINGVARIABLESXDATA
1000
POLARMODE
1000
1
  0
DICTIONARY
  5
12FB0
102
{ACAD_REACTORS
330
12FAF
102
}
330
12FAF
100
AcDbDictionary
281
     1
  0
LAYOUT
  5
12E03
102
{ACAD_XDICTIONARY
360
14ACD
102
}
102
{ACAD_REACTORS
330
12E01
102
}
330
12E01
100
AcDbPlotSettings
  1

  2
EPSON LP-7000C
  4

  6

 40
0.0
 41
0.0
 42
0.0
 43
0.0
 44
0.0
 45
0.0
 46
0.0
 47
0.0
 48
0.0
 49
0.0
140
0.0
141
0.0
142
1.0
143
1.0
 70
  1712
 72
     0
 73
     0
 74
     0
  7

 75
     0
147
1.0
148
0.0
149
0.0
100
AcDbLayout
  1
Model
 70
     1
 71
     0
 10
0.0
 20
0.0
 11
12.0
 21
9.0
 12
0.0
 22
0.0
 32
0.0
 14
0.0
 24
0.0
 34
0.0
 15
0.0
 25
0.0
 35
0.0
146
0.0
 13
0.0
 23
0.0
 33
0.0
 16
1.0
 26
0.0
 36
0.0
 17
0.0
 27
1.0
 37
0.0
 76
     0
330
747D
  0
LAYOUT
  5
12E04
102
{ACAD_XDICTIONARY
360
14ACF
102
}
102
{ACAD_REACTORS
330
12E01
102
}
330
12E01
100
AcDbPlotSettings
  1

  2
EPSON LP-7000C
  4

  6

 40
0.0
 41
0.0
 42
0.0
 43
0.0
 44
0.0
 45
0.0
 46
0.0
 47
0.0
 48
0.0
 49
0.0
140
0.0
141
0.0
142
1.0
143
1.0
 70
   688
 72
     0
 73
     0
 74
     5
  7

 75
    16
147
1.0
148
0.0
149
0.0
100
AcDbLayout
  1
レイアウト1
 70
     0
 71
     1
 10
0.0
 20
0.0
 11
420.0
 21
297.0
 12
0.0
 22
0.0
 32
0.0
 14
1.000000000000000E+20
 24
1.000000000000000E+20
 34
1.000000000000000E+20
 15
-1.000000000000000E+20
 25
-1.000000000000000E+20
 35
-1.000000000000000E+20
146
0.0
 13
0.0
 23
0.0
 33
0.0
 16
1.0
 26
0.0
 36
0.0
 17
0.0
 27
1.0
 37
0.0
 76
     0
330
747A
  0
MLINESTYLE
  5
7480
102
{ACAD_REACTORS
330
7473
102
}
330
7473
100
AcDbMlineStyle
  2
STANDARD
 70
     0
  3

 62
     0
 51
90.0
 52
90.0
 71
     2
 49
0.5
 62
   256
  6
BYLAYER
 49
-0.5
 62
   256
  6
BYLAYER
  0
ACDBPLACEHOLDER
  5
12DFE
102
{ACAD_REACTORS
330
12DFD
102
}
330
12DFD
  0
XRECORD
  5
14ACC
102
{ACAD_REACTORS
330
14ACA
102
}
330
14ACA
100
AcDbXrecord
280
     1
340
12E00
  0
XRECORD
  5
14ACB
102
{ACAD_REACTORS
330
14ACA
102
}
330
14ACA
100
AcDbXrecord
280
     1
340
12DFF
  0
DICTIONARYVAR
  5
14AC7
102
{ACAD_REACTORS
330
14AC6
102
}
330
14AC6
100
DictionaryVariables
280
     0
  1
1
  0
DICTIONARYVAR
  5
14AC8
102
{ACAD_REACTORS
330
14AC6
102
}
330
14AC6
100
DictionaryVariables
280
     0
  1

  0
DICTIONARY
  5
14ACD
330
12E03
100
AcDbDictionary
280
     1
281
     1
  3
ACAD_XREC_ROUNDTRIP
360
14ACE
  0
DICTIONARY
  5
14ACF
330
12E04
100
AcDbDictionary
280
     1
281
     1
  3
ACAD_XREC_ROUNDTRIP
360
14AD0
  0
XRECORD
  5
14ACE
102
{ACAD_REACTORS
330
14ACD
102
}
330
14ACD
100
AcDbXrecord
280
     1
102
SHADEPLOT
 70
     0
102
SHADEPLOTRESLEVEL
 70
     2
102
SHADEPLOTCUSTOMDPI
 70
   300
  0
XRECORD
  5
14AD0
102
{ACAD_REACTORS
330
14ACF
102
}
330
14ACF
100
AcDbXrecord
280
     1
102
SHADEPLOT
 70
     0
102
SHADEPLOTRESLEVEL
 70
     2
102
SHADEPLOTCUSTOMDPI
 70
   300
  0
ENDSEC
  0
EOF
