  0
SECTION
  2
HEADER
  9
$ACADVER
  1
AC1015
  9
$ACADMAINTVER
 70
    20
  9
$DWGCODEPAGE
  3
ANSI_932
  9
$INSBASE
 10
0.0
 20
0.0
 30
0.0
  9
$EXTMIN
 10
139.9999999999995
 20
-0.0000000000000909
 30
0.0
  9
$EXTMAX
 10
16307.2
 20
11409.6
 30
0.0
  9
$LIMMIN
 10
0.0
 20
0.0
  9
$LIMMAX
 10
16800.0
 20
11880.0
  9
$ORTHOMODE
 70
     0
  9
$REGENMODE
 70
     1
  9
$FILLMODE
 70
     1
  9
$QTEXTMODE
 70
     0
  9
$MIRRTEXT
 70
     1
  9
$LTSCALE
 40
20.0
  9
$ATTMODE
 70
     1
  9
$TEXTSIZE
 40
100.0
  9
$TRACEWID
 40
1.0
  9
$TEXTSTYLE
  7
STYLE3
  9
$CLAYER
  8
部品1
  9
$CELTYPE
  6
BYLAYER
  9
$CECOLOR
 62
   256
  9
$CELTSCALE
 40
50.0
  9
$DISPSILH
 70
     0
  9
$DIMSCALE
 40
40.0
  9
$DIMASZ
 40
0.5
  9
$DIMEXO
 40
0.5
  9
$DIMDLI
 40
7.0
  9
$DIMRND
 40
0.0
  9
$DIMDLE
 40
0.0
  9
$DIMEXE
 40
1.0
  9
$DIMTP
 40
0.0
  9
$DIMTM
 40
0.0
  9
$DIMTXT
 40
3.0
  9
$DIMCEN
 40
0.0
  9
$DIMTSZ
 40
0.0
  9
$DIMTOL
 70
     0
  9
$DIMLIM
 70
     0
  9
$DIMTIH
 70
     0
  9
$DIMTOH
 70
     0
  9
$DIMSE1
 70
     0
  9
$DIMSE2
 70
     0
  9
$DIMTAD
 70
     3
  9
$DIMZIN
 70
     8
  9
$DIMBLK
  1

  9
$DIMASO
 70
     1
  9
$DIMSHO
 70
     1
  9
$DIMPOST
  1

  9
$DIMAPOST
  1

  9
$DIMALT
 70
     0
  9
$DIMALTD
 70
     2
  9
$DIMALTF
 40
0.0394
  9
$DIMLFAC
 40
1.0
  9
$DIMTOFL
 70
     1
  9
$DIMTVP
 40
0.0
  9
$DIMTIX
 70
     1
  9
$DIMSOXD
 70
     1
  9
$DIMSAH
 70
     1
  9
$DIMBLK1
  1
DOT
  9
$DIMBLK2
  1
DOT
  9
$DIMSTYLE
  2
INABA_S40
  9
$DIMCLRD
 70
     0
  9
$DIMCLRE
 70
     0
  9
$DIMCLRT
 70
     7
  9
$DIMTFAC
 40
1.0
  9
$DIMGAP
 40
0.8
  9
$DIMJUST
 70
     0
  9
$DIMSD1
 70
     0
  9
$DIMSD2
 70
     0
  9
$DIMTOLJ
 70
     1
  9
$DIMTZIN
 70
     0
  9
$DIMALTZ
 70
     0
  9
$DIMALTTZ
 70
     0
  9
$DIMUPT
 70
     0
  9
$DIMDEC
 70
     2
  9
$DIMTDEC
 70
     2
  9
$DIMALTU
 70
     2
  9
$DIMALTTD
 70
     2
  9
$DIMTXSTY
  7
STYLE1
  9
$DIMAUNIT
 70
     0
  9
$DIMADEC
 70
     0
  9
$DIMALTRND
 40
0.0
  9
$DIMAZIN
 70
     0
  9
$DIMDSEP
 70
    46
  9
$DIMATFIT
 70
     3
  9
$DIMFRAC
 70
     0
  9
$DIMLDRBLK
  1

  9
$DIMLUNIT
 70
     2
  9
$DIMLWD
 70
    -2
  9
$DIMLWE
 70
    -2
  9
$DIMTMOVE
 70
     0
  9
$LUNITS
 70
     2
  9
$LUPREC
 70
     1
  9
$SKETCHINC
 40
1.0
  9
$FILLETRAD
 40
5.0
  9
$AUNITS
 70
     0
  9
$AUPREC
 70
     0
  9
$MENU
  1
acad
  9
$ELEVATION
 40
0.0
  9
$PELEVATION
 40
0.0
  9
$THICKNESS
 40
0.0
  9
$LIMCHECK
 70
     0
  9
$CHAMFERA
 40
0.0
  9
$CHAMFERB
 40
0.0
  9
$CHAMFERC
 40
0.0
  9
$CHAMFERD
 40
0.0
  9
$SKPOLY
 70
     0
  9
$TDCREATE
 40
2451590.492424190
  9
$TDUCREATE
 40
2451590.117424190
  9
$TDUPDATE
 40
2455575.701099896
  9
$TDUUPDATE
 40
2455575.326099896
  9
$TDINDWG
 40
0.1405177778
  9
$TDUSRTIMER
 40
0.1405177778
  9
$USRTIMER
 70
     1
  9
$ANGBASE
 50
0.0
  9
$ANGDIR
 70
     0
  9
$PDMODE
 70
     3
  9
$PDSIZE
 40
2.0
  9
$PLINEWID
 40
0.0
  9
$SPLFRAME
 70
     0
  9
$SPLINETYPE
 70
     6
  9
$SPLINESEGS
 70
     8
  9
$HANDSEED
  5
164BB
  9
$SURFTAB1
 70
     6
  9
$SURFTAB2
 70
     6
  9
$SURFTYPE
 70
     6
  9
$SURFU
 70
     6
  9
$SURFV
 70
     6
  9
$UCSBASE
  2

  9
$UCSNAME
  2

  9
$UCSORG
 10
0.0
 20
0.0
 30
0.0
  9
$UCSXDIR
 10
1.0
 20
0.0
 30
0.0
  9
$UCSYDIR
 10
0.0
 20
1.0
 30
0.0
  9
$UCSORTHOREF
  2

  9
$UCSORTHOVIEW
 70
     0
  9
$UCSORGTOP
 10
0.0
 20
0.0
 30
0.0
  9
$UCSORGBOTTOM
 10
0.0
 20
0.0
 30
0.0
  9
$UCSORGLEFT
 10
0.0
 20
0.0
 30
0.0
  9
$UCSORGRIGHT
 10
0.0
 20
0.0
 30
0.0
  9
$UCSORGFRONT
 10
0.0
 20
0.0
 30
0.0
  9
$UCSORGBACK
 10
0.0
 20
0.0
 30
0.0
  9
$PUCSBASE
  2

  9
$PUCSNAME
  2

  9
$PUCSORG
 10
0.0
 20
0.0
 30
0.0
  9
$PUCSXDIR
 10
1.0
 20
0.0
 30
0.0
  9
$PUCSYDIR
 10
0.0
 20
1.0
 30
0.0
  9
$PUCSORTHOREF
  2

  9
$PUCSORTHOVIEW
 70
     0
  9
$PUCSORGTOP
 10
0.0
 20
0.0
 30
0.0
  9
$PUCSORGBOTTOM
 10
0.0
 20
0.0
 30
0.0
  9
$PUCSORGLEFT
 10
0.0
 20
0.0
 30
0.0
  9
$PUCSORGRIGHT
 10
0.0
 20
0.0
 30
0.0
  9
$PUCSORGFRONT
 10
0.0
 20
0.0
 30
0.0
  9
$PUCSORGBACK
 10
0.0
 20
0.0
 30
0.0
  9
$USERI1
 70
     0
  9
$USERI2
 70
     0
  9
$USERI3
 70
     0
  9
$USERI4
 70
     0
  9
$USERI5
 70
     0
  9
$USERR1
 40
0.0
  9
$USERR2
 40
0.0
  9
$USERR3
 40
0.0
  9
$USERR4
 40
0.0
  9
$USERR5
 40
0.0
  9
$WORLDVIEW
 70
     1
  9
$SHADEDGE
 70
     3
  9
$SHADEDIF
 70
    70
  9
$TILEMODE
 70
     1
  9
$MAXACTVP
 70
    16
  9
$PINSBASE
 10
0.0
 20
0.0
 30
0.0
  9
$PLIMCHECK
 70
     0
  9
$PEXTMIN
 10
1.000000000000000E+20
 20
1.000000000000000E+20
 30
1.000000000000000E+20
  9
$PEXTMAX
 10
-1.000000000000000E+20
 20
-1.000000000000000E+20
 30
-1.000000000000000E+20
  9
$PLIMMIN
 10
0.0
 20
0.0
  9
$PLIMMAX
 10
420.0
 20
297.0
  9
$UNITMODE
 70
     0
  9
$VISRETAIN
 70
     0
  9
$PLINEGEN
 70
     0
  9
$PSLTSCALE
 70
     0
  9
$TREEDEPTH
 70
  3020
  9
$CMLSTYLE
  2
STANDARD
  9
$CMLJUST
 70
     0
  9
$CMLSCALE
 40
1.0
  9
$PROXYGRAPHICS
 70
     1
  9
$MEASUREMENT
 70
     1
  9
$CELWEIGHT
370
    -1
  9
$ENDCAPS
280
     0
  9
$JOINSTYLE
280
     0
  9
$LWDISPLAY
290
     0
  9
$INSUNITS
 70
     0
  9
$HYPERLINKBASE
  1

  9
$STYLESHEET
  1

  9
$XEDIT
290
     1
  9
$CEPSNTYPE
380
     0
  9
$PSTYLEMODE
290
     1
  9
$FINGERPRINTGUID
  2
{F147D77C-4C0F-4212-83BE-289D63A47BEB}
  9
$VERSIONGUID
  2
{98155584-D1B1-40C3-8E37-32D51E5568C9}
  9
$EXTNAMES
290
     1
  9
$PSVPSCALE
 40
0.0
  9
$OLESTARTUP
290
     0
  0
ENDSEC
  0
SECTION
  2
CLASSES
  0
CLASS
  1
ACDBDICTIONARYWDFLT
  2
AcDbDictionaryWithDefault
  3
ObjectDBX Classes
 90
        0
280
     0
281
     0
  0
CLASS
  1
DICTIONARYVAR
  2
AcDbDictionaryVar
  3
ObjectDBX Classes
 90
        0
280
     0
281
     0
  0
CLASS
  1
ACDBPLACEHOLDER
  2
AcDbPlaceHolder
  3
ObjectDBX Classes
 90
        0
280
     0
281
     0
  0
CLASS
  1
LAYOUT
  2
AcDbLayout
  3
ObjectDBX Classes
 90
        0
280
     0
281
     0
  0
ENDSEC
  0
SECTION
  2
TABLES
  0
TABLE
  2
VPORT
  5
746D
330
0
100
AcDbSymbolTable
 70
     2
  0
VPORT
  5
164B3
330
746D
100
AcDbSymbolTableRecord
100
AcDbViewportTableRecord
  2
*Active
 70
     0
 10
0.0
 20
0.0
 11
1.0
 21
1.0
 12
8223.761025238502
 22
6348.767642148464
 13
0.0
 23
0.0
 14
10.0
 24
10.0
 15
10.0
 25
10.0
 16
0.0
 26
0.0
 36
1.0
 17
0.0
 27
0.0
 37
0.0
 40
12805.3711672054
 41
1.525925925925925
 42
50.0
 43
0.0
 44
0.0
 50
0.0
 51
0.0
 71
     0
 72
     0
 73
     1
 74
     0
 75
     0
 76
     0
 77
     0
 78
     0
281
     0
 65
     1
110
0.0
120
0.0
130
0.0
111
1.0
121
0.0
131
0.0
112
0.0
122
1.0
132
0.0
 79
     0
146
0.0
  0
ENDTAB
  0
TABLE
  2
LTYPE
  5
746A
330
0
100
AcDbSymbolTable
 70
     4
  0
LTYPE
  5
7477
330
746A
100
AcDbSymbolTableRecord
100
AcDbLinetypeTableRecord
  2
BYBLOCK
 70
     0
  3

 72
    65
 73
     0
 40
0.0
  0
LTYPE
  5
7478
330
746A
100
AcDbSymbolTableRecord
100
AcDbLinetypeTableRecord
  2
BYLAYER
 70
     0
  3

 72
    65
 73
     0
 40
0.0
  0
LTYPE
  5
7479
330
746A
100
AcDbSymbolTableRecord
100
AcDbLinetypeTableRecord
  2
CONTINUOUS
 70
     0
  3
Solid line
 72
    65
 73
     0
 40
0.0
  0
LTYPE
  5
7816
330
746A
100
AcDbSymbolTableRecord
100
AcDbLinetypeTableRecord
  2
CENTER
 70
     0
  3
____ _ ____ _ ____ _ ____ _ ____ _ ____ _ ____ 
 72
    65
 73
     4
 40
2.0
 49
1.25
 74
     0
 49
-0.25
 74
     0
 49
0.25
 74
     0
 49
-0.25
 74
     0
  0
LTYPE
  5
781A
330
746A
100
AcDbSymbolTableRecord
100
AcDbLinetypeTableRecord
  2
HIDDEN
 70
     0
  3
__ __ __ __ __ __ __ __ __ __ __ __ __ __ __ __
 72
    65
 73
     2
 40
0.375
 49
0.25
 74
     0
 49
-0.125
 74
     0
  0
LTYPE
  5
781B
330
746A
100
AcDbSymbolTableRecord
100
AcDbLinetypeTableRecord
  2
PHANTOM
 70
     0
  3
______  __  __  ______  __  __  ______  __  __ 
 72
    65
 73
     6
 40
2.5
 49
1.25
 74
     0
 49
-0.25
 74
     0
 49
0.25
 74
     0
 49
-0.25
 74
     0
 49
0.25
 74
     0
 49
-0.25
 74
     0
  0
ENDTAB
  0
TABLE
  2
LAYER
  5
7467
102
{ACAD_XDICTIONARY
360
13537
102
}
330
0
100
AcDbSymbolTable
 70
    12
  0
LAYER
  5
7474
330
7467
100
AcDbSymbolTableRecord
100
AcDbLayerTableRecord
  2
0
 70
     0
 62
     7
  6
CONTINUOUS
370
    -3
390
1346F
  0
LAYER
  5
DEB2
330
7467
100
AcDbSymbolTableRecord
100
AcDbLayerTableRecord
  2
センター
 70
     0
 62
     3
  6
CENTER
370
    -3
390
1346F
  0
LAYER
  5
DEB3
330
7467
100
AcDbSymbolTableRecord
100
AcDbLayerTableRecord
  2
寸法
 70
     0
 62
     4
  6
CONTINUOUS
370
    -3
390
1346F
  0
LAYER
  5
DEB4
330
7467
100
AcDbSymbolTableRecord
100
AcDbLayerTableRecord
  2
部品1
 70
     0
 62
     7
  6
CONTINUOUS
370
    -3
390
1346F
  0
LAYER
  5
DEB5
330
7467
100
AcDbSymbolTableRecord
100
AcDbLayerTableRecord
  2
補助
 70
     0
 62
    -1
  6
CONTINUOUS
370
    -3
390
1346F
  0
LAYER
  5
DEB6
330
7467
100
AcDbSymbolTableRecord
100
AcDbLayerTableRecord
  2
文字
 70
     0
 62
     7
  6
CONTINUOUS
370
    -3
390
1346F
  0
LAYER
  5
F255
330
7467
100
AcDbSymbolTableRecord
100
AcDbLayerTableRecord
  2
DEFPOINTS
 70
     0
 62
     7
  6
CONTINUOUS
290
     0
370
    -3
390
1346F
  0
LAYER
  5
10B54
330
7467
100
AcDbSymbolTableRecord
100
AcDbLayerTableRecord
  2
仕様書枠
 70
     0
 62
   230
  6
CONTINUOUS
370
    -3
390
1346F
  0
LAYER
  5
11729
330
7467
100
AcDbSymbolTableRecord
100
AcDbLayerTableRecord
  2
Ｇ．Ｌ
 70
     0
 62
    30
  6
CONTINUOUS
370
    -3
390
1346F
  0
LAYER
  5
1173F
330
7467
100
AcDbSymbolTableRecord
100
AcDbLayerTableRecord
  2
細線
 70
     0
 62
     5
  6
CONTINUOUS
370
    -3
390
1346F
  0
LAYER
  5
11740
330
7467
100
AcDbSymbolTableRecord
100
AcDbLayerTableRecord
  2
点線
 70
     0
 62
     2
  6
HIDDEN
370
    -3
390
1346F
  0
LAYER
  5
11905
330
7467
100
AcDbSymbolTableRecord
100
AcDbLayerTableRecord
  2
破線
 70
     0
 62
     2
  6
HIDDEN
370
    -3
390
1346F
  0
ENDTAB
  0
TABLE
  2
STYLE
  5
7468
330
0
100
AcDbSymbolTable
 70
     7
  0
STYLE
  5
7475
330
7468
100
AcDbSymbolTableRecord
100
AcDbTextStyleTableRecord
  2
STANDARD
 70
     0
 40
0.0
 41
1.0
 50
0.0
 71
     0
 42
4.0
  3
txt
  4
C:\AutoCAD LT\bigfont.shx
  0
STYLE
  5
763C
330
7468
100
AcDbSymbolTableRecord
100
AcDbTextStyleTableRecord
  2
MSMINCHO
 70
     0
 40
0.0
 41
1.0
 50
0.0
 71
     0
 42
1.199999999999999
  3
C:\AutoCAD LT\msminch2.TTF
  4

  0
STYLE
  5
F5E9
330
7468
100
AcDbSymbolTableRecord
100
AcDbTextStyleTableRecord
  2

 70
     1
 40
0.0
 41
1.0
 50
0.0
 71
     0
 42
4.0
  3
ltypeshp.shx
  4

  0
STYLE
  5
F706
330
7468
100
AcDbSymbolTableRecord
100
AcDbTextStyleTableRecord
  2
STYLE1
 70
     0
 40
0.0
 41
1.0
 50
0.0
 71
     0
 42
4.0
  3
isocp.shx
  4
bigfont.shx
  0
STYLE
  5
103BF
330
7468
100
AcDbSymbolTableRecord
100
AcDbTextStyleTableRecord
  2
STYLE2
 70
     0
 40
0.0
 41
1.0
 50
0.0
 71
     0
 42
100.0
  3
MS PGothic.ttf
  4

1001
ACAD
1000
MS PGothic
1071
    32818
  0
STYLE
  5
10BAA
330
7468
100
AcDbSymbolTableRecord
100
AcDbTextStyleTableRecord
  2
STYLE3
 70
     0
 40
0.0
 41
1.0
 50
0.0
 71
     0
 42
100.0
  3

  4

1001
ACAD
1000
DFPGothic-EB
1071
    32818
  0
STYLE
  5
11906
330
7468
100
AcDbSymbolTableRecord
100
AcDbTextStyleTableRecord
  2
MSGOTHIC
 70
     0
 40
0.0
 41
1.0
 50
0.0
 71
     0
 42
3.5
  3
msgothi2.ttf
  4

  0
ENDTAB
  0
TABLE
  2
VIEW
  5
746B
330
0
100
AcDbSymbolTable
 70
     0
  0
ENDTAB
  0
TABLE
  2
UCS
  5
746C
330
0
100
AcDbSymbolTable
 70
     0
  0
ENDTAB
  0
TABLE
  2
APPID
  5
746E
330
0
100
AcDbSymbolTable
 70
     6
  0
APPID
  5
7476
330
746E
100
AcDbSymbolTableRecord
100
AcDbRegAppTableRecord
  2
ACAD
 70
     0
  0
APPID
  5
DEA9
330
746E
100
AcDbSymbolTableRecord
100
AcDbRegAppTableRecord
  2
CONTENTBLOCKICON
 70
     0
  0
APPID
  5
DEAA
330
746E
100
AcDbSymbolTableRecord
100
AcDbRegAppTableRecord
  2
CONTENTBLOCKDESCRIPTION
 70
     0
  0
APPID
  5
E71D
330
746E
100
AcDbSymbolTableRecord
100
AcDbRegAppTableRecord
  2
CONTENTTABDATA
 70
     0
  0
APPID
  5
E71E
330
746E
100
AcDbSymbolTableRecord
100
AcDbRegAppTableRecord
  2
CONTENTCURRENTTAB
 70
     0
  0
APPID
  5
F3BA
330
746E
100
AcDbSymbolTableRecord
100
AcDbRegAppTableRecord
  2
DRAWINGVARIABLESXDATA
 70
     0
  0
ENDTAB
  0
TABLE
  2
DIMSTYLE
  5
746F
330
0
100
AcDbSymbolTable
 70
     6
100
AcDbDimStyleTable
 71
     1
340
F236
  0
DIMSTYLE
105
7484
330
746F
100
AcDbSymbolTableRecord
100
AcDbDimStyleTableRecord
  2
JIS
 70
     0
 41
2.5
 42
1.0
 43
7.0
 44
1.0
 73
     0
 74
     0
 77
     1
 78
     8
140
2.5
141
0.0
143
0.0394
147
0.0
172
     1
174
     1
175
     1
340
7475
  0
DIMSTYLE
105
F236
102
{ACAD_REACTORS
330
13E39
330
13E78
330
13E82
330
13EB2
330
13EC4
330
13EC5
330
13F00
330
13F01
330
13F02
330
13F03
330
13F04
330
15DE0
330
16094
330
16190
330
161B5
102
}
330
746F
100
AcDbSymbolTableRecord
100
AcDbDimStyleTableRecord
  2
INABA_S40
 70
     0
 40
40.0
 41
2.5
 42
0.5
 43
7.0
 44
1.5
 73
     0
 74
     0
 77
     3
 78
     8
140
3.0
141
0.0
143
0.0394
147
1.0
172
     1
173
     1
174
     1
175
     1
178
     7
289
     0
340
7475
  0
DIMSTYLE
105
F71F
102
{ACAD_REACTORS
330
13C51
330
13C60
330
13C61
330
13C62
330
14486
330
14487
330
14488
330
144BE
330
144C4
330
144C5
330
144C6
330
144EF
330
144FE
330
16095
330
163FE
102
}
330
746F
100
AcDbSymbolTableRecord
100
AcDbDimStyleTableRecord
  2
INABA_S40G
 70
     0
 40
40.0
 41
2.5
 42
0.5
 43
7.0
 44
1.5
 73
     0
 74
     0
 77
     3
 78
     8
140
3.0
141
0.0
143
0.0394
147
1.0
172
     1
173
     1
174
     1
175
     1
178
     7
271
     1
340
F706
341
F770
343
F770
344
F770
  0
DIMSTYLE
105
11907
330
746F
100
AcDbSymbolTableRecord
100
AcDbDimStyleTableRecord
  2
INABA_S50
 70
     0
 40
50.0
 41
0.5
 42
0.5
 43
7.0
 44
1.0
 73
     0
 74
     0
 77
     3
 78
     8
140
2.5
141
0.0
143
0.0394
147
0.8
172
     1
173
     1
174
     1
175
     1
178
     7
271
     2
272
     2
289
     0
340
7475
341
F744
343
F744
344
F744
  0
DIMSTYLE
105
11908
330
746F
100
AcDbSymbolTableRecord
100
AcDbDimStyleTableRecord
  2
INABA_S50G
 70
     0
 41
125.0
 42
25.0
 43
7.0
 44
75.0
 73
     0
 74
     0
 77
     3
 78
     8
140
150.0
141
0.0
143
0.0394
147
25.0
172
     1
173
     1
174
     1
175
     1
178
     7
271
     1
340
F706
341
F770
343
F770
344
F770
  0
DIMSTYLE
105
1644A
330
746F
100
AcDbSymbolTableRecord
100
AcDbDimStyleTableRecord
  2
INABA_S20G
 70
     0
 40
20.0
 41
2.5
 42
0.5
 43
7.0
 44
1.5
 73
     0
 74
     0
 77
     3
 78
     8
140
3.0
141
0.0
143
0.0394
147
1.0
172
     1
173
     1
174
     1
178
     7
271
     1
340
F706
341
F770
343
F770
344
F770
  0
ENDTAB
  0
TABLE
  2
BLOCK_RECORD
  5
7466
330
0
100
AcDbSymbolTable
 70
    48
  0
BLOCK_RECORD
  5
747D
330
7466
100
AcDbSymbolTableRecord
100
AcDbBlockTableRecord
  2
*MODEL_SPACE
340
13474
  0
BLOCK_RECORD
  5
747A
330
7466
100
AcDbSymbolTableRecord
100
AcDbBlockTableRecord
  2
*PAPER_SPACE
340
13475
  0
BLOCK_RECORD
  5
ECB3
330
7466
100
AcDbSymbolTableRecord
100
AcDbBlockTableRecord
  2
作図枠S50
340
0
310
2800000020000000200000000100040000000000000200000000000000000000000000000000000000000000000080000080000000808000800000008000800080800000C0C0C000808080000000FF0000FF000000FFFF00FF000000FF00FF00FFFF0000FFFFFF00FFFFFFFFFFFFFFFFFFFFFFFFFFFFFFFFFFFFFFFFFFFFFF
310
FFFFFFFFFFFFFFFFFFFFFFFFFFFFFFFFFFFFFFFFFFFFFFFFFFFFFFFFFFFFFFFFFFFFFFFFFFFFFFFFFFFFFFFFFFFFFFFFFFFFFFFFFFFFFFFFFFFFFFFFFFFFFFFFFFFFFFFFFFFFFFFFFF999999999999999999999999999999999FFFFFFFFFFFFFFFFFFFFFFFFFFFFFF99FFFFFFFFFFFFFFFFFFFFFFFFFFFFFF99FFFFFFFFFFF
310
FFFFFFFFFFFFFFFFFFF99FFFFFFFFFFFFFFFFFFFFFFFFFFFFFF99FFFFFFFFFFFFFFFFFFFFFFFFFFFFFF99FFFFFFFFFFFFFFFFFFFFFFFFFFFFFF99FFFFFFFFFFFFFFFFFFFFFFFFFFFFFF99FFFFFFFFFFFFFFFFFFFFFFFFFFFFFF99FFFFFFFFFFFFFFFFFFFFFFFFFFFFFF99FFFFFFFFFFFFFFFFFFFFFFFFFFFFFF99FFFFFFFFF
310
FFFFFFFFFFFFFFFFFFFFF99FFFFFFFFFFFFFFFFFFFFFFFFFFFFFF99FFFFFFFFFFFFFFFFFFFFFFFFFFFFFF99FFFFFFFFFFFFFFFFFFFFFFFFFFFFFF99FFFFFFFFFFFFFFFFFFFFFFFFFFFFFF99FFFFFFFFFFFFFFFFFFFFFFFFFFFFFF99FFFFFFFFFFFFFFFFFFFFFFFFFFFFFF99FFFFFFFFFFFFFFFFFFFFF99999999999FFFFFFF
310
FFFFFFFFFFFFFF9FFFFFFFFF99999999999999999999999FFFFFFFFFFFFFFFFFFFFFFFFFFFFFFFFFFFFFFFFFFFFFFFFFFFFFFFFFFFFFFFFFFFFFFFFFFFFFFFFFFFFFFFFFFFFFFFFFFFFFFFFFFFFFFFFFFFFFFFFFFFFFFFFFFFFFFFFFFFFFFFFFFFFFFFFFFFFFFFFFFFFFFFFF
102
{BLKREFS
331
F235
102
}
  0
BLOCK_RECORD
  5
F744
330
7466
100
AcDbSymbolTableRecord
100
AcDbBlockTableRecord
  2
_DOT
340
0
102
{BLKREFS
331
1471A
331
1471B
331
1633D
331
1633E
331
16346
331
16347
331
1635A
331
1635B
331
16363
331
16364
331
1636E
331
1636F
331
16377
331
16378
331
16382
331
16383
331
1638B
331
1638C
331
16396
331
16397
331
1639F
331
163A0
331
163A8
331
163A9
331
163B3
331
163B4
331
163BC
331
163BD
331
163C5
331
163C6
102
}
  0
BLOCK_RECORD
  5
F770
330
7466
100
AcDbSymbolTableRecord
100
AcDbBlockTableRecord
  2
_DOTSMALL
340
0
102
{BLKREFS
331
13518
331
13519
331
13524
331
13525
331
13530
331
13531
331
1350C
331
1350D
331
13500
331
13501
331
134F4
331
134F5
331
134E8
331
134E9
331
134DB
331
134DC
331
134CE
331
134CF
331
134C2
331
134C3
331
134B4
331
134B5
331
134A8
331
134A9
331
1349A
331
1349B
331
1431E
331
1431F
331
14329
331
1432A
331
14332
331
14333
331
1433D
331
1433E
331
146C4
331
146C5
331
146CE
331
146CF
331
146D7
331
146D8
331
146E2
331
146E3
331
146EB
331
146EC
331
146F6
331
146F7
331
146FF
331
14700
331
14708
331
14709
331
14711
331
14712
331
1634F
331
16350
331
1640E
331
1640F
102
}
  0
BLOCK_RECORD
  5
13494
330
7466
100
AcDbSymbolTableRecord
100
AcDbBlockTableRecord
  2
*D3
340
0
  0
BLOCK_RECORD
  5
134A1
330
7466
100
AcDbSymbolTableRecord
100
AcDbBlockTableRecord
  2
*D4
340
0
  0
BLOCK_RECORD
  5
134AF
330
7466
100
AcDbSymbolTableRecord
100
AcDbBlockTableRecord
  2
*D5
340
0
  0
BLOCK_RECORD
  5
134BB
330
7466
100
AcDbSymbolTableRecord
100
AcDbBlockTableRecord
  2
*D6
340
0
  0
BLOCK_RECORD
  5
134C9
330
7466
100
AcDbSymbolTableRecord
100
AcDbBlockTableRecord
  2
*D7
340
0
  0
BLOCK_RECORD
  5
134D5
330
7466
100
AcDbSymbolTableRecord
100
AcDbBlockTableRecord
  2
*D8
340
0
  0
BLOCK_RECORD
  5
134E2
330
7466
100
AcDbSymbolTableRecord
100
AcDbBlockTableRecord
  2
*D9
340
0
  0
BLOCK_RECORD
  5
134EF
330
7466
100
AcDbSymbolTableRecord
100
AcDbBlockTableRecord
  2
*D10
340
0
  0
BLOCK_RECORD
  5
134FB
330
7466
100
AcDbSymbolTableRecord
100
AcDbBlockTableRecord
  2
*D11
340
0
  0
BLOCK_RECORD
  5
13507
330
7466
100
AcDbSymbolTableRecord
100
AcDbBlockTableRecord
  2
*D12
340
0
  0
BLOCK_RECORD
  5
13513
330
7466
100
AcDbSymbolTableRecord
100
AcDbBlockTableRecord
  2
*D13
340
0
  0
BLOCK_RECORD
  5
1351F
330
7466
100
AcDbSymbolTableRecord
100
AcDbBlockTableRecord
  2
*D14
340
0
  0
BLOCK_RECORD
  5
1352B
330
7466
100
AcDbSymbolTableRecord
100
AcDbBlockTableRecord
  2
*D15
340
0
  0
BLOCK_RECORD
  5
13539
330
7466
100
AcDbSymbolTableRecord
100
AcDbBlockTableRecord
  2
A$C0E4129C6
340
0
  0
BLOCK_RECORD
  5
13F6A
330
7466
100
AcDbSymbolTableRecord
100
AcDbBlockTableRecord
  2
*D17
340
0
  0
BLOCK_RECORD
  5
13F78
330
7466
100
AcDbSymbolTableRecord
100
AcDbBlockTableRecord
  2
*D18
340
0
  0
BLOCK_RECORD
  5
13F84
330
7466
100
AcDbSymbolTableRecord
100
AcDbBlockTableRecord
  2
*D19
340
0
  0
BLOCK_RECORD
  5
13F92
330
7466
100
AcDbSymbolTableRecord
100
AcDbBlockTableRecord
  2
*D20
340
0
  0
BLOCK_RECORD
  5
13FDE
330
7466
100
AcDbSymbolTableRecord
100
AcDbBlockTableRecord
  2
*D21
340
0
  0
BLOCK_RECORD
  5
1402A
330
7466
100
AcDbSymbolTableRecord
100
AcDbBlockTableRecord
  2
*D22
340
0
  0
BLOCK_RECORD
  5
14036
330
7466
100
AcDbSymbolTableRecord
100
AcDbBlockTableRecord
  2
*D23
340
0
  0
BLOCK_RECORD
  5
1404E
330
7466
100
AcDbSymbolTableRecord
100
AcDbBlockTableRecord
  2
*D24
340
0
  0
BLOCK_RECORD
  5
14068
330
7466
100
AcDbSymbolTableRecord
100
AcDbBlockTableRecord
  2
*D25
340
0
  0
BLOCK_RECORD
  5
14074
330
7466
100
AcDbSymbolTableRecord
100
AcDbBlockTableRecord
  2
*D26
340
0
  0
BLOCK_RECORD
  5
1408C
330
7466
100
AcDbSymbolTableRecord
100
AcDbBlockTableRecord
  2
*D27
340
0
  0
BLOCK_RECORD
  5
1409A
330
7466
100
AcDbSymbolTableRecord
100
AcDbBlockTableRecord
  2
*D28
340
0
  0
BLOCK_RECORD
  5
140A6
330
7466
100
AcDbSymbolTableRecord
100
AcDbBlockTableRecord
  2
*D29
340
0
  0
BLOCK_RECORD
  5
140B4
330
7466
100
AcDbSymbolTableRecord
100
AcDbBlockTableRecord
  2
*D30
340
0
  0
BLOCK_RECORD
  5
140C0
330
7466
100
AcDbSymbolTableRecord
100
AcDbBlockTableRecord
  2
*D31
340
0
  0
BLOCK_RECORD
  5
14515
330
7466
100
AcDbSymbolTableRecord
100
AcDbBlockTableRecord
  2
*D32
340
0
  0
BLOCK_RECORD
  5
14521
330
7466
100
AcDbSymbolTableRecord
100
AcDbBlockTableRecord
  2
*D33
340
0
  0
BLOCK_RECORD
  5
1452D
330
7466
100
AcDbSymbolTableRecord
100
AcDbBlockTableRecord
  2
*D34
340
0
  0
BLOCK_RECORD
  5
14546
330
7466
100
AcDbSymbolTableRecord
100
AcDbBlockTableRecord
  2
*D35
340
0
  0
BLOCK_RECORD
  5
14554
330
7466
100
AcDbSymbolTableRecord
100
AcDbBlockTableRecord
  2
*D36
340
0
  0
BLOCK_RECORD
  5
14560
330
7466
100
AcDbSymbolTableRecord
100
AcDbBlockTableRecord
  2
*D37
340
0
  0
BLOCK_RECORD
  5
1456E
330
7466
100
AcDbSymbolTableRecord
100
AcDbBlockTableRecord
  2
*D38
340
0
  0
BLOCK_RECORD
  5
1457A
330
7466
100
AcDbSymbolTableRecord
100
AcDbBlockTableRecord
  2
*D39
340
0
  0
BLOCK_RECORD
  5
14587
330
7466
100
AcDbSymbolTableRecord
100
AcDbBlockTableRecord
  2
*D40
340
0
  0
BLOCK_RECORD
  5
14783
330
7466
100
AcDbSymbolTableRecord
100
AcDbBlockTableRecord
  2
_OPEN
340
0
  0
BLOCK_RECORD
  5
15E4B
330
7466
100
AcDbSymbolTableRecord
100
AcDbBlockTableRecord
  2
*D42
340
0
  0
BLOCK_RECORD
  5
161C5
330
7466
100
AcDbSymbolTableRecord
100
AcDbBlockTableRecord
  2
*D43
340
0
  0
BLOCK_RECORD
  5
161D3
330
7466
100
AcDbSymbolTableRecord
100
AcDbBlockTableRecord
  2
*D44
340
0
  0
BLOCK_RECORD
  5
16203
330
7466
100
AcDbSymbolTableRecord
100
AcDbBlockTableRecord
  2
*D45
340
0
  0
BLOCK_RECORD
  5
1621D
330
7466
100
AcDbSymbolTableRecord
100
AcDbBlockTableRecord
  2
*D46
340
0
  0
BLOCK_RECORD
  5
163FF
330
7466
100
AcDbSymbolTableRecord
100
AcDbBlockTableRecord
  2
*D47
340
0
  0
ENDTAB
  0
ENDSEC
  0
SECTION
  2
BLOCKS
  0
BLOCK
  5
7489
330
747D
100
AcDbEntity
  8
0
100
AcDbBlockBegin
  2
*MODEL_SPACE
 70
     0
 10
0.0
 20
0.0
 30
0.0
  3
*MODEL_SPACE
  1

  0
ENDBLK
  5
748A
330
747D
100
AcDbEntity
  8
0
100
AcDbBlockEnd
  0
BLOCK
  5
7487
330
747A
100
AcDbEntity
 67
     1
  8
0
100
AcDbBlockBegin
  2
*PAPER_SPACE
 70
     0
 10
0.0
 20
0.0
 30
0.0
  3
*PAPER_SPACE
  1

  0
ENDBLK
  5
7488
330
747A
100
AcDbEntity
 67
     1
  8
0
100
AcDbBlockEnd
  0
BLOCK
  5
ECB4
330
ECB3
100
AcDbEntity
  8
0
100
AcDbBlockBegin
  2
作図枠S50
 70
     0
 10
0.0
 20
0.0
 30
0.0
  3
作図枠S50
  1

  4
作図領域枠 縮尺 1/50
  0
LINE
  5
ECB5
330
ECB3
100
AcDbEntity
  8
補助
100
AcDbLine
 10
14364.0
 20
14262.0
 30
0.0
 11
174.9999999999993
 21
14262.0
 31
0.0
  0
LINE
  5
ECB6
330
ECB3
100
AcDbEntity
  8
補助
100
AcDbLine
 10
174.9999999999993
 20
14262.0
 30
0.0
 11
174.9999999999993
 21
1520.0
 31
0.0
  0
LINE
  5
ECB7
330
ECB3
100
AcDbEntity
  8
補助
100
AcDbLine
 10
174.9999999999993
 20
1520.0
 30
0.0
 11
20384.0
 21
1520.0
 31
0.0
  0
LINE
  5
ECB8
330
ECB3
100
AcDbEntity
  8
補助
100
AcDbLine
 10
20384.0
 20
1520.0
 30
0.0
 11
20384.0
 21
13042.0
 31
0.0
  0
LINE
  5
ECB9
330
ECB3
100
AcDbEntity
  8
補助
100
AcDbLine
 10
20384.0
 20
13042.0
 30
0.0
 11
14364.0
 21
13042.0
 31
0.0
  0
LINE
  5
ECBA
330
ECB3
100
AcDbEntity
  8
補助
100
AcDbLine
 10
14364.0
 20
13042.0
 30
0.0
 11
14364.0
 21
14262.0
 31
0.0
  0
ENDBLK
  5
ECBB
330
ECB3
100
AcDbEntity
  8
0
100
AcDbBlockEnd
  0
BLOCK
  5
F745
330
F744
100
AcDbEntity
  8
0
 48
50.0
100
AcDbBlockBegin
  2
_DOT
 70
     0
 10
0.0
 20
0.0
 30
0.0
  3
_DOT
  1

  0
LWPOLYLINE
  5
F746
330
F744
100
AcDbEntity
  8
0
  6
ByBlock
 62
     0
 48
50.0
100
AcDbPolyline
 90
        2
 70
     1
 43
0.5
 10
-0.25
 20
0.0
 42
1.0
 10
0.25
 20
0.0
 42
1.0
  0
LINE
  5
F74A
330
F744
100
AcDbEntity
  8
0
  6
ByBlock
 62
     0
 48
50.0
100
AcDbLine
 10
-0.5
 20
0.0
 30
0.0
 11
-1.0
 21
0.0
 31
0.0
  0
ENDBLK
  5
F74B
330
F744
100
AcDbEntity
  8
0
 48
50.0
100
AcDbBlockEnd
  0
BLOCK
  5
F771
330
F770
100
AcDbEntity
  8
0
 48
50.0
100
AcDbBlockBegin
  2
_DOTSMALL
 70
     0
 10
0.0
 20
0.0
 30
0.0
  3
_DOTSMALL
  1

  0
LWPOLYLINE
  5
F772
330
F770
100
AcDbEntity
  8
0
  6
ByBlock
 62
     0
 48
50.0
100
AcDbPolyline
 90
        2
 70
     1
 43
0.5
 10
-0.0625
 20
0.0
 42
1.0
 10
0.0625
 20
0.0
 42
1.0
  0
ENDBLK
  5
F776
330
F770
100
AcDbEntity
  8
0
 48
50.0
100
AcDbBlockEnd
  0
BLOCK
  5
13495
330
13494
100
AcDbEntity
  8
0
 48
50.0
100
AcDbBlockBegin
  2
*D3
 70
     1
 10
0.0
 20
0.0
 30
0.0
  3
*D3
  1

  0
LINE
  5
13496
330
13494
100
AcDbEntity
  8
寸法
 62
     0
 48
50.0
370
    -2
100
AcDbLine
 10
9330.693956914492
 20
2876.056521119535
 30
0.0
 11
8201.943827731232
 21
2876.056521119536
 31
0.0
  0
LINE
  5
13497
330
13494
100
AcDbEntity
  8
寸法
 62
     0
 48
50.0
370
    -2
100
AcDbLine
 10
8329.192881019361
 20
2776.056521119536
 30
0.0
 11
8201.943827731232
 21
2776.056521119536
 31
0.0
  0
LINE
  5
13498
330
13494
100
AcDbEntity
  8
寸法
 62
     0
 48
50.0
370
    -2
100
AcDbLine
 10
8261.943827731233
 20
2876.056521119536
 30
0.0
 11
8261.943827731233
 21
2776.056521119536
 31
0.0
  0
LINE
  5
13499
330
13494
100
AcDbEntity
  8
寸法
 62
     0
 48
50.0
370
    -2
100
AcDbLine
 10
8261.943827731233
 20
2776.056521119536
 30
0.0
 11
8261.943827731233
 21
2403.962032930558
 31
0.0
  0
INSERT
  5
1349A
330
13494
100
AcDbEntity
  8
寸法
 62
     0
 48
50.0
370
    -2
100
AcDbBlockReference
  2
_DOTSMALL
 10
8261.943827731233
 20
2876.056521119536
 30
0.0
 41
100.0
 42
100.0
 43
100.0
 50
90.0
  0
INSERT
  5
1349B
330
13494
100
AcDbEntity
  8
寸法
 62
     0
 48
50.0
370
    -2
100
AcDbBlockReference
  2
_DOTSMALL
 10
8261.943827731233
 20
2776.056521119536
 30
0.0
 41
100.0
 42
100.0
 43
100.0
 50
270.0
  0
MTEXT
  5
1349C
330
13494
100
AcDbEntity
  8
寸法
 62
     7
 48
50.0
100
AcDbMText
 10
8161.943827731233
 20
2540.009277025048
 30
0.0
 40
120.0
 41
0.0
 71
     5
 72
     1
  1
\A1;100
  7
STYLE1
 11
0.0000000000000001
 21
1.0
 31
0.0
 73
     1
 44
1.0
1001
ACAD
1000
MTEXTBEGIN
1070
    73
1070
     1
1070
    44
1040
1.0
1070
    74
1070
     0
1000
MTEXTEND
  0
POINT
  5
1349D
330
13494
100
AcDbEntity
  8
DEFPOINTS
 62
     0
 48
50.0
100
AcDbPoint
 10
9350.693956914494
 20
2876.056521119535
 30
0.0
  0
POINT
  5
1349E
330
13494
100
AcDbEntity
  8
DEFPOINTS
 62
     0
 48
50.0
100
AcDbPoint
 10
8349.19288101936
 20
2776.056521119536
 30
0.0
  0
POINT
  5
1349F
330
13494
100
AcDbEntity
  8
DEFPOINTS
 62
     0
 48
50.0
100
AcDbPoint
 10
8261.943827731233
 20
2776.056521119536
 30
0.0
  0
ENDBLK
  5
134A0
330
13494
100
AcDbEntity
  8
0
 48
50.0
100
AcDbBlockEnd
  0
BLOCK
  5
134A2
330
134A1
100
AcDbEntity
  8
0
 48
50.0
100
AcDbBlockBegin
  2
*D4
 70
     1
 10
0.0
 20
0.0
 30
0.0
  3
*D4
  1

  0
LINE
  5
134A3
330
134A1
100
AcDbEntity
  8
寸法
 62
     0
 48
50.0
370
    -2
100
AcDbLine
 10
9385.693956914492
 20
2926.056521119535
 30
0.0
 11
8501.943827731233
 21
2926.056521119536
 31
0.0
  0
LINE
  5
134A4
330
134A1
100
AcDbEntity
  8
寸法
 62
     0
 48
50.0
370
    -2
100
AcDbLine
 10
9330.693956914492
 20
2876.056521119535
 30
0.0
 11
8501.943827731233
 21
2876.056521119536
 31
0.0
  0
LINE
  5
134A5
330
134A1
100
AcDbEntity
  8
寸法
 62
     0
 48
50.0
370
    -2
100
AcDbLine
 10
8561.943827731232
 20
2926.056521119536
 30
0.0
 11
8561.943827731232
 21
3026.056521119536
 31
0.0
  0
LINE
  5
134A6
330
134A1
100
AcDbEntity
  8
寸法
 62
     0
 48
50.0
370
    -2
100
AcDbLine
 10
8561.943827731232
 20
2876.056521119536
 30
0.0
 11
8561.943827731232
 21
2463.962032930558
 31
0.0
  0
LINE
  5
134A7
330
134A1
100
AcDbEntity
  8
寸法
 62
     0
 48
50.0
370
    -2
100
AcDbLine
 10
8561.943827731232
 20
2926.056521119536
 30
0.0
 11
8561.943827731232
 21
2876.056521119536
 31
0.0
  0
INSERT
  5
134A8
330
134A1
100
AcDbEntity
  8
寸法
 62
     0
 48
50.0
370
    -2
100
AcDbBlockReference
  2
_DOTSMALL
 10
8561.943827731232
 20
2926.056521119536
 30
0.0
 41
100.0
 42
100.0
 43
100.0
 50
270.0
  0
INSERT
  5
134A9
330
134A1
100
AcDbEntity
  8
寸法
 62
     0
 48
50.0
370
    -2
100
AcDbBlockReference
  2
_DOTSMALL
 10
8561.943827731232
 20
2876.056521119536
 30
0.0
 41
100.0
 42
100.0
 43
100.0
 50
90.0
  0
MTEXT
  5
134AA
330
134A1
100
AcDbEntity
  8
寸法
 62
     7
 48
50.0
100
AcDbMText
 10
8461.943827731232
 20
2570.009277025048
 30
0.0
 40
120.0
 41
0.0
 71
     5
 72
     1
  1
\A1;50
  7
STYLE1
 11
0.0000000000000001
 21
1.0
 31
0.0
 73
     1
 44
1.0
1001
ACAD
1000
MTEXTBEGIN
1070
    73
1070
     1
1070
    44
1040
1.0
1070
    74
1070
     0
1000
MTEXTEND
  0
POINT
  5
134AB
330
134A1
100
AcDbEntity
  8
DEFPOINTS
 62
     0
 48
50.0
100
AcDbPoint
 10
9405.693956914493
 20
2926.056521119535
 30
0.0
  0
POINT
  5
134AC
330
134A1
100
AcDbEntity
  8
DEFPOINTS
 62
     0
 48
50.0
100
AcDbPoint
 10
9350.693956914494
 20
2876.056521119535
 30
0.0
  0
POINT
  5
134AD
330
134A1
100
AcDbEntity
  8
DEFPOINTS
 62
     0
 48
50.0
100
AcDbPoint
 10
8561.943827731232
 20
2876.056521119536
 30
0.0
  0
ENDBLK
  5
134AE
330
134A1
100
AcDbEntity
  8
0
 48
50.0
100
AcDbBlockEnd
  0
BLOCK
  5
134B0
330
134AF
100
AcDbEntity
  8
0
 48
50.0
100
AcDbBlockBegin
  2
*D5
 70
     1
 10
0.0
 20
0.0
 30
0.0
  3
*D5
  1

  0
LINE
  5
134B1
330
134AF
100
AcDbEntity
  8
寸法
 62
     0
 48
50.0
370
    -2
100
AcDbLine
 10
11615.69395691449
 20
5217.867200731189
 30
0.0
 11
11615.69395691449
 21
5709.713974698839
 31
0.0
  0
LINE
  5
134B2
330
134AF
100
AcDbEntity
  8
寸法
 62
     0
 48
50.0
370
    -2
100
AcDbLine
 10
9405.693956914493
 20
5267.058139242512
 30
0.0
 11
9405.693956914493
 21
5709.713974698839
 31
0.0
  0
LINE
  5
134B3
330
134AF
100
AcDbEntity
  8
寸法
 62
     0
 48
50.0
370
    -2
100
AcDbLine
 10
11615.69395691449
 20
5649.71397469884
 30
0.0
 11
9405.693956914493
 21
5649.71397469884
 31
0.0
  0
INSERT
  5
134B4
330
134AF
100
AcDbEntity
  8
寸法
 62
     0
 48
50.0
370
    -2
100
AcDbBlockReference
  2
_DOTSMALL
 10
11615.69395691449
 20
5649.71397469884
 30
0.0
 41
100.0
 42
100.0
 43
100.0
  0
INSERT
  5
134B5
330
134AF
100
AcDbEntity
  8
寸法
 62
     0
 48
50.0
370
    -2
100
AcDbBlockReference
  2
_DOTSMALL
 10
9405.693956914493
 20
5649.71397469884
 30
0.0
 41
100.0
 42
100.0
 43
100.0
 50
180.0
  0
MTEXT
  5
134B6
330
134AF
100
AcDbEntity
  8
寸法
 62
     7
 48
50.0
100
AcDbMText
 10
10500.338693985
 20
5749.725785722461
 30
0.0
 40
120.0
 41
0.0
 71
     5
 72
     1
  1
\A1;柱外寸法2210
  7
STYLE1
 73
     1
 44
1.0
1001
ACAD
1000
MTEXTBEGIN
1070
    73
1070
     1
1070
    44
1040
1.0
1070
    74
1070
     0
1000
MTEXTEND
  0
POINT
  5
134B7
330
134AF
100
AcDbEntity
  8
DEFPOINTS
 62
     0
 48
50.0
100
AcDbPoint
 10
11615.69395691449
 20
5197.867200731189
 30
0.0
  0
POINT
  5
134B8
330
134AF
100
AcDbEntity
  8
DEFPOINTS
 62
     0
 48
50.0
100
AcDbPoint
 10
9405.693956914493
 20
5247.058139242511
 30
0.0
  0
POINT
  5
134B9
330
134AF
100
AcDbEntity
  8
DEFPOINTS
 62
     0
 48
50.0
100
AcDbPoint
 10
9405.693956914493
 20
5649.71397469884
 30
0.0
  0
ENDBLK
  5
134BA
330
134AF
100
AcDbEntity
  8
0
 48
50.0
100
AcDbBlockEnd
  0
BLOCK
  5
134BC
330
134BB
100
AcDbEntity
  8
0
 48
50.0
100
AcDbBlockBegin
  2
*D6
 70
     1
 10
0.0
 20
0.0
 30
0.0
  3
*D6
  1

  0
LINE
  5
134BD
330
134BB
100
AcDbEntity
  8
寸法
 62
     0
 48
50.0
370
    -2
100
AcDbLine
 10
9405.693956914493
 20
5267.058139242512
 30
0.0
 11
9405.693956914493
 21
5709.713974698839
 31
0.0
  0
LINE
  5
134BE
330
134BB
100
AcDbEntity
  8
寸法
 62
     0
 48
50.0
370
    -2
100
AcDbLine
 10
9345.693956914493
 20
5271.05652111954
 30
0.0
 11
9345.693956914493
 21
5709.713974698839
 31
0.0
  0
LINE
  5
134BF
330
134BB
100
AcDbEntity
  8
寸法
 62
     0
 48
50.0
370
    -2
100
AcDbLine
 10
9405.693956914493
 20
5649.71397469884
 30
0.0
 11
9505.693956914493
 21
5649.71397469884
 31
0.0
  0
LINE
  5
134C0
330
134BB
100
AcDbEntity
  8
寸法
 62
     0
 48
50.0
370
    -2
100
AcDbLine
 10
9345.693956914493
 20
5649.71397469884
 30
0.0
 11
8926.418366363312
 21
5649.71397469884
 31
0.0
  0
LINE
  5
134C1
330
134BB
100
AcDbEntity
  8
寸法
 62
     0
 48
50.0
370
    -2
100
AcDbLine
 10
9405.693956914493
 20
5649.71397469884
 30
0.0
 11
9345.693956914493
 21
5649.71397469884
 31
0.0
  0
INSERT
  5
134C2
330
134BB
100
AcDbEntity
  8
寸法
 62
     0
 48
50.0
370
    -2
100
AcDbBlockReference
  2
_DOTSMALL
 10
9405.693956914493
 20
5649.71397469884
 30
0.0
 41
100.0
 42
100.0
 43
100.0
 50
180.0
  0
INSERT
  5
134C3
330
134BB
100
AcDbEntity
  8
寸法
 62
     0
 48
50.0
370
    -2
100
AcDbBlockReference
  2
_DOTSMALL
 10
9345.693956914493
 20
5649.71397469884
 30
0.0
 41
100.0
 42
100.0
 43
100.0
  0
MTEXT
  5
134C4
330
134BB
100
AcDbEntity
  8
寸法
 62
     7
 48
50.0
100
AcDbMText
 10
9036.056161638901
 20
5749.713974698839
 30
0.0
 40
120.0
 41
0.0
 71
     5
 72
     1
  1
\A1;60
  7
STYLE1
 73
     1
 44
1.0
1001
ACAD
1000
MTEXTBEGIN
1070
    73
1070
     1
1070
    44
1040
1.0
1070
    74
1070
     0
1000
MTEXTEND
  0
POINT
  5
134C5
330
134BB
100
AcDbEntity
  8
DEFPOINTS
 62
     0
 48
50.0
100
AcDbPoint
 10
9405.693956914493
 20
5247.058139242511
 30
0.0
  0
POINT
  5
134C6
330
134BB
100
AcDbEntity
  8
DEFPOINTS
 62
     0
 48
50.0
100
AcDbPoint
 10
9345.693956914493
 20
5251.05652111954
 30
0.0
  0
POINT
  5
134C7
330
134BB
100
AcDbEntity
  8
DEFPOINTS
 62
     0
 48
50.0
100
AcDbPoint
 10
9345.693956914493
 20
5649.71397469884
 30
0.0
  0
ENDBLK
  5
134C8
330
134BB
100
AcDbEntity
  8
0
 48
50.0
100
AcDbBlockEnd
  0
BLOCK
  5
134CA
330
134C9
100
AcDbEntity
  8
0
 48
50.0
100
AcDbBlockBegin
  2
*D7
 70
     1
 10
0.0
 20
0.0
 30
0.0
  3
*D7
  1

  0
LINE
  5
134CB
330
134C9
100
AcDbEntity
  8
寸法
 62
     0
 48
50.0
370
    -2
100
AcDbLine
 10
11695.69395691449
 20
5216.056521119536
 30
0.0
 11
11695.69395691449
 21
5928.915808373131
 31
0.0
  0
LINE
  5
134CC
330
134C9
100
AcDbEntity
  8
寸法
 62
     0
 48
50.0
370
    -2
100
AcDbLine
 10
9345.693956914493
 20
5271.05652111954
 30
0.0
 11
9345.693956914493
 21
5928.915808373131
 31
0.0
  0
LINE
  5
134CD
330
134C9
100
AcDbEntity
  8
寸法
 62
     0
 48
50.0
370
    -2
100
AcDbLine
 10
11695.69395691449
 20
5868.915808373131
 30
0.0
 11
9345.693956914493
 21
5868.915808373131
 31
0.0
  0
INSERT
  5
134CE
330
134C9
100
AcDbEntity
  8
寸法
 62
     0
 48
50.0
370
    -2
100
AcDbBlockReference
  2
_DOTSMALL
 10
11695.69395691449
 20
5868.915808373131
 30
0.0
 41
100.0
 42
100.0
 43
100.0
  0
INSERT
  5
134CF
330
134C9
100
AcDbEntity
  8
寸法
 62
     0
 48
50.0
370
    -2
100
AcDbBlockReference
  2
_DOTSMALL
 10
9345.693956914493
 20
5868.915808373131
 30
0.0
 41
100.0
 42
100.0
 43
100.0
 50
180.0
  0
MTEXT
  5
134D0
330
134C9
100
AcDbEntity
  8
寸法
 62
     7
 48
50.0
100
AcDbMText
 10
10580.03781100696
 20
5968.927619396753
 30
0.0
 40
120.0
 41
0.0
 71
     5
 72
     1
  1
\A1;2350
  7
STYLE1
 73
     1
 44
1.0
1001
ACAD
1000
MTEXTBEGIN
1070
    73
1070
     1
1070
    44
1040
1.0
1070
    74
1070
     0
1000
MTEXTEND
  0
POINT
  5
134D1
330
134C9
100
AcDbEntity
  8
DEFPOINTS
 62
     0
 48
50.0
100
AcDbPoint
 10
11695.69395691449
 20
5196.056521119537
 30
0.0
  0
POINT
  5
134D2
330
134C9
100
AcDbEntity
  8
DEFPOINTS
 62
     0
 48
50.0
100
AcDbPoint
 10
9345.693956914493
 20
5251.05652111954
 30
0.0
  0
POINT
  5
134D3
330
134C9
100
AcDbEntity
  8
DEFPOINTS
 62
     0
 48
50.0
100
AcDbPoint
 10
9345.693956914493
 20
5868.915808373131
 30
0.0
  0
ENDBLK
  5
134D4
330
134C9
100
AcDbEntity
  8
0
 48
50.0
100
AcDbBlockEnd
  0
BLOCK
  5
134D6
330
134D5
100
AcDbEntity
  8
0
 48
50.0
100
AcDbBlockBegin
  2
*D8
 70
     1
 10
0.0
 20
0.0
 30
0.0
  3
*D8
  1

  0
LINE
  5
134D7
330
134D5
100
AcDbEntity
  8
寸法
 62
     0
 48
50.0
370
    -2
100
AcDbLine
 10
11615.69395691449
 20
5217.867200731189
 30
0.0
 11
11615.69395691449
 21
5709.713974698839
 31
0.0
  0
LINE
  5
134D8
330
134D5
100
AcDbEntity
  8
寸法
 62
     0
 48
50.0
370
    -2
100
AcDbLine
 10
11695.69395691449
 20
5216.056521119536
 30
0.0
 11
11695.69395691449
 21
5709.713974698839
 31
0.0
  0
LINE
  5
134D9
330
134D5
100
AcDbEntity
  8
寸法
 62
     0
 48
50.0
370
    -2
100
AcDbLine
 10
11615.69395691449
 20
5649.71397469884
 30
0.0
 11
11695.69395691449
 21
5649.71397469884
 31
0.0
  0
LINE
  5
134DA
330
134D5
100
AcDbEntity
  8
寸法
 62
     0
 48
50.0
370
    -2
100
AcDbLine
 10
11695.69395691449
 20
5649.71397469884
 30
0.0
 11
12007.78844510347
 21
5649.71397469884
 31
0.0
  0
INSERT
  5
134DB
330
134D5
100
AcDbEntity
  8
寸法
 62
     0
 48
50.0
370
    -2
100
AcDbBlockReference
  2
_DOTSMALL
 10
11615.69395691449
 20
5649.71397469884
 30
0.0
 41
100.0
 42
100.0
 43
100.0
 50
180.0
  0
INSERT
  5
134DC
330
134D5
100
AcDbEntity
  8
寸法
 62
     0
 48
50.0
370
    -2
100
AcDbBlockReference
  2
_DOTSMALL
 10
11695.69395691449
 20
5649.71397469884
 30
0.0
 41
100.0
 42
100.0
 43
100.0
  0
MTEXT
  5
134DD
330
134D5
100
AcDbEntity
  8
寸法
 62
     7
 48
50.0
100
AcDbMText
 10
11901.74120100898
 20
5749.713974698839
 30
0.0
 40
120.0
 41
0.0
 71
     5
 72
     1
  1
\A1;80
  7
STYLE1
 73
     1
 44
1.0
1001
ACAD
1000
MTEXTBEGIN
1070
    73
1070
     1
1070
    44
1040
1.0
1070
    74
1070
     0
1000
MTEXTEND
  0
POINT
  5
134DE
330
134D5
100
AcDbEntity
  8
DEFPOINTS
 62
     0
 48
50.0
100
AcDbPoint
 10
11615.69395691449
 20
5197.867200731189
 30
0.0
  0
POINT
  5
134DF
330
134D5
100
AcDbEntity
  8
DEFPOINTS
 62
     0
 48
50.0
100
AcDbPoint
 10
11695.69395691449
 20
5196.056521119537
 30
0.0
  0
POINT
  5
134E0
330
134D5
100
AcDbEntity
  8
DEFPOINTS
 62
     0
 48
50.0
100
AcDbPoint
 10
11695.69395691449
 20
5649.71397469884
 30
0.0
  0
ENDBLK
  5
134E1
330
134D5
100
AcDbEntity
  8
0
 48
50.0
100
AcDbBlockEnd
  0
BLOCK
  5
134E3
330
134E2
100
AcDbEntity
  8
0
 48
50.0
100
AcDbBlockBegin
  2
*D9
 70
     1
 10
0.0
 20
0.0
 30
0.0
  3
*D9
  1

  0
LINE
  5
134E4
330
134E2
100
AcDbEntity
  8
寸法
 62
     0
 48
50.0
370
    -2
100
AcDbLine
 10
9345.098243205596
 20
5250.354228189197
 30
0.0
 11
8729.163804100315
 21
5268.068378463527
 31
0.0
  0
LINE
  5
134E5
330
134E2
100
AcDbEntity
  8
寸法
 62
     0
 48
50.0
370
    -2
100
AcDbLine
 10
9341.044787648968
 20
5109.412504423485
 30
0.0
 11
8725.110348543688
 21
5127.126654697814
 31
0.0
  0
LINE
  5
134E6
330
134E2
100
AcDbEntity
  8
寸法
 62
     0
 48
50.0
370
    -2
100
AcDbLine
 10
8785.085550146121
 20
5125.401779992866
 30
0.0
 11
8789.139005702748
 21
5266.34350375858
 31
0.0
  0
LINE
  5
134E7
330
134E2
100
AcDbEntity
  8
寸法
 62
     0
 48
50.0
370
    -2
100
AcDbLine
 10
8789.139005702748
 20
5266.34350375858
 30
0.0
 11
8799.488253932432
 21
5626.194713373166
 31
0.0
  0
INSERT
  5
134E8
330
134E2
100
AcDbEntity
  8
寸法
 62
     0
 48
50.0
370
    -2
100
AcDbBlockReference
  2
_DOTSMALL
 10
8785.085550146121
 20
5125.401779992866
 30
0.0
 41
100.0
 42
100.0
 43
100.0
 50
268.3526390256378
  0
INSERT
  5
134E9
330
134E2
100
AcDbEntity
  8
寸法
 62
     0
 48
50.0
370
    -2
100
AcDbBlockReference
  2
_DOTSMALL
 10
8789.139005702748
 20
5266.34350375858
 30
0.0
 41
100.0
 42
100.0
 43
100.0
 50
88.35263902563776
  0
MTEXT
  5
134EA
330
134E2
100
AcDbEntity
  8
寸法
 62
     7
 48
50.0
100
AcDbMText
 10
8695.792356067659
 20
5499.123234409477
 30
0.0
 40
120.0
 41
0.0
 71
     5
 72
     1
  1
\A1;141
  7
STYLE1
 11
0.0287479117491237
 21
0.9995866933738488
 31
0.0
 73
     1
 44
1.0
1001
ACAD
1000
MTEXTBEGIN
1070
    73
1070
     1
1070
    44
1040
1.0
1070
    74
1070
     0
1000
MTEXTEND
  0
POINT
  5
134EB
330
134E2
100
AcDbEntity
  8
DEFPOINTS
 62
     0
 48
50.0
100
AcDbPoint
 10
9365.089977073072
 20
5249.779269954214
 30
0.0
  0
POINT
  5
134EC
330
134E2
100
AcDbEntity
  8
DEFPOINTS
 62
     0
 48
50.0
100
AcDbPoint
 10
9361.036521516446
 20
5108.837546188501
 30
0.0
  0
POINT
  5
134ED
330
134E2
100
AcDbEntity
  8
DEFPOINTS
 62
     0
 48
50.0
100
AcDbPoint
 10
8785.085550146121
 20
5125.401779992866
 30
0.0
  0
ENDBLK
  5
134EE
330
134E2
100
AcDbEntity
  8
0
 48
50.0
100
AcDbBlockEnd
  0
BLOCK
  5
134F0
330
134EF
100
AcDbEntity
  8
0
 48
50.0
100
AcDbBlockBegin
  2
*D10
 70
     1
 10
0.0
 20
0.0
 30
0.0
  3
*D10
  1

  0
LINE
  5
134F1
330
134EF
100
AcDbEntity
  8
寸法
 62
     0
 48
50.0
370
    -2
100
AcDbLine
 10
9313.193956914496
 20
2576.056521119534
 30
0.0
 11
9123.693953667858
 21
2576.056521119534
 31
0.0
  0
LINE
  5
134F2
330
134EF
100
AcDbEntity
  8
寸法
 62
     0
 48
50.0
370
    -2
100
AcDbLine
 10
9288.193956914494
 20
2776.056521119535
 30
0.0
 11
9123.693953667858
 21
2776.056521119536
 31
0.0
  0
LINE
  5
134F3
330
134EF
100
AcDbEntity
  8
寸法
 62
     0
 48
50.0
370
    -2
100
AcDbLine
 10
9183.693953667859
 20
2576.056521119534
 30
0.0
 11
9183.693953667859
 21
2776.056521119536
 31
0.0
  0
INSERT
  5
134F4
330
134EF
100
AcDbEntity
  8
寸法
 62
     0
 48
50.0
370
    -2
100
AcDbBlockReference
  2
_DOTSMALL
 10
9183.693953667859
 20
2576.056521119534
 30
0.0
 41
100.0
 42
100.0
 43
100.0
 50
270.0
  0
INSERT
  5
134F5
330
134EF
100
AcDbEntity
  8
寸法
 62
     0
 48
50.0
370
    -2
100
AcDbBlockReference
  2
_DOTSMALL
 10
9183.693953667859
 20
2776.056521119536
 30
0.0
 41
100.0
 42
100.0
 43
100.0
 50
90.0
  0
MTEXT
  5
134F6
330
134EF
100
AcDbEntity
  8
寸法
 62
     7
 48
50.0
100
AcDbMText
 10
9083.682142644237
 20
2676.056521119536
 30
0.0
 40
120.0
 41
0.0
 71
     5
 72
     1
  1
\A1;200
  7
STYLE1
 11
0.0000000000000001
 21
1.0
 31
0.0
 73
     1
 44
1.0
1001
ACAD
1000
MTEXTBEGIN
1070
    73
1070
     1
1070
    44
1040
1.0
1070
    74
1070
     0
1000
MTEXTEND
  0
POINT
  5
134F7
330
134EF
100
AcDbEntity
  8
DEFPOINTS
 62
     0
 48
50.0
100
AcDbPoint
 10
9333.193956914497
 20
2576.056521119534
 30
0.0
  0
POINT
  5
134F8
330
134EF
100
AcDbEntity
  8
DEFPOINTS
 62
     0
 48
50.0
100
AcDbPoint
 10
9308.193956914491
 20
2776.056521119535
 30
0.0
  0
POINT
  5
134F9
330
134EF
100
AcDbEntity
  8
DEFPOINTS
 62
     0
 48
50.0
100
AcDbPoint
 10
9183.693953667859
 20
2776.056521119536
 30
0.0
  0
ENDBLK
  5
134FA
330
134EF
100
AcDbEntity
  8
0
 48
50.0
100
AcDbBlockEnd
  0
BLOCK
  5
134FC
330
134FB
100
AcDbEntity
  8
0
 48
50.0
100
AcDbBlockBegin
  2
*D11
 70
     1
 10
0.0
 20
0.0
 30
0.0
  3
*D11
  1

  0
LINE
  5
134FD
330
134FB
100
AcDbEntity
  8
寸法
 62
     0
 48
50.0
370
    -2
100
AcDbLine
 10
9533.193956914493
 20
2556.056521119533
 30
0.0
 11
9533.193956914493
 21
2230.009191819157
 31
0.0
  0
LINE
  5
134FE
330
134FB
100
AcDbEntity
  8
寸法
 62
     0
 48
50.0
370
    -2
100
AcDbLine
 10
9333.193956914497
 20
2556.056521119534
 30
0.0
 11
9333.193956914497
 21
2230.009191819157
 31
0.0
  0
LINE
  5
134FF
330
134FB
100
AcDbEntity
  8
寸法
 62
     0
 48
50.0
370
    -2
100
AcDbLine
 10
9533.193956914493
 20
2290.009191819157
 30
0.0
 11
9333.193956914497
 21
2290.009191819157
 31
0.0
  0
INSERT
  5
13500
330
134FB
100
AcDbEntity
  8
寸法
 62
     0
 48
50.0
370
    -2
100
AcDbBlockReference
  2
_DOTSMALL
 10
9533.193956914493
 20
2290.009191819157
 30
0.0
 41
100.0
 42
100.0
 43
100.0
  0
INSERT
  5
13501
330
134FB
100
AcDbEntity
  8
寸法
 62
     0
 48
50.0
370
    -2
100
AcDbBlockReference
  2
_DOTSMALL
 10
9333.193956914497
 20
2290.009191819157
 30
0.0
 41
100.0
 42
100.0
 43
100.0
 50
180.0
  0
MTEXT
  5
13502
330
134FB
100
AcDbEntity
  8
寸法
 62
     7
 48
50.0
100
AcDbMText
 10
9433.193956914495
 20
2390.021002842779
 30
0.0
 40
120.0
 41
0.0
 71
     5
 72
     1
  1
\A1;200
  7
STYLE1
 73
     1
 44
1.0
1001
ACAD
1000
MTEXTBEGIN
1070
    73
1070
     1
1070
    44
1040
1.0
1070
    74
1070
     0
1000
MTEXTEND
  0
POINT
  5
13503
330
134FB
100
AcDbEntity
  8
DEFPOINTS
 62
     0
 48
50.0
100
AcDbPoint
 10
9533.193956914493
 20
2576.056521119533
 30
0.0
  0
POINT
  5
13504
330
134FB
100
AcDbEntity
  8
DEFPOINTS
 62
     0
 48
50.0
100
AcDbPoint
 10
9333.193956914497
 20
2576.056521119534
 30
0.0
  0
POINT
  5
13505
330
134FB
100
AcDbEntity
  8
DEFPOINTS
 62
     0
 48
50.0
100
AcDbPoint
 10
9333.193956914497
 20
2290.009191819157
 30
0.0
  0
ENDBLK
  5
13506
330
134FB
100
AcDbEntity
  8
0
 48
50.0
100
AcDbBlockEnd
  0
BLOCK
  5
13508
330
13507
100
AcDbEntity
  8
0
 48
50.0
100
AcDbBlockBegin
  2
*D12
 70
     1
 10
0.0
 20
0.0
 30
0.0
  3
*D12
  1

  0
LINE
  5
13509
330
13507
100
AcDbEntity
  8
寸法
 62
     0
 48
50.0
370
    -2
100
AcDbLine
 10
11635.69395691449
 20
2876.056521119535
 30
0.0
 11
12380.62111488662
 21
2876.056521119535
 31
0.0
  0
LINE
  5
1350A
330
13507
100
AcDbEntity
  8
寸法
 62
     0
 48
50.0
370
    -2
100
AcDbLine
 10
11715.69395691449
 20
5196.056521119537
 30
0.0
 11
12380.62111488662
 21
5196.056521119537
 31
0.0
  0
LINE
  5
1350B
330
13507
100
AcDbEntity
  8
寸法
 62
     0
 48
50.0
370
    -2
100
AcDbLine
 10
12320.62111488662
 20
2876.056521119535
 30
0.0
 11
12320.62111488662
 21
5196.056521119537
 31
0.0
  0
INSERT
  5
1350C
330
13507
100
AcDbEntity
  8
寸法
 62
     0
 48
50.0
370
    -2
100
AcDbBlockReference
  2
_DOTSMALL
 10
12320.62111488662
 20
2876.056521119535
 30
0.0
 41
100.0
 42
100.0
 43
100.0
 50
270.0
  0
INSERT
  5
1350D
330
13507
100
AcDbEntity
  8
寸法
 62
     0
 48
50.0
370
    -2
100
AcDbBlockReference
  2
_DOTSMALL
 10
12320.62111488662
 20
5196.056521119537
 30
0.0
 41
100.0
 42
100.0
 43
100.0
 50
90.0
  0
MTEXT
  5
1350E
330
13507
100
AcDbEntity
  8
寸法
 62
     7
 48
50.0
100
AcDbMText
 10
12220.60930386299
 20
4036.056521119538
 30
0.0
 40
120.0
 41
0.0
 71
     5
 72
     1
  1
\A1;2320
  7
STYLE1
 11
0.0000000000000001
 21
1.0
 31
0.0
 73
     1
 44
1.0
1001
ACAD
1000
MTEXTBEGIN
1070
    73
1070
     1
1070
    44
1040
1.0
1070
    74
1070
     0
1000
MTEXTEND
  0
POINT
  5
1350F
330
13507
100
AcDbEntity
  8
DEFPOINTS
 62
     0
 48
50.0
100
AcDbPoint
 10
11615.69395691449
 20
2876.056521119535
 30
0.0
  0
POINT
  5
13510
330
13507
100
AcDbEntity
  8
DEFPOINTS
 62
     0
 48
50.0
100
AcDbPoint
 10
11695.69395691449
 20
5196.056521119537
 30
0.0
  0
POINT
  5
13511
330
13507
100
AcDbEntity
  8
DEFPOINTS
 62
     0
 48
50.0
100
AcDbPoint
 10
12320.62111488662
 20
5196.056521119537
 30
0.0
  0
ENDBLK
  5
13512
330
13507
100
AcDbEntity
  8
0
 48
50.0
100
AcDbBlockEnd
  0
BLOCK
  5
13514
330
13513
100
AcDbEntity
  8
0
 48
50.0
100
AcDbBlockBegin
  2
*D13
 70
     1
 10
0.0
 20
0.0
 30
0.0
  3
*D13
  1

  0
LINE
  5
13515
330
13513
100
AcDbEntity
  8
寸法
 62
     0
 48
50.0
370
    -2
100
AcDbLine
 10
9385.693956914492
 20
5008.056521119535
 30
0.0
 11
8800.78531551724
 21
5008.056521119535
 31
0.0
  0
LINE
  5
13516
330
13513
100
AcDbEntity
  8
寸法
 62
     0
 48
50.0
370
    -2
100
AcDbLine
 10
9385.693956914492
 20
2938.056521119536
 30
0.0
 11
8800.785315517238
 21
2938.056521119536
 31
0.0
  0
LINE
  5
13517
330
13513
100
AcDbEntity
  8
寸法
 62
     0
 48
50.0
370
    -2
100
AcDbLine
 10
8860.785315517238
 20
5008.056521119535
 30
0.0
 11
8860.785315517238
 21
2938.056521119536
 31
0.0
  0
INSERT
  5
13518
330
13513
100
AcDbEntity
  8
寸法
 62
     0
 48
50.0
370
    -2
100
AcDbBlockReference
  2
_DOTSMALL
 10
8860.785315517238
 20
5008.056521119535
 30
0.0
 41
100.0
 42
100.0
 43
100.0
 50
90.0
  0
INSERT
  5
13519
330
13513
100
AcDbEntity
  8
寸法
 62
     0
 48
50.0
370
    -2
100
AcDbBlockReference
  2
_DOTSMALL
 10
8860.785315517238
 20
2938.056521119536
 30
0.0
 41
100.0
 42
100.0
 43
100.0
 50
270.0
  0
MTEXT
  5
1351A
330
13513
100
AcDbEntity
  8
寸法
 62
     7
 48
50.0
100
AcDbMText
 10
8760.773504493617
 20
3973.056521119537
 30
0.0
 40
120.0
 41
0.0
 71
     5
 72
     1
  1
\A1;有効開口部高サ2070
  7
STYLE1
 11
0.0000000000000001
 21
1.0
 31
0.0
 73
     1
 44
1.0
1001
ACAD
1000
MTEXTBEGIN
1070
    73
1070
     1
1070
    44
1040
1.0
1070
    74
1070
     0
1000
MTEXTEND
  0
POINT
  5
1351B
330
13513
100
AcDbEntity
  8
DEFPOINTS
 62
     0
 48
50.0
100
AcDbPoint
 10
9405.693956914493
 20
5008.056521119535
 30
0.0
  0
POINT
  5
1351C
330
13513
100
AcDbEntity
  8
DEFPOINTS
 62
     0
 48
50.0
100
AcDbPoint
 10
9405.693956914493
 20
2938.056521119536
 30
0.0
  0
POINT
  5
1351D
330
13513
100
AcDbEntity
  8
DEFPOINTS
 62
     0
 48
50.0
100
AcDbPoint
 10
8860.785315517238
 20
2938.056521119536
 30
0.0
  0
ENDBLK
  5
1351E
330
13513
100
AcDbEntity
  8
0
 48
50.0
100
AcDbBlockEnd
  0
BLOCK
  5
13520
330
1351F
100
AcDbEntity
  8
0
 48
50.0
100
AcDbBlockBegin
  2
*D14
 70
     1
 10
0.0
 20
0.0
 30
0.0
  3
*D14
  1

  0
LINE
  5
13521
330
1351F
100
AcDbEntity
  8
寸法
 62
     0
 48
50.0
370
    -2
100
AcDbLine
 10
9385.693956914492
 20
5016.056521119535
 30
0.0
 11
8501.943827731235
 21
5016.056521119535
 31
0.0
  0
LINE
  5
13522
330
1351F
100
AcDbEntity
  8
寸法
 62
     0
 48
50.0
370
    -2
100
AcDbLine
 10
9385.693956914492
 20
2926.056521119535
 30
0.0
 11
8501.943827731233
 21
2926.056521119536
 31
0.0
  0
LINE
  5
13523
330
1351F
100
AcDbEntity
  8
寸法
 62
     0
 48
50.0
370
    -2
100
AcDbLine
 10
8561.943827731235
 20
5016.056521119535
 30
0.0
 11
8561.943827731232
 21
2926.056521119536
 31
0.0
  0
INSERT
  5
13524
330
1351F
100
AcDbEntity
  8
寸法
 62
     0
 48
50.0
370
    -2
100
AcDbBlockReference
  2
_DOTSMALL
 10
8561.943827731235
 20
5016.056521119535
 30
0.0
 41
100.0
 42
100.0
 43
100.0
 50
90.0
  0
INSERT
  5
13525
330
1351F
100
AcDbEntity
  8
寸法
 62
     0
 48
50.0
370
    -2
100
AcDbBlockReference
  2
_DOTSMALL
 10
8561.943827731232
 20
2926.056521119536
 30
0.0
 41
100.0
 42
100.0
 43
100.0
 50
270.0
  0
MTEXT
  5
13526
330
1351F
100
AcDbEntity
  8
寸法
 62
     7
 48
50.0
100
AcDbMText
 10
8461.932016707612
 20
3971.056521119537
 30
0.0
 40
120.0
 41
0.0
 71
     5
 72
     1
  1
\A1;2090
  7
STYLE1
 11
0.0000000000000001
 21
1.0
 31
0.0
 73
     1
 44
1.0
1001
ACAD
1000
MTEXTBEGIN
1070
    73
1070
     1
1070
    44
1040
1.0
1070
    74
1070
     0
1000
MTEXTEND
  0
POINT
  5
13527
330
1351F
100
AcDbEntity
  8
DEFPOINTS
 62
     0
 48
50.0
100
AcDbPoint
 10
9405.693956914493
 20
5016.056521119535
 30
0.0
  0
POINT
  5
13528
330
1351F
100
AcDbEntity
  8
DEFPOINTS
 62
     0
 48
50.0
100
AcDbPoint
 10
9405.693956914493
 20
2926.056521119535
 30
0.0
  0
POINT
  5
13529
330
1351F
100
AcDbEntity
  8
DEFPOINTS
 62
     0
 48
50.0
100
AcDbPoint
 10
8561.943827731232
 20
2926.056521119536
 30
0.0
  0
ENDBLK
  5
1352A
330
1351F
100
AcDbEntity
  8
0
 48
50.0
100
AcDbBlockEnd
  0
BLOCK
  5
1352C
330
1352B
100
AcDbEntity
  8
0
 48
50.0
100
AcDbBlockBegin
  2
*D15
 70
     1
 10
0.0
 20
0.0
 30
0.0
  3
*D15
  1

  0
LINE
  5
1352D
330
1352B
100
AcDbEntity
  8
寸法
 62
     0
 48
50.0
370
    -2
100
AcDbLine
 10
9385.693956914492
 20
2876.056521119535
 30
0.0
 11
8201.943827731232
 21
2876.056521119536
 31
0.0
  0
LINE
  5
1352E
330
1352B
100
AcDbEntity
  8
寸法
 62
     0
 48
50.0
370
    -2
100
AcDbLine
 10
9325.693956914497
 20
5251.05652111954
 30
0.0
 11
8201.943827731232
 21
5251.05652111954
 31
0.0
  0
LINE
  5
1352F
330
1352B
100
AcDbEntity
  8
寸法
 62
     0
 48
50.0
370
    -2
100
AcDbLine
 10
8261.943827731231
 20
2876.056521119536
 30
0.0
 11
8261.943827731233
 21
5251.05652111954
 31
0.0
  0
INSERT
  5
13530
330
1352B
100
AcDbEntity
  8
寸法
 62
     0
 48
50.0
370
    -2
100
AcDbBlockReference
  2
_DOTSMALL
 10
8261.943827731231
 20
2876.056521119536
 30
0.0
 41
100.0
 42
100.0
 43
100.0
 50
270.0
  0
INSERT
  5
13531
330
1352B
100
AcDbEntity
  8
寸法
 62
     0
 48
50.0
370
    -2
100
AcDbBlockReference
  2
_DOTSMALL
 10
8261.943827731233
 20
5251.05652111954
 30
0.0
 41
100.0
 42
100.0
 43
100.0
 50
90.0
  0
MTEXT
  5
13532
330
1352B
100
AcDbEntity
  8
寸法
 62
     7
 48
50.0
100
AcDbMText
 10
8161.932016707609
 20
4063.556521119539
 30
0.0
 40
120.0
 41
0.0
 71
     5
 72
     1
  1
\A1;2375
  7
STYLE1
 11
0.0000000000000001
 21
1.0
 31
0.0
 73
     1
 44
1.0
1001
ACAD
1000
MTEXTBEGIN
1070
    73
1070
     1
1070
    44
1040
1.0
1070
    74
1070
     0
1000
MTEXTEND
  0
POINT
  5
13533
330
1352B
100
AcDbEntity
  8
DEFPOINTS
 62
     0
 48
50.0
100
AcDbPoint
 10
9405.693956914493
 20
2876.056521119535
 30
0.0
  0
POINT
  5
13534
330
1352B
100
AcDbEntity
  8
DEFPOINTS
 62
     0
 48
50.0
100
AcDbPoint
 10
9345.693956914496
 20
5251.05652111954
 30
0.0
  0
POINT
  5
13535
330
1352B
100
AcDbEntity
  8
DEFPOINTS
 62
     0
 48
50.0
100
AcDbPoint
 10
8261.943827731233
 20
5251.05652111954
 30
0.0
  0
ENDBLK
  5
13536
330
1352B
100
AcDbEntity
  8
0
 48
50.0
100
AcDbBlockEnd
  0
BLOCK
  5
135B4
330
13539
100
AcDbEntity
  8
0
 48
50.0
100
AcDbBlockBegin
  2
A$C0E4129C6
 70
     0
 10
0.0
 20
0.0
 30
0.0
  3
A$C0E4129C6
  1

  0
DIMENSION
  5
1353A
330
13539
100
AcDbEntity
  8
寸法
100
AcDbDimension
  2
*D13
 10
4319.155345832772
 20
1151.87234700923
 30
0.0
 11
4219.143534809151
 21
2186.872347009231
 31
0.0
 12
-4541.629969684465
 22
-1786.184174110305
 32
0.0
  1
有効開口部高サ<>
 71
     5
 42
2070.0
  3
INABA_S40G
100
AcDbAlignedDimension
 13
4864.063987230027
 23
3221.87234700923
 33
0.0
 14
4864.063987230027
 24
1151.87234700923
 34
0.0
 50
90.0
100
AcDbRotatedDimension
1001
ACAD
1000
DSTYLE
1002
{
1070
   174
1070
     0
1070
   272
1070
     1
1070
   288
1070
     0
1070
   341
1005
0
1002
}
  0
DIMENSION
  5
1353B
330
13539
100
AcDbEntity
  8
寸法
100
AcDbDimension
  2
*D14
 10
4020.313858046767
 20
1139.87234700923
 30
0.0
 11
3920.302047023146
 21
2184.872347009231
 31
0.0
 12
-4541.629969684465
 22
-1786.184174110305
 32
0.0
 71
     5
 42
2089.999999999999
  3
INABA_S40G
100
AcDbAlignedDimension
 13
4864.063987230027
 23
3229.87234700923
 33
0.0
 14
4864.063987230027
 24
1139.87234700923
 34
0.0
 50
90.0
100
AcDbRotatedDimension
1001
ACAD
1000
DSTYLE
1002
{
1070
   174
1070
     0
1070
   272
1070
     1
1070
   288
1070
     0
1070
   341
1005
0
1002
}
  0
DIMENSION
  5
1353C
330
13539
100
AcDbEntity
  8
寸法
100
AcDbDimension
  2
*D15
 10
3720.313858046767
 20
3464.872347009235
 30
0.0
 11
3620.302047023145
 21
2277.372347009234
 31
0.0
 12
-4541.629969684465
 22
-1786.184174110305
 32
0.0
 71
     5
 42
2375.000000000004
  3
INABA_S40G
100
AcDbAlignedDimension
 13
4864.063987230027
 23
1089.87234700923
 33
0.0
 14
4804.063987230031
 24
3464.872347009235
 34
0.0
 50
90.0
100
AcDbRotatedDimension
1001
ACAD
1000
DSTYLE
1002
{
1070
   174
1070
     0
1070
   272
1070
     1
1070
   288
1070
     0
1070
   341
1005
0
1002
}
  0
DIMENSION
  5
1353D
330
13539
100
AcDbEntity
  8
寸法
100
AcDbDimension
  2
*D12
 10
7778.991145202155
 20
3409.872347009231
 30
0.0
 11
7678.979334178531
 21
2249.872347009232
 31
0.0
 12
-4541.629969684465
 22
-1786.184174110305
 32
0.0
 71
     5
 42
2320.000000000001
  3
INABA_S40G
100
AcDbAlignedDimension
 13
7074.06398723003
 23
1089.87234700923
 33
0.0
 14
7154.06398723003
 24
3409.872347009231
 34
0.0
 50
90.0
100
AcDbRotatedDimension
1001
ACAD
1000
DSTYLE
1002
{
1070
   174
1070
     0
1070
   272
1070
     1
1070
   288
1070
     0
1070
   341
1005
0
1002
}
  0
LINE
  5
1353E
330
13539
100
AcDbEntity
  8
破線
 48
5.0
100
AcDbLine
 10
6946.563987230034
 20
989.8723470092299
 30
0.0
 11
6946.563987230034
 21
789.872347009229
 31
0.0
  0
LINE
  5
1353F
330
13539
100
AcDbEntity
  8
破線
 48
5.0
100
AcDbLine
 10
7146.563987230031
 20
789.8723470092281
 30
0.0
 11
6946.563987230034
 21
789.872347009229
 31
0.0
  0
LINE
  5
13540
330
13539
100
AcDbEntity
  8
破線
 48
5.0
100
AcDbLine
 10
7146.563987230035
 20
989.8723470092299
 30
0.0
 11
7146.563987230031
 21
789.8723470092281
 31
0.0
  0
DIMENSION
  5
13541
330
13539
100
AcDbEntity
  8
寸法
 48
50.0
100
AcDbDimension
  2
*D11
 10
4791.563987230031
 20
503.8250177088516
 30
0.0
 11
4891.563987230028
 21
503.8250177088516
 31
0.0
 12
-4541.629969684465
 22
-1786.184174110305
 32
0.0
 70
   128
 71
     5
 42
199.9999999999963
  3
INABA_S40G
100
AcDbAlignedDimension
 13
4991.563987230027
 23
789.8723470092277
 33
0.0
 14
4791.563987230031
 24
789.8723470092286
 34
0.0
100
AcDbRotatedDimension
  0
LINE
  5
13542
330
13539
100
AcDbEntity
  8
破線
 48
5.0
100
AcDbLine
 10
4791.563987230027
 20
989.8723470092296
 30
0.0
 11
4791.563987230031
 21
789.8723470092286
 31
0.0
  0
LINE
  5
13543
330
13539
100
AcDbEntity
  8
破線
 48
5.0
100
AcDbLine
 10
4991.563987230027
 20
989.8723470092296
 30
0.0
 11
4991.563987230027
 21
789.8723470092277
 31
0.0
  0
LINE
  5
13544
330
13539
100
AcDbEntity
  8
破線
 48
5.0
100
AcDbLine
 10
4991.563987230027
 20
789.8723470092277
 30
0.0
 11
4791.563987230031
 21
789.8723470092286
 31
0.0
  0
DIMENSION
  5
13545
330
13539
100
AcDbEntity
  8
寸法
 48
50.0
100
AcDbDimension
  2
*D10
 10
4642.063983983393
 20
989.8723470092299
 30
0.0
 11
4642.063983983393
 21
889.8723470092308
 31
0.0
 12
-4541.629969684465
 22
-1786.184174110305
 32
0.0
 70
   128
 71
     5
 42
200.0000000000009
  3
INABA_S40G
100
AcDbAlignedDimension
 13
4791.563987230031
 23
789.8723470092286
 33
0.0
 14
4766.563987230028
 24
989.8723470092296
 34
0.0
 50
90.0
100
AcDbRotatedDimension
1001
ACAD
1000
DSTYLE
1002
{
1070
   174
1070
     0
1070
   272
1070
     1
1070
   288
1070
     0
1070
   341
1005
0
1002
}
  0
DIMENSION
  5
13546
330
13539
100
AcDbEntity
  8
寸法
 48
50.0
100
AcDbDimension
  2
*D9
 10
4243.455580461655
 20
3339.217605882562
 30
0.0
 11
4254.121055720579
 21
3710.064269124259
 31
0.0
 12
-4541.629969684465
 22
-1786.184174110305
 32
0.0
 70
   129
 71
     5
 42
141.0
  3
INABA_S40G
100
AcDbAlignedDimension
 13
4823.460007388607
 23
3463.59509584391
 33
0.0
 14
4819.40655183198
 24
3322.653372078197
 34
0.0
1001
ACAD
1000
DSTYLE
1002
{
1070
   174
1070
     0
1070
   272
1070
     1
1070
   288
1070
     0
1070
   341
1005
0
1002
}
  0
LINE
  5
13547
330
13539
100
AcDbEntity
  8
細線
 48
50.0
100
AcDbLine
 10
6941.563987230034
 20
3229.87234700923
 30
0.0
 11
6941.563987230034
 21
1139.87234700923
 31
0.0
  0
LINE
  5
13548
330
13539
100
AcDbEntity
  8
細線
 48
50.0
100
AcDbLine
 10
6956.563987230035
 20
3229.87234700923
 30
0.0
 11
6956.563987230035
 21
1139.87234700923
 31
0.0
  0
LINE
  5
13549
330
13539
100
AcDbEntity
  8
細線
 48
50.0
100
AcDbLine
 10
6816.563987230034
 20
3229.87234700923
 30
0.0
 11
6816.563987230034
 21
1139.87234700923
 31
0.0
  0
LINE
  5
1354A
330
13539
100
AcDbEntity
  8
細線
 48
50.0
100
AcDbLine
 10
6801.563987230034
 20
3229.87234700923
 30
0.0
 11
6801.563987230034
 21
1139.87234700923
 31
0.0
  0
LINE
  5
1354B
330
13539
100
AcDbEntity
  8
細線
 48
50.0
100
AcDbLine
 10
6661.563987230035
 20
3229.87234700923
 30
0.0
 11
6661.563987230035
 21
1139.87234700923
 31
0.0
  0
LINE
  5
1354C
330
13539
100
AcDbEntity
  8
細線
 48
50.0
100
AcDbLine
 10
6676.563987230034
 20
3229.87234700923
 30
0.0
 11
6676.563987230034
 21
1139.87234700923
 31
0.0
  0
LINE
  5
1354D
330
13539
100
AcDbEntity
  8
部品1
100
AcDbLine
 10
6179.063987230027
 20
3229.87234700923
 30
0.0
 11
6179.063987230027
 21
1139.87234700923
 31
0.0
  0
LINE
  5
1354E
330
13539
100
AcDbEntity
  8
細線
 48
50.0
100
AcDbLine
 10
5836.563987230031
 20
3229.87234700923
 30
0.0
 11
5836.563987230031
 21
1139.87234700923
 31
0.0
  0
LINE
  5
1354F
330
13539
100
AcDbEntity
  8
細線
 48
50.0
100
AcDbLine
 10
5821.563987230031
 20
3229.87234700923
 30
0.0
 11
5821.563987230031
 21
1139.87234700923
 31
0.0
  0
LINE
  5
13550
330
13539
100
AcDbEntity
  8
細線
 48
50.0
100
AcDbLine
 10
5961.563987230031
 20
3229.87234700923
 30
0.0
 11
5961.563987230031
 21
1139.87234700923
 31
0.0
  0
LINE
  5
13551
330
13539
100
AcDbEntity
  8
細線
 48
50.0
100
AcDbLine
 10
5976.563987230031
 20
3229.87234700923
 30
0.0
 11
5976.563987230031
 21
1139.87234700923
 31
0.0
  0
LINE
  5
13552
330
13539
100
AcDbEntity
  8
細線
 48
50.0
100
AcDbLine
 10
6116.563987230031
 20
3229.87234700923
 30
0.0
 11
6116.563987230031
 21
1139.87234700923
 31
0.0
  0
LINE
  5
13553
330
13539
100
AcDbEntity
  8
細線
 48
50.0
100
AcDbLine
 10
6101.563987230031
 20
3229.87234700923
 30
0.0
 11
6101.563987230031
 21
1139.87234700923
 31
0.0
  0
LINE
  5
13554
330
13539
100
AcDbEntity
  8
部品1
100
AcDbLine
 10
5759.063987230027
 20
3229.87234700923
 30
0.0
 11
5759.063987230027
 21
1139.87234700923
 31
0.0
  0
DIMENSION
  5
13555
330
13539
100
AcDbEntity
  8
寸法
 48
50.0
100
AcDbDimension
  2
*D8
 10
7154.063987230028
 20
3863.529800588535
 30
0.0
 11
7360.111231324518
 21
3863.529800588535
 31
0.0
 12
-4541.629969684465
 22
-1786.184174110305
 32
0.0
 70
   128
 71
     5
 42
80.0
  3
INABA_S40G
100
AcDbAlignedDimension
 13
7074.063987230028
 23
3411.683026620884
 33
0.0
 14
7154.063987230028
 24
3409.872347009231
 34
0.0
100
AcDbRotatedDimension
1001
ACAD
1000
DSTYLE
1002
{
1070
   174
1070
     0
1070
   272
1070
     1
1070
   288
1070
     0
1070
   341
1005
0
1002
}
  0
LINE
  5
13556
330
13539
100
AcDbEntity
  8
細線
 48
50.0
100
AcDbLine
 10
4996.563987230029
 20
3229.87234700923
 30
0.0
 11
4996.563987230027
 21
1139.87234700923
 31
0.0
  0
LINE
  5
13557
330
13539
100
AcDbEntity
  8
細線
 48
50.0
100
AcDbLine
 10
4981.563987230028
 20
3229.87234700923
 30
0.0
 11
4981.563987230027
 21
1139.87234700923
 31
0.0
  0
LINE
  5
13558
330
13539
100
AcDbEntity
  8
細線
 48
50.0
100
AcDbLine
 10
5121.563987230029
 20
3229.87234700923
 30
0.0
 11
5121.563987230027
 21
1139.87234700923
 31
0.0
  0
LINE
  5
13559
330
13539
100
AcDbEntity
  8
細線
 48
50.0
100
AcDbLine
 10
5136.563987230029
 20
3229.87234700923
 30
0.0
 11
5136.563987230027
 21
1139.87234700923
 31
0.0
  0
LINE
  5
1355A
330
13539
100
AcDbEntity
  8
細線
 48
50.0
100
AcDbLine
 10
5276.563987230029
 20
3229.87234700923
 30
0.0
 11
5276.563987230026
 21
1139.87234700923
 31
0.0
  0
LINE
  5
1355B
330
13539
100
AcDbEntity
  8
細線
 48
50.0
100
AcDbLine
 10
5261.563987230029
 20
3229.87234700923
 30
0.0
 11
5261.563987230027
 21
1139.87234700923
 31
0.0
  0
LINE
  5
1355C
330
13539
100
AcDbEntity
  8
細線
 48
50.0
100
AcDbLine
 10
5681.563987230028
 20
3229.87234700923
 30
0.0
 11
5681.563987230028
 21
1139.87234700923
 31
0.0
  0
LINE
  5
1355D
330
13539
100
AcDbEntity
  8
細線
 48
50.0
100
AcDbLine
 10
5696.563987230027
 20
3229.87234700923
 30
0.0
 11
5696.563987230027
 21
1139.87234700923
 31
0.0
  0
LINE
  5
1355E
330
13539
100
AcDbEntity
  8
細線
 48
50.0
100
AcDbLine
 10
5556.563987230028
 20
3229.87234700923
 30
0.0
 11
5556.563987230028
 21
1139.87234700923
 31
0.0
  0
LINE
  5
1355F
330
13539
100
AcDbEntity
  8
細線
 48
50.0
100
AcDbLine
 10
5541.563987230027
 20
3229.87234700923
 30
0.0
 11
5541.563987230027
 21
1139.87234700923
 31
0.0
  0
LINE
  5
13560
330
13539
100
AcDbEntity
  8
細線
 48
50.0
100
AcDbLine
 10
5401.563987230026
 20
3229.87234700923
 30
0.0
 11
5401.563987230026
 21
1139.87234700923
 31
0.0
  0
LINE
  5
13561
330
13539
100
AcDbEntity
  8
細線
 48
50.0
100
AcDbLine
 10
5416.563987230027
 20
3229.87234700923
 30
0.0
 11
5416.563987230027
 21
1139.87234700923
 31
0.0
  0
LINE
  5
13562
330
13539
100
AcDbEntity
  8
部品1
100
AcDbLine
 10
4911.563987230027
 20
1089.87234700923
 30
0.0
 11
7026.563987230026
 21
1089.87234700923
 31
0.0
  0
LINE
  5
13563
330
13539
100
AcDbEntity
  8
部品1
100
AcDbLine
 10
7066.563987230027
 20
1089.87234700923
 30
0.0
 11
7074.06398723003
 21
1089.87234700923
 31
0.0
  0
LINE
  5
13564
330
13539
100
AcDbEntity
  8
破線
  6
HIDDEN
 48
5.0
100
AcDbLine
 10
4911.563987230027
 20
989.8723470092296
 30
0.0
 11
4911.563987230027
 21
984.8723470092295
 31
0.0
  0
LINE
  5
13565
330
13539
100
AcDbEntity
  8
破線
  6
HIDDEN
 48
5.0
100
AcDbLine
 10
4871.563987230034
 20
989.8723470092296
 30
0.0
 11
4871.563987230034
 21
984.8723470092304
 31
0.0
  0
LINE
  5
13566
330
13539
100
AcDbEntity
  8
破線
  6
HIDDEN
 48
5.0
100
AcDbLine
 10
7066.563987230027
 20
989.8723470092299
 30
0.0
 11
7066.563987230027
 21
984.87234700923
 31
0.0
  0
LINE
  5
13567
330
13539
100
AcDbEntity
  8
破線
  6
HIDDEN
 48
5.0
100
AcDbLine
 10
7026.563987230026
 20
989.8723470092299
 30
0.0
 11
7026.563987230026
 21
984.87234700923
 31
0.0
  0
ARC
  5
13568
330
13539
100
AcDbEntity
  8
部品1
 48
50.0
100
AcDbCircle
 10
7061.563987230027
 20
1129.87234700923
 30
0.0
 40
5.0
100
AcDbArc
 50
0.0
 51
90.0
  0
ARC
  5
13569
330
13539
100
AcDbEntity
  8
部品1
 48
50.0
100
AcDbCircle
 10
7031.563987230026
 20
1129.87234700923
 30
0.0
 40
5.0
100
AcDbArc
 50
90.0
 51
180.0
  0
LINE
  5
1356A
330
13539
100
AcDbEntity
  8
部品1
100
AcDbLine
 10
7061.563987230027
 20
1134.87234700923
 30
0.0
 11
7031.563987230026
 21
1134.87234700923
 31
0.0
  0
LINE
  5
1356B
330
13539
100
AcDbEntity
  8
部品1
 48
50.0
100
AcDbLine
 10
7066.563987230027
 20
1129.87234700923
 30
0.0
 11
7066.563987230027
 21
989.8723470092299
 31
0.0
  0
LINE
  5
1356C
330
13539
100
AcDbEntity
  8
部品1
 48
50.0
100
AcDbLine
 10
7026.563987230026
 20
1129.87234700923
 30
0.0
 11
7026.563987230026
 21
989.8723470092299
 31
0.0
  0
ARC
  5
1356D
330
13539
100
AcDbEntity
  8
部品1
 48
50.0
100
AcDbCircle
 10
4906.563987230027
 20
1129.87234700923
 30
0.0
 40
5.0
100
AcDbArc
 50
0.0
 51
90.0
  0
ARC
  5
1356E
330
13539
100
AcDbEntity
  8
部品1
 48
50.0
100
AcDbCircle
 10
4876.563987230027
 20
1129.87234700923
 30
0.0
 40
5.0
100
AcDbArc
 50
90.0
 51
180.0
  0
LINE
  5
1356F
330
13539
100
AcDbEntity
  8
部品1
100
AcDbLine
 10
4876.563987230027
 20
1134.87234700923
 30
0.0
 11
4906.563987230027
 21
1134.872347009229
 31
0.0
  0
LINE
  5
13570
330
13539
100
AcDbEntity
  8
部品1
 48
50.0
100
AcDbLine
 10
4911.563987230027
 20
1129.87234700923
 30
0.0
 11
4911.563987230027
 21
989.8723470092296
 31
0.0
  0
LINE
  5
13571
330
13539
100
AcDbEntity
  8
部品1
 48
50.0
100
AcDbLine
 10
4871.563987230027
 20
1129.87234700923
 30
0.0
 11
4871.563987230027
 21
989.8723470092296
 31
0.0
  0
LINE
  5
13572
330
13539
100
AcDbEntity
  8
破線
  6
HIDDEN
 48
5.0
100
AcDbLine
 10
4911.563987230027
 20
984.8723470092295
 30
0.0
 11
4926.563987230027
 21
837.1723470092296
 31
0.0
  0
LINE
  5
13573
330
13539
100
AcDbEntity
  8
破線
  6
HIDDEN
 48
5.0
100
AcDbLine
 10
4871.563987230027
 20
984.8723470092304
 30
0.0
 11
4856.563987230027
 21
837.1723470092296
 31
0.0
  0
LINE
  5
13574
330
13539
100
AcDbEntity
  8
破線
  6
HIDDEN
 48
5.0
100
AcDbLine
 10
4926.563987230027
 20
837.1723470092296
 30
0.0
 11
4926.563987230027
 21
834.8723470092295
 31
0.0
  0
LINE
  5
13575
330
13539
100
AcDbEntity
  8
破線
  6
HIDDEN
 48
5.0
100
AcDbLine
 10
4856.563987230027
 20
837.1723470092296
 30
0.0
 11
4856.563987230027
 21
834.8723470092295
 31
0.0
  0
LINE
  5
13576
330
13539
100
AcDbEntity
  8
破線
  6
HIDDEN
 48
5.0
100
AcDbLine
 10
4856.563987230027
 20
834.8723470092295
 30
0.0
 11
4926.563987230027
 21
834.8723470092295
 31
0.0
  0
LINE
  5
13577
330
13539
100
AcDbEntity
  8
破線
  6
HIDDEN
 48
5.0
100
AcDbLine
 10
7081.563987230026
 20
837.1723470092302
 30
0.0
 11
7081.563987230026
 21
834.87234700923
 31
0.0
  0
LINE
  5
13578
330
13539
100
AcDbEntity
  8
破線
  6
HIDDEN
 48
5.0
100
AcDbLine
 10
7066.563987230027
 20
984.87234700923
 30
0.0
 11
7081.563987230026
 21
837.1723470092302
 31
0.0
  0
LINE
  5
13579
330
13539
100
AcDbEntity
  8
破線
  6
HIDDEN
 48
5.0
100
AcDbLine
 10
7011.563987230028
 20
837.1723470092302
 30
0.0
 11
7011.563987230028
 21
834.87234700923
 31
0.0
  0
LINE
  5
1357A
330
13539
100
AcDbEntity
  8
破線
  6
HIDDEN
 48
5.0
100
AcDbLine
 10
7026.563987230026
 20
984.87234700923
 30
0.0
 11
7011.563987230028
 21
837.1723470092302
 31
0.0
  0
LINE
  5
1357B
330
13539
100
AcDbEntity
  8
破線
  6
HIDDEN
 48
5.0
100
AcDbLine
 10
7081.563987230026
 20
834.87234700923
 30
0.0
 11
7011.563987230028
 21
834.87234700923
 31
0.0
  0
DIMENSION
  5
1357C
330
13539
100
AcDbEntity
  8
寸法
 48
50.0
100
AcDbDimension
  2
*D7
 10
4804.063987230027
 20
4082.731634262826
 30
0.0
 11
6038.407841322496
 21
4082.731634262826
 31
0.0
 12
-4541.629969684465
 22
-1786.184174110305
 32
0.0
 70
   128
 71
     5
 42
2350.0
  3
INABA_S40G
100
AcDbAlignedDimension
 13
7154.063987230028
 23
3409.872347009231
 33
0.0
 14
4804.063987230027
 24
3464.872347009235
 34
0.0
100
AcDbRotatedDimension
1001
ACAD
1000
DSTYLE
1002
{
1070
   174
1070
     0
1070
   272
1070
     1
1070
   288
1070
     0
1070
   341
1005
0
1002
}
  0
DIMENSION
  5
1357D
330
13539
100
AcDbEntity
  8
寸法
 48
50.0
100
AcDbDimension
  2
*D6
 10
4804.063987230027
 20
3863.529800588535
 30
0.0
 11
4494.426191954437
 21
3863.529800588535
 31
0.0
 12
-4541.629969684465
 22
-1786.184174110305
 32
0.0
 70
   128
 71
     5
 42
60.0
  3
INABA_S40G
100
AcDbAlignedDimension
 13
4864.063987230027
 23
3460.873965132207
 33
0.0
 14
4804.063987230027
 24
3464.872347009235
 34
0.0
100
AcDbRotatedDimension
1001
ACAD
1000
DSTYLE
1002
{
1070
   174
1070
     0
1070
   272
1070
     1
1070
   288
1070
     0
1070
   341
1005
0
1002
}
  0
DIMENSION
  5
1357E
330
13539
100
AcDbEntity
  8
寸法
 48
50.0
100
AcDbDimension
  2
*D5
 10
4864.063987230027
 20
3863.529800588535
 30
0.0
 11
5958.70872430054
 21
3863.529800588535
 31
0.0
 12
-4541.629969684465
 22
-1786.184174110305
 32
0.0
 70
   128
  1
柱外寸法<>
 71
     5
 42
2210.0
  3
INABA_S40G
100
AcDbAlignedDimension
 13
7074.063987230028
 23
3411.683026620884
 33
0.0
 14
4864.063987230027
 24
3460.873965132207
 34
0.0
100
AcDbRotatedDimension
1001
ACAD
1000
DSTYLE
1002
{
1070
   174
1070
     0
1070
   272
1070
     1
1070
   288
1070
     0
1070
   341
1005
0
1002
}
  0
LINE
  5
1357F
330
13539
100
AcDbEntity
  8
部品1
100
AcDbLine
 10
6874.06398723003
 20
1089.87234700923
 30
0.0
 11
6874.06398723003
 21
989.8723470092299
 31
0.0
  0
LINE
  5
13580
330
13539
100
AcDbEntity
  8
部品1
100
AcDbLine
 10
5064.063987230027
 20
1089.87234700923
 30
0.0
 11
5064.063987230027
 21
989.8723470092299
 31
0.0
  0
LINE
  5
13581
330
13539
100
AcDbEntity
  8
部品1
100
AcDbLine
 10
7019.063987230032
 20
3229.87234700923
 30
0.0
 11
7019.063987230031
 21
1139.87234700923
 31
0.0
  0
LINE
  5
13582
330
13539
100
AcDbEntity
  8
部品1
100
AcDbLine
 10
7074.063987230028
 20
3284.548784640451
 30
0.0
 11
7074.06398723003
 21
989.8723470092299
 31
0.0
  0
LINE
  5
13583
330
13539
100
AcDbEntity
  8
部品1
100
AcDbLine
 10
5339.063987230026
 20
3229.87234700923
 30
0.0
 11
5339.063987230026
 21
1139.87234700923
 31
0.0
  0
DIMENSION
  5
13584
330
13539
100
AcDbEntity
  8
寸法
100
AcDbDimension
  2
*D4
 10
4020.313858046767
 20
1089.87234700923
 30
0.0
 11
4020.313858046767
 21
783.8251029147422
 31
0.0
 12
-4541.629969684465
 22
-1786.184174110305
 32
0.0
 70
   128
 71
     5
 42
50.0
  3
INABA_S40G
100
AcDbAlignedDimension
 13
4864.063987230027
 23
1139.87234700923
 33
0.0
 14
4809.063987230027
 24
1089.87234700923
 34
0.0
 50
90.0
100
AcDbRotatedDimension
1001
ACAD
1000
DSTYLE
1002
{
1070
   174
1070
     0
1070
   272
1070
     1
1070
   288
1070
     0
1070
   341
1005
0
1002
}
  0
DIMENSION
  5
13585
330
13539
100
AcDbEntity
  8
寸法
100
AcDbDimension
  2
*D3
 10
3720.313858046767
 20
989.8723470092299
 30
0.0
 11
3720.313858046767
 21
753.8251029147422
 31
0.0
 12
-4541.629969684465
 22
-1786.184174110305
 32
0.0
 70
   128
 71
     5
 42
100.0000000000004
  3
INABA_S40G
100
AcDbAlignedDimension
 13
4809.063987230027
 23
1089.87234700923
 33
0.0
 14
3807.562911334895
 24
989.8723470092299
 34
0.0
 50
90.0
100
AcDbRotatedDimension
1001
ACAD
1000
DSTYLE
1002
{
1070
   174
1070
     0
1070
   272
1070
     1
1070
   288
1070
     0
1070
   341
1005
0
1002
}
  0
LINE
  5
13586
330
13539
100
AcDbEntity
  8
部品1
100
AcDbLine
 10
4864.063987230029
 20
3321.898644053817
 30
0.0
 11
4864.063987230027
 21
989.8723470092299
 31
0.0
  0
LINE
  5
13587
330
13539
100
AcDbEntity
  8
部品1
100
AcDbLine
 10
4919.063987230028
 20
3229.87234700923
 30
0.0
 11
4919.063987230027
 21
1139.87234700923
 31
0.0
  0
LINE
  5
13588
330
13539
100
AcDbEntity
  8
部品1
100
AcDbLine
 10
4864.063987230027
 20
1089.87234700923
 30
0.0
 11
4871.563987230027
 21
1089.872347009229
 31
0.0
  0
LINE
  5
13589
330
13539
100
AcDbEntity
  8
部品1
100
AcDbLine
 10
4864.063987230027
 20
1139.87234700923
 30
0.0
 11
7074.06398723003
 21
1139.872347009231
 31
0.0
  0
LINE
  5
1358A
330
13539
100
AcDbEntity
  8
部品1
100
AcDbLine
 10
4864.063987230027
 20
3229.87234700923
 30
0.0
 11
7074.063987230028
 21
3229.87234700923
 31
0.0
  0
LINE
  5
1358B
330
13539
100
AcDbEntity
  8
部品1
100
AcDbLine
 10
6599.063987230028
 20
3229.87234700923
 30
0.0
 11
6599.063987230028
 21
1139.87234700923
 31
0.0
  0
LINE
  5
1358C
330
13539
100
AcDbEntity
  8
細線
 48
50.0
100
AcDbLine
 10
6521.563987230031
 20
3229.87234700923
 30
0.0
 11
6521.563987230031
 21
1139.87234700923
 31
0.0
  0
LINE
  5
1358D
330
13539
100
AcDbEntity
  8
細線
 48
50.0
100
AcDbLine
 10
6536.563987230031
 20
3229.87234700923
 30
0.0
 11
6536.563987230031
 21
1139.87234700923
 31
0.0
  0
LINE
  5
1358E
330
13539
100
AcDbEntity
  8
細線
 48
50.0
100
AcDbLine
 10
6396.563987230031
 20
3229.87234700923
 30
0.0
 11
6396.563987230031
 21
1139.87234700923
 31
0.0
  0
LINE
  5
1358F
330
13539
100
AcDbEntity
  8
細線
 48
50.0
100
AcDbLine
 10
6381.56398723003
 20
3229.87234700923
 30
0.0
 11
6381.56398723003
 21
1139.87234700923
 31
0.0
  0
LINE
  5
13590
330
13539
100
AcDbEntity
  8
細線
 48
50.0
100
AcDbLine
 10
6241.563987230031
 20
3229.87234700923
 30
0.0
 11
6241.563987230031
 21
1139.87234700923
 31
0.0
  0
LINE
  5
13591
330
13539
100
AcDbEntity
  8
細線
 48
50.0
100
AcDbLine
 10
6256.56398723003
 20
3229.87234700923
 30
0.0
 11
6256.56398723003
 21
1139.87234700923
 31
0.0
  0
TEXT
  5
13592
330
13539
100
AcDbEntity
  8
部品1
 48
50.0
100
AcDbText
 10
6284.964845118844
 20
3493.687534284492
 30
0.0
 40
120.0
  1
44
 50
90.0
  7
STYLE1
100
AcDbText
  0
TEXT
  5
13593
330
13539
100
AcDbEntity
  8
部品1
 48
50.0
100
AcDbText
 10
5807.331822453754
 20
3631.188792502774
 30
0.0
 40
120.0
  1
1000
  7
STYLE1
100
AcDbText
  0
LINE
  5
13594
330
13539
100
AcDbEntity
  8
部品1
 48
50.0
100
AcDbLine
 10
6119.063987230028
 20
3595.304770350341
 30
0.0
 11
6119.063987230028
 21
3579.104770350342
 31
0.0
  0
LINE
  5
13595
330
13539
100
AcDbEntity
  8
部品1
 48
50.0
100
AcDbLine
 10
5819.063987230027
 20
3595.304770350341
 30
0.0
 11
6119.063987230028
 21
3595.304770350341
 31
0.0
  0
LINE
  5
13596
330
13539
100
AcDbEntity
  8
部品1
100
AcDbLine
 10
4811.60897358699
 20
3463.590082343497
 30
0.0
 11
7146.675864091491
 21
3408.513144718369
 31
0.0
  0
LINE
  5
13597
330
13539
100
AcDbEntity
  8
部品1
100
AcDbLine
 10
4819.40655183198
 20
3322.653372078197
 30
0.0
 11
7128.727687769876
 21
3283.624946843992
 31
0.0
  0
LINE
  5
13598
330
13539
100
AcDbEntity
  8
細線
 48
50.0
100
AcDbLine
 10
4837.063987230028
 20
3462.272023384635
 30
0.0
 11
4831.77488567452
 21
3322.186390757281
 31
0.0
  0
LINE
  5
13599
330
13539
100
AcDbEntity
  8
細線
 48
50.0
100
AcDbLine
 10
7121.06398723003
 20
3409.839326044526
 30
0.0
 11
7116.316304342032
 21
3284.093553553782
 31
0.0
  0
LINE
  5
1359A
330
13539
100
AcDbEntity
  8
部品1
 48
50.0
100
AcDbLine
 10
4804.248273143134
 20
3456.465893173923
 30
0.0
 11
4804.628532920946
 21
3436.538928727511
 31
0.0
  0
LINE
  5
1359B
330
13539
100
AcDbEntity
  8
部品1
 48
50.0
100
AcDbLine
 10
4807.697305027192
 20
3432.963647234039
 30
0.0
 11
4809.401206518556
 21
3343.673150527392
 31
0.0
  0
LINE
  5
1359C
330
13539
100
AcDbEntity
  8
細線
 48
50.0
100
AcDbLine
 10
4805.103410330841
 20
3435.889428850592
 30
0.0
 11
7150.739395076013
 21
3380.265224209764
 31
0.0
  0
LINE
  5
1359D
330
13539
100
AcDbEntity
  8
細線
 48
50.0
100
AcDbLine
 10
4809.863885568127
 20
3343.027917152728
 30
0.0
 11
7139.867549998766
 21
3303.218598178235
 31
0.0
  0
LINE
  5
1359E
330
13539
100
AcDbEntity
  8
部品1
 48
50.0
100
AcDbLine
 10
4812.469978624799
 20
3340.09786903392
 30
0.0
 11
4812.67193124523
 21
3329.514833640828
 31
0.0
  0
ARC
  5
1359F
330
13539
100
AcDbEntity
  8
部品1
 48
50.0
100
AcDbCircle
 10
4811.246998971474
 20
3456.59944758135
 30
0.0
 40
7.0
100
AcDbArc
 50
87.03587545293501
 51
181.0932240292896
  0
ARC
  5
135A0
330
13539
100
AcDbEntity
  8
部品1
 48
50.0
100
AcDbCircle
 10
4819.67065707357
 20
3329.648388048255
 30
0.0
 40
7.0
100
AcDbArc
 50
181.0932240292896
 51
267.8377559870533
  0
ARC
  5
135A1
330
13539
100
AcDbEntity
  8
部品1
100
AcDbCircle
 10
4809.470524698369
 20
3340.040631430737
 30
0.0
 40
3.0
100
AcDbArc
 50
1.093224029289586
 51
80.18775403159162
  0
ARC
  5
135A2
330
13539
100
AcDbEntity
  8
部品1
100
AcDbCircle
 10
4804.697851100762
 20
3432.906409630856
 30
0.0
 40
3.0
100
AcDbArc
 50
1.093224029289586
 51
80.18775403159162
  0
ARC
  5
135A3
330
13539
100
AcDbEntity
  8
部品1
100
AcDbCircle
 10
4805.328405503784
 20
3436.552284168254
 30
0.0
 40
0.7
100
AcDbArc
 50
181.0932240292114
 51
260.1877540315916
  0
ARC
  5
135A4
330
13539
100
AcDbEntity
  8
部品1
100
AcDbCircle
 10
4810.101079101394
 20
3343.686505968134
 30
0.0
 40
0.7
100
AcDbArc
 50
181.0932240292374
 51
260.1877540315916
  0
LINE
  5
135A5
330
13539
100
AcDbEntity
  8
部品1
 48
50.0
100
AcDbLine
 10
7153.277890040732
 20
3400.813499283449
 30
0.0
 11
7151.247268849762
 21
3380.868458025669
 31
0.0
  0
LINE
  5
135A6
330
13539
100
AcDbEntity
  8
部品1
 48
50.0
100
AcDbLine
 10
7147.894702365281
 20
3377.55782395276
 30
0.0
 11
7140.387923100444
 21
3303.825203207747
 31
0.0
  0
LINE
  5
135A7
330
13539
100
AcDbEntity
  8
部品1
 48
50.0
100
AcDbLine
 10
7137.035356615958
 20
3300.514569134835
 30
0.0
 11
7135.955793576217
 21
3289.910952141277
 31
0.0
  0
ARC
  5
135A8
330
13539
100
AcDbEntity
  8
部品1
 48
50.0
100
AcDbCircle
 10
7146.313889475976
 20
3401.522509956223
 30
0.0
 40
7.0
100
AcDbArc
 50
354.186699766522
 51
87.03587545293501
  0
ARC
  5
135A9
330
13539
100
AcDbEntity
  8
部品1
 48
50.0
100
AcDbCircle
 10
7128.991793011461
 20
3290.619962814051
 30
0.0
 40
7.0
100
AcDbArc
 50
267.8377559870533
 51
354.186699766522
  0
ARC
  5
135AA
330
13539
100
AcDbEntity
  8
部品1
100
AcDbCircle
 10
7140.019928286566
 20
3300.210707417932
 30
0.0
 40
3.0
100
AcDbArc
 50
95.0921697642102
 51
174.1866997665219
  0
ARC
  5
135AB
330
13539
100
AcDbEntity
  8
部品1
100
AcDbCircle
 10
7150.879274035891
 20
3377.253962235857
 30
0.0
 40
3.0
100
AcDbArc
 50
95.09216976431515
 51
174.1866997665219
  0
ARC
  5
135AC
330
13539
100
AcDbEntity
  8
部品1
100
AcDbCircle
 10
7150.550868793288
 20
3380.939359092946
 30
0.0
 40
0.7
100
AcDbArc
 50
275.0921697642102
 51
354.186699766522
  0
ARC
  5
135AD
330
13539
100
AcDbEntity
  8
部品1
100
AcDbCircle
 10
7139.69152304397
 20
3303.896104275022
 30
0.0
 40
0.7
100
AcDbArc
 50
275.0921697642102
 51
354.1866997666775
  0
LINE
  5
135AE
330
13539
100
AcDbEntity
  8
部品1
 48
50.0
100
AcDbLine
 10
5869.063987230028
 20
1089.87234700923
 30
0.0
 11
5869.063987230028
 21
989.8723470092299
 31
0.0
  0
LINE
  5
135AF
330
13539
100
AcDbEntity
  8
部品1
 48
50.0
100
AcDbLine
 10
6069.063987230027
 20
1089.87234700923
 30
0.0
 11
6069.063987230027
 21
989.8723470092299
 31
0.0
  0
LINE
  5
135B0
330
13539
100
AcDbEntity
  8
部品1
100
AcDbLine
 10
5793.60897358699
 20
3596.622829309203
 30
0.0
 11
6119.063987230028
 21
3579.104770350342
 31
0.0
  0
TEXT
  5
135B1
330
13539
100
AcDbEntity
  8
部品1
100
AcDbText
 10
5686.774755539416
 20
46.99878952088783
 30
0.0
 40
135.0
  1
側面図
  7
STYLE2
100
AcDbText
  0
LWPOLYLINE
  5
135B2
330
13539
100
AcDbEntity
  8
部品1
100
AcDbPolyline
 90
        4
 70
     1
 43
0.0
 10
5597.328654115809
 20
239.8923187394112
 10
5597.328654115809
 20
-0.0000028061213015
 10
6360.799320344248
 20
-0.0000028061213015
 10
6360.799320344248
 20
239.8923187394112
  0
LINE
  5
135B3
330
13539
100
AcDbEntity
  8
Ｇ．Ｌ
100
AcDbLine
 10
0.0000027520436561
 20
989.8723470092299
 30
0.0
 11
7731.43008411079
 21
989.8723470092299
 31
0.0
  0
ENDBLK
  5
135B5
330
13539
100
AcDbEntity
  8
0
 48
50.0
100
AcDbBlockEnd
  0
BLOCK
  5
13F76
330
13F6A
100
AcDbEntity
  8
0
 48
50.0
100
AcDbBlockBegin
  2
*D17
 70
     1
 10
0.0
 20
0.0
 30
0.0
  3
*D17
  1

  0
LINE
  5
14338
330
13F6A
100
AcDbEntity
  8
寸法
 62
     0
 48
50.0
370
    -2
100
AcDbLine
 10
3578.904397928898
 20
4683.112805903264
 30
0.0
 11
3578.904397928898
 21
4935.654391161502
 31
0.0
  0
LINE
  5
14339
330
13F6A
100
AcDbEntity
  8
寸法
 62
     0
 48
50.0
370
    -2
100
AcDbLine
 10
3528.904397928898
 20
4683.112805903262
 30
0.0
 11
3528.904397928898
 21
4935.654391161502
 31
0.0
  0
LINE
  5
1433A
330
13F6A
100
AcDbEntity
  8
寸法
 62
     0
 48
50.0
370
    -2
100
AcDbLine
 10
3578.904397928898
 20
4875.654391161502
 30
0.0
 11
3678.904397928898
 21
4875.654391161502
 31
0.0
  0
LINE
  5
1433B
330
13F6A
100
AcDbEntity
  8
寸法
 62
     0
 48
50.0
370
    -2
100
AcDbLine
 10
3528.904397928898
 20
4875.654391161502
 30
0.0
 11
3109.371872460163
 21
4875.654391161502
 31
0.0
  0
LINE
  5
1433C
330
13F6A
100
AcDbEntity
  8
寸法
 62
     0
 48
50.0
370
    -2
100
AcDbLine
 10
3578.904397928898
 20
4875.654391161502
 30
0.0
 11
3528.904397928898
 21
4875.654391161502
 31
0.0
  0
INSERT
  5
1433D
330
13F6A
100
AcDbEntity
  8
寸法
 62
     0
 48
50.0
370
    -2
100
AcDbBlockReference
  2
_DOTSMALL
 10
3578.904397928898
 20
4875.654391161502
 30
0.0
 41
100.0
 42
100.0
 43
100.0
 50
180.0
  0
INSERT
  5
1433E
330
13F6A
100
AcDbEntity
  8
寸法
 62
     0
 48
50.0
370
    -2
100
AcDbBlockReference
  2
_DOTSMALL
 10
3528.904397928898
 20
4875.654391161502
 30
0.0
 41
100.0
 42
100.0
 43
100.0
  0
MTEXT
  5
1433F
330
13F6A
100
AcDbEntity
  8
寸法
 62
     7
 48
50.0
100
AcDbMText
 10
3215.419116554651
 20
4975.654391161501
 30
0.0
 40
120.0
 41
0.0
 71
     5
 72
     1
  1
\A1;50
  7
STYLE1
 73
     1
 44
1.0
1001
ACAD
1000
MTEXTBEGIN
1070
    73
1070
     1
1070
    44
1040
1.0
1070
    74
1070
     0
1000
MTEXTEND
  0
POINT
  5
14340
330
13F6A
100
AcDbEntity
  8
DEFPOINTS
 62
     0
 48
50.0
100
AcDbPoint
 10
3578.904397928898
 20
4663.112805903264
 30
0.0
  0
POINT
  5
14341
330
13F6A
100
AcDbEntity
  8
DEFPOINTS
 62
     0
 48
50.0
100
AcDbPoint
 10
3528.904397928898
 20
4663.112805903263
 30
0.0
  0
POINT
  5
14342
330
13F6A
100
AcDbEntity
  8
DEFPOINTS
 62
     0
 48
50.0
100
AcDbPoint
 10
3528.904397928898
 20
4875.654391161502
 30
0.0
  0
ENDBLK
  5
13F77
330
13F6A
100
AcDbEntity
  8
0
 48
50.0
100
AcDbBlockEnd
  0
BLOCK
  5
13F82
330
13F78
100
AcDbEntity
  8
0
 48
50.0
100
AcDbBlockBegin
  2
*D18
 70
     1
 10
0.0
 20
0.0
 30
0.0
  3
*D18
  1

  0
LINE
  5
1432F
330
13F78
100
AcDbEntity
  8
寸法
 62
     0
 48
50.0
370
    -2
100
AcDbLine
 10
3528.904397928898
 20
4683.112805903262
 30
0.0
 11
3528.904397928898
 21
5156.55969163525
 31
0.0
  0
LINE
  5
14330
330
13F78
100
AcDbEntity
  8
寸法
 62
     0
 48
50.0
370
    -2
100
AcDbLine
 10
8048.904397928902
 20
4683.112805903258
 30
0.0
 11
8048.904397928902
 21
5156.55969163525
 31
0.0
  0
LINE
  5
14331
330
13F78
100
AcDbEntity
  8
寸法
 62
     0
 48
50.0
370
    -2
100
AcDbLine
 10
3528.904397928898
 20
5096.559691635249
 30
0.0
 11
8048.904397928902
 21
5096.559691635249
 31
0.0
  0
INSERT
  5
14332
330
13F78
100
AcDbEntity
  8
寸法
 62
     0
 48
50.0
370
    -2
100
AcDbBlockReference
  2
_DOTSMALL
 10
3528.904397928898
 20
5096.559691635249
 30
0.0
 41
100.0
 42
100.0
 43
100.0
 50
180.0
  0
INSERT
  5
14333
330
13F78
100
AcDbEntity
  8
寸法
 62
     0
 48
50.0
370
    -2
100
AcDbBlockReference
  2
_DOTSMALL
 10
8048.904397928902
 20
5096.559691635249
 30
0.0
 41
100.0
 42
100.0
 43
100.0
  0
MTEXT
  5
14334
330
13F78
100
AcDbEntity
  8
寸法
 62
     7
 48
50.0
100
AcDbMText
 10
5788.9043979289
 20
5196.571502658872
 30
0.0
 40
120.0
 41
0.0
 71
     5
 72
     1
  1
\A1;4520
  7
STYLE1
 73
     1
 44
1.0
1001
ACAD
1000
MTEXTBEGIN
1070
    73
1070
     1
1070
    44
1040
1.0
1070
    74
1070
     0
1000
MTEXTEND
  0
POINT
  5
14335
330
13F78
100
AcDbEntity
  8
DEFPOINTS
 62
     0
 48
50.0
100
AcDbPoint
 10
3528.904397928898
 20
4663.112805903263
 30
0.0
  0
POINT
  5
14336
330
13F78
100
AcDbEntity
  8
DEFPOINTS
 62
     0
 48
50.0
100
AcDbPoint
 10
8048.904397928902
 20
4663.112805903258
 30
0.0
  0
POINT
  5
14337
330
13F78
100
AcDbEntity
  8
DEFPOINTS
 62
     0
 48
50.0
100
AcDbPoint
 10
8048.904397928902
 20
5096.559691635249
 30
0.0
  0
ENDBLK
  5
13F83
330
13F78
100
AcDbEntity
  8
0
 48
50.0
100
AcDbBlockEnd
  0
BLOCK
  5
13F90
330
13F84
100
AcDbEntity
  8
0
 48
50.0
100
AcDbBlockBegin
  2
*D19
 70
     1
 10
0.0
 20
0.0
 30
0.0
  3
*D19
  1

  0
LINE
  5
14324
330
13F84
100
AcDbEntity
  8
寸法
 62
     0
 48
50.0
370
    -2
100
AcDbLine
 10
8048.904397928902
 20
4683.112805903258
 30
0.0
 11
8048.904397928902
 21
4935.654391161499
 31
0.0
  0
LINE
  5
14325
330
13F84
100
AcDbEntity
  8
寸法
 62
     0
 48
50.0
370
    -2
100
AcDbLine
 10
7998.904397928902
 20
4683.11280590326
 30
0.0
 11
7998.904397928902
 21
4935.654391161499
 31
0.0
  0
LINE
  5
14326
330
13F84
100
AcDbEntity
  8
寸法
 62
     0
 48
50.0
370
    -2
100
AcDbLine
 10
7998.904397928902
 20
4875.654391161499
 30
0.0
 11
7898.904397928902
 21
4875.654391161499
 31
0.0
  0
LINE
  5
14327
330
13F84
100
AcDbEntity
  8
寸法
 62
     0
 48
50.0
370
    -2
100
AcDbLine
 10
8048.904397928902
 20
4875.654391161499
 30
0.0
 11
8468.436923397625
 21
4875.654391161499
 31
0.0
  0
LINE
  5
14328
330
13F84
100
AcDbEntity
  8
寸法
 62
     0
 48
50.0
370
    -2
100
AcDbLine
 10
7998.904397928902
 20
4875.654391161499
 30
0.0
 11
8048.904397928902
 21
4875.654391161499
 31
0.0
  0
INSERT
  5
14329
330
13F84
100
AcDbEntity
  8
寸法
 62
     0
 48
50.0
370
    -2
100
AcDbBlockReference
  2
_DOTSMALL
 10
7998.904397928902
 20
4875.654391161499
 30
0.0
 41
100.0
 42
100.0
 43
100.0
  0
INSERT
  5
1432A
330
13F84
100
AcDbEntity
  8
寸法
 62
     0
 48
50.0
370
    -2
100
AcDbBlockReference
  2
_DOTSMALL
 10
8048.904397928902
 20
4875.654391161499
 30
0.0
 41
100.0
 42
100.0
 43
100.0
 50
180.0
  0
MTEXT
  5
1432B
330
13F84
100
AcDbEntity
  8
寸法
 62
     7
 48
50.0
100
AcDbMText
 10
8362.389679303138
 20
4975.654391161499
 30
0.0
 40
120.0
 41
0.0
 71
     5
 72
     1
  1
\A1;50
  7
STYLE1
 73
     1
 44
1.0
1001
ACAD
1000
MTEXTBEGIN
1070
    73
1070
     1
1070
    44
1040
1.0
1070
    74
1070
     0
1000
MTEXTEND
  0
POINT
  5
1432C
330
13F84
100
AcDbEntity
  8
DEFPOINTS
 62
     0
 48
50.0
100
AcDbPoint
 10
8048.904397928902
 20
4663.112805903258
 30
0.0
  0
POINT
  5
1432D
330
13F84
100
AcDbEntity
  8
DEFPOINTS
 62
     0
 48
50.0
100
AcDbPoint
 10
7998.904397928902
 20
4663.112805903259
 30
0.0
  0
POINT
  5
1432E
330
13F84
100
AcDbEntity
  8
DEFPOINTS
 62
     0
 48
50.0
100
AcDbPoint
 10
7998.904397928902
 20
4875.654391161499
 30
0.0
  0
ENDBLK
  5
13F91
330
13F84
100
AcDbEntity
  8
0
 48
50.0
100
AcDbBlockEnd
  0
BLOCK
  5
13F9C
330
13F92
100
AcDbEntity
  8
0
 48
50.0
100
AcDbBlockBegin
  2
*D20
 70
     1
 10
0.0
 20
0.0
 30
0.0
  3
*D20
  1

  0
LINE
  5
1431B
330
13F92
100
AcDbEntity
  8
寸法
 62
     0
 48
50.0
370
    -2
100
AcDbLine
 10
7998.904397928902
 20
4683.11280590326
 30
0.0
 11
7998.904397928902
 21
4935.6543911615
 31
0.0
  0
LINE
  5
1431C
330
13F92
100
AcDbEntity
  8
寸法
 62
     0
 48
50.0
370
    -2
100
AcDbLine
 10
3578.904397928898
 20
4683.112805903264
 30
0.0
 11
3578.904397928898
 21
4935.6543911615
 31
0.0
  0
LINE
  5
1431D
330
13F92
100
AcDbEntity
  8
寸法
 62
     0
 48
50.0
370
    -2
100
AcDbLine
 10
7998.904397928902
 20
4875.6543911615
 30
0.0
 11
3578.904397928898
 21
4875.6543911615
 31
0.0
  0
INSERT
  5
1431E
330
13F92
100
AcDbEntity
  8
寸法
 62
     0
 48
50.0
370
    -2
100
AcDbBlockReference
  2
_DOTSMALL
 10
7998.904397928902
 20
4875.6543911615
 30
0.0
 41
100.0
 42
100.0
 43
100.0
  0
INSERT
  5
1431F
330
13F92
100
AcDbEntity
  8
寸法
 62
     0
 48
50.0
370
    -2
100
AcDbBlockReference
  2
_DOTSMALL
 10
3578.904397928898
 20
4875.6543911615
 30
0.0
 41
100.0
 42
100.0
 43
100.0
 50
180.0
  0
MTEXT
  5
14320
330
13F92
100
AcDbEntity
  8
寸法
 62
     7
 48
50.0
100
AcDbMText
 10
5788.9043979289
 20
4975.666202185122
 30
0.0
 40
120.0
 41
0.0
 71
     5
 72
     1
  1
\A1;柱外寸法4420
  7
STYLE1
 73
     1
 44
1.0
1001
ACAD
1000
MTEXTBEGIN
1070
    73
1070
     1
1070
    44
1040
1.0
1070
    74
1070
     0
1000
MTEXTEND
  0
POINT
  5
14321
330
13F92
100
AcDbEntity
  8
DEFPOINTS
 62
     0
 48
50.0
100
AcDbPoint
 10
7998.904397928902
 20
4663.112805903259
 30
0.0
  0
POINT
  5
14322
330
13F92
100
AcDbEntity
  8
DEFPOINTS
 62
     0
 48
50.0
100
AcDbPoint
 10
3578.904397928898
 20
4663.112805903264
 30
0.0
  0
POINT
  5
14323
330
13F92
100
AcDbEntity
  8
DEFPOINTS
 62
     0
 48
50.0
100
AcDbPoint
 10
3578.904397928898
 20
4875.6543911615
 30
0.0
  0
ENDBLK
  5
13F9D
330
13F92
100
AcDbEntity
  8
0
 48
50.0
100
AcDbBlockEnd
  0
BLOCK
  5
13FE8
330
13FDE
100
AcDbEntity
  8
0
 48
50.0
100
AcDbBlockBegin
  2
*D21
 70
     1
 10
0.0
 20
0.0
 30
0.0
  3
*D21
  1

  0
LINE
  5
14717
330
13FDE
100
AcDbEntity
  8
寸法
 62
     0
 48
50.0
370
    -2
100
AcDbLine
 10
11265.72067958069
 20
4379.112805903257
 30
0.0
 11
10777.81203818343
 21
4379.112805903257
 31
0.0
  0
LINE
  5
14718
330
13FDE
100
AcDbEntity
  8
寸法
 62
     0
 48
50.0
370
    -2
100
AcDbLine
 10
11265.72067958068
 20
2354.112805903256
 30
0.0
 11
10777.81203818343
 21
2354.112805903257
 31
0.0
  0
LINE
  5
14719
330
13FDE
100
AcDbEntity
  8
寸法
 62
     0
 48
50.0
370
    -2
100
AcDbLine
 10
10817.81203818343
 20
4359.112805903256
 30
0.0
 11
10817.81203818343
 21
2374.112805903257
 31
0.0
  0
INSERT
  5
1471A
330
13FDE
100
AcDbEntity
  8
寸法
 62
     0
 48
50.0
370
    -2
100
AcDbBlockReference
  2
_DOT
 10
10817.81203818343
 20
4379.112805903257
 30
0.0
 41
20.0
 42
20.0
 43
20.0
 50
90.0
  0
INSERT
  5
1471B
330
13FDE
100
AcDbEntity
  8
寸法
 62
     0
 48
50.0
370
    -2
100
AcDbBlockReference
  2
_DOT
 10
10817.81203818343
 20
2354.112805903257
 30
0.0
 41
20.0
 42
20.0
 43
20.0
 50
270.0
  0
MTEXT
  5
1471C
330
13FDE
100
AcDbEntity
  8
寸法
 62
     7
 48
50.0
100
AcDbMText
 10
10725.80022715981
 20
3366.612805903259
 30
0.0
 40
120.0
 41
0.0
 71
     5
 72
     1
  1
\A1;有効開口部高サ2025
  7
STYLE1
 11
0.0000000000000001
 21
1.0
 31
0.0
 73
     1
 44
1.0
1001
ACAD
1000
MTEXTBEGIN
1070
    73
1070
     1
1070
    44
1040
1.0
1070
    74
1070
     0
1000
MTEXTEND
  0
POINT
  5
1471D
330
13FDE
100
AcDbEntity
  8
DEFPOINTS
 62
     0
 48
50.0
100
AcDbPoint
 10
11285.72067958069
 20
4379.112805903257
 30
0.0
  0
POINT
  5
1471E
330
13FDE
100
AcDbEntity
  8
DEFPOINTS
 62
     0
 48
50.0
100
AcDbPoint
 10
11285.72067958068
 20
2354.112805903256
 30
0.0
  0
POINT
  5
1471F
330
13FDE
100
AcDbEntity
  8
DEFPOINTS
 62
     0
 48
50.0
100
AcDbPoint
 10
10817.81203818343
 20
2354.112805903257
 30
0.0
  0
ENDBLK
  5
13FE9
330
13FDE
100
AcDbEntity
  8
0
 48
50.0
100
AcDbBlockEnd
  0
BLOCK
  5
14034
330
1402A
100
AcDbEntity
  8
0
 48
50.0
100
AcDbBlockBegin
  2
*D22
 70
     1
 10
0.0
 20
0.0
 30
0.0
  3
*D22
  1

  0
LINE
  5
163C2
330
1402A
100
AcDbEntity
  8
寸法
 62
     0
 48
50.0
370
    -2
100
AcDbLine
 10
5733.904397928898
 20
10044.96343361073
 30
0.0
 11
5733.904397928898
 21
10439.67584362952
 31
0.0
  0
LINE
  5
163C3
330
1402A
100
AcDbEntity
  8
寸法
 62
     0
 48
50.0
370
    -2
100
AcDbLine
 10
5843.904397928898
 20
10044.96343361073
 30
0.0
 11
5843.904397928898
 21
10439.67584362952
 31
0.0
  0
LINE
  5
163C4
330
1402A
100
AcDbEntity
  8
寸法
 62
     0
 48
50.0
370
    -2
100
AcDbLine
 10
5753.904397928899
 20
10399.67584362952
 30
0.0
 11
5823.904397928898
 21
10399.67584362952
 31
0.0
  0
INSERT
  5
163C5
330
1402A
100
AcDbEntity
  8
寸法
 62
     0
 48
50.0
370
    -2
100
AcDbBlockReference
  2
_DOT
 10
5733.904397928898
 20
10399.67584362952
 30
0.0
 41
20.0
 42
20.0
 43
20.0
 50
180.0
  0
INSERT
  5
163C6
330
1402A
100
AcDbEntity
  8
寸法
 62
     0
 48
50.0
370
    -2
100
AcDbBlockReference
  2
_DOT
 10
5843.904397928898
 20
10399.67584362952
 30
0.0
 41
20.0
 42
20.0
 43
20.0
  0
MTEXT
  5
163C7
330
1402A
100
AcDbEntity
  8
寸法
 62
     7
 48
50.0
100
AcDbMText
 10
5788.904397928899
 20
10491.67584362952
 30
0.0
 40
120.0
 41
0.0
 71
     5
 72
     1
  1
\A1;110
  7
STYLE1
 73
     1
 44
1.0
1001
ACAD
1000
MTEXTBEGIN
1070
    73
1070
     1
1070
    44
1040
1.0
1070
    74
1070
     0
1000
MTEXTEND
  0
POINT
  5
163C8
330
1402A
100
AcDbEntity
  8
DEFPOINTS
 62
     0
 48
50.0
100
AcDbPoint
 10
5733.904397928898
 20
10024.96343361073
 30
0.0
  0
POINT
  5
163C9
330
1402A
100
AcDbEntity
  8
DEFPOINTS
 62
     0
 48
50.0
100
AcDbPoint
 10
5843.904397928898
 20
10024.96343361073
 30
0.0
  0
POINT
  5
163CA
330
1402A
100
AcDbEntity
  8
DEFPOINTS
 62
     0
 48
50.0
100
AcDbPoint
 10
5843.904397928898
 20
10399.67584362952
 30
0.0
  0
ENDBLK
  5
14035
330
1402A
100
AcDbEntity
  8
0
 48
50.0
100
AcDbBlockEnd
  0
BLOCK
  5
14040
330
14036
100
AcDbEntity
  8
0
 48
50.0
100
AcDbBlockBegin
  2
*D23
 70
     1
 10
0.0
 20
0.0
 30
0.0
  3
*D23
  1

  0
LINE
  5
163B9
330
14036
100
AcDbEntity
  8
寸法
 62
     0
 48
50.0
370
    -2
100
AcDbLine
 10
5843.904397928898
 20
10044.96343361073
 30
0.0
 11
5843.904397928898
 21
10439.67584362952
 31
0.0
  0
LINE
  5
163BA
330
14036
100
AcDbEntity
  8
寸法
 62
     0
 48
50.0
370
    -2
100
AcDbLine
 10
7943.904397928898
 20
10044.96343361073
 30
0.0
 11
7943.904397928898
 21
10439.67584362952
 31
0.0
  0
LINE
  5
163BB
330
14036
100
AcDbEntity
  8
寸法
 62
     0
 48
50.0
370
    -2
100
AcDbLine
 10
5863.904397928898
 20
10399.67584362952
 30
0.0
 11
7923.904397928898
 21
10399.67584362952
 31
0.0
  0
INSERT
  5
163BC
330
14036
100
AcDbEntity
  8
寸法
 62
     0
 48
50.0
370
    -2
100
AcDbBlockReference
  2
_DOT
 10
5843.904397928898
 20
10399.67584362952
 30
0.0
 41
20.0
 42
20.0
 43
20.0
 50
180.0
  0
INSERT
  5
163BD
330
14036
100
AcDbEntity
  8
寸法
 62
     0
 48
50.0
370
    -2
100
AcDbBlockReference
  2
_DOT
 10
7943.904397928898
 20
10399.67584362952
 30
0.0
 41
20.0
 42
20.0
 43
20.0
  0
MTEXT
  5
163BE
330
14036
100
AcDbEntity
  8
寸法
 62
     7
 48
50.0
100
AcDbMText
 10
6893.904397928898
 20
10491.68765465314
 30
0.0
 40
120.0
 41
0.0
 71
     5
 72
     1
  1
\A1;5X420=2100
  7
STYLE1
 73
     1
 44
1.0
1001
ACAD
1000
MTEXTBEGIN
1070
    73
1070
     1
1070
    44
1040
1.0
1070
    74
1070
     0
1000
MTEXTEND
  0
POINT
  5
163BF
330
14036
100
AcDbEntity
  8
DEFPOINTS
 62
     0
 48
50.0
100
AcDbPoint
 10
5843.904397928898
 20
10024.96343361073
 30
0.0
  0
POINT
  5
163C0
330
14036
100
AcDbEntity
  8
DEFPOINTS
 62
     0
 48
50.0
100
AcDbPoint
 10
7943.904397928898
 20
10024.96343361073
 30
0.0
  0
POINT
  5
163C1
330
14036
100
AcDbEntity
  8
DEFPOINTS
 62
     0
 48
50.0
100
AcDbPoint
 10
7943.904397928898
 20
10399.67584362952
 30
0.0
  0
ENDBLK
  5
14041
330
14036
100
AcDbEntity
  8
0
 48
50.0
100
AcDbBlockEnd
  0
BLOCK
  5
1405A
330
1404E
100
AcDbEntity
  8
0
 48
50.0
100
AcDbBlockBegin
  2
*D24
 70
     1
 10
0.0
 20
0.0
 30
0.0
  3
*D24
  1

  0
LINE
  5
163AE
330
1404E
100
AcDbEntity
  8
寸法
 62
     0
 48
50.0
370
    -2
100
AcDbLine
 10
3578.904397928898
 20
10044.96343361072
 30
0.0
 11
3578.904397928898
 21
10439.67584362952
 31
0.0
  0
LINE
  5
163AF
330
1404E
100
AcDbEntity
  8
寸法
 62
     0
 48
50.0
370
    -2
100
AcDbLine
 10
3633.904397928898
 20
10044.96343361073
 30
0.0
 11
3633.904397928898
 21
10439.67584362952
 31
0.0
  0
LINE
  5
163B0
330
1404E
100
AcDbEntity
  8
寸法
 62
     0
 48
50.0
370
    -2
100
AcDbLine
 10
3653.904397928898
 20
10399.67584362952
 30
0.0
 11
3673.904397928898
 21
10399.67584362952
 31
0.0
  0
LINE
  5
163B1
330
1404E
100
AcDbEntity
  8
寸法
 62
     0
 48
50.0
370
    -2
100
AcDbLine
 10
3558.904397928898
 20
10399.67584362952
 30
0.0
 11
3084.252449887994
 21
10399.67584362952
 31
0.0
  0
LINE
  5
163B2
330
1404E
100
AcDbEntity
  8
寸法
 62
     0
 48
50.0
370
    -2
100
AcDbLine
 10
3633.904397928898
 20
10399.67584362952
 30
0.0
 11
3578.904397928898
 21
10399.67584362952
 31
0.0
  0
INSERT
  5
163B3
330
1404E
100
AcDbEntity
  8
寸法
 62
     0
 48
50.0
370
    -2
100
AcDbBlockReference
  2
_DOT
 10
3633.904397928898
 20
10399.67584362952
 30
0.0
 41
20.0
 42
20.0
 43
20.0
 50
180.0
  0
INSERT
  5
163B4
330
1404E
100
AcDbEntity
  8
寸法
 62
     0
 48
50.0
370
    -2
100
AcDbBlockReference
  2
_DOT
 10
3578.904397928898
 20
10399.67584362952
 30
0.0
 41
20.0
 42
20.0
 43
20.0
  0
MTEXT
  5
163B5
330
1404E
100
AcDbEntity
  8
寸法
 62
     7
 48
50.0
100
AcDbMText
 10
3184.737731262232
 20
10491.67584362952
 30
0.0
 40
120.0
 41
0.0
 71
     5
 72
     1
  1
\A1;55
  7
STYLE1
 73
     1
 44
1.0
1001
ACAD
1000
MTEXTBEGIN
1070
    73
1070
     1
1070
    44
1040
1.0
1070
    74
1070
     0
1000
MTEXTEND
  0
POINT
  5
163B6
330
1404E
100
AcDbEntity
  8
DEFPOINTS
 62
     0
 48
50.0
100
AcDbPoint
 10
3578.904397928898
 20
10024.96343361072
 30
0.0
  0
POINT
  5
163B7
330
1404E
100
AcDbEntity
  8
DEFPOINTS
 62
     0
 48
50.0
100
AcDbPoint
 10
3633.904397928898
 20
10024.96343361073
 30
0.0
  0
POINT
  5
163B8
330
1404E
100
AcDbEntity
  8
DEFPOINTS
 62
     0
 48
50.0
100
AcDbPoint
 10
3633.904397928898
 20
10399.67584362952
 30
0.0
  0
ENDBLK
  5
1405B
330
1404E
100
AcDbEntity
  8
0
 48
50.0
100
AcDbBlockEnd
  0
BLOCK
  5
14072
330
14068
100
AcDbEntity
  8
0
 48
50.0
100
AcDbBlockBegin
  2
*D25
 70
     1
 10
0.0
 20
0.0
 30
0.0
  3
*D25
  1

  0
LINE
  5
163A5
330
14068
100
AcDbEntity
  8
寸法
 62
     0
 48
50.0
370
    -2
100
AcDbLine
 10
3633.904397928898
 20
10044.96343361073
 30
0.0
 11
3633.904397928898
 21
10439.67584362952
 31
0.0
  0
LINE
  5
163A6
330
14068
100
AcDbEntity
  8
寸法
 62
     0
 48
50.0
370
    -2
100
AcDbLine
 10
5733.904397928898
 20
10044.96343361073
 30
0.0
 11
5733.904397928898
 21
10439.67584362952
 31
0.0
  0
LINE
  5
163A7
330
14068
100
AcDbEntity
  8
寸法
 62
     0
 48
50.0
370
    -2
100
AcDbLine
 10
3653.904397928898
 20
10399.67584362952
 30
0.0
 11
5713.904397928899
 21
10399.67584362952
 31
0.0
  0
INSERT
  5
163A8
330
14068
100
AcDbEntity
  8
寸法
 62
     0
 48
50.0
370
    -2
100
AcDbBlockReference
  2
_DOT
 10
3633.904397928898
 20
10399.67584362952
 30
0.0
 41
20.0
 42
20.0
 43
20.0
 50
180.0
  0
INSERT
  5
163A9
330
14068
100
AcDbEntity
  8
寸法
 62
     0
 48
50.0
370
    -2
100
AcDbBlockReference
  2
_DOT
 10
5733.904397928898
 20
10399.67584362952
 30
0.0
 41
20.0
 42
20.0
 43
20.0
  0
MTEXT
  5
163AA
330
14068
100
AcDbEntity
  8
寸法
 62
     7
 48
50.0
100
AcDbMText
 10
4683.904397928897
 20
10491.68765465314
 30
0.0
 40
120.0
 41
0.0
 71
     5
 72
     1
  1
\A1;5X420=2100
  7
STYLE1
 73
     1
 44
1.0
1001
ACAD
1000
MTEXTBEGIN
1070
    73
1070
     1
1070
    44
1040
1.0
1070
    74
1070
     0
1000
MTEXTEND
  0
POINT
  5
163AB
330
14068
100
AcDbEntity
  8
DEFPOINTS
 62
     0
 48
50.0
100
AcDbPoint
 10
3633.904397928898
 20
10024.96343361073
 30
0.0
  0
POINT
  5
163AC
330
14068
100
AcDbEntity
  8
DEFPOINTS
 62
     0
 48
50.0
100
AcDbPoint
 10
5733.904397928898
 20
10024.96343361073
 30
0.0
  0
POINT
  5
163AD
330
14068
100
AcDbEntity
  8
DEFPOINTS
 62
     0
 48
50.0
100
AcDbPoint
 10
5733.904397928898
 20
10399.67584362952
 30
0.0
  0
ENDBLK
  5
14073
330
14068
100
AcDbEntity
  8
0
 48
50.0
100
AcDbBlockEnd
  0
BLOCK
  5
1407E
330
14074
100
AcDbEntity
  8
0
 48
50.0
100
AcDbBlockBegin
  2
*D26
 70
     1
 10
0.0
 20
0.0
 30
0.0
  3
*D26
  1

  0
LINE
  5
1639C
330
14074
100
AcDbEntity
  8
寸法
 62
     0
 48
50.0
370
    -2
100
AcDbLine
 10
3578.904397928898
 20
10044.96343361072
 30
0.0
 11
3578.904397928898
 21
10739.67584362952
 31
0.0
  0
LINE
  5
1639D
330
14074
100
AcDbEntity
  8
寸法
 62
     0
 48
50.0
370
    -2
100
AcDbLine
 10
7998.904397928898
 20
10044.96343361072
 30
0.0
 11
7998.904397928898
 21
10739.67584362952
 31
0.0
  0
LINE
  5
1639E
330
14074
100
AcDbEntity
  8
寸法
 62
     0
 48
50.0
370
    -2
100
AcDbLine
 10
3598.904397928898
 20
10699.67584362952
 30
0.0
 11
7978.904397928897
 21
10699.67584362952
 31
0.0
  0
INSERT
  5
1639F
330
14074
100
AcDbEntity
  8
寸法
 62
     0
 48
50.0
370
    -2
100
AcDbBlockReference
  2
_DOT
 10
3578.904397928898
 20
10699.67584362952
 30
0.0
 41
20.0
 42
20.0
 43
20.0
 50
180.0
  0
INSERT
  5
163A0
330
14074
100
AcDbEntity
  8
寸法
 62
     0
 48
50.0
370
    -2
100
AcDbBlockReference
  2
_DOT
 10
7998.904397928898
 20
10699.67584362952
 30
0.0
 41
20.0
 42
20.0
 43
20.0
  0
MTEXT
  5
163A1
330
14074
100
AcDbEntity
  8
寸法
 62
     7
 48
50.0
100
AcDbMText
 10
5788.904397928899
 20
10791.68765465314
 30
0.0
 40
120.0
 41
0.0
 71
     5
 72
     1
  1
\A1;4420
  7
STYLE1
 73
     1
 44
1.0
1001
ACAD
1000
MTEXTBEGIN
1070
    73
1070
     1
1070
    44
1040
1.0
1070
    74
1070
     0
1000
MTEXTEND
  0
POINT
  5
163A2
330
14074
100
AcDbEntity
  8
DEFPOINTS
 62
     0
 48
50.0
100
AcDbPoint
 10
3578.904397928898
 20
10024.96343361072
 30
0.0
  0
POINT
  5
163A3
330
14074
100
AcDbEntity
  8
DEFPOINTS
 62
     0
 48
50.0
100
AcDbPoint
 10
7998.904397928898
 20
10024.96343361072
 30
0.0
  0
POINT
  5
163A4
330
14074
100
AcDbEntity
  8
DEFPOINTS
 62
     0
 48
50.0
100
AcDbPoint
 10
7998.904397928898
 20
10699.67584362952
 30
0.0
  0
ENDBLK
  5
1407F
330
14074
100
AcDbEntity
  8
0
 48
50.0
100
AcDbBlockEnd
  0
BLOCK
  5
14098
330
1408C
100
AcDbEntity
  8
0
 48
50.0
100
AcDbBlockBegin
  2
*D27
 70
     1
 10
0.0
 20
0.0
 30
0.0
  3
*D27
  1

  0
LINE
  5
16391
330
1408C
100
AcDbEntity
  8
寸法
 62
     0
 48
50.0
370
    -2
100
AcDbLine
 10
8018.904397928897
 20
10024.96343361072
 30
0.0
 11
8809.651514973253
 21
10024.96343361072
 31
0.0
  0
LINE
  5
16392
330
1408C
100
AcDbEntity
  8
寸法
 62
     0
 48
50.0
370
    -2
100
AcDbLine
 10
8018.904397928897
 20
9969.963433610731
 30
0.0
 11
8809.651514973253
 21
9969.963433610731
 31
0.0
  0
LINE
  5
16393
330
1408C
100
AcDbEntity
  8
寸法
 62
     0
 48
50.0
370
    -2
100
AcDbLine
 10
8769.651514973253
 20
9949.963433610731
 30
0.0
 11
8769.651514973253
 21
9929.96343361073
 31
0.0
  0
LINE
  5
16394
330
1408C
100
AcDbEntity
  8
寸法
 62
     0
 48
50.0
370
    -2
100
AcDbLine
 10
8769.651514973253
 20
10044.96343361072
 30
0.0
 11
8769.651514973253
 21
10519.61538165163
 31
0.0
  0
LINE
  5
16395
330
1408C
100
AcDbEntity
  8
寸法
 62
     0
 48
50.0
370
    -2
100
AcDbLine
 10
8769.651514973253
 20
9969.963433610731
 30
0.0
 11
8769.651514973253
 21
10024.96343361072
 31
0.0
  0
INSERT
  5
16396
330
1408C
100
AcDbEntity
  8
寸法
 62
     0
 48
50.0
370
    -2
100
AcDbBlockReference
  2
_DOT
 10
8769.651514973253
 20
9969.963433610731
 30
0.0
 41
20.0
 42
20.0
 43
20.0
 50
90.0
  0
INSERT
  5
16397
330
1408C
100
AcDbEntity
  8
寸法
 62
     0
 48
50.0
370
    -2
100
AcDbBlockReference
  2
_DOT
 10
8769.651514973253
 20
10024.96343361072
 30
0.0
 41
20.0
 42
20.0
 43
20.0
 50
270.0
  0
MTEXT
  5
16398
330
1408C
100
AcDbEntity
  8
寸法
 62
     7
 48
50.0
100
AcDbMText
 10
8677.651514973252
 20
10419.13010027739
 30
0.0
 40
120.0
 41
0.0
 71
     5
 72
     1
  1
\A1;55
  7
STYLE1
 11
0.0000000000000001
 21
1.0
 31
0.0
 73
     1
 44
1.0
1001
ACAD
1000
MTEXTBEGIN
1070
    73
1070
     1
1070
    44
1040
1.0
1070
    74
1070
     0
1000
MTEXTEND
  0
POINT
  5
16399
330
1408C
100
AcDbEntity
  8
DEFPOINTS
 62
     0
 48
50.0
100
AcDbPoint
 10
7998.904397928898
 20
10024.96343361072
 30
0.0
  0
POINT
  5
1639A
330
1408C
100
AcDbEntity
  8
DEFPOINTS
 62
     0
 48
50.0
100
AcDbPoint
 10
7998.904397928898
 20
9969.963433610731
 30
0.0
  0
POINT
  5
1639B
330
1408C
100
AcDbEntity
  8
DEFPOINTS
 62
     0
 48
50.0
100
AcDbPoint
 10
8769.651514973253
 20
9969.963433610731
 30
0.0
  0
ENDBLK
  5
14099
330
1408C
100
AcDbEntity
  8
0
 48
50.0
100
AcDbBlockEnd
  0
BLOCK
  5
140A4
330
1409A
100
AcDbEntity
  8
0
 48
50.0
100
AcDbBlockBegin
  2
*D28
 70
     1
 10
0.0
 20
0.0
 30
0.0
  3
*D28
  1

  0
LINE
  5
16388
330
1409A
100
AcDbEntity
  8
寸法
 62
     0
 48
50.0
370
    -2
100
AcDbLine
 10
8018.904397928897
 20
9969.963433610731
 30
0.0
 11
8809.651514973252
 21
9969.963433610731
 31
0.0
  0
LINE
  5
16389
330
1409A
100
AcDbEntity
  8
寸法
 62
     0
 48
50.0
370
    -2
100
AcDbLine
 10
8018.904397928897
 20
7449.963433610723
 30
0.0
 11
8809.651514973252
 21
7449.963433610723
 31
0.0
  0
LINE
  5
1638A
330
1409A
100
AcDbEntity
  8
寸法
 62
     0
 48
50.0
370
    -2
100
AcDbLine
 10
8769.651514973253
 20
9949.963433610731
 30
0.0
 11
8769.651514973253
 21
7469.963433610722
 31
0.0
  0
INSERT
  5
1638B
330
1409A
100
AcDbEntity
  8
寸法
 62
     0
 48
50.0
370
    -2
100
AcDbBlockReference
  2
_DOT
 10
8769.651514973253
 20
9969.963433610731
 30
0.0
 41
20.0
 42
20.0
 43
20.0
 50
90.0
  0
INSERT
  5
1638C
330
1409A
100
AcDbEntity
  8
寸法
 62
     0
 48
50.0
370
    -2
100
AcDbBlockReference
  2
_DOT
 10
8769.651514973253
 20
7449.963433610723
 30
0.0
 41
20.0
 42
20.0
 43
20.0
 50
270.0
  0
MTEXT
  5
1638D
330
1409A
100
AcDbEntity
  8
寸法
 62
     7
 48
50.0
100
AcDbMText
 10
8677.639703949628
 20
8709.963433610729
 30
0.0
 40
120.0
 41
0.0
 71
     5
 72
     1
  1
\A1;6X420=2520
  7
STYLE1
 11
0.0000000000000001
 21
1.0
 31
0.0
 73
     1
 44
1.0
1001
ACAD
1000
MTEXTBEGIN
1070
    73
1070
     1
1070
    44
1040
1.0
1070
    74
1070
     0
1000
MTEXTEND
  0
POINT
  5
1638E
330
1409A
100
AcDbEntity
  8
DEFPOINTS
 62
     0
 48
50.0
100
AcDbPoint
 10
7998.904397928898
 20
9969.963433610731
 30
0.0
  0
POINT
  5
1638F
330
1409A
100
AcDbEntity
  8
DEFPOINTS
 62
     0
 48
50.0
100
AcDbPoint
 10
7998.904397928898
 20
7449.963433610723
 30
0.0
  0
POINT
  5
16390
330
1409A
100
AcDbEntity
  8
DEFPOINTS
 62
     0
 48
50.0
100
AcDbPoint
 10
8769.651514973253
 20
7449.963433610723
 30
0.0
  0
ENDBLK
  5
140A5
330
1409A
100
AcDbEntity
  8
0
 48
50.0
100
AcDbBlockEnd
  0
BLOCK
  5
140B2
330
140A6
100
AcDbEntity
  8
0
 48
50.0
100
AcDbBlockBegin
  2
*D29
 70
     1
 10
0.0
 20
0.0
 30
0.0
  3
*D29
  1

  0
LINE
  5
1637D
330
140A6
100
AcDbEntity
  8
寸法
 62
     0
 48
50.0
370
    -2
100
AcDbLine
 10
8018.904397928897
 20
7449.963433610723
 30
0.0
 11
8809.651514973253
 21
7449.963433610723
 31
0.0
  0
LINE
  5
1637E
330
140A6
100
AcDbEntity
  8
寸法
 62
     0
 48
50.0
370
    -2
100
AcDbLine
 10
8018.904397928897
 20
7394.963433610726
 30
0.0
 11
8809.651514973253
 21
7394.963433610726
 31
0.0
  0
LINE
  5
1637F
330
140A6
100
AcDbEntity
  8
寸法
 62
     0
 48
50.0
370
    -2
100
AcDbLine
 10
8769.651514973253
 20
7469.963433610722
 30
0.0
 11
8769.651514973253
 21
7489.963433610722
 31
0.0
  0
LINE
  5
16380
330
140A6
100
AcDbEntity
  8
寸法
 62
     0
 48
50.0
370
    -2
100
AcDbLine
 10
8769.651514973253
 20
7374.963433610727
 30
0.0
 11
8769.651514973253
 21
6900.31148556982
 31
0.0
  0
LINE
  5
16381
330
140A6
100
AcDbEntity
  8
寸法
 62
     0
 48
50.0
370
    -2
100
AcDbLine
 10
8769.651514973253
 20
7449.963433610723
 30
0.0
 11
8769.651514973253
 21
7394.963433610726
 31
0.0
  0
INSERT
  5
16382
330
140A6
100
AcDbEntity
  8
寸法
 62
     0
 48
50.0
370
    -2
100
AcDbBlockReference
  2
_DOT
 10
8769.651514973253
 20
7449.963433610723
 30
0.0
 41
20.0
 42
20.0
 43
20.0
 50
270.0
  0
INSERT
  5
16383
330
140A6
100
AcDbEntity
  8
寸法
 62
     0
 48
50.0
370
    -2
100
AcDbBlockReference
  2
_DOT
 10
8769.651514973253
 20
7394.963433610726
 30
0.0
 41
20.0
 42
20.0
 43
20.0
 50
90.0
  0
MTEXT
  5
16384
330
140A6
100
AcDbEntity
  8
寸法
 62
     7
 48
50.0
100
AcDbMText
 10
8677.651514973252
 20
7000.79676694406
 30
0.0
 40
120.0
 41
0.0
 71
     5
 72
     1
  1
\A1;55
  7
STYLE1
 11
0.0000000000000001
 21
1.0
 31
0.0
 73
     1
 44
1.0
1001
ACAD
1000
MTEXTBEGIN
1070
    73
1070
     1
1070
    44
1040
1.0
1070
    74
1070
     0
1000
MTEXTEND
  0
POINT
  5
16385
330
140A6
100
AcDbEntity
  8
DEFPOINTS
 62
     0
 48
50.0
100
AcDbPoint
 10
7998.904397928898
 20
7449.963433610723
 30
0.0
  0
POINT
  5
16386
330
140A6
100
AcDbEntity
  8
DEFPOINTS
 62
     0
 48
50.0
100
AcDbPoint
 10
7998.904397928898
 20
7394.963433610726
 30
0.0
  0
POINT
  5
16387
330
140A6
100
AcDbEntity
  8
DEFPOINTS
 62
     0
 48
50.0
100
AcDbPoint
 10
8769.651514973253
 20
7394.963433610726
 30
0.0
  0
ENDBLK
  5
140B3
330
140A6
100
AcDbEntity
  8
0
 48
50.0
100
AcDbBlockEnd
  0
BLOCK
  5
140BE
330
140B4
100
AcDbEntity
  8
0
 48
50.0
100
AcDbBlockBegin
  2
*D30
 70
     1
 10
0.0
 20
0.0
 30
0.0
  3
*D30
  1

  0
LINE
  5
16374
330
140B4
100
AcDbEntity
  8
寸法
 62
     0
 48
50.0
370
    -2
100
AcDbLine
 10
8018.904397928897
 20
10024.96343361072
 30
0.0
 11
9109.651514973251
 21
10024.96343361072
 31
0.0
  0
LINE
  5
16375
330
140B4
100
AcDbEntity
  8
寸法
 62
     0
 48
50.0
370
    -2
100
AcDbLine
 10
8018.904397928897
 20
7394.963433610726
 30
0.0
 11
9109.651514973251
 21
7394.963433610726
 31
0.0
  0
LINE
  5
16376
330
140B4
100
AcDbEntity
  8
寸法
 62
     0
 48
50.0
370
    -2
100
AcDbLine
 10
9069.651514973251
 20
10004.96343361072
 30
0.0
 11
9069.651514973251
 21
7414.963433610727
 31
0.0
  0
INSERT
  5
16377
330
140B4
100
AcDbEntity
  8
寸法
 62
     0
 48
50.0
370
    -2
100
AcDbBlockReference
  2
_DOT
 10
9069.651514973251
 20
10024.96343361072
 30
0.0
 41
20.0
 42
20.0
 43
20.0
 50
90.0
  0
INSERT
  5
16378
330
140B4
100
AcDbEntity
  8
寸法
 62
     0
 48
50.0
370
    -2
100
AcDbBlockReference
  2
_DOT
 10
9069.651514973251
 20
7394.963433610726
 30
0.0
 41
20.0
 42
20.0
 43
20.0
 50
270.0
  0
MTEXT
  5
16379
330
140B4
100
AcDbEntity
  8
寸法
 62
     7
 48
50.0
100
AcDbMText
 10
8977.639703949627
 20
8709.963433610729
 30
0.0
 40
120.0
 41
0.0
 71
     5
 72
     1
  1
\A1;2630
  7
STYLE1
 11
0.0000000000000001
 21
1.0
 31
0.0
 73
     1
 44
1.0
1001
ACAD
1000
MTEXTBEGIN
1070
    73
1070
     1
1070
    44
1040
1.0
1070
    74
1070
     0
1000
MTEXTEND
  0
POINT
  5
1637A
330
140B4
100
AcDbEntity
  8
DEFPOINTS
 62
     0
 48
50.0
100
AcDbPoint
 10
7998.904397928898
 20
10024.96343361072
 30
0.0
  0
POINT
  5
1637B
330
140B4
100
AcDbEntity
  8
DEFPOINTS
 62
     0
 48
50.0
100
AcDbPoint
 10
7998.904397928898
 20
7394.963433610726
 30
0.0
  0
POINT
  5
1637C
330
140B4
100
AcDbEntity
  8
DEFPOINTS
 62
     0
 48
50.0
100
AcDbPoint
 10
9069.651514973251
 20
7394.963433610726
 30
0.0
  0
ENDBLK
  5
140BF
330
140B4
100
AcDbEntity
  8
0
 48
50.0
100
AcDbBlockEnd
  0
BLOCK
  5
140CC
330
140C0
100
AcDbEntity
  8
0
 48
50.0
100
AcDbBlockBegin
  2
*D31
 70
     1
 10
0.0
 20
0.0
 30
0.0
  3
*D31
  1

  0
LINE
  5
16369
330
140C0
100
AcDbEntity
  8
寸法
 62
     0
 48
50.0
370
    -2
100
AcDbLine
 10
7943.904397928898
 20
10044.96343361073
 30
0.0
 11
7943.904397928898
 21
10439.67584362952
 31
0.0
  0
LINE
  5
1636A
330
140C0
100
AcDbEntity
  8
寸法
 62
     0
 48
50.0
370
    -2
100
AcDbLine
 10
7998.904397928898
 20
10044.96343361072
 30
0.0
 11
7998.904397928898
 21
10439.67584362952
 31
0.0
  0
LINE
  5
1636B
330
140C0
100
AcDbEntity
  8
寸法
 62
     0
 48
50.0
370
    -2
100
AcDbLine
 10
7923.904397928898
 20
10399.67584362952
 30
0.0
 11
7903.904397928897
 21
10399.67584362952
 31
0.0
  0
LINE
  5
1636C
330
140C0
100
AcDbEntity
  8
寸法
 62
     0
 48
50.0
370
    -2
100
AcDbLine
 10
8018.904397928897
 20
10399.67584362952
 30
0.0
 11
8493.556345969803
 21
10399.67584362952
 31
0.0
  0
LINE
  5
1636D
330
140C0
100
AcDbEntity
  8
寸法
 62
     0
 48
50.0
370
    -2
100
AcDbLine
 10
7943.904397928898
 20
10399.67584362952
 30
0.0
 11
7998.904397928898
 21
10399.67584362952
 31
0.0
  0
INSERT
  5
1636E
330
140C0
100
AcDbEntity
  8
寸法
 62
     0
 48
50.0
370
    -2
100
AcDbBlockReference
  2
_DOT
 10
7943.904397928898
 20
10399.67584362952
 30
0.0
 41
20.0
 42
20.0
 43
20.0
  0
INSERT
  5
1636F
330
140C0
100
AcDbEntity
  8
寸法
 62
     0
 48
50.0
370
    -2
100
AcDbBlockReference
  2
_DOT
 10
7998.904397928898
 20
10399.67584362952
 30
0.0
 41
20.0
 42
20.0
 43
20.0
 50
180.0
  0
MTEXT
  5
16370
330
140C0
100
AcDbEntity
  8
寸法
 62
     7
 48
50.0
100
AcDbMText
 10
8393.071064595565
 20
10491.67584362952
 30
0.0
 40
120.0
 41
0.0
 71
     5
 72
     1
  1
\A1;55
  7
STYLE1
 73
     1
 44
1.0
1001
ACAD
1000
MTEXTBEGIN
1070
    73
1070
     1
1070
    44
1040
1.0
1070
    74
1070
     0
1000
MTEXTEND
  0
POINT
  5
16371
330
140C0
100
AcDbEntity
  8
DEFPOINTS
 62
     0
 48
50.0
100
AcDbPoint
 10
7943.904397928898
 20
10024.96343361073
 30
0.0
  0
POINT
  5
16372
330
140C0
100
AcDbEntity
  8
DEFPOINTS
 62
     0
 48
50.0
100
AcDbPoint
 10
7998.904397928898
 20
10024.96343361072
 30
0.0
  0
POINT
  5
16373
330
140C0
100
AcDbEntity
  8
DEFPOINTS
 62
     0
 48
50.0
100
AcDbPoint
 10
7998.904397928898
 20
10399.67584362952
 30
0.0
  0
ENDBLK
  5
140CD
330
140C0
100
AcDbEntity
  8
0
 48
50.0
100
AcDbBlockEnd
  0
BLOCK
  5
1451F
330
14515
100
AcDbEntity
  8
0
 48
50.0
100
AcDbBlockBegin
  2
*D32
 70
     1
 10
0.0
 20
0.0
 30
0.0
  3
*D32
  1

  0
LINE
  5
1470E
330
14515
100
AcDbEntity
  8
寸法
 62
     0
 48
50.0
370
    -2
100
AcDbLine
 10
11342.72067958068
 20
4428.112805903253
 30
0.0
 11
10458.97055039743
 21
4428.112805903253
 31
0.0
  0
LINE
  5
1470F
330
14515
100
AcDbEntity
  8
寸法
 62
     0
 48
50.0
370
    -2
100
AcDbLine
 10
11342.72067958068
 20
2338.112805903252
 30
0.0
 11
10458.97055039743
 21
2338.112805903252
 31
0.0
  0
LINE
  5
14710
330
14515
100
AcDbEntity
  8
寸法
 62
     0
 48
50.0
370
    -2
100
AcDbLine
 10
10518.97055039743
 20
4428.112805903253
 30
0.0
 11
10518.97055039743
 21
2338.112805903252
 31
0.0
  0
INSERT
  5
14711
330
14515
100
AcDbEntity
  8
寸法
 62
     0
 48
50.0
370
    -2
100
AcDbBlockReference
  2
_DOTSMALL
 10
10518.97055039743
 20
4428.112805903253
 30
0.0
 41
100.0
 42
100.0
 43
100.0
 50
90.0
  0
INSERT
  5
14712
330
14515
100
AcDbEntity
  8
寸法
 62
     0
 48
50.0
370
    -2
100
AcDbBlockReference
  2
_DOTSMALL
 10
10518.97055039743
 20
2338.112805903252
 30
0.0
 41
100.0
 42
100.0
 43
100.0
 50
270.0
  0
MTEXT
  5
14713
330
14515
100
AcDbEntity
  8
寸法
 62
     7
 48
50.0
100
AcDbMText
 10
10418.9587393738
 20
3383.112805903254
 30
0.0
 40
120.0
 41
0.0
 71
     5
 72
     1
  1
\A1;2090
  7
STYLE1
 11
0.0000000000000001
 21
1.0
 31
0.0
 73
     1
 44
1.0
1001
ACAD
1000
MTEXTBEGIN
1070
    73
1070
     1
1070
    44
1040
1.0
1070
    74
1070
     0
1000
MTEXTEND
  0
POINT
  5
14714
330
14515
100
AcDbEntity
  8
DEFPOINTS
 62
     0
 48
50.0
100
AcDbPoint
 10
11362.72067958068
 20
4428.112805903253
 30
0.0
  0
POINT
  5
14715
330
14515
100
AcDbEntity
  8
DEFPOINTS
 62
     0
 48
50.0
100
AcDbPoint
 10
11362.72067958068
 20
2338.112805903252
 30
0.0
  0
POINT
  5
14716
330
14515
100
AcDbEntity
  8
DEFPOINTS
 62
     0
 48
50.0
100
AcDbPoint
 10
10518.97055039743
 20
2338.112805903252
 30
0.0
  0
ENDBLK
  5
14520
330
14515
100
AcDbEntity
  8
0
 48
50.0
100
AcDbBlockEnd
  0
BLOCK
  5
1452B
330
14521
100
AcDbEntity
  8
0
 48
50.0
100
AcDbBlockBegin
  2
*D33
 70
     1
 10
0.0
 20
0.0
 30
0.0
  3
*D33
  1

  0
LINE
  5
14705
330
14521
100
AcDbEntity
  8
寸法
 62
     0
 48
50.0
370
    -2
100
AcDbLine
 10
11342.72067958068
 20
2288.112805903252
 30
0.0
 11
10158.97055039742
 21
2288.112805903252
 31
0.0
  0
LINE
  5
14706
330
14521
100
AcDbEntity
  8
寸法
 62
     0
 48
50.0
370
    -2
100
AcDbLine
 10
11282.72067958068
 20
4663.112805903256
 30
0.0
 11
10158.97055039743
 21
4663.112805903256
 31
0.0
  0
LINE
  5
14707
330
14521
100
AcDbEntity
  8
寸法
 62
     0
 48
50.0
370
    -2
100
AcDbLine
 10
10218.97055039742
 20
2288.112805903252
 30
0.0
 11
10218.97055039743
 21
4663.112805903256
 31
0.0
  0
INSERT
  5
14708
330
14521
100
AcDbEntity
  8
寸法
 62
     0
 48
50.0
370
    -2
100
AcDbBlockReference
  2
_DOTSMALL
 10
10218.97055039742
 20
2288.112805903252
 30
0.0
 41
100.0
 42
100.0
 43
100.0
 50
270.0
  0
INSERT
  5
14709
330
14521
100
AcDbEntity
  8
寸法
 62
     0
 48
50.0
370
    -2
100
AcDbBlockReference
  2
_DOTSMALL
 10
10218.97055039743
 20
4663.112805903256
 30
0.0
 41
100.0
 42
100.0
 43
100.0
 50
90.0
  0
MTEXT
  5
1470A
330
14521
100
AcDbEntity
  8
寸法
 62
     7
 48
50.0
100
AcDbMText
 10
10118.9587393738
 20
3475.612805903256
 30
0.0
 40
120.0
 41
0.0
 71
     5
 72
     1
  1
\A1;2375
  7
STYLE1
 11
0.0000000000000001
 21
1.0
 31
0.0
 73
     1
 44
1.0
1001
ACAD
1000
MTEXTBEGIN
1070
    73
1070
     1
1070
    44
1040
1.0
1070
    74
1070
     0
1000
MTEXTEND
  0
POINT
  5
1470B
330
14521
100
AcDbEntity
  8
DEFPOINTS
 62
     0
 48
50.0
100
AcDbPoint
 10
11362.72067958068
 20
2288.112805903252
 30
0.0
  0
POINT
  5
1470C
330
14521
100
AcDbEntity
  8
DEFPOINTS
 62
     0
 48
50.0
100
AcDbPoint
 10
11302.72067958068
 20
4663.112805903256
 30
0.0
  0
POINT
  5
1470D
330
14521
100
AcDbEntity
  8
DEFPOINTS
 62
     0
 48
50.0
100
AcDbPoint
 10
10218.97055039743
 20
4663.112805903256
 30
0.0
  0
ENDBLK
  5
1452C
330
14521
100
AcDbEntity
  8
0
 48
50.0
100
AcDbBlockEnd
  0
BLOCK
  5
14537
330
1452D
100
AcDbEntity
  8
0
 48
50.0
100
AcDbBlockBegin
  2
*D34
 70
     1
 10
0.0
 20
0.0
 30
0.0
  3
*D34
  1

  0
LINE
  5
146FC
330
1452D
100
AcDbEntity
  8
寸法
 62
     0
 48
50.0
370
    -2
100
AcDbLine
 10
14012.72067958069
 20
2288.112805903257
 30
0.0
 11
14757.64783755281
 21
2288.112805903257
 31
0.0
  0
LINE
  5
146FD
330
1452D
100
AcDbEntity
  8
寸法
 62
     0
 48
50.0
370
    -2
100
AcDbLine
 10
14092.72067958069
 20
4608.112805903257
 30
0.0
 11
14757.64783755282
 21
4608.112805903256
 31
0.0
  0
LINE
  5
146FE
330
1452D
100
AcDbEntity
  8
寸法
 62
     0
 48
50.0
370
    -2
100
AcDbLine
 10
14697.64783755282
 20
2288.112805903257
 30
0.0
 11
14697.64783755282
 21
4608.112805903256
 31
0.0
  0
INSERT
  5
146FF
330
1452D
100
AcDbEntity
  8
寸法
 62
     0
 48
50.0
370
    -2
100
AcDbBlockReference
  2
_DOTSMALL
 10
14697.64783755282
 20
2288.112805903257
 30
0.0
 41
100.0
 42
100.0
 43
100.0
 50
270.0
  0
INSERT
  5
14700
330
1452D
100
AcDbEntity
  8
寸法
 62
     0
 48
50.0
370
    -2
100
AcDbBlockReference
  2
_DOTSMALL
 10
14697.64783755282
 20
4608.112805903256
 30
0.0
 41
100.0
 42
100.0
 43
100.0
 50
90.0
  0
MTEXT
  5
14701
330
1452D
100
AcDbEntity
  8
寸法
 62
     7
 48
50.0
100
AcDbMText
 10
14597.63602652919
 20
3448.112805903259
 30
0.0
 40
120.0
 41
0.0
 71
     5
 72
     1
  1
\A1;2320
  7
STYLE1
 11
0.0000000000000001
 21
1.0
 31
0.0
 73
     1
 44
1.0
1001
ACAD
1000
MTEXTBEGIN
1070
    73
1070
     1
1070
    44
1040
1.0
1070
    74
1070
     0
1000
MTEXTEND
  0
POINT
  5
14702
330
1452D
100
AcDbEntity
  8
DEFPOINTS
 62
     0
 48
50.0
100
AcDbPoint
 10
13992.72067958069
 20
2288.112805903257
 30
0.0
  0
POINT
  5
14703
330
1452D
100
AcDbEntity
  8
DEFPOINTS
 62
     0
 48
50.0
100
AcDbPoint
 10
14072.72067958069
 20
4608.112805903257
 30
0.0
  0
POINT
  5
14704
330
1452D
100
AcDbEntity
  8
DEFPOINTS
 62
     0
 48
50.0
100
AcDbPoint
 10
14697.64783755282
 20
4608.112805903256
 30
0.0
  0
ENDBLK
  5
14538
330
1452D
100
AcDbEntity
  8
0
 48
50.0
100
AcDbBlockEnd
  0
BLOCK
  5
14552
330
14546
100
AcDbEntity
  8
0
 48
50.0
100
AcDbBlockBegin
  2
*D35
 70
     1
 10
0.0
 20
0.0
 30
0.0
  3
*D35
  1

  0
LINE
  5
146F1
330
14546
100
AcDbEntity
  8
寸法
 62
     0
 48
50.0
370
    -2
100
AcDbLine
 10
11342.72067958068
 20
2338.112805903256
 30
0.0
 11
10458.97055039743
 21
2338.112805903257
 31
0.0
  0
LINE
  5
146F2
330
14546
100
AcDbEntity
  8
寸法
 62
     0
 48
50.0
370
    -2
100
AcDbLine
 10
11287.72067958069
 20
2288.112805903256
 30
0.0
 11
10458.97055039743
 21
2288.112805903256
 31
0.0
  0
LINE
  5
146F3
330
14546
100
AcDbEntity
  8
寸法
 62
     0
 48
50.0
370
    -2
100
AcDbLine
 10
10518.97055039743
 20
2338.112805903257
 30
0.0
 11
10518.97055039743
 21
2438.112805903257
 31
0.0
  0
LINE
  5
146F4
330
14546
100
AcDbEntity
  8
寸法
 62
     0
 48
50.0
370
    -2
100
AcDbLine
 10
10518.97055039743
 20
2288.112805903256
 30
0.0
 11
10518.97055039743
 21
1876.018317714277
 31
0.0
  0
LINE
  5
146F5
330
14546
100
AcDbEntity
  8
寸法
 62
     0
 48
50.0
370
    -2
100
AcDbLine
 10
10518.97055039743
 20
2338.112805903257
 30
0.0
 11
10518.97055039743
 21
2288.112805903256
 31
0.0
  0
INSERT
  5
146F6
330
14546
100
AcDbEntity
  8
寸法
 62
     0
 48
50.0
370
    -2
100
AcDbBlockReference
  2
_DOTSMALL
 10
10518.97055039743
 20
2338.112805903257
 30
0.0
 41
100.0
 42
100.0
 43
100.0
 50
270.0
  0
INSERT
  5
146F7
330
14546
100
AcDbEntity
  8
寸法
 62
     0
 48
50.0
370
    -2
100
AcDbBlockReference
  2
_DOTSMALL
 10
10518.97055039743
 20
2288.112805903256
 30
0.0
 41
100.0
 42
100.0
 43
100.0
 50
90.0
  0
MTEXT
  5
146F8
330
14546
100
AcDbEntity
  8
寸法
 62
     7
 48
50.0
100
AcDbMText
 10
10418.97055039743
 20
1982.065561808767
 30
0.0
 40
120.0
 41
0.0
 71
     5
 72
     1
  1
\A1;50
  7
STYLE1
 11
0.0000000000000001
 21
1.0
 31
0.0
 73
     1
 44
1.0
1001
ACAD
1000
MTEXTBEGIN
1070
    73
1070
     1
1070
    44
1040
1.0
1070
    74
1070
     0
1000
MTEXTEND
  0
POINT
  5
146F9
330
14546
100
AcDbEntity
  8
DEFPOINTS
 62
     0
 48
50.0
100
AcDbPoint
 10
11362.72067958068
 20
2338.112805903256
 30
0.0
  0
POINT
  5
146FA
330
14546
100
AcDbEntity
  8
DEFPOINTS
 62
     0
 48
50.0
100
AcDbPoint
 10
11307.72067958069
 20
2288.112805903256
 30
0.0
  0
POINT
  5
146FB
330
14546
100
AcDbEntity
  8
DEFPOINTS
 62
     0
 48
50.0
100
AcDbPoint
 10
10518.97055039743
 20
2288.112805903256
 30
0.0
  0
ENDBLK
  5
14553
330
14546
100
AcDbEntity
  8
0
 48
50.0
100
AcDbBlockEnd
  0
BLOCK
  5
1455E
330
14554
100
AcDbEntity
  8
0
 48
50.0
100
AcDbBlockBegin
  2
*D36
 70
     1
 10
0.0
 20
0.0
 30
0.0
  3
*D36
  1

  0
LINE
  5
146E8
330
14554
100
AcDbEntity
  8
寸法
 62
     0
 48
50.0
370
    -2
100
AcDbLine
 10
13992.72067958069
 20
4629.92348551491
 30
0.0
 11
13992.72067958069
 21
5121.770259482562
 31
0.0
  0
LINE
  5
146E9
330
14554
100
AcDbEntity
  8
寸法
 62
     0
 48
50.0
370
    -2
100
AcDbLine
 10
11362.72067958068
 20
4679.114424026233
 30
0.0
 11
11362.72067958068
 21
5121.770259482562
 31
0.0
  0
LINE
  5
146EA
330
14554
100
AcDbEntity
  8
寸法
 62
     0
 48
50.0
370
    -2
100
AcDbLine
 10
13992.72067958069
 20
5061.770259482561
 30
0.0
 11
11362.72067958068
 21
5061.770259482561
 31
0.0
  0
INSERT
  5
146EB
330
14554
100
AcDbEntity
  8
寸法
 62
     0
 48
50.0
370
    -2
100
AcDbBlockReference
  2
_DOTSMALL
 10
13992.72067958069
 20
5061.770259482561
 30
0.0
 41
100.0
 42
100.0
 43
100.0
  0
INSERT
  5
146EC
330
14554
100
AcDbEntity
  8
寸法
 62
     0
 48
50.0
370
    -2
100
AcDbBlockReference
  2
_DOTSMALL
 10
11362.72067958068
 20
5061.770259482561
 30
0.0
 41
100.0
 42
100.0
 43
100.0
 50
180.0
  0
MTEXT
  5
146ED
330
14554
100
AcDbEntity
  8
寸法
 62
     7
 48
50.0
100
AcDbMText
 10
12717.49087060988
 20
5161.782070506183
 30
0.0
 40
120.0
 41
0.0
 71
     5
 72
     1
  1
\A1;柱外寸法2630
  7
STYLE1
 73
     1
 44
1.0
1001
ACAD
1000
MTEXTBEGIN
1070
    73
1070
     1
1070
    44
1040
1.0
1070
    74
1070
     0
1000
MTEXTEND
  0
POINT
  5
146EE
330
14554
100
AcDbEntity
  8
DEFPOINTS
 62
     0
 48
50.0
100
AcDbPoint
 10
13992.72067958069
 20
4609.923485514911
 30
0.0
  0
POINT
  5
146EF
330
14554
100
AcDbEntity
  8
DEFPOINTS
 62
     0
 48
50.0
100
AcDbPoint
 10
11362.72067958068
 20
4659.114424026233
 30
0.0
  0
POINT
  5
146F0
330
14554
100
AcDbEntity
  8
DEFPOINTS
 62
     0
 48
50.0
100
AcDbPoint
 10
11362.72067958068
 20
5061.770259482561
 30
0.0
  0
ENDBLK
  5
1455F
330
14554
100
AcDbEntity
  8
0
 48
50.0
100
AcDbBlockEnd
  0
BLOCK
  5
1456C
330
14560
100
AcDbEntity
  8
0
 48
50.0
100
AcDbBlockBegin
  2
*D37
 70
     1
 10
0.0
 20
0.0
 30
0.0
  3
*D37
  1

  0
LINE
  5
146DD
330
14560
100
AcDbEntity
  8
寸法
 62
     0
 48
50.0
370
    -2
100
AcDbLine
 10
11362.72067958068
 20
4679.114424026233
 30
0.0
 11
11362.72067958068
 21
5121.77025948256
 31
0.0
  0
LINE
  5
146DE
330
14560
100
AcDbEntity
  8
寸法
 62
     0
 48
50.0
370
    -2
100
AcDbLine
 10
11302.72067958068
 20
4683.11280590326
 30
0.0
 11
11302.72067958068
 21
5121.77025948256
 31
0.0
  0
LINE
  5
146DF
330
14560
100
AcDbEntity
  8
寸法
 62
     0
 48
50.0
370
    -2
100
AcDbLine
 10
11362.72067958068
 20
5061.77025948256
 30
0.0
 11
11462.72067958068
 21
5061.77025948256
 31
0.0
  0
LINE
  5
146E0
330
14560
100
AcDbEntity
  8
寸法
 62
     0
 48
50.0
370
    -2
100
AcDbLine
 10
11302.72067958068
 20
5061.77025948256
 30
0.0
 11
10883.4450890295
 21
5061.77025948256
 31
0.0
  0
LINE
  5
146E1
330
14560
100
AcDbEntity
  8
寸法
 62
     0
 48
50.0
370
    -2
100
AcDbLine
 10
11362.72067958068
 20
5061.77025948256
 30
0.0
 11
11302.72067958068
 21
5061.77025948256
 31
0.0
  0
INSERT
  5
146E2
330
14560
100
AcDbEntity
  8
寸法
 62
     0
 48
50.0
370
    -2
100
AcDbBlockReference
  2
_DOTSMALL
 10
11362.72067958068
 20
5061.77025948256
 30
0.0
 41
100.0
 42
100.0
 43
100.0
 50
180.0
  0
INSERT
  5
146E3
330
14560
100
AcDbEntity
  8
寸法
 62
     0
 48
50.0
370
    -2
100
AcDbBlockReference
  2
_DOTSMALL
 10
11302.72067958068
 20
5061.77025948256
 30
0.0
 41
100.0
 42
100.0
 43
100.0
  0
MTEXT
  5
146E4
330
14560
100
AcDbEntity
  8
寸法
 62
     7
 48
50.0
100
AcDbMText
 10
10993.08288430509
 20
5161.770259482561
 30
0.0
 40
120.0
 41
0.0
 71
     5
 72
     1
  1
\A1;60
  7
STYLE1
 73
     1
 44
1.0
1001
ACAD
1000
MTEXTBEGIN
1070
    73
1070
     1
1070
    44
1040
1.0
1070
    74
1070
     0
1000
MTEXTEND
  0
POINT
  5
146E5
330
14560
100
AcDbEntity
  8
DEFPOINTS
 62
     0
 48
50.0
100
AcDbPoint
 10
11362.72067958068
 20
4659.114424026233
 30
0.0
  0
POINT
  5
146E6
330
14560
100
AcDbEntity
  8
DEFPOINTS
 62
     0
 48
50.0
100
AcDbPoint
 10
11302.72067958068
 20
4663.112805903261
 30
0.0
  0
POINT
  5
146E7
330
14560
100
AcDbEntity
  8
DEFPOINTS
 62
     0
 48
50.0
100
AcDbPoint
 10
11302.72067958068
 20
5061.77025948256
 30
0.0
  0
ENDBLK
  5
1456D
330
14560
100
AcDbEntity
  8
0
 48
50.0
100
AcDbBlockEnd
  0
BLOCK
  5
14578
330
1456E
100
AcDbEntity
  8
0
 48
50.0
100
AcDbBlockBegin
  2
*D38
 70
     1
 10
0.0
 20
0.0
 30
0.0
  3
*D38
  1

  0
LINE
  5
146D4
330
1456E
100
AcDbEntity
  8
寸法
 62
     0
 48
50.0
370
    -2
100
AcDbLine
 10
14072.72067958069
 20
4628.112805903258
 30
0.0
 11
14072.72067958069
 21
5341.980946214178
 31
0.0
  0
LINE
  5
146D5
330
1456E
100
AcDbEntity
  8
寸法
 62
     0
 48
50.0
370
    -2
100
AcDbLine
 10
11302.72067958068
 20
4683.11280590326
 30
0.0
 11
11302.72067958068
 21
5341.980946214178
 31
0.0
  0
LINE
  5
146D6
330
1456E
100
AcDbEntity
  8
寸法
 62
     0
 48
50.0
370
    -2
100
AcDbLine
 10
14072.72067958069
 20
5281.980946214178
 30
0.0
 11
11302.72067958068
 21
5281.980946214178
 31
0.0
  0
INSERT
  5
146D7
330
1456E
100
AcDbEntity
  8
寸法
 62
     0
 48
50.0
370
    -2
100
AcDbBlockReference
  2
_DOTSMALL
 10
14072.72067958069
 20
5281.980946214178
 30
0.0
 41
100.0
 42
100.0
 43
100.0
  0
INSERT
  5
146D8
330
1456E
100
AcDbEntity
  8
寸法
 62
     0
 48
50.0
370
    -2
100
AcDbBlockReference
  2
_DOTSMALL
 10
11302.72067958068
 20
5281.980946214178
 30
0.0
 41
100.0
 42
100.0
 43
100.0
 50
180.0
  0
MTEXT
  5
146D9
330
1456E
100
AcDbEntity
  8
寸法
 62
     7
 48
50.0
100
AcDbMText
 10
12706.07960446806
 20
5381.992757237799
 30
0.0
 40
120.0
 41
0.0
 71
     5
 72
     1
  1
\A1;2770
  7
STYLE1
 73
     1
 44
1.0
1001
ACAD
1000
MTEXTBEGIN
1070
    73
1070
     1
1070
    44
1040
1.0
1070
    74
1070
     0
1000
MTEXTEND
  0
POINT
  5
146DA
330
1456E
100
AcDbEntity
  8
DEFPOINTS
 62
     0
 48
50.0
100
AcDbPoint
 10
14072.72067958069
 20
4608.112805903258
 30
0.0
  0
POINT
  5
146DB
330
1456E
100
AcDbEntity
  8
DEFPOINTS
 62
     0
 48
50.0
100
AcDbPoint
 10
11302.72067958068
 20
4663.112805903261
 30
0.0
  0
POINT
  5
146DC
330
1456E
100
AcDbEntity
  8
DEFPOINTS
 62
     0
 48
50.0
100
AcDbPoint
 10
11302.72067958068
 20
5281.980946214178
 30
0.0
  0
ENDBLK
  5
14579
330
1456E
100
AcDbEntity
  8
0
 48
50.0
100
AcDbBlockEnd
  0
BLOCK
  5
14585
330
1457A
100
AcDbEntity
  8
0
 48
50.0
100
AcDbBlockBegin
  2
*D39
 70
     1
 10
0.0
 20
0.0
 30
0.0
  3
*D39
  1

  0
LINE
  5
146CA
330
1457A
100
AcDbEntity
  8
寸法
 62
     0
 48
50.0
370
    -2
100
AcDbLine
 10
13992.72067958069
 20
4629.92348551491
 30
0.0
 11
13992.72067958069
 21
5121.770259482562
 31
0.0
  0
LINE
  5
146CB
330
1457A
100
AcDbEntity
  8
寸法
 62
     0
 48
50.0
370
    -2
100
AcDbLine
 10
14072.72067958069
 20
4628.112805903258
 30
0.0
 11
14072.72067958069
 21
5121.770259482562
 31
0.0
  0
LINE
  5
146CC
330
1457A
100
AcDbEntity
  8
寸法
 62
     0
 48
50.0
370
    -2
100
AcDbLine
 10
13992.72067958069
 20
5061.770259482561
 30
0.0
 11
14072.72067958069
 21
5061.770259482561
 31
0.0
  0
LINE
  5
146CD
330
1457A
100
AcDbEntity
  8
寸法
 62
     0
 48
50.0
370
    -2
100
AcDbLine
 10
14072.72067958069
 20
5061.770259482561
 30
0.0
 11
14384.81516776966
 21
5061.770259482561
 31
0.0
  0
INSERT
  5
146CE
330
1457A
100
AcDbEntity
  8
寸法
 62
     0
 48
50.0
370
    -2
100
AcDbBlockReference
  2
_DOTSMALL
 10
13992.72067958069
 20
5061.770259482561
 30
0.0
 41
100.0
 42
100.0
 43
100.0
 50
180.0
  0
INSERT
  5
146CF
330
1457A
100
AcDbEntity
  8
寸法
 62
     0
 48
50.0
370
    -2
100
AcDbBlockReference
  2
_DOTSMALL
 10
14072.72067958069
 20
5061.770259482561
 30
0.0
 41
100.0
 42
100.0
 43
100.0
  0
MTEXT
  5
146D0
330
1457A
100
AcDbEntity
  8
寸法
 62
     7
 48
50.0
100
AcDbMText
 10
14278.76792367517
 20
5161.770259482562
 30
0.0
 40
120.0
 41
0.0
 71
     5
 72
     1
  1
\A1;80
  7
STYLE1
 73
     1
 44
1.0
1001
ACAD
1000
MTEXTBEGIN
1070
    73
1070
     1
1070
    44
1040
1.0
1070
    74
1070
     0
1000
MTEXTEND
  0
POINT
  5
146D1
330
1457A
100
AcDbEntity
  8
DEFPOINTS
 62
     0
 48
50.0
100
AcDbPoint
 10
13992.72067958069
 20
4609.923485514911
 30
0.0
  0
POINT
  5
146D2
330
1457A
100
AcDbEntity
  8
DEFPOINTS
 62
     0
 48
50.0
100
AcDbPoint
 10
14072.72067958069
 20
4608.112805903258
 30
0.0
  0
POINT
  5
146D3
330
1457A
100
AcDbEntity
  8
DEFPOINTS
 62
     0
 48
50.0
100
AcDbPoint
 10
14072.72067958069
 20
5061.770259482561
 30
0.0
  0
ENDBLK
  5
14586
330
1457A
100
AcDbEntity
  8
0
 48
50.0
100
AcDbBlockEnd
  0
BLOCK
  5
14592
330
14587
100
AcDbEntity
  8
0
 48
50.0
100
AcDbBlockBegin
  2
*D40
 70
     1
 10
0.0
 20
0.0
 30
0.0
  3
*D40
  1

  0
LINE
  5
146C0
330
14587
100
AcDbEntity
  8
寸法
 62
     0
 48
50.0
370
    -2
100
AcDbLine
 10
11302.12496587179
 20
4662.410512972918
 30
0.0
 11
10686.19052676651
 21
4680.124663247247
 31
0.0
  0
LINE
  5
146C1
330
14587
100
AcDbEntity
  8
寸法
 62
     0
 48
50.0
370
    -2
100
AcDbLine
 10
11298.07151031516
 20
4521.468789207206
 30
0.0
 11
10682.13707120989
 21
4539.182939481535
 31
0.0
  0
LINE
  5
146C2
330
14587
100
AcDbEntity
  8
寸法
 62
     0
 48
50.0
370
    -2
100
AcDbLine
 10
10742.11227281232
 20
4537.458064776588
 30
0.0
 11
10746.16572836894
 21
4678.3997885423
 31
0.0
  0
LINE
  5
146C3
330
14587
100
AcDbEntity
  8
寸法
 62
     0
 48
50.0
370
    -2
100
AcDbLine
 10
10746.16572836894
 20
4678.3997885423
 30
0.0
 11
10756.51497659863
 21
5038.250998156886
 31
0.0
  0
INSERT
  5
146C4
330
14587
100
AcDbEntity
  8
寸法
 62
     0
 48
50.0
370
    -2
100
AcDbBlockReference
  2
_DOTSMALL
 10
10742.11227281232
 20
4537.458064776588
 30
0.0
 41
100.0
 42
100.0
 43
100.0
 50
268.3526390256378
  0
INSERT
  5
146C5
330
14587
100
AcDbEntity
  8
寸法
 62
     0
 48
50.0
370
    -2
100
AcDbBlockReference
  2
_DOTSMALL
 10
10746.16572836894
 20
4678.3997885423
 30
0.0
 41
100.0
 42
100.0
 43
100.0
 50
88.35263902563776
  0
MTEXT
  5
146C6
330
14587
100
AcDbEntity
  8
寸法
 62
     7
 48
50.0
100
AcDbMText
 10
10652.81907873386
 20
4911.1795191932
 30
0.0
 40
120.0
 41
0.0
 71
     5
 72
     1
  1
\A1;141
  7
STYLE1
 11
0.0287479117491237
 21
0.9995866933738488
 31
0.0
 73
     1
 44
1.0
1001
ACAD
1000
MTEXTBEGIN
1070
    73
1070
     1
1070
    44
1040
1.0
1070
    74
1070
     0
1000
MTEXTEND
  0
POINT
  5
146C7
330
14587
100
AcDbEntity
  8
DEFPOINTS
 62
     0
 48
50.0
100
AcDbPoint
 10
11322.11669973926
 20
4661.835554737936
 30
0.0
  0
POINT
  5
146C8
330
14587
100
AcDbEntity
  8
DEFPOINTS
 62
     0
 48
50.0
100
AcDbPoint
 10
11318.06324418264
 20
4520.893830972223
 30
0.0
  0
POINT
  5
146C9
330
14587
100
AcDbEntity
  8
DEFPOINTS
 62
     0
 48
50.0
100
AcDbPoint
 10
10742.11227281232
 20
4537.458064776588
 30
0.0
  0
ENDBLK
  5
14593
330
14587
100
AcDbEntity
  8
0
 48
50.0
100
AcDbBlockEnd
  0
BLOCK
  5
14784
330
14783
100
AcDbEntity
  8
0
100
AcDbBlockBegin
  2
_OPEN
 70
     0
 10
0.0
 20
0.0
 30
0.0
  3
_OPEN
  1

  0
LINE
  5
14785
330
14783
100
AcDbEntity
  8
0
  6
ByBlock
 62
     0
100
AcDbLine
 10
-1.0
 20
0.1666666666666666
 30
0.0
 11
0.0
 21
0.0
 31
0.0
  0
LINE
  5
14786
330
14783
100
AcDbEntity
  8
0
  6
ByBlock
 62
     0
100
AcDbLine
 10
0.0
 20
0.0
 30
0.0
 11
-1.0
 21
-0.1666666666666666
 31
0.0
  0
LINE
  5
14787
330
14783
100
AcDbEntity
  8
0
  6
ByBlock
 62
     0
100
AcDbLine
 10
0.0
 20
0.0
 30
0.0
 11
-1.0
 21
0.0
 31
0.0
  0
ENDBLK
  5
14788
330
14783
100
AcDbEntity
  8
0
100
AcDbBlockEnd
  0
BLOCK
  5
15E55
330
15E4B
100
AcDbEntity
  8
0
 48
50.0
100
AcDbBlockBegin
  2
*D42
 70
     1
 10
0.0
 20
0.0
 30
0.0
  3
*D42
  1

  0
LINE
  5
16360
330
15E4B
100
AcDbEntity
  8
寸法
 62
     0
 48
50.0
370
    -2
100
AcDbLine
 10
3645.904397928899
 20
7297.963433610725
 30
0.0
 11
3645.904397928899
 21
6581.210607414532
 31
0.0
  0
LINE
  5
16361
330
15E4B
100
AcDbEntity
  8
寸法
 62
     0
 48
50.0
370
    -2
100
AcDbLine
 10
4911.904397928899
 20
7297.963433610725
 30
0.0
 11
4911.904397928899
 21
6581.210607414532
 31
0.0
  0
LINE
  5
16362
330
15E4B
100
AcDbEntity
  8
寸法
 62
     0
 48
50.0
370
    -2
100
AcDbLine
 10
3665.904397928899
 20
6621.210607414532
 30
0.0
 11
4891.904397928899
 21
6621.210607414532
 31
0.0
  0
INSERT
  5
16363
330
15E4B
100
AcDbEntity
  8
寸法
 62
     0
 48
50.0
370
    -2
100
AcDbBlockReference
  2
_DOT
 10
3645.904397928899
 20
6621.210607414532
 30
0.0
 41
20.0
 42
20.0
 43
20.0
 50
180.0
  0
INSERT
  5
16364
330
15E4B
100
AcDbEntity
  8
寸法
 62
     0
 48
50.0
370
    -2
100
AcDbBlockReference
  2
_DOT
 10
4911.904397928899
 20
6621.210607414532
 30
0.0
 41
20.0
 42
20.0
 43
20.0
  0
MTEXT
  5
16365
330
15E4B
100
AcDbEntity
  8
寸法
 62
     7
 48
50.0
100
AcDbMText
 10
4306.592053524815
 20
6813.222418438154
 30
0.0
 40
120.0
 41
0.0
 71
     5
 72
     1
  1
\A1;有効開口部間口\P1266
  7
STYLE1
 73
     1
 44
1.0
1001
ACAD
1000
MTEXTBEGIN
1070
    73
1070
     1
1070
    44
1040
1.0
1070
    74
1070
     0
1000
MTEXTEND
  0
POINT
  5
16366
330
15E4B
100
AcDbEntity
  8
DEFPOINTS
 62
     0
 48
50.0
100
AcDbPoint
 10
3645.904397928899
 20
7317.963433610724
 30
0.0
  0
POINT
  5
16367
330
15E4B
100
AcDbEntity
  8
DEFPOINTS
 62
     0
 48
50.0
100
AcDbPoint
 10
4911.904397928899
 20
7317.963433610724
 30
0.0
  0
POINT
  5
16368
330
15E4B
100
AcDbEntity
  8
DEFPOINTS
 62
     0
 48
50.0
100
AcDbPoint
 10
4911.904397928899
 20
6621.210607414532
 30
0.0
  0
ENDBLK
  5
15E56
330
15E4B
100
AcDbEntity
  8
0
 48
50.0
100
AcDbBlockEnd
  0
BLOCK
  5
161D1
330
161C5
100
AcDbEntity
  8
0
 48
50.0
100
AcDbBlockBegin
  2
*D43
 70
     1
 10
0.0
 20
0.0
 30
0.0
  3
*D43
  1

  0
LINE
  5
16355
330
161C5
100
AcDbEntity
  8
寸法
 62
     0
 48
50.0
370
    -2
100
AcDbLine
 10
3558.904397928898
 20
7394.963433610726
 30
0.0
 11
3280.153023599285
 21
7394.963433610726
 31
0.0
  0
LINE
  5
16356
330
161C5
100
AcDbEntity
  8
寸法
 62
     0
 48
50.0
370
    -2
100
AcDbLine
 10
3586.904397928899
 20
7319.963433610694
 30
0.0
 11
3280.153023599285
 21
7319.963433610694
 31
0.0
  0
LINE
  5
16357
330
161C5
100
AcDbEntity
  8
寸法
 62
     0
 48
50.0
370
    -2
100
AcDbLine
 10
3320.153023599285
 20
7414.963433610727
 30
0.0
 11
3320.153023599285
 21
7434.963433610727
 31
0.0
  0
LINE
  5
16358
330
161C5
100
AcDbEntity
  8
寸法
 62
     0
 48
50.0
370
    -2
100
AcDbLine
 10
3320.153023599285
 20
7299.963433610693
 30
0.0
 11
3320.153023599284
 21
7062.226921828266
 31
0.0
  0
LINE
  5
16359
330
161C5
100
AcDbEntity
  8
寸法
 62
     0
 48
50.0
370
    -2
100
AcDbLine
 10
3320.153023599285
 20
7394.963433610726
 30
0.0
 11
3320.153023599285
 21
7319.963433610694
 31
0.0
  0
INSERT
  5
1635A
330
161C5
100
AcDbEntity
  8
寸法
 62
     0
 48
50.0
370
    -2
100
AcDbBlockReference
  2
_DOT
 10
3320.153023599285
 20
7394.963433610726
 30
0.0
 41
20.0
 42
20.0
 43
20.0
 50
270.0
  0
INSERT
  5
1635B
330
161C5
100
AcDbEntity
  8
寸法
 62
     0
 48
50.0
370
    -2
100
AcDbBlockReference
  2
_DOT
 10
3320.153023599285
 20
7319.963433610694
 30
0.0
 41
20.0
 42
20.0
 43
20.0
 50
90.0
  0
MTEXT
  5
1635C
330
161C5
100
AcDbEntity
  8
寸法
 62
     7
 48
50.0
100
AcDbMText
 10
3228.153023599283
 20
7162.712203202507
 30
0.0
 40
120.0
 41
0.0
 71
     5
 72
     1
  1
\A1;75
  7
STYLE1
 11
0.0000000000000001
 21
1.0
 31
0.0
 73
     1
 44
1.0
1001
ACAD
1000
MTEXTBEGIN
1070
    73
1070
     1
1070
    44
1040
1.0
1070
    74
1070
     0
1000
MTEXTEND
  0
POINT
  5
1635D
330
161C5
100
AcDbEntity
  8
DEFPOINTS
 62
     0
 48
50.0
100
AcDbPoint
 10
3578.904397928898
 20
7394.963433610726
 30
0.0
  0
POINT
  5
1635E
330
161C5
100
AcDbEntity
  8
DEFPOINTS
 62
     0
 48
50.0
100
AcDbPoint
 10
3606.904397928899
 20
7319.963433610694
 30
0.0
  0
POINT
  5
1635F
330
161C5
100
AcDbEntity
  8
DEFPOINTS
 62
     0
 48
50.0
100
AcDbPoint
 10
3320.153023599285
 20
7319.963433610694
 30
0.0
  0
ENDBLK
  5
161D2
330
161C5
100
AcDbEntity
  8
0
 48
50.0
100
AcDbBlockEnd
  0
BLOCK
  5
161DD
330
161D3
100
AcDbEntity
  8
0
 48
50.0
100
AcDbBlockBegin
  2
*D44
 70
     1
 10
0.0
 20
0.0
 30
0.0
  3
*D44
  1

  0
LINE
  5
1634C
330
161D3
100
AcDbEntity
  8
寸法
 62
     0
 48
50.0
370
    -2
100
AcDbLine
 10
3606.904397928899
 20
7297.963433610725
 30
0.0
 11
3606.904397928899
 21
6315.220400663035
 31
0.0
  0
LINE
  5
1634D
330
161D3
100
AcDbEntity
  8
寸法
 62
     0
 48
50.0
370
    -2
100
AcDbLine
 10
5760.904397928899
 20
7297.963433610725
 30
0.0
 11
5760.904397928899
 21
6315.220400663035
 31
0.0
  0
LINE
  5
1634E
330
161D3
100
AcDbEntity
  8
寸法
 62
     0
 48
50.0
370
    -2
100
AcDbLine
 10
3606.904397928899
 20
6375.220400663034
 30
0.0
 11
5760.904397928899
 21
6375.220400663034
 31
0.0
  0
INSERT
  5
1634F
330
161D3
100
AcDbEntity
  8
寸法
 62
     0
 48
50.0
370
    -2
100
AcDbBlockReference
  2
_DOTSMALL
 10
3606.904397928899
 20
6375.220400663034
 30
0.0
 41
100.0
 42
100.0
 43
100.0
 50
180.0
  0
INSERT
  5
16350
330
161D3
100
AcDbEntity
  8
寸法
 62
     0
 48
50.0
370
    -2
100
AcDbBlockReference
  2
_DOTSMALL
 10
5760.904397928899
 20
6375.220400663034
 30
0.0
 41
100.0
 42
100.0
 43
100.0
  0
MTEXT
  5
16351
330
161D3
100
AcDbEntity
  8
寸法
 62
     7
 48
50.0
100
AcDbMText
 10
4689.961971101395
 20
6475.232211686656
 30
0.0
 40
120.0
 41
0.0
 71
     5
 72
     1
  1
\A1;2154
  7
STYLE1
 73
     1
 44
1.0
1001
ACAD
1000
MTEXTBEGIN
1070
    73
1070
     1
1070
    44
1040
1.0
1070
    74
1070
     0
1000
MTEXTEND
  0
POINT
  5
16352
330
161D3
100
AcDbEntity
  8
DEFPOINTS
 62
     0
 48
50.0
100
AcDbPoint
 10
3606.904397928899
 20
7317.963433610724
 30
0.0
  0
POINT
  5
16353
330
161D3
100
AcDbEntity
  8
DEFPOINTS
 62
     0
 48
50.0
100
AcDbPoint
 10
5760.904397928899
 20
7317.963433610724
 30
0.0
  0
POINT
  5
16354
330
161D3
100
AcDbEntity
  8
DEFPOINTS
 62
     0
 48
50.0
100
AcDbPoint
 10
5760.904397928899
 20
6375.220400663034
 30
0.0
  0
ENDBLK
  5
161DE
330
161D3
100
AcDbEntity
  8
0
 48
50.0
100
AcDbBlockEnd
  0
BLOCK
  5
1620D
330
16203
100
AcDbEntity
  8
0
 48
50.0
100
AcDbBlockBegin
  2
*D45
 70
     1
 10
0.0
 20
0.0
 30
0.0
  3
*D45
  1

  0
LINE
  5
16343
330
16203
100
AcDbEntity
  8
寸法
 62
     0
 48
50.0
370
    -2
100
AcDbLine
 10
5788.904397928899
 20
7429.963433610723
 30
0.0
 11
5788.904397928899
 21
6076.914854056406
 31
0.0
  0
LINE
  5
16344
330
16203
100
AcDbEntity
  8
寸法
 62
     0
 48
50.0
370
    -2
100
AcDbLine
 10
7998.904397928898
 20
7374.963433610727
 30
0.0
 11
7998.904397928898
 21
6076.914854056406
 31
0.0
  0
LINE
  5
16345
330
16203
100
AcDbEntity
  8
寸法
 62
     0
 48
50.0
370
    -2
100
AcDbLine
 10
5808.904397928898
 20
6116.914854056406
 30
0.0
 11
7978.904397928897
 21
6116.914854056406
 31
0.0
  0
INSERT
  5
16346
330
16203
100
AcDbEntity
  8
寸法
 62
     0
 48
50.0
370
    -2
100
AcDbBlockReference
  2
_DOT
 10
5788.904397928899
 20
6116.914854056406
 30
0.0
 41
20.0
 42
20.0
 43
20.0
 50
180.0
  0
INSERT
  5
16347
330
16203
100
AcDbEntity
  8
寸法
 62
     0
 48
50.0
370
    -2
100
AcDbBlockReference
  2
_DOT
 10
7998.904397928898
 20
6116.914854056406
 30
0.0
 41
20.0
 42
20.0
 43
20.0
  0
MTEXT
  5
16348
330
16203
100
AcDbEntity
  8
寸法
 62
     7
 48
50.0
100
AcDbMText
 10
6893.904397928898
 20
6208.926665080028
 30
0.0
 40
120.0
 41
0.0
 71
     5
 72
     1
  1
\A1;2210
  7
STYLE1
 73
     1
 44
1.0
1001
ACAD
1000
MTEXTBEGIN
1070
    73
1070
     1
1070
    44
1040
1.0
1070
    74
1070
     0
1000
MTEXTEND
  0
POINT
  5
16349
330
16203
100
AcDbEntity
  8
DEFPOINTS
 62
     0
 48
50.0
100
AcDbPoint
 10
5788.904397928899
 20
7449.963433610723
 30
0.0
  0
POINT
  5
1634A
330
16203
100
AcDbEntity
  8
DEFPOINTS
 62
     0
 48
50.0
100
AcDbPoint
 10
7998.904397928898
 20
7394.963433610726
 30
0.0
  0
POINT
  5
1634B
330
16203
100
AcDbEntity
  8
DEFPOINTS
 62
     0
 48
50.0
100
AcDbPoint
 10
7998.904397928898
 20
6116.914854056406
 30
0.0
  0
ENDBLK
  5
1620E
330
16203
100
AcDbEntity
  8
0
 48
50.0
100
AcDbBlockEnd
  0
BLOCK
  5
16227
330
1621D
100
AcDbEntity
  8
0
 48
50.0
100
AcDbBlockBegin
  2
*D46
 70
     1
 10
0.0
 20
0.0
 30
0.0
  3
*D46
  1

  0
LINE
  5
1633A
330
1621D
100
AcDbEntity
  8
寸法
 62
     0
 48
50.0
370
    -2
100
AcDbLine
 10
3578.904397928898
 20
7374.963433610727
 30
0.0
 11
3578.904397928898
 21
6076.914854056406
 31
0.0
  0
LINE
  5
1633B
330
1621D
100
AcDbEntity
  8
寸法
 62
     0
 48
50.0
370
    -2
100
AcDbLine
 10
5788.904397928899
 20
7429.963433610726
 30
0.0
 11
5788.904397928899
 21
6076.914854056406
 31
0.0
  0
LINE
  5
1633C
330
1621D
100
AcDbEntity
  8
寸法
 62
     0
 48
50.0
370
    -2
100
AcDbLine
 10
3598.904397928898
 20
6116.914854056406
 30
0.0
 11
5768.904397928898
 21
6116.914854056406
 31
0.0
  0
INSERT
  5
1633D
330
1621D
100
AcDbEntity
  8
寸法
 62
     0
 48
50.0
370
    -2
100
AcDbBlockReference
  2
_DOT
 10
3578.904397928898
 20
6116.914854056406
 30
0.0
 41
20.0
 42
20.0
 43
20.0
 50
180.0
  0
INSERT
  5
1633E
330
1621D
100
AcDbEntity
  8
寸法
 62
     0
 48
50.0
370
    -2
100
AcDbBlockReference
  2
_DOT
 10
5788.904397928899
 20
6116.914854056406
 30
0.0
 41
20.0
 42
20.0
 43
20.0
  0
MTEXT
  5
1633F
330
1621D
100
AcDbEntity
  8
寸法
 62
     7
 48
50.0
100
AcDbMText
 10
4673.548125189918
 20
6208.926665080028
 30
0.0
 40
120.0
 41
0.0
 71
     5
 72
     1
  1
\A1;2210
  7
STYLE1
 73
     1
 44
1.0
1001
ACAD
1000
MTEXTBEGIN
1070
    73
1070
     1
1070
    44
1040
1.0
1070
    74
1070
     0
1000
MTEXTEND
  0
POINT
  5
16340
330
1621D
100
AcDbEntity
  8
DEFPOINTS
 62
     0
 48
50.0
100
AcDbPoint
 10
3578.904397928898
 20
7394.963433610726
 30
0.0
  0
POINT
  5
16341
330
1621D
100
AcDbEntity
  8
DEFPOINTS
 62
     0
 48
50.0
100
AcDbPoint
 10
5788.904397928899
 20
7449.963433610726
 30
0.0
  0
POINT
  5
16342
330
1621D
100
AcDbEntity
  8
DEFPOINTS
 62
     0
 48
50.0
100
AcDbPoint
 10
5788.904397928899
 20
6116.914854056406
 30
0.0
  0
ENDBLK
  5
16228
330
1621D
100
AcDbEntity
  8
0
 48
50.0
100
AcDbBlockEnd
  0
BLOCK
  5
16409
330
163FF
100
AcDbEntity
  8
0
 48
50.0
100
AcDbBlockBegin
  2
*D47
 70
     1
 10
0.0
 20
0.0
 30
0.0
  3
*D47
  1

  0
LINE
  5
1640B
330
163FF
100
AcDbEntity
  8
寸法
 62
     0
 48
50.0
370
    -2
100
AcDbLine
 10
5833.904400172058
 20
9308.463433610691
 30
0.0
 11
6185.745760432895
 21
9308.463433610691
 31
0.0
  0
LINE
  5
1640C
330
163FF
100
AcDbEntity
  8
寸法
 62
     0
 48
50.0
370
    -2
100
AcDbLine
 10
5863.904400172292
 20
10024.96343718787
 30
0.0
 11
6185.745760432895
 21
10024.96343718787
 31
0.0
  0
LINE
  5
1640D
330
163FF
100
AcDbEntity
  8
寸法
 62
     0
 48
50.0
370
    -2
100
AcDbLine
 10
6125.745760432895
 20
9308.463433610691
 30
0.0
 11
6125.745760432895
 21
10024.96343718787
 31
0.0
  0
INSERT
  5
1640E
330
163FF
100
AcDbEntity
  8
寸法
 62
     0
 48
50.0
370
    -2
100
AcDbBlockReference
  2
_DOTSMALL
 10
6125.745760432895
 20
9308.463433610691
 30
0.0
 41
100.0
 42
100.0
 43
100.0
 50
270.0
  0
INSERT
  5
1640F
330
163FF
100
AcDbEntity
  8
寸法
 62
     0
 48
50.0
370
    -2
100
AcDbBlockReference
  2
_DOTSMALL
 10
6125.745760432895
 20
10024.96343718787
 30
0.0
 41
100.0
 42
100.0
 43
100.0
 50
90.0
  0
MTEXT
  5
16410
330
163FF
100
AcDbEntity
  8
寸法
 62
     7
 48
50.0
100
AcDbMText
 10
6025.745760432894
 20
9642.202292824133
 30
0.0
 40
120.0
 41
0.0
 71
     5
 72
     1
  1
\A1;716.5
  7
STYLE1
 11
0.0000000000000001
 21
1.0
 31
0.0
 73
     1
 44
1.0
1001
ACAD
1000
MTEXTBEGIN
1070
    73
1070
     1
1070
    44
1040
1.0
1070
    74
1070
     0
1000
MTEXTEND
  0
POINT
  5
16411
330
163FF
100
AcDbEntity
  8
DEFPOINTS
 62
     0
 48
50.0
100
AcDbPoint
 10
5813.904400172058
 20
9308.463433610691
 30
0.0
  0
POINT
  5
16412
330
163FF
100
AcDbEntity
  8
DEFPOINTS
 62
     0
 48
50.0
100
AcDbPoint
 10
5843.904400172292
 20
10024.96343718787
 30
0.0
  0
POINT
  5
16413
330
163FF
100
AcDbEntity
  8
DEFPOINTS
 62
     0
 48
50.0
100
AcDbPoint
 10
6125.745760432895
 20
10024.96343718787
 30
0.0
  0
ENDBLK
  5
1640A
330
163FF
100
AcDbEntity
  8
0
 48
50.0
100
AcDbBlockEnd
  0
ENDSEC
  0
SECTION
  2
ENTITIES
  0
MTEXT
  5
763F
330
747D
100
AcDbEntity
  8
0
100
AcDbMText
 10
302.846345836809
 20
280.1983726409901
 30
0.0
 40
3.5
 41
5.323721266742722
 71
     1
 72
     5
  1

  7
MSMINCHO
 73
     1
 44
1.0
1001
ACAD
1000
MTEXTBEGIN
1070
    73
1070
     1
1070
    44
1040
1.0
1070
    74
1070
     0
1000
MTEXTEND
  0
INSERT
  5
F235
330
747D
100
AcDbEntity
  8
0
100
AcDbBlockReference
  2
作図枠S50
 10
0.0
 20
0.0
 30
0.0
 41
0.8
 42
0.8
 43
0.8
  0
LINE
  5
10B56
330
747D
100
AcDbEntity
  8
補助
  6
PHANTOM
 62
   230
 48
50.0
100
AcDbLine
 10
140.0
 20
0.0
 30
0.0
 11
139.9999999999995
 21
11409.6
 31
0.0
  0
LINE
  5
10B57
330
747D
100
AcDbEntity
  8
補助
  6
PHANTOM
 62
   230
 48
50.0
100
AcDbLine
 10
139.9999999999995
 20
11409.6
 30
0.0
 11
16307.2
 21
11409.6
 31
0.0
  0
LINE
  5
10B59
330
747D
100
AcDbEntity
  8
仕様書枠
  6
Continuous
 48
50.0
100
AcDbLine
 10
13107.2
 20
1200.0
 30
0.0
 11
13107.2
 21
-0.0000000000000729
 31
0.0
  0
LINE
  5
10B5C
330
747D
100
AcDbEntity
  8
仕様書枠
 48
50.0
100
AcDbLine
 10
16307.2
 20
1200.0
 30
0.0
 11
16307.2
 21
-0.0000000000000909
 31
0.0
  0
LINE
  5
10B5D
330
747D
100
AcDbEntity
  8
仕様書枠
 48
50.0
100
AcDbLine
 10
140.0
 20
0.0
 30
0.0
 11
16307.2
 21
-0.0000000000000909
 31
0.0
  0
LINE
  5
10B5E
330
747D
100
AcDbEntity
  8
補助
  6
PHANTOM
 62
   230
 48
50.0
100
AcDbLine
 10
16307.2
 20
11409.6
 30
0.0
 11
16307.2
 21
1200.0
 31
0.0
  0
LINE
  5
10B6C
330
747D
100
AcDbEntity
  8
仕様書枠
 48
50.0
100
AcDbLine
 10
13107.2
 20
1200.0
 30
0.0
 11
16307.2
 21
1200.0
 31
0.0
  0
LINE
  5
10B6D
330
747D
100
AcDbEntity
  8
補助
  6
PHANTOM
 62
   230
 48
50.0
100
AcDbLine
 10
13107.2
 20
11409.6
 30
0.0
 11
13107.2
 21
4800.0
 31
0.0
  0
LINE
  5
10B6F
330
747D
100
AcDbEntity
  8
補助
  6
PHANTOM
 62
   230
 48
50.0
100
AcDbLine
 10
13107.2
 20
4800.0
 30
0.0
 11
16307.2
 21
4800.0
 31
0.0
  0
LINE
  5
10B72
330
747D
100
AcDbEntity
  8
文字
 62
     7
 48
50.0
100
AcDbLine
 10
13187.2
 20
400.0
 30
0.0
 11
16227.2
 21
400.0
 31
0.0
  0
TEXT
  5
10B73
330
747D
100
AcDbEntity
  8
文字
 62
     7
 48
50.0
100
AcDbText
 10
13162.9790565769
 20
895.0906074299405
 30
0.0
 40
200.0
  1
外 形 図
  7
STYLE2
100
AcDbText
  0
TEXT
  5
10B74
330
747D
100
AcDbEntity
  8
文字
 62
     7
 48
50.0
100
AcDbText
 10
13201.43669998441
 20
477.2740661031255
 30
0.0
 40
160.0
  1
機種名
  7
STYLE2
100
AcDbText
  0
TEXT
  5
10B76
330
747D
100
AcDbEntity
  8
文字
 62
     7
 48
50.0
100
AcDbText
 10
13209.4053442172
 20
76.09434707649343
 30
0.0
 40
100.0
  1
○床面積 ： 11.79㎡(3.57坪) 　
  7
STYLE2
100
AcDbText
  0
TEXT
  5
10B79
330
747D
100
AcDbEntity
  8
文字
 62
     7
 48
50.0
100
AcDbText
 10
14524.131837222
 20
1031.557706291228
 30
0.0
 40
100.0
  1
NO.12     <縮尺> S=1/40
  7
STYLE2
100
AcDbText
  0
LINE
  5
10B7B
330
747D
100
AcDbEntity
  8
仕様書枠
 48
50.0
100
AcDbLine
 10
13107.2
 20
800.0
 30
0.0
 11
14251.2
 21
800.0
 31
0.0
  0
LINE
  5
10B88
330
747D
100
AcDbEntity
  8
仕様書枠
  6
Continuous
 48
50.0
100
AcDbLine
 10
14251.2
 20
1200.0
 30
0.0
 11
14251.2
 21
800.0
 31
0.0
  0
TEXT
  5
10EA8
330
747D
100
AcDbEntity
  8
文字
 62
     7
 48
50.0
100
AcDbText
 10
14618.30935364226
 20
838.2527270729188
 30
0.0
 40
100.0
  1
～多雪地型～
  7
STYLE2
100
AcDbText
  0
LINE
  5
120DB
330
747D
100
AcDbEntity
  8
Ｇ．Ｌ
 48
50.0
100
AcDbLine
 10
2315.037010702756
 20
2188.112805903256
 30
0.0
 11
15056.19829741475
 21
2188.112805903257
 31
0.0
  0
LINE
  5
13B44
330
747D
100
AcDbEntity
  8
部品1
100
AcDbLine
 10
11285.72067958069
 20
4413.799910811658
 30
0.0
 11
11362.72067958068
 21
4428.112805903256
 31
0.0
  0
LINE
  5
13B45
330
747D
100
AcDbEntity
  8
部品1
100
AcDbLine
 10
5733.904397928898
 20
4428.112805903256
 30
0.0
 11
5733.904397928898
 21
4423.112805903254
 31
0.0
  0
LINE
  5
13B46
330
747D
100
AcDbEntity
  8
部品1
100
AcDbLine
 10
3633.9043979289
 20
4428.112805903257
 30
0.0
 11
3633.9043979289
 21
4423.112805903254
 31
0.0
  0
LINE
  5
13B47
330
747D
100
AcDbEntity
  8
部品1
 48
50.0
100
AcDbLine
 10
5760.9043979289
 20
4423.112805903254
 30
0.0
 11
3606.9043979289
 21
4423.112805903254
 31
0.0
  0
LINE
  5
13B48
330
747D
100
AcDbEntity
  8
細線
 48
50.0
100
AcDbLine
 10
5760.9043979289
 20
4413.112805903255
 30
0.0
 11
3606.9043979289
 21
4413.112805903255
 31
0.0
  0
LINE
  5
13B49
330
747D
100
AcDbEntity
  8
細線
 48
50.0
100
AcDbLine
 10
5730.9043979289
 20
4371.112805903254
 30
0.0
 11
3636.9043979289
 21
4371.112805903254
 31
0.0
  0
LINE
  5
13B4A
330
747D
100
AcDbEntity
  8
細線
 48
50.0
100
AcDbLine
 10
5730.9043979289
 20
4380.612805903254
 30
0.0
 11
3636.9043979289
 21
4380.612805903254
 31
0.0
  0
LINE
  5
13B4B
330
747D
100
AcDbEntity
  8
部品1
 48
50.0
100
AcDbLine
 10
3606.9043979289
 20
2288.112805903255
 30
0.0
 11
5760.9043979289
 21
2288.112805903255
 31
0.0
  0
LINE
  5
13B4C
330
747D
100
AcDbEntity
  8
細線
 48
50.0
100
AcDbLine
 10
3636.9043979289
 20
2331.112805903254
 30
0.0
 11
5730.9043979289
 21
2331.112805903254
 31
0.0
  0
LINE
  5
13B4D
330
747D
100
AcDbEntity
  8
細線
 48
50.0
100
AcDbLine
 10
3636.9043979289
 20
2335.112805903254
 30
0.0
 11
5730.9043979289
 21
2335.112805903254
 31
0.0
  0
LINE
  5
13B4E
330
747D
100
AcDbEntity
  8
細線
 48
50.0
100
AcDbLine
 10
4434.9043979289
 20
2345.612805903254
 30
0.0
 11
5704.9043979289
 21
2345.612805903254
 31
0.0
  0
LINE
  5
13B4F
330
747D
100
AcDbEntity
  8
部品1
 48
50.0
100
AcDbLine
 10
3636.9043979289
 20
2338.112805903254
 30
0.0
 11
3636.9043979289
 21
4371.112805903254
 31
0.0
  0
LINE
  5
13B50
330
747D
100
AcDbEntity
  8
細線
 48
50.0
100
AcDbLine
 10
3636.9043979289
 20
4380.612805903254
 30
0.0
 11
3636.9043979289
 21
2288.112805903255
 31
0.0
  0
LINE
  5
13B51
330
747D
100
AcDbEntity
  8
部品1
 48
50.0
100
AcDbLine
 10
3606.9043979289
 20
4423.112805903254
 30
0.0
 11
3606.9043979289
 21
2288.112805903255
 31
0.0
  0
LINE
  5
13B53
330
747D
100
AcDbEntity
  8
部品1
 48
50.0
100
AcDbLine
 10
4434.9043979289
 20
4371.112805903254
 30
0.0
 11
4434.9043979289
 21
2338.112805903254
 31
0.0
  0
LINE
  5
13B54
330
747D
100
AcDbEntity
  8
部品1
 48
50.0
100
AcDbLine
 10
3636.9043979289
 20
2338.112805903254
 30
0.0
 11
4434.9043979289
 21
2338.112805903254
 31
0.0
  0
LINE
  5
13B55
330
747D
100
AcDbEntity
  8
部品1
 48
50.0
100
AcDbLine
 10
3645.9043979289
 20
2338.112805903254
 30
0.0
 11
3645.9043979289
 21
2335.112805903254
 31
0.0
  0
LINE
  5
13B56
330
747D
100
AcDbEntity
  8
部品1
 48
50.0
100
AcDbLine
 10
3636.9043979289
 20
4379.112805903254
 30
0.0
 11
3606.9043979289
 21
4379.112805903254
 31
0.0
  0
LINE
  5
13B57
330
747D
100
AcDbEntity
  8
部品1
 48
50.0
100
AcDbLine
 10
5721.904397928899
 20
2335.112805903254
 30
0.0
 11
5721.904397928899
 21
4371.112805903254
 31
0.0
  0
LINE
  5
13B58
330
747D
100
AcDbEntity
  8
細線
 48
50.0
100
AcDbLine
 10
5730.9043979289
 20
2288.112805903255
 30
0.0
 11
5730.9043979289
 21
4380.612805903254
 31
0.0
  0
LINE
  5
13B59
330
747D
100
AcDbEntity
  8
部品1
 48
50.0
100
AcDbLine
 10
5760.9043979289
 20
2188.112805903256
 30
0.0
 11
5760.9043979289
 21
4423.112805903254
 31
0.0
  0
LINE
  5
13B5A
330
747D
100
AcDbEntity
  8
部品1
 48
50.0
100
AcDbLine
 10
5085.904397928899
 20
4371.112805903254
 30
0.0
 11
5085.904397928899
 21
2345.612805903254
 31
0.0
  0
LINE
  5
13B5B
330
747D
100
AcDbEntity
  8
細線
 48
50.0
100
AcDbLine
 10
5708.9043979289
 20
2335.112805903254
 30
0.0
 11
5704.9043979289
 21
2345.612805903254
 31
0.0
  0
LINE
  5
13B5C
330
747D
100
AcDbEntity
  8
部品1
 48
50.0
100
AcDbLine
 10
5760.9043979289
 20
4379.112805903254
 30
0.0
 11
5730.9043979289
 21
4379.112805903254
 31
0.0
  0
LINE
  5
13B5D
330
747D
100
AcDbEntity
  8
細線
100
AcDbLine
 10
5220.404397928899
 20
4371.112805903256
 30
0.0
 11
5220.404397928899
 21
2345.612805903273
 31
0.0
  0
LINE
  5
13B5E
330
747D
100
AcDbEntity
  8
細線
100
AcDbLine
 10
4494.9043979289
 20
4371.112805903256
 30
0.0
 11
4494.9043979289
 21
2345.612805903268
 31
0.0
  0
LINE
  5
13B5F
330
747D
100
AcDbEntity
  8
細線
100
AcDbLine
 10
4564.904397928899
 20
4371.112805903256
 30
0.0
 11
4564.904397928899
 21
2345.612805903268
 31
0.0
  0
LINE
  5
13B60
330
747D
100
AcDbEntity
  8
細線
100
AcDbLine
 10
3850.9043979289
 20
4371.112805903256
 30
0.0
 11
3850.904397928896
 21
2338.112805903259
 31
0.0
  0
LINE
  5
13B61
330
747D
100
AcDbEntity
  8
細線
100
AcDbLine
 10
3920.9043979289
 20
4371.112805903256
 30
0.0
 11
3920.904397928897
 21
2338.112805903259
 31
0.0
  0
LINE
  5
13B7B
330
747D
100
AcDbEntity
  8
部品1
 48
50.0
100
AcDbLine
 10
3680.9043979289
 20
3419.612805903256
 30
0.0
 11
3733.9043979289
 21
3419.612805903256
 31
0.0
  0
LINE
  5
13B7F
330
747D
100
AcDbEntity
  8
細線
100
AcDbLine
 10
5290.4043979289
 20
4371.112805903256
 30
0.0
 11
5290.4043979289
 21
2345.612805903273
 31
0.0
  0
LINE
  5
13B80
330
747D
100
AcDbEntity
  8
細線
100
AcDbLine
 10
5360.4043979289
 20
4371.112805903256
 30
0.0
 11
5360.4043979289
 21
2345.612805903273
 31
0.0
  0
LINE
  5
13B81
330
747D
100
AcDbEntity
  8
細線
100
AcDbLine
 10
5430.404397928899
 20
4371.112805903256
 30
0.0
 11
5430.404397928899
 21
2345.612805903273
 31
0.0
  0
LINE
  5
13B82
330
747D
100
AcDbEntity
  8
細線
100
AcDbLine
 10
5500.4043979289
 20
4371.112805903256
 30
0.0
 11
5500.4043979289
 21
2345.612805903273
 31
0.0
  0
LINE
  5
13B83
330
747D
100
AcDbEntity
  8
細線
100
AcDbLine
 10
5570.4043979289
 20
4371.112805903256
 30
0.0
 11
5570.4043979289
 21
2345.612805903273
 31
0.0
  0
LINE
  5
13B84
330
747D
100
AcDbEntity
  8
細線
100
AcDbLine
 10
4634.9043979289
 20
4371.112805903256
 30
0.0
 11
4634.9043979289
 21
2345.612805903268
 31
0.0
  0
LINE
  5
13B85
330
747D
100
AcDbEntity
  8
細線
100
AcDbLine
 10
4704.9043979289
 20
4371.112805903256
 30
0.0
 11
4704.9043979289
 21
2345.612805903268
 31
0.0
  0
LINE
  5
13B86
330
747D
100
AcDbEntity
  8
細線
100
AcDbLine
 10
4774.904397928899
 20
4371.112805903256
 30
0.0
 11
4774.904397928899
 21
2345.612805903268
 31
0.0
  0
LINE
  5
13B87
330
747D
100
AcDbEntity
  8
細線
100
AcDbLine
 10
4844.9043979289
 20
4371.112805903256
 30
0.0
 11
4844.9043979289
 21
2345.612805903268
 31
0.0
  0
LINE
  5
13B88
330
747D
100
AcDbEntity
  8
細線
100
AcDbLine
 10
4914.9043979289
 20
4371.112805903256
 30
0.0
 11
4914.9043979289
 21
2345.612805903268
 31
0.0
  0
LINE
  5
13B89
330
747D
100
AcDbEntity
  8
細線
100
AcDbLine
 10
4984.9043979289
 20
4371.112805903256
 30
0.0
 11
4984.9043979289
 21
2345.612805903268
 31
0.0
  0
LINE
  5
13B8A
330
747D
100
AcDbEntity
  8
細線
100
AcDbLine
 10
3764.904397928896
 20
4371.112805903256
 30
0.0
 11
3764.9043979289
 21
2338.112805903261
 31
0.0
  0
LINE
  5
13B8B
330
747D
100
AcDbEntity
  8
細線
100
AcDbLine
 10
3798.904397928897
 20
4371.112805903256
 30
0.0
 11
3798.9043979289
 21
2338.112805903261
 31
0.0
  0
LINE
  5
13B8C
330
747D
100
AcDbEntity
  8
部品1
100
AcDbLine
 10
3756.904397928896
 20
4371.112805903256
 30
0.0
 11
3756.9043979289
 21
2338.112805903261
 31
0.0
  0
LINE
  5
13B8D
330
747D
100
AcDbEntity
  8
部品1
100
AcDbLine
 10
3806.904397928896
 20
4371.112805903256
 30
0.0
 11
3806.9043979289
 21
2338.112805903261
 31
0.0
  0
LINE
  5
13B8E
330
747D
100
AcDbEntity
  8
細線
100
AcDbLine
 10
3990.9043979289
 20
4371.112805903256
 30
0.0
 11
3990.904397928897
 21
2338.112805903259
 31
0.0
  0
LINE
  5
13B8F
330
747D
100
AcDbEntity
  8
細線
100
AcDbLine
 10
4060.9043979289
 20
4371.112805903256
 30
0.0
 11
4060.904397928896
 21
2338.112805903259
 31
0.0
  0
LINE
  5
13B90
330
747D
100
AcDbEntity
  8
細線
100
AcDbLine
 10
4130.9043979289
 20
4371.112805903256
 30
0.0
 11
4130.904397928897
 21
2338.112805903259
 31
0.0
  0
LINE
  5
13B91
330
747D
100
AcDbEntity
  8
細線
100
AcDbLine
 10
4200.9043979289
 20
4371.112805903256
 30
0.0
 11
4200.904397928896
 21
2338.112805903261
 31
0.0
  0
LINE
  5
13B92
330
747D
100
AcDbEntity
  8
細線
100
AcDbLine
 10
4270.9043979289
 20
4371.112805903256
 30
0.0
 11
4270.904397928896
 21
2338.112805903262
 31
0.0
  0
LINE
  5
13B93
330
747D
100
AcDbEntity
  8
細線
100
AcDbLine
 10
4340.9043979289
 20
4371.112805903256
 30
0.0
 11
4340.904397928897
 21
2338.112805903262
 31
0.0
  0
LINE
  5
13B94
330
747D
100
AcDbEntity
  8
部品1
100
AcDbLine
 10
5085.904397928892
 20
4371.112805903256
 30
0.0
 11
5085.904397928896
 21
2345.61280590327
 31
0.0
  0
LINE
  5
13B95
330
747D
100
AcDbEntity
  8
部品1
 48
50.0
100
AcDbLine
 10
4434.9043979289
 20
4371.112805903256
 30
0.0
 11
4434.9043979289
 21
2338.112805903255
 31
0.0
  0
LINE
  5
13B96
330
747D
100
AcDbEntity
  8
細線
100
AcDbLine
 10
6278.904397928891
 20
4487.612805903254
 30
0.0
 11
6278.904397928891
 21
4464.612805903254
 31
0.0
  0
LINE
  5
13B97
330
747D
100
AcDbEntity
  8
細線
100
AcDbLine
 10
6352.904397928891
 20
4475.612805903255
 30
0.0
 11
6278.904397928891
 21
4475.612805903255
 31
0.0
  0
LINE
  5
13B98
330
747D
100
AcDbEntity
  8
細線
100
AcDbLine
 10
6352.904397928891
 20
4469.612805903254
 30
0.0
 11
6278.904397928891
 21
4469.612805903254
 31
0.0
  0
LINE
  5
13B99
330
747D
100
AcDbEntity
  8
細線
100
AcDbLine
 10
6352.904397928891
 20
4481.612805903253
 30
0.0
 11
6278.904397928891
 21
4481.612805903254
 31
0.0
  0
LINE
  5
13B9A
330
747D
100
AcDbEntity
  8
細線
100
AcDbLine
 10
6204.904397928891
 20
4481.612805903254
 30
0.0
 11
6273.904397928891
 21
4481.612805903254
 31
0.0
  0
LINE
  5
13B9B
330
747D
100
AcDbEntity
  8
細線
100
AcDbLine
 10
6204.904397928891
 20
4469.612805903254
 30
0.0
 11
6278.904397928891
 21
4469.612805903254
 31
0.0
  0
LINE
  5
13B9C
330
747D
100
AcDbEntity
  8
細線
100
AcDbLine
 10
6204.904397928891
 20
4475.612805903255
 30
0.0
 11
6278.904397928891
 21
4475.612805903255
 31
0.0
  0
LINE
  5
13B9D
330
747D
100
AcDbEntity
  8
細線
100
AcDbLine
 10
6204.904397928891
 20
4481.612805903254
 30
0.0
 11
6278.904397928891
 21
4481.612805903254
 31
0.0
  0
LINE
  5
13B9E
330
747D
100
AcDbEntity
  8
部品1
 48
0.01
100
AcDbLine
 10
6366.904397928891
 20
4494.112805903254
 30
0.0
 11
6190.904397928891
 21
4494.112805903254
 31
0.0
  0
LINE
  5
13B9F
330
747D
100
AcDbEntity
  8
部品1
 48
0.01
100
AcDbLine
 10
6188.90439792889
 20
4492.112805903254
 30
0.0
 11
6188.90439792889
 21
4460.612805903254
 31
0.0
  0
LINE
  5
13BA0
330
747D
100
AcDbEntity
  8
部品1
 48
0.01
100
AcDbLine
 10
6190.904397928891
 20
4458.612805903254
 30
0.0
 11
6366.904397928891
 21
4458.612805903254
 31
0.0
  0
LINE
  5
13BA1
330
747D
100
AcDbEntity
  8
部品1
 48
0.01
100
AcDbLine
 10
6368.904397928891
 20
4460.612805903254
 30
0.0
 11
6368.904397928891
 21
4492.112805903254
 31
0.0
  0
LINE
  5
13BA2
330
747D
100
AcDbEntity
  8
細線
100
AcDbLine
 10
6204.904397928891
 20
4487.612805903254
 30
0.0
 11
6204.904397928891
 21
4464.612805903254
 31
0.0
  0
LINE
  5
13BA3
330
747D
100
AcDbEntity
  8
細線
100
AcDbLine
 10
6352.904397928891
 20
4464.612805903254
 30
0.0
 11
6352.904397928891
 21
4487.612805903254
 31
0.0
  0
LINE
  5
13BA4
330
747D
100
AcDbEntity
  8
細線
100
AcDbLine
 10
6352.904397928891
 20
4487.612805903254
 30
0.0
 11
6278.904397928891
 21
4487.612805903254
 31
0.0
  0
LINE
  5
13BA5
330
747D
100
AcDbEntity
  8
細線
100
AcDbLine
 10
6204.904397928891
 20
4464.612805903254
 30
0.0
 11
6278.904397928891
 21
4464.612805903254
 31
0.0
  0
LINE
  5
13BA6
330
747D
100
AcDbEntity
  8
細線
100
AcDbLine
 10
6278.904397928891
 20
4487.612805903254
 30
0.0
 11
6204.904397928891
 21
4487.612805903254
 31
0.0
  0
LINE
  5
13BA7
330
747D
100
AcDbEntity
  8
細線
100
AcDbLine
 10
6278.904397928891
 20
4464.612805903254
 30
0.0
 11
6352.904397928891
 21
4464.612805903254
 31
0.0
  0
ARC
  5
13BA8
330
747D
100
AcDbEntity
  8
部品1
 48
0.01
100
AcDbCircle
 10
6190.904397928891
 20
4492.112805903254
 30
0.0
 40
2.0
100
AcDbArc
 50
90.0
 51
180.0
  0
ARC
  5
13BA9
330
747D
100
AcDbEntity
  8
部品1
 48
0.01
100
AcDbCircle
 10
6190.904397928891
 20
4460.612805903254
 30
0.0
 40
2.0
100
AcDbArc
 50
180.0
 51
270.0
  0
ARC
  5
13BAA
330
747D
100
AcDbEntity
  8
部品1
 48
0.01
100
AcDbCircle
 10
6366.904397928891
 20
4492.112805903254
 30
0.0
 40
2.0
100
AcDbArc
 50
0.0
 51
90.0
  0
ARC
  5
13BAB
330
747D
100
AcDbEntity
  8
部品1
 48
0.01
100
AcDbCircle
 10
6366.904397928891
 20
4460.612805903254
 30
0.0
 40
2.0
100
AcDbArc
 50
270.0
 51
0.0
  0
ARC
  5
13BAC
330
747D
100
AcDbEntity
  8
部品1
 48
0.01
100
AcDbCircle
 10
7420.904397928909
 20
4460.612805903255
 30
0.0
 40
2.0
100
AcDbArc
 50
180.0
 51
270.0
  0
ARC
  5
13BAD
330
747D
100
AcDbEntity
  8
部品1
 48
0.01
100
AcDbCircle
 10
7420.904397928909
 20
4492.112805903255
 30
0.0
 40
2.0
100
AcDbArc
 50
90.0
 51
180.0
  0
ARC
  5
13BAE
330
747D
100
AcDbEntity
  8
部品1
 48
0.01
100
AcDbCircle
 10
7596.904397928909
 20
4460.612805903255
 30
0.0
 40
2.0
100
AcDbArc
 50
270.0
 51
0.0
  0
ARC
  5
13BAF
330
747D
100
AcDbEntity
  8
部品1
 48
0.01
100
AcDbCircle
 10
7596.904397928909
 20
4492.112805903255
 30
0.0
 40
2.0
100
AcDbArc
 50
0.0
 51
90.0
  0
LINE
  5
13BB0
330
747D
100
AcDbEntity
  8
細線
100
AcDbLine
 10
7508.904397928908
 20
4464.612805903255
 30
0.0
 11
7434.904397928909
 21
4464.612805903255
 31
0.0
  0
LINE
  5
13BB1
330
747D
100
AcDbEntity
  8
細線
100
AcDbLine
 10
7508.904397928908
 20
4487.612805903255
 30
0.0
 11
7582.90439792891
 21
4487.612805903255
 31
0.0
  0
LINE
  5
13BB2
330
747D
100
AcDbEntity
  8
細線
100
AcDbLine
 10
7582.90439792891
 20
4464.612805903255
 30
0.0
 11
7508.904397928908
 21
4464.612805903255
 31
0.0
  0
LINE
  5
13BB3
330
747D
100
AcDbEntity
  8
細線
100
AcDbLine
 10
7434.904397928909
 20
4487.612805903255
 30
0.0
 11
7508.904397928908
 21
4487.612805903255
 31
0.0
  0
LINE
  5
13BB4
330
747D
100
AcDbEntity
  8
細線
100
AcDbLine
 10
7434.904397928909
 20
4464.612805903255
 30
0.0
 11
7434.904397928909
 21
4487.612805903255
 31
0.0
  0
LINE
  5
13BB5
330
747D
100
AcDbEntity
  8
細線
100
AcDbLine
 10
7582.90439792891
 20
4487.612805903255
 30
0.0
 11
7582.90439792891
 21
4464.612805903255
 31
0.0
  0
LINE
  5
13BB6
330
747D
100
AcDbEntity
  8
部品1
 48
0.01
100
AcDbLine
 10
7418.904397928909
 20
4460.612805903255
 30
0.0
 11
7418.904397928909
 21
4492.112805903255
 31
0.0
  0
LINE
  5
13BB7
330
747D
100
AcDbEntity
  8
部品1
 48
0.01
100
AcDbLine
 10
7596.904397928909
 20
4458.612805903255
 30
0.0
 11
7420.904397928909
 21
4458.612805903255
 31
0.0
  0
LINE
  5
13BB8
330
747D
100
AcDbEntity
  8
部品1
 48
0.01
100
AcDbLine
 10
7598.904397928909
 20
4492.112805903255
 30
0.0
 11
7598.904397928909
 21
4460.612805903255
 31
0.0
  0
LINE
  5
13BB9
330
747D
100
AcDbEntity
  8
部品1
 48
0.01
100
AcDbLine
 10
7420.904397928909
 20
4494.112805903255
 30
0.0
 11
7596.904397928909
 21
4494.112805903255
 31
0.0
  0
LINE
  5
13BBA
330
747D
100
AcDbEntity
  8
細線
100
AcDbLine
 10
7582.90439792891
 20
4481.612805903256
 30
0.0
 11
7508.904397928908
 21
4481.612805903256
 31
0.0
  0
LINE
  5
13BBB
330
747D
100
AcDbEntity
  8
細線
100
AcDbLine
 10
7582.90439792891
 20
4475.612805903256
 30
0.0
 11
7508.904397928908
 21
4475.612805903256
 31
0.0
  0
LINE
  5
13BBC
330
747D
100
AcDbEntity
  8
細線
100
AcDbLine
 10
7582.90439792891
 20
4469.612805903255
 30
0.0
 11
7508.904397928908
 21
4469.612805903255
 31
0.0
  0
LINE
  5
13BBD
330
747D
100
AcDbEntity
  8
細線
100
AcDbLine
 10
7582.90439792891
 20
4481.612805903256
 30
0.0
 11
7513.90439792891
 21
4481.612805903256
 31
0.0
  0
LINE
  5
13BBE
330
747D
100
AcDbEntity
  8
細線
100
AcDbLine
 10
7434.904397928909
 20
4481.612805903254
 30
0.0
 11
7508.904397928908
 21
4481.612805903256
 31
0.0
  0
LINE
  5
13BBF
330
747D
100
AcDbEntity
  8
細線
100
AcDbLine
 10
7434.904397928909
 20
4469.612805903254
 30
0.0
 11
7508.904397928908
 21
4469.612805903255
 31
0.0
  0
LINE
  5
13BC0
330
747D
100
AcDbEntity
  8
細線
100
AcDbLine
 10
7434.904397928909
 20
4475.612805903256
 30
0.0
 11
7508.904397928908
 21
4475.612805903256
 31
0.0
  0
LINE
  5
13BC1
330
747D
100
AcDbEntity
  8
細線
100
AcDbLine
 10
7508.904397928908
 20
4487.612805903255
 30
0.0
 11
7508.904397928908
 21
4464.612805903255
 31
0.0
  0
LINE
  5
13BFD
330
747D
100
AcDbEntity
  8
細線
 48
50.0
100
AcDbLine
 10
6186.404397928902
 20
4428.112805903256
 30
0.0
 11
6186.404397928903
 21
2338.112805903256
 31
0.0
  0
LINE
  5
13BFE
330
747D
100
AcDbEntity
  8
細線
 48
50.0
100
AcDbLine
 10
6201.404397928902
 20
4428.112805903256
 30
0.0
 11
6201.404397928904
 21
2338.112805903256
 31
0.0
  0
LINE
  5
13BFF
330
747D
100
AcDbEntity
  8
細線
 48
50.0
100
AcDbLine
 10
6061.404397928902
 20
4428.112805903256
 30
0.0
 11
6061.404397928903
 21
2338.112805903256
 31
0.0
  0
LINE
  5
13C00
330
747D
100
AcDbEntity
  8
細線
 48
50.0
100
AcDbLine
 10
6046.404397928902
 20
4428.112805903256
 30
0.0
 11
6046.404397928903
 21
2338.112805903256
 31
0.0
  0
LINE
  5
13C01
330
747D
100
AcDbEntity
  8
細線
 48
50.0
100
AcDbLine
 10
5906.404397928902
 20
4428.112805903256
 30
0.0
 11
5906.404397928904
 21
2338.112805903256
 31
0.0
  0
LINE
  5
13C02
330
747D
100
AcDbEntity
  8
細線
 48
50.0
100
AcDbLine
 10
5921.404397928902
 20
4428.112805903256
 30
0.0
 11
5921.404397928903
 21
2338.112805903256
 31
0.0
  0
LINE
  5
13C03
330
747D
100
AcDbEntity
  8
細線
 48
50.0
100
AcDbLine
 10
6341.404397928902
 20
4428.112805903256
 30
0.0
 11
6341.404397928904
 21
2338.112805903256
 31
0.0
  0
LINE
  5
13C04
330
747D
100
AcDbEntity
  8
細線
 48
50.0
100
AcDbLine
 10
6326.404397928902
 20
4428.112805903256
 30
0.0
 11
6326.404397928904
 21
2338.112805903256
 31
0.0
  0
LINE
  5
13C05
330
747D
100
AcDbEntity
  8
細線
 48
50.0
100
AcDbLine
 10
6466.404397928902
 20
4428.112805903256
 30
0.0
 11
6466.404397928903
 21
2338.112805903256
 31
0.0
  0
LINE
  5
13C06
330
747D
100
AcDbEntity
  8
細線
 48
50.0
100
AcDbLine
 10
6481.404397928902
 20
4428.112805903256
 30
0.0
 11
6481.404397928904
 21
2338.112805903256
 31
0.0
  0
LINE
  5
13C07
330
747D
100
AcDbEntity
  8
細線
 48
50.0
100
AcDbLine
 10
6621.404397928902
 20
4428.112805903256
 30
0.0
 11
6621.404397928903
 21
2338.112805903256
 31
0.0
  0
LINE
  5
13C08
330
747D
100
AcDbEntity
  8
細線
 48
50.0
100
AcDbLine
 10
6606.404397928902
 20
4428.112805903256
 30
0.0
 11
6606.404397928904
 21
2338.112805903256
 31
0.0
  0
LINE
  5
13C09
330
747D
100
AcDbEntity
  8
細線
 48
50.0
100
AcDbLine
 10
7026.404397928901
 20
4428.112805903256
 30
0.0
 11
7026.404397928904
 21
2338.112805903256
 31
0.0
  0
LINE
  5
13C0A
330
747D
100
AcDbEntity
  8
細線
 48
50.0
100
AcDbLine
 10
7041.404397928902
 20
4428.112805903256
 30
0.0
 11
7041.404397928904
 21
2338.112805903256
 31
0.0
  0
LINE
  5
13C0B
330
747D
100
AcDbEntity
  8
細線
 48
50.0
100
AcDbLine
 10
6901.404397928901
 20
4428.112805903256
 30
0.0
 11
6901.404397928904
 21
2338.112805903256
 31
0.0
  0
LINE
  5
13C0C
330
747D
100
AcDbEntity
  8
細線
 48
50.0
100
AcDbLine
 10
6886.404397928902
 20
4428.112805903256
 30
0.0
 11
6886.404397928903
 21
2338.112805903256
 31
0.0
  0
LINE
  5
13C0D
330
747D
100
AcDbEntity
  8
細線
 48
50.0
100
AcDbLine
 10
6746.404397928902
 20
4428.112805903256
 30
0.0
 11
6746.404397928903
 21
2338.112805903256
 31
0.0
  0
LINE
  5
13C0E
330
747D
100
AcDbEntity
  8
細線
 48
50.0
100
AcDbLine
 10
6761.404397928902
 20
4428.112805903256
 30
0.0
 11
6761.404397928903
 21
2338.112805903256
 31
0.0
  0
LINE
  5
13C0F
330
747D
100
AcDbEntity
  8
細線
 48
50.0
100
AcDbLine
 10
7446.404397928901
 20
4428.112805903256
 30
0.0
 11
7446.404397928903
 21
2338.112805903256
 31
0.0
  0
LINE
  5
13C10
330
747D
100
AcDbEntity
  8
細線
 48
50.0
100
AcDbLine
 10
7461.404397928902
 20
4428.112805903256
 30
0.0
 11
7461.404397928903
 21
2338.112805903256
 31
0.0
  0
LINE
  5
13C11
330
747D
100
AcDbEntity
  8
細線
 48
50.0
100
AcDbLine
 10
7321.404397928901
 20
4428.112805903256
 30
0.0
 11
7321.404397928903
 21
2338.112805903256
 31
0.0
  0
LINE
  5
13C12
330
747D
100
AcDbEntity
  8
細線
 48
50.0
100
AcDbLine
 10
7306.404397928902
 20
4428.112805903256
 30
0.0
 11
7306.404397928904
 21
2338.112805903256
 31
0.0
  0
LINE
  5
13C13
330
747D
100
AcDbEntity
  8
細線
 48
50.0
100
AcDbLine
 10
7166.404397928902
 20
4428.112805903256
 30
0.0
 11
7166.404397928904
 21
2338.112805903256
 31
0.0
  0
LINE
  5
13C14
330
747D
100
AcDbEntity
  8
細線
 48
50.0
100
AcDbLine
 10
7181.404397928902
 20
4428.112805903256
 30
0.0
 11
7181.404397928904
 21
2338.112805903256
 31
0.0
  0
LINE
  5
13C15
330
747D
100
AcDbEntity
  8
細線
 48
50.0
100
AcDbLine
 10
7601.404397928901
 20
4428.112805903256
 30
0.0
 11
7601.404397928904
 21
2338.112805903256
 31
0.0
  0
LINE
  5
13C16
330
747D
100
AcDbEntity
  8
細線
 48
50.0
100
AcDbLine
 10
7586.404397928902
 20
4428.112805903256
 30
0.0
 11
7586.404397928903
 21
2338.112805903256
 31
0.0
  0
LINE
  5
13C17
330
747D
100
AcDbEntity
  8
細線
 48
50.0
100
AcDbLine
 10
7726.404397928901
 20
4428.112805903256
 30
0.0
 11
7726.404397928904
 21
2338.112805903256
 31
0.0
  0
LINE
  5
13C18
330
747D
100
AcDbEntity
  8
細線
 48
50.0
100
AcDbLine
 10
7741.404397928902
 20
4428.112805903256
 30
0.0
 11
7741.404397928903
 21
2338.112805903256
 31
0.0
  0
LINE
  5
13C19
330
747D
100
AcDbEntity
  8
細線
 48
50.0
100
AcDbLine
 10
7881.404397928903
 20
4428.112805903256
 30
0.0
 11
7881.404397928903
 21
2338.112805903256
 31
0.0
  0
LINE
  5
13C1A
330
747D
100
AcDbEntity
  8
細線
 48
50.0
100
AcDbLine
 10
7866.404397928902
 20
4428.112805903256
 30
0.0
 11
7866.404397928903
 21
2338.112805903256
 31
0.0
  0
LINE
  5
13C1B
330
747D
100
AcDbEntity
  8
細線
100
AcDbLine
 10
5298.904397928909
 20
4487.612805903255
 30
0.0
 11
5298.904397928909
 21
4464.612805903255
 31
0.0
  0
LINE
  5
13C1C
330
747D
100
AcDbEntity
  8
細線
100
AcDbLine
 10
5224.904397928909
 20
4475.612805903256
 30
0.0
 11
5298.904397928909
 21
4475.612805903256
 31
0.0
  0
LINE
  5
13C1D
330
747D
100
AcDbEntity
  8
細線
100
AcDbLine
 10
5224.904397928909
 20
4469.612805903254
 30
0.0
 11
5298.904397928909
 21
4469.612805903255
 31
0.0
  0
LINE
  5
13C1E
330
747D
100
AcDbEntity
  8
細線
100
AcDbLine
 10
5224.904397928909
 20
4481.612805903254
 30
0.0
 11
5298.904397928909
 21
4481.612805903256
 31
0.0
  0
LINE
  5
13C1F
330
747D
100
AcDbEntity
  8
細線
100
AcDbLine
 10
5372.904397928909
 20
4481.612805903256
 30
0.0
 11
5303.904397928909
 21
4481.612805903256
 31
0.0
  0
LINE
  5
13C20
330
747D
100
AcDbEntity
  8
細線
100
AcDbLine
 10
5372.904397928909
 20
4469.612805903255
 30
0.0
 11
5298.904397928909
 21
4469.612805903255
 31
0.0
  0
LINE
  5
13C21
330
747D
100
AcDbEntity
  8
細線
100
AcDbLine
 10
5372.904397928909
 20
4475.612805903256
 30
0.0
 11
5298.904397928909
 21
4475.612805903256
 31
0.0
  0
LINE
  5
13C22
330
747D
100
AcDbEntity
  8
細線
100
AcDbLine
 10
5372.904397928909
 20
4481.612805903256
 30
0.0
 11
5298.904397928909
 21
4481.612805903256
 31
0.0
  0
LINE
  5
13C23
330
747D
100
AcDbEntity
  8
部品1
 48
0.01
100
AcDbLine
 10
5210.904397928909
 20
4494.112805903255
 30
0.0
 11
5386.904397928908
 21
4494.112805903255
 31
0.0
  0
LINE
  5
13C24
330
747D
100
AcDbEntity
  8
部品1
 48
0.01
100
AcDbLine
 10
5388.904397928909
 20
4492.112805903255
 30
0.0
 11
5388.904397928909
 21
4460.612805903255
 31
0.0
  0
LINE
  5
13C25
330
747D
100
AcDbEntity
  8
部品1
 48
0.01
100
AcDbLine
 10
5386.904397928908
 20
4458.612805903255
 30
0.0
 11
5210.904397928909
 21
4458.612805903255
 31
0.0
  0
LINE
  5
13C26
330
747D
100
AcDbEntity
  8
部品1
 48
0.01
100
AcDbLine
 10
5208.904397928909
 20
4460.612805903255
 30
0.0
 11
5208.904397928909
 21
4492.112805903255
 31
0.0
  0
LINE
  5
13C27
330
747D
100
AcDbEntity
  8
細線
100
AcDbLine
 10
5372.904397928909
 20
4487.612805903255
 30
0.0
 11
5372.904397928909
 21
4464.612805903255
 31
0.0
  0
LINE
  5
13C28
330
747D
100
AcDbEntity
  8
細線
100
AcDbLine
 10
5224.904397928909
 20
4464.612805903255
 30
0.0
 11
5224.904397928909
 21
4487.612805903255
 31
0.0
  0
LINE
  5
13C29
330
747D
100
AcDbEntity
  8
細線
100
AcDbLine
 10
5224.904397928909
 20
4487.612805903255
 30
0.0
 11
5298.904397928909
 21
4487.612805903255
 31
0.0
  0
LINE
  5
13C2A
330
747D
100
AcDbEntity
  8
細線
100
AcDbLine
 10
5372.904397928909
 20
4464.612805903255
 30
0.0
 11
5298.904397928909
 21
4464.612805903255
 31
0.0
  0
LINE
  5
13C2B
330
747D
100
AcDbEntity
  8
細線
100
AcDbLine
 10
5298.904397928909
 20
4487.612805903255
 30
0.0
 11
5372.904397928909
 21
4487.612805903255
 31
0.0
  0
LINE
  5
13C2C
330
747D
100
AcDbEntity
  8
細線
100
AcDbLine
 10
5298.904397928909
 20
4464.612805903255
 30
0.0
 11
5224.904397928909
 21
4464.612805903255
 31
0.0
  0
ARC
  5
13C2D
330
747D
100
AcDbEntity
  8
部品1
 48
0.01
100
AcDbCircle
 10
5386.904397928908
 20
4492.112805903255
 30
0.0
 40
2.0
100
AcDbArc
 50
0.0
 51
90.0
  0
ARC
  5
13C2E
330
747D
100
AcDbEntity
  8
部品1
 48
0.01
100
AcDbCircle
 10
5386.904397928908
 20
4460.612805903255
 30
0.0
 40
2.0
100
AcDbArc
 50
270.0
 51
0.0
  0
ARC
  5
13C2F
330
747D
100
AcDbEntity
  8
部品1
 48
0.01
100
AcDbCircle
 10
5210.904397928909
 20
4492.112805903255
 30
0.0
 40
2.0
100
AcDbArc
 50
90.0
 51
180.0
  0
ARC
  5
13C30
330
747D
100
AcDbEntity
  8
部品1
 48
0.01
100
AcDbCircle
 10
5210.904397928909
 20
4460.612805903255
 30
0.0
 40
2.0
100
AcDbArc
 50
180.0
 51
270.0
  0
ARC
  5
13C31
330
747D
100
AcDbEntity
  8
部品1
 48
0.01
100
AcDbCircle
 10
4156.90439792889
 20
4460.612805903254
 30
0.0
 40
2.0
100
AcDbArc
 50
270.0
 51
0.0
  0
ARC
  5
13C32
330
747D
100
AcDbEntity
  8
部品1
 48
0.01
100
AcDbCircle
 10
4156.90439792889
 20
4492.112805903254
 30
0.0
 40
2.0
100
AcDbArc
 50
0.0
 51
90.0
  0
ARC
  5
13C33
330
747D
100
AcDbEntity
  8
部品1
 48
0.01
100
AcDbCircle
 10
3980.904397928891
 20
4460.612805903254
 30
0.0
 40
2.0
100
AcDbArc
 50
180.0
 51
270.0
  0
ARC
  5
13C34
330
747D
100
AcDbEntity
  8
部品1
 48
0.01
100
AcDbCircle
 10
3980.904397928891
 20
4492.112805903254
 30
0.0
 40
2.0
100
AcDbArc
 50
90.0
 51
180.0
  0
LINE
  5
13C35
330
747D
100
AcDbEntity
  8
細線
100
AcDbLine
 10
4068.904397928891
 20
4464.612805903254
 30
0.0
 11
4142.90439792889
 21
4464.612805903254
 31
0.0
  0
LINE
  5
13C36
330
747D
100
AcDbEntity
  8
細線
100
AcDbLine
 10
4068.904397928891
 20
4487.612805903254
 30
0.0
 11
3994.904397928891
 21
4487.612805903254
 31
0.0
  0
LINE
  5
13C37
330
747D
100
AcDbEntity
  8
細線
100
AcDbLine
 10
3994.904397928891
 20
4464.612805903254
 30
0.0
 11
4068.904397928891
 21
4464.612805903254
 31
0.0
  0
LINE
  5
13C38
330
747D
100
AcDbEntity
  8
細線
100
AcDbLine
 10
4142.90439792889
 20
4487.612805903254
 30
0.0
 11
4068.904397928891
 21
4487.612805903254
 31
0.0
  0
LINE
  5
13C39
330
747D
100
AcDbEntity
  8
細線
100
AcDbLine
 10
4142.90439792889
 20
4464.612805903254
 30
0.0
 11
4142.90439792889
 21
4487.612805903254
 31
0.0
  0
LINE
  5
13C3A
330
747D
100
AcDbEntity
  8
細線
100
AcDbLine
 10
3994.904397928891
 20
4487.612805903254
 30
0.0
 11
3994.904397928891
 21
4464.612805903254
 31
0.0
  0
LINE
  5
13C3B
330
747D
100
AcDbEntity
  8
部品1
 48
0.01
100
AcDbLine
 10
4158.904397928891
 20
4460.612805903254
 30
0.0
 11
4158.904397928891
 21
4492.112805903254
 31
0.0
  0
LINE
  5
13C3C
330
747D
100
AcDbEntity
  8
部品1
 48
0.01
100
AcDbLine
 10
3980.904397928891
 20
4458.612805903254
 30
0.0
 11
4156.90439792889
 21
4458.612805903254
 31
0.0
  0
LINE
  5
13C3D
330
747D
100
AcDbEntity
  8
部品1
 48
0.01
100
AcDbLine
 10
3978.904397928891
 20
4492.112805903254
 30
0.0
 11
3978.904397928891
 21
4460.612805903254
 31
0.0
  0
LINE
  5
13C3E
330
747D
100
AcDbEntity
  8
部品1
 48
0.01
100
AcDbLine
 10
4156.90439792889
 20
4494.112805903254
 30
0.0
 11
3980.904397928891
 21
4494.112805903254
 31
0.0
  0
LINE
  5
13C3F
330
747D
100
AcDbEntity
  8
細線
100
AcDbLine
 10
3994.904397928891
 20
4481.612805903254
 30
0.0
 11
4068.904397928891
 21
4481.612805903254
 31
0.0
  0
LINE
  5
13C40
330
747D
100
AcDbEntity
  8
細線
100
AcDbLine
 10
3994.904397928891
 20
4475.612805903255
 30
0.0
 11
4068.904397928891
 21
4475.612805903255
 31
0.0
  0
LINE
  5
13C41
330
747D
100
AcDbEntity
  8
細線
100
AcDbLine
 10
3994.904397928891
 20
4469.612805903254
 30
0.0
 11
4068.904397928891
 21
4469.612805903254
 31
0.0
  0
LINE
  5
13C42
330
747D
100
AcDbEntity
  8
細線
100
AcDbLine
 10
3994.904397928891
 20
4481.612805903254
 30
0.0
 11
4063.90439792889
 21
4481.612805903254
 31
0.0
  0
LINE
  5
13C43
330
747D
100
AcDbEntity
  8
細線
100
AcDbLine
 10
4142.90439792889
 20
4481.612805903253
 30
0.0
 11
4068.904397928891
 21
4481.612805903254
 31
0.0
  0
LINE
  5
13C44
330
747D
100
AcDbEntity
  8
細線
100
AcDbLine
 10
4142.90439792889
 20
4469.612805903254
 30
0.0
 11
4068.904397928891
 21
4469.612805903254
 31
0.0
  0
LINE
  5
13C45
330
747D
100
AcDbEntity
  8
細線
100
AcDbLine
 10
4142.90439792889
 20
4475.612805903255
 30
0.0
 11
4068.904397928891
 21
4475.612805903255
 31
0.0
  0
LINE
  5
13C46
330
747D
100
AcDbEntity
  8
細線
100
AcDbLine
 10
4068.904397928891
 20
4487.612805903254
 30
0.0
 11
4068.904397928891
 21
4464.612805903254
 31
0.0
  0
LINE
  5
13C47
330
747D
100
AcDbEntity
  8
細線
 48
50.0
100
AcDbLine
 10
3561.904397928898
 20
4663.112805903261
 30
0.0
 11
3561.904397928898
 21
4522.112805903261
 31
0.0
  0
ARC
  5
13C48
330
747D
100
AcDbEntity
  8
部品1
100
AcDbCircle
 10
3536.312819035327
 20
4656.112805903261
 30
0.0
 40
7.0
100
AcDbArc
 50
90.0
 51
183.2473427903377
  0
ARC
  5
13C49
330
747D
100
AcDbEntity
  8
部品1
100
AcDbCircle
 10
3549.528142496362
 20
4529.112805903262
 30
0.0
 40
7.0
100
AcDbArc
 50
183.2473427903377
 51
270.0
  0
ARC
  5
13C4A
330
747D
100
AcDbEntity
  8
部品1
 48
50.0
100
AcDbCircle
 10
3531.156332285686
 20
4635.779805064948
 30
0.0
 40
0.7
100
AcDbArc
 50
183.2473427903897
 51
262.3418727926365
  0
ARC
  5
13C4B
330
747D
100
AcDbEntity
  8
部品1
 48
50.0
100
AcDbCircle
 10
3539.392362810526
 20
4543.579805064943
 30
0.0
 40
0.7
100
AcDbArc
 50
183.2473427902856
 51
262.3418727926365
  0
ARC
  5
13C4C
330
747D
100
AcDbEntity
  8
部品1
 48
50.0
100
AcDbCircle
 10
3538.899293701965
 20
4539.912805903259
 30
0.0
 40
3.0
100
AcDbArc
 50
3.247342790337682
 51
82.34187279263654
  0
ARC
  5
13C4D
330
747D
100
AcDbEntity
  8
部品1
 48
50.0
100
AcDbCircle
 10
3530.663263177121
 20
4632.112805903262
 30
0.0
 40
3.0
100
AcDbArc
 50
3.247342790337682
 51
82.34187279263654
  0
LINE
  5
13C4E
330
747D
100
AcDbEntity
  8
部品1
100
AcDbLine
 10
3533.658446073307
 20
4632.282745358364
 30
0.0
 11
3538.693486801418
 21
4543.540152525421
 31
0.0
  0
LINE
  5
13C4F
330
747D
100
AcDbEntity
  8
部品1
100
AcDbLine
 10
3541.894476598154
 20
4540.082745358364
 30
0.0
 11
3542.539382405263
 21
4528.716280508024
 31
0.0
  0
LINE
  5
13C50
330
747D
100
AcDbEntity
  8
部品1
100
AcDbLine
 10
3529.324058944228
 20
4655.716280508022
 30
0.0
 11
3530.457456276578
 21
4635.740152525421
 31
0.0
  0
DIMENSION
  5
13C51
330
747D
100
AcDbEntity
  8
寸法
 48
50.0
100
AcDbDimension
  2
*D17
 10
3528.904397928898
 20
4875.654391161502
 30
0.0
 11
3215.419116554651
 21
4875.654391161502
 31
0.0
 70
   160
 71
     5
 42
50.0
  3
INABA_S40G
100
AcDbAlignedDimension
 13
3578.904397928898
 23
4663.112805903264
 33
0.0
 14
3528.904397928898
 24
4663.112805903263
 34
0.0
100
AcDbRotatedDimension
1001
ACAD
1000
DSTYLE
1002
{
1002
}
  0
LINE
  5
13C52
330
747D
100
AcDbEntity
  8
部品1
 48
50.0
100
AcDbLine
 10
8041.495976822469
 20
4663.112805903258
 30
0.0
 11
3536.312819035327
 21
4663.112805903258
 31
0.0
  0
LINE
  5
13C53
330
747D
100
AcDbEntity
  8
細線
 48
50.0
100
AcDbLine
 10
8046.745746916986
 20
4635.086048466726
 30
0.0
 11
3531.063048939312
 21
4635.086048467257
 31
0.0
  0
LINE
  5
13C54
330
747D
100
AcDbEntity
  8
細線
 48
50.0
100
AcDbLine
 10
8038.509716392141
 20
4542.886048466725
 30
0.0
 11
3539.299079464143
 21
4542.886048467256
 31
0.0
  0
LINE
  5
13C55
330
747D
100
AcDbEntity
  8
部品1
 48
50.0
100
AcDbLine
 10
8028.280653361434
 20
4522.11280590326
 30
0.0
 11
3549.528142496362
 21
4522.112805903261
 31
0.0
  0
LINE
  5
13C56
330
747D
100
AcDbEntity
  8
部品1
100
AcDbLine
 10
8048.484736913568
 20
4655.716280508019
 30
0.0
 11
8047.351339581222
 21
4635.740152525419
 31
0.0
  0
LINE
  5
13C57
330
747D
100
AcDbEntity
  8
細線
 48
50.0
100
AcDbLine
 10
8015.904397928903
 20
4663.112805903258
 30
0.0
 11
8015.904397928903
 21
4522.112805903257
 31
0.0
  0
LINE
  5
13C58
330
747D
100
AcDbEntity
  8
部品1
100
AcDbLine
 10
8035.914319259646
 20
4540.08274535836
 30
0.0
 11
8035.269413452533
 21
4528.71628050802
 31
0.0
  0
LINE
  5
13C59
330
747D
100
AcDbEntity
  8
部品1
100
AcDbLine
 10
8044.150349784489
 20
4632.282745358361
 30
0.0
 11
8039.115309056379
 21
4543.540152525419
 31
0.0
  0
ARC
  5
13C5A
330
747D
100
AcDbEntity
  8
部品1
 48
50.0
100
AcDbCircle
 10
8047.145532680676
 20
4632.11280590326
 30
0.0
 40
3.0
100
AcDbArc
 50
97.65812720736347
 51
176.7526572096623
  0
ARC
  5
13C5B
330
747D
100
AcDbEntity
  8
部品1
 48
50.0
100
AcDbCircle
 10
8038.909502155831
 20
4539.912805903258
 30
0.0
 40
3.0
100
AcDbArc
 50
97.65812720736347
 51
176.7526572096623
  0
ARC
  5
13C5C
330
747D
100
AcDbEntity
  8
部品1
 48
50.0
100
AcDbCircle
 10
8038.41643304727
 20
4543.579805064941
 30
0.0
 40
0.7
100
AcDbArc
 50
277.6581272073635
 51
356.7526572097143
  0
ARC
  5
13C5D
330
747D
100
AcDbEntity
  8
部品1
 48
50.0
100
AcDbCircle
 10
8046.652463572113
 20
4635.779805064945
 30
0.0
 40
0.7
100
AcDbArc
 50
277.6581272073635
 51
356.7526572096103
  0
ARC
  5
13C5E
330
747D
100
AcDbEntity
  8
部品1
100
AcDbCircle
 10
8028.280653361434
 20
4529.11280590326
 30
0.0
 40
7.0
100
AcDbArc
 50
270.0
 51
356.7526572096623
  0
ARC
  5
13C5F
330
747D
100
AcDbEntity
  8
部品1
100
AcDbCircle
 10
8041.495976822469
 20
4656.112805903258
 30
0.0
 40
7.0
100
AcDbArc
 50
356.7526572096623
 51
90.0
  0
DIMENSION
  5
13C60
330
747D
100
AcDbEntity
  8
寸法
 48
50.0
100
AcDbDimension
  2
*D18
 10
8048.904397928902
 20
5096.559691635249
 30
0.0
 11
5788.9043979289
 21
5096.559691635249
 31
0.0
 70
   160
 71
     5
 42
4520.000000000004
  3
INABA_S40G
100
AcDbAlignedDimension
 13
3528.904397928898
 23
4663.112805903263
 33
0.0
 14
8048.904397928902
 24
4663.112805903258
 34
0.0
100
AcDbRotatedDimension
  0
DIMENSION
  5
13C61
330
747D
100
AcDbEntity
  8
寸法
 48
50.0
100
AcDbDimension
  2
*D19
 10
7998.904397928902
 20
4875.654391161499
 30
0.0
 11
8362.389679303138
 21
4875.654391161499
 31
0.0
 70
   160
 71
     5
 42
50.0
  3
INABA_S40G
100
AcDbAlignedDimension
 13
8048.904397928902
 23
4663.112805903258
 33
0.0
 14
7998.904397928902
 24
4663.112805903259
 34
0.0
100
AcDbRotatedDimension
  0
DIMENSION
  5
13C62
330
747D
100
AcDbEntity
  8
寸法
 48
50.0
100
AcDbDimension
  2
*D20
 10
3578.904397928898
 20
4875.6543911615
 30
0.0
 11
5788.9043979289
 21
4875.6543911615
 31
0.0
 70
   160
  1
柱外寸法<>
 71
     5
 42
4420.000000000004
  3
INABA_S40G
100
AcDbAlignedDimension
 13
7998.904397928902
 23
4663.112805903259
 33
0.0
 14
3578.904397928898
 24
4663.112805903264
 34
0.0
100
AcDbRotatedDimension
  0
TEXT
  5
13DC7
330
747D
100
AcDbEntity
  8
文字
 62
     7
 48
50.0
100
AcDbText
 10
15022.63965474517
 20
9910.013745883727
 30
0.0
 40
100.0
  1
F12,Y10        1.0
  7
STYLE1
100
AcDbText
  0
TEXT
  5
13DC8
330
747D
100
AcDbEntity
  8
文字
 62
     7
 48
50.0
100
AcDbText
 10
13583.1181901657
 20
9910.01374588373
 30
0.0
 40
100.0
  1
梁中
 41
0.9
  7
STYLE1
100
AcDbText
  0
TEXT
  5
13DC9
330
747D
100
AcDbEntity
  8
文字
 62
     7
 48
50.0
100
AcDbText
 10
13248.77747366447
 20
8380.013745883728
 30
0.0
 40
100.0
  1
17
  7
STYLE1
100
AcDbText
  0
TEXT
  5
13DCA
330
747D
100
AcDbEntity
  8
文字
 62
     7
 48
50.0
100
AcDbText
 10
13248.77747366447
 20
8550.013745883729
 30
0.0
 40
100.0
  1
16
  7
STYLE1
100
AcDbText
  0
TEXT
  5
13DCB
330
747D
100
AcDbEntity
  8
文字
 62
     7
 48
50.0
100
AcDbText
 10
15022.63965474518
 20
8720.013745883726
 30
0.0
 40
100.0
  1
F12            1.0
  7
STYLE1
100
AcDbText
  0
TEXT
  5
13DCC
330
747D
100
AcDbEntity
  8
文字
 62
     7
 48
50.0
100
AcDbText
 10
13583.11819016569
 20
8720.013745883733
 30
0.0
 40
100.0
  1
壁面扉枠左右
  7
STYLE1
100
AcDbText
  0
TEXT
  5
13DCD
330
747D
100
AcDbEntity
  8
文字
 62
     7
 48
50.0
100
AcDbText
 10
15022.63965474518
 20
8890.013745883726
 30
0.0
 40
100.0
  1
F12            1.0
  7
STYLE1
100
AcDbText
  0
TEXT
  5
13DCE
330
747D
100
AcDbEntity
  8
文字
 62
     7
 48
50.0
100
AcDbText
 10
15022.63965474516
 20
9060.013745883727
 30
0.0
 40
100.0
  1
F12            0.7
  7
STYLE1
100
AcDbText
  0
TEXT
  5
13DCF
330
747D
100
AcDbEntity
  8
文字
 62
     7
 48
50.0
100
AcDbText
 10
13583.11819016569
 20
8890.013745883733
 30
0.0
 40
100.0
  1
壁面扉敷居
  7
STYLE1
100
AcDbText
  0
TEXT
  5
13DD0
330
747D
100
AcDbEntity
  8
文字
 62
     7
 48
50.0
100
AcDbText
 10
13583.11819016569
 20
9060.013745883729
 30
0.0
 40
100.0
  1
壁面扉鴨居
  7
STYLE1
100
AcDbText
  0
LINE
  5
13DD1
330
747D
100
AcDbEntity
  8
仕様書枠
 48
50.0
100
AcDbLine
 10
16307.19999999999
 20
8689.600000000003
 30
0.0
 11
13127.2
 21
8689.600000000005
 31
0.0
  0
LINE
  5
13DD2
330
747D
100
AcDbEntity
  8
仕様書枠
 48
50.0
100
AcDbLine
 10
16307.19999999999
 20
8519.600000000004
 30
0.0
 11
13127.2
 21
8519.600000000005
 31
0.0
  0
TEXT
  5
13DD5
330
747D
100
AcDbEntity
  8
部品1
100
AcDbText
 10
5497.694468552634
 20
1669.858311332604
 30
0.0
 40
135.0
  1
正面図
  7
STYLE2
100
AcDbText
  0
LWPOLYLINE
  5
13DD6
330
747D
100
AcDbEntity
  8
部品1
100
AcDbPolyline
 90
        4
 70
     1
 43
0.0
 10
5407.169064814677
 20
1862.751840551128
 10
5407.169064814677
 20
1622.859519005596
 10
6170.639731043118
 20
1622.859519005596
 10
6170.639731043118
 20
1862.751840551128
  0
TEXT
  5
13DD7
330
747D
100
AcDbEntity
  8
文字
 62
     7
 48
50.0
100
AcDbText
 10
14505.34213575793
 20
483.8967129911411
 30
0.0
 40
160.0
  1
ＮＸＮ－１１８Ｈ
  7
STYLE2
100
AcDbText
  0
TEXT
  5
13DD8
330
747D
100
AcDbEntity
  8
文字
 62
     7
 48
50.0
100
AcDbText
 10
13583.11819016569
 20
8210.013745883729
 30
0.0
 40
100.0
  1
アンカープレート
  7
STYLE1
100
AcDbText
  0
TEXT
  5
13DD9
330
747D
100
AcDbEntity
  8
文字
 62
     7
 48
50.0
100
AcDbText
 10
15022.63965474515
 20
8210.013745883724
 30
0.0
 40
100.0
  1
F12            2.3
  7
STYLE1
100
AcDbText
  0
LINE
  5
13DDA
330
747D
100
AcDbEntity
  8
仕様書枠
 48
50.0
100
AcDbLine
 10
16307.2
 20
10049.6
 30
0.0
 11
13127.2
 21
10049.6
 31
0.0
  0
LINE
  5
13DDB
330
747D
100
AcDbEntity
  8
仕様書枠
 48
50.0
100
AcDbLine
 10
16307.2
 20
11409.6
 30
0.0
 11
13127.2
 21
11409.6
 31
0.0
  0
LINE
  5
13DDC
330
747D
100
AcDbEntity
  8
仕様書枠
 48
50.0
100
AcDbLine
 10
16307.19999999999
 20
7839.600000000003
 30
0.0
 11
16307.2
 21
11409.6
 31
0.0
  0
LINE
  5
13DDD
330
747D
100
AcDbEntity
  8
仕様書枠
 48
50.0
100
AcDbLine
 10
14785.2
 20
11409.59999999999
 30
0.0
 11
14785.2
 21
8179.600000000005
 31
0.0
  0
LINE
  5
13DDE
330
747D
100
AcDbEntity
  8
仕様書枠
 48
50.0
100
AcDbLine
 10
13490.2
 20
11409.6
 30
0.0
 11
13490.20000000001
 21
8179.600000000005
 31
0.0
  0
LINE
  5
13DDF
330
747D
100
AcDbEntity
  8
仕様書枠
 48
50.0
100
AcDbLine
 10
16307.2
 20
11239.6
 30
0.0
 11
13127.2
 21
11239.6
 31
0.0
  0
LINE
  5
13DE0
330
747D
100
AcDbEntity
  8
仕様書枠
 48
50.0
100
AcDbLine
 10
16307.2
 20
10899.6
 30
0.0
 11
13127.2
 21
10899.6
 31
0.0
  0
LINE
  5
13DE1
330
747D
100
AcDbEntity
  8
仕様書枠
 48
50.0
100
AcDbLine
 10
16307.2
 20
11069.6
 30
0.0
 11
13127.2
 21
11069.6
 31
0.0
  0
LINE
  5
13DE2
330
747D
100
AcDbEntity
  8
仕様書枠
 48
50.0
100
AcDbLine
 10
16307.19999999999
 20
10559.6
 30
0.0
 11
13127.2
 21
10559.6
 31
0.0
  0
LINE
  5
13DE3
330
747D
100
AcDbEntity
  8
仕様書枠
 48
50.0
100
AcDbLine
 10
16307.19999999999
 20
10389.6
 30
0.0
 11
13127.2
 21
10389.6
 31
0.0
  0
LINE
  5
13DE4
330
747D
100
AcDbEntity
  8
仕様書枠
 48
50.0
100
AcDbLine
 10
16307.19999999999
 20
10729.6
 30
0.0
 11
13127.2
 21
10729.6
 31
0.0
  0
TEXT
  5
13DE5
330
747D
100
AcDbEntity
  8
文字
 62
     7
 48
50.0
100
AcDbText
 10
13197.42518560407
 20
11270.01374588372
 30
0.0
 40
100.0
  1
品番
  7
STYLE1
100
AcDbText
  0
TEXT
  5
13DE6
330
747D
100
AcDbEntity
  8
文字
 62
     7
 48
50.0
100
AcDbText
 10
13271.19032244792
 20
11100.01374588373
 30
0.0
 40
100.0
  1
1
  7
STYLE1
100
AcDbText
  0
TEXT
  5
13DE7
330
747D
100
AcDbEntity
  8
文字
 62
     7
 48
50.0
100
AcDbText
 10
13271.19032244792
 20
10930.01374588373
 30
0.0
 40
100.0
  1
2
  7
STYLE1
100
AcDbText
  0
TEXT
  5
13DE8
330
747D
100
AcDbEntity
  8
文字
 62
     7
 48
50.0
100
AcDbText
 10
13271.19032244792
 20
10590.01374588373
 30
0.0
 40
100.0
  1
4
  7
STYLE1
100
AcDbText
  0
TEXT
  5
13DE9
330
747D
100
AcDbEntity
  8
文字
 62
     7
 48
50.0
100
AcDbText
 10
13271.19032244792
 20
10760.01374588373
 30
0.0
 40
100.0
  1
3
  7
STYLE1
100
AcDbText
  0
TEXT
  5
13DEA
330
747D
100
AcDbEntity
  8
文字
 62
     7
 48
50.0
100
AcDbText
 10
13732.03840939434
 20
11270.01374588372
 30
0.0
 40
100.0
  1
部　　品　　名
  7
STYLE1
100
AcDbText
  0
TEXT
  5
13DEB
330
747D
100
AcDbEntity
  8
文字
 62
     7
 48
50.0
100
AcDbText
 10
14859.79774614482
 20
11270.01374588372
 30
0.0
 40
100.0
  1
材料（材質）　　単位mm
  7
STYLE1
100
AcDbText
  0
TEXT
  5
13DEC
330
747D
100
AcDbEntity
  8
文字
 62
     7
 48
50.0
100
AcDbText
 10
13583.11819016569
 20
11100.01374588373
 30
0.0
 40
100.0
  1
土台枠
  7
STYLE1
100
AcDbText
  0
TEXT
  5
13DED
330
747D
100
AcDbEntity
  8
文字
 62
     7
 48
50.0
100
AcDbText
 10
13583.1181901657
 20
10760.01374588372
 30
0.0
 40
100.0
  1
柱
  7
STYLE1
100
AcDbText
  0
TEXT
  5
13DEE
330
747D
100
AcDbEntity
  8
文字
 62
     7
 48
50.0
100
AcDbText
 10
13583.1181901657
 20
10420.01374588373
 30
0.0
 40
100.0
  1
桁前後
  7
STYLE1
100
AcDbText
  0
TEXT
  5
13DEF
330
747D
100
AcDbEntity
  8
文字
 62
     7
 48
50.0
100
AcDbText
 10
13271.19032244792
 20
10420.01374588372
 30
0.0
 40
100.0
  1
5
  7
STYLE1
100
AcDbText
  0
TEXT
  5
13DF0
330
747D
100
AcDbEntity
  8
文字
 62
     7
 48
50.0
100
AcDbText
 10
13583.1181901657
 20
10250.01374588373
 30
0.0
 40
100.0
  1
妻板左右
  7
STYLE1
100
AcDbText
  0
TEXT
  5
13DF1
330
747D
100
AcDbEntity
  8
文字
 62
     7
 48
50.0
100
AcDbText
 10
13248.77747366447
 20
9570.013745883727
 30
0.0
 40
100.0
  1
10
  7
STYLE1
100
AcDbText
  0
TEXT
  5
13DF2
330
747D
100
AcDbEntity
  8
文字
 62
     7
 48
50.0
100
AcDbText
 10
13583.11819016568
 20
9400.013745883729
 30
0.0
 40
100.0
  1
壁パネル
  7
STYLE1
100
AcDbText
  0
TEXT
  5
13DF3
330
747D
100
AcDbEntity
  8
文字
 62
     7
 48
50.0
100
AcDbText
 10
13583.11819016569
 20
9740.013745883729
 30
0.0
 40
100.0
  1
屋根パネル
  7
STYLE1
100
AcDbText
  0
TEXT
  5
13DF4
330
747D
100
AcDbEntity
  8
文字
 62
     7
 48
50.0
100
AcDbText
 10
13583.1181901657
 20
10080.01374588372
 30
0.0
 40
100.0
  1
鼻隠シ前後
  7
STYLE1
100
AcDbText
  0
TEXT
  5
13DF5
330
747D
100
AcDbEntity
  8
文字
 62
     7
 48
50.0
100
AcDbText
 10
13271.19032244792
 20
9910.01374588373
 30
0.0
 40
100.0
  1
8
  7
STYLE1
100
AcDbText
  0
TEXT
  5
13DF6
330
747D
100
AcDbEntity
  8
文字
 62
     7
 48
50.0
100
AcDbText
 10
13271.19032244792
 20
9740.013745883729
 30
0.0
 40
100.0
  1
9
  7
STYLE1
100
AcDbText
  0
TEXT
  5
13DF7
330
747D
100
AcDbEntity
  8
文字
 62
     7
 48
50.0
100
AcDbText
 10
13271.19032244792
 20
10080.01374588373
 30
0.0
 40
100.0
  1
7
  7
STYLE1
100
AcDbText
  0
TEXT
  5
13DF8
330
747D
100
AcDbEntity
  8
文字
 62
     7
 48
50.0
100
AcDbText
 10
13271.19032244792
 20
10250.01374588373
 30
0.0
 40
100.0
  1
6
  7
STYLE1
100
AcDbText
  0
LINE
  5
13DF9
330
747D
100
AcDbEntity
  8
仕様書枠
 48
50.0
100
AcDbLine
 10
16307.19999999999
 20
9709.6
 30
0.0
 11
13127.2
 21
9709.600000000001
 31
0.0
  0
LINE
  5
13DFA
330
747D
100
AcDbEntity
  8
仕様書枠
 48
50.0
100
AcDbLine
 10
16307.19999999999
 20
9369.599999999998
 30
0.0
 11
13127.2
 21
9369.600000000001
 31
0.0
  0
LINE
  5
13DFB
330
747D
100
AcDbEntity
  8
仕様書枠
 48
50.0
100
AcDbLine
 10
16307.19999999999
 20
9539.599999999998
 30
0.0
 11
13127.2
 21
9539.6
 31
0.0
  0
LINE
  5
13DFC
330
747D
100
AcDbEntity
  8
仕様書枠
 48
50.0
100
AcDbLine
 10
16307.2
 20
10219.6
 30
0.0
 11
13127.2
 21
10219.6
 31
0.0
  0
LINE
  5
13DFD
330
747D
100
AcDbEntity
  8
仕様書枠
 48
50.0
100
AcDbLine
 10
16307.2
 20
9879.599999999999
 30
0.0
 11
13127.2
 21
9879.600000000001
 31
0.0
  0
TEXT
  5
13DFE
330
747D
100
AcDbEntity
  8
文字
 62
     7
 48
50.0
100
AcDbText
 10
13248.77747366447
 20
9400.013745883727
 30
0.0
 40
100.0
  1
11
  7
STYLE1
100
AcDbText
  0
LINE
  5
13DFF
330
747D
100
AcDbEntity
  8
仕様書枠
 48
50.0
100
AcDbLine
 10
16307.19999999999
 20
9199.599999999998
 30
0.0
 11
13127.2
 21
9199.600000000001
 31
0.0
  0
LINE
  5
13E00
330
747D
100
AcDbEntity
  8
仕様書枠
 48
50.0
100
AcDbLine
 10
16307.19999999999
 20
8859.6
 30
0.0
 11
13127.2
 21
8859.600000000002
 31
0.0
  0
TEXT
  5
13E01
330
747D
100
AcDbEntity
  8
文字
 62
     7
 48
50.0
100
AcDbText
 10
13248.77747366447
 20
9060.013745883727
 30
0.0
 40
100.0
  1
13
  7
STYLE1
100
AcDbText
  0
TEXT
  5
13E02
330
747D
100
AcDbEntity
  8
文字
 62
     7
 48
50.0
100
AcDbText
 10
13248.77747366447
 20
9230.013745883727
 30
0.0
 40
100.0
  1
12
  7
STYLE1
100
AcDbText
  0
TEXT
  5
13E03
330
747D
100
AcDbEntity
  8
文字
 62
     7
 48
50.0
100
AcDbText
 10
15022.63965474517
 20
11100.01374588372
 30
0.0
 40
100.0
  1
F12            1.2
  7
STYLE1
100
AcDbText
  0
TEXT
  5
13E04
330
747D
100
AcDbEntity
  8
文字
 62
     7
 48
50.0
100
AcDbText
 10
15022.63965474518
 20
10760.01374588372
 30
0.0
 40
100.0
  1
F12            1.0
  7
STYLE1
100
AcDbText
  0
TEXT
  5
13E05
330
747D
100
AcDbEntity
  8
文字
 62
     7
 48
50.0
100
AcDbText
 10
15022.63965474517
 20
10420.01374588372
 30
0.0
 40
100.0
  1
Y10            1.0
  7
STYLE1
100
AcDbText
  0
TEXT
  5
13E06
330
747D
100
AcDbEntity
  8
文字
 62
     7
 48
50.0
100
AcDbText
 10
15022.63965474517
 20
10250.01374588372
 30
0.0
 40
100.0
  1
Y10            0.7
  7
STYLE1
100
AcDbText
  0
TEXT
  5
13E07
330
747D
100
AcDbEntity
  8
文字
 62
     7
 48
50.0
100
AcDbText
 10
15022.63965474517
 20
10080.01374588372
 30
0.0
 40
100.0
  1
Y10            0.7
  7
STYLE1
100
AcDbText
  0
TEXT
  5
13E08
330
747D
100
AcDbEntity
  8
文字
 62
     7
 48
50.0
100
AcDbText
 10
15022.63965474517
 20
9740.013745883725
 30
0.0
 40
100.0
  1
Y10            0.5
  7
STYLE1
100
AcDbText
  0
TEXT
  5
13E09
330
747D
100
AcDbEntity
  8
文字
 62
     7
 48
50.0
100
AcDbText
 10
15022.63965474515
 20
9400.013745883725
 30
0.0
 40
100.0
  1
F12            0.7
  7
STYLE1
100
AcDbText
  0
LINE
  5
13E0A
330
747D
100
AcDbEntity
  8
仕様書枠
 48
50.0
100
AcDbLine
 10
16307.19999999999
 20
8349.600000000004
 30
0.0
 11
13127.19999999999
 21
8349.600000000007
 31
0.0
  0
LINE
  5
13E0B
330
747D
100
AcDbEntity
  8
仕様書枠
 48
50.0
100
AcDbLine
 10
16307.19999999999
 20
8009.600000000004
 30
0.0
 11
13127.19999999999
 21
8009.600000000006
 31
0.0
  0
TEXT
  5
13E0C
330
747D
100
AcDbEntity
  8
文字
 62
     7
 48
50.0
100
AcDbText
 10
13229.83081656554
 20
8040.013745883731
 30
0.0
 40
100.0
  1
F12→溶融亜鉛めっき鋼板(JIS G 3302)
  7
STYLE1
100
AcDbText
  0
TEXT
  5
13E0D
330
747D
100
AcDbEntity
  8
文字
 62
     7
 48
50.0
100
AcDbText
 10
13229.83081656554
 20
7870.013745883733
 30
0.0
 40
100.0
  1
Y10→溶融亜鉛-5％アルミニウム合金めっき鋼板(JIS G 3317)
 41
0.9
  7
STYLE1
100
AcDbText
  0
LINE
  5
13E0E
330
747D
100
AcDbEntity
  8
仕様書枠
 48
50.0
100
AcDbLine
 10
13127.2
 20
11409.6
 30
0.0
 11
13127.19999999999
 21
7839.600000000007
 31
0.0
  0
LINE
  5
13E0F
330
747D
100
AcDbEntity
  8
仕様書枠
 48
50.0
100
AcDbLine
 10
16307.19999999999
 20
9029.6
 30
0.0
 11
13127.2
 21
9029.600000000002
 31
0.0
  0
TEXT
  5
13E10
330
747D
100
AcDbEntity
  8
文字
 62
     7
 48
50.0
100
AcDbText
 10
13583.1181901657
 20
10590.01374588373
 30
0.0
 40
100.0
  1
床パネル
 41
0.9
  7
STYLE1
100
AcDbText
  0
TEXT
  5
13E11
330
747D
100
AcDbEntity
  8
文字
 62
     7
 48
50.0
100
AcDbText
 10
13583.11819016569
 20
10930.01374588372
 30
0.0
 40
100.0
  1
根太
  7
STYLE1
100
AcDbText
  0
TEXT
  5
13E12
330
747D
100
AcDbEntity
  8
文字
 62
     7
 48
50.0
100
AcDbText
 10
13248.77747366447
 20
8890.013745883727
 30
0.0
 40
100.0
  1
14
  7
STYLE1
100
AcDbText
  0
TEXT
  5
13E13
330
747D
100
AcDbEntity
  8
文字
 62
     7
 48
50.0
100
AcDbText
 10
15022.63965474516
 20
10930.01374588372
 30
0.0
 40
100.0
  1
F12            1.2
  7
STYLE1
100
AcDbText
  0
TEXT
  5
13E14
330
747D
100
AcDbEntity
  8
文字
 62
     7
 48
50.0
100
AcDbText
 10
15022.63965474517
 20
10590.01374588372
 30
0.0
 40
100.0
  1
F12            1.0
  7
STYLE1
100
AcDbText
  0
TEXT
  5
13E15
330
747D
100
AcDbEntity
  8
文字
 62
     7
 48
50.0
100
AcDbText
 10
15022.63965474515
 20
8550.013745883727
 30
0.0
 40
100.0
  1
F12            0.7
  7
STYLE1
100
AcDbText
  0
TEXT
  5
13E16
330
747D
100
AcDbEntity
  8
文字
 62
     7
 48
50.0
100
AcDbText
 10
13583.11819016568
 20
8550.013745883731
 30
0.0
 40
100.0
  1
正面パネル
  7
STYLE1
100
AcDbText
  0
TEXT
  5
13E17
330
747D
100
AcDbEntity
  8
文字
 62
     7
 48
50.0
100
AcDbText
 10
15022.63965474516
 20
8380.013745883728
 30
0.0
 40
100.0
  1
F12            0.8
  7
STYLE1
100
AcDbText
  0
TEXT
  5
13E18
330
747D
100
AcDbEntity
  8
文字
 62
     7
 48
50.0
100
AcDbText
 10
13583.11819016569
 20
8380.013745883731
 30
0.0
 40
100.0
  1
扉
  7
STYLE1
100
AcDbText
  0
LINE
  5
13E19
330
747D
100
AcDbEntity
  8
仕様書枠
 48
50.0
100
AcDbLine
 10
16307.19999999998
 20
7839.600000000004
 30
0.0
 11
13127.19999999998
 21
7839.600000000006
 31
0.0
  0
TEXT
  5
13E1A
330
747D
100
AcDbEntity
  8
文字
 62
     7
 48
50.0
100
AcDbText
 10
13248.77747366447
 20
8720.013745883729
 30
0.0
 40
100.0
  1
15
  7
STYLE1
100
AcDbText
  0
TEXT
  5
13E1B
330
747D
100
AcDbEntity
  8
文字
 62
     7
 48
50.0
100
AcDbText
 10
13583.11819016569
 20
9570.013745883727
 30
0.0
 40
100.0
  1
母屋中
  7
STYLE1
100
AcDbText
  0
LINE
  5
13E21
330
747D
100
AcDbEntity
  8
部品1
 48
50.0
100
AcDbLine
 10
3633.904397928898
 20
7422.963433610722
 30
0.0
 11
5733.904397928898
 21
7422.963433610727
 31
0.0
  0
LINE
  5
13E22
330
747D
100
AcDbEntity
  8
部品1
100
AcDbLine
 10
5760.904400172469
 20
9996.963437187897
 30
0.0
 11
5788.904400172469
 21
9996.963437187897
 31
0.0
  0
LINE
  5
13E23
330
747D
100
AcDbEntity
  8
部品1
100
AcDbLine
 10
5816.904400172468
 20
9996.963437187897
 30
0.0
 11
5816.904400172468
 21
10024.96343718789
 31
0.0
  0
LINE
  5
13E24
330
747D
100
AcDbEntity
  8
部品1
100
AcDbLine
 10
5760.904400172469
 20
9996.963437187897
 30
0.0
 11
5760.904400172469
 21
10024.9634371879
 31
0.0
  0
LINE
  5
13E25
330
747D
100
AcDbEntity
  8
部品1
 48
50.0
100
AcDbLine
 10
5788.904400172469
 20
9996.963437187897
 30
0.0
 11
5760.904400172469
 21
10024.96343718789
 31
0.0
  0
LINE
  5
13E30
330
747D
100
AcDbEntity
  8
部品1
100
AcDbLine
 10
11362.72067958068
 20
2288.112805903256
 30
0.0
 11
11285.72067958068
 21
2288.112805903256
 31
0.0
  0
DIMENSION
  5
13E39
330
747D
100
AcDbEntity
  8
寸法
 48
50.0
100
AcDbDimension
  2
*D21
 10
10817.81203818343
 20
2354.112805903257
 30
0.0
 11
10725.80022715981
 21
3366.612805903259
 31
0.0
 70
    32
  1
有効開口部高サ<>
 71
     5
 42
2025.0
  3
INABA_S40
100
AcDbAlignedDimension
 13
11285.72067958069
 23
4379.112805903257
 33
0.0
 14
11285.72067958068
 24
2354.112805903256
 34
0.0
 50
90.0
100
AcDbRotatedDimension
1001
ACAD
1000
DSTYLE
1002
{
1070
    41
1040
0.5
1070
    44
1040
1.0
1070
   147
1040
0.8
1070
   271
1070
     2
1070
   272
1070
     2
1070
   289
1070
     3
1070
   340
1005
F706
1070
   343
1005
F744
1070
   344
1005
F744
1002
}
  0
LINE
  5
13E53
330
747D
100
AcDbEntity
  8
部品1
100
AcDbLine
 10
11285.72067958069
 20
4413.799910811658
 30
0.0
 11
11285.72067958068
 21
2188.112805903256
 31
0.0
  0
LINE
  5
13E67
330
747D
100
AcDbEntity
  8
部品1
100
AcDbLine
 10
7970.904397928897
 20
9969.963433610731
 30
0.0
 11
7998.904397928898
 21
9969.963433610731
 31
0.0
  0
LINE
  5
13E68
330
747D
100
AcDbEntity
  8
部品1
100
AcDbLine
 10
7943.904397928898
 20
10024.96343361073
 30
0.0
 11
7943.904397928898
 21
9996.963433610726
 31
0.0
  0
LINE
  5
13E69
330
747D
100
AcDbEntity
  8
部品1
 48
50.0
100
AcDbLine
 10
7970.904397928897
 20
9996.963433610726
 30
0.0
 11
7943.904397928898
 21
9969.963433610731
 31
0.0
  0
LINE
  5
13E6A
330
747D
100
AcDbEntity
  8
部品1
100
AcDbLine
 10
7523.904397928898
 20
10024.96343361073
 30
0.0
 11
7523.904397928898
 21
9996.963433610726
 31
0.0
  0
LINE
  5
13E6B
330
747D
100
AcDbEntity
  8
部品1
100
AcDbLine
 10
7103.904397928897
 20
10024.96343361073
 30
0.0
 11
7103.904397928897
 21
9996.963433610726
 31
0.0
  0
LINE
  5
13E6C
330
747D
100
AcDbEntity
  8
部品1
100
AcDbLine
 10
7103.904397928897
 20
9996.963433610726
 30
0.0
 11
7970.904397928897
 21
9996.963433610726
 31
0.0
  0
LINE
  5
13E6D
330
747D
100
AcDbEntity
  8
破線
  6
HIDDEN
 48
10.0
100
AcDbLine
 10
7920.404397928898
 20
9946.463433610732
 30
0.0
 11
7264.404397928927
 21
9946.46343361073
 31
0.0
  0
LINE
  5
13E6E
330
747D
100
AcDbEntity
  8
部品1
100
AcDbLine
 10
6683.904397928898
 20
10024.96343361073
 30
0.0
 11
6683.904397928898
 21
9996.963433610726
 31
0.0
  0
LINE
  5
13E6F
330
747D
100
AcDbEntity
  8
部品1
100
AcDbLine
 10
6906.404397928898
 20
9996.96343361073
 30
0.0
 11
7301.404397928898
 21
9996.963433610726
 31
0.0
  0
LINE
  5
13E70
330
747D
100
AcDbEntity
  8
部品1
100
AcDbLine
 10
6263.904397928898
 20
10024.96343361073
 30
0.0
 11
6263.904397928898
 21
9996.963433610726
 31
0.0
  0
LINE
  5
13E71
330
747D
100
AcDbEntity
  8
部品1
100
AcDbLine
 10
5843.904397928898
 20
10024.96343361073
 30
0.0
 11
5843.904397928898
 21
9996.963433610726
 31
0.0
  0
LINE
  5
13E72
330
747D
100
AcDbEntity
  8
部品1
100
AcDbLine
 10
5843.904397928898
 20
10024.96343361073
 30
0.0
 11
5843.904397928898
 21
9996.963433610726
 31
0.0
  0
LINE
  5
13E73
330
747D
100
AcDbEntity
  8
部品1
100
AcDbLine
 10
5760.904397928898
 20
9969.963433610731
 30
0.0
 11
5788.904397928899
 21
9969.963433610731
 31
0.0
  0
LINE
  5
13E74
330
747D
100
AcDbEntity
  8
部品1
100
AcDbLine
 10
5733.904397928898
 20
10024.96343361073
 30
0.0
 11
5733.904397928898
 21
9996.963433610726
 31
0.0
  0
LINE
  5
13E75
330
747D
100
AcDbEntity
  8
部品1
100
AcDbLine
 10
5816.904397928897
 20
9969.963433610731
 30
0.0
 11
5788.904397928899
 21
9969.963433610731
 31
0.0
  0
LINE
  5
13E76
330
747D
100
AcDbEntity
  8
部品1
 48
50.0
100
AcDbLine
 10
5760.904397928898
 20
9996.96343361073
 30
0.0
 11
5733.904397928898
 21
9969.963433610734
 31
0.0
  0
LINE
  5
13E77
330
747D
100
AcDbEntity
  8
部品1
 48
50.0
100
AcDbLine
 10
5816.904397928897
 20
9996.96343361073
 30
0.0
 11
5843.904397928898
 21
9969.963433610729
 31
0.0
  0
DIMENSION
  5
13E78
330
747D
100
AcDbEntity
  8
寸法
 48
50.0
100
AcDbDimension
  2
*D22
 10
5843.904397928898
 20
10399.67584362952
 30
0.0
 11
5788.904397928899
 21
10399.67584362952
 31
0.0
 70
   160
 71
     5
 42
110.0
  3
INABA_S40
100
AcDbAlignedDimension
 13
5733.904397928898
 23
10024.96343361073
 33
0.0
 14
5843.904397928898
 24
10024.96343361073
 34
0.0
100
AcDbRotatedDimension
1001
ACAD
1000
DSTYLE
1002
{
1070
    41
1040
0.5
1070
    44
1040
1.0
1070
   147
1040
0.8
1070
   271
1070
     2
1070
   272
1070
     2
1070
   289
1070
     3
1070
   340
1005
F706
1070
   343
1005
F744
1070
   344
1005
F744
1002
}
  0
LINE
  5
13E79
330
747D
100
AcDbEntity
  8
部品1
100
AcDbLine
 10
5733.904397928898
 20
10024.96343361073
 30
0.0
 11
5733.904397928898
 21
9996.963433610726
 31
0.0
  0
LINE
  5
13E7A
330
747D
100
AcDbEntity
  8
部品1
100
AcDbLine
 10
5313.904397928898
 20
10024.96343361073
 30
0.0
 11
5313.904397928898
 21
9996.963433610726
 31
0.0
  0
LINE
  5
13E7B
330
747D
100
AcDbEntity
  8
部品1
100
AcDbLine
 10
5760.904397928898
 20
9996.96343361073
 30
0.0
 11
5313.904397928898
 21
9996.96343361073
 31
0.0
  0
LINE
  5
13E7C
330
747D
100
AcDbEntity
  8
破線
  6
HIDDEN
 48
10.0
100
AcDbLine
 10
4363.404397928913
 20
9946.46343361073
 30
0.0
 11
5004.404397928913
 21
9946.463433610732
 31
0.0
  0
LINE
  5
13E7D
330
747D
100
AcDbEntity
  8
部品1
100
AcDbLine
 10
4893.904397928898
 20
10024.96343361073
 30
0.0
 11
4893.904397928898
 21
9996.963433610726
 31
0.0
  0
LINE
  5
13E7E
330
747D
100
AcDbEntity
  8
部品1
100
AcDbLine
 10
4473.904397928897
 20
10024.96343361073
 30
0.0
 11
4473.904397928897
 21
9996.963433610726
 31
0.0
  0
LINE
  5
13E7F
330
747D
100
AcDbEntity
  8
部品1
100
AcDbLine
 10
4053.904397928898
 20
10024.96343361073
 30
0.0
 11
4053.904397928898
 21
9996.963433610726
 31
0.0
  0
LINE
  5
13E80
330
747D
100
AcDbEntity
  8
部品1
100
AcDbLine
 10
5313.904397928898
 20
9996.96343361073
 30
0.0
 11
4053.904397928898
 21
9996.96343361073
 31
0.0
  0
LINE
  5
13E81
330
747D
100
AcDbEntity
  8
部品1
100
AcDbLine
 10
5788.904397928899
 20
10024.96343361072
 30
0.0
 11
7998.904397928898
 21
10024.96343361072
 31
0.0
  0
DIMENSION
  5
13E82
330
747D
100
AcDbEntity
  8
寸法
 48
50.0
100
AcDbDimension
  2
*D23
 10
7943.904397928898
 20
10399.67584362952
 30
0.0
 11
6893.904397928898
 21
10491.68765465314
 31
0.0
 70
    32
  1
5X420=<>
 71
     5
 42
2100.0
  3
INABA_S40
100
AcDbAlignedDimension
 13
5843.904397928898
 23
10024.96343361073
 33
0.0
 14
7943.904397928898
 24
10024.96343361073
 34
0.0
100
AcDbRotatedDimension
1001
ACAD
1000
DSTYLE
1002
{
1070
    41
1040
0.5
1070
    44
1040
1.0
1070
   147
1040
0.8
1070
   271
1070
     2
1070
   272
1070
     2
1070
   289
1070
     3
1070
   340
1005
F706
1070
   343
1005
F744
1070
   344
1005
F744
1002
}
  0
LINE
  5
13E83
330
747D
100
AcDbEntity
  8
部品1
100
AcDbLine
 10
5816.904397928897
 20
9996.96343361073
 30
0.0
 11
7103.904397928897
 21
9996.96343361073
 31
0.0
  0
LINE
  5
13E84
330
747D
100
AcDbEntity
  8
部品1
100
AcDbLine
 10
7943.904397928898
 20
9969.963433610731
 30
0.0
 11
5843.904397928898
 21
9969.963433610729
 31
0.0
  0
LINE
  5
13E85
330
747D
100
AcDbEntity
  8
破線
  6
HIDDEN
 48
10.0
100
AcDbLine
 10
6523.404397928906
 20
9946.463433610729
 30
0.0
 11
5867.404397928901
 21
9946.463433610729
 31
0.0
  0
LINE
  5
13E86
330
747D
100
AcDbEntity
  8
部品1
100
AcDbLine
 10
7970.904397928897
 20
8709.963433610729
 30
0.0
 11
7998.904397928898
 21
8709.963433610729
 31
0.0
  0
LINE
  5
13E87
330
747D
100
AcDbEntity
  8
部品1
100
AcDbLine
 10
7970.904397928897
 20
8289.963433610729
 30
0.0
 11
7998.904397928898
 21
8289.963433610729
 31
0.0
  0
LINE
  5
13E88
330
747D
100
AcDbEntity
  8
部品1
100
AcDbLine
 10
7970.904397928897
 20
7869.963433610731
 30
0.0
 11
7998.904397928898
 21
7869.963433610731
 31
0.0
  0
LINE
  5
13E89
330
747D
100
AcDbEntity
  8
部品1
100
AcDbLine
 10
7970.904397928897
 20
7449.963433610723
 30
0.0
 11
7998.904397928898
 21
7449.963433610723
 31
0.0
  0
LINE
  5
13E8A
330
747D
100
AcDbEntity
  8
部品1
100
AcDbLine
 10
7943.904397928898
 20
7394.963433610725
 30
0.0
 11
7943.904397928898
 21
7422.963433610727
 31
0.0
  0
LINE
  5
13E8B
330
747D
100
AcDbEntity
  8
部品1
 48
50.0
100
AcDbLine
 10
7970.904397928897
 20
7422.963433610727
 30
0.0
 11
7943.904397928898
 21
7449.963433610726
 31
0.0
  0
LINE
  5
13E8C
330
747D
100
AcDbEntity
  8
部品1
100
AcDbLine
 10
7523.904397928898
 20
7394.963433610725
 30
0.0
 11
7523.904397928898
 21
7422.963433610727
 31
0.0
  0
LINE
  5
13E8D
330
747D
100
AcDbEntity
  8
部品1
100
AcDbLine
 10
7103.904397928897
 20
7394.963433610725
 30
0.0
 11
7103.904397928897
 21
7422.963433610727
 31
0.0
  0
LINE
  5
13E8F
330
747D
100
AcDbEntity
  8
部品1
100
AcDbLine
 10
6683.904397928898
 20
7394.963433610725
 30
0.0
 11
6683.904397928898
 21
7422.963433610727
 31
0.0
  0
LINE
  5
13E90
330
747D
100
AcDbEntity
  8
部品1
100
AcDbLine
 10
7970.904397928897
 20
9969.963433610731
 30
0.0
 11
7970.904397928897
 21
7422.963433610727
 31
0.0
  0
LINE
  5
13E91
330
747D
100
AcDbEntity
  8
部品1
100
AcDbLine
 10
6263.904397928898
 20
7394.963433610725
 30
0.0
 11
6263.904397928898
 21
7422.963433610727
 31
0.0
  0
LINE
  5
13E92
330
747D
100
AcDbEntity
  8
部品1
100
AcDbLine
 10
5760.904397928898
 20
7449.963433610723
 30
0.0
 11
5788.904397928899
 21
7449.963433610723
 31
0.0
  0
LINE
  5
13E93
330
747D
100
AcDbEntity
  8
部品1
100
AcDbLine
 10
5816.904397928897
 20
7449.963433610723
 30
0.0
 11
5788.904397928899
 21
7449.963433610723
 31
0.0
  0
LINE
  5
13E94
330
747D
100
AcDbEntity
  8
部品1
100
AcDbLine
 10
5843.904397928898
 20
7394.963433610725
 30
0.0
 11
5843.904397928898
 21
7422.963433610727
 31
0.0
  0
LINE
  5
13E95
330
747D
100
AcDbEntity
  8
部品1
100
AcDbLine
 10
5733.904397928898
 20
7394.963433610725
 30
0.0
 11
5733.904397928898
 21
7422.963433610727
 31
0.0
  0
LINE
  5
13E96
330
747D
100
AcDbEntity
  8
部品1
100
AcDbLine
 10
5843.904397928898
 20
7394.963433610728
 30
0.0
 11
5788.904397928899
 21
7394.963433610726
 31
0.0
  0
LINE
  5
13E97
330
747D
100
AcDbEntity
  8
部品1
 48
50.0
100
AcDbLine
 10
5760.904397928898
 20
7422.963433610728
 30
0.0
 11
5733.904397928898
 21
7449.963433610723
 31
0.0
  0
LINE
  5
13E98
330
747D
100
AcDbEntity
  8
部品1
 48
50.0
100
AcDbLine
 10
5816.904397928897
 20
7422.963433610727
 30
0.0
 11
5843.904397928898
 21
7449.963433610726
 31
0.0
  0
LINE
  5
13E99
330
747D
100
AcDbEntity
  8
部品1
100
AcDbLine
 10
5733.904397928898
 20
7394.963433610725
 30
0.0
 11
5733.904397928898
 21
7422.963433610727
 31
0.0
  0
LINE
  5
13E9A
330
747D
100
AcDbEntity
  8
部品1
100
AcDbLine
 10
5733.904397928898
 20
7394.963433610725
 30
0.0
 11
5733.904397928898
 21
7422.963433610727
 31
0.0
  0
LINE
  5
13E9B
330
747D
100
AcDbEntity
  8
部品1
100
AcDbLine
 10
5733.904397928898
 20
7394.963433610726
 30
0.0
 11
5788.904397928899
 21
7394.963433610726
 31
0.0
  0
LINE
  5
13E9E
330
747D
100
AcDbEntity
  8
部品1
100
AcDbLine
 10
7970.904397928897
 20
7422.963433610727
 30
0.0
 11
5816.904397928897
 21
7422.963433610728
 31
0.0
  0
LINE
  5
13E9F
330
747D
100
AcDbEntity
  8
部品1
100
AcDbLine
 10
7943.904397928898
 20
7449.963433610726
 30
0.0
 11
5843.904397928898
 21
7449.963433610729
 31
0.0
  0
LINE
  5
13EA0
330
747D
100
AcDbEntity
  8
部品1
100
AcDbLine
 10
7998.904397928898
 20
7394.963433610726
 30
0.0
 11
5843.904397928898
 21
7394.963433610726
 31
0.0
  0
LINE
  5
13EA1
330
747D
100
AcDbEntity
  8
部品1
100
AcDbLine
 10
5843.904397928898
 20
8709.963433610729
 30
0.0
 11
7943.904397928898
 21
8709.963433610729
 31
0.0
  0
LINE
  5
13EA2
330
747D
100
AcDbEntity
  8
部品1
100
AcDbLine
 10
5843.904397928898
 20
8289.963433610727
 30
0.0
 11
7943.904397928898
 21
8289.963433610727
 31
0.0
  0
LINE
  5
13EA3
330
747D
100
AcDbEntity
  8
部品1
100
AcDbLine
 10
5843.904397928898
 20
7869.963433610728
 30
0.0
 11
7943.904397928898
 21
7869.963433610728
 31
0.0
  0
LINE
  5
13EA5
330
747D
100
AcDbEntity
  8
部品1
100
AcDbLine
 10
7970.904397928897
 20
9996.963433610726
 30
0.0
 11
7970.904397928897
 21
8927.963433610727
 31
0.0
  0
LINE
  5
13EA6
330
747D
100
AcDbEntity
  8
部品1
100
AcDbLine
 10
7998.904397928898
 20
10024.96343361072
 30
0.0
 11
7998.904397928898
 21
7394.963433610726
 31
0.0
  0
LINE
  5
13EA7
330
747D
100
AcDbEntity
  8
破線
  6
HIDDEN
 48
10.0
100
AcDbLine
 10
7920.404397928898
 20
9946.463433610734
 30
0.0
 11
7920.404397928898
 21
7473.463433610724
 31
0.0
  0
LINE
  5
13EA8
330
747D
100
AcDbEntity
  8
部品1
100
AcDbLine
 10
5760.904397928898
 20
7422.963433610728
 30
0.0
 11
5760.904397928898
 21
9996.96343361073
 31
0.0
  0
LINE
  5
13EA9
330
747D
100
AcDbEntity
  8
部品1
100
AcDbLine
 10
5733.904397928898
 20
7449.963433610723
 30
0.0
 11
5733.904397928895
 21
9969.963433610733
 31
0.0
  0
LINE
  5
13EAA
330
747D
100
AcDbEntity
  8
破線
  6
HIDDEN
 48
10.0
100
AcDbLine
 10
5710.404397928898
 20
7473.463433610723
 30
0.0
 11
5710.404397928894
 21
9946.463433610732
 31
0.0
  0
LINE
  5
13EAB
330
747D
100
AcDbEntity
  8
部品1
100
AcDbLine
 10
5816.904397928897
 20
7422.963433610727
 30
0.0
 11
5816.904397928897
 21
9996.96343361073
 31
0.0
  0
LINE
  5
13EAC
330
747D
100
AcDbEntity
  8
破線
  6
HIDDEN
 48
10.0
100
AcDbLine
 10
5867.404397928898
 20
7473.463433610726
 30
0.0
 11
5867.404397928897
 21
9946.463433610727
 31
0.0
  0
LINE
  5
13EAD
330
747D
100
AcDbEntity
  8
部品1
100
AcDbLine
 10
5843.904397928898
 20
7449.963433610726
 30
0.0
 11
5843.904397928898
 21
9969.963433610727
 31
0.0
  0
LINE
  5
13EAE
330
747D
100
AcDbEntity
  8
部品1
100
AcDbLine
 10
7943.904397928898
 20
9969.963433610731
 30
0.0
 11
7943.904397928898
 21
7449.963433610726
 31
0.0
  0
LINE
  5
13EAF
330
747D
100
AcDbEntity
  8
部品1
100
AcDbLine
 10
3606.904397928899
 20
9969.963433610731
 30
0.0
 11
3578.904397928898
 21
9969.963433610731
 31
0.0
  0
LINE
  5
13EB0
330
747D
100
AcDbEntity
  8
部品1
100
AcDbLine
 10
3633.904397928898
 20
10024.96343361073
 30
0.0
 11
3633.904397928898
 21
9996.963433610726
 31
0.0
  0
LINE
  5
13EB1
330
747D
100
AcDbEntity
  8
部品1
 48
50.0
100
AcDbLine
 10
3606.904397928899
 20
9996.96343361073
 30
0.0
 11
3633.904397928894
 21
9969.963433610729
 31
0.0
  0
DIMENSION
  5
13EB2
330
747D
100
AcDbEntity
  8
寸法
 48
50.0
100
AcDbDimension
  2
*D24
 10
3633.904397928898
 20
10399.67584362952
 30
0.0
 11
3184.737731262232
 21
10399.67584362952
 31
0.0
 70
   160
 71
     5
 42
55.0
  3
INABA_S40
100
AcDbAlignedDimension
 13
3578.904397928898
 23
10024.96343361072
 33
0.0
 14
3633.904397928898
 24
10024.96343361073
 34
0.0
100
AcDbRotatedDimension
1001
ACAD
1000
DSTYLE
1002
{
1070
    41
1040
0.5
1070
    44
1040
1.0
1070
   147
1040
0.8
1070
   271
1070
     2
1070
   272
1070
     2
1070
   289
1070
     3
1070
   340
1005
F706
1070
   343
1005
F744
1070
   344
1005
F744
1002
}
  0
LINE
  5
13EB3
330
747D
100
AcDbEntity
  8
破線
  6
HIDDEN
 48
10.0
100
AcDbLine
 10
3657.404397928895
 20
9946.46343361073
 30
0.0
 11
4313.404397928901
 21
9946.463433610725
 31
0.0
  0
LINE
  5
13EB4
330
747D
100
AcDbEntity
  8
部品1
100
AcDbLine
 10
3606.904397928899
 20
8709.963433610729
 30
0.0
 11
3578.904397928898
 21
8709.963433610729
 31
0.0
  0
LINE
  5
13EB5
330
747D
100
AcDbEntity
  8
部品1
100
AcDbLine
 10
3606.904397928899
 20
8289.963433610729
 30
0.0
 11
3578.904397928898
 21
8289.963433610729
 31
0.0
  0
LINE
  5
13EB6
330
747D
100
AcDbEntity
  8
部品1
100
AcDbLine
 10
3606.904397928899
 20
7869.963433610731
 30
0.0
 11
3578.904397928898
 21
7869.963433610731
 31
0.0
  0
LINE
  5
13EB7
330
747D
100
AcDbEntity
  8
部品1
100
AcDbLine
 10
3633.904397928898
 20
7394.963433610725
 30
0.0
 11
3633.904397928898
 21
7422.963433610727
 31
0.0
  0
LINE
  5
13EB8
330
747D
100
AcDbEntity
  8
部品1
100
AcDbLine
 10
3633.904397928898
 20
7394.963433610732
 30
0.0
 11
3633.904397928898
 21
7422.963433610734
 31
0.0
  0
LINE
  5
13EB9
330
747D
100
AcDbEntity
  8
部品1
100
AcDbLine
 10
3606.904397928899
 20
7449.963433610723
 30
0.0
 11
3578.904397928898
 21
7449.963433610723
 31
0.0
  0
LINE
  5
13EBA
330
747D
100
AcDbEntity
  8
部品1
100
AcDbLine
 10
3633.904397928898
 20
7394.963433610725
 30
0.0
 11
3633.904397928898
 21
7422.963433610727
 31
0.0
  0
LINE
  5
13EBB
330
747D
100
AcDbEntity
  8
部品1
 48
50.0
100
AcDbLine
 10
3606.904397928897
 20
7422.963433610727
 30
0.0
 11
3633.904397928894
 21
7449.963433610729
 31
0.0
  0
LINE
  5
13EBC
330
747D
100
AcDbEntity
  8
部品1
100
AcDbLine
 10
3578.904397928898
 20
7394.963433610726
 30
0.0
 11
3633.904397928898
 21
7394.963433610725
 31
0.0
  0
LINE
  5
13EBE
330
747D
100
AcDbEntity
  8
部品1
100
AcDbLine
 10
3606.9043979289
 20
9969.963433610731
 30
0.0
 11
3606.904397928897
 21
7422.963433610727
 31
0.0
  0
LINE
  5
13EBF
330
747D
100
AcDbEntity
  8
部品1
100
AcDbLine
 10
3606.904397928899
 20
9996.96343361073
 30
0.0
 11
3606.904397928899
 21
8927.963433610727
 31
0.0
  0
LINE
  5
13EC0
330
747D
100
AcDbEntity
  8
部品1
100
AcDbLine
 10
3578.904397928898
 20
10024.96343361072
 30
0.0
 11
3578.904397928898
 21
7394.963433610726
 31
0.0
  0
LINE
  5
13EC1
330
747D
100
AcDbEntity
  8
破線
  6
HIDDEN
 48
10.0
100
AcDbLine
 10
3657.404397928904
 20
9946.463433610729
 30
0.0
 11
3657.404397928895
 21
7473.463433610726
 31
0.0
  0
LINE
  5
13EC2
330
747D
100
AcDbEntity
  8
部品1
100
AcDbLine
 10
3633.904397928904
 20
9969.963433610727
 30
0.0
 11
3633.904397928894
 21
7449.963433610729
 31
0.0
  0
DIMENSION
  5
13EC4
330
747D
100
AcDbEntity
  8
寸法
 48
50.0
100
AcDbDimension
  2
*D25
 10
5733.904397928898
 20
10399.67584362952
 30
0.0
 11
4683.904397928897
 21
10491.68765465314
 31
0.0
 70
    32
  1
5X420=<>
 71
     5
 42
2100.0
  3
INABA_S40
100
AcDbAlignedDimension
 13
3633.904397928898
 23
10024.96343361073
 33
0.0
 14
5733.904397928898
 24
10024.96343361073
 34
0.0
100
AcDbRotatedDimension
1001
ACAD
1000
DSTYLE
1002
{
1070
    41
1040
0.5
1070
    44
1040
1.0
1070
   147
1040
0.8
1070
   271
1070
     2
1070
   272
1070
     2
1070
   289
1070
     3
1070
   340
1005
F706
1070
   343
1005
F744
1070
   344
1005
F744
1002
}
  0
DIMENSION
  5
13EC5
330
747D
100
AcDbEntity
  8
寸法
 48
50.0
100
AcDbDimension
  2
*D26
 10
7998.904397928898
 20
10699.67584362952
 30
0.0
 11
5788.904397928899
 21
10791.68765465314
 31
0.0
 70
    32
 71
     5
 42
4420.0
  3
INABA_S40
100
AcDbAlignedDimension
 13
3578.904397928898
 23
10024.96343361072
 33
0.0
 14
7998.904397928898
 24
10024.96343361072
 34
0.0
100
AcDbRotatedDimension
1001
ACAD
1000
DSTYLE
1002
{
1070
    41
1040
0.5
1070
    44
1040
1.0
1070
   147
1040
0.8
1070
   271
1070
     2
1070
   272
1070
     2
1070
   289
1070
     3
1070
   340
1005
F706
1070
   343
1005
F744
1070
   344
1005
F744
1002
}
  0
LINE
  5
13EC6
330
747D
100
AcDbEntity
  8
部品1
100
AcDbLine
 10
3606.904397928897
 20
7422.963433610727
 30
0.0
 11
5760.904397928898
 21
7422.963433610728
 31
0.0
  0
LINE
  5
13EC7
330
747D
100
AcDbEntity
  8
部品1
100
AcDbLine
 10
3633.904397928894
 20
7449.963433610729
 30
0.0
 11
5733.904397928898
 21
7449.963433610723
 31
0.0
  0
LINE
  5
13EC8
330
747D
100
AcDbEntity
  8
部品1
100
AcDbLine
 10
5788.904397928899
 20
10024.96343361072
 30
0.0
 11
3578.904397928898
 21
10024.96343361072
 31
0.0
  0
LINE
  5
13EC9
330
747D
100
AcDbEntity
  8
部品1
100
AcDbLine
 10
5733.904397928896
 20
8709.963433610729
 30
0.0
 11
3633.9043979289
 21
8709.963433610724
 31
0.0
  0
LINE
  5
13ECA
330
747D
100
AcDbEntity
  8
部品1
100
AcDbLine
 10
5733.904397928896
 20
8289.963433610727
 30
0.0
 11
3633.9043979289
 21
8289.963433610726
 31
0.0
  0
LINE
  5
13ECB
330
747D
100
AcDbEntity
  8
部品1
100
AcDbLine
 10
5733.904397928896
 20
7869.963433610728
 30
0.0
 11
3633.9043979289
 21
7869.963433610725
 31
0.0
  0
LINE
  5
13ECC
330
747D
100
AcDbEntity
  8
部品1
100
AcDbLine
 10
4053.904397928898
 20
9996.963433610734
 30
0.0
 11
3606.904397928899
 21
9996.96343361073
 31
0.0
  0
LINE
  5
13ECD
330
747D
100
AcDbEntity
  8
部品1
100
AcDbLine
 10
3633.904397928894
 20
9969.963433610729
 30
0.0
 11
5733.904397928898
 21
9969.963433610734
 31
0.0
  0
LINE
  5
13ED5
330
747D
100
AcDbEntity
  8
部品1
100
AcDbLine
 10
7998.904397928898
 20
4522.112805903261
 30
0.0
 11
7998.904397928898
 21
2188.112805903256
 31
0.0
  0
LINE
  5
13ED6
330
747D
100
AcDbEntity
  8
部品1
100
AcDbLine
 10
7943.904397928898
 20
4428.112805903256
 30
0.0
 11
7943.904397928896
 21
2338.112805903256
 31
0.0
  0
LINE
  5
13ED7
330
747D
100
AcDbEntity
  8
部品1
100
AcDbLine
 10
7523.904397928898
 20
4428.112805903257
 30
0.0
 11
7523.904397928884
 21
2338.112805903256
 31
0.0
  0
LINE
  5
13ED8
330
747D
100
AcDbEntity
  8
部品1
100
AcDbLine
 10
6683.904397928898
 20
4428.112805903256
 30
0.0
 11
6683.904397928896
 21
2338.112805903256
 31
0.0
  0
LINE
  5
13ED9
330
747D
100
AcDbEntity
  8
部品1
100
AcDbLine
 10
7103.904397928897
 20
4428.112805903256
 30
0.0
 11
7103.904397928896
 21
2338.112805903256
 31
0.0
  0
LINE
  5
13EDA
330
747D
100
AcDbEntity
  8
部品1
100
AcDbLine
 10
7103.904397928911
 20
4428.112805903256
 30
0.0
 11
7103.904397928909
 21
2338.112805903256
 31
0.0
  0
LINE
  5
13EDB
330
747D
100
AcDbEntity
  8
部品1
100
AcDbLine
 10
5788.904397928899
 20
4428.112805903256
 30
0.0
 11
5788.904397928899
 21
4522.112805903261
 31
0.0
  0
LINE
  5
13EDE
330
747D
100
AcDbEntity
  8
部品1
100
AcDbLine
 10
5788.904397928899
 20
2338.112805903256
 30
0.0
 11
5788.904397928899
 21
2288.112805903256
 31
0.0
  0
LINE
  5
13EEA
330
747D
100
AcDbEntity
  8
部品1
 48
50.0
100
AcDbLine
 10
5788.904397928899
 20
2338.112805903256
 30
0.0
 11
5760.9043979289
 21
2338.112805903256
 31
0.0
  0
LINE
  5
13EEB
330
747D
100
AcDbEntity
  8
部品1
100
AcDbLine
 10
6263.904397928898
 20
4428.112805903256
 30
0.0
 11
6263.904397928898
 21
2338.112805903256
 31
0.0
  0
LINE
  5
13EEC
330
747D
100
AcDbEntity
  8
部品1
100
AcDbLine
 10
5843.904397928898
 20
4428.112805903256
 30
0.0
 11
5843.904397928898
 21
2338.112805903256
 31
0.0
  0
LINE
  5
13EED
330
747D
100
AcDbEntity
  8
部品1
 48
50.0
100
AcDbLine
 10
5788.904397928899
 20
2338.112805903256
 30
0.0
 11
7998.904397928898
 21
2338.112805903256
 31
0.0
  0
LINE
  5
13EEE
330
747D
100
AcDbEntity
  8
部品1
100
AcDbLine
 10
5788.904397928899
 20
2288.112805903256
 30
0.0
 11
7998.904397928898
 21
2288.112805903256
 31
0.0
  0
LINE
  5
13EF6
330
747D
100
AcDbEntity
  8
部品1
 48
50.0
100
AcDbLine
 10
3606.904397928899
 20
2338.112805903255
 30
0.0
 11
3578.904397928898
 21
2338.112805903256
 31
0.0
  0
LINE
  5
13EF7
330
747D
100
AcDbEntity
  8
部品1
100
AcDbLine
 10
2663.489748881344
 20
2188.112805903256
 30
0.0
 11
2603.489748881344
 21
2292.035854357388
 31
0.0
  0
LINE
  5
13EF8
330
747D
100
AcDbEntity
  8
部品1
100
AcDbLine
 10
2723.489748881344
 20
2292.035854357388
 30
0.0
 11
2663.489748881344
 21
2188.112805903256
 31
0.0
  0
LINE
  5
13EF9
330
747D
100
AcDbEntity
  8
部品1
100
AcDbLine
 10
2603.489748881344
 20
2292.035854357388
 30
0.0
 11
2723.489748881344
 21
2292.035854357388
 31
0.0
  0
TEXT
  5
13EFA
330
747D
100
AcDbEntity
  8
部品1
100
AcDbText
 10
2745.973702581163
 20
2202.954510774245
 30
0.0
 40
125.0
  1
G.L
  7
MSGOTHIC
100
AcDbText
  0
LINE
  5
13EFB
330
747D
100
AcDbEntity
  8
部品1
100
AcDbLine
 10
3578.904397928898
 20
4522.112805903261
 30
0.0
 11
3578.904397928898
 21
2188.112805903256
 31
0.0
  0
LINE
  5
13EFC
330
747D
100
AcDbEntity
  8
部品1
100
AcDbLine
 10
3578.904397928898
 20
2288.112805903256
 30
0.0
 11
5788.904397928899
 21
2288.112805903256
 31
0.0
  0
LINE
  5
13EFD
330
747D
100
AcDbEntity
  8
部品1
100
AcDbLine
 10
3578.904397928898
 20
4428.112805903256
 30
0.0
 11
7998.904397928898
 21
4428.112805903256
 31
0.0
  0
LINE
  5
13EFE
330
747D
100
AcDbEntity
  8
部品1
100
AcDbLine
 10
3603.9043979289
 20
4428.112805903256
 30
0.0
 11
5763.904397928898
 21
4428.112805903256
 31
0.0
  0
DIMENSION
  5
13F00
330
747D
100
AcDbEntity
  8
寸法
 48
50.0
100
AcDbDimension
  2
*D27
 10
8769.651514973253
 20
9969.963433610731
 30
0.0
 11
8769.651514973253
 21
10419.13010027739
 31
0.0
 70
   160
 71
     5
 42
54.99999999999636
  3
INABA_S40
100
AcDbAlignedDimension
 13
7998.904397928898
 23
10024.96343361072
 33
0.0
 14
7998.904397928898
 24
9969.963433610731
 34
0.0
 50
90.0
100
AcDbRotatedDimension
1001
ACAD
1000
DSTYLE
1002
{
1070
    41
1040
0.5
1070
    44
1040
1.0
1070
   147
1040
0.8
1070
   271
1070
     2
1070
   272
1070
     2
1070
   289
1070
     3
1070
   340
1005
F706
1070
   343
1005
F744
1070
   344
1005
F744
1002
}
  0
DIMENSION
  5
13F01
330
747D
100
AcDbEntity
  8
寸法
 48
50.0
100
AcDbDimension
  2
*D28
 10
8769.651514973253
 20
7449.963433610723
 30
0.0
 11
8677.639703949628
 21
8709.963433610729
 31
0.0
 70
    32
  1
6X420=<>
 71
     5
 42
2520.000000000008
  3
INABA_S40
100
AcDbAlignedDimension
 13
7998.904397928898
 23
9969.963433610731
 33
0.0
 14
7998.904397928898
 24
7449.963433610723
 34
0.0
 50
90.0
100
AcDbRotatedDimension
1001
ACAD
1000
DSTYLE
1002
{
1070
    41
1040
0.5
1070
    44
1040
1.0
1070
   147
1040
0.8
1070
   271
1070
     2
1070
   272
1070
     2
1070
   289
1070
     3
1070
   340
1005
F706
1070
   343
1005
F744
1070
   344
1005
F744
1002
}
  0
DIMENSION
  5
13F02
330
747D
100
AcDbEntity
  8
寸法
 48
50.0
100
AcDbDimension
  2
*D29
 10
8769.651514973253
 20
7394.963433610726
 30
0.0
 11
8769.651514973253
 21
7000.79676694406
 31
0.0
 70
   160
 71
     5
 42
54.99999999999636
  3
INABA_S40
100
AcDbAlignedDimension
 13
7998.904397928898
 23
7449.963433610723
 33
0.0
 14
7998.904397928898
 24
7394.963433610726
 34
0.0
 50
90.0
100
AcDbRotatedDimension
1001
ACAD
1000
DSTYLE
1002
{
1070
    41
1040
0.5
1070
    44
1040
1.0
1070
   147
1040
0.8
1070
   271
1070
     2
1070
   272
1070
     2
1070
   289
1070
     3
1070
   340
1005
F706
1070
   343
1005
F744
1070
   344
1005
F744
1002
}
  0
DIMENSION
  5
13F03
330
747D
100
AcDbEntity
  8
寸法
 48
50.0
100
AcDbDimension
  2
*D30
 10
9069.651514973251
 20
7394.963433610726
 30
0.0
 11
8977.639703949627
 21
8709.963433610729
 31
0.0
 70
    32
 71
     5
 42
2630.0
  3
INABA_S40
100
AcDbAlignedDimension
 13
7998.904397928898
 23
10024.96343361072
 33
0.0
 14
7998.904397928898
 24
7394.963433610726
 34
0.0
 50
90.0
100
AcDbRotatedDimension
1001
ACAD
1000
DSTYLE
1002
{
1070
    41
1040
0.5
1070
    44
1040
1.0
1070
   147
1040
0.8
1070
   271
1070
     2
1070
   272
1070
     2
1070
   289
1070
     3
1070
   340
1005
F706
1070
   343
1005
F744
1070
   344
1005
F744
1002
}
  0
DIMENSION
  5
13F04
330
747D
100
AcDbEntity
  8
寸法
 48
50.0
100
AcDbDimension
  2
*D31
 10
7998.904397928898
 20
10399.67584362952
 30
0.0
 11
8393.071064595565
 21
10399.67584362952
 31
0.0
 70
   160
 71
     5
 42
55.0
  3
INABA_S40
100
AcDbAlignedDimension
 13
7943.904397928898
 23
10024.96343361073
 33
0.0
 14
7998.904397928898
 24
10024.96343361072
 34
0.0
100
AcDbRotatedDimension
1001
ACAD
1000
DSTYLE
1002
{
1070
    41
1040
0.5
1070
    44
1040
1.0
1070
   147
1040
0.8
1070
   271
1070
     2
1070
   272
1070
     2
1070
   289
1070
     3
1070
   340
1005
F706
1070
   343
1005
F744
1070
   344
1005
F744
1002
}
  0
TEXT
  5
13F0A
330
747D
100
AcDbEntity
  8
文字
 62
     7
 48
50.0
100
AcDbText
 10
13209.4053442172
 20
228.5435242569015
 30
0.0
 40
100.0
  1
○有効開口寸法 ： 1266×2025(mm)
  7
STYLE2
100
AcDbText
  0
LINE
  5
14278
330
747D
100
AcDbEntity
  8
部品1
100
AcDbLine
 10
5843.904397928898
 20
9129.963433610729
 30
0.0
 11
7943.904397928898
 21
9129.963433610729
 31
0.0
  0
LINE
  5
14279
330
747D
100
AcDbEntity
  8
部品1
100
AcDbLine
 10
5843.904397928898
 20
9549.963433610729
 30
0.0
 11
7943.904397928898
 21
9549.963433610729
 31
0.0
  0
LINE
  5
1427A
330
747D
100
AcDbEntity
  8
部品1
100
AcDbLine
 10
5733.904397928896
 20
9129.963433610729
 30
0.0
 11
3633.9043979289
 21
9129.963433610724
 31
0.0
  0
LINE
  5
1427B
330
747D
100
AcDbEntity
  8
部品1
100
AcDbLine
 10
5733.904397928896
 20
9549.963433610729
 30
0.0
 11
3633.9043979289
 21
9549.963433610725
 31
0.0
  0
LINE
  5
1427C
330
747D
100
AcDbEntity
  8
部品1
100
AcDbLine
 10
3606.904397928899
 20
9129.963433610731
 30
0.0
 11
3578.904397928898
 21
9129.963433610731
 31
0.0
  0
LINE
  5
1427D
330
747D
100
AcDbEntity
  8
部品1
100
AcDbLine
 10
3606.904397928899
 20
9549.963433610731
 30
0.0
 11
3578.904397928898
 21
9549.963433610731
 31
0.0
  0
LINE
  5
1427E
330
747D
100
AcDbEntity
  8
部品1
100
AcDbLine
 10
7970.904397928897
 20
9129.963433610731
 30
0.0
 11
7998.904397928898
 21
9129.963433610731
 31
0.0
  0
LINE
  5
1427F
330
747D
100
AcDbEntity
  8
部品1
100
AcDbLine
 10
7970.904397928897
 20
9549.963433610731
 30
0.0
 11
7998.904397928898
 21
9549.963433610731
 31
0.0
  0
DIMENSION
  5
14486
330
747D
100
AcDbEntity
  8
寸法
100
AcDbDimension
  2
*D32
 10
10518.97055039743
 20
2338.112805903252
 30
0.0
 11
10418.9587393738
 21
3383.112805903254
 31
0.0
 70
    32
 71
     5
 42
2090.000000000001
  3
INABA_S40G
100
AcDbAlignedDimension
 13
11362.72067958068
 23
4428.112805903253
 33
0.0
 14
11362.72067958068
 24
2338.112805903252
 34
0.0
 50
90.0
100
AcDbRotatedDimension
1001
ACAD
1000
DSTYLE
1002
{
1070
   174
1070
     0
1070
   272
1070
     1
1070
   288
1070
     0
1070
   341
1005
0
1002
}
  0
DIMENSION
  5
14487
330
747D
100
AcDbEntity
  8
寸法
100
AcDbDimension
  2
*D33
 10
10218.97055039743
 20
4663.112805903256
 30
0.0
 11
10118.9587393738
 21
3475.612805903256
 31
0.0
 70
    32
 71
     5
 42
2375.000000000005
  3
INABA_S40G
100
AcDbAlignedDimension
 13
11362.72067958068
 23
2288.112805903252
 33
0.0
 14
11302.72067958068
 24
4663.112805903256
 34
0.0
 50
90.0
100
AcDbRotatedDimension
1001
ACAD
1000
DSTYLE
1002
{
1070
   174
1070
     0
1070
   272
1070
     1
1070
   288
1070
     0
1070
   341
1005
0
1002
}
  0
DIMENSION
  5
14488
330
747D
100
AcDbEntity
  8
寸法
100
AcDbDimension
  2
*D34
 10
14697.64783755282
 20
4608.112805903256
 30
0.0
 11
14597.63602652919
 21
3448.112805903259
 31
0.0
 70
    32
 71
     5
 42
2320.0
  3
INABA_S40G
100
AcDbAlignedDimension
 13
13992.72067958069
 23
2288.112805903257
 33
0.0
 14
14072.72067958069
 24
4608.112805903257
 34
0.0
 50
90.0
100
AcDbRotatedDimension
1001
ACAD
1000
DSTYLE
1002
{
1070
   174
1070
     0
1070
   272
1070
     1
1070
   288
1070
     0
1070
   341
1005
0
1002
}
  0
LINE
  5
1448D
330
747D
100
AcDbEntity
  8
細線
 48
50.0
100
AcDbLine
 10
13440.22067958068
 20
4428.112805903256
 30
0.0
 11
13440.22067958069
 21
2338.112805903258
 31
0.0
  0
LINE
  5
1448E
330
747D
100
AcDbEntity
  8
細線
 48
50.0
100
AcDbLine
 10
13455.22067958069
 20
4428.112805903256
 30
0.0
 11
13455.22067958069
 21
2338.112805903258
 31
0.0
  0
LINE
  5
1448F
330
747D
100
AcDbEntity
  8
細線
 48
50.0
100
AcDbLine
 10
13315.22067958069
 20
4428.112805903256
 30
0.0
 11
13315.22067958069
 21
2338.112805903258
 31
0.0
  0
LINE
  5
14490
330
747D
100
AcDbEntity
  8
細線
 48
50.0
100
AcDbLine
 10
13300.22067958068
 20
4428.112805903256
 30
0.0
 11
13300.22067958069
 21
2338.112805903258
 31
0.0
  0
LINE
  5
14491
330
747D
100
AcDbEntity
  8
細線
 48
50.0
100
AcDbLine
 10
13160.22067958068
 20
4428.112805903256
 30
0.0
 11
13160.22067958069
 21
2338.112805903258
 31
0.0
  0
LINE
  5
14492
330
747D
100
AcDbEntity
  8
細線
 48
50.0
100
AcDbLine
 10
13175.22067958069
 20
4428.112805903256
 30
0.0
 11
13175.22067958069
 21
2338.112805903258
 31
0.0
  0
LINE
  5
14493
330
747D
100
AcDbEntity
  8
部品1
100
AcDbLine
 10
13097.72067958068
 20
4428.112805903256
 30
0.0
 11
13097.72067958068
 21
2338.112805903258
 31
0.0
  0
LINE
  5
14494
330
747D
100
AcDbEntity
  8
部品1
100
AcDbLine
 10
12537.94581000992
 20
4788.317193866275
 30
0.0
 11
12863.40082365296
 21
4770.799134907413
 31
0.0
  0
ARC
  5
14495
330
747D
100
AcDbEntity
  8
部品1
100
AcDbCircle
 10
14058.34821539463
 20
4502.13656316905
 30
0.0
 40
0.7
100
AcDbArc
 50
275.0921697642102
 51
354.1866997667087
  0
ARC
  5
14496
330
747D
100
AcDbEntity
  8
部品1
100
AcDbCircle
 10
14069.20756114395
 20
4579.179817986973
 30
0.0
 40
0.7
100
AcDbArc
 50
275.0921697642102
 51
354.1866997665532
  0
ARC
  5
14497
330
747D
100
AcDbEntity
  8
部品1
100
AcDbCircle
 10
14069.53596638655
 20
4575.494421129883
 30
0.0
 40
3.0
100
AcDbArc
 50
95.0921697642102
 51
174.1866997665532
  0
ARC
  5
14498
330
747D
100
AcDbEntity
  8
部品1
100
AcDbCircle
 10
14058.67662063722
 20
4498.451166311959
 30
0.0
 40
3.0
100
AcDbArc
 50
95.0921697642102
 51
174.1866997665532
  0
ARC
  5
14499
330
747D
100
AcDbEntity
  8
部品1
 48
50.0
100
AcDbCircle
 10
14047.64848536212
 20
4488.860421708078
 30
0.0
 40
7.0
100
AcDbArc
 50
267.8377559869492
 51
354.1866997665532
  0
ARC
  5
1449A
330
747D
100
AcDbEntity
  8
部品1
 48
50.0
100
AcDbCircle
 10
14064.97058182663
 20
4599.76296885025
 30
0.0
 40
7.0
100
AcDbArc
 50
354.1866997665532
 51
87.03587545283093
  0
LINE
  5
1449B
330
747D
100
AcDbEntity
  8
部品1
 48
50.0
100
AcDbLine
 10
14055.69204896661
 20
4498.755028028862
 30
0.0
 11
14054.61248592688
 21
4488.151411035303
 31
0.0
  0
LINE
  5
1449C
330
747D
100
AcDbEntity
  8
部品1
 48
50.0
100
AcDbLine
 10
14066.55139471594
 20
4575.798282846786
 30
0.0
 11
14059.0446154511
 21
4502.065662101774
 31
0.0
  0
LINE
  5
1449D
330
747D
100
AcDbEntity
  8
部品1
 48
50.0
100
AcDbLine
 10
14071.93458239139
 20
4599.053958177475
 30
0.0
 11
14069.90396120042
 21
4579.108916919696
 31
0.0
  0
ARC
  5
1449E
330
747D
100
AcDbEntity
  8
部品1
100
AcDbCircle
 10
11308.75777145205
 20
4541.92696486216
 30
0.0
 40
0.7
100
AcDbArc
 50
181.0932240292635
 51
260.1877540314845
  0
ARC
  5
1449F
330
747D
100
AcDbEntity
  8
部品1
100
AcDbCircle
 10
11303.98509785444
 20
4634.79274306228
 30
0.0
 40
0.7
100
AcDbArc
 50
181.0932240292114
 51
260.1877540314845
  0
ARC
  5
144A0
330
747D
100
AcDbEntity
  8
部品1
100
AcDbCircle
 10
11303.35454345142
 20
4631.146868524882
 30
0.0
 40
3.0
100
AcDbArc
 50
1.093224029315636
 51
80.18775403169875
  0
ARC
  5
144A1
330
747D
100
AcDbEntity
  8
部品1
100
AcDbCircle
 10
11308.12721704903
 20
4538.281090324763
 30
0.0
 40
3.0
100
AcDbArc
 50
1.093224029315636
 51
80.18775403169875
  0
ARC
  5
144A2
330
747D
100
AcDbEntity
  8
部品1
 48
50.0
100
AcDbCircle
 10
11318.32734942423
 20
4527.888846942281
 30
0.0
 40
7.0
100
AcDbArc
 50
181.0932240293156
 51
267.8377559869492
  0
ARC
  5
144A3
330
747D
100
AcDbEntity
  8
部品1
 48
50.0
100
AcDbCircle
 10
11309.90369132213
 20
4654.839906475376
 30
0.0
 40
7.0
100
AcDbArc
 50
87.03587545283093
 51
181.0932240293156
  0
LINE
  5
144A4
330
747D
100
AcDbEntity
  8
部品1
 48
50.0
100
AcDbLine
 10
11311.12667097545
 20
4538.338327927946
 30
0.0
 11
11311.32862359589
 21
4527.755292534854
 31
0.0
  0
LINE
  5
144A5
330
747D
100
AcDbEntity
  8
細線
 48
50.0
100
AcDbLine
 10
11308.52057791879
 20
4541.268376046754
 30
0.0
 11
14058.52424234943
 21
4501.459057072261
 31
0.0
  0
LINE
  5
144A6
330
747D
100
AcDbEntity
  8
細線
 48
50.0
100
AcDbLine
 10
11303.7601026815
 20
4634.129887744617
 30
0.0
 11
14069.39608742667
 21
4578.50568310379
 31
0.0
  0
LINE
  5
144A7
330
747D
100
AcDbEntity
  8
部品1
 48
50.0
100
AcDbLine
 10
11306.35399737785
 20
4631.204106128065
 30
0.0
 11
11308.05789886921
 21
4541.913609421418
 31
0.0
  0
LINE
  5
144A8
330
747D
100
AcDbEntity
  8
部品1
 48
50.0
100
AcDbLine
 10
11302.90496549379
 20
4654.706352067949
 30
0.0
 11
11303.2852252716
 21
4634.779387621537
 31
0.0
  0
LINE
  5
144A9
330
747D
100
AcDbEntity
  8
細線
 48
50.0
100
AcDbLine
 10
14039.68996277438
 20
4607.266228382726
 30
0.0
 11
14034.97299669269
 21
4482.334012447809
 31
0.0
  0
LINE
  5
144AA
330
747D
100
AcDbEntity
  8
細線
 48
50.0
100
AcDbLine
 10
11335.72067958068
 20
4660.512482278661
 30
0.0
 11
11330.43157802518
 21
4520.426849651307
 31
0.0
  0
LINE
  5
144AB
330
747D
100
AcDbEntity
  8
部品1
100
AcDbLine
 10
11318.06324418264
 20
4520.893830972223
 30
0.0
 11
14047.38438012054
 21
4481.865405738018
 31
0.0
  0
LINE
  5
144AC
330
747D
100
AcDbEntity
  8
部品1
100
AcDbLine
 10
11310.26566593765
 20
4661.830541237523
 30
0.0
 11
14065.33255644215
 21
4606.753603612395
 31
0.0
  0
LINE
  5
144AD
330
747D
100
AcDbEntity
  8
部品1
 48
50.0
100
AcDbLine
 10
12563.40082365296
 20
4786.999134907413
 30
0.0
 11
12863.40082365296
 21
4786.999134907413
 31
0.0
  0
LINE
  5
144AE
330
747D
100
AcDbEntity
  8
部品1
 48
50.0
100
AcDbLine
 10
12863.40082365296
 20
4786.999134907413
 30
0.0
 11
12863.40082365296
 21
4770.799134907413
 31
0.0
  0
TEXT
  5
144AF
330
747D
100
AcDbEntity
  8
部品1
 48
50.0
100
AcDbText
 10
12551.66865887669
 20
4822.883157059846
 30
0.0
 40
120.0
  1
1000
  7
STYLE1
100
AcDbText
  0
TEXT
  5
144B0
330
747D
100
AcDbEntity
  8
部品1
 48
50.0
100
AcDbText
 10
13029.30168154178
 20
4685.381898841563
 30
0.0
 40
120.0
  1
37
 50
90.0
  7
STYLE1
100
AcDbText
  0
LINE
  5
144B1
330
747D
100
AcDbEntity
  8
細線
 48
50.0
100
AcDbLine
 10
12755.22067958068
 20
4428.112805903256
 30
0.0
 11
12755.22067958069
 21
2338.112805903256
 31
0.0
  0
LINE
  5
144B2
330
747D
100
AcDbEntity
  8
細線
 48
50.0
100
AcDbLine
 10
12740.22067958068
 20
4428.112805903256
 30
0.0
 11
12740.22067958069
 21
2338.112805903256
 31
0.0
  0
LINE
  5
144B3
330
747D
100
AcDbEntity
  8
細線
 48
50.0
100
AcDbLine
 10
12880.22067958068
 20
4428.112805903256
 30
0.0
 11
12880.22067958069
 21
2338.112805903256
 31
0.0
  0
LINE
  5
144B4
330
747D
100
AcDbEntity
  8
細線
 48
50.0
100
AcDbLine
 10
12895.22067958069
 20
4428.112805903256
 30
0.0
 11
12895.22067958069
 21
2338.112805903256
 31
0.0
  0
LINE
  5
144B5
330
747D
100
AcDbEntity
  8
細線
 48
50.0
100
AcDbLine
 10
13035.22067958069
 20
4428.112805903256
 30
0.0
 11
13035.22067958069
 21
2338.112805903256
 31
0.0
  0
LINE
  5
144B6
330
747D
100
AcDbEntity
  8
細線
 48
50.0
100
AcDbLine
 10
13020.22067958068
 20
4428.112805903256
 30
0.0
 11
13020.22067958069
 21
2338.112805903256
 31
0.0
  0
LINE
  5
144B7
330
747D
100
AcDbEntity
  8
部品1
100
AcDbLine
 10
13517.72067958068
 20
4428.112805903256
 30
0.0
 11
13517.72067958068
 21
2338.112805903257
 31
0.0
  0
LINE
  5
144B8
330
747D
100
AcDbEntity
  8
部品1
100
AcDbLine
 10
11362.72067958068
 20
4428.112805903256
 30
0.0
 11
13992.72067958069
 21
4428.112805903256
 31
0.0
  0
LINE
  5
144B9
330
747D
100
AcDbEntity
  8
部品1
100
AcDbLine
 10
11362.72067958068
 20
2338.112805903256
 30
0.0
 11
13992.72067958069
 21
2338.112805903257
 31
0.0
  0
LINE
  5
144BB
330
747D
100
AcDbEntity
  8
部品1
100
AcDbLine
 10
11417.72067958068
 20
4428.112805903256
 30
0.0
 11
11417.72067958068
 21
2338.112805903256
 31
0.0
  0
LINE
  5
144BC
330
747D
100
AcDbEntity
  8
部品1
100
AcDbLine
 10
11362.72067958068
 20
4520.255243832134
 30
0.0
 11
11362.72067958068
 21
2188.112805903256
 31
0.0
  0
DIMENSION
  5
144BE
330
747D
100
AcDbEntity
  8
寸法
100
AcDbDimension
  2
*D35
 10
10518.97055039743
 20
2288.112805903256
 30
0.0
 11
10518.97055039743
 21
1982.065561808767
 31
0.0
 70
   160
 71
     5
 42
50.0
  3
INABA_S40G
100
AcDbAlignedDimension
 13
11362.72067958068
 23
2338.112805903256
 33
0.0
 14
11307.72067958069
 24
2288.112805903256
 34
0.0
 50
90.0
100
AcDbRotatedDimension
1001
ACAD
1000
DSTYLE
1002
{
1070
   174
1070
     0
1070
   272
1070
     1
1070
   288
1070
     0
1070
   341
1005
0
1002
}
  0
LINE
  5
144BF
330
747D
100
AcDbEntity
  8
部品1
100
AcDbLine
 10
11837.72067958068
 20
4428.112805903256
 30
0.0
 11
11837.72067958068
 21
2338.112805903256
 31
0.0
  0
LINE
  5
144C0
330
747D
100
AcDbEntity
  8
部品1
100
AcDbLine
 10
13992.72067958069
 20
4482.647079290995
 30
0.0
 11
13992.72067958069
 21
2188.112805903257
 31
0.0
  0
LINE
  5
144C1
330
747D
100
AcDbEntity
  8
部品1
100
AcDbLine
 10
13937.72067958068
 20
4428.112805903256
 30
0.0
 11
13937.72067958069
 21
2338.112805903257
 31
0.0
  0
DIMENSION
  5
144C4
330
747D
100
AcDbEntity
  8
寸法
 48
50.0
100
AcDbDimension
  2
*D36
 10
11362.72067958068
 20
5061.770259482561
 30
0.0
 11
12717.49087060988
 21
5061.770259482561
 31
0.0
 70
   160
  1
柱外寸法<>
 71
     5
 42
2630.0
  3
INABA_S40G
100
AcDbAlignedDimension
 13
13992.72067958069
 23
4609.923485514911
 33
0.0
 14
11362.72067958068
 24
4659.114424026233
 34
0.0
100
AcDbRotatedDimension
1001
ACAD
1000
DSTYLE
1002
{
1070
   174
1070
     0
1070
   272
1070
     1
1070
   288
1070
     0
1070
   341
1005
0
1002
}
  0
DIMENSION
  5
144C5
330
747D
100
AcDbEntity
  8
寸法
 48
50.0
100
AcDbDimension
  2
*D37
 10
11302.72067958068
 20
5061.77025948256
 30
0.0
 11
10993.08288430509
 21
5061.77025948256
 31
0.0
 70
   160
 71
     5
 42
60.0
  3
INABA_S40G
100
AcDbAlignedDimension
 13
11362.72067958068
 23
4659.114424026233
 33
0.0
 14
11302.72067958068
 24
4663.112805903261
 34
0.0
100
AcDbRotatedDimension
1001
ACAD
1000
DSTYLE
1002
{
1070
   174
1070
     0
1070
   272
1070
     1
1070
   288
1070
     0
1070
   341
1005
0
1002
}
  0
DIMENSION
  5
144C6
330
747D
100
AcDbEntity
  8
寸法
 48
50.0
100
AcDbDimension
  2
*D38
 10
11302.72067958068
 20
5281.980946214178
 30
0.0
 11
12706.07960446806
 21
5281.980946214178
 31
0.0
 70
   160
 71
     5
 42
2770.0
  3
INABA_S40G
100
AcDbAlignedDimension
 13
14072.72067958069
 23
4608.112805903258
 33
0.0
 14
11302.72067958068
 24
4663.112805903261
 34
0.0
100
AcDbRotatedDimension
1001
ACAD
1000
DSTYLE
1002
{
1070
   174
1070
     0
1070
   272
1070
     1
1070
   288
1070
     0
1070
   341
1005
0
1002
}
  0
LINE
  5
144E0
330
747D
100
AcDbEntity
  8
部品1
100
AcDbLine
 10
11362.72067958068
 20
2288.112805903256
 30
0.0
 11
13992.72067958069
 21
2288.112805903256
 31
0.0
  0
TEXT
  5
144E1
330
747D
100
AcDbEntity
  8
部品1
100
AcDbText
 10
12395.43144789007
 20
1669.858311332605
 30
0.0
 40
135.0
  1
側面図
  7
STYLE2
100
AcDbText
  0
LWPOLYLINE
  5
144E2
330
747D
100
AcDbEntity
  8
部品1
100
AcDbPolyline
 90
        4
 70
     1
 43
0.0
 10
12305.98534646646
 20
1862.751840551128
 10
12305.98534646646
 20
1622.859519005595
 10
13069.45601269491
 20
1622.859519005595
 10
13069.45601269491
 20
1862.751840551128
  0
LINE
  5
144E3
330
747D
100
AcDbEntity
  8
細線
 48
50.0
100
AcDbLine
 10
11915.22067958068
 20
4428.112805903256
 30
0.0
 11
11915.22067958068
 21
2338.112805903256
 31
0.0
  0
LINE
  5
144E4
330
747D
100
AcDbEntity
  8
細線
 48
50.0
100
AcDbLine
 10
11900.22067958068
 20
4428.112805903256
 30
0.0
 11
11900.22067958068
 21
2338.112805903256
 31
0.0
  0
LINE
  5
144E5
330
747D
100
AcDbEntity
  8
細線
 48
50.0
100
AcDbLine
 10
12040.22067958068
 20
4428.112805903256
 30
0.0
 11
12040.22067958068
 21
2338.112805903256
 31
0.0
  0
LINE
  5
144E6
330
747D
100
AcDbEntity
  8
細線
 48
50.0
100
AcDbLine
 10
12055.22067958068
 20
4428.112805903256
 30
0.0
 11
12055.22067958068
 21
2338.112805903256
 31
0.0
  0
LINE
  5
144E7
330
747D
100
AcDbEntity
  8
細線
 48
50.0
100
AcDbLine
 10
12195.22067958068
 20
4428.112805903256
 30
0.0
 11
12195.22067958068
 21
2338.112805903256
 31
0.0
  0
LINE
  5
144E8
330
747D
100
AcDbEntity
  8
細線
 48
50.0
100
AcDbLine
 10
12180.22067958068
 20
4428.112805903256
 30
0.0
 11
12180.22067958068
 21
2338.112805903256
 31
0.0
  0
LINE
  5
144E9
330
747D
100
AcDbEntity
  8
細線
 48
50.0
100
AcDbLine
 10
11760.22067958069
 20
4428.112805903256
 30
0.0
 11
11760.22067958069
 21
2338.112805903256
 31
0.0
  0
LINE
  5
144EA
330
747D
100
AcDbEntity
  8
細線
 48
50.0
100
AcDbLine
 10
11775.22067958068
 20
4428.112805903256
 30
0.0
 11
11775.22067958068
 21
2338.112805903256
 31
0.0
  0
LINE
  5
144EB
330
747D
100
AcDbEntity
  8
細線
 48
50.0
100
AcDbLine
 10
11635.22067958068
 20
4428.112805903256
 30
0.0
 11
11635.22067958068
 21
2338.112805903256
 31
0.0
  0
LINE
  5
144EC
330
747D
100
AcDbEntity
  8
細線
 48
50.0
100
AcDbLine
 10
11620.22067958069
 20
4428.112805903256
 30
0.0
 11
11620.22067958069
 21
2338.112805903256
 31
0.0
  0
LINE
  5
144ED
330
747D
100
AcDbEntity
  8
細線
 48
50.0
100
AcDbLine
 10
11480.22067958069
 20
4428.112805903256
 30
0.0
 11
11480.22067958069
 21
2338.112805903256
 31
0.0
  0
LINE
  5
144EE
330
747D
100
AcDbEntity
  8
細線
 48
50.0
100
AcDbLine
 10
11495.22067958068
 20
4428.112805903256
 30
0.0
 11
11495.22067958068
 21
2338.112805903256
 31
0.0
  0
DIMENSION
  5
144EF
330
747D
100
AcDbEntity
  8
寸法
 48
50.0
100
AcDbDimension
  2
*D39
 10
14072.72067958069
 20
5061.770259482561
 30
0.0
 11
14278.76792367517
 21
5061.770259482561
 31
0.0
 70
   160
 71
     5
 42
80.0
  3
INABA_S40G
100
AcDbAlignedDimension
 13
13992.72067958069
 23
4609.923485514911
 33
0.0
 14
14072.72067958069
 24
4608.112805903258
 34
0.0
100
AcDbRotatedDimension
1001
ACAD
1000
DSTYLE
1002
{
1070
   174
1070
     0
1070
   272
1070
     1
1070
   288
1070
     0
1070
   341
1005
0
1002
}
  0
LINE
  5
144F0
330
747D
100
AcDbEntity
  8
部品1
100
AcDbLine
 10
12257.72067958069
 20
4428.112805903256
 30
0.0
 11
12257.72067958069
 21
2338.112805903256
 31
0.0
  0
LINE
  5
144F1
330
747D
100
AcDbEntity
  8
細線
 48
50.0
100
AcDbLine
 10
12600.22067958068
 20
4428.112805903256
 30
0.0
 11
12600.22067958069
 21
2338.112805903256
 31
0.0
  0
LINE
  5
144F2
330
747D
100
AcDbEntity
  8
細線
 48
50.0
100
AcDbLine
 10
12615.22067958068
 20
4428.112805903256
 30
0.0
 11
12615.22067958069
 21
2338.112805903256
 31
0.0
  0
LINE
  5
144F3
330
747D
100
AcDbEntity
  8
細線
 48
50.0
100
AcDbLine
 10
12475.22067958068
 20
4428.112805903256
 30
0.0
 11
12475.22067958069
 21
2338.112805903256
 31
0.0
  0
LINE
  5
144F4
330
747D
100
AcDbEntity
  8
細線
 48
50.0
100
AcDbLine
 10
12460.22067958068
 20
4428.112805903256
 30
0.0
 11
12460.22067958069
 21
2338.112805903256
 31
0.0
  0
LINE
  5
144F5
330
747D
100
AcDbEntity
  8
細線
 48
50.0
100
AcDbLine
 10
12320.22067958068
 20
4428.112805903256
 30
0.0
 11
12320.22067958069
 21
2338.112805903256
 31
0.0
  0
LINE
  5
144F6
330
747D
100
AcDbEntity
  8
細線
 48
50.0
100
AcDbLine
 10
12335.22067958068
 20
4428.112805903256
 30
0.0
 11
12335.22067958069
 21
2338.112805903256
 31
0.0
  0
LINE
  5
144F7
330
747D
100
AcDbEntity
  8
部品1
100
AcDbLine
 10
12677.72067958069
 20
4428.112805903256
 30
0.0
 11
12677.72067958069
 21
2338.112805903256
 31
0.0
  0
LINE
  5
144F8
330
747D
100
AcDbEntity
  8
細線
 48
50.0
100
AcDbLine
 10
13595.22067958069
 20
4428.112805903256
 30
0.0
 11
13595.22067958069
 21
2338.112805903257
 31
0.0
  0
LINE
  5
144F9
330
747D
100
AcDbEntity
  8
細線
 48
50.0
100
AcDbLine
 10
13580.22067958069
 20
4428.112805903256
 30
0.0
 11
13580.22067958069
 21
2338.112805903257
 31
0.0
  0
LINE
  5
144FA
330
747D
100
AcDbEntity
  8
細線
 48
50.0
100
AcDbLine
 10
13720.22067958069
 20
4428.112805903256
 30
0.0
 11
13720.22067958069
 21
2338.112805903257
 31
0.0
  0
LINE
  5
144FB
330
747D
100
AcDbEntity
  8
細線
 48
50.0
100
AcDbLine
 10
13735.22067958069
 20
4428.112805903256
 30
0.0
 11
13735.22067958069
 21
2338.112805903257
 31
0.0
  0
LINE
  5
144FC
330
747D
100
AcDbEntity
  8
細線
 48
50.0
100
AcDbLine
 10
13875.22067958069
 20
4428.112805903256
 30
0.0
 11
13875.22067958069
 21
2338.112805903257
 31
0.0
  0
LINE
  5
144FD
330
747D
100
AcDbEntity
  8
細線
 48
50.0
100
AcDbLine
 10
13860.22067958069
 20
4428.112805903256
 30
0.0
 11
13860.22067958069
 21
2338.112805903257
 31
0.0
  0
DIMENSION
  5
144FE
330
747D
100
AcDbEntity
  8
寸法
 48
50.0
100
AcDbDimension
  2
*D40
 10
10742.11227281232
 20
4537.458064776588
 30
0.0
 11
10752.77774807124
 21
4908.304728018287
 31
0.0
 70
   161
 71
     5
 42
141.0
  3
INABA_S40G
100
AcDbAlignedDimension
 13
11322.11669973926
 23
4661.835554737936
 33
0.0
 14
11318.06324418264
 24
4520.893830972223
 34
0.0
1001
ACAD
1000
DSTYLE
1002
{
1070
   174
1070
     0
1070
   272
1070
     1
1070
   288
1070
     0
1070
   341
1005
0
1002
}
  0
LINE
  5
14739
330
747D
100
AcDbEntity
  8
仕様書枠
 48
50.0
100
AcDbLine
 10
16307.19999999999
 20
8179.600000000005
 30
0.0
 11
13127.19999999999
 21
8179.600000000005
 31
0.0
  0
LINE
  5
156A0
330
747D
100
AcDbEntity
  8
破線
 48
10.0
100
AcDbLine
 10
7264.40439792891
 20
7449.963433610726
 30
0.0
 11
7264.404397928927
 21
9969.963433610733
 31
0.0
  0
LINE
  5
156A1
330
747D
100
AcDbEntity
  8
破線
 48
10.0
100
AcDbLine
 10
7214.404397928918
 20
7449.963433610726
 30
0.0
 11
7214.404397928912
 21
9969.963433610733
 31
0.0
  0
LINE
  5
156A2
330
747D
100
AcDbEntity
  8
破線
 48
10.0
100
AcDbLine
 10
6523.404397928922
 20
7449.96343361073
 30
0.0
 11
6523.404397928906
 21
9969.963433610729
 31
0.0
  0
LINE
  5
156A3
330
747D
100
AcDbEntity
  8
破線
 48
10.0
100
AcDbLine
 10
6573.404397928912
 20
7449.96343361073
 30
0.0
 11
6573.404397928917
 21
9969.963433610729
 31
0.0
  0
LINE
  5
156A4
330
747D
100
AcDbEntity
  8
破線
 48
10.0
100
AcDbLine
 10
4363.404397928909
 20
7449.963433610726
 30
0.0
 11
4363.404397928913
 21
9969.963433610733
 31
0.0
  0
LINE
  5
156A5
330
747D
100
AcDbEntity
  8
破線
 48
10.0
100
AcDbLine
 10
4313.40439792892
 20
7449.963433610726
 30
0.0
 11
4313.404397928901
 21
9969.963433610731
 31
0.0
  0
LINE
  5
156A6
330
747D
100
AcDbEntity
  8
破線
 48
10.0
100
AcDbLine
 10
5004.404397928913
 20
7449.963433610725
 30
0.0
 11
5004.404397928912
 21
9969.963433610733
 31
0.0
  0
LINE
  5
156A7
330
747D
100
AcDbEntity
  8
破線
 48
10.0
100
AcDbLine
 10
5054.404397928905
 20
7449.963433610725
 30
0.0
 11
5054.404397928923
 21
9969.963433610733
 31
0.0
  0
LINE
  5
156A8
330
747D
100
AcDbEntity
  8
破線
  6
HIDDEN
 48
10.0
100
AcDbLine
 10
3657.404397928891
 20
7473.463433610726
 30
0.0
 11
4313.40439792892
 21
7473.463433610724
 31
0.0
  0
LINE
  5
156A9
330
747D
100
AcDbEntity
  8
破線
  6
HIDDEN
 48
10.0
100
AcDbLine
 10
4363.404397928909
 20
7473.463433610724
 30
0.0
 11
5004.404397928913
 21
7473.463433610723
 31
0.0
  0
LINE
  5
156AA
330
747D
100
AcDbEntity
  8
破線
  6
HIDDEN
 48
10.0
100
AcDbLine
 10
5054.404397928905
 20
7473.463433610726
 30
0.0
 11
5710.404397928894
 21
7473.463433610723
 31
0.0
  0
LINE
  5
156AB
330
747D
100
AcDbEntity
  8
破線
  6
HIDDEN
 48
10.0
100
AcDbLine
 10
5867.404397928894
 20
7473.463433610729
 30
0.0
 11
6523.404397928922
 21
7473.463433610726
 31
0.0
  0
LINE
  5
156AC
330
747D
100
AcDbEntity
  8
破線
  6
HIDDEN
 48
10.0
100
AcDbLine
 10
6573.404397928912
 20
7473.463433610726
 30
0.0
 11
7214.404397928918
 21
7473.463433610723
 31
0.0
  0
LINE
  5
156AD
330
747D
100
AcDbEntity
  8
破線
  6
HIDDEN
 48
10.0
100
AcDbLine
 10
7264.40439792891
 20
7473.463433610729
 30
0.0
 11
7920.404397928898
 21
7473.463433610724
 31
0.0
  0
LINE
  5
156AE
330
747D
100
AcDbEntity
  8
破線
  6
HIDDEN
 48
10.0
100
AcDbLine
 10
5054.404397928923
 20
9946.463433610732
 30
0.0
 11
5710.404397928898
 21
9946.463433610734
 31
0.0
  0
LINE
  5
156AF
330
747D
100
AcDbEntity
  8
破線
  6
HIDDEN
 48
10.0
100
AcDbLine
 10
7214.404397928912
 20
9946.46343361073
 30
0.0
 11
6573.404397928917
 21
9946.463433610729
 31
0.0
  0
LINE
  5
15939
330
747D
100
AcDbEntity
  8
部品1
100
AcDbLine
 10
5778.904397928898
 20
4522.11280590326
 30
0.0
 11
5778.904397928898
 21
4663.112805903256
 31
0.0
  0
LINE
  5
15D8E
330
747D
100
AcDbEntity
  8
寸法
 48
50.0
100
AcDbLine
 10
4069.107404210743
 20
7173.000185179588
 30
0.0
 11
4017.70139630064
 21
7173.000185179588
 31
0.0
  0
LINE
  5
15D8F
330
747D
100
AcDbEntity
  8
寸法
 48
50.0
100
AcDbLine
 10
4017.70139630064
 20
7173.000185179588
 30
0.0
 11
4017.70139630064
 21
7204.310343831754
 31
0.0
  0
LINE
  5
15D90
330
747D
100
AcDbEntity
  8
寸法
 48
50.0
100
AcDbLine
 10
4017.70139630064
 20
7204.310343831754
 30
0.0
 11
3987.940064309217
 21
7204.310343831754
 31
0.0
  0
LINE
  5
15D91
330
747D
100
AcDbEntity
  8
寸法
 48
50.0
100
AcDbLine
 10
3987.940064309217
 20
7204.310343831754
 30
0.0
 11
4043.404400255692
 21
7241.889794760364
 31
0.0
  0
LINE
  5
15D92
330
747D
100
AcDbEntity
  8
寸法
 48
50.0
100
AcDbLine
 10
4098.868736202167
 20
7204.310343831754
 30
0.0
 11
4043.404400255692
 21
7241.889794760364
 31
0.0
  0
LINE
  5
15D93
330
747D
100
AcDbEntity
  8
寸法
 48
50.0
100
AcDbLine
 10
4069.107404210743
 20
7204.310343831754
 30
0.0
 11
4098.868736202167
 21
7204.310343831754
 31
0.0
  0
LINE
  5
15D94
330
747D
100
AcDbEntity
  8
寸法
 48
50.0
100
AcDbLine
 10
4069.107404210743
 20
7173.000185179588
 30
0.0
 11
4069.107404210743
 21
7204.310343831754
 31
0.0
  0
LINE
  5
15D95
330
747D
100
AcDbEntity
  8
寸法
 48
50.0
100
AcDbLine
 10
4017.70139630064
 20
7173.000185179588
 30
0.0
 11
4069.107404210743
 21
7173.000185179588
 31
0.0
  0
LINE
  5
15D96
330
747D
100
AcDbEntity
  8
寸法
 48
50.0
100
AcDbLine
 10
4348.272938487601
 20
7230.14577593441
 30
0.0
 11
4348.272938487601
 21
7176.482141352621
 31
0.0
  0
LINE
  5
15D97
330
747D
100
AcDbEntity
  8
寸法
 48
50.0
100
AcDbLine
 10
4437.557157083023
 20
7206.222141664925
 30
0.0
 11
4348.272938487601
 21
7230.14577593441
 31
0.0
  0
LINE
  5
15D98
330
747D
100
AcDbEntity
  8
寸法
 48
50.0
100
AcDbLine
 10
4218.405216907298
 20
7206.222141664925
 30
0.0
 11
4437.557157083023
 21
7206.222141664925
 31
0.0
  0
LINE
  5
15D99
330
747D
100
AcDbEntity
  8
細線
 48
50.0
100
AcDbLine
 10
5094.904397928903
 20
7371.46354855945
 30
0.0
 11
5721.904397928899
 21
7371.46354855945
 31
0.0
  0
LINE
  5
15D9A
330
747D
100
AcDbEntity
  8
細線
 48
50.0
100
AcDbLine
 10
4440.904402582488
 20
7337.754780005375
 30
0.0
 11
5721.904397928899
 21
7337.754780005375
 31
0.0
  0
LINE
  5
15D9B
330
747D
100
AcDbEntity
  8
細線
 48
50.0
100
AcDbLine
 10
4399.904402582492
 20
7367.159688001628
 30
0.0
 11
3645.904397928899
 21
7367.159688001624
 31
0.0
  0
LINE
  5
15D9C
330
747D
100
AcDbEntity
  8
細線
100
AcDbLine
 10
5497.654388512443
 20
7390.963448524459
 30
0.0
 11
5499.985928034252
 21
7395.963451164419
 31
0.0
  0
LINE
  5
15D9D
330
747D
100
AcDbEntity
  8
細線
100
AcDbLine
 10
5567.6543979289
 20
7390.963433610725
 30
0.0
 11
5565.322851452712
 21
7395.963451164405
 31
0.0
  0
LINE
  5
15D9E
330
747D
100
AcDbEntity
  8
細線
100
AcDbLine
 10
5565.322851452712
 20
7395.963451164405
 30
0.0
 11
5499.985928034237
 21
7395.963451164391
 31
0.0
  0
LINE
  5
15D9F
330
747D
100
AcDbEntity
  8
細線
100
AcDbLine
 10
5425.322851452713
 20
7395.963451164405
 30
0.0
 11
5359.985928034237
 21
7395.963451164391
 31
0.0
  0
LINE
  5
15DA0
330
747D
100
AcDbEntity
  8
細線
100
AcDbLine
 10
5427.6543979289
 20
7390.963433610725
 30
0.0
 11
5425.322851452713
 21
7395.963451164405
 31
0.0
  0
LINE
  5
15DA1
330
747D
100
AcDbEntity
  8
細線
100
AcDbLine
 10
5357.654388512443
 20
7390.963448524459
 30
0.0
 11
5359.985928034252
 21
7395.963451164419
 31
0.0
  0
LINE
  5
15DA2
330
747D
100
AcDbEntity
  8
細線
100
AcDbLine
 10
5217.6543979289
 20
7390.963433610725
 30
0.0
 11
5219.985937450712
 21
7395.963436250686
 31
0.0
  0
LINE
  5
15DA3
330
747D
100
AcDbEntity
  8
細線
100
AcDbLine
 10
5287.65440734536
 20
7390.963418696991
 30
0.0
 11
5285.32286086917
 21
7395.963436250672
 31
0.0
  0
LINE
  5
15DA4
330
747D
100
AcDbEntity
  8
細線
100
AcDbLine
 10
5285.322860869174
 20
7395.963436250672
 30
0.0
 11
5219.985937450697
 21
7395.963436250656
 31
0.0
  0
LINE
  5
15DA5
330
747D
100
AcDbEntity
  8
細線
100
AcDbLine
 10
4990.072882118006
 20
7361.963472948054
 30
0.0
 11
4924.735958699531
 21
7361.963472948038
 31
0.0
  0
LINE
  5
15DA6
330
747D
100
AcDbEntity
  8
細線
100
AcDbLine
 10
4992.404428594194
 20
7356.963455394373
 30
0.0
 11
4990.072882118006
 21
7361.963472948054
 31
0.0
  0
LINE
  5
15DA7
330
747D
100
AcDbEntity
  8
細線
100
AcDbLine
 10
4922.404419177737
 20
7356.963470308106
 30
0.0
 11
4924.735958699546
 21
7361.963472948068
 31
0.0
  0
LINE
  5
15DA8
330
747D
100
AcDbEntity
  8
細線
 48
50.0
100
AcDbLine
 10
4763.787777176913
 20
7375.234296763806
 30
0.0
 11
4769.543294759581
 21
7356.963445473319
 31
0.0
  0
LINE
  5
15DA9
330
747D
100
AcDbEntity
  8
細線
 48
50.0
100
AcDbLine
 10
4752.859328696483
 20
7375.234296763806
 30
0.0
 11
4763.787777176913
 21
7375.234296763806
 31
0.0
  0
ARC
  5
15DAA
330
747D
100
AcDbEntity
  8
細線
 48
50.0
100
AcDbCircle
 10
4747.404972639161
 20
7376.734296763806
 30
0.0
 40
5.0
100
AcDbArc
 50
204.6243183521267
 51
335.3756816478734
  0
ARC
  5
15DAB
330
747D
100
AcDbEntity
  8
細線
 48
50.0
100
AcDbCircle
 10
4752.859328696483
 20
7374.234296763805
 30
0.0
 40
1.0
100
AcDbArc
 50
90.0
 51
155.3756816478733
  0
ARC
  5
15DAC
330
747D
100
AcDbEntity
  8
細線
 48
50.0
100
AcDbCircle
 10
4741.950616581847
 20
7374.234296763805
 30
0.0
 40
1.0
100
AcDbArc
 50
24.62431835212666
 51
90.0
  0
LINE
  5
15DAD
330
747D
100
AcDbEntity
  8
細線
 48
50.0
100
AcDbLine
 10
4731.022168101413
 20
7375.234296763806
 30
0.0
 11
4741.950616581847
 21
7375.234296763806
 31
0.0
  0
LINE
  5
15DAE
330
747D
100
AcDbEntity
  8
細線
 48
50.0
100
AcDbLine
 10
4725.266650518745
 20
7356.963445473311
 30
0.0
 11
4731.022168101413
 21
7375.234296763806
 31
0.0
  0
LINE
  5
15DAF
330
747D
100
AcDbEntity
  8
細線
100
AcDbLine
 10
4782.404420408777
 20
7356.963442839115
 30
0.0
 11
4784.73595993059
 21
7361.963445479076
 31
0.0
  0
LINE
  5
15DB0
330
747D
100
AcDbEntity
  8
細線
100
AcDbLine
 10
4852.404429825238
 20
7356.963427925382
 30
0.0
 11
4850.072883349048
 21
7361.963445479062
 31
0.0
  0
LINE
  5
15DB1
330
747D
100
AcDbEntity
  8
細線
100
AcDbLine
 10
4850.072883349048
 20
7361.963445479062
 30
0.0
 11
4784.735959930575
 21
7361.963445479047
 31
0.0
  0
LINE
  5
15DB2
330
747D
100
AcDbEntity
  8
細線
100
AcDbLine
 10
4710.07285498453
 20
7361.963445473282
 30
0.0
 11
4644.735931566055
 21
7361.963445473268
 31
0.0
  0
LINE
  5
15DB3
330
747D
100
AcDbEntity
  8
細線
100
AcDbLine
 10
4712.404401460718
 20
7356.963427919602
 30
0.0
 11
4710.07285498453
 21
7361.963445473282
 31
0.0
  0
LINE
  5
15DB4
330
747D
100
AcDbEntity
  8
細線
100
AcDbLine
 10
4642.404393275302
 20
7356.963445473311
 30
0.0
 11
4644.73593156607
 21
7361.963445473297
 31
0.0
  0
LINE
  5
15DB5
330
747D
100
AcDbEntity
  8
細線
100
AcDbLine
 10
4502.404428594194
 20
7356.963453660681
 30
0.0
 11
4504.735966884961
 21
7361.963453660667
 31
0.0
  0
LINE
  5
15DB6
330
747D
100
AcDbEntity
  8
細線
100
AcDbLine
 10
4572.404436779609
 20
7356.963436106972
 30
0.0
 11
4570.072890303422
 21
7361.963453660648
 31
0.0
  0
LINE
  5
15DB7
330
747D
100
AcDbEntity
  8
細線
100
AcDbLine
 10
4570.072890303422
 20
7361.963453660648
 30
0.0
 11
4504.735966884946
 21
7361.963453660637
 31
0.0
  0
LINE
  5
15DB8
330
747D
100
AcDbEntity
  8
細線
100
AcDbLine
 10
4130.904394397073
 20
7322.963625341394
 30
0.0
 11
4133.23593268784
 21
7327.96362534138
 31
0.0
  0
LINE
  5
15DB9
330
747D
100
AcDbEntity
  8
細線
100
AcDbLine
 10
4200.904402582488
 20
7322.963607787681
 30
0.0
 11
4198.572856106301
 21
7327.963625341357
 31
0.0
  0
LINE
  5
15DBA
330
747D
100
AcDbEntity
  8
細線
100
AcDbLine
 10
4198.572856106301
 20
7327.963625341357
 30
0.0
 11
4133.23593268783
 21
7327.96362534135
 31
0.0
  0
LINE
  5
15DBB
330
747D
100
AcDbEntity
  8
細線
100
AcDbLine
 10
4338.572856106302
 20
7327.963625341357
 30
0.0
 11
4273.235932687829
 21
7327.96362534135
 31
0.0
  0
LINE
  5
15DBC
330
747D
100
AcDbEntity
  8
細線
100
AcDbLine
 10
4340.904402582489
 20
7322.963607787681
 30
0.0
 11
4338.572856106302
 21
7327.963625341357
 31
0.0
  0
LINE
  5
15DBD
330
747D
100
AcDbEntity
  8
細線
100
AcDbLine
 10
4270.904394397073
 20
7322.963625341394
 30
0.0
 11
4273.23593268784
 21
7327.96362534138
 31
0.0
  0
LINE
  5
15DBE
330
747D
100
AcDbEntity
  8
細線
100
AcDbLine
 10
4058.572856106301
 20
7327.963625341357
 30
0.0
 11
3993.23593268783
 21
7327.963625341347
 31
0.0
  0
LINE
  5
15DBF
330
747D
100
AcDbEntity
  8
細線
100
AcDbLine
 10
4060.904402582488
 20
7322.963607787681
 30
0.0
 11
4058.572856106301
 21
7327.963625341357
 31
0.0
  0
LINE
  5
15DC0
330
747D
100
AcDbEntity
  8
細線
100
AcDbLine
 10
3990.904394397073
 20
7322.96362534139
 30
0.0
 11
3993.235932687841
 21
7327.963625341375
 31
0.0
  0
LINE
  5
15DC1
330
747D
100
AcDbEntity
  8
細線
100
AcDbLine
 10
3850.904402582489
 20
7322.963625341394
 30
0.0
 11
3853.235940873257
 21
7327.96362534138
 31
0.0
  0
LINE
  5
15DC2
330
747D
100
AcDbEntity
  8
細線
100
AcDbLine
 10
3920.904410767905
 20
7322.963607787681
 30
0.0
 11
3918.572864291718
 21
7327.963625341357
 31
0.0
  0
LINE
  5
15DC3
330
747D
100
AcDbEntity
  8
細線
100
AcDbLine
 10
3918.572864291718
 20
7327.963625341357
 30
0.0
 11
3853.235940873246
 21
7327.96362534135
 31
0.0
  0
ARC
  5
15DC4
330
747D
100
AcDbEntity
  8
部品1
 48
0.01
100
AcDbCircle
 10
3806.404291330153
 20
7321.962503156321
 30
0.0
 40
0.5
100
AcDbArc
 50
270.0
 51
0.0
  0
LINE
  5
15DC5
330
747D
100
AcDbEntity
  8
部品1
 48
0.01
100
AcDbLine
 10
3806.904291330154
 20
7322.962503156322
 30
0.0
 11
3806.904291330154
 21
7321.962503156321
 31
0.0
  0
LINE
  5
15DC6
330
747D
100
AcDbEntity
  8
部品1
 48
0.01
100
AcDbLine
 10
3806.904291330154
 20
7322.962503156322
 30
0.0
 11
3806.904291330154
 21
7321.962503156321
 31
0.0
  0
LINE
  5
15DC7
330
747D
100
AcDbEntity
  8
部品1
 48
0.01
100
AcDbLine
 10
3806.404291330153
 20
7321.462503156322
 30
0.0
 11
3799.791785900089
 21
7321.462503156322
 31
0.0
  0
ARC
  5
15DC8
330
747D
100
AcDbEntity
  8
部品1
100
AcDbCircle
 10
3799.86013545287
 20
7322.46250315632
 30
0.0
 40
1.0
100
AcDbArc
 50
160.5287793655824
 51
270.0
  0
ARC
  5
15DC9
330
747D
100
AcDbEntity
  8
部品1
100
AcDbCircle
 10
3774.404291330153
 20
7331.462503156321
 30
0.0
 40
26.0
100
AcDbArc
 50
340.5287793655825
 51
0.0
  0
LINE
  5
15DCA
330
747D
100
AcDbEntity
  8
部品1
100
AcDbLine
 10
3800.404291330154
 20
7331.462503156321
 30
0.0
 11
3800.404291330154
 21
7336.462503156321
 31
0.0
  0
ARC
  5
15DCB
330
747D
100
AcDbEntity
  8
部品1
 48
0.01
100
AcDbCircle
 10
3798.404291330154
 20
7336.462503156321
 30
0.0
 40
2.0
100
AcDbArc
 50
0.0
 51
90.0
  0
ARC
  5
15DCC
330
747D
100
AcDbEntity
  8
部品1
100
AcDbCircle
 10
3796.795899705344
 20
7335.462503156321
 30
0.0
 40
3.0
100
AcDbArc
 50
90.0
 51
141.6069559807882
  0
LINE
  5
15DCD
330
747D
100
AcDbEntity
  8
部品1
 48
0.01
100
AcDbLine
 10
3798.404291330154
 20
7338.462503156321
 30
0.0
 11
3796.795899705344
 21
7338.462503156321
 31
0.0
  0
ARC
  5
15DCE
330
747D
100
AcDbEntity
  8
部品1
100
AcDbCircle
 10
3778.333577115883
 20
7334.762503156324
 30
0.0
 40
3.0
100
AcDbArc
 50
254.0576313943196
 51
270.0
  0
ARC
  5
15DCF
330
747D
100
AcDbEntity
  8
部品1
100
AcDbCircle
 10
3785.475005544425
 20
7334.762503156324
 30
0.0
 40
3.0
100
AcDbArc
 50
270.0
 51
285.9423686056803
  0
LINE
  5
15DD0
330
747D
100
AcDbEntity
  8
部品1
100
AcDbLine
 10
3785.475005544425
 20
7331.762503156324
 30
0.0
 11
3778.333577115883
 21
7331.762503156324
 31
0.0
  0
ARC
  5
15DD1
330
747D
100
AcDbEntity
  8
部品1
100
AcDbCircle
 10
3781.904291330154
 20
7347.262503156324
 30
0.0
 40
16.0
100
AcDbArc
 50
285.9423686056803
 51
321.6069559807882
  0
LINE
  5
15DD2
330
747D
100
AcDbEntity
  8
部品1
 48
0.01
100
AcDbLine
 10
3765.404291330154
 20
7338.462503156321
 30
0.0
 11
3767.012682954964
 21
7338.462503156321
 31
0.0
  0
ARC
  5
15DD3
330
747D
100
AcDbEntity
  8
部品1
100
AcDbCircle
 10
3767.012682954964
 20
7335.462503156321
 30
0.0
 40
3.0
100
AcDbArc
 50
38.39304401921179
 51
90.0
  0
ARC
  5
15DD4
330
747D
100
AcDbEntity
  8
部品1
100
AcDbCircle
 10
3781.904291330154
 20
7347.262503156324
 30
0.0
 40
16.0
100
AcDbArc
 50
218.3930440192118
 51
254.0576313943196
  0
LINE
  5
15DD5
330
747D
100
AcDbEntity
  8
部品1
100
AcDbLine
 10
3763.404291330154
 20
7331.462503156321
 30
0.0
 11
3763.404291330154
 21
7336.462503156321
 31
0.0
  0
ARC
  5
15DD6
330
747D
100
AcDbEntity
  8
部品1
 48
0.01
100
AcDbCircle
 10
3765.404291330154
 20
7336.462503156321
 30
0.0
 40
2.0
100
AcDbArc
 50
90.0
 51
180.0
  0
ARC
  5
15DD7
330
747D
100
AcDbEntity
  8
部品1
100
AcDbCircle
 10
3789.404291330154
 20
7331.462503156321
 30
0.0
 40
26.0
100
AcDbArc
 50
180.0
 51
199.4712206344175
  0
ARC
  5
15DD8
330
747D
100
AcDbEntity
  8
部品1
 48
0.01
100
AcDbCircle
 10
3757.404291330154
 20
7321.962503156321
 30
0.0
 40
0.5
100
AcDbArc
 50
180.0
 51
270.0
  0
LINE
  5
15DD9
330
747D
100
AcDbEntity
  8
部品1
 48
0.01
100
AcDbLine
 10
3757.404291330154
 20
7321.462503156322
 30
0.0
 11
3763.948447207437
 21
7321.462503156322
 31
0.0
  0
LINE
  5
15DDA
330
747D
100
AcDbEntity
  8
部品1
 48
0.01
100
AcDbLine
 10
3756.904291330154
 20
7322.962503156322
 30
0.0
 11
3756.904291330154
 21
7321.962503156321
 31
0.0
  0
ARC
  5
15DDB
330
747D
100
AcDbEntity
  8
部品1
100
AcDbCircle
 10
3763.948447207437
 20
7322.46250315632
 30
0.0
 40
1.0
100
AcDbArc
 50
270.0
 51
19.47122063441756
  0
LINE
  5
15DDC
330
747D
100
AcDbEntity
  8
細線
100
AcDbLine
 10
3802.404291330161
 20
7340.962503156325
 30
0.0
 11
3761.404291330161
 21
7340.962503156318
 31
0.0
  0
LINE
  5
15DDD
330
747D
100
AcDbEntity
  8
細線
100
AcDbLine
 10
3761.404291330161
 20
7340.962503156318
 30
0.0
 11
3761.404291330161
 21
7322.962503156299
 31
0.0
  0
LINE
  5
15DDE
330
747D
100
AcDbEntity
  8
細線
100
AcDbLine
 10
3802.404291330161
 20
7340.962503156325
 30
0.0
 11
3802.404291330161
 21
7322.962503156299
 31
0.0
  0
LINE
  5
15DDF
330
747D
100
AcDbEntity
  8
細線
100
AcDbLine
 10
3645.904397928899
 20
7326.963433610725
 30
0.0
 11
3645.904397928899
 21
7322.963433610772
 31
0.0
  0
DIMENSION
  5
15DE0
330
747D
100
AcDbEntity
  8
寸法
 48
50.0
100
AcDbDimension
  2
*D42
 10
4911.904397928899
 20
6621.210607414532
 30
0.0
 11
4306.592053524815
 21
6621.210607414532
 31
0.0
 70
   160
  1
有効開口部間口\P<>
 71
     5
 42
1266.0
  3
INABA_S40
100
AcDbAlignedDimension
 13
3645.904397928899
 23
7317.963433610724
 33
0.0
 14
4911.904397928899
 24
7317.963433610724
 34
0.0
100
AcDbRotatedDimension
1001
ACAD
1000
DSTYLE
1002
{
1070
    41
1040
0.5
1070
    44
1040
1.0
1070
   147
1040
0.8
1070
   271
1070
     2
1070
   272
1070
     2
1070
   289
1070
     3
1070
   340
1005
F706
1070
   343
1005
F744
1070
   344
1005
F744
1002
}
  0
LINE
  5
15DE1
330
747D
100
AcDbEntity
  8
部品1
100
AcDbLine
 10
5733.904397928899
 20
7394.963433610723
 30
0.0
 11
5760.904397928899
 21
7394.963433610725
 31
0.0
  0
LINE
  5
15DE3
330
747D
100
AcDbEntity
  8
部品1
100
AcDbLine
 10
5760.904397928899
 20
7317.963433610724
 30
0.0
 11
5760.904397928899
 21
7394.963433610725
 31
0.0
  0
LINE
  5
15DE4
330
747D
100
AcDbEntity
  8
部品1
100
AcDbLine
 10
5721.904397928899
 20
7390.963433610725
 30
0.0
 11
5733.904397928899
 21
7390.963433610725
 31
0.0
  0
LINE
  5
15DE5
330
747D
100
AcDbEntity
  8
部品1
100
AcDbLine
 10
5730.904397928899
 20
7326.963433610725
 30
0.0
 11
5730.904397928899
 21
7317.963433610724
 31
0.0
  0
LINE
  5
15DE6
330
747D
100
AcDbEntity
  8
部品1
100
AcDbLine
 10
5721.904397928899
 20
7326.963433610725
 30
0.0
 11
5730.904397928899
 21
7326.963433610725
 31
0.0
  0
LINE
  5
15DE7
330
747D
100
AcDbEntity
  8
部品1
100
AcDbLine
 10
5721.904397928899
 20
7390.963433610725
 30
0.0
 11
5721.904397928899
 21
7326.963433610725
 31
0.0
  0
LINE
  5
15DE8
330
747D
100
AcDbEntity
  8
部品1
100
AcDbLine
 10
5733.904397928899
 20
7421.963433610726
 30
0.0
 11
5733.904397928899
 21
7390.963433610725
 31
0.0
  0
LINE
  5
15DE9
330
747D
100
AcDbEntity
  8
部品1
100
AcDbLine
 10
3645.904397928899
 20
7390.963433610725
 30
0.0
 11
3633.904397928899
 21
7390.963433610725
 31
0.0
  0
LINE
  5
15DEA
330
747D
100
AcDbEntity
  8
部品1
100
AcDbLine
 10
3606.904397928899
 20
7394.963433610725
 30
0.0
 11
3633.904397928898
 21
7394.963433610725
 31
0.0
  0
LINE
  5
15DEB
330
747D
100
AcDbEntity
  8
部品1
100
AcDbLine
 10
3636.904397928899
 20
7326.963433610725
 30
0.0
 11
3636.904397928899
 21
7317.963433610724
 31
0.0
  0
LINE
  5
15DEC
330
747D
100
AcDbEntity
  8
部品1
100
AcDbLine
 10
3645.904397928899
 20
7326.963433610725
 30
0.0
 11
3636.904397928899
 21
7326.963433610725
 31
0.0
  0
LINE
  5
15DED
330
747D
100
AcDbEntity
  8
部品1
100
AcDbLine
 10
3636.904397928899
 20
7317.963433610724
 30
0.0
 11
3606.904397928899
 21
7317.963433610724
 31
0.0
  0
LINE
  5
15DEE
330
747D
100
AcDbEntity
  8
部品1
100
AcDbLine
 10
3606.904397928899
 20
7317.963433610724
 30
0.0
 11
3606.904397928899
 21
7394.963433610725
 31
0.0
  0
LINE
  5
15DEF
330
747D
100
AcDbEntity
  8
部品1
100
AcDbLine
 10
3645.904397928899
 20
7390.963433610725
 30
0.0
 11
3645.904397928899
 21
7326.963433610725
 31
0.0
  0
LINE
  5
15DF0
330
747D
100
AcDbEntity
  8
部品1
100
AcDbLine
 10
3633.904397928898
 20
7421.96343361072
 30
0.0
 11
3633.904397928899
 21
7390.963433610725
 31
0.0
  0
LINE
  5
15DF1
330
747D
100
AcDbEntity
  8
部品1
100
AcDbLine
 10
3633.904397928898
 20
7421.96343361072
 30
0.0
 11
5733.904397928899
 21
7421.963433610726
 31
0.0
  0
LINE
  5
15DF2
330
747D
100
AcDbEntity
  8
部品1
100
AcDbLine
 10
5730.904397928899
 20
7317.963433610724
 30
0.0
 11
5760.904397928899
 21
7317.963433610724
 31
0.0
  0
LINE
  5
15DF3
330
747D
100
AcDbEntity
  8
部品1
100
AcDbLine
 10
3636.904397928899
 20
7317.963433610724
 30
0.0
 11
5733.904397928899
 21
7317.963433610724
 31
0.0
  0
LINE
  5
15DF4
330
747D
100
AcDbEntity
  8
細線
  6
Continuous
 62
     5
100
AcDbLine
 10
5012.904397928902
 20
7356.963433610721
 30
0.0
 11
5012.904397928902
 21
7356.963433610721
 31
0.0
  0
LINE
  5
15DF5
330
747D
100
AcDbEntity
  8
細線
  6
Continuous
 62
     5
100
AcDbLine
 10
5005.404433247794
 20
7356.963443531778
 30
0.0
 11
5005.404433247794
 21
7356.963443531778
 31
0.0
  0
LINE
  5
15DF6
330
747D
100
AcDbEntity
  8
細線
  6
Continuous
 62
     5
100
AcDbLine
 10
4999.404433247794
 20
7356.963443531778
 30
0.0
 11
4999.404433247794
 21
7356.963443531778
 31
0.0
  0
LINE
  5
15DF7
330
747D
100
AcDbEntity
  8
細線
  6
Continuous
 62
     5
100
AcDbLine
 10
5066.904397928903
 20
7375.963433610721
 30
0.0
 11
5066.904397928903
 21
7375.963433610721
 31
0.0
  0
LINE
  5
15DF8
330
747D
100
AcDbEntity
  8
細線
 48
50.0
100
AcDbLine
 10
3659.904402582493
 20
7343.563607787679
 30
0.0
 11
3659.904402582493
 21
7351.959758195319
 31
0.0
  0
LINE
  5
15DF9
330
747D
100
AcDbEntity
  8
細線
 48
50.0
100
AcDbLine
 10
3659.904402582493
 20
7351.959758195319
 30
0.0
 11
3645.904397928899
 21
7351.959758195315
 31
0.0
  0
LINE
  5
15DFA
330
747D
100
AcDbEntity
  8
細線
 48
50.0
100
AcDbLine
 10
4410.904402582488
 20
7340.113607787678
 30
0.0
 11
4410.904402582488
 21
7344.96360778768
 31
0.0
  0
LINE
  5
15DFB
330
747D
100
AcDbEntity
  8
細線
 48
50.0
100
AcDbLine
 10
4410.904402582488
 20
7344.96360778768
 30
0.0
 11
4425.904402582488
 21
7344.96360778768
 31
0.0
  0
LINE
  5
15DFC
330
747D
100
AcDbEntity
  8
細線
 48
50.0
100
AcDbLine
 10
4425.904402582488
 20
7344.96360778768
 30
0.0
 11
4425.904402582492
 21
7351.963607787681
 31
0.0
  0
LINE
  5
15DFD
330
747D
100
AcDbEntity
  8
細線
 48
50.0
100
AcDbLine
 10
4425.904402582492
 20
7351.963607787681
 30
0.0
 11
4440.904402582488
 21
7351.963607787681
 31
0.0
  0
LINE
  5
15DFE
330
747D
100
AcDbEntity
  8
細線
 48
50.0
100
AcDbLine
 10
4440.904402582488
 20
7351.963607787681
 30
0.0
 11
4440.904402582488
 21
7322.963607787681
 31
0.0
  0
LINE
  5
15DFF
330
747D
100
AcDbEntity
  8
細線
 48
50.0
100
AcDbLine
 10
3636.904397928899
 20
7322.96094213115
 30
0.0
 11
3850.904402582489
 21
7322.963625341394
 31
0.0
  0
LINE
  5
15E00
330
747D
100
AcDbEntity
  8
細線
 48
50.0
100
AcDbLine
 10
4340.904402582489
 20
7322.963607787681
 30
0.0
 11
4440.904402582488
 21
7322.963607787681
 31
0.0
  0
LINE
  5
15E01
330
747D
100
AcDbEntity
  8
細線
 48
50.0
100
AcDbLine
 10
4060.904402582488
 20
7322.963607787681
 30
0.0
 11
4130.904402582489
 21
7322.963607787681
 31
0.0
  0
LINE
  5
15E02
330
747D
100
AcDbEntity
  8
細線
 48
50.0
100
AcDbLine
 10
4073.766367595018
 20
7322.963607787681
 30
0.0
 11
4079.521885177685
 21
7341.234459078174
 31
0.0
  0
LINE
  5
15E03
330
747D
100
AcDbEntity
  8
細線
 48
50.0
100
AcDbLine
 10
4079.521885177685
 20
7341.234459078174
 30
0.0
 11
4090.450333658119
 21
7341.23445907817
 31
0.0
  0
ARC
  5
15E04
330
747D
100
AcDbEntity
  8
細線
 48
50.0
100
AcDbCircle
 10
4090.450333658119
 20
7340.234459078171
 30
0.0
 40
1.0
100
AcDbArc
 50
24.62431835212666
 51
90.0
  0
ARC
  5
15E05
330
747D
100
AcDbEntity
  8
細線
 48
50.0
100
AcDbCircle
 10
4101.359045772752
 20
7340.234459078171
 30
0.0
 40
1.0
100
AcDbArc
 50
90.0
 51
155.3756816478733
  0
ARC
  5
15E06
330
747D
100
AcDbEntity
  8
細線
 48
50.0
100
AcDbCircle
 10
4095.904689715434
 20
7342.73445907817
 30
0.0
 40
5.0
100
AcDbArc
 50
204.6243183521267
 51
335.3756816478734
  0
LINE
  5
15E07
330
747D
100
AcDbEntity
  8
細線
 48
50.0
100
AcDbLine
 10
4101.359045772752
 20
7341.23445907817
 30
0.0
 11
4112.287494253187
 21
7341.234459078174
 31
0.0
  0
LINE
  5
15E08
330
747D
100
AcDbEntity
  8
細線
 48
50.0
100
AcDbLine
 10
4112.287494253187
 20
7341.234459078174
 30
0.0
 11
4118.043011835854
 21
7322.963607787681
 31
0.0
  0
LINE
  5
15E09
330
747D
100
AcDbEntity
  8
細線
 48
50.0
100
AcDbLine
 10
4410.904402582488
 20
7343.563607787679
 30
0.0
 11
3659.904402582493
 21
7343.563607787679
 31
0.0
  0
LINE
  5
15E0A
330
747D
100
AcDbEntity
  8
細線
 48
50.0
100
AcDbLine
 10
4270.904402582488
 20
7322.963607787681
 30
0.0
 11
4200.904402582488
 21
7322.963607787681
 31
0.0
  0
LINE
  5
15E0B
330
747D
100
AcDbEntity
  8
細線
100
AcDbLine
 10
3990.904402582489
 20
7322.963607787681
 30
0.0
 11
3920.904410767905
 21
7322.963607787681
 31
0.0
  0
LINE
  5
15E0C
330
747D
100
AcDbEntity
  8
細線
 48
50.0
100
AcDbLine
 10
5064.904393275313
 20
7377.563651645548
 30
0.0
 11
4429.904402582489
 21
7377.563651645544
 31
0.0
  0
LINE
  5
15E0D
330
747D
100
AcDbEntity
  8
細線
 48
50.0
100
AcDbLine
 10
4429.904402582489
 20
7374.459802053187
 30
0.0
 11
4429.904402582489
 21
7378.959802053187
 31
0.0
  0
LINE
  5
15E0E
330
747D
100
AcDbEntity
  8
細線
 48
50.0
100
AcDbLine
 10
4429.904402582489
 20
7378.959802053187
 30
0.0
 11
4414.904402582489
 21
7378.959802053187
 31
0.0
  0
LINE
  5
15E0F
330
747D
100
AcDbEntity
  8
細線
 48
50.0
100
AcDbLine
 10
4414.904402582489
 20
7378.959802053187
 30
0.0
 11
4414.904402582489
 21
7385.959802053186
 31
0.0
  0
LINE
  5
15E10
330
747D
100
AcDbEntity
  8
細線
 48
50.0
100
AcDbLine
 10
4414.904402582489
 20
7385.959802053186
 30
0.0
 11
4399.904402582492
 21
7385.959802053183
 31
0.0
  0
LINE
  5
15E11
330
747D
100
AcDbEntity
  8
細線
 48
50.0
100
AcDbLine
 10
4399.904402582492
 20
7385.959802053183
 30
0.0
 11
4399.904402582492
 21
7348.359573950073
 31
0.0
  0
LINE
  5
15E12
330
747D
100
AcDbEntity
  8
細線
 48
50.0
100
AcDbLine
 10
4399.904402582492
 20
7348.359573950073
 30
0.0
 11
4419.904409883665
 21
7348.359615499614
 31
0.0
  0
LINE
  5
15E13
330
747D
100
AcDbEntity
  8
細線
 48
50.0
100
AcDbLine
 10
4419.904365014722
 20
7356.963077135422
 30
0.0
 11
4419.904409883665
 21
7348.359615499614
 31
0.0
  0
LINE
  5
15E14
330
747D
100
AcDbEntity
  8
細線
 48
50.0
100
AcDbLine
 10
5064.904393275313
 20
7374.113651645547
 30
0.0
 11
5064.904393275313
 21
7378.963651645545
 31
0.0
  0
LINE
  5
15E15
330
747D
100
AcDbEntity
  8
細線
 48
50.0
100
AcDbLine
 10
5064.904393275313
 20
7378.963651645545
 30
0.0
 11
5079.90439327531
 21
7378.963651645545
 31
0.0
  0
LINE
  5
15E16
330
747D
100
AcDbEntity
  8
細線
 48
50.0
100
AcDbLine
 10
5079.90439327531
 20
7378.963651645545
 30
0.0
 11
5079.904404909285
 21
7385.963651645589
 31
0.0
  0
LINE
  5
15E17
330
747D
100
AcDbEntity
  8
細線
 48
50.0
100
AcDbLine
 10
5079.904404909285
 20
7385.963651645589
 30
0.0
 11
5094.904403079815
 21
7385.963651645589
 31
0.0
  0
LINE
  5
15E18
330
747D
100
AcDbEntity
  8
細線
 48
50.0
100
AcDbLine
 10
5094.904403079815
 20
7385.963651645589
 30
0.0
 11
5094.904392777994
 21
7356.963445473315
 31
0.0
  0
LINE
  5
15E19
330
747D
100
AcDbEntity
  8
細線
 48
50.0
100
AcDbLine
 10
4782.404420408777
 20
7356.963453660681
 30
0.0
 11
4712.404672491194
 21
7356.963448223344
 31
0.0
  0
LINE
  5
15E1A
330
747D
100
AcDbEntity
  8
細線
 48
50.0
100
AcDbLine
 10
4419.904365014722
 20
7356.963077135422
 30
0.0
 11
4431.137054369433
 21
7356.963260088569
 31
0.0
  0
ARC
  5
15E1B
330
747D
100
AcDbEntity
  8
細線
 48
50.0
100
AcDbCircle
 10
4437.719346676768
 20
7355.763424002181
 30
0.0
 40
1.8
100
AcDbArc
 50
270.0006665777295
 51
345.0005554812979
  0
LINE
  5
15E1C
330
747D
100
AcDbEntity
  8
細線
 48
50.0
100
AcDbLine
 10
4439.705780122848
 20
7356.22226445946
 30
0.0
 11
4439.458017680649
 21
7355.297566577355
 31
0.0
  0
LINE
  5
15E1D
330
747D
100
AcDbEntity
  8
細線
 48
50.0
100
AcDbLine
 10
4437.719367617924
 20
7353.963424002301
 30
0.0
 11
4434.089440199154
 21
7353.963381771823
 31
0.0
  0
ARC
  5
15E1E
330
747D
100
AcDbEntity
  8
細線
 48
50.0
100
AcDbCircle
 10
4434.089419258003
 20
7355.763381771701
 30
0.0
 40
1.8
100
AcDbArc
 50
195.0010443049451
 51
270.0006665777295
  0
LINE
  5
15E1F
330
747D
100
AcDbEntity
  8
細線
 48
50.0
100
AcDbLine
 10
4432.102991765744
 20
7356.222096739266
 30
0.0
 11
4432.350761262257
 21
7355.297475800684
 31
0.0
  0
ARC
  5
15E20
330
747D
100
AcDbEntity
  8
細線
 48
50.0
100
AcDbCircle
 10
4431.137070656995
 20
7355.963260088704
 30
0.0
 40
1.0
100
AcDbArc
 50
15.00104430494515
 51
90.00093320877969
  0
LINE
  5
15E21
330
747D
100
AcDbEntity
  8
細線
 48
50.0
100
AcDbLine
 10
4440.671701477951
 20
7356.963454778973
 30
0.0
 11
4441.613461628855
 21
7356.963461352823
 31
0.0
  0
ARC
  5
15E22
330
747D
100
AcDbEntity
  8
細線
 48
50.0
100
AcDbCircle
 10
4440.671708458337
 20
7355.963454779
 30
0.0
 40
1.0
100
AcDbArc
 50
90.0003999466794
 51
165.0005554812979
  0
LINE
  5
15E23
330
747D
100
AcDbEntity
  8
細線
 48
50.0
100
AcDbLine
 10
4992.404393275302
 20
7356.963445473315
 30
0.0
 11
5094.904392777994
 21
7356.963445473315
 31
0.0
  0
LINE
  5
15E24
330
747D
100
AcDbEntity
  8
細線
 48
50.0
100
AcDbLine
 10
4502.404428594194
 20
7356.963453660681
 30
0.0
 11
4441.304367367274
 21
7356.963461352823
 31
0.0
  0
LINE
  5
15E25
330
747D
100
AcDbEntity
  8
細線
 48
50.0
100
AcDbLine
 10
4922.404428594194
 20
7356.963490501764
 30
0.0
 11
4852.404421639808
 21
7356.963445479095
 31
0.0
  0
LINE
  5
15E26
330
747D
100
AcDbEntity
  8
細線
 48
50.0
100
AcDbLine
 10
4642.404393275302
 20
7356.963445473311
 30
0.0
 11
4572.404375987427
 21
7356.963445473319
 31
0.0
  0
ARC
  5
15E27
330
747D
100
AcDbEntity
  8
細線
 48
50.0
100
AcDbCircle
 10
5079.104397928911
 20
7390.163433610725
 30
0.0
 40
0.8
100
AcDbArc
 50
359.9997333689499
 51
89.99986668437072
  0
ARC
  5
15E28
330
747D
100
AcDbEntity
  8
細線
 48
50.0
100
AcDbCircle
 10
5086.704404754005
 20
7390.163444779343
 30
0.0
 40
0.8
100
AcDbArc
 50
90.00014387753465
 51
179.9997333689498
  0
LINE
  5
15E29
330
747D
100
AcDbEntity
  8
細線
 48
50.0
100
AcDbLine
 10
5079.104399790344
 20
7390.963433610725
 30
0.0
 11
5073.904397928899
 21
7390.963433610725
 31
0.0
  0
ARC
  5
15E2A
330
747D
100
AcDbEntity
  8
細線
 48
50.0
100
AcDbCircle
 10
5080.6043979289
 20
7388.663433610725
 30
0.0
 40
0.7
100
AcDbArc
 50
180.0
 51
270.0
  0
ARC
  5
15E2B
330
747D
100
AcDbEntity
  8
細線
 48
50.0
100
AcDbCircle
 10
5085.204397928902
 20
7388.663433610725
 30
0.0
 40
0.7
100
AcDbArc
 50
270.0
 51
0.0
  0
LINE
  5
15E2C
330
747D
100
AcDbEntity
  8
細線
 48
50.0
100
AcDbLine
 10
5085.904397928899
 20
7388.663433610725
 30
0.0
 11
5085.904404754017
 21
7390.163448502213
 31
0.0
  0
LINE
  5
15E2D
330
747D
100
AcDbEntity
  8
細線
 48
50.0
100
AcDbLine
 10
5080.6043979289
 20
7387.963433610725
 30
0.0
 11
5085.204397928902
 21
7387.963433610725
 31
0.0
  0
LINE
  5
15E2E
330
747D
100
AcDbEntity
  8
細線
 48
50.0
100
AcDbLine
 10
5079.904397928899
 20
7390.163433610725
 30
0.0
 11
5079.904397928899
 21
7388.663433610725
 31
0.0
  0
LINE
  5
15E2F
330
747D
100
AcDbEntity
  8
細線
 48
50.0
100
AcDbLine
 10
5705.504397928905
 20
7420.963433610724
 30
0.0
 11
5068.904397928899
 21
7420.963433610721
 31
0.0
  0
LINE
  5
15E30
330
747D
100
AcDbEntity
  8
細線
 48
50.0
100
AcDbLine
 10
5731.404397928899
 20
7415.963433610729
 30
0.0
 11
5715.504397928905
 21
7415.963433610724
 31
0.0
  0
LINE
  5
15E31
330
747D
100
AcDbEntity
  8
細線
 48
50.0
100
AcDbLine
 10
5715.504397928901
 20
7415.963433610724
 30
0.0
 11
5705.504397928905
 21
7420.963433610724
 31
0.0
  0
LINE
  5
15E32
330
747D
100
AcDbEntity
  8
細線
100
AcDbLine
 10
5316.404397928899
 20
7390.963433610725
 30
0.0
 11
5316.404397928899
 21
7420.263433610724
 31
0.0
  0
LINE
  5
15E33
330
747D
100
AcDbEntity
  8
細線
100
AcDbLine
 10
5316.404397928899
 20
7420.263433610724
 30
0.0
 11
5336.4043979289
 21
7420.263433610724
 31
0.0
  0
LINE
  5
15E34
330
747D
100
AcDbEntity
  8
細線
100
AcDbLine
 10
5336.4043979289
 20
7390.963433610725
 30
0.0
 11
5336.4043979289
 21
7420.263433610724
 31
0.0
  0
LINE
  5
15E35
330
747D
100
AcDbEntity
  8
細線
100
AcDbLine
 10
5497.6543979289
 20
7390.963433610725
 30
0.0
 11
5427.6543979289
 21
7390.963433610725
 31
0.0
  0
LINE
  5
15E36
330
747D
100
AcDbEntity
  8
細線
 48
50.0
100
AcDbLine
 10
5217.6543979289
 20
7390.963433610725
 30
0.0
 11
5086.700177501743
 21
7390.963433610725
 31
0.0
  0
LINE
  5
15E37
330
747D
100
AcDbEntity
  8
細線
100
AcDbLine
 10
5357.6543979289
 20
7390.963433610725
 30
0.0
 11
5287.6543979289
 21
7390.963433610725
 31
0.0
  0
LINE
  5
15E38
330
747D
100
AcDbEntity
  8
細線
 48
50.0
100
AcDbLine
 10
5073.904397928899
 20
7382.963433610725
 30
0.0
 11
5073.904397928899
 21
7390.963433610725
 31
0.0
  0
LINE
  5
15E39
330
747D
100
AcDbEntity
  8
細線
 48
50.0
100
AcDbLine
 10
5053.904397928899
 20
7382.963433610729
 30
0.0
 11
5073.904397928899
 21
7382.963433610725
 31
0.0
  0
LINE
  5
15E3A
330
747D
100
AcDbEntity
  8
細線
 48
50.0
100
AcDbLine
 10
5068.904397928899
 20
7420.963433610724
 30
0.0
 11
5068.904397928899
 21
7415.963433610724
 31
0.0
  0
LINE
  5
15E3B
330
747D
100
AcDbEntity
  8
細線
 48
50.0
100
AcDbLine
 10
5053.904397928899
 20
7420.963433610721
 30
0.0
 11
5068.904397928899
 21
7420.963433610724
 31
0.0
  0
LINE
  5
15E3C
330
747D
100
AcDbEntity
  8
細線
 48
50.0
100
AcDbLine
 10
5053.904397928899
 20
7382.963433610729
 30
0.0
 11
5053.904397928899
 21
7420.963433610721
 31
0.0
  0
LINE
  5
15E3D
330
747D
100
AcDbEntity
  8
細線
100
AcDbLine
 10
5721.904397928899
 20
7390.963433610725
 30
0.0
 11
5567.6543979289
 21
7390.963433610725
 31
0.0
  0
LINE
  5
15E3E
330
747D
100
AcDbEntity
  8
細線
 48
50.0
100
AcDbLine
 10
5731.404397928899
 20
7415.963433610729
 30
0.0
 11
5731.404397928899
 21
7390.963433610725
 31
0.0
  0
DIMENSION
  5
16094
330
747D
100
AcDbEntity
  8
寸法
100
AcDbDimension
  2
*D43
 10
3320.153023599285
 20
7319.963433610694
 30
0.0
 11
3320.153023599284
 21
7162.712203202507
 31
0.0
 70
   160
 71
     5
 42
75.00000000003274
  3
INABA_S40
100
AcDbAlignedDimension
 13
3578.904397928898
 23
7394.963433610726
 33
0.0
 14
3606.904397928899
 24
7319.963433610694
 34
0.0
 50
90.0
100
AcDbRotatedDimension
1001
ACAD
1000
DSTYLE
1002
{
1070
    41
1040
0.5
1070
    44
1040
1.0
1070
   147
1040
0.8
1070
   271
1070
     2
1070
   272
1070
     2
1070
   289
1070
     3
1070
   340
1005
F706
1070
   343
1005
F744
1070
   344
1005
F744
1002
}
  0
DIMENSION
  5
16095
330
747D
100
AcDbEntity
  8
寸法
 48
50.0
100
AcDbDimension
  2
*D44
 10
5760.904397928899
 20
6375.220400663034
 30
0.0
 11
4689.961971101395
 21
6375.220400663034
 31
0.0
 70
   160
 71
     5
 42
2154.0
  3
INABA_S40G
100
AcDbAlignedDimension
 13
3606.904397928899
 23
7317.963433610724
 33
0.0
 14
5760.904397928899
 24
7317.963433610724
 34
0.0
100
AcDbRotatedDimension
1001
ACAD
1000
DSTYLE
1002
{
1070
   341
1005
0
1002
}
  0
LWPOLYLINE
  5
16156
330
747D
100
AcDbEntity
  8
部品1
100
AcDbPolyline
 90
        4
 70
     1
 43
0.0
 10
5407.169064814692
 20
5783.25197349208
 10
5407.169064814692
 20
5543.359651946548
 10
6170.639731043134
 20
5543.359651946548
 10
6170.639731043134
 20
5783.25197349208
  0
TEXT
  5
16157
330
747D
100
AcDbEntity
  8
部品1
100
AcDbText
 10
5497.088674643734
 20
5590.358444273556
 30
0.0
 40
135.0
  1
平面図
  7
STYLE2
100
AcDbText
  0
DIMENSION
  5
16190
330
747D
100
AcDbEntity
  8
寸法
 48
50.0
100
AcDbDimension
  2
*D45
 10
7998.904397928898
 20
6116.914854056406
 30
0.0
 11
6893.904397928898
 21
6208.926665080028
 31
0.0
 70
    32
 71
     5
 42
2210.0
  3
INABA_S40
100
AcDbAlignedDimension
 13
5788.904397928899
 23
7449.963433610723
 33
0.0
 14
7998.904397928898
 24
7394.963433610726
 34
0.0
100
AcDbRotatedDimension
1001
ACAD
1000
DSTYLE
1002
{
1070
    41
1040
0.5
1070
    44
1040
1.0
1070
   147
1040
0.8
1070
   271
1070
     2
1070
   272
1070
     2
1070
   289
1070
     3
1070
   340
1005
F706
1070
   343
1005
F744
1070
   344
1005
F744
1002
}
  0
DIMENSION
  5
161B5
330
747D
100
AcDbEntity
  8
寸法
 48
50.0
100
AcDbDimension
  2
*D46
 10
5788.904397928899
 20
6116.914854056406
 30
0.0
 11
4673.548125189918
 21
6116.914854056406
 31
0.0
 70
   160
 71
     5
 42
2210.0
  3
INABA_S40
100
AcDbAlignedDimension
 13
3578.904397928898
 23
7394.963433610726
 33
0.0
 14
5788.904397928899
 24
7449.963433610726
 34
0.0
100
AcDbRotatedDimension
1001
ACAD
1000
DSTYLE
1002
{
1070
    41
1040
0.5
1070
    44
1040
1.0
1070
   147
1040
0.8
1070
   271
1070
     2
1070
   272
1070
     2
1070
   289
1070
     3
1070
   340
1005
F706
1070
   343
1005
F744
1070
   344
1005
F744
1002
}
  0
TEXT
  5
163D6
330
747D
100
AcDbEntity
  8
文字
 62
     7
 48
50.0
100
AcDbText
 10
15022.63965474516
 20
9570.013745883723
 30
0.0
 40
100.0
  1
F12            2.3
  7
STYLE1
100
AcDbText
  0
TEXT
  5
163D7
330
747D
100
AcDbEntity
  8
文字
 62
     7
 48
50.0
100
AcDbText
 10
13248.77747366447
 20
8210.013745883729
 30
0.0
 40
100.0
  1
18
  7
STYLE1
100
AcDbText
  0
TEXT
  5
163DE
330
747D
100
AcDbEntity
  8
文字
 62
     7
 48
50.0
100
AcDbText
 10
13583.11819016569
 20
9224.407396633495
 30
0.0
 40
100.0
  1
梁中補強パネル
  7
STYLE1
100
AcDbText
  0
TEXT
  5
163DF
330
747D
100
AcDbEntity
  8
文字
 62
     7
 48
50.0
100
AcDbText
 10
15022.63965474516
 20
9224.407396633491
 30
0.0
 40
100.0
  1
F12         0.7+1.2
  7
STYLE1
100
AcDbText
  0
LINE
  5
163F8
330
747D
100
AcDbEntity
  8
部品1
 48
50.0
100
AcDbLine
 10
5813.904400172058
 20
9308.463433610691
 30
0.0
 11
5813.904400172058
 21
9969.963433610693
 31
0.0
  0
LINE
  5
163F9
330
747D
100
AcDbEntity
  8
部品1
 48
50.0
100
AcDbLine
 10
5763.904400172058
 20
9969.963433610693
 30
0.0
 11
5763.904400172058
 21
9308.463433610691
 31
0.0
  0
LINE
  5
163FA
330
747D
100
AcDbEntity
  8
部品1
100
AcDbLine
 10
5763.904400172058
 20
9390.463433610692
 30
0.0
 11
5813.904400172056
 21
9403.175298017471
 31
0.0
  0
LINE
  5
163FB
330
747D
100
AcDbEntity
  8
部品1
100
AcDbLine
 10
5813.904400172058
 20
9545.287450173839
 30
0.0
 11
5763.904400172055
 21
9550.463433610692
 31
0.0
  0
LINE
  5
163FC
330
747D
100
AcDbEntity
  8
部品1
100
AcDbLine
 10
5813.904400172058
 20
9585.639417047547
 30
0.0
 11
5763.904400172055
 21
9580.463433610692
 31
0.0
  0
LINE
  5
163FD
330
747D
100
AcDbEntity
  8
部品1
 48
50.0
100
AcDbLine
 10
5763.904400172058
 20
9308.463433610691
 30
0.0
 11
5813.904400172058
 21
9308.463433610691
 31
0.0
  0
DIMENSION
  5
163FE
330
747D
100
AcDbEntity
  8
寸法
 48
50.0
100
AcDbDimension
  2
*D47
 10
6125.745760432895
 20
10024.96343718787
 30
0.0
 11
6125.745760432894
 21
9642.202292824133
 31
0.0
 70
   160
 71
     5
 42
716.5000035771754
  3
INABA_S40G
100
AcDbAlignedDimension
 13
5813.904400172058
 23
9308.463433610691
 33
0.0
 14
5843.904400172292
 24
10024.96343718787
 34
0.0
 50
90.0
100
AcDbRotatedDimension
1001
ACAD
1000
DSTYLE
1002
{
1070
   174
1070
     0
1070
   272
1070
     1
1070
   341
1005
0
1002
}
  0
LWPOLYLINE
  5
1647A
330
747D
100
AcDbEntity
  8
部品1
 48
50.0
100
AcDbPolyline
 90
        4
 70
     1
 43
0.0
 10
3705.9543979289
 20
3334.362805903256
 10
3708.854397928901
 20
3334.362805903256
 10
3708.854397928901
 20
3343.862805903256
 10
3705.9543979289
 20
3343.862805903256
  0
CIRCLE
  5
1647B
330
747D
100
AcDbEntity
  8
部品1
 48
50.0
100
AcDbCircle
 10
3707.4043979289
 20
3339.112805903256
 30
0.0
 40
9.0
  0
ARC
  5
1647C
330
747D
100
AcDbEntity
  8
細線
 48
50.0
100
AcDbCircle
 10
3707.4043979289
 20
3339.112805903256
 30
0.0
 40
4.0
100
AcDbArc
 50
111.2538091853375
 51
248.7461908146625
  0
ARC
  5
1647D
330
747D
100
AcDbEntity
  8
細線
 48
50.0
100
AcDbCircle
 10
3707.4043979289
 20
3339.112805903256
 30
0.0
 40
17.5
100
AcDbArc
 50
306.4837370612677
 51
233.5162629387323
  0
LINE
  5
1647E
330
747D
100
AcDbEntity
  8
細線
 48
50.0
100
AcDbLine
 10
3717.404397928896
 20
3315.253845322374
 30
0.0
 11
3717.404397928901
 21
3324.238331122615
 31
0.0
  0
LINE
  5
1647F
330
747D
100
AcDbEntity
  8
細線
 48
50.0
100
AcDbLine
 10
3697.4043979289
 20
3315.253845322376
 30
0.0
 11
3697.4043979289
 21
3324.238331122611
 31
0.0
  0
ARC
  5
16480
330
747D
100
AcDbEntity
  8
細線
 48
50.0
100
AcDbCircle
 10
3707.4043979289
 20
3339.112805903256
 30
0.0
 40
26.5
100
AcDbArc
 50
249.3326835063939
 51
290.6673164933835
  0
ARC
  5
16481
330
747D
100
AcDbEntity
  8
細線
 48
50.0
100
AcDbCircle
 10
3716.404397928893
 20
3315.253845322374
 30
0.0
 40
1.0
100
AcDbArc
 50
290.6673164936062
 51
359.9999999998958
  0
ARC
  5
16482
330
747D
100
AcDbEntity
  8
細線
 48
50.0
100
AcDbCircle
 10
3698.4043979289
 20
3315.253845322376
 30
0.0
 40
1.0
100
AcDbArc
 50
180.0
 51
249.3326835066164
  0
ARC
  5
16483
330
747D
100
AcDbEntity
  8
細線
 48
50.0
100
AcDbCircle
 10
3696.4043979289
 20
3324.238331122611
 30
0.0
 40
1.0
100
AcDbArc
 50
0.0
 51
53.51626293873231
  0
ARC
  5
16484
330
747D
100
AcDbEntity
  8
細線
 48
50.0
100
AcDbCircle
 10
3718.404397928904
 20
3324.238331122615
 30
0.0
 40
1.0
100
AcDbArc
 50
126.4837370614917
 51
180.0
  0
ARC
  5
16485
330
747D
100
AcDbEntity
  8
細線
 48
50.0
100
AcDbCircle
 10
3707.4043979289
 20
3339.112805903256
 30
0.0
 40
21.5
100
AcDbArc
 50
255.8014401250294
 51
284.1985598749706
  0
ARC
  5
16486
330
747D
100
AcDbEntity
  8
細線
 48
50.0
100
AcDbCircle
 10
3707.4043979289
 20
3339.112805903256
 30
0.0
 40
16.5
100
AcDbArc
 50
251.9694646069326
 51
288.0305353930674
  0
LINE
  5
16487
330
747D
100
AcDbEntity
  8
細線
 48
50.0
100
AcDbLine
 10
3712.9043979289
 20
3318.560433777449
 30
0.0
 11
3712.9043979289
 21
3323.137825464787
 31
0.0
  0
LINE
  5
16488
330
747D
100
AcDbEntity
  8
細線
 48
50.0
100
AcDbLine
 10
3701.9043979289
 20
3318.560433777449
 30
0.0
 11
3701.9043979289
 21
3323.137825464784
 31
0.0
  0
ARC
  5
16489
330
747D
100
AcDbEntity
  8
細線
 48
50.0
100
AcDbCircle
 10
3702.204397928903
 20
3323.137825464784
 30
0.0
 40
0.3
100
AcDbArc
 50
71.96946460693259
 51
180.0
  0
ARC
  5
1648A
330
747D
100
AcDbEntity
  8
細線
 48
50.0
100
AcDbCircle
 10
3712.604397928901
 20
3323.137825464787
 30
0.0
 40
0.3
100
AcDbArc
 50
0.0
 51
108.0305353930674
  0
ARC
  5
1648B
330
747D
100
AcDbEntity
  8
細線
 48
50.0
100
AcDbCircle
 10
3712.604397928898
 20
3318.560433777449
 30
0.0
 40
0.3
100
AcDbArc
 50
284.1985598747622
 51
0.0000000001042204
  0
ARC
  5
1648C
330
747D
100
AcDbEntity
  8
細線
 48
50.0
100
AcDbCircle
 10
3702.204397928903
 20
3318.560433777449
 30
0.0
 40
0.3
100
AcDbArc
 50
180.0
 51
255.8014401248081
  0
CIRCLE
  5
1648D
330
747D
100
AcDbEntity
  8
細線
 48
50.0
100
AcDbCircle
 10
3707.4043979289
 20
3339.112805903256
 30
0.0
 40
12.0
  0
ARC
  5
1648E
330
747D
100
AcDbEntity
  8
部品1
 48
50.0
100
AcDbCircle
 10
3707.4043979289
 20
3389.112805903256
 30
0.0
 40
8.5
100
AcDbArc
 50
114.315739171091
 51
245.684260828909
  0
CIRCLE
  5
1648F
330
747D
100
AcDbEntity
  8
細線
 48
50.0
100
AcDbCircle
 10
3707.4043979289
 20
3389.112805903256
 30
0.0
 40
4.5
  0
LWPOLYLINE
  5
16490
330
747D
100
AcDbEntity
  8
部品1
 48
50.0
100
AcDbPolyline
 90
        2
 70
     0
 43
0.0
 10
3703.9043979289
 20
3407.787655300239
 10
3703.9043979289
 20
3396.858772595672
  0
CIRCLE
  5
16491
330
747D
100
AcDbEntity
  8
部品1
 48
50.0
100
AcDbCircle
 10
3707.4043979289
 20
3389.112805903256
 30
0.0
 40
19.0
  0
LWPOLYLINE
  5
16492
330
747D
100
AcDbEntity
  8
部品1
 48
50.0
100
AcDbPolyline
 90
        2
 70
     0
 43
0.0
 10
3703.9043979289
 20
3381.366839210841
 10
3703.9043979289
 20
3370.437956506274
  0
LWPOLYLINE
  5
16493
330
747D
100
AcDbEntity
  8
部品1
 48
50.0
100
AcDbPolyline
 90
        2
 70
     0
 43
0.0
 10
3710.9043979289
 20
3396.858772595672
 10
3710.9043979289
 20
3407.787655300239
  0
ARC
  5
16494
330
747D
100
AcDbEntity
  8
部品1
 48
50.0
100
AcDbCircle
 10
3707.4043979289
 20
3389.112805903256
 30
0.0
 40
8.5
100
AcDbArc
 50
294.315739171091
 51
65.68426082890896
  0
LWPOLYLINE
  5
16495
330
747D
100
AcDbEntity
  8
部品1
 48
50.0
100
AcDbPolyline
 90
        2
 70
     0
 43
0.0
 10
3710.9043979289
 20
3370.437956506274
 10
3710.9043979289
 20
3381.366839210841
  0
ARC
  5
16496
330
747D
100
AcDbEntity
  8
細線
 48
50.0
100
AcDbCircle
 10
3707.4043979289
 20
3389.112805903256
 30
0.0
 40
16.5
100
AcDbArc
 50
332.0012352654316
 51
27.99876473456844
  0
ARC
  5
16497
330
747D
100
AcDbEntity
  8
細線
 48
50.0
100
AcDbCircle
 10
3707.4043979289
 20
3389.112805903256
 30
0.0
 40
14.0
100
AcDbArc
 50
326.4074436112843
 51
33.59255638871576
  0
LINE
  5
16498
330
747D
100
AcDbEntity
  8
細線
 48
50.0
100
AcDbLine
 10
3692.835595644569
 20
3396.858772595672
 30
0.0
 11
3695.742494139211
 21
3396.858772595672
 31
0.0
  0
LINE
  5
16499
330
747D
100
AcDbEntity
  8
細線
 48
50.0
100
AcDbLine
 10
3692.835595644569
 20
3381.366839210841
 30
0.0
 11
3695.742494139211
 21
3381.366839210841
 31
0.0
  0
LINE
  5
1649A
330
747D
100
AcDbEntity
  8
細線
 48
50.0
100
AcDbLine
 10
3719.066301718589
 20
3396.858772595672
 30
0.0
 11
3721.973200213235
 21
3396.858772595672
 31
0.0
  0
LINE
  5
1649B
330
747D
100
AcDbEntity
  8
細線
 48
50.0
100
AcDbLine
 10
3719.066301718589
 20
3381.366839210841
 30
0.0
 11
3721.973200213235
 21
3381.366839210841
 31
0.0
  0
ARC
  5
1649C
330
747D
100
AcDbEntity
  8
細線
 48
50.0
100
AcDbCircle
 10
3707.4043979289
 20
3389.112805903256
 30
0.0
 40
14.0
100
AcDbArc
 50
146.4074436112842
 51
213.5925563887158
  0
ARC
  5
1649D
330
747D
100
AcDbEntity
  8
細線
 48
50.0
100
AcDbCircle
 10
3707.4043979289
 20
3389.112805903256
 30
0.0
 40
16.5
100
AcDbArc
 50
152.0012352654315
 51
207.9987647345685
  0
ARC
  5
1649E
330
747D
100
AcDbEntity
  8
部品1
 48
50.0
100
AcDbCircle
 10
3680.9043979289
 20
3414.612805903256
 30
0.0
 40
5.0
100
AcDbArc
 50
90.0
 51
180.0
  0
ARC
  5
1649F
330
747D
100
AcDbEntity
  8
部品1
 48
50.0
100
AcDbCircle
 10
3680.9043979289
 20
3303.612805903256
 30
0.0
 40
5.0
100
AcDbArc
 50
180.0
 51
270.0
  0
ARC
  5
164A0
330
747D
100
AcDbEntity
  8
部品1
 48
50.0
100
AcDbCircle
 10
3733.9043979289
 20
3303.612805903256
 30
0.0
 40
5.0
100
AcDbArc
 50
270.0
 51
0.0
  0
ARC
  5
164A1
330
747D
100
AcDbEntity
  8
部品1
 48
50.0
100
AcDbCircle
 10
3733.9043979289
 20
3414.612805903256
 30
0.0
 40
5.0
100
AcDbArc
 50
0.0
 51
90.0
  0
LINE
  5
164A2
330
747D
100
AcDbEntity
  8
部品1
 48
50.0
100
AcDbLine
 10
3675.9043979289
 20
3303.612805903256
 30
0.0
 11
3675.9043979289
 21
3414.612805903256
 31
0.0
  0
LINE
  5
164A3
330
747D
100
AcDbEntity
  8
部品1
 48
50.0
100
AcDbLine
 10
3733.9043979289
 20
3298.612805903257
 30
0.0
 11
3680.9043979289
 21
3298.612805903257
 31
0.0
  0
LINE
  5
164A4
330
747D
100
AcDbEntity
  8
部品1
 48
50.0
100
AcDbLine
 10
3738.9043979289
 20
3414.612805903256
 30
0.0
 11
3738.9043979289
 21
3303.612805903256
 31
0.0
  0
ENDSEC
  0
SECTION
  2
OBJECTS
  0
DICTIONARY
  5
7471
330
0
100
AcDbDictionary
281
     1
  3
ACAD_COLOR
350
13471
  3
ACAD_GROUP
350
7472
  3
ACAD_LAYOUT
350
13472
  3
ACAD_MATERIAL
350
13470
  3
ACAD_MLINESTYLE
350
7473
  3
ACAD_PLOTSETTINGS
350
13473
  3
ACAD_PLOTSTYLENAME
350
1346E
  3
ACDBHEADERROUNDTRIPXREC
350
164B4
  3
AcDbVariableDictionary
350
164B0
  3
CONTENTDICTIONARY
350
E71C
  3
DRAWINGVARIABLESDICT
350
F3B9
  0
DICTIONARY
  5
13537
330
7467
100
AcDbDictionary
280
     1
281
     1
  3
ACAD_LAYERSTATES
360
13538
  0
DICTIONARY
  5
13471
102
{ACAD_REACTORS
330
7471
102
}
330
7471
100
AcDbDictionary
281
     1
  0
DICTIONARY
  5
7472
102
{ACAD_REACTORS
330
7471
102
}
330
7471
100
AcDbDictionary
281
     1
  0
DICTIONARY
  5
13472
102
{ACAD_REACTORS
330
7471
102
}
330
7471
100
AcDbDictionary
281
     1
  3
Model
350
13474
  3
レイアウト1
350
13475
  0
DICTIONARY
  5
13470
102
{ACAD_REACTORS
330
7471
102
}
330
7471
100
AcDbDictionary
281
     1
  0
DICTIONARY
  5
7473
102
{ACAD_REACTORS
330
7471
102
}
330
7471
100
AcDbDictionary
281
     1
  3
STANDARD
350
7480
  0
DICTIONARY
  5
13473
102
{ACAD_REACTORS
330
7471
102
}
330
7471
100
AcDbDictionary
281
     1
  0
ACDBDICTIONARYWDFLT
  5
1346E
102
{ACAD_REACTORS
330
7471
102
}
330
7471
100
AcDbDictionary
281
     1
  3
Normal
350
1346F
100
AcDbDictionaryWithDefault
340
1346F
  0
DICTIONARY
  5
164B4
102
{ACAD_REACTORS
330
7471
102
}
330
7471
100
AcDbDictionary
281
     1
  3
COLORDICT
350
164B6
  3
MATERIALDICT
350
164B5
  0
DICTIONARY
  5
164B0
102
{ACAD_REACTORS
330
7471
102
}
330
7471
100
AcDbDictionary
281
     1
  3
DIMASSOC
350
164B1
  3
PROJECTNAME
350
164B2
  0
DICTIONARY
  5
E71C
102
{ACAD_REACTORS
330
7471
102
}
330
7471
100
AcDbDictionary
281
     1
  0
DICTIONARY
  5
F3B9
102
{ACAD_REACTORS
330
7471
102
}
330
7471
100
AcDbDictionary
281
     1
1001
DRAWINGVARIABLESXDATA
1000
POLARMODE
1000
1
  0
DICTIONARY
  5
13538
102
{ACAD_REACTORS
330
13537
102
}
330
13537
100
AcDbDictionary
281
     1
  0
LAYOUT
  5
13474
102
{ACAD_XDICTIONARY
360
164B7
102
}
102
{ACAD_REACTORS
330
13472
102
}
330
13472
100
AcDbPlotSettings
  1

  2
EPSON LP-8300
  4

  6

 40
0.0
 41
0.0
 42
0.0
 43
0.0
 44
0.0
 45
0.0
 46
0.0
 47
0.0
 48
0.0
 49
0.0
140
0.0
141
0.0
142
1.0
143
1.0
 70
  1712
 72
     0
 73
     0
 74
     0
  7
inaba.ctb
 75
     0
147
1.0
148
0.0
149
0.0
100
AcDbLayout
  1
Model
 70
     1
 71
     0
 10
0.0
 20
0.0
 11
12.0
 21
9.0
 12
0.0
 22
0.0
 32
0.0
 14
0.0
 24
0.0
 34
0.0
 15
0.0
 25
0.0
 35
0.0
146
0.0
 13
0.0
 23
0.0
 33
0.0
 16
1.0
 26
0.0
 36
0.0
 17
0.0
 27
1.0
 37
0.0
 76
     0
330
747D
  0
LAYOUT
  5
13475
102
{ACAD_XDICTIONARY
360
164B9
102
}
102
{ACAD_REACTORS
330
13472
102
}
330
13472
100
AcDbPlotSettings
  1

  2
EPSON LP-8300
  4

  6

 40
0.0
 41
0.0
 42
0.0
 43
0.0
 44
0.0
 45
0.0
 46
0.0
 47
0.0
 48
0.0
 49
0.0
140
0.0
141
0.0
142
1.0
143
1.0
 70
   688
 72
     0
 73
     0
 74
     5
  7
inaba.ctb
 75
    16
147
1.0
148
0.0
149
0.0
100
AcDbLayout
  1
レイアウト1
 70
     0
 71
     1
 10
0.0
 20
0.0
 11
420.0
 21
297.0
 12
0.0
 22
0.0
 32
0.0
 14
1.000000000000000E+20
 24
1.000000000000000E+20
 34
1.000000000000000E+20
 15
-1.000000000000000E+20
 25
-1.000000000000000E+20
 35
-1.000000000000000E+20
146
0.0
 13
0.0
 23
0.0
 33
0.0
 16
1.0
 26
0.0
 36
0.0
 17
0.0
 27
1.0
 37
0.0
 76
     0
330
747A
  0
MLINESTYLE
  5
7480
102
{ACAD_REACTORS
330
7473
102
}
330
7473
100
AcDbMlineStyle
  2
STANDARD
 70
     0
  3

 62
     0
 51
90.0
 52
90.0
 71
     2
 49
0.5
 62
   256
  6
BYLAYER
 49
-0.5
 62
   256
  6
BYLAYER
  0
ACDBPLACEHOLDER
  5
1346F
102
{ACAD_REACTORS
330
1346E
102
}
330
1346E
  0
XRECORD
  5
164B6
102
{ACAD_REACTORS
330
164B4
102
}
330
164B4
100
AcDbXrecord
280
     1
340
13471
  0
XRECORD
  5
164B5
102
{ACAD_REACTORS
330
164B4
102
}
330
164B4
100
AcDbXrecord
280
     1
340
13470
  0
DICTIONARYVAR
  5
164B1
102
{ACAD_REACTORS
330
164B0
102
}
330
164B0
100
DictionaryVariables
280
     0
  1
1
  0
DICTIONARYVAR
  5
164B2
102
{ACAD_REACTORS
330
164B0
102
}
330
164B0
100
DictionaryVariables
280
     0
  1

  0
DICTIONARY
  5
164B7
330
13474
100
AcDbDictionary
280
     1
281
     1
  3
ACAD_XREC_ROUNDTRIP
360
164B8
  0
DICTIONARY
  5
164B9
330
13475
100
AcDbDictionary
280
     1
281
     1
  3
ACAD_XREC_ROUNDTRIP
360
164BA
  0
XRECORD
  5
164B8
102
{ACAD_REACTORS
330
164B7
102
}
330
164B7
100
AcDbXrecord
280
     1
102
SHADEPLOT
 70
     0
102
SHADEPLOTRESLEVEL
 70
     2
102
SHADEPLOTCUSTOMDPI
 70
   300
  0
XRECORD
  5
164BA
102
{ACAD_REACTORS
330
164B9
102
}
330
164B9
100
AcDbXrecord
280
     1
102
SHADEPLOT
 70
     0
102
SHADEPLOTRESLEVEL
 70
     2
102
SHADEPLOTCUSTOMDPI
 70
   300
  0
ENDSEC
  0
EOF
