  0
SECTION
  2
HEADER
  9
$ACADVER
  1
AC1015
  9
$ACADMAINTVER
 70
    20
  9
$DWGCODEPAGE
  3
ANSI_932
  9
$INSBASE
 10
0.0
 20
0.0
 30
0.0
  9
$EXTMIN
 10
139.9999999999995
 20
-0.0000000000000909
 30
0.0
  9
$EXTMAX
 10
16307.2
 20
11409.6
 30
0.0
  9
$LIMMIN
 10
0.0
 20
0.0
  9
$LIMMAX
 10
16800.0
 20
11880.0
  9
$ORTHOMODE
 70
     0
  9
$REGENMODE
 70
     1
  9
$FILLMODE
 70
     1
  9
$QTEXTMODE
 70
     0
  9
$MIRRTEXT
 70
     1
  9
$LTSCALE
 40
20.0
  9
$ATTMODE
 70
     1
  9
$TEXTSIZE
 40
100.0
  9
$TRACEWID
 40
1.0
  9
$TEXTSTYLE
  7
STYLE3
  9
$CLAYER
  8
部品1
  9
$CELTYPE
  6
BYLAYER
  9
$CECOLOR
 62
   256
  9
$CELTSCALE
 40
50.0
  9
$DISPSILH
 70
     0
  9
$DIMSCALE
 40
40.0
  9
$DIMASZ
 40
0.5
  9
$DIMEXO
 40
0.5
  9
$DIMDLI
 40
7.0
  9
$DIMRND
 40
0.0
  9
$DIMDLE
 40
0.0
  9
$DIMEXE
 40
1.0
  9
$DIMTP
 40
0.0
  9
$DIMTM
 40
0.0
  9
$DIMTXT
 40
3.0
  9
$DIMCEN
 40
0.0
  9
$DIMTSZ
 40
0.0
  9
$DIMTOL
 70
     0
  9
$DIMLIM
 70
     0
  9
$DIMTIH
 70
     0
  9
$DIMTOH
 70
     0
  9
$DIMSE1
 70
     0
  9
$DIMSE2
 70
     0
  9
$DIMTAD
 70
     3
  9
$DIMZIN
 70
     8
  9
$DIMBLK
  1

  9
$DIMASO
 70
     1
  9
$DIMSHO
 70
     1
  9
$DIMPOST
  1

  9
$DIMAPOST
  1

  9
$DIMALT
 70
     0
  9
$DIMALTD
 70
     2
  9
$DIMALTF
 40
0.0394
  9
$DIMLFAC
 40
1.0
  9
$DIMTOFL
 70
     1
  9
$DIMTVP
 40
0.0
  9
$DIMTIX
 70
     1
  9
$DIMSOXD
 70
     1
  9
$DIMSAH
 70
     1
  9
$DIMBLK1
  1
DOT
  9
$DIMBLK2
  1
DOT
  9
$DIMSTYLE
  2
INABA_S40
  9
$DIMCLRD
 70
     0
  9
$DIMCLRE
 70
     0
  9
$DIMCLRT
 70
     7
  9
$DIMTFAC
 40
1.0
  9
$DIMGAP
 40
0.8
  9
$DIMJUST
 70
     0
  9
$DIMSD1
 70
     0
  9
$DIMSD2
 70
     0
  9
$DIMTOLJ
 70
     1
  9
$DIMTZIN
 70
     0
  9
$DIMALTZ
 70
     0
  9
$DIMALTTZ
 70
     0
  9
$DIMUPT
 70
     0
  9
$DIMDEC
 70
     2
  9
$DIMTDEC
 70
     2
  9
$DIMALTU
 70
     2
  9
$DIMALTTD
 70
     2
  9
$DIMTXSTY
  7
STYLE1
  9
$DIMAUNIT
 70
     0
  9
$DIMADEC
 70
     0
  9
$DIMALTRND
 40
0.0
  9
$DIMAZIN
 70
     0
  9
$DIMDSEP
 70
    46
  9
$DIMATFIT
 70
     3
  9
$DIMFRAC
 70
     0
  9
$DIMLDRBLK
  1

  9
$DIMLUNIT
 70
     2
  9
$DIMLWD
 70
    -2
  9
$DIMLWE
 70
    -2
  9
$DIMTMOVE
 70
     0
  9
$LUNITS
 70
     2
  9
$LUPREC
 70
     1
  9
$SKETCHINC
 40
1.0
  9
$FILLETRAD
 40
5.0
  9
$AUNITS
 70
     0
  9
$AUPREC
 70
     0
  9
$MENU
  1
acad
  9
$ELEVATION
 40
0.0
  9
$PELEVATION
 40
0.0
  9
$THICKNESS
 40
0.0
  9
$LIMCHECK
 70
     0
  9
$CHAMFERA
 40
0.0
  9
$CHAMFERB
 40
0.0
  9
$CHAMFERC
 40
0.0
  9
$CHAMFERD
 40
0.0
  9
$SKPOLY
 70
     0
  9
$TDCREATE
 40
2451590.492424190
  9
$TDUCREATE
 40
2451590.117424190
  9
$TDUPDATE
 40
2455575.700918148
  9
$TDUUPDATE
 40
2455575.325918148
  9
$TDINDWG
 40
0.1553471875
  9
$TDUSRTIMER
 40
0.1553471875
  9
$USRTIMER
 70
     1
  9
$ANGBASE
 50
0.0
  9
$ANGDIR
 70
     0
  9
$PDMODE
 70
     3
  9
$PDSIZE
 40
2.0
  9
$PLINEWID
 40
0.0
  9
$SPLFRAME
 70
     0
  9
$SPLINETYPE
 70
     6
  9
$SPLINESEGS
 70
     8
  9
$HANDSEED
  5
16761
  9
$SURFTAB1
 70
     6
  9
$SURFTAB2
 70
     6
  9
$SURFTYPE
 70
     6
  9
$SURFU
 70
     6
  9
$SURFV
 70
     6
  9
$UCSBASE
  2

  9
$UCSNAME
  2

  9
$UCSORG
 10
0.0
 20
0.0
 30
0.0
  9
$UCSXDIR
 10
1.0
 20
0.0
 30
0.0
  9
$UCSYDIR
 10
0.0
 20
1.0
 30
0.0
  9
$UCSORTHOREF
  2

  9
$UCSORTHOVIEW
 70
     0
  9
$UCSORGTOP
 10
0.0
 20
0.0
 30
0.0
  9
$UCSORGBOTTOM
 10
0.0
 20
0.0
 30
0.0
  9
$UCSORGLEFT
 10
0.0
 20
0.0
 30
0.0
  9
$UCSORGRIGHT
 10
0.0
 20
0.0
 30
0.0
  9
$UCSORGFRONT
 10
0.0
 20
0.0
 30
0.0
  9
$UCSORGBACK
 10
0.0
 20
0.0
 30
0.0
  9
$PUCSBASE
  2

  9
$PUCSNAME
  2

  9
$PUCSORG
 10
0.0
 20
0.0
 30
0.0
  9
$PUCSXDIR
 10
1.0
 20
0.0
 30
0.0
  9
$PUCSYDIR
 10
0.0
 20
1.0
 30
0.0
  9
$PUCSORTHOREF
  2

  9
$PUCSORTHOVIEW
 70
     0
  9
$PUCSORGTOP
 10
0.0
 20
0.0
 30
0.0
  9
$PUCSORGBOTTOM
 10
0.0
 20
0.0
 30
0.0
  9
$PUCSORGLEFT
 10
0.0
 20
0.0
 30
0.0
  9
$PUCSORGRIGHT
 10
0.0
 20
0.0
 30
0.0
  9
$PUCSORGFRONT
 10
0.0
 20
0.0
 30
0.0
  9
$PUCSORGBACK
 10
0.0
 20
0.0
 30
0.0
  9
$USERI1
 70
     0
  9
$USERI2
 70
     0
  9
$USERI3
 70
     0
  9
$USERI4
 70
     0
  9
$USERI5
 70
     0
  9
$USERR1
 40
0.0
  9
$USERR2
 40
0.0
  9
$USERR3
 40
0.0
  9
$USERR4
 40
0.0
  9
$USERR5
 40
0.0
  9
$WORLDVIEW
 70
     1
  9
$SHADEDGE
 70
     3
  9
$SHADEDIF
 70
    70
  9
$TILEMODE
 70
     1
  9
$MAXACTVP
 70
    16
  9
$PINSBASE
 10
0.0
 20
0.0
 30
0.0
  9
$PLIMCHECK
 70
     0
  9
$PEXTMIN
 10
1.000000000000000E+20
 20
1.000000000000000E+20
 30
1.000000000000000E+20
  9
$PEXTMAX
 10
-1.000000000000000E+20
 20
-1.000000000000000E+20
 30
-1.000000000000000E+20
  9
$PLIMMIN
 10
0.0
 20
0.0
  9
$PLIMMAX
 10
420.0
 20
297.0
  9
$UNITMODE
 70
     0
  9
$VISRETAIN
 70
     0
  9
$PLINEGEN
 70
     0
  9
$PSLTSCALE
 70
     0
  9
$TREEDEPTH
 70
  3020
  9
$CMLSTYLE
  2
STANDARD
  9
$CMLJUST
 70
     0
  9
$CMLSCALE
 40
1.0
  9
$PROXYGRAPHICS
 70
     1
  9
$MEASUREMENT
 70
     1
  9
$CELWEIGHT
370
    -1
  9
$ENDCAPS
280
     0
  9
$JOINSTYLE
280
     0
  9
$LWDISPLAY
290
     0
  9
$INSUNITS
 70
     0
  9
$HYPERLINKBASE
  1

  9
$STYLESHEET
  1

  9
$XEDIT
290
     1
  9
$CEPSNTYPE
380
     0
  9
$PSTYLEMODE
290
     1
  9
$FINGERPRINTGUID
  2
{BF5BBDF6-4FC6-42CA-BC7E-242CE9681EA5}
  9
$VERSIONGUID
  2
{BBE76194-F77F-41F5-8D87-7914754AB073}
  9
$EXTNAMES
290
     1
  9
$PSVPSCALE
 40
0.0
  9
$OLESTARTUP
290
     0
  0
ENDSEC
  0
SECTION
  2
CLASSES
  0
CLASS
  1
ACDBDICTIONARYWDFLT
  2
AcDbDictionaryWithDefault
  3
ObjectDBX Classes
 90
        0
280
     0
281
     0
  0
CLASS
  1
DICTIONARYVAR
  2
AcDbDictionaryVar
  3
ObjectDBX Classes
 90
        0
280
     0
281
     0
  0
CLASS
  1
ACDBPLACEHOLDER
  2
AcDbPlaceHolder
  3
ObjectDBX Classes
 90
        0
280
     0
281
     0
  0
CLASS
  1
LAYOUT
  2
AcDbLayout
  3
ObjectDBX Classes
 90
        0
280
     0
281
     0
  0
ENDSEC
  0
SECTION
  2
TABLES
  0
TABLE
  2
VPORT
  5
746D
330
0
100
AcDbSymbolTable
 70
     2
  0
VPORT
  5
16759
330
746D
100
AcDbSymbolTableRecord
100
AcDbViewportTableRecord
  2
*Active
 70
     0
 10
0.0
 20
0.0
 11
1.0
 21
1.0
 12
8223.761025238502
 22
6348.450019463587
 13
0.0
 23
0.0
 14
10.0
 24
10.0
 15
10.0
 25
10.0
 16
0.0
 26
0.0
 36
1.0
 17
0.0
 27
0.0
 37
0.0
 40
12806.19294782812
 41
1.525925925925925
 42
50.0
 43
0.0
 44
0.0
 50
0.0
 51
0.0
 71
     0
 72
     0
 73
     1
 74
     0
 75
     0
 76
     0
 77
     0
 78
     0
281
     0
 65
     1
110
0.0
120
0.0
130
0.0
111
1.0
121
0.0
131
0.0
112
0.0
122
1.0
132
0.0
 79
     0
146
0.0
  0
ENDTAB
  0
TABLE
  2
LTYPE
  5
746A
330
0
100
AcDbSymbolTable
 70
     4
  0
LTYPE
  5
7477
330
746A
100
AcDbSymbolTableRecord
100
AcDbLinetypeTableRecord
  2
BYBLOCK
 70
     0
  3

 72
    65
 73
     0
 40
0.0
  0
LTYPE
  5
7478
330
746A
100
AcDbSymbolTableRecord
100
AcDbLinetypeTableRecord
  2
BYLAYER
 70
     0
  3

 72
    65
 73
     0
 40
0.0
  0
LTYPE
  5
7479
330
746A
100
AcDbSymbolTableRecord
100
AcDbLinetypeTableRecord
  2
CONTINUOUS
 70
     0
  3
Solid line
 72
    65
 73
     0
 40
0.0
  0
LTYPE
  5
7816
330
746A
100
AcDbSymbolTableRecord
100
AcDbLinetypeTableRecord
  2
CENTER
 70
     0
  3
____ _ ____ _ ____ _ ____ _ ____ _ ____ _ ____ 
 72
    65
 73
     4
 40
2.0
 49
1.25
 74
     0
 49
-0.25
 74
     0
 49
0.25
 74
     0
 49
-0.25
 74
     0
  0
LTYPE
  5
781A
330
746A
100
AcDbSymbolTableRecord
100
AcDbLinetypeTableRecord
  2
HIDDEN
 70
     0
  3
__ __ __ __ __ __ __ __ __ __ __ __ __ __ __ __
 72
    65
 73
     2
 40
0.375
 49
0.25
 74
     0
 49
-0.125
 74
     0
  0
LTYPE
  5
781B
330
746A
100
AcDbSymbolTableRecord
100
AcDbLinetypeTableRecord
  2
PHANTOM
 70
     0
  3
______  __  __  ______  __  __  ______  __  __ 
 72
    65
 73
     6
 40
2.5
 49
1.25
 74
     0
 49
-0.25
 74
     0
 49
0.25
 74
     0
 49
-0.25
 74
     0
 49
0.25
 74
     0
 49
-0.25
 74
     0
  0
ENDTAB
  0
TABLE
  2
LAYER
  5
7467
102
{ACAD_XDICTIONARY
360
132E2
102
}
330
0
100
AcDbSymbolTable
 70
    12
  0
LAYER
  5
7474
330
7467
100
AcDbSymbolTableRecord
100
AcDbLayerTableRecord
  2
0
 70
     0
 62
     7
  6
CONTINUOUS
370
    -3
390
13164
  0
LAYER
  5
DEB2
330
7467
100
AcDbSymbolTableRecord
100
AcDbLayerTableRecord
  2
センター
 70
     0
 62
     3
  6
CENTER
370
    -3
390
13164
  0
LAYER
  5
DEB3
330
7467
100
AcDbSymbolTableRecord
100
AcDbLayerTableRecord
  2
寸法
 70
     0
 62
     4
  6
CONTINUOUS
370
    -3
390
13164
  0
LAYER
  5
DEB4
330
7467
100
AcDbSymbolTableRecord
100
AcDbLayerTableRecord
  2
部品1
 70
     0
 62
     7
  6
CONTINUOUS
370
    -3
390
13164
  0
LAYER
  5
DEB5
330
7467
100
AcDbSymbolTableRecord
100
AcDbLayerTableRecord
  2
補助
 70
     0
 62
    -1
  6
CONTINUOUS
370
    -3
390
13164
  0
LAYER
  5
DEB6
330
7467
100
AcDbSymbolTableRecord
100
AcDbLayerTableRecord
  2
文字
 70
     0
 62
     7
  6
CONTINUOUS
370
    -3
390
13164
  0
LAYER
  5
F255
330
7467
100
AcDbSymbolTableRecord
100
AcDbLayerTableRecord
  2
DEFPOINTS
 70
     0
 62
     7
  6
CONTINUOUS
290
     0
370
    -3
390
13164
  0
LAYER
  5
10B54
330
7467
100
AcDbSymbolTableRecord
100
AcDbLayerTableRecord
  2
仕様書枠
 70
     0
 62
   230
  6
CONTINUOUS
370
    -3
390
13164
  0
LAYER
  5
11729
330
7467
100
AcDbSymbolTableRecord
100
AcDbLayerTableRecord
  2
Ｇ．Ｌ
 70
     0
 62
    30
  6
CONTINUOUS
370
    -3
390
13164
  0
LAYER
  5
1173F
330
7467
100
AcDbSymbolTableRecord
100
AcDbLayerTableRecord
  2
細線
 70
     0
 62
     5
  6
CONTINUOUS
370
    -3
390
13164
  0
LAYER
  5
11740
330
7467
100
AcDbSymbolTableRecord
100
AcDbLayerTableRecord
  2
点線
 70
     0
 62
     2
  6
HIDDEN
370
    -3
390
13164
  0
LAYER
  5
11905
330
7467
100
AcDbSymbolTableRecord
100
AcDbLayerTableRecord
  2
破線
 70
     0
 62
     2
  6
HIDDEN
370
    -3
390
13164
  0
ENDTAB
  0
TABLE
  2
STYLE
  5
7468
330
0
100
AcDbSymbolTable
 70
     7
  0
STYLE
  5
7475
330
7468
100
AcDbSymbolTableRecord
100
AcDbTextStyleTableRecord
  2
STANDARD
 70
     0
 40
0.0
 41
1.0
 50
0.0
 71
     0
 42
4.0
  3
txt
  4
C:\AutoCAD LT\bigfont.shx
  0
STYLE
  5
763C
330
7468
100
AcDbSymbolTableRecord
100
AcDbTextStyleTableRecord
  2
MSMINCHO
 70
     0
 40
0.0
 41
1.0
 50
0.0
 71
     0
 42
1.199999999999999
  3
C:\AutoCAD LT\msminch2.TTF
  4

  0
STYLE
  5
F5E9
330
7468
100
AcDbSymbolTableRecord
100
AcDbTextStyleTableRecord
  2

 70
     1
 40
0.0
 41
1.0
 50
0.0
 71
     0
 42
4.0
  3
ltypeshp.shx
  4

  0
STYLE
  5
F706
330
7468
100
AcDbSymbolTableRecord
100
AcDbTextStyleTableRecord
  2
STYLE1
 70
     0
 40
0.0
 41
1.0
 50
0.0
 71
     0
 42
4.0
  3
isocp.shx
  4
bigfont.shx
  0
STYLE
  5
103BF
330
7468
100
AcDbSymbolTableRecord
100
AcDbTextStyleTableRecord
  2
STYLE2
 70
     0
 40
0.0
 41
1.0
 50
0.0
 71
     0
 42
100.0
  3
MS PGothic.ttf
  4

1001
ACAD
1000
MS PGothic
1071
    32818
  0
STYLE
  5
10BAA
330
7468
100
AcDbSymbolTableRecord
100
AcDbTextStyleTableRecord
  2
STYLE3
 70
     0
 40
0.0
 41
1.0
 50
0.0
 71
     0
 42
100.0
  3

  4

1001
ACAD
1000
DFPGothic-EB
1071
    32818
  0
STYLE
  5
11906
330
7468
100
AcDbSymbolTableRecord
100
AcDbTextStyleTableRecord
  2
MSGOTHIC
 70
     0
 40
0.0
 41
1.0
 50
0.0
 71
     0
 42
3.5
  3
msgothi2.ttf
  4

  0
ENDTAB
  0
TABLE
  2
VIEW
  5
746B
330
0
100
AcDbSymbolTable
 70
     0
  0
ENDTAB
  0
TABLE
  2
UCS
  5
746C
330
0
100
AcDbSymbolTable
 70
     0
  0
ENDTAB
  0
TABLE
  2
APPID
  5
746E
330
0
100
AcDbSymbolTable
 70
     6
  0
APPID
  5
7476
330
746E
100
AcDbSymbolTableRecord
100
AcDbRegAppTableRecord
  2
ACAD
 70
     0
  0
APPID
  5
DEA9
330
746E
100
AcDbSymbolTableRecord
100
AcDbRegAppTableRecord
  2
CONTENTBLOCKICON
 70
     0
  0
APPID
  5
DEAA
330
746E
100
AcDbSymbolTableRecord
100
AcDbRegAppTableRecord
  2
CONTENTBLOCKDESCRIPTION
 70
     0
  0
APPID
  5
E71D
330
746E
100
AcDbSymbolTableRecord
100
AcDbRegAppTableRecord
  2
CONTENTTABDATA
 70
     0
  0
APPID
  5
E71E
330
746E
100
AcDbSymbolTableRecord
100
AcDbRegAppTableRecord
  2
CONTENTCURRENTTAB
 70
     0
  0
APPID
  5
F3BA
330
746E
100
AcDbSymbolTableRecord
100
AcDbRegAppTableRecord
  2
DRAWINGVARIABLESXDATA
 70
     0
  0
ENDTAB
  0
TABLE
  2
DIMSTYLE
  5
746F
330
0
100
AcDbSymbolTable
 70
     6
100
AcDbDimStyleTable
 71
     1
340
F236
  0
DIMSTYLE
105
7484
330
746F
100
AcDbSymbolTableRecord
100
AcDbDimStyleTableRecord
  2
JIS
 70
     0
 41
2.5
 42
1.0
 43
7.0
 44
1.0
 73
     0
 74
     0
 77
     1
 78
     8
140
2.5
141
0.0
143
0.0394
147
0.0
172
     1
174
     1
175
     1
340
7475
  0
DIMSTYLE
105
F236
102
{ACAD_REACTORS
330
13631
330
13632
330
13633
330
13634
330
13635
330
13654
330
13655
330
13667
330
13697
330
136A1
330
1406B
330
15C46
330
15D42
330
15D67
102
}
330
746F
100
AcDbSymbolTableRecord
100
AcDbDimStyleTableRecord
  2
INABA_S40
 70
     0
 40
40.0
 41
2.5
 42
0.5
 43
7.0
 44
1.5
 73
     0
 74
     0
 77
     3
 78
     8
140
3.0
141
0.0
143
0.0394
147
1.0
172
     1
173
     1
174
     1
175
     1
178
     7
289
     0
340
7475
  0
DIMSTYLE
105
F71F
102
{ACAD_REACTORS
330
13E56
330
13E65
330
13E8C
330
13E8D
330
13E8E
330
13E94
330
13EC6
330
13EC7
330
13EC8
330
16184
330
16185
330
16186
330
16195
330
165B3
330
1660C
102
}
330
746F
100
AcDbSymbolTableRecord
100
AcDbDimStyleTableRecord
  2
INABA_S40G
 70
     0
 40
40.0
 41
2.5
 42
0.5
 43
7.0
 44
1.5
 73
     0
 74
     0
 77
     3
 78
     8
140
3.0
141
0.0
143
0.0394
147
1.0
172
     1
173
     1
174
     1
175
     1
178
     7
271
     1
340
F706
341
F770
343
F770
344
F770
  0
DIMSTYLE
105
11907
330
746F
100
AcDbSymbolTableRecord
100
AcDbDimStyleTableRecord
  2
INABA_S50
 70
     0
 40
50.0
 41
0.5
 42
0.5
 43
7.0
 44
1.0
 73
     0
 74
     0
 77
     3
 78
     8
140
2.5
141
0.0
143
0.0394
147
0.8
172
     1
173
     1
174
     1
175
     1
178
     7
271
     2
272
     2
289
     0
340
7475
341
F744
343
F744
344
F744
  0
DIMSTYLE
105
11908
330
746F
100
AcDbSymbolTableRecord
100
AcDbDimStyleTableRecord
  2
INABA_S50G
 70
     0
 41
125.0
 42
25.0
 43
7.0
 44
75.0
 73
     0
 74
     0
 77
     3
 78
     8
140
150.0
141
0.0
143
0.0394
147
25.0
172
     1
173
     1
174
     1
175
     1
178
     7
271
     1
340
F706
341
F770
343
F770
344
F770
  0
DIMSTYLE
105
166F0
330
746F
100
AcDbSymbolTableRecord
100
AcDbDimStyleTableRecord
  2
INABA_S20G
 70
     0
 40
20.0
 41
2.5
 42
0.5
 43
7.0
 44
1.5
 73
     0
 74
     0
 77
     3
 78
     8
140
3.0
141
0.0
143
0.0394
147
1.0
172
     1
173
     1
174
     1
178
     7
271
     1
340
F706
341
F770
343
F770
344
F770
  0
ENDTAB
  0
TABLE
  2
BLOCK_RECORD
  5
7466
330
0
100
AcDbSymbolTable
 70
    33
  0
BLOCK_RECORD
  5
747D
330
7466
100
AcDbSymbolTableRecord
100
AcDbBlockTableRecord
  2
*MODEL_SPACE
340
13169
  0
BLOCK_RECORD
  5
747A
330
7466
100
AcDbSymbolTableRecord
100
AcDbBlockTableRecord
  2
*PAPER_SPACE
340
1316A
  0
BLOCK_RECORD
  5
ECB3
330
7466
100
AcDbSymbolTableRecord
100
AcDbBlockTableRecord
  2
作図枠S50
340
0
310
2800000020000000200000000100040000000000000200000000000000000000000000000000000000000000000080000080000000808000800000008000800080800000C0C0C000808080000000FF0000FF000000FFFF00FF000000FF00FF00FFFF0000FFFFFF00FFFFFFFFFFFFFFFFFFFFFFFFFFFFFFFFFFFFFFFFFFFFFF
310
FFFFFFFFFFFFFFFFFFFFFFFFFFFFFFFFFFFFFFFFFFFFFFFFFFFFFFFFFFFFFFFFFFFFFFFFFFFFFFFFFFFFFFFFFFFFFFFFFFFFFFFFFFFFFFFFFFFFFFFFFFFFFFFFFFFFFFFFFFFFFFFFFF999999999999999999999999999999999FFFFFFFFFFFFFFFFFFFFFFFFFFFFFF99FFFFFFFFFFFFFFFFFFFFFFFFFFFFFF99FFFFFFFFFFF
310
FFFFFFFFFFFFFFFFFFF99FFFFFFFFFFFFFFFFFFFFFFFFFFFFFF99FFFFFFFFFFFFFFFFFFFFFFFFFFFFFF99FFFFFFFFFFFFFFFFFFFFFFFFFFFFFF99FFFFFFFFFFFFFFFFFFFFFFFFFFFFFF99FFFFFFFFFFFFFFFFFFFFFFFFFFFFFF99FFFFFFFFFFFFFFFFFFFFFFFFFFFFFF99FFFFFFFFFFFFFFFFFFFFFFFFFFFFFF99FFFFFFFFF
310
FFFFFFFFFFFFFFFFFFFFF99FFFFFFFFFFFFFFFFFFFFFFFFFFFFFF99FFFFFFFFFFFFFFFFFFFFFFFFFFFFFF99FFFFFFFFFFFFFFFFFFFFFFFFFFFFFF99FFFFFFFFFFFFFFFFFFFFFFFFFFFFFF99FFFFFFFFFFFFFFFFFFFFFFFFFFFFFF99FFFFFFFFFFFFFFFFFFFFFFFFFFFFFF99FFFFFFFFFFFFFFFFFFFFF99999999999FFFFFFF
310
FFFFFFFFFFFFFF9FFFFFFFFF99999999999999999999999FFFFFFFFFFFFFFFFFFFFFFFFFFFFFFFFFFFFFFFFFFFFFFFFFFFFFFFFFFFFFFFFFFFFFFFFFFFFFFFFFFFFFFFFFFFFFFFFFFFFFFFFFFFFFFFFFFFFFFFFFFFFFFFFFFFFFFFFFFFFFFFFFFFFFFFFFFFFFFFFFFFFFFFFF
102
{BLKREFS
331
F235
102
}
  0
BLOCK_RECORD
  5
F744
330
7466
100
AcDbSymbolTableRecord
100
AcDbBlockTableRecord
  2
_DOT
340
0
102
{BLKREFS
331
1409B
331
1409C
331
15FBA
331
15FBB
331
16344
331
16345
331
1635A
331
1635B
331
16363
331
16364
331
1636E
331
1636F
331
16377
331
16378
331
16393
331
16394
331
163B1
331
163B2
331
163BA
331
163BB
331
163CE
331
163CF
331
163D7
331
163D8
331
163E0
331
163E1
331
16693
331
16694
102
}
  0
BLOCK_RECORD
  5
F770
330
7466
100
AcDbSymbolTableRecord
100
AcDbBlockTableRecord
  2
_DOTSMALL
340
0
102
{BLKREFS
331
140A4
331
140A5
331
140AD
331
140AE
331
140B6
331
140B7
331
140C1
331
140C2
331
140CA
331
140CB
331
140D5
331
140D6
331
140DE
331
140DF
331
140E8
331
140E9
331
140F2
331
140F3
331
16301
331
16302
331
1630A
331
1630B
331
16315
331
16316
331
1631E
331
1631F
331
1666A
331
1666B
331
1667E
331
1667F
102
}
  0
BLOCK_RECORD
  5
1392A
330
7466
100
AcDbSymbolTableRecord
100
AcDbBlockTableRecord
  2
*D3
340
0
  0
BLOCK_RECORD
  5
13938
330
7466
100
AcDbSymbolTableRecord
100
AcDbBlockTableRecord
  2
*D4
340
0
  0
BLOCK_RECORD
  5
13944
330
7466
100
AcDbSymbolTableRecord
100
AcDbBlockTableRecord
  2
*D5
340
0
  0
BLOCK_RECORD
  5
13952
330
7466
100
AcDbSymbolTableRecord
100
AcDbBlockTableRecord
  2
*D6
340
0
  0
BLOCK_RECORD
  5
1395E
330
7466
100
AcDbSymbolTableRecord
100
AcDbBlockTableRecord
  2
*D7
340
0
  0
BLOCK_RECORD
  5
1396C
330
7466
100
AcDbSymbolTableRecord
100
AcDbBlockTableRecord
  2
*D8
340
0
  0
BLOCK_RECORD
  5
13978
330
7466
100
AcDbSymbolTableRecord
100
AcDbBlockTableRecord
  2
*D9
340
0
  0
BLOCK_RECORD
  5
13990
330
7466
100
AcDbSymbolTableRecord
100
AcDbBlockTableRecord
  2
*D10
340
0
  0
BLOCK_RECORD
  5
139AA
330
7466
100
AcDbSymbolTableRecord
100
AcDbBlockTableRecord
  2
*D11
340
0
  0
BLOCK_RECORD
  5
139B6
330
7466
100
AcDbSymbolTableRecord
100
AcDbBlockTableRecord
  2
*D12
340
0
  0
BLOCK_RECORD
  5
13EE5
330
7466
100
AcDbSymbolTableRecord
100
AcDbBlockTableRecord
  2
*D13
340
0
  0
BLOCK_RECORD
  5
13EF2
330
7466
100
AcDbSymbolTableRecord
100
AcDbBlockTableRecord
  2
*D14
340
0
  0
BLOCK_RECORD
  5
13EFF
330
7466
100
AcDbSymbolTableRecord
100
AcDbBlockTableRecord
  2
*D15
340
0
  0
BLOCK_RECORD
  5
13F0B
330
7466
100
AcDbSymbolTableRecord
100
AcDbBlockTableRecord
  2
*D16
340
0
  0
BLOCK_RECORD
  5
13F19
330
7466
100
AcDbSymbolTableRecord
100
AcDbBlockTableRecord
  2
*D17
340
0
  0
BLOCK_RECORD
  5
13F25
330
7466
100
AcDbSymbolTableRecord
100
AcDbBlockTableRecord
  2
*D18
340
0
  0
BLOCK_RECORD
  5
13F40
330
7466
100
AcDbSymbolTableRecord
100
AcDbBlockTableRecord
  2
*D19
340
0
  0
BLOCK_RECORD
  5
13F4C
330
7466
100
AcDbSymbolTableRecord
100
AcDbBlockTableRecord
  2
*D20
340
0
  0
BLOCK_RECORD
  5
13F58
330
7466
100
AcDbSymbolTableRecord
100
AcDbBlockTableRecord
  2
*D21
340
0
  0
BLOCK_RECORD
  5
1406F
330
7466
100
AcDbSymbolTableRecord
100
AcDbBlockTableRecord
  2
*D22
340
0
  0
BLOCK_RECORD
  5
14137
330
7466
100
AcDbSymbolTableRecord
100
AcDbBlockTableRecord
  2
_OPEN
340
0
  0
BLOCK_RECORD
  5
15D77
330
7466
100
AcDbSymbolTableRecord
100
AcDbBlockTableRecord
  2
*D24
340
0
  0
BLOCK_RECORD
  5
15DB5
330
7466
100
AcDbSymbolTableRecord
100
AcDbBlockTableRecord
  2
*D25
340
0
  0
BLOCK_RECORD
  5
15DCF
330
7466
100
AcDbSymbolTableRecord
100
AcDbBlockTableRecord
  2
*D26
340
0
  0
BLOCK_RECORD
  5
1625A
330
7466
100
AcDbSymbolTableRecord
100
AcDbBlockTableRecord
  2
*D27
340
0
  0
BLOCK_RECORD
  5
16266
330
7466
100
AcDbSymbolTableRecord
100
AcDbBlockTableRecord
  2
*D28
340
0
  0
BLOCK_RECORD
  5
16274
330
7466
100
AcDbSymbolTableRecord
100
AcDbBlockTableRecord
  2
*D29
340
0
  0
BLOCK_RECORD
  5
16280
330
7466
100
AcDbSymbolTableRecord
100
AcDbBlockTableRecord
  2
*D30
340
0
  0
BLOCK_RECORD
  5
16619
330
7466
100
AcDbSymbolTableRecord
100
AcDbBlockTableRecord
  2
*D31
340
0
  0
BLOCK_RECORD
  5
16633
330
7466
100
AcDbSymbolTableRecord
100
AcDbBlockTableRecord
  2
*D32
340
0
  0
ENDTAB
  0
ENDSEC
  0
SECTION
  2
BLOCKS
  0
BLOCK
  5
7489
330
747D
100
AcDbEntity
  8
0
100
AcDbBlockBegin
  2
*MODEL_SPACE
 70
     0
 10
0.0
 20
0.0
 30
0.0
  3
*MODEL_SPACE
  1

  0
ENDBLK
  5
748A
330
747D
100
AcDbEntity
  8
0
100
AcDbBlockEnd
  0
BLOCK
  5
7487
330
747A
100
AcDbEntity
 67
     1
  8
0
100
AcDbBlockBegin
  2
*PAPER_SPACE
 70
     0
 10
0.0
 20
0.0
 30
0.0
  3
*PAPER_SPACE
  1

  0
ENDBLK
  5
7488
330
747A
100
AcDbEntity
 67
     1
  8
0
100
AcDbBlockEnd
  0
BLOCK
  5
ECB4
330
ECB3
100
AcDbEntity
  8
0
100
AcDbBlockBegin
  2
作図枠S50
 70
     0
 10
0.0
 20
0.0
 30
0.0
  3
作図枠S50
  1

  4
作図領域枠 縮尺 1/50
  0
LINE
  5
ECB5
330
ECB3
100
AcDbEntity
  8
補助
100
AcDbLine
 10
14364.0
 20
14262.0
 30
0.0
 11
174.9999999999993
 21
14262.0
 31
0.0
  0
LINE
  5
ECB6
330
ECB3
100
AcDbEntity
  8
補助
100
AcDbLine
 10
174.9999999999993
 20
14262.0
 30
0.0
 11
174.9999999999993
 21
1520.0
 31
0.0
  0
LINE
  5
ECB7
330
ECB3
100
AcDbEntity
  8
補助
100
AcDbLine
 10
174.9999999999993
 20
1520.0
 30
0.0
 11
20384.0
 21
1520.0
 31
0.0
  0
LINE
  5
ECB8
330
ECB3
100
AcDbEntity
  8
補助
100
AcDbLine
 10
20384.0
 20
1520.0
 30
0.0
 11
20384.0
 21
13042.0
 31
0.0
  0
LINE
  5
ECB9
330
ECB3
100
AcDbEntity
  8
補助
100
AcDbLine
 10
20384.0
 20
13042.0
 30
0.0
 11
14364.0
 21
13042.0
 31
0.0
  0
LINE
  5
ECBA
330
ECB3
100
AcDbEntity
  8
補助
100
AcDbLine
 10
14364.0
 20
13042.0
 30
0.0
 11
14364.0
 21
14262.0
 31
0.0
  0
ENDBLK
  5
ECBB
330
ECB3
100
AcDbEntity
  8
0
100
AcDbBlockEnd
  0
BLOCK
  5
F745
330
F744
100
AcDbEntity
  8
0
 48
50.0
100
AcDbBlockBegin
  2
_DOT
 70
     0
 10
0.0
 20
0.0
 30
0.0
  3
_DOT
  1

  0
LWPOLYLINE
  5
F746
330
F744
100
AcDbEntity
  8
0
  6
ByBlock
 62
     0
 48
50.0
100
AcDbPolyline
 90
        2
 70
     1
 43
0.5
 10
-0.25
 20
0.0
 42
1.0
 10
0.25
 20
0.0
 42
1.0
  0
LINE
  5
F74A
330
F744
100
AcDbEntity
  8
0
  6
ByBlock
 62
     0
 48
50.0
100
AcDbLine
 10
-0.5
 20
0.0
 30
0.0
 11
-1.0
 21
0.0
 31
0.0
  0
ENDBLK
  5
F74B
330
F744
100
AcDbEntity
  8
0
 48
50.0
100
AcDbBlockEnd
  0
BLOCK
  5
F771
330
F770
100
AcDbEntity
  8
0
 48
50.0
100
AcDbBlockBegin
  2
_DOTSMALL
 70
     0
 10
0.0
 20
0.0
 30
0.0
  3
_DOTSMALL
  1

  0
LWPOLYLINE
  5
F772
330
F770
100
AcDbEntity
  8
0
  6
ByBlock
 62
     0
 48
50.0
100
AcDbPolyline
 90
        2
 70
     1
 43
0.5
 10
-0.0625
 20
0.0
 42
1.0
 10
0.0625
 20
0.0
 42
1.0
  0
ENDBLK
  5
F776
330
F770
100
AcDbEntity
  8
0
 48
50.0
100
AcDbBlockEnd
  0
BLOCK
  5
13936
330
1392A
100
AcDbEntity
  8
0
 48
50.0
100
AcDbBlockBegin
  2
*D3
 70
     1
 10
0.0
 20
0.0
 30
0.0
  3
*D3
  1

  0
LINE
  5
163C9
330
1392A
100
AcDbEntity
  8
寸法
 62
     0
 48
50.0
370
    -2
100
AcDbLine
 10
7523.904397928898
 20
10326.9845259076
 30
0.0
 11
7523.904397928898
 21
10721.69693592639
 31
0.0
  0
LINE
  5
163CA
330
1392A
100
AcDbEntity
  8
寸法
 62
     0
 48
50.0
370
    -2
100
AcDbLine
 10
7578.904397928898
 20
10326.98452590759
 30
0.0
 11
7578.904397928898
 21
10721.69693592639
 31
0.0
  0
LINE
  5
163CB
330
1392A
100
AcDbEntity
  8
寸法
 62
     0
 48
50.0
370
    -2
100
AcDbLine
 10
7503.904397928898
 20
10681.69693592639
 30
0.0
 11
7483.904397928899
 21
10681.69693592639
 31
0.0
  0
LINE
  5
163CC
330
1392A
100
AcDbEntity
  8
寸法
 62
     0
 48
50.0
370
    -2
100
AcDbLine
 10
7598.904397928897
 20
10681.69693592639
 30
0.0
 11
7819.874960677376
 21
10681.69693592639
 31
0.0
  0
LINE
  5
163CD
330
1392A
100
AcDbEntity
  8
寸法
 62
     0
 48
50.0
370
    -2
100
AcDbLine
 10
7523.904397928898
 20
10681.69693592639
 30
0.0
 11
7578.904397928898
 21
10681.69693592639
 31
0.0
  0
INSERT
  5
163CE
330
1392A
100
AcDbEntity
  8
寸法
 62
     0
 48
50.0
370
    -2
100
AcDbBlockReference
  2
_DOT
 10
7523.904397928898
 20
10681.69693592639
 30
0.0
 41
20.0
 42
20.0
 43
20.0
  0
INSERT
  5
163CF
330
1392A
100
AcDbEntity
  8
寸法
 62
     0
 48
50.0
370
    -2
100
AcDbBlockReference
  2
_DOT
 10
7578.904397928898
 20
10681.69693592639
 30
0.0
 41
20.0
 42
20.0
 43
20.0
 50
180.0
  0
MTEXT
  5
163D0
330
1392A
100
AcDbEntity
  8
寸法
 62
     7
 48
50.0
100
AcDbMText
 10
7719.389679303137
 20
10773.69693592639
 30
0.0
 40
120.0
 41
0.0
 71
     5
 72
     1
  1
\A1;55
  7
STYLE1
 73
     1
 44
1.0
1001
ACAD
1000
MTEXTBEGIN
1070
    73
1070
     1
1070
    44
1040
1.0
1070
    74
1070
     0
1000
MTEXTEND
  0
POINT
  5
163D1
330
1392A
100
AcDbEntity
  8
DEFPOINTS
 62
     0
 48
50.0
100
AcDbPoint
 10
7523.904397928898
 20
10306.9845259076
 30
0.0
  0
POINT
  5
163D2
330
1392A
100
AcDbEntity
  8
DEFPOINTS
 62
     0
 48
50.0
100
AcDbPoint
 10
7578.904397928898
 20
10306.98452590759
 30
0.0
  0
POINT
  5
163D3
330
1392A
100
AcDbEntity
  8
DEFPOINTS
 62
     0
 48
50.0
100
AcDbPoint
 10
7578.904397928898
 20
10681.69693592639
 30
0.0
  0
ENDBLK
  5
13937
330
1392A
100
AcDbEntity
  8
0
 48
50.0
100
AcDbBlockEnd
  0
BLOCK
  5
13942
330
13938
100
AcDbEntity
  8
0
 48
50.0
100
AcDbBlockBegin
  2
*D4
 70
     1
 10
0.0
 20
0.0
 30
0.0
  3
*D4
  1

  0
LINE
  5
16374
330
13938
100
AcDbEntity
  8
寸法
 62
     0
 48
50.0
370
    -2
100
AcDbLine
 10
7598.904397928897
 20
10306.98452590759
 30
0.0
 11
8689.651514973251
 21
10306.98452590759
 31
0.0
  0
LINE
  5
16375
330
13938
100
AcDbEntity
  8
寸法
 62
     0
 48
50.0
370
    -2
100
AcDbLine
 10
7598.904397928897
 20
7256.984525907596
 30
0.0
 11
8689.651514973251
 21
7256.984525907596
 31
0.0
  0
LINE
  5
16376
330
13938
100
AcDbEntity
  8
寸法
 62
     0
 48
50.0
370
    -2
100
AcDbLine
 10
8649.651514973252
 20
10286.98452590759
 30
0.0
 11
8649.651514973252
 21
7276.984525907595
 31
0.0
  0
INSERT
  5
16377
330
13938
100
AcDbEntity
  8
寸法
 62
     0
 48
50.0
370
    -2
100
AcDbBlockReference
  2
_DOT
 10
8649.651514973252
 20
10306.98452590759
 30
0.0
 41
20.0
 42
20.0
 43
20.0
 50
90.0
  0
INSERT
  5
16378
330
13938
100
AcDbEntity
  8
寸法
 62
     0
 48
50.0
370
    -2
100
AcDbBlockReference
  2
_DOT
 10
8649.651514973252
 20
7256.984525907596
 30
0.0
 41
20.0
 42
20.0
 43
20.0
 50
270.0
  0
MTEXT
  5
16379
330
13938
100
AcDbEntity
  8
寸法
 62
     7
 48
50.0
100
AcDbMText
 10
8557.651514973249
 20
8781.984525907597
 30
0.0
 40
120.0
 41
0.0
 71
     5
 72
     1
  1
\A1;3050
  7
STYLE1
 11
0.0000000000000001
 21
1.0
 31
0.0
 73
     1
 44
1.0
1001
ACAD
1000
MTEXTBEGIN
1070
    73
1070
     1
1070
    44
1040
1.0
1070
    74
1070
     0
1000
MTEXTEND
  0
POINT
  5
1637A
330
13938
100
AcDbEntity
  8
DEFPOINTS
 62
     0
 48
50.0
100
AcDbPoint
 10
7578.904397928898
 20
10306.98452590759
 30
0.0
  0
POINT
  5
1637B
330
13938
100
AcDbEntity
  8
DEFPOINTS
 62
     0
 48
50.0
100
AcDbPoint
 10
7578.904397928898
 20
7256.984525907596
 30
0.0
  0
POINT
  5
1637C
330
13938
100
AcDbEntity
  8
DEFPOINTS
 62
     0
 48
50.0
100
AcDbPoint
 10
8649.651514973252
 20
7256.984525907596
 30
0.0
  0
ENDBLK
  5
13943
330
13938
100
AcDbEntity
  8
0
 48
50.0
100
AcDbBlockEnd
  0
BLOCK
  5
13950
330
13944
100
AcDbEntity
  8
0
 48
50.0
100
AcDbBlockBegin
  2
*D5
 70
     1
 10
0.0
 20
0.0
 30
0.0
  3
*D5
  1

  0
LINE
  5
16369
330
13944
100
AcDbEntity
  8
寸法
 62
     0
 48
50.0
370
    -2
100
AcDbLine
 10
7598.904397928897
 20
7311.984525907591
 30
0.0
 11
8389.651514973254
 21
7311.984525907591
 31
0.0
  0
LINE
  5
1636A
330
13944
100
AcDbEntity
  8
寸法
 62
     0
 48
50.0
370
    -2
100
AcDbLine
 10
7598.904397928897
 20
7256.984525907596
 30
0.0
 11
8389.651514973254
 21
7256.984525907596
 31
0.0
  0
LINE
  5
1636B
330
13944
100
AcDbEntity
  8
寸法
 62
     0
 48
50.0
370
    -2
100
AcDbLine
 10
8349.651514973253
 20
7331.984525907592
 30
0.0
 11
8349.651514973253
 21
7351.984525907592
 31
0.0
  0
LINE
  5
1636C
330
13944
100
AcDbEntity
  8
寸法
 62
     0
 48
50.0
370
    -2
100
AcDbLine
 10
8349.651514973253
 20
7236.984525907596
 30
0.0
 11
8349.651514973253
 21
6762.33257786669
 31
0.0
  0
LINE
  5
1636D
330
13944
100
AcDbEntity
  8
寸法
 62
     0
 48
50.0
370
    -2
100
AcDbLine
 10
8349.651514973253
 20
7311.984525907591
 30
0.0
 11
8349.651514973253
 21
7256.984525907596
 31
0.0
  0
INSERT
  5
1636E
330
13944
100
AcDbEntity
  8
寸法
 62
     0
 48
50.0
370
    -2
100
AcDbBlockReference
  2
_DOT
 10
8349.651514973253
 20
7311.984525907591
 30
0.0
 41
20.0
 42
20.0
 43
20.0
 50
270.0
  0
INSERT
  5
1636F
330
13944
100
AcDbEntity
  8
寸法
 62
     0
 48
50.0
370
    -2
100
AcDbBlockReference
  2
_DOT
 10
8349.651514973253
 20
7256.984525907596
 30
0.0
 41
20.0
 42
20.0
 43
20.0
 50
90.0
  0
MTEXT
  5
16370
330
13944
100
AcDbEntity
  8
寸法
 62
     7
 48
50.0
100
AcDbMText
 10
8257.651514973252
 20
6862.81785924093
 30
0.0
 40
120.0
 41
0.0
 71
     5
 72
     1
  1
\A1;55
  7
STYLE1
 11
0.0000000000000001
 21
1.0
 31
0.0
 73
     1
 44
1.0
1001
ACAD
1000
MTEXTBEGIN
1070
    73
1070
     1
1070
    44
1040
1.0
1070
    74
1070
     0
1000
MTEXTEND
  0
POINT
  5
16371
330
13944
100
AcDbEntity
  8
DEFPOINTS
 62
     0
 48
50.0
100
AcDbPoint
 10
7578.904397928898
 20
7311.984525907591
 30
0.0
  0
POINT
  5
16372
330
13944
100
AcDbEntity
  8
DEFPOINTS
 62
     0
 48
50.0
100
AcDbPoint
 10
7578.904397928898
 20
7256.984525907596
 30
0.0
  0
POINT
  5
16373
330
13944
100
AcDbEntity
  8
DEFPOINTS
 62
     0
 48
50.0
100
AcDbPoint
 10
8349.651514973253
 20
7256.984525907596
 30
0.0
  0
ENDBLK
  5
13951
330
13944
100
AcDbEntity
  8
0
 48
50.0
100
AcDbBlockEnd
  0
BLOCK
  5
1395C
330
13952
100
AcDbEntity
  8
0
 48
50.0
100
AcDbBlockBegin
  2
*D6
 70
     1
 10
0.0
 20
0.0
 30
0.0
  3
*D6
  1

  0
LINE
  5
16360
330
13952
100
AcDbEntity
  8
寸法
 62
     0
 48
50.0
370
    -2
100
AcDbLine
 10
7598.904397928897
 20
10251.9845259076
 30
0.0
 11
8389.65151497325
 21
10251.9845259076
 31
0.0
  0
LINE
  5
16361
330
13952
100
AcDbEntity
  8
寸法
 62
     0
 48
50.0
370
    -2
100
AcDbLine
 10
7598.904397928897
 20
7311.984525907591
 30
0.0
 11
8389.65151497325
 21
7311.984525907591
 31
0.0
  0
LINE
  5
16362
330
13952
100
AcDbEntity
  8
寸法
 62
     0
 48
50.0
370
    -2
100
AcDbLine
 10
8349.651514973251
 20
10231.9845259076
 30
0.0
 11
8349.651514973251
 21
7331.984525907592
 31
0.0
  0
INSERT
  5
16363
330
13952
100
AcDbEntity
  8
寸法
 62
     0
 48
50.0
370
    -2
100
AcDbBlockReference
  2
_DOT
 10
8349.651514973251
 20
10251.9845259076
 30
0.0
 41
20.0
 42
20.0
 43
20.0
 50
90.0
  0
INSERT
  5
16364
330
13952
100
AcDbEntity
  8
寸法
 62
     0
 48
50.0
370
    -2
100
AcDbBlockReference
  2
_DOT
 10
8349.651514973251
 20
7311.984525907591
 30
0.0
 41
20.0
 42
20.0
 43
20.0
 50
270.0
  0
MTEXT
  5
16365
330
13952
100
AcDbEntity
  8
寸法
 62
     7
 48
50.0
100
AcDbMText
 10
8257.639703949628
 20
8781.984525907597
 30
0.0
 40
120.0
 41
0.0
 71
     5
 72
     1
  1
\A1;7X420=2940
  7
STYLE1
 11
0.0000000000000001
 21
1.0
 31
0.0
 73
     1
 44
1.0
1001
ACAD
1000
MTEXTBEGIN
1070
    73
1070
     1
1070
    44
1040
1.0
1070
    74
1070
     0
1000
MTEXTEND
  0
POINT
  5
16366
330
13952
100
AcDbEntity
  8
DEFPOINTS
 62
     0
 48
50.0
100
AcDbPoint
 10
7578.904397928898
 20
10251.9845259076
 30
0.0
  0
POINT
  5
16367
330
13952
100
AcDbEntity
  8
DEFPOINTS
 62
     0
 48
50.0
100
AcDbPoint
 10
7578.904397928898
 20
7311.984525907591
 30
0.0
  0
POINT
  5
16368
330
13952
100
AcDbEntity
  8
DEFPOINTS
 62
     0
 48
50.0
100
AcDbPoint
 10
8349.651514973251
 20
7311.984525907591
 30
0.0
  0
ENDBLK
  5
1395D
330
13952
100
AcDbEntity
  8
0
 48
50.0
100
AcDbBlockEnd
  0
BLOCK
  5
1396A
330
1395E
100
AcDbEntity
  8
0
 48
50.0
100
AcDbBlockBegin
  2
*D7
 70
     1
 10
0.0
 20
0.0
 30
0.0
  3
*D7
  1

  0
LINE
  5
16355
330
1395E
100
AcDbEntity
  8
寸法
 62
     0
 48
50.0
370
    -2
100
AcDbLine
 10
7598.904397928897
 20
10306.98452590759
 30
0.0
 11
8389.651514973254
 21
10306.98452590759
 31
0.0
  0
LINE
  5
16356
330
1395E
100
AcDbEntity
  8
寸法
 62
     0
 48
50.0
370
    -2
100
AcDbLine
 10
7598.904397928897
 20
10251.9845259076
 30
0.0
 11
8389.651514973254
 21
10251.9845259076
 31
0.0
  0
LINE
  5
16357
330
1395E
100
AcDbEntity
  8
寸法
 62
     0
 48
50.0
370
    -2
100
AcDbLine
 10
8349.651514973253
 20
10231.9845259076
 30
0.0
 11
8349.651514973253
 21
10211.9845259076
 31
0.0
  0
LINE
  5
16358
330
1395E
100
AcDbEntity
  8
寸法
 62
     0
 48
50.0
370
    -2
100
AcDbLine
 10
8349.651514973253
 20
10326.98452590759
 30
0.0
 11
8349.651514973253
 21
10801.6364739485
 31
0.0
  0
LINE
  5
16359
330
1395E
100
AcDbEntity
  8
寸法
 62
     0
 48
50.0
370
    -2
100
AcDbLine
 10
8349.651514973253
 20
10251.9845259076
 30
0.0
 11
8349.651514973253
 21
10306.98452590759
 31
0.0
  0
INSERT
  5
1635A
330
1395E
100
AcDbEntity
  8
寸法
 62
     0
 48
50.0
370
    -2
100
AcDbBlockReference
  2
_DOT
 10
8349.651514973253
 20
10251.9845259076
 30
0.0
 41
20.0
 42
20.0
 43
20.0
 50
90.0
  0
INSERT
  5
1635B
330
1395E
100
AcDbEntity
  8
寸法
 62
     0
 48
50.0
370
    -2
100
AcDbBlockReference
  2
_DOT
 10
8349.651514973253
 20
10306.98452590759
 30
0.0
 41
20.0
 42
20.0
 43
20.0
 50
270.0
  0
MTEXT
  5
1635C
330
1395E
100
AcDbEntity
  8
寸法
 62
     7
 48
50.0
100
AcDbMText
 10
8257.651514973252
 20
10701.15119257426
 30
0.0
 40
120.0
 41
0.0
 71
     5
 72
     1
  1
\A1;55
  7
STYLE1
 11
0.0000000000000001
 21
1.0
 31
0.0
 73
     1
 44
1.0
1001
ACAD
1000
MTEXTBEGIN
1070
    73
1070
     1
1070
    44
1040
1.0
1070
    74
1070
     0
1000
MTEXTEND
  0
POINT
  5
1635D
330
1395E
100
AcDbEntity
  8
DEFPOINTS
 62
     0
 48
50.0
100
AcDbPoint
 10
7578.904397928898
 20
10306.98452590759
 30
0.0
  0
POINT
  5
1635E
330
1395E
100
AcDbEntity
  8
DEFPOINTS
 62
     0
 48
50.0
100
AcDbPoint
 10
7578.904397928898
 20
10251.9845259076
 30
0.0
  0
POINT
  5
1635F
330
1395E
100
AcDbEntity
  8
DEFPOINTS
 62
     0
 48
50.0
100
AcDbPoint
 10
8349.651514973253
 20
10251.9845259076
 30
0.0
  0
ENDBLK
  5
1396B
330
1395E
100
AcDbEntity
  8
0
 48
50.0
100
AcDbBlockEnd
  0
BLOCK
  5
13976
330
1396C
100
AcDbEntity
  8
0
 48
50.0
100
AcDbBlockBegin
  2
*D8
 70
     1
 10
0.0
 20
0.0
 30
0.0
  3
*D8
  1

  0
LINE
  5
163DD
330
1396C
100
AcDbEntity
  8
寸法
 62
     0
 48
50.0
370
    -2
100
AcDbLine
 10
3998.904397928898
 20
10326.98452590759
 30
0.0
 11
3998.904397928898
 21
11021.69693592639
 31
0.0
  0
LINE
  5
163DE
330
1396C
100
AcDbEntity
  8
寸法
 62
     0
 48
50.0
370
    -2
100
AcDbLine
 10
7578.904397928898
 20
10326.98452590759
 30
0.0
 11
7578.904397928898
 21
11021.69693592639
 31
0.0
  0
LINE
  5
163DF
330
1396C
100
AcDbEntity
  8
寸法
 62
     0
 48
50.0
370
    -2
100
AcDbLine
 10
4018.904397928897
 20
10981.69693592639
 30
0.0
 11
7558.904397928898
 21
10981.69693592639
 31
0.0
  0
INSERT
  5
163E0
330
1396C
100
AcDbEntity
  8
寸法
 62
     0
 48
50.0
370
    -2
100
AcDbBlockReference
  2
_DOT
 10
3998.904397928898
 20
10981.69693592639
 30
0.0
 41
20.0
 42
20.0
 43
20.0
 50
180.0
  0
INSERT
  5
163E1
330
1396C
100
AcDbEntity
  8
寸法
 62
     0
 48
50.0
370
    -2
100
AcDbBlockReference
  2
_DOT
 10
7578.904397928898
 20
10981.69693592639
 30
0.0
 41
20.0
 42
20.0
 43
20.0
  0
MTEXT
  5
163E2
330
1396C
100
AcDbEntity
  8
寸法
 62
     7
 48
50.0
100
AcDbMText
 10
5788.904397928899
 20
11073.69693592639
 30
0.0
 40
120.0
 41
0.0
 71
     5
 72
     1
  1
\A1;3580
  7
STYLE1
 73
     1
 44
1.0
1001
ACAD
1000
MTEXTBEGIN
1070
    73
1070
     1
1070
    44
1040
1.0
1070
    74
1070
     0
1000
MTEXTEND
  0
POINT
  5
163E3
330
1396C
100
AcDbEntity
  8
DEFPOINTS
 62
     0
 48
50.0
100
AcDbPoint
 10
3998.904397928898
 20
10306.98452590759
 30
0.0
  0
POINT
  5
163E4
330
1396C
100
AcDbEntity
  8
DEFPOINTS
 62
     0
 48
50.0
100
AcDbPoint
 10
7578.904397928898
 20
10306.98452590759
 30
0.0
  0
POINT
  5
163E5
330
1396C
100
AcDbEntity
  8
DEFPOINTS
 62
     0
 48
50.0
100
AcDbPoint
 10
7578.904397928898
 20
10981.69693592639
 30
0.0
  0
ENDBLK
  5
13977
330
1396C
100
AcDbEntity
  8
0
 48
50.0
100
AcDbBlockEnd
  0
BLOCK
  5
13982
330
13978
100
AcDbEntity
  8
0
 48
50.0
100
AcDbBlockBegin
  2
*D9
 70
     1
 10
0.0
 20
0.0
 30
0.0
  3
*D9
  1

  0
LINE
  5
163B7
330
13978
100
AcDbEntity
  8
寸法
 62
     0
 48
50.0
370
    -2
100
AcDbLine
 10
4053.904397928898
 20
10326.98452590759
 30
0.0
 11
4053.904397928898
 21
10721.69693592639
 31
0.0
  0
LINE
  5
163B8
330
13978
100
AcDbEntity
  8
寸法
 62
     0
 48
50.0
370
    -2
100
AcDbLine
 10
5733.904397928898
 20
10326.9845259076
 30
0.0
 11
5733.904397928898
 21
10721.69693592639
 31
0.0
  0
LINE
  5
163B9
330
13978
100
AcDbEntity
  8
寸法
 62
     0
 48
50.0
370
    -2
100
AcDbLine
 10
4073.904397928898
 20
10681.69693592639
 30
0.0
 11
5713.904397928899
 21
10681.69693592639
 31
0.0
  0
INSERT
  5
163BA
330
13978
100
AcDbEntity
  8
寸法
 62
     0
 48
50.0
370
    -2
100
AcDbBlockReference
  2
_DOT
 10
4053.904397928898
 20
10681.69693592639
 30
0.0
 41
20.0
 42
20.0
 43
20.0
 50
180.0
  0
INSERT
  5
163BB
330
13978
100
AcDbEntity
  8
寸法
 62
     0
 48
50.0
370
    -2
100
AcDbBlockReference
  2
_DOT
 10
5733.904397928898
 20
10681.69693592639
 30
0.0
 41
20.0
 42
20.0
 43
20.0
  0
MTEXT
  5
163BC
330
13978
100
AcDbEntity
  8
寸法
 62
     7
 48
50.0
100
AcDbMText
 10
4893.904397928898
 20
10773.70874695001
 30
0.0
 40
120.0
 41
0.0
 71
     5
 72
     1
  1
\A1;4X420=1680
  7
STYLE1
 73
     1
 44
1.0
1001
ACAD
1000
MTEXTBEGIN
1070
    73
1070
     1
1070
    44
1040
1.0
1070
    74
1070
     0
1000
MTEXTEND
  0
POINT
  5
163BD
330
13978
100
AcDbEntity
  8
DEFPOINTS
 62
     0
 48
50.0
100
AcDbPoint
 10
4053.904397928898
 20
10306.98452590759
 30
0.0
  0
POINT
  5
163BE
330
13978
100
AcDbEntity
  8
DEFPOINTS
 62
     0
 48
50.0
100
AcDbPoint
 10
5733.904397928898
 20
10306.9845259076
 30
0.0
  0
POINT
  5
163BF
330
13978
100
AcDbEntity
  8
DEFPOINTS
 62
     0
 48
50.0
100
AcDbPoint
 10
5733.904397928898
 20
10681.69693592639
 30
0.0
  0
ENDBLK
  5
13983
330
13978
100
AcDbEntity
  8
0
 48
50.0
100
AcDbBlockEnd
  0
BLOCK
  5
1399C
330
13990
100
AcDbEntity
  8
0
 48
50.0
100
AcDbBlockBegin
  2
*D10
 70
     1
 10
0.0
 20
0.0
 30
0.0
  3
*D10
  1

  0
LINE
  5
1638E
330
13990
100
AcDbEntity
  8
寸法
 62
     0
 48
50.0
370
    -2
100
AcDbLine
 10
3998.904397928898
 20
10326.98452590759
 30
0.0
 11
3998.904397928898
 21
10721.69693592639
 31
0.0
  0
LINE
  5
1638F
330
13990
100
AcDbEntity
  8
寸法
 62
     0
 48
50.0
370
    -2
100
AcDbLine
 10
4053.904397928898
 20
10326.9845259076
 30
0.0
 11
4053.904397928898
 21
10721.69693592639
 31
0.0
  0
LINE
  5
16390
330
13990
100
AcDbEntity
  8
寸法
 62
     0
 48
50.0
370
    -2
100
AcDbLine
 10
4073.904397928898
 20
10681.69693592639
 30
0.0
 11
4093.904397928898
 21
10681.69693592639
 31
0.0
  0
LINE
  5
16391
330
13990
100
AcDbEntity
  8
寸法
 62
     0
 48
50.0
370
    -2
100
AcDbLine
 10
3978.904397928899
 20
10681.69693592639
 30
0.0
 11
3757.933835180421
 21
10681.69693592639
 31
0.0
  0
LINE
  5
16392
330
13990
100
AcDbEntity
  8
寸法
 62
     0
 48
50.0
370
    -2
100
AcDbLine
 10
4053.904397928898
 20
10681.69693592639
 30
0.0
 11
3998.904397928898
 21
10681.69693592639
 31
0.0
  0
INSERT
  5
16393
330
13990
100
AcDbEntity
  8
寸法
 62
     0
 48
50.0
370
    -2
100
AcDbBlockReference
  2
_DOT
 10
4053.904397928898
 20
10681.69693592639
 30
0.0
 41
20.0
 42
20.0
 43
20.0
 50
180.0
  0
INSERT
  5
16394
330
13990
100
AcDbEntity
  8
寸法
 62
     0
 48
50.0
370
    -2
100
AcDbBlockReference
  2
_DOT
 10
3998.904397928898
 20
10681.69693592639
 30
0.0
 41
20.0
 42
20.0
 43
20.0
  0
MTEXT
  5
16395
330
13990
100
AcDbEntity
  8
寸法
 62
     7
 48
50.0
100
AcDbMText
 10
3858.419116554659
 20
10773.69693592639
 30
0.0
 40
120.0
 41
0.0
 71
     5
 72
     1
  1
\A1;55
  7
STYLE1
 73
     1
 44
1.0
1001
ACAD
1000
MTEXTBEGIN
1070
    73
1070
     1
1070
    44
1040
1.0
1070
    74
1070
     0
1000
MTEXTEND
  0
POINT
  5
16396
330
13990
100
AcDbEntity
  8
DEFPOINTS
 62
     0
 48
50.0
100
AcDbPoint
 10
3998.904397928898
 20
10306.98452590759
 30
0.0
  0
POINT
  5
16397
330
13990
100
AcDbEntity
  8
DEFPOINTS
 62
     0
 48
50.0
100
AcDbPoint
 10
4053.904397928898
 20
10306.9845259076
 30
0.0
  0
POINT
  5
16398
330
13990
100
AcDbEntity
  8
DEFPOINTS
 62
     0
 48
50.0
100
AcDbPoint
 10
4053.904397928898
 20
10681.69693592639
 30
0.0
  0
ENDBLK
  5
1399D
330
13990
100
AcDbEntity
  8
0
 48
50.0
100
AcDbBlockEnd
  0
BLOCK
  5
139B4
330
139AA
100
AcDbEntity
  8
0
 48
50.0
100
AcDbBlockBegin
  2
*D11
 70
     1
 10
0.0
 20
0.0
 30
0.0
  3
*D11
  1

  0
LINE
  5
163D4
330
139AA
100
AcDbEntity
  8
寸法
 62
     0
 48
50.0
370
    -2
100
AcDbLine
 10
5843.904397928898
 20
10326.9845259076
 30
0.0
 11
5843.904397928898
 21
10721.69693592639
 31
0.0
  0
LINE
  5
163D5
330
139AA
100
AcDbEntity
  8
寸法
 62
     0
 48
50.0
370
    -2
100
AcDbLine
 10
7523.904397928898
 20
10326.9845259076
 30
0.0
 11
7523.904397928898
 21
10721.69693592639
 31
0.0
  0
LINE
  5
163D6
330
139AA
100
AcDbEntity
  8
寸法
 62
     0
 48
50.0
370
    -2
100
AcDbLine
 10
5863.904397928898
 20
10681.69693592639
 30
0.0
 11
7503.904397928898
 21
10681.69693592639
 31
0.0
  0
INSERT
  5
163D7
330
139AA
100
AcDbEntity
  8
寸法
 62
     0
 48
50.0
370
    -2
100
AcDbBlockReference
  2
_DOT
 10
5843.904397928898
 20
10681.69693592639
 30
0.0
 41
20.0
 42
20.0
 43
20.0
 50
180.0
  0
INSERT
  5
163D8
330
139AA
100
AcDbEntity
  8
寸法
 62
     0
 48
50.0
370
    -2
100
AcDbBlockReference
  2
_DOT
 10
7523.904397928898
 20
10681.69693592639
 30
0.0
 41
20.0
 42
20.0
 43
20.0
  0
MTEXT
  5
163D9
330
139AA
100
AcDbEntity
  8
寸法
 62
     7
 48
50.0
100
AcDbMText
 10
6683.904397928898
 20
10773.70874695001
 30
0.0
 40
120.0
 41
0.0
 71
     5
 72
     1
  1
\A1;4X420=1680
  7
STYLE1
 73
     1
 44
1.0
1001
ACAD
1000
MTEXTBEGIN
1070
    73
1070
     1
1070
    44
1040
1.0
1070
    74
1070
     0
1000
MTEXTEND
  0
POINT
  5
163DA
330
139AA
100
AcDbEntity
  8
DEFPOINTS
 62
     0
 48
50.0
100
AcDbPoint
 10
5843.904397928898
 20
10306.9845259076
 30
0.0
  0
POINT
  5
163DB
330
139AA
100
AcDbEntity
  8
DEFPOINTS
 62
     0
 48
50.0
100
AcDbPoint
 10
7523.904397928898
 20
10306.9845259076
 30
0.0
  0
POINT
  5
163DC
330
139AA
100
AcDbEntity
  8
DEFPOINTS
 62
     0
 48
50.0
100
AcDbPoint
 10
7523.904397928898
 20
10681.69693592639
 30
0.0
  0
ENDBLK
  5
139B5
330
139AA
100
AcDbEntity
  8
0
 48
50.0
100
AcDbBlockEnd
  0
BLOCK
  5
139C0
330
139B6
100
AcDbEntity
  8
0
 48
50.0
100
AcDbBlockBegin
  2
*D12
 70
     1
 10
0.0
 20
0.0
 30
0.0
  3
*D12
  1

  0
LINE
  5
15FB7
330
139B6
100
AcDbEntity
  8
寸法
 62
     0
 48
50.0
370
    -2
100
AcDbLine
 10
5733.904397928898
 20
10326.9845259076
 30
0.0
 11
5733.904397928898
 21
10721.69693592639
 31
0.0
  0
LINE
  5
15FB8
330
139B6
100
AcDbEntity
  8
寸法
 62
     0
 48
50.0
370
    -2
100
AcDbLine
 10
5843.904397928898
 20
10326.9845259076
 30
0.0
 11
5843.904397928898
 21
10721.69693592639
 31
0.0
  0
LINE
  5
15FB9
330
139B6
100
AcDbEntity
  8
寸法
 62
     0
 48
50.0
370
    -2
100
AcDbLine
 10
5753.904397928899
 20
10681.69693592639
 30
0.0
 11
5823.904397928898
 21
10681.69693592639
 31
0.0
  0
INSERT
  5
15FBA
330
139B6
100
AcDbEntity
  8
寸法
 62
     0
 48
50.0
370
    -2
100
AcDbBlockReference
  2
_DOT
 10
5733.904397928898
 20
10681.69693592639
 30
0.0
 41
20.0
 42
20.0
 43
20.0
 50
180.0
  0
INSERT
  5
15FBB
330
139B6
100
AcDbEntity
  8
寸法
 62
     0
 48
50.0
370
    -2
100
AcDbBlockReference
  2
_DOT
 10
5843.904397928898
 20
10681.69693592639
 30
0.0
 41
20.0
 42
20.0
 43
20.0
  0
MTEXT
  5
15FBC
330
139B6
100
AcDbEntity
  8
寸法
 62
     7
 48
50.0
100
AcDbMText
 10
5788.904397928899
 20
10773.69693592639
 30
0.0
 40
120.0
 41
0.0
 71
     5
 72
     1
  1
\A1;110
  7
STYLE1
 73
     1
 44
1.0
1001
ACAD
1000
MTEXTBEGIN
1070
    73
1070
     1
1070
    44
1040
1.0
1070
    74
1070
     0
1000
MTEXTEND
  0
POINT
  5
15FBD
330
139B6
100
AcDbEntity
  8
DEFPOINTS
 62
     0
 48
50.0
100
AcDbPoint
 10
5733.904397928898
 20
10306.9845259076
 30
0.0
  0
POINT
  5
15FBE
330
139B6
100
AcDbEntity
  8
DEFPOINTS
 62
     0
 48
50.0
100
AcDbPoint
 10
5843.904397928898
 20
10306.9845259076
 30
0.0
  0
POINT
  5
15FBF
330
139B6
100
AcDbEntity
  8
DEFPOINTS
 62
     0
 48
50.0
100
AcDbPoint
 10
5843.904397928898
 20
10681.69693592639
 30
0.0
  0
ENDBLK
  5
139C1
330
139B6
100
AcDbEntity
  8
0
 48
50.0
100
AcDbBlockEnd
  0
BLOCK
  5
13EF0
330
13EE5
100
AcDbEntity
  8
0
 48
50.0
100
AcDbBlockBegin
  2
*D13
 70
     1
 10
0.0
 20
0.0
 30
0.0
  3
*D13
  1

  0
LINE
  5
140EE
330
13EE5
100
AcDbEntity
  8
寸法
 62
     0
 48
50.0
370
    -2
100
AcDbLine
 10
10974.66309236366
 20
4662.410512972918
 30
0.0
 11
10358.72865325839
 21
4680.124663247248
 31
0.0
  0
LINE
  5
140EF
330
13EE5
100
AcDbEntity
  8
寸法
 62
     0
 48
50.0
370
    -2
100
AcDbLine
 10
10970.60963680704
 20
4521.468789207206
 30
0.0
 11
10354.67519770176
 21
4539.182939481536
 31
0.0
  0
LINE
  5
140F0
330
13EE5
100
AcDbEntity
  8
寸法
 62
     0
 48
50.0
370
    -2
100
AcDbLine
 10
10414.65039930419
 20
4537.458064776588
 30
0.0
 11
10418.70385486082
 21
4678.3997885423
 31
0.0
  0
LINE
  5
140F1
330
13EE5
100
AcDbEntity
  8
寸法
 62
     0
 48
50.0
370
    -2
100
AcDbLine
 10
10418.70385486082
 20
4678.3997885423
 30
0.0
 11
10429.0531030905
 21
5038.250998156886
 31
0.0
  0
INSERT
  5
140F2
330
13EE5
100
AcDbEntity
  8
寸法
 62
     0
 48
50.0
370
    -2
100
AcDbBlockReference
  2
_DOTSMALL
 10
10414.65039930419
 20
4537.458064776588
 30
0.0
 41
100.0
 42
100.0
 43
100.0
 50
268.3526390256378
  0
INSERT
  5
140F3
330
13EE5
100
AcDbEntity
  8
寸法
 62
     0
 48
50.0
370
    -2
100
AcDbBlockReference
  2
_DOTSMALL
 10
10418.70385486082
 20
4678.3997885423
 30
0.0
 41
100.0
 42
100.0
 43
100.0
 50
88.35263902563776
  0
MTEXT
  5
140F4
330
13EE5
100
AcDbEntity
  8
寸法
 62
     7
 48
50.0
100
AcDbMText
 10
10325.35720522573
 20
4911.179519193199
 30
0.0
 40
120.0
 41
0.0
 71
     5
 72
     1
  1
\A1;141
  7
STYLE1
 11
0.0287479117491237
 21
0.9995866933738488
 31
0.0
 73
     1
 44
1.0
1001
ACAD
1000
MTEXTBEGIN
1070
    73
1070
     1
1070
    44
1040
1.0
1070
    74
1070
     0
1000
MTEXTEND
  0
POINT
  5
140F5
330
13EE5
100
AcDbEntity
  8
DEFPOINTS
 62
     0
 48
50.0
100
AcDbPoint
 10
10994.65482623114
 20
4661.835554737936
 30
0.0
  0
POINT
  5
140F6
330
13EE5
100
AcDbEntity
  8
DEFPOINTS
 62
     0
 48
50.0
100
AcDbPoint
 10
10990.60137067451
 20
4520.893830972223
 30
0.0
  0
POINT
  5
140F7
330
13EE5
100
AcDbEntity
  8
DEFPOINTS
 62
     0
 48
50.0
100
AcDbPoint
 10
10414.65039930419
 20
4537.458064776588
 30
0.0
  0
ENDBLK
  5
13EF1
330
13EE5
100
AcDbEntity
  8
0
 48
50.0
100
AcDbBlockEnd
  0
BLOCK
  5
13EFD
330
13EF2
100
AcDbEntity
  8
0
 48
50.0
100
AcDbBlockBegin
  2
*D14
 70
     1
 10
0.0
 20
0.0
 30
0.0
  3
*D14
  1

  0
LINE
  5
140E4
330
13EF2
100
AcDbEntity
  8
寸法
 62
     0
 48
50.0
370
    -2
100
AcDbLine
 10
14085.25880607256
 20
4629.923485514911
 30
0.0
 11
14085.25880607256
 21
5121.770259482563
 31
0.0
  0
LINE
  5
140E5
330
13EF2
100
AcDbEntity
  8
寸法
 62
     0
 48
50.0
370
    -2
100
AcDbLine
 10
14165.25880607256
 20
4628.112805903259
 30
0.0
 11
14165.25880607256
 21
5121.770259482563
 31
0.0
  0
LINE
  5
140E6
330
13EF2
100
AcDbEntity
  8
寸法
 62
     0
 48
50.0
370
    -2
100
AcDbLine
 10
14085.25880607256
 20
5061.770259482562
 30
0.0
 11
14165.25880607256
 21
5061.770259482562
 31
0.0
  0
LINE
  5
140E7
330
13EF2
100
AcDbEntity
  8
寸法
 62
     0
 48
50.0
370
    -2
100
AcDbLine
 10
14165.25880607256
 20
5061.770259482562
 30
0.0
 11
14477.35329426154
 21
5061.770259482562
 31
0.0
  0
INSERT
  5
140E8
330
13EF2
100
AcDbEntity
  8
寸法
 62
     0
 48
50.0
370
    -2
100
AcDbBlockReference
  2
_DOTSMALL
 10
14085.25880607256
 20
5061.770259482562
 30
0.0
 41
100.0
 42
100.0
 43
100.0
 50
180.0
  0
INSERT
  5
140E9
330
13EF2
100
AcDbEntity
  8
寸法
 62
     0
 48
50.0
370
    -2
100
AcDbBlockReference
  2
_DOTSMALL
 10
14165.25880607256
 20
5061.770259482562
 30
0.0
 41
100.0
 42
100.0
 43
100.0
  0
MTEXT
  5
140EA
330
13EF2
100
AcDbEntity
  8
寸法
 62
     7
 48
50.0
100
AcDbMText
 10
14371.30605016705
 20
5161.770259482562
 30
0.0
 40
120.0
 41
0.0
 71
     5
 72
     1
  1
\A1;80
  7
STYLE1
 73
     1
 44
1.0
1001
ACAD
1000
MTEXTBEGIN
1070
    73
1070
     1
1070
    44
1040
1.0
1070
    74
1070
     0
1000
MTEXTEND
  0
POINT
  5
140EB
330
13EF2
100
AcDbEntity
  8
DEFPOINTS
 62
     0
 48
50.0
100
AcDbPoint
 10
14085.25880607256
 20
4609.923485514911
 30
0.0
  0
POINT
  5
140EC
330
13EF2
100
AcDbEntity
  8
DEFPOINTS
 62
     0
 48
50.0
100
AcDbPoint
 10
14165.25880607256
 20
4608.112805903259
 30
0.0
  0
POINT
  5
140ED
330
13EF2
100
AcDbEntity
  8
DEFPOINTS
 62
     0
 48
50.0
100
AcDbPoint
 10
14165.25880607256
 20
5061.770259482562
 30
0.0
  0
ENDBLK
  5
13EFE
330
13EF2
100
AcDbEntity
  8
0
 48
50.0
100
AcDbBlockEnd
  0
BLOCK
  5
13F09
330
13EFF
100
AcDbEntity
  8
0
 48
50.0
100
AcDbBlockBegin
  2
*D15
 70
     1
 10
0.0
 20
0.0
 30
0.0
  3
*D15
  1

  0
LINE
  5
140DB
330
13EFF
100
AcDbEntity
  8
寸法
 62
     0
 48
50.0
370
    -2
100
AcDbLine
 10
14165.25880607256
 20
4628.112805903258
 30
0.0
 11
14165.25880607256
 21
5351.883852268838
 31
0.0
  0
LINE
  5
140DC
330
13EFF
100
AcDbEntity
  8
寸法
 62
     0
 48
50.0
370
    -2
100
AcDbLine
 10
10975.25880607256
 20
4683.11280590326
 30
0.0
 11
10975.25880607256
 21
5351.883852268838
 31
0.0
  0
LINE
  5
140DD
330
13EFF
100
AcDbEntity
  8
寸法
 62
     0
 48
50.0
370
    -2
100
AcDbLine
 10
14165.25880607256
 20
5291.883852268838
 30
0.0
 11
10975.25880607256
 21
5291.883852268838
 31
0.0
  0
INSERT
  5
140DE
330
13EFF
100
AcDbEntity
  8
寸法
 62
     0
 48
50.0
370
    -2
100
AcDbBlockReference
  2
_DOTSMALL
 10
14165.25880607256
 20
5291.883852268838
 30
0.0
 41
100.0
 42
100.0
 43
100.0
  0
INSERT
  5
140DF
330
13EFF
100
AcDbEntity
  8
寸法
 62
     0
 48
50.0
370
    -2
100
AcDbBlockReference
  2
_DOTSMALL
 10
10975.25880607256
 20
5291.883852268838
 30
0.0
 41
100.0
 42
100.0
 43
100.0
 50
180.0
  0
MTEXT
  5
140E0
330
13EFF
100
AcDbEntity
  8
寸法
 62
     7
 48
50.0
100
AcDbMText
 10
12646.96461238209
 20
5391.883852268838
 30
0.0
 40
120.0
 41
0.0
 71
     5
 72
     1
  1
\A1;3190
  7
STYLE1
 73
     1
 44
1.0
1001
ACAD
1000
MTEXTBEGIN
1070
    73
1070
     1
1070
    44
1040
1.0
1070
    74
1070
     0
1000
MTEXTEND
  0
POINT
  5
140E1
330
13EFF
100
AcDbEntity
  8
DEFPOINTS
 62
     0
 48
50.0
100
AcDbPoint
 10
14165.25880607256
 20
4608.112805903258
 30
0.0
  0
POINT
  5
140E2
330
13EFF
100
AcDbEntity
  8
DEFPOINTS
 62
     0
 48
50.0
100
AcDbPoint
 10
10975.25880607256
 20
4663.112805903261
 30
0.0
  0
POINT
  5
140E3
330
13EFF
100
AcDbEntity
  8
DEFPOINTS
 62
     0
 48
50.0
100
AcDbPoint
 10
10975.25880607256
 20
5291.883852268838
 30
0.0
  0
ENDBLK
  5
13F0A
330
13EFF
100
AcDbEntity
  8
0
 48
50.0
100
AcDbBlockEnd
  0
BLOCK
  5
13F17
330
13F0B
100
AcDbEntity
  8
0
 48
50.0
100
AcDbBlockBegin
  2
*D16
 70
     1
 10
0.0
 20
0.0
 30
0.0
  3
*D16
  1

  0
LINE
  5
140D0
330
13F0B
100
AcDbEntity
  8
寸法
 62
     0
 48
50.0
370
    -2
100
AcDbLine
 10
11035.25880607256
 20
4679.114424026233
 30
0.0
 11
11035.25880607256
 21
5121.77025948256
 31
0.0
  0
LINE
  5
140D1
330
13F0B
100
AcDbEntity
  8
寸法
 62
     0
 48
50.0
370
    -2
100
AcDbLine
 10
10975.25880607256
 20
4683.11280590326
 30
0.0
 11
10975.25880607256
 21
5121.77025948256
 31
0.0
  0
LINE
  5
140D2
330
13F0B
100
AcDbEntity
  8
寸法
 62
     0
 48
50.0
370
    -2
100
AcDbLine
 10
11035.25880607256
 20
5061.77025948256
 30
0.0
 11
11135.25880607256
 21
5061.77025948256
 31
0.0
  0
LINE
  5
140D3
330
13F0B
100
AcDbEntity
  8
寸法
 62
     0
 48
50.0
370
    -2
100
AcDbLine
 10
10975.25880607256
 20
5061.77025948256
 30
0.0
 11
10555.98321552138
 21
5061.77025948256
 31
0.0
  0
LINE
  5
140D4
330
13F0B
100
AcDbEntity
  8
寸法
 62
     0
 48
50.0
370
    -2
100
AcDbLine
 10
11035.25880607256
 20
5061.77025948256
 30
0.0
 11
10975.25880607256
 21
5061.77025948256
 31
0.0
  0
INSERT
  5
140D5
330
13F0B
100
AcDbEntity
  8
寸法
 62
     0
 48
50.0
370
    -2
100
AcDbBlockReference
  2
_DOTSMALL
 10
11035.25880607256
 20
5061.77025948256
 30
0.0
 41
100.0
 42
100.0
 43
100.0
 50
180.0
  0
INSERT
  5
140D6
330
13F0B
100
AcDbEntity
  8
寸法
 62
     0
 48
50.0
370
    -2
100
AcDbBlockReference
  2
_DOTSMALL
 10
10975.25880607256
 20
5061.77025948256
 30
0.0
 41
100.0
 42
100.0
 43
100.0
  0
MTEXT
  5
140D7
330
13F0B
100
AcDbEntity
  8
寸法
 62
     7
 48
50.0
100
AcDbMText
 10
10665.62101079697
 20
5161.770259482561
 30
0.0
 40
120.0
 41
0.0
 71
     5
 72
     1
  1
\A1;60
  7
STYLE1
 73
     1
 44
1.0
1001
ACAD
1000
MTEXTBEGIN
1070
    73
1070
     1
1070
    44
1040
1.0
1070
    74
1070
     0
1000
MTEXTEND
  0
POINT
  5
140D8
330
13F0B
100
AcDbEntity
  8
DEFPOINTS
 62
     0
 48
50.0
100
AcDbPoint
 10
11035.25880607256
 20
4659.114424026233
 30
0.0
  0
POINT
  5
140D9
330
13F0B
100
AcDbEntity
  8
DEFPOINTS
 62
     0
 48
50.0
100
AcDbPoint
 10
10975.25880607256
 20
4663.112805903261
 30
0.0
  0
POINT
  5
140DA
330
13F0B
100
AcDbEntity
  8
DEFPOINTS
 62
     0
 48
50.0
100
AcDbPoint
 10
10975.25880607256
 20
5061.77025948256
 30
0.0
  0
ENDBLK
  5
13F18
330
13F0B
100
AcDbEntity
  8
0
 48
50.0
100
AcDbBlockEnd
  0
BLOCK
  5
13F23
330
13F19
100
AcDbEntity
  8
0
 48
50.0
100
AcDbBlockBegin
  2
*D17
 70
     1
 10
0.0
 20
0.0
 30
0.0
  3
*D17
  1

  0
LINE
  5
140C7
330
13F19
100
AcDbEntity
  8
寸法
 62
     0
 48
50.0
370
    -2
100
AcDbLine
 10
14085.25880607256
 20
4629.923485514911
 30
0.0
 11
14085.25880607256
 21
5121.770259482563
 31
0.0
  0
LINE
  5
140C8
330
13F19
100
AcDbEntity
  8
寸法
 62
     0
 48
50.0
370
    -2
100
AcDbLine
 10
11035.25880607256
 20
4679.114424026233
 30
0.0
 11
11035.25880607256
 21
5121.770259482563
 31
0.0
  0
LINE
  5
140C9
330
13F19
100
AcDbEntity
  8
寸法
 62
     0
 48
50.0
370
    -2
100
AcDbLine
 10
14085.25880607256
 20
5061.770259482562
 30
0.0
 11
11035.25880607256
 21
5061.770259482562
 31
0.0
  0
INSERT
  5
140CA
330
13F19
100
AcDbEntity
  8
寸法
 62
     0
 48
50.0
370
    -2
100
AcDbBlockReference
  2
_DOTSMALL
 10
14085.25880607256
 20
5061.770259482562
 30
0.0
 41
100.0
 42
100.0
 43
100.0
  0
INSERT
  5
140CB
330
13F19
100
AcDbEntity
  8
寸法
 62
     0
 48
50.0
370
    -2
100
AcDbBlockReference
  2
_DOTSMALL
 10
11035.25880607256
 20
5061.770259482562
 30
0.0
 41
100.0
 42
100.0
 43
100.0
 50
180.0
  0
MTEXT
  5
140CC
330
13F19
100
AcDbEntity
  8
寸法
 62
     7
 48
50.0
100
AcDbMText
 10
12605.31718063197
 20
5161.770259482562
 30
0.0
 40
120.0
 41
0.0
 71
     5
 72
     1
  1
\A1;柱外寸法3050
  7
STYLE1
 73
     1
 44
1.0
1001
ACAD
1000
MTEXTBEGIN
1070
    73
1070
     1
1070
    44
1040
1.0
1070
    74
1070
     0
1000
MTEXTEND
  0
POINT
  5
140CD
330
13F19
100
AcDbEntity
  8
DEFPOINTS
 62
     0
 48
50.0
100
AcDbPoint
 10
14085.25880607256
 20
4609.923485514911
 30
0.0
  0
POINT
  5
140CE
330
13F19
100
AcDbEntity
  8
DEFPOINTS
 62
     0
 48
50.0
100
AcDbPoint
 10
11035.25880607256
 20
4659.114424026233
 30
0.0
  0
POINT
  5
140CF
330
13F19
100
AcDbEntity
  8
DEFPOINTS
 62
     0
 48
50.0
100
AcDbPoint
 10
11035.25880607256
 20
5061.770259482562
 30
0.0
  0
ENDBLK
  5
13F24
330
13F19
100
AcDbEntity
  8
0
 48
50.0
100
AcDbBlockEnd
  0
BLOCK
  5
13F31
330
13F25
100
AcDbEntity
  8
0
 48
50.0
100
AcDbBlockBegin
  2
*D18
 70
     1
 10
0.0
 20
0.0
 30
0.0
  3
*D18
  1

  0
LINE
  5
140BC
330
13F25
100
AcDbEntity
  8
寸法
 62
     0
 48
50.0
370
    -2
100
AcDbLine
 10
11015.25880607256
 20
2338.112805903256
 30
0.0
 11
10131.5086768893
 21
2338.112805903256
 31
0.0
  0
LINE
  5
140BD
330
13F25
100
AcDbEntity
  8
寸法
 62
     0
 48
50.0
370
    -2
100
AcDbLine
 10
10938.25880607256
 20
2288.112805903252
 30
0.0
 11
10131.5086768893
 21
2288.112805903252
 31
0.0
  0
LINE
  5
140BE
330
13F25
100
AcDbEntity
  8
寸法
 62
     0
 48
50.0
370
    -2
100
AcDbLine
 10
10191.5086768893
 20
2338.112805903256
 30
0.0
 11
10191.5086768893
 21
2438.112805903256
 31
0.0
  0
LINE
  5
140BF
330
13F25
100
AcDbEntity
  8
寸法
 62
     0
 48
50.0
370
    -2
100
AcDbLine
 10
10191.5086768893
 20
2288.112805903252
 30
0.0
 11
10191.5086768893
 21
1876.018317714275
 31
0.0
  0
LINE
  5
140C0
330
13F25
100
AcDbEntity
  8
寸法
 62
     0
 48
50.0
370
    -2
100
AcDbLine
 10
10191.5086768893
 20
2338.112805903256
 30
0.0
 11
10191.5086768893
 21
2288.112805903252
 31
0.0
  0
INSERT
  5
140C1
330
13F25
100
AcDbEntity
  8
寸法
 62
     0
 48
50.0
370
    -2
100
AcDbBlockReference
  2
_DOTSMALL
 10
10191.5086768893
 20
2338.112805903256
 30
0.0
 41
100.0
 42
100.0
 43
100.0
 50
270.0
  0
INSERT
  5
140C2
330
13F25
100
AcDbEntity
  8
寸法
 62
     0
 48
50.0
370
    -2
100
AcDbBlockReference
  2
_DOTSMALL
 10
10191.5086768893
 20
2288.112805903252
 30
0.0
 41
100.0
 42
100.0
 43
100.0
 50
90.0
  0
MTEXT
  5
140C3
330
13F25
100
AcDbEntity
  8
寸法
 62
     7
 48
50.0
100
AcDbMText
 10
10091.5086768893
 20
1982.065561808765
 30
0.0
 40
120.0
 41
0.0
 71
     5
 72
     1
  1
\A1;50
  7
STYLE1
 11
0.0000000000000001
 21
1.0
 31
0.0
 73
     1
 44
1.0
1001
ACAD
1000
MTEXTBEGIN
1070
    73
1070
     1
1070
    44
1040
1.0
1070
    74
1070
     0
1000
MTEXTEND
  0
POINT
  5
140C4
330
13F25
100
AcDbEntity
  8
DEFPOINTS
 62
     0
 48
50.0
100
AcDbPoint
 10
11035.25880607256
 20
2338.112805903256
 30
0.0
  0
POINT
  5
140C5
330
13F25
100
AcDbEntity
  8
DEFPOINTS
 62
     0
 48
50.0
100
AcDbPoint
 10
10958.25880607256
 20
2288.112805903252
 30
0.0
  0
POINT
  5
140C6
330
13F25
100
AcDbEntity
  8
DEFPOINTS
 62
     0
 48
50.0
100
AcDbPoint
 10
10191.5086768893
 20
2288.112805903252
 30
0.0
  0
ENDBLK
  5
13F32
330
13F25
100
AcDbEntity
  8
0
 48
50.0
100
AcDbBlockEnd
  0
BLOCK
  5
13F4A
330
13F40
100
AcDbEntity
  8
0
 48
50.0
100
AcDbBlockBegin
  2
*D19
 70
     1
 10
0.0
 20
0.0
 30
0.0
  3
*D19
  1

  0
LINE
  5
140B3
330
13F40
100
AcDbEntity
  8
寸法
 62
     0
 48
50.0
370
    -2
100
AcDbLine
 10
14105.25880607256
 20
2288.112805903258
 30
0.0
 11
14850.18596404469
 21
2288.112805903258
 31
0.0
  0
LINE
  5
140B4
330
13F40
100
AcDbEntity
  8
寸法
 62
     0
 48
50.0
370
    -2
100
AcDbLine
 10
14185.25880607256
 20
4608.112805903258
 30
0.0
 11
14850.18596404469
 21
4608.112805903257
 31
0.0
  0
LINE
  5
140B5
330
13F40
100
AcDbEntity
  8
寸法
 62
     0
 48
50.0
370
    -2
100
AcDbLine
 10
14790.18596404469
 20
2288.112805903258
 30
0.0
 11
14790.18596404469
 21
4608.112805903257
 31
0.0
  0
INSERT
  5
140B6
330
13F40
100
AcDbEntity
  8
寸法
 62
     0
 48
50.0
370
    -2
100
AcDbBlockReference
  2
_DOTSMALL
 10
14790.18596404469
 20
2288.112805903258
 30
0.0
 41
100.0
 42
100.0
 43
100.0
 50
270.0
  0
INSERT
  5
140B7
330
13F40
100
AcDbEntity
  8
寸法
 62
     0
 48
50.0
370
    -2
100
AcDbBlockReference
  2
_DOTSMALL
 10
14790.18596404469
 20
4608.112805903257
 30
0.0
 41
100.0
 42
100.0
 43
100.0
 50
90.0
  0
MTEXT
  5
140B8
330
13F40
100
AcDbEntity
  8
寸法
 62
     7
 48
50.0
100
AcDbMText
 10
14690.17415302106
 20
3448.11280590326
 30
0.0
 40
120.0
 41
0.0
 71
     5
 72
     1
  1
\A1;2320
  7
STYLE1
 11
0.0000000000000001
 21
1.0
 31
0.0
 73
     1
 44
1.0
1001
ACAD
1000
MTEXTBEGIN
1070
    73
1070
     1
1070
    44
1040
1.0
1070
    74
1070
     0
1000
MTEXTEND
  0
POINT
  5
140B9
330
13F40
100
AcDbEntity
  8
DEFPOINTS
 62
     0
 48
50.0
100
AcDbPoint
 10
14085.25880607256
 20
2288.112805903258
 30
0.0
  0
POINT
  5
140BA
330
13F40
100
AcDbEntity
  8
DEFPOINTS
 62
     0
 48
50.0
100
AcDbPoint
 10
14165.25880607256
 20
4608.112805903258
 30
0.0
  0
POINT
  5
140BB
330
13F40
100
AcDbEntity
  8
DEFPOINTS
 62
     0
 48
50.0
100
AcDbPoint
 10
14790.18596404469
 20
4608.112805903257
 30
0.0
  0
ENDBLK
  5
13F4B
330
13F40
100
AcDbEntity
  8
0
 48
50.0
100
AcDbBlockEnd
  0
BLOCK
  5
13F56
330
13F4C
100
AcDbEntity
  8
0
 48
50.0
100
AcDbBlockBegin
  2
*D20
 70
     1
 10
0.0
 20
0.0
 30
0.0
  3
*D20
  1

  0
LINE
  5
140AA
330
13F4C
100
AcDbEntity
  8
寸法
 62
     0
 48
50.0
370
    -2
100
AcDbLine
 10
10938.25880607256
 20
2288.112805903252
 30
0.0
 11
9831.508676889303
 21
2288.112805903252
 31
0.0
  0
LINE
  5
140AB
330
13F4C
100
AcDbEntity
  8
寸法
 62
     0
 48
50.0
370
    -2
100
AcDbLine
 10
10955.25880607256
 20
4663.112805903256
 30
0.0
 11
9831.508676889304
 21
4663.112805903256
 31
0.0
  0
LINE
  5
140AC
330
13F4C
100
AcDbEntity
  8
寸法
 62
     0
 48
50.0
370
    -2
100
AcDbLine
 10
9891.508676889301
 20
2288.112805903252
 30
0.0
 11
9891.508676889303
 21
4663.112805903256
 31
0.0
  0
INSERT
  5
140AD
330
13F4C
100
AcDbEntity
  8
寸法
 62
     0
 48
50.0
370
    -2
100
AcDbBlockReference
  2
_DOTSMALL
 10
9891.508676889301
 20
2288.112805903252
 30
0.0
 41
100.0
 42
100.0
 43
100.0
 50
270.0
  0
INSERT
  5
140AE
330
13F4C
100
AcDbEntity
  8
寸法
 62
     0
 48
50.0
370
    -2
100
AcDbBlockReference
  2
_DOTSMALL
 10
9891.508676889303
 20
4663.112805903256
 30
0.0
 41
100.0
 42
100.0
 43
100.0
 50
90.0
  0
MTEXT
  5
140AF
330
13F4C
100
AcDbEntity
  8
寸法
 62
     7
 48
50.0
100
AcDbMText
 10
9791.496865865681
 20
3475.612805903256
 30
0.0
 40
120.0
 41
0.0
 71
     5
 72
     1
  1
\A1;2375
  7
STYLE1
 11
0.0000000000000001
 21
1.0
 31
0.0
 73
     1
 44
1.0
1001
ACAD
1000
MTEXTBEGIN
1070
    73
1070
     1
1070
    44
1040
1.0
1070
    74
1070
     0
1000
MTEXTEND
  0
POINT
  5
140B0
330
13F4C
100
AcDbEntity
  8
DEFPOINTS
 62
     0
 48
50.0
100
AcDbPoint
 10
10958.25880607256
 20
2288.112805903252
 30
0.0
  0
POINT
  5
140B1
330
13F4C
100
AcDbEntity
  8
DEFPOINTS
 62
     0
 48
50.0
100
AcDbPoint
 10
10975.25880607256
 20
4663.112805903256
 30
0.0
  0
POINT
  5
140B2
330
13F4C
100
AcDbEntity
  8
DEFPOINTS
 62
     0
 48
50.0
100
AcDbPoint
 10
9891.508676889303
 20
4663.112805903256
 30
0.0
  0
ENDBLK
  5
13F57
330
13F4C
100
AcDbEntity
  8
0
 48
50.0
100
AcDbBlockEnd
  0
BLOCK
  5
13F62
330
13F58
100
AcDbEntity
  8
0
 48
50.0
100
AcDbBlockBegin
  2
*D21
 70
     1
 10
0.0
 20
0.0
 30
0.0
  3
*D21
  1

  0
LINE
  5
140A1
330
13F58
100
AcDbEntity
  8
寸法
 62
     0
 48
50.0
370
    -2
100
AcDbLine
 10
11015.25880607256
 20
4428.112805903253
 30
0.0
 11
10131.5086768893
 21
4428.112805903253
 31
0.0
  0
LINE
  5
140A2
330
13F58
100
AcDbEntity
  8
寸法
 62
     0
 48
50.0
370
    -2
100
AcDbLine
 10
11015.25880607256
 20
2338.112805903252
 30
0.0
 11
10131.5086768893
 21
2338.112805903252
 31
0.0
  0
LINE
  5
140A3
330
13F58
100
AcDbEntity
  8
寸法
 62
     0
 48
50.0
370
    -2
100
AcDbLine
 10
10191.5086768893
 20
4428.112805903253
 30
0.0
 11
10191.5086768893
 21
2338.112805903252
 31
0.0
  0
INSERT
  5
140A4
330
13F58
100
AcDbEntity
  8
寸法
 62
     0
 48
50.0
370
    -2
100
AcDbBlockReference
  2
_DOTSMALL
 10
10191.5086768893
 20
4428.112805903253
 30
0.0
 41
100.0
 42
100.0
 43
100.0
 50
90.0
  0
INSERT
  5
140A5
330
13F58
100
AcDbEntity
  8
寸法
 62
     0
 48
50.0
370
    -2
100
AcDbBlockReference
  2
_DOTSMALL
 10
10191.5086768893
 20
2338.112805903252
 30
0.0
 41
100.0
 42
100.0
 43
100.0
 50
270.0
  0
MTEXT
  5
140A6
330
13F58
100
AcDbEntity
  8
寸法
 62
     7
 48
50.0
100
AcDbMText
 10
10091.49686586568
 20
3383.112805903254
 30
0.0
 40
120.0
 41
0.0
 71
     5
 72
     1
  1
\A1;2090
  7
STYLE1
 11
0.0000000000000001
 21
1.0
 31
0.0
 73
     1
 44
1.0
1001
ACAD
1000
MTEXTBEGIN
1070
    73
1070
     1
1070
    44
1040
1.0
1070
    74
1070
     0
1000
MTEXTEND
  0
POINT
  5
140A7
330
13F58
100
AcDbEntity
  8
DEFPOINTS
 62
     0
 48
50.0
100
AcDbPoint
 10
11035.25880607256
 20
4428.112805903253
 30
0.0
  0
POINT
  5
140A8
330
13F58
100
AcDbEntity
  8
DEFPOINTS
 62
     0
 48
50.0
100
AcDbPoint
 10
11035.25880607256
 20
2338.112805903252
 30
0.0
  0
POINT
  5
140A9
330
13F58
100
AcDbEntity
  8
DEFPOINTS
 62
     0
 48
50.0
100
AcDbPoint
 10
10191.5086768893
 20
2338.112805903252
 30
0.0
  0
ENDBLK
  5
13F63
330
13F58
100
AcDbEntity
  8
0
 48
50.0
100
AcDbBlockEnd
  0
BLOCK
  5
14079
330
1406F
100
AcDbEntity
  8
0
 48
50.0
100
AcDbBlockBegin
  2
*D22
 70
     1
 10
0.0
 20
0.0
 30
0.0
  3
*D22
  1

  0
LINE
  5
14098
330
1406F
100
AcDbEntity
  8
寸法
 62
     0
 48
50.0
370
    -2
100
AcDbLine
 10
10938.25880607256
 20
4379.112805903257
 30
0.0
 11
10450.35016467531
 21
4379.112805903257
 31
0.0
  0
LINE
  5
14099
330
1406F
100
AcDbEntity
  8
寸法
 62
     0
 48
50.0
370
    -2
100
AcDbLine
 10
10938.25880607256
 20
2354.112805903256
 30
0.0
 11
10450.3501646753
 21
2354.112805903256
 31
0.0
  0
LINE
  5
1409A
330
1406F
100
AcDbEntity
  8
寸法
 62
     0
 48
50.0
370
    -2
100
AcDbLine
 10
10490.35016467531
 20
4359.112805903256
 30
0.0
 11
10490.3501646753
 21
2374.112805903256
 31
0.0
  0
INSERT
  5
1409B
330
1406F
100
AcDbEntity
  8
寸法
 62
     0
 48
50.0
370
    -2
100
AcDbBlockReference
  2
_DOT
 10
10490.35016467531
 20
4379.112805903257
 30
0.0
 41
20.0
 42
20.0
 43
20.0
 50
90.0
  0
INSERT
  5
1409C
330
1406F
100
AcDbEntity
  8
寸法
 62
     0
 48
50.0
370
    -2
100
AcDbBlockReference
  2
_DOT
 10
10490.3501646753
 20
2354.112805903256
 30
0.0
 41
20.0
 42
20.0
 43
20.0
 50
270.0
  0
MTEXT
  5
1409D
330
1406F
100
AcDbEntity
  8
寸法
 62
     7
 48
50.0
100
AcDbMText
 10
10398.33835365168
 20
3366.612805903259
 30
0.0
 40
120.0
 41
0.0
 71
     5
 72
     1
  1
\A1;有効開口部高サ2025
  7
STYLE1
 11
0.0000000000000001
 21
1.0
 31
0.0
 73
     1
 44
1.0
1001
ACAD
1000
MTEXTBEGIN
1070
    73
1070
     1
1070
    44
1040
1.0
1070
    74
1070
     0
1000
MTEXTEND
  0
POINT
  5
1409E
330
1406F
100
AcDbEntity
  8
DEFPOINTS
 62
     0
 48
50.0
100
AcDbPoint
 10
10958.25880607256
 20
4379.112805903257
 30
0.0
  0
POINT
  5
1409F
330
1406F
100
AcDbEntity
  8
DEFPOINTS
 62
     0
 48
50.0
100
AcDbPoint
 10
10958.25880607256
 20
2354.112805903256
 30
0.0
  0
POINT
  5
140A0
330
1406F
100
AcDbEntity
  8
DEFPOINTS
 62
     0
 48
50.0
100
AcDbPoint
 10
10490.3501646753
 20
2354.112805903256
 30
0.0
  0
ENDBLK
  5
1407A
330
1406F
100
AcDbEntity
  8
0
 48
50.0
100
AcDbBlockEnd
  0
BLOCK
  5
14138
330
14137
100
AcDbEntity
  8
0
100
AcDbBlockBegin
  2
_OPEN
 70
     0
 10
0.0
 20
0.0
 30
0.0
  3
_OPEN
  1

  0
LINE
  5
14139
330
14137
100
AcDbEntity
  8
0
  6
ByBlock
 62
     0
100
AcDbLine
 10
-1.0
 20
0.1666666666666666
 30
0.0
 11
0.0
 21
0.0
 31
0.0
  0
LINE
  5
1413A
330
14137
100
AcDbEntity
  8
0
  6
ByBlock
 62
     0
100
AcDbLine
 10
0.0
 20
0.0
 30
0.0
 11
-1.0
 21
-0.1666666666666666
 31
0.0
  0
LINE
  5
1413B
330
14137
100
AcDbEntity
  8
0
  6
ByBlock
 62
     0
100
AcDbLine
 10
0.0
 20
0.0
 30
0.0
 11
-1.0
 21
0.0
 31
0.0
  0
ENDBLK
  5
1413C
330
14137
100
AcDbEntity
  8
0
100
AcDbBlockEnd
  0
BLOCK
  5
15D83
330
15D77
100
AcDbEntity
  8
0
 48
50.0
100
AcDbBlockBegin
  2
*D24
 70
     1
 10
0.0
 20
0.0
 30
0.0
  3
*D24
  1

  0
LINE
  5
1633F
330
15D77
100
AcDbEntity
  8
寸法
 62
     0
 48
50.0
370
    -2
100
AcDbLine
 10
3978.904397928899
 20
7256.984525907596
 30
0.0
 11
3700.153023599284
 21
7256.984525907596
 31
0.0
  0
LINE
  5
16340
330
15D77
100
AcDbEntity
  8
寸法
 62
     0
 48
50.0
370
    -2
100
AcDbLine
 10
4006.904397928899
 20
7181.984525907563
 30
0.0
 11
3700.153023599284
 21
7181.984525907563
 31
0.0
  0
LINE
  5
16341
330
15D77
100
AcDbEntity
  8
寸法
 62
     0
 48
50.0
370
    -2
100
AcDbLine
 10
3740.153023599285
 20
7276.984525907595
 30
0.0
 11
3740.153023599285
 21
7296.984525907595
 31
0.0
  0
LINE
  5
16342
330
15D77
100
AcDbEntity
  8
寸法
 62
     0
 48
50.0
370
    -2
100
AcDbLine
 10
3740.153023599285
 20
7161.984525907563
 30
0.0
 11
3740.153023599285
 21
6924.248014125137
 31
0.0
  0
LINE
  5
16343
330
15D77
100
AcDbEntity
  8
寸法
 62
     0
 48
50.0
370
    -2
100
AcDbLine
 10
3740.153023599285
 20
7256.984525907596
 30
0.0
 11
3740.153023599285
 21
7181.984525907563
 31
0.0
  0
INSERT
  5
16344
330
15D77
100
AcDbEntity
  8
寸法
 62
     0
 48
50.0
370
    -2
100
AcDbBlockReference
  2
_DOT
 10
3740.153023599285
 20
7256.984525907596
 30
0.0
 41
20.0
 42
20.0
 43
20.0
 50
270.0
  0
INSERT
  5
16345
330
15D77
100
AcDbEntity
  8
寸法
 62
     0
 48
50.0
370
    -2
100
AcDbBlockReference
  2
_DOT
 10
3740.153023599285
 20
7181.984525907563
 30
0.0
 41
20.0
 42
20.0
 43
20.0
 50
90.0
  0
MTEXT
  5
16346
330
15D77
100
AcDbEntity
  8
寸法
 62
     7
 48
50.0
100
AcDbMText
 10
3648.153023599284
 20
7024.733295499377
 30
0.0
 40
120.0
 41
0.0
 71
     5
 72
     1
  1
\A1;75
  7
STYLE1
 11
0.0000000000000001
 21
1.0
 31
0.0
 73
     1
 44
1.0
1001
ACAD
1000
MTEXTBEGIN
1070
    73
1070
     1
1070
    44
1040
1.0
1070
    74
1070
     0
1000
MTEXTEND
  0
POINT
  5
16347
330
15D77
100
AcDbEntity
  8
DEFPOINTS
 62
     0
 48
50.0
100
AcDbPoint
 10
3998.904397928898
 20
7256.984525907596
 30
0.0
  0
POINT
  5
16348
330
15D77
100
AcDbEntity
  8
DEFPOINTS
 62
     0
 48
50.0
100
AcDbPoint
 10
4026.904397928898
 20
7181.984525907563
 30
0.0
  0
POINT
  5
16349
330
15D77
100
AcDbEntity
  8
DEFPOINTS
 62
     0
 48
50.0
100
AcDbPoint
 10
3740.153023599285
 20
7181.984525907563
 30
0.0
  0
ENDBLK
  5
15D84
330
15D77
100
AcDbEntity
  8
0
 48
50.0
100
AcDbBlockEnd
  0
BLOCK
  5
15DBF
330
15DB5
100
AcDbEntity
  8
0
 48
50.0
100
AcDbBlockBegin
  2
*D25
 70
     1
 10
0.0
 20
0.0
 30
0.0
  3
*D25
  1

  0
LINE
  5
163AE
330
15DB5
100
AcDbEntity
  8
寸法
 62
     0
 48
50.0
370
    -2
100
AcDbLine
 10
5788.904397928899
 20
7291.984525907593
 30
0.0
 11
5788.904397928899
 21
5938.935946353275
 31
0.0
  0
LINE
  5
163AF
330
15DB5
100
AcDbEntity
  8
寸法
 62
     0
 48
50.0
370
    -2
100
AcDbLine
 10
7578.904397928899
 20
7236.984525907597
 30
0.0
 11
7578.904397928899
 21
5938.935946353275
 31
0.0
  0
LINE
  5
163B0
330
15DB5
100
AcDbEntity
  8
寸法
 62
     0
 48
50.0
370
    -2
100
AcDbLine
 10
5808.904397928898
 20
5978.935946353274
 30
0.0
 11
7558.904397928898
 21
5978.935946353274
 31
0.0
  0
INSERT
  5
163B1
330
15DB5
100
AcDbEntity
  8
寸法
 62
     0
 48
50.0
370
    -2
100
AcDbBlockReference
  2
_DOT
 10
5788.904397928899
 20
5978.935946353274
 30
0.0
 41
20.0
 42
20.0
 43
20.0
 50
180.0
  0
INSERT
  5
163B2
330
15DB5
100
AcDbEntity
  8
寸法
 62
     0
 48
50.0
370
    -2
100
AcDbBlockReference
  2
_DOT
 10
7578.904397928899
 20
5978.935946353274
 30
0.0
 41
20.0
 42
20.0
 43
20.0
  0
MTEXT
  5
163B3
330
15DB5
100
AcDbEntity
  8
寸法
 62
     7
 48
50.0
100
AcDbMText
 10
6683.904397928898
 20
6070.935946353275
 30
0.0
 40
120.0
 41
0.0
 71
     5
 72
     1
  1
\A1;1790
  7
STYLE1
 73
     1
 44
1.0
1001
ACAD
1000
MTEXTBEGIN
1070
    73
1070
     1
1070
    44
1040
1.0
1070
    74
1070
     0
1000
MTEXTEND
  0
POINT
  5
163B4
330
15DB5
100
AcDbEntity
  8
DEFPOINTS
 62
     0
 48
50.0
100
AcDbPoint
 10
5788.904397928899
 20
7311.984525907591
 30
0.0
  0
POINT
  5
163B5
330
15DB5
100
AcDbEntity
  8
DEFPOINTS
 62
     0
 48
50.0
100
AcDbPoint
 10
7578.904397928899
 20
7256.984525907596
 30
0.0
  0
POINT
  5
163B6
330
15DB5
100
AcDbEntity
  8
DEFPOINTS
 62
     0
 48
50.0
100
AcDbPoint
 10
7578.904397928899
 20
5978.935946353274
 30
0.0
  0
ENDBLK
  5
15DC0
330
15DB5
100
AcDbEntity
  8
0
 48
50.0
100
AcDbBlockEnd
  0
BLOCK
  5
15DD9
330
15DCF
100
AcDbEntity
  8
0
 48
50.0
100
AcDbBlockBegin
  2
*D26
 70
     1
 10
0.0
 20
0.0
 30
0.0
  3
*D26
  1

  0
LINE
  5
16690
330
15DCF
100
AcDbEntity
  8
寸法
 62
     0
 48
50.0
370
    -2
100
AcDbLine
 10
3998.904397928898
 20
7236.984525907596
 30
0.0
 11
3998.904397928898
 21
5938.935946353275
 31
0.0
  0
LINE
  5
16691
330
15DCF
100
AcDbEntity
  8
寸法
 62
     0
 48
50.0
370
    -2
100
AcDbLine
 10
5788.904397928899
 20
7291.984525907595
 30
0.0
 11
5788.904397928899
 21
5938.935946353275
 31
0.0
  0
LINE
  5
16692
330
15DCF
100
AcDbEntity
  8
寸法
 62
     0
 48
50.0
370
    -2
100
AcDbLine
 10
4018.904397928898
 20
5978.935946353274
 30
0.0
 11
5768.904397928898
 21
5978.935946353274
 31
0.0
  0
INSERT
  5
16693
330
15DCF
100
AcDbEntity
  8
寸法
 62
     0
 48
50.0
370
    -2
100
AcDbBlockReference
  2
_DOT
 10
3998.904397928898
 20
5978.935946353274
 30
0.0
 41
20.0
 42
20.0
 43
20.0
 50
180.0
  0
INSERT
  5
16694
330
15DCF
100
AcDbEntity
  8
寸法
 62
     0
 48
50.0
370
    -2
100
AcDbBlockReference
  2
_DOT
 10
5788.904397928899
 20
5978.935946353274
 30
0.0
 41
20.0
 42
20.0
 43
20.0
  0
MTEXT
  5
16695
330
15DCF
100
AcDbEntity
  8
寸法
 62
     7
 48
50.0
100
AcDbMText
 10
4893.904397928898
 20
6070.935946353275
 30
0.0
 40
120.0
 41
0.0
 71
     5
 72
     1
  1
\A1;1790
  7
STYLE1
 73
     1
 44
1.0
1001
ACAD
1000
MTEXTBEGIN
1070
    73
1070
     1
1070
    44
1040
1.0
1070
    74
1070
     0
1000
MTEXTEND
  0
POINT
  5
16696
330
15DCF
100
AcDbEntity
  8
DEFPOINTS
 62
     0
 48
50.0
100
AcDbPoint
 10
3998.904397928898
 20
7256.984525907596
 30
0.0
  0
POINT
  5
16697
330
15DCF
100
AcDbEntity
  8
DEFPOINTS
 62
     0
 48
50.0
100
AcDbPoint
 10
5788.904397928899
 20
7311.984525907596
 30
0.0
  0
POINT
  5
16698
330
15DCF
100
AcDbEntity
  8
DEFPOINTS
 62
     0
 48
50.0
100
AcDbPoint
 10
5788.904397928899
 20
5978.935946353274
 30
0.0
  0
ENDBLK
  5
15DDA
330
15DCF
100
AcDbEntity
  8
0
 48
50.0
100
AcDbBlockEnd
  0
BLOCK
  5
16264
330
1625A
100
AcDbEntity
  8
0
 48
50.0
100
AcDbBlockBegin
  2
*D27
 70
     1
 10
0.0
 20
0.0
 30
0.0
  3
*D27
  1

  0
LINE
  5
1631B
330
1625A
100
AcDbEntity
  8
寸法
 62
     0
 48
50.0
370
    -2
100
AcDbLine
 10
7553.056597808627
 20
4683.112805903258
 30
0.0
 11
7553.056597808627
 21
4935.6543911615
 31
0.0
  0
LINE
  5
1631C
330
1625A
100
AcDbEntity
  8
寸法
 62
     0
 48
50.0
370
    -2
100
AcDbLine
 10
3973.056597808622
 20
4683.112805903266
 30
0.0
 11
3973.056597808622
 21
4935.6543911615
 31
0.0
  0
LINE
  5
1631D
330
1625A
100
AcDbEntity
  8
寸法
 62
     0
 48
50.0
370
    -2
100
AcDbLine
 10
7553.056597808627
 20
4875.654391161501
 30
0.0
 11
3973.056597808622
 21
4875.654391161501
 31
0.0
  0
INSERT
  5
1631E
330
1625A
100
AcDbEntity
  8
寸法
 62
     0
 48
50.0
370
    -2
100
AcDbBlockReference
  2
_DOTSMALL
 10
7553.056597808627
 20
4875.654391161501
 30
0.0
 41
100.0
 42
100.0
 43
100.0
  0
INSERT
  5
1631F
330
1625A
100
AcDbEntity
  8
寸法
 62
     0
 48
50.0
370
    -2
100
AcDbBlockReference
  2
_DOTSMALL
 10
3973.056597808622
 20
4875.654391161501
 30
0.0
 41
100.0
 42
100.0
 43
100.0
 50
180.0
  0
MTEXT
  5
16320
330
1625A
100
AcDbEntity
  8
寸法
 62
     7
 48
50.0
100
AcDbMText
 10
5763.056597808623
 20
4975.654391161501
 30
0.0
 40
120.0
 41
0.0
 71
     5
 72
     1
  1
\A1;柱外寸法3580
  7
STYLE1
 73
     1
 44
1.0
1001
ACAD
1000
MTEXTBEGIN
1070
    73
1070
     1
1070
    44
1040
1.0
1070
    74
1070
     0
1000
MTEXTEND
  0
POINT
  5
16321
330
1625A
100
AcDbEntity
  8
DEFPOINTS
 62
     0
 48
50.0
100
AcDbPoint
 10
7553.056597808627
 20
4663.112805903258
 30
0.0
  0
POINT
  5
16322
330
1625A
100
AcDbEntity
  8
DEFPOINTS
 62
     0
 48
50.0
100
AcDbPoint
 10
3973.056597808622
 20
4663.112805903265
 30
0.0
  0
POINT
  5
16323
330
1625A
100
AcDbEntity
  8
DEFPOINTS
 62
     0
 48
50.0
100
AcDbPoint
 10
3973.056597808622
 20
4875.654391161501
 30
0.0
  0
ENDBLK
  5
16265
330
1625A
100
AcDbEntity
  8
0
 48
50.0
100
AcDbBlockEnd
  0
BLOCK
  5
16272
330
16266
100
AcDbEntity
  8
0
 48
50.0
100
AcDbBlockBegin
  2
*D28
 70
     1
 10
0.0
 20
0.0
 30
0.0
  3
*D28
  1

  0
LINE
  5
16310
330
16266
100
AcDbEntity
  8
寸法
 62
     0
 48
50.0
370
    -2
100
AcDbLine
 10
7603.056597808627
 20
4683.112805903258
 30
0.0
 11
7603.056597808627
 21
4935.654391161499
 31
0.0
  0
LINE
  5
16311
330
16266
100
AcDbEntity
  8
寸法
 62
     0
 48
50.0
370
    -2
100
AcDbLine
 10
7553.056597808627
 20
4683.11280590326
 30
0.0
 11
7553.056597808627
 21
4935.654391161499
 31
0.0
  0
LINE
  5
16312
330
16266
100
AcDbEntity
  8
寸法
 62
     0
 48
50.0
370
    -2
100
AcDbLine
 10
7553.056597808627
 20
4875.654391161499
 30
0.0
 11
7453.056597808627
 21
4875.654391161499
 31
0.0
  0
LINE
  5
16313
330
16266
100
AcDbEntity
  8
寸法
 62
     0
 48
50.0
370
    -2
100
AcDbLine
 10
7603.056597808627
 20
4875.654391161499
 30
0.0
 11
8015.151085997603
 21
4875.654391161499
 31
0.0
  0
LINE
  5
16314
330
16266
100
AcDbEntity
  8
寸法
 62
     0
 48
50.0
370
    -2
100
AcDbLine
 10
7553.056597808627
 20
4875.654391161499
 30
0.0
 11
7603.056597808627
 21
4875.654391161499
 31
0.0
  0
INSERT
  5
16315
330
16266
100
AcDbEntity
  8
寸法
 62
     0
 48
50.0
370
    -2
100
AcDbBlockReference
  2
_DOTSMALL
 10
7553.056597808627
 20
4875.654391161499
 30
0.0
 41
100.0
 42
100.0
 43
100.0
  0
INSERT
  5
16316
330
16266
100
AcDbEntity
  8
寸法
 62
     0
 48
50.0
370
    -2
100
AcDbBlockReference
  2
_DOTSMALL
 10
7603.056597808627
 20
4875.654391161499
 30
0.0
 41
100.0
 42
100.0
 43
100.0
 50
180.0
  0
MTEXT
  5
16317
330
16266
100
AcDbEntity
  8
寸法
 62
     7
 48
50.0
100
AcDbMText
 10
7909.103841903116
 20
4975.654391161499
 30
0.0
 40
120.0
 41
0.0
 71
     5
 72
     1
  1
\A1;50
  7
STYLE1
 73
     1
 44
1.0
1001
ACAD
1000
MTEXTBEGIN
1070
    73
1070
     1
1070
    44
1040
1.0
1070
    74
1070
     0
1000
MTEXTEND
  0
POINT
  5
16318
330
16266
100
AcDbEntity
  8
DEFPOINTS
 62
     0
 48
50.0
100
AcDbPoint
 10
7603.056597808627
 20
4663.112805903258
 30
0.0
  0
POINT
  5
16319
330
16266
100
AcDbEntity
  8
DEFPOINTS
 62
     0
 48
50.0
100
AcDbPoint
 10
7553.056597808627
 20
4663.112805903259
 30
0.0
  0
POINT
  5
1631A
330
16266
100
AcDbEntity
  8
DEFPOINTS
 62
     0
 48
50.0
100
AcDbPoint
 10
7553.056597808627
 20
4875.654391161499
 30
0.0
  0
ENDBLK
  5
16273
330
16266
100
AcDbEntity
  8
0
 48
50.0
100
AcDbBlockEnd
  0
BLOCK
  5
1627E
330
16274
100
AcDbEntity
  8
0
 48
50.0
100
AcDbBlockBegin
  2
*D29
 70
     1
 10
0.0
 20
0.0
 30
0.0
  3
*D29
  1

  0
LINE
  5
16307
330
16274
100
AcDbEntity
  8
寸法
 62
     0
 48
50.0
370
    -2
100
AcDbLine
 10
3923.056597808622
 20
4683.112805903263
 30
0.0
 11
3923.056597808622
 21
5156.55969163525
 31
0.0
  0
LINE
  5
16308
330
16274
100
AcDbEntity
  8
寸法
 62
     0
 48
50.0
370
    -2
100
AcDbLine
 10
7603.056597808627
 20
4683.112805903258
 30
0.0
 11
7603.056597808627
 21
5156.55969163525
 31
0.0
  0
LINE
  5
16309
330
16274
100
AcDbEntity
  8
寸法
 62
     0
 48
50.0
370
    -2
100
AcDbLine
 10
3923.056597808622
 20
5096.559691635249
 30
0.0
 11
7603.056597808627
 21
5096.559691635249
 31
0.0
  0
INSERT
  5
1630A
330
16274
100
AcDbEntity
  8
寸法
 62
     0
 48
50.0
370
    -2
100
AcDbBlockReference
  2
_DOTSMALL
 10
3923.056597808622
 20
5096.559691635249
 30
0.0
 41
100.0
 42
100.0
 43
100.0
 50
180.0
  0
INSERT
  5
1630B
330
16274
100
AcDbEntity
  8
寸法
 62
     0
 48
50.0
370
    -2
100
AcDbBlockReference
  2
_DOTSMALL
 10
7603.056597808627
 20
5096.559691635249
 30
0.0
 41
100.0
 42
100.0
 43
100.0
  0
MTEXT
  5
1630C
330
16274
100
AcDbEntity
  8
寸法
 62
     7
 48
50.0
100
AcDbMText
 10
5763.056597808623
 20
5196.55969163525
 30
0.0
 40
120.0
 41
0.0
 71
     5
 72
     1
  1
\A1;3680
  7
STYLE1
 73
     1
 44
1.0
1001
ACAD
1000
MTEXTBEGIN
1070
    73
1070
     1
1070
    44
1040
1.0
1070
    74
1070
     0
1000
MTEXTEND
  0
POINT
  5
1630D
330
16274
100
AcDbEntity
  8
DEFPOINTS
 62
     0
 48
50.0
100
AcDbPoint
 10
3923.056597808622
 20
4663.112805903263
 30
0.0
  0
POINT
  5
1630E
330
16274
100
AcDbEntity
  8
DEFPOINTS
 62
     0
 48
50.0
100
AcDbPoint
 10
7603.056597808627
 20
4663.112805903258
 30
0.0
  0
POINT
  5
1630F
330
16274
100
AcDbEntity
  8
DEFPOINTS
 62
     0
 48
50.0
100
AcDbPoint
 10
7603.056597808627
 20
5096.559691635249
 30
0.0
  0
ENDBLK
  5
1627F
330
16274
100
AcDbEntity
  8
0
 48
50.0
100
AcDbBlockEnd
  0
BLOCK
  5
1628C
330
16280
100
AcDbEntity
  8
0
 48
50.0
100
AcDbBlockBegin
  2
*D30
 70
     1
 10
0.0
 20
0.0
 30
0.0
  3
*D30
  1

  0
LINE
  5
162FC
330
16280
100
AcDbEntity
  8
寸法
 62
     0
 48
50.0
370
    -2
100
AcDbLine
 10
3973.056597808622
 20
4683.112805903266
 30
0.0
 11
3973.056597808622
 21
4935.654391161502
 31
0.0
  0
LINE
  5
162FD
330
16280
100
AcDbEntity
  8
寸法
 62
     0
 48
50.0
370
    -2
100
AcDbLine
 10
3923.056597808622
 20
4683.112805903263
 30
0.0
 11
3923.056597808622
 21
4935.654391161502
 31
0.0
  0
LINE
  5
162FE
330
16280
100
AcDbEntity
  8
寸法
 62
     0
 48
50.0
370
    -2
100
AcDbLine
 10
3973.056597808622
 20
4875.654391161503
 30
0.0
 11
4073.056597808622
 21
4875.654391161503
 31
0.0
  0
LINE
  5
162FF
330
16280
100
AcDbEntity
  8
寸法
 62
     0
 48
50.0
370
    -2
100
AcDbLine
 10
3923.056597808622
 20
4875.654391161503
 30
0.0
 11
3510.962109619646
 21
4875.654391161503
 31
0.0
  0
LINE
  5
16300
330
16280
100
AcDbEntity
  8
寸法
 62
     0
 48
50.0
370
    -2
100
AcDbLine
 10
3973.056597808622
 20
4875.654391161503
 30
0.0
 11
3923.056597808622
 21
4875.654391161503
 31
0.0
  0
INSERT
  5
16301
330
16280
100
AcDbEntity
  8
寸法
 62
     0
 48
50.0
370
    -2
100
AcDbBlockReference
  2
_DOTSMALL
 10
3973.056597808622
 20
4875.654391161503
 30
0.0
 41
100.0
 42
100.0
 43
100.0
 50
180.0
  0
INSERT
  5
16302
330
16280
100
AcDbEntity
  8
寸法
 62
     0
 48
50.0
370
    -2
100
AcDbBlockReference
  2
_DOTSMALL
 10
3923.056597808622
 20
4875.654391161503
 30
0.0
 41
100.0
 42
100.0
 43
100.0
  0
MTEXT
  5
16303
330
16280
100
AcDbEntity
  8
寸法
 62
     7
 48
50.0
100
AcDbMText
 10
3617.009353714134
 20
4975.654391161502
 30
0.0
 40
120.0
 41
0.0
 71
     5
 72
     1
  1
\A1;50
  7
STYLE1
 73
     1
 44
1.0
1001
ACAD
1000
MTEXTBEGIN
1070
    73
1070
     1
1070
    44
1040
1.0
1070
    74
1070
     0
1000
MTEXTEND
  0
POINT
  5
16304
330
16280
100
AcDbEntity
  8
DEFPOINTS
 62
     0
 48
50.0
100
AcDbPoint
 10
3973.056597808622
 20
4663.112805903265
 30
0.0
  0
POINT
  5
16305
330
16280
100
AcDbEntity
  8
DEFPOINTS
 62
     0
 48
50.0
100
AcDbPoint
 10
3923.056597808622
 20
4663.112805903263
 30
0.0
  0
POINT
  5
16306
330
16280
100
AcDbEntity
  8
DEFPOINTS
 62
     0
 48
50.0
100
AcDbPoint
 10
3923.056597808622
 20
4875.654391161503
 30
0.0
  0
ENDBLK
  5
1628D
330
16280
100
AcDbEntity
  8
0
 48
50.0
100
AcDbBlockEnd
  0
BLOCK
  5
16623
330
16619
100
AcDbEntity
  8
0
 48
50.0
100
AcDbBlockBegin
  2
*D31
 70
     1
 10
0.0
 20
0.0
 30
0.0
  3
*D31
  1

  0
LINE
  5
1667B
330
16619
100
AcDbEntity
  8
寸法
 62
     0
 48
50.0
370
    -2
100
AcDbLine
 10
4065.904397928898
 20
7159.984525907593
 30
0.0
 11
4065.904397928898
 21
6555.350239691186
 31
0.0
  0
LINE
  5
1667C
330
16619
100
AcDbEntity
  8
寸法
 62
     0
 48
50.0
370
    -2
100
AcDbLine
 10
5015.904397928898
 20
7159.984525907593
 30
0.0
 11
5015.904397928898
 21
6555.350239691186
 31
0.0
  0
LINE
  5
1667D
330
16619
100
AcDbEntity
  8
寸法
 62
     0
 48
50.0
370
    -2
100
AcDbLine
 10
4065.904397928898
 20
6615.350239691186
 30
0.0
 11
5015.904397928898
 21
6615.350239691186
 31
0.0
  0
INSERT
  5
1667E
330
16619
100
AcDbEntity
  8
寸法
 62
     0
 48
50.0
370
    -2
100
AcDbBlockReference
  2
_DOTSMALL
 10
4065.904397928898
 20
6615.350239691186
 30
0.0
 41
100.0
 42
100.0
 43
100.0
 50
180.0
  0
INSERT
  5
1667F
330
16619
100
AcDbEntity
  8
寸法
 62
     0
 48
50.0
370
    -2
100
AcDbBlockReference
  2
_DOTSMALL
 10
5015.904397928898
 20
6615.350239691186
 30
0.0
 41
100.0
 42
100.0
 43
100.0
  0
MTEXT
  5
16680
330
16619
100
AcDbEntity
  8
寸法
 62
     7
 48
50.0
100
AcDbMText
 10
4540.904397928898
 20
6815.350239691186
 30
0.0
 40
120.0
 41
0.0
 71
     5
 72
     1
  1
\A1;有効開口部間口\P950
  7
STYLE1
 73
     1
 44
1.0
1001
ACAD
1000
MTEXTBEGIN
1070
    73
1070
     1
1070
    44
1040
1.0
1070
    74
1070
     0
1000
MTEXTEND
  0
POINT
  5
16681
330
16619
100
AcDbEntity
  8
DEFPOINTS
 62
     0
 48
50.0
100
AcDbPoint
 10
4065.904397928898
 20
7179.984525907594
 30
0.0
  0
POINT
  5
16682
330
16619
100
AcDbEntity
  8
DEFPOINTS
 62
     0
 48
50.0
100
AcDbPoint
 10
5015.904397928898
 20
7179.984525907594
 30
0.0
  0
POINT
  5
16683
330
16619
100
AcDbEntity
  8
DEFPOINTS
 62
     0
 48
50.0
100
AcDbPoint
 10
5015.904397928898
 20
6615.350239691186
 30
0.0
  0
ENDBLK
  5
16624
330
16619
100
AcDbEntity
  8
0
 48
50.0
100
AcDbBlockEnd
  0
BLOCK
  5
1663D
330
16633
100
AcDbEntity
  8
0
 48
50.0
100
AcDbBlockBegin
  2
*D32
 70
     1
 10
0.0
 20
0.0
 30
0.0
  3
*D32
  1

  0
LINE
  5
16667
330
16633
100
AcDbEntity
  8
寸法
 62
     0
 48
50.0
370
    -2
100
AcDbLine
 10
4026.904397928897
 20
7159.984525907593
 30
0.0
 11
4026.904397928897
 21
6295.914509342445
 31
0.0
  0
LINE
  5
16668
330
16633
100
AcDbEntity
  8
寸法
 62
     0
 48
50.0
370
    -2
100
AcDbLine
 10
5760.904397928896
 20
7159.984525907592
 30
0.0
 11
5760.904397928896
 21
6295.914509342445
 31
0.0
  0
LINE
  5
16669
330
16633
100
AcDbEntity
  8
寸法
 62
     0
 48
50.0
370
    -2
100
AcDbLine
 10
4026.904397928897
 20
6355.914509342444
 30
0.0
 11
5760.904397928896
 21
6355.914509342444
 31
0.0
  0
INSERT
  5
1666A
330
16633
100
AcDbEntity
  8
寸法
 62
     0
 48
50.0
370
    -2
100
AcDbBlockReference
  2
_DOTSMALL
 10
4026.904397928897
 20
6355.914509342444
 30
0.0
 41
100.0
 42
100.0
 43
100.0
 50
180.0
  0
INSERT
  5
1666B
330
16633
100
AcDbEntity
  8
寸法
 62
     0
 48
50.0
370
    -2
100
AcDbBlockReference
  2
_DOTSMALL
 10
5760.904397928896
 20
6355.914509342444
 30
0.0
 41
100.0
 42
100.0
 43
100.0
  0
MTEXT
  5
1666C
330
16633
100
AcDbEntity
  8
寸法
 62
     7
 48
50.0
100
AcDbMText
 10
4884.875841228513
 20
6455.914509342445
 30
0.0
 40
120.0
 41
0.0
 71
     5
 72
     1
  1
\A1;1734
  7
STYLE1
 73
     1
 44
1.0
1001
ACAD
1000
MTEXTBEGIN
1070
    73
1070
     1
1070
    44
1040
1.0
1070
    74
1070
     0
1000
MTEXTEND
  0
POINT
  5
1666D
330
16633
100
AcDbEntity
  8
DEFPOINTS
 62
     0
 48
50.0
100
AcDbPoint
 10
4026.904397928897
 20
7179.984525907594
 30
0.0
  0
POINT
  5
1666E
330
16633
100
AcDbEntity
  8
DEFPOINTS
 62
     0
 48
50.0
100
AcDbPoint
 10
5760.904397928896
 20
7179.984525907592
 30
0.0
  0
POINT
  5
1666F
330
16633
100
AcDbEntity
  8
DEFPOINTS
 62
     0
 48
50.0
100
AcDbPoint
 10
5760.904397928896
 20
6355.914509342444
 30
0.0
  0
ENDBLK
  5
1663E
330
16633
100
AcDbEntity
  8
0
 48
50.0
100
AcDbBlockEnd
  0
ENDSEC
  0
SECTION
  2
ENTITIES
  0
MTEXT
  5
763F
330
747D
100
AcDbEntity
  8
0
100
AcDbMText
 10
302.846345836809
 20
280.1983726409901
 30
0.0
 40
3.5
 41
5.323721266742722
 71
     1
 72
     5
  1

  7
MSMINCHO
 73
     1
 44
1.0
1001
ACAD
1000
MTEXTBEGIN
1070
    73
1070
     1
1070
    44
1040
1.0
1070
    74
1070
     0
1000
MTEXTEND
  0
INSERT
  5
F235
330
747D
100
AcDbEntity
  8
0
100
AcDbBlockReference
  2
作図枠S50
 10
0.0
 20
0.0
 30
0.0
 41
0.8
 42
0.8
 43
0.8
  0
LINE
  5
10B56
330
747D
100
AcDbEntity
  8
補助
  6
PHANTOM
 62
   230
 48
50.0
100
AcDbLine
 10
140.0
 20
0.0
 30
0.0
 11
139.9999999999995
 21
11409.6
 31
0.0
  0
LINE
  5
10B57
330
747D
100
AcDbEntity
  8
補助
  6
PHANTOM
 62
   230
 48
50.0
100
AcDbLine
 10
139.9999999999995
 20
11409.6
 30
0.0
 11
16307.2
 21
11409.6
 31
0.0
  0
LINE
  5
10B59
330
747D
100
AcDbEntity
  8
仕様書枠
  6
Continuous
 48
50.0
100
AcDbLine
 10
13107.2
 20
1200.0
 30
0.0
 11
13107.2
 21
-0.0000000000000729
 31
0.0
  0
LINE
  5
10B5C
330
747D
100
AcDbEntity
  8
仕様書枠
 48
50.0
100
AcDbLine
 10
16307.2
 20
1200.0
 30
0.0
 11
16307.2
 21
-0.0000000000000909
 31
0.0
  0
LINE
  5
10B5D
330
747D
100
AcDbEntity
  8
仕様書枠
 48
50.0
100
AcDbLine
 10
140.0
 20
0.0
 30
0.0
 11
16307.2
 21
-0.0000000000000909
 31
0.0
  0
LINE
  5
10B5E
330
747D
100
AcDbEntity
  8
補助
  6
PHANTOM
 62
   230
 48
50.0
100
AcDbLine
 10
16307.2
 20
11409.6
 30
0.0
 11
16307.2
 21
1200.0
 31
0.0
  0
LINE
  5
10B6C
330
747D
100
AcDbEntity
  8
仕様書枠
 48
50.0
100
AcDbLine
 10
13107.2
 20
1200.0
 30
0.0
 11
16307.2
 21
1200.0
 31
0.0
  0
LINE
  5
10B6D
330
747D
100
AcDbEntity
  8
補助
  6
PHANTOM
 62
   230
 48
50.0
100
AcDbLine
 10
13107.2
 20
11409.6
 30
0.0
 11
13107.2
 21
4800.0
 31
0.0
  0
LINE
  5
10B6F
330
747D
100
AcDbEntity
  8
補助
  6
PHANTOM
 62
   230
 48
50.0
100
AcDbLine
 10
13107.2
 20
4800.0
 30
0.0
 11
16307.2
 21
4800.0
 31
0.0
  0
LINE
  5
10B72
330
747D
100
AcDbEntity
  8
文字
 62
     7
 48
50.0
100
AcDbLine
 10
13187.2
 20
400.0
 30
0.0
 11
16227.2
 21
400.0
 31
0.0
  0
TEXT
  5
10B73
330
747D
100
AcDbEntity
  8
文字
 62
     7
 48
50.0
100
AcDbText
 10
13162.9790565769
 20
895.0906074299405
 30
0.0
 40
200.0
  1
外 形 図
  7
STYLE2
100
AcDbText
  0
TEXT
  5
10B74
330
747D
100
AcDbEntity
  8
文字
 62
     7
 48
50.0
100
AcDbText
 10
13201.43669998441
 20
477.2740661031255
 30
0.0
 40
160.0
  1
機種名
  7
STYLE2
100
AcDbText
  0
TEXT
  5
10B76
330
747D
100
AcDbEntity
  8
文字
 62
     7
 48
50.0
100
AcDbText
 10
13209.4053442172
 20
76.09434707649343
 30
0.0
 40
100.0
  1
○床面積 ： 11.05㎡(3.35坪) 　
  7
STYLE2
100
AcDbText
  0
TEXT
  5
10B79
330
747D
100
AcDbEntity
  8
文字
 62
     7
 48
50.0
100
AcDbText
 10
14524.131837222
 20
1031.557706291228
 30
0.0
 40
100.0
  1
NO.06     <縮尺> S=1/40
  7
STYLE2
100
AcDbText
  0
LINE
  5
10B7B
330
747D
100
AcDbEntity
  8
仕様書枠
 48
50.0
100
AcDbLine
 10
13107.2
 20
800.0
 30
0.0
 11
14251.2
 21
800.0
 31
0.0
  0
LINE
  5
10B88
330
747D
100
AcDbEntity
  8
仕様書枠
  6
Continuous
 48
50.0
100
AcDbLine
 10
14251.2
 20
1200.0
 30
0.0
 11
14251.2
 21
800.0
 31
0.0
  0
TEXT
  5
10EA8
330
747D
100
AcDbEntity
  8
文字
 62
     7
 48
50.0
100
AcDbText
 10
14612.63704048961
 20
838.2527270729188
 30
0.0
 40
100.0
  1
～一般型～
  7
STYLE2
100
AcDbText
  0
LINE
  5
120DB
330
747D
100
AcDbEntity
  8
Ｇ．Ｌ
 48
50.0
100
AcDbLine
 10
2315.037010702756
 20
2188.112805903256
 30
0.0
 11
15091.90078798375
 21
2188.112805903256
 31
0.0
  0
LINE
  5
13628
330
747D
100
AcDbEntity
  8
部品1
100
AcDbLine
 10
7550.904397928899
 20
9411.984525907598
 30
0.0
 11
7578.904397928898
 21
9411.984525907598
 31
0.0
  0
LINE
  5
13629
330
747D
100
AcDbEntity
  8
部品1
100
AcDbLine
 10
7550.904397928899
 20
8991.9845259076
 30
0.0
 11
7578.904397928898
 21
8991.9845259076
 31
0.0
  0
LINE
  5
1362A
330
747D
100
AcDbEntity
  8
部品1
100
AcDbLine
 10
4026.904397928897
 20
9411.984525907598
 30
0.0
 11
3998.904397928898
 21
9411.984525907598
 31
0.0
  0
LINE
  5
1362B
330
747D
100
AcDbEntity
  8
部品1
100
AcDbLine
 10
4026.904397928897
 20
8991.9845259076
 30
0.0
 11
3998.904397928898
 21
8991.9845259076
 31
0.0
  0
LINE
  5
1362C
330
747D
100
AcDbEntity
  8
部品1
100
AcDbLine
 10
5733.904397928896
 20
9411.984525907596
 30
0.0
 11
4053.904397928902
 21
9411.984525907596
 31
0.0
  0
LINE
  5
1362D
330
747D
100
AcDbEntity
  8
部品1
100
AcDbLine
 10
5733.904397928896
 20
8991.984525907597
 30
0.0
 11
4053.904397928901
 21
8991.984525907595
 31
0.0
  0
LINE
  5
1362E
330
747D
100
AcDbEntity
  8
部品1
100
AcDbLine
 10
5843.904397928898
 20
9411.984525907596
 30
0.0
 11
7523.904397928898
 21
9411.984525907596
 31
0.0
  0
LINE
  5
1362F
330
747D
100
AcDbEntity
  8
部品1
100
AcDbLine
 10
5843.904397928898
 20
8991.984525907597
 30
0.0
 11
7523.904397928898
 21
8991.984525907597
 31
0.0
  0
TEXT
  5
13630
330
747D
100
AcDbEntity
  8
文字
 62
     7
 48
50.0
100
AcDbText
 10
13209.4053442172
 20
228.5435242569015
 30
0.0
 40
100.0
  1
○有効開口寸法 ： 950×2025(mm)
  7
STYLE2
100
AcDbText
  0
DIMENSION
  5
13631
330
747D
100
AcDbEntity
  8
寸法
 48
50.0
100
AcDbDimension
  2
*D3
 10
7578.904397928898
 20
10681.69693592639
 30
0.0
 11
7719.389679303137
 21
10681.69693592639
 31
0.0
 70
   160
 71
     5
 42
55.0
  3
INABA_S40
100
AcDbAlignedDimension
 13
7523.904397928898
 23
10306.9845259076
 33
0.0
 14
7578.904397928898
 24
10306.98452590759
 34
0.0
100
AcDbRotatedDimension
1001
ACAD
1000
DSTYLE
1002
{
1070
    41
1040
0.5
1070
    44
1040
1.0
1070
   147
1040
0.8
1070
   271
1070
     2
1070
   272
1070
     2
1070
   289
1070
     3
1070
   340
1005
F706
1070
   343
1005
F744
1070
   344
1005
F744
1002
}
  0
DIMENSION
  5
13632
330
747D
100
AcDbEntity
  8
寸法
 48
50.0
100
AcDbDimension
  2
*D4
 10
8649.651514973252
 20
7256.984525907596
 30
0.0
 11
8557.651514973249
 21
8781.984525907597
 31
0.0
 70
    32
 71
     5
 42
3050.0
  3
INABA_S40
100
AcDbAlignedDimension
 13
7578.904397928898
 23
10306.98452590759
 33
0.0
 14
7578.904397928898
 24
7256.984525907596
 34
0.0
 50
90.0
100
AcDbRotatedDimension
1001
ACAD
1000
DSTYLE
1002
{
1070
    41
1040
0.5
1070
    44
1040
1.0
1070
   147
1040
0.8
1070
   271
1070
     2
1070
   272
1070
     2
1070
   289
1070
     3
1070
   340
1005
F706
1070
   343
1005
F744
1070
   344
1005
F744
1002
}
  0
DIMENSION
  5
13633
330
747D
100
AcDbEntity
  8
寸法
 48
50.0
100
AcDbDimension
  2
*D5
 10
8349.651514973253
 20
7256.984525907596
 30
0.0
 11
8349.651514973251
 21
6862.81785924093
 31
0.0
 70
   160
 71
     5
 42
54.99999999999636
  3
INABA_S40
100
AcDbAlignedDimension
 13
7578.904397928898
 23
7311.984525907591
 33
0.0
 14
7578.904397928898
 24
7256.984525907596
 34
0.0
 50
90.0
100
AcDbRotatedDimension
1001
ACAD
1000
DSTYLE
1002
{
1070
    41
1040
0.5
1070
    44
1040
1.0
1070
   147
1040
0.8
1070
   271
1070
     2
1070
   272
1070
     2
1070
   289
1070
     3
1070
   340
1005
F706
1070
   343
1005
F744
1070
   344
1005
F744
1002
}
  0
DIMENSION
  5
13634
330
747D
100
AcDbEntity
  8
寸法
 48
50.0
100
AcDbDimension
  2
*D6
 10
8349.651514973251
 20
7311.984525907591
 30
0.0
 11
8257.639703949628
 21
8781.984525907597
 31
0.0
 70
    32
  1
7X420=<>
 71
     5
 42
2940.000000000008
  3
INABA_S40
100
AcDbAlignedDimension
 13
7578.904397928898
 23
10251.9845259076
 33
0.0
 14
7578.904397928898
 24
7311.984525907591
 34
0.0
 50
90.0
100
AcDbRotatedDimension
1001
ACAD
1000
DSTYLE
1002
{
1070
    41
1040
0.5
1070
    44
1040
1.0
1070
   147
1040
0.8
1070
   271
1070
     2
1070
   272
1070
     2
1070
   289
1070
     3
1070
   340
1005
F706
1070
   343
1005
F744
1070
   344
1005
F744
1002
}
  0
DIMENSION
  5
13635
330
747D
100
AcDbEntity
  8
寸法
 48
50.0
100
AcDbDimension
  2
*D7
 10
8349.651514973253
 20
10251.9845259076
 30
0.0
 11
8349.651514973251
 21
10701.15119257426
 31
0.0
 70
   160
 71
     5
 42
54.99999999999636
  3
INABA_S40
100
AcDbAlignedDimension
 13
7578.904397928898
 23
10306.98452590759
 33
0.0
 14
7578.904397928898
 24
10251.9845259076
 34
0.0
 50
90.0
100
AcDbRotatedDimension
1001
ACAD
1000
DSTYLE
1002
{
1070
    41
1040
0.5
1070
    44
1040
1.0
1070
   147
1040
0.8
1070
   271
1070
     2
1070
   272
1070
     2
1070
   289
1070
     3
1070
   340
1005
F706
1070
   343
1005
F744
1070
   344
1005
F744
1002
}
  0
TEXT
  5
1363A
330
747D
100
AcDbEntity
  8
部品1
100
AcDbText
 10
2745.973702581163
 20
2202.954510774245
 30
0.0
 40
125.0
  1
G.L
  7
MSGOTHIC
100
AcDbText
  0
LINE
  5
1363B
330
747D
100
AcDbEntity
  8
部品1
100
AcDbLine
 10
2603.489748881344
 20
2292.035854357388
 30
0.0
 11
2723.489748881344
 21
2292.035854357388
 31
0.0
  0
LINE
  5
1363C
330
747D
100
AcDbEntity
  8
部品1
100
AcDbLine
 10
2723.489748881344
 20
2292.035854357388
 30
0.0
 11
2663.489748881344
 21
2188.112805903256
 31
0.0
  0
LINE
  5
1363D
330
747D
100
AcDbEntity
  8
部品1
100
AcDbLine
 10
2663.489748881344
 20
2188.112805903256
 30
0.0
 11
2603.489748881344
 21
2292.035854357388
 31
0.0
  0
LINE
  5
1364C
330
747D
100
AcDbEntity
  8
部品1
100
AcDbLine
 10
3998.904397928898
 20
10251.9845259076
 30
0.0
 11
4026.904397928898
 21
10251.9845259076
 31
0.0
  0
LINE
  5
1364D
330
747D
100
AcDbEntity
  8
部品1
100
AcDbLine
 10
4473.904397928897
 20
10278.9845259076
 30
0.0
 11
4026.904397928897
 21
10278.98452590759
 31
0.0
  0
LINE
  5
1364E
330
747D
100
AcDbEntity
  8
部品1
100
AcDbLine
 10
5733.904397928896
 20
7731.984525907598
 30
0.0
 11
4053.904397928896
 21
7731.984525907596
 31
0.0
  0
LINE
  5
1364F
330
747D
100
AcDbEntity
  8
部品1
100
AcDbLine
 10
5733.904397928896
 20
8151.984525907598
 30
0.0
 11
4053.904397928897
 21
8151.984525907595
 31
0.0
  0
LINE
  5
13650
330
747D
100
AcDbEntity
  8
部品1
100
AcDbLine
 10
5733.904397928896
 20
8571.984525907598
 30
0.0
 11
4053.904397928899
 21
8571.984525907593
 31
0.0
  0
LINE
  5
13651
330
747D
100
AcDbEntity
  8
部品1
100
AcDbLine
 10
5788.904397928899
 20
10306.98452590759
 30
0.0
 11
3998.904397928898
 21
10306.98452590759
 31
0.0
  0
LINE
  5
13652
330
747D
100
AcDbEntity
  8
部品1
100
AcDbLine
 10
3998.904397928898
 20
7311.984525907596
 30
0.0
 11
4026.904397928897
 21
7311.984525907596
 31
0.0
  0
LINE
  5
13653
330
747D
100
AcDbEntity
  8
部品1
100
AcDbLine
 10
4026.904397928898
 20
7284.984525907596
 30
0.0
 11
5760.904397928898
 21
7284.984525907598
 31
0.0
  0
DIMENSION
  5
13654
330
747D
100
AcDbEntity
  8
寸法
 48
50.0
100
AcDbDimension
  2
*D8
 10
7578.904397928898
 20
10981.69693592639
 30
0.0
 11
5788.904397928899
 21
11073.69693592639
 31
0.0
 70
    32
 71
     5
 42
3580.0
  3
INABA_S40
100
AcDbAlignedDimension
 13
3998.904397928898
 23
10306.98452590759
 33
0.0
 14
7578.904397928898
 24
10306.98452590759
 34
0.0
100
AcDbRotatedDimension
1001
ACAD
1000
DSTYLE
1002
{
1070
    41
1040
0.5
1070
    44
1040
1.0
1070
   147
1040
0.8
1070
   271
1070
     2
1070
   272
1070
     2
1070
   289
1070
     3
1070
   340
1005
F706
1070
   343
1005
F744
1070
   344
1005
F744
1002
}
  0
DIMENSION
  5
13655
330
747D
100
AcDbEntity
  8
寸法
 48
50.0
100
AcDbDimension
  2
*D9
 10
5733.904397928898
 20
10681.69693592639
 30
0.0
 11
4893.904397928898
 21
10773.70874695001
 31
0.0
 70
    32
  1
4X420=<>
 71
     5
 42
1680.0
  3
INABA_S40
100
AcDbAlignedDimension
 13
4053.904397928898
 23
10306.98452590759
 33
0.0
 14
5733.904397928898
 24
10306.9845259076
 34
0.0
100
AcDbRotatedDimension
1001
ACAD
1000
DSTYLE
1002
{
1070
    41
1040
0.5
1070
    44
1040
1.0
1070
   147
1040
0.8
1070
   271
1070
     2
1070
   272
1070
     2
1070
   289
1070
     3
1070
   340
1005
F706
1070
   343
1005
F744
1070
   344
1005
F744
1002
}
  0
LINE
  5
13657
330
747D
100
AcDbEntity
  8
部品1
100
AcDbLine
 10
4053.904397928906
 20
10251.98452590759
 30
0.0
 11
4053.904397928895
 21
7311.984525907597
 31
0.0
  0
LINE
  5
13658
330
747D
100
AcDbEntity
  8
破線
  6
HIDDEN
 48
10.0
100
AcDbLine
 10
4077.404397928905
 20
10228.48452590759
 30
0.0
 11
4077.404397928894
 21
7335.484525907595
 31
0.0
  0
LINE
  5
13659
330
747D
100
AcDbEntity
  8
部品1
100
AcDbLine
 10
3998.904397928898
 20
10306.98452590759
 30
0.0
 11
3998.904397928898
 21
7256.984525907596
 31
0.0
  0
LINE
  5
1365A
330
747D
100
AcDbEntity
  8
部品1
100
AcDbLine
 10
4026.904397928897
 20
10278.98452590759
 30
0.0
 11
4026.904397928897
 21
8789.984525907597
 31
0.0
  0
LINE
  5
1365B
330
747D
100
AcDbEntity
  8
部品1
100
AcDbLine
 10
4026.904397928897
 20
10251.9845259076
 30
0.0
 11
4026.904397928897
 21
7284.984525907596
 31
0.0
  0
LINE
  5
1365D
330
747D
100
AcDbEntity
  8
部品1
100
AcDbLine
 10
3998.904397928898
 20
7256.984525907596
 30
0.0
 11
4053.904397928898
 21
7256.984525907594
 31
0.0
  0
LINE
  5
1365E
330
747D
100
AcDbEntity
  8
部品1
 48
50.0
100
AcDbLine
 10
4026.904397928897
 20
7284.984525907596
 30
0.0
 11
4053.904397928895
 21
7311.984525907597
 31
0.0
  0
LINE
  5
1365F
330
747D
100
AcDbEntity
  8
部品1
100
AcDbLine
 10
4053.904397928898
 20
7256.984525907594
 30
0.0
 11
4053.904397928898
 21
7284.984525907596
 31
0.0
  0
LINE
  5
13660
330
747D
100
AcDbEntity
  8
部品1
100
AcDbLine
 10
4026.904397928897
 20
7311.984525907591
 30
0.0
 11
3998.904397928898
 21
7311.984525907591
 31
0.0
  0
LINE
  5
13661
330
747D
100
AcDbEntity
  8
部品1
100
AcDbLine
 10
4053.904397928898
 20
7256.984525907602
 30
0.0
 11
4053.904397928898
 21
7284.984525907603
 31
0.0
  0
LINE
  5
13662
330
747D
100
AcDbEntity
  8
部品1
100
AcDbLine
 10
4053.904397928898
 20
7256.984525907594
 30
0.0
 11
4053.904397928898
 21
7284.984525907596
 31
0.0
  0
LINE
  5
13663
330
747D
100
AcDbEntity
  8
部品1
100
AcDbLine
 10
4026.904397928897
 20
7731.984525907598
 30
0.0
 11
3998.904397928898
 21
7731.984525907598
 31
0.0
  0
LINE
  5
13664
330
747D
100
AcDbEntity
  8
部品1
100
AcDbLine
 10
4026.904397928897
 20
8151.984525907598
 30
0.0
 11
3998.904397928898
 21
8151.984525907598
 31
0.0
  0
LINE
  5
13665
330
747D
100
AcDbEntity
  8
部品1
100
AcDbLine
 10
4026.904397928897
 20
8571.9845259076
 30
0.0
 11
3998.904397928898
 21
8571.9845259076
 31
0.0
  0
DIMENSION
  5
13667
330
747D
100
AcDbEntity
  8
寸法
 48
50.0
100
AcDbDimension
  2
*D10
 10
4053.904397928898
 20
10681.69693592639
 30
0.0
 11
3858.419116554659
 21
10681.69693592639
 31
0.0
 70
   160
 71
     5
 42
55.0
  3
INABA_S40
100
AcDbAlignedDimension
 13
3998.904397928898
 23
10306.98452590759
 33
0.0
 14
4053.904397928898
 24
10306.9845259076
 34
0.0
100
AcDbRotatedDimension
1001
ACAD
1000
DSTYLE
1002
{
1070
    41
1040
0.5
1070
    44
1040
1.0
1070
   147
1040
0.8
1070
   271
1070
     2
1070
   272
1070
     2
1070
   289
1070
     3
1070
   340
1005
F706
1070
   343
1005
F744
1070
   344
1005
F744
1002
}
  0
LINE
  5
13668
330
747D
100
AcDbEntity
  8
部品1
 48
50.0
100
AcDbLine
 10
4026.904397928897
 20
10278.98452590759
 30
0.0
 11
4053.904397928895
 21
10251.9845259076
 31
0.0
  0
LINE
  5
13669
330
747D
100
AcDbEntity
  8
部品1
100
AcDbLine
 10
4053.904397928898
 20
10306.9845259076
 30
0.0
 11
4053.904397928898
 21
10278.98452590759
 31
0.0
  0
LINE
  5
1366A
330
747D
100
AcDbEntity
  8
部品1
100
AcDbLine
 10
4026.904397928897
 20
10251.9845259076
 30
0.0
 11
3998.904397928898
 21
10251.9845259076
 31
0.0
  0
LINE
  5
1366B
330
747D
100
AcDbEntity
  8
部品1
100
AcDbLine
 10
7523.904397928898
 20
10251.9845259076
 30
0.0
 11
7523.904397928898
 21
7311.984525907596
 31
0.0
  0
LINE
  5
1366C
330
747D
100
AcDbEntity
  8
部品1
100
AcDbLine
 10
5843.904397928898
 20
7311.984525907596
 30
0.0
 11
5843.904397928898
 21
10251.98452590759
 31
0.0
  0
LINE
  5
1366D
330
747D
100
AcDbEntity
  8
破線
  6
HIDDEN
 48
10.0
100
AcDbLine
 10
5867.404397928898
 20
7335.484525907595
 30
0.0
 11
5867.404397928897
 21
10228.48452590759
 31
0.0
  0
LINE
  5
1366E
330
747D
100
AcDbEntity
  8
部品1
100
AcDbLine
 10
5816.904397928897
 20
7284.984525907596
 30
0.0
 11
5816.904397928897
 21
10278.9845259076
 31
0.0
  0
LINE
  5
1366F
330
747D
100
AcDbEntity
  8
破線
  6
HIDDEN
 48
10.0
100
AcDbLine
 10
5710.404397928898
 20
7335.484525907592
 30
0.0
 11
5710.404397928894
 21
10228.4845259076
 31
0.0
  0
LINE
  5
13670
330
747D
100
AcDbEntity
  8
部品1
100
AcDbLine
 10
5733.904397928898
 20
7311.984525907591
 30
0.0
 11
5733.904397928895
 21
10251.9845259076
 31
0.0
  0
LINE
  5
13671
330
747D
100
AcDbEntity
  8
部品1
100
AcDbLine
 10
5760.904397928898
 20
7284.984525907598
 30
0.0
 11
5760.904397928898
 21
10278.98452590759
 31
0.0
  0
LINE
  5
13672
330
747D
100
AcDbEntity
  8
破線
  6
HIDDEN
 48
10.0
100
AcDbLine
 10
7500.404397928898
 20
10228.4845259076
 30
0.0
 11
7500.404397928898
 21
7335.484525907594
 31
0.0
  0
LINE
  5
13673
330
747D
100
AcDbEntity
  8
部品1
100
AcDbLine
 10
7578.904397928898
 20
10306.98452590759
 30
0.0
 11
7578.904397928898
 21
7256.984525907596
 31
0.0
  0
LINE
  5
13674
330
747D
100
AcDbEntity
  8
部品1
100
AcDbLine
 10
7550.904397928899
 20
10278.98452590759
 30
0.0
 11
7550.904397928899
 21
8789.984525907597
 31
0.0
  0
LINE
  5
13676
330
747D
100
AcDbEntity
  8
部品1
100
AcDbLine
 10
5843.904397928898
 20
7731.984525907598
 30
0.0
 11
7523.904397928898
 21
7731.984525907598
 31
0.0
  0
LINE
  5
13677
330
747D
100
AcDbEntity
  8
部品1
100
AcDbLine
 10
5843.904397928898
 20
8151.984525907598
 30
0.0
 11
7523.904397928898
 21
8151.984525907595
 31
0.0
  0
LINE
  5
13678
330
747D
100
AcDbEntity
  8
部品1
100
AcDbLine
 10
5843.904397928898
 20
8571.984525907598
 30
0.0
 11
7523.904397928898
 21
8571.984525907598
 31
0.0
  0
LINE
  5
13679
330
747D
100
AcDbEntity
  8
部品1
100
AcDbLine
 10
7578.904397928899
 20
7256.984525907596
 30
0.0
 11
5843.904397928898
 21
7256.984525907596
 31
0.0
  0
LINE
  5
1367A
330
747D
100
AcDbEntity
  8
部品1
100
AcDbLine
 10
7578.904397928898
 20
7311.984525907596
 30
0.0
 11
7550.904397928899
 21
7311.984525907597
 31
0.0
  0
LINE
  5
1367B
330
747D
100
AcDbEntity
  8
部品1
100
AcDbLine
 10
7550.904397928899
 20
7284.984525907596
 30
0.0
 11
5816.904397928897
 21
7284.984525907598
 31
0.0
  0
LINE
  5
1367E
330
747D
100
AcDbEntity
  8
部品1
100
AcDbLine
 10
5733.904397928898
 20
7256.984525907596
 30
0.0
 11
5788.904397928899
 21
7256.984525907596
 31
0.0
  0
LINE
  5
1367F
330
747D
100
AcDbEntity
  8
部品1
100
AcDbLine
 10
5733.904397928898
 20
7256.984525907594
 30
0.0
 11
5733.904397928898
 21
7284.984525907596
 31
0.0
  0
LINE
  5
13680
330
747D
100
AcDbEntity
  8
部品1
100
AcDbLine
 10
5733.904397928898
 20
7256.984525907594
 30
0.0
 11
5733.904397928898
 21
7284.984525907596
 31
0.0
  0
LINE
  5
13681
330
747D
100
AcDbEntity
  8
部品1
 48
50.0
100
AcDbLine
 10
5816.904397928897
 20
7284.984525907596
 30
0.0
 11
5843.904397928898
 21
7311.984525907596
 31
0.0
  0
LINE
  5
13682
330
747D
100
AcDbEntity
  8
部品1
 48
50.0
100
AcDbLine
 10
5760.904397928898
 20
7284.984525907598
 30
0.0
 11
5733.904397928898
 21
7311.984525907591
 31
0.0
  0
LINE
  5
13683
330
747D
100
AcDbEntity
  8
部品1
100
AcDbLine
 10
5843.904397928898
 20
7256.984525907597
 30
0.0
 11
5788.904397928899
 21
7256.984525907596
 31
0.0
  0
LINE
  5
13684
330
747D
100
AcDbEntity
  8
部品1
100
AcDbLine
 10
5733.904397928898
 20
7256.984525907594
 30
0.0
 11
5733.904397928898
 21
7284.984525907596
 31
0.0
  0
LINE
  5
13685
330
747D
100
AcDbEntity
  8
部品1
100
AcDbLine
 10
5843.904397928898
 20
7256.984525907594
 30
0.0
 11
5843.904397928898
 21
7284.984525907596
 31
0.0
  0
LINE
  5
13686
330
747D
100
AcDbEntity
  8
部品1
100
AcDbLine
 10
5816.904397928897
 20
7311.984525907591
 30
0.0
 11
5788.904397928899
 21
7311.984525907591
 31
0.0
  0
LINE
  5
13687
330
747D
100
AcDbEntity
  8
部品1
100
AcDbLine
 10
5760.904397928898
 20
7311.984525907591
 30
0.0
 11
5788.904397928899
 21
7311.984525907591
 31
0.0
  0
LINE
  5
13688
330
747D
100
AcDbEntity
  8
部品1
100
AcDbLine
 10
6263.904397928898
 20
7256.984525907594
 30
0.0
 11
6263.904397928898
 21
7284.984525907596
 31
0.0
  0
LINE
  5
13689
330
747D
100
AcDbEntity
  8
部品1
100
AcDbLine
 10
7550.904397928899
 20
10251.9845259076
 30
0.0
 11
7550.904397928899
 21
7284.984525907596
 31
0.0
  0
LINE
  5
1368A
330
747D
100
AcDbEntity
  8
部品1
100
AcDbLine
 10
6683.904397928898
 20
7256.984525907594
 30
0.0
 11
6683.904397928898
 21
7284.984525907596
 31
0.0
  0
LINE
  5
1368C
330
747D
100
AcDbEntity
  8
部品1
100
AcDbLine
 10
7103.904397928897
 20
7256.984525907594
 30
0.0
 11
7103.904397928897
 21
7284.984525907596
 31
0.0
  0
LINE
  5
1368E
330
747D
100
AcDbEntity
  8
部品1
 48
50.0
100
AcDbLine
 10
7550.904397928899
 20
7284.984525907596
 30
0.0
 11
7523.904397928898
 21
7311.984525907596
 31
0.0
  0
LINE
  5
1368F
330
747D
100
AcDbEntity
  8
部品1
100
AcDbLine
 10
7523.904397928898
 20
7256.984525907594
 30
0.0
 11
7523.904397928898
 21
7284.984525907596
 31
0.0
  0
LINE
  5
13690
330
747D
100
AcDbEntity
  8
部品1
100
AcDbLine
 10
7550.904397928899
 20
7311.984525907591
 30
0.0
 11
7578.904397928898
 21
7311.984525907591
 31
0.0
  0
LINE
  5
13691
330
747D
100
AcDbEntity
  8
部品1
100
AcDbLine
 10
7550.904397928899
 20
7731.984525907598
 30
0.0
 11
7578.904397928898
 21
7731.984525907598
 31
0.0
  0
LINE
  5
13692
330
747D
100
AcDbEntity
  8
部品1
100
AcDbLine
 10
7550.904397928899
 20
8151.984525907598
 30
0.0
 11
7578.904397928898
 21
8151.984525907598
 31
0.0
  0
LINE
  5
13693
330
747D
100
AcDbEntity
  8
部品1
100
AcDbLine
 10
7550.904397928899
 20
8571.9845259076
 30
0.0
 11
7578.904397928898
 21
8571.9845259076
 31
0.0
  0
LINE
  5
13695
330
747D
100
AcDbEntity
  8
部品1
100
AcDbLine
 10
7578.904397928898
 20
10251.9845259076
 30
0.0
 11
7550.904397928899
 21
10251.9845259076
 31
0.0
  0
LINE
  5
13696
330
747D
100
AcDbEntity
  8
部品1
100
AcDbLine
 10
5816.904397928897
 20
10278.98452590759
 30
0.0
 11
7103.904397928897
 21
10278.98452590759
 31
0.0
  0
DIMENSION
  5
13697
330
747D
100
AcDbEntity
  8
寸法
 48
50.0
100
AcDbDimension
  2
*D11
 10
7523.904397928898
 20
10681.69693592639
 30
0.0
 11
6683.904397928898
 21
10773.70874695001
 31
0.0
 70
    32
  1
4X420=<>
 71
     5
 42
1680.0
  3
INABA_S40
100
AcDbAlignedDimension
 13
5843.904397928898
 23
10306.9845259076
 33
0.0
 14
7523.904397928898
 24
10306.9845259076
 34
0.0
100
AcDbRotatedDimension
1001
ACAD
1000
DSTYLE
1002
{
1070
    41
1040
0.5
1070
    44
1040
1.0
1070
   147
1040
0.8
1070
   271
1070
     2
1070
   272
1070
     2
1070
   289
1070
     3
1070
   340
1005
F706
1070
   343
1005
F744
1070
   344
1005
F744
1002
}
  0
LINE
  5
13698
330
747D
100
AcDbEntity
  8
部品1
100
AcDbLine
 10
5788.904397928899
 20
10306.98452590759
 30
0.0
 11
7578.904397928898
 21
10306.98452590759
 31
0.0
  0
LINE
  5
13699
330
747D
100
AcDbEntity
  8
部品1
100
AcDbLine
 10
5313.904397928898
 20
10278.98452590759
 30
0.0
 11
4053.904397928898
 21
10278.9845259076
 31
0.0
  0
LINE
  5
1369B
330
747D
100
AcDbEntity
  8
部品1
100
AcDbLine
 10
4473.904397928897
 20
10306.9845259076
 30
0.0
 11
4473.904397928897
 21
10278.98452590759
 31
0.0
  0
LINE
  5
1369C
330
747D
100
AcDbEntity
  8
部品1
100
AcDbLine
 10
4893.904397928898
 20
10306.9845259076
 30
0.0
 11
4893.904397928898
 21
10278.98452590759
 31
0.0
  0
LINE
  5
1369E
330
747D
100
AcDbEntity
  8
部品1
100
AcDbLine
 10
5760.904397928898
 20
10278.98452590759
 30
0.0
 11
5313.904397928898
 21
10278.98452590759
 31
0.0
  0
LINE
  5
1369F
330
747D
100
AcDbEntity
  8
部品1
100
AcDbLine
 10
5313.904397928898
 20
10306.9845259076
 30
0.0
 11
5313.904397928898
 21
10278.98452590759
 31
0.0
  0
LINE
  5
136A0
330
747D
100
AcDbEntity
  8
部品1
100
AcDbLine
 10
5733.904397928898
 20
10306.9845259076
 30
0.0
 11
5733.904397928898
 21
10278.98452590759
 31
0.0
  0
DIMENSION
  5
136A1
330
747D
100
AcDbEntity
  8
寸法
 48
50.0
100
AcDbDimension
  2
*D12
 10
5843.904397928898
 20
10681.69693592639
 30
0.0
 11
5788.904397928899
 21
10681.69693592639
 31
0.0
 70
   160
 71
     5
 42
110.0
  3
INABA_S40
100
AcDbAlignedDimension
 13
5733.904397928898
 23
10306.9845259076
 33
0.0
 14
5843.904397928898
 24
10306.9845259076
 34
0.0
100
AcDbRotatedDimension
1001
ACAD
1000
DSTYLE
1002
{
1070
    41
1040
0.5
1070
    44
1040
1.0
1070
   147
1040
0.8
1070
   271
1070
     2
1070
   272
1070
     2
1070
   289
1070
     3
1070
   340
1005
F706
1070
   343
1005
F744
1070
   344
1005
F744
1002
}
  0
LINE
  5
136A2
330
747D
100
AcDbEntity
  8
部品1
 48
50.0
100
AcDbLine
 10
5816.904397928897
 20
10278.98452590759
 30
0.0
 11
5843.904397928898
 21
10251.9845259076
 31
0.0
  0
LINE
  5
136A3
330
747D
100
AcDbEntity
  8
部品1
 48
50.0
100
AcDbLine
 10
5760.904397928898
 20
10278.98452590759
 30
0.0
 11
5733.904397928898
 21
10251.9845259076
 31
0.0
  0
LINE
  5
136A4
330
747D
100
AcDbEntity
  8
部品1
100
AcDbLine
 10
5816.904397928897
 20
10251.9845259076
 30
0.0
 11
5788.904397928899
 21
10251.9845259076
 31
0.0
  0
LINE
  5
136A5
330
747D
100
AcDbEntity
  8
部品1
100
AcDbLine
 10
5733.904397928898
 20
10306.9845259076
 30
0.0
 11
5733.904397928898
 21
10278.98452590759
 31
0.0
  0
LINE
  5
136A6
330
747D
100
AcDbEntity
  8
部品1
100
AcDbLine
 10
5760.904397928898
 20
10251.9845259076
 30
0.0
 11
5788.904397928899
 21
10251.9845259076
 31
0.0
  0
LINE
  5
136A7
330
747D
100
AcDbEntity
  8
部品1
100
AcDbLine
 10
5843.904397928898
 20
10306.9845259076
 30
0.0
 11
5843.904397928898
 21
10278.98452590759
 31
0.0
  0
LINE
  5
136A8
330
747D
100
AcDbEntity
  8
部品1
100
AcDbLine
 10
5843.904397928898
 20
10306.9845259076
 30
0.0
 11
5843.904397928898
 21
10278.98452590759
 31
0.0
  0
LINE
  5
136A9
330
747D
100
AcDbEntity
  8
部品1
100
AcDbLine
 10
6263.904397928898
 20
10306.9845259076
 30
0.0
 11
6263.904397928898
 21
10278.98452590759
 31
0.0
  0
LINE
  5
136AA
330
747D
100
AcDbEntity
  8
部品1
100
AcDbLine
 10
6906.404397928898
 20
10278.98452590759
 30
0.0
 11
7301.404397928898
 21
10278.98452590759
 31
0.0
  0
LINE
  5
136AB
330
747D
100
AcDbEntity
  8
部品1
100
AcDbLine
 10
6683.904397928898
 20
10306.9845259076
 30
0.0
 11
6683.904397928898
 21
10278.98452590759
 31
0.0
  0
LINE
  5
136AD
330
747D
100
AcDbEntity
  8
部品1
100
AcDbLine
 10
7103.904397928897
 20
10278.98452590759
 30
0.0
 11
7550.904397928897
 21
10278.98452590759
 31
0.0
  0
LINE
  5
136AE
330
747D
100
AcDbEntity
  8
部品1
100
AcDbLine
 10
7103.904397928897
 20
10306.9845259076
 30
0.0
 11
7103.904397928897
 21
10278.98452590759
 31
0.0
  0
LINE
  5
136B0
330
747D
100
AcDbEntity
  8
部品1
 48
50.0
100
AcDbLine
 10
7550.904397928899
 20
10278.98452590759
 30
0.0
 11
7523.904397928898
 21
10251.9845259076
 31
0.0
  0
LINE
  5
136B1
330
747D
100
AcDbEntity
  8
部品1
100
AcDbLine
 10
7523.904397928898
 20
10306.9845259076
 30
0.0
 11
7523.904397928898
 21
10278.98452590759
 31
0.0
  0
LINE
  5
136B2
330
747D
100
AcDbEntity
  8
部品1
100
AcDbLine
 10
7550.904397928899
 20
10251.9845259076
 30
0.0
 11
7578.904397928898
 21
10251.9845259076
 31
0.0
  0
LINE
  5
136BA
330
747D
100
AcDbEntity
  8
部品1
 48
50.0
100
AcDbLine
 10
5788.904400172469
 20
10278.98452948476
 30
0.0
 11
5760.904400172469
 21
10306.98452948476
 31
0.0
  0
LINE
  5
136BB
330
747D
100
AcDbEntity
  8
部品1
100
AcDbLine
 10
5760.904400172469
 20
10278.98452948476
 30
0.0
 11
5760.904400172469
 21
10306.98452948477
 31
0.0
  0
LINE
  5
136BC
330
747D
100
AcDbEntity
  8
部品1
100
AcDbLine
 10
5816.904400172468
 20
10278.98452948476
 30
0.0
 11
5816.904400172468
 21
10306.98452948476
 31
0.0
  0
LINE
  5
136BD
330
747D
100
AcDbEntity
  8
部品1
100
AcDbLine
 10
5760.904400172469
 20
10278.98452948476
 30
0.0
 11
5788.904400172469
 21
10278.98452948476
 31
0.0
  0
LINE
  5
136BE
330
747D
100
AcDbEntity
  8
部品1
 48
50.0
100
AcDbLine
 10
4026.904397928897
 20
7284.984525907593
 30
0.0
 11
5733.904397928898
 21
7284.984525907596
 31
0.0
  0
TEXT
  5
13706
330
747D
100
AcDbEntity
  8
文字
 62
     7
 48
50.0
100
AcDbText
 10
14505.34213575793
 20
483.8967129911411
 30
0.0
 40
160.0
  1
ＮＸＮ－１１０Ｈ
  7
STYLE2
100
AcDbText
  0
LWPOLYLINE
  5
13707
330
747D
100
AcDbEntity
  8
部品1
100
AcDbPolyline
 90
        4
 70
     1
 43
0.0
 10
5407.169064814677
 20
1862.751840551128
 10
5407.169064814677
 20
1622.859519005596
 10
6170.639731043118
 20
1622.859519005596
 10
6170.639731043118
 20
1862.751840551128
  0
TEXT
  5
13708
330
747D
100
AcDbEntity
  8
部品1
100
AcDbText
 10
5497.694468552634
 20
1669.858311332604
 30
0.0
 40
135.0
  1
正面図
  7
STYLE2
100
AcDbText
  0
TEXT
  5
13B91
330
747D
100
AcDbEntity
  8
文字
 62
     7
 48
50.0
100
AcDbText
 10
13583.11819016569
 20
9570.013745883727
 30
0.0
 40
100.0
  1
母屋中
  7
STYLE1
100
AcDbText
  0
TEXT
  5
13B92
330
747D
100
AcDbEntity
  8
文字
 62
     7
 48
50.0
100
AcDbText
 10
13248.77747366447
 20
8720.013745883729
 30
0.0
 40
100.0
  1
15
  7
STYLE1
100
AcDbText
  0
TEXT
  5
13B94
330
747D
100
AcDbEntity
  8
文字
 62
     7
 48
50.0
100
AcDbText
 10
13583.11819016569
 20
8550.013745883731
 30
0.0
 40
100.0
  1
扉
  7
STYLE1
100
AcDbText
  0
TEXT
  5
13B95
330
747D
100
AcDbEntity
  8
文字
 62
     7
 48
50.0
100
AcDbText
 10
15022.63965474516
 20
8550.013745883727
 30
0.0
 40
100.0
  1
F12            0.8
  7
STYLE1
100
AcDbText
  0
TEXT
  5
13B96
330
747D
100
AcDbEntity
  8
文字
 62
     7
 48
50.0
100
AcDbText
 10
13583.11819016568
 20
8720.013745883731
 30
0.0
 40
100.0
  1
正面パネル
  7
STYLE1
100
AcDbText
  0
TEXT
  5
13B97
330
747D
100
AcDbEntity
  8
文字
 62
     7
 48
50.0
100
AcDbText
 10
15022.63965474515
 20
8720.013745883727
 30
0.0
 40
100.0
  1
F12            0.7
  7
STYLE1
100
AcDbText
  0
TEXT
  5
13B98
330
747D
100
AcDbEntity
  8
文字
 62
     7
 48
50.0
100
AcDbText
 10
15022.63965474517
 20
10590.01374588372
 30
0.0
 40
100.0
  1
F12            1.0
  7
STYLE1
100
AcDbText
  0
TEXT
  5
13B99
330
747D
100
AcDbEntity
  8
文字
 62
     7
 48
50.0
100
AcDbText
 10
15022.63965474516
 20
10930.01374588372
 30
0.0
 40
100.0
  1
F12            1.2
  7
STYLE1
100
AcDbText
  0
TEXT
  5
13B9A
330
747D
100
AcDbEntity
  8
文字
 62
     7
 48
50.0
100
AcDbText
 10
13248.77747366448
 20
8890.013745883727
 30
0.0
 40
100.0
  1
14
  7
STYLE1
100
AcDbText
  0
TEXT
  5
13B9B
330
747D
100
AcDbEntity
  8
文字
 62
     7
 48
50.0
100
AcDbText
 10
13583.11819016569
 20
10930.01374588372
 30
0.0
 40
100.0
  1
根太
  7
STYLE1
100
AcDbText
  0
TEXT
  5
13B9C
330
747D
100
AcDbEntity
  8
文字
 62
     7
 48
50.0
100
AcDbText
 10
13583.1181901657
 20
10590.01374588373
 30
0.0
 40
100.0
  1
床パネル
 41
0.9
  7
STYLE1
100
AcDbText
  0
LINE
  5
13B9D
330
747D
100
AcDbEntity
  8
仕様書枠
 48
50.0
100
AcDbLine
 10
16307.19999999999
 20
9029.6
 30
0.0
 11
13127.2
 21
9029.600000000002
 31
0.0
  0
LINE
  5
13B9E
330
747D
100
AcDbEntity
  8
仕様書枠
 48
50.0
100
AcDbLine
 10
13127.2
 20
11409.6
 30
0.0
 11
13127.19999999999
 21
8009.600000000006
 31
0.0
  0
TEXT
  5
13B9F
330
747D
100
AcDbEntity
  8
文字
 62
     7
 48
50.0
100
AcDbText
 10
13229.83081656554
 20
8040.013745883731
 30
0.0
 40
100.0
  1
Y10→溶融亜鉛-5％アルミニウム合金めっき鋼板(JIS G 3317)
 41
0.9
  7
STYLE1
100
AcDbText
  0
TEXT
  5
13BA0
330
747D
100
AcDbEntity
  8
文字
 62
     7
 48
50.0
100
AcDbText
 10
13229.83081656554
 20
8210.013745883733
 30
0.0
 40
100.0
  1
F12→溶融亜鉛めっき鋼板(JIS G 3302)
  7
STYLE1
100
AcDbText
  0
LINE
  5
13BA1
330
747D
100
AcDbEntity
  8
仕様書枠
 48
50.0
100
AcDbLine
 10
16307.19999999999
 20
8179.600000000004
 30
0.0
 11
13127.19999999999
 21
8179.600000000005
 31
0.0
  0
LINE
  5
13BA2
330
747D
100
AcDbEntity
  8
仕様書枠
 48
50.0
100
AcDbLine
 10
16307.19999999999
 20
8349.600000000004
 30
0.0
 11
13127.19999999999
 21
8349.600000000007
 31
0.0
  0
TEXT
  5
13BA3
330
747D
100
AcDbEntity
  8
文字
 62
     7
 48
50.0
100
AcDbText
 10
15022.63965474515
 20
9400.013745883725
 30
0.0
 40
100.0
  1
F12            0.7
  7
STYLE1
100
AcDbText
  0
TEXT
  5
13BA4
330
747D
100
AcDbEntity
  8
文字
 62
     7
 48
50.0
100
AcDbText
 10
15022.63965474517
 20
9740.013745883725
 30
0.0
 40
100.0
  1
Y10            0.5
  7
STYLE1
100
AcDbText
  0
TEXT
  5
13BA5
330
747D
100
AcDbEntity
  8
文字
 62
     7
 48
50.0
100
AcDbText
 10
15022.63965474516
 20
10080.01374588372
 30
0.0
 40
100.0
  1
Y10            0.7
  7
STYLE1
100
AcDbText
  0
TEXT
  5
13BA6
330
747D
100
AcDbEntity
  8
文字
 62
     7
 48
50.0
100
AcDbText
 10
15022.63965474516
 20
10250.01374588372
 30
0.0
 40
100.0
  1
Y10            0.7
  7
STYLE1
100
AcDbText
  0
TEXT
  5
13BA7
330
747D
100
AcDbEntity
  8
文字
 62
     7
 48
50.0
100
AcDbText
 10
15022.63965474516
 20
10420.01374588372
 30
0.0
 40
100.0
  1
Y10            1.0
  7
STYLE1
100
AcDbText
  0
TEXT
  5
13BA8
330
747D
100
AcDbEntity
  8
文字
 62
     7
 48
50.0
100
AcDbText
 10
15022.63965474518
 20
10760.01374588372
 30
0.0
 40
100.0
  1
F12            1.0
  7
STYLE1
100
AcDbText
  0
TEXT
  5
13BA9
330
747D
100
AcDbEntity
  8
文字
 62
     7
 48
50.0
100
AcDbText
 10
15022.63965474517
 20
11100.01374588372
 30
0.0
 40
100.0
  1
F12            1.2
  7
STYLE1
100
AcDbText
  0
TEXT
  5
13BAA
330
747D
100
AcDbEntity
  8
文字
 62
     7
 48
50.0
100
AcDbText
 10
13248.77747366448
 20
9230.013745883727
 30
0.0
 40
100.0
  1
12
  7
STYLE1
100
AcDbText
  0
TEXT
  5
13BAB
330
747D
100
AcDbEntity
  8
文字
 62
     7
 48
50.0
100
AcDbText
 10
13248.77747366448
 20
9060.013745883727
 30
0.0
 40
100.0
  1
13
  7
STYLE1
100
AcDbText
  0
LINE
  5
13BAC
330
747D
100
AcDbEntity
  8
仕様書枠
 48
50.0
100
AcDbLine
 10
16307.19999999999
 20
8859.6
 30
0.0
 11
13127.2
 21
8859.600000000002
 31
0.0
  0
LINE
  5
13BAD
330
747D
100
AcDbEntity
  8
仕様書枠
 48
50.0
100
AcDbLine
 10
16307.19999999999
 20
9199.599999999998
 30
0.0
 11
13127.2
 21
9199.600000000001
 31
0.0
  0
TEXT
  5
13BAE
330
747D
100
AcDbEntity
  8
文字
 62
     7
 48
50.0
100
AcDbText
 10
13248.77747366447
 20
9400.013745883727
 30
0.0
 40
100.0
  1
11
  7
STYLE1
100
AcDbText
  0
LINE
  5
13BAF
330
747D
100
AcDbEntity
  8
仕様書枠
 48
50.0
100
AcDbLine
 10
16307.2
 20
9879.599999999999
 30
0.0
 11
13127.2
 21
9879.600000000001
 31
0.0
  0
LINE
  5
13BB0
330
747D
100
AcDbEntity
  8
仕様書枠
 48
50.0
100
AcDbLine
 10
16307.2
 20
10219.6
 30
0.0
 11
13127.2
 21
10219.6
 31
0.0
  0
LINE
  5
13BB1
330
747D
100
AcDbEntity
  8
仕様書枠
 48
50.0
100
AcDbLine
 10
16307.19999999999
 20
9539.599999999998
 30
0.0
 11
13127.2
 21
9539.6
 31
0.0
  0
LINE
  5
13BB2
330
747D
100
AcDbEntity
  8
仕様書枠
 48
50.0
100
AcDbLine
 10
16307.19999999999
 20
9369.599999999998
 30
0.0
 11
13127.2
 21
9369.600000000001
 31
0.0
  0
LINE
  5
13BB3
330
747D
100
AcDbEntity
  8
仕様書枠
 48
50.0
100
AcDbLine
 10
16307.19999999999
 20
9709.6
 30
0.0
 11
13127.2
 21
9709.600000000001
 31
0.0
  0
TEXT
  5
13BB4
330
747D
100
AcDbEntity
  8
文字
 62
     7
 48
50.0
100
AcDbText
 10
13271.19032244792
 20
10250.01374588373
 30
0.0
 40
100.0
  1
6
  7
STYLE1
100
AcDbText
  0
TEXT
  5
13BB5
330
747D
100
AcDbEntity
  8
文字
 62
     7
 48
50.0
100
AcDbText
 10
13271.19032244792
 20
10080.01374588373
 30
0.0
 40
100.0
  1
7
  7
STYLE1
100
AcDbText
  0
TEXT
  5
13BB6
330
747D
100
AcDbEntity
  8
文字
 62
     7
 48
50.0
100
AcDbText
 10
13271.19032244792
 20
9740.013745883729
 30
0.0
 40
100.0
  1
9
  7
STYLE1
100
AcDbText
  0
TEXT
  5
13BB7
330
747D
100
AcDbEntity
  8
文字
 62
     7
 48
50.0
100
AcDbText
 10
13271.19032244792
 20
9910.01374588373
 30
0.0
 40
100.0
  1
8
  7
STYLE1
100
AcDbText
  0
TEXT
  5
13BB8
330
747D
100
AcDbEntity
  8
文字
 62
     7
 48
50.0
100
AcDbText
 10
13583.11819016569
 20
10080.01374588372
 30
0.0
 40
100.0
  1
鼻隠シ前後
  7
STYLE1
100
AcDbText
  0
TEXT
  5
13BB9
330
747D
100
AcDbEntity
  8
文字
 62
     7
 48
50.0
100
AcDbText
 10
13583.11819016569
 20
9740.013745883729
 30
0.0
 40
100.0
  1
屋根パネル
  7
STYLE1
100
AcDbText
  0
TEXT
  5
13BBA
330
747D
100
AcDbEntity
  8
文字
 62
     7
 48
50.0
100
AcDbText
 10
13583.11819016568
 20
9400.013745883729
 30
0.0
 40
100.0
  1
壁パネル
  7
STYLE1
100
AcDbText
  0
TEXT
  5
13BBB
330
747D
100
AcDbEntity
  8
文字
 62
     7
 48
50.0
100
AcDbText
 10
13248.77747366447
 20
9570.013745883727
 30
0.0
 40
100.0
  1
10
  7
STYLE1
100
AcDbText
  0
TEXT
  5
13BBC
330
747D
100
AcDbEntity
  8
文字
 62
     7
 48
50.0
100
AcDbText
 10
13583.11819016569
 20
10250.01374588373
 30
0.0
 40
100.0
  1
妻板左右
  7
STYLE1
100
AcDbText
  0
TEXT
  5
13BBD
330
747D
100
AcDbEntity
  8
文字
 62
     7
 48
50.0
100
AcDbText
 10
13271.19032244792
 20
10420.01374588372
 30
0.0
 40
100.0
  1
5
  7
STYLE1
100
AcDbText
  0
TEXT
  5
13BBE
330
747D
100
AcDbEntity
  8
文字
 62
     7
 48
50.0
100
AcDbText
 10
13583.11819016569
 20
10420.01374588373
 30
0.0
 40
100.0
  1
桁前後
  7
STYLE1
100
AcDbText
  0
TEXT
  5
13BBF
330
747D
100
AcDbEntity
  8
文字
 62
     7
 48
50.0
100
AcDbText
 10
13583.1181901657
 20
10760.01374588372
 30
0.0
 40
100.0
  1
柱
  7
STYLE1
100
AcDbText
  0
TEXT
  5
13BC0
330
747D
100
AcDbEntity
  8
文字
 62
     7
 48
50.0
100
AcDbText
 10
13583.11819016569
 20
11100.01374588373
 30
0.0
 40
100.0
  1
土台枠
  7
STYLE1
100
AcDbText
  0
TEXT
  5
13BC1
330
747D
100
AcDbEntity
  8
文字
 62
     7
 48
50.0
100
AcDbText
 10
14859.79774614482
 20
11270.01374588372
 30
0.0
 40
100.0
  1
材料（材質）　　単位mm
  7
STYLE1
100
AcDbText
  0
TEXT
  5
13BC2
330
747D
100
AcDbEntity
  8
文字
 62
     7
 48
50.0
100
AcDbText
 10
13732.03840939434
 20
11270.01374588372
 30
0.0
 40
100.0
  1
部　　品　　名
  7
STYLE1
100
AcDbText
  0
TEXT
  5
13BC3
330
747D
100
AcDbEntity
  8
文字
 62
     7
 48
50.0
100
AcDbText
 10
13271.19032244792
 20
10760.01374588373
 30
0.0
 40
100.0
  1
3
  7
STYLE1
100
AcDbText
  0
TEXT
  5
13BC4
330
747D
100
AcDbEntity
  8
文字
 62
     7
 48
50.0
100
AcDbText
 10
13271.19032244792
 20
10590.01374588373
 30
0.0
 40
100.0
  1
4
  7
STYLE1
100
AcDbText
  0
TEXT
  5
13BC5
330
747D
100
AcDbEntity
  8
文字
 62
     7
 48
50.0
100
AcDbText
 10
13271.19032244792
 20
10930.01374588373
 30
0.0
 40
100.0
  1
2
  7
STYLE1
100
AcDbText
  0
TEXT
  5
13BC6
330
747D
100
AcDbEntity
  8
文字
 62
     7
 48
50.0
100
AcDbText
 10
13271.19032244792
 20
11100.01374588373
 30
0.0
 40
100.0
  1
1
  7
STYLE1
100
AcDbText
  0
TEXT
  5
13BC7
330
747D
100
AcDbEntity
  8
文字
 62
     7
 48
50.0
100
AcDbText
 10
13197.42518560407
 20
11270.01374588372
 30
0.0
 40
100.0
  1
品番
  7
STYLE1
100
AcDbText
  0
LINE
  5
13BC8
330
747D
100
AcDbEntity
  8
仕様書枠
 48
50.0
100
AcDbLine
 10
16307.19999999999
 20
10729.6
 30
0.0
 11
13127.2
 21
10729.6
 31
0.0
  0
LINE
  5
13BC9
330
747D
100
AcDbEntity
  8
仕様書枠
 48
50.0
100
AcDbLine
 10
16307.19999999999
 20
10389.6
 30
0.0
 11
13127.2
 21
10389.6
 31
0.0
  0
LINE
  5
13BCA
330
747D
100
AcDbEntity
  8
仕様書枠
 48
50.0
100
AcDbLine
 10
16307.19999999999
 20
10559.6
 30
0.0
 11
13127.2
 21
10559.6
 31
0.0
  0
LINE
  5
13BCB
330
747D
100
AcDbEntity
  8
仕様書枠
 48
50.0
100
AcDbLine
 10
16307.2
 20
11069.6
 30
0.0
 11
13127.2
 21
11069.6
 31
0.0
  0
LINE
  5
13BCC
330
747D
100
AcDbEntity
  8
仕様書枠
 48
50.0
100
AcDbLine
 10
16307.2
 20
10899.6
 30
0.0
 11
13127.2
 21
10899.6
 31
0.0
  0
LINE
  5
13BCD
330
747D
100
AcDbEntity
  8
仕様書枠
 48
50.0
100
AcDbLine
 10
16307.2
 20
11239.6
 30
0.0
 11
13127.2
 21
11239.6
 31
0.0
  0
LINE
  5
13BCE
330
747D
100
AcDbEntity
  8
仕様書枠
 48
50.0
100
AcDbLine
 10
13490.2
 20
11409.6
 30
0.0
 11
13490.20000000001
 21
8349.600000000007
 31
0.0
  0
LINE
  5
13BCF
330
747D
100
AcDbEntity
  8
仕様書枠
 48
50.0
100
AcDbLine
 10
14785.2
 20
11409.59999999999
 30
0.0
 11
14785.2
 21
8349.600000000004
 31
0.0
  0
LINE
  5
13BD0
330
747D
100
AcDbEntity
  8
仕様書枠
 48
50.0
100
AcDbLine
 10
16307.19999999999
 20
8009.600000000004
 30
0.0
 11
16307.2
 21
11409.6
 31
0.0
  0
LINE
  5
13BD1
330
747D
100
AcDbEntity
  8
仕様書枠
 48
50.0
100
AcDbLine
 10
16307.2
 20
11409.6
 30
0.0
 11
13127.2
 21
11409.6
 31
0.0
  0
LINE
  5
13BD2
330
747D
100
AcDbEntity
  8
仕様書枠
 48
50.0
100
AcDbLine
 10
16307.2
 20
10049.6
 30
0.0
 11
13127.2
 21
10049.6
 31
0.0
  0
TEXT
  5
13BD3
330
747D
100
AcDbEntity
  8
文字
 62
     7
 48
50.0
100
AcDbText
 10
15022.63965474515
 20
8380.013745883724
 30
0.0
 40
100.0
  1
F12            2.3
  7
STYLE1
100
AcDbText
  0
TEXT
  5
13BD4
330
747D
100
AcDbEntity
  8
文字
 62
     7
 48
50.0
100
AcDbText
 10
13583.11819016569
 20
8380.013745883728
 30
0.0
 40
100.0
  1
アンカープレート
  7
STYLE1
100
AcDbText
  0
LINE
  5
13BD5
330
747D
100
AcDbEntity
  8
仕様書枠
 48
50.0
100
AcDbLine
 10
16307.19999999999
 20
8519.600000000004
 30
0.0
 11
13127.2
 21
8519.600000000005
 31
0.0
  0
LINE
  5
13BD6
330
747D
100
AcDbEntity
  8
仕様書枠
 48
50.0
100
AcDbLine
 10
16307.19999999999
 20
8689.600000000003
 30
0.0
 11
13127.2
 21
8689.600000000005
 31
0.0
  0
TEXT
  5
13BD7
330
747D
100
AcDbEntity
  8
文字
 62
     7
 48
50.0
100
AcDbText
 10
13583.11819016569
 20
9230.013745883729
 30
0.0
 40
100.0
  1
壁面扉鴨居
  7
STYLE1
100
AcDbText
  0
TEXT
  5
13BD8
330
747D
100
AcDbEntity
  8
文字
 62
     7
 48
50.0
100
AcDbText
 10
13583.11819016569
 20
9060.013745883733
 30
0.0
 40
100.0
  1
壁面扉敷居
  7
STYLE1
100
AcDbText
  0
TEXT
  5
13BD9
330
747D
100
AcDbEntity
  8
文字
 62
     7
 48
50.0
100
AcDbText
 10
15022.63965474515
 20
9230.013745883727
 30
0.0
 40
100.0
  1
F12            0.7
  7
STYLE1
100
AcDbText
  0
TEXT
  5
13BDA
330
747D
100
AcDbEntity
  8
文字
 62
     7
 48
50.0
100
AcDbText
 10
15022.63965474517
 20
9060.013745883725
 30
0.0
 40
100.0
  1
F12            1.0
  7
STYLE1
100
AcDbText
  0
TEXT
  5
13BDB
330
747D
100
AcDbEntity
  8
文字
 62
     7
 48
50.0
100
AcDbText
 10
13583.11819016569
 20
8890.013745883733
 30
0.0
 40
100.0
  1
壁面扉枠左右
  7
STYLE1
100
AcDbText
  0
TEXT
  5
13BDC
330
747D
100
AcDbEntity
  8
文字
 62
     7
 48
50.0
100
AcDbText
 10
15022.63965474517
 20
8890.013745883726
 30
0.0
 40
100.0
  1
F12            1.0
  7
STYLE1
100
AcDbText
  0
TEXT
  5
13BDD
330
747D
100
AcDbEntity
  8
文字
 62
     7
 48
50.0
100
AcDbText
 10
13248.77747366447
 20
8550.013745883729
 30
0.0
 40
100.0
  1
16
  7
STYLE1
100
AcDbText
  0
TEXT
  5
13BDE
330
747D
100
AcDbEntity
  8
文字
 62
     7
 48
50.0
100
AcDbText
 10
13248.77747366447
 20
8380.013745883728
 30
0.0
 40
100.0
  1
17
  7
STYLE1
100
AcDbText
  0
TEXT
  5
13BDF
330
747D
100
AcDbEntity
  8
文字
 62
     7
 48
50.0
100
AcDbText
 10
13583.1181901657
 20
9910.01374588373
 30
0.0
 40
100.0
  1
梁中
 41
0.9
  7
STYLE1
100
AcDbText
  0
TEXT
  5
13BE0
330
747D
100
AcDbEntity
  8
文字
 62
     7
 48
50.0
100
AcDbText
 10
15022.63965474517
 20
9910.013745883727
 30
0.0
 40
100.0
  1
F12,Y10      1.2+1.6
  7
STYLE1
100
AcDbText
  0
LINE
  5
13C4E
330
747D
100
AcDbEntity
  8
部品1
100
AcDbLine
 10
5843.904397928898
 20
9831.984525907598
 30
0.0
 11
7523.904397928898
 21
9831.984525907598
 31
0.0
  0
LINE
  5
13C4F
330
747D
100
AcDbEntity
  8
部品1
100
AcDbLine
 10
5733.904397928896
 20
9831.984525907598
 30
0.0
 11
4053.904397928904
 21
9831.984525907596
 31
0.0
  0
LINE
  5
13C50
330
747D
100
AcDbEntity
  8
部品1
100
AcDbLine
 10
4026.904397928897
 20
9831.9845259076
 30
0.0
 11
3998.904397928898
 21
9831.9845259076
 31
0.0
  0
LINE
  5
13C51
330
747D
100
AcDbEntity
  8
部品1
100
AcDbLine
 10
7550.904397928899
 20
9831.9845259076
 30
0.0
 11
7578.904397928898
 21
9831.9845259076
 31
0.0
  0
LINE
  5
13E46
330
747D
100
AcDbEntity
  8
部品1
100
AcDbLine
 10
13610.25880607255
 20
4428.112805903258
 30
0.0
 11
13610.25880607255
 21
2338.11280590326
 31
0.0
  0
LINE
  5
13E47
330
747D
100
AcDbEntity
  8
細線
 48
50.0
100
AcDbLine
 10
13532.75880607256
 20
4428.112805903256
 30
0.0
 11
13532.75880607256
 21
2338.112805903258
 31
0.0
  0
LINE
  5
13E48
330
747D
100
AcDbEntity
  8
細線
 48
50.0
100
AcDbLine
 10
13547.75880607256
 20
4428.112805903256
 30
0.0
 11
13547.75880607256
 21
2338.112805903258
 31
0.0
  0
LINE
  5
13E49
330
747D
100
AcDbEntity
  8
細線
 48
50.0
100
AcDbLine
 10
13407.75880607256
 20
4428.112805903256
 30
0.0
 11
13407.75880607256
 21
2338.112805903258
 31
0.0
  0
LINE
  5
13E4A
330
747D
100
AcDbEntity
  8
細線
 48
50.0
100
AcDbLine
 10
13392.75880607256
 20
4428.112805903256
 30
0.0
 11
13392.75880607256
 21
2338.112805903258
 31
0.0
  0
LINE
  5
13E4B
330
747D
100
AcDbEntity
  8
細線
 48
50.0
100
AcDbLine
 10
13252.75880607256
 20
4428.112805903256
 30
0.0
 11
13252.75880607256
 21
2338.112805903258
 31
0.0
  0
LINE
  5
13E4C
330
747D
100
AcDbEntity
  8
細線
 48
50.0
100
AcDbLine
 10
13267.75880607256
 20
4428.112805903256
 30
0.0
 11
13267.75880607256
 21
2338.112805903258
 31
0.0
  0
LINE
  5
13E4D
330
747D
100
AcDbEntity
  8
部品1
100
AcDbLine
 10
13190.25880607255
 20
4428.112805903256
 30
0.0
 11
13190.25880607255
 21
2338.112805903258
 31
0.0
  0
DIMENSION
  5
13E56
330
747D
100
AcDbEntity
  8
寸法
 48
50.0
100
AcDbDimension
  2
*D13
 10
10414.65039930419
 20
4537.458064776588
 30
0.0
 11
10425.31587456311
 21
4908.304728018286
 31
0.0
 70
   161
 71
     5
 42
141.0
  3
INABA_S40G
100
AcDbAlignedDimension
 13
10994.65482623114
 23
4661.835554737936
 33
0.0
 14
10990.60137067451
 24
4520.893830972223
 34
0.0
1001
ACAD
1000
DSTYLE
1002
{
1070
   174
1070
     0
1070
   272
1070
     1
1070
   288
1070
     0
1070
   341
1005
0
1002
}
  0
LINE
  5
13E57
330
747D
100
AcDbEntity
  8
細線
 48
50.0
100
AcDbLine
 10
13952.75880607256
 20
4428.112805903258
 30
0.0
 11
13952.75880607256
 21
2338.112805903258
 31
0.0
  0
LINE
  5
13E58
330
747D
100
AcDbEntity
  8
細線
 48
50.0
100
AcDbLine
 10
13967.75880607257
 20
4428.112805903258
 30
0.0
 11
13967.75880607257
 21
2338.112805903258
 31
0.0
  0
LINE
  5
13E59
330
747D
100
AcDbEntity
  8
細線
 48
50.0
100
AcDbLine
 10
13827.75880607256
 20
4428.112805903258
 30
0.0
 11
13827.75880607256
 21
2338.112805903258
 31
0.0
  0
LINE
  5
13E5A
330
747D
100
AcDbEntity
  8
細線
 48
50.0
100
AcDbLine
 10
13812.75880607256
 20
4428.112805903258
 30
0.0
 11
13812.75880607256
 21
2338.112805903258
 31
0.0
  0
LINE
  5
13E5B
330
747D
100
AcDbEntity
  8
細線
 48
50.0
100
AcDbLine
 10
13672.75880607256
 20
4428.112805903258
 30
0.0
 11
13672.75880607256
 21
2338.112805903258
 31
0.0
  0
LINE
  5
13E5C
330
747D
100
AcDbEntity
  8
細線
 48
50.0
100
AcDbLine
 10
13687.75880607256
 20
4428.112805903258
 30
0.0
 11
13687.75880607256
 21
2338.112805903258
 31
0.0
  0
LINE
  5
13E5D
330
747D
100
AcDbEntity
  8
部品1
100
AcDbLine
 10
12350.25880607256
 20
4428.112805903256
 30
0.0
 11
12350.25880607256
 21
2338.112805903256
 31
0.0
  0
LINE
  5
13E5E
330
747D
100
AcDbEntity
  8
細線
 48
50.0
100
AcDbLine
 10
12007.75880607256
 20
4428.112805903256
 30
0.0
 11
12007.75880607257
 21
2338.112805903256
 31
0.0
  0
LINE
  5
13E5F
330
747D
100
AcDbEntity
  8
細線
 48
50.0
100
AcDbLine
 10
11992.75880607256
 20
4428.112805903256
 30
0.0
 11
11992.75880607256
 21
2338.112805903256
 31
0.0
  0
LINE
  5
13E60
330
747D
100
AcDbEntity
  8
細線
 48
50.0
100
AcDbLine
 10
12132.75880607256
 20
4428.112805903256
 30
0.0
 11
12132.75880607256
 21
2338.112805903256
 31
0.0
  0
LINE
  5
13E61
330
747D
100
AcDbEntity
  8
細線
 48
50.0
100
AcDbLine
 10
12147.75880607256
 20
4428.112805903256
 30
0.0
 11
12147.75880607256
 21
2338.112805903256
 31
0.0
  0
LINE
  5
13E62
330
747D
100
AcDbEntity
  8
細線
 48
50.0
100
AcDbLine
 10
12287.75880607256
 20
4428.112805903256
 30
0.0
 11
12287.75880607256
 21
2338.112805903256
 31
0.0
  0
LINE
  5
13E63
330
747D
100
AcDbEntity
  8
細線
 48
50.0
100
AcDbLine
 10
12272.75880607256
 20
4428.112805903256
 30
0.0
 11
12272.75880607257
 21
2338.112805903256
 31
0.0
  0
LINE
  5
13E64
330
747D
100
AcDbEntity
  8
部品1
100
AcDbLine
 10
11930.25880607256
 20
4428.112805903256
 30
0.0
 11
11930.25880607256
 21
2338.112805903256
 31
0.0
  0
DIMENSION
  5
13E65
330
747D
100
AcDbEntity
  8
寸法
 48
50.0
100
AcDbDimension
  2
*D14
 10
14165.25880607256
 20
5061.770259482562
 30
0.0
 11
14371.30605016705
 21
5061.770259482562
 31
0.0
 70
   160
 71
     5
 42
80.0
  3
INABA_S40G
100
AcDbAlignedDimension
 13
14085.25880607256
 23
4609.923485514911
 33
0.0
 14
14165.25880607256
 24
4608.112805903259
 34
0.0
100
AcDbRotatedDimension
1001
ACAD
1000
DSTYLE
1002
{
1070
   174
1070
     0
1070
   272
1070
     1
1070
   288
1070
     0
1070
   341
1005
0
1002
}
  0
LINE
  5
13E66
330
747D
100
AcDbEntity
  8
細線
 48
50.0
100
AcDbLine
 10
11167.75880607256
 20
4428.112805903256
 30
0.0
 11
11167.75880607256
 21
2338.112805903256
 31
0.0
  0
LINE
  5
13E67
330
747D
100
AcDbEntity
  8
細線
 48
50.0
100
AcDbLine
 10
11152.75880607256
 20
4428.112805903256
 30
0.0
 11
11152.75880607256
 21
2338.112805903256
 31
0.0
  0
LINE
  5
13E68
330
747D
100
AcDbEntity
  8
細線
 48
50.0
100
AcDbLine
 10
11292.75880607256
 20
4428.112805903256
 30
0.0
 11
11292.75880607256
 21
2338.112805903256
 31
0.0
  0
LINE
  5
13E69
330
747D
100
AcDbEntity
  8
細線
 48
50.0
100
AcDbLine
 10
11307.75880607256
 20
4428.112805903256
 30
0.0
 11
11307.75880607256
 21
2338.112805903256
 31
0.0
  0
LINE
  5
13E6A
330
747D
100
AcDbEntity
  8
細線
 48
50.0
100
AcDbLine
 10
11447.75880607256
 20
4428.112805903256
 30
0.0
 11
11447.75880607256
 21
2338.112805903256
 31
0.0
  0
LINE
  5
13E6B
330
747D
100
AcDbEntity
  8
細線
 48
50.0
100
AcDbLine
 10
11432.75880607256
 20
4428.112805903256
 30
0.0
 11
11432.75880607256
 21
2338.112805903256
 31
0.0
  0
LINE
  5
13E6C
330
747D
100
AcDbEntity
  8
細線
 48
50.0
100
AcDbLine
 10
11852.75880607256
 20
4428.112805903256
 30
0.0
 11
11852.75880607256
 21
2338.112805903256
 31
0.0
  0
LINE
  5
13E6D
330
747D
100
AcDbEntity
  8
細線
 48
50.0
100
AcDbLine
 10
11867.75880607256
 20
4428.112805903256
 30
0.0
 11
11867.75880607256
 21
2338.112805903256
 31
0.0
  0
LINE
  5
13E6E
330
747D
100
AcDbEntity
  8
細線
 48
50.0
100
AcDbLine
 10
11727.75880607256
 20
4428.112805903256
 30
0.0
 11
11727.75880607256
 21
2338.112805903256
 31
0.0
  0
LINE
  5
13E6F
330
747D
100
AcDbEntity
  8
細線
 48
50.0
100
AcDbLine
 10
11712.75880607256
 20
4428.112805903256
 30
0.0
 11
11712.75880607256
 21
2338.112805903256
 31
0.0
  0
LINE
  5
13E70
330
747D
100
AcDbEntity
  8
細線
 48
50.0
100
AcDbLine
 10
11572.75880607256
 20
4428.112805903256
 30
0.0
 11
11572.75880607256
 21
2338.112805903256
 31
0.0
  0
LINE
  5
13E71
330
747D
100
AcDbEntity
  8
細線
 48
50.0
100
AcDbLine
 10
11587.75880607256
 20
4428.112805903256
 30
0.0
 11
11587.75880607256
 21
2338.112805903256
 31
0.0
  0
LINE
  5
13E72
330
747D
100
AcDbEntity
  8
部品1
100
AcDbLine
 10
11035.25880607256
 20
2288.112805903256
 30
0.0
 11
14085.25880607256
 21
2288.112805903256
 31
0.0
  0
DIMENSION
  5
13E8C
330
747D
100
AcDbEntity
  8
寸法
 48
50.0
100
AcDbDimension
  2
*D15
 10
10975.25880607256
 20
5291.883852268838
 30
0.0
 11
12646.96461238209
 21
5291.883852268838
 31
0.0
 70
   160
 71
     5
 42
3189.999999999996
  3
INABA_S40G
100
AcDbAlignedDimension
 13
14165.25880607256
 23
4608.112805903258
 33
0.0
 14
10975.25880607256
 24
4663.112805903261
 34
0.0
100
AcDbRotatedDimension
1001
ACAD
1000
DSTYLE
1002
{
1070
   174
1070
     0
1070
   272
1070
     1
1070
   288
1070
     0
1070
   341
1005
0
1002
}
  0
DIMENSION
  5
13E8D
330
747D
100
AcDbEntity
  8
寸法
 48
50.0
100
AcDbDimension
  2
*D16
 10
10975.25880607256
 20
5061.77025948256
 30
0.0
 11
10665.62101079697
 21
5061.77025948256
 31
0.0
 70
   160
 71
     5
 42
60.0
  3
INABA_S40G
100
AcDbAlignedDimension
 13
11035.25880607256
 23
4659.114424026233
 33
0.0
 14
10975.25880607256
 24
4663.112805903261
 34
0.0
100
AcDbRotatedDimension
1001
ACAD
1000
DSTYLE
1002
{
1070
   174
1070
     0
1070
   272
1070
     1
1070
   288
1070
     0
1070
   341
1005
0
1002
}
  0
DIMENSION
  5
13E8E
330
747D
100
AcDbEntity
  8
寸法
 48
50.0
100
AcDbDimension
  2
*D17
 10
11035.25880607256
 20
5061.770259482562
 30
0.0
 11
12605.31718063197
 21
5061.770259482562
 31
0.0
 70
   160
  1
柱外寸法<>
 71
     5
 42
3049.999999999997
  3
INABA_S40G
100
AcDbAlignedDimension
 13
14085.25880607256
 23
4609.923485514911
 33
0.0
 14
11035.25880607256
 24
4659.114424026233
 34
0.0
100
AcDbRotatedDimension
1001
ACAD
1000
DSTYLE
1002
{
1070
   174
1070
     0
1070
   272
1070
     1
1070
   288
1070
     0
1070
   341
1005
0
1002
}
  0
LINE
  5
13E91
330
747D
100
AcDbEntity
  8
部品1
100
AcDbLine
 10
14030.25880607256
 20
4428.112805903258
 30
0.0
 11
14030.25880607256
 21
2338.112805903258
 31
0.0
  0
LINE
  5
13E92
330
747D
100
AcDbEntity
  8
部品1
100
AcDbLine
 10
14085.25880607256
 20
4482.542833684377
 30
0.0
 11
14085.25880607256
 21
2188.112805903258
 31
0.0
  0
LINE
  5
13E93
330
747D
100
AcDbEntity
  8
部品1
100
AcDbLine
 10
11510.25880607256
 20
4428.112805903256
 30
0.0
 11
11510.25880607256
 21
2338.112805903256
 31
0.0
  0
DIMENSION
  5
13E94
330
747D
100
AcDbEntity
  8
寸法
100
AcDbDimension
  2
*D18
 10
10191.5086768893
 20
2288.112805903252
 30
0.0
 11
10191.5086768893
 21
1982.065561808765
 31
0.0
 70
   160
 71
     5
 42
50.00000000000454
  3
INABA_S40G
100
AcDbAlignedDimension
 13
11035.25880607256
 23
2338.112805903256
 33
0.0
 14
10958.25880607256
 24
2288.112805903252
 34
0.0
 50
90.0
100
AcDbRotatedDimension
1001
ACAD
1000
DSTYLE
1002
{
1070
   174
1070
     0
1070
   272
1070
     1
1070
   288
1070
     0
1070
   341
1005
0
1002
}
  0
LINE
  5
13E96
330
747D
100
AcDbEntity
  8
部品1
100
AcDbLine
 10
11035.25880607256
 20
4520.255243832134
 30
0.0
 11
11035.25880607256
 21
2188.112805903256
 31
0.0
  0
LINE
  5
13E97
330
747D
100
AcDbEntity
  8
部品1
100
AcDbLine
 10
11090.25880607256
 20
4428.112805903256
 30
0.0
 11
11090.25880607256
 21
2338.112805903256
 31
0.0
  0
LINE
  5
13E99
330
747D
100
AcDbEntity
  8
部品1
100
AcDbLine
 10
11035.25880607256
 20
2338.112805903256
 30
0.0
 11
14085.25880607256
 21
2338.112805903258
 31
0.0
  0
LINE
  5
13E9A
330
747D
100
AcDbEntity
  8
部品1
100
AcDbLine
 10
11035.25880607256
 20
4428.112805903256
 30
0.0
 11
14085.25880607255
 21
4428.112805903256
 31
0.0
  0
LINE
  5
13E9B
330
747D
100
AcDbEntity
  8
部品1
100
AcDbLine
 10
14030.25880607255
 20
4428.11280590326
 30
0.0
 11
14030.25880607255
 21
2338.11280590326
 31
0.0
  0
LINE
  5
13E9C
330
747D
100
AcDbEntity
  8
細線
 48
50.0
100
AcDbLine
 10
12692.75880607256
 20
4428.112805903256
 30
0.0
 11
12692.75880607257
 21
2338.112805903256
 31
0.0
  0
LINE
  5
13E9D
330
747D
100
AcDbEntity
  8
細線
 48
50.0
100
AcDbLine
 10
12707.75880607256
 20
4428.112805903256
 30
0.0
 11
12707.75880607256
 21
2338.112805903256
 31
0.0
  0
LINE
  5
13E9E
330
747D
100
AcDbEntity
  8
細線
 48
50.0
100
AcDbLine
 10
12567.75880607256
 20
4428.112805903256
 30
0.0
 11
12567.75880607256
 21
2338.112805903256
 31
0.0
  0
LINE
  5
13E9F
330
747D
100
AcDbEntity
  8
細線
 48
50.0
100
AcDbLine
 10
12552.75880607256
 20
4428.112805903256
 30
0.0
 11
12552.75880607257
 21
2338.112805903256
 31
0.0
  0
LINE
  5
13EA0
330
747D
100
AcDbEntity
  8
細線
 48
50.0
100
AcDbLine
 10
12412.75880607256
 20
4428.112805903256
 30
0.0
 11
12412.75880607257
 21
2338.112805903256
 31
0.0
  0
LINE
  5
13EA1
330
747D
100
AcDbEntity
  8
細線
 48
50.0
100
AcDbLine
 10
12427.75880607256
 20
4428.112805903256
 30
0.0
 11
12427.75880607256
 21
2338.112805903256
 31
0.0
  0
TEXT
  5
13EA2
330
747D
100
AcDbEntity
  8
部品1
 48
50.0
100
AcDbText
 10
12905.12795012793
 20
4685.381898841563
 30
0.0
 40
120.0
  1
32
 50
90.0
  7
STYLE1
100
AcDbText
  0
TEXT
  5
13EA3
330
747D
100
AcDbEntity
  8
部品1
 48
50.0
100
AcDbText
 10
12427.49492746284
 20
4822.883157059846
 30
0.0
 40
120.0
  1
1000
  7
STYLE1
100
AcDbText
  0
LINE
  5
13EA4
330
747D
100
AcDbEntity
  8
部品1
 48
50.0
100
AcDbLine
 10
12739.22709223911
 20
4786.999134907413
 30
0.0
 11
12739.22709223911
 21
4770.799134907413
 31
0.0
  0
LINE
  5
13EA5
330
747D
100
AcDbEntity
  8
部品1
 48
50.0
100
AcDbLine
 10
12439.22709223911
 20
4786.999134907413
 30
0.0
 11
12739.22709223911
 21
4786.999134907413
 31
0.0
  0
LINE
  5
13EA6
330
747D
100
AcDbEntity
  8
部品1
100
AcDbLine
 10
10982.80379242952
 20
4661.830541237523
 30
0.0
 11
14157.87068293403
 21
4606.753603612395
 31
0.0
  0
LINE
  5
13EA7
330
747D
100
AcDbEntity
  8
部品1
100
AcDbLine
 10
10990.60137067451
 20
4520.893830972223
 30
0.0
 11
14139.92250661241
 21
4481.865405738018
 31
0.0
  0
LINE
  5
13EA8
330
747D
100
AcDbEntity
  8
細線
 48
50.0
100
AcDbLine
 10
11008.25880607256
 20
4660.512482278661
 30
0.0
 11
11002.96970451705
 21
4520.426849651307
 31
0.0
  0
LINE
  5
13EA9
330
747D
100
AcDbEntity
  8
細線
 48
50.0
100
AcDbLine
 10
14132.22808926625
 20
4607.266228382726
 30
0.0
 11
14127.51112318457
 21
4482.334012447809
 31
0.0
  0
LINE
  5
13EAA
330
747D
100
AcDbEntity
  8
部品1
 48
50.0
100
AcDbLine
 10
10975.44309198567
 20
4654.706352067949
 30
0.0
 11
10975.82335176348
 21
4634.779387621537
 31
0.0
  0
LINE
  5
13EAB
330
747D
100
AcDbEntity
  8
部品1
 48
50.0
100
AcDbLine
 10
10978.89212386973
 20
4631.204106128065
 30
0.0
 11
10980.59602536109
 21
4541.913609421418
 31
0.0
  0
LINE
  5
13EAC
330
747D
100
AcDbEntity
  8
細線
 48
50.0
100
AcDbLine
 10
10976.29822917338
 20
4634.129887744617
 30
0.0
 11
14161.93421391855
 21
4578.50568310379
 31
0.0
  0
LINE
  5
13EAD
330
747D
100
AcDbEntity
  8
細線
 48
50.0
100
AcDbLine
 10
10981.05870441066
 20
4541.268376046754
 30
0.0
 11
14151.0623688413
 21
4501.459057072261
 31
0.0
  0
LINE
  5
13EAE
330
747D
100
AcDbEntity
  8
部品1
 48
50.0
100
AcDbLine
 10
10983.66479746733
 20
4538.338327927946
 30
0.0
 11
10983.86675008776
 21
4527.755292534854
 31
0.0
  0
ARC
  5
13EAF
330
747D
100
AcDbEntity
  8
部品1
 48
50.0
100
AcDbCircle
 10
10982.44181781401
 20
4654.839906475376
 30
0.0
 40
7.0
100
AcDbArc
 50
87.03587545283228
 51
181.0932240293156
  0
ARC
  5
13EB0
330
747D
100
AcDbEntity
  8
部品1
 48
50.0
100
AcDbCircle
 10
10990.8654759161
 20
4527.888846942281
 30
0.0
 40
7.0
100
AcDbArc
 50
181.0932240293156
 51
267.8377559869492
  0
ARC
  5
13EB1
330
747D
100
AcDbEntity
  8
部品1
100
AcDbCircle
 10
10980.6653435409
 20
4538.281090324763
 30
0.0
 40
3.0
100
AcDbArc
 50
1.093224029315636
 51
80.18775403169875
  0
ARC
  5
13EB2
330
747D
100
AcDbEntity
  8
部品1
100
AcDbCircle
 10
10975.8926699433
 20
4631.146868524882
 30
0.0
 40
3.0
100
AcDbArc
 50
1.093224029315636
 51
80.18775403169875
  0
ARC
  5
13EB3
330
747D
100
AcDbEntity
  8
部品1
100
AcDbCircle
 10
10976.52322434632
 20
4634.79274306228
 30
0.0
 40
0.7
100
AcDbArc
 50
181.0932240292114
 51
260.1877540314845
  0
ARC
  5
13EB4
330
747D
100
AcDbEntity
  8
部品1
100
AcDbCircle
 10
10981.29589794393
 20
4541.92696486216
 30
0.0
 40
0.7
100
AcDbArc
 50
181.0932240292635
 51
260.1877540314845
  0
LINE
  5
13EB5
330
747D
100
AcDbEntity
  8
部品1
 48
50.0
100
AcDbLine
 10
14164.47270888327
 20
4599.053958177475
 30
0.0
 11
14162.4420876923
 21
4579.108916919696
 31
0.0
  0
LINE
  5
13EB6
330
747D
100
AcDbEntity
  8
部品1
 48
50.0
100
AcDbLine
 10
14159.08952120781
 20
4575.798282846786
 30
0.0
 11
14151.58274194298
 21
4502.065662101774
 31
0.0
  0
LINE
  5
13EB7
330
747D
100
AcDbEntity
  8
部品1
 48
50.0
100
AcDbLine
 10
14148.23017545849
 20
4498.755028028862
 30
0.0
 11
14147.15061241875
 21
4488.151411035303
 31
0.0
  0
ARC
  5
13EB8
330
747D
100
AcDbEntity
  8
部品1
 48
50.0
100
AcDbCircle
 10
14157.50870831851
 20
4599.76296885025
 30
0.0
 40
7.0
100
AcDbArc
 50
354.1866997665532
 51
87.03587545283228
  0
ARC
  5
13EB9
330
747D
100
AcDbEntity
  8
部品1
 48
50.0
100
AcDbCircle
 10
14140.186611854
 20
4488.860421708078
 30
0.0
 40
7.0
100
AcDbArc
 50
267.8377559869492
 51
354.1866997665532
  0
ARC
  5
13EBA
330
747D
100
AcDbEntity
  8
部品1
100
AcDbCircle
 10
14151.2147471291
 20
4498.451166311959
 30
0.0
 40
3.0
100
AcDbArc
 50
95.09216976420788
 51
174.1866997665532
  0
ARC
  5
13EBB
330
747D
100
AcDbEntity
  8
部品1
100
AcDbCircle
 10
14162.07409287842
 20
4575.494421129883
 30
0.0
 40
3.0
100
AcDbArc
 50
95.09216976420788
 51
174.1866997665532
  0
ARC
  5
13EBC
330
747D
100
AcDbEntity
  8
部品1
100
AcDbCircle
 10
14161.74568763582
 20
4579.179817986973
 30
0.0
 40
0.7
100
AcDbArc
 50
275.0921697642079
 51
354.1866997665532
  0
ARC
  5
13EBD
330
747D
100
AcDbEntity
  8
部品1
100
AcDbCircle
 10
14150.8863418865
 20
4502.13656316905
 30
0.0
 40
0.7
100
AcDbArc
 50
275.0921697642079
 51
354.1866997667087
  0
LINE
  5
13EBE
330
747D
100
AcDbEntity
  8
部品1
100
AcDbLine
 10
12413.77207859607
 20
4788.317193866275
 30
0.0
 11
12739.22709223911
 21
4770.799134907413
 31
0.0
  0
LINE
  5
13EBF
330
747D
100
AcDbEntity
  8
部品1
100
AcDbLine
 10
12770.25880607256
 20
4428.112805903256
 30
0.0
 11
12770.25880607256
 21
2338.112805903258
 31
0.0
  0
LINE
  5
13EC0
330
747D
100
AcDbEntity
  8
細線
 48
50.0
100
AcDbLine
 10
12847.75880607256
 20
4428.112805903256
 30
0.0
 11
12847.75880607256
 21
2338.112805903258
 31
0.0
  0
LINE
  5
13EC1
330
747D
100
AcDbEntity
  8
細線
 48
50.0
100
AcDbLine
 10
12832.75880607256
 20
4428.112805903256
 30
0.0
 11
12832.75880607256
 21
2338.112805903258
 31
0.0
  0
LINE
  5
13EC2
330
747D
100
AcDbEntity
  8
細線
 48
50.0
100
AcDbLine
 10
12972.75880607256
 20
4428.112805903256
 30
0.0
 11
12972.75880607256
 21
2338.112805903258
 31
0.0
  0
LINE
  5
13EC3
330
747D
100
AcDbEntity
  8
細線
 48
50.0
100
AcDbLine
 10
12987.75880607256
 20
4428.112805903256
 30
0.0
 11
12987.75880607256
 21
2338.112805903258
 31
0.0
  0
LINE
  5
13EC4
330
747D
100
AcDbEntity
  8
細線
 48
50.0
100
AcDbLine
 10
13127.75880607256
 20
4428.112805903256
 30
0.0
 11
13127.75880607256
 21
2338.112805903258
 31
0.0
  0
LINE
  5
13EC5
330
747D
100
AcDbEntity
  8
細線
 48
50.0
100
AcDbLine
 10
13112.75880607256
 20
4428.112805903256
 30
0.0
 11
13112.75880607256
 21
2338.112805903258
 31
0.0
  0
DIMENSION
  5
13EC6
330
747D
100
AcDbEntity
  8
寸法
100
AcDbDimension
  2
*D19
 10
14790.18596404469
 20
4608.112805903257
 30
0.0
 11
14690.17415302106
 21
3448.11280590326
 31
0.0
 70
    32
 71
     5
 42
2320.0
  3
INABA_S40G
100
AcDbAlignedDimension
 13
14085.25880607256
 23
2288.112805903258
 33
0.0
 14
14165.25880607256
 24
4608.112805903258
 34
0.0
 50
90.0
100
AcDbRotatedDimension
1001
ACAD
1000
DSTYLE
1002
{
1070
   174
1070
     0
1070
   272
1070
     1
1070
   288
1070
     0
1070
   341
1005
0
1002
}
  0
DIMENSION
  5
13EC7
330
747D
100
AcDbEntity
  8
寸法
100
AcDbDimension
  2
*D20
 10
9891.508676889303
 20
4663.112805903256
 30
0.0
 11
9791.496865865681
 21
3475.612805903256
 31
0.0
 70
    32
 71
     5
 42
2375.000000000005
  3
INABA_S40G
100
AcDbAlignedDimension
 13
10958.25880607256
 23
2288.112805903252
 33
0.0
 14
10975.25880607256
 24
4663.112805903256
 34
0.0
 50
90.0
100
AcDbRotatedDimension
1001
ACAD
1000
DSTYLE
1002
{
1070
   174
1070
     0
1070
   272
1070
     1
1070
   288
1070
     0
1070
   341
1005
0
1002
}
  0
DIMENSION
  5
13EC8
330
747D
100
AcDbEntity
  8
寸法
100
AcDbDimension
  2
*D21
 10
10191.5086768893
 20
2338.112805903252
 30
0.0
 11
10091.49686586568
 21
3383.112805903254
 31
0.0
 70
    32
 71
     5
 42
2090.000000000001
  3
INABA_S40G
100
AcDbAlignedDimension
 13
11035.25880607256
 23
4428.112805903253
 33
0.0
 14
11035.25880607256
 24
2338.112805903252
 34
0.0
 50
90.0
100
AcDbRotatedDimension
1001
ACAD
1000
DSTYLE
1002
{
1070
   174
1070
     0
1070
   272
1070
     1
1070
   288
1070
     0
1070
   341
1005
0
1002
}
  0
LWPOLYLINE
  5
13ECB
330
747D
100
AcDbEntity
  8
部品1
100
AcDbPolyline
 90
        4
 70
     1
 43
0.0
 10
12188.52347295834
 20
1862.751840551128
 10
12188.52347295834
 20
1622.859519005596
 10
12951.99413918678
 20
1622.859519005596
 10
12951.99413918678
 20
1862.751840551128
  0
TEXT
  5
13ECC
330
747D
100
AcDbEntity
  8
部品1
100
AcDbText
 10
12277.96957438195
 20
1669.858311332605
 30
0.0
 40
135.0
  1
側面図
  7
STYLE2
100
AcDbText
  0
DIMENSION
  5
1406B
330
747D
100
AcDbEntity
  8
寸法
 48
50.0
100
AcDbDimension
  2
*D22
 10
10490.3501646753
 20
2354.112805903256
 30
0.0
 11
10398.33835365168
 21
3366.612805903259
 31
0.0
 70
    32
  1
有効開口部高サ<>
 71
     5
 42
2025.0
  3
INABA_S40
100
AcDbAlignedDimension
 13
10958.25880607256
 23
4379.112805903257
 33
0.0
 14
10958.25880607256
 24
2354.112805903256
 34
0.0
 50
90.0
100
AcDbRotatedDimension
1001
ACAD
1000
DSTYLE
1002
{
1070
    41
1040
0.5
1070
    44
1040
1.0
1070
   147
1040
0.8
1070
   271
1070
     2
1070
   272
1070
     2
1070
   289
1070
     3
1070
   340
1005
F706
1070
   343
1005
F744
1070
   344
1005
F744
1002
}
  0
LINE
  5
1406E
330
747D
100
AcDbEntity
  8
部品1
100
AcDbLine
 10
11035.25880607256
 20
2288.112805903256
 30
0.0
 11
10958.25880607256
 21
2288.112805903256
 31
0.0
  0
LINE
  5
15049
330
747D
100
AcDbEntity
  8
破線
 48
10.0
100
AcDbLine
 10
6708.904397928887
 20
7311.984525907594
 30
0.0
 11
6708.904397928908
 21
10251.9845259076
 31
0.0
  0
LINE
  5
1504A
330
747D
100
AcDbEntity
  8
破線
 48
10.0
100
AcDbLine
 10
6658.904397928896
 20
7311.984525907594
 30
0.0
 11
6658.904397928889
 21
10251.9845259076
 31
0.0
  0
LINE
  5
1504D
330
747D
100
AcDbEntity
  8
破線
 48
10.0
100
AcDbLine
 10
4918.904397928904
 20
7311.984525907597
 30
0.0
 11
4918.904397928908
 21
10251.9845259076
 31
0.0
  0
LINE
  5
1504E
330
747D
100
AcDbEntity
  8
破線
 48
10.0
100
AcDbLine
 10
4868.904397928912
 20
7311.984525907597
 30
0.0
 11
4868.904397928895
 21
10251.9845259076
 31
0.0
  0
LINE
  5
15053
330
747D
100
AcDbEntity
  8
破線
  6
HIDDEN
 48
10.0
100
AcDbLine
 10
4077.404397928893
 20
7335.484525907597
 30
0.0
 11
4868.904397928914
 21
7335.484525907595
 31
0.0
  0
LINE
  5
15054
330
747D
100
AcDbEntity
  8
破線
  6
HIDDEN
 48
10.0
100
AcDbLine
 10
5867.404397928894
 20
7335.484525907597
 30
0.0
 11
6658.904397928896
 21
7335.484525907594
 31
0.0
  0
LINE
  5
15059
330
747D
100
AcDbEntity
  8
破線
  6
HIDDEN
 48
10.0
100
AcDbLine
 10
4077.404397928904
 20
10228.4845259076
 30
0.0
 11
4868.904397928895
 21
10228.4845259076
 31
0.0
  0
LINE
  5
1505A
330
747D
100
AcDbEntity
  8
破線
  6
HIDDEN
 48
10.0
100
AcDbLine
 10
7500.404397928898
 20
10228.48452590759
 30
0.0
 11
6708.904397928908
 21
10228.48452590759
 31
0.0
  0
LINE
  5
1578E
330
747D
100
AcDbEntity
  8
部品1
100
AcDbLine
 10
5733.904397928899
 20
7256.984525907594
 30
0.0
 11
5760.904397928899
 21
7256.984525907594
 31
0.0
  0
DIMENSION
  5
15C46
330
747D
100
AcDbEntity
  8
寸法
100
AcDbDimension
  2
*D24
 10
3740.153023599285
 20
7181.984525907563
 30
0.0
 11
3740.153023599283
 21
7024.733295499377
 31
0.0
 70
   160
 71
     5
 42
75.00000000003274
  3
INABA_S40
100
AcDbAlignedDimension
 13
3998.904397928898
 23
7256.984525907596
 33
0.0
 14
4026.904397928898
 24
7181.984525907563
 34
0.0
 50
90.0
100
AcDbRotatedDimension
1001
ACAD
1000
DSTYLE
1002
{
1070
    41
1040
0.5
1070
    44
1040
1.0
1070
   147
1040
0.8
1070
   271
1070
     2
1070
   272
1070
     2
1070
   289
1070
     3
1070
   340
1005
F706
1070
   343
1005
F744
1070
   344
1005
F744
1002
}
  0
LWPOLYLINE
  5
15D08
330
747D
100
AcDbEntity
  8
部品1
100
AcDbPolyline
 90
        4
 70
     1
 43
0.0
 10
5407.169064814692
 20
5803.796299326955
 10
5407.169064814692
 20
5563.903977781422
 10
6170.639731043134
 20
5563.903977781422
 10
6170.639731043134
 20
5803.796299326955
  0
TEXT
  5
15D09
330
747D
100
AcDbEntity
  8
部品1
100
AcDbText
 10
5497.088674643734
 20
5610.902770108431
 30
0.0
 40
135.0
  1
平面図
  7
STYLE2
100
AcDbText
  0
DIMENSION
  5
15D42
330
747D
100
AcDbEntity
  8
寸法
 48
50.0
100
AcDbDimension
  2
*D25
 10
7578.904397928899
 20
5978.935946353274
 30
0.0
 11
6683.904397928898
 21
6070.935946353275
 31
0.0
 70
    32
 71
     5
 42
1790.000000000001
  3
INABA_S40
100
AcDbAlignedDimension
 13
5788.904397928899
 23
7311.984525907591
 33
0.0
 14
7578.904397928899
 24
7256.984525907596
 34
0.0
100
AcDbRotatedDimension
1001
ACAD
1000
DSTYLE
1002
{
1070
    41
1040
0.5
1070
    44
1040
1.0
1070
   147
1040
0.8
1070
   271
1070
     2
1070
   272
1070
     2
1070
   289
1070
     3
1070
   340
1005
F706
1070
   343
1005
F744
1070
   344
1005
F744
1002
}
  0
DIMENSION
  5
15D67
330
747D
100
AcDbEntity
  8
寸法
 48
50.0
100
AcDbDimension
  2
*D26
 10
5788.904397928899
 20
5978.935946353274
 30
0.0
 11
4893.904397928898
 21
5978.935946353274
 31
0.0
 70
   160
 71
     5
 42
1790.0
  3
INABA_S40
100
AcDbAlignedDimension
 13
3998.904397928898
 23
7256.984525907596
 33
0.0
 14
5788.904397928899
 24
7311.984525907596
 34
0.0
100
AcDbRotatedDimension
1001
ACAD
1000
DSTYLE
1002
{
1070
    41
1040
0.5
1070
    44
1040
1.0
1070
   147
1040
0.8
1070
   271
1070
     2
1070
   272
1070
     2
1070
   289
1070
     3
1070
   340
1005
F706
1070
   343
1005
F744
1070
   344
1005
F744
1002
}
  0
LINE
  5
16175
330
747D
100
AcDbEntity
  8
部品1
100
AcDbLine
 10
3973.056597808622
 20
4428.112805903256
 30
0.0
 11
5738.056597808622
 21
4428.112805903256
 31
0.0
  0
LINE
  5
16176
330
747D
100
AcDbEntity
  8
部品1
100
AcDbLine
 10
3973.056597808622
 20
4428.112805903256
 30
0.0
 11
7553.056597808623
 21
4428.112805903256
 31
0.0
  0
LINE
  5
16177
330
747D
100
AcDbEntity
  8
部品1
100
AcDbLine
 10
3973.056597808623
 20
2288.112805903256
 30
0.0
 11
7553.056597808621
 21
2288.112805903256
 31
0.0
  0
LINE
  5
16178
330
747D
100
AcDbEntity
  8
部品1
100
AcDbLine
 10
3973.056597808622
 20
4522.112805903261
 30
0.0
 11
3973.056597808622
 21
2188.112805903256
 31
0.0
  0
LINE
  5
16179
330
747D
100
AcDbEntity
  8
部品1
 48
50.0
100
AcDbLine
 10
5763.056597808623
 20
2338.112805903256
 30
0.0
 11
7553.056597808621
 21
2338.112805903256
 31
0.0
  0
LINE
  5
1617A
330
747D
100
AcDbEntity
  8
部品1
100
AcDbLine
 10
5818.056597808621
 20
4428.112805903256
 30
0.0
 11
5818.056597808621
 21
2338.112805903256
 31
0.0
  0
LINE
  5
1617B
330
747D
100
AcDbEntity
  8
部品1
100
AcDbLine
 10
6238.056597808622
 20
4428.112805903256
 30
0.0
 11
6238.056597808619
 21
2338.112805903256
 31
0.0
  0
LINE
  5
1617C
330
747D
100
AcDbEntity
  8
部品1
 48
50.0
100
AcDbLine
 10
5763.056597808623
 20
2338.112805903256
 30
0.0
 11
5735.056597808625
 21
2338.112805903256
 31
0.0
  0
LINE
  5
1617D
330
747D
100
AcDbEntity
  8
部品1
100
AcDbLine
 10
5763.056597808623
 20
2338.112805903256
 30
0.0
 11
5763.056597808596
 21
2288.112805903256
 31
0.0
  0
LINE
  5
1617E
330
747D
100
AcDbEntity
  8
部品1
100
AcDbLine
 10
5763.056597808623
 20
4428.112805903256
 30
0.0
 11
5763.056597808623
 21
4522.112805903261
 31
0.0
  0
LINE
  5
1617F
330
747D
100
AcDbEntity
  8
部品1
100
AcDbLine
 10
7078.056597808634
 20
4428.112805903256
 30
0.0
 11
7078.056597808632
 21
2338.112805903256
 31
0.0
  0
LINE
  5
16180
330
747D
100
AcDbEntity
  8
部品1
100
AcDbLine
 10
7078.05659780862
 20
4428.112805903256
 30
0.0
 11
7078.05659780862
 21
2338.112805903256
 31
0.0
  0
LINE
  5
16181
330
747D
100
AcDbEntity
  8
部品1
100
AcDbLine
 10
6658.056597808621
 20
4428.112805903256
 30
0.0
 11
6658.05659780862
 21
2338.112805903256
 31
0.0
  0
LINE
  5
16182
330
747D
100
AcDbEntity
  8
部品1
100
AcDbLine
 10
7498.056597808622
 20
4428.112805903256
 30
0.0
 11
7498.05659780862
 21
2338.112805903256
 31
0.0
  0
LINE
  5
16183
330
747D
100
AcDbEntity
  8
部品1
100
AcDbLine
 10
7553.056597808621
 20
4522.112805903261
 30
0.0
 11
7553.056597808621
 21
2188.112805903256
 31
0.0
  0
DIMENSION
  5
16184
330
747D
100
AcDbEntity
  8
寸法
 48
50.0
100
AcDbDimension
  2
*D27
 10
3973.056597808622
 20
4875.654391161501
 30
0.0
 11
5763.056597808623
 21
4875.654391161501
 31
0.0
 70
   160
  1
柱外寸法<>
 71
     5
 42
3580.000000000005
  3
INABA_S40G
100
AcDbAlignedDimension
 13
7553.056597808627
 23
4663.112805903258
 33
0.0
 14
3973.056597808622
 24
4663.112805903265
 34
0.0
100
AcDbRotatedDimension
  0
DIMENSION
  5
16185
330
747D
100
AcDbEntity
  8
寸法
 48
50.0
100
AcDbDimension
  2
*D28
 10
7553.056597808627
 20
4875.654391161499
 30
0.0
 11
7909.103841903116
 21
4875.654391161499
 31
0.0
 70
   160
 71
     5
 42
50.0
  3
INABA_S40G
100
AcDbAlignedDimension
 13
7603.056597808627
 23
4663.112805903258
 33
0.0
 14
7553.056597808627
 24
4663.112805903259
 34
0.0
100
AcDbRotatedDimension
  0
DIMENSION
  5
16186
330
747D
100
AcDbEntity
  8
寸法
 48
50.0
100
AcDbDimension
  2
*D29
 10
7603.056597808627
 20
5096.559691635249
 30
0.0
 11
5763.056597808623
 21
5096.559691635249
 31
0.0
 70
   160
 71
     5
 42
3680.000000000005
  3
INABA_S40G
100
AcDbAlignedDimension
 13
3923.056597808622
 23
4663.112805903263
 33
0.0
 14
7603.056597808627
 24
4663.112805903258
 34
0.0
100
AcDbRotatedDimension
  0
ARC
  5
16187
330
747D
100
AcDbEntity
  8
部品1
100
AcDbCircle
 10
7595.648176702194
 20
4656.112805903258
 30
0.0
 40
7.0
100
AcDbArc
 50
356.7526572096653
 51
90.0
  0
ARC
  5
16188
330
747D
100
AcDbEntity
  8
部品1
100
AcDbCircle
 10
7582.432853241158
 20
4529.11280590326
 30
0.0
 40
7.0
100
AcDbArc
 50
270.0
 51
356.7526572096653
  0
ARC
  5
16189
330
747D
100
AcDbEntity
  8
部品1
 48
50.0
100
AcDbCircle
 10
7600.804663451838
 20
4635.779805064945
 30
0.0
 40
0.7
100
AcDbArc
 50
277.6581272073652
 51
356.7526572096132
  0
ARC
  5
1618A
330
747D
100
AcDbEntity
  8
部品1
 48
50.0
100
AcDbCircle
 10
7592.568632926994
 20
4543.579805064941
 30
0.0
 40
0.7
100
AcDbArc
 50
277.6581272073652
 51
356.7526572097173
  0
ARC
  5
1618B
330
747D
100
AcDbEntity
  8
部品1
 48
50.0
100
AcDbCircle
 10
7593.061702035555
 20
4539.912805903258
 30
0.0
 40
3.0
100
AcDbArc
 50
97.65812720736519
 51
176.7526572096653
  0
ARC
  5
1618C
330
747D
100
AcDbEntity
  8
部品1
 48
50.0
100
AcDbCircle
 10
7601.297732560401
 20
4632.11280590326
 30
0.0
 40
3.0
100
AcDbArc
 50
97.65812720736519
 51
176.7526572096653
  0
LINE
  5
1618D
330
747D
100
AcDbEntity
  8
部品1
100
AcDbLine
 10
7598.302549664213
 20
4632.282745358361
 30
0.0
 11
7593.267508936104
 21
4543.540152525419
 31
0.0
  0
LINE
  5
1618E
330
747D
100
AcDbEntity
  8
部品1
100
AcDbLine
 10
7590.066519139369
 20
4540.08274535836
 30
0.0
 11
7589.421613332257
 21
4528.71628050802
 31
0.0
  0
LINE
  5
1618F
330
747D
100
AcDbEntity
  8
細線
 48
50.0
100
AcDbLine
 10
7570.056597808627
 20
4663.112805903258
 30
0.0
 11
7570.056597808627
 21
4522.112805903257
 31
0.0
  0
LINE
  5
16190
330
747D
100
AcDbEntity
  8
部品1
100
AcDbLine
 10
7602.636936793292
 20
4655.716280508019
 30
0.0
 11
7601.503539460946
 21
4635.740152525419
 31
0.0
  0
LINE
  5
16191
330
747D
100
AcDbEntity
  8
部品1
 48
50.0
100
AcDbLine
 10
7582.432853241158
 20
4522.11280590326
 30
0.0
 11
3943.680342376087
 21
4522.11280590326
 31
0.0
  0
LINE
  5
16192
330
747D
100
AcDbEntity
  8
細線
 48
50.0
100
AcDbLine
 10
7592.661916272243
 20
4542.886048466775
 30
0.0
 11
3933.451279344229
 21
4542.886048467208
 31
0.0
  0
LINE
  5
16193
330
747D
100
AcDbEntity
  8
細線
 48
50.0
100
AcDbLine
 10
7600.897946797053
 20
4635.086048466775
 30
0.0
 11
3925.215248819398
 21
4635.086048467208
 31
0.0
  0
LINE
  5
16194
330
747D
100
AcDbEntity
  8
部品1
 48
50.0
100
AcDbLine
 10
7595.648176702194
 20
4663.112805903258
 30
0.0
 11
3930.465018915052
 21
4663.112805903258
 31
0.0
  0
DIMENSION
  5
16195
330
747D
100
AcDbEntity
  8
寸法
 48
50.0
100
AcDbDimension
  2
*D30
 10
3923.056597808622
 20
4875.654391161503
 30
0.0
 11
3617.009353714134
 21
4875.654391161503
 31
0.0
 70
   160
 71
     5
 42
50.0
  3
INABA_S40G
100
AcDbAlignedDimension
 13
3973.056597808622
 23
4663.112805903265
 33
0.0
 14
3923.056597808622
 24
4663.112805903263
 34
0.0
100
AcDbRotatedDimension
1001
ACAD
1000
DSTYLE
1002
{
1002
}
  0
LINE
  5
16196
330
747D
100
AcDbEntity
  8
部品1
100
AcDbLine
 10
3923.476258823953
 20
4655.716280508022
 30
0.0
 11
3924.609656156302
 21
4635.74015252542
 31
0.0
  0
LINE
  5
16197
330
747D
100
AcDbEntity
  8
部品1
100
AcDbLine
 10
3936.046676477879
 20
4540.082745358364
 30
0.0
 11
3936.691582284988
 21
4528.716280508024
 31
0.0
  0
LINE
  5
16198
330
747D
100
AcDbEntity
  8
部品1
100
AcDbLine
 10
3927.810645953032
 20
4632.282745358365
 30
0.0
 11
3932.845686681142
 21
4543.540152525422
 31
0.0
  0
ARC
  5
16199
330
747D
100
AcDbEntity
  8
部品1
 48
50.0
100
AcDbCircle
 10
3924.815463056845
 20
4632.112805903261
 30
0.0
 40
3.0
100
AcDbArc
 50
3.24734279033473
 51
82.3418727926348
  0
ARC
  5
1619A
330
747D
100
AcDbEntity
  8
部品1
 48
50.0
100
AcDbCircle
 10
3933.05149358169
 20
4539.912805903258
 30
0.0
 40
3.0
100
AcDbArc
 50
3.24734279033473
 51
82.3418727926348
  0
ARC
  5
1619B
330
747D
100
AcDbEntity
  8
部品1
 48
50.0
100
AcDbCircle
 10
3933.544562690251
 20
4543.579805064944
 30
0.0
 40
0.7
100
AcDbArc
 50
183.2473427902827
 51
262.3418727926349
  0
ARC
  5
1619C
330
747D
100
AcDbEntity
  8
部品1
 48
50.0
100
AcDbCircle
 10
3925.308532165411
 20
4635.779805064949
 30
0.0
 40
0.7
100
AcDbArc
 50
183.2473427903867
 51
262.3418727926349
  0
ARC
  5
1619D
330
747D
100
AcDbEntity
  8
部品1
100
AcDbCircle
 10
3943.680342376087
 20
4529.112805903261
 30
0.0
 40
7.0
100
AcDbArc
 50
183.2473427903347
 51
270.0
  0
ARC
  5
1619E
330
747D
100
AcDbEntity
  8
部品1
100
AcDbCircle
 10
3930.465018915052
 20
4656.112805903261
 30
0.0
 40
7.0
100
AcDbArc
 50
90.0
 51
183.2473427903347
  0
LINE
  5
1619F
330
747D
100
AcDbEntity
  8
細線
 48
50.0
100
AcDbLine
 10
3956.056597808622
 20
4663.112805903262
 30
0.0
 11
3956.056597808622
 21
4522.112805903261
 31
0.0
  0
LINE
  5
161A0
330
747D
100
AcDbEntity
  8
細線
 48
50.0
100
AcDbLine
 10
7155.556597808628
 20
4428.112805903256
 30
0.0
 11
7155.556597808628
 21
2338.112805903256
 31
0.0
  0
LINE
  5
161A1
330
747D
100
AcDbEntity
  8
細線
 48
50.0
100
AcDbLine
 10
7140.556597808627
 20
4428.112805903256
 30
0.0
 11
7140.556597808627
 21
2338.112805903256
 31
0.0
  0
LINE
  5
161A2
330
747D
100
AcDbEntity
  8
細線
 48
50.0
100
AcDbLine
 10
7280.556597808628
 20
4428.112805903256
 30
0.0
 11
7280.556597808628
 21
2338.112805903256
 31
0.0
  0
LINE
  5
161A3
330
747D
100
AcDbEntity
  8
細線
 48
50.0
100
AcDbLine
 10
7295.556597808626
 20
4428.112805903256
 30
0.0
 11
7295.556597808626
 21
2338.112805903256
 31
0.0
  0
LINE
  5
161A4
330
747D
100
AcDbEntity
  8
細線
 48
50.0
100
AcDbLine
 10
7435.556597808627
 20
4428.112805903256
 30
0.0
 11
7435.556597808627
 21
2338.112805903256
 31
0.0
  0
LINE
  5
161A5
330
747D
100
AcDbEntity
  8
細線
 48
50.0
100
AcDbLine
 10
7420.556597808626
 20
4428.112805903256
 30
0.0
 11
7420.556597808626
 21
2338.112805903256
 31
0.0
  0
LINE
  5
161A6
330
747D
100
AcDbEntity
  8
細線
 48
50.0
100
AcDbLine
 10
6735.556597808628
 20
4428.112805903256
 30
0.0
 11
6735.556597808628
 21
2338.112805903256
 31
0.0
  0
LINE
  5
161A7
330
747D
100
AcDbEntity
  8
細線
 48
50.0
100
AcDbLine
 10
6720.556597808627
 20
4428.112805903256
 30
0.0
 11
6720.556597808627
 21
2338.112805903256
 31
0.0
  0
LINE
  5
161A8
330
747D
100
AcDbEntity
  8
細線
 48
50.0
100
AcDbLine
 10
6860.556597808628
 20
4428.112805903256
 30
0.0
 11
6860.556597808628
 21
2338.112805903256
 31
0.0
  0
LINE
  5
161A9
330
747D
100
AcDbEntity
  8
細線
 48
50.0
100
AcDbLine
 10
6875.556597808625
 20
4428.112805903256
 30
0.0
 11
6875.556597808627
 21
2338.112805903256
 31
0.0
  0
LINE
  5
161AA
330
747D
100
AcDbEntity
  8
細線
 48
50.0
100
AcDbLine
 10
7015.556597808627
 20
4428.112805903256
 30
0.0
 11
7015.556597808627
 21
2338.112805903256
 31
0.0
  0
LINE
  5
161AB
330
747D
100
AcDbEntity
  8
細線
 48
50.0
100
AcDbLine
 10
7000.556597808625
 20
4428.112805903256
 30
0.0
 11
7000.556597808627
 21
2338.112805903256
 31
0.0
  0
LINE
  5
161AC
330
747D
100
AcDbEntity
  8
細線
 48
50.0
100
AcDbLine
 10
6580.556597808627
 20
4428.112805903256
 30
0.0
 11
6580.556597808627
 21
2338.112805903256
 31
0.0
  0
LINE
  5
161AD
330
747D
100
AcDbEntity
  8
細線
 48
50.0
100
AcDbLine
 10
6595.556597808627
 20
4428.112805903256
 30
0.0
 11
6595.556597808627
 21
2338.112805903256
 31
0.0
  0
LINE
  5
161AE
330
747D
100
AcDbEntity
  8
細線
 48
50.0
100
AcDbLine
 10
6455.556597808627
 20
4428.112805903256
 30
0.0
 11
6455.556597808627
 21
2338.112805903256
 31
0.0
  0
LINE
  5
161AF
330
747D
100
AcDbEntity
  8
細線
 48
50.0
100
AcDbLine
 10
6440.556597808627
 20
4428.112805903256
 30
0.0
 11
6440.556597808627
 21
2338.112805903256
 31
0.0
  0
LINE
  5
161B0
330
747D
100
AcDbEntity
  8
細線
 48
50.0
100
AcDbLine
 10
6300.556597808627
 20
4428.112805903256
 30
0.0
 11
6300.556597808627
 21
2338.112805903256
 31
0.0
  0
LINE
  5
161B1
330
747D
100
AcDbEntity
  8
細線
 48
50.0
100
AcDbLine
 10
6315.556597808627
 20
4428.112805903256
 30
0.0
 11
6315.556597808627
 21
2338.112805903256
 31
0.0
  0
LINE
  5
161B2
330
747D
100
AcDbEntity
  8
細線
 48
50.0
100
AcDbLine
 10
5895.556597808627
 20
4428.112805903256
 30
0.0
 11
5895.556597808627
 21
2338.112805903256
 31
0.0
  0
LINE
  5
161B3
330
747D
100
AcDbEntity
  8
細線
 48
50.0
100
AcDbLine
 10
5880.556597808627
 20
4428.112805903256
 30
0.0
 11
5880.556597808627
 21
2338.112805903256
 31
0.0
  0
LINE
  5
161B4
330
747D
100
AcDbEntity
  8
細線
 48
50.0
100
AcDbLine
 10
6020.556597808627
 20
4428.112805903256
 30
0.0
 11
6020.556597808627
 21
2338.112805903256
 31
0.0
  0
LINE
  5
161B5
330
747D
100
AcDbEntity
  8
細線
 48
50.0
100
AcDbLine
 10
6035.556597808627
 20
4428.112805903256
 30
0.0
 11
6035.556597808627
 21
2338.112805903256
 31
0.0
  0
LINE
  5
161B6
330
747D
100
AcDbEntity
  8
細線
 48
50.0
100
AcDbLine
 10
6175.556597808627
 20
4428.112805903256
 30
0.0
 11
6175.556597808627
 21
2338.112805903256
 31
0.0
  0
LINE
  5
161B7
330
747D
100
AcDbEntity
  8
細線
 48
50.0
100
AcDbLine
 10
6160.556597808627
 20
4428.112805903256
 30
0.0
 11
6160.556597808627
 21
2338.112805903256
 31
0.0
  0
LINE
  5
161B8
330
747D
100
AcDbEntity
  8
部品1
100
AcDbLine
 10
5753.056597808622
 20
4522.11280590326
 30
0.0
 11
5753.05659780862
 21
4663.112805903256
 31
0.0
  0
ARC
  5
161B9
330
747D
100
AcDbEntity
  8
部品1
 48
0.01
100
AcDbCircle
 10
7040.056597808623
 20
4460.612805903256
 30
0.0
 40
2.0
100
AcDbArc
 50
180.0
 51
270.0
  0
ARC
  5
161BA
330
747D
100
AcDbEntity
  8
部品1
 48
0.01
100
AcDbCircle
 10
7040.056597808623
 20
4492.112805903256
 30
0.0
 40
2.0
100
AcDbArc
 50
90.0
 51
180.0
  0
ARC
  5
161BB
330
747D
100
AcDbEntity
  8
部品1
 48
0.01
100
AcDbCircle
 10
7216.056597808623
 20
4460.612805903256
 30
0.0
 40
2.0
100
AcDbArc
 50
270.0
 51
0.0
  0
ARC
  5
161BC
330
747D
100
AcDbEntity
  8
部品1
 48
0.01
100
AcDbCircle
 10
7216.056597808623
 20
4492.112805903256
 30
0.0
 40
2.0
100
AcDbArc
 50
0.0
 51
90.0
  0
LINE
  5
161BD
330
747D
100
AcDbEntity
  8
細線
100
AcDbLine
 10
7128.056597808622
 20
4464.612805903256
 30
0.0
 11
7054.056597808624
 21
4464.612805903256
 31
0.0
  0
LINE
  5
161BE
330
747D
100
AcDbEntity
  8
細線
100
AcDbLine
 10
7128.056597808622
 20
4487.612805903256
 30
0.0
 11
7202.056597808624
 21
4487.612805903256
 31
0.0
  0
LINE
  5
161BF
330
747D
100
AcDbEntity
  8
細線
100
AcDbLine
 10
7202.056597808624
 20
4464.612805903256
 30
0.0
 11
7128.056597808622
 21
4464.612805903256
 31
0.0
  0
LINE
  5
161C0
330
747D
100
AcDbEntity
  8
細線
100
AcDbLine
 10
7054.056597808624
 20
4487.612805903256
 30
0.0
 11
7128.056597808622
 21
4487.612805903256
 31
0.0
  0
LINE
  5
161C1
330
747D
100
AcDbEntity
  8
細線
100
AcDbLine
 10
7054.056597808624
 20
4464.612805903256
 30
0.0
 11
7054.056597808624
 21
4487.612805903256
 31
0.0
  0
LINE
  5
161C2
330
747D
100
AcDbEntity
  8
細線
100
AcDbLine
 10
7202.056597808624
 20
4487.612805903256
 30
0.0
 11
7202.056597808624
 21
4464.612805903256
 31
0.0
  0
LINE
  5
161C3
330
747D
100
AcDbEntity
  8
部品1
 48
0.01
100
AcDbLine
 10
7038.056597808624
 20
4460.612805903256
 30
0.0
 11
7038.056597808624
 21
4492.112805903256
 31
0.0
  0
LINE
  5
161C4
330
747D
100
AcDbEntity
  8
部品1
 48
0.01
100
AcDbLine
 10
7216.056597808623
 20
4458.612805903256
 30
0.0
 11
7040.056597808623
 21
4458.612805903256
 31
0.0
  0
LINE
  5
161C5
330
747D
100
AcDbEntity
  8
部品1
 48
0.01
100
AcDbLine
 10
7218.056597808623
 20
4492.112805903256
 30
0.0
 11
7218.056597808623
 21
4460.612805903256
 31
0.0
  0
LINE
  5
161C6
330
747D
100
AcDbEntity
  8
部品1
 48
0.01
100
AcDbLine
 10
7040.056597808623
 20
4494.112805903256
 30
0.0
 11
7216.056597808623
 21
4494.112805903256
 31
0.0
  0
LINE
  5
161C7
330
747D
100
AcDbEntity
  8
細線
100
AcDbLine
 10
7202.056597808624
 20
4481.612805903256
 30
0.0
 11
7128.056597808622
 21
4481.612805903256
 31
0.0
  0
LINE
  5
161C8
330
747D
100
AcDbEntity
  8
細線
100
AcDbLine
 10
7202.056597808624
 20
4475.612805903256
 30
0.0
 11
7128.056597808622
 21
4475.612805903256
 31
0.0
  0
LINE
  5
161C9
330
747D
100
AcDbEntity
  8
細線
100
AcDbLine
 10
7202.056597808624
 20
4469.612805903255
 30
0.0
 11
7128.056597808622
 21
4469.612805903255
 31
0.0
  0
LINE
  5
161CA
330
747D
100
AcDbEntity
  8
細線
100
AcDbLine
 10
7202.056597808624
 20
4481.612805903256
 30
0.0
 11
7133.056597808624
 21
4481.612805903256
 31
0.0
  0
LINE
  5
161CB
330
747D
100
AcDbEntity
  8
細線
100
AcDbLine
 10
7054.056597808624
 20
4481.612805903256
 30
0.0
 11
7128.056597808622
 21
4481.612805903256
 31
0.0
  0
LINE
  5
161CC
330
747D
100
AcDbEntity
  8
細線
100
AcDbLine
 10
7054.056597808624
 20
4469.612805903255
 30
0.0
 11
7128.056597808622
 21
4469.612805903255
 31
0.0
  0
LINE
  5
161CD
330
747D
100
AcDbEntity
  8
細線
100
AcDbLine
 10
7054.056597808624
 20
4475.612805903256
 30
0.0
 11
7128.056597808622
 21
4475.612805903256
 31
0.0
  0
LINE
  5
161CE
330
747D
100
AcDbEntity
  8
細線
100
AcDbLine
 10
7128.056597808622
 20
4487.612805903256
 30
0.0
 11
7128.056597808622
 21
4464.612805903256
 31
0.0
  0
LINE
  5
161CF
330
747D
100
AcDbEntity
  8
細線
100
AcDbLine
 10
6188.056597808623
 20
4487.612805903256
 30
0.0
 11
6188.056597808621
 21
4464.612805903256
 31
0.0
  0
LINE
  5
161D0
330
747D
100
AcDbEntity
  8
細線
100
AcDbLine
 10
6262.056597808622
 20
4475.612805903256
 30
0.0
 11
6188.056597808623
 21
4475.612805903256
 31
0.0
  0
LINE
  5
161D1
330
747D
100
AcDbEntity
  8
細線
100
AcDbLine
 10
6262.056597808622
 20
4469.612805903255
 30
0.0
 11
6188.056597808623
 21
4469.612805903255
 31
0.0
  0
LINE
  5
161D2
330
747D
100
AcDbEntity
  8
細線
100
AcDbLine
 10
6262.056597808622
 20
4481.612805903256
 30
0.0
 11
6188.056597808623
 21
4481.612805903256
 31
0.0
  0
LINE
  5
161D3
330
747D
100
AcDbEntity
  8
細線
100
AcDbLine
 10
6114.056597808623
 20
4481.612805903256
 30
0.0
 11
6183.056597808623
 21
4481.612805903256
 31
0.0
  0
LINE
  5
161D4
330
747D
100
AcDbEntity
  8
細線
100
AcDbLine
 10
6114.056597808621
 20
4469.612805903255
 30
0.0
 11
6188.056597808623
 21
4469.612805903255
 31
0.0
  0
LINE
  5
161D5
330
747D
100
AcDbEntity
  8
細線
100
AcDbLine
 10
6114.056597808623
 20
4475.612805903256
 30
0.0
 11
6188.056597808623
 21
4475.612805903256
 31
0.0
  0
LINE
  5
161D6
330
747D
100
AcDbEntity
  8
細線
100
AcDbLine
 10
6114.056597808623
 20
4481.612805903256
 30
0.0
 11
6188.056597808623
 21
4481.612805903256
 31
0.0
  0
LINE
  5
161D7
330
747D
100
AcDbEntity
  8
部品1
 48
0.01
100
AcDbLine
 10
6276.056597808623
 20
4494.112805903256
 30
0.0
 11
6100.056597808624
 21
4494.112805903256
 31
0.0
  0
LINE
  5
161D8
330
747D
100
AcDbEntity
  8
部品1
 48
0.01
100
AcDbLine
 10
6098.056597808623
 20
4492.112805903256
 30
0.0
 11
6098.056597808623
 21
4460.612805903256
 31
0.0
  0
LINE
  5
161D9
330
747D
100
AcDbEntity
  8
部品1
 48
0.01
100
AcDbLine
 10
6100.056597808624
 20
4458.612805903256
 30
0.0
 11
6276.056597808622
 21
4458.612805903256
 31
0.0
  0
LINE
  5
161DA
330
747D
100
AcDbEntity
  8
部品1
 48
0.01
100
AcDbLine
 10
6278.056597808621
 20
4460.612805903256
 30
0.0
 11
6278.056597808624
 21
4492.112805903256
 31
0.0
  0
LINE
  5
161DB
330
747D
100
AcDbEntity
  8
細線
100
AcDbLine
 10
6114.056597808623
 20
4487.612805903256
 30
0.0
 11
6114.056597808623
 21
4464.612805903256
 31
0.0
  0
LINE
  5
161DC
330
747D
100
AcDbEntity
  8
細線
100
AcDbLine
 10
6262.056597808623
 20
4464.612805903256
 30
0.0
 11
6262.056597808623
 21
4487.612805903256
 31
0.0
  0
LINE
  5
161DD
330
747D
100
AcDbEntity
  8
細線
100
AcDbLine
 10
6262.056597808623
 20
4487.612805903256
 30
0.0
 11
6188.056597808623
 21
4487.612805903256
 31
0.0
  0
LINE
  5
161DE
330
747D
100
AcDbEntity
  8
細線
100
AcDbLine
 10
6114.056597808623
 20
4464.612805903256
 30
0.0
 11
6188.056597808623
 21
4464.612805903256
 31
0.0
  0
LINE
  5
161DF
330
747D
100
AcDbEntity
  8
細線
100
AcDbLine
 10
6188.056597808623
 20
4487.612805903256
 30
0.0
 11
6114.056597808623
 21
4487.612805903256
 31
0.0
  0
LINE
  5
161E0
330
747D
100
AcDbEntity
  8
細線
100
AcDbLine
 10
6188.056597808621
 20
4464.612805903256
 30
0.0
 11
6262.056597808623
 21
4464.612805903256
 31
0.0
  0
ARC
  5
161E1
330
747D
100
AcDbEntity
  8
部品1
 48
0.01
100
AcDbCircle
 10
6100.056597808624
 20
4492.112805903256
 30
0.0
 40
2.0
100
AcDbArc
 50
90.0
 51
180.0
  0
ARC
  5
161E2
330
747D
100
AcDbEntity
  8
部品1
 48
0.01
100
AcDbCircle
 10
6100.056597808624
 20
4460.612805903256
 30
0.0
 40
2.0
100
AcDbArc
 50
180.0
 51
270.0
  0
ARC
  5
161E3
330
747D
100
AcDbEntity
  8
部品1
 48
0.01
100
AcDbCircle
 10
6276.056597808623
 20
4492.112805903256
 30
0.0
 40
2.0
100
AcDbArc
 50
0.0
 51
90.0
  0
ARC
  5
161E4
330
747D
100
AcDbEntity
  8
部品1
 48
0.01
100
AcDbCircle
 10
6276.056597808622
 20
4460.612805903256
 30
0.0
 40
2.0
100
AcDbArc
 50
270.0
 51
0.0
  0
ARC
  5
161E5
330
747D
100
AcDbEntity
  8
部品1
 48
0.01
100
AcDbCircle
 10
5250.056597808621
 20
4460.612805903256
 30
0.0
 40
2.0
100
AcDbArc
 50
180.0
 51
270.0
  0
ARC
  5
161E6
330
747D
100
AcDbEntity
  8
部品1
 48
0.01
100
AcDbCircle
 10
5250.056597808621
 20
4492.112805903256
 30
0.0
 40
2.0
100
AcDbArc
 50
90.0
 51
180.0
  0
ARC
  5
161E7
330
747D
100
AcDbEntity
  8
部品1
 48
0.01
100
AcDbCircle
 10
5426.056597808622
 20
4460.612805903256
 30
0.0
 40
2.0
100
AcDbArc
 50
270.0
 51
0.0
  0
ARC
  5
161E8
330
747D
100
AcDbEntity
  8
部品1
 48
0.01
100
AcDbCircle
 10
5426.056597808622
 20
4492.112805903256
 30
0.0
 40
2.0
100
AcDbArc
 50
0.0
 51
90.0
  0
LINE
  5
161E9
330
747D
100
AcDbEntity
  8
細線
100
AcDbLine
 10
5338.056597808622
 20
4464.612805903256
 30
0.0
 11
5264.056597808622
 21
4464.612805903256
 31
0.0
  0
LINE
  5
161EA
330
747D
100
AcDbEntity
  8
細線
100
AcDbLine
 10
5338.056597808622
 20
4487.612805903256
 30
0.0
 11
5412.056597808621
 21
4487.612805903256
 31
0.0
  0
LINE
  5
161EB
330
747D
100
AcDbEntity
  8
細線
100
AcDbLine
 10
5412.056597808621
 20
4464.612805903256
 30
0.0
 11
5338.056597808622
 21
4464.612805903256
 31
0.0
  0
LINE
  5
161EC
330
747D
100
AcDbEntity
  8
細線
100
AcDbLine
 10
5264.056597808622
 20
4487.612805903256
 30
0.0
 11
5338.056597808622
 21
4487.612805903256
 31
0.0
  0
LINE
  5
161ED
330
747D
100
AcDbEntity
  8
細線
100
AcDbLine
 10
5264.056597808622
 20
4464.612805903256
 30
0.0
 11
5264.056597808622
 21
4487.612805903256
 31
0.0
  0
LINE
  5
161EE
330
747D
100
AcDbEntity
  8
細線
100
AcDbLine
 10
5412.056597808621
 20
4487.612805903256
 30
0.0
 11
5412.056597808621
 21
4464.612805903256
 31
0.0
  0
LINE
  5
161EF
330
747D
100
AcDbEntity
  8
部品1
 48
0.01
100
AcDbLine
 10
5248.056597808622
 20
4460.612805903256
 30
0.0
 11
5248.056597808622
 21
4492.112805903256
 31
0.0
  0
LINE
  5
161F0
330
747D
100
AcDbEntity
  8
部品1
 48
0.01
100
AcDbLine
 10
5426.056597808622
 20
4458.612805903256
 30
0.0
 11
5250.056597808621
 21
4458.612805903256
 31
0.0
  0
LINE
  5
161F1
330
747D
100
AcDbEntity
  8
部品1
 48
0.01
100
AcDbLine
 10
5428.056597808621
 20
4492.112805903256
 30
0.0
 11
5428.056597808621
 21
4460.612805903256
 31
0.0
  0
LINE
  5
161F2
330
747D
100
AcDbEntity
  8
部品1
 48
0.01
100
AcDbLine
 10
5250.056597808621
 20
4494.112805903256
 30
0.0
 11
5426.056597808622
 21
4494.112805903256
 31
0.0
  0
LINE
  5
161F3
330
747D
100
AcDbEntity
  8
細線
100
AcDbLine
 10
5412.056597808621
 20
4481.612805903256
 30
0.0
 11
5338.056597808622
 21
4481.612805903256
 31
0.0
  0
LINE
  5
161F4
330
747D
100
AcDbEntity
  8
細線
100
AcDbLine
 10
5412.056597808621
 20
4475.612805903256
 30
0.0
 11
5338.056597808622
 21
4475.612805903256
 31
0.0
  0
LINE
  5
161F5
330
747D
100
AcDbEntity
  8
細線
100
AcDbLine
 10
5412.056597808621
 20
4469.612805903255
 30
0.0
 11
5338.056597808622
 21
4469.612805903255
 31
0.0
  0
LINE
  5
161F6
330
747D
100
AcDbEntity
  8
細線
100
AcDbLine
 10
5412.056597808621
 20
4481.612805903256
 30
0.0
 11
5343.056597808621
 21
4481.612805903256
 31
0.0
  0
LINE
  5
161F7
330
747D
100
AcDbEntity
  8
細線
100
AcDbLine
 10
5264.056597808622
 20
4481.612805903256
 30
0.0
 11
5338.056597808622
 21
4481.612805903256
 31
0.0
  0
LINE
  5
161F8
330
747D
100
AcDbEntity
  8
細線
100
AcDbLine
 10
5264.056597808622
 20
4469.612805903255
 30
0.0
 11
5338.056597808622
 21
4469.612805903255
 31
0.0
  0
LINE
  5
161F9
330
747D
100
AcDbEntity
  8
細線
100
AcDbLine
 10
5264.056597808622
 20
4475.612805903256
 30
0.0
 11
5338.056597808622
 21
4475.612805903256
 31
0.0
  0
LINE
  5
161FA
330
747D
100
AcDbEntity
  8
細線
100
AcDbLine
 10
5338.056597808622
 20
4487.612805903256
 30
0.0
 11
5338.056597808622
 21
4464.612805903256
 31
0.0
  0
LINE
  5
161FB
330
747D
100
AcDbEntity
  8
細線
100
AcDbLine
 10
4398.056597808621
 20
4487.612805903256
 30
0.0
 11
4398.056597808619
 21
4464.612805903256
 31
0.0
  0
LINE
  5
161FC
330
747D
100
AcDbEntity
  8
細線
100
AcDbLine
 10
4472.056597808619
 20
4475.612805903256
 30
0.0
 11
4398.056597808621
 21
4475.612805903256
 31
0.0
  0
LINE
  5
161FD
330
747D
100
AcDbEntity
  8
細線
100
AcDbLine
 10
4472.056597808619
 20
4469.612805903255
 30
0.0
 11
4398.056597808621
 21
4469.612805903255
 31
0.0
  0
LINE
  5
161FE
330
747D
100
AcDbEntity
  8
細線
100
AcDbLine
 10
4472.056597808619
 20
4481.612805903256
 30
0.0
 11
4398.056597808621
 21
4481.612805903256
 31
0.0
  0
LINE
  5
161FF
330
747D
100
AcDbEntity
  8
細線
100
AcDbLine
 10
4324.056597808621
 20
4481.612805903256
 30
0.0
 11
4393.056597808621
 21
4481.612805903256
 31
0.0
  0
LINE
  5
16200
330
747D
100
AcDbEntity
  8
細線
100
AcDbLine
 10
4324.05659780862
 20
4469.612805903255
 30
0.0
 11
4398.056597808621
 21
4469.612805903255
 31
0.0
  0
LINE
  5
16201
330
747D
100
AcDbEntity
  8
細線
100
AcDbLine
 10
4324.056597808621
 20
4475.612805903256
 30
0.0
 11
4398.056597808621
 21
4475.612805903256
 31
0.0
  0
LINE
  5
16202
330
747D
100
AcDbEntity
  8
細線
100
AcDbLine
 10
4324.056597808621
 20
4481.612805903256
 30
0.0
 11
4398.056597808621
 21
4481.612805903256
 31
0.0
  0
LINE
  5
16203
330
747D
100
AcDbEntity
  8
部品1
 48
0.01
100
AcDbLine
 10
4486.056597808621
 20
4494.112805903256
 30
0.0
 11
4310.056597808621
 21
4494.112805903256
 31
0.0
  0
LINE
  5
16204
330
747D
100
AcDbEntity
  8
部品1
 48
0.01
100
AcDbLine
 10
4308.056597808621
 20
4492.112805903256
 30
0.0
 11
4308.056597808621
 21
4460.612805903256
 31
0.0
  0
LINE
  5
16205
330
747D
100
AcDbEntity
  8
部品1
 48
0.01
100
AcDbLine
 10
4310.056597808621
 20
4458.612805903256
 30
0.0
 11
4486.056597808619
 21
4458.612805903256
 31
0.0
  0
LINE
  5
16206
330
747D
100
AcDbEntity
  8
部品1
 48
0.01
100
AcDbLine
 10
4488.056597808619
 20
4460.612805903256
 30
0.0
 11
4488.056597808621
 21
4492.112805903256
 31
0.0
  0
LINE
  5
16207
330
747D
100
AcDbEntity
  8
細線
100
AcDbLine
 10
4324.056597808621
 20
4487.612805903256
 30
0.0
 11
4324.056597808621
 21
4464.612805903256
 31
0.0
  0
LINE
  5
16208
330
747D
100
AcDbEntity
  8
細線
100
AcDbLine
 10
4472.056597808621
 20
4464.612805903256
 30
0.0
 11
4472.056597808621
 21
4487.612805903256
 31
0.0
  0
LINE
  5
16209
330
747D
100
AcDbEntity
  8
細線
100
AcDbLine
 10
4472.056597808621
 20
4487.612805903256
 30
0.0
 11
4398.056597808621
 21
4487.612805903256
 31
0.0
  0
LINE
  5
1620A
330
747D
100
AcDbEntity
  8
細線
100
AcDbLine
 10
4324.056597808621
 20
4464.612805903256
 30
0.0
 11
4398.056597808621
 21
4464.612805903256
 31
0.0
  0
LINE
  5
1620B
330
747D
100
AcDbEntity
  8
細線
100
AcDbLine
 10
4398.056597808621
 20
4487.612805903256
 30
0.0
 11
4324.056597808621
 21
4487.612805903256
 31
0.0
  0
LINE
  5
1620C
330
747D
100
AcDbEntity
  8
細線
100
AcDbLine
 10
4398.056597808619
 20
4464.612805903256
 30
0.0
 11
4472.056597808621
 21
4464.612805903256
 31
0.0
  0
ARC
  5
1620D
330
747D
100
AcDbEntity
  8
部品1
 48
0.01
100
AcDbCircle
 10
4310.056597808621
 20
4492.112805903256
 30
0.0
 40
2.0
100
AcDbArc
 50
90.0
 51
180.0
  0
ARC
  5
1620E
330
747D
100
AcDbEntity
  8
部品1
 48
0.01
100
AcDbCircle
 10
4310.056597808621
 20
4460.612805903256
 30
0.0
 40
2.0
100
AcDbArc
 50
180.0
 51
270.0
  0
ARC
  5
1620F
330
747D
100
AcDbEntity
  8
部品1
 48
0.01
100
AcDbCircle
 10
4486.056597808621
 20
4492.112805903256
 30
0.0
 40
2.0
100
AcDbArc
 50
0.0
 51
90.0
  0
ARC
  5
16210
330
747D
100
AcDbEntity
  8
部品1
 48
0.01
100
AcDbCircle
 10
4486.056597808619
 20
4460.612805903256
 30
0.0
 40
2.0
100
AcDbArc
 50
270.0
 51
0.0
  0
LINE
  5
16211
330
747D
100
AcDbEntity
  8
部品1
 48
50.0
100
AcDbLine
 10
5735.056597808625
 20
4379.112805903257
 30
0.0
 11
5705.056597808625
 21
4379.112805903257
 31
0.0
  0
LINE
  5
16212
330
747D
100
AcDbEntity
  8
部品1
 48
50.0
100
AcDbLine
 10
5708.056597808625
 20
4423.112805903256
 30
0.0
 11
5708.056597808625
 21
4428.112805903256
 31
0.0
  0
LINE
  5
16213
330
747D
100
AcDbEntity
  8
部品1
 48
50.0
100
AcDbLine
 10
4031.056597808627
 20
4379.112805903257
 30
0.0
 11
4001.056597808624
 21
4379.112805903257
 31
0.0
  0
LINE
  5
16214
330
747D
100
AcDbEntity
  8
部品1
 48
50.0
100
AcDbLine
 10
4028.056597808624
 20
4423.112805903256
 30
0.0
 11
4028.056597808624
 21
4428.112805903256
 31
0.0
  0
LINE
  5
16215
330
747D
100
AcDbEntity
  8
細線
 48
50.0
100
AcDbLine
 10
5705.056597808625
 20
4380.612805903257
 30
0.0
 11
4031.056597808627
 21
4380.612805903257
 31
0.0
  0
LINE
  5
16216
330
747D
100
AcDbEntity
  8
細線
 48
50.0
100
AcDbLine
 10
5705.056597808625
 20
4371.112805903256
 30
0.0
 11
4031.056597808627
 21
4371.112805903256
 31
0.0
  0
LINE
  5
16217
330
747D
100
AcDbEntity
  8
細線
 48
50.0
100
AcDbLine
 10
5735.056597808625
 20
4413.112805903256
 30
0.0
 11
4001.056597808624
 21
4413.112805903256
 31
0.0
  0
LINE
  5
16218
330
747D
100
AcDbEntity
  8
部品1
 48
50.0
100
AcDbLine
 10
5735.056597808625
 20
4423.112805903256
 30
0.0
 11
4001.056597808624
 21
4423.112805903256
 31
0.0
  0
LINE
  5
16219
330
747D
100
AcDbEntity
  8
細線
 48
50.0
100
AcDbLine
 10
5683.056597808626
 20
2335.112805903256
 30
0.0
 11
5679.056597808624
 21
2345.612805903256
 31
0.0
  0
LINE
  5
1621A
330
747D
100
AcDbEntity
  8
部品1
 48
50.0
100
AcDbLine
 10
4040.056597808628
 20
2338.112805903256
 30
0.0
 11
4040.056597808628
 21
2335.112805903256
 31
0.0
  0
LINE
  5
1621B
330
747D
100
AcDbEntity
  8
部品1
 48
50.0
100
AcDbLine
 10
4031.056597808627
 20
2338.112805903256
 30
0.0
 11
4669.556597808627
 21
2338.112805903256
 31
0.0
  0
LINE
  5
1621C
330
747D
100
AcDbEntity
  8
細線
 48
50.0
100
AcDbLine
 10
4031.056597808627
 20
2331.112805903256
 30
0.0
 11
5705.056597808625
 21
2331.112805903256
 31
0.0
  0
LINE
  5
1621D
330
747D
100
AcDbEntity
  8
細線
 48
50.0
100
AcDbLine
 10
4031.056597808627
 20
2335.112805903256
 30
0.0
 11
5705.056597808625
 21
2335.112805903256
 31
0.0
  0
LINE
  5
1621E
330
747D
100
AcDbEntity
  8
細線
 48
50.0
100
AcDbLine
 10
4669.556597808627
 20
2345.612805903256
 30
0.0
 11
5679.056597808624
 21
2345.612805903256
 31
0.0
  0
LINE
  5
1621F
330
747D
100
AcDbEntity
  8
部品1
 48
50.0
100
AcDbLine
 10
5735.056597808625
 20
2188.112805903257
 30
0.0
 11
5735.056597808625
 21
4423.112805903256
 31
0.0
  0
LINE
  5
16220
330
747D
100
AcDbEntity
  8
細線
 48
50.0
100
AcDbLine
 10
5705.056597808625
 20
2288.112805903256
 30
0.0
 11
5705.056597808625
 21
4380.612805903257
 31
0.0
  0
LINE
  5
16221
330
747D
100
AcDbEntity
  8
部品1
 48
50.0
100
AcDbLine
 10
5696.056597808625
 20
2335.112805903256
 30
0.0
 11
5696.056597808625
 21
4371.112805903256
 31
0.0
  0
LINE
  5
16222
330
747D
100
AcDbEntity
  8
部品1
 48
50.0
100
AcDbLine
 10
4031.056597808627
 20
2338.112805903256
 30
0.0
 11
4031.056597808627
 21
4371.112805903256
 31
0.0
  0
LINE
  5
16223
330
747D
100
AcDbEntity
  8
細線
 48
50.0
100
AcDbLine
 10
4031.056597808627
 20
4380.612805903257
 30
0.0
 11
4031.056597808624
 21
2288.112805903256
 31
0.0
  0
LINE
  5
16224
330
747D
100
AcDbEntity
  8
部品1
 48
50.0
100
AcDbLine
 10
4001.056597808624
 20
4423.112805903256
 30
0.0
 11
4001.056597808625
 21
2288.112805903256
 31
0.0
  0
LINE
  5
16225
330
747D
100
AcDbEntity
  8
部品1
 48
50.0
100
AcDbLine
 10
4669.556597808634
 20
4371.112805903256
 30
0.0
 11
4669.556597808627
 21
2338.112805903256
 31
0.0
  0
LINE
  5
16226
330
747D
100
AcDbEntity
  8
部品1
 48
50.0
100
AcDbLine
 10
5161.556597808627
 20
4371.112805903256
 30
0.0
 11
5161.556597808627
 21
2345.612805903256
 31
0.0
  0
LINE
  5
16227
330
747D
100
AcDbEntity
  8
細線
100
AcDbLine
 10
4551.05658962321
 20
4371.112805903249
 30
0.0
 11
4551.05658962321
 21
2338.112805903253
 31
0.0
  0
LINE
  5
16228
330
747D
100
AcDbEntity
  8
細線
100
AcDbLine
 10
4481.056589623211
 20
4371.112805903249
 30
0.0
 11
4481.056589623211
 21
2338.112805903253
 31
0.0
  0
LINE
  5
16229
330
747D
100
AcDbEntity
  8
細線
100
AcDbLine
 10
4411.056589623211
 20
4371.112805903249
 30
0.0
 11
4411.056589623211
 21
2338.112805903253
 31
0.0
  0
LINE
  5
1622A
330
747D
100
AcDbEntity
  8
部品1
100
AcDbLine
 10
4201.056597808629
 20
4371.112805903249
 30
0.0
 11
4201.056597808629
 21
2338.112805903256
 31
0.0
  0
LINE
  5
1622B
330
747D
100
AcDbEntity
  8
部品1
100
AcDbLine
 10
4151.056597808628
 20
4371.112805903249
 30
0.0
 11
4151.056597808628
 21
2338.112805903256
 31
0.0
  0
LINE
  5
1622C
330
747D
100
AcDbEntity
  8
細線
100
AcDbLine
 10
4193.056597808628
 20
4371.112805903249
 30
0.0
 11
4193.056597808628
 21
2338.112805903256
 31
0.0
  0
LINE
  5
1622D
330
747D
100
AcDbEntity
  8
細線
100
AcDbLine
 10
4159.056597808628
 20
4371.112805903249
 30
0.0
 11
4159.056597808628
 21
2338.112805903256
 31
0.0
  0
LINE
  5
1622E
330
747D
100
AcDbEntity
  8
細線
100
AcDbLine
 10
5070.056597808627
 20
4371.112805903249
 30
0.0
 11
5070.056597808627
 21
2345.612805903263
 31
0.0
  0
LINE
  5
1622F
330
747D
100
AcDbEntity
  8
細線
100
AcDbLine
 10
5000.056597808627
 20
4371.112805903249
 30
0.0
 11
5000.056597808627
 21
2345.612805903263
 31
0.0
  0
LINE
  5
16230
330
747D
100
AcDbEntity
  8
細線
100
AcDbLine
 10
4930.056597808627
 20
4371.112805903249
 30
0.0
 11
4930.056597808627
 21
2345.612805903263
 31
0.0
  0
LINE
  5
16231
330
747D
100
AcDbEntity
  8
細線
100
AcDbLine
 10
4860.056597808627
 20
4371.112805903249
 30
0.0
 11
4860.056597808627
 21
2345.612805903263
 31
0.0
  0
LINE
  5
16232
330
747D
100
AcDbEntity
  8
細線
100
AcDbLine
 10
5588.056597808627
 20
4371.112805903238
 30
0.0
 11
5588.056597808627
 21
2345.612805903256
 31
0.0
  0
LINE
  5
16233
330
747D
100
AcDbEntity
  8
細線
100
AcDbLine
 10
5518.056597808627
 20
4371.112805903238
 30
0.0
 11
5518.056597808627
 21
2345.612805903256
 31
0.0
  0
LINE
  5
16234
330
747D
100
AcDbEntity
  8
細線
100
AcDbLine
 10
5448.056597808626
 20
4371.112805903238
 30
0.0
 11
5448.056597808626
 21
2345.612805903256
 31
0.0
  0
LINE
  5
16238
330
747D
100
AcDbEntity
  8
部品1
 48
50.0
100
AcDbLine
 10
4075.056597808628
 20
3419.612805903249
 30
0.0
 11
4128.056597808629
 21
3419.612805903249
 31
0.0
  0
LINE
  5
16252
330
747D
100
AcDbEntity
  8
細線
100
AcDbLine
 10
4341.056589623211
 20
4371.112805903249
 30
0.0
 11
4341.056589623211
 21
2338.112805903253
 31
0.0
  0
LINE
  5
16253
330
747D
100
AcDbEntity
  8
細線
100
AcDbLine
 10
4790.056597808627
 20
4371.112805903249
 30
0.0
 11
4790.056597808627
 21
2345.612805903263
 31
0.0
  0
LINE
  5
16254
330
747D
100
AcDbEntity
  8
細線
100
AcDbLine
 10
4720.056597808627
 20
4371.112805903249
 30
0.0
 11
4720.056597808627
 21
2345.612805903263
 31
0.0
  0
LINE
  5
16255
330
747D
100
AcDbEntity
  8
細線
100
AcDbLine
 10
5378.056597808627
 20
4371.112805903238
 30
0.0
 11
5378.056597808627
 21
2345.612805903256
 31
0.0
  0
LINE
  5
16256
330
747D
100
AcDbEntity
  8
細線
100
AcDbLine
 10
5238.056633127523
 20
4371.112805903238
 30
0.0
 11
5238.056633127523
 21
2345.612805903256
 31
0.0
  0
LINE
  5
16257
330
747D
100
AcDbEntity
  8
細線
100
AcDbLine
 10
5308.056633127522
 20
4371.112805903238
 30
0.0
 11
5308.056633127522
 21
2345.612805903256
 31
0.0
  0
LINE
  5
16258
330
747D
100
AcDbEntity
  8
部品1
 48
50.0
100
AcDbLine
 10
4001.056597808624
 20
2338.112805903255
 30
0.0
 11
3973.056597808622
 21
2338.112805903256
 31
0.0
  0
LINE
  5
16388
330
747D
100
AcDbEntity
  8
部品1
100
AcDbLine
 10
7523.904397928898
 20
10251.9845259076
 30
0.0
 11
5843.904397928898
 21
10251.9845259076
 31
0.0
  0
LINE
  5
16389
330
747D
100
AcDbEntity
  8
部品1
100
AcDbLine
 10
7550.904397928899
 20
9831.9845259076
 30
0.0
 11
7578.904397928898
 21
9831.984525907598
 31
0.0
  0
LINE
  5
1638A
330
747D
100
AcDbEntity
  8
部品1
100
AcDbLine
 10
7550.904397928899
 20
8571.984525907595
 30
0.0
 11
7578.904397928898
 21
8571.984525907598
 31
0.0
  0
LINE
  5
1638B
330
747D
100
AcDbEntity
  8
部品1
100
AcDbLine
 10
7550.904397928899
 20
8151.984525907597
 30
0.0
 11
7578.904397928898
 21
8151.984525907598
 31
0.0
  0
LINE
  5
1638C
330
747D
100
AcDbEntity
  8
部品1
100
AcDbLine
 10
7550.904397928899
 20
7731.984525907598
 30
0.0
 11
7578.904397928898
 21
7731.984525907598
 31
0.0
  0
LINE
  5
1638D
330
747D
100
AcDbEntity
  8
部品1
100
AcDbLine
 10
7523.904397928898
 20
7311.984525907596
 30
0.0
 11
5843.904397928898
 21
7311.984525907597
 31
0.0
  0
LINE
  5
16399
330
747D
100
AcDbEntity
  8
部品1
100
AcDbLine
 10
4053.904397928906
 20
10251.9845259076
 30
0.0
 11
5733.904397928898
 21
10251.9845259076
 31
0.0
  0
LINE
  5
1639A
330
747D
100
AcDbEntity
  8
部品1
100
AcDbLine
 10
4026.904397928898
 20
9831.984525907596
 30
0.0
 11
3998.904397928898
 21
9831.984525907596
 31
0.0
  0
LINE
  5
1639C
330
747D
100
AcDbEntity
  8
部品1
100
AcDbLine
 10
4026.904397928898
 20
8571.984525907595
 30
0.0
 11
3998.904397928898
 21
8571.984525907593
 31
0.0
  0
LINE
  5
1639D
330
747D
100
AcDbEntity
  8
部品1
100
AcDbLine
 10
4026.904397928898
 20
8151.984525907595
 30
0.0
 11
3998.904397928898
 21
8151.984525907593
 31
0.0
  0
LINE
  5
1639E
330
747D
100
AcDbEntity
  8
部品1
100
AcDbLine
 10
4026.904397928898
 20
7731.984525907596
 30
0.0
 11
3998.904397928898
 21
7731.984525907596
 31
0.0
  0
LINE
  5
1639F
330
747D
100
AcDbEntity
  8
部品1
100
AcDbLine
 10
4053.904397928894
 20
7311.984525907596
 30
0.0
 11
5733.904397928898
 21
7311.984525907591
 31
0.0
  0
LINE
  5
163A2
330
747D
100
AcDbEntity
  8
破線
  6
HIDDEN
 48
10.0
100
AcDbLine
 10
4918.904397928908
 20
10228.4845259076
 30
0.0
 11
5710.404397928898
 21
10228.4845259076
 31
0.0
  0
LINE
  5
163A3
330
747D
100
AcDbEntity
  8
破線
  6
HIDDEN
 48
10.0
100
AcDbLine
 10
4918.904397928905
 20
7335.484525907597
 30
0.0
 11
5710.404397928894
 21
7335.484525907592
 31
0.0
  0
LINE
  5
163A4
330
747D
100
AcDbEntity
  8
破線
  6
HIDDEN
 48
10.0
100
AcDbLine
 10
6708.904397928889
 20
7335.484525907593
 30
0.0
 11
7500.4043979289
 21
7335.484525907588
 31
0.0
  0
LINE
  5
163E6
330
747D
100
AcDbEntity
  8
破線
  6
HIDDEN
 48
10.0
100
AcDbLine
 10
6658.904397928889
 20
10228.48452590759
 30
0.0
 11
5867.404397928901
 21
10228.4845259076
 31
0.0
  0
TEXT
  5
163E7
330
747D
100
AcDbEntity
  8
文字
 62
     7
 48
50.0
100
AcDbText
 10
15022.63965474517
 20
9570.013745883725
 30
0.0
 40
100.0
  1
F12            1.0
  7
STYLE1
100
AcDbText
  0
LINE
  5
163E8
330
747D
100
AcDbEntity
  8
仕様書枠
 48
50.0
100
AcDbLine
 10
16307.19999999999
 20
8009.600000000004
 30
0.0
 11
13127.19999999999
 21
8009.600000000006
 31
0.0
  0
LINE
  5
1651A
330
747D
100
AcDbEntity
  8
部品1
 48
50.0
100
AcDbLine
 10
11035.25880607256
 20
4423.112805903256
 30
0.0
 11
10958.25880607256
 21
4413.112805903256
 31
0.0
  0
LINE
  5
1651B
330
747D
100
AcDbEntity
  8
部品1
 48
50.0
100
AcDbLine
 10
10958.25880607256
 20
2288.112805903256
 30
0.0
 11
11035.25880607256
 21
2288.112805903256
 31
0.0
  0
LINE
  5
1651C
330
747D
100
AcDbEntity
  8
部品1
 48
50.0
100
AcDbLine
 10
11035.25880607256
 20
2288.112805903256
 30
0.0
 11
11035.25880607256
 21
4423.112805903256
 31
0.0
  0
LINE
  5
1651D
330
747D
100
AcDbEntity
  8
部品1
 48
50.0
100
AcDbLine
 10
10958.25880607256
 20
4413.112805903256
 30
0.0
 11
10958.25880607256
 21
2188.112805903256
 31
0.0
  0
LINE
  5
1656A
330
747D
100
AcDbEntity
  8
寸法
 48
50.0
100
AcDbLine
 10
4489.107404210743
 20
7035.021277476457
 30
0.0
 11
4437.701396300639
 21
7035.021277476457
 31
0.0
  0
LINE
  5
1656B
330
747D
100
AcDbEntity
  8
寸法
 48
50.0
100
AcDbLine
 10
4437.701396300639
 20
7035.021277476457
 30
0.0
 11
4437.701396300639
 21
7066.331436128622
 31
0.0
  0
LINE
  5
1656C
330
747D
100
AcDbEntity
  8
寸法
 48
50.0
100
AcDbLine
 10
4437.701396300639
 20
7066.331436128622
 30
0.0
 11
4407.940064309215
 21
7066.331436128622
 31
0.0
  0
LINE
  5
1656D
330
747D
100
AcDbEntity
  8
寸法
 48
50.0
100
AcDbLine
 10
4407.940064309215
 20
7066.331436128622
 30
0.0
 11
4463.404400255691
 21
7103.910887057233
 31
0.0
  0
LINE
  5
1656E
330
747D
100
AcDbEntity
  8
寸法
 48
50.0
100
AcDbLine
 10
4518.868736202167
 20
7066.331436128622
 30
0.0
 11
4463.404400255691
 21
7103.910887057233
 31
0.0
  0
LINE
  5
1656F
330
747D
100
AcDbEntity
  8
寸法
 48
50.0
100
AcDbLine
 10
4489.107404210743
 20
7066.331436128622
 30
0.0
 11
4518.868736202167
 21
7066.331436128622
 31
0.0
  0
LINE
  5
16570
330
747D
100
AcDbEntity
  8
寸法
 48
50.0
100
AcDbLine
 10
4489.107404210743
 20
7035.021277476457
 30
0.0
 11
4489.107404210743
 21
7066.331436128622
 31
0.0
  0
LINE
  5
16571
330
747D
100
AcDbEntity
  8
寸法
 48
50.0
100
AcDbLine
 10
4437.701396300639
 20
7035.021277476457
 30
0.0
 11
4489.107404210743
 21
7035.021277476457
 31
0.0
  0
LINE
  5
16572
330
747D
100
AcDbEntity
  8
寸法
 48
50.0
100
AcDbLine
 10
4768.272938487601
 20
7092.16686823128
 30
0.0
 11
4768.272938487601
 21
7038.50323364949
 31
0.0
  0
LINE
  5
16573
330
747D
100
AcDbEntity
  8
寸法
 48
50.0
100
AcDbLine
 10
4857.557157083022
 20
7068.243233961793
 30
0.0
 11
4768.272938487601
 21
7092.16686823128
 31
0.0
  0
LINE
  5
16574
330
747D
100
AcDbEntity
  8
寸法
 48
50.0
100
AcDbLine
 10
4638.405216907297
 20
7068.243233961793
 30
0.0
 11
4857.557157083022
 21
7068.243233961793
 31
0.0
  0
LINE
  5
16575
330
747D
100
AcDbEntity
  8
細線
 48
50.0
100
AcDbLine
 10
5187.40440307981
 20
7233.484640856319
 30
0.0
 11
5721.904397928899
 21
7233.484640856319
 31
0.0
  0
LINE
  5
16576
330
747D
100
AcDbEntity
  8
細線
 48
50.0
100
AcDbLine
 10
4695.404397928898
 20
7199.775872302244
 30
0.0
 11
5721.904397928896
 21
7199.775872302244
 31
0.0
  0
LINE
  5
16577
330
747D
100
AcDbEntity
  8
細線
 48
50.0
100
AcDbLine
 10
4654.404397928902
 20
7229.180780298496
 30
0.0
 11
4065.904397928898
 21
7229.180780298493
 31
0.0
  0
LINE
  5
16578
330
747D
100
AcDbEntity
  8
細線
100
AcDbLine
 10
5543.904388512441
 20
7252.984540821327
 30
0.0
 11
5546.235928034249
 21
7257.984543461289
 31
0.0
  0
LINE
  5
16579
330
747D
100
AcDbEntity
  8
細線
100
AcDbLine
 10
5613.904397928898
 20
7252.984525907594
 30
0.0
 11
5611.572851452707
 21
7257.984543461275
 31
0.0
  0
LINE
  5
1657A
330
747D
100
AcDbEntity
  8
細線
100
AcDbLine
 10
5611.572851452707
 20
7257.984543461275
 30
0.0
 11
5546.235928034235
 21
7257.984543461259
 31
0.0
  0
LINE
  5
1657B
330
747D
100
AcDbEntity
  8
細線
100
AcDbLine
 10
5471.572851452707
 20
7257.984543461275
 30
0.0
 11
5406.235928034235
 21
7257.984543461259
 31
0.0
  0
LINE
  5
1657C
330
747D
100
AcDbEntity
  8
細線
100
AcDbLine
 10
5473.904397928897
 20
7252.984525907594
 30
0.0
 11
5471.572851452707
 21
7257.984543461275
 31
0.0
  0
LINE
  5
1657D
330
747D
100
AcDbEntity
  8
細線
100
AcDbLine
 10
5403.904388512441
 20
7252.984540821327
 30
0.0
 11
5406.23592803425
 21
7257.984543461289
 31
0.0
  0
LINE
  5
1657E
330
747D
100
AcDbEntity
  8
細線
100
AcDbLine
 10
5263.904397928898
 20
7252.984525907594
 30
0.0
 11
5266.235937450707
 21
7257.984528547556
 31
0.0
  0
LINE
  5
1657F
330
747D
100
AcDbEntity
  8
細線
100
AcDbLine
 10
5333.904407345355
 20
7252.984510993859
 30
0.0
 11
5331.572860869164
 21
7257.98452854754
 31
0.0
  0
LINE
  5
16580
330
747D
100
AcDbEntity
  8
細線
100
AcDbLine
 10
5331.572860869168
 20
7257.98452854754
 30
0.0
 11
5266.235937450693
 21
7257.984528547526
 31
0.0
  0
LINE
  5
16581
330
747D
100
AcDbEntity
  8
細線
 48
50.0
100
AcDbLine
 10
5007.287746511615
 20
7237.255389060674
 30
0.0
 11
5013.043264094282
 21
7218.984537770187
 31
0.0
  0
LINE
  5
16582
330
747D
100
AcDbEntity
  8
細線
 48
50.0
100
AcDbLine
 10
4996.359298031184
 20
7237.255389060674
 30
0.0
 11
5007.287746511615
 21
7237.255389060674
 31
0.0
  0
ARC
  5
16583
330
747D
100
AcDbEntity
  8
細線
 48
50.0
100
AcDbCircle
 10
4990.904941973866
 20
7238.755389060674
 30
0.0
 40
5.0
100
AcDbArc
 50
204.6243183520714
 51
335.3756816479286
  0
ARC
  5
16584
330
747D
100
AcDbEntity
  8
細線
 48
50.0
100
AcDbCircle
 10
4996.359298031184
 20
7236.255389060675
 30
0.0
 40
1.0
100
AcDbArc
 50
90.0
 51
155.3756816479286
  0
ARC
  5
16585
330
747D
100
AcDbEntity
  8
細線
 48
50.0
100
AcDbCircle
 10
4985.450585916548
 20
7236.255389060675
 30
0.0
 40
1.0
100
AcDbArc
 50
24.62431835207141
 51
90.0
  0
LINE
  5
16586
330
747D
100
AcDbEntity
  8
細線
 48
50.0
100
AcDbLine
 10
4974.522137436114
 20
7237.255389060674
 30
0.0
 11
4985.450585916548
 21
7237.255389060674
 31
0.0
  0
LINE
  5
16587
330
747D
100
AcDbEntity
  8
細線
 48
50.0
100
AcDbLine
 10
4968.76661985345
 20
7218.98453777018
 30
0.0
 11
4974.522137436114
 21
7237.255389060674
 31
0.0
  0
LINE
  5
16588
330
747D
100
AcDbEntity
  8
細線
100
AcDbLine
 10
5025.904397928898
 20
7218.984514826463
 30
0.0
 11
5028.235937450706
 21
7223.984517466424
 31
0.0
  0
LINE
  5
16589
330
747D
100
AcDbEntity
  8
細線
100
AcDbLine
 10
5095.904407345355
 20
7218.984499912728
 30
0.0
 11
5093.572860869168
 21
7223.984517466409
 31
0.0
  0
LINE
  5
1658A
330
747D
100
AcDbEntity
  8
細線
100
AcDbLine
 10
5093.572860869168
 20
7223.984517466409
 30
0.0
 11
5028.235937450696
 21
7223.984517466395
 31
0.0
  0
LINE
  5
1658B
330
747D
100
AcDbEntity
  8
細線
100
AcDbLine
 10
4953.572824319235
 20
7223.984537770151
 30
0.0
 11
4888.235900900756
 21
7223.984537770137
 31
0.0
  0
LINE
  5
1658C
330
747D
100
AcDbEntity
  8
細線
100
AcDbLine
 10
4955.904370795419
 20
7218.98452021647
 30
0.0
 11
4953.572824319231
 21
7223.984537770151
 31
0.0
  0
LINE
  5
1658D
330
747D
100
AcDbEntity
  8
細線
100
AcDbLine
 10
4885.904362610003
 20
7218.98453777018
 30
0.0
 11
4888.23590090077
 21
7223.984537770165
 31
0.0
  0
LINE
  5
1658E
330
747D
100
AcDbEntity
  8
細線
100
AcDbLine
 10
4745.904397928899
 20
7218.98454595755
 30
0.0
 11
4748.235936219666
 21
7223.984545957534
 31
0.0
  0
LINE
  5
1658F
330
747D
100
AcDbEntity
  8
細線
100
AcDbLine
 10
4815.904406114314
 20
7218.98452840384
 30
0.0
 11
4813.572859638123
 21
7223.984545957518
 31
0.0
  0
LINE
  5
16590
330
747D
100
AcDbEntity
  8
細線
100
AcDbLine
 10
4813.572859638123
 20
7223.984545957518
 30
0.0
 11
4748.235936219651
 21
7223.984545957506
 31
0.0
  0
LINE
  5
16591
330
747D
100
AcDbEntity
  8
細線
100
AcDbLine
 10
4506.904389743482
 20
7184.984717638262
 30
0.0
 11
4509.235928034249
 21
7189.984717638248
 31
0.0
  0
LINE
  5
16592
330
747D
100
AcDbEntity
  8
細線
100
AcDbLine
 10
4576.904397928898
 20
7184.98470008455
 30
0.0
 11
4574.572851452707
 21
7189.984717638226
 31
0.0
  0
LINE
  5
16593
330
747D
100
AcDbEntity
  8
細線
100
AcDbLine
 10
4574.572851452707
 20
7189.984717638226
 30
0.0
 11
4509.235928034235
 21
7189.984717638219
 31
0.0
  0
LINE
  5
16594
330
747D
100
AcDbEntity
  8
細線
100
AcDbLine
 10
4434.572851452707
 20
7189.984717638226
 30
0.0
 11
4369.235928034234
 21
7189.984717638215
 31
0.0
  0
LINE
  5
16595
330
747D
100
AcDbEntity
  8
細線
100
AcDbLine
 10
4436.904397928898
 20
7184.98470008455
 30
0.0
 11
4434.572851452707
 21
7189.984717638226
 31
0.0
  0
LINE
  5
16596
330
747D
100
AcDbEntity
  8
細線
100
AcDbLine
 10
4366.904389743482
 20
7184.984717638259
 30
0.0
 11
4369.23592803425
 21
7189.984717638245
 31
0.0
  0
ARC
  5
16597
330
747D
100
AcDbEntity
  8
部品1
 48
0.01
100
AcDbCircle
 10
4226.404291330153
 20
7183.983595453191
 30
0.0
 40
0.5
100
AcDbArc
 50
270.0
 51
0.0
  0
LINE
  5
16598
330
747D
100
AcDbEntity
  8
部品1
 48
0.01
100
AcDbLine
 10
4226.904291330153
 20
7184.983595453189
 30
0.0
 11
4226.904291330153
 21
7183.983595453191
 31
0.0
  0
LINE
  5
16599
330
747D
100
AcDbEntity
  8
部品1
 48
0.01
100
AcDbLine
 10
4226.904291330153
 20
7184.983595453189
 30
0.0
 11
4226.904291330153
 21
7183.983595453191
 31
0.0
  0
LINE
  5
1659A
330
747D
100
AcDbEntity
  8
部品1
 48
0.01
100
AcDbLine
 10
4226.404291330153
 20
7183.483595453189
 30
0.0
 11
4219.791785900087
 21
7183.483595453189
 31
0.0
  0
ARC
  5
1659B
330
747D
100
AcDbEntity
  8
部品1
100
AcDbCircle
 10
4219.860135452869
 20
7184.48359545319
 30
0.0
 40
1.0
100
AcDbArc
 50
160.5287793655825
 51
270.0
  0
ARC
  5
1659C
330
747D
100
AcDbEntity
  8
部品1
100
AcDbCircle
 10
4194.404291330153
 20
7193.483595453191
 30
0.0
 40
26.0
100
AcDbArc
 50
340.5287793655825
 51
0.0
  0
LINE
  5
1659D
330
747D
100
AcDbEntity
  8
部品1
100
AcDbLine
 10
4220.404291330153
 20
7193.483595453191
 30
0.0
 11
4220.404291330153
 21
7198.48359545319
 31
0.0
  0
ARC
  5
1659E
330
747D
100
AcDbEntity
  8
部品1
 48
0.01
100
AcDbCircle
 10
4218.404291330153
 20
7198.48359545319
 30
0.0
 40
2.0
100
AcDbArc
 50
0.0
 51
90.0
  0
ARC
  5
1659F
330
747D
100
AcDbEntity
  8
部品1
100
AcDbCircle
 10
4216.795899705343
 20
7197.483595453189
 30
0.0
 40
3.0
100
AcDbArc
 50
90.0
 51
141.6069559807962
  0
LINE
  5
165A0
330
747D
100
AcDbEntity
  8
部品1
 48
0.01
100
AcDbLine
 10
4218.404291330153
 20
7200.48359545319
 30
0.0
 11
4216.795899705343
 21
7200.48359545319
 31
0.0
  0
ARC
  5
165A1
330
747D
100
AcDbEntity
  8
部品1
100
AcDbCircle
 10
4198.333577115882
 20
7196.783595453194
 30
0.0
 40
3.0
100
AcDbArc
 50
254.0576313943199
 51
270.0
  0
ARC
  5
165A2
330
747D
100
AcDbEntity
  8
部品1
100
AcDbCircle
 10
4205.475005544424
 20
7196.783595453194
 30
0.0
 40
3.0
100
AcDbArc
 50
270.0
 51
285.9423686056802
  0
LINE
  5
165A3
330
747D
100
AcDbEntity
  8
部品1
100
AcDbLine
 10
4205.475005544424
 20
7193.783595453194
 30
0.0
 11
4198.333577115882
 21
7193.783595453194
 31
0.0
  0
ARC
  5
165A4
330
747D
100
AcDbEntity
  8
部品1
100
AcDbCircle
 10
4201.904291330152
 20
7209.283595453193
 30
0.0
 40
16.0
100
AcDbArc
 50
285.9423686056802
 51
321.6069559807962
  0
LINE
  5
165A5
330
747D
100
AcDbEntity
  8
部品1
 48
0.01
100
AcDbLine
 10
4185.404291330153
 20
7200.48359545319
 30
0.0
 11
4187.012682954962
 21
7200.48359545319
 31
0.0
  0
ARC
  5
165A6
330
747D
100
AcDbEntity
  8
部品1
100
AcDbCircle
 10
4187.012682954962
 20
7197.483595453189
 30
0.0
 40
3.0
100
AcDbArc
 50
38.39304401920382
 51
90.0
  0
ARC
  5
165A7
330
747D
100
AcDbEntity
  8
部品1
100
AcDbCircle
 10
4201.904291330152
 20
7209.283595453193
 30
0.0
 40
16.0
100
AcDbArc
 50
218.3930440192038
 51
254.0576313943199
  0
LINE
  5
165A8
330
747D
100
AcDbEntity
  8
部品1
100
AcDbLine
 10
4183.404291330153
 20
7193.483595453191
 30
0.0
 11
4183.404291330153
 21
7198.48359545319
 31
0.0
  0
ARC
  5
165A9
330
747D
100
AcDbEntity
  8
部品1
 48
0.01
100
AcDbCircle
 10
4185.404291330153
 20
7198.48359545319
 30
0.0
 40
2.0
100
AcDbArc
 50
90.0
 51
180.0
  0
ARC
  5
165AA
330
747D
100
AcDbEntity
  8
部品1
100
AcDbCircle
 10
4209.404291330153
 20
7193.483595453191
 30
0.0
 40
26.0
100
AcDbArc
 50
180.0
 51
199.4712206344175
  0
ARC
  5
165AB
330
747D
100
AcDbEntity
  8
部品1
 48
0.01
100
AcDbCircle
 10
4177.404291330153
 20
7183.983595453191
 30
0.0
 40
0.5
100
AcDbArc
 50
180.0
 51
270.0
  0
LINE
  5
165AC
330
747D
100
AcDbEntity
  8
部品1
 48
0.01
100
AcDbLine
 10
4177.404291330153
 20
7183.483595453189
 30
0.0
 11
4183.948447207437
 21
7183.483595453189
 31
0.0
  0
LINE
  5
165AD
330
747D
100
AcDbEntity
  8
部品1
 48
0.01
100
AcDbLine
 10
4176.904291330152
 20
7184.983595453189
 30
0.0
 11
4176.904291330152
 21
7183.983595453191
 31
0.0
  0
ARC
  5
165AE
330
747D
100
AcDbEntity
  8
部品1
100
AcDbCircle
 10
4183.948447207437
 20
7184.48359545319
 30
0.0
 40
1.0
100
AcDbArc
 50
270.0
 51
19.47122063441753
  0
LINE
  5
165AF
330
747D
100
AcDbEntity
  8
細線
100
AcDbLine
 10
4222.40429133016
 20
7202.983595453193
 30
0.0
 11
4181.404291330159
 21
7202.983595453186
 31
0.0
  0
LINE
  5
165B0
330
747D
100
AcDbEntity
  8
細線
100
AcDbLine
 10
4181.404291330159
 20
7202.983595453186
 30
0.0
 11
4181.404291330159
 21
7184.983595453168
 31
0.0
  0
LINE
  5
165B1
330
747D
100
AcDbEntity
  8
細線
100
AcDbLine
 10
4222.40429133016
 20
7202.983595453193
 30
0.0
 11
4222.40429133016
 21
7184.983595453168
 31
0.0
  0
LINE
  5
165B2
330
747D
100
AcDbEntity
  8
細線
100
AcDbLine
 10
4065.904397928898
 20
7188.984525907594
 30
0.0
 11
4065.904397928898
 21
7184.984525907641
 31
0.0
  0
DIMENSION
  5
165B3
330
747D
100
AcDbEntity
  8
寸法
 48
50.0
100
AcDbDimension
  2
*D31
 10
5015.904397928898
 20
6615.350239691186
 30
0.0
 11
4540.904397928898
 21
6615.350239691186
 31
0.0
 70
   160
  1
有効開口部間口\P<>
 71
     5
 42
950.0
  3
INABA_S40G
100
AcDbAlignedDimension
 13
4065.904397928898
 23
7179.984525907594
 33
0.0
 14
5015.904397928898
 24
7179.984525907594
 34
0.0
100
AcDbRotatedDimension
1001
ACAD
1000
DSTYLE
1002
{
1070
   341
1005
0
1002
}
  0
LINE
  5
165B4
330
747D
100
AcDbEntity
  8
部品1
100
AcDbLine
 10
5733.904397928896
 20
7256.984525907594
 30
0.0
 11
5760.904397928896
 21
7256.984525907594
 31
0.0
  0
LINE
  5
165B6
330
747D
100
AcDbEntity
  8
部品1
100
AcDbLine
 10
5760.904397928896
 20
7179.984525907594
 30
0.0
 11
5760.904397928896
 21
7256.984525907594
 31
0.0
  0
LINE
  5
165B7
330
747D
100
AcDbEntity
  8
部品1
100
AcDbLine
 10
5721.904397928896
 20
7252.984525907594
 30
0.0
 11
5733.904397928896
 21
7252.984525907594
 31
0.0
  0
LINE
  5
165B8
330
747D
100
AcDbEntity
  8
部品1
100
AcDbLine
 10
5730.904397928896
 20
7188.984525907594
 30
0.0
 11
5730.904397928896
 21
7179.984525907594
 31
0.0
  0
LINE
  5
165B9
330
747D
100
AcDbEntity
  8
部品1
100
AcDbLine
 10
5721.904397928896
 20
7188.984525907594
 30
0.0
 11
5730.904397928896
 21
7188.984525907594
 31
0.0
  0
LINE
  5
165BA
330
747D
100
AcDbEntity
  8
部品1
100
AcDbLine
 10
5721.904397928896
 20
7252.984525907594
 30
0.0
 11
5721.904397928896
 21
7188.984525907594
 31
0.0
  0
LINE
  5
165BB
330
747D
100
AcDbEntity
  8
部品1
100
AcDbLine
 10
5733.904397928896
 20
7283.984525907595
 30
0.0
 11
5733.904397928896
 21
7252.984525907594
 31
0.0
  0
LINE
  5
165BC
330
747D
100
AcDbEntity
  8
部品1
100
AcDbLine
 10
4065.904397928898
 20
7252.984525907594
 30
0.0
 11
4053.904397928898
 21
7252.984525907594
 31
0.0
  0
LINE
  5
165BD
330
747D
100
AcDbEntity
  8
部品1
100
AcDbLine
 10
4026.904397928897
 20
7256.984525907594
 30
0.0
 11
4053.904397928898
 21
7256.984525907594
 31
0.0
  0
LINE
  5
165BE
330
747D
100
AcDbEntity
  8
部品1
100
AcDbLine
 10
4056.904397928899
 20
7188.984525907594
 30
0.0
 11
4056.904397928899
 21
7179.984525907594
 31
0.0
  0
LINE
  5
165BF
330
747D
100
AcDbEntity
  8
部品1
100
AcDbLine
 10
4065.904397928898
 20
7188.984525907594
 30
0.0
 11
4056.904397928899
 21
7188.984525907594
 31
0.0
  0
LINE
  5
165C0
330
747D
100
AcDbEntity
  8
部品1
100
AcDbLine
 10
4056.904397928899
 20
7179.984525907594
 30
0.0
 11
4026.904397928897
 21
7179.984525907594
 31
0.0
  0
LINE
  5
165C1
330
747D
100
AcDbEntity
  8
部品1
100
AcDbLine
 10
4026.904397928897
 20
7179.984525907594
 30
0.0
 11
4026.904397928897
 21
7256.984525907594
 31
0.0
  0
LINE
  5
165C2
330
747D
100
AcDbEntity
  8
部品1
100
AcDbLine
 10
4065.904397928898
 20
7252.984525907594
 30
0.0
 11
4065.904397928898
 21
7188.984525907594
 31
0.0
  0
LINE
  5
165C3
330
747D
100
AcDbEntity
  8
部品1
100
AcDbLine
 10
4053.904397928898
 20
7283.98452590759
 30
0.0
 11
4053.904397928898
 21
7252.984525907594
 31
0.0
  0
LINE
  5
165C4
330
747D
100
AcDbEntity
  8
部品1
100
AcDbLine
 10
4053.904397928898
 20
7283.98452590759
 30
0.0
 11
5733.904397928896
 21
7283.984525907595
 31
0.0
  0
LINE
  5
165C5
330
747D
100
AcDbEntity
  8
部品1
100
AcDbLine
 10
5730.904397928896
 20
7179.984525907594
 30
0.0
 11
5760.904397928896
 21
7179.984525907594
 31
0.0
  0
LINE
  5
165C6
330
747D
100
AcDbEntity
  8
部品1
100
AcDbLine
 10
4056.904397928899
 20
7179.984525907594
 30
0.0
 11
5760.904397928898
 21
7179.984525907592
 31
0.0
  0
LINE
  5
165C7
330
747D
100
AcDbEntity
  8
細線
  6
Continuous
 62
     5
100
AcDbLine
 10
5159.40440307981
 20
7237.984525907591
 30
0.0
 11
5159.40440307981
 21
7237.984525907591
 31
0.0
  0
LINE
  5
165C8
330
747D
100
AcDbEntity
  8
細線
 48
50.0
100
AcDbLine
 10
4079.904402582491
 20
7205.584700084547
 30
0.0
 11
4079.904402582491
 21
7213.980850492188
 31
0.0
  0
LINE
  5
165C9
330
747D
100
AcDbEntity
  8
細線
 48
50.0
100
AcDbLine
 10
4079.904402582491
 20
7213.980850492188
 30
0.0
 11
4065.904397928898
 21
7213.980850492184
 31
0.0
  0
LINE
  5
165CA
330
747D
100
AcDbEntity
  8
細線
 48
50.0
100
AcDbLine
 10
4056.904397928899
 20
7184.982034428017
 30
0.0
 11
4366.904951033328
 21
7184.985921328214
 31
0.0
  0
LINE
  5
165CB
330
747D
100
AcDbEntity
  8
細線
 48
50.0
100
AcDbLine
 10
4436.904397928898
 20
7184.98470008455
 30
0.0
 11
4506.904397928898
 21
7184.98470008455
 31
0.0
  0
LINE
  5
165CC
330
747D
100
AcDbEntity
  8
細線
 48
50.0
100
AcDbLine
 10
4449.766362941423
 20
7184.98470008455
 30
0.0
 11
4455.521880524094
 21
7203.255551375043
 31
0.0
  0
LINE
  5
165CD
330
747D
100
AcDbEntity
  8
細線
 48
50.0
100
AcDbLine
 10
4455.521880524094
 20
7203.255551375043
 30
0.0
 11
4466.450329004525
 21
7203.25555137504
 31
0.0
  0
ARC
  5
165CE
330
747D
100
AcDbEntity
  8
細線
 48
50.0
100
AcDbCircle
 10
4466.450329004525
 20
7202.255551375039
 30
0.0
 40
1.0
100
AcDbArc
 50
24.62431835207141
 51
90.0
  0
ARC
  5
165CF
330
747D
100
AcDbEntity
  8
細線
 48
50.0
100
AcDbCircle
 10
4477.359041119162
 20
7202.255551375039
 30
0.0
 40
1.0
100
AcDbArc
 50
90.0
 51
155.3756816479286
  0
ARC
  5
165D0
330
747D
100
AcDbEntity
  8
細線
 48
50.0
100
AcDbCircle
 10
4471.904685061839
 20
7204.75555137504
 30
0.0
 40
5.0
100
AcDbArc
 50
204.6243183520714
 51
335.3756816479286
  0
LINE
  5
165D1
330
747D
100
AcDbEntity
  8
細線
 48
50.0
100
AcDbLine
 10
4477.359041119162
 20
7203.25555137504
 30
0.0
 11
4488.287489599591
 21
7203.255551375043
 31
0.0
  0
LINE
  5
165D2
330
747D
100
AcDbEntity
  8
細線
 48
50.0
100
AcDbLine
 10
4488.287489599591
 20
7203.255551375043
 30
0.0
 11
4494.043007182263
 21
7184.98470008455
 31
0.0
  0
LINE
  5
165D3
330
747D
100
AcDbEntity
  8
細線
 48
50.0
100
AcDbLine
 10
4665.404397928898
 20
7205.584700084547
 30
0.0
 11
4079.904402582491
 21
7205.584700084547
 31
0.0
  0
LINE
  5
165D4
330
747D
100
AcDbEntity
  8
細線
 48
50.0
100
AcDbLine
 10
5157.404398426217
 20
7239.584743942415
 30
0.0
 11
4684.404397928898
 21
7239.584743942413
 31
0.0
  0
LINE
  5
165D5
330
747D
100
AcDbEntity
  8
細線
 48
50.0
100
AcDbLine
 10
5157.404398426217
 20
7236.134743942415
 30
0.0
 11
5157.404398426217
 21
7240.984743942414
 31
0.0
  0
LINE
  5
165D6
330
747D
100
AcDbEntity
  8
細線
 48
50.0
100
AcDbLine
 10
5157.404398426217
 20
7240.984743942414
 30
0.0
 11
5172.404398426217
 21
7240.984743942414
 31
0.0
  0
LINE
  5
165D7
330
747D
100
AcDbEntity
  8
細線
 48
50.0
100
AcDbLine
 10
5172.404398426217
 20
7240.984743942414
 30
0.0
 11
5172.404410060189
 21
7247.984743942457
 31
0.0
  0
LINE
  5
165D8
330
747D
100
AcDbEntity
  8
細線
 48
50.0
100
AcDbLine
 10
5172.404410060189
 20
7247.984743942457
 30
0.0
 11
5187.404408230722
 21
7247.984743942457
 31
0.0
  0
LINE
  5
165D9
330
747D
100
AcDbEntity
  8
細線
 48
50.0
100
AcDbLine
 10
5187.404408230722
 20
7247.984743942457
 30
0.0
 11
5187.404397928898
 21
7218.984537770184
 31
0.0
  0
LINE
  5
165DA
330
747D
100
AcDbEntity
  8
細線
 48
50.0
100
AcDbLine
 10
5025.904397928898
 20
7218.984535020178
 30
0.0
 11
4955.904641825895
 21
7218.984540520212
 31
0.0
  0
LINE
  5
165DB
330
747D
100
AcDbEntity
  8
細線
 48
50.0
100
AcDbLine
 10
5095.904389692136
 20
7218.984537770184
 30
0.0
 11
5187.404397928898
 21
7218.984537770184
 31
0.0
  0
LINE
  5
165DC
330
747D
100
AcDbEntity
  8
細線
 48
50.0
100
AcDbLine
 10
4745.904397928899
 20
7218.98454595755
 30
0.0
 11
4696.113456975268
 21
7218.984553649692
 31
0.0
  0
LINE
  5
165DD
330
747D
100
AcDbEntity
  8
細線
 48
50.0
100
AcDbLine
 10
4885.904362610003
 20
7218.98453777018
 30
0.0
 11
4815.904345322131
 21
7218.984537770187
 31
0.0
  0
ARC
  5
165DE
330
747D
100
AcDbEntity
  8
細線
 48
50.0
100
AcDbCircle
 10
5171.604403079815
 20
7252.184525907594
 30
0.0
 40
0.8
100
AcDbArc
 50
359.9997333689499
 51
89.99986668437072
  0
ARC
  5
165DF
330
747D
100
AcDbEntity
  8
細線
 48
50.0
100
AcDbCircle
 10
5179.204409904913
 20
7252.18453707621
 30
0.0
 40
0.8
100
AcDbArc
 50
90.00014387753465
 51
179.9997333689498
  0
LINE
  5
165E0
330
747D
100
AcDbEntity
  8
細線
 48
50.0
100
AcDbLine
 10
5171.604404941252
 20
7252.984525907594
 30
0.0
 11
5166.404403079806
 21
7252.984525907594
 31
0.0
  0
ARC
  5
165E1
330
747D
100
AcDbEntity
  8
細線
 48
50.0
100
AcDbCircle
 10
5173.104403079808
 20
7250.684525907594
 30
0.0
 40
0.7
100
AcDbArc
 50
180.0
 51
270.0
  0
ARC
  5
165E2
330
747D
100
AcDbEntity
  8
細線
 48
50.0
100
AcDbCircle
 10
5177.704403079806
 20
7250.684525907594
 30
0.0
 40
0.7
100
AcDbArc
 50
270.0
 51
0.0
  0
LINE
  5
165E3
330
747D
100
AcDbEntity
  8
細線
 48
50.0
100
AcDbLine
 10
5178.404403079807
 20
7250.684525907594
 30
0.0
 11
5178.404409904921
 21
7252.184540799082
 31
0.0
  0
LINE
  5
165E4
330
747D
100
AcDbEntity
  8
細線
 48
50.0
100
AcDbLine
 10
5173.104403079808
 20
7249.984525907594
 30
0.0
 11
5177.704403079806
 21
7249.984525907594
 31
0.0
  0
LINE
  5
165E5
330
747D
100
AcDbEntity
  8
細線
 48
50.0
100
AcDbLine
 10
5172.404403079807
 20
7252.184525907594
 30
0.0
 11
5172.404403079807
 21
7250.684525907594
 31
0.0
  0
LINE
  5
165E6
330
747D
100
AcDbEntity
  8
細線
 48
50.0
100
AcDbLine
 10
5705.504397928904
 20
7282.984525907592
 30
0.0
 11
5161.404403079806
 21
7282.98452590759
 31
0.0
  0
LINE
  5
165E7
330
747D
100
AcDbEntity
  8
細線
 48
50.0
100
AcDbLine
 10
5731.404397928898
 20
7277.984525907597
 30
0.0
 11
5715.5043979289
 21
7277.984525907594
 31
0.0
  0
LINE
  5
165E8
330
747D
100
AcDbEntity
  8
細線
 48
50.0
100
AcDbLine
 10
5715.504397928898
 20
7277.984525907594
 30
0.0
 11
5705.5043979289
 21
7282.984525907593
 31
0.0
  0
LINE
  5
165E9
330
747D
100
AcDbEntity
  8
細線
100
AcDbLine
 10
5351.904397928898
 20
7252.984525907594
 30
0.0
 11
5351.904397928898
 21
7282.284525907593
 31
0.0
  0
LINE
  5
165EA
330
747D
100
AcDbEntity
  8
細線
100
AcDbLine
 10
5351.904397928898
 20
7282.284525907593
 30
0.0
 11
5371.904397928898
 21
7282.284525907593
 31
0.0
  0
LINE
  5
165EB
330
747D
100
AcDbEntity
  8
細線
100
AcDbLine
 10
5371.904397928898
 20
7252.984525907594
 30
0.0
 11
5371.904397928898
 21
7282.284525907593
 31
0.0
  0
LINE
  5
165EC
330
747D
100
AcDbEntity
  8
細線
100
AcDbLine
 10
5543.904397928898
 20
7252.984525907594
 30
0.0
 11
5473.904397928897
 21
7252.984525907594
 31
0.0
  0
LINE
  5
165ED
330
747D
100
AcDbEntity
  8
細線
 48
50.0
100
AcDbLine
 10
5263.904397928898
 20
7252.984525907594
 30
0.0
 11
5179.200182652646
 21
7252.984525907594
 31
0.0
  0
LINE
  5
165EE
330
747D
100
AcDbEntity
  8
細線
100
AcDbLine
 10
5403.904397928898
 20
7252.984525907594
 30
0.0
 11
5333.904397928898
 21
7252.984525907594
 31
0.0
  0
LINE
  5
165EF
330
747D
100
AcDbEntity
  8
細線
 48
50.0
100
AcDbLine
 10
5166.404403079806
 20
7244.984525907594
 30
0.0
 11
5166.404403079806
 21
7252.984525907594
 31
0.0
  0
LINE
  5
165F0
330
747D
100
AcDbEntity
  8
細線
 48
50.0
100
AcDbLine
 10
5146.404403079803
 20
7244.984525907597
 30
0.0
 11
5166.404403079806
 21
7244.984525907594
 31
0.0
  0
LINE
  5
165F1
330
747D
100
AcDbEntity
  8
細線
 48
50.0
100
AcDbLine
 10
5161.404403079806
 20
7282.984525907593
 30
0.0
 11
5161.404403079806
 21
7277.984525907594
 31
0.0
  0
LINE
  5
165F2
330
747D
100
AcDbEntity
  8
細線
 48
50.0
100
AcDbLine
 10
5146.404403079807
 20
7282.98452590759
 30
0.0
 11
5161.404403079806
 21
7282.984525907593
 31
0.0
  0
LINE
  5
165F3
330
747D
100
AcDbEntity
  8
細線
 48
50.0
100
AcDbLine
 10
5146.404403079803
 20
7244.984525907597
 30
0.0
 11
5146.404403079807
 21
7282.98452590759
 31
0.0
  0
LINE
  5
165F4
330
747D
100
AcDbEntity
  8
細線
100
AcDbLine
 10
5721.904397928896
 20
7252.984525907594
 30
0.0
 11
5613.904397928898
 21
7252.984525907594
 31
0.0
  0
LINE
  5
165F5
330
747D
100
AcDbEntity
  8
細線
 48
50.0
100
AcDbLine
 10
5731.404397928898
 20
7277.984525907597
 30
0.0
 11
5731.404397928896
 21
7252.984525907594
 31
0.0
  0
ARC
  5
165F6
330
747D
100
AcDbEntity
  8
細線
 48
50.0
100
AcDbCircle
 10
4695.171703804749
 20
7217.984547075868
 30
0.0
 40
1.0
100
AcDbArc
 50
90.0003999466794
 51
165.0005554812978
  0
LINE
  5
165F7
330
747D
100
AcDbEntity
  8
細線
 48
50.0
100
AcDbLine
 10
4695.171696824363
 20
7218.984547075843
 30
0.0
 11
4696.113456975268
 21
7218.984553649692
 31
0.0
  0
ARC
  5
165F8
330
747D
100
AcDbEntity
  8
細線
 48
50.0
100
AcDbCircle
 10
4685.637066003407
 20
7217.984352385572
 30
0.0
 40
1.0
100
AcDbArc
 50
15.0010443048931
 51
90.00093320877969
  0
LINE
  5
165F9
330
747D
100
AcDbEntity
  8
細線
 48
50.0
100
AcDbLine
 10
4686.602987112157
 20
7218.243189036136
 30
0.0
 11
4686.850756608669
 21
7217.318568097553
 31
0.0
  0
ARC
  5
165FA
330
747D
100
AcDbEntity
  8
細線
 48
50.0
100
AcDbCircle
 10
4688.589414604416
 20
7217.78447406857
 30
0.0
 40
1.8
100
AcDbArc
 50
195.0010443048931
 51
270.0006665777295
  0
LINE
  5
165FB
330
747D
100
AcDbEntity
  8
細線
 48
50.0
100
AcDbLine
 10
4692.219362964337
 20
7215.984516299172
 30
0.0
 11
4688.589435545567
 21
7215.984474068692
 31
0.0
  0
LINE
  5
165FC
330
747D
100
AcDbEntity
  8
細線
 48
50.0
100
AcDbLine
 10
4694.205775469257
 20
7218.243356756329
 30
0.0
 11
4693.958013027063
 21
7217.318658874223
 31
0.0
  0
ARC
  5
165FD
330
747D
100
AcDbEntity
  8
細線
 48
50.0
100
AcDbCircle
 10
4692.219342023178
 20
7217.784516299051
 30
0.0
 40
1.8
100
AcDbArc
 50
270.0006665777295
 51
345.0005554812979
  0
LINE
  5
165FE
330
747D
100
AcDbEntity
  8
細線
 48
50.0
100
AcDbLine
 10
4674.404360361135
 20
7218.984169432291
 30
0.0
 11
4685.637049715842
 21
7218.984352385438
 31
0.0
  0
LINE
  5
165FF
330
747D
100
AcDbEntity
  8
細線
 48
50.0
100
AcDbLine
 10
4674.404360361135
 20
7218.984169432291
 30
0.0
 11
4674.404405230074
 21
7210.380707796483
 31
0.0
  0
LINE
  5
16600
330
747D
100
AcDbEntity
  8
細線
 48
50.0
100
AcDbLine
 10
4654.404397928902
 20
7210.38066624694
 30
0.0
 11
4674.404405230074
 21
7210.380707796483
 31
0.0
  0
LINE
  5
16601
330
747D
100
AcDbEntity
  8
細線
 48
50.0
100
AcDbLine
 10
4654.404397928902
 20
7247.980894350051
 30
0.0
 11
4654.404397928902
 21
7210.38066624694
 31
0.0
  0
LINE
  5
16602
330
747D
100
AcDbEntity
  8
細線
 48
50.0
100
AcDbLine
 10
4669.404397928898
 20
7247.980894350056
 30
0.0
 11
4654.404397928902
 21
7247.980894350051
 31
0.0
  0
LINE
  5
16603
330
747D
100
AcDbEntity
  8
細線
 48
50.0
100
AcDbLine
 10
4669.404397928898
 20
7240.980894350056
 30
0.0
 11
4669.404397928898
 21
7247.980894350056
 31
0.0
  0
LINE
  5
16604
330
747D
100
AcDbEntity
  8
細線
 48
50.0
100
AcDbLine
 10
4684.404397928898
 20
7240.980894350056
 30
0.0
 11
4669.404397928898
 21
7240.980894350056
 31
0.0
  0
LINE
  5
16605
330
747D
100
AcDbEntity
  8
細線
 48
50.0
100
AcDbLine
 10
4684.404397928898
 20
7236.480894350056
 30
0.0
 11
4684.404397928898
 21
7240.980894350056
 31
0.0
  0
LINE
  5
16606
330
747D
100
AcDbEntity
  8
細線
 48
50.0
100
AcDbLine
 10
4695.404397928898
 20
7213.984700084549
 30
0.0
 11
4695.404397928898
 21
7184.98470008455
 31
0.0
  0
LINE
  5
16607
330
747D
100
AcDbEntity
  8
細線
 48
50.0
100
AcDbLine
 10
4680.404397928902
 20
7213.984700084549
 30
0.0
 11
4695.404397928898
 21
7213.984700084549
 31
0.0
  0
LINE
  5
16608
330
747D
100
AcDbEntity
  8
細線
 48
50.0
100
AcDbLine
 10
4680.404397928898
 20
7206.98470008455
 30
0.0
 11
4680.404397928902
 21
7213.984700084549
 31
0.0
  0
LINE
  5
16609
330
747D
100
AcDbEntity
  8
細線
 48
50.0
100
AcDbLine
 10
4665.404397928898
 20
7206.98470008455
 30
0.0
 11
4680.404397928898
 21
7206.98470008455
 31
0.0
  0
LINE
  5
1660A
330
747D
100
AcDbEntity
  8
細線
 48
50.0
100
AcDbLine
 10
4665.404397928898
 20
7202.134700084546
 30
0.0
 11
4665.404397928898
 21
7206.98470008455
 31
0.0
  0
LINE
  5
1660B
330
747D
100
AcDbEntity
  8
細線
 48
50.0
100
AcDbLine
 10
4576.904397928898
 20
7184.98470008455
 30
0.0
 11
4695.404397928898
 21
7184.98470008455
 31
0.0
  0
DIMENSION
  5
1660C
330
747D
100
AcDbEntity
  8
寸法
 48
50.0
100
AcDbDimension
  2
*D32
 10
5760.904397928896
 20
6355.914509342444
 30
0.0
 11
4884.875841228513
 21
6355.914509342444
 31
0.0
 70
   160
 71
     5
 42
1733.999999999998
  3
INABA_S40G
100
AcDbAlignedDimension
 13
4026.904397928897
 23
7179.984525907594
 33
0.0
 14
5760.904397928896
 24
7179.984525907592
 34
0.0
100
AcDbRotatedDimension
1001
ACAD
1000
DSTYLE
1002
{
1070
   341
1005
0
1002
}
  0
LWPOLYLINE
  5
16720
330
747D
100
AcDbEntity
  8
部品1
 48
50.0
100
AcDbPolyline
 90
        4
 70
     1
 43
0.0
 10
4100.106597808628
 20
3334.362805903249
 10
4103.006597808629
 20
3334.362805903249
 10
4103.006597808629
 20
3343.862805903249
 10
4100.106597808628
 20
3343.862805903249
  0
CIRCLE
  5
16721
330
747D
100
AcDbEntity
  8
部品1
 48
50.0
100
AcDbCircle
 10
4101.556597808628
 20
3339.112805903249
 30
0.0
 40
9.0
  0
ARC
  5
16722
330
747D
100
AcDbEntity
  8
細線
 48
50.0
100
AcDbCircle
 10
4101.556597808628
 20
3339.112805903249
 30
0.0
 40
4.0
100
AcDbArc
 50
111.2538091853132
 51
248.7461908146868
  0
ARC
  5
16723
330
747D
100
AcDbEntity
  8
細線
 48
50.0
100
AcDbCircle
 10
4101.556597808628
 20
3339.112805903249
 30
0.0
 40
17.5
100
AcDbArc
 50
306.4837370612677
 51
233.5162629387323
  0
LINE
  5
16724
330
747D
100
AcDbEntity
  8
細線
 48
50.0
100
AcDbLine
 10
4111.556597808625
 20
3315.253845322366
 30
0.0
 11
4111.556597808628
 21
3324.238331122608
 31
0.0
  0
LINE
  5
16725
330
747D
100
AcDbEntity
  8
細線
 48
50.0
100
AcDbLine
 10
4091.556597808629
 20
3315.253845322368
 30
0.0
 11
4091.556597808629
 21
3324.238331122604
 31
0.0
  0
ARC
  5
16726
330
747D
100
AcDbEntity
  8
細線
 48
50.0
100
AcDbCircle
 10
4101.556597808628
 20
3339.112805903249
 30
0.0
 40
26.5
100
AcDbArc
 50
249.3326835063939
 51
290.6673164933835
  0
ARC
  5
16727
330
747D
100
AcDbEntity
  8
細線
 48
50.0
100
AcDbCircle
 10
4110.556597808622
 20
3315.253845322366
 30
0.0
 40
1.0
100
AcDbArc
 50
290.6673164936062
 51
359.9999999998958
  0
ARC
  5
16728
330
747D
100
AcDbEntity
  8
細線
 48
50.0
100
AcDbCircle
 10
4092.556597808629
 20
3315.253845322368
 30
0.0
 40
1.0
100
AcDbArc
 50
180.0
 51
249.3326835066164
  0
ARC
  5
16729
330
747D
100
AcDbEntity
  8
細線
 48
50.0
100
AcDbCircle
 10
4090.556597808628
 20
3324.238331122604
 30
0.0
 40
1.0
100
AcDbArc
 50
0.0
 51
53.51626293873231
  0
ARC
  5
1672A
330
747D
100
AcDbEntity
  8
細線
 48
50.0
100
AcDbCircle
 10
4112.556597808633
 20
3324.238331122608
 30
0.0
 40
1.0
100
AcDbArc
 50
126.4837370615127
 51
180.0
  0
ARC
  5
1672B
330
747D
100
AcDbEntity
  8
細線
 48
50.0
100
AcDbCircle
 10
4101.556597808628
 20
3339.112805903249
 30
0.0
 40
21.5
100
AcDbArc
 50
255.8014401250294
 51
284.1985598749706
  0
ARC
  5
1672C
330
747D
100
AcDbEntity
  8
細線
 48
50.0
100
AcDbCircle
 10
4101.556597808628
 20
3339.112805903249
 30
0.0
 40
16.5
100
AcDbArc
 50
251.9694646069326
 51
288.0305353930674
  0
LINE
  5
1672D
330
747D
100
AcDbEntity
  8
細線
 48
50.0
100
AcDbLine
 10
4107.056597808628
 20
3318.560433777442
 30
0.0
 11
4107.056597808628
 21
3323.137825464779
 31
0.0
  0
LINE
  5
1672E
330
747D
100
AcDbEntity
  8
細線
 48
50.0
100
AcDbLine
 10
4096.056597808629
 20
3318.560433777442
 30
0.0
 11
4096.056597808629
 21
3323.137825464777
 31
0.0
  0
ARC
  5
1672F
330
747D
100
AcDbEntity
  8
細線
 48
50.0
100
AcDbCircle
 10
4096.356597808632
 20
3323.137825464777
 30
0.0
 40
0.3
100
AcDbArc
 50
71.96946460693259
 51
180.0
  0
ARC
  5
16730
330
747D
100
AcDbEntity
  8
細線
 48
50.0
100
AcDbCircle
 10
4106.756597808629
 20
3323.137825464779
 30
0.0
 40
0.3
100
AcDbArc
 50
0.0
 51
108.0305353930674
  0
ARC
  5
16731
330
747D
100
AcDbEntity
  8
細線
 48
50.0
100
AcDbCircle
 10
4106.756597808625
 20
3318.560433777442
 30
0.0
 40
0.3
100
AcDbArc
 50
284.1985598747622
 51
0.0000000001042204
  0
ARC
  5
16732
330
747D
100
AcDbEntity
  8
細線
 48
50.0
100
AcDbCircle
 10
4096.356597808632
 20
3318.560433777442
 30
0.0
 40
0.3
100
AcDbArc
 50
180.0
 51
255.8014401248081
  0
CIRCLE
  5
16733
330
747D
100
AcDbEntity
  8
細線
 48
50.0
100
AcDbCircle
 10
4101.556597808628
 20
3339.112805903249
 30
0.0
 40
12.0
  0
ARC
  5
16734
330
747D
100
AcDbEntity
  8
部品1
 48
50.0
100
AcDbCircle
 10
4101.556597808628
 20
3389.112805903249
 30
0.0
 40
8.5
100
AcDbArc
 50
114.315739171091
 51
245.684260828909
  0
CIRCLE
  5
16735
330
747D
100
AcDbEntity
  8
細線
 48
50.0
100
AcDbCircle
 10
4101.556597808628
 20
3389.112805903249
 30
0.0
 40
4.5
  0
LWPOLYLINE
  5
16736
330
747D
100
AcDbEntity
  8
部品1
 48
50.0
100
AcDbPolyline
 90
        2
 70
     0
 43
0.0
 10
4098.056597808628
 20
3407.787655300232
 10
4098.056597808628
 20
3396.858772595664
  0
CIRCLE
  5
16737
330
747D
100
AcDbEntity
  8
部品1
 48
50.0
100
AcDbCircle
 10
4101.556597808628
 20
3389.112805903249
 30
0.0
 40
19.0
  0
LWPOLYLINE
  5
16738
330
747D
100
AcDbEntity
  8
部品1
 48
50.0
100
AcDbPolyline
 90
        2
 70
     0
 43
0.0
 10
4098.056597808628
 20
3381.366839210834
 10
4098.056597808628
 20
3370.437956506267
  0
LWPOLYLINE
  5
16739
330
747D
100
AcDbEntity
  8
部品1
 48
50.0
100
AcDbPolyline
 90
        2
 70
     0
 43
0.0
 10
4105.056597808629
 20
3396.858772595664
 10
4105.056597808629
 20
3407.787655300232
  0
ARC
  5
1673A
330
747D
100
AcDbEntity
  8
部品1
 48
50.0
100
AcDbCircle
 10
4101.556597808628
 20
3389.112805903249
 30
0.0
 40
8.5
100
AcDbArc
 50
294.315739171091
 51
65.68426082890896
  0
LWPOLYLINE
  5
1673B
330
747D
100
AcDbEntity
  8
部品1
 48
50.0
100
AcDbPolyline
 90
        2
 70
     0
 43
0.0
 10
4105.056597808629
 20
3370.437956506267
 10
4105.056597808629
 20
3381.366839210834
  0
ARC
  5
1673C
330
747D
100
AcDbEntity
  8
細線
 48
50.0
100
AcDbCircle
 10
4101.556597808628
 20
3389.112805903249
 30
0.0
 40
16.5
100
AcDbArc
 50
332.0012352654438
 51
27.99876473455621
  0
ARC
  5
1673D
330
747D
100
AcDbEntity
  8
細線
 48
50.0
100
AcDbCircle
 10
4101.556597808628
 20
3389.112805903249
 30
0.0
 40
14.0
100
AcDbArc
 50
326.4074436112986
 51
33.59255638870134
  0
LINE
  5
1673E
330
747D
100
AcDbEntity
  8
細線
 48
50.0
100
AcDbLine
 10
4086.987795524297
 20
3396.858772595664
 30
0.0
 11
4089.89469401894
 21
3396.858772595664
 31
0.0
  0
LINE
  5
1673F
330
747D
100
AcDbEntity
  8
細線
 48
50.0
100
AcDbLine
 10
4086.987795524297
 20
3381.366839210834
 30
0.0
 11
4089.89469401894
 21
3381.366839210834
 31
0.0
  0
LINE
  5
16740
330
747D
100
AcDbEntity
  8
細線
 48
50.0
100
AcDbLine
 10
4113.218501598317
 20
3396.858772595664
 30
0.0
 11
4116.125400092964
 21
3396.858772595664
 31
0.0
  0
LINE
  5
16741
330
747D
100
AcDbEntity
  8
細線
 48
50.0
100
AcDbLine
 10
4113.218501598317
 20
3381.366839210834
 30
0.0
 11
4116.125400092964
 21
3381.366839210834
 31
0.0
  0
ARC
  5
16742
330
747D
100
AcDbEntity
  8
細線
 48
50.0
100
AcDbCircle
 10
4101.556597808628
 20
3389.112805903249
 30
0.0
 40
14.0
100
AcDbArc
 50
146.4074436112986
 51
213.5925563887013
  0
ARC
  5
16743
330
747D
100
AcDbEntity
  8
細線
 48
50.0
100
AcDbCircle
 10
4101.556597808628
 20
3389.112805903249
 30
0.0
 40
16.5
100
AcDbArc
 50
152.0012352654438
 51
207.9987647345562
  0
ARC
  5
16744
330
747D
100
AcDbEntity
  8
部品1
 48
50.0
100
AcDbCircle
 10
4075.056597808628
 20
3414.612805903249
 30
0.0
 40
5.0
100
AcDbArc
 50
90.0
 51
180.0
  0
ARC
  5
16745
330
747D
100
AcDbEntity
  8
部品1
 48
50.0
100
AcDbCircle
 10
4075.056597808628
 20
3303.612805903249
 30
0.0
 40
5.0
100
AcDbArc
 50
180.0
 51
270.0
  0
ARC
  5
16746
330
747D
100
AcDbEntity
  8
部品1
 48
50.0
100
AcDbCircle
 10
4128.056597808629
 20
3303.612805903249
 30
0.0
 40
5.0
100
AcDbArc
 50
270.0
 51
0.0
  0
ARC
  5
16747
330
747D
100
AcDbEntity
  8
部品1
 48
50.0
100
AcDbCircle
 10
4128.056597808629
 20
3414.612805903249
 30
0.0
 40
5.0
100
AcDbArc
 50
0.0
 51
90.0
  0
LINE
  5
16748
330
747D
100
AcDbEntity
  8
部品1
 48
50.0
100
AcDbLine
 10
4070.056597808629
 20
3303.612805903249
 30
0.0
 11
4070.056597808629
 21
3414.612805903249
 31
0.0
  0
LINE
  5
16749
330
747D
100
AcDbEntity
  8
部品1
 48
50.0
100
AcDbLine
 10
4128.056597808629
 20
3298.612805903249
 30
0.0
 11
4075.056597808628
 21
3298.612805903249
 31
0.0
  0
LINE
  5
1674A
330
747D
100
AcDbEntity
  8
部品1
 48
50.0
100
AcDbLine
 10
4133.056597808629
 20
3414.612805903249
 30
0.0
 11
4133.056597808629
 21
3303.612805903249
 31
0.0
  0
ENDSEC
  0
SECTION
  2
OBJECTS
  0
DICTIONARY
  5
7471
330
0
100
AcDbDictionary
281
     1
  3
ACAD_COLOR
350
13166
  3
ACAD_GROUP
350
7472
  3
ACAD_LAYOUT
350
13167
  3
ACAD_MATERIAL
350
13165
  3
ACAD_MLINESTYLE
350
7473
  3
ACAD_PLOTSETTINGS
350
13168
  3
ACAD_PLOTSTYLENAME
350
13163
  3
ACDBHEADERROUNDTRIPXREC
350
1675A
  3
AcDbVariableDictionary
350
16756
  3
CONTENTDICTIONARY
350
E71C
  3
DRAWINGVARIABLESDICT
350
F3B9
  0
DICTIONARY
  5
132E2
330
7467
100
AcDbDictionary
280
     1
281
     1
  3
ACAD_LAYERSTATES
360
132E3
  0
DICTIONARY
  5
13166
102
{ACAD_REACTORS
330
7471
102
}
330
7471
100
AcDbDictionary
281
     1
  0
DICTIONARY
  5
7472
102
{ACAD_REACTORS
330
7471
102
}
330
7471
100
AcDbDictionary
281
     1
  0
DICTIONARY
  5
13167
102
{ACAD_REACTORS
330
7471
102
}
330
7471
100
AcDbDictionary
281
     1
  3
Model
350
13169
  3
レイアウト1
350
1316A
  0
DICTIONARY
  5
13165
102
{ACAD_REACTORS
330
7471
102
}
330
7471
100
AcDbDictionary
281
     1
  0
DICTIONARY
  5
7473
102
{ACAD_REACTORS
330
7471
102
}
330
7471
100
AcDbDictionary
281
     1
  3
STANDARD
350
7480
  0
DICTIONARY
  5
13168
102
{ACAD_REACTORS
330
7471
102
}
330
7471
100
AcDbDictionary
281
     1
  0
ACDBDICTIONARYWDFLT
  5
13163
102
{ACAD_REACTORS
330
7471
102
}
330
7471
100
AcDbDictionary
281
     1
  3
Normal
350
13164
100
AcDbDictionaryWithDefault
340
13164
  0
DICTIONARY
  5
1675A
102
{ACAD_REACTORS
330
7471
102
}
330
7471
100
AcDbDictionary
281
     1
  3
COLORDICT
350
1675C
  3
MATERIALDICT
350
1675B
  0
DICTIONARY
  5
16756
102
{ACAD_REACTORS
330
7471
102
}
330
7471
100
AcDbDictionary
281
     1
  3
DIMASSOC
350
16757
  3
PROJECTNAME
350
16758
  0
DICTIONARY
  5
E71C
102
{ACAD_REACTORS
330
7471
102
}
330
7471
100
AcDbDictionary
281
     1
  0
DICTIONARY
  5
F3B9
102
{ACAD_REACTORS
330
7471
102
}
330
7471
100
AcDbDictionary
281
     1
1001
DRAWINGVARIABLESXDATA
1000
POLARMODE
1000
1
  0
DICTIONARY
  5
132E3
102
{ACAD_REACTORS
330
132E2
102
}
330
132E2
100
AcDbDictionary
281
     1
  0
LAYOUT
  5
13169
102
{ACAD_XDICTIONARY
360
1675D
102
}
102
{ACAD_REACTORS
330
13167
102
}
330
13167
100
AcDbPlotSettings
  1

  2
EPSON LP-7000C
  4

  6

 40
0.0
 41
0.0
 42
0.0
 43
0.0
 44
0.0
 45
0.0
 46
0.0
 47
0.0
 48
0.0
 49
0.0
140
0.0
141
0.0
142
1.0
143
1.0
 70
  1712
 72
     0
 73
     0
 74
     0
  7

 75
     0
147
1.0
148
0.0
149
0.0
100
AcDbLayout
  1
Model
 70
     1
 71
     0
 10
0.0
 20
0.0
 11
12.0
 21
9.0
 12
0.0
 22
0.0
 32
0.0
 14
0.0
 24
0.0
 34
0.0
 15
0.0
 25
0.0
 35
0.0
146
0.0
 13
0.0
 23
0.0
 33
0.0
 16
1.0
 26
0.0
 36
0.0
 17
0.0
 27
1.0
 37
0.0
 76
     0
330
747D
  0
LAYOUT
  5
1316A
102
{ACAD_XDICTIONARY
360
1675F
102
}
102
{ACAD_REACTORS
330
13167
102
}
330
13167
100
AcDbPlotSettings
  1

  2
EPSON LP-7000C
  4

  6

 40
0.0
 41
0.0
 42
0.0
 43
0.0
 44
0.0
 45
0.0
 46
0.0
 47
0.0
 48
0.0
 49
0.0
140
0.0
141
0.0
142
1.0
143
1.0
 70
   688
 72
     0
 73
     0
 74
     5
  7

 75
    16
147
1.0
148
0.0
149
0.0
100
AcDbLayout
  1
レイアウト1
 70
     0
 71
     1
 10
0.0
 20
0.0
 11
420.0
 21
297.0
 12
0.0
 22
0.0
 32
0.0
 14
1.000000000000000E+20
 24
1.000000000000000E+20
 34
1.000000000000000E+20
 15
-1.000000000000000E+20
 25
-1.000000000000000E+20
 35
-1.000000000000000E+20
146
0.0
 13
0.0
 23
0.0
 33
0.0
 16
1.0
 26
0.0
 36
0.0
 17
0.0
 27
1.0
 37
0.0
 76
     0
330
747A
  0
MLINESTYLE
  5
7480
102
{ACAD_REACTORS
330
7473
102
}
330
7473
100
AcDbMlineStyle
  2
STANDARD
 70
     0
  3

 62
     0
 51
90.0
 52
90.0
 71
     2
 49
0.5
 62
   256
  6
BYLAYER
 49
-0.5
 62
   256
  6
BYLAYER
  0
ACDBPLACEHOLDER
  5
13164
102
{ACAD_REACTORS
330
13163
102
}
330
13163
  0
XRECORD
  5
1675C
102
{ACAD_REACTORS
330
1675A
102
}
330
1675A
100
AcDbXrecord
280
     1
340
13166
  0
XRECORD
  5
1675B
102
{ACAD_REACTORS
330
1675A
102
}
330
1675A
100
AcDbXrecord
280
     1
340
13165
  0
DICTIONARYVAR
  5
16757
102
{ACAD_REACTORS
330
16756
102
}
330
16756
100
DictionaryVariables
280
     0
  1
1
  0
DICTIONARYVAR
  5
16758
102
{ACAD_REACTORS
330
16756
102
}
330
16756
100
DictionaryVariables
280
     0
  1

  0
DICTIONARY
  5
1675D
330
13169
100
AcDbDictionary
280
     1
281
     1
  3
ACAD_XREC_ROUNDTRIP
360
1675E
  0
DICTIONARY
  5
1675F
330
1316A
100
AcDbDictionary
280
     1
281
     1
  3
ACAD_XREC_ROUNDTRIP
360
16760
  0
XRECORD
  5
1675E
102
{ACAD_REACTORS
330
1675D
102
}
330
1675D
100
AcDbXrecord
280
     1
102
SHADEPLOT
 70
     0
102
SHADEPLOTRESLEVEL
 70
     2
102
SHADEPLOTCUSTOMDPI
 70
   300
  0
XRECORD
  5
16760
102
{ACAD_REACTORS
330
1675F
102
}
330
1675F
100
AcDbXrecord
280
     1
102
SHADEPLOT
 70
     0
102
SHADEPLOTRESLEVEL
 70
     2
102
SHADEPLOTCUSTOMDPI
 70
   300
  0
ENDSEC
  0
EOF
