  0
SECTION
  2
HEADER
  9
$ACADVER
  1
AC1015
  9
$ACADMAINTVER
 70
    20
  9
$DWGCODEPAGE
  3
ANSI_932
  9
$INSBASE
 10
0.0
 20
0.0
 30
0.0
  9
$EXTMIN
 10
139.9999999999995
 20
-0.0000000000000909
 30
0.0
  9
$EXTMAX
 10
16307.2
 20
11409.6
 30
0.0
  9
$LIMMIN
 10
0.0
 20
0.0
  9
$LIMMAX
 10
16800.0
 20
11880.0
  9
$ORTHOMODE
 70
     0
  9
$REGENMODE
 70
     1
  9
$FILLMODE
 70
     1
  9
$QTEXTMODE
 70
     0
  9
$MIRRTEXT
 70
     1
  9
$LTSCALE
 40
20.0
  9
$ATTMODE
 70
     1
  9
$TEXTSIZE
 40
4.0
  9
$TRACEWID
 40
1.0
  9
$TEXTSTYLE
  7
STYLE1
  9
$CLAYER
  8
細線
  9
$CELTYPE
  6
BYLAYER
  9
$CECOLOR
 62
   256
  9
$CELTSCALE
 40
50.0
  9
$DISPSILH
 70
     0
  9
$DIMSCALE
 40
40.0
  9
$DIMASZ
 40
2.5
  9
$DIMEXO
 40
0.5
  9
$DIMDLI
 40
7.0
  9
$DIMRND
 40
0.0
  9
$DIMDLE
 40
0.0
  9
$DIMEXE
 40
1.5
  9
$DIMTP
 40
0.0
  9
$DIMTM
 40
0.0
  9
$DIMTXT
 40
3.0
  9
$DIMCEN
 40
0.0
  9
$DIMTSZ
 40
0.0
  9
$DIMTOL
 70
     0
  9
$DIMLIM
 70
     0
  9
$DIMTIH
 70
     0
  9
$DIMTOH
 70
     0
  9
$DIMSE1
 70
     0
  9
$DIMSE2
 70
     0
  9
$DIMTAD
 70
     3
  9
$DIMZIN
 70
     8
  9
$DIMBLK
  1

  9
$DIMASO
 70
     1
  9
$DIMSHO
 70
     1
  9
$DIMPOST
  1

  9
$DIMAPOST
  1

  9
$DIMALT
 70
     0
  9
$DIMALTD
 70
     2
  9
$DIMALTF
 40
0.0394
  9
$DIMLFAC
 40
1.0
  9
$DIMTOFL
 70
     1
  9
$DIMTVP
 40
0.0
  9
$DIMTIX
 70
     1
  9
$DIMSOXD
 70
     0
  9
$DIMSAH
 70
     1
  9
$DIMBLK1
  1
DOTSMALL
  9
$DIMBLK2
  1
DOTSMALL
  9
$DIMSTYLE
  2
INABA_S40G
  9
$DIMCLRD
 70
     0
  9
$DIMCLRE
 70
     0
  9
$DIMCLRT
 70
     7
  9
$DIMTFAC
 40
1.0
  9
$DIMGAP
 40
1.0
  9
$DIMJUST
 70
     0
  9
$DIMSD1
 70
     0
  9
$DIMSD2
 70
     0
  9
$DIMTOLJ
 70
     1
  9
$DIMTZIN
 70
     0
  9
$DIMALTZ
 70
     0
  9
$DIMALTTZ
 70
     0
  9
$DIMUPT
 70
     0
  9
$DIMDEC
 70
     1
  9
$DIMTDEC
 70
     4
  9
$DIMALTU
 70
     2
  9
$DIMALTTD
 70
     2
  9
$DIMTXSTY
  7
STYLE1
  9
$DIMAUNIT
 70
     0
  9
$DIMADEC
 70
     0
  9
$DIMALTRND
 40
0.0
  9
$DIMAZIN
 70
     0
  9
$DIMDSEP
 70
    46
  9
$DIMATFIT
 70
     3
  9
$DIMFRAC
 70
     0
  9
$DIMLDRBLK
  1

  9
$DIMLUNIT
 70
     2
  9
$DIMLWD
 70
    -2
  9
$DIMLWE
 70
    -2
  9
$DIMTMOVE
 70
     0
  9
$LUNITS
 70
     2
  9
$LUPREC
 70
     1
  9
$SKETCHINC
 40
1.0
  9
$FILLETRAD
 40
3.0
  9
$AUNITS
 70
     0
  9
$AUPREC
 70
     0
  9
$MENU
  1
acad
  9
$ELEVATION
 40
0.0
  9
$PELEVATION
 40
0.0
  9
$THICKNESS
 40
0.0
  9
$LIMCHECK
 70
     0
  9
$CHAMFERA
 40
0.0
  9
$CHAMFERB
 40
0.0
  9
$CHAMFERC
 40
0.0
  9
$CHAMFERD
 40
0.0
  9
$SKPOLY
 70
     0
  9
$TDCREATE
 40
2451368.612993866
  9
$TDUCREATE
 40
2451368.237993866
  9
$TDUPDATE
 40
2455827.764766852
  9
$TDUUPDATE
 40
2455827.389766852
  9
$TDINDWG
 40
0.9740766551
  9
$TDUSRTIMER
 40
0.9740766551
  9
$USRTIMER
 70
     1
  9
$ANGBASE
 50
0.0
  9
$ANGDIR
 70
     0
  9
$PDMODE
 70
     3
  9
$PDSIZE
 40
2.0
  9
$PLINEWID
 40
0.0
  9
$SPLFRAME
 70
     0
  9
$SPLINETYPE
 70
     6
  9
$SPLINESEGS
 70
     8
  9
$HANDSEED
  5
273A0
  9
$SURFTAB1
 70
     6
  9
$SURFTAB2
 70
     6
  9
$SURFTYPE
 70
     6
  9
$SURFU
 70
     6
  9
$SURFV
 70
     6
  9
$UCSBASE
  2

  9
$UCSNAME
  2

  9
$UCSORG
 10
0.0
 20
0.0
 30
0.0
  9
$UCSXDIR
 10
1.0
 20
0.0
 30
0.0
  9
$UCSYDIR
 10
0.0
 20
1.0
 30
0.0
  9
$UCSORTHOREF
  2

  9
$UCSORTHOVIEW
 70
     0
  9
$UCSORGTOP
 10
0.0
 20
0.0
 30
0.0
  9
$UCSORGBOTTOM
 10
0.0
 20
0.0
 30
0.0
  9
$UCSORGLEFT
 10
0.0
 20
0.0
 30
0.0
  9
$UCSORGRIGHT
 10
0.0
 20
0.0
 30
0.0
  9
$UCSORGFRONT
 10
0.0
 20
0.0
 30
0.0
  9
$UCSORGBACK
 10
0.0
 20
0.0
 30
0.0
  9
$PUCSBASE
  2

  9
$PUCSNAME
  2

  9
$PUCSORG
 10
0.0
 20
0.0
 30
0.0
  9
$PUCSXDIR
 10
1.0
 20
0.0
 30
0.0
  9
$PUCSYDIR
 10
0.0
 20
1.0
 30
0.0
  9
$PUCSORTHOREF
  2

  9
$PUCSORTHOVIEW
 70
     0
  9
$PUCSORGTOP
 10
0.0
 20
0.0
 30
0.0
  9
$PUCSORGBOTTOM
 10
0.0
 20
0.0
 30
0.0
  9
$PUCSORGLEFT
 10
0.0
 20
0.0
 30
0.0
  9
$PUCSORGRIGHT
 10
0.0
 20
0.0
 30
0.0
  9
$PUCSORGFRONT
 10
0.0
 20
0.0
 30
0.0
  9
$PUCSORGBACK
 10
0.0
 20
0.0
 30
0.0
  9
$USERI1
 70
     0
  9
$USERI2
 70
     0
  9
$USERI3
 70
     0
  9
$USERI4
 70
     0
  9
$USERI5
 70
     0
  9
$USERR1
 40
0.0
  9
$USERR2
 40
0.0
  9
$USERR3
 40
0.0
  9
$USERR4
 40
0.0
  9
$USERR5
 40
0.0
  9
$WORLDVIEW
 70
     1
  9
$SHADEDGE
 70
     3
  9
$SHADEDIF
 70
    70
  9
$TILEMODE
 70
     1
  9
$MAXACTVP
 70
    16
  9
$PINSBASE
 10
0.0
 20
0.0
 30
0.0
  9
$PLIMCHECK
 70
     0
  9
$PEXTMIN
 10
1.000000000000000E+20
 20
1.000000000000000E+20
 30
1.000000000000000E+20
  9
$PEXTMAX
 10
-1.000000000000000E+20
 20
-1.000000000000000E+20
 30
-1.000000000000000E+20
  9
$PLIMMIN
 10
0.0
 20
0.0
  9
$PLIMMAX
 10
420.0
 20
297.0
  9
$UNITMODE
 70
     0
  9
$VISRETAIN
 70
     0
  9
$PLINEGEN
 70
     0
  9
$PSLTSCALE
 70
     0
  9
$TREEDEPTH
 70
  3020
  9
$CMLSTYLE
  2
STANDARD
  9
$CMLJUST
 70
     0
  9
$CMLSCALE
 40
1.0
  9
$PROXYGRAPHICS
 70
     1
  9
$MEASUREMENT
 70
     1
  9
$CELWEIGHT
370
    -1
  9
$ENDCAPS
280
     0
  9
$JOINSTYLE
280
     0
  9
$LWDISPLAY
290
     0
  9
$INSUNITS
 70
     0
  9
$HYPERLINKBASE
  1

  9
$STYLESHEET
  1
inaba.ctb
  9
$XEDIT
290
     1
  9
$CEPSNTYPE
380
     0
  9
$PSTYLEMODE
290
     1
  9
$FINGERPRINTGUID
  2
{5EAC461A-2277-4BF8-9AB0-99C43BB394F0}
  9
$VERSIONGUID
  2
{A7EEF099-956A-42D1-AA85-B786A9A42744}
  9
$EXTNAMES
290
     1
  9
$PSVPSCALE
 40
0.0
  9
$OLESTARTUP
290
     0
  0
ENDSEC
  0
SECTION
  2
CLASSES
  0
CLASS
  1
ACDBDICTIONARYWDFLT
  2
AcDbDictionaryWithDefault
  3
ObjectDBX Classes
 90
        0
280
     0
281
     0
  0
CLASS
  1
DICTIONARYVAR
  2
AcDbDictionaryVar
  3
ObjectDBX Classes
 90
        0
280
     0
281
     0
  0
CLASS
  1
ACDBPLACEHOLDER
  2
AcDbPlaceHolder
  3
ObjectDBX Classes
 90
        0
280
     0
281
     0
  0
CLASS
  1
LAYOUT
  2
AcDbLayout
  3
ObjectDBX Classes
 90
        0
280
     0
281
     0
  0
ENDSEC
  0
SECTION
  2
TABLES
  0
TABLE
  2
VPORT
  5
746D
330
0
100
AcDbSymbolTable
 70
     2
  0
VPORT
  5
27398
330
746D
100
AcDbSymbolTableRecord
100
AcDbViewportTableRecord
  2
*Active
 70
     0
 10
0.0
 20
0.0
 11
1.0
 21
1.0
 12
9779.741870590704
 22
5704.796475140369
 13
0.0
 23
0.0
 14
10.0
 24
10.0
 15
10.0
 25
10.0
 16
0.0
 26
0.0
 36
1.0
 17
0.0
 27
0.0
 37
0.0
 40
11494.73464854293
 41
1.79295154185022
 42
50.0
 43
0.0
 44
0.0
 50
0.0
 51
0.0
 71
     0
 72
     0
 73
     1
 74
     0
 75
     0
 76
     0
 77
     0
 78
     0
281
     0
 65
     1
110
0.0
120
0.0
130
0.0
111
1.0
121
0.0
131
0.0
112
0.0
122
1.0
132
0.0
 79
     0
146
0.0
  0
ENDTAB
  0
TABLE
  2
LTYPE
  5
746A
330
0
100
AcDbSymbolTable
 70
     3
  0
LTYPE
  5
7477
330
746A
100
AcDbSymbolTableRecord
100
AcDbLinetypeTableRecord
  2
BYBLOCK
 70
     0
  3

 72
    65
 73
     0
 40
0.0
  0
LTYPE
  5
7478
330
746A
100
AcDbSymbolTableRecord
100
AcDbLinetypeTableRecord
  2
BYLAYER
 70
     0
  3

 72
    65
 73
     0
 40
0.0
  0
LTYPE
  5
7479
330
746A
100
AcDbSymbolTableRecord
100
AcDbLinetypeTableRecord
  2
CONTINUOUS
 70
     0
  3
Solid line
 72
    65
 73
     0
 40
0.0
  0
LTYPE
  5
7816
330
746A
100
AcDbSymbolTableRecord
100
AcDbLinetypeTableRecord
  2
CENTER
 70
     0
  3
____ _ ____ _ ____ _ ____ _ ____ _ ____ _ ____ 
 72
    65
 73
     4
 40
2.0
 49
1.25
 74
     0
 49
-0.25
 74
     0
 49
0.25
 74
     0
 49
-0.25
 74
     0
  0
LTYPE
  5
781B
330
746A
100
AcDbSymbolTableRecord
100
AcDbLinetypeTableRecord
  2
PHANTOM
 70
     0
  3
______  __  __  ______  __  __  ______  __  __ 
 72
    65
 73
     6
 40
2.5
 49
1.25
 74
     0
 49
-0.25
 74
     0
 49
0.25
 74
     0
 49
-0.25
 74
     0
 49
0.25
 74
     0
 49
-0.25
 74
     0
  0
ENDTAB
  0
TABLE
  2
LAYER
  5
7467
102
{ACAD_XDICTIONARY
360
1758F
102
}
330
0
100
AcDbSymbolTable
 70
    10
  0
LAYER
  5
7474
330
7467
100
AcDbSymbolTableRecord
100
AcDbLayerTableRecord
  2
0
 70
     0
 62
     7
  6
CONTINUOUS
370
    -3
390
173D0
  0
LAYER
  5
DEB2
330
7467
100
AcDbSymbolTableRecord
100
AcDbLayerTableRecord
  2
センター
 70
     0
 62
     3
  6
CENTER
370
    -3
390
173D0
  0
LAYER
  5
DEB3
330
7467
100
AcDbSymbolTableRecord
100
AcDbLayerTableRecord
  2
寸法
 70
     0
 62
     4
  6
CONTINUOUS
370
    -3
390
173D0
  0
LAYER
  5
DEB4
330
7467
100
AcDbSymbolTableRecord
100
AcDbLayerTableRecord
  2
部品1
 70
     0
 62
     7
  6
CONTINUOUS
370
    -3
390
173D0
  0
LAYER
  5
DEB5
330
7467
100
AcDbSymbolTableRecord
100
AcDbLayerTableRecord
  2
補助
 70
     0
 62
    -1
  6
CONTINUOUS
370
    -3
390
173D0
  0
LAYER
  5
DEB6
330
7467
100
AcDbSymbolTableRecord
100
AcDbLayerTableRecord
  2
文字
 70
     0
 62
     7
  6
CONTINUOUS
370
    -3
390
173D0
  0
LAYER
  5
F255
330
7467
100
AcDbSymbolTableRecord
100
AcDbLayerTableRecord
  2
DEFPOINTS
 70
     0
 62
     7
  6
CONTINUOUS
290
     0
370
    -3
390
173D0
  0
LAYER
  5
10B54
330
7467
100
AcDbSymbolTableRecord
100
AcDbLayerTableRecord
  2
仕様書枠
 70
     0
 62
   230
  6
CONTINUOUS
370
    -3
390
173D0
  0
LAYER
  5
1173F
330
7467
100
AcDbSymbolTableRecord
100
AcDbLayerTableRecord
  2
細線
 70
     0
 62
     5
  6
CONTINUOUS
370
    -3
390
173D0
  0
LAYER
  5
12CC4
330
7467
100
AcDbSymbolTableRecord
100
AcDbLayerTableRecord
  2
想像線
 70
     0
 62
     6
  6
PHANTOM
370
    -3
390
173D0
  0
ENDTAB
  0
TABLE
  2
STYLE
  5
7468
330
0
100
AcDbSymbolTable
 70
     4
  0
STYLE
  5
7475
330
7468
100
AcDbSymbolTableRecord
100
AcDbTextStyleTableRecord
  2
STANDARD
 70
     0
 40
0.0
 41
1.0
 50
0.0
 71
     0
 42
4.0
  3
txt
  4
C:\AutoCAD LT\bigfont.shx
  0
STYLE
  5
763C
330
7468
100
AcDbSymbolTableRecord
100
AcDbTextStyleTableRecord
  2
MSMINCHO
 70
     0
 40
0.0
 41
1.0
 50
0.0
 71
     0
 42
1.199999999999999
  3
C:\AutoCAD LT\msminch2.TTF
  4

  0
STYLE
  5
F706
330
7468
100
AcDbSymbolTableRecord
100
AcDbTextStyleTableRecord
  2
STYLE1
 70
     0
 40
0.0
 41
1.0
 50
0.0
 71
     0
 42
4.0
  3
isocp.shx
  4
bigfont.shx
  0
STYLE
  5
103BF
330
7468
100
AcDbSymbolTableRecord
100
AcDbTextStyleTableRecord
  2
STYLE2
 70
     0
 40
0.0
 41
1.0
 50
0.0
 71
     0
 42
100.0
  3
MS PGothic.ttf
  4

1001
ACAD
1000
MS PGothic
1071
    32818
  0
ENDTAB
  0
TABLE
  2
VIEW
  5
746B
330
0
100
AcDbSymbolTable
 70
     0
  0
ENDTAB
  0
TABLE
  2
UCS
  5
746C
330
0
100
AcDbSymbolTable
 70
     0
  0
ENDTAB
  0
TABLE
  2
APPID
  5
746E
330
0
100
AcDbSymbolTable
 70
     6
  0
APPID
  5
7476
330
746E
100
AcDbSymbolTableRecord
100
AcDbRegAppTableRecord
  2
ACAD
 70
     0
  0
APPID
  5
DEA9
330
746E
100
AcDbSymbolTableRecord
100
AcDbRegAppTableRecord
  2
CONTENTBLOCKICON
 70
     0
  0
APPID
  5
DEAA
330
746E
100
AcDbSymbolTableRecord
100
AcDbRegAppTableRecord
  2
CONTENTBLOCKDESCRIPTION
 70
     0
  0
APPID
  5
E71D
330
746E
100
AcDbSymbolTableRecord
100
AcDbRegAppTableRecord
  2
CONTENTTABDATA
 70
     0
  0
APPID
  5
E71E
330
746E
100
AcDbSymbolTableRecord
100
AcDbRegAppTableRecord
  2
CONTENTCURRENTTAB
 70
     0
  0
APPID
  5
F3BA
330
746E
100
AcDbSymbolTableRecord
100
AcDbRegAppTableRecord
  2
DRAWINGVARIABLESXDATA
 70
     0
  0
ENDTAB
  0
TABLE
  2
DIMSTYLE
  5
746F
330
0
100
AcDbSymbolTable
 70
     1
100
AcDbDimStyleTable
 71
     1
340
F71F
  0
DIMSTYLE
105
F71F
102
{ACAD_REACTORS
330
27177
330
27170
330
2716E
330
2716C
330
2716B
330
27166
330
27163
330
27162
330
27160
330
2715E
330
2715D
330
2715C
330
2715A
330
27151
330
2714B
330
2713F
330
27139
330
27107
330
270F2
330
27044
330
2541B
330
25416
330
25414
330
25412
330
25411
330
2540F
330
2540E
330
2540D
330
2540C
330
2540A
330
25408
330
25405
330
25404
330
25403
330
253FF
330
253FB
330
253F8
330
253F0
330
253E6
330
253E5
330
253E4
330
253E3
330
253E2
330
253E1
330
253D9
330
253CD
330
253CB
330
253C2
330
253C1
330
253C0
330
253BC
330
253BA
330
25396
330
25395
330
25394
102
}
330
746F
100
AcDbSymbolTableRecord
100
AcDbDimStyleTableRecord
  2
INABA_S40G
 70
     0
 40
40.0
 41
2.5
 42
0.5
 43
7.0
 44
1.5
 73
     0
 74
     0
 77
     3
 78
     8
140
3.0
141
0.0
143
0.0394
147
1.0
172
     1
173
     1
174
     1
178
     7
271
     1
340
F706
341
F770
343
F770
344
F770
  0
ENDTAB
  0
TABLE
  2
BLOCK_RECORD
  5
7466
330
0
100
AcDbSymbolTable
 70
    38
  0
BLOCK_RECORD
  5
747D
330
7466
100
AcDbSymbolTableRecord
100
AcDbBlockTableRecord
  2
*MODEL_SPACE
340
173D5
  0
BLOCK_RECORD
  5
747A
330
7466
100
AcDbSymbolTableRecord
100
AcDbBlockTableRecord
  2
*PAPER_SPACE
340
173D6
  0
BLOCK_RECORD
  5
F770
330
7466
100
AcDbSymbolTableRecord
100
AcDbBlockTableRecord
  2
_DOTSMALL
340
0
102
{BLKREFS
331
27209
331
2720A
331
27214
331
27215
331
2721D
331
2721E
331
27226
331
27227
331
2722F
331
27230
331
27238
331
27239
331
27243
331
27244
331
2724E
331
2724F
331
27259
331
2725A
331
27264
331
27265
331
2726F
331
27270
331
27279
331
2727A
331
27283
331
27284
331
2728C
331
2728D
331
27295
331
27296
331
2729E
331
2729F
331
272A7
331
272A8
331
272B0
331
272B1
331
272BA
331
272BB
331
272C3
331
272C4
331
272CC
331
272CD
331
272D5
331
272D6
331
272DF
331
272E0
331
272E9
331
272EA
331
272F3
331
272F4
331
272FD
331
272FE
331
27306
331
27307
331
2730F
331
27310
331
27318
331
27319
331
27322
331
27323
331
2732B
331
2732C
331
27334
331
27335
331
2733E
331
2733F
331
27348
331
27349
331
27352
331
27353
331
2735D
331
2735E
331
27366
331
27367
102
}
  0
BLOCK_RECORD
  5
2541C
330
7466
100
AcDbSymbolTableRecord
100
AcDbBlockTableRecord
  2
*D1
340
0
  0
BLOCK_RECORD
  5
25428
330
7466
100
AcDbSymbolTableRecord
100
AcDbBlockTableRecord
  2
*D2
340
0
  0
BLOCK_RECORD
  5
25436
330
7466
100
AcDbSymbolTableRecord
100
AcDbBlockTableRecord
  2
*D3
340
0
  0
BLOCK_RECORD
  5
25443
330
7466
100
AcDbSymbolTableRecord
100
AcDbBlockTableRecord
  2
*D4
340
0
  0
BLOCK_RECORD
  5
25450
330
7466
100
AcDbSymbolTableRecord
100
AcDbBlockTableRecord
  2
*D5
340
0
  0
BLOCK_RECORD
  5
2545D
330
7466
100
AcDbSymbolTableRecord
100
AcDbBlockTableRecord
  2
*D6
340
0
  0
BLOCK_RECORD
  5
25469
330
7466
100
AcDbSymbolTableRecord
100
AcDbBlockTableRecord
  2
*D7
340
0
  0
BLOCK_RECORD
  5
25475
330
7466
100
AcDbSymbolTableRecord
100
AcDbBlockTableRecord
  2
*D8
340
0
  0
BLOCK_RECORD
  5
25482
330
7466
100
AcDbSymbolTableRecord
100
AcDbBlockTableRecord
  2
*D9
340
0
  0
BLOCK_RECORD
  5
2548E
330
7466
100
AcDbSymbolTableRecord
100
AcDbBlockTableRecord
  2
*D10
340
0
  0
BLOCK_RECORD
  5
2549A
330
7466
100
AcDbSymbolTableRecord
100
AcDbBlockTableRecord
  2
*D11
340
0
  0
BLOCK_RECORD
  5
254A6
330
7466
100
AcDbSymbolTableRecord
100
AcDbBlockTableRecord
  2
*D12
340
0
  0
BLOCK_RECORD
  5
254B3
330
7466
100
AcDbSymbolTableRecord
100
AcDbBlockTableRecord
  2
*D13
340
0
  0
BLOCK_RECORD
  5
254C0
330
7466
100
AcDbSymbolTableRecord
100
AcDbBlockTableRecord
  2
*D14
340
0
  0
BLOCK_RECORD
  5
254CD
330
7466
100
AcDbSymbolTableRecord
100
AcDbBlockTableRecord
  2
*D15
340
0
  0
BLOCK_RECORD
  5
254DA
330
7466
100
AcDbSymbolTableRecord
100
AcDbBlockTableRecord
  2
*D16
340
0
  0
BLOCK_RECORD
  5
254E6
330
7466
100
AcDbSymbolTableRecord
100
AcDbBlockTableRecord
  2
*D17
340
0
  0
BLOCK_RECORD
  5
254F2
330
7466
100
AcDbSymbolTableRecord
100
AcDbBlockTableRecord
  2
*D18
340
0
  0
BLOCK_RECORD
  5
254FE
330
7466
100
AcDbSymbolTableRecord
100
AcDbBlockTableRecord
  2
*D19
340
0
  0
BLOCK_RECORD
  5
2550B
330
7466
100
AcDbSymbolTableRecord
100
AcDbBlockTableRecord
  2
*D20
340
0
  0
BLOCK_RECORD
  5
25517
330
7466
100
AcDbSymbolTableRecord
100
AcDbBlockTableRecord
  2
*D21
340
0
  0
BLOCK_RECORD
  5
25523
330
7466
100
AcDbSymbolTableRecord
100
AcDbBlockTableRecord
  2
*D22
340
0
  0
BLOCK_RECORD
  5
2552F
330
7466
100
AcDbSymbolTableRecord
100
AcDbBlockTableRecord
  2
*D23
340
0
  0
BLOCK_RECORD
  5
2553B
330
7466
100
AcDbSymbolTableRecord
100
AcDbBlockTableRecord
  2
*D24
340
0
  0
BLOCK_RECORD
  5
25547
330
7466
100
AcDbSymbolTableRecord
100
AcDbBlockTableRecord
  2
*D25
340
0
  0
BLOCK_RECORD
  5
25554
330
7466
100
AcDbSymbolTableRecord
100
AcDbBlockTableRecord
  2
*D26
340
0
  0
BLOCK_RECORD
  5
25561
330
7466
100
AcDbSymbolTableRecord
100
AcDbBlockTableRecord
  2
*D27
340
0
  0
BLOCK_RECORD
  5
2556F
330
7466
100
AcDbSymbolTableRecord
100
AcDbBlockTableRecord
  2
*D28
340
0
  0
BLOCK_RECORD
  5
2557D
330
7466
100
AcDbSymbolTableRecord
100
AcDbBlockTableRecord
  2
*D29
340
0
  0
BLOCK_RECORD
  5
2558B
330
7466
100
AcDbSymbolTableRecord
100
AcDbBlockTableRecord
  2
*D30
340
0
  0
BLOCK_RECORD
  5
25599
330
7466
100
AcDbSymbolTableRecord
100
AcDbBlockTableRecord
  2
*D31
340
0
  0
BLOCK_RECORD
  5
2717C
330
7466
100
AcDbSymbolTableRecord
100
AcDbBlockTableRecord
  2
*D32
340
0
  0
BLOCK_RECORD
  5
27188
330
7466
100
AcDbSymbolTableRecord
100
AcDbBlockTableRecord
  2
*D33
340
0
  0
BLOCK_RECORD
  5
27194
330
7466
100
AcDbSymbolTableRecord
100
AcDbBlockTableRecord
  2
*D34
340
0
  0
BLOCK_RECORD
  5
271A0
330
7466
100
AcDbSymbolTableRecord
100
AcDbBlockTableRecord
  2
*D35
340
0
  0
BLOCK_RECORD
  5
271AC
330
7466
100
AcDbSymbolTableRecord
100
AcDbBlockTableRecord
  2
*D36
340
0
  0
BLOCK_RECORD
  5
271BA
330
7466
100
AcDbSymbolTableRecord
100
AcDbBlockTableRecord
  2
*D37
340
0
  0
ENDTAB
  0
ENDSEC
  0
SECTION
  2
BLOCKS
  0
BLOCK
  5
7489
330
747D
100
AcDbEntity
  8
0
100
AcDbBlockBegin
  2
*MODEL_SPACE
 70
     0
 10
0.0
 20
0.0
 30
0.0
  3
*MODEL_SPACE
  1

  0
ENDBLK
  5
748A
330
747D
100
AcDbEntity
  8
0
100
AcDbBlockEnd
  0
BLOCK
  5
7487
330
747A
100
AcDbEntity
 67
     1
  8
0
100
AcDbBlockBegin
  2
*PAPER_SPACE
 70
     0
 10
0.0
 20
0.0
 30
0.0
  3
*PAPER_SPACE
  1

  0
ENDBLK
  5
7488
330
747A
100
AcDbEntity
 67
     1
  8
0
100
AcDbBlockEnd
  0
BLOCK
  5
F771
330
F770
100
AcDbEntity
  8
0
 48
50.0
100
AcDbBlockBegin
  2
_DOTSMALL
 70
     0
 10
0.0
 20
0.0
 30
0.0
  3
_DOTSMALL
  1

  0
LWPOLYLINE
  5
F772
330
F770
100
AcDbEntity
  8
0
  6
ByBlock
 62
     0
 48
50.0
100
AcDbPolyline
 90
        2
 70
     1
 43
0.5
 10
-0.0625
 20
0.0
 42
1.0
 10
0.0625
 20
0.0
 42
1.0
  0
ENDBLK
  5
F776
330
F770
100
AcDbEntity
  8
0
 48
50.0
100
AcDbBlockEnd
  0
BLOCK
  5
25426
330
2541C
100
AcDbEntity
  8
0
 48
50.0
100
AcDbBlockBegin
  2
*D1
 70
     1
 10
0.0
 20
0.0
 30
0.0
  3
*D1
  1

  0
LINE
  5
27363
330
2541C
100
AcDbEntity
  8
寸法
 62
     0
 48
50.0
370
    -2
100
AcDbLine
 10
8196.600000000001
 20
5772.807155537341
 30
0.0
 11
8196.600000000001
 21
5128.821425718583
 31
0.0
  0
LINE
  5
27364
330
2541C
100
AcDbEntity
  8
寸法
 62
     0
 48
50.0
370
    -2
100
AcDbLine
 10
6428.6
 20
5772.807155537326
 30
0.0
 11
6428.6
 21
5128.821425718583
 31
0.0
  0
LINE
  5
27365
330
2541C
100
AcDbEntity
  8
寸法
 62
     0
 48
50.0
370
    -2
100
AcDbLine
 10
8196.600000000001
 20
5188.821425718582
 30
0.0
 11
6428.6
 21
5188.821425718582
 31
0.0
  0
INSERT
  5
27366
330
2541C
100
AcDbEntity
  8
寸法
 62
     0
 48
50.0
370
    -2
100
AcDbBlockReference
  2
_DOTSMALL
 10
8196.600000000001
 20
5188.821425718582
 30
0.0
 41
100.0
 42
100.0
 43
100.0
  0
INSERT
  5
27367
330
2541C
100
AcDbEntity
  8
寸法
 62
     0
 48
50.0
370
    -2
100
AcDbBlockReference
  2
_DOTSMALL
 10
6428.6
 20
5188.821425718582
 30
0.0
 41
100.0
 42
100.0
 43
100.0
 50
180.0
  0
MTEXT
  5
27368
330
2541C
100
AcDbEntity
  8
寸法
 62
     7
 48
50.0
100
AcDbMText
 10
7312.6
 20
5288.821425718583
 30
0.0
 40
120.0
 41
0.0
 71
     5
 72
     1
  1
\A1;扉の幅 1768
  7
STYLE1
 73
     1
 44
1.0
1001
ACAD
1000
MTEXTBEGIN
1070
    73
1070
     1
1070
    44
1040
1.0
1070
    74
1070
     0
1000
MTEXTEND
  0
POINT
  5
27369
330
2541C
100
AcDbEntity
  8
DEFPOINTS
 62
     0
 48
50.0
100
AcDbPoint
 10
8196.600000000001
 20
5792.807155537341
 30
0.0
  0
POINT
  5
2736A
330
2541C
100
AcDbEntity
  8
DEFPOINTS
 62
     0
 48
50.0
100
AcDbPoint
 10
6428.6
 20
5792.807155537326
 30
0.0
  0
POINT
  5
2736B
330
2541C
100
AcDbEntity
  8
DEFPOINTS
 62
     0
 48
50.0
100
AcDbPoint
 10
6428.6
 20
5188.821425718582
 30
0.0
  0
ENDBLK
  5
25427
330
2541C
100
AcDbEntity
  8
0
 48
50.0
100
AcDbBlockEnd
  0
BLOCK
  5
25434
330
25428
100
AcDbEntity
  8
0
 48
50.0
100
AcDbBlockBegin
  2
*D2
 70
     1
 10
0.0
 20
0.0
 30
0.0
  3
*D2
  1

  0
LINE
  5
27358
330
25428
100
AcDbEntity
  8
寸法
 62
     0
 48
50.0
370
    -2
100
AcDbLine
 10
6408.599999999999
 20
5792.80715553736
 30
0.0
 11
6132.312481891147
 21
5792.807155537362
 31
0.0
  0
LINE
  5
27359
330
25428
100
AcDbEntity
  8
寸法
 62
     0
 48
50.0
370
    -2
100
AcDbLine
 10
6408.600000000008
 20
5867.807155537362
 30
0.0
 11
6132.312481891147
 21
5867.807155537363
 31
0.0
  0
LINE
  5
2735A
330
25428
100
AcDbEntity
  8
寸法
 62
     0
 48
50.0
370
    -2
100
AcDbLine
 10
6192.312481891146
 20
5867.807155537362
 30
0.0
 11
6192.312481891146
 21
5967.807155537362
 31
0.0
  0
LINE
  5
2735B
330
25428
100
AcDbEntity
  8
寸法
 62
     0
 48
50.0
370
    -2
100
AcDbLine
 10
6192.312481891146
 20
5792.80715553736
 30
0.0
 11
6192.312481891146
 21
4925.83659278888
 31
0.0
  0
LINE
  5
2735C
330
25428
100
AcDbEntity
  8
寸法
 62
     0
 48
50.0
370
    -2
100
AcDbLine
 10
6192.312481891146
 20
5867.807155537362
 30
0.0
 11
6192.312481891146
 21
5792.80715553736
 31
0.0
  0
INSERT
  5
2735D
330
25428
100
AcDbEntity
  8
寸法
 62
     0
 48
50.0
370
    -2
100
AcDbBlockReference
  2
_DOTSMALL
 10
6192.312481891146
 20
5867.807155537362
 30
0.0
 41
100.0
 42
100.0
 43
100.0
 50
270.0
  0
INSERT
  5
2735E
330
25428
100
AcDbEntity
  8
寸法
 62
     0
 48
50.0
370
    -2
100
AcDbBlockReference
  2
_DOTSMALL
 10
6192.312481891146
 20
5792.80715553736
 30
0.0
 41
100.0
 42
100.0
 43
100.0
 50
90.0
  0
MTEXT
  5
2735F
330
25428
100
AcDbEntity
  8
寸法
 62
     7
 48
50.0
100
AcDbMText
 10
6092.312481891145
 20
5259.321874163121
 30
0.0
 40
120.0
 41
0.0
 71
     5
 72
     1
  1
\A1;扉の出75
  7
STYLE1
 11
0.0000000000000001
 21
1.0
 31
0.0
 73
     1
 44
1.0
1001
ACAD
1000
MTEXTBEGIN
1070
    73
1070
     1
1070
    44
1040
1.0
1070
    74
1070
     0
1000
MTEXTEND
  0
POINT
  5
27360
330
25428
100
AcDbEntity
  8
DEFPOINTS
 62
     0
 48
50.0
100
AcDbPoint
 10
6428.6
 20
5792.80715553736
 30
0.0
  0
POINT
  5
27361
330
25428
100
AcDbEntity
  8
DEFPOINTS
 62
     0
 48
50.0
100
AcDbPoint
 10
6428.600000000007
 20
5867.807155537362
 30
0.0
  0
POINT
  5
27362
330
25428
100
AcDbEntity
  8
DEFPOINTS
 62
     0
 48
50.0
100
AcDbPoint
 10
6192.312481891146
 20
5867.807155537362
 30
0.0
  0
ENDBLK
  5
25435
330
25428
100
AcDbEntity
  8
0
 48
50.0
100
AcDbBlockEnd
  0
BLOCK
  5
25441
330
25436
100
AcDbEntity
  8
0
 48
50.0
100
AcDbBlockBegin
  2
*D3
 70
     1
 10
0.0
 20
0.0
 30
0.0
  3
*D3
  1

  0
LINE
  5
2734E
330
25436
100
AcDbEntity
  8
寸法
 62
     0
 48
50.0
370
    -2
100
AcDbLine
 10
6678.6
 20
5987.807155537325
 30
0.0
 11
6921.316884067376
 21
5987.807155537325
 31
0.0
  0
LINE
  5
2734F
330
25436
100
AcDbEntity
  8
寸法
 62
     0
 48
50.0
370
    -2
100
AcDbLine
 10
6678.600000000002
 20
5792.807155537311
 30
0.0
 11
6921.316884067376
 21
5792.807155537311
 31
0.0
  0
LINE
  5
27350
330
25436
100
AcDbEntity
  8
寸法
 62
     0
 48
50.0
370
    -2
100
AcDbLine
 10
6861.316884067377
 20
5987.807155537325
 30
0.0
 11
6861.316884067377
 21
5792.807155537311
 31
0.0
  0
LINE
  5
27351
330
25436
100
AcDbEntity
  8
寸法
 62
     0
 48
50.0
370
    -2
100
AcDbLine
 10
6861.316884067377
 20
5792.807155537311
 30
0.0
 11
6861.316884067377
 21
5415.417273129521
 31
0.0
  0
INSERT
  5
27352
330
25436
100
AcDbEntity
  8
寸法
 62
     0
 48
50.0
370
    -2
100
AcDbBlockReference
  2
_DOTSMALL
 10
6861.316884067377
 20
5987.807155537325
 30
0.0
 41
100.0
 42
100.0
 43
100.0
 50
90.0
  0
INSERT
  5
27353
330
25436
100
AcDbEntity
  8
寸法
 62
     0
 48
50.0
370
    -2
100
AcDbBlockReference
  2
_DOTSMALL
 10
6861.316884067377
 20
5792.807155537311
 30
0.0
 41
100.0
 42
100.0
 43
100.0
 50
270.0
  0
MTEXT
  5
27354
330
25436
100
AcDbEntity
  8
寸法
 62
     7
 48
50.0
100
AcDbMText
 10
6761.316884067375
 20
5554.112214333418
 30
0.0
 40
120.0
 41
0.0
 71
     5
 72
     1
  1
\A1;195
  7
STYLE1
 11
0.0000000000000001
 21
1.0
 31
0.0
 73
     1
 44
1.0
1001
ACAD
1000
MTEXTBEGIN
1070
    73
1070
     1
1070
    44
1040
1.0
1070
    74
1070
     0
1000
MTEXTEND
  0
POINT
  5
27355
330
25436
100
AcDbEntity
  8
DEFPOINTS
 62
     0
 48
50.0
100
AcDbPoint
 10
6658.599999999999
 20
5987.807155537325
 30
0.0
  0
POINT
  5
27356
330
25436
100
AcDbEntity
  8
DEFPOINTS
 62
     0
 48
50.0
100
AcDbPoint
 10
6658.600000000003
 20
5792.807155537311
 30
0.0
  0
POINT
  5
27357
330
25436
100
AcDbEntity
  8
DEFPOINTS
 62
     0
 48
50.0
100
AcDbPoint
 10
6861.316884067377
 20
5792.807155537311
 30
0.0
  0
ENDBLK
  5
25442
330
25436
100
AcDbEntity
  8
0
 48
50.0
100
AcDbBlockEnd
  0
BLOCK
  5
2544E
330
25443
100
AcDbEntity
  8
0
 48
50.0
100
AcDbBlockBegin
  2
*D4
 70
     1
 10
0.0
 20
0.0
 30
0.0
  3
*D4
  1

  0
LINE
  5
27344
330
25443
100
AcDbEntity
  8
寸法
 62
     0
 48
50.0
370
    -2
100
AcDbLine
 10
10018.6
 20
8257.807155537321
 30
0.0
 11
10018.6
 21
7936.781364598662
 31
0.0
  0
LINE
  5
27345
330
25443
100
AcDbEntity
  8
寸法
 62
     0
 48
50.0
370
    -2
100
AcDbLine
 10
9898.600000000019
 20
8257.807155537321
 30
0.0
 11
9898.600000000019
 21
7936.781364598662
 31
0.0
  0
LINE
  5
27346
330
25443
100
AcDbEntity
  8
寸法
 62
     0
 48
50.0
370
    -2
100
AcDbLine
 10
9898.600000000019
 20
7996.78136459866
 30
0.0
 11
10018.6
 21
7996.78136459866
 31
0.0
  0
LINE
  5
27347
330
25443
100
AcDbEntity
  8
寸法
 62
     0
 48
50.0
370
    -2
100
AcDbLine
 10
10018.6
 20
7996.78136459866
 30
0.0
 11
10424.7062992126
 21
7996.78136459866
 31
0.0
  0
INSERT
  5
27348
330
25443
100
AcDbEntity
  8
寸法
 62
     0
 48
50.0
370
    -2
100
AcDbBlockReference
  2
_DOTSMALL
 10
9898.600000000019
 20
7996.78136459866
 30
0.0
 41
100.0
 42
100.0
 43
100.0
 50
180.0
  0
INSERT
  5
27349
330
25443
100
AcDbEntity
  8
寸法
 62
     0
 48
50.0
370
    -2
100
AcDbBlockReference
  2
_DOTSMALL
 10
10018.6
 20
7996.78136459866
 30
0.0
 41
100.0
 42
100.0
 43
100.0
  0
MTEXT
  5
2734A
330
25443
100
AcDbEntity
  8
寸法
 62
     7
 48
50.0
100
AcDbMText
 10
10288.65905511811
 20
8096.793175622282
 30
0.0
 40
120.0
 41
0.0
 71
     5
 72
     1
  1
\A1;120
  7
STYLE1
 73
     1
 44
1.0
1001
ACAD
1000
MTEXTBEGIN
1070
    73
1070
     1
1070
    44
1040
1.0
1070
    74
1070
     0
1000
MTEXTEND
  0
POINT
  5
2734B
330
25443
100
AcDbEntity
  8
DEFPOINTS
 62
     0
 48
50.0
100
AcDbPoint
 10
10018.6
 20
8277.807155537322
 30
0.0
  0
POINT
  5
2734C
330
25443
100
AcDbEntity
  8
DEFPOINTS
 62
     0
 48
50.0
100
AcDbPoint
 10
9898.600000000019
 20
8277.807155537322
 30
0.0
  0
POINT
  5
2734D
330
25443
100
AcDbEntity
  8
DEFPOINTS
 62
     0
 48
50.0
100
AcDbPoint
 10
9898.600000000019
 20
7996.78136459866
 30
0.0
  0
ENDBLK
  5
2544F
330
25443
100
AcDbEntity
  8
0
 48
50.0
100
AcDbBlockEnd
  0
BLOCK
  5
2545B
330
25450
100
AcDbEntity
  8
0
 48
50.0
100
AcDbBlockBegin
  2
*D5
 70
     1
 10
0.0
 20
0.0
 30
0.0
  3
*D5
  1

  0
LINE
  5
2733A
330
25450
100
AcDbEntity
  8
寸法
 62
     0
 48
50.0
370
    -2
100
AcDbLine
 10
10018.6
 20
8527.807155537322
 30
0.0
 11
10018.6
 21
9313.566782079403
 31
0.0
  0
LINE
  5
2733B
330
25450
100
AcDbEntity
  8
寸法
 62
     0
 48
50.0
370
    -2
100
AcDbLine
 10
9895.600000000001
 20
8454.807155537322
 30
0.0
 11
9895.600000000001
 21
9313.566782079403
 31
0.0
  0
LINE
  5
2733C
330
25450
100
AcDbEntity
  8
寸法
 62
     0
 48
50.0
370
    -2
100
AcDbLine
 10
9895.600000000001
 20
9253.566782079404
 30
0.0
 11
10018.6
 21
9253.566782079404
 31
0.0
  0
LINE
  5
2733D
330
25450
100
AcDbEntity
  8
寸法
 62
     0
 48
50.0
370
    -2
100
AcDbLine
 10
10018.6
 20
9253.566782079404
 30
0.0
 11
10430.19188309204
 21
9253.566782079404
 31
0.0
  0
INSERT
  5
2733E
330
25450
100
AcDbEntity
  8
寸法
 62
     0
 48
50.0
370
    -2
100
AcDbBlockReference
  2
_DOTSMALL
 10
9895.600000000001
 20
9253.566782079404
 30
0.0
 41
100.0
 42
100.0
 43
100.0
 50
180.0
  0
INSERT
  5
2733F
330
25450
100
AcDbEntity
  8
寸法
 62
     0
 48
50.0
370
    -2
100
AcDbBlockReference
  2
_DOTSMALL
 10
10018.6
 20
9253.566782079404
 30
0.0
 41
100.0
 42
100.0
 43
100.0
  0
MTEXT
  5
27340
330
25450
100
AcDbEntity
  8
寸法
 62
     7
 48
50.0
100
AcDbMText
 10
10291.7066017178
 20
9353.578593103026
 30
0.0
 40
120.0
 41
0.0
 71
     5
 72
     1
  1
\A1;123
  7
STYLE1
 73
     1
 44
1.0
1001
ACAD
1000
MTEXTBEGIN
1070
    73
1070
     1
1070
    44
1040
1.0
1070
    74
1070
     0
1000
MTEXTEND
  0
POINT
  5
27341
330
25450
100
AcDbEntity
  8
DEFPOINTS
 62
     0
 48
50.0
100
AcDbPoint
 10
10018.6
 20
8507.807155537321
 30
0.0
  0
POINT
  5
27342
330
25450
100
AcDbEntity
  8
DEFPOINTS
 62
     0
 48
50.0
100
AcDbPoint
 10
9895.600000000001
 20
8434.80715553732
 30
0.0
  0
POINT
  5
27343
330
25450
100
AcDbEntity
  8
DEFPOINTS
 62
     0
 48
50.0
100
AcDbPoint
 10
9895.600000000001
 20
9253.566782079404
 30
0.0
  0
ENDBLK
  5
2545C
330
25450
100
AcDbEntity
  8
0
 48
50.0
100
AcDbBlockEnd
  0
BLOCK
  5
25467
330
2545D
100
AcDbEntity
  8
0
 48
50.0
100
AcDbBlockBegin
  2
*D6
 70
     1
 10
0.0
 20
0.0
 30
0.0
  3
*D6
  1

  0
LINE
  5
27331
330
2545D
100
AcDbEntity
  8
寸法
 62
     0
 48
50.0
370
    -2
100
AcDbLine
 10
8998.600000000001
 20
7632.807155537323
 30
0.0
 11
8845.618275173503
 21
7632.807155537323
 31
0.0
  0
LINE
  5
27332
330
2545D
100
AcDbEntity
  8
寸法
 62
     0
 48
50.0
370
    -2
100
AcDbLine
 10
8444.157431058355
 20
8507.807155537323
 30
0.0
 11
8965.618275173502
 21
8507.807155537323
 31
0.0
  0
LINE
  5
27333
330
2545D
100
AcDbEntity
  8
寸法
 62
     0
 48
50.0
370
    -2
100
AcDbLine
 10
8905.618275173504
 20
7632.807155537323
 30
0.0
 11
8905.618275173504
 21
8507.807155537323
 31
0.0
  0
INSERT
  5
27334
330
2545D
100
AcDbEntity
  8
寸法
 62
     0
 48
50.0
370
    -2
100
AcDbBlockReference
  2
_DOTSMALL
 10
8905.618275173504
 20
7632.807155537323
 30
0.0
 41
100.0
 42
100.0
 43
100.0
 50
270.0
  0
INSERT
  5
27335
330
2545D
100
AcDbEntity
  8
寸法
 62
     0
 48
50.0
370
    -2
100
AcDbBlockReference
  2
_DOTSMALL
 10
8905.618275173504
 20
8507.807155537323
 30
0.0
 41
100.0
 42
100.0
 43
100.0
 50
90.0
  0
MTEXT
  5
27336
330
2545D
100
AcDbEntity
  8
寸法
 62
     7
 48
50.0
100
AcDbMText
 10
8805.618275173502
 20
8070.307155537324
 30
0.0
 40
120.0
 41
0.0
 71
     5
 72
     1
  1
\A1;875
  7
STYLE1
 11
0.0000000000000001
 21
1.0
 31
0.0
 73
     1
 44
1.0
1001
ACAD
1000
MTEXTBEGIN
1070
    73
1070
     1
1070
    44
1040
1.0
1070
    74
1070
     0
1000
MTEXTEND
  0
POINT
  5
27337
330
2545D
100
AcDbEntity
  8
DEFPOINTS
 62
     0
 48
50.0
100
AcDbPoint
 10
9018.600000000001
 20
7632.807155537323
 30
0.0
  0
POINT
  5
27338
330
2545D
100
AcDbEntity
  8
DEFPOINTS
 62
     0
 48
50.0
100
AcDbPoint
 10
8424.157431058354
 20
8507.807155537323
 30
0.0
  0
POINT
  5
27339
330
2545D
100
AcDbEntity
  8
DEFPOINTS
 62
     0
 48
50.0
100
AcDbPoint
 10
8905.618275173504
 20
8507.807155537323
 30
0.0
  0
ENDBLK
  5
25468
330
2545D
100
AcDbEntity
  8
0
 48
50.0
100
AcDbBlockEnd
  0
BLOCK
  5
25473
330
25469
100
AcDbEntity
  8
0
 48
50.0
100
AcDbBlockBegin
  2
*D7
 70
     1
 10
0.0
 20
0.0
 30
0.0
  3
*D7
  1

  0
LINE
  5
27328
330
25469
100
AcDbEntity
  8
寸法
 62
     0
 48
50.0
370
    -2
100
AcDbLine
 10
10018.6
 20
8527.807155537322
 30
0.0
 11
10018.6
 21
9094.716921185648
 31
0.0
  0
LINE
  5
27329
330
25469
100
AcDbEntity
  8
寸法
 62
     0
 48
50.0
370
    -2
100
AcDbLine
 10
9118.6
 20
7702.807155537323
 30
0.0
 11
9118.6
 21
9094.716921185648
 31
0.0
  0
LINE
  5
2732A
330
25469
100
AcDbEntity
  8
寸法
 62
     0
 48
50.0
370
    -2
100
AcDbLine
 10
10018.6
 20
9034.716921185649
 30
0.0
 11
9118.6
 21
9034.716921185649
 31
0.0
  0
INSERT
  5
2732B
330
25469
100
AcDbEntity
  8
寸法
 62
     0
 48
50.0
370
    -2
100
AcDbBlockReference
  2
_DOTSMALL
 10
10018.6
 20
9034.716921185649
 30
0.0
 41
100.0
 42
100.0
 43
100.0
  0
INSERT
  5
2732C
330
25469
100
AcDbEntity
  8
寸法
 62
     0
 48
50.0
370
    -2
100
AcDbBlockReference
  2
_DOTSMALL
 10
9118.6
 20
9034.716921185649
 30
0.0
 41
100.0
 42
100.0
 43
100.0
 50
180.0
  0
MTEXT
  5
2732D
330
25469
100
AcDbEntity
  8
寸法
 62
     7
 48
50.0
100
AcDbMText
 10
9568.600000000001
 20
9134.716921185649
 30
0.0
 40
120.0
 41
0.0
 71
     5
 72
     1
  1
\A1;900
  7
STYLE1
 73
     1
 44
1.0
1001
ACAD
1000
MTEXTBEGIN
1070
    73
1070
     1
1070
    44
1040
1.0
1070
    74
1070
     0
1000
MTEXTEND
  0
POINT
  5
2732E
330
25469
100
AcDbEntity
  8
DEFPOINTS
 62
     0
 48
50.0
100
AcDbPoint
 10
10018.6
 20
8507.807155537321
 30
0.0
  0
POINT
  5
2732F
330
25469
100
AcDbEntity
  8
DEFPOINTS
 62
     0
 48
50.0
100
AcDbPoint
 10
9118.6
 20
7682.807155537322
 30
0.0
  0
POINT
  5
27330
330
25469
100
AcDbEntity
  8
DEFPOINTS
 62
     0
 48
50.0
100
AcDbPoint
 10
9118.6
 20
9034.716921185649
 30
0.0
  0
ENDBLK
  5
25474
330
25469
100
AcDbEntity
  8
0
 48
50.0
100
AcDbBlockEnd
  0
BLOCK
  5
25480
330
25475
100
AcDbEntity
  8
0
 48
50.0
100
AcDbBlockBegin
  2
*D8
 70
     1
 10
0.0
 20
0.0
 30
0.0
  3
*D8
  1

  0
LINE
  5
2731E
330
25475
100
AcDbEntity
  8
寸法
 62
     0
 48
50.0
370
    -2
100
AcDbLine
 10
9898.600000000001
 20
8257.807155537323
 30
0.0
 11
9898.600000000001
 21
7936.781364598662
 31
0.0
  0
LINE
  5
2731F
330
25475
100
AcDbEntity
  8
寸法
 62
     0
 48
50.0
370
    -2
100
AcDbLine
 10
9788.600000000002
 20
8257.807155537319
 30
0.0
 11
9788.600000000002
 21
7936.781364598662
 31
0.0
  0
LINE
  5
27320
330
25475
100
AcDbEntity
  8
寸法
 62
     0
 48
50.0
370
    -2
100
AcDbLine
 10
9898.600000000001
 20
7996.78136459866
 30
0.0
 11
9788.600000000002
 21
7996.78136459866
 31
0.0
  0
LINE
  5
27321
330
25475
100
AcDbEntity
  8
寸法
 62
     0
 48
50.0
370
    -2
100
AcDbLine
 10
9788.600000000002
 20
7996.78136459866
 30
0.0
 11
9428.505511811023
 21
7996.78136459866
 31
0.0
  0
INSERT
  5
27322
330
25475
100
AcDbEntity
  8
寸法
 62
     0
 48
50.0
370
    -2
100
AcDbBlockReference
  2
_DOTSMALL
 10
9898.600000000001
 20
7996.78136459866
 30
0.0
 41
100.0
 42
100.0
 43
100.0
  0
INSERT
  5
27323
330
25475
100
AcDbEntity
  8
寸法
 62
     0
 48
50.0
370
    -2
100
AcDbBlockReference
  2
_DOTSMALL
 10
9788.600000000002
 20
7996.78136459866
 30
0.0
 41
100.0
 42
100.0
 43
100.0
 50
180.0
  0
MTEXT
  5
27324
330
25475
100
AcDbEntity
  8
寸法
 62
     7
 48
50.0
100
AcDbMText
 10
9552.552755905512
 20
8096.78136459866
 30
0.0
 40
120.0
 41
0.0
 71
     5
 72
     1
  1
\A1;110
  7
STYLE1
 73
     1
 44
1.0
1001
ACAD
1000
MTEXTBEGIN
1070
    73
1070
     1
1070
    44
1040
1.0
1070
    74
1070
     0
1000
MTEXTEND
  0
POINT
  5
27325
330
25475
100
AcDbEntity
  8
DEFPOINTS
 62
     0
 48
50.0
100
AcDbPoint
 10
9898.600000000001
 20
8277.807155537322
 30
0.0
  0
POINT
  5
27326
330
25475
100
AcDbEntity
  8
DEFPOINTS
 62
     0
 48
50.0
100
AcDbPoint
 10
9788.600000000002
 20
8277.807155537319
 30
0.0
  0
POINT
  5
27327
330
25475
100
AcDbEntity
  8
DEFPOINTS
 62
     0
 48
50.0
100
AcDbPoint
 10
9788.600000000002
 20
7996.78136459866
 30
0.0
  0
ENDBLK
  5
25481
330
25475
100
AcDbEntity
  8
0
 48
50.0
100
AcDbBlockEnd
  0
BLOCK
  5
2548C
330
25482
100
AcDbEntity
  8
0
 48
50.0
100
AcDbBlockBegin
  2
*D9
 70
     1
 10
0.0
 20
0.0
 30
0.0
  3
*D9
  1

  0
LINE
  5
27315
330
25482
100
AcDbEntity
  8
寸法
 62
     0
 48
50.0
370
    -2
100
AcDbLine
 10
8540.045939259561
 20
5867.807155537331
 30
0.0
 11
8965.618275173502
 21
5867.807155537331
 31
0.0
  0
LINE
  5
27316
330
25482
100
AcDbEntity
  8
寸法
 62
     0
 48
50.0
370
    -2
100
AcDbLine
 10
8998.600000000001
 20
6742.807155537339
 30
0.0
 11
8845.618275173503
 21
6742.807155537339
 31
0.0
  0
LINE
  5
27317
330
25482
100
AcDbEntity
  8
寸法
 62
     0
 48
50.0
370
    -2
100
AcDbLine
 10
8905.618275173504
 20
5867.807155537331
 30
0.0
 11
8905.618275173504
 21
6742.807155537339
 31
0.0
  0
INSERT
  5
27318
330
25482
100
AcDbEntity
  8
寸法
 62
     0
 48
50.0
370
    -2
100
AcDbBlockReference
  2
_DOTSMALL
 10
8905.618275173504
 20
5867.807155537331
 30
0.0
 41
100.0
 42
100.0
 43
100.0
 50
270.0
  0
INSERT
  5
27319
330
25482
100
AcDbEntity
  8
寸法
 62
     0
 48
50.0
370
    -2
100
AcDbBlockReference
  2
_DOTSMALL
 10
8905.618275173504
 20
6742.807155537339
 30
0.0
 41
100.0
 42
100.0
 43
100.0
 50
90.0
  0
MTEXT
  5
2731A
330
25482
100
AcDbEntity
  8
寸法
 62
     7
 48
50.0
100
AcDbMText
 10
8805.618275173502
 20
6305.307155537336
 30
0.0
 40
120.0
 41
0.0
 71
     5
 72
     1
  1
\A1;875
  7
STYLE1
 11
0.0000000000000001
 21
1.0
 31
0.0
 73
     1
 44
1.0
1001
ACAD
1000
MTEXTBEGIN
1070
    73
1070
     1
1070
    44
1040
1.0
1070
    74
1070
     0
1000
MTEXTEND
  0
POINT
  5
2731B
330
25482
100
AcDbEntity
  8
DEFPOINTS
 62
     0
 48
50.0
100
AcDbPoint
 10
8520.04593925956
 20
5867.807155537331
 30
0.0
  0
POINT
  5
2731C
330
25482
100
AcDbEntity
  8
DEFPOINTS
 62
     0
 48
50.0
100
AcDbPoint
 10
9018.600000000001
 20
6742.807155537339
 30
0.0
  0
POINT
  5
2731D
330
25482
100
AcDbEntity
  8
DEFPOINTS
 62
     0
 48
50.0
100
AcDbPoint
 10
8905.618275173504
 20
6742.807155537339
 30
0.0
  0
ENDBLK
  5
2548D
330
25482
100
AcDbEntity
  8
0
 48
50.0
100
AcDbBlockEnd
  0
BLOCK
  5
25498
330
2548E
100
AcDbEntity
  8
0
 48
50.0
100
AcDbBlockBegin
  2
*D10
 70
     1
 10
0.0
 20
0.0
 30
0.0
  3
*D10
  1

  0
LINE
  5
2730C
330
2548E
100
AcDbEntity
  8
寸法
 62
     0
 48
50.0
370
    -2
100
AcDbLine
 10
8998.600000000001
 20
7632.807155537323
 30
0.0
 11
8845.618275173503
 21
7632.807155537323
 31
0.0
  0
LINE
  5
2730D
330
2548E
100
AcDbEntity
  8
寸法
 62
     0
 48
50.0
370
    -2
100
AcDbLine
 10
8998.600000000001
 20
6742.807155537339
 30
0.0
 11
8845.618275173503
 21
6742.807155537339
 31
0.0
  0
LINE
  5
2730E
330
2548E
100
AcDbEntity
  8
寸法
 62
     0
 48
50.0
370
    -2
100
AcDbLine
 10
8905.618275173504
 20
7632.807155537323
 30
0.0
 11
8905.618275173504
 21
6742.807155537339
 31
0.0
  0
INSERT
  5
2730F
330
2548E
100
AcDbEntity
  8
寸法
 62
     0
 48
50.0
370
    -2
100
AcDbBlockReference
  2
_DOTSMALL
 10
8905.618275173504
 20
7632.807155537323
 30
0.0
 41
100.0
 42
100.0
 43
100.0
 50
90.0
  0
INSERT
  5
27310
330
2548E
100
AcDbEntity
  8
寸法
 62
     0
 48
50.0
370
    -2
100
AcDbBlockReference
  2
_DOTSMALL
 10
8905.618275173504
 20
6742.807155537339
 30
0.0
 41
100.0
 42
100.0
 43
100.0
 50
270.0
  0
MTEXT
  5
27311
330
2548E
100
AcDbEntity
  8
寸法
 62
     7
 48
50.0
100
AcDbMText
 10
8805.618275173502
 20
7187.807155537332
 30
0.0
 40
120.0
 41
0.0
 71
     5
 72
     1
  1
\A1;890
  7
STYLE1
 11
0.0000000000000001
 21
1.0
 31
0.0
 73
     1
 44
1.0
1001
ACAD
1000
MTEXTBEGIN
1070
    73
1070
     1
1070
    44
1040
1.0
1070
    74
1070
     0
1000
MTEXTEND
  0
POINT
  5
27312
330
2548E
100
AcDbEntity
  8
DEFPOINTS
 62
     0
 48
50.0
100
AcDbPoint
 10
9018.600000000001
 20
7632.807155537323
 30
0.0
  0
POINT
  5
27313
330
2548E
100
AcDbEntity
  8
DEFPOINTS
 62
     0
 48
50.0
100
AcDbPoint
 10
9018.600000000001
 20
6742.807155537339
 30
0.0
  0
POINT
  5
27314
330
2548E
100
AcDbEntity
  8
DEFPOINTS
 62
     0
 48
50.0
100
AcDbPoint
 10
8905.618275173504
 20
6742.807155537339
 30
0.0
  0
ENDBLK
  5
25499
330
2548E
100
AcDbEntity
  8
0
 48
50.0
100
AcDbBlockEnd
  0
BLOCK
  5
254A4
330
2549A
100
AcDbEntity
  8
0
 48
50.0
100
AcDbBlockBegin
  2
*D11
 70
     1
 10
0.0
 20
0.0
 30
0.0
  3
*D11
  1

  0
LINE
  5
27303
330
2549A
100
AcDbEntity
  8
寸法
 62
     0
 48
50.0
370
    -2
100
AcDbLine
 10
8223.600000000001
 20
7702.807155537325
 30
0.0
 11
8223.600000000001
 21
9094.716921185648
 31
0.0
  0
LINE
  5
27304
330
2549A
100
AcDbEntity
  8
寸法
 62
     0
 48
50.0
370
    -2
100
AcDbLine
 10
7328.6
 20
7702.807155537323
 30
0.0
 11
7328.6
 21
9094.716921185648
 31
0.0
  0
LINE
  5
27305
330
2549A
100
AcDbEntity
  8
寸法
 62
     0
 48
50.0
370
    -2
100
AcDbLine
 10
8223.600000000001
 20
9034.716921185649
 30
0.0
 11
7328.6
 21
9034.716921185649
 31
0.0
  0
INSERT
  5
27306
330
2549A
100
AcDbEntity
  8
寸法
 62
     0
 48
50.0
370
    -2
100
AcDbBlockReference
  2
_DOTSMALL
 10
8223.600000000001
 20
9034.716921185649
 30
0.0
 41
100.0
 42
100.0
 43
100.0
  0
INSERT
  5
27307
330
2549A
100
AcDbEntity
  8
寸法
 62
     0
 48
50.0
370
    -2
100
AcDbBlockReference
  2
_DOTSMALL
 10
7328.6
 20
9034.716921185649
 30
0.0
 41
100.0
 42
100.0
 43
100.0
 50
180.0
  0
MTEXT
  5
27308
330
2549A
100
AcDbEntity
  8
寸法
 62
     7
 48
50.0
100
AcDbMText
 10
7776.100000000001
 20
9134.716921185649
 30
0.0
 40
120.0
 41
0.0
 71
     5
 72
     1
  1
\A1;895
  7
STYLE1
 73
     1
 44
1.0
1001
ACAD
1000
MTEXTBEGIN
1070
    73
1070
     1
1070
    44
1040
1.0
1070
    74
1070
     0
1000
MTEXTEND
  0
POINT
  5
27309
330
2549A
100
AcDbEntity
  8
DEFPOINTS
 62
     0
 48
50.0
100
AcDbPoint
 10
8223.600000000001
 20
7682.807155537324
 30
0.0
  0
POINT
  5
2730A
330
2549A
100
AcDbEntity
  8
DEFPOINTS
 62
     0
 48
50.0
100
AcDbPoint
 10
7328.6
 20
7682.807155537322
 30
0.0
  0
POINT
  5
2730B
330
2549A
100
AcDbEntity
  8
DEFPOINTS
 62
     0
 48
50.0
100
AcDbPoint
 10
7328.6
 20
9034.716921185649
 30
0.0
  0
ENDBLK
  5
254A5
330
2549A
100
AcDbEntity
  8
0
 48
50.0
100
AcDbBlockEnd
  0
BLOCK
  5
254B1
330
254A6
100
AcDbEntity
  8
0
 48
50.0
100
AcDbBlockBegin
  2
*D12
 70
     1
 10
0.0
 20
0.0
 30
0.0
  3
*D12
  1

  0
LINE
  5
272F9
330
254A6
100
AcDbEntity
  8
寸法
 62
     0
 48
50.0
370
    -2
100
AcDbLine
 10
6678.6
 20
8387.807155537323
 30
0.0
 11
6935.307249876098
 21
8387.807155537323
 31
0.0
  0
LINE
  5
272FA
330
254A6
100
AcDbEntity
  8
寸法
 62
     0
 48
50.0
370
    -2
100
AcDbLine
 10
6678.6
 20
8277.807155537317
 30
0.0
 11
6935.307249876098
 21
8277.807155537317
 31
0.0
  0
LINE
  5
272FB
330
254A6
100
AcDbEntity
  8
寸法
 62
     0
 48
50.0
370
    -2
100
AcDbLine
 10
6875.307249876098
 20
8387.807155537323
 30
0.0
 11
6875.307249876098
 21
8277.807155537317
 31
0.0
  0
LINE
  5
272FC
330
254A6
100
AcDbEntity
  8
寸法
 62
     0
 48
50.0
370
    -2
100
AcDbLine
 10
6875.307249876098
 20
8277.807155537317
 30
0.0
 11
6875.307249876098
 21
7813.700856324718
 31
0.0
  0
INSERT
  5
272FD
330
254A6
100
AcDbEntity
  8
寸法
 62
     0
 48
50.0
370
    -2
100
AcDbBlockReference
  2
_DOTSMALL
 10
6875.307249876098
 20
8387.807155537323
 30
0.0
 41
100.0
 42
100.0
 43
100.0
 50
90.0
  0
INSERT
  5
272FE
330
254A6
100
AcDbEntity
  8
寸法
 62
     0
 48
50.0
370
    -2
100
AcDbBlockReference
  2
_DOTSMALL
 10
6875.307249876098
 20
8277.807155537317
 30
0.0
 41
100.0
 42
100.0
 43
100.0
 50
270.0
  0
MTEXT
  5
272FF
330
254A6
100
AcDbEntity
  8
寸法
 62
     7
 48
50.0
100
AcDbMText
 10
6775.307249876097
 20
7937.748100419206
 30
0.0
 40
120.0
 41
0.0
 71
     5
 72
     1
  1
\A1;110
  7
STYLE1
 11
0.0000000000000001
 21
1.0
 31
0.0
 73
     1
 44
1.0
1001
ACAD
1000
MTEXTBEGIN
1070
    73
1070
     1
1070
    44
1040
1.0
1070
    74
1070
     0
1000
MTEXTEND
  0
POINT
  5
27300
330
254A6
100
AcDbEntity
  8
DEFPOINTS
 62
     0
 48
50.0
100
AcDbPoint
 10
6658.599999999999
 20
8387.807155537323
 30
0.0
  0
POINT
  5
27301
330
254A6
100
AcDbEntity
  8
DEFPOINTS
 62
     0
 48
50.0
100
AcDbPoint
 10
6658.599999999999
 20
8277.807155537317
 30
0.0
  0
POINT
  5
27302
330
254A6
100
AcDbEntity
  8
DEFPOINTS
 62
     0
 48
50.0
100
AcDbPoint
 10
6875.307249876098
 20
8277.807155537317
 30
0.0
  0
ENDBLK
  5
254B2
330
254A6
100
AcDbEntity
  8
0
 48
50.0
100
AcDbBlockEnd
  0
BLOCK
  5
254BE
330
254B3
100
AcDbEntity
  8
0
 48
50.0
100
AcDbBlockBegin
  2
*D13
 70
     1
 10
0.0
 20
0.0
 30
0.0
  3
*D13
  1

  0
LINE
  5
272EF
330
254B3
100
AcDbEntity
  8
寸法
 62
     0
 48
50.0
370
    -2
100
AcDbLine
 10
6678.6
 20
8387.807155537322
 30
0.0
 11
6935.307249876098
 21
8387.807155537322
 31
0.0
  0
LINE
  5
272F0
330
254B3
100
AcDbEntity
  8
寸法
 62
     0
 48
50.0
370
    -2
100
AcDbLine
 10
6678.6
 20
8507.807155537319
 30
0.0
 11
6935.307249876098
 21
8507.807155537319
 31
0.0
  0
LINE
  5
272F1
330
254B3
100
AcDbEntity
  8
寸法
 62
     0
 48
50.0
370
    -2
100
AcDbLine
 10
6875.307249876098
 20
8387.807155537322
 30
0.0
 11
6875.307249876098
 21
8507.807155537319
 31
0.0
  0
LINE
  5
272F2
330
254B3
100
AcDbEntity
  8
寸法
 62
     0
 48
50.0
370
    -2
100
AcDbLine
 10
6875.307249876098
 20
8507.807155537319
 30
0.0
 11
6875.307249876098
 21
8921.937942904694
 31
0.0
  0
INSERT
  5
272F3
330
254B3
100
AcDbEntity
  8
寸法
 62
     0
 48
50.0
370
    -2
100
AcDbBlockReference
  2
_DOTSMALL
 10
6875.307249876098
 20
8387.807155537322
 30
0.0
 41
100.0
 42
100.0
 43
100.0
 50
270.0
  0
INSERT
  5
272F4
330
254B3
100
AcDbEntity
  8
寸法
 62
     0
 48
50.0
370
    -2
100
AcDbBlockReference
  2
_DOTSMALL
 10
6875.307249876098
 20
8507.807155537319
 30
0.0
 41
100.0
 42
100.0
 43
100.0
 50
90.0
  0
MTEXT
  5
272F5
330
254B3
100
AcDbEntity
  8
寸法
 62
     7
 48
50.0
100
AcDbMText
 10
6775.295438852475
 20
8785.890698810206
 30
0.0
 40
120.0
 41
0.0
 71
     5
 72
     1
  1
\A1;120
  7
STYLE1
 11
0.0000000000000001
 21
1.0
 31
0.0
 73
     1
 44
1.0
1001
ACAD
1000
MTEXTBEGIN
1070
    73
1070
     1
1070
    44
1040
1.0
1070
    74
1070
     0
1000
MTEXTEND
  0
POINT
  5
272F6
330
254B3
100
AcDbEntity
  8
DEFPOINTS
 62
     0
 48
50.0
100
AcDbPoint
 10
6658.599999999999
 20
8387.807155537322
 30
0.0
  0
POINT
  5
272F7
330
254B3
100
AcDbEntity
  8
DEFPOINTS
 62
     0
 48
50.0
100
AcDbPoint
 10
6658.599999999999
 20
8507.807155537319
 30
0.0
  0
POINT
  5
272F8
330
254B3
100
AcDbEntity
  8
DEFPOINTS
 62
     0
 48
50.0
100
AcDbPoint
 10
6875.307249876098
 20
8507.807155537319
 30
0.0
  0
ENDBLK
  5
254BF
330
254B3
100
AcDbEntity
  8
0
 48
50.0
100
AcDbBlockEnd
  0
BLOCK
  5
254CB
330
254C0
100
AcDbEntity
  8
0
 48
50.0
100
AcDbBlockBegin
  2
*D14
 70
     1
 10
0.0
 20
0.0
 30
0.0
  3
*D14
  1

  0
LINE
  5
272E5
330
254C0
100
AcDbEntity
  8
寸法
 62
     0
 48
50.0
370
    -2
100
AcDbLine
 10
6408.599999999999
 20
8507.807155537321
 30
0.0
 11
5872.657733986179
 21
8507.807155537321
 31
0.0
  0
LINE
  5
272E6
330
254C0
100
AcDbEntity
  8
寸法
 62
     0
 48
50.0
370
    -2
100
AcDbLine
 10
6481.6
 20
8384.807155537322
 30
0.0
 11
5872.657733986179
 21
8384.807155537322
 31
0.0
  0
LINE
  5
272E7
330
254C0
100
AcDbEntity
  8
寸法
 62
     0
 48
50.0
370
    -2
100
AcDbLine
 10
5932.657733986179
 20
8384.807155537322
 30
0.0
 11
5932.657733986179
 21
8507.807155537321
 31
0.0
  0
LINE
  5
272E8
330
254C0
100
AcDbEntity
  8
寸法
 62
     0
 48
50.0
370
    -2
100
AcDbLine
 10
5932.657733986179
 20
8507.807155537321
 30
0.0
 11
5932.657733986179
 21
8919.399038629357
 31
0.0
  0
INSERT
  5
272E9
330
254C0
100
AcDbEntity
  8
寸法
 62
     0
 48
50.0
370
    -2
100
AcDbBlockReference
  2
_DOTSMALL
 10
5932.657733986179
 20
8384.807155537322
 30
0.0
 41
100.0
 42
100.0
 43
100.0
 50
270.0
  0
INSERT
  5
272EA
330
254C0
100
AcDbEntity
  8
寸法
 62
     0
 48
50.0
370
    -2
100
AcDbBlockReference
  2
_DOTSMALL
 10
5932.657733986179
 20
8507.807155537321
 30
0.0
 41
100.0
 42
100.0
 43
100.0
 50
90.0
  0
MTEXT
  5
272EB
330
254C0
100
AcDbEntity
  8
寸法
 62
     7
 48
50.0
100
AcDbMText
 10
5832.645922962556
 20
8780.91375725512
 30
0.0
 40
120.0
 41
0.0
 71
     5
 72
     1
  1
\A1;123
  7
STYLE1
 11
0.0000000000000001
 21
1.0
 31
0.0
 73
     1
 44
1.0
1001
ACAD
1000
MTEXTBEGIN
1070
    73
1070
     1
1070
    44
1040
1.0
1070
    74
1070
     0
1000
MTEXTEND
  0
POINT
  5
272EC
330
254C0
100
AcDbEntity
  8
DEFPOINTS
 62
     0
 48
50.0
100
AcDbPoint
 10
6428.6
 20
8507.807155537321
 30
0.0
  0
POINT
  5
272ED
330
254C0
100
AcDbEntity
  8
DEFPOINTS
 62
     0
 48
50.0
100
AcDbPoint
 10
6501.6
 20
8384.807155537322
 30
0.0
  0
POINT
  5
272EE
330
254C0
100
AcDbEntity
  8
DEFPOINTS
 62
     0
 48
50.0
100
AcDbPoint
 10
5932.657733986179
 20
8384.807155537322
 30
0.0
  0
ENDBLK
  5
254CC
330
254C0
100
AcDbEntity
  8
0
 48
50.0
100
AcDbBlockEnd
  0
BLOCK
  5
254D8
330
254CD
100
AcDbEntity
  8
0
 48
50.0
100
AcDbBlockBegin
  2
*D15
 70
     1
 10
0.0
 20
0.0
 30
0.0
  3
*D15
  1

  0
LINE
  5
272DB
330
254CD
100
AcDbEntity
  8
寸法
 62
     0
 48
50.0
370
    -2
100
AcDbLine
 10
6551.6
 20
8454.807155537322
 30
0.0
 11
6551.6
 21
9313.566782079403
 31
0.0
  0
LINE
  5
272DC
330
254CD
100
AcDbEntity
  8
寸法
 62
     0
 48
50.0
370
    -2
100
AcDbLine
 10
6428.6
 20
8527.807155537322
 30
0.0
 11
6428.6
 21
9313.566782079403
 31
0.0
  0
LINE
  5
272DD
330
254CD
100
AcDbEntity
  8
寸法
 62
     0
 48
50.0
370
    -2
100
AcDbLine
 10
6551.6
 20
9253.566782079404
 30
0.0
 11
6428.6
 21
9253.566782079404
 31
0.0
  0
LINE
  5
272DE
330
254CD
100
AcDbEntity
  8
寸法
 62
     0
 48
50.0
370
    -2
100
AcDbLine
 10
6428.6
 20
9253.566782079404
 30
0.0
 11
6017.008116907966
 21
9253.566782079404
 31
0.0
  0
INSERT
  5
272DF
330
254CD
100
AcDbEntity
  8
寸法
 62
     0
 48
50.0
370
    -2
100
AcDbBlockReference
  2
_DOTSMALL
 10
6551.6
 20
9253.566782079404
 30
0.0
 41
100.0
 42
100.0
 43
100.0
  0
INSERT
  5
272E0
330
254CD
100
AcDbEntity
  8
寸法
 62
     0
 48
50.0
370
    -2
100
AcDbBlockReference
  2
_DOTSMALL
 10
6428.6
 20
9253.566782079404
 30
0.0
 41
100.0
 42
100.0
 43
100.0
 50
180.0
  0
MTEXT
  5
272E1
330
254CD
100
AcDbEntity
  8
寸法
 62
     7
 48
50.0
100
AcDbMText
 10
6155.493398282206
 20
9353.578593103026
 30
0.0
 40
120.0
 41
0.0
 71
     5
 72
     1
  1
\A1;123
  7
STYLE1
 73
     1
 44
1.0
1001
ACAD
1000
MTEXTBEGIN
1070
    73
1070
     1
1070
    44
1040
1.0
1070
    74
1070
     0
1000
MTEXTEND
  0
POINT
  5
272E2
330
254CD
100
AcDbEntity
  8
DEFPOINTS
 62
     0
 48
50.0
100
AcDbPoint
 10
6551.6
 20
8434.80715553732
 30
0.0
  0
POINT
  5
272E3
330
254CD
100
AcDbEntity
  8
DEFPOINTS
 62
     0
 48
50.0
100
AcDbPoint
 10
6428.6
 20
8507.807155537321
 30
0.0
  0
POINT
  5
272E4
330
254CD
100
AcDbEntity
  8
DEFPOINTS
 62
     0
 48
50.0
100
AcDbPoint
 10
6428.6
 20
9253.566782079404
 30
0.0
  0
ENDBLK
  5
254D9
330
254CD
100
AcDbEntity
  8
0
 48
50.0
100
AcDbBlockEnd
  0
BLOCK
  5
254E4
330
254DA
100
AcDbEntity
  8
0
 48
50.0
100
AcDbBlockBegin
  2
*D16
 70
     1
 10
0.0
 20
0.0
 30
0.0
  3
*D16
  1

  0
LINE
  5
272D2
330
254DA
100
AcDbEntity
  8
寸法
 62
     0
 48
50.0
370
    -2
100
AcDbLine
 10
8105.6
 20
8454.807155537322
 30
0.0
 11
8105.6
 21
9313.566782079403
 31
0.0
  0
LINE
  5
272D3
330
254DA
100
AcDbEntity
  8
寸法
 62
     0
 48
50.0
370
    -2
100
AcDbLine
 10
6551.6
 20
8454.807155537322
 30
0.0
 11
6551.6
 21
9313.566782079403
 31
0.0
  0
LINE
  5
272D4
330
254DA
100
AcDbEntity
  8
寸法
 62
     0
 48
50.0
370
    -2
100
AcDbLine
 10
8105.6
 20
9253.566782079404
 30
0.0
 11
6551.6
 21
9253.566782079404
 31
0.0
  0
INSERT
  5
272D5
330
254DA
100
AcDbEntity
  8
寸法
 62
     0
 48
50.0
370
    -2
100
AcDbBlockReference
  2
_DOTSMALL
 10
8105.6
 20
9253.566782079404
 30
0.0
 41
100.0
 42
100.0
 43
100.0
  0
INSERT
  5
272D6
330
254DA
100
AcDbEntity
  8
寸法
 62
     0
 48
50.0
370
    -2
100
AcDbBlockReference
  2
_DOTSMALL
 10
6551.6
 20
9253.566782079404
 30
0.0
 41
100.0
 42
100.0
 43
100.0
 50
180.0
  0
MTEXT
  5
272D7
330
254DA
100
AcDbEntity
  8
寸法
 62
     7
 48
50.0
100
AcDbMText
 10
7328.6
 20
9353.566782079404
 30
0.0
 40
120.0
 41
0.0
 71
     5
 72
     1
  1
\A1;1554
  7
STYLE1
 73
     1
 44
1.0
1001
ACAD
1000
MTEXTBEGIN
1070
    73
1070
     1
1070
    44
1040
1.0
1070
    74
1070
     0
1000
MTEXTEND
  0
POINT
  5
272D8
330
254DA
100
AcDbEntity
  8
DEFPOINTS
 62
     0
 48
50.0
100
AcDbPoint
 10
8105.6
 20
8434.80715553732
 30
0.0
  0
POINT
  5
272D9
330
254DA
100
AcDbEntity
  8
DEFPOINTS
 62
     0
 48
50.0
100
AcDbPoint
 10
6551.6
 20
8434.80715553732
 30
0.0
  0
POINT
  5
272DA
330
254DA
100
AcDbEntity
  8
DEFPOINTS
 62
     0
 48
50.0
100
AcDbPoint
 10
6551.6
 20
9253.566782079404
 30
0.0
  0
ENDBLK
  5
254E5
330
254DA
100
AcDbEntity
  8
0
 48
50.0
100
AcDbBlockEnd
  0
BLOCK
  5
254F0
330
254E6
100
AcDbEntity
  8
0
 48
50.0
100
AcDbBlockBegin
  2
*D17
 70
     1
 10
0.0
 20
0.0
 30
0.0
  3
*D17
  1

  0
LINE
  5
272C9
330
254E6
100
AcDbEntity
  8
寸法
 62
     0
 48
50.0
370
    -2
100
AcDbLine
 10
7328.6
 20
7702.807155537323
 30
0.0
 11
7328.6
 21
9094.716921185648
 31
0.0
  0
LINE
  5
272CA
330
254E6
100
AcDbEntity
  8
寸法
 62
     0
 48
50.0
370
    -2
100
AcDbLine
 10
6428.6
 20
8527.807155537322
 30
0.0
 11
6428.6
 21
9094.716921185648
 31
0.0
  0
LINE
  5
272CB
330
254E6
100
AcDbEntity
  8
寸法
 62
     0
 48
50.0
370
    -2
100
AcDbLine
 10
7328.6
 20
9034.716921185649
 30
0.0
 11
6428.6
 21
9034.716921185649
 31
0.0
  0
INSERT
  5
272CC
330
254E6
100
AcDbEntity
  8
寸法
 62
     0
 48
50.0
370
    -2
100
AcDbBlockReference
  2
_DOTSMALL
 10
7328.6
 20
9034.716921185649
 30
0.0
 41
100.0
 42
100.0
 43
100.0
  0
INSERT
  5
272CD
330
254E6
100
AcDbEntity
  8
寸法
 62
     0
 48
50.0
370
    -2
100
AcDbBlockReference
  2
_DOTSMALL
 10
6428.6
 20
9034.716921185649
 30
0.0
 41
100.0
 42
100.0
 43
100.0
 50
180.0
  0
MTEXT
  5
272CE
330
254E6
100
AcDbEntity
  8
寸法
 62
     7
 48
50.0
100
AcDbMText
 10
6878.6
 20
9134.716921185649
 30
0.0
 40
120.0
 41
0.0
 71
     5
 72
     1
  1
\A1;900
  7
STYLE1
 73
     1
 44
1.0
1001
ACAD
1000
MTEXTBEGIN
1070
    73
1070
     1
1070
    44
1040
1.0
1070
    74
1070
     0
1000
MTEXTEND
  0
POINT
  5
272CF
330
254E6
100
AcDbEntity
  8
DEFPOINTS
 62
     0
 48
50.0
100
AcDbPoint
 10
7328.6
 20
7682.807155537322
 30
0.0
  0
POINT
  5
272D0
330
254E6
100
AcDbEntity
  8
DEFPOINTS
 62
     0
 48
50.0
100
AcDbPoint
 10
6428.6
 20
8507.807155537321
 30
0.0
  0
POINT
  5
272D1
330
254E6
100
AcDbEntity
  8
DEFPOINTS
 62
     0
 48
50.0
100
AcDbPoint
 10
6428.6
 20
9034.716921185649
 30
0.0
  0
ENDBLK
  5
254F1
330
254E6
100
AcDbEntity
  8
0
 48
50.0
100
AcDbBlockEnd
  0
BLOCK
  5
254FC
330
254F2
100
AcDbEntity
  8
0
 48
50.0
100
AcDbBlockBegin
  2
*D18
 70
     1
 10
0.0
 20
0.0
 30
0.0
  3
*D18
  1

  0
LINE
  5
272C0
330
254F2
100
AcDbEntity
  8
寸法
 62
     0
 48
50.0
370
    -2
100
AcDbLine
 10
8235.600000000001
 20
6117.807155537339
 30
0.0
 11
8235.600000000001
 21
6351.781044834439
 31
0.0
  0
LINE
  5
272C1
330
254F2
100
AcDbEntity
  8
寸法
 62
     0
 48
50.0
370
    -2
100
AcDbLine
 10
7975.6
 20
6117.807155537339
 30
0.0
 11
7975.6
 21
6351.781044834439
 31
0.0
  0
LINE
  5
272C2
330
254F2
100
AcDbEntity
  8
寸法
 62
     0
 48
50.0
370
    -2
100
AcDbLine
 10
8235.600000000001
 20
6291.781044834439
 30
0.0
 11
7975.6
 21
6291.781044834439
 31
0.0
  0
INSERT
  5
272C3
330
254F2
100
AcDbEntity
  8
寸法
 62
     0
 48
50.0
370
    -2
100
AcDbBlockReference
  2
_DOTSMALL
 10
8235.600000000001
 20
6291.781044834439
 30
0.0
 41
100.0
 42
100.0
 43
100.0
  0
INSERT
  5
272C4
330
254F2
100
AcDbEntity
  8
寸法
 62
     0
 48
50.0
370
    -2
100
AcDbBlockReference
  2
_DOTSMALL
 10
7975.6
 20
6291.781044834439
 30
0.0
 41
100.0
 42
100.0
 43
100.0
 50
180.0
  0
MTEXT
  5
272C5
330
254F2
100
AcDbEntity
  8
寸法
 62
     7
 48
50.0
100
AcDbMText
 10
8105.6
 20
6391.79285585806
 30
0.0
 40
120.0
 41
0.0
 71
     5
 72
     1
  1
\A1;260
  7
STYLE1
 73
     1
 44
1.0
1001
ACAD
1000
MTEXTBEGIN
1070
    73
1070
     1
1070
    44
1040
1.0
1070
    74
1070
     0
1000
MTEXTEND
  0
POINT
  5
272C6
330
254F2
100
AcDbEntity
  8
DEFPOINTS
 62
     0
 48
50.0
100
AcDbPoint
 10
8235.600000000001
 20
6097.807155537338
 30
0.0
  0
POINT
  5
272C7
330
254F2
100
AcDbEntity
  8
DEFPOINTS
 62
     0
 48
50.0
100
AcDbPoint
 10
7975.6
 20
6097.807155537338
 30
0.0
  0
POINT
  5
272C8
330
254F2
100
AcDbEntity
  8
DEFPOINTS
 62
     0
 48
50.0
100
AcDbPoint
 10
7975.6
 20
6291.781044834439
 30
0.0
  0
ENDBLK
  5
254FD
330
254F2
100
AcDbEntity
  8
0
 48
50.0
100
AcDbBlockEnd
  0
BLOCK
  5
25509
330
254FE
100
AcDbEntity
  8
0
 48
50.0
100
AcDbBlockBegin
  2
*D19
 70
     1
 10
0.0
 20
0.0
 30
0.0
  3
*D19
  1

  0
LINE
  5
272B6
330
254FE
100
AcDbEntity
  8
寸法
 62
     0
 48
50.0
370
    -2
100
AcDbLine
 10
6481.600000000007
 20
5990.807155537322
 30
0.0
 11
5872.657733986179
 21
5990.807155537323
 31
0.0
  0
LINE
  5
272B7
330
254FE
100
AcDbEntity
  8
寸法
 62
     0
 48
50.0
370
    -2
100
AcDbLine
 10
6408.599999999999
 20
5867.80715553732
 30
0.0
 11
5872.657733986179
 21
5867.807155537321
 31
0.0
  0
LINE
  5
272B8
330
254FE
100
AcDbEntity
  8
寸法
 62
     0
 48
50.0
370
    -2
100
AcDbLine
 10
5932.657733986179
 20
5990.807155537323
 30
0.0
 11
5932.657733986179
 21
5867.807155537321
 31
0.0
  0
LINE
  5
272B9
330
254FE
100
AcDbEntity
  8
寸法
 62
     0
 48
50.0
370
    -2
100
AcDbLine
 10
5932.657733986179
 20
5867.807155537321
 30
0.0
 11
5932.657733986179
 21
5393.790925320489
 31
0.0
  0
INSERT
  5
272BA
330
254FE
100
AcDbEntity
  8
寸法
 62
     0
 48
50.0
370
    -2
100
AcDbBlockReference
  2
_DOTSMALL
 10
5932.657733986179
 20
5990.807155537323
 30
0.0
 41
100.0
 42
100.0
 43
100.0
 50
90.0
  0
INSERT
  5
272BB
330
254FE
100
AcDbEntity
  8
寸法
 62
     0
 48
50.0
370
    -2
100
AcDbBlockReference
  2
_DOTSMALL
 10
5932.657733986179
 20
5867.807155537321
 30
0.0
 41
100.0
 42
100.0
 43
100.0
 50
270.0
  0
MTEXT
  5
272BC
330
254FE
100
AcDbEntity
  8
寸法
 62
     7
 48
50.0
100
AcDbMText
 10
5832.645922962556
 20
5532.276206694729
 30
0.0
 40
120.0
 41
0.0
 71
     5
 72
     1
  1
\A1;123
  7
STYLE1
 11
0.0000000000000001
 21
1.0
 31
0.0
 73
     1
 44
1.0
1001
ACAD
1000
MTEXTBEGIN
1070
    73
1070
     1
1070
    44
1040
1.0
1070
    74
1070
     0
1000
MTEXTEND
  0
POINT
  5
272BD
330
254FE
100
AcDbEntity
  8
DEFPOINTS
 62
     0
 48
50.0
100
AcDbPoint
 10
6501.600000000007
 20
5990.807155537322
 30
0.0
  0
POINT
  5
272BE
330
254FE
100
AcDbEntity
  8
DEFPOINTS
 62
     0
 48
50.0
100
AcDbPoint
 10
6428.6
 20
5867.80715553732
 30
0.0
  0
POINT
  5
272BF
330
254FE
100
AcDbEntity
  8
DEFPOINTS
 62
     0
 48
50.0
100
AcDbPoint
 10
5932.657733986179
 20
5867.807155537321
 30
0.0
  0
ENDBLK
  5
2550A
330
254FE
100
AcDbEntity
  8
0
 48
50.0
100
AcDbBlockEnd
  0
BLOCK
  5
25515
330
2550B
100
AcDbEntity
  8
0
 48
50.0
100
AcDbBlockBegin
  2
*D20
 70
     1
 10
0.0
 20
0.0
 30
0.0
  3
*D20
  1

  0
LINE
  5
272AD
330
2550B
100
AcDbEntity
  8
寸法
 62
     0
 48
50.0
370
    -2
100
AcDbLine
 10
6408.599999999999
 20
8507.807155537321
 30
0.0
 11
5627.164931848211
 21
8507.807155537321
 31
0.0
  0
LINE
  5
272AE
330
2550B
100
AcDbEntity
  8
寸法
 62
     0
 48
50.0
370
    -2
100
AcDbLine
 10
6408.599999999999
 20
5867.80715553732
 30
0.0
 11
5627.16493184821
 21
5867.807155537321
 31
0.0
  0
LINE
  5
272AF
330
2550B
100
AcDbEntity
  8
寸法
 62
     0
 48
50.0
370
    -2
100
AcDbLine
 10
5687.164931848212
 20
8507.807155537321
 30
0.0
 11
5687.164931848211
 21
5867.807155537321
 31
0.0
  0
INSERT
  5
272B0
330
2550B
100
AcDbEntity
  8
寸法
 62
     0
 48
50.0
370
    -2
100
AcDbBlockReference
  2
_DOTSMALL
 10
5687.164931848212
 20
8507.807155537321
 30
0.0
 41
100.0
 42
100.0
 43
100.0
 50
90.0
  0
INSERT
  5
272B1
330
2550B
100
AcDbEntity
  8
寸法
 62
     0
 48
50.0
370
    -2
100
AcDbBlockReference
  2
_DOTSMALL
 10
5687.164931848211
 20
5867.807155537321
 30
0.0
 41
100.0
 42
100.0
 43
100.0
 50
270.0
  0
MTEXT
  5
272B2
330
2550B
100
AcDbEntity
  8
寸法
 62
     7
 48
50.0
100
AcDbMText
 10
5587.153120824588
 20
7187.807155537322
 30
0.0
 40
120.0
 41
0.0
 71
     5
 72
     1
  1
\A1;2640
  7
STYLE1
 11
0.0000000000000001
 21
1.0
 31
0.0
 73
     1
 44
1.0
1001
ACAD
1000
MTEXTBEGIN
1070
    73
1070
     1
1070
    44
1040
1.0
1070
    74
1070
     0
1000
MTEXTEND
  0
POINT
  5
272B3
330
2550B
100
AcDbEntity
  8
DEFPOINTS
 62
     0
 48
50.0
100
AcDbPoint
 10
6428.6
 20
8507.807155537321
 30
0.0
  0
POINT
  5
272B4
330
2550B
100
AcDbEntity
  8
DEFPOINTS
 62
     0
 48
50.0
100
AcDbPoint
 10
6428.6
 20
5867.80715553732
 30
0.0
  0
POINT
  5
272B5
330
2550B
100
AcDbEntity
  8
DEFPOINTS
 62
     0
 48
50.0
100
AcDbPoint
 10
5687.164931848211
 20
5867.807155537321
 30
0.0
  0
ENDBLK
  5
25516
330
2550B
100
AcDbEntity
  8
0
 48
50.0
100
AcDbBlockEnd
  0
BLOCK
  5
25521
330
25517
100
AcDbEntity
  8
0
 48
50.0
100
AcDbBlockBegin
  2
*D21
 70
     1
 10
0.0
 20
0.0
 30
0.0
  3
*D21
  1

  0
LINE
  5
272A4
330
25517
100
AcDbEntity
  8
寸法
 62
     0
 48
50.0
370
    -2
100
AcDbLine
 10
6481.6
 20
8384.807155537322
 30
0.0
 11
5872.657733986179
 21
8384.807155537322
 31
0.0
  0
LINE
  5
272A5
330
25517
100
AcDbEntity
  8
寸法
 62
     0
 48
50.0
370
    -2
100
AcDbLine
 10
6481.600000000007
 20
5990.807155537322
 30
0.0
 11
5872.657733986177
 21
5990.807155537323
 31
0.0
  0
LINE
  5
272A6
330
25517
100
AcDbEntity
  8
寸法
 62
     0
 48
50.0
370
    -2
100
AcDbLine
 10
5932.657733986179
 20
8384.807155537322
 30
0.0
 11
5932.657733986178
 21
5990.807155537323
 31
0.0
  0
INSERT
  5
272A7
330
25517
100
AcDbEntity
  8
寸法
 62
     0
 48
50.0
370
    -2
100
AcDbBlockReference
  2
_DOTSMALL
 10
5932.657733986179
 20
8384.807155537322
 30
0.0
 41
100.0
 42
100.0
 43
100.0
 50
90.0
  0
INSERT
  5
272A8
330
25517
100
AcDbEntity
  8
寸法
 62
     0
 48
50.0
370
    -2
100
AcDbBlockReference
  2
_DOTSMALL
 10
5932.657733986178
 20
5990.807155537323
 30
0.0
 41
100.0
 42
100.0
 43
100.0
 50
270.0
  0
MTEXT
  5
272A9
330
25517
100
AcDbEntity
  8
寸法
 62
     7
 48
50.0
100
AcDbMText
 10
5832.645922962555
 20
7187.807155537324
 30
0.0
 40
120.0
 41
0.0
 71
     5
 72
     1
  1
\A1;2394
  7
STYLE1
 11
0.0000000000000001
 21
1.0
 31
0.0
 73
     1
 44
1.0
1001
ACAD
1000
MTEXTBEGIN
1070
    73
1070
     1
1070
    44
1040
1.0
1070
    74
1070
     0
1000
MTEXTEND
  0
POINT
  5
272AA
330
25517
100
AcDbEntity
  8
DEFPOINTS
 62
     0
 48
50.0
100
AcDbPoint
 10
6501.6
 20
8384.807155537322
 30
0.0
  0
POINT
  5
272AB
330
25517
100
AcDbEntity
  8
DEFPOINTS
 62
     0
 48
50.0
100
AcDbPoint
 10
6501.600000000007
 20
5990.807155537322
 30
0.0
  0
POINT
  5
272AC
330
25517
100
AcDbEntity
  8
DEFPOINTS
 62
     0
 48
50.0
100
AcDbPoint
 10
5932.657733986178
 20
5990.807155537323
 30
0.0
  0
ENDBLK
  5
25522
330
25517
100
AcDbEntity
  8
0
 48
50.0
100
AcDbBlockEnd
  0
BLOCK
  5
2552D
330
25523
100
AcDbEntity
  8
0
 48
50.0
100
AcDbBlockBegin
  2
*D22
 70
     1
 10
0.0
 20
0.0
 30
0.0
  3
*D22
  1

  0
LINE
  5
2729B
330
25523
100
AcDbEntity
  8
寸法
 62
     0
 48
50.0
370
    -2
100
AcDbLine
 10
9895.600000000001
 20
8454.807155537322
 30
0.0
 11
9895.600000000001
 21
9313.566782079403
 31
0.0
  0
LINE
  5
2729C
330
25523
100
AcDbEntity
  8
寸法
 62
     0
 48
50.0
370
    -2
100
AcDbLine
 10
8105.6
 20
8454.807155537322
 30
0.0
 11
8105.6
 21
9313.566782079403
 31
0.0
  0
LINE
  5
2729D
330
25523
100
AcDbEntity
  8
寸法
 62
     0
 48
50.0
370
    -2
100
AcDbLine
 10
9895.600000000001
 20
9253.566782079404
 30
0.0
 11
8105.6
 21
9253.566782079404
 31
0.0
  0
INSERT
  5
2729E
330
25523
100
AcDbEntity
  8
寸法
 62
     0
 48
50.0
370
    -2
100
AcDbBlockReference
  2
_DOTSMALL
 10
9895.600000000001
 20
9253.566782079404
 30
0.0
 41
100.0
 42
100.0
 43
100.0
  0
INSERT
  5
2729F
330
25523
100
AcDbEntity
  8
寸法
 62
     0
 48
50.0
370
    -2
100
AcDbBlockReference
  2
_DOTSMALL
 10
8105.6
 20
9253.566782079404
 30
0.0
 41
100.0
 42
100.0
 43
100.0
 50
180.0
  0
MTEXT
  5
272A0
330
25523
100
AcDbEntity
  8
寸法
 62
     7
 48
50.0
100
AcDbMText
 10
9000.6
 20
9353.566782079404
 30
0.0
 40
120.0
 41
0.0
 71
     5
 72
     1
  1
\A1;1790
  7
STYLE1
 73
     1
 44
1.0
1001
ACAD
1000
MTEXTBEGIN
1070
    73
1070
     1
1070
    44
1040
1.0
1070
    74
1070
     0
1000
MTEXTEND
  0
POINT
  5
272A1
330
25523
100
AcDbEntity
  8
DEFPOINTS
 62
     0
 48
50.0
100
AcDbPoint
 10
9895.600000000001
 20
8434.80715553732
 30
0.0
  0
POINT
  5
272A2
330
25523
100
AcDbEntity
  8
DEFPOINTS
 62
     0
 48
50.0
100
AcDbPoint
 10
8105.6
 20
8434.80715553732
 30
0.0
  0
POINT
  5
272A3
330
25523
100
AcDbEntity
  8
DEFPOINTS
 62
     0
 48
50.0
100
AcDbPoint
 10
8105.6
 20
9253.566782079404
 30
0.0
  0
ENDBLK
  5
2552E
330
25523
100
AcDbEntity
  8
0
 48
50.0
100
AcDbBlockEnd
  0
BLOCK
  5
25539
330
2552F
100
AcDbEntity
  8
0
 48
50.0
100
AcDbBlockBegin
  2
*D23
 70
     1
 10
0.0
 20
0.0
 30
0.0
  3
*D23
  1

  0
LINE
  5
27292
330
2552F
100
AcDbEntity
  8
寸法
 62
     0
 48
50.0
370
    -2
100
AcDbLine
 10
9118.6
 20
7702.807155537323
 30
0.0
 11
9118.6
 21
9094.716921185648
 31
0.0
  0
LINE
  5
27293
330
2552F
100
AcDbEntity
  8
寸法
 62
     0
 48
50.0
370
    -2
100
AcDbLine
 10
8223.600000000001
 20
7702.807155537325
 30
0.0
 11
8223.600000000001
 21
9094.716921185648
 31
0.0
  0
LINE
  5
27294
330
2552F
100
AcDbEntity
  8
寸法
 62
     0
 48
50.0
370
    -2
100
AcDbLine
 10
9118.6
 20
9034.716921185649
 30
0.0
 11
8223.600000000001
 21
9034.716921185649
 31
0.0
  0
INSERT
  5
27295
330
2552F
100
AcDbEntity
  8
寸法
 62
     0
 48
50.0
370
    -2
100
AcDbBlockReference
  2
_DOTSMALL
 10
9118.6
 20
9034.716921185649
 30
0.0
 41
100.0
 42
100.0
 43
100.0
  0
INSERT
  5
27296
330
2552F
100
AcDbEntity
  8
寸法
 62
     0
 48
50.0
370
    -2
100
AcDbBlockReference
  2
_DOTSMALL
 10
8223.600000000001
 20
9034.716921185649
 30
0.0
 41
100.0
 42
100.0
 43
100.0
 50
180.0
  0
MTEXT
  5
27297
330
2552F
100
AcDbEntity
  8
寸法
 62
     7
 48
50.0
100
AcDbMText
 10
8671.1
 20
9134.716921185649
 30
0.0
 40
120.0
 41
0.0
 71
     5
 72
     1
  1
\A1;895
  7
STYLE1
 73
     1
 44
1.0
1001
ACAD
1000
MTEXTBEGIN
1070
    73
1070
     1
1070
    44
1040
1.0
1070
    74
1070
     0
1000
MTEXTEND
  0
POINT
  5
27298
330
2552F
100
AcDbEntity
  8
DEFPOINTS
 62
     0
 48
50.0
100
AcDbPoint
 10
9118.6
 20
7682.807155537322
 30
0.0
  0
POINT
  5
27299
330
2552F
100
AcDbEntity
  8
DEFPOINTS
 62
     0
 48
50.0
100
AcDbPoint
 10
8223.600000000001
 20
7682.807155537324
 30
0.0
  0
POINT
  5
2729A
330
2552F
100
AcDbEntity
  8
DEFPOINTS
 62
     0
 48
50.0
100
AcDbPoint
 10
8223.600000000001
 20
9034.716921185649
 30
0.0
  0
ENDBLK
  5
2553A
330
2552F
100
AcDbEntity
  8
0
 48
50.0
100
AcDbBlockEnd
  0
BLOCK
  5
25545
330
2553B
100
AcDbEntity
  8
0
 48
50.0
100
AcDbBlockBegin
  2
*D24
 70
     1
 10
0.0
 20
0.0
 30
0.0
  3
*D24
  1

  0
LINE
  5
27289
330
2553B
100
AcDbEntity
  8
寸法
 62
     0
 48
50.0
370
    -2
100
AcDbLine
 10
6428.6
 20
8527.807155537322
 30
0.0
 11
6428.6
 21
9526.027477596242
 31
0.0
  0
LINE
  5
2728A
330
2553B
100
AcDbEntity
  8
寸法
 62
     0
 48
50.0
370
    -2
100
AcDbLine
 10
10018.6
 20
8527.807155537322
 30
0.0
 11
10018.6
 21
9526.027477596242
 31
0.0
  0
LINE
  5
2728B
330
2553B
100
AcDbEntity
  8
寸法
 62
     0
 48
50.0
370
    -2
100
AcDbLine
 10
6428.6
 20
9466.02747759624
 30
0.0
 11
10018.6
 21
9466.02747759624
 31
0.0
  0
INSERT
  5
2728C
330
2553B
100
AcDbEntity
  8
寸法
 62
     0
 48
50.0
370
    -2
100
AcDbBlockReference
  2
_DOTSMALL
 10
6428.6
 20
9466.02747759624
 30
0.0
 41
100.0
 42
100.0
 43
100.0
 50
180.0
  0
INSERT
  5
2728D
330
2553B
100
AcDbEntity
  8
寸法
 62
     0
 48
50.0
370
    -2
100
AcDbBlockReference
  2
_DOTSMALL
 10
10018.6
 20
9466.02747759624
 30
0.0
 41
100.0
 42
100.0
 43
100.0
  0
MTEXT
  5
2728E
330
2553B
100
AcDbEntity
  8
寸法
 62
     7
 48
50.0
100
AcDbMText
 10
8223.600000000001
 20
9566.027477596241
 30
0.0
 40
120.0
 41
0.0
 71
     5
 72
     1
  1
\A1;3590
  7
STYLE1
 73
     1
 44
1.0
1001
ACAD
1000
MTEXTBEGIN
1070
    73
1070
     1
1070
    44
1040
1.0
1070
    74
1070
     0
1000
MTEXTEND
  0
POINT
  5
2728F
330
2553B
100
AcDbEntity
  8
DEFPOINTS
 62
     0
 48
50.0
100
AcDbPoint
 10
6428.6
 20
8507.807155537321
 30
0.0
  0
POINT
  5
27290
330
2553B
100
AcDbEntity
  8
DEFPOINTS
 62
     0
 48
50.0
100
AcDbPoint
 10
10018.6
 20
8507.807155537321
 30
0.0
  0
POINT
  5
27291
330
2553B
100
AcDbEntity
  8
DEFPOINTS
 62
     0
 48
50.0
100
AcDbPoint
 10
10018.6
 20
9466.02747759624
 30
0.0
  0
ENDBLK
  5
25546
330
2553B
100
AcDbEntity
  8
0
 48
50.0
100
AcDbBlockEnd
  0
BLOCK
  5
25552
330
25547
100
AcDbEntity
  8
0
 48
50.0
100
AcDbBlockBegin
  2
*D25
 70
     1
 10
0.0
 20
0.0
 30
0.0
  3
*D25
  1

  0
LINE
  5
2727F
330
25547
100
AcDbEntity
  8
寸法
 62
     0
 48
50.0
370
    -2
100
AcDbLine
 10
8327.419180988162
 20
5867.807155537349
 30
0.0
 11
8743.488170133344
 21
5867.807155537349
 31
0.0
  0
LINE
  5
27280
330
25547
100
AcDbEntity
  8
寸法
 62
     0
 48
50.0
370
    -2
100
AcDbLine
 10
8765.378282421282
 20
5987.807155537334
 30
0.0
 11
8623.488170133343
 21
5987.807155537334
 31
0.0
  0
LINE
  5
27281
330
25547
100
AcDbEntity
  8
寸法
 62
     0
 48
50.0
370
    -2
100
AcDbLine
 10
8683.488170133342
 20
5987.807155537334
 30
0.0
 11
8683.488170133342
 21
5867.807155537349
 31
0.0
  0
LINE
  5
27282
330
25547
100
AcDbEntity
  8
寸法
 62
     0
 48
50.0
370
    -2
100
AcDbLine
 10
8683.488170133342
 20
5867.807155537349
 30
0.0
 11
8683.488170133342
 21
5495.712667348372
 31
0.0
  0
INSERT
  5
27283
330
25547
100
AcDbEntity
  8
寸法
 62
     0
 48
50.0
370
    -2
100
AcDbBlockReference
  2
_DOTSMALL
 10
8683.488170133342
 20
5987.807155537334
 30
0.0
 41
100.0
 42
100.0
 43
100.0
 50
90.0
  0
INSERT
  5
27284
330
25547
100
AcDbEntity
  8
寸法
 62
     0
 48
50.0
370
    -2
100
AcDbBlockReference
  2
_DOTSMALL
 10
8683.488170133342
 20
5867.807155537349
 30
0.0
 41
100.0
 42
100.0
 43
100.0
 50
270.0
  0
MTEXT
  5
27285
330
25547
100
AcDbEntity
  8
寸法
 62
     7
 48
50.0
100
AcDbMText
 10
8583.47635910972
 20
5631.75991144286
 30
0.0
 40
120.0
 41
0.0
 71
     5
 72
     1
  1
\A1;120
  7
STYLE1
 11
0.0000000000000001
 21
1.0
 31
0.0
 73
     1
 44
1.0
1001
ACAD
1000
MTEXTBEGIN
1070
    73
1070
     1
1070
    44
1040
1.0
1070
    74
1070
     0
1000
MTEXTEND
  0
POINT
  5
27286
330
25547
100
AcDbEntity
  8
DEFPOINTS
 62
     0
 48
50.0
100
AcDbPoint
 10
8307.41918098816
 20
5867.807155537349
 30
0.0
  0
POINT
  5
27287
330
25547
100
AcDbEntity
  8
DEFPOINTS
 62
     0
 48
50.0
100
AcDbPoint
 10
8785.378282421282
 20
5987.807155537334
 30
0.0
  0
POINT
  5
27288
330
25547
100
AcDbEntity
  8
DEFPOINTS
 62
     0
 48
50.0
100
AcDbPoint
 10
8683.488170133342
 20
5987.807155537334
 30
0.0
  0
ENDBLK
  5
25553
330
25547
100
AcDbEntity
  8
0
 48
50.0
100
AcDbBlockEnd
  0
BLOCK
  5
2555F
330
25554
100
AcDbEntity
  8
0
 48
50.0
100
AcDbBlockBegin
  2
*D26
 70
     1
 10
0.0
 20
0.0
 30
0.0
  3
*D26
  1

  0
LINE
  5
27275
330
25554
100
AcDbEntity
  8
寸法
 62
     0
 48
50.0
370
    -2
100
AcDbLine
 10
8765.378282421282
 20
5987.807155537334
 30
0.0
 11
8623.488170133343
 21
5987.807155537334
 31
0.0
  0
LINE
  5
27276
330
25554
100
AcDbEntity
  8
寸法
 62
     0
 48
50.0
370
    -2
100
AcDbLine
 10
8255.600000000001
 20
6097.807155537338
 30
0.0
 11
8743.488170133344
 21
6097.807155537338
 31
0.0
  0
LINE
  5
27277
330
25554
100
AcDbEntity
  8
寸法
 62
     0
 48
50.0
370
    -2
100
AcDbLine
 10
8683.488170133342
 20
5987.807155537334
 30
0.0
 11
8683.488170133342
 21
6097.807155537338
 31
0.0
  0
LINE
  5
27278
330
25554
100
AcDbEntity
  8
寸法
 62
     0
 48
50.0
370
    -2
100
AcDbLine
 10
8683.488170133342
 20
6097.807155537338
 30
0.0
 11
8683.488170133342
 21
6509.103507188218
 31
0.0
  0
INSERT
  5
27279
330
25554
100
AcDbEntity
  8
寸法
 62
     0
 48
50.0
370
    -2
100
AcDbBlockReference
  2
_DOTSMALL
 10
8683.488170133342
 20
5987.807155537334
 30
0.0
 41
100.0
 42
100.0
 43
100.0
 50
270.0
  0
INSERT
  5
2727A
330
25554
100
AcDbEntity
  8
寸法
 62
     0
 48
50.0
370
    -2
100
AcDbBlockReference
  2
_DOTSMALL
 10
8683.488170133342
 20
6097.807155537338
 30
0.0
 41
100.0
 42
100.0
 43
100.0
 50
90.0
  0
MTEXT
  5
2727B
330
25554
100
AcDbEntity
  8
寸法
 62
     7
 48
50.0
100
AcDbMText
 10
8583.488170133341
 20
6385.056263093731
 30
0.0
 40
120.0
 41
0.0
 71
     5
 72
     1
  1
\A1;110
  7
STYLE1
 11
0.0000000000000001
 21
1.0
 31
0.0
 73
     1
 44
1.0
1001
ACAD
1000
MTEXTBEGIN
1070
    73
1070
     1
1070
    44
1040
1.0
1070
    74
1070
     0
1000
MTEXTEND
  0
POINT
  5
2727C
330
25554
100
AcDbEntity
  8
DEFPOINTS
 62
     0
 48
50.0
100
AcDbPoint
 10
8785.378282421282
 20
5987.807155537334
 30
0.0
  0
POINT
  5
2727D
330
25554
100
AcDbEntity
  8
DEFPOINTS
 62
     0
 48
50.0
100
AcDbPoint
 10
8235.600000000001
 20
6097.807155537338
 30
0.0
  0
POINT
  5
2727E
330
25554
100
AcDbEntity
  8
DEFPOINTS
 62
     0
 48
50.0
100
AcDbPoint
 10
8683.488170133342
 20
6097.807155537338
 30
0.0
  0
ENDBLK
  5
25560
330
25554
100
AcDbEntity
  8
0
 48
50.0
100
AcDbBlockEnd
  0
BLOCK
  5
2556D
330
25561
100
AcDbEntity
  8
0
 48
50.0
100
AcDbBlockBegin
  2
*D27
 70
     1
 10
0.0
 20
0.0
 30
0.0
  3
*D27
  1

  0
LINE
  5
2726A
330
25561
100
AcDbEntity
  8
寸法
 62
     0
 48
50.0
370
    -2
100
AcDbLine
 10
6408.600000000008
 20
5867.807155537362
 30
0.0
 11
5627.164931848214
 21
5867.807155537363
 31
0.0
  0
LINE
  5
2726B
330
25561
100
AcDbEntity
  8
寸法
 62
     0
 48
50.0
370
    -2
100
AcDbLine
 10
5912.657733986182
 20
5812.807155537331
 30
0.0
 11
5627.164931848214
 21
5812.807155537331
 31
0.0
  0
LINE
  5
2726C
330
25561
100
AcDbEntity
  8
寸法
 62
     0
 48
50.0
370
    -2
100
AcDbLine
 10
5687.164931848214
 20
5867.807155537363
 30
0.0
 11
5687.164931848214
 21
5967.807155537363
 31
0.0
  0
LINE
  5
2726D
330
25561
100
AcDbEntity
  8
寸法
 62
     0
 48
50.0
370
    -2
100
AcDbLine
 10
5687.164931848214
 20
5812.807155537331
 30
0.0
 11
5687.164931848214
 21
5712.807155537332
 31
0.0
  0
LINE
  5
2726E
330
25561
100
AcDbEntity
  8
寸法
 62
     0
 48
50.0
370
    -2
100
AcDbLine
 10
5687.164931848214
 20
5867.807155537363
 30
0.0
 11
5687.164931848214
 21
5812.807155537331
 31
0.0
  0
INSERT
  5
2726F
330
25561
100
AcDbEntity
  8
寸法
 62
     0
 48
50.0
370
    -2
100
AcDbBlockReference
  2
_DOTSMALL
 10
5687.164931848214
 20
5867.807155537363
 30
0.0
 41
100.0
 42
100.0
 43
100.0
 50
270.0
  0
INSERT
  5
27270
330
25561
100
AcDbEntity
  8
寸法
 62
     0
 48
50.0
370
    -2
100
AcDbBlockReference
  2
_DOTSMALL
 10
5687.164931848214
 20
5812.807155537331
 30
0.0
 41
100.0
 42
100.0
 43
100.0
 50
90.0
  0
MTEXT
  5
27271
330
25561
100
AcDbEntity
  8
寸法
 62
     7
 48
50.0
100
AcDbMText
 10
5587.164931848214
 20
5840.307155537348
 30
0.0
 40
120.0
 41
0.0
 71
     5
 72
     1
  1
\A1;b
  7
STYLE1
 11
0.0000000000000001
 21
1.0
 31
0.0
 73
     1
 44
1.0
1001
ACAD
1000
MTEXTBEGIN
1070
    73
1070
     1
1070
    44
1040
1.0
1070
    74
1070
     0
1000
MTEXTEND
  0
POINT
  5
27272
330
25561
100
AcDbEntity
  8
DEFPOINTS
 62
     0
 48
50.0
100
AcDbPoint
 10
6428.600000000007
 20
5867.807155537362
 30
0.0
  0
POINT
  5
27273
330
25561
100
AcDbEntity
  8
DEFPOINTS
 62
     0
 48
50.0
100
AcDbPoint
 10
5932.657733986181
 20
5812.807155537331
 30
0.0
  0
POINT
  5
27274
330
25561
100
AcDbEntity
  8
DEFPOINTS
 62
     0
 48
50.0
100
AcDbPoint
 10
5687.164931848214
 20
5812.807155537331
 30
0.0
  0
ENDBLK
  5
2556E
330
25561
100
AcDbEntity
  8
0
 48
50.0
100
AcDbBlockEnd
  0
BLOCK
  5
2557B
330
2556F
100
AcDbEntity
  8
0
 48
50.0
100
AcDbBlockBegin
  2
*D28
 70
     1
 10
0.0
 20
0.0
 30
0.0
  3
*D28
  1

  0
LINE
  5
2725F
330
2556F
100
AcDbEntity
  8
寸法
 62
     0
 48
50.0
370
    -2
100
AcDbLine
 10
5912.657733986182
 20
8582.807155537324
 30
0.0
 11
5627.164931848214
 21
8582.807155537324
 31
0.0
  0
LINE
  5
27260
330
2556F
100
AcDbEntity
  8
寸法
 62
     0
 48
50.0
370
    -2
100
AcDbLine
 10
6408.600000000004
 20
8507.807155537321
 30
0.0
 11
5627.164931848214
 21
8507.807155537321
 31
0.0
  0
LINE
  5
27261
330
2556F
100
AcDbEntity
  8
寸法
 62
     0
 48
50.0
370
    -2
100
AcDbLine
 10
5687.164931848214
 20
8582.807155537324
 30
0.0
 11
5687.164931848214
 21
8682.807155537323
 31
0.0
  0
LINE
  5
27262
330
2556F
100
AcDbEntity
  8
寸法
 62
     0
 48
50.0
370
    -2
100
AcDbLine
 10
5687.164931848214
 20
8507.807155537321
 30
0.0
 11
5687.164931848214
 21
8407.807155537321
 31
0.0
  0
LINE
  5
27263
330
2556F
100
AcDbEntity
  8
寸法
 62
     0
 48
50.0
370
    -2
100
AcDbLine
 10
5687.164931848214
 20
8582.807155537324
 30
0.0
 11
5687.164931848214
 21
8507.807155537321
 31
0.0
  0
INSERT
  5
27264
330
2556F
100
AcDbEntity
  8
寸法
 62
     0
 48
50.0
370
    -2
100
AcDbBlockReference
  2
_DOTSMALL
 10
5687.164931848214
 20
8582.807155537324
 30
0.0
 41
100.0
 42
100.0
 43
100.0
 50
270.0
  0
INSERT
  5
27265
330
2556F
100
AcDbEntity
  8
寸法
 62
     0
 48
50.0
370
    -2
100
AcDbBlockReference
  2
_DOTSMALL
 10
5687.164931848214
 20
8507.807155537321
 30
0.0
 41
100.0
 42
100.0
 43
100.0
 50
90.0
  0
MTEXT
  5
27266
330
2556F
100
AcDbEntity
  8
寸法
 62
     7
 48
50.0
100
AcDbMText
 10
5587.164931848214
 20
8545.307155537324
 30
0.0
 40
120.0
 41
0.0
 71
     5
 72
     1
  1
\A1;c
  7
STYLE1
 11
0.0000000000000001
 21
1.0
 31
0.0
 73
     1
 44
1.0
1001
ACAD
1000
MTEXTBEGIN
1070
    73
1070
     1
1070
    44
1040
1.0
1070
    74
1070
     0
1000
MTEXTEND
  0
POINT
  5
27267
330
2556F
100
AcDbEntity
  8
DEFPOINTS
 62
     0
 48
50.0
100
AcDbPoint
 10
5932.657733986181
 20
8582.807155537324
 30
0.0
  0
POINT
  5
27268
330
2556F
100
AcDbEntity
  8
DEFPOINTS
 62
     0
 48
50.0
100
AcDbPoint
 10
6428.600000000004
 20
8507.807155537321
 30
0.0
  0
POINT
  5
27269
330
2556F
100
AcDbEntity
  8
DEFPOINTS
 62
     0
 48
50.0
100
AcDbPoint
 10
5687.164931848214
 20
8507.807155537321
 30
0.0
  0
ENDBLK
  5
2557C
330
2556F
100
AcDbEntity
  8
0
 48
50.0
100
AcDbBlockEnd
  0
BLOCK
  5
25589
330
2557D
100
AcDbEntity
  8
0
 48
50.0
100
AcDbBlockBegin
  2
*D29
 70
     1
 10
0.0
 20
0.0
 30
0.0
  3
*D29
  1

  0
LINE
  5
27254
330
2557D
100
AcDbEntity
  8
寸法
 62
     0
 48
50.0
370
    -2
100
AcDbLine
 10
6383.600000000008
 20
9273.566782079402
 30
0.0
 11
6383.600000000008
 21
9526.027477596242
 31
0.0
  0
LINE
  5
27255
330
2557D
100
AcDbEntity
  8
寸法
 62
     0
 48
50.0
370
    -2
100
AcDbLine
 10
6428.6
 20
8527.807155537319
 30
0.0
 11
6428.6
 21
9526.027477596242
 31
0.0
  0
LINE
  5
27256
330
2557D
100
AcDbEntity
  8
寸法
 62
     0
 48
50.0
370
    -2
100
AcDbLine
 10
6428.6
 20
9466.02747759624
 30
0.0
 11
6528.6
 21
9466.02747759624
 31
0.0
  0
LINE
  5
27257
330
2557D
100
AcDbEntity
  8
寸法
 62
     0
 48
50.0
370
    -2
100
AcDbLine
 10
6383.600000000008
 20
9466.02747759624
 30
0.0
 11
6046.250757595083
 21
9466.02747759624
 31
0.0
  0
LINE
  5
27258
330
2557D
100
AcDbEntity
  8
寸法
 62
     0
 48
50.0
370
    -2
100
AcDbLine
 10
6428.6
 20
9466.02747759624
 30
0.0
 11
6383.600000000008
 21
9466.02747759624
 31
0.0
  0
INSERT
  5
27259
330
2557D
100
AcDbEntity
  8
寸法
 62
     0
 48
50.0
370
    -2
100
AcDbBlockReference
  2
_DOTSMALL
 10
6428.6
 20
9466.02747759624
 30
0.0
 41
100.0
 42
100.0
 43
100.0
 50
180.0
  0
INSERT
  5
2725A
330
2557D
100
AcDbEntity
  8
寸法
 62
     0
 48
50.0
370
    -2
100
AcDbBlockReference
  2
_DOTSMALL
 10
6383.600000000008
 20
9466.02747759624
 30
0.0
 41
100.0
 42
100.0
 43
100.0
  0
MTEXT
  5
2725B
330
2557D
100
AcDbEntity
  8
寸法
 62
     7
 48
50.0
100
AcDbMText
 10
6112.425378797541
 20
9566.027477596241
 30
0.0
 40
120.0
 41
0.0
 71
     5
 72
     1
  1
\A1;a
  7
STYLE1
 73
     1
 44
1.0
1001
ACAD
1000
MTEXTBEGIN
1070
    73
1070
     1
1070
    44
1040
1.0
1070
    74
1070
     0
1000
MTEXTEND
  0
POINT
  5
2725C
330
2557D
100
AcDbEntity
  8
DEFPOINTS
 62
     0
 48
50.0
100
AcDbPoint
 10
6383.600000000008
 20
9253.566782079403
 30
0.0
  0
POINT
  5
2725D
330
2557D
100
AcDbEntity
  8
DEFPOINTS
 62
     0
 48
50.0
100
AcDbPoint
 10
6428.6
 20
8507.807155537319
 30
0.0
  0
POINT
  5
2725E
330
2557D
100
AcDbEntity
  8
DEFPOINTS
 62
     0
 48
50.0
100
AcDbPoint
 10
6428.6
 20
9466.02747759624
 30
0.0
  0
ENDBLK
  5
2558A
330
2557D
100
AcDbEntity
  8
0
 48
50.0
100
AcDbBlockEnd
  0
BLOCK
  5
25597
330
2558B
100
AcDbEntity
  8
0
 48
50.0
100
AcDbBlockBegin
  2
*D30
 70
     1
 10
0.0
 20
0.0
 30
0.0
  3
*D30
  1

  0
LINE
  5
27249
330
2558B
100
AcDbEntity
  8
寸法
 62
     0
 48
50.0
370
    -2
100
AcDbLine
 10
10018.6
 20
8527.807155537319
 30
0.0
 11
10018.6
 21
9526.027477596242
 31
0.0
  0
LINE
  5
2724A
330
2558B
100
AcDbEntity
  8
寸法
 62
     0
 48
50.0
370
    -2
100
AcDbLine
 10
10063.6
 20
9273.566782079402
 30
0.0
 11
10063.6
 21
9526.027477596242
 31
0.0
  0
LINE
  5
2724B
330
2558B
100
AcDbEntity
  8
寸法
 62
     0
 48
50.0
370
    -2
100
AcDbLine
 10
10018.6
 20
9466.02747759624
 30
0.0
 11
9918.600000000001
 21
9466.02747759624
 31
0.0
  0
LINE
  5
2724C
330
2558B
100
AcDbEntity
  8
寸法
 62
     0
 48
50.0
370
    -2
100
AcDbLine
 10
10063.6
 20
9466.02747759624
 30
0.0
 11
10400.94924240491
 21
9466.02747759624
 31
0.0
  0
LINE
  5
2724D
330
2558B
100
AcDbEntity
  8
寸法
 62
     0
 48
50.0
370
    -2
100
AcDbLine
 10
10018.6
 20
9466.02747759624
 30
0.0
 11
10063.6
 21
9466.02747759624
 31
0.0
  0
INSERT
  5
2724E
330
2558B
100
AcDbEntity
  8
寸法
 62
     0
 48
50.0
370
    -2
100
AcDbBlockReference
  2
_DOTSMALL
 10
10018.6
 20
9466.02747759624
 30
0.0
 41
100.0
 42
100.0
 43
100.0
  0
INSERT
  5
2724F
330
2558B
100
AcDbEntity
  8
寸法
 62
     0
 48
50.0
370
    -2
100
AcDbBlockReference
  2
_DOTSMALL
 10
10063.6
 20
9466.02747759624
 30
0.0
 41
100.0
 42
100.0
 43
100.0
 50
180.0
  0
MTEXT
  5
27250
330
2558B
100
AcDbEntity
  8
寸法
 62
     7
 48
50.0
100
AcDbMText
 10
10334.77462120246
 20
9566.027477596241
 30
0.0
 40
120.0
 41
0.0
 71
     5
 72
     1
  1
\A1;a
  7
STYLE1
 73
     1
 44
1.0
1001
ACAD
1000
MTEXTBEGIN
1070
    73
1070
     1
1070
    44
1040
1.0
1070
    74
1070
     0
1000
MTEXTEND
  0
POINT
  5
27251
330
2558B
100
AcDbEntity
  8
DEFPOINTS
 62
     0
 48
50.0
100
AcDbPoint
 10
10018.6
 20
8507.807155537319
 30
0.0
  0
POINT
  5
27252
330
2558B
100
AcDbEntity
  8
DEFPOINTS
 62
     0
 48
50.0
100
AcDbPoint
 10
10063.6
 20
9253.566782079403
 30
0.0
  0
POINT
  5
27253
330
2558B
100
AcDbEntity
  8
DEFPOINTS
 62
     0
 48
50.0
100
AcDbPoint
 10
10063.6
 20
9466.02747759624
 30
0.0
  0
ENDBLK
  5
25598
330
2558B
100
AcDbEntity
  8
0
 48
50.0
100
AcDbBlockEnd
  0
BLOCK
  5
255A5
330
25599
100
AcDbEntity
  8
0
 48
50.0
100
AcDbBlockBegin
  2
*D31
 70
     1
 10
0.0
 20
0.0
 30
0.0
  3
*D31
  1

  0
LINE
  5
2723E
330
25599
100
AcDbEntity
  8
寸法
 62
     0
 48
50.0
370
    -2
100
AcDbLine
 10
8216.600000000001
 20
5792.807155537342
 30
0.0
 11
8523.202780124334
 21
5792.807155537342
 31
0.0
  0
LINE
  5
2723F
330
25599
100
AcDbEntity
  8
寸法
 62
     0
 48
50.0
370
    -2
100
AcDbLine
 10
8216.600000000008
 20
5867.807155537343
 30
0.0
 11
8523.202780124334
 21
5867.807155537343
 31
0.0
  0
LINE
  5
27240
330
25599
100
AcDbEntity
  8
寸法
 62
     0
 48
50.0
370
    -2
100
AcDbLine
 10
8463.202780124335
 20
5867.807155537343
 30
0.0
 11
8463.202780124335
 21
5967.807155537343
 31
0.0
  0
LINE
  5
27241
330
25599
100
AcDbEntity
  8
寸法
 62
     0
 48
50.0
370
    -2
100
AcDbLine
 10
8463.202780124335
 20
5792.807155537342
 30
0.0
 11
8463.202780124335
 21
4925.836592788865
 31
0.0
  0
LINE
  5
27242
330
25599
100
AcDbEntity
  8
寸法
 62
     0
 48
50.0
370
    -2
100
AcDbLine
 10
8463.202780124335
 20
5867.807155537343
 30
0.0
 11
8463.202780124335
 21
5792.807155537342
 31
0.0
  0
INSERT
  5
27243
330
25599
100
AcDbEntity
  8
寸法
 62
     0
 48
50.0
370
    -2
100
AcDbBlockReference
  2
_DOTSMALL
 10
8463.202780124335
 20
5867.807155537343
 30
0.0
 41
100.0
 42
100.0
 43
100.0
 50
270.0
  0
INSERT
  5
27244
330
25599
100
AcDbEntity
  8
寸法
 62
     0
 48
50.0
370
    -2
100
AcDbBlockReference
  2
_DOTSMALL
 10
8463.202780124335
 20
5792.807155537342
 30
0.0
 41
100.0
 42
100.0
 43
100.0
 50
90.0
  0
MTEXT
  5
27245
330
25599
100
AcDbEntity
  8
寸法
 62
     7
 48
50.0
100
AcDbMText
 10
8363.202780124332
 20
5259.321874163105
 30
0.0
 40
120.0
 41
0.0
 71
     5
 72
     1
  1
\A1;扉の出75
  7
STYLE1
 11
0.0000000000000001
 21
1.0
 31
0.0
 73
     1
 44
1.0
1001
ACAD
1000
MTEXTBEGIN
1070
    73
1070
     1
1070
    44
1040
1.0
1070
    74
1070
     0
1000
MTEXTEND
  0
POINT
  5
27246
330
25599
100
AcDbEntity
  8
DEFPOINTS
 62
     0
 48
50.0
100
AcDbPoint
 10
8196.600000000001
 20
5792.807155537342
 30
0.0
  0
POINT
  5
27247
330
25599
100
AcDbEntity
  8
DEFPOINTS
 62
     0
 48
50.0
100
AcDbPoint
 10
8196.600000000008
 20
5867.807155537343
 30
0.0
  0
POINT
  5
27248
330
25599
100
AcDbEntity
  8
DEFPOINTS
 62
     0
 48
50.0
100
AcDbPoint
 10
8463.202780124335
 20
5867.807155537343
 30
0.0
  0
ENDBLK
  5
255A6
330
25599
100
AcDbEntity
  8
0
 48
50.0
100
AcDbBlockEnd
  0
BLOCK
  5
27186
330
2717C
100
AcDbEntity
  8
0
 48
50.0
100
AcDbBlockBegin
  2
*D32
 70
     1
 10
0.0
 20
0.0
 30
0.0
  3
*D32
  1

  0
LINE
  5
27235
330
2717C
100
AcDbEntity
  8
寸法
 62
     0
 48
50.0
370
    -2
100
AcDbLine
 10
6245.16269140423
 20
2202.966186515549
 30
0.0
 11
6245.16269140423
 21
2642.966186515549
 31
0.0
  0
LINE
  5
27236
330
2717C
100
AcDbEntity
  8
寸法
 62
     0
 48
50.0
370
    -2
100
AcDbLine
 10
6005.162691404229
 20
2202.966186515549
 30
0.0
 11
6005.162691404229
 21
2642.966186515549
 31
0.0
  0
LINE
  5
27237
330
2717C
100
AcDbEntity
  8
寸法
 62
     0
 48
50.0
370
    -2
100
AcDbLine
 10
6245.16269140423
 20
2582.966186515549
 30
0.0
 11
6005.162691404229
 21
2582.966186515549
 31
0.0
  0
INSERT
  5
27238
330
2717C
100
AcDbEntity
  8
寸法
 62
     0
 48
50.0
370
    -2
100
AcDbBlockReference
  2
_DOTSMALL
 10
6245.16269140423
 20
2582.966186515549
 30
0.0
 41
100.0
 42
100.0
 43
100.0
  0
INSERT
  5
27239
330
2717C
100
AcDbEntity
  8
寸法
 62
     0
 48
50.0
370
    -2
100
AcDbBlockReference
  2
_DOTSMALL
 10
6005.162691404229
 20
2582.966186515549
 30
0.0
 41
100.0
 42
100.0
 43
100.0
 50
180.0
  0
MTEXT
  5
2723A
330
2717C
100
AcDbEntity
  8
寸法
 62
     7
 48
50.0
100
AcDbMText
 10
6125.16269140423
 20
2789.006999080352
 30
0.0
 40
120.0
 41
0.0
 71
     5
 72
     1
  1
\A1;120\P(195)
  7
STYLE1
 73
     1
 44
1.0
1001
ACAD
1000
MTEXTBEGIN
1070
    73
1070
     1
1070
    44
1040
1.0
1070
    74
1070
     0
1000
MTEXTEND
  0
POINT
  5
2723B
330
2717C
100
AcDbEntity
  8
DEFPOINTS
 62
     0
 48
50.0
100
AcDbPoint
 10
6245.16269140423
 20
2182.966186515549
 30
0.0
  0
POINT
  5
2723C
330
2717C
100
AcDbEntity
  8
DEFPOINTS
 62
     0
 48
50.0
100
AcDbPoint
 10
6005.162691404229
 20
2182.966186515549
 30
0.0
  0
POINT
  5
2723D
330
2717C
100
AcDbEntity
  8
DEFPOINTS
 62
     0
 48
50.0
100
AcDbPoint
 10
6005.162691404229
 20
2582.966186515549
 30
0.0
  0
ENDBLK
  5
27187
330
2717C
100
AcDbEntity
  8
0
 48
50.0
100
AcDbBlockEnd
  0
BLOCK
  5
27192
330
27188
100
AcDbEntity
  8
0
 48
50.0
100
AcDbBlockBegin
  2
*D33
 70
     1
 10
0.0
 20
0.0
 30
0.0
  3
*D33
  1

  0
LINE
  5
2722C
330
27188
100
AcDbEntity
  8
寸法
 62
     0
 48
50.0
370
    -2
100
AcDbLine
 10
5825.162691404229
 20
1502.966186515548
 30
0.0
 11
5607.137299238655
 21
1502.966186515549
 31
0.0
  0
LINE
  5
2722D
330
27188
100
AcDbEntity
  8
寸法
 62
     0
 48
50.0
370
    -2
100
AcDbLine
 10
5725.162691404235
 20
1202.966186515548
 30
0.0
 11
5607.137299238655
 21
1202.966186515548
 31
0.0
  0
LINE
  5
2722E
330
27188
100
AcDbEntity
  8
寸法
 62
     0
 48
50.0
370
    -2
100
AcDbLine
 10
5667.137299238655
 20
1502.966186515548
 30
0.0
 11
5667.137299238655
 21
1202.966186515548
 31
0.0
  0
INSERT
  5
2722F
330
27188
100
AcDbEntity
  8
寸法
 62
     0
 48
50.0
370
    -2
100
AcDbBlockReference
  2
_DOTSMALL
 10
5667.137299238655
 20
1502.966186515548
 30
0.0
 41
100.0
 42
100.0
 43
100.0
 50
90.0
  0
INSERT
  5
27230
330
27188
100
AcDbEntity
  8
寸法
 62
     0
 48
50.0
370
    -2
100
AcDbBlockReference
  2
_DOTSMALL
 10
5667.137299238655
 20
1202.966186515548
 30
0.0
 41
100.0
 42
100.0
 43
100.0
 50
270.0
  0
MTEXT
  5
27231
330
27188
100
AcDbEntity
  8
寸法
 62
     7
 48
50.0
100
AcDbMText
 10
5567.137299238655
 20
1352.966186515549
 30
0.0
 40
120.0
 41
0.0
 71
     5
 72
     1
  1
\A1;150
  7
STYLE1
 11
0.0000000000000001
 21
1.0
 31
0.0
 73
     1
 44
1.0
1001
ACAD
1000
MTEXTBEGIN
1070
    73
1070
     1
1070
    44
1040
1.0
1070
    74
1070
     0
1000
MTEXTEND
  0
POINT
  5
27232
330
27188
100
AcDbEntity
  8
DEFPOINTS
 62
     0
 48
50.0
100
AcDbPoint
 10
5845.16269140423
 20
1502.966186515548
 30
0.0
  0
POINT
  5
27233
330
27188
100
AcDbEntity
  8
DEFPOINTS
 62
     0
 48
50.0
100
AcDbPoint
 10
5745.162691404234
 20
1202.966186515548
 30
0.0
  0
POINT
  5
27234
330
27188
100
AcDbEntity
  8
DEFPOINTS
 62
     0
 48
50.0
100
AcDbPoint
 10
5667.137299238655
 20
1202.966186515548
 30
0.0
  0
ENDBLK
  5
27193
330
27188
100
AcDbEntity
  8
0
 48
50.0
100
AcDbBlockEnd
  0
BLOCK
  5
2719E
330
27194
100
AcDbEntity
  8
0
 48
50.0
100
AcDbBlockBegin
  2
*D34
 70
     1
 10
0.0
 20
0.0
 30
0.0
  3
*D34
  1

  0
LINE
  5
27223
330
27194
100
AcDbEntity
  8
寸法
 62
     0
 48
50.0
370
    -2
100
AcDbLine
 10
5845.16269140423
 20
1022.966186515548
 30
0.0
 11
5845.16269140423
 21
684.0140800596145
 31
0.0
  0
LINE
  5
27224
330
27194
100
AcDbEntity
  8
寸法
 62
     0
 48
50.0
370
    -2
100
AcDbLine
 10
6405.162691404232
 20
1022.966186515548
 30
0.0
 11
6405.162691404232
 21
684.0140800596145
 31
0.0
  0
LINE
  5
27225
330
27194
100
AcDbEntity
  8
寸法
 62
     0
 48
50.0
370
    -2
100
AcDbLine
 10
5845.16269140423
 20
744.0140800596146
 30
0.0
 11
6405.162691404232
 21
744.0140800596146
 31
0.0
  0
INSERT
  5
27226
330
27194
100
AcDbEntity
  8
寸法
 62
     0
 48
50.0
370
    -2
100
AcDbBlockReference
  2
_DOTSMALL
 10
5845.16269140423
 20
744.0140800596146
 30
0.0
 41
100.0
 42
100.0
 43
100.0
 50
180.0
  0
INSERT
  5
27227
330
27194
100
AcDbEntity
  8
寸法
 62
     0
 48
50.0
370
    -2
100
AcDbBlockReference
  2
_DOTSMALL
 10
6405.162691404232
 20
744.0140800596146
 30
0.0
 41
100.0
 42
100.0
 43
100.0
  0
MTEXT
  5
27228
330
27194
100
AcDbEntity
  8
寸法
 62
     7
 48
50.0
100
AcDbMText
 10
6125.16269140423
 20
844.0140800596145
 30
0.0
 40
120.0
 41
0.0
 71
     5
 72
     1
  1
\A1;300
  7
STYLE1
 73
     1
 44
1.0
1001
ACAD
1000
MTEXTBEGIN
1070
    73
1070
     1
1070
    44
1040
1.0
1070
    74
1070
     0
1000
MTEXTEND
  0
POINT
  5
27229
330
27194
100
AcDbEntity
  8
DEFPOINTS
 62
     0
 48
50.0
100
AcDbPoint
 10
5845.16269140423
 20
1042.966186515548
 30
0.0
  0
POINT
  5
2722A
330
27194
100
AcDbEntity
  8
DEFPOINTS
 62
     0
 48
50.0
100
AcDbPoint
 10
6405.162691404232
 20
1042.966186515548
 30
0.0
  0
POINT
  5
2722B
330
27194
100
AcDbEntity
  8
DEFPOINTS
 62
     0
 48
50.0
100
AcDbPoint
 10
6405.162691404232
 20
744.0140800596146
 30
0.0
  0
ENDBLK
  5
2719F
330
27194
100
AcDbEntity
  8
0
 48
50.0
100
AcDbBlockEnd
  0
BLOCK
  5
271AA
330
271A0
100
AcDbEntity
  8
0
 48
50.0
100
AcDbBlockBegin
  2
*D35
 70
     1
 10
0.0
 20
0.0
 30
0.0
  3
*D35
  1

  0
LINE
  5
2721A
330
271A0
100
AcDbEntity
  8
寸法
 62
     0
 48
50.0
370
    -2
100
AcDbLine
 10
5985.162691404229
 20
2182.966186515549
 30
0.0
 11
5184.517753368166
 21
2182.966186515549
 31
0.0
  0
LINE
  5
2721B
330
271A0
100
AcDbEntity
  8
寸法
 62
     0
 48
50.0
370
    -2
100
AcDbLine
 10
5725.162691404235
 20
1202.966186515548
 30
0.0
 11
5184.517753368165
 21
1202.966186515548
 31
0.0
  0
LINE
  5
2721C
330
271A0
100
AcDbEntity
  8
寸法
 62
     0
 48
50.0
370
    -2
100
AcDbLine
 10
5244.517753368167
 20
2182.966186515549
 30
0.0
 11
5244.517753368166
 21
1202.966186515548
 31
0.0
  0
INSERT
  5
2721D
330
271A0
100
AcDbEntity
  8
寸法
 62
     0
 48
50.0
370
    -2
100
AcDbBlockReference
  2
_DOTSMALL
 10
5244.517753368167
 20
2182.966186515549
 30
0.0
 41
100.0
 42
100.0
 43
100.0
 50
90.0
  0
INSERT
  5
2721E
330
271A0
100
AcDbEntity
  8
寸法
 62
     0
 48
50.0
370
    -2
100
AcDbBlockReference
  2
_DOTSMALL
 10
5244.517753368166
 20
1202.966186515548
 30
0.0
 41
100.0
 42
100.0
 43
100.0
 50
270.0
  0
MTEXT
  5
2721F
330
271A0
100
AcDbEntity
  8
寸法
 62
     7
 48
50.0
100
AcDbMText
 10
5144.517753368166
 20
1692.966186515548
 30
0.0
 40
120.0
 41
0.0
 71
     5
 72
     1
  1
\A1;540
  7
STYLE1
 11
0.0000000000000001
 21
1.0
 31
0.0
 73
     1
 44
1.0
1001
ACAD
1000
MTEXTBEGIN
1070
    73
1070
     1
1070
    44
1040
1.0
1070
    74
1070
     0
1000
MTEXTEND
  0
POINT
  5
27220
330
271A0
100
AcDbEntity
  8
DEFPOINTS
 62
     0
 48
50.0
100
AcDbPoint
 10
6005.162691404229
 20
2182.966186515549
 30
0.0
  0
POINT
  5
27221
330
271A0
100
AcDbEntity
  8
DEFPOINTS
 62
     0
 48
50.0
100
AcDbPoint
 10
5745.162691404234
 20
1202.966186515548
 30
0.0
  0
POINT
  5
27222
330
271A0
100
AcDbEntity
  8
DEFPOINTS
 62
     0
 48
50.0
100
AcDbPoint
 10
5244.517753368166
 20
1202.966186515548
 30
0.0
  0
ENDBLK
  5
271AB
330
271A0
100
AcDbEntity
  8
0
 48
50.0
100
AcDbBlockEnd
  0
BLOCK
  5
271B8
330
271AC
100
AcDbEntity
  8
0
 48
50.0
100
AcDbBlockBegin
  2
*D36
 70
     1
 10
0.0
 20
0.0
 30
0.0
  3
*D36
  1

  0
LINE
  5
2720F
330
271AC
100
AcDbEntity
  8
寸法
 62
     0
 48
50.0
370
    -2
100
AcDbLine
 10
8433.711832875722
 20
2248.916186515549
 30
0.0
 11
9680.115915235559
 21
2248.916186515548
 31
0.0
  0
LINE
  5
27210
330
271AC
100
AcDbEntity
  8
寸法
 62
     0
 48
50.0
370
    -2
100
AcDbLine
 10
8667.711832875724
 20
2182.966186515549
 30
0.0
 11
9680.115915235559
 21
2182.966186515548
 31
0.0
  0
LINE
  5
27211
330
271AC
100
AcDbEntity
  8
寸法
 62
     0
 48
50.0
370
    -2
100
AcDbLine
 10
9620.115915235558
 20
2248.916186515548
 30
0.0
 11
9620.115915235558
 21
2348.916186515548
 31
0.0
  0
LINE
  5
27212
330
271AC
100
AcDbEntity
  8
寸法
 62
     0
 48
50.0
370
    -2
100
AcDbLine
 10
9620.115915235558
 20
2182.966186515548
 30
0.0
 11
9620.115915235558
 21
1450.948379672583
 31
0.0
  0
LINE
  5
27213
330
271AC
100
AcDbEntity
  8
寸法
 62
     0
 48
50.0
370
    -2
100
AcDbLine
 10
9620.115915235558
 20
2248.916186515548
 30
0.0
 11
9620.115915235558
 21
2182.966186515548
 31
0.0
  0
INSERT
  5
27214
330
271AC
100
AcDbEntity
  8
寸法
 62
     0
 48
50.0
370
    -2
100
AcDbBlockReference
  2
_DOTSMALL
 10
9620.115915235558
 20
2248.916186515548
 30
0.0
 41
100.0
 42
100.0
 43
100.0
 50
270.0
  0
INSERT
  5
27215
330
271AC
100
AcDbEntity
  8
寸法
 62
     0
 48
50.0
370
    -2
100
AcDbBlockReference
  2
_DOTSMALL
 10
9620.115915235558
 20
2182.966186515548
 30
0.0
 41
100.0
 42
100.0
 43
100.0
 50
90.0
  0
MTEXT
  5
27216
330
271AC
100
AcDbEntity
  8
寸法
 62
     7
 48
50.0
100
AcDbMText
 10
9520.104104211936
 20
1716.957283094067
 30
0.0
 40
120.0
 41
0.0
 71
     5
 72
     1
  1
\A1;20～25
  7
STYLE1
 11
0.0000000000000001
 21
1.0
 31
0.0
 73
     1
 44
1.0
1001
ACAD
1000
MTEXTBEGIN
1070
    73
1070
     1
1070
    44
1040
1.0
1070
    74
1070
     0
1000
MTEXTEND
  0
POINT
  5
27217
330
271AC
100
AcDbEntity
  8
DEFPOINTS
 62
     0
 48
50.0
100
AcDbPoint
 10
8413.711832875723
 20
2248.916186515549
 30
0.0
  0
POINT
  5
27218
330
271AC
100
AcDbEntity
  8
DEFPOINTS
 62
     0
 48
50.0
100
AcDbPoint
 10
8647.711832875724
 20
2182.966186515549
 30
0.0
  0
POINT
  5
27219
330
271AC
100
AcDbEntity
  8
DEFPOINTS
 62
     0
 48
50.0
100
AcDbPoint
 10
9620.115915235558
 20
2182.966186515548
 30
0.0
  0
ENDBLK
  5
271B9
330
271AC
100
AcDbEntity
  8
0
 48
50.0
100
AcDbBlockEnd
  0
BLOCK
  5
271C3
330
271BA
100
AcDbEntity
  8
0
 48
50.0
100
AcDbBlockBegin
  2
*D37
 70
     1
 10
0.0
 20
0.0
 30
0.0
  3
*D37
  1

  0
LINE
  5
27206
330
271BA
100
AcDbEntity
  8
寸法
 62
     0
 48
50.0
370
    -2
100
AcDbLine
 10
8667.711832875724
 20
2182.966186515549
 30
0.0
 11
9335.047582586778
 21
2182.966186515548
 31
0.0
  0
LINE
  5
27207
330
271BA
100
AcDbEntity
  8
寸法
 62
     0
 48
50.0
370
    -2
100
AcDbLine
 10
8667.711832875724
 20
1777.966186515547
 30
0.0
 11
9335.047582586778
 21
1777.966186515546
 31
0.0
  0
LINE
  5
27208
330
271BA
100
AcDbEntity
  8
寸法
 62
     0
 48
50.0
370
    -2
100
AcDbLine
 10
9275.047582586777
 20
2182.966186515548
 30
0.0
 11
9275.047582586777
 21
1777.966186515546
 31
0.0
  0
INSERT
  5
27209
330
271BA
100
AcDbEntity
  8
寸法
 62
     0
 48
50.0
370
    -2
100
AcDbBlockReference
  2
_DOTSMALL
 10
9275.047582586777
 20
2182.966186515548
 30
0.0
 41
100.0
 42
100.0
 43
100.0
 50
90.0
  0
INSERT
  5
2720A
330
271BA
100
AcDbEntity
  8
寸法
 62
     0
 48
50.0
370
    -2
100
AcDbBlockReference
  2
_DOTSMALL
 10
9275.047582586777
 20
1777.966186515546
 30
0.0
 41
100.0
 42
100.0
 43
100.0
 50
270.0
  0
MTEXT
  5
2720B
330
271BA
100
AcDbEntity
  8
寸法
 62
     7
 48
50.0
100
AcDbMText
 10
9175.047582586778
 20
1980.466186515549
 30
0.0
 40
120.0
 41
0.0
 71
     5
 72
     1
  1
\A1;180
  7
STYLE1
 11
0.0000000000000001
 21
1.0
 31
0.0
 73
     1
 44
1.0
1001
ACAD
1000
MTEXTBEGIN
1070
    73
1070
     1
1070
    44
1040
1.0
1070
    74
1070
     0
1000
MTEXTEND
  0
POINT
  5
2720C
330
271BA
100
AcDbEntity
  8
DEFPOINTS
 62
     0
 48
50.0
100
AcDbPoint
 10
8647.711832875724
 20
2182.966186515549
 30
0.0
  0
POINT
  5
2720D
330
271BA
100
AcDbEntity
  8
DEFPOINTS
 62
     0
 48
50.0
100
AcDbPoint
 10
8647.711832875724
 20
1777.966186515547
 30
0.0
  0
POINT
  5
2720E
330
271BA
100
AcDbEntity
  8
DEFPOINTS
 62
     0
 48
50.0
100
AcDbPoint
 10
9275.047582586777
 20
1777.966186515546
 30
0.0
  0
ENDBLK
  5
271C4
330
271BA
100
AcDbEntity
  8
0
 48
50.0
100
AcDbBlockEnd
  0
ENDSEC
  0
SECTION
  2
ENTITIES
  0
MTEXT
  5
763F
330
747D
100
AcDbEntity
  8
0
100
AcDbMText
 10
302.846345836809
 20
280.1983726409901
 30
0.0
 40
3.5
 41
5.323721266742722
 71
     1
 72
     5
  1

  7
MSMINCHO
 73
     1
 44
1.0
1001
ACAD
1000
MTEXTBEGIN
1070
    73
1070
     1
1070
    44
1040
1.0
1070
    74
1070
     0
1000
MTEXTEND
  0
LINE
  5
10B57
330
747D
100
AcDbEntity
  8
補助
  6
PHANTOM
 62
   230
 48
50.0
100
AcDbLine
 10
139.9999999999995
 20
11409.6
 30
0.0
 11
16307.2
 21
11409.6
 31
0.0
  0
LINE
  5
10B59
330
747D
100
AcDbEntity
  8
仕様書枠
  6
Continuous
 48
50.0
100
AcDbLine
 10
13107.2
 20
1200.0
 30
0.0
 11
13107.2
 21
-0.0000000000000729
 31
0.0
  0
LINE
  5
10B5D
330
747D
100
AcDbEntity
  8
仕様書枠
 48
50.0
100
AcDbLine
 10
140.0
 20
0.0
 30
0.0
 11
16307.2
 21
-0.0000000000000909
 31
0.0
  0
LINE
  5
10B5E
330
747D
100
AcDbEntity
  8
補助
  6
PHANTOM
 62
   230
 48
50.0
100
AcDbLine
 10
16307.2
 20
11409.6
 30
0.0
 11
16307.2
 21
1200.0
 31
0.0
  0
LINE
  5
10B6C
330
747D
100
AcDbEntity
  8
仕様書枠
 48
50.0
100
AcDbLine
 10
13107.2
 20
1200.0
 30
0.0
 11
16307.2
 21
1200.0
 31
0.0
  0
TEXT
  5
10B73
330
747D
100
AcDbEntity
  8
文字
 62
     7
 48
50.0
100
AcDbText
 10
13162.9790565769
 20
895.0906074299405
 30
0.0
 40
200.0
  1
基 礎 図
  7
STYLE2
100
AcDbText
  0
LINE
  5
10B7B
330
747D
100
AcDbEntity
  8
仕様書枠
 48
50.0
100
AcDbLine
 10
13107.2
 20
800.0
 30
0.0
 11
14251.2
 21
800.0
 31
0.0
  0
LINE
  5
10B88
330
747D
100
AcDbEntity
  8
仕様書枠
  6
Continuous
 48
50.0
100
AcDbLine
 10
14251.2
 20
1200.0
 30
0.0
 11
14251.2
 21
800.0
 31
0.0
  0
LINE
  5
16462
330
747D
100
AcDbEntity
  8
仕様書枠
 48
50.0
100
AcDbLine
 10
16307.2
 20
1200.0
 30
0.0
 11
16307.2
 21
-0.0000000000000909
 31
0.0
  0
LINE
  5
1903B
330
747D
100
AcDbEntity
  8
補助
  6
PHANTOM
 62
   230
 48
50.0
100
AcDbLine
 10
140.0
 20
0.0
 30
0.0
 11
139.9999999999995
 21
11409.6
 31
0.0
  0
TEXT
  5
1C7A1
330
747D
100
AcDbEntity
  8
文字
 62
     7
 48
50.0
100
AcDbText
 10
13188.16259899338
 20
79.80631269190417
 30
0.0
 40
80.0
  1
※布基礎には換気口を設けてください。
  7
STYLE2
100
AcDbText
  0
TEXT
  5
1C7E7
330
747D
100
AcDbEntity
  8
文字
 62
     7
 48
50.0
100
AcDbText
 10
13188.16259899338
 20
246.7109242801889
 30
0.0
 40
80.0
  1
※寒冷地等は地域の実情に合わせた基礎にして下さい。
  7
STYLE2
100
AcDbText
  0
TEXT
  5
1C7E8
330
747D
100
AcDbEntity
  8
文字
 62
     7
 48
50.0
100
AcDbText
 10
14478.98566430227
 20
499.5983841039506
 30
0.0
 40
160.0
  1
ＮＸＮ－９４Ｈ
  7
STYLE2
100
AcDbText
  0
TEXT
  5
1C7E9
330
747D
100
AcDbEntity
  8
文字
 62
     7
 48
50.0
100
AcDbText
 10
14641.2525855784
 20
871.1744590657927
 30
0.0
 40
100.0
  1
～一般型・多雪地型～
  7
STYLE2
100
AcDbText
  0
TEXT
  5
1C7EC
330
747D
100
AcDbEntity
  8
文字
 62
     7
 48
50.0
100
AcDbText
 10
14524.131837222
 20
1031.557706291229
 30
0.0
 40
100.0
  1
     <縮尺> S=1/40
  7
STYLE2
100
AcDbText
  0
TEXT
  5
1C7ED
330
747D
100
AcDbEntity
  8
文字
 62
     7
 48
50.0
100
AcDbText
 10
13201.43669998441
 20
477.2740661031257
 30
0.0
 40
160.0
  1
機種名
  7
STYLE2
100
AcDbText
  0
LINE
  5
1C7EF
330
747D
100
AcDbEntity
  8
文字
 62
     7
 48
50.0
100
AcDbLine
 10
13187.2
 20
400.0
 30
0.0
 11
16227.2
 21
400.0
 31
0.0
  0
LINE
  5
25388
330
747D
100
AcDbEntity
  8
部品1
 48
50.0
100
AcDbLine
 10
7426.599999999993
 20
5987.807155537328
 30
0.0
 11
7426.599999999995
 21
5792.80715553732
 31
0.0
  0
LINE
  5
25389
330
747D
100
AcDbEntity
  8
部品1
 48
50.0
100
AcDbLine
 10
7226.599999999995
 20
5987.807155537328
 30
0.0
 11
7226.599999999995
 21
5792.807155537319
 31
0.0
  0
LINE
  5
2538B
330
747D
100
AcDbEntity
  8
部品1
 48
50.0
100
AcDbLine
 10
7426.6
 20
8507.807155537319
 30
0.0
 11
7426.6
 21
8387.807155537322
 31
0.0
  0
LINE
  5
2538C
330
747D
100
AcDbEntity
  8
部品1
 48
50.0
100
AcDbLine
 10
7226.600000000001
 20
8507.807155537319
 30
0.0
 11
7226.600000000001
 21
8387.807155537322
 31
0.0
  0
LINE
  5
2538E
330
747D
100
AcDbEntity
  8
想像線
 48
10.0
100
AcDbLine
 10
8727.16214885316
 20
5812.80715553733
 30
0.0
 11
10063.6
 21
5812.807155537326
 31
0.0
  0
LINE
  5
2538F
330
747D
100
AcDbEntity
  8
想像線
 48
10.0
100
AcDbLine
 10
8727.16214885316
 20
8582.807155537322
 30
0.0
 11
10063.6
 21
8582.807155537318
 31
0.0
  0
TEXT
  5
25390
330
747D
100
AcDbEntity
  8
寸法
 62
     7
100
AcDbText
 10
6953.456352585792
 20
4708.978643022436
 30
0.0
 40
120.0
  1
扉位置 (1768x75)
  7
STYLE1
100
AcDbText
  0
SOLID
  5
25391
330
747D
100
AcDbEntity
  8
寸法
 48
50.0
100
AcDbTrace
 10
-7160.941652225425
 20
5667.216126632432
 30
0.0
 11
-7177.850857895411
 21
5792.807155537317
 31
0.0
 12
-7121.123437751947
 22
5679.488897601341
 32
0.0
 13
-7121.123437751947
 23
5679.488897601341
 33
0.0
210
0.0
220
0.0
230
-1.0
1001
ACAD
1000
DSTYLE
1002
{
1070
   341
1005
0
1070
    40
1040
1.0
1070
   343
1005
0
1070
   344
1005
0
1002
}
  0
LWPOLYLINE
  5
25392
330
747D
100
AcDbEntity
  8
寸法
 48
50.0
100
AcDbPolyline
 90
        3
 70
     0
 43
0.0
 10
-7177.850857895411
 20
5792.807155537317
 10
-6836.840393393038
 20
4686.710695474116
 10
-9650.904806324682
 20
4686.710695474116
210
0.0
220
0.0
230
-1.0
1001
ACAD
1000
DSTYLE
1002
{
1070
   341
1005
0
1070
    40
1040
1.0
1070
   343
1005
0
1070
   344
1005
0
1002
}
  0
TEXT
  5
25393
330
747D
100
AcDbEntity
  8
寸法
 62
     7
100
AcDbText
 10
6953.456352585792
 20
4537.37488013911
 30
0.0
 40
120.0
  1
扉の位置に合わせた基礎形状として下さい。
  7
STYLE1
100
AcDbText
  0
DIMENSION
  5
25394
330
747D
100
AcDbEntity
  8
寸法
 48
50.0
100
AcDbDimension
  2
*D1
 10
6428.6
 20
5188.821425718582
 30
0.0
 11
7312.6
 21
5188.821425718582
 31
0.0
 70
   160
  1
扉の幅 <>
 71
     5
 42
1768.0
  3
INABA_S40G
100
AcDbAlignedDimension
 13
8196.600000000001
 23
5792.807155537341
 33
0.0
 14
6428.6
 24
5792.807155537326
 34
0.0
100
AcDbRotatedDimension
1001
ACAD
1000
DSTYLE
1002
{
1070
   341
1005
0
1002
}
  0
DIMENSION
  5
25395
330
747D
100
AcDbEntity
  8
寸法
 48
50.0
100
AcDbDimension
  2
*D2
 10
6192.312481891146
 20
5867.807155537362
 30
0.0
 11
6192.312481891145
 21
5259.321874163121
 31
0.0
 70
   160
  1
扉の出<>
 71
     5
 42
75.00000000000091
  3
INABA_S40G
100
AcDbAlignedDimension
 13
6428.6
 23
5792.80715553736
 33
0.0
 14
6428.600000000007
 24
5867.807155537362
 34
0.0
 50
90.0
100
AcDbRotatedDimension
1001
ACAD
1000
DSTYLE
1002
{
1070
   341
1005
0
1002
}
  0
DIMENSION
  5
25396
330
747D
100
AcDbEntity
  8
寸法
 48
50.0
100
AcDbDimension
  2
*D3
 10
6861.316884067377
 20
5792.807155537311
 30
0.0
 11
6861.316884067375
 21
5554.112214333418
 31
0.0
 70
   160
 71
     5
 42
195.0000000000136
  3
INABA_S40G
100
AcDbAlignedDimension
 13
6658.599999999999
 23
5987.807155537325
 33
0.0
 14
6658.600000000003
 24
5792.807155537311
 34
0.0
 50
90.0
100
AcDbRotatedDimension
1001
ACAD
1000
DSTYLE
1002
{
1070
   341
1005
0
1002
}
  0
LINE
  5
25397
330
747D
100
AcDbEntity
  8
部品1
 48
50.0
100
AcDbLine
 10
8123.600000000006
 20
6642.807155537342
 30
0.0
 11
8123.600000000001
 21
6842.807155537342
 31
0.0
  0
LINE
  5
25398
330
747D
100
AcDbEntity
  8
センター
 48
2.0
100
AcDbLine
 10
8223.600000000004
 20
6792.807155537342
 30
0.0
 11
8223.600000000004
 21
6692.807155537342
 31
0.0
  0
LINE
  5
25399
330
747D
100
AcDbEntity
  8
部品1
 48
50.0
100
AcDbLine
 10
8323.600000000004
 20
6642.807155537342
 30
0.0
 11
8323.600000000004
 21
6842.807155537342
 31
0.0
  0
LINE
  5
2539A
330
747D
100
AcDbEntity
  8
部品1
 48
50.0
100
AcDbLine
 10
8323.600000000004
 20
6642.807155537342
 30
0.0
 11
8123.600000000005
 21
6642.807155537342
 31
0.0
  0
LINE
  5
2539B
330
747D
100
AcDbEntity
  8
センター
 48
2.0
100
AcDbLine
 10
8173.600000000005
 20
6742.807155537342
 30
0.0
 11
8273.600000000005
 21
6742.807155537342
 31
0.0
  0
LINE
  5
2539C
330
747D
100
AcDbEntity
  8
部品1
 48
50.0
100
AcDbLine
 10
8323.600000000004
 20
6842.807155537342
 30
0.0
 11
8123.600000000005
 21
6842.807155537342
 31
0.0
  0
LINE
  5
2539D
330
747D
100
AcDbEntity
  8
部品1
 48
50.0
100
AcDbLine
 10
9218.6
 20
6942.807155537339
 30
0.0
 11
9018.600000000001
 21
6942.807155537339
 31
0.0
  0
LINE
  5
2539E
330
747D
100
AcDbEntity
  8
部品1
 48
50.0
100
AcDbLine
 10
9218.6
 20
6542.807155537335
 30
0.0
 11
9018.600000000001
 21
6542.807155537335
 31
0.0
  0
LINE
  5
2539F
330
747D
100
AcDbEntity
  8
センター
 48
2.0
100
AcDbLine
 10
9118.6
 20
6792.807155537339
 30
0.0
 11
9118.6
 21
6692.807155537339
 31
0.0
  0
LINE
  5
253A0
330
747D
100
AcDbEntity
  8
部品1
 48
50.0
100
AcDbLine
 10
9018.600000000002
 20
6542.807155537335
 30
0.0
 11
9018.599999999999
 21
6942.807155537337
 31
0.0
  0
LINE
  5
253A1
330
747D
100
AcDbEntity
  8
センター
 48
2.0
100
AcDbLine
 10
9068.600000000001
 20
6742.807155537339
 30
0.0
 11
9168.600000000001
 21
6742.807155537339
 31
0.0
  0
LINE
  5
253A2
330
747D
100
AcDbEntity
  8
部品1
 48
50.0
100
AcDbLine
 10
9218.6
 20
6542.807155537335
 30
0.0
 11
9218.6
 21
6942.807155537337
 31
0.0
  0
LINE
  5
253A3
330
747D
100
AcDbEntity
  8
部品1
 48
50.0
100
AcDbLine
 10
9018.599999999999
 20
7432.807155537318
 30
0.0
 11
9018.600000000001
 21
7832.807155537323
 31
0.0
  0
LINE
  5
253A4
330
747D
100
AcDbEntity
  8
部品1
 48
50.0
100
AcDbLine
 10
9218.599999999995
 20
7432.807155537318
 30
0.0
 11
9218.600000000002
 21
7832.807155537323
 31
0.0
  0
LINE
  5
253A5
330
747D
100
AcDbEntity
  8
部品1
 48
50.0
100
AcDbLine
 10
9218.6
 20
7432.807155537318
 30
0.0
 11
9018.600000000001
 21
7432.807155537318
 31
0.0
  0
LINE
  5
253A6
330
747D
100
AcDbEntity
  8
センター
 48
2.0
100
AcDbLine
 10
9068.600000000001
 20
7632.807155537323
 30
0.0
 11
9168.600000000001
 21
7632.807155537323
 31
0.0
  0
LINE
  5
253A7
330
747D
100
AcDbEntity
  8
センター
 48
2.0
100
AcDbLine
 10
9118.6
 20
7682.807155537322
 30
0.0
 11
9118.6
 21
7582.807155537323
 31
0.0
  0
LINE
  5
253A8
330
747D
100
AcDbEntity
  8
部品1
 48
50.0
100
AcDbLine
 10
9218.6
 20
7832.807155537323
 30
0.0
 11
9018.600000000001
 21
7832.807155537323
 31
0.0
  0
LINE
  5
253A9
330
747D
100
AcDbEntity
  8
部品1
 48
50.0
100
AcDbLine
 10
7428.6
 20
6942.807155537339
 30
0.0
 11
7228.6
 21
6942.807155537339
 31
0.0
  0
LINE
  5
253AA
330
747D
100
AcDbEntity
  8
部品1
 48
50.0
100
AcDbLine
 10
7428.6
 20
6542.807155537335
 30
0.0
 11
7228.6
 21
6542.807155537335
 31
0.0
  0
LINE
  5
253AB
330
747D
100
AcDbEntity
  8
センター
 48
2.0
100
AcDbLine
 10
7328.6
 20
6792.807155537339
 30
0.0
 11
7328.6
 21
6692.807155537339
 31
0.0
  0
LINE
  5
253AC
330
747D
100
AcDbEntity
  8
部品1
 48
50.0
100
AcDbLine
 10
7228.6
 20
6542.807155537335
 30
0.0
 11
7228.6
 21
6942.807155537337
 31
0.0
  0
LINE
  5
253AD
330
747D
100
AcDbEntity
  8
センター
 48
2.0
100
AcDbLine
 10
7278.6
 20
6742.807155537339
 30
0.0
 11
7378.6
 21
6742.807155537339
 31
0.0
  0
LINE
  5
253AE
330
747D
100
AcDbEntity
  8
部品1
 48
50.0
100
AcDbLine
 10
7428.599999999999
 20
6542.807155537335
 30
0.0
 11
7428.6
 21
6942.807155537337
 31
0.0
  0
LINE
  5
253AF
330
747D
100
AcDbEntity
  8
部品1
 48
50.0
100
AcDbLine
 10
7228.600000000003
 20
7432.807155537318
 30
0.0
 11
7228.599999999999
 21
7832.807155537323
 31
0.0
  0
LINE
  5
253B0
330
747D
100
AcDbEntity
  8
部品1
 48
50.0
100
AcDbLine
 10
7428.600000000002
 20
7432.807155537318
 30
0.0
 11
7428.6
 21
7832.807155537323
 31
0.0
  0
LINE
  5
253B1
330
747D
100
AcDbEntity
  8
部品1
 48
50.0
100
AcDbLine
 10
7428.6
 20
7432.807155537318
 30
0.0
 11
7228.6
 21
7432.807155537318
 31
0.0
  0
LINE
  5
253B2
330
747D
100
AcDbEntity
  8
センター
 48
2.0
100
AcDbLine
 10
7278.6
 20
7632.807155537323
 30
0.0
 11
7378.6
 21
7632.807155537323
 31
0.0
  0
LINE
  5
253B3
330
747D
100
AcDbEntity
  8
センター
 48
2.0
100
AcDbLine
 10
7328.6
 20
7682.807155537322
 30
0.0
 11
7328.6
 21
7582.807155537323
 31
0.0
  0
LINE
  5
253B4
330
747D
100
AcDbEntity
  8
部品1
 48
50.0
100
AcDbLine
 10
7428.6
 20
7832.807155537323
 30
0.0
 11
7228.6
 21
7832.807155537323
 31
0.0
  0
LINE
  5
253B5
330
747D
100
AcDbEntity
  8
センター
 48
2.0
100
AcDbLine
 10
9895.600000000001
 20
8434.80715553732
 30
0.0
 11
9895.600000000001
 21
8334.807155537321
 31
0.0
  0
LINE
  5
253B6
330
747D
100
AcDbEntity
  8
部品1
 48
50.0
100
AcDbLine
 10
9788.600000000002
 20
8277.807155537319
 30
0.0
 11
9788.600000000002
 21
8387.807155537322
 31
0.0
  0
LINE
  5
253B7
330
747D
100
AcDbEntity
  8
部品1
 48
50.0
100
AcDbLine
 10
9898.600000000001
 20
8277.807155537322
 30
0.0
 11
9788.600000000002
 21
8277.807155537319
 31
0.0
  0
LINE
  5
253B8
330
747D
100
AcDbEntity
  8
センター
 48
2.0
100
AcDbLine
 10
9845.600000000001
 20
8384.807155537322
 30
0.0
 11
9945.6
 21
8384.807155537322
 31
0.0
  0
CIRCLE
  5
253B9
330
747D
100
AcDbEntity
  8
部品1
 48
50.0
100
AcDbCircle
 10
9895.600000000001
 20
8384.807155537322
 30
0.0
 40
35.0
  0
DIMENSION
  5
253BA
330
747D
100
AcDbEntity
  8
寸法
 48
50.0
100
AcDbDimension
  2
*D4
 10
9898.600000000019
 20
7996.78136459866
 30
0.0
 11
10288.65905511811
 21
7996.78136459866
 31
0.0
 70
   160
 71
     5
 42
119.9999999999818
  3
INABA_S40G
100
AcDbAlignedDimension
 13
10018.6
 23
8277.807155537322
 33
0.0
 14
9898.600000000019
 24
8277.807155537322
 34
0.0
100
AcDbRotatedDimension
1001
ACAD
1000
DSTYLE
1002
{
1070
   341
1005
0
1002
}
  0
LINE
  5
253BB
330
747D
100
AcDbEntity
  8
部品1
 48
50.0
100
AcDbLine
 10
10018.6
 20
7287.807155537324
 30
0.0
 11
9898.600000000001
 21
7287.807155537324
 31
0.0
  0
DIMENSION
  5
253BC
330
747D
100
AcDbEntity
  8
寸法
 48
50.0
100
AcDbDimension
  2
*D5
 10
9895.600000000001
 20
9253.566782079404
 30
0.0
 11
10291.7066017178
 21
9253.566782079404
 31
0.0
 70
   160
 71
     5
 42
123.0
  3
INABA_S40G
100
AcDbAlignedDimension
 13
10018.6
 23
8507.807155537321
 33
0.0
 14
9895.600000000001
 24
8434.80715553732
 34
0.0
100
AcDbRotatedDimension
1001
ACAD
1000
DSTYLE
1002
{
1070
   341
1005
0
1002
}
  0
LINE
  5
253BD
330
747D
100
AcDbEntity
  8
部品1
 48
50.0
100
AcDbLine
 10
9220.600000000001
 20
8507.807155537319
 30
0.0
 11
9220.600000000001
 21
8387.807155537322
 31
0.0
  0
LINE
  5
253BE
330
747D
100
AcDbEntity
  8
部品1
 48
50.0
100
AcDbLine
 10
9020.599999999999
 20
8507.807155537319
 30
0.0
 11
9020.599999999999
 21
8387.807155537322
 31
0.0
  0
DIMENSION
  5
253C0
330
747D
100
AcDbEntity
  8
寸法
 48
50.0
100
AcDbDimension
  2
*D6
 10
8905.618275173504
 20
8507.807155537323
 30
0.0
 11
8805.618275173502
 21
8070.307155537324
 31
0.0
 70
    32
 71
     5
 42
875.0
  3
INABA_S40G
100
AcDbAlignedDimension
 13
9018.600000000001
 23
7632.807155537323
 33
0.0
 14
8424.157431058354
 24
8507.807155537323
 34
0.0
 50
90.0
100
AcDbRotatedDimension
1001
ACAD
1000
DSTYLE
1002
{
1070
   341
1005
0
1002
}
  0
DIMENSION
  5
253C1
330
747D
100
AcDbEntity
  8
寸法
 48
50.0
100
AcDbDimension
  2
*D7
 10
9118.6
 20
9034.716921185649
 30
0.0
 11
9568.600000000001
 21
9134.716921185649
 31
0.0
 70
    32
 71
     5
 42
900.0
  3
INABA_S40G
100
AcDbAlignedDimension
 13
10018.6
 23
8507.807155537321
 33
0.0
 14
9118.6
 24
7682.807155537322
 34
0.0
100
AcDbRotatedDimension
1001
ACAD
1000
DSTYLE
1002
{
1070
   341
1005
0
1002
}
  0
DIMENSION
  5
253C2
330
747D
100
AcDbEntity
  8
寸法
 48
50.0
100
AcDbDimension
  2
*D8
 10
9788.600000000002
 20
7996.78136459866
 30
0.0
 11
9552.552755905512
 21
7996.78136459866
 31
0.0
 70
   160
 71
     5
 42
110.0
  3
INABA_S40G
100
AcDbAlignedDimension
 13
9898.600000000001
 23
8277.807155537322
 33
0.0
 14
9788.600000000002
 24
8277.807155537319
 34
0.0
100
AcDbRotatedDimension
1001
ACAD
1000
DSTYLE
1002
{
1070
   341
1005
0
1002
}
  0
LINE
  5
253C3
330
747D
100
AcDbEntity
  8
部品1
 48
50.0
100
AcDbLine
 10
10018.6
 20
7087.807155537324
 30
0.0
 11
9898.600000000001
 21
7087.807155537324
 31
0.0
  0
LINE
  5
253C4
330
747D
100
AcDbEntity
  8
部品1
 48
50.0
100
AcDbLine
 10
9898.600000000001
 20
6097.807155537338
 30
0.0
 11
9788.600000000002
 21
6097.807155537338
 31
0.0
  0
LINE
  5
253C5
330
747D
100
AcDbEntity
  8
センター
 48
2.0
100
AcDbLine
 10
9895.600000000008
 20
6040.807155537322
 30
0.0
 11
9895.600000000008
 21
5940.807155537322
 31
0.0
  0
LINE
  5
253C6
330
747D
100
AcDbEntity
  8
センター
 48
2.0
100
AcDbLine
 10
9845.600000000008
 20
5990.807155537322
 30
0.0
 11
9945.600000000007
 21
5990.807155537322
 31
0.0
  0
CIRCLE
  5
253C7
330
747D
100
AcDbEntity
  8
部品1
 48
50.0
100
AcDbCircle
 10
9895.600000000008
 20
5990.807155537322
 30
0.0
 40
35.0
  0
LINE
  5
253C8
330
747D
100
AcDbEntity
  8
部品1
 48
50.0
100
AcDbLine
 10
9788.600000000002
 20
5987.807155537336
 30
0.0
 11
9788.600000000002
 21
6097.807155537338
 31
0.0
  0
LINE
  5
253C9
330
747D
100
AcDbEntity
  8
部品1
 48
50.0
100
AcDbLine
 10
9220.600000000008
 20
5987.807155537335
 30
0.0
 11
9220.600000000008
 21
5867.807155537335
 31
0.0
  0
LINE
  5
253CA
330
747D
100
AcDbEntity
  8
部品1
 48
50.0
100
AcDbLine
 10
9020.600000000007
 20
5987.807155537334
 30
0.0
 11
9020.600000000007
 21
5867.807155537335
 31
0.0
  0
DIMENSION
  5
253CB
330
747D
100
AcDbEntity
  8
寸法
 48
50.0
100
AcDbDimension
  2
*D9
 10
8905.618275173504
 20
6742.807155537339
 30
0.0
 11
8805.618275173502
 21
6305.307155537336
 31
0.0
 70
    32
 71
     5
 42
875.0000000000081
  3
INABA_S40G
100
AcDbAlignedDimension
 13
8520.04593925956
 23
5867.807155537331
 33
0.0
 14
9018.600000000001
 24
6742.807155537339
 34
0.0
 50
90.0
100
AcDbRotatedDimension
1001
ACAD
1000
DSTYLE
1002
{
1070
   341
1005
0
1002
}
  0
DIMENSION
  5
253CD
330
747D
100
AcDbEntity
  8
寸法
 48
50.0
100
AcDbDimension
  2
*D10
 10
8905.618275173504
 20
6742.807155537339
 30
0.0
 11
8805.618275173502
 21
7187.807155537332
 31
0.0
 70
    32
 71
     5
 42
889.9999999999836
  3
INABA_S40G
100
AcDbAlignedDimension
 13
9018.600000000001
 23
7632.807155537323
 33
0.0
 14
9018.600000000001
 24
6742.807155537339
 34
0.0
 50
90.0
100
AcDbRotatedDimension
1001
ACAD
1000
DSTYLE
1002
{
1070
   341
1005
0
1002
}
  0
LINE
  5
253CF
330
747D
100
AcDbEntity
  8
部品1
 48
50.0
100
AcDbLine
 10
9898.600000000001
 20
6097.807155537341
 30
0.0
 11
9898.600000000001
 21
8277.807155537322
 31
0.0
  0
LINE
  5
253D0
330
747D
100
AcDbEntity
  8
部品1
 48
50.0
100
AcDbLine
 10
10018.6
 20
5867.807155537339
 30
0.0
 11
10018.6
 21
8507.807155537321
 31
0.0
  0
LINE
  5
253D1
330
747D
100
AcDbEntity
  8
センター
 48
2.0
100
AcDbLine
 10
8055.600000000001
 20
8384.807155537322
 30
0.0
 11
8155.600000000001
 21
8384.807155537322
 31
0.0
  0
LINE
  5
253D2
330
747D
100
AcDbEntity
  8
センター
 48
2.0
100
AcDbLine
 10
8105.6
 20
8434.80715553732
 30
0.0
 11
8105.6
 21
8334.807155537321
 31
0.0
  0
CIRCLE
  5
253D3
330
747D
100
AcDbEntity
  8
部品1
 48
50.0
100
AcDbCircle
 10
8105.6
 20
8384.807155537322
 30
0.0
 40
35.0
  0
LINE
  5
253D4
330
747D
100
AcDbEntity
  8
部品1
 48
50.0
100
AcDbLine
 10
8235.600000000001
 20
8387.807155537322
 30
0.0
 11
8235.600000000001
 21
8277.807155537303
 31
0.0
  0
LINE
  5
253D5
330
747D
100
AcDbEntity
  8
部品1
 48
50.0
100
AcDbLine
 10
7975.6
 20
8387.807155537322
 30
0.0
 11
7975.6
 21
8277.807155537303
 31
0.0
  0
LINE
  5
253D6
330
747D
100
AcDbEntity
  8
部品1
 48
50.0
100
AcDbLine
 10
8235.600000000001
 20
8277.807155537303
 30
0.0
 11
7975.6
 21
8277.807155537303
 31
0.0
  0
LINE
  5
253D7
330
747D
100
AcDbEntity
  8
部品1
 48
50.0
100
AcDbLine
 10
8323.6
 20
7732.807155537324
 30
0.0
 11
8123.600000000001
 21
7732.807155537324
 31
0.0
  0
LINE
  5
253D8
330
747D
100
AcDbEntity
  8
センター
 48
2.0
100
AcDbLine
 10
8173.6
 20
7632.807155537324
 30
0.0
 11
8273.6
 21
7632.807155537324
 31
0.0
  0
DIMENSION
  5
253D9
330
747D
100
AcDbEntity
  8
寸法
 48
50.0
100
AcDbDimension
  2
*D11
 10
7328.6
 20
9034.716921185649
 30
0.0
 11
7776.100000000001
 21
9134.716921185649
 31
0.0
 70
    32
 71
     5
 42
895.0
  3
INABA_S40G
100
AcDbAlignedDimension
 13
8223.600000000001
 23
7682.807155537324
 33
0.0
 14
7328.6
 24
7682.807155537322
 34
0.0
100
AcDbRotatedDimension
1001
ACAD
1000
DSTYLE
1002
{
1070
   341
1005
0
1002
}
  0
LINE
  5
253DA
330
747D
100
AcDbEntity
  8
部品1
 48
50.0
100
AcDbLine
 10
6658.599999999999
 20
8277.807155537317
 30
0.0
 11
6658.599999999999
 21
8387.807155537322
 31
0.0
  0
CIRCLE
  5
253DB
330
747D
100
AcDbEntity
  8
部品1
 48
50.0
100
AcDbCircle
 10
6551.6
 20
8384.807155537322
 30
0.0
 40
35.0
  0
LINE
  5
253DC
330
747D
100
AcDbEntity
  8
センター
 48
2.0
100
AcDbLine
 10
6501.6
 20
8384.807155537322
 30
0.0
 11
6601.600000000001
 21
8384.807155537322
 31
0.0
  0
LINE
  5
253DD
330
747D
100
AcDbEntity
  8
センター
 48
2.0
100
AcDbLine
 10
6551.6
 20
8434.80715553732
 30
0.0
 11
6551.6
 21
8334.807155537321
 31
0.0
  0
LINE
  5
253DE
330
747D
100
AcDbEntity
  8
部品1
 48
50.0
100
AcDbLine
 10
6658.599999999999
 20
8277.807155537317
 30
0.0
 11
6548.6
 21
8277.807155537319
 31
0.0
  0
LINE
  5
253DF
330
747D
100
AcDbEntity
  8
部品1
 48
50.0
100
AcDbLine
 10
6827.928907166849
 20
8507.807155537317
 30
0.0
 11
6428.6
 21
8507.807155537321
 31
0.0
  0
LINE
  5
253E0
330
747D
100
AcDbEntity
  8
部品1
 48
50.0
100
AcDbLine
 10
6548.6
 20
7287.807155537322
 30
0.0
 11
6428.600000000002
 21
7287.807155537322
 31
0.0
  0
DIMENSION
  5
253E1
330
747D
100
AcDbEntity
  8
寸法
 48
50.0
100
AcDbDimension
  2
*D12
 10
6875.307249876098
 20
8277.807155537317
 30
0.0
 11
6875.307249876097
 21
7937.748100419206
 31
0.0
 70
   160
 71
     5
 42
110.0000000000072
  3
INABA_S40G
100
AcDbAlignedDimension
 13
6658.599999999999
 23
8387.807155537323
 33
0.0
 14
6658.599999999999
 24
8277.807155537317
 34
0.0
 50
90.0
100
AcDbRotatedDimension
1001
ACAD
1000
DSTYLE
1002
{
1070
   341
1005
0
1002
}
  0
DIMENSION
  5
253E2
330
747D
100
AcDbEntity
  8
寸法
 48
50.0
100
AcDbDimension
  2
*D13
 10
6875.307249876098
 20
8507.807155537319
 30
0.0
 11
6875.307249876097
 21
8785.890698810206
 31
0.0
 70
   160
 71
     5
 42
119.9999999999963
  3
INABA_S40G
100
AcDbAlignedDimension
 13
6658.599999999999
 23
8387.807155537322
 33
0.0
 14
6658.599999999999
 24
8507.807155537319
 34
0.0
 50
90.0
100
AcDbRotatedDimension
1001
ACAD
1000
DSTYLE
1002
{
1070
   341
1005
0
1002
}
  0
DIMENSION
  5
253E3
330
747D
100
AcDbEntity
  8
寸法
 48
50.0
100
AcDbDimension
  2
*D14
 10
5932.657733986179
 20
8384.807155537322
 30
0.0
 11
5932.657733986178
 21
8780.91375725512
 31
0.0
 70
   160
 71
     5
 42
123.0
  3
INABA_S40G
100
AcDbAlignedDimension
 13
6428.6
 23
8507.807155537321
 33
0.0
 14
6501.6
 24
8384.807155537322
 34
0.0
 50
90.0
100
AcDbRotatedDimension
1001
ACAD
1000
DSTYLE
1002
{
1070
   341
1005
0
1002
}
  0
DIMENSION
  5
253E4
330
747D
100
AcDbEntity
  8
寸法
 48
50.0
100
AcDbDimension
  2
*D15
 10
6428.6
 20
9253.566782079404
 30
0.0
 11
6155.493398282206
 21
9253.566782079404
 31
0.0
 70
   160
 71
     5
 42
123.0
  3
INABA_S40G
100
AcDbAlignedDimension
 13
6551.6
 23
8434.80715553732
 33
0.0
 14
6428.6
 24
8507.807155537321
 34
0.0
100
AcDbRotatedDimension
1001
ACAD
1000
DSTYLE
1002
{
1070
   341
1005
0
1002
}
  0
DIMENSION
  5
253E5
330
747D
100
AcDbEntity
  8
寸法
 48
50.0
100
AcDbDimension
  2
*D16
 10
6551.6
 20
9253.566782079404
 30
0.0
 11
7328.6
 21
9353.566782079404
 31
0.0
 70
    32
 71
     5
 42
1554.0
  3
INABA_S40G
100
AcDbAlignedDimension
 13
8105.6
 23
8434.80715553732
 33
0.0
 14
6551.6
 24
8434.80715553732
 34
0.0
100
AcDbRotatedDimension
1001
ACAD
1000
DSTYLE
1002
{
1070
   341
1005
0
1002
}
  0
DIMENSION
  5
253E6
330
747D
100
AcDbEntity
  8
寸法
 48
50.0
100
AcDbDimension
  2
*D17
 10
6428.6
 20
9034.716921185649
 30
0.0
 11
6878.6
 21
9134.716921185649
 31
0.0
 70
    32
 71
     5
 42
900.0
  3
INABA_S40G
100
AcDbAlignedDimension
 13
7328.6
 23
7682.807155537322
 33
0.0
 14
6428.6
 24
8507.807155537321
 34
0.0
100
AcDbRotatedDimension
1001
ACAD
1000
DSTYLE
1002
{
1070
   341
1005
0
1002
}
  0
LINE
  5
253E7
330
747D
100
AcDbEntity
  8
部品1
 48
50.0
100
AcDbLine
 10
7975.6
 20
8387.807155537322
 30
0.0
 11
6658.599999999999
 21
8387.807155537322
 31
0.0
  0
LINE
  5
253E8
330
747D
100
AcDbEntity
  8
部品1
 48
50.0
100
AcDbLine
 10
8323.6
 20
7532.807155537324
 30
0.0
 11
8123.600000000001
 21
7532.807155537324
 31
0.0
  0
LINE
  5
253E9
330
747D
100
AcDbEntity
  8
部品1
 48
50.0
100
AcDbLine
 10
8196.600000000001
 20
5792.807155537326
 30
0.0
 11
8196.600000000001
 21
5867.807155537323
 31
0.0
  0
LINE
  5
253EA
330
747D
100
AcDbEntity
  8
センター
 48
2.0
100
AcDbLine
 10
8105.600000000007
 20
6040.807155537322
 30
0.0
 11
8105.600000000007
 21
5940.807155537322
 31
0.0
  0
CIRCLE
  5
253EB
330
747D
100
AcDbEntity
  8
部品1
 48
50.0
100
AcDbCircle
 10
8105.600000000007
 20
5990.807155537322
 30
0.0
 40
35.0
  0
LINE
  5
253EC
330
747D
100
AcDbEntity
  8
センター
 48
2.0
100
AcDbLine
 10
8055.600000000008
 20
5990.807155537322
 30
0.0
 11
8155.600000000008
 21
5990.807155537322
 31
0.0
  0
LINE
  5
253ED
330
747D
100
AcDbEntity
  8
部品1
 48
50.0
100
AcDbLine
 10
8235.600000000001
 20
5987.807155537331
 30
0.0
 11
8235.600000000001
 21
6097.807155537338
 31
0.0
  0
LINE
  5
253EE
330
747D
100
AcDbEntity
  8
部品1
 48
50.0
100
AcDbLine
 10
7975.6
 20
5987.80715553733
 30
0.0
 11
7975.6
 21
6097.807155537338
 31
0.0
  0
LINE
  5
253EF
330
747D
100
AcDbEntity
  8
部品1
 48
50.0
100
AcDbLine
 10
8235.600000000001
 20
6097.807155537338
 30
0.0
 11
7975.6
 21
6097.807155537338
 31
0.0
  0
DIMENSION
  5
253F0
330
747D
100
AcDbEntity
  8
寸法
 48
50.0
100
AcDbDimension
  2
*D18
 10
7975.6
 20
6291.781044834439
 30
0.0
 11
8105.6
 21
6291.781044834439
 31
0.0
 70
   160
 71
     5
 42
260.0
  3
INABA_S40G
100
AcDbAlignedDimension
 13
8235.600000000001
 23
6097.807155537338
 33
0.0
 14
7975.6
 24
6097.807155537338
 34
0.0
100
AcDbRotatedDimension
1001
ACAD
1000
DSTYLE
1002
{
1070
   341
1005
0
1002
}
  0
LINE
  5
253F1
330
747D
100
AcDbEntity
  8
部品1
 48
50.0
100
AcDbLine
 10
6548.6
 20
7087.807155537321
 30
0.0
 11
6428.600000000002
 21
7087.807155537323
 31
0.0
  0
LINE
  5
253F2
330
747D
100
AcDbEntity
  8
部品1
 48
50.0
100
AcDbLine
 10
6658.599999999999
 20
6097.807155537324
 30
0.0
 11
6548.6
 21
6097.807155537322
 31
0.0
  0
LINE
  5
253F3
330
747D
100
AcDbEntity
  8
部品1
 48
50.0
100
AcDbLine
 10
6428.6
 20
5792.807155537326
 30
0.0
 11
6428.6
 21
5867.80715553731
 31
0.0
  0
CIRCLE
  5
253F4
330
747D
100
AcDbEntity
  8
部品1
 48
50.0
100
AcDbCircle
 10
6551.600000000007
 20
5990.807155537322
 30
0.0
 40
35.0
  0
LINE
  5
253F5
330
747D
100
AcDbEntity
  8
センター
 48
2.0
100
AcDbLine
 10
6501.600000000007
 20
5990.807155537322
 30
0.0
 11
6601.600000000008
 21
5990.807155537322
 31
0.0
  0
LINE
  5
253F6
330
747D
100
AcDbEntity
  8
センター
 48
2.0
100
AcDbLine
 10
6551.600000000007
 20
6040.807155537322
 30
0.0
 11
6551.600000000007
 21
5940.807155537322
 31
0.0
  0
LINE
  5
253F7
330
747D
100
AcDbEntity
  8
部品1
 48
50.0
100
AcDbLine
 10
6658.599999999999
 20
5987.807155537325
 30
0.0
 11
6658.599999999999
 21
6097.807155537324
 31
0.0
  0
DIMENSION
  5
253F8
330
747D
100
AcDbEntity
  8
寸法
 48
50.0
100
AcDbDimension
  2
*D19
 10
5932.657733986179
 20
5867.807155537321
 30
0.0
 11
5932.657733986178
 21
5532.276206694729
 31
0.0
 70
   160
 71
     5
 42
123.0000000000018
  3
INABA_S40G
100
AcDbAlignedDimension
 13
6501.600000000007
 23
5990.807155537322
 33
0.0
 14
6428.6
 24
5867.80715553732
 34
0.0
 50
90.0
100
AcDbRotatedDimension
1001
ACAD
1000
DSTYLE
1002
{
1070
   341
1005
0
1002
}
  0
LINE
  5
253F9
330
747D
100
AcDbEntity
  8
部品1
 48
50.0
100
AcDbLine
 10
8196.600000000001
 20
5792.807155537325
 30
0.0
 11
6428.599999999999
 21
5792.807155537313
 31
0.0
  0
LINE
  5
253FA
330
747D
100
AcDbEntity
  8
部品1
 48
50.0
100
AcDbLine
 10
7975.6
 20
5987.80715553733
 30
0.0
 11
6658.599999999999
 21
5987.807155537325
 31
0.0
  0
DIMENSION
  5
253FB
330
747D
100
AcDbEntity
  8
寸法
 48
50.0
100
AcDbDimension
  2
*D20
 10
5687.164931848211
 20
5867.807155537321
 30
0.0
 11
5587.153120824588
 21
7187.807155537322
 31
0.0
 70
    32
 71
     5
 42
2640.0
  3
INABA_S40G
100
AcDbAlignedDimension
 13
6428.6
 23
8507.807155537321
 33
0.0
 14
6428.6
 24
5867.80715553732
 34
0.0
 50
90.0
100
AcDbRotatedDimension
1001
ACAD
1000
DSTYLE
1002
{
1070
   341
1005
0
1002
}
  0
LINE
  5
253FD
330
747D
100
AcDbEntity
  8
部品1
 48
50.0
100
AcDbLine
 10
6428.6
 20
5867.80715553732
 30
0.0
 11
6428.6
 21
8507.807155537321
 31
0.0
  0
LINE
  5
253FE
330
747D
100
AcDbEntity
  8
部品1
 48
50.0
100
AcDbLine
 10
6548.6
 20
6097.807155537322
 30
0.0
 11
6548.6
 21
8277.807155537317
 31
0.0
  0
DIMENSION
  5
253FF
330
747D
100
AcDbEntity
  8
寸法
 48
50.0
100
AcDbDimension
  2
*D21
 10
5932.657733986178
 20
5990.807155537323
 30
0.0
 11
5832.645922962555
 21
7187.807155537324
 31
0.0
 70
    32
 71
     5
 42
2393.999999999998
  3
INABA_S40G
100
AcDbAlignedDimension
 13
6501.6
 23
8384.807155537322
 33
0.0
 14
6501.600000000007
 24
5990.807155537322
 34
0.0
 50
90.0
100
AcDbRotatedDimension
1001
ACAD
1000
DSTYLE
1002
{
1070
   341
1005
0
1002
}
  0
LINE
  5
25400
330
747D
100
AcDbEntity
  8
部品1
 48
50.0
100
AcDbLine
 10
8323.6
 20
7532.807155537326
 30
0.0
 11
8323.6
 21
7732.807155537324
 31
0.0
  0
LINE
  5
25401
330
747D
100
AcDbEntity
  8
センター
 48
2.0
100
AcDbLine
 10
8223.600000000001
 20
7682.807155537324
 30
0.0
 11
8223.600000000001
 21
7582.807155537324
 31
0.0
  0
LINE
  5
25402
330
747D
100
AcDbEntity
  8
部品1
 48
50.0
100
AcDbLine
 10
8123.600000000001
 20
7532.807155537326
 30
0.0
 11
8123.600000000001
 21
7732.807155537324
 31
0.0
  0
DIMENSION
  5
25403
330
747D
100
AcDbEntity
  8
寸法
 48
50.0
100
AcDbDimension
  2
*D22
 10
8105.6
 20
9253.566782079404
 30
0.0
 11
9000.6
 21
9353.566782079404
 31
0.0
 70
    32
 71
     5
 42
1790.0
  3
INABA_S40G
100
AcDbAlignedDimension
 13
9895.600000000001
 23
8434.80715553732
 33
0.0
 14
8105.6
 24
8434.80715553732
 34
0.0
100
AcDbRotatedDimension
1001
ACAD
1000
DSTYLE
1002
{
1070
   341
1005
0
1002
}
  0
DIMENSION
  5
25404
330
747D
100
AcDbEntity
  8
寸法
 48
50.0
100
AcDbDimension
  2
*D23
 10
8223.600000000001
 20
9034.716921185649
 30
0.0
 11
8671.1
 21
9134.716921185649
 31
0.0
 70
    32
 71
     5
 42
895.0
  3
INABA_S40G
100
AcDbAlignedDimension
 13
9118.6
 23
7682.807155537322
 33
0.0
 14
8223.600000000001
 24
7682.807155537324
 34
0.0
100
AcDbRotatedDimension
1001
ACAD
1000
DSTYLE
1002
{
1070
   341
1005
0
1002
}
  0
DIMENSION
  5
25405
330
747D
100
AcDbEntity
  8
寸法
 48
50.0
100
AcDbDimension
  2
*D24
 10
10018.6
 20
9466.02747759624
 30
0.0
 11
8223.600000000001
 21
9566.027477596241
 31
0.0
 70
    32
 71
     5
 42
3590.0
  3
INABA_S40G
100
AcDbAlignedDimension
 13
6428.6
 23
8507.807155537321
 33
0.0
 14
10018.6
 24
8507.807155537321
 34
0.0
100
AcDbRotatedDimension
1001
ACAD
1000
DSTYLE
1002
{
1070
   341
1005
0
1002
}
  0
LINE
  5
25406
330
747D
100
AcDbEntity
  8
部品1
 48
50.0
100
AcDbLine
 10
10018.6
 20
8507.807155537321
 30
0.0
 11
6428.6
 21
8507.807155537321
 31
0.0
  0
LINE
  5
25407
330
747D
100
AcDbEntity
  8
部品1
 48
50.0
100
AcDbLine
 10
10018.6
 20
5867.807155537336
 30
0.0
 11
8196.600000000001
 21
5867.807155537319
 31
0.0
  0
DIMENSION
  5
25408
330
747D
100
AcDbEntity
  8
寸法
 48
50.0
100
AcDbDimension
  2
*D25
 10
8683.488170133342
 20
5987.807155537334
 30
0.0
 11
8683.488170133342
 21
5631.75991144286
 31
0.0
 70
   160
 71
     5
 42
119.9999999999854
  3
INABA_S40G
100
AcDbAlignedDimension
 13
8307.41918098816
 23
5867.807155537349
 33
0.0
 14
8785.378282421282
 24
5987.807155537334
 34
0.0
 50
90.0
100
AcDbRotatedDimension
1001
ACAD
1000
DSTYLE
1002
{
1070
   341
1005
0
1002
}
  0
LINE
  5
25409
330
747D
100
AcDbEntity
  8
部品1
 48
50.0
100
AcDbLine
 10
9788.600000000002
 20
8387.807155537322
 30
0.0
 11
8235.600000000001
 21
8387.807155537322
 31
0.0
  0
DIMENSION
  5
2540A
330
747D
100
AcDbEntity
  8
寸法
 48
50.0
100
AcDbDimension
  2
*D26
 10
8683.488170133342
 20
6097.807155537338
 30
0.0
 11
8683.488170133342
 21
6385.056263093731
 31
0.0
 70
   160
 71
     5
 42
110.0000000000054
  3
INABA_S40G
100
AcDbAlignedDimension
 13
8785.378282421282
 23
5987.807155537334
 33
0.0
 14
8235.600000000001
 24
6097.807155537338
 34
0.0
 50
90.0
100
AcDbRotatedDimension
1001
ACAD
1000
DSTYLE
1002
{
1070
   341
1005
0
1002
}
  0
LINE
  5
2540B
330
747D
100
AcDbEntity
  8
部品1
 48
50.0
100
AcDbLine
 10
9788.600000000002
 20
5987.807155537337
 30
0.0
 11
8235.600000000001
 21
5987.807155537332
 31
0.0
  0
DIMENSION
  5
2540C
330
747D
100
AcDbEntity
  8
寸法
 48
50.0
100
AcDbDimension
  2
*D27
 10
5687.164931848214
 20
5812.807155537331
 30
0.0
 11
5587.164931848214
 21
5840.307155537348
 31
0.0
 70
    32
  1
b
 71
     5
 42
55.00000000003092
  3
INABA_S40G
100
AcDbAlignedDimension
 13
6428.600000000007
 23
5867.807155537362
 33
0.0
 14
5932.657733986181
 24
5812.807155537331
 34
0.0
 50
90.0
100
AcDbRotatedDimension
1001
ACAD
1000
DSTYLE
1002
{
1070
   341
1005
0
1002
}
  0
DIMENSION
  5
2540D
330
747D
100
AcDbEntity
  8
寸法
 48
50.0
100
AcDbDimension
  2
*D28
 10
5687.164931848214
 20
8507.807155537321
 30
0.0
 11
5587.164931848214
 21
8545.307155537324
 31
0.0
 70
    32
  1
c
 71
     5
 42
75.00000000000364
  3
INABA_S40G
100
AcDbAlignedDimension
 13
5932.657733986181
 23
8582.807155537324
 33
0.0
 14
6428.600000000004
 24
8507.807155537321
 34
0.0
 50
90.0
100
AcDbRotatedDimension
1001
ACAD
1000
DSTYLE
1002
{
1070
   341
1005
0
1002
}
  0
DIMENSION
  5
2540E
330
747D
100
AcDbEntity
  8
寸法
 48
50.0
100
AcDbDimension
  2
*D29
 10
6428.6
 20
9466.02747759624
 30
0.0
 11
6112.425378797541
 21
9466.02747759624
 31
0.0
 70
   160
  1
a
 71
     5
 42
44.99999999999272
  3
INABA_S40G
100
AcDbAlignedDimension
 13
6383.600000000008
 23
9253.566782079403
 33
0.0
 14
6428.6
 24
8507.807155537319
 34
0.0
100
AcDbRotatedDimension
1001
ACAD
1000
DSTYLE
1002
{
1070
   341
1005
0
1002
}
  0
DIMENSION
  5
2540F
330
747D
100
AcDbEntity
  8
寸法
 48
50.0
100
AcDbDimension
  2
*D30
 10
10063.6
 20
9466.02747759624
 30
0.0
 11
10334.77462120246
 21
9466.02747759624
 31
0.0
 70
   160
  1
a
 71
     5
 42
45.0
  3
INABA_S40G
100
AcDbAlignedDimension
 13
10018.6
 23
8507.807155537319
 33
0.0
 14
10063.6
 24
9253.566782079403
 34
0.0
100
AcDbRotatedDimension
1001
ACAD
1000
DSTYLE
1002
{
1070
   341
1005
0
1002
}
  0
LINE
  5
25410
330
747D
100
AcDbEntity
  8
想像線
 48
10.0
100
AcDbLine
 10
10063.6
 20
5812.807155537326
 30
0.0
 11
10063.6
 21
8582.807155537318
 31
0.0
  0
DIMENSION
  5
25411
330
747D
100
AcDbEntity
  8
寸法
 48
50.0
100
AcDbDimension
  2
*D31
 10
8463.202780124335
 20
5867.807155537343
 30
0.0
 11
8463.202780124332
 21
5259.321874163105
 31
0.0
 70
   160
  1
扉の出<>
 71
     5
 42
75.00000000000091
  3
INABA_S40G
100
AcDbAlignedDimension
 13
8196.600000000001
 23
5792.807155537342
 33
0.0
 14
8196.600000000008
 24
5867.807155537343
 34
0.0
 50
90.0
100
AcDbRotatedDimension
1001
ACAD
1000
DSTYLE
1002
{
1070
   341
1005
0
1002
}
  0
LEADER
  5
25412
330
747D
100
AcDbEntity
  8
寸法
 48
50.0
100
AcDbLeader
  3
INABA_S40G
 73
     0
 74
     0
 75
     1
 40
120.0
 41
149.591883092037
 76
     3
 10
7358.262064909564
 20
6680.831832841644
 30
0.0
 10
7495.544867772207
 20
6404.81791927381
 30
0.0
 10
7595.544867772208
 20
6404.81791927381
 30
0.0
340
25413
1001
ACAD
1000
DSTYLE
1002
{
1070
   341
1005
0
1002
}
  0
MTEXT
  5
25413
102
{ACAD_REACTORS
330
25412
102
}
330
747D
100
AcDbEntity
  8
部品1
 62
     7
 48
50.0
100
AcDbMText
 10
7785.136750864245
 20
6504.81791927381
 30
0.0
 40
120.0
 41
0.0
 71
     6
 72
     1
  1
CB
  7
STYLE1
 73
     1
 44
1.0
1001
ACAD
1000
MTEXTBEGIN
1070
    73
1070
     1
1070
    44
1040
1.0
1070
    74
1070
     0
1000
MTEXTEND
  0
LEADER
  5
25414
330
747D
100
AcDbEntity
  8
寸法
 48
50.0
100
AcDbLeader
  3
INABA_S40G
 73
     0
 74
     0
 75
     1
 40
120.0
 41
994.3492424049171
 76
     3
 10
9895.680085757
 20
8385.01499989603
 30
0.0
 10
10079.64598830496
 20
8691.672801444886
 30
0.0
 10
10179.64598830496
 20
8691.672801444886
 30
0.0
340
25415
1001
ACAD
1000
DSTYLE
1002
{
1070
   341
1005
0
1002
}
  0
MTEXT
  5
25415
102
{ACAD_REACTORS
330
25414
102
}
330
747D
100
AcDbEntity
  8
部品1
 62
     7
 48
50.0
100
AcDbMText
 10
11213.99523070988
 20
8791.672801444885
 30
0.0
 40
120.0
 41
0.0
 71
     6
 72
     1
  1
アンカーボルト
  7
STYLE1
 73
     1
 44
1.0
1001
ACAD
1000
MTEXTBEGIN
1070
    73
1070
     1
1070
    44
1040
1.0
1070
    74
1070
     0
1000
MTEXTEND
  0
LEADER
  5
25416
330
747D
100
AcDbEntity
  8
寸法
 48
50.0
100
AcDbLeader
  3
INABA_S40G
 73
     0
 74
     0
 75
     1
 40
120.0
 41
672.0
 76
     3
 10
10063.76933893624
 20
6052.761505465935
 30
0.0
 10
10189.70935112828
 20
5778.872162002358
 30
0.0
 10
10289.70935112828
 20
5778.872162002358
 30
0.0
340
25417
1001
ACAD
1000
DSTYLE
1002
{
1070
   341
1005
0
1002
}
  0
MTEXT
  5
25417
102
{ACAD_REACTORS
330
25416
102
}
330
747D
100
AcDbEntity
  8
部品1
 62
     7
 48
50.0
100
AcDbMText
 10
11001.70935112828
 20
5878.872162002359
 30
0.0
 40
120.0
 41
0.0
 71
     6
 72
     1
  1
\A1;屋根の外寸
  7
STYLE1
 73
     1
 44
1.0
1001
ACAD
1000
MTEXTBEGIN
1070
    73
1070
     1
1070
    44
1040
1.0
1070
    74
1070
     0
1000
MTEXTEND
  0
TEXT
  5
25418
330
747D
100
AcDbEntity
  8
部品1
 48
50.0
100
AcDbText
 10
10203.92215513968
 20
5699.561475069284
 30
0.0
 40
80.0
  1
※a,b,cは屋根の出幅です。
  7
STYLE1
100
AcDbText
  0
TEXT
  5
25419
330
747D
100
AcDbEntity
  8
部品1
 48
50.0
100
AcDbText
 10
10362.50116389397
 20
5592.71625420053
 30
0.0
 40
80.0
  1
(a=45,b=55,c=75)
  7
STYLE1
100
AcDbText
  0
MTEXT
  5
2541A
102
{ACAD_REACTORS
330
2541B
102
}
330
747D
100
AcDbEntity
  8
部品1
 62
     7
 48
50.0
100
AcDbMText
 10
11045.46907400128
 20
7025.9954125513
 30
0.0
 40
120.0
 41
0.0
 71
     6
 72
     1
  1
\A1;床下換気口
  7
STYLE1
 73
     1
 44
1.0
1001
ACAD
1000
MTEXTBEGIN
1070
    73
1070
     1
1070
    44
1040
1.0
1070
    74
1070
     0
1000
MTEXTEND
  0
LEADER
  5
2541B
330
747D
100
AcDbEntity
  8
寸法
 48
50.0
100
AcDbLeader
  3
INABA_S40G
 73
     0
 74
     0
 75
     1
 40
120.0
 41
720.0000000000001
 76
     3
 10
10018.695499615
 20
7202.009326119133
 30
0.0
 10
10185.46907400128
 20
6925.995412551301
 30
0.0
 10
10285.46907400128
 20
6925.995412551301
 30
0.0
340
2541A
1001
ACAD
1000
DSTYLE
1002
{
1070
   341
1005
0
1002
}
  0
HATCH
  5
26E1A
330
747D
100
AcDbEntity
  8
細線
 48
50.0
100
AcDbHatch
 10
0.0
 20
0.0
 30
0.0
210
0.0
220
0.0
230
1.0
  2
LINE
 70
     0
 71
     0
 91
        1
 92
        7
 72
     0
 73
     1
 93
        4
 10
10018.6
 20
7287.807155537322
 10
9898.600000000001
 20
7287.807155537326
 10
9898.6
 20
7087.807155537323
 10
10018.6
 20
7087.807155537324
 97
        0
 75
     0
 76
     1
 52
45.0
 41
10.0
 77
     0
 78
     1
 53
45.0
 43
0.0
 44
0.0
 45
-22.45064030267288
 46
22.45064030267288
 79
     0
 47
2.774399783860889
 98
        1
 10
9982.156848491955
 20
7192.345609203844
  0
HATCH
  5
26E3E
330
747D
100
AcDbEntity
  8
細線
 48
50.0
100
AcDbHatch
 10
0.0
 20
0.0
 30
0.0
210
0.0
220
0.0
230
1.0
  2
LINE
 70
     0
 71
     0
 91
        1
 92
        7
 72
     0
 73
     1
 93
        4
 10
9220.600000000001
 20
8507.807155537321
 10
9020.599999999999
 20
8507.807155537319
 10
9020.600000000001
 20
8387.807155537322
 10
9220.600000000001
 20
8387.807155537322
 97
        0
 75
     0
 76
     1
 52
45.0
 41
10.0
 77
     0
 78
     1
 53
45.0
 43
0.0
 44
0.0
 45
-22.45064030267288
 46
22.45064030267288
 79
     0
 47
4.439039610137855
 98
        1
 10
9159.15265854093
 20
8454.050126106919
  0
HATCH
  5
26E62
330
747D
100
AcDbEntity
  8
細線
 48
50.0
100
AcDbHatch
 10
0.0
 20
0.0
 30
0.0
210
0.0
220
0.0
230
1.0
  2
LINE
 70
     0
 71
     0
 91
        1
 92
        7
 72
     0
 73
     1
 93
        4
 10
7426.600000000002
 20
8507.807155537323
 10
7226.600000000001
 20
8507.807155537324
 10
7226.599999999999
 20
8387.807155537322
 10
7426.6
 20
8387.807155537322
 97
        0
 75
     0
 76
     1
 52
45.0
 41
10.0
 77
     0
 78
     1
 53
45.0
 43
0.0
 44
0.0
 45
-22.45064030267288
 46
22.45064030267288
 79
     0
 47
4.439039610137855
 98
        1
 10
7262.876854597263
 20
8436.293992622118
  0
HATCH
  5
26E86
330
747D
100
AcDbEntity
  8
細線
 48
50.0
100
AcDbHatch
 10
0.0
 20
0.0
 30
0.0
210
0.0
220
0.0
230
1.0
  2
LINE
 70
     0
 71
     0
 91
        1
 92
        7
 72
     0
 73
     1
 93
        4
 10
6548.599999999999
 20
7287.807155537322
 10
6428.6
 20
7287.807155537322
 10
6428.600000000002
 20
7087.807155537323
 10
6548.6
 20
7087.807155537319
 97
        0
 75
     0
 76
     1
 52
45.0
 41
10.0
 77
     0
 78
     1
 53
45.0
 43
0.0
 44
0.0
 45
-22.45064030267288
 46
22.45064030267288
 79
     0
 47
4.439039610137855
 98
        1
 10
6494.596490345299
 20
7171.167696025903
  0
HATCH
  5
26EA0
330
747D
100
AcDbEntity
  8
細線
 48
50.0
100
AcDbHatch
 10
0.0
 20
0.0
 30
0.0
210
0.0
220
0.0
230
1.0
  2
LINE
 70
     0
 71
     0
 91
        1
 92
        7
 72
     0
 73
     1
 93
        4
 10
7426.599999999993
 20
5987.807155537328
 10
7226.599999999994
 20
5987.807155537326
 10
7226.599999999995
 20
5792.807155537317
 10
7426.599999999995
 20
5792.807155537321
 97
        0
 75
     0
 76
     1
 52
45.0
 41
10.0
 77
     0
 78
     1
 53
45.0
 43
0.0
 44
0.0
 45
-22.45064030267288
 46
22.45064030267288
 79
     0
 47
4.439039610137861
 98
        1
 10
7342.554824021907
 20
5877.861734364487
  0
HATCH
  5
26EBA
330
747D
100
AcDbEntity
  8
細線
 48
50.0
100
AcDbHatch
 10
0.0
 20
0.0
 30
0.0
210
0.0
220
0.0
230
1.0
  2
LINE
 70
     0
 71
     0
 91
        1
 92
        7
 72
     0
 73
     1
 93
        4
 10
9220.600000000008
 20
5987.807155537336
 10
9020.600000000007
 20
5987.807155537335
 10
9020.60000000001
 20
5867.807155537327
 10
9220.600000000008
 20
5867.807155537327
 97
        0
 75
     0
 76
     1
 52
45.0
 41
10.0
 77
     0
 78
     1
 53
45.0
 43
0.0
 44
0.0
 45
-22.45064030267288
 46
22.45064030267288
 79
     0
 47
4.439039610137861
 98
        1
 10
9154.453023844951
 20
5926.691160974496
  0
LINE
  5
27042
330
747D
100
AcDbEntity
  8
部品1
100
AcDbLine
 10
10442.32576813134
 20
2182.966186515548
 30
0.0
 11
11042.32576813134
 21
2182.966186515548
 31
0.0
  0
MTEXT
  5
27043
102
{ACAD_REACTORS
330
27044
102
}
330
747D
100
AcDbEntity
  8
寸法
 62
     7
 48
50.0
100
AcDbMText
 10
11184.6540409433
 20
2504.399087366971
 30
0.0
 40
150.0
 41
1.0
 71
     4
 72
     1
  1
\A1;C.B
  7
STYLE1
 73
     1
 44
1.0
1001
ACAD
1000
MTEXTBEGIN
1070
    73
1070
     1
1070
    44
1040
1.0
1070
    74
1070
     0
1000
MTEXTEND
  0
LEADER
  5
27044
330
747D
100
AcDbEntity
  8
寸法
 48
50.0
100
AcDbLeader
  3
INABA_S40G
 73
     0
 74
     0
 75
     1
 40
150.0
 41
231.9898538650463
 76
     3
 10
10955.73128265123
 20
2182.966186515549
 30
0.0
 10
11044.6540409433
 20
2389.399087366971
 30
0.0
 10
11144.6540409433
 20
2389.399087366971
 30
0.0
340
27043
1001
ACAD
1000
DSTYLE
1002
{
1070
   341
1005
0
1002
}
  0
LINE
  5
27045
330
747D
100
AcDbEntity
  8
部品1
100
AcDbLine
 10
11192.32576813133
 20
1882.966186515549
 30
0.0
 11
11192.32576813133
 21
1608.34254194886
 31
0.0
  0
LINE
  5
27046
330
747D
100
AcDbEntity
  8
細線
100
AcDbLine
 10
10968.47407499789
 20
1768.342541948864
 30
0.0
 11
11083.09771956457
 21
1882.966186515549
 31
0.0
  0
LINE
  5
27047
330
747D
100
AcDbEntity
  8
細線
 48
50.0
100
AcDbLine
 10
11039.1879934377
 20
1738.342541948858
 30
0.0
 11
11031.14951766477
 21
1768.342541948858
 31
0.0
  0
LINE
  5
27048
330
747D
100
AcDbEntity
  8
細線
 48
50.0
100
AcDbLine
 10
10940.57793725363
 20
1738.34254194886
 30
0.0
 11
10932.53946148069
 21
1768.34254194886
 31
0.0
  0
LINE
  5
27049
330
747D
100
AcDbEntity
  8
細線
 48
50.0
100
AcDbLine
 10
10743.35782488551
 20
1738.34254194886
 30
0.0
 11
10735.31934911259
 21
1768.34254194886
 31
0.0
  0
LINE
  5
2704A
330
747D
100
AcDbEntity
  8
細線
 48
50.0
100
AcDbLine
 10
10841.96788106958
 20
1738.34254194886
 30
0.0
 11
10833.92940529664
 21
1768.34254194886
 31
0.0
  0
LINE
  5
2704B
330
747D
100
AcDbEntity
  8
細線
100
AcDbLine
 10
10883.62126125551
 20
1768.342541948864
 30
0.0
 11
10998.24490582219
 21
1882.966186515549
 31
0.0
  0
LINE
  5
2704C
330
747D
100
AcDbEntity
  8
細線
100
AcDbLine
 10
10926.04766812669
 20
1768.342541948864
 30
0.0
 11
11040.67131269338
 21
1882.966186515549
 31
0.0
  0
LINE
  5
2704D
330
747D
100
AcDbEntity
  8
細線
 48
50.0
100
AcDbLine
 10
11012.39307419459
 20
1638.342541948858
 30
0.0
 11
11020.43154996751
 21
1608.342541948858
 31
0.0
  0
LINE
  5
2704E
330
747D
100
AcDbEntity
  8
細線
 48
50.0
100
AcDbLine
 10
11111.00313037864
 20
1638.342541948858
 30
0.0
 11
11119.04160615158
 21
1608.342541948858
 31
0.0
  0
LINE
  5
2704F
330
747D
100
AcDbEntity
  8
細線
 48
50.0
100
AcDbLine
 10
10815.17296182647
 20
1638.34254194886
 30
0.0
 11
10823.2114375994
 21
1608.34254194886
 31
0.0
  0
LINE
  5
27050
330
747D
100
AcDbEntity
  8
細線
 48
50.0
100
AcDbLine
 10
10913.78301801053
 20
1638.34254194886
 30
0.0
 11
10921.82149378347
 21
1608.34254194886
 31
0.0
  0
LINE
  5
27051
330
747D
100
AcDbEntity
  8
細線
 48
50.0
100
AcDbLine
 10
11004.35459842165
 20
1608.342541948857
 30
0.0
 11
11047.22646921063
 21
1768.342541948857
 31
0.0
  0
LINE
  5
27052
330
747D
100
AcDbEntity
  8
細線
 48
50.0
100
AcDbLine
 10
10807.13448605353
 20
1608.34254194886
 30
0.0
 11
10850.00635684251
 21
1768.342541948858
 31
0.0
  0
LINE
  5
27053
330
747D
100
AcDbEntity
  8
細線
 48
50.0
100
AcDbLine
 10
10905.74454223758
 20
1608.342541948858
 30
0.0
 11
10948.61641302656
 21
1768.34254194886
 31
0.0
  0
LINE
  5
27054
330
747D
100
AcDbEntity
  8
細線
100
AcDbLine
 10
10518.47407499789
 20
1768.342541948861
 30
0.0
 11
10633.09771956458
 21
1882.966186515549
 31
0.0
  0
LINE
  5
27055
330
747D
100
AcDbEntity
  8
細線
 48
50.0
100
AcDbLine
 10
10546.1377125174
 20
1738.34254194886
 30
0.0
 11
10538.09923674447
 21
1768.34254194886
 31
0.0
  0
LINE
  5
27056
330
747D
100
AcDbEntity
  8
細線
 48
50.0
100
AcDbLine
 10
10644.74776870146
 20
1738.34254194886
 30
0.0
 11
10636.70929292853
 21
1768.34254194886
 31
0.0
  0
LINE
  5
27057
330
747D
100
AcDbEntity
  8
細線
 48
50.0
100
AcDbLine
 10
10348.91760014928
 20
1738.34254194886
 30
0.0
 11
10340.87912437634
 21
1768.34254194886
 31
0.0
  0
LINE
  5
27058
330
747D
100
AcDbEntity
  8
細線
 48
50.0
100
AcDbLine
 10
10447.52765633334
 20
1738.34254194886
 30
0.0
 11
10439.48918056041
 21
1768.34254194886
 31
0.0
  0
LINE
  5
27059
330
747D
100
AcDbEntity
  8
細線
100
AcDbLine
 10
10476.0476681267
 20
1768.342541948861
 30
0.0
 11
10590.67131269338
 21
1882.966186515549
 31
0.0
  0
LINE
  5
2705A
330
747D
100
AcDbEntity
  8
細線
100
AcDbLine
 10
10433.6212612555
 20
1768.34254194886
 30
0.0
 11
10548.24490582218
 21
1882.966186515547
 31
0.0
  0
LINE
  5
2705B
330
747D
100
AcDbEntity
  8
細線
 48
50.0
100
AcDbLine
 10
10617.95284945834
 20
1638.34254194886
 30
0.0
 11
10625.99132523128
 21
1608.34254194886
 31
0.0
  0
LINE
  5
2705C
330
747D
100
AcDbEntity
  8
細線
 48
50.0
100
AcDbLine
 10
10519.34279327429
 20
1638.34254194886
 30
0.0
 11
10527.38126904723
 21
1608.34254194886
 31
0.0
  0
LINE
  5
2705D
330
747D
100
AcDbEntity
  8
細線
 48
50.0
100
AcDbLine
 10
10322.12268090616
 20
1638.34254194886
 30
0.0
 11
10330.1611566791
 21
1608.34254194886
 31
0.0
  0
LINE
  5
2705E
330
747D
100
AcDbEntity
  8
細線
 48
50.0
100
AcDbLine
 10
10420.73273709023
 20
1638.34254194886
 30
0.0
 11
10428.77121286316
 21
1608.34254194886
 31
0.0
  0
LINE
  5
2705F
330
747D
100
AcDbEntity
  8
細線
 48
50.0
100
AcDbLine
 10
10609.91437368541
 20
1608.34254194886
 30
0.0
 11
10652.7862444744
 21
1768.342541948858
 31
0.0
  0
LINE
  5
27060
330
747D
100
AcDbEntity
  8
細線
 48
50.0
100
AcDbLine
 10
10412.69426131729
 20
1608.342541948858
 30
0.0
 11
10455.56613210627
 21
1768.342541948858
 31
0.0
  0
LINE
  5
27061
330
747D
100
AcDbEntity
  8
細線
 48
50.0
100
AcDbLine
 10
10314.08420513323
 20
1608.34254194886
 30
0.0
 11
10356.95607592221
 21
1768.34254194886
 31
0.0
  0
LINE
  5
27062
330
747D
100
AcDbEntity
  8
細線
 48
50.0
100
AcDbLine
 10
10511.30431750135
 20
1608.34254194886
 30
0.0
 11
10554.17618829033
 21
1768.34254194886
 31
0.0
  0
LINE
  5
27063
330
747D
100
AcDbEntity
  8
細線
 48
50.0
100
AcDbLine
 10
10708.52442986947
 20
1608.342541948858
 30
0.0
 11
10751.39630065844
 21
1768.342541948858
 31
0.0
  0
LINE
  5
27064
330
747D
100
AcDbEntity
  8
細線
 48
50.0
100
AcDbLine
 10
10716.56290564241
 20
1638.34254194886
 30
0.0
 11
10724.60138141533
 21
1608.34254194886
 31
0.0
  0
LINE
  5
27065
330
747D
100
AcDbEntity
  8
細線
 48
50.0
100
AcDbLine
 10
11102.9646546057
 20
1608.342541948858
 30
0.0
 11
11145.83652539469
 21
1768.342541948857
 31
0.0
  0
LINE
  5
27066
330
747D
100
AcDbEntity
  8
細線
 48
50.0
100
AcDbLine
 10
11137.79804962176
 20
1738.342541948858
 30
0.0
 11
11129.75957384882
 21
1768.342541948858
 31
0.0
  0
LINE
  5
27067
330
747D
100
AcDbEntity
  8
細線
100
AcDbLine
 10
10685.61743522731
 20
1882.966186515549
 30
0.0
 11
10442.32576813134
 21
2126.257853611527
 31
0.0
  0
LINE
  5
27068
330
747D
100
AcDbEntity
  8
部品1
100
AcDbLine
 10
10442.32576813134
 20
1882.966186515549
 30
0.0
 11
10442.32576813134
 21
2182.966186515548
 31
0.0
  0
LINE
  5
27069
330
747D
100
AcDbEntity
  8
細線
100
AcDbLine
 10
10621.97782492053
 20
1882.966186515549
 30
0.0
 11
10442.32576813134
 21
2062.61824330474
 31
0.0
  0
LINE
  5
2706A
330
747D
100
AcDbEntity
  8
細線
100
AcDbLine
 10
11025.02869019686
 20
1882.966186515549
 30
0.0
 11
10725.02869019687
 21
2182.966186515548
 31
0.0
  0
LINE
  5
2706B
330
747D
100
AcDbEntity
  8
細線
100
AcDbLine
 10
10961.38907989007
 20
1882.966186515549
 30
0.0
 11
10661.38907989008
 21
2182.966186515548
 31
0.0
  0
LINE
  5
2706C
330
747D
100
AcDbEntity
  8
部品1
100
AcDbLine
 10
11042.32576813134
 20
2182.966186515548
 30
0.0
 11
11042.32576813134
 21
1882.966186515549
 31
0.0
  0
LINE
  5
2706D
330
747D
100
AcDbEntity
  8
部品1
100
AcDbLine
 10
10292.32576813134
 20
1608.342541948857
 30
0.0
 11
10292.32576813134
 21
1882.966186515549
 31
0.0
  0
LINE
  5
2706E
330
747D
100
AcDbEntity
  8
細線
 48
50.0
100
AcDbLine
 10
8754.574058182083
 20
1172.966186515547
 30
0.0
 11
8746.535582409149
 21
1202.966186515547
 31
0.0
  0
LINE
  5
2706F
330
747D
100
AcDbEntity
  8
細線
 48
50.0
100
AcDbLine
 10
8853.184114366142
 20
1172.966186515547
 30
0.0
 11
8845.145638593209
 21
1202.966186515547
 31
0.0
  0
LINE
  5
27070
330
747D
100
AcDbEntity
  8
細線
 48
50.0
100
AcDbLine
 10
8727.779138938975
 20
1072.966186515547
 30
0.0
 11
8735.817614711908
 21
1042.966186515547
 31
0.0
  0
LINE
  5
27071
330
747D
100
AcDbEntity
  8
細線
 48
50.0
100
AcDbLine
 10
8826.389195123031
 20
1072.966186515547
 30
0.0
 11
8834.427670895964
 21
1042.966186515547
 31
0.0
  0
LINE
  5
27072
330
747D
100
AcDbEntity
  8
細線
 48
50.0
100
AcDbLine
 10
8719.740663166035
 20
1042.966186515545
 30
0.0
 11
8762.612533955014
 21
1202.966186515545
 31
0.0
  0
LINE
  5
27073
330
747D
100
AcDbEntity
  8
細線
 48
50.0
100
AcDbLine
 10
8818.350719350089
 20
1042.966186515547
 30
0.0
 11
8861.222590139071
 21
1202.966186515545
 31
0.0
  0
LINE
  5
27074
330
747D
100
AcDbEntity
  8
部品1
 48
50.0
100
AcDbLine
 10
8907.711832875724
 20
1202.966186515549
 30
0.0
 11
8907.711832875724
 21
1042.966186515549
 31
0.0
  0
LINE
  5
27075
330
747D
100
AcDbEntity
  8
部品1
 48
50.0
100
AcDbLine
 10
8807.711832875723
 20
1502.966186515548
 30
0.0
 11
8807.711832875723
 21
1202.966186515549
 31
0.0
  0
TEXT
  5
27076
330
747D
100
AcDbEntity
  8
部品1
 48
50.0
100
AcDbText
 10
9816.98413980604
 20
1549.466510718912
 30
0.0
 40
100.0
  1
ボルトの出
 50
90.0
  7
STYLE2
100
AcDbText
  0
LWPOLYLINE
  5
27077
330
747D
100
AcDbEntity
  8
部品1
 48
50.0
100
AcDbPolyline
 90
        2
 70
     0
 43
15.0
 10
9961.561690505854
 20
1882.966186515549
 10
11462.92706942038
 20
1882.966186515549
  0
LINE
  5
27078
330
747D
100
AcDbEntity
  8
部品1
100
AcDbLine
 10
10292.32576813134
 20
1768.34254194886
 30
0.0
 11
11192.32576813133
 21
1768.342541948865
 31
0.0
  0
LINE
  5
27079
330
747D
100
AcDbEntity
  8
部品1
100
AcDbLine
 10
10292.32576813134
 20
1608.342541948857
 30
0.0
 11
11192.32576813133
 21
1608.34254194886
 31
0.0
  0
LINE
  5
2707A
330
747D
100
AcDbEntity
  8
部品1
100
AcDbLine
 10
11782.83669595048
 20
575.1112084885157
 30
0.0
 11
11782.83669595048
 21
3834.180711236604
 31
0.0
  0
LINE
  5
2707B
330
747D
100
AcDbEntity
  8
部品1
 48
50.0
100
AcDbLine
 10
8366.961832875722
 20
2671.560287901977
 30
0.0
 11
8386.961832875723
 21
2681.560287901977
 31
0.0
  0
LINE
  5
2707C
330
747D
100
AcDbEntity
  8
部品1
 48
50.0
100
AcDbLine
 10
8366.961832875722
 20
2631.560287901977
 30
0.0
 11
8386.961832875723
 21
2621.560287901977
 31
0.0
  0
LINE
  5
2707D
330
747D
100
AcDbEntity
  8
部品1
 48
50.0
100
AcDbLine
 10
8366.961832875722
 20
2671.560287901977
 30
0.0
 11
8386.961832875723
 21
2661.560287901977
 31
0.0
  0
LINE
  5
2707E
330
747D
100
AcDbEntity
  8
部品1
 48
50.0
100
AcDbLine
 10
8366.961832875722
 20
2631.560287901977
 30
0.0
 11
8366.961832875722
 21
2671.560287901977
 31
0.0
  0
LINE
  5
2707F
330
747D
100
AcDbEntity
  8
部品1
 48
50.0
100
AcDbLine
 10
8426.961832875724
 20
2681.560287901977
 30
0.0
 11
8446.961832875722
 21
2671.560287901977
 31
0.0
  0
LINE
  5
27080
330
747D
100
AcDbEntity
  8
部品1
 48
50.0
100
AcDbLine
 10
8446.961832875722
 20
2631.560287901977
 30
0.0
 11
8446.961832875722
 21
2671.560287901977
 31
0.0
  0
LINE
  5
27081
330
747D
100
AcDbEntity
  8
細線
 48
50.0
100
AcDbLine
 10
8426.961832875724
 20
2621.560287901977
 30
0.0
 11
8426.961832875724
 21
2661.560287901977
 31
0.0
  0
LINE
  5
27082
330
747D
100
AcDbEntity
  8
部品1
 48
50.0
100
AcDbLine
 10
8426.961832875724
 20
2661.560287901977
 30
0.0
 11
8446.961832875722
 21
2671.560287901977
 31
0.0
  0
LINE
  5
27083
330
747D
100
AcDbEntity
  8
部品1
 48
50.0
100
AcDbLine
 10
8426.961832875724
 20
2621.560287901977
 30
0.0
 11
8446.961832875722
 21
2631.560287901977
 31
0.0
  0
LINE
  5
27084
330
747D
100
AcDbEntity
  8
細線
 48
50.0
100
AcDbLine
 10
8386.961832875723
 20
2621.560287901977
 30
0.0
 11
8386.961832875723
 21
2661.560287901977
 31
0.0
  0
LINE
  5
27085
330
747D
100
AcDbEntity
  8
部品1
 48
50.0
100
AcDbLine
 10
8386.961832875723
 20
2661.560287901977
 30
0.0
 11
8426.961832875724
 21
2661.560287901977
 31
0.0
  0
LINE
  5
27086
330
747D
100
AcDbEntity
  8
部品1
 48
50.0
100
AcDbLine
 10
8386.961832875723
 20
2621.560287901977
 30
0.0
 11
8426.961832875724
 21
2621.560287901977
 31
0.0
  0
ELLIPSE
  5
27087
330
747D
100
AcDbEntity
  8
細線
 48
50.0
100
AcDbEllipse
 10
8406.961832875721
 20
2671.560287901977
 30
0.0
 11
18.45838483258558
 21
0.0
 31
0.0
210
0.0
220
0.0
230
1.0
 40
0.2071254069489396
 41
0.0
 42
6.283185307179585
  0
LINE
  5
27088
330
747D
100
AcDbEntity
  8
部品1
 48
50.0
100
AcDbLine
 10
8386.961832875723
 20
2681.560287901977
 30
0.0
 11
8426.961832875724
 21
2681.560287901977
 31
0.0
  0
ELLIPSE
  5
27089
330
747D
100
AcDbEntity
  8
部品1
 48
50.0
100
AcDbEllipse
 10
8406.961832875721
 20
2519.37029707089
 30
0.0
 11
50.0
 21
0.0
 31
0.0
210
0.0
220
0.0
230
1.0
 40
0.4
 41
0.0
 42
6.283185307179585
  0
ELLIPSE
  5
2708A
330
747D
100
AcDbEntity
  8
部品1
 48
50.0
100
AcDbEllipse
 10
8406.961832875721
 20
2507.37029707089
 30
0.0
 11
50.0
 21
0.0
 31
0.0
210
0.0
220
0.0
230
1.0
 40
0.4
 41
3.141592653589792
 42
6.283185307179585
  0
LINE
  5
2708B
330
747D
100
AcDbEntity
  8
部品1
 48
50.0
100
AcDbLine
 10
8356.96183287572
 20
2519.37029707089
 30
0.0
 11
8356.96183287572
 21
2507.37029707089
 31
0.0
  0
LINE
  5
2708C
330
747D
100
AcDbEntity
  8
部品1
 48
50.0
100
AcDbLine
 10
8456.961832875723
 20
2507.37029707089
 30
0.0
 11
8456.961832875723
 21
2519.37029707089
 31
0.0
  0
ELLIPSE
  5
2708D
330
747D
100
AcDbEntity
  8
部品1
 48
50.0
100
AcDbEllipse
 10
8406.961832875721
 20
2519.37029707089
 30
0.0
 11
23.0
 21
0.0
 31
0.0
210
0.0
220
0.0
230
1.0
 40
0.3478260869565217
 41
0.0
 42
6.283185307179585
  0
LINE
  5
2708E
330
747D
100
AcDbEntity
  8
部品1
100
AcDbLine
 10
8318.086832875724
 20
2251.591186515549
 30
0.0
 11
8318.086832875724
 21
2198.291186515549
 31
0.0
  0
ARC
  5
2708F
330
747D
100
AcDbEntity
  8
部品1
100
AcDbCircle
 10
8314.711832875721
 20
2251.591186515549
 30
0.0
 40
3.375
100
AcDbArc
 50
0.0
 51
90.0
  0
ARC
  5
27090
330
747D
100
AcDbEntity
  8
部品1
100
AcDbCircle
 10
8314.711832875721
 20
2198.291186515549
 30
0.0
 40
3.375
100
AcDbArc
 50
270.0
 51
0.0
  0
LINE
  5
27091
330
747D
100
AcDbEntity
  8
部品1
100
AcDbLine
 10
8333.036832875725
 20
2266.541186515548
 30
0.0
 11
8333.036832875718
 21
2198.291186515549
 31
0.0
  0
ARC
  5
27092
330
747D
100
AcDbEntity
  8
部品1
100
AcDbCircle
 10
8329.661832875725
 20
2266.541186515548
 30
0.0
 40
3.375
100
AcDbArc
 50
0.0
 51
90.0
  0
ARC
  5
27093
330
747D
100
AcDbEntity
  8
部品1
100
AcDbCircle
 10
8336.411832875716
 20
2198.291186515549
 30
0.0
 40
3.375
100
AcDbArc
 50
180.0
 51
270.0
  0
LINE
  5
27094
330
747D
100
AcDbEntity
  8
部品1
100
AcDbLine
 10
8291.086832875723
 20
2266.541186515548
 30
0.0
 11
8291.086832875723
 21
2245.166186515549
 31
0.0
  0
ARC
  5
27095
330
747D
100
AcDbEntity
  8
部品1
100
AcDbCircle
 10
8294.46183287572
 20
2266.541186515548
 30
0.0
 40
3.375
100
AcDbArc
 50
90.0
 51
180.0
  0
LINE
  5
27096
330
747D
100
AcDbEntity
  8
部品1
100
AcDbLine
 10
8265.211832875724
 20
2254.966186515549
 30
0.0
 11
8314.711832875721
 21
2254.966186515549
 31
0.0
  0
LINE
  5
27097
330
747D
100
AcDbEntity
  8
部品1
100
AcDbLine
 10
8300.086832875722
 20
2194.916186515549
 30
0.0
 11
8314.711832875721
 21
2194.916186515549
 31
0.0
  0
LINE
  5
27098
330
747D
100
AcDbEntity
  8
部品1
100
AcDbLine
 10
8294.46183287572
 20
2269.916186515549
 30
0.0
 11
8329.661832875725
 21
2269.916186515549
 31
0.0
  0
LINE
  5
27099
330
747D
100
AcDbEntity
  8
部品1
100
AcDbLine
 10
8400.211832875722
 20
2248.916186515549
 30
0.0
 11
8413.711832875723
 21
2248.916186515549
 31
0.0
  0
LINE
  5
2709A
330
747D
100
AcDbEntity
  8
部品1
100
AcDbLine
 10
8395.711832875724
 20
2244.416186515549
 30
0.0
 11
8418.211832875723
 21
2244.416186515549
 31
0.0
  0
LINE
  5
2709B
330
747D
100
AcDbEntity
  8
細線
100
AcDbLine
 10
8400.211832875726
 20
2194.916186515549
 30
0.0
 11
8400.211832875722
 21
2248.916186515549
 31
0.0
  0
LINE
  5
2709C
330
747D
100
AcDbEntity
  8
細線
100
AcDbLine
 10
8413.711832875723
 20
2194.916186515549
 30
0.0
 11
8413.711832875723
 21
2248.916186515549
 31
0.0
  0
LINE
  5
2709D
330
747D
100
AcDbEntity
  8
部品1
100
AcDbLine
 10
8336.411832875716
 20
2194.916186515549
 30
0.0
 11
8588.086832875715
 21
2194.916186515549
 31
0.0
  0
LINE
  5
2709E
330
747D
100
AcDbEntity
  8
部品1
100
AcDbLine
 10
8265.211832875724
 20
2319.091186515545
 30
0.0
 11
8265.211832875724
 21
2254.966186515549
 31
0.0
  0
ARC
  5
2709F
330
747D
100
AcDbEntity
  8
部品1
100
AcDbCircle
 10
8205.586832875722
 20
2305.591186515549
 30
0.0
 40
3.375
100
AcDbArc
 50
90.0
 51
180.0
  0
LINE
  5
270A0
330
747D
100
AcDbEntity
  8
部品1
100
AcDbLine
 10
8208.961832875724
 20
2322.466186515549
 30
0.0
 11
8261.836832875724
 21
2322.466186515546
 31
0.0
  0
LINE
  5
270A1
330
747D
100
AcDbEntity
  8
部品1
100
AcDbLine
 10
8205.586832875722
 20
2308.966186515549
 30
0.0
 11
8205.586832875722
 21
2319.091186515549
 31
0.0
  0
LINE
  5
270A2
330
747D
100
AcDbEntity
  8
部品1
100
AcDbLine
 10
8205.586832875722
 20
2308.966186515549
 30
0.0
 11
8205.586832875722
 21
2308.966186515549
 31
0.0
  0
ARC
  5
270A3
330
747D
100
AcDbEntity
  8
部品1
100
AcDbCircle
 10
8208.961832875724
 20
2319.091186515549
 30
0.0
 40
3.375
100
AcDbArc
 50
90.0
 51
180.0
  0
LINE
  5
270A4
330
747D
100
AcDbEntity
  8
部品1
100
AcDbLine
 10
8154.961832875722
 20
2295.466186515549
 30
0.0
 11
8202.21183287572
 21
2295.466186515549
 31
0.0
  0
LINE
  5
270A5
330
747D
100
AcDbEntity
  8
細線
 48
50.0
100
AcDbLine
 10
8130.211832875721
 20
2100.339985982412
 30
0.0
 11
8212.838033408861
 21
2182.966186515549
 31
0.0
  0
LINE
  5
270A6
330
747D
100
AcDbEntity
  8
細線
 48
50.0
100
AcDbLine
 10
8130.211832875721
 20
2134.015946436421
 30
0.0
 11
8179.162072954856
 21
2182.966186515549
 31
0.0
  0
LINE
  5
270A7
330
747D
100
AcDbEntity
  8
部品1
100
AcDbLine
 10
8141.461832875725
 20
2194.916186515549
 30
0.0
 11
8156.086832875715
 21
2194.916186515549
 31
0.0
  0
LINE
  5
270A8
330
747D
100
AcDbEntity
  8
部品1
100
AcDbLine
 10
8140.643275141222
 20
2279.230297081924
 30
0.0
 11
8151.586832875722
 21
2281.966186515548
 31
0.0
  0
LINE
  5
270A9
330
747D
100
AcDbEntity
  8
細線
 48
50.0
100
AcDbLine
 10
8130.211832875721
 20
2167.691906890429
 30
0.0
 11
8145.48611250084
 21
2182.966186515549
 31
0.0
  0
LINE
  5
270AA
330
747D
100
AcDbEntity
  8
部品1
100
AcDbLine
 10
8138.086832875723
 20
2198.291186515549
 30
0.0
 11
8138.086832875723
 21
2275.956066143934
 31
0.0
  0
ARC
  5
270AB
330
747D
100
AcDbEntity
  8
部品1
100
AcDbCircle
 10
8141.461832875725
 20
2275.956066143934
 30
0.0
 40
3.375
100
AcDbArc
 50
104.0362434679059
 51
180.0
  0
ARC
  5
270AC
330
747D
100
AcDbEntity
  8
部品1
100
AcDbCircle
 10
8141.461832875725
 20
2198.291186515549
 30
0.0
 40
3.375
100
AcDbArc
 50
180.0
 51
270.0
  0
ARC
  5
270AD
330
747D
100
AcDbEntity
  8
部品1
100
AcDbCircle
 10
8154.961832875722
 20
2292.091186515548
 30
0.0
 40
3.375
100
AcDbArc
 50
90.0
 51
180.0
  0
LINE
  5
270AE
330
747D
100
AcDbEntity
  8
部品1
100
AcDbLine
 10
8151.586832875722
 20
2281.966186515548
 30
0.0
 11
8151.586832875722
 21
2292.091186515548
 31
0.0
  0
LINE
  5
270AF
330
747D
100
AcDbEntity
  8
部品1
100
AcDbLine
 10
8202.21183287572
 20
2295.466186515549
 30
0.0
 11
8202.21183287572
 21
2305.591186515549
 31
0.0
  0
LINE
  5
270B0
330
747D
100
AcDbEntity
  8
部品1
 48
50.0
100
AcDbLine
 10
8130.211832875721
 20
2182.966186515549
 30
0.0
 11
8647.711832875724
 21
2182.966186515549
 31
0.0
  0
ARC
  5
270B1
330
747D
100
AcDbEntity
  8
部品1
100
AcDbCircle
 10
8261.836832875724
 20
2319.091186515545
 30
0.0
 40
3.375
100
AcDbArc
 50
0.0
 51
90.0
  0
TEXT
  5
270B2
330
747D
100
AcDbEntity
  8
部品1
 48
50.0
100
AcDbText
 10
7597.154212151359
 20
2596.166837891144
 30
0.0
 40
100.0
  1
※(別売)
  7
STYLE2
100
AcDbText
  0
LINE
  5
270B3
330
747D
100
AcDbEntity
  8
部品1
100
AcDbLine
 10
8418.211832875723
 20
1901.716186515549
 30
0.0
 11
8463.211832875723
 21
1901.716186515549
 31
0.0
  0
LINE
  5
270B4
330
747D
100
AcDbEntity
  8
部品1
100
AcDbLine
 10
8418.211832875723
 20
1879.216186515548
 30
0.0
 11
8463.211832875723
 21
1879.216186515548
 31
0.0
  0
ARC
  5
270B5
330
747D
100
AcDbEntity
  8
部品1
100
AcDbCircle
 10
8418.211832875723
 20
1901.716186515549
 30
0.0
 40
22.5
100
AcDbArc
 50
180.0
 51
270.0
  0
LINE
  5
270B6
330
747D
100
AcDbEntity
  8
部品1
100
AcDbLine
 10
8463.211832875723
 20
1879.216186515548
 30
0.0
 11
8463.211832875723
 21
1901.716186515549
 31
0.0
  0
LINE
  5
270B7
330
747D
100
AcDbEntity
  8
部品1
100
AcDbLine
 10
8485.711832875722
 20
1777.966186515547
 30
0.0
 11
8328.211832875714
 21
1777.966186515547
 31
0.0
  0
LINE
  5
270B8
330
747D
100
AcDbEntity
  8
細線
 48
50.0
100
AcDbLine
 10
7970.211832875715
 20
1468.876539626281
 30
0.0
 11
8004.30147976499
 21
1502.966186515548
 31
0.0
  0
LINE
  5
270B9
330
747D
100
AcDbEntity
  8
細線
 48
50.0
100
AcDbLine
 10
7970.211832875715
 20
1435.200579172267
 30
0.0
 11
8037.977440219005
 21
1502.966186515548
 31
0.0
  0
LINE
  5
270BA
330
747D
100
AcDbEntity
  8
部品1
 48
50.0
100
AcDbLine
 10
7970.211832875722
 20
1502.966186515548
 30
0.0
 11
8130.211832875721
 21
1502.966186515548
 31
0.0
  0
LINE
  5
270BB
330
747D
100
AcDbEntity
  8
細線
 48
50.0
100
AcDbLine
 10
8130.211832875721
 20
1628.87653962628
 30
0.0
 11
8328.211832875714
 21
1826.876539626274
 31
0.0
  0
LINE
  5
270BC
330
747D
100
AcDbEntity
  8
細線
 48
50.0
100
AcDbLine
 10
8130.211832875721
 20
1595.200579172271
 30
0.0
 11
8328.211832875714
 21
1793.200579172256
 31
0.0
  0
LINE
  5
270BD
330
747D
100
AcDbEntity
  8
細線
 48
50.0
100
AcDbLine
 10
8130.211832875721
 20
1561.524618718261
 30
0.0
 11
8346.653400673018
 21
1777.966186515547
 31
0.0
  0
LINE
  5
270BE
330
747D
100
AcDbEntity
  8
細線
 48
50.0
100
AcDbLine
 10
8557.353945813963
 20
1172.966186515549
 30
0.0
 11
8549.315470041033
 21
1202.966186515549
 31
0.0
  0
LINE
  5
270BF
330
747D
100
AcDbEntity
  8
細線
 48
50.0
100
AcDbLine
 10
8655.964001998011
 20
1172.966186515549
 30
0.0
 11
8647.925526225078
 21
1202.966186515549
 31
0.0
  0
LINE
  5
270C0
330
747D
100
AcDbEntity
  8
細線
 48
50.0
100
AcDbLine
 10
8360.13383344585
 20
1172.966186515549
 30
0.0
 11
8352.095357672917
 21
1202.966186515549
 31
0.0
  0
LINE
  5
270C1
330
747D
100
AcDbEntity
  8
細線
 48
50.0
100
AcDbLine
 10
8458.743889629907
 20
1172.966186515549
 30
0.0
 11
8450.705413856974
 21
1202.966186515549
 31
0.0
  0
LINE
  5
270C2
330
747D
100
AcDbEntity
  8
細線
 48
50.0
100
AcDbLine
 10
8530.559026570854
 20
1072.966186515549
 30
0.0
 11
8538.597502343789
 21
1042.966186515549
 31
0.0
  0
LINE
  5
270C3
330
747D
100
AcDbEntity
  8
細線
 48
50.0
100
AcDbLine
 10
8629.169082754911
 20
1072.966186515549
 30
0.0
 11
8637.207558527858
 21
1042.966186515549
 31
0.0
  0
LINE
  5
270C4
330
747D
100
AcDbEntity
  8
細線
 48
50.0
100
AcDbLine
 10
8333.338914202739
 20
1072.966186515549
 30
0.0
 11
8341.377389975672
 21
1042.966186515549
 31
0.0
  0
LINE
  5
270C5
330
747D
100
AcDbEntity
  8
細線
 48
50.0
100
AcDbLine
 10
8431.948970386796
 20
1072.966186515549
 30
0.0
 11
8439.987446159728
 21
1042.966186515549
 31
0.0
  0
LINE
  5
270C6
330
747D
100
AcDbEntity
  8
細線
 48
50.0
100
AcDbLine
 10
8325.300438429797
 20
1042.966186515549
 30
0.0
 11
8368.172309218781
 21
1202.966186515547
 31
0.0
  0
LINE
  5
270C7
330
747D
100
AcDbEntity
  8
細線
 48
50.0
100
AcDbLine
 10
8522.520550797912
 20
1042.966186515549
 30
0.0
 11
8565.392421586896
 21
1202.966186515547
 31
0.0
  0
LINE
  5
270C8
330
747D
100
AcDbEntity
  8
細線
 48
50.0
100
AcDbLine
 10
8423.91049461386
 20
1042.966186515547
 30
0.0
 11
8466.782365402838
 21
1202.966186515547
 31
0.0
  0
LINE
  5
270C9
330
747D
100
AcDbEntity
  8
細線
 48
50.0
100
AcDbLine
 10
8621.130606981976
 20
1042.966186515547
 30
0.0
 11
8664.002477770941
 21
1202.966186515549
 31
0.0
  0
LINE
  5
270CA
330
747D
100
AcDbEntity
  8
細線
 48
50.0
100
AcDbLine
 10
8162.913721077726
 20
1172.966186515549
 30
0.0
 11
8154.875245304795
 21
1202.966186515549
 31
0.0
  0
LINE
  5
270CB
330
747D
100
AcDbEntity
  8
細線
 48
50.0
100
AcDbLine
 10
8261.523777261793
 20
1172.966186515549
 30
0.0
 11
8253.48530148886
 21
1202.966186515549
 31
0.0
  0
LINE
  5
270CC
330
747D
100
AcDbEntity
  8
細線
 48
50.0
100
AcDbLine
 10
7965.693608709597
 20
1172.966186515549
 30
0.0
 11
7957.655132936665
 21
1202.966186515549
 31
0.0
  0
LINE
  5
270CD
330
747D
100
AcDbEntity
  8
細線
 48
50.0
100
AcDbLine
 10
7870.211832875722
 20
1184.641087722774
 30
0.0
 11
7875.122028298467
 21
1202.966186515549
 31
0.0
  0
LINE
  5
270CE
330
747D
100
AcDbEntity
  8
細線
 48
50.0
100
AcDbLine
 10
8064.303664893662
 20
1172.966186515549
 30
0.0
 11
8056.265189120729
 21
1202.966186515549
 31
0.0
  0
LINE
  5
270CF
330
747D
100
AcDbEntity
  8
細線
 48
50.0
100
AcDbLine
 10
8136.118801834617
 20
1072.966186515549
 30
0.0
 11
8144.157277607551
 21
1042.966186515549
 31
0.0
  0
LINE
  5
270D0
330
747D
100
AcDbEntity
  8
細線
 48
50.0
100
AcDbLine
 10
8234.728858018682
 20
1072.966186515549
 30
0.0
 11
8242.767333791613
 21
1042.966186515549
 31
0.0
  0
LINE
  5
270D1
330
747D
100
AcDbEntity
  8
細線
 48
50.0
100
AcDbLine
 10
7938.898689466487
 20
1072.966186515549
 30
0.0
 11
7946.93716523942
 21
1042.966186515549
 31
0.0
  0
LINE
  5
270D2
330
747D
100
AcDbEntity
  8
細線
 48
50.0
100
AcDbLine
 10
8037.508745650551
 20
1072.966186515549
 30
0.0
 11
8045.547221423486
 21
1042.966186515549
 31
0.0
  0
LINE
  5
270D3
330
747D
100
AcDbEntity
  8
細線
 48
50.0
100
AcDbLine
 10
8128.080326061674
 20
1042.966186515547
 30
0.0
 11
8170.952196850654
 21
1202.966186515547
 31
0.0
  0
LINE
  5
270D4
330
747D
100
AcDbEntity
  8
細線
 48
50.0
100
AcDbLine
 10
7930.860213693546
 20
1042.966186515547
 30
0.0
 11
7973.732084482526
 21
1202.966186515547
 31
0.0
  0
LINE
  5
270D5
330
747D
100
AcDbEntity
  8
部品1
 48
50.0
100
AcDbLine
 10
7870.211832875725
 20
1042.966186515549
 30
0.0
 11
7870.211832875725
 21
1202.966186515549
 31
0.0
  0
LINE
  5
270D6
330
747D
100
AcDbEntity
  8
細線
 48
50.0
100
AcDbLine
 10
8029.470269877618
 20
1042.966186515549
 30
0.0
 11
8072.342140666597
 21
1202.966186515549
 31
0.0
  0
LINE
  5
270D7
330
747D
100
AcDbEntity
  8
細線
 48
50.0
100
AcDbLine
 10
8226.69038224574
 20
1042.966186515549
 30
0.0
 11
8269.562253034719
 21
1202.966186515549
 31
0.0
  0
LINE
  5
270D8
330
747D
100
AcDbEntity
  8
細線
 48
50.0
100
AcDbLine
 10
8243.11684702914
 20
1202.966186515549
 30
0.0
 11
8647.711832875721
 21
1607.561172362131
 31
0.0
  0
LINE
  5
270D9
330
747D
100
AcDbEntity
  8
細線
 48
50.0
100
AcDbLine
 10
8310.468767937157
 20
1202.966186515549
 30
0.0
 11
8647.711832875724
 21
1540.209251454121
 31
0.0
  0
LINE
  5
270DA
330
747D
100
AcDbEntity
  8
細線
 48
50.0
100
AcDbLine
 10
8276.79280748315
 20
1202.966186515549
 30
0.0
 11
8647.711832875724
 21
1573.885211908114
 31
0.0
  0
LINE
  5
270DB
330
747D
100
AcDbEntity
  8
細線
 48
50.0
100
AcDbLine
 10
8007.385123851078
 20
1202.966186515549
 30
0.0
 11
8647.711832875724
 21
1843.292895540191
 31
0.0
  0
LINE
  5
270DC
330
747D
100
AcDbEntity
  8
細線
 48
50.0
100
AcDbLine
 10
8041.061084305082
 20
1202.966186515549
 30
0.0
 11
8647.711832875724
 21
1809.616935086184
 31
0.0
  0
LINE
  5
270DD
330
747D
100
AcDbEntity
  8
細線
 48
50.0
100
AcDbLine
 10
7973.709163397065
 20
1202.966186515549
 30
0.0
 11
8647.711832875721
 21
1876.968855994206
 31
0.0
  0
LINE
  5
270DE
330
747D
100
AcDbEntity
  8
部品1
 48
50.0
100
AcDbLine
 10
7970.211832875722
 20
1202.966186515549
 30
0.0
 11
7970.211832875722
 21
1502.966186515548
 31
0.0
  0
LINE
  5
270DF
330
747D
100
AcDbEntity
  8
細線
 48
50.0
100
AcDbLine
 10
7970.211832875715
 20
1401.524618718262
 30
0.0
 11
8071.653400673008
 21
1502.966186515548
 31
0.0
  0
LWPOLYLINE
  5
270E0
330
747D
100
AcDbEntity
  8
部品1
 48
50.0
100
AcDbPolyline
 90
        2
 70
     0
 43
10.0
 10
7612.536955584527
 20
1882.966186515549
 10
8130.211832875721
 20
1882.966186515549
  0
LINE
  5
270E1
330
747D
100
AcDbEntity
  8
細線
 48
50.0
100
AcDbLine
 10
8485.711832875724
 20
1984.376539626284
 30
0.0
 11
8647.711832875724
 21
2146.376539626283
 31
0.0
  0
LINE
  5
270E2
330
747D
100
AcDbEntity
  8
細線
 48
50.0
100
AcDbLine
 10
8485.711832875724
 20
1950.700579172262
 30
0.0
 11
8647.711832875724
 21
2112.700579172258
 31
0.0
  0
LINE
  5
270E3
330
747D
100
AcDbEntity
  8
細線
 48
50.0
100
AcDbLine
 10
8485.711832875724
 20
1917.024618718247
 30
0.0
 11
8647.711832875724
 21
2079.024618718236
 31
0.0
  0
LINE
  5
270E4
330
747D
100
AcDbEntity
  8
部品1
100
AcDbLine
 10
8328.211832875714
 20
1777.966186515548
 30
0.0
 11
8328.211832875721
 21
2182.966186515549
 31
0.0
  0
LINE
  5
270E5
330
747D
100
AcDbEntity
  8
部品1
100
AcDbLine
 10
8485.711832875722
 20
1777.966186515548
 30
0.0
 11
8485.711832875722
 21
2182.966186515549
 31
0.0
  0
LINE
  5
270E6
330
747D
100
AcDbEntity
  8
部品1
 48
50.0
100
AcDbLine
 10
8130.211832875721
 20
1502.966186515548
 30
0.0
 11
8130.211832875721
 21
2182.966186515549
 31
0.0
  0
LINE
  5
270E7
330
747D
100
AcDbEntity
  8
細線
 48
50.0
100
AcDbLine
 10
8130.211832875721
 20
1830.932302350337
 30
0.0
 11
8328.211832875716
 21
2028.932302350328
 31
0.0
  0
TEXT
  5
270E8
330
747D
100
AcDbEntity
  8
部品1
 48
50.0
100
AcDbText
 10
7612.536955584527
 20
1897.014926869618
 30
0.0
 40
100.0
  1
▽G.L
  7
STYLE2
100
AcDbText
  0
LINE
  5
270E9
330
747D
100
AcDbEntity
  8
細線
 48
50.0
100
AcDbLine
 10
8130.211832875721
 20
1864.608262804345
 30
0.0
 11
8328.211832875721
 21
2062.608262804342
 31
0.0
  0
LINE
  5
270EA
330
747D
100
AcDbEntity
  8
細線
 48
50.0
100
AcDbLine
 10
8130.211832875721
 20
1898.284223258355
 30
0.0
 11
8328.211832875721
 21
2096.284223258352
 31
0.0
  0
LINE
  5
270EB
330
747D
100
AcDbEntity
  8
部品1
100
AcDbLine
 10
8395.711832875724
 20
1901.716186515549
 30
0.0
 11
8395.711832875718
 21
2244.416186515549
 31
0.0
  0
LINE
  5
270EC
330
747D
100
AcDbEntity
  8
部品1
100
AcDbLine
 10
8418.211832875723
 20
1901.716186515549
 30
0.0
 11
8418.211832875718
 21
2244.416186515549
 31
0.0
  0
LINE
  5
270ED
330
747D
100
AcDbEntity
  8
部品1
100
AcDbLine
 10
8647.711832875721
 20
1502.966186515548
 30
0.0
 11
8647.711832875724
 21
2182.966186515549
 31
0.0
  0
LINE
  5
270EE
330
747D
100
AcDbEntity
  8
細線
 48
50.0
100
AcDbLine
 10
6005.162691404229
 20
2100.339985982412
 30
0.0
 11
6087.788891937367
 21
2182.966186515549
 31
0.0
  0
LINE
  5
270EF
330
747D
100
AcDbEntity
  8
細線
 48
50.0
100
AcDbLine
 10
6005.162691404229
 20
2134.015946436421
 30
0.0
 11
6054.112931483362
 21
2182.966186515549
 31
0.0
  0
LINE
  5
270F0
330
747D
100
AcDbEntity
  8
細線
 48
50.0
100
AcDbLine
 10
6005.162691404229
 20
2167.691906890429
 30
0.0
 11
6020.43697102935
 21
2182.966186515549
 31
0.0
  0
LINE
  5
270F1
330
747D
100
AcDbEntity
  8
部品1
 48
50.0
100
AcDbLine
 10
6005.162691404229
 20
2182.966186515549
 30
0.0
 11
6245.16269140423
 21
2182.966186515549
 31
0.0
  0
DIMENSION
  5
270F2
330
747D
100
AcDbEntity
  8
寸法
 48
50.0
100
AcDbDimension
  2
*D32
 10
6005.162691404229
 20
2582.966186515549
 30
0.0
 11
6125.16269140423
 21
2582.966186515549
 31
0.0
 70
   160
  1
120\P(195)
 71
     5
 42
240.0000000000009
  3
INABA_S40G
100
AcDbAlignedDimension
 13
6245.16269140423
 23
2182.966186515549
 33
0.0
 14
6005.162691404229
 24
2182.966186515549
 34
0.0
100
AcDbRotatedDimension
1001
ACAD
1000
DSTYLE
1002
{
1070
   341
1005
0
1002
}
  0
LINE
  5
270F3
330
747D
100
AcDbEntity
  8
細線
 48
50.0
100
AcDbLine
 10
6140.778219532318
 20
2033.899751386444
 30
0.0
 11
6245.16269140423
 21
2138.284223258355
 31
0.0
  0
LINE
  5
270F4
330
747D
100
AcDbEntity
  8
細線
 48
50.0
100
AcDbLine
 10
6154.603575486714
 20
2014.049146886826
 30
0.0
 11
6245.16269140423
 21
2104.608262804346
 31
0.0
  0
LINE
  5
270F5
330
747D
100
AcDbEntity
  8
部品1
 48
50.0
100
AcDbLine
 10
6245.16269140423
 20
1502.966186515548
 30
0.0
 11
6405.162691404232
 21
1502.966186515548
 31
0.0
  0
MTEXT
  5
270F6
102
{ACAD_REACTORS
330
2714B
102
}
330
747D
100
AcDbEntity
  8
寸法
 62
     7
 48
50.0
100
AcDbMText
 10
6348.770112688484
 20
1681.891619767803
 30
0.0
 40
100.0
 41
1.0
 71
     4
 72
     1
  1
D13
  7
STYLE2
 73
     1
 44
1.0
1001
ACAD
1000
MTEXTBEGIN
1070
    73
1070
     1
1070
    44
1040
1.0
1070
    74
1070
     0
1000
MTEXTEND
  0
LWPOLYLINE
  5
270F7
330
747D
100
AcDbEntity
  8
部品1
 48
50.0
100
AcDbPolyline
 90
        2
 70
     0
 43
10.0
 10
6245.16269140423
 20
1882.966186515549
 10
6762.837568695426
 20
1882.966186515549
  0
LINE
  5
270F8
330
747D
100
AcDbEntity
  8
細線
 48
50.0
100
AcDbLine
 10
6432.304804342473
 20
1172.966186515549
 30
0.0
 11
6424.26632856954
 21
1202.966186515549
 31
0.0
  0
LINE
  5
270F9
330
747D
100
AcDbEntity
  8
細線
 48
50.0
100
AcDbLine
 10
6235.084691974358
 20
1172.966186515549
 30
0.0
 11
6227.046216201425
 21
1202.966186515549
 31
0.0
  0
LINE
  5
270FA
330
747D
100
AcDbEntity
  8
細線
 48
50.0
100
AcDbLine
 10
6387.475389189723
 20
1202.966186515549
 30
0.0
 11
6405.162691404232
 21
1220.653488730057
 31
0.0
  0
LINE
  5
270FB
330
747D
100
AcDbEntity
  8
細線
 48
50.0
100
AcDbLine
 10
6333.694748158417
 20
1172.966186515549
 30
0.0
 11
6325.656272385482
 21
1202.966186515549
 31
0.0
  0
CIRCLE
  5
270FC
330
747D
100
AcDbEntity
  8
部品1
 48
50.0
100
AcDbCircle
 10
6285.162691404231
 20
1352.966186515548
 30
0.0
 40
10.0
  0
LINE
  5
270FD
330
747D
100
AcDbEntity
  8
部品1
 48
50.0
100
AcDbLine
 10
6335.162691404231
 20
1342.966186515548
 30
0.0
 11
6335.162691404231
 21
1322.966186515548
 31
0.0
  0
LINE
  5
270FE
330
747D
100
AcDbEntity
  8
細線
 48
50.0
100
AcDbLine
 10
6325.419626465665
 20
1342.966186515548
 30
0.0
 11
6405.162691404232
 21
1422.709251454113
 31
0.0
  0
LINE
  5
270FF
330
747D
100
AcDbEntity
  8
細線
 48
50.0
100
AcDbLine
 10
6496.081465510482
 20
1042.966186515547
 30
0.0
 11
6505.16269140423
 21
1076.857782946034
 31
0.0
  0
LINE
  5
27100
330
747D
100
AcDbEntity
  8
細線
 48
50.0
100
AcDbLine
 10
6504.119941283417
 20
1072.966186515549
 30
0.0
 11
6505.16269140423
 21
1069.074590085093
 31
0.0
  0
LINE
  5
27101
330
747D
100
AcDbEntity
  8
細線
 48
50.0
100
AcDbLine
 10
6306.899828915304
 20
1072.966186515549
 30
0.0
 11
6314.938304688237
 21
1042.966186515549
 31
0.0
  0
LINE
  5
27102
330
747D
100
AcDbEntity
  8
細線
 48
50.0
100
AcDbLine
 10
6405.509885099362
 20
1072.966186515549
 30
0.0
 11
6413.548360872295
 21
1042.966186515549
 31
0.0
  0
LINE
  5
27103
330
747D
100
AcDbEntity
  8
細線
 48
50.0
100
AcDbLine
 10
6298.861353142367
 20
1042.966186515547
 30
0.0
 11
6341.733223931345
 21
1202.966186515547
 31
0.0
  0
LINE
  5
27104
330
747D
100
AcDbEntity
  8
細線
 48
50.0
100
AcDbLine
 10
6397.471409326421
 20
1042.966186515549
 30
0.0
 11
6440.343280115403
 21
1202.966186515547
 31
0.0
  0
LINE
  5
27105
330
747D
100
AcDbEntity
  8
部品1
 48
50.0
100
AcDbLine
 10
6505.162691404233
 20
1202.966186515549
 30
0.0
 11
6505.162691404233
 21
1042.966186515549
 31
0.0
  0
MTEXT
  5
27106
102
{ACAD_REACTORS
330
27107
102
}
330
747D
100
AcDbEntity
  8
寸法
 62
     7
 48
50.0
100
AcDbMText
 10
6534.322266162587
 20
1308.719850336833
 30
0.0
 40
100.0
 41
1.0
 71
     4
 72
     1
  1
D10
  7
STYLE2
 73
     1
 44
1.0
1001
ACAD
1000
MTEXTBEGIN
1070
    73
1070
     1
1070
    44
1040
1.0
1070
    74
1070
     0
1000
MTEXTEND
  0
LEADER
  5
27107
330
747D
100
AcDbEntity
  8
寸法
 48
50.0
100
AcDbLeader
  3
INABA_S40G
 71
     0
 73
     0
 74
     0
 75
     1
 40
100.0
 41
225.0
 76
     3
 10
6285.041381844409
 20
1352.966186515548
 30
0.0
 10
6409.322266162587
 20
1233.719850336832
 30
0.0
 10
6509.322266162588
 20
1233.719850336832
 30
0.0
1001
ACAD
1000
DSTYLE
1002
{
1070
   341
1005
0
1002
}
  0
LINE
  5
27108
330
747D
100
AcDbEntity
  8
部品1
 48
50.0
100
AcDbLine
 10
6405.162691404232
 20
1502.966186515548
 30
0.0
 11
6405.162691404232
 21
1202.966186515549
 31
0.0
  0
LINE
  5
27109
330
747D
100
AcDbEntity
  8
細線
 48
50.0
100
AcDbLine
 10
6258.067705557639
 20
1342.966186515548
 30
0.0
 11
6405.162691404232
 21
1490.061172362131
 31
0.0
  0
LINE
  5
2710A
330
747D
100
AcDbEntity
  8
細線
 48
50.0
100
AcDbLine
 10
6291.74366601166
 20
1342.966186515548
 30
0.0
 11
6405.162691404232
 21
1456.385211908122
 31
0.0
  0
LINE
  5
2710B
330
747D
100
AcDbEntity
  8
部品1
 48
50.0
100
AcDbLine
 10
6115.162691404231
 20
1935.625204886951
 30
0.0
 11
6095.16269140423
 21
1935.625204886956
 31
0.0
  0
LINE
  5
2710C
330
747D
100
AcDbEntity
  8
部品1
 48
50.0
100
AcDbLine
 10
6095.16269140423
 20
1935.625204886956
 30
0.0
 11
6095.16269140423
 21
2008.284223258355
 31
0.0
  0
LINE
  5
2710D
330
747D
100
AcDbEntity
  8
部品1
 48
50.0
100
AcDbLine
 10
6115.162691404231
 20
1935.625204886951
 30
0.0
 11
6115.162691404231
 21
2008.284223258355
 31
0.0
  0
LINE
  5
2710E
330
747D
100
AcDbEntity
  8
細線
 48
50.0
100
AcDbLine
 10
6115.162691404231
 20
1974.608262804346
 30
0.0
 11
6135.16269140423
 21
1994.608262804345
 31
0.0
  0
LINE
  5
2710F
330
747D
100
AcDbEntity
  8
細線
 48
50.0
100
AcDbLine
 10
6115.162691404231
 20
1940.932302350336
 30
0.0
 11
6135.16269140423
 21
1960.932302350337
 31
0.0
  0
LINE
  5
27110
330
747D
100
AcDbEntity
  8
細線
 48
50.0
100
AcDbLine
 10
6005.162691404229
 20
1830.932302350337
 30
0.0
 11
6109.855593940848
 21
1935.625204886951
 31
0.0
  0
LINE
  5
27111
330
747D
100
AcDbEntity
  8
細線
 48
50.0
100
AcDbLine
 10
6005.162691404229
 20
1864.608262804345
 30
0.0
 11
6095.16269140423
 21
1954.608262804345
 31
0.0
  0
LINE
  5
27112
330
747D
100
AcDbEntity
  8
細線
 48
50.0
100
AcDbLine
 10
6005.162691404229
 20
1898.284223258355
 30
0.0
 11
6095.16269140423
 21
1988.284223258355
 31
0.0
  0
CIRCLE
  5
27113
330
747D
100
AcDbEntity
  8
部品1
 48
50.0
100
AcDbCircle
 10
6125.162691404239
 20
1680.625204886951
 30
0.0
 40
10.0
  0
LINE
  5
27114
330
747D
100
AcDbEntity
  8
細線
 48
50.0
100
AcDbLine
 10
6131.769737544346
 20
1688.13166485837
 30
0.0
 11
6135.162691404237
 21
1691.524618718261
 31
0.0
  0
LINE
  5
27115
330
747D
100
AcDbEntity
  8
細線
 48
50.0
100
AcDbLine
 10
5845.162691404222
 20
1435.200579172267
 30
0.0
 11
5912.928298747512
 21
1502.966186515548
 31
0.0
  0
LINE
  5
27116
330
747D
100
AcDbEntity
  8
部品1
 48
50.0
100
AcDbLine
 10
5845.16269140423
 20
1502.966186515548
 30
0.0
 11
6005.162691404229
 21
1502.966186515548
 31
0.0
  0
LINE
  5
27117
330
747D
100
AcDbEntity
  8
細線
 48
50.0
100
AcDbLine
 10
5845.162691404222
 20
1468.876539626281
 30
0.0
 11
5879.252338293497
 21
1502.966186515548
 31
0.0
  0
LINE
  5
27118
330
747D
100
AcDbEntity
  8
細線
 48
50.0
100
AcDbLine
 10
6005.162691404229
 20
1561.524618718261
 30
0.0
 11
6117.656231432819
 21
1674.018158746846
 31
0.0
  0
LINE
  5
27119
330
747D
100
AcDbEntity
  8
細線
 48
50.0
100
AcDbLine
 10
6005.162691404229
 20
1628.87653962628
 30
0.0
 11
6135.16269140423
 21
1758.876539626281
 31
0.0
  0
LINE
  5
2711A
330
747D
100
AcDbEntity
  8
細線
 48
50.0
100
AcDbLine
 10
6005.162691404229
 20
1595.200579172271
 30
0.0
 11
6135.162691404237
 21
1725.200579172275
 31
0.0
  0
LWPOLYLINE
  5
2711B
330
747D
100
AcDbEntity
  8
部品1
 48
50.0
100
AcDbPolyline
 90
        2
 70
     0
 43
10.0
 10
5487.487814113035
 20
1882.966186515549
 10
6005.162691404229
 20
1882.966186515549
  0
LINE
  5
2711C
330
747D
100
AcDbEntity
  8
部品1
 48
50.0
100
AcDbLine
 10
6115.162691404231
 20
1425.625204886952
 30
0.0
 11
6095.16269140423
 21
1425.625204886952
 31
0.0
  0
LINE
  5
2711D
330
747D
100
AcDbEntity
  8
細線
 48
50.0
100
AcDbLine
 10
6037.864579606235
 20
1172.966186515549
 30
0.0
 11
6029.826103833302
 21
1202.966186515549
 31
0.0
  0
LINE
  5
2711E
330
747D
100
AcDbEntity
  8
細線
 48
50.0
100
AcDbLine
 10
6056.011942833591
 20
1342.966186515548
 30
0.0
 11
6095.16269140423
 21
1382.116935086187
 31
0.0
  0
LINE
  5
2711F
330
747D
100
AcDbEntity
  8
細線
 48
50.0
100
AcDbLine
 10
6022.335982379587
 20
1342.966186515548
 30
0.0
 11
6095.16269140423
 21
1415.792895540197
 31
0.0
  0
ARC
  5
27120
330
747D
100
AcDbEntity
  8
部品1
 48
50.0
100
AcDbCircle
 10
6125.16269140423
 20
1352.966186515548
 30
0.0
 40
30.0
100
AcDbArc
 50
180.0
 51
199.4712206344835
  0
LINE
  5
27121
330
747D
100
AcDbEntity
  8
部品1
 48
50.0
100
AcDbLine
 10
6095.16269140423
 20
1425.625204886952
 30
0.0
 11
6095.16269140423
 21
1352.966186515548
 31
0.0
  0
LINE
  5
27122
330
747D
100
AcDbEntity
  8
細線
 48
50.0
100
AcDbLine
 10
6136.474635790301
 20
1172.966186515549
 30
0.0
 11
6128.436160017367
 21
1202.966186515549
 31
0.0
  0
ARC
  5
27123
330
747D
100
AcDbEntity
  8
部品1
 48
50.0
100
AcDbCircle
 10
6125.16269140423
 20
1352.966186515548
 30
0.0
 40
30.0
100
AcDbArc
 50
340.5287793655164
 51
0.0
  0
LINE
  5
27124
330
747D
100
AcDbEntity
  8
部品1
 48
50.0
100
AcDbLine
 10
6115.162691404231
 20
1425.625204886952
 30
0.0
 11
6115.162691404231
 21
1352.966186515548
 31
0.0
  0
CIRCLE
  5
27125
330
747D
100
AcDbEntity
  8
部品1
 48
50.0
100
AcDbCircle
 10
6125.16269140423
 20
1352.966186515548
 30
0.0
 40
10.0
  0
LINE
  5
27126
330
747D
100
AcDbEntity
  8
細線
 48
50.0
100
AcDbLine
 10
6115.162691404231
 20
1402.116935086187
 30
0.0
 11
6135.162691404237
 21
1422.116935086187
 31
0.0
  0
LINE
  5
27127
330
747D
100
AcDbEntity
  8
細線
 48
50.0
100
AcDbLine
 10
5848.660021925573
 20
1202.966186515549
 30
0.0
 11
5968.660021925572
 21
1322.966186515548
 31
0.0
  0
LINE
  5
27128
330
747D
100
AcDbEntity
  8
細線
 48
50.0
100
AcDbLine
 10
5882.335982379585
 20
1202.966186515549
 30
0.0
 11
6002.335982379586
 21
1322.966186515548
 31
0.0
  0
LINE
  5
27129
330
747D
100
AcDbEntity
  8
細線
 48
50.0
100
AcDbLine
 10
5840.644467238106
 20
1172.966186515549
 30
0.0
 11
5832.605991465172
 21
1202.966186515549
 31
0.0
  0
LINE
  5
2712A
330
747D
100
AcDbEntity
  8
細線
 48
50.0
100
AcDbLine
 10
5939.254523422171
 20
1172.966186515549
 30
0.0
 11
5931.216047649237
 21
1202.966186515549
 31
0.0
  0
CIRCLE
  5
2712B
330
747D
100
AcDbEntity
  8
部品1
 48
50.0
100
AcDbCircle
 10
5965.162691404229
 20
1352.966186515548
 30
0.0
 40
10.0
  0
LINE
  5
2712C
330
747D
100
AcDbEntity
  8
部品1
 48
50.0
100
AcDbLine
 10
5915.162691404229
 20
1342.966186515548
 30
0.0
 11
5915.162691404229
 21
1322.966186515548
 31
0.0
  0
LINE
  5
2712D
330
747D
100
AcDbEntity
  8
細線
 48
50.0
100
AcDbLine
 10
5916.011942833591
 20
1202.966186515549
 30
0.0
 11
6036.011942833591
 21
1322.966186515548
 31
0.0
  0
LINE
  5
2712E
330
747D
100
AcDbEntity
  8
細線
 48
50.0
100
AcDbLine
 10
6109.67971654719
 20
1072.966186515549
 30
0.0
 11
6117.718192320122
 21
1042.966186515549
 31
0.0
  0
LINE
  5
2712F
330
747D
100
AcDbEntity
  8
細線
 48
50.0
100
AcDbLine
 10
6011.069660363124
 20
1072.966186515549
 30
0.0
 11
6019.108136136057
 21
1042.966186515549
 31
0.0
  0
LINE
  5
27130
330
747D
100
AcDbEntity
  8
細線
 48
50.0
100
AcDbLine
 10
5813.849547994994
 20
1072.966186515549
 30
0.0
 11
5821.888023767929
 21
1042.966186515549
 31
0.0
  0
LINE
  5
27131
330
747D
100
AcDbEntity
  8
細線
 48
50.0
100
AcDbLine
 10
5912.459604179059
 20
1072.966186515549
 30
0.0
 11
5920.498079951991
 21
1042.966186515549
 31
0.0
  0
LINE
  5
27132
330
747D
100
AcDbEntity
  8
細線
 48
50.0
100
AcDbLine
 10
6101.641240774246
 20
1042.966186515549
 30
0.0
 11
6144.513111563226
 21
1202.966186515549
 31
0.0
  0
LINE
  5
27133
330
747D
100
AcDbEntity
  8
細線
 48
50.0
100
AcDbLine
 10
5904.421128406125
 20
1042.966186515549
 30
0.0
 11
5947.292999195104
 21
1202.966186515549
 31
0.0
  0
LINE
  5
27134
330
747D
100
AcDbEntity
  8
細線
 48
50.0
100
AcDbLine
 10
5805.811072222053
 20
1042.966186515547
 30
0.0
 11
5848.682943011032
 21
1202.966186515547
 31
0.0
  0
LINE
  5
27135
330
747D
100
AcDbEntity
  8
細線
 48
50.0
100
AcDbLine
 10
6003.031184590184
 20
1042.966186515547
 30
0.0
 11
6045.903055379163
 21
1202.966186515547
 31
0.0
  0
LINE
  5
27136
330
747D
100
AcDbEntity
  8
細線
 48
50.0
100
AcDbLine
 10
5745.162691404229
 20
1184.641087722774
 30
0.0
 11
5750.072886826974
 21
1202.966186515549
 31
0.0
  0
MTEXT
  5
27137
102
{ACAD_REACTORS
330
27139
102
}
330
747D
100
AcDbEntity
  8
寸法
 62
     7
 48
50.0
100
AcDbMText
 10
5631.493908660237
 20
1098.562819492503
 30
0.0
 40
100.0
 41
1.0
 71
     6
 72
     1
  1
D10
  7
STYLE2
 73
     1
 44
1.0
1001
ACAD
1000
MTEXTBEGIN
1070
    73
1070
     1
1070
    44
1040
1.0
1070
    74
1070
     0
1000
MTEXTEND
  0
LINE
  5
27138
330
747D
100
AcDbEntity
  8
部品1
 48
50.0
100
AcDbLine
 10
5745.162691404234
 20
1042.966186515549
 30
0.0
 11
5745.162691404234
 21
1202.966186515549
 31
0.0
  0
LEADER
  5
27139
330
747D
100
AcDbEntity
  8
寸法
 48
50.0
100
AcDbLeader
  3
INABA_S40G
 71
     0
 73
     0
 75
     1
 40
100.0
 41
225.0
 76
     3
 10
5965.041381844408
 20
1352.966186515548
 30
0.0
 10
5756.493908660236
 20
1023.562819492503
 30
0.0
 10
5656.493908660237
 20
1023.562819492503
 30
0.0
1001
ACAD
1000
DSTYLE
1002
{
1070
   341
1005
0
1002
}
  0
LINE
  5
2713A
330
747D
100
AcDbEntity
  8
部品1
 48
50.0
100
AcDbLine
 10
6135.162691404237
 20
1352.966186515548
 30
0.0
 11
6135.162691404222
 21
2008.284223258355
 31
0.0
  0
LINE
  5
2713B
330
747D
100
AcDbEntity
  8
部品1
 48
50.0
100
AcDbLine
 10
6155.162691404237
 20
1352.966186515548
 30
0.0
 11
6155.162691404231
 21
2008.284223258355
 31
0.0
  0
LINE
  5
2713C
330
747D
100
AcDbEntity
  8
細線
 48
50.0
100
AcDbLine
 10
5988.660021925572
 20
1342.966186515548
 30
0.0
 11
6135.16269140423
 21
1489.468855994205
 31
0.0
  0
LINE
  5
2713D
330
747D
100
AcDbEntity
  8
細線
 48
50.0
100
AcDbLine
 10
6104.995000750985
 20
1425.625204886952
 30
0.0
 11
6135.162691404237
 21
1455.792895540199
 31
0.0
  0
LINE
  5
2713E
330
747D
100
AcDbEntity
  8
部品1
 48
50.0
100
AcDbLine
 10
5845.16269140423
 20
1202.966186515549
 30
0.0
 11
5845.16269140423
 21
1502.966186515548
 31
0.0
  0
DIMENSION
  5
2713F
330
747D
100
AcDbEntity
  8
寸法
 48
50.0
100
AcDbDimension
  2
*D33
 10
5667.137299238655
 20
1202.966186515548
 30
0.0
 11
5667.137299238655
 21
1352.966186515548
 31
0.0
 70
   160
  1
150
 71
     5
 42
300.0
  3
INABA_S40G
100
AcDbAlignedDimension
 13
5845.16269140423
 23
1502.966186515548
 33
0.0
 14
5745.162691404234
 24
1202.966186515548
 34
0.0
 50
90.0
100
AcDbRotatedDimension
1001
ACAD
1000
DSTYLE
1002
{
1070
   341
1005
0
1002
}
  0
LINE
  5
27140
330
747D
100
AcDbEntity
  8
細線
 48
50.0
100
AcDbLine
 10
5845.162691404222
 20
1401.524618718262
 30
0.0
 11
5946.604259201516
 21
1502.966186515548
 31
0.0
  0
LINE
  5
27141
330
747D
100
AcDbEntity
  8
細線
 48
50.0
100
AcDbLine
 10
6155.162691404231
 20
1778.876539626281
 30
0.0
 11
6245.16269140423
 21
1868.87653962628
 31
0.0
  0
LINE
  5
27142
330
747D
100
AcDbEntity
  8
部品1
 48
50.0
100
AcDbLine
 10
5915.162691404229
 20
1342.966186515548
 30
0.0
 11
6335.162691404231
 21
1342.966186515548
 31
0.0
  0
LINE
  5
27143
330
747D
100
AcDbEntity
  8
部品1
 48
50.0
100
AcDbLine
 10
5915.162691404229
 20
1322.966186515548
 30
0.0
 11
6335.162691404231
 21
1322.966186515548
 31
0.0
  0
LINE
  5
27144
330
747D
100
AcDbEntity
  8
部品1
 48
50.0
100
AcDbLine
 10
6505.162691404233
 20
1202.966186515549
 30
0.0
 11
5745.162691404234
 21
1202.966186515549
 31
0.0
  0
LINE
  5
27145
330
747D
100
AcDbEntity
  8
部品1
 48
50.0
100
AcDbLine
 10
6505.162691404233
 20
1042.966186515549
 30
0.0
 11
5745.162691404234
 21
1042.966186515549
 31
0.0
  0
LINE
  5
27146
330
747D
100
AcDbEntity
  8
細線
 48
50.0
100
AcDbLine
 10
6185.419626465666
 20
1202.966186515549
 30
0.0
 11
6305.420736272086
 21
1322.967296321972
 31
0.0
  0
LINE
  5
27147
330
747D
100
AcDbEntity
  8
細線
 48
50.0
100
AcDbLine
 10
6151.74366601166
 20
1202.966186515549
 30
0.0
 11
6271.74366601166
 21
1322.966186515548
 31
0.0
  0
LINE
  5
27148
330
747D
100
AcDbEntity
  8
細線
 48
50.0
100
AcDbLine
 10
6118.067705557648
 20
1202.966186515549
 30
0.0
 11
6238.067705557648
 21
1322.966186515548
 31
0.0
  0
LINE
  5
27149
330
747D
100
AcDbEntity
  8
細線
 48
50.0
100
AcDbLine
 10
6208.289772731248
 20
1072.966186515549
 30
0.0
 11
6216.328248504181
 21
1042.966186515549
 31
0.0
  0
LINE
  5
2714A
330
747D
100
AcDbEntity
  8
細線
 48
50.0
100
AcDbLine
 10
6200.251296958306
 20
1042.966186515549
 30
0.0
 11
6243.123167747288
 21
1202.966186515547
 31
0.0
  0
LEADER
  5
2714B
330
747D
100
AcDbEntity
  8
寸法
 48
50.0
100
AcDbLeader
  3
INABA_S40G
 71
     0
 73
     0
 74
     0
 75
     1
 40
100.0
 41
222.7272727272727
 76
     3
 10
6125.162691404239
 20
1680.625204886951
 30
0.0
 10
6223.770112688482
 20
1606.891619767803
 30
0.0
 10
6323.770112688482
 20
1606.891619767803
 30
0.0
1001
ACAD
1000
DSTYLE
1002
{
1070
   341
1005
0
1002
}
  0
LINE
  5
2714C
330
747D
100
AcDbEntity
  8
細線
 48
50.0
100
AcDbLine
 10
6155.162691404237
 20
1475.792895540199
 30
0.0
 11
6245.162691404223
 21
1565.792895540193
 31
0.0
  0
LINE
  5
2714D
330
747D
100
AcDbEntity
  8
細線
 48
50.0
100
AcDbLine
 10
6155.162691404237
 20
1509.468855994209
 30
0.0
 11
6245.162691404223
 21
1599.468855994205
 31
0.0
  0
LINE
  5
2714E
330
747D
100
AcDbEntity
  8
細線
 48
50.0
100
AcDbLine
 10
6155.162691404237
 20
1442.116935086187
 30
0.0
 11
6245.162691404223
 21
1532.116935086187
 31
0.0
  0
LINE
  5
2714F
330
747D
100
AcDbEntity
  8
細線
 48
50.0
100
AcDbLine
 10
6155.162691404237
 20
1745.200579172275
 30
0.0
 11
6245.162691404223
 21
1835.200579172268
 31
0.0
  0
LINE
  5
27150
330
747D
100
AcDbEntity
  8
細線
 48
50.0
100
AcDbLine
 10
6155.162691404237
 20
1711.524618718262
 30
0.0
 11
6245.162691404223
 21
1801.524618718261
 31
0.0
  0
LEADER
  5
27151
330
747D
100
AcDbEntity
  8
寸法
 48
50.0
100
AcDbLeader
  3
INABA_S40G
 71
     0
 73
     0
 74
     0
 75
     1
 40
100.0
 41
222.7272727272727
 76
     3
 10
6125.16269140423
 20
2008.284223258355
 30
0.0
 10
6223.770112688473
 20
1934.550638139208
 30
0.0
 10
6323.770112688473
 20
1934.550638139208
 30
0.0
1001
ACAD
1000
DSTYLE
1002
{
1070
   341
1005
0
1002
}
  0
LINE
  5
27152
330
747D
100
AcDbEntity
  8
部品1
 48
50.0
100
AcDbLine
 10
6245.16269140423
 20
2182.966186515549
 30
0.0
 11
6245.16269140423
 21
1502.966186515548
 31
0.0
  0
LINE
  5
27153
330
747D
100
AcDbEntity
  8
部品1
 48
50.0
100
AcDbLine
 10
6005.162691404229
 20
1502.966186515548
 30
0.0
 11
6005.162691404229
 21
2182.966186515549
 31
0.0
  0
ARC
  5
27154
330
747D
100
AcDbEntity
  8
部品1
 48
50.0
100
AcDbCircle
 10
6125.16269140423
 20
2008.284223258355
 30
0.0
 40
30.0
100
AcDbArc
 50
0.0
 51
180.0
  0
TEXT
  5
27155
330
747D
100
AcDbEntity
  8
部品1
 48
50.0
100
AcDbText
 10
5487.487814113035
 20
1897.014926869618
 30
0.0
 40
100.0
  1
▽G.L
  7
STYLE2
100
AcDbText
  0
MTEXT
  5
27156
102
{ACAD_REACTORS
330
27151
102
}
330
747D
100
AcDbEntity
  8
寸法
 62
     7
 48
50.0
100
AcDbMText
 10
6348.770112688473
 20
2009.550638139208
 30
0.0
 40
100.0
 41
1.0
 71
     4
 72
     1
  1
D13
  7
STYLE2
 73
     1
 44
1.0
1001
ACAD
1000
MTEXTBEGIN
1070
    73
1070
     1
1070
    44
1040
1.0
1070
    74
1070
     0
1000
MTEXTEND
  0
LINE
  5
27157
330
747D
100
AcDbEntity
  8
細線
 48
50.0
100
AcDbLine
 10
6155.162691404231
 20
1980.932302350337
 30
0.0
 11
6245.16269140423
 21
2070.932302350337
 31
0.0
  0
CIRCLE
  5
27158
330
747D
100
AcDbEntity
  8
部品1
 48
50.0
100
AcDbCircle
 10
6125.16269140423
 20
2008.284223258355
 30
0.0
 40
10.0
  0
MTEXT
  5
27159
102
{ACAD_REACTORS
330
2715A
102
}
330
747D
100
AcDbEntity
  8
寸法
 62
     7
 48
50.0
100
AcDbMText
 10
6547.335761230794
 20
981.2798293503563
 30
0.0
 40
100.0
 41
1.0
 71
     4
 72
     1
  1
\A1;D10@300
  7
STYLE2
 73
     1
 44
1.0
1001
ACAD
1000
MTEXTBEGIN
1070
    73
1070
     1
1070
    44
1040
1.0
1070
    74
1070
     0
1000
MTEXTEND
  0
LEADER
  5
2715A
330
747D
100
AcDbEntity
  8
寸法
 48
50.0
100
AcDbLeader
  3
INABA_S40G
 71
     0
 73
     0
 74
     0
 75
     1
 40
100.0
 41
540.3409090909091
 76
     3
 10
6217.594152670696
 20
1332.04052349864
 30
0.0
 10
6422.335761230795
 20
905.0020010050198
 30
0.0
 10
6522.335761230795
 20
905.0020010050198
 30
0.0
213
0.0
223
-1.277828345336728
233
0.0
1001
ACAD
1000
DSTYLE
1002
{
1070
   341
1005
0
1002
}
  0
MTEXT
  5
2715B
102
{ACAD_REACTORS
330
2715C
102
}
330
747D
100
AcDbEntity
  8
寸法
 62
     7
 48
50.0
100
AcDbMText
 10
8046.431742444552
 20
2835.217927638238
 30
0.0
 40
100.0
 41
1.0
 71
     6
 72
     1
  1
アンカープレート {\fArial|b0|i0|c0|p32;U}
  7
STYLE2
 73
     1
 44
1.0
1001
ACAD
1000
MTEXTBEGIN
1070
    73
1070
     1
1070
    44
1040
1.0
1070
    74
1070
     0
1000
MTEXTEND
  0
LEADER
  5
2715C
330
747D
100
AcDbEntity
  8
寸法
 48
50.0
100
AcDbLeader
  3
INABA_S40G
 73
     0
 75
     1
 40
132.9545454545455
 41
1129.404378023068
 76
     3
 10
8294.46183287572
 20
2269.916186515549
 30
0.0
 10
8186.43174244455
 20
2728.740654910965
 30
0.0
 10
8086.431742444551
 20
2728.740654910965
 30
0.0
340
2715B
1001
ACAD
1000
DSTYLE
1002
{
1070
   341
1005
0
1002
}
  0
DIMENSION
  5
2715D
330
747D
100
AcDbEntity
  8
寸法
 48
50.0
100
AcDbDimension
  2
*D34
 10
6405.162691404232
 20
744.0140800596146
 30
0.0
 11
6125.16269140423
 21
744.0140800596146
 31
0.0
 70
   160
  1
300
 71
     5
 42
560.0000000000018
  3
INABA_S40G
100
AcDbAlignedDimension
 13
5845.16269140423
 23
1042.966186515548
 33
0.0
 14
6405.162691404232
 24
1042.966186515548
 34
0.0
100
AcDbRotatedDimension
1001
ACAD
1000
DSTYLE
1002
{
1070
   341
1005
0
1002
}
  0
LEADER
  5
2715E
330
747D
100
AcDbEntity
  8
寸法
 48
50.0
100
AcDbLeader
  3
INABA_S40G
 71
     0
 73
     0
 75
     1
 40
100.0
 41
222.7272727272727
 76
     3
 10
6125.16269140423
 20
1352.966186515548
 30
0.0
 10
5791.647318107031
 20
798.1676288181989
 30
0.0
 10
5691.647318107031
 20
798.1676288181989
 30
0.0
1001
ACAD
1000
DSTYLE
1002
{
1070
   341
1005
0
1002
}
  0
MTEXT
  5
2715F
102
{ACAD_REACTORS
330
2715E
102
}
330
747D
100
AcDbEntity
  8
寸法
 62
     7
 48
50.0
100
AcDbMText
 10
5666.647318107031
 20
873.1676288181988
 30
0.0
 40
100.0
 41
1.0
 71
     6
 72
     1
  1
D13
  7
STYLE2
 73
     1
 44
1.0
1001
ACAD
1000
MTEXTBEGIN
1070
    73
1070
     1
1070
    44
1040
1.0
1070
    74
1070
     0
1000
MTEXTEND
  0
DIMENSION
  5
27160
330
747D
100
AcDbEntity
  8
寸法
 48
50.0
100
AcDbDimension
  2
*D35
 10
5244.517753368166
 20
1202.966186515548
 30
0.0
 11
5244.517753368166
 21
1692.966186515548
 31
0.0
 70
   160
  1
540
 71
     5
 42
980.0
  3
INABA_S40G
100
AcDbAlignedDimension
 13
6005.162691404229
 23
2182.966186515549
 33
0.0
 14
5745.162691404234
 24
1202.966186515548
 34
0.0
 50
90.0
100
AcDbRotatedDimension
1001
ACAD
1000
DSTYLE
1002
{
1070
   341
1005
0
1002
}
  0
MTEXT
  5
27161
102
{ACAD_REACTORS
330
27162
102
}
330
747D
100
AcDbEntity
  8
寸法
 62
     7
 48
50.0
100
AcDbMText
 10
5921.244691485949
 20
2448.611461518102
 30
0.0
 40
100.0
 41
1.0
 71
     6
 72
     1
  1
\A1;金コテ押エ
  7
STYLE2
 73
     1
 44
1.0
1001
ACAD
1000
MTEXTBEGIN
1070
    73
1070
     1
1070
    44
1040
1.0
1070
    74
1070
     0
1000
MTEXTEND
  0
LEADER
  5
27162
330
747D
100
AcDbEntity
  8
寸法
 48
50.0
100
AcDbLeader
  3
INABA_S40G
 71
     0
 73
     0
 75
     1
 40
130.1136363636363
 41
651.1363636363636
 76
     3
 10
6105.162691404231
 20
2182.966186515549
 30
0.0
 10
6046.244691485949
 20
2358.554643336283
 30
0.0
 10
5946.244691485949
 20
2358.554643336283
 30
0.0
1001
ACAD
1000
DSTYLE
1002
{
1070
   341
1005
0
1002
}
  0
LEADER
  5
27163
330
747D
100
AcDbEntity
  8
寸法
 48
50.0
100
AcDbLeader
  3
INABA_S40G
 71
     0
 73
     0
 75
     1
 40
100.0
 41
540.3409090909091
 76
     3
 10
6135.16269140423
 20
1880.625204886951
 30
0.0
 10
6006.434895743359
 20
1603.787294210946
 30
0.0
 10
5906.434895743359
 20
1603.787294210946
 30
0.0
213
-12.16522788236671
223
-5.804645826423211
233
0.0
1001
ACAD
1000
DSTYLE
1002
{
1070
   341
1005
0
1002
}
  0
MTEXT
  5
27164
102
{ACAD_REACTORS
330
27163
102
}
330
747D
100
AcDbEntity
  8
寸法
 62
     7
 48
50.0
100
AcDbMText
 10
5893.600123625724
 20
1684.591940037369
 30
0.0
 40
100.0
 41
1.0
 71
     6
 72
     1
  1
\A1;D10@300
  7
STYLE2
 73
     1
 44
1.0
1001
ACAD
1000
MTEXTBEGIN
1070
    73
1070
     1
1070
    44
1040
1.0
1070
    74
1070
     0
1000
MTEXTEND
  0
MTEXT
  5
27165
102
{ACAD_REACTORS
330
27166
102
}
330
747D
100
AcDbEntity
  8
寸法
 62
     7
 48
50.0
100
AcDbMText
 10
8013.127984684102
 20
3286.07326752263
 30
0.0
 40
100.0
 41
1.0
 71
     6
 72
     1
  1
\A1;φ70スリーブ
  7
STYLE2
 73
     1
 44
1.0
1001
ACAD
1000
MTEXTBEGIN
1070
    73
1070
     1
1070
    44
1040
1.0
1070
    74
1070
     0
1000
MTEXTEND
  0
LEADER
  5
27166
330
747D
100
AcDbEntity
  8
寸法
 48
50.0
100
AcDbLeader
  3
INABA_S40G
 73
     0
 75
     1
 40
141.4772727272727
 41
760.7954545454546
 76
     3
 10
8367.882770548282
 20
2119.860778213397
 30
0.0
 10
8153.127984684102
 20
3175.334631158994
 30
0.0
 10
8053.127984684103
 20
3175.334631158994
 30
0.0
340
27165
1001
ACAD
1000
DSTYLE
1002
{
1070
   341
1005
0
1002
}
  0
LINE
  5
27167
330
747D
100
AcDbEntity
  8
部品1
100
AcDbLine
 10
4886.361999852451
 20
3834.180711236604
 30
0.0
 11
4886.361999852451
 21
575.1112118819169
 31
0.0
  0
TEXT
  5
27168
330
747D
100
AcDbEntity
  8
部品1
100
AcDbText
 10
7892.291108369093
 20
3609.74079629732
 30
0.0
 40
150.0
  1
基礎詳細
  7
STYLE2
100
AcDbText
  0
LINE
  5
27169
330
747D
100
AcDbEntity
  8
細線
 48
50.0
100
AcDbLine
 10
8546.200491115225
 20
1202.966186515549
 30
0.0
 11
8807.711832875723
 21
1464.47752827604
 31
0.0
  0
MTEXT
  5
2716A
102
{ACAD_REACTORS
330
2716B
102
}
330
747D
100
AcDbEntity
  8
部品1
 62
     7
 48
50.0
100
AcDbMText
 10
8696.801320836774
 20
3058.585402874624
 30
0.0
 40
100.0
 41
1.0
 71
     4
 72
     1
  1
\A1;ワッシャー(市販品)
  7
STYLE2
 73
     1
 44
1.0
1001
ACAD
1000
MTEXTBEGIN
1070
    73
1070
     1
1070
    44
1040
1.0
1070
    74
1070
     0
1000
MTEXTEND
  0
LEADER
  5
2716B
330
747D
100
AcDbEntity
  8
寸法
 48
50.0
100
AcDbLeader
  3
INABA_S40G
 73
     0
 74
     0
 75
     1
 40
127.8409090909091
 41
1133.522727272727
 76
     3
 10
8456.961832875723
 20
2519.370297070899
 30
0.0
 10
8556.801320836774
 20
2954.664948329169
 30
0.0
 10
8656.801320836775
 20
2954.664948329169
 30
0.0
340
2716A
1001
ACAD
1000
DSTYLE
1002
{
1070
   341
1005
0
1002
}
  0
LEADER
  5
2716C
330
747D
100
AcDbEntity
  8
寸法
 48
50.0
100
AcDbLeader
  3
INABA_S40G
 73
     0
 74
     0
 75
     1
 40
127.8409090909091
 41
850.0
 76
     3
 10
8426.961832875724
 20
2681.560287901977
 30
0.0
 10
8517.40429676742
 20
3185.876301785155
 30
0.0
 10
8617.40429676742
 20
3185.876301785155
 30
0.0
340
2716D
1001
ACAD
1000
DSTYLE
1002
{
1070
   341
1005
0
1002
}
  0
MTEXT
  5
2716D
102
{ACAD_REACTORS
330
2716C
102
}
330
747D
100
AcDbEntity
  8
部品1
 62
     7
 48
50.0
100
AcDbMText
 10
8657.40429676742
 20
3289.796756330609
 30
0.0
 40
100.0
 41
1.0
 71
     4
 72
     1
  1
\A1;ナット(市販品)
  7
STYLE2
 73
     1
 44
1.0
1001
ACAD
1000
MTEXTBEGIN
1070
    73
1070
     1
1070
    44
1040
1.0
1070
    74
1070
     0
1000
MTEXTEND
  0
LEADER
  5
2716E
330
747D
100
AcDbEntity
  8
寸法
 48
50.0
100
AcDbLeader
  3
INABA_S40G
 73
     0
 74
     0
 75
     1
 40
100.0
 41
543.75
 76
     3
 10
8418.211832875723
 20
2244.416186515549
 30
0.0
 10
8518.892410899871
 20
2423.445344207087
 30
0.0
 10
8618.892410899871
 20
2423.445344207087
 30
0.0
340
2716F
1001
ACAD
1000
DSTYLE
1002
{
1070
   341
1005
0
1002
}
  0
MTEXT
  5
2716F
102
{ACAD_REACTORS
330
2716E
102
}
330
747D
100
AcDbEntity
  8
部品1
 62
     7
 48
50.0
100
AcDbMText
 10
8658.892410899872
 20
2513.445344207087
 30
0.0
 40
100.0
 41
1.0
 71
     4
 72
     1
  1
M10X160
  7
STYLE2
 73
     1
 44
1.0
1001
ACAD
1000
MTEXTBEGIN
1070
    73
1070
     1
1070
    44
1040
1.0
1070
    74
1070
     0
1000
MTEXTEND
  0
DIMENSION
  5
27170
330
747D
100
AcDbEntity
  8
寸法
 48
50.0
100
AcDbDimension
  2
*D36
 10
9620.115915235558
 20
2182.966186515548
 30
0.0
 11
9620.115915235558
 21
1716.957283094067
 31
0.0
 70
   160
  1
20～25
 71
     5
 42
65.94999999999981
  3
INABA_S40G
100
AcDbAlignedDimension
 13
8413.711832875723
 23
2248.916186515549
 33
0.0
 14
8647.711832875724
 24
2182.966186515549
 34
0.0
 50
90.0
100
AcDbRotatedDimension
1001
ACAD
1000
DSTYLE
1002
{
1070
   341
1005
0
1002
}
  0
LINE
  5
27171
330
747D
100
AcDbEntity
  8
細線
 48
50.0
100
AcDbLine
 10
8512.524530661215
 20
1202.966186515549
 30
0.0
 11
8807.711832875723
 21
1498.153488730058
 31
0.0
  0
LINE
  5
27172
330
747D
100
AcDbEntity
  8
部品1
 48
50.0
100
AcDbLine
 10
8907.711832875724
 20
1042.966186515549
 30
0.0
 11
7870.211832875725
 21
1042.966186515549
 31
0.0
  0
LINE
  5
27173
330
747D
100
AcDbEntity
  8
部品1
 48
50.0
100
AcDbLine
 10
8907.711832875724
 20
1202.966186515549
 30
0.0
 11
7870.211832875725
 21
1202.966186515549
 31
0.0
  0
LINE
  5
27174
330
747D
100
AcDbEntity
  8
部品1
100
AcDbLine
 10
4886.361999852447
 20
575.1112118819169
 30
0.0
 11
11782.83669595048
 21
575.1112118819169
 31
0.0
  0
LINE
  5
27175
330
747D
100
AcDbEntity
  8
部品1
100
AcDbLine
 10
11782.83669595048
 20
3534.180711236604
 30
0.0
 11
4886.361999852447
 21
3534.180711236604
 31
0.0
  0
LINE
  5
27176
330
747D
100
AcDbEntity
  8
部品1
100
AcDbLine
 10
11782.83669595048
 20
3834.180711236604
 30
0.0
 11
4886.361999852447
 21
3834.180711236604
 31
0.0
  0
DIMENSION
  5
27177
330
747D
100
AcDbEntity
  8
寸法
 48
50.0
100
AcDbDimension
  2
*D37
 10
9275.047582586777
 20
1777.966186515546
 30
0.0
 11
9175.047582586778
 21
1980.466186515549
 31
0.0
 70
    32
  1
180
 71
     5
 42
405.0000000000018
  3
INABA_S40G
100
AcDbAlignedDimension
 13
8647.711832875724
 23
2182.966186515549
 33
0.0
 14
8647.711832875724
 24
1777.966186515547
 34
0.0
 50
90.0
100
AcDbRotatedDimension
1001
ACAD
1000
DSTYLE
1002
{
1070
   341
1005
0
1002
}
  0
LINE
  5
27178
330
747D
100
AcDbEntity
  8
細線
 48
50.0
100
AcDbLine
 10
8579.876451569232
 20
1202.966186515549
 30
0.0
 11
8807.711832875723
 21
1430.801567822043
 31
0.0
  0
LINE
  5
27179
330
747D
100
AcDbEntity
  8
部品1
 48
50.0
100
AcDbLine
 10
8647.711832875724
 20
1502.966186515548
 30
0.0
 11
8807.711832875723
 21
1502.966186515548
 31
0.0
  0
TEXT
  5
2717A
330
747D
100
AcDbEntity
  8
部品1
 48
50.0
100
AcDbText
 10
8653.153813231257
 20
2627.8145374683
 30
0.0
 40
100.0
  1
基礎ボルト(市販品)
  7
STYLE2
100
AcDbText
  0
LWPOLYLINE
  5
2717B
330
747D
100
AcDbEntity
  8
部品1
 48
50.0
100
AcDbPolyline
 90
        2
 70
     0
 43
10.0
 10
8647.711832875724
 20
1882.966186515549
 10
9014.839912124953
 20
1882.966186515549
  0
ENDSEC
  0
SECTION
  2
OBJECTS
  0
DICTIONARY
  5
7471
330
0
100
AcDbDictionary
281
     1
  3
ACAD_COLOR
350
173D2
  3
ACAD_GROUP
350
7472
  3
ACAD_LAYOUT
350
173D3
  3
ACAD_MATERIAL
350
173D1
  3
ACAD_MLINESTYLE
350
7473
  3
ACAD_PLOTSETTINGS
350
173D4
  3
ACAD_PLOTSTYLENAME
350
173CF
  3
ACDBHEADERROUNDTRIPXREC
350
27399
  3
AcDbVariableDictionary
350
27395
  3
CONTENTDICTIONARY
350
E71C
  3
DRAWINGVARIABLESDICT
350
F3B9
  0
DICTIONARY
  5
1758F
330
7467
100
AcDbDictionary
280
     1
281
     1
  3
ACAD_LAYERSTATES
360
17590
  0
DICTIONARY
  5
173D2
102
{ACAD_REACTORS
330
7471
102
}
330
7471
100
AcDbDictionary
281
     1
  0
DICTIONARY
  5
7472
102
{ACAD_REACTORS
330
7471
102
}
330
7471
100
AcDbDictionary
281
     1
  3
*A1
350
1D2A9
  3
*A2
350
25148
  0
DICTIONARY
  5
173D3
102
{ACAD_REACTORS
330
7471
102
}
330
7471
100
AcDbDictionary
281
     1
  3
Model
350
173D5
  3
レイアウト1
350
173D6
  0
DICTIONARY
  5
173D1
102
{ACAD_REACTORS
330
7471
102
}
330
7471
100
AcDbDictionary
281
     1
  0
DICTIONARY
  5
7473
102
{ACAD_REACTORS
330
7471
102
}
330
7471
100
AcDbDictionary
281
     1
  3
STANDARD
350
7480
  0
DICTIONARY
  5
173D4
102
{ACAD_REACTORS
330
7471
102
}
330
7471
100
AcDbDictionary
281
     1
  0
ACDBDICTIONARYWDFLT
  5
173CF
102
{ACAD_REACTORS
330
7471
102
}
330
7471
100
AcDbDictionary
281
     1
  3
Normal
350
173D0
100
AcDbDictionaryWithDefault
340
173D0
  0
DICTIONARY
  5
27399
102
{ACAD_REACTORS
330
7471
102
}
330
7471
100
AcDbDictionary
281
     1
  3
COLORDICT
350
2739B
  3
MATERIALDICT
350
2739A
  0
DICTIONARY
  5
27395
102
{ACAD_REACTORS
330
7471
102
}
330
7471
100
AcDbDictionary
281
     1
  3
DIMASSOC
350
27396
  3
PROJECTNAME
350
27397
  0
DICTIONARY
  5
E71C
102
{ACAD_REACTORS
330
7471
102
}
330
7471
100
AcDbDictionary
281
     1
  0
DICTIONARY
  5
F3B9
102
{ACAD_REACTORS
330
7471
102
}
330
7471
100
AcDbDictionary
281
     1
1001
DRAWINGVARIABLESXDATA
1000
POLARMODE
1000
1
  0
DICTIONARY
  5
17590
102
{ACAD_REACTORS
330
1758F
102
}
330
1758F
100
AcDbDictionary
281
     1
  0
GROUP
  5
1D2A9
102
{ACAD_REACTORS
330
7472
102
}
330
7472
100
AcDbGroup
300

 70
     1
 71
     1
  0
GROUP
  5
25148
102
{ACAD_REACTORS
330
7472
102
}
330
7472
100
AcDbGroup
300

 70
     1
 71
     1
  0
LAYOUT
  5
173D5
102
{ACAD_XDICTIONARY
360
2739C
102
}
102
{ACAD_REACTORS
330
173D3
102
}
330
173D3
100
AcDbPlotSettings
  1

  2
クセロPDF
  4
A3
  6

 40
3.174999952316284
 41
3.174999952316284
 42
3.17498779296875
 43
3.17498779296875
 44
419.9466552734374
 45
296.9259948730469
 46
0.0
 47
0.0
 48
0.0
 49
0.0
140
0.0
141
0.0
142
1.0
143
40.0
 70
 11952
 72
     1
 73
     0
 74
     2
  7
inaba.ctb
 75
    24
147
0.025
148
0.0
149
0.0
100
AcDbLayout
  1
Model
 70
     1
 71
     0
 10
0.0
 20
0.0
 11
12.0
 21
9.0
 12
0.0
 22
0.0
 32
0.0
 14
0.0
 24
0.0
 34
0.0
 15
0.0
 25
0.0
 35
0.0
146
0.0
 13
0.0
 23
0.0
 33
0.0
 16
1.0
 26
0.0
 36
0.0
 17
0.0
 27
1.0
 37
0.0
 76
     0
330
747D
  0
LAYOUT
  5
173D6
102
{ACAD_XDICTIONARY
360
2739E
102
}
102
{ACAD_REACTORS
330
173D3
102
}
330
173D3
100
AcDbPlotSettings
  1

  2
Microsoft Office Document Image Writer
  4

  6

 40
0.0
 41
0.0
 42
0.0
 43
0.0
 44
0.0
 45
0.0
 46
0.0
 47
0.0
 48
0.0
 49
0.0
140
0.0
141
0.0
142
1.0
143
1.0
 70
   688
 72
     0
 73
     0
 74
     5
  7

 75
    16
147
1.0
148
0.0
149
0.0
100
AcDbLayout
  1
レイアウト1
 70
     0
 71
     1
 10
0.0
 20
0.0
 11
420.0
 21
297.0
 12
0.0
 22
0.0
 32
0.0
 14
1.000000000000000E+20
 24
1.000000000000000E+20
 34
1.000000000000000E+20
 15
-1.000000000000000E+20
 25
-1.000000000000000E+20
 35
-1.000000000000000E+20
146
0.0
 13
0.0
 23
0.0
 33
0.0
 16
1.0
 26
0.0
 36
0.0
 17
0.0
 27
1.0
 37
0.0
 76
     0
330
747A
  0
MLINESTYLE
  5
7480
102
{ACAD_REACTORS
330
7473
102
}
330
7473
100
AcDbMlineStyle
  2
STANDARD
 70
     0
  3

 62
     0
 51
90.0
 52
90.0
 71
     2
 49
0.5
 62
   256
  6
BYLAYER
 49
-0.5
 62
   256
  6
BYLAYER
  0
ACDBPLACEHOLDER
  5
173D0
102
{ACAD_REACTORS
330
173CF
102
}
330
173CF
  0
XRECORD
  5
2739B
102
{ACAD_REACTORS
330
27399
102
}
330
27399
100
AcDbXrecord
280
     1
340
173D2
  0
XRECORD
  5
2739A
102
{ACAD_REACTORS
330
27399
102
}
330
27399
100
AcDbXrecord
280
     1
340
173D1
  0
DICTIONARYVAR
  5
27396
102
{ACAD_REACTORS
330
27395
102
}
330
27395
100
DictionaryVariables
280
     0
  1
1
  0
DICTIONARYVAR
  5
27397
102
{ACAD_REACTORS
330
27395
102
}
330
27395
100
DictionaryVariables
280
     0
  1

  0
DICTIONARY
  5
2739C
330
173D5
100
AcDbDictionary
280
     1
281
     1
  3
ACAD_XREC_ROUNDTRIP
360
2739D
  0
DICTIONARY
  5
2739E
330
173D6
100
AcDbDictionary
280
     1
281
     1
  3
ACAD_XREC_ROUNDTRIP
360
2739F
  0
XRECORD
  5
2739D
102
{ACAD_REACTORS
330
2739C
102
}
330
2739C
100
AcDbXrecord
280
     1
102
SHADEPLOT
 70
     0
102
SHADEPLOTRESLEVEL
 70
     2
102
SHADEPLOTCUSTOMDPI
 70
   150
  0
XRECORD
  5
2739F
102
{ACAD_REACTORS
330
2739E
102
}
330
2739E
100
AcDbXrecord
280
     1
102
SHADEPLOT
 70
     0
102
SHADEPLOTRESLEVEL
 70
     2
102
SHADEPLOTCUSTOMDPI
 70
   300
  0
ENDSEC
  0
EOF
